  0
SECTION
  2
HEADER
  9
$ACADVER
  1
AC1015
  9
$ACADMAINTVER
 70
     6
  9
$DWGCODEPAGE
  3
ANSI_1252
  9
$INSBASE
 10
0.0
 20
0.0
 30
0.0
  9
$EXTMIN
 10
0.0
 20
0.0
 30
0.0
  9
$EXTMAX
 10
297.0
 20
210.0
 30
0.0
  9
$LIMMIN
 10
0.0
 20
0.0
  9
$LIMMAX
 10
297.0
 20
210.0
  9
$ORTHOMODE
 70
     0
  9
$REGENMODE
 70
     1
  9
$FILLMODE
 70
     1
  9
$QTEXTMODE
 70
     0
  9
$MIRRTEXT
 70
     1
  9
$LTSCALE
 40
1.0
  9
$ATTMODE
 70
     1
  9
$TEXTSIZE
 40
2.0
  9
$TRACEWID
 40
1.0
  9
$TEXTSTYLE
  7
Standard
  9
$CLAYER
  8
0
  9
$CELTYPE
  6
ByLayer
  9
$CECOLOR
 62
   256
  9
$CELTSCALE
 40
1.0
  9
$DISPSILH
 70
     0
  9
$DIMSCALE
 40
1.0
  9
$DIMASZ
 40
3.0
  9
$DIMEXO
 40
0.0
  9
$DIMDLI
 40
3.75
  9
$DIMRND
 40
0.0
  9
$DIMDLE
 40
0.0
  9
$DIMEXE
 40
1.0
  9
$DIMTP
 40
0.0
  9
$DIMTM
 40
0.0
  9
$DIMTXT
 40
2.0
  9
$DIMCEN
 40
2.5
  9
$DIMTSZ
 40
0.0
  9
$DIMTOL
 70
     0
  9
$DIMLIM
 70
     0
  9
$DIMTIH
 70
     1
  9
$DIMTOH
 70
     1
  9
$DIMSE1
 70
     0
  9
$DIMSE2
 70
     0
  9
$DIMTAD
 70
     1
  9
$DIMZIN
 70
     0
  9
$DIMBLK
  1

  9
$DIMASO
 70
     1
  9
$DIMSHO
 70
     1
  9
$DIMPOST
  1

  9
$DIMAPOST
  1

  9
$DIMALT
 70
     0
  9
$DIMALTD
 70
     3
  9
$DIMALTF
 40
0.0393700787
  9
$DIMLFAC
 40
1.0
  9
$DIMTOFL
 70
     1
  9
$DIMTVP
 40
0.0
  9
$DIMTIX
 70
     0
  9
$DIMSOXD
 70
     0
  9
$DIMSAH
 70
     0
  9
$DIMBLK1
  1

  9
$DIMBLK2
  1

  9
$DIMSTYLE
  2
ISO-25
  9
$DIMCLRD
 70
     0
  9
$DIMCLRE
 70
     0
  9
$DIMCLRT
 70
     0
  9
$DIMTFAC
 40
1.0
  9
$DIMGAP
 40
1.524
  9
$DIMJUST
 70
     0
  9
$DIMSD1
 70
     0
  9
$DIMSD2
 70
     0
  9
$DIMTOLJ
 70
     0
  9
$DIMTZIN
 70
     0
  9
$DIMALTZ
 70
     0
  9
$DIMALTTZ
 70
     0
  9
$DIMUPT
 70
     0
  9
$DIMDEC
 70
     2
  9
$DIMTDEC
 70
     3
  9
$DIMALTU
 70
     2
  9
$DIMALTTD
 70
     3
  9
$DIMTXSTY
  7
Standard
  9
$DIMAUNIT
 70
     0
  9
$DIMADEC
 70
     2
  9
$DIMALTRND
 40
0.0
  9
$DIMAZIN
 70
     0
  9
$DIMDSEP
 70
    44
  9
$DIMATFIT
 70
     3
  9
$DIMFRAC
 70
     0
  9
$DIMLDRBLK
  1

  9
$DIMLUNIT
 70
     2
  9
$DIMLWD
 70
    -2
  9
$DIMLWE
 70
    -2
  9
$DIMTMOVE
 70
     0
  9
$LUNITS
 70
     2
  9
$LUPREC
 70
     2
  9
$SKETCHINC
 40
1.0
  9
$FILLETRAD
 40
10.0
  9
$AUNITS
 70
     0
  9
$AUPREC
 70
     2
  9
$MENU
  1
.
  9
$ELEVATION
 40
0.0
  9
$PELEVATION
 40
0.0
  9
$THICKNESS
 40
0.0
  9
$LIMCHECK
 70
     0
  9
$CHAMFERA
 40
0.0
  9
$CHAMFERB
 40
0.0
  9
$CHAMFERC
 40
0.0
  9
$CHAMFERD
 40
0.0
  9
$SKPOLY
 70
     0
  9
$TDCREATE
 40
2458190.426224872
  9
$TDUCREATE
 40
2458190.384558206
  9
$TDUPDATE
 40
2458190.426226146
  9
$TDUUPDATE
 40
2458190.384559479
  9
$TDINDWG
 40
0.0000000116
  9
$TDUSRTIMER
 40
0.0000000116
  9
$USRTIMER
 70
     1
  9
$ANGBASE
 50
0.0
  9
$ANGDIR
 70
     0
  9
$PDMODE
 70
     0
  9
$PDSIZE
 40
-1.0
  9
$PLINEWID
 40
0.0
  9
$SPLFRAME
 70
     0
  9
$SPLINETYPE
 70
     6
  9
$SPLINESEGS
 70
     8
  9
$HANDSEED
  5
1F7
  9
$SURFTAB1
 70
     6
  9
$SURFTAB2
 70
     6
  9
$SURFTYPE
 70
     6
  9
$SURFU
 70
     6
  9
$SURFV
 70
     6
  9
$UCSBASE
  2

  9
$UCSNAME
  2

  9
$UCSORG
 10
0.0
 20
0.0
 30
0.0
  9
$UCSXDIR
 10
1.0
 20
0.0
 30
0.0
  9
$UCSYDIR
 10
0.0
 20
1.0
 30
0.0
  9
$UCSORTHOREF
  2

  9
$UCSORTHOVIEW
 70
     0
  9
$UCSORGTOP
 10
0.0
 20
0.0
 30
0.0
  9
$UCSORGBOTTOM
 10
0.0
 20
0.0
 30
0.0
  9
$UCSORGLEFT
 10
0.0
 20
0.0
 30
0.0
  9
$UCSORGRIGHT
 10
0.0
 20
0.0
 30
0.0
  9
$UCSORGFRONT
 10
0.0
 20
0.0
 30
0.0
  9
$UCSORGBACK
 10
0.0
 20
0.0
 30
0.0
  9
$PUCSBASE
  2

  9
$PUCSNAME
  2

  9
$PUCSORG
 10
0.0
 20
0.0
 30
0.0
  9
$PUCSXDIR
 10
1.0
 20
0.0
 30
0.0
  9
$PUCSYDIR
 10
0.0
 20
1.0
 30
0.0
  9
$PUCSORTHOREF
  2

  9
$PUCSORTHOVIEW
 70
     0
  9
$PUCSORGTOP
 10
0.0
 20
0.0
 30
0.0
  9
$PUCSORGBOTTOM
 10
0.0
 20
0.0
 30
0.0
  9
$PUCSORGLEFT
 10
0.0
 20
0.0
 30
0.0
  9
$PUCSORGRIGHT
 10
0.0
 20
0.0
 30
0.0
  9
$PUCSORGFRONT
 10
0.0
 20
0.0
 30
0.0
  9
$PUCSORGBACK
 10
0.0
 20
0.0
 30
0.0
  9
$USERI1
 70
     0
  9
$USERI2
 70
     0
  9
$USERI3
 70
     0
  9
$USERI4
 70
     0
  9
$USERI5
 70
     0
  9
$USERR1
 40
0.0
  9
$USERR2
 40
0.0
  9
$USERR3
 40
0.0
  9
$USERR4
 40
0.0
  9
$USERR5
 40
0.0
  9
$WORLDVIEW
 70
     1
  9
$SHADEDGE
 70
     3
  9
$SHADEDIF
 70
    70
  9
$TILEMODE
 70
     1
  9
$MAXACTVP
 70
    64
  9
$PINSBASE
 10
0.0
 20
0.0
 30
0.0
  9
$PLIMCHECK
 70
     0
  9
$PEXTMIN
 10
1.0000000000E+20
 20
1.0000000000E+20
 30
1.0000000000E+20
  9
$PEXTMAX
 10
-1.0000000000E+20
 20
-1.0000000000E+20
 30
-1.0000000000E+20
  9
$PLIMMIN
 10
0.0
 20
0.0
  9
$PLIMMAX
 10
420.0
 20
297.0
  9
$UNITMODE
 70
     0
  9
$VISRETAIN
 70
     1
  9
$PLINEGEN
 70
     0
  9
$PSLTSCALE
 70
     1
  9
$TREEDEPTH
 70
  3020
  9
$CMLSTYLE
  2
Standard
  9
$CMLJUST
 70
     0
  9
$CMLSCALE
 40
20.0
  9
$PROXYGRAPHICS
 70
     1
  9
$MEASUREMENT
 70
     1
  9
$CELWEIGHT
370
    -1
  9
$ENDCAPS
280
     0
  9
$JOINSTYLE
280
     0
  9
$LWDISPLAY
290
     1
  9
$INSUNITS
 70
     4
  9
$HYPERLINKBASE
  1

  9
$STYLESHEET
  1

  9
$XEDIT
290
     1
  9
$CEPSNTYPE
380
     0
  9
$PSTYLEMODE
290
     1
  9
$FINGERPRINTGUID
  2
{1FF8553A-13A3-4ECC-A5FB-0F18634F83C6}
  9
$VERSIONGUID
  2
{FAEB1C32-E019-11D5-929B-00C0DF256EC4}
  9
$EXTNAMES
290
     1
  9
$PSVPSCALE
 40
0.0
  9
$OLESTARTUP
290
     0
  0
ENDSEC
  0
SECTION
  2
CLASSES
  0
CLASS
  1
ACDBDICTIONARYWDFLT
  2
AcDbDictionaryWithDefault
  3
ObjectDBX Classes
 90
        0
280
     0
281
     0
  0
CLASS
  1
VISUALSTYLE
  2
AcDbVisualStyle
  3
ObjectDBX Classes
 90
     4095
280
     0
281
     0
  0
CLASS
  1
MATERIAL
  2
AcDbMaterial
  3
ObjectDBX Classes
 90
     1153
280
     0
281
     0
  0
CLASS
  1
SCALE
  2
AcDbScale
  3
ObjectDBX Classes
 90
     1153
280
     0
281
     0
  0
CLASS
  1
TABLESTYLE
  2
AcDbTableStyle
  3
ObjectDBX Classes
 90
     4095
280
     0
281
     0
  0
CLASS
  1
MLEADERSTYLE
  2
AcDbMLeaderStyle
  3
ACDB_MLEADERSTYLE_CLASS
 90
     4095
280
     0
281
     0
  0
CLASS
  1
SUN
  2
AcDbSun
  3
SCENEOE
 90
     1153
280
     0
281
     0
  0
CLASS
  1
ACDBPLACEHOLDER
  2
AcDbPlaceHolder
  3
ObjectDBX Classes
 90
        0
280
     0
281
     0
  0
CLASS
  1
LAYOUT
  2
AcDbLayout
  3
ObjectDBX Classes
 90
        0
280
     0
281
     0
  0
ENDSEC
  0
SECTION
  2
TABLES
  0
TABLE
  2
VPORT
  5
8
330
0
100
AcDbSymbolTable
 70
     1
  0
VPORT
  5
29
330
8
100
AcDbSymbolTableRecord
100
AcDbViewportTableRecord
  2
*Active
 70
     0
 10
0.0
 20
0.0
 11
1.0
 21
1.0
 12
148.5
 22
105.0
 13
0.0
 23
0.0
 14
10.0
 24
10.0
 15
10.0
 25
10.0
 16
0.0
 26
0.0
 36
1.0
 17
0.0
 27
0.0
 37
0.0
 40
210.0
 41
1.4142857143
 42
50.0
 43
0.0
 44
0.0
 50
0.0
 51
0.0
 71
     0
 72
  2000
 73
     1
 74
     3
 75
     0
 76
     0
 77
     0
 78
     0
281
     0
 65
     1
110
0.0
120
0.0
130
0.0
111
1.0
121
0.0
131
0.0
112
0.0
122
1.0
132
0.0
 79
     0
146
0.0
  0
ENDTAB
  0
TABLE
  2
LTYPE
  5
5
330
0
100
AcDbSymbolTable
 70
     6
  0
LTYPE
  5
14
330
5
100
AcDbSymbolTableRecord
100
AcDbLinetypeTableRecord
  2
ByBlock
 70
     0
  3

 72
    65
 73
     0
 40
0.0
  0
LTYPE
  5
15
330
5
100
AcDbSymbolTableRecord
100
AcDbLinetypeTableRecord
  2
ByLayer
 70
     0
  3

 72
    65
 73
     0
 40
0.0
  0
LTYPE
  5
16
330
5
100
AcDbSymbolTableRecord
100
AcDbLinetypeTableRecord
  2
Continuous
 70
     0
  3
Solid line
 72
    65
 73
     0
 40
0.0
  0
LTYPE
  5
6E
330
5
100
AcDbSymbolTableRecord
100
AcDbLinetypeTableRecord
  2
HIDDEN
 70
     0
  3
Hidden __ __ __ __ __ __ __ __ __ __ __ __ __ __
 72
    65
 73
     2
 40
1.905
 49
1.27
 74
     0
 49
-0.635
 74
     0
  0
LTYPE
  5
6F
330
5
100
AcDbSymbolTableRecord
100
AcDbLinetypeTableRecord
  2
PHANTOM
 70
     0
  3
Phantom ______  __  __  ______  __  __  ______
 72
    65
 73
     6
 40
12.7
 49
6.35
 74
     0
 49
-1.27
 74
     0
 49
1.27
 74
     0
 49
-1.27
 74
     0
 49
1.27
 74
     0
 49
-1.27
 74
     0
  0
LTYPE
  5
70
330
5
100
AcDbSymbolTableRecord
100
AcDbLinetypeTableRecord
  2
CENTER
 70
     0
  3
Center ____ _ ____ _ ____ _ ____ _ ____ _ ____
 72
    65
 73
     4
 40
10.16
 49
6.35
 74
     0
 49
-1.27
 74
     0
 49
1.27
 74
     0
 49
-1.27
 74
     0
  0
LTYPE
  5
71
330
5
100
AcDbSymbolTableRecord
100
AcDbLinetypeTableRecord
  2
CENTERX2
 70
     0
  3
Center (2x) ________  __  ________  __  _____
 72
    65
 73
     4
 40
20.32
 49
12.7
 74
     0
 49
-2.54
 74
     0
 49
2.54
 74
     0
 49
-2.54
 74
     0
  0
LTYPE
  5
72
330
5
100
AcDbSymbolTableRecord
100
AcDbLinetypeTableRecord
  2
DOT2
 70
     0
  3
Dot (.5x) ........................................
 72
    65
 73
     2
 40
0.635
 49
0.0
 74
     0
 49
-0.635
 74
     0
  0
ENDTAB
  0
TABLE
  2
LAYER
  5
2
330
0
100
AcDbSymbolTable
 70
     5
  0
LAYER
  5
10
330
2
100
AcDbSymbolTableRecord
100
AcDbLayerTableRecord
  2
0
 70
     0
 62
     7
  6
Continuous
370
    -3
390
F
  0
LAYER
  5
73
330
2
100
AcDbSymbolTableRecord
100
AcDbLayerTableRecord
  2
FORMAT
 70
     0
 62
     7
  6
Continuous
370
    -3
390
F
  0
LAYER
  5
74
330
2
100
AcDbSymbolTableRecord
100
AcDbLayerTableRecord
  2
VERMASSUNG
 70
     0
 62
     7
  6
Continuous
370
    -3
390
F
  0
LAYER
  5
75
330
2
100
AcDbSymbolTableRecord
100
AcDbLayerTableRecord
  2
KOPF_DÜNN
 70
     0
 62
     7
  6
Continuous
370
    -3
390
F
  0
LAYER
  5
76
330
2
100
AcDbSymbolTableRecord
100
AcDbLayerTableRecord
  2
KOPF_DICK
 70
     0
 62
     7
  6
Continuous
370
    25
390
F
  0
ENDTAB
  0
TABLE
  2
STYLE
  5
3
330
0
100
AcDbSymbolTable
 70
     3
  0
STYLE
  5
11
330
3
100
AcDbSymbolTableRecord
100
AcDbTextStyleTableRecord
  2
Standard
 70
     0
 40
0.0
 41
1.0
 50
0.0
 71
     0
 42
2.0
  3
txt
  4

  0
STYLE
  5
77
330
3
100
AcDbSymbolTableRecord
100
AcDbTextStyleTableRecord
  2
SLDTEXTSTYLE0
 70
     0
 40
0.0
 41
0.7
 50
0.0
 71
     0
 42
2.0
  3
TXT
  4

  0
STYLE
  5
7B
330
3
100
AcDbSymbolTableRecord
100
AcDbTextStyleTableRecord
  2
SLDTEXTSTYLE1
 70
     0
 40
0.0
 41
0.6444444444
 50
0.0
 71
     0
 42
2.0
  3
TXT
  4

  0
ENDTAB
  0
TABLE
  2
VIEW
  5
6
330
0
100
AcDbSymbolTable
 70
     0
  0
ENDTAB
  0
TABLE
  2
UCS
  5
7
330
0
100
AcDbSymbolTable
 70
     0
  0
ENDTAB
  0
TABLE
  2
APPID
  5
9
330
0
100
AcDbSymbolTable
 70
     1
  0
APPID
  5
12
330
9
100
AcDbSymbolTableRecord
100
AcDbRegAppTableRecord
  2
ACAD
 70
     0
  0
ENDTAB
  0
TABLE
  2
DIMSTYLE
  5
A
330
0
100
AcDbSymbolTable
 70
     2
100
AcDbDimStyleTable
  0
DIMSTYLE
105
27
330
A
100
AcDbSymbolTableRecord
100
AcDbDimStyleTableRecord
  2
ISO-25
 70
     0
 41
2.5
 42
0.625
 43
3.75
 44
1.25
 73
     0
 74
     0
 77
     1
 78
     8
140
2.5
141
2.5
143
0.0393700787
147
0.625
171
     3
172
     1
178
     0
271
     2
272
     2
274
     3
278
    44
283
     0
284
     8
340
11
  0
DIMSTYLE
105
128
102
{ACAD_REACTORS
330
127
330
134
330
13E
330
148
330
152
330
15E
102
}
330
A
100
AcDbSymbolTableRecord
100
AcDbDimStyleTableRecord
  2
SLDDIMSTYLE0
 70
     0
 41
3.0
 44
0.0
 45
0.000000001
 73
     0
 74
     0
 77
     1
 78
    12
 79
     3
140
2.0
147
0.5
173
     1
178
     0
271
     2
272
     3
276
     2
284
    12
340
77
  0
ENDTAB
  0
TABLE
  2
BLOCK_RECORD
  5
1
330
0
100
AcDbSymbolTable
 70
     7
  0
BLOCK_RECORD
  5
1F
330
1
100
AcDbSymbolTableRecord
100
AcDbBlockTableRecord
  2
*Model_Space
340
22
  0
BLOCK_RECORD
  5
1B
330
1
100
AcDbSymbolTableRecord
100
AcDbBlockTableRecord
  2
*Paper_Space
340
1E
  0
BLOCK_RECORD
  5
23
330
1
100
AcDbSymbolTableRecord
100
AcDbBlockTableRecord
  2
*Paper_Space0
340
26
  0
BLOCK_RECORD
  5
129
330
1
100
AcDbSymbolTableRecord
100
AcDbBlockTableRecord
  2
_D
340
0
  0
BLOCK_RECORD
  5
135
330
1
100
AcDbSymbolTableRecord
100
AcDbBlockTableRecord
  2
_D_1
340
0
  0
BLOCK_RECORD
  5
13F
330
1
100
AcDbSymbolTableRecord
100
AcDbBlockTableRecord
  2
_D_2
340
0
  0
BLOCK_RECORD
  5
149
330
1
100
AcDbSymbolTableRecord
100
AcDbBlockTableRecord
  2
_D_3
340
0
  0
BLOCK_RECORD
  5
153
330
1
100
AcDbSymbolTableRecord
100
AcDbBlockTableRecord
  2
_D_4
340
0
  0
BLOCK_RECORD
  5
15F
330
1
100
AcDbSymbolTableRecord
100
AcDbBlockTableRecord
  2
_D_5
340
0
  0
ENDTAB
  0
ENDSEC
  0
SECTION
  2
BLOCKS
  0
BLOCK
  5
20
330
1F
100
AcDbEntity
  8
0
100
AcDbBlockBegin
  2
*Model_Space
 70
     0
 10
0.0
 20
0.0
 30
0.0
  3
*Model_Space
  1

  0
ENDBLK
  5
21
330
1F
100
AcDbEntity
  8
0
100
AcDbBlockEnd
  0
BLOCK
  5
1C
330
1B
100
AcDbEntity
 67
     1
  8
0
100
AcDbBlockBegin
  2
*Paper_Space
 70
     0
 10
0.0
 20
0.0
 30
0.0
  3
*Paper_Space
  1

  0
ENDBLK
  5
1D
330
1B
100
AcDbEntity
 67
     1
  8
0
100
AcDbBlockEnd
  0
BLOCK
  5
24
330
23
100
AcDbEntity
  8
0
100
AcDbBlockBegin
  2
*Paper_Space0
 70
     0
 10
0.0
 20
0.0
 30
0.0
  3
*Paper_Space0
  1

  0
ENDBLK
  5
25
330
23
100
AcDbEntity
  8
0
100
AcDbBlockEnd
  0
BLOCK
  5
12A
330
129
100
AcDbEntity
  8
0
100
AcDbBlockBegin
  2
_D
 70
     0
 10
0.0
 20
0.0
 30
0.0
  3
_D
  1

  0
SOLID
  5
12C
330
129
100
AcDbEntity
  8
VERMASSUNG
100
AcDbTrace
 10
50.4852296011
 20
145.5197741273
 30
0.0
 11
50.0352296011
 21
142.5197741273
 31
0.0
 12
50.9352296011
 22
142.5197741273
 32
0.0
 13
50.9352296011
 23
142.5197741273
 33
0.0
  0
SOLID
  5
12D
330
129
100
AcDbEntity
  8
VERMASSUNG
100
AcDbTrace
 10
50.4852296011
 20
82.5197741273
 30
0.0
 11
50.9352296011
 21
85.5197741273
 31
0.0
 12
50.0352296011
 22
85.5197741273
 32
0.0
 13
50.0352296011
 23
85.5197741273
 33
0.0
  0
LINE
  5
12E
330
129
100
AcDbEntity
  8
VERMASSUNG
100
AcDbLine
 10
158.2669157738
 20
145.5197741273
 30
0.0
 11
49.4852296011
 21
145.5197741273
 31
0.0
  0
LINE
  5
12F
330
129
100
AcDbEntity
  8
VERMASSUNG
100
AcDbLine
 10
158.2669206839
 20
82.5197741273
 30
0.0
 11
49.4852296011
 21
82.5197741273
 31
0.0
  0
LINE
  5
130
330
129
100
AcDbEntity
  8
VERMASSUNG
100
AcDbLine
 10
50.4852296011
 20
145.5197741273
 30
0.0
 11
50.4852296011
 21
82.5197741273
 31
0.0
  0
MTEXT
  5
131
330
129
100
AcDbEntity
  8
VERMASSUNG
100
AcDbMText
 10
47.7070943449
 20
103.3166763829
 30
0.0
 40
2.0
 41
0.0
 71
     1
 72
     1
  1
MAS BT 40
  7
SLDTEXTSTYLE0
 11
-7.044195017643634E-15
 21
1.0
 31
0.0
 73
     1
 44
1.0
  0
MTEXT
  5
132
330
129
100
AcDbEntity
  8
VERMASSUNG
100
AcDbMText
 10
47.9070942962
 20
118.3166760477
 30
0.0
 40
2.0
 41
0.0
 71
     1
 72
     1
  1
%%c
  7
SLDTEXTSTYLE0
 11
-7.044195017643634E-15
 21
1.0
 31
0.0
 73
     1
 44
1.0
  0
MTEXT
  5
133
330
129
100
AcDbEntity
  8
VERMASSUNG
100
AcDbMText
 10
47.9070940051
 20
121.925157586
 30
0.0
 40
2.0
 41
0.0
 71
     1
 72
     1
  1
63
  7
SLDTEXTSTYLE0
 11
-7.044195017643634E-15
 21
1.0
 31
0.0
 73
     1
 44
1.0
  0
ENDBLK
  5
12B
330
129
100
AcDbEntity
  8
0
100
AcDbBlockEnd
  0
BLOCK
  5
136
330
135
100
AcDbEntity
  8
0
100
AcDbBlockBegin
  2
_D_1
 70
     0
 10
0.0
 20
0.0
 30
0.0
  3
_D_1
  1

  0
SOLID
  5
138
330
135
100
AcDbEntity
  8
VERMASSUNG
100
AcDbTrace
 10
68.8669199179
 20
164.6201866735
 30
0.0
 11
71.8669199179
 21
164.1701866735
 31
0.0
 12
71.8669199179
 22
165.0701866735
 32
0.0
 13
71.8669199179
 23
165.0701866735
 33
0.0
  0
SOLID
  5
139
330
135
100
AcDbEntity
  8
VERMASSUNG
100
AcDbTrace
 10
226.2669199179
 20
164.6201866735
 30
0.0
 11
223.2669199179
 21
165.0701866735
 31
0.0
 12
223.2669199179
 22
164.1701866735
 32
0.0
 13
223.2669199179
 23
164.1701866735
 33
0.0
  0
LINE
  5
13A
330
135
100
AcDbEntity
  8
VERMASSUNG
100
AcDbLine
 10
68.8669199179
 20
125.8425297243
 30
0.0
 11
68.8669199179
 21
165.6201866735
 31
0.0
  0
LINE
  5
13B
330
135
100
AcDbEntity
  8
VERMASSUNG
100
AcDbLine
 10
226.2669199179
 20
129.7197741273
 30
0.0
 11
226.2669199179
 21
165.6201866735
 31
0.0
  0
LINE
  5
13C
330
135
100
AcDbEntity
  8
VERMASSUNG
100
AcDbLine
 10
68.8669199179
 20
164.6201866735
 30
0.0
 11
226.2669199179
 21
164.6201866735
 31
0.0
  0
MTEXT
  5
13D
330
135
100
AcDbEntity
  8
VERMASSUNG
100
AcDbMText
 10
144.5678898427
 20
167.1983222695
 30
0.0
 40
2.0
 41
0.0
 71
     1
 72
     1
  1
157.4
  7
SLDTEXTSTYLE0
 73
     1
 44
1.0
  0
ENDBLK
  5
137
330
135
100
AcDbEntity
  8
0
100
AcDbBlockEnd
  0
BLOCK
  5
140
330
13F
100
AcDbEntity
  8
0
100
AcDbBlockBegin
  2
_D_2
 70
     0
 10
0.0
 20
0.0
 30
0.0
  3
_D_2
  1

  0
SOLID
  5
142
330
13F
100
AcDbEntity
  8
VERMASSUNG
100
AcDbTrace
 10
134.2669199179
 20
158.6201866735
 30
0.0
 11
137.2669199179
 21
158.1701866735
 31
0.0
 12
137.2669199179
 22
159.0701866735
 32
0.0
 13
137.2669199179
 23
159.0701866735
 33
0.0
  0
SOLID
  5
143
330
13F
100
AcDbEntity
  8
VERMASSUNG
100
AcDbTrace
 10
226.2669199179
 20
158.6201866735
 30
0.0
 11
223.2669199179
 21
159.0701866735
 31
0.0
 12
223.2669199179
 22
158.1701866735
 32
0.0
 13
223.2669199179
 23
158.1701866735
 33
0.0
  0
LINE
  5
144
330
13F
100
AcDbEntity
  8
VERMASSUNG
100
AcDbLine
 10
134.2669199179
 20
136.2447741273
 30
0.0
 11
134.2669199179
 21
159.6201866735
 31
0.0
  0
LINE
  5
145
330
13F
100
AcDbEntity
  8
VERMASSUNG
100
AcDbLine
 10
226.2669199179
 20
129.7197741273
 30
0.0
 11
226.2669199179
 21
159.6201866735
 31
0.0
  0
LINE
  5
146
330
13F
100
AcDbEntity
  8
VERMASSUNG
100
AcDbLine
 10
134.2669199179
 20
158.6201866735
 30
0.0
 11
226.2669199179
 21
158.6201866735
 31
0.0
  0
MTEXT
  5
147
330
13F
100
AcDbEntity
  8
VERMASSUNG
100
AcDbMText
 10
178.868062775
 20
161.1983222695
 30
0.0
 40
2.0
 41
0.0
 71
     1
 72
     1
  1
92
  7
SLDTEXTSTYLE0
 73
     1
 44
1.0
  0
ENDBLK
  5
141
330
13F
100
AcDbEntity
  8
0
100
AcDbBlockEnd
  0
BLOCK
  5
14A
330
149
100
AcDbEntity
  8
0
100
AcDbBlockBegin
  2
_D_3
 70
     0
 10
0.0
 20
0.0
 30
0.0
  3
_D_3
  1

  0
SOLID
  5
14C
330
149
100
AcDbEntity
  8
VERMASSUNG
100
AcDbTrace
 10
161.2669199179
 20
152.6201866735
 30
0.0
 11
164.2669199179
 21
152.1701866735
 31
0.0
 12
164.2669199179
 22
153.0701866735
 32
0.0
 13
164.2669199179
 23
153.0701866735
 33
0.0
  0
SOLID
  5
14D
330
149
100
AcDbEntity
  8
VERMASSUNG
100
AcDbTrace
 10
226.2669199179
 20
152.6201866735
 30
0.0
 11
223.2669199179
 21
153.0701866735
 31
0.0
 12
223.2669199179
 22
152.1701866735
 32
0.0
 13
223.2669199179
 23
152.1701866735
 33
0.0
  0
LINE
  5
14E
330
149
100
AcDbEntity
  8
VERMASSUNG
100
AcDbLine
 10
161.2669199179
 20
144.5197741273
 30
0.0
 11
161.2669199179
 21
153.6201866735
 31
0.0
  0
LINE
  5
14F
330
149
100
AcDbEntity
  8
VERMASSUNG
100
AcDbLine
 10
226.2669199179
 20
129.7197741273
 30
0.0
 11
226.2669199179
 21
153.6201866735
 31
0.0
  0
LINE
  5
150
330
149
100
AcDbEntity
  8
VERMASSUNG
100
AcDbLine
 10
161.2669199179
 20
152.6201866735
 30
0.0
 11
226.2669199179
 21
152.6201866735
 31
0.0
  0
MTEXT
  5
151
330
149
100
AcDbEntity
  8
VERMASSUNG
100
AcDbMText
 10
192.368062775
 20
155.1983222695
 30
0.0
 40
2.0
 41
0.0
 71
     1
 72
     1
  1
65
  7
SLDTEXTSTYLE0
 73
     1
 44
1.0
  0
ENDBLK
  5
14B
330
149
100
AcDbEntity
  8
0
100
AcDbBlockEnd
  0
BLOCK
  5
154
330
153
100
AcDbEntity
  8
0
100
AcDbBlockBegin
  2
_D_4
 70
     0
 10
0.0
 20
0.0
 30
0.0
  3
_D_4
  1

  0
SOLID
  5
156
330
153
100
AcDbEntity
  8
VERMASSUNG
100
AcDbTrace
 10
233.7706665614
 20
130.0197741273
 30
0.0
 11
233.3206665614
 21
127.0197741273
 31
0.0
 12
234.2206665614
 22
127.0197741273
 32
0.0
 13
234.2206665614
 23
127.0197741273
 33
0.0
  0
SOLID
  5
157
330
153
100
AcDbEntity
  8
VERMASSUNG
100
AcDbTrace
 10
233.7706665614
 20
98.0197741273
 30
0.0
 11
234.2206665614
 21
101.0197741273
 31
0.0
 12
233.3206665614
 22
101.0197741273
 32
0.0
 13
233.3206665614
 23
101.0197741273
 33
0.0
  0
LINE
  5
158
330
153
100
AcDbEntity
  8
VERMASSUNG
100
AcDbLine
 10
225.9669199179
 20
130.0197741273
 30
0.0
 11
234.7706665614
 21
130.0197741273
 31
0.0
  0
LINE
  5
159
330
153
100
AcDbEntity
  8
VERMASSUNG
100
AcDbLine
 10
225.9669199179
 20
98.0197741273
 30
0.0
 11
234.7706665614
 21
98.0197741273
 31
0.0
  0
LINE
  5
15A
330
153
100
AcDbEntity
  8
VERMASSUNG
100
AcDbLine
 10
233.7706665614
 20
130.0197741273
 30
0.0
 11
233.7706665614
 21
98.0197741273
 31
0.0
  0
MTEXT
  5
15B
330
153
100
AcDbEntity
  8
VERMASSUNG
100
AcDbMText
 10
230.9925313052
 20
107.6147744837
 30
0.0
 40
2.0
 41
0.0
 71
     1
 72
     1
  1
MBM
  7
SLDTEXTSTYLE0
 11
-7.044195017643634E-15
 21
1.0
 31
0.0
 73
     1
 44
1.0
  0
MTEXT
  5
15C
330
153
100
AcDbEntity
  8
VERMASSUNG
100
AcDbMText
 10
231.1925312565
 20
114.0147743221
 30
0.0
 40
2.0
 41
0.0
 71
     1
 72
     1
  1
%%c
  7
SLDTEXTSTYLE0
 11
-7.044195017643634E-15
 21
1.0
 31
0.0
 73
     1
 44
1.0
  0
MTEXT
  5
15D
330
153
100
AcDbEntity
  8
VERMASSUNG
100
AcDbMText
 10
230.9925313052
 20
117.624774802
 30
0.0
 40
2.0
 41
0.0
 71
     1
 72
     1
  1
32
  7
SLDTEXTSTYLE0
 11
-7.044195017643634E-15
 21
1.0
 31
0.0
 73
     1
 44
1.0
  0
ENDBLK
  5
155
330
153
100
AcDbEntity
  8
0
100
AcDbBlockEnd
  0
BLOCK
  5
160
330
15F
100
AcDbEntity
  8
0
100
AcDbBlockBegin
  2
_D_5
 70
     0
 10
0.0
 20
0.0
 30
0.0
  3
_D_5
  1

  0
SOLID
  5
162
330
15F
100
AcDbEntity
  8
VERMASSUNG
100
AcDbTrace
 10
61.3028511528
 20
122.5197741273
 30
0.0
 11
60.8528511528
 21
119.5197741273
 31
0.0
 12
61.7528511528
 22
119.5197741273
 32
0.0
 13
61.7528511528
 23
119.5197741273
 33
0.0
  0
SOLID
  5
163
330
15F
100
AcDbEntity
  8
VERMASSUNG
100
AcDbTrace
 10
61.3028511528
 20
105.5197741273
 30
0.0
 11
61.7528511528
 21
108.5197741273
 31
0.0
 12
60.8528511528
 22
108.5197741273
 32
0.0
 13
60.8528511528
 23
108.5197741273
 33
0.0
  0
LINE
  5
164
330
15F
100
AcDbEntity
  8
VERMASSUNG
100
AcDbLine
 10
69.6669199179
 20
122.5197741273
 30
0.0
 11
60.3028511528
 21
122.5197741273
 31
0.0
  0
LINE
  5
165
330
15F
100
AcDbEntity
  8
VERMASSUNG
100
AcDbLine
 10
69.6669199179
 20
105.5197741273
 30
0.0
 11
60.3028511528
 21
105.5197741273
 31
0.0
  0
LINE
  5
166
330
15F
100
AcDbEntity
  8
VERMASSUNG
100
AcDbLine
 10
61.3028511528
 20
122.5197741273
 30
0.0
 11
61.3028511528
 21
105.5197741273
 31
0.0
  0
MTEXT
  5
167
330
15F
100
AcDbEntity
  8
VERMASSUNG
100
AcDbMText
 10
58.7247155568
 20
111.9197742022
 30
0.0
 40
2.0
 41
0.0
 71
     1
 72
     1
  1
M
  7
SLDTEXTSTYLE0
 11
-7.044195017643634E-15
 21
1.0
 31
0.0
 73
     1
 44
1.0
  0
MTEXT
  5
168
330
15F
100
AcDbEntity
  8
VERMASSUNG
100
AcDbMText
 10
58.7247155568
 20
113.7197741713
 30
0.0
 40
2.0
 41
0.0
 71
     1
 72
     1
  1
16
  7
SLDTEXTSTYLE0
 11
-7.044195017643634E-15
 21
1.0
 31
0.0
 73
     1
 44
1.0
  0
ENDBLK
  5
161
330
15F
100
AcDbEntity
  8
0
100
AcDbBlockEnd
  0
ENDSEC
  0
SECTION
  2
ENTITIES
  0
MTEXT
  5
78
330
1F
100
AcDbEntity
  8
KOPF_DÜNN
100
AcDbMText
 10
13.8892156294
 20
23.8442973028
 30
0.0
 40
3.0
 41
0.0
 71
     1
 72
     1
  1
102.412.322
  7
SLDTEXTSTYLE0
 73
     1
 44
1.0
  0
MTEXT
  5
79
330
1F
100
AcDbEntity
  8
VERMASSUNG
100
AcDbMText
 10
13.9329988022
 20
28.8834360957
 30
0.0
 40
3.0
 41
0.0
 71
     1
 72
     1
  1
Aufnahme_Master shank MBM 32
  7
SLDTEXTSTYLE0
 73
     1
 44
1.0
  0
MTEXT
  5
7A
330
1F
100
AcDbEntity
  8
VERMASSUNG
100
AcDbMText
 10
98.8601118557
 20
13.8365368761
 30
0.0
 40
2.0
 41
0.0
 71
     1
 72
     1
  1
Datum: 22.11.2007
  7
SLDTEXTSTYLE0
 73
     1
 44
1.0
  0
MTEXT
  5
7C
330
1F
100
AcDbEntity
  8
VERMASSUNG
100
AcDbMText
 10
13.933048693
 20
18.0482802738
 30
0.0
 40
2.0
 41
0.0
 71
     1
 72
     1
  1
MAS BT 40 / MBM 32
  7
SLDTEXTSTYLE1
 73
     1
 44
1.0
  0
MTEXT
  5
7D
330
1F
100
AcDbEntity
  8
VERMASSUNG
100
AcDbMText
 10
13.9808475933
 20
13.9090974274
 30
0.0
 40
2.0
 41
0.0
 71
     1
 72
     1
  1
Gewicht: 1323g
  7
SLDTEXTSTYLE0
 73
     1
 44
1.0
  0
LINE
  5
7E
330
1F
100
AcDbEntity
  8
0
  6
Continuous
 62
     7
370
    25
100
AcDbLine
 10
158.267074726
 20
82.5197736207
 30
0.0
 11
160.2669204543
 21
82.5197736207
 31
0.0
  0
LINE
  5
7F
330
1F
100
AcDbEntity
  8
0
  6
Continuous
 62
     7
370
    25
100
AcDbLine
 10
160.2669204543
 20
145.5197746339
 30
0.0
 11
158.2664190749
 21
145.5197746339
 31
0.0
  0
ARC
  5
80
330
1F
100
AcDbEntity
  8
0
  6
Continuous
 62
     7
370
    25
100
AcDbCircle
 10
160.2669199179
 20
83.5197741273
 30
0.0
 40
1.0
100
AcDbArc
 50
270.0
 51
0.0
  0
ARC
  5
81
330
1F
100
AcDbEntity
  8
0
  6
Continuous
 62
     7
370
    25
100
AcDbCircle
 10
160.2669199179
 20
144.5197741273
 30
0.0
 40
1.0
100
AcDbArc
 50
0.0
 51
90.0
  0
ARC
  5
82
330
1F
100
AcDbEntity
  8
0
  6
Continuous
 62
     7
370
    25
100
AcDbCircle
 10
135.2669199179
 20
90.7947741273
 30
0.0
 40
1.0
100
AcDbArc
 50
46.4300131633
 51
90.0
  0
ARC
  5
83
330
1F
100
AcDbEntity
  8
0
  6
Continuous
 62
     7
370
    25
100
AcDbCircle
 10
135.2669199179
 20
137.2447741273
 30
0.0
 40
1.0
100
AcDbArc
 50
270.0
 51
313.5374000104
  0
LINE
  5
84
330
1F
100
AcDbEntity
  8
0
  6
Continuous
 62
     7
370
    25
100
AcDbLine
 10
134.2669199179
 20
136.2447740915
 30
0.0
 11
69.7226147125
 21
126.8320626053
 31
0.0
  0
LINE
  5
85
330
1F
100
AcDbEntity
  8
0
  6
Continuous
 62
     7
370
    25
100
AcDbLine
 10
69.7226147125
 20
101.2074856493
 30
0.0
 11
134.2669199179
 21
91.7947741631
 31
0.0
  0
LINE
  5
86
330
1F
100
AcDbEntity
  8
0
  6
Continuous
 62
     7
370
    25
100
AcDbLine
 10
134.2669199179
 20
91.7947741631
 30
0.0
 11
135.2669199654
 21
91.7947741631
 31
0.0
  0
LINE
  5
87
330
1F
100
AcDbEntity
  8
0
  6
Continuous
 62
     7
370
    25
100
AcDbLine
 10
135.2669199654
 20
136.2447740915
 30
0.0
 11
134.2669199179
 21
136.2447740915
 31
0.0
  0
ARC
  5
88
330
1F
100
AcDbEntity
  8
0
  6
Continuous
 62
     7
370
    25
100
AcDbCircle
 10
165.2669199179
 20
94.0197741273
 30
0.0
 40
4.0
100
AcDbArc
 50
90.0
 51
180.0
  0
ARC
  5
89
330
1F
100
AcDbEntity
  8
0
  6
Continuous
 62
     7
370
    25
100
AcDbCircle
 10
165.2669199179
 20
134.0197741273
 30
0.0
 40
4.0
100
AcDbArc
 50
180.0
 51
270.0
  0
LINE
  5
8A
330
1F
100
AcDbEntity
  8
0
  6
Continuous
 62
     7
370
    25
100
AcDbLine
 10
165.2669194112
 20
98.0197733674
 30
0.0
 11
225.9669224689
 21
98.0197733674
 31
0.0
  0
LINE
  5
8B
330
1F
100
AcDbEntity
  8
0
  6
Continuous
 62
     7
370
    25
100
AcDbLine
 10
225.9669224689
 20
130.0197748873
 30
0.0
 11
165.2669194112
 21
130.0197748873
 31
0.0
  0
LINE
  5
8C
330
1F
100
AcDbEntity
  8
0
  6
Continuous
 62
     7
370
    25
100
AcDbLine
 10
225.9669224689
 20
98.0197733674
 30
0.0
 11
226.2669200967
 21
98.3197747204
 31
0.0
  0
LINE
  5
8D
330
1F
100
AcDbEntity
  8
0
  6
Continuous
 62
     7
370
    25
100
AcDbLine
 10
226.2669200967
 20
129.7197735342
 30
0.0
 11
225.9669224689
 21
130.0197748873
 31
0.0
  0
ARC
  5
8E
330
1F
100
AcDbEntity
  8
0
  6
Continuous
 62
     7
370
    25
100
AcDbCircle
 10
69.8669199179
 20
102.1970185303
 30
0.0
 40
1.0
100
AcDbArc
 50
180.0
 51
261.7028550302
  0
ARC
  5
8F
330
1F
100
AcDbEntity
  8
0
  6
Continuous
 62
     7
370
    25
100
AcDbCircle
 10
69.8669199179
 20
125.8425297243
 30
0.0
 40
1.000000000000024
100
AcDbArc
 50
98.2971449698
 51
180.0
  0
SPLINE
  5
90
330
1F
100
AcDbEntity
  8
0
  6
Continuous
 62
     7
370
    25
100
AcDbSpline
210
0.0
220
0.0
230
1.0
 70
     8
 71
     3
 72
    11
 73
     7
 74
     0
 42
0.000000001
 43
0.00000001
 40
0.0
 40
0.0
 40
0.0
 40
0.0
 40
0.2488814414124908
 40
0.5011921152475539
 40
0.7520447761185449
 40
1.0
 40
1.0
 40
1.0
 40
1.0
 10
158.2664190749356
 20
145.5196256223376
 30
0.0
 10
158.2366415071095
 20
145.5104931988156
 30
0.0
 10
158.1766760789081
 20
145.4921025199592
 30
0.0
 10
157.684751978295
 20
145.3480679775687
 30
0.0
 10
156.9566838790847
 20
145.1386615524181
 30
0.0
 10
156.2459400761875
 20
144.9664575441907
 30
0.0
 10
155.8926324317881
 20
144.8808556827958
 30
0.0
  0
SPLINE
  5
91
330
1F
100
AcDbEntity
  8
0
  6
Continuous
 62
     7
370
    25
100
AcDbSpline
210
0.0
220
0.0
230
1.0
 70
     8
 71
     3
 72
    24
 73
    20
 74
     0
 42
0.000000001
 43
0.00000001
 40
0.0
 40
0.0
 40
0.0
 40
0.0
 40
0.0452526285700991
 40
0.0903797919841674
 40
0.1354297334528039
 40
0.1804509444104007
 40
0.2254920090630054
 40
0.2706014474444947
 40
0.315827559505029
 40
0.3612182727172569
 40
0.4068209955556261
 40
0.4526824789912149
 40
0.4988486878621294
 40
0.5834875412511571
 40
0.6672865896046463
 40
0.7505381947007789
 40
0.8335405033384098
 40
0.9165943471205426
 40
0.9999999999999999
 40
0.9999999999999999
 40
0.9999999999999999
 40
0.9999999999999999
 10
155.8925386112821
 20
83.1586761077746
 30
0.0
 10
155.9602423531922
 20
83.14291706675475
 30
0.0
 10
156.0954621250316
 20
83.11144267743754
 30
0.0
 10
156.2881238418873
 20
83.06498187409379
 30
0.0
 10
156.4728607135494
 20
83.01935089445844
 30
0.0
 10
156.6489786548493
 20
82.97472559702375
 30
0.0
 10
156.8166624474672
 20
82.9312383104235
 30
0.0
 10
156.9758619317532
 20
82.88903726262994
 30
0.0
 10
157.1265900702536
 20
82.84827067030594
 30
0.0
 10
157.2688430236005
 20
82.80909091775199
 30
0.0
 10
157.4026217789886
 20
82.7716536257589
 30
0.0
 10
157.5279256887137
 20
82.73611704251945
 30
0.0
 10
157.6769048116399
 20
82.69343491665624
 30
0.0
 10
157.8375609101825
 20
82.64695822262672
 30
0.0
 10
157.9933843174076
 20
82.6013292497999
 30
0.0
 10
158.1149739421346
 20
82.56531051544285
 30
0.0
 10
158.2014831411413
 20
82.5394198638422
 30
0.0
 10
158.2559986642946
 20
82.52295515569071
 30
0.0
 10
158.2632679009187
 20
82.52083647314117
 30
0.0
 10
158.26691020093
 20
82.51977489296803
 30
0.0
  0
LINE
  5
92
330
1F
100
AcDbEntity
  8
0
  6
Continuous
 62
     7
370
    25
100
AcDbLine
 10
155.8919190387
 20
83.158675808
 30
0.0
 11
155.8919190387
 21
144.8808556828
 31
0.0
  0
SPLINE
  5
93
330
1F
100
AcDbEntity
  8
0
  6
Continuous
 62
     7
370
    25
100
AcDbSpline
210
0.0
220
0.0
230
1.0
 70
     8
 71
     3
 72
    10
 73
     6
 74
     0
 42
0.000000001
 43
0.00000001
 40
0.0
 40
0.0
 40
0.0
 40
0.0
 40
0.5
 40
0.5
 40
1.0
 40
1.0
 40
1.0
 40
1.0
 10
155.24352832191
 20
143.9242348486642
 30
0.0
 10
154.9274244907705
 20
143.304372290387
 30
0.0
 10
154.5976454464257
 20
142.6584715550882
 30
0.0
 10
153.9254221740369
 20
141.3440529147877
 30
0.0
 10
153.5832890081063
 20
140.6761306877754
 30
0.0
 10
153.2361086795922
 20
139.999792955294
 30
0.0
  0
SPLINE
  5
94
330
1F
100
AcDbEntity
  8
0
  6
Continuous
 62
     7
370
    25
100
AcDbSpline
210
0.0
220
0.0
230
1.0
 70
     8
 71
     3
 72
     9
 73
     5
 74
     0
 42
0.000000001
 43
0.00000001
 40
0.0
 40
0.0
 40
0.0
 40
0.0
 40
0.5067595796306674
 40
1.0
 40
1.0
 40
1.0
 40
1.0
 10
155.892550460849
 20
144.881909234659
 30
0.0
 10
155.782150113067
 20
144.7198342963272
 30
0.0
 10
155.5642946403349
 20
144.400008199601
 30
0.0
 10
155.3497015381207
 20
144.0816602199507
 30
0.0
 10
155.2438555461763
 20
143.9246381286443
 30
0.0
  0
SPLINE
  5
95
330
1F
100
AcDbEntity
  8
0
  6
Continuous
 62
     7
370
    25
100
AcDbSpline
210
0.0
220
0.0
230
1.0
 70
     8
 71
     3
 72
     9
 73
     5
 74
     0
 42
0.000000001
 43
0.00000001
 40
0.0
 40
0.0
 40
0.0
 40
0.0
 40
0.4932426507672939
 40
1.0
 40
1.0
 40
1.0
 40
1.0
 10
155.2438416311535
 20
84.11490802560532
 30
0.0
 10
155.3496877362791
 20
83.9578847857779
 30
0.0
 10
155.5642800975864
 20
83.6395359171569
 30
0.0
 10
155.7821343855525
 20
83.31970987044072
 30
0.0
 10
155.8925336470411
 20
83.15763567079124
 30
0.0
  0
SPLINE
  5
96
330
1F
100
AcDbEntity
  8
0
  6
Continuous
 62
     7
370
    25
100
AcDbSpline
210
0.0
220
0.0
230
1.0
 70
     8
 71
     3
 72
    10
 73
     6
 74
     0
 42
0.000000001
 43
0.00000001
 40
0.0
 40
0.0
 40
0.0
 40
0.0
 40
0.5
 40
0.5
 40
1.0
 40
1.0
 40
1.0
 40
1.0
 10
155.2435224022421
 20
84.11532501410505
 30
0.0
 10
154.927343299568
 20
84.73533516611879
 30
0.0
 10
154.596901072401
 20
85.38253323198647
 30
0.0
 10
153.9251895517183
 20
86.69594915658024
 30
0.0
 10
153.5832156766863
 20
87.36356042288304
 30
0.0
 10
153.2361086795922
 20
88.0397552993262
 30
0.0
  0
LINE
  5
97
330
1F
100
AcDbEntity
  8
0
  6
Continuous
 62
     7
370
    25
100
AcDbLine
 10
161.2669206182
 20
83.5197737846
 30
0.0
 11
161.2669206182
 21
144.51977447
 31
0.0
  0
LINE
  5
98
330
1F
100
AcDbEntity
  8
0
  6
Continuous
 62
     7
370
    25
100
AcDbLine
 10
145.8419202785
 20
144.2561636153
 30
0.0
 11
137.2669199439
 21
144.2561636153
 31
0.0
  0
LINE
  5
99
330
1F
100
AcDbEntity
  8
0
  6
Continuous
 62
     7
370
    25
100
AcDbLine
 10
145.8419202785
 20
83.7833846393
 30
0.0
 11
145.8419202785
 21
144.2561636153
 31
0.0
  0
LINE
  5
9A
330
1F
100
AcDbEntity
  8
0
  6
Continuous
 62
     7
370
    25
100
AcDbLine
 10
137.2669199439
 20
83.7833846393
 30
0.0
 11
145.8419202785
 21
83.7833846393
 31
0.0
  0
LINE
  5
9B
330
1F
100
AcDbEntity
  8
0
  6
Continuous
 62
     7
370
    25
100
AcDbLine
 10
136.2669200129
 20
84.8933684114
 30
0.0
 11
136.2669200129
 21
143.1461798433
 31
0.0
  0
SPLINE
  5
9C
330
1F
100
AcDbEntity
  8
0
  6
Continuous
 62
     7
370
    25
100
AcDbSpline
210
0.0
220
0.0
230
1.0
 70
     8
 71
     3
 72
    12
 73
     8
 74
     0
 42
0.000000001
 43
0.00000001
 40
0.0
 40
0.0
 40
0.0
 40
0.0
 40
0.2499999999999997
 40
0.2499999999999997
 40
0.4999999999999993
 40
0.4999999999999993
 40
1.0
 40
1.0
 40
1.0
 40
1.0
 10
136.65395274083
 20
144.086764027131
 30
0.0
 10
136.6020919896419
 20
144.0299514548166
 30
0.0
 10
136.553360192623
 20
143.9679592685648
 30
0.0
 10
136.4631871827055
 20
143.8319061954408
 30
0.0
 10
136.4214099344206
 20
143.7570000928421
 30
0.0
 10
136.3153210645747
 20
143.5188734575447
 30
0.0
 10
136.2669199178645
 20
143.3354667259759
 30
0.0
 10
136.2669199178645
 20
143.1461796727941
 30
0.0
  0
SPLINE
  5
9D
330
1F
100
AcDbEntity
  8
0
  6
Continuous
 62
     7
370
    25
100
AcDbSpline
210
0.0
220
0.0
230
1.0
 70
     8
 71
     3
 72
     8
 73
     4
 74
     0
 42
0.000000001
 43
0.00000001
 40
0.0
 40
0.0
 40
0.0
 40
0.0
 40
1.0
 40
1.0
 40
1.0
 40
1.0
 10
137.2669199178645
 20
144.2561642303119
 30
0.0
 10
137.0405756042646
 20
144.2561642303119
 30
0.0
 10
136.8231234838595
 20
144.192795761291
 30
0.0
 10
136.65395274083
 20
144.086764027131
 30
0.0
  0
SPLINE
  5
9E
330
1F
100
AcDbEntity
  8
0
  6
Continuous
 62
     7
370
    25
100
AcDbSpline
210
0.0
220
0.0
230
1.0
 70
     8
 71
     3
 72
     8
 73
     4
 74
     0
 42
0.000000001
 43
0.00000001
 40
0.0
 40
0.0
 40
0.0
 40
0.0
 40
1.0
 40
1.0
 40
1.0
 40
1.0
 10
136.65395274083
 20
83.95278422748913
 30
0.0
 10
136.823546246482
 20
83.84648751693193
 30
0.0
 10
137.0399149388152
 20
83.78338402430823
 30
0.0
 10
137.2669199178645
 20
83.78338402430823
 30
0.0
  0
SPLINE
  5
9F
330
1F
100
AcDbEntity
  8
0
  6
Continuous
 62
     7
370
    25
100
AcDbSpline
210
0.0
220
0.0
230
1.0
 70
     8
 71
     3
 72
    12
 73
     8
 74
     0
 42
0.000000001
 43
0.00000001
 40
0.0
 40
0.0
 40
0.0
 40
0.0
 40
0.2500000000000004
 40
0.2500000000000004
 40
0.5000000000000009
 40
0.5000000000000009
 40
1.0
 40
1.0
 40
1.0
 40
1.0
 10
136.65395274083
 20
83.95278422748912
 30
0.0
 10
136.6020919896419
 20
84.0095967998035
 30
0.0
 10
136.553360192623
 20
84.07158898605532
 30
0.0
 10
136.4631871827055
 20
84.20764205917932
 30
0.0
 10
136.4214099344206
 20
84.28254816177805
 30
0.0
 10
136.3153210645747
 20
84.52067479707546
 30
0.0
 10
136.2669199178645
 20
84.70408152864422
 30
0.0
 10
136.2669199178645
 20
84.89336858182608
 30
0.0
  0
SPLINE
  5
A0
330
1F
100
AcDbEntity
  8
0
  6
Continuous
 62
     7
370
    25
100
AcDbSpline
210
0.0
220
0.0
230
1.0
 70
     8
 71
     3
 72
     8
 73
     4
 74
     0
 42
0.000000001
 43
0.00000001
 40
0.0
 40
0.0
 40
0.0
 40
0.0
 40
0.0012389803509652
 40
0.0012389803509652
 40
0.0012389803509652
 40
0.0012389803509652
 10
146.3994814613982
 20
143.4737968500965
 30
0.0
 10
146.2143614882654
 20
143.7348468314755
 30
0.0
 10
146.0284830405064
 20
143.9956284445945
 30
0.0
 10
145.8419199178645
 20
144.2561642303119
 30
0.0
  0
SPLINE
  5
A1
330
1F
100
AcDbEntity
  8
0
  6
Continuous
 62
     7
370
    25
100
AcDbSpline
210
0.0
220
0.0
230
1.0
 70
     8
 71
     3
 72
     8
 73
     4
 74
     0
 42
0.000000001
 43
0.00000001
 40
0.0
 40
0.0
 40
0.0
 40
0.0
 40
1.0
 40
1.0
 40
1.0
 40
1.0
 10
148.4977311561367
 20
139.6870197917751
 30
0.0
 10
147.8014377900952
 20
140.9509581598899
 30
0.0
 10
147.1016426249041
 20
142.2130136053981
 30
0.0
 10
146.3994814613982
 20
143.4737968500965
 30
0.0
  0
SPLINE
  5
A2
330
1F
100
AcDbEntity
  8
0
  6
Continuous
 62
     7
370
    25
100
AcDbSpline
210
0.0
220
0.0
230
1.0
 70
     8
 71
     3
 72
     8
 73
     4
 74
     0
 42
0.000000001
 43
0.00000001
 40
0.0
 40
0.0
 40
0.0
 40
0.0
 40
1.0
 40
1.0
 40
1.0
 40
1.0
 10
148.4977311561367
 20
88.35252846284502
 30
0.0
 10
147.8014130154787
 20
87.08854512289824
 30
0.0
 10
147.1016158233683
 20
85.82648652504628
 30
0.0
 10
146.3994814613982
 20
84.56575140452361
 30
0.0
  0
SPLINE
  5
A3
330
1F
100
AcDbEntity
  8
0
  6
Continuous
 62
     7
370
    25
100
AcDbSpline
210
0.0
220
0.0
230
1.0
 70
     8
 71
     3
 72
     8
 73
     4
 74
     0
 42
0.000000001
 43
0.00000001
 40
0.0
 40
0.0
 40
0.0
 40
0.0
 40
0.0012389803509652
 40
0.0012389803509652
 40
0.0012389803509652
 40
0.0012389803509652
 10
145.8419199178644
 20
83.78338402430823
 30
0.0
 10
146.0284830405064
 20
84.0439198100256
 30
0.0
 10
146.2143614882654
 20
84.30470142314459
 30
0.0
 10
146.3994814613982
 20
84.56575140452361
 30
0.0
  0
SPLINE
  5
A4
330
1F
100
AcDbEntity
  8
0
  6
Continuous
 62
     7
370
    25
100
AcDbSpline
210
0.0
220
0.0
230
1.0
 70
     8
 71
     3
 72
    12
 73
     8
 74
     0
 42
0.000000001
 43
0.00000001
 40
0.0
 40
0.0
 40
0.0
 40
0.0
 40
0.2499999999999998
 40
0.2499999999999998
 40
0.4999999999999996
 40
0.4999999999999996
 40
1.0
 40
1.0
 40
1.0
 40
1.0
 10
153.2361086795922
 20
139.999792955294
 30
0.0
 10
153.2002045292556
 20
139.9298485211458
 30
0.0
 10
153.1576729771261
 20
139.866597158088
 30
0.0
 10
153.0608787002861
 20
139.751538503172
 30
0.0
 10
153.0057890220218
 20
139.6992099694601
 30
0.0
 10
152.8276557884679
 20
139.565425066375
 30
0.0
 10
152.6902786964653
 20
139.5048772992168
 30
0.0
 10
152.5432883565654
 20
139.4856773508329
 30
0.0
  0
SPLINE
  5
A5
330
1F
100
AcDbEntity
  8
0
  6
Continuous
 62
     7
370
    25
100
AcDbSpline
210
0.0
220
0.0
230
1.0
 70
     8
 71
     3
 72
    12
 73
     8
 74
     0
 42
0.000000001
 43
0.00000001
 40
0.0
 40
0.0
 40
0.0
 40
0.0
 40
0.2500000000000005
 40
0.2500000000000005
 40
0.500000000000001
 40
0.500000000000001
 40
1.0
 40
1.0
 40
1.0
 40
1.0
 10
153.2361086795922
 20
88.03975529932619
 30
0.0
 10
153.2002045292556
 20
88.10969973347434
 30
0.0
 10
153.1576729771261
 20
88.17295109653219
 30
0.0
 10
153.0608787002861
 20
88.28800975144813
 30
0.0
 10
153.0057890220218
 20
88.34033828516009
 30
0.0
 10
152.8276557884679
 20
88.47412318824517
 30
0.0
 10
152.6902786964653
 20
88.53467095540334
 30
0.0
 10
152.5432883565654
 20
88.55387090378721
 30
0.0
  0
SPLINE
  5
A6
330
1F
100
AcDbEntity
  8
0
  6
Continuous
 62
     7
370
    25
100
AcDbSpline
210
0.0
220
0.0
230
1.0
 70
     8
 71
     3
 72
    10
 73
     6
 74
     0
 42
0.000000001
 43
0.00000001
 40
0.0
 40
0.0
 40
0.0
 40
0.0
 40
0.5
 40
0.5
 40
1.0
 40
1.0
 40
1.0
 40
1.0
 10
149.1905514791643
 20
139.2674967968896
 30
0.0
 10
149.0485341667173
 20
139.2674967968896
 30
0.0
 10
148.908087119855
 20
139.3079866490991
 30
0.0
 10
148.6664972005937
 20
139.4559224790382
 30
0.0
 10
148.5658197583405
 20
139.5634227550177
 30
0.0
 10
148.4977311561369
 20
139.6870197917748
 30
0.0
  0
SPLINE
  5
A7
330
1F
100
AcDbEntity
  8
0
  6
Continuous
 62
     7
370
    25
100
AcDbSpline
210
0.0
220
0.0
230
1.0
 70
     8
 71
     3
 72
    10
 73
     6
 74
     0
 42
0.000000001
 43
0.00000001
 40
0.0
 40
0.0
 40
0.0
 40
0.0
 40
0.5
 40
0.5
 40
1.0
 40
1.0
 40
1.0
 40
1.0
 10
149.1905514791643
 20
88.77205145773054
 30
0.0
 10
149.0496941146536
 20
88.77205145773054
 30
0.0
 10
148.9068599831795
 20
88.73094755191184
 30
0.0
 10
148.6665982924061
 20
88.58354965861089
 30
0.0
 10
148.5658920233266
 20
88.47625667777123
 30
0.0
 10
148.4977311561367
 20
88.35252846284503
 30
0.0
  0
LINE
  5
A8
330
1F
100
AcDbEntity
  8
0
  6
Continuous
 62
     7
370
    25
100
AcDbLine
 10
149.2169196675
 20
88.7720512632
 30
0.0
 11
149.1905511315
 21
88.7720512632
 31
0.0
  0
LINE
  5
A9
330
1F
100
AcDbEntity
  8
0
  6
Continuous
 62
     7
370
    25
100
AcDbLine
 10
149.2169196675
 20
139.2674969915
 30
0.0
 11
149.1905511315
 21
139.2674969915
 31
0.0
  0
SPLINE
  5
AA
330
1F
100
AcDbEntity
  8
0
  6
Continuous
 62
     7
370
    25
100
AcDbSpline
210
0.0
220
0.0
230
1.0
 70
     8
 71
     3
 72
    10
 73
     6
 74
     0
 42
0.000000001
 43
0.00000001
 40
0.0
 40
0.0
 40
0.0
 40
0.0
 40
0.5
 40
0.5
 40
1.0
 40
1.0
 40
1.0
 40
1.0
 10
152.5432883565647
 20
139.4856773508358
 30
0.0
 10
152.0213736321687
 20
139.4175046003276
 30
0.0
 10
151.4825224520594
 20
139.3628813353697
 30
0.0
 10
150.3711598100272
 20
139.2877854824784
 30
0.0
 10
149.7943190328312
 20
139.2674967968896
 30
0.0
 10
149.2169199178645
 20
139.2674967968896
 30
0.0
  0
SPLINE
  5
AB
330
1F
100
AcDbEntity
  8
0
  6
Continuous
 62
     7
370
    25
100
AcDbSpline
210
0.0
220
0.0
230
1.0
 70
     8
 71
     3
 72
    10
 73
     6
 74
     0
 42
0.000000001
 43
0.00000001
 40
0.0
 40
0.0
 40
0.0
 40
0.0
 40
0.5
 40
0.5
 40
1.0
 40
1.0
 40
1.0
 40
1.0
 10
152.5432883565647
 20
88.55387090378429
 30
0.0
 10
152.0213736321687
 20
88.6220436542925
 30
0.0
 10
151.4825224520594
 20
88.67666691925044
 30
0.0
 10
150.3711598100272
 20
88.75176277214177
 30
0.0
 10
149.7943190328312
 20
88.77205145773054
 30
0.0
 10
149.2169199178645
 20
88.77205145773054
 30
0.0
  0
SPLINE
  5
AC
330
1F
100
AcDbEntity
  8
0
  6
Continuous
 62
     7
370
    25
100
AcDbSpline
210
0.0
220
0.0
230
1.0
 70
     8
 71
     3
 72
    10
 73
     6
 74
     0
 42
0.000000001
 43
0.00000001
 40
0.0
 40
0.0
 40
0.0
 40
0.0
 40
0.1295573971207429
 40
0.9999913398490177
 40
1.0
 40
1.0
 40
1.0
 40
1.0
 10
136.0727436798343
 20
136.5197750213797
 30
0.0
 10
136.0646735052899
 20
136.5197750213808
 30
0.0
 10
136.0023837029726
 20
136.5197750213885
 30
0.0
 10
135.9244662424792
 20
136.5197750212168
 30
0.0
 10
135.9556693696723
 20
136.5197750213797
 30
0.0
 10
135.9556696801164
 20
136.5197750213797
 30
0.0
  0
SPLINE
  5
AD
330
1F
100
AcDbEntity
  8
0
  6
Continuous
 62
     7
370
    25
100
AcDbSpline
210
0.0
220
0.0
230
1.0
 70
    24
 71
     3
 72
     9
 73
     5
 74
     0
 42
0.000000001
 43
0.00000001
 40
0.0
 40
0.0
 40
0.0
 40
0.0
 40
0.8241661625596712
 40
1.0
 40
1.0
 40
1.0
 40
1.0
 10
135.9556697965318
 20
91.5197732332404
 30
0.0
 10
135.9729981013638
 20
91.5197732332404
 30
0.0
 10
135.9940233577007
 20
91.5197732332404
 30
0.0
 10
136.0602727809319
 20
91.5197732332404
 30
0.0
 10
136.0719216712469
 20
91.5197732332404
 30
0.0
  0
LINE
  5
AE
330
1F
100
AcDbEntity
  8
0
  6
Continuous
 62
     7
370
    25
100
AcDbLine
 10
134.2669199179
 20
91.7947741631
 30
0.0
 11
134.2669199179
 21
136.2447740915
 31
0.0
  0
SPLINE
  5
AF
330
1F
100
AcDbEntity
  8
0
  6
Continuous
 62
     7
370
    25
100
AcDbSpline
210
0.0
220
0.0
230
1.0
 70
     8
 71
     3
 72
    42
 73
    38
 74
     0
 42
0.000000001
 43
0.00000001
 40
0.0
 40
0.0
 40
0.0
 40
0.0
 40
0.0312500000000001
 40
0.0312500000000001
 40
0.0625000000000002
 40
0.0625000000000002
 40
0.1249999999999996
 40
0.1249999999999996
 40
0.1874999999999991
 40
0.1874999999999991
 40
0.2499999999999986
 40
0.2499999999999986
 40
0.312499999999998
 40
0.312499999999998
 40
0.3749999999999974
 40
0.3749999999999974
 40
0.4374999999999968
 40
0.4374999999999968
 40
0.4999999999999963
 40
0.4999999999999963
 40
0.5624999999999957
 40
0.5624999999999957
 40
0.6249999999999951
 40
0.6249999999999951
 40
0.6874999999999944
 40
0.6874999999999944
 40
0.7499999999999939
 40
0.7499999999999939
 40
0.7812499999999947
 40
0.7812499999999947
 40
0.8124999999999954
 40
0.8124999999999954
 40
0.874999999999997
 40
0.874999999999997
 40
0.9374999999999986
 40
0.9374999999999986
 40
1.0
 40
1.0
 40
1.0
 40
1.0
 10
222.2169199178645
 20
114.0197741273101
 30
0.0
 10
222.2169199178645
 20
113.8588413563028
 30
0.0
 10
222.2071192641092
 20
113.6977699764228
 30
0.0
 10
222.1674907211105
 20
113.3753442143299
 30
0.0
 10
222.1375031183865
 20
113.2141746142511
 30
0.0
 10
222.0204438658301
 20
112.7437816032674
 30
0.0
 10
221.9060767517269
 20
112.4427117761618
 30
0.0
 10
221.608295645216
 20
111.8650852578118
 30
0.0
 10
221.4300282079762
 20
111.5983110497644
 30
0.0
 10
221.0210873293317
 20
111.1034386828554
 30
0.0
 10
220.7890675373118
 20
110.8751829117594
 30
0.0
 10
220.2925033678162
 20
110.4712806247566
 30
0.0
 10
220.0259704702391
 20
110.2930033592184
 30
0.0
 10
219.4577587461654
 20
109.9823475423913
 30
0.0
 10
219.1635115381108
 20
109.8540101539884
 30
0.0
 10
218.5559073733432
 20
109.6472403114594
 30
0.0
 10
218.240069721703
 20
109.568491364051
 30
0.0
 10
217.6002703696188
 20
109.4643005253396
 30
0.0
 10
217.2794001266923
 20
109.4389072744821
 30
0.0
 10
216.6357686518943
 20
109.4399173215548
 30
0.0
 10
216.3101446672534
 20
109.4668740257581
 30
0.0
 10
215.6715558348522
 20
109.5734421097439
 30
0.0
 10
215.3604626128833
 20
109.6521724182318
 30
0.0
 10
214.7544566864936
 20
109.8604815330304
 30
0.0
 10
214.4567748735565
 20
109.9916529593629
 30
0.0
 10
213.8935905547598
 20
110.3021364598298
 30
0.0
 10
213.6292937544346
 20
110.4800249758777
 30
0.0
 10
213.2594624945062
 20
110.7824538033464
 30
0.0
 10
213.1406521808319
 20
110.8892380321895
 30
0.0
 10
212.912524944553
 20
111.1156399743242
 30
0.0
 10
212.8029333315119
 20
111.2357457034031
 30
0.0
 10
212.4972971067492
 20
111.6074366262674
 30
0.0
 10
212.3213131700294
 20
111.8727260840948
 30
0.0
 10
212.0287675138903
 20
112.4413360659458
 30
0.0
 10
211.9115410744636
 20
112.7496033269655
 30
0.0
 10
211.7567654232025
 20
113.3748461459001
 30
0.0
 10
211.7169199178645
 20
113.6938902504363
 30
0.0
 10
211.7169199178645
 20
114.0197741273101
 30
0.0
  0
SPLINE
  5
B0
330
1F
100
AcDbEntity
  8
0
  6
Continuous
 62
     7
370
    25
100
AcDbSpline
210
0.0
220
0.0
230
1.0
 70
     8
 71
     3
 72
    42
 73
    38
 74
     0
 42
0.000000001
 43
0.00000001
 40
0.0
 40
0.0
 40
0.0
 40
0.0
 40
0.0312499999999993
 40
0.0312499999999993
 40
0.0624999999999986
 40
0.0624999999999986
 40
0.1249999999999979
 40
0.1249999999999979
 40
0.1874999999999972
 40
0.1874999999999972
 40
0.2499999999999964
 40
0.2499999999999964
 40
0.3124999999999957
 40
0.3124999999999957
 40
0.3749999999999948
 40
0.3749999999999948
 40
0.4999999999999931
 40
0.4999999999999931
 40
0.5624999999999936
 40
0.5624999999999936
 40
0.6249999999999941
 40
0.6249999999999941
 40
0.6874999999999946
 40
0.6874999999999946
 40
0.7499999999999951
 40
0.7499999999999951
 40
0.8124999999999954
 40
0.8124999999999954
 40
0.8437499999999957
 40
0.8437499999999957
 40
0.8749999999999959
 40
0.8749999999999959
 40
0.9374999999999976
 40
0.9374999999999976
 40
0.9687499999999988
 40
0.9687499999999988
 40
1.0
 40
1.0
 40
1.0
 40
1.0
 10
211.7169199178645
 20
114.0197741273101
 30
0.0
 10
211.7169199178645
 20
114.1827185576629
 30
0.0
 10
211.7271368232025
 20
114.3465545854734
 30
0.0
 10
211.7669671676961
 20
114.6678063234845
 30
0.0
 10
211.7965576000965
 20
114.8264099872718
 30
0.0
 10
211.9136093300953
 20
115.296325273627
 30
0.0
 10
212.0310448630513
 20
115.6040023576617
 30
0.0
 10
212.3268076178742
 20
116.1761013635968
 30
0.0
 10
212.5070219084737
 20
116.4459613709617
 30
0.0
 10
212.9195647129401
 20
116.9434932716655
 30
0.0
 10
213.1490312461088
 20
117.1685593451238
 30
0.0
 10
213.6511336592667
 20
117.5754860677932
 30
0.0
 10
213.9188905452341
 20
117.7530980234657
 30
0.0
 10
214.4791322591952
 20
118.0583278691045
 30
0.0
 10
214.7726034270841
 20
118.1866560854949
 30
0.0
 10
215.6936630207675
 20
118.4990553560421
 30
0.0
 10
216.3307887633887
 20
118.6016483250674
 30
0.0
 10
217.305868872368
 20
118.5993663231254
 30
0.0
 10
217.626481044452
 20
118.5722003868389
 30
0.0
 10
218.2591788921394
 20
118.466633256146
 30
0.0
 10
218.5726804058698
 20
118.3877564167051
 30
0.0
 10
219.1845584617322
 20
118.177145662385
 30
0.0
 10
219.4769810852227
 20
118.0477420368764
 30
0.0
 10
220.0351244985707
 20
117.7404347334941
 30
0.0
 10
220.3023884883242
 20
117.561335460348
 30
0.0
 10
220.8007184885326
 20
117.1537313111842
 30
0.0
 10
221.0267256334632
 20
116.9298252993312
 30
0.0
 10
221.3298517301325
 20
116.5621879873537
 30
0.0
 10
221.4248683248285
 20
116.4343069778589
 30
0.0
 10
221.6020186207328
 20
116.1670374387132
 30
0.0
 10
221.6846286478181
 20
116.0266330589315
 30
0.0
 10
221.906350353621
 20
115.5958222793034
 30
0.0
 10
222.0205400243082
 20
115.2956409230577
 30
0.0
 10
222.1377405121526
 20
114.8242888780445
 30
0.0
 10
222.1676950791116
 20
114.6628191158391
 30
0.0
 10
222.2071184157443
 20
114.3415059711086
 30
0.0
 10
222.2169199178645
 20
114.1807093595065
 30
0.0
 10
222.2169199178645
 20
114.0197741273101
 30
0.0
  0
LINE
  5
B1
330
1F
100
AcDbEntity
  8
0
  6
Continuous
 62
     7
370
    25
100
AcDbLine
 10
225.9669224689
 20
98.0197733674
 30
0.0
 11
225.9669224689
 21
130.0197748873
 31
0.0
  0
LINE
  5
B2
330
1F
100
AcDbEntity
  8
0
  6
Continuous
 62
     7
370
    25
100
AcDbLine
 10
226.2669200967
 20
98.3197747204
 30
0.0
 11
226.2669200967
 21
129.7197735342
 31
0.0
  0
LINE
  5
B3
330
1F
100
AcDbEntity
  8
0
  6
Continuous
 62
     7
370
    25
100
AcDbLine
 10
68.8669229815
 20
102.1970186788
 30
0.0
 11
68.8669229815
 21
125.8425295758
 31
0.0
  0
SPLINE
  5
B4
330
1F
100
AcDbEntity
  8
0
  6
Continuous
 62
     7
370
    25
100
AcDbSpline
210
0.0
220
0.0
230
1.0
 70
     8
 71
     3
 72
    11
 73
     7
 74
     0
 42
0.000000001
 43
0.00000001
 40
0.0
 40
0.0
 40
0.0
 40
0.0
 40
0.1323875543075687
 40
0.481943841022219
 40
0.8154875567766203
 40
1.0
 40
1.0
 40
1.0
 40
1.0
 10
219.2751090000102
 20
114.0946535100471
 30
0.0
 10
219.2299190497983
 20
114.0101680662019
 30
0.0
 10
219.0654094907646
 20
113.7026071362478
 30
0.0
 10
218.7577876575524
 20
113.1275021249737
 30
0.0
 10
218.426723534174
 20
112.5085778821014
 30
0.0
 10
218.2491198002942
 20
112.1765289205695
 30
0.0
 10
218.1858639190623
 20
112.0582653614934
 30
0.0
  0
SPLINE
  5
B5
330
1F
100
AcDbEntity
  8
0
  6
Continuous
 62
     7
370
    25
100
AcDbSpline
210
0.0
220
0.0
230
1.0
 70
     8
 71
     3
 72
    10
 73
     6
 74
     0
 42
0.000000001
 43
0.00000001
 40
0.0
 40
0.0
 40
0.0
 40
0.0
 40
0.4391220996148497
 40
0.7513706988033358
 40
0.9999999999999999
 40
0.9999999999999999
 40
0.9999999999999999
 40
0.9999999999999999
 10
218.0561642120311
 20
116.0561621594484
 30
0.0
 10
218.2306682428683
 20
115.7753534054297
 30
0.0
 10
218.5292576687006
 20
115.2948686611587
 30
0.0
 10
218.9633002519303
 20
114.596400940813
 30
0.0
 10
219.179341116796
 20
114.248758517198
 30
0.0
 10
219.2751090000102
 20
114.0946535100471
 30
0.0
  0
SPLINE
  5
B6
330
1F
100
AcDbEntity
  8
0
  6
Continuous
 62
     7
370
    25
100
AcDbSpline
210
0.0
220
0.0
230
1.0
 70
     8
 71
     3
 72
    10
 73
     6
 74
     0
 42
0.000000001
 43
0.00000001
 40
0.0
 40
0.0
 40
0.0
 40
0.0
 40
0.4391219786840324
 40
0.7513706791233763
 40
1.0
 40
1.0
 40
1.0
 40
1.0
 10
215.7479817936847
 20
115.9812828931268
 30
0.0
 10
216.0784202948261
 20
115.9920025350193
 30
0.0
 10
216.6438253828503
 20
116.0103446472335
 30
0.0
 10
217.4657353031475
 20
116.037008384966
 30
0.0
 10
217.8748218930793
 20
116.0502793345578
 30
0.0
 10
218.056164212031
 20
116.0561621594484
 30
0.0
  0
SPLINE
  5
B7
330
1F
100
AcDbEntity
  8
0
  6
Continuous
 62
     7
370
    25
100
AcDbSpline
210
0.0
220
0.0
230
1.0
 70
     8
 71
     3
 72
    11
 73
     7
 74
     0
 42
0.000000001
 43
0.00000001
 40
0.0
 40
0.0
 40
0.0
 40
0.0
 40
0.1845124508731839
 40
0.5180562087257421
 40
0.8676110998805365
 40
1.0
 40
1.0
 40
1.0
 40
1.0
 10
214.6587367127368
 20
113.9448947445731
 30
0.0
 10
214.7219924673912
 20
114.0631583524462
 30
0.0
 10
214.8995958555708
 20
114.395207469105
 30
0.0
 10
215.2306638716836
 20
115.0141286422024
 30
0.0
 10
215.5382703848763
 20
115.5892406996174
 30
0.0
 10
215.7027889150643
 20
115.8967976695236
 30
0.0
 10
215.7479817936846
 20
115.9812828931268
 30
0.0
  0
SPLINE
  5
B8
330
1F
100
AcDbEntity
  8
0
  6
Continuous
 62
     7
370
    25
100
AcDbSpline
210
0.0
220
0.0
230
1.0
 70
     8
 71
     3
 72
    10
 73
     6
 74
     0
 42
0.000000001
 43
0.00000001
 40
0.0
 40
0.0
 40
0.0
 40
0.0
 40
0.4391227675280061
 40
0.7513718416526151
 40
1.0
 40
1.0
 40
1.0
 40
1.0
 10
215.8776740501353
 20
111.9833860951717
 30
0.0
 10
215.7031703103283
 20
112.264194990247
 30
0.0
 10
215.4045813824707
 20
112.7446799758763
 30
0.0
 10
214.9705367201168
 20
113.4431453061522
 30
0.0
 10
214.7545016853815
 20
113.7907894844461
 30
0.0
 10
214.6587367127368
 20
113.9448947445731
 30
0.0
  0
SPLINE
  5
B9
330
1F
100
AcDbEntity
  8
0
  6
Continuous
 62
     7
370
    25
100
AcDbSpline
210
0.0
220
0.0
230
1.0
 70
     8
 71
     3
 72
    10
 73
     6
 74
     0
 42
0.000000001
 43
0.00000001
 40
0.0
 40
0.0
 40
0.0
 40
0.0
 40
0.4391236440731853
 40
0.7513714173669129
 40
1.0
 40
1.0
 40
1.0
 40
1.0
 10
218.1858639190623
 20
112.0582653614934
 30
0.0
 10
217.8554229249637
 20
112.0475457442836
 30
0.0
 10
217.2900151601051
 20
112.0292037258446
 30
0.0
 10
216.468102985089
 20
112.0025398632399
 30
0.0
 10
216.0590163770941
 20
111.9892689180923
 30
0.0
 10
215.8776740501353
 20
111.9833860951717
 30
0.0
  0
CIRCLE
  5
BA
330
1F
100
AcDbEntity
  8
0
  6
Continuous
 62
     7
370
    25
100
AcDbCircle
 10
216.9669199179
 20
114.0197741273
 30
0.0
 40
2.35
  0
CIRCLE
  5
BB
330
1F
100
AcDbEntity
  8
0
  6
Continuous
 62
     7
370
    25
100
AcDbCircle
 10
216.9669199179
 20
114.0197741273
 30
0.0
 40
3.499999999999996
  0
CIRCLE
  5
BC
330
1F
100
AcDbEntity
  8
0
  6
Continuous
 62
     7
370
    25
100
AcDbCircle
 10
216.9669199179
 20
114.0197741273
 30
0.0
 40
4.000000000000009
  0
ARC
  5
BD
330
1F
100
AcDbEntity
  8
0
  6
Continuous
 62
     7
370
    25
100
AcDbCircle
 10
216.9669199179
 20
114.0197741273
 30
0.0
 40
1.999999999999974
100
AcDbArc
 50
331.8580681258
 51
31.8580681258
  0
ARC
  5
BE
330
1F
100
AcDbEntity
  8
0
  6
Continuous
 62
     7
370
    25
100
AcDbCircle
 10
216.9669199179
 20
114.0197741273
 30
0.0
 40
2.000000000000011
100
AcDbArc
 50
211.8580681258
 51
271.8580681258
  0
ARC
  5
BF
330
1F
100
AcDbEntity
  8
0
  6
Continuous
 62
     7
370
    25
100
AcDbCircle
 10
216.9669199179
 20
114.0197741273
 30
0.0
 40
2.00000000000002
100
AcDbArc
 50
91.8580681258
 51
151.8580681258
  0
ARC
  5
C0
330
1F
100
AcDbEntity
  8
0
  6
Continuous
 62
     7
370
    25
100
AcDbCircle
 10
216.9669199179
 20
114.0197741273
 30
0.0
 40
2.00000000000002
100
AcDbArc
 50
151.8580681258
 51
211.8580681258
  0
ARC
  5
C1
330
1F
100
AcDbEntity
  8
0
  6
Continuous
 62
     7
370
    25
100
AcDbCircle
 10
216.9669199179
 20
114.0197741273
 30
0.0
 40
2.000000000000011
100
AcDbArc
 50
271.8580681258
 51
331.8580681258
  0
ARC
  5
C2
330
1F
100
AcDbEntity
  8
0
  6
Continuous
 62
     7
370
    25
100
AcDbCircle
 10
216.9669199179
 20
114.0197741273
 30
0.0
 40
2.000000000000013
100
AcDbArc
 50
31.8580681258
 51
91.8580681258
  0
SPLINE
  5
C3
330
1F
100
AcDbEntity
  8
0
  6
HIDDEN
 62
     7
370
    18
100
AcDbSpline
210
0.0
220
0.0
230
1.0
 70
     8
 71
     3
 72
    17
 73
    13
 74
     0
 42
0.000000001
 43
0.00000001
 40
0.0
 40
0.0
 40
0.0
 40
0.0
 40
0.000981312519591
 40
0.0010020334259633
 40
0.2502032400892412
 40
0.5024387434893361
 40
0.5867805814245516
 40
0.6701656694526876
 40
0.7528827246643673
 40
0.8352274922224971
 40
0.9174997331583725
 40
1.0
 40
1.0
 40
1.0
 40
1.0
 10
158.26691020093
 20
82.51977489296803
 30
0.0
 10
158.2669141368343
 20
82.51977451632686
 30
0.0
 10
158.2669181558471
 20
82.51977413173272
 30
0.0
 10
158.2675388895648
 20
82.51977302271304
 30
0.0
 10
158.1633938596873
 20
82.55198963487356
 30
0.0
 10
157.7949093163647
 20
82.66035080511577
 30
0.0
 10
157.4282967396931
 20
82.76518148173228
 30
0.0
 10
157.1787652095615
 20
82.8348741867438
 30
0.0
 10
156.9009794155935
 20
82.91001589559454
 30
0.0
 10
156.5943196409414
 20
82.9896808891973
 30
0.0
 10
156.2611328077747
 20
83.07283007063072
 30
0.0
 10
156.0161353657012
 20
83.1301425528594
 30
0.0
 10
155.893467120742
 20
83.15883845086447
 30
0.0
  0
LINE
  5
C4
330
1F
100
AcDbEntity
  8
0
  6
HIDDEN
 62
     7
370
    18
100
AcDbLine
 10
225.8169199298
 20
124.8197483304
 30
0.0
 11
225.8169199298
 21
126.5547464076
 31
0.0
  0
LINE
  5
C5
330
1F
100
AcDbEntity
  8
0
  6
HIDDEN
 62
     7
370
    18
100
AcDbLine
 10
225.8169199298
 20
105.8382077548
 30
0.0
 11
225.8169199298
 21
122.2013404998
 31
0.0
  0
LINE
  5
C6
330
1F
100
AcDbEntity
  8
0
  6
HIDDEN
 62
     7
370
    18
100
AcDbLine
 10
225.8169199298
 20
101.484801847
 30
0.0
 11
225.8169199298
 21
103.2197999242
 31
0.0
  0
LINE
  5
C7
330
1F
100
AcDbEntity
  8
0
  6
HIDDEN
 62
     7
370
    18
100
AcDbLine
 10
224.0848685573
 20
109.6554298359
 30
0.0
 11
224.0848685573
 21
118.3841184187
 31
0.0
  0
LINE
  5
C8
330
1F
100
AcDbEntity
  8
0
  6
HIDDEN
 62
     7
370
    18
100
AcDbLine
 10
222.9169229935
 20
109.6554298359
 30
0.0
 11
222.9169229935
 21
118.3841184187
 31
0.0
  0
LINE
  5
C9
330
1F
100
AcDbEntity
  8
0
  6
HIDDEN
 62
     7
370
    18
100
AcDbLine
 10
225.8169199298
 20
124.8197483304
 30
0.0
 11
225.8169199298
 21
124.7599378634
 31
0.0
  0
LINE
  5
CA
330
1F
100
AcDbEntity
  8
0
  6
HIDDEN
 62
     7
370
    18
100
AcDbLine
 10
222.9169229935
 20
124.7599378634
 30
0.0
 11
225.8169199298
 21
124.7599378634
 31
0.0
  0
LINE
  5
CB
330
1F
100
AcDbEntity
  8
0
  6
HIDDEN
 62
     7
370
    18
100
AcDbLine
 10
222.9169229935
 20
124.8197744075
 30
0.0
 11
222.9169229935
 21
121.6197742555
 31
0.0
  0
LINE
  5
CC
330
1F
100
AcDbEntity
  8
0
  6
HIDDEN
 62
     7
370
    18
100
AcDbLine
 10
222.9169229935
 20
121.6197742555
 30
0.0
 11
222.9169229935
 21
118.3841184187
 31
0.0
  0
LINE
  5
CD
330
1F
100
AcDbEntity
  8
0
  6
HIDDEN
 62
     7
370
    18
100
AcDbLine
 10
222.9169229935
 20
118.3841184187
 30
0.0
 11
224.0848685573
 21
118.3841184187
 31
0.0
  0
SPLINE
  5
CE
330
1F
100
AcDbEntity
  8
0
  6
HIDDEN
 62
     7
370
    18
100
AcDbSpline
210
0.0
220
0.0
230
1.0
 70
     8
 71
     3
 72
     8
 73
     4
 74
     0
 42
0.000000001
 43
0.00000001
 40
0.0
 40
0.0
 40
0.0
 40
0.0
 40
1.0
 40
1.0
 40
1.0
 40
1.0
 10
224.0848691102955
 20
118.3841182933905
 30
0.0
 10
224.6116160037526
 20
119.1157822539247
 30
0.0
 10
225.1991412988157
 20
119.7863901125708
 30
0.0
 10
225.8169199178645
 20
120.4266064179198
 30
0.0
  0
LINE
  5
CF
330
1F
100
AcDbEntity
  8
0
  6
HIDDEN
 62
     7
370
    18
100
AcDbLine
 10
222.9169229935
 20
109.6554298359
 30
0.0
 11
222.9169229935
 21
106.4197739992
 31
0.0
  0
LINE
  5
D0
330
1F
100
AcDbEntity
  8
0
  6
HIDDEN
 62
     7
370
    18
100
AcDbLine
 10
224.0848685573
 20
109.6554298359
 30
0.0
 11
222.9169229935
 21
109.6554298359
 31
0.0
  0
SPLINE
  5
D1
330
1F
100
AcDbEntity
  8
0
  6
HIDDEN
 62
     7
370
    18
100
AcDbSpline
210
0.0
220
0.0
230
1.0
 70
     8
 71
     3
 72
     8
 73
     4
 74
     0
 42
0.000000001
 43
0.00000001
 40
0.0
 40
0.0
 40
0.0
 40
0.0
 40
1.0
 40
1.0
 40
1.0
 40
1.0
 10
225.8169199178645
 20
107.6129418367003
 30
0.0
 10
225.19377782903
 20
108.2587164127699
 30
0.0
 10
224.6060016417529
 20
108.9315644830171
 30
0.0
 10
224.0848691102955
 20
109.6554299612297
 30
0.0
  0
LINE
  5
D2
330
1F
100
AcDbEntity
  8
0
  6
HIDDEN
 62
     7
370
    18
100
AcDbLine
 10
222.9169229935
 20
103.2796103913
 30
0.0
 11
225.8169199298
 21
103.2796103913
 31
0.0
  0
LINE
  5
D3
330
1F
100
AcDbEntity
  8
0
  6
HIDDEN
 62
     7
370
    18
100
AcDbLine
 10
225.8169199298
 20
103.2796103913
 30
0.0
 11
225.8169199298
 21
103.2197999242
 31
0.0
  0
LINE
  5
D4
330
1F
100
AcDbEntity
  8
0
  6
HIDDEN
 62
     7
370
    18
100
AcDbLine
 10
222.9169229935
 20
106.4197739992
 30
0.0
 11
222.9169229935
 21
103.2197738472
 31
0.0
  0
LINE
  5
D5
330
1F
100
AcDbEntity
  8
0
  6
HIDDEN
 62
     7
370
    18
100
AcDbLine
 10
222.1169169019
 20
105.0197745147
 30
0.0
 11
222.1169169019
 21
123.0197737399
 31
0.0
  0
LINE
  5
D6
330
1F
100
AcDbEntity
  8
0
  6
HIDDEN
 62
     7
370
    18
100
AcDbLine
 10
207.266918845
 20
105.4197738352
 30
0.0
 11
207.266918845
 21
122.6197744194
 31
0.0
  0
LINE
  5
D7
330
1F
100
AcDbEntity
  8
0
  6
HIDDEN
 62
     7
370
    18
100
AcDbLine
 10
209.2669228981
 20
105.0197745147
 30
0.0
 11
209.2669228981
 21
123.0197737399
 31
0.0
  0
LINE
  5
D8
330
1F
100
AcDbEntity
  8
0
  6
HIDDEN
 62
     7
370
    18
100
AcDbLine
 10
136.2669200129
 20
136.5197750214
 30
0.0
 11
136.604178227
 21
136.5197750214
 31
0.0
  0
ELLIPSE
  5
D9
330
1F
100
AcDbEntity
  8
0
  6
HIDDEN
 62
     7
370
    18
100
AcDbEllipse
 10
136.6041782181
 20
138.1197741273
 30
0.0
 11
0.0
 21
1.599999999999994
 31
0.0
210
0.0
220
0.0
230
1.0
 40
0.4142135624
 41
3.141592653589793
 42
4.712388980384695
  0
ELLIPSE
  5
DA
330
1F
100
AcDbEntity
  8
0
  6
HIDDEN
 62
     7
370
    18
100
AcDbEllipse
 10
136.6041782181
 20
89.9197741273
 30
0.0
 11
0.0
 21
1.599999999999994
 31
0.0
210
0.0
220
0.0
230
1.0
 40
0.4142135624
 41
4.712388980384695
 42
6.283185307179586
  0
LINE
  5
DB
330
1F
100
AcDbEntity
  8
0
  6
HIDDEN
 62
     7
370
    18
100
AcDbLine
 10
136.604178227
 20
91.5197732332
 30
0.0
 11
136.2669200129
 21
91.5197732332
 31
0.0
  0
LINE
  5
DC
330
1F
100
AcDbEntity
  8
0
  6
HIDDEN
 62
     7
370
    18
100
AcDbLine
 10
137.2669199439
 20
84.5657514814
 30
0.0
 11
136.653952762
 21
83.9527847651
 31
0.0
  0
LINE
  5
DD
330
1F
100
AcDbEntity
  8
0
  6
HIDDEN
 62
     7
370
    18
100
AcDbLine
 10
136.653952762
 20
144.0867634895
 30
0.0
 11
137.2669199439
 21
143.4737967733
 31
0.0
  0
LINE
  5
DE
330
1F
100
AcDbEntity
  8
0
  6
HIDDEN
 62
     7
370
    18
100
AcDbLine
 10
75.866918541
 20
105.5197736654
 30
0.0
 11
75.866918541
 21
122.5197745892
 31
0.0
  0
LINE
  5
DF
330
1F
100
AcDbEntity
  8
0
  6
HIDDEN
 62
     7
370
    18
100
AcDbLine
 10
78.8628491531
 20
107.0197739112
 30
0.0
 11
78.8628491531
 21
121.0197743434
 31
0.0
  0
LINE
  5
E0
330
1F
100
AcDbEntity
  8
0
  6
HIDDEN
 62
     7
370
    18
100
AcDbLine
 10
137.2669199439
 20
143.4737967733
 30
0.0
 11
146.3994816835
 21
143.4737967733
 31
0.0
  0
LINE
  5
E1
330
1F
100
AcDbEntity
  8
0
  6
HIDDEN
 62
     7
370
    18
100
AcDbLine
 10
137.2669199439
 20
143.4737967733
 30
0.0
 11
137.2669199439
 21
138.1197741661
 31
0.0
  0
LINE
  5
E2
330
1F
100
AcDbEntity
  8
0
  6
HIDDEN
 62
     7
370
    18
100
AcDbLine
 10
146.3994816835
 20
84.5657514814
 30
0.0
 11
137.2669199439
 21
84.5657514814
 31
0.0
  0
LINE
  5
E3
330
1F
100
AcDbEntity
  8
0
  6
HIDDEN
 62
     7
370
    18
100
AcDbLine
 10
137.2669199439
 20
84.5657514814
 30
0.0
 11
137.2669199439
 21
89.9197740886
 31
0.0
  0
LINE
  5
E4
330
1F
100
AcDbEntity
  8
0
  6
HIDDEN
 62
     7
370
    18
100
AcDbLine
 10
149.2169196675
 20
91.5197732332
 30
0.0
 11
136.604178227
 21
91.5197732332
 31
0.0
  0
LINE
  5
E5
330
1F
100
AcDbEntity
  8
0
  6
HIDDEN
 62
     7
370
    18
100
AcDbLine
 10
136.604178227
 20
136.5197750214
 30
0.0
 11
149.2169196675
 21
136.5197750214
 31
0.0
  0
LINE
  5
E6
330
1F
100
AcDbEntity
  8
0
  6
HIDDEN
 62
     7
370
    18
100
AcDbLine
 10
149.2169196675
 20
136.5197750214
 30
0.0
 11
155.6669208179
 21
136.5197750214
 31
0.0
  0
SPLINE
  5
E7
330
1F
100
AcDbEntity
  8
0
  6
HIDDEN
 62
     7
370
    18
100
AcDbSpline
210
0.0
220
0.0
230
1.0
 70
     8
 71
     3
 72
    22
 73
    18
 74
     0
 42
0.000000001
 43
0.00000001
 40
0.0
 40
0.0
 40
0.0
 40
0.0
 40
0.0479373712880833
 40
0.0947427791178683
 40
0.140416830721028
 40
0.1849601803039977
 40
0.2283735338963301
 40
0.2706576548389196
 40
0.3118133700153988
 40
0.3518415769498281
 40
0.3907432519180673
 40
0.4285194592500279
 40
0.4651713620368759
 40
0.5007002345030118
 40
0.7601597454154256
 40
0.9994256477385562
 40
1.0
 40
1.0
 40
1.0
 40
1.0
 10
155.2431835484769
 20
143.9246349030211
 30
0.0
 10
155.3038456961382
 20
143.9401210939688
 30
0.0
 10
155.4237375529977
 20
143.9707277945223
 30
0.0
 10
155.5925524096195
 20
144.0148895381735
 30
0.0
 10
155.750877832439
 20
144.0570645425603
 30
0.0
 10
155.8984366556738
 20
144.0971726816736
 30
0.0
 10
156.0357407460655
 20
144.1352347103914
 30
0.0
 10
156.1631187111257
 20
144.1712453284538
 30
0.0
 10
156.2809632783435
 20
144.2052060314517
 30
0.0
 10
156.3896640718814
 20
144.2371163254324
 30
0.0
 10
156.4896219641732
 20
144.2669771199651
 30
0.0
 10
156.5812416891283
 20
144.2947858205531
 30
0.0
 10
156.6649335871515
 20
144.3205520012447
 30
0.0
 10
156.9019234774944
 20
144.3942615723026
 30
0.0
 10
157.1813376874715
 20
144.4866307333788
 30
0.0
 10
157.2670508035268
 20
144.5197107352777
 30
0.0
 10
157.2669195259825
 20
144.5197737695178
 30
0.0
 10
157.2669192116085
 20
144.5197739204677
 30
0.0
  0
LINE
  5
E8
330
1F
100
AcDbEntity
  8
0
  6
HIDDEN
 62
     7
370
    18
100
AcDbLine
 10
155.9934145729
 20
144.1243479434
 30
0.0
 11
155.2431615959
 21
143.9248232576
 31
0.0
  0
LINE
  5
E9
330
1F
100
AcDbEntity
  8
0
  6
HIDDEN
 62
     7
370
    18
100
AcDbLine
 10
155.2431615959
 20
84.1147268596
 30
0.0
 11
155.337104104
 21
84.0897432002
 31
0.0
  0
SPLINE
  5
EA
330
1F
100
AcDbEntity
  8
0
  6
HIDDEN
 62
     7
370
    18
100
AcDbSpline
210
0.0
220
0.0
230
1.0
 70
     8
 71
     3
 72
    13
 73
     9
 74
     0
 42
0.000000001
 43
0.00000001
 40
0.0
 40
0.0
 40
0.0
 40
0.0
 40
0.0000729361156625
 40
0.1576811053509624
 40
0.3241446092054769
 40
0.4996852758246662
 40
0.7294243760518063
 40
1.0
 40
1.0
 40
1.0
 40
1.0
 10
157.2668864349553
 20
83.51978682309941
 30
0.0
 10
157.2668976150692
 20
83.51978247527347
 30
0.0
 10
157.2910679825701
 20
83.51038287957427
 30
0.0
 10
157.2184541640066
 20
83.53873274275436
 30
0.0
 10
157.0632733482661
 20
83.59224237791659
 30
0.0
 10
156.7268876722723
 20
83.70079097893002
 30
0.0
 10
156.1696217148511
 20
83.87184733529519
 30
0.0
 10
155.5683565346547
 20
84.02961250176786
 30
0.0
 10
155.2431858102509
 20
84.11493361324624
 30
0.0
  0
LINE
  5
EB
330
1F
100
AcDbEntity
  8
0
  6
HIDDEN
 62
     7
370
    18
100
AcDbLine
 10
155.6669208179
 20
91.5197732332
 30
0.0
 11
149.2169196675
 21
91.5197732332
 31
0.0
  0
LINE
  5
EC
330
1F
100
AcDbEntity
  8
0
  6
HIDDEN
 62
     7
370
    18
100
AcDbLine
 10
111.8669207166
 20
107.0197739112
 30
0.0
 11
111.8669207166
 21
121.0197743434
 31
0.0
  0
LINE
  5
ED
330
1F
100
AcDbEntity
  8
0
  6
HIDDEN
 62
     7
370
    18
100
AcDbLine
 10
113.519286267
 20
109.7697738963
 30
0.0
 11
113.519286267
 21
118.2697743583
 31
0.0
  0
SPLINE
  5
EE
330
1F
100
AcDbEntity
  8
0
  6
HIDDEN
 62
     7
370
    18
100
AcDbSpline
210
0.0
220
0.0
230
1.0
 70
     8
 71
     3
 72
     9
 73
     5
 74
     0
 42
0.000000001
 43
0.00000001
 40
0.0
 40
0.0
 40
0.0
 40
0.0
 40
0.4932365030918491
 40
1.0
 40
1.0
 40
1.0
 40
1.0
 10
155.2439794565619
 20
143.9246056384823
 30
0.0
 10
155.3498274119638
 20
144.0816270266052
 30
0.0
 10
155.5644261992359
 20
144.3999761089187
 30
0.0
 10
155.7822860811243
 20
144.7198022166067
 30
0.0
 10
155.892689516706
 20
144.8818784133412
 30
0.0
  0
SPLINE
  5
EF
330
1F
100
AcDbEntity
  8
0
  6
HIDDEN
 62
     7
370
    18
100
AcDbSpline
210
0.0
220
0.0
230
1.0
 70
     8
 71
     3
 72
     9
 73
     5
 74
     0
 42
0.000000001
 43
0.00000001
 40
0.0
 40
0.0
 40
0.0
 40
0.0
 40
0.5067661696360637
 40
0.9999999999999999
 40
0.9999999999999999
 40
0.9999999999999999
 40
0.9999999999999999
 10
155.8926932019919
 20
83.15768397683293
 30
0.0
 10
155.7822883714948
 20
83.31976139144857
 30
0.0
 10
155.5644268860361
 20
83.63958821558722
 30
0.0
 10
155.3498271681541
 20
83.95793673184338
 30
0.0
 10
155.2439793273081
 20
84.11495698990707
 30
0.0
  0
LINE
  5
F0
330
1F
100
AcDbEntity
  8
0
  6
HIDDEN
 62
     7
370
    18
100
AcDbLine
 10
222.9169229935
 20
126.1947744
 30
0.0
 11
222.9169229935
 21
124.8197744075
 31
0.0
  0
LINE
  5
F1
330
1F
100
AcDbEntity
  8
0
  6
HIDDEN
 62
     7
370
    18
100
AcDbLine
 10
222.9169229935
 20
103.2197738472
 30
0.0
 11
222.9169229935
 21
101.8447738546
 31
0.0
  0
CIRCLE
  5
F2
330
1F
100
AcDbEntity
  8
0
  6
HIDDEN
 62
     7
370
    18
100
AcDbCircle
 10
216.9669199179
 20
114.0197741273
 30
0.0
 40
3.508270759903317
  0
CIRCLE
  5
F3
330
1F
100
AcDbEntity
  8
0
  6
HIDDEN
 62
     7
370
    18
100
AcDbCircle
 10
216.9669199179
 20
114.0197741273
 30
0.0
 40
2.49956004487798
  0
ARC
  5
F4
330
1F
100
AcDbEntity
  8
0
  6
HIDDEN
 62
     7
370
    18
100
AcDbCircle
 10
216.9669199179
 20
114.0197741273
 30
0.0
 40
2.199560044878005
100
AcDbArc
 50
294.0522672769
 51
331.8580681258
  0
LWPOLYLINE
  5
F5
330
1F
100
AcDbEntity
  8
0
  6
HIDDEN
 62
     7
370
    18
100
AcDbPolyline
 90
        3
 70
   128
 43
0.0
 10
216.2118176887
 20
111.9538890138
 10
216.0773272584
 20
112.0081373896
 10
215.6883696983
 20
112.2299758657
  0
LWPOLYLINE
  5
F6
330
1F
100
AcDbEntity
  8
0
  6
HIDDEN
 62
     7
370
    18
100
AcDbPolyline
 90
        3
 70
   128
 43
0.0
 10
214.7945384453
 20
113.675075257
 10
214.7693331311
 20
114.1129425245
 10
214.7755618165
 20
114.2095338085
  0
LWPOLYLINE
  5
F7
330
1F
100
AcDbEntity
  8
0
  6
HIDDEN
 62
     7
370
    18
100
AcDbPolyline
 90
        3
 70
   128
 43
0.0
 10
215.5944774816
 20
115.7386291246
 10
215.6695867846
 20
115.7960055801
 10
216.0807321737
 20
116.0329133212
  0
LWPOLYLINE
  5
F8
330
1F
100
AcDbEntity
  8
0
  6
HIDDEN
 62
     7
370
    18
100
AcDbPolyline
 90
        3
 70
   128
 43
0.0
 10
217.7248741458
 20
116.0846156939
 10
218.1463981936
 20
115.8763552024
 10
218.1831370066
 20
115.8525006552
  0
ARC
  5
F9
330
1F
100
AcDbEntity
  8
0
  6
HIDDEN
 62
     7
370
    18
100
AcDbCircle
 10
216.9669199179
 20
114.0197741273
 30
0.0
 40
2.199560044877995
100
AcDbArc
 50
331.8580681258
 51
8.145208639
  0
LINE
  5
FA
330
1F
100
AcDbEntity
  8
0
  6
HIDDEN
 62
     7
370
    18
100
AcDbLine
 10
226.2669200967
 20
127.5197744775
 30
0.0
 11
225.8169199298
 21
126.5547464076
 31
0.0
  0
LINE
  5
FB
330
1F
100
AcDbEntity
  8
0
  6
HIDDEN
 62
     7
370
    18
100
AcDbLine
 10
225.8169199298
 20
101.484801847
 30
0.0
 11
226.2669200967
 21
100.5197737771
 31
0.0
  0
LINE
  5
FC
330
1F
100
AcDbEntity
  8
0
  6
HIDDEN
 62
     7
370
    18
100
AcDbLine
 10
225.8139918516
 20
124.8197744075
 30
0.0
 11
222.9169229935
 21
124.8197744075
 31
0.0
  0
LINE
  5
FD
330
1F
100
AcDbEntity
  8
0
  6
HIDDEN
 62
     7
370
    18
100
AcDbLine
 10
222.9169229935
 20
103.2197738472
 30
0.0
 11
225.8169199298
 21
103.2197738472
 31
0.0
  0
LINE
  5
FE
330
1F
100
AcDbEntity
  8
0
  6
HIDDEN
 62
     7
370
    18
100
AcDbLine
 10
222.9169229935
 20
123.4816547889
 30
0.0
 11
222.1169169019
 21
123.0197737399
 31
0.0
  0
LINE
  5
FF
330
1F
100
AcDbEntity
  8
0
  6
HIDDEN
 62
     7
370
    18
100
AcDbLine
 10
222.1169169019
 20
105.0197745147
 30
0.0
 11
222.9169229935
 21
104.5578934658
 31
0.0
  0
ARC
  5
100
330
1F
100
AcDbEntity
  8
0
  6
HIDDEN
 62
     7
370
    18
100
AcDbCircle
 10
69.6669199179
 20
104.7197741273
 30
0.0
 40
0.7999999999999972
100
AcDbArc
 50
90.0
 51
180.0
  0
ARC
  5
101
330
1F
100
AcDbEntity
  8
0
  6
HIDDEN
 62
     7
370
    18
100
AcDbCircle
 10
69.6669199179
 20
123.3197741273
 30
0.0
 40
0.7999999999999972
100
AcDbArc
 50
180.0
 51
270.0
  0
ARC
  5
102
330
1F
100
AcDbEntity
  8
0
  6
HIDDEN
 62
     7
370
    18
100
AcDbCircle
 10
208.4415182578
 20
105.4197741273
 30
0.0
 40
0.6000000000000208
100
AcDbArc
 50
270.0
 51
285.0
  0
ARC
  5
103
330
1F
100
AcDbEntity
  8
0
  6
HIDDEN
 62
     7
370
    18
100
AcDbCircle
 10
208.4415182578
 20
122.6197741273
 30
0.0
 40
0.6000000000000208
100
AcDbArc
 50
75.0
 51
90.0
  0
LINE
  5
104
330
1F
100
AcDbEntity
  8
0
  6
HIDDEN
 62
     7
370
    18
100
AcDbLine
 10
207.866921551
 20
104.8197739232
 30
0.0
 11
208.4415177772
 21
104.8197739232
 31
0.0
  0
LINE
  5
105
330
1F
100
AcDbEntity
  8
0
  6
HIDDEN
 62
     7
370
    18
100
AcDbLine
 10
208.4415177772
 20
123.2197743315
 30
0.0
 11
207.866921551
 21
123.2197743315
 31
0.0
  0
ARC
  5
106
330
1F
100
AcDbEntity
  8
0
  6
HIDDEN
 62
     7
370
    18
100
AcDbCircle
 10
207.8669199179
 20
105.4197741273
 30
0.0
 40
0.6000000000000085
100
AcDbArc
 50
180.0
 51
270.0
  0
ARC
  5
107
330
1F
100
AcDbEntity
  8
0
  6
HIDDEN
 62
     7
370
    18
100
AcDbCircle
 10
207.8669199179
 20
122.6197741273
 30
0.0
 40
0.6000000000000085
100
AcDbArc
 50
90.0
 51
180.0
  0
LINE
  5
108
330
1F
100
AcDbEntity
  8
0
  6
HIDDEN
 62
     7
370
    18
100
AcDbLine
 10
208.5968102286
 20
104.8402183163
 30
0.0
 11
209.2669228981
 21
105.0197745147
 31
0.0
  0
LINE
  5
109
330
1F
100
AcDbEntity
  8
0
  6
HIDDEN
 62
     7
370
    18
100
AcDbLine
 10
209.2669228981
 20
123.0197737399
 30
0.0
 11
208.5968102286
 21
123.1993299383
 31
0.0
  0
LINE
  5
10A
330
1F
100
AcDbEntity
  8
0
  6
HIDDEN
 62
     7
370
    18
100
AcDbLine
 10
209.2669228981
 20
105.0197745147
 30
0.0
 11
222.1169169019
 21
105.0197745147
 31
0.0
  0
LINE
  5
10B
330
1F
100
AcDbEntity
  8
0
  6
HIDDEN
 62
     7
370
    18
100
AcDbLine
 10
222.1169169019
 20
123.0197737399
 30
0.0
 11
209.2669228981
 21
123.0197737399
 31
0.0
  0
ARC
  5
10C
330
1F
100
AcDbEntity
  8
0
  6
HIDDEN
 62
     7
370
    18
100
AcDbCircle
 10
77.6359798102
 20
105.6947741273
 30
0.0
 40
0.4000000000000244
100
AcDbArc
 50
270.0
 51
330.0
  0
ARC
  5
10D
330
1F
100
AcDbEntity
  8
0
  6
HIDDEN
 62
     7
370
    18
100
AcDbCircle
 10
77.6359798102
 20
122.3447741273
 30
0.0
 40
0.4000000000000244
100
AcDbArc
 50
30.0
 51
90.0
  0
LINE
  5
10E
330
1F
100
AcDbEntity
  8
0
  6
HIDDEN
 62
     7
370
    18
100
AcDbLine
 10
76.7592932055
 20
105.2947745133
 30
0.0
 11
77.6359806726
 21
105.2947745133
 31
0.0
  0
LINE
  5
10F
330
1F
100
AcDbEntity
  8
0
  6
HIDDEN
 62
     7
370
    18
100
AcDbLine
 10
77.6359806726
 20
122.7447737414
 30
0.0
 11
76.7592932055
 21
122.7447737414
 31
0.0
  0
ARC
  5
110
330
1F
100
AcDbEntity
  8
0
  6
HIDDEN
 62
     7
370
    18
100
AcDbCircle
 10
76.7592923486
 20
105.6947741273
 30
0.0
 40
0.3999999999999915
100
AcDbArc
 50
255.0
 51
270.0
  0
ARC
  5
111
330
1F
100
AcDbEntity
  8
0
  6
HIDDEN
 62
     7
370
    18
100
AcDbCircle
 10
76.7592923486
 20
122.3447741273
 30
0.0
 40
0.3999999999999915
100
AcDbArc
 50
90.0
 51
105.0
  0
LINE
  5
112
330
1F
100
AcDbEntity
  8
0
  6
HIDDEN
 62
     7
370
    18
100
AcDbLine
 10
76.6557636629
 20
122.7311447668
 30
0.0
 11
75.866918541
 21
122.5197745892
 31
0.0
  0
LINE
  5
113
330
1F
100
AcDbEntity
  8
0
  6
HIDDEN
 62
     7
370
    18
100
AcDbLine
 10
75.866918541
 20
105.5197736654
 30
0.0
 11
76.6557636629
 21
105.3084034878
 31
0.0
  0
LINE
  5
114
330
1F
100
AcDbEntity
  8
0
  6
HIDDEN
 62
     7
370
    18
100
AcDbLine
 10
77.9823916922
 20
105.4947741735
 30
0.0
 11
78.8628491531
 21
107.0197739112
 31
0.0
  0
LINE
  5
115
330
1F
100
AcDbEntity
  8
0
  6
HIDDEN
 62
     7
370
    18
100
AcDbLine
 10
78.8628491531
 20
121.0197743434
 30
0.0
 11
77.9823916922
 21
122.5447740811
 31
0.0
  0
LINE
  5
116
330
1F
100
AcDbEntity
  8
0
  6
HIDDEN
 62
     7
370
    18
100
AcDbLine
 10
69.6669216226
 20
105.5197736654
 30
0.0
 11
75.866918541
 21
105.5197736654
 31
0.0
  0
LINE
  5
117
330
1F
100
AcDbEntity
  8
0
  6
HIDDEN
 62
     7
370
    18
100
AcDbLine
 10
75.866918541
 20
122.5197745892
 30
0.0
 11
69.6669216226
 21
122.5197745892
 31
0.0
  0
ARC
  5
118
330
1F
100
AcDbEntity
  8
0
  6
HIDDEN
 62
     7
370
    18
100
AcDbCircle
 10
155.6669199179
 20
138.1197741273
 30
0.0
 40
1.600000000000023
100
AcDbArc
 50
270.0
 51
0.0
  0
LINE
  5
119
330
1F
100
AcDbEntity
  8
0
  6
HIDDEN
 62
     7
370
    18
100
AcDbLine
 10
157.2669199626
 20
138.1197741661
 30
0.0
 11
157.2669199626
 21
144.6200685981
 31
0.0
  0
LINE
  5
11A
330
1F
100
AcDbEntity
  8
0
  6
HIDDEN
 62
     7
370
    18
100
AcDbLine
 10
157.2669199626
 20
83.4194163266
 30
0.0
 11
157.2669199626
 21
89.9197740886
 31
0.0
  0
ARC
  5
11B
330
1F
100
AcDbEntity
  8
0
  6
HIDDEN
 62
     7
370
    18
100
AcDbCircle
 10
155.6669199179
 20
89.9197741273
 30
0.0
 40
1.599999999999994
100
AcDbArc
 50
0.0
 51
90.0
  0
LINE
  5
11C
330
1F
100
AcDbEntity
  8
0
  6
HIDDEN
 62
     7
370
    18
100
AcDbLine
 10
111.8669207166
 20
107.0197739112
 30
0.0
 11
113.519286267
 21
109.7697738963
 31
0.0
  0
LINE
  5
11D
330
1F
100
AcDbEntity
  8
0
  6
HIDDEN
 62
     7
370
    18
100
AcDbLine
 10
113.519286267
 20
118.2697743583
 30
0.0
 11
111.8669207166
 21
121.0197743434
 31
0.0
  0
LINE
  5
11E
330
1F
100
AcDbEntity
  8
0
  6
HIDDEN
 62
     7
370
    18
100
AcDbLine
 10
78.8628491531
 20
107.0197739112
 30
0.0
 11
111.8669207166
 21
107.0197739112
 31
0.0
  0
LINE
  5
11F
330
1F
100
AcDbEntity
  8
0
  6
HIDDEN
 62
     7
370
    18
100
AcDbLine
 10
111.8669207166
 20
121.0197743434
 30
0.0
 11
78.8628491531
 21
121.0197743434
 31
0.0
  0
LINE
  5
120
330
1F
100
AcDbEntity
  8
0
  6
HIDDEN
 62
     7
370
    18
100
AcDbLine
 10
157.2669180999
 20
144.51977447
 30
0.0
 11
158.2669182638
 21
145.5197746339
 31
0.0
  0
LINE
  5
121
330
1F
100
AcDbEntity
  8
0
  6
HIDDEN
 62
     7
370
    18
100
AcDbLine
 10
158.2669257144
 20
82.5197736207
 30
0.0
 11
157.2669255505
 21
83.5197719219
 31
0.0
  0
LINE
  5
122
330
1F
100
AcDbEntity
  8
0
  6
HIDDEN
 62
     7
370
    18
100
AcDbLine
 10
225.8169199298
 20
126.1947744
 30
0.0
 11
222.9169229935
 21
126.1947744
 31
0.0
  0
LINE
  5
123
330
1F
100
AcDbEntity
  8
0
  6
HIDDEN
 62
     7
370
    18
100
AcDbLine
 10
222.9169229935
 20
101.8447738546
 30
0.0
 11
225.8169199298
 21
101.8447738546
 31
0.0
  0
LINE
  5
124
330
1F
100
AcDbEntity
  8
0
  6
HIDDEN
 62
     7
370
    18
100
AcDbLine
 10
113.519286267
 20
109.7697738963
 30
0.0
 11
207.266918845
 21
109.7697738963
 31
0.0
  0
LINE
  5
125
330
1F
100
AcDbEntity
  8
0
  6
HIDDEN
 62
     7
370
    18
100
AcDbLine
 10
207.266918845
 20
118.2697743583
 30
0.0
 11
113.519286267
 21
118.2697743583
 31
0.0
  0
LINE
  5
126
330
1F
100
AcDbEntity
  8
0
  6
HIDDEN
 62
     7
370
    18
100
AcDbLine
 10
225.8142228196
 20
124.8197744075
 30
0.0
 11
225.8139918516
 21
124.8197744075
 31
0.0
  0
DIMENSION
  5
127
330
1F
100
AcDbEntity
  8
VERMASSUNG
100
AcDbDimension
  2
_D
 10
50.4852296011
 20
82.5197741273
 30
0.0
 11
50.4852296011
 21
114.0197741273
 31
0.0
 70
   160
  1
MAS BT 40 %%c<>
 71
     2
 42
-1.0
  3
SLDDIMSTYLE0
100
AcDbAlignedDimension
 13
158.2669157738
 23
145.5197741273
 33
0.0
 14
158.2669206839
 24
82.5197741273
 34
0.0
 50
90.0
100
AcDbRotatedDimension
  0
DIMENSION
  5
134
330
1F
100
AcDbEntity
  8
VERMASSUNG
100
AcDbDimension
  2
_D_1
 10
226.2669199179
 20
164.6201866735
 30
0.0
 11
147.5669199179
 21
164.6201866735
 31
0.0
 70
   160
  1
<>
 71
     2
 42
-1.0
  3
SLDDIMSTYLE0
100
AcDbAlignedDimension
 13
68.8669199179
 23
125.8425297243
 33
0.0
 14
226.2669199179
 24
129.7197741273
 34
0.0
100
AcDbRotatedDimension
  0
DIMENSION
  5
13E
330
1F
100
AcDbEntity
  8
VERMASSUNG
100
AcDbDimension
  2
_D_2
 10
226.2669199179
 20
158.6201866735
 30
0.0
 11
180.2669199179
 21
158.6201866735
 31
0.0
 70
   160
  1
<>
 71
     2
 42
-1.0
  3
SLDDIMSTYLE0
100
AcDbAlignedDimension
 13
134.2669199179
 23
136.2447741273
 33
0.0
 14
226.2669199179
 24
129.7197741273
 34
0.0
100
AcDbRotatedDimension
  0
DIMENSION
  5
148
330
1F
100
AcDbEntity
  8
VERMASSUNG
100
AcDbDimension
  2
_D_3
 10
226.2669199179
 20
152.6201866735
 30
0.0
 11
193.7669199179
 21
152.6201866735
 31
0.0
 70
   160
  1
<>
 71
     2
 42
-1.0
  3
SLDDIMSTYLE0
100
AcDbAlignedDimension
 13
161.2669199179
 23
144.5197741273
 33
0.0
 14
226.2669199179
 24
129.7197741273
 34
0.0
100
AcDbRotatedDimension
  0
DIMENSION
  5
152
330
1F
100
AcDbEntity
  8
VERMASSUNG
100
AcDbDimension
  2
_D_4
 10
233.7706665614
 20
98.0197741273
 30
0.0
 11
233.7706665614
 21
114.0197741273
 31
0.0
 70
   160
  1
MBM %%c<>
 71
     2
 42
-1.0
  3
SLDDIMSTYLE0
100
AcDbAlignedDimension
 13
225.9669199179
 23
130.0197741273
 33
0.0
 14
225.9669199179
 24
98.0197741273
 34
0.0
 50
90.0
100
AcDbRotatedDimension
  0
DIMENSION
  5
15E
330
1F
100
AcDbEntity
  8
VERMASSUNG
100
AcDbDimension
  2
_D_5
 10
61.3028511528
 20
105.5197741273
 30
0.0
 11
61.3028511528
 21
114.0197741273
 31
0.0
 70
   160
  1
M<>
 71
     2
 42
-1.0
  3
SLDDIMSTYLE0
100
AcDbAlignedDimension
 13
69.6669199179
 23
122.5197741273
 33
0.0
 14
69.6669199179
 24
105.5197741273
 34
0.0
 50
90.0
100
AcDbRotatedDimension
  0
LINE
  5
169
330
1F
100
AcDbEntity
  8
VERMASSUNG
  6
CENTERX2
 62
     7
370
    18
100
AcDbLine
 10
66.8669199179
 20
114.0197741273
 30
0.0
 11
228.2669199179
 21
114.0197741273
 31
0.0
  0
LINE
  5
16A
330
1F
100
AcDbEntity
  8
0
  6
Continuous
 62
     7
370
    25
100
AcDbLine
 10
277.9148717248
 20
19.7066669918
 30
0.0
 11
278.0209196646
 21
19.7679078296
 31
0.0
  0
LINE
  5
16B
330
1F
100
AcDbEntity
  8
0
  6
Continuous
 62
     7
370
    25
100
AcDbLine
 10
283.570805528
 20
29.3816338732
 30
0.0
 11
283.5708068451
 21
29.504094882
 31
0.0
  0
LINE
  5
16C
330
1F
100
AcDbEntity
  8
0
  6
Continuous
 62
     7
370
    25
100
AcDbLine
 10
252.4535854285
 20
31.6990651158
 30
0.0
 11
273.9142773186
 21
19.3100713949
 31
0.0
  0
LINE
  5
16D
330
1F
100
AcDbEntity
  8
0
  6
Continuous
 62
     7
370
    25
100
AcDbLine
 10
281.9136273352
 20
33.1668531643
 30
0.0
 11
260.4529354452
 21
45.5558468853
 31
0.0
  0
SPLINE
  5
16E
330
1F
100
AcDbEntity
  8
0
  6
Continuous
 62
     7
370
    25
100
AcDbSpline
210
0.0
220
0.0
230
1.0
 70
     8
 71
     3
 72
    18
 73
    14
 74
     0
 42
0.000000001
 43
0.00000001
 40
0.0
 40
0.0
 40
0.0
 40
0.0
 40
0.0225413003531404
 40
0.1254967588375156
 40
0.2291269420985415
 40
0.3334679162034759
 40
0.4384157085425484
 40
0.543798705069108
 40
0.6494434609224762
 40
0.7552112075193917
 40
0.8609978669224823
 40
0.9667456024856567
 40
1.0
 40
1.0
 40
1.0
 40
1.0
 10
248.6031682158601
 20
25.35433516812252
 30
0.0
 10
248.6628002667078
 20
25.33964075486901
 30
0.0
 10
248.9947966017457
 20
25.25783086779751
 30
0.0
 10
249.6423896741831
 20
25.21712531423533
 30
0.0
 10
250.5406247703168
 20
25.23787645589798
 30
0.0
 10
251.4749659952224
 20
25.37888276117188
 30
0.0
 10
252.4337030344727
 20
25.62774122481359
 30
0.0
 10
253.410458091351
 20
25.98589581846057
 30
0.0
 10
254.3967113755529
 20
26.45014463086589
 30
0.0
 10
255.3850886677234
 20
27.01472947177049
 30
0.0
 10
256.3655784567991
 20
27.68233073753164
 30
0.0
 10
257.1164432196682
 20
28.25084669041743
 30
0.0
 10
257.5301328272466
 20
28.62241112770219
 30
0.0
 10
257.629102521836
 20
28.71130293983553
 30
0.0
  0
SPLINE
  5
16F
330
1F
100
AcDbEntity
  8
0
  6
Continuous
 62
     7
370
    25
100
AcDbSpline
210
0.0
220
0.0
230
1.0
 70
     8
 71
     3
 72
    17
 73
    13
 74
     0
 42
0.000000001
 43
0.00000001
 40
0.0
 40
0.0
 40
0.0
 40
0.0
 40
0.0520188316785866
 40
0.1578060820986749
 40
0.2636856281178706
 40
0.3696519563702373
 40
0.4756817123382062
 40
0.5817048051569106
 40
0.6876073487794763
 40
0.7932313263414809
 40
0.8983801143827924
 40
1.0
 40
1.0
 40
1.0
 40
1.0
 10
265.6272213895121
 20
42.56879509081566
 30
0.0
 10
265.6682921353456
 20
42.77193467249494
 30
0.0
 10
265.7928857350038
 20
43.38818575829484
 30
0.0
 10
265.909844206207
 20
44.39108997925324
 30
0.0
 10
265.9809501361235
 20
45.56782871412151
 30
0.0
 10
265.9601067557673
 20
46.69983395505142
 30
0.0
 10
265.8524734838729
 20
47.77998519813439
 30
0.0
 10
265.6564568885029
 20
48.79911792551726
 30
0.0
 10
265.3738740564182
 20
49.74952798611051
 30
0.0
 10
265.0044027037798
 20
50.62038826111359
 30
0.0
 10
264.56273606524
 20
51.40592050440356
 30
0.0
 10
264.2035473831733
 20
51.85105458788642
 30
0.0
 10
264.0270181626643
 20
52.06982309787141
 30
0.0
  0
LINE
  5
170
330
1F
100
AcDbEntity
  8
0
  6
Continuous
 62
     7
370
    25
100
AcDbLine
 10
245.2643370237
 20
26.9006430285
 30
0.0
 11
246.811133608
 21
26.0076963672
 31
0.0
  0
LINE
  5
171
330
1F
100
AcDbEntity
  8
0
  6
Continuous
 62
     7
370
    25
100
AcDbLine
 10
262.5598540973
 20
53.2882354876
 30
0.0
 11
261.013057513
 21
54.1811821489
 31
0.0
  0
LINE
  5
172
330
1F
100
AcDbEntity
  8
0
  6
Continuous
 62
     7
370
    25
100
AcDbLine
 10
257.4598463758
 20
56.2324072768
 30
0.0
 11
254.4281259332
 21
57.9825822348
 31
0.0
  0
SPLINE
  5
173
330
1F
100
AcDbEntity
  8
0
  6
Continuous
 62
     7
370
    25
100
AcDbSpline
210
0.0
220
0.0
230
1.0
 70
     8
 71
     3
 72
    30
 73
    26
 74
     0
 42
0.000000001
 43
0.00000001
 40
0.0
 40
0.0
 40
0.0
 40
0.0
 40
0.0096089795082156
 40
0.0556607399908124
 40
0.1020140827588224
 40
0.1486854504105943
 40
0.1956285146843668
 40
0.2427666008468079
 40
0.290022050756101
 40
0.3373327333073673
 40
0.3846520489732786
 40
0.431954001580593
 40
0.4792293948263769
 40
0.5264760740958365
 40
0.5736960241816114
 40
0.6208936555533106
 40
0.668074618152261
 40
0.7152452015367053
 40
0.7624119796181074
 40
0.8095815216607694
 40
0.8567587145355574
 40
0.9039503919891444
 40
0.9511635067327289
 40
0.9984047448891333
 40
1.0
 40
1.0
 40
1.0
 40
1.0
 10
252.6310518135403
 20
58.63726801700034
 30
0.0
 10
252.5742265717142
 20
58.65127980829991
 30
0.0
 10
252.2450620639233
 20
58.73244416833051
 30
0.0
 10
251.6004483100457
 20
58.77293862916193
 30
0.0
 10
250.702409988937
 20
58.75277304533234
 30
0.0
 10
249.7681759894
 20
58.61217990642925
 30
0.0
 10
248.8095248093654
 20
58.3638037308007
 30
0.0
 10
247.8328502230895
 20
58.0059980123114
 30
0.0
 10
246.8465249776315
 20
57.54251379577131
 30
0.0
 10
245.8584952905262
 20
56.97707225606472
 30
0.0
 10
244.8766320163911
 20
56.31458252290965
 30
0.0
 10
243.9084845022751
 20
55.56057906400198
 30
0.0
 10
242.9613020922732
 20
54.72118083365378
 30
0.0
 10
242.0420682698791
 20
53.80301147799713
 30
0.0
 10
241.1575366886756
 20
52.81320194976597
 30
0.0
 10
240.3142123987184
 20
51.7593446027649
 30
0.0
 10
239.5183160490024
 20
50.64946314688098
 30
0.0
 10
238.7757430204215
 20
49.49195555522566
 30
0.0
 10
238.0920472967011
 20
48.29555171210259
 30
0.0
 10
237.4723092143001
 20
47.06923858615148
 30
0.0
 10
236.9214685544769
 20
45.82227825271918
 30
0.0
 10
236.4428562619424
 20
44.56376841936605
 30
0.0
 10
236.0435318068645
 20
43.30391780738469
 30
0.0
 10
235.8203667145795
 20
42.45340440891928
 30
0.0
 10
235.7281669964082
 20
42.02573418845405
 30
0.0
 10
235.7251552717369
 20
42.01176424386304
 30
0.0
  0
LINE
  5
174
330
1F
100
AcDbEntity
  8
0
  6
Continuous
 62
     7
370
    25
100
AcDbLine
 10
245.4248111494
 20
56.6676085743
 30
0.0
 11
225.5286287153
 21
63.8374039504
 31
0.0
  0
LINE
  5
175
330
1F
100
AcDbEntity
  8
0
  6
Continuous
 62
     7
370
    25
100
AcDbLine
 10
219.1571592341
 20
52.8004992946
 30
0.0
 11
238.1850328714
 21
36.7335201566
 31
0.0
  0
LINE
  5
176
330
1F
100
AcDbEntity
  8
0
  6
Continuous
 62
     7
370
    25
100
AcDbLine
 10
238.6794054439
 20
30.7020431144
 30
0.0
 11
241.7111258865
 21
28.9518681564
 31
0.0
  0
SPLINE
  5
177
330
1F
100
AcDbEntity
  8
0
  6
Continuous
 62
     7
370
    25
100
AcDbSpline
210
0.0
220
0.0
230
1.0
 70
     8
 71
     3
 72
    12
 73
     8
 74
     0
 42
0.000000001
 43
0.00000001
 40
0.0
 40
0.0
 40
0.0
 40
0.0
 40
0.0981718798402837
 40
0.3798259770893393
 40
0.6606214957757207
 40
0.939735428251895
 40
1.0
 40
1.0
 40
1.0
 40
1.0
 10
235.7164611671425
 20
34.76908551300848
 30
0.0
 10
235.7487702348748
 20
34.65874714868023
 30
0.0
 10
235.8737736802629
 20
34.2318491702612
 30
0.0
 10
236.1521733801417
 20
33.53991837556658
 30
0.0
 10
236.5892478011802
 20
32.74020283815553
 30
0.0
 10
236.9556202015046
 20
32.19388518766549
 30
0.0
 10
237.1971119291031
 20
31.94572986374278
 30
0.0
 10
237.2399944197833
 20
31.90166409606136
 30
0.0
  0
SPLINE
  5
178
330
1F
100
AcDbEntity
  8
0
  6
Continuous
 62
     7
370
    25
100
AcDbSpline
210
0.0
220
0.0
230
1.0
 70
     8
 71
     3
 72
    30
 73
    26
 74
     0
 42
0.000000001
 43
0.00000001
 40
0.0
 40
0.0
 40
0.0
 40
0.0
 40
0.0189306258879088
 40
0.0630295213706894
 40
0.1076586239695868
 40
0.1532505592625282
 40
0.1997822757778079
 40
0.2469267469396859
 40
0.2943260708975565
 40
0.34171674410782
 40
0.3890230093132124
 40
0.4362431748432973
 40
0.483403931912848
 40
0.5305430241641834
 40
0.5777012867379792
 40
0.62490964908926
 40
0.6722130147749712
 40
0.7196542333683598
 40
0.7650653812081054
 40
0.7903153153795941
 40
0.8380908903275242
 40
0.8858647825781211
 40
0.9331793302490282
 40
0.9795567550060702
 40
0.9999999999999999
 40
0.9999999999999999
 40
0.9999999999999999
 40
0.9999999999999999
 10
225.6120001207115
 20
63.78988928505867
 30
0.0
 10
225.5409246030521
 20
63.82232874503402
 30
0.0
 10
225.3042786577057
 20
63.93033593126636
 30
0.0
 10
224.8509864597498
 20
63.9987175671607
 30
0.0
 10
224.2687054896418
 20
63.99748711672686
 30
0.0
 10
223.6556155515888
 20
63.88010300404669
 30
0.0
 10
223.0237753815015
 20
63.65502583089216
 30
0.0
 10
222.383754216115
 20
63.32266397293252
 30
0.0
 10
221.7494449500406
 20
62.8903158580183
 30
0.0
 10
221.1339144542371
 20
62.36745364246337
 30
0.0
 10
220.5489418416331
 20
61.76535081436999
 30
0.0
 10
220.0048757602366
 20
61.09588048917733
 30
0.0
 10
219.5111772226856
 20
60.37164378951686
 30
0.0
 10
219.0765187233166
 20
59.60589508792402
 30
0.0
 10
218.7087619778328
 20
58.8124582583524
 30
0.0
 10
218.4147770225955
 20
58.00546408400793
 30
0.0
 10
218.2004312858455
 20
57.19904045917243
 30
0.0
 10
218.0725560483506
 20
56.41935226240713
 30
0.0
 10
218.0366223892716
 20
55.78704007335681
 30
0.0
 10
218.0566058894013
 20
55.17989640351686
 30
0.0
 10
218.1370336880994
 20
54.5923464920366
 30
0.0
 10
218.3250074629761
 20
53.95735097638982
 30
0.0
 10
218.6095219691348
 20
53.40709287456166
 30
0.0
 10
218.8999241619406
 20
53.01396353113809
 30
0.0
 10
219.1197249394977
 20
52.84684231151331
 30
0.0
 10
219.1869712146728
 20
52.79571292222096
 30
0.0
  0
LINE
  5
179
330
1F
100
AcDbEntity
  8
0
  6
Continuous
 62
     7
370
    25
100
AcDbLine
 10
276.1464132699
 20
35.2198481576
 30
0.0
 11
275.969607652
 21
35.3219495186
 31
0.0
  0
LINE
  5
17A
330
1F
100
AcDbEntity
  8
0
  6
Continuous
 62
     7
370
    25
100
AcDbLine
 10
273.4943328052
 20
35.3219489584
 30
0.0
 11
273.3175270252
 21
35.219847979
 31
0.0
  0
LINE
  5
17B
330
1F
100
AcDbEntity
  8
0
  6
Continuous
 62
     7
370
    25
100
AcDbLine
 10
276.7319704669
 20
34.0973698316
 30
0.0
 11
276.7319704669
 21
34.4035724962
 31
0.0
  0
LINE
  5
17C
330
1F
100
AcDbEntity
  8
0
  6
Continuous
 62
     7
370
    25
100
AcDbLine
 10
272.7319707961
 20
34.4035723061
 30
0.0
 11
272.7319707961
 21
34.0973696415
 31
0.0
  0
LWPOLYLINE
  5
17D
330
1F
100
AcDbEntity
  8
0
  6
Continuous
 62
     7
370
    25
100
AcDbPolyline
 90
       49
 70
   128
 43
0.0
 10
272.4692294827
 20
22.9728304375
 10
272.5167171272
 20
23.8368971888
 10
272.658367746
 20
24.7410077344
 10
272.8917578952
 20
25.6696925854
 10
273.2128938318
 20
26.6070612937
 10
273.6162809897
 20
27.5370758324
 10
274.095017493
 20
28.4438230224
 10
274.6409117067
 20
29.3117882882
 10
275.2446234941
 20
30.1261202856
 10
275.8958227612
 20
30.8728855473
 10
276.5833677584
 20
31.5393071556
 10
277.2954942463
 20
32.1139819329
 10
278.0200175054
 20
32.5870772865
 10
278.7445407644
 20
32.950498682
 10
279.4566672524
 20
33.1980276467
 10
280.1442122495
 20
33.325428595
 10
280.7954115167
 20
33.3305220035
 10
281.399123304
 20
33.213220799
 10
281.9450175178
 20
32.9755315766
 10
282.4237540211
 20
32.621521788
 10
282.8271411789
 20
32.1572481482
 10
283.1482771155
 20
31.5906551
 10
283.3816672648
 20
30.9314367797
 10
283.5233178835
 20
30.1908725573
 10
283.570805528
 20
29.3816338732
 10
283.5233178835
 20
28.5175671219
 10
283.3816672648
 20
27.6134565763
 10
283.1482771155
 20
26.6847717253
 10
282.8271411789
 20
25.747403017
 10
282.4237540211
 20
24.8173884783
 10
281.9450175178
 20
23.9106412883
 10
281.399123304
 20
23.0426760226
 10
280.7954115167
 20
22.2283440251
 10
280.1442122495
 20
21.4815787634
 10
279.4566672524
 20
20.8151571551
 10
278.7445407644
 20
20.2404823778
 10
278.0200175054
 20
19.7673870242
 10
277.2954942463
 20
19.4039656287
 10
276.5833677584
 20
19.156436664
 10
275.8958227612
 20
19.0290357157
 10
275.2446234941
 20
19.0239423072
 10
274.6409117067
 20
19.1412435118
 10
274.095017493
 20
19.3789327342
 10
273.6162809897
 20
19.7329425227
 10
273.2128938318
 20
20.1972161626
 10
272.8917578952
 20
20.7638092107
 10
272.658367746
 20
21.4230275311
 10
272.5167171272
 20
22.1635917534
 10
272.4692294827
 20
22.9728304375
  0
LWPOLYLINE
  5
17E
330
1F
100
AcDbEntity
  8
0
  6
Continuous
 62
     7
370
    25
100
AcDbPolyline
 90
       26
 70
   128
 43
0.0
 10
272.2570978087
 20
22.9728296772
 10
272.3054929276
 20
23.8534073235
 10
272.4498508228
 20
24.7747941913
 10
272.6877003062
 20
25.7212244056
 10
273.0149728898
 20
26.6765050514
 10
273.4260679818
 20
27.6242903143
 10
273.9139523269
 20
28.5483637928
 10
274.4702775563
 20
29.4329143458
 10
275.0855250678
 20
30.262806613
 10
275.7491678628
 20
31.0238417438
 10
276.4498506582
 20
31.7029971161
 10
277.1755846513
 20
32.2886536018
 10
277.9139523269
 20
32.7707890849
 10
278.6523200025
 20
33.1411547741
 10
279.3780539957
 20
33.3934129214
 10
280.0787367911
 20
33.5232486847
 10
280.742379586
 20
33.5284392154
 10
281.3576270975
 20
33.4088966048
 10
281.913952327
 20
33.1666654896
 10
282.4018366721
 20
32.8058912857
 10
282.8129317641
 20
32.3327463131
 10
283.1402043477
 20
31.7553265493
 10
283.3780538311
 20
31.0835115032
 10
283.5224117263
 20
30.3287967135
 10
283.5708068451
 20
29.504094882
 10
283.5708068451
 20
29.504094882
  0
LWPOLYLINE
  5
17F
330
1F
100
AcDbEntity
  8
0
  6
Continuous
 62
     7
370
    25
100
AcDbPolyline
 90
       14
 70
   128
 43
0.0
 10
277.9148717248
 20
19.7066669918
 10
277.9139523269
 20
19.7061354742
 10
277.1755846513
 20
19.335769785
 10
276.4498506582
 20
19.0835116378
 10
275.7491678628
 20
18.9536758744
 10
275.0855250678
 20
18.9484853437
 10
274.4702775563
 20
19.0680279543
 10
273.9139523269
 20
19.3102590696
 10
273.4260679818
 20
19.6710332735
 10
273.0149728898
 20
20.1441782461
 10
272.6877003062
 20
20.7215980098
 10
272.4498508228
 20
21.393413056
 10
272.3054929276
 20
22.1481278456
 10
272.2570978087
 20
22.9728296772
  0
SPLINE
  5
180
330
1F
100
AcDbEntity
  8
0
  6
Continuous
 62
     7
370
    25
100
AcDbSpline
210
0.0
220
0.0
230
1.0
 70
     8
 71
     3
 72
    42
 73
    38
 74
     0
 42
0.000000001
 43
0.00000001
 40
0.0
 40
0.0
 40
0.0
 40
0.0
 40
0.0312500000000001
 40
0.0312500000000001
 40
0.0625000000000002
 40
0.0625000000000002
 40
0.1249999999999996
 40
0.1249999999999996
 40
0.1874999999999991
 40
0.1874999999999991
 40
0.2499999999999986
 40
0.2499999999999986
 40
0.312499999999998
 40
0.312499999999998
 40
0.3749999999999974
 40
0.3749999999999974
 40
0.4374999999999968
 40
0.4374999999999968
 40
0.4999999999999963
 40
0.4999999999999963
 40
0.5624999999999957
 40
0.5624999999999957
 40
0.6249999999999951
 40
0.6249999999999951
 40
0.6874999999999944
 40
0.6874999999999944
 40
0.7499999999999939
 40
0.7499999999999939
 40
0.7812499999999947
 40
0.7812499999999947
 40
0.8124999999999954
 40
0.8124999999999954
 40
0.874999999999997
 40
0.874999999999997
 40
0.9374999999999986
 40
0.9374999999999986
 40
1.0
 40
1.0
 40
1.0
 40
1.0
 10
276.5881262102595
 20
33.53617190016174
 30
0.0
 10
276.5312278834123
 20
33.50332519523464
 30
0.0
 10
276.470815496563
 20
33.47145946647228
 30
0.0
 10
276.342809969419
 20
33.40976259183489
 30
0.0
 10
276.2752256922317
 20
33.37998637147017
 30
0.0
 10
276.0675299526454
 20
33.29629765499863
 30
0.0
 10
275.9206508135034
 20
33.24700876311208
 30
0.0
 10
275.6111474795826
 20
33.16220122750839
 30
0.0
 10
275.4538014969361
 20
33.12812307037083
 30
0.0
 10
275.1342552595075
 20
33.07640358153648
 30
0.0
 10
274.9715232735606
 20
33.05893321005182
 30
0.0
 10
274.6531603047502
 20
33.0425749741073
 30
0.0
 10
274.4958961634104
 20
33.04337323875367
 30
0.0
 10
274.1851695644426
 20
33.06421975574851
 30
0.0
 10
274.0357633475525
 20
33.08400007442934
 30
0.0
 10
273.7478386560618
 20
33.14243927988134
 30
0.0
 10
273.6083312260855
 20
33.18149307150078
 30
0.0
 10
273.3452909715616
 20
33.2783346298821
 30
0.0
 10
273.2228683392955
 20
33.33551432083325
 30
0.0
 10
272.9956673546554
 20
33.46721017010442
 30
0.0
 10
272.8900725249974
 20
33.54249092887581
 30
0.0
 10
272.7019747855292
 20
33.7073292983522
 30
0.0
 10
272.6198220896198
 20
33.79621664425071
 30
0.0
 10
272.4792150334536
 20
33.98593202487095
 30
0.0
 10
272.4203447217006
 20
34.0878189428954
 30
0.0
 10
272.3310014905744
 20
34.29775990545745
 30
0.0
 10
272.3004515486928
 20
34.40514321764348
 30
0.0
 10
272.2766211901624
 20
34.56869300972073
 30
0.0
 10
272.2723693270948
 20
34.62362443072045
 30
0.0
 10
272.2717593435003
 20
34.734144614194
 30
0.0
 10
272.2754766448746
 20
34.78991590959261
 30
0.0
 10
272.298830507353
 20
34.95374560281385
 30
0.0
 10
272.3304047771394
 20
35.05964205017862
 30
0.0
 10
272.4280082555166
 20
35.26261755066178
 30
0.0
 10
272.4955513857325
 20
35.36091524618318
 30
0.0
 10
272.6618866480263
 20
35.53542302059224
 30
0.0
 10
272.7605982594218
 20
35.61272963354837
 30
0.0
 10
272.8758156090302
 20
35.67924319369635
 30
0.0
  0
SPLINE
  5
181
330
1F
100
AcDbEntity
  8
0
  6
Continuous
 62
     7
370
    25
100
AcDbSpline
210
0.0
220
0.0
230
1.0
 70
     8
 71
     3
 72
    42
 73
    38
 74
     0
 42
0.000000001
 43
0.00000001
 40
0.0
 40
0.0
 40
0.0
 40
0.0
 40
0.0312499999999993
 40
0.0312499999999993
 40
0.0624999999999986
 40
0.0624999999999986
 40
0.1249999999999979
 40
0.1249999999999979
 40
0.1874999999999972
 40
0.1874999999999972
 40
0.2499999999999964
 40
0.2499999999999964
 40
0.3124999999999957
 40
0.3124999999999957
 40
0.3749999999999948
 40
0.3749999999999948
 40
0.4999999999999931
 40
0.4999999999999931
 40
0.5624999999999936
 40
0.5624999999999936
 40
0.6249999999999941
 40
0.6249999999999941
 40
0.6874999999999946
 40
0.6874999999999946
 40
0.7499999999999951
 40
0.7499999999999951
 40
0.8124999999999954
 40
0.8124999999999954
 40
0.8437499999999957
 40
0.8437499999999957
 40
0.8749999999999959
 40
0.8749999999999959
 40
0.9374999999999976
 40
0.9374999999999976
 40
0.9687499999999988
 40
0.9687499999999988
 40
1.0
 40
1.0
 40
1.0
 40
1.0
 10
272.8758156090302
 20
35.67924319369636
 30
0.0
 10
272.9334251648597
 20
35.71250048237545
 30
0.0
 10
272.994962169517
 20
35.74282144036868
 30
0.0
 10
273.1226239640691
 20
35.79626282277425
 30
0.0
 10
273.1891606248658
 20
35.81963285075214
 30
0.0
 10
273.3966848036642
 20
35.88008161674939
 30
0.0
 10
273.5469848107853
 20
35.90743764274928
 30
0.0
 10
273.8538202788675
 20
35.93634729302381
 30
0.0
 10
274.0129455729317
 20
35.93845532244962
 30
0.0
 10
274.3347055706378
 20
35.92135718984713
 30
0.0
 10
274.495407114846
 20
35.90243600355409
 30
0.0
 10
274.8167974479658
 20
35.84741225946321
 30
0.0
 10
274.9742591119922
 20
35.81180811884909
 30
0.0
 10
275.2802495163508
 20
35.72855979923577
 30
0.0
 10
275.4293781188129
 20
35.68078237793027
 30
0.0
 10
275.865471682419
 20
35.52122540902542
 30
0.0
 10
276.1270017410068
 20
35.39913897653646
 30
0.0
 10
276.4709378101126
 20
35.19993574974531
 30
0.0
 10
276.5746867217356
 20
35.13229623250882
 30
0.0
 10
276.7610555740149
 20
34.99424550714078
 30
0.0
 10
276.8440079231269
 20
34.92350623444678
 30
0.0
 10
276.9858773381213
 20
34.77940179488118
 30
0.0
 10
277.0435132575889
 20
34.70745821431534
 30
0.0
 10
277.1321972147505
 20
34.56213037083695
 30
0.0
 10
277.1633681492378
 20
34.48830510642651
 30
0.0
 10
277.195444581489
 20
34.33889841441965
 30
0.0
 10
277.1961874442127
 20
34.2648896647041
 30
0.0
 10
277.1733792853092
 20
34.15333954739052
 30
0.0
 10
277.1617599600272
 20
34.11606781092495
 30
0.0
 10
277.1298979960215
 20
34.0410768075818
 30
0.0
 10
277.1094646066686
 20
34.00309830155555
 30
0.0
 10
277.0355404556817
 20
33.8905380972425
 30
0.0
 10
276.9697824646303
 20
33.81712694482535
 30
0.0
 10
276.8445709808094
 20
33.70858910110385
 30
0.0
 10
276.7980733376155
 20
33.67251759723035
 30
0.0
 10
276.6984102401888
 20
33.60284741044997
 30
0.0
 10
276.6450254072685
 20
33.56901910742255
 30
0.0
 10
276.5881262102595
 20
33.53617190016174
 30
0.0
  0
LWPOLYLINE
  5
182
330
1F
100
AcDbEntity
  8
0
  6
Continuous
 62
     7
370
    25
100
AcDbPolyline
 90
       45
 70
   128
 43
0.0
 10
273.2470466086
 20
23.4218547065
 10
273.295628754
 20
24.2342902499
 10
273.4403857272
 20
25.086278425
 10
273.6783705415
 20
25.9604751084
 10
274.0047389435
 20
26.8390844494
 10
274.4128468776
 20
27.7042202239
 10
274.8943864757
 20
28.5382712711
 10
275.4395546441
 20
29.324258135
 10
276.0372537554
 20
30.046180672
 10
276.6753162121
 20
30.6893423674
 10
277.3407529234
 20
31.2406508137
 10
278.0200175054
 20
31.6888827786
 10
278.6992820873
 20
32.0249130066
 10
279.3647187987
 20
32.2419014334
 10
280.0027812554
 20
32.3354309696
 10
280.6004803667
 20
32.3035971376
 10
281.1456485351
 20
32.147048043
 10
281.6271881331
 20
31.8689707815
 10
282.0352960673
 20
31.4750263981
 10
282.3616644693
 20
30.9732339933
 10
282.5996492835
 20
30.3738087279
 10
282.7444062568
 20
29.6889533965
 10
282.7929884022
 20
28.9326096042
 10
282.7444062568
 20
28.1201740608
 10
282.5996492835
 20
27.2681858857
 10
282.3616644693
 20
26.3939892024
 10
282.0352960673
 20
25.5153798613
 10
281.6271881331
 20
24.6502440868
 10
281.1456485351
 20
23.8161930396
 10
280.6004803667
 20
23.0302061757
 10
280.0027812554
 20
22.3082836388
 10
279.3647187987
 20
21.6651219433
 10
278.6992820873
 20
21.113813497
 10
278.0200175054
 20
20.6655815322
 10
277.3407529234
 20
20.3295513042
 10
276.6753162121
 20
20.1125628773
 10
276.0372537554
 20
20.0190333411
 10
275.4395546441
 20
20.0508671731
 10
274.8943864757
 20
20.2074162677
 10
274.4128468776
 20
20.4854935292
 10
274.0047389435
 20
20.8794379126
 10
273.6783705415
 20
21.3812303175
 10
273.4403857272
 20
21.9806555829
 10
273.295628754
 20
22.6655109142
 10
273.2470466086
 20
23.4218547065
  0
SPLINE
  5
183
330
1F
100
AcDbEntity
  8
0
  6
Continuous
 62
     7
370
    25
100
AcDbSpline
210
0.0
220
0.0
230
1.0
 70
     8
 71
     3
 72
    22
 73
    18
 74
     0
 42
0.000000001
 43
0.00000001
 40
0.0
 40
0.0
 40
0.0
 40
0.0
 40
0.1249999999999998
 40
0.1249999999999998
 40
0.2499999999999997
 40
0.2499999999999997
 40
0.3749999999999995
 40
0.3749999999999995
 40
0.4999999999999993
 40
0.4999999999999993
 40
0.6249999999999991
 40
0.6249999999999991
 40
0.7499999999999994
 40
0.7499999999999994
 40
0.8749999999999997
 40
0.8749999999999997
 40
1.0
 40
1.0
 40
1.0
 40
1.0
 10
274.9682978599111
 20
20.72197837210629
 30
0.0
 10
274.9199205579122
 20
20.69007092006183
 30
0.0
 10
274.8712287533874
 20
20.66625630422661
 30
0.0
 10
274.7734532719991
 20
20.63457786883604
 30
0.0
 10
274.7240632394223
 20
20.62671807299586
 30
0.0
 10
274.6264007896988
 20
20.62812150666235
 30
0.0
 10
274.5789755129497
 20
20.63726348579455
 30
0.0
 10
274.4869957930032
 20
20.67210236697179
 30
0.0
 10
274.4420250425797
 20
20.69816183035446
 30
0.0
 10
274.3573392470616
 20
20.76624764698789
 30
0.0
 10
274.3178707771067
 20
20.80784874492041
 30
0.0
 10
274.2445129255195
 20
20.90582424698993
 30
0.0
 10
274.2103500022758
 20
20.96289502785314
 30
0.0
 10
274.1498885399471
 20
21.08819951379089
 30
0.0
 10
274.1233748638467
 20
21.15648260367602
 30
0.0
 10
274.0774384055422
 20
21.30407551504054
 30
0.0
 10
274.0580128508502
 20
21.38371252793471
 30
0.0
 10
274.0425509442713
 20
21.46701110929558
 30
0.0
  0
LWPOLYLINE
  5
184
330
1F
100
AcDbEntity
  8
0
  6
Continuous
 62
     7
370
    25
100
AcDbPolyline
 90
       10
 70
   128
 43
0.0
 10
280.753538952
 20
24.0617270164
 10
280.189094198
 20
23.2585172868
 10
279.5666265692
 20
22.5303369433
 10
278.9016491515
 20
21.8953332151
 10
278.2107347114
 20
21.3693323464
 10
277.5111021298
 20
20.9654430541
 10
276.8201876897
 20
20.6937310901
 10
276.155210272
 20
20.5609682342
 10
275.5327426432
 20
20.570462751
 10
274.9682978892
 20
20.7219784395
  0
SPLINE
  5
185
330
1F
100
AcDbEntity
  8
0
  6
Continuous
 62
     7
370
    25
100
AcDbSpline
210
0.0
220
0.0
230
1.0
 70
     8
 71
     3
 72
    22
 73
    18
 74
     0
 42
0.000000001
 43
0.00000001
 40
0.0
 40
0.0
 40
0.0
 40
0.0
 40
0.125
 40
0.125
 40
0.25
 40
0.25
 40
0.375
 40
0.375
 40
0.5
 40
0.5
 40
0.625
 40
0.625
 40
0.75
 40
0.75
 40
0.875
 40
0.875
 40
1.0
 40
1.0
 40
1.0
 40
1.0
 10
281.6792858885193
 20
25.87560435306423
 30
0.0
 10
281.6942248208247
 20
25.79202197310601
 30
0.0
 10
281.7018088116617
 20
25.70699465392917
 30
0.0
 10
281.7025855621739
 20
25.53400321399127
 30
0.0
 10
281.6956881687463
 20
25.44548413563125
 30
0.0
 10
281.6669108065449
 20
25.26768750655283
 30
0.0
 10
281.6453781338751
 20
25.17996716133068
 30
0.0
 10
281.5883522160173
 20
25.00679775944134
 30
0.0
 10
281.5524180564847
 20
24.92052876627402
 30
0.0
 10
281.4677933954889
 20
24.75461070230287
 30
0.0
 10
281.4195517666811
 20
24.67548585568228
 30
0.0
 10
281.3114612256897
 20
24.52474204986022
 30
0.0
 10
281.2509138526174
 20
24.4525028388758
 30
0.0
 10
281.1220571099725
 20
24.32057190142154
 30
0.0
 10
281.0536431427749
 20
24.26047908864307
 30
0.0
 10
280.9089260331979
 20
24.15183637042147
 30
0.0
 10
280.8323295481642
 20
24.10323119737677
 30
0.0
 10
280.7535389728795
 20
24.06172697807504
 30
0.0
  0
LWPOLYLINE
  5
186
330
1F
100
AcDbEntity
  8
0
  6
Continuous
 62
     7
370
    25
100
AcDbPolyline
 90
        9
 70
   128
 43
0.0
 10
281.6792859184
 20
31.0711450628
 10
281.9440570306
 20
30.6158607436
 10
282.1365973348
 20
30.0836817724
 10
282.253501168
 20
29.4840227141
 10
282.2927003713
 20
28.8274913648
 10
282.253501168
 20
28.1257015786
 10
282.1365973348
 20
27.3910682276
 10
281.9440570306
 20
26.636586953
 10
281.6792859184
 20
25.8756044147
  0
SPLINE
  5
187
330
1F
100
AcDbEntity
  8
0
  6
Continuous
 62
     7
370
    25
100
AcDbSpline
210
0.0
220
0.0
230
1.0
 70
     8
 71
     3
 72
    22
 73
    18
 74
     0
 42
0.000000001
 43
0.00000001
 40
0.0
 40
0.0
 40
0.0
 40
0.0
 40
0.1249999999999998
 40
0.1249999999999998
 40
0.2499999999999997
 40
0.2499999999999997
 40
0.3749999999999995
 40
0.3749999999999995
 40
0.4999999999999993
 40
0.4999999999999993
 40
0.6249999999999991
 40
0.6249999999999991
 40
0.7499999999999994
 40
0.7499999999999994
 40
0.8749999999999997
 40
0.8749999999999997
 40
1.0
 40
1.0
 40
1.0
 40
1.0
 10
280.7535389728795
 20
31.81617783676431
 30
0.0
 10
280.832314077862
 20
31.83053701067197
 30
0.0
 10
280.9076945199762
 20
31.83894460397449
 30
0.0
 10
281.0518827873926
 20
31.84382950830738
 30
0.0
 10
281.1210952161094
 20
31.84024607843184
 30
0.0
 10
281.2507506434109
 20
31.82037349193658
 30
0.0
 10
281.3101177124198
 20
31.80433766287251
 30
0.0
 10
281.4181957717887
 20
31.76020540816175
 30
0.0
 10
281.4673111632588
 20
31.73175329443185
 30
0.0
 10
281.552025035367
 20
31.66365126952797
 30
0.0
 10
281.5874698935522
 20
31.6243729532283
 30
0.0
 10
281.6448319854767
 20
31.53563160665754
 30
0.0
 10
281.6668259152439
 20
31.48558583619676
 30
0.0
 10
281.695522917477
 20
31.37861858275322
 30
0.0
 10
281.7024935014941
 20
31.32161747978397
 30
0.0
 10
281.701914912589
 20
31.20087713360061
 30
0.0
 10
281.6942277546171
 20
31.13689195656861
 30
0.0
 10
281.6792858885193
 20
31.07114509957502
 30
0.0
  0
LWPOLYLINE
  5
188
330
1F
100
AcDbEntity
  8
0
  6
Continuous
 62
     7
370
    25
100
AcDbPolyline
 90
       10
 70
   128
 43
0.0
 10
274.9682978892
 20
28.4764291876
 10
275.5327426432
 20
29.2796389173
 10
276.155210272
 20
30.0078192607
 10
276.8201876897
 20
30.6428229889
 10
277.5111021298
 20
31.1688238576
 10
278.2107347114
 20
31.5727131499
 10
278.9016491515
 20
31.8444251139
 10
279.5666265692
 20
31.9771879698
 10
280.189094198
 20
31.967693453
 10
280.753538952
 20
31.8161777645
  0
SPLINE
  5
189
330
1F
100
AcDbEntity
  8
0
  6
Continuous
 62
     7
370
    25
100
AcDbSpline
210
0.0
220
0.0
230
1.0
 70
     8
 71
     3
 72
    22
 73
    18
 74
     0
 42
0.000000001
 43
0.00000001
 40
0.0
 40
0.0
 40
0.0
 40
0.0
 40
0.125
 40
0.125
 40
0.25
 40
0.25
 40
0.375
 40
0.375
 40
0.5
 40
0.5
 40
0.625
 40
0.625
 40
0.75
 40
0.75
 40
0.875
 40
0.875
 40
1.0
 40
1.0
 40
1.0
 40
1.0
 10
274.0425509442713
 20
26.66255185580638
 30
0.0
 10
274.0580098149495
 20
26.72858595762779
 30
0.0
 10
274.0771144617019
 20
26.79820625427192
 30
0.0
 10
274.1227504972179
 20
26.94440416315214
 30
0.0
 10
274.1494702867855
 20
27.02148001579645
 30
0.0
 10
274.2102406265648
 20
27.18080749204609
 30
0.0
 10
274.2437150914944
 20
27.26163398733637
 30
0.0
 10
274.3168393487745
 20
27.42551001569221
 30
0.0
 10
274.3569181493538
 20
27.5093863585123
 30
0.0
 10
274.4415708869397
 20
27.67528821421299
 30
0.0
 10
274.4857889039777
 20
27.75673584246642
 30
0.0
 10
274.5778836853066
 20
27.91671380378723
 30
0.0
 10
274.6262620649023
 20
27.9959780251741
 30
0.0
 10
274.7233543474516
 20
28.14624619512255
 30
0.0
 10
274.7722252225659
 20
28.21762099481694
 30
0.0
 10
274.8704272849332
 20
28.35311627821967
 30
0.0
 10
274.9199110573031
 20
28.41737328712655
 30
0.0
 10
274.9682978599111
 20
28.47642923079557
 30
0.0
  0
LWPOLYLINE
  5
18A
330
1F
100
AcDbEntity
  8
0
  6
Continuous
 62
     7
370
    25
100
AcDbPolyline
 90
        9
 70
   128
 43
0.0
 10
274.0425509228
 20
21.4670111412
 10
273.7777798106
 20
21.9222954604
 10
273.5852395065
 20
22.4544744316
 10
273.4683356732
 20
23.0541334899
 10
273.4291364699
 20
23.7106648392
 10
273.4683356732
 20
24.4124546254
 10
273.5852395065
 20
25.1470879764
 10
273.7777798106
 20
25.901569251
 10
274.0425509228
 20
26.6625517893
  0
ARC
  5
18B
330
1F
100
AcDbEntity
  8
0
  6
Continuous
 62
     7
370
    25
100
AcDbCircle
 10
281.20576278
 20
30.5904814823
 30
0.0
 40
1.306460013510301
100
AcDbArc
 50
110.2516703451
 51
120.2336532865
  0
LINE
  5
18C
330
1F
100
AcDbEntity
  8
0
  6
Continuous
 62
     7
370
    25
100
AcDbLine
 10
280.1260757691
 20
31.4757078226
 30
0.0
 11
280.5479242344
 21
31.719235758
 31
0.0
  0
LWPOLYLINE
  5
18D
330
1F
100
AcDbEntity
  8
0
  6
Continuous
 62
     7
370
    25
100
AcDbPolyline
 90
        9
 70
   128
 43
0.0
 10
275.5957610721
 20
28.8604128161
 10
276.1174117929
 20
29.5040975115
 10
276.6770423396
 20
30.0773112524
 10
277.2624621066
 20
30.5675678353
 10
277.8609184206
 20
30.9641877795
 10
278.4593747347
 20
31.258530788
 10
279.0447945016
 20
31.4441854808
 10
279.6044250483
 20
31.5171074157
 10
280.1260757691
 20
31.4757078226
  0
LINE
  5
18E
330
1F
100
AcDbEntity
  8
0
  6
Continuous
 62
     7
370
    25
100
AcDbLine
 10
275.1739126068
 20
28.6168848807
 30
0.0
 11
275.5957610721
 21
28.8604128161
 31
0.0
  0
ARC
  5
18F
330
1F
100
AcDbEntity
  8
0
  6
Continuous
 62
     7
370
    25
100
AcDbCircle
 10
276.0366422444
 20
27.1331962316
 30
0.0
 40
1.716285068157003
100
AcDbArc
 50
120.1769820595
 51
128.4970899924
  0
LWPOLYLINE
  5
190
330
1F
100
AcDbEntity
  8
0
  6
Continuous
 62
     7
370
    25
100
AcDbPolyline
 90
       26
 70
   128
 43
0.0
 10
278.2755186158
 20
31.1790562419
 10
278.3416722104
 20
31.1797794134
 10
278.8248290291
 20
31.1151678311
 10
279.2507598118
 20
30.9281707245
 10
279.6072111855
 20
30.6241677123
 10
279.8839289536
 20
30.2119046046
 10
280.0729523008
 20
29.7032412821
 10
280.1688429666
 20
29.1128108681
 10
280.1688429666
 20
28.4575993206
 10
280.0729523008
 20
27.7564559004
 10
279.8839289536
 20
27.0295508666
 10
279.6072111855
 20
26.2977962245
 10
279.2507598118
 20
25.5822432164
 10
278.8248290291
 20
24.9034768957
 10
278.3416722104
 20
24.2810243244
 10
277.8151887607
 20
23.7327920538
 10
277.2605248332
 20
23.2745517799
 10
276.6936369718
 20
22.9194865368
 10
276.1308335885
 20
22.6778105972
 10
275.5883054428
 20
22.5564763701
 10
275.0816600701
 20
22.5589752148
 10
274.6254727893
 20
22.6852341376
 10
274.2328673221
 20
22.9316217899
 10
273.9151380363
 20
23.2910497879
 10
273.6814258588
 20
23.7531780204
 10
273.5676050016
 20
24.1489094445
  0
LINE
  5
191
330
1F
100
AcDbEntity
  8
0
  6
Continuous
 62
     7
370
    25
100
AcDbLine
 10
274.1486088572
 20
21.4108157018
 30
0.0
 11
275.2925859491
 21
22.0712196198
 31
0.0
  0
LINE
  5
192
330
1F
100
AcDbEntity
  8
0
  6
Continuous
 62
     7
370
    25
100
AcDbLine
 10
274.0628433132
 20
21.3650632752
 30
0.0
 11
274.1486088572
 21
21.4108157018
 31
0.0
  0
LWPOLYLINE
  5
193
330
1F
100
AcDbEntity
  8
0
  6
Continuous
 62
     7
370
    25
100
AcDbPolyline
 90
        3
 70
   128
 43
0.0
 10
280.6328359755
 20
31.3941122059
 10
280.6535827616
 20
31.6926601955
 10
280.6494135164
 20
31.7725561489
  0
ARC
  5
194
330
1F
100
AcDbEntity
  8
0
  6
Continuous
 62
     7
370
    25
100
AcDbCircle
 10
275.5692777812
 20
29.0530625569
 30
0.0
 40
5.578542376499626
100
AcDbArc
 50
335.1873452281
 51
24.8126547719
  0
ARC
  5
195
330
1F
100
AcDbEntity
  8
0
  6
Continuous
 62
     7
370
    25
100
AcDbCircle
 10
278.2779378799
 20
26.5213186075
 30
0.0
 40
2.362606475190391
100
AcDbArc
 50
301.7912526661
 51
4.6295804276
  0
LINE
  5
196
330
1F
100
AcDbEntity
  8
0
  6
Continuous
 62
     7
370
    25
100
AcDbLine
 10
278.378643393
 20
23.852762661
 30
0.0
 11
279.5226204849
 21
24.513166579
 31
0.0
  0
ARC
  5
197
330
1F
100
AcDbEntity
  8
0
  6
Continuous
 62
     7
370
    25
100
AcDbCircle
 10
274.5851614174
 20
26.8603129072
 30
0.0
 40
4.841060212684013
100
AcDbArc
 50
278.4027252788
 51
321.5918981885
  0
ARC
  5
198
330
1F
100
AcDbEntity
  8
0
  6
Continuous
 62
     7
370
    25
100
AcDbCircle
 10
275.7669510708
 20
21.4667145808
 30
0.0
 40
1.724400173491037
100
AcDbArc
 50
171.017860925
 51
179.990146335
  0
ARC
  5
199
330
1F
100
AcDbEntity
  8
0
  6
Continuous
 62
     7
370
    25
100
AcDbCircle
 10
279.1272553105
 20
24.0769889029
 30
0.0
 40
5.57854237650009
100
AcDbArc
 50
155.1873452281
 51
204.8126547719
  0
ARC
  5
19A
330
1F
100
AcDbEntity
  8
0
  6
Continuous
 62
     7
370
    25
100
AcDbCircle
 10
275.3419286552
 20
26.6517546254
 30
0.0
 40
1.29942259105296
100
AcDbArc
 50
179.5239123517
 51
190.3616916501
  0
SPLINE
  5
19B
330
1F
100
AcDbEntity
  8
0
  6
Continuous
 62
     7
370
    25
100
AcDbSpline
210
0.0
220
0.0
230
1.0
 70
     8
 71
     3
 72
    11
 73
     7
 74
     0
 42
0.000000001
 43
0.00000001
 40
0.0
 40
0.0
 40
0.0
 40
0.0
 40
0.0507957277900099
 40
0.3662174211088494
 40
0.6829569363879311
 40
0.9999999999999999
 40
0.9999999999999999
 40
0.9999999999999999
 40
0.9999999999999999
 10
279.0688355744033
 20
31.4346390454924
 30
0.0
 10
279.0866082286985
 20
31.43609560234204
 30
0.0
 10
279.2147421467542
 20
31.44659681014792
 30
0.0
 10
279.4554162328904
 20
31.45822968721535
 30
0.0
 10
279.790131835569
 20
31.47091724211383
 30
0.0
 10
280.0140587082381
 20
31.47411045265054
 30
0.0
 10
280.1260757691367
 20
31.47570782260837
 30
0.0
  0
LWPOLYLINE
  5
19C
330
1F
100
AcDbEntity
  8
0
  6
Continuous
 62
     7
370
    25
100
AcDbPolyline
 90
       23
 70
   128
 43
0.0
 10
278.1586737223
 20
31.1234723873
 10
278.5981074662
 20
31.0197839592
 10
278.9903082577
 20
30.7932976587
 10
279.3084458412
 20
30.4522908853
 10
279.5428532771
 20
30.0071249976
 10
279.6864087358
 20
29.4713261616
 10
279.7347501832
 20
28.861174396
 10
279.6864087358
 20
28.1952087832
 10
279.5428532771
 20
27.4936643425
 10
279.3084458412
 20
26.77785739
 10
278.9903082577
 20
26.0695367813
 10
278.5981074662
 20
25.3902250856
 10
278.1437599941
 20
24.7605623339
 10
277.6410712392
 20
24.1996812376
 10
277.1053149065
 20
23.7246231449
 10
276.5527698049
 20
23.3498227281
 10
276.0002247032
 20
23.0866681498
 10
275.4644683706
 20
22.9431551475
 10
274.9617796157
 20
22.9236441614
 10
274.5074321436
 20
23.0287284877
 10
274.115231352
 20
23.2552147882
 10
273.7970937686
 20
23.5962215615
 10
273.6494087419
 20
23.8445510782
  0
ARC
  5
19D
330
1F
100
AcDbEntity
  8
0
  6
Continuous
 62
     7
370
    25
100
AcDbCircle
 10
274.5160740612
 20
21.9476747217
 30
0.0
 40
1.306460013512934
100
AcDbArc
 50
290.2516703451
 51
300.2336532865
  0
ARC
  5
19E
330
1F
100
AcDbEntity
  8
0
  6
Continuous
 62
     7
370
    25
100
AcDbCircle
 10
279.9548857705
 20
31.0714416232
 30
0.0
 40
1.724400173474552
100
AcDbArc
 50
351.017860925
 51
359.9901463351
  0
LINE
  5
19F
330
1F
100
AcDbEntity
  8
0
  6
Continuous
 62
     7
370
    25
100
AcDbLine
 10
280.6328359755
 20
31.3941122059
 30
0.0
 11
281.658139725
 21
30.8022169502
 31
0.0
  0
LWPOLYLINE
  5
1A0
330
1F
100
AcDbEntity
  8
0
  6
Continuous
 62
     7
370
    25
100
AcDbPolyline
 90
        9
 70
   128
 43
0.0
 10
280.1260757691
 20
23.6777433879
 10
279.6044250483
 20
23.0340586925
 10
279.0447945016
 20
22.4608449516
 10
278.4593747347
 20
21.9705883687
 10
277.8609184206
 20
21.5739684245
 10
277.2624621066
 20
21.279625416
 10
276.6770423396
 20
21.0939707232
 10
276.1174117929
 20
21.0210487883
 10
275.5957610721
 20
21.0624483814
  0
LINE
  5
1A1
330
1F
100
AcDbEntity
  8
0
  6
Continuous
 62
     7
370
    25
100
AcDbLine
 10
280.5479242344
 20
23.9212713233
 30
0.0
 11
280.1260757691
 21
23.6777433879
 31
0.0
  0
ARC
  5
1A2
330
1F
100
AcDbEntity
  8
0
  6
Continuous
 62
     7
370
    25
100
AcDbCircle
 10
279.6851945968
 20
25.4049599724
 30
0.0
 40
1.716285068158258
100
AcDbArc
 50
300.1769820595
 51
308.4970899924
  0
LINE
  5
1A3
330
1F
100
AcDbEntity
  8
0
  6
Continuous
 62
     7
370
    25
100
AcDbLine
 10
275.5957610721
 20
21.0624483814
 30
0.0
 11
275.1739126068
 21
20.818920446
 31
0.0
  0
ARC
  5
1A4
330
1F
100
AcDbEntity
  8
0
  6
Continuous
 62
     7
370
    25
100
AcDbCircle
 10
259.8668184244
 20
48.6232029802
 30
0.0
 40
5.384568631471676
100
AcDbArc
 50
40.7761235178
 51
79.1830221203
  0
ARC
  5
1A5
330
1F
100
AcDbEntity
  8
0
  6
Continuous
 62
     7
370
    25
100
AcDbCircle
 10
249.5045059209
 20
30.6733330057
 30
0.0
 40
5.385246459016877
100
AcDbArc
 50
220.7024449627
 51
259.237329732
  0
LINE
  5
1A6
330
1F
100
AcDbEntity
  8
0
  6
Continuous
 62
     7
370
    25
100
AcDbLine
 10
275.2925859491
 20
22.0712196198
 30
0.0
 11
275.7055170632
 21
21.8328395617
 31
0.0
  0
SPLINE
  5
1A7
330
1F
100
AcDbEntity
  8
0
  6
Continuous
 62
     7
370
    25
100
AcDbSpline
210
0.0
220
0.0
230
1.0
 70
     8
 71
     3
 72
     8
 73
     4
 74
     0
 42
0.000000001
 43
0.00000001
 40
0.0
 40
0.0
 40
0.0
 40
0.0
 40
1.0
 40
1.0
 40
1.0
 40
1.0
 10
275.7055173030657
 20
21.8328393150344
 30
0.0
 10
275.6330681792102
 20
21.57599510773334
 30
0.0
 10
275.6036940571563
 20
21.31920757962301
 30
0.0
 10
275.5957611370877
 20
21.06244826439548
 30
0.0
  0
ARC
  5
1A8
330
1F
100
AcDbEntity
  8
0
  6
Continuous
 62
     7
370
    25
100
AcDbCircle
 10
248.9830072642
 20
32.6207327942
 30
0.0
 40
6.822604728823438
100
AcDbArc
 50
188.0546624844
 51
236.9718239885
  0
SPLINE
  5
1A9
330
1F
100
AcDbEntity
  8
0
  6
Continuous
 62
     7
370
    25
100
AcDbSpline
210
0.0
220
0.0
230
1.0
 70
     8
 71
     3
 72
    29
 73
    25
 74
     0
 42
0.000000001
 43
0.00000001
 40
0.0
 40
0.0
 40
0.0
 40
0.0
 40
0.022617010504675
 40
0.0451713142265269
 40
0.0676870228522217
 40
0.0901883721292881
 40
0.1126996441720091
 40
0.1352450890217754
 40
0.1578488467233686
 40
0.180534871159394
 40
0.2033268568200607
 40
0.2262481695790738
 40
0.2493217824052779
 40
0.3751991801918881
 40
0.4999614246459502
 40
0.499971796076067
 40
0.6247044141121627
 40
0.7509557879398104
 40
0.7931713871196749
 40
0.8349081045063343
 40
0.8763104515934019
 40
0.9175264576337645
 40
0.9587061619419153
 40
1.0
 40
1.0
 40
1.0
 40
1.0
 10
242.2278704780781
 20
36.81901780277369
 30
0.0
 10
242.246235703202
 20
36.77017791296849
 30
0.0
 10
242.2829152349528
 20
36.67263354437372
 30
0.0
 10
242.3346050636204
 20
36.52517093496012
 30
0.0
 10
242.3837864234451
 20
36.37723364543083
 30
0.0
 10
242.4302760933456
 20
36.22874178019393
 30
0.0
 10
242.4741861898056
 20
36.07974981405886
 30
0.0
 10
242.5155513812614
 20
35.93027802548082
 30
0.0
 10
242.5544286679657
 20
35.78035792217499
 30
0.0
 10
242.5908705129871
 20
35.63001911219946
 30
0.0
 10
242.6249324940723
 20
35.47929666058293
 30
0.0
 10
242.6566695471672
 20
35.32821496385863
 30
0.0
 10
242.7298278190343
 20
34.95249375690881
 30
0.0
 10
242.8155043590673
 20
34.36372333520244
 30
0.0
 10
242.8412367208954
 20
33.86223973119097
 30
0.0
 10
242.841673877123
 20
33.39178690595764
 30
0.0
 10
242.8162428204113
 20
32.94534437606523
 30
0.0
 10
242.7242755043692
 20
32.50931770457652
 30
0.0
 10
242.6317216103211
 20
32.24112482195747
 30
0.0
 10
242.5681389864308
 20
32.09487371112157
 30
0.0
 10
242.4964934823948
 20
31.96395337927532
 30
0.0
 10
242.4162387080829
 20
31.84850704682518
 30
0.0
 10
242.3278370484906
 20
31.74698504238147
 30
0.0
 10
242.2614803945802
 20
31.69198616541998
 30
0.0
 10
242.2282561526957
 20
31.66444867092823
 30
0.0
  0
LWPOLYLINE
  5
1AA
330
1F
100
AcDbEntity
  8
0
  6
Continuous
 62
     7
370
    25
100
AcDbPolyline
 90
       24
 70
   128
 43
0.0
 10
242.2276513201
 20
36.819144125
 10
242.4866430457
 20
38.1450342126
 10
242.8405218152
 20
39.4922659627
 10
243.2861364932
 20
40.8488393764
 10
243.8195167149
 20
42.2026699302
 10
244.4359117402
 20
43.5416975088
 10
245.129830625
 20
44.8539943865
 10
245.8950922705
 20
46.1278705475
 10
246.7248787654
 20
47.3519778634
 10
247.6117999234
 20
48.5154142713
 10
248.5479535394
 20
49.6078125518
 10
249.5250014523
 20
50.6194450754
 10
250.5342400086
 20
51.5412979418
 10
251.5666787586
 20
52.3651597558
 10
252.6131209225
 20
53.0836931747
 10
253.6642449263
 20
53.6904956669
 10
254.7106874606
 20
54.1801626694
 10
255.7431267046
 20
54.5483318297
 10
256.7523657547
 20
54.7917243245
 10
257.7294146555
 20
54.9081709214
 10
258.6655695886
 20
54.896635641
 10
259.5524920636
 20
54.7572211679
 10
260.3822805342
 20
54.4911676077
 10
261.013057513
 20
54.1811821489
  0
ARC
  5
1AB
330
1F
100
AcDbEntity
  8
0
  6
Continuous
 62
     7
370
    25
100
AcDbCircle
 10
274.9980925315
 20
26.6219328491
 30
0.0
 40
4.841060212683609
100
AcDbArc
 50
278.4027252788
 51
321.5918981885
  0
SPLINE
  5
1AC
330
1F
100
AcDbEntity
  8
0
  6
Continuous
 62
     7
370
    25
100
AcDbSpline
210
0.0
220
0.0
230
1.0
 70
     8
 71
     3
 72
     8
 73
     4
 74
     0
 42
0.000000001
 43
0.00000001
 40
0.0
 40
0.0
 40
0.0
 40
0.0
 40
1.0
 40
1.0
 40
1.0
 40
1.0
 10
280.1260756957029
 20
23.67774319096621
 30
0.0
 10
279.6774459064457
 20
23.67312385442385
 30
0.0
 10
279.2317479259339
 20
23.65576051058763
 30
0.0
 10
278.7915746583332
 20
23.61438230502147
 30
0.0
  0
ARC
  5
1AD
330
1F
100
AcDbEntity
  8
0
  6
Continuous
 62
     7
370
    25
100
AcDbCircle
 10
280.3799081861
 20
25.8864015786
 30
0.0
 40
1.29942259104177
100
AcDbArc
 50
359.5239123517
 51
10.3616916501
  0
ARC
  5
1AE
330
1F
100
AcDbEntity
  8
0
  6
Continuous
 62
     7
370
    25
100
AcDbCircle
 10
276.5945815307
 20
28.4611673011
 30
0.0
 40
5.578542376499317
100
AcDbArc
 50
335.1873452281
 51
24.8126547719
  0
LINE
  5
1AF
330
1F
100
AcDbEntity
  8
0
  6
Continuous
 62
     7
370
    25
100
AcDbLine
 10
280.6328359755
 20
26.7120129078
 30
0.0
 11
281.658139725
 21
26.1201176521
 31
0.0
  0
LINE
  5
1B0
330
1F
100
AcDbEntity
  8
0
  6
Continuous
 62
     7
370
    25
100
AcDbLine
 10
278.7915745071
 20
23.6143826029
 30
0.0
 11
278.378643393
 21
23.852762661
 31
0.0
  0
SPLINE
  5
1B1
330
1F
100
AcDbEntity
  8
0
  6
Continuous
 62
     7
370
    25
100
AcDbSpline
210
0.0
220
0.0
230
1.0
 70
     8
 71
     3
 72
     8
 73
     4
 74
     0
 42
0.000000001
 43
0.00000001
 40
0.0
 40
0.0
 40
0.0
 40
0.0
 40
1.0
 40
1.0
 40
1.0
 40
1.0
 10
241.449715339903
 20
40.09792120627804
 30
0.0
 10
240.7566441048502
 20
39.98205958790333
 30
0.0
 10
240.0630233384539
 20
39.86730089475027
 30
0.0
 10
239.3690441776266
 20
39.75328934711212
 30
0.0
  0
SPLINE
  5
1B2
330
1F
100
AcDbEntity
  8
0
  6
Continuous
 62
     7
370
    25
100
AcDbSpline
210
0.0
220
0.0
230
1.0
 70
     8
 71
     3
 72
     8
 73
     4
 74
     0
 42
0.000000001
 43
0.00000001
 40
0.0
 40
0.0
 40
0.0
 40
0.0
 40
0.0012389803509652
 40
0.0012389803509652
 40
0.0012389803509652
 40
0.0012389803509652
 10
238.8953077634811
 20
40.02682346786612
 30
0.0
 10
239.053381098462
 20
39.93555238741562
 30
0.0
 10
239.2112992774281
 20
39.84437086031537
 30
0.0
 10
239.3690441776266
 20
39.75328934711212
 30
0.0
  0
LWPOLYLINE
  5
1B3
330
1F
100
AcDbEntity
  8
0
  6
Continuous
 62
     7
370
    25
100
AcDbPolyline
 90
       26
 70
   128
 43
0.0
 10
238.8953081084
 20
40.0268234205
 10
239.2409735108
 20
41.3847100264
 10
239.6805236525
 20
42.7535552186
 10
240.2099697293
 20
44.1209349287
 10
240.824506342
 20
45.4744403742
 10
241.5185562771
 20
46.8017856595
 10
242.2858205565
 20
48.090926024
 10
243.1193344134
 20
49.3301593575
 10
244.0115351226
 20
50.5082398842
 10
244.9543232453
 20
51.6144751149
 10
245.9391429712
 20
52.6388247006
 10
246.9570566989
 20
53.5719929161
 10
247.9988253782
 20
54.4055100223
 10
249.0549943269
 20
55.131811465
 10
250.1159779355
 20
55.744304265
 10
251.1721468841
 20
56.2374295341
 10
252.2139155635
 20
56.6067129428
 10
253.2318292912
 20
56.8488029013
 10
254.2166490171
 20
56.9615019684
 10
255.1594371398
 20
56.9437867343
 10
256.051637849
 20
56.7958192199
 10
256.8851517059
 20
56.5189405012
 10
257.6524159852
 20
56.1156646175
 10
258.3464659204
 20
55.5896523304
 10
258.9610025331
 20
54.9456757552
 10
259.0334832587
 20
54.8552042886
  0
LINE
  5
1B4
330
1F
100
AcDbEntity
  8
0
  6
Continuous
 62
     7
370
    25
100
AcDbLine
 10
235.8635876658
 20
41.7769983785
 30
0.0
 11
238.8953081084
 21
40.0268234205
 31
0.0
  0
ARC
  5
1B5
330
1F
100
AcDbEntity
  8
0
  6
Continuous
 62
     7
370
    25
100
AcDbCircle
 10
251.7163173896
 20
53.2500181743
 30
0.0
 40
5.454453974826901
100
AcDbArc
 50
60.1868415198
 51
79.2208981643
  0
LINE
  5
1B6
330
1F
100
AcDbEntity
  8
0
  6
Continuous
 62
     7
370
    25
100
AcDbLine
 10
241.8523105851
 20
40.0367589474
 30
0.0
 11
241.8429878997
 21
40.0421408191
 31
0.0
  0
SPLINE
  5
1B7
330
1F
100
AcDbEntity
  8
0
  6
Continuous
 62
     7
370
    25
100
AcDbSpline
210
0.0
220
0.0
230
1.0
 70
     8
 71
     3
 72
    10
 73
     6
 74
     0
 42
0.000000001
 43
0.00000001
 40
0.0
 40
0.0
 40
0.0
 40
0.0
 40
0.2465676498157572
 40
0.7152855380067944
 40
1.0
 40
1.0
 40
1.0
 40
1.0
 10
242.7756723033175
 20
39.22707568318594
 30
0.0
 10
242.7078141047343
 20
39.31061746392309
 30
0.0
 10
242.5109594560485
 20
39.55296972556518
 30
0.0
 10
242.195892786775
 20
39.82089695409926
 30
0.0
 10
241.946538897054
 20
39.97755823458246
 30
0.0
 10
241.8523105850623
 20
40.03675894739634
 30
0.0
  0
SPLINE
  5
1B8
330
1F
100
AcDbEntity
  8
0
  6
Continuous
 62
     7
370
    25
100
AcDbSpline
210
0.0
220
0.0
230
1.0
 70
     8
 71
     3
 72
    10
 73
     6
 74
     0
 42
0.000000001
 43
0.00000001
 40
0.0
 40
0.0
 40
0.0
 40
0.0
 40
0.5
 40
0.5
 40
1.0
 40
1.0
 40
1.0
 40
1.0
 10
241.842988091455
 20
40.04214066736938
 30
0.0
 10
241.7931874926422
 20
40.0708899411185
 30
0.0
 10
241.7281555758982
 20
40.09165328647916
 30
0.0
 10
241.5910972155528
 20
40.11060697586695
 30
0.0
 10
241.517558375503
 20
40.10926261463914
 30
0.0
 10
241.449715339903
 20
40.09792120627804
 30
0.0
  0
SPLINE
  5
1B9
330
1F
100
AcDbEntity
  8
0
  6
Continuous
 62
     7
370
    25
100
AcDbSpline
210
0.0
220
0.0
230
1.0
 70
     8
 71
     3
 72
     8
 73
     4
 74
     0
 42
0.000000001
 43
0.00000001
 40
0.0
 40
0.0
 40
0.0
 40
0.0
 40
1.0
 40
1.0
 40
1.0
 40
1.0
 10
235.7067628315826
 20
41.86752003677491
 30
0.0
 10
235.729141628102
 20
41.85460808532308
 30
0.0
 10
235.7833290591193
 20
41.82333053416605
 30
0.0
 10
235.8635874391437
 20
41.77699835758605
 30
0.0
  0
LINE
  5
1BA
330
1F
100
AcDbEntity
  8
0
  6
Continuous
 62
     7
370
    25
100
AcDbLine
 10
235.7067630291
 20
41.8675200745
 30
0.0
 11
235.7294234633
 21
42.0109634032
 31
0.0
  0
SPLINE
  5
1BB
330
1F
100
AcDbEntity
  8
0
  6
Continuous
 62
     7
370
    25
100
AcDbSpline
210
0.0
220
0.0
230
1.0
 70
     8
 71
     3
 72
    11
 73
     7
 74
     0
 42
0.000000001
 43
0.00000001
 40
0.0
 40
0.0
 40
0.0
 40
0.0
 40
0.3105158240346707
 40
0.5915933143508023
 40
0.8435752197913604
 40
0.9999999999999999
 40
0.9999999999999999
 40
0.9999999999999999
 40
0.9999999999999999
 10
242.336296017403
 20
32.3905776342917
 30
0.0
 10
242.4272955797813
 20
32.48204690719425
 30
0.0
 10
242.6006675258945
 20
32.65631374362975
 30
0.0
 10
242.7509553301988
 20
33.07484149085347
 30
0.0
 10
242.8250352064111
 20
33.48597585534592
 30
0.0
 10
242.832576459355
 20
33.78071378951861
 30
0.0
 10
242.8354648519199
 20
33.89360204084296
 30
0.0
  0
SPLINE
  5
1BC
330
1F
100
AcDbEntity
  8
0
  6
Continuous
 62
     7
370
    25
100
AcDbSpline
210
0.0
220
0.0
230
1.0
 70
     8
 71
     3
 72
     9
 73
     5
 74
     0
 42
0.000000001
 43
0.00000001
 40
0.0
 40
0.0
 40
0.0
 40
0.0
 40
0.5067661696360637
 40
0.9999999999999999
 40
0.9999999999999999
 40
0.9999999999999999
 40
0.9999999999999999
 10
242.2275743628893
 20
31.66394664314458
 30
0.0
 10
242.2458433802052
 20
31.78640099699734
 30
0.0
 10
242.2818935714185
 20
32.02803976688744
 30
0.0
 10
242.3185743108536
 20
32.27019016501848
 30
0.0
 10
242.3366664924658
 20
32.38962693341281
 30
0.0
  0
SPLINE
  5
1BD
330
1F
100
AcDbEntity
  8
0
  6
Continuous
 62
     7
370
    25
100
AcDbSpline
210
0.0
220
0.0
230
1.0
 70
     8
 71
     3
 72
    10
 73
     6
 74
     0
 42
0.000000001
 43
0.00000001
 40
0.0
 40
0.0
 40
0.0
 40
0.0
 40
0.4807911683022243
 40
0.9757818333355728
 40
1.0
 40
1.0
 40
1.0
 40
1.0
 10
241.8523105850623
 20
33.46360517080141
 30
0.0
 10
242.0021019672124
 20
33.38343478625249
 30
0.0
 10
242.3061086111124
 20
33.22072629663818
 30
0.0
 10
242.5957196197985
 20
33.10922391750085
 30
0.0
 10
242.7300612801429
 20
33.08099344853001
 30
0.0
 10
242.7363275616881
 20
33.07967665620905
 30
0.0
  0
LINE
  5
1BE
330
1F
100
AcDbEntity
  8
0
  6
Continuous
 62
     7
370
    25
100
AcDbLine
 10
236.1401961155
 20
41.6172638094
 30
0.0
 11
235.7067630291
 21
41.8675200745
 31
0.0
  0
LINE
  5
1BF
330
1F
100
AcDbEntity
  8
0
  6
Continuous
 62
     7
370
    25
100
AcDbLine
 10
239.3690442833
 20
39.7532894379
 30
0.0
 11
236.1401961155
 21
41.6172638094
 31
0.0
  0
SPLINE
  5
1C0
330
1F
100
AcDbEntity
  8
0
  6
Continuous
 62
     7
370
    25
100
AcDbSpline
210
0.0
220
0.0
230
1.0
 70
     8
 71
     3
 72
    11
 73
     7
 74
     0
 42
0.000000001
 43
0.00000001
 40
0.0
 40
0.0
 40
0.0
 40
0.0
 40
0.218002543760064
 40
0.5290085494483732
 40
0.8400524987305329
 40
1.0
 40
1.0
 40
1.0
 40
1.0
 10
238.2452607179034
 20
37.60343758519765
 30
0.0
 10
238.2405385206281
 20
37.80983192572375
 30
0.0
 10
238.2290795592429
 20
38.31067181874921
 30
0.0
 10
238.1640071501101
 20
39.12939834094861
 30
0.0
 10
238.1232791684891
 20
39.88356472333724
 30
0.0
 10
238.1441642278112
 20
40.31110956677831
 30
0.0
 10
238.1512567409524
 20
40.45630271053698
 30
0.0
  0
LINE
  5
1C1
330
1F
100
AcDbEntity
  8
0
  6
Continuous
 62
     7
370
    25
100
AcDbLine
 10
238.2452607179
 20
37.1830822163
 30
0.0
 11
238.2452607179
 21
37.6034375852
 31
0.0
  0
LINE
  5
1C2
330
1F
100
AcDbEntity
  8
0
  6
Continuous
 62
     7
370
    25
100
AcDbLine
 10
237.6353814143
 20
40.4184511998
 30
0.0
 11
237.6405694279
 21
40.7511167256
 31
0.0
  0
ARC
  5
1C3
330
1F
100
AcDbEntity
  8
0
  6
Continuous
 62
     7
370
    25
100
AcDbCircle
 10
245.1291797197
 20
40.232585474
 30
0.0
 40
7.49610292822289
100
AcDbArc
 50
178.5792066581
 51
203.3164136919
  0
LINE
  5
1C4
330
1F
100
AcDbEntity
  8
0
  6
Continuous
 62
     7
370
    25
100
AcDbLine
 10
241.8429878997
 20
33.4689870425
 30
0.0
 11
241.8523105851
 21
33.4636051708
 31
0.0
  0
ARC
  5
1C5
330
1F
100
AcDbEntity
  8
0
  6
Continuous
 62
     7
370
    25
100
AcDbCircle
 10
244.6489983044
 20
34.0934742172
 30
0.0
 40
5.894053667890321
100
AcDbArc
 50
192.5291987542
 51
260.6429031606
  0
SPLINE
  5
1C6
330
1F
100
AcDbEntity
  8
0
  6
Continuous
 62
     7
370
    25
100
AcDbSpline
210
0.0
220
0.0
230
1.0
 70
     8
 71
     3
 72
     8
 73
     4
 74
     0
 42
0.000000001
 43
0.00000001
 40
0.0
 40
0.0
 40
0.0
 40
0.0
 40
0.0012389803509652
 40
0.0012389803509652
 40
0.0012389803509652
 40
0.0012389803509652
 10
239.3690441776266
 20
33.18013581143183
 30
0.0
 10
239.2112992774281
 20
33.0580593608971
 30
0.0
 10
239.053381098462
 20
32.93630205789628
 30
0.0
 10
238.8953077634811
 20
32.81483503635185
 30
0.0
  0
SPLINE
  5
1C7
330
1F
100
AcDbEntity
  8
0
  6
Continuous
 62
     7
370
    25
100
AcDbSpline
210
0.0
220
0.0
230
1.0
 70
     8
 71
     3
 72
     8
 73
     4
 74
     0
 42
0.000000001
 43
0.00000001
 40
0.0
 40
0.0
 40
0.0
 40
0.0
 40
1.0
 40
1.0
 40
1.0
 40
1.0
 10
239.3690441776266
 20
33.18013581143183
 30
0.0
 10
240.0630247605682
 20
33.29414759270443
 30
0.0
 10
240.7566578213301
 20
33.40890834522481
 30
0.0
 10
241.449715339903
 20
33.52476767059775
 30
0.0
  0
SPLINE
  5
1C8
330
1F
100
AcDbEntity
  8
0
  6
Continuous
 62
     7
370
    25
100
AcDbSpline
210
0.0
220
0.0
230
1.0
 70
     8
 71
     3
 72
    12
 73
     8
 74
     0
 42
0.000000001
 43
0.00000001
 40
0.0
 40
0.0
 40
0.0
 40
0.0
 40
0.2499999999999984
 40
0.2499999999999984
 40
0.4999999999999968
 40
0.4999999999999968
 40
1.0
 40
1.0
 40
1.0
 40
1.0
 10
241.449715339903
 20
33.52476767059775
 30
0.0
 10
241.4835038558271
 20
33.530416140682
 30
0.0
 10
241.519075631896
 20
33.53367660419745
 30
0.0
 10
241.5896578782885
 20
33.53481419374557
 30
0.0
 10
241.6246808367374
 20
33.53279757728754
 30
0.0
 10
241.7288861320024
 20
33.51842183994795
 30
0.0
 10
241.792596563942
 20
33.49807754131555
 30
0.0
 10
241.842988091455
 20
33.4689871316891
 30
0.0
  0
LINE
  5
1C9
330
1F
100
AcDbEntity
  8
0
  6
Continuous
 62
     7
370
    25
100
AcDbLine
 10
236.1401961155
 20
35.0441100328
 30
0.0
 11
239.3690442833
 21
33.1801356613
 31
0.0
  0
LINE
  5
1CA
330
1F
100
AcDbEntity
  8
0
  6
Continuous
 62
     7
370
    25
100
AcDbLine
 10
236.1401961155
 20
35.0441100328
 30
0.0
 11
238.0331289616
 21
36.1368769047
 31
0.0
  0
LINE
  5
1CB
330
1F
100
AcDbEntity
  8
0
  6
Continuous
 62
     7
370
    25
100
AcDbLine
 10
235.7067630291
 20
34.7938539578
 30
0.0
 11
236.1401961155
 21
35.0441100328
 31
0.0
  0
LINE
  5
1CC
330
1F
100
AcDbEntity
  8
0
  6
Continuous
 62
     7
370
    25
100
AcDbLine
 10
238.8953081084
 20
32.8148351875
 30
0.0
 11
235.8635876658
 21
34.5650101455
 31
0.0
  0
SPLINE
  5
1CD
330
1F
100
AcDbEntity
  8
0
  6
Continuous
 62
     7
370
    25
100
AcDbSpline
210
0.0
220
0.0
230
1.0
 70
     8
 71
     3
 72
     8
 73
     4
 74
     0
 42
0.000000001
 43
0.00000001
 40
0.0
 40
0.0
 40
0.0
 40
0.0
 40
1.0
 40
1.0
 40
1.0
 40
1.0
 10
235.8635874391438
 20
34.56500992607178
 30
0.0
 10
235.783562639629
 20
34.61120725949375
 30
0.0
 10
235.7290858422471
 20
34.69439478185844
 30
0.0
 10
235.7067628315826
 20
34.79385378469957
 30
0.0
  0
ARC
  5
1CE
330
1F
100
AcDbEntity
  8
0
  6
Continuous
 62
     7
370
    25
100
AcDbCircle
 10
241.3892057288
 20
35.3773331082
 30
0.0
 40
5.403827727632668
100
AcDbArc
 50
221.0783067246
 51
239.903398894
  0
ELLIPSE
  5
1CF
330
1F
100
AcDbEntity
  8
0
  6
Continuous
 62
     7
370
    25
100
AcDbEllipse
 10
237.798814391
 20
36.9253766128
 30
0.0
 11
-6.005970385558612E-5
 21
0.8534489614827194
 31
0.0
210
0.0
220
0.0
230
1.0
 40
0.7174342186
 41
3.534193645557401
 42
5.104989972352364
  0
ELLIPSE
  5
1D0
330
1F
100
AcDbEntity
  8
0
  6
Continuous
 62
     7
370
    25
100
AcDbEllipse
 10
237.6795755755
 20
36.8565191327
 30
0.0
 11
0.2600075789209484
 21
0.9705436209909308
 31
0.0
210
0.0
220
0.0
230
1.0
 40
0.5176380889
 41
3.619174351347763
 42
5.189970678142611
  0
LWPOLYLINE
  5
1D1
330
1F
100
AcDbEntity
  8
0
  6
Continuous
 62
     7
370
    25
100
AcDbPolyline
 90
       23
 70
   128
 43
0.0
 10
275.2394747461
 20
33.6408685891
 10
274.7470720449
 20
33.5974921347
 10
274.2534479905
 20
33.6359560844
 10
273.7985898171
 20
33.753146326
 10
273.4193467942
 20
33.9395691205
 10
273.1464466087
 20
34.1801195671
 10
273.0019973404
 20
34.4553098369
 10
272.9976999259
 20
34.742846734
 10
273.1339016239
 20
35.019436242
 10
273.3995701676
 20
35.2626694508
 10
273.7731806181
 20
35.45284231
 10
274.2244665168
 20
35.5745474465
 10
274.7168692181
 20
35.6179239009
 10
275.2104959067
 20
35.5794584305
 10
275.6653540801
 20
35.4622681889
 10
276.0445944687
 20
35.2758469151
 10
276.3174946543
 20
35.0352964684
 10
276.4619439226
 20
34.7601061986
 10
276.4662439713
 20
34.4725677809
 10
276.3300422732
 20
34.1959782729
 10
276.0643737295
 20
33.952745064
 10
275.6907606449
 20
33.7625737255
 10
275.2394747461
 20
33.6408685891
  0
LWPOLYLINE
  5
1D2
330
1F
100
AcDbEntity
  8
0
  6
Continuous
 62
     7
370
    25
100
AcDbPolyline
 90
       12
 70
   128
 43
0.0
 10
275.3119741991
 20
33.2986137024
 10
274.7968172622
 20
33.2496045356
 10
274.2772437554
 20
33.2792347682
 10
273.7886570726
 20
33.3854880041
 10
273.3643538003
 20
33.5611231045
 10
273.0332545792
 20
33.7941677667
 10
272.8179187569
 20
34.0687432072
 10
272.7330238088
 20
34.3661358599
 10
272.7843501915
 20
34.6660817795
 10
272.9684080308
 20
34.9481356798
 10
273.2726456073
 20
35.1930808253
 10
273.3175270252
 20
35.219847979
  0
LWPOLYLINE
  5
1D3
330
1F
100
AcDbEntity
  8
0
  6
Continuous
 62
     7
370
    25
100
AcDbPolyline
 90
        9
 70
   128
 43
0.0
 10
276.1464132699
 20
35.2198481576
 10
276.4306866837
 20
35.0129770355
 10
276.646022506
 20
34.7384015951
 10
276.7309200884
 20
34.4410074217
 10
276.6795910715
 20
34.1410630227
 10
276.4955358663
 20
33.8590076018
 10
276.1912956557
 20
33.614063977
 10
275.7876039159
 20
33.4229245572
 10
275.3119741991
 20
33.2986137024
  0
LWPOLYLINE
  5
1D4
330
1F
100
AcDbEntity
  8
0
  6
Continuous
 62
     7
370
    25
100
AcDbPolyline
 90
       19
 70
   128
 43
0.0
 10
275.0727220571
 20
33.9585451936
 10
274.6675685594
 20
33.9304150392
 10
274.2701849815
 20
33.9839752169
 10
273.9284967763
 20
34.1127684739
 10
273.6837207217
 20
34.3012579181
 10
273.565377516
 20
34.5267106161
 10
273.5877453506
 20
34.7619312981
 10
273.7481201184
 20
34.9785523937
 10
274.0271657693
 20
35.1504418785
 10
274.3912192058
 20
35.2568708419
 10
274.7963727035
 20
35.2850009964
 10
275.1937589157
 20
35.231439298
 10
275.5354444867
 20
35.1026475617
 10
275.7802205412
 20
34.9141581174
 10
275.898563747
 20
34.6887054195
 10
275.8761985465
 20
34.4534832168
 10
275.7158211445
 20
34.2368636419
 10
275.4367781278
 20
34.0649726364
 10
275.0727220571
 20
33.9585451936
  0
SPLINE
  5
1D5
330
1F
100
AcDbEntity
  8
0
  6
Continuous
 62
     7
370
    25
100
AcDbSpline
210
0.0
220
0.0
230
1.0
 70
     8
 71
     3
 72
    10
 73
     6
 74
     0
 42
0.000000001
 43
0.00000001
 40
0.0
 40
0.0
 40
0.0
 40
0.0
 40
0.4391220996148497
 40
0.7513706988033358
 40
0.9999999999999999
 40
0.9999999999999999
 40
0.9999999999999999
 40
0.9999999999999999
 10
275.8370488163579
 20
34.78444600524389
 30
0.0
 10
275.799464421041
 20
34.63559026747461
 30
0.0
 10
275.7351547144739
 20
34.38088698607135
 30
0.0
 10
275.6416663106885
 20
34.19227746800637
 30
0.0
 10
275.5951381333853
 20
34.15280610852489
 30
0.0
 10
275.57451284542
 20
34.13530900885593
 30
0.0
  0
SPLINE
  5
1D6
330
1F
100
AcDbEntity
  8
0
  6
Continuous
 62
     7
370
    25
100
AcDbSpline
210
0.0
220
0.0
230
1.0
 70
     8
 71
     3
 72
    10
 73
     6
 74
     0
 42
0.000000001
 43
0.00000001
 40
0.0
 40
0.0
 40
0.0
 40
0.0
 40
0.4391219786840324
 40
0.7513706791233763
 40
1.0
 40
1.0
 40
1.0
 40
1.0
 10
274.9945092777506
 20
35.24026770761195
 30
0.0
 10
275.1151268959487
 20
35.11908697074239
 30
0.0
 10
275.3215126978424
 20
34.9117376305176
 30
0.0
 10
275.6215287918069
 20
34.7919644038635
 30
0.0
 10
275.7708547319481
 20
34.78675518052303
 30
0.0
 10
275.8370488163579
 20
34.78444600524389
 30
0.0
  0
SPLINE
  5
1D7
330
1F
100
AcDbEntity
  8
0
  6
Continuous
 62
     7
370
    25
100
AcDbSpline
210
0.0
220
0.0
230
1.0
 70
     8
 71
     3
 72
    11
 73
     7
 74
     0
 42
0.000000001
 43
0.00000001
 40
0.0
 40
0.0
 40
0.0
 40
0.0
 40
0.1845124508731839
 40
0.5180562087257421
 40
0.8676110998805365
 40
1.0
 40
1.0
 40
1.0
 40
1.0
 10
273.8894310517093
 20
35.04695388674945
 30
0.0
 10
273.9536078377893
 20
35.03275771207853
 30
0.0
 10
274.1337972088992
 20
34.99289906626021
 30
0.0
 10
274.4696691077714
 20
34.998633332404
 30
0.0
 10
274.7817572513495
 20
35.11714784846055
 30
0.0
 10
274.9486611450238
 20
35.21373533685541
 30
0.0
 10
274.9945092777506
 20
35.24026770761196
 30
0.0
  0
SPLINE
  5
1D8
330
1F
100
AcDbEntity
  8
0
  6
Continuous
 62
     7
370
    25
100
AcDbSpline
210
0.0
220
0.0
230
1.0
 70
     8
 71
     3
 72
    10
 73
     6
 74
     0
 42
0.000000001
 43
0.00000001
 40
0.0
 40
0.0
 40
0.0
 40
0.0
 40
0.4391227675280061
 40
0.7513718416526151
 40
1.0
 40
1.0
 40
1.0
 40
1.0
 10
273.6268924465934
 20
34.3978184110401
 30
0.0
 10
273.6644769946761
 20
34.43482320255909
 30
0.0
 10
273.7287869626368
 20
34.49814116375273
 30
0.0
 10
273.8222737863235
 20
34.77182649290442
 30
0.0
 10
273.8688046452618
 20
34.96245238988681
 30
0.0
 10
273.8894310517093
 20
35.04695388674944
 30
0.0
  0
SPLINE
  5
1D9
330
1F
100
AcDbEntity
  8
0
  6
Continuous
 62
     7
370
    25
100
AcDbSpline
210
0.0
220
0.0
230
1.0
 70
     8
 71
     3
 72
     9
 73
     5
 74
     0
 42
0.000000001
 43
0.00000001
 40
0.0
 40
0.0
 40
0.0
 40
0.0
 40
0.34179320791566
 40
0.9999999999999999
 40
0.9999999999999999
 40
0.9999999999999999
 40
0.9999999999999999
 10
273.9416138304086
 20
34.1232180313166
 30
0.0
 10
273.9037223521434
 20
34.14650493415377
 30
0.0
 10
273.7928615234678
 20
34.21463648942716
 30
0.0
 10
273.6927720306092
 20
34.3251063792427
 30
0.0
 10
273.6268924465934
 20
34.3978184110401
 30
0.0
  0
LINE
  5
1DA
330
1F
100
AcDbEntity
  8
0
  6
Continuous
 62
     7
370
    25
100
AcDbLine
 10
273.8894310517
 20
34.1579431089
 30
0.0
 11
273.8894310517
 21
35.0469538867
 31
0.0
  0
LINE
  5
1DB
330
1F
100
AcDbEntity
  8
0
  6
Continuous
 62
     7
370
    25
100
AcDbLine
 10
274.9945092778
 20
33.9465427616
 30
0.0
 11
274.9945092778
 21
35.2402677076
 31
0.0
  0
LWPOLYLINE
  5
1DC
330
1F
100
AcDbEntity
  8
0
  6
Continuous
 62
     7
370
    18
100
AcDbPolyline
 90
        8
 70
   128
 43
0.0
 10
250.7964059187
 20
35.3618233982
 10
250.8448010375
 20
34.5371215666
 10
250.9891589327
 20
33.782406777
 10
251.2270084161
 20
33.1105917308
 10
251.5542809997
 20
32.5331719671
 10
251.9653760917
 20
32.0600269944
 10
252.4532604368
 20
31.6992527906
 10
252.4535854285
 20
31.6990651158
  0
LWPOLYLINE
  5
1DD
330
1F
100
AcDbEntity
  8
0
  6
Continuous
 62
     7
370
    18
100
AcDbPolyline
 90
       19
 70
   128
 43
0.0
 10
260.4529354452
 20
45.5558468853
 10
259.8969352074
 20
45.7978903258
 10
259.2816876959
 20
45.9174329364
 10
258.618044901
 20
45.9122424057
 10
257.9173621056
 20
45.7824066424
 10
257.1916281125
 20
45.5301484951
 10
256.4532604368
 20
45.1597828059
 10
255.7148927612
 20
44.6776473228
 10
254.9891587681
 20
44.0919908371
 10
254.2884759727
 20
43.4128354648
 10
253.6248331778
 20
42.651800334
 10
253.0095856663
 20
41.8219080668
 10
252.4532604368
 20
40.9373575138
 10
251.9653760917
 20
40.0132840353
 10
251.5542809997
 20
39.0654987724
 10
251.2270084161
 20
38.1102181266
 10
250.9891589327
 20
37.1637879123
 10
250.8448010375
 20
36.2424010445
 10
250.7964059187
 20
35.3618233982
  0
LINE
  5
1DE
330
1F
100
AcDbEntity
  8
0
  6
Continuous
 62
     7
370
    18
100
AcDbLine
 10
274.1486088572
 20
21.4108157018
 30
0.0
 11
275.1739126068
 21
20.818920446
 31
0.0
  0
LWPOLYLINE
  5
1DF
330
1F
100
AcDbEntity
  8
0
  6
Continuous
 62
     7
370
    18
100
AcDbPolyline
 90
       37
 70
   128
 43
0.0
 10
244.2556687669
 20
33.2187519434
 10
244.3030510443
 20
34.4121521788
 10
244.4447816762
 20
35.6497711324
 10
244.679615355
 20
36.9207329708
 10
245.0054882023
 20
38.213868399
 10
245.4195355493
 20
39.5178123776
 10
245.9181202549
 20
40.8211073536
 10
246.4968597052
 20
42.1122985054
 10
247.1506679611
 20
43.3800390633
 10
247.8737998802
 20
44.613188785
 10
248.6599005081
 20
45.8009101496
 10
249.5020610544
 20
46.932766072
 10
250.3928804665
 20
47.9988086811
 10
251.3245309552
 20
48.9896703788
 10
252.288824672
 20
49.8966426372
 10
253.2772874661
 20
50.7117558398
 10
254.2812325593
 20
51.4278469085
 10
255.2918374514
 20
52.0386219516
 10
256.3002207847
 20
52.5387135642
 10
257.2975209169
 20
52.9237277082
 10
258.2749733408
 20
53.1902792807
 10
259.2239886603
 20
53.3360280026
 10
260.1362262448
 20
53.3596912803
 10
261.003669961
 20
53.2610620697
 10
261.8186958394
 20
53.0410068729
 10
262.5741425375
 20
52.7014592687
 10
263.2633699512
 20
52.2454035561
 10
263.8803221052
 20
51.6768471825
 10
264.4195772024
 20
51.0007872779
 10
264.8763950396
 20
50.2231642628
 10
265.2467624465
 20
49.3508127938
 10
265.5274235791
 20
48.3913984523
 10
265.7159128468
 20
47.3533529117
 10
265.8105733514
 20
46.2457985077
 10
265.8105733514
 20
45.0784684828
 10
265.7159128468
 20
43.8616213864
 10
265.5308308884
 20
42.6244403448
  0
LWPOLYLINE
  5
1E0
330
1F
100
AcDbEntity
  8
0
  6
Continuous
 62
     7
370
    18
100
AcDbPolyline
 90
       21
 70
   128
 43
0.0
 10
257.5314810364
 20
28.7676584803
 10
257.2975209169
 20
28.5715781567
 10
256.3002207847
 20
27.8051340776
 10
255.2918374514
 20
27.1409710753
 10
254.2812325593
 20
26.5849265465
 10
253.2772874661
 20
26.1418872834
 10
252.288824672
 20
25.8157456362
 10
251.3245309552
 20
25.6093680674
 10
250.3928804665
 20
25.524569007
 10
249.5020610544
 20
25.5620934155
 10
248.6599005081
 20
25.721611468
 10
247.8737998802
 20
26.0017203667
 10
247.1506679611
 20
26.3999597461
 10
246.4968597052
 20
26.9128293596
 10
245.9181202549
 20
27.5358221651
 10
245.4195355493
 20
28.2634634932
 10
245.0054882023
 20
29.0893585805
 10
244.679615355
 20
30.0062492278
 10
244.4447816762
 20
31.0060778719
 10
244.3030510443
 20
32.080058121
 10
244.2556687669
 20
33.2187519434
  0
LWPOLYLINE
  5
1E1
330
1F
100
AcDbEntity
  8
0
  6
Continuous
 62
     7
370
    18
100
AcDbPolyline
 90
       25
 70
   128
 43
0.0
 10
243.5485618699
 20
33.2187519434
 10
243.5960705877
 20
34.4327970234
 10
243.7381897609
 20
35.6913357043
 10
243.973707009
 20
36.9836307441
 10
244.3006144296
 20
38.2986575204
 10
244.7161211113
 20
39.625195475
 10
245.216683426
 20
40.9519284922
 10
245.7980307126
 20
42.2675363419
 10
246.4552021553
 20
43.5607942967
 10
247.1825915646
 20
44.820669707
 10
247.9739928173
 20
46.0364132516
 10
248.8226545149
 20
47.1976536106
 10
249.7213362899
 20
48.2944824418
 10
250.6623700501
 20
49.317541448
 10
251.6377278085
 20
50.2581041202
 10
252.6390880322
 20
51.1081436979
 10
253.6579074232
 20
51.8604095888
 10
254.6854938527
 20
52.5084839215
 10
255.7130802821
 20
53.0468356264
 10
256.7318996732
 20
53.4708735661
 10
257.7332598969
 20
53.7769798934
 10
258.7086176553
 20
53.9625413189
 10
259.6496514154
 20
54.0259767654
 10
260.5483331904
 20
53.9667438258
 10
260.8773532219
 20
53.9120968882
  0
ARC
  5
1E2
330
1F
100
AcDbEntity
  8
0
  6
Continuous
 62
     7
370
    18
100
AcDbCircle
 10
252.80277218
 20
32.7624791796
 30
0.0
 40
9.265451597177659
100
AcDbArc
 50
177.1773549321
 51
217.1933794597
  0
LWPOLYLINE
  5
1E3
330
1F
100
AcDbEntity
  8
0
  6
Continuous
 62
     7
370
    18
100
AcDbPolyline
 90
       27
 70
   128
 43
0.0
 10
247.9679796474
 20
35.3618233982
 10
248.0157912958
 20
36.3373704618
 10
248.1585808673
 20
37.3549278003
 10
248.3944168508
 20
38.4007343535
 10
248.720110574
 20
39.460647807
 10
249.1312563739
 20
40.5203336586
 10
249.6222951472
 20
41.5654626474
 10
250.186586131
 20
42.5819002926
 10
250.8164984409
 20
43.5559013732
 10
251.5035134743
 20
44.4742945205
 10
252.2383404854
 20
45.3246592055
 10
253.0110422021
 20
46.0954967358
 10
253.8111692518
 20
46.7763823834
 10
254.6279012543
 20
47.3581076727
 10
255.4501933481
 20
47.8328067942
 10
256.2669253506
 20
48.1940602031
 10
257.0670524003
 20
48.4369815833
 10
257.8397541171
 20
48.5582864653
 10
258.5745811281
 20
48.5563349883
 10
259.2615961615
 20
48.4311525147
 10
259.8915084714
 20
48.1844327065
 10
260.4557994552
 20
47.8195115633
 10
260.9468382285
 20
47.3413238744
 10
261.3579840285
 20
46.7563368591
 10
261.6836777516
 20
46.0724613742
 10
261.9195137352
 20
45.2989452518
 10
262.0389658064
 20
44.6402507449
  0
LWPOLYLINE
  5
1E4
330
1F
100
AcDbEntity
  8
0
  6
Continuous
 62
     7
370
    18
100
AcDbPolyline
 90
       14
 70
   128
 43
0.0
 10
254.039616119
 20
30.7834691656
 10
253.8111692518
 20
30.6936675289
 10
253.0110422021
 20
30.4507461487
 10
252.2383404854
 20
30.3294412667
 10
251.5035134743
 20
30.3313927437
 10
250.8164984409
 20
30.4565752174
 10
250.186586131
 20
30.7032950256
 10
249.6222951472
 20
31.0682161688
 10
249.1312563739
 20
31.5464038577
 10
248.720110574
 20
32.1313908729
 10
248.3944168508
 20
32.8152663579
 10
248.1585808673
 20
33.5887824803
 10
248.0157912958
 20
34.4414784887
 10
247.9679796474
 20
35.3618233982
  0
LINE
  5
1E5
330
1F
100
AcDbEntity
  8
0
  6
Continuous
 62
     7
370
    18
100
AcDbLine
 10
279.5226204849
 20
24.513166579
 30
0.0
 11
280.5479242344
 21
23.9212713233
 31
0.0
  0
LWPOLYLINE
  5
1E6
330
1F
100
AcDbEntity
  8
0
  6
Continuous
 62
     7
370
    18
100
AcDbPolyline
 90
       19
 70
   128
 43
0.0
 10
241.4497149977
 20
40.0979212113
 10
241.784243754
 20
41.3344290987
 10
242.2084748333
 20
42.578281865
 10
242.7180539394
 20
43.816713648
 10
243.3077515703
 20
45.0370138011
 10
243.9715157021
 20
46.2266592091
 10
244.7025330332
 20
47.3734393785
 10
245.4933024124
 20
48.4655851388
 10
246.3357069494
 20
49.4918874582
 10
247.2211012718
 20
50.4418139765
 10
248.1403987827
 20
51.3056141307
 10
249.0841640208
 20
52.0744234248
 10
250.0427112782
 20
52.7403507789
 10
251.0062027231
 20
53.2965625507
 10
251.9647499805
 20
53.737350303
 10
252.9085152186
 20
54.058189159
 10
253.8278127295
 20
54.2557873183
 10
254.7132070519
 20
54.3281153254
 10
255.068962344
 20
54.3211094496
  0
LWPOLYLINE
  5
1E7
330
1F
100
AcDbEntity
  8
0
  6
Continuous
 62
     7
370
    18
100
AcDbPolyline
 90
       21
 70
   128
 43
0.0
 10
235.8635876658
 20
41.7769983785
 10
236.2092530682
 20
43.1348849844
 10
236.6488032099
 20
44.5037301766
 10
237.1782492867
 20
45.8711098867
 10
237.7927858994
 20
47.2246153321
 10
238.4868358345
 20
48.5519606175
 10
239.2541001139
 20
49.841100982
 10
240.0876139707
 20
51.0803343155
 10
240.97981468
 20
52.2584148422
 10
241.9226028027
 20
53.3646500729
 10
242.9074225286
 20
54.3889996586
 10
243.9253362563
 20
55.3221678741
 10
244.9671049356
 20
56.1556849803
 10
246.0232738842
 20
56.881986423
 10
247.0842574929
 20
57.494479223
 10
248.1404264415
 20
57.9876044921
 10
249.1821951209
 20
58.3568879008
 10
250.2001088486
 20
58.5989778593
 10
251.1849285745
 20
58.7116769264
 10
252.1277166972
 20
58.6939616923
 10
252.7364258495
 20
58.6082312061
  0
LWPOLYLINE
  5
1E8
330
1F
100
AcDbEntity
  8
0
  6
Continuous
 62
     7
370
    18
100
AcDbPolyline
 90
       18
 70
   128
 43
0.0
 10
241.8429878997
 20
40.0421408191
 10
242.1753408249
 20
41.2563019481
 10
242.5952380228
 20
42.477108913
 10
243.0984022469
 20
43.6921251245
 10
243.6797080452
 20
44.88897415
 10
244.3332337855
 20
46.0554640434
 10
245.0523222413
 20
47.1797120562
 10
245.8296484222
 20
48.2502659242
 10
246.6572943182
 20
49.2562207822
 10
247.5268282548
 20
50.1873296136
 10
248.4293933021
 20
51.0341059996
 10
249.3557951911
 20
51.7879258229
 10
250.2965968966
 20
52.4411092463
 10
251.2422149497
 20
52.9870029287
 10
252.1830166552
 20
53.4200460335
 10
253.1094185441
 20
53.7358270641
 10
254.0119835915
 20
53.9311301004
 10
254.2038969613
 20
53.9573969221
  0
LINE
  5
1E9
330
1F
100
AcDbEntity
  8
0
  6
Continuous
 62
     7
370
    18
100
AcDbLine
 10
241.8523105851
 20
33.4636051708
 30
0.0
 11
242.2580918814
 21
33.697857727
 31
0.0
  0
LWPOLYLINE
  5
1EA
330
1F
100
AcDbEntity
  8
0
  6
Continuous
 62
     7
370
    18
100
AcDbPolyline
 90
        3
 70
   128
 43
0.0
 10
242.8047569215
 20
33.4434699261
 10
242.7810624901
 20
33.4519134036
 10
242.2580918814
 20
33.697857727
  0
ARC
  5
1EB
330
1F
100
AcDbEntity
  8
0
  6
Continuous
 62
     7
370
    18
100
AcDbCircle
 10
241.5705898139
 20
34.7541810741
 30
0.0
 40
1.260348406847586
100
AcDbArc
 50
303.0578627977
 51
346.2437497267
  0
LINE
  5
1EC
330
1F
100
AcDbEntity
  8
0
  6
Continuous
 62
     7
370
    18
100
AcDbLine
 10
238.364499503
 20
37.2519395838
 30
0.0
 11
242.7520891659
 21
34.7190379857
 31
0.0
  0
LINE
  5
1ED
330
1F
100
AcDbEntity
  8
0
  6
Continuous
 62
     7
370
    18
100
AcDbLine
 10
238.2452607179
 20
37.1830822163
 30
0.0
 11
238.364499503
 21
37.2519395838
 31
0.0
  0
LINE
  5
1EE
330
1F
100
AcDbEntity
  8
0
  6
Continuous
 62
     7
370
    18
100
AcDbLine
 10
237.9889348217
 20
40.2143491621
 30
0.0
 11
237.9941228353
 21
40.547014688
 31
0.0
  0
LWPOLYLINE
  5
1EF
330
1F
100
AcDbEntity
  8
0
  6
Continuous
 62
     7
370
    18
100
AcDbPolyline
 90
        3
 70
   128
 43
0.0
 10
238.1744198092
 20
38.361534456
 10
238.0366259564
 20
39.243687001
 10
237.9889348217
 20
40.2143491621
  0
LWPOLYLINE
  5
1F0
330
1F
100
AcDbEntity
  8
0
  6
Continuous
 62
     7
370
    18
100
AcDbPolyline
 90
       17
 70
   128
 43
0.0
 10
218.1434195261
 20
55.5132282881
 10
218.1916921556
 20
56.3027174632
 10
218.3354813977
 20
57.1311145542
 10
218.5717227154
 20
57.980763754
 10
218.8953808774
 20
58.8335562046
 10
219.2995576301
 20
59.6713160641
 10
219.775638882
 20
60.476188092
 10
220.31347745
 20
61.2310175778
 10
220.9016103792
 20
61.9197166739
 10
221.5275028511
 20
62.5276072937
 10
222.1778147707
 20
63.0417331855
 10
222.8386860399
 20
63.4511364052
 10
223.496031256
 20
63.7470913213
 10
224.1358403374
 20
63.9232903293
 10
224.7444767206
 20
63.9759779746
 10
225.3089683958
 20
63.90403113
 10
225.5286287153
 20
63.8374039504
  0
ARC
  5
1F1
330
1F
100
AcDbEntity
  8
0
  6
Continuous
 62
     7
370
    18
100
AcDbCircle
 10
221.612348019
 20
55.2637773337
 30
0.0
 40
3.477885948026238
100
AcDbArc
 50
175.8869353198
 51
225.0942325572
  0
LWPOLYLINE
  5
1F2
330
1F
100
AcDbEntity
  8
0
  6
Continuous
 62
     7
370
    18
100
AcDbPolyline
 90
        3
 70
   128
 43
0.0
 10
242.3118557844
 20
32.3710795013
 10
242.1753408249
 20
32.638552433
 10
241.8429878997
 20
33.4689870425
  0
ARC
  5
1F3
330
1F
100
AcDbEntity
  8
0
  6
Continuous
 62
     7
370
    18
100
AcDbCircle
 10
247.4542038614
 20
35.3836361896
 30
0.0
 40
6.28564074396913
100
AcDbArc
 50
197.2014712732
 51
213.8168591845
  0
LINE
  5
1F4
330
1F
100
AcDbEntity
  8
0
  6
Continuous
 62
     7
370
    18
100
AcDbLine
 10
242.2580918814
 20
33.697857727
 30
0.0
 11
238.0331289616
 21
36.1368769047
 31
0.0
  0
ARC
  5
1F5
330
1F
100
AcDbEntity
  8
0
  6
Continuous
 62
     7
370
    18
100
AcDbCircle
 10
242.7010972319
 20
36.4365141517
 30
0.0
 40
7.089010108016915
100
AcDbArc
 50
195.3075858356
 51
220.5642064426
  0
OLE2FRAME
  5
1F6
330
1F
100
AcDbEntity
  8
0
100
AcDbOle2Frame
 70
     2
  3
Paintbrush-Bild
 10
13.8511154363
 20
38.264191557
 30
0.0
 11
51.6290888628
 21
31.9806341108
 31
0.0
 71
     2
 72
     0
 73
     1
 90
    12928
310
80552BED0767C5B32B40DDAF6807D121434000000000000000006FFBDDFB85D0
310
4940DDAF6807D121434000000000000000006FFBDDFB85D04940416F4BD60AFB
310
3F4000000000000000002BED0767C5B32B40416F4BD60AFB3F40000000000000
310
0000000000000100000000010000010000000100000000000100000000320000
310
D0CF11E0A1B11AE1000000000000000000000000000000003E000300FEFF0900
310
0600000000000000000000000100000001000000000000000010000002000000
310
01000000FEFFFFFF0000000000000000FFFFFFFFFFFFFFFFFFFFFFFFFFFFFFFF
310
FFFFFFFFFFFFFFFFFFFFFFFFFFFFFFFFFFFFFFFFFFFFFFFFFFFFFFFFFFFFFFFF
310
FFFFFFFFFFFFFFFFFFFFFFFFFFFFFFFFFFFFFFFFFFFFFFFFFFFFFFFFFFFFFFFF
310
FFFFFFFFFFFFFFFFFFFFFFFFFFFFFFFFFFFFFFFFFFFFFFFFFFFFFFFFFFFFFFFF
310
FFFFFFFFFFFFFFFFFFFFFFFFFFFFFFFFFFFFFFFFFFFFFFFFFFFFFFFFFFFFFFFF
310
FFFFFFFFFFFFFFFFFFFFFFFFFFFFFFFFFFFFFFFFFFFFFFFFFFFFFFFFFFFFFFFF
310
FFFFFFFFFFFFFFFFFFFFFFFFFFFFFFFFFFFFFFFFFFFFFFFFFFFFFFFFFFFFFFFF
310
FFFFFFFFFFFFFFFFFFFFFFFFFFFFFFFFFFFFFFFFFFFFFFFFFFFFFFFFFFFFFFFF
310
FFFFFFFFFFFFFFFFFFFFFFFFFFFFFFFFFFFFFFFFFFFFFFFFFFFFFFFFFFFFFFFF
310
FFFFFFFFFFFFFFFFFFFFFFFFFFFFFFFFFFFFFFFFFFFFFFFFFFFFFFFFFFFFFFFF
310
FFFFFFFFFFFFFFFFFFFFFFFFFFFFFFFFFFFFFFFFFFFFFFFFFFFFFFFFFFFFFFFF
310
FFFFFFFFFFFFFFFFFFFFFFFFFFFFFFFFFFFFFFFFFFFFFFFFFFFFFFFFFFFFFFFF
310
FFFFFFFFFFFFFFFFFFFFFFFFFFFFFFFFFFFFFFFFFFFFFFFFFFFFFFFFFFFFFFFF
310
FFFFFFFFFFFFFFFFFFFFFFFFFFFFFFFFFFFFFFFFFFFFFFFFFFFFFFFFFFFFFFFF
310
FDFFFFFFFEFFFFFFFEFFFFFFFEFFFFFF05000000060000000700000008000000
310
090000000A0000000B0000000C0000000D0000000E0000000F00000010000000
310
11000000120000001300000014000000150000001600000017000000FEFFFFFF
310
FFFFFFFFFFFFFFFFFFFFFFFFFFFFFFFFFFFFFFFFFFFFFFFFFFFFFFFFFFFFFFFF
310
FFFFFFFFFFFFFFFFFFFFFFFFFFFFFFFFFFFFFFFFFFFFFFFFFFFFFFFFFFFFFFFF
310
FFFFFFFFFFFFFFFFFFFFFFFFFFFFFFFFFFFFFFFFFFFFFFFFFFFFFFFFFFFFFFFF
310
FFFFFFFFFFFFFFFFFFFFFFFFFFFFFFFFFFFFFFFFFFFFFFFFFFFFFFFFFFFFFFFF
310
FFFFFFFFFFFFFFFFFFFFFFFFFFFFFFFFFFFFFFFFFFFFFFFFFFFFFFFFFFFFFFFF
310
FFFFFFFFFFFFFFFFFFFFFFFFFFFFFFFFFFFFFFFFFFFFFFFFFFFFFFFFFFFFFFFF
310
FFFFFFFFFFFFFFFFFFFFFFFFFFFFFFFFFFFFFFFFFFFFFFFFFFFFFFFFFFFFFFFF
310
FFFFFFFFFFFFFFFFFFFFFFFFFFFFFFFFFFFFFFFFFFFFFFFFFFFFFFFFFFFFFFFF
310
FFFFFFFFFFFFFFFFFFFFFFFFFFFFFFFFFFFFFFFFFFFFFFFFFFFFFFFFFFFFFFFF
310
FFFFFFFFFFFFFFFFFFFFFFFFFFFFFFFFFFFFFFFFFFFFFFFFFFFFFFFFFFFFFFFF
310
FFFFFFFFFFFFFFFFFFFFFFFFFFFFFFFFFFFFFFFFFFFFFFFFFFFFFFFFFFFFFFFF
310
FFFFFFFFFFFFFFFFFFFFFFFFFFFFFFFFFFFFFFFFFFFFFFFFFFFFFFFFFFFFFFFF
310
FFFFFFFFFFFFFFFFFFFFFFFFFFFFFFFFFFFFFFFFFFFFFFFFFFFFFFFFFFFFFFFF
310
52006F006F007400200045006E00740072007900000000000000000000000000
310
0000000000000000000000000000000000000000000000000000000000000000
310
16000500FFFFFFFFFFFFFFFF020000000A00030000000000C000000000000046
310
00000000000000000000000020CB956CE2B9D30103000000C000000000000000
310
01004F006C006500000000000000000000000000000000000000000000000000
310
0000000000000000000000000000000000000000000000000000000000000000
310
0A000200FFFFFFFFFFFFFFFFFFFFFFFF00000000000000000000000000000000
310
0000000000000000000000000000000000000000000000001400000000000000
310
010043006F006D0070004F0062006A0000000000000000000000000000000000
310
0000000000000000000000000000000000000000000000000000000000000000
310
120002010100000003000000FFFFFFFF00000000000000000000000000000000
310
0000000000000000000000000000000000000000010000004D00000000000000
310
01004F006C006500310030004E00610074006900760065000000000000000000
310
0000000000000000000000000000000000000000000000000000000000000000
310
1A000200FFFFFFFFFFFFFFFFFFFFFFFF00000000000000000000000000000000
310
0000000000000000000000000000000000000000040000002426000000000000
310
FEFFFFFF02000000FEFFFFFFFFFFFFFFFFFFFFFFFFFFFFFFFFFFFFFFFFFFFFFF
310
FFFFFFFFFFFFFFFFFFFFFFFFFFFFFFFFFFFFFFFFFFFFFFFFFFFFFFFFFFFFFFFF
310
FFFFFFFFFFFFFFFFFFFFFFFFFFFFFFFFFFFFFFFFFFFFFFFFFFFFFFFFFFFFFFFF
310
FFFFFFFFFFFFFFFFFFFFFFFFFFFFFFFFFFFFFFFFFFFFFFFFFFFFFFFFFFFFFFFF
310
FFFFFFFFFFFFFFFFFFFFFFFFFFFFFFFFFFFFFFFFFFFFFFFFFFFFFFFFFFFFFFFF
310
FFFFFFFFFFFFFFFFFFFFFFFFFFFFFFFFFFFFFFFFFFFFFFFFFFFFFFFFFFFFFFFF
310
FFFFFFFFFFFFFFFFFFFFFFFFFFFFFFFFFFFFFFFFFFFFFFFFFFFFFFFFFFFFFFFF
310
FFFFFFFFFFFFFFFFFFFFFFFFFFFFFFFFFFFFFFFFFFFFFFFFFFFFFFFFFFFFFFFF
310
FFFFFFFFFFFFFFFFFFFFFFFFFFFFFFFFFFFFFFFFFFFFFFFFFFFFFFFFFFFFFFFF
310
FFFFFFFFFFFFFFFFFFFFFFFFFFFFFFFFFFFFFFFFFFFFFFFFFFFFFFFFFFFFFFFF
310
FFFFFFFFFFFFFFFFFFFFFFFFFFFFFFFFFFFFFFFFFFFFFFFFFFFFFFFFFFFFFFFF
310
FFFFFFFFFFFFFFFFFFFFFFFFFFFFFFFFFFFFFFFFFFFFFFFFFFFFFFFFFFFFFFFF
310
FFFFFFFFFFFFFFFFFFFFFFFFFFFFFFFFFFFFFFFFFFFFFFFFFFFFFFFFFFFFFFFF
310
FFFFFFFFFFFFFFFFFFFFFFFFFFFFFFFFFFFFFFFFFFFFFFFFFFFFFFFFFFFFFFFF
310
FFFFFFFFFFFFFFFFFFFFFFFFFFFFFFFFFFFFFFFFFFFFFFFFFFFFFFFFFFFFFFFF
310
FFFFFFFFFFFFFFFFFFFFFFFFFFFFFFFFFFFFFFFFFFFFFFFFFFFFFFFFFFFFFFFF
310
0100000200000000000000000000000000000000000000000000000000000000
310
0000000000000000000000000000000000000000000000000000000000000000
310
0100FEFF030A0000FFFFFFFF0A00030000000000C00000000000004607000000
310
5042727573680007000000504272757368000700000050427275736800F439B2
310
7100000000000000000000000000000000000000000000000000000000000000
310
0000000000000000000000000000000000000000000000000000000000000000
310
0000000000000000000000000000000000000000000000000000000000000000
310
0000000000000000000000000000000000000000000000000000000000000000
310
0000000000000000000000000000000000000000000000000000000000000000
310
0000000000000000000000000000000000000000000000000000000000000000
310
0000000000000000000000000000000000000000000000000000000000000000
310
0000000000000000000000000000000000000000000000000000000000000000
310
0000000000000000000000000000000000000000000000000000000000000000
310
0000000000000000000000000000000000000000000000000000000000000000
310
0000000000000000000000000000000000000000000000000000000000000000
310
0000000000000000000000000000000000000000000000000000000000000000
310
20260000424D0E260000000000003E00000028000000B40200006E0000000100
310
01000000000000000000130B0000130B00000200000002000000000000FFFFFF
310
FFFFFFFFFFFFFFFFFFFFFFFFFFFFFFFFFFFFFFFFFFFFFFFFFFFFFFFFFFFFFFFF
310
FFFFFFFFFFFFFFFFFFFFFFFFFFFFFFFFFFFFFFFFFFFFFFFFFFFFFFFFFFFFFFFF
310
FFFFFFFFFFFFFFFFFFFFFFFFFFFFFFFFFFFFFFFFFFFFFFFFF000FFFFFFFFFFFF
310
FFFFFFFFFFFFFFFFFFFFFFFFFFFFFFFFFFFFFFFFFFFFFFFFFFFFFFFFFFFFFFFF
310
FFFFFFFFFFFFFFFFFFFFFFFFFFFFFFFFFFFFFFFFFFFFFFFFFFFFFFFFFFFFFFFF
310
FFFFFFFFFFFFFFFFFFFFFFFFFFFFFFFFF000FFFFFFFFFFFFFFFFFFFFFFFFFFFF
310
FFFFFFFFFFFFFFFFFFFFFFFFFFFFFFFFFFFFFFFFFFFFFFFFFFFFFFFFFFFFFFFF
310
FFFFFFFFFFFFFFFFFFFFFFFFFFFFFFFFFFFFFFFFFFFFFFFFFFFFFFFFFFFFFFFF
310
FFFFFFFFFFFFFFFFF000FFFFFFFFFFFFFFFFFFFFFFFFFFFFFFFFFFFFFFFFFFFF
310
FFFFFFFFFFFFFFFFFFFFFFFFFFFFFFFFFFFFFFFFFFFFFFFFFFFFFFFFFFFFFFFF
310
FFFFFFFFFFFFFFFFFFFFFFFFFFFFFFFFFFFFFFFFFFFFFFFFFFFFFFFFFFFFFFFF
310
F000FFFFFFFFFFFFFFFFFFFFFFFFFFFFFFFFFFFFFFFFFFFFFFFFFFFFFFFFFFFF
310
FFFFFFFFFFFFFFFFFFFFFFFFFFFFFFFFFFFFFFFFFFFFFFFFFFFFFFFFFFFFFFFF
310
FFFFFFFFFFFFFFFFFFFFFFFFFFFFFFFFFFFFFFFFFFFFFFFFF000FFFFFFFFFFFF
310
FFFFFFFFFFFFFFFFFFFFFFFFFFFFFFFFFFFFFFFFFFFFFFFFFFFFFFFFFFFFFFFF
310
FFFFFFFFFFFFFFFFFFFFFFFFFFFFFFFFFFFFFFFFFFFFFFFFFFFFFFFFFFFFFFFF
310
FFFFFFFFFFFFFFFFFFFFFFFFFFFFFFFFF000FFFFFFFFFFFFFFFFFFFFFFFFFFFF
310
FFFFFFFFFFFFFFFFFFFFFFFFFFFFFFFFFFFFFFFFFFFFFFFFFFFFFFFFFFFFFFFF
310
FFFFFFFFFFFFFFFFFFFFFFFFFFFFFFFFFFFFFFFFFFFFFFFFFFFFFFFFFFFFFFFF
310
FFFFFFFFFFFFFFFFF000FFFFFFFFFFFFFFFFFFFFFFFFFFFFFFFFFFFFFFFFFFFF
310
FFFFFFFFFFFFFFFFFFFFFFFFFFFFFFFFFFFFFFFFFFFFFFFFFFFFFFFFFFFFFFFF
310
FFFFFFFFFFFFFFFFFFFFFFFFFFFFFFFFFFFFFFFFFFFFFFFFFFFFFFFFFFFFFFFF
310
F000FFFFFFFFFFFFFFFFFFFFFFFFFFFFFFFFFFFFFFFFFFFFFFFFFFFFFFFFFFFF
310
FFFFFFFFFFFFFFFFFFFFFFFFFFFFFFFFFFFFFFFFFFFFFFFFFFFFFFFFFFFFFFFF
310
FFFFFFFFFFFFFFFFFFFFFFFFFFFFFFFFFFFFFFFFFFFFFFFFF000FFFFFFFFFFFF
310
FFFFFFFFFFFFFFFFFFFFFFFFFFFFFFFFFFFFFFFFFFFFFFFFFFFFFFFFFFFFFFFF
310
FFFFFFFFFFFFFFFFFFFFFFFFFFFFFFFFFFFFFFFFFFFFFFFFFFFFFFFFFFFFFFFF
310
FFFFFFFFFFFFFFFFFFFFFFFFFFFFFFFFF000FFFFFFFFFFFFFFFFFFFFFFFFFFFF
310
FFFFFFFFFFFFFFFFFFFFFFFFFFFFFFFFFFFFFFFFFFFFFFFFFFFFFFFFFFFFFFFF
310
FFFFFFFFFFFFFFFFFFFFFFFFFFFFFFFFFFFFFFFFFFFFFFFFFFFFFFFFFFFFFFFF
310
FFFFFFFFFFFFFFFFF000FFFFFFFFFFFFFFFFFFFFFFFFFFFFFFFFFFFFFFFFFFFF
310
FFFFFFFFFFFFFFFFFFFFFFFFFFFFFFFFFFFFFFFFFFFFFFFFFFFFFFFFFFFFFFFF
310
FFFFFFFFFFFFFFFFFFFFFFFFFFFFFFFFFFFFFFFFFFFFFFFFFFFFFFFFFFFFFFFF
310
F000FFFFFFFFFFFFFFFFFFFFFFFFFFFFFFFFFFFFFFFFFFFFFFFFFFFFFFFFFFFF
310
FFFFFFFFFFFFFFFFFFFFFFFFFFFFFFFFFFFFFFFFFFFFFFFFFFFFFFFFFFFFFFFF
310
FFFFFFFFFFFFFFFFFFFFFFFFFFFFFFFFFFFFFFFFFFFFFFFFF000FFFFFFFFFFFF
310
FFFFFFFFFFFFFFFFFFFFFFFFFFFFFFFFFFFFFFFFFFFFFFFFFFFFFFFFFFFFFFFF
310
FFFFFFFFFFFFFFFFFFFFFFFFFFFFFFFFFFFFFFFFFFFFFFFFFFFFFFFFFFFFFFFF
310
FFFFFFFFFFFFFFFFFFFFFFFFFFFFFFFFF000FFFFFFFFFFFFFFFFFFFFFFFFFFFF
310
FFFFFFFFFFFFFFFFFFFFFFFFFFFFFFFFFFFFFFFFFFFFFFFFFFFFFFFFFFFFFFFF
310
FFFFFFFFFFFFFFFFFFFFFFFFFFFFFFFFFFFFFFFFFFFFFFFFFFFFFFFFFFFFFFFF
310
FFFFFFFFFFFFFFFFF000FFFFFFFFFFFFFFFFFFFFFFFFFFFFFFFFFFFFFFFFFFFF
310
FFFFFFFFFFFFFFFFFFFFFFFFFFFFFFFFFFFFFFFFFFFFFFFFFFFFFFFFFFFFFFFF
310
FFFFFFFFFFFFFFFFFFFFFFFFFFFFFFFFFFFFFFFFFFFFFFFFFFFFFFFFFFFFFFFF
310
F000FFFFFFFFFFFFFFFFFFFFFFFFFFFFFFFFFFFFFFFFFFFFFFFFFFFFFFFFFFFF
310
FFFFFFFFFFFFFFFFFFFFFFFFFFFFFFFFFFFFFFFFFFFFFFFFFFFFFFFFFFFFFFFF
310
FFFFFFFFFFFFFFFFFFFFFFFFFFFFFFFFFFFFFFFFFFFFFFFFF000FFFFFFFFFFFF
310
FFFFFFFFFFFFFFFFFFFFFFFFFFFFFFFFFFFFFFFFFFFFFFFFFFFFFFFFFFFFFFFF
310
FFFFFFFFFFFFFFFFFFFFFFFFFFFFFFFFFFFFFFFFFFFFFFFFFFFFFFFFFFFFFFFF
310
FFFFFFFFFFFFFFFFFFFFFFFFFFFFFFFFF000FFFFFFFFFFFFFFFFFFFFFFFFFFFF
310
FFFFFFFFFFFFFFFFFFFFFFFFFFFFFFFFFFFFFFFFFFFFFFFFFFFFFFFFFFFFFFFF
310
FFFFFFFFFFFFFFFFFFFFFFFFFFFFFFFFFFFFFFFFFFFFFFFFFFFFFFFFFFFFFFFF
310
FFFFFFFFFFFFFFFFF000FFFFF80003FFFFFFFFFFFFFFFFFFFFFFFFFFFFFFFFFF
310
FFFFF00007FFFFFFFFFF00007FFFFFF800000000000000007FFFFFFFFFFFFFFF
310
FFFFFFFC001FFFFFFFFFFFFFFC001FFFFFFFFFFFFFFFFFFFFFFFFFFE0007FFFF
310
F000FFFF8000007FFFFFFFF8000FFFFFC0007FFFFF80007FFFFF0000007FFFFF
310
FFF8000007FFFFF800000000000000007FFFFFF0001FFFFFFFFFFFC00001FFFF
310
FFFFFFFFC00001FFFFFFFF000000000003FFFFE000007FFFF000FFFE0000000F
310
FFFFFFF0000FFFFF80007FFFFF80007FFFFC0000001FFFFFFFC0000001FFFFF8
310
00000000000000007FFFFFF0001FFFFFFFFFFE0000003FFFFFFFFFFE0000003F
310
FFFFFF000000000003FFFF0000000FFFF000FFF800000003FFFFFFF00007FFFF
310
80007FFFFF80007FFFF000000007FFFFFF000000003FFFF80000000000000000
310
7FFFFFF0001FFFFFFFFFF80000000FFFFFFFFFF80000000FFFFFFF0000000000
310
03FFFC00000003FFF000FFE000000000FFFFFFF00007FFFF80003FFFFF80007F
310
FFC000000001FFFFFC000000001FFFF800000000000000007FFFFFF0001FFFFF
310
FFFFE000000003FFFFFFFFE000000003FFFFFF000000000003FFF000000000FF
310
F000FF80000000007FFFFFF00007FFFF80003FFFFF80007FFF8000000000FFFF
310
F80000000007FFF800000000000000007FFFFFF0001FFFFFFFFFC000000001FF
310
FFFFFFC000000001FFFFFF000000000003FFC0000000007FF000FF0000000000
310
3FFFFFE00007FFFF00003FFFFF80007FFE00000000003FFFF00000000003FFF8
310
00000000000000007FFFFFF0001FFFFFFFFF8000000000FFFFFFFF8000000000
310
FFFFFF000000000003FF80000000003FF000FE00000000001FFFFFE00003FFFF
310
00003FFFFF80007FFC00000000001FFFE00000000001FFF8000001FFFE000000
310
7FFFFFF0001FFFFFFFFE00000000003FFFFFFE00000000003FFFFF0000000000
310
03FF00000000001FF000FC00000000000FFFFFE00003FFFF00001FFFFF80007F
310
F800000000001FFFC00000000000FFF8000001FFFE0000007FFFFFF0001FFFFF
310
FFFC00000000001FFFFFFC00000000001FFFFF000000000003FE00000000000F
310
F000F8000000000007FFFFE00003FFFF00001FFFFF80007FF800000000000FFF
310
800000000000FFF8000001FFFE0000007FFFFFF0001FFFFFFFF800000000000F
310
FFFFF800000000000FFFFF000000000003FC000000000007F000F80000000000
310
03FFFFC00003FFFE00001FFFFF80007FF0000000000007FF0000000000007FF8
310
000001FFFE0000007FFFFFF0001FFFFFFFF0000000000007FFFFF00000000000
310
07FFFF000000000003F8000000000003F000F0000000000003FFFFC00001FFFE
310
00001FFFFF80007FE0000000000007FE0000000000003FF8000001FFFE000000
310
7FFFFFF0001FFFFFFFF0000000000007FFFFF0000000000007FFFF0000000000
310
03F800001F800003F000E00001FFF00001FFFFC00001FFFE00000FFFFF80007F
310
E00001FFE00003FE00001FFF00003FF8000001FFFE0000007FFFFFF0001FFFFF
310
FFE000003E000003FFFFE000003E000003FFFF000000000003F00001FFF80001
310
F000E00007FFFC0001FFFFC00001FFFE00000FFFFF80007FC0000FFFFC0003FC
310
0000FFFFC0001FF8000001FFFE0000007FFFFFF0001FFFFFFFC00003FFE00001
310
FFFFC00003FFE00001FFFF0001FFFFFFFFF00007FFFE0001F000E0000FFFFF00
310
00FFFF800001FFFC00000FFFFF80007FC0001FFFFE0001FC0001FFFFE0001FF8
310
000001FFFE0000007FFFFFF0001FFFFFFF80000FFFF80000FFFF80000FFFF800
310
00FFFF0003FFFFFFFFE0000FFFFF8000F000C0003FFFFF8000FFFF800000FFFC
310
000007FFFF80007F80003FFFFF0001FC0003FFFFF0001FF8000001FFFE000000
310
7FFFFFF0001FFFFFFF80003FFFFE0000FFFF80003FFFFE0000FFFF0003FFFFFF
310
FFE0003FFFFF8000F000C0003FFFFF8000FFFF800000FFFC000007FFFF80007F
310
80007FFFFF8001F80007FFFFF8000FF8000001FFFE0000007FFFFFF0001FFFFF
310
FF00007FFFFF00007FFF00007FFFFF00007FFF0003FFFFFFFFE0003FFFFFC000
310
F000C0007FFFFFC000FFFF000000FFFC000007FFFF80007F8000FFFFFF8000F8
310
000FFFFFF8000FF8000001FFFE0000007FFFFFF0001FFFFFFF0000FFFFFF8000
310
7FFF0000FFFFFF80007FFF0003FFFFFFFFC0007FFFFFC00070008000FFFFFFC0
310
00FFFF000000FFF8000007FFFF80007F8000FFFFFF8000F8000FFFFFF8000FF8
310
000001FFFE0000007FFFFFF0001FFFFFFE0001FFFFFFC0003FFE0001FFFFFFC0
310
003FFF0003FFFFFFFFC0007FFFFFE00070008000FFFFFFC0007FFF0000007FF8
310
000003FFFF80007F0001FFFFFF8000F8000FFFFFF8000FF8000001FFFE000000
310
7FFFFFF0001FFFFFFE0001FFFFFFC0003FFE0001FFFFFFC0003FFF0003FFFFFF
310
FFC000FFFFFFE00070008000FFFFFFC0007FFF0000007FF8000003FFFF80007F
310
0001FFFFFF8000F8001FFFFFF8000FF8000001FFFE0000007FFFFFF0001FFFFF
310
FE0003FFFFFFE0003FFE0003FFFFFFE0003FFF0003FFFFFFFFC000FFFFFFE000
310
70008000FFFFFFC0007FFE0000007FF8000003FFFF80007F0001FFFFFF8000F0
310
001FFFFFF8000FF8000001FFFE0000007FFFFFF0001FFFFFFC0003FFFFFFE000
310
1FFC0003FFFFFFE0001FFF0003FFFFFFFFC000FFFFFFC00070008000FFFFFF80
310
007FFE0000007FF0000003FFFF80007F0001FFFFFF0000F0001FFFFFF8000FF8
310
000001FFFE0000007FFFFFF0001FFFFFFC0007FFFFFFF0001FFC0007FFFFFFF0
310
001FFF0003FFFFFFFFC000FFFFFFC00070008001FFFFFF0000FFFE0000003FF0
310
000001FFFF80007F0001FFFFFF0000F8001FFFFFF0000FF8000001FFFE000000
310
7FFFFFF0001FFFFFFC0007FFFFFFF0001FFC0007FFFFFFF0001FFF0003FFFFFF
310
FFC001FFFFFF80007000FFFFFFFFFE0000FFFE0008003FF0008001FFFF80007F
310
FFFFFFFFFC0000FFFFFFFFFFE0000FF8000001FFFE0000007FFFFFF0001FFFFF
310
F8000FFFFFFFF8000FF8000FFFFFFFF8000FFF0003FFFFFFFFFFFFFFFFFF0000
310
7000FFFFFFFFFC0000FFFC0008003FF0008001FFFF80007FFFFFFFFFF80001FF
310
FFFFFFFF80000FF8000001FFFE0000007FFFFFF0001FFFFFF8000FFFFFFFF800
310
0FF8000FFFFFFFF8000FFF0003FFFFFFFFFFFFFFFFFE0000F000FFFFFFFFE000
310
00FFFC000C003FE000C001FFFF80007FFFFFFFFFC00001FFFFFFFFFE00001FF8
310
000001FFFE0000007FFFFFF0001FFFFFF8000FFFFFFFF8000FF8000FFFFFFFF8
310
000FFF0003FFFFFFFFFFFFFFFFF00000F000FFFFFFFE000001FFFC000C001FE0
310
00C000FFFF80007FFFFFFFFE000001FFFFFFFFE000001FF80FFFFFFFFFFFFFC0
310
7FFFFFF0001FFFFFF8000FFFFFFFF8000FF8000FFFFFFFF8000FFF0003FFFFFF
310
FFFFFFFFFF800000F000FFFFFFC0000001FFFC001C001FE001C000FFFF80007F
310
FFFFFF80000003FFFFFFF80000001FF80FFFFFFFFFFFFFC07FFFFFF0001FFFFF
310
F8001FFFFFFFFC000FF8001FFFFFFFFC000FFF0003FFFFFFFFFFFFFFF0000001
310
F000FFFFF800000001FFF8001C001FE001C000FFFF80007FFFFFF800000003FF
310
FFFF800000003FF80FFFFFFFFFFFFFC07FFFFFF0001FFFFFF8001FFFFFFFFC00
310
0FF8001FFFFFFFFC000FFF0003FFFFFFFFFFFFFE00000001F000FFFFC0000000
310
03FFF8001E001FC001E000FFFF80007FFFFF8000000007FFFFFC000000003FF8
310
0FFFFFFFFFFFFFC07FFFFFF0001FFFFFF8001FFFFFFFFC000FF8001FFFFFFFFC
310
000FFF0003FFFFFFFFFFFFE000000003F000FFFE0000000007FFF8001E000FC0
310
01E0007FFF80007FFFFE0000000007FFFFE0000000007FF80FFFFFFFFFFFFFC0
310
7FFFFFF0001FFFFFF0001FFFFFFFFC0007F0001FFFFFFFFC0007FF0003FFFFFF
310
FFFFFF0000000003F000FFF80000000007FFF8001E000FC003E0007FFF80007F
310
FFF0000000000FFFFF8000000000FFF80FFFFFFFFFFFFFC07FFFFFF0001FFFFF
310
F0001FFFFFFFFC0007F0001FFFFFFFFC0007FF0003FFFFFFFFFFFC0000000007
310
F000FFE0000000000FFFF0003E000FC003E0007FFF80007FFFC0000000001FFF
310
FE0000000001FFF80FFFFFFFFFFFFFC07FFFFFF0001FFFFFF0001FFFFFFFFC00
310
07F0001FFFFFFFFC0007FF0003FFFFFFFFFFF0000000000FF000FFC000000000
310
1FFFF0003F000F8003F0003FFF80007FFF80000000003FFFF80000000003FFF8
310
0FFFFFFFFFFFFFC07FFFFFF0001FFFFFF0001FFFFFFFFC0007F0001FFFFFFFFC
310
0007FF0003FFFFFFFFFFE0000000001FF000FF00000000007FFFF0003F000780
310
03F0003FFF80007FFF00000000007FFFF00000000007FFF80FFFFFFFFFFFFFC0
310
7FFFFFF0001FFFFFF0001FFFFFFFFC0007F0001FFFFFFFFC0007FF0003FFFFFF
310
FFFF80000000007FF000FE0000000000FFFFE0003F00078007F0003FFF80007F
310
FE0000000001FFFFE0000000001FFFF80FFFFFFFFFFFFFC07FFFFFF0001FFFFF
310
F0001FFFFFFFFC0007F0001FFFFFFFFC0007FF0003FFFFFFFFFF0000000000FF
310
F000FC0000000003FFFFE0007F00078007F0003FFF80007FFC0000000007FFFF
310
C0000000007FFFF80FFFFFFFFFFFFFC07FFFFFF0001FFFFFF8001FFFFFFFFC00
310
0FF8001FFFFFFFFC000FFF0003FFFFFFFFFE0000000003FFF000FC000000000F
310
FFFFE0007F80070007F8001FFF80007FF8000000001FFFFF8000000001FFFFF8
310
0FFFFFFFFFFFFFC07FFFFFF0001FFFFFF8001FFFFFFFFC000FF8001FFFFFFFFC
310
000FFF0003FFFFFFFFFC000000000FFFF000F8000000007FFFFFE0007F800700
310
07F8001FFF80007FF000000000FFFFFF800000000FFFFFF80FFFFFFFFFFFFFC0
310
7FFFFFF0001FFFFFF8000FFFFFFFF8000FF8000FFFFFFFF8000FFF0003FFFFFF
310
FFFC000000007FFFF000F800000007FFFFFFC0007F8003000FF8001FFF80007F
310
F000000007FFFFFF000000007FFFFFF80FFFFFFFFFFFFFC07FFFFFF0001FFFFF
310
F8000FFFFFFFF8000FF8000FFFFFFFF8000FFF0003FFFFFFFFF80000000FFFFF
310
F000F0000000FFFFFFFFC000FF8003000FF8001FFF80007FE0000000FFFFFFFF
310
0000000FFFFFFFF8000001FFFE0000007FFFFFF0001FFFFFF8000FFFFFFFF800
310
0FF8000FFFFFFFF8000FFF0003FFFFFFFFF8000000FFFFFFF000F000000FFFFF
310
FFFFC000FFC002000FF8000FFF80007FE000001FFFFFFFFE000001FFFFFFFFF8
310
000001FFFE0000007FFFFFF0001FFFFFF8000FFFFFFFF8000FF8000FFFFFFFF8
310
000FFF0003FFFFFFFFF000001FFFFFFFF000E00000FFFFFFFFFFC000FFC00200
310
0FFC000FFF80007FE00001FFFFFFFFFE00001FFFFFFFFFF8000001FFFE000000
310
7FFFFFF0001FFFFFFC000FFFFFFFF8001FFC000FFFFFFFF8001FFF0003FFFFFF
310
FFF00001FFFFFFFFF000E00007FFFFFFFFFF8000FFC000001FFC000FFF80007F
310
C0000FFFFFFFFFFE0000FFFFFFFFFFF8000001FFFE0000007FFFFFF0001FFFFF
310
FC0007FFFFFFF0001FFC0007FFFFFFF0001FFF0003FFFFFFFFF00007FFFFFFFF
310
F000E0001FFFFFFFFFFF8000FFC000001FFC000FFF80007FC0003FFFFFFFFFFE
310
0001FFFFFFFFFFF8000001FFFE0000007FFFFFF0001FFFFFFC0007FFFFFFF000
310
1FFC0007FFFFFFF0001FFF0003FFFFFFFFF0001FFFFFFFFFF000E0003FFFFF00
310
03FF8001FFE000001FFC0007FF80007FC0007FFFFF0007FC0003FFFFF0003FF8
310
000001FFFE0000007FFFFFF0001FFFFFFC0003FFFFFFE0001FFC0003FFFFFFE0
310
001FFF0003FFFFFFFFF0003FFFFFFFFFF000E0003FFFFF0001FF8001FFE00000
310
1FFE0007FF80007FC0007FFFFE0003FC0007FFFFE0003FF8000001FFFE000000
310
7FFFFFF0001FFFFFFE0003FFFFFFE0003FFE0003FFFFFFE0003FFF0003FFFFFF
310
FFF0003FFFFF8001F000E0003FFFFF0001FF0001FFE000001FFE0007FF80007F
310
C0007FFFFE0003FC0007FFFFE0003FF8000001FFFE0000007FFFFFF0001FFFFF
310
FE0001FFFFFFC0003FFE0001FFFFFFC0003FFF0003FFFFFFFFF0003FFFFF0001
310
F000E0003FFFFF0003FF0001FFE000003FFE0007FF80007FC0007FFFFE0003FC
310
0007FFFFE0003FF8000001FFFE0000007FFFFFF0001FFFFFFF0001FFFFFFC000
310
7FFF0001FFFFFFC0007FFF0003FFFFFFFFF0003FFFFF0001F000E0003FFFFE00
310
03FF0003FFF000003FFE0003FF80007FC0007FFFFC0003FE0007FFFFE0003FF8
310
000001FFFE0000007FFFFFF0001FFFFFFF0000FFFFFF80007FFF0000FFFFFF80
310
007FFF0003FFFFFFFFF0003FFFFF0001F000E0003FFFFE0003FF0003FFF00000
310
3FFF0003FF80007FC0007FFFFC0007FE0007FFFFC0003FF8000001FFFE000000
310
7FFFFFF0001FFFFFFF80007FFFFF0000FFFF80007FFFFF0000FFFF0003FFFFFF
310
FFF0003FFFFF0003F000E0003FFFFC0003FE0003FFF000003FFF0003FF80007F
310
E0003FFFF80007FE0003FFFFC0007FF8000001FFFE0000007FFFFFF0001FFFFF
310
FF80003FFFFE0000FFFF80003FFFFE0000FFFF0003FFFFFFFFF0001FFFFE0003
310
F000F0001FFFF80003FE0003FFF000007FFF0001FF80007FE0003FFFF00007FE
310
0001FFFF80007FF8000001FFFE0000007FFFFFF0001FFFFFFFC0000FFFF80001
310
FFFFC0000FFFF80001FFFF0003FFFFFFFFF0001FFFFC0003F000F0000FFFF000
310
07FE0007FFF800007FFF0001FF80007FE0001FFFE00007FF0000FFFE00007FF8
310
000001FFFE0000007FFFFFF0001FFFFFFFC00003FFE00001FFFFC00003FFE000
310
01FFFF0003FFFFFFFFF8000FFFF80003F000F00003FFC00007FC0007FFF80000
310
7FFF8001FF80007FF00007FF80000FFF00007FF80000FFF8000001FFFE000000
310
7F80000000000001FFE000003E000003FFFFE000003E000003FFFF0003FFFFFF
310
FFF80003FFE00007F000F800000000000FFC0007FFF800007FFF8001FF80007F
310
F000000000000FFF000000000000FFF8000001FFFE0000007F80000000000001
310
FFF0000000000007FFFFF0000000000007FFFF0003FFFFFFFFFC00007E000007
310
F000F800000000000FFC0007FFF80000FFFF8000FF80007FF800000000001FFF
310
800000000001FFF8000001FFFE0000007F80000000000001FFF800000000000F
310
FFFFF800000000000FFFFF0003FFFFFFFFFC00000000000FF000FC0000000000
310
1FFC0007FFFC0000FFFF8000FF80007FF800000000003FFFC00000000001FFF8
310
000001FFFE0000007F80000000000001FFF800000000000FFFFFF80000000000
310
0FFFFF0003FFFFFFFFFE00000000001FF000FE00000000003FF8000FFFFC0000
310
FFFF8000FF80007FFC00000000003FFFC00000000003FFF8000001FFFE000000
310
7F80000000000001FFFC00000000001FFFFFFC00000000001FFFFF0003FFFFFF
310
FFFF00000000001FF000FF00000000003FF8000FFFFC0000FFFFC000FF80007F
310
FE00000000007FFFE00000000007FFF8000001FFFE0000007F80000000000001
310
FFFE00000000003FFFFFFE00000000003FFFFF0003FFFFFFFFFF80000000003F
310
F000FF80000000007FF8000FFFFC0001FFFFC0007F80007FFF0000000000FFFF
310
F0000000000FFFF800000000000000007F80000000000001FFFF8000000000FF
310
FFFFFF8000000000FFFFFF0003FFFFFFFFFFC0000000007FF000FFC000000000
310
FFF8000FFFFE0001FFFFC0007F80007FFF8000000001FFFFF8000000001FFFF8
310
00000000000000007F80000000000001FFFFC000000001FFFFFFFFC000000001
310
FFFFFF0003FFFFFFFFFFE000000000FFF000FFE000000003FFF0001FFFFE0001
310
FFFFC0007F80007FFFC000000007FFFFFE000000003FFFF80000000000000000
310
7F80000000000001FFFFE000000003FFFFFFFFE000000003FFFFFF0003FFFFFF
310
FFFFF000000003FFF000FFF80000000FFFF0001FFFFE0001FFFFE0007F80007F
310
FFF00000000FFFFFFF00000000FFFFF800000000000000007F80000000000001
310
FFFFF80000000FFFFFFFFFF80000000FFFFFFF0003FFFFFFFFFFFC0000000FFF
310
F000FFFE0000003FFFF0001FFFFE0003FFFFE0003F80007FFFFC0000003FFFFF
310
FFC0000003FFFFF800000000000000007F80000000000001FFFFFE0000003FFF
310
FFFFFFFE0000003FFFFFFF0003FFFFFFFFFFFF0000003FFFF000FFFF800000FF
310
FFF0001FFFFF0003FFFFE0003F80007FFFFF000001FFFFFFFFF800001FFFFFF8
310
00000000000000007F80000000000001FFFFFFC00001FFFFFFFFFFFFC00001FF
310
FFFFFF0003FFFFFFFFFFFFC00000FFFFF000FFFFF8000FFFFFFFFFFFFFFFFFFF
310
FFFFFFFFFFFFFFFFFFFFF0001FFFFFFFFFFF0000FFFFFFF80000000000000000
310
7FFFFFFFFFFFFFFFFFFFFFFC001FFFFFFFFFFFFFFC001FFFFFFFFFFFFFFFFFFF
310
FFFFFFFC001FFFFFF000FFFFFFFFFFFFFFFFFFFFFFFFFFFFFFFFFFFFFFFFFFFF
310
FFFFFFFFFFFFFFFFFFFFFFFFFFFFFFFFFFFFFFFFFFFFFFFFFFFFFFFFFFFFFFFF
310
FFFFFFFFFFFFFFFFFFFFFFFFFFFFFFFFFFFFFFFFFFFFFFFFFFFFFFFFFFFFFFFF
310
F000FFFFFFFFFFFFFFFFFFFFFFFFFFFFFFFFFFFFFFFFFFFFFFFFFFFFFFFFFFFF
310
FFFFFFFFFFFFFFFFFFFFFFFFFFFFFFFFFFFFFFFFFFFFFFFFFFFFFFFFFFFFFFFF
310
FFFFFFFFFFFFFFFFFFFFFFFFFFFFFFFFFFFFFFFFFFFFFFFFF000FFFFFFFFFFFF
310
FFFFFFFFFFFFFFFFFFFFFFFFFFFFFFFFFFFFFFFFFFFFFFFFFFFFFFFFFFFFFFFF
310
FFFFFFFFFFFFFFFFFFFFFFFFFFFFFFFFFFFFFFFFFFFFFFFFFFFFFFFFFFFFFFFF
310
FFFFFFFFFFFFFFFFFFFFFFFFFFFFFFFFF000FFFFFFFFFFFFFFFFFFFFFFFFFFFF
310
FFFFFFFFFFFFFFFFFFFFFFFFFFFFFFFFFFFFFFFFFFFFFFFFFFFFFFFFFFFFFFFF
310
FFFFFFFFFFFFFFFFFFFFFFFFFFFFFFFFFFFFFFFFFFFFFFFFFFFFFFFFFFFFFFFF
310
FFFFFFFFFFFFFFFFF000FFFFFFFFFFFFFFFFFFFFFFFFFFFFFFFFFFFFFFFFFFFF
310
FFFFFFFFFFFFFFFFFFFFFFFFFFFFFFFFFFFFFFFFFFFFFFFFFFFFFFFFFFFFFFFF
310
FFFFFFFFFFFFFFFFFFFFFFFFFFFFFFFFFFFFFFFFFFFFFFFFFFFFFFFFFFFFFFFF
310
F000FFFFFFFFFFFFFFFFFFFFFFFFFFFFFFFFFFFFFFFFFFFFFFFFFFFFFFFFFFFF
310
FFFFFFFFFFFFFFFFFFFFFFFFFFFFFFFFFFFFFFFFFFFFFFFFFFFFFFFFFFFFFFFF
310
FFFFFFFFFFFFFFFFFFFFFFFFFFFFFFFFFFFFFFFFFFFFFFFFF000FFFFFFFFFFFF
310
FFFFFFFFFFFFFFFFFFFFFFFFFFFFFFFFFFFFFFFFFFFFFFFFFFFFFFFFFFFFFFFF
310
FFFFFFFFFFFFFFFFFFFFFFFFFFFFFFFFFFFFFFFFFFFFFFFFFFFFFFFFFFFFFFFF
310
FFFFFFFFFFFFFFFFFFFFFFFFFFFFFFFFF000FFFFFFFFFFFFFFFFFFFFFFFFFFFF
310
FFFFFFFFFFFFFFFFFFFFFFFFFFFFFFFFFFFFFFFFFFFFFFFFFFFFFFFFFFFFFFFF
310
FFFFFFFFFFFFFFFFFFFFFFFFFFFFFFFFFFFFFFFFFFFFFFFFFFFFFFFFFFFFFFFF
310
FFFFFFFFFFFFFFFFF000FFFFFFFFFFFFFFFFFFFFFFFFFFFFFFFFFFFFFFFFFFFF
310
FFFFFFFFFFFFFFFFFFFFFFFFFFFFFFFFFFFFFFFFFFFFFFFFFFFFFFFFFFFFFFFF
310
FFFFFFFFFFFFFFFFFFFFFFFFFFFFFFFFFFFFFFFFFFFFFFFFFFFFFFFFFFFFFFFF
310
F000FFFFFFFFFFFFFFFFFFFFFFFFFFFFFFFFFFFFFFFFFFFFFFFFFFFFFFFFFFFF
310
FFFFFFFFFFFFFFFFFFFFFFFFFFFFFFFFFFFFFFFFFFFFFFFFFFFFFFFFFFFFFFFF
310
FFFFFFFFFFFFFFFFFFFFFFFFFFFFFFFFFFFFFFFFFFFFFFFFF000FFFFFFFFFFFF
310
FFFFFFFFFFFFFFFFFFFFFFFFFFFFFFFFFFFFFFFFFFFFFFFFFFFFFFFFFFFFFFFF
310
FFFFFFFFFFFFFFFFFFFFFFFFFFFFFFFFFFFFFFFFFFFFFFFFFFFFFFFFFFFFFFFF
310
FFFFFFFFFFFFFFFFFFFFFFFFFFFFFFFFF000FFFFFFFFFFFFFFFFFFFFFFFFFFFF
310
FFFFFFFFFFFFFFFFFFFFFFFFFFFFFFFFFFFFFFFFFFFFFFFFFFFFFFFFFFFFFFFF
310
FFFFFFFFFFFFFFFFFFFFFFFFFFFFFFFFFFFFFFFFFFFFFFFFFFFFFFFFFFFFFFFF
310
FFFFFFFFFFFFFFFFF000FFFFFFFFFFFFFFFFFFFFFFFFFFFFFFFFFFFFFFFFFFFF
310
FFFFFFFFFFFFFFFFFFFFFFFFFFFFFFFFFFFFFFFFFFFFFFFFFFFFFFFFFFFFFFFF
310
FFFFFFFFFFFFFFFFFFFFFFFFFFFFFFFFFFFFFFFFFFFFFFFFFFFFFFFFFFFFFFFF
310
F000FFFFFFFFFFFFFFFFFFFFFFFFFFFFFFFFFFFFFFFFFFFFFFFFFFFFFFFFFFFF
310
FFFFFFFFFFFFFFFFFFFFFFFFFFFFFFFFFFFFFFFFFFFFFFFFFFFFFFFFFFFFFFFF
310
FFFFFFFFFFFFFFFFFFFFFFFFFFFFFFFFFFFFFFFFFFFFFFFFF000FFFFFFFFFFFF
310
FFFFFFFFFFFFFFFFFFFFFFFFFFFFFFFFFFFFFFFFFFFFFFFFFFFFFFFFFFFFFFFF
310
FFFFFFFFFFFFFFFFFFFFFFFFFFFFFFFFFFFFFFFFFFFFFFFFFFFFFFFFFFFFFFFF
310
FFFFFFFFFFFFFFFFFFFFFFFFFFFFFFFFF000FFFFFFFFFFFFFFFFFFFFFFFFFFFF
310
FFFFFFFFFFFFFFFFFFFFFFFFFFFFFFFFFFFFFFFFFFFFFFFFFFFFFFFFFFFFFFFF
310
FFFFFFFFFFFFFFFFFFFFFFFFFFFFFFFFFFFFFFFFFFFFFFFFFFFFFFFFFFFFFFFF
310
FFFFFFFFFFFFFFFFF000FFFFFFFFFFFFFFFFFFFFFFFFFFFFFFFFFFFFFFFFFFFF
310
FFFFFFFFFFFFFFFFFFFFFFFFFFFFFFFFFFFFFFFFFFFFFFFFFFFFFFFFFFFFFFFF
310
FFFFFFFFFFFFFFFFFFFFFFFFFFFFFFFFFFFFFFFFFFFFFFFFFFFFFFFFFFFFFFFF
310
F000FFFFFFFFFFFFFFFFFFFFFFFFFFFFFFFFFFFFFFFFFFFFFFFFFFFFFFFFFFFF
310
FFFFFFFFFFFFFFFFFFFFFFFFFFFFFFFFFFFFFFFFFFFFFFFFFFFFFFFFFFFFFFFF
310
FFFFFFFFFFFFFFFFFFFFFFFFFFFFFFFFFFFFFFFFFFFFFFFFF000FFFFFFFFFFFF
310
FFFFFFFFFFFFFFFFFFFFFFFFFFFFFFFFFFFFFFFFFFFFFFFFFFFFFFFFFFFFFFFF
310
FFFFFFFFFFFFFFFFFFFFFFFFFFFFFFFFFFFFFFFFFFFFFFFFFFFFFFFFFFFFFFFF
310
FFFFFFFFFFFFFFFFFFFFFFFFFFFFFFFFF000FFFFFFFFFFFFFFFFFFFFFFFFFFFF
310
FFFFFFFFFFFFFFFFFFFFFFFFFFFFFFFFFFFFFFFFFFFFFFFFFFFFFFFFFFFFFFFF
310
FFFFFFFFFFFFFFFFFFFFFFFFFFFFFFFFFFFFFFFFFFFFFFFFFFFFFFFFFFFFFFFF
310
FFFFFFFFFFFFFFFFF000FFFFFFFFFFFFFFFFFFFFFFFFFFFFFFFFFFFFFFFFFFFF
310
FFFFFFFFFFFFFFFFFFFFFFFFFFFFFFFFFFFFFFFFFFFFFFFFFFFFFFFFFFFFFFFF
310
FFFFFFFFFFFFFFFFFFFFFFFFFFFFFFFFFFFFFFFFFFFFFFFFFFFFFFFFFFFFFFFF
310
F000FFFFFFFFFFFFFFFFFFFFFFFFFFFFFFFFFFFFFFFFFFFFFFFFFFFFFFFFFFFF
310
FFFFFFFFFFFFFFFFFFFFFFFFFFFFFFFFFFFFFFFFFFFFFFFFFFFFFFFFFFFFFFFF
310
FFFFFFFFFFFFFFFFFFFFFFFFFFFFFFFFFFFFFFFFFFFFFFFFF000FFFFFFFFFFFF
310
FFFFFFFFFFFFFFFFFFFFFFFFFFFFFFFFFFFFFFFFFFFFFFFFFFFFFFFFFFFFFFFF
310
FFFFFFFFFFFFFFFFFFFFFFFFFFFFFFFFFFFFFFFFFFFFFFFFFFFFFFFFFFFFFFFF
310
FFFFFFFFFFFFFFFFFFFFFFFFFFFFFFFFF0000000000000000000000000000000
310
0000000000000000000000000000000000000000000000000000000000000000
310
0000000000000000000000000000000000000000000000000000000000000000
310
0000000000000000000000000000000000000000000000000000000000000000
310
0000000000000000000000000000000000000000000000000000000000000000
310
0000000000000000000000000000000000000000000000000000000000000000
310
0000000000000000000000000000000000000000000000000000000000000000
310
0000000000000000000000000000000000000000000000000000000000000000
310
0000000000000000000000000000000000000000000000000000000000000000
310
0000000000000000000000000000000000000000000000000000000000000000
310
0000000000000000000000000000000000000000000000000000000000000000
310
0000000000000000000000000000000000000000000000000000000000000000
310
0000000000000000000000000000000000000000000000000000000000000000
310
0000000000000000000000000000000000000000000000000000000000000000
310
0000000000000000000000000000000000000000000000000000000000000000
310
0000000000000000000000000000000000000000000000000000000000000000
  1
OLE
  0
ENDSEC
  0
SECTION
  2
OBJECTS
  0
DICTIONARY
  5
C
330
0
100
AcDbDictionary
281
     1
  3
ACAD_GROUP
350
D
  3
ACAD_LAYOUT
350
1A
  3
ACAD_MLINESTYLE
350
17
  3
ACAD_PLOTSETTINGS
350
19
  3
ACAD_PLOTSTYLENAME
350
E
  3
ACAD_SCALELIST
350
47
  0
DICTIONARY
  5
D
102
{ACAD_REACTORS
330
C
102
}
330
C
100
AcDbDictionary
281
     1
  0
DICTIONARY
  5
1A
102
{ACAD_REACTORS
330
C
102
}
330
C
100
AcDbDictionary
281
     1
  3
Layout1
350
1E
  3
Layout2
350
26
  3
Model
350
22
  0
DICTIONARY
  5
17
102
{ACAD_REACTORS
330
C
102
}
330
C
100
AcDbDictionary
281
     1
  3
Standard
350
18
  0
DICTIONARY
  5
19
102
{ACAD_REACTORS
330
C
102
}
330
C
100
AcDbDictionary
281
     1
  0
ACDBDICTIONARYWDFLT
  5
E
102
{ACAD_REACTORS
330
C
102
}
330
C
100
AcDbDictionary
281
     1
  3
Normal
350
F
100
AcDbDictionaryWithDefault
340
F
  0
DICTIONARY
  5
47
102
{ACAD_REACTORS
330
C
102
}
330
C
100
AcDbDictionary
281
     1
  3
A0
350
48
  3
A1
350
49
  3
A2
350
4A
  3
A3
350
4B
  3
A4
350
4C
  3
A5
350
4D
  3
A6
350
4E
  3
A7
350
4F
  3
A8
350
50
  3
A9
350
51
  3
B0
350
52
  3
B1
350
53
  3
B2
350
54
  3
B3
350
55
  3
B4
350
56
  3
B5
350
57
  3
B6
350
58
  3
B7
350
59
  3
B8
350
5A
  3
B9
350
5B
  3
C0
350
5C
  3
C1
350
5D
  3
C2
350
5E
  3
C3
350
5F
  3
C4
350
60
  3
C5
350
61
  3
C6
350
62
  3
C7
350
63
  3
C8
350
64
  3
C9
350
65
  3
D0
350
66
  3
D1
350
67
  3
D2
350
68
  0
LAYOUT
  5
1E
102
{ACAD_REACTORS
330
1A
102
}
330
1A
100
AcDbPlotSettings
  1

  2
none_device
  4

  6

 40
0.0
 41
0.0
 42
0.0
 43
0.0
 44
0.0
 45
0.0
 46
0.0
 47
0.0
 48
0.0
 49
0.0
140
0.0
141
0.0
142
1.0
143
1.0
 70
   688
 72
     1
 73
     0
 74
     5
  7

 75
    16
147
1.0
148
0.0
149
0.0
100
AcDbLayout
  1
Layout1
 70
     1
 71
     1
 10
0.0
 20
0.0
 11
420.0
 21
297.0
 12
0.0
 22
0.0
 32
0.0
 14
1.0000000000E+20
 24
1.0000000000E+20
 34
1.0000000000E+20
 15
-1.0000000000E+20
 25
-1.0000000000E+20
 35
-1.0000000000E+20
146
0.0
 13
0.0
 23
0.0
 33
0.0
 16
1.0
 26
0.0
 36
0.0
 17
0.0
 27
1.0
 37
0.0
 76
     0
330
1B
  0
LAYOUT
  5
26
102
{ACAD_REACTORS
330
1A
102
}
330
1A
100
AcDbPlotSettings
  1

  2
none_device
  4

  6

 40
0.0
 41
0.0
 42
0.0
 43
0.0
 44
0.0
 45
0.0
 46
0.0
 47
0.0
 48
0.0
 49
0.0
140
0.0
141
0.0
142
1.0
143
1.0
 70
   688
 72
     1
 73
     0
 74
     5
  7

 75
    16
147
1.0
148
0.0
149
0.0
100
AcDbLayout
  1
Layout2
 70
     1
 71
     2
 10
0.0
 20
0.0
 11
0.0
 21
0.0
 12
0.0
 22
0.0
 32
0.0
 14
0.0
 24
0.0
 34
0.0
 15
0.0
 25
0.0
 35
0.0
146
0.0
 13
0.0
 23
0.0
 33
0.0
 16
1.0
 26
0.0
 36
0.0
 17
0.0
 27
1.0
 37
0.0
 76
     0
330
23
  0
LAYOUT
  5
22
102
{ACAD_REACTORS
330
1A
102
}
330
1A
100
AcDbPlotSettings
  1

  2
none_device
  4
Letter_(8.50_x_11.00_Inches)
  6

 40
6.35
 41
6.35
 42
6.35000508
 43
6.35000508
 44
215.9
 45
279.4
 46
0.0
 47
0.0
 48
0.0
 49
0.0
140
0.0
141
0.0
142
1.0
143
1.0
 70
  1712
 72
     1
 73
     0
 74
     0
  7

 75
     0
147
1.0
148
0.0
149
0.0
100
AcDbLayout
  1
Model
 70
     1
 71
     0
 10
0.0
 20
0.0
 11
297.0
 21
210.0
 12
0.0
 22
0.0
 32
0.0
 14
0.0
 24
0.0
 34
0.0
 15
297.0
 25
210.0
 35
0.0
146
0.0
 13
0.0
 23
0.0
 33
0.0
 16
1.0
 26
0.0
 36
0.0
 17
0.0
 27
1.0
 37
0.0
 76
     0
330
1F
331
29
  0
MLINESTYLE
  5
18
102
{ACAD_REACTORS
330
17
102
}
330
17
100
AcDbMlineStyle
  2
Standard
 70
     0
  3

 62
   256
 51
90.0
 52
90.0
 71
     2
 49
0.5
 62
   256
  6
BYLAYER
 49
-0.5
 62
   256
  6
BYLAYER
  0
ACDBPLACEHOLDER
  5
F
102
{ACAD_REACTORS
330
E
102
}
330
E
  0
SCALE
  5
48
102
{ACAD_REACTORS
330
47
102
}
330
47
100
AcDbScale
 70
     0
300
1:1
140
1.0
141
1.0
290
     1
  0
SCALE
  5
49
102
{ACAD_REACTORS
330
47
102
}
330
47
100
AcDbScale
 70
     0
300
1:2
140
1.0
141
2.0
290
     0
  0
SCALE
  5
4A
102
{ACAD_REACTORS
330
47
102
}
330
47
100
AcDbScale
 70
     0
300
1:4
140
1.0
141
4.0
290
     0
  0
SCALE
  5
4B
102
{ACAD_REACTORS
330
47
102
}
330
47
100
AcDbScale
 70
     0
300
1:5
140
1.0
141
5.0
290
     0
  0
SCALE
  5
4C
102
{ACAD_REACTORS
330
47
102
}
330
47
100
AcDbScale
 70
     0
300
1:8
140
1.0
141
8.0
290
     0
  0
SCALE
  5
4D
102
{ACAD_REACTORS
330
47
102
}
330
47
100
AcDbScale
 70
     0
300
1:10
140
1.0
141
10.0
290
     0
  0
SCALE
  5
4E
102
{ACAD_REACTORS
330
47
102
}
330
47
100
AcDbScale
 70
     0
300
1:16
140
1.0
141
16.0
290
     0
  0
SCALE
  5
4F
102
{ACAD_REACTORS
330
47
102
}
330
47
100
AcDbScale
 70
     0
300
1:20
140
1.0
141
20.0
290
     0
  0
SCALE
  5
50
102
{ACAD_REACTORS
330
47
102
}
330
47
100
AcDbScale
 70
     0
300
1:30
140
1.0
141
30.0
290
     0
  0
SCALE
  5
51
102
{ACAD_REACTORS
330
47
102
}
330
47
100
AcDbScale
 70
     0
300
1:40
140
1.0
141
40.0
290
     0
  0
SCALE
  5
52
102
{ACAD_REACTORS
330
47
102
}
330
47
100
AcDbScale
 70
     0
300
1:50
140
1.0
141
50.0
290
     0
  0
SCALE
  5
53
102
{ACAD_REACTORS
330
47
102
}
330
47
100
AcDbScale
 70
     0
300
1:100
140
1.0
141
100.0
290
     0
  0
SCALE
  5
54
102
{ACAD_REACTORS
330
47
102
}
330
47
100
AcDbScale
 70
     0
300
2:1
140
2.0
141
1.0
290
     0
  0
SCALE
  5
55
102
{ACAD_REACTORS
330
47
102
}
330
47
100
AcDbScale
 70
     0
300
4:1
140
4.0
141
1.0
290
     0
  0
SCALE
  5
56
102
{ACAD_REACTORS
330
47
102
}
330
47
100
AcDbScale
 70
     0
300
8:1
140
8.0
141
1.0
290
     0
  0
SCALE
  5
57
102
{ACAD_REACTORS
330
47
102
}
330
47
100
AcDbScale
 70
     0
300
10:1
140
10.0
141
1.0
290
     0
  0
SCALE
  5
58
102
{ACAD_REACTORS
330
47
102
}
330
47
100
AcDbScale
 70
     0
300
100:1
140
100.0
141
1.0
290
     0
  0
SCALE
  5
59
102
{ACAD_REACTORS
330
47
102
}
330
47
100
AcDbScale
 70
     0
300
1/128" = 1'-0"
140
0.0078125
141
12.0
290
     0
  0
SCALE
  5
5A
102
{ACAD_REACTORS
330
47
102
}
330
47
100
AcDbScale
 70
     0
300
1/64" = 1'-0"
140
0.015625
141
12.0
290
     0
  0
SCALE
  5
5B
102
{ACAD_REACTORS
330
47
102
}
330
47
100
AcDbScale
 70
     0
300
1/32" = 1'-0"
140
0.03125
141
12.0
290
     0
  0
SCALE
  5
5C
102
{ACAD_REACTORS
330
47
102
}
330
47
100
AcDbScale
 70
     0
300
1/16" = 1'-0"
140
0.0625
141
12.0
290
     0
  0
SCALE
  5
5D
102
{ACAD_REACTORS
330
47
102
}
330
47
100
AcDbScale
 70
     0
300
3/32" = 1'-0"
140
0.09375
141
12.0
290
     0
  0
SCALE
  5
5E
102
{ACAD_REACTORS
330
47
102
}
330
47
100
AcDbScale
 70
     0
300
1/8" = 1'-0"
140
0.125
141
12.0
290
     0
  0
SCALE
  5
5F
102
{ACAD_REACTORS
330
47
102
}
330
47
100
AcDbScale
 70
     0
300
3/16" = 1'-0"
140
0.1875
141
12.0
290
     0
  0
SCALE
  5
60
102
{ACAD_REACTORS
330
47
102
}
330
47
100
AcDbScale
 70
     0
300
1/4" = 1'-0"
140
0.25
141
12.0
290
     0
  0
SCALE
  5
61
102
{ACAD_REACTORS
330
47
102
}
330
47
100
AcDbScale
 70
     0
300
3/8" = 1'-0"
140
0.375
141
12.0
290
     0
  0
SCALE
  5
62
102
{ACAD_REACTORS
330
47
102
}
330
47
100
AcDbScale
 70
     0
300
1/2" = 1'-0"
140
0.5
141
12.0
290
     0
  0
SCALE
  5
63
102
{ACAD_REACTORS
330
47
102
}
330
47
100
AcDbScale
 70
     0
300
3/4" = 1'-0"
140
0.75
141
12.0
290
     0
  0
SCALE
  5
64
102
{ACAD_REACTORS
330
47
102
}
330
47
100
AcDbScale
 70
     0
300
1" = 1'-0"
140
1.0
141
12.0
290
     0
  0
SCALE
  5
65
102
{ACAD_REACTORS
330
47
102
}
330
47
100
AcDbScale
 70
     0
300
1-1/2" = 1'-0"
140
1.5
141
12.0
290
     0
  0
SCALE
  5
66
102
{ACAD_REACTORS
330
47
102
}
330
47
100
AcDbScale
 70
     0
300
3" = 1'-0"
140
3.0
141
12.0
290
     0
  0
SCALE
  5
67
102
{ACAD_REACTORS
330
47
102
}
330
47
100
AcDbScale
 70
     0
300
6" = 1'-0"
140
6.0
141
12.0
290
     0
  0
SCALE
  5
68
102
{ACAD_REACTORS
330
47
102
}
330
47
100
AcDbScale
 70
     0
300
1'-0" = 1'-0"
140
12.0
141
12.0
290
     0
  0
ENDSEC
  0
EOF
