  0
SECTION
  2
HEADER
  9
$ACADVER
  1
AC1015
  9
$ACADMAINTVER
 70
     6
  9
$DWGCODEPAGE
  3
ANSI_1252
  9
$INSBASE
 10
0.0
 20
0.0
 30
0.0
  9
$EXTMIN
 10
0.0
 20
0.0
 30
0.0
  9
$EXTMAX
 10
297.0
 20
210.0
 30
0.0
  9
$LIMMIN
 10
0.0
 20
0.0
  9
$LIMMAX
 10
297.0
 20
210.0
  9
$ORTHOMODE
 70
     0
  9
$REGENMODE
 70
     1
  9
$FILLMODE
 70
     1
  9
$QTEXTMODE
 70
     0
  9
$MIRRTEXT
 70
     1
  9
$LTSCALE
 40
1.0
  9
$ATTMODE
 70
     1
  9
$TEXTSIZE
 40
2.0
  9
$TRACEWID
 40
1.0
  9
$TEXTSTYLE
  7
Standard
  9
$CLAYER
  8
0
  9
$CELTYPE
  6
ByLayer
  9
$CECOLOR
 62
   256
  9
$CELTSCALE
 40
1.0
  9
$DISPSILH
 70
     0
  9
$DIMSCALE
 40
1.0
  9
$DIMASZ
 40
3.0
  9
$DIMEXO
 40
0.0
  9
$DIMDLI
 40
3.75
  9
$DIMRND
 40
0.0
  9
$DIMDLE
 40
0.0
  9
$DIMEXE
 40
1.0
  9
$DIMTP
 40
0.0
  9
$DIMTM
 40
0.0
  9
$DIMTXT
 40
2.0
  9
$DIMCEN
 40
2.5
  9
$DIMTSZ
 40
0.0
  9
$DIMTOL
 70
     0
  9
$DIMLIM
 70
     0
  9
$DIMTIH
 70
     1
  9
$DIMTOH
 70
     1
  9
$DIMSE1
 70
     0
  9
$DIMSE2
 70
     0
  9
$DIMTAD
 70
     1
  9
$DIMZIN
 70
     0
  9
$DIMBLK
  1

  9
$DIMASO
 70
     1
  9
$DIMSHO
 70
     1
  9
$DIMPOST
  1

  9
$DIMAPOST
  1

  9
$DIMALT
 70
     0
  9
$DIMALTD
 70
     3
  9
$DIMALTF
 40
0.0393700787
  9
$DIMLFAC
 40
1.0
  9
$DIMTOFL
 70
     1
  9
$DIMTVP
 40
0.0
  9
$DIMTIX
 70
     0
  9
$DIMSOXD
 70
     0
  9
$DIMSAH
 70
     0
  9
$DIMBLK1
  1

  9
$DIMBLK2
  1

  9
$DIMSTYLE
  2
ISO-25
  9
$DIMCLRD
 70
     0
  9
$DIMCLRE
 70
     0
  9
$DIMCLRT
 70
     0
  9
$DIMTFAC
 40
1.0
  9
$DIMGAP
 40
1.524
  9
$DIMJUST
 70
     0
  9
$DIMSD1
 70
     0
  9
$DIMSD2
 70
     0
  9
$DIMTOLJ
 70
     0
  9
$DIMTZIN
 70
     0
  9
$DIMALTZ
 70
     0
  9
$DIMALTTZ
 70
     0
  9
$DIMUPT
 70
     0
  9
$DIMDEC
 70
     2
  9
$DIMTDEC
 70
     3
  9
$DIMALTU
 70
     2
  9
$DIMALTTD
 70
     3
  9
$DIMTXSTY
  7
Standard
  9
$DIMAUNIT
 70
     0
  9
$DIMADEC
 70
     2
  9
$DIMALTRND
 40
0.0
  9
$DIMAZIN
 70
     0
  9
$DIMDSEP
 70
    44
  9
$DIMATFIT
 70
     3
  9
$DIMFRAC
 70
     0
  9
$DIMLDRBLK
  1

  9
$DIMLUNIT
 70
     2
  9
$DIMLWD
 70
    -2
  9
$DIMLWE
 70
    -2
  9
$DIMTMOVE
 70
     0
  9
$LUNITS
 70
     2
  9
$LUPREC
 70
     2
  9
$SKETCHINC
 40
1.0
  9
$FILLETRAD
 40
10.0
  9
$AUNITS
 70
     0
  9
$AUPREC
 70
     2
  9
$MENU
  1
.
  9
$ELEVATION
 40
0.0
  9
$PELEVATION
 40
0.0
  9
$THICKNESS
 40
0.0
  9
$LIMCHECK
 70
     0
  9
$CHAMFERA
 40
0.0
  9
$CHAMFERB
 40
0.0
  9
$CHAMFERC
 40
0.0
  9
$CHAMFERD
 40
0.0
  9
$SKPOLY
 70
     0
  9
$TDCREATE
 40
2457655.634148113
  9
$TDUCREATE
 40
2457655.55081478
  9
$TDUPDATE
 40
2457655.63414919
  9
$TDUUPDATE
 40
2457655.550815857
  9
$TDINDWG
 40
0.0000000116
  9
$TDUSRTIMER
 40
0.0000000116
  9
$USRTIMER
 70
     1
  9
$ANGBASE
 50
0.0
  9
$ANGDIR
 70
     0
  9
$PDMODE
 70
     0
  9
$PDSIZE
 40
-1.0
  9
$PLINEWID
 40
0.0
  9
$SPLFRAME
 70
     0
  9
$SPLINETYPE
 70
     6
  9
$SPLINESEGS
 70
     8
  9
$HANDSEED
  5
1EF
  9
$SURFTAB1
 70
     6
  9
$SURFTAB2
 70
     6
  9
$SURFTYPE
 70
     6
  9
$SURFU
 70
     6
  9
$SURFV
 70
     6
  9
$UCSBASE
  2

  9
$UCSNAME
  2

  9
$UCSORG
 10
0.0
 20
0.0
 30
0.0
  9
$UCSXDIR
 10
1.0
 20
0.0
 30
0.0
  9
$UCSYDIR
 10
0.0
 20
1.0
 30
0.0
  9
$UCSORTHOREF
  2

  9
$UCSORTHOVIEW
 70
     0
  9
$UCSORGTOP
 10
0.0
 20
0.0
 30
0.0
  9
$UCSORGBOTTOM
 10
0.0
 20
0.0
 30
0.0
  9
$UCSORGLEFT
 10
0.0
 20
0.0
 30
0.0
  9
$UCSORGRIGHT
 10
0.0
 20
0.0
 30
0.0
  9
$UCSORGFRONT
 10
0.0
 20
0.0
 30
0.0
  9
$UCSORGBACK
 10
0.0
 20
0.0
 30
0.0
  9
$PUCSBASE
  2

  9
$PUCSNAME
  2

  9
$PUCSORG
 10
0.0
 20
0.0
 30
0.0
  9
$PUCSXDIR
 10
1.0
 20
0.0
 30
0.0
  9
$PUCSYDIR
 10
0.0
 20
1.0
 30
0.0
  9
$PUCSORTHOREF
  2

  9
$PUCSORTHOVIEW
 70
     0
  9
$PUCSORGTOP
 10
0.0
 20
0.0
 30
0.0
  9
$PUCSORGBOTTOM
 10
0.0
 20
0.0
 30
0.0
  9
$PUCSORGLEFT
 10
0.0
 20
0.0
 30
0.0
  9
$PUCSORGRIGHT
 10
0.0
 20
0.0
 30
0.0
  9
$PUCSORGFRONT
 10
0.0
 20
0.0
 30
0.0
  9
$PUCSORGBACK
 10
0.0
 20
0.0
 30
0.0
  9
$USERI1
 70
     0
  9
$USERI2
 70
     0
  9
$USERI3
 70
     0
  9
$USERI4
 70
     0
  9
$USERI5
 70
     0
  9
$USERR1
 40
0.0
  9
$USERR2
 40
0.0
  9
$USERR3
 40
0.0
  9
$USERR4
 40
0.0
  9
$USERR5
 40
0.0
  9
$WORLDVIEW
 70
     1
  9
$SHADEDGE
 70
     3
  9
$SHADEDIF
 70
    70
  9
$TILEMODE
 70
     1
  9
$MAXACTVP
 70
    64
  9
$PINSBASE
 10
0.0
 20
0.0
 30
0.0
  9
$PLIMCHECK
 70
     0
  9
$PEXTMIN
 10
1.0000000000E+20
 20
1.0000000000E+20
 30
1.0000000000E+20
  9
$PEXTMAX
 10
-1.0000000000E+20
 20
-1.0000000000E+20
 30
-1.0000000000E+20
  9
$PLIMMIN
 10
0.0
 20
0.0
  9
$PLIMMAX
 10
420.0
 20
297.0
  9
$UNITMODE
 70
     0
  9
$VISRETAIN
 70
     1
  9
$PLINEGEN
 70
     0
  9
$PSLTSCALE
 70
     1
  9
$TREEDEPTH
 70
  3020
  9
$CMLSTYLE
  2
Standard
  9
$CMLJUST
 70
     0
  9
$CMLSCALE
 40
20.0
  9
$PROXYGRAPHICS
 70
     1
  9
$MEASUREMENT
 70
     1
  9
$CELWEIGHT
370
    -1
  9
$ENDCAPS
280
     0
  9
$JOINSTYLE
280
     0
  9
$LWDISPLAY
290
     1
  9
$INSUNITS
 70
     4
  9
$HYPERLINKBASE
  1

  9
$STYLESHEET
  1

  9
$XEDIT
290
     1
  9
$CEPSNTYPE
380
     0
  9
$PSTYLEMODE
290
     1
  9
$FINGERPRINTGUID
  2
{8E00D934-8018-413B-9B12-110BA81365DF}
  9
$VERSIONGUID
  2
{FAEB1C32-E019-11D5-929B-00C0DF256EC4}
  9
$EXTNAMES
290
     1
  9
$PSVPSCALE
 40
0.0
  9
$OLESTARTUP
290
     0
  0
ENDSEC
  0
SECTION
  2
CLASSES
  0
CLASS
  1
ACDBDICTIONARYWDFLT
  2
AcDbDictionaryWithDefault
  3
ObjectDBX Classes
 90
        0
280
     0
281
     0
  0
CLASS
  1
VISUALSTYLE
  2
AcDbVisualStyle
  3
ObjectDBX Classes
 90
     4095
280
     0
281
     0
  0
CLASS
  1
MATERIAL
  2
AcDbMaterial
  3
ObjectDBX Classes
 90
     1153
280
     0
281
     0
  0
CLASS
  1
SCALE
  2
AcDbScale
  3
ObjectDBX Classes
 90
     1153
280
     0
281
     0
  0
CLASS
  1
TABLESTYLE
  2
AcDbTableStyle
  3
ObjectDBX Classes
 90
     4095
280
     0
281
     0
  0
CLASS
  1
MLEADERSTYLE
  2
AcDbMLeaderStyle
  3
ACDB_MLEADERSTYLE_CLASS
 90
     4095
280
     0
281
     0
  0
CLASS
  1
SUN
  2
AcDbSun
  3
SCENEOE
 90
     1153
280
     0
281
     0
  0
CLASS
  1
ACDBPLACEHOLDER
  2
AcDbPlaceHolder
  3
ObjectDBX Classes
 90
        0
280
     0
281
     0
  0
CLASS
  1
LAYOUT
  2
AcDbLayout
  3
ObjectDBX Classes
 90
        0
280
     0
281
     0
  0
ENDSEC
  0
SECTION
  2
TABLES
  0
TABLE
  2
VPORT
  5
8
330
0
100
AcDbSymbolTable
 70
     1
  0
VPORT
  5
29
330
8
100
AcDbSymbolTableRecord
100
AcDbViewportTableRecord
  2
*Active
 70
     0
 10
0.0
 20
0.0
 11
1.0
 21
1.0
 12
148.5
 22
105.0
 13
0.0
 23
0.0
 14
10.0
 24
10.0
 15
10.0
 25
10.0
 16
0.0
 26
0.0
 36
1.0
 17
0.0
 27
0.0
 37
0.0
 40
210.0
 41
1.4142857143
 42
50.0
 43
0.0
 44
0.0
 50
0.0
 51
0.0
 71
     0
 72
  2000
 73
     1
 74
     3
 75
     0
 76
     0
 77
     0
 78
     0
281
     0
 65
     1
110
0.0
120
0.0
130
0.0
111
1.0
121
0.0
131
0.0
112
0.0
122
1.0
132
0.0
 79
     0
146
0.0
  0
ENDTAB
  0
TABLE
  2
LTYPE
  5
5
330
0
100
AcDbSymbolTable
 70
     6
  0
LTYPE
  5
14
330
5
100
AcDbSymbolTableRecord
100
AcDbLinetypeTableRecord
  2
ByBlock
 70
     0
  3

 72
    65
 73
     0
 40
0.0
  0
LTYPE
  5
15
330
5
100
AcDbSymbolTableRecord
100
AcDbLinetypeTableRecord
  2
ByLayer
 70
     0
  3

 72
    65
 73
     0
 40
0.0
  0
LTYPE
  5
16
330
5
100
AcDbSymbolTableRecord
100
AcDbLinetypeTableRecord
  2
Continuous
 70
     0
  3
Solid line
 72
    65
 73
     0
 40
0.0
  0
LTYPE
  5
6E
330
5
100
AcDbSymbolTableRecord
100
AcDbLinetypeTableRecord
  2
HIDDEN
 70
     0
  3
Hidden __ __ __ __ __ __ __ __ __ __ __ __ __ __
 72
    65
 73
     2
 40
1.905
 49
1.27
 74
     0
 49
-0.635
 74
     0
  0
LTYPE
  5
6F
330
5
100
AcDbSymbolTableRecord
100
AcDbLinetypeTableRecord
  2
PHANTOM
 70
     0
  3
Phantom ______  __  __  ______  __  __  ______
 72
    65
 73
     6
 40
12.7
 49
6.35
 74
     0
 49
-1.27
 74
     0
 49
1.27
 74
     0
 49
-1.27
 74
     0
 49
1.27
 74
     0
 49
-1.27
 74
     0
  0
LTYPE
  5
70
330
5
100
AcDbSymbolTableRecord
100
AcDbLinetypeTableRecord
  2
CENTER
 70
     0
  3
Center ____ _ ____ _ ____ _ ____ _ ____ _ ____
 72
    65
 73
     4
 40
10.16
 49
6.35
 74
     0
 49
-1.27
 74
     0
 49
1.27
 74
     0
 49
-1.27
 74
     0
  0
LTYPE
  5
71
330
5
100
AcDbSymbolTableRecord
100
AcDbLinetypeTableRecord
  2
CENTERX2
 70
     0
  3
Center (2x) ________  __  ________  __  _____
 72
    65
 73
     4
 40
20.32
 49
12.7
 74
     0
 49
-2.54
 74
     0
 49
2.54
 74
     0
 49
-2.54
 74
     0
  0
LTYPE
  5
72
330
5
100
AcDbSymbolTableRecord
100
AcDbLinetypeTableRecord
  2
DOT2
 70
     0
  3
Dot (.5x) ........................................
 72
    65
 73
     2
 40
0.635
 49
0.0
 74
     0
 49
-0.635
 74
     0
  0
ENDTAB
  0
TABLE
  2
LAYER
  5
2
330
0
100
AcDbSymbolTable
 70
     5
  0
LAYER
  5
10
330
2
100
AcDbSymbolTableRecord
100
AcDbLayerTableRecord
  2
0
 70
     0
 62
     7
  6
Continuous
370
    -3
390
F
  0
LAYER
  5
73
330
2
100
AcDbSymbolTableRecord
100
AcDbLayerTableRecord
  2
FORMAT
 70
     0
 62
     7
  6
Continuous
370
    -3
390
F
  0
LAYER
  5
74
330
2
100
AcDbSymbolTableRecord
100
AcDbLayerTableRecord
  2
VERMASSUNG
 70
     0
 62
     7
  6
Continuous
370
    -3
390
F
  0
LAYER
  5
75
330
2
100
AcDbSymbolTableRecord
100
AcDbLayerTableRecord
  2
KOPF_DÜNN
 70
     0
 62
     7
  6
Continuous
370
    -3
390
F
  0
LAYER
  5
76
330
2
100
AcDbSymbolTableRecord
100
AcDbLayerTableRecord
  2
KOPF_DICK
 70
     0
 62
     7
  6
Continuous
370
    15
390
F
  0
ENDTAB
  0
TABLE
  2
STYLE
  5
3
330
0
100
AcDbSymbolTable
 70
     3
  0
STYLE
  5
11
330
3
100
AcDbSymbolTableRecord
100
AcDbTextStyleTableRecord
  2
Standard
 70
     0
 40
0.0
 41
1.0
 50
0.0
 71
     0
 42
2.0
  3
txt
  4

  0
STYLE
  5
77
330
3
100
AcDbSymbolTableRecord
100
AcDbTextStyleTableRecord
  2
SLDTEXTSTYLE0
 70
     0
 40
0.0
 41
0.7
 50
0.0
 71
     0
 42
2.0
  3
TXT
  4

  0
STYLE
  5
7B
330
3
100
AcDbSymbolTableRecord
100
AcDbTextStyleTableRecord
  2
SLDTEXTSTYLE1
 70
     0
 40
0.0
 41
0.6444444444
 50
0.0
 71
     0
 42
2.0
  3
TXT
  4

  0
ENDTAB
  0
TABLE
  2
VIEW
  5
6
330
0
100
AcDbSymbolTable
 70
     0
  0
ENDTAB
  0
TABLE
  2
UCS
  5
7
330
0
100
AcDbSymbolTable
 70
     0
  0
ENDTAB
  0
TABLE
  2
APPID
  5
9
330
0
100
AcDbSymbolTable
 70
     1
  0
APPID
  5
12
330
9
100
AcDbSymbolTableRecord
100
AcDbRegAppTableRecord
  2
ACAD
 70
     0
  0
ENDTAB
  0
TABLE
  2
DIMSTYLE
  5
A
330
0
100
AcDbSymbolTable
 70
     2
100
AcDbDimStyleTable
  0
DIMSTYLE
105
27
330
A
100
AcDbSymbolTableRecord
100
AcDbDimStyleTableRecord
  2
ISO-25
 70
     0
 41
2.5
 42
0.625
 43
3.75
 44
1.25
 73
     0
 74
     0
 77
     1
 78
     8
140
2.5
141
2.5
143
0.0393700787
147
0.625
171
     3
172
     1
178
     0
271
     2
272
     2
274
     3
278
    44
283
     0
284
     8
340
11
  0
DIMSTYLE
105
129
102
{ACAD_REACTORS
330
128
330
135
330
13F
330
149
330
153
102
}
330
A
100
AcDbSymbolTableRecord
100
AcDbDimStyleTableRecord
  2
SLDDIMSTYLE0
 70
     0
 41
3.0
 44
0.0
 45
0.000000001
 73
     0
 74
     0
 77
     1
 78
    12
 79
     3
140
2.0
147
0.5
173
     1
178
     0
271
     2
272
     3
276
     2
284
    12
340
77
  0
ENDTAB
  0
TABLE
  2
BLOCK_RECORD
  5
1
330
0
100
AcDbSymbolTable
 70
     6
  0
BLOCK_RECORD
  5
1F
330
1
100
AcDbSymbolTableRecord
100
AcDbBlockTableRecord
  2
*Model_Space
340
22
  0
BLOCK_RECORD
  5
1B
330
1
100
AcDbSymbolTableRecord
100
AcDbBlockTableRecord
  2
*Paper_Space
340
1E
  0
BLOCK_RECORD
  5
23
330
1
100
AcDbSymbolTableRecord
100
AcDbBlockTableRecord
  2
*Paper_Space0
340
26
  0
BLOCK_RECORD
  5
12A
330
1
100
AcDbSymbolTableRecord
100
AcDbBlockTableRecord
  2
_D
340
0
  0
BLOCK_RECORD
  5
136
330
1
100
AcDbSymbolTableRecord
100
AcDbBlockTableRecord
  2
_D_1
340
0
  0
BLOCK_RECORD
  5
140
330
1
100
AcDbSymbolTableRecord
100
AcDbBlockTableRecord
  2
_D_2
340
0
  0
BLOCK_RECORD
  5
14A
330
1
100
AcDbSymbolTableRecord
100
AcDbBlockTableRecord
  2
_D_3
340
0
  0
BLOCK_RECORD
  5
154
330
1
100
AcDbSymbolTableRecord
100
AcDbBlockTableRecord
  2
_D_4
340
0
  0
ENDTAB
  0
ENDSEC
  0
SECTION
  2
BLOCKS
  0
BLOCK
  5
20
330
1F
100
AcDbEntity
  8
0
100
AcDbBlockBegin
  2
*Model_Space
 70
     0
 10
0.0
 20
0.0
 30
0.0
  3
*Model_Space
  1

  0
ENDBLK
  5
21
330
1F
100
AcDbEntity
  8
0
100
AcDbBlockEnd
  0
BLOCK
  5
1C
330
1B
100
AcDbEntity
 67
     1
  8
0
100
AcDbBlockBegin
  2
*Paper_Space
 70
     0
 10
0.0
 20
0.0
 30
0.0
  3
*Paper_Space
  1

  0
ENDBLK
  5
1D
330
1B
100
AcDbEntity
 67
     1
  8
0
100
AcDbBlockEnd
  0
BLOCK
  5
24
330
23
100
AcDbEntity
  8
0
100
AcDbBlockBegin
  2
*Paper_Space0
 70
     0
 10
0.0
 20
0.0
 30
0.0
  3
*Paper_Space0
  1

  0
ENDBLK
  5
25
330
23
100
AcDbEntity
  8
0
100
AcDbBlockEnd
  0
BLOCK
  5
12B
330
12A
100
AcDbEntity
  8
0
100
AcDbBlockBegin
  2
_D
 70
     0
 10
0.0
 20
0.0
 30
0.0
  3
_D
  1

  0
SOLID
  5
12D
330
12A
100
AcDbEntity
  8
VERMASSUNG
100
AcDbTrace
 10
72.4701084602
 20
146.4528542094
 30
0.0
 11
72.0201084602
 21
143.4528542094
 31
0.0
 12
72.9201084602
 22
143.4528542094
 32
0.0
 13
72.9201084602
 23
143.4528542094
 33
0.0
  0
SOLID
  5
12E
330
12A
100
AcDbEntity
  8
VERMASSUNG
100
AcDbTrace
 10
72.4701084602
 20
83.4528542094
 30
0.0
 11
72.9201084602
 21
86.4528542094
 31
0.0
 12
72.0201084602
 22
86.4528542094
 32
0.0
 13
72.0201084602
 23
86.4528542094
 33
0.0
  0
LINE
  5
12F
330
12A
100
AcDbEntity
  8
VERMASSUNG
100
AcDbLine
 10
169.2471416465
 20
146.4528542094
 30
0.0
 11
71.4701084602
 21
146.4528542094
 31
0.0
  0
LINE
  5
130
330
12A
100
AcDbEntity
  8
VERMASSUNG
100
AcDbLine
 10
169.2471465645
 20
83.4528542094
 30
0.0
 11
71.4701084602
 21
83.4528542094
 31
0.0
  0
LINE
  5
131
330
12A
100
AcDbEntity
  8
VERMASSUNG
100
AcDbLine
 10
72.4701084602
 20
146.4528542094
 30
0.0
 11
72.4701084602
 21
83.4528542094
 31
0.0
  0
MTEXT
  5
132
330
12A
100
AcDbEntity
  8
VERMASSUNG
100
AcDbMText
 10
69.6919732039
 20
104.2483691425
 30
0.0
 40
2.0
 41
0.0
 71
     1
 72
     1
  1
MAS BT 40
  7
SLDTEXTSTYLE0
 11
-7.044195017643634E-15
 21
1.0
 31
0.0
 73
     1
 44
1.0
  0
MTEXT
  5
133
330
12A
100
AcDbEntity
  8
VERMASSUNG
100
AcDbMText
 10
69.8919731552
 20
119.2483688072
 30
0.0
 40
2.0
 41
0.0
 71
     1
 72
     1
  1
%%c
  7
SLDTEXTSTYLE0
 11
-7.044195017643634E-15
 21
1.0
 31
0.0
 73
     1
 44
1.0
  0
MTEXT
  5
134
330
12A
100
AcDbEntity
  8
VERMASSUNG
100
AcDbMText
 10
69.8919728642
 20
122.8579592558
 30
0.0
 40
2.0
 41
0.0
 71
     1
 72
     1
  1
63
  7
SLDTEXTSTYLE0
 11
-7.044195017643634E-15
 21
1.0
 31
0.0
 73
     1
 44
1.0
  0
ENDBLK
  5
12C
330
12A
100
AcDbEntity
  8
0
100
AcDbBlockEnd
  0
BLOCK
  5
137
330
136
100
AcDbEntity
  8
0
100
AcDbBlockBegin
  2
_D_1
 70
     0
 10
0.0
 20
0.0
 30
0.0
  3
_D_1
  1

  0
SOLID
  5
139
330
136
100
AcDbEntity
  8
VERMASSUNG
100
AcDbTrace
 10
79.8471457906
 20
162.5528542094
 30
0.0
 11
82.8471457906
 21
162.1028542094
 31
0.0
 12
82.8471457906
 22
163.0028542094
 32
0.0
 13
82.8471457906
 23
163.0028542094
 33
0.0
  0
SOLID
  5
13A
330
136
100
AcDbEntity
  8
VERMASSUNG
100
AcDbTrace
 10
197.2471457906
 20
162.5528542094
 30
0.0
 11
194.2471457906
 21
163.0028542094
 31
0.0
 12
194.2471457906
 22
162.1028542094
 32
0.0
 13
194.2471457906
 23
162.1028542094
 33
0.0
  0
LINE
  5
13B
330
136
100
AcDbEntity
  8
VERMASSUNG
100
AcDbLine
 10
79.8471457906
 20
126.7756098065
 30
0.0
 11
79.8471457906
 21
163.5528542094
 31
0.0
  0
LINE
  5
13C
330
136
100
AcDbEntity
  8
VERMASSUNG
100
AcDbLine
 10
197.2471457906
 20
128.4528542094
 30
0.0
 11
197.2471457906
 21
163.5528542094
 31
0.0
  0
LINE
  5
13D
330
136
100
AcDbEntity
  8
VERMASSUNG
100
AcDbLine
 10
79.8471457906
 20
162.5528542094
 30
0.0
 11
197.2471457906
 21
162.5528542094
 31
0.0
  0
MTEXT
  5
13E
330
136
100
AcDbEntity
  8
VERMASSUNG
100
AcDbMText
 10
135.74776577
 20
165.1309898054
 30
0.0
 40
2.0
 41
0.0
 71
     1
 72
     1
  1
117.4
  7
SLDTEXTSTYLE0
 73
     1
 44
1.0
  0
ENDBLK
  5
138
330
136
100
AcDbEntity
  8
0
100
AcDbBlockEnd
  0
BLOCK
  5
141
330
140
100
AcDbEntity
  8
0
100
AcDbBlockBegin
  2
_D_2
 70
     0
 10
0.0
 20
0.0
 30
0.0
  3
_D_2
  1

  0
SOLID
  5
143
330
140
100
AcDbEntity
  8
VERMASSUNG
100
AcDbTrace
 10
145.2471457906
 20
156.5528542094
 30
0.0
 11
148.2471457906
 21
156.1028542094
 31
0.0
 12
148.2471457906
 22
157.0028542094
 32
0.0
 13
148.2471457906
 23
157.0028542094
 33
0.0
  0
SOLID
  5
144
330
140
100
AcDbEntity
  8
VERMASSUNG
100
AcDbTrace
 10
197.2471457906
 20
156.5528542094
 30
0.0
 11
194.2471457906
 21
157.0028542094
 31
0.0
 12
194.2471457906
 22
156.1028542094
 32
0.0
 13
194.2471457906
 23
156.1028542094
 33
0.0
  0
LINE
  5
145
330
140
100
AcDbEntity
  8
VERMASSUNG
100
AcDbLine
 10
145.2471457906
 20
137.1778542094
 30
0.0
 11
145.2471457906
 21
157.5528542094
 31
0.0
  0
LINE
  5
146
330
140
100
AcDbEntity
  8
VERMASSUNG
100
AcDbLine
 10
197.2471457906
 20
128.4528542094
 30
0.0
 11
197.2471457906
 21
157.5528542094
 31
0.0
  0
LINE
  5
147
330
140
100
AcDbEntity
  8
VERMASSUNG
100
AcDbLine
 10
145.2471457906
 20
156.5528542094
 30
0.0
 11
197.2471457906
 21
156.5528542094
 31
0.0
  0
MTEXT
  5
148
330
140
100
AcDbEntity
  8
VERMASSUNG
100
AcDbMText
 10
169.8474557803
 20
159.1309898054
 30
0.0
 40
2.0
 41
0.0
 71
     1
 72
     1
  1
52
  7
SLDTEXTSTYLE0
 73
     1
 44
1.0
  0
ENDBLK
  5
142
330
140
100
AcDbEntity
  8
0
100
AcDbBlockEnd
  0
BLOCK
  5
14B
330
14A
100
AcDbEntity
  8
0
100
AcDbBlockBegin
  2
_D_3
 70
     0
 10
0.0
 20
0.0
 30
0.0
  3
_D_3
  1

  0
SOLID
  5
14D
330
14A
100
AcDbEntity
  8
VERMASSUNG
100
AcDbTrace
 10
172.2471457906
 20
150.5528542094
 30
0.0
 11
175.2471457906
 21
150.1028542094
 31
0.0
 12
175.2471457906
 22
151.0028542094
 32
0.0
 13
175.2471457906
 23
151.0028542094
 33
0.0
  0
SOLID
  5
14E
330
14A
100
AcDbEntity
  8
VERMASSUNG
100
AcDbTrace
 10
197.2471457906
 20
150.5528542094
 30
0.0
 11
194.2471457906
 21
151.0028542094
 31
0.0
 12
194.2471457906
 22
150.1028542094
 32
0.0
 13
194.2471457906
 23
150.1028542094
 33
0.0
  0
LINE
  5
14F
330
14A
100
AcDbEntity
  8
VERMASSUNG
100
AcDbLine
 10
172.2471457906
 20
145.4528542094
 30
0.0
 11
172.2471457906
 21
151.5528542094
 31
0.0
  0
LINE
  5
150
330
14A
100
AcDbEntity
  8
VERMASSUNG
100
AcDbLine
 10
197.2471457906
 20
130.6528542094
 30
0.0
 11
197.2471457906
 21
151.5528542094
 31
0.0
  0
LINE
  5
151
330
14A
100
AcDbEntity
  8
VERMASSUNG
100
AcDbLine
 10
172.2471457906
 20
150.5528542094
 30
0.0
 11
197.2471457906
 21
150.5528542094
 31
0.0
  0
MTEXT
  5
152
330
14A
100
AcDbEntity
  8
VERMASSUNG
100
AcDbMText
 10
183.3474557803
 20
153.1309898054
 30
0.0
 40
2.0
 41
0.0
 71
     1
 72
     1
  1
25
  7
SLDTEXTSTYLE0
 73
     1
 44
1.0
  0
ENDBLK
  5
14C
330
14A
100
AcDbEntity
  8
0
100
AcDbBlockEnd
  0
BLOCK
  5
155
330
154
100
AcDbEntity
  8
0
100
AcDbBlockBegin
  2
_D_4
 70
     0
 10
0.0
 20
0.0
 30
0.0
  3
_D_4
  1

  0
SOLID
  5
157
330
154
100
AcDbEntity
  8
VERMASSUNG
100
AcDbTrace
 10
204.7958316222
 20
130.9528542094
 30
0.0
 11
204.3458316222
 21
127.9528542094
 31
0.0
 12
205.2458316222
 22
127.9528542094
 32
0.0
 13
205.2458316222
 23
127.9528542094
 33
0.0
  0
SOLID
  5
158
330
154
100
AcDbEntity
  8
VERMASSUNG
100
AcDbTrace
 10
204.7958316222
 20
98.9528542094
 30
0.0
 11
205.2458316222
 21
101.9528542094
 31
0.0
 12
204.3458316222
 22
101.9528542094
 32
0.0
 13
204.3458316222
 23
101.9528542094
 33
0.0
  0
LINE
  5
159
330
154
100
AcDbEntity
  8
VERMASSUNG
100
AcDbLine
 10
196.9471457906
 20
130.9528542094
 30
0.0
 11
205.7958316222
 21
130.9528542094
 31
0.0
  0
LINE
  5
15A
330
154
100
AcDbEntity
  8
VERMASSUNG
100
AcDbLine
 10
196.9471457906
 20
98.9528542094
 30
0.0
 11
205.7958316222
 21
98.9528542094
 31
0.0
  0
LINE
  5
15B
330
154
100
AcDbEntity
  8
VERMASSUNG
100
AcDbLine
 10
204.7958316222
 20
130.9528542094
 30
0.0
 11
204.7958316222
 21
98.9528542094
 31
0.0
  0
MTEXT
  5
15C
330
154
100
AcDbEntity
  8
VERMASSUNG
100
AcDbMText
 10
202.017696366
 20
108.5478545659
 30
0.0
 40
2.0
 41
0.0
 71
     1
 72
     1
  1
MBM
  7
SLDTEXTSTYLE0
 11
-7.044195017643634E-15
 21
1.0
 31
0.0
 73
     1
 44
1.0
  0
MTEXT
  5
15D
330
154
100
AcDbEntity
  8
VERMASSUNG
100
AcDbMText
 10
202.2176963173
 20
114.9478544042
 30
0.0
 40
2.0
 41
0.0
 71
     1
 72
     1
  1
%%c
  7
SLDTEXTSTYLE0
 11
-7.044195017643634E-15
 21
1.0
 31
0.0
 73
     1
 44
1.0
  0
MTEXT
  5
15E
330
154
100
AcDbEntity
  8
VERMASSUNG
100
AcDbMText
 10
202.017696366
 20
118.5578548842
 30
0.0
 40
2.0
 41
0.0
 71
     1
 72
     1
  1
32
  7
SLDTEXTSTYLE0
 11
-7.044195017643634E-15
 21
1.0
 31
0.0
 73
     1
 44
1.0
  0
ENDBLK
  5
156
330
154
100
AcDbEntity
  8
0
100
AcDbBlockEnd
  0
ENDSEC
  0
SECTION
  2
ENTITIES
  0
MTEXT
  5
78
330
1F
100
AcDbEntity
  8
KOPF_DÜNN
100
AcDbMText
 10
13.8892156294
 20
23.8442973028
 30
0.0
 40
3.0
 41
0.0
 71
     1
 72
     1
  1
102.412.321
  7
SLDTEXTSTYLE0
 73
     1
 44
1.0
  0
MTEXT
  5
79
330
1F
100
AcDbEntity
  8
VERMASSUNG
100
AcDbMText
 10
13.9329988022
 20
28.8834360957
 30
0.0
 40
3.0
 41
0.0
 71
     1
 72
     1
  1
Aufnahme_Master shank
  7
SLDTEXTSTYLE0
 73
     1
 44
1.0
  0
MTEXT
  5
7A
330
1F
100
AcDbEntity
  8
VERMASSUNG
100
AcDbMText
 10
98.8601118557
 20
13.8365368761
 30
0.0
 40
2.0
 41
0.0
 71
     1
 72
     1
  1
Datum: 22.11.2007
  7
SLDTEXTSTYLE0
 73
     1
 44
1.0
  0
MTEXT
  5
7C
330
1F
100
AcDbEntity
  8
VERMASSUNG
100
AcDbMText
 10
13.933048693
 20
18.0482802738
 30
0.0
 40
2.0
 41
0.0
 71
     1
 72
     1
  1
MAS BT 40 / MBM 32
  7
SLDTEXTSTYLE1
 73
     1
 44
1.0
  0
MTEXT
  5
7D
330
1F
100
AcDbEntity
  8
VERMASSUNG
100
AcDbMText
 10
13.9808475933
 20
13.9090974274
 30
0.0
 40
2.0
 41
0.0
 71
     1
 72
     1
  1
Gewicht: 1089g
  7
SLDTEXTSTYLE0
 73
     1
 44
1.0
  0
LINE
  5
7E
330
1F
100
AcDbEntity
  8
0
  6
Continuous
 62
     7
370
    15
100
AcDbLine
 10
169.2473007916
 20
83.4528542094
 30
0.0
 11
171.2471457906
 21
83.4528542094
 31
0.0
  0
LINE
  5
7F
330
1F
100
AcDbEntity
  8
0
  6
Continuous
 62
     7
370
    15
100
AcDbLine
 10
171.2471457906
 20
146.4528542094
 30
0.0
 11
169.2466456205
 21
146.4528542094
 31
0.0
  0
ARC
  5
80
330
1F
100
AcDbEntity
  8
0
  6
Continuous
 62
     7
370
    15
100
AcDbCircle
 10
171.2471457906
 20
84.4528542094
 30
0.0
 40
1.0
100
AcDbArc
 50
270.0
 51
0.0
  0
ARC
  5
81
330
1F
100
AcDbEntity
  8
0
  6
Continuous
 62
     7
370
    15
100
AcDbCircle
 10
171.2471457906
 20
145.4528542094
 30
0.0
 40
1.0
100
AcDbArc
 50
0.0
 51
90.0
  0
ARC
  5
82
330
1F
100
AcDbEntity
  8
0
  6
Continuous
 62
     7
370
    15
100
AcDbCircle
 10
146.2471457906
 20
91.7278542094
 30
0.0
 40
1.00000000000002
100
AcDbArc
 50
46.4335458266
 51
90.0
  0
ARC
  5
83
330
1F
100
AcDbEntity
  8
0
  6
Continuous
 62
     7
370
    15
100
AcDbCircle
 10
146.2471457906
 20
138.1778542094
 30
0.0
 40
1.00000000000001
100
AcDbArc
 50
270.0
 51
313.5375690129
  0
LINE
  5
84
330
1F
100
AcDbEntity
  8
0
  6
Continuous
 62
     7
370
    15
100
AcDbLine
 10
145.2471457906
 20
137.1778542094
 30
0.0
 11
80.7028388975
 21
127.7651427875
 31
0.0
  0
LINE
  5
85
330
1F
100
AcDbEntity
  8
0
  6
Continuous
 62
     7
370
    15
100
AcDbLine
 10
80.7028388975
 20
102.1405656314
 30
0.0
 11
145.2471457906
 21
92.7278542094
 31
0.0
  0
LINE
  5
86
330
1F
100
AcDbEntity
  8
0
  6
Continuous
 62
     7
370
    15
100
AcDbLine
 10
145.2471457906
 20
92.7278542094
 30
0.0
 11
146.2471457906
 21
92.7278542094
 31
0.0
  0
LINE
  5
87
330
1F
100
AcDbEntity
  8
0
  6
Continuous
 62
     7
370
    15
100
AcDbLine
 10
146.2471457906
 20
137.1778542094
 30
0.0
 11
145.2471457906
 21
137.1778542094
 31
0.0
  0
ARC
  5
88
330
1F
100
AcDbEntity
  8
0
  6
Continuous
 62
     7
370
    15
100
AcDbCircle
 10
176.2471457906
 20
94.9528542094
 30
0.0
 40
4.0
100
AcDbArc
 50
90.0
 51
180.0
  0
ARC
  5
89
330
1F
100
AcDbEntity
  8
0
  6
Continuous
 62
     7
370
    15
100
AcDbCircle
 10
176.2471457906
 20
134.9528542094
 30
0.0
 40
4.0
100
AcDbArc
 50
180.0
 51
270.0
  0
LINE
  5
8A
330
1F
100
AcDbEntity
  8
0
  6
Continuous
 62
     7
370
    15
100
AcDbLine
 10
176.2471457906
 20
98.9528542094
 30
0.0
 11
196.9471457906
 21
98.9528542094
 31
0.0
  0
LINE
  5
8B
330
1F
100
AcDbEntity
  8
0
  6
Continuous
 62
     7
370
    15
100
AcDbLine
 10
196.9471457906
 20
130.9528542094
 30
0.0
 11
176.2471457906
 21
130.9528542094
 31
0.0
  0
LINE
  5
8C
330
1F
100
AcDbEntity
  8
0
  6
Continuous
 62
     7
370
    15
100
AcDbLine
 10
196.9471457906
 20
98.9528542094
 30
0.0
 11
197.2471457906
 21
99.2528542094
 31
0.0
  0
LINE
  5
8D
330
1F
100
AcDbEntity
  8
0
  6
Continuous
 62
     7
370
    15
100
AcDbLine
 10
197.2471457906
 20
130.6528542094
 30
0.0
 11
196.9471457906
 21
130.9528542094
 31
0.0
  0
ARC
  5
8E
330
1F
100
AcDbEntity
  8
0
  6
Continuous
 62
     7
370
    15
100
AcDbCircle
 10
80.8471457906
 20
103.1300986124
 30
0.0
 40
1.00000000000001
100
AcDbArc
 50
180.0
 51
261.7028550302
  0
ARC
  5
8F
330
1F
100
AcDbEntity
  8
0
  6
Continuous
 62
     7
370
    15
100
AcDbCircle
 10
80.8471457906
 20
126.7756098065
 30
0.0
 40
1.00000000000001
100
AcDbArc
 50
98.2971449698
 51
180.0
  0
SPLINE
  5
90
330
1F
100
AcDbEntity
  8
0
  6
Continuous
 62
     7
370
    15
100
AcDbSpline
210
0.0
220
0.0
230
1.0
 70
    24
 71
     3
 72
    11
 73
     7
 74
     0
 42
0.000000001
 43
0.00000001
 40
0.0
 40
0.0
 40
0.0
 40
0.0
 40
0.1323877169514931
 40
0.4819434960836227
 40
0.8154866441480935
 40
0.9999999999999999
 40
0.9999999999999999
 40
0.9999999999999999
 40
0.9999999999999999
 10
190.2553326139675
 20
115.027733589485
 30
0.0
 10
190.210142113241
 20
114.9432481734573
 30
0.0
 10
190.0456308699668
 20
114.6356879427496
 30
0.0
 10
189.7380121293614
 20
114.0605826250363
 30
0.0
 10
189.4069536917241
 20
113.4416558730953
 30
0.0
 10
189.2293446795306
 20
113.10960884896
 30
0.0
 10
189.1660866475946
 20
112.991345473709
 30
0.0
  0
SPLINE
  5
91
330
1F
100
AcDbEntity
  8
0
  6
Continuous
 62
     7
370
    15
100
AcDbSpline
210
0.0
220
0.0
230
1.0
 70
    24
 71
     3
 72
    10
 73
     6
 74
     0
 42
0.000000001
 43
0.00000001
 40
0.0
 40
0.0
 40
0.0
 40
0.0
 40
0.4391222274230506
 40
0.7513714712594619
 40
1.0
 40
1.0
 40
1.0
 40
1.0
 10
189.0363917569273
 20
116.9892423252216
 30
0.0
 10
189.2108949947392
 20
116.7084332741464
 30
0.0
 10
189.5094832837076
 20
116.227947667468
 30
0.0
 10
189.9435305218512
 20
115.5294827301219
 30
0.0
 10
190.1595669660721
 20
115.1818388143984
 30
0.0
 10
190.2553326139675
 20
115.027733589485
 30
0.0
  0
SPLINE
  5
92
330
1F
100
AcDbEntity
  8
0
  6
Continuous
 62
     7
370
    15
100
AcDbSpline
210
0.0
220
0.0
230
1.0
 70
    24
 71
     3
 72
    10
 73
     6
 74
     0
 42
0.000000001
 43
0.00000001
 40
0.0
 40
0.0
 40
0.0
 40
0.0
 40
0.4391222274230415
 40
0.7513714712594567
 40
1.0
 40
1.0
 40
1.0
 40
1.0
 10
186.7282049335141
 20
116.9143629451823
 30
0.0
 10
187.0586443242638
 20
116.9250826566324
 30
0.0
 10
187.6240512102843
 20
116.9434248968123
 30
0.0
 10
188.4459632087505
 20
116.9700883628142
 30
0.0
 10
188.8550498933486
 20
116.983359453791
 30
0.0
 10
189.0363917569273
 20
116.9892423252216
 30
0.0
  0
SPLINE
  5
93
330
1F
100
AcDbEntity
  8
0
  6
Continuous
 62
     7
370
    15
100
AcDbSpline
210
0.0
220
0.0
230
1.0
 70
    24
 71
     3
 72
    11
 73
     7
 74
     0
 42
0.000000001
 43
0.00000001
 40
0.0
 40
0.0
 40
0.0
 40
0.0
 40
0.1845133558519117
 40
0.51805650391639
 40
0.8676122830484985
 40
1.0
 40
1.0
 40
1.0
 40
1.0
 10
185.6389589671412
 20
114.8779748294064
 30
0.0
 10
185.7022169990772
 20
114.9962382046573
 30
0.0
 10
185.8798260112707
 20
115.3282852287928
 30
0.0
 10
186.210884448908
 20
115.9472119807337
 30
0.0
 10
186.5185031895134
 20
116.522317298447
 30
0.0
 10
186.6830144327876
 20
116.8298775291546
 30
0.0
 10
186.7282049335141
 20
116.9143629451823
 30
0.0
  0
SPLINE
  5
94
330
1F
100
AcDbEntity
  8
0
  6
Continuous
 62
     7
370
    15
100
AcDbSpline
210
0.0
220
0.0
230
1.0
 70
    24
 71
     3
 72
    10
 73
     6
 74
     0
 42
0.000000001
 43
0.00000001
 40
0.0
 40
0.0
 40
0.0
 40
0.0
 40
0.4391222274230524
 40
0.7513714712594652
 40
1.0
 40
1.0
 40
1.0
 40
1.0
 10
186.8578998241814
 20
112.9164660936697
 30
0.0
 10
186.6833965863696
 20
113.1972751447449
 30
0.0
 10
186.3848082974012
 20
113.6777607514234
 30
0.0
 10
185.9507610592575
 20
114.3762256887694
 30
0.0
 10
185.7347246150366
 20
114.7238696044929
 30
0.0
 10
185.6389589671412
 20
114.8779748294064
 30
0.0
  0
SPLINE
  5
95
330
1F
100
AcDbEntity
  8
0
  6
Continuous
 62
     7
370
    15
100
AcDbSpline
210
0.0
220
0.0
230
1.0
 70
    24
 71
     3
 72
    10
 73
     6
 74
     0
 42
0.000000001
 43
0.00000001
 40
0.0
 40
0.0
 40
0.0
 40
0.0
 40
0.4391222274230464
 40
0.7513714712594665
 40
1.0
 40
1.0
 40
1.0
 40
1.0
 10
189.1660866475946
 20
112.991345473709
 30
0.0
 10
188.835647256845
 20
112.9806257622589
 30
0.0
 10
188.2702403708245
 20
112.9622835220789
 30
0.0
 10
187.4483283723582
 20
112.9356200560771
 30
0.0
 10
187.0392416877601
 20
112.9223489651003
 30
0.0
 10
186.8578998241814
 20
112.9164660936697
 30
0.0
  0
CIRCLE
  5
96
330
1F
100
AcDbEntity
  8
0
  6
Continuous
 62
     7
370
    15
100
AcDbCircle
 10
187.9471457906
 20
114.9528542094
 30
0.0
 40
2.349999999999975
  0
CIRCLE
  5
97
330
1F
100
AcDbEntity
  8
0
  6
Continuous
 62
     7
370
    15
100
AcDbCircle
 10
187.9471457906
 20
114.9528542094
 30
0.0
 40
3.499999999999996
  0
CIRCLE
  5
98
330
1F
100
AcDbEntity
  8
0
  6
Continuous
 62
     7
370
    15
100
AcDbCircle
 10
187.9471457906
 20
114.9528542094
 30
0.0
 40
4.000000000000009
  0
ARC
  5
99
330
1F
100
AcDbEntity
  8
0
  6
Continuous
 62
     7
370
    15
100
AcDbCircle
 10
187.9471457906
 20
114.9528542094
 30
0.0
 40
1.999999999999997
100
AcDbArc
 50
271.8580681258
 51
331.8580681258
  0
ARC
  5
9A
330
1F
100
AcDbEntity
  8
0
  6
Continuous
 62
     7
370
    15
100
AcDbCircle
 10
187.9471457906
 20
114.9528542094
 30
0.0
 40
2.000000000000006
100
AcDbArc
 50
211.8580681258
 51
271.8580681258
  0
ARC
  5
9B
330
1F
100
AcDbEntity
  8
0
  6
Continuous
 62
     7
370
    15
100
AcDbCircle
 10
187.9471457906
 20
114.9528542094
 30
0.0
 40
2.000000000000027
100
AcDbArc
 50
31.8580681258
 51
91.8580681258
  0
ARC
  5
9C
330
1F
100
AcDbEntity
  8
0
  6
Continuous
 62
     7
370
    15
100
AcDbCircle
 10
187.9471457906
 20
114.9528542094
 30
0.0
 40
1.999999999999998
100
AcDbArc
 50
331.8580681258
 51
31.8580681258
  0
ARC
  5
9D
330
1F
100
AcDbEntity
  8
0
  6
Continuous
 62
     7
370
    15
100
AcDbCircle
 10
187.9471457906
 20
114.9528542094
 30
0.0
 40
2.00000000000002
100
AcDbArc
 50
151.8580681258
 51
211.8580681258
  0
ARC
  5
9E
330
1F
100
AcDbEntity
  8
0
  6
Continuous
 62
     7
370
    15
100
AcDbCircle
 10
187.9471457906
 20
114.9528542094
 30
0.0
 40
2.000000000000027
100
AcDbArc
 50
91.8580681258
 51
151.8580681258
  0
SPLINE
  5
9F
330
1F
100
AcDbEntity
  8
0
  6
Continuous
 62
     7
370
    15
100
AcDbSpline
210
0.0
220
0.0
230
1.0
 70
     8
 71
     3
 72
    11
 73
     7
 74
     0
 42
0.000000001
 43
0.00000001
 40
0.0
 40
0.0
 40
0.0
 40
0.0
 40
0.2488814606694497
 40
0.5011921284373979
 40
0.7520447562609068
 40
1.0
 40
1.0
 40
1.0
 40
1.0
 10
169.2466456205374
 20
146.4527044640391
 30
0.0
 10
169.216867291051
 20
146.4435724378947
 30
0.0
 10
169.1569003320961
 20
146.4251825602078
 30
0.0
 10
168.6649782703025
 20
146.2811453117216
 30
0.0
 10
167.9369088476617
 20
146.0717422336116
 30
0.0
 10
167.2261653764971
 20
145.8995379642613
 30
0.0
 10
166.8728578593633
 20
145.8139359639441
 30
0.0
  0
SPLINE
  5
A0
330
1F
100
AcDbEntity
  8
0
  6
Continuous
 62
     7
370
    15
100
AcDbSpline
210
0.0
220
0.0
230
1.0
 70
     8
 71
     3
 72
    24
 73
    20
 74
     0
 42
0.000000001
 43
0.00000001
 40
0.0
 40
0.0
 40
0.0
 40
0.0
 40
0.0452304145290689
 40
0.090335425491637
 40
0.1353632524162168
 40
0.1803623629332637
 40
0.2253813173993477
 40
0.2704686120303695
 40
0.3156725230665502
 40
0.3610409544534444
 40
0.4066212913931768
 40
0.452460261907264
 40
0.4986038082701546
 40
0.5832834063330666
 40
0.6671222514937118
 40
0.7504134308394846
 40
0.8334558303873757
 40
0.9165510207006325
 40
1.0
 40
1.0
 40
1.0
 40
1.0
 10
166.8727644839721
 20
84.09175618991011
 30
0.0
 10
166.9404682258821
 20
84.0759971488903
 30
0.0
 10
167.0756879977215
 20
84.04452275957306
 30
0.0
 10
167.2683497145773
 20
83.99806195622932
 30
0.0
 10
167.4530865862393
 20
83.95243097659397
 30
0.0
 10
167.6292045275394
 20
83.90780567915918
 30
0.0
 10
167.7968883201564
 20
83.86431839255945
 30
0.0
 10
167.9560878044458
 20
83.8221173447639
 30
0.0
 10
168.1068159429337
 20
83.78135075244734
 30
0.0
 10
168.2490688963273
 20
83.74217099986542
 30
0.0
 10
168.3828476515402
 20
83.70473370797752
 30
0.0
 10
168.5081515619246
 20
83.66919712434206
 30
0.0
 10
168.6572001116908
 20
83.62649510886844
 30
0.0
 10
168.8179656890488
 20
83.5799864178363
 30
0.0
 10
168.9738917738496
 20
83.53432652764012
 30
0.0
 10
169.0955167917764
 20
83.49829625893082
 30
0.0
 10
169.1819925209981
 20
83.47241473398323
 30
0.0
 10
169.2364114283458
 20
83.45597865745921
 30
0.0
 10
169.2435599699278
 20
83.45389729887131
 30
0.0
 10
169.2471418335252
 20
83.4528544088673
 30
0.0
  0
LINE
  5
A1
330
1F
100
AcDbEntity
  8
0
  6
Continuous
 62
     7
370
    15
100
AcDbLine
 10
166.8721457906
 20
84.0917561899
 30
0.0
 11
166.8721457906
 21
145.8139359639
 31
0.0
  0
SPLINE
  5
A2
330
1F
100
AcDbEntity
  8
0
  6
Continuous
 62
     7
370
    15
100
AcDbSpline
210
0.0
220
0.0
230
1.0
 70
     8
 71
     3
 72
    10
 73
     6
 74
     0
 42
0.000000001
 43
0.00000001
 40
0.0
 40
0.0
 40
0.0
 40
0.0
 40
0.5
 40
0.5
 40
1.0
 40
1.0
 40
1.0
 40
1.0
 10
166.2237541945999
 20
144.8573149307997
 30
0.0
 10
165.9076503634605
 20
144.2374523725226
 30
0.0
 10
165.5778713191157
 20
143.5915516372237
 30
0.0
 10
164.9056480467268
 20
142.2771329969232
 30
0.0
 10
164.5635148807963
 20
141.6092107699109
 30
0.0
 10
164.2163345522821
 20
140.9328730374295
 30
0.0
  0
SPLINE
  5
A3
330
1F
100
AcDbEntity
  8
0
  6
Continuous
 62
     7
370
    15
100
AcDbSpline
210
0.0
220
0.0
230
1.0
 70
     8
 71
     3
 72
     9
 73
     5
 74
     0
 42
0.000000001
 43
0.00000001
 40
0.0
 40
0.0
 40
0.0
 40
0.0
 40
0.5067595796306674
 40
1.0
 40
1.0
 40
1.0
 40
1.0
 10
166.872776333539
 20
145.8149893167946
 30
0.0
 10
166.762375985757
 20
145.6529143784627
 30
0.0
 10
166.5445205130248
 20
145.3330882817365
 30
0.0
 10
166.3299274108107
 20
145.0147403020863
 30
0.0
 10
166.2240814188662
 20
144.8577182107799
 30
0.0
  0
SPLINE
  5
A4
330
1F
100
AcDbEntity
  8
0
  6
Continuous
 62
     7
370
    15
100
AcDbSpline
210
0.0
220
0.0
230
1.0
 70
     8
 71
     3
 72
     9
 73
     5
 74
     0
 42
0.000000001
 43
0.00000001
 40
0.0
 40
0.0
 40
0.0
 40
0.0
 40
0.4932426507672939
 40
1.0
 40
1.0
 40
1.0
 40
1.0
 10
166.2240675038434
 20
85.04798810774084
 30
0.0
 10
166.329913608969
 20
84.89096486791344
 30
0.0
 10
166.5445059702764
 20
84.57261599929242
 30
0.0
 10
166.7623602582424
 20
84.25278995257624
 30
0.0
 10
166.872759519731
 20
84.09071575292676
 30
0.0
  0
SPLINE
  5
A5
330
1F
100
AcDbEntity
  8
0
  6
Continuous
 62
     7
370
    15
100
AcDbSpline
210
0.0
220
0.0
230
1.0
 70
     8
 71
     3
 72
    10
 73
     6
 74
     0
 42
0.000000001
 43
0.00000001
 40
0.0
 40
0.0
 40
0.0
 40
0.0
 40
0.5
 40
0.5
 40
1.0
 40
1.0
 40
1.0
 40
1.0
 10
166.2237482749321
 20
85.04840509624057
 30
0.0
 10
165.907569172258
 20
85.6684152482543
 30
0.0
 10
165.577126945091
 20
86.31561331412199
 30
0.0
 10
164.9054154244083
 20
87.62902923871577
 30
0.0
 10
164.5634415493763
 20
88.29664050501856
 30
0.0
 10
164.2163345522821
 20
88.97283538146172
 30
0.0
  0
LINE
  5
A6
330
1F
100
AcDbEntity
  8
0
  6
Continuous
 62
     7
370
    15
100
AcDbLine
 10
172.2471457906
 20
84.4528542094
 30
0.0
 11
172.2471457906
 21
145.4528542094
 31
0.0
  0
LINE
  5
A7
330
1F
100
AcDbEntity
  8
0
  6
Continuous
 62
     7
370
    15
100
AcDbLine
 10
156.8221457906
 20
145.1892443124
 30
0.0
 11
148.2471457906
 21
145.1892443124
 31
0.0
  0
LINE
  5
A8
330
1F
100
AcDbEntity
  8
0
  6
Continuous
 62
     7
370
    15
100
AcDbLine
 10
156.8221457906
 20
84.7164641064
 30
0.0
 11
156.8221457906
 21
145.1892443124
 31
0.0
  0
LINE
  5
A9
330
1F
100
AcDbEntity
  8
0
  6
Continuous
 62
     7
370
    15
100
AcDbLine
 10
148.2471457906
 20
84.7164641064
 30
0.0
 11
156.8221457906
 21
84.7164641064
 31
0.0
  0
LINE
  5
AA
330
1F
100
AcDbEntity
  8
0
  6
Continuous
 62
     7
370
    15
100
AcDbLine
 10
147.2471457906
 20
85.826448664
 30
0.0
 11
147.2471457906
 21
144.0792597549
 31
0.0
  0
SPLINE
  5
AB
330
1F
100
AcDbEntity
  8
0
  6
Continuous
 62
     7
370
    15
100
AcDbSpline
210
0.0
220
0.0
230
1.0
 70
     8
 71
     3
 72
    12
 73
     8
 74
     0
 42
0.000000001
 43
0.00000001
 40
0.0
 40
0.0
 40
0.0
 40
0.0
 40
0.2499999999999997
 40
0.2499999999999997
 40
0.4999999999999993
 40
0.4999999999999993
 40
1.0
 40
1.0
 40
1.0
 40
1.0
 10
147.6341786135199
 20
145.0198441092666
 30
0.0
 10
147.5823178623319
 20
144.9630315369521
 30
0.0
 10
147.5335860653129
 20
144.9010393507003
 30
0.0
 10
147.4434130553955
 20
144.7649862775763
 30
0.0
 10
147.4016358071105
 20
144.6900801749776
 30
0.0
 10
147.2955469372646
 20
144.4519535396802
 30
0.0
 10
147.2471457905544
 20
144.2685468081114
 30
0.0
 10
147.2471457905544
 20
144.0792597549296
 30
0.0
  0
SPLINE
  5
AC
330
1F
100
AcDbEntity
  8
0
  6
Continuous
 62
     7
370
    15
100
AcDbSpline
210
0.0
220
0.0
230
1.0
 70
     8
 71
     3
 72
     8
 73
     4
 74
     0
 42
0.000000001
 43
0.00000001
 40
0.0
 40
0.0
 40
0.0
 40
0.0
 40
1.0
 40
1.0
 40
1.0
 40
1.0
 10
148.2471457905544
 20
145.1892443124474
 30
0.0
 10
148.0208014769546
 20
145.1892443124474
 30
0.0
 10
147.8033493565494
 20
145.1258758434265
 30
0.0
 10
147.6341786135199
 20
145.0198441092666
 30
0.0
  0
SPLINE
  5
AD
330
1F
100
AcDbEntity
  8
0
  6
Continuous
 62
     7
370
    15
100
AcDbSpline
210
0.0
220
0.0
230
1.0
 70
     8
 71
     3
 72
     8
 73
     4
 74
     0
 42
0.000000001
 43
0.00000001
 40
0.0
 40
0.0
 40
0.0
 40
0.0
 40
1.0
 40
1.0
 40
1.0
 40
1.0
 10
147.6341786135199
 20
84.88586430962465
 30
0.0
 10
147.8037721191719
 20
84.77956759906745
 30
0.0
 10
148.0201408115051
 20
84.71646410644377
 30
0.0
 10
148.2471457905544
 20
84.71646410644377
 30
0.0
  0
SPLINE
  5
AE
330
1F
100
AcDbEntity
  8
0
  6
Continuous
 62
     7
370
    15
100
AcDbSpline
210
0.0
220
0.0
230
1.0
 70
     8
 71
     3
 72
    12
 73
     8
 74
     0
 42
0.000000001
 43
0.00000001
 40
0.0
 40
0.0
 40
0.0
 40
0.0
 40
0.2500000000000004
 40
0.2500000000000004
 40
0.5000000000000009
 40
0.5000000000000009
 40
1.0
 40
1.0
 40
1.0
 40
1.0
 10
147.6341786135199
 20
84.88586430962464
 30
0.0
 10
147.5823178623319
 20
84.94267688193904
 30
0.0
 10
147.5335860653129
 20
85.00466906819085
 30
0.0
 10
147.4434130553955
 20
85.14072214131485
 30
0.0
 10
147.4016358071105
 20
85.21562824391357
 30
0.0
 10
147.2955469372646
 20
85.45375487921098
 30
0.0
 10
147.2471457905544
 20
85.63716161077976
 30
0.0
 10
147.2471457905544
 20
85.82644866396161
 30
0.0
  0
SPLINE
  5
AF
330
1F
100
AcDbEntity
  8
0
  6
Continuous
 62
     7
370
    15
100
AcDbSpline
210
0.0
220
0.0
230
1.0
 70
     8
 71
     3
 72
     8
 73
     4
 74
     0
 42
0.000000001
 43
0.00000001
 40
0.0
 40
0.0
 40
0.0
 40
0.0
 40
0.0012389803509652
 40
0.0012389803509652
 40
0.0012389803509652
 40
0.0012389803509652
 10
157.3797073340882
 20
144.406876932232
 30
0.0
 10
157.1945873609554
 20
144.667926913611
 30
0.0
 10
157.0087089131964
 20
144.9287085267301
 30
0.0
 10
156.8221457905544
 20
145.1892443124474
 30
0.0
  0
SPLINE
  5
B0
330
1F
100
AcDbEntity
  8
0
  6
Continuous
 62
     7
370
    15
100
AcDbSpline
210
0.0
220
0.0
230
1.0
 70
     8
 71
     3
 72
     8
 73
     4
 74
     0
 42
0.000000001
 43
0.00000001
 40
0.0
 40
0.0
 40
0.0
 40
0.0
 40
1.0
 40
1.0
 40
1.0
 40
1.0
 10
159.4779570288267
 20
140.6200998739106
 30
0.0
 10
158.7816636627851
 20
141.8840382420254
 30
0.0
 10
158.081868497594
 20
143.1460936875336
 30
0.0
 10
157.3797073340882
 20
144.406876932232
 30
0.0
  0
SPLINE
  5
B1
330
1F
100
AcDbEntity
  8
0
  6
Continuous
 62
     7
370
    15
100
AcDbSpline
210
0.0
220
0.0
230
1.0
 70
     8
 71
     3
 72
     8
 73
     4
 74
     0
 42
0.000000001
 43
0.00000001
 40
0.0
 40
0.0
 40
0.0
 40
0.0
 40
1.0
 40
1.0
 40
1.0
 40
1.0
 10
159.4779570288267
 20
89.28560854498053
 30
0.0
 10
158.7816388881687
 20
88.02162520503376
 30
0.0
 10
158.0818416960583
 20
86.7595666071818
 30
0.0
 10
157.3797073340882
 20
85.49883148665913
 30
0.0
  0
SPLINE
  5
B2
330
1F
100
AcDbEntity
  8
0
  6
Continuous
 62
     7
370
    15
100
AcDbSpline
210
0.0
220
0.0
230
1.0
 70
     8
 71
     3
 72
     8
 73
     4
 74
     0
 42
0.000000001
 43
0.00000001
 40
0.0
 40
0.0
 40
0.0
 40
0.0
 40
0.0012389803509652
 40
0.0012389803509652
 40
0.0012389803509652
 40
0.0012389803509652
 10
156.8221457905544
 20
84.71646410644377
 30
0.0
 10
157.0087089131964
 20
84.97699989216112
 30
0.0
 10
157.1945873609554
 20
85.23778150528013
 30
0.0
 10
157.3797073340882
 20
85.49883148665913
 30
0.0
  0
SPLINE
  5
B3
330
1F
100
AcDbEntity
  8
0
  6
Continuous
 62
     7
370
    15
100
AcDbSpline
210
0.0
220
0.0
230
1.0
 70
     8
 71
     3
 72
    12
 73
     8
 74
     0
 42
0.000000001
 43
0.00000001
 40
0.0
 40
0.0
 40
0.0
 40
0.0
 40
0.2499999999999998
 40
0.2499999999999998
 40
0.4999999999999996
 40
0.4999999999999996
 40
1.0
 40
1.0
 40
1.0
 40
1.0
 10
164.2163345522821
 20
140.9328730374295
 30
0.0
 10
164.1804304019456
 20
140.8629286032813
 30
0.0
 10
164.1378988498161
 20
140.7996772402235
 30
0.0
 10
164.0411045729761
 20
140.6846185853076
 30
0.0
 10
163.9860148947118
 20
140.6322900515956
 30
0.0
 10
163.8078816611579
 20
140.4985051485105
 30
0.0
 10
163.6705045691553
 20
140.4379573813523
 30
0.0
 10
163.5235142292553
 20
140.4187574329684
 30
0.0
  0
SPLINE
  5
B4
330
1F
100
AcDbEntity
  8
0
  6
Continuous
 62
     7
370
    15
100
AcDbSpline
210
0.0
220
0.0
230
1.0
 70
     8
 71
     3
 72
    12
 73
     8
 74
     0
 42
0.000000001
 43
0.00000001
 40
0.0
 40
0.0
 40
0.0
 40
0.0
 40
0.2499999999999966
 40
0.2499999999999966
 40
0.4999999999999931
 40
0.4999999999999931
 40
1.0
 40
1.0
 40
1.0
 40
1.0
 10
164.2163345522821
 20
88.9728353814617
 30
0.0
 10
164.1804304019456
 20
89.04277981560988
 30
0.0
 10
164.1378988498161
 20
89.1060311786677
 30
0.0
 10
164.0411045729761
 20
89.22108983358363
 30
0.0
 10
163.9860148947118
 20
89.2734183672956
 30
0.0
 10
163.8078816611578
 20
89.4072032703807
 30
0.0
 10
163.6705045691553
 20
89.46775103753885
 30
0.0
 10
163.5235142292553
 20
89.48695098592275
 30
0.0
  0
SPLINE
  5
B5
330
1F
100
AcDbEntity
  8
0
  6
Continuous
 62
     7
370
    15
100
AcDbSpline
210
0.0
220
0.0
230
1.0
 70
     8
 71
     3
 72
    10
 73
     6
 74
     0
 42
0.000000001
 43
0.00000001
 40
0.0
 40
0.0
 40
0.0
 40
0.0
 40
0.5
 40
0.5
 40
1.0
 40
1.0
 40
1.0
 40
1.0
 10
160.1707773518542
 20
140.2005768790251
 30
0.0
 10
160.0287600394073
 20
140.2005768790251
 30
0.0
 10
159.888312992545
 20
140.2410667312346
 30
0.0
 10
159.6467230732837
 20
140.3890025611738
 30
0.0
 10
159.5460456310304
 20
140.4965028371533
 30
0.0
 10
159.4779570288268
 20
140.6200998739103
 30
0.0
  0
SPLINE
  5
B6
330
1F
100
AcDbEntity
  8
0
  6
Continuous
 62
     7
370
    15
100
AcDbSpline
210
0.0
220
0.0
230
1.0
 70
     8
 71
     3
 72
    10
 73
     6
 74
     0
 42
0.000000001
 43
0.00000001
 40
0.0
 40
0.0
 40
0.0
 40
0.0
 40
0.5
 40
0.5
 40
1.0
 40
1.0
 40
1.0
 40
1.0
 10
160.1707773518542
 20
89.70513153986606
 30
0.0
 10
160.0299199873436
 20
89.70513153986606
 30
0.0
 10
159.8870858558694
 20
89.66402763404736
 30
0.0
 10
159.6468241650961
 20
89.51662974074642
 30
0.0
 10
159.5461178960166
 20
89.4093367599068
 30
0.0
 10
159.4779570288267
 20
89.28560854498055
 30
0.0
  0
LINE
  5
B7
330
1F
100
AcDbEntity
  8
0
  6
Continuous
 62
     7
370
    15
100
AcDbLine
 10
160.1971457906
 20
89.7051315399
 30
0.0
 11
160.1707773519
 21
89.7051315399
 31
0.0
  0
LINE
  5
B8
330
1F
100
AcDbEntity
  8
0
  6
Continuous
 62
     7
370
    15
100
AcDbLine
 10
160.1971457906
 20
140.200576879
 30
0.0
 11
160.1707773519
 21
140.200576879
 31
0.0
  0
SPLINE
  5
B9
330
1F
100
AcDbEntity
  8
0
  6
Continuous
 62
     7
370
    15
100
AcDbSpline
210
0.0
220
0.0
230
1.0
 70
     8
 71
     3
 72
    10
 73
     6
 74
     0
 42
0.000000001
 43
0.00000001
 40
0.0
 40
0.0
 40
0.0
 40
0.0
 40
0.5
 40
0.5
 40
1.0
 40
1.0
 40
1.0
 40
1.0
 10
163.5235142292546
 20
140.4187574329713
 30
0.0
 10
163.0015995048587
 20
140.3505846824632
 30
0.0
 10
162.4627483247493
 20
140.2959614175052
 30
0.0
 10
161.3513856827172
 20
140.2208655646139
 30
0.0
 10
160.7745449055211
 20
140.2005768790251
 30
0.0
 10
160.1971457905544
 20
140.2005768790251
 30
0.0
  0
SPLINE
  5
BA
330
1F
100
AcDbEntity
  8
0
  6
Continuous
 62
     7
370
    15
100
AcDbSpline
210
0.0
220
0.0
230
1.0
 70
     8
 71
     3
 72
    10
 73
     6
 74
     0
 42
0.000000001
 43
0.00000001
 40
0.0
 40
0.0
 40
0.0
 40
0.0
 40
0.5
 40
0.5
 40
1.0
 40
1.0
 40
1.0
 40
1.0
 10
163.5235142292546
 20
89.48695098591982
 30
0.0
 10
163.0015995048587
 20
89.55512373642802
 30
0.0
 10
162.4627483247493
 20
89.60974700138597
 30
0.0
 10
161.3513856827172
 20
89.6848428542773
 30
0.0
 10
160.7745449055211
 20
89.70513153986606
 30
0.0
 10
160.1971457905544
 20
89.70513153986606
 30
0.0
  0
SPLINE
  5
BB
330
1F
100
AcDbEntity
  8
0
  6
Continuous
 62
     7
370
    15
100
AcDbSpline
210
0.0
220
0.0
230
1.0
 70
     8
 71
     3
 72
    10
 73
     6
 74
     0
 42
0.000000001
 43
0.00000001
 40
0.0
 40
0.0
 40
0.0
 40
0.0
 40
0.2827732476144472
 40
0.9999939187415962
 40
1.0
 40
1.0
 40
1.0
 40
1.0
 10
147.0933217662874
 20
137.4528542094456
 30
0.0
 10
147.0721344128762
 20
137.4528542094499
 30
0.0
 10
146.997207860438
 20
137.452854209465
 30
0.0
 10
146.9064862815316
 20
137.4528542093196
 30
0.0
 10
146.9358951549523
 20
137.4528542094456
 30
0.0
 10
146.9358954043058
 20
137.4528542094456
 30
0.0
  0
SPLINE
  5
BC
330
1F
100
AcDbEntity
  8
0
  6
Continuous
 62
     7
370
    15
100
AcDbSpline
210
0.0
220
0.0
230
1.0
 70
    24
 71
     3
 72
     9
 73
     5
 74
     0
 42
0.000000001
 43
0.00000001
 40
0.0
 40
0.0
 40
0.0
 40
0.0
 40
0.6968476696770952
 40
1.0
 40
1.0
 40
1.0
 40
1.0
 10
146.9358955048669
 20
92.4528542094456
 30
0.0
 10
146.9548056176276
 20
92.4528542094456
 30
0.0
 10
146.9819422697017
 20
92.4528542094456
 30
0.0
 10
147.0625661089651
 20
92.45285420944559
 30
0.0
 10
147.0870074137174
 20
92.4528542094456
 30
0.0
  0
LINE
  5
BD
330
1F
100
AcDbEntity
  8
0
  6
Continuous
 62
     7
370
    15
100
AcDbLine
 10
145.2471457906
 20
92.7278542094
 30
0.0
 11
145.2471457906
 21
137.1778542094
 31
0.0
  0
LINE
  5
BE
330
1F
100
AcDbEntity
  8
0
  6
Continuous
 62
     7
370
    15
100
AcDbLine
 10
196.9471457906
 20
98.9528542094
 30
0.0
 11
196.9471457906
 21
130.9528542094
 31
0.0
  0
SPLINE
  5
BF
330
1F
100
AcDbEntity
  8
0
  6
Continuous
 62
     7
370
    15
100
AcDbSpline
210
0.0
220
0.0
230
1.0
 70
     8
 71
     3
 72
    42
 73
    38
 74
     0
 42
0.000000001
 43
0.00000001
 40
0.0
 40
0.0
 40
0.0
 40
0.0
 40
0.0312499999999997
 40
0.0312499999999997
 40
0.0624999999999995
 40
0.0624999999999995
 40
0.1249999999999992
 40
0.1249999999999992
 40
0.1874999999999989
 40
0.1874999999999989
 40
0.2499999999999987
 40
0.2499999999999987
 40
0.3124999999999984
 40
0.3124999999999984
 40
0.3749999999999981
 40
0.3749999999999981
 40
0.4374999999999979
 40
0.4374999999999979
 40
0.4999999999999977
 40
0.4999999999999977
 40
0.5624999999999974
 40
0.5624999999999974
 40
0.6249999999999972
 40
0.6249999999999972
 40
0.687499999999997
 40
0.687499999999997
 40
0.7499999999999968
 40
0.7499999999999968
 40
0.7812499999999972
 40
0.7812499999999972
 40
0.8124999999999977
 40
0.8124999999999977
 40
0.8749999999999984
 40
0.8749999999999984
 40
0.9374999999999992
 40
0.9374999999999992
 40
1.0
 40
1.0
 40
1.0
 40
1.0
 10
193.1971457905544
 20
114.9528542094456
 30
0.0
 10
193.1971457905544
 20
114.7919214384384
 30
0.0
 10
193.1873451367991
 20
114.6308500585584
 30
0.0
 10
193.1477165938003
 20
114.3084242964654
 30
0.0
 10
193.1177289910764
 20
114.1472546963866
 30
0.0
 10
193.0006697385199
 20
113.676861685403
 30
0.0
 10
192.8863026244167
 20
113.3757918582973
 30
0.0
 10
192.5885215179058
 20
112.7981653399473
 30
0.0
 10
192.410254080666
 20
112.5313911318999
 30
0.0
 10
192.0013132020216
 20
112.0365187649909
 30
0.0
 10
191.7692934100016
 20
111.808262993895
 30
0.0
 10
191.2727292405061
 20
111.4043607068921
 30
0.0
 10
191.0061963429289
 20
111.2260834413539
 30
0.0
 10
190.4379846188553
 20
110.9154276245268
 30
0.0
 10
190.1437374108007
 20
110.7870902361239
 30
0.0
 10
189.5361332460331
 20
110.5803203935949
 30
0.0
 10
189.2202955943929
 20
110.5015714461865
 30
0.0
 10
188.5804962423087
 20
110.3973806074751
 30
0.0
 10
188.2596259993822
 20
110.3719873566176
 30
0.0
 10
187.6159945245842
 20
110.3729974036904
 30
0.0
 10
187.2903705399433
 20
110.3999541078937
 30
0.0
 10
186.6517817075421
 20
110.5065221918794
 30
0.0
 10
186.3406884855733
 20
110.5852525003673
 30
0.0
 10
185.7346825591835
 20
110.7935616151659
 30
0.0
 10
185.4370007462464
 20
110.9247330414984
 30
0.0
 10
184.8738164274497
 20
111.2352165419654
 30
0.0
 10
184.6095196271245
 20
111.4131050580132
 30
0.0
 10
184.2396883671961
 20
111.7155338854819
 30
0.0
 10
184.1208780535218
 20
111.822318114325
 30
0.0
 10
183.8927508172429
 20
112.0487200564597
 30
0.0
 10
183.7831592042018
 20
112.1688257855386
 30
0.0
 10
183.4775229794391
 20
112.540516708403
 30
0.0
 10
183.3015390427194
 20
112.8058061662303
 30
0.0
 10
183.0089933865801
 20
113.3744161480813
 30
0.0
 10
182.8917669471535
 20
113.682683409101
 30
0.0
 10
182.7369912958924
 20
114.3079262280356
 30
0.0
 10
182.6971457905544
 20
114.6269703325719
 30
0.0
 10
182.6971457905543
 20
114.9528542094456
 30
0.0
  0
SPLINE
  5
C0
330
1F
100
AcDbEntity
  8
0
  6
Continuous
 62
     7
370
    15
100
AcDbSpline
210
0.0
220
0.0
230
1.0
 70
     8
 71
     3
 72
    42
 73
    38
 74
     0
 42
0.000000001
 43
0.00000001
 40
0.0
 40
0.0
 40
0.0
 40
0.0
 40
0.0312499999999997
 40
0.0312499999999997
 40
0.0624999999999994
 40
0.0624999999999994
 40
0.1249999999999992
 40
0.1249999999999992
 40
0.1874999999999989
 40
0.1874999999999989
 40
0.2499999999999987
 40
0.2499999999999987
 40
0.3124999999999984
 40
0.3124999999999984
 40
0.3749999999999981
 40
0.3749999999999981
 40
0.4999999999999977
 40
0.4999999999999977
 40
0.5624999999999981
 40
0.5624999999999981
 40
0.6249999999999986
 40
0.6249999999999986
 40
0.687499999999999
 40
0.687499999999999
 40
0.7499999999999993
 40
0.7499999999999993
 40
0.8124999999999998
 40
0.8124999999999998
 40
0.84375
 40
0.84375
 40
0.8750000000000001
 40
0.8750000000000001
 40
0.9374999999999999
 40
0.9374999999999999
 40
0.96875
 40
0.96875
 40
1.0
 40
1.0
 40
1.0
 40
1.0
 10
182.6971457905543
 20
114.9528542094456
 30
0.0
 10
182.6971457905544
 20
115.1157986397984
 30
0.0
 10
182.7073626958924
 20
115.2796346676089
 30
0.0
 10
182.747193040386
 20
115.6008864056201
 30
0.0
 10
182.7767834727864
 20
115.7594900694073
 30
0.0
 10
182.8938352027851
 20
116.2294053557626
 30
0.0
 10
183.0112707357412
 20
116.5370824397972
 30
0.0
 10
183.3070334905641
 20
117.1091814457323
 30
0.0
 10
183.4872477811635
 20
117.3790414530972
 30
0.0
 10
183.89979058563
 20
117.876573353801
 30
0.0
 10
184.1292571187987
 20
118.1016394272593
 30
0.0
 10
184.6313595319566
 20
118.5085661499287
 30
0.0
 10
184.8991164179239
 20
118.6861781056012
 30
0.0
 10
185.4593581318851
 20
118.99140795124
 30
0.0
 10
185.752829299774
 20
119.1197361676304
 30
0.0
 10
186.6738888934574
 20
119.4321354381776
 30
0.0
 10
187.3110146360786
 20
119.5347284072029
 30
0.0
 10
188.2860947450578
 20
119.5324464052609
 30
0.0
 10
188.6067069171419
 20
119.5052804689744
 30
0.0
 10
189.2394047648294
 20
119.3997133382815
 30
0.0
 10
189.5529062785598
 20
119.3208364988406
 30
0.0
 10
190.1647843344221
 20
119.1102257445205
 30
0.0
 10
190.4572069579126
 20
118.9808221190119
 30
0.0
 10
191.0153503712606
 20
118.6735148156296
 30
0.0
 10
191.2826143610141
 20
118.4944155424835
 30
0.0
 10
191.7809443612225
 20
118.0868113933197
 30
0.0
 10
192.0069515061531
 20
117.8629053814667
 30
0.0
 10
192.3100776028224
 20
117.4952680694892
 30
0.0
 10
192.4050941975183
 20
117.3673870599943
 30
0.0
 10
192.5822444934226
 20
117.1001175208487
 30
0.0
 10
192.664854520508
 20
116.959713141067
 30
0.0
 10
192.8865762263108
 20
116.5289023614389
 30
0.0
 10
193.000765896998
 20
116.2287210051932
 30
0.0
 10
193.1179663848424
 20
115.75736896018
 30
0.0
 10
193.1479209518015
 20
115.5958991979746
 30
0.0
 10
193.1873442884342
 20
115.2745860532441
 30
0.0
 10
193.1971457905544
 20
115.1137894416421
 30
0.0
 10
193.1971457905544
 20
114.9528542094456
 30
0.0
  0
LINE
  5
C1
330
1F
100
AcDbEntity
  8
0
  6
Continuous
 62
     7
370
    15
100
AcDbLine
 10
197.2471457906
 20
99.2528542094
 30
0.0
 11
197.2471457906
 21
130.6528542094
 31
0.0
  0
LINE
  5
C2
330
1F
100
AcDbEntity
  8
0
  6
Continuous
 62
     7
370
    15
100
AcDbLine
 10
79.8471457906
 20
103.1300986124
 30
0.0
 11
79.8471457906
 21
126.7756097947
 31
0.0
  0
CIRCLE
  5
C3
330
1F
100
AcDbEntity
  8
0
  6
HIDDEN
 62
     7
370
     0
100
AcDbCircle
 10
187.9471457906
 20
114.9528542094
 30
0.0
 40
3.508270759903342
  0
CIRCLE
  5
C4
330
1F
100
AcDbEntity
  8
0
  6
HIDDEN
 62
     7
370
     0
100
AcDbCircle
 10
187.9471457906
 20
114.9528542094
 30
0.0
 40
2.499560044877998
  0
ARC
  5
C5
330
1F
100
AcDbEntity
  8
0
  6
HIDDEN
 62
     7
370
     0
100
AcDbCircle
 10
187.9471457906
 20
114.9528542094
 30
0.0
 40
2.199560044878005
100
AcDbArc
 50
294.0522672769
 51
331.8580681258
  0
ARC
  5
C6
330
1F
100
AcDbEntity
  8
0
  6
HIDDEN
 62
     7
370
     0
100
AcDbCircle
 10
187.9471457906
 20
114.9528542094
 30
0.0
 40
2.199560044878001
100
AcDbArc
 50
113.7592740689
 51
249.9220576942
  0
ARC
  5
C7
330
1F
100
AcDbEntity
  8
0
  6
HIDDEN
 62
     7
370
     0
100
AcDbCircle
 10
187.9471457906
 20
114.9528542094
 30
0.0
 40
2.199560044878005
100
AcDbArc
 50
331.8580681258
 51
69.8430362608
  0
SPLINE
  5
C8
330
1F
100
AcDbEntity
  8
0
  6
HIDDEN
 62
     7
370
     0
100
AcDbSpline
210
0.0
220
0.0
230
1.0
 70
     8
 71
     3
 72
    17
 73
    13
 74
     0
 42
0.000000001
 43
0.00000001
 40
0.0
 40
0.0
 40
0.0
 40
0.0
 40
0.0004909084072519
 40
0.0005116394852235
 40
0.2498351754883616
 40
0.502194497721573
 40
0.5865777378694638
 40
0.6700037584553078
 40
0.7527614182968556
 40
0.8351466077341216
 40
0.9174592349468423
 40
1.0
 40
1.0
 40
1.0
 40
1.0
 10
169.2471418335252
 20
83.4528544088673
 30
0.0
 10
169.2471435048919
 20
83.4528543123236
 30
0.0
 10
169.2471452468404
 20
83.45285421170283
 30
0.0
 10
169.2477642689355
 20
83.45285310046441
 30
0.0
 10
169.1436199730809
 20
83.48506971914824
 30
0.0
 10
168.7751351697192
 20
83.59343088707946
 30
0.0
 10
168.4085226151605
 20
83.6982615638925
 30
0.0
 10
168.1589910815174
 20
83.76795426887278
 30
0.0
 10
167.8812052884784
 20
83.8430959777318
 30
0.0
 10
167.5745455135795
 20
83.92276097133237
 30
0.0
 10
167.2413586804776
 20
84.00591015276635
 30
0.0
 10
166.9963612383955
 20
84.06322263499496
 30
0.0
 10
166.873692993432
 20
84.091918533
 30
0.0
  0
LINE
  5
C9
330
1F
100
AcDbEntity
  8
0
  6
HIDDEN
 62
     7
370
     0
100
AcDbLine
 10
196.7971457906
 20
125.7528283398
 30
0.0
 11
196.7971457906
 21
127.4878260952
 31
0.0
  0
SPLINE
  5
CA
330
1F
100
AcDbEntity
  8
0
  6
HIDDEN
 62
     7
370
     0
100
AcDbSpline
210
0.0
220
0.0
230
1.0
 70
     8
 71
     3
 72
     9
 73
     5
 74
     0
 42
0.000000001
 43
0.00000001
 40
0.0
 40
0.0
 40
0.0
 40
0.0
 40
0.6465687876948019
 40
1.0
 40
1.0
 40
1.0
 40
1.0
 10
196.7971457905544
 20
123.134420653004
 30
0.0
 10
196.8353706599767
 20
123.2997406603135
 30
0.0
 10
196.8944902310878
 20
123.5554288569227
 30
0.0
 10
196.9333954661584
 20
123.7933439137053
 30
0.0
 10
196.9471457905544
 20
123.8774305206497
 30
0.0
  0
SPLINE
  5
CB
330
1F
100
AcDbEntity
  8
0
  6
HIDDEN
 62
     7
370
     0
100
AcDbSpline
210
0.0
220
0.0
230
1.0
 70
     8
 71
     3
 72
    10
 73
     6
 74
     0
 42
0.000000001
 43
0.00000001
 40
0.0
 40
0.0
 40
0.0
 40
0.0
 40
0.5897162302052531
 40
0.7945980080597255
 40
1.0
 40
1.0
 40
1.0
 40
1.0
 10
196.9471457905544
 20
125.6537020612575
 30
0.0
 10
196.92183802349
 20
125.6865065658633
 30
0.0
 10
196.8877377219081
 20
125.7307081541527
 30
0.0
 10
196.8332869073131
 20
125.7497951232264
 30
0.0
 10
196.8092030084317
 20
125.7518164133523
 30
0.0
 10
196.7971457905544
 20
125.7528283398497
 30
0.0
  0
LINE
  5
CC
330
1F
100
AcDbEntity
  8
0
  6
HIDDEN
 62
     7
370
     0
100
AcDbLine
 10
196.7971457906
 20
106.7712877659
 30
0.0
 11
196.7971457906
 21
123.134420653
 31
0.0
  0
LINE
  5
CD
330
1F
100
AcDbEntity
  8
0
  6
HIDDEN
 62
     7
370
     0
100
AcDbLine
 10
196.7971457906
 20
104.152880079
 30
0.0
 11
196.9471457906
 21
104.2873071647
 31
0.0
  0
SPLINE
  5
CE
330
1F
100
AcDbEntity
  8
0
  6
HIDDEN
 62
     7
370
     0
100
AcDbSpline
210
0.0
220
0.0
230
1.0
 70
     8
 71
     3
 72
     9
 73
     5
 74
     0
 42
0.000000001
 43
0.00000001
 40
0.0
 40
0.0
 40
0.0
 40
0.0
 40
0.626273781758476
 40
1.0
 40
1.0
 40
1.0
 40
1.0
 10
196.9471457905544
 20
105.9825595789982
 30
0.0
 10
196.9237772781215
 20
106.1403548033108
 30
0.0
 10
196.8864637051867
 20
106.3923136572638
 30
0.0
 10
196.821444989342
 20
106.6681867559869
 30
0.0
 10
196.7971457905544
 20
106.7712877658872
 30
0.0
  0
LINE
  5
CF
330
1F
100
AcDbEntity
  8
0
  6
HIDDEN
 62
     7
370
     0
100
AcDbLine
 10
196.7971457906
 20
102.4178823237
 30
0.0
 11
196.7971457906
 21
104.152880079
 31
0.0
  0
LINE
  5
D0
330
1F
100
AcDbEntity
  8
0
  6
HIDDEN
 62
     7
370
     0
100
AcDbLine
 10
195.065094983
 20
110.5885100434
 30
0.0
 11
195.065094983
 21
119.3171983755
 31
0.0
  0
LINE
  5
D1
330
1F
100
AcDbEntity
  8
0
  6
HIDDEN
 62
     7
370
     0
100
AcDbLine
 10
193.8971457906
 20
110.5885100434
 30
0.0
 11
193.8971457906
 21
119.3171983755
 31
0.0
  0
LINE
  5
D2
330
1F
100
AcDbEntity
  8
0
  6
HIDDEN
 62
     7
370
     0
100
AcDbLine
 10
193.8971457906
 20
122.5528542094
 30
0.0
 11
193.8971457906
 21
119.3171983755
 31
0.0
  0
LINE
  5
D3
330
1F
100
AcDbEntity
  8
0
  6
HIDDEN
 62
     7
370
     0
100
AcDbLine
 10
193.8971457906
 20
119.3171983755
 30
0.0
 11
195.065094983
 21
119.3171983755
 31
0.0
  0
SPLINE
  5
D4
330
1F
100
AcDbEntity
  8
0
  6
HIDDEN
 62
     7
370
     0
100
AcDbSpline
210
0.0
220
0.0
230
1.0
 70
     8
 71
     3
 72
     8
 73
     4
 74
     0
 42
0.000000001
 43
0.00000001
 40
0.0
 40
0.0
 40
0.0
 40
0.0
 40
1.0
 40
1.0
 40
1.0
 40
1.0
 10
195.0650949829854
 20
119.317198375526
 30
0.0
 10
195.5918418764425
 20
120.0488623360602
 30
0.0
 10
196.1793671715056
 20
120.7194701947063
 30
0.0
 10
196.7971457905544
 20
121.3596865000553
 30
0.0
  0
LINE
  5
D5
330
1F
100
AcDbEntity
  8
0
  6
HIDDEN
 62
     7
370
     0
100
AcDbLine
 10
196.7971457906
 20
125.7528283398
 30
0.0
 11
196.7971457906
 21
125.6930175361
 31
0.0
  0
LINE
  5
D6
330
1F
100
AcDbEntity
  8
0
  6
HIDDEN
 62
     7
370
     0
100
AcDbLine
 10
193.8971457906
 20
125.6930175361
 30
0.0
 11
196.7971457906
 21
125.6930175361
 31
0.0
  0
LINE
  5
D7
330
1F
100
AcDbEntity
  8
0
  6
HIDDEN
 62
     7
370
     0
100
AcDbLine
 10
193.8971457906
 20
125.7528542094
 30
0.0
 11
193.8971457906
 21
122.5528542094
 31
0.0
  0
LINE
  5
D8
330
1F
100
AcDbEntity
  8
0
  6
HIDDEN
 62
     7
370
     0
100
AcDbLine
 10
193.8971457906
 20
110.5885100434
 30
0.0
 11
193.8971457906
 21
107.3528542094
 31
0.0
  0
LINE
  5
D9
330
1F
100
AcDbEntity
  8
0
  6
HIDDEN
 62
     7
370
     0
100
AcDbLine
 10
195.065094983
 20
110.5885100434
 30
0.0
 11
193.8971457906
 21
110.5885100434
 31
0.0
  0
SPLINE
  5
DA
330
1F
100
AcDbEntity
  8
0
  6
HIDDEN
 62
     7
370
     0
100
AcDbSpline
210
0.0
220
0.0
230
1.0
 70
     8
 71
     3
 72
     8
 73
     4
 74
     0
 42
0.000000001
 43
0.00000001
 40
0.0
 40
0.0
 40
0.0
 40
0.0
 40
1.0
 40
1.0
 40
1.0
 40
1.0
 10
196.7971457905544
 20
108.5460219188358
 30
0.0
 10
196.17400370172
 20
109.1917964949054
 30
0.0
 10
195.5862275144428
 20
109.8646445651526
 30
0.0
 10
195.0650949829855
 20
110.5885100433652
 30
0.0
  0
LINE
  5
DB
330
1F
100
AcDbEntity
  8
0
  6
HIDDEN
 62
     7
370
     0
100
AcDbLine
 10
193.8971457906
 20
104.2126908827
 30
0.0
 11
196.7971457906
 21
104.2126908827
 31
0.0
  0
LINE
  5
DC
330
1F
100
AcDbEntity
  8
0
  6
HIDDEN
 62
     7
370
     0
100
AcDbLine
 10
196.7971457906
 20
104.2126908827
 30
0.0
 11
196.7971457906
 21
104.152880079
 31
0.0
  0
LINE
  5
DD
330
1F
100
AcDbEntity
  8
0
  6
HIDDEN
 62
     7
370
     0
100
AcDbLine
 10
193.8971457906
 20
107.3528542094
 30
0.0
 11
193.8971457906
 21
104.1528542094
 31
0.0
  0
LINE
  5
DE
330
1F
100
AcDbEntity
  8
0
  6
HIDDEN
 62
     7
370
     0
100
AcDbLine
 10
193.0971457906
 20
105.9528542094
 30
0.0
 11
193.0971457906
 21
123.9528542094
 31
0.0
  0
LINE
  5
DF
330
1F
100
AcDbEntity
  8
0
  6
HIDDEN
 62
     7
370
     0
100
AcDbLine
 10
178.2471457906
 20
106.3528542094
 30
0.0
 11
178.2471457906
 21
123.5528542079
 31
0.0
  0
LINE
  5
E0
330
1F
100
AcDbEntity
  8
0
  6
HIDDEN
 62
     7
370
     0
100
AcDbLine
 10
180.2471457906
 20
105.9528542094
 30
0.0
 11
180.2471457906
 21
123.9528542094
 31
0.0
  0
LINE
  5
E1
330
1F
100
AcDbEntity
  8
0
  6
HIDDEN
 62
     7
370
     0
100
AcDbLine
 10
147.2471457906
 20
137.4528542094
 30
0.0
 11
147.5844040908
 21
137.4528542094
 31
0.0
  0
ELLIPSE
  5
E2
330
1F
100
AcDbEntity
  8
0
  6
HIDDEN
 62
     7
370
     0
100
AcDbEllipse
 10
147.5844040908
 20
139.0528542094
 30
0.0
 11
0.0
 21
1.599999999999994
 31
0.0
210
0.0
220
0.0
230
1.0
 40
0.4142135624
 41
3.141592653589793
 42
4.712388980384677
  0
ELLIPSE
  5
E3
330
1F
100
AcDbEntity
  8
0
  6
HIDDEN
 62
     7
370
     0
100
AcDbEllipse
 10
147.5844040908
 20
90.8528542094
 30
0.0
 11
0.0
 21
1.600000000000009
 31
0.0
210
0.0
220
0.0
230
1.0
 40
0.4142135624
 41
4.712388980384695
 42
6.283185307179586
  0
LINE
  5
E4
330
1F
100
AcDbEntity
  8
0
  6
HIDDEN
 62
     7
370
     0
100
AcDbLine
 10
147.5844040908
 20
92.4528542094
 30
0.0
 11
147.2471457906
 21
92.4528542094
 31
0.0
  0
LINE
  5
E5
330
1F
100
AcDbEntity
  8
0
  6
HIDDEN
 62
     7
370
     0
100
AcDbLine
 10
148.2471457906
 20
85.4988314867
 30
0.0
 11
147.6341786135
 21
84.8858643096
 31
0.0
  0
LINE
  5
E6
330
1F
100
AcDbEntity
  8
0
  6
HIDDEN
 62
     7
370
     0
100
AcDbLine
 10
147.6341786135
 20
145.0198441093
 30
0.0
 11
148.2471457906
 21
144.4068769322
 31
0.0
  0
LINE
  5
E7
330
1F
100
AcDbEntity
  8
0
  6
HIDDEN
 62
     7
370
     0
100
AcDbLine
 10
86.8471457906
 20
106.4528542094
 30
0.0
 11
86.8471457906
 21
123.4528542094
 31
0.0
  0
LINE
  5
E8
330
1F
100
AcDbEntity
  8
0
  6
HIDDEN
 62
     7
370
     0
100
AcDbLine
 10
89.8430750049
 20
107.9528542094
 30
0.0
 11
89.8430750049
 21
121.9528542094
 31
0.0
  0
LINE
  5
E9
330
1F
100
AcDbEntity
  8
0
  6
HIDDEN
 62
     7
370
     0
100
AcDbLine
 10
148.2471457906
 20
144.4068769322
 30
0.0
 11
157.3797073341
 21
144.4068769322
 31
0.0
  0
LINE
  5
EA
330
1F
100
AcDbEntity
  8
0
  6
HIDDEN
 62
     7
370
     0
100
AcDbLine
 10
148.2471457906
 20
144.4068769322
 30
0.0
 11
148.2471457906
 21
139.0528542094
 31
0.0
  0
LINE
  5
EB
330
1F
100
AcDbEntity
  8
0
  6
HIDDEN
 62
     7
370
     0
100
AcDbLine
 10
157.3797073341
 20
85.4988314867
 30
0.0
 11
148.2471457906
 21
85.4988314867
 31
0.0
  0
LINE
  5
EC
330
1F
100
AcDbEntity
  8
0
  6
HIDDEN
 62
     7
370
     0
100
AcDbLine
 10
148.2471457906
 20
85.4988314867
 30
0.0
 11
148.2471457906
 21
90.8528542094
 31
0.0
  0
LINE
  5
ED
330
1F
100
AcDbEntity
  8
0
  6
HIDDEN
 62
     7
370
     0
100
AcDbLine
 10
160.1971457906
 20
92.4528542094
 30
0.0
 11
147.5844040908
 21
92.4528542094
 31
0.0
  0
LINE
  5
EE
330
1F
100
AcDbEntity
  8
0
  6
HIDDEN
 62
     7
370
     0
100
AcDbLine
 10
147.5844040908
 20
137.4528542094
 30
0.0
 11
160.1971457906
 21
137.4528542094
 31
0.0
  0
LINE
  5
EF
330
1F
100
AcDbEntity
  8
0
  6
HIDDEN
 62
     7
370
     0
100
AcDbLine
 10
166.2233875568
 20
85.0478063161
 30
0.0
 11
166.3173302859
 21
85.0228226448
 31
0.0
  0
SPLINE
  5
F0
330
1F
100
AcDbEntity
  8
0
  6
HIDDEN
 62
     7
370
     0
100
AcDbSpline
210
0.0
220
0.0
230
1.0
 70
     8
 71
     3
 72
    13
 73
     9
 74
     0
 42
0.000000001
 43
0.00000001
 40
0.0
 40
0.0
 40
0.0
 40
0.0
 40
0.0000730266253407
 40
0.1576811713779076
 40
0.3241446477868304
 40
0.4996852929260794
 40
0.7294244053144644
 40
1.0
 40
1.0
 40
1.0
 40
1.0
 10
168.2471244835022
 20
84.45286251049744
 30
0.0
 10
168.24713158521
 20
84.45285960036253
 30
0.0
 10
168.2624657951136
 20
84.44657595408067
 30
0.0
 10
168.2030047230251
 20
84.47028764713093
 30
0.0
 10
168.042254320947
 20
84.52576257769181
 30
0.0
 10
167.7075696846879
 20
84.63370964565955
 30
0.0
 10
167.149695426132
 20
84.80498186333521
 30
0.0
 10
166.5485290205941
 20
84.9627122913318
 30
0.0
 10
166.2234117386443
 20
85.04801460955623
 30
0.0
  0
LINE
  5
F1
330
1F
100
AcDbEntity
  8
0
  6
HIDDEN
 62
     7
370
     0
100
AcDbLine
 10
160.1971457906
 20
137.4528542094
 30
0.0
 11
166.6471457906
 21
137.4528542094
 31
0.0
  0
LINE
  5
F2
330
1F
100
AcDbEntity
  8
0
  6
HIDDEN
 62
     7
370
     0
100
AcDbLine
 10
166.6471457906
 20
92.4528542094
 30
0.0
 11
160.1971457906
 21
92.4528542094
 31
0.0
  0
SPLINE
  5
F3
330
1F
100
AcDbEntity
  8
0
  6
HIDDEN
 62
     7
370
     0
100
AcDbSpline
210
0.0
220
0.0
230
1.0
 70
     8
 71
     3
 72
    13
 73
     9
 74
     0
 42
0.000000001
 43
0.00000001
 40
0.0
 40
0.0
 40
0.0
 40
0.0
 40
0.1850454653101185
 40
0.3520092965815967
 40
0.5010298177385477
 40
0.676622781446296
 40
0.843096261468993
 40
1.0
 40
1.0
 40
1.0
 40
1.0
 10
166.2234094211669
 20
144.8577149851567
 30
0.0
 10
166.450199536782
 20
144.916551656694
 30
0.0
 10
166.8816190743293
 20
145.0284758009921
 30
0.0
 10
167.3690745452835
 20
145.1687418726196
 30
0.0
 10
167.7581837218229
 20
145.2880366318785
 30
0.0
 10
168.0390836422475
 20
145.3787044415069
 30
0.0
 10
168.2159684173213
 20
145.4406202018537
 30
0.0
 10
168.2368307971468
 20
145.4488094580124
 30
0.0
 10
168.2469532955835
 20
145.4527829132633
 30
0.0
  0
LINE
  5
F4
330
1F
100
AcDbEntity
  8
0
  6
HIDDEN
 62
     7
370
     0
100
AcDbLine
 10
166.9736399645
 20
145.0574280645
 30
0.0
 11
166.2233874031
 21
144.8579024113
 31
0.0
  0
LINE
  5
F5
330
1F
100
AcDbEntity
  8
0
  6
HIDDEN
 62
     7
370
     0
100
AcDbLine
 10
122.8471457906
 20
107.9528542094
 30
0.0
 11
122.8471457906
 21
121.9528542094
 31
0.0
  0
LINE
  5
F6
330
1F
100
AcDbEntity
  8
0
  6
HIDDEN
 62
     7
370
     0
100
AcDbLine
 10
124.4995124929
 20
110.7028542094
 30
0.0
 11
124.4995124929
 21
119.2028542094
 31
0.0
  0
SPLINE
  5
F7
330
1F
100
AcDbEntity
  8
0
  6
HIDDEN
 62
     7
370
     0
100
AcDbSpline
210
0.0
220
0.0
230
1.0
 70
     8
 71
     3
 72
     9
 73
     5
 74
     0
 42
0.000000001
 43
0.00000001
 40
0.0
 40
0.0
 40
0.0
 40
0.0
 40
0.4932365030918491
 40
1.0
 40
1.0
 40
1.0
 40
1.0
 10
166.2242053292519
 20
144.8576857206179
 30
0.0
 10
166.3300532846537
 20
145.0147071087407
 30
0.0
 10
166.5446520719259
 20
145.3330561910543
 30
0.0
 10
166.7625119538142
 20
145.6528822987422
 30
0.0
 10
166.8729153893959
 20
145.8149584954767
 30
0.0
  0
SPLINE
  5
F8
330
1F
100
AcDbEntity
  8
0
  6
HIDDEN
 62
     7
370
     0
100
AcDbSpline
210
0.0
220
0.0
230
1.0
 70
     8
 71
     3
 72
     9
 73
     5
 74
     0
 42
0.000000001
 43
0.00000001
 40
0.0
 40
0.0
 40
0.0
 40
0.0
 40
0.5067661696360637
 40
0.9999999999999999
 40
0.9999999999999999
 40
0.9999999999999999
 40
0.9999999999999999
 10
166.8729190746818
 20
84.09076405896846
 30
0.0
 10
166.7625142441847
 20
84.25284147358408
 30
0.0
 10
166.544652758726
 20
84.57266829772276
 30
0.0
 10
166.330053040844
 20
84.8910168139789
 30
0.0
 10
166.2242051999981
 20
85.0480370720426
 30
0.0
  0
LINE
  5
F9
330
1F
100
AcDbEntity
  8
0
  6
HIDDEN
 62
     7
370
     0
100
AcDbLine
 10
193.8971457906
 20
127.1278542094
 30
0.0
 11
193.8971457906
 21
125.7528542094
 31
0.0
  0
LINE
  5
FA
330
1F
100
AcDbEntity
  8
0
  6
HIDDEN
 62
     7
370
     0
100
AcDbLine
 10
193.8971457906
 20
104.1528542094
 30
0.0
 11
193.8971457906
 21
102.7778542094
 31
0.0
  0
LINE
  5
FB
330
1F
100
AcDbEntity
  8
0
  6
HIDDEN
 62
     7
370
     0
100
AcDbLine
 10
197.2471457906
 20
128.4528542094
 30
0.0
 11
196.7971457906
 21
127.4878260952
 31
0.0
  0
LINE
  5
FC
330
1F
100
AcDbEntity
  8
0
  6
HIDDEN
 62
     7
370
     0
100
AcDbLine
 10
196.7971457906
 20
102.4178823237
 30
0.0
 11
197.2471457906
 21
101.4528542094
 31
0.0
  0
LINE
  5
FD
330
1F
100
AcDbEntity
  8
0
  6
HIDDEN
 62
     7
370
     0
100
AcDbLine
 10
196.7942214333
 20
125.7528542094
 30
0.0
 11
193.8971457906
 21
125.7528542094
 31
0.0
  0
LINE
  5
FE
330
1F
100
AcDbEntity
  8
0
  6
HIDDEN
 62
     7
370
     0
100
AcDbLine
 10
193.8971457906
 20
104.1528542094
 30
0.0
 11
196.7971457906
 21
104.1528542094
 31
0.0
  0
LINE
  5
FF
330
1F
100
AcDbEntity
  8
0
  6
HIDDEN
 62
     7
370
     0
100
AcDbLine
 10
193.8971457906
 20
124.4147344248
 30
0.0
 11
193.0971457906
 21
123.9528542094
 31
0.0
  0
LINE
  5
100
330
1F
100
AcDbEntity
  8
0
  6
HIDDEN
 62
     7
370
     0
100
AcDbLine
 10
193.0971457906
 20
105.9528542094
 30
0.0
 11
193.8971457906
 21
105.4909739941
 31
0.0
  0
ARC
  5
101
330
1F
100
AcDbEntity
  8
0
  6
HIDDEN
 62
     7
370
     0
100
AcDbCircle
 10
80.6471457906
 20
105.6528542094
 30
0.0
 40
0.7999999999999972
100
AcDbArc
 50
90.0
 51
180.0
  0
ARC
  5
102
330
1F
100
AcDbEntity
  8
0
  6
HIDDEN
 62
     7
370
     0
100
AcDbCircle
 10
80.6471457906
 20
124.2528542094
 30
0.0
 40
0.7999999999999972
100
AcDbArc
 50
180.0
 51
270.0
  0
LINE
  5
103
330
1F
100
AcDbEntity
  8
0
  6
HIDDEN
 62
     7
370
     0
100
AcDbLine
 10
178.8471457906
 20
105.7528542094
 30
0.0
 11
179.4217441305
 21
105.7528542094
 31
0.0
  0
LINE
  5
104
330
1F
100
AcDbEntity
  8
0
  6
HIDDEN
 62
     7
370
     0
100
AcDbLine
 10
179.4217441305
 20
124.1528542094
 30
0.0
 11
178.8471457906
 21
124.1528542094
 31
0.0
  0
ARC
  5
105
330
1F
100
AcDbEntity
  8
0
  6
HIDDEN
 62
     7
370
     0
100
AcDbCircle
 10
178.8471457906
 20
106.3528542094
 30
0.0
 40
0.6000000000000085
100
AcDbArc
 50
180.0
 51
270.0
  0
ARC
  5
106
330
1F
100
AcDbEntity
  8
0
  6
HIDDEN
 62
     7
370
     0
100
AcDbCircle
 10
178.8471457906
 20
123.5528542094
 30
0.0
 40
0.6000000000000085
100
AcDbArc
 50
90.0
 51
180.0
  0
ARC
  5
107
330
1F
100
AcDbEntity
  8
0
  6
HIDDEN
 62
     7
370
     0
100
AcDbCircle
 10
179.4217441305
 20
106.3528542094
 30
0.0
 40
0.6000000000000085
100
AcDbArc
 50
270.0
 51
285.0
  0
ARC
  5
108
330
1F
100
AcDbEntity
  8
0
  6
HIDDEN
 62
     7
370
     0
100
AcDbCircle
 10
179.4217441305
 20
123.5528542094
 30
0.0
 40
0.6000000000000085
100
AcDbArc
 50
75.0
 51
90.0
  0
LINE
  5
109
330
1F
100
AcDbEntity
  8
0
  6
HIDDEN
 62
     7
370
     0
100
AcDbLine
 10
179.5770355575
 20
105.7732987137
 30
0.0
 11
180.2471457906
 21
105.9528542094
 31
0.0
  0
LINE
  5
10A
330
1F
100
AcDbEntity
  8
0
  6
HIDDEN
 62
     7
370
     0
100
AcDbLine
 10
180.2471457906
 20
123.9528542094
 30
0.0
 11
179.5770355575
 21
124.1324097052
 31
0.0
  0
LINE
  5
10B
330
1F
100
AcDbEntity
  8
0
  6
HIDDEN
 62
     7
370
     0
100
AcDbLine
 10
180.2471457906
 20
105.9528542094
 30
0.0
 11
193.0971457906
 21
105.9528542094
 31
0.0
  0
LINE
  5
10C
330
1F
100
AcDbEntity
  8
0
  6
HIDDEN
 62
     7
370
     0
100
AcDbLine
 10
193.0971457906
 20
123.9528542094
 30
0.0
 11
180.2471457906
 21
123.9528542094
 31
0.0
  0
ARC
  5
10D
330
1F
100
AcDbEntity
  8
0
  6
HIDDEN
 62
     7
370
     0
100
AcDbCircle
 10
88.6162056829
 20
106.6278542094
 30
0.0
 40
0.3999999999999998
100
AcDbArc
 50
270.0
 51
330.0
  0
ARC
  5
10E
330
1F
100
AcDbEntity
  8
0
  6
HIDDEN
 62
     7
370
     0
100
AcDbCircle
 10
88.6162056829
 20
123.2778542094
 30
0.0
 40
0.3999999999999998
100
AcDbArc
 50
30.0
 51
90.0
  0
LINE
  5
10F
330
1F
100
AcDbEntity
  8
0
  6
HIDDEN
 62
     7
370
     0
100
AcDbLine
 10
87.7395182213
 20
106.2278542094
 30
0.0
 11
88.6162056829
 21
106.2278542094
 31
0.0
  0
LINE
  5
110
330
1F
100
AcDbEntity
  8
0
  6
HIDDEN
 62
     7
370
     0
100
AcDbLine
 10
88.6162056829
 20
123.6778542094
 30
0.0
 11
87.7395182213
 21
123.6778542094
 31
0.0
  0
ARC
  5
111
330
1F
100
AcDbEntity
  8
0
  6
HIDDEN
 62
     7
370
     0
100
AcDbCircle
 10
87.7395182213
 20
106.6278542094
 30
0.0
 40
0.3999999999999915
100
AcDbArc
 50
255.0
 51
270.0
  0
ARC
  5
112
330
1F
100
AcDbEntity
  8
0
  6
HIDDEN
 62
     7
370
     0
100
AcDbCircle
 10
87.7395182213
 20
123.2778542094
 30
0.0
 40
0.3999999999999915
100
AcDbArc
 50
90.0
 51
105.0
  0
LINE
  5
113
330
1F
100
AcDbEntity
  8
0
  6
HIDDEN
 62
     7
370
     0
100
AcDbLine
 10
87.6359906033
 20
123.66422454
 30
0.0
 11
86.8471457906
 21
123.4528542094
 31
0.0
  0
LINE
  5
114
330
1F
100
AcDbEntity
  8
0
  6
HIDDEN
 62
     7
370
     0
100
AcDbLine
 10
86.8471457906
 20
106.4528542094
 30
0.0
 11
87.6359906033
 21
106.2414838789
 31
0.0
  0
LINE
  5
115
330
1F
100
AcDbEntity
  8
0
  6
HIDDEN
 62
     7
370
     0
100
AcDbLine
 10
88.9626158444
 20
106.4278542094
 30
0.0
 11
89.8430750049
 21
107.9528542094
 31
0.0
  0
LINE
  5
116
330
1F
100
AcDbEntity
  8
0
  6
HIDDEN
 62
     7
370
     0
100
AcDbLine
 10
89.8430750049
 20
121.9528542094
 30
0.0
 11
88.9626158444
 21
123.4778542094
 31
0.0
  0
LINE
  5
117
330
1F
100
AcDbEntity
  8
0
  6
HIDDEN
 62
     7
370
     0
100
AcDbLine
 10
80.6471457906
 20
106.4528542094
 30
0.0
 11
86.8471457906
 21
106.4528542094
 31
0.0
  0
LINE
  5
118
330
1F
100
AcDbEntity
  8
0
  6
HIDDEN
 62
     7
370
     0
100
AcDbLine
 10
86.8471457906
 20
123.4528542094
 30
0.0
 11
80.6471457906
 21
123.4528542094
 31
0.0
  0
LINE
  5
119
330
1F
100
AcDbEntity
  8
0
  6
HIDDEN
 62
     7
370
     0
100
AcDbLine
 10
168.2471457906
 20
84.4528625105
 30
0.0
 11
168.2471457906
 21
90.8528542094
 31
0.0
  0
ARC
  5
11A
330
1F
100
AcDbEntity
  8
0
  6
HIDDEN
 62
     7
370
     0
100
AcDbCircle
 10
166.6471457906
 20
139.0528542094
 30
0.0
 40
1.600000000000023
100
AcDbArc
 50
270.0
 51
0.0
  0
ARC
  5
11B
330
1F
100
AcDbEntity
  8
0
  6
HIDDEN
 62
     7
370
     0
100
AcDbCircle
 10
166.6471457906
 20
90.8528542094
 30
0.0
 40
1.600000000000023
100
AcDbArc
 50
0.0
 51
90.0
  0
LINE
  5
11C
330
1F
100
AcDbEntity
  8
0
  6
HIDDEN
 62
     7
370
     0
100
AcDbLine
 10
168.2471457906
 20
139.0528542094
 30
0.0
 11
168.2471457906
 21
145.4527829133
 31
0.0
  0
LINE
  5
11D
330
1F
100
AcDbEntity
  8
0
  6
HIDDEN
 62
     7
370
     0
100
AcDbLine
 10
122.8471457906
 20
107.9528542094
 30
0.0
 11
124.4995124929
 21
110.7028542094
 31
0.0
  0
LINE
  5
11E
330
1F
100
AcDbEntity
  8
0
  6
HIDDEN
 62
     7
370
     0
100
AcDbLine
 10
124.4995124929
 20
119.2028542094
 30
0.0
 11
122.8471457906
 21
121.9528542094
 31
0.0
  0
LINE
  5
11F
330
1F
100
AcDbEntity
  8
0
  6
HIDDEN
 62
     7
370
     0
100
AcDbLine
 10
89.8430750049
 20
107.9528542094
 30
0.0
 11
122.8471457906
 21
107.9528542094
 31
0.0
  0
LINE
  5
120
330
1F
100
AcDbEntity
  8
0
  6
HIDDEN
 62
     7
370
     0
100
AcDbLine
 10
122.8471457906
 20
121.9528542094
 30
0.0
 11
89.8430750049
 21
121.9528542094
 31
0.0
  0
LINE
  5
121
330
1F
100
AcDbEntity
  8
0
  6
HIDDEN
 62
     7
370
     0
100
AcDbLine
 10
168.2471448806
 20
145.4528539975
 30
0.0
 11
169.2471442499
 21
146.4528537443
 31
0.0
  0
LINE
  5
122
330
1F
100
AcDbEntity
  8
0
  6
HIDDEN
 62
     7
370
     0
100
AcDbLine
 10
169.247152152
 20
83.4528530717
 30
0.0
 11
168.247151903
 21
84.4528528763
 31
0.0
  0
LINE
  5
123
330
1F
100
AcDbEntity
  8
0
  6
HIDDEN
 62
     7
370
     0
100
AcDbLine
 10
196.7971457906
 20
127.1278542094
 30
0.0
 11
193.8971457906
 21
127.1278542094
 31
0.0
  0
LINE
  5
124
330
1F
100
AcDbEntity
  8
0
  6
HIDDEN
 62
     7
370
     0
100
AcDbLine
 10
193.8971457906
 20
102.7778542094
 30
0.0
 11
196.7971457906
 21
102.7778542094
 31
0.0
  0
LINE
  5
125
330
1F
100
AcDbEntity
  8
0
  6
HIDDEN
 62
     7
370
     0
100
AcDbLine
 10
124.4995124929
 20
110.7028542094
 30
0.0
 11
178.2471457906
 21
110.7028542094
 31
0.0
  0
LINE
  5
126
330
1F
100
AcDbEntity
  8
0
  6
HIDDEN
 62
     7
370
     0
100
AcDbLine
 10
178.2471457906
 20
119.2028542094
 30
0.0
 11
124.4995124929
 21
119.2028542094
 31
0.0
  0
LINE
  5
127
330
1F
100
AcDbEntity
  8
0
  6
HIDDEN
 62
     7
370
     0
100
AcDbLine
 10
196.79445226
 20
125.7528542094
 30
0.0
 11
196.7942214333
 21
125.7528542094
 31
0.0
  0
DIMENSION
  5
128
330
1F
100
AcDbEntity
  8
VERMASSUNG
100
AcDbDimension
  2
_D
 10
72.4701084602
 20
83.4528542094
 30
0.0
 11
72.4701084602
 21
114.9528542094
 31
0.0
 70
   160
  1
MAS BT 40 %%c<>
 71
     2
 42
-1.0
  3
SLDDIMSTYLE0
100
AcDbAlignedDimension
 13
169.2471416465
 23
146.4528542094
 33
0.0
 14
169.2471465645
 24
83.4528542094
 34
0.0
 50
90.0
100
AcDbRotatedDimension
  0
DIMENSION
  5
135
330
1F
100
AcDbEntity
  8
VERMASSUNG
100
AcDbDimension
  2
_D_1
 10
197.2471457906
 20
162.5528542094
 30
0.0
 11
138.5471457906
 21
162.5528542094
 31
0.0
 70
   160
  1
<>
 71
     2
 42
-1.0
  3
SLDDIMSTYLE0
100
AcDbAlignedDimension
 13
79.8471457906
 23
126.7756098065
 33
0.0
 14
197.2471457906
 24
128.4528542094
 34
0.0
100
AcDbRotatedDimension
  0
DIMENSION
  5
13F
330
1F
100
AcDbEntity
  8
VERMASSUNG
100
AcDbDimension
  2
_D_2
 10
197.2471457906
 20
156.5528542094
 30
0.0
 11
171.2471457906
 21
156.5528542094
 31
0.0
 70
   160
  1
<>
 71
     2
 42
-1.0
  3
SLDDIMSTYLE0
100
AcDbAlignedDimension
 13
145.2471457906
 23
137.1778542094
 33
0.0
 14
197.2471457906
 24
128.4528542094
 34
0.0
100
AcDbRotatedDimension
  0
DIMENSION
  5
149
330
1F
100
AcDbEntity
  8
VERMASSUNG
100
AcDbDimension
  2
_D_3
 10
197.2471457906
 20
150.5528542094
 30
0.0
 11
184.7471457906
 21
150.5528542094
 31
0.0
 70
   160
  1
<>
 71
     2
 42
-1.0
  3
SLDDIMSTYLE0
100
AcDbAlignedDimension
 13
172.2471457906
 23
145.4528542094
 33
0.0
 14
197.2471457906
 24
130.6528542094
 34
0.0
100
AcDbRotatedDimension
  0
DIMENSION
  5
153
330
1F
100
AcDbEntity
  8
VERMASSUNG
100
AcDbDimension
  2
_D_4
 10
204.7958316222
 20
98.9528542094
 30
0.0
 11
204.7958316222
 21
114.9528542094
 31
0.0
 70
   160
  1
MBM %%c<>
 71
     2
 42
-1.0
  3
SLDDIMSTYLE0
100
AcDbAlignedDimension
 13
196.9471457906
 23
130.9528542094
 33
0.0
 14
196.9471457906
 24
98.9528542094
 34
0.0
 50
90.0
100
AcDbRotatedDimension
  0
LINE
  5
15F
330
1F
100
AcDbEntity
  8
VERMASSUNG
  6
CENTERX2
 62
     7
370
     0
100
AcDbLine
 10
77.8471457906
 20
114.9528542094
 30
0.0
 11
199.2471457906
 21
114.9528542094
 31
0.0
  0
LINE
  5
160
330
1F
100
AcDbEntity
  8
0
  6
Continuous
 62
     7
370
    15
100
AcDbLine
 10
277.4580447028
 20
34.8899418894
 30
0.0
 11
277.2812392834
 21
34.9920426632
 31
0.0
  0
LINE
  5
161
330
1F
100
AcDbEntity
  8
0
  6
Continuous
 62
     7
370
    15
100
AcDbLine
 10
274.8059634107
 20
34.9920426632
 30
0.0
 11
274.6291579912
 21
34.8899418894
 31
0.0
  0
LINE
  5
162
330
1F
100
AcDbEntity
  8
0
  6
Continuous
 62
     7
370
    15
100
AcDbLine
 10
278.043601347
 20
33.7674636517
 30
0.0
 11
278.043601347
 21
34.0736664561
 31
0.0
  0
LINE
  5
163
330
1F
100
AcDbEntity
  8
0
  6
Continuous
 62
     7
370
    15
100
AcDbLine
 10
274.043601347
 20
34.0736664561
 30
0.0
 11
274.043601347
 21
33.7674636517
 31
0.0
  0
SPLINE
  5
164
330
1F
100
AcDbEntity
  8
0
  6
Continuous
 62
     7
370
    15
100
AcDbSpline
210
0.0
220
0.0
230
1.0
 70
     8
 71
     3
 72
    19
 73
    15
 74
     0
 42
0.000000001
 43
0.00000001
 40
0.0
 40
0.0
 40
0.0
 40
0.0
 40
0.0684324622078486
 40
0.1594187337942558
 40
0.2509630420498917
 40
0.3430898581570798
 40
0.4357243974854507
 40
0.5287397664864589
 40
0.6220015357691184
 40
0.7153956720683927
 40
0.8088379876179299
 40
0.9022629812951589
 40
0.9956462144763282
 40
1.0
 40
1.0
 40
1.0
 40
1.0
 10
263.6962239805529
 20
16.94100808431706
 30
0.0
 10
263.8854374526321
 20
16.89401713342186
 30
0.0
 10
264.3262249263323
 20
16.78454806494457
 30
0.0
 10
265.0619734657778
 20
16.72305337636939
 30
0.0
 10
265.8910489853533
 20
16.73882899359938
 30
0.0
 10
266.7497407828147
 20
16.85238180857333
 30
0.0
 10
267.6309265405176
 20
17.05945645159804
 30
0.0
 10
268.5289919659396
 20
17.36005864932276
 30
0.0
 10
269.4375677725698
 20
17.75167944742381
 30
0.0
 10
270.350129902198
 20
18.23228213648837
 30
0.0
 10
271.2612349008794
 20
18.79558678306794
 30
0.0
 10
272.1617931397379
 20
19.44763595571159
 30
0.0
 10
272.7728950595843
 20
19.92422633784225
 30
0.0
 10
273.0757383212152
 20
20.20130150210028
 30
0.0
 10
273.0892287532532
 20
20.2136440705058
 30
0.0
  0
SPLINE
  5
165
330
1F
100
AcDbEntity
  8
0
  6
Continuous
 62
     7
370
    15
100
AcDbSpline
210
0.0
220
0.0
230
1.0
 70
     8
 71
     3
 72
    18
 73
    14
 74
     0
 42
0.000000001
 43
0.00000001
 40
0.0
 40
0.0
 40
0.0
 40
0.0
 40
0.0711361865299334
 40
0.1652513548042937
 40
0.2594414022140062
 40
0.3537002829677091
 40
0.448008646762416
 40
0.5423134879331615
 40
0.6365312865837304
 40
0.7305483051575211
 40
0.8242204005627367
 40
0.9173962617725461
 40
1.0
 40
1.0
 40
1.0
 40
1.0
 10
281.0843062812287
 20
34.07289223400473
 30
0.0
 10
281.1384139241239
 20
34.36021042197306
 30
0.0
 10
281.2641074948626
 20
35.02765862432648
 30
0.0
 10
281.3762479041683
 20
36.04859594782462
 30
0.0
 10
281.4333204217619
 20
37.13147089812934
 30
0.0
 10
281.4134196582417
 20
38.17618878193079
 30
0.0
 10
281.3191011743494
 20
39.17672096289461
 30
0.0
 10
281.1496340542274
 20
40.12612507567361
 30
0.0
 10
280.905681940777
 20
41.01756399698583
 30
0.0
 10
280.5890208776243
 20
41.84515619935534
 30
0.0
 10
280.1997334119777
 20
42.5999534645446
 30
0.0
 10
279.764550158373
 20
43.26134693166013
 30
0.0
 10
279.4274114047728
 20
43.62946062662448
 30
0.0
 10
279.2689804978993
 20
43.80244752268137
 30
0.0
  0
LINE
  5
166
330
1F
100
AcDbEntity
  8
0
  6
Continuous
 62
     7
370
    15
100
AcDbLine
 10
260.7181036207
 20
18.4066558207
 30
0.0
 11
262.2648997046
 21
17.5137094484
 31
0.0
  0
LINE
  5
167
330
1F
100
AcDbEntity
  8
0
  6
Continuous
 62
     7
370
    15
100
AcDbLine
 10
278.0136197436
 20
44.7942486134
 30
0.0
 11
276.4668236598
 21
45.6871949857
 31
0.0
  0
LINE
  5
168
330
1F
100
AcDbEntity
  8
0
  6
Continuous
 62
     7
370
    15
100
AcDbLine
 10
279.2265012603
 20
19.3767612607
 30
0.0
 11
279.3325500387
 21
19.4380018208
 31
0.0
  0
LINE
  5
169
330
1F
100
AcDbEntity
  8
0
  6
Continuous
 62
     7
370
    15
100
AcDbLine
 10
284.8824361118
 20
29.0517281429
 30
0.0
 11
284.8824361118
 21
29.1741893597
 31
0.0
  0
LINE
  5
16A
330
1F
100
AcDbEntity
  8
0
  6
Continuous
 62
     7
370
    15
100
AcDbLine
 10
267.9073517465
 20
23.205077992
 30
0.0
 11
275.2259069318
 21
18.9801660133
 31
0.0
  0
LINE
  5
16B
330
1F
100
AcDbEntity
  8
0
  6
Continuous
 62
     7
370
    15
100
AcDbLine
 10
283.2252567929
 20
32.8369478114
 30
0.0
 11
275.9067016076
 21
37.0618597901
 31
0.0
  0
LINE
  5
16C
330
1F
100
AcDbEntity
  8
0
  6
Continuous
 62
     7
370
    15
100
AcDbLine
 10
272.9136120843
 20
47.7384203666
 30
0.0
 11
269.88189176
 21
49.4885952563
 31
0.0
  0
SPLINE
  5
16D
330
1F
100
AcDbEntity
  8
0
  6
Continuous
 62
     7
370
    15
100
AcDbSpline
210
0.0
220
0.0
230
1.0
 70
     8
 71
     3
 72
    31
 73
    27
 74
     0
 42
0.000000001
 43
0.00000001
 40
0.0
 40
0.0
 40
0.0
 40
0.0
 40
0.0408363800744056
 40
0.0826320357018433
 40
0.1246915344860326
 40
0.1670133032928332
 40
0.2095550711953902
 40
0.2522561289729229
 40
0.2950562560143891
 40
0.3379064086235575
 40
0.3807697386887935
 40
0.4236216211155002
 40
0.4664527070830045
 40
0.509259567844463
 40
0.5520425179169081
 40
0.5948041217786556
 40
0.6375482355678319
 40
0.6802794248676085
 40
0.7230026302417778
 40
0.7657229877112051
 40
0.8084455610159625
 40
0.851174077465282
 40
0.8939138777900711
 40
0.9366702890639134
 40
0.9794485180456837
 40
1.0
 40
1.0
 40
1.0
 40
1.0
 10
268.4403484024028
 20
50.07253314934353
 30
0.0
 10
268.1914862363621
 20
50.12696487296869
 30
0.0
 10
267.6879159553616
 20
50.23710696004185
 30
0.0
 10
266.8849885973911
 20
50.28427194584206
 30
0.0
 10
266.0481254403102
 20
50.2444088854874
 30
0.0
 10
265.1834192120698
 20
50.10797817364585
 30
0.0
 10
264.2975262672065
 20
49.87787734750481
 30
0.0
 10
263.3963059095529
 20
49.55479184883857
 30
0.0
 10
262.486166068392
 20
49.14113497569779
 30
0.0
 10
261.5734164197372
 20
48.63988582324799
 30
0.0
 10
260.664265269226
 20
48.0547474687386
 30
0.0
 10
259.7647040735593
 20
47.38993546746459
 30
0.0
 10
258.8805063661966
 20
46.65010220547794
 30
0.0
 10
258.0172389666351
 20
45.84027196505096
 30
0.0
 10
257.1803095394978
 20
44.96584669230523
 30
0.0
 10
256.3749567709062
 20
44.03258328569724
 30
0.0
 10
255.6062312956458
 20
43.04656904020436
 30
0.0
 10
254.8789732608579
 20
42.01419314993028
 30
0.0
 10
254.1977782909208
 20
40.94211155113953
 30
0.0
 10
253.5669965733799
 20
39.83721608990543
 30
0.0
 10
252.9906155170081
 20
38.70658428377851
 30
0.0
 10
252.472585581904
 20
37.55750071436682
 30
0.0
 10
252.0154519410385
 20
36.39711360773176
 30
0.0
 10
251.6253597042401
 20
35.2334726187255
 30
0.0
 10
251.3508616812953
 20
34.27289361518473
 30
0.0
 10
251.2249864873234
 20
33.70644732244552
 30
0.0
 10
251.1841380176372
 20
33.52262663873724
 30
0.0
  0
LINE
  5
16E
330
1F
100
AcDbEntity
  8
0
  6
Continuous
 62
     7
370
    15
100
AcDbLine
 10
260.8738656341
 20
48.1753192172
 30
0.0
 11
240.9823940825
 21
55.3434170937
 31
0.0
  0
LINE
  5
16F
330
1F
100
AcDbEntity
  8
0
  6
Continuous
 62
     7
370
    15
100
AcDbLine
 10
234.6109246711
 20
44.3065124827
 30
0.0
 11
253.6387987575
 21
28.2395329054
 31
0.0
  0
LINE
  5
170
330
1F
100
AcDbEntity
  8
0
  6
Continuous
 62
     7
370
    15
100
AcDbLine
 10
254.1331717209
 20
22.2080560913
 30
0.0
 11
257.1648920453
 21
20.4578812016
 31
0.0
  0
SPLINE
  5
171
330
1F
100
AcDbEntity
  8
0
  6
Continuous
 62
     7
370
    15
100
AcDbSpline
210
0.0
220
0.0
230
1.0
 70
     8
 71
     3
 72
    12
 73
     8
 74
     0
 42
0.000000001
 43
0.00000001
 40
0.0
 40
0.0
 40
0.0
 40
0.0
 40
0.0796898634194908
 40
0.3187031276461527
 40
0.557062562155933
 40
0.7941556218789102
 40
1.0
 40
1.0
 40
1.0
 40
1.0
 10
251.1699257127192
 20
26.27477136861877
 30
0.0
 10
251.1983508109504
 20
26.17720120550756
 30
0.0
 10
251.312031112575
 20
25.78698951716778
 30
0.0
 10
251.5632611056822
 20
25.14867958365636
 30
0.0
 10
251.9516874851959
 20
24.39376894835145
 30
0.0
 10
252.3850689875041
 20
23.73754589805565
 30
0.0
 10
252.7192422577923
 20
23.37348647826094
 30
0.0
 10
252.8745411400498
 20
23.20429873646264
 30
0.0
  0
SPLINE
  5
172
330
1F
100
AcDbEntity
  8
0
  6
Continuous
 62
     7
370
    15
100
AcDbSpline
210
0.0
220
0.0
230
1.0
 70
     8
 71
     3
 72
    25
 73
    21
 74
     0
 42
0.000000001
 43
0.00000001
 40
0.0
 40
0.0
 40
0.0
 40
0.0
 40
0.028353213013031
 40
0.0832872775682947
 40
0.1391559343315514
 40
0.1961819958283576
 40
0.2541722508321149
 40
0.3127332264598331
 40
0.3715091566737266
 40
0.4302438854321537
 40
0.4888766991116574
 40
0.5474068061628955
 40
0.6058614766329018
 40
0.6642797764795493
 40
0.7227055393750099
 40
0.7811729114023053
 40
0.8397256229386516
 40
0.8984102708653411
 40
0.9572682205006331
 40
1.0
 40
1.0
 40
1.0
 40
1.0
 10
240.8332322161011
 20
55.37906148707427
 30
0.0
 10
240.7497251279664
 20
55.40595968200509
 30
0.0
 10
240.5044238979012
 20
55.48497285861612
 30
0.0
 10
240.0590248836639
 20
55.51377169214537
 30
0.0
 10
239.5091436068938
 20
55.47233596518574
 30
0.0
 10
238.935395705489
 20
55.33200985473531
 30
0.0
 10
238.3480187695364
 20
55.09964080066436
 30
0.0
 10
237.7563582445178
 20
54.77661186170366
 30
0.0
 10
237.1714439903212
 20
54.36933419157473
 30
0.0
 10
236.6033885843823
 20
53.88550861070051
 30
0.0
 10
236.0613072027795
 20
53.33400198015894
 30
0.0
 10
235.553285161823
 20
52.7240645223446
 30
0.0
 10
235.0868243761378
 20
52.06550902491731
 30
0.0
 10
234.6688805775606
 20
51.36864818465349
 30
0.0
 10
234.3057993803924
 20
50.64422938416858
 30
0.0
 10
234.003400970128
 20
49.90335917387193
 30
0.0
 10
233.7662316917565
 20
49.15697994721155
 30
0.0
 10
233.6001102811846
 20
48.41691734436111
 30
0.0
 10
233.5116010146738
 20
47.7581522881497
 30
0.0
 10
233.5020678363769
 20
47.35945736866553
 30
0.0
 10
233.4980578869817
 20
47.19175396466952
 30
0.0
  0
SPLINE
  5
173
330
1F
100
AcDbEntity
  8
0
  6
Continuous
 62
     7
370
    15
100
AcDbSpline
210
0.0
220
0.0
230
1.0
 70
     8
 71
     3
 72
    13
 73
     9
 74
     0
 42
0.000000001
 43
0.00000001
 40
0.0
 40
0.0
 40
0.0
 40
0.0
 40
0.1011307976969111
 40
0.2923685902370594
 40
0.4836418253055695
 40
0.6734404424211806
 40
0.8601266875302223
 40
1.0
 40
1.0
 40
1.0
 40
1.0
 10
233.4980578869817
 20
47.19175396466952
 30
0.0
 10
233.5002517438028
 20
47.07134637685522
 30
0.0
 10
233.50659417203
 20
46.72324869044508
 30
0.0
 10
233.5776915129096
 20
46.1786762295607
 30
0.0
 10
233.7373460099949
 20
45.58289756423387
 30
0.0
 10
233.9792171129565
 20
45.05511751061238
 30
0.0
 10
234.2634374207743
 20
44.62879326991494
 30
0.0
 10
234.4967382751598
 20
44.42049399304709
 30
0.0
 10
234.5966666421226
 20
44.3312744030385
 30
0.0
  0
LWPOLYLINE
  5
174
330
1F
100
AcDbEntity
  8
0
  6
Continuous
 62
     7
370
    15
100
AcDbPolyline
 90
       25
 70
   128
 43
0.0
 10
276.5511046239
 20
33.3109627179
 10
276.1003428617
 20
33.2680793412
 10
275.645714259
 20
33.2940068719
 10
275.2182010039
 20
33.3869783914
 10
274.8469374181
 20
33.5406580446
 10
274.5572245015
 20
33.7445728168
 10
274.3688057105
 20
33.9848262535
 10
274.2945214745
 20
34.2450454799
 10
274.3394341412
 20
34.5074969858
 10
274.5004829868
 20
34.7542951347
 10
274.7666927985
 20
34.9686210407
 10
275.1199218176
 20
35.1358687475
 10
275.5360980701
 20
35.2446406003
 10
275.9868598323
 20
35.287523977
 10
276.441488435
 20
35.2615964463
 10
276.8690016901
 20
35.1686249267
 10
277.2402652759
 20
35.0149452736
 10
277.5299781925
 20
34.8110305013
 10
277.7183969835
 20
34.5707770647
 10
277.7926812195
 20
34.3105578383
 10
277.7477685528
 20
34.0481063324
 10
277.5867197072
 20
33.8013081834
 10
277.3205098955
 20
33.5869822774
 10
276.9672808764
 20
33.4197345706
 10
276.5511046239
 20
33.3109627179
  0
LWPOLYLINE
  5
175
330
1F
100
AcDbEntity
  8
0
  6
Continuous
 62
     7
370
    15
100
AcDbPolyline
 90
       12
 70
   128
 43
0.0
 10
276.623605092
 20
32.9687076662
 10
276.1486885741
 20
32.9206859275
 10
275.6676647685
 20
32.9396712263
 10
275.2084890304
 20
33.0245602058
 10
274.7978469847
 20
33.1704194274
 10
274.4596036543
 20
33.368772083
 10
274.2134165122
 20
33.6080906375
 10
274.0735930603
 20
33.8744667662
 10
274.0482593293
 20
34.1524196568
 10
274.1388876237
 20
34.4257956977
 10
274.3402109562
 20
34.678707267
 10
274.6291579912
 20
34.8899418894
  0
LWPOLYLINE
  5
176
330
1F
100
AcDbEntity
  8
0
  6
Continuous
 62
     7
370
    15
100
AcDbPolyline
 90
       10
 70
   128
 43
0.0
 10
277.4580447028
 20
34.8899418894
 10
277.6275990397
 20
34.7785608292
 10
277.8737861818
 20
34.5392422748
 10
278.0136096337
 20
34.272866146
 10
278.0389433647
 20
33.9949132554
 10
277.9483150704
 20
33.7215372145
 10
277.7469917378
 20
33.4686256453
 10
277.4466735473
 20
33.2508768487
 10
277.0648139005
 20
33.0809455933
 10
276.623605092
 20
32.9687076662
  0
LWPOLYLINE
  5
177
330
1F
100
AcDbEntity
  8
0
  6
Continuous
 62
     7
370
    15
100
AcDbPolyline
 90
       21
 70
   128
 43
0.0
 10
276.3843535472
 20
33.62863837
 10
276.0201845939
 20
33.5996233139
 10
275.6583078355
 20
33.6369930794
 10
275.3341462906
 20
33.7370896535
 10
275.0794311496
 20
33.890114886
 10
274.9190957054
 20
34.0810896011
 10
274.8688347082
 20
34.2913198629
 10
274.9335680547
 20
34.5002268688
 10
275.1069591939
 20
34.6873613454
 10
275.3720353931
 20
34.8344052664
 10
275.7028491468
 20
34.9269649482
 10
276.0670181001
 20
34.9559800042
 10
276.4288948585
 20
34.9186102387
 10
276.7530564034
 20
34.8185136647
 10
277.0077715444
 20
34.6654884322
 10
277.1681069886
 20
34.4745137171
 10
277.2183679858
 20
34.2642834552
 10
277.1536346393
 20
34.0553764494
 10
276.9802435001
 20
33.8682419727
 10
276.715167301
 20
33.7211980518
 10
276.3843535472
 20
33.62863837
  0
SPLINE
  5
178
330
1F
100
AcDbEntity
  8
0
  6
Continuous
 62
     7
370
    15
100
AcDbSpline
210
0.0
220
0.0
230
1.0
 70
     8
 71
     3
 72
    10
 73
     6
 74
     0
 42
0.000000001
 43
0.00000001
 40
0.0
 40
0.0
 40
0.0
 40
0.0
 40
0.4391222274230495
 40
0.7513714712594611
 40
1.0
 40
1.0
 40
1.0
 40
1.0
 10
277.1486798745046
 20
34.45453995366351
 30
0.0
 10
277.1110950937856
 20
34.3056845755968
 30
0.0
 10
277.0467846803693
 20
34.05098172195348
 30
0.0
 10
276.9532989062835
 20
33.86237027851704
 30
0.0
 10
276.9067686385063
 20
33.82290021623384
 30
0.0
 10
276.8861424832459
 20
33.80540374196693
 30
0.0
  0
SPLINE
  5
179
330
1F
100
AcDbEntity
  8
0
  6
Continuous
 62
     7
370
    15
100
AcDbSpline
210
0.0
220
0.0
230
1.0
 70
     8
 71
     3
 72
    10
 73
     6
 74
     0
 42
0.000000001
 43
0.00000001
 40
0.0
 40
0.0
 40
0.0
 40
0.0
 40
0.4391222274230405
 40
0.7513714712594547
 40
1.0
 40
1.0
 40
1.0
 40
1.0
 10
276.3061387382658
 20
34.91036253190463
 30
0.0
 10
276.4267566955803
 20
34.78918188043053
 30
0.0
 10
276.6331431784043
 20
34.58183258517714
 30
0.0
 10
276.9331599110412
 20
34.46205733523789
 30
0.0
 10
277.0824859346392
 20
34.45684881218354
 30
0.0
 10
277.1486798745046
 20
34.45453995366351
 30
0.0
  0
SPLINE
  5
17A
330
1F
100
AcDbEntity
  8
0
  6
Continuous
 62
     7
370
    15
100
AcDbSpline
210
0.0
220
0.0
230
1.0
 70
     8
 71
     3
 72
    11
 73
     7
 74
     0
 42
0.000000001
 43
0.00000001
 40
0.0
 40
0.0
 40
0.0
 40
0.0
 40
0.1845133558519119
 40
0.5180565039163907
 40
0.8676122830484996
 40
1.0
 40
1.0
 40
1.0
 40
1.0
 10
275.2010602107681
 20
34.71704889844917
 30
0.0
 10
275.2652377197443
 20
34.70285226273473
 30
0.0
 10
275.4454283394248
 20
34.66299249523097
 30
0.0
 10
275.7812988242135
 20
34.66872884750268
 30
0.0
 10
276.0933889079904
 20
34.78723974203556
 30
0.0
 10
276.260291378219
 20
34.88382970285475
 30
0.0
 10
276.3061387382658
 20
34.91036253190463
 30
0.0
  0
SPLINE
  5
17B
330
1F
100
AcDbEntity
  8
0
  6
Continuous
 62
     7
370
    15
100
AcDbSpline
210
0.0
220
0.0
230
1.0
 70
     8
 71
     3
 72
    10
 73
     6
 74
     0
 42
0.000000001
 43
0.00000001
 40
0.0
 40
0.0
 40
0.0
 40
0.0
 40
0.439122227423054
 40
0.7513714712594655
 40
1.0
 40
1.0
 40
1.0
 40
1.0
 10
274.9385228195094
 20
34.06791268675259
 30
0.0
 10
274.9761076002284
 20
34.10491763171587
 30
0.0
 10
275.0404180136446
 20
34.16823590213025
 30
0.0
 10
275.1339037877305
 20
34.44192052209769
 30
0.0
 10
275.1804340555076
 20
34.63254706898137
 30
0.0
 10
275.2010602107681
 20
34.71704889844917
 30
0.0
  0
SPLINE
  5
17C
330
1F
100
AcDbEntity
  8
0
  6
Continuous
 62
     7
370
    15
100
AcDbSpline
210
0.0
220
0.0
230
1.0
 70
     8
 71
     3
 72
     9
 73
     5
 74
     0
 42
0.000000001
 43
0.00000001
 40
0.0
 40
0.0
 40
0.0
 40
0.0
 40
0.341796518261565
 40
1.0
 40
1.0
 40
1.0
 40
1.0
 10
275.2532452907486
 20
33.79331184414107
 30
0.0
 10
275.2153532979229
 20
33.81659877466775
 30
0.0
 10
275.1044920374913
 20
33.8847297510894
 30
0.0
 10
275.004402259723
 20
33.99520047297641
 30
0.0
 10
274.9385228195094
 20
34.06791268675259
 30
0.0
  0
LINE
  5
17D
330
1F
100
AcDbEntity
  8
0
  6
Continuous
 62
     7
370
    15
100
AcDbLine
 10
275.2010602108
 20
33.8280378641
 30
0.0
 11
275.2010602108
 21
34.7170488984
 31
0.0
  0
LINE
  5
17E
330
1F
100
AcDbEntity
  8
0
  6
Continuous
 62
     7
370
    15
100
AcDbLine
 10
276.3061387383
 20
33.6166373117
 30
0.0
 11
276.3061387383
 21
34.9103625319
 31
0.0
  0
ARC
  5
17F
330
1F
100
AcDbEntity
  8
0
  6
Continuous
 62
     7
370
    15
100
AcDbCircle
 10
275.3367637634
 20
40.1573809743
 30
0.0
 40
5.352795607848643
100
AcDbArc
 50
43.8129644303
 51
76.3148922377
  0
ARC
  5
180
330
1F
100
AcDbEntity
  8
0
  6
Continuous
 62
     7
370
    15
100
AcDbCircle
 10
264.9301469357
 20
22.1307931138
 30
0.0
 40
5.330630905681328
100
AcDbArc
 50
224.0847977285
 51
255.6655798494
  0
ARC
  5
181
330
1F
100
AcDbEntity
  8
0
  6
Continuous
 62
     7
370
    15
100
AcDbCircle
 10
264.4999299166
 20
24.1670009403
 30
0.0
 40
6.890847990550932
100
AcDbArc
 50
188.312493873
 51
236.7139908619
  0
SPLINE
  5
182
330
1F
100
AcDbEntity
  8
0
  6
Continuous
 62
     7
370
    15
100
AcDbSpline
210
0.0
220
0.0
230
1.0
 70
     8
 71
     3
 72
    29
 73
    25
 74
     0
 42
0.000000001
 43
0.00000001
 40
0.0
 40
0.0
 40
0.0
 40
0.0
 40
0.022617010504675
 40
0.0451713142265269
 40
0.0676870228522217
 40
0.0901883721292881
 40
0.1126996441720091
 40
0.1352450890217754
 40
0.1578488467233686
 40
0.180534871159394
 40
0.2033268568200607
 40
0.2262481695790738
 40
0.2493217824052779
 40
0.3751991801918881
 40
0.4999614246459502
 40
0.499971796076067
 40
0.6247044141121627
 40
0.7509557879398104
 40
0.7931713871196749
 40
0.8349081045063343
 40
0.8763104515934019
 40
0.9175264576337645
 40
0.9587061619419153
 40
1.0
 40
1.0
 40
1.0
 40
1.0
 10
257.6816365391712
 20
28.32503079669823
 30
0.0
 10
257.7000017642951
 20
28.27619090689302
 30
0.0
 10
257.7366812960458
 20
28.17864653829826
 30
0.0
 10
257.7883711247134
 20
28.03118392888467
 30
0.0
 10
257.8375524845381
 20
27.88324663935536
 30
0.0
 10
257.8840421544386
 20
27.73475477411846
 30
0.0
 10
257.9279522508987
 20
27.5857628079834
 30
0.0
 10
257.9693174423545
 20
27.43629101940536
 30
0.0
 10
258.0081947290588
 20
27.28637091609954
 30
0.0
 10
258.0446365740802
 20
27.136032106124
 30
0.0
 10
258.0786985551654
 20
26.98530965450747
 30
0.0
 10
258.1104356082603
 20
26.83422795778317
 30
0.0
 10
258.1835938801274
 20
26.45850675083334
 30
0.0
 10
258.2692704201604
 20
25.86973632912697
 30
0.0
 10
258.2950027819884
 20
25.36825272511551
 30
0.0
 10
258.2954399382161
 20
24.89779989988218
 30
0.0
 10
258.2700088815044
 20
24.45135736998976
 30
0.0
 10
258.1780415654623
 20
24.01533069850106
 30
0.0
 10
258.0854876714141
 20
23.74713781588201
 30
0.0
 10
258.0219050475239
 20
23.60088670504611
 30
0.0
 10
257.9502595434878
 20
23.46996637319986
 30
0.0
 10
257.8700047691759
 20
23.35452004074971
 30
0.0
 10
257.7816031095837
 20
23.25299803630601
 30
0.0
 10
257.7152464556734
 20
23.19799915934451
 30
0.0
 10
257.6820222137888
 20
23.17046166485276
 30
0.0
  0
LWPOLYLINE
  5
183
330
1F
100
AcDbEntity
  8
0
  6
Continuous
 62
     7
370
    15
100
AcDbPolyline
 90
       27
 70
   128
 43
0.0
 10
257.681417798
 20
28.3251570733
 10
257.9120558125
 20
29.5256534097
 10
258.2208419099
 20
30.7445977844
 10
258.6055167155
 20
31.973071234
 10
259.0632655805
 20
33.2020850714
 10
259.5907391762
 20
34.4226466554
 10
260.184078001
 20
35.6258251896
 10
260.8389406204
 20
36.8028170686
 10
261.5505354329
 20
37.9450102937
 10
262.31365573
 20
39.0440474864
 10
263.1227177934
 20
40.091887039
 10
263.9718017509
 20
41.0808619547
 10
264.8546948919
 20
42.0037359468
 10
265.7649371255
 20
42.8537563861
 10
266.6958682484
 20
43.6247037099
 10
267.6406766779
 20
44.3109369298
 10
268.5924492915
 20
44.907434907
 10
269.5442220101
 20
45.4098330916
 10
270.4890307538
 20
45.8144554577
 10
271.4199623979
 20
46.1183414009
 10
272.3302053556
 20
46.319267401
 10
273.2130994186
 20
46.4157632911
 10
274.0621844892
 20
46.4071230149
 10
274.8712478486
 20
46.2934097929
 10
275.6343696151
 20
46.0754556599
 10
276.3459660596
 20
45.7548553769
 10
276.4668236598
 20
45.6871949857
  0
LWPOLYLINE
  5
184
330
1F
100
AcDbEntity
  8
0
  6
Continuous
 62
     7
370
    15
100
AcDbPolyline
 90
       53
 70
   128
 43
0.0
 10
273.7808596472
 20
22.6429244651
 10
273.8213311431
 20
23.4389096446
 10
273.9421554651
 20
24.2700149623
 10
274.1415707226
 20
25.1241210311
 10
274.4166689921
 20
25.9887730613
 10
274.7634387213
 20
26.8513624793
 10
275.1768232268
 20
27.699310789
 10
275.6507944316
 20
28.5202529946
 10
276.1784407682
 20
29.3022179101
 10
276.7520679649
 20
30.0338027262
 10
277.3633112454
 20
30.704339289
 10
278.0032573064
 20
31.3040496655
 10
278.6625742932
 20
31.8241887278
 10
279.3316478795
 20
32.2571716773
 10
280.0007214658
 20
32.5966846475
 10
280.6600384527
 20
32.8377767749
 10
281.2999845136
 20
32.9769323933
 10
281.9112277942
 20
33.0121223004
 10
282.4848549909
 20
32.9428333482
 10
283.0125013275
 20
32.7700759255
 10
283.4864725322
 20
32.4963692247
 10
283.8998570377
 20
32.1257045058
 10
284.246626767
 20
31.6634868951
 10
284.5217250364
 20
31.116456566
 10
284.721140294
 20
30.4925904527
 10
284.841964616
 20
29.8009859279
 10
284.8824361118
 20
29.0517281429
 10
284.841964616
 20
28.2557429634
 10
284.721140294
 20
27.4246376457
 10
284.5217250364
 20
26.5705315769
 10
284.246626767
 20
25.7058795467
 10
283.8998570377
 20
24.8432901287
 10
283.4864725322
 20
23.995341819
 10
283.0125013275
 20
23.1743996135
 10
282.4848549909
 20
22.3924346979
 10
281.9112277942
 20
21.6608498818
 10
281.2999845136
 20
20.990313319
 10
280.6600384527
 20
20.3906029426
 10
280.0007214658
 20
19.8704638802
 10
279.3316478795
 20
19.4374809307
 10
278.6625742932
 20
19.0979679605
 10
278.0032573064
 20
18.8568758331
 10
277.3633112454
 20
18.7177202147
 10
276.7520679649
 20
18.6825303076
 10
276.1784407682
 20
18.7518192599
 10
275.6507944316
 20
18.9245766825
 10
275.1768232268
 20
19.1982833833
 10
274.7634387213
 20
19.5689481022
 10
274.4166689921
 20
20.0311657129
 10
274.1415707226
 20
20.578196042
 10
273.9421554651
 20
21.2020621553
 10
273.8213311431
 20
21.8936666801
 10
273.7808596472
 20
22.6429244651
  0
LWPOLYLINE
  5
185
330
1F
100
AcDbEntity
  8
0
  6
Continuous
 62
     7
370
    15
100
AcDbPolyline
 90
       28
 70
   128
 43
0.0
 10
273.5687276129
 20
22.6429244651
 10
273.6099724494
 20
23.4541195525
 10
273.7331055164
 20
24.3011058635
 10
273.9363312566
 20
25.1715324305
 10
274.2166861809
 20
26.052706474
 10
274.5700820833
 20
26.9317784923
 10
274.9913656558
 20
27.7959296359
 10
275.4743936351
 20
28.6325586352
 10
276.0121223858
 20
29.4294655555
 10
276.5967106117
 20
30.1750296994
 10
277.2196337002
 20
30.8583790627
 10
277.8718080299
 20
31.4695488731
 10
278.5437234304
 20
31.9996268984
 10
279.2255818623
 20
32.4408834075
 10
279.9074402943
 20
32.7868838867
 10
280.5793556948
 20
33.03258287
 10
281.2315300245
 20
33.1743975129
 10
281.854453113
 20
33.2102598386
 10
282.4390413389
 20
33.1396468937
 10
282.9767700896
 20
32.9635883738
 10
283.4597980689
 20
32.6846516087
 10
283.8810816414
 20
32.3069041244
 10
284.2344775438
 20
31.83585433
 10
284.5148324681
 20
31.2783711922
 10
284.7180582083
 20
30.6425840703
 10
284.8411912753
 20
29.9377641724
 10
284.8824361118
 20
29.1741893597
 10
284.8824361118
 20
29.1741893597
  0
LWPOLYLINE
  5
186
330
1F
100
AcDbEntity
  8
0
  6
Continuous
 62
     7
370
    15
100
AcDbPolyline
 90
       15
 70
   128
 43
0.0
 10
279.2265012603
 20
19.3767612607
 10
279.2255818623
 20
19.3762304173
 10
278.5437234304
 20
19.0302299381
 10
277.8718080299
 20
18.7845309548
 10
277.2196337002
 20
18.6427163119
 10
276.5967106117
 20
18.6068539862
 10
276.0121223858
 20
18.6774669311
 10
275.4743936351
 20
18.853525451
 10
274.9913656558
 20
19.1324622161
 10
274.5700820833
 20
19.5102097003
 10
274.2166861809
 20
19.9812594947
 10
273.9363312566
 20
20.5387426326
 10
273.7331055164
 20
21.1745297545
 10
273.6099724494
 20
21.8793496524
 10
273.5687276129
 20
22.6429244651
  0
SPLINE
  5
187
330
1F
100
AcDbEntity
  8
0
  6
Continuous
 62
     7
370
    15
100
AcDbSpline
210
0.0
220
0.0
230
1.0
 70
     8
 71
     3
 72
    42
 73
    38
 74
     0
 42
0.000000001
 43
0.00000001
 40
0.0
 40
0.0
 40
0.0
 40
0.0
 40
0.0312499999999997
 40
0.0312499999999997
 40
0.0624999999999995
 40
0.0624999999999995
 40
0.1249999999999992
 40
0.1249999999999992
 40
0.1874999999999989
 40
0.1874999999999989
 40
0.2499999999999987
 40
0.2499999999999987
 40
0.3124999999999984
 40
0.3124999999999984
 40
0.3749999999999981
 40
0.3749999999999981
 40
0.4374999999999979
 40
0.4374999999999979
 40
0.4999999999999977
 40
0.4999999999999977
 40
0.5624999999999974
 40
0.5624999999999974
 40
0.6249999999999972
 40
0.6249999999999972
 40
0.687499999999997
 40
0.687499999999997
 40
0.7499999999999968
 40
0.7499999999999968
 40
0.7812499999999972
 40
0.7812499999999972
 40
0.8124999999999977
 40
0.8124999999999977
 40
0.8749999999999984
 40
0.8749999999999984
 40
0.9374999999999992
 40
0.9374999999999992
 40
1.0
 40
1.0
 40
1.0
 40
1.0
 10
277.8997566476217
 20
33.20626601231339
 30
0.0
 10
277.8428583207745
 20
33.17341930738628
 30
0.0
 10
277.7824459339251
 20
33.14155357862392
 30
0.0
 10
277.6544404067811
 20
33.07985670398654
 30
0.0
 10
277.5868561295939
 20
33.05008048362183
 30
0.0
 10
277.3791603900075
 20
32.96639176715028
 30
0.0
 10
277.2322812508655
 20
32.91710287526373
 30
0.0
 10
276.9227779169447
 20
32.83229533966005
 30
0.0
 10
276.7654319342982
 20
32.79821718252249
 30
0.0
 10
276.4458856968697
 20
32.74649769368813
 30
0.0
 10
276.2831537109228
 20
32.72902732220347
 30
0.0
 10
275.9647907421123
 20
32.71266908625894
 30
0.0
 10
275.8075266007725
 20
32.71346735090533
 30
0.0
 10
275.4968000018047
 20
32.73431386790016
 30
0.0
 10
275.3473937849146
 20
32.754094186581
 30
0.0
 10
275.0594690934239
 20
32.812533392033
 30
0.0
 10
274.9199616634476
 20
32.85158718365243
 30
0.0
 10
274.6569214089237
 20
32.94842874203376
 30
0.0
 10
274.5344987766576
 20
33.00560843298489
 30
0.0
 10
274.3072977920175
 20
33.13730428225606
 30
0.0
 10
274.2017029623595
 20
33.21258504102745
 30
0.0
 10
274.0136052228913
 20
33.37742341050386
 30
0.0
 10
273.931452526982
 20
33.46631075640236
 30
0.0
 10
273.7908454708158
 20
33.65602613702259
 30
0.0
 10
273.7319751590627
 20
33.75791305504704
 30
0.0
 10
273.6426319279365
 20
33.96785401760911
 30
0.0
 10
273.612081986055
 20
34.07523732979513
 30
0.0
 10
273.5882516275245
 20
34.23878712187236
 30
0.0
 10
273.583999764457
 20
34.29371854287209
 30
0.0
 10
273.5833897808625
 20
34.40423872634565
 30
0.0
 10
273.5871070822367
 20
34.46001002174426
 30
0.0
 10
273.6104609447152
 20
34.62383971496549
 30
0.0
 10
273.6420352145015
 20
34.72973616233026
 30
0.0
 10
273.7396386928787
 20
34.93271166281345
 30
0.0
 10
273.8071818230947
 20
35.03100935833483
 30
0.0
 10
273.9735170853885
 20
35.20551713274389
 30
0.0
 10
274.0722286967839
 20
35.28282374570001
 30
0.0
 10
274.1874460463923
 20
35.349337305848
 30
0.0
  0
SPLINE
  5
188
330
1F
100
AcDbEntity
  8
0
  6
Continuous
 62
     7
370
    15
100
AcDbSpline
210
0.0
220
0.0
230
1.0
 70
     8
 71
     3
 72
    42
 73
    38
 74
     0
 42
0.000000001
 43
0.00000001
 40
0.0
 40
0.0
 40
0.0
 40
0.0
 40
0.0312499999999997
 40
0.0312499999999997
 40
0.0624999999999994
 40
0.0624999999999994
 40
0.1249999999999992
 40
0.1249999999999992
 40
0.1874999999999989
 40
0.1874999999999989
 40
0.2499999999999987
 40
0.2499999999999987
 40
0.3124999999999984
 40
0.3124999999999984
 40
0.3749999999999981
 40
0.3749999999999981
 40
0.4999999999999977
 40
0.4999999999999977
 40
0.5624999999999981
 40
0.5624999999999981
 40
0.6249999999999986
 40
0.6249999999999986
 40
0.687499999999999
 40
0.687499999999999
 40
0.7499999999999993
 40
0.7499999999999993
 40
0.8124999999999998
 40
0.8124999999999998
 40
0.84375
 40
0.84375
 40
0.8750000000000001
 40
0.8750000000000001
 40
0.9374999999999999
 40
0.9374999999999999
 40
0.96875
 40
0.96875
 40
1.0
 40
1.0
 40
1.0
 40
1.0
 10
274.1874460463923
 20
35.349337305848
 30
0.0
 10
274.2450556022218
 20
35.3825945945271
 30
0.0
 10
274.3065926068792
 20
35.41291555252033
 30
0.0
 10
274.4342544014312
 20
35.46635693492588
 30
0.0
 10
274.500791062228
 20
35.48972696290379
 30
0.0
 10
274.7083152410264
 20
35.55017572890103
 30
0.0
 10
274.8586152481474
 20
35.57753175490092
 30
0.0
 10
275.1654507162297
 20
35.60644140517547
 30
0.0
 10
275.3245760102939
 20
35.60854943460126
 30
0.0
 10
275.6463360079999
 20
35.59145130199878
 30
0.0
 10
275.8070375522082
 20
35.57253011570574
 30
0.0
 10
276.1284278853279
 20
35.51750637161486
 30
0.0
 10
276.2858895493543
 20
35.48190223100075
 30
0.0
 10
276.5918799537129
 20
35.39865391138742
 30
0.0
 10
276.741008556175
 20
35.35087649008192
 30
0.0
 10
277.1771021197811
 20
35.19131952117707
 30
0.0
 10
277.438632178369
 20
35.0692330886881
 30
0.0
 10
277.7825682474747
 20
34.87002986189696
 30
0.0
 10
277.8863171590978
 20
34.80239034466046
 30
0.0
 10
278.0726860113771
 20
34.66433961929243
 30
0.0
 10
278.155638360489
 20
34.59360034659843
 30
0.0
 10
278.2975077754834
 20
34.44949590703283
 30
0.0
 10
278.355143694951
 20
34.37755232646698
 30
0.0
 10
278.4438276521126
 20
34.23222448298861
 30
0.0
 10
278.4749985865999
 20
34.15839921857816
 30
0.0
 10
278.5070750188512
 20
34.0089925265713
 30
0.0
 10
278.5078178815749
 20
33.93498377685574
 30
0.0
 10
278.4850097226713
 20
33.82343365954215
 30
0.0
 10
278.4733903973893
 20
33.78616192307661
 30
0.0
 10
278.4415284333837
 20
33.71117091973345
 30
0.0
 10
278.4210950440307
 20
33.67319241370721
 30
0.0
 10
278.3471708930438
 20
33.56063220939414
 30
0.0
 10
278.2814129019924
 20
33.48722105697701
 30
0.0
 10
278.1562014181715
 20
33.37868321325551
 30
0.0
 10
278.1097037749776
 20
33.34261170938199
 30
0.0
 10
278.010040677551
 20
33.27294152260163
 30
0.0
 10
277.9566558446306
 20
33.23911321957421
 30
0.0
 10
277.8997566476217
 20
33.20626601231339
 30
0.0
  0
LWPOLYLINE
  5
189
330
1F
100
AcDbEntity
  8
0
  6
Continuous
 62
     7
370
    15
100
AcDbPolyline
 90
       49
 70
   128
 43
0.0
 10
274.5586771065
 20
23.0919489266
 10
274.5995105331
 20
23.8349363121
 10
274.7213121418
 20
24.6123562482
 10
274.9219978731
 20
25.4109068645
 10
275.1981339386
 20
26.2169247383
 10
275.5449955736
 20
27.0166186804
 10
275.9566478795
 20
27.7963057058
 10
276.4260473711
 20
28.5426451533
 10
276.945162493
 20
29.242866948
 10
277.5051110415
 20
29.8849901008
 10
278.0963121418
 20
30.4580277066
 10
278.7086501789
 20
30.9521749331
 10
279.3316478795
 20
31.3589767842
 10
279.9546455801
 20
31.6714727675
 10
280.5669836173
 20
31.8843159901
 10
281.1581847175
 20
31.9938646453
 10
281.718133266
 20
31.9982443254
 10
282.2372483879
 20
31.8973800927
 10
282.7066478795
 20
31.6929977624
 10
283.1183001854
 20
31.3885943727
 10
283.4651618205
 20
30.98937835
 10
283.741297886
 20
30.5021803911
 10
283.9419836173
 20
29.9353365882
 10
284.0637852259
 20
29.298545796
 10
284.1046186525
 20
28.6027036814
 10
284.0637852259
 20
27.8597162959
 10
283.9419836173
 20
27.0822963598
 10
283.741297886
 20
26.2837457436
 10
283.4651618205
 20
25.4777278697
 10
283.1183001854
 20
24.6780339276
 10
282.7066478795
 20
23.8983469022
 10
282.2372483879
 20
23.1520074547
 10
281.718133266
 20
22.45178566
 10
281.1581847175
 20
21.8096625072
 10
280.5669836173
 20
21.2366249014
 10
279.9546455801
 20
20.7424776749
 10
279.3316478795
 20
20.3356758238
 10
278.7086501789
 20
20.0231798405
 10
278.0963121418
 20
19.810336618
 10
277.5051110415
 20
19.7007879627
 10
276.945162493
 20
19.6964082826
 10
276.4260473711
 20
19.7972725153
 10
275.9566478795
 20
20.0016548456
 10
275.5449955736
 20
20.3060582353
 10
275.1981339386
 20
20.705274258
 10
274.9219978731
 20
21.1924722169
 10
274.7213121418
 20
21.7593160198
 10
274.5995105331
 20
22.396106812
 10
274.5586771065
 20
23.0919489266
  0
SPLINE
  5
18A
330
1F
100
AcDbEntity
  8
0
  6
Continuous
 62
     7
370
    15
100
AcDbSpline
210
0.0
220
0.0
230
1.0
 70
     8
 71
     3
 72
    22
 73
    18
 74
     0
 42
0.000000001
 43
0.00000001
 40
0.0
 40
0.0
 40
0.0
 40
0.0
 40
0.1249999999999998
 40
0.1249999999999998
 40
0.2499999999999997
 40
0.2499999999999997
 40
0.3749999999999995
 40
0.3749999999999995
 40
0.4999999999999993
 40
0.4999999999999993
 40
0.6249999999999991
 40
0.6249999999999991
 40
0.7499999999999994
 40
0.7499999999999994
 40
0.8749999999999997
 40
0.8749999999999997
 40
1.0
 40
1.0
 40
1.0
 40
1.0
 10
276.2799282972732
 20
20.39207248425793
 30
0.0
 10
276.2315509952743
 20
20.36016503221347
 30
0.0
 10
276.1828591907496
 20
20.33635041637825
 30
0.0
 10
276.0850837093613
 20
20.30467198098767
 30
0.0
 10
276.0356936767844
 20
20.29681218514751
 30
0.0
 10
275.9380312270609
 20
20.29821561881399
 30
0.0
 10
275.8906059503119
 20
20.30735759794619
 30
0.0
 10
275.7986262303653
 20
20.34219647912343
 30
0.0
 10
275.7536554799418
 20
20.3682559425061
 30
0.0
 10
275.6689696844238
 20
20.43634175913953
 30
0.0
 10
275.6295012144688
 20
20.47794285707205
 30
0.0
 10
275.5561433628816
 20
20.57591835914156
 30
0.0
 10
275.521980439638
 20
20.63298914000478
 30
0.0
 10
275.4615189773092
 20
20.75829362594253
 30
0.0
 10
275.4350053012088
 20
20.82657671582767
 30
0.0
 10
275.3890688429042
 20
20.97416962719219
 30
0.0
 10
275.3696432882123
 20
21.05380664008636
 30
0.0
 10
275.3541813816334
 20
21.13710522144722
 30
0.0
  0
LWPOLYLINE
  5
18B
330
1F
100
AcDbEntity
  8
0
  6
Continuous
 62
     7
370
    15
100
AcDbPolyline
 90
       11
 70
   128
 43
0.0
 10
282.0651694102
 20
23.7318210902
 10
281.5600247834
 20
23.0058732132
 10
281.0066654925
 20
22.3391628031
 10
280.4162665328
 20
21.7451539613
 10
279.8007509093
 20
21.2358425941
 10
279.1725488538
 20
20.8215141563
 10
278.5443467982
 20
20.5105359393
 10
277.9288311747
 20
20.3091880946
 10
277.338432215
 20
20.2215368069
 10
276.7850729241
 20
20.249352179
 10
276.2799282973
 20
20.3920724843
  0
SPLINE
  5
18C
330
1F
100
AcDbEntity
  8
0
  6
Continuous
 62
     7
370
    15
100
AcDbSpline
210
0.0
220
0.0
230
1.0
 70
     8
 71
     3
 72
    22
 73
    18
 74
     0
 42
0.000000001
 43
0.00000001
 40
0.0
 40
0.0
 40
0.0
 40
0.0
 40
0.125
 40
0.125
 40
0.25
 40
0.25
 40
0.375
 40
0.375
 40
0.5
 40
0.5
 40
0.625
 40
0.625
 40
0.75
 40
0.75
 40
0.875
 40
0.875
 40
1.0
 40
1.0
 40
1.0
 40
1.0
 10
282.9909163258815
 20
25.54569846521586
 30
0.0
 10
283.0058552581869
 20
25.46211608525765
 30
0.0
 10
283.0134392490239
 20
25.37708876608081
 30
0.0
 10
283.014215999536
 20
25.20409732614291
 30
0.0
 10
283.0073186061084
 20
25.1155782477829
 30
0.0
 10
282.978541243907
 20
24.93778161870447
 30
0.0
 10
282.9570085712372
 20
24.85006127348232
 30
0.0
 10
282.8999826533795
 20
24.67689187159299
 30
0.0
 10
282.8640484938468
 20
24.59062287842566
 30
0.0
 10
282.779423832851
 20
24.4247048144545
 30
0.0
 10
282.7311822040433
 20
24.34557996783393
 30
0.0
 10
282.6230916630518
 20
24.19483616201186
 30
0.0
 10
282.5625442899795
 20
24.12259695102744
 30
0.0
 10
282.4336875473347
 20
23.99066601357318
 30
0.0
 10
282.365273580137
 20
23.93057320079471
 30
0.0
 10
282.2205564705601
 20
23.82193048257311
 30
0.0
 10
282.1439599855264
 20
23.77332530952841
 30
0.0
 10
282.0651694102417
 20
23.73182109022667
 30
0.0
  0
LWPOLYLINE
  5
18D
330
1F
100
AcDbEntity
  8
0
  6
Continuous
 62
     7
370
    15
100
AcDbPolyline
 90
        9
 70
   128
 43
0.0
 10
282.9909163259
 20
30.7412392117
 10
283.2556874
 20
30.2859548372
 10
283.4482278369
 20
29.7537759673
 10
283.5651316003
 20
29.1541168353
 10
283.604330665
 20
28.4975853988
 10
283.5651316003
 20
27.7957956857
 10
283.4482278369
 20
27.0611623414
 10
283.2556874
 20
26.3066810149
 10
282.9909163259
 20
25.5456984652
  0
SPLINE
  5
18E
330
1F
100
AcDbEntity
  8
0
  6
Continuous
 62
     7
370
    15
100
AcDbSpline
210
0.0
220
0.0
230
1.0
 70
     8
 71
     3
 72
    22
 73
    18
 74
     0
 42
0.000000001
 43
0.00000001
 40
0.0
 40
0.0
 40
0.0
 40
0.0
 40
0.1249999999999998
 40
0.1249999999999998
 40
0.2499999999999997
 40
0.2499999999999997
 40
0.3749999999999995
 40
0.3749999999999995
 40
0.4999999999999993
 40
0.4999999999999993
 40
0.6249999999999991
 40
0.6249999999999991
 40
0.7499999999999994
 40
0.7499999999999994
 40
0.8749999999999997
 40
0.8749999999999997
 40
1.0
 40
1.0
 40
1.0
 40
1.0
 10
282.0651694102417
 20
31.48627194891596
 30
0.0
 10
282.1439445152241
 20
31.50063112282362
 30
0.0
 10
282.2193249573384
 20
31.50903871612613
 30
0.0
 10
282.3635132247547
 20
31.51392362045902
 30
0.0
 10
282.4327256534716
 20
31.51034019058348
 30
0.0
 10
282.562381080773
 20
31.49046760408821
 30
0.0
 10
282.621748149782
 20
31.47443177502415
 30
0.0
 10
282.7298262091508
 20
31.4302995203134
 30
0.0
 10
282.778941600621
 20
31.40184740658349
 30
0.0
 10
282.8636554727291
 20
31.3337453816796
 30
0.0
 10
282.8991003309144
 20
31.29446706537994
 30
0.0
 10
282.9564624228388
 20
31.20572571880918
 30
0.0
 10
282.978456352606
 20
31.1556799483484
 30
0.0
 10
283.0071533548391
 20
31.04871269490485
 30
0.0
 10
283.0141239388562
 20
30.99171159193561
 30
0.0
 10
283.0135453499511
 20
30.87097124575224
 30
0.0
 10
283.0058581919792
 20
30.80698606872025
 30
0.0
 10
282.9909163258815
 20
30.74123921172666
 30
0.0
  0
LWPOLYLINE
  5
18F
330
1F
100
AcDbEntity
  8
0
  6
Continuous
 62
     7
370
    15
100
AcDbPolyline
 90
       11
 70
   128
 43
0.0
 10
276.2799282973
 20
28.1465233429
 10
276.7850729241
 20
28.8724712199
 10
277.338432215
 20
29.5391816301
 10
277.9288311747
 20
30.1331904718
 10
278.5443467982
 20
30.6425018391
 10
279.1725488538
 20
31.0568302769
 10
279.8007509093
 20
31.3678084938
 10
280.4162665328
 20
31.5691563386
 10
281.0066654925
 20
31.6568076263
 10
281.5600247834
 20
31.6289922541
 10
282.0651694102
 20
31.4862719489
  0
SPLINE
  5
190
330
1F
100
AcDbEntity
  8
0
  6
Continuous
 62
     7
370
    15
100
AcDbSpline
210
0.0
220
0.0
230
1.0
 70
     8
 71
     3
 72
    22
 73
    18
 74
     0
 42
0.000000001
 43
0.00000001
 40
0.0
 40
0.0
 40
0.0
 40
0.0
 40
0.125
 40
0.125
 40
0.25
 40
0.25
 40
0.375
 40
0.375
 40
0.5
 40
0.5
 40
0.625
 40
0.625
 40
0.75
 40
0.75
 40
0.875
 40
0.875
 40
1.0
 40
1.0
 40
1.0
 40
1.0
 10
275.3541813816334
 20
26.33264596795802
 30
0.0
 10
275.3696402523115
 20
26.39868006977943
 30
0.0
 10
275.3887448990641
 20
26.46830036642356
 30
0.0
 10
275.43438093458
 20
26.61449827530378
 30
0.0
 10
275.4611007241476
 20
26.69157412794809
 30
0.0
 10
275.5218710639269
 20
26.85090160419773
 30
0.0
 10
275.5553455288565
 20
26.93172809948801
 30
0.0
 10
275.6284697861366
 20
27.09560412784385
 30
0.0
 10
275.668548586716
 20
27.17948047066393
 30
0.0
 10
275.7532013243019
 20
27.34538232636462
 30
0.0
 10
275.7974193413399
 20
27.42682995461806
 30
0.0
 10
275.8895141226687
 20
27.58680791593887
 30
0.0
 10
275.9378925022644
 20
27.66607213732573
 30
0.0
 10
276.0349847848137
 20
27.8163403072742
 30
0.0
 10
276.083855659928
 20
27.88771510696858
 30
0.0
 10
276.1820577222954
 20
28.0232103903713
 30
0.0
 10
276.2315414946652
 20
28.0874673992782
 30
0.0
 10
276.2799282972732
 20
28.14652334294721
 30
0.0
  0
LWPOLYLINE
  5
191
330
1F
100
AcDbEntity
  8
0
  6
Continuous
 62
     7
370
    15
100
AcDbPolyline
 90
        9
 70
   128
 43
0.0
 10
275.3541813816
 20
21.1371052214
 10
275.0894103076
 20
21.5923895959
 10
274.8968698706
 20
22.1245684659
 10
274.7799661072
 20
22.7242275979
 10
274.7407670426
 20
23.3807590343
 10
274.7799661072
 20
24.0825487475
 10
274.8968698706
 20
24.8171820917
 10
275.0894103076
 20
25.5716634183
 10
275.3541813816
 20
26.332645968
  0
SPLINE
  5
192
330
1F
100
AcDbEntity
  8
0
  6
Continuous
 62
     7
370
    15
100
AcDbSpline
210
0.0
220
0.0
230
1.0
 70
     8
 71
     3
 72
     8
 73
     4
 74
     0
 42
0.000000001
 43
0.00000001
 40
0.0
 40
0.0
 40
0.0
 40
0.0
 40
1.0
 40
1.0
 40
1.0
 40
1.0
 10
256.9034814009961
 20
31.60393420020258
 30
0.0
 10
256.2104101659432
 20
31.48807258182786
 30
0.0
 10
255.516789399547
 20
31.37331388867481
 30
0.0
 10
254.8228102387196
 20
31.25930234103665
 30
0.0
  0
SPLINE
  5
193
330
1F
100
AcDbEntity
  8
0
  6
Continuous
 62
     7
370
    15
100
AcDbSpline
210
0.0
220
0.0
230
1.0
 70
     8
 71
     3
 72
     8
 73
     4
 74
     0
 42
0.000000001
 43
0.00000001
 40
0.0
 40
0.0
 40
0.0
 40
0.0
 40
0.0012389803509652
 40
0.0012389803509652
 40
0.0012389803509652
 40
0.0012389803509652
 10
254.3490738245741
 20
31.53283646179066
 30
0.0
 10
254.5071471595551
 20
31.44156538134015
 30
0.0
 10
254.6650653385211
 20
31.3503838542399
 30
0.0
 10
254.8228102387196
 20
31.25930234103665
 30
0.0
  0
LWPOLYLINE
  5
194
330
1F
100
AcDbEntity
  8
0
  6
Continuous
 62
     7
370
    15
100
AcDbPolyline
 90
       28
 70
   128
 43
0.0
 10
254.3490738246
 20
31.5328364618
 10
254.6558893023
 20
32.7542368489
 10
255.0390482244
 20
33.9855183334
 10
255.4957334236
 20
35.2176279454
 10
256.022587132
 20
36.4415066265
 10
256.6157356694
 20
37.6481558357
 10
257.2708179243
 20
38.8287037115
 10
257.983017419
 20
39.9744703018
 10
258.7470977225
 20
41.0770313831
 10
259.5574409513
 20
42.1282803995
 10
260.4080890748
 20
43.120488066
 10
261.2927877214
 20
44.0463591976
 10
262.2050321641
 20
44.8990863475
 10
263.1381151457
 20
45.6723998581
 10
264.0851761944
 20
46.360613959
 10
265.0392520648
 20
46.9586685713
 10
265.9933279352
 20
47.4621665117
 10
266.9403889839
 20
47.8674058228
 10
267.8734719655
 20
48.1714069915
 10
268.7857164082
 20
48.371934856
 10
269.6704150548
 20
48.4675150396
 10
270.5210631783
 20
48.4574447911
 10
271.3314064071
 20
48.3417981517
 10
272.0954867105
 20
48.1214254109
 10
272.8076862052
 20
47.7979468544
 10
273.4627684602
 20
47.3737408509
 10
274.0559169976
 20
46.8519263659
 10
274.4872490829
 20
46.3612173254
  0
LINE
  5
195
330
1F
100
AcDbEntity
  8
0
  6
Continuous
 62
     7
370
    15
100
AcDbLine
 10
251.3173535002
 20
33.2830113515
 30
0.0
 11
254.3490738246
 21
31.5328364618
 31
0.0
  0
ARC
  5
196
330
1F
100
AcDbEntity
  8
0
  6
Continuous
 62
     7
370
    15
100
AcDbCircle
 10
267.2092807827
 20
44.8488171204
 30
0.0
 40
5.354473885141315
100
AcDbArc
 50
60.0571416303
 51
75.7908232695
  0
ARC
  5
197
330
1F
100
AcDbEntity
  8
0
  6
Continuous
 62
     7
370
    15
100
AcDbCircle
 10
282.5174072473
 20
30.2605447367
 30
0.0
 40
1.306493880561423
100
AcDbArc
 50
110.2517772116
 51
120.233502356
  0
LINE
  5
198
330
1F
100
AcDbEntity
  8
0
  6
Continuous
 62
     7
370
    15
100
AcDbLine
 10
281.4377061331
 20
31.1458020566
 30
0.0
 11
281.8595546223
 21
31.3893300058
 31
0.0
  0
LWPOLYLINE
  5
199
330
1F
100
AcDbEntity
  8
0
  6
Continuous
 62
     7
370
    15
100
AcDbPolyline
 90
        9
 70
   128
 43
0.0
 10
276.9073915744
 20
28.5305071301
 10
277.4290422138
 20
29.1741915655
 10
277.9886728045
 20
29.7474054476
 10
278.5740925455
 20
30.2376620816
 10
279.1725488538
 20
30.6342818849
 10
279.771005162
 20
30.9286250276
 10
280.356424903
 20
31.1142796394
 10
280.9160554937
 20
31.1872014839
 10
281.4377061331
 20
31.1458020566
  0
LINE
  5
19A
330
1F
100
AcDbEntity
  8
0
  6
Continuous
 62
     7
370
    15
100
AcDbLine
 10
276.4855430852
 20
28.2869791809
 30
0.0
 11
276.9073915744
 21
28.5305071301
 31
0.0
  0
ARC
  5
19B
330
1F
100
AcDbEntity
  8
0
  6
Continuous
 62
     7
370
    15
100
AcDbCircle
 10
277.348299529
 20
26.8032521387
 30
0.0
 40
1.716331732796291
100
AcDbArc
 50
120.1771113865
 51
128.4969973883
  0
LWPOLYLINE
  5
19C
330
1F
100
AcDbEntity
  8
0
  6
Continuous
 62
     7
370
    15
100
AcDbPolyline
 90
       28
 70
   128
 43
0.0
 10
279.5871479235
 20
30.8491511082
 10
279.6659692835
 20
30.8497727905
 10
280.1135501708
 20
30.7914297178
 10
280.5127140749
 20
30.6281824027
 10
280.8536322557
 20
30.3640505358
 10
281.1279101762
 20
30.0055379204
 10
281.3287942036
 20
29.5614723269
 10
281.4513379067
 20
29.0427881239
 10
281.4925238526
 20
28.4622570379
 10
281.4513379067
 20
27.834173671
 10
281.3287942036
 20
27.1740035201
 10
281.1279101762
 20
26.4980021653
 10
280.8536322557
 20
25.8228150035
 10
280.5127140749
 20
25.1650673834
 10
280.1135501708
 20
24.5409552345
 10
279.6659692835
 20
23.965846269
 10
279.1809923399
 20
23.4539015784
 10
278.6705610819
 20
23.0177269401
 10
278.147244021
 20
22.6680624212
 10
277.6239269602
 20
22.4135179226
 10
277.1134957022
 20
22.2603611747
 10
276.6285187586
 20
22.2123634049
 10
276.1809378713
 20
22.2707064775
 10
275.7817739672
 20
22.4339537927
 10
275.4408557864
 20
22.6980856595
 10
275.1665778659
 20
23.0565982749
 10
274.9656938384
 20
23.5006638685
 10
274.8792343785
 20
23.8190042118
  0
LINE
  5
19D
330
1F
100
AcDbEntity
  8
0
  6
Continuous
 62
     7
370
    15
100
AcDbLine
 10
275.4602382525
 20
21.0809103084
 30
0.0
 11
276.6042153434
 21
21.7413142259
 31
0.0
  0
LINE
  5
19E
330
1F
100
AcDbEntity
  8
0
  6
Continuous
 62
     7
370
    15
100
AcDbLine
 10
275.374472744
 20
21.0351582477
 30
0.0
 11
275.4602382525
 21
21.0809103084
 31
0.0
  0
LWPOLYLINE
  5
19F
330
1F
100
AcDbEntity
  8
0
  6
Continuous
 62
     7
370
    15
100
AcDbPolyline
 90
        3
 70
   128
 43
0.0
 10
281.9444651807
 20
31.0642068029
 10
281.9652121647
 20
31.3627550438
 10
281.9610429853
 20
31.4426509494
  0
ARC
  5
1A0
330
1F
100
AcDbEntity
  8
0
  6
Continuous
 62
     7
370
    15
100
AcDbCircle
 10
276.8809094183
 20
28.7231572132
 30
0.0
 40
5.578540144217587
100
AcDbArc
 50
335.1873353003
 51
24.8126646997
  0
ARC
  5
1A1
330
1F
100
AcDbEntity
  8
0
  6
Continuous
 62
     7
370
    15
100
AcDbCircle
 10
279.5895670771
 20
26.1914131237
 30
0.0
 40
2.362606499360863
100
AcDbArc
 50
301.7912553701
 51
4.6295852366
  0
LINE
  5
1A2
330
1F
100
AcDbEntity
  8
0
  6
Continuous
 62
     7
370
    15
100
AcDbLine
 10
279.6902726987
 20
23.5228572159
 30
0.0
 11
280.8342497895
 21
24.1832611334
 31
0.0
  0
ARC
  5
1A3
330
1F
100
AcDbEntity
  8
0
  6
Continuous
 62
     7
370
    15
100
AcDbCircle
 10
275.8967902951
 20
26.5304083057
 30
0.0
 40
4.841061072136299
100
AcDbArc
 50
278.4027299562
 51
321.5918935111
  0
LINE
  5
1A4
330
1F
100
AcDbEntity
  8
0
  6
Continuous
 62
     7
370
    15
100
AcDbLine
 10
257.3060768035
 20
31.5427718095
 30
0.0
 11
257.2967541525
 21
31.5481536613
 31
0.0
  0
SPLINE
  5
1A5
330
1F
100
AcDbEntity
  8
0
  6
Continuous
 62
     7
370
    15
100
AcDbSpline
210
0.0
220
0.0
230
1.0
 70
     8
 71
     3
 72
    10
 73
     6
 74
     0
 42
0.000000001
 43
0.00000001
 40
0.0
 40
0.0
 40
0.0
 40
0.0
 40
0.2390813932835389
 40
0.7124568252035701
 40
1.0
 40
1.0
 40
1.0
 40
1.0
 10
258.2211797557241
 20
30.74284873433987
 30
0.0
 10
258.1560021347321
 20
30.82300882942866
 30
0.0
 10
257.9617743853935
 20
31.06188399269676
 30
0.0
 10
257.6496320866711
 20
31.32686256176678
 30
0.0
 10
257.4002976692949
 20
31.48355817704327
 30
0.0
 10
257.3060768034551
 20
31.54277180948119
 30
0.0
  0
ARC
  5
1A6
330
1F
100
AcDbEntity
  8
0
  6
Continuous
 62
     7
370
    15
100
AcDbCircle
 10
277.0785310242
 20
21.136812056
 30
0.0
 40
1.72434966750004
100
AcDbArc
 50
171.0177039064
 51
179.9902588545
  0
ARC
  5
1A7
330
1F
100
AcDbEntity
  8
0
  6
Continuous
 62
     7
370
    15
100
AcDbCircle
 10
280.4388834565
 20
23.747083101
 30
0.0
 40
5.578540144217123
100
AcDbArc
 50
155.1873353003
 51
204.8126646997
  0
ARC
  5
1A8
330
1F
100
AcDbEntity
  8
0
  6
Continuous
 62
     7
370
    15
100
AcDbCircle
 10
276.6535191644
 20
26.3218459331
 30
0.0
 40
1.299382666698194
100
AcDbArc
 50
179.5237711273
 51
190.3618866345
  0
LINE
  5
1A9
330
1F
100
AcDbEntity
  8
0
  6
Continuous
 62
     7
370
    15
100
AcDbLine
 10
280.4701571596
 20
31.0998637183
 30
0.0
 11
281.4377061331
 21
31.1458020566
 31
0.0
  0
LWPOLYLINE
  5
1AA
330
1F
100
AcDbEntity
  8
0
  6
Continuous
 62
     7
370
    15
100
AcDbPolyline
 90
       25
 70
   128
 43
0.0
 10
279.4703052775
 20
30.7935658921
 10
279.8768301707
 20
30.7023347135
 10
280.2461479248
 20
30.5059029867
 10
280.5537796925
 20
30.2107540324
 10
280.7917579728
 20
29.8245320535
 10
280.9539192531
 20
29.3572399964
 10
281.0360636416
 20
28.8209804798
 10
281.0360636416
 20
28.2296423437
 10
280.9539192531
 20
27.598540935
 10
280.7917579728
 20
26.9440214489
 10
280.5537796925
 20
26.2830355961
 10
280.2461479248
 20
25.632702563
 10
279.8768301707
 20
25.0098656337
 10
279.4553915662
 20
24.4306559574
 10
278.9927471498
 20
23.9100747605
 10
278.5008791687
 20
23.4616048225
 10
277.9925267454
 20
23.0968612793
 10
277.4808559406
 20
22.825290797
 10
276.9791187594
 20
22.6539269085
 10
276.5003099311
 20
22.5872078485
 10
276.056830353
 20
22.6268616055
 10
275.6601659132
 20
22.7718611682
 10
275.3205900123
 20
23.018451124
 10
275.0468974877
 20
23.3602449226
 10
274.9610402759
 20
23.5146446147
  0
SPLINE
  5
1AB
330
1F
100
AcDbEntity
  8
0
  6
Continuous
 62
     7
370
    15
100
AcDbSpline
210
0.0
220
0.0
230
1.0
 70
     8
 71
     3
 72
    10
 73
     6
 74
     0
 42
0.000000001
 43
0.00000001
 40
0.0
 40
0.0
 40
0.0
 40
0.0
 40
0.5
 40
0.5
 40
1.0
 40
1.0
 40
1.0
 40
1.0
 10
257.296754152548
 20
31.54815366129392
 30
0.0
 10
257.2469535537353
 20
31.57690293504303
 30
0.0
 10
257.1819216369913
 20
31.59766628040371
 30
0.0
 10
257.0448632766459
 20
31.61661996979148
 30
0.0
 10
256.9713244365961
 20
31.61527560856369
 30
0.0
 10
256.9034814009961
 20
31.60393420020258
 30
0.0
  0
SPLINE
  5
1AC
330
1F
100
AcDbEntity
  8
0
  6
Continuous
 62
     7
370
    15
100
AcDbSpline
210
0.0
220
0.0
230
1.0
 70
     8
 71
     3
 72
     8
 73
     4
 74
     0
 42
0.000000001
 43
0.00000001
 40
0.0
 40
0.0
 40
0.0
 40
0.0
 40
1.0
 40
1.0
 40
1.0
 40
1.0
 10
251.1605288926757
 20
33.37353303069946
 30
0.0
 10
251.1829076891951
 20
33.36062107924761
 30
0.0
 10
251.2370951202124
 20
33.32934352809059
 30
0.0
 10
251.3173535002368
 20
33.28301135151059
 30
0.0
  0
LINE
  5
1AD
330
1F
100
AcDbEntity
  8
0
  6
Continuous
 62
     7
370
    15
100
AcDbLine
 10
251.1605288927
 20
33.3735330307
 30
0.0
 11
251.1840839594
 21
33.5226371786
 31
0.0
  0
SPLINE
  5
1AE
330
1F
100
AcDbEntity
  8
0
  6
Continuous
 62
     7
370
    15
100
AcDbSpline
210
0.0
220
0.0
230
1.0
 70
     8
 71
     3
 72
    11
 73
     7
 74
     0
 42
0.000000001
 43
0.00000001
 40
0.0
 40
0.0
 40
0.0
 40
0.0
 40
0.3105157409943946
 40
0.5915933464965085
 40
0.8435752121754119
 40
1.0
 40
1.0
 40
1.0
 40
1.0
 10
257.7900618884549
 20
23.89659040361326
 30
0.0
 10
257.8810612469052
 20
23.98805983519878
 30
0.0
 10
258.0544328602807
 20
24.16232703002929
 30
0.0
 10
258.2047223452533
 20
24.5808541524353
 30
0.0
 10
258.2788012780894
 20
24.99198935186657
 30
0.0
 10
258.2863424217561
 20
25.28672710952832
 30
0.0
 10
258.2892307728343
 20
25.3996153076285
 30
0.0
  0
SPLINE
  5
1AF
330
1F
100
AcDbEntity
  8
0
  6
Continuous
 62
     7
370
    15
100
AcDbSpline
210
0.0
220
0.0
230
1.0
 70
     8
 71
     3
 72
     9
 73
     5
 74
     0
 42
0.000000001
 43
0.00000001
 40
0.0
 40
0.0
 40
0.0
 40
0.0
 40
0.5067661696360637
 40
0.9999999999999999
 40
0.9999999999999999
 40
0.9999999999999999
 40
0.9999999999999999
 10
257.6813404239824
 20
23.16995963706912
 30
0.0
 10
257.6996094412982
 20
23.29241399092188
 30
0.0
 10
257.7356596325116
 20
23.53405276081197
 30
0.0
 10
257.7723403719467
 20
23.77620315894302
 30
0.0
 10
257.7904325535589
 20
23.89563992733735
 30
0.0
  0
SPLINE
  5
1B0
330
1F
100
AcDbEntity
  8
0
  6
Continuous
 62
     7
370
    15
100
AcDbSpline
210
0.0
220
0.0
230
1.0
 70
     8
 71
     3
 72
    10
 73
     6
 74
     0
 42
0.000000001
 43
0.00000001
 40
0.0
 40
0.0
 40
0.0
 40
0.0
 40
0.4807908150149388
 40
0.9757817590326826
 40
0.9999999999999999
 40
0.9999999999999999
 40
0.9999999999999999
 40
0.9999999999999999
 10
257.3060768034551
 20
24.9696182738009
 30
0.0
 10
257.4558677503554
 20
24.88944789843886
 30
0.0
 10
257.7598737111368
 20
24.72673932030047
 30
0.0
 10
258.0494891553354
 20
24.61523788957902
 30
0.0
 10
258.1838275860142
 20
24.5870062720997
 30
0.0
 10
258.190093731875
 20
24.58568942306316
 30
0.0
  0
ARC
  5
1B1
330
1F
100
AcDbEntity
  8
0
  6
Continuous
 62
     7
370
    15
100
AcDbCircle
 10
275.8276904602
 20
21.6177996964
 30
0.0
 40
1.30649388055929
100
AcDbArc
 50
290.2517772116
 51
300.2335023561
  0
ARC
  5
1B2
330
1F
100
AcDbEntity
  8
0
  6
Continuous
 62
     7
370
    15
100
AcDbCircle
 10
281.2665666833
 20
30.7415323771
 30
0.0
 40
1.724349667469288
100
AcDbArc
 50
351.0177039064
 51
359.9902588546
  0
LINE
  5
1B3
330
1F
100
AcDbEntity
  8
0
  6
Continuous
 62
     7
370
    15
100
AcDbLine
 10
281.9444651807
 20
31.0642068029
 30
0.0
 11
282.9697700134
 21
30.4723109218
 31
0.0
  0
LINE
  5
1B4
330
1F
100
AcDbEntity
  8
0
  6
Continuous
 62
     7
370
    15
100
AcDbLine
 10
251.5939621402
 20
33.1232766725
 30
0.0
 11
251.1605288927
 21
33.3735330307
 31
0.0
  0
LINE
  5
1B5
330
1F
100
AcDbEntity
  8
0
  6
Continuous
 62
     7
370
    15
100
AcDbLine
 10
254.8228102387
 20
31.259302341
 30
0.0
 11
251.5939621402
 21
33.1232766725
 31
0.0
  0
SPLINE
  5
1B6
330
1F
100
AcDbEntity
  8
0
  6
Continuous
 62
     7
370
    15
100
AcDbSpline
210
0.0
220
0.0
230
1.0
 70
     8
 71
     3
 72
    11
 73
     7
 74
     0
 42
0.000000001
 43
0.00000001
 40
0.0
 40
0.0
 40
0.0
 40
0.0
 40
0.2163953887516228
 40
0.5251086176554388
 40
0.8338595073624933
 40
1.0
 40
1.0
 40
1.0
 40
1.0
 10
253.6990270615121
 20
29.1094507267147
 30
0.0
 10
253.694309254508
 20
29.31584248524299
 30
0.0
 10
253.682860946258
 20
29.81667612888714
 30
0.0
 10
253.6176826006378
 20
30.63546491359373
 30
0.0
 10
253.5769299139371
 20
31.39658114097413
 30
0.0
 10
253.5982937639859
 20
31.83077998588287
 30
0.0
 10
253.6057678953424
 20
31.98268421636105
 30
0.0
  0
LINE
  5
1B7
330
1F
100
AcDbEntity
  8
0
  6
Continuous
 62
     7
370
    15
100
AcDbLine
 10
253.6990270615
 20
28.6890953713
 30
0.0
 11
253.6990270615
 21
29.1094507267
 31
0.0
  0
LWPOLYLINE
  5
1B8
330
1F
100
AcDbEntity
  8
0
  6
Continuous
 62
     7
370
    15
100
AcDbPolyline
 90
        9
 70
   128
 43
0.0
 10
281.4377061331
 20
23.3478373031
 10
280.9160554937
 20
22.7041528677
 10
280.356424903
 20
22.1309389855
 10
279.771005162
 20
21.6406823515
 10
279.1725488538
 20
21.2440625482
 10
278.5740925455
 20
20.9497194056
 10
277.9886728045
 20
20.7640647938
 10
277.4290422138
 20
20.6911429493
 10
276.9073915744
 20
20.7325423765
  0
LINE
  5
1B9
330
1F
100
AcDbEntity
  8
0
  6
Continuous
 62
     7
370
    15
100
AcDbLine
 10
281.8595546223
 20
23.5913652523
 30
0.0
 11
281.4377061331
 21
23.3478373031
 31
0.0
  0
ARC
  5
1BA
330
1F
100
AcDbEntity
  8
0
  6
Continuous
 62
     7
370
    15
100
AcDbCircle
 10
280.9967981785
 20
25.0750922945
 30
0.0
 40
1.716331732787928
100
AcDbArc
 50
300.1771113865
 51
308.4969973883
  0
LINE
  5
1BB
330
1F
100
AcDbEntity
  8
0
  6
Continuous
 62
     7
370
    15
100
AcDbLine
 10
276.9073915744
 20
20.7325423765
 30
0.0
 11
276.4855430852
 21
20.4890144274
 31
0.0
  0
LINE
  5
1BC
330
1F
100
AcDbEntity
  8
0
  6
Continuous
 62
     7
370
    15
100
AcDbLine
 10
276.6042153434
 20
21.7413142259
 30
0.0
 11
277.0171477404
 21
21.5029334272
 31
0.0
  0
SPLINE
  5
1BD
330
1F
100
AcDbEntity
  8
0
  6
Continuous
 62
     7
370
    15
100
AcDbSpline
210
0.0
220
0.0
230
1.0
 70
     8
 71
     3
 72
     8
 73
     4
 74
     0
 42
0.000000001
 43
0.00000001
 40
0.0
 40
0.0
 40
0.0
 40
0.0
 40
1.0
 40
1.0
 40
1.0
 40
1.0
 10
277.0171477404279
 20
21.50293342718604
 30
0.0
 10
276.9446986165724
 20
21.24608921988498
 30
0.0
 10
276.9153244945184
 20
20.98930169177466
 30
0.0
 10
276.9073915744499
 20
20.73254237654712
 30
0.0
  0
ARC
  5
1BE
330
1F
100
AcDbEntity
  8
0
  6
Continuous
 62
     7
370
    15
100
AcDbCircle
 10
276.3097226921
 20
26.292027507
 30
0.0
 40
4.841061072136687
100
AcDbArc
 50
278.4027299562
 51
321.5918935111
  0
SPLINE
  5
1BF
330
1F
100
AcDbEntity
  8
0
  6
Continuous
 62
     7
370
    15
100
AcDbSpline
210
0.0
220
0.0
230
1.0
 70
     8
 71
     3
 72
     8
 73
     4
 74
     0
 42
0.000000001
 43
0.00000001
 40
0.0
 40
0.0
 40
0.0
 40
0.0
 40
1.0
 40
1.0
 40
1.0
 40
1.0
 10
281.437706133065
 20
23.34783730311785
 30
0.0
 10
280.9890763438079
 20
23.34321796657549
 30
0.0
 10
280.543378363296
 20
23.32585462273928
 30
0.0
 10
280.1032050956954
 20
23.28447641717311
 30
0.0
  0
ARC
  5
1C0
330
1F
100
AcDbEntity
  8
0
  6
Continuous
 62
     7
370
    15
100
AcDbCircle
 10
281.6915785431
 20
25.5564985001
 30
0.0
 40
1.299382666682858
100
AcDbArc
 50
359.5237711273
 51
10.3618866346
  0
ARC
  5
1C1
330
1F
100
AcDbEntity
  8
0
  6
Continuous
 62
     7
370
    15
100
AcDbCircle
 10
277.906214251
 20
28.1312613321
 30
0.0
 40
5.578540144216917
100
AcDbArc
 50
335.1873353003
 51
24.8126646997
  0
LINE
  5
1C2
330
1F
100
AcDbEntity
  8
0
  6
Continuous
 62
     7
370
    15
100
AcDbLine
 10
281.9444651807
 20
26.3821076236
 30
0.0
 11
282.9697700134
 21
25.7902117425
 31
0.0
  0
LINE
  5
1C3
330
1F
100
AcDbEntity
  8
0
  6
Continuous
 62
     7
370
    15
100
AcDbLine
 10
253.0891474627
 20
31.9244641864
 30
0.0
 11
253.0943353574
 21
32.2571296506
 31
0.0
  0
ARC
  5
1C4
330
1F
100
AcDbEntity
  8
0
  6
Continuous
 62
     7
370
    15
100
AcDbCircle
 10
260.6568467121
 20
31.7528942679
 30
0.0
 40
7.5696438598723
100
AcDbArc
 50
178.7012501156
 51
203.1943798095
  0
LINE
  5
1C5
330
1F
100
AcDbEntity
  8
0
  6
Continuous
 62
     7
370
    15
100
AcDbLine
 10
280.1032050957
 20
23.2844764172
 30
0.0
 11
279.6902726987
 21
23.5228572159
 31
0.0
  0
LINE
  5
1C6
330
1F
100
AcDbEntity
  8
0
  6
Continuous
 62
     7
370
    15
100
AcDbLine
 10
240.8563593647
 20
55.3846275913
 30
0.0
 11
240.9823940825
 21
55.3434170937
 31
0.0
  0
LINE
  5
1C7
330
1F
100
AcDbEntity
  8
0
  6
Continuous
 62
     7
370
    15
100
AcDbLine
 10
257.2967541525
 20
24.9750001256
 30
0.0
 11
257.3060768035
 21
24.9696182738
 31
0.0
  0
ARC
  5
1C8
330
1F
100
AcDbEntity
  8
0
  6
Continuous
 62
     7
370
    15
100
AcDbCircle
 10
260.1239699186
 20
25.6219011116
 30
0.0
 40
5.919642220385671
100
AcDbArc
 50
192.6964501328
 51
260.4756565155
  0
SPLINE
  5
1C9
330
1F
100
AcDbEntity
  8
0
  6
Continuous
 62
     7
370
    15
100
AcDbSpline
210
0.0
220
0.0
230
1.0
 70
     8
 71
     3
 72
     8
 73
     4
 74
     0
 42
0.000000001
 43
0.00000001
 40
0.0
 40
0.0
 40
0.0
 40
0.0
 40
0.0012389803509652
 40
0.0012389803509652
 40
0.0012389803509652
 40
0.0012389803509652
 10
254.8228102387196
 20
24.68614880535637
 30
0.0
 10
254.6650653385211
 20
24.56407235482164
 30
0.0
 10
254.5071471595551
 20
24.44231505182082
 30
0.0
 10
254.3490738245741
 20
24.32084803027638
 30
0.0
  0
SPLINE
  5
1CA
330
1F
100
AcDbEntity
  8
0
  6
Continuous
 62
     7
370
    15
100
AcDbSpline
210
0.0
220
0.0
230
1.0
 70
     8
 71
     3
 72
     8
 73
     4
 74
     0
 42
0.000000001
 43
0.00000001
 40
0.0
 40
0.0
 40
0.0
 40
0.0
 40
1.0
 40
1.0
 40
1.0
 40
1.0
 10
254.8228102387196
 20
24.68614880535637
 30
0.0
 10
255.5167908216612
 20
24.80016058662898
 30
0.0
 10
256.2104238824232
 20
24.91492133914934
 30
0.0
 10
256.9034814009961
 20
25.03078066452229
 30
0.0
  0
SPLINE
  5
1CB
330
1F
100
AcDbEntity
  8
0
  6
Continuous
 62
     7
370
    15
100
AcDbSpline
210
0.0
220
0.0
230
1.0
 70
     8
 71
     3
 72
    12
 73
     8
 74
     0
 42
0.000000001
 43
0.00000001
 40
0.0
 40
0.0
 40
0.0
 40
0.0
 40
0.2499999999999997
 40
0.2499999999999997
 40
0.4999999999999993
 40
0.4999999999999993
 40
1.0
 40
1.0
 40
1.0
 40
1.0
 10
256.9034814009961
 20
25.03078066452229
 30
0.0
 10
256.9372699169202
 20
25.03642913460654
 30
0.0
 10
256.9728416929891
 20
25.03968959812198
 30
0.0
 10
257.0434239393816
 20
25.0408271876701
 30
0.0
 10
257.0784468978304
 20
25.03881057121208
 30
0.0
 10
257.1826521930955
 20
25.02443483387248
 30
0.0
 10
257.246362625035
 20
25.0040905352401
 30
0.0
 10
257.296754152548
 20
24.97500012561364
 30
0.0
  0
LINE
  5
1CC
330
1F
100
AcDbEntity
  8
0
  6
Continuous
 62
     7
370
    15
100
AcDbLine
 10
251.5939621402
 20
26.5501231368
 30
0.0
 11
254.8228102387
 21
24.6861488054
 31
0.0
  0
LINE
  5
1CD
330
1F
100
AcDbEntity
  8
0
  6
Continuous
 62
     7
370
    15
100
AcDbLine
 10
251.5939621402
 20
26.5501231368
 30
0.0
 11
253.4868950272
 21
27.6428900323
 31
0.0
  0
LINE
  5
1CE
330
1F
100
AcDbEntity
  8
0
  6
Continuous
 62
     7
370
    15
100
AcDbLine
 10
251.1605288927
 20
26.2998667786
 30
0.0
 11
251.5939621402
 21
26.5501231368
 31
0.0
  0
LINE
  5
1CF
330
1F
100
AcDbEntity
  8
0
  6
Continuous
 62
     7
370
    15
100
AcDbLine
 10
254.3490738246
 20
24.3208480303
 30
0.0
 11
251.3173535002
 21
26.07102292
 31
0.0
  0
SPLINE
  5
1D0
330
1F
100
AcDbEntity
  8
0
  6
Continuous
 62
     7
370
    15
100
AcDbSpline
210
0.0
220
0.0
230
1.0
 70
     8
 71
     3
 72
     8
 73
     4
 74
     0
 42
0.000000001
 43
0.00000001
 40
0.0
 40
0.0
 40
0.0
 40
0.0
 40
1.0
 40
1.0
 40
1.0
 40
1.0
 10
251.3173535002368
 20
26.07102291999632
 30
0.0
 10
251.2373287007221
 20
26.11722025341828
 30
0.0
 10
251.1828519033402
 20
26.20040777578298
 30
0.0
 10
251.1605288926757
 20
26.2998667786241
 30
0.0
  0
ARC
  5
1D1
330
1F
100
AcDbEntity
  8
0
  6
Continuous
 62
     7
370
    15
100
AcDbCircle
 10
256.849698698
 20
26.8881431494
 30
0.0
 40
5.411352297539296
100
AcDbArc
 50
223.7930213206
 51
239.8672483145
  0
ELLIPSE
  5
1D2
330
1F
100
AcDbEntity
  8
0
  6
Continuous
 62
     7
370
    15
100
AcDbEllipse
 10
253.2525804521
 20
28.4313896067
 30
0.0
 11
-6.005970379874270E-5
 21
0.853448961482723
 31
0.0
210
0.0
220
0.0
230
1.0
 40
0.7174342186
 41
3.534193645557512
 42
5.104989972352412
  0
ELLIPSE
  5
1D3
330
1F
100
AcDbEntity
  8
0
  6
Continuous
 62
     7
370
    15
100
AcDbEllipse
 10
253.1333416366
 20
28.3625321266
 30
0.0
 11
0.26000757892092
 21
0.9705436209909345
 31
0.0
210
0.0
220
0.0
230
1.0
 40
0.5176380889
 41
3.619174351347672
 42
5.189970678142664
  0
LWPOLYLINE
  5
1D4
330
1F
100
AcDbEntity
  8
0
  6
Continuous
 62
     7
370
     0
100
AcDbPolyline
 90
       40
 70
   128
 43
0.0
 10
259.7094347016
 20
24.7247651503
 10
259.7504687121
 20
25.8337384497
 10
259.8732584498
 20
26.9816486527
 10
260.0768694108
 20
28.1597594695
 10
260.3597519928
 20
29.3591047655
 10
260.7197532883
 20
30.5705567987
 10
261.1541334703
 20
31.7848956877
 10
261.6595866433
 20
32.9928795804
 10
262.2322660033
 20
34.1853149898
 10
262.8678131147
 20
35.3531267625
 10
263.5613910802
 20
36.4874271459
 10
264.3077213527
 20
37.5795834289
 10
265.1011239081
 20
38.621283643
 10
265.9355604741
 20
39.6045998203
 10
266.8046804843
 20
40.5220483312
 10
267.7018694108
 20
41.3666468384
 10
268.6202991042
 20
42.1319674374
 10
269.5529797598
 20
42.8121855762
 10
270.4928131147
 20
43.4021243842
 10
271.4326464696
 20
43.8972940706
 10
272.3653271252
 20
44.2939260954
 10
273.2837568185
 20
44.5890018492
 10
274.1809457451
 20
44.7802756273
 10
275.0500657553
 20
44.8662917209
 10
275.8845023212
 20
44.8463954956
 10
276.6779048767
 20
44.7207383736
 10
277.4242351492
 20
44.4902766814
 10
278.1178131147
 20
44.1567643719
 10
278.7533602261
 20
43.7227396748
 10
279.3260395861
 20
43.1915057804
 10
279.8314927591
 20
42.5671056993
 10
280.265872941
 20
41.8542914932
 10
280.6258742366
 20
41.0584881085
 10
280.9087568185
 20
40.1857520895
 10
281.1123677796
 20
39.2427254844
 10
281.2351575173
 20
38.2365852949
 10
281.2761915278
 20
37.1749888555
 10
281.2351575173
 20
36.0660155561
 10
281.1123677796
 20
34.9181053531
 10
280.9845966423
 20
34.1304533833
  0
LWPOLYLINE
  5
1D5
330
1F
100
AcDbEntity
  8
0
  6
Continuous
 62
     7
370
     0
100
AcDbPolyline
 90
       22
 70
   128
 43
0.0
 10
272.9852467813
 20
20.2736715852
 10
272.3653271252
 20
19.7677865684
 10
271.4326464696
 20
19.0875684296
 10
270.4928131147
 20
18.4976296216
 10
269.5529797598
 20
18.0024599352
 10
268.6202991042
 20
17.6058279104
 10
267.7018694108
 20
17.3107521566
 10
266.8046804843
 20
17.1194783785
 10
265.9355604741
 20
17.0334622849
 10
265.1011239081
 20
17.0533585102
 10
264.3077213527
 20
17.1790156322
 10
263.5613910802
 20
17.4094773243
 10
262.8678131147
 20
17.7429896339
 10
262.2322660033
 20
18.177014331
 10
261.6595866433
 20
18.7082482254
 10
261.1541334703
 20
19.3326483065
 10
260.7197532883
 20
20.0454625126
 10
260.3597519928
 20
20.8412658973
 10
260.0768694108
 20
21.7140019163
 10
259.8732584498
 20
22.6570285214
 10
259.7504687121
 20
23.6631687109
 10
259.7094347016
 20
24.7247651503
  0
LWPOLYLINE
  5
1D6
330
1F
100
AcDbEntity
  8
0
  6
Continuous
 62
     7
370
     0
100
AcDbPolyline
 90
       27
 70
   128
 43
0.0
 10
259.0023279204
 20
24.7247651503
 10
259.0435548937
 20
25.8541167986
 10
259.1669305835
 20
27.0227067726
 10
259.3715415594
 20
28.2218832411
 10
259.6558729533
 20
29.4427679209
 10
260.0178196751
 20
30.676321809
 10
260.4547019977
 20
31.9134121042
 10
260.9632853975
 20
33.1448798225
 10
261.5398045008
 20
34.361607608
 10
262.1799909618
 20
35.5545872337
 10
262.8791050641
 20
36.7149862959
 10
263.6319708114
 20
37.8342136059
 10
264.4330142491
 20
38.9039827964
 10
265.2763047318
 20
39.9163736705
 10
266.1555988319
 20
40.8638908403
 10
267.0643865635
 20
41.7395192203
 10
267.9959395802
 20
42.5367759643
 10
268.9433609893
 20
43.2497584623
 10
269.8996364143
 20
43.8731880414
 10
270.8576859264
 20
44.4024490469
 10
271.8104164622
 20
44.8336230157
 10
272.7507743383
 20
45.1635176866
 10
273.6717974738
 20
45.3896906347
 10
274.5666669358
 20
45.5104673548
 10
275.4287574238
 20
45.5249536582
 10
276.2516863215
 20
45.4330422934
 10
276.603158201
 20
45.3582141718
  0
LWPOLYLINE
  5
1D7
330
1F
100
AcDbEntity
  8
0
  6
Continuous
 62
     7
370
     0
100
AcDbPolyline
 90
        9
 70
   128
 43
0.0
 10
261.101096552
 20
18.4221546828
 10
260.9632853975
 20
18.5687237889
 10
260.4547019977
 20
19.2129936127
 10
260.0178196751
 20
19.9456703148
 10
259.6558729533
 20
20.7613294132
 10
259.3715415594
 20
21.6539320533
 10
259.1669305835
 20
22.6168697175
 10
259.0435548937
 20
23.6430131521
 10
259.0023279204
 20
24.7247651503
  0
LWPOLYLINE
  5
1D8
330
1F
100
AcDbEntity
  8
0
  6
Continuous
 62
     7
370
     0
100
AcDbPolyline
 90
       29
 70
   128
 43
0.0
 10
263.4217453028
 20
26.8678364438
 10
263.4631962053
 20
27.7746014513
 10
263.5870629388
 20
28.7185936614
 10
263.7918932791
 20
29.6887456287
 10
264.0752857778
 20
30.6736832082
 10
264.4339179169
 20
31.6618589075
 10
264.8635850625
 20
32.6416872699
 10
265.3592497602
 20
33.6016807038
 10
265.9151007945
 20
34.5305841638
 10
266.5246213204
 20
35.4175071063
 10
267.1806652669
 20
36.2520511706
 10
267.8755411185
 20
37.0244320905
 10
268.6011020914
 20
37.7255944062
 10
269.3488416463
 20
38.3473176303
 10
270.1099932208
 20
38.8823126266
 10
270.8756330086
 20
39.324307068
 10
271.6367845831
 20
39.6681189736
 10
272.384524138
 20
39.9097174633
 10
273.1100851109
 20
40.0462700157
 10
273.8049609625
 20
40.0761756769
 10
274.461004909
 20
39.9990838304
 10
275.0705254349
 20
39.8158983076
 10
275.6263764692
 20
39.5287667913
 10
276.1220411669
 20
39.141055636
 10
276.5517083125
 20
38.6573104005
 10
276.9103404516
 20
38.0832025554
 10
277.1937329503
 20
37.4254629902
 10
277.3985632906
 20
36.6918031
 10
277.4927318275
 20
36.1462640332
  0
LWPOLYLINE
  5
1D9
330
1F
100
AcDbEntity
  8
0
  6
Continuous
 62
     7
370
     0
100
AcDbPolyline
 90
       15
 70
   128
 43
0.0
 10
269.4933819664
 20
22.2894822351
 10
269.3488416463
 20
22.2316350322
 10
268.6011020914
 20
21.9900365425
 10
267.8755411185
 20
21.8534839901
 10
267.1806652669
 20
21.8235783289
 10
266.5246213204
 20
21.9006701754
 10
265.9151007945
 20
22.0838556982
 10
265.3592497602
 20
22.3709872145
 10
264.8635850625
 20
22.7586983698
 10
264.4339179169
 20
23.2424436053
 10
264.0752857778
 20
23.8165514504
 10
263.7918932791
 20
24.4742910156
 10
263.5870629388
 20
25.2079509058
 10
263.4631962053
 20
26.0089296296
 10
263.4217453028
 20
26.8678364438
  0
LWPOLYLINE
  5
1DA
330
1F
100
AcDbEntity
  8
0
  6
Continuous
 62
     7
370
     0
100
AcDbPolyline
 90
        8
 70
   128
 43
0.0
 10
266.2501724276
 20
26.8678364438
 10
266.2914172641
 20
26.104261631
 10
266.4145503311
 20
25.3994417331
 10
266.6177760713
 20
24.7636546113
 10
266.8981309956
 20
24.2061714734
 10
267.251526898
 20
23.735121679
 10
267.6728104705
 20
23.3573741948
 10
267.9073517465
 20
23.205077992
  0
LWPOLYLINE
  5
1DB
330
1F
100
AcDbEntity
  8
0
  6
Continuous
 62
     7
370
     0
100
AcDbPolyline
 90
       21
 70
   128
 43
0.0
 10
275.9067016076
 20
37.0618597901
 10
275.6582149043
 20
37.1885003525
 10
275.1204861536
 20
37.3645588724
 10
274.5358979277
 20
37.4351718173
 10
273.9129748392
 20
37.3993094916
 10
273.2608005096
 20
37.2574948487
 10
272.588885109
 20
37.0117958654
 10
271.9070266771
 20
36.6657953862
 10
271.2251682451
 20
36.2245388771
 10
270.5532528446
 20
35.6944608518
 10
269.9010785149
 20
35.0832910414
 10
269.2781554265
 20
34.3999416781
 10
268.6935672005
 20
33.6543775342
 10
268.1558384499
 20
32.8574706139
 10
267.6728104705
 20
32.0208416146
 10
267.251526898
 20
31.156690471
 10
266.8981309956
 20
30.2776184527
 10
266.6177760713
 20
29.3964444091
 10
266.4145503311
 20
28.5260178422
 10
266.2914172641
 20
27.6790315312
 10
266.2501724276
 20
26.8678364438
  0
LWPOLYLINE
  5
1DC
330
1F
100
AcDbEntity
  8
0
  6
Continuous
 62
     7
370
     0
100
AcDbPolyline
 90
       20
 70
   128
 43
0.0
 10
256.903481401
 20
31.6039342002
 10
257.2101063227
 20
32.7484404787
 10
257.5938913911
 20
33.9000541772
 10
258.051459266
 20
35.0486410008
 10
258.5787833127
 20
36.1840932914
 10
259.1712230364
 20
37.2964189756
 10
259.8235649189
 20
38.3758294963
 10
260.5300682982
 20
39.4128259524
 10
261.2845158866
 20
40.3982826901
 10
262.0802684836
 20
41.3235276093
 10
262.9103234009
 20
42.1804184789
 10
263.7673760874
 20
42.961414589
 10
264.6438844091
 20
43.6596431099
 10
265.532135021
 20
44.2689595732
 10
266.4243112448
 20
44.7840019442
 10
267.3125618566
 20
45.2002378078
 10
268.1890701783
 20
45.5140042543
 10
269.0461228648
 20
45.7225401132
 10
269.8761777821
 20
45.8240102519
 10
270.522728521
 20
45.8271222833
  0
LWPOLYLINE
  5
1DD
330
1F
100
AcDbEntity
  8
0
  6
Continuous
 62
     7
370
     0
100
AcDbPolyline
 90
       24
 70
   128
 43
0.0
 10
251.3173535002
 20
33.2830113515
 10
251.6241689779
 20
34.5044117386
 10
252.0073279001
 20
35.7356932231
 10
252.4640130993
 20
36.9678028352
 10
252.9908668077
 20
38.1916815162
 10
253.5840153451
 20
39.3983307254
 10
254.2390976
 20
40.5788786012
 10
254.9512970947
 20
41.7246451915
 10
255.7153773982
 20
42.8272062728
 10
256.525720627
 20
43.8784552892
 10
257.3763687504
 20
44.8706629557
 10
258.2610673971
 20
45.7965340873
 10
259.1733118397
 20
46.6492612372
 10
260.1063948214
 20
47.4225747478
 10
261.0534558701
 20
48.1107888487
 10
262.0075317405
 20
48.708843461
 10
262.9616076108
 20
49.2123414015
 10
263.9086686595
 20
49.6175807125
 10
264.8417516412
 20
49.9215818813
 10
265.7539960838
 20
50.1221097457
 10
266.6386947305
 20
50.2176899293
 10
267.4893428539
 20
50.2076196808
 10
268.2996860827
 20
50.0919730414
 10
268.5236041487
 20
50.0394764885
  0
LWPOLYLINE
  5
1DE
330
1F
100
AcDbEntity
  8
0
  6
Continuous
 62
     7
370
     0
100
AcDbPolyline
 90
       19
 70
   128
 43
0.0
 10
257.2967541525
 20
31.5481536613
 10
257.601439046
 20
32.6719965908
 10
257.9814299177
 20
33.8023265137
 10
258.4334077617
 20
34.9292706352
 10
258.9534248062
 20
36.0429857337
 10
259.5369389954
 20
37.1337441356
 10
260.1788536619
 20
38.1920186811
 10
260.8735620428
 20
39.2085659387
 10
261.6149962522
 20
40.1745069409
 10
262.39668028
 20
41.0814047377
 10
263.211786557
 20
41.921338088
 10
264.0531955892
 20
42.6869706475
 10
264.9135581432
 20
43.3716150473
 10
265.7853594368
 20
43.9692913046
 10
266.6609847774
 20
44.4747790541
 10
267.5327860711
 20
44.8836631453
 10
268.3931486251
 20
45.1923722061
 10
269.2345576573
 20
45.3982098369
 10
269.657663248
 20
45.4634100349
  0
LINE
  5
1DF
330
1F
100
AcDbEntity
  8
0
  6
Continuous
 62
     7
370
     0
100
AcDbLine
 10
257.3060768035
 20
24.9696182738
 30
0.0
 11
257.7118580447
 21
25.2038707982
 31
0.0
  0
LWPOLYLINE
  5
1E0
330
1F
100
AcDbEntity
  8
0
  6
Continuous
 62
     7
370
     0
100
AcDbPolyline
 90
        3
 70
   128
 43
0.0
 10
258.2688731118
 20
24.9458701715
 10
258.2060789557
 20
24.9684936252
 10
257.7118580447
 20
25.2038707982
  0
LINE
  5
1E1
330
1F
100
AcDbEntity
  8
0
  6
Continuous
 62
     7
370
     0
100
AcDbLine
 10
275.4602382525
 20
21.0809103084
 30
0.0
 11
276.4855430852
 21
20.4890144274
 31
0.0
  0
ARC
  5
1E2
330
1F
100
AcDbEntity
  8
0
  6
Continuous
 62
     7
370
     0
100
AcDbCircle
 10
257.0243599708
 20
26.2601914045
 30
0.0
 40
1.260343931249473
100
AcDbArc
 50
303.0577786045
 51
346.243819488
  0
LINE
  5
1E3
330
1F
100
AcDbEntity
  8
0
  6
Continuous
 62
     7
370
     0
100
AcDbLine
 10
253.8182658771
 20
28.7579528514
 30
0.0
 11
258.2058553841
 21
26.2250513433
 31
0.0
  0
LINE
  5
1E4
330
1F
100
AcDbEntity
  8
0
  6
Continuous
 62
     7
370
     0
100
AcDbLine
 10
253.6990270615
 20
28.6890953713
 30
0.0
 11
253.8182658771
 21
28.7579528514
 31
0.0
  0
LINE
  5
1E5
330
1F
100
AcDbEntity
  8
0
  6
Continuous
 62
     7
370
     0
100
AcDbLine
 10
253.4427008533
 20
31.7203621584
 30
0.0
 11
253.447888748
 21
32.0530276227
 31
0.0
  0
ARC
  5
1E6
330
1F
100
AcDbEntity
  8
0
  6
Continuous
 62
     7
370
     0
100
AcDbCircle
 10
261.9645447856
 20
31.6406966675
 30
0.0
 40
8.522216296057355
100
AcDbArc
 50
179.4643925098
 51
193.0375536832
  0
LWPOLYLINE
  5
1E7
330
1F
100
AcDbEntity
  8
0
  6
Continuous
 62
     7
370
     0
100
AcDbPolyline
 90
       18
 70
   128
 43
0.0
 10
233.5971849551
 20
47.019241606
 10
233.6376023997
 20
47.7397819372
 10
233.7581334832
 20
48.4941291973
 10
233.9566273256
 20
49.2688220417
 10
234.2295417996
 20
50.0500360581
 10
234.5720067399
 20
50.823830464
 10
234.9779108516
 20
51.5763968798
 10
235.4400107661
 20
52.29430574
 10
235.9500602995
 20
52.964745944
 10
236.4989576059
 20
53.5757534705
 10
237.0769075997
 20
54.1164248756
 10
237.6735967497
 20
54.5771118654
 10
238.2783771239
 20
54.9495934697
 10
238.8804564021
 20
55.2272227453
 10
239.4690904653
 20
55.4050453912
 10
240.0337751248
 20
55.4798881582
 10
240.5644335694
 20
55.4504154752
 10
240.8563593647
 20
55.3846275913
  0
ARC
  5
1E8
330
1F
100
AcDbEntity
  8
0
  6
Continuous
 62
     7
370
     0
100
AcDbCircle
 10
236.9719824192
 20
46.7346140239
 30
0.0
 40
3.386778821242219
100
AcDbArc
 50
175.1791309351
 51
225.8020354417
  0
LINE
  5
1E9
330
1F
100
AcDbEntity
  8
0
  6
Continuous
 62
     7
370
     0
100
AcDbLine
 10
280.8342497895
 20
24.1832611334
 30
0.0
 11
281.8595546223
 21
23.5913652523
 31
0.0
  0
LWPOLYLINE
  5
1EA
330
1F
100
AcDbEntity
  8
0
  6
Continuous
 62
     7
370
     0
100
AcDbPolyline
 90
        3
 70
   128
 43
0.0
 10
257.7653418242
 20
23.8776097942
 10
257.601439046
 20
24.2029388862
 10
257.2967541525
 20
24.9750001256
  0
ARC
  5
1EB
330
1F
100
AcDbEntity
  8
0
  6
Continuous
 62
     7
370
     0
100
AcDbCircle
 10
262.9395288045
 20
26.9047903164
 30
0.0
 40
6.320267433589414
100
AcDbArc
 50
197.2479837631
 51
213.8102382645
  0
LINE
  5
1EC
330
1F
100
AcDbEntity
  8
0
  6
Continuous
 62
     7
370
     0
100
AcDbLine
 10
257.7118580447
 20
25.2038707982
 30
0.0
 11
253.4868950272
 21
27.6428900323
 31
0.0
  0
ARC
  5
1ED
330
1F
100
AcDbEntity
  8
0
  6
Continuous
 62
     7
370
     0
100
AcDbCircle
 10
258.1272561913
 20
27.9378776637
 30
0.0
 40
7.061155804497387
100
AcDbArc
 50
195.3303374449
 51
222.7673674007
  0
OLE2FRAME
  5
1EE
330
1F
100
AcDbEntity
  8
0
100
AcDbOle2Frame
 70
     2
  3
Paintbrush-Bild
 10
13.8511154363
 20
38.264191557
 30
0.0
 11
51.6290888628
 21
31.9806341108
 31
0.0
 71
     2
 72
     0
 73
     1
 90
    12928
310
80552BED0767C5B32B40DDAF6807D121434000000000000000006FFBDDFB85D0
310
4940DDAF6807D121434000000000000000006FFBDDFB85D04940416F4BD60AFB
310
3F4000000000000000002BED0767C5B32B40416F4BD60AFB3F40000000000000
310
0000000000000100000000010000010000000100000000000100000000320000
310
D0CF11E0A1B11AE1000000000000000000000000000000003E000300FEFF0900
310
0600000000000000000000000100000001000000000000000010000002000000
310
01000000FEFFFFFF0000000000000000FFFFFFFFFFFFFFFFFFFFFFFFFFFFFFFF
310
FFFFFFFFFFFFFFFFFFFFFFFFFFFFFFFFFFFFFFFFFFFFFFFFFFFFFFFFFFFFFFFF
310
FFFFFFFFFFFFFFFFFFFFFFFFFFFFFFFFFFFFFFFFFFFFFFFFFFFFFFFFFFFFFFFF
310
FFFFFFFFFFFFFFFFFFFFFFFFFFFFFFFFFFFFFFFFFFFFFFFFFFFFFFFFFFFFFFFF
310
FFFFFFFFFFFFFFFFFFFFFFFFFFFFFFFFFFFFFFFFFFFFFFFFFFFFFFFFFFFFFFFF
310
FFFFFFFFFFFFFFFFFFFFFFFFFFFFFFFFFFFFFFFFFFFFFFFFFFFFFFFFFFFFFFFF
310
FFFFFFFFFFFFFFFFFFFFFFFFFFFFFFFFFFFFFFFFFFFFFFFFFFFFFFFFFFFFFFFF
310
FFFFFFFFFFFFFFFFFFFFFFFFFFFFFFFFFFFFFFFFFFFFFFFFFFFFFFFFFFFFFFFF
310
FFFFFFFFFFFFFFFFFFFFFFFFFFFFFFFFFFFFFFFFFFFFFFFFFFFFFFFFFFFFFFFF
310
FFFFFFFFFFFFFFFFFFFFFFFFFFFFFFFFFFFFFFFFFFFFFFFFFFFFFFFFFFFFFFFF
310
FFFFFFFFFFFFFFFFFFFFFFFFFFFFFFFFFFFFFFFFFFFFFFFFFFFFFFFFFFFFFFFF
310
FFFFFFFFFFFFFFFFFFFFFFFFFFFFFFFFFFFFFFFFFFFFFFFFFFFFFFFFFFFFFFFF
310
FFFFFFFFFFFFFFFFFFFFFFFFFFFFFFFFFFFFFFFFFFFFFFFFFFFFFFFFFFFFFFFF
310
FFFFFFFFFFFFFFFFFFFFFFFFFFFFFFFFFFFFFFFFFFFFFFFFFFFFFFFFFFFFFFFF
310
FDFFFFFFFEFFFFFFFEFFFFFFFEFFFFFF05000000060000000700000008000000
310
090000000A0000000B0000000C0000000D0000000E0000000F00000010000000
310
11000000120000001300000014000000150000001600000017000000FEFFFFFF
310
FFFFFFFFFFFFFFFFFFFFFFFFFFFFFFFFFFFFFFFFFFFFFFFFFFFFFFFFFFFFFFFF
310
FFFFFFFFFFFFFFFFFFFFFFFFFFFFFFFFFFFFFFFFFFFFFFFFFFFFFFFFFFFFFFFF
310
FFFFFFFFFFFFFFFFFFFFFFFFFFFFFFFFFFFFFFFFFFFFFFFFFFFFFFFFFFFFFFFF
310
FFFFFFFFFFFFFFFFFFFFFFFFFFFFFFFFFFFFFFFFFFFFFFFFFFFFFFFFFFFFFFFF
310
FFFFFFFFFFFFFFFFFFFFFFFFFFFFFFFFFFFFFFFFFFFFFFFFFFFFFFFFFFFFFFFF
310
FFFFFFFFFFFFFFFFFFFFFFFFFFFFFFFFFFFFFFFFFFFFFFFFFFFFFFFFFFFFFFFF
310
FFFFFFFFFFFFFFFFFFFFFFFFFFFFFFFFFFFFFFFFFFFFFFFFFFFFFFFFFFFFFFFF
310
FFFFFFFFFFFFFFFFFFFFFFFFFFFFFFFFFFFFFFFFFFFFFFFFFFFFFFFFFFFFFFFF
310
FFFFFFFFFFFFFFFFFFFFFFFFFFFFFFFFFFFFFFFFFFFFFFFFFFFFFFFFFFFFFFFF
310
FFFFFFFFFFFFFFFFFFFFFFFFFFFFFFFFFFFFFFFFFFFFFFFFFFFFFFFFFFFFFFFF
310
FFFFFFFFFFFFFFFFFFFFFFFFFFFFFFFFFFFFFFFFFFFFFFFFFFFFFFFFFFFFFFFF
310
FFFFFFFFFFFFFFFFFFFFFFFFFFFFFFFFFFFFFFFFFFFFFFFFFFFFFFFFFFFFFFFF
310
FFFFFFFFFFFFFFFFFFFFFFFFFFFFFFFFFFFFFFFFFFFFFFFFFFFFFFFFFFFFFFFF
310
52006F006F007400200045006E00740072007900000000000000000000000000
310
0000000000000000000000000000000000000000000000000000000000000000
310
16000500FFFFFFFFFFFFFFFF020000000A00030000000000C000000000000046
310
00000000000000000000000080ED853B9C15D20103000000C000000000000000
310
01004F006C006500000000000000000000000000000000000000000000000000
310
0000000000000000000000000000000000000000000000000000000000000000
310
0A000200FFFFFFFFFFFFFFFFFFFFFFFF00000000000000000000000000000000
310
0000000000000000000000000000000000000000000000001400000000000000
310
010043006F006D0070004F0062006A0000000000000000000000000000000000
310
0000000000000000000000000000000000000000000000000000000000000000
310
120002010100000003000000FFFFFFFF00000000000000000000000000000000
310
0000000000000000000000000000000000000000010000004D00000000000000
310
01004F006C006500310030004E00610074006900760065000000000000000000
310
0000000000000000000000000000000000000000000000000000000000000000
310
1A000200FFFFFFFFFFFFFFFFFFFFFFFF00000000000000000000000000000000
310
0000000000000000000000000000000000000000040000002426000000000000
310
FEFFFFFF02000000FEFFFFFFFFFFFFFFFFFFFFFFFFFFFFFFFFFFFFFFFFFFFFFF
310
FFFFFFFFFFFFFFFFFFFFFFFFFFFFFFFFFFFFFFFFFFFFFFFFFFFFFFFFFFFFFFFF
310
FFFFFFFFFFFFFFFFFFFFFFFFFFFFFFFFFFFFFFFFFFFFFFFFFFFFFFFFFFFFFFFF
310
FFFFFFFFFFFFFFFFFFFFFFFFFFFFFFFFFFFFFFFFFFFFFFFFFFFFFFFFFFFFFFFF
310
FFFFFFFFFFFFFFFFFFFFFFFFFFFFFFFFFFFFFFFFFFFFFFFFFFFFFFFFFFFFFFFF
310
FFFFFFFFFFFFFFFFFFFFFFFFFFFFFFFFFFFFFFFFFFFFFFFFFFFFFFFFFFFFFFFF
310
FFFFFFFFFFFFFFFFFFFFFFFFFFFFFFFFFFFFFFFFFFFFFFFFFFFFFFFFFFFFFFFF
310
FFFFFFFFFFFFFFFFFFFFFFFFFFFFFFFFFFFFFFFFFFFFFFFFFFFFFFFFFFFFFFFF
310
FFFFFFFFFFFFFFFFFFFFFFFFFFFFFFFFFFFFFFFFFFFFFFFFFFFFFFFFFFFFFFFF
310
FFFFFFFFFFFFFFFFFFFFFFFFFFFFFFFFFFFFFFFFFFFFFFFFFFFFFFFFFFFFFFFF
310
FFFFFFFFFFFFFFFFFFFFFFFFFFFFFFFFFFFFFFFFFFFFFFFFFFFFFFFFFFFFFFFF
310
FFFFFFFFFFFFFFFFFFFFFFFFFFFFFFFFFFFFFFFFFFFFFFFFFFFFFFFFFFFFFFFF
310
FFFFFFFFFFFFFFFFFFFFFFFFFFFFFFFFFFFFFFFFFFFFFFFFFFFFFFFFFFFFFFFF
310
FFFFFFFFFFFFFFFFFFFFFFFFFFFFFFFFFFFFFFFFFFFFFFFFFFFFFFFFFFFFFFFF
310
FFFFFFFFFFFFFFFFFFFFFFFFFFFFFFFFFFFFFFFFFFFFFFFFFFFFFFFFFFFFFFFF
310
FFFFFFFFFFFFFFFFFFFFFFFFFFFFFFFFFFFFFFFFFFFFFFFFFFFFFFFFFFFFFFFF
310
0100000200000000000000000000000000000000000000000000000000000000
310
0000000000000000000000000000000000000000000000000000000000000000
310
0100FEFF030A0000FFFFFFFF0A00030000000000C00000000000004607000000
310
5042727573680007000000504272757368000700000050427275736800F439B2
310
7100000000000000000000000000000000000000000000000000000000000000
310
0000000000000000000000000000000000000000000000000000000000000000
310
0000000000000000000000000000000000000000000000000000000000000000
310
0000000000000000000000000000000000000000000000000000000000000000
310
0000000000000000000000000000000000000000000000000000000000000000
310
0000000000000000000000000000000000000000000000000000000000000000
310
0000000000000000000000000000000000000000000000000000000000000000
310
0000000000000000000000000000000000000000000000000000000000000000
310
0000000000000000000000000000000000000000000000000000000000000000
310
0000000000000000000000000000000000000000000000000000000000000000
310
0000000000000000000000000000000000000000000000000000000000000000
310
0000000000000000000000000000000000000000000000000000000000000000
310
20260000424D0E260000000000003E00000028000000B40200006E0000000100
310
01000000000000000000130B0000130B00000200000002000000000000FFFFFF
310
FFFFFFFFFFFFFFFFFFFFFFFFFFFFFFFFFFFFFFFFFFFFFFFFFFFFFFFFFFFFFFFF
310
FFFFFFFFFFFFFFFFFFFFFFFFFFFFFFFFFFFFFFFFFFFFFFFFFFFFFFFFFFFFFFFF
310
FFFFFFFFFFFFFFFFFFFFFFFFFFFFFFFFFFFFFFFFFFFFFFFFF000FFFFFFFFFFFF
310
FFFFFFFFFFFFFFFFFFFFFFFFFFFFFFFFFFFFFFFFFFFFFFFFFFFFFFFFFFFFFFFF
310
FFFFFFFFFFFFFFFFFFFFFFFFFFFFFFFFFFFFFFFFFFFFFFFFFFFFFFFFFFFFFFFF
310
FFFFFFFFFFFFFFFFFFFFFFFFFFFFFFFFF000FFFFFFFFFFFFFFFFFFFFFFFFFFFF
310
FFFFFFFFFFFFFFFFFFFFFFFFFFFFFFFFFFFFFFFFFFFFFFFFFFFFFFFFFFFFFFFF
310
FFFFFFFFFFFFFFFFFFFFFFFFFFFFFFFFFFFFFFFFFFFFFFFFFFFFFFFFFFFFFFFF
310
FFFFFFFFFFFFFFFFF000FFFFFFFFFFFFFFFFFFFFFFFFFFFFFFFFFFFFFFFFFFFF
310
FFFFFFFFFFFFFFFFFFFFFFFFFFFFFFFFFFFFFFFFFFFFFFFFFFFFFFFFFFFFFFFF
310
FFFFFFFFFFFFFFFFFFFFFFFFFFFFFFFFFFFFFFFFFFFFFFFFFFFFFFFFFFFFFFFF
310
F000FFFFFFFFFFFFFFFFFFFFFFFFFFFFFFFFFFFFFFFFFFFFFFFFFFFFFFFFFFFF
310
FFFFFFFFFFFFFFFFFFFFFFFFFFFFFFFFFFFFFFFFFFFFFFFFFFFFFFFFFFFFFFFF
310
FFFFFFFFFFFFFFFFFFFFFFFFFFFFFFFFFFFFFFFFFFFFFFFFF000FFFFFFFFFFFF
310
FFFFFFFFFFFFFFFFFFFFFFFFFFFFFFFFFFFFFFFFFFFFFFFFFFFFFFFFFFFFFFFF
310
FFFFFFFFFFFFFFFFFFFFFFFFFFFFFFFFFFFFFFFFFFFFFFFFFFFFFFFFFFFFFFFF
310
FFFFFFFFFFFFFFFFFFFFFFFFFFFFFFFFF000FFFFFFFFFFFFFFFFFFFFFFFFFFFF
310
FFFFFFFFFFFFFFFFFFFFFFFFFFFFFFFFFFFFFFFFFFFFFFFFFFFFFFFFFFFFFFFF
310
FFFFFFFFFFFFFFFFFFFFFFFFFFFFFFFFFFFFFFFFFFFFFFFFFFFFFFFFFFFFFFFF
310
FFFFFFFFFFFFFFFFF000FFFFFFFFFFFFFFFFFFFFFFFFFFFFFFFFFFFFFFFFFFFF
310
FFFFFFFFFFFFFFFFFFFFFFFFFFFFFFFFFFFFFFFFFFFFFFFFFFFFFFFFFFFFFFFF
310
FFFFFFFFFFFFFFFFFFFFFFFFFFFFFFFFFFFFFFFFFFFFFFFFFFFFFFFFFFFFFFFF
310
F000FFFFFFFFFFFFFFFFFFFFFFFFFFFFFFFFFFFFFFFFFFFFFFFFFFFFFFFFFFFF
310
FFFFFFFFFFFFFFFFFFFFFFFFFFFFFFFFFFFFFFFFFFFFFFFFFFFFFFFFFFFFFFFF
310
FFFFFFFFFFFFFFFFFFFFFFFFFFFFFFFFFFFFFFFFFFFFFFFFF000FFFFFFFFFFFF
310
FFFFFFFFFFFFFFFFFFFFFFFFFFFFFFFFFFFFFFFFFFFFFFFFFFFFFFFFFFFFFFFF
310
FFFFFFFFFFFFFFFFFFFFFFFFFFFFFFFFFFFFFFFFFFFFFFFFFFFFFFFFFFFFFFFF
310
FFFFFFFFFFFFFFFFFFFFFFFFFFFFFFFFF000FFFFFFFFFFFFFFFFFFFFFFFFFFFF
310
FFFFFFFFFFFFFFFFFFFFFFFFFFFFFFFFFFFFFFFFFFFFFFFFFFFFFFFFFFFFFFFF
310
FFFFFFFFFFFFFFFFFFFFFFFFFFFFFFFFFFFFFFFFFFFFFFFFFFFFFFFFFFFFFFFF
310
FFFFFFFFFFFFFFFFF000FFFFFFFFFFFFFFFFFFFFFFFFFFFFFFFFFFFFFFFFFFFF
310
FFFFFFFFFFFFFFFFFFFFFFFFFFFFFFFFFFFFFFFFFFFFFFFFFFFFFFFFFFFFFFFF
310
FFFFFFFFFFFFFFFFFFFFFFFFFFFFFFFFFFFFFFFFFFFFFFFFFFFFFFFFFFFFFFFF
310
F000FFFFFFFFFFFFFFFFFFFFFFFFFFFFFFFFFFFFFFFFFFFFFFFFFFFFFFFFFFFF
310
FFFFFFFFFFFFFFFFFFFFFFFFFFFFFFFFFFFFFFFFFFFFFFFFFFFFFFFFFFFFFFFF
310
FFFFFFFFFFFFFFFFFFFFFFFFFFFFFFFFFFFFFFFFFFFFFFFFF000FFFFFFFFFFFF
310
FFFFFFFFFFFFFFFFFFFFFFFFFFFFFFFFFFFFFFFFFFFFFFFFFFFFFFFFFFFFFFFF
310
FFFFFFFFFFFFFFFFFFFFFFFFFFFFFFFFFFFFFFFFFFFFFFFFFFFFFFFFFFFFFFFF
310
FFFFFFFFFFFFFFFFFFFFFFFFFFFFFFFFF000FFFFFFFFFFFFFFFFFFFFFFFFFFFF
310
FFFFFFFFFFFFFFFFFFFFFFFFFFFFFFFFFFFFFFFFFFFFFFFFFFFFFFFFFFFFFFFF
310
FFFFFFFFFFFFFFFFFFFFFFFFFFFFFFFFFFFFFFFFFFFFFFFFFFFFFFFFFFFFFFFF
310
FFFFFFFFFFFFFFFFF000FFFFFFFFFFFFFFFFFFFFFFFFFFFFFFFFFFFFFFFFFFFF
310
FFFFFFFFFFFFFFFFFFFFFFFFFFFFFFFFFFFFFFFFFFFFFFFFFFFFFFFFFFFFFFFF
310
FFFFFFFFFFFFFFFFFFFFFFFFFFFFFFFFFFFFFFFFFFFFFFFFFFFFFFFFFFFFFFFF
310
F000FFFFFFFFFFFFFFFFFFFFFFFFFFFFFFFFFFFFFFFFFFFFFFFFFFFFFFFFFFFF
310
FFFFFFFFFFFFFFFFFFFFFFFFFFFFFFFFFFFFFFFFFFFFFFFFFFFFFFFFFFFFFFFF
310
FFFFFFFFFFFFFFFFFFFFFFFFFFFFFFFFFFFFFFFFFFFFFFFFF000FFFFFFFFFFFF
310
FFFFFFFFFFFFFFFFFFFFFFFFFFFFFFFFFFFFFFFFFFFFFFFFFFFFFFFFFFFFFFFF
310
FFFFFFFFFFFFFFFFFFFFFFFFFFFFFFFFFFFFFFFFFFFFFFFFFFFFFFFFFFFFFFFF
310
FFFFFFFFFFFFFFFFFFFFFFFFFFFFFFFFF000FFFFFFFFFFFFFFFFFFFFFFFFFFFF
310
FFFFFFFFFFFFFFFFFFFFFFFFFFFFFFFFFFFFFFFFFFFFFFFFFFFFFFFFFFFFFFFF
310
FFFFFFFFFFFFFFFFFFFFFFFFFFFFFFFFFFFFFFFFFFFFFFFFFFFFFFFFFFFFFFFF
310
FFFFFFFFFFFFFFFFF000FFFFF80003FFFFFFFFFFFFFFFFFFFFFFFFFFFFFFFFFF
310
FFFFF00007FFFFFFFFFF00007FFFFFF800000000000000007FFFFFFFFFFFFFFF
310
FFFFFFFC001FFFFFFFFFFFFFFC001FFFFFFFFFFFFFFFFFFFFFFFFFFE0007FFFF
310
F000FFFF8000007FFFFFFFF8000FFFFFC0007FFFFF80007FFFFF0000007FFFFF
310
FFF8000007FFFFF800000000000000007FFFFFF0001FFFFFFFFFFFC00001FFFF
310
FFFFFFFFC00001FFFFFFFF000000000003FFFFE000007FFFF000FFFE0000000F
310
FFFFFFF0000FFFFF80007FFFFF80007FFFFC0000001FFFFFFFC0000001FFFFF8
310
00000000000000007FFFFFF0001FFFFFFFFFFE0000003FFFFFFFFFFE0000003F
310
FFFFFF000000000003FFFF0000000FFFF000FFF800000003FFFFFFF00007FFFF
310
80007FFFFF80007FFFF000000007FFFFFF000000003FFFF80000000000000000
310
7FFFFFF0001FFFFFFFFFF80000000FFFFFFFFFF80000000FFFFFFF0000000000
310
03FFFC00000003FFF000FFE000000000FFFFFFF00007FFFF80003FFFFF80007F
310
FFC000000001FFFFFC000000001FFFF800000000000000007FFFFFF0001FFFFF
310
FFFFE000000003FFFFFFFFE000000003FFFFFF000000000003FFF000000000FF
310
F000FF80000000007FFFFFF00007FFFF80003FFFFF80007FFF8000000000FFFF
310
F80000000007FFF800000000000000007FFFFFF0001FFFFFFFFFC000000001FF
310
FFFFFFC000000001FFFFFF000000000003FFC0000000007FF000FF0000000000
310
3FFFFFE00007FFFF00003FFFFF80007FFE00000000003FFFF00000000003FFF8
310
00000000000000007FFFFFF0001FFFFFFFFF8000000000FFFFFFFF8000000000
310
FFFFFF000000000003FF80000000003FF000FE00000000001FFFFFE00003FFFF
310
00003FFFFF80007FFC00000000001FFFE00000000001FFF8000001FFFE000000
310
7FFFFFF0001FFFFFFFFE00000000003FFFFFFE00000000003FFFFF0000000000
310
03FF00000000001FF000FC00000000000FFFFFE00003FFFF00001FFFFF80007F
310
F800000000001FFFC00000000000FFF8000001FFFE0000007FFFFFF0001FFFFF
310
FFFC00000000001FFFFFFC00000000001FFFFF000000000003FE00000000000F
310
F000F8000000000007FFFFE00003FFFF00001FFFFF80007FF800000000000FFF
310
800000000000FFF8000001FFFE0000007FFFFFF0001FFFFFFFF800000000000F
310
FFFFF800000000000FFFFF000000000003FC000000000007F000F80000000000
310
03FFFFC00003FFFE00001FFFFF80007FF0000000000007FF0000000000007FF8
310
000001FFFE0000007FFFFFF0001FFFFFFFF0000000000007FFFFF00000000000
310
07FFFF000000000003F8000000000003F000F0000000000003FFFFC00001FFFE
310
00001FFFFF80007FE0000000000007FE0000000000003FF8000001FFFE000000
310
7FFFFFF0001FFFFFFFF0000000000007FFFFF0000000000007FFFF0000000000
310
03F800001F800003F000E00001FFF00001FFFFC00001FFFE00000FFFFF80007F
310
E00001FFE00003FE00001FFF00003FF8000001FFFE0000007FFFFFF0001FFFFF
310
FFE000003E000003FFFFE000003E000003FFFF000000000003F00001FFF80001
310
F000E00007FFFC0001FFFFC00001FFFE00000FFFFF80007FC0000FFFFC0003FC
310
0000FFFFC0001FF8000001FFFE0000007FFFFFF0001FFFFFFFC00003FFE00001
310
FFFFC00003FFE00001FFFF0001FFFFFFFFF00007FFFE0001F000E0000FFFFF00
310
00FFFF800001FFFC00000FFFFF80007FC0001FFFFE0001FC0001FFFFE0001FF8
310
000001FFFE0000007FFFFFF0001FFFFFFF80000FFFF80000FFFF80000FFFF800
310
00FFFF0003FFFFFFFFE0000FFFFF8000F000C0003FFFFF8000FFFF800000FFFC
310
000007FFFF80007F80003FFFFF0001FC0003FFFFF0001FF8000001FFFE000000
310
7FFFFFF0001FFFFFFF80003FFFFE0000FFFF80003FFFFE0000FFFF0003FFFFFF
310
FFE0003FFFFF8000F000C0003FFFFF8000FFFF800000FFFC000007FFFF80007F
310
80007FFFFF8001F80007FFFFF8000FF8000001FFFE0000007FFFFFF0001FFFFF
310
FF00007FFFFF00007FFF00007FFFFF00007FFF0003FFFFFFFFE0003FFFFFC000
310
F000C0007FFFFFC000FFFF000000FFFC000007FFFF80007F8000FFFFFF8000F8
310
000FFFFFF8000FF8000001FFFE0000007FFFFFF0001FFFFFFF0000FFFFFF8000
310
7FFF0000FFFFFF80007FFF0003FFFFFFFFC0007FFFFFC00070008000FFFFFFC0
310
00FFFF000000FFF8000007FFFF80007F8000FFFFFF8000F8000FFFFFF8000FF8
310
000001FFFE0000007FFFFFF0001FFFFFFE0001FFFFFFC0003FFE0001FFFFFFC0
310
003FFF0003FFFFFFFFC0007FFFFFE00070008000FFFFFFC0007FFF0000007FF8
310
000003FFFF80007F0001FFFFFF8000F8000FFFFFF8000FF8000001FFFE000000
310
7FFFFFF0001FFFFFFE0001FFFFFFC0003FFE0001FFFFFFC0003FFF0003FFFFFF
310
FFC000FFFFFFE00070008000FFFFFFC0007FFF0000007FF8000003FFFF80007F
310
0001FFFFFF8000F8001FFFFFF8000FF8000001FFFE0000007FFFFFF0001FFFFF
310
FE0003FFFFFFE0003FFE0003FFFFFFE0003FFF0003FFFFFFFFC000FFFFFFE000
310
70008000FFFFFFC0007FFE0000007FF8000003FFFF80007F0001FFFFFF8000F0
310
001FFFFFF8000FF8000001FFFE0000007FFFFFF0001FFFFFFC0003FFFFFFE000
310
1FFC0003FFFFFFE0001FFF0003FFFFFFFFC000FFFFFFC00070008000FFFFFF80
310
007FFE0000007FF0000003FFFF80007F0001FFFFFF0000F0001FFFFFF8000FF8
310
000001FFFE0000007FFFFFF0001FFFFFFC0007FFFFFFF0001FFC0007FFFFFFF0
310
001FFF0003FFFFFFFFC000FFFFFFC00070008001FFFFFF0000FFFE0000003FF0
310
000001FFFF80007F0001FFFFFF0000F8001FFFFFF0000FF8000001FFFE000000
310
7FFFFFF0001FFFFFFC0007FFFFFFF0001FFC0007FFFFFFF0001FFF0003FFFFFF
310
FFC001FFFFFF80007000FFFFFFFFFE0000FFFE0008003FF0008001FFFF80007F
310
FFFFFFFFFC0000FFFFFFFFFFE0000FF8000001FFFE0000007FFFFFF0001FFFFF
310
F8000FFFFFFFF8000FF8000FFFFFFFF8000FFF0003FFFFFFFFFFFFFFFFFF0000
310
7000FFFFFFFFFC0000FFFC0008003FF0008001FFFF80007FFFFFFFFFF80001FF
310
FFFFFFFF80000FF8000001FFFE0000007FFFFFF0001FFFFFF8000FFFFFFFF800
310
0FF8000FFFFFFFF8000FFF0003FFFFFFFFFFFFFFFFFE0000F000FFFFFFFFE000
310
00FFFC000C003FE000C001FFFF80007FFFFFFFFFC00001FFFFFFFFFE00001FF8
310
000001FFFE0000007FFFFFF0001FFFFFF8000FFFFFFFF8000FF8000FFFFFFFF8
310
000FFF0003FFFFFFFFFFFFFFFFF00000F000FFFFFFFE000001FFFC000C001FE0
310
00C000FFFF80007FFFFFFFFE000001FFFFFFFFE000001FF80FFFFFFFFFFFFFC0
310
7FFFFFF0001FFFFFF8000FFFFFFFF8000FF8000FFFFFFFF8000FFF0003FFFFFF
310
FFFFFFFFFF800000F000FFFFFFC0000001FFFC001C001FE001C000FFFF80007F
310
FFFFFF80000003FFFFFFF80000001FF80FFFFFFFFFFFFFC07FFFFFF0001FFFFF
310
F8001FFFFFFFFC000FF8001FFFFFFFFC000FFF0003FFFFFFFFFFFFFFF0000001
310
F000FFFFF800000001FFF8001C001FE001C000FFFF80007FFFFFF800000003FF
310
FFFF800000003FF80FFFFFFFFFFFFFC07FFFFFF0001FFFFFF8001FFFFFFFFC00
310
0FF8001FFFFFFFFC000FFF0003FFFFFFFFFFFFFE00000001F000FFFFC0000000
310
03FFF8001E001FC001E000FFFF80007FFFFF8000000007FFFFFC000000003FF8
310
0FFFFFFFFFFFFFC07FFFFFF0001FFFFFF8001FFFFFFFFC000FF8001FFFFFFFFC
310
000FFF0003FFFFFFFFFFFFE000000003F000FFFE0000000007FFF8001E000FC0
310
01E0007FFF80007FFFFE0000000007FFFFE0000000007FF80FFFFFFFFFFFFFC0
310
7FFFFFF0001FFFFFF0001FFFFFFFFC0007F0001FFFFFFFFC0007FF0003FFFFFF
310
FFFFFF0000000003F000FFF80000000007FFF8001E000FC003E0007FFF80007F
310
FFF0000000000FFFFF8000000000FFF80FFFFFFFFFFFFFC07FFFFFF0001FFFFF
310
F0001FFFFFFFFC0007F0001FFFFFFFFC0007FF0003FFFFFFFFFFFC0000000007
310
F000FFE0000000000FFFF0003E000FC003E0007FFF80007FFFC0000000001FFF
310
FE0000000001FFF80FFFFFFFFFFFFFC07FFFFFF0001FFFFFF0001FFFFFFFFC00
310
07F0001FFFFFFFFC0007FF0003FFFFFFFFFFF0000000000FF000FFC000000000
310
1FFFF0003F000F8003F0003FFF80007FFF80000000003FFFF80000000003FFF8
310
0FFFFFFFFFFFFFC07FFFFFF0001FFFFFF0001FFFFFFFFC0007F0001FFFFFFFFC
310
0007FF0003FFFFFFFFFFE0000000001FF000FF00000000007FFFF0003F000780
310
03F0003FFF80007FFF00000000007FFFF00000000007FFF80FFFFFFFFFFFFFC0
310
7FFFFFF0001FFFFFF0001FFFFFFFFC0007F0001FFFFFFFFC0007FF0003FFFFFF
310
FFFF80000000007FF000FE0000000000FFFFE0003F00078007F0003FFF80007F
310
FE0000000001FFFFE0000000001FFFF80FFFFFFFFFFFFFC07FFFFFF0001FFFFF
310
F0001FFFFFFFFC0007F0001FFFFFFFFC0007FF0003FFFFFFFFFF0000000000FF
310
F000FC0000000003FFFFE0007F00078007F0003FFF80007FFC0000000007FFFF
310
C0000000007FFFF80FFFFFFFFFFFFFC07FFFFFF0001FFFFFF8001FFFFFFFFC00
310
0FF8001FFFFFFFFC000FFF0003FFFFFFFFFE0000000003FFF000FC000000000F
310
FFFFE0007F80070007F8001FFF80007FF8000000001FFFFF8000000001FFFFF8
310
0FFFFFFFFFFFFFC07FFFFFF0001FFFFFF8001FFFFFFFFC000FF8001FFFFFFFFC
310
000FFF0003FFFFFFFFFC000000000FFFF000F8000000007FFFFFE0007F800700
310
07F8001FFF80007FF000000000FFFFFF800000000FFFFFF80FFFFFFFFFFFFFC0
310
7FFFFFF0001FFFFFF8000FFFFFFFF8000FF8000FFFFFFFF8000FFF0003FFFFFF
310
FFFC000000007FFFF000F800000007FFFFFFC0007F8003000FF8001FFF80007F
310
F000000007FFFFFF000000007FFFFFF80FFFFFFFFFFFFFC07FFFFFF0001FFFFF
310
F8000FFFFFFFF8000FF8000FFFFFFFF8000FFF0003FFFFFFFFF80000000FFFFF
310
F000F0000000FFFFFFFFC000FF8003000FF8001FFF80007FE0000000FFFFFFFF
310
0000000FFFFFFFF8000001FFFE0000007FFFFFF0001FFFFFF8000FFFFFFFF800
310
0FF8000FFFFFFFF8000FFF0003FFFFFFFFF8000000FFFFFFF000F000000FFFFF
310
FFFFC000FFC002000FF8000FFF80007FE000001FFFFFFFFE000001FFFFFFFFF8
310
000001FFFE0000007FFFFFF0001FFFFFF8000FFFFFFFF8000FF8000FFFFFFFF8
310
000FFF0003FFFFFFFFF000001FFFFFFFF000E00000FFFFFFFFFFC000FFC00200
310
0FFC000FFF80007FE00001FFFFFFFFFE00001FFFFFFFFFF8000001FFFE000000
310
7FFFFFF0001FFFFFFC000FFFFFFFF8001FFC000FFFFFFFF8001FFF0003FFFFFF
310
FFF00001FFFFFFFFF000E00007FFFFFFFFFF8000FFC000001FFC000FFF80007F
310
C0000FFFFFFFFFFE0000FFFFFFFFFFF8000001FFFE0000007FFFFFF0001FFFFF
310
FC0007FFFFFFF0001FFC0007FFFFFFF0001FFF0003FFFFFFFFF00007FFFFFFFF
310
F000E0001FFFFFFFFFFF8000FFC000001FFC000FFF80007FC0003FFFFFFFFFFE
310
0001FFFFFFFFFFF8000001FFFE0000007FFFFFF0001FFFFFFC0007FFFFFFF000
310
1FFC0007FFFFFFF0001FFF0003FFFFFFFFF0001FFFFFFFFFF000E0003FFFFF00
310
03FF8001FFE000001FFC0007FF80007FC0007FFFFF0007FC0003FFFFF0003FF8
310
000001FFFE0000007FFFFFF0001FFFFFFC0003FFFFFFE0001FFC0003FFFFFFE0
310
001FFF0003FFFFFFFFF0003FFFFFFFFFF000E0003FFFFF0001FF8001FFE00000
310
1FFE0007FF80007FC0007FFFFE0003FC0007FFFFE0003FF8000001FFFE000000
310
7FFFFFF0001FFFFFFE0003FFFFFFE0003FFE0003FFFFFFE0003FFF0003FFFFFF
310
FFF0003FFFFF8001F000E0003FFFFF0001FF0001FFE000001FFE0007FF80007F
310
C0007FFFFE0003FC0007FFFFE0003FF8000001FFFE0000007FFFFFF0001FFFFF
310
FE0001FFFFFFC0003FFE0001FFFFFFC0003FFF0003FFFFFFFFF0003FFFFF0001
310
F000E0003FFFFF0003FF0001FFE000003FFE0007FF80007FC0007FFFFE0003FC
310
0007FFFFE0003FF8000001FFFE0000007FFFFFF0001FFFFFFF0001FFFFFFC000
310
7FFF0001FFFFFFC0007FFF0003FFFFFFFFF0003FFFFF0001F000E0003FFFFE00
310
03FF0003FFF000003FFE0003FF80007FC0007FFFFC0003FE0007FFFFE0003FF8
310
000001FFFE0000007FFFFFF0001FFFFFFF0000FFFFFF80007FFF0000FFFFFF80
310
007FFF0003FFFFFFFFF0003FFFFF0001F000E0003FFFFE0003FF0003FFF00000
310
3FFF0003FF80007FC0007FFFFC0007FE0007FFFFC0003FF8000001FFFE000000
310
7FFFFFF0001FFFFFFF80007FFFFF0000FFFF80007FFFFF0000FFFF0003FFFFFF
310
FFF0003FFFFF0003F000E0003FFFFC0003FE0003FFF000003FFF0003FF80007F
310
E0003FFFF80007FE0003FFFFC0007FF8000001FFFE0000007FFFFFF0001FFFFF
310
FF80003FFFFE0000FFFF80003FFFFE0000FFFF0003FFFFFFFFF0001FFFFE0003
310
F000F0001FFFF80003FE0003FFF000007FFF0001FF80007FE0003FFFF00007FE
310
0001FFFF80007FF8000001FFFE0000007FFFFFF0001FFFFFFFC0000FFFF80001
310
FFFFC0000FFFF80001FFFF0003FFFFFFFFF0001FFFFC0003F000F0000FFFF000
310
07FE0007FFF800007FFF0001FF80007FE0001FFFE00007FF0000FFFE00007FF8
310
000001FFFE0000007FFFFFF0001FFFFFFFC00003FFE00001FFFFC00003FFE000
310
01FFFF0003FFFFFFFFF8000FFFF80003F000F00003FFC00007FC0007FFF80000
310
7FFF8001FF80007FF00007FF80000FFF00007FF80000FFF8000001FFFE000000
310
7F80000000000001FFE000003E000003FFFFE000003E000003FFFF0003FFFFFF
310
FFF80003FFE00007F000F800000000000FFC0007FFF800007FFF8001FF80007F
310
F000000000000FFF000000000000FFF8000001FFFE0000007F80000000000001
310
FFF0000000000007FFFFF0000000000007FFFF0003FFFFFFFFFC00007E000007
310
F000F800000000000FFC0007FFF80000FFFF8000FF80007FF800000000001FFF
310
800000000001FFF8000001FFFE0000007F80000000000001FFF800000000000F
310
FFFFF800000000000FFFFF0003FFFFFFFFFC00000000000FF000FC0000000000
310
1FFC0007FFFC0000FFFF8000FF80007FF800000000003FFFC00000000001FFF8
310
000001FFFE0000007F80000000000001FFF800000000000FFFFFF80000000000
310
0FFFFF0003FFFFFFFFFE00000000001FF000FE00000000003FF8000FFFFC0000
310
FFFF8000FF80007FFC00000000003FFFC00000000003FFF8000001FFFE000000
310
7F80000000000001FFFC00000000001FFFFFFC00000000001FFFFF0003FFFFFF
310
FFFF00000000001FF000FF00000000003FF8000FFFFC0000FFFFC000FF80007F
310
FE00000000007FFFE00000000007FFF8000001FFFE0000007F80000000000001
310
FFFE00000000003FFFFFFE00000000003FFFFF0003FFFFFFFFFF80000000003F
310
F000FF80000000007FF8000FFFFC0001FFFFC0007F80007FFF0000000000FFFF
310
F0000000000FFFF800000000000000007F80000000000001FFFF8000000000FF
310
FFFFFF8000000000FFFFFF0003FFFFFFFFFFC0000000007FF000FFC000000000
310
FFF8000FFFFE0001FFFFC0007F80007FFF8000000001FFFFF8000000001FFFF8
310
00000000000000007F80000000000001FFFFC000000001FFFFFFFFC000000001
310
FFFFFF0003FFFFFFFFFFE000000000FFF000FFE000000003FFF0001FFFFE0001
310
FFFFC0007F80007FFFC000000007FFFFFE000000003FFFF80000000000000000
310
7F80000000000001FFFFE000000003FFFFFFFFE000000003FFFFFF0003FFFFFF
310
FFFFF000000003FFF000FFF80000000FFFF0001FFFFE0001FFFFE0007F80007F
310
FFF00000000FFFFFFF00000000FFFFF800000000000000007F80000000000001
310
FFFFF80000000FFFFFFFFFF80000000FFFFFFF0003FFFFFFFFFFFC0000000FFF
310
F000FFFE0000003FFFF0001FFFFE0003FFFFE0003F80007FFFFC0000003FFFFF
310
FFC0000003FFFFF800000000000000007F80000000000001FFFFFE0000003FFF
310
FFFFFFFE0000003FFFFFFF0003FFFFFFFFFFFF0000003FFFF000FFFF800000FF
310
FFF0001FFFFF0003FFFFE0003F80007FFFFF000001FFFFFFFFF800001FFFFFF8
310
00000000000000007F80000000000001FFFFFFC00001FFFFFFFFFFFFC00001FF
310
FFFFFF0003FFFFFFFFFFFFC00000FFFFF000FFFFF8000FFFFFFFFFFFFFFFFFFF
310
FFFFFFFFFFFFFFFFFFFFF0001FFFFFFFFFFF0000FFFFFFF80000000000000000
310
7FFFFFFFFFFFFFFFFFFFFFFC001FFFFFFFFFFFFFFC001FFFFFFFFFFFFFFFFFFF
310
FFFFFFFC001FFFFFF000FFFFFFFFFFFFFFFFFFFFFFFFFFFFFFFFFFFFFFFFFFFF
310
FFFFFFFFFFFFFFFFFFFFFFFFFFFFFFFFFFFFFFFFFFFFFFFFFFFFFFFFFFFFFFFF
310
FFFFFFFFFFFFFFFFFFFFFFFFFFFFFFFFFFFFFFFFFFFFFFFFFFFFFFFFFFFFFFFF
310
F000FFFFFFFFFFFFFFFFFFFFFFFFFFFFFFFFFFFFFFFFFFFFFFFFFFFFFFFFFFFF
310
FFFFFFFFFFFFFFFFFFFFFFFFFFFFFFFFFFFFFFFFFFFFFFFFFFFFFFFFFFFFFFFF
310
FFFFFFFFFFFFFFFFFFFFFFFFFFFFFFFFFFFFFFFFFFFFFFFFF000FFFFFFFFFFFF
310
FFFFFFFFFFFFFFFFFFFFFFFFFFFFFFFFFFFFFFFFFFFFFFFFFFFFFFFFFFFFFFFF
310
FFFFFFFFFFFFFFFFFFFFFFFFFFFFFFFFFFFFFFFFFFFFFFFFFFFFFFFFFFFFFFFF
310
FFFFFFFFFFFFFFFFFFFFFFFFFFFFFFFFF000FFFFFFFFFFFFFFFFFFFFFFFFFFFF
310
FFFFFFFFFFFFFFFFFFFFFFFFFFFFFFFFFFFFFFFFFFFFFFFFFFFFFFFFFFFFFFFF
310
FFFFFFFFFFFFFFFFFFFFFFFFFFFFFFFFFFFFFFFFFFFFFFFFFFFFFFFFFFFFFFFF
310
FFFFFFFFFFFFFFFFF000FFFFFFFFFFFFFFFFFFFFFFFFFFFFFFFFFFFFFFFFFFFF
310
FFFFFFFFFFFFFFFFFFFFFFFFFFFFFFFFFFFFFFFFFFFFFFFFFFFFFFFFFFFFFFFF
310
FFFFFFFFFFFFFFFFFFFFFFFFFFFFFFFFFFFFFFFFFFFFFFFFFFFFFFFFFFFFFFFF
310
F000FFFFFFFFFFFFFFFFFFFFFFFFFFFFFFFFFFFFFFFFFFFFFFFFFFFFFFFFFFFF
310
FFFFFFFFFFFFFFFFFFFFFFFFFFFFFFFFFFFFFFFFFFFFFFFFFFFFFFFFFFFFFFFF
310
FFFFFFFFFFFFFFFFFFFFFFFFFFFFFFFFFFFFFFFFFFFFFFFFF000FFFFFFFFFFFF
310
FFFFFFFFFFFFFFFFFFFFFFFFFFFFFFFFFFFFFFFFFFFFFFFFFFFFFFFFFFFFFFFF
310
FFFFFFFFFFFFFFFFFFFFFFFFFFFFFFFFFFFFFFFFFFFFFFFFFFFFFFFFFFFFFFFF
310
FFFFFFFFFFFFFFFFFFFFFFFFFFFFFFFFF000FFFFFFFFFFFFFFFFFFFFFFFFFFFF
310
FFFFFFFFFFFFFFFFFFFFFFFFFFFFFFFFFFFFFFFFFFFFFFFFFFFFFFFFFFFFFFFF
310
FFFFFFFFFFFFFFFFFFFFFFFFFFFFFFFFFFFFFFFFFFFFFFFFFFFFFFFFFFFFFFFF
310
FFFFFFFFFFFFFFFFF000FFFFFFFFFFFFFFFFFFFFFFFFFFFFFFFFFFFFFFFFFFFF
310
FFFFFFFFFFFFFFFFFFFFFFFFFFFFFFFFFFFFFFFFFFFFFFFFFFFFFFFFFFFFFFFF
310
FFFFFFFFFFFFFFFFFFFFFFFFFFFFFFFFFFFFFFFFFFFFFFFFFFFFFFFFFFFFFFFF
310
F000FFFFFFFFFFFFFFFFFFFFFFFFFFFFFFFFFFFFFFFFFFFFFFFFFFFFFFFFFFFF
310
FFFFFFFFFFFFFFFFFFFFFFFFFFFFFFFFFFFFFFFFFFFFFFFFFFFFFFFFFFFFFFFF
310
FFFFFFFFFFFFFFFFFFFFFFFFFFFFFFFFFFFFFFFFFFFFFFFFF000FFFFFFFFFFFF
310
FFFFFFFFFFFFFFFFFFFFFFFFFFFFFFFFFFFFFFFFFFFFFFFFFFFFFFFFFFFFFFFF
310
FFFFFFFFFFFFFFFFFFFFFFFFFFFFFFFFFFFFFFFFFFFFFFFFFFFFFFFFFFFFFFFF
310
FFFFFFFFFFFFFFFFFFFFFFFFFFFFFFFFF000FFFFFFFFFFFFFFFFFFFFFFFFFFFF
310
FFFFFFFFFFFFFFFFFFFFFFFFFFFFFFFFFFFFFFFFFFFFFFFFFFFFFFFFFFFFFFFF
310
FFFFFFFFFFFFFFFFFFFFFFFFFFFFFFFFFFFFFFFFFFFFFFFFFFFFFFFFFFFFFFFF
310
FFFFFFFFFFFFFFFFF000FFFFFFFFFFFFFFFFFFFFFFFFFFFFFFFFFFFFFFFFFFFF
310
FFFFFFFFFFFFFFFFFFFFFFFFFFFFFFFFFFFFFFFFFFFFFFFFFFFFFFFFFFFFFFFF
310
FFFFFFFFFFFFFFFFFFFFFFFFFFFFFFFFFFFFFFFFFFFFFFFFFFFFFFFFFFFFFFFF
310
F000FFFFFFFFFFFFFFFFFFFFFFFFFFFFFFFFFFFFFFFFFFFFFFFFFFFFFFFFFFFF
310
FFFFFFFFFFFFFFFFFFFFFFFFFFFFFFFFFFFFFFFFFFFFFFFFFFFFFFFFFFFFFFFF
310
FFFFFFFFFFFFFFFFFFFFFFFFFFFFFFFFFFFFFFFFFFFFFFFFF000FFFFFFFFFFFF
310
FFFFFFFFFFFFFFFFFFFFFFFFFFFFFFFFFFFFFFFFFFFFFFFFFFFFFFFFFFFFFFFF
310
FFFFFFFFFFFFFFFFFFFFFFFFFFFFFFFFFFFFFFFFFFFFFFFFFFFFFFFFFFFFFFFF
310
FFFFFFFFFFFFFFFFFFFFFFFFFFFFFFFFF000FFFFFFFFFFFFFFFFFFFFFFFFFFFF
310
FFFFFFFFFFFFFFFFFFFFFFFFFFFFFFFFFFFFFFFFFFFFFFFFFFFFFFFFFFFFFFFF
310
FFFFFFFFFFFFFFFFFFFFFFFFFFFFFFFFFFFFFFFFFFFFFFFFFFFFFFFFFFFFFFFF
310
FFFFFFFFFFFFFFFFF000FFFFFFFFFFFFFFFFFFFFFFFFFFFFFFFFFFFFFFFFFFFF
310
FFFFFFFFFFFFFFFFFFFFFFFFFFFFFFFFFFFFFFFFFFFFFFFFFFFFFFFFFFFFFFFF
310
FFFFFFFFFFFFFFFFFFFFFFFFFFFFFFFFFFFFFFFFFFFFFFFFFFFFFFFFFFFFFFFF
310
F000FFFFFFFFFFFFFFFFFFFFFFFFFFFFFFFFFFFFFFFFFFFFFFFFFFFFFFFFFFFF
310
FFFFFFFFFFFFFFFFFFFFFFFFFFFFFFFFFFFFFFFFFFFFFFFFFFFFFFFFFFFFFFFF
310
FFFFFFFFFFFFFFFFFFFFFFFFFFFFFFFFFFFFFFFFFFFFFFFFF000FFFFFFFFFFFF
310
FFFFFFFFFFFFFFFFFFFFFFFFFFFFFFFFFFFFFFFFFFFFFFFFFFFFFFFFFFFFFFFF
310
FFFFFFFFFFFFFFFFFFFFFFFFFFFFFFFFFFFFFFFFFFFFFFFFFFFFFFFFFFFFFFFF
310
FFFFFFFFFFFFFFFFFFFFFFFFFFFFFFFFF000FFFFFFFFFFFFFFFFFFFFFFFFFFFF
310
FFFFFFFFFFFFFFFFFFFFFFFFFFFFFFFFFFFFFFFFFFFFFFFFFFFFFFFFFFFFFFFF
310
FFFFFFFFFFFFFFFFFFFFFFFFFFFFFFFFFFFFFFFFFFFFFFFFFFFFFFFFFFFFFFFF
310
FFFFFFFFFFFFFFFFF000FFFFFFFFFFFFFFFFFFFFFFFFFFFFFFFFFFFFFFFFFFFF
310
FFFFFFFFFFFFFFFFFFFFFFFFFFFFFFFFFFFFFFFFFFFFFFFFFFFFFFFFFFFFFFFF
310
FFFFFFFFFFFFFFFFFFFFFFFFFFFFFFFFFFFFFFFFFFFFFFFFFFFFFFFFFFFFFFFF
310
F000FFFFFFFFFFFFFFFFFFFFFFFFFFFFFFFFFFFFFFFFFFFFFFFFFFFFFFFFFFFF
310
FFFFFFFFFFFFFFFFFFFFFFFFFFFFFFFFFFFFFFFFFFFFFFFFFFFFFFFFFFFFFFFF
310
FFFFFFFFFFFFFFFFFFFFFFFFFFFFFFFFFFFFFFFFFFFFFFFFF000FFFFFFFFFFFF
310
FFFFFFFFFFFFFFFFFFFFFFFFFFFFFFFFFFFFFFFFFFFFFFFFFFFFFFFFFFFFFFFF
310
FFFFFFFFFFFFFFFFFFFFFFFFFFFFFFFFFFFFFFFFFFFFFFFFFFFFFFFFFFFFFFFF
310
FFFFFFFFFFFFFFFFFFFFFFFFFFFFFFFFF0000000000000000000000000000000
310
0000000000000000000000000000000000000000000000000000000000000000
310
0000000000000000000000000000000000000000000000000000000000000000
310
0000000000000000000000000000000000000000000000000000000000000000
310
0000000000000000000000000000000000000000000000000000000000000000
310
0000000000000000000000000000000000000000000000000000000000000000
310
0000000000000000000000000000000000000000000000000000000000000000
310
0000000000000000000000000000000000000000000000000000000000000000
310
0000000000000000000000000000000000000000000000000000000000000000
310
0000000000000000000000000000000000000000000000000000000000000000
310
0000000000000000000000000000000000000000000000000000000000000000
310
0000000000000000000000000000000000000000000000000000000000000000
310
0000000000000000000000000000000000000000000000000000000000000000
310
0000000000000000000000000000000000000000000000000000000000000000
310
0000000000000000000000000000000000000000000000000000000000000000
310
0000000000000000000000000000000000000000000000000000000000000000
  1
OLE
  0
ENDSEC
  0
SECTION
  2
OBJECTS
  0
DICTIONARY
  5
C
330
0
100
AcDbDictionary
281
     1
  3
ACAD_GROUP
350
D
  3
ACAD_LAYOUT
350
1A
  3
ACAD_MLINESTYLE
350
17
  3
ACAD_PLOTSETTINGS
350
19
  3
ACAD_PLOTSTYLENAME
350
E
  3
ACAD_SCALELIST
350
47
  0
DICTIONARY
  5
D
102
{ACAD_REACTORS
330
C
102
}
330
C
100
AcDbDictionary
281
     1
  0
DICTIONARY
  5
1A
102
{ACAD_REACTORS
330
C
102
}
330
C
100
AcDbDictionary
281
     1
  3
Layout1
350
1E
  3
Layout2
350
26
  3
Model
350
22
  0
DICTIONARY
  5
17
102
{ACAD_REACTORS
330
C
102
}
330
C
100
AcDbDictionary
281
     1
  3
Standard
350
18
  0
DICTIONARY
  5
19
102
{ACAD_REACTORS
330
C
102
}
330
C
100
AcDbDictionary
281
     1
  0
ACDBDICTIONARYWDFLT
  5
E
102
{ACAD_REACTORS
330
C
102
}
330
C
100
AcDbDictionary
281
     1
  3
Normal
350
F
100
AcDbDictionaryWithDefault
340
F
  0
DICTIONARY
  5
47
102
{ACAD_REACTORS
330
C
102
}
330
C
100
AcDbDictionary
281
     1
  3
A0
350
48
  3
A1
350
49
  3
A2
350
4A
  3
A3
350
4B
  3
A4
350
4C
  3
A5
350
4D
  3
A6
350
4E
  3
A7
350
4F
  3
A8
350
50
  3
A9
350
51
  3
B0
350
52
  3
B1
350
53
  3
B2
350
54
  3
B3
350
55
  3
B4
350
56
  3
B5
350
57
  3
B6
350
58
  3
B7
350
59
  3
B8
350
5A
  3
B9
350
5B
  3
C0
350
5C
  3
C1
350
5D
  3
C2
350
5E
  3
C3
350
5F
  3
C4
350
60
  3
C5
350
61
  3
C6
350
62
  3
C7
350
63
  3
C8
350
64
  3
C9
350
65
  3
D0
350
66
  3
D1
350
67
  3
D2
350
68
  0
LAYOUT
  5
1E
102
{ACAD_REACTORS
330
1A
102
}
330
1A
100
AcDbPlotSettings
  1

  2
none_device
  4

  6

 40
0.0
 41
0.0
 42
0.0
 43
0.0
 44
0.0
 45
0.0
 46
0.0
 47
0.0
 48
0.0
 49
0.0
140
0.0
141
0.0
142
1.0
143
1.0
 70
   688
 72
     1
 73
     0
 74
     5
  7

 75
    16
147
1.0
148
0.0
149
0.0
100
AcDbLayout
  1
Layout1
 70
     1
 71
     1
 10
0.0
 20
0.0
 11
420.0
 21
297.0
 12
0.0
 22
0.0
 32
0.0
 14
1.0000000000E+20
 24
1.0000000000E+20
 34
1.0000000000E+20
 15
-1.0000000000E+20
 25
-1.0000000000E+20
 35
-1.0000000000E+20
146
0.0
 13
0.0
 23
0.0
 33
0.0
 16
1.0
 26
0.0
 36
0.0
 17
0.0
 27
1.0
 37
0.0
 76
     0
330
1B
  0
LAYOUT
  5
26
102
{ACAD_REACTORS
330
1A
102
}
330
1A
100
AcDbPlotSettings
  1

  2
none_device
  4

  6

 40
0.0
 41
0.0
 42
0.0
 43
0.0
 44
0.0
 45
0.0
 46
0.0
 47
0.0
 48
0.0
 49
0.0
140
0.0
141
0.0
142
1.0
143
1.0
 70
   688
 72
     1
 73
     0
 74
     5
  7

 75
    16
147
1.0
148
0.0
149
0.0
100
AcDbLayout
  1
Layout2
 70
     1
 71
     2
 10
0.0
 20
0.0
 11
0.0
 21
0.0
 12
0.0
 22
0.0
 32
0.0
 14
0.0
 24
0.0
 34
0.0
 15
0.0
 25
0.0
 35
0.0
146
0.0
 13
0.0
 23
0.0
 33
0.0
 16
1.0
 26
0.0
 36
0.0
 17
0.0
 27
1.0
 37
0.0
 76
     0
330
23
  0
LAYOUT
  5
22
102
{ACAD_REACTORS
330
1A
102
}
330
1A
100
AcDbPlotSettings
  1

  2
none_device
  4
Letter_(8.50_x_11.00_Inches)
  6

 40
6.35
 41
6.35
 42
6.35000508
 43
6.35000508
 44
215.9
 45
279.4
 46
0.0
 47
0.0
 48
0.0
 49
0.0
140
0.0
141
0.0
142
1.0
143
1.0
 70
  1712
 72
     1
 73
     0
 74
     0
  7

 75
     0
147
1.0
148
0.0
149
0.0
100
AcDbLayout
  1
Model
 70
     1
 71
     0
 10
0.0
 20
0.0
 11
297.0
 21
210.0
 12
0.0
 22
0.0
 32
0.0
 14
0.0
 24
0.0
 34
0.0
 15
297.0
 25
210.0
 35
0.0
146
0.0
 13
0.0
 23
0.0
 33
0.0
 16
1.0
 26
0.0
 36
0.0
 17
0.0
 27
1.0
 37
0.0
 76
     0
330
1F
331
29
  0
MLINESTYLE
  5
18
102
{ACAD_REACTORS
330
17
102
}
330
17
100
AcDbMlineStyle
  2
Standard
 70
     0
  3

 62
   256
 51
90.0
 52
90.0
 71
     2
 49
0.5
 62
   256
  6
BYLAYER
 49
-0.5
 62
   256
  6
BYLAYER
  0
ACDBPLACEHOLDER
  5
F
102
{ACAD_REACTORS
330
E
102
}
330
E
  0
SCALE
  5
48
102
{ACAD_REACTORS
330
47
102
}
330
47
100
AcDbScale
 70
     0
300
1:1
140
1.0
141
1.0
290
     1
  0
SCALE
  5
49
102
{ACAD_REACTORS
330
47
102
}
330
47
100
AcDbScale
 70
     0
300
1:2
140
1.0
141
2.0
290
     0
  0
SCALE
  5
4A
102
{ACAD_REACTORS
330
47
102
}
330
47
100
AcDbScale
 70
     0
300
1:4
140
1.0
141
4.0
290
     0
  0
SCALE
  5
4B
102
{ACAD_REACTORS
330
47
102
}
330
47
100
AcDbScale
 70
     0
300
1:5
140
1.0
141
5.0
290
     0
  0
SCALE
  5
4C
102
{ACAD_REACTORS
330
47
102
}
330
47
100
AcDbScale
 70
     0
300
1:8
140
1.0
141
8.0
290
     0
  0
SCALE
  5
4D
102
{ACAD_REACTORS
330
47
102
}
330
47
100
AcDbScale
 70
     0
300
1:10
140
1.0
141
10.0
290
     0
  0
SCALE
  5
4E
102
{ACAD_REACTORS
330
47
102
}
330
47
100
AcDbScale
 70
     0
300
1:16
140
1.0
141
16.0
290
     0
  0
SCALE
  5
4F
102
{ACAD_REACTORS
330
47
102
}
330
47
100
AcDbScale
 70
     0
300
1:20
140
1.0
141
20.0
290
     0
  0
SCALE
  5
50
102
{ACAD_REACTORS
330
47
102
}
330
47
100
AcDbScale
 70
     0
300
1:30
140
1.0
141
30.0
290
     0
  0
SCALE
  5
51
102
{ACAD_REACTORS
330
47
102
}
330
47
100
AcDbScale
 70
     0
300
1:40
140
1.0
141
40.0
290
     0
  0
SCALE
  5
52
102
{ACAD_REACTORS
330
47
102
}
330
47
100
AcDbScale
 70
     0
300
1:50
140
1.0
141
50.0
290
     0
  0
SCALE
  5
53
102
{ACAD_REACTORS
330
47
102
}
330
47
100
AcDbScale
 70
     0
300
1:100
140
1.0
141
100.0
290
     0
  0
SCALE
  5
54
102
{ACAD_REACTORS
330
47
102
}
330
47
100
AcDbScale
 70
     0
300
2:1
140
2.0
141
1.0
290
     0
  0
SCALE
  5
55
102
{ACAD_REACTORS
330
47
102
}
330
47
100
AcDbScale
 70
     0
300
4:1
140
4.0
141
1.0
290
     0
  0
SCALE
  5
56
102
{ACAD_REACTORS
330
47
102
}
330
47
100
AcDbScale
 70
     0
300
8:1
140
8.0
141
1.0
290
     0
  0
SCALE
  5
57
102
{ACAD_REACTORS
330
47
102
}
330
47
100
AcDbScale
 70
     0
300
10:1
140
10.0
141
1.0
290
     0
  0
SCALE
  5
58
102
{ACAD_REACTORS
330
47
102
}
330
47
100
AcDbScale
 70
     0
300
100:1
140
100.0
141
1.0
290
     0
  0
SCALE
  5
59
102
{ACAD_REACTORS
330
47
102
}
330
47
100
AcDbScale
 70
     0
300
1/128" = 1'-0"
140
0.0078125
141
12.0
290
     0
  0
SCALE
  5
5A
102
{ACAD_REACTORS
330
47
102
}
330
47
100
AcDbScale
 70
     0
300
1/64" = 1'-0"
140
0.015625
141
12.0
290
     0
  0
SCALE
  5
5B
102
{ACAD_REACTORS
330
47
102
}
330
47
100
AcDbScale
 70
     0
300
1/32" = 1'-0"
140
0.03125
141
12.0
290
     0
  0
SCALE
  5
5C
102
{ACAD_REACTORS
330
47
102
}
330
47
100
AcDbScale
 70
     0
300
1/16" = 1'-0"
140
0.0625
141
12.0
290
     0
  0
SCALE
  5
5D
102
{ACAD_REACTORS
330
47
102
}
330
47
100
AcDbScale
 70
     0
300
3/32" = 1'-0"
140
0.09375
141
12.0
290
     0
  0
SCALE
  5
5E
102
{ACAD_REACTORS
330
47
102
}
330
47
100
AcDbScale
 70
     0
300
1/8" = 1'-0"
140
0.125
141
12.0
290
     0
  0
SCALE
  5
5F
102
{ACAD_REACTORS
330
47
102
}
330
47
100
AcDbScale
 70
     0
300
3/16" = 1'-0"
140
0.1875
141
12.0
290
     0
  0
SCALE
  5
60
102
{ACAD_REACTORS
330
47
102
}
330
47
100
AcDbScale
 70
     0
300
1/4" = 1'-0"
140
0.25
141
12.0
290
     0
  0
SCALE
  5
61
102
{ACAD_REACTORS
330
47
102
}
330
47
100
AcDbScale
 70
     0
300
3/8" = 1'-0"
140
0.375
141
12.0
290
     0
  0
SCALE
  5
62
102
{ACAD_REACTORS
330
47
102
}
330
47
100
AcDbScale
 70
     0
300
1/2" = 1'-0"
140
0.5
141
12.0
290
     0
  0
SCALE
  5
63
102
{ACAD_REACTORS
330
47
102
}
330
47
100
AcDbScale
 70
     0
300
3/4" = 1'-0"
140
0.75
141
12.0
290
     0
  0
SCALE
  5
64
102
{ACAD_REACTORS
330
47
102
}
330
47
100
AcDbScale
 70
     0
300
1" = 1'-0"
140
1.0
141
12.0
290
     0
  0
SCALE
  5
65
102
{ACAD_REACTORS
330
47
102
}
330
47
100
AcDbScale
 70
     0
300
1-1/2" = 1'-0"
140
1.5
141
12.0
290
     0
  0
SCALE
  5
66
102
{ACAD_REACTORS
330
47
102
}
330
47
100
AcDbScale
 70
     0
300
3" = 1'-0"
140
3.0
141
12.0
290
     0
  0
SCALE
  5
67
102
{ACAD_REACTORS
330
47
102
}
330
47
100
AcDbScale
 70
     0
300
6" = 1'-0"
140
6.0
141
12.0
290
     0
  0
SCALE
  5
68
102
{ACAD_REACTORS
330
47
102
}
330
47
100
AcDbScale
 70
     0
300
1'-0" = 1'-0"
140
12.0
141
12.0
290
     0
  0
ENDSEC
  0
EOF
