  0
SECTION
  2
HEADER
  9
$ACADVER
  1
AC1015
  9
$ACADMAINTVER
 70
     6
  9
$DWGCODEPAGE
  3
ANSI_1252
  9
$INSBASE
 10
0.0
 20
0.0
 30
0.0
  9
$EXTMIN
 10
0.0
 20
0.0
 30
0.0
  9
$EXTMAX
 10
297.0
 20
210.0
 30
0.0
  9
$LIMMIN
 10
0.0
 20
0.0
  9
$LIMMAX
 10
297.0
 20
210.0
  9
$ORTHOMODE
 70
     0
  9
$REGENMODE
 70
     1
  9
$FILLMODE
 70
     1
  9
$QTEXTMODE
 70
     0
  9
$MIRRTEXT
 70
     1
  9
$LTSCALE
 40
1.0
  9
$ATTMODE
 70
     1
  9
$TEXTSIZE
 40
2.0
  9
$TRACEWID
 40
1.0
  9
$TEXTSTYLE
  7
Standard
  9
$CLAYER
  8
0
  9
$CELTYPE
  6
ByLayer
  9
$CECOLOR
 62
   256
  9
$CELTSCALE
 40
1.0
  9
$DISPSILH
 70
     0
  9
$DIMSCALE
 40
1.0
  9
$DIMASZ
 40
3.0
  9
$DIMEXO
 40
0.0
  9
$DIMDLI
 40
3.75
  9
$DIMRND
 40
0.0
  9
$DIMDLE
 40
0.0
  9
$DIMEXE
 40
1.0
  9
$DIMTP
 40
0.0
  9
$DIMTM
 40
0.0
  9
$DIMTXT
 40
2.0
  9
$DIMCEN
 40
2.5
  9
$DIMTSZ
 40
0.0
  9
$DIMTOL
 70
     0
  9
$DIMLIM
 70
     0
  9
$DIMTIH
 70
     1
  9
$DIMTOH
 70
     1
  9
$DIMSE1
 70
     0
  9
$DIMSE2
 70
     0
  9
$DIMTAD
 70
     1
  9
$DIMZIN
 70
     0
  9
$DIMBLK
  1

  9
$DIMASO
 70
     1
  9
$DIMSHO
 70
     1
  9
$DIMPOST
  1

  9
$DIMAPOST
  1

  9
$DIMALT
 70
     0
  9
$DIMALTD
 70
     3
  9
$DIMALTF
 40
0.0393700787
  9
$DIMLFAC
 40
1.0
  9
$DIMTOFL
 70
     1
  9
$DIMTVP
 40
0.0
  9
$DIMTIX
 70
     0
  9
$DIMSOXD
 70
     0
  9
$DIMSAH
 70
     0
  9
$DIMBLK1
  1

  9
$DIMBLK2
  1

  9
$DIMSTYLE
  2
ISO-25
  9
$DIMCLRD
 70
     0
  9
$DIMCLRE
 70
     0
  9
$DIMCLRT
 70
     0
  9
$DIMTFAC
 40
1.0
  9
$DIMGAP
 40
1.524
  9
$DIMJUST
 70
     0
  9
$DIMSD1
 70
     0
  9
$DIMSD2
 70
     0
  9
$DIMTOLJ
 70
     0
  9
$DIMTZIN
 70
     0
  9
$DIMALTZ
 70
     0
  9
$DIMALTTZ
 70
     0
  9
$DIMUPT
 70
     0
  9
$DIMDEC
 70
     2
  9
$DIMTDEC
 70
     3
  9
$DIMALTU
 70
     2
  9
$DIMALTTD
 70
     3
  9
$DIMTXSTY
  7
Standard
  9
$DIMAUNIT
 70
     0
  9
$DIMADEC
 70
     2
  9
$DIMALTRND
 40
0.0
  9
$DIMAZIN
 70
     0
  9
$DIMDSEP
 70
    44
  9
$DIMATFIT
 70
     3
  9
$DIMFRAC
 70
     0
  9
$DIMLDRBLK
  1

  9
$DIMLUNIT
 70
     2
  9
$DIMLWD
 70
    -2
  9
$DIMLWE
 70
    -2
  9
$DIMTMOVE
 70
     0
  9
$LUNITS
 70
     2
  9
$LUPREC
 70
     2
  9
$SKETCHINC
 40
1.0
  9
$FILLETRAD
 40
10.0
  9
$AUNITS
 70
     0
  9
$AUPREC
 70
     2
  9
$MENU
  1
.
  9
$ELEVATION
 40
0.0
  9
$PELEVATION
 40
0.0
  9
$THICKNESS
 40
0.0
  9
$LIMCHECK
 70
     0
  9
$CHAMFERA
 40
0.0
  9
$CHAMFERB
 40
0.0
  9
$CHAMFERC
 40
0.0
  9
$CHAMFERD
 40
0.0
  9
$SKPOLY
 70
     0
  9
$TDCREATE
 40
2457655.63525537
  9
$TDUCREATE
 40
2457655.551922037
  9
$TDUPDATE
 40
2457655.635256516
  9
$TDUUPDATE
 40
2457655.551923183
  9
$TDINDWG
 40
0.0000000116
  9
$TDUSRTIMER
 40
0.0000000116
  9
$USRTIMER
 70
     1
  9
$ANGBASE
 50
0.0
  9
$ANGDIR
 70
     0
  9
$PDMODE
 70
     0
  9
$PDSIZE
 40
-1.0
  9
$PLINEWID
 40
0.0
  9
$SPLFRAME
 70
     0
  9
$SPLINETYPE
 70
     6
  9
$SPLINESEGS
 70
     8
  9
$HANDSEED
  5
1EC
  9
$SURFTAB1
 70
     6
  9
$SURFTAB2
 70
     6
  9
$SURFTYPE
 70
     6
  9
$SURFU
 70
     6
  9
$SURFV
 70
     6
  9
$UCSBASE
  2

  9
$UCSNAME
  2

  9
$UCSORG
 10
0.0
 20
0.0
 30
0.0
  9
$UCSXDIR
 10
1.0
 20
0.0
 30
0.0
  9
$UCSYDIR
 10
0.0
 20
1.0
 30
0.0
  9
$UCSORTHOREF
  2

  9
$UCSORTHOVIEW
 70
     0
  9
$UCSORGTOP
 10
0.0
 20
0.0
 30
0.0
  9
$UCSORGBOTTOM
 10
0.0
 20
0.0
 30
0.0
  9
$UCSORGLEFT
 10
0.0
 20
0.0
 30
0.0
  9
$UCSORGRIGHT
 10
0.0
 20
0.0
 30
0.0
  9
$UCSORGFRONT
 10
0.0
 20
0.0
 30
0.0
  9
$UCSORGBACK
 10
0.0
 20
0.0
 30
0.0
  9
$PUCSBASE
  2

  9
$PUCSNAME
  2

  9
$PUCSORG
 10
0.0
 20
0.0
 30
0.0
  9
$PUCSXDIR
 10
1.0
 20
0.0
 30
0.0
  9
$PUCSYDIR
 10
0.0
 20
1.0
 30
0.0
  9
$PUCSORTHOREF
  2

  9
$PUCSORTHOVIEW
 70
     0
  9
$PUCSORGTOP
 10
0.0
 20
0.0
 30
0.0
  9
$PUCSORGBOTTOM
 10
0.0
 20
0.0
 30
0.0
  9
$PUCSORGLEFT
 10
0.0
 20
0.0
 30
0.0
  9
$PUCSORGRIGHT
 10
0.0
 20
0.0
 30
0.0
  9
$PUCSORGFRONT
 10
0.0
 20
0.0
 30
0.0
  9
$PUCSORGBACK
 10
0.0
 20
0.0
 30
0.0
  9
$USERI1
 70
     0
  9
$USERI2
 70
     0
  9
$USERI3
 70
     0
  9
$USERI4
 70
     0
  9
$USERI5
 70
     0
  9
$USERR1
 40
0.0
  9
$USERR2
 40
0.0
  9
$USERR3
 40
0.0
  9
$USERR4
 40
0.0
  9
$USERR5
 40
0.0
  9
$WORLDVIEW
 70
     1
  9
$SHADEDGE
 70
     3
  9
$SHADEDIF
 70
    70
  9
$TILEMODE
 70
     1
  9
$MAXACTVP
 70
    64
  9
$PINSBASE
 10
0.0
 20
0.0
 30
0.0
  9
$PLIMCHECK
 70
     0
  9
$PEXTMIN
 10
1.0000000000E+20
 20
1.0000000000E+20
 30
1.0000000000E+20
  9
$PEXTMAX
 10
-1.0000000000E+20
 20
-1.0000000000E+20
 30
-1.0000000000E+20
  9
$PLIMMIN
 10
0.0
 20
0.0
  9
$PLIMMAX
 10
420.0
 20
297.0
  9
$UNITMODE
 70
     0
  9
$VISRETAIN
 70
     1
  9
$PLINEGEN
 70
     0
  9
$PSLTSCALE
 70
     1
  9
$TREEDEPTH
 70
  3020
  9
$CMLSTYLE
  2
Standard
  9
$CMLJUST
 70
     0
  9
$CMLSCALE
 40
20.0
  9
$PROXYGRAPHICS
 70
     1
  9
$MEASUREMENT
 70
     1
  9
$CELWEIGHT
370
    -1
  9
$ENDCAPS
280
     0
  9
$JOINSTYLE
280
     0
  9
$LWDISPLAY
290
     1
  9
$INSUNITS
 70
     4
  9
$HYPERLINKBASE
  1

  9
$STYLESHEET
  1

  9
$XEDIT
290
     1
  9
$CEPSNTYPE
380
     0
  9
$PSTYLEMODE
290
     1
  9
$FINGERPRINTGUID
  2
{ADBEDAF7-CF3E-4A2D-A0FB-CDF84B1C750E}
  9
$VERSIONGUID
  2
{FAEB1C32-E019-11D5-929B-00C0DF256EC4}
  9
$EXTNAMES
290
     1
  9
$PSVPSCALE
 40
0.0
  9
$OLESTARTUP
290
     0
  0
ENDSEC
  0
SECTION
  2
CLASSES
  0
CLASS
  1
ACDBDICTIONARYWDFLT
  2
AcDbDictionaryWithDefault
  3
ObjectDBX Classes
 90
        0
280
     0
281
     0
  0
CLASS
  1
VISUALSTYLE
  2
AcDbVisualStyle
  3
ObjectDBX Classes
 90
     4095
280
     0
281
     0
  0
CLASS
  1
MATERIAL
  2
AcDbMaterial
  3
ObjectDBX Classes
 90
     1153
280
     0
281
     0
  0
CLASS
  1
SCALE
  2
AcDbScale
  3
ObjectDBX Classes
 90
     1153
280
     0
281
     0
  0
CLASS
  1
TABLESTYLE
  2
AcDbTableStyle
  3
ObjectDBX Classes
 90
     4095
280
     0
281
     0
  0
CLASS
  1
MLEADERSTYLE
  2
AcDbMLeaderStyle
  3
ACDB_MLEADERSTYLE_CLASS
 90
     4095
280
     0
281
     0
  0
CLASS
  1
SUN
  2
AcDbSun
  3
SCENEOE
 90
     1153
280
     0
281
     0
  0
CLASS
  1
ACDBPLACEHOLDER
  2
AcDbPlaceHolder
  3
ObjectDBX Classes
 90
        0
280
     0
281
     0
  0
CLASS
  1
LAYOUT
  2
AcDbLayout
  3
ObjectDBX Classes
 90
        0
280
     0
281
     0
  0
ENDSEC
  0
SECTION
  2
TABLES
  0
TABLE
  2
VPORT
  5
8
330
0
100
AcDbSymbolTable
 70
     1
  0
VPORT
  5
29
330
8
100
AcDbSymbolTableRecord
100
AcDbViewportTableRecord
  2
*Active
 70
     0
 10
0.0
 20
0.0
 11
1.0
 21
1.0
 12
148.5
 22
105.0
 13
0.0
 23
0.0
 14
10.0
 24
10.0
 15
10.0
 25
10.0
 16
0.0
 26
0.0
 36
1.0
 17
0.0
 27
0.0
 37
0.0
 40
210.0
 41
1.4142857143
 42
50.0
 43
0.0
 44
0.0
 50
0.0
 51
0.0
 71
     0
 72
  2000
 73
     1
 74
     3
 75
     0
 76
     0
 77
     0
 78
     0
281
     0
 65
     1
110
0.0
120
0.0
130
0.0
111
1.0
121
0.0
131
0.0
112
0.0
122
1.0
132
0.0
 79
     0
146
0.0
  0
ENDTAB
  0
TABLE
  2
LTYPE
  5
5
330
0
100
AcDbSymbolTable
 70
     6
  0
LTYPE
  5
14
330
5
100
AcDbSymbolTableRecord
100
AcDbLinetypeTableRecord
  2
ByBlock
 70
     0
  3

 72
    65
 73
     0
 40
0.0
  0
LTYPE
  5
15
330
5
100
AcDbSymbolTableRecord
100
AcDbLinetypeTableRecord
  2
ByLayer
 70
     0
  3

 72
    65
 73
     0
 40
0.0
  0
LTYPE
  5
16
330
5
100
AcDbSymbolTableRecord
100
AcDbLinetypeTableRecord
  2
Continuous
 70
     0
  3
Solid line
 72
    65
 73
     0
 40
0.0
  0
LTYPE
  5
6E
330
5
100
AcDbSymbolTableRecord
100
AcDbLinetypeTableRecord
  2
HIDDEN
 70
     0
  3
Hidden __ __ __ __ __ __ __ __ __ __ __ __ __ __
 72
    65
 73
     2
 40
1.905
 49
1.27
 74
     0
 49
-0.635
 74
     0
  0
LTYPE
  5
6F
330
5
100
AcDbSymbolTableRecord
100
AcDbLinetypeTableRecord
  2
PHANTOM
 70
     0
  3
Phantom ______  __  __  ______  __  __  ______
 72
    65
 73
     6
 40
12.7
 49
6.35
 74
     0
 49
-1.27
 74
     0
 49
1.27
 74
     0
 49
-1.27
 74
     0
 49
1.27
 74
     0
 49
-1.27
 74
     0
  0
LTYPE
  5
70
330
5
100
AcDbSymbolTableRecord
100
AcDbLinetypeTableRecord
  2
CENTER
 70
     0
  3
Center ____ _ ____ _ ____ _ ____ _ ____ _ ____
 72
    65
 73
     4
 40
10.16
 49
6.35
 74
     0
 49
-1.27
 74
     0
 49
1.27
 74
     0
 49
-1.27
 74
     0
  0
LTYPE
  5
71
330
5
100
AcDbSymbolTableRecord
100
AcDbLinetypeTableRecord
  2
CENTERX2
 70
     0
  3
Center (2x) ________  __  ________  __  _____
 72
    65
 73
     4
 40
20.32
 49
12.7
 74
     0
 49
-2.54
 74
     0
 49
2.54
 74
     0
 49
-2.54
 74
     0
  0
LTYPE
  5
72
330
5
100
AcDbSymbolTableRecord
100
AcDbLinetypeTableRecord
  2
DOT2
 70
     0
  3
Dot (.5x) ........................................
 72
    65
 73
     2
 40
0.635
 49
0.0
 74
     0
 49
-0.635
 74
     0
  0
ENDTAB
  0
TABLE
  2
LAYER
  5
2
330
0
100
AcDbSymbolTable
 70
     5
  0
LAYER
  5
10
330
2
100
AcDbSymbolTableRecord
100
AcDbLayerTableRecord
  2
0
 70
     0
 62
     7
  6
Continuous
370
    -3
390
F
  0
LAYER
  5
73
330
2
100
AcDbSymbolTableRecord
100
AcDbLayerTableRecord
  2
FORMAT
 70
     0
 62
     7
  6
Continuous
370
    -3
390
F
  0
LAYER
  5
74
330
2
100
AcDbSymbolTableRecord
100
AcDbLayerTableRecord
  2
VERMASSUNG
 70
     0
 62
     7
  6
Continuous
370
    -3
390
F
  0
LAYER
  5
75
330
2
100
AcDbSymbolTableRecord
100
AcDbLayerTableRecord
  2
KOPF_DÜNN
 70
     0
 62
     7
  6
Continuous
370
    -3
390
F
  0
LAYER
  5
76
330
2
100
AcDbSymbolTableRecord
100
AcDbLayerTableRecord
  2
KOPF_DICK
 70
     0
 62
     7
  6
Continuous
370
    15
390
F
  0
ENDTAB
  0
TABLE
  2
STYLE
  5
3
330
0
100
AcDbSymbolTable
 70
     3
  0
STYLE
  5
11
330
3
100
AcDbSymbolTableRecord
100
AcDbTextStyleTableRecord
  2
Standard
 70
     0
 40
0.0
 41
1.0
 50
0.0
 71
     0
 42
2.0
  3
txt
  4

  0
STYLE
  5
77
330
3
100
AcDbSymbolTableRecord
100
AcDbTextStyleTableRecord
  2
SLDTEXTSTYLE0
 70
     0
 40
0.0
 41
0.7
 50
0.0
 71
     0
 42
2.0
  3
TXT
  4

  0
STYLE
  5
7B
330
3
100
AcDbSymbolTableRecord
100
AcDbTextStyleTableRecord
  2
SLDTEXTSTYLE1
 70
     0
 40
0.0
 41
0.6444444444
 50
0.0
 71
     0
 42
2.0
  3
TXT
  4

  0
ENDTAB
  0
TABLE
  2
VIEW
  5
6
330
0
100
AcDbSymbolTable
 70
     0
  0
ENDTAB
  0
TABLE
  2
UCS
  5
7
330
0
100
AcDbSymbolTable
 70
     0
  0
ENDTAB
  0
TABLE
  2
APPID
  5
9
330
0
100
AcDbSymbolTable
 70
     1
  0
APPID
  5
12
330
9
100
AcDbSymbolTableRecord
100
AcDbRegAppTableRecord
  2
ACAD
 70
     0
  0
ENDTAB
  0
TABLE
  2
DIMSTYLE
  5
A
330
0
100
AcDbSymbolTable
 70
     2
100
AcDbDimStyleTable
  0
DIMSTYLE
105
27
330
A
100
AcDbSymbolTableRecord
100
AcDbDimStyleTableRecord
  2
ISO-25
 70
     0
 41
2.5
 42
0.625
 43
3.75
 44
1.25
 73
     0
 74
     0
 77
     1
 78
     8
140
2.5
141
2.5
143
0.0393700787
147
0.625
171
     3
172
     1
178
     0
271
     2
272
     2
274
     3
278
    44
283
     0
284
     8
340
11
  0
DIMSTYLE
105
12D
102
{ACAD_REACTORS
330
12C
330
139
330
143
330
14D
330
157
102
}
330
A
100
AcDbSymbolTableRecord
100
AcDbDimStyleTableRecord
  2
SLDDIMSTYLE0
 70
     0
 41
3.0
 44
0.0
 45
0.000000001
 73
     0
 74
     0
 77
     1
 78
    12
 79
     3
140
2.0
147
0.5
173
     1
178
     0
271
     2
272
     3
276
     2
284
    12
340
77
  0
ENDTAB
  0
TABLE
  2
BLOCK_RECORD
  5
1
330
0
100
AcDbSymbolTable
 70
     6
  0
BLOCK_RECORD
  5
1F
330
1
100
AcDbSymbolTableRecord
100
AcDbBlockTableRecord
  2
*Model_Space
340
22
  0
BLOCK_RECORD
  5
1B
330
1
100
AcDbSymbolTableRecord
100
AcDbBlockTableRecord
  2
*Paper_Space
340
1E
  0
BLOCK_RECORD
  5
23
330
1
100
AcDbSymbolTableRecord
100
AcDbBlockTableRecord
  2
*Paper_Space0
340
26
  0
BLOCK_RECORD
  5
12E
330
1
100
AcDbSymbolTableRecord
100
AcDbBlockTableRecord
  2
_D
340
0
  0
BLOCK_RECORD
  5
13A
330
1
100
AcDbSymbolTableRecord
100
AcDbBlockTableRecord
  2
_D_1
340
0
  0
BLOCK_RECORD
  5
144
330
1
100
AcDbSymbolTableRecord
100
AcDbBlockTableRecord
  2
_D_2
340
0
  0
BLOCK_RECORD
  5
14E
330
1
100
AcDbSymbolTableRecord
100
AcDbBlockTableRecord
  2
_D_3
340
0
  0
BLOCK_RECORD
  5
158
330
1
100
AcDbSymbolTableRecord
100
AcDbBlockTableRecord
  2
_D_4
340
0
  0
ENDTAB
  0
ENDSEC
  0
SECTION
  2
BLOCKS
  0
BLOCK
  5
20
330
1F
100
AcDbEntity
  8
0
100
AcDbBlockBegin
  2
*Model_Space
 70
     0
 10
0.0
 20
0.0
 30
0.0
  3
*Model_Space
  1

  0
ENDBLK
  5
21
330
1F
100
AcDbEntity
  8
0
100
AcDbBlockEnd
  0
BLOCK
  5
1C
330
1B
100
AcDbEntity
 67
     1
  8
0
100
AcDbBlockBegin
  2
*Paper_Space
 70
     0
 10
0.0
 20
0.0
 30
0.0
  3
*Paper_Space
  1

  0
ENDBLK
  5
1D
330
1B
100
AcDbEntity
 67
     1
  8
0
100
AcDbBlockEnd
  0
BLOCK
  5
24
330
23
100
AcDbEntity
  8
0
100
AcDbBlockBegin
  2
*Paper_Space0
 70
     0
 10
0.0
 20
0.0
 30
0.0
  3
*Paper_Space0
  1

  0
ENDBLK
  5
25
330
23
100
AcDbEntity
  8
0
100
AcDbBlockEnd
  0
BLOCK
  5
12F
330
12E
100
AcDbEntity
  8
0
100
AcDbBlockBegin
  2
_D
 70
     0
 10
0.0
 20
0.0
 30
0.0
  3
_D
  1

  0
SOLID
  5
131
330
12E
100
AcDbEntity
  8
VERMASSUNG
100
AcDbTrace
 10
77.2814551685
 20
141.4764271047
 30
0.0
 11
76.8314551685
 21
138.4764271047
 31
0.0
 12
77.7314551685
 22
138.4764271047
 32
0.0
 13
77.7314551685
 23
138.4764271047
 33
0.0
  0
SOLID
  5
132
330
12E
100
AcDbEntity
  8
VERMASSUNG
100
AcDbTrace
 10
77.2814551685
 20
78.4764271047
 30
0.0
 11
77.7314551685
 21
81.4764271047
 31
0.0
 12
76.8314551685
 22
81.4764271047
 32
0.0
 13
76.8314551685
 23
81.4764271047
 33
0.0
  0
LINE
  5
133
330
12E
100
AcDbEntity
  8
VERMASSUNG
100
AcDbLine
 10
171.0425831249
 20
141.4764271047
 30
0.0
 11
76.2814551685
 21
141.4764271047
 31
0.0
  0
LINE
  5
134
330
12E
100
AcDbEntity
  8
VERMASSUNG
100
AcDbLine
 10
171.0425880429
 20
78.4764271047
 30
0.0
 11
76.2814551685
 21
78.4764271047
 31
0.0
  0
LINE
  5
135
330
12E
100
AcDbEntity
  8
VERMASSUNG
100
AcDbLine
 10
77.2814551685
 20
141.4764271047
 30
0.0
 11
77.2814551685
 21
78.4764271047
 31
0.0
  0
MTEXT
  5
136
330
12E
100
AcDbEntity
  8
VERMASSUNG
100
AcDbMText
 10
74.5033199123
 20
99.2719420378
 30
0.0
 40
2.0
 41
0.0
 71
     1
 72
     1
  1
MAS BT 40
  7
SLDTEXTSTYLE0
 11
-7.044195017643634E-15
 21
1.0
 31
0.0
 73
     1
 44
1.0
  0
MTEXT
  5
137
330
12E
100
AcDbEntity
  8
VERMASSUNG
100
AcDbMText
 10
74.7033198636
 20
114.2719417025
 30
0.0
 40
2.0
 41
0.0
 71
     1
 72
     1
  1
%%c
  7
SLDTEXTSTYLE0
 11
-7.044195017643634E-15
 21
1.0
 31
0.0
 73
     1
 44
1.0
  0
MTEXT
  5
138
330
12E
100
AcDbEntity
  8
VERMASSUNG
100
AcDbMText
 10
74.7033195725
 20
117.8815321511
 30
0.0
 40
2.0
 41
0.0
 71
     1
 72
     1
  1
63
  7
SLDTEXTSTYLE0
 11
-7.044195017643634E-15
 21
1.0
 31
0.0
 73
     1
 44
1.0
  0
ENDBLK
  5
130
330
12E
100
AcDbEntity
  8
0
100
AcDbBlockEnd
  0
BLOCK
  5
13B
330
13A
100
AcDbEntity
  8
0
100
AcDbBlockBegin
  2
_D_1
 70
     0
 10
0.0
 20
0.0
 30
0.0
  3
_D_1
  1

  0
SOLID
  5
13D
330
13A
100
AcDbEntity
  8
VERMASSUNG
100
AcDbTrace
 10
81.642587269
 20
159.4949336013
 30
0.0
 11
84.642587269
 21
159.0449336013
 31
0.0
 12
84.642587269
 22
159.9449336013
 32
0.0
 13
84.642587269
 23
159.9449336013
 33
0.0
  0
SOLID
  5
13E
330
13A
100
AcDbEntity
  8
VERMASSUNG
100
AcDbTrace
 10
229.042587269
 20
159.4949336013
 30
0.0
 11
226.042587269
 21
159.9449336013
 31
0.0
 12
226.042587269
 22
159.0449336013
 32
0.0
 13
226.042587269
 23
159.0449336013
 33
0.0
  0
LINE
  5
13F
330
13A
100
AcDbEntity
  8
VERMASSUNG
100
AcDbLine
 10
81.642587269
 20
121.7991827018
 30
0.0
 11
81.642587269
 21
160.4949336013
 31
0.0
  0
LINE
  5
140
330
13A
100
AcDbEntity
  8
VERMASSUNG
100
AcDbLine
 10
229.042587269
 20
122.2764271047
 30
0.0
 11
229.042587269
 21
160.4949336013
 31
0.0
  0
LINE
  5
141
330
13A
100
AcDbEntity
  8
VERMASSUNG
100
AcDbLine
 10
81.642587269
 20
159.4949336013
 30
0.0
 11
229.042587269
 21
159.4949336013
 31
0.0
  0
MTEXT
  5
142
330
13A
100
AcDbEntity
  8
VERMASSUNG
100
AcDbMText
 10
152.24319489
 20
162.0730691973
 30
0.0
 40
2.0
 41
0.0
 71
     1
 72
     1
  1
147.4
  7
SLDTEXTSTYLE0
 73
     1
 44
1.0
  0
ENDBLK
  5
13C
330
13A
100
AcDbEntity
  8
0
100
AcDbBlockEnd
  0
BLOCK
  5
145
330
144
100
AcDbEntity
  8
0
100
AcDbBlockBegin
  2
_D_2
 70
     0
 10
0.0
 20
0.0
 30
0.0
  3
_D_2
  1

  0
SOLID
  5
147
330
144
100
AcDbEntity
  8
VERMASSUNG
100
AcDbTrace
 10
147.042587269
 20
153.4949336013
 30
0.0
 11
150.042587269
 21
153.0449336013
 31
0.0
 12
150.042587269
 22
153.9449336013
 32
0.0
 13
150.042587269
 23
153.9449336013
 33
0.0
  0
SOLID
  5
148
330
144
100
AcDbEntity
  8
VERMASSUNG
100
AcDbTrace
 10
229.042587269
 20
153.4949336013
 30
0.0
 11
226.042587269
 21
153.9449336013
 31
0.0
 12
226.042587269
 22
153.0449336013
 32
0.0
 13
226.042587269
 23
153.0449336013
 33
0.0
  0
LINE
  5
149
330
144
100
AcDbEntity
  8
VERMASSUNG
100
AcDbLine
 10
147.042587269
 20
132.2014271047
 30
0.0
 11
147.042587269
 21
154.4949336013
 31
0.0
  0
LINE
  5
14A
330
144
100
AcDbEntity
  8
VERMASSUNG
100
AcDbLine
 10
229.042587269
 20
122.2764271047
 30
0.0
 11
229.042587269
 21
154.4949336013
 31
0.0
  0
LINE
  5
14B
330
144
100
AcDbEntity
  8
VERMASSUNG
100
AcDbLine
 10
147.042587269
 20
153.4949336013
 30
0.0
 11
229.042587269
 21
153.4949336013
 31
0.0
  0
MTEXT
  5
14C
330
144
100
AcDbEntity
  8
VERMASSUNG
100
AcDbMText
 10
186.6428972587
 20
156.0730691973
 30
0.0
 40
2.0
 41
0.0
 71
     1
 72
     1
  1
82
  7
SLDTEXTSTYLE0
 73
     1
 44
1.0
  0
ENDBLK
  5
146
330
144
100
AcDbEntity
  8
0
100
AcDbBlockEnd
  0
BLOCK
  5
14F
330
14E
100
AcDbEntity
  8
0
100
AcDbBlockBegin
  2
_D_3
 70
     0
 10
0.0
 20
0.0
 30
0.0
  3
_D_3
  1

  0
SOLID
  5
151
330
14E
100
AcDbEntity
  8
VERMASSUNG
100
AcDbTrace
 10
174.042587269
 20
147.4949336013
 30
0.0
 11
177.042587269
 21
147.0449336013
 31
0.0
 12
177.042587269
 22
147.9449336013
 32
0.0
 13
177.042587269
 23
147.9449336013
 33
0.0
  0
SOLID
  5
152
330
14E
100
AcDbEntity
  8
VERMASSUNG
100
AcDbTrace
 10
229.042587269
 20
147.4949336013
 30
0.0
 11
226.042587269
 21
147.9449336013
 31
0.0
 12
226.042587269
 22
147.0449336013
 32
0.0
 13
226.042587269
 23
147.0449336013
 33
0.0
  0
LINE
  5
153
330
14E
100
AcDbEntity
  8
VERMASSUNG
100
AcDbLine
 10
174.042587269
 20
140.4764271047
 30
0.0
 11
174.042587269
 21
148.4949336013
 31
0.0
  0
LINE
  5
154
330
14E
100
AcDbEntity
  8
VERMASSUNG
100
AcDbLine
 10
229.042587269
 20
122.2764271047
 30
0.0
 11
229.042587269
 21
148.4949336013
 31
0.0
  0
LINE
  5
155
330
14E
100
AcDbEntity
  8
VERMASSUNG
100
AcDbLine
 10
174.042587269
 20
147.4949336013
 30
0.0
 11
229.042587269
 21
147.4949336013
 31
0.0
  0
MTEXT
  5
156
330
14E
100
AcDbEntity
  8
VERMASSUNG
100
AcDbMText
 10
200.1428972587
 20
150.0730691973
 30
0.0
 40
2.0
 41
0.0
 71
     1
 72
     1
  1
55
  7
SLDTEXTSTYLE0
 73
     1
 44
1.0
  0
ENDBLK
  5
150
330
14E
100
AcDbEntity
  8
0
100
AcDbBlockEnd
  0
BLOCK
  5
159
330
158
100
AcDbEntity
  8
0
100
AcDbBlockBegin
  2
_D_4
 70
     0
 10
0.0
 20
0.0
 30
0.0
  3
_D_4
  1

  0
SOLID
  5
15B
330
158
100
AcDbEntity
  8
VERMASSUNG
100
AcDbTrace
 10
235.9339819762
 20
122.4764271047
 30
0.0
 11
235.4839819762
 21
119.4764271047
 31
0.0
 12
236.3839819762
 22
119.4764271047
 32
0.0
 13
236.3839819762
 23
119.4764271047
 33
0.0
  0
SOLID
  5
15C
330
158
100
AcDbEntity
  8
VERMASSUNG
100
AcDbTrace
 10
235.9339819762
 20
97.4764271047
 30
0.0
 11
236.3839819762
 21
100.4764271047
 31
0.0
 12
235.4839819762
 22
100.4764271047
 32
0.0
 13
235.4839819762
 23
100.4764271047
 33
0.0
  0
LINE
  5
15D
330
158
100
AcDbEntity
  8
VERMASSUNG
100
AcDbLine
 10
228.842587269
 20
122.4764271047
 30
0.0
 11
236.9339819762
 21
122.4764271047
 31
0.0
  0
LINE
  5
15E
330
158
100
AcDbEntity
  8
VERMASSUNG
100
AcDbLine
 10
228.842587269
 20
97.4764271047
 30
0.0
 11
236.9339819762
 21
97.4764271047
 31
0.0
  0
LINE
  5
15F
330
158
100
AcDbEntity
  8
VERMASSUNG
100
AcDbLine
 10
235.9339819762
 20
122.4764271047
 30
0.0
 11
235.9339819762
 21
97.4764271047
 31
0.0
  0
MTEXT
  5
160
330
158
100
AcDbEntity
  8
VERMASSUNG
100
AcDbMText
 10
233.15584672
 20
103.5714274612
 30
0.0
 40
2.0
 41
0.0
 71
     1
 72
     1
  1
MBM
  7
SLDTEXTSTYLE0
 11
-7.044195017643634E-15
 21
1.0
 31
0.0
 73
     1
 44
1.0
  0
MTEXT
  5
161
330
158
100
AcDbEntity
  8
VERMASSUNG
100
AcDbMText
 10
233.3558466713
 20
109.9714272995
 30
0.0
 40
2.0
 41
0.0
 71
     1
 72
     1
  1
%%c
  7
SLDTEXTSTYLE0
 11
-7.044195017643634E-15
 21
1.0
 31
0.0
 73
     1
 44
1.0
  0
MTEXT
  5
162
330
158
100
AcDbEntity
  8
VERMASSUNG
100
AcDbMText
 10
233.15584672
 20
113.5814277794
 30
0.0
 40
2.0
 41
0.0
 71
     1
 72
     1
  1
25
  7
SLDTEXTSTYLE0
 11
-7.044195017643634E-15
 21
1.0
 31
0.0
 73
     1
 44
1.0
  0
ENDBLK
  5
15A
330
158
100
AcDbEntity
  8
0
100
AcDbBlockEnd
  0
ENDSEC
  0
SECTION
  2
ENTITIES
  0
MTEXT
  5
78
330
1F
100
AcDbEntity
  8
KOPF_DÜNN
100
AcDbMText
 10
13.8892156294
 20
23.8442973028
 30
0.0
 40
3.0
 41
0.0
 71
     1
 72
     1
  1
102.412.252
  7
SLDTEXTSTYLE0
 73
     1
 44
1.0
  0
MTEXT
  5
79
330
1F
100
AcDbEntity
  8
VERMASSUNG
100
AcDbMText
 10
13.9329988022
 20
28.8834360957
 30
0.0
 40
3.0
 41
0.0
 71
     1
 72
     1
  1
Aufnahme_Master shank MBM 25
  7
SLDTEXTSTYLE0
 73
     1
 44
1.0
  0
MTEXT
  5
7A
330
1F
100
AcDbEntity
  8
VERMASSUNG
100
AcDbMText
 10
98.8601118557
 20
13.8365368761
 30
0.0
 40
2.0
 41
0.0
 71
     1
 72
     1
  1
Datum: 22.11.2007
  7
SLDTEXTSTYLE0
 73
     1
 44
1.0
  0
MTEXT
  5
7C
330
1F
100
AcDbEntity
  8
VERMASSUNG
100
AcDbMText
 10
13.933048693
 20
18.0482802738
 30
0.0
 40
2.0
 41
0.0
 71
     1
 72
     1
  1
MAS BT 40 / MBM 25
  7
SLDTEXTSTYLE1
 73
     1
 44
1.0
  0
MTEXT
  5
7D
330
1F
100
AcDbEntity
  8
VERMASSUNG
100
AcDbMText
 10
13.9808475933
 20
13.9090974274
 30
0.0
 40
2.0
 41
0.0
 71
     1
 72
     1
  1
Gewicht: 1149g
  7
SLDTEXTSTYLE0
 73
     1
 44
1.0
  0
LINE
  5
7E
330
1F
100
AcDbEntity
  8
0
  6
Continuous
 62
     7
370
    15
100
AcDbLine
 10
171.0427425573
 20
78.4764271047
 30
0.0
 11
173.042587269
 21
78.4764271047
 31
0.0
  0
LINE
  5
7F
330
1F
100
AcDbEntity
  8
0
  6
Continuous
 62
     7
370
    15
100
AcDbLine
 10
173.042587269
 20
141.4764271047
 30
0.0
 11
171.042087099
 21
141.4764271047
 31
0.0
  0
ARC
  5
80
330
1F
100
AcDbEntity
  8
0
  6
Continuous
 62
     7
370
    15
100
AcDbCircle
 10
173.042587269
 20
79.4764271047
 30
0.0
 40
1.0
100
AcDbArc
 50
270.0
 51
0.0
  0
ARC
  5
81
330
1F
100
AcDbEntity
  8
0
  6
Continuous
 62
     7
370
    15
100
AcDbCircle
 10
173.042587269
 20
140.4764271047
 30
0.0
 40
1.0
100
AcDbArc
 50
0.0
 51
90.0
  0
ARC
  5
82
330
1F
100
AcDbEntity
  8
0
  6
Continuous
 62
     7
370
    15
100
AcDbCircle
 10
148.042587269
 20
86.7514271047
 30
0.0
 40
1.0
100
AcDbArc
 50
46.4308085246
 51
90.0
  0
ARC
  5
83
330
1F
100
AcDbEntity
  8
0
  6
Continuous
 62
     7
370
    15
100
AcDbCircle
 10
148.042587269
 20
133.2014271047
 30
0.0
 40
1.000000000000002
100
AcDbArc
 50
270.0
 51
313.5374438248
  0
LINE
  5
84
330
1F
100
AcDbEntity
  8
0
  6
Continuous
 62
     7
370
    15
100
AcDbLine
 10
147.042587269
 20
132.2014271047
 30
0.0
 11
82.4982803759
 21
122.7887156828
 31
0.0
  0
LINE
  5
85
330
1F
100
AcDbEntity
  8
0
  6
Continuous
 62
     7
370
    15
100
AcDbLine
 10
82.4982803759
 20
97.1641385266
 30
0.0
 11
147.042587269
 21
87.7514271047
 31
0.0
  0
LINE
  5
86
330
1F
100
AcDbEntity
  8
0
  6
Continuous
 62
     7
370
    15
100
AcDbLine
 10
147.042587269
 20
87.7514271047
 30
0.0
 11
148.042587269
 21
87.7514271047
 31
0.0
  0
LINE
  5
87
330
1F
100
AcDbEntity
  8
0
  6
Continuous
 62
     7
370
    15
100
AcDbLine
 10
148.042587269
 20
132.2014271047
 30
0.0
 11
147.042587269
 21
132.2014271047
 31
0.0
  0
ARC
  5
88
330
1F
100
AcDbEntity
  8
0
  6
Continuous
 62
     7
370
    15
100
AcDbCircle
 10
178.042587269
 20
93.4764271047
 30
0.0
 40
4.0
100
AcDbArc
 50
90.0
 51
180.0
  0
ARC
  5
89
330
1F
100
AcDbEntity
  8
0
  6
Continuous
 62
     7
370
    15
100
AcDbCircle
 10
178.042587269
 20
126.4764271047
 30
0.0
 40
4.0
100
AcDbArc
 50
180.0
 51
270.0
  0
ARC
  5
8A
330
1F
100
AcDbEntity
  8
0
  6
Continuous
 62
     7
370
    15
100
AcDbCircle
 10
82.642587269
 20
98.1536715077
 30
0.0
 40
1.0
100
AcDbArc
 50
180.0
 51
261.7028550302
  0
ARC
  5
8B
330
1F
100
AcDbEntity
  8
0
  6
Continuous
 62
     7
370
    15
100
AcDbCircle
 10
82.642587269
 20
121.7991827018
 30
0.0
 40
1.00000000000001
100
AcDbArc
 50
98.2971449698
 51
180.0
  0
LINE
  5
8C
330
1F
100
AcDbEntity
  8
0
  6
Continuous
 62
     7
370
    15
100
AcDbLine
 10
228.842587269
 20
97.4764271047
 30
0.0
 11
229.042587269
 21
97.6764271047
 31
0.0
  0
LINE
  5
8D
330
1F
100
AcDbEntity
  8
0
  6
Continuous
 62
     7
370
    15
100
AcDbLine
 10
229.042587269
 20
122.2764271047
 30
0.0
 11
228.842587269
 21
122.4764271047
 31
0.0
  0
LINE
  5
8E
330
1F
100
AcDbEntity
  8
0
  6
Continuous
 62
     7
370
    15
100
AcDbLine
 10
178.042587269
 20
97.4764271047
 30
0.0
 11
228.842587269
 21
97.4764271047
 31
0.0
  0
LINE
  5
8F
330
1F
100
AcDbEntity
  8
0
  6
Continuous
 62
     7
370
    15
100
AcDbLine
 10
228.842587269
 20
122.4764271047
 30
0.0
 11
178.042587269
 21
122.4764271047
 31
0.0
  0
SPLINE
  5
90
330
1F
100
AcDbEntity
  8
0
  6
Continuous
 62
     7
370
    15
100
AcDbSpline
210
0.0
220
0.0
230
1.0
 70
     8
 71
     3
 72
    10
 73
     6
 74
     0
 42
0.000000001
 43
0.00000001
 40
0.0
 40
0.0
 40
0.0
 40
0.0
 40
0.5
 40
0.5
 40
1.0
 40
1.0
 40
1.0
 40
1.0
 10
168.0191956730393
 20
139.8808878260769
 30
0.0
 10
167.7030918418999
 20
139.2610252677998
 30
0.0
 10
167.3733127975551
 20
138.6151245325009
 30
0.0
 10
166.7010895251663
 20
137.3007058922004
 30
0.0
 10
166.3589563592357
 20
136.6327836651881
 30
0.0
 10
166.0117760307215
 20
135.9564459327067
 30
0.0
  0
SPLINE
  5
91
330
1F
100
AcDbEntity
  8
0
  6
Continuous
 62
     7
370
    15
100
AcDbSpline
210
0.0
220
0.0
230
1.0
 70
     8
 71
     3
 72
     9
 73
     5
 74
     0
 42
0.000000001
 43
0.00000001
 40
0.0
 40
0.0
 40
0.0
 40
0.0
 40
0.5067595796178751
 40
1.0
 40
1.0
 40
1.0
 40
1.0
 10
168.6682178119784
 20
140.8385622120718
 30
0.0
 10
168.5578174641963
 20
140.6764872737375
 30
0.0
 10
168.3399619914586
 20
140.3566611769984
 30
0.0
 10
168.1253688892501
 20
140.0383131973611
 30
0.0
 10
168.0195228973056
 20
139.8812911060571
 30
0.0
  0
LINE
  5
92
330
1F
100
AcDbEntity
  8
0
  6
Continuous
 62
     7
370
    15
100
AcDbLine
 10
168.667587269
 20
79.1153290852
 30
0.0
 11
168.667587269
 21
140.8375088592
 31
0.0
  0
SPLINE
  5
93
330
1F
100
AcDbEntity
  8
0
  6
Continuous
 62
     7
370
    15
100
AcDbSpline
210
0.0
220
0.0
230
1.0
 70
     8
 71
     3
 72
     9
 73
     5
 74
     0
 42
0.000000001
 43
0.00000001
 40
0.0
 40
0.0
 40
0.0
 40
0.0
 40
0.4932426502230348
 40
1.0
 40
1.0
 40
1.0
 40
1.0
 10
168.0195089822828
 20
80.07156100301803
 30
0.0
 10
168.125355087294
 20
79.91453776335786
 30
0.0
 10
168.3399474486061
 20
79.59618889472462
 30
0.0
 10
168.5578017365662
 20
79.2763628480211
 30
0.0
 10
168.6682009981704
 20
79.11428864820398
 30
0.0
  0
SPLINE
  5
94
330
1F
100
AcDbEntity
  8
0
  6
Continuous
 62
     7
370
    15
100
AcDbSpline
210
0.0
220
0.0
230
1.0
 70
     8
 71
     3
 72
    10
 73
     6
 74
     0
 42
0.000000001
 43
0.00000001
 40
0.0
 40
0.0
 40
0.0
 40
0.0
 40
0.5
 40
0.5
 40
1.0
 40
1.0
 40
1.0
 40
1.0
 10
168.0191897533715
 20
80.07197799151777
 30
0.0
 10
167.7030106506974
 20
80.6919881435315
 30
0.0
 10
167.3725684235304
 20
81.3391862093992
 30
0.0
 10
166.7008569028477
 20
82.65260213399296
 30
0.0
 10
166.3588830278157
 20
83.32021340029577
 30
0.0
 10
166.0117760307215
 20
83.99640827673893
 30
0.0
  0
SPLINE
  5
95
330
1F
100
AcDbEntity
  8
0
  6
Continuous
 62
     7
370
    15
100
AcDbSpline
210
0.0
220
0.0
230
1.0
 70
     8
 71
     3
 72
    11
 73
     7
 74
     0
 42
0.000000001
 43
0.00000001
 40
0.0
 40
0.0
 40
0.0
 40
0.0
 40
0.2488814606695658
 40
0.5011921284368381
 40
0.7520447562540515
 40
1.0
 40
1.0
 40
1.0
 40
1.0
 10
171.0420870989767
 20
141.4762773593164
 30
0.0
 10
171.0123087694773
 20
141.467145333172
 30
0.0
 10
170.9523418104962
 20
141.4487554554853
 30
0.0
 10
170.4604197487494
 20
141.3047182070002
 30
0.0
 10
169.73235032613
 20
141.0953151288889
 30
0.0
 10
169.0216068549524
 20
140.92311085954
 30
0.0
 10
168.6682993378028
 20
140.8375088592214
 30
0.0
  0
SPLINE
  5
96
330
1F
100
AcDbEntity
  8
0
  6
Continuous
 62
     7
370
    15
100
AcDbSpline
210
0.0
220
0.0
230
1.0
 70
     8
 71
     3
 72
    24
 73
    20
 74
     0
 42
0.000000001
 43
0.00000001
 40
0.0
 40
0.0
 40
0.0
 40
0.0
 40
0.0452415188181215
 40
0.0903576032837186
 40
0.1353964847634508
 40
0.1804066427868313
 40
0.2254366496322519
 40
0.2705350134216766
 40
0.3157500222473919
 40
0.3611295918156032
 40
0.4067211189617331
 40
0.4525713431792519
 40
0.4987262180216527
 40
0.5833854493104974
 40
0.6672044015700684
 40
0.7504757991104491
 40
0.8334981582162345
 40
0.9165726798526856
 40
1.0
 40
1.0
 40
1.0
 40
1.0
 10
168.6682059624115
 20
79.11532908518733
 30
0.0
 10
168.7359097043142
 20
79.09957004416984
 30
0.0
 10
168.8711294761407
 20
79.06809565485688
 30
0.0
 10
169.0637911929786
 20
79.02163485151812
 30
0.0
 10
169.2485280646274
 20
78.97600387188604
 30
0.0
 10
169.4246460059184
 20
78.93137857445302
 30
0.0
 10
169.5923297985313
 20
78.88789128785334
 30
0.0
 10
169.7515292828188
 20
78.84569024005789
 30
0.0
 10
169.9022574213173
 20
78.80492364773563
 30
0.0
 10
170.0445103746962
 20
78.76574389516489
 30
0.0
 10
170.17828913001
 20
78.72830660322091
 30
0.0
 10
170.3035930400821
 20
78.6927700197795
 30
0.0
 10
170.4526068769186
 20
78.65007794897363
 30
0.0
 10
170.6133177181038
 20
78.60358525557088
 30
0.0
 10
170.7691924768287
 20
78.55794082048074
 30
0.0
 10
170.8907998188612
 20
78.52191631288285
 30
0.0
 10
170.9772923117902
 20
78.49603021582564
 30
0.0
 10
171.0317595635322
 20
78.47957981200292
 30
0.0
 10
171.0389684827794
 20
78.47747978148972
 30
0.0
 10
171.042580579844
 20
78.47642754136993
 30
0.0
  0
LINE
  5
97
330
1F
100
AcDbEntity
  8
0
  6
Continuous
 62
     7
370
    15
100
AcDbLine
 10
158.617587269
 20
140.2128172077
 30
0.0
 11
150.042587269
 21
140.2128172077
 31
0.0
  0
LINE
  5
98
330
1F
100
AcDbEntity
  8
0
  6
Continuous
 62
     7
370
    15
100
AcDbLine
 10
158.617587269
 20
79.7400370017
 30
0.0
 11
158.617587269
 21
140.2128172077
 31
0.0
  0
LINE
  5
99
330
1F
100
AcDbEntity
  8
0
  6
Continuous
 62
     7
370
    15
100
AcDbLine
 10
150.042587269
 20
79.7400370017
 30
0.0
 11
158.617587269
 21
79.7400370017
 31
0.0
  0
LINE
  5
9A
330
1F
100
AcDbEntity
  8
0
  6
Continuous
 62
     7
370
    15
100
AcDbLine
 10
174.042587269
 20
79.4764271047
 30
0.0
 11
174.042587269
 21
140.4764270979
 31
0.0
  0
SPLINE
  5
9B
330
1F
100
AcDbEntity
  8
0
  6
Continuous
 62
     7
370
    15
100
AcDbSpline
210
0.0
220
0.0
230
1.0
 70
     8
 71
     3
 72
     8
 73
     4
 74
     0
 42
0.000000001
 43
0.00000001
 40
0.0
 40
0.0
 40
0.0
 40
0.0
 40
0.0012389803509652
 40
0.0012389803509652
 40
0.0012389803509652
 40
0.0012389803509652
 10
159.1751488125276
 20
139.4304498275093
 30
0.0
 10
158.9900288393948
 20
139.6914998088883
 30
0.0
 10
158.8041503916358
 20
139.9522814220073
 30
0.0
 10
158.6175872689938
 20
140.2128172077246
 30
0.0
  0
SPLINE
  5
9C
330
1F
100
AcDbEntity
  8
0
  6
Continuous
 62
     7
370
    15
100
AcDbSpline
210
0.0
220
0.0
230
1.0
 70
     8
 71
     3
 72
     8
 73
     4
 74
     0
 42
0.000000001
 43
0.00000001
 40
0.0
 40
0.0
 40
0.0
 40
0.0
 40
1.0
 40
1.0
 40
1.0
 40
1.0
 10
161.2733985072661
 20
135.6436727691878
 30
0.0
 10
160.5771051412246
 20
136.9076111373026
 30
0.0
 10
159.8773099760335
 20
138.1696665828109
 30
0.0
 10
159.1751488125276
 20
139.4304498275093
 30
0.0
  0
SPLINE
  5
9D
330
1F
100
AcDbEntity
  8
0
  6
Continuous
 62
     7
370
    15
100
AcDbSpline
210
0.0
220
0.0
230
1.0
 70
     8
 71
     3
 72
     8
 73
     4
 74
     0
 42
0.000000001
 43
0.00000001
 40
0.0
 40
0.0
 40
0.0
 40
0.0
 40
1.0
 40
1.0
 40
1.0
 40
1.0
 10
161.2733985072661
 20
84.30918144025775
 30
0.0
 10
160.5770803666081
 20
83.04519810031096
 30
0.0
 10
159.8772831744977
 20
81.78313950245898
 30
0.0
 10
159.1751488125276
 20
80.52240438193628
 30
0.0
  0
SPLINE
  5
9E
330
1F
100
AcDbEntity
  8
0
  6
Continuous
 62
     7
370
    15
100
AcDbSpline
210
0.0
220
0.0
230
1.0
 70
     8
 71
     3
 72
     8
 73
     4
 74
     0
 42
0.000000001
 43
0.00000001
 40
0.0
 40
0.0
 40
0.0
 40
0.0
 40
0.0012389803509652
 40
0.0012389803509652
 40
0.0012389803509652
 40
0.0012389803509652
 10
158.6175872689938
 20
79.74003700172095
 30
0.0
 10
158.8041503916358
 20
80.0005727874383
 30
0.0
 10
158.9900288393948
 20
80.2613544005573
 30
0.0
 10
159.1751488125276
 20
80.52240438193628
 30
0.0
  0
LINE
  5
9F
330
1F
100
AcDbEntity
  8
0
  6
Continuous
 62
     7
370
    15
100
AcDbLine
 10
149.042587269
 20
80.8500215592
 30
0.0
 11
149.042587269
 21
139.1028326502
 31
0.0
  0
SPLINE
  5
A0
330
1F
100
AcDbEntity
  8
0
  6
Continuous
 62
     7
370
    15
100
AcDbSpline
210
0.0
220
0.0
230
1.0
 70
     8
 71
     3
 72
    12
 73
     8
 74
     0
 42
0.000000001
 43
0.00000001
 40
0.0
 40
0.0
 40
0.0
 40
0.0
 40
0.2500000000000001
 40
0.2500000000000001
 40
0.5000000000000002
 40
0.5000000000000002
 40
1.0
 40
1.0
 40
1.0
 40
1.0
 10
149.4296200919594
 20
140.0434170045438
 30
0.0
 10
149.3777593407713
 20
139.9866044322294
 30
0.0
 10
149.3290275437523
 20
139.9246122459776
 30
0.0
 10
149.2388545338349
 20
139.7885591728536
 30
0.0
 10
149.19707728555
 20
139.7136530702548
 30
0.0
 10
149.090988415704
 20
139.4755264349574
 30
0.0
 10
149.0425872689938
 20
139.2921197033886
 30
0.0
 10
149.0425872689938
 20
139.1028326502068
 30
0.0
  0
SPLINE
  5
A1
330
1F
100
AcDbEntity
  8
0
  6
Continuous
 62
     7
370
    15
100
AcDbSpline
210
0.0
220
0.0
230
1.0
 70
     8
 71
     3
 72
     8
 73
     4
 74
     0
 42
0.000000001
 43
0.00000001
 40
0.0
 40
0.0
 40
0.0
 40
0.0
 40
1.0
 40
1.0
 40
1.0
 40
1.0
 10
150.0425872689938
 20
140.2128172077246
 30
0.0
 10
149.816242955394
 20
140.2128172077246
 30
0.0
 10
149.5987908349888
 20
140.1494487387037
 30
0.0
 10
149.4296200919594
 20
140.0434170045438
 30
0.0
  0
SPLINE
  5
A2
330
1F
100
AcDbEntity
  8
0
  6
Continuous
 62
     7
370
    15
100
AcDbSpline
210
0.0
220
0.0
230
1.0
 70
     8
 71
     3
 72
     8
 73
     4
 74
     0
 42
0.000000001
 43
0.00000001
 40
0.0
 40
0.0
 40
0.0
 40
0.0
 40
1.0
 40
1.0
 40
1.0
 40
1.0
 10
149.4296200919594
 20
79.90943720490183
 30
0.0
 10
149.5992135976113
 20
79.80314049434465
 30
0.0
 10
149.8155822899445
 20
79.74003700172095
 30
0.0
 10
150.0425872689938
 20
79.74003700172095
 30
0.0
  0
SPLINE
  5
A3
330
1F
100
AcDbEntity
  8
0
  6
Continuous
 62
     7
370
    15
100
AcDbSpline
210
0.0
220
0.0
230
1.0
 70
     8
 71
     3
 72
    12
 73
     8
 74
     0
 42
0.000000001
 43
0.00000001
 40
0.0
 40
0.0
 40
0.0
 40
0.0
 40
0.2499999999999976
 40
0.2499999999999976
 40
0.4999999999999952
 40
0.4999999999999952
 40
1.0
 40
1.0
 40
1.0
 40
1.0
 10
149.4296200919594
 20
79.90943720490183
 30
0.0
 10
149.3777593407713
 20
79.9662497772162
 30
0.0
 10
149.3290275437523
 20
80.02824196346803
 30
0.0
 10
149.2388545338349
 20
80.16429503659204
 30
0.0
 10
149.19707728555
 20
80.23920113919077
 30
0.0
 10
149.090988415704
 20
80.47732777448817
 30
0.0
 10
149.0425872689938
 20
80.66073450605694
 30
0.0
 10
149.0425872689938
 20
80.85002155923881
 30
0.0
  0
SPLINE
  5
A4
330
1F
100
AcDbEntity
  8
0
  6
Continuous
 62
     7
370
    15
100
AcDbSpline
210
0.0
220
0.0
230
1.0
 70
     8
 71
     3
 72
    12
 73
     8
 74
     0
 42
0.000000001
 43
0.00000001
 40
0.0
 40
0.0
 40
0.0
 40
0.0
 40
0.2499999999999968
 40
0.2499999999999968
 40
0.4999999999999936
 40
0.4999999999999936
 40
1.0
 40
1.0
 40
1.0
 40
1.0
 10
166.0117760307216
 20
135.9564459327067
 30
0.0
 10
165.975871880385
 20
135.8865014985585
 30
0.0
 10
165.9333403282555
 20
135.8232501355007
 30
0.0
 10
165.8365460514155
 20
135.7081914805847
 30
0.0
 10
165.7814563731512
 20
135.6558629468728
 30
0.0
 10
165.6033231395973
 20
135.5220780437877
 30
0.0
 10
165.4659460475947
 20
135.4615302766295
 30
0.0
 10
165.3189557076948
 20
135.4423303282456
 30
0.0
  0
SPLINE
  5
A5
330
1F
100
AcDbEntity
  8
0
  6
Continuous
 62
     7
370
    15
100
AcDbSpline
210
0.0
220
0.0
230
1.0
 70
     8
 71
     3
 72
    12
 73
     8
 74
     0
 42
0.000000001
 43
0.00000001
 40
0.0
 40
0.0
 40
0.0
 40
0.0
 40
0.2500000000000022
 40
0.2500000000000022
 40
0.5000000000000044
 40
0.5000000000000044
 40
1.0
 40
1.0
 40
1.0
 40
1.0
 10
166.0117760307216
 20
83.99640827673892
 30
0.0
 10
165.975871880385
 20
84.06635271088707
 30
0.0
 10
165.9333403282555
 20
84.12960407394492
 30
0.0
 10
165.8365460514155
 20
84.24466272886085
 30
0.0
 10
165.7814563731512
 20
84.29699126257283
 30
0.0
 10
165.6033231395973
 20
84.43077616565792
 30
0.0
 10
165.4659460475947
 20
84.49132393281606
 30
0.0
 10
165.3189557076948
 20
84.51052388119994
 30
0.0
  0
SPLINE
  5
A6
330
1F
100
AcDbEntity
  8
0
  6
Continuous
 62
     7
370
    15
100
AcDbSpline
210
0.0
220
0.0
230
1.0
 70
     8
 71
     3
 72
    10
 73
     6
 74
     0
 42
0.000000001
 43
0.00000001
 40
0.0
 40
0.0
 40
0.0
 40
0.0
 40
0.5
 40
0.5
 40
1.0
 40
1.0
 40
1.0
 40
1.0
 10
161.9662188302937
 20
135.2241497743023
 30
0.0
 10
161.8242015178467
 20
135.2241497743023
 30
0.0
 10
161.6837544709844
 20
135.2646396265118
 30
0.0
 10
161.4421645517231
 20
135.412575456451
 30
0.0
 10
161.3414871094698
 20
135.5200757324305
 30
0.0
 10
161.2733985072662
 20
135.6436727691875
 30
0.0
  0
SPLINE
  5
A7
330
1F
100
AcDbEntity
  8
0
  6
Continuous
 62
     7
370
    15
100
AcDbSpline
210
0.0
220
0.0
230
1.0
 70
     8
 71
     3
 72
    10
 73
     6
 74
     0
 42
0.000000001
 43
0.00000001
 40
0.0
 40
0.0
 40
0.0
 40
0.0
 40
0.5
 40
0.5
 40
1.0
 40
1.0
 40
1.0
 40
1.0
 10
161.9662188302937
 20
84.72870443514327
 30
0.0
 10
161.825361465783
 20
84.72870443514327
 30
0.0
 10
161.6825273343088
 20
84.68760052932457
 30
0.0
 10
161.4422656435355
 20
84.54020263602362
 30
0.0
 10
161.341559374456
 20
84.43290965518396
 30
0.0
 10
161.2733985072661
 20
84.30918144025776
 30
0.0
  0
LINE
  5
A8
330
1F
100
AcDbEntity
  8
0
  6
Continuous
 62
     7
370
    15
100
AcDbLine
 10
161.992587269
 20
84.7287044351
 30
0.0
 11
161.9662188303
 21
84.7287044351
 31
0.0
  0
LINE
  5
A9
330
1F
100
AcDbEntity
  8
0
  6
Continuous
 62
     7
370
    15
100
AcDbLine
 10
161.992587269
 20
135.2241497743
 30
0.0
 11
161.9662188303
 21
135.2241497743
 31
0.0
  0
SPLINE
  5
AA
330
1F
100
AcDbEntity
  8
0
  6
Continuous
 62
     7
370
    15
100
AcDbSpline
210
0.0
220
0.0
230
1.0
 70
     8
 71
     3
 72
    10
 73
     6
 74
     0
 42
0.000000001
 43
0.00000001
 40
0.0
 40
0.0
 40
0.0
 40
0.0
 40
0.5
 40
0.5
 40
1.0
 40
1.0
 40
1.0
 40
1.0
 10
165.318955707694
 20
135.4423303282486
 30
0.0
 10
164.7970409832981
 20
135.3741575777404
 30
0.0
 10
164.2581898031887
 20
135.3195343127824
 30
0.0
 10
163.1468271611566
 20
135.2444384598911
 30
0.0
 10
162.5699863839606
 20
135.2241497743023
 30
0.0
 10
161.9925872689938
 20
135.2241497743023
 30
0.0
  0
SPLINE
  5
AB
330
1F
100
AcDbEntity
  8
0
  6
Continuous
 62
     7
370
    15
100
AcDbSpline
210
0.0
220
0.0
230
1.0
 70
     8
 71
     3
 72
    10
 73
     6
 74
     0
 42
0.000000001
 43
0.00000001
 40
0.0
 40
0.0
 40
0.0
 40
0.0
 40
0.5
 40
0.5
 40
1.0
 40
1.0
 40
1.0
 40
1.0
 10
165.318955707694
 20
84.51052388119702
 30
0.0
 10
164.7970409832981
 20
84.57869663170523
 30
0.0
 10
164.2581898031887
 20
84.63331989666317
 30
0.0
 10
163.1468271611566
 20
84.7084157495545
 30
0.0
 10
162.5699863839606
 20
84.72870443514327
 30
0.0
 10
161.9925872689938
 20
84.72870443514327
 30
0.0
  0
SPLINE
  5
AC
330
1F
100
AcDbEntity
  8
0
  6
Continuous
 62
     7
370
    15
100
AcDbSpline
210
0.0
220
0.0
230
1.0
 70
     8
 71
     3
 72
    10
 73
     6
 74
     0
 42
0.000000001
 43
0.00000001
 40
0.0
 40
0.0
 40
0.0
 40
0.0
 40
0.1951153114689698
 40
0.9999922977986502
 40
1.0
 40
1.0
 40
1.0
 40
1.0
 10
148.8637965464843
 20
132.4764271047228
 30
0.0
 10
148.850693946494
 20
132.4764271047196
 30
0.0
 10
148.7835413536359
 20
132.4764271047035
 30
0.0
 10
148.7019277557431
 20
132.4764271049356
 30
0.0
 10
148.7313366975303
 20
132.4764271047228
 30
0.0
 10
148.7313369789539
 20
132.4764271047228
 30
0.0
  0
SPLINE
  5
AD
330
1F
100
AcDbEntity
  8
0
  6
Continuous
 62
     7
370
    15
100
AcDbSpline
210
0.0
220
0.0
230
1.0
 70
    24
 71
     3
 72
     9
 73
     5
 74
     0
 42
0.000000001
 43
0.00000001
 40
0.0
 40
0.0
 40
0.0
 40
0.0
 40
0.7880635153677438
 40
1.0
 40
1.0
 40
1.0
 40
1.0
 10
148.7313370717237
 20
87.4764271047228
 30
0.0
 10
148.7491138869891
 20
87.4764271047228
 30
0.0
 10
148.7716714790089
 20
87.4764271047228
 30
0.0
 10
148.8415252358379
 20
87.4764271047228
 30
0.0
 10
148.8563297954986
 20
87.4764271047228
 30
0.0
  0
LINE
  5
AE
330
1F
100
AcDbEntity
  8
0
  6
Continuous
 62
     7
370
    15
100
AcDbLine
 10
147.042587269
 20
87.7514271047
 30
0.0
 11
147.042587269
 21
132.2014271047
 31
0.0
  0
LINE
  5
AF
330
1F
100
AcDbEntity
  8
0
  6
Continuous
 62
     7
370
    15
100
AcDbLine
 10
81.642587269
 20
98.1536715077
 30
0.0
 11
81.642587269
 21
121.799178306
 31
0.0
  0
LINE
  5
B0
330
1F
100
AcDbEntity
  8
0
  6
Continuous
 62
     7
370
    15
100
AcDbLine
 10
229.042587269
 20
97.6764271047
 30
0.0
 11
229.042587269
 21
122.2764271047
 31
0.0
  0
LINE
  5
B1
330
1F
100
AcDbEntity
  8
0
  6
Continuous
 62
     7
370
    15
100
AcDbLine
 10
228.842587269
 20
97.4764271047
 30
0.0
 11
228.842587269
 21
122.4764271047
 31
0.0
  0
SPLINE
  5
B2
330
1F
100
AcDbEntity
  8
0
  6
Continuous
 62
     7
370
    15
100
AcDbSpline
210
0.0
220
0.0
230
1.0
 70
     8
 71
     3
 72
    38
 73
    34
 74
     0
 42
0.000000001
 43
0.00000001
 40
0.0
 40
0.0
 40
0.0
 40
0.0
 40
0.0625
 40
0.0625
 40
0.125
 40
0.125
 40
0.1875
 40
0.1875
 40
0.25
 40
0.25
 40
0.3125
 40
0.3125
 40
0.375
 40
0.375
 40
0.4375
 40
0.4375
 40
0.5
 40
0.5
 40
0.5625
 40
0.5625
 40
0.625
 40
0.625
 40
0.6875
 40
0.6875
 40
0.75
 40
0.75
 40
0.8125
 40
0.8125
 40
0.875
 40
0.875
 40
0.9375
 40
0.9375
 40
1.0
 40
1.0
 40
1.0
 40
1.0
 10
225.7925872689939
 20
109.9764271047228
 30
0.0
 10
225.7925872689939
 20
109.7307029540547
 30
0.0
 10
225.7626350529961
 20
109.4849944440151
 30
0.0
 10
225.643617500564
 20
109.0031245968048
 30
0.0
 10
225.5566432454579
 20
108.7736930576141
 30
0.0
 10
225.3323302290523
 20
108.3357187157878
 30
0.0
 10
225.1950377409461
 20
108.128761379169
 30
0.0
 10
224.884750694721
 20
107.7512855475315
 30
0.0
 10
224.7086749535515
 20
107.5769532593485
 30
0.0
 10
224.3293237971422
 20
107.2667873851737
 30
0.0
 10
224.1267212544687
 20
107.1307953222935
 30
0.0
 10
223.6969153455049
 20
106.8943989635379
 30
0.0
 10
223.4693771854976
 20
106.7944248898658
 30
0.0
 10
223.0060027501486
 20
106.63594453275
 30
0.0
 10
222.7682181135026
 20
106.576258515551
 30
0.0
 10
222.2803083254857
 20
106.4959855753
 30
0.0
 10
222.0325004667993
 20
106.4761378842385
 30
0.0
 10
221.5418952267453
 20
106.4767227501032
 30
0.0
 10
221.2972168231223
 20
106.4968124817279
 30
0.0
 10
220.8091470671815
 20
106.5779888339097
 30
0.0
 10
220.5690898912031
 20
106.6388231444305
 30
0.0
 10
220.1073350741784
 20
106.7979119682263
 30
0.0
 10
219.8839397530079
 20
106.8964004082983
 30
0.0
 10
219.4529795896907
 20
107.1341887706498
 30
0.0
 10
219.2491070628994
 20
107.2718175975949
 30
0.0
 10
218.873867562434
 20
107.5796010520566
 30
0.0
 10
218.700972142539
 20
107.7505014246496
 30
0.0
 10
218.388213595028
 20
108.1312186386023
 30
0.0
 10
218.252379090769
 20
108.3366628373006
 30
0.0
 10
218.0291969737753
 20
108.7723575612224
 30
0.0
 10
217.9404107325304
 20
109.007168001463
 30
0.0
 10
217.8228160956877
 20
109.4844766269541
 30
0.0
 10
217.7925872689938
 20
109.7279133949178
 30
0.0
 10
217.7925872689938
 20
109.9764271047228
 30
0.0
  0
SPLINE
  5
B3
330
1F
100
AcDbEntity
  8
0
  6
Continuous
 62
     7
370
    15
100
AcDbSpline
210
0.0
220
0.0
230
1.0
 70
     8
 71
     3
 72
    34
 73
    30
 74
     0
 42
0.000000001
 43
0.00000001
 40
0.0
 40
0.0
 40
0.0
 40
0.0
 40
0.0625000000000008
 40
0.0625000000000008
 40
0.1250000000000016
 40
0.1250000000000016
 40
0.1875000000000024
 40
0.1875000000000024
 40
0.2500000000000033
 40
0.2500000000000033
 40
0.3750000000000051
 40
0.3750000000000051
 40
0.5000000000000068
 40
0.5000000000000068
 40
0.5625000000000059
 40
0.5625000000000059
 40
0.6250000000000051
 40
0.6250000000000051
 40
0.6875000000000042
 40
0.6875000000000042
 40
0.7500000000000033
 40
0.7500000000000033
 40
0.8125000000000026
 40
0.8125000000000026
 40
0.8750000000000017
 40
0.8750000000000017
 40
0.9375000000000009
 40
0.9375000000000009
 40
1.0
 40
1.0
 40
1.0
 40
1.0
 10
217.7925872689938
 20
109.9764271047228
 30
0.0
 10
217.7925872689938
 20
110.2252150585885
 30
0.0
 10
217.8233938243484
 20
110.4721444734698
 30
0.0
 10
217.9419068906401
 20
110.9503119074064
 30
0.0
 10
218.0311073796944
 20
111.1851844545811
 30
0.0
 10
218.2558989102355
 20
111.6220809406259
 30
0.0
 10
218.3929627025786
 20
111.8283130100313
 30
0.0
 10
218.7069110491099
 20
112.2086546408268
 30
0.0
 10
218.8816216385305
 20
112.3807840811253
 30
0.0
 10
219.4553279460222
 20
112.8477362093208
 30
0.0
 10
219.8851536125881
 20
113.08032124322
 30
0.0
 10
220.8221147062141
 20
113.3992139928469
 30
0.0
 10
221.3084159714253
 20
113.4777024111595
 30
0.0
 10
222.0523202385276
 20
113.4757664890288
 30
0.0
 10
222.2969350669713
 20
113.4548987618539
 30
0.0
 10
222.7796823628075
 20
113.3738980484577
 30
0.0
 10
223.0190147091459
 20
113.3133563733324
 30
0.0
 10
223.4855801942639
 20
113.1519327708072
 30
0.0
 10
223.7085471276736
 20
113.0527670485498
 30
0.0
 10
224.134073625063
 20
112.8172733225271
 30
0.0
 10
224.3379497395669
 20
112.6799065704711
 30
0.0
 10
224.7173122141419
 20
112.3679049267047
 30
0.0
 10
224.8893244302153
 20
112.1965330582994
 30
0.0
 10
225.1968136442403
 20
111.8213928429353
 30
0.0
 10
225.3337252033531
 20
111.6148443821376
 30
0.0
 10
225.5576715837622
 20
111.1767160085456
 30
0.0
 10
225.643743405973
 20
110.9485530269167
 30
0.0
 10
225.7615406754666
 20
110.4729519654108
 30
0.0
 10
225.7925872689939
 20
110.22242242107
 30
0.0
 10
225.7925872689939
 20
109.9764271047228
 30
0.0
  0
SPLINE
  5
B4
330
1F
100
AcDbEntity
  8
0
  6
Continuous
 62
     7
370
    15
100
AcDbSpline
210
0.0
220
0.0
230
1.0
 70
    24
 71
     3
 72
    11
 73
     7
 74
     0
 42
0.000000001
 43
0.00000001
 40
0.0
 40
0.0
 40
0.0
 40
0.0
 40
0.1336647920874121
 40
0.4825473608259734
 40
0.8156356561503733
 40
1.0
 40
1.0
 40
1.0
 40
1.0
 10
222.6586126727783
 20
108.4764271047228
 30
0.0
 10
222.5860518336643
 20
108.4764271047228
 30
0.0
 10
222.3240977254287
 20
108.4764271047228
 30
0.0
 10
221.8347357482438
 20
108.4764271047228
 30
0.0
 10
221.3091661738856
 20
108.4764271047228
 30
0.0
 10
221.0270703938278
 20
108.4764271047228
 30
0.0
 10
220.9265618652094
 20
108.4764271047228
 30
0.0
  0
SPLINE
  5
B5
330
1F
100
AcDbEntity
  8
0
  6
Continuous
 62
     7
370
    15
100
AcDbSpline
210
0.0
220
0.0
230
1.0
 70
    24
 71
     3
 72
    10
 73
     6
 74
     0
 42
0.000000001
 43
0.00000001
 40
0.0
 40
0.0
 40
0.0
 40
0.0
 40
0.4391165375904075
 40
0.7513669429073321
 40
0.9999999999999999
 40
0.9999999999999999
 40
0.9999999999999999
 40
0.9999999999999999
 10
223.5246380765628
 20
109.9764271047228
 30
0.0
 10
223.4006598636339
 20
109.7616905408985
 30
0.0
 10
223.1885222580984
 20
109.3942574299151
 30
0.0
 10
222.8801427806741
 20
108.8601285070046
 30
0.0
 10
222.7266529247525
 20
108.5942762781019
 30
0.0
 10
222.6586126727783
 20
108.4764271047228
 30
0.0
  0
SPLINE
  5
B6
330
1F
100
AcDbEntity
  8
0
  6
Continuous
 62
     7
370
    15
100
AcDbSpline
210
0.0
220
0.0
230
1.0
 70
    24
 71
     3
 72
    10
 73
     6
 74
     0
 42
0.000000001
 43
0.00000001
 40
0.0
 40
0.0
 40
0.0
 40
0.0
 40
0.4391165375904044
 40
0.7513669429073322
 40
1.0
 40
1.0
 40
1.0
 40
1.0
 10
222.6586126727783
 20
111.4764271047228
 30
0.0
 10
222.7825908857071
 20
111.2616905408985
 30
0.0
 10
222.9947284912426
 20
110.894257429915
 30
0.0
 10
223.3031079686669
 20
110.3601285070046
 30
0.0
 10
223.4565978245885
 20
110.0942762781019
 30
0.0
 10
223.5246380765627
 20
109.9764271047228
 30
0.0
  0
SPLINE
  5
B7
330
1F
100
AcDbEntity
  8
0
  6
Continuous
 62
     7
370
    15
100
AcDbSpline
210
0.0
220
0.0
230
1.0
 70
    24
 71
     3
 72
    11
 73
     7
 74
     0
 42
0.000000001
 43
0.00000001
 40
0.0
 40
0.0
 40
0.0
 40
0.0
 40
0.1843643438496321
 40
0.5174526391740295
 40
0.8663352079125959
 40
0.9999999999999999
 40
0.9999999999999999
 40
0.9999999999999999
 40
0.9999999999999999
 10
220.9265618652094
 20
111.4764271047228
 30
0.0
 10
221.0270703938278
 20
111.4764271047228
 30
0.0
 10
221.3091661738856
 20
111.4764271047228
 30
0.0
 10
221.8347357482439
 20
111.4764271047228
 30
0.0
 10
222.3240977254287
 20
111.4764271047228
 30
0.0
 10
222.5860518336643
 20
111.4764271047228
 30
0.0
 10
222.6586126727783
 20
111.4764271047228
 30
0.0
  0
SPLINE
  5
B8
330
1F
100
AcDbEntity
  8
0
  6
Continuous
 62
     7
370
    15
100
AcDbSpline
210
0.0
220
0.0
230
1.0
 70
    24
 71
     3
 72
    10
 73
     6
 74
     0
 42
0.000000001
 43
0.00000001
 40
0.0
 40
0.0
 40
0.0
 40
0.0
 40
0.4391165375904081
 40
0.751366942907335
 40
1.0
 40
1.0
 40
1.0
 40
1.0
 10
220.060536461425
 20
109.9764271047228
 30
0.0
 10
220.1845146743538
 20
110.1911636685471
 30
0.0
 10
220.3966522798893
 20
110.5585967795306
 30
0.0
 10
220.7050317573136
 20
111.092725702441
 30
0.0
 10
220.8585216132352
 20
111.3585779313437
 30
0.0
 10
220.9265618652094
 20
111.4764271047228
 30
0.0
  0
CIRCLE
  5
B9
330
1F
100
AcDbEntity
  8
0
  6
Continuous
 62
     7
370
    15
100
AcDbCircle
 10
221.792587269
 20
109.9764271047
 30
0.0
 40
1.75
  0
SPLINE
  5
BA
330
1F
100
AcDbEntity
  8
0
  6
Continuous
 62
     7
370
    15
100
AcDbSpline
210
0.0
220
0.0
230
1.0
 70
    24
 71
     3
 72
    10
 73
     6
 74
     0
 42
0.000000001
 43
0.00000001
 40
0.0
 40
0.0
 40
0.0
 40
0.0
 40
0.4391165375904059
 40
0.7513669429073399
 40
1.0
 40
1.0
 40
1.0
 40
1.0
 10
220.9265618652094
 20
108.4764271047228
 30
0.0
 10
220.8025836522806
 20
108.6911636685471
 30
0.0
 10
220.5904460467451
 20
109.0585967795306
 30
0.0
 10
220.2820665693208
 20
109.5927257024409
 30
0.0
 10
220.1285767133992
 20
109.8585779313437
 30
0.0
 10
220.060536461425
 20
109.9764271047228
 30
0.0
  0
CIRCLE
  5
BB
330
1F
100
AcDbEntity
  8
0
  6
Continuous
 62
     7
370
    15
100
AcDbCircle
 10
221.792587269
 20
109.9764271047
 30
0.0
 40
2.600000000000009
  0
CIRCLE
  5
BC
330
1F
100
AcDbEntity
  8
0
  6
Continuous
 62
     7
370
    15
100
AcDbCircle
 10
221.792587269
 20
109.9764271047
 30
0.0
 40
3.0
  0
ARC
  5
BD
330
1F
100
AcDbEntity
  8
0
  6
Continuous
 62
     7
370
    15
100
AcDbCircle
 10
221.792587269
 20
109.9764271047
 30
0.0
 40
1.500000000000025
100
AcDbArc
 50
330.0
 51
30.0
  0
ARC
  5
BE
330
1F
100
AcDbEntity
  8
0
  6
Continuous
 62
     7
370
    15
100
AcDbCircle
 10
221.792587269
 20
109.9764271047
 30
0.0
 40
1.5
100
AcDbArc
 50
210.0
 51
270.0
  0
ARC
  5
BF
330
1F
100
AcDbEntity
  8
0
  6
Continuous
 62
     7
370
    15
100
AcDbCircle
 10
221.792587269
 20
109.9764271047
 30
0.0
 40
1.500000000000025
100
AcDbArc
 50
30.0
 51
90.0
  0
ARC
  5
C0
330
1F
100
AcDbEntity
  8
0
  6
Continuous
 62
     7
370
    15
100
AcDbCircle
 10
221.792587269
 20
109.9764271047
 30
0.0
 40
1.5
100
AcDbArc
 50
90.0
 51
150.0
  0
ARC
  5
C1
330
1F
100
AcDbEntity
  8
0
  6
Continuous
 62
     7
370
    15
100
AcDbCircle
 10
221.792587269
 20
109.9764271047
 30
0.0
 40
1.5
100
AcDbArc
 50
270.0
 51
330.0
  0
ARC
  5
C2
330
1F
100
AcDbEntity
  8
0
  6
Continuous
 62
     7
370
    15
100
AcDbCircle
 10
221.792587269
 20
109.9764271047
 30
0.0
 40
1.5
100
AcDbArc
 50
150.0
 51
210.0
  0
SPLINE
  5
C3
330
1F
100
AcDbEntity
  8
0
  6
HIDDEN
 62
     7
370
     0
100
AcDbSpline
210
0.0
220
0.0
230
1.0
 70
     8
 71
     3
 72
    17
 73
    13
 74
     0
 42
0.000000001
 43
0.00000001
 40
0.0
 40
0.0
 40
0.0
 40
0.0
 40
0.0007361707208445
 40
0.0007568967117666
 40
0.250019253010125
 40
0.5023166506165201
 40
0.5866791845688142
 40
0.6700847338450476
 40
0.7528220863820236
 40
0.8351870599133888
 40
0.9174794890265908
 40
1.0
 40
1.0
 40
1.0
 40
1.0
 10
171.042580579844
 20
78.47642754136993
 30
0.0
 10
171.0425833095567
 20
78.47642732772381
 30
0.0
 10
171.0425861161211
 20
78.47642710806274
 30
0.0
 10
171.0432060740619
 20
78.47642599862456
 30
0.0
 10
170.9390612921152
 20
78.50864261301822
 30
0.0
 10
170.5705766609638
 20
78.61700378246816
 30
0.0
 10
170.2039640917702
 20
78.72183445915235
 30
0.0
 10
169.9544325604579
 20
78.79152716415201
 30
0.0
 10
169.6766467668055
 20
78.86666887300497
 30
0.0
 10
169.3699869920679
 20
78.94633386660705
 30
0.0
 10
169.0368001589171
 20
79.02948304804161
 30
0.0
 10
168.7918027168353
 20
79.08679553027143
 30
0.0
 10
168.6691344718714
 20
79.1154914282772
 30
0.0
  0
CIRCLE
  5
C4
330
1F
100
AcDbEntity
  8
0
  6
HIDDEN
 62
     7
370
     0
100
AcDbCircle
 10
221.792587269
 20
109.9764271047
 30
0.0
 40
2.625
  0
LINE
  5
C5
330
1F
100
AcDbEntity
  8
0
  6
HIDDEN
 62
     7
370
     0
100
AcDbLine
 10
228.7045142168
 20
100.4514271047
 30
0.0
 11
228.7045142168
 21
101.7832787191
 31
0.0
  0
LINE
  5
C6
330
1F
100
AcDbEntity
  8
0
  6
HIDDEN
 62
     7
370
     0
100
AcDbLine
 10
228.7045142168
 20
118.1695754903
 30
0.0
 11
228.7510234401
 21
118.1679032389
 31
0.0
  0
LINE
  5
C7
330
1F
100
AcDbEntity
  8
0
  6
HIDDEN
 62
     7
370
     0
100
AcDbLine
 10
228.7045142168
 20
118.1695754903
 30
0.0
 11
228.7045142168
 21
119.5014271047
 31
0.0
  0
SPLINE
  5
C8
330
1F
100
AcDbEntity
  8
0
  6
HIDDEN
 62
     7
370
     0
100
AcDbSpline
210
0.0
220
0.0
230
1.0
 70
     8
 71
     3
 72
     9
 73
     5
 74
     0
 42
0.000000001
 43
0.00000001
 40
0.0
 40
0.0
 40
0.0
 40
0.0
 40
0.6708912068472758
 40
1.0
 40
1.0
 40
1.0
 40
1.0
 10
228.6943901666742
 20
115.4764271047228
 30
0.0
 10
228.7321735125073
 20
115.6206547245803
 30
0.0
 10
228.7884916538802
 20
115.8356338722953
 30
0.0
 10
228.8291923214195
 20
116.0455160728004
 30
0.0
 10
228.8425872689938
 20
116.1145901505128
 30
0.0
  0
SPLINE
  5
C9
330
1F
100
AcDbEntity
  8
0
  6
HIDDEN
 62
     7
370
     0
100
AcDbSpline
210
0.0
220
0.0
230
1.0
 70
     8
 71
     3
 72
     9
 73
     5
 74
     0
 42
0.000000001
 43
0.00000001
 40
0.0
 40
0.0
 40
0.0
 40
0.0
 40
0.2331599277511333
 40
1.0
 40
1.0
 40
1.0
 40
1.0
 10
228.8425872689939
 20
118.1365104969059
 30
0.0
 10
228.8339819053078
 20
118.1461919229702
 30
0.0
 10
228.7970743467532
 20
118.1877146072395
 30
0.0
 10
228.7446869624191
 20
118.1774481902691
 30
0.0
 10
228.7045142168315
 20
118.1695754903377
 30
0.0
  0
SPLINE
  5
CA
330
1F
100
AcDbEntity
  8
0
  6
HIDDEN
 62
     7
370
     0
100
AcDbSpline
210
0.0
220
0.0
230
1.0
 70
     8
 71
     3
 72
     8
 73
     4
 74
     0
 42
0.000000001
 43
0.00000001
 40
0.0
 40
0.0
 40
0.0
 40
0.0
 40
1.0
 40
1.0
 40
1.0
 40
1.0
 10
228.5925872689938
 20
115.089958459819
 30
0.0
 10
228.625737214929
 20
115.2190417261532
 30
0.0
 10
228.6596925830876
 20
115.3478576134555
 30
0.0
 10
228.6943901666742
 20
115.4764271047228
 30
0.0
  0
LINE
  5
CB
330
1F
100
AcDbEntity
  8
0
  6
HIDDEN
 62
     7
370
     0
100
AcDbLine
 10
228.592587269
 20
104.8628957496
 30
0.0
 11
228.592587269
 21
115.0899584598
 31
0.0
  0
SPLINE
  5
CC
330
1F
100
AcDbEntity
  8
0
  6
HIDDEN
 62
     7
370
     0
100
AcDbSpline
210
0.0
220
0.0
230
1.0
 70
     8
 71
     3
 72
     8
 73
     4
 74
     0
 42
0.000000001
 43
0.00000001
 40
0.0
 40
0.0
 40
0.0
 40
0.0
 40
1.0
 40
1.0
 40
1.0
 40
1.0
 10
228.6943901666742
 20
104.4764271047228
 30
0.0
 10
228.6596879080889
 20
104.6050139188737
 30
0.0
 10
228.6257326264175
 20
104.7338303505929
 30
0.0
 10
228.5925872689938
 20
104.8628957496266
 30
0.0
  0
LINE
  5
CD
330
1F
100
AcDbEntity
  8
0
  6
HIDDEN
 62
     7
370
     0
100
AcDbLine
 10
228.7045142168
 20
101.7832787191
 30
0.0
 11
228.7458914517
 21
101.800763876
 31
0.0
  0
LINE
  5
CE
330
1F
100
AcDbEntity
  8
0
  6
HIDDEN
 62
     7
370
     0
100
AcDbLine
 10
149.042587269
 20
132.4764271047
 30
0.0
 11
149.3798455692
 21
132.4764271047
 31
0.0
  0
ELLIPSE
  5
CF
330
1F
100
AcDbEntity
  8
0
  6
HIDDEN
 62
     7
370
     0
100
AcDbEllipse
 10
149.3798455692
 20
134.0764271047
 30
0.0
 11
0.0
 21
1.599999999999966
 31
0.0
210
0.0
220
0.0
230
1.0
 40
0.4142135624
 41
3.141592653589793
 42
4.712388980384677
  0
ELLIPSE
  5
D0
330
1F
100
AcDbEntity
  8
0
  6
HIDDEN
 62
     7
370
     0
100
AcDbEllipse
 10
149.3798455692
 20
85.8764271047
 30
0.0
 11
0.0
 21
1.599999999999994
 31
0.0
210
0.0
220
0.0
230
1.0
 40
0.4142135624
 41
4.712388980384695
 42
6.283185307179586
  0
LINE
  5
D1
330
1F
100
AcDbEntity
  8
0
  6
HIDDEN
 62
     7
370
     0
100
AcDbLine
 10
149.3798455692
 20
87.4764271047
 30
0.0
 11
149.042587269
 21
87.4764271047
 31
0.0
  0
LINE
  5
D2
330
1F
100
AcDbEntity
  8
0
  6
HIDDEN
 62
     7
370
     0
100
AcDbLine
 10
150.042587269
 20
80.5224043819
 30
0.0
 11
149.429620092
 21
79.9094372049
 31
0.0
  0
LINE
  5
D3
330
1F
100
AcDbEntity
  8
0
  6
HIDDEN
 62
     7
370
     0
100
AcDbLine
 10
149.429620092
 20
140.0434170045
 30
0.0
 11
150.042587269
 21
139.4304498275
 31
0.0
  0
LINE
  5
D4
330
1F
100
AcDbEntity
  8
0
  6
HIDDEN
 62
     7
370
     0
100
AcDbLine
 10
88.642587269
 20
101.4764271047
 30
0.0
 11
88.642587269
 21
118.4764271047
 31
0.0
  0
LINE
  5
D5
330
1F
100
AcDbEntity
  8
0
  6
HIDDEN
 62
     7
370
     0
100
AcDbLine
 10
91.6385164833
 20
102.9764271047
 30
0.0
 11
91.6385164833
 21
116.9764271047
 31
0.0
  0
LINE
  5
D6
330
1F
100
AcDbEntity
  8
0
  6
HIDDEN
 62
     7
370
     0
100
AcDbLine
 10
150.042587269
 20
139.4304498275
 30
0.0
 11
159.1751488125
 21
139.4304498275
 31
0.0
  0
LINE
  5
D7
330
1F
100
AcDbEntity
  8
0
  6
HIDDEN
 62
     7
370
     0
100
AcDbLine
 10
150.042587269
 20
139.4304498275
 30
0.0
 11
150.042587269
 21
134.0764271047
 31
0.0
  0
LINE
  5
D8
330
1F
100
AcDbEntity
  8
0
  6
HIDDEN
 62
     7
370
     0
100
AcDbLine
 10
159.1751488125
 20
80.5224043819
 30
0.0
 11
150.042587269
 21
80.5224043819
 31
0.0
  0
LINE
  5
D9
330
1F
100
AcDbEntity
  8
0
  6
HIDDEN
 62
     7
370
     0
100
AcDbLine
 10
150.042587269
 20
80.5224043819
 30
0.0
 11
150.042587269
 21
85.8764271047
 31
0.0
  0
LINE
  5
DA
330
1F
100
AcDbEntity
  8
0
  6
HIDDEN
 62
     7
370
     0
100
AcDbLine
 10
149.3798455692
 20
132.4764271047
 30
0.0
 11
161.992587269
 21
132.4764271047
 31
0.0
  0
LINE
  5
DB
330
1F
100
AcDbEntity
  8
0
  6
HIDDEN
 62
     7
370
     0
100
AcDbLine
 10
161.992587269
 20
87.4764271047
 30
0.0
 11
149.3798455692
 21
87.4764271047
 31
0.0
  0
LINE
  5
DC
330
1F
100
AcDbEntity
  8
0
  6
HIDDEN
 62
     7
370
     0
100
AcDbLine
 10
168.0188290352
 20
80.0713792113
 30
0.0
 11
168.1127717648
 21
80.0463955399
 31
0.0
  0
SPLINE
  5
DD
330
1F
100
AcDbEntity
  8
0
  6
HIDDEN
 62
     7
370
     0
100
AcDbSpline
210
0.0
220
0.0
230
1.0
 70
     8
 71
     3
 72
    13
 73
     9
 74
     0
 42
0.000000001
 43
0.00000001
 40
0.0
 40
0.0
 40
0.0
 40
0.0
 40
0.0000729225244405
 40
0.1576810837093989
 40
0.3241445774485779
 40
0.4996852408391561
 40
0.7294243771434398
 40
1.0
 40
1.0
 40
1.0
 40
1.0
 10
170.0425546938177
 20
79.47643954383611
 30
0.0
 10
170.042565552559
 20
79.47643525398321
 30
0.0
 10
170.0660455144209
 20
79.46715926334497
 30
0.0
 10
169.9944602993715
 20
79.49532476541211
 30
0.0
 10
169.8388439609319
 20
79.54891369526909
 30
0.0
 10
169.5025907386238
 20
79.65743698407633
 30
0.0
 10
168.9452776726352
 20
79.82850304741947
 30
0.0
 10
168.3440199073652
 20
79.98626703644285
 30
0.0
 10
168.0188532170837
 20
80.07158750483345
 30
0.0
  0
LINE
  5
DE
330
1F
100
AcDbEntity
  8
0
  6
HIDDEN
 62
     7
370
     0
100
AcDbLine
 10
168.442587269
 20
87.4764271047
 30
0.0
 11
161.992587269
 21
87.4764271047
 31
0.0
  0
LINE
  5
DF
330
1F
100
AcDbEntity
  8
0
  6
HIDDEN
 62
     7
370
     0
100
AcDbLine
 10
161.992587269
 20
132.4764271047
 30
0.0
 11
168.442587269
 21
132.4764271047
 31
0.0
  0
SPLINE
  5
E0
330
1F
100
AcDbEntity
  8
0
  6
HIDDEN
 62
     7
370
     0
100
AcDbSpline
210
0.0
220
0.0
230
1.0
 70
     8
 71
     3
 72
    22
 73
    18
 74
     0
 42
0.000000001
 43
0.00000001
 40
0.0
 40
0.0
 40
0.0
 40
0.0
 40
0.0479373712877681
 40
0.0947427791170082
 40
0.1404168307193935
 40
0.1849601803013584
 40
0.2283735338924572
 40
0.2706576548335844
 40
0.3118133700083719
 40
0.3518415769408815
 40
0.3907432519069727
 40
0.4285194592365574
 40
0.4651713620208026
 40
0.5007002344841086
 40
0.7601597454000262
 40
0.9994256477007698
 40
1.0
 40
1.0
 40
1.0
 40
1.0
 10
168.0188508996063
 20
139.8812878804339
 30
0.0
 10
168.0795130472694
 20
139.8967740713823
 30
0.0
 10
168.1994049041322
 20
139.9273807719374
 30
0.0
 10
168.3682197607581
 20
139.9715425155905
 30
0.0
 10
168.5265451835803
 20
140.0137175199789
 30
0.0
 10
168.6741040068167
 20
140.0538256590932
 30
0.0
 10
168.811408097209
 20
140.0918876878118
 30
0.0
 10
168.9387860622688
 20
140.1278983058744
 30
0.0
 10
169.0566306294856
 20
140.1618590088721
 30
0.0
 10
169.1653314230217
 20
140.1937693028521
 30
0.0
 10
169.2652893153112
 20
140.2236300973838
 30
0.0
 10
169.3569090402636
 20
140.2514387979702
 30
0.0
 10
169.4406009382838
 20
140.2772049786599
 30
0.0
 10
169.6775908286343
 20
140.3509145497153
 30
0.0
 10
169.9570050386044
 20
140.4432837107893
 30
0.0
 10
170.0427181546653
 20
140.4763637126953
 30
0.0
 10
170.0425868771118
 20
140.4764267469306
 30
0.0
 10
170.0425865627377
 20
140.4764268978805
 30
0.0
  0
LINE
  5
E1
330
1F
100
AcDbEntity
  8
0
  6
HIDDEN
 62
     7
370
     0
100
AcDbLine
 10
226.192587269
 20
107.9921136214
 30
0.0
 11
226.192587269
 21
111.960740588
 31
0.0
  0
LINE
  5
E2
330
1F
100
AcDbEntity
  8
0
  6
HIDDEN
 62
     7
370
     0
100
AcDbLine
 10
226.8605364614
 20
107.9921136214
 30
0.0
 11
226.8605364614
 21
111.960740588
 31
0.0
  0
LINE
  5
E3
330
1F
100
AcDbEntity
  8
0
  6
HIDDEN
 62
     7
370
     0
100
AcDbLine
 10
226.192587269
 20
118.1695754903
 30
0.0
 11
228.7045142168
 21
118.1695754903
 31
0.0
  0
LINE
  5
E4
330
1F
100
AcDbEntity
  8
0
  6
HIDDEN
 62
     7
370
     0
100
AcDbLine
 10
226.192587269
 20
118.1764271047
 30
0.0
 11
226.192587269
 21
115.4764271047
 31
0.0
  0
LINE
  5
E5
330
1F
100
AcDbEntity
  8
0
  6
HIDDEN
 62
     7
370
     0
100
AcDbLine
 10
226.192587269
 20
111.960740588
 30
0.0
 11
226.8605364614
 21
111.960740588
 31
0.0
  0
LINE
  5
E6
330
1F
100
AcDbEntity
  8
0
  6
HIDDEN
 62
     7
370
     0
100
AcDbLine
 10
226.192587269
 20
115.4764271047
 30
0.0
 11
226.192587269
 21
111.960740588
 31
0.0
  0
SPLINE
  5
E7
330
1F
100
AcDbEntity
  8
0
  6
HIDDEN
 62
     7
370
     0
100
AcDbSpline
210
0.0
220
0.0
230
1.0
 70
     8
 71
     3
 72
    10
 73
     6
 74
     0
 42
0.000000001
 43
0.00000001
 40
0.0
 40
0.0
 40
0.0
 40
0.0
 40
0.5
 40
0.5
 40
1.0
 40
1.0
 40
1.0
 40
1.0
 10
226.8605364614249
 20
111.9607405880212
 30
0.0
 10
227.066502761678
 20
112.4401595906978
 30
0.0
 10
227.3289514901595
 20
112.8912041804486
 30
0.0
 10
227.9242978633473
 20
113.7579027667723
 30
0.0
 10
228.2501924560986
 20
114.1633601543623
 30
0.0
 10
228.5925872689938
 20
114.5521784091536
 30
0.0
  0
LINE
  5
E8
330
1F
100
AcDbEntity
  8
0
  6
HIDDEN
 62
     7
370
     0
100
AcDbLine
 10
226.192587269
 20
101.7832787191
 30
0.0
 11
228.7045142168
 21
101.7832787191
 31
0.0
  0
LINE
  5
E9
330
1F
100
AcDbEntity
  8
0
  6
HIDDEN
 62
     7
370
     0
100
AcDbLine
 10
226.192587269
 20
104.4764271047
 30
0.0
 11
226.192587269
 21
101.7764271047
 31
0.0
  0
LINE
  5
EA
330
1F
100
AcDbEntity
  8
0
  6
HIDDEN
 62
     7
370
     0
100
AcDbLine
 10
226.8605364614
 20
107.9921136214
 30
0.0
 11
226.192587269
 21
107.9921136214
 31
0.0
  0
LINE
  5
EB
330
1F
100
AcDbEntity
  8
0
  6
HIDDEN
 62
     7
370
     0
100
AcDbLine
 10
226.192587269
 20
107.9921136214
 30
0.0
 11
226.192587269
 21
104.4764271047
 31
0.0
  0
SPLINE
  5
EC
330
1F
100
AcDbEntity
  8
0
  6
HIDDEN
 62
     7
370
     0
100
AcDbSpline
210
0.0
220
0.0
230
1.0
 70
     8
 71
     3
 72
    10
 73
     6
 74
     0
 42
0.000000001
 43
0.00000001
 40
0.0
 40
0.0
 40
0.0
 40
0.0
 40
0.5
 40
0.5
 40
1.0
 40
1.0
 40
1.0
 40
1.0
 10
228.5925872689938
 20
105.400675800292
 30
0.0
 10
228.2493391900691
 20
105.7904630107917
 30
0.0
 10
227.9213875055992
 20
106.1990489306509
 30
0.0
 10
227.3300926609435
 20
107.0601285211703
 30
0.0
 10
227.0676555423187
 20
107.5100113402484
 30
0.0
 10
226.8605364614249
 20
107.9921136214244
 30
0.0
  0
LINE
  5
ED
330
1F
100
AcDbEntity
  8
0
  6
HIDDEN
 62
     7
370
     0
100
AcDbLine
 10
225.592587269
 20
102.9764271047
 30
0.0
 11
225.592587269
 21
116.9764271047
 31
0.0
  0
LINE
  5
EE
330
1F
100
AcDbEntity
  8
0
  6
HIDDEN
 62
     7
370
     0
100
AcDbLine
 10
214.042587269
 20
103.3764271047
 30
0.0
 11
214.042587269
 21
116.5764271047
 31
0.0
  0
LINE
  5
EF
330
1F
100
AcDbEntity
  8
0
  6
HIDDEN
 62
     7
370
     0
100
AcDbLine
 10
216.042587269
 20
102.9764271047
 30
0.0
 11
216.042587269
 21
116.9764271047
 31
0.0
  0
LINE
  5
F0
330
1F
100
AcDbEntity
  8
0
  6
HIDDEN
 62
     7
370
     0
100
AcDbLine
 10
124.642587269
 20
102.9764271047
 30
0.0
 11
124.642587269
 21
116.9764271047
 31
0.0
  0
LINE
  5
F1
330
1F
100
AcDbEntity
  8
0
  6
HIDDEN
 62
     7
370
     0
100
AcDbLine
 10
126.2949539713
 20
105.7264271047
 30
0.0
 11
126.2949539713
 21
114.2264271047
 31
0.0
  0
SPLINE
  5
F2
330
1F
100
AcDbEntity
  8
0
  6
HIDDEN
 62
     7
370
     0
100
AcDbSpline
210
0.0
220
0.0
230
1.0
 70
     8
 71
     3
 72
     9
 73
     5
 74
     0
 42
0.000000001
 43
0.00000001
 40
0.0
 40
0.0
 40
0.0
 40
0.0
 40
0.4932365035776448
 40
1.0
 40
1.0
 40
1.0
 40
1.0
 10
168.0196468076913
 20
139.8812586158951
 30
0.0
 10
168.1254947632
 20
140.038280004178
 30
0.0
 10
168.3400935504773
 20
140.3566290865026
 30
0.0
 10
168.5579534323615
 20
140.6764551941801
 30
0.0
 10
168.6683568678353
 20
140.838531390754
 30
0.0
  0
SPLINE
  5
F3
330
1F
100
AcDbEntity
  8
0
  6
HIDDEN
 62
     7
370
     0
100
AcDbSpline
210
0.0
220
0.0
230
1.0
 70
     8
 71
     3
 72
     9
 73
     5
 74
     0
 42
0.000000001
 43
0.00000001
 40
0.0
 40
0.0
 40
0.0
 40
0.0
 40
0.5067661695379747
 40
1.0
 40
1.0
 40
1.0
 40
1.0
 10
168.6683605531213
 20
79.11433695424566
 30
0.0
 10
168.5579557226473
 20
79.2764143688258
 30
0.0
 10
168.340094237192
 20
79.59624119295633
 30
0.0
 10
168.1254945193063
 20
79.9145897092208
 30
0.0
 10
168.0196466784375
 20
80.07160996731983
 30
0.0
  0
LINE
  5
F4
330
1F
100
AcDbEntity
  8
0
  6
HIDDEN
 62
     7
370
     0
100
AcDbLine
 10
226.192587269
 20
119.5014271047
 30
0.0
 11
226.192587269
 21
118.1695754903
 31
0.0
  0
LINE
  5
F5
330
1F
100
AcDbEntity
  8
0
  6
HIDDEN
 62
     7
370
     0
100
AcDbLine
 10
226.192587269
 20
101.7832787191
 30
0.0
 11
226.192587269
 21
100.4514271047
 31
0.0
  0
CIRCLE
  5
F6
330
1F
100
AcDbEntity
  8
0
  6
HIDDEN
 62
     7
370
     0
100
AcDbCircle
 10
221.792587269
 20
109.9764271047
 30
0.0
 40
2.477364010367793
  0
CIRCLE
  5
F7
330
1F
100
AcDbEntity
  8
0
  6
HIDDEN
 62
     7
370
     0
100
AcDbCircle
 10
221.792587269
 20
109.9764271047
 30
0.0
 40
1.845534221835436
  0
ARC
  5
F8
330
1F
100
AcDbEntity
  8
0
  6
HIDDEN
 62
     7
370
     0
100
AcDbCircle
 10
221.792587269
 20
109.9764271047
 30
0.0
 40
1.545534221835439
100
AcDbArc
 50
223.3142371015
 51
270.0
  0
ARC
  5
F9
330
1F
100
AcDbEntity
  8
0
  6
HIDDEN
 62
     7
370
     0
100
AcDbCircle
 10
221.792587269
 20
109.9764271047
 30
0.0
 40
1.545534221835438
100
AcDbArc
 50
160.3004640295
 51
198.2266647022
  0
ARC
  5
FA
330
1F
100
AcDbEntity
  8
0
  6
HIDDEN
 62
     7
370
     0
100
AcDbCircle
 10
221.792587269
 20
109.9764271047
 30
0.0
 40
1.545534221835457
100
AcDbArc
 50
97.9675884445
 51
141.8264383524
  0
ARC
  5
FB
330
1F
100
AcDbEntity
  8
0
  6
HIDDEN
 62
     7
370
     0
100
AcDbCircle
 10
221.792587269
 20
109.9764271047
 30
0.0
 40
1.545534221835444
100
AcDbArc
 50
42.4315240859
 51
80.2855745786
  0
ARC
  5
FC
330
1F
100
AcDbEntity
  8
0
  6
HIDDEN
 62
     7
370
     0
100
AcDbCircle
 10
221.792587269
 20
109.9764271047
 30
0.0
 40
1.545534221835452
100
AcDbArc
 50
338.9988521981
 51
16.672622324
  0
ARC
  5
FD
330
1F
100
AcDbEntity
  8
0
  6
HIDDEN
 62
     7
370
     0
100
AcDbCircle
 10
221.792587269
 20
109.9764271047
 30
0.0
 40
1.545534221835454
100
AcDbArc
 50
270.0
 51
321.8186002493
  0
LINE
  5
FE
330
1F
100
AcDbEntity
  8
0
  6
HIDDEN
 62
     7
370
     0
100
AcDbLine
 10
229.042587269
 20
120.2264271047
 30
0.0
 11
228.7045142168
 21
119.5014271047
 31
0.0
  0
LINE
  5
FF
330
1F
100
AcDbEntity
  8
0
  6
HIDDEN
 62
     7
370
     0
100
AcDbLine
 10
228.7045142168
 20
100.4514271047
 30
0.0
 11
229.042587269
 21
99.7264271047
 31
0.0
  0
ARC
  5
100
330
1F
100
AcDbEntity
  8
0
  6
HIDDEN
 62
     7
370
     0
100
AcDbCircle
 10
82.442587269
 20
100.6764271047
 30
0.0
 40
0.799999999999983
100
AcDbArc
 50
90.0
 51
180.0
  0
ARC
  5
101
330
1F
100
AcDbEntity
  8
0
  6
HIDDEN
 62
     7
370
     0
100
AcDbCircle
 10
82.442587269
 20
119.2764271047
 30
0.0
 40
0.7999999999999972
100
AcDbArc
 50
180.0
 51
270.0
  0
LINE
  5
102
330
1F
100
AcDbEntity
  8
0
  6
HIDDEN
 62
     7
370
     0
100
AcDbLine
 10
89.5349596997
 20
101.2514271047
 30
0.0
 11
90.4116471613
 21
101.2514271047
 31
0.0
  0
LINE
  5
103
330
1F
100
AcDbEntity
  8
0
  6
HIDDEN
 62
     7
370
     0
100
AcDbLine
 10
90.4116471613
 20
118.7014271047
 30
0.0
 11
89.5349596997
 21
118.7014271047
 31
0.0
  0
ARC
  5
104
330
1F
100
AcDbEntity
  8
0
  6
HIDDEN
 62
     7
370
     0
100
AcDbCircle
 10
90.4116471613
 20
101.6514271047
 30
0.0
 40
0.4000000000000121
100
AcDbArc
 50
270.0
 51
330.0
  0
ARC
  5
105
330
1F
100
AcDbEntity
  8
0
  6
HIDDEN
 62
     7
370
     0
100
AcDbCircle
 10
90.4116471613
 20
118.3014271047
 30
0.0
 40
0.4000000000000121
100
AcDbArc
 50
30.0
 51
90.0
  0
ARC
  5
106
330
1F
100
AcDbEntity
  8
0
  6
HIDDEN
 62
     7
370
     0
100
AcDbCircle
 10
89.5349596997
 20
101.6514271047
 30
0.0
 40
0.3999999999999915
100
AcDbArc
 50
255.0
 51
270.0
  0
ARC
  5
107
330
1F
100
AcDbEntity
  8
0
  6
HIDDEN
 62
     7
370
     0
100
AcDbCircle
 10
89.5349596997
 20
118.3014271047
 30
0.0
 40
0.3999999999999915
100
AcDbArc
 50
90.0
 51
105.0
  0
LINE
  5
108
330
1F
100
AcDbEntity
  8
0
  6
HIDDEN
 62
     7
370
     0
100
AcDbLine
 10
89.4314320817
 20
118.6877974352
 30
0.0
 11
88.642587269
 21
118.4764271047
 31
0.0
  0
LINE
  5
109
330
1F
100
AcDbEntity
  8
0
  6
HIDDEN
 62
     7
370
     0
100
AcDbLine
 10
88.642587269
 20
101.4764271047
 30
0.0
 11
89.4314320817
 21
101.2650567742
 31
0.0
  0
LINE
  5
10A
330
1F
100
AcDbEntity
  8
0
  6
HIDDEN
 62
     7
370
     0
100
AcDbLine
 10
90.7580573228
 20
101.4514271047
 30
0.0
 11
91.6385164833
 21
102.9764271047
 31
0.0
  0
LINE
  5
10B
330
1F
100
AcDbEntity
  8
0
  6
HIDDEN
 62
     7
370
     0
100
AcDbLine
 10
91.6385164833
 20
116.9764271047
 30
0.0
 11
90.7580573228
 21
118.5014271047
 31
0.0
  0
LINE
  5
10C
330
1F
100
AcDbEntity
  8
0
  6
HIDDEN
 62
     7
370
     0
100
AcDbLine
 10
82.442587269
 20
101.4764271047
 30
0.0
 11
88.642587269
 21
101.4764271047
 31
0.0
  0
LINE
  5
10D
330
1F
100
AcDbEntity
  8
0
  6
HIDDEN
 62
     7
370
     0
100
AcDbLine
 10
88.642587269
 20
118.4764271047
 30
0.0
 11
82.442587269
 21
118.4764271047
 31
0.0
  0
LINE
  5
10E
330
1F
100
AcDbEntity
  8
0
  6
HIDDEN
 62
     7
370
     0
100
AcDbLine
 10
170.042587269
 20
79.3760696438
 30
0.0
 11
170.042587269
 21
85.8764271047
 31
0.0
  0
ARC
  5
10F
330
1F
100
AcDbEntity
  8
0
  6
HIDDEN
 62
     7
370
     0
100
AcDbCircle
 10
168.442587269
 20
85.8764271047
 30
0.0
 40
1.599999999999994
100
AcDbArc
 50
0.0
 51
90.0
  0
ARC
  5
110
330
1F
100
AcDbEntity
  8
0
  6
HIDDEN
 62
     7
370
     0
100
AcDbCircle
 10
168.442587269
 20
134.0764271047
 30
0.0
 40
1.600000000000023
100
AcDbArc
 50
270.0
 51
0.0
  0
LINE
  5
111
330
1F
100
AcDbEntity
  8
0
  6
HIDDEN
 62
     7
370
     0
100
AcDbLine
 10
170.042587269
 20
134.0764271047
 30
0.0
 11
170.042587269
 21
140.5767211183
 31
0.0
  0
LINE
  5
112
330
1F
100
AcDbEntity
  8
0
  6
HIDDEN
 62
     7
370
     0
100
AcDbLine
 10
228.7506621097
 20
118.1764271047
 30
0.0
 11
226.192587269
 21
118.1764271047
 31
0.0
  0
LINE
  5
113
330
1F
100
AcDbEntity
  8
0
  6
HIDDEN
 62
     7
370
     0
100
AcDbLine
 10
226.192587269
 20
101.7764271047
 30
0.0
 11
228.7458914517
 21
101.7764271047
 31
0.0
  0
LINE
  5
114
330
1F
100
AcDbEntity
  8
0
  6
HIDDEN
 62
     7
370
     0
100
AcDbLine
 10
226.192587269
 20
117.3228372662
 30
0.0
 11
225.592587269
 21
116.9764271047
 31
0.0
  0
LINE
  5
115
330
1F
100
AcDbEntity
  8
0
  6
HIDDEN
 62
     7
370
     0
100
AcDbLine
 10
225.592587269
 20
102.9764271047
 30
0.0
 11
226.192587269
 21
102.6300169432
 31
0.0
  0
LINE
  5
116
330
1F
100
AcDbEntity
  8
0
  6
HIDDEN
 62
     7
370
     0
100
AcDbLine
 10
214.642587269
 20
102.7764271047
 30
0.0
 11
215.2171856089
 21
102.7764271047
 31
0.0
  0
LINE
  5
117
330
1F
100
AcDbEntity
  8
0
  6
HIDDEN
 62
     7
370
     0
100
AcDbLine
 10
215.2171856089
 20
117.1764271047
 30
0.0
 11
214.642587269
 21
117.1764271047
 31
0.0
  0
ARC
  5
118
330
1F
100
AcDbEntity
  8
0
  6
HIDDEN
 62
     7
370
     0
100
AcDbCircle
 10
214.642587269
 20
103.3764271047
 30
0.0
 40
0.6000000000000227
100
AcDbArc
 50
180.0
 51
270.0
  0
ARC
  5
119
330
1F
100
AcDbEntity
  8
0
  6
HIDDEN
 62
     7
370
     0
100
AcDbCircle
 10
214.642587269
 20
116.5764271047
 30
0.0
 40
0.6000000000000227
100
AcDbArc
 50
90.0
 51
180.0
  0
ARC
  5
11A
330
1F
100
AcDbEntity
  8
0
  6
HIDDEN
 62
     7
370
     0
100
AcDbCircle
 10
215.2171856089
 20
103.3764271047
 30
0.0
 40
0.6000000000000085
100
AcDbArc
 50
270.0
 51
285.0
  0
ARC
  5
11B
330
1F
100
AcDbEntity
  8
0
  6
HIDDEN
 62
     7
370
     0
100
AcDbCircle
 10
215.2171856089
 20
116.5764271047
 30
0.0
 40
0.6000000000000085
100
AcDbArc
 50
75.0
 51
90.0
  0
LINE
  5
11C
330
1F
100
AcDbEntity
  8
0
  6
HIDDEN
 62
     7
370
     0
100
AcDbLine
 10
215.372477036
 20
102.7968716089
 30
0.0
 11
216.042587269
 21
102.9764271047
 31
0.0
  0
LINE
  5
11D
330
1F
100
AcDbEntity
  8
0
  6
HIDDEN
 62
     7
370
     0
100
AcDbLine
 10
216.042587269
 20
116.9764271047
 30
0.0
 11
215.372477036
 21
117.1559826005
 31
0.0
  0
LINE
  5
11E
330
1F
100
AcDbEntity
  8
0
  6
HIDDEN
 62
     7
370
     0
100
AcDbLine
 10
216.042587269
 20
102.9764271047
 30
0.0
 11
225.592587269
 21
102.9764271047
 31
0.0
  0
LINE
  5
11F
330
1F
100
AcDbEntity
  8
0
  6
HIDDEN
 62
     7
370
     0
100
AcDbLine
 10
225.592587269
 20
116.9764271047
 30
0.0
 11
216.042587269
 21
116.9764271047
 31
0.0
  0
LINE
  5
120
330
1F
100
AcDbEntity
  8
0
  6
HIDDEN
 62
     7
370
     0
100
AcDbLine
 10
124.642587269
 20
102.9764271047
 30
0.0
 11
126.2949539713
 21
105.7264271047
 31
0.0
  0
LINE
  5
121
330
1F
100
AcDbEntity
  8
0
  6
HIDDEN
 62
     7
370
     0
100
AcDbLine
 10
126.2949539713
 20
114.2264271047
 30
0.0
 11
124.642587269
 21
116.9764271047
 31
0.0
  0
LINE
  5
122
330
1F
100
AcDbEntity
  8
0
  6
HIDDEN
 62
     7
370
     0
100
AcDbLine
 10
91.6385164833
 20
102.9764271047
 30
0.0
 11
124.642587269
 21
102.9764271047
 31
0.0
  0
LINE
  5
123
330
1F
100
AcDbEntity
  8
0
  6
HIDDEN
 62
     7
370
     0
100
AcDbLine
 10
124.642587269
 20
116.9764271047
 30
0.0
 11
91.6385164833
 21
116.9764271047
 31
0.0
  0
LINE
  5
124
330
1F
100
AcDbEntity
  8
0
  6
HIDDEN
 62
     7
370
     0
100
AcDbLine
 10
170.042586359
 20
140.4764268928
 30
0.0
 11
171.0425857283
 21
141.4764266395
 31
0.0
  0
LINE
  5
125
330
1F
100
AcDbEntity
  8
0
  6
HIDDEN
 62
     7
370
     0
100
AcDbLine
 10
171.0425936304
 20
78.476425967
 30
0.0
 11
170.0425933815
 21
79.4764257716
 31
0.0
  0
LINE
  5
126
330
1F
100
AcDbEntity
  8
0
  6
HIDDEN
 62
     7
370
     0
100
AcDbLine
 10
228.7045142168
 20
119.5014271047
 30
0.0
 11
226.192587269
 21
119.5014271047
 31
0.0
  0
LINE
  5
127
330
1F
100
AcDbEntity
  8
0
  6
HIDDEN
 62
     7
370
     0
100
AcDbLine
 10
226.192587269
 20
100.4514271047
 30
0.0
 11
228.7045142168
 21
100.4514271047
 31
0.0
  0
LINE
  5
128
330
1F
100
AcDbEntity
  8
0
  6
HIDDEN
 62
     7
370
     0
100
AcDbLine
 10
126.2949539713
 20
105.7264271047
 30
0.0
 11
214.042587269
 21
105.7264271047
 31
0.0
  0
LINE
  5
129
330
1F
100
AcDbEntity
  8
0
  6
HIDDEN
 62
     7
370
     0
100
AcDbLine
 10
214.042587269
 20
114.2264271047
 30
0.0
 11
126.2949539713
 21
114.2264271047
 31
0.0
  0
LINE
  5
12A
330
1F
100
AcDbEntity
  8
0
  6
HIDDEN
 62
     7
370
     0
100
AcDbLine
 10
228.7510234401
 20
118.1764271047
 30
0.0
 11
228.7506621097
 21
118.1764271047
 31
0.0
  0
LINE
  5
12B
330
1F
100
AcDbEntity
  8
0
  6
HIDDEN
 62
     7
370
     0
100
AcDbLine
 10
228.7458914517
 20
101.7764271047
 30
0.0
 11
228.7506621097
 21
101.7764271047
 31
0.0
  0
DIMENSION
  5
12C
330
1F
100
AcDbEntity
  8
VERMASSUNG
100
AcDbDimension
  2
_D
 10
77.2814551685
 20
78.4764271047
 30
0.0
 11
77.2814551685
 21
109.9764271047
 31
0.0
 70
   160
  1
MAS BT 40 %%c<>
 71
     2
 42
-1.0
  3
SLDDIMSTYLE0
100
AcDbAlignedDimension
 13
171.0425831249
 23
141.4764271047
 33
0.0
 14
171.0425880429
 24
78.4764271047
 34
0.0
 50
90.0
100
AcDbRotatedDimension
  0
DIMENSION
  5
139
330
1F
100
AcDbEntity
  8
VERMASSUNG
100
AcDbDimension
  2
_D_1
 10
229.042587269
 20
159.4949336013
 30
0.0
 11
155.342587269
 21
159.4949336013
 31
0.0
 70
   160
  1
<>
 71
     2
 42
-1.0
  3
SLDDIMSTYLE0
100
AcDbAlignedDimension
 13
81.642587269
 23
121.7991827018
 33
0.0
 14
229.042587269
 24
122.2764271047
 34
0.0
100
AcDbRotatedDimension
  0
DIMENSION
  5
143
330
1F
100
AcDbEntity
  8
VERMASSUNG
100
AcDbDimension
  2
_D_2
 10
229.042587269
 20
153.4949336013
 30
0.0
 11
188.042587269
 21
153.4949336013
 31
0.0
 70
   160
  1
<>
 71
     2
 42
-1.0
  3
SLDDIMSTYLE0
100
AcDbAlignedDimension
 13
147.042587269
 23
132.2014271047
 33
0.0
 14
229.042587269
 24
122.2764271047
 34
0.0
100
AcDbRotatedDimension
  0
DIMENSION
  5
14D
330
1F
100
AcDbEntity
  8
VERMASSUNG
100
AcDbDimension
  2
_D_3
 10
229.042587269
 20
147.4949336013
 30
0.0
 11
201.542587269
 21
147.4949336013
 31
0.0
 70
   160
  1
<>
 71
     2
 42
-1.0
  3
SLDDIMSTYLE0
100
AcDbAlignedDimension
 13
174.042587269
 23
140.4764271047
 33
0.0
 14
229.042587269
 24
122.2764271047
 34
0.0
100
AcDbRotatedDimension
  0
DIMENSION
  5
157
330
1F
100
AcDbEntity
  8
VERMASSUNG
100
AcDbDimension
  2
_D_4
 10
235.9339819762
 20
97.4764271047
 30
0.0
 11
235.9339819762
 21
109.9764271047
 31
0.0
 70
   160
  1
MBM %%c<>
 71
     2
 42
-1.0
  3
SLDDIMSTYLE0
100
AcDbAlignedDimension
 13
228.842587269
 23
122.4764271047
 33
0.0
 14
228.842587269
 24
97.4764271047
 34
0.0
 50
90.0
100
AcDbRotatedDimension
  0
LINE
  5
163
330
1F
100
AcDbEntity
  8
VERMASSUNG
  6
CENTERX2
 62
     7
370
     0
100
AcDbLine
 10
79.642587269
 20
109.9764271047
 30
0.0
 11
231.042587269
 21
109.9764271047
 31
0.0
  0
LINE
  5
164
330
1F
100
AcDbEntity
  8
0
  6
Continuous
 62
     7
370
    15
100
AcDbLine
 10
275.079271479
 20
24.5621679302
 30
0.0
 11
275.1499706646
 21
24.6029949702
 31
0.0
  0
LINE
  5
165
330
1F
100
AcDbEntity
  8
0
  6
Continuous
 62
     7
370
    15
100
AcDbLine
 10
279.4979705818
 20
32.1347678213
 30
0.0
 11
279.4979705818
 21
32.2164086325
 31
0.0
  0
LINE
  5
166
330
1F
100
AcDbEntity
  8
0
  6
Continuous
 62
     7
370
    15
100
AcDbLine
 10
253.9932949177
 20
34.6207109133
 30
0.0
 11
271.9538071598
 21
24.2523278932
 31
0.0
  0
LINE
  5
167
330
1F
100
AcDbEntity
  8
0
  6
Continuous
 62
     7
370
    15
100
AcDbLine
 10
278.2032992388
 20
35.0779386729
 30
0.0
 11
260.2427869967
 21
45.4463216931
 31
0.0
  0
SPLINE
  5
168
330
1F
100
AcDbEntity
  8
0
  6
Continuous
 62
     7
370
    15
100
AcDbSpline
210
0.0
220
0.0
230
1.0
 70
     8
 71
     3
 72
    20
 73
    16
 74
     0
 42
0.000000001
 43
0.00000001
 40
0.0
 40
0.0
 40
0.0
 40
0.0
 40
0.0168377156779229
 40
0.1030953301743465
 40
0.1898839469589448
 40
0.2772634509070447
 40
0.3651716353183614
 40
0.4534778468014548
 40
0.5420380636350706
 40
0.6307301754932962
 40
0.7194638634330849
 40
0.8081754044091142
 40
0.8968421151452967
 40
0.9854561069544028
 40
0.9999999999999999
 40
0.9999999999999999
 40
0.9999999999999999
 40
0.9999999999999999
 10
249.1125753132266
 20
26.79149531162345
 30
0.0
 10
249.1641160272489
 20
26.77726862773784
 30
0.0
 10
249.479693688209
 20
26.69016033463388
 30
0.0
 10
250.1020243583802
 20
26.63324050887745
 30
0.0
 10
250.9748110147258
 20
26.62704921003998
 30
0.0
 10
251.8842323187478
 20
26.73703110730575
 30
0.0
 10
252.8189822653779
 20
26.9510260800798
 30
0.0
 10
253.7732492275677
 20
27.2710135232137
 30
0.0
 10
254.7391140177234
 20
27.69377004850819
 30
0.0
 10
255.7091359607487
 20
28.2159296279413
 30
0.0
 10
256.6755191822583
 20
28.83368943402613
 30
0.0
 10
257.6320733836404
 20
29.53982454410133
 30
0.0
 10
258.5679862103747
 20
30.33698134627872
 30
0.0
 10
259.2339746758904
 20
30.95128972166155
 30
0.0
 10
259.5757337903285
 20
31.3184562035545
 30
0.0
 10
259.6239172909377
 20
31.37022180586499
 30
0.0
  0
SPLINE
  5
169
330
1F
100
AcDbEntity
  8
0
  6
Continuous
 62
     7
370
    15
100
AcDbSpline
210
0.0
220
0.0
230
1.0
 70
     8
 71
     3
 72
    19
 73
    15
 74
     0
 42
0.000000001
 43
0.00000001
 40
0.0
 40
0.0
 40
0.0
 40
0.0
 40
0.0285645841007196
 40
0.1180417780049819
 40
0.2075863535433334
 40
0.297205589747195
 40
0.3869009463003334
 40
0.4766636548222281
 40
0.5664681107516989
 40
0.6562393266149731
 40
0.7458777870153536
 40
0.8352443092120958
 40
0.9241751431050352
 40
1.0
 40
1.0
 40
1.0
 40
1.0
 10
265.8708303113255
 20
42.19732144445487
 30
0.0
 10
265.9102354894769
 20
42.32877132302134
 30
0.0
 10
266.0730755040622
 20
42.87198166103337
 30
0.0
 10
266.2803821364494
 20
43.81756780379095
 30
0.0
 10
266.4886747679604
 20
45.02303709930764
 30
0.0
 10
266.6092384311827
 20
46.2000204159181
 30
0.0
 10
266.6477000459828
 20
47.34079497996253
 30
0.0
 10
266.6012877722598
 20
48.43691229071555
 30
0.0
 10
266.4702009590717
 20
49.48029896687113
 30
0.0
 10
266.2543948049316
 20
50.4626260832761
 30
0.0
 10
265.9556443189724
 20
51.37674530179059
 30
0.0
 10
265.5733993942534
 20
52.21177093099428
 30
0.0
 10
265.1415374266286
 20
52.93628076636633
 30
0.0
 10
264.8012997991635
 20
53.33689990956502
 30
0.0
 10
264.6447135878499
 20
53.52127526593149
 30
0.0
  0
LINE
  5
16A
330
1F
100
AcDbEntity
  8
0
  6
Continuous
 62
     7
370
    15
100
AcDbLine
 10
245.9291179009
 20
28.3067032328
 30
0.0
 11
247.4759139847
 21
27.4137568605
 31
0.0
  0
LINE
  5
16B
330
1F
100
AcDbEntity
  8
0
  6
Continuous
 62
     7
370
    15
100
AcDbLine
 10
263.2246340237
 20
54.6942960255
 30
0.0
 11
261.6778379399
 21
55.5872423978
 31
0.0
  0
LINE
  5
16C
330
1F
100
AcDbEntity
  8
0
  6
Continuous
 62
     7
370
    15
100
AcDbLine
 10
258.1246263644
 20
57.6384677787
 30
0.0
 11
255.0929060401
 21
59.3886426685
 31
0.0
  0
SPLINE
  5
16D
330
1F
100
AcDbEntity
  8
0
  6
Continuous
 62
     7
370
    15
100
AcDbSpline
210
0.0
220
0.0
230
1.0
 70
     8
 71
     3
 72
    30
 73
    26
 74
     0
 42
0.000000001
 43
0.00000001
 40
0.0
 40
0.0
 40
0.0
 40
0.0
 40
0.0108850449826397
 40
0.0556626161867565
 40
0.1007192695440687
 40
0.1460822556609213
 40
0.1917166404777539
 40
0.2375535976872223
 40
0.2835186387991451
 40
0.329549265870303
 40
0.3755991342976293
 40
0.4216366344196516
 40
0.467650491110109
 40
0.5136369245329141
 40
0.559596748154224
 40
0.6055334362287167
 40
0.6514519278502401
 40
0.6973579309630719
 40
0.7432575431081792
 40
0.7891570608942958
 40
0.835061545036004
 40
0.8809766837659786
 40
0.9269089682000319
 40
0.9728647954352361
 40
0.9999999999999999
 40
0.9999999999999999
 40
0.9999999999999999
 40
0.9999999999999999
 10
253.4518317764144
 20
60.01033354384727
 30
0.0
 10
253.3874847427747
 20
60.0277227707828
 30
0.0
 10
253.0584347258059
 20
60.11664567980528
 30
0.0
 10
252.4216256406619
 20
60.17221398989044
 30
0.0
 10
251.5467056534102
 20
60.17219526017964
 30
0.0
 10
250.6357921114072
 20
60.05672448812123
 30
0.0
 10
249.6998223832814
 20
59.83708246678568
 30
0.0
 10
248.7447554843771
 20
59.51159057632157
 30
0.0
 10
247.7784713756295
 20
59.08350553049078
 30
0.0
 10
246.808492088812
 20
58.55610525419109
 30
0.0
 10
245.8423215246673
 20
57.93382104770863
 30
0.0
 10
244.887169829582
 20
57.22170057237614
 30
0.0
 10
243.949977181564
 20
56.42537160923352
 30
0.0
 10
243.0374110469317
 20
55.5509278831798
 30
0.0
 10
242.1559316772658
 20
54.60494142370793
 30
0.0
 10
241.3117759234776
 20
53.59442951040448
 30
0.0
 10
240.510932758418
 20
52.52682080654591
 30
0.0
 10
239.759101791589
 20
51.4099124536468
 30
0.0
 10
239.0616847105746
 20
50.25182829014092
 30
0.0
 10
238.4236490269638
 20
49.06095417442047
 30
0.0
 10
237.8498821285128
 20
47.84596004522318
 30
0.0
 10
237.343683054402
 20
46.61541650797738
 30
0.0
 10
236.9122291289858
 20
45.37888984987494
 30
0.0
 10
236.596104216375
 20
44.31154592129363
 30
0.0
 10
236.4508319053542
 20
43.66448776147028
 30
0.0
 10
236.3968992438488
 20
43.42426601196539
 30
0.0
  0
LINE
  5
16E
330
1F
100
AcDbEntity
  8
0
  6
Continuous
 62
     7
370
    15
100
AcDbLine
 10
246.0863758149
 20
58.074827566
 30
0.0
 11
226.1934083626
 21
65.2434645059
 31
0.0
  0
LINE
  5
16F
330
1F
100
AcDbEntity
  8
0
  6
Continuous
 62
     7
370
    15
100
AcDbLine
 10
219.8219389512
 20
54.2065598949
 30
0.0
 11
238.8498130376
 21
38.1395803175
 31
0.0
  0
LINE
  5
170
330
1F
100
AcDbEntity
  8
0
  6
Continuous
 62
     7
370
    15
100
AcDbLine
 10
239.3441860011
 20
32.1081035035
 30
0.0
 11
242.3759063254
 21
30.3579286137
 31
0.0
  0
SPLINE
  5
171
330
1F
100
AcDbEntity
  8
0
  6
Continuous
 62
     7
370
    15
100
AcDbSpline
210
0.0
220
0.0
230
1.0
 70
     8
 71
     3
 72
    12
 73
     8
 74
     0
 42
0.000000001
 43
0.00000001
 40
0.0
 40
0.0
 40
0.0
 40
0.0
 40
0.0923878905958326
 40
0.3601086090743676
 40
0.6270339880653494
 40
0.8924054002757669
 40
1.0
 40
1.0
 40
1.0
 40
1.0
 10
236.3811681714355
 20
36.17506634231437
 30
0.0
 10
236.4125280809017
 20
36.0678280672501
 30
0.0
 10
236.5347624268287
 20
35.64983577601069
 30
0.0
 10
236.8066160545315
 20
34.97105509628473
 30
0.0
 10
237.2310628719235
 20
34.18124055098878
 30
0.0
 10
237.6220531678616
 20
33.60071586500778
 30
0.0
 10
237.895043183695
 20
33.31772507298733
 30
0.0
 10
237.9737963422735
 20
33.23608685390366
 30
0.0
  0
SPLINE
  5
172
330
1F
100
AcDbEntity
  8
0
  6
Continuous
 62
     7
370
    15
100
AcDbSpline
210
0.0
220
0.0
230
1.0
 70
     8
 71
     3
 72
    24
 73
    20
 74
     0
 42
0.000000001
 43
0.00000001
 40
0.0
 40
0.0
 40
0.0
 40
0.0
 40
0.0397270556184183
 40
0.0970806572528387
 40
0.1554187307630325
 40
0.2150375533574903
 40
0.2757134892799876
 40
0.3369838985061908
 40
0.3984368968718835
 40
0.4598232961995459
 40
0.5210945153696096
 40
0.5822630668031555
 40
0.643367816660503
 40
0.7044579427564759
 40
0.7655807899531297
 40
0.8267797011839986
 40
0.8881105200023687
 40
0.9496252282471517
 40
1.0
 40
1.0
 40
1.0
 40
1.0
 10
226.1878837763429
 20
65.23263648818681
 30
0.0
 10
226.0703402284545
 20
65.27436305500667
 30
0.0
 10
225.7831000917967
 20
65.37632990023894
 30
0.0
 10
225.2793235997628
 20
65.41630586797731
 30
0.0
 10
224.6949465702363
 20
65.36991203304243
 30
0.0
 10
224.0847213517943
 20
65.21372203343402
 30
0.0
 10
223.459984354139
 20
64.95365386967191
 30
0.0
 10
222.8321653286917
 20
64.59228961628324
 30
0.0
 10
222.2143483606874
 20
64.13752016194684
 30
0.0
 10
221.618479360217
 20
63.59898746985868
 30
0.0
 10
221.0551985120335
 20
62.98756390192899
 30
0.0
 10
220.5339756409669
 20
62.31464524612117
 30
0.0
 10
220.0635552315696
 20
61.59231446959076
 30
0.0
 10
219.65190682029
 20
60.83323121036444
 30
0.0
 10
219.3063778188503
 20
60.05061703643968
 30
0.0
 10
219.0327495081822
 20
59.25759494026624
 30
0.0
 10
218.8382791479862
 20
58.46842569759575
 30
0.0
 10
218.7274621418379
 20
57.74042131268862
 30
0.0
 10
218.7147813160443
 20
57.29316477552619
 30
0.0
 10
218.7090721671144
 20
57.09180137679555
 30
0.0
  0
SPLINE
  5
173
330
1F
100
AcDbEntity
  8
0
  6
Continuous
 62
     7
370
    15
100
AcDbSpline
210
0.0
220
0.0
230
1.0
 70
     8
 71
     3
 72
    13
 73
     9
 74
     0
 42
0.000000001
 43
0.00000001
 40
0.0
 40
0.0
 40
0.0
 40
0.0
 40
0.1103916205995467
 40
0.3192339244172335
 40
0.528081176798592
 40
0.7350221164952643
 40
0.9380390004448452
 40
1.0
 40
1.0
 40
1.0
 40
1.0
 10
218.7090721671144
 20
57.09180137679555
 30
0.0
 10
218.7115442459038
 20
56.9639375835415
 30
0.0
 10
218.718693080291
 20
56.59417708641609
 30
0.0
 10
218.7991877812248
 20
56.01825412927046
 30
0.0
 10
218.9789716201408
 20
55.39183866237313
 30
0.0
 10
219.2543283764205
 20
54.84836318931274
 30
0.0
 10
219.5160834653464
 20
54.4753763154735
 30
0.0
 10
219.7076437264125
 20
54.32097467054577
 30
0.0
 10
219.7524371449942
 20
54.28487022240788
 30
0.0
  0
LINE
  5
174
330
1F
100
AcDbEntity
  8
0
  6
Continuous
 62
     7
370
    15
100
AcDbLine
 10
273.6468343125
 20
36.656331067
 30
0.0
 11
273.5053899769
 21
36.7380116861
 31
0.0
  0
LINE
  5
175
330
1F
100
AcDbEntity
  8
0
  6
Continuous
 62
     7
370
    15
100
AcDbLine
 10
271.6666136144
 20
36.7380116861
 30
0.0
 11
271.5251692788
 21
36.656331067
 31
0.0
  0
LINE
  5
176
330
1F
100
AcDbEntity
  8
0
  6
Continuous
 62
     7
370
    15
100
AcDbLine
 10
274.0860017957
 20
35.7991622485
 30
0.0
 11
274.0860017957
 21
36.0441244921
 31
0.0
  0
LINE
  5
177
330
1F
100
AcDbEntity
  8
0
  6
Continuous
 62
     7
370
    15
100
AcDbLine
 10
271.0860017957
 20
36.0441244921
 30
0.0
 11
271.0860017957
 21
35.7991622485
 31
0.0
  0
LWPOLYLINE
  5
178
330
1F
100
AcDbEntity
  8
0
  6
Continuous
 62
     7
370
    15
100
AcDbPolyline
 90
       44
 70
   128
 43
0.0
 10
270.8005571732
 20
27.1138579336
 10
270.8468997399
 20
27.8717800965
 10
270.9849397286
 20
28.6670544531
 10
271.2117350567
 20
29.4827311109
 10
271.5224519754
 20
30.3014253384
 10
271.9104680932
 20
31.1056880892
 10
272.36751352
 20
31.8783778994
 10
272.8838471262
 20
32.603026227
 10
273.4484641574
 20
33.264188451
 10
274.0493307817
 20
33.8477730466
 10
274.6736405703
 20
34.3413419212
 10
275.308087444
 20
34.7343755112
 10
275.9391492691
 20
35.018496988
 10
276.5533760584
 20
35.1876507957
 10
277.1376766343
 20
35.2382317143
 10
277.6795976445
 20
35.1691616996
 10
278.1675889835
 20
34.9819128589
 10
278.5912499631
 20
34.6804760763
 10
278.9415509851
 20
34.2712759533
 10
279.2110259914
 20
33.7630338801
 10
279.3939315901
 20
33.1665821543
 10
279.4863694658
 20
32.4946331087
 10
279.4863694658
 20
31.7615081706
 10
279.3939315901
 20
30.9828326254
 10
279.2110259914
 20
30.1752025904
 10
278.9415509851
 20
29.3558312976
 10
278.5912499631
 20
28.5421822235
 10
278.1675889835
 20
27.7515968856
 10
277.6795976445
 20
27.0009252377
 10
277.1376766343
 20
26.3061665427
 10
276.5533760584
 20
25.6821283761
 10
275.9391492691
 20
25.1421110279
 10
275.308087444
 20
24.6976240304
 10
274.6736405703
 20
24.3581408521
 10
274.0493307817
 20
24.1308969878
 10
273.4484641574
 20
24.0207357457
 10
272.8838471262
 20
24.0300050215
 10
272.36751352
 20
24.1585072567
 10
271.9104680932
 20
24.4035036493
 10
271.5224519754
 20
24.7597725264
 10
271.2117350567
 20
25.2197206356
 10
270.9849397286
 20
25.7735449813
 10
270.8468997399
 20
26.4094417593
 10
270.8005571732
 20
27.1138579336
  0
LWPOLYLINE
  5
179
330
1F
100
AcDbEntity
  8
0
  6
Continuous
 62
     7
370
    15
100
AcDbPolyline
 90
       23
 70
   128
 43
0.0
 10
270.6591358169
 20
27.1138579336
 10
270.7062319213
 20
27.8841040342
 10
270.8465164627
 20
28.692309681
 10
271.0769995197
 20
29.521249374
 10
271.3927687461
 20
30.3532557027
 10
271.787094069
 20
31.1705958967
 10
272.2515711288
 20
31.9558497687
 10
272.7763004034
 20
32.692280996
 10
273.3500981993
 20
33.3641938253
 10
273.9607350126
 20
33.9572676013
 10
274.5951961799
 20
34.458861986
 10
275.2399592629
 20
34.8582863661
 10
275.8812822558
 20
35.1470277044
 10
276.5054964726
 20
35.3189319804
 10
277.0992978709
 20
35.3703353531
 10
277.6500306049
 20
35.3001422487
 10
278.1459567624
 20
35.1098487114
 10
278.5765065384
 20
34.8035105176
 10
278.932503512
 20
34.3876567341
 10
279.2063602257
 20
33.8711505622
 10
279.3922398992
 20
33.2650004343
 10
279.4861808298
 20
32.5821253879
 10
279.4979705818
 20
32.2164086325
  0
LWPOLYLINE
  5
17A
330
1F
100
AcDbEntity
  8
0
  6
Continuous
 62
     7
370
    15
100
AcDbPolyline
 90
       12
 70
   128
 43
0.0
 10
275.079271479
 20
24.5621679302
 10
274.5951961799
 20
24.3133324443
 10
273.9607350126
 20
24.0823935577
 10
273.3500981993
 20
23.9704410759
 10
272.7763004034
 20
23.9798610717
 10
272.2515711288
 20
24.1104527741
 10
271.787094069
 20
24.3594328479
 10
271.3927687461
 20
24.7214947149
 10
271.0769995197
 20
25.1889216551
 10
270.8465164627
 20
25.7517512748
 10
270.7062319213
 20
26.3979878377
 10
270.6591358169
 20
27.1138579336
  0
SPLINE
  5
17B
330
1F
100
AcDbEntity
  8
0
  6
Continuous
 62
     7
370
    15
100
AcDbSpline
210
0.0
220
0.0
230
1.0
 70
     8
 71
     3
 72
    38
 73
    34
 74
     0
 42
0.000000001
 43
0.00000001
 40
0.0
 40
0.0
 40
0.0
 40
0.0
 40
0.0625
 40
0.0625
 40
0.125
 40
0.125
 40
0.1875
 40
0.1875
 40
0.25
 40
0.25
 40
0.3125
 40
0.3125
 40
0.375
 40
0.375
 40
0.4375
 40
0.4375
 40
0.5
 40
0.5
 40
0.5625
 40
0.5625
 40
0.625
 40
0.625
 40
0.6875
 40
0.6875
 40
0.75
 40
0.75
 40
0.8125
 40
0.8125
 40
0.875
 40
0.875
 40
0.9375
 40
0.9375
 40
1.0
 40
1.0
 40
1.0
 40
1.0
 10
274.0002153580272
 20
35.39102454260448
 30
0.0
 10
273.9133387514078
 20
35.34087174513543
 30
0.0
 10
273.8158779670639
 20
35.293841842258
 30
0.0
 10
273.6034321895556
 20
35.20823663701668
 30
0.0
 10
273.4915658481786
 20
35.17081920105284
 30
0.0
 10
273.2574119071286
 20
35.10673999348697
 30
0.0
 10
273.135701214386
 20
35.08041833135229
 30
0.0
 10
272.8925403169935
 20
35.04125823642828
 30
0.0
 10
272.7686523701247
 20
35.02802665810616
 30
0.0
 10
272.5248712860899
 20
35.01571056046583
 30
0.0
 10
272.4051600152599
 20
35.01648024124169
 30
0.0
 10
272.1696219446868
 20
35.03239979951147
 30
0.0
 10
272.0538288840086
 20
35.047736125085
 30
0.0
 10
271.833970013676
 20
35.09247906363461
 30
0.0
 10
271.7287982554071
 20
35.12192178346211
 30
0.0
 10
271.5279153253514
 20
35.19573899921696
 30
0.0
 10
271.433284798227
 20
35.23988011290461
 30
0.0
 10
271.2600364334726
 20
35.34020265473033
 30
0.0
 10
271.1806323469987
 20
35.39665726800073
 30
0.0
 10
271.0367738044897
 20
35.52232562023654
 30
0.0
 10
270.9734089527353
 20
35.59077208031108
 30
0.0
 10
270.8664003646119
 20
35.73502284410525
 30
0.0
 10
270.8222391132911
 20
35.81125507762832
 30
0.0
 10
270.7539425680927
 20
35.97141958976651
 30
0.0
 10
270.7305218834067
 20
36.05406883732473
 30
0.0
 10
270.7066725696261
 20
36.21966795761303
 30
0.0
 10
270.705967213888
 20
36.30317248178047
 30
0.0
 10
270.7299942308287
 20
36.47036669874274
 30
0.0
 10
270.7546049743158
 20
36.55200778261251
 30
0.0
 10
270.8297395270391
 20
36.70685267229011
 30
0.0
 10
270.8813668777027
 20
36.78141267376642
 30
0.0
 10
271.0085449780332
 20
36.91424303527994
 30
0.0
 10
271.0839253685705
 20
36.97311861410391
 30
0.0
 10
271.1717882332809
 20
37.0238407662499
 30
0.0
  0
SPLINE
  5
17C
330
1F
100
AcDbEntity
  8
0
  6
Continuous
 62
     7
370
    15
100
AcDbSpline
210
0.0
220
0.0
230
1.0
 70
     8
 71
     3
 72
    34
 73
    30
 74
     0
 42
0.000000001
 43
0.00000001
 40
0.0
 40
0.0
 40
0.0
 40
0.0
 40
0.0625000000000008
 40
0.0625000000000008
 40
0.1250000000000016
 40
0.1250000000000016
 40
0.1875000000000024
 40
0.1875000000000024
 40
0.2500000000000033
 40
0.2500000000000033
 40
0.3750000000000051
 40
0.3750000000000051
 40
0.5000000000000068
 40
0.5000000000000068
 40
0.5625000000000059
 40
0.5625000000000059
 40
0.6250000000000051
 40
0.6250000000000051
 40
0.6875000000000042
 40
0.6875000000000042
 40
0.7500000000000033
 40
0.7500000000000033
 40
0.8125000000000026
 40
0.8125000000000026
 40
0.8750000000000017
 40
0.8750000000000017
 40
0.9375000000000009
 40
0.9375000000000009
 40
1.0
 40
1.0
 40
1.0
 40
1.0
 10
271.1717882332809
 20
37.0238407662499
 30
0.0
 10
271.259748057909
 20
37.07461889216484
 30
0.0
 10
271.3579425518756
 20
37.1156527366735
 30
0.0
 10
271.5689009658322
 20
37.17756311879623
 30
0.0
 10
271.6834780865908
 20
37.19874449808859
 30
0.0
 10
271.9174201283697
 20
37.22153561956753
 30
0.0
 10
272.0387935442675
 20
37.22357315633394
 30
0.0
 10
272.2842621198063
 20
37.21141111542
 30
0.0
 10
272.406888588307
 20
37.19742448568022
 30
0.0
 10
272.7748169066937
 20
37.13574648778702
 30
0.0
 10
273.0090144558084
 20
37.07087804996784
 30
0.0
 10
273.45302584018
 20
36.90951845423218
 30
0.0
 10
273.652709147762
 20
36.81658332432007
 30
0.0
 10
273.9150345718396
 20
36.66458635548935
 30
0.0
 10
273.9941411181286
 20
36.61290735365659
 30
0.0
 10
274.1361799845095
 20
36.50730564727417
 30
0.0
 10
274.1993920325233
 20
36.45310292576539
 30
0.0
 10
274.3072759797261
 20
36.34271095205012
 30
0.0
 10
274.3510463176885
 20
36.28754941907686
 30
0.0
 10
274.418233048329
 20
36.17605570592924
 30
0.0
 10
274.4417476589286
 20
36.11934122903856
 30
0.0
 10
274.4655633090542
 20
36.00474895366599
 30
0.0
 10
274.4657897061434
 20
35.94797263873262
 30
0.0
 10
274.441871465243
 20
35.83388652650498
 30
0.0
 10
274.4172511025419
 20
35.77585574333524
 30
0.0
 10
274.341526332648
 20
35.66116808531976
 30
0.0
 10
274.2912895214624
 20
35.60528967207037
 30
0.0
 10
274.1647867776293
 20
35.49560254604317
 30
0.0
 10
274.0871878361918
 20
35.44123268553855
 30
0.0
 10
274.0002153580272
 20
35.39102454260448
 30
0.0
  0
LWPOLYLINE
  5
17D
330
1F
100
AcDbEntity
  8
0
  6
Continuous
 62
     7
370
    15
100
AcDbPolyline
 90
       40
 70
   128
 43
0.0
 10
271.5253416239
 20
27.5322670909
 10
271.5722704653
 20
28.2306431166
 10
271.7118415572
 20
28.9651144571
 10
271.9404400815
 20
29.7166586904
 10
272.2521454567
 20
30.4658112156
 10
272.6388846772
 20
31.1931693759
 10
273.0906414003
 20
31.879894977
 10
273.5957153642
 20
32.5082021865
 10
274.1410254186
 20
33.0618181777
 10
274.7124483195
 20
33.5264045873
 10
275.2951845139
 20
33.8899288713
 10
275.8741414404
 20
34.1429759416
 10
276.4343244188
 20
34.2789920122
 10
276.9612250042
 20
34.2944543381
 10
277.4411967482
 20
34.1889624534
 10
277.8618086348
 20
33.9652485423
 10
278.212167037
 20
33.6291066777
 10
278.4831978562
 20
33.1892427572
 10
278.6678815366
 20
32.6570490255
 10
278.7614348678
 20
32.0463090206
 10
278.7614348678
 20
31.3728405877
 10
278.6678815366
 20
30.6540862057
 10
278.4831978562
 20
29.9086612353
 10
278.212167037
 20
29.1558717918
 10
277.8618086348
 20
28.4152147264
 10
277.4411967482
 20
27.705872668
 10
276.9612250042
 20
27.0462172033
 10
276.4343244188
 20
26.4533330624
 10
275.8741414404
 20
25.942575633
 10
275.2951845139
 20
25.5271732644
 10
274.7124483195
 20
25.2178846595
 10
274.1410254186
 20
25.022720231
 10
273.5957153642
 20
24.9467346349
 10
273.0906414003
 20
24.9918958582
 10
272.6388846772
 20
25.157034249
 10
272.2521454567
 20
25.4378728098
 10
271.9404400815
 20
25.8271379693
 10
271.7118415572
 20
26.3147479643
 10
271.5722704653
 20
26.8880739522
 10
271.5253416239
 20
27.5322670909
  0
ARC
  5
17E
330
1F
100
AcDbEntity
  8
0
  6
Continuous
 62
     7
370
    15
100
AcDbCircle
 10
275.995769626
 20
28.0210760722
 30
0.0
 40
4.342146830487434
100
AcDbArc
 50
152.8222804837
 51
207.1777195163
  0
SPLINE
  5
17F
330
1F
100
AcDbEntity
  8
0
  6
Continuous
 62
     7
370
    15
100
AcDbSpline
210
0.0
220
0.0
230
1.0
 70
     8
 71
     3
 72
    22
 73
    18
 74
     0
 42
0.000000001
 43
0.00000001
 40
0.0
 40
0.0
 40
0.0
 40
0.0
 40
0.1250000000000001
 40
0.1250000000000001
 40
0.2500000000000003
 40
0.2500000000000003
 40
0.3750000000000004
 40
0.3750000000000004
 40
0.5000000000000006
 40
0.5000000000000006
 40
0.6250000000000007
 40
0.6250000000000007
 40
0.7500000000000004
 40
0.7500000000000004
 40
0.8750000000000003
 40
0.8750000000000003
 40
1.0
 40
1.0
 40
1.0
 40
1.0
 10
273.0816139630725
 20
25.40872381236082
 30
0.0
 10
273.0345762892886
 20
25.36149564241476
 30
0.0
 10
272.9860955241074
 20
25.32325572421448
 30
0.0
 10
272.886638939942
 20
25.26464969921705
 30
0.0
 10
272.8350382067047
 20
25.24424980170129
 30
0.0
 10
272.7335988769864
 20
25.22395593286238
 30
0.0
 10
272.6835667557693
 20
25.22368335876832
 30
0.0
 10
272.5851176667695
 20
25.24346682305433
 30
0.0
 10
272.5372268666376
 20
25.26368877361073
 30
0.0
 10
272.4478428622969
 20
25.32290815944719
 30
0.0
 10
272.4053577300297
 20
25.36254873425498
 30
0.0
 10
272.3280044905785
 20
25.45928992289569
 30
0.0
 10
272.2934491052854
 20
25.51566912758281
 30
0.0
 10
272.2321905591411
 20
25.64406980656406
 30
0.0
 10
272.2056518490215
 20
25.71625400994652
 30
0.0
 10
272.1625451573353
 20
25.86931720722699
 30
0.0
 10
272.1455698815181
 20
25.95096440822355
 30
0.0
 10
272.1330216122271
 20
26.03779170529098
 30
0.0
  0
SPLINE
  5
180
330
1F
100
AcDbEntity
  8
0
  6
Continuous
 62
     7
370
    15
100
AcDbSpline
210
0.0
220
0.0
230
1.0
 70
     8
 71
     3
 72
     8
 73
     4
 74
     0
 42
0.000000001
 43
0.00000001
 40
0.0
 40
0.0
 40
0.0
 40
0.0
 40
1.0
 40
1.0
 40
1.0
 40
1.0
 10
273.1822585031891
 20
25.50838102439529
 30
0.0
 10
273.1483409524911
 20
25.47526889676936
 30
0.0
 10
273.1148026943144
 20
25.44204695343688
 30
0.0
 10
273.0816139630725
 20
25.40872381236082
 30
0.0
  0
LWPOLYLINE
  5
181
330
1F
100
AcDbEntity
  8
0
  6
Continuous
 62
     7
370
    15
100
AcDbPolyline
 90
        9
 70
   128
 43
0.0
 10
276.7980712002
 20
27.5957452636
 10
276.3807750696
 20
27.0850900539
 10
275.9339660359
 20
26.6302739827
 10
275.4671267217
 20
26.2409496056
 10
274.9901648517
 20
25.9253795491
 10
274.5132029817
 20
25.6902611523
 10
274.0463636675
 20
25.5405843301
 10
273.5995546338
 20
25.4795256718
 10
273.1822585032
 20
25.5083810244
  0
SPLINE
  5
182
330
1F
100
AcDbEntity
  8
0
  6
Continuous
 62
     7
370
    15
100
AcDbSpline
210
0.0
220
0.0
230
1.0
 70
     8
 71
     3
 72
     8
 73
     4
 74
     0
 42
0.000000001
 43
0.00000001
 40
0.0
 40
0.0
 40
0.0
 40
0.0
 40
1.0
 40
1.0
 40
1.0
 40
1.0
 10
276.9707012595985
 20
27.65384611987327
 30
0.0
 10
276.9129698542857
 20
27.63468409168859
 30
0.0
 10
276.8554213631239
 20
27.61532273858963
 30
0.0
 10
276.7980712001876
 20
27.59574526357545
 30
0.0
  0
SPLINE
  5
183
330
1F
100
AcDbEntity
  8
0
  6
Continuous
 62
     7
370
    15
100
AcDbSpline
210
0.0
220
0.0
230
1.0
 70
     8
 71
     3
 72
    22
 73
    18
 74
     0
 42
0.000000001
 43
0.00000001
 40
0.0
 40
0.0
 40
0.0
 40
0.0
 40
0.1250000000000002
 40
0.1250000000000002
 40
0.2500000000000004
 40
0.2500000000000004
 40
0.3750000000000007
 40
0.3750000000000007
 40
0.5000000000000006
 40
0.5000000000000006
 40
0.6250000000000004
 40
0.6250000000000004
 40
0.7500000000000003
 40
0.7500000000000003
 40
0.8750000000000002
 40
0.8750000000000002
 40
1.0
 40
1.0
 40
1.0
 40
1.0
 10
277.9264523949631
 20
29.38226810698255
 30
0.0
 10
277.9481840489263
 20
29.30074009256422
 30
0.0
 10
277.9613553885131
 20
29.21682262888995
 30
0.0
 10
277.9708598057457
 20
29.04409200880485
 30
0.0
 10
277.9669558551881
 20
28.95418500406859
 30
0.0
 10
277.9418208202123
 20
28.77627100362357
 30
0.0
 10
277.9208402736772
 20
28.68792337966166
 30
0.0
 10
277.8616508261271
 20
28.51241560981768
 30
0.0
 10
277.8235439942097
 20
28.42622830140983
 30
0.0
 10
277.7335016857003
 20
28.26342543828757
 30
0.0
 10
277.680569019087
 20
28.1850075001911
 30
0.0
 10
277.5626492921193
 20
28.0402923726959
 30
0.0
 10
277.4983810781026
 20
27.97454086091381
 30
0.0
 10
277.3593724464757
 20
27.85599732126271
 30
0.0
 10
277.2846073779855
 20
27.80352892544196
 30
0.0
 10
277.131599649454
 20
27.71642128213113
 30
0.0
 10
277.0525098750379
 20
27.68099978062877
 30
0.0
 10
276.9707012595985
 20
27.65384611987327
 30
0.0
  0
ARC
  5
184
330
1F
100
AcDbEntity
  8
0
  6
Continuous
 62
     7
370
    15
100
AcDbCircle
 10
274.0637043812
 20
31.3655524739
 30
0.0
 40
4.342146830487434
100
AcDbArc
 50
332.8222804837
 51
27.1777195163
  0
SPLINE
  5
185
330
1F
100
AcDbEntity
  8
0
  6
Continuous
 62
     7
370
    15
100
AcDbSpline
210
0.0
220
0.0
230
1.0
 70
     8
 71
     3
 72
    22
 73
    18
 74
     0
 42
0.000000001
 43
0.00000001
 40
0.0
 40
0.0
 40
0.0
 40
0.0
 40
0.1250000000000001
 40
0.1250000000000001
 40
0.2500000000000003
 40
0.2500000000000003
 40
0.3750000000000004
 40
0.3750000000000004
 40
0.5000000000000006
 40
0.5000000000000006
 40
0.6250000000000007
 40
0.6250000000000007
 40
0.7500000000000004
 40
0.7500000000000004
 40
0.8750000000000003
 40
0.8750000000000003
 40
1.0
 40
1.0
 40
1.0
 40
1.0
 10
276.9707012595985
 20
33.98203741198783
 30
0.0
 10
277.0525117138266
 20
34.00919168306834
 30
0.0
 10
277.1316704912963
 20
34.02972156174329
 30
0.0
 10
277.2849242781695
 20
34.05727112267292
 30
0.0
 10
277.3598290113865
 20
34.06421790735797
 30
0.0
 10
277.4985060238637
 20
34.06301491951363
 30
0.0
 10
277.5626929847517
 20
34.0551160785991
 30
0.0
 10
277.6805655691704
 20
34.02411966908199
 30
0.0
 10
277.7335101964699
 20
34.00098020620283
 30
0.0
 10
277.8235476725214
 20
33.94138357917748
 30
0.0
 10
277.8616455180407
 20
33.90427573109863
 30
0.0
 10
277.9208564692774
 20
33.81800786251326
 30
0.0
 10
277.9418653667931
 20
33.76944887876192
 30
0.0
 10
277.9670078237624
 20
33.66189757426999
 30
0.0
 10
277.970854559896
 20
33.60281316863265
 30
0.0
 10
277.9613380878826
 20
33.48012867712706
 30
0.0
 10
277.948183547068
 20
33.41587504903936
 30
0.0
 10
277.9264523949631
 20
33.34883684072121
 30
0.0
  0
SPLINE
  5
186
330
1F
100
AcDbEntity
  8
0
  6
Continuous
 62
     7
370
    15
100
AcDbSpline
210
0.0
220
0.0
230
1.0
 70
     8
 71
     3
 72
     8
 73
     4
 74
     0
 42
0.000000001
 43
0.00000001
 40
0.0
 40
0.0
 40
0.0
 40
0.0
 40
1.0
 40
1.0
 40
1.0
 40
1.0
 10
276.7980712001876
 20
33.92393655569001
 30
0.0
 10
276.8554293024523
 20
33.94351674093196
 30
0.0
 10
276.9129776317116
 20
33.96287796526212
 30
0.0
 10
276.9707012595985
 20
33.98203741198783
 30
0.0
  0
LWPOLYLINE
  5
187
330
1F
100
AcDbEntity
  8
0
  6
Continuous
 62
     7
370
    15
100
AcDbPolyline
 90
        9
 70
   128
 43
0.0
 10
273.1822585032
 20
31.8365723165
 10
273.5995546338
 20
32.3472275262
 10
274.0463636675
 20
32.8020435974
 10
274.5132029817
 20
33.1913679745
 10
274.9901648517
 20
33.506938031
 10
275.4671267217
 20
33.7420564278
 10
275.9339660359
 20
33.89173325
 10
276.3807750696
 20
33.9527919083
 10
276.7980712002
 20
33.9239365557
  0
SPLINE
  5
188
330
1F
100
AcDbEntity
  8
0
  6
Continuous
 62
     7
370
    15
100
AcDbSpline
210
0.0
220
0.0
230
1.0
 70
     8
 71
     3
 72
     8
 73
     4
 74
     0
 42
0.000000001
 43
0.00000001
 40
0.0
 40
0.0
 40
0.0
 40
0.0
 40
1.0
 40
1.0
 40
1.0
 40
1.0
 10
273.0816139630725
 20
31.73691510447539
 30
0.0
 10
273.114807166017
 20
31.77024273536384
 30
0.0
 10
273.148345647252
 20
31.80346477216068
 30
0.0
 10
273.1822585031891
 20
31.83657231650985
 30
0.0
  0
SPLINE
  5
189
330
1F
100
AcDbEntity
  8
0
  6
Continuous
 62
     7
370
    15
100
AcDbSpline
210
0.0
220
0.0
230
1.0
 70
     8
 71
     3
 72
    22
 73
    18
 74
     0
 42
0.000000001
 43
0.00000001
 40
0.0
 40
0.0
 40
0.0
 40
0.0
 40
0.1250000000000002
 40
0.1250000000000002
 40
0.2500000000000004
 40
0.2500000000000004
 40
0.3750000000000007
 40
0.3750000000000007
 40
0.5000000000000006
 40
0.5000000000000006
 40
0.6250000000000004
 40
0.6250000000000004
 40
0.7500000000000003
 40
0.7500000000000003
 40
0.8750000000000002
 40
0.8750000000000002
 40
1.0
 40
1.0
 40
1.0
 40
1.0
 10
272.1330216122271
 20
30.00436043902964
 30
0.0
 10
272.1455701713073
 20
30.06609890769034
 30
0.0
 10
272.1625554126617
 20
30.13260734774872
 30
0.0
 10
272.2057438838537
 20
30.27491901083202
 30
0.0
 10
272.232360024965
 20
30.35171454704707
 30
0.0
 10
272.2935146296185
 20
30.50883489252255
 30
0.0
 10
272.3280265301855
 20
30.58937103207397
 30
0.0
 10
272.4053499137182
 20
30.75441030350343
 30
0.0
 10
272.447846929719
 20
30.83806321258616
 30
0.0
 10
272.5372348997747
 20
31.00124381725725
 30
0.0
 10
272.5851156103885
 20
31.08257818747432
 30
0.0
 10
272.683602423236
 20
31.23851169750109
 30
0.0
 10
272.7336989954019
 20
31.31244432398371
 30
0.0
 10
272.8353634145935
 20
31.45254621859128
 30
0.0
 10
272.8868495163364
 20
31.51845327586517
 30
0.0
 10
272.9861365668442
 20
31.63657320648408
 30
0.0
 10
273.034577346517
 20
31.68968799603947
 30
0.0
 10
273.0816139630725
 20
31.73691510447539
 30
0.0
  0
LWPOLYLINE
  5
18A
330
1F
100
AcDbEntity
  8
0
  6
Continuous
 62
     7
370
    15
100
AcDbPolyline
 90
       23
 70
   128
 43
0.0
 10
275.3155896664
 20
33.5591895136
 10
275.4403108249
 20
33.5532011871
 10
275.8425380768
 20
33.4546493314
 10
276.1832903217
 20
33.2386829567
 10
276.4502518858
 20
32.9131076506
 10
276.6337740826
 20
32.4896905528
 10
276.7272239417
 20
31.9837350606
 10
276.7272239417
 20
31.4135277236
 10
276.6337740826
 20
30.7996773206
 10
276.4502518858
 20
30.1643700047
 10
276.1832903217
 20
29.5305674374
 10
275.8425380768
 20
28.921176895
 10
275.4403108249
 20
28.3582233393
 10
274.991146107
 20
27.8620533787
 10
274.5112779063
 20
27.4505998882
 10
274.0180499098
 20
27.138733869
 10
273.5292886625
 20
26.9377269717
 10
273.0626592691
 20
26.8548441093
 10
272.6350269319
 20
26.8930808842
 10
272.2618473977
 20
27.0510553199
 10
271.9566083471
 20
27.3230578086
 10
271.7303419147
 20
27.6992574718
 10
271.6693117177
 20
27.8594164363
  0
LINE
  5
18B
330
1F
100
AcDbEntity
  8
0
  6
Continuous
 62
     7
370
    15
100
AcDbLine
 10
272.197093066
 20
25.9193468573
 30
0.0
 11
273.4400759542
 21
26.636905605
 31
0.0
  0
LINE
  5
18C
330
1F
100
AcDbEntity
  8
0
  6
Continuous
 62
     7
370
    15
100
AcDbLine
 10
277.0383521056
 20
33.8615262249
 30
0.0
 11
277.0401193512
 21
33.9818612853
 31
0.0
  0
ARC
  5
18D
330
1F
100
AcDbEntity
  8
0
  6
Continuous
 62
     7
370
    15
100
AcDbCircle
 10
273.1756040919
 20
31.878241858
 30
0.0
 40
4.34214683048799
100
AcDbArc
 50
332.8222804837
 51
27.1777195163
  0
ARC
  5
18E
330
1F
100
AcDbEntity
  8
0
  6
Continuous
 62
     7
370
    15
100
AcDbCircle
 10
274.9888826661
 20
29.8954408522
 30
0.0
 40
2.049469496522319
100
AcDbArc
 50
302.3714306933
 51
359.986486965
  0
LINE
  5
18F
330
1F
100
AcDbEntity
  8
0
  6
Continuous
 62
     7
370
    15
100
AcDbLine
 10
274.8431974743
 20
27.4469104171
 30
0.0
 11
276.0861803625
 21
28.1644691648
 31
0.0
  0
ARC
  5
190
330
1F
100
AcDbEntity
  8
0
  6
Continuous
 62
     7
370
    15
100
AcDbCircle
 10
272.3153439889
 20
30.2054825807
 30
0.0
 40
3.741625799717232
100
AcDbArc
 50
287.4936320258
 51
312.5009914415
  0
LINE
  5
191
330
1F
100
AcDbEntity
  8
0
  6
Continuous
 62
     7
370
    15
100
AcDbLine
 10
276.6079372399
 20
33.8141745568
 30
0.0
 11
276.7980712002
 21
33.9239365557
 31
0.0
  0
ARC
  5
192
330
1F
100
AcDbEntity
  8
0
  6
Continuous
 62
     7
370
    15
100
AcDbCircle
 10
276.8164416873
 20
29.7167073912
 30
0.0
 40
4.102768733146561
100
AcDbArc
 50
92.9130506693
 51
147.081572798
  0
LINE
  5
193
330
1F
100
AcDbEntity
  8
0
  6
Continuous
 62
     7
370
    15
100
AcDbLine
 10
273.1822585032
 20
31.8365723165
 30
0.0
 11
273.3723924635
 21
31.9463343154
 31
0.0
  0
SPLINE
  5
194
330
1F
100
AcDbEntity
  8
0
  6
Continuous
 62
     7
370
    15
100
AcDbSpline
210
0.0
220
0.0
230
1.0
 70
     8
 71
     3
 72
     9
 73
     5
 74
     0
 42
0.000000001
 43
0.00000001
 40
0.0
 40
0.0
 40
0.0
 40
0.0
 40
0.2251343464365592
 40
1.0
 40
1.0
 40
1.0
 40
1.0
 10
275.6181266437821
 20
33.72592712187061
 30
0.0
 10
275.6903959690308
 20
33.73840136574697
 30
0.0
 10
276.0114012993705
 20
33.79380936578694
 30
0.0
 10
276.3475033245088
 20
33.8052835812732
 30
0.0
 10
276.6079372398814
 20
33.81417455675509
 30
0.0
  0
LWPOLYLINE
  5
195
330
1F
100
AcDbEntity
  8
0
  6
Continuous
 62
     7
370
    15
100
AcDbPolyline
 90
       21
 70
   128
 43
0.0
 10
275.2173995481
 20
33.512390803
 10
275.3044708571
 20
33.4984670055
 10
275.6795046799
 20
33.3595537783
 10
275.9872869841
 20
33.1041575042
 10
276.2159898684
 20
32.7420929191
 10
276.3568244092
 20
32.2872739617
 10
276.4043784141
 20
31.7571790696
 10
276.3568244092
 20
31.1721794922
 10
276.2159898684
 20
30.5547564352
 10
275.9872869841
 20
29.9286371203
 10
275.6795046799
 20
29.3178829619
 10
275.3044708571
 20
28.7459648995
 10
274.8765978552
 20
28.2348614237
 10
274.4123285937
 20
27.8042139544
 10
273.9295046799
 20
27.4705720323
 10
273.4466807662
 20
27.2467573294
 10
272.9824115047
 20
27.1413709192
 10
272.5545385027
 20
27.1584627423
 10
272.1795046799
 20
27.2973759696
 10
271.8717223757
 20
27.5527722436
 10
271.6637585499
 20
27.8706937914
  0
ARC
  5
196
330
1F
100
AcDbEntity
  8
0
  6
Continuous
 62
     7
370
    15
100
AcDbCircle
 10
260.5356906903
 20
50.0362188625
 30
0.0
 40
5.376682562944743
100
AcDbArc
 50
41.4054102337
 51
78.4182419868
  0
ARC
  5
197
330
1F
100
AcDbEntity
  8
0
  6
Continuous
 62
     7
370
    15
100
AcDbCircle
 10
250.1620860511
 20
32.0671116416
 30
0.0
 40
5.371275591629266
100
AcDbArc
 50
222.0256779392
 51
257.6810409929
  0
ARC
  5
198
330
1F
100
AcDbEntity
  8
0
  6
Continuous
 62
     7
370
    15
100
AcDbCircle
 10
249.6697984512
 20
34.0408222503
 30
0.0
 40
6.846372169707832
100
AcDbArc
 50
188.1451008321
 51
236.8813839028
  0
SPLINE
  5
199
330
1F
100
AcDbEntity
  8
0
  6
Continuous
 62
     7
370
    15
100
AcDbSpline
210
0.0
220
0.0
230
1.0
 70
     8
 71
     3
 72
    29
 73
    25
 74
     0
 42
0.000000001
 43
0.00000001
 40
0.0
 40
0.0
 40
0.0
 40
0.0
 40
0.0226170105016674
 40
0.0451713142211041
 40
0.0676870228449807
 40
0.090188372120831
 40
0.1126996441629423
 40
0.1352450890127045
 40
0.1578488467149011
 40
0.1805348711521328
 40
0.2033268568146046
 40
0.2262481695760157
 40
0.2493217824052029
 40
0.3751991801868492
 40
0.499961424646005
 40
0.4999717960761217
 40
0.6247044141102638
 40
0.7509557879397657
 40
0.7931713871186022
 40
0.8349081045046313
 40
0.8763104515914815
 40
0.9175264576320521
 40
0.9587061619408423
 40
1.0
 40
1.0
 40
1.0
 40
1.0
 10
242.8926508193038
 20
38.22507820882426
 30
0.0
 10
242.911016044426
 20
38.17623831902583
 30
0.0
 10
242.9476955761737
 20
38.07869395044331
 30
0.0
 10
242.9993854048368
 20
37.93123134104579
 30
0.0
 10
243.0485667646579
 20
37.7832940515285
 30
0.0
 10
243.0950564345559
 20
37.63480218629953
 30
0.0
 10
243.1389665310144
 20
37.48581022016835
 30
0.0
 10
243.1803317224698
 20
37.33633843159019
 30
0.0
 10
243.219209009175
 20
37.18641832828024
 30
0.0
 10
243.2556508541984
 20
37.03607951829661
 30
0.0
 10
243.2897128352871
 20
36.88535706666804
 30
0.0
 10
243.3214498883867
 20
36.73427536992779
 30
0.0
 10
243.3946081602612
 20
36.35855416297628
 30
0.0
 10
243.4802847003005
 20
35.7697837412598
 30
0.0
 10
243.5060170621174
 20
35.26830013725339
 30
0.0
 10
243.5064542183525
 20
34.79784731200966
 30
0.0
 10
243.481023161633
 20
34.35140478212202
 30
0.0
 10
243.389055845595
 20
33.91537811063226
 30
0.0
 10
243.2965019515498
 20
33.6471852280097
 30
0.0
 10
243.232919327661
 20
33.50093411717522
 30
0.0
 10
243.1612738236254
 20
33.37001378532935
 30
0.0
 10
243.0810190493128
 20
33.25456745287874
 30
0.0
 10
242.9926173897188
 20
33.15304544843379
 30
0.0
 10
242.9262607358069
 20
33.09804657147122
 30
0.0
 10
242.8930364939215
 20
33.07050907697879
 30
0.0
  0
LWPOLYLINE
  5
19A
330
1F
100
AcDbEntity
  8
0
  6
Continuous
 62
     7
370
    15
100
AcDbPolyline
 90
       25
 70
   128
 43
0.0
 10
242.8924320781
 20
38.2252044854
 10
243.1412465263
 20
39.506487922
 10
243.4788173442
 20
40.8080868602
 10
243.902334467
 20
42.1191663077
 10
244.4082723811
 20
43.4288123526
 10
244.9924194717
 20
44.7261230154
 10
245.6499130817
 20
46.000299001
 10
246.3752799902
 20
47.2407335957
 10
247.1624819741
 20
48.4371009616
 10
248.004966072
 20
49.5794420932
 10
248.8957191337
 20
50.6582477189
 10
249.8273262002
 20
51.6645374605
 10
250.7920322288
 20
52.5899345888
 10
251.7818066486
 20
53.426735755
 10
252.78841021
 20
54.1679751156
 10
253.8034635716
 20
54.8074823191
 10
254.8185170527
 20
55.3399338705
 10
255.8251209715
 20
55.7608974453
 10
256.8148959835
 20
56.0668687867
 10
257.7796028343
 20
56.2553008757
 10
258.7112109463
 20
56.3246251337
 10
259.6019652678
 20
56.2742644799
 10
260.4444508295
 20
56.1046381349
 10
261.231654469
 20
55.8171581315
 10
261.6778379399
 20
55.5872423978
  0
LINE
  5
19B
330
1F
100
AcDbEntity
  8
0
  6
Continuous
 62
     7
370
    15
100
AcDbLine
 10
277.0383521056
 20
33.8615262249
 30
0.0
 11
277.926452395
 21
33.3488368407
 31
0.0
  0
LINE
  5
19C
330
1F
100
AcDbEntity
  8
0
  6
Continuous
 62
     7
370
    15
100
AcDbLine
 10
273.4400759542
 20
26.636905605
 30
0.0
 11
273.676231656
 21
26.5005758203
 31
0.0
  0
SPLINE
  5
19D
330
1F
100
AcDbEntity
  8
0
  6
Continuous
 62
     7
370
    15
100
AcDbSpline
210
0.0
220
0.0
230
1.0
 70
     8
 71
     3
 72
    10
 73
     6
 74
     0
 42
0.000000001
 43
0.00000001
 40
0.0
 40
0.0
 40
0.0
 40
0.0
 40
0.5
 40
0.5
 40
1.0
 40
1.0
 40
1.0
 40
1.0
 10
273.6762316559725
 20
26.50057582029144
 30
0.0
 10
273.5795515258637
 20
26.36068729003249
 30
0.0
 10
273.5128728196601
 20
26.21506185684846
 30
0.0
 10
273.4169353246609
 20
25.91665551564979
 30
0.0
 10
273.3888056287806
 20
25.76738509331273
 30
0.0
 10
273.3723924634953
 20
25.61814302333021
 30
0.0
  0
LINE
  5
19E
330
1F
100
AcDbEntity
  8
0
  6
Continuous
 62
     7
370
    15
100
AcDbLine
 10
273.3723924635
 20
25.6181430233
 30
0.0
 11
273.1822585032
 21
25.5083810244
 31
0.0
  0
ARC
  5
19F
330
1F
100
AcDbEntity
  8
0
  6
Continuous
 62
     7
370
    15
100
AcDbCircle
 10
273.163888016
 20
29.7156101889
 30
0.0
 40
4.102768733146558
100
AcDbArc
 50
272.9130506693
 51
327.081572798
  0
LINE
  5
1A0
330
1F
100
AcDbEntity
  8
0
  6
Continuous
 62
     7
370
    15
100
AcDbLine
 10
276.7980712002
 20
27.5957452636
 30
0.0
 11
276.6079372399
 21
27.4859832646
 31
0.0
  0
ARC
  5
1A1
330
1F
100
AcDbEntity
  8
0
  6
Continuous
 62
     7
370
    15
100
AcDbCircle
 10
272.5514996907
 20
30.069152796
 30
0.0
 40
3.741625799718005
100
AcDbArc
 50
287.4936320258
 51
312.5009914415
  0
SPLINE
  5
1A2
330
1F
100
AcDbEntity
  8
0
  6
Continuous
 62
     7
370
    15
100
AcDbSpline
210
0.0
220
0.0
230
1.0
 70
     8
 71
     3
 72
    10
 73
     6
 74
     0
 42
0.000000001
 43
0.00000001
 40
0.0
 40
0.0
 40
0.0
 40
0.0
 40
0.5
 40
0.5
 40
1.0
 40
1.0
 40
1.0
 40
1.0
 10
276.6079372398814
 20
27.48598326464052
 30
0.0
 10
276.3487701278809
 20
27.47648453350678
 30
0.0
 10
276.0883647605709
 20
27.46002692254117
 30
0.0
 10
275.5748728546038
 20
27.40496330879887
 30
0.0
 10
275.3230297254417
 20
27.3667052612048
 30
0.0
 10
275.0793531760127
 20
27.31058063237345
 30
0.0
  0
LINE
  5
1A3
330
1F
100
AcDbEntity
  8
0
  6
Continuous
 62
     7
370
    15
100
AcDbLine
 10
277.0383521056
 20
29.8949574911
 30
0.0
 11
277.926452395
 21
29.382268107
 31
0.0
  0
SPLINE
  5
1A4
330
1F
100
AcDbEntity
  8
0
  6
Continuous
 62
     7
370
    15
100
AcDbSpline
210
0.0
220
0.0
230
1.0
 70
     8
 71
     3
 72
     8
 73
     4
 74
     0
 42
0.000000001
 43
0.00000001
 40
0.0
 40
0.0
 40
0.0
 40
0.0
 40
1.0
 40
1.0
 40
1.0
 40
1.0
 10
242.1144956811288
 20
41.50398161232862
 30
0.0
 10
241.4214244460759
 20
41.3881199939539
 30
0.0
 10
240.7278036796797
 20
41.27336130080084
 30
0.0
 10
240.0338245188523
 20
41.15934975316268
 30
0.0
  0
SPLINE
  5
1A5
330
1F
100
AcDbEntity
  8
0
  6
Continuous
 62
     7
370
    15
100
AcDbSpline
210
0.0
220
0.0
230
1.0
 70
     8
 71
     3
 72
     8
 73
     4
 74
     0
 42
0.000000001
 43
0.00000001
 40
0.0
 40
0.0
 40
0.0
 40
0.0
 40
0.0012389803509652
 40
0.0012389803509652
 40
0.0012389803509652
 40
0.0012389803509652
 10
239.5600881047068
 20
41.43288387391669
 30
0.0
 10
239.7181614396878
 20
41.34161279346618
 30
0.0
 10
239.8760796186538
 20
41.25043126636594
 30
0.0
 10
240.0338245188523
 20
41.15934975316268
 30
0.0
  0
LWPOLYLINE
  5
1A6
330
1F
100
AcDbEntity
  8
0
  6
Continuous
 62
     7
370
    15
100
AcDbPolyline
 90
       27
 70
   128
 43
0.0
 10
239.5600881047
 20
41.4328838739
 10
239.8917704844
 20
42.7420122148
 10
240.3108742057
 20
44.0617422362
 10
240.8138622096
 20
45.3809359727
 10
241.3964894892
 20
46.6884599848
 10
242.0538389159
 20
47.9732793208
 10
242.7803627372
 20
49.2245506465
 10
243.5699293983
 20
50.4317137592
 10
244.4158752891
 20
51.5845807107
 10
245.3110609827
 20
52.6734217895
 10
246.2479314888
 20
53.6890476357
 10
247.2185800151
 20
54.622886795
 10
248.214814697
 20
55.4670580581
 10
249.2282277333
 20
56.2144369754
 10
250.2502663449
 20
56.8587159834
 10
251.2723049566
 20
57.3944576389
 10
252.2857179929
 20
57.817140508
 10
253.2819526747
 20
58.1231973252
 10
254.2526012011
 20
58.3100450999
 10
255.1894717072
 20
58.3761069157
 10
256.0846574007
 20
58.3208252387
 10
256.9306032915
 20
58.1446666229
 10
257.7201699526
 20
57.8491177729
 10
258.446693774
 20
57.4366729963
 10
259.1040432006
 20
56.9108131535
 10
259.6866704803
 20
56.2759762799
 10
259.698263363
 20
56.2612647376
  0
LINE
  5
1A7
330
1F
100
AcDbEntity
  8
0
  6
Continuous
 62
     7
370
    15
100
AcDbLine
 10
275.079353176
 20
27.3105806324
 30
0.0
 11
274.8431974743
 21
27.4469104171
 31
0.0
  0
LINE
  5
1A8
330
1F
100
AcDbEntity
  8
0
  6
Continuous
 62
     7
370
    15
100
AcDbLine
 10
236.5283677804
 20
43.1830587636
 30
0.0
 11
239.5600881047
 21
41.4328838739
 31
0.0
  0
ARC
  5
1A9
330
1F
100
AcDbEntity
  8
0
  6
Continuous
 62
     7
370
    15
100
AcDbCircle
 10
252.397897769
 20
54.6968011379
 30
0.0
 40
5.410771343314526
100
AcDbArc
 50
60.1268073341
 51
77.7162070321
  0
LINE
  5
1AA
330
1F
100
AcDbEntity
  8
0
  6
Continuous
 62
     7
370
    15
100
AcDbLine
 10
242.5170910836
 20
41.4428192216
 30
0.0
 11
242.5077684327
 21
41.4482010734
 31
0.0
  0
SPLINE
  5
1AB
330
1F
100
AcDbEntity
  8
0
  6
Continuous
 62
     7
370
    15
100
AcDbSpline
210
0.0
220
0.0
230
1.0
 70
     8
 71
     3
 72
    10
 73
     6
 74
     0
 42
0.000000001
 43
0.00000001
 40
0.0
 40
0.0
 40
0.0
 40
0.0
 40
0.2444764350225635
 40
0.7144955549916258
 40
1.0
 40
1.0
 40
1.0
 40
1.0
 10
243.4381288556942
 20
40.63588203550396
 30
0.0
 10
243.3710246533535
 20
40.7184721136565
 30
0.0
 10
243.1749090060959
 20
40.95984606743224
 30
0.0
 10
242.8606655367669
 20
41.22694407211429
 30
0.0
 10
242.6113172068362
 20
41.38361494068887
 30
0.0
 10
242.5170910835878
 20
41.44281922160722
 30
0.0
  0
SPLINE
  5
1AC
330
1F
100
AcDbEntity
  8
0
  6
Continuous
 62
     7
370
    15
100
AcDbSpline
210
0.0
220
0.0
230
1.0
 70
     8
 71
     3
 72
    10
 73
     6
 74
     0
 42
0.000000001
 43
0.00000001
 40
0.0
 40
0.0
 40
0.0
 40
0.0
 40
0.5
 40
0.5
 40
1.0
 40
1.0
 40
1.0
 40
1.0
 10
242.5077684326807
 20
41.44820107341995
 30
0.0
 10
242.4579678338679
 20
41.47695034716907
 30
0.0
 10
242.392935917124
 20
41.49771369252974
 30
0.0
 10
242.2558775567786
 20
41.51666738191752
 30
0.0
 10
242.1823387167288
 20
41.51532302068971
 30
0.0
 10
242.1144956811288
 20
41.50398161232862
 30
0.0
  0
SPLINE
  5
1AD
330
1F
100
AcDbEntity
  8
0
  6
Continuous
 62
     7
370
    15
100
AcDbSpline
210
0.0
220
0.0
230
1.0
 70
     8
 71
     3
 72
     8
 73
     4
 74
     0
 42
0.000000001
 43
0.00000001
 40
0.0
 40
0.0
 40
0.0
 40
0.0
 40
1.0
 40
1.0
 40
1.0
 40
1.0
 10
236.3715431728084
 20
43.27358044282547
 30
0.0
 10
236.3939219693278
 20
43.26066849137363
 30
0.0
 10
236.4481094003451
 20
43.22939094021661
 30
0.0
 10
236.5283677803695
 20
43.18305876363662
 30
0.0
  0
LINE
  5
1AE
330
1F
100
AcDbEntity
  8
0
  6
Continuous
 62
     7
370
    15
100
AcDbLine
 10
236.3715431728
 20
43.2735804428
 30
0.0
 11
236.3953949888
 21
43.4245630208
 31
0.0
  0
SPLINE
  5
1AF
330
1F
100
AcDbEntity
  8
0
  6
Continuous
 62
     7
370
    15
100
AcDbSpline
210
0.0
220
0.0
230
1.0
 70
     8
 71
     3
 72
    11
 73
     7
 74
     0
 42
0.000000001
 43
0.00000001
 40
0.0
 40
0.0
 40
0.0
 40
0.0
 40
0.3105157409986112
 40
0.591593346501484
 40
0.8435752121776454
 40
1.0
 40
1.0
 40
1.0
 40
1.0
 10
243.0010761685876
 20
33.7966378157393
 30
0.0
 10
243.09207552704
 20
33.88810724732706
 30
0.0
 10
243.2654471404186
 20
34.06237444216095
 30
0.0
 10
243.4157366253903
 20
34.48090156457229
 30
0.0
 10
243.4898155582236
 20
34.8920367640041
 30
0.0
 10
243.4973567018897
 20
35.18677452166343
 30
0.0
 10
243.5002450529678
 20
35.29966271976245
 30
0.0
  0
SPLINE
  5
1B0
330
1F
100
AcDbEntity
  8
0
  6
Continuous
 62
     7
370
    15
100
AcDbSpline
210
0.0
220
0.0
230
1.0
 70
     8
 71
     3
 72
     9
 73
     5
 74
     0
 42
0.000000001
 43
0.00000001
 40
0.0
 40
0.0
 40
0.0
 40
0.0
 40
0.5067661695379747
 40
1.0
 40
1.0
 40
1.0
 40
1.0
 10
242.8923547041151
 20
33.07000704919515
 30
0.0
 10
242.9106237214266
 20
33.19246140302515
 30
0.0
 10
242.9466739126382
 20
33.43410017291706
 30
0.0
 10
242.983354652075
 20
33.67625057104624
 30
0.0
 10
243.0014468336916
 20
33.79568733946339
 30
0.0
  0
SPLINE
  5
1B1
330
1F
100
AcDbEntity
  8
0
  6
Continuous
 62
     7
370
    15
100
AcDbSpline
210
0.0
220
0.0
230
1.0
 70
     8
 71
     3
 72
    10
 73
     6
 74
     0
 42
0.000000001
 43
0.00000001
 40
0.0
 40
0.0
 40
0.0
 40
0.0
 40
0.4807908150150783
 40
0.9757817590329645
 40
1.0
 40
1.0
 40
1.0
 40
1.0
 10
242.5170910835878
 20
34.86966568592693
 30
0.0
 10
242.6668820304881
 20
34.7894953105649
 30
0.0
 10
242.9708879912695
 20
34.62678673242652
 30
0.0
 10
243.2605034354681
 20
34.51528530170507
 30
0.0
 10
243.3948418661468
 20
34.48705368422578
 30
0.0
 10
243.4011080120074
 20
34.48573683518924
 30
0.0
  0
LINE
  5
1B2
330
1F
100
AcDbEntity
  8
0
  6
Continuous
 62
     7
370
    15
100
AcDbLine
 10
236.8049764203
 20
43.0233240846
 30
0.0
 11
236.3715431728
 21
43.2735804428
 31
0.0
  0
LINE
  5
1B3
330
1F
100
AcDbEntity
  8
0
  6
Continuous
 62
     7
370
    15
100
AcDbLine
 10
240.0338245189
 20
41.1593497532
 30
0.0
 11
236.8049764203
 21
43.0233240846
 31
0.0
  0
SPLINE
  5
1B4
330
1F
100
AcDbEntity
  8
0
  6
Continuous
 62
     7
370
    15
100
AcDbSpline
210
0.0
220
0.0
230
1.0
 70
     8
 71
     3
 72
    11
 73
     7
 74
     0
 42
0.000000001
 43
0.00000001
 40
0.0
 40
0.0
 40
0.0
 40
0.0
 40
0.2152072244550657
 40
0.5222253985862596
 40
0.8292810267361476
 40
1.0
 40
1.0
 40
1.0
 40
1.0
 10
238.9100413416448
 20
39.00949813884073
 30
0.0
 10
238.9053267167131
 20
39.21588802771219
 30
0.0
 10
238.8938861301325
 20
39.71671713441615
 30
0.0
 10
238.8286307821272
 20
40.53555116260542
 30
0.0
 10
238.7878560162298
 20
41.30187423507999
 30
0.0
 10
238.8095781660271
 20
41.74105642982108
 30
0.0
 10
238.8173399497207
 20
41.89798551968921
 30
0.0
  0
LINE
  5
1B5
330
1F
100
AcDbEntity
  8
0
  6
Continuous
 62
     7
370
    15
100
AcDbLine
 10
238.9100413416
 20
38.5891427835
 30
0.0
 11
238.9100413416
 21
39.0094981388
 31
0.0
  0
LINE
  5
1B6
330
1F
100
AcDbEntity
  8
0
  6
Continuous
 62
     7
370
    15
100
AcDbLine
 10
238.3001617429
 20
41.8245115985
 30
0.0
 11
238.3053496376
 21
42.1571770628
 31
0.0
  0
ARC
  5
1B7
330
1F
100
AcDbEntity
  8
0
  6
Continuous
 62
     7
370
    15
100
AcDbCircle
 10
245.8096927903
 20
41.6416898987
 30
0.0
 40
7.5117561412465
100
AcDbArc
 50
178.605393199
 51
203.2902367261
  0
LINE
  5
1B8
330
1F
100
AcDbEntity
  8
0
  6
Continuous
 62
     7
370
    15
100
AcDbLine
 10
219.8219389512
 20
54.2065598949
 30
0.0
 11
219.7547310996
 21
54.2656763433
 31
0.0
  0
LINE
  5
1B9
330
1F
100
AcDbEntity
  8
0
  6
Continuous
 62
     7
370
    15
100
AcDbLine
 10
242.5077684327
 20
34.8750475377
 30
0.0
 11
242.5170910836
 21
34.8696656859
 31
0.0
  0
ARC
  5
1BA
330
1F
100
AcDbEntity
  8
0
  6
Continuous
 62
     7
370
    15
100
AcDbCircle
 10
245.3236730481
 20
35.5099931479
 30
0.0
 40
5.905987156636471
100
AcDbArc
 50
192.6074210807
 51
260.5646855677
  0
SPLINE
  5
1BB
330
1F
100
AcDbEntity
  8
0
  6
Continuous
 62
     7
370
    15
100
AcDbSpline
210
0.0
220
0.0
230
1.0
 70
     8
 71
     3
 72
     8
 73
     4
 74
     0
 42
0.000000001
 43
0.00000001
 40
0.0
 40
0.0
 40
0.0
 40
0.0
 40
0.0012389803509652
 40
0.0012389803509652
 40
0.0012389803509652
 40
0.0012389803509652
 10
240.0338245188523
 20
34.5861962174824
 30
0.0
 10
239.8760796186538
 20
34.46411976694768
 30
0.0
 10
239.7181614396878
 20
34.34236246394687
 30
0.0
 10
239.5600881047068
 20
34.22089544240244
 30
0.0
  0
SPLINE
  5
1BC
330
1F
100
AcDbEntity
  8
0
  6
Continuous
 62
     7
370
    15
100
AcDbSpline
210
0.0
220
0.0
230
1.0
 70
     8
 71
     3
 72
     8
 73
     4
 74
     0
 42
0.000000001
 43
0.00000001
 40
0.0
 40
0.0
 40
0.0
 40
0.0
 40
1.0
 40
1.0
 40
1.0
 40
1.0
 10
240.0338245188523
 20
34.5861962174824
 30
0.0
 10
240.7278051017939
 20
34.700207998755
 30
0.0
 10
241.4214381625559
 20
34.81496875127538
 30
0.0
 10
242.1144956811288
 20
34.93082807664833
 30
0.0
  0
SPLINE
  5
1BD
330
1F
100
AcDbEntity
  8
0
  6
Continuous
 62
     7
370
    15
100
AcDbSpline
210
0.0
220
0.0
230
1.0
 70
     8
 71
     3
 72
    12
 73
     8
 74
     0
 42
0.000000001
 43
0.00000001
 40
0.0
 40
0.0
 40
0.0
 40
0.0
 40
0.2499999999999984
 40
0.2499999999999984
 40
0.4999999999999968
 40
0.4999999999999968
 40
1.0
 40
1.0
 40
1.0
 40
1.0
 10
242.1144956811288
 20
34.93082807664833
 30
0.0
 10
242.1482841970529
 20
34.93647654673258
 30
0.0
 10
242.1838559731218
 20
34.93973701024802
 30
0.0
 10
242.2544382195143
 20
34.94087459979614
 30
0.0
 10
242.2894611779631
 20
34.93885798333812
 30
0.0
 10
242.3936664732282
 20
34.92448224599852
 30
0.0
 10
242.4573769051678
 20
34.90413794736612
 30
0.0
 10
242.5077684326807
 20
34.87504753773967
 30
0.0
  0
LINE
  5
1BE
330
1F
100
AcDbEntity
  8
0
  6
Continuous
 62
     7
370
    15
100
AcDbLine
 10
236.8049764203
 20
36.4501705489
 30
0.0
 11
240.0338245189
 21
34.5861962175
 31
0.0
  0
LINE
  5
1BF
330
1F
100
AcDbEntity
  8
0
  6
Continuous
 62
     7
370
    15
100
AcDbLine
 10
236.8049764203
 20
36.4501705489
 30
0.0
 11
238.6979093073
 21
37.5429374444
 31
0.0
  0
LINE
  5
1C0
330
1F
100
AcDbEntity
  8
0
  6
Continuous
 62
     7
370
    15
100
AcDbLine
 10
236.3715431728
 20
36.1999141908
 30
0.0
 11
236.8049764203
 21
36.4501705489
 31
0.0
  0
LINE
  5
1C1
330
1F
100
AcDbEntity
  8
0
  6
Continuous
 62
     7
370
    15
100
AcDbLine
 10
239.5600881047
 20
34.2208954424
 30
0.0
 11
236.5283677804
 21
35.9710703321
 31
0.0
  0
SPLINE
  5
1C2
330
1F
100
AcDbEntity
  8
0
  6
Continuous
 62
     7
370
    15
100
AcDbSpline
210
0.0
220
0.0
230
1.0
 70
     8
 71
     3
 72
     8
 73
     4
 74
     0
 42
0.000000001
 43
0.00000001
 40
0.0
 40
0.0
 40
0.0
 40
0.0
 40
1.0
 40
1.0
 40
1.0
 40
1.0
 10
236.5283677803695
 20
35.97107033212237
 30
0.0
 10
236.4483429808548
 20
36.01726766554432
 30
0.0
 10
236.3938661834729
 20
36.10045518790903
 30
0.0
 10
236.3715431728084
 20
36.19991419075014
 30
0.0
  0
ARC
  5
1C3
330
1F
100
AcDbEntity
  8
0
  6
Continuous
 62
     7
370
    15
100
AcDbCircle
 10
242.0558388054
 20
36.7839838709
 30
0.0
 40
5.405267629044863
100
AcDbArc
 50
222.0787395183
 51
239.8895477128
  0
ELLIPSE
  5
1C4
330
1F
100
AcDbEntity
  8
0
  6
Continuous
 62
     7
370
    15
100
AcDbEllipse
 10
238.4635947322
 20
38.3314370188
 30
0.0
 11
-6.005970382716441E-5
 21
0.8534489614827264
 31
0.0
210
0.0
220
0.0
230
1.0
 40
0.7174342186
 41
3.534193645557514
 42
5.104989972352368
  0
ELLIPSE
  5
1C5
330
1F
100
AcDbEntity
  8
0
  6
Continuous
 62
     7
370
    15
100
AcDbEllipse
 10
238.3443559167
 20
38.2625795387
 30
0.0
 11
0.2600075789209199
 21
0.9705436209909377
 31
0.0
210
0.0
220
0.0
230
1.0
 40
0.5176380889
 41
3.619174351347714
 42
5.189970678142607
  0
LWPOLYLINE
  5
1C6
330
1F
100
AcDbEntity
  8
0
  6
Continuous
 62
     7
370
    15
100
AcDbPolyline
 90
       20
 70
   128
 43
0.0
 10
271.6667629801
 20
35.6767673817
 10
271.4180935192
 20
35.8778270223
 10
271.295985042
 20
36.1146045475
 10
271.3136698967
 20
36.3614414384
 10
271.469231655
 20
36.5915890879
 10
271.7458127864
 20
36.780107427
 10
272.1134414339
 20
36.9065675686
 10
272.5322793291
 20
36.957265594
 10
272.9569388872
 20
36.9267075855
 10
273.3414016557
 20
36.8182049776
 10
273.6440051281
 20
36.6435157113
 10
273.8319575228
 20
36.4215700793
 10
273.8848912816
 20
36.1764193346
 10
273.7970702101
 20
35.9346293644
 10
273.5780110843
 20
35.7224018636
 10
273.2514523595
 20
35.562734975
 10
272.8527817405
 20
35.4729310835
 10
272.425201375
 20
35.4627218342
 10
272.0150462302
 20
35.5332135576
 10
271.6667629801
 20
35.6767673817
  0
LWPOLYLINE
  5
1C7
330
1F
100
AcDbEntity
  8
0
  6
Continuous
 62
     7
370
    15
100
AcDbPolyline
 90
        7
 70
   128
 43
0.0
 10
271.5253416239
 20
35.4318184082
 10
271.2598287054
 20
35.639501836
 10
271.1121520858
 20
35.8831377625
 10
271.0954334808
 20
36.1410780664
 10
271.2111584118
 20
36.3904036198
 10
271.4490442109
 20
36.608960753
 10
271.5251692788
 20
36.656331067
  0
LWPOLYLINE
  5
1C8
330
1F
100
AcDbEntity
  8
0
  6
Continuous
 62
     7
370
    15
100
AcDbPolyline
 90
       12
 70
   128
 43
0.0
 10
273.6468343125
 20
36.656331067
 10
273.7928984653
 20
36.5583321365
 10
274.0018267911
 20
36.3301235581
 10
274.0849528528
 20
36.0765027075
 10
274.0348905351
 20
35.8200049105
 10
273.8560880945
 20
35.5834211217
 10
273.5644329126
 20
35.3877728492
 10
273.1858398321
 20
35.2504443005
 10
272.7539485098
 20
35.1836377199
 10
272.3071343849
 20
35.1932891651
 10
271.8850988532
 20
35.2785410629
 10
271.5253416239
 20
35.4318184082
  0
LWPOLYLINE
  5
1C9
330
1F
100
AcDbEntity
  8
0
  6
Continuous
 62
     7
370
    15
100
AcDbPolyline
 90
       17
 70
   128
 43
0.0
 10
271.9672833621
 20
35.8502541055
 10
271.7776072047
 20
36.0141290167
 10
271.7110017957
 20
36.2074326544
 10
271.7776072047
 20
36.4007362922
 10
271.9672833621
 20
36.5646112033
 10
272.2511537923
 20
36.6741089183
 10
272.5860017957
 20
36.7125594025
 10
272.920849799
 20
36.6741089183
 10
273.2047202292
 20
36.5646112033
 10
273.3943963866
 20
36.4007362922
 10
273.4610017957
 20
36.2074326544
 10
273.3943963866
 20
36.0141290167
 10
273.2047202292
 20
35.8502541055
 10
272.920849799
 20
35.7407563906
 10
272.5860017957
 20
35.7023059064
 10
272.2511537923
 20
35.7407563906
 10
271.9672833621
 20
35.8502541055
  0
SPLINE
  5
1CA
330
1F
100
AcDbEntity
  8
0
  6
Continuous
 62
     7
370
    15
100
AcDbSpline
210
0.0
220
0.0
230
1.0
 70
     8
 71
     3
 72
     9
 73
     5
 74
     0
 42
0.000000001
 43
0.00000001
 40
0.0
 40
0.0
 40
0.0
 40
0.0
 40
0.6311775999676602
 40
1.0
 40
1.0
 40
1.0
 40
1.0
 10
272.0557559688519
 20
35.8014735643678
 30
0.0
 10
271.9882720467756
 20
35.84794102995569
 30
0.0
 10
271.8813545609844
 20
35.92156130036813
 30
0.0
 10
271.7850169578994
 20
36.03052191440787
 30
0.0
 10
271.7494854919163
 20
36.07070902958701
 30
0.0
  0
SPLINE
  5
1CB
330
1F
100
AcDbEntity
  8
0
  6
Continuous
 62
     7
370
    15
100
AcDbSpline
210
0.0
220
0.0
230
1.0
 70
     8
 71
     3
 72
    10
 73
     6
 74
     0
 42
0.000000001
 43
0.00000001
 40
0.0
 40
0.0
 40
0.0
 40
0.0
 40
0.4391165375904044
 40
0.7513669429073322
 40
1.0
 40
1.0
 40
1.0
 40
1.0
 10
273.4225180993919
 20
36.32950003110697
 30
0.0
 10
273.3904301767082
 20
36.21842418606123
 30
0.0
 10
273.3355249242131
 20
36.02836366458595
 30
0.0
 10
273.2557104423369
 20
35.8883067829933
 30
0.0
 10
273.2159843443944
 20
35.85940241510223
 30
0.0
 10
273.1983742313499
 20
35.84658944799991
 30
0.0
  0
SPLINE
  5
1CC
330
1F
100
AcDbEntity
  8
0
  6
Continuous
 62
     7
370
    15
100
AcDbSpline
210
0.0
220
0.0
230
1.0
 70
     8
 71
     3
 72
    11
 73
     7
 74
     0
 42
0.000000001
 43
0.00000001
 40
0.0
 40
0.0
 40
0.0
 40
0.0
 40
0.1843643438496321
 40
0.5174526391740295
 40
0.8663352079125959
 40
0.9999999999999999
 40
0.9999999999999999
 40
0.9999999999999999
 40
0.9999999999999999
 10
272.8101456636961
 20
36.68301511345405
 30
0.0
 10
272.8456807947726
 20
36.64344815717246
 30
0.0
 10
272.9454167142842
 20
36.53239617431897
 30
0.0
 10
273.1312336192912
 20
36.38533494544422
 30
0.0
 10
273.3042492055523
 20
36.33317205005402
 30
0.0
 10
273.3968639686989
 20
36.33029654193003
 30
0.0
 10
273.4225180993919
 20
36.32950003110697
 30
0.0
  0
SPLINE
  5
1CD
330
1F
100
AcDbEntity
  8
0
  6
Continuous
 62
     7
370
    15
100
AcDbSpline
210
0.0
220
0.0
230
1.0
 70
     8
 71
     3
 72
    10
 73
     6
 74
     0
 42
0.000000001
 43
0.00000001
 40
0.0
 40
0.0
 40
0.0
 40
0.0
 40
0.439116537590408
 40
0.751366942907335
 40
1.0
 40
1.0
 40
1.0
 40
1.0
 10
271.9736293599583
 20
36.55361961269406
 30
0.0
 10
272.0933831177234
 20
36.5302001039539
 30
0.0
 10
272.2982923096372
 20
36.49012726865818
 30
0.0
 10
272.5961640111789
 20
36.56810397977711
 30
0.0
 10
272.744423827087
 20
36.64772156999721
 30
0.0
 10
272.8101456636961
 20
36.68301511345405
 30
0.0
  0
SPLINE
  5
1CE
330
1F
100
AcDbEntity
  8
0
  6
Continuous
 62
     7
370
    15
100
AcDbSpline
210
0.0
220
0.0
230
1.0
 70
     8
 71
     3
 72
    10
 73
     6
 74
     0
 42
0.000000001
 43
0.00000001
 40
0.0
 40
0.0
 40
0.0
 40
0.0
 40
0.4391165375904058
 40
0.7513669429073397
 40
0.9999999999999999
 40
0.9999999999999999
 40
0.9999999999999999
 40
0.9999999999999999
 10
271.7494854919163
 20
36.07070902958701
 30
0.0
 10
271.7815734146
 20
36.09789793020904
 30
0.0
 10
271.836478667095
 20
36.1444205259042
 30
0.0
 10
271.9162931489712
 20
36.34827899046757
 30
0.0
 10
271.9560192469138
 20
36.49055176241613
 30
0.0
 10
271.9736293599583
 20
36.55361961269406
 30
0.0
  0
LINE
  5
1CF
330
1F
100
AcDbEntity
  8
0
  6
Continuous
 62
     7
370
    15
100
AcDbLine
 10
271.97362936
 20
35.8466278344
 30
0.0
 11
271.97362936
 21
36.5536196127
 31
0.0
  0
LINE
  5
1D0
330
1F
100
AcDbEntity
  8
0
  6
Continuous
 62
     7
370
    15
100
AcDbLine
 10
272.8101456637
 20
35.7191603574
 30
0.0
 11
272.8101456637
 21
36.6830151135
 31
0.0
  0
ARC
  5
1D1
330
1F
100
AcDbEntity
  8
0
  6
Continuous
 62
     7
370
     0
100
AcDbCircle
 10
255.7850602307
 20
37.1550233723
 30
0.0
 40
3.103733651030635
100
AcDbArc
 50
173.9482268812
 51
234.7395927254
  0
LWPOLYLINE
  5
1D2
330
1F
100
AcDbEntity
  8
0
  6
Continuous
 62
     7
370
     0
100
AcDbPolyline
 90
       18
 70
   128
 43
0.0
 10
260.2427869967
 20
45.4463216931
 10
260.1854445202
 20
45.4782317315
 10
259.6895183627
 20
45.6685252688
 10
259.1387856288
 20
45.7387183732
 10
258.5449842305
 20
45.6873150006
 10
257.9207700137
 20
45.5154107245
 10
257.2794470207
 20
45.2266693863
 10
256.6346839378
 20
44.8272450062
 10
256.0002227705
 20
44.3256506214
 10
255.3895859571
 20
43.7325768454
 10
254.8157881612
 20
43.0606640161
 10
254.2910588867
 20
42.3242327889
 10
253.8265818268
 20
41.5389789168
 10
253.4322565039
 20
40.7216387228
 10
253.1164872775
 20
39.8896323941
 10
252.8860042206
 20
39.0606927012
 10
252.7457196791
 20
38.2524870543
 10
252.6986235748
 20
37.4822409538
  0
LWPOLYLINE
  5
1D3
330
1F
100
AcDbEntity
  8
0
  6
Continuous
 62
     7
370
     0
100
AcDbPolyline
 90
       39
 70
   128
 43
0.0
 10
244.9204489817
 20
34.6248125624
 10
244.966448973
 20
35.8003162296
 10
245.104056491
 20
37.0189013734
 10
245.3320975171
 20
38.270171455
 10
245.6486264855
 20
39.5434510793
 10
246.0509428826
 20
40.8278770734
 10
246.535614287
 20
42.1124911677
 10
247.0985056529
 20
43.3863334876
 10
247.7348145898
 20
44.6385360596
 10
248.4391123341
 20
45.8584155329
 10
249.2053900659
 20
47.0355643259
 10
250.0271101737
 20
48.1599394202
 10
250.8972620313
 20
49.2219480439
 10
251.8084218098
 20
50.2125295139
 10
252.7528158152
 20
51.1232325383
 10
253.722386811
 20
51.9462873201
 10
254.7088627592
 20
52.6746718461
 10
255.7038273948
 20
53.3021717963
 10
256.6987920305
 20
53.8234335623
 10
257.6852679787
 20
54.2340099227
 10
258.6548389744
 20
54.5303979846
 10
259.5992329799
 20
54.7100690696
 10
260.5103927584
 20
54.7714902873
 10
261.380544616
 20
54.7141376137
 10
262.2022647237
 20
54.5385003614
 10
262.9685424555
 20
54.2460770056
 10
263.6728401999
 20
53.8393623992
 10
264.3091491368
 20
53.3218264879
 10
264.8720405027
 20
52.6978847056
 10
265.356711907
 20
51.9728603035
 10
265.7590283042
 20
51.1529389343
 10
266.0755572726
 20
50.245115878
 10
266.3035982986
 20
49.2571363607
 10
266.4412058167
 20
48.1974294755
 10
266.4872058079
 20
47.0750362677
 10
266.4412058167
 20
45.8995326005
 10
266.3035982986
 20
44.6809474567
 10
266.0755572726
 20
43.429677375
 10
265.7843524919
 20
42.247244027
  0
LWPOLYLINE
  5
1D4
330
1F
100
AcDbEntity
  8
0
  6
Continuous
 62
     7
370
     0
100
AcDbPolyline
 90
       22
 70
   128
 43
0.0
 10
259.5348604129
 20
31.4216332472
 10
258.6548389744
 20
30.5766162917
 10
257.6852679787
 20
29.7535615099
 10
256.6987920305
 20
29.0251769839
 10
255.7038273948
 20
28.3976770338
 10
254.7088627592
 20
27.8764152677
 10
253.722386811
 20
27.4658389074
 10
252.7528158152
 20
27.1694508455
 10
251.8084218098
 20
26.9897797605
 10
250.8972620313
 20
26.9283585427
 10
250.0271101737
 20
26.9857112164
 10
249.2053900659
 20
27.1613484687
 10
248.4391123341
 20
27.4537718245
 10
247.7348145898
 20
27.8604864309
 10
247.0985056529
 20
28.3780223422
 10
246.535614287
 20
29.0019641245
 10
246.0509428826
 20
29.7269885265
 10
245.6486264855
 20
30.5469098957
 10
245.3320975171
 20
31.4547329521
 10
245.104056491
 20
32.4427124693
 10
244.966448973
 20
33.5024193546
 10
244.9204489817
 20
34.6248125624
  0
LWPOLYLINE
  5
1D5
330
1F
100
AcDbEntity
  8
0
  6
Continuous
 62
     7
370
     0
100
AcDbPolyline
 90
       25
 70
   128
 43
0.0
 10
244.2133422005
 20
34.6248125624
 10
244.2594842627
 20
35.8209192221
 10
244.3975281016
 20
37.0603890563
 10
244.6263298424
 20
38.3329514277
 10
244.943993562
 20
39.6280614836
 10
245.3478869986
 20
40.9349875342
 10
245.834663364
 20
42.2428999788
 10
246.4002890761
 20
43.5409610428
 10
247.0400771819
 20
44.8184145835
 10
247.7487261958
 20
46.0646752185
 10
248.5203640289
 20
47.2694160397
 10
249.3485966469
 20
48.4226541852
 10
250.2265610538
 20
49.5148335607
 10
251.1469821597
 20
50.5369040237
 10
252.1022330657
 20
51.4803963766
 10
253.0843982618
 20
52.3374925446
 10
254.0853392179
 20
53.1010903588
 10
255.0967618221
 20
53.7648624075
 10
256.110285108
 20
54.3233084661
 10
257.1175107026
 20
54.771801075
 10
258.1100924173
 20
55.106623883
 10
259.0798054074
 20
55.325002443
 10
260.0186143258
 20
55.4251272013
 10
260.9187399061
 20
55.4061684928
 10
261.615145909
 20
55.303427973
  0
ARC
  5
1D6
330
1F
100
AcDbEntity
  8
0
  6
Continuous
 62
     7
370
     0
100
AcDbCircle
 10
253.417150945
 20
34.1659164545
 30
0.0
 40
9.215241778792471
100
AcDbArc
 50
177.1456322281
 51
218.1675324715
  0
LWPOLYLINE
  5
1D7
330
1F
100
AcDbEntity
  8
0
  6
Continuous
 62
     7
370
     0
100
AcDbPolyline
 90
       26
 70
   128
 43
0.0
 10
249.87019645
 20
37.4822409538
 10
249.9161963725
 20
38.3530986711
 10
250.0534706935
 20
39.263332822
 10
250.279854515
 20
40.1985884701
 10
250.591777629
 20
41.1441160751
 10
250.9843208216
 20
42.0850041019
 10
251.4512934521
 20
43.0064141843
 10
251.9853310833
 20
43.8938151347
 10
252.5780116226
 20
44.7332121102
 10
253.2199881439
 20
45.511367319
 10
253.901136294
 20
46.2160087885
 10
254.6107139596
 20
46.836023902
 10
255.3375306771
 20
47.3616346506
 10
256.0701241126
 20
47.7845518389
 10
256.7969408301
 20
48.0981058101
 10
257.5065184957
 20
48.2973516309
 10
258.1876666457
 20
48.3791470757
 10
258.8296431671
 20
48.3422021813
 10
259.4223237064
 20
48.1870995909
 10
259.9563613375
 20
47.916285365
 10
260.4233339681
 20
47.5340304056
 10
260.8158771607
 20
47.0463631019
 10
261.1278002746
 20
46.4609742585
 10
261.3541840962
 20
45.7870958072
 10
261.4914584172
 20
45.0353552137
 10
261.5213746392
 20
44.7082087582
  0
LWPOLYLINE
  5
1D8
330
1F
100
AcDbEntity
  8
0
  6
Continuous
 62
     7
370
     0
100
AcDbPolyline
 90
       13
 70
   128
 43
0.0
 10
255.2718825602
 20
33.8825979785
 10
254.6107139596
 20
33.6017430199
 10
253.901136294
 20
33.4024971991
 10
253.2199881439
 20
33.3207017544
 10
252.5780116226
 20
33.3576466487
 10
251.9853310833
 20
33.5127492391
 10
251.4512934521
 20
33.7835634651
 10
250.9843208216
 20
34.1658184244
 10
250.591777629
 20
34.6534857282
 10
250.279854515
 20
35.2388745715
 10
250.0534706935
 20
35.9127530228
 10
249.9161963725
 20
36.6644936163
 10
249.87019645
 20
37.4822409538
  0
LINE
  5
1D9
330
1F
100
AcDbEntity
  8
0
  6
Continuous
 62
     7
370
     0
100
AcDbLine
 10
272.197093066
 20
25.9193468573
 30
0.0
 11
273.0816139631
 21
25.4087238124
 31
0.0
  0
LWPOLYLINE
  5
1DA
330
1F
100
AcDbEntity
  8
0
  6
Continuous
 62
     7
370
     0
100
AcDbPolyline
 90
       19
 70
   128
 43
0.0
 10
242.1144956811
 20
41.5039816123
 10
242.4490244111
 20
42.7404895307
 10
242.8732553632
 20
43.9843423036
 10
243.3828345865
 20
45.2227740685
 10
243.9725321868
 20
46.4430745996
 10
244.6362960021
 20
47.6327197547
 10
245.3673137168
 20
48.7795000129
 10
246.1580827778
 20
49.8716457826
 10
247.0004873939
 20
50.8979481949
 10
247.8858818301
 20
51.8478741417
 10
248.8051791399
 20
52.7116743792
 10
249.7489444261
 20
53.4804835855
 10
250.7074916725
 20
54.1464113473
 10
251.6709831535
 20
54.70262314
 10
252.6295303999
 20
55.1434104718
 10
253.5732956861
 20
55.464249471
 10
254.4925929959
 20
55.661847315
 10
255.3779874321
 20
55.734176025
 10
255.7337428011
 20
55.7271696954
  0
LWPOLYLINE
  5
1DB
330
1F
100
AcDbEntity
  8
0
  6
Continuous
 62
     7
370
     0
100
AcDbPolyline
 90
       22
 70
   128
 43
0.0
 10
236.5283677804
 20
43.1830587636
 10
236.8600501601
 20
44.4921871045
 10
237.2791538813
 20
45.8119171259
 10
237.7821418852
 20
47.1311108624
 10
238.3647691649
 20
48.4386348746
 10
239.0221185915
 20
49.7234542105
 10
239.7486424129
 20
50.9747255362
 10
240.538209074
 20
52.1818886489
 10
241.3841549648
 20
53.3347556004
 10
242.2793406583
 20
54.4235966793
 10
243.2162111645
 20
55.4392225255
 10
244.1868596908
 20
56.3730616847
 10
245.1830943726
 20
57.2172329479
 10
246.1965074089
 20
57.9646118651
 10
247.2185460206
 20
58.6088908732
 10
248.2405846322
 20
59.1446325287
 10
249.2539976685
 20
59.5673153977
 10
250.2502323504
 20
59.8733722149
 10
251.2208808767
 20
60.0602199896
 10
252.1577513829
 20
60.1262818055
 10
253.0529370764
 20
60.0710001284
 10
253.5490610408
 20
59.9836971697
  0
LINE
  5
1DC
330
1F
100
AcDbEntity
  8
0
  6
Continuous
 62
     7
370
     0
100
AcDbLine
 10
276.0861803625
 20
28.1644691648
 30
0.0
 11
276.9707012596
 21
27.6538461199
 31
0.0
  0
LWPOLYLINE
  5
1DD
330
1F
100
AcDbEntity
  8
0
  6
Continuous
 62
     7
370
     0
100
AcDbPolyline
 90
       18
 70
   128
 43
0.0
 10
242.5077684327
 20
41.4482010734
 10
242.8401211928
 20
42.6623623378
 10
243.2600183568
 20
43.8831690763
 10
243.7631825954
 20
45.0981854048
 10
244.3444883699
 20
46.2950344239
 10
244.9980141441
 20
47.4615242977
 10
245.717102705
 20
48.5857724468
 10
246.4944289766
 20
49.656326592
 10
247.3220746382
 20
50.6622814142
 10
248.1916087849
 20
51.5933896424
 10
249.09417381
 20
52.4401664386
 10
250.0205756344
 20
53.1939860165
 10
250.9613773623
 20
53.847169509
 10
251.9069954122
 20
54.3930631895
 10
252.8477971402
 20
54.8261062511
 10
253.7741989645
 20
55.1418874525
 10
254.6767639897
 20
55.3371900531
 10
254.8686775281
 20
55.3634574471
  0
LINE
  5
1DE
330
1F
100
AcDbEntity
  8
0
  6
Continuous
 62
     7
370
     0
100
AcDbLine
 10
242.5170910836
 20
34.8696656859
 30
0.0
 11
242.9228723249
 21
35.1039182103
 31
0.0
  0
LWPOLYLINE
  5
1DF
330
1F
100
AcDbEntity
  8
0
  6
Continuous
 62
     7
370
     0
100
AcDbPolyline
 90
        3
 70
   128
 43
0.0
 10
243.4747033394
 20
34.8477213513
 10
243.4458427085
 20
34.8579740491
 10
242.9228723249
 20
35.1039182103
  0
ARC
  5
1E0
330
1F
100
AcDbEntity
  8
0
  6
Continuous
 62
     7
370
     0
100
AcDbCircle
 10
242.2353742509
 20
36.1602388166
 30
0.0
 40
1.260343931249209
100
AcDbArc
 50
303.0577786045
 51
346.2438194889
  0
LINE
  5
1E1
330
1F
100
AcDbEntity
  8
0
  6
Continuous
 62
     7
370
     0
100
AcDbLine
 10
239.0292801572
 20
38.6580002636
 30
0.0
 11
243.4168696643
 21
36.1250987555
 31
0.0
  0
LINE
  5
1E2
330
1F
100
AcDbEntity
  8
0
  6
Continuous
 62
     7
370
     0
100
AcDbLine
 10
238.9100413416
 20
38.5891427835
 30
0.0
 11
239.0292801572
 21
38.6580002636
 31
0.0
  0
LINE
  5
1E3
330
1F
100
AcDbEntity
  8
0
  6
Continuous
 62
     7
370
     0
100
AcDbLine
 10
238.6537151335
 20
41.6204095706
 30
0.0
 11
238.6589030282
 21
41.9530750348
 31
0.0
  0
ARC
  5
1E4
330
1F
100
AcDbEntity
  8
0
  6
Continuous
 62
     7
370
     0
100
AcDbCircle
 10
247.120687191
 20
41.5349450713
 30
0.0
 40
8.467403380225646
100
AcDbArc
 50
179.4216835983
 51
193.1492224068
  0
LWPOLYLINE
  5
1E5
330
1F
100
AcDbEntity
  8
0
  6
Continuous
 62
     7
370
     0
100
AcDbPolyline
 90
       17
 70
   128
 43
0.0
 10
218.8081992352
 20
56.9192890182
 10
218.8543063535
 20
57.6903376844
 10
218.9916891003
 20
58.4989241689
 10
219.2175507591
 20
59.3285879827
 10
219.5272934379
 20
60.1624395631
 10
219.9146116689
 20
60.9835040964
 10
220.37162077
 20
61.7750670766
 10
220.8890173536
 20
62.5210145641
 10
221.4562687175
 20
63.2061612191
 10
222.0618272596
 20
63.8165594315
 10
222.6933655544
 20
64.3397832541
 10
223.3380273033
 20
64.7651813585
 10
223.9826890522
 20
65.0840938663
 10
224.6142273469
 20
65.2900286383
 10
225.2197858891
 20
65.3787934364
 10
225.7870372529
 20
65.3485812655
 10
226.1934083626
 20
65.2434645059
  0
ARC
  5
1E6
330
1F
100
AcDbEntity
  8
0
  6
Continuous
 62
     7
370
     0
100
AcDbCircle
 10
222.3334933152
 20
56.6811275761
 30
0.0
 40
3.533329764242759
100
AcDbArc
 50
176.1350905948
 51
223.1270930519
  0
LWPOLYLINE
  5
1E7
330
1F
100
AcDbEntity
  8
0
  6
Continuous
 62
     7
370
     0
100
AcDbPolyline
 90
        3
 70
   128
 43
0.0
 10
242.9729756706
 20
33.7839057603
 10
242.8401211928
 20
34.0446126023
 10
242.5077684327
 20
34.8750475377
  0
ARC
  5
1E8
330
1F
100
AcDbEntity
  8
0
  6
Continuous
 62
     7
370
     0
100
AcDbCircle
 10
248.1108564217
 20
36.7862002733
 30
0.0
 40
6.276842209198906
100
AcDbArc
 50
197.1929236166
 51
214.0442378739
  0
LINE
  5
1E9
330
1F
100
AcDbEntity
  8
0
  6
Continuous
 62
     7
370
     0
100
AcDbLine
 10
242.9228723249
 20
35.1039182103
 30
0.0
 11
238.6979093073
 21
37.5429374444
 31
0.0
  0
ARC
  5
1EA
330
1F
100
AcDbEntity
  8
0
  6
Continuous
 62
     7
370
     0
100
AcDbCircle
 10
243.3548782761
 20
37.8401330111
 30
0.0
 40
7.077756766538817
100
AcDbArc
 50
195.3120304825
 51
221.3772488121
  0
OLE2FRAME
  5
1EB
330
1F
100
AcDbEntity
  8
0
100
AcDbOle2Frame
 70
     2
  3
Paintbrush-Bild
 10
13.8511154363
 20
38.264191557
 30
0.0
 11
51.6290888628
 21
31.9806341108
 31
0.0
 71
     2
 72
     0
 73
     1
 90
    12928
310
80552BED0767C5B32B40DDAF6807D121434000000000000000006FFBDDFB85D0
310
4940DDAF6807D121434000000000000000006FFBDDFB85D04940416F4BD60AFB
310
3F4000000000000000002BED0767C5B32B40416F4BD60AFB3F40000000000000
310
0000000000000100000000010000010000000100000000000100000000320000
310
D0CF11E0A1B11AE1000000000000000000000000000000003E000300FEFF0900
310
0600000000000000000000000100000001000000000000000010000002000000
310
01000000FEFFFFFF0000000000000000FFFFFFFFFFFFFFFFFFFFFFFFFFFFFFFF
310
FFFFFFFFFFFFFFFFFFFFFFFFFFFFFFFFFFFFFFFFFFFFFFFFFFFFFFFFFFFFFFFF
310
FFFFFFFFFFFFFFFFFFFFFFFFFFFFFFFFFFFFFFFFFFFFFFFFFFFFFFFFFFFFFFFF
310
FFFFFFFFFFFFFFFFFFFFFFFFFFFFFFFFFFFFFFFFFFFFFFFFFFFFFFFFFFFFFFFF
310
FFFFFFFFFFFFFFFFFFFFFFFFFFFFFFFFFFFFFFFFFFFFFFFFFFFFFFFFFFFFFFFF
310
FFFFFFFFFFFFFFFFFFFFFFFFFFFFFFFFFFFFFFFFFFFFFFFFFFFFFFFFFFFFFFFF
310
FFFFFFFFFFFFFFFFFFFFFFFFFFFFFFFFFFFFFFFFFFFFFFFFFFFFFFFFFFFFFFFF
310
FFFFFFFFFFFFFFFFFFFFFFFFFFFFFFFFFFFFFFFFFFFFFFFFFFFFFFFFFFFFFFFF
310
FFFFFFFFFFFFFFFFFFFFFFFFFFFFFFFFFFFFFFFFFFFFFFFFFFFFFFFFFFFFFFFF
310
FFFFFFFFFFFFFFFFFFFFFFFFFFFFFFFFFFFFFFFFFFFFFFFFFFFFFFFFFFFFFFFF
310
FFFFFFFFFFFFFFFFFFFFFFFFFFFFFFFFFFFFFFFFFFFFFFFFFFFFFFFFFFFFFFFF
310
FFFFFFFFFFFFFFFFFFFFFFFFFFFFFFFFFFFFFFFFFFFFFFFFFFFFFFFFFFFFFFFF
310
FFFFFFFFFFFFFFFFFFFFFFFFFFFFFFFFFFFFFFFFFFFFFFFFFFFFFFFFFFFFFFFF
310
FFFFFFFFFFFFFFFFFFFFFFFFFFFFFFFFFFFFFFFFFFFFFFFFFFFFFFFFFFFFFFFF
310
FDFFFFFFFEFFFFFFFEFFFFFFFEFFFFFF05000000060000000700000008000000
310
090000000A0000000B0000000C0000000D0000000E0000000F00000010000000
310
11000000120000001300000014000000150000001600000017000000FEFFFFFF
310
FFFFFFFFFFFFFFFFFFFFFFFFFFFFFFFFFFFFFFFFFFFFFFFFFFFFFFFFFFFFFFFF
310
FFFFFFFFFFFFFFFFFFFFFFFFFFFFFFFFFFFFFFFFFFFFFFFFFFFFFFFFFFFFFFFF
310
FFFFFFFFFFFFFFFFFFFFFFFFFFFFFFFFFFFFFFFFFFFFFFFFFFFFFFFFFFFFFFFF
310
FFFFFFFFFFFFFFFFFFFFFFFFFFFFFFFFFFFFFFFFFFFFFFFFFFFFFFFFFFFFFFFF
310
FFFFFFFFFFFFFFFFFFFFFFFFFFFFFFFFFFFFFFFFFFFFFFFFFFFFFFFFFFFFFFFF
310
FFFFFFFFFFFFFFFFFFFFFFFFFFFFFFFFFFFFFFFFFFFFFFFFFFFFFFFFFFFFFFFF
310
FFFFFFFFFFFFFFFFFFFFFFFFFFFFFFFFFFFFFFFFFFFFFFFFFFFFFFFFFFFFFFFF
310
FFFFFFFFFFFFFFFFFFFFFFFFFFFFFFFFFFFFFFFFFFFFFFFFFFFFFFFFFFFFFFFF
310
FFFFFFFFFFFFFFFFFFFFFFFFFFFFFFFFFFFFFFFFFFFFFFFFFFFFFFFFFFFFFFFF
310
FFFFFFFFFFFFFFFFFFFFFFFFFFFFFFFFFFFFFFFFFFFFFFFFFFFFFFFFFFFFFFFF
310
FFFFFFFFFFFFFFFFFFFFFFFFFFFFFFFFFFFFFFFFFFFFFFFFFFFFFFFFFFFFFFFF
310
FFFFFFFFFFFFFFFFFFFFFFFFFFFFFFFFFFFFFFFFFFFFFFFFFFFFFFFFFFFFFFFF
310
FFFFFFFFFFFFFFFFFFFFFFFFFFFFFFFFFFFFFFFFFFFFFFFFFFFFFFFFFFFFFFFF
310
52006F006F007400200045006E00740072007900000000000000000000000000
310
0000000000000000000000000000000000000000000000000000000000000000
310
16000500FFFFFFFFFFFFFFFF020000000A00030000000000C000000000000046
310
00000000000000000000000010788C749C15D20103000000C000000000000000
310
01004F006C006500000000000000000000000000000000000000000000000000
310
0000000000000000000000000000000000000000000000000000000000000000
310
0A000200FFFFFFFFFFFFFFFFFFFFFFFF00000000000000000000000000000000
310
0000000000000000000000000000000000000000000000001400000000000000
310
010043006F006D0070004F0062006A0000000000000000000000000000000000
310
0000000000000000000000000000000000000000000000000000000000000000
310
120002010100000003000000FFFFFFFF00000000000000000000000000000000
310
0000000000000000000000000000000000000000010000004D00000000000000
310
01004F006C006500310030004E00610074006900760065000000000000000000
310
0000000000000000000000000000000000000000000000000000000000000000
310
1A000200FFFFFFFFFFFFFFFFFFFFFFFF00000000000000000000000000000000
310
0000000000000000000000000000000000000000040000002426000000000000
310
FEFFFFFF02000000FEFFFFFFFFFFFFFFFFFFFFFFFFFFFFFFFFFFFFFFFFFFFFFF
310
FFFFFFFFFFFFFFFFFFFFFFFFFFFFFFFFFFFFFFFFFFFFFFFFFFFFFFFFFFFFFFFF
310
FFFFFFFFFFFFFFFFFFFFFFFFFFFFFFFFFFFFFFFFFFFFFFFFFFFFFFFFFFFFFFFF
310
FFFFFFFFFFFFFFFFFFFFFFFFFFFFFFFFFFFFFFFFFFFFFFFFFFFFFFFFFFFFFFFF
310
FFFFFFFFFFFFFFFFFFFFFFFFFFFFFFFFFFFFFFFFFFFFFFFFFFFFFFFFFFFFFFFF
310
FFFFFFFFFFFFFFFFFFFFFFFFFFFFFFFFFFFFFFFFFFFFFFFFFFFFFFFFFFFFFFFF
310
FFFFFFFFFFFFFFFFFFFFFFFFFFFFFFFFFFFFFFFFFFFFFFFFFFFFFFFFFFFFFFFF
310
FFFFFFFFFFFFFFFFFFFFFFFFFFFFFFFFFFFFFFFFFFFFFFFFFFFFFFFFFFFFFFFF
310
FFFFFFFFFFFFFFFFFFFFFFFFFFFFFFFFFFFFFFFFFFFFFFFFFFFFFFFFFFFFFFFF
310
FFFFFFFFFFFFFFFFFFFFFFFFFFFFFFFFFFFFFFFFFFFFFFFFFFFFFFFFFFFFFFFF
310
FFFFFFFFFFFFFFFFFFFFFFFFFFFFFFFFFFFFFFFFFFFFFFFFFFFFFFFFFFFFFFFF
310
FFFFFFFFFFFFFFFFFFFFFFFFFFFFFFFFFFFFFFFFFFFFFFFFFFFFFFFFFFFFFFFF
310
FFFFFFFFFFFFFFFFFFFFFFFFFFFFFFFFFFFFFFFFFFFFFFFFFFFFFFFFFFFFFFFF
310
FFFFFFFFFFFFFFFFFFFFFFFFFFFFFFFFFFFFFFFFFFFFFFFFFFFFFFFFFFFFFFFF
310
FFFFFFFFFFFFFFFFFFFFFFFFFFFFFFFFFFFFFFFFFFFFFFFFFFFFFFFFFFFFFFFF
310
FFFFFFFFFFFFFFFFFFFFFFFFFFFFFFFFFFFFFFFFFFFFFFFFFFFFFFFFFFFFFFFF
310
0100000200000000000000000000000000000000000000000000000000000000
310
0000000000000000000000000000000000000000000000000000000000000000
310
0100FEFF030A0000FFFFFFFF0A00030000000000C00000000000004607000000
310
5042727573680007000000504272757368000700000050427275736800F439B2
310
7100000000000000000000000000000000000000000000000000000000000000
310
0000000000000000000000000000000000000000000000000000000000000000
310
0000000000000000000000000000000000000000000000000000000000000000
310
0000000000000000000000000000000000000000000000000000000000000000
310
0000000000000000000000000000000000000000000000000000000000000000
310
0000000000000000000000000000000000000000000000000000000000000000
310
0000000000000000000000000000000000000000000000000000000000000000
310
0000000000000000000000000000000000000000000000000000000000000000
310
0000000000000000000000000000000000000000000000000000000000000000
310
0000000000000000000000000000000000000000000000000000000000000000
310
0000000000000000000000000000000000000000000000000000000000000000
310
0000000000000000000000000000000000000000000000000000000000000000
310
20260000424D0E260000000000003E00000028000000B40200006E0000000100
310
01000000000000000000130B0000130B00000200000002000000000000FFFFFF
310
FFFFFFFFFFFFFFFFFFFFFFFFFFFFFFFFFFFFFFFFFFFFFFFFFFFFFFFFFFFFFFFF
310
FFFFFFFFFFFFFFFFFFFFFFFFFFFFFFFFFFFFFFFFFFFFFFFFFFFFFFFFFFFFFFFF
310
FFFFFFFFFFFFFFFFFFFFFFFFFFFFFFFFFFFFFFFFFFFFFFFFF000FFFFFFFFFFFF
310
FFFFFFFFFFFFFFFFFFFFFFFFFFFFFFFFFFFFFFFFFFFFFFFFFFFFFFFFFFFFFFFF
310
FFFFFFFFFFFFFFFFFFFFFFFFFFFFFFFFFFFFFFFFFFFFFFFFFFFFFFFFFFFFFFFF
310
FFFFFFFFFFFFFFFFFFFFFFFFFFFFFFFFF000FFFFFFFFFFFFFFFFFFFFFFFFFFFF
310
FFFFFFFFFFFFFFFFFFFFFFFFFFFFFFFFFFFFFFFFFFFFFFFFFFFFFFFFFFFFFFFF
310
FFFFFFFFFFFFFFFFFFFFFFFFFFFFFFFFFFFFFFFFFFFFFFFFFFFFFFFFFFFFFFFF
310
FFFFFFFFFFFFFFFFF000FFFFFFFFFFFFFFFFFFFFFFFFFFFFFFFFFFFFFFFFFFFF
310
FFFFFFFFFFFFFFFFFFFFFFFFFFFFFFFFFFFFFFFFFFFFFFFFFFFFFFFFFFFFFFFF
310
FFFFFFFFFFFFFFFFFFFFFFFFFFFFFFFFFFFFFFFFFFFFFFFFFFFFFFFFFFFFFFFF
310
F000FFFFFFFFFFFFFFFFFFFFFFFFFFFFFFFFFFFFFFFFFFFFFFFFFFFFFFFFFFFF
310
FFFFFFFFFFFFFFFFFFFFFFFFFFFFFFFFFFFFFFFFFFFFFFFFFFFFFFFFFFFFFFFF
310
FFFFFFFFFFFFFFFFFFFFFFFFFFFFFFFFFFFFFFFFFFFFFFFFF000FFFFFFFFFFFF
310
FFFFFFFFFFFFFFFFFFFFFFFFFFFFFFFFFFFFFFFFFFFFFFFFFFFFFFFFFFFFFFFF
310
FFFFFFFFFFFFFFFFFFFFFFFFFFFFFFFFFFFFFFFFFFFFFFFFFFFFFFFFFFFFFFFF
310
FFFFFFFFFFFFFFFFFFFFFFFFFFFFFFFFF000FFFFFFFFFFFFFFFFFFFFFFFFFFFF
310
FFFFFFFFFFFFFFFFFFFFFFFFFFFFFFFFFFFFFFFFFFFFFFFFFFFFFFFFFFFFFFFF
310
FFFFFFFFFFFFFFFFFFFFFFFFFFFFFFFFFFFFFFFFFFFFFFFFFFFFFFFFFFFFFFFF
310
FFFFFFFFFFFFFFFFF000FFFFFFFFFFFFFFFFFFFFFFFFFFFFFFFFFFFFFFFFFFFF
310
FFFFFFFFFFFFFFFFFFFFFFFFFFFFFFFFFFFFFFFFFFFFFFFFFFFFFFFFFFFFFFFF
310
FFFFFFFFFFFFFFFFFFFFFFFFFFFFFFFFFFFFFFFFFFFFFFFFFFFFFFFFFFFFFFFF
310
F000FFFFFFFFFFFFFFFFFFFFFFFFFFFFFFFFFFFFFFFFFFFFFFFFFFFFFFFFFFFF
310
FFFFFFFFFFFFFFFFFFFFFFFFFFFFFFFFFFFFFFFFFFFFFFFFFFFFFFFFFFFFFFFF
310
FFFFFFFFFFFFFFFFFFFFFFFFFFFFFFFFFFFFFFFFFFFFFFFFF000FFFFFFFFFFFF
310
FFFFFFFFFFFFFFFFFFFFFFFFFFFFFFFFFFFFFFFFFFFFFFFFFFFFFFFFFFFFFFFF
310
FFFFFFFFFFFFFFFFFFFFFFFFFFFFFFFFFFFFFFFFFFFFFFFFFFFFFFFFFFFFFFFF
310
FFFFFFFFFFFFFFFFFFFFFFFFFFFFFFFFF000FFFFFFFFFFFFFFFFFFFFFFFFFFFF
310
FFFFFFFFFFFFFFFFFFFFFFFFFFFFFFFFFFFFFFFFFFFFFFFFFFFFFFFFFFFFFFFF
310
FFFFFFFFFFFFFFFFFFFFFFFFFFFFFFFFFFFFFFFFFFFFFFFFFFFFFFFFFFFFFFFF
310
FFFFFFFFFFFFFFFFF000FFFFFFFFFFFFFFFFFFFFFFFFFFFFFFFFFFFFFFFFFFFF
310
FFFFFFFFFFFFFFFFFFFFFFFFFFFFFFFFFFFFFFFFFFFFFFFFFFFFFFFFFFFFFFFF
310
FFFFFFFFFFFFFFFFFFFFFFFFFFFFFFFFFFFFFFFFFFFFFFFFFFFFFFFFFFFFFFFF
310
F000FFFFFFFFFFFFFFFFFFFFFFFFFFFFFFFFFFFFFFFFFFFFFFFFFFFFFFFFFFFF
310
FFFFFFFFFFFFFFFFFFFFFFFFFFFFFFFFFFFFFFFFFFFFFFFFFFFFFFFFFFFFFFFF
310
FFFFFFFFFFFFFFFFFFFFFFFFFFFFFFFFFFFFFFFFFFFFFFFFF000FFFFFFFFFFFF
310
FFFFFFFFFFFFFFFFFFFFFFFFFFFFFFFFFFFFFFFFFFFFFFFFFFFFFFFFFFFFFFFF
310
FFFFFFFFFFFFFFFFFFFFFFFFFFFFFFFFFFFFFFFFFFFFFFFFFFFFFFFFFFFFFFFF
310
FFFFFFFFFFFFFFFFFFFFFFFFFFFFFFFFF000FFFFFFFFFFFFFFFFFFFFFFFFFFFF
310
FFFFFFFFFFFFFFFFFFFFFFFFFFFFFFFFFFFFFFFFFFFFFFFFFFFFFFFFFFFFFFFF
310
FFFFFFFFFFFFFFFFFFFFFFFFFFFFFFFFFFFFFFFFFFFFFFFFFFFFFFFFFFFFFFFF
310
FFFFFFFFFFFFFFFFF000FFFFFFFFFFFFFFFFFFFFFFFFFFFFFFFFFFFFFFFFFFFF
310
FFFFFFFFFFFFFFFFFFFFFFFFFFFFFFFFFFFFFFFFFFFFFFFFFFFFFFFFFFFFFFFF
310
FFFFFFFFFFFFFFFFFFFFFFFFFFFFFFFFFFFFFFFFFFFFFFFFFFFFFFFFFFFFFFFF
310
F000FFFFFFFFFFFFFFFFFFFFFFFFFFFFFFFFFFFFFFFFFFFFFFFFFFFFFFFFFFFF
310
FFFFFFFFFFFFFFFFFFFFFFFFFFFFFFFFFFFFFFFFFFFFFFFFFFFFFFFFFFFFFFFF
310
FFFFFFFFFFFFFFFFFFFFFFFFFFFFFFFFFFFFFFFFFFFFFFFFF000FFFFFFFFFFFF
310
FFFFFFFFFFFFFFFFFFFFFFFFFFFFFFFFFFFFFFFFFFFFFFFFFFFFFFFFFFFFFFFF
310
FFFFFFFFFFFFFFFFFFFFFFFFFFFFFFFFFFFFFFFFFFFFFFFFFFFFFFFFFFFFFFFF
310
FFFFFFFFFFFFFFFFFFFFFFFFFFFFFFFFF000FFFFFFFFFFFFFFFFFFFFFFFFFFFF
310
FFFFFFFFFFFFFFFFFFFFFFFFFFFFFFFFFFFFFFFFFFFFFFFFFFFFFFFFFFFFFFFF
310
FFFFFFFFFFFFFFFFFFFFFFFFFFFFFFFFFFFFFFFFFFFFFFFFFFFFFFFFFFFFFFFF
310
FFFFFFFFFFFFFFFFF000FFFFF80003FFFFFFFFFFFFFFFFFFFFFFFFFFFFFFFFFF
310
FFFFF00007FFFFFFFFFF00007FFFFFF800000000000000007FFFFFFFFFFFFFFF
310
FFFFFFFC001FFFFFFFFFFFFFFC001FFFFFFFFFFFFFFFFFFFFFFFFFFE0007FFFF
310
F000FFFF8000007FFFFFFFF8000FFFFFC0007FFFFF80007FFFFF0000007FFFFF
310
FFF8000007FFFFF800000000000000007FFFFFF0001FFFFFFFFFFFC00001FFFF
310
FFFFFFFFC00001FFFFFFFF000000000003FFFFE000007FFFF000FFFE0000000F
310
FFFFFFF0000FFFFF80007FFFFF80007FFFFC0000001FFFFFFFC0000001FFFFF8
310
00000000000000007FFFFFF0001FFFFFFFFFFE0000003FFFFFFFFFFE0000003F
310
FFFFFF000000000003FFFF0000000FFFF000FFF800000003FFFFFFF00007FFFF
310
80007FFFFF80007FFFF000000007FFFFFF000000003FFFF80000000000000000
310
7FFFFFF0001FFFFFFFFFF80000000FFFFFFFFFF80000000FFFFFFF0000000000
310
03FFFC00000003FFF000FFE000000000FFFFFFF00007FFFF80003FFFFF80007F
310
FFC000000001FFFFFC000000001FFFF800000000000000007FFFFFF0001FFFFF
310
FFFFE000000003FFFFFFFFE000000003FFFFFF000000000003FFF000000000FF
310
F000FF80000000007FFFFFF00007FFFF80003FFFFF80007FFF8000000000FFFF
310
F80000000007FFF800000000000000007FFFFFF0001FFFFFFFFFC000000001FF
310
FFFFFFC000000001FFFFFF000000000003FFC0000000007FF000FF0000000000
310
3FFFFFE00007FFFF00003FFFFF80007FFE00000000003FFFF00000000003FFF8
310
00000000000000007FFFFFF0001FFFFFFFFF8000000000FFFFFFFF8000000000
310
FFFFFF000000000003FF80000000003FF000FE00000000001FFFFFE00003FFFF
310
00003FFFFF80007FFC00000000001FFFE00000000001FFF8000001FFFE000000
310
7FFFFFF0001FFFFFFFFE00000000003FFFFFFE00000000003FFFFF0000000000
310
03FF00000000001FF000FC00000000000FFFFFE00003FFFF00001FFFFF80007F
310
F800000000001FFFC00000000000FFF8000001FFFE0000007FFFFFF0001FFFFF
310
FFFC00000000001FFFFFFC00000000001FFFFF000000000003FE00000000000F
310
F000F8000000000007FFFFE00003FFFF00001FFFFF80007FF800000000000FFF
310
800000000000FFF8000001FFFE0000007FFFFFF0001FFFFFFFF800000000000F
310
FFFFF800000000000FFFFF000000000003FC000000000007F000F80000000000
310
03FFFFC00003FFFE00001FFFFF80007FF0000000000007FF0000000000007FF8
310
000001FFFE0000007FFFFFF0001FFFFFFFF0000000000007FFFFF00000000000
310
07FFFF000000000003F8000000000003F000F0000000000003FFFFC00001FFFE
310
00001FFFFF80007FE0000000000007FE0000000000003FF8000001FFFE000000
310
7FFFFFF0001FFFFFFFF0000000000007FFFFF0000000000007FFFF0000000000
310
03F800001F800003F000E00001FFF00001FFFFC00001FFFE00000FFFFF80007F
310
E00001FFE00003FE00001FFF00003FF8000001FFFE0000007FFFFFF0001FFFFF
310
FFE000003E000003FFFFE000003E000003FFFF000000000003F00001FFF80001
310
F000E00007FFFC0001FFFFC00001FFFE00000FFFFF80007FC0000FFFFC0003FC
310
0000FFFFC0001FF8000001FFFE0000007FFFFFF0001FFFFFFFC00003FFE00001
310
FFFFC00003FFE00001FFFF0001FFFFFFFFF00007FFFE0001F000E0000FFFFF00
310
00FFFF800001FFFC00000FFFFF80007FC0001FFFFE0001FC0001FFFFE0001FF8
310
000001FFFE0000007FFFFFF0001FFFFFFF80000FFFF80000FFFF80000FFFF800
310
00FFFF0003FFFFFFFFE0000FFFFF8000F000C0003FFFFF8000FFFF800000FFFC
310
000007FFFF80007F80003FFFFF0001FC0003FFFFF0001FF8000001FFFE000000
310
7FFFFFF0001FFFFFFF80003FFFFE0000FFFF80003FFFFE0000FFFF0003FFFFFF
310
FFE0003FFFFF8000F000C0003FFFFF8000FFFF800000FFFC000007FFFF80007F
310
80007FFFFF8001F80007FFFFF8000FF8000001FFFE0000007FFFFFF0001FFFFF
310
FF00007FFFFF00007FFF00007FFFFF00007FFF0003FFFFFFFFE0003FFFFFC000
310
F000C0007FFFFFC000FFFF000000FFFC000007FFFF80007F8000FFFFFF8000F8
310
000FFFFFF8000FF8000001FFFE0000007FFFFFF0001FFFFFFF0000FFFFFF8000
310
7FFF0000FFFFFF80007FFF0003FFFFFFFFC0007FFFFFC00070008000FFFFFFC0
310
00FFFF000000FFF8000007FFFF80007F8000FFFFFF8000F8000FFFFFF8000FF8
310
000001FFFE0000007FFFFFF0001FFFFFFE0001FFFFFFC0003FFE0001FFFFFFC0
310
003FFF0003FFFFFFFFC0007FFFFFE00070008000FFFFFFC0007FFF0000007FF8
310
000003FFFF80007F0001FFFFFF8000F8000FFFFFF8000FF8000001FFFE000000
310
7FFFFFF0001FFFFFFE0001FFFFFFC0003FFE0001FFFFFFC0003FFF0003FFFFFF
310
FFC000FFFFFFE00070008000FFFFFFC0007FFF0000007FF8000003FFFF80007F
310
0001FFFFFF8000F8001FFFFFF8000FF8000001FFFE0000007FFFFFF0001FFFFF
310
FE0003FFFFFFE0003FFE0003FFFFFFE0003FFF0003FFFFFFFFC000FFFFFFE000
310
70008000FFFFFFC0007FFE0000007FF8000003FFFF80007F0001FFFFFF8000F0
310
001FFFFFF8000FF8000001FFFE0000007FFFFFF0001FFFFFFC0003FFFFFFE000
310
1FFC0003FFFFFFE0001FFF0003FFFFFFFFC000FFFFFFC00070008000FFFFFF80
310
007FFE0000007FF0000003FFFF80007F0001FFFFFF0000F0001FFFFFF8000FF8
310
000001FFFE0000007FFFFFF0001FFFFFFC0007FFFFFFF0001FFC0007FFFFFFF0
310
001FFF0003FFFFFFFFC000FFFFFFC00070008001FFFFFF0000FFFE0000003FF0
310
000001FFFF80007F0001FFFFFF0000F8001FFFFFF0000FF8000001FFFE000000
310
7FFFFFF0001FFFFFFC0007FFFFFFF0001FFC0007FFFFFFF0001FFF0003FFFFFF
310
FFC001FFFFFF80007000FFFFFFFFFE0000FFFE0008003FF0008001FFFF80007F
310
FFFFFFFFFC0000FFFFFFFFFFE0000FF8000001FFFE0000007FFFFFF0001FFFFF
310
F8000FFFFFFFF8000FF8000FFFFFFFF8000FFF0003FFFFFFFFFFFFFFFFFF0000
310
7000FFFFFFFFFC0000FFFC0008003FF0008001FFFF80007FFFFFFFFFF80001FF
310
FFFFFFFF80000FF8000001FFFE0000007FFFFFF0001FFFFFF8000FFFFFFFF800
310
0FF8000FFFFFFFF8000FFF0003FFFFFFFFFFFFFFFFFE0000F000FFFFFFFFE000
310
00FFFC000C003FE000C001FFFF80007FFFFFFFFFC00001FFFFFFFFFE00001FF8
310
000001FFFE0000007FFFFFF0001FFFFFF8000FFFFFFFF8000FF8000FFFFFFFF8
310
000FFF0003FFFFFFFFFFFFFFFFF00000F000FFFFFFFE000001FFFC000C001FE0
310
00C000FFFF80007FFFFFFFFE000001FFFFFFFFE000001FF80FFFFFFFFFFFFFC0
310
7FFFFFF0001FFFFFF8000FFFFFFFF8000FF8000FFFFFFFF8000FFF0003FFFFFF
310
FFFFFFFFFF800000F000FFFFFFC0000001FFFC001C001FE001C000FFFF80007F
310
FFFFFF80000003FFFFFFF80000001FF80FFFFFFFFFFFFFC07FFFFFF0001FFFFF
310
F8001FFFFFFFFC000FF8001FFFFFFFFC000FFF0003FFFFFFFFFFFFFFF0000001
310
F000FFFFF800000001FFF8001C001FE001C000FFFF80007FFFFFF800000003FF
310
FFFF800000003FF80FFFFFFFFFFFFFC07FFFFFF0001FFFFFF8001FFFFFFFFC00
310
0FF8001FFFFFFFFC000FFF0003FFFFFFFFFFFFFE00000001F000FFFFC0000000
310
03FFF8001E001FC001E000FFFF80007FFFFF8000000007FFFFFC000000003FF8
310
0FFFFFFFFFFFFFC07FFFFFF0001FFFFFF8001FFFFFFFFC000FF8001FFFFFFFFC
310
000FFF0003FFFFFFFFFFFFE000000003F000FFFE0000000007FFF8001E000FC0
310
01E0007FFF80007FFFFE0000000007FFFFE0000000007FF80FFFFFFFFFFFFFC0
310
7FFFFFF0001FFFFFF0001FFFFFFFFC0007F0001FFFFFFFFC0007FF0003FFFFFF
310
FFFFFF0000000003F000FFF80000000007FFF8001E000FC003E0007FFF80007F
310
FFF0000000000FFFFF8000000000FFF80FFFFFFFFFFFFFC07FFFFFF0001FFFFF
310
F0001FFFFFFFFC0007F0001FFFFFFFFC0007FF0003FFFFFFFFFFFC0000000007
310
F000FFE0000000000FFFF0003E000FC003E0007FFF80007FFFC0000000001FFF
310
FE0000000001FFF80FFFFFFFFFFFFFC07FFFFFF0001FFFFFF0001FFFFFFFFC00
310
07F0001FFFFFFFFC0007FF0003FFFFFFFFFFF0000000000FF000FFC000000000
310
1FFFF0003F000F8003F0003FFF80007FFF80000000003FFFF80000000003FFF8
310
0FFFFFFFFFFFFFC07FFFFFF0001FFFFFF0001FFFFFFFFC0007F0001FFFFFFFFC
310
0007FF0003FFFFFFFFFFE0000000001FF000FF00000000007FFFF0003F000780
310
03F0003FFF80007FFF00000000007FFFF00000000007FFF80FFFFFFFFFFFFFC0
310
7FFFFFF0001FFFFFF0001FFFFFFFFC0007F0001FFFFFFFFC0007FF0003FFFFFF
310
FFFF80000000007FF000FE0000000000FFFFE0003F00078007F0003FFF80007F
310
FE0000000001FFFFE0000000001FFFF80FFFFFFFFFFFFFC07FFFFFF0001FFFFF
310
F0001FFFFFFFFC0007F0001FFFFFFFFC0007FF0003FFFFFFFFFF0000000000FF
310
F000FC0000000003FFFFE0007F00078007F0003FFF80007FFC0000000007FFFF
310
C0000000007FFFF80FFFFFFFFFFFFFC07FFFFFF0001FFFFFF8001FFFFFFFFC00
310
0FF8001FFFFFFFFC000FFF0003FFFFFFFFFE0000000003FFF000FC000000000F
310
FFFFE0007F80070007F8001FFF80007FF8000000001FFFFF8000000001FFFFF8
310
0FFFFFFFFFFFFFC07FFFFFF0001FFFFFF8001FFFFFFFFC000FF8001FFFFFFFFC
310
000FFF0003FFFFFFFFFC000000000FFFF000F8000000007FFFFFE0007F800700
310
07F8001FFF80007FF000000000FFFFFF800000000FFFFFF80FFFFFFFFFFFFFC0
310
7FFFFFF0001FFFFFF8000FFFFFFFF8000FF8000FFFFFFFF8000FFF0003FFFFFF
310
FFFC000000007FFFF000F800000007FFFFFFC0007F8003000FF8001FFF80007F
310
F000000007FFFFFF000000007FFFFFF80FFFFFFFFFFFFFC07FFFFFF0001FFFFF
310
F8000FFFFFFFF8000FF8000FFFFFFFF8000FFF0003FFFFFFFFF80000000FFFFF
310
F000F0000000FFFFFFFFC000FF8003000FF8001FFF80007FE0000000FFFFFFFF
310
0000000FFFFFFFF8000001FFFE0000007FFFFFF0001FFFFFF8000FFFFFFFF800
310
0FF8000FFFFFFFF8000FFF0003FFFFFFFFF8000000FFFFFFF000F000000FFFFF
310
FFFFC000FFC002000FF8000FFF80007FE000001FFFFFFFFE000001FFFFFFFFF8
310
000001FFFE0000007FFFFFF0001FFFFFF8000FFFFFFFF8000FF8000FFFFFFFF8
310
000FFF0003FFFFFFFFF000001FFFFFFFF000E00000FFFFFFFFFFC000FFC00200
310
0FFC000FFF80007FE00001FFFFFFFFFE00001FFFFFFFFFF8000001FFFE000000
310
7FFFFFF0001FFFFFFC000FFFFFFFF8001FFC000FFFFFFFF8001FFF0003FFFFFF
310
FFF00001FFFFFFFFF000E00007FFFFFFFFFF8000FFC000001FFC000FFF80007F
310
C0000FFFFFFFFFFE0000FFFFFFFFFFF8000001FFFE0000007FFFFFF0001FFFFF
310
FC0007FFFFFFF0001FFC0007FFFFFFF0001FFF0003FFFFFFFFF00007FFFFFFFF
310
F000E0001FFFFFFFFFFF8000FFC000001FFC000FFF80007FC0003FFFFFFFFFFE
310
0001FFFFFFFFFFF8000001FFFE0000007FFFFFF0001FFFFFFC0007FFFFFFF000
310
1FFC0007FFFFFFF0001FFF0003FFFFFFFFF0001FFFFFFFFFF000E0003FFFFF00
310
03FF8001FFE000001FFC0007FF80007FC0007FFFFF0007FC0003FFFFF0003FF8
310
000001FFFE0000007FFFFFF0001FFFFFFC0003FFFFFFE0001FFC0003FFFFFFE0
310
001FFF0003FFFFFFFFF0003FFFFFFFFFF000E0003FFFFF0001FF8001FFE00000
310
1FFE0007FF80007FC0007FFFFE0003FC0007FFFFE0003FF8000001FFFE000000
310
7FFFFFF0001FFFFFFE0003FFFFFFE0003FFE0003FFFFFFE0003FFF0003FFFFFF
310
FFF0003FFFFF8001F000E0003FFFFF0001FF0001FFE000001FFE0007FF80007F
310
C0007FFFFE0003FC0007FFFFE0003FF8000001FFFE0000007FFFFFF0001FFFFF
310
FE0001FFFFFFC0003FFE0001FFFFFFC0003FFF0003FFFFFFFFF0003FFFFF0001
310
F000E0003FFFFF0003FF0001FFE000003FFE0007FF80007FC0007FFFFE0003FC
310
0007FFFFE0003FF8000001FFFE0000007FFFFFF0001FFFFFFF0001FFFFFFC000
310
7FFF0001FFFFFFC0007FFF0003FFFFFFFFF0003FFFFF0001F000E0003FFFFE00
310
03FF0003FFF000003FFE0003FF80007FC0007FFFFC0003FE0007FFFFE0003FF8
310
000001FFFE0000007FFFFFF0001FFFFFFF0000FFFFFF80007FFF0000FFFFFF80
310
007FFF0003FFFFFFFFF0003FFFFF0001F000E0003FFFFE0003FF0003FFF00000
310
3FFF0003FF80007FC0007FFFFC0007FE0007FFFFC0003FF8000001FFFE000000
310
7FFFFFF0001FFFFFFF80007FFFFF0000FFFF80007FFFFF0000FFFF0003FFFFFF
310
FFF0003FFFFF0003F000E0003FFFFC0003FE0003FFF000003FFF0003FF80007F
310
E0003FFFF80007FE0003FFFFC0007FF8000001FFFE0000007FFFFFF0001FFFFF
310
FF80003FFFFE0000FFFF80003FFFFE0000FFFF0003FFFFFFFFF0001FFFFE0003
310
F000F0001FFFF80003FE0003FFF000007FFF0001FF80007FE0003FFFF00007FE
310
0001FFFF80007FF8000001FFFE0000007FFFFFF0001FFFFFFFC0000FFFF80001
310
FFFFC0000FFFF80001FFFF0003FFFFFFFFF0001FFFFC0003F000F0000FFFF000
310
07FE0007FFF800007FFF0001FF80007FE0001FFFE00007FF0000FFFE00007FF8
310
000001FFFE0000007FFFFFF0001FFFFFFFC00003FFE00001FFFFC00003FFE000
310
01FFFF0003FFFFFFFFF8000FFFF80003F000F00003FFC00007FC0007FFF80000
310
7FFF8001FF80007FF00007FF80000FFF00007FF80000FFF8000001FFFE000000
310
7F80000000000001FFE000003E000003FFFFE000003E000003FFFF0003FFFFFF
310
FFF80003FFE00007F000F800000000000FFC0007FFF800007FFF8001FF80007F
310
F000000000000FFF000000000000FFF8000001FFFE0000007F80000000000001
310
FFF0000000000007FFFFF0000000000007FFFF0003FFFFFFFFFC00007E000007
310
F000F800000000000FFC0007FFF80000FFFF8000FF80007FF800000000001FFF
310
800000000001FFF8000001FFFE0000007F80000000000001FFF800000000000F
310
FFFFF800000000000FFFFF0003FFFFFFFFFC00000000000FF000FC0000000000
310
1FFC0007FFFC0000FFFF8000FF80007FF800000000003FFFC00000000001FFF8
310
000001FFFE0000007F80000000000001FFF800000000000FFFFFF80000000000
310
0FFFFF0003FFFFFFFFFE00000000001FF000FE00000000003FF8000FFFFC0000
310
FFFF8000FF80007FFC00000000003FFFC00000000003FFF8000001FFFE000000
310
7F80000000000001FFFC00000000001FFFFFFC00000000001FFFFF0003FFFFFF
310
FFFF00000000001FF000FF00000000003FF8000FFFFC0000FFFFC000FF80007F
310
FE00000000007FFFE00000000007FFF8000001FFFE0000007F80000000000001
310
FFFE00000000003FFFFFFE00000000003FFFFF0003FFFFFFFFFF80000000003F
310
F000FF80000000007FF8000FFFFC0001FFFFC0007F80007FFF0000000000FFFF
310
F0000000000FFFF800000000000000007F80000000000001FFFF8000000000FF
310
FFFFFF8000000000FFFFFF0003FFFFFFFFFFC0000000007FF000FFC000000000
310
FFF8000FFFFE0001FFFFC0007F80007FFF8000000001FFFFF8000000001FFFF8
310
00000000000000007F80000000000001FFFFC000000001FFFFFFFFC000000001
310
FFFFFF0003FFFFFFFFFFE000000000FFF000FFE000000003FFF0001FFFFE0001
310
FFFFC0007F80007FFFC000000007FFFFFE000000003FFFF80000000000000000
310
7F80000000000001FFFFE000000003FFFFFFFFE000000003FFFFFF0003FFFFFF
310
FFFFF000000003FFF000FFF80000000FFFF0001FFFFE0001FFFFE0007F80007F
310
FFF00000000FFFFFFF00000000FFFFF800000000000000007F80000000000001
310
FFFFF80000000FFFFFFFFFF80000000FFFFFFF0003FFFFFFFFFFFC0000000FFF
310
F000FFFE0000003FFFF0001FFFFE0003FFFFE0003F80007FFFFC0000003FFFFF
310
FFC0000003FFFFF800000000000000007F80000000000001FFFFFE0000003FFF
310
FFFFFFFE0000003FFFFFFF0003FFFFFFFFFFFF0000003FFFF000FFFF800000FF
310
FFF0001FFFFF0003FFFFE0003F80007FFFFF000001FFFFFFFFF800001FFFFFF8
310
00000000000000007F80000000000001FFFFFFC00001FFFFFFFFFFFFC00001FF
310
FFFFFF0003FFFFFFFFFFFFC00000FFFFF000FFFFF8000FFFFFFFFFFFFFFFFFFF
310
FFFFFFFFFFFFFFFFFFFFF0001FFFFFFFFFFF0000FFFFFFF80000000000000000
310
7FFFFFFFFFFFFFFFFFFFFFFC001FFFFFFFFFFFFFFC001FFFFFFFFFFFFFFFFFFF
310
FFFFFFFC001FFFFFF000FFFFFFFFFFFFFFFFFFFFFFFFFFFFFFFFFFFFFFFFFFFF
310
FFFFFFFFFFFFFFFFFFFFFFFFFFFFFFFFFFFFFFFFFFFFFFFFFFFFFFFFFFFFFFFF
310
FFFFFFFFFFFFFFFFFFFFFFFFFFFFFFFFFFFFFFFFFFFFFFFFFFFFFFFFFFFFFFFF
310
F000FFFFFFFFFFFFFFFFFFFFFFFFFFFFFFFFFFFFFFFFFFFFFFFFFFFFFFFFFFFF
310
FFFFFFFFFFFFFFFFFFFFFFFFFFFFFFFFFFFFFFFFFFFFFFFFFFFFFFFFFFFFFFFF
310
FFFFFFFFFFFFFFFFFFFFFFFFFFFFFFFFFFFFFFFFFFFFFFFFF000FFFFFFFFFFFF
310
FFFFFFFFFFFFFFFFFFFFFFFFFFFFFFFFFFFFFFFFFFFFFFFFFFFFFFFFFFFFFFFF
310
FFFFFFFFFFFFFFFFFFFFFFFFFFFFFFFFFFFFFFFFFFFFFFFFFFFFFFFFFFFFFFFF
310
FFFFFFFFFFFFFFFFFFFFFFFFFFFFFFFFF000FFFFFFFFFFFFFFFFFFFFFFFFFFFF
310
FFFFFFFFFFFFFFFFFFFFFFFFFFFFFFFFFFFFFFFFFFFFFFFFFFFFFFFFFFFFFFFF
310
FFFFFFFFFFFFFFFFFFFFFFFFFFFFFFFFFFFFFFFFFFFFFFFFFFFFFFFFFFFFFFFF
310
FFFFFFFFFFFFFFFFF000FFFFFFFFFFFFFFFFFFFFFFFFFFFFFFFFFFFFFFFFFFFF
310
FFFFFFFFFFFFFFFFFFFFFFFFFFFFFFFFFFFFFFFFFFFFFFFFFFFFFFFFFFFFFFFF
310
FFFFFFFFFFFFFFFFFFFFFFFFFFFFFFFFFFFFFFFFFFFFFFFFFFFFFFFFFFFFFFFF
310
F000FFFFFFFFFFFFFFFFFFFFFFFFFFFFFFFFFFFFFFFFFFFFFFFFFFFFFFFFFFFF
310
FFFFFFFFFFFFFFFFFFFFFFFFFFFFFFFFFFFFFFFFFFFFFFFFFFFFFFFFFFFFFFFF
310
FFFFFFFFFFFFFFFFFFFFFFFFFFFFFFFFFFFFFFFFFFFFFFFFF000FFFFFFFFFFFF
310
FFFFFFFFFFFFFFFFFFFFFFFFFFFFFFFFFFFFFFFFFFFFFFFFFFFFFFFFFFFFFFFF
310
FFFFFFFFFFFFFFFFFFFFFFFFFFFFFFFFFFFFFFFFFFFFFFFFFFFFFFFFFFFFFFFF
310
FFFFFFFFFFFFFFFFFFFFFFFFFFFFFFFFF000FFFFFFFFFFFFFFFFFFFFFFFFFFFF
310
FFFFFFFFFFFFFFFFFFFFFFFFFFFFFFFFFFFFFFFFFFFFFFFFFFFFFFFFFFFFFFFF
310
FFFFFFFFFFFFFFFFFFFFFFFFFFFFFFFFFFFFFFFFFFFFFFFFFFFFFFFFFFFFFFFF
310
FFFFFFFFFFFFFFFFF000FFFFFFFFFFFFFFFFFFFFFFFFFFFFFFFFFFFFFFFFFFFF
310
FFFFFFFFFFFFFFFFFFFFFFFFFFFFFFFFFFFFFFFFFFFFFFFFFFFFFFFFFFFFFFFF
310
FFFFFFFFFFFFFFFFFFFFFFFFFFFFFFFFFFFFFFFFFFFFFFFFFFFFFFFFFFFFFFFF
310
F000FFFFFFFFFFFFFFFFFFFFFFFFFFFFFFFFFFFFFFFFFFFFFFFFFFFFFFFFFFFF
310
FFFFFFFFFFFFFFFFFFFFFFFFFFFFFFFFFFFFFFFFFFFFFFFFFFFFFFFFFFFFFFFF
310
FFFFFFFFFFFFFFFFFFFFFFFFFFFFFFFFFFFFFFFFFFFFFFFFF000FFFFFFFFFFFF
310
FFFFFFFFFFFFFFFFFFFFFFFFFFFFFFFFFFFFFFFFFFFFFFFFFFFFFFFFFFFFFFFF
310
FFFFFFFFFFFFFFFFFFFFFFFFFFFFFFFFFFFFFFFFFFFFFFFFFFFFFFFFFFFFFFFF
310
FFFFFFFFFFFFFFFFFFFFFFFFFFFFFFFFF000FFFFFFFFFFFFFFFFFFFFFFFFFFFF
310
FFFFFFFFFFFFFFFFFFFFFFFFFFFFFFFFFFFFFFFFFFFFFFFFFFFFFFFFFFFFFFFF
310
FFFFFFFFFFFFFFFFFFFFFFFFFFFFFFFFFFFFFFFFFFFFFFFFFFFFFFFFFFFFFFFF
310
FFFFFFFFFFFFFFFFF000FFFFFFFFFFFFFFFFFFFFFFFFFFFFFFFFFFFFFFFFFFFF
310
FFFFFFFFFFFFFFFFFFFFFFFFFFFFFFFFFFFFFFFFFFFFFFFFFFFFFFFFFFFFFFFF
310
FFFFFFFFFFFFFFFFFFFFFFFFFFFFFFFFFFFFFFFFFFFFFFFFFFFFFFFFFFFFFFFF
310
F000FFFFFFFFFFFFFFFFFFFFFFFFFFFFFFFFFFFFFFFFFFFFFFFFFFFFFFFFFFFF
310
FFFFFFFFFFFFFFFFFFFFFFFFFFFFFFFFFFFFFFFFFFFFFFFFFFFFFFFFFFFFFFFF
310
FFFFFFFFFFFFFFFFFFFFFFFFFFFFFFFFFFFFFFFFFFFFFFFFF000FFFFFFFFFFFF
310
FFFFFFFFFFFFFFFFFFFFFFFFFFFFFFFFFFFFFFFFFFFFFFFFFFFFFFFFFFFFFFFF
310
FFFFFFFFFFFFFFFFFFFFFFFFFFFFFFFFFFFFFFFFFFFFFFFFFFFFFFFFFFFFFFFF
310
FFFFFFFFFFFFFFFFFFFFFFFFFFFFFFFFF000FFFFFFFFFFFFFFFFFFFFFFFFFFFF
310
FFFFFFFFFFFFFFFFFFFFFFFFFFFFFFFFFFFFFFFFFFFFFFFFFFFFFFFFFFFFFFFF
310
FFFFFFFFFFFFFFFFFFFFFFFFFFFFFFFFFFFFFFFFFFFFFFFFFFFFFFFFFFFFFFFF
310
FFFFFFFFFFFFFFFFF000FFFFFFFFFFFFFFFFFFFFFFFFFFFFFFFFFFFFFFFFFFFF
310
FFFFFFFFFFFFFFFFFFFFFFFFFFFFFFFFFFFFFFFFFFFFFFFFFFFFFFFFFFFFFFFF
310
FFFFFFFFFFFFFFFFFFFFFFFFFFFFFFFFFFFFFFFFFFFFFFFFFFFFFFFFFFFFFFFF
310
F000FFFFFFFFFFFFFFFFFFFFFFFFFFFFFFFFFFFFFFFFFFFFFFFFFFFFFFFFFFFF
310
FFFFFFFFFFFFFFFFFFFFFFFFFFFFFFFFFFFFFFFFFFFFFFFFFFFFFFFFFFFFFFFF
310
FFFFFFFFFFFFFFFFFFFFFFFFFFFFFFFFFFFFFFFFFFFFFFFFF000FFFFFFFFFFFF
310
FFFFFFFFFFFFFFFFFFFFFFFFFFFFFFFFFFFFFFFFFFFFFFFFFFFFFFFFFFFFFFFF
310
FFFFFFFFFFFFFFFFFFFFFFFFFFFFFFFFFFFFFFFFFFFFFFFFFFFFFFFFFFFFFFFF
310
FFFFFFFFFFFFFFFFFFFFFFFFFFFFFFFFF000FFFFFFFFFFFFFFFFFFFFFFFFFFFF
310
FFFFFFFFFFFFFFFFFFFFFFFFFFFFFFFFFFFFFFFFFFFFFFFFFFFFFFFFFFFFFFFF
310
FFFFFFFFFFFFFFFFFFFFFFFFFFFFFFFFFFFFFFFFFFFFFFFFFFFFFFFFFFFFFFFF
310
FFFFFFFFFFFFFFFFF000FFFFFFFFFFFFFFFFFFFFFFFFFFFFFFFFFFFFFFFFFFFF
310
FFFFFFFFFFFFFFFFFFFFFFFFFFFFFFFFFFFFFFFFFFFFFFFFFFFFFFFFFFFFFFFF
310
FFFFFFFFFFFFFFFFFFFFFFFFFFFFFFFFFFFFFFFFFFFFFFFFFFFFFFFFFFFFFFFF
310
F000FFFFFFFFFFFFFFFFFFFFFFFFFFFFFFFFFFFFFFFFFFFFFFFFFFFFFFFFFFFF
310
FFFFFFFFFFFFFFFFFFFFFFFFFFFFFFFFFFFFFFFFFFFFFFFFFFFFFFFFFFFFFFFF
310
FFFFFFFFFFFFFFFFFFFFFFFFFFFFFFFFFFFFFFFFFFFFFFFFF000FFFFFFFFFFFF
310
FFFFFFFFFFFFFFFFFFFFFFFFFFFFFFFFFFFFFFFFFFFFFFFFFFFFFFFFFFFFFFFF
310
FFFFFFFFFFFFFFFFFFFFFFFFFFFFFFFFFFFFFFFFFFFFFFFFFFFFFFFFFFFFFFFF
310
FFFFFFFFFFFFFFFFFFFFFFFFFFFFFFFFF0000000000000000000000000000000
310
0000000000000000000000000000000000000000000000000000000000000000
310
0000000000000000000000000000000000000000000000000000000000000000
310
0000000000000000000000000000000000000000000000000000000000000000
310
0000000000000000000000000000000000000000000000000000000000000000
310
0000000000000000000000000000000000000000000000000000000000000000
310
0000000000000000000000000000000000000000000000000000000000000000
310
0000000000000000000000000000000000000000000000000000000000000000
310
0000000000000000000000000000000000000000000000000000000000000000
310
0000000000000000000000000000000000000000000000000000000000000000
310
0000000000000000000000000000000000000000000000000000000000000000
310
0000000000000000000000000000000000000000000000000000000000000000
310
0000000000000000000000000000000000000000000000000000000000000000
310
0000000000000000000000000000000000000000000000000000000000000000
310
0000000000000000000000000000000000000000000000000000000000000000
310
0000000000000000000000000000000000000000000000000000000000000000
  1
OLE
  0
ENDSEC
  0
SECTION
  2
OBJECTS
  0
DICTIONARY
  5
C
330
0
100
AcDbDictionary
281
     1
  3
ACAD_GROUP
350
D
  3
ACAD_LAYOUT
350
1A
  3
ACAD_MLINESTYLE
350
17
  3
ACAD_PLOTSETTINGS
350
19
  3
ACAD_PLOTSTYLENAME
350
E
  3
ACAD_SCALELIST
350
47
  0
DICTIONARY
  5
D
102
{ACAD_REACTORS
330
C
102
}
330
C
100
AcDbDictionary
281
     1
  0
DICTIONARY
  5
1A
102
{ACAD_REACTORS
330
C
102
}
330
C
100
AcDbDictionary
281
     1
  3
Layout1
350
1E
  3
Layout2
350
26
  3
Model
350
22
  0
DICTIONARY
  5
17
102
{ACAD_REACTORS
330
C
102
}
330
C
100
AcDbDictionary
281
     1
  3
Standard
350
18
  0
DICTIONARY
  5
19
102
{ACAD_REACTORS
330
C
102
}
330
C
100
AcDbDictionary
281
     1
  0
ACDBDICTIONARYWDFLT
  5
E
102
{ACAD_REACTORS
330
C
102
}
330
C
100
AcDbDictionary
281
     1
  3
Normal
350
F
100
AcDbDictionaryWithDefault
340
F
  0
DICTIONARY
  5
47
102
{ACAD_REACTORS
330
C
102
}
330
C
100
AcDbDictionary
281
     1
  3
A0
350
48
  3
A1
350
49
  3
A2
350
4A
  3
A3
350
4B
  3
A4
350
4C
  3
A5
350
4D
  3
A6
350
4E
  3
A7
350
4F
  3
A8
350
50
  3
A9
350
51
  3
B0
350
52
  3
B1
350
53
  3
B2
350
54
  3
B3
350
55
  3
B4
350
56
  3
B5
350
57
  3
B6
350
58
  3
B7
350
59
  3
B8
350
5A
  3
B9
350
5B
  3
C0
350
5C
  3
C1
350
5D
  3
C2
350
5E
  3
C3
350
5F
  3
C4
350
60
  3
C5
350
61
  3
C6
350
62
  3
C7
350
63
  3
C8
350
64
  3
C9
350
65
  3
D0
350
66
  3
D1
350
67
  3
D2
350
68
  0
LAYOUT
  5
1E
102
{ACAD_REACTORS
330
1A
102
}
330
1A
100
AcDbPlotSettings
  1

  2
none_device
  4

  6

 40
0.0
 41
0.0
 42
0.0
 43
0.0
 44
0.0
 45
0.0
 46
0.0
 47
0.0
 48
0.0
 49
0.0
140
0.0
141
0.0
142
1.0
143
1.0
 70
   688
 72
     1
 73
     0
 74
     5
  7

 75
    16
147
1.0
148
0.0
149
0.0
100
AcDbLayout
  1
Layout1
 70
     1
 71
     1
 10
0.0
 20
0.0
 11
420.0
 21
297.0
 12
0.0
 22
0.0
 32
0.0
 14
1.0000000000E+20
 24
1.0000000000E+20
 34
1.0000000000E+20
 15
-1.0000000000E+20
 25
-1.0000000000E+20
 35
-1.0000000000E+20
146
0.0
 13
0.0
 23
0.0
 33
0.0
 16
1.0
 26
0.0
 36
0.0
 17
0.0
 27
1.0
 37
0.0
 76
     0
330
1B
  0
LAYOUT
  5
26
102
{ACAD_REACTORS
330
1A
102
}
330
1A
100
AcDbPlotSettings
  1

  2
none_device
  4

  6

 40
0.0
 41
0.0
 42
0.0
 43
0.0
 44
0.0
 45
0.0
 46
0.0
 47
0.0
 48
0.0
 49
0.0
140
0.0
141
0.0
142
1.0
143
1.0
 70
   688
 72
     1
 73
     0
 74
     5
  7

 75
    16
147
1.0
148
0.0
149
0.0
100
AcDbLayout
  1
Layout2
 70
     1
 71
     2
 10
0.0
 20
0.0
 11
0.0
 21
0.0
 12
0.0
 22
0.0
 32
0.0
 14
0.0
 24
0.0
 34
0.0
 15
0.0
 25
0.0
 35
0.0
146
0.0
 13
0.0
 23
0.0
 33
0.0
 16
1.0
 26
0.0
 36
0.0
 17
0.0
 27
1.0
 37
0.0
 76
     0
330
23
  0
LAYOUT
  5
22
102
{ACAD_REACTORS
330
1A
102
}
330
1A
100
AcDbPlotSettings
  1

  2
none_device
  4
Letter_(8.50_x_11.00_Inches)
  6

 40
6.35
 41
6.35
 42
6.35000508
 43
6.35000508
 44
215.9
 45
279.4
 46
0.0
 47
0.0
 48
0.0
 49
0.0
140
0.0
141
0.0
142
1.0
143
1.0
 70
  1712
 72
     1
 73
     0
 74
     0
  7

 75
     0
147
1.0
148
0.0
149
0.0
100
AcDbLayout
  1
Model
 70
     1
 71
     0
 10
0.0
 20
0.0
 11
297.0
 21
210.0
 12
0.0
 22
0.0
 32
0.0
 14
0.0
 24
0.0
 34
0.0
 15
297.0
 25
210.0
 35
0.0
146
0.0
 13
0.0
 23
0.0
 33
0.0
 16
1.0
 26
0.0
 36
0.0
 17
0.0
 27
1.0
 37
0.0
 76
     0
330
1F
331
29
  0
MLINESTYLE
  5
18
102
{ACAD_REACTORS
330
17
102
}
330
17
100
AcDbMlineStyle
  2
Standard
 70
     0
  3

 62
   256
 51
90.0
 52
90.0
 71
     2
 49
0.5
 62
   256
  6
BYLAYER
 49
-0.5
 62
   256
  6
BYLAYER
  0
ACDBPLACEHOLDER
  5
F
102
{ACAD_REACTORS
330
E
102
}
330
E
  0
SCALE
  5
48
102
{ACAD_REACTORS
330
47
102
}
330
47
100
AcDbScale
 70
     0
300
1:1
140
1.0
141
1.0
290
     1
  0
SCALE
  5
49
102
{ACAD_REACTORS
330
47
102
}
330
47
100
AcDbScale
 70
     0
300
1:2
140
1.0
141
2.0
290
     0
  0
SCALE
  5
4A
102
{ACAD_REACTORS
330
47
102
}
330
47
100
AcDbScale
 70
     0
300
1:4
140
1.0
141
4.0
290
     0
  0
SCALE
  5
4B
102
{ACAD_REACTORS
330
47
102
}
330
47
100
AcDbScale
 70
     0
300
1:5
140
1.0
141
5.0
290
     0
  0
SCALE
  5
4C
102
{ACAD_REACTORS
330
47
102
}
330
47
100
AcDbScale
 70
     0
300
1:8
140
1.0
141
8.0
290
     0
  0
SCALE
  5
4D
102
{ACAD_REACTORS
330
47
102
}
330
47
100
AcDbScale
 70
     0
300
1:10
140
1.0
141
10.0
290
     0
  0
SCALE
  5
4E
102
{ACAD_REACTORS
330
47
102
}
330
47
100
AcDbScale
 70
     0
300
1:16
140
1.0
141
16.0
290
     0
  0
SCALE
  5
4F
102
{ACAD_REACTORS
330
47
102
}
330
47
100
AcDbScale
 70
     0
300
1:20
140
1.0
141
20.0
290
     0
  0
SCALE
  5
50
102
{ACAD_REACTORS
330
47
102
}
330
47
100
AcDbScale
 70
     0
300
1:30
140
1.0
141
30.0
290
     0
  0
SCALE
  5
51
102
{ACAD_REACTORS
330
47
102
}
330
47
100
AcDbScale
 70
     0
300
1:40
140
1.0
141
40.0
290
     0
  0
SCALE
  5
52
102
{ACAD_REACTORS
330
47
102
}
330
47
100
AcDbScale
 70
     0
300
1:50
140
1.0
141
50.0
290
     0
  0
SCALE
  5
53
102
{ACAD_REACTORS
330
47
102
}
330
47
100
AcDbScale
 70
     0
300
1:100
140
1.0
141
100.0
290
     0
  0
SCALE
  5
54
102
{ACAD_REACTORS
330
47
102
}
330
47
100
AcDbScale
 70
     0
300
2:1
140
2.0
141
1.0
290
     0
  0
SCALE
  5
55
102
{ACAD_REACTORS
330
47
102
}
330
47
100
AcDbScale
 70
     0
300
4:1
140
4.0
141
1.0
290
     0
  0
SCALE
  5
56
102
{ACAD_REACTORS
330
47
102
}
330
47
100
AcDbScale
 70
     0
300
8:1
140
8.0
141
1.0
290
     0
  0
SCALE
  5
57
102
{ACAD_REACTORS
330
47
102
}
330
47
100
AcDbScale
 70
     0
300
10:1
140
10.0
141
1.0
290
     0
  0
SCALE
  5
58
102
{ACAD_REACTORS
330
47
102
}
330
47
100
AcDbScale
 70
     0
300
100:1
140
100.0
141
1.0
290
     0
  0
SCALE
  5
59
102
{ACAD_REACTORS
330
47
102
}
330
47
100
AcDbScale
 70
     0
300
1/128" = 1'-0"
140
0.0078125
141
12.0
290
     0
  0
SCALE
  5
5A
102
{ACAD_REACTORS
330
47
102
}
330
47
100
AcDbScale
 70
     0
300
1/64" = 1'-0"
140
0.015625
141
12.0
290
     0
  0
SCALE
  5
5B
102
{ACAD_REACTORS
330
47
102
}
330
47
100
AcDbScale
 70
     0
300
1/32" = 1'-0"
140
0.03125
141
12.0
290
     0
  0
SCALE
  5
5C
102
{ACAD_REACTORS
330
47
102
}
330
47
100
AcDbScale
 70
     0
300
1/16" = 1'-0"
140
0.0625
141
12.0
290
     0
  0
SCALE
  5
5D
102
{ACAD_REACTORS
330
47
102
}
330
47
100
AcDbScale
 70
     0
300
3/32" = 1'-0"
140
0.09375
141
12.0
290
     0
  0
SCALE
  5
5E
102
{ACAD_REACTORS
330
47
102
}
330
47
100
AcDbScale
 70
     0
300
1/8" = 1'-0"
140
0.125
141
12.0
290
     0
  0
SCALE
  5
5F
102
{ACAD_REACTORS
330
47
102
}
330
47
100
AcDbScale
 70
     0
300
3/16" = 1'-0"
140
0.1875
141
12.0
290
     0
  0
SCALE
  5
60
102
{ACAD_REACTORS
330
47
102
}
330
47
100
AcDbScale
 70
     0
300
1/4" = 1'-0"
140
0.25
141
12.0
290
     0
  0
SCALE
  5
61
102
{ACAD_REACTORS
330
47
102
}
330
47
100
AcDbScale
 70
     0
300
3/8" = 1'-0"
140
0.375
141
12.0
290
     0
  0
SCALE
  5
62
102
{ACAD_REACTORS
330
47
102
}
330
47
100
AcDbScale
 70
     0
300
1/2" = 1'-0"
140
0.5
141
12.0
290
     0
  0
SCALE
  5
63
102
{ACAD_REACTORS
330
47
102
}
330
47
100
AcDbScale
 70
     0
300
3/4" = 1'-0"
140
0.75
141
12.0
290
     0
  0
SCALE
  5
64
102
{ACAD_REACTORS
330
47
102
}
330
47
100
AcDbScale
 70
     0
300
1" = 1'-0"
140
1.0
141
12.0
290
     0
  0
SCALE
  5
65
102
{ACAD_REACTORS
330
47
102
}
330
47
100
AcDbScale
 70
     0
300
1-1/2" = 1'-0"
140
1.5
141
12.0
290
     0
  0
SCALE
  5
66
102
{ACAD_REACTORS
330
47
102
}
330
47
100
AcDbScale
 70
     0
300
3" = 1'-0"
140
3.0
141
12.0
290
     0
  0
SCALE
  5
67
102
{ACAD_REACTORS
330
47
102
}
330
47
100
AcDbScale
 70
     0
300
6" = 1'-0"
140
6.0
141
12.0
290
     0
  0
SCALE
  5
68
102
{ACAD_REACTORS
330
47
102
}
330
47
100
AcDbScale
 70
     0
300
1'-0" = 1'-0"
140
12.0
141
12.0
290
     0
  0
ENDSEC
  0
EOF
