  0
SECTION
  2
HEADER
  9
$ACADVER
  1
AC1015
  9
$ACADMAINTVER
 70
     6
  9
$DWGCODEPAGE
  3
ANSI_1252
  9
$INSBASE
 10
0.0
 20
0.0
 30
0.0
  9
$EXTMIN
 10
0.0
 20
0.0
 30
0.0
  9
$EXTMAX
 10
297.0
 20
210.0
 30
0.0
  9
$LIMMIN
 10
0.0
 20
0.0
  9
$LIMMAX
 10
297.0
 20
210.0
  9
$ORTHOMODE
 70
     0
  9
$REGENMODE
 70
     1
  9
$FILLMODE
 70
     1
  9
$QTEXTMODE
 70
     0
  9
$MIRRTEXT
 70
     1
  9
$LTSCALE
 40
1.0
  9
$ATTMODE
 70
     1
  9
$TEXTSIZE
 40
2.0
  9
$TRACEWID
 40
1.0
  9
$TEXTSTYLE
  7
Standard
  9
$CLAYER
  8
0
  9
$CELTYPE
  6
ByLayer
  9
$CECOLOR
 62
   256
  9
$CELTSCALE
 40
1.0
  9
$DISPSILH
 70
     0
  9
$DIMSCALE
 40
1.0
  9
$DIMASZ
 40
3.0
  9
$DIMEXO
 40
0.0
  9
$DIMDLI
 40
3.75
  9
$DIMRND
 40
0.0
  9
$DIMDLE
 40
0.0
  9
$DIMEXE
 40
1.0
  9
$DIMTP
 40
0.0
  9
$DIMTM
 40
0.0
  9
$DIMTXT
 40
2.0
  9
$DIMCEN
 40
2.5
  9
$DIMTSZ
 40
0.0
  9
$DIMTOL
 70
     0
  9
$DIMLIM
 70
     0
  9
$DIMTIH
 70
     1
  9
$DIMTOH
 70
     1
  9
$DIMSE1
 70
     0
  9
$DIMSE2
 70
     0
  9
$DIMTAD
 70
     1
  9
$DIMZIN
 70
     0
  9
$DIMBLK
  1

  9
$DIMASO
 70
     1
  9
$DIMSHO
 70
     1
  9
$DIMPOST
  1

  9
$DIMAPOST
  1

  9
$DIMALT
 70
     0
  9
$DIMALTD
 70
     3
  9
$DIMALTF
 40
0.0393700787
  9
$DIMLFAC
 40
1.0
  9
$DIMTOFL
 70
     1
  9
$DIMTVP
 40
0.0
  9
$DIMTIX
 70
     0
  9
$DIMSOXD
 70
     0
  9
$DIMSAH
 70
     0
  9
$DIMBLK1
  1

  9
$DIMBLK2
  1

  9
$DIMSTYLE
  2
ISO-25
  9
$DIMCLRD
 70
     0
  9
$DIMCLRE
 70
     0
  9
$DIMCLRT
 70
     0
  9
$DIMTFAC
 40
1.0
  9
$DIMGAP
 40
1.524
  9
$DIMJUST
 70
     0
  9
$DIMSD1
 70
     0
  9
$DIMSD2
 70
     0
  9
$DIMTOLJ
 70
     0
  9
$DIMTZIN
 70
     0
  9
$DIMALTZ
 70
     0
  9
$DIMALTTZ
 70
     0
  9
$DIMUPT
 70
     0
  9
$DIMDEC
 70
     2
  9
$DIMTDEC
 70
     3
  9
$DIMALTU
 70
     2
  9
$DIMALTTD
 70
     3
  9
$DIMTXSTY
  7
Standard
  9
$DIMAUNIT
 70
     0
  9
$DIMADEC
 70
     2
  9
$DIMALTRND
 40
0.0
  9
$DIMAZIN
 70
     0
  9
$DIMDSEP
 70
    44
  9
$DIMATFIT
 70
     3
  9
$DIMFRAC
 70
     0
  9
$DIMLDRBLK
  1

  9
$DIMLUNIT
 70
     2
  9
$DIMLWD
 70
    -2
  9
$DIMLWE
 70
    -2
  9
$DIMTMOVE
 70
     0
  9
$LUNITS
 70
     2
  9
$LUPREC
 70
     2
  9
$SKETCHINC
 40
1.0
  9
$FILLETRAD
 40
10.0
  9
$AUNITS
 70
     0
  9
$AUPREC
 70
     2
  9
$MENU
  1
.
  9
$ELEVATION
 40
0.0
  9
$PELEVATION
 40
0.0
  9
$THICKNESS
 40
0.0
  9
$LIMCHECK
 70
     0
  9
$CHAMFERA
 40
0.0
  9
$CHAMFERB
 40
0.0
  9
$CHAMFERC
 40
0.0
  9
$CHAMFERD
 40
0.0
  9
$SKPOLY
 70
     0
  9
$TDCREATE
 40
2457655.6363586
  9
$TDUCREATE
 40
2457655.553025266
  9
$TDUPDATE
 40
2457655.636359664
  9
$TDUUPDATE
 40
2457655.553026331
  9
$TDINDWG
 40
0.0000000116
  9
$TDUSRTIMER
 40
0.0000000116
  9
$USRTIMER
 70
     1
  9
$ANGBASE
 50
0.0
  9
$ANGDIR
 70
     0
  9
$PDMODE
 70
     0
  9
$PDSIZE
 40
-1.0
  9
$PLINEWID
 40
0.0
  9
$SPLFRAME
 70
     0
  9
$SPLINETYPE
 70
     6
  9
$SPLINESEGS
 70
     8
  9
$HANDSEED
  5
1ED
  9
$SURFTAB1
 70
     6
  9
$SURFTAB2
 70
     6
  9
$SURFTYPE
 70
     6
  9
$SURFU
 70
     6
  9
$SURFV
 70
     6
  9
$UCSBASE
  2

  9
$UCSNAME
  2

  9
$UCSORG
 10
0.0
 20
0.0
 30
0.0
  9
$UCSXDIR
 10
1.0
 20
0.0
 30
0.0
  9
$UCSYDIR
 10
0.0
 20
1.0
 30
0.0
  9
$UCSORTHOREF
  2

  9
$UCSORTHOVIEW
 70
     0
  9
$UCSORGTOP
 10
0.0
 20
0.0
 30
0.0
  9
$UCSORGBOTTOM
 10
0.0
 20
0.0
 30
0.0
  9
$UCSORGLEFT
 10
0.0
 20
0.0
 30
0.0
  9
$UCSORGRIGHT
 10
0.0
 20
0.0
 30
0.0
  9
$UCSORGFRONT
 10
0.0
 20
0.0
 30
0.0
  9
$UCSORGBACK
 10
0.0
 20
0.0
 30
0.0
  9
$PUCSBASE
  2

  9
$PUCSNAME
  2

  9
$PUCSORG
 10
0.0
 20
0.0
 30
0.0
  9
$PUCSXDIR
 10
1.0
 20
0.0
 30
0.0
  9
$PUCSYDIR
 10
0.0
 20
1.0
 30
0.0
  9
$PUCSORTHOREF
  2

  9
$PUCSORTHOVIEW
 70
     0
  9
$PUCSORGTOP
 10
0.0
 20
0.0
 30
0.0
  9
$PUCSORGBOTTOM
 10
0.0
 20
0.0
 30
0.0
  9
$PUCSORGLEFT
 10
0.0
 20
0.0
 30
0.0
  9
$PUCSORGRIGHT
 10
0.0
 20
0.0
 30
0.0
  9
$PUCSORGFRONT
 10
0.0
 20
0.0
 30
0.0
  9
$PUCSORGBACK
 10
0.0
 20
0.0
 30
0.0
  9
$USERI1
 70
     0
  9
$USERI2
 70
     0
  9
$USERI3
 70
     0
  9
$USERI4
 70
     0
  9
$USERI5
 70
     0
  9
$USERR1
 40
0.0
  9
$USERR2
 40
0.0
  9
$USERR3
 40
0.0
  9
$USERR4
 40
0.0
  9
$USERR5
 40
0.0
  9
$WORLDVIEW
 70
     1
  9
$SHADEDGE
 70
     3
  9
$SHADEDIF
 70
    70
  9
$TILEMODE
 70
     1
  9
$MAXACTVP
 70
    64
  9
$PINSBASE
 10
0.0
 20
0.0
 30
0.0
  9
$PLIMCHECK
 70
     0
  9
$PEXTMIN
 10
1.0000000000E+20
 20
1.0000000000E+20
 30
1.0000000000E+20
  9
$PEXTMAX
 10
-1.0000000000E+20
 20
-1.0000000000E+20
 30
-1.0000000000E+20
  9
$PLIMMIN
 10
0.0
 20
0.0
  9
$PLIMMAX
 10
420.0
 20
297.0
  9
$UNITMODE
 70
     0
  9
$VISRETAIN
 70
     1
  9
$PLINEGEN
 70
     0
  9
$PSLTSCALE
 70
     1
  9
$TREEDEPTH
 70
  3020
  9
$CMLSTYLE
  2
Standard
  9
$CMLJUST
 70
     0
  9
$CMLSCALE
 40
20.0
  9
$PROXYGRAPHICS
 70
     1
  9
$MEASUREMENT
 70
     1
  9
$CELWEIGHT
370
    -1
  9
$ENDCAPS
280
     0
  9
$JOINSTYLE
280
     0
  9
$LWDISPLAY
290
     1
  9
$INSUNITS
 70
     4
  9
$HYPERLINKBASE
  1

  9
$STYLESHEET
  1

  9
$XEDIT
290
     1
  9
$CEPSNTYPE
380
     0
  9
$PSTYLEMODE
290
     1
  9
$FINGERPRINTGUID
  2
{C6792C0E-D2FE-445E-A933-EA00036B9E1E}
  9
$VERSIONGUID
  2
{FAEB1C32-E019-11D5-929B-00C0DF256EC4}
  9
$EXTNAMES
290
     1
  9
$PSVPSCALE
 40
0.0
  9
$OLESTARTUP
290
     0
  0
ENDSEC
  0
SECTION
  2
CLASSES
  0
CLASS
  1
ACDBDICTIONARYWDFLT
  2
AcDbDictionaryWithDefault
  3
ObjectDBX Classes
 90
        0
280
     0
281
     0
  0
CLASS
  1
VISUALSTYLE
  2
AcDbVisualStyle
  3
ObjectDBX Classes
 90
     4095
280
     0
281
     0
  0
CLASS
  1
MATERIAL
  2
AcDbMaterial
  3
ObjectDBX Classes
 90
     1153
280
     0
281
     0
  0
CLASS
  1
SCALE
  2
AcDbScale
  3
ObjectDBX Classes
 90
     1153
280
     0
281
     0
  0
CLASS
  1
TABLESTYLE
  2
AcDbTableStyle
  3
ObjectDBX Classes
 90
     4095
280
     0
281
     0
  0
CLASS
  1
MLEADERSTYLE
  2
AcDbMLeaderStyle
  3
ACDB_MLEADERSTYLE_CLASS
 90
     4095
280
     0
281
     0
  0
CLASS
  1
SUN
  2
AcDbSun
  3
SCENEOE
 90
     1153
280
     0
281
     0
  0
CLASS
  1
ACDBPLACEHOLDER
  2
AcDbPlaceHolder
  3
ObjectDBX Classes
 90
        0
280
     0
281
     0
  0
CLASS
  1
LAYOUT
  2
AcDbLayout
  3
ObjectDBX Classes
 90
        0
280
     0
281
     0
  0
ENDSEC
  0
SECTION
  2
TABLES
  0
TABLE
  2
VPORT
  5
8
330
0
100
AcDbSymbolTable
 70
     1
  0
VPORT
  5
29
330
8
100
AcDbSymbolTableRecord
100
AcDbViewportTableRecord
  2
*Active
 70
     0
 10
0.0
 20
0.0
 11
1.0
 21
1.0
 12
148.5
 22
105.0
 13
0.0
 23
0.0
 14
10.0
 24
10.0
 15
10.0
 25
10.0
 16
0.0
 26
0.0
 36
1.0
 17
0.0
 27
0.0
 37
0.0
 40
210.0
 41
1.4142857143
 42
50.0
 43
0.0
 44
0.0
 50
0.0
 51
0.0
 71
     0
 72
  2000
 73
     1
 74
     3
 75
     0
 76
     0
 77
     0
 78
     0
281
     0
 65
     1
110
0.0
120
0.0
130
0.0
111
1.0
121
0.0
131
0.0
112
0.0
122
1.0
132
0.0
 79
     0
146
0.0
  0
ENDTAB
  0
TABLE
  2
LTYPE
  5
5
330
0
100
AcDbSymbolTable
 70
     6
  0
LTYPE
  5
14
330
5
100
AcDbSymbolTableRecord
100
AcDbLinetypeTableRecord
  2
ByBlock
 70
     0
  3

 72
    65
 73
     0
 40
0.0
  0
LTYPE
  5
15
330
5
100
AcDbSymbolTableRecord
100
AcDbLinetypeTableRecord
  2
ByLayer
 70
     0
  3

 72
    65
 73
     0
 40
0.0
  0
LTYPE
  5
16
330
5
100
AcDbSymbolTableRecord
100
AcDbLinetypeTableRecord
  2
Continuous
 70
     0
  3
Solid line
 72
    65
 73
     0
 40
0.0
  0
LTYPE
  5
6E
330
5
100
AcDbSymbolTableRecord
100
AcDbLinetypeTableRecord
  2
HIDDEN
 70
     0
  3
Hidden __ __ __ __ __ __ __ __ __ __ __ __ __ __
 72
    65
 73
     2
 40
1.905
 49
1.27
 74
     0
 49
-0.635
 74
     0
  0
LTYPE
  5
6F
330
5
100
AcDbSymbolTableRecord
100
AcDbLinetypeTableRecord
  2
PHANTOM
 70
     0
  3
Phantom ______  __  __  ______  __  __  ______
 72
    65
 73
     6
 40
12.7
 49
6.35
 74
     0
 49
-1.27
 74
     0
 49
1.27
 74
     0
 49
-1.27
 74
     0
 49
1.27
 74
     0
 49
-1.27
 74
     0
  0
LTYPE
  5
70
330
5
100
AcDbSymbolTableRecord
100
AcDbLinetypeTableRecord
  2
CENTER
 70
     0
  3
Center ____ _ ____ _ ____ _ ____ _ ____ _ ____
 72
    65
 73
     4
 40
10.16
 49
6.35
 74
     0
 49
-1.27
 74
     0
 49
1.27
 74
     0
 49
-1.27
 74
     0
  0
LTYPE
  5
71
330
5
100
AcDbSymbolTableRecord
100
AcDbLinetypeTableRecord
  2
CENTERX2
 70
     0
  3
Center (2x) ________  __  ________  __  _____
 72
    65
 73
     4
 40
20.32
 49
12.7
 74
     0
 49
-2.54
 74
     0
 49
2.54
 74
     0
 49
-2.54
 74
     0
  0
LTYPE
  5
72
330
5
100
AcDbSymbolTableRecord
100
AcDbLinetypeTableRecord
  2
DOT2
 70
     0
  3
Dot (.5x) ........................................
 72
    65
 73
     2
 40
0.635
 49
0.0
 74
     0
 49
-0.635
 74
     0
  0
ENDTAB
  0
TABLE
  2
LAYER
  5
2
330
0
100
AcDbSymbolTable
 70
     5
  0
LAYER
  5
10
330
2
100
AcDbSymbolTableRecord
100
AcDbLayerTableRecord
  2
0
 70
     0
 62
     7
  6
Continuous
370
    -3
390
F
  0
LAYER
  5
73
330
2
100
AcDbSymbolTableRecord
100
AcDbLayerTableRecord
  2
FORMAT
 70
     0
 62
     7
  6
Continuous
370
    -3
390
F
  0
LAYER
  5
74
330
2
100
AcDbSymbolTableRecord
100
AcDbLayerTableRecord
  2
VERMASSUNG
 70
     0
 62
     7
  6
Continuous
370
    -3
390
F
  0
LAYER
  5
75
330
2
100
AcDbSymbolTableRecord
100
AcDbLayerTableRecord
  2
KOPF_DÜNN
 70
     0
 62
     7
  6
Continuous
370
    -3
390
F
  0
LAYER
  5
76
330
2
100
AcDbSymbolTableRecord
100
AcDbLayerTableRecord
  2
KOPF_DICK
 70
     0
 62
     7
  6
Continuous
370
    15
390
F
  0
ENDTAB
  0
TABLE
  2
STYLE
  5
3
330
0
100
AcDbSymbolTable
 70
     3
  0
STYLE
  5
11
330
3
100
AcDbSymbolTableRecord
100
AcDbTextStyleTableRecord
  2
Standard
 70
     0
 40
0.0
 41
1.0
 50
0.0
 71
     0
 42
2.0
  3
txt
  4

  0
STYLE
  5
77
330
3
100
AcDbSymbolTableRecord
100
AcDbTextStyleTableRecord
  2
SLDTEXTSTYLE0
 70
     0
 40
0.0
 41
0.7
 50
0.0
 71
     0
 42
2.0
  3
TXT
  4

  0
STYLE
  5
7B
330
3
100
AcDbSymbolTableRecord
100
AcDbTextStyleTableRecord
  2
SLDTEXTSTYLE1
 70
     0
 40
0.0
 41
0.6444444444
 50
0.0
 71
     0
 42
2.0
  3
TXT
  4

  0
ENDTAB
  0
TABLE
  2
VIEW
  5
6
330
0
100
AcDbSymbolTable
 70
     0
  0
ENDTAB
  0
TABLE
  2
UCS
  5
7
330
0
100
AcDbSymbolTable
 70
     0
  0
ENDTAB
  0
TABLE
  2
APPID
  5
9
330
0
100
AcDbSymbolTable
 70
     1
  0
APPID
  5
12
330
9
100
AcDbSymbolTableRecord
100
AcDbRegAppTableRecord
  2
ACAD
 70
     0
  0
ENDTAB
  0
TABLE
  2
DIMSTYLE
  5
A
330
0
100
AcDbSymbolTable
 70
     2
100
AcDbDimStyleTable
  0
DIMSTYLE
105
27
330
A
100
AcDbSymbolTableRecord
100
AcDbDimStyleTableRecord
  2
ISO-25
 70
     0
 41
2.5
 42
0.625
 43
3.75
 44
1.25
 73
     0
 74
     0
 77
     1
 78
     8
140
2.5
141
2.5
143
0.0393700787
147
0.625
171
     3
172
     1
178
     0
271
     2
272
     2
274
     3
278
    44
283
     0
284
     8
340
11
  0
DIMSTYLE
105
12E
102
{ACAD_REACTORS
330
12D
330
13A
330
144
330
14E
330
158
102
}
330
A
100
AcDbSymbolTableRecord
100
AcDbDimStyleTableRecord
  2
SLDDIMSTYLE0
 70
     0
 41
3.0
 44
0.0
 45
0.000000001
 73
     0
 74
     0
 77
     1
 78
    12
 79
     3
140
2.0
147
0.5
173
     1
178
     0
271
     2
272
     3
276
     2
284
    12
340
77
  0
ENDTAB
  0
TABLE
  2
BLOCK_RECORD
  5
1
330
0
100
AcDbSymbolTable
 70
     6
  0
BLOCK_RECORD
  5
1F
330
1
100
AcDbSymbolTableRecord
100
AcDbBlockTableRecord
  2
*Model_Space
340
22
  0
BLOCK_RECORD
  5
1B
330
1
100
AcDbSymbolTableRecord
100
AcDbBlockTableRecord
  2
*Paper_Space
340
1E
  0
BLOCK_RECORD
  5
23
330
1
100
AcDbSymbolTableRecord
100
AcDbBlockTableRecord
  2
*Paper_Space0
340
26
  0
BLOCK_RECORD
  5
12F
330
1
100
AcDbSymbolTableRecord
100
AcDbBlockTableRecord
  2
_D
340
0
  0
BLOCK_RECORD
  5
13B
330
1
100
AcDbSymbolTableRecord
100
AcDbBlockTableRecord
  2
_D_1
340
0
  0
BLOCK_RECORD
  5
145
330
1
100
AcDbSymbolTableRecord
100
AcDbBlockTableRecord
  2
_D_2
340
0
  0
BLOCK_RECORD
  5
14F
330
1
100
AcDbSymbolTableRecord
100
AcDbBlockTableRecord
  2
_D_3
340
0
  0
BLOCK_RECORD
  5
159
330
1
100
AcDbSymbolTableRecord
100
AcDbBlockTableRecord
  2
_D_4
340
0
  0
ENDTAB
  0
ENDSEC
  0
SECTION
  2
BLOCKS
  0
BLOCK
  5
20
330
1F
100
AcDbEntity
  8
0
100
AcDbBlockBegin
  2
*Model_Space
 70
     0
 10
0.0
 20
0.0
 30
0.0
  3
*Model_Space
  1

  0
ENDBLK
  5
21
330
1F
100
AcDbEntity
  8
0
100
AcDbBlockEnd
  0
BLOCK
  5
1C
330
1B
100
AcDbEntity
 67
     1
  8
0
100
AcDbBlockBegin
  2
*Paper_Space
 70
     0
 10
0.0
 20
0.0
 30
0.0
  3
*Paper_Space
  1

  0
ENDBLK
  5
1D
330
1B
100
AcDbEntity
 67
     1
  8
0
100
AcDbBlockEnd
  0
BLOCK
  5
24
330
23
100
AcDbEntity
  8
0
100
AcDbBlockBegin
  2
*Paper_Space0
 70
     0
 10
0.0
 20
0.0
 30
0.0
  3
*Paper_Space0
  1

  0
ENDBLK
  5
25
330
23
100
AcDbEntity
  8
0
100
AcDbBlockEnd
  0
BLOCK
  5
130
330
12F
100
AcDbEntity
  8
0
100
AcDbBlockBegin
  2
_D
 70
     0
 10
0.0
 20
0.0
 30
0.0
  3
_D
  1

  0
SOLID
  5
132
330
12F
100
AcDbEntity
  8
VERMASSUNG
100
AcDbTrace
 10
75.7272080716
 20
143.0315605749
 30
0.0
 11
75.2772080716
 21
140.0315605749
 31
0.0
 12
76.1772080716
 22
140.0315605749
 32
0.0
 13
76.1772080716
 23
140.0315605749
 33
0.0
  0
SOLID
  5
133
330
12F
100
AcDbEntity
  8
VERMASSUNG
100
AcDbTrace
 10
75.7272080716
 20
80.0315605749
 30
0.0
 11
76.1772080716
 21
83.0315605749
 31
0.0
 12
75.2772080716
 22
83.0315605749
 32
0.0
 13
75.2772080716
 23
83.0315605749
 33
0.0
  0
LINE
  5
134
330
12F
100
AcDbEntity
  8
VERMASSUNG
100
AcDbLine
 10
169.2471416465
 20
143.0315605749
 30
0.0
 11
74.7272080716
 21
143.0315605749
 31
0.0
  0
LINE
  5
135
330
12F
100
AcDbEntity
  8
VERMASSUNG
100
AcDbLine
 10
169.2471465645
 20
80.0315605749
 30
0.0
 11
74.7272080716
 21
80.0315605749
 31
0.0
  0
LINE
  5
136
330
12F
100
AcDbEntity
  8
VERMASSUNG
100
AcDbLine
 10
75.7272080716
 20
143.0315605749
 30
0.0
 11
75.7272080716
 21
80.0315605749
 31
0.0
  0
MTEXT
  5
137
330
12F
100
AcDbEntity
  8
VERMASSUNG
100
AcDbMText
 10
72.9490728154
 20
100.827075508
 30
0.0
 40
2.0
 41
0.0
 71
     1
 72
     1
  1
MAS BT 40
  7
SLDTEXTSTYLE0
 11
-7.044195017643634E-15
 21
1.0
 31
0.0
 73
     1
 44
1.0
  0
MTEXT
  5
138
330
12F
100
AcDbEntity
  8
VERMASSUNG
100
AcDbMText
 10
73.1490727667
 20
115.8270751727
 30
0.0
 40
2.0
 41
0.0
 71
     1
 72
     1
  1
%%c
  7
SLDTEXTSTYLE0
 11
-7.044195017643634E-15
 21
1.0
 31
0.0
 73
     1
 44
1.0
  0
MTEXT
  5
139
330
12F
100
AcDbEntity
  8
VERMASSUNG
100
AcDbMText
 10
73.1490724756
 20
119.4366656213
 30
0.0
 40
2.0
 41
0.0
 71
     1
 72
     1
  1
63
  7
SLDTEXTSTYLE0
 11
-7.044195017643634E-15
 21
1.0
 31
0.0
 73
     1
 44
1.0
  0
ENDBLK
  5
131
330
12F
100
AcDbEntity
  8
0
100
AcDbBlockEnd
  0
BLOCK
  5
13C
330
13B
100
AcDbEntity
  8
0
100
AcDbBlockBegin
  2
_D_1
 70
     0
 10
0.0
 20
0.0
 30
0.0
  3
_D_1
  1

  0
SOLID
  5
13E
330
13B
100
AcDbEntity
  8
VERMASSUNG
100
AcDbTrace
 10
79.8471457906
 20
159.0115671048
 30
0.0
 11
82.8471457906
 21
158.5615671048
 31
0.0
 12
82.8471457906
 22
159.4615671048
 32
0.0
 13
82.8471457906
 23
159.4615671048
 33
0.0
  0
SOLID
  5
13F
330
13B
100
AcDbEntity
  8
VERMASSUNG
100
AcDbTrace
 10
197.2471457906
 20
159.0115671048
 30
0.0
 11
194.2471457906
 21
159.4615671048
 31
0.0
 12
194.2471457906
 22
158.5615671048
 32
0.0
 13
194.2471457906
 23
158.5615671048
 33
0.0
  0
LINE
  5
140
330
13B
100
AcDbEntity
  8
VERMASSUNG
100
AcDbLine
 10
79.8471457906
 20
123.354316172
 30
0.0
 11
79.8471457906
 21
160.0115671048
 31
0.0
  0
LINE
  5
141
330
13B
100
AcDbEntity
  8
VERMASSUNG
100
AcDbLine
 10
197.2471457906
 20
123.8315605749
 30
0.0
 11
197.2471457906
 21
160.0115671048
 31
0.0
  0
LINE
  5
142
330
13B
100
AcDbEntity
  8
VERMASSUNG
100
AcDbLine
 10
79.8471457906
 20
159.0115671048
 30
0.0
 11
197.2471457906
 21
159.0115671048
 31
0.0
  0
MTEXT
  5
143
330
13B
100
AcDbEntity
  8
VERMASSUNG
100
AcDbMText
 10
135.74776577
 20
161.5897027008
 30
0.0
 40
2.0
 41
0.0
 71
     1
 72
     1
  1
117.4
  7
SLDTEXTSTYLE0
 73
     1
 44
1.0
  0
ENDBLK
  5
13D
330
13B
100
AcDbEntity
  8
0
100
AcDbBlockEnd
  0
BLOCK
  5
146
330
145
100
AcDbEntity
  8
0
100
AcDbBlockBegin
  2
_D_2
 70
     0
 10
0.0
 20
0.0
 30
0.0
  3
_D_2
  1

  0
SOLID
  5
148
330
145
100
AcDbEntity
  8
VERMASSUNG
100
AcDbTrace
 10
145.2471457906
 20
153.0115671048
 30
0.0
 11
148.2471457906
 21
152.5615671048
 31
0.0
 12
148.2471457906
 22
153.4615671048
 32
0.0
 13
148.2471457906
 23
153.4615671048
 33
0.0
  0
SOLID
  5
149
330
145
100
AcDbEntity
  8
VERMASSUNG
100
AcDbTrace
 10
197.2471457906
 20
153.0115671048
 30
0.0
 11
194.2471457906
 21
153.4615671048
 31
0.0
 12
194.2471457906
 22
152.5615671048
 32
0.0
 13
194.2471457906
 23
152.5615671048
 33
0.0
  0
LINE
  5
14A
330
145
100
AcDbEntity
  8
VERMASSUNG
100
AcDbLine
 10
145.2471457906
 20
133.7565605749
 30
0.0
 11
145.2471457906
 21
154.0115671048
 31
0.0
  0
LINE
  5
14B
330
145
100
AcDbEntity
  8
VERMASSUNG
100
AcDbLine
 10
197.2471457906
 20
123.8315605749
 30
0.0
 11
197.2471457906
 21
154.0115671048
 31
0.0
  0
LINE
  5
14C
330
145
100
AcDbEntity
  8
VERMASSUNG
100
AcDbLine
 10
145.2471457906
 20
153.0115671048
 30
0.0
 11
197.2471457906
 21
153.0115671048
 31
0.0
  0
MTEXT
  5
14D
330
145
100
AcDbEntity
  8
VERMASSUNG
100
AcDbMText
 10
169.8474557803
 20
155.5897027008
 30
0.0
 40
2.0
 41
0.0
 71
     1
 72
     1
  1
52
  7
SLDTEXTSTYLE0
 73
     1
 44
1.0
  0
ENDBLK
  5
147
330
145
100
AcDbEntity
  8
0
100
AcDbBlockEnd
  0
BLOCK
  5
150
330
14F
100
AcDbEntity
  8
0
100
AcDbBlockBegin
  2
_D_3
 70
     0
 10
0.0
 20
0.0
 30
0.0
  3
_D_3
  1

  0
SOLID
  5
152
330
14F
100
AcDbEntity
  8
VERMASSUNG
100
AcDbTrace
 10
172.2471457906
 20
147.0115671048
 30
0.0
 11
175.2471457906
 21
146.5615671048
 31
0.0
 12
175.2471457906
 22
147.4615671048
 32
0.0
 13
175.2471457906
 23
147.4615671048
 33
0.0
  0
SOLID
  5
153
330
14F
100
AcDbEntity
  8
VERMASSUNG
100
AcDbTrace
 10
197.2471457906
 20
147.0115671048
 30
0.0
 11
194.2471457906
 21
147.4615671048
 31
0.0
 12
194.2471457906
 22
146.5615671048
 32
0.0
 13
194.2471457906
 23
146.5615671048
 33
0.0
  0
LINE
  5
154
330
14F
100
AcDbEntity
  8
VERMASSUNG
100
AcDbLine
 10
172.2471457906
 20
142.0315605749
 30
0.0
 11
172.2471457906
 21
148.0115671048
 31
0.0
  0
LINE
  5
155
330
14F
100
AcDbEntity
  8
VERMASSUNG
100
AcDbLine
 10
197.2471457906
 20
123.8315605749
 30
0.0
 11
197.2471457906
 21
148.0115671048
 31
0.0
  0
LINE
  5
156
330
14F
100
AcDbEntity
  8
VERMASSUNG
100
AcDbLine
 10
172.2471457906
 20
147.0115671048
 30
0.0
 11
197.2471457906
 21
147.0115671048
 31
0.0
  0
MTEXT
  5
157
330
14F
100
AcDbEntity
  8
VERMASSUNG
100
AcDbMText
 10
183.3474557803
 20
149.5897027008
 30
0.0
 40
2.0
 41
0.0
 71
     1
 72
     1
  1
25
  7
SLDTEXTSTYLE0
 73
     1
 44
1.0
  0
ENDBLK
  5
151
330
14F
100
AcDbEntity
  8
0
100
AcDbBlockEnd
  0
BLOCK
  5
15A
330
159
100
AcDbEntity
  8
0
100
AcDbBlockBegin
  2
_D_4
 70
     0
 10
0.0
 20
0.0
 30
0.0
  3
_D_4
  1

  0
SOLID
  5
15C
330
159
100
AcDbEntity
  8
VERMASSUNG
100
AcDbTrace
 10
204.0670266583
 20
124.0315605749
 30
0.0
 11
203.6170266583
 21
121.0315605749
 31
0.0
 12
204.5170266583
 22
121.0315605749
 32
0.0
 13
204.5170266583
 23
121.0315605749
 33
0.0
  0
SOLID
  5
15D
330
159
100
AcDbEntity
  8
VERMASSUNG
100
AcDbTrace
 10
204.0670266583
 20
99.0315605749
 30
0.0
 11
204.5170266583
 21
102.0315605749
 31
0.0
 12
203.6170266583
 22
102.0315605749
 32
0.0
 13
203.6170266583
 23
102.0315605749
 33
0.0
  0
LINE
  5
15E
330
159
100
AcDbEntity
  8
VERMASSUNG
100
AcDbLine
 10
197.0471457906
 20
124.0315605749
 30
0.0
 11
205.0670266583
 21
124.0315605749
 31
0.0
  0
LINE
  5
15F
330
159
100
AcDbEntity
  8
VERMASSUNG
100
AcDbLine
 10
197.0471457906
 20
99.0315605749
 30
0.0
 11
205.0670266583
 21
99.0315605749
 31
0.0
  0
LINE
  5
160
330
159
100
AcDbEntity
  8
VERMASSUNG
100
AcDbLine
 10
204.0670266583
 20
124.0315605749
 30
0.0
 11
204.0670266583
 21
99.0315605749
 31
0.0
  0
MTEXT
  5
161
330
159
100
AcDbEntity
  8
VERMASSUNG
100
AcDbMText
 10
201.2888914021
 20
105.1265609314
 30
0.0
 40
2.0
 41
0.0
 71
     1
 72
     1
  1
MBM
  7
SLDTEXTSTYLE0
 11
-7.044195017643634E-15
 21
1.0
 31
0.0
 73
     1
 44
1.0
  0
MTEXT
  5
162
330
159
100
AcDbEntity
  8
VERMASSUNG
100
AcDbMText
 10
201.4888913534
 20
111.5265607697
 30
0.0
 40
2.0
 41
0.0
 71
     1
 72
     1
  1
%%c
  7
SLDTEXTSTYLE0
 11
-7.044195017643634E-15
 21
1.0
 31
0.0
 73
     1
 44
1.0
  0
MTEXT
  5
163
330
159
100
AcDbEntity
  8
VERMASSUNG
100
AcDbMText
 10
201.2888914021
 20
115.1365612497
 30
0.0
 40
2.0
 41
0.0
 71
     1
 72
     1
  1
25
  7
SLDTEXTSTYLE0
 11
-7.044195017643634E-15
 21
1.0
 31
0.0
 73
     1
 44
1.0
  0
ENDBLK
  5
15B
330
159
100
AcDbEntity
  8
0
100
AcDbBlockEnd
  0
ENDSEC
  0
SECTION
  2
ENTITIES
  0
MTEXT
  5
78
330
1F
100
AcDbEntity
  8
KOPF_DÜNN
100
AcDbMText
 10
13.8892156294
 20
23.8442973028
 30
0.0
 40
3.0
 41
0.0
 71
     1
 72
     1
  1
102.412.251
  7
SLDTEXTSTYLE0
 73
     1
 44
1.0
  0
MTEXT
  5
79
330
1F
100
AcDbEntity
  8
VERMASSUNG
100
AcDbMText
 10
13.9329988022
 20
28.8834360957
 30
0.0
 40
3.0
 41
0.0
 71
     1
 72
     1
  1
Aufnahme_Master shank MBM 25
  7
SLDTEXTSTYLE0
 73
     1
 44
1.0
  0
MTEXT
  5
7A
330
1F
100
AcDbEntity
  8
VERMASSUNG
100
AcDbMText
 10
98.8601118557
 20
13.8365368761
 30
0.0
 40
2.0
 41
0.0
 71
     1
 72
     1
  1
Datum: 22.11.2007
  7
SLDTEXTSTYLE0
 73
     1
 44
1.0
  0
MTEXT
  5
7C
330
1F
100
AcDbEntity
  8
VERMASSUNG
100
AcDbMText
 10
13.933048693
 20
18.0482802738
 30
0.0
 40
2.0
 41
0.0
 71
     1
 72
     1
  1
MAS BT 40 / MBM 25
  7
SLDTEXTSTYLE1
 73
     1
 44
1.0
  0
MTEXT
  5
7D
330
1F
100
AcDbEntity
  8
VERMASSUNG
100
AcDbMText
 10
13.9808475933
 20
13.9090974274
 30
0.0
 40
2.0
 41
0.0
 71
     1
 72
     1
  1
Gewicht: 1047g
  7
SLDTEXTSTYLE0
 73
     1
 44
1.0
  0
LINE
  5
7E
330
1F
100
AcDbEntity
  8
0
  6
Continuous
 62
     7
370
    15
100
AcDbLine
 10
169.2473007916
 20
80.0315605749
 30
0.0
 11
171.2471457906
 21
80.0315605749
 31
0.0
  0
LINE
  5
7F
330
1F
100
AcDbEntity
  8
0
  6
Continuous
 62
     7
370
    15
100
AcDbLine
 10
171.2471457906
 20
143.0315605749
 30
0.0
 11
169.2466456205
 21
143.0315605749
 31
0.0
  0
ARC
  5
80
330
1F
100
AcDbEntity
  8
0
  6
Continuous
 62
     7
370
    15
100
AcDbCircle
 10
171.2471457906
 20
81.0315605749
 30
0.0
 40
1.0
100
AcDbArc
 50
270.0
 51
0.0
  0
ARC
  5
81
330
1F
100
AcDbEntity
  8
0
  6
Continuous
 62
     7
370
    15
100
AcDbCircle
 10
171.2471457906
 20
142.0315605749
 30
0.0
 40
1.0
100
AcDbArc
 50
0.0
 51
90.0
  0
ARC
  5
82
330
1F
100
AcDbEntity
  8
0
  6
Continuous
 62
     7
370
    15
100
AcDbCircle
 10
146.2471457906
 20
88.3065605749
 30
0.0
 40
1.0
100
AcDbArc
 50
46.4335458266
 51
90.0
  0
ARC
  5
83
330
1F
100
AcDbEntity
  8
0
  6
Continuous
 62
     7
370
    15
100
AcDbCircle
 10
146.2471457906
 20
134.7565605749
 30
0.0
 40
1.00000000000003
100
AcDbArc
 50
270.0
 51
313.5375690129
  0
LINE
  5
84
330
1F
100
AcDbEntity
  8
0
  6
Continuous
 62
     7
370
    15
100
AcDbLine
 10
145.2471457906
 20
133.7565605749
 30
0.0
 11
80.7028388975
 21
124.343849153
 31
0.0
  0
LINE
  5
85
330
1F
100
AcDbEntity
  8
0
  6
Continuous
 62
     7
370
    15
100
AcDbLine
 10
80.7028388975
 20
98.7192719969
 30
0.0
 11
145.2471457906
 21
89.3065605749
 31
0.0
  0
LINE
  5
86
330
1F
100
AcDbEntity
  8
0
  6
Continuous
 62
     7
370
    15
100
AcDbLine
 10
145.2471457906
 20
89.3065605749
 30
0.0
 11
146.2471457906
 21
89.3065605749
 31
0.0
  0
LINE
  5
87
330
1F
100
AcDbEntity
  8
0
  6
Continuous
 62
     7
370
    15
100
AcDbLine
 10
146.2471457906
 20
133.7565605749
 30
0.0
 11
145.2471457906
 21
133.7565605749
 31
0.0
  0
ARC
  5
88
330
1F
100
AcDbEntity
  8
0
  6
Continuous
 62
     7
370
    15
100
AcDbCircle
 10
176.2471457906
 20
95.0315605749
 30
0.0
 40
4.0
100
AcDbArc
 50
90.0
 51
180.0
  0
ARC
  5
89
330
1F
100
AcDbEntity
  8
0
  6
Continuous
 62
     7
370
    15
100
AcDbCircle
 10
176.2471457906
 20
128.0315605749
 30
0.0
 40
4.000000000000014
100
AcDbArc
 50
180.0
 51
270.0
  0
ARC
  5
8A
330
1F
100
AcDbEntity
  8
0
  6
Continuous
 62
     7
370
    15
100
AcDbCircle
 10
80.8471457906
 20
99.7088049779
 30
0.0
 40
1.000000000000008
100
AcDbArc
 50
180.0
 51
261.7028550302
  0
ARC
  5
8B
330
1F
100
AcDbEntity
  8
0
  6
Continuous
 62
     7
370
    15
100
AcDbCircle
 10
80.8471457906
 20
123.354316172
 30
0.0
 40
1.0
100
AcDbArc
 50
98.2971449698
 51
180.0
  0
LINE
  5
8C
330
1F
100
AcDbEntity
  8
0
  6
Continuous
 62
     7
370
    15
100
AcDbLine
 10
176.2471457906
 20
99.0315605749
 30
0.0
 11
197.0471457906
 21
99.0315605749
 31
0.0
  0
LINE
  5
8D
330
1F
100
AcDbEntity
  8
0
  6
Continuous
 62
     7
370
    15
100
AcDbLine
 10
197.0471457906
 20
124.0315605749
 30
0.0
 11
176.2471457906
 21
124.0315605749
 31
0.0
  0
LINE
  5
8E
330
1F
100
AcDbEntity
  8
0
  6
Continuous
 62
     7
370
    15
100
AcDbLine
 10
197.0471457906
 20
99.0315605749
 30
0.0
 11
197.2471457906
 21
99.2315605749
 31
0.0
  0
LINE
  5
8F
330
1F
100
AcDbEntity
  8
0
  6
Continuous
 62
     7
370
    15
100
AcDbLine
 10
197.2471457906
 20
123.8315605749
 30
0.0
 11
197.0471457906
 21
124.0315605749
 31
0.0
  0
SPLINE
  5
90
330
1F
100
AcDbEntity
  8
0
  6
Continuous
 62
     7
370
    15
100
AcDbSpline
210
0.0
220
0.0
230
1.0
 70
    24
 71
     3
 72
    11
 73
     7
 74
     0
 42
0.000000001
 43
0.00000001
 40
0.0
 40
0.0
 40
0.0
 40
0.0
 40
0.1336647920874121
 40
0.4825473608259734
 40
0.8156356561503733
 40
1.0
 40
1.0
 40
1.0
 40
1.0
 10
190.8631711943389
 20
110.0315605749487
 30
0.0
 10
190.7906103552249
 20
110.0315605749487
 30
0.0
 10
190.5286562469892
 20
110.0315605749487
 30
0.0
 10
190.0392942698044
 20
110.0315605749487
 30
0.0
 10
189.5137246954462
 20
110.0315605749487
 30
0.0
 10
189.2316289153884
 20
110.0315605749487
 30
0.0
 10
189.13112038677
 20
110.0315605749487
 30
0.0
  0
SPLINE
  5
91
330
1F
100
AcDbEntity
  8
0
  6
Continuous
 62
     7
370
    15
100
AcDbSpline
210
0.0
220
0.0
230
1.0
 70
    24
 71
     3
 72
    10
 73
     6
 74
     0
 42
0.000000001
 43
0.00000001
 40
0.0
 40
0.0
 40
0.0
 40
0.0
 40
0.4391165375904076
 40
0.7513669429073321
 40
0.9999999999999999
 40
0.9999999999999999
 40
0.9999999999999999
 40
0.9999999999999999
 10
191.7291965981233
 20
111.5315605749487
 30
0.0
 10
191.6052183851945
 20
111.3168240111243
 30
0.0
 10
191.393080779659
 20
110.9493909001409
 30
0.0
 10
191.0847013022347
 20
110.4152619772305
 30
0.0
 10
190.9312114463131
 20
110.1494097483278
 30
0.0
 10
190.8631711943389
 20
110.0315605749487
 30
0.0
  0
SPLINE
  5
92
330
1F
100
AcDbEntity
  8
0
  6
Continuous
 62
     7
370
    15
100
AcDbSpline
210
0.0
220
0.0
230
1.0
 70
    24
 71
     3
 72
    11
 73
     7
 74
     0
 42
0.000000001
 43
0.00000001
 40
0.0
 40
0.0
 40
0.0
 40
0.0
 40
0.2164499953511904
 40
0.4402998152333155
 40
0.7518914760010383
 40
0.9999999999999999
 40
0.9999999999999999
 40
0.9999999999999999
 40
0.9999999999999999
 10
190.8631711943389
 20
113.0315605749487
 30
0.0
 10
190.9224932698139
 20
112.9288117262154
 30
0.0
 10
191.0431654778616
 20
112.7198013308153
 30
0.0
 10
191.26710344618
 20
112.3319293919441
 30
0.0
 10
191.507322912336
 20
111.9158570715948
 30
0.0
 10
191.6610508204193
 20
111.6495925242533
 30
0.0
 10
191.7291965981233
 20
111.5315605749487
 30
0.0
  0
SPLINE
  5
93
330
1F
100
AcDbEntity
  8
0
  6
Continuous
 62
     7
370
    15
100
AcDbSpline
210
0.0
220
0.0
230
1.0
 70
    24
 71
     3
 72
    13
 73
     9
 74
     0
 42
0.000000001
 43
0.00000001
 40
0.0
 40
0.0
 40
0.0
 40
0.0
 40
0.183852927321383
 40
0.3480769280718286
 40
0.5173798705048392
 40
0.6890065088068209
 40
0.8667059866786584
 40
1.0
 40
1.0
 40
1.0
 40
1.0
 10
189.1311203867699
 20
113.0315605749487
 30
0.0
 10
189.2317602648083
 20
113.0315605749487
 30
0.0
 10
189.4222952761322
 20
113.0315605749487
 30
0.0
 10
189.7249277509525
 20
113.0315605749487
 30
0.0
 10
190.0302674138407
 20
113.0315605749487
 30
0.0
 10
190.3422876643896
 20
113.0315605749487
 30
0.0
 10
190.6210331165578
 20
113.0315605749487
 30
0.0
 10
190.7905255407083
 20
113.0315605749487
 30
0.0
 10
190.8631711943389
 20
113.0315605749487
 30
0.0
  0
SPLINE
  5
94
330
1F
100
AcDbEntity
  8
0
  6
Continuous
 62
     7
370
    15
100
AcDbSpline
210
0.0
220
0.0
230
1.0
 70
    24
 71
     3
 72
    11
 73
     7
 74
     0
 42
0.000000001
 43
0.00000001
 40
0.0
 40
0.0
 40
0.0
 40
0.0
 40
0.2164499953511921
 40
0.4402998152333188
 40
0.751891476001041
 40
0.9999999999999999
 40
0.9999999999999999
 40
0.9999999999999999
 40
0.9999999999999999
 10
188.2650949829855
 20
111.5315605749487
 30
0.0
 10
188.3244170584606
 20
111.634309423682
 30
0.0
 10
188.4450892665083
 20
111.8433198190821
 30
0.0
 10
188.6690272348266
 20
112.2311917579532
 30
0.0
 10
188.9092467009827
 20
112.6472640783025
 30
0.0
 10
189.0629746090659
 20
112.9135286256441
 30
0.0
 10
189.1311203867699
 20
113.0315605749487
 30
0.0
  0
CIRCLE
  5
95
330
1F
100
AcDbEntity
  8
0
  6
Continuous
 62
     7
370
    15
100
AcDbCircle
 10
189.9971457906
 20
111.5315605749
 30
0.0
 40
1.75
  0
SPLINE
  5
96
330
1F
100
AcDbEntity
  8
0
  6
Continuous
 62
     7
370
    15
100
AcDbSpline
210
0.0
220
0.0
230
1.0
 70
    24
 71
     3
 72
    10
 73
     6
 74
     0
 42
0.000000001
 43
0.00000001
 40
0.0
 40
0.0
 40
0.0
 40
0.0
 40
0.4391165375904059
 40
0.75136694290734
 40
1.0
 40
1.0
 40
1.0
 40
1.0
 10
189.13112038677
 20
110.0315605749487
 30
0.0
 10
189.0071421738411
 20
110.246297138773
 30
0.0
 10
188.7950045683057
 20
110.6137302497564
 30
0.0
 10
188.4866250908814
 20
111.1478591726668
 30
0.0
 10
188.3331352349597
 20
111.4137114015696
 30
0.0
 10
188.2650949829855
 20
111.5315605749487
 30
0.0
  0
CIRCLE
  5
97
330
1F
100
AcDbEntity
  8
0
  6
Continuous
 62
     7
370
    15
100
AcDbCircle
 10
189.9971457906
 20
111.5315605749
 30
0.0
 40
2.600000000000009
  0
CIRCLE
  5
98
330
1F
100
AcDbEntity
  8
0
  6
Continuous
 62
     7
370
    15
100
AcDbCircle
 10
189.9971457906
 20
111.5315605749
 30
0.0
 40
3.0
  0
ARC
  5
99
330
1F
100
AcDbEntity
  8
0
  6
Continuous
 62
     7
370
    15
100
AcDbCircle
 10
189.9971457906
 20
111.5315605749
 30
0.0
 40
1.5
100
AcDbArc
 50
30.0
 51
90.0
  0
ARC
  5
9A
330
1F
100
AcDbEntity
  8
0
  6
Continuous
 62
     7
370
    15
100
AcDbCircle
 10
189.9971457906
 20
111.5315605749
 30
0.0
 40
1.5
100
AcDbArc
 50
210.0
 51
270.0
  0
ARC
  5
9B
330
1F
100
AcDbEntity
  8
0
  6
Continuous
 62
     7
370
    15
100
AcDbCircle
 10
189.9971457906
 20
111.5315605749
 30
0.0
 40
1.5
100
AcDbArc
 50
90.0
 51
150.0
  0
ARC
  5
9C
330
1F
100
AcDbEntity
  8
0
  6
Continuous
 62
     7
370
    15
100
AcDbCircle
 10
189.9971457906
 20
111.5315605749
 30
0.0
 40
1.5
100
AcDbArc
 50
330.0
 51
30.0
  0
ARC
  5
9D
330
1F
100
AcDbEntity
  8
0
  6
Continuous
 62
     7
370
    15
100
AcDbCircle
 10
189.9971457906
 20
111.5315605749
 30
0.0
 40
1.5
100
AcDbArc
 50
270.0
 51
330.0
  0
ARC
  5
9E
330
1F
100
AcDbEntity
  8
0
  6
Continuous
 62
     7
370
    15
100
AcDbCircle
 10
189.9971457906
 20
111.5315605749
 30
0.0
 40
1.5
100
AcDbArc
 50
150.0
 51
210.0
  0
SPLINE
  5
9F
330
1F
100
AcDbEntity
  8
0
  6
Continuous
 62
     7
370
    15
100
AcDbSpline
210
0.0
220
0.0
230
1.0
 70
     8
 71
     3
 72
    11
 73
     7
 74
     0
 42
0.000000001
 43
0.00000001
 40
0.0
 40
0.0
 40
0.0
 40
0.0
 40
0.2488814606695658
 40
0.5011921284368381
 40
0.7520447562540515
 40
1.0
 40
1.0
 40
1.0
 40
1.0
 10
169.2466456205373
 20
143.0314108295422
 30
0.0
 10
169.2168672910379
 20
143.0222788033979
 30
0.0
 10
169.1569003320568
 20
143.0038889257112
 30
0.0
 10
168.66497827031
 20
142.8598516772261
 30
0.0
 10
167.9369088476906
 20
142.6504485991148
 30
0.0
 10
167.226165376513
 20
142.4782443297659
 30
0.0
 10
166.8728578593633
 20
142.3926423294472
 30
0.0
  0
SPLINE
  5
A0
330
1F
100
AcDbEntity
  8
0
  6
Continuous
 62
     7
370
    15
100
AcDbSpline
210
0.0
220
0.0
230
1.0
 70
     8
 71
     3
 72
    24
 73
    20
 74
     0
 42
0.000000001
 43
0.00000001
 40
0.0
 40
0.0
 40
0.0
 40
0.0
 40
0.0452304145230468
 40
0.0903354254807773
 40
0.1353632524017138
 40
0.1803623629163211
 40
0.2253813173811786
 40
0.2704686120121845
 40
0.3156725230495646
 40
0.3610409544388638
 40
0.4066212913821985
 40
0.4524602619010737
 40
0.4986038082699224
 40
0.5832834063274132
 40
0.6671222514847349
 40
0.7504134308293638
 40
0.8334558303783486
 40
0.9165510206949746
 40
0.9999999999999999
 40
0.9999999999999999
 40
0.9999999999999999
 40
0.9999999999999999
 10
166.8727644839721
 20
80.6704625554132
 30
0.0
 10
166.9404682258748
 20
80.65470351439572
 30
0.0
 10
167.0756879977013
 20
80.62322912508276
 30
0.0
 10
167.2683497145392
 20
80.57676832174398
 30
0.0
 10
167.4530865861879
 20
80.53113734211193
 30
0.0
 10
167.6292045274791
 20
80.48651204467885
 30
0.0
 10
167.7968883200915
 20
80.44302475807943
 30
0.0
 10
167.9560878043807
 20
80.40082371028298
 30
0.0
 10
168.106815942873
 20
80.36005711796444
 30
0.0
 10
168.2490688962752
 20
80.32087736537972
 30
0.0
 10
168.3828476515014
 20
80.28344007348831
 30
0.0
 10
168.5081515619031
 20
80.24790348984895
 30
0.0
 10
168.6572001116839
 20
80.20520147437423
 30
0.0
 10
168.8179656890512
 20
80.15869278334276
 30
0.0
 10
168.9738917738512
 20
80.11303289314753
 30
0.0
 10
169.0955167917778
 20
80.07700262443751
 30
0.0
 10
169.181992520999
 20
80.05112109948837
 30
0.0
 10
169.2364114283462
 20
80.03468502296268
 30
0.0
 10
169.2435599699279
 20
80.03260366437453
 30
0.0
 10
169.2471418335252
 20
80.03156077437038
 30
0.0
  0
LINE
  5
A1
330
1F
100
AcDbEntity
  8
0
  6
Continuous
 62
     7
370
    15
100
AcDbLine
 10
166.8721457906
 20
80.6704625554
 30
0.0
 11
166.8721457906
 21
142.3926423294
 31
0.0
  0
SPLINE
  5
A2
330
1F
100
AcDbEntity
  8
0
  6
Continuous
 62
     7
370
    15
100
AcDbSpline
210
0.0
220
0.0
230
1.0
 70
     8
 71
     3
 72
    10
 73
     6
 74
     0
 42
0.000000001
 43
0.00000001
 40
0.0
 40
0.0
 40
0.0
 40
0.0
 40
0.5
 40
0.5
 40
1.0
 40
1.0
 40
1.0
 40
1.0
 10
166.2237541945999
 20
141.4360212963028
 30
0.0
 10
165.9076503634605
 20
140.8161587380256
 30
0.0
 10
165.5778713191157
 20
140.1702580027268
 30
0.0
 10
164.9056480467269
 20
138.8558393624263
 30
0.0
 10
164.5635148807963
 20
138.187917135414
 30
0.0
 10
164.2163345522821
 20
137.5115794029326
 30
0.0
  0
SPLINE
  5
A3
330
1F
100
AcDbEntity
  8
0
  6
Continuous
 62
     7
370
    15
100
AcDbSpline
210
0.0
220
0.0
230
1.0
 70
     8
 71
     3
 72
     9
 73
     5
 74
     0
 42
0.000000001
 43
0.00000001
 40
0.0
 40
0.0
 40
0.0
 40
0.0
 40
0.5067595796178751
 40
1.0
 40
1.0
 40
1.0
 40
1.0
 10
166.872776333539
 20
142.3936956822976
 30
0.0
 10
166.7623759857569
 20
142.2316207439633
 30
0.0
 10
166.5445205130192
 20
141.9117946472242
 30
0.0
 10
166.3299274108107
 20
141.593446667587
 30
0.0
 10
166.2240814188662
 20
141.4364245762829
 30
0.0
  0
SPLINE
  5
A4
330
1F
100
AcDbEntity
  8
0
  6
Continuous
 62
     7
370
    15
100
AcDbSpline
210
0.0
220
0.0
230
1.0
 70
     8
 71
     3
 72
     9
 73
     5
 74
     0
 42
0.000000001
 43
0.00000001
 40
0.0
 40
0.0
 40
0.0
 40
0.0
 40
0.4932426502230348
 40
1.0
 40
1.0
 40
1.0
 40
1.0
 10
166.2240675038434
 20
81.6266944732439
 30
0.0
 10
166.3299136088546
 20
81.46967123358372
 30
0.0
 10
166.5445059701667
 20
81.1513223649505
 30
0.0
 10
166.7623602581268
 20
80.83149631824698
 30
0.0
 10
166.872759519731
 20
80.66942211842985
 30
0.0
  0
SPLINE
  5
A5
330
1F
100
AcDbEntity
  8
0
  6
Continuous
 62
     7
370
    15
100
AcDbSpline
210
0.0
220
0.0
230
1.0
 70
     8
 71
     3
 72
    10
 73
     6
 74
     0
 42
0.000000001
 43
0.00000001
 40
0.0
 40
0.0
 40
0.0
 40
0.0
 40
0.5
 40
0.5
 40
1.0
 40
1.0
 40
1.0
 40
1.0
 10
166.2237482749321
 20
81.62711146174365
 30
0.0
 10
165.907569172258
 20
82.24712161375737
 30
0.0
 10
165.577126945091
 20
82.89431967962507
 30
0.0
 10
164.9054154244083
 20
84.20773560421884
 30
0.0
 10
164.5634415493763
 20
84.87534687052164
 30
0.0
 10
164.2163345522821
 20
85.5515417469648
 30
0.0
  0
LINE
  5
A6
330
1F
100
AcDbEntity
  8
0
  6
Continuous
 62
     7
370
    15
100
AcDbLine
 10
156.8221457906
 20
141.767950678
 30
0.0
 11
148.2471457906
 21
141.767950678
 31
0.0
  0
LINE
  5
A7
330
1F
100
AcDbEntity
  8
0
  6
Continuous
 62
     7
370
    15
100
AcDbLine
 10
156.8221457906
 20
81.2951704719
 30
0.0
 11
156.8221457906
 21
141.767950678
 31
0.0
  0
LINE
  5
A8
330
1F
100
AcDbEntity
  8
0
  6
Continuous
 62
     7
370
    15
100
AcDbLine
 10
148.2471457906
 20
81.2951704719
 30
0.0
 11
156.8221457906
 21
81.2951704719
 31
0.0
  0
LINE
  5
A9
330
1F
100
AcDbEntity
  8
0
  6
Continuous
 62
     7
370
    15
100
AcDbLine
 10
172.2471457906
 20
81.0315605749
 30
0.0
 11
172.2471457906
 21
142.0315605749
 31
0.0
  0
SPLINE
  5
AA
330
1F
100
AcDbEntity
  8
0
  6
Continuous
 62
     7
370
    15
100
AcDbSpline
210
0.0
220
0.0
230
1.0
 70
     8
 71
     3
 72
     8
 73
     4
 74
     0
 42
0.000000001
 43
0.00000001
 40
0.0
 40
0.0
 40
0.0
 40
0.0
 40
0.0012389803509652
 40
0.0012389803509652
 40
0.0012389803509652
 40
0.0012389803509652
 10
157.3797073340882
 20
140.9855832977351
 30
0.0
 10
157.1945873609554
 20
141.2466332791141
 30
0.0
 10
157.0087089131964
 20
141.5074148922332
 30
0.0
 10
156.8221457905544
 20
141.7679506779505
 30
0.0
  0
SPLINE
  5
AB
330
1F
100
AcDbEntity
  8
0
  6
Continuous
 62
     7
370
    15
100
AcDbSpline
210
0.0
220
0.0
230
1.0
 70
     8
 71
     3
 72
     8
 73
     4
 74
     0
 42
0.000000001
 43
0.00000001
 40
0.0
 40
0.0
 40
0.0
 40
0.0
 40
1.0
 40
1.0
 40
1.0
 40
1.0
 10
159.4779570288267
 20
137.1988062394137
 30
0.0
 10
158.7816636627851
 20
138.4627446075285
 30
0.0
 10
158.081868497594
 20
139.7248000530367
 30
0.0
 10
157.3797073340882
 20
140.9855832977351
 30
0.0
  0
SPLINE
  5
AC
330
1F
100
AcDbEntity
  8
0
  6
Continuous
 62
     7
370
    15
100
AcDbSpline
210
0.0
220
0.0
230
1.0
 70
     8
 71
     3
 72
     8
 73
     4
 74
     0
 42
0.000000001
 43
0.00000001
 40
0.0
 40
0.0
 40
0.0
 40
0.0
 40
1.0
 40
1.0
 40
1.0
 40
1.0
 10
159.4779570288267
 20
85.86431491048361
 30
0.0
 10
158.7816388881687
 20
84.60033157053682
 30
0.0
 10
158.0818416960583
 20
83.33827297268485
 30
0.0
 10
157.3797073340882
 20
82.07753785216215
 30
0.0
  0
SPLINE
  5
AD
330
1F
100
AcDbEntity
  8
0
  6
Continuous
 62
     7
370
    15
100
AcDbSpline
210
0.0
220
0.0
230
1.0
 70
     8
 71
     3
 72
     8
 73
     4
 74
     0
 42
0.000000001
 43
0.00000001
 40
0.0
 40
0.0
 40
0.0
 40
0.0
 40
0.0012389803509652
 40
0.0012389803509652
 40
0.0012389803509652
 40
0.0012389803509652
 10
156.8221457905544
 20
81.29517047194683
 30
0.0
 10
157.0087089131964
 20
81.55570625766417
 30
0.0
 10
157.1945873609553
 20
81.81648787078316
 30
0.0
 10
157.3797073340882
 20
82.07753785216215
 30
0.0
  0
LINE
  5
AE
330
1F
100
AcDbEntity
  8
0
  6
Continuous
 62
     7
370
    15
100
AcDbLine
 10
147.2471457906
 20
82.4051550295
 30
0.0
 11
147.2471457906
 21
140.6579661204
 31
0.0
  0
SPLINE
  5
AF
330
1F
100
AcDbEntity
  8
0
  6
Continuous
 62
     7
370
    15
100
AcDbSpline
210
0.0
220
0.0
230
1.0
 70
     8
 71
     3
 72
    12
 73
     8
 74
     0
 42
0.000000001
 43
0.00000001
 40
0.0
 40
0.0
 40
0.0
 40
0.0
 40
0.2500000000000001
 40
0.2500000000000001
 40
0.5000000000000002
 40
0.5000000000000002
 40
1.0
 40
1.0
 40
1.0
 40
1.0
 10
147.6341786135199
 20
141.5985504747696
 30
0.0
 10
147.5823178623319
 20
141.5417379024552
 30
0.0
 10
147.5335860653129
 20
141.4797457162034
 30
0.0
 10
147.4434130553955
 20
141.3436926430794
 30
0.0
 10
147.4016358071106
 20
141.2687865404807
 30
0.0
 10
147.2955469372646
 20
141.0306599051833
 30
0.0
 10
147.2471457905544
 20
140.8472531736145
 30
0.0
 10
147.2471457905544
 20
140.6579661204327
 30
0.0
  0
SPLINE
  5
B0
330
1F
100
AcDbEntity
  8
0
  6
Continuous
 62
     7
370
    15
100
AcDbSpline
210
0.0
220
0.0
230
1.0
 70
     8
 71
     3
 72
     8
 73
     4
 74
     0
 42
0.000000001
 43
0.00000001
 40
0.0
 40
0.0
 40
0.0
 40
0.0
 40
1.0
 40
1.0
 40
1.0
 40
1.0
 10
148.2471457905544
 20
141.7679506779505
 30
0.0
 10
148.0208014769546
 20
141.7679506779505
 30
0.0
 10
147.8033493565494
 20
141.7045822089296
 30
0.0
 10
147.6341786135199
 20
141.5985504747696
 30
0.0
  0
SPLINE
  5
B1
330
1F
100
AcDbEntity
  8
0
  6
Continuous
 62
     7
370
    15
100
AcDbSpline
210
0.0
220
0.0
230
1.0
 70
     8
 71
     3
 72
     8
 73
     4
 74
     0
 42
0.000000001
 43
0.00000001
 40
0.0
 40
0.0
 40
0.0
 40
0.0
 40
1.0
 40
1.0
 40
1.0
 40
1.0
 10
147.63417861352
 20
81.4645706751277
 30
0.0
 10
147.8037721191719
 20
81.35827396457051
 30
0.0
 10
148.0201408115051
 20
81.29517047194683
 30
0.0
 10
148.2471457905544
 20
81.29517047194683
 30
0.0
  0
SPLINE
  5
B2
330
1F
100
AcDbEntity
  8
0
  6
Continuous
 62
     7
370
    15
100
AcDbSpline
210
0.0
220
0.0
230
1.0
 70
     8
 71
     3
 72
    12
 73
     8
 74
     0
 42
0.000000001
 43
0.00000001
 40
0.0
 40
0.0
 40
0.0
 40
0.0
 40
0.2499999999999976
 40
0.2499999999999976
 40
0.4999999999999952
 40
0.4999999999999952
 40
1.0
 40
1.0
 40
1.0
 40
1.0
 10
147.63417861352
 20
81.4645706751277
 30
0.0
 10
147.5823178623319
 20
81.52138324744209
 30
0.0
 10
147.5335860653129
 20
81.5833754336939
 30
0.0
 10
147.4434130553955
 20
81.7194285068179
 30
0.0
 10
147.4016358071106
 20
81.79433460941664
 30
0.0
 10
147.2955469372646
 20
82.03246124471404
 30
0.0
 10
147.2471457905544
 20
82.21586797628282
 30
0.0
 10
147.2471457905544
 20
82.4051550294647
 30
0.0
  0
SPLINE
  5
B3
330
1F
100
AcDbEntity
  8
0
  6
Continuous
 62
     7
370
    15
100
AcDbSpline
210
0.0
220
0.0
230
1.0
 70
     8
 71
     3
 72
    12
 73
     8
 74
     0
 42
0.000000001
 43
0.00000001
 40
0.0
 40
0.0
 40
0.0
 40
0.0
 40
0.2499999999999968
 40
0.2499999999999968
 40
0.4999999999999936
 40
0.4999999999999936
 40
1.0
 40
1.0
 40
1.0
 40
1.0
 10
164.2163345522821
 20
137.5115794029326
 30
0.0
 10
164.1804304019456
 20
137.4416349687844
 30
0.0
 10
164.1378988498161
 20
137.3783836057266
 30
0.0
 10
164.0411045729761
 20
137.2633249508106
 30
0.0
 10
163.9860148947118
 20
137.2109964170987
 30
0.0
 10
163.8078816611579
 20
137.0772115140136
 30
0.0
 10
163.6705045691553
 20
137.0166637468554
 30
0.0
 10
163.5235142292553
 20
136.9974637984715
 30
0.0
  0
SPLINE
  5
B4
330
1F
100
AcDbEntity
  8
0
  6
Continuous
 62
     7
370
    15
100
AcDbSpline
210
0.0
220
0.0
230
1.0
 70
     8
 71
     3
 72
    12
 73
     8
 74
     0
 42
0.000000001
 43
0.00000001
 40
0.0
 40
0.0
 40
0.0
 40
0.0
 40
0.2500000000000022
 40
0.2500000000000022
 40
0.5000000000000044
 40
0.5000000000000044
 40
1.0
 40
1.0
 40
1.0
 40
1.0
 10
164.2163345522821
 20
85.55154174696479
 30
0.0
 10
164.1804304019456
 20
85.62148618111294
 30
0.0
 10
164.1378988498161
 20
85.68473754417079
 30
0.0
 10
164.0411045729761
 20
85.79979619908671
 30
0.0
 10
163.9860148947118
 20
85.8521247327987
 30
0.0
 10
163.8078816611579
 20
85.98590963588379
 30
0.0
 10
163.6705045691553
 20
86.04645740304193
 30
0.0
 10
163.5235142292553
 20
86.06565735142583
 30
0.0
  0
SPLINE
  5
B5
330
1F
100
AcDbEntity
  8
0
  6
Continuous
 62
     7
370
    15
100
AcDbSpline
210
0.0
220
0.0
230
1.0
 70
     8
 71
     3
 72
    10
 73
     6
 74
     0
 42
0.000000001
 43
0.00000001
 40
0.0
 40
0.0
 40
0.0
 40
0.0
 40
0.5
 40
0.5
 40
1.0
 40
1.0
 40
1.0
 40
1.0
 10
160.1707773518542
 20
136.7792832445282
 30
0.0
 10
160.0287600394073
 20
136.7792832445282
 30
0.0
 10
159.888312992545
 20
136.8197730967377
 30
0.0
 10
159.6467230732837
 20
136.9677089266768
 30
0.0
 10
159.5460456310304
 20
137.0752092026563
 30
0.0
 10
159.4779570288268
 20
137.1988062394134
 30
0.0
  0
SPLINE
  5
B6
330
1F
100
AcDbEntity
  8
0
  6
Continuous
 62
     7
370
    15
100
AcDbSpline
210
0.0
220
0.0
230
1.0
 70
     8
 71
     3
 72
    10
 73
     6
 74
     0
 42
0.000000001
 43
0.00000001
 40
0.0
 40
0.0
 40
0.0
 40
0.0
 40
0.5
 40
0.5
 40
1.0
 40
1.0
 40
1.0
 40
1.0
 10
160.1707773518542
 20
86.28383790536914
 30
0.0
 10
160.0299199873436
 20
86.28383790536914
 30
0.0
 10
159.8870858558694
 20
86.24273399955044
 30
0.0
 10
159.6468241650961
 20
86.09533610624949
 30
0.0
 10
159.5461178960165
 20
85.98804312540983
 30
0.0
 10
159.4779570288267
 20
85.86431491048363
 30
0.0
  0
LINE
  5
B7
330
1F
100
AcDbEntity
  8
0
  6
Continuous
 62
     7
370
    15
100
AcDbLine
 10
160.1971457906
 20
86.2838379054
 30
0.0
 11
160.1707773519
 21
86.2838379054
 31
0.0
  0
LINE
  5
B8
330
1F
100
AcDbEntity
  8
0
  6
Continuous
 62
     7
370
    15
100
AcDbLine
 10
160.1971457906
 20
136.7792832445
 30
0.0
 11
160.1707773519
 21
136.7792832445
 31
0.0
  0
SPLINE
  5
B9
330
1F
100
AcDbEntity
  8
0
  6
Continuous
 62
     7
370
    15
100
AcDbSpline
210
0.0
220
0.0
230
1.0
 70
     8
 71
     3
 72
    10
 73
     6
 74
     0
 42
0.000000001
 43
0.00000001
 40
0.0
 40
0.0
 40
0.0
 40
0.0
 40
0.5
 40
0.5
 40
1.0
 40
1.0
 40
1.0
 40
1.0
 10
163.5235142292546
 20
136.9974637984744
 30
0.0
 10
163.0015995048587
 20
136.9292910479662
 30
0.0
 10
162.4627483247493
 20
136.8746677830083
 30
0.0
 10
161.3513856827172
 20
136.799571930117
 30
0.0
 10
160.7745449055211
 20
136.7792832445282
 30
0.0
 10
160.1971457905544
 20
136.7792832445282
 30
0.0
  0
SPLINE
  5
BA
330
1F
100
AcDbEntity
  8
0
  6
Continuous
 62
     7
370
    15
100
AcDbSpline
210
0.0
220
0.0
230
1.0
 70
     8
 71
     3
 72
    10
 73
     6
 74
     0
 42
0.000000001
 43
0.00000001
 40
0.0
 40
0.0
 40
0.0
 40
0.0
 40
0.5
 40
0.5
 40
1.0
 40
1.0
 40
1.0
 40
1.0
 10
163.5235142292546
 20
86.0656573514229
 30
0.0
 10
163.0015995048587
 20
86.1338301019311
 30
0.0
 10
162.4627483247493
 20
86.18845336688905
 30
0.0
 10
161.3513856827172
 20
86.26354921978039
 30
0.0
 10
160.7745449055211
 20
86.28383790536914
 30
0.0
 10
160.1971457905544
 20
86.28383790536914
 30
0.0
  0
SPLINE
  5
BB
330
1F
100
AcDbEntity
  8
0
  6
Continuous
 62
     7
370
    15
100
AcDbSpline
210
0.0
220
0.0
230
1.0
 70
     8
 71
     3
 72
    10
 73
     6
 74
     0
 42
0.000000001
 43
0.00000001
 40
0.0
 40
0.0
 40
0.0
 40
0.0
 40
0.2827732476152143
 40
0.9999939187415962
 40
1.0
 40
1.0
 40
1.0
 40
1.0
 10
147.0933217662874
 20
134.0315605749487
 30
0.0
 10
147.0721344128748
 20
134.0315605749399
 30
0.0
 10
146.9972078604322
 20
134.0315605749088
 30
0.0
 10
146.9064862815682
 20
134.0315605752078
 30
0.0
 10
146.9358951549523
 20
134.0315605749487
 30
0.0
 10
146.9358954043058
 20
134.0315605749487
 30
0.0
  0
SPLINE
  5
BC
330
1F
100
AcDbEntity
  8
0
  6
Continuous
 62
     7
370
    15
100
AcDbSpline
210
0.0
220
0.0
230
1.0
 70
    24
 71
     3
 72
     9
 73
     5
 74
     0
 42
0.000000001
 43
0.00000001
 40
0.0
 40
0.0
 40
0.0
 40
0.0
 40
0.6968476696770967
 40
1.0
 40
1.0
 40
1.0
 40
1.0
 10
146.9358955048669
 20
89.03156057494868
 30
0.0
 10
146.9548056176276
 20
89.03156057494868
 30
0.0
 10
146.9819422697017
 20
89.03156057494868
 30
0.0
 10
147.0625661089651
 20
89.03156057494867
 30
0.0
 10
147.0870074137174
 20
89.03156057494868
 30
0.0
  0
LINE
  5
BD
330
1F
100
AcDbEntity
  8
0
  6
Continuous
 62
     7
370
    15
100
AcDbLine
 10
145.2471457906
 20
89.3065605749
 30
0.0
 11
145.2471457906
 21
133.7565605749
 31
0.0
  0
LINE
  5
BE
330
1F
100
AcDbEntity
  8
0
  6
Continuous
 62
     7
370
    15
100
AcDbLine
 10
79.8471457906
 20
99.7088049779
 30
0.0
 11
79.8471457906
 21
123.3543161602
 31
0.0
  0
LINE
  5
BF
330
1F
100
AcDbEntity
  8
0
  6
Continuous
 62
     7
370
    15
100
AcDbLine
 10
197.0471457906
 20
99.0315605749
 30
0.0
 11
197.0471457906
 21
124.0315605749
 31
0.0
  0
SPLINE
  5
C0
330
1F
100
AcDbEntity
  8
0
  6
Continuous
 62
     7
370
    15
100
AcDbSpline
210
0.0
220
0.0
230
1.0
 70
     8
 71
     3
 72
    38
 73
    34
 74
     0
 42
0.000000001
 43
0.00000001
 40
0.0
 40
0.0
 40
0.0
 40
0.0
 40
0.0625
 40
0.0625
 40
0.125
 40
0.125
 40
0.1875000000000001
 40
0.1875000000000001
 40
0.25
 40
0.25
 40
0.3125
 40
0.3125
 40
0.3749999999999999
 40
0.3749999999999999
 40
0.4374999999999999
 40
0.4374999999999999
 40
0.4999999999999999
 40
0.4999999999999999
 40
0.5624999999999999
 40
0.5624999999999999
 40
0.6249999999999999
 40
0.6249999999999999
 40
0.6874999999999999
 40
0.6874999999999999
 40
0.7499999999999999
 40
0.7499999999999999
 40
0.8125
 40
0.8125
 40
0.875
 40
0.875
 40
0.9375
 40
0.9375
 40
1.0
 40
1.0
 40
1.0
 40
1.0
 10
193.7471457905544
 20
111.5315605749487
 30
0.0
 10
193.7471457905544
 20
111.3006113843227
 30
0.0
 10
193.7191926370944
 20
111.0686968689901
 30
0.0
 10
193.6085929753348
 20
110.6157743413484
 30
0.0
 10
193.5276836344877
 20
110.3996260783641
 30
0.0
 10
193.3183788324308
 20
109.9862831011693
 30
0.0
 10
193.190280058196
 20
109.7909937008448
 30
0.0
 10
192.9001139586693
 20
109.4341578109911
 30
0.0
 10
192.735150993522
 20
109.2690819197172
 30
0.0
 10
192.379591164137
 20
108.9754205287685
 30
0.0
 10
192.1894803690153
 20
108.8465362850928
 30
0.0
 10
191.7857306398579
 20
108.6223848732793
 30
0.0
 10
191.5719737126323
 20
108.5276238743768
 30
0.0
 10
191.1364219390814
 20
108.3773877009317
 30
0.0
 10
190.9127767011092
 20
108.3207942184695
 30
0.0
 10
190.4535911782724
 20
108.2447485119791
 30
0.0
 10
190.2208179823036
 20
108.226052889728
 30
0.0
 10
189.7594188502266
 20
108.2268228274483
 30
0.0
 10
189.52920059953
 20
108.2460029015885
 30
0.0
 10
189.0697605365445
 20
108.3234246959311
 30
0.0
 10
188.8446091203431
 20
108.3811977815901
 30
0.0
 10
188.4107488483702
 20
108.5324232962345
 30
0.0
 10
188.2007932278608
 20
108.6260507092633
 30
0.0
 10
187.7957214716428
 20
108.8522567292049
 30
0.0
 10
187.6051984636633
 20
108.9824961274248
 30
0.0
 10
187.2537271026614
 20
109.2743586077546
 30
0.0
 10
187.0918173417402
 20
109.4364405175117
 30
0.0
 10
186.7991346081784
 20
109.7976265399656
 30
0.0
 10
186.6736658353173
 20
109.9903979490286
 30
0.0
 10
186.4670524274106
 20
110.3990735652949
 30
0.0
 10
186.3849268093977
 20
110.6182074307231
 30
0.0
 10
186.2748302219043
 20
111.0705317597205
 30
0.0
 10
186.2471457905544
 20
111.2995812485153
 30
0.0
 10
186.2471457905544
 20
111.5315605749487
 30
0.0
  0
SPLINE
  5
C1
330
1F
100
AcDbEntity
  8
0
  6
Continuous
 62
     7
370
    15
100
AcDbSpline
210
0.0
220
0.0
230
1.0
 70
     8
 71
     3
 72
    34
 73
    30
 74
     0
 42
0.000000001
 43
0.00000001
 40
0.0
 40
0.0
 40
0.0
 40
0.0
 40
0.0624999999999994
 40
0.0624999999999994
 40
0.1249999999999989
 40
0.1249999999999989
 40
0.2499999999999978
 40
0.2499999999999978
 40
0.3749999999999967
 40
0.3749999999999967
 40
0.4374999999999969
 40
0.4374999999999969
 40
0.4999999999999972
 40
0.4999999999999972
 40
0.5624999999999976
 40
0.5624999999999976
 40
0.6249999999999979
 40
0.6249999999999979
 40
0.6874999999999982
 40
0.6874999999999982
 40
0.7499999999999986
 40
0.7499999999999986
 40
0.8124999999999989
 40
0.8124999999999989
 40
0.8749999999999992
 40
0.8749999999999992
 40
0.9374999999999996
 40
0.9374999999999996
 40
1.0
 40
1.0
 40
1.0
 40
1.0
 10
186.2471457905544
 20
111.5315605749487
 30
0.0
 10
186.2471457905544
 20
111.763613641632
 30
0.0
 10
186.2759484210343
 20
111.9988080062965
 30
0.0
 10
186.3861573259563
 20
112.4483095232356
 30
0.0
 10
186.4687172935242
 20
112.6685947889739
 30
0.0
 10
186.7841646118674
 20
113.288714459803
 30
0.0
 10
187.0846144285375
 20
113.6513090748304
 30
0.0
 10
187.802525139228
 20
114.2413877759993
 30
0.0
 10
188.2055304707169
 20
114.4614502583695
 30
0.0
 10
188.8659748832797
 20
114.6881569816008
 30
0.0
 10
189.0897903482102
 20
114.7440327268591
 30
0.0
 10
189.5444124807087
 20
114.8186431392239
 30
0.0
 10
189.7765786963465
 20
114.8373480710095
 30
0.0
 10
190.2421947970723
 20
114.8359946573037
 30
0.0
 10
190.4720061175769
 20
114.816183205439
 30
0.0
 10
190.9258078601459
 20
114.7392468495926
 30
0.0
 10
191.1513913213647
 20
114.6815548339962
 30
0.0
 10
191.5889829645811
 20
114.5285707737753
 30
0.0
 10
191.7982118121694
 20
114.4345838772361
 30
0.0
 10
192.1976325736858
 20
114.2112409959032
 30
0.0
 10
192.3894836138118
 20
114.0805100900835
 30
0.0
 10
192.7440995796116
 20
113.7856153214813
 30
0.0
 10
192.9049569963849
 20
113.6236017371787
 30
0.0
 10
193.1924983256266
 20
113.2687905538877
 30
0.0
 10
193.3206232143235
 20
113.0729944499793
 30
0.0
 10
193.5287128367777
 20
112.6608645503006
 30
0.0
 10
193.608811661459
 20
112.4460749959012
 30
0.0
 10
193.7184335709051
 20
111.9979071808696
 30
0.0
 10
193.7471457905544
 20
111.7625831783709
 30
0.0
 10
193.7471457905544
 20
111.5315605749487
 30
0.0
  0
LINE
  5
C2
330
1F
100
AcDbEntity
  8
0
  6
Continuous
 62
     7
370
    15
100
AcDbLine
 10
197.2471457906
 20
99.2315605749
 30
0.0
 11
197.2471457906
 21
123.8315605749
 31
0.0
  0
CIRCLE
  5
C3
330
1F
100
AcDbEntity
  8
0
  6
HIDDEN
 62
     7
370
     0
100
AcDbCircle
 10
189.9971457906
 20
111.5315605749
 30
0.0
 40
2.477364010367793
  0
CIRCLE
  5
C4
330
1F
100
AcDbEntity
  8
0
  6
HIDDEN
 62
     7
370
     0
100
AcDbCircle
 10
189.9971457906
 20
111.5315605749
 30
0.0
 40
1.845534221835436
  0
ARC
  5
C5
330
1F
100
AcDbEntity
  8
0
  6
HIDDEN
 62
     7
370
     0
100
AcDbCircle
 10
189.9971457906
 20
111.5315605749
 30
0.0
 40
1.545534221835452
100
AcDbArc
 50
223.3142371015
 51
270.0
  0
ARC
  5
C6
330
1F
100
AcDbEntity
  8
0
  6
HIDDEN
 62
     7
370
     0
100
AcDbCircle
 10
189.9971457906
 20
111.5315605749
 30
0.0
 40
1.545534221835469
100
AcDbArc
 50
160.3004640295
 51
198.2266647022
  0
ARC
  5
C7
330
1F
100
AcDbEntity
  8
0
  6
HIDDEN
 62
     7
370
     0
100
AcDbCircle
 10
189.9971457906
 20
111.5315605749
 30
0.0
 40
1.545534221835457
100
AcDbArc
 50
97.9675884445
 51
141.8264383524
  0
ARC
  5
C8
330
1F
100
AcDbEntity
  8
0
  6
HIDDEN
 62
     7
370
     0
100
AcDbCircle
 10
189.9971457906
 20
111.5315605749
 30
0.0
 40
1.545534221835443
100
AcDbArc
 50
42.4315240859
 51
80.2855745786
  0
ARC
  5
C9
330
1F
100
AcDbEntity
  8
0
  6
HIDDEN
 62
     7
370
     0
100
AcDbCircle
 10
189.9971457906
 20
111.5315605749
 30
0.0
 40
1.54553422183543
100
AcDbArc
 50
338.9988521981
 51
16.672622324
  0
ARC
  5
CA
330
1F
100
AcDbEntity
  8
0
  6
HIDDEN
 62
     7
370
     0
100
AcDbCircle
 10
189.9971457906
 20
111.5315605749
 30
0.0
 40
1.545534221835439
100
AcDbArc
 50
270.0
 51
321.8186002493
  0
SPLINE
  5
CB
330
1F
100
AcDbEntity
  8
0
  6
HIDDEN
 62
     7
370
     0
100
AcDbSpline
210
0.0
220
0.0
230
1.0
 70
     8
 71
     3
 72
    17
 73
    13
 74
     0
 42
0.000000001
 43
0.00000001
 40
0.0
 40
0.0
 40
0.0
 40
0.0
 40
0.0004909084072919
 40
0.0005116394852635
 40
0.2498351754845136
 40
0.5021944977214489
 40
0.5865777378672907
 40
0.6700037584518806
 40
0.7527614182929998
 40
0.8351466077306873
 40
0.9174592349446918
 40
1.0
 40
1.0
 40
1.0
 40
1.0
 10
169.2471418335252
 20
80.03156077437038
 30
0.0
 10
169.2471435048919
 20
80.03156067782668
 30
0.0
 10
169.2471452468404
 20
80.03156057720591
 30
0.0
 10
169.2477642689514
 20
80.03155946596613
 30
0.0
 10
169.1436199730673
 20
80.06377608465142
 30
0.0
 10
168.7751351697207
 20
80.17213725258098
 30
0.0
 10
168.40852261517
 20
80.27696792939446
 30
0.0
 10
168.1589910815324
 20
80.34666063437359
 30
0.0
 10
167.8812052884952
 20
80.42180234323199
 30
0.0
 10
167.5745455135942
 20
80.5014673368326
 30
0.0
 10
167.2413586804863
 20
80.58461651826757
 30
0.0
 10
166.9963612383988
 20
80.64192900049733
 30
0.0
 10
166.873692993432
 20
80.67062489850308
 30
0.0
  0
CIRCLE
  5
CC
330
1F
100
AcDbEntity
  8
0
  6
HIDDEN
 62
     7
370
     0
100
AcDbCircle
 10
189.9971457906
 20
111.5315605749
 30
0.0
 40
2.625
  0
LINE
  5
CD
330
1F
100
AcDbEntity
  8
0
  6
HIDDEN
 62
     7
370
     0
100
AcDbLine
 10
196.9090727384
 20
102.0065605749
 30
0.0
 11
196.9090727384
 21
103.3384121893
 31
0.0
  0
LINE
  5
CE
330
1F
100
AcDbEntity
  8
0
  6
HIDDEN
 62
     7
370
     0
100
AcDbLine
 10
196.9090727384
 20
119.7247089606
 30
0.0
 11
196.9090727384
 21
121.0565605749
 31
0.0
  0
SPLINE
  5
CF
330
1F
100
AcDbEntity
  8
0
  6
HIDDEN
 62
     7
370
     0
100
AcDbSpline
210
0.0
220
0.0
230
1.0
 70
     8
 71
     3
 72
     9
 73
     5
 74
     0
 42
0.000000001
 43
0.00000001
 40
0.0
 40
0.0
 40
0.0
 40
0.0
 40
0.6708912068470874
 40
1.0
 40
1.0
 40
1.0
 40
1.0
 10
196.8989486882347
 20
117.0315605749487
 30
0.0
 10
196.9367320340678
 20
117.1757881948062
 30
0.0
 10
196.9930501754408
 20
117.3907673425212
 30
0.0
 10
197.0337508429801
 20
117.6006495430263
 30
0.0
 10
197.0471457905544
 20
117.6697236207389
 30
0.0
  0
SPLINE
  5
D0
330
1F
100
AcDbEntity
  8
0
  6
HIDDEN
 62
     7
370
     0
100
AcDbSpline
210
0.0
220
0.0
230
1.0
 70
     8
 71
     3
 72
     9
 73
     5
 74
     0
 42
0.000000001
 43
0.00000001
 40
0.0
 40
0.0
 40
0.0
 40
0.0
 40
0.2331599277512695
 40
1.0
 40
1.0
 40
1.0
 40
1.0
 10
197.0471457905544
 20
119.6916439671318
 30
0.0
 10
197.0385404268684
 20
119.701325393196
 30
0.0
 10
197.0016328683137
 20
119.7428480774653
 30
0.0
 10
196.9492454839797
 20
119.7325816604949
 30
0.0
 10
196.909072738392
 20
119.7247089605636
 30
0.0
  0
SPLINE
  5
D1
330
1F
100
AcDbEntity
  8
0
  6
HIDDEN
 62
     7
370
     0
100
AcDbSpline
210
0.0
220
0.0
230
1.0
 70
     8
 71
     3
 72
     8
 73
     4
 74
     0
 42
0.000000001
 43
0.00000001
 40
0.0
 40
0.0
 40
0.0
 40
0.0
 40
1.0
 40
1.0
 40
1.0
 40
1.0
 10
196.7971457905544
 20
116.6450919300449
 30
0.0
 10
196.8302957364895
 20
116.774175196379
 30
0.0
 10
196.8642511046482
 20
116.9029910836814
 30
0.0
 10
196.8989486882347
 20
117.0315605749487
 30
0.0
  0
LINE
  5
D2
330
1F
100
AcDbEntity
  8
0
  6
HIDDEN
 62
     7
370
     0
100
AcDbLine
 10
196.7971457906
 20
106.4180292199
 30
0.0
 11
196.7971457906
 21
116.64509193
 31
0.0
  0
SPLINE
  5
D3
330
1F
100
AcDbEntity
  8
0
  6
HIDDEN
 62
     7
370
     0
100
AcDbSpline
210
0.0
220
0.0
230
1.0
 70
     8
 71
     3
 72
     8
 73
     4
 74
     0
 42
0.000000001
 43
0.00000001
 40
0.0
 40
0.0
 40
0.0
 40
0.0
 40
1.0
 40
1.0
 40
1.0
 40
1.0
 10
196.8989486882347
 20
106.0315605749487
 30
0.0
 10
196.8642464296495
 20
106.1601473890996
 30
0.0
 10
196.8302911479781
 20
106.2889638208188
 30
0.0
 10
196.7971457905544
 20
106.4180292198524
 30
0.0
  0
LINE
  5
D4
330
1F
100
AcDbEntity
  8
0
  6
HIDDEN
 62
     7
370
     0
100
AcDbLine
 10
196.9090727384
 20
103.3384121893
 30
0.0
 11
197.0471457906
 21
103.3967589828
 31
0.0
  0
LINE
  5
D5
330
1F
100
AcDbEntity
  8
0
  6
HIDDEN
 62
     7
370
     0
100
AcDbLine
 10
197.0471457906
 20
105.364124669
 30
0.0
 11
196.8989486882
 21
106.0315605749
 31
0.0
  0
LINE
  5
D6
330
1F
100
AcDbEntity
  8
0
  6
HIDDEN
 62
     7
370
     0
100
AcDbLine
 10
147.2471457906
 20
134.0315605749
 30
0.0
 11
147.5844040908
 21
134.0315605749
 31
0.0
  0
ELLIPSE
  5
D7
330
1F
100
AcDbEntity
  8
0
  6
HIDDEN
 62
     7
370
     0
100
AcDbEllipse
 10
147.5844040908
 20
135.6315605749
 30
0.0
 11
0.0
 21
1.599999999999994
 31
0.0
210
0.0
220
0.0
230
1.0
 40
0.4142135624
 41
3.141592653589793
 42
4.712388980384695
  0
ELLIPSE
  5
D8
330
1F
100
AcDbEntity
  8
0
  6
HIDDEN
 62
     7
370
     0
100
AcDbEllipse
 10
147.5844040908
 20
87.4315605749
 30
0.0
 11
0.0
 21
1.600000000000009
 31
0.0
210
0.0
220
0.0
230
1.0
 40
0.4142135624
 41
4.712388980384695
 42
6.283185307179586
  0
LINE
  5
D9
330
1F
100
AcDbEntity
  8
0
  6
HIDDEN
 62
     7
370
     0
100
AcDbLine
 10
147.5844040908
 20
89.0315605749
 30
0.0
 11
147.2471457906
 21
89.0315605749
 31
0.0
  0
LINE
  5
DA
330
1F
100
AcDbEntity
  8
0
  6
HIDDEN
 62
     7
370
     0
100
AcDbLine
 10
148.2471457906
 20
82.0775378522
 30
0.0
 11
147.6341786135
 21
81.4645706751
 31
0.0
  0
LINE
  5
DB
330
1F
100
AcDbEntity
  8
0
  6
HIDDEN
 62
     7
370
     0
100
AcDbLine
 10
147.6341786135
 20
141.5985504748
 30
0.0
 11
148.2471457906
 21
140.9855832977
 31
0.0
  0
LINE
  5
DC
330
1F
100
AcDbEntity
  8
0
  6
HIDDEN
 62
     7
370
     0
100
AcDbLine
 10
86.8471457906
 20
103.0315605749
 30
0.0
 11
86.8471457906
 21
120.0315605749
 31
0.0
  0
LINE
  5
DD
330
1F
100
AcDbEntity
  8
0
  6
HIDDEN
 62
     7
370
     0
100
AcDbLine
 10
89.8430750049
 20
104.5315605749
 30
0.0
 11
89.8430750049
 21
118.5315605749
 31
0.0
  0
LINE
  5
DE
330
1F
100
AcDbEntity
  8
0
  6
HIDDEN
 62
     7
370
     0
100
AcDbLine
 10
148.2471457906
 20
140.9855832977
 30
0.0
 11
157.3797073341
 21
140.9855832977
 31
0.0
  0
LINE
  5
DF
330
1F
100
AcDbEntity
  8
0
  6
HIDDEN
 62
     7
370
     0
100
AcDbLine
 10
148.2471457906
 20
140.9855832977
 30
0.0
 11
148.2471457906
 21
135.6315605749
 31
0.0
  0
LINE
  5
E0
330
1F
100
AcDbEntity
  8
0
  6
HIDDEN
 62
     7
370
     0
100
AcDbLine
 10
157.3797073341
 20
82.0775378522
 30
0.0
 11
148.2471457906
 21
82.0775378522
 31
0.0
  0
LINE
  5
E1
330
1F
100
AcDbEntity
  8
0
  6
HIDDEN
 62
     7
370
     0
100
AcDbLine
 10
148.2471457906
 20
82.0775378522
 30
0.0
 11
148.2471457906
 21
87.4315605749
 31
0.0
  0
LINE
  5
E2
330
1F
100
AcDbEntity
  8
0
  6
HIDDEN
 62
     7
370
     0
100
AcDbLine
 10
160.1971457906
 20
89.0315605749
 30
0.0
 11
147.5844040908
 21
89.0315605749
 31
0.0
  0
LINE
  5
E3
330
1F
100
AcDbEntity
  8
0
  6
HIDDEN
 62
     7
370
     0
100
AcDbLine
 10
147.5844040908
 20
134.0315605749
 30
0.0
 11
160.1971457906
 21
134.0315605749
 31
0.0
  0
LINE
  5
E4
330
1F
100
AcDbEntity
  8
0
  6
HIDDEN
 62
     7
370
     0
100
AcDbLine
 10
160.1971457906
 20
134.0315605749
 30
0.0
 11
166.6471457906
 21
134.0315605749
 31
0.0
  0
SPLINE
  5
E5
330
1F
100
AcDbEntity
  8
0
  6
HIDDEN
 62
     7
370
     0
100
AcDbSpline
210
0.0
220
0.0
230
1.0
 70
     8
 71
     3
 72
    13
 73
     9
 74
     0
 42
0.000000001
 43
0.00000001
 40
0.0
 40
0.0
 40
0.0
 40
0.0
 40
0.1850454653144679
 40
0.3520092965859432
 40
0.5010298177386109
 40
0.6766227814582007
 40
0.8430962614808595
 40
1.0
 40
1.0
 40
1.0
 40
1.0
 10
166.2234094211669
 20
141.4364213506597
 30
0.0
 10
166.450199536787
 20
141.4952580221996
 30
0.0
 10
166.881619074339
 20
141.6071821665012
 30
0.0
 10
167.3690745452906
 20
141.7474482381296
 30
0.0
 10
167.7581837218348
 20
141.8667429973848
 30
0.0
 10
168.03908364226
 20
141.9574108070092
 30
0.0
 10
168.2159684173251
 20
142.0193265673585
 30
0.0
 10
168.2368307971483
 20
142.0275158235161
 30
0.0
 10
168.2469532955835
 20
142.0314892787664
 30
0.0
  0
LINE
  5
E6
330
1F
100
AcDbEntity
  8
0
  6
HIDDEN
 62
     7
370
     0
100
AcDbLine
 10
166.9736399643
 20
141.63613443
 30
0.0
 11
166.2233874031
 21
141.4366087769
 31
0.0
  0
LINE
  5
E7
330
1F
100
AcDbEntity
  8
0
  6
HIDDEN
 62
     7
370
     0
100
AcDbLine
 10
166.6471457906
 20
89.0315605749
 30
0.0
 11
160.1971457906
 21
89.0315605749
 31
0.0
  0
LINE
  5
E8
330
1F
100
AcDbEntity
  8
0
  6
HIDDEN
 62
     7
370
     0
100
AcDbLine
 10
166.2233875568
 20
81.6265126816
 30
0.0
 11
166.3173302864
 21
81.6015290101
 31
0.0
  0
SPLINE
  5
E9
330
1F
100
AcDbEntity
  8
0
  6
HIDDEN
 62
     7
370
     0
100
AcDbSpline
210
0.0
220
0.0
230
1.0
 70
     8
 71
     3
 72
    13
 73
     9
 74
     0
 42
0.000000001
 43
0.00000001
 40
0.0
 40
0.0
 40
0.0
 40
0.0
 40
0.0000730266253407
 40
0.1576811714019511
 40
0.3241446478108668
 40
0.4996852929261713
 40
0.7294244053126598
 40
1.0
 40
1.0
 40
1.0
 40
1.0
 10
168.2471244835022
 20
81.03156887600052
 30
0.0
 10
168.24713158521
 20
81.03156596586561
 30
0.0
 10
168.26246579511
 20
81.02528231958757
 30
0.0
 10
168.2030047230197
 20
81.04899401262888
 30
0.0
 10
168.0422543209203
 20
81.10446894318927
 30
0.0
 10
167.7075696846694
 20
81.21241601116964
 30
0.0
 10
167.1496954261354
 20
81.38368822885863
 30
0.0
 10
166.5485290205968
 20
81.54141865684164
 30
0.0
 10
166.2234117386443
 20
81.62672097505931
 30
0.0
  0
LINE
  5
EA
330
1F
100
AcDbEntity
  8
0
  6
HIDDEN
 62
     7
370
     0
100
AcDbLine
 10
195.065094983
 20
109.5472470917
 30
0.0
 11
195.065094983
 21
113.5158740582
 31
0.0
  0
LINE
  5
EB
330
1F
100
AcDbEntity
  8
0
  6
HIDDEN
 62
     7
370
     0
100
AcDbLine
 10
194.3971457906
 20
109.5472470917
 30
0.0
 11
194.3971457906
 21
113.5158740582
 31
0.0
  0
LINE
  5
EC
330
1F
100
AcDbEntity
  8
0
  6
HIDDEN
 62
     7
370
     0
100
AcDbLine
 10
194.3971457906
 20
117.0315605749
 30
0.0
 11
194.3971457906
 21
113.5158740582
 31
0.0
  0
LINE
  5
ED
330
1F
100
AcDbEntity
  8
0
  6
HIDDEN
 62
     7
370
     0
100
AcDbLine
 10
194.3971457906
 20
113.5158740582
 30
0.0
 11
195.065094983
 21
113.5158740582
 31
0.0
  0
SPLINE
  5
EE
330
1F
100
AcDbEntity
  8
0
  6
HIDDEN
 62
     7
370
     0
100
AcDbSpline
210
0.0
220
0.0
230
1.0
 70
     8
 71
     3
 72
    10
 73
     6
 74
     0
 42
0.000000001
 43
0.00000001
 40
0.0
 40
0.0
 40
0.0
 40
0.0
 40
0.5
 40
0.5
 40
1.0
 40
1.0
 40
1.0
 40
1.0
 10
195.0650949829855
 20
113.5158740582471
 30
0.0
 10
195.2710612832385
 20
113.9952930609237
 30
0.0
 10
195.53351001172
 20
114.4463376506745
 30
0.0
 10
196.1288563849078
 20
115.3130362369981
 30
0.0
 10
196.4547509776591
 20
115.7184936245881
 30
0.0
 10
196.7971457905544
 20
116.1073118793795
 30
0.0
  0
LINE
  5
EF
330
1F
100
AcDbEntity
  8
0
  6
HIDDEN
 62
     7
370
     0
100
AcDbLine
 10
194.3971457906
 20
119.7247089606
 30
0.0
 11
196.9090727384
 21
119.7247089606
 31
0.0
  0
LINE
  5
F0
330
1F
100
AcDbEntity
  8
0
  6
HIDDEN
 62
     7
370
     0
100
AcDbLine
 10
194.3971457906
 20
119.7315605749
 30
0.0
 11
194.3971457906
 21
117.0315605749
 31
0.0
  0
LINE
  5
F1
330
1F
100
AcDbEntity
  8
0
  6
HIDDEN
 62
     7
370
     0
100
AcDbLine
 10
194.3971457906
 20
109.5472470917
 30
0.0
 11
194.3971457906
 21
106.0315605749
 31
0.0
  0
LINE
  5
F2
330
1F
100
AcDbEntity
  8
0
  6
HIDDEN
 62
     7
370
     0
100
AcDbLine
 10
195.065094983
 20
109.5472470917
 30
0.0
 11
194.3971457906
 21
109.5472470917
 31
0.0
  0
SPLINE
  5
F3
330
1F
100
AcDbEntity
  8
0
  6
HIDDEN
 62
     7
370
     0
100
AcDbSpline
210
0.0
220
0.0
230
1.0
 70
     8
 71
     3
 72
    10
 73
     6
 74
     0
 42
0.000000001
 43
0.00000001
 40
0.0
 40
0.0
 40
0.0
 40
0.0
 40
0.5
 40
0.5
 40
1.0
 40
1.0
 40
1.0
 40
1.0
 10
196.7971457905544
 20
106.9558092705179
 30
0.0
 10
196.4538977116296
 20
107.3455964810176
 30
0.0
 10
196.1259460271598
 20
107.7541824008768
 30
0.0
 10
195.5346511825041
 20
108.6152619913962
 30
0.0
 10
195.2722140638792
 20
109.0651448104743
 30
0.0
 10
195.0650949829855
 20
109.5472470916502
 30
0.0
  0
LINE
  5
F4
330
1F
100
AcDbEntity
  8
0
  6
HIDDEN
 62
     7
370
     0
100
AcDbLine
 10
194.3971457906
 20
103.3384121893
 30
0.0
 11
196.9090727384
 21
103.3384121893
 31
0.0
  0
LINE
  5
F5
330
1F
100
AcDbEntity
  8
0
  6
HIDDEN
 62
     7
370
     0
100
AcDbLine
 10
194.3971457906
 20
106.0315605749
 30
0.0
 11
194.3971457906
 21
103.3315605749
 31
0.0
  0
LINE
  5
F6
330
1F
100
AcDbEntity
  8
0
  6
HIDDEN
 62
     7
370
     0
100
AcDbLine
 10
193.7971457906
 20
104.5315605749
 30
0.0
 11
193.7971457906
 21
118.5315605749
 31
0.0
  0
LINE
  5
F7
330
1F
100
AcDbEntity
  8
0
  6
HIDDEN
 62
     7
370
     0
100
AcDbLine
 10
182.2471457906
 20
104.9315605749
 30
0.0
 11
182.2471457906
 21
118.1315605749
 31
0.0
  0
LINE
  5
F8
330
1F
100
AcDbEntity
  8
0
  6
HIDDEN
 62
     7
370
     0
100
AcDbLine
 10
184.2471457906
 20
104.5315605749
 30
0.0
 11
184.2471457906
 21
118.5315605749
 31
0.0
  0
LINE
  5
F9
330
1F
100
AcDbEntity
  8
0
  6
HIDDEN
 62
     7
370
     0
100
AcDbLine
 10
122.8471457906
 20
104.5315605749
 30
0.0
 11
122.8471457906
 21
118.5315605749
 31
0.0
  0
LINE
  5
FA
330
1F
100
AcDbEntity
  8
0
  6
HIDDEN
 62
     7
370
     0
100
AcDbLine
 10
124.4995124929
 20
107.2815605749
 30
0.0
 11
124.4995124929
 21
115.7815605749
 31
0.0
  0
SPLINE
  5
FB
330
1F
100
AcDbEntity
  8
0
  6
HIDDEN
 62
     7
370
     0
100
AcDbSpline
210
0.0
220
0.0
230
1.0
 70
     8
 71
     3
 72
     9
 73
     5
 74
     0
 42
0.000000001
 43
0.00000001
 40
0.0
 40
0.0
 40
0.0
 40
0.0
 40
0.4932365035776448
 40
1.0
 40
1.0
 40
1.0
 40
1.0
 10
166.2242053292519
 20
141.436392086121
 30
0.0
 10
166.3300532847606
 20
141.5934134744039
 30
0.0
 10
166.5446520720379
 20
141.9117625567284
 30
0.0
 10
166.7625119539221
 20
142.231588664406
 30
0.0
 10
166.8729153893959
 20
142.3936648609798
 30
0.0
  0
SPLINE
  5
FC
330
1F
100
AcDbEntity
  8
0
  6
HIDDEN
 62
     7
370
     0
100
AcDbSpline
210
0.0
220
0.0
230
1.0
 70
     8
 71
     3
 72
     9
 73
     5
 74
     0
 42
0.000000001
 43
0.00000001
 40
0.0
 40
0.0
 40
0.0
 40
0.0
 40
0.5067661695379747
 40
1.0
 40
1.0
 40
1.0
 40
1.0
 10
166.8729190746819
 20
80.66947042447154
 30
0.0
 10
166.7625142442078
 20
80.83154783905167
 30
0.0
 10
166.5446527587526
 20
81.1513746631822
 30
0.0
 10
166.3300530408669
 20
81.46972317944667
 30
0.0
 10
166.2242051999981
 20
81.6267434375457
 30
0.0
  0
LINE
  5
FD
330
1F
100
AcDbEntity
  8
0
  6
HIDDEN
 62
     7
370
     0
100
AcDbLine
 10
194.3971457906
 20
121.0565605749
 30
0.0
 11
194.3971457906
 21
119.7247089606
 31
0.0
  0
LINE
  5
FE
330
1F
100
AcDbEntity
  8
0
  6
HIDDEN
 62
     7
370
     0
100
AcDbLine
 10
194.3971457906
 20
103.3384121893
 30
0.0
 11
194.3971457906
 21
102.0065605749
 31
0.0
  0
LINE
  5
FF
330
1F
100
AcDbEntity
  8
0
  6
HIDDEN
 62
     7
370
     0
100
AcDbLine
 10
197.2471457906
 20
121.7815605749
 30
0.0
 11
196.9090727384
 21
121.0565605749
 31
0.0
  0
LINE
  5
100
330
1F
100
AcDbEntity
  8
0
  6
HIDDEN
 62
     7
370
     0
100
AcDbLine
 10
196.9090727384
 20
102.0065605749
 30
0.0
 11
197.2471457906
 21
101.2815605749
 31
0.0
  0
ARC
  5
101
330
1F
100
AcDbEntity
  8
0
  6
HIDDEN
 62
     7
370
     0
100
AcDbCircle
 10
80.6471457906
 20
102.2315605749
 30
0.0
 40
0.7999999999999972
100
AcDbArc
 50
90.0
 51
180.0
  0
ARC
  5
102
330
1F
100
AcDbEntity
  8
0
  6
HIDDEN
 62
     7
370
     0
100
AcDbCircle
 10
80.6471457906
 20
120.8315605749
 30
0.0
 40
0.7999999999999972
100
AcDbArc
 50
180.0
 51
270.0
  0
ARC
  5
103
330
1F
100
AcDbEntity
  8
0
  6
HIDDEN
 62
     7
370
     0
100
AcDbCircle
 10
88.6162056829
 20
103.2065605749
 30
0.0
 40
0.4000000000000121
100
AcDbArc
 50
270.0
 51
330.0
  0
ARC
  5
104
330
1F
100
AcDbEntity
  8
0
  6
HIDDEN
 62
     7
370
     0
100
AcDbCircle
 10
88.6162056829
 20
119.8565605749
 30
0.0
 40
0.4000000000000121
100
AcDbArc
 50
30.0
 51
90.0
  0
LINE
  5
105
330
1F
100
AcDbEntity
  8
0
  6
HIDDEN
 62
     7
370
     0
100
AcDbLine
 10
87.7395182213
 20
102.8065605749
 30
0.0
 11
88.6162056829
 21
102.8065605749
 31
0.0
  0
LINE
  5
106
330
1F
100
AcDbEntity
  8
0
  6
HIDDEN
 62
     7
370
     0
100
AcDbLine
 10
88.6162056829
 20
120.2565605749
 30
0.0
 11
87.7395182213
 21
120.2565605749
 31
0.0
  0
ARC
  5
107
330
1F
100
AcDbEntity
  8
0
  6
HIDDEN
 62
     7
370
     0
100
AcDbCircle
 10
87.7395182213
 20
103.2065605749
 30
0.0
 40
0.3999999999999915
100
AcDbArc
 50
255.0
 51
270.0
  0
ARC
  5
108
330
1F
100
AcDbEntity
  8
0
  6
HIDDEN
 62
     7
370
     0
100
AcDbCircle
 10
87.7395182213
 20
119.8565605749
 30
0.0
 40
0.3999999999999986
100
AcDbArc
 50
90.0
 51
105.0
  0
LINE
  5
109
330
1F
100
AcDbEntity
  8
0
  6
HIDDEN
 62
     7
370
     0
100
AcDbLine
 10
87.6359906033
 20
120.2429309055
 30
0.0
 11
86.8471457906
 21
120.0315605749
 31
0.0
  0
LINE
  5
10A
330
1F
100
AcDbEntity
  8
0
  6
HIDDEN
 62
     7
370
     0
100
AcDbLine
 10
86.8471457906
 20
103.0315605749
 30
0.0
 11
87.6359906033
 21
102.8201902444
 31
0.0
  0
LINE
  5
10B
330
1F
100
AcDbEntity
  8
0
  6
HIDDEN
 62
     7
370
     0
100
AcDbLine
 10
88.9626158444
 20
103.0065605749
 30
0.0
 11
89.8430750049
 21
104.5315605749
 31
0.0
  0
LINE
  5
10C
330
1F
100
AcDbEntity
  8
0
  6
HIDDEN
 62
     7
370
     0
100
AcDbLine
 10
89.8430750049
 20
118.5315605749
 30
0.0
 11
88.9626158444
 21
120.0565605749
 31
0.0
  0
LINE
  5
10D
330
1F
100
AcDbEntity
  8
0
  6
HIDDEN
 62
     7
370
     0
100
AcDbLine
 10
80.6471457906
 20
103.0315605749
 30
0.0
 11
86.8471457906
 21
103.0315605749
 31
0.0
  0
LINE
  5
10E
330
1F
100
AcDbEntity
  8
0
  6
HIDDEN
 62
     7
370
     0
100
AcDbLine
 10
86.8471457906
 20
120.0315605749
 30
0.0
 11
80.6471457906
 21
120.0315605749
 31
0.0
  0
ARC
  5
10F
330
1F
100
AcDbEntity
  8
0
  6
HIDDEN
 62
     7
370
     0
100
AcDbCircle
 10
166.6471457906
 20
135.6315605749
 30
0.0
 40
1.600000000000023
100
AcDbArc
 50
270.0
 51
0.0
  0
LINE
  5
110
330
1F
100
AcDbEntity
  8
0
  6
HIDDEN
 62
     7
370
     0
100
AcDbLine
 10
168.2471457906
 20
135.6315605749
 30
0.0
 11
168.2471457906
 21
142.0314892788
 31
0.0
  0
ARC
  5
111
330
1F
100
AcDbEntity
  8
0
  6
HIDDEN
 62
     7
370
     0
100
AcDbCircle
 10
166.6471457906
 20
87.4315605749
 30
0.0
 40
1.600000000000009
100
AcDbArc
 50
0.0
 51
90.0
  0
LINE
  5
112
330
1F
100
AcDbEntity
  8
0
  6
HIDDEN
 62
     7
370
     0
100
AcDbLine
 10
168.2471457906
 20
81.031568876
 30
0.0
 11
168.2471457906
 21
87.4315605749
 31
0.0
  0
LINE
  5
113
330
1F
100
AcDbEntity
  8
0
  6
HIDDEN
 62
     7
370
     0
100
AcDbLine
 10
196.9552206312
 20
119.7315605749
 30
0.0
 11
194.3971457906
 21
119.7315605749
 31
0.0
  0
LINE
  5
114
330
1F
100
AcDbEntity
  8
0
  6
HIDDEN
 62
     7
370
     0
100
AcDbLine
 10
194.3971457906
 20
103.3315605749
 30
0.0
 11
196.9504499733
 21
103.3315605749
 31
0.0
  0
LINE
  5
115
330
1F
100
AcDbEntity
  8
0
  6
HIDDEN
 62
     7
370
     0
100
AcDbLine
 10
194.3971457906
 20
118.8779707365
 30
0.0
 11
193.7971457906
 21
118.5315605749
 31
0.0
  0
LINE
  5
116
330
1F
100
AcDbEntity
  8
0
  6
HIDDEN
 62
     7
370
     0
100
AcDbLine
 10
193.7971457906
 20
104.5315605749
 30
0.0
 11
194.3971457906
 21
104.1851504134
 31
0.0
  0
ARC
  5
117
330
1F
100
AcDbEntity
  8
0
  6
HIDDEN
 62
     7
370
     0
100
AcDbCircle
 10
183.4217441305
 20
104.9315605749
 30
0.0
 40
0.6000000000000061
100
AcDbArc
 50
270.0
 51
285.0
  0
ARC
  5
118
330
1F
100
AcDbEntity
  8
0
  6
HIDDEN
 62
     7
370
     0
100
AcDbCircle
 10
183.4217441305
 20
118.1315605749
 30
0.0
 40
0.6000000000000085
100
AcDbArc
 50
75.0
 51
90.0
  0
LINE
  5
119
330
1F
100
AcDbEntity
  8
0
  6
HIDDEN
 62
     7
370
     0
100
AcDbLine
 10
182.8471457906
 20
104.3315605749
 30
0.0
 11
183.4217441305
 21
104.3315605749
 31
0.0
  0
LINE
  5
11A
330
1F
100
AcDbEntity
  8
0
  6
HIDDEN
 62
     7
370
     0
100
AcDbLine
 10
183.4217441305
 20
118.7315605749
 30
0.0
 11
182.8471457906
 21
118.7315605749
 31
0.0
  0
ARC
  5
11B
330
1F
100
AcDbEntity
  8
0
  6
HIDDEN
 62
     7
370
     0
100
AcDbCircle
 10
182.8471457906
 20
104.9315605749
 30
0.0
 40
0.5999999999999943
100
AcDbArc
 50
180.0
 51
270.0
  0
ARC
  5
11C
330
1F
100
AcDbEntity
  8
0
  6
HIDDEN
 62
     7
370
     0
100
AcDbCircle
 10
182.8471457906
 20
118.1315605749
 30
0.0
 40
0.6000000000000085
100
AcDbArc
 50
90.0
 51
180.0
  0
LINE
  5
11D
330
1F
100
AcDbEntity
  8
0
  6
HIDDEN
 62
     7
370
     0
100
AcDbLine
 10
183.5770355575
 20
104.3520050792
 30
0.0
 11
184.2471457906
 21
104.5315605749
 31
0.0
  0
LINE
  5
11E
330
1F
100
AcDbEntity
  8
0
  6
HIDDEN
 62
     7
370
     0
100
AcDbLine
 10
184.2471457906
 20
118.5315605749
 30
0.0
 11
183.5770355575
 21
118.7111160707
 31
0.0
  0
LINE
  5
11F
330
1F
100
AcDbEntity
  8
0
  6
HIDDEN
 62
     7
370
     0
100
AcDbLine
 10
184.2471457906
 20
104.5315605749
 30
0.0
 11
193.7971457906
 21
104.5315605749
 31
0.0
  0
LINE
  5
120
330
1F
100
AcDbEntity
  8
0
  6
HIDDEN
 62
     7
370
     0
100
AcDbLine
 10
193.7971457906
 20
118.5315605749
 30
0.0
 11
184.2471457906
 21
118.5315605749
 31
0.0
  0
LINE
  5
121
330
1F
100
AcDbEntity
  8
0
  6
HIDDEN
 62
     7
370
     0
100
AcDbLine
 10
89.8430750049
 20
104.5315605749
 30
0.0
 11
122.8471457906
 21
104.5315605749
 31
0.0
  0
LINE
  5
122
330
1F
100
AcDbEntity
  8
0
  6
HIDDEN
 62
     7
370
     0
100
AcDbLine
 10
122.8471457906
 20
118.5315605749
 30
0.0
 11
89.8430750049
 21
118.5315605749
 31
0.0
  0
LINE
  5
123
330
1F
100
AcDbEntity
  8
0
  6
HIDDEN
 62
     7
370
     0
100
AcDbLine
 10
122.8471457906
 20
104.5315605749
 30
0.0
 11
124.4995124929
 21
107.2815605749
 31
0.0
  0
LINE
  5
124
330
1F
100
AcDbEntity
  8
0
  6
HIDDEN
 62
     7
370
     0
100
AcDbLine
 10
124.4995124929
 20
115.7815605749
 30
0.0
 11
122.8471457906
 21
118.5315605749
 31
0.0
  0
LINE
  5
125
330
1F
100
AcDbEntity
  8
0
  6
HIDDEN
 62
     7
370
     0
100
AcDbLine
 10
168.2471448806
 20
142.031560363
 30
0.0
 11
169.2471442499
 21
143.0315601098
 31
0.0
  0
LINE
  5
126
330
1F
100
AcDbEntity
  8
0
  6
HIDDEN
 62
     7
370
     0
100
AcDbLine
 10
169.247152152
 20
80.0315594373
 30
0.0
 11
168.247151903
 21
81.0315592418
 31
0.0
  0
LINE
  5
127
330
1F
100
AcDbEntity
  8
0
  6
HIDDEN
 62
     7
370
     0
100
AcDbLine
 10
196.9090727384
 20
121.0565605749
 30
0.0
 11
194.3971457906
 21
121.0565605749
 31
0.0
  0
LINE
  5
128
330
1F
100
AcDbEntity
  8
0
  6
HIDDEN
 62
     7
370
     0
100
AcDbLine
 10
194.3971457906
 20
102.0065605749
 30
0.0
 11
196.9090727384
 21
102.0065605749
 31
0.0
  0
LINE
  5
129
330
1F
100
AcDbEntity
  8
0
  6
HIDDEN
 62
     7
370
     0
100
AcDbLine
 10
124.4995124929
 20
107.2815605749
 30
0.0
 11
182.2471457906
 21
107.2815605749
 31
0.0
  0
LINE
  5
12A
330
1F
100
AcDbEntity
  8
0
  6
HIDDEN
 62
     7
370
     0
100
AcDbLine
 10
182.2471457906
 20
115.7815605749
 30
0.0
 11
124.4995124929
 21
115.7815605749
 31
0.0
  0
LINE
  5
12B
330
1F
100
AcDbEntity
  8
0
  6
HIDDEN
 62
     7
370
     0
100
AcDbLine
 10
196.9555819617
 20
119.7315605749
 30
0.0
 11
196.9552206312
 21
119.7315605749
 31
0.0
  0
LINE
  5
12C
330
1F
100
AcDbEntity
  8
0
  6
HIDDEN
 62
     7
370
     0
100
AcDbLine
 10
196.9504499733
 20
103.3315605749
 30
0.0
 11
196.9552206312
 21
103.3315605749
 31
0.0
  0
DIMENSION
  5
12D
330
1F
100
AcDbEntity
  8
VERMASSUNG
100
AcDbDimension
  2
_D
 10
75.7272080716
 20
80.0315605749
 30
0.0
 11
75.7272080716
 21
111.5315605749
 31
0.0
 70
   160
  1
MAS BT 40 %%c<>
 71
     2
 42
-1.0
  3
SLDDIMSTYLE0
100
AcDbAlignedDimension
 13
169.2471416465
 23
143.0315605749
 33
0.0
 14
169.2471465645
 24
80.0315605749
 34
0.0
 50
90.0
100
AcDbRotatedDimension
  0
DIMENSION
  5
13A
330
1F
100
AcDbEntity
  8
VERMASSUNG
100
AcDbDimension
  2
_D_1
 10
197.2471457906
 20
159.0115671048
 30
0.0
 11
138.5471457906
 21
159.0115671048
 31
0.0
 70
   160
  1
<>
 71
     2
 42
-1.0
  3
SLDDIMSTYLE0
100
AcDbAlignedDimension
 13
79.8471457906
 23
123.354316172
 33
0.0
 14
197.2471457906
 24
123.8315605749
 34
0.0
100
AcDbRotatedDimension
  0
DIMENSION
  5
144
330
1F
100
AcDbEntity
  8
VERMASSUNG
100
AcDbDimension
  2
_D_2
 10
197.2471457906
 20
153.0115671048
 30
0.0
 11
171.2471457906
 21
153.0115671048
 31
0.0
 70
   160
  1
<>
 71
     2
 42
-1.0
  3
SLDDIMSTYLE0
100
AcDbAlignedDimension
 13
145.2471457906
 23
133.7565605749
 33
0.0
 14
197.2471457906
 24
123.8315605749
 34
0.0
100
AcDbRotatedDimension
  0
DIMENSION
  5
14E
330
1F
100
AcDbEntity
  8
VERMASSUNG
100
AcDbDimension
  2
_D_3
 10
197.2471457906
 20
147.0115671048
 30
0.0
 11
184.7471457906
 21
147.0115671048
 31
0.0
 70
   160
  1
<>
 71
     2
 42
-1.0
  3
SLDDIMSTYLE0
100
AcDbAlignedDimension
 13
172.2471457906
 23
142.0315605749
 33
0.0
 14
197.2471457906
 24
123.8315605749
 34
0.0
100
AcDbRotatedDimension
  0
DIMENSION
  5
158
330
1F
100
AcDbEntity
  8
VERMASSUNG
100
AcDbDimension
  2
_D_4
 10
204.0670266583
 20
99.0315605749
 30
0.0
 11
204.0670266583
 21
111.5315605749
 31
0.0
 70
   160
  1
MBM %%c<>
 71
     2
 42
-1.0
  3
SLDDIMSTYLE0
100
AcDbAlignedDimension
 13
197.0471457906
 23
124.0315605749
 33
0.0
 14
197.0471457906
 24
99.0315605749
 34
0.0
 50
90.0
100
AcDbRotatedDimension
  0
LINE
  5
164
330
1F
100
AcDbEntity
  8
VERMASSUNG
  6
CENTERX2
 62
     7
370
     0
100
AcDbLine
 10
77.8471457906
 20
111.5315605749
 30
0.0
 11
199.2471457906
 21
111.5315605749
 31
0.0
  0
LINE
  5
165
330
1F
100
AcDbEntity
  8
0
  6
Continuous
 62
     7
370
    15
100
AcDbLine
 10
265.2551709408
 20
46.5563784792
 30
0.0
 11
265.1137266052
 21
46.6380590982
 31
0.0
  0
LINE
  5
166
330
1F
100
AcDbEntity
  8
0
  6
Continuous
 62
     7
370
    15
100
AcDbLine
 10
263.2749502426
 20
46.6380590982
 30
0.0
 11
263.133505907
 21
46.5563784792
 31
0.0
  0
LINE
  5
167
330
1F
100
AcDbEntity
  8
0
  6
Continuous
 62
     7
370
    15
100
AcDbLine
 10
265.6943384239
 20
45.8012772621
 30
0.0
 11
265.6943384239
 21
45.9441719042
 31
0.0
  0
LINE
  5
168
330
1F
100
AcDbEntity
  8
0
  6
Continuous
 62
     7
370
    15
100
AcDbLine
 10
262.6943384239
 20
45.9441719042
 30
0.0
 11
262.6943384239
 21
45.8012772621
 31
0.0
  0
SPLINE
  5
169
330
1F
100
AcDbEntity
  8
0
  6
Continuous
 62
     7
370
    15
100
AcDbSpline
210
0.0
220
0.0
230
1.0
 70
     8
 71
     3
 72
    20
 73
    16
 74
     0
 42
0.000000001
 43
0.00000001
 40
0.0
 40
0.0
 40
0.0
 40
0.0
 40
0.0598391953064463
 40
0.1394000513681042
 40
0.2194488697821426
 40
0.3000070488120637
 40
0.3810091947549639
 40
0.4623443484609081
 40
0.5438949612355689
 40
0.6255613193086421
 40
0.7072698066208687
 40
0.7889631472195812
 40
0.8706199713113729
 40
0.9522314203234091
 40
1.0
 40
1.0
 40
1.0
 40
1.0
 10
251.1221766067113
 20
30.61804206989894
 30
0.0
 10
251.3113900764395
 20
30.57105112653166
 30
0.0
 10
251.7521775446627
 20
30.46158207559126
 30
0.0
 10
252.4879261357435
 20
30.40008722168364
 30
0.0
 10
253.3170014472345
 20
30.41586350518507
 30
0.0
 10
254.1756940275124
 20
30.5294138136381
 30
0.0
 10
255.0568768406352
 20
30.73649788499212
 30
0.0
 10
255.9549533207478
 20
31.03706468640878
 30
0.0
 10
256.8634877122271
 20
31.4288180927831
 30
0.0
 10
257.7762047233353
 20
31.90892486271873
 30
0.0
 10
258.686731287828
 20
32.47408161310636
 30
0.0
 10
259.5894477649306
 20
33.11922026533357
 30
0.0
 10
260.4769415786588
 20
33.84341597076341
 30
0.0
 10
261.2290472352546
 20
34.51985258387238
 30
0.0
 10
261.6725897257311
 20
34.97909641761598
 30
0.0
 10
261.8363506632656
 20
35.14865446985573
 30
0.0
  0
SPLINE
  5
16A
330
1F
100
AcDbEntity
  8
0
  6
Continuous
 62
     7
370
    15
100
AcDbSpline
210
0.0
220
0.0
230
1.0
 70
     8
 71
     3
 72
    20
 73
    16
 74
     0
 42
0.000000001
 43
0.00000001
 40
0.0
 40
0.0
 40
0.0
 40
0.0
 40
0.024592158497658
 40
0.1066649088493995
 40
0.1887950507084601
 40
0.2709886825416877
 40
0.3532477085955917
 40
0.4355668488971514
 40
0.5179292042396958
 40
0.6002884831678612
 40
0.6825717452223556
 40
0.7646796599442921
 40
0.8464863427984178
 40
0.927859649274345
 40
1.0
 40
1.0
 40
1.0
 40
1.0
 10
268.0867831868838
 20
45.97372234247807
 30
0.0
 10
268.121566123945
 20
46.08981047540814
 30
0.0
 10
268.2724320518587
 20
46.59332585892617
 30
0.0
 10
268.4699983668812
 20
47.47621785969227
 30
0.0
 10
268.6755240934584
 20
48.61314135180844
 30
0.0
 10
268.8034439661008
 20
49.72600870215745
 30
0.0
 10
268.8589394929108
 20
50.80840327796928
 30
0.0
 10
268.8394617403848
 20
51.85325001711593
 30
0.0
 10
268.745029825653
 20
52.85374764538448
 30
0.0
 10
268.575593098244
 20
53.80316101622907
 30
0.0
 10
268.3316328517992
 20
54.69459746011209
 30
0.0
 10
268.0149739611181
 20
55.52219032424825
 30
0.0
 10
267.6256859166007
 20
56.27698741310498
 30
0.0
 10
267.1905028108687
 20
56.93838092526472
 30
0.0
 10
266.8533640393512
 20
57.3064946147712
 30
0.0
 10
266.6949331240577
 20
57.4794815082633
 30
0.0
  0
LINE
  5
16B
330
1F
100
AcDbEntity
  8
0
  6
Continuous
 62
     7
370
    15
100
AcDbLine
 10
248.1440562469
 20
32.0836898062
 30
0.0
 11
249.6908523307
 21
31.1907434339
 31
0.0
  0
LINE
  5
16C
330
1F
100
AcDbEntity
  8
0
  6
Continuous
 62
     7
370
    15
100
AcDbLine
 10
265.4395723698
 20
58.4712825989
 30
0.0
 11
263.8927762859
 21
59.3642289712
 31
0.0
  0
LINE
  5
16D
330
1F
100
AcDbEntity
  8
0
  6
Continuous
 62
     7
370
    15
100
AcDbLine
 10
266.6876081072
 20
34.4622153423
 30
0.0
 11
266.7583072928
 21
34.5030423823
 31
0.0
  0
LINE
  5
16E
330
1F
100
AcDbEntity
  8
0
  6
Continuous
 62
     7
370
    15
100
AcDbLine
 10
271.10630721
 20
42.0348152334
 30
0.0
 11
271.10630721
 21
42.1164560446
 31
0.0
  0
LINE
  5
16F
330
1F
100
AcDbEntity
  8
0
  6
Continuous
 62
     7
370
    15
100
AcDbLine
 10
256.2082332637
 20
38.3976974868
 30
0.0
 11
263.5621437881
 21
34.1523753053
 31
0.0
  0
LINE
  5
170
330
1F
100
AcDbEntity
  8
0
  6
Continuous
 62
     7
370
    15
100
AcDbLine
 10
269.8116358671
 20
44.9779860851
 30
0.0
 11
262.4577253427
 21
49.2233082665
 31
0.0
  0
LINE
  5
171
330
1F
100
AcDbEntity
  8
0
  6
Continuous
 62
     7
370
    15
100
AcDbLine
 10
260.3395647105
 20
61.4154543522
 30
0.0
 11
257.3078443861
 21
63.1656292419
 31
0.0
  0
SPLINE
  5
172
330
1F
100
AcDbEntity
  8
0
  6
Continuous
 62
     7
370
    15
100
AcDbSpline
210
0.0
220
0.0
230
1.0
 70
     8
 71
     3
 72
    31
 73
    27
 74
     0
 42
0.000000001
 43
0.00000001
 40
0.0
 40
0.0
 40
0.0
 40
0.0
 40
0.0408363800743998
 40
0.0826320357018378
 40
0.1246915344860266
 40
0.1670133032928273
 40
0.2095550711953852
 40
0.2522561289729173
 40
0.2950562560143841
 40
0.3379064086235527
 40
0.3807697386887894
 40
0.4236216211154961
 40
0.4664527070830004
 40
0.5092595678444598
 40
0.5520425179169051
 40
0.5948041217786536
 40
0.6375482355678291
 40
0.6802794248676067
 40
0.723002630241776
 40
0.7657229877112044
 40
0.8084455610159629
 40
0.8511740774652823
 40
0.8939138777900721
 40
0.9366702890639154
 40
0.9794485180456852
 40
0.9999999999999999
 40
0.9999999999999999
 40
0.9999999999999999
 40
0.9999999999999999
 10
255.8663010285612
 20
63.74956713492541
 30
0.0
 10
255.6174388625206
 20
63.80399885855058
 30
0.0
 10
255.1138685815201
 20
63.91414094562371
 30
0.0
 10
254.3109412235497
 20
63.96130593142392
 30
0.0
 10
253.4740780664688
 20
63.92144287106925
 30
0.0
 10
252.6093718382284
 20
63.78501215922775
 30
0.0
 10
251.723478893365
 20
63.55491133308669
 30
0.0
 10
250.8222585357114
 20
63.23182583442046
 30
0.0
 10
249.9121186945506
 20
62.81816896127969
 30
0.0
 10
248.9993690458957
 20
62.31691980882988
 30
0.0
 10
248.0902178953845
 20
61.73178145432049
 30
0.0
 10
247.1906566997178
 20
61.06696945304648
 30
0.0
 10
246.3064589923552
 20
60.32713619105983
 30
0.0
 10
245.4431915927937
 20
59.51730595063285
 30
0.0
 10
244.6062621656563
 20
58.6428806778871
 30
0.0
 10
243.8009093970647
 20
57.70961727127913
 30
0.0
 10
243.0321839218043
 20
56.72360302578624
 30
0.0
 10
242.3049258870164
 20
55.69122713551216
 30
0.0
 10
241.6237309170793
 20
54.61914553672139
 30
0.0
 10
240.9929491995384
 20
53.51425007548728
 30
0.0
 10
240.4165681431666
 20
52.38361826936035
 30
0.0
 10
239.8985382080626
 20
51.23453469994864
 30
0.0
 10
239.4414045671969
 20
50.07414759331358
 30
0.0
 10
239.0513123303986
 20
48.91050660430732
 30
0.0
 10
238.7768143074538
 20
47.94992760076655
 30
0.0
 10
238.6509391134819
 20
47.38348130802737
 30
0.0
 10
238.6100906437957
 20
47.19966062431911
 30
0.0
  0
LINE
  5
173
330
1F
100
AcDbEntity
  8
0
  6
Continuous
 62
     7
370
    15
100
AcDbLine
 10
248.2998182603
 20
61.8523532028
 30
0.0
 11
228.4083467087
 21
69.0204510793
 31
0.0
  0
LINE
  5
174
330
1F
100
AcDbEntity
  8
0
  6
Continuous
 62
     7
370
    15
100
AcDbLine
 10
222.0368772973
 20
57.9835464683
 30
0.0
 11
241.0647513836
 21
41.9165668909
 31
0.0
  0
LINE
  5
175
330
1F
100
AcDbEntity
  8
0
  6
Continuous
 62
     7
370
    15
100
AcDbLine
 10
241.5591243471
 20
35.8850900769
 30
0.0
 11
244.5908446714
 21
34.1349151872
 31
0.0
  0
SPLINE
  5
176
330
1F
100
AcDbEntity
  8
0
  6
Continuous
 62
     7
370
    15
100
AcDbSpline
210
0.0
220
0.0
230
1.0
 70
     8
 71
     3
 72
    12
 73
     8
 74
     0
 42
0.000000001
 43
0.00000001
 40
0.0
 40
0.0
 40
0.0
 40
0.0
 40
0.0796898634194904
 40
0.3187031276461503
 40
0.5570625621559262
 40
0.7941556218789012
 40
1.0
 40
1.0
 40
1.0
 40
1.0
 10
238.5958783388777
 20
39.95180535420065
 30
0.0
 10
238.6243034371089
 20
39.85423519108944
 30
0.0
 10
238.7379837387335
 20
39.46402350274966
 30
0.0
 10
238.9892137318407
 20
38.82571356923825
 30
0.0
 10
239.3776401113544
 20
38.07080293393333
 30
0.0
 10
239.8110216136626
 20
37.41457988363752
 30
0.0
 10
240.1451948839508
 20
37.05052046384281
 30
0.0
 10
240.3004937662083
 20
36.8813327220445
 30
0.0
  0
SPLINE
  5
177
330
1F
100
AcDbEntity
  8
0
  6
Continuous
 62
     7
370
    15
100
AcDbSpline
210
0.0
220
0.0
230
1.0
 70
     8
 71
     3
 72
    25
 73
    21
 74
     0
 42
0.000000001
 43
0.00000001
 40
0.0
 40
0.0
 40
0.0
 40
0.0
 40
0.028353213013031
 40
0.0832872775682947
 40
0.1391559343315514
 40
0.1961819958283576
 40
0.2541722508321149
 40
0.3127332264598331
 40
0.3715091566737266
 40
0.4302438854321537
 40
0.4888766991116574
 40
0.5474068061628955
 40
0.6058614766329018
 40
0.6642797764795493
 40
0.7227055393750099
 40
0.7811729114023053
 40
0.8397256229386516
 40
0.8984102708653411
 40
0.9572682205006331
 40
1.0
 40
1.0
 40
1.0
 40
1.0
 10
228.2591848422596
 20
69.05609547265615
 30
0.0
 10
228.1756777541249
 20
69.08299366758695
 30
0.0
 10
227.9303765240597
 20
69.16200684419799
 30
0.0
 10
227.4849775098224
 20
69.19080567772723
 30
0.0
 10
226.9350962330523
 20
69.1493699507676
 30
0.0
 10
226.3613483316475
 20
69.00904384031718
 30
0.0
 10
225.7739713956949
 20
68.77667478624623
 30
0.0
 10
225.1823108706763
 20
68.45364584728553
 30
0.0
 10
224.5973966164797
 20
68.0463681771566
 30
0.0
 10
224.0293412105408
 20
67.56254259628237
 30
0.0
 10
223.487259828938
 20
67.01103596574082
 30
0.0
 10
222.9792377879815
 20
66.40109850792648
 30
0.0
 10
222.5127770022963
 20
65.74254301049919
 30
0.0
 10
222.0948332037191
 20
65.04568217023538
 30
0.0
 10
221.7317520065509
 20
64.32126336975044
 30
0.0
 10
221.4293535962865
 20
63.5803931594538
 30
0.0
 10
221.192184317915
 20
62.83401393279342
 30
0.0
 10
221.0260629073431
 20
62.09395132994297
 30
0.0
 10
220.9375536408323
 20
61.43518627373156
 30
0.0
 10
220.9280204625355
 20
61.0364913542474
 30
0.0
 10
220.9240105131402
 20
60.86878795025139
 30
0.0
  0
SPLINE
  5
178
330
1F
100
AcDbEntity
  8
0
  6
Continuous
 62
     7
370
    15
100
AcDbSpline
210
0.0
220
0.0
230
1.0
 70
     8
 71
     3
 72
    13
 73
     9
 74
     0
 42
0.000000001
 43
0.00000001
 40
0.0
 40
0.0
 40
0.0
 40
0.0
 40
0.1011307976969111
 40
0.2923685902370594
 40
0.4836418253055695
 40
0.6734404424211806
 40
0.8601266875302223
 40
1.0
 40
1.0
 40
1.0
 40
1.0
 10
220.9240105131402
 20
60.86878795025139
 30
0.0
 10
220.9262043699613
 20
60.7483803624371
 30
0.0
 10
220.9325467981886
 20
60.40028267602695
 30
0.0
 10
221.0036441390681
 20
59.85571021514257
 30
0.0
 10
221.1632986361534
 20
59.25993154981574
 30
0.0
 10
221.4051697391151
 20
58.73215149619426
 30
0.0
 10
221.6893900469328
 20
58.30582725549682
 30
0.0
 10
221.9226909013183
 20
58.09752797862895
 30
0.0
 10
222.0226192682811
 20
58.00830838862036
 30
0.0
  0
LWPOLYLINE
  5
179
330
1F
100
AcDbEntity
  8
0
  6
Continuous
 62
     7
370
    15
100
AcDbPolyline
 90
       22
 70
   128
 43
0.0
 10
263.2750996083
 20
45.5768147939
 10
263.0449884123
 20
45.756807098
 10
262.9170020087
 20
45.9679582343
 10
262.902512551
 20
46.1915064977
 10
263.0028074913
 20
46.4075886439
 10
263.2089751838
 20
46.597004826
 10
263.5026967244
 20
46.742924585
 10
263.8578736652
 20
46.8323823099
 10
264.2429469764
 20
46.8574292894
 10
264.6237012044
 20
46.8158399893
 10
264.9663046651
 20
46.7113098014
 10
265.2403155376
 20
46.5531266918
 10
265.4213867533
 20
46.3553459238
 10
265.4934293401
 20
46.1355411866
 10
265.4500419981
 20
45.9132430958
 10
265.2950798829
 20
45.7082038123
 10
265.0423120585
 20
45.5386419761
 10
264.7141980555
 20
45.4196239006
 10
264.3398922428
 20
45.361724864
 10
263.9526533346
 20
45.3700894499
 10
263.5868892071
 20
45.443974428
 10
263.2750996083
 20
45.5768147939
  0
LWPOLYLINE
  5
17A
330
1F
100
AcDbEntity
  8
0
  6
Continuous
 62
     7
370
    15
100
AcDbPolyline
 90
        7
 70
   128
 43
0.0
 10
263.1336782521
 20
45.3318658203
 10
262.8778199395
 20
45.5291750776
 10
262.7286181249
 20
45.7601049097
 10
262.698160252
 20
46.005946755
 10
262.7889138364
 20
46.2467839692
 10
262.9935265625
 20
46.4631053537
 10
263.133505907
 20
46.5563784792
  0
LWPOLYLINE
  5
17B
330
1F
100
AcDbEntity
  8
0
  6
Continuous
 62
     7
370
    15
100
AcDbPolyline
 90
       12
 70
   128
 43
0.0
 10
265.2551709408
 20
46.5563784792
 10
265.5108569082
 20
46.3591687308
 10
265.6600587228
 20
46.1282388987
 10
265.6905165958
 20
45.8823970534
 10
265.5997630114
 20
45.6415598391
 10
265.3951502853
 20
45.4252384547
 10
265.0932549236
 20
45.2509579721
 10
264.7185346933
 20
45.1328375595
 10
264.3013471987
 20
45.0804466304
 10
263.8754904896
 20
45.0980295862
 10
263.4754649438
 20
45.1841619604
 10
263.1336782521
 20
45.3318658203
  0
LWPOLYLINE
  5
17C
330
1F
100
AcDbEntity
  8
0
  6
Continuous
 62
     7
370
    15
100
AcDbPolyline
 90
       18
 70
   128
 43
0.0
 10
263.5756199903
 20
45.7503015176
 10
263.393893789
 20
45.9034487629
 10
263.3202720709
 20
46.0841515663
 10
263.3646978572
 20
46.2680050129
 10
263.5211711993
 20
46.430178676
 10
263.7685595051
 20
46.5487701038
 10
264.0734516133
 20
46.6077628668
 10
264.3946701551
 20
46.5991896654
 10
264.6888327865
 20
46.5242083581
 10
264.9162112142
 20
46.3929455858
 10
265.0460967214
 20
46.2231291133
 10
265.0609475509
 20
46.0376935963
 10
264.9587580157
 20
45.8616831287
 10
264.7533293788
 20
45.7188688996
 10
264.472405916
 20
45.628538762
 10
264.1539278976
 20
45.6028923014
 10
263.8409075446
 20
45.6453932146
 10
263.5756199903
 20
45.7503015176
  0
SPLINE
  5
17D
330
1F
100
AcDbEntity
  8
0
  6
Continuous
 62
     7
370
    15
100
AcDbSpline
210
0.0
220
0.0
230
1.0
 70
     8
 71
     3
 72
     9
 73
     5
 74
     0
 42
0.000000001
 43
0.00000001
 40
0.0
 40
0.0
 40
0.0
 40
0.0
 40
0.6311775999676632
 40
1.0
 40
1.0
 40
1.0
 40
1.0
 10
263.6640925970794
 20
45.70152097649396
 30
0.0
 10
263.5966086750032
 20
45.74798844208185
 30
0.0
 10
263.489691189212
 20
45.82160871249428
 30
0.0
 10
263.393353586127
 20
45.93056932653403
 30
0.0
 10
263.3578221201439
 20
45.97075644171318
 30
0.0
  0
SPLINE
  5
17E
330
1F
100
AcDbEntity
  8
0
  6
Continuous
 62
     7
370
    15
100
AcDbSpline
210
0.0
220
0.0
230
1.0
 70
     8
 71
     3
 72
    11
 73
     7
 74
     0
 42
0.000000001
 43
0.00000001
 40
0.0
 40
0.0
 40
0.0
 40
0.0
 40
0.2164499953511904
 40
0.4402998152333154
 40
0.7518914760010383
 40
0.9999999999999999
 40
0.9999999999999999
 40
0.9999999999999999
 40
0.9999999999999999
 10
265.0308547276195
 20
46.22954744323312
 30
0.0
 10
265.0155010446916
 20
46.17428800139667
 30
0.0
 10
264.9842687790343
 20
46.06187995079351
 30
0.0
 10
264.9263093679119
 20
45.89939930968531
 30
0.0
 10
264.8641359950664
 20
45.78812096857221
 30
0.0
 10
264.8243482846906
 20
45.75937819455871
 30
0.0
 10
264.8067108595775
 20
45.74663686012607
 30
0.0
  0
SPLINE
  5
17F
330
1F
100
AcDbEntity
  8
0
  6
Continuous
 62
     7
370
    15
100
AcDbSpline
210
0.0
220
0.0
230
1.0
 70
     8
 71
     3
 72
    13
 73
     9
 74
     0
 42
0.000000001
 43
0.00000001
 40
0.0
 40
0.0
 40
0.0
 40
0.0
 40
0.183852927321383
 40
0.3480769280718286
 40
0.5173798705048392
 40
0.6890065088068209
 40
0.8667059866786584
 40
1.0
 40
1.0
 40
1.0
 40
1.0
 10
264.4184822919237
 20
46.5830625255802
 30
0.0
 10
264.4540638620331
 20
46.54345083075367
 30
0.0
 10
264.5214281613133
 20
46.46845655542815
 30
0.0
 10
264.6284248988897
 20
46.37340066741351
 30
0.0
 10
264.7363787719864
 20
46.3004628907385
 30
0.0
 10
264.8466945895018
 20
46.25319596383778
 30
0.0
 10
264.9452459892283
 20
46.23220766761811
 30
0.0
 10
265.0051706104666
 20
46.23034555702432
 30
0.0
 10
265.0308547276195
 20
46.22954744323312
 30
0.0
  0
SPLINE
  5
180
330
1F
100
AcDbEntity
  8
0
  6
Continuous
 62
     7
370
    15
100
AcDbSpline
210
0.0
220
0.0
230
1.0
 70
     8
 71
     3
 72
    11
 73
     7
 74
     0
 42
0.000000001
 43
0.00000001
 40
0.0
 40
0.0
 40
0.0
 40
0.0
 40
0.2164499953511921
 40
0.4402998152333188
 40
0.751891476001041
 40
0.9999999999999999
 40
0.9999999999999999
 40
0.9999999999999999
 40
0.9999999999999999
 10
263.5819659881859
 20
46.45366702482023
 30
0.0
 10
263.6392667129563
 20
46.44035007977693
 30
0.0
 10
263.7558271152249
 20
46.41326092030374
 30
0.0
 10
263.9721345823103
 20
46.40911117781692
 30
0.0
 10
264.2041687686478
 20
46.46767524542287
 30
0.0
 10
264.3526585252869
 20
46.54762273957959
 30
0.0
 10
264.4184822919237
 20
46.5830625255802
 30
0.0
  0
SPLINE
  5
181
330
1F
100
AcDbEntity
  8
0
  6
Continuous
 62
     7
370
    15
100
AcDbSpline
210
0.0
220
0.0
230
1.0
 70
     8
 71
     3
 72
    10
 73
     6
 74
     0
 42
0.000000001
 43
0.00000001
 40
0.0
 40
0.0
 40
0.0
 40
0.0
 40
0.4391165375904059
 40
0.75136694290734
 40
1.0
 40
1.0
 40
1.0
 40
1.0
 10
263.3578221201439
 20
45.97075644171318
 30
0.0
 10
263.3899100428276
 20
45.9979453423352
 30
0.0
 10
263.4448152953227
 20
46.04446793803037
 30
0.0
 10
263.5246297771988
 20
46.24832640259373
 30
0.0
 10
263.5643558751414
 20
46.39059917454229
 30
0.0
 10
263.5819659881859
 20
46.45366702482023
 30
0.0
  0
LINE
  5
182
330
1F
100
AcDbEntity
  8
0
  6
Continuous
 62
     7
370
    15
100
AcDbLine
 10
263.5819659882
 20
45.7466752465
 30
0.0
 11
263.5819659882
 21
46.4536670248
 31
0.0
  0
LINE
  5
183
330
1F
100
AcDbEntity
  8
0
  6
Continuous
 62
     7
370
    15
100
AcDbLine
 10
264.4184822919
 20
45.6192077696
 30
0.0
 11
264.4184822919
 21
46.5830625256
 31
0.0
  0
ARC
  5
184
330
1F
100
AcDbEntity
  8
0
  6
Continuous
 62
     7
370
    15
100
AcDbCircle
 10
262.7627163896
 20
53.8344149599
 30
0.0
 40
5.352795607848545
100
AcDbArc
 50
43.8129644303
 51
76.3148922377
  0
ARC
  5
185
330
1F
100
AcDbEntity
  8
0
  6
Continuous
 62
     7
370
    15
100
AcDbCircle
 10
252.3560995618
 20
35.8078270994
 30
0.0
 40
5.330630905681446
100
AcDbArc
 50
224.0847977285
 51
255.6655798494
  0
ARC
  5
186
330
1F
100
AcDbEntity
  8
0
  6
Continuous
 62
     7
370
    15
100
AcDbCircle
 10
251.9258825427
 20
37.8440349259
 30
0.0
 40
6.890847990550618
100
AcDbArc
 50
188.312493873
 51
236.7139908619
  0
SPLINE
  5
187
330
1F
100
AcDbEntity
  8
0
  6
Continuous
 62
     7
370
    15
100
AcDbSpline
210
0.0
220
0.0
230
1.0
 70
     8
 71
     3
 72
    29
 73
    25
 74
     0
 42
0.000000001
 43
0.00000001
 40
0.0
 40
0.0
 40
0.0
 40
0.0
 40
0.0226170105016674
 40
0.0451713142211041
 40
0.0676870228449807
 40
0.090188372120831
 40
0.1126996441629423
 40
0.1352450890127045
 40
0.1578488467149011
 40
0.1805348711521328
 40
0.2033268568146046
 40
0.2262481695760157
 40
0.2493217824052029
 40
0.3751991801868492
 40
0.499961424646005
 40
0.4999717960761217
 40
0.6247044141102638
 40
0.7509557879397657
 40
0.7931713871186022
 40
0.8349081045046313
 40
0.8763104515914815
 40
0.9175264576320521
 40
0.9587061619408423
 40
1.0
 40
1.0
 40
1.0
 40
1.0
 10
245.1075891653296
 20
42.0020647822801
 30
0.0
 10
245.1259543904518
 20
41.95322489248166
 30
0.0
 10
245.1626339221995
 20
41.85568052389914
 30
0.0
 10
245.2143237508625
 20
41.70821791450162
 30
0.0
 10
245.2635051106837
 20
41.56028062498433
 30
0.0
 10
245.3099947805817
 20
41.41178875975537
 30
0.0
 10
245.3539048770402
 20
41.26279679362419
 30
0.0
 10
245.3952700684956
 20
41.11332500504601
 30
0.0
 10
245.4341473552008
 20
40.96340490173608
 30
0.0
 10
245.4705892002243
 20
40.81306609175245
 30
0.0
 10
245.5046511813129
 20
40.66234364012386
 30
0.0
 10
245.5363882344125
 20
40.51126194338363
 30
0.0
 10
245.609546506287
 20
40.13554073643211
 30
0.0
 10
245.6952230463263
 20
39.54677031471564
 30
0.0
 10
245.7209554081432
 20
39.04528671070922
 30
0.0
 10
245.7213925643783
 20
38.57483388546549
 30
0.0
 10
245.6959615076588
 20
38.12839135557785
 30
0.0
 10
245.6039941916208
 20
37.6923646840881
 30
0.0
 10
245.5114402975756
 20
37.42417180146553
 30
0.0
 10
245.4478576736869
 20
37.27792069063105
 30
0.0
 10
245.3762121696512
 20
37.14700035878518
 30
0.0
 10
245.2959573953386
 20
37.03155402633458
 30
0.0
 10
245.2075557357446
 20
36.93003202188962
 30
0.0
 10
245.1411990818328
 20
36.87503314492705
 30
0.0
 10
245.1079748399473
 20
36.84749565043463
 30
0.0
  0
LWPOLYLINE
  5
188
330
1F
100
AcDbEntity
  8
0
  6
Continuous
 62
     7
370
    15
100
AcDbPolyline
 90
       27
 70
   128
 43
0.0
 10
245.1073704242
 20
42.0021910589
 10
245.3380084387
 20
43.2026873953
 10
245.6467945361
 20
44.42163177
 10
246.0314693417
 20
45.6501052196
 10
246.4892182067
 20
46.879119057
 10
247.0166918024
 20
48.099680641
 10
247.6100306272
 20
49.3028591752
 10
248.2648932466
 20
50.4798510542
 10
248.9764880591
 20
51.6220442793
 10
249.7396083561
 20
52.721081472
 10
250.5486704195
 20
53.7689210245
 10
251.3977543771
 20
54.7578959403
 10
252.2806475181
 20
55.6807699324
 10
253.1908897516
 20
56.5307903717
 10
254.1218208745
 20
57.3017376955
 10
255.0666293041
 20
57.9879709154
 10
256.0184019177
 20
58.5844688926
 10
256.9701746363
 20
59.0868670771
 10
257.91498338
 20
59.4914894432
 10
258.845915024
 20
59.7953753865
 10
259.7561579818
 20
59.9963013866
 10
260.6390520448
 20
60.0927972767
 10
261.4881371154
 20
60.0841570005
 10
262.2972004748
 20
59.9704437785
 10
263.0603222412
 20
59.7524896455
 10
263.7719186858
 20
59.4318893625
 10
263.8927762859
 20
59.3642289712
  0
LWPOLYLINE
  5
189
330
1F
100
AcDbEntity
  8
0
  6
Continuous
 62
     7
370
    15
100
AcDbPolyline
 90
       47
 70
   128
 43
0.0
 10
262.4088938014
 20
37.0139053457
 10
262.4493978903
 20
37.7210794597
 10
262.5701556425
 20
38.4618452836
 10
262.7689175696
 20
39.2224037517
 10
263.0419811128
 20
39.9885870988
 10
263.3842596152
 20
40.7461227788
 10
263.7893770757
 20
41.4808993353
 10
264.2497869227
 20
42.1792292712
 10
264.7569125917
 20
42.8281040213
 10
265.3013072911
 20
43.4154362765
 10
265.8728299777
 20
43.9302851483
 10
266.4608342652
 20
44.3630599763
 10
267.0543667462
 20
44.7056989843
 10
267.6423710337
 20
44.951819456
 10
268.2138937203
 20
45.0968366324
 10
268.7582884197
 20
45.1380491182
 10
269.2654140887
 20
45.0746892026
 10
269.7258239356
 20
44.9079371609
 10
270.1309413962
 20
44.6408992683
 10
270.4732198985
 20
44.2785499353
 10
270.7462834418
 20
43.8276390446
 10
270.9450453689
 20
43.2965662127
 10
271.0658031211
 20
42.6952243218
 10
271.10630721
 20
42.0348152334
 10
271.0658031211
 20
41.3276411195
 10
270.9450453689
 20
40.5868752956
 10
270.7462834418
 20
39.8263168275
 10
270.4732198985
 20
39.0601334804
 10
270.1309413962
 20
38.3025978004
 10
269.7258239356
 20
37.5678212439
 10
269.2654140887
 20
36.869491308
 10
268.7582884197
 20
36.2206165579
 10
268.2138937203
 20
35.6332843027
 10
267.6423710337
 20
35.1184354309
 10
267.0543667462
 20
34.6856606029
 10
266.4608342652
 20
34.3430215948
 10
265.8728299777
 20
34.0969011232
 10
265.3013072911
 20
33.9518839467
 10
264.7569125917
 20
33.910671461
 10
264.2497869227
 20
33.9740313766
 10
263.7893770757
 20
34.1407834182
 10
263.3842596152
 20
34.4078213109
 10
263.0419811128
 20
34.7701706438
 10
262.7689175696
 20
35.2210815346
 10
262.5701556425
 20
35.7521543665
 10
262.4493978903
 20
36.3534962574
 10
262.4088938014
 20
37.0139053457
  0
LWPOLYLINE
  5
18A
330
1F
100
AcDbEntity
  8
0
  6
Continuous
 62
     7
370
    15
100
AcDbPolyline
 90
       25
 70
   128
 43
0.0
 10
262.2674724451
 20
37.0139053457
 10
262.3086351371
 20
37.7325782258
 10
262.43135643
 20
38.4853890224
 10
262.6333502583
 20
39.2583142949
 10
262.9108538592
 20
40.0369559078
 10
263.2586978657
 20
40.8068092411
 10
263.670402602
 20
41.5535333839
 10
264.1382987879
 20
42.2632182781
 10
264.6536704028
 20
42.9226438371
 10
265.2069170485
 20
43.5195262103
 10
265.7877327869
 20
44.0427466085
 10
266.3852981197
 20
44.4825584256
 10
266.9884815354
 20
44.8307687996
 10
267.5860468682
 20
45.0808912301
 10
268.1668626066
 20
45.2282664095
 10
268.7201092524
 20
45.2701490169
 10
269.2354808672
 20
45.2057588588
 10
269.7033770531
 20
45.0362954018
 10
270.1150817894
 20
44.7649154296
 10
270.4629257959
 20
44.3966742376
 10
270.7404293968
 20
43.9384314624
 10
270.9424232251
 20
43.3987233
 10
271.065144518
 20
42.7876034921
 10
271.10630721
 20
42.1164560446
 10
271.10630721
 20
42.1164560446
  0
LWPOLYLINE
  5
18B
330
1F
100
AcDbEntity
  8
0
  6
Continuous
 62
     7
370
    15
100
AcDbPolyline
 90
       13
 70
   128
 43
0.0
 10
266.6876081072
 20
34.4622153423
 10
266.3852981197
 20
34.2995925908
 10
265.7877327869
 20
34.0494701603
 10
265.2069170485
 20
33.9020949809
 10
264.6536704028
 20
33.8602123734
 10
264.1382987879
 20
33.9246025316
 10
263.670402602
 20
34.0940659885
 10
263.2586978657
 20
34.3654459607
 10
262.9108538592
 20
34.7336871527
 10
262.6333502583
 20
35.1919299279
 10
262.43135643
 20
35.7316380904
 10
262.3086351371
 20
36.3427578982
 10
262.2674724451
 20
37.0139053457
  0
SPLINE
  5
18C
330
1F
100
AcDbEntity
  8
0
  6
Continuous
 62
     7
370
    15
100
AcDbSpline
210
0.0
220
0.0
230
1.0
 70
     8
 71
     3
 72
    38
 73
    34
 74
     0
 42
0.000000001
 43
0.00000001
 40
0.0
 40
0.0
 40
0.0
 40
0.0
 40
0.0625
 40
0.0625
 40
0.125
 40
0.125
 40
0.1875000000000001
 40
0.1875000000000001
 40
0.25
 40
0.25
 40
0.3125
 40
0.3125
 40
0.3749999999999999
 40
0.3749999999999999
 40
0.4374999999999999
 40
0.4374999999999999
 40
0.4999999999999999
 40
0.4999999999999999
 40
0.5624999999999999
 40
0.5624999999999999
 40
0.6249999999999999
 40
0.6249999999999999
 40
0.6874999999999999
 40
0.6874999999999999
 40
0.7499999999999999
 40
0.7499999999999999
 40
0.8125
 40
0.8125
 40
0.875
 40
0.875
 40
0.9375
 40
0.9375
 40
1.0
 40
1.0
 40
1.0
 40
1.0
 10
265.5201636386065
 20
45.34209746171956
 30
0.0
 10
265.4385107692059
 20
45.29496026355808
 30
0.0
 10
265.3466336737987
 20
45.25067195892361
 30
0.0
 10
265.1473984930614
 20
45.1705903122412
 30
0.0
 10
265.0423727700252
 20
45.13560114975785
 30
0.0
 10
264.8222335365254
 20
45.07578022968785
 30
0.0
 10
264.7078985509322
 20
45.05132169624714
 30
0.0
 10
264.4791488038661
 20
45.01508048377974
 30
0.0
 10
264.3624624471509
 20
45.00295252710312
 30
0.0
 10
264.1329280834568
 20
44.99203573360669
 30
0.0
 10
264.0201463059076
 20
44.99309734155986
 30
0.0
 10
263.79814972856
 20
45.00874294884019
 30
0.0
 10
263.6890721697186
 20
45.02349129651126
 30
0.0
 10
263.4819648548894
 20
45.06613565333572
 30
0.0
 10
263.3828855051043
 20
45.09407301063642
 30
0.0
 10
263.1936526892243
 20
45.16391618489303
 30
0.0
 10
263.1047450359142
 20
45.20549702631138
 30
0.0
 10
262.941888022443
 20
45.29991285323398
 30
0.0
 10
262.867274759577
 20
45.35298270027016
 30
0.0
 10
262.7322109054297
 20
45.47105949276315
 30
0.0
 10
262.6730337291546
 20
45.53508363622486
 30
0.0
 10
262.5731072524017
 20
45.67016927350187
 30
0.0
 10
262.5319790202252
 20
45.74154610026292
 30
0.0
 10
262.4687404327037
 20
45.89155708967009
 30
0.0
 10
262.447426958076
 20
45.96854103673419
 30
0.0
 10
262.4263520362049
 20
46.12319059751368
 30
0.0
 10
262.4264129000095
 20
46.20120321037061
 30
0.0
 10
262.4506324700641
 20
46.3575143486269
 30
0.0
 10
262.4744275452891
 20
46.4330124643907
 30
0.0
 10
262.5458673241654
 20
46.57654108514539
 30
0.0
 10
262.5943070545785
 20
46.64552244834397
 30
0.0
 10
262.7153028329422
 20
46.77048139411013
 30
0.0
 10
262.7864961317489
 20
46.8255152204183
 30
0.0
 10
262.868513209157
 20
46.87286267138715
 30
0.0
  0
SPLINE
  5
18D
330
1F
100
AcDbEntity
  8
0
  6
Continuous
 62
     7
370
    15
100
AcDbSpline
210
0.0
220
0.0
230
1.0
 70
     8
 71
     3
 72
    34
 73
    30
 74
     0
 42
0.000000001
 43
0.00000001
 40
0.0
 40
0.0
 40
0.0
 40
0.0
 40
0.0624999999999994
 40
0.0624999999999994
 40
0.1249999999999989
 40
0.1249999999999989
 40
0.2499999999999978
 40
0.2499999999999978
 40
0.3749999999999967
 40
0.3749999999999967
 40
0.4374999999999969
 40
0.4374999999999969
 40
0.4999999999999972
 40
0.4999999999999972
 40
0.5624999999999976
 40
0.5624999999999976
 40
0.6249999999999979
 40
0.6249999999999979
 40
0.6874999999999982
 40
0.6874999999999982
 40
0.7499999999999986
 40
0.7499999999999986
 40
0.8124999999999989
 40
0.8124999999999989
 40
0.8749999999999992
 40
0.8749999999999992
 40
0.9374999999999996
 40
0.9374999999999996
 40
1.0
 40
1.0
 40
1.0
 40
1.0
 10
262.868513209157
 20
46.87286267138715
 30
0.0
 10
262.9505563576804
 20
46.92022517289055
 30
0.0
 10
263.0438933904201
 20
46.9596115159767
 30
0.0
 10
263.2417809078195
 20
47.01868668310821
 30
0.0
 10
263.34885286688
 20
47.03926219191274
 30
0.0
 10
263.679625748029
 20
47.07407151587626
 30
0.0
 10
263.9140473549696
 20
47.06216166436702
 30
0.0
 10
264.3764914463926
 20
46.98863732741709
 30
0.0
 10
264.596779184552
 20
46.92938924449158
 30
0.0
 10
264.9104344765807
 20
46.8173224155079
 30
0.0
 10
265.0093202522621
 20
46.77695810247317
 30
0.0
 10
265.1964322129108
 20
46.69119554629619
 30
0.0
 10
265.2851285576843
 20
46.64551459921807
 30
0.0
 10
265.4492702048062
 20
46.55035666729565
 30
0.0
 10
265.523516370388
 20
46.50164494658708
 30
0.0
 10
265.656758405661
 20
46.40176718200846
 30
0.0
 10
265.7161169955124
 20
46.35022194130966
 30
0.0
 10
265.8167409714691
 20
46.2455280402119
 30
0.0
 10
265.857485154001
 20
46.19307587189088
 30
0.0
 10
265.9197380855484
 20
46.08685825305996
 30
0.0
 10
265.9413473162658
 20
46.03259118142121
 30
0.0
 10
265.9624619480254
 20
45.92359444922462
 30
0.0
 10
265.9620531810753
 20
45.86953188948333
 30
0.0
 10
265.9382696960915
 20
45.76087955309045
 30
0.0
 10
265.9143443085079
 20
45.70551720288455
 30
0.0
 10
265.8422051766776
 20
45.59700777949303
 30
0.0
 10
265.7945848125042
 20
45.54413428258404
 30
0.0
 10
265.674890759713
 20
45.44041016821342
 30
0.0
 10
265.6018424633501
 20
45.38924964358164
 30
0.0
 10
265.5201636386065
 20
45.34209746171956
 30
0.0
  0
LWPOLYLINE
  5
18E
330
1F
100
AcDbEntity
  8
0
  6
Continuous
 62
     7
370
    15
100
AcDbPolyline
 90
       43
 70
   128
 43
0.0
 10
263.1336782521
 20
37.432314503
 10
263.1741544695
 20
38.0793887778
 10
263.2946789499
 20
38.7587413283
 10
263.4925593755
 20
39.4551965413
 10
263.7633754247
 20
40.1531967581
 10
264.1010775143
 20
40.8371498074
 10
264.4981219378
 20
41.4917773081
 10
264.9456393789
 20
42.1024559637
 10
265.4336330373
 20
42.6555442221
 10
265.9512019412
 20
43.1386870056
 10
266.4867844565
 20
43.5410917028
 10
267.0284165548
 20
43.8537692576
 10
267.5639990701
 20
44.0697349702
 10
268.081567974
 20
44.1841645235
 10
268.5695616325
 20
44.1945017503
 10
269.0170790735
 20
44.100515734
 10
269.414123497
 20
43.9043059669
 10
269.7518255867
 20
43.6102554511
 10
270.0226416359
 20
43.2249327891
 10
270.2205220615
 20
42.7569454525
 10
270.3410465419
 20
42.216747505
 10
270.3815227593
 20
41.6164060761
 10
270.3410465419
 20
40.9693318014
 10
270.2205220615
 20
40.2899792509
 10
270.0226416359
 20
39.5935240379
 10
269.7518255867
 20
38.8955238211
 10
269.414123497
 20
38.2115707718
 10
269.0170790735
 20
37.5569432711
 10
268.5695616325
 20
36.9462646155
 10
268.081567974
 20
36.3931763571
 10
267.5639990701
 20
35.9100335736
 10
267.0284165548
 20
35.5076288764
 10
266.4867844565
 20
35.1949513216
 10
265.9512019412
 20
34.978985609
 10
265.4336330373
 20
34.8645560557
 10
264.9456393789
 20
34.8542188289
 10
264.4981219378
 20
34.9482048452
 10
264.1010775143
 20
35.1444146123
 10
263.7633754247
 20
35.4384651281
 10
263.4925593755
 20
35.8237877901
 10
263.2946789499
 20
36.2917751267
 10
263.1741544695
 20
36.8319730742
 10
263.1336782521
 20
37.432314503
  0
SPLINE
  5
18F
330
1F
100
AcDbEntity
  8
0
  6
Continuous
 62
     7
370
    15
100
AcDbSpline
210
0.0
220
0.0
230
1.0
 70
     8
 71
     3
 72
     8
 73
     4
 74
     0
 42
0.000000001
 43
0.00000001
 40
0.0
 40
0.0
 40
0.0
 40
0.0
 40
1.0
 40
1.0
 40
1.0
 40
1.0
 10
244.3294340271546
 20
45.28096818578445
 30
0.0
 10
243.6363627921018
 20
45.16510656740974
 30
0.0
 10
242.9427420257055
 20
45.05034787425667
 30
0.0
 10
242.2487628648781
 20
44.93633632661852
 30
0.0
  0
SPLINE
  5
190
330
1F
100
AcDbEntity
  8
0
  6
Continuous
 62
     7
370
    15
100
AcDbSpline
210
0.0
220
0.0
230
1.0
 70
     8
 71
     3
 72
     8
 73
     4
 74
     0
 42
0.000000001
 43
0.00000001
 40
0.0
 40
0.0
 40
0.0
 40
0.0
 40
0.0012389803509652
 40
0.0012389803509652
 40
0.0012389803509652
 40
0.0012389803509652
 10
241.7750264507326
 20
45.20987044737252
 30
0.0
 10
241.9330997857136
 20
45.11859936692201
 30
0.0
 10
242.0910179646796
 20
45.02741783982177
 30
0.0
 10
242.2487628648781
 20
44.93633632661852
 30
0.0
  0
LWPOLYLINE
  5
191
330
1F
100
AcDbEntity
  8
0
  6
Continuous
 62
     7
370
    15
100
AcDbPolyline
 90
       28
 70
   128
 43
0.0
 10
241.7750264507
 20
45.2098704474
 10
242.0818419284
 20
46.4312708345
 10
242.4650008506
 20
47.6625523189
 10
242.9216860498
 20
48.894661931
 10
243.4485397582
 20
50.1185406121
 10
244.0416882956
 20
51.3251898213
 10
244.6967705505
 20
52.5057376971
 10
245.4089700452
 20
53.6515042873
 10
246.1730503487
 20
54.7540653686
 10
246.9833935775
 20
55.8053143851
 10
247.8340417009
 20
56.7975220515
 10
248.7187403476
 20
57.7233931832
 10
249.6309847902
 20
58.5761203331
 10
250.5640677719
 20
59.3494338437
 10
251.5111288206
 20
60.0376479446
 10
252.4652046909
 20
60.6357025569
 10
253.4192805613
 20
61.1392004973
 10
254.36634161
 20
61.5444398084
 10
255.2994245917
 20
61.8484409771
 10
256.2116690343
 20
62.0489688416
 10
257.096367681
 20
62.1445490252
 10
257.9470158044
 20
62.1344787766
 10
258.7573590332
 20
62.0188321373
 10
259.5214393367
 20
61.7984593965
 10
260.2336388314
 20
61.4749808399
 10
260.8887210863
 20
61.0507748365
 10
261.4818696237
 20
60.5289603515
 10
261.913201709
 20
60.038251311
  0
LINE
  5
192
330
1F
100
AcDbEntity
  8
0
  6
Continuous
 62
     7
370
    15
100
AcDbLine
 10
238.7433061264
 20
46.9600453371
 30
0.0
 11
241.7750264507
 21
45.2098704474
 31
0.0
  0
ARC
  5
193
330
1F
100
AcDbEntity
  8
0
  6
Continuous
 62
     7
370
    15
100
AcDbCircle
 10
254.6352334089
 20
58.5258511059
 30
0.0
 40
5.354473885142465
100
AcDbArc
 50
60.0571416303
 51
75.7908232695
  0
ARC
  5
194
330
1F
100
AcDbEntity
  8
0
  6
Continuous
 62
     7
370
    15
100
AcDbCircle
 10
267.6041062542
 20
37.9211234843
 30
0.0
 40
4.342146830487485
100
AcDbArc
 50
152.8222804837
 51
207.1777195163
  0
SPLINE
  5
195
330
1F
100
AcDbEntity
  8
0
  6
Continuous
 62
     7
370
    15
100
AcDbSpline
210
0.0
220
0.0
230
1.0
 70
     8
 71
     3
 72
    22
 73
    18
 74
     0
 42
0.000000001
 43
0.00000001
 40
0.0
 40
0.0
 40
0.0
 40
0.0
 40
0.1250000000000001
 40
0.1250000000000001
 40
0.2500000000000003
 40
0.2500000000000003
 40
0.3750000000000004
 40
0.3750000000000004
 40
0.5000000000000006
 40
0.5000000000000006
 40
0.6250000000000007
 40
0.6250000000000007
 40
0.7500000000000004
 40
0.7500000000000004
 40
0.8750000000000003
 40
0.8750000000000003
 40
1.0
 40
1.0
 40
1.0
 40
1.0
 10
264.6899505913001
 20
35.30877122448699
 30
0.0
 10
264.6429129175162
 20
35.26154305454094
 30
0.0
 10
264.594432152335
 20
35.22330313634065
 30
0.0
 10
264.4949755681696
 20
35.16469711134322
 30
0.0
 10
264.4433748349323
 20
35.14429721382746
 30
0.0
 10
264.341935505214
 20
35.12400334498854
 30
0.0
 10
264.291903383997
 20
35.12373077089448
 30
0.0
 10
264.1934542949971
 20
35.1435142351805
 30
0.0
 10
264.1455634948652
 20
35.1637361857369
 30
0.0
 10
264.0561794905245
 20
35.22295557157336
 30
0.0
 10
264.0136943582573
 20
35.26259614638115
 30
0.0
 10
263.9363411188061
 20
35.35933733502185
 30
0.0
 10
263.9017857335131
 20
35.41571653970897
 30
0.0
 10
263.8405271873688
 20
35.54411721869022
 30
0.0
 10
263.8139884772492
 20
35.61630142207269
 30
0.0
 10
263.7708817855629
 20
35.76936461935315
 30
0.0
 10
263.7539065097457
 20
35.85101182034972
 30
0.0
 10
263.7413582404548
 20
35.93783911741714
 30
0.0
  0
SPLINE
  5
196
330
1F
100
AcDbEntity
  8
0
  6
Continuous
 62
     7
370
    15
100
AcDbSpline
210
0.0
220
0.0
230
1.0
 70
     8
 71
     3
 72
     8
 73
     4
 74
     0
 42
0.000000001
 43
0.00000001
 40
0.0
 40
0.0
 40
0.0
 40
0.0
 40
1.0
 40
1.0
 40
1.0
 40
1.0
 10
264.7905951314167
 20
35.40842843652145
 30
0.0
 10
264.7566775807188
 20
35.37531630889553
 30
0.0
 10
264.7231393225421
 20
35.34209436556304
 30
0.0
 10
264.6899505913001
 20
35.30877122448699
 30
0.0
  0
LWPOLYLINE
  5
197
330
1F
100
AcDbEntity
  8
0
  6
Continuous
 62
     7
370
    15
100
AcDbPolyline
 90
        9
 70
   128
 43
0.0
 10
268.4064078284
 20
37.4957926757
 10
267.9891116978
 20
36.985137466
 10
267.5423026641
 20
36.5303213948
 10
267.0754633499
 20
36.1409970178
 10
266.5985014799
 20
35.8254269612
 10
266.12153961
 20
35.5903085644
 10
265.6547002957
 20
35.4406317422
 10
265.207891262
 20
35.3795730839
 10
264.7905951314
 20
35.4084284365
  0
SPLINE
  5
198
330
1F
100
AcDbEntity
  8
0
  6
Continuous
 62
     7
370
    15
100
AcDbSpline
210
0.0
220
0.0
230
1.0
 70
     8
 71
     3
 72
     8
 73
     4
 74
     0
 42
0.000000001
 43
0.00000001
 40
0.0
 40
0.0
 40
0.0
 40
0.0
 40
1.0
 40
1.0
 40
1.0
 40
1.0
 10
268.5790378878261
 20
37.55389353199944
 30
0.0
 10
268.5213064825134
 20
37.53473150381475
 30
0.0
 10
268.4637579913515
 20
37.5153701507158
 30
0.0
 10
268.4064078284152
 20
37.49579267570162
 30
0.0
  0
SPLINE
  5
199
330
1F
100
AcDbEntity
  8
0
  6
Continuous
 62
     7
370
    15
100
AcDbSpline
210
0.0
220
0.0
230
1.0
 70
     8
 71
     3
 72
    22
 73
    18
 74
     0
 42
0.000000001
 43
0.00000001
 40
0.0
 40
0.0
 40
0.0
 40
0.0
 40
0.125
 40
0.125
 40
0.25
 40
0.25
 40
0.375
 40
0.375
 40
0.5
 40
0.5
 40
0.625
 40
0.625
 40
0.75
 40
0.75
 40
0.875
 40
0.875
 40
1.0
 40
1.0
 40
1.0
 40
1.0
 10
269.5347890231907
 20
39.28231551910872
 30
0.0
 10
269.5565206771539
 20
39.2007875046904
 30
0.0
 10
269.5696920167408
 20
39.11687004101611
 30
0.0
 10
269.5791964339733
 20
38.94413942093102
 30
0.0
 10
269.5752924834158
 20
38.85423241619475
 30
0.0
 10
269.5501574484399
 20
38.67631841574973
 30
0.0
 10
269.5291769019049
 20
38.58797079178783
 30
0.0
 10
269.4699874543547
 20
38.41246302194385
 30
0.0
 10
269.4318806224373
 20
38.32627571353599
 30
0.0
 10
269.341838313928
 20
38.16347285041374
 30
0.0
 10
269.2889056473146
 20
38.08505491231727
 30
0.0
 10
269.1709859203468
 20
37.94033978482209
 30
0.0
 10
269.1067177063301
 20
37.87458827303998
 30
0.0
 10
268.9677090747033
 20
37.75604473338888
 30
0.0
 10
268.8929440062132
 20
37.70357633756813
 30
0.0
 10
268.7399362776816
 20
37.61646869425729
 30
0.0
 10
268.6608465032655
 20
37.58104719275493
 30
0.0
 10
268.5790378878261
 20
37.55389353199944
 30
0.0
  0
ARC
  5
19A
330
1F
100
AcDbEntity
  8
0
  6
Continuous
 62
     7
370
    15
100
AcDbCircle
 10
265.6720410095
 20
41.265599886
 30
0.0
 40
4.342146830487434
100
AcDbArc
 50
332.8222804837
 51
27.1777195163
  0
SPLINE
  5
19B
330
1F
100
AcDbEntity
  8
0
  6
Continuous
 62
     7
370
    15
100
AcDbSpline
210
0.0
220
0.0
230
1.0
 70
     8
 71
     3
 72
    22
 73
    18
 74
     0
 42
0.000000001
 43
0.00000001
 40
0.0
 40
0.0
 40
0.0
 40
0.0
 40
0.1249999999999999
 40
0.1249999999999999
 40
0.2499999999999998
 40
0.2499999999999998
 40
0.3749999999999998
 40
0.3749999999999998
 40
0.4999999999999997
 40
0.4999999999999997
 40
0.6249999999999996
 40
0.6249999999999996
 40
0.7499999999999997
 40
0.7499999999999997
 40
0.8749999999999999
 40
0.8749999999999999
 40
1.0
 40
1.0
 40
1.0
 40
1.0
 10
268.5790378878261
 20
43.882084824114
 30
0.0
 10
268.6608483420542
 20
43.90923909519452
 30
0.0
 10
268.7400071195239
 20
43.92976897386945
 30
0.0
 10
268.8932609063971
 20
43.95731853479908
 30
0.0
 10
268.9681656396141
 20
43.96426531948413
 30
0.0
 10
269.1068426520913
 20
43.9630623316398
 30
0.0
 10
269.1710296129793
 20
43.95516349072526
 30
0.0
 10
269.288902197398
 20
43.92416708120815
 30
0.0
 10
269.3418468246975
 20
43.901027618329
 30
0.0
 10
269.4318843007491
 20
43.84143099130364
 30
0.0
 10
269.4699821462683
 20
43.8043231432248
 30
0.0
 10
269.529193097505
 20
43.71805527463941
 30
0.0
 10
269.5502019950207
 20
43.66949629088808
 30
0.0
 10
269.57534445199
 20
43.56194498639615
 30
0.0
 10
269.5791911881236
 20
43.50286058075882
 30
0.0
 10
269.5696747161102
 20
43.38017608925323
 30
0.0
 10
269.5565201752956
 20
43.31592246116553
 30
0.0
 10
269.5347890231907
 20
43.24888425284738
 30
0.0
  0
SPLINE
  5
19C
330
1F
100
AcDbEntity
  8
0
  6
Continuous
 62
     7
370
    15
100
AcDbSpline
210
0.0
220
0.0
230
1.0
 70
     8
 71
     3
 72
     8
 73
     4
 74
     0
 42
0.000000001
 43
0.00000001
 40
0.0
 40
0.0
 40
0.0
 40
0.0
 40
1.0
 40
1.0
 40
1.0
 40
1.0
 10
268.4064078284152
 20
43.82398396781618
 30
0.0
 10
268.4637659306799
 20
43.84356415305813
 30
0.0
 10
268.5213142599392
 20
43.86292537738829
 30
0.0
 10
268.5790378878261
 20
43.882084824114
 30
0.0
  0
LWPOLYLINE
  5
19D
330
1F
100
AcDbEntity
  8
0
  6
Continuous
 62
     7
370
    15
100
AcDbPolyline
 90
        9
 70
   128
 43
0.0
 10
264.7905951314
 20
41.7366197286
 10
265.207891262
 20
42.2472749383
 10
265.6547002957
 20
42.7020910095
 10
266.12153961
 20
43.0914153866
 10
266.5985014799
 20
43.4069854431
 10
267.0754633499
 20
43.6421038399
 10
267.5423026641
 20
43.7917806621
 10
267.9891116978
 20
43.8528393205
 10
268.4064078284
 20
43.8239839678
  0
SPLINE
  5
19E
330
1F
100
AcDbEntity
  8
0
  6
Continuous
 62
     7
370
    15
100
AcDbSpline
210
0.0
220
0.0
230
1.0
 70
     8
 71
     3
 72
     8
 73
     4
 74
     0
 42
0.000000001
 43
0.00000001
 40
0.0
 40
0.0
 40
0.0
 40
0.0
 40
1.0
 40
1.0
 40
1.0
 40
1.0
 10
264.6899505913001
 20
41.63696251660155
 30
0.0
 10
264.7231437942447
 20
41.67029014749001
 30
0.0
 10
264.7566822754796
 20
41.70351218428684
 30
0.0
 10
264.7905951314167
 20
41.73661972863601
 30
0.0
  0
SPLINE
  5
19F
330
1F
100
AcDbEntity
  8
0
  6
Continuous
 62
     7
370
    15
100
AcDbSpline
210
0.0
220
0.0
230
1.0
 70
     8
 71
     3
 72
    22
 73
    18
 74
     0
 42
0.000000001
 43
0.00000001
 40
0.0
 40
0.0
 40
0.0
 40
0.0
 40
0.1250000000000002
 40
0.1250000000000002
 40
0.2500000000000004
 40
0.2500000000000004
 40
0.3750000000000007
 40
0.3750000000000007
 40
0.5000000000000006
 40
0.5000000000000006
 40
0.6250000000000004
 40
0.6250000000000004
 40
0.7500000000000003
 40
0.7500000000000003
 40
0.8750000000000002
 40
0.8750000000000002
 40
1.0
 40
1.0
 40
1.0
 40
1.0
 10
263.7413582404548
 20
39.90440785115581
 30
0.0
 10
263.7539067995349
 20
39.9661463198165
 30
0.0
 10
263.7708920408894
 20
40.03265475987489
 30
0.0
 10
263.8140805120813
 20
40.17496642295819
 30
0.0
 10
263.8406966531926
 20
40.25176195917323
 30
0.0
 10
263.9018512578461
 20
40.40888230464871
 30
0.0
 10
263.9363631584131
 20
40.48941844420013
 30
0.0
 10
264.0136865419458
 20
40.65445771562959
 30
0.0
 10
264.0561835579467
 20
40.73811062471232
 30
0.0
 10
264.1455715280023
 20
40.90129122938342
 30
0.0
 10
264.1934522386161
 20
40.98262559960048
 30
0.0
 10
264.2919390514637
 20
41.13855910962726
 30
0.0
 10
264.3420356236296
 20
41.21249173610988
 30
0.0
 10
264.443700042821
 20
41.35259363071744
 30
0.0
 10
264.4951861445641
 20
41.41850068799134
 30
0.0
 10
264.5944731950718
 20
41.53662061861024
 30
0.0
 10
264.6429139747447
 20
41.58973540816563
 30
0.0
 10
264.6899505913001
 20
41.63696251660155
 30
0.0
  0
LINE
  5
1A0
330
1F
100
AcDbEntity
  8
0
  6
Continuous
 62
     7
370
    15
100
AcDbLine
 10
244.7320294296
 20
45.2198057951
 30
0.0
 11
244.7227067787
 21
45.2251876469
 31
0.0
  0
SPLINE
  5
1A1
330
1F
100
AcDbEntity
  8
0
  6
Continuous
 62
     7
370
    15
100
AcDbSpline
210
0.0
220
0.0
230
1.0
 70
     8
 71
     3
 72
    10
 73
     6
 74
     0
 42
0.000000001
 43
0.00000001
 40
0.0
 40
0.0
 40
0.0
 40
0.0
 40
0.2390813932835389
 40
0.7124568252035701
 40
1.0
 40
1.0
 40
1.0
 40
1.0
 10
245.6471323818826
 20
44.41988271992174
 30
0.0
 10
245.5819547608907
 20
44.50004281501053
 30
0.0
 10
245.387727011552
 20
44.73891797827863
 30
0.0
 10
245.0755847128297
 20
45.00389654734865
 30
0.0
 10
244.8262502954534
 20
45.16059216262514
 30
0.0
 10
244.7320294296136
 20
45.21980579506306
 30
0.0
  0
SPLINE
  5
1A2
330
1F
100
AcDbEntity
  8
0
  6
Continuous
 62
     7
370
    15
100
AcDbSpline
210
0.0
220
0.0
230
1.0
 70
     8
 71
     3
 72
    10
 73
     6
 74
     0
 42
0.000000001
 43
0.00000001
 40
0.0
 40
0.0
 40
0.0
 40
0.0
 40
0.5
 40
0.5
 40
1.0
 40
1.0
 40
1.0
 40
1.0
 10
244.7227067787066
 20
45.22518764687579
 30
0.0
 10
244.6729061798938
 20
45.2539369206249
 30
0.0
 10
244.6078742631498
 20
45.27470026598557
 30
0.0
 10
244.4708159028044
 20
45.29365395537335
 30
0.0
 10
244.3972770627546
 20
45.29230959414555
 30
0.0
 10
244.3294340271546
 20
45.28096818578445
 30
0.0
  0
LWPOLYLINE
  5
1A3
330
1F
100
AcDbEntity
  8
0
  6
Continuous
 62
     7
370
    15
100
AcDbPolyline
 90
       24
 70
   128
 43
0.0
 10
266.9239262946
 20
43.4592369257
 10
267.1808446374
 20
43.4352292881
 10
267.5449036846
 20
43.3101367344
 10
267.8512721938
 20
43.0820622311
 10
268.090103229
 20
42.7583362804
 10
268.2537205641
 20
42.3493637006
 10
268.3368654035
 20
41.8682892072
 10
268.3368654035
 20
41.3305749299
 10
268.2537205641
 20
40.7535034483
 10
268.090103229
 20
40.1556223145
 10
267.8512721938
 20
39.55614792
 10
267.5449036846
 20
38.9743478653
 10
267.1808446374
 20
38.4289216827
 10
266.7707962094
 20
37.9373998185
 10
266.3279376945
 20
37.5155801899
 10
265.8665029298
 20
37.1770204268
 10
265.4013228083
 20
36.9326021185
 10
264.9473486018
 20
36.7901810707
 10
264.5191714149
 20
36.7543348129
 10
264.1305532146
 20
36.8262154734
 10
263.7939845098
 20
37.0035127486
 10
263.5202828954
 20
37.2805281583
 10
263.3182453665
 20
37.6483581991
 10
263.2776483463
 20
37.7594638472
  0
LINE
  5
1A4
330
1F
100
AcDbEntity
  8
0
  6
Continuous
 62
     7
370
    15
100
AcDbLine
 10
263.8054296942
 20
35.8193942694
 30
0.0
 11
265.0484125825
 21
36.5369530172
 31
0.0
  0
LINE
  5
1A5
330
1F
100
AcDbEntity
  8
0
  6
Continuous
 62
     7
370
    15
100
AcDbLine
 10
268.6466887339
 20
43.761573637
 30
0.0
 11
268.6484532558
 21
43.8819918845
 31
0.0
  0
ARC
  5
1A6
330
1F
100
AcDbEntity
  8
0
  6
Continuous
 62
     7
370
    15
100
AcDbCircle
 10
264.7839407201
 20
41.7782892701
 30
0.0
 40
4.342146830487434
100
AcDbArc
 50
332.8222804837
 51
27.1777195163
  0
ARC
  5
1A7
330
1F
100
AcDbEntity
  8
0
  6
Continuous
 62
     7
370
    15
100
AcDbCircle
 10
266.5972192943
 20
39.7954882644
 30
0.0
 40
2.049469496522035
100
AcDbArc
 50
302.3714306933
 51
359.986486965
  0
LINE
  5
1A8
330
1F
100
AcDbEntity
  8
0
  6
Continuous
 62
     7
370
    15
100
AcDbLine
 10
266.4515341025
 20
37.3469578292
 30
0.0
 11
267.6945169908
 21
38.064516577
 31
0.0
  0
ARC
  5
1A9
330
1F
100
AcDbEntity
  8
0
  6
Continuous
 62
     7
370
    15
100
AcDbCircle
 10
263.9236806172
 20
40.1055299928
 30
0.0
 40
3.741625799717218
100
AcDbArc
 50
287.4936320258
 51
312.5009914415
  0
LINE
  5
1AA
330
1F
100
AcDbEntity
  8
0
  6
Continuous
 62
     7
370
    15
100
AcDbLine
 10
268.2162738681
 20
43.7142219689
 30
0.0
 11
268.4064078284
 21
43.8239839678
 31
0.0
  0
ARC
  5
1AB
330
1F
100
AcDbEntity
  8
0
  6
Continuous
 62
     7
370
    15
100
AcDbCircle
 10
268.4247783156
 20
39.6167548033
 30
0.0
 40
4.102768733146458
100
AcDbArc
 50
92.9130506693
 51
147.081572798
  0
LINE
  5
1AC
330
1F
100
AcDbEntity
  8
0
  6
Continuous
 62
     7
370
    15
100
AcDbLine
 10
264.7905951314
 20
41.7366197286
 30
0.0
 11
264.9807290917
 21
41.8463817276
 31
0.0
  0
SPLINE
  5
1AD
330
1F
100
AcDbEntity
  8
0
  6
Continuous
 62
     7
370
    15
100
AcDbSpline
210
0.0
220
0.0
230
1.0
 70
     8
 71
     3
 72
     9
 73
     5
 74
     0
 42
0.000000001
 43
0.00000001
 40
0.0
 40
0.0
 40
0.0
 40
0.0
 40
0.2251343464365343
 40
1.0
 40
1.0
 40
1.0
 40
1.0
 10
267.2264632720097
 20
43.62597453399678
 30
0.0
 10
267.2987325972584
 20
43.63844877787314
 30
0.0
 10
267.6197379275981
 20
43.69385677791311
 30
0.0
 10
267.9558399527363
 20
43.70533099339936
 30
0.0
 10
268.2162738681091
 20
43.71422196888125
 30
0.0
  0
SPLINE
  5
1AE
330
1F
100
AcDbEntity
  8
0
  6
Continuous
 62
     7
370
    15
100
AcDbSpline
210
0.0
220
0.0
230
1.0
 70
     8
 71
     3
 72
     8
 73
     4
 74
     0
 42
0.000000001
 43
0.00000001
 40
0.0
 40
0.0
 40
0.0
 40
0.0
 40
1.0
 40
1.0
 40
1.0
 40
1.0
 10
238.5864815188342
 20
47.05056701628131
 30
0.0
 10
238.6088603153536
 20
47.03765506482947
 30
0.0
 10
238.6630477463709
 20
47.00637751367244
 30
0.0
 10
238.7433061263953
 20
46.96004533709245
 30
0.0
  0
LINE
  5
1AF
330
1F
100
AcDbEntity
  8
0
  6
Continuous
 62
     7
370
    15
100
AcDbLine
 10
238.5864815188
 20
47.0505670163
 30
0.0
 11
238.6100365856
 21
47.1996711642
 31
0.0
  0
LWPOLYLINE
  5
1B0
330
1F
100
AcDbEntity
  8
0
  6
Continuous
 62
     7
370
    15
100
AcDbPolyline
 90
       22
 70
   128
 43
0.0
 10
266.8257361764
 20
43.4124382151
 10
267.029285941
 20
43.3701526672
 10
267.3667950667
 20
43.2096947742
 10
267.6420213657
 20
42.9477162871
 10
267.8455923365
 20
42.5931385692
 10
267.9705756139
 20
42.1580363392
 10
268.0127150423
 20
41.6572264817
 10
267.9705756139
 20
41.1077634759
 10
267.8455923365
 20
40.5283586254
 10
267.6420213657
 20
39.9387428674
 10
267.3667950667
 20
39.3589948594
 10
267.029285941
 20
38.8088572245
 10
266.6409874572
 20
38.3070642401
 10
266.2151226543
 20
37.8707038643
 10
265.7661938475
 20
37.5146358264
 10
265.3094887688
 20
37.2509855965
 10
264.860559962
 20
37.0887314668
 10
264.4346951591
 20
37.0333988071
 10
264.0463966753
 20
37.0868719049
 10
263.7088875496
 20
37.2473297979
 10
263.4336612506
 20
37.5093082849
 10
263.2720951781
 20
37.7707412036
  0
SPLINE
  5
1B1
330
1F
100
AcDbEntity
  8
0
  6
Continuous
 62
     7
370
    15
100
AcDbSpline
210
0.0
220
0.0
230
1.0
 70
     8
 71
     3
 72
    11
 73
     7
 74
     0
 42
0.000000001
 43
0.00000001
 40
0.0
 40
0.0
 40
0.0
 40
0.0
 40
0.3105157409986088
 40
0.5915933465014794
 40
0.8435752121776389
 40
1.0
 40
1.0
 40
1.0
 40
1.0
 10
245.2160145146134
 20
37.57362438919513
 30
0.0
 10
245.3070138730658
 20
37.6650938207829
 30
0.0
 10
245.4803854864444
 20
37.83936101561679
 30
0.0
 10
245.6306749714162
 20
38.25788813802813
 30
0.0
 10
245.7047539042495
 20
38.66902333745993
 30
0.0
 10
245.7122950479155
 20
38.96376109511927
 30
0.0
 10
245.7151833989935
 20
39.0766492932183
 30
0.0
  0
SPLINE
  5
1B2
330
1F
100
AcDbEntity
  8
0
  6
Continuous
 62
     7
370
    15
100
AcDbSpline
210
0.0
220
0.0
230
1.0
 70
     8
 71
     3
 72
     9
 73
     5
 74
     0
 42
0.000000001
 43
0.00000001
 40
0.0
 40
0.0
 40
0.0
 40
0.0
 40
0.5067661695379747
 40
1.0
 40
1.0
 40
1.0
 40
1.0
 10
245.1072930501409
 20
36.84699362265098
 30
0.0
 10
245.1255620674523
 20
36.96944797648098
 30
0.0
 10
245.161612258664
 20
37.21108674637289
 30
0.0
 10
245.1982929981008
 20
37.45323714450206
 30
0.0
 10
245.2163851797174
 20
37.57267391291923
 30
0.0
  0
SPLINE
  5
1B3
330
1F
100
AcDbEntity
  8
0
  6
Continuous
 62
     7
370
    15
100
AcDbSpline
210
0.0
220
0.0
230
1.0
 70
     8
 71
     3
 72
    10
 73
     6
 74
     0
 42
0.000000001
 43
0.00000001
 40
0.0
 40
0.0
 40
0.0
 40
0.0
 40
0.4807908150150776
 40
0.9757817590329644
 40
0.9999999999999999
 40
0.9999999999999999
 40
0.9999999999999999
 40
0.9999999999999999
 10
244.7320294296136
 20
38.64665225938277
 30
0.0
 10
244.8818203765139
 20
38.56648188402074
 30
0.0
 10
245.1858263372953
 20
38.40377330588235
 30
0.0
 10
245.4754417814939
 20
38.29227187516089
 30
0.0
 10
245.6097802121726
 20
38.26404025768161
 30
0.0
 10
245.6160463580333
 20
38.26272340864507
 30
0.0
  0
LINE
  5
1B4
330
1F
100
AcDbEntity
  8
0
  6
Continuous
 62
     7
370
    15
100
AcDbLine
 10
268.6466887339
 20
43.761573637
 30
0.0
 11
269.5347890232
 21
43.2488842528
 31
0.0
  0
LINE
  5
1B5
330
1F
100
AcDbEntity
  8
0
  6
Continuous
 62
     7
370
    15
100
AcDbLine
 10
239.0199147664
 20
46.8003106581
 30
0.0
 11
238.5864815188
 21
47.0505670163
 31
0.0
  0
LINE
  5
1B6
330
1F
100
AcDbEntity
  8
0
  6
Continuous
 62
     7
370
    15
100
AcDbLine
 10
242.2487628649
 20
44.9363363266
 30
0.0
 11
239.0199147664
 21
46.8003106581
 31
0.0
  0
SPLINE
  5
1B7
330
1F
100
AcDbEntity
  8
0
  6
Continuous
 62
     7
370
    15
100
AcDbSpline
210
0.0
220
0.0
230
1.0
 70
     8
 71
     3
 72
    11
 73
     7
 74
     0
 42
0.000000001
 43
0.00000001
 40
0.0
 40
0.0
 40
0.0
 40
0.0
 40
0.2163953887516682
 40
0.5251086176554629
 40
0.8338595073624958
 40
1.0
 40
1.0
 40
1.0
 40
1.0
 10
241.1249796876706
 20
42.78648471229657
 30
0.0
 10
241.1202618806664
 20
42.9928764708249
 30
0.0
 10
241.1088135724165
 20
43.49371011446908
 30
0.0
 10
241.0436352267963
 20
44.31249889917567
 30
0.0
 10
241.0028825400956
 20
45.07361512655601
 30
0.0
 10
241.0242463901444
 20
45.50781397146472
 30
0.0
 10
241.0317205215009
 20
45.65971820194291
 30
0.0
  0
LINE
  5
1B8
330
1F
100
AcDbEntity
  8
0
  6
Continuous
 62
     7
370
    15
100
AcDbLine
 10
241.1249796877
 20
42.3661293569
 30
0.0
 11
241.1249796877
 21
42.7864847123
 31
0.0
  0
LINE
  5
1B9
330
1F
100
AcDbEntity
  8
0
  6
Continuous
 62
     7
370
    15
100
AcDbLine
 10
265.0484125825
 20
36.5369530172
 30
0.0
 11
265.2845682842
 21
36.4006232324
 31
0.0
  0
SPLINE
  5
1BA
330
1F
100
AcDbEntity
  8
0
  6
Continuous
 62
     7
370
    15
100
AcDbSpline
210
0.0
220
0.0
230
1.0
 70
     8
 71
     3
 72
    10
 73
     6
 74
     0
 42
0.000000001
 43
0.00000001
 40
0.0
 40
0.0
 40
0.0
 40
0.0
 40
0.5
 40
0.5
 40
1.0
 40
1.0
 40
1.0
 40
1.0
 10
265.2845682842001
 20
36.40062323241761
 30
0.0
 10
265.1878881540914
 20
36.26073470215866
 30
0.0
 10
265.1212094478877
 20
36.11510926897463
 30
0.0
 10
265.0252719528885
 20
35.81670292777595
 30
0.0
 10
264.9971422570082
 20
35.6674325054389
 30
0.0
 10
264.9807290917229
 20
35.51819043545638
 30
0.0
  0
LINE
  5
1BB
330
1F
100
AcDbEntity
  8
0
  6
Continuous
 62
     7
370
    15
100
AcDbLine
 10
264.9807290917
 20
35.5181904355
 30
0.0
 11
264.7905951314
 21
35.4084284365
 31
0.0
  0
ARC
  5
1BC
330
1F
100
AcDbEntity
  8
0
  6
Continuous
 62
     7
370
    15
100
AcDbCircle
 10
264.7722246443
 20
39.615657601
 30
0.0
 40
4.10276873314661
100
AcDbArc
 50
272.9130506693
 51
327.081572798
  0
LINE
  5
1BD
330
1F
100
AcDbEntity
  8
0
  6
Continuous
 62
     7
370
    15
100
AcDbLine
 10
268.4064078284
 20
37.4957926757
 30
0.0
 11
268.2162738681
 21
37.3860306768
 31
0.0
  0
ARC
  5
1BE
330
1F
100
AcDbEntity
  8
0
  6
Continuous
 62
     7
370
    15
100
AcDbCircle
 10
264.1598363189
 20
39.9692002081
 30
0.0
 40
3.741625799717859
100
AcDbArc
 50
287.4936320258
 51
312.5009914415
  0
SPLINE
  5
1BF
330
1F
100
AcDbEntity
  8
0
  6
Continuous
 62
     7
370
    15
100
AcDbSpline
210
0.0
220
0.0
230
1.0
 70
     8
 71
     3
 72
    10
 73
     6
 74
     0
 42
0.000000001
 43
0.00000001
 40
0.0
 40
0.0
 40
0.0
 40
0.0
 40
0.5
 40
0.5
 40
1.0
 40
1.0
 40
1.0
 40
1.0
 10
268.2162738681091
 20
37.38603067676669
 30
0.0
 10
267.9571067561085
 20
37.37653194563295
 30
0.0
 10
267.6967013887985
 20
37.36007433466733
 30
0.0
 10
267.1832094828314
 20
37.30501072092503
 30
0.0
 10
266.9313663536693
 20
37.26675267333096
 30
0.0
 10
266.6876898042403
 20
37.21062804449961
 30
0.0
  0
LINE
  5
1C0
330
1F
100
AcDbEntity
  8
0
  6
Continuous
 62
     7
370
    15
100
AcDbLine
 10
268.6466887339
 20
39.7950049032
 30
0.0
 11
269.5347890232
 21
39.2823155191
 31
0.0
  0
LINE
  5
1C1
330
1F
100
AcDbEntity
  8
0
  6
Continuous
 62
     7
370
    15
100
AcDbLine
 10
240.5151000889
 20
45.601498172
 30
0.0
 11
240.5202879836
 21
45.9341636362
 31
0.0
  0
ARC
  5
1C2
330
1F
100
AcDbEntity
  8
0
  6
Continuous
 62
     7
370
    15
100
AcDbCircle
 10
248.0827993382
 20
45.4299282535
 30
0.0
 40
7.569643859871445
100
AcDbArc
 50
178.7012501156
 51
203.1943798095
  0
LINE
  5
1C3
330
1F
100
AcDbEntity
  8
0
  6
Continuous
 62
     7
370
    15
100
AcDbLine
 10
228.2823119909
 20
69.0616615769
 30
0.0
 11
228.4083467087
 21
69.0204510793
 31
0.0
  0
LINE
  5
1C4
330
1F
100
AcDbEntity
  8
0
  6
Continuous
 62
     7
370
    15
100
AcDbLine
 10
266.6876898042
 20
37.2106280445
 30
0.0
 11
266.4515341025
 21
37.3469578292
 31
0.0
  0
LINE
  5
1C5
330
1F
100
AcDbEntity
  8
0
  6
Continuous
 62
     7
370
    15
100
AcDbLine
 10
244.7227067787
 20
38.6520341112
 30
0.0
 11
244.7320294296
 21
38.6466522594
 31
0.0
  0
ARC
  5
1C6
330
1F
100
AcDbEntity
  8
0
  6
Continuous
 62
     7
370
    15
100
AcDbCircle
 10
247.5499225448
 20
39.2989350971
 30
0.0
 40
5.919642220385707
100
AcDbArc
 50
192.6964501328
 51
260.4756565155
  0
SPLINE
  5
1C7
330
1F
100
AcDbEntity
  8
0
  6
Continuous
 62
     7
370
    15
100
AcDbSpline
210
0.0
220
0.0
230
1.0
 70
     8
 71
     3
 72
     8
 73
     4
 74
     0
 42
0.000000001
 43
0.00000001
 40
0.0
 40
0.0
 40
0.0
 40
0.0
 40
0.0012389803509652
 40
0.0012389803509652
 40
0.0012389803509652
 40
0.0012389803509652
 10
242.2487628648781
 20
38.36318279093823
 30
0.0
 10
242.0910179646796
 20
38.24110634040351
 30
0.0
 10
241.9330997857136
 20
38.1193490374027
 30
0.0
 10
241.7750264507326
 20
37.99788201585826
 30
0.0
  0
SPLINE
  5
1C8
330
1F
100
AcDbEntity
  8
0
  6
Continuous
 62
     7
370
    15
100
AcDbSpline
210
0.0
220
0.0
230
1.0
 70
     8
 71
     3
 72
     8
 73
     4
 74
     0
 42
0.000000001
 43
0.00000001
 40
0.0
 40
0.0
 40
0.0
 40
0.0
 40
1.0
 40
1.0
 40
1.0
 40
1.0
 10
242.2487628648781
 20
38.36318279093823
 30
0.0
 10
242.9427434478197
 20
38.47719457221084
 30
0.0
 10
243.6363765085817
 20
38.59195532473121
 30
0.0
 10
244.3294340271546
 20
38.70781465010416
 30
0.0
  0
SPLINE
  5
1C9
330
1F
100
AcDbEntity
  8
0
  6
Continuous
 62
     7
370
    15
100
AcDbSpline
210
0.0
220
0.0
230
1.0
 70
     8
 71
     3
 72
    12
 73
     8
 74
     0
 42
0.000000001
 43
0.00000001
 40
0.0
 40
0.0
 40
0.0
 40
0.0
 40
0.2499999999999984
 40
0.2499999999999984
 40
0.4999999999999968
 40
0.4999999999999968
 40
1.0
 40
1.0
 40
1.0
 40
1.0
 10
244.3294340271546
 20
38.70781465010416
 30
0.0
 10
244.3632225430787
 20
38.71346312018841
 30
0.0
 10
244.3987943191476
 20
38.71672358370385
 30
0.0
 10
244.4693765655401
 20
38.71786117325198
 30
0.0
 10
244.504399523989
 20
38.71584455679395
 30
0.0
 10
244.6086048192539
 20
38.70146881945436
 30
0.0
 10
244.6723152511936
 20
38.68112452082195
 30
0.0
 10
244.7227067787066
 20
38.6520341111955
 30
0.0
  0
LINE
  5
1CA
330
1F
100
AcDbEntity
  8
0
  6
Continuous
 62
     7
370
    15
100
AcDbLine
 10
239.0199147664
 20
40.2271571224
 30
0.0
 11
242.2487628649
 21
38.3631827909
 31
0.0
  0
LINE
  5
1CB
330
1F
100
AcDbEntity
  8
0
  6
Continuous
 62
     7
370
    15
100
AcDbLine
 10
239.0199147664
 20
40.2271571224
 30
0.0
 11
240.9128476533
 21
41.3199240178
 31
0.0
  0
LINE
  5
1CC
330
1F
100
AcDbEntity
  8
0
  6
Continuous
 62
     7
370
    15
100
AcDbLine
 10
238.5864815188
 20
39.9769007642
 30
0.0
 11
239.0199147664
 21
40.2271571224
 31
0.0
  0
LINE
  5
1CD
330
1F
100
AcDbEntity
  8
0
  6
Continuous
 62
     7
370
    15
100
AcDbLine
 10
241.7750264507
 20
37.9978820159
 30
0.0
 11
238.7433061264
 21
39.7480569056
 31
0.0
  0
SPLINE
  5
1CE
330
1F
100
AcDbEntity
  8
0
  6
Continuous
 62
     7
370
    15
100
AcDbSpline
210
0.0
220
0.0
230
1.0
 70
     8
 71
     3
 72
     8
 73
     4
 74
     0
 42
0.000000001
 43
0.00000001
 40
0.0
 40
0.0
 40
0.0
 40
0.0
 40
1.0
 40
1.0
 40
1.0
 40
1.0
 10
238.7433061263953
 20
39.7480569055782
 30
0.0
 10
238.6632813268806
 20
39.79425423900015
 30
0.0
 10
238.6088045294987
 20
39.87744176136485
 30
0.0
 10
238.5864815188342
 20
39.97690076420597
 30
0.0
  0
ARC
  5
1CF
330
1F
100
AcDbEntity
  8
0
  6
Continuous
 62
     7
370
    15
100
AcDbCircle
 10
244.2756513241
 20
40.565177135
 30
0.0
 40
5.41135229755149
100
AcDbArc
 50
223.7930213206
 51
239.8672483145
  0
ELLIPSE
  5
1D0
330
1F
100
AcDbEntity
  8
0
  6
Continuous
 62
     7
370
    15
100
AcDbEllipse
 10
240.6785330783
 20
42.1084235923
 30
0.0
 11
-6.005970382716441E-5
 21
0.8534489614827264
 31
0.0
210
0.0
220
0.0
230
1.0
 40
0.7174342186
 41
3.534193645557497
 42
5.104989972352385
  0
ELLIPSE
  5
1D1
330
1F
100
AcDbEntity
  8
0
  6
Continuous
 62
     7
370
    15
100
AcDbEllipse
 10
240.5592942627
 20
42.0395661122
 30
0.0
 11
0.2600075789209199
 21
0.9705436209909377
 31
0.0
210
0.0
220
0.0
230
1.0
 40
0.5176380889
 41
3.619174351347692
 42
5.189970678142628
  0
LWPOLYLINE
  5
1D2
330
1F
100
AcDbEntity
  8
0
  6
Continuous
 62
     7
370
     0
100
AcDbPolyline
 90
       42
 70
   128
 43
0.0
 10
247.1353873278
 20
38.4017991358
 10
247.1764213382
 20
39.5107724352
 10
247.299211076
 20
40.6586826382
 10
247.502822037
 20
41.8367934551
 10
247.7857046189
 20
43.036138751
 10
248.1457059145
 20
44.2475907843
 10
248.5800860965
 20
45.4619296733
 10
249.0855392694
 20
46.669913566
 10
249.6582186295
 20
47.8623489754
 10
250.2937657409
 20
49.0301607481
 10
250.9873437064
 20
50.1644611314
 10
251.7336739788
 20
51.2566174145
 10
252.5270765343
 20
52.2983176285
 10
253.3615131002
 20
53.2816338059
 10
254.2306331105
 20
54.1990823168
 10
255.127822037
 20
55.043680824
 10
256.0462517303
 20
55.809001423
 10
256.9789323859
 20
56.4892195618
 10
257.9187657409
 20
57.0791583697
 10
258.8585990958
 20
57.5743280562
 10
259.7912797514
 20
57.970960081
 10
260.7097094447
 20
58.2660358347
 10
261.6068983712
 20
58.4573096129
 10
262.4760183815
 20
58.5433257065
 10
263.3104549474
 20
58.5234294812
 10
264.1038575029
 20
58.3977723592
 10
264.8501877753
 20
58.167310667
 10
265.5437657409
 20
57.8337983574
 10
266.1793128523
 20
57.3997736604
 10
266.7519922123
 20
56.868539766
 10
267.2574453852
 20
56.2441396849
 10
267.6918255672
 20
55.5313254787
 10
268.0518268628
 20
54.735522094
 10
268.3347094447
 20
53.8627860751
 10
268.5383204057
 20
52.9197594699
 10
268.6611101435
 20
51.9136192805
 10
268.7021441539
 20
50.8520228411
 10
268.6611101435
 20
49.7430495417
 10
268.5383204057
 20
48.5951393387
 10
268.3347094447
 20
47.4170285219
 10
268.0518268628
 20
46.2176832259
 10
267.9992908379
 20
46.0242306004
  0
LWPOLYLINE
  5
1D3
330
1F
100
AcDbEntity
  8
0
  6
Continuous
 62
     7
370
     0
100
AcDbPolyline
 90
       24
 70
   128
 43
0.0
 10
261.749798759
 20
35.1986198207
 10
261.6068983712
 20
35.0547396602
 10
260.7097094447
 20
34.2101411529
 10
259.7912797514
 20
33.444820554
 10
258.8585990958
 20
32.7646024151
 10
257.9187657409
 20
32.1746636072
 10
256.9789323859
 20
31.6794939207
 10
256.0462517303
 20
31.282861896
 10
255.127822037
 20
30.9877861422
 10
254.2306331105
 20
30.7965123641
 10
253.3615131002
 20
30.7104962704
 10
252.5270765343
 20
30.7303924958
 10
251.7336739788
 20
30.8560496178
 10
250.9873437064
 20
31.0865113099
 10
250.2937657409
 20
31.4200236195
 10
249.6582186295
 20
31.8540483165
 10
249.0855392694
 20
32.385282211
 10
248.5800860965
 20
33.0096822921
 10
248.1457059145
 20
33.7224964982
 10
247.7857046189
 20
34.5182998829
 10
247.502822037
 20
35.3910359019
 10
247.299211076
 20
36.334062507
 10
247.1764213382
 20
37.3402026965
 10
247.1353873278
 20
38.4017991358
  0
LWPOLYLINE
  5
1D4
330
1F
100
AcDbEntity
  8
0
  6
Continuous
 62
     7
370
     0
100
AcDbPolyline
 90
       27
 70
   128
 43
0.0
 10
246.4282805466
 20
38.4017991358
 10
246.4695075199
 20
39.5311507842
 10
246.5928832097
 20
40.6997407582
 10
246.7974941856
 20
41.8989172266
 10
247.0818255795
 20
43.1198019064
 10
247.4437723012
 20
44.3533557946
 10
247.8806546239
 20
45.5904460897
 10
248.3892380236
 20
46.8219138081
 10
248.9657571269
 20
48.0386415935
 10
249.605943588
 20
49.2316212192
 10
250.3050576903
 20
50.3920202815
 10
251.0579234375
 20
51.5112475915
 10
251.8589668752
 20
52.581016782
 10
252.702257358
 20
53.593407656
 10
253.5815514581
 20
54.5409248259
 10
254.4903391897
 20
55.4165532059
 10
255.4218922063
 20
56.2138099499
 10
256.3693136155
 20
56.9267924479
 10
257.3255890404
 20
57.5502220269
 10
258.2836385525
 20
58.0794830325
 10
259.2363690884
 20
58.5106570013
 10
260.1767269645
 20
58.8405516722
 10
261.0977501
 20
59.0667246203
 10
261.992619562
 20
59.1875013403
 10
262.85471005
 20
59.2019876437
 10
263.6776389476
 20
59.1100762789
 10
264.0291108272
 20
59.0352481573
  0
LWPOLYLINE
  5
1D5
330
1F
100
AcDbEntity
  8
0
  6
Continuous
 62
     7
370
     0
100
AcDbPolyline
 90
        9
 70
   128
 43
0.0
 10
248.5270491781
 20
32.0991886684
 10
248.3892380236
 20
32.2457577745
 10
247.8806546239
 20
32.8900275983
 10
247.4437723012
 20
33.6227043004
 10
247.0818255795
 20
34.4383633988
 10
246.7974941856
 20
35.3309660389
 10
246.5928832097
 20
36.2939037031
 10
246.4695075199
 20
37.3200471377
 10
246.4282805466
 20
38.4017991358
  0
LWPOLYLINE
  5
1D6
330
1F
100
AcDbEntity
  8
0
  6
Continuous
 62
     7
370
     0
100
AcDbPolyline
 90
       27
 70
   128
 43
0.0
 10
252.0851347961
 20
41.2592275272
 10
252.1260804916
 20
42.0796076599
 10
252.2483427902
 20
42.9357463476
 10
252.4502053974
 20
43.8156252797
 10
252.7288346046
 20
44.7068928849
 10
253.0803190684
 20
45.5970377195
 10
253.4997247176
 20
46.4735641014
 10
253.981164016
 20
47.3241675214
 10
254.5178786113
 20
48.1369073723
 10
255.1023342071
 20
48.9003745679
 10
255.7263263279
 20
49.6038517024
 10
256.3810954922
 20
50.2374634988
 10
257.0574501762
 20
50.7923154365
 10
257.7458958427
 20
51.2606186105
 10
258.4367682236
 20
51.6357990707
 10
259.1203689851
 20
51.912590106
 10
259.787101871
 20
52.0871061768
 10
260.4276074131
 20
52.1568974601
 10
261.0328943176
 20
52.1209842393
 10
261.5944656831
 20
51.9798706573
 10
262.1044382787
 20
51.7355376394
 10
262.5556532069
 20
51.3914150856
 10
262.9417763993
 20
50.9523337223
 10
263.2573875326
 20
50.4244572893
 10
263.4980561184
 20
49.8151960146
 10
263.6604036972
 20
49.133102591
 10
263.7363129852
 20
48.4851953317
  0
LWPOLYLINE
  5
1D7
330
1F
100
AcDbEntity
  8
0
  6
Continuous
 62
     7
370
     0
100
AcDbPolyline
 90
       14
 70
   128
 43
0.0
 10
257.4868209062
 20
37.6595845519
 10
257.0574501762
 20
37.467052757
 10
256.3810954922
 20
37.2410021986
 10
255.7263263279
 20
37.1186336095
 10
255.1023342071
 20
37.1016647764
 10
254.5178786113
 20
37.1903339045
 10
253.981164016
 20
37.3833962738
 10
253.4997247176
 20
37.6781417117
 10
253.0803190684
 20
38.0704326383
 10
252.7288346046
 20
38.554762149
 10
252.4502053974
 20
39.1243313191
 10
252.2483427902
 20
39.7711446459
 10
252.1260804916
 20
40.4861222883
 10
252.0851347961
 20
41.2592275272
  0
ARC
  5
1D8
330
1F
100
AcDbEntity
  8
0
  6
Continuous
 62
     7
370
     0
100
AcDbCircle
 10
258.0355463992
 20
40.9480932112
 30
0.0
 40
3.137449863488567
100
AcDbArc
 50
174.3087434829
 51
234.3790761237
  0
LWPOLYLINE
  5
1D9
330
1F
100
AcDbEntity
  8
0
  6
Continuous
 62
     7
370
     0
100
AcDbPolyline
 90
       19
 70
   128
 43
0.0
 10
262.4577253427
 20
49.2233082665
 10
262.3494665288
 20
49.2816175833
 10
261.8815703429
 20
49.4510810403
 10
261.366198728
 20
49.5154711984
 10
260.8129520823
 20
49.4735885909
 10
260.2321363439
 20
49.3262134116
 10
259.6345710111
 20
49.0760909811
 10
259.0313875954
 20
48.7278806071
 10
258.4338222626
 20
48.28806879
 10
257.8530065242
 20
47.7648483918
 10
257.2997598784
 20
47.1679660186
 10
256.7843882636
 20
46.5085404596
 10
256.3164920777
 20
45.7988555653
 10
255.9047873413
 20
45.0521314226
 10
255.5569433349
 20
44.2822780893
 10
255.279439734
 20
43.5036364764
 10
255.0774459057
 20
42.7307112039
 10
254.9547246128
 20
41.9779004073
 10
254.9135619208
 20
41.2592275272
  0
LWPOLYLINE
  5
1DA
330
1F
100
AcDbEntity
  8
0
  6
Continuous
 62
     7
370
     0
100
AcDbPolyline
 90
       20
 70
   128
 43
0.0
 10
244.3294340272
 20
45.2809681858
 10
244.6360589489
 20
46.4254744643
 10
245.0198440172
 20
47.5770881628
 10
245.4774118922
 20
48.7256749864
 10
246.0047359389
 20
49.861127277
 10
246.5971756626
 20
50.9734529612
 10
247.2495175451
 20
52.0528634818
 10
247.9560209244
 20
53.0898599379
 10
248.7104685128
 20
54.0753166756
 10
249.5062211097
 20
55.0005615949
 10
250.3362760271
 20
55.8574524645
 10
251.1933287136
 20
56.6384485746
 10
252.0698370353
 20
57.3366770954
 10
252.9580876471
 20
57.9459935588
 10
253.8502638709
 20
58.4610359298
 10
254.7385144828
 20
58.8772717934
 10
255.6150228045
 20
59.1910382399
 10
256.4720754909
 20
59.3995740988
 10
257.3021304083
 20
59.5010442375
 10
257.9486811471
 20
59.5041562688
  0
LWPOLYLINE
  5
1DB
330
1F
100
AcDbEntity
  8
0
  6
Continuous
 62
     7
370
     0
100
AcDbPolyline
 90
       24
 70
   128
 43
0.0
 10
238.7433061264
 20
46.9600453371
 10
239.0501216041
 20
48.1814457242
 10
239.4332805263
 20
49.4127272087
 10
239.8899657254
 20
50.6448368207
 10
240.4168194338
 20
51.8687155018
 10
241.0099679712
 20
53.075364711
 10
241.6650502262
 20
54.2559125868
 10
242.3772497209
 20
55.4016791771
 10
243.1413300243
 20
56.5042402584
 10
243.9516732531
 20
57.5554892748
 10
244.8023213766
 20
58.5476969413
 10
245.6870200232
 20
59.4735680729
 10
246.5992644659
 20
60.3262952228
 10
247.5323474475
 20
61.0996087334
 10
248.4794084962
 20
61.7878228343
 10
249.4334843666
 20
62.3858774466
 10
250.387560237
 20
62.889375387
 10
251.3346212857
 20
63.2946146981
 10
252.2677042673
 20
63.5986158668
 10
253.17994871
 20
63.7991437313
 10
254.0646473567
 20
63.8947239149
 10
254.9152954801
 20
63.8846536664
 10
255.7256387089
 20
63.769007027
 10
255.9495567749
 20
63.7165104741
  0
LWPOLYLINE
  5
1DC
330
1F
100
AcDbEntity
  8
0
  6
Continuous
 62
     7
370
     0
100
AcDbPolyline
 90
       19
 70
   128
 43
0.0
 10
244.7227067787
 20
45.2251876469
 10
245.0273916722
 20
46.3490305764
 10
245.4073825439
 20
47.4793604993
 10
245.8593603878
 20
48.6063046208
 10
246.3793774323
 20
49.7200197193
 10
246.9628916216
 20
50.8107781212
 10
247.604806288
 20
51.8690526667
 10
248.299514669
 20
52.8855999242
 10
249.0409488783
 20
53.8515409265
 10
249.8226329062
 20
54.7584387233
 10
250.6377391831
 20
55.5983720736
 10
251.4791482154
 20
56.3640046331
 10
252.3395107693
 20
57.0486490329
 10
253.211312063
 20
57.6463252901
 10
254.0869374036
 20
58.1518130396
 10
254.9587386973
 20
58.5606971308
 10
255.8191012512
 20
58.8694061917
 10
256.6605102835
 20
59.0752438225
 10
257.0836158742
 20
59.1404440205
  0
LINE
  5
1DD
330
1F
100
AcDbEntity
  8
0
  6
Continuous
 62
     7
370
     0
100
AcDbLine
 10
244.7320294296
 20
38.6466522594
 30
0.0
 11
245.1378106709
 21
38.8809047838
 31
0.0
  0
LWPOLYLINE
  5
1DE
330
1F
100
AcDbEntity
  8
0
  6
Continuous
 62
     7
370
     0
100
AcDbPolyline
 90
        3
 70
   128
 43
0.0
 10
245.694825738
 20
38.6229041571
 10
245.6320315819
 20
38.6455276108
 10
245.1378106709
 20
38.8809047838
  0
LINE
  5
1DF
330
1F
100
AcDbEntity
  8
0
  6
Continuous
 62
     7
370
     0
100
AcDbLine
 10
263.8054296942
 20
35.8193942694
 30
0.0
 11
264.6899505913
 21
35.3087712245
 31
0.0
  0
ARC
  5
1E0
330
1F
100
AcDbEntity
  8
0
  6
Continuous
 62
     7
370
     0
100
AcDbCircle
 10
244.4503125969
 20
39.9372253901
 30
0.0
 40
1.26034393124975
100
AcDbArc
 50
303.0577786045
 51
346.2438194889
  0
LINE
  5
1E1
330
1F
100
AcDbEntity
  8
0
  6
Continuous
 62
     7
370
     0
100
AcDbLine
 10
241.2442185032
 20
42.434986837
 30
0.0
 11
245.6318080103
 21
39.9020853289
 31
0.0
  0
LINE
  5
1E2
330
1F
100
AcDbEntity
  8
0
  6
Continuous
 62
     7
370
     0
100
AcDbLine
 10
241.1249796877
 20
42.3661293569
 30
0.0
 11
241.2442185032
 21
42.434986837
 31
0.0
  0
LINE
  5
1E3
330
1F
100
AcDbEntity
  8
0
  6
Continuous
 62
     7
370
     0
100
AcDbLine
 10
240.8686534795
 20
45.397396144
 30
0.0
 11
240.8738413742
 21
45.7300616083
 31
0.0
  0
ARC
  5
1E4
330
1F
100
AcDbEntity
  8
0
  6
Continuous
 62
     7
370
     0
100
AcDbCircle
 10
249.3904974118
 20
45.3177306531
 30
0.0
 40
8.522216296064055
100
AcDbArc
 50
179.4643925098
 51
193.0375536832
  0
LWPOLYLINE
  5
1E5
330
1F
100
AcDbEntity
  8
0
  6
Continuous
 62
     7
370
     0
100
AcDbPolyline
 90
       18
 70
   128
 43
0.0
 10
221.0231375812
 20
60.6962755916
 10
221.0635550258
 20
61.4168159228
 10
221.1840861094
 20
62.1711631829
 10
221.3825799518
 20
62.9458560273
 10
221.6554944258
 20
63.7270700437
 10
221.9979593661
 20
64.5008644495
 10
222.4038634777
 20
65.2534308653
 10
222.8659633922
 20
65.9713397255
 10
223.3760129257
 20
66.6417799296
 10
223.924910232
 20
67.252787456
 10
224.5028602259
 20
67.7934588612
 10
225.0995493759
 20
68.254145851
 10
225.70432975
 20
68.6266274553
 10
226.3064090282
 20
68.9042567308
 10
226.8950430915
 20
69.0820793768
 10
227.459727751
 20
69.1569221438
 10
227.9903861956
 20
69.1274494608
 10
228.2823119909
 20
69.0616615769
  0
ARC
  5
1E6
330
1F
100
AcDbEntity
  8
0
  6
Continuous
 62
     7
370
     0
100
AcDbCircle
 10
224.3979350453
 20
60.4116480095
 30
0.0
 40
3.386778821242892
100
AcDbArc
 50
175.1791309351
 51
225.8020354417
  0
LINE
  5
1E7
330
1F
100
AcDbEntity
  8
0
  6
Continuous
 62
     7
370
     0
100
AcDbLine
 10
267.6945169908
 20
38.064516577
 30
0.0
 11
268.5790378878
 21
37.553893532
 31
0.0
  0
LWPOLYLINE
  5
1E8
330
1F
100
AcDbEntity
  8
0
  6
Continuous
 62
     7
370
     0
100
AcDbPolyline
 90
        3
 70
   128
 43
0.0
 10
245.1912944504
 20
37.5546437797
 10
245.0273916722
 20
37.8799728718
 10
244.7227067787
 20
38.6520341112
  0
ARC
  5
1E9
330
1F
100
AcDbEntity
  8
0
  6
Continuous
 62
     7
370
     0
100
AcDbCircle
 10
250.3654814306
 20
40.5818243019
 30
0.0
 40
6.32026743358441
100
AcDbArc
 50
197.247983763
 51
213.8102382645
  0
LINE
  5
1EA
330
1F
100
AcDbEntity
  8
0
  6
Continuous
 62
     7
370
     0
100
AcDbLine
 10
245.1378106709
 20
38.8809047838
 30
0.0
 11
240.9128476533
 21
41.3199240178
 31
0.0
  0
ARC
  5
1EB
330
1F
100
AcDbEntity
  8
0
  6
Continuous
 62
     7
370
     0
100
AcDbCircle
 10
245.5532088174
 20
41.6149116493
 30
0.0
 40
7.061155804497144
100
AcDbArc
 50
195.3303374449
 51
222.7673674007
  0
OLE2FRAME
  5
1EC
330
1F
100
AcDbEntity
  8
0
100
AcDbOle2Frame
 70
     2
  3
Paintbrush-Bild
 10
13.8511154363
 20
38.264191557
 30
0.0
 11
51.6290888628
 21
31.9806341108
 31
0.0
 71
     2
 72
     0
 73
     1
 90
    12928
310
80552BED0767C5B32B40DDAF6807D121434000000000000000006FFBDDFB85D0
310
4940DDAF6807D121434000000000000000006FFBDDFB85D04940416F4BD60AFB
310
3F4000000000000000002BED0767C5B32B40416F4BD60AFB3F40000000000000
310
0000000000000100000000010000010000000100000000000100000000320000
310
D0CF11E0A1B11AE1000000000000000000000000000000003E000300FEFF0900
310
0600000000000000000000000100000001000000000000000010000002000000
310
01000000FEFFFFFF0000000000000000FFFFFFFFFFFFFFFFFFFFFFFFFFFFFFFF
310
FFFFFFFFFFFFFFFFFFFFFFFFFFFFFFFFFFFFFFFFFFFFFFFFFFFFFFFFFFFFFFFF
310
FFFFFFFFFFFFFFFFFFFFFFFFFFFFFFFFFFFFFFFFFFFFFFFFFFFFFFFFFFFFFFFF
310
FFFFFFFFFFFFFFFFFFFFFFFFFFFFFFFFFFFFFFFFFFFFFFFFFFFFFFFFFFFFFFFF
310
FFFFFFFFFFFFFFFFFFFFFFFFFFFFFFFFFFFFFFFFFFFFFFFFFFFFFFFFFFFFFFFF
310
FFFFFFFFFFFFFFFFFFFFFFFFFFFFFFFFFFFFFFFFFFFFFFFFFFFFFFFFFFFFFFFF
310
FFFFFFFFFFFFFFFFFFFFFFFFFFFFFFFFFFFFFFFFFFFFFFFFFFFFFFFFFFFFFFFF
310
FFFFFFFFFFFFFFFFFFFFFFFFFFFFFFFFFFFFFFFFFFFFFFFFFFFFFFFFFFFFFFFF
310
FFFFFFFFFFFFFFFFFFFFFFFFFFFFFFFFFFFFFFFFFFFFFFFFFFFFFFFFFFFFFFFF
310
FFFFFFFFFFFFFFFFFFFFFFFFFFFFFFFFFFFFFFFFFFFFFFFFFFFFFFFFFFFFFFFF
310
FFFFFFFFFFFFFFFFFFFFFFFFFFFFFFFFFFFFFFFFFFFFFFFFFFFFFFFFFFFFFFFF
310
FFFFFFFFFFFFFFFFFFFFFFFFFFFFFFFFFFFFFFFFFFFFFFFFFFFFFFFFFFFFFFFF
310
FFFFFFFFFFFFFFFFFFFFFFFFFFFFFFFFFFFFFFFFFFFFFFFFFFFFFFFFFFFFFFFF
310
FFFFFFFFFFFFFFFFFFFFFFFFFFFFFFFFFFFFFFFFFFFFFFFFFFFFFFFFFFFFFFFF
310
FDFFFFFFFEFFFFFFFEFFFFFFFEFFFFFF05000000060000000700000008000000
310
090000000A0000000B0000000C0000000D0000000E0000000F00000010000000
310
11000000120000001300000014000000150000001600000017000000FEFFFFFF
310
FFFFFFFFFFFFFFFFFFFFFFFFFFFFFFFFFFFFFFFFFFFFFFFFFFFFFFFFFFFFFFFF
310
FFFFFFFFFFFFFFFFFFFFFFFFFFFFFFFFFFFFFFFFFFFFFFFFFFFFFFFFFFFFFFFF
310
FFFFFFFFFFFFFFFFFFFFFFFFFFFFFFFFFFFFFFFFFFFFFFFFFFFFFFFFFFFFFFFF
310
FFFFFFFFFFFFFFFFFFFFFFFFFFFFFFFFFFFFFFFFFFFFFFFFFFFFFFFFFFFFFFFF
310
FFFFFFFFFFFFFFFFFFFFFFFFFFFFFFFFFFFFFFFFFFFFFFFFFFFFFFFFFFFFFFFF
310
FFFFFFFFFFFFFFFFFFFFFFFFFFFFFFFFFFFFFFFFFFFFFFFFFFFFFFFFFFFFFFFF
310
FFFFFFFFFFFFFFFFFFFFFFFFFFFFFFFFFFFFFFFFFFFFFFFFFFFFFFFFFFFFFFFF
310
FFFFFFFFFFFFFFFFFFFFFFFFFFFFFFFFFFFFFFFFFFFFFFFFFFFFFFFFFFFFFFFF
310
FFFFFFFFFFFFFFFFFFFFFFFFFFFFFFFFFFFFFFFFFFFFFFFFFFFFFFFFFFFFFFFF
310
FFFFFFFFFFFFFFFFFFFFFFFFFFFFFFFFFFFFFFFFFFFFFFFFFFFFFFFFFFFFFFFF
310
FFFFFFFFFFFFFFFFFFFFFFFFFFFFFFFFFFFFFFFFFFFFFFFFFFFFFFFFFFFFFFFF
310
FFFFFFFFFFFFFFFFFFFFFFFFFFFFFFFFFFFFFFFFFFFFFFFFFFFFFFFFFFFFFFFF
310
FFFFFFFFFFFFFFFFFFFFFFFFFFFFFFFFFFFFFFFFFFFFFFFFFFFFFFFFFFFFFFFF
310
52006F006F007400200045006E00740072007900000000000000000000000000
310
0000000000000000000000000000000000000000000000000000000000000000
310
16000500FFFFFFFFFFFFFFFF020000000A00030000000000C000000000000046
310
00000000000000000000000010ED5BAD9C15D20103000000C000000000000000
310
01004F006C006500000000000000000000000000000000000000000000000000
310
0000000000000000000000000000000000000000000000000000000000000000
310
0A000200FFFFFFFFFFFFFFFFFFFFFFFF00000000000000000000000000000000
310
0000000000000000000000000000000000000000000000001400000000000000
310
010043006F006D0070004F0062006A0000000000000000000000000000000000
310
0000000000000000000000000000000000000000000000000000000000000000
310
120002010100000003000000FFFFFFFF00000000000000000000000000000000
310
0000000000000000000000000000000000000000010000004D00000000000000
310
01004F006C006500310030004E00610074006900760065000000000000000000
310
0000000000000000000000000000000000000000000000000000000000000000
310
1A000200FFFFFFFFFFFFFFFFFFFFFFFF00000000000000000000000000000000
310
0000000000000000000000000000000000000000040000002426000000000000
310
FEFFFFFF02000000FEFFFFFFFFFFFFFFFFFFFFFFFFFFFFFFFFFFFFFFFFFFFFFF
310
FFFFFFFFFFFFFFFFFFFFFFFFFFFFFFFFFFFFFFFFFFFFFFFFFFFFFFFFFFFFFFFF
310
FFFFFFFFFFFFFFFFFFFFFFFFFFFFFFFFFFFFFFFFFFFFFFFFFFFFFFFFFFFFFFFF
310
FFFFFFFFFFFFFFFFFFFFFFFFFFFFFFFFFFFFFFFFFFFFFFFFFFFFFFFFFFFFFFFF
310
FFFFFFFFFFFFFFFFFFFFFFFFFFFFFFFFFFFFFFFFFFFFFFFFFFFFFFFFFFFFFFFF
310
FFFFFFFFFFFFFFFFFFFFFFFFFFFFFFFFFFFFFFFFFFFFFFFFFFFFFFFFFFFFFFFF
310
FFFFFFFFFFFFFFFFFFFFFFFFFFFFFFFFFFFFFFFFFFFFFFFFFFFFFFFFFFFFFFFF
310
FFFFFFFFFFFFFFFFFFFFFFFFFFFFFFFFFFFFFFFFFFFFFFFFFFFFFFFFFFFFFFFF
310
FFFFFFFFFFFFFFFFFFFFFFFFFFFFFFFFFFFFFFFFFFFFFFFFFFFFFFFFFFFFFFFF
310
FFFFFFFFFFFFFFFFFFFFFFFFFFFFFFFFFFFFFFFFFFFFFFFFFFFFFFFFFFFFFFFF
310
FFFFFFFFFFFFFFFFFFFFFFFFFFFFFFFFFFFFFFFFFFFFFFFFFFFFFFFFFFFFFFFF
310
FFFFFFFFFFFFFFFFFFFFFFFFFFFFFFFFFFFFFFFFFFFFFFFFFFFFFFFFFFFFFFFF
310
FFFFFFFFFFFFFFFFFFFFFFFFFFFFFFFFFFFFFFFFFFFFFFFFFFFFFFFFFFFFFFFF
310
FFFFFFFFFFFFFFFFFFFFFFFFFFFFFFFFFFFFFFFFFFFFFFFFFFFFFFFFFFFFFFFF
310
FFFFFFFFFFFFFFFFFFFFFFFFFFFFFFFFFFFFFFFFFFFFFFFFFFFFFFFFFFFFFFFF
310
FFFFFFFFFFFFFFFFFFFFFFFFFFFFFFFFFFFFFFFFFFFFFFFFFFFFFFFFFFFFFFFF
310
0100000200000000000000000000000000000000000000000000000000000000
310
0000000000000000000000000000000000000000000000000000000000000000
310
0100FEFF030A0000FFFFFFFF0A00030000000000C00000000000004607000000
310
5042727573680007000000504272757368000700000050427275736800F439B2
310
7100000000000000000000000000000000000000000000000000000000000000
310
0000000000000000000000000000000000000000000000000000000000000000
310
0000000000000000000000000000000000000000000000000000000000000000
310
0000000000000000000000000000000000000000000000000000000000000000
310
0000000000000000000000000000000000000000000000000000000000000000
310
0000000000000000000000000000000000000000000000000000000000000000
310
0000000000000000000000000000000000000000000000000000000000000000
310
0000000000000000000000000000000000000000000000000000000000000000
310
0000000000000000000000000000000000000000000000000000000000000000
310
0000000000000000000000000000000000000000000000000000000000000000
310
0000000000000000000000000000000000000000000000000000000000000000
310
0000000000000000000000000000000000000000000000000000000000000000
310
20260000424D0E260000000000003E00000028000000B40200006E0000000100
310
01000000000000000000130B0000130B00000200000002000000000000FFFFFF
310
FFFFFFFFFFFFFFFFFFFFFFFFFFFFFFFFFFFFFFFFFFFFFFFFFFFFFFFFFFFFFFFF
310
FFFFFFFFFFFFFFFFFFFFFFFFFFFFFFFFFFFFFFFFFFFFFFFFFFFFFFFFFFFFFFFF
310
FFFFFFFFFFFFFFFFFFFFFFFFFFFFFFFFFFFFFFFFFFFFFFFFF000FFFFFFFFFFFF
310
FFFFFFFFFFFFFFFFFFFFFFFFFFFFFFFFFFFFFFFFFFFFFFFFFFFFFFFFFFFFFFFF
310
FFFFFFFFFFFFFFFFFFFFFFFFFFFFFFFFFFFFFFFFFFFFFFFFFFFFFFFFFFFFFFFF
310
FFFFFFFFFFFFFFFFFFFFFFFFFFFFFFFFF000FFFFFFFFFFFFFFFFFFFFFFFFFFFF
310
FFFFFFFFFFFFFFFFFFFFFFFFFFFFFFFFFFFFFFFFFFFFFFFFFFFFFFFFFFFFFFFF
310
FFFFFFFFFFFFFFFFFFFFFFFFFFFFFFFFFFFFFFFFFFFFFFFFFFFFFFFFFFFFFFFF
310
FFFFFFFFFFFFFFFFF000FFFFFFFFFFFFFFFFFFFFFFFFFFFFFFFFFFFFFFFFFFFF
310
FFFFFFFFFFFFFFFFFFFFFFFFFFFFFFFFFFFFFFFFFFFFFFFFFFFFFFFFFFFFFFFF
310
FFFFFFFFFFFFFFFFFFFFFFFFFFFFFFFFFFFFFFFFFFFFFFFFFFFFFFFFFFFFFFFF
310
F000FFFFFFFFFFFFFFFFFFFFFFFFFFFFFFFFFFFFFFFFFFFFFFFFFFFFFFFFFFFF
310
FFFFFFFFFFFFFFFFFFFFFFFFFFFFFFFFFFFFFFFFFFFFFFFFFFFFFFFFFFFFFFFF
310
FFFFFFFFFFFFFFFFFFFFFFFFFFFFFFFFFFFFFFFFFFFFFFFFF000FFFFFFFFFFFF
310
FFFFFFFFFFFFFFFFFFFFFFFFFFFFFFFFFFFFFFFFFFFFFFFFFFFFFFFFFFFFFFFF
310
FFFFFFFFFFFFFFFFFFFFFFFFFFFFFFFFFFFFFFFFFFFFFFFFFFFFFFFFFFFFFFFF
310
FFFFFFFFFFFFFFFFFFFFFFFFFFFFFFFFF000FFFFFFFFFFFFFFFFFFFFFFFFFFFF
310
FFFFFFFFFFFFFFFFFFFFFFFFFFFFFFFFFFFFFFFFFFFFFFFFFFFFFFFFFFFFFFFF
310
FFFFFFFFFFFFFFFFFFFFFFFFFFFFFFFFFFFFFFFFFFFFFFFFFFFFFFFFFFFFFFFF
310
FFFFFFFFFFFFFFFFF000FFFFFFFFFFFFFFFFFFFFFFFFFFFFFFFFFFFFFFFFFFFF
310
FFFFFFFFFFFFFFFFFFFFFFFFFFFFFFFFFFFFFFFFFFFFFFFFFFFFFFFFFFFFFFFF
310
FFFFFFFFFFFFFFFFFFFFFFFFFFFFFFFFFFFFFFFFFFFFFFFFFFFFFFFFFFFFFFFF
310
F000FFFFFFFFFFFFFFFFFFFFFFFFFFFFFFFFFFFFFFFFFFFFFFFFFFFFFFFFFFFF
310
FFFFFFFFFFFFFFFFFFFFFFFFFFFFFFFFFFFFFFFFFFFFFFFFFFFFFFFFFFFFFFFF
310
FFFFFFFFFFFFFFFFFFFFFFFFFFFFFFFFFFFFFFFFFFFFFFFFF000FFFFFFFFFFFF
310
FFFFFFFFFFFFFFFFFFFFFFFFFFFFFFFFFFFFFFFFFFFFFFFFFFFFFFFFFFFFFFFF
310
FFFFFFFFFFFFFFFFFFFFFFFFFFFFFFFFFFFFFFFFFFFFFFFFFFFFFFFFFFFFFFFF
310
FFFFFFFFFFFFFFFFFFFFFFFFFFFFFFFFF000FFFFFFFFFFFFFFFFFFFFFFFFFFFF
310
FFFFFFFFFFFFFFFFFFFFFFFFFFFFFFFFFFFFFFFFFFFFFFFFFFFFFFFFFFFFFFFF
310
FFFFFFFFFFFFFFFFFFFFFFFFFFFFFFFFFFFFFFFFFFFFFFFFFFFFFFFFFFFFFFFF
310
FFFFFFFFFFFFFFFFF000FFFFFFFFFFFFFFFFFFFFFFFFFFFFFFFFFFFFFFFFFFFF
310
FFFFFFFFFFFFFFFFFFFFFFFFFFFFFFFFFFFFFFFFFFFFFFFFFFFFFFFFFFFFFFFF
310
FFFFFFFFFFFFFFFFFFFFFFFFFFFFFFFFFFFFFFFFFFFFFFFFFFFFFFFFFFFFFFFF
310
F000FFFFFFFFFFFFFFFFFFFFFFFFFFFFFFFFFFFFFFFFFFFFFFFFFFFFFFFFFFFF
310
FFFFFFFFFFFFFFFFFFFFFFFFFFFFFFFFFFFFFFFFFFFFFFFFFFFFFFFFFFFFFFFF
310
FFFFFFFFFFFFFFFFFFFFFFFFFFFFFFFFFFFFFFFFFFFFFFFFF000FFFFFFFFFFFF
310
FFFFFFFFFFFFFFFFFFFFFFFFFFFFFFFFFFFFFFFFFFFFFFFFFFFFFFFFFFFFFFFF
310
FFFFFFFFFFFFFFFFFFFFFFFFFFFFFFFFFFFFFFFFFFFFFFFFFFFFFFFFFFFFFFFF
310
FFFFFFFFFFFFFFFFFFFFFFFFFFFFFFFFF000FFFFFFFFFFFFFFFFFFFFFFFFFFFF
310
FFFFFFFFFFFFFFFFFFFFFFFFFFFFFFFFFFFFFFFFFFFFFFFFFFFFFFFFFFFFFFFF
310
FFFFFFFFFFFFFFFFFFFFFFFFFFFFFFFFFFFFFFFFFFFFFFFFFFFFFFFFFFFFFFFF
310
FFFFFFFFFFFFFFFFF000FFFFFFFFFFFFFFFFFFFFFFFFFFFFFFFFFFFFFFFFFFFF
310
FFFFFFFFFFFFFFFFFFFFFFFFFFFFFFFFFFFFFFFFFFFFFFFFFFFFFFFFFFFFFFFF
310
FFFFFFFFFFFFFFFFFFFFFFFFFFFFFFFFFFFFFFFFFFFFFFFFFFFFFFFFFFFFFFFF
310
F000FFFFFFFFFFFFFFFFFFFFFFFFFFFFFFFFFFFFFFFFFFFFFFFFFFFFFFFFFFFF
310
FFFFFFFFFFFFFFFFFFFFFFFFFFFFFFFFFFFFFFFFFFFFFFFFFFFFFFFFFFFFFFFF
310
FFFFFFFFFFFFFFFFFFFFFFFFFFFFFFFFFFFFFFFFFFFFFFFFF000FFFFFFFFFFFF
310
FFFFFFFFFFFFFFFFFFFFFFFFFFFFFFFFFFFFFFFFFFFFFFFFFFFFFFFFFFFFFFFF
310
FFFFFFFFFFFFFFFFFFFFFFFFFFFFFFFFFFFFFFFFFFFFFFFFFFFFFFFFFFFFFFFF
310
FFFFFFFFFFFFFFFFFFFFFFFFFFFFFFFFF000FFFFFFFFFFFFFFFFFFFFFFFFFFFF
310
FFFFFFFFFFFFFFFFFFFFFFFFFFFFFFFFFFFFFFFFFFFFFFFFFFFFFFFFFFFFFFFF
310
FFFFFFFFFFFFFFFFFFFFFFFFFFFFFFFFFFFFFFFFFFFFFFFFFFFFFFFFFFFFFFFF
310
FFFFFFFFFFFFFFFFF000FFFFF80003FFFFFFFFFFFFFFFFFFFFFFFFFFFFFFFFFF
310
FFFFF00007FFFFFFFFFF00007FFFFFF800000000000000007FFFFFFFFFFFFFFF
310
FFFFFFFC001FFFFFFFFFFFFFFC001FFFFFFFFFFFFFFFFFFFFFFFFFFE0007FFFF
310
F000FFFF8000007FFFFFFFF8000FFFFFC0007FFFFF80007FFFFF0000007FFFFF
310
FFF8000007FFFFF800000000000000007FFFFFF0001FFFFFFFFFFFC00001FFFF
310
FFFFFFFFC00001FFFFFFFF000000000003FFFFE000007FFFF000FFFE0000000F
310
FFFFFFF0000FFFFF80007FFFFF80007FFFFC0000001FFFFFFFC0000001FFFFF8
310
00000000000000007FFFFFF0001FFFFFFFFFFE0000003FFFFFFFFFFE0000003F
310
FFFFFF000000000003FFFF0000000FFFF000FFF800000003FFFFFFF00007FFFF
310
80007FFFFF80007FFFF000000007FFFFFF000000003FFFF80000000000000000
310
7FFFFFF0001FFFFFFFFFF80000000FFFFFFFFFF80000000FFFFFFF0000000000
310
03FFFC00000003FFF000FFE000000000FFFFFFF00007FFFF80003FFFFF80007F
310
FFC000000001FFFFFC000000001FFFF800000000000000007FFFFFF0001FFFFF
310
FFFFE000000003FFFFFFFFE000000003FFFFFF000000000003FFF000000000FF
310
F000FF80000000007FFFFFF00007FFFF80003FFFFF80007FFF8000000000FFFF
310
F80000000007FFF800000000000000007FFFFFF0001FFFFFFFFFC000000001FF
310
FFFFFFC000000001FFFFFF000000000003FFC0000000007FF000FF0000000000
310
3FFFFFE00007FFFF00003FFFFF80007FFE00000000003FFFF00000000003FFF8
310
00000000000000007FFFFFF0001FFFFFFFFF8000000000FFFFFFFF8000000000
310
FFFFFF000000000003FF80000000003FF000FE00000000001FFFFFE00003FFFF
310
00003FFFFF80007FFC00000000001FFFE00000000001FFF8000001FFFE000000
310
7FFFFFF0001FFFFFFFFE00000000003FFFFFFE00000000003FFFFF0000000000
310
03FF00000000001FF000FC00000000000FFFFFE00003FFFF00001FFFFF80007F
310
F800000000001FFFC00000000000FFF8000001FFFE0000007FFFFFF0001FFFFF
310
FFFC00000000001FFFFFFC00000000001FFFFF000000000003FE00000000000F
310
F000F8000000000007FFFFE00003FFFF00001FFFFF80007FF800000000000FFF
310
800000000000FFF8000001FFFE0000007FFFFFF0001FFFFFFFF800000000000F
310
FFFFF800000000000FFFFF000000000003FC000000000007F000F80000000000
310
03FFFFC00003FFFE00001FFFFF80007FF0000000000007FF0000000000007FF8
310
000001FFFE0000007FFFFFF0001FFFFFFFF0000000000007FFFFF00000000000
310
07FFFF000000000003F8000000000003F000F0000000000003FFFFC00001FFFE
310
00001FFFFF80007FE0000000000007FE0000000000003FF8000001FFFE000000
310
7FFFFFF0001FFFFFFFF0000000000007FFFFF0000000000007FFFF0000000000
310
03F800001F800003F000E00001FFF00001FFFFC00001FFFE00000FFFFF80007F
310
E00001FFE00003FE00001FFF00003FF8000001FFFE0000007FFFFFF0001FFFFF
310
FFE000003E000003FFFFE000003E000003FFFF000000000003F00001FFF80001
310
F000E00007FFFC0001FFFFC00001FFFE00000FFFFF80007FC0000FFFFC0003FC
310
0000FFFFC0001FF8000001FFFE0000007FFFFFF0001FFFFFFFC00003FFE00001
310
FFFFC00003FFE00001FFFF0001FFFFFFFFF00007FFFE0001F000E0000FFFFF00
310
00FFFF800001FFFC00000FFFFF80007FC0001FFFFE0001FC0001FFFFE0001FF8
310
000001FFFE0000007FFFFFF0001FFFFFFF80000FFFF80000FFFF80000FFFF800
310
00FFFF0003FFFFFFFFE0000FFFFF8000F000C0003FFFFF8000FFFF800000FFFC
310
000007FFFF80007F80003FFFFF0001FC0003FFFFF0001FF8000001FFFE000000
310
7FFFFFF0001FFFFFFF80003FFFFE0000FFFF80003FFFFE0000FFFF0003FFFFFF
310
FFE0003FFFFF8000F000C0003FFFFF8000FFFF800000FFFC000007FFFF80007F
310
80007FFFFF8001F80007FFFFF8000FF8000001FFFE0000007FFFFFF0001FFFFF
310
FF00007FFFFF00007FFF00007FFFFF00007FFF0003FFFFFFFFE0003FFFFFC000
310
F000C0007FFFFFC000FFFF000000FFFC000007FFFF80007F8000FFFFFF8000F8
310
000FFFFFF8000FF8000001FFFE0000007FFFFFF0001FFFFFFF0000FFFFFF8000
310
7FFF0000FFFFFF80007FFF0003FFFFFFFFC0007FFFFFC00070008000FFFFFFC0
310
00FFFF000000FFF8000007FFFF80007F8000FFFFFF8000F8000FFFFFF8000FF8
310
000001FFFE0000007FFFFFF0001FFFFFFE0001FFFFFFC0003FFE0001FFFFFFC0
310
003FFF0003FFFFFFFFC0007FFFFFE00070008000FFFFFFC0007FFF0000007FF8
310
000003FFFF80007F0001FFFFFF8000F8000FFFFFF8000FF8000001FFFE000000
310
7FFFFFF0001FFFFFFE0001FFFFFFC0003FFE0001FFFFFFC0003FFF0003FFFFFF
310
FFC000FFFFFFE00070008000FFFFFFC0007FFF0000007FF8000003FFFF80007F
310
0001FFFFFF8000F8001FFFFFF8000FF8000001FFFE0000007FFFFFF0001FFFFF
310
FE0003FFFFFFE0003FFE0003FFFFFFE0003FFF0003FFFFFFFFC000FFFFFFE000
310
70008000FFFFFFC0007FFE0000007FF8000003FFFF80007F0001FFFFFF8000F0
310
001FFFFFF8000FF8000001FFFE0000007FFFFFF0001FFFFFFC0003FFFFFFE000
310
1FFC0003FFFFFFE0001FFF0003FFFFFFFFC000FFFFFFC00070008000FFFFFF80
310
007FFE0000007FF0000003FFFF80007F0001FFFFFF0000F0001FFFFFF8000FF8
310
000001FFFE0000007FFFFFF0001FFFFFFC0007FFFFFFF0001FFC0007FFFFFFF0
310
001FFF0003FFFFFFFFC000FFFFFFC00070008001FFFFFF0000FFFE0000003FF0
310
000001FFFF80007F0001FFFFFF0000F8001FFFFFF0000FF8000001FFFE000000
310
7FFFFFF0001FFFFFFC0007FFFFFFF0001FFC0007FFFFFFF0001FFF0003FFFFFF
310
FFC001FFFFFF80007000FFFFFFFFFE0000FFFE0008003FF0008001FFFF80007F
310
FFFFFFFFFC0000FFFFFFFFFFE0000FF8000001FFFE0000007FFFFFF0001FFFFF
310
F8000FFFFFFFF8000FF8000FFFFFFFF8000FFF0003FFFFFFFFFFFFFFFFFF0000
310
7000FFFFFFFFFC0000FFFC0008003FF0008001FFFF80007FFFFFFFFFF80001FF
310
FFFFFFFF80000FF8000001FFFE0000007FFFFFF0001FFFFFF8000FFFFFFFF800
310
0FF8000FFFFFFFF8000FFF0003FFFFFFFFFFFFFFFFFE0000F000FFFFFFFFE000
310
00FFFC000C003FE000C001FFFF80007FFFFFFFFFC00001FFFFFFFFFE00001FF8
310
000001FFFE0000007FFFFFF0001FFFFFF8000FFFFFFFF8000FF8000FFFFFFFF8
310
000FFF0003FFFFFFFFFFFFFFFFF00000F000FFFFFFFE000001FFFC000C001FE0
310
00C000FFFF80007FFFFFFFFE000001FFFFFFFFE000001FF80FFFFFFFFFFFFFC0
310
7FFFFFF0001FFFFFF8000FFFFFFFF8000FF8000FFFFFFFF8000FFF0003FFFFFF
310
FFFFFFFFFF800000F000FFFFFFC0000001FFFC001C001FE001C000FFFF80007F
310
FFFFFF80000003FFFFFFF80000001FF80FFFFFFFFFFFFFC07FFFFFF0001FFFFF
310
F8001FFFFFFFFC000FF8001FFFFFFFFC000FFF0003FFFFFFFFFFFFFFF0000001
310
F000FFFFF800000001FFF8001C001FE001C000FFFF80007FFFFFF800000003FF
310
FFFF800000003FF80FFFFFFFFFFFFFC07FFFFFF0001FFFFFF8001FFFFFFFFC00
310
0FF8001FFFFFFFFC000FFF0003FFFFFFFFFFFFFE00000001F000FFFFC0000000
310
03FFF8001E001FC001E000FFFF80007FFFFF8000000007FFFFFC000000003FF8
310
0FFFFFFFFFFFFFC07FFFFFF0001FFFFFF8001FFFFFFFFC000FF8001FFFFFFFFC
310
000FFF0003FFFFFFFFFFFFE000000003F000FFFE0000000007FFF8001E000FC0
310
01E0007FFF80007FFFFE0000000007FFFFE0000000007FF80FFFFFFFFFFFFFC0
310
7FFFFFF0001FFFFFF0001FFFFFFFFC0007F0001FFFFFFFFC0007FF0003FFFFFF
310
FFFFFF0000000003F000FFF80000000007FFF8001E000FC003E0007FFF80007F
310
FFF0000000000FFFFF8000000000FFF80FFFFFFFFFFFFFC07FFFFFF0001FFFFF
310
F0001FFFFFFFFC0007F0001FFFFFFFFC0007FF0003FFFFFFFFFFFC0000000007
310
F000FFE0000000000FFFF0003E000FC003E0007FFF80007FFFC0000000001FFF
310
FE0000000001FFF80FFFFFFFFFFFFFC07FFFFFF0001FFFFFF0001FFFFFFFFC00
310
07F0001FFFFFFFFC0007FF0003FFFFFFFFFFF0000000000FF000FFC000000000
310
1FFFF0003F000F8003F0003FFF80007FFF80000000003FFFF80000000003FFF8
310
0FFFFFFFFFFFFFC07FFFFFF0001FFFFFF0001FFFFFFFFC0007F0001FFFFFFFFC
310
0007FF0003FFFFFFFFFFE0000000001FF000FF00000000007FFFF0003F000780
310
03F0003FFF80007FFF00000000007FFFF00000000007FFF80FFFFFFFFFFFFFC0
310
7FFFFFF0001FFFFFF0001FFFFFFFFC0007F0001FFFFFFFFC0007FF0003FFFFFF
310
FFFF80000000007FF000FE0000000000FFFFE0003F00078007F0003FFF80007F
310
FE0000000001FFFFE0000000001FFFF80FFFFFFFFFFFFFC07FFFFFF0001FFFFF
310
F0001FFFFFFFFC0007F0001FFFFFFFFC0007FF0003FFFFFFFFFF0000000000FF
310
F000FC0000000003FFFFE0007F00078007F0003FFF80007FFC0000000007FFFF
310
C0000000007FFFF80FFFFFFFFFFFFFC07FFFFFF0001FFFFFF8001FFFFFFFFC00
310
0FF8001FFFFFFFFC000FFF0003FFFFFFFFFE0000000003FFF000FC000000000F
310
FFFFE0007F80070007F8001FFF80007FF8000000001FFFFF8000000001FFFFF8
310
0FFFFFFFFFFFFFC07FFFFFF0001FFFFFF8001FFFFFFFFC000FF8001FFFFFFFFC
310
000FFF0003FFFFFFFFFC000000000FFFF000F8000000007FFFFFE0007F800700
310
07F8001FFF80007FF000000000FFFFFF800000000FFFFFF80FFFFFFFFFFFFFC0
310
7FFFFFF0001FFFFFF8000FFFFFFFF8000FF8000FFFFFFFF8000FFF0003FFFFFF
310
FFFC000000007FFFF000F800000007FFFFFFC0007F8003000FF8001FFF80007F
310
F000000007FFFFFF000000007FFFFFF80FFFFFFFFFFFFFC07FFFFFF0001FFFFF
310
F8000FFFFFFFF8000FF8000FFFFFFFF8000FFF0003FFFFFFFFF80000000FFFFF
310
F000F0000000FFFFFFFFC000FF8003000FF8001FFF80007FE0000000FFFFFFFF
310
0000000FFFFFFFF8000001FFFE0000007FFFFFF0001FFFFFF8000FFFFFFFF800
310
0FF8000FFFFFFFF8000FFF0003FFFFFFFFF8000000FFFFFFF000F000000FFFFF
310
FFFFC000FFC002000FF8000FFF80007FE000001FFFFFFFFE000001FFFFFFFFF8
310
000001FFFE0000007FFFFFF0001FFFFFF8000FFFFFFFF8000FF8000FFFFFFFF8
310
000FFF0003FFFFFFFFF000001FFFFFFFF000E00000FFFFFFFFFFC000FFC00200
310
0FFC000FFF80007FE00001FFFFFFFFFE00001FFFFFFFFFF8000001FFFE000000
310
7FFFFFF0001FFFFFFC000FFFFFFFF8001FFC000FFFFFFFF8001FFF0003FFFFFF
310
FFF00001FFFFFFFFF000E00007FFFFFFFFFF8000FFC000001FFC000FFF80007F
310
C0000FFFFFFFFFFE0000FFFFFFFFFFF8000001FFFE0000007FFFFFF0001FFFFF
310
FC0007FFFFFFF0001FFC0007FFFFFFF0001FFF0003FFFFFFFFF00007FFFFFFFF
310
F000E0001FFFFFFFFFFF8000FFC000001FFC000FFF80007FC0003FFFFFFFFFFE
310
0001FFFFFFFFFFF8000001FFFE0000007FFFFFF0001FFFFFFC0007FFFFFFF000
310
1FFC0007FFFFFFF0001FFF0003FFFFFFFFF0001FFFFFFFFFF000E0003FFFFF00
310
03FF8001FFE000001FFC0007FF80007FC0007FFFFF0007FC0003FFFFF0003FF8
310
000001FFFE0000007FFFFFF0001FFFFFFC0003FFFFFFE0001FFC0003FFFFFFE0
310
001FFF0003FFFFFFFFF0003FFFFFFFFFF000E0003FFFFF0001FF8001FFE00000
310
1FFE0007FF80007FC0007FFFFE0003FC0007FFFFE0003FF8000001FFFE000000
310
7FFFFFF0001FFFFFFE0003FFFFFFE0003FFE0003FFFFFFE0003FFF0003FFFFFF
310
FFF0003FFFFF8001F000E0003FFFFF0001FF0001FFE000001FFE0007FF80007F
310
C0007FFFFE0003FC0007FFFFE0003FF8000001FFFE0000007FFFFFF0001FFFFF
310
FE0001FFFFFFC0003FFE0001FFFFFFC0003FFF0003FFFFFFFFF0003FFFFF0001
310
F000E0003FFFFF0003FF0001FFE000003FFE0007FF80007FC0007FFFFE0003FC
310
0007FFFFE0003FF8000001FFFE0000007FFFFFF0001FFFFFFF0001FFFFFFC000
310
7FFF0001FFFFFFC0007FFF0003FFFFFFFFF0003FFFFF0001F000E0003FFFFE00
310
03FF0003FFF000003FFE0003FF80007FC0007FFFFC0003FE0007FFFFE0003FF8
310
000001FFFE0000007FFFFFF0001FFFFFFF0000FFFFFF80007FFF0000FFFFFF80
310
007FFF0003FFFFFFFFF0003FFFFF0001F000E0003FFFFE0003FF0003FFF00000
310
3FFF0003FF80007FC0007FFFFC0007FE0007FFFFC0003FF8000001FFFE000000
310
7FFFFFF0001FFFFFFF80007FFFFF0000FFFF80007FFFFF0000FFFF0003FFFFFF
310
FFF0003FFFFF0003F000E0003FFFFC0003FE0003FFF000003FFF0003FF80007F
310
E0003FFFF80007FE0003FFFFC0007FF8000001FFFE0000007FFFFFF0001FFFFF
310
FF80003FFFFE0000FFFF80003FFFFE0000FFFF0003FFFFFFFFF0001FFFFE0003
310
F000F0001FFFF80003FE0003FFF000007FFF0001FF80007FE0003FFFF00007FE
310
0001FFFF80007FF8000001FFFE0000007FFFFFF0001FFFFFFFC0000FFFF80001
310
FFFFC0000FFFF80001FFFF0003FFFFFFFFF0001FFFFC0003F000F0000FFFF000
310
07FE0007FFF800007FFF0001FF80007FE0001FFFE00007FF0000FFFE00007FF8
310
000001FFFE0000007FFFFFF0001FFFFFFFC00003FFE00001FFFFC00003FFE000
310
01FFFF0003FFFFFFFFF8000FFFF80003F000F00003FFC00007FC0007FFF80000
310
7FFF8001FF80007FF00007FF80000FFF00007FF80000FFF8000001FFFE000000
310
7F80000000000001FFE000003E000003FFFFE000003E000003FFFF0003FFFFFF
310
FFF80003FFE00007F000F800000000000FFC0007FFF800007FFF8001FF80007F
310
F000000000000FFF000000000000FFF8000001FFFE0000007F80000000000001
310
FFF0000000000007FFFFF0000000000007FFFF0003FFFFFFFFFC00007E000007
310
F000F800000000000FFC0007FFF80000FFFF8000FF80007FF800000000001FFF
310
800000000001FFF8000001FFFE0000007F80000000000001FFF800000000000F
310
FFFFF800000000000FFFFF0003FFFFFFFFFC00000000000FF000FC0000000000
310
1FFC0007FFFC0000FFFF8000FF80007FF800000000003FFFC00000000001FFF8
310
000001FFFE0000007F80000000000001FFF800000000000FFFFFF80000000000
310
0FFFFF0003FFFFFFFFFE00000000001FF000FE00000000003FF8000FFFFC0000
310
FFFF8000FF80007FFC00000000003FFFC00000000003FFF8000001FFFE000000
310
7F80000000000001FFFC00000000001FFFFFFC00000000001FFFFF0003FFFFFF
310
FFFF00000000001FF000FF00000000003FF8000FFFFC0000FFFFC000FF80007F
310
FE00000000007FFFE00000000007FFF8000001FFFE0000007F80000000000001
310
FFFE00000000003FFFFFFE00000000003FFFFF0003FFFFFFFFFF80000000003F
310
F000FF80000000007FF8000FFFFC0001FFFFC0007F80007FFF0000000000FFFF
310
F0000000000FFFF800000000000000007F80000000000001FFFF8000000000FF
310
FFFFFF8000000000FFFFFF0003FFFFFFFFFFC0000000007FF000FFC000000000
310
FFF8000FFFFE0001FFFFC0007F80007FFF8000000001FFFFF8000000001FFFF8
310
00000000000000007F80000000000001FFFFC000000001FFFFFFFFC000000001
310
FFFFFF0003FFFFFFFFFFE000000000FFF000FFE000000003FFF0001FFFFE0001
310
FFFFC0007F80007FFFC000000007FFFFFE000000003FFFF80000000000000000
310
7F80000000000001FFFFE000000003FFFFFFFFE000000003FFFFFF0003FFFFFF
310
FFFFF000000003FFF000FFF80000000FFFF0001FFFFE0001FFFFE0007F80007F
310
FFF00000000FFFFFFF00000000FFFFF800000000000000007F80000000000001
310
FFFFF80000000FFFFFFFFFF80000000FFFFFFF0003FFFFFFFFFFFC0000000FFF
310
F000FFFE0000003FFFF0001FFFFE0003FFFFE0003F80007FFFFC0000003FFFFF
310
FFC0000003FFFFF800000000000000007F80000000000001FFFFFE0000003FFF
310
FFFFFFFE0000003FFFFFFF0003FFFFFFFFFFFF0000003FFFF000FFFF800000FF
310
FFF0001FFFFF0003FFFFE0003F80007FFFFF000001FFFFFFFFF800001FFFFFF8
310
00000000000000007F80000000000001FFFFFFC00001FFFFFFFFFFFFC00001FF
310
FFFFFF0003FFFFFFFFFFFFC00000FFFFF000FFFFF8000FFFFFFFFFFFFFFFFFFF
310
FFFFFFFFFFFFFFFFFFFFF0001FFFFFFFFFFF0000FFFFFFF80000000000000000
310
7FFFFFFFFFFFFFFFFFFFFFFC001FFFFFFFFFFFFFFC001FFFFFFFFFFFFFFFFFFF
310
FFFFFFFC001FFFFFF000FFFFFFFFFFFFFFFFFFFFFFFFFFFFFFFFFFFFFFFFFFFF
310
FFFFFFFFFFFFFFFFFFFFFFFFFFFFFFFFFFFFFFFFFFFFFFFFFFFFFFFFFFFFFFFF
310
FFFFFFFFFFFFFFFFFFFFFFFFFFFFFFFFFFFFFFFFFFFFFFFFFFFFFFFFFFFFFFFF
310
F000FFFFFFFFFFFFFFFFFFFFFFFFFFFFFFFFFFFFFFFFFFFFFFFFFFFFFFFFFFFF
310
FFFFFFFFFFFFFFFFFFFFFFFFFFFFFFFFFFFFFFFFFFFFFFFFFFFFFFFFFFFFFFFF
310
FFFFFFFFFFFFFFFFFFFFFFFFFFFFFFFFFFFFFFFFFFFFFFFFF000FFFFFFFFFFFF
310
FFFFFFFFFFFFFFFFFFFFFFFFFFFFFFFFFFFFFFFFFFFFFFFFFFFFFFFFFFFFFFFF
310
FFFFFFFFFFFFFFFFFFFFFFFFFFFFFFFFFFFFFFFFFFFFFFFFFFFFFFFFFFFFFFFF
310
FFFFFFFFFFFFFFFFFFFFFFFFFFFFFFFFF000FFFFFFFFFFFFFFFFFFFFFFFFFFFF
310
FFFFFFFFFFFFFFFFFFFFFFFFFFFFFFFFFFFFFFFFFFFFFFFFFFFFFFFFFFFFFFFF
310
FFFFFFFFFFFFFFFFFFFFFFFFFFFFFFFFFFFFFFFFFFFFFFFFFFFFFFFFFFFFFFFF
310
FFFFFFFFFFFFFFFFF000FFFFFFFFFFFFFFFFFFFFFFFFFFFFFFFFFFFFFFFFFFFF
310
FFFFFFFFFFFFFFFFFFFFFFFFFFFFFFFFFFFFFFFFFFFFFFFFFFFFFFFFFFFFFFFF
310
FFFFFFFFFFFFFFFFFFFFFFFFFFFFFFFFFFFFFFFFFFFFFFFFFFFFFFFFFFFFFFFF
310
F000FFFFFFFFFFFFFFFFFFFFFFFFFFFFFFFFFFFFFFFFFFFFFFFFFFFFFFFFFFFF
310
FFFFFFFFFFFFFFFFFFFFFFFFFFFFFFFFFFFFFFFFFFFFFFFFFFFFFFFFFFFFFFFF
310
FFFFFFFFFFFFFFFFFFFFFFFFFFFFFFFFFFFFFFFFFFFFFFFFF000FFFFFFFFFFFF
310
FFFFFFFFFFFFFFFFFFFFFFFFFFFFFFFFFFFFFFFFFFFFFFFFFFFFFFFFFFFFFFFF
310
FFFFFFFFFFFFFFFFFFFFFFFFFFFFFFFFFFFFFFFFFFFFFFFFFFFFFFFFFFFFFFFF
310
FFFFFFFFFFFFFFFFFFFFFFFFFFFFFFFFF000FFFFFFFFFFFFFFFFFFFFFFFFFFFF
310
FFFFFFFFFFFFFFFFFFFFFFFFFFFFFFFFFFFFFFFFFFFFFFFFFFFFFFFFFFFFFFFF
310
FFFFFFFFFFFFFFFFFFFFFFFFFFFFFFFFFFFFFFFFFFFFFFFFFFFFFFFFFFFFFFFF
310
FFFFFFFFFFFFFFFFF000FFFFFFFFFFFFFFFFFFFFFFFFFFFFFFFFFFFFFFFFFFFF
310
FFFFFFFFFFFFFFFFFFFFFFFFFFFFFFFFFFFFFFFFFFFFFFFFFFFFFFFFFFFFFFFF
310
FFFFFFFFFFFFFFFFFFFFFFFFFFFFFFFFFFFFFFFFFFFFFFFFFFFFFFFFFFFFFFFF
310
F000FFFFFFFFFFFFFFFFFFFFFFFFFFFFFFFFFFFFFFFFFFFFFFFFFFFFFFFFFFFF
310
FFFFFFFFFFFFFFFFFFFFFFFFFFFFFFFFFFFFFFFFFFFFFFFFFFFFFFFFFFFFFFFF
310
FFFFFFFFFFFFFFFFFFFFFFFFFFFFFFFFFFFFFFFFFFFFFFFFF000FFFFFFFFFFFF
310
FFFFFFFFFFFFFFFFFFFFFFFFFFFFFFFFFFFFFFFFFFFFFFFFFFFFFFFFFFFFFFFF
310
FFFFFFFFFFFFFFFFFFFFFFFFFFFFFFFFFFFFFFFFFFFFFFFFFFFFFFFFFFFFFFFF
310
FFFFFFFFFFFFFFFFFFFFFFFFFFFFFFFFF000FFFFFFFFFFFFFFFFFFFFFFFFFFFF
310
FFFFFFFFFFFFFFFFFFFFFFFFFFFFFFFFFFFFFFFFFFFFFFFFFFFFFFFFFFFFFFFF
310
FFFFFFFFFFFFFFFFFFFFFFFFFFFFFFFFFFFFFFFFFFFFFFFFFFFFFFFFFFFFFFFF
310
FFFFFFFFFFFFFFFFF000FFFFFFFFFFFFFFFFFFFFFFFFFFFFFFFFFFFFFFFFFFFF
310
FFFFFFFFFFFFFFFFFFFFFFFFFFFFFFFFFFFFFFFFFFFFFFFFFFFFFFFFFFFFFFFF
310
FFFFFFFFFFFFFFFFFFFFFFFFFFFFFFFFFFFFFFFFFFFFFFFFFFFFFFFFFFFFFFFF
310
F000FFFFFFFFFFFFFFFFFFFFFFFFFFFFFFFFFFFFFFFFFFFFFFFFFFFFFFFFFFFF
310
FFFFFFFFFFFFFFFFFFFFFFFFFFFFFFFFFFFFFFFFFFFFFFFFFFFFFFFFFFFFFFFF
310
FFFFFFFFFFFFFFFFFFFFFFFFFFFFFFFFFFFFFFFFFFFFFFFFF000FFFFFFFFFFFF
310
FFFFFFFFFFFFFFFFFFFFFFFFFFFFFFFFFFFFFFFFFFFFFFFFFFFFFFFFFFFFFFFF
310
FFFFFFFFFFFFFFFFFFFFFFFFFFFFFFFFFFFFFFFFFFFFFFFFFFFFFFFFFFFFFFFF
310
FFFFFFFFFFFFFFFFFFFFFFFFFFFFFFFFF000FFFFFFFFFFFFFFFFFFFFFFFFFFFF
310
FFFFFFFFFFFFFFFFFFFFFFFFFFFFFFFFFFFFFFFFFFFFFFFFFFFFFFFFFFFFFFFF
310
FFFFFFFFFFFFFFFFFFFFFFFFFFFFFFFFFFFFFFFFFFFFFFFFFFFFFFFFFFFFFFFF
310
FFFFFFFFFFFFFFFFF000FFFFFFFFFFFFFFFFFFFFFFFFFFFFFFFFFFFFFFFFFFFF
310
FFFFFFFFFFFFFFFFFFFFFFFFFFFFFFFFFFFFFFFFFFFFFFFFFFFFFFFFFFFFFFFF
310
FFFFFFFFFFFFFFFFFFFFFFFFFFFFFFFFFFFFFFFFFFFFFFFFFFFFFFFFFFFFFFFF
310
F000FFFFFFFFFFFFFFFFFFFFFFFFFFFFFFFFFFFFFFFFFFFFFFFFFFFFFFFFFFFF
310
FFFFFFFFFFFFFFFFFFFFFFFFFFFFFFFFFFFFFFFFFFFFFFFFFFFFFFFFFFFFFFFF
310
FFFFFFFFFFFFFFFFFFFFFFFFFFFFFFFFFFFFFFFFFFFFFFFFF000FFFFFFFFFFFF
310
FFFFFFFFFFFFFFFFFFFFFFFFFFFFFFFFFFFFFFFFFFFFFFFFFFFFFFFFFFFFFFFF
310
FFFFFFFFFFFFFFFFFFFFFFFFFFFFFFFFFFFFFFFFFFFFFFFFFFFFFFFFFFFFFFFF
310
FFFFFFFFFFFFFFFFFFFFFFFFFFFFFFFFF000FFFFFFFFFFFFFFFFFFFFFFFFFFFF
310
FFFFFFFFFFFFFFFFFFFFFFFFFFFFFFFFFFFFFFFFFFFFFFFFFFFFFFFFFFFFFFFF
310
FFFFFFFFFFFFFFFFFFFFFFFFFFFFFFFFFFFFFFFFFFFFFFFFFFFFFFFFFFFFFFFF
310
FFFFFFFFFFFFFFFFF000FFFFFFFFFFFFFFFFFFFFFFFFFFFFFFFFFFFFFFFFFFFF
310
FFFFFFFFFFFFFFFFFFFFFFFFFFFFFFFFFFFFFFFFFFFFFFFFFFFFFFFFFFFFFFFF
310
FFFFFFFFFFFFFFFFFFFFFFFFFFFFFFFFFFFFFFFFFFFFFFFFFFFFFFFFFFFFFFFF
310
F000FFFFFFFFFFFFFFFFFFFFFFFFFFFFFFFFFFFFFFFFFFFFFFFFFFFFFFFFFFFF
310
FFFFFFFFFFFFFFFFFFFFFFFFFFFFFFFFFFFFFFFFFFFFFFFFFFFFFFFFFFFFFFFF
310
FFFFFFFFFFFFFFFFFFFFFFFFFFFFFFFFFFFFFFFFFFFFFFFFF000FFFFFFFFFFFF
310
FFFFFFFFFFFFFFFFFFFFFFFFFFFFFFFFFFFFFFFFFFFFFFFFFFFFFFFFFFFFFFFF
310
FFFFFFFFFFFFFFFFFFFFFFFFFFFFFFFFFFFFFFFFFFFFFFFFFFFFFFFFFFFFFFFF
310
FFFFFFFFFFFFFFFFFFFFFFFFFFFFFFFFF0000000000000000000000000000000
310
0000000000000000000000000000000000000000000000000000000000000000
310
0000000000000000000000000000000000000000000000000000000000000000
310
0000000000000000000000000000000000000000000000000000000000000000
310
0000000000000000000000000000000000000000000000000000000000000000
310
0000000000000000000000000000000000000000000000000000000000000000
310
0000000000000000000000000000000000000000000000000000000000000000
310
0000000000000000000000000000000000000000000000000000000000000000
310
0000000000000000000000000000000000000000000000000000000000000000
310
0000000000000000000000000000000000000000000000000000000000000000
310
0000000000000000000000000000000000000000000000000000000000000000
310
0000000000000000000000000000000000000000000000000000000000000000
310
0000000000000000000000000000000000000000000000000000000000000000
310
0000000000000000000000000000000000000000000000000000000000000000
310
0000000000000000000000000000000000000000000000000000000000000000
310
0000000000000000000000000000000000000000000000000000000000000000
  1
OLE
  0
ENDSEC
  0
SECTION
  2
OBJECTS
  0
DICTIONARY
  5
C
330
0
100
AcDbDictionary
281
     1
  3
ACAD_GROUP
350
D
  3
ACAD_LAYOUT
350
1A
  3
ACAD_MLINESTYLE
350
17
  3
ACAD_PLOTSETTINGS
350
19
  3
ACAD_PLOTSTYLENAME
350
E
  3
ACAD_SCALELIST
350
47
  0
DICTIONARY
  5
D
102
{ACAD_REACTORS
330
C
102
}
330
C
100
AcDbDictionary
281
     1
  0
DICTIONARY
  5
1A
102
{ACAD_REACTORS
330
C
102
}
330
C
100
AcDbDictionary
281
     1
  3
Layout1
350
1E
  3
Layout2
350
26
  3
Model
350
22
  0
DICTIONARY
  5
17
102
{ACAD_REACTORS
330
C
102
}
330
C
100
AcDbDictionary
281
     1
  3
Standard
350
18
  0
DICTIONARY
  5
19
102
{ACAD_REACTORS
330
C
102
}
330
C
100
AcDbDictionary
281
     1
  0
ACDBDICTIONARYWDFLT
  5
E
102
{ACAD_REACTORS
330
C
102
}
330
C
100
AcDbDictionary
281
     1
  3
Normal
350
F
100
AcDbDictionaryWithDefault
340
F
  0
DICTIONARY
  5
47
102
{ACAD_REACTORS
330
C
102
}
330
C
100
AcDbDictionary
281
     1
  3
A0
350
48
  3
A1
350
49
  3
A2
350
4A
  3
A3
350
4B
  3
A4
350
4C
  3
A5
350
4D
  3
A6
350
4E
  3
A7
350
4F
  3
A8
350
50
  3
A9
350
51
  3
B0
350
52
  3
B1
350
53
  3
B2
350
54
  3
B3
350
55
  3
B4
350
56
  3
B5
350
57
  3
B6
350
58
  3
B7
350
59
  3
B8
350
5A
  3
B9
350
5B
  3
C0
350
5C
  3
C1
350
5D
  3
C2
350
5E
  3
C3
350
5F
  3
C4
350
60
  3
C5
350
61
  3
C6
350
62
  3
C7
350
63
  3
C8
350
64
  3
C9
350
65
  3
D0
350
66
  3
D1
350
67
  3
D2
350
68
  0
LAYOUT
  5
1E
102
{ACAD_REACTORS
330
1A
102
}
330
1A
100
AcDbPlotSettings
  1

  2
none_device
  4

  6

 40
0.0
 41
0.0
 42
0.0
 43
0.0
 44
0.0
 45
0.0
 46
0.0
 47
0.0
 48
0.0
 49
0.0
140
0.0
141
0.0
142
1.0
143
1.0
 70
   688
 72
     1
 73
     0
 74
     5
  7

 75
    16
147
1.0
148
0.0
149
0.0
100
AcDbLayout
  1
Layout1
 70
     1
 71
     1
 10
0.0
 20
0.0
 11
420.0
 21
297.0
 12
0.0
 22
0.0
 32
0.0
 14
1.0000000000E+20
 24
1.0000000000E+20
 34
1.0000000000E+20
 15
-1.0000000000E+20
 25
-1.0000000000E+20
 35
-1.0000000000E+20
146
0.0
 13
0.0
 23
0.0
 33
0.0
 16
1.0
 26
0.0
 36
0.0
 17
0.0
 27
1.0
 37
0.0
 76
     0
330
1B
  0
LAYOUT
  5
26
102
{ACAD_REACTORS
330
1A
102
}
330
1A
100
AcDbPlotSettings
  1

  2
none_device
  4

  6

 40
0.0
 41
0.0
 42
0.0
 43
0.0
 44
0.0
 45
0.0
 46
0.0
 47
0.0
 48
0.0
 49
0.0
140
0.0
141
0.0
142
1.0
143
1.0
 70
   688
 72
     1
 73
     0
 74
     5
  7

 75
    16
147
1.0
148
0.0
149
0.0
100
AcDbLayout
  1
Layout2
 70
     1
 71
     2
 10
0.0
 20
0.0
 11
0.0
 21
0.0
 12
0.0
 22
0.0
 32
0.0
 14
0.0
 24
0.0
 34
0.0
 15
0.0
 25
0.0
 35
0.0
146
0.0
 13
0.0
 23
0.0
 33
0.0
 16
1.0
 26
0.0
 36
0.0
 17
0.0
 27
1.0
 37
0.0
 76
     0
330
23
  0
LAYOUT
  5
22
102
{ACAD_REACTORS
330
1A
102
}
330
1A
100
AcDbPlotSettings
  1

  2
none_device
  4
Letter_(8.50_x_11.00_Inches)
  6

 40
6.35
 41
6.35
 42
6.35000508
 43
6.35000508
 44
215.9
 45
279.4
 46
0.0
 47
0.0
 48
0.0
 49
0.0
140
0.0
141
0.0
142
1.0
143
1.0
 70
  1712
 72
     1
 73
     0
 74
     0
  7

 75
     0
147
1.0
148
0.0
149
0.0
100
AcDbLayout
  1
Model
 70
     1
 71
     0
 10
0.0
 20
0.0
 11
297.0
 21
210.0
 12
0.0
 22
0.0
 32
0.0
 14
0.0
 24
0.0
 34
0.0
 15
297.0
 25
210.0
 35
0.0
146
0.0
 13
0.0
 23
0.0
 33
0.0
 16
1.0
 26
0.0
 36
0.0
 17
0.0
 27
1.0
 37
0.0
 76
     0
330
1F
331
29
  0
MLINESTYLE
  5
18
102
{ACAD_REACTORS
330
17
102
}
330
17
100
AcDbMlineStyle
  2
Standard
 70
     0
  3

 62
   256
 51
90.0
 52
90.0
 71
     2
 49
0.5
 62
   256
  6
BYLAYER
 49
-0.5
 62
   256
  6
BYLAYER
  0
ACDBPLACEHOLDER
  5
F
102
{ACAD_REACTORS
330
E
102
}
330
E
  0
SCALE
  5
48
102
{ACAD_REACTORS
330
47
102
}
330
47
100
AcDbScale
 70
     0
300
1:1
140
1.0
141
1.0
290
     1
  0
SCALE
  5
49
102
{ACAD_REACTORS
330
47
102
}
330
47
100
AcDbScale
 70
     0
300
1:2
140
1.0
141
2.0
290
     0
  0
SCALE
  5
4A
102
{ACAD_REACTORS
330
47
102
}
330
47
100
AcDbScale
 70
     0
300
1:4
140
1.0
141
4.0
290
     0
  0
SCALE
  5
4B
102
{ACAD_REACTORS
330
47
102
}
330
47
100
AcDbScale
 70
     0
300
1:5
140
1.0
141
5.0
290
     0
  0
SCALE
  5
4C
102
{ACAD_REACTORS
330
47
102
}
330
47
100
AcDbScale
 70
     0
300
1:8
140
1.0
141
8.0
290
     0
  0
SCALE
  5
4D
102
{ACAD_REACTORS
330
47
102
}
330
47
100
AcDbScale
 70
     0
300
1:10
140
1.0
141
10.0
290
     0
  0
SCALE
  5
4E
102
{ACAD_REACTORS
330
47
102
}
330
47
100
AcDbScale
 70
     0
300
1:16
140
1.0
141
16.0
290
     0
  0
SCALE
  5
4F
102
{ACAD_REACTORS
330
47
102
}
330
47
100
AcDbScale
 70
     0
300
1:20
140
1.0
141
20.0
290
     0
  0
SCALE
  5
50
102
{ACAD_REACTORS
330
47
102
}
330
47
100
AcDbScale
 70
     0
300
1:30
140
1.0
141
30.0
290
     0
  0
SCALE
  5
51
102
{ACAD_REACTORS
330
47
102
}
330
47
100
AcDbScale
 70
     0
300
1:40
140
1.0
141
40.0
290
     0
  0
SCALE
  5
52
102
{ACAD_REACTORS
330
47
102
}
330
47
100
AcDbScale
 70
     0
300
1:50
140
1.0
141
50.0
290
     0
  0
SCALE
  5
53
102
{ACAD_REACTORS
330
47
102
}
330
47
100
AcDbScale
 70
     0
300
1:100
140
1.0
141
100.0
290
     0
  0
SCALE
  5
54
102
{ACAD_REACTORS
330
47
102
}
330
47
100
AcDbScale
 70
     0
300
2:1
140
2.0
141
1.0
290
     0
  0
SCALE
  5
55
102
{ACAD_REACTORS
330
47
102
}
330
47
100
AcDbScale
 70
     0
300
4:1
140
4.0
141
1.0
290
     0
  0
SCALE
  5
56
102
{ACAD_REACTORS
330
47
102
}
330
47
100
AcDbScale
 70
     0
300
8:1
140
8.0
141
1.0
290
     0
  0
SCALE
  5
57
102
{ACAD_REACTORS
330
47
102
}
330
47
100
AcDbScale
 70
     0
300
10:1
140
10.0
141
1.0
290
     0
  0
SCALE
  5
58
102
{ACAD_REACTORS
330
47
102
}
330
47
100
AcDbScale
 70
     0
300
100:1
140
100.0
141
1.0
290
     0
  0
SCALE
  5
59
102
{ACAD_REACTORS
330
47
102
}
330
47
100
AcDbScale
 70
     0
300
1/128" = 1'-0"
140
0.0078125
141
12.0
290
     0
  0
SCALE
  5
5A
102
{ACAD_REACTORS
330
47
102
}
330
47
100
AcDbScale
 70
     0
300
1/64" = 1'-0"
140
0.015625
141
12.0
290
     0
  0
SCALE
  5
5B
102
{ACAD_REACTORS
330
47
102
}
330
47
100
AcDbScale
 70
     0
300
1/32" = 1'-0"
140
0.03125
141
12.0
290
     0
  0
SCALE
  5
5C
102
{ACAD_REACTORS
330
47
102
}
330
47
100
AcDbScale
 70
     0
300
1/16" = 1'-0"
140
0.0625
141
12.0
290
     0
  0
SCALE
  5
5D
102
{ACAD_REACTORS
330
47
102
}
330
47
100
AcDbScale
 70
     0
300
3/32" = 1'-0"
140
0.09375
141
12.0
290
     0
  0
SCALE
  5
5E
102
{ACAD_REACTORS
330
47
102
}
330
47
100
AcDbScale
 70
     0
300
1/8" = 1'-0"
140
0.125
141
12.0
290
     0
  0
SCALE
  5
5F
102
{ACAD_REACTORS
330
47
102
}
330
47
100
AcDbScale
 70
     0
300
3/16" = 1'-0"
140
0.1875
141
12.0
290
     0
  0
SCALE
  5
60
102
{ACAD_REACTORS
330
47
102
}
330
47
100
AcDbScale
 70
     0
300
1/4" = 1'-0"
140
0.25
141
12.0
290
     0
  0
SCALE
  5
61
102
{ACAD_REACTORS
330
47
102
}
330
47
100
AcDbScale
 70
     0
300
3/8" = 1'-0"
140
0.375
141
12.0
290
     0
  0
SCALE
  5
62
102
{ACAD_REACTORS
330
47
102
}
330
47
100
AcDbScale
 70
     0
300
1/2" = 1'-0"
140
0.5
141
12.0
290
     0
  0
SCALE
  5
63
102
{ACAD_REACTORS
330
47
102
}
330
47
100
AcDbScale
 70
     0
300
3/4" = 1'-0"
140
0.75
141
12.0
290
     0
  0
SCALE
  5
64
102
{ACAD_REACTORS
330
47
102
}
330
47
100
AcDbScale
 70
     0
300
1" = 1'-0"
140
1.0
141
12.0
290
     0
  0
SCALE
  5
65
102
{ACAD_REACTORS
330
47
102
}
330
47
100
AcDbScale
 70
     0
300
1-1/2" = 1'-0"
140
1.5
141
12.0
290
     0
  0
SCALE
  5
66
102
{ACAD_REACTORS
330
47
102
}
330
47
100
AcDbScale
 70
     0
300
3" = 1'-0"
140
3.0
141
12.0
290
     0
  0
SCALE
  5
67
102
{ACAD_REACTORS
330
47
102
}
330
47
100
AcDbScale
 70
     0
300
6" = 1'-0"
140
6.0
141
12.0
290
     0
  0
SCALE
  5
68
102
{ACAD_REACTORS
330
47
102
}
330
47
100
AcDbScale
 70
     0
300
1'-0" = 1'-0"
140
12.0
141
12.0
290
     0
  0
ENDSEC
  0
EOF
