  0
SECTION
  2
HEADER
  9
$ACADVER
  1
AC1015
  9
$ACADMAINTVER
 70
     6
  9
$DWGCODEPAGE
  3
ANSI_1252
  9
$INSBASE
 10
0.0
 20
0.0
 30
0.0
  9
$EXTMIN
 10
0.0
 20
0.0
 30
0.0
  9
$EXTMAX
 10
297.0
 20
210.0
 30
0.0
  9
$LIMMIN
 10
0.0
 20
0.0
  9
$LIMMAX
 10
297.0
 20
210.0
  9
$ORTHOMODE
 70
     0
  9
$REGENMODE
 70
     1
  9
$FILLMODE
 70
     1
  9
$QTEXTMODE
 70
     0
  9
$MIRRTEXT
 70
     1
  9
$LTSCALE
 40
1.0
  9
$ATTMODE
 70
     1
  9
$TEXTSIZE
 40
2.0
  9
$TRACEWID
 40
1.0
  9
$TEXTSTYLE
  7
Standard
  9
$CLAYER
  8
0
  9
$CELTYPE
  6
ByLayer
  9
$CECOLOR
 62
   256
  9
$CELTSCALE
 40
1.0
  9
$DISPSILH
 70
     0
  9
$DIMSCALE
 40
1.0
  9
$DIMASZ
 40
3.0
  9
$DIMEXO
 40
0.0
  9
$DIMDLI
 40
3.75
  9
$DIMRND
 40
0.0
  9
$DIMDLE
 40
0.0
  9
$DIMEXE
 40
1.0
  9
$DIMTP
 40
0.0
  9
$DIMTM
 40
0.0
  9
$DIMTXT
 40
2.0
  9
$DIMCEN
 40
2.5
  9
$DIMTSZ
 40
0.0
  9
$DIMTOL
 70
     0
  9
$DIMLIM
 70
     0
  9
$DIMTIH
 70
     1
  9
$DIMTOH
 70
     1
  9
$DIMSE1
 70
     0
  9
$DIMSE2
 70
     0
  9
$DIMTAD
 70
     1
  9
$DIMZIN
 70
     0
  9
$DIMBLK
  1

  9
$DIMASO
 70
     1
  9
$DIMSHO
 70
     1
  9
$DIMPOST
  1

  9
$DIMAPOST
  1

  9
$DIMALT
 70
     0
  9
$DIMALTD
 70
     3
  9
$DIMALTF
 40
0.0393700787
  9
$DIMLFAC
 40
1.0
  9
$DIMTOFL
 70
     1
  9
$DIMTVP
 40
0.0
  9
$DIMTIX
 70
     0
  9
$DIMSOXD
 70
     0
  9
$DIMSAH
 70
     0
  9
$DIMBLK1
  1

  9
$DIMBLK2
  1

  9
$DIMSTYLE
  2
ISO-25
  9
$DIMCLRD
 70
     0
  9
$DIMCLRE
 70
     0
  9
$DIMCLRT
 70
     0
  9
$DIMTFAC
 40
1.0
  9
$DIMGAP
 40
1.524
  9
$DIMJUST
 70
     0
  9
$DIMSD1
 70
     0
  9
$DIMSD2
 70
     0
  9
$DIMTOLJ
 70
     0
  9
$DIMTZIN
 70
     0
  9
$DIMALTZ
 70
     0
  9
$DIMALTTZ
 70
     0
  9
$DIMUPT
 70
     0
  9
$DIMDEC
 70
     2
  9
$DIMTDEC
 70
     3
  9
$DIMALTU
 70
     2
  9
$DIMALTTD
 70
     3
  9
$DIMTXSTY
  7
Standard
  9
$DIMAUNIT
 70
     0
  9
$DIMADEC
 70
     2
  9
$DIMALTRND
 40
0.0
  9
$DIMAZIN
 70
     0
  9
$DIMDSEP
 70
    44
  9
$DIMATFIT
 70
     3
  9
$DIMFRAC
 70
     0
  9
$DIMLDRBLK
  1

  9
$DIMLUNIT
 70
     2
  9
$DIMLWD
 70
    -2
  9
$DIMLWE
 70
    -2
  9
$DIMTMOVE
 70
     0
  9
$LUNITS
 70
     2
  9
$LUPREC
 70
     2
  9
$SKETCHINC
 40
1.0
  9
$FILLETRAD
 40
10.0
  9
$AUNITS
 70
     0
  9
$AUPREC
 70
     2
  9
$MENU
  1
.
  9
$ELEVATION
 40
0.0
  9
$PELEVATION
 40
0.0
  9
$THICKNESS
 40
0.0
  9
$LIMCHECK
 70
     0
  9
$CHAMFERA
 40
0.0
  9
$CHAMFERB
 40
0.0
  9
$CHAMFERC
 40
0.0
  9
$CHAMFERD
 40
0.0
  9
$SKPOLY
 70
     0
  9
$TDCREATE
 40
2457655.637352593
  9
$TDUCREATE
 40
2457655.554019259
  9
$TDUPDATE
 40
2457655.637353669
  9
$TDUUPDATE
 40
2457655.554020335
  9
$TDINDWG
 40
0.0000000116
  9
$TDUSRTIMER
 40
0.0000000116
  9
$USRTIMER
 70
     1
  9
$ANGBASE
 50
0.0
  9
$ANGDIR
 70
     0
  9
$PDMODE
 70
     0
  9
$PDSIZE
 40
-1.0
  9
$PLINEWID
 40
0.0
  9
$SPLFRAME
 70
     0
  9
$SPLINETYPE
 70
     6
  9
$SPLINESEGS
 70
     8
  9
$HANDSEED
  5
1F2
  9
$SURFTAB1
 70
     6
  9
$SURFTAB2
 70
     6
  9
$SURFTYPE
 70
     6
  9
$SURFU
 70
     6
  9
$SURFV
 70
     6
  9
$UCSBASE
  2

  9
$UCSNAME
  2

  9
$UCSORG
 10
0.0
 20
0.0
 30
0.0
  9
$UCSXDIR
 10
1.0
 20
0.0
 30
0.0
  9
$UCSYDIR
 10
0.0
 20
1.0
 30
0.0
  9
$UCSORTHOREF
  2

  9
$UCSORTHOVIEW
 70
     0
  9
$UCSORGTOP
 10
0.0
 20
0.0
 30
0.0
  9
$UCSORGBOTTOM
 10
0.0
 20
0.0
 30
0.0
  9
$UCSORGLEFT
 10
0.0
 20
0.0
 30
0.0
  9
$UCSORGRIGHT
 10
0.0
 20
0.0
 30
0.0
  9
$UCSORGFRONT
 10
0.0
 20
0.0
 30
0.0
  9
$UCSORGBACK
 10
0.0
 20
0.0
 30
0.0
  9
$PUCSBASE
  2

  9
$PUCSNAME
  2

  9
$PUCSORG
 10
0.0
 20
0.0
 30
0.0
  9
$PUCSXDIR
 10
1.0
 20
0.0
 30
0.0
  9
$PUCSYDIR
 10
0.0
 20
1.0
 30
0.0
  9
$PUCSORTHOREF
  2

  9
$PUCSORTHOVIEW
 70
     0
  9
$PUCSORGTOP
 10
0.0
 20
0.0
 30
0.0
  9
$PUCSORGBOTTOM
 10
0.0
 20
0.0
 30
0.0
  9
$PUCSORGLEFT
 10
0.0
 20
0.0
 30
0.0
  9
$PUCSORGRIGHT
 10
0.0
 20
0.0
 30
0.0
  9
$PUCSORGFRONT
 10
0.0
 20
0.0
 30
0.0
  9
$PUCSORGBACK
 10
0.0
 20
0.0
 30
0.0
  9
$USERI1
 70
     0
  9
$USERI2
 70
     0
  9
$USERI3
 70
     0
  9
$USERI4
 70
     0
  9
$USERI5
 70
     0
  9
$USERR1
 40
0.0
  9
$USERR2
 40
0.0
  9
$USERR3
 40
0.0
  9
$USERR4
 40
0.0
  9
$USERR5
 40
0.0
  9
$WORLDVIEW
 70
     1
  9
$SHADEDGE
 70
     3
  9
$SHADEDIF
 70
    70
  9
$TILEMODE
 70
     1
  9
$MAXACTVP
 70
    64
  9
$PINSBASE
 10
0.0
 20
0.0
 30
0.0
  9
$PLIMCHECK
 70
     0
  9
$PEXTMIN
 10
1.0000000000E+20
 20
1.0000000000E+20
 30
1.0000000000E+20
  9
$PEXTMAX
 10
-1.0000000000E+20
 20
-1.0000000000E+20
 30
-1.0000000000E+20
  9
$PLIMMIN
 10
0.0
 20
0.0
  9
$PLIMMAX
 10
420.0
 20
297.0
  9
$UNITMODE
 70
     0
  9
$VISRETAIN
 70
     1
  9
$PLINEGEN
 70
     0
  9
$PSLTSCALE
 70
     1
  9
$TREEDEPTH
 70
  3020
  9
$CMLSTYLE
  2
Standard
  9
$CMLJUST
 70
     0
  9
$CMLSCALE
 40
20.0
  9
$PROXYGRAPHICS
 70
     1
  9
$MEASUREMENT
 70
     1
  9
$CELWEIGHT
370
    -1
  9
$ENDCAPS
280
     0
  9
$JOINSTYLE
280
     0
  9
$LWDISPLAY
290
     1
  9
$INSUNITS
 70
     4
  9
$HYPERLINKBASE
  1

  9
$STYLESHEET
  1

  9
$XEDIT
290
     1
  9
$CEPSNTYPE
380
     0
  9
$PSTYLEMODE
290
     1
  9
$FINGERPRINTGUID
  2
{FF7E92FC-12EB-40C7-85EA-5E8BA3531517}
  9
$VERSIONGUID
  2
{FAEB1C32-E019-11D5-929B-00C0DF256EC4}
  9
$EXTNAMES
290
     1
  9
$PSVPSCALE
 40
0.0
  9
$OLESTARTUP
290
     0
  0
ENDSEC
  0
SECTION
  2
CLASSES
  0
CLASS
  1
ACDBDICTIONARYWDFLT
  2
AcDbDictionaryWithDefault
  3
ObjectDBX Classes
 90
        0
280
     0
281
     0
  0
CLASS
  1
VISUALSTYLE
  2
AcDbVisualStyle
  3
ObjectDBX Classes
 90
     4095
280
     0
281
     0
  0
CLASS
  1
MATERIAL
  2
AcDbMaterial
  3
ObjectDBX Classes
 90
     1153
280
     0
281
     0
  0
CLASS
  1
SCALE
  2
AcDbScale
  3
ObjectDBX Classes
 90
     1153
280
     0
281
     0
  0
CLASS
  1
TABLESTYLE
  2
AcDbTableStyle
  3
ObjectDBX Classes
 90
     4095
280
     0
281
     0
  0
CLASS
  1
MLEADERSTYLE
  2
AcDbMLeaderStyle
  3
ACDB_MLEADERSTYLE_CLASS
 90
     4095
280
     0
281
     0
  0
CLASS
  1
SUN
  2
AcDbSun
  3
SCENEOE
 90
     1153
280
     0
281
     0
  0
CLASS
  1
ACDBPLACEHOLDER
  2
AcDbPlaceHolder
  3
ObjectDBX Classes
 90
        0
280
     0
281
     0
  0
CLASS
  1
LAYOUT
  2
AcDbLayout
  3
ObjectDBX Classes
 90
        0
280
     0
281
     0
  0
ENDSEC
  0
SECTION
  2
TABLES
  0
TABLE
  2
VPORT
  5
8
330
0
100
AcDbSymbolTable
 70
     1
  0
VPORT
  5
29
330
8
100
AcDbSymbolTableRecord
100
AcDbViewportTableRecord
  2
*Active
 70
     0
 10
0.0
 20
0.0
 11
1.0
 21
1.0
 12
148.5
 22
105.0
 13
0.0
 23
0.0
 14
10.0
 24
10.0
 15
10.0
 25
10.0
 16
0.0
 26
0.0
 36
1.0
 17
0.0
 27
0.0
 37
0.0
 40
210.0
 41
1.4142857143
 42
50.0
 43
0.0
 44
0.0
 50
0.0
 51
0.0
 71
     0
 72
  2000
 73
     1
 74
     3
 75
     0
 76
     0
 77
     0
 78
     0
281
     0
 65
     1
110
0.0
120
0.0
130
0.0
111
1.0
121
0.0
131
0.0
112
0.0
122
1.0
132
0.0
 79
     0
146
0.0
  0
ENDTAB
  0
TABLE
  2
LTYPE
  5
5
330
0
100
AcDbSymbolTable
 70
     6
  0
LTYPE
  5
14
330
5
100
AcDbSymbolTableRecord
100
AcDbLinetypeTableRecord
  2
ByBlock
 70
     0
  3

 72
    65
 73
     0
 40
0.0
  0
LTYPE
  5
15
330
5
100
AcDbSymbolTableRecord
100
AcDbLinetypeTableRecord
  2
ByLayer
 70
     0
  3

 72
    65
 73
     0
 40
0.0
  0
LTYPE
  5
16
330
5
100
AcDbSymbolTableRecord
100
AcDbLinetypeTableRecord
  2
Continuous
 70
     0
  3
Solid line
 72
    65
 73
     0
 40
0.0
  0
LTYPE
  5
6E
330
5
100
AcDbSymbolTableRecord
100
AcDbLinetypeTableRecord
  2
HIDDEN
 70
     0
  3
Hidden __ __ __ __ __ __ __ __ __ __ __ __ __ __
 72
    65
 73
     2
 40
1.905
 49
1.27
 74
     0
 49
-0.635
 74
     0
  0
LTYPE
  5
6F
330
5
100
AcDbSymbolTableRecord
100
AcDbLinetypeTableRecord
  2
PHANTOM
 70
     0
  3
Phantom ______  __  __  ______  __  __  ______
 72
    65
 73
     6
 40
12.7
 49
6.35
 74
     0
 49
-1.27
 74
     0
 49
1.27
 74
     0
 49
-1.27
 74
     0
 49
1.27
 74
     0
 49
-1.27
 74
     0
  0
LTYPE
  5
70
330
5
100
AcDbSymbolTableRecord
100
AcDbLinetypeTableRecord
  2
CENTER
 70
     0
  3
Center ____ _ ____ _ ____ _ ____ _ ____ _ ____
 72
    65
 73
     4
 40
10.16
 49
6.35
 74
     0
 49
-1.27
 74
     0
 49
1.27
 74
     0
 49
-1.27
 74
     0
  0
LTYPE
  5
71
330
5
100
AcDbSymbolTableRecord
100
AcDbLinetypeTableRecord
  2
CENTERX2
 70
     0
  3
Center (2x) ________  __  ________  __  _____
 72
    65
 73
     4
 40
20.32
 49
12.7
 74
     0
 49
-2.54
 74
     0
 49
2.54
 74
     0
 49
-2.54
 74
     0
  0
LTYPE
  5
72
330
5
100
AcDbSymbolTableRecord
100
AcDbLinetypeTableRecord
  2
DOT2
 70
     0
  3
Dot (.5x) ........................................
 72
    65
 73
     2
 40
0.635
 49
0.0
 74
     0
 49
-0.635
 74
     0
  0
ENDTAB
  0
TABLE
  2
LAYER
  5
2
330
0
100
AcDbSymbolTable
 70
     5
  0
LAYER
  5
10
330
2
100
AcDbSymbolTableRecord
100
AcDbLayerTableRecord
  2
0
 70
     0
 62
     7
  6
Continuous
370
    -3
390
F
  0
LAYER
  5
73
330
2
100
AcDbSymbolTableRecord
100
AcDbLayerTableRecord
  2
FORMAT
 70
     0
 62
     7
  6
Continuous
370
    -3
390
F
  0
LAYER
  5
74
330
2
100
AcDbSymbolTableRecord
100
AcDbLayerTableRecord
  2
VERMASSUNG
 70
     0
 62
     7
  6
Continuous
370
    -3
390
F
  0
LAYER
  5
75
330
2
100
AcDbSymbolTableRecord
100
AcDbLayerTableRecord
  2
KOPF_DÜNN
 70
     0
 62
     7
  6
Continuous
370
    -3
390
F
  0
LAYER
  5
76
330
2
100
AcDbSymbolTableRecord
100
AcDbLayerTableRecord
  2
KOPF_DICK
 70
     0
 62
     7
  6
Continuous
370
    15
390
F
  0
ENDTAB
  0
TABLE
  2
STYLE
  5
3
330
0
100
AcDbSymbolTable
 70
     3
  0
STYLE
  5
11
330
3
100
AcDbSymbolTableRecord
100
AcDbTextStyleTableRecord
  2
Standard
 70
     0
 40
0.0
 41
1.0
 50
0.0
 71
     0
 42
2.0
  3
txt
  4

  0
STYLE
  5
77
330
3
100
AcDbSymbolTableRecord
100
AcDbTextStyleTableRecord
  2
SLDTEXTSTYLE0
 70
     0
 40
0.0
 41
0.7
 50
0.0
 71
     0
 42
2.0
  3
TXT
  4

  0
STYLE
  5
7B
330
3
100
AcDbSymbolTableRecord
100
AcDbTextStyleTableRecord
  2
SLDTEXTSTYLE1
 70
     0
 40
0.0
 41
0.6444444444
 50
0.0
 71
     0
 42
2.0
  3
TXT
  4

  0
ENDTAB
  0
TABLE
  2
VIEW
  5
6
330
0
100
AcDbSymbolTable
 70
     0
  0
ENDTAB
  0
TABLE
  2
UCS
  5
7
330
0
100
AcDbSymbolTable
 70
     0
  0
ENDTAB
  0
TABLE
  2
APPID
  5
9
330
0
100
AcDbSymbolTable
 70
     1
  0
APPID
  5
12
330
9
100
AcDbSymbolTableRecord
100
AcDbRegAppTableRecord
  2
ACAD
 70
     0
  0
ENDTAB
  0
TABLE
  2
DIMSTYLE
  5
A
330
0
100
AcDbSymbolTable
 70
     2
100
AcDbDimStyleTable
  0
DIMSTYLE
105
27
330
A
100
AcDbSymbolTableRecord
100
AcDbDimStyleTableRecord
  2
ISO-25
 70
     0
 41
2.5
 42
0.625
 43
3.75
 44
1.25
 73
     0
 74
     0
 77
     1
 78
     8
140
2.5
141
2.5
143
0.0393700787
147
0.625
171
     3
172
     1
178
     0
271
     2
272
     2
274
     3
278
    44
283
     0
284
     8
340
11
  0
DIMSTYLE
105
128
102
{ACAD_REACTORS
330
127
330
134
330
13E
330
148
330
152
102
}
330
A
100
AcDbSymbolTableRecord
100
AcDbDimStyleTableRecord
  2
SLDDIMSTYLE0
 70
     0
 41
3.0
 44
0.0
 45
0.000000001
 73
     0
 74
     0
 77
     1
 78
    12
 79
     3
140
2.0
147
0.5
173
     1
178
     0
271
     2
272
     3
276
     2
284
    12
340
77
  0
ENDTAB
  0
TABLE
  2
BLOCK_RECORD
  5
1
330
0
100
AcDbSymbolTable
 70
     6
  0
BLOCK_RECORD
  5
1F
330
1
100
AcDbSymbolTableRecord
100
AcDbBlockTableRecord
  2
*Model_Space
340
22
  0
BLOCK_RECORD
  5
1B
330
1
100
AcDbSymbolTableRecord
100
AcDbBlockTableRecord
  2
*Paper_Space
340
1E
  0
BLOCK_RECORD
  5
23
330
1
100
AcDbSymbolTableRecord
100
AcDbBlockTableRecord
  2
*Paper_Space0
340
26
  0
BLOCK_RECORD
  5
129
330
1
100
AcDbSymbolTableRecord
100
AcDbBlockTableRecord
  2
_D
340
0
  0
BLOCK_RECORD
  5
135
330
1
100
AcDbSymbolTableRecord
100
AcDbBlockTableRecord
  2
_D_1
340
0
  0
BLOCK_RECORD
  5
13F
330
1
100
AcDbSymbolTableRecord
100
AcDbBlockTableRecord
  2
_D_2
340
0
  0
BLOCK_RECORD
  5
149
330
1
100
AcDbSymbolTableRecord
100
AcDbBlockTableRecord
  2
_D_3
340
0
  0
BLOCK_RECORD
  5
153
330
1
100
AcDbSymbolTableRecord
100
AcDbBlockTableRecord
  2
_D_4
340
0
  0
ENDTAB
  0
ENDSEC
  0
SECTION
  2
BLOCKS
  0
BLOCK
  5
20
330
1F
100
AcDbEntity
  8
0
100
AcDbBlockBegin
  2
*Model_Space
 70
     0
 10
0.0
 20
0.0
 30
0.0
  3
*Model_Space
  1

  0
ENDBLK
  5
21
330
1F
100
AcDbEntity
  8
0
100
AcDbBlockEnd
  0
BLOCK
  5
1C
330
1B
100
AcDbEntity
 67
     1
  8
0
100
AcDbBlockBegin
  2
*Paper_Space
 70
     0
 10
0.0
 20
0.0
 30
0.0
  3
*Paper_Space
  1

  0
ENDBLK
  5
1D
330
1B
100
AcDbEntity
 67
     1
  8
0
100
AcDbBlockEnd
  0
BLOCK
  5
24
330
23
100
AcDbEntity
  8
0
100
AcDbBlockBegin
  2
*Paper_Space0
 70
     0
 10
0.0
 20
0.0
 30
0.0
  3
*Paper_Space0
  1

  0
ENDBLK
  5
25
330
23
100
AcDbEntity
  8
0
100
AcDbBlockEnd
  0
BLOCK
  5
12A
330
129
100
AcDbEntity
  8
0
100
AcDbBlockBegin
  2
_D
 70
     0
 10
0.0
 20
0.0
 30
0.0
  3
_D
  1

  0
SOLID
  5
12C
330
129
100
AcDbEntity
  8
VERMASSUNG
100
AcDbTrace
 10
77.9387118832
 20
137.7441067762
 30
0.0
 11
77.4887118832
 21
134.7441067762
 31
0.0
 12
78.3887118832
 22
134.7441067762
 32
0.0
 13
78.3887118832
 23
134.7441067762
 33
0.0
  0
SOLID
  5
12D
330
129
100
AcDbEntity
  8
VERMASSUNG
100
AcDbTrace
 10
77.9387118832
 20
74.7441067762
 30
0.0
 11
78.3887118832
 21
77.7441067762
 31
0.0
 12
77.4887118832
 22
77.7441067762
 32
0.0
 13
77.4887118832
 23
77.7441067762
 33
0.0
  0
LINE
  5
12E
330
129
100
AcDbEntity
  8
VERMASSUNG
100
AcDbLine
 10
172.322049244
 20
137.7441067762
 30
0.0
 11
76.9387118832
 21
137.7441067762
 31
0.0
  0
LINE
  5
12F
330
129
100
AcDbEntity
  8
VERMASSUNG
100
AcDbLine
 10
172.322054162
 20
74.7441067762
 30
0.0
 11
76.9387118832
 21
74.7441067762
 31
0.0
  0
LINE
  5
130
330
129
100
AcDbEntity
  8
VERMASSUNG
100
AcDbLine
 10
77.9387118832
 20
137.7441067762
 30
0.0
 11
77.9387118832
 21
74.7441067762
 31
0.0
  0
MTEXT
  5
131
330
129
100
AcDbEntity
  8
VERMASSUNG
100
AcDbMText
 10
75.160576627
 20
95.5396217092
 30
0.0
 40
2.0
 41
0.0
 71
     1
 72
     1
  1
MAS BT 40
  7
SLDTEXTSTYLE0
 11
-7.044195017643634E-15
 21
1.0
 31
0.0
 73
     1
 44
1.0
  0
MTEXT
  5
132
330
129
100
AcDbEntity
  8
VERMASSUNG
100
AcDbMText
 10
75.3605765783
 20
110.539621374
 30
0.0
 40
2.0
 41
0.0
 71
     1
 72
     1
  1
%%c
  7
SLDTEXTSTYLE0
 11
-7.044195017643634E-15
 21
1.0
 31
0.0
 73
     1
 44
1.0
  0
MTEXT
  5
133
330
129
100
AcDbEntity
  8
VERMASSUNG
100
AcDbMText
 10
75.3605762872
 20
114.1492118225
 30
0.0
 40
2.0
 41
0.0
 71
     1
 72
     1
  1
63
  7
SLDTEXTSTYLE0
 11
-7.044195017643634E-15
 21
1.0
 31
0.0
 73
     1
 44
1.0
  0
ENDBLK
  5
12B
330
129
100
AcDbEntity
  8
0
100
AcDbBlockEnd
  0
BLOCK
  5
136
330
135
100
AcDbEntity
  8
0
100
AcDbBlockBegin
  2
_D_1
 70
     0
 10
0.0
 20
0.0
 30
0.0
  3
_D_1
  1

  0
SOLID
  5
138
330
135
100
AcDbEntity
  8
VERMASSUNG
100
AcDbTrace
 10
82.9220533881
 20
155.2675206912
 30
0.0
 11
85.9220533881
 21
154.8175206912
 31
0.0
 12
85.9220533881
 22
155.7175206912
 32
0.0
 13
85.9220533881
 23
155.7175206912
 33
0.0
  0
SOLID
  5
139
330
135
100
AcDbEntity
  8
VERMASSUNG
100
AcDbTrace
 10
215.3220533881
 20
155.2675206912
 30
0.0
 11
212.3220533881
 21
155.7175206912
 31
0.0
 12
212.3220533881
 22
154.8175206912
 32
0.0
 13
212.3220533881
 23
154.8175206912
 33
0.0
  0
LINE
  5
13A
330
135
100
AcDbEntity
  8
VERMASSUNG
100
AcDbLine
 10
82.9220533881
 20
118.0668623732
 30
0.0
 11
82.9220533881
 21
156.2675206912
 31
0.0
  0
LINE
  5
13B
330
135
100
AcDbEntity
  8
VERMASSUNG
100
AcDbLine
 10
215.3220533881
 20
116.0441067762
 30
0.0
 11
215.3220533881
 21
156.2675206912
 31
0.0
  0
LINE
  5
13C
330
135
100
AcDbEntity
  8
VERMASSUNG
100
AcDbLine
 10
82.9220533881
 20
155.2675206912
 30
0.0
 11
215.3220533881
 21
155.2675206912
 31
0.0
  0
MTEXT
  5
13D
330
135
100
AcDbEntity
  8
VERMASSUNG
100
AcDbMText
 10
146.1230327908
 20
157.8456562871
 30
0.0
 40
2.0
 41
0.0
 71
     1
 72
     1
  1
132.4
  7
SLDTEXTSTYLE0
 73
     1
 44
1.0
  0
ENDBLK
  5
137
330
135
100
AcDbEntity
  8
0
100
AcDbBlockEnd
  0
BLOCK
  5
140
330
13F
100
AcDbEntity
  8
0
100
AcDbBlockBegin
  2
_D_2
 70
     0
 10
0.0
 20
0.0
 30
0.0
  3
_D_2
  1

  0
SOLID
  5
142
330
13F
100
AcDbEntity
  8
VERMASSUNG
100
AcDbTrace
 10
148.3220533881
 20
149.2675206912
 30
0.0
 11
151.3220533881
 21
148.8175206912
 31
0.0
 12
151.3220533881
 22
149.7175206912
 32
0.0
 13
151.3220533881
 23
149.7175206912
 33
0.0
  0
SOLID
  5
143
330
13F
100
AcDbEntity
  8
VERMASSUNG
100
AcDbTrace
 10
215.3220533881
 20
149.2675206912
 30
0.0
 11
212.3220533881
 21
149.7175206912
 31
0.0
 12
212.3220533881
 22
148.8175206912
 32
0.0
 13
212.3220533881
 23
148.8175206912
 33
0.0
  0
LINE
  5
144
330
13F
100
AcDbEntity
  8
VERMASSUNG
100
AcDbLine
 10
148.3220533881
 20
128.4691067762
 30
0.0
 11
148.3220533881
 21
150.2675206912
 31
0.0
  0
LINE
  5
145
330
13F
100
AcDbEntity
  8
VERMASSUNG
100
AcDbLine
 10
215.3220533881
 20
116.0441067762
 30
0.0
 11
215.3220533881
 21
150.2675206912
 31
0.0
  0
LINE
  5
146
330
13F
100
AcDbEntity
  8
VERMASSUNG
100
AcDbLine
 10
148.3220533881
 20
149.2675206912
 30
0.0
 11
215.3220533881
 21
149.2675206912
 31
0.0
  0
MTEXT
  5
147
330
13F
100
AcDbEntity
  8
VERMASSUNG
100
AcDbMText
 10
180.4223633778
 20
151.8456562871
 30
0.0
 40
2.0
 41
0.0
 71
     1
 72
     1
  1
67
  7
SLDTEXTSTYLE0
 73
     1
 44
1.0
  0
ENDBLK
  5
141
330
13F
100
AcDbEntity
  8
0
100
AcDbBlockEnd
  0
BLOCK
  5
14A
330
149
100
AcDbEntity
  8
0
100
AcDbBlockBegin
  2
_D_3
 70
     0
 10
0.0
 20
0.0
 30
0.0
  3
_D_3
  1

  0
SOLID
  5
14C
330
149
100
AcDbEntity
  8
VERMASSUNG
100
AcDbTrace
 10
175.3220533881
 20
143.2675206912
 30
0.0
 11
178.3220533881
 21
142.8175206912
 31
0.0
 12
178.3220533881
 22
143.7175206912
 32
0.0
 13
178.3220533881
 23
143.7175206912
 33
0.0
  0
SOLID
  5
14D
330
149
100
AcDbEntity
  8
VERMASSUNG
100
AcDbTrace
 10
215.3220533881
 20
143.2675206912
 30
0.0
 11
212.3220533881
 21
143.7175206912
 31
0.0
 12
212.3220533881
 22
142.8175206912
 32
0.0
 13
212.3220533881
 23
142.8175206912
 33
0.0
  0
LINE
  5
14E
330
149
100
AcDbEntity
  8
VERMASSUNG
100
AcDbLine
 10
175.3220533881
 20
136.7441067762
 30
0.0
 11
175.3220533881
 21
144.2675206912
 31
0.0
  0
LINE
  5
14F
330
149
100
AcDbEntity
  8
VERMASSUNG
100
AcDbLine
 10
215.3220533881
 20
116.0441067762
 30
0.0
 11
215.3220533881
 21
144.2675206912
 31
0.0
  0
LINE
  5
150
330
149
100
AcDbEntity
  8
VERMASSUNG
100
AcDbLine
 10
175.3220533881
 20
143.2675206912
 30
0.0
 11
215.3220533881
 21
143.2675206912
 31
0.0
  0
MTEXT
  5
151
330
149
100
AcDbEntity
  8
VERMASSUNG
100
AcDbMText
 10
193.8230945827
 20
145.8456562871
 30
0.0
 40
2.0
 41
0.0
 71
     1
 72
     1
  1
40
  7
SLDTEXTSTYLE0
 73
     1
 44
1.0
  0
ENDBLK
  5
14B
330
149
100
AcDbEntity
  8
0
100
AcDbBlockEnd
  0
BLOCK
  5
154
330
153
100
AcDbEntity
  8
0
100
AcDbBlockBegin
  2
_D_4
 70
     0
 10
0.0
 20
0.0
 30
0.0
  3
_D_4
  1

  0
SOLID
  5
156
330
153
100
AcDbEntity
  8
VERMASSUNG
100
AcDbTrace
 10
221.6109419454
 20
116.2441067762
 30
0.0
 11
221.1609419454
 21
113.2441067762
 31
0.0
 12
222.0609419454
 22
113.2441067762
 32
0.0
 13
222.0609419454
 23
113.2441067762
 33
0.0
  0
SOLID
  5
157
330
153
100
AcDbEntity
  8
VERMASSUNG
100
AcDbTrace
 10
221.6109419454
 20
96.2441067762
 30
0.0
 11
222.0609419454
 21
99.2441067762
 31
0.0
 12
221.1609419454
 22
99.2441067762
 32
0.0
 13
221.1609419454
 23
99.2441067762
 33
0.0
  0
LINE
  5
158
330
153
100
AcDbEntity
  8
VERMASSUNG
100
AcDbLine
 10
215.1220533881
 20
116.2441067762
 30
0.0
 11
222.6109419454
 21
116.2441067762
 31
0.0
  0
LINE
  5
159
330
153
100
AcDbEntity
  8
VERMASSUNG
100
AcDbLine
 10
215.1220533881
 20
96.2441067762
 30
0.0
 11
222.6109419454
 21
96.2441067762
 31
0.0
  0
LINE
  5
15A
330
153
100
AcDbEntity
  8
VERMASSUNG
100
AcDbLine
 10
221.6109419454
 20
116.2441067762
 30
0.0
 11
221.6109419454
 21
96.2441067762
 31
0.0
  0
MTEXT
  5
15B
330
153
100
AcDbEntity
  8
VERMASSUNG
100
AcDbMText
 10
218.8328066891
 20
99.8391071326
 30
0.0
 40
2.0
 41
0.0
 71
     1
 72
     1
  1
MBM
  7
SLDTEXTSTYLE0
 11
-7.044195017643634E-15
 21
1.0
 31
0.0
 73
     1
 44
1.0
  0
MTEXT
  5
15C
330
153
100
AcDbEntity
  8
VERMASSUNG
100
AcDbMText
 10
219.0328066404
 20
106.2391069709
 30
0.0
 40
2.0
 41
0.0
 71
     1
 72
     1
  1
%%c
  7
SLDTEXTSTYLE0
 11
-7.044195017643634E-15
 21
1.0
 31
0.0
 73
     1
 44
1.0
  0
MTEXT
  5
15D
330
153
100
AcDbEntity
  8
VERMASSUNG
100
AcDbMText
 10
218.8328066891
 20
109.8491074509
 30
0.0
 40
2.0
 41
0.0
 71
     1
 72
     1
  1
20
  7
SLDTEXTSTYLE0
 11
-7.044195017643634E-15
 21
1.0
 31
0.0
 73
     1
 44
1.0
  0
ENDBLK
  5
155
330
153
100
AcDbEntity
  8
0
100
AcDbBlockEnd
  0
ENDSEC
  0
SECTION
  2
ENTITIES
  0
MTEXT
  5
78
330
1F
100
AcDbEntity
  8
KOPF_DÜNN
100
AcDbMText
 10
13.8892156294
 20
23.8442973028
 30
0.0
 40
3.0
 41
0.0
 71
     1
 72
     1
  1
102.412.202
  7
SLDTEXTSTYLE0
 73
     1
 44
1.0
  0
MTEXT
  5
79
330
1F
100
AcDbEntity
  8
VERMASSUNG
100
AcDbMText
 10
13.9329988022
 20
28.8834360957
 30
0.0
 40
3.0
 41
0.0
 71
     1
 72
     1
  1
Aufnahme_Master shank MBM 20
  7
SLDTEXTSTYLE0
 73
     1
 44
1.0
  0
MTEXT
  5
7A
330
1F
100
AcDbEntity
  8
VERMASSUNG
100
AcDbMText
 10
98.8601118557
 20
13.8365368761
 30
0.0
 40
2.0
 41
0.0
 71
     1
 72
     1
  1
Datum: 21.11.2007
  7
SLDTEXTSTYLE0
 73
     1
 44
1.0
  0
MTEXT
  5
7C
330
1F
100
AcDbEntity
  8
VERMASSUNG
100
AcDbMText
 10
13.933048693
 20
18.0482802738
 30
0.0
 40
2.0
 41
0.0
 71
     1
 72
     1
  1
MAS BT 40 / MBM 20
  7
SLDTEXTSTYLE1
 73
     1
 44
1.0
  0
MTEXT
  5
7D
330
1F
100
AcDbEntity
  8
VERMASSUNG
100
AcDbMText
 10
13.9808475933
 20
13.9090974274
 30
0.0
 40
2.0
 41
0.0
 71
     1
 72
     1
  1
Gewicht: 1051g
  7
SLDTEXTSTYLE0
 73
     1
 44
1.0
  0
LINE
  5
7E
330
1F
100
AcDbEntity
  8
0
  6
Continuous
 62
     7
370
    15
100
AcDbLine
 10
172.3222085341
 20
74.7441067762
 30
0.0
 11
174.3220533881
 21
74.7441067762
 31
0.0
  0
LINE
  5
7F
330
1F
100
AcDbEntity
  8
0
  6
Continuous
 62
     7
370
    15
100
AcDbLine
 10
174.3220533881
 20
137.7441067762
 30
0.0
 11
172.3215532181
 21
137.7441067762
 31
0.0
  0
ARC
  5
80
330
1F
100
AcDbEntity
  8
0
  6
Continuous
 62
     7
370
    15
100
AcDbCircle
 10
174.3220533881
 20
75.7441067762
 30
0.0
 40
1.000000000000014
100
AcDbArc
 50
270.0
 51
0.0
  0
ARC
  5
81
330
1F
100
AcDbEntity
  8
0
  6
Continuous
 62
     7
370
    15
100
AcDbCircle
 10
174.3220533881
 20
136.7441067762
 30
0.0
 40
1.0
100
AcDbArc
 50
0.0
 51
90.0
  0
ARC
  5
82
330
1F
100
AcDbEntity
  8
0
  6
Continuous
 62
     7
370
    15
100
AcDbCircle
 10
149.3220533881
 20
83.0191067762
 30
0.0
 40
1.0
100
AcDbArc
 50
46.4321093438
 51
90.0
  0
ARC
  5
83
330
1F
100
AcDbEntity
  8
0
  6
Continuous
 62
     7
370
    15
100
AcDbCircle
 10
149.3220533881
 20
129.4691067762
 30
0.0
 40
1.0
100
AcDbArc
 50
270.0
 51
313.5375077307
  0
LINE
  5
84
330
1F
100
AcDbEntity
  8
0
  6
Continuous
 62
     7
370
    15
100
AcDbLine
 10
148.3220533881
 20
128.4691067762
 30
0.0
 11
83.777746495
 21
119.0563953543
 31
0.0
  0
LINE
  5
85
330
1F
100
AcDbEntity
  8
0
  6
Continuous
 62
     7
370
    15
100
AcDbLine
 10
83.777746495
 20
93.4318181981
 30
0.0
 11
148.3220533881
 21
84.0191067762
 31
0.0
  0
LINE
  5
86
330
1F
100
AcDbEntity
  8
0
  6
Continuous
 62
     7
370
    15
100
AcDbLine
 10
148.3220533881
 20
84.0191067762
 30
0.0
 11
149.3220533881
 21
84.0191067762
 31
0.0
  0
LINE
  5
87
330
1F
100
AcDbEntity
  8
0
  6
Continuous
 62
     7
370
    15
100
AcDbLine
 10
149.3220533881
 20
128.4691067762
 30
0.0
 11
148.3220533881
 21
128.4691067762
 31
0.0
  0
ARC
  5
88
330
1F
100
AcDbEntity
  8
0
  6
Continuous
 62
     7
370
    15
100
AcDbCircle
 10
179.3220533881
 20
92.2441067762
 30
0.0
 40
4.0
100
AcDbArc
 50
90.0
 51
180.0
  0
ARC
  5
89
330
1F
100
AcDbEntity
  8
0
  6
Continuous
 62
     7
370
    15
100
AcDbCircle
 10
179.3220533881
 20
120.2441067762
 30
0.0
 40
4.0
100
AcDbArc
 50
180.0
 51
270.0
  0
ARC
  5
8A
330
1F
100
AcDbEntity
  8
0
  6
Continuous
 62
     7
370
    15
100
AcDbCircle
 10
83.9220533881
 20
94.4213511792
 30
0.0
 40
1.00000000000001
100
AcDbArc
 50
180.0
 51
261.7028550302
  0
ARC
  5
8B
330
1F
100
AcDbEntity
  8
0
  6
Continuous
 62
     7
370
    15
100
AcDbCircle
 10
83.9220533881
 20
118.0668623732
 30
0.0
 40
1.00000000000001
100
AcDbArc
 50
98.2971449698
 51
180.0
  0
LINE
  5
8C
330
1F
100
AcDbEntity
  8
0
  6
Continuous
 62
     7
370
    15
100
AcDbLine
 10
179.3220533881
 20
96.2441067762
 30
0.0
 11
215.1220533881
 21
96.2441067762
 31
0.0
  0
LINE
  5
8D
330
1F
100
AcDbEntity
  8
0
  6
Continuous
 62
     7
370
    15
100
AcDbLine
 10
215.1220533881
 20
116.2441067762
 30
0.0
 11
179.3220533881
 21
116.2441067762
 31
0.0
  0
LINE
  5
8E
330
1F
100
AcDbEntity
  8
0
  6
Continuous
 62
     7
370
    15
100
AcDbLine
 10
215.1220533881
 20
96.2441067762
 30
0.0
 11
215.3220533881
 21
96.4441067762
 31
0.0
  0
LINE
  5
8F
330
1F
100
AcDbEntity
  8
0
  6
Continuous
 62
     7
370
    15
100
AcDbLine
 10
215.3220533881
 20
116.0441067762
 30
0.0
 11
215.1220533881
 21
116.2441067762
 31
0.0
  0
SPLINE
  5
90
330
1F
100
AcDbEntity
  8
0
  6
Continuous
 62
     7
370
    15
100
AcDbSpline
210
0.0
220
0.0
230
1.0
 70
     8
 71
     3
 72
    10
 73
     6
 74
     0
 42
0.000000001
 43
0.00000001
 40
0.0
 40
0.0
 40
0.0
 40
0.0
 40
0.5
 40
0.5
 40
1.0
 40
1.0
 40
1.0
 40
1.0
 10
169.2986617921358
 20
136.1485674975349
 30
0.0
 10
168.9825579609964
 20
135.5287049392577
 30
0.0
 10
168.6527789166516
 20
134.8828042039588
 30
0.0
 10
167.9805556442628
 20
133.5683855636583
 30
0.0
 10
167.6384224783322
 20
132.900463336646
 30
0.0
 10
167.2912421498181
 20
132.2241256041646
 30
0.0
  0
SPLINE
  5
91
330
1F
100
AcDbEntity
  8
0
  6
Continuous
 62
     7
370
    15
100
AcDbSpline
210
0.0
220
0.0
230
1.0
 70
     8
 71
     3
 72
     9
 73
     5
 74
     0
 42
0.000000001
 43
0.00000001
 40
0.0
 40
0.0
 40
0.0
 40
0.0
 40
0.5067595796178751
 40
1.0
 40
1.0
 40
1.0
 40
1.0
 10
169.9476839310749
 20
137.1062418835297
 30
0.0
 10
169.8372835832929
 20
136.9441669451953
 30
0.0
 10
169.6194281105551
 20
136.6243408484563
 30
0.0
 10
169.4048350083466
 20
136.305992868819
 30
0.0
 10
169.2989890164022
 20
136.148970777515
 30
0.0
  0
LINE
  5
92
330
1F
100
AcDbEntity
  8
0
  6
Continuous
 62
     7
370
    15
100
AcDbLine
 10
169.9470533881
 20
75.3830087566
 30
0.0
 11
169.9470533881
 21
137.1051885307
 31
0.0
  0
SPLINE
  5
93
330
1F
100
AcDbEntity
  8
0
  6
Continuous
 62
     7
370
    15
100
AcDbSpline
210
0.0
220
0.0
230
1.0
 70
     8
 71
     3
 72
     9
 73
     5
 74
     0
 42
0.000000001
 43
0.00000001
 40
0.0
 40
0.0
 40
0.0
 40
0.0
 40
0.4932426502230348
 40
1.0
 40
1.0
 40
1.0
 40
1.0
 10
169.2989751013793
 20
76.33924067447593
 30
0.0
 10
169.4048212063905
 20
76.18221743481577
 30
0.0
 10
169.6194135677026
 20
75.86386856618253
 30
0.0
 10
169.8372678556628
 20
75.544042519479
 30
0.0
 10
169.947667117267
 20
75.3819683196619
 30
0.0
  0
SPLINE
  5
94
330
1F
100
AcDbEntity
  8
0
  6
Continuous
 62
     7
370
    15
100
AcDbSpline
210
0.0
220
0.0
230
1.0
 70
     8
 71
     3
 72
    10
 73
     6
 74
     0
 42
0.000000001
 43
0.00000001
 40
0.0
 40
0.0
 40
0.0
 40
0.0
 40
0.5
 40
0.5
 40
1.0
 40
1.0
 40
1.0
 40
1.0
 10
169.298655872468
 20
76.33965766297568
 30
0.0
 10
168.9824767697939
 20
76.9596678149894
 30
0.0
 10
168.6520345426269
 20
77.6068658808571
 30
0.0
 10
167.9803230219442
 20
78.92028180545087
 30
0.0
 10
167.6383491469122
 20
79.58789307175368
 30
0.0
 10
167.2912421498181
 20
80.26408794819685
 30
0.0
  0
SPLINE
  5
95
330
1F
100
AcDbEntity
  8
0
  6
Continuous
 62
     7
370
    15
100
AcDbSpline
210
0.0
220
0.0
230
1.0
 70
     8
 71
     3
 72
    11
 73
     7
 74
     0
 42
0.000000001
 43
0.00000001
 40
0.0
 40
0.0
 40
0.0
 40
0.0
 40
0.2488814606695658
 40
0.5011921284368381
 40
0.7520447562540515
 40
1.0
 40
1.0
 40
1.0
 40
1.0
 10
172.3215532180732
 20
137.7439570307743
 30
0.0
 10
172.2917748885738
 20
137.73482500463
 30
0.0
 10
172.2318079295927
 20
137.7164351269432
 30
0.0
 10
171.7398858678459
 20
137.5723978784581
 30
0.0
 10
171.0118164452266
 20
137.3629948003468
 30
0.0
 10
170.3010729740489
 20
137.1907905309979
 30
0.0
 10
169.9477654568993
 20
137.1051885306793
 30
0.0
  0
LWPOLYLINE
  5
96
330
1F
100
AcDbEntity
  8
0
  6
Continuous
 62
     7
370
    15
100
AcDbPolyline
 90
       28
 70
   128
 43
0.0
 10
169.9476720815
 20
75.3830087566
 10
170.950879258
 20
75.1345703072
 10
171.6980527057
 20
74.927470242
 10
172.165033189
 20
74.7911013931
 10
172.2822885567
 20
74.7560004646
 10
172.3118575221
 20
74.7470990188
 10
172.3193773252
 20
74.7448575581
 10
172.3213210569
 20
74.7442949979
 10
172.3218388802
 20
74.7441539906
 10
172.3219842813
 20
74.7441186464
 10
172.3220286041
 20
74.7441097755
 10
172.3220436712
 20
74.7441075418
 10
172.3220494311
 20
74.7441069756
 10
172.3220518676
 20
74.7441068302
 10
172.322052975
 20
74.7441067919
 10
172.322053501
 20
74.7441067813
 10
172.3220537571
 20
74.7441067782
 10
172.3220538834
 20
74.7441067772
 10
172.3220539461
 20
74.7441067768
 10
172.3220539774
 20
74.7441067766
 10
172.322053993
 20
74.7441067766
 10
172.3220540086
 20
74.7441067765
 10
172.3220540893
 20
74.7441067763
 10
172.322054127
 20
74.7441067762
 10
172.3220541453
 20
74.7441067762
 10
172.3220541553
 20
74.7441067762
 10
172.3220541631
 20
74.7441067762
 10
172.3021886527
 20
74.7501240266
  0
LINE
  5
97
330
1F
100
AcDbEntity
  8
0
  6
Continuous
 62
     7
370
    15
100
AcDbLine
 10
150.3220533881
 20
77.1177012307
 30
0.0
 11
150.3220533881
 21
135.3705123217
 31
0.0
  0
SPLINE
  5
98
330
1F
100
AcDbEntity
  8
0
  6
Continuous
 62
     7
370
    15
100
AcDbSpline
210
0.0
220
0.0
230
1.0
 70
     8
 71
     3
 72
    12
 73
     8
 74
     0
 42
0.000000001
 43
0.00000001
 40
0.0
 40
0.0
 40
0.0
 40
0.0
 40
0.2500000000000001
 40
0.2500000000000001
 40
0.5000000000000002
 40
0.5000000000000002
 40
1.0
 40
1.0
 40
1.0
 40
1.0
 10
150.7090862110559
 20
136.3110966760017
 30
0.0
 10
150.6572254598678
 20
136.2542841036873
 30
0.0
 10
150.6084936628489
 20
136.1922919174355
 30
0.0
 10
150.5183206529314
 20
136.0562388443115
 30
0.0
 10
150.4765434046465
 20
135.9813327417127
 30
0.0
 10
150.3704545348006
 20
135.7432061064153
 30
0.0
 10
150.3220533880904
 20
135.5597993748466
 30
0.0
 10
150.3220533880904
 20
135.3705123216647
 30
0.0
  0
SPLINE
  5
99
330
1F
100
AcDbEntity
  8
0
  6
Continuous
 62
     7
370
    15
100
AcDbSpline
210
0.0
220
0.0
230
1.0
 70
     8
 71
     3
 72
     8
 73
     4
 74
     0
 42
0.000000001
 43
0.00000001
 40
0.0
 40
0.0
 40
0.0
 40
0.0
 40
1.0
 40
1.0
 40
1.0
 40
1.0
 10
151.3220533880904
 20
136.4804968791825
 30
0.0
 10
151.0957090744905
 20
136.4804968791825
 30
0.0
 10
150.8782569540853
 20
136.4171284101617
 30
0.0
 10
150.7090862110559
 20
136.3110966760017
 30
0.0
  0
SPLINE
  5
9A
330
1F
100
AcDbEntity
  8
0
  6
Continuous
 62
     7
370
    15
100
AcDbSpline
210
0.0
220
0.0
230
1.0
 70
     8
 71
     3
 72
     8
 73
     4
 74
     0
 42
0.000000001
 43
0.00000001
 40
0.0
 40
0.0
 40
0.0
 40
0.0
 40
1.0
 40
1.0
 40
1.0
 40
1.0
 10
150.7090862110559
 20
76.17711687635973
 30
0.0
 10
150.8786797167078
 20
76.07082016580254
 30
0.0
 10
151.0950484090411
 20
76.00771667317886
 30
0.0
 10
151.3220533880904
 20
76.00771667317886
 30
0.0
  0
SPLINE
  5
9B
330
1F
100
AcDbEntity
  8
0
  6
Continuous
 62
     7
370
    15
100
AcDbSpline
210
0.0
220
0.0
230
1.0
 70
     8
 71
     3
 72
    12
 73
     8
 74
     0
 42
0.000000001
 43
0.00000001
 40
0.0
 40
0.0
 40
0.0
 40
0.0
 40
0.2499999999999976
 40
0.2499999999999976
 40
0.4999999999999952
 40
0.4999999999999952
 40
1.0
 40
1.0
 40
1.0
 40
1.0
 10
150.7090862110559
 20
76.17711687635973
 30
0.0
 10
150.6572254598678
 20
76.23392944867412
 30
0.0
 10
150.6084936628489
 20
76.29592163492593
 30
0.0
 10
150.5183206529314
 20
76.43197470804994
 30
0.0
 10
150.4765434046465
 20
76.50688081064867
 30
0.0
 10
150.3704545348006
 20
76.74500744594607
 30
0.0
 10
150.3220533880904
 20
76.92841417751485
 30
0.0
 10
150.3220533880904
 20
77.11770123069672
 30
0.0
  0
LINE
  5
9C
330
1F
100
AcDbEntity
  8
0
  6
Continuous
 62
     7
370
    15
100
AcDbLine
 10
175.3220533881
 20
75.7441067762
 30
0.0
 11
175.3220533881
 21
136.7441067762
 31
0.0
  0
LINE
  5
9D
330
1F
100
AcDbEntity
  8
0
  6
Continuous
 62
     7
370
    15
100
AcDbLine
 10
159.8970533881
 20
136.4804968792
 30
0.0
 11
151.3220533881
 21
136.4804968792
 31
0.0
  0
LINE
  5
9E
330
1F
100
AcDbEntity
  8
0
  6
Continuous
 62
     7
370
    15
100
AcDbLine
 10
159.8970533881
 20
76.0077166732
 30
0.0
 11
159.8970533881
 21
136.4804968792
 31
0.0
  0
LINE
  5
9F
330
1F
100
AcDbEntity
  8
0
  6
Continuous
 62
     7
370
    15
100
AcDbLine
 10
151.3220533881
 20
76.0077166732
 30
0.0
 11
159.8970533881
 21
76.0077166732
 31
0.0
  0
SPLINE
  5
A0
330
1F
100
AcDbEntity
  8
0
  6
Continuous
 62
     7
370
    15
100
AcDbSpline
210
0.0
220
0.0
230
1.0
 70
     8
 71
     3
 72
     8
 73
     4
 74
     0
 42
0.000000001
 43
0.00000001
 40
0.0
 40
0.0
 40
0.0
 40
0.0
 40
0.0012389803509652
 40
0.0012389803509652
 40
0.0012389803509652
 40
0.0012389803509652
 10
160.4546149316241
 20
135.6981294989672
 30
0.0
 10
160.2694949584913
 20
135.9591794803462
 30
0.0
 10
160.0836165107323
 20
136.2199610934652
 30
0.0
 10
159.8970533880903
 20
136.4804968791825
 30
0.0
  0
SPLINE
  5
A1
330
1F
100
AcDbEntity
  8
0
  6
Continuous
 62
     7
370
    15
100
AcDbSpline
210
0.0
220
0.0
230
1.0
 70
     8
 71
     3
 72
     8
 73
     4
 74
     0
 42
0.000000001
 43
0.00000001
 40
0.0
 40
0.0
 40
0.0
 40
0.0
 40
1.0
 40
1.0
 40
1.0
 40
1.0
 10
162.5528646263626
 20
131.9113524406457
 30
0.0
 10
161.8565712603211
 20
133.1752908087605
 30
0.0
 10
161.15677609513
 20
134.4373462542688
 30
0.0
 10
160.4546149316241
 20
135.6981294989672
 30
0.0
  0
SPLINE
  5
A2
330
1F
100
AcDbEntity
  8
0
  6
Continuous
 62
     7
370
    15
100
AcDbSpline
210
0.0
220
0.0
230
1.0
 70
     8
 71
     3
 72
     8
 73
     4
 74
     0
 42
0.000000001
 43
0.00000001
 40
0.0
 40
0.0
 40
0.0
 40
0.0
 40
1.0
 40
1.0
 40
1.0
 40
1.0
 10
162.5528646263626
 20
80.57686111171564
 30
0.0
 10
161.8565464857046
 20
79.31287777176887
 30
0.0
 10
161.1567492935942
 20
78.05081917391689
 30
0.0
 10
160.4546149316241
 20
76.79008405339418
 30
0.0
  0
SPLINE
  5
A3
330
1F
100
AcDbEntity
  8
0
  6
Continuous
 62
     7
370
    15
100
AcDbSpline
210
0.0
220
0.0
230
1.0
 70
     8
 71
     3
 72
     8
 73
     4
 74
     0
 42
0.000000001
 43
0.00000001
 40
0.0
 40
0.0
 40
0.0
 40
0.0
 40
0.0012389803509652
 40
0.0012389803509652
 40
0.0012389803509652
 40
0.0012389803509652
 10
159.8970533880903
 20
76.00771667317886
 30
0.0
 10
160.0836165107323
 20
76.26825245889621
 30
0.0
 10
160.2694949584913
 20
76.5290340720152
 30
0.0
 10
160.4546149316241
 20
76.79008405339418
 30
0.0
  0
SPLINE
  5
A4
330
1F
100
AcDbEntity
  8
0
  6
Continuous
 62
     7
370
    15
100
AcDbSpline
210
0.0
220
0.0
230
1.0
 70
     8
 71
     3
 72
    12
 73
     8
 74
     0
 42
0.000000001
 43
0.00000001
 40
0.0
 40
0.0
 40
0.0
 40
0.0
 40
0.2499999999999968
 40
0.2499999999999968
 40
0.4999999999999936
 40
0.4999999999999936
 40
1.0
 40
1.0
 40
1.0
 40
1.0
 10
167.2912421498181
 20
132.2241256041646
 30
0.0
 10
167.2553379994815
 20
132.1541811700164
 30
0.0
 10
167.212806447352
 20
132.0909298069586
 30
0.0
 10
167.116012170512
 20
131.9758711520427
 30
0.0
 10
167.0609224922477
 20
131.9235426183307
 30
0.0
 10
166.8827892586938
 20
131.7897577152456
 30
0.0
 10
166.7454121666912
 20
131.7292099480874
 30
0.0
 10
166.5984218267913
 20
131.7100099997036
 30
0.0
  0
SPLINE
  5
A5
330
1F
100
AcDbEntity
  8
0
  6
Continuous
 62
     7
370
    15
100
AcDbSpline
210
0.0
220
0.0
230
1.0
 70
     8
 71
     3
 72
    12
 73
     8
 74
     0
 42
0.000000001
 43
0.00000001
 40
0.0
 40
0.0
 40
0.0
 40
0.0
 40
0.2500000000000022
 40
0.2500000000000022
 40
0.5000000000000044
 40
0.5000000000000044
 40
1.0
 40
1.0
 40
1.0
 40
1.0
 10
167.2912421498181
 20
80.26408794819683
 30
0.0
 10
167.2553379994815
 20
80.33403238234497
 30
0.0
 10
167.212806447352
 20
80.39728374540282
 30
0.0
 10
167.116012170512
 20
80.51234240031876
 30
0.0
 10
167.0609224922477
 20
80.56467093403073
 30
0.0
 10
166.8827892586938
 20
80.69845583711583
 30
0.0
 10
166.7454121666912
 20
80.75900360427396
 30
0.0
 10
166.5984218267913
 20
80.77820355265786
 30
0.0
  0
SPLINE
  5
A6
330
1F
100
AcDbEntity
  8
0
  6
Continuous
 62
     7
370
    15
100
AcDbSpline
210
0.0
220
0.0
230
1.0
 70
     8
 71
     3
 72
    10
 73
     6
 74
     0
 42
0.000000001
 43
0.00000001
 40
0.0
 40
0.0
 40
0.0
 40
0.0
 40
0.5
 40
0.5
 40
1.0
 40
1.0
 40
1.0
 40
1.0
 10
163.2456849493902
 20
131.4918294457602
 30
0.0
 10
163.1036676369432
 20
131.4918294457602
 30
0.0
 10
162.9632205900809
 20
131.5323192979697
 30
0.0
 10
162.7216306708196
 20
131.6802551279089
 30
0.0
 10
162.6209532285663
 20
131.7877554038884
 30
0.0
 10
162.5528646263627
 20
131.9113524406455
 30
0.0
  0
SPLINE
  5
A7
330
1F
100
AcDbEntity
  8
0
  6
Continuous
 62
     7
370
    15
100
AcDbSpline
210
0.0
220
0.0
230
1.0
 70
     8
 71
     3
 72
    10
 73
     6
 74
     0
 42
0.000000001
 43
0.00000001
 40
0.0
 40
0.0
 40
0.0
 40
0.0
 40
0.5
 40
0.5
 40
1.0
 40
1.0
 40
1.0
 40
1.0
 10
163.2456849493902
 20
80.99638410660118
 30
0.0
 10
163.1048275848795
 20
80.99638410660118
 30
0.0
 10
162.9619934534053
 20
80.95528020078248
 30
0.0
 10
162.721731762632
 20
80.80788230748152
 30
0.0
 10
162.6210254935525
 20
80.70058932664188
 30
0.0
 10
162.5528646263626
 20
80.57686111171566
 30
0.0
  0
LINE
  5
A8
330
1F
100
AcDbEntity
  8
0
  6
Continuous
 62
     7
370
    15
100
AcDbLine
 10
163.2720533881
 20
80.9963841066
 30
0.0
 11
163.2456849494
 21
80.9963841066
 31
0.0
  0
LINE
  5
A9
330
1F
100
AcDbEntity
  8
0
  6
Continuous
 62
     7
370
    15
100
AcDbLine
 10
163.2720533881
 20
131.4918294458
 30
0.0
 11
163.2456849494
 21
131.4918294458
 31
0.0
  0
SPLINE
  5
AA
330
1F
100
AcDbEntity
  8
0
  6
Continuous
 62
     7
370
    15
100
AcDbSpline
210
0.0
220
0.0
230
1.0
 70
     8
 71
     3
 72
    10
 73
     6
 74
     0
 42
0.000000001
 43
0.00000001
 40
0.0
 40
0.0
 40
0.0
 40
0.0
 40
0.5
 40
0.5
 40
1.0
 40
1.0
 40
1.0
 40
1.0
 10
166.5984218267905
 20
131.7100099997065
 30
0.0
 10
166.0765071023946
 20
131.6418372491983
 30
0.0
 10
165.5376559222852
 20
131.5872139842403
 30
0.0
 10
164.4262932802531
 20
131.512118131349
 30
0.0
 10
163.8494525030571
 20
131.4918294457602
 30
0.0
 10
163.2720533880903
 20
131.4918294457602
 30
0.0
  0
SPLINE
  5
AB
330
1F
100
AcDbEntity
  8
0
  6
Continuous
 62
     7
370
    15
100
AcDbSpline
210
0.0
220
0.0
230
1.0
 70
     8
 71
     3
 72
    10
 73
     6
 74
     0
 42
0.000000001
 43
0.00000001
 40
0.0
 40
0.0
 40
0.0
 40
0.0
 40
0.5
 40
0.5
 40
1.0
 40
1.0
 40
1.0
 40
1.0
 10
166.5984218267905
 20
80.77820355265493
 30
0.0
 10
166.0765071023946
 20
80.84637630316313
 30
0.0
 10
165.5376559222852
 20
80.90099956812108
 30
0.0
 10
164.4262932802531
 20
80.97609542101242
 30
0.0
 10
163.8494525030571
 20
80.99638410660118
 30
0.0
 10
163.2720533880903
 20
80.99638410660118
 30
0.0
  0
SPLINE
  5
AC
330
1F
100
AcDbEntity
  8
0
  6
Continuous
 62
     7
370
    15
100
AcDbSpline
210
0.0
220
0.0
230
1.0
 70
    24
 71
     3
 72
    10
 73
     6
 74
     0
 42
0.000000001
 43
0.00000001
 40
0.0
 40
0.0
 40
0.0
 40
0.0
 40
0.2232294580246721
 40
0.9999929978948798
 40
1.0
 40
1.0
 40
1.0
 40
1.0
 10
150.1506563038308
 20
128.7441067761807
 30
0.0
 10
150.1351523731925
 20
128.7441067761818
 30
0.0
 10
150.0656999710979
 20
128.7441067761864
 30
0.0
 10
149.9813938766972
 20
128.7441067761282
 30
0.0
 10
150.0108027839866
 20
128.7441067761807
 30
0.0
 10
150.0108030490897
 20
128.7441067761807
 30
0.0
  0
SPLINE
  5
AD
330
1F
100
AcDbEntity
  8
0
  6
Continuous
 62
     7
370
    15
100
AcDbSpline
210
0.0
220
0.0
230
1.0
 70
    24
 71
     3
 72
     9
 73
     5
 74
     0
 42
0.000000001
 43
0.00000001
 40
0.0
 40
0.0
 40
0.0
 40
0.0
 40
0.7395368299127789
 40
1.0
 40
1.0
 40
1.0
 40
1.0
 10
150.0108031458666
 20
83.74410677618071
 30
0.0
 10
150.0291828728399
 20
83.7441067761807
 30
0.0
 10
150.0540358973681
 20
83.7441067761807
 30
0.0
 10
150.1292885783498
 20
83.74410677618071
 30
0.0
 10
150.1488891301959
 20
83.74410677618071
 30
0.0
  0
LINE
  5
AE
330
1F
100
AcDbEntity
  8
0
  6
Continuous
 62
     7
370
    15
100
AcDbLine
 10
148.3220533881
 20
84.0191067762
 30
0.0
 11
148.3220533881
 21
128.4691067762
 31
0.0
  0
LINE
  5
AF
330
1F
100
AcDbEntity
  8
0
  6
Continuous
 62
     7
370
    15
100
AcDbLine
 10
82.9220533881
 20
94.4213511792
 30
0.0
 11
82.9220533881
 21
118.0668623732
 31
0.0
  0
LINE
  5
B0
330
1F
100
AcDbEntity
  8
0
  6
Continuous
 62
     7
370
    15
100
AcDbLine
 10
215.1220533881
 20
96.2441067762
 30
0.0
 11
215.1220533881
 21
116.2441067762
 31
0.0
  0
SPLINE
  5
B1
330
1F
100
AcDbEntity
  8
0
  6
Continuous
 62
     7
370
    15
100
AcDbSpline
210
0.0
220
0.0
230
1.0
 70
     8
 71
     3
 72
    38
 73
    34
 74
     0
 42
0.000000001
 43
0.00000001
 40
0.0
 40
0.0
 40
0.0
 40
0.0
 40
0.0625
 40
0.0625
 40
0.125
 40
0.125
 40
0.1875
 40
0.1875
 40
0.2500000000000001
 40
0.2500000000000001
 40
0.3125000000000001
 40
0.3125000000000001
 40
0.375
 40
0.375
 40
0.4375
 40
0.4375
 40
0.5
 40
0.5
 40
0.5625
 40
0.5625
 40
0.625
 40
0.625
 40
0.6875
 40
0.6875
 40
0.7499999999999999
 40
0.7499999999999999
 40
0.8124999999999999
 40
0.8124999999999999
 40
0.8749999999999999
 40
0.8749999999999999
 40
0.9374999999999999
 40
0.9374999999999999
 40
1.0
 40
1.0
 40
1.0
 40
1.0
 10
212.8720533880903
 20
106.2441067761807
 30
0.0
 10
212.8720533880904
 20
106.0445539314135
 30
0.0
 10
212.8476846322395
 20
105.8452347876249
 30
0.0
 10
212.7507520516658
 20
105.4539292885866
 30
0.0
 10
212.6799360753308
 20
105.2677262140055
 30
0.0
 10
212.4974327724485
 20
104.9124286582096
 30
0.0
 10
212.3857354568578
 20
104.7445444036899
 30
0.0
 10
212.1334299424
 20
104.4384641688994
 30
0.0
 10
211.9903214398192
 20
104.2971648481266
 30
0.0
 10
211.6820386670493
 20
104.0457729218657
 30
0.0
 10
211.517437368748
 20
103.9355788245087
 30
0.0
 10
211.1683398239784
 20
103.7440556334502
 30
0.0
 10
210.9835378030753
 20
103.6630582760524
 30
0.0
 10
210.6072419605199
 20
103.5346714048657
 30
0.0
 10
210.4141707874305
 20
103.48632685813
 30
0.0
 10
210.0180665713989
 20
103.4213098307215
 30
0.0
 10
209.8168079959673
 20
103.4052259741622
 30
0.0
 10
209.418462280221
 20
103.4057043626038
 30
0.0
 10
209.2198182955089
 20
103.4219819467228
 30
0.0
 10
208.8236198035316
 20
103.4877239851994
 30
0.0
 10
208.6286020764828
 20
103.537024535113
 30
0.0
 10
208.2536172125684
 20
103.6659154095026
 30
0.0
 10
208.0722132682611
 20
103.7457023051606
 30
0.0
 10
207.7222711009559
 20
103.9383017637557
 30
0.0
 10
207.5565278293843
 20
104.0498937603541
 30
0.0
 10
207.2516033015204
 20
104.2993514158446
 30
0.0
 10
207.111102214207
 20
104.4378605019353
 30
0.0
 10
206.8569134686364
 20
104.7464009513322
 30
0.0
 10
206.746297307425
 20
104.9131896926254
 30
0.0
 10
206.5647030051081
 20
105.2666622656354
 30
0.0
 10
206.4924280111456
 20
105.4571999006027
 30
0.0
 10
206.3966625382201
 20
105.8447381450781
 30
0.0
 10
206.3720533880904
 20
106.0423722486683
 30
0.0
 10
206.3720533880903
 20
106.2441067761807
 30
0.0
  0
SPLINE
  5
B2
330
1F
100
AcDbEntity
  8
0
  6
Continuous
 62
     7
370
    15
100
AcDbSpline
210
0.0
220
0.0
230
1.0
 70
     8
 71
     3
 72
    32
 73
    28
 74
     0
 42
0.000000001
 43
0.00000001
 40
0.0
 40
0.0
 40
0.0
 40
0.0
 40
0.0625000000000004
 40
0.0625000000000004
 40
0.1250000000000008
 40
0.1250000000000008
 40
0.1875000000000012
 40
0.1875000000000012
 40
0.2500000000000016
 40
0.2500000000000016
 40
0.3750000000000023
 40
0.3750000000000023
 40
0.5000000000000031
 40
0.5000000000000031
 40
0.6250000000000039
 40
0.6250000000000039
 40
0.6875000000000033
 40
0.6875000000000033
 40
0.7500000000000027
 40
0.7500000000000027
 40
0.8125000000000021
 40
0.8125000000000021
 40
0.8750000000000016
 40
0.8750000000000016
 40
0.9375000000000008
 40
0.9375000000000008
 40
1.0
 40
1.0
 40
1.0
 40
1.0
 10
206.3720533880903
 20
106.2441067761807
 30
0.0
 10
206.3720533880903
 20
106.4460707882434
 30
0.0
 10
206.3971556622386
 20
106.6466560603822
 30
0.0
 10
206.493669099297
 20
107.0348293578644
 30
0.0
 10
206.5662958328762
 20
107.2254493077358
 30
0.0
 10
206.7492394962572
 20
107.5799331719261
 30
0.0
 10
206.8607732289496
 20
107.7472337455713
 30
0.0
 10
207.1160499807211
 20
108.0555968111371
 30
0.0
 10
207.2580630132632
 20
108.1951104825696
 30
0.0
 10
207.7242474306842
 20
108.5735129730091
 30
0.0
 10
208.0734373083976
 20
108.7619450330766
 30
0.0
 10
208.8341235495726
 20
109.0201990721898
 30
0.0
 10
209.2288984527903
 20
109.0837918431049
 30
0.0
 10
210.0344517489805
 20
109.0816850671323
 30
0.0
 10
210.4283111570266
 20
109.0160763235472
 30
0.0
 10
210.9968258502362
 20
108.8198432289629
 30
0.0
 10
211.1779282880562
 20
108.7394816548806
 30
0.0
 10
211.5235342210295
 20
108.5486785504673
 30
0.0
 10
211.6889958668911
 20
108.4374921073499
 30
0.0
 10
211.9974194434432
 20
108.1845020347795
 30
0.0
 10
212.1372524706348
 20
108.0455522619443
 30
0.0
 10
212.3872196044533
 20
107.7414191303598
 30
0.0
 10
212.498474911743
 20
107.5740989985074
 30
0.0
 10
212.6808197149466
 20
107.2184204881631
 30
0.0
 10
212.75087503898
 20
107.0332309031899
 30
0.0
 10
212.8467502792897
 20
106.6473028143248
 30
0.0
 10
212.8720533880903
 20
106.4438866237093
 30
0.0
 10
212.8720533880903
 20
106.2441067761807
 30
0.0
  0
LINE
  5
B3
330
1F
100
AcDbEntity
  8
0
  6
Continuous
 62
     7
370
    15
100
AcDbLine
 10
215.3220533881
 20
96.4441067762
 30
0.0
 11
215.3220533881
 21
116.0441067762
 31
0.0
  0
SPLINE
  5
B4
330
1F
100
AcDbEntity
  8
0
  6
Continuous
 62
     7
370
    15
100
AcDbSpline
210
0.0
220
0.0
230
1.0
 70
    24
 71
     3
 72
    11
 73
     7
 74
     0
 42
0.000000001
 43
0.00000001
 40
0.0
 40
0.0
 40
0.0
 40
0.0
 40
0.1285561766306859
 40
0.4801535797842827
 40
0.815069183175483
 40
1.0
 40
1.0
 40
1.0
 40
1.0
 10
210.3437412245774
 20
104.9941067761807
 30
0.0
 10
210.2856122325857
 20
104.9941067761807
 30
0.0
 10
210.0685021385742
 20
104.9941067761807
 30
0.0
 10
209.6613720862795
 20
104.9941067761807
 30
0.0
 10
209.2205361192865
 20
104.9941067761807
 30
0.0
 10
208.9843770682827
 20
104.9941067761807
 30
0.0
 10
208.9003655516033
 20
104.9941067761807
 30
0.0
  0
SPLINE
  5
B5
330
1F
100
AcDbEntity
  8
0
  6
Continuous
 62
     7
370
    15
100
AcDbSpline
210
0.0
220
0.0
230
1.0
 70
    24
 71
     3
 72
    10
 73
     6
 74
     0
 42
0.000000001
 43
0.00000001
 40
0.0
 40
0.0
 40
0.0
 40
0.0
 40
0.4391119879276899
 40
0.7513633230734653
 40
1.0
 40
1.0
 40
1.0
 40
1.0
 10
210.3437412245774
 20
107.4941067761807
 30
0.0
 10
210.4470552388057
 20
107.3151616544034
 30
0.0
 10
210.6238355663413
 20
107.0089691453332
 30
0.0
 10
210.8808186882413
 20
106.5638613215145
 30
0.0
 10
211.0087279990107
 20
106.3423158965008
 30
0.0
 10
211.0654290610644
 20
106.2441067761807
 30
0.0
  0
SPLINE
  5
B6
330
1F
100
AcDbEntity
  8
0
  6
Continuous
 62
     7
370
    15
100
AcDbSpline
210
0.0
220
0.0
230
1.0
 70
    24
 71
     3
 72
    11
 73
     7
 74
     0
 42
0.000000001
 43
0.00000001
 40
0.0
 40
0.0
 40
0.0
 40
0.0
 40
0.1849308168245189
 40
0.519846420215722
 40
0.8714438233693219
 40
1.0
 40
1.0
 40
1.0
 40
1.0
 10
208.9003655516033
 20
107.4941067761807
 30
0.0
 10
208.9843770682827
 20
107.4941067761807
 30
0.0
 10
209.2205361192865
 20
107.4941067761807
 30
0.0
 10
209.6613720862795
 20
107.4941067761807
 30
0.0
 10
210.0685021385741
 20
107.4941067761807
 30
0.0
 10
210.2856122325857
 20
107.4941067761807
 30
0.0
 10
210.3437412245774
 20
107.4941067761807
 30
0.0
  0
SPLINE
  5
B7
330
1F
100
AcDbEntity
  8
0
  6
Continuous
 62
     7
370
    15
100
AcDbSpline
210
0.0
220
0.0
230
1.0
 70
    24
 71
     3
 72
    10
 73
     6
 74
     0
 42
0.000000001
 43
0.00000001
 40
0.0
 40
0.0
 40
0.0
 40
0.0
 40
0.4391119879276894
 40
0.7513633230734683
 40
1.0
 40
1.0
 40
1.0
 40
1.0
 10
208.1786777151163
 20
106.2441067761807
 30
0.0
 10
208.2819917293446
 20
106.423051897958
 30
0.0
 10
208.4587720568801
 20
106.7292444070283
 30
0.0
 10
208.7157551787802
 20
107.1743522308469
 30
0.0
 10
208.8436644895496
 20
107.3958976558606
 30
0.0
 10
208.9003655516033
 20
107.4941067761807
 30
0.0
  0
SPLINE
  5
B8
330
1F
100
AcDbEntity
  8
0
  6
Continuous
 62
     7
370
    15
100
AcDbSpline
210
0.0
220
0.0
230
1.0
 70
    24
 71
     3
 72
    10
 73
     6
 74
     0
 42
0.000000001
 43
0.00000001
 40
0.0
 40
0.0
 40
0.0
 40
0.0
 40
0.4391119879276859
 40
0.7513633230734631
 40
0.9999999999999999
 40
0.9999999999999999
 40
0.9999999999999999
 40
0.9999999999999999
 10
208.9003655516033
 20
104.9941067761807
 30
0.0
 10
208.797051537375
 20
105.173051897958
 30
0.0
 10
208.6202712098395
 20
105.4792444070283
 30
0.0
 10
208.3632880879394
 20
105.9243522308469
 30
0.0
 10
208.23537877717
 20
106.1458976558606
 30
0.0
 10
208.1786777151163
 20
106.2441067761807
 30
0.0
  0
CIRCLE
  5
B9
330
1F
100
AcDbEntity
  8
0
  6
Continuous
 62
     7
370
    15
100
AcDbCircle
 10
209.6220533881
 20
106.2441067762
 30
0.0
 40
1.500000000000014
  0
SPLINE
  5
BA
330
1F
100
AcDbEntity
  8
0
  6
Continuous
 62
     7
370
    15
100
AcDbSpline
210
0.0
220
0.0
230
1.0
 70
    24
 71
     3
 72
    10
 73
     6
 74
     0
 42
0.000000001
 43
0.00000001
 40
0.0
 40
0.0
 40
0.0
 40
0.0
 40
0.4391119879276894
 40
0.7513633230734675
 40
1.0
 40
1.0
 40
1.0
 40
1.0
 10
211.0654290610644
 20
106.2441067761807
 30
0.0
 10
210.9621150468361
 20
106.0651616544034
 30
0.0
 10
210.7853347193006
 20
105.7589691453332
 30
0.0
 10
210.5283515974005
 20
105.3138613215145
 30
0.0
 10
210.400442286631
 20
105.0923158965008
 30
0.0
 10
210.3437412245774
 20
104.9941067761807
 30
0.0
  0
CIRCLE
  5
BB
330
1F
100
AcDbEntity
  8
0
  6
Continuous
 62
     7
370
    15
100
AcDbCircle
 10
209.6220533881
 20
106.2441067762
 30
0.0
 40
2.200000000000017
  0
CIRCLE
  5
BC
330
1F
100
AcDbEntity
  8
0
  6
Continuous
 62
     7
370
    15
100
AcDbCircle
 10
209.6220533881
 20
106.2441067762
 30
0.0
 40
2.500000000000014
  0
ARC
  5
BD
330
1F
100
AcDbEntity
  8
0
  6
Continuous
 62
     7
370
    15
100
AcDbCircle
 10
209.6220533881
 20
106.2441067762
 30
0.0
 40
1.25
100
AcDbArc
 50
30.0
 51
90.0
  0
ARC
  5
BE
330
1F
100
AcDbEntity
  8
0
  6
Continuous
 62
     7
370
    15
100
AcDbCircle
 10
209.6220533881
 20
106.2441067762
 30
0.0
 40
1.249999999999987
100
AcDbArc
 50
330.0
 51
30.0
  0
ARC
  5
BF
330
1F
100
AcDbEntity
  8
0
  6
Continuous
 62
     7
370
    15
100
AcDbCircle
 10
209.6220533881
 20
106.2441067762
 30
0.0
 40
1.250000000000014
100
AcDbArc
 50
270.0
 51
330.0
  0
ARC
  5
C0
330
1F
100
AcDbEntity
  8
0
  6
Continuous
 62
     7
370
    15
100
AcDbCircle
 10
209.6220533881
 20
106.2441067762
 30
0.0
 40
1.250000000000014
100
AcDbArc
 50
210.0
 51
270.0
  0
ARC
  5
C1
330
1F
100
AcDbEntity
  8
0
  6
Continuous
 62
     7
370
    15
100
AcDbCircle
 10
209.6220533881
 20
106.2441067762
 30
0.0
 40
1.250000000000004
100
AcDbArc
 50
90.0
 51
150.0
  0
ARC
  5
C2
330
1F
100
AcDbEntity
  8
0
  6
Continuous
 62
     7
370
    15
100
AcDbCircle
 10
209.6220533881
 20
106.2441067762
 30
0.0
 40
1.250000000000011
100
AcDbArc
 50
150.0
 51
210.0
  0
SPLINE
  5
C3
330
1F
100
AcDbEntity
  8
0
  6
HIDDEN
 62
     7
370
     0
100
AcDbSpline
210
0.0
220
0.0
230
1.0
 70
     8
 71
     3
 72
    11
 73
     7
 74
     0
 42
0.000000001
 43
0.00000001
 40
0.0
 40
0.0
 40
0.0
 40
0.0
 40
0.224785911671641
 40
0.4857438011353264
 40
0.7445966906944259
 40
1.0
 40
1.0
 40
1.0
 40
1.0
 10
172.3021886527412
 20
74.75012402664453
 30
0.0
 10
172.2752708552501
 20
74.75854881285339
 30
0.0
 10
172.2171037166857
 20
74.77675408046298
 30
0.0
 10
171.7383703223041
 20
74.9168330581626
 30
0.0
 10
171.011886530852
 20
75.12590449570953
 30
0.0
 10
170.3014407039032
 20
75.2977999176157
 30
0.0
 10
169.9486005909679
 20
75.38317109973511
 30
0.0
  0
CIRCLE
  5
C4
330
1F
100
AcDbEntity
  8
0
  6
HIDDEN
 62
     7
370
     0
100
AcDbCircle
 10
209.6220533881
 20
106.2441067762
 30
0.0
 40
2.100000000000009
  0
LINE
  5
C5
330
1F
100
AcDbEntity
  8
0
  6
HIDDEN
 62
     7
370
     0
100
AcDbLine
 10
150.3220533881
 20
128.7441067762
 30
0.0
 11
150.6593116883
 21
128.7441067762
 31
0.0
  0
ELLIPSE
  5
C6
330
1F
100
AcDbEntity
  8
0
  6
HIDDEN
 62
     7
370
     0
100
AcDbEllipse
 10
150.6593116883
 20
130.3441067762
 30
0.0
 11
0.0
 21
1.599999999999994
 31
0.0
210
0.0
220
0.0
230
1.0
 40
0.4142135624
 41
3.141592653589793
 42
4.712388980384677
  0
ELLIPSE
  5
C7
330
1F
100
AcDbEntity
  8
0
  6
HIDDEN
 62
     7
370
     0
100
AcDbEllipse
 10
150.6593116883
 20
82.1441067762
 30
0.0
 11
0.0
 21
1.600000000000009
 31
0.0
210
0.0
220
0.0
230
1.0
 40
0.4142135624
 41
4.712388980384695
 42
6.283185307179586
  0
LINE
  5
C8
330
1F
100
AcDbEntity
  8
0
  6
HIDDEN
 62
     7
370
     0
100
AcDbLine
 10
150.6593116883
 20
83.7441067762
 30
0.0
 11
150.3220533881
 21
83.7441067762
 31
0.0
  0
LINE
  5
C9
330
1F
100
AcDbEntity
  8
0
  6
HIDDEN
 62
     7
370
     0
100
AcDbLine
 10
151.3220533881
 20
76.7900840534
 30
0.0
 11
150.7090862111
 21
76.1771168764
 31
0.0
  0
LINE
  5
CA
330
1F
100
AcDbEntity
  8
0
  6
HIDDEN
 62
     7
370
     0
100
AcDbLine
 10
150.7090862111
 20
136.311096676
 30
0.0
 11
151.3220533881
 21
135.698129499
 31
0.0
  0
LINE
  5
CB
330
1F
100
AcDbEntity
  8
0
  6
HIDDEN
 62
     7
370
     0
100
AcDbLine
 10
89.9220533881
 20
97.7441067762
 30
0.0
 11
89.9220533881
 21
114.7441067762
 31
0.0
  0
LINE
  5
CC
330
1F
100
AcDbEntity
  8
0
  6
HIDDEN
 62
     7
370
     0
100
AcDbLine
 10
92.9179826024
 20
99.2441067762
 30
0.0
 11
92.9179826024
 21
113.2441067762
 31
0.0
  0
LINE
  5
CD
330
1F
100
AcDbEntity
  8
0
  6
HIDDEN
 62
     7
370
     0
100
AcDbLine
 10
151.3220533881
 20
135.698129499
 30
0.0
 11
160.4546149316
 21
135.698129499
 31
0.0
  0
LINE
  5
CE
330
1F
100
AcDbEntity
  8
0
  6
HIDDEN
 62
     7
370
     0
100
AcDbLine
 10
151.3220533881
 20
135.698129499
 30
0.0
 11
151.3220533881
 21
130.3441067762
 31
0.0
  0
LINE
  5
CF
330
1F
100
AcDbEntity
  8
0
  6
HIDDEN
 62
     7
370
     0
100
AcDbLine
 10
160.4546149316
 20
76.7900840534
 30
0.0
 11
151.3220533881
 21
76.7900840534
 31
0.0
  0
LINE
  5
D0
330
1F
100
AcDbEntity
  8
0
  6
HIDDEN
 62
     7
370
     0
100
AcDbLine
 10
151.3220533881
 20
76.7900840534
 30
0.0
 11
151.3220533881
 21
82.1441067762
 31
0.0
  0
LINE
  5
D1
330
1F
100
AcDbEntity
  8
0
  6
HIDDEN
 62
     7
370
     0
100
AcDbLine
 10
150.6593116883
 20
128.7441067762
 30
0.0
 11
163.2720533881
 21
128.7441067762
 31
0.0
  0
LINE
  5
D2
330
1F
100
AcDbEntity
  8
0
  6
HIDDEN
 62
     7
370
     0
100
AcDbLine
 10
163.2720533881
 20
83.7441067762
 30
0.0
 11
150.6593116883
 21
83.7441067762
 31
0.0
  0
SPLINE
  5
D3
330
1F
100
AcDbEntity
  8
0
  6
HIDDEN
 62
     7
370
     0
100
AcDbSpline
210
0.0
220
0.0
230
1.0
 70
     8
 71
     3
 72
    13
 73
     9
 74
     0
 42
0.000000001
 43
0.00000001
 40
0.0
 40
0.0
 40
0.0
 40
0.0
 40
0.1850454653144679
 40
0.3520092965859432
 40
0.5010298177386109
 40
0.6766227814582007
 40
0.8430962614808595
 40
1.0
 40
1.0
 40
1.0
 40
1.0
 10
169.2983170187028
 20
136.1489675518917
 30
0.0
 10
169.5251071343229
 20
136.2078042234317
 30
0.0
 10
169.9565266718749
 20
136.3197283677333
 30
0.0
 10
170.4439821428265
 20
136.4599944393616
 30
0.0
 10
170.8330913193707
 20
136.5792891986169
 30
0.0
 10
171.1139912397959
 20
136.6699570082413
 30
0.0
 10
171.290876014861
 20
136.7318727685905
 30
0.0
 10
171.3117383946842
 20
136.7400620247482
 30
0.0
 10
171.3218608931194
 20
136.7440354799985
 30
0.0
  0
LINE
  5
D4
330
1F
100
AcDbEntity
  8
0
  6
HIDDEN
 62
     7
370
     0
100
AcDbLine
 10
170.0485475619
 20
136.3486806312
 30
0.0
 11
169.2982950007
 21
136.1491549781
 31
0.0
  0
LINE
  5
D5
330
1F
100
AcDbEntity
  8
0
  6
HIDDEN
 62
     7
370
     0
100
AcDbLine
 10
163.2720533881
 20
128.7441067762
 30
0.0
 11
169.7220533881
 21
128.7441067762
 31
0.0
  0
LINE
  5
D6
330
1F
100
AcDbEntity
  8
0
  6
HIDDEN
 62
     7
370
     0
100
AcDbLine
 10
169.7220533881
 20
83.7441067762
 30
0.0
 11
163.2720533881
 21
83.7441067762
 31
0.0
  0
LINE
  5
D7
330
1F
100
AcDbEntity
  8
0
  6
HIDDEN
 62
     7
370
     0
100
AcDbLine
 10
169.2982951543
 20
76.3390588828
 30
0.0
 11
169.3922378839
 21
76.3140752114
 31
0.0
  0
SPLINE
  5
D8
330
1F
100
AcDbEntity
  8
0
  6
HIDDEN
 62
     7
370
     0
100
AcDbSpline
210
0.0
220
0.0
230
1.0
 70
     8
 71
     3
 72
    13
 73
     9
 74
     0
 42
0.000000001
 43
0.00000001
 40
0.0
 40
0.0
 40
0.0
 40
0.0
 40
0.0000729225244405
 40
0.1576810837093989
 40
0.3241445774485779
 40
0.4996852408391561
 40
0.7294243771434398
 40
1.0
 40
1.0
 40
1.0
 40
1.0
 10
171.3220208129142
 20
75.74411921529402
 30
0.0
 10
171.3220316716555
 20
75.74411492544111
 30
0.0
 10
171.3455116335174
 20
75.73483893480287
 30
0.0
 10
171.273926418468
 20
75.76300443687
 30
0.0
 10
171.1183100800285
 20
75.81659336672699
 30
0.0
 10
170.7820568577203
 20
75.92511665553424
 30
0.0
 10
170.2247437917318
 20
76.09618271887739
 30
0.0
 10
169.6234860264617
 20
76.25394670790075
 30
0.0
 10
169.2983193361802
 20
76.33926717629134
 30
0.0
  0
LINE
  5
D9
330
1F
100
AcDbEntity
  8
0
  6
HIDDEN
 62
     7
370
     0
100
AcDbLine
 10
214.9720533881
 20
102.1373180063
 30
0.0
 11
214.9720533881
 21
110.3508955461
 31
0.0
  0
LINE
  5
DA
330
1F
100
AcDbEntity
  8
0
  6
HIDDEN
 62
     7
370
     0
100
AcDbLine
 10
125.9220533881
 20
99.2441067762
 30
0.0
 11
125.9220533881
 21
113.2441067762
 31
0.0
  0
LINE
  5
DB
330
1F
100
AcDbEntity
  8
0
  6
HIDDEN
 62
     7
370
     0
100
AcDbLine
 10
127.5744200904
 20
101.9941067762
 30
0.0
 11
127.5744200904
 21
110.4941067762
 31
0.0
  0
LINE
  5
DC
330
1F
100
AcDbEntity
  8
0
  6
HIDDEN
 62
     7
370
     0
100
AcDbLine
 10
213.6730152824
 20
104.5487085929
 30
0.0
 11
213.6730152824
 21
107.9395049595
 31
0.0
  0
LINE
  5
DD
330
1F
100
AcDbEntity
  8
0
  6
HIDDEN
 62
     7
370
     0
100
AcDbLine
 10
212.9720533881
 20
104.5487085929
 30
0.0
 11
212.9720533881
 21
107.9395049595
 31
0.0
  0
SPLINE
  5
DE
330
1F
100
AcDbEntity
  8
0
  6
HIDDEN
 62
     7
370
     0
100
AcDbSpline
210
0.0
220
0.0
230
1.0
 70
     8
 71
     3
 72
     9
 73
     5
 74
     0
 42
0.000000001
 43
0.00000001
 40
0.0
 40
0.0
 40
0.0
 40
0.0
 40
0.4932365035776448
 40
1.0
 40
1.0
 40
1.0
 40
1.0
 10
169.2991129267878
 20
136.148938287353
 30
0.0
 10
169.4049608822965
 20
136.3059596756359
 30
0.0
 10
169.6195596695738
 20
136.6243087579604
 30
0.0
 10
169.837419551458
 20
136.944134865638
 30
0.0
 10
169.9478229869318
 20
137.1062110622119
 30
0.0
  0
SPLINE
  5
DF
330
1F
100
AcDbEntity
  8
0
  6
HIDDEN
 62
     7
370
     0
100
AcDbSpline
210
0.0
220
0.0
230
1.0
 70
     8
 71
     3
 72
     9
 73
     5
 74
     0
 42
0.000000001
 43
0.00000001
 40
0.0
 40
0.0
 40
0.0
 40
0.0
 40
0.5067661695379747
 40
1.0
 40
1.0
 40
1.0
 40
1.0
 10
169.9478266722178
 20
75.38201662570357
 30
0.0
 10
169.8374218417438
 20
75.5440940402837
 30
0.0
 10
169.6195603562885
 20
75.86392086441424
 30
0.0
 10
169.4049606384028
 20
76.1822693806787
 30
0.0
 10
169.299112797534
 20
76.33928963877773
 30
0.0
  0
LINE
  5
E0
330
1F
100
AcDbEntity
  8
0
  6
HIDDEN
 62
     7
370
     0
100
AcDbLine
 10
212.9720533881
 20
111.1441067762
 30
0.0
 11
212.9720533881
 21
107.9395049595
 31
0.0
  0
LINE
  5
E1
330
1F
100
AcDbEntity
  8
0
  6
HIDDEN
 62
     7
370
     0
100
AcDbLine
 10
212.9720533881
 20
107.9395049595
 30
0.0
 11
213.6730152824
 21
107.9395049595
 31
0.0
  0
SPLINE
  5
E2
330
1F
100
AcDbEntity
  8
0
  6
HIDDEN
 62
     7
370
     0
100
AcDbSpline
210
0.0
220
0.0
230
1.0
 70
     8
 71
     3
 72
    10
 73
     6
 74
     0
 42
0.000000001
 43
0.00000001
 40
0.0
 40
0.0
 40
0.0
 40
0.0
 40
0.5
 40
0.5
 40
1.0
 40
1.0
 40
1.0
 40
1.0
 10
213.6730152824137
 20
107.9395049594993
 30
0.0
 10
213.8336697994261
 20
108.2951149525474
 30
0.0
 10
214.0312721249051
 20
108.6302171465561
 30
0.0
 10
214.4733863205474
 20
109.2743844959686
 30
0.0
 10
214.717662164196
 20
109.5822503759485
 30
0.0
 10
214.9720533880903
 20
109.8754804831957
 30
0.0
  0
SPLINE
  5
E3
330
1F
100
AcDbEntity
  8
0
  6
HIDDEN
 62
     7
370
     0
100
AcDbSpline
210
0.0
220
0.0
230
1.0
 70
     8
 71
     3
 72
     9
 73
     5
 74
     0
 42
0.000000001
 43
0.00000001
 40
0.0
 40
0.0
 40
0.0
 40
0.0
 40
0.2733875688635493
 40
1.0
 40
1.0
 40
1.0
 40
1.0
 10
215.2915797822366
 20
113.341628321474
 30
0.0
 10
215.2854589055427
 20
113.3423101193533
 30
0.0
 10
215.2630698967108
 20
113.3448040069944
 30
0.0
 10
215.236465355427
 20
113.3327601890992
 30
0.0
 10
215.2171341650055
 20
113.3240090012982
 30
0.0
  0
LINE
  5
E4
330
1F
100
AcDbEntity
  8
0
  6
HIDDEN
 62
     7
370
     0
100
AcDbLine
 10
212.9720533881
 20
113.3240090013
 30
0.0
 11
215.217134165
 21
113.3240090013
 31
0.0
  0
LINE
  5
E5
330
1F
100
AcDbEntity
  8
0
  6
HIDDEN
 62
     7
370
     0
100
AcDbLine
 10
212.9720533881
 20
113.3441067762
 30
0.0
 11
212.9720533881
 21
111.1441067762
 31
0.0
  0
LINE
  5
E6
330
1F
100
AcDbEntity
  8
0
  6
HIDDEN
 62
     7
370
     0
100
AcDbLine
 10
212.9720533881
 20
104.5487085929
 30
0.0
 11
212.9720533881
 21
101.3441067762
 31
0.0
  0
LINE
  5
E7
330
1F
100
AcDbEntity
  8
0
  6
HIDDEN
 62
     7
370
     0
100
AcDbLine
 10
213.6730152824
 20
104.5487085929
 30
0.0
 11
212.9720533881
 21
104.5487085929
 31
0.0
  0
SPLINE
  5
E8
330
1F
100
AcDbEntity
  8
0
  6
HIDDEN
 62
     7
370
     0
100
AcDbSpline
210
0.0
220
0.0
230
1.0
 70
     8
 71
     3
 72
    10
 73
     6
 74
     0
 42
0.000000001
 43
0.00000001
 40
0.0
 40
0.0
 40
0.0
 40
0.0
 40
0.5
 40
0.5
 40
1.0
 40
1.0
 40
1.0
 40
1.0
 10
214.97205338809
 20
102.6127330691654
 30
0.0
 10
214.7157525229593
 20
102.9081643698971
 30
0.0
 10
214.4713261168243
 20
103.2166429058779
 30
0.0
 10
214.0307458013393
 20
103.858952273306
 30
0.0
 10
213.8335611247794
 20
104.1933391519691
 30
0.0
 10
213.6730152824136
 20
104.548708592862
 30
0.0
  0
SPLINE
  5
E9
330
1F
100
AcDbEntity
  8
0
  6
HIDDEN
 62
     7
370
     0
100
AcDbSpline
210
0.0
220
0.0
230
1.0
 70
     8
 71
     3
 72
     9
 73
     5
 74
     0
 42
0.000000001
 43
0.00000001
 40
0.0
 40
0.0
 40
0.0
 40
0.0
 40
0.7194823742986098
 40
0.9999999999999999
 40
0.9999999999999999
 40
0.9999999999999999
 40
0.9999999999999999
 10
215.2171341650055
 20
99.16420455106318
 30
0.0
 10
215.2362776192464
 20
99.15553029292968
 30
0.0
 10
215.2628848787496
 20
99.14347404465543
 30
0.0
 10
215.2852781300249
 20
99.1459540793155
 30
0.0
 10
215.2915598317044
 20
99.14664977275001
 30
0.0
  0
LINE
  5
EA
330
1F
100
AcDbEntity
  8
0
  6
HIDDEN
 62
     7
370
     0
100
AcDbLine
 10
212.9720533881
 20
99.1642045511
 30
0.0
 11
215.217134165
 21
99.1642045511
 31
0.0
  0
LINE
  5
EB
330
1F
100
AcDbEntity
  8
0
  6
HIDDEN
 62
     7
370
     0
100
AcDbLine
 10
212.9720533881
 20
101.3441067762
 30
0.0
 11
212.9720533881
 21
99.1441067762
 31
0.0
  0
LINE
  5
EC
330
1F
100
AcDbEntity
  8
0
  6
HIDDEN
 62
     7
370
     0
100
AcDbLine
 10
212.4720533881
 20
100.7441067762
 30
0.0
 11
212.4720533881
 21
111.7441067762
 31
0.0
  0
LINE
  5
ED
330
1F
100
AcDbEntity
  8
0
  6
HIDDEN
 62
     7
370
     0
100
AcDbLine
 10
203.3220533881
 20
101.1441067762
 30
0.0
 11
203.3220533881
 21
111.344106522
 31
0.0
  0
LINE
  5
EE
330
1F
100
AcDbEntity
  8
0
  6
HIDDEN
 62
     7
370
     0
100
AcDbLine
 10
205.3220533881
 20
100.7441067762
 30
0.0
 11
205.3220533881
 21
111.7441067762
 31
0.0
  0
LINE
  5
EF
330
1F
100
AcDbEntity
  8
0
  6
HIDDEN
 62
     7
370
     0
100
AcDbLine
 10
215.217134165
 20
98.2191067762
 30
0.0
 11
215.217134165
 21
99.1642045511
 31
0.0
  0
LINE
  5
F0
330
1F
100
AcDbEntity
  8
0
  6
HIDDEN
 62
     7
370
     0
100
AcDbLine
 10
215.217134165
 20
113.3240090013
 30
0.0
 11
215.217134165
 21
114.2691067762
 31
0.0
  0
LINE
  5
F1
330
1F
100
AcDbEntity
  8
0
  6
HIDDEN
 62
     7
370
     0
100
AcDbLine
 10
212.9720533881
 20
114.2691067762
 30
0.0
 11
212.9720533881
 21
113.3240090013
 31
0.0
  0
LINE
  5
F2
330
1F
100
AcDbEntity
  8
0
  6
HIDDEN
 62
     7
370
     0
100
AcDbLine
 10
212.9720533881
 20
99.1642045511
 30
0.0
 11
212.9720533881
 21
98.2191067762
 31
0.0
  0
CIRCLE
  5
F3
330
1F
100
AcDbEntity
  8
0
  6
HIDDEN
 62
     7
370
     0
100
AcDbCircle
 10
209.6220533881
 20
106.2441067762
 30
0.0
 40
2.10566934772487
  0
CIRCLE
  5
F4
330
1F
100
AcDbEntity
  8
0
  6
HIDDEN
 62
     7
370
     0
100
AcDbCircle
 10
209.6220533881
 20
106.2441067762
 30
0.0
 40
1.695534221835445
  0
LWPOLYLINE
  5
F5
330
1F
100
AcDbEntity
  8
0
  6
HIDDEN
 62
     7
370
     0
100
AcDbPolyline
 90
        3
 70
   128
 43
0.0
 10
209.6220533881
 20
104.8485725543
 10
209.1447525735
 20
104.9327335659
 10
208.8019066084
 20
105.1150031388
  0
LINE
  5
F6
330
1F
100
AcDbEntity
  8
0
  6
HIDDEN
 62
     7
370
     0
100
AcDbLine
 10
208.2337001033
 20
106.1027175226
 30
0.0
 11
208.2311639972
 21
106.3578717387
 31
0.0
  0
LINE
  5
F7
330
1F
100
AcDbEntity
  8
0
  6
HIDDEN
 62
     7
370
     0
100
AcDbLine
 10
208.8105535389
 20
107.3794409821
 30
0.0
 11
209.0384423252
 21
107.5117478498
 31
0.0
  0
LINE
  5
F8
330
1F
100
AcDbEntity
  8
0
  6
HIDDEN
 62
     7
370
     0
100
AcDbLine
 10
210.2392365758
 20
107.4957459722
 30
0.0
 11
210.4423888319
 21
107.3730733496
 31
0.0
  0
LINE
  5
F9
330
1F
100
AcDbEntity
  8
0
  6
HIDDEN
 62
     7
370
     0
100
AcDbLine
 10
211.0097831964
 20
106.3914897587
 30
0.0
 11
211.0140228983
 21
106.1444240443
 31
0.0
  0
LWPOLYLINE
  5
FA
330
1F
100
AcDbEntity
  8
0
  6
HIDDEN
 62
     7
370
     0
100
AcDbPolyline
 90
        3
 70
   128
 43
0.0
 10
210.4194284834
 20
105.0988082467
 10
210.0993542027
 20
104.9327335659
 10
209.6220533881
 20
104.8485725543
  0
ARC
  5
FB
330
1F
100
AcDbEntity
  8
0
  6
HIDDEN
 62
     7
370
     0
100
AcDbCircle
 10
83.7220533881
 20
96.9441067762
 30
0.0
 40
0.7999999999999972
100
AcDbArc
 50
90.0
 51
180.0
  0
ARC
  5
FC
330
1F
100
AcDbEntity
  8
0
  6
HIDDEN
 62
     7
370
     0
100
AcDbCircle
 10
83.7220533881
 20
115.5441067762
 30
0.0
 40
0.7999999999999972
100
AcDbArc
 50
180.0
 51
270.0
  0
LINE
  5
FD
330
1F
100
AcDbEntity
  8
0
  6
HIDDEN
 62
     7
370
     0
100
AcDbLine
 10
90.8144258188
 20
97.5191067762
 30
0.0
 11
91.6911132804
 21
97.5191067762
 31
0.0
  0
LINE
  5
FE
330
1F
100
AcDbEntity
  8
0
  6
HIDDEN
 62
     7
370
     0
100
AcDbLine
 10
91.6911132804
 20
114.9691067762
 30
0.0
 11
90.8144258188
 21
114.9691067762
 31
0.0
  0
ARC
  5
FF
330
1F
100
AcDbEntity
  8
0
  6
HIDDEN
 62
     7
370
     0
100
AcDbCircle
 10
91.6911132804
 20
97.9191067762
 30
0.0
 40
0.4000000000000244
100
AcDbArc
 50
270.0
 51
330.0
  0
ARC
  5
100
330
1F
100
AcDbEntity
  8
0
  6
HIDDEN
 62
     7
370
     0
100
AcDbCircle
 10
91.6911132804
 20
114.5691067762
 30
0.0
 40
0.4000000000000244
100
AcDbArc
 50
30.0
 51
90.0
  0
ARC
  5
101
330
1F
100
AcDbEntity
  8
0
  6
HIDDEN
 62
     7
370
     0
100
AcDbCircle
 10
90.8144258188
 20
97.9191067762
 30
0.0
 40
0.4000000000000057
100
AcDbArc
 50
255.0
 51
270.0
  0
ARC
  5
102
330
1F
100
AcDbEntity
  8
0
  6
HIDDEN
 62
     7
370
     0
100
AcDbCircle
 10
90.8144258188
 20
114.5691067762
 30
0.0
 40
0.4000000000000057
100
AcDbArc
 50
90.0
 51
105.0
  0
LINE
  5
103
330
1F
100
AcDbEntity
  8
0
  6
HIDDEN
 62
     7
370
     0
100
AcDbLine
 10
90.7108982008
 20
114.9554771067
 30
0.0
 11
89.9220533881
 21
114.7441067762
 31
0.0
  0
LINE
  5
104
330
1F
100
AcDbEntity
  8
0
  6
HIDDEN
 62
     7
370
     0
100
AcDbLine
 10
89.9220533881
 20
97.7441067762
 30
0.0
 11
90.7108982008
 21
97.5327364457
 31
0.0
  0
LINE
  5
105
330
1F
100
AcDbEntity
  8
0
  6
HIDDEN
 62
     7
370
     0
100
AcDbLine
 10
92.0375234419
 20
97.7191067762
 30
0.0
 11
92.9179826024
 21
99.2441067762
 31
0.0
  0
LINE
  5
106
330
1F
100
AcDbEntity
  8
0
  6
HIDDEN
 62
     7
370
     0
100
AcDbLine
 10
92.9179826024
 20
113.2441067762
 30
0.0
 11
92.0375234419
 21
114.7691067762
 31
0.0
  0
LINE
  5
107
330
1F
100
AcDbEntity
  8
0
  6
HIDDEN
 62
     7
370
     0
100
AcDbLine
 10
83.7220533881
 20
97.7441067762
 30
0.0
 11
89.9220533881
 21
97.7441067762
 31
0.0
  0
LINE
  5
108
330
1F
100
AcDbEntity
  8
0
  6
HIDDEN
 62
     7
370
     0
100
AcDbLine
 10
89.9220533881
 20
114.7441067762
 30
0.0
 11
83.7220533881
 21
114.7441067762
 31
0.0
  0
LINE
  5
109
330
1F
100
AcDbEntity
  8
0
  6
HIDDEN
 62
     7
370
     0
100
AcDbLine
 10
171.3220533881
 20
130.3441067762
 30
0.0
 11
171.3220533881
 21
136.74403548
 31
0.0
  0
ARC
  5
10A
330
1F
100
AcDbEntity
  8
0
  6
HIDDEN
 62
     7
370
     0
100
AcDbCircle
 10
169.7220533881
 20
130.3441067762
 30
0.0
 40
1.600000000000023
100
AcDbArc
 50
270.0
 51
0.0
  0
ARC
  5
10B
330
1F
100
AcDbEntity
  8
0
  6
HIDDEN
 62
     7
370
     0
100
AcDbCircle
 10
169.7220533881
 20
82.1441067762
 30
0.0
 40
1.600000000000009
100
AcDbArc
 50
0.0
 51
90.0
  0
LINE
  5
10C
330
1F
100
AcDbEntity
  8
0
  6
HIDDEN
 62
     7
370
     0
100
AcDbLine
 10
171.3220533881
 20
75.7441192153
 30
0.0
 11
171.3220533881
 21
82.1441067762
 31
0.0
  0
LINE
  5
10D
330
1F
100
AcDbEntity
  8
0
  6
HIDDEN
 62
     7
370
     0
100
AcDbLine
 10
125.9220533881
 20
99.2441067762
 30
0.0
 11
127.5744200904
 21
101.9941067762
 31
0.0
  0
LINE
  5
10E
330
1F
100
AcDbEntity
  8
0
  6
HIDDEN
 62
     7
370
     0
100
AcDbLine
 10
127.5744200904
 20
110.4941067762
 30
0.0
 11
125.9220533881
 21
113.2441067762
 31
0.0
  0
LINE
  5
10F
330
1F
100
AcDbEntity
  8
0
  6
HIDDEN
 62
     7
370
     0
100
AcDbLine
 10
92.9179826024
 20
99.2441067762
 30
0.0
 11
125.9220533881
 21
99.2441067762
 31
0.0
  0
LINE
  5
110
330
1F
100
AcDbEntity
  8
0
  6
HIDDEN
 62
     7
370
     0
100
AcDbLine
 10
125.9220533881
 20
113.2441067762
 30
0.0
 11
92.9179826024
 21
113.2441067762
 31
0.0
  0
LINE
  5
111
330
1F
100
AcDbEntity
  8
0
  6
HIDDEN
 62
     7
370
     0
100
AcDbLine
 10
171.3220524781
 20
136.7441065643
 30
0.0
 11
172.3220518474
 21
137.744106311
 31
0.0
  0
LINE
  5
112
330
1F
100
AcDbEntity
  8
0
  6
HIDDEN
 62
     7
370
     0
100
AcDbLine
 10
172.3220597495
 20
74.7441056385
 30
0.0
 11
171.3220595006
 21
75.744105443
 31
0.0
  0
LINE
  5
113
330
1F
100
AcDbEntity
  8
0
  6
HIDDEN
 62
     7
370
     0
100
AcDbLine
 10
215.3220533881
 20
113.3441067762
 30
0.0
 11
212.9720533881
 21
113.3441067762
 31
0.0
  0
LINE
  5
114
330
1F
100
AcDbEntity
  8
0
  6
HIDDEN
 62
     7
370
     0
100
AcDbLine
 10
212.9720533881
 20
99.1441067762
 30
0.0
 11
215.3220533881
 21
99.1441067762
 31
0.0
  0
LINE
  5
115
330
1F
100
AcDbEntity
  8
0
  6
HIDDEN
 62
     7
370
     0
100
AcDbLine
 10
212.9720533881
 20
112.0327819108
 30
0.0
 11
212.4720533881
 21
111.7441067762
 31
0.0
  0
LINE
  5
116
330
1F
100
AcDbEntity
  8
0
  6
HIDDEN
 62
     7
370
     0
100
AcDbLine
 10
212.4720533881
 20
100.7441067762
 30
0.0
 11
212.9720533881
 21
100.4554316416
 31
0.0
  0
ARC
  5
117
330
1F
100
AcDbEntity
  8
0
  6
HIDDEN
 62
     7
370
     0
100
AcDbCircle
 10
203.9220533881
 20
101.1441067762
 30
0.0
 40
0.6000000000000085
100
AcDbArc
 50
180.0
 51
270.0
  0
ARC
  5
118
330
1F
100
AcDbEntity
  8
0
  6
HIDDEN
 62
     7
370
     0
100
AcDbCircle
 10
203.9220533881
 20
111.3441067762
 30
0.0
 40
0.6000000000000085
100
AcDbArc
 50
90.0
 51
180.0
  0
LINE
  5
119
330
1F
100
AcDbEntity
  8
0
  6
HIDDEN
 62
     7
370
     0
100
AcDbLine
 10
203.9220533881
 20
100.5441067762
 30
0.0
 11
204.496651728
 21
100.5441067762
 31
0.0
  0
LINE
  5
11A
330
1F
100
AcDbEntity
  8
0
  6
HIDDEN
 62
     7
370
     0
100
AcDbLine
 10
204.496651728
 20
111.9441067762
 30
0.0
 11
203.9220533881
 21
111.9441067762
 31
0.0
  0
ARC
  5
11B
330
1F
100
AcDbEntity
  8
0
  6
HIDDEN
 62
     7
370
     0
100
AcDbCircle
 10
204.496651728
 20
101.1441067762
 30
0.0
 40
0.6000000000000135
100
AcDbArc
 50
270.0
 51
285.0
  0
ARC
  5
11C
330
1F
100
AcDbEntity
  8
0
  6
HIDDEN
 62
     7
370
     0
100
AcDbCircle
 10
204.496651728
 20
111.3441067762
 30
0.0
 40
0.6000000000000135
100
AcDbArc
 50
75.0
 51
90.0
  0
LINE
  5
11D
330
1F
100
AcDbEntity
  8
0
  6
HIDDEN
 62
     7
370
     0
100
AcDbLine
 10
204.6519431551
 20
100.5645512804
 30
0.0
 11
205.3220533881
 21
100.7441067762
 31
0.0
  0
LINE
  5
11E
330
1F
100
AcDbEntity
  8
0
  6
HIDDEN
 62
     7
370
     0
100
AcDbLine
 10
205.3220533881
 20
111.7441067762
 30
0.0
 11
204.6519431551
 21
111.923662272
 31
0.0
  0
LINE
  5
11F
330
1F
100
AcDbEntity
  8
0
  6
HIDDEN
 62
     7
370
     0
100
AcDbLine
 10
205.3220533881
 20
100.7441067762
 30
0.0
 11
212.4720533881
 21
100.7441067762
 31
0.0
  0
LINE
  5
120
330
1F
100
AcDbEntity
  8
0
  6
HIDDEN
 62
     7
370
     0
100
AcDbLine
 10
212.4720533881
 20
111.7441067762
 30
0.0
 11
205.3220533881
 21
111.7441067762
 31
0.0
  0
LINE
  5
121
330
1F
100
AcDbEntity
  8
0
  6
HIDDEN
 62
     7
370
     0
100
AcDbLine
 10
127.5744200904
 20
101.9941067762
 30
0.0
 11
203.3220533881
 21
101.9941067762
 31
0.0
  0
LINE
  5
122
330
1F
100
AcDbEntity
  8
0
  6
HIDDEN
 62
     7
370
     0
100
AcDbLine
 10
203.3220533881
 20
110.4941067762
 30
0.0
 11
127.5744200904
 21
110.4941067762
 31
0.0
  0
LINE
  5
123
330
1F
100
AcDbEntity
  8
0
  6
HIDDEN
 62
     7
370
     0
100
AcDbLine
 10
215.217134165
 20
98.2191067762
 30
0.0
 11
215.3220533881
 21
97.9941067762
 31
0.0
  0
LINE
  5
124
330
1F
100
AcDbEntity
  8
0
  6
HIDDEN
 62
     7
370
     0
100
AcDbLine
 10
215.3220533881
 20
114.4941067762
 30
0.0
 11
215.217134165
 21
114.2691067762
 31
0.0
  0
LINE
  5
125
330
1F
100
AcDbEntity
  8
0
  6
HIDDEN
 62
     7
370
     0
100
AcDbLine
 10
215.217134165
 20
114.2691067762
 30
0.0
 11
212.9720533881
 21
114.2691067762
 31
0.0
  0
LINE
  5
126
330
1F
100
AcDbEntity
  8
0
  6
HIDDEN
 62
     7
370
     0
100
AcDbLine
 10
212.9720533881
 20
98.2191067762
 30
0.0
 11
215.217134165
 21
98.2191067762
 31
0.0
  0
DIMENSION
  5
127
330
1F
100
AcDbEntity
  8
VERMASSUNG
100
AcDbDimension
  2
_D
 10
77.9387118832
 20
74.7441067762
 30
0.0
 11
77.9387118832
 21
106.2441067762
 31
0.0
 70
   160
  1
MAS BT 40 %%c<>
 71
     2
 42
-1.0
  3
SLDDIMSTYLE0
100
AcDbAlignedDimension
 13
172.322049244
 23
137.7441067762
 33
0.0
 14
172.322054162
 24
74.7441067762
 34
0.0
 50
90.0
100
AcDbRotatedDimension
  0
DIMENSION
  5
134
330
1F
100
AcDbEntity
  8
VERMASSUNG
100
AcDbDimension
  2
_D_1
 10
215.3220533881
 20
155.2675206912
 30
0.0
 11
149.1220533881
 21
155.2675206912
 31
0.0
 70
   160
  1
<>
 71
     2
 42
-1.0
  3
SLDDIMSTYLE0
100
AcDbAlignedDimension
 13
82.9220533881
 23
118.0668623732
 33
0.0
 14
215.3220533881
 24
116.0441067762
 34
0.0
100
AcDbRotatedDimension
  0
DIMENSION
  5
13E
330
1F
100
AcDbEntity
  8
VERMASSUNG
100
AcDbDimension
  2
_D_2
 10
215.3220533881
 20
149.2675206912
 30
0.0
 11
181.8220533881
 21
149.2675206912
 31
0.0
 70
   160
  1
<>
 71
     2
 42
-1.0
  3
SLDDIMSTYLE0
100
AcDbAlignedDimension
 13
148.3220533881
 23
128.4691067762
 33
0.0
 14
215.3220533881
 24
116.0441067762
 34
0.0
100
AcDbRotatedDimension
  0
DIMENSION
  5
148
330
1F
100
AcDbEntity
  8
VERMASSUNG
100
AcDbDimension
  2
_D_3
 10
215.3220533881
 20
143.2675206912
 30
0.0
 11
195.3220533881
 21
143.2675206912
 31
0.0
 70
   160
  1
<>
 71
     2
 42
-1.0
  3
SLDDIMSTYLE0
100
AcDbAlignedDimension
 13
175.3220533881
 23
136.7441067762
 33
0.0
 14
215.3220533881
 24
116.0441067762
 34
0.0
100
AcDbRotatedDimension
  0
DIMENSION
  5
152
330
1F
100
AcDbEntity
  8
VERMASSUNG
100
AcDbDimension
  2
_D_4
 10
221.6109419454
 20
96.2441067762
 30
0.0
 11
221.6109419454
 21
106.2441067762
 31
0.0
 70
   160
  1
MBM %%c<>
 71
     2
 42
-1.0
  3
SLDDIMSTYLE0
100
AcDbAlignedDimension
 13
215.1220533881
 23
116.2441067762
 33
0.0
 14
215.1220533881
 24
96.2441067762
 34
0.0
 50
90.0
100
AcDbRotatedDimension
  0
LINE
  5
15E
330
1F
100
AcDbEntity
  8
VERMASSUNG
  6
CENTERX2
 62
     7
370
     0
100
AcDbLine
 10
80.9220533881
 20
106.2441067762
 30
0.0
 11
217.3220533881
 21
106.2441067762
 31
0.0
  0
SPLINE
  5
15F
330
1F
100
AcDbEntity
  8
0
  6
Continuous
 62
     7
370
    15
100
AcDbSpline
210
0.0
220
0.0
230
1.0
 70
     8
 71
     3
 72
    21
 73
    17
 74
     0
 42
0.000000001
 43
0.00000001
 40
0.0
 40
0.0
 40
0.0
 40
0.0
 40
0.0030298119372405
 40
0.078829766423951
 40
0.1550402421068172
 40
0.2317517592954973
 40
0.3089459760642777
 40
0.3865309322168169
 40
0.4643867751795193
 40
0.5424012378521618
 40
0.62048722566842
 40
0.698578022764779
 40
0.7766393299225419
 40
0.8546581226826864
 40
0.9326312587006608
 40
0.9999999999999999
 40
0.9999999999999999
 40
0.9999999999999999
 40
0.9999999999999999
 10
257.6005961000195
 20
20.27053005387205
 30
0.0
 10
257.6106681826845
 20
20.26734384735482
 30
0.0
 10
257.8727240265246
 20
20.18444500058319
 30
0.0
 10
258.4269110272594
 20
20.11338670475515
 30
0.0
 10
259.2598934120061
 20
20.06615523279489
 30
0.0
 10
260.1309785605063
 20
20.13104927189607
 30
0.0
 10
261.0282440977347
 20
20.29349414133421
 30
0.0
 10
261.9470917175599
 20
20.55675902091862
 30
0.0
 10
262.8802600951494
 20
20.91804472073493
 30
0.0
 10
263.8209005998449
 20
21.37494307143554
 30
0.0
 10
264.7620697470222
 20
21.92376421285102
 30
0.0
 10
265.6969491518279
 20
22.5604043105583
 30
0.0
 10
266.6193465513023
 20
23.27947425337036
 30
0.0
 10
267.5218465955057
 20
24.07773510730395
 30
0.0
 10
268.3629976535979
 20
24.90283029389483
 30
0.0
 10
268.885285794131
 20
25.49108744364038
 30
0.0
 10
269.1273763414168
 20
25.76375588903394
 30
0.0
  0
SPLINE
  5
160
330
1F
100
AcDbEntity
  8
0
  6
Continuous
 62
     7
370
    15
100
AcDbSpline
210
0.0
220
0.0
230
1.0
 70
     8
 71
     3
 72
    21
 73
    17
 74
     0
 42
0.000000001
 43
0.00000001
 40
0.0
 40
0.0
 40
0.0
 40
0.0
 40
0.0293611610255374
 40
0.1077740419263611
 40
0.1862357697588563
 40
0.2647548246821884
 40
0.3433371693188581
 40
0.4219841106411812
 40
0.5006888971546158
 40
0.5794316608363119
 40
0.6581558412504765
 40
0.7367823755125891
 40
0.8152015409429305
 40
0.8932800540909107
 40
0.9708895872275535
 40
1.0
 40
1.0
 40
1.0
 40
1.0
 10
274.123542791576
 20
34.42622300080453
 30
0.0
 10
274.1769571171856
 20
34.57602924133816
 30
0.0
 10
274.373021494977
 20
35.12591294770994
 30
0.0
 10
274.6385764397324
 20
36.07507142701679
 30
0.0
 10
274.9174207832313
 20
37.26357794647987
 30
0.0
 10
275.1159771878393
 20
38.43393828015076
 30
0.0
 10
275.2383146990305
 20
39.57821820251379
 30
0.0
 10
275.2816028498026
 20
40.68872082292135
 30
0.0
 10
275.2454238972596
 20
41.75788869509388
 30
0.0
 10
275.1292607160205
 20
42.77818930243204
 30
0.0
 10
274.933422701386
 20
43.74234529703888
 30
0.0
 10
274.6583351613762
 20
44.64249095999614
 30
0.0
 10
274.3071793995491
 20
45.47343944536264
 30
0.0
 10
273.8769681453969
 20
46.22109036160934
 30
0.0
 10
273.4921662186983
 20
46.76504167151749
 30
0.0
 10
273.228522091126
 20
47.02731363057145
 30
0.0
 10
273.1566068618473
 20
47.09885456813155
 30
0.0
  0
LINE
  5
161
330
1F
100
AcDbEntity
  8
0
  6
Continuous
 62
     7
370
    15
100
AcDbLine
 10
254.5639035414
 20
21.758375225
 30
0.0
 11
256.1106996252
 21
20.8654288527
 31
0.0
  0
LINE
  5
162
330
1F
100
AcDbEntity
  8
0
  6
Continuous
 62
     7
370
    15
100
AcDbLine
 10
271.8594196642
 20
48.1459680177
 30
0.0
 11
270.3126235804
 21
49.03891439
 31
0.0
  0
LINE
  5
163
330
1F
100
AcDbEntity
  8
0
  6
Continuous
 62
     7
370
    15
100
AcDbLine
 10
278.4106126046
 20
22.0959634123
 30
0.0
 11
278.4813117903
 21
22.1367904523
 31
0.0
  0
LINE
  5
164
330
1F
100
AcDbEntity
  8
0
  6
Continuous
 62
     7
370
    15
100
AcDbLine
 10
281.9455718869
 20
28.137715163
 30
0.0
 11
281.9455718869
 21
28.2193559741
 31
0.0
  0
LINE
  5
165
330
1F
100
AcDbEntity
  8
0
  6
Continuous
 62
     7
370
    15
100
AcDbLine
 10
263.2530297661
 20
29.1549439835
 30
0.0
 11
275.9102411493
 21
21.8480913827
 31
0.0
  0
LINE
  5
166
330
1F
100
AcDbEntity
  8
0
  6
Continuous
 62
     7
370
    15
100
AcDbLine
 10
280.9098348125
 20
30.5085800065
 30
0.0
 11
268.2526234293
 21
37.8154326073
 31
0.0
  0
LINE
  5
167
330
1F
100
AcDbEntity
  8
0
  6
Continuous
 62
     7
370
    15
100
AcDbLine
 10
266.7594120049
 20
51.0901397709
 30
0.0
 11
263.7276916806
 21
52.8403146607
 31
0.0
  0
SPLINE
  5
168
330
1F
100
AcDbEntity
  8
0
  6
Continuous
 62
     7
370
    15
100
AcDbSpline
210
0.0
220
0.0
230
1.0
 70
     8
 71
     3
 72
    31
 73
    27
 74
     0
 42
0.000000001
 43
0.00000001
 40
0.0
 40
0.0
 40
0.0
 40
0.0
 40
0.0026956622572213
 40
0.0459909860638
 40
0.0895322458528202
 40
0.133361515484823
 40
0.177460708252314
 40
0.2217734568929194
 40
0.2662309539301957
 40
0.3107708072864376
 40
0.3553456700301147
 40
0.3999188358753893
 40
0.4444736375051254
 40
0.4890036251643686
 40
0.5335076180716302
 40
0.5779876209915311
 40
0.6224474704522271
 40
0.6668920076250986
 40
0.7113266013610813
 40
0.7557568909842197
 40
0.800188658435342
 40
0.8446260164478934
 40
0.8890746843554167
 40
0.9335405731594236
 40
0.9780294782501454
 40
0.9999999999999999
 40
0.9999999999999999
 40
0.9999999999999999
 40
0.9999999999999999
 10
262.1424415078058
 20
53.45686080630824
 30
0.0
 10
262.1266193377764
 20
53.46154870843518
 30
0.0
 10
261.8566755792908
 20
53.54152951493683
 30
0.0
 10
261.2929797243962
 20
53.60432117358984
 30
0.0
 10
260.4546651793001
 20
53.63672218123409
 30
0.0
 10
259.5793018541651
 20
53.55736245237337
 30
0.0
 10
258.6785484123179
 20
53.38038148781115
 30
0.0
 10
257.7571944888692
 20
53.10279693983997
 30
0.0
 10
256.822518302226
 20
52.72751387804589
 30
0.0
 10
255.8813720584515
 20
52.25709393307256
 30
0.0
 10
254.9407033019885
 20
51.69529704908344
 30
0.0
 10
254.007212617885
 20
51.04646312450198
 30
0.0
 10
253.0873717836792
 20
50.31550619814244
 30
0.0
 10
252.1873896944116
 20
49.50777033293331
 30
0.0
 10
251.3132807180913
 20
48.62903066139617
 30
0.0
 10
250.4708716371999
 20
47.68547381034723
 30
0.0
 10
249.6657833820277
 20
46.68367089699031
 30
0.0
 10
248.9034066553818
 20
45.63054580169572
 30
0.0
 10
248.1888639430433
 20
44.53333597376376
 30
0.0
 10
247.5270043228235
 20
43.39955520132686
 30
0.0
 10
246.9222790294215
 20
42.23693908921727
 30
0.0
 10
246.3790783211282
 20
41.0534636515263
 30
0.0
 10
245.9002979671669
 20
39.85698156775975
 30
0.0
 10
245.4925639388433
 20
38.65629597591509
 30
0.0
 10
245.2050577444309
 20
37.65946011722389
 30
0.0
 10
245.0737060706148
 20
37.06964590047413
 30
0.0
 10
245.0302831140284
 20
36.8746618825024
 30
0.0
  0
LINE
  5
169
330
1F
100
AcDbEntity
  8
0
  6
Continuous
 62
     7
370
    15
100
AcDbLine
 10
254.7203313755
 20
51.5267986861
 30
0.0
 11
234.8281940031
 21
58.6951364981
 31
0.0
  0
LINE
  5
16A
330
1F
100
AcDbEntity
  8
0
  6
Continuous
 62
     7
370
    15
100
AcDbLine
 10
228.4567245917
 20
47.6582318871
 30
0.0
 11
247.4845986781
 21
31.5912523097
 31
0.0
  0
LINE
  5
16B
330
1F
100
AcDbEntity
  8
0
  6
Continuous
 62
     7
370
    15
100
AcDbLine
 10
247.9789716416
 20
25.5597754957
 30
0.0
 11
251.0106919659
 21
23.8096006059
 31
0.0
  0
SPLINE
  5
16C
330
1F
100
AcDbEntity
  8
0
  6
Continuous
 62
     7
370
    15
100
AcDbSpline
210
0.0
220
0.0
230
1.0
 70
     8
 71
     3
 72
    12
 73
     8
 74
     0
 42
0.000000001
 43
0.00000001
 40
0.0
 40
0.0
 40
0.0
 40
0.0
 40
0.0870000302701161
 40
0.3432506754587267
 40
0.598770038007717
 40
0.8528664596654979
 40
1.0
 40
1.0
 40
1.0
 40
1.0
 10
245.0158413544513
 20
29.62661625338241
 30
0.0
 10
245.045752493523
 20
29.52414220459115
 30
0.0
 10
245.1637641615445
 20
29.11984020198974
 30
0.0
 10
245.4253795756094
 20
28.46094829291785
 30
0.0
 10
245.8319632884472
 20
27.68820345836433
 30
0.0
 10
246.2363657485446
 20
27.08145056120927
 30
0.0
 10
246.5309590528362
 20
26.76831780911118
 30
0.0
 10
246.6389882628285
 20
26.65349006747866
 30
0.0
  0
SPLINE
  5
16D
330
1F
100
AcDbEntity
  8
0
  6
Continuous
 62
     7
370
    15
100
AcDbSpline
210
0.0
220
0.0
230
1.0
 70
     8
 71
     3
 72
    25
 73
    21
 74
     0
 42
0.000000001
 43
0.00000001
 40
0.0
 40
0.0
 40
0.0
 40
0.0
 40
0.0353048655902018
 40
0.0915854568434995
 40
0.1488513741872154
 40
0.207338033956575
 40
0.2668204192514977
 40
0.3268674031455533
 40
0.3870976313879108
 40
0.4472690272955349
 40
0.5073304355272636
 40
0.5672894808445756
 40
0.6271800435593513
 40
0.6870465961881561
 40
0.7469359908050875
 40
0.8068842563241431
 40
0.8669429772043646
 40
0.9271617749220931
 40
0.9843681413975529
 40
1.0
 40
1.0
 40
1.0
 40
1.0
 10
234.7396541206065
 20
58.71218093507663
 30
0.0
 10
234.6352075929922
 20
58.74657273655885
 30
0.0
 10
234.3642595866097
 20
58.8357895852216
 30
0.0
 10
233.8846522944049
 20
58.86685172368129
 30
0.0
 10
233.3160424361278
 20
58.81831768673595
 30
0.0
 10
232.7229639909802
 20
58.6656087038139
 30
0.0
 10
232.1162203603255
 20
58.41497423178379
 30
0.0
 10
231.5062982489743
 20
58.06859777816273
 30
0.0
 10
230.905217692488
 20
57.63371056786608
 30
0.0
 10
230.323948371106
 20
57.11903098289597
 30
0.0
 10
229.7723017684455
 20
56.53442856911857
 30
0.0
 10
229.2590203039337
 20
55.89023139383104
 30
0.0
 10
228.7921927323139
 20
55.19738610868914
 30
0.0
 10
228.3792721506925
 20
54.46738266084611
 30
0.0
 10
228.0270157149243
 20
53.71217368098027
 30
0.0
 10
227.7414621162151
 20
52.94399978322607
 30
0.0
 10
227.5275107774237
 20
52.17496999001432
 30
0.0
 10
227.3927658222116
 20
51.43105733009798
 30
0.0
 10
227.3471209040456
 20
50.89053404916437
 30
0.0
 10
227.3444343670403
 20
50.60479583251573
 30
0.0
 10
227.3438578075958
 20
50.54347336899895
 30
0.0
  0
SPLINE
  5
16E
330
1F
100
AcDbEntity
  8
0
  6
Continuous
 62
     7
370
    15
100
AcDbSpline
210
0.0
220
0.0
230
1.0
 70
     8
 71
     3
 72
    13
 73
     9
 74
     0
 42
0.000000001
 43
0.00000001
 40
0.0
 40
0.0
 40
0.0
 40
0.0
 40
0.1032503366444278
 40
0.2985395242481425
 40
0.4938496886365012
 40
0.6875172807719486
 40
0.877759895113391
 40
0.9999999999999999
 40
0.9999999999999999
 40
0.9999999999999999
 40
0.9999999999999999
 10
227.3438578075958
 20
50.54347336899895
 30
0.0
 10
227.3461920755796
 20
50.41928553124379
 30
0.0
 10
227.3529414119596
 20
50.06020701193093
 30
0.0
 10
227.4286787713192
 20
49.49962945359081
 30
0.0
 10
227.5986031134596
 20
48.88846604285926
 30
0.0
 10
227.8564127677155
 20
48.35143181021191
 30
0.0
 10
228.1455222731309
 20
47.93578517908648
 30
0.0
 10
228.3767954969478
 20
47.74192040386637
 30
0.0
 10
228.467267261936
 20
47.66608244868194
 30
0.0
  0
LINE
  5
16F
330
1F
100
AcDbEntity
  8
0
  6
Continuous
 62
     7
370
    15
100
AcDbLine
 10
277.34952143
 20
31.7712919318
 30
0.0
 11
277.2434381784
 21
31.8325523961
 31
0.0
  0
LINE
  5
170
330
1F
100
AcDbEntity
  8
0
  6
Continuous
 62
     7
370
    15
100
AcDbLine
 10
275.6875504869
 20
31.8325523961
 30
0.0
 11
275.5814672353
 21
31.7712919318
 31
0.0
  0
LINE
  5
171
330
1F
100
AcDbEntity
  8
0
  6
Continuous
 62
     7
370
    15
100
AcDbLine
 10
277.7154943327
 20
31.0773981033
 30
0.0
 11
277.7154943327
 21
31.261119786
 31
0.0
  0
LINE
  5
172
330
1F
100
AcDbEntity
  8
0
  6
Continuous
 62
     7
370
    15
100
AcDbLine
 10
275.2154943327
 20
31.261119786
 30
0.0
 11
275.2154943327
 21
31.0773981033
 31
0.0
  0
ARC
  5
173
330
1F
100
AcDbEntity
  8
0
  6
Continuous
 62
     7
370
    15
100
AcDbCircle
 10
269.1799370127
 20
43.5044069294
 30
0.0
 40
5.358074430547029
100
AcDbArc
 50
43.1408448853
 51
76.7904746878
  0
ARC
  5
174
330
1F
100
AcDbEntity
  8
0
  6
Continuous
 62
     7
370
    15
100
AcDbCircle
 10
258.7923492442
 20
25.5111136071
 30
0.0
 40
5.36248583421065
100
AcDbArc
 50
223.1069864387
 51
256.2124654503
  0
ARC
  5
175
330
1F
100
AcDbEntity
  8
0
  6
Continuous
 62
     7
370
    15
100
AcDbCircle
 10
258.3256214572
 20
27.5059033591
 30
0.0
 40
6.869104842012443
100
AcDbArc
 50
188.2309578672
 51
236.7955268677
  0
SPLINE
  5
176
330
1F
100
AcDbEntity
  8
0
  6
Continuous
 62
     7
370
    15
100
AcDbSpline
210
0.0
220
0.0
230
1.0
 70
     8
 71
     3
 72
    29
 73
    25
 74
     0
 42
0.000000001
 43
0.00000001
 40
0.0
 40
0.0
 40
0.0
 40
0.0
 40
0.0226170105016674
 40
0.0451713142211041
 40
0.0676870228449807
 40
0.090188372120831
 40
0.1126996441629423
 40
0.1352450890127045
 40
0.1578488467149011
 40
0.1805348711521328
 40
0.2033268568146046
 40
0.2262481695760157
 40
0.2493217824052029
 40
0.3751991801868492
 40
0.499961424646005
 40
0.4999717960761217
 40
0.6247044141102638
 40
0.7509557879397657
 40
0.7931713871186022
 40
0.8349081045046313
 40
0.8763104515914815
 40
0.9175264576320521
 40
0.9587061619408423
 40
1.0
 40
1.0
 40
1.0
 40
1.0
 10
251.5274364597852
 20
31.67675020102766
 30
0.0
 10
251.5458016849074
 20
31.62791031122923
 30
0.0
 10
251.5824812166551
 20
31.53036594264671
 30
0.0
 10
251.6341710453181
 20
31.38290333324918
 30
0.0
 10
251.6833524051392
 20
31.2349660437319
 30
0.0
 10
251.7298420750372
 20
31.08647417850293
 30
0.0
 10
251.7737521714957
 20
30.93748221237176
 30
0.0
 10
251.8151173629512
 20
30.78801042379359
 30
0.0
 10
251.8539946496564
 20
30.63809032048364
 30
0.0
 10
251.8904364946798
 20
30.48775151050002
 30
0.0
 10
251.9244984757685
 20
30.33702905887143
 30
0.0
 10
251.956235528868
 20
30.18594736213119
 30
0.0
 10
252.0293938007425
 20
29.81022615517968
 30
0.0
 10
252.1150703407818
 20
29.22145573346321
 30
0.0
 10
252.1408027025987
 20
28.71997212945679
 30
0.0
 10
252.1412398588338
 20
28.24951930421306
 30
0.0
 10
252.1158088021144
 20
27.80307677432541
 30
0.0
 10
252.0238414860763
 20
27.36705010283567
 30
0.0
 10
251.9312875920311
 20
27.09885722021309
 30
0.0
 10
251.8677049681424
 20
26.95260610937862
 30
0.0
 10
251.7960594641068
 20
26.82168577753274
 30
0.0
 10
251.7158046897941
 20
26.70623944508214
 30
0.0
 10
251.6274030302001
 20
26.6047174406372
 30
0.0
 10
251.5610463762883
 20
26.54971856367462
 30
0.0
 10
251.5278221344028
 20
26.52218106918219
 30
0.0
  0
LWPOLYLINE
  5
177
330
1F
100
AcDbEntity
  8
0
  6
Continuous
 62
     7
370
    15
100
AcDbPolyline
 90
       26
 70
   128
 43
0.0
 10
251.5272177186
 20
31.6768764776
 10
251.7666074212
 20
32.9164532642
 10
252.0891967759
 20
34.1753820118
 10
252.4924707729
 20
35.4438477082
 10
252.9732853587
 20
36.7119609883
 10
253.5278919487
 20
37.9698352345
 10
254.1519666522
 20
39.2076636559
 10
254.8406439826
 20
40.4157957453
 10
255.5885547908
 20
41.5848125177
 10
256.3898681243
 20
42.7055999436
 10
257.2383366876
 20
43.7694200048
 10
258.1273455477
 20
44.7679788193
 10
259.0499637065
 20
45.6934913023
 10
259.9989981372
 20
46.5387418619
 10
260.967049863
 20
47.2971406537
 10
261.9465716425
 20
47.9627749577
 10
262.9299268098
 20
48.5304552754
 10
263.9094488127
 20
48.9957557891
 10
264.8775009839
 20
49.3550488668
 10
265.8265360781
 20
49.6055333446
 10
266.7491551137
 20
49.7452563651
 10
267.6381650568
 20
49.7731286029
 10
268.4866349009
 20
49.6889327571
 10
269.2879497032
 20
49.4933252455
 10
270.0358621565
 20
49.1878310869
 10
270.3126235804
 20
49.03891439
  0
LWPOLYLINE
  5
178
330
1F
100
AcDbEntity
  8
0
  6
Continuous
 62
     7
370
    15
100
AcDbPolyline
 90
       40
 70
   128
 43
0.0
 10
275.0159254312
 20
24.137315415
 10
275.060793982
 20
24.8050310299
 10
275.1942375626
 20
25.5072572871
 10
275.4128000541
 20
26.2258068955
 10
275.7108208031
 20
26.9420697977
 10
276.0805812285
 20
27.6374951607
 10
276.5125047297
 20
28.2940718329
 10
276.9954047147
 20
28.8947948235
 10
277.5167743277
 20
29.4241057224
 10
278.0631103695
 20
29.8682956555
 10
278.6202630236
 20
30.2158603367
 10
279.173802329
 20
30.4577980235
 10
279.7093919084
 20
30.5878426568
 10
280.2131602729
 20
30.602626149
 10
280.6720600867
 20
30.5017656152
 10
281.0742060856
 20
30.2878732905
 10
281.4091828993
 20
29.9664888736
 10
281.6683148045
 20
29.5459360521
 10
281.8448904209
 20
29.0371069232
 10
281.9343365328
 20
28.4531798941
 10
281.9343365328
 20
27.8092783681
 10
281.8448904209
 20
27.1220790565
 10
281.6683148045
 20
26.4093800604
 10
281.4091828993
 20
25.6896399096
 10
281.0742060856
 20
24.9814994958
 10
280.6720600867
 20
24.3032992839
 10
280.2131602729
 20
23.672604303
 10
279.7093919084
 20
23.1057492219
 10
279.173802329
 20
22.6174152894
 10
278.6202630236
 20
22.2202500979
 10
278.0631103695
 20
21.9245400172
 10
277.5167743277
 20
21.7379437831
 10
276.9954047147
 20
21.66529414
 10
276.5125047297
 20
21.7084726755
 10
276.0805812285
 20
21.8663610882
 10
275.7108208031
 20
22.1348701511
 10
275.4128000541
 20
22.5070456207
 10
275.1942375626
 20
22.9732483477
 10
275.060793982
 20
23.5214039263
 10
275.0159254312
 20
24.137315415
  0
LWPOLYLINE
  5
179
330
1F
100
AcDbEntity
  8
0
  6
Continuous
 62
     7
370
    15
100
AcDbPolyline
 90
       21
 70
   128
 43
0.0
 10
274.874504075
 20
24.137315415
 10
274.9180323643
 20
24.801119387
 10
275.0475454211
 20
25.4988349952
 10
275.2598542042
 20
26.2132821657
 10
275.5497309668
 20
26.9268688382
 10
275.9100379809
 20
27.6220241404
 10
276.331903292
 20
28.2816310417
 10
276.8049391761
 20
28.8894478312
 10
277.3174979198
 20
29.4305080422
 10
277.8569586257
 20
29.8914889766
 10
278.4100379809
 20
30.261039754
 10
278.9631173361
 20
30.5300608078
 10
279.502578042
 20
30.6919279467
 10
280.0151367857
 20
30.7426554646
 10
280.4881726698
 20
30.6809942816
 10
280.9100379809
 20
30.5084627008
 10
281.270344995
 20
30.2293090222
 10
281.5602217576
 20
29.8504069359
 10
281.7725305407
 20
29.3810862687
 10
281.9020435976
 20
28.8329032531
 10
281.9455718869
 20
28.2193559741
  0
LWPOLYLINE
  5
17A
330
1F
100
AcDbEntity
  8
0
  6
Continuous
 62
     7
370
    15
100
AcDbPolyline
 90
       12
 70
   128
 43
0.0
 10
278.4106126046
 20
22.0959634123
 10
278.4100379809
 20
22.0956316352
 10
277.8569586257
 20
21.8266105814
 10
277.3174979198
 20
21.6647434425
 10
276.8049391761
 20
21.6140159246
 10
276.331903292
 20
21.6756771076
 10
275.9100379809
 20
21.8482086884
 10
275.5497309668
 20
22.127362367
 10
275.2598542042
 20
22.5062644533
 10
275.0475454211
 20
22.9755851205
 10
274.9180323643
 20
23.5237681361
 10
274.874504075
 20
24.137315415
  0
SPLINE
  5
17B
330
1F
100
AcDbEntity
  8
0
  6
Continuous
 62
     7
370
    15
100
AcDbSpline
210
0.0
220
0.0
230
1.0
 70
     8
 71
     3
 72
    38
 73
    34
 74
     0
 42
0.000000001
 43
0.00000001
 40
0.0
 40
0.0
 40
0.0
 40
0.0
 40
0.0625
 40
0.0625
 40
0.125
 40
0.125
 40
0.1875
 40
0.1875
 40
0.2500000000000001
 40
0.2500000000000001
 40
0.3125000000000001
 40
0.3125000000000001
 40
0.375
 40
0.375
 40
0.4375
 40
0.4375
 40
0.5
 40
0.5
 40
0.5625
 40
0.5625
 40
0.625
 40
0.625
 40
0.6875
 40
0.6875
 40
0.7499999999999999
 40
0.7499999999999999
 40
0.8124999999999999
 40
0.8124999999999999
 40
0.8749999999999999
 40
0.8749999999999999
 40
0.9374999999999999
 40
0.9374999999999999
 40
1.0
 40
1.0
 40
1.0
 40
1.0
 10
277.614542852084
 20
30.72026931692132
 30
0.0
 10
277.5439902672141
 20
30.67954017662
 30
0.0
 10
277.4649046518619
 20
30.64136813740985
 30
0.0
 10
277.2922864233983
 20
30.57177116192626
 30
0.0
 10
277.2014164664999
 20
30.54134840705831
 30
0.0
 10
277.0112751494502
 20
30.4892280945348
 30
0.0
 10
276.9124281373902
 20
30.46779657342943
 30
0.0
 10
276.7150089624846
 20
30.43588162744116
 30
0.0
 10
276.6144556122267
 20
30.42507470306307
 30
0.0
 10
276.4165807247551
 20
30.41494134974439
 30
0.0
 10
276.3194258809006
 20
30.41549895712252
 30
0.0
 10
276.1282875867236
 20
30.42829215261379
 30
0.0
 10
276.0343133153077
 20
30.44068094097954
 30
0.0
 10
275.8558810306903
 20
30.47690207303102
 30
0.0
 10
275.7705276844037
 20
30.50076228573054
 30
0.0
 10
275.6074967053109
 20
30.56062482282563
 30
0.0
 10
275.5306545515606
 20
30.59645680432096
 30
0.0
 10
275.3899872089858
 20
30.67791543329102
 30
0.0
 10
275.3255109497259
 20
30.72376737197054
 30
0.0
 10
275.2086769501473
 20
30.82584627344458
 30
0.0
 10
275.1571581481033
 20
30.88149777038696
 30
0.0
 10
275.0701507837023
 20
30.99875858071595
 30
0.0
 10
275.0342237316102
 20
31.06072975749865
 30
0.0
 10
274.9785946834606
 20
31.19092170913077
 30
0.0
 10
274.9594493165889
 20
31.25818092808083
 30
0.0
 10
274.9398388157957
 20
31.39287473351993
 30
0.0
 10
274.9391345370094
 20
31.46078849888142
 30
0.0
 10
274.9583507661817
 20
31.596742166641
 30
0.0
 10
274.978210772328
 20
31.66323681689695
 30
0.0
 10
275.0389789177008
 20
31.78921337293201
 30
0.0
 10
275.0807910754086
 20
31.84986584723634
 30
0.0
 10
275.1839483280729
 20
31.95791031698687
 30
0.0
 10
275.2451218870261
 20
32.00575807245925
 30
0.0
 10
275.3164458132278
 20
32.04693249863323
 30
0.0
  0
SPLINE
  5
17C
330
1F
100
AcDbEntity
  8
0
  6
Continuous
 62
     7
370
    15
100
AcDbSpline
210
0.0
220
0.0
230
1.0
 70
     8
 71
     3
 72
    32
 73
    28
 74
     0
 42
0.000000001
 43
0.00000001
 40
0.0
 40
0.0
 40
0.0
 40
0.0
 40
0.0625000000000004
 40
0.0625000000000004
 40
0.1250000000000008
 40
0.1250000000000008
 40
0.1875000000000012
 40
0.1875000000000012
 40
0.2500000000000016
 40
0.2500000000000016
 40
0.3750000000000023
 40
0.3750000000000023
 40
0.5000000000000031
 40
0.5000000000000031
 40
0.6250000000000039
 40
0.6250000000000039
 40
0.6875000000000033
 40
0.6875000000000033
 40
0.7500000000000027
 40
0.7500000000000027
 40
0.8125000000000021
 40
0.8125000000000021
 40
0.8750000000000016
 40
0.8750000000000016
 40
0.9375000000000008
 40
0.9375000000000008
 40
1.0
 40
1.0
 40
1.0
 40
1.0
 10
275.3164458132278
 20
32.04693249863323
 30
0.0
 10
275.3878508744704
 20
32.08815376306928
 30
0.0
 10
275.4676434716749
 20
32.12143319959371
 30
0.0
 10
275.6390061100472
 20
32.17148922743153
 30
0.0
 10
275.7320778675436
 20
32.18852787586098
 30
0.0
 10
275.9220871921146
 20
32.2066582503205
 30
0.0
 10
276.020670006534
 20
32.20809410505341
 30
0.0
 10
276.219946775027
 20
32.19777177419696
 30
0.0
 10
276.3194814957598
 20
32.18618983119932
 30
0.0
 10
276.6180880606846
 20
32.13546805166043
 30
0.0
 10
276.8081661196443
 20
32.08242023532348
 30
0.0
 10
277.1684159105523
 20
31.95093158655087
 30
0.0
 10
277.3304733558803
 20
31.87535993692411
 30
0.0
 10
277.6145345972635
 20
31.71076951319672
 30
0.0
 10
277.7305887326482
 20
31.62520908846793
 30
0.0
 10
277.8622101540977
 20
31.49106139689997
 30
0.0
 10
277.8978274280435
 20
31.44640256618742
 30
0.0
 10
277.9525584929543
 20
31.35617886548157
 30
0.0
 10
277.9717476749096
 20
31.31033917801714
 30
0.0
 10
277.9913463781948
 20
31.21757324480208
 30
0.0
 10
277.9916586557673
 20
31.17162320723956
 30
0.0
 10
277.9725080836022
 20
31.07929471084733
 30
0.0
 10
277.9526861747851
 20
31.03236149891867
 30
0.0
 10
277.8914034549214
 20
30.93939277427181
 30
0.0
 10
277.8506973465927
 20
30.89409732828217
 30
0.0
 10
277.7481481785347
 20
30.80517030667728
 30
0.0
 10
277.68517569455
 20
30.76104478894659
 30
0.0
 10
277.614542852084
 20
30.72026931692132
 30
0.0
  0
ARC
  5
17D
330
1F
100
AcDbEntity
  8
0
  6
Continuous
 62
     7
370
    15
100
AcDbCircle
 10
276.4203692204
 20
22.9224038233
 30
0.0
 40
0.4510551675024037
100
AcDbArc
 50
173.8039352909
 51
288.0938669718
  0
LWPOLYLINE
  5
17E
330
1F
100
AcDbEntity
  8
0
  6
Continuous
 62
     7
370
    15
100
AcDbPolyline
 90
        9
 70
   128
 43
0.0
 10
280.401041782
 20
24.7107770402
 10
279.9778134781
 20
24.1110112416
 10
279.5063947746
 20
23.5764784501
 10
279.0019606027
 20
23.1243852344
 10
278.480748659
 20
22.76928444
 10
277.9595367154
 20
22.5226067335
 10
277.4551025435
 20
22.3922926512
 10
276.98368384
 20
22.3825369932
 10
276.5604555361
 20
22.4936537932
  0
ARC
  5
17F
330
1F
100
AcDbEntity
  8
0
  6
Continuous
 62
     7
370
    15
100
AcDbCircle
 10
279.2485705262
 20
26.0251641563
 30
0.0
 40
1.748085663338367
100
AcDbArc
 50
311.2446942589
 51
354.8314148769
  0
ARC
  5
180
330
1F
100
AcDbEntity
  8
0
  6
Continuous
 62
     7
370
    15
100
AcDbCircle
 10
277.6440829572
 20
27.5858145354
 30
0.0
 40
3.760865234061595
100
AcDbArc
 50
332.8163458041
 51
27.1836541959
  0
ARC
  5
181
330
1F
100
AcDbEntity
  8
0
  6
Continuous
 62
     7
370
    15
100
AcDbCircle
 10
280.5411280977
 20
29.3526267547
 30
0.0
 40
0.451055167502435
100
AcDbArc
 50
353.8039352909
 51
108.0938669718
  0
LWPOLYLINE
  5
182
330
1F
100
AcDbEntity
  8
0
  6
Continuous
 62
     7
370
    15
100
AcDbPolyline
 90
        9
 70
   128
 43
0.0
 10
276.5604555361
 20
27.5642535378
 10
276.98368384
 20
28.1640193364
 10
277.4551025435
 20
28.6985521279
 10
277.9595367154
 20
29.1506453436
 10
278.480748659
 20
29.505746138
 10
279.0019606027
 20
29.7524238445
 10
279.5063947746
 20
29.8827379268
 10
279.9778134781
 20
29.8924935849
 10
280.401041782
 20
29.7813767848
  0
ARC
  5
183
330
1F
100
AcDbEntity
  8
0
  6
Continuous
 62
     7
370
    15
100
AcDbCircle
 10
277.7129267919
 20
26.2498664217
 30
0.0
 40
1.748085663338335
100
AcDbArc
 50
131.2446942589
 51
174.8314148769
  0
ARC
  5
184
330
1F
100
AcDbEntity
  8
0
  6
Continuous
 62
     7
370
    15
100
AcDbCircle
 10
279.3174143609
 20
24.6892160426
 30
0.0
 40
3.760865234061703
100
AcDbArc
 50
152.8163458041
 51
207.1836541959
  0
SPLINE
  5
185
330
1F
100
AcDbEntity
  8
0
  6
Continuous
 62
     7
370
    15
100
AcDbSpline
210
0.0
220
0.0
230
1.0
 70
     8
 71
     3
 72
     8
 73
     4
 74
     0
 42
0.000000001
 43
0.00000001
 40
0.0
 40
0.0
 40
0.0
 40
0.0
 40
1.0
 40
1.0
 40
1.0
 40
1.0
 10
280.1655982983949
 20
29.72696896674561
 30
0.0
 10
280.2466862359065
 20
29.75290269559608
 30
0.0
 10
280.3251540214491
 20
29.7712310481148
 30
0.0
 10
280.4010417819745
 20
29.78137678476412
 30
0.0
  0
SPLINE
  5
186
330
1F
100
AcDbEntity
  8
0
  6
Continuous
 62
     7
370
    15
100
AcDbSpline
210
0.0
220
0.0
230
1.0
 70
     8
 71
     3
 72
     8
 73
     4
 74
     0
 42
0.000000001
 43
0.00000001
 40
0.0
 40
0.0
 40
0.0
 40
0.0
 40
1.0
 40
1.0
 40
1.0
 40
1.0
 10
279.8089740663855
 20
29.60905171240347
 30
0.0
 10
279.9269159042288
 20
29.6494386978955
 30
0.0
 10
280.045853291603
 20
29.68867184595753
 30
0.0
 10
280.1655982983949
 20
29.72696896674561
 30
0.0
  0
ARC
  5
187
330
1F
100
AcDbEntity
  8
0
  6
Continuous
 62
     7
370
    15
100
AcDbCircle
 10
279.8356967244
 20
26.2094010147
 30
0.0
 40
3.399755721593222
100
AcDbArc
 50
90.4503592053
 51
149.544264262
  0
SPLINE
  5
188
330
1F
100
AcDbEntity
  8
0
  6
Continuous
 62
     7
370
    15
100
AcDbSpline
210
0.0
220
0.0
230
1.0
 70
     8
 71
     3
 72
     8
 73
     4
 74
     0
 42
0.000000001
 43
0.00000001
 40
0.0
 40
0.0
 40
0.0
 40
0.0
 40
1.0
 40
1.0
 40
1.0
 40
1.0
 10
276.7007750705808
 20
27.72676909277997
 30
0.0
 10
276.7671223420738
 20
27.79590425441425
 30
0.0
 10
276.8350844913841
 20
27.86456578252695
 30
0.0
 10
276.9050358782743
 20
27.93264387975091
 30
0.0
  0
SPLINE
  5
189
330
1F
100
AcDbEntity
  8
0
  6
Continuous
 62
     7
370
    15
100
AcDbSpline
210
0.0
220
0.0
230
1.0
 70
     8
 71
     3
 72
     8
 73
     4
 74
     0
 42
0.000000001
 43
0.00000001
 40
0.0
 40
0.0
 40
0.0
 40
0.0
 40
1.0
 40
1.0
 40
1.0
 40
1.0
 10
276.5604555361007
 20
27.56425353781646
 30
0.0
 10
276.6090121725243
 20
27.62594802236363
 30
0.0
 10
276.6558516670377
 20
27.67995802285617
 30
0.0
 10
276.7007750705808
 20
27.72676909277997
 30
0.0
  0
SPLINE
  5
18A
330
1F
100
AcDbEntity
  8
0
  6
Continuous
 62
     7
370
    15
100
AcDbSpline
210
0.0
220
0.0
230
1.0
 70
     8
 71
     3
 72
     8
 73
     4
 74
     0
 42
0.000000001
 43
0.00000001
 40
0.0
 40
0.0
 40
0.0
 40
0.0
 40
1.0
 40
1.0
 40
1.0
 40
1.0
 10
275.9719489459949
 20
22.97108669168394
 30
0.0
 10
275.957905656286
 20
23.03474119261903
 30
0.0
 10
275.9475218049457
 20
23.10152189278807
 30
0.0
 10
275.9405306752183
 20
23.17133587288993
 30
0.0
  0
ARC
  5
18B
330
1F
100
AcDbEntity
  8
0
  6
Continuous
 62
     7
370
    15
100
AcDbCircle
 10
279.2784202738
 20
24.7139071133
 30
0.0
 40
3.677095729575294
100
AcDbArc
 50
155.1964677926
 51
204.8035322074
  0
SPLINE
  5
18C
330
1F
100
AcDbEntity
  8
0
  6
Continuous
 62
     7
370
    15
100
AcDbSpline
210
0.0
220
0.0
230
1.0
 70
     8
 71
     3
 72
     8
 73
     4
 74
     0
 42
0.000000001
 43
0.00000001
 40
0.0
 40
0.0
 40
0.0
 40
0.0
 40
1.0
 40
1.0
 40
1.0
 40
1.0
 10
275.9405306752183
 20
26.2564783537699
 30
0.0
 10
275.9475218049457
 20
26.30246257252127
 30
0.0
 10
275.957905656286
 20
26.35272591538459
 30
0.0
 10
275.9719489459949
 20
26.40734539347185
 30
0.0
  0
LWPOLYLINE
  5
18D
330
1F
100
AcDbEntity
  8
0
  6
Continuous
 62
     7
370
    15
100
AcDbPolyline
 90
       22
 70
   128
 43
0.0
 10
278.5233289983
 20
29.2586903681
 10
278.6732010516
 20
29.2546118106
 10
279.0193447181
 20
29.1640271267
 10
279.3056370001
 20
28.962131912
 10
279.519565551
 20
28.6577499561
 10
279.6517806667
 20
28.2641842112
 10
279.696503912
 20
27.7986353888
 10
279.6517806667
 20
27.2814502065
 10
279.519565551
 20
26.7352321384
 10
279.3056370001
 20
26.1838535351
 10
279.0193447181
 20
25.6514122875
 10
278.6732010516
 20
25.1611786329
 10
278.2823341397
 20
24.7345781345
 10
277.8638267421
 20
24.3902552811
 10
277.4359696402
 20
24.1432586337
 10
277.0174622426
 20
24.004383131
 10
276.6265953307
 20
23.9796982988
 10
276.2804516642
 20
24.0702829827
 10
275.9941593822
 20
24.2721781974
 10
275.7802308312
 20
24.5765601533
 10
275.6480157156
 20
24.9701258982
 10
275.6376641918
 20
25.0242021675
  0
LINE
  5
18E
330
1F
100
AcDbEntity
  8
0
  6
Continuous
 62
     7
370
    15
100
AcDbLine
 10
275.9174865772
 20
23.0551583204
 30
0.0
 11
277.050484415
 21
23.70922405
 31
0.0
  0
LINE
  5
18F
330
1F
100
AcDbEntity
  8
0
  6
Continuous
 62
     7
370
    15
100
AcDbLine
 10
280.1530216279
 20
29.604748697
 30
0.0
 11
280.1600546328
 21
29.7422137961
 31
0.0
  0
ARC
  5
190
330
1F
100
AcDbEntity
  8
0
  6
Continuous
 62
     7
370
    15
100
AcDbCircle
 10
276.8151320293
 20
28.0621774566
 30
0.0
 40
3.677095729574777
100
AcDbArc
 50
335.1964677926
 51
24.8035322074
  0
ARC
  5
191
330
1F
100
AcDbEntity
  8
0
  6
Continuous
 62
     7
370
    15
100
AcDbCircle
 10
278.5068107412
 20
26.4511374207
 30
0.0
 40
1.647634140084633
100
AcDbArc
 50
302.0978909557
 51
2.3816591776
  0
LINE
  5
192
330
1F
100
AcDbEntity
  8
0
  6
Continuous
 62
     7
370
    15
100
AcDbLine
 10
278.2493119673
 20
24.4012924648
 30
0.0
 11
279.3823098051
 21
25.0553581944
 31
0.0
  0
ARC
  5
193
330
1F
100
AcDbEntity
  8
0
  6
Continuous
 62
     7
370
    15
100
AcDbCircle
 10
276.1711905701
 20
26.6167325277
 30
0.0
 40
3.037558758884194
100
AcDbArc
 50
286.8264591401
 51
313.1681643272
  0
LINE
  5
194
330
1F
100
AcDbEntity
  8
0
  6
Continuous
 62
     7
370
    15
100
AcDbLine
 10
279.640889459
 20
29.5120185339
 30
0.0
 11
279.8089740664
 21
29.6090517124
 31
0.0
  0
ARC
  5
195
330
1F
100
AcDbEntity
  8
0
  6
Continuous
 62
     7
370
    15
100
AcDbCircle
 10
279.8357006757
 20
26.2093941701
 30
0.0
 40
3.308365018965588
100
AcDbArc
 50
93.3757825808
 51
146.6188408865
  0
LINE
  5
196
330
1F
100
AcDbEntity
  8
0
  6
Continuous
 62
     7
370
    15
100
AcDbLine
 10
276.9050358783
 20
27.9326438798
 30
0.0
 11
277.0731204857
 21
28.0296770582
 31
0.0
  0
SPLINE
  5
197
330
1F
100
AcDbEntity
  8
0
  6
Continuous
 62
     7
370
    15
100
AcDbSpline
210
0.0
220
0.0
230
1.0
 70
     8
 71
     3
 72
     9
 73
     5
 74
     0
 42
0.000000001
 43
0.00000001
 40
0.0
 40
0.0
 40
0.0
 40
0.0
 40
0.4600451708081857
 40
0.9999999999999999
 40
0.9999999999999999
 40
0.9999999999999999
 40
0.9999999999999999
 10
278.8785241158449
 20
29.44781664830513
 30
0.0
 10
278.9943092497505
 20
29.46200195565181
 30
0.0
 10
279.2459913480589
 20
29.49283655244101
 30
0.0
 10
279.5024262144664
 20
29.50529274994709
 30
0.0
 10
279.6408894589563
 20
29.51201853394388
 30
0.0
  0
LWPOLYLINE
  5
198
330
1F
100
AcDbEntity
  8
0
  6
Continuous
 62
     7
370
    15
100
AcDbPolyline
 90
       20
 70
   128
 43
0.0
 10
278.4564492059
 20
29.2240909788
 10
278.5643742393
 20
29.2077379462
 10
278.8848514183
 20
29.0784007605
 10
279.1393176752
 20
28.838750253
 10
279.3158744506
 20
28.4999922152
 10
279.4062661459
 20
28.0779665963
 10
279.4062661459
 20
27.5924068454
 10
279.3158744506
 20
27.0660171966
 10
279.1393176752
 20
26.5234110449
 10
278.8848514183
 20
25.9899600509
 10
278.5643742393
 20
25.4906077902
 10
278.1928712948
 20
25.0487034196
 10
277.7877136496
 20
24.6849098961
 10
277.367846025
 20
24.4162378008
 10
276.9529009644
 20
24.2552499421
 10
276.5622808377
 20
24.2094739333
 10
276.2142506078
 20
24.2810502099
 10
275.9250837815
 20
24.4666319446
 10
275.7083014782
 20
24.7575415418
 10
275.6998600136
 20
24.7740304996
  0
SPLINE
  5
199
330
1F
100
AcDbEntity
  8
0
  6
Continuous
 62
     7
370
    15
100
AcDbSpline
210
0.0
220
0.0
230
1.0
 70
     8
 71
     3
 72
     8
 73
     4
 74
     0
 42
0.000000001
 43
0.00000001
 40
0.0
 40
0.0
 40
0.0
 40
0.0
 40
1.0
 40
1.0
 40
1.0
 40
1.0
 10
250.7492813216101
 20
34.95565360453201
 30
0.0
 10
250.0562100865573
 20
34.83979198615729
 30
0.0
 10
249.362589320161
 20
34.72503329300424
 30
0.0
 10
248.6686101593337
 20
34.61102174536608
 30
0.0
  0
SPLINE
  5
19A
330
1F
100
AcDbEntity
  8
0
  6
Continuous
 62
     7
370
    15
100
AcDbSpline
210
0.0
220
0.0
230
1.0
 70
     8
 71
     3
 72
     8
 73
     4
 74
     0
 42
0.000000001
 43
0.00000001
 40
0.0
 40
0.0
 40
0.0
 40
0.0
 40
0.0012389803509652
 40
0.0012389803509652
 40
0.0012389803509652
 40
0.0012389803509652
 10
248.1948737451882
 20
34.88455586612008
 30
0.0
 10
248.3529470801692
 20
34.79328478566958
 30
0.0
 10
248.5108652591352
 20
34.70210325856933
 30
0.0
 10
248.6686101593336
 20
34.61102174536609
 30
0.0
  0
LWPOLYLINE
  5
19B
330
1F
100
AcDbEntity
  8
0
  6
Continuous
 62
     7
370
    15
100
AcDbPolyline
 90
       27
 70
   128
 43
0.0
 10
248.1948737452
 20
34.8845558661
 10
248.5136453313
 20
36.1483015843
 10
248.9140186196
 20
37.4222879783
 10
249.3928434934
 20
38.6964913877
 10
249.9463525829
 20
39.9608864447
 10
250.5701909066
 20
41.205524953
 10
251.2594501361
 20
42.4206141597
 10
252.0087072147
 20
43.5965938047
 10
252.8120670257
 20
44.7242113396
 10
253.6632087747
 20
45.7945947268
 10
254.5554357217
 20
46.7993222439
 10
255.4817278702
 20
47.7304887458
 10
256.4347972004
 20
48.5807678616
 10
257.4071450111
 20
49.3434696382
 10
258.3911209191
 20
50.0125931768
 10
259.3789830517
 20
50.5828738472
 10
260.3629589597
 20
51.0498247099
 10
261.3353067704
 20
51.4097718193
 10
262.2883761007
 20
51.6598831297
 10
263.2146682491
 20
51.798190778
 10
264.1068951961
 20
51.8236065667
 10
264.9580369451
 20
51.7359305255
 10
265.7613967561
 20
51.5358524851
 10
266.5106538348
 20
51.2249466495
 10
267.1999130642
 20
50.80565921
 10
267.8237513879
 20
50.2812890989
 10
268.3330490035
 20
49.7129367298
  0
LINE
  5
19C
330
1F
100
AcDbEntity
  8
0
  6
Continuous
 62
     7
370
    15
100
AcDbLine
 10
245.1631534209
 20
36.6347307558
 30
0.0
 11
248.1948737452
 21
34.8845558661
 31
0.0
  0
ARC
  5
19D
330
1F
100
AcDbEntity
  8
0
  6
Continuous
 62
     7
370
    15
100
AcDbCircle
 10
261.0423865204
 20
48.1721664282
 30
0.0
 40
5.385394296016787
100
AcDbArc
 50
60.0907689584
 51
77.2167671414
  0
LINE
  5
19E
330
1F
100
AcDbEntity
  8
0
  6
Continuous
 62
     7
370
    15
100
AcDbLine
 10
251.1518767241
 20
34.8944912138
 30
0.0
 11
251.1425540732
 21
34.8998730656
 31
0.0
  0
SPLINE
  5
19F
330
1F
100
AcDbEntity
  8
0
  6
Continuous
 62
     7
370
    15
100
AcDbSpline
210
0.0
220
0.0
230
1.0
 70
     8
 71
     3
 72
    10
 73
     6
 74
     0
 42
0.000000001
 43
0.00000001
 40
0.0
 40
0.0
 40
0.0
 40
0.0
 40
0.2412336484976925
 40
0.7132701399152719
 40
1.0
 40
1.0
 40
1.0
 40
1.0
 10
252.0693371478356
 20
34.09178194344758
 30
0.0
 10
252.0033941494049
 20
34.17290713892615
 30
0.0
 10
251.8084164918104
 20
34.41277491811041
 30
0.0
 10
251.4954396731945
 20
34.67859560169229
 30
0.0
 10
251.2460996923031
 20
34.83528132096785
 30
0.0
 10
251.1518767240692
 20
34.89449121381062
 30
0.0
  0
SPLINE
  5
1A0
330
1F
100
AcDbEntity
  8
0
  6
Continuous
 62
     7
370
    15
100
AcDbSpline
210
0.0
220
0.0
230
1.0
 70
     8
 71
     3
 72
     8
 73
     4
 74
     0
 42
0.000000001
 43
0.00000001
 40
0.0
 40
0.0
 40
0.0
 40
0.0
 40
1.0
 40
1.0
 40
1.0
 40
1.0
 10
276.7007750705808
 20
22.60297549819689
 30
0.0
 10
276.6558516670377
 20
22.55616442827309
 30
0.0
 10
276.6090121725243
 20
22.51957745198894
 30
0.0
 10
276.5604555361007
 20
22.4936537932382
 30
0.0
  0
SPLINE
  5
1A1
330
1F
100
AcDbEntity
  8
0
  6
Continuous
 62
     7
370
    15
100
AcDbSpline
210
0.0
220
0.0
230
1.0
 70
     8
 71
     3
 72
     8
 73
     4
 74
     0
 42
0.000000001
 43
0.00000001
 40
0.0
 40
0.0
 40
0.0
 40
0.0
 40
1.0
 40
1.0
 40
1.0
 40
1.0
 10
280.9895483720802
 20
29.30394388631836
 30
0.0
 10
280.981722964871
 20
29.25291391539339
 30
0.0
 10
280.9674169637559
 20
29.20038636366006
 30
0.0
 10
280.9467775487366
 20
29.1465231575187
 30
0.0
  0
LINE
  5
1A2
330
1F
100
AcDbEntity
  8
0
  6
Continuous
 62
     7
370
    15
100
AcDbLine
 10
280.1530216279
 20
29.604748697
 30
0.0
 11
280.9467775487
 21
29.1465231575
 31
0.0
  0
SPLINE
  5
1A3
330
1F
100
AcDbEntity
  8
0
  6
Continuous
 62
     7
370
    15
100
AcDbSpline
210
0.0
220
0.0
230
1.0
 70
     8
 71
     3
 72
    10
 73
     6
 74
     0
 42
0.000000001
 43
0.00000001
 40
0.0
 40
0.0
 40
0.0
 40
0.0
 40
0.5
 40
0.5
 40
1.0
 40
1.0
 40
1.0
 40
1.0
 10
251.1425540731621
 20
34.89987306562335
 30
0.0
 10
251.0927534743493
 20
34.92862233937247
 30
0.0
 10
251.0277215576053
 20
34.94938568473314
 30
0.0
 10
250.8906631972599
 20
34.96833937412092
 30
0.0
 10
250.8171243572101
 20
34.96699501289311
 30
0.0
 10
250.7492813216101
 20
34.95565360453201
 30
0.0
  0
ARC
  5
1A4
330
1F
100
AcDbEntity
  8
0
  6
Continuous
 62
     7
370
    15
100
AcDbCircle
 10
276.8783132203
 20
26.2085009828
 30
0.0
 40
3.399755721593081
100
AcDbArc
 50
270.4503592053
 51
329.544264262
  0
SPLINE
  5
1A5
330
1F
100
AcDbEntity
  8
0
  6
Continuous
 62
     7
370
    15
100
AcDbSpline
210
0.0
220
0.0
230
1.0
 70
     8
 71
     3
 72
     8
 73
     4
 74
     0
 42
0.000000001
 43
0.00000001
 40
0.0
 40
0.0
 40
0.0
 40
0.0
 40
1.0
 40
1.0
 40
1.0
 40
1.0
 10
280.1655982983949
 20
24.60317537216253
 30
0.0
 10
280.0458397097623
 20
24.56487390759922
 30
0.0
 10
279.9269015673504
 20
24.52564019391544
 30
0.0
 10
279.8089740663855
 20
24.48525811782039
 30
0.0
  0
SPLINE
  5
1A6
330
1F
100
AcDbEntity
  8
0
  6
Continuous
 62
     7
370
    15
100
AcDbSpline
210
0.0
220
0.0
230
1.0
 70
     8
 71
     3
 72
     8
 73
     4
 74
     0
 42
0.000000001
 43
0.00000001
 40
0.0
 40
0.0
 40
0.0
 40
0.0
 40
1.0
 40
1.0
 40
1.0
 40
1.0
 10
280.4010417819745
 20
24.71077704018585
 30
0.0
 10
280.3251540214491
 20
24.66486047774012
 30
0.0
 10
280.2466862359065
 20
24.629109101013
 30
0.0
 10
280.1655982983949
 20
24.60317537216253
 30
0.0
  0
SPLINE
  5
1A7
330
1F
100
AcDbEntity
  8
0
  6
Continuous
 62
     7
370
    15
100
AcDbSpline
210
0.0
220
0.0
230
1.0
 70
     8
 71
     3
 72
     8
 73
     4
 74
     0
 42
0.000000001
 43
0.00000001
 40
0.0
 40
0.0
 40
0.0
 40
0.0
 40
1.0
 40
1.0
 40
1.0
 40
1.0
 10
276.9050358782743
 20
22.80885028516783
 30
0.0
 10
276.8350759871377
 20
22.74076391144008
 30
0.0
 10
276.7671148176191
 20
22.67210281920144
 30
0.0
 10
276.7007750705808
 20
22.60297549819689
 30
0.0
  0
LINE
  5
1A8
330
1F
100
AcDbEntity
  8
0
  6
Continuous
 62
     7
370
    15
100
AcDbLine
 10
277.050484415
 20
23.70922405
 30
0.0
 11
277.2983118694
 21
23.5661563058
 31
0.0
  0
SPLINE
  5
1A9
330
1F
100
AcDbEntity
  8
0
  6
Continuous
 62
     7
370
    15
100
AcDbSpline
210
0.0
220
0.0
230
1.0
 70
     8
 71
     3
 72
    10
 73
     6
 74
     0
 42
0.000000001
 43
0.00000001
 40
0.0
 40
0.0
 40
0.0
 40
0.0
 40
0.5
 40
0.5
 40
1.0
 40
1.0
 40
1.0
 40
1.0
 10
277.2983118694401
 20
23.56615630584672
 30
0.0
 10
277.229384699873
 20
23.46078567238181
 30
0.0
 10
277.1807711551481
 20
23.3520595996532
 30
0.0
 10
277.1093345775527
 20
23.1303473333767
 30
0.0
 10
277.0868521045998
 20
23.0176540878652
 30
0.0
 10
277.0731204857035
 20
22.90588346362741
 30
0.0
  0
LINE
  5
1AA
330
1F
100
AcDbEntity
  8
0
  6
Continuous
 62
     7
370
    15
100
AcDbLine
 10
277.0731204857
 20
22.9058834636
 30
0.0
 11
276.9050358783
 21
22.8088502852
 31
0.0
  0
SPLINE
  5
1AB
330
1F
100
AcDbEntity
  8
0
  6
Continuous
 62
     7
370
    15
100
AcDbSpline
210
0.0
220
0.0
230
1.0
 70
     8
 71
     3
 72
     8
 73
     4
 74
     0
 42
0.000000001
 43
0.00000001
 40
0.0
 40
0.0
 40
0.0
 40
0.0
 40
1.0
 40
1.0
 40
1.0
 40
1.0
 10
245.0063288132897
 20
36.72525243502887
 30
0.0
 10
245.0287076098091
 20
36.71234048357704
 30
0.0
 10
245.0828950408264
 20
36.68106293242001
 30
0.0
 10
245.1631534208509
 20
36.63473075584001
 30
0.0
  0
LINE
  5
1AC
330
1F
100
AcDbEntity
  8
0
  6
Continuous
 62
     7
370
    15
100
AcDbLine
 10
245.0063288133
 20
36.725252435
 30
0.0
 11
245.0299426241
 21
36.8747284346
 31
0.0
  0
ARC
  5
1AD
330
1F
100
AcDbEntity
  8
0
  6
Continuous
 62
     7
370
    15
100
AcDbCircle
 10
276.878309269
 20
26.2085078275
 30
0.0
 40
3.308365018965457
100
AcDbArc
 50
273.3757825808
 51
326.6188408865
  0
LINE
  5
1AE
330
1F
100
AcDbEntity
  8
0
  6
Continuous
 62
     7
370
    15
100
AcDbLine
 10
279.8089740664
 20
24.4852581178
 30
0.0
 11
279.640889459
 21
24.3882249394
 31
0.0
  0
SPLINE
  5
1AF
330
1F
100
AcDbEntity
  8
0
  6
Continuous
 62
     7
370
    15
100
AcDbSpline
210
0.0
220
0.0
230
1.0
 70
     8
 71
     3
 72
     8
 73
     4
 74
     0
 42
0.000000001
 43
0.00000001
 40
0.0
 40
0.0
 40
0.0
 40
0.0
 40
1.0
 40
1.0
 40
1.0
 40
1.0
 10
280.9467775487366
 20
26.06138067663873
 30
0.0
 10
280.9674169637559
 20
25.99944568392687
 30
0.0
 10
280.981722964871
 20
25.93492919262785
 30
0.0
 10
280.9895483720802
 20
25.86768518453048
 30
0.0
  0
ARC
  5
1B0
330
1F
100
AcDbEntity
  8
0
  6
Continuous
 62
     7
370
    15
100
AcDbCircle
 10
277.6088879501
 20
27.6039519171
 30
0.0
 40
3.677095729574106
100
AcDbArc
 50
335.1964677926
 51
24.8035322074
  0
ARC
  5
1B1
330
1F
100
AcDbEntity
  8
0
  6
Continuous
 62
     7
370
    15
100
AcDbCircle
 10
276.4190180245
 20
26.4736647835
 30
0.0
 40
3.03755875888367
100
AcDbArc
 50
286.8264591401
 51
313.1681643272
  0
SPLINE
  5
1B2
330
1F
100
AcDbEntity
  8
0
  6
Continuous
 62
     7
370
    15
100
AcDbSpline
210
0.0
220
0.0
230
1.0
 70
     8
 71
     3
 72
    10
 73
     6
 74
     0
 42
0.000000001
 43
0.00000001
 40
0.0
 40
0.0
 40
0.0
 40
0.0
 40
0.5
 40
0.5
 40
1.0
 40
1.0
 40
1.0
 40
1.0
 10
279.6408894589563
 20
24.38822493936092
 30
0.0
 10
279.4458226810163
 20
24.38023833809996
 30
0.0
 10
279.2503412640555
 20
24.36716516850358
 30
0.0
 10
278.8674819450231
 20
24.3259918599044
 30
0.0
 10
278.679543019331
 20
24.29798861221515
 30
0.0
 10
278.497139421676
 20
24.25822472066215
 30
0.0
  0
LINE
  5
1B3
330
1F
100
AcDbEntity
  8
0
  6
Continuous
 62
     7
370
    15
100
AcDbLine
 10
280.1530216279
 20
26.5196062161
 30
0.0
 11
280.9467775487
 21
26.0613806766
 31
0.0
  0
SPLINE
  5
1B4
330
1F
100
AcDbEntity
  8
0
  6
Continuous
 62
     7
370
    15
100
AcDbSpline
210
0.0
220
0.0
230
1.0
 70
     8
 71
     3
 72
    11
 73
     7
 74
     0
 42
0.000000001
 43
0.00000001
 40
0.0
 40
0.0
 40
0.0
 40
0.0
 40
0.3105157409986108
 40
0.5915933465014832
 40
0.8435752121776443
 40
1.0
 40
1.0
 40
1.0
 40
1.0
 10
251.6358618090689
 20
27.2483098079427
 30
0.0
 10
251.7268611675213
 20
27.33977923953046
 30
0.0
 10
251.9002327809
 20
27.51404643436435
 30
0.0
 10
252.0505222658717
 20
27.93257355677569
 30
0.0
 10
252.124601198705
 20
28.34370875620749
 30
0.0
 10
252.1321423423711
 20
28.63844651386684
 30
0.0
 10
252.1350306934491
 20
28.75133471196586
 30
0.0
  0
SPLINE
  5
1B5
330
1F
100
AcDbEntity
  8
0
  6
Continuous
 62
     7
370
    15
100
AcDbSpline
210
0.0
220
0.0
230
1.0
 70
     8
 71
     3
 72
     9
 73
     5
 74
     0
 42
0.000000001
 43
0.00000001
 40
0.0
 40
0.0
 40
0.0
 40
0.0
 40
0.5067661695379747
 40
1.0
 40
1.0
 40
1.0
 40
1.0
 10
251.5271403445964
 20
26.52167904139854
 30
0.0
 10
251.5454093619079
 20
26.64413339522854
 30
0.0
 10
251.5814595531195
 20
26.88577216512046
 30
0.0
 10
251.6181402925563
 20
27.12792256324963
 30
0.0
 10
251.6362324741729
 20
27.24735933166679
 30
0.0
  0
SPLINE
  5
1B6
330
1F
100
AcDbEntity
  8
0
  6
Continuous
 62
     7
370
    15
100
AcDbSpline
210
0.0
220
0.0
230
1.0
 70
     8
 71
     3
 72
    10
 73
     6
 74
     0
 42
0.000000001
 43
0.00000001
 40
0.0
 40
0.0
 40
0.0
 40
0.0
 40
0.4807908150150783
 40
0.9757817590329645
 40
1.0
 40
1.0
 40
1.0
 40
1.0
 10
251.1518767240692
 20
28.32133767813034
 30
0.0
 10
251.3016676709695
 20
28.2411673027683
 30
0.0
 10
251.6056736317508
 20
28.07845872462991
 30
0.0
 10
251.8952890759494
 20
27.96695729390848
 30
0.0
 10
252.0296275066281
 20
27.93872567642918
 30
0.0
 10
252.0358936524888
 20
27.93740882739264
 30
0.0
  0
LINE
  5
1B7
330
1F
100
AcDbEntity
  8
0
  6
Continuous
 62
     7
370
    15
100
AcDbLine
 10
278.4971394217
 20
24.2582247207
 30
0.0
 11
278.2493119673
 21
24.4012924648
 31
0.0
  0
LINE
  5
1B8
330
1F
100
AcDbEntity
  8
0
  6
Continuous
 62
     7
370
    15
100
AcDbLine
 10
245.4397620608
 20
36.4749960768
 30
0.0
 11
245.0063288133
 21
36.725252435
 31
0.0
  0
LINE
  5
1B9
330
1F
100
AcDbEntity
  8
0
  6
Continuous
 62
     7
370
    15
100
AcDbLine
 10
248.6686101593
 20
34.6110217454
 30
0.0
 11
245.4397620608
 21
36.4749960768
 31
0.0
  0
SPLINE
  5
1BA
330
1F
100
AcDbEntity
  8
0
  6
Continuous
 62
     7
370
    15
100
AcDbSpline
210
0.0
220
0.0
230
1.0
 70
     8
 71
     3
 72
    11
 73
     7
 74
     0
 42
0.000000001
 43
0.00000001
 40
0.0
 40
0.0
 40
0.0
 40
0.0
 40
0.2157984249344796
 40
0.5236600154156344
 40
0.8315591628062384
 40
1.0
 40
1.0
 40
1.0
 40
1.0
 10
247.5448269821262
 20
32.46117013104414
 30
0.0
 10
247.5401107795693
 20
32.66756094686422
 30
0.0
 10
247.5286663646976
 20
33.16839230291698
 30
0.0
 10
247.4634491933523
 20
33.98720390004711
 30
0.0
 10
247.4226858164427
 20
34.75092879238152
 30
0.0
 10
247.4442292223507
 20
35.18762452136021
 30
0.0
 10
247.4518472881116
 20
35.34204656563242
 30
0.0
  0
LINE
  5
1BB
330
1F
100
AcDbEntity
  8
0
  6
Continuous
 62
     7
370
    15
100
AcDbLine
 10
247.5448269821
 20
32.0408147757
 30
0.0
 11
247.5448269821
 21
32.461170131
 31
0.0
  0
LINE
  5
1BC
330
1F
100
AcDbEntity
  8
0
  6
Continuous
 62
     7
370
    15
100
AcDbLine
 10
246.9349473834
 20
35.2761835907
 30
0.0
 11
246.9401352781
 21
35.608849055
 31
0.0
  0
ARC
  5
1BD
330
1F
100
AcDbEntity
  8
0
  6
Continuous
 62
     7
370
    15
100
AcDbCircle
 10
254.4744728531
 20
35.0991638698
 30
0.0
 40
7.541603297119968
100
AcDbArc
 50
178.6550055644
 51
203.2406243607
  0
LWPOLYLINE
  5
1BE
330
1F
100
AcDbEntity
  8
0
  6
Continuous
 62
     7
370
    15
100
AcDbPolyline
 90
        3
 70
   128
 43
0.0
 10
234.7555819439
 20
58.7198899945
 10
234.7616535751
 20
58.7179268381
 10
234.8281940031
 20
58.6951364981
  0
LINE
  5
1BF
330
1F
100
AcDbEntity
  8
0
  6
Continuous
 62
     7
370
    15
100
AcDbLine
 10
251.1425540732
 20
28.3267195299
 30
0.0
 11
251.1518767241
 21
28.3213376781
 31
0.0
  0
ARC
  5
1C0
330
1F
100
AcDbEntity
  8
0
  6
Continuous
 62
     7
370
    15
100
AcDbCircle
 10
253.9617037979
 20
28.9650950742
 30
0.0
 40
5.909903261159833
100
AcDbArc
 50
192.6330051264
 51
260.539101522
  0
SPLINE
  5
1C1
330
1F
100
AcDbEntity
  8
0
  6
Continuous
 62
     7
370
    15
100
AcDbSpline
210
0.0
220
0.0
230
1.0
 70
     8
 71
     3
 72
     8
 73
     4
 74
     0
 42
0.000000001
 43
0.00000001
 40
0.0
 40
0.0
 40
0.0
 40
0.0
 40
0.0012389803509652
 40
0.0012389803509652
 40
0.0012389803509652
 40
0.0012389803509652
 10
248.6686101593337
 20
28.0378682096858
 30
0.0
 10
248.5108652591352
 20
27.91579175915108
 30
0.0
 10
248.3529470801692
 20
27.79403445615026
 30
0.0
 10
248.1948737451882
 20
27.67256743460583
 30
0.0
  0
SPLINE
  5
1C2
330
1F
100
AcDbEntity
  8
0
  6
Continuous
 62
     7
370
    15
100
AcDbSpline
210
0.0
220
0.0
230
1.0
 70
     8
 71
     3
 72
     8
 73
     4
 74
     0
 42
0.000000001
 43
0.00000001
 40
0.0
 40
0.0
 40
0.0
 40
0.0
 40
1.0
 40
1.0
 40
1.0
 40
1.0
 10
248.6686101593337
 20
28.0378682096858
 30
0.0
 10
249.3625907422753
 20
28.15187999095841
 30
0.0
 10
250.0562238030372
 20
28.26664074347877
 30
0.0
 10
250.7492813216101
 20
28.38250006885173
 30
0.0
  0
SPLINE
  5
1C3
330
1F
100
AcDbEntity
  8
0
  6
Continuous
 62
     7
370
    15
100
AcDbSpline
210
0.0
220
0.0
230
1.0
 70
     8
 71
     3
 72
    12
 73
     8
 74
     0
 42
0.000000001
 43
0.00000001
 40
0.0
 40
0.0
 40
0.0
 40
0.0
 40
0.2499999999999984
 40
0.2499999999999984
 40
0.4999999999999968
 40
0.4999999999999968
 40
1.0
 40
1.0
 40
1.0
 40
1.0
 10
250.7492813216101
 20
28.38250006885173
 30
0.0
 10
250.7830698375342
 20
28.38814853893597
 30
0.0
 10
250.8186416136031
 20
28.39140900245142
 30
0.0
 10
250.8892238599956
 20
28.39254659199954
 30
0.0
 10
250.9242468184445
 20
28.39052997554152
 30
0.0
 10
251.0284521137095
 20
28.37615423820192
 30
0.0
 10
251.0921625456491
 20
28.35580993956952
 30
0.0
 10
251.1425540731621
 20
28.32671952994307
 30
0.0
  0
LINE
  5
1C4
330
1F
100
AcDbEntity
  8
0
  6
Continuous
 62
     7
370
    15
100
AcDbLine
 10
245.4397620608
 20
29.9018425412
 30
0.0
 11
248.6686101593
 21
28.0378682097
 31
0.0
  0
LINE
  5
1C5
330
1F
100
AcDbEntity
  8
0
  6
Continuous
 62
     7
370
    15
100
AcDbLine
 10
245.4397620608
 20
29.9018425412
 30
0.0
 11
247.3326949478
 21
30.9946094366
 31
0.0
  0
LINE
  5
1C6
330
1F
100
AcDbEntity
  8
0
  6
Continuous
 62
     7
370
    15
100
AcDbLine
 10
245.0063288133
 20
29.651586183
 30
0.0
 11
245.4397620608
 21
29.9018425412
 31
0.0
  0
LINE
  5
1C7
330
1F
100
AcDbEntity
  8
0
  6
Continuous
 62
     7
370
    15
100
AcDbLine
 10
248.1948737452
 20
27.6725674346
 30
0.0
 11
245.1631534209
 21
29.4227423243
 31
0.0
  0
SPLINE
  5
1C8
330
1F
100
AcDbEntity
  8
0
  6
Continuous
 62
     7
370
    15
100
AcDbSpline
210
0.0
220
0.0
230
1.0
 70
     8
 71
     3
 72
     8
 73
     4
 74
     0
 42
0.000000001
 43
0.00000001
 40
0.0
 40
0.0
 40
0.0
 40
0.0
 40
1.0
 40
1.0
 40
1.0
 40
1.0
 10
245.1631534208509
 20
29.42274232432576
 30
0.0
 10
245.0831286213361
 20
29.46893965774773
 30
0.0
 10
245.0286518239542
 20
29.55212718011242
 30
0.0
 10
245.0063288132897
 20
29.65158618295354
 30
0.0
  0
ARC
  5
1C9
330
1F
100
AcDbEntity
  8
0
  6
Continuous
 62
     7
370
    15
100
AcDbCircle
 10
250.695917967
 20
30.241600274
 30
0.0
 40
5.413065729346918
100
AcDbArc
 50
222.5529287278
 51
239.8726429758
  0
ELLIPSE
  5
1CA
330
1F
100
AcDbEntity
  8
0
  6
Continuous
 62
     7
370
    15
100
AcDbEllipse
 10
247.0983803727
 20
31.783109011
 30
0.0
 11
-6.005970385558612E-5
 21
0.853448961482723
 31
0.0
210
0.0
220
0.0
230
1.0
 40
0.7174342186
 41
3.534193645557486
 42
5.104989972352341
  0
ELLIPSE
  5
1CB
330
1F
100
AcDbEntity
  8
0
  6
Continuous
 62
     7
370
    15
100
AcDbEllipse
 10
246.9791415572
 20
31.7142515309
 30
0.0
 11
0.2600075789209484
 21
0.9705436209909308
 31
0.0
210
0.0
220
0.0
230
1.0
 40
0.5176380889
 41
3.619174351347764
 42
5.189970678142609
  0
LWPOLYLINE
  5
1CC
330
1F
100
AcDbEntity
  8
0
  6
Continuous
 62
     7
370
    15
100
AcDbPolyline
 90
       19
 70
   128
 43
0.0
 10
275.6876768734
 20
30.9345764463
 10
275.4685557669
 20
31.1152313454
 10
275.3696801648
 20
31.3282555745
 10
275.4029759237
 20
31.5479552676
 10
275.5644270839
 20
31.7478313993
 10
275.8345602527
 20
31.9037759582
 10
276.180793383
 20
31.9969797291
 10
276.5613656497
 20
32.0162009616
 10
276.9303744206
 20
31.9591212915
 10
277.243311792
 20
31.8326253693
 10
277.4624328984
 20
31.6519704701
 10
277.5613085006
 20
31.438946241
 10
277.5280127416
 20
31.2192465479
 10
277.3665615814
 20
31.0193704163
 10
277.0964284126
 20
30.8634258573
 10
276.7501952823
 20
30.7702220864
 10
276.3696230156
 20
30.7510008539
 10
276.0006142447
 20
30.8080805241
 10
275.6876768734
 20
30.9345764463
  0
LWPOLYLINE
  5
1CD
330
1F
100
AcDbEntity
  8
0
  6
Continuous
 62
     7
370
    15
100
AcDbPolyline
 90
        6
 70
   128
 43
0.0
 10
275.5816108562
 20
30.7508647161
 10
275.3517361774
 20
30.9335158649
 10
275.2308839069
 20
31.148235168
 10
275.2308839069
 20
31.374004404
 10
275.3517361774
 20
31.5887237071
 10
275.5814672353
 20
31.7712919318
  0
LWPOLYLINE
  5
1CE
330
1F
100
AcDbEntity
  8
0
  6
Continuous
 62
     7
370
    15
100
AcDbPolyline
 90
       11
 70
   128
 43
0.0
 10
277.34952143
 20
31.7712919318
 10
277.5792524879
 20
31.5887237071
 10
277.7001047584
 20
31.374004404
 10
277.7001047584
 20
31.148235168
 10
277.5792524879
 20
30.9335158649
 10
277.3493778091
 20
30.7508647161
 10
277.0329824573
 20
30.6181608887
 10
276.661037414
 20
30.548394358
 10
276.2699512514
 20
30.548394358
 10
275.898006208
 20
30.6181608887
 10
275.5816108562
 20
30.7508647161
  0
LWPOLYLINE
  5
1CF
330
1F
100
AcDbEntity
  8
0
  6
Continuous
 62
     7
370
    15
100
AcDbPolyline
 90
       17
 70
   128
 43
0.0
 10
275.9351642468
 20
31.0774478658
 10
275.7725846833
 20
31.2179120754
 10
275.7154943327
 20
31.3836009078
 10
275.7725846833
 20
31.5492897401
 10
275.9351642468
 20
31.6897539497
 10
276.1784817584
 20
31.783609134
 10
276.4654943327
 20
31.8165666918
 10
276.7525069069
 20
31.783609134
 10
276.9958244185
 20
31.6897539497
 10
277.158403982
 20
31.5492897401
 10
277.2154943327
 20
31.3836009078
 10
277.158403982
 20
31.2179120754
 10
276.9958244185
 20
31.0774478658
 10
276.7525069069
 20
30.9835926816
 10
276.4654943327
 20
30.9506351237
 10
276.1784817584
 20
30.9835926816
 10
275.9351642468
 20
31.0774478658
  0
SPLINE
  5
1D0
330
1F
100
AcDbEntity
  8
0
  6
Continuous
 62
     7
370
    15
100
AcDbSpline
210
0.0
220
0.0
230
1.0
 70
     8
 71
     3
 72
     9
 73
     5
 74
     0
 42
0.000000001
 43
0.00000001
 40
0.0
 40
0.0
 40
0.0
 40
0.0
 40
0.6300416123972431
 40
1.0
 40
1.0
 40
1.0
 40
1.0
 10
276.0236404170579
 20
31.02854054135349
 30
0.0
 10
275.9674919743723
 20
31.06707592457798
 30
0.0
 10
275.8783733485849
 20
31.12823915961868
 30
0.0
 10
275.7980965046269
 20
31.21905514960545
 30
0.0
 10
275.7683974128744
 20
31.2526532868295
 30
0.0
  0
SPLINE
  5
1D1
330
1F
100
AcDbEntity
  8
0
  6
Continuous
 62
     7
370
    15
100
AcDbSpline
210
0.0
220
0.0
230
1.0
 70
     8
 71
     3
 72
    10
 73
     6
 74
     0
 42
0.000000001
 43
0.00000001
 40
0.0
 40
0.0
 40
0.0
 40
0.0
 40
0.4391119879276899
 40
0.7513633230734653
 40
1.0
 40
1.0
 40
1.0
 40
1.0
 10
277.1625912524374
 20
31.4683124547628
 30
0.0
 10
277.1358516179291
 20
31.37575019251364
 30
0.0
 10
277.0900975023634
 20
31.21736715842034
 30
0.0
 10
277.0235853761458
 20
31.10065186637162
 30
0.0
 10
276.9904800104728
 20
31.07656462785839
 30
0.0
 10
276.9758046957357
 20
31.06588696884025
 30
0.0
  0
SPLINE
  5
1D2
330
1F
100
AcDbEntity
  8
0
  6
Continuous
 62
     7
370
    15
100
AcDbSpline
210
0.0
220
0.0
230
1.0
 70
     8
 71
     3
 72
    11
 73
     7
 74
     0
 42
0.000000001
 43
0.00000001
 40
0.0
 40
0.0
 40
0.0
 40
0.0
 40
0.1849308168245189
 40
0.519846420215722
 40
0.8714438233693219
 40
1.0
 40
1.0
 40
1.0
 40
1.0
 10
276.6522808893576
 20
31.76290835671869
 30
0.0
 10
276.6819834459285
 20
31.72983792327597
 30
0.0
 10
276.7654782791301
 20
31.63687588084638
 30
0.0
 10
276.921337329956
 20
31.51382957899224
 30
0.0
 10
277.0652795403572
 20
31.47123067730408
 30
0.0
 10
277.142039550227
 20
31.46892876742825
 30
0.0
 10
277.1625912524374
 20
31.4683124547628
 30
0.0
  0
SPLINE
  5
1D3
330
1F
100
AcDbEntity
  8
0
  6
Continuous
 62
     7
370
    15
100
AcDbSpline
210
0.0
220
0.0
230
1.0
 70
     8
 71
     3
 72
    10
 73
     6
 74
     0
 42
0.000000001
 43
0.00000001
 40
0.0
 40
0.0
 40
0.0
 40
0.0
 40
0.4391119879276894
 40
0.7513633230734683
 40
1.0
 40
1.0
 40
1.0
 40
1.0
 10
275.9551839695761
 20
31.65507877275205
 30
0.0
 10
276.0549776441368
 20
31.63556263499794
 30
0.0
 10
276.2257343280832
 20
31.60216862499679
 30
0.0
 10
276.4739609624469
 20
31.66714815194871
 30
0.0
 10
276.597511869142
 20
31.73349665449469
 30
0.0
 10
276.6522808893576
 20
31.76290835671869
 30
0.0
  0
SPLINE
  5
1D4
330
1F
100
AcDbEntity
  8
0
  6
Continuous
 62
     7
370
    15
100
AcDbSpline
210
0.0
220
0.0
230
1.0
 70
     8
 71
     3
 72
    10
 73
     6
 74
     0
 42
0.000000001
 43
0.00000001
 40
0.0
 40
0.0
 40
0.0
 40
0.0
 40
0.4391119879276858
 40
0.7513633230734631
 40
0.9999999999999999
 40
0.9999999999999999
 40
0.9999999999999999
 40
0.9999999999999999
 10
275.7683974128744
 20
31.2526532868295
 30
0.0
 10
275.7951370473827
 20
31.27531034871588
 30
0.0
 10
275.8408911629484
 20
31.31407878542007
 30
0.0
 10
275.907403289166
 20
31.48395986503238
 30
0.0
 10
275.940508654839
 20
31.60252146702325
 30
0.0
 10
275.9551839695761
 20
31.65507877275204
 30
0.0
  0
LINE
  5
1D5
330
1F
100
AcDbEntity
  8
0
  6
Continuous
 62
     7
370
    15
100
AcDbLine
 10
275.9551839696
 20
31.0663114111
 30
0.0
 11
275.9551839696
 21
31.6550787728
 31
0.0
  0
LINE
  5
1D6
330
1F
100
AcDbEntity
  8
0
  6
Continuous
 62
     7
370
    15
100
AcDbLine
 10
276.6522808894
 20
30.9642774634
 30
0.0
 11
276.6522808894
 21
31.7629083567
 31
0.0
  0
LWPOLYLINE
  5
1D7
330
1F
100
AcDbEntity
  8
0
  6
Continuous
 62
     7
370
     0
100
AcDbPolyline
 90
       42
 70
   128
 43
0.0
 10
253.5552346222
 20
28.0764845546
 10
253.5986453334
 20
29.2177558743
 10
253.7285279496
 20
30.3999592887
 10
253.9438367323
 20
31.6135763911
 10
254.2428381417
 20
32.8488358502
 10
254.6231247943
 20
34.095792083
 10
255.0816348456
 20
35.3444053312
 10
255.6146766423
 20
36.5846224952
 10
256.2179584453
 20
37.8064580754
 10
256.8866229841
 20
39.0000745704
 10
257.6152865652
 20
40.1558616818
 10
258.3980824177
 20
41.2645136915
 10
259.2287079298
 20
42.3171043854
 10
260.1004753932
 20
43.305158922
 10
261.0063658489
 20
44.2207220673
 10
261.9390855996
 20
45.0564222452
 10
262.8911249344
 20
45.8055308891
 10
263.8548185922
 20
46.4620166168
 10
264.8224074784
 20
47.0205937911
 10
265.7861011362
 20
47.4767650772
 10
266.738140471
 20
47.826857652
 10
267.6708602217
 20
48.068052776
 10
268.5767506774
 20
48.1984084879
 10
269.4485181409
 20
48.2168752401
 10
270.2791436529
 20
48.1233043492
 10
271.0619395055
 20
47.9184491929
 10
271.7906030865
 20
47.6039591446
 10
272.4592676253
 20
47.1823662932
 10
273.0625494283
 20
46.6570650565
 10
273.595591225
 20
46.0322848511
 10
274.0541012763
 20
45.3130560399
 10
274.4343879289
 20
44.5051694303
 10
274.7333893384
 20
43.6151296504
 10
274.948698121
 20
42.650102777
 10
275.0785807372
 20
41.6178586393
 10
275.1219914484
 20
40.5267082599
 10
275.0785807372
 20
39.3854369402
 10
274.948698121
 20
38.2032335257
 10
274.7333893384
 20
36.9896164233
 10
274.4343879289
 20
35.7543569643
 10
274.0541012763
 20
34.5074007315
 10
274.0425099971
 20
34.4730022373
  0
LWPOLYLINE
  5
1D8
330
1F
100
AcDbEntity
  8
0
  6
Continuous
 62
     7
370
     0
100
AcDbPolyline
 90
       24
 70
   128
 43
0.0
 10
269.0429163339
 20
25.8125136135
 10
268.5767506774
 20
25.2980338924
 10
267.6708602217
 20
24.3824707471
 10
266.738140471
 20
23.5467705693
 10
265.7861011362
 20
22.7976619254
 10
264.8224074784
 20
22.1411761977
 10
263.8548185922
 20
21.5825990233
 10
262.8911249344
 20
21.1264277372
 10
261.9390855996
 20
20.7763351624
 10
261.0063658489
 20
20.5351400384
 10
260.1004753932
 20
20.4047843265
 10
259.2287079298
 20
20.3863175744
 10
258.3980824177
 20
20.4798884653
 10
257.6152865652
 20
20.6847436215
 10
256.8866229841
 20
20.9992336698
 10
256.2179584453
 20
21.4208265212
 10
255.6146766423
 20
21.946127758
 10
255.0816348456
 20
22.5709079634
 10
254.6231247943
 20
23.2901367746
 10
254.2428381417
 20
24.0980233841
 10
253.9438367323
 20
24.9880631641
 10
253.7285279496
 20
25.9530900374
 10
253.5986453334
 20
26.9853341752
 10
253.5552346222
 20
28.0764845546
  0
LWPOLYLINE
  5
1D9
330
1F
100
AcDbEntity
  8
0
  6
Continuous
 62
     7
370
     0
100
AcDbPolyline
 90
       26
 70
   128
 43
0.0
 10
252.848127841
 20
28.0764845546
 10
252.8917086367
 20
29.2382571196
 10
253.022109945
 20
30.4412545548
 10
253.2383111987
 20
31.6760617742
 10
253.5386203301
 20
32.9330147369
 10
253.9206870128
 20
34.202276082
 10
254.3815210572
 20
35.4739121183
 10
254.917515812
 20
36.7379705698
 10
255.5244763916
 20
37.9845584653
 10
256.1976525063
 20
39.2039195642
 10
256.9317756405
 20
40.3865107126
 10
257.7211002852
 20
41.5230765315
 10
258.5594489049
 20
42.6047218523
 10
259.440260285
 20
43.6229813338
 10
260.3566408821
 20
44.569885715
 10
261.3014187756
 20
45.4380241851
 10
262.2671997975
 20
46.2206023837
 10
263.2464254019
 20
46.9114955752
 10
264.2314318207
 20
47.5052965836
 10
265.2145100432
 20
47.9973581111
 10
266.1879661494
 20
48.3838291089
 10
267.1441815253
 20
48.6616849176
 10
268.0756724893
 20
48.8287509386
 10
268.9751488615
 20
48.8837196539
 10
269.8355710197
 20
48.8261608587
 10
270.4043251885
 20
48.720711675
  0
ARC
  5
1DA
330
1F
100
AcDbEntity
  8
0
  6
Continuous
 62
     7
370
     0
100
AcDbCircle
 10
262.0322695872
 20
27.622499888
 30
0.0
 40
9.19535544129122
100
AcDbArc
 50
177.1700948069
 51
218.912540029
  0
LWPOLYLINE
  5
1DB
330
1F
100
AcDbEntity
  8
0
  6
Continuous
 62
     7
370
     0
100
AcDbPolyline
 90
       25
 70
   128
 43
0.0
 10
259.388865567
 20
31.4441680158
 10
259.4330297474
 20
32.2315031258
 10
259.5647341778
 20
33.0557790994
 10
259.7816285895
 20
33.9022867124
 10
260.0798424966
 20
34.7559200163
 10
260.4540542649
 20
35.6014459047
 10
260.8975860764
 20
36.423775948
 10
261.4025230956
 20
37.2082356471
 10
261.9598547093
 20
37.9408263001
 10
262.5596353216
 20
38.6084748095
 10
263.1911618334
 20
39.1992669717
 10
263.8431646391
 20
39.7026600867
 10
264.5040087332
 20
40.1096710924
 10
265.1619013371
 20
40.4130368677
 10
265.8051023417
 20
40.6073438432
 10
266.42213381
 20
40.6891246064
 10
267.0019848006
 20
40.6569197775
 10
267.534307859
 20
40.5113040525
 10
268.0096036676
 20
40.2548759475
 10
268.4193905614
 20
39.892211428
 10
268.7563558835
 20
39.429782251
 10
269.0144864799
 20
38.8758404762
 10
269.1891760038
 20
38.2402712076
 10
269.2773071167
 20
37.5344161939
 10
269.2880986571
 20
37.2176654821
  0
LWPOLYLINE
  5
1DC
330
1F
100
AcDbEntity
  8
0
  6
Continuous
 62
     7
370
     0
100
AcDbPolyline
 90
       13
 70
   128
 43
0.0
 10
264.2885049939
 20
28.5571768583
 10
263.8431646391
 20
28.3285001855
 10
263.1911618334
 20
28.0791068846
 10
262.5596353216
 20
27.9407540566
 10
261.9598547093
 20
27.9159106111
 10
261.4025230956
 20
28.0050198798
 10
260.8975860764
 20
28.2064917059
 10
260.4540542649
 20
28.5167308197
 10
260.0798424966
 20
28.930200997
 10
259.7816285895
 20
29.4395238527
 10
259.5647341778
 20
30.0356105082
 10
259.4330297474
 20
30.7078237832
 10
259.388865567
 20
31.4441680158
  0
ARC
  5
1DD
330
1F
100
AcDbEntity
  8
0
  6
Continuous
 62
     7
370
     0
100
AcDbCircle
 10
264.655658661
 20
31.1684663219
 30
0.0
 40
2.453903018497704
100
AcDbArc
 50
173.5490657268
 51
235.1387538799
  0
LWPOLYLINE
  5
1DE
330
1F
100
AcDbEntity
  8
0
  6
Continuous
 62
     7
370
     0
100
AcDbPolyline
 90
       16
 70
   128
 43
0.0
 10
268.2526234293
 20
37.8154326073
 10
267.8309612866
 20
37.9878468824
 10
267.3579254025
 20
38.0495080654
 10
266.8453666588
 20
37.9987805475
 10
266.3059059529
 20
37.8369134086
 10
265.7528265977
 20
37.5678923548
 10
265.1997472425
 20
37.1983415774
 10
264.6602865366
 20
36.737360643
 10
264.1477277929
 20
36.196300432
 10
263.6746919088
 20
35.5884836425
 10
263.2528265977
 20
34.9288767412
 10
262.8925195836
 20
34.233721439
 10
262.602642821
 20
33.5201347665
 10
262.3903340379
 20
32.805687596
 10
262.260820981
 20
32.1079719878
 10
262.2172926917
 20
31.4441680158
  0
LWPOLYLINE
  5
1DF
330
1F
100
AcDbEntity
  8
0
  6
Continuous
 62
     7
370
     0
100
AcDbPolyline
 90
       20
 70
   128
 43
0.0
 10
250.7492813216
 20
34.9556536045
 10
251.0692599502
 20
36.1443860784
 10
251.4723167555
 20
37.340363086
 10
251.9546269368
 20
38.5322354239
 10
252.5116136197
 20
39.7086928394
 10
253.1379912885
 20
40.85857136
 10
253.8278159429
 20
41.9709592326
 10
254.5745415034
 20
43.0353004715
 10
255.3710819305
 20
44.0414950283
 10
256.2098784673
 20
44.9799946369
 10
257.0829713681
 20
45.841893421
 10
257.9820754326
 20
46.6190124066
 10
258.898658628
 20
47.3039771362
 10
259.8240230535
 20
47.8902876487
 10
260.7493874789
 20
48.3723801603
 10
261.6659706743
 20
48.7456798622
 10
262.5650747388
 20
49.0066443333
 10
263.4381676396
 20
49.1527971555
 10
264.2769641764
 20
49.1827514142
 10
264.3685284416
 20
49.1788416876
  0
LWPOLYLINE
  5
1E0
330
1F
100
AcDbEntity
  8
0
  6
Continuous
 62
     7
370
     0
100
AcDbPolyline
 90
       23
 70
   128
 43
0.0
 10
245.1631534209
 20
36.6347307558
 10
245.4819250069
 20
37.898476474
 10
245.8822982953
 20
39.172462868
 10
246.3611231691
 20
40.4466662774
 10
246.9146322586
 20
41.7110613344
 10
247.5384705822
 20
42.9556998427
 10
248.2277298117
 20
44.1707890495
 10
248.9769868903
 20
45.3467686944
 10
249.7803467013
 20
46.4743862293
 10
250.6314884504
 20
47.5447696165
 10
251.5237153974
 20
48.5494971336
 10
252.4500075458
 20
49.4806636355
 10
253.403076876
 20
50.3309427513
 10
254.3754246868
 20
51.0936445279
 10
255.3594005948
 20
51.7627680665
 10
256.3472627274
 20
52.3330487369
 10
257.3312386353
 20
52.7999995996
 10
258.3035864461
 20
53.159946709
 10
259.2566557763
 20
53.4100580195
 10
260.1829479248
 20
53.5483656678
 10
261.0751748717
 20
53.5737814564
 10
261.9263166208
 20
53.4861054152
 10
262.2339756575
 20
53.4240791323
  0
LWPOLYLINE
  5
1E1
330
1F
100
AcDbEntity
  8
0
  6
Continuous
 62
     7
370
     0
100
AcDbPolyline
 90
       18
 70
   128
 43
0.0
 10
251.1425540732
 20
34.8998730656
 10
251.4604807211
 20
36.0671333971
 10
251.8594881558
 20
37.2409799825
 10
252.3358182464
 20
38.4103567146
 10
252.8849845833
 20
39.5642495859
 10
253.5018147342
 20
40.6917904272
 10
254.1804989616
 20
41.7823592709
 10
254.9146449432
 20
42.8256843775
 10
255.6973379792
 20
43.811938982
 10
256.5212061195
 20
44.7318338494
 10
257.3784895984
 20
45.5767047671
 10
258.2611139209
 20
46.3385941503
 10
259.1607659144
 20
47.0103259923
 10
260.0689720278
 20
47.5855734534
 10
260.9771781411
 20
48.0589184509
 10
261.8768301346
 20
48.4259026908
 10
262.7594544571
 20
48.6830696592
 10
263.5034631686
 20
48.8151294393
  0
LINE
  5
1E2
330
1F
100
AcDbEntity
  8
0
  6
Continuous
 62
     7
370
     0
100
AcDbLine
 10
275.9174865772
 20
23.0551583204
 30
0.0
 11
276.7007750706
 21
22.6029754982
 31
0.0
  0
LINE
  5
1E3
330
1F
100
AcDbEntity
  8
0
  6
Continuous
 62
     7
370
     0
100
AcDbLine
 10
251.1518767241
 20
28.3213376781
 30
0.0
 11
251.5576579654
 21
28.5555902025
 31
0.0
  0
LWPOLYLINE
  5
1E4
330
1F
100
AcDbEntity
  8
0
  6
Continuous
 62
     7
370
     0
100
AcDbPolyline
 90
        3
 70
   128
 43
0.0
 10
252.1175323828
 20
28.2965996242
 10
252.0518788763
 20
28.3202130296
 10
251.5576579654
 20
28.5555902025
  0
LINE
  5
1E5
330
1F
100
AcDbEntity
  8
0
  6
Continuous
 62
     7
370
     0
100
AcDbLine
 10
279.3823098051
 20
25.0553581944
 30
0.0
 11
280.1655982984
 21
24.6031753722
 31
0.0
  0
ARC
  5
1E6
330
1F
100
AcDbEntity
  8
0
  6
Continuous
 62
     7
370
     0
100
AcDbCircle
 10
250.8701598914
 20
29.6119108088
 30
0.0
 40
1.260343931248425
100
AcDbArc
 50
303.0577786044
 51
346.2438194889
  0
LINE
  5
1E7
330
1F
100
AcDbEntity
  8
0
  6
Continuous
 62
     7
370
     0
100
AcDbLine
 10
247.6640657977
 20
32.1096722558
 30
0.0
 11
252.0516553047
 21
29.5767707477
 31
0.0
  0
LINE
  5
1E8
330
1F
100
AcDbEntity
  8
0
  6
Continuous
 62
     7
370
     0
100
AcDbLine
 10
247.5448269821
 20
32.0408147757
 30
0.0
 11
247.6640657977
 21
32.1096722558
 31
0.0
  0
LINE
  5
1E9
330
1F
100
AcDbEntity
  8
0
  6
Continuous
 62
     7
370
     0
100
AcDbLine
 10
247.2885007739
 20
35.0720815628
 30
0.0
 11
247.2936886686
 21
35.404747027
 31
0.0
  0
ARC
  5
1EA
330
1F
100
AcDbEntity
  8
0
  6
Continuous
 62
     7
370
     0
100
AcDbCircle
 10
255.7664958509
 20
34.9883938973
 30
0.0
 40
8.47840811411326
100
AcDbArc
 50
179.4344424297
 51
193.3052282553
  0
LWPOLYLINE
  5
1EB
330
1F
100
AcDbEntity
  8
0
  6
Continuous
 62
     7
370
     0
100
AcDbPolyline
 90
       17
 70
   128
 43
0.0
 10
227.4429848757
 20
50.3709610104
 10
227.4870688511
 20
51.1244076957
 10
227.6184627328
 20
51.9140876728
 10
227.8346090883
 20
52.7246307194
 10
228.1313008747
 20
53.5402605368
 10
228.5027633239
 20
54.3451018186
 10
228.9417663419
 20
55.1234892446
 10
229.4397652342
 20
55.8602723891
 10
229.9870670188
 20
56.5411106061
 10
230.5730190891
 20
57.1527521542
 10
231.1862165546
 20
57.6832921264
 10
231.814724224
 20
58.1224041657
 10
232.4463089106
 20
58.4615414557
 10
233.0686775367
 20
58.6941030747
 10
233.6697164051
 20
58.8155624755
 10
234.2377269778
 20
58.8235555889
 10
234.7555819439
 20
58.7198899945
  0
ARC
  5
1EC
330
1F
100
AcDbEntity
  8
0
  6
Continuous
 62
     7
370
     0
100
AcDbCircle
 10
230.9370102838
 20
50.1308885964
 30
0.0
 40
3.502263313440407
100
AcDbArc
 50
176.0694185984
 51
224.9117477784
  0
LWPOLYLINE
  5
1ED
330
1F
100
AcDbEntity
  8
0
  6
Continuous
 62
     7
370
     0
100
AcDbPolyline
 90
        3
 70
   128
 43
0.0
 10
251.632477567
 20
27.1902954472
 10
251.4604807211
 20
27.5265294929
 10
251.1425540732
 20
28.3267195299
  0
ARC
  5
1EE
330
1F
100
AcDbEntity
  8
0
  6
Continuous
 62
     7
370
     0
100
AcDbCircle
 10
256.7679951754
 20
30.2483053941
 30
0.0
 40
6.301281295519365
100
AcDbArc
 50
197.2234711962
 51
213.8726679638
  0
LINE
  5
1EF
330
1F
100
AcDbEntity
  8
0
  6
Continuous
 62
     7
370
     0
100
AcDbLine
 10
251.5576579654
 20
28.5555902025
 30
0.0
 11
247.3326949478
 21
30.9946094366
 31
0.0
  0
ARC
  5
1F0
330
1F
100
AcDbEntity
  8
0
  6
Continuous
 62
     7
370
     0
100
AcDbCircle
 10
251.9942138768
 20
31.2960259055
 30
0.0
 40
7.083260430625797
100
AcDbArc
 50
195.3352418649
 51
221.7338662233
  0
OLE2FRAME
  5
1F1
330
1F
100
AcDbEntity
  8
0
100
AcDbOle2Frame
 70
     2
  3
Paintbrush-Bild
 10
13.8511154363
 20
38.264191557
 30
0.0
 11
51.6290888628
 21
31.9806341108
 31
0.0
 71
     2
 72
     0
 73
     1
 90
    12928
310
80552BED0767C5B32B40DDAF6807D121434000000000000000006FFBDDFB85D0
310
4940DDAF6807D121434000000000000000006FFBDDFB85D04940416F4BD60AFB
310
3F4000000000000000002BED0767C5B32B40416F4BD60AFB3F40000000000000
310
0000000000000100000000010000010000000100000000000100000000320000
310
D0CF11E0A1B11AE1000000000000000000000000000000003E000300FEFF0900
310
0600000000000000000000000100000001000000000000000010000002000000
310
01000000FEFFFFFF0000000000000000FFFFFFFFFFFFFFFFFFFFFFFFFFFFFFFF
310
FFFFFFFFFFFFFFFFFFFFFFFFFFFFFFFFFFFFFFFFFFFFFFFFFFFFFFFFFFFFFFFF
310
FFFFFFFFFFFFFFFFFFFFFFFFFFFFFFFFFFFFFFFFFFFFFFFFFFFFFFFFFFFFFFFF
310
FFFFFFFFFFFFFFFFFFFFFFFFFFFFFFFFFFFFFFFFFFFFFFFFFFFFFFFFFFFFFFFF
310
FFFFFFFFFFFFFFFFFFFFFFFFFFFFFFFFFFFFFFFFFFFFFFFFFFFFFFFFFFFFFFFF
310
FFFFFFFFFFFFFFFFFFFFFFFFFFFFFFFFFFFFFFFFFFFFFFFFFFFFFFFFFFFFFFFF
310
FFFFFFFFFFFFFFFFFFFFFFFFFFFFFFFFFFFFFFFFFFFFFFFFFFFFFFFFFFFFFFFF
310
FFFFFFFFFFFFFFFFFFFFFFFFFFFFFFFFFFFFFFFFFFFFFFFFFFFFFFFFFFFFFFFF
310
FFFFFFFFFFFFFFFFFFFFFFFFFFFFFFFFFFFFFFFFFFFFFFFFFFFFFFFFFFFFFFFF
310
FFFFFFFFFFFFFFFFFFFFFFFFFFFFFFFFFFFFFFFFFFFFFFFFFFFFFFFFFFFFFFFF
310
FFFFFFFFFFFFFFFFFFFFFFFFFFFFFFFFFFFFFFFFFFFFFFFFFFFFFFFFFFFFFFFF
310
FFFFFFFFFFFFFFFFFFFFFFFFFFFFFFFFFFFFFFFFFFFFFFFFFFFFFFFFFFFFFFFF
310
FFFFFFFFFFFFFFFFFFFFFFFFFFFFFFFFFFFFFFFFFFFFFFFFFFFFFFFFFFFFFFFF
310
FFFFFFFFFFFFFFFFFFFFFFFFFFFFFFFFFFFFFFFFFFFFFFFFFFFFFFFFFFFFFFFF
310
FDFFFFFFFEFFFFFFFEFFFFFFFEFFFFFF05000000060000000700000008000000
310
090000000A0000000B0000000C0000000D0000000E0000000F00000010000000
310
11000000120000001300000014000000150000001600000017000000FEFFFFFF
310
FFFFFFFFFFFFFFFFFFFFFFFFFFFFFFFFFFFFFFFFFFFFFFFFFFFFFFFFFFFFFFFF
310
FFFFFFFFFFFFFFFFFFFFFFFFFFFFFFFFFFFFFFFFFFFFFFFFFFFFFFFFFFFFFFFF
310
FFFFFFFFFFFFFFFFFFFFFFFFFFFFFFFFFFFFFFFFFFFFFFFFFFFFFFFFFFFFFFFF
310
FFFFFFFFFFFFFFFFFFFFFFFFFFFFFFFFFFFFFFFFFFFFFFFFFFFFFFFFFFFFFFFF
310
FFFFFFFFFFFFFFFFFFFFFFFFFFFFFFFFFFFFFFFFFFFFFFFFFFFFFFFFFFFFFFFF
310
FFFFFFFFFFFFFFFFFFFFFFFFFFFFFFFFFFFFFFFFFFFFFFFFFFFFFFFFFFFFFFFF
310
FFFFFFFFFFFFFFFFFFFFFFFFFFFFFFFFFFFFFFFFFFFFFFFFFFFFFFFFFFFFFFFF
310
FFFFFFFFFFFFFFFFFFFFFFFFFFFFFFFFFFFFFFFFFFFFFFFFFFFFFFFFFFFFFFFF
310
FFFFFFFFFFFFFFFFFFFFFFFFFFFFFFFFFFFFFFFFFFFFFFFFFFFFFFFFFFFFFFFF
310
FFFFFFFFFFFFFFFFFFFFFFFFFFFFFFFFFFFFFFFFFFFFFFFFFFFFFFFFFFFFFFFF
310
FFFFFFFFFFFFFFFFFFFFFFFFFFFFFFFFFFFFFFFFFFFFFFFFFFFFFFFFFFFFFFFF
310
FFFFFFFFFFFFFFFFFFFFFFFFFFFFFFFFFFFFFFFFFFFFFFFFFFFFFFFFFFFFFFFF
310
FFFFFFFFFFFFFFFFFFFFFFFFFFFFFFFFFFFFFFFFFFFFFFFFFFFFFFFFFFFFFFFF
310
52006F006F007400200045006E00740072007900000000000000000000000000
310
0000000000000000000000000000000000000000000000000000000000000000
310
16000500FFFFFFFFFFFFFFFF020000000A00030000000000C000000000000046
310
000000000000000000000000B07A8CE09C15D20103000000C000000000000000
310
01004F006C006500000000000000000000000000000000000000000000000000
310
0000000000000000000000000000000000000000000000000000000000000000
310
0A000200FFFFFFFFFFFFFFFFFFFFFFFF00000000000000000000000000000000
310
0000000000000000000000000000000000000000000000001400000000000000
310
010043006F006D0070004F0062006A0000000000000000000000000000000000
310
0000000000000000000000000000000000000000000000000000000000000000
310
120002010100000003000000FFFFFFFF00000000000000000000000000000000
310
0000000000000000000000000000000000000000010000004D00000000000000
310
01004F006C006500310030004E00610074006900760065000000000000000000
310
0000000000000000000000000000000000000000000000000000000000000000
310
1A000200FFFFFFFFFFFFFFFFFFFFFFFF00000000000000000000000000000000
310
0000000000000000000000000000000000000000040000002426000000000000
310
FEFFFFFF02000000FEFFFFFFFFFFFFFFFFFFFFFFFFFFFFFFFFFFFFFFFFFFFFFF
310
FFFFFFFFFFFFFFFFFFFFFFFFFFFFFFFFFFFFFFFFFFFFFFFFFFFFFFFFFFFFFFFF
310
FFFFFFFFFFFFFFFFFFFFFFFFFFFFFFFFFFFFFFFFFFFFFFFFFFFFFFFFFFFFFFFF
310
FFFFFFFFFFFFFFFFFFFFFFFFFFFFFFFFFFFFFFFFFFFFFFFFFFFFFFFFFFFFFFFF
310
FFFFFFFFFFFFFFFFFFFFFFFFFFFFFFFFFFFFFFFFFFFFFFFFFFFFFFFFFFFFFFFF
310
FFFFFFFFFFFFFFFFFFFFFFFFFFFFFFFFFFFFFFFFFFFFFFFFFFFFFFFFFFFFFFFF
310
FFFFFFFFFFFFFFFFFFFFFFFFFFFFFFFFFFFFFFFFFFFFFFFFFFFFFFFFFFFFFFFF
310
FFFFFFFFFFFFFFFFFFFFFFFFFFFFFFFFFFFFFFFFFFFFFFFFFFFFFFFFFFFFFFFF
310
FFFFFFFFFFFFFFFFFFFFFFFFFFFFFFFFFFFFFFFFFFFFFFFFFFFFFFFFFFFFFFFF
310
FFFFFFFFFFFFFFFFFFFFFFFFFFFFFFFFFFFFFFFFFFFFFFFFFFFFFFFFFFFFFFFF
310
FFFFFFFFFFFFFFFFFFFFFFFFFFFFFFFFFFFFFFFFFFFFFFFFFFFFFFFFFFFFFFFF
310
FFFFFFFFFFFFFFFFFFFFFFFFFFFFFFFFFFFFFFFFFFFFFFFFFFFFFFFFFFFFFFFF
310
FFFFFFFFFFFFFFFFFFFFFFFFFFFFFFFFFFFFFFFFFFFFFFFFFFFFFFFFFFFFFFFF
310
FFFFFFFFFFFFFFFFFFFFFFFFFFFFFFFFFFFFFFFFFFFFFFFFFFFFFFFFFFFFFFFF
310
FFFFFFFFFFFFFFFFFFFFFFFFFFFFFFFFFFFFFFFFFFFFFFFFFFFFFFFFFFFFFFFF
310
FFFFFFFFFFFFFFFFFFFFFFFFFFFFFFFFFFFFFFFFFFFFFFFFFFFFFFFFFFFFFFFF
310
0100000200000000000000000000000000000000000000000000000000000000
310
0000000000000000000000000000000000000000000000000000000000000000
310
0100FEFF030A0000FFFFFFFF0A00030000000000C00000000000004607000000
310
5042727573680007000000504272757368000700000050427275736800F439B2
310
7100000000000000000000000000000000000000000000000000000000000000
310
0000000000000000000000000000000000000000000000000000000000000000
310
0000000000000000000000000000000000000000000000000000000000000000
310
0000000000000000000000000000000000000000000000000000000000000000
310
0000000000000000000000000000000000000000000000000000000000000000
310
0000000000000000000000000000000000000000000000000000000000000000
310
0000000000000000000000000000000000000000000000000000000000000000
310
0000000000000000000000000000000000000000000000000000000000000000
310
0000000000000000000000000000000000000000000000000000000000000000
310
0000000000000000000000000000000000000000000000000000000000000000
310
0000000000000000000000000000000000000000000000000000000000000000
310
0000000000000000000000000000000000000000000000000000000000000000
310
20260000424D0E260000000000003E00000028000000B40200006E0000000100
310
01000000000000000000130B0000130B00000200000002000000000000FFFFFF
310
FFFFFFFFFFFFFFFFFFFFFFFFFFFFFFFFFFFFFFFFFFFFFFFFFFFFFFFFFFFFFFFF
310
FFFFFFFFFFFFFFFFFFFFFFFFFFFFFFFFFFFFFFFFFFFFFFFFFFFFFFFFFFFFFFFF
310
FFFFFFFFFFFFFFFFFFFFFFFFFFFFFFFFFFFFFFFFFFFFFFFFF000FFFFFFFFFFFF
310
FFFFFFFFFFFFFFFFFFFFFFFFFFFFFFFFFFFFFFFFFFFFFFFFFFFFFFFFFFFFFFFF
310
FFFFFFFFFFFFFFFFFFFFFFFFFFFFFFFFFFFFFFFFFFFFFFFFFFFFFFFFFFFFFFFF
310
FFFFFFFFFFFFFFFFFFFFFFFFFFFFFFFFF000FFFFFFFFFFFFFFFFFFFFFFFFFFFF
310
FFFFFFFFFFFFFFFFFFFFFFFFFFFFFFFFFFFFFFFFFFFFFFFFFFFFFFFFFFFFFFFF
310
FFFFFFFFFFFFFFFFFFFFFFFFFFFFFFFFFFFFFFFFFFFFFFFFFFFFFFFFFFFFFFFF
310
FFFFFFFFFFFFFFFFF000FFFFFFFFFFFFFFFFFFFFFFFFFFFFFFFFFFFFFFFFFFFF
310
FFFFFFFFFFFFFFFFFFFFFFFFFFFFFFFFFFFFFFFFFFFFFFFFFFFFFFFFFFFFFFFF
310
FFFFFFFFFFFFFFFFFFFFFFFFFFFFFFFFFFFFFFFFFFFFFFFFFFFFFFFFFFFFFFFF
310
F000FFFFFFFFFFFFFFFFFFFFFFFFFFFFFFFFFFFFFFFFFFFFFFFFFFFFFFFFFFFF
310
FFFFFFFFFFFFFFFFFFFFFFFFFFFFFFFFFFFFFFFFFFFFFFFFFFFFFFFFFFFFFFFF
310
FFFFFFFFFFFFFFFFFFFFFFFFFFFFFFFFFFFFFFFFFFFFFFFFF000FFFFFFFFFFFF
310
FFFFFFFFFFFFFFFFFFFFFFFFFFFFFFFFFFFFFFFFFFFFFFFFFFFFFFFFFFFFFFFF
310
FFFFFFFFFFFFFFFFFFFFFFFFFFFFFFFFFFFFFFFFFFFFFFFFFFFFFFFFFFFFFFFF
310
FFFFFFFFFFFFFFFFFFFFFFFFFFFFFFFFF000FFFFFFFFFFFFFFFFFFFFFFFFFFFF
310
FFFFFFFFFFFFFFFFFFFFFFFFFFFFFFFFFFFFFFFFFFFFFFFFFFFFFFFFFFFFFFFF
310
FFFFFFFFFFFFFFFFFFFFFFFFFFFFFFFFFFFFFFFFFFFFFFFFFFFFFFFFFFFFFFFF
310
FFFFFFFFFFFFFFFFF000FFFFFFFFFFFFFFFFFFFFFFFFFFFFFFFFFFFFFFFFFFFF
310
FFFFFFFFFFFFFFFFFFFFFFFFFFFFFFFFFFFFFFFFFFFFFFFFFFFFFFFFFFFFFFFF
310
FFFFFFFFFFFFFFFFFFFFFFFFFFFFFFFFFFFFFFFFFFFFFFFFFFFFFFFFFFFFFFFF
310
F000FFFFFFFFFFFFFFFFFFFFFFFFFFFFFFFFFFFFFFFFFFFFFFFFFFFFFFFFFFFF
310
FFFFFFFFFFFFFFFFFFFFFFFFFFFFFFFFFFFFFFFFFFFFFFFFFFFFFFFFFFFFFFFF
310
FFFFFFFFFFFFFFFFFFFFFFFFFFFFFFFFFFFFFFFFFFFFFFFFF000FFFFFFFFFFFF
310
FFFFFFFFFFFFFFFFFFFFFFFFFFFFFFFFFFFFFFFFFFFFFFFFFFFFFFFFFFFFFFFF
310
FFFFFFFFFFFFFFFFFFFFFFFFFFFFFFFFFFFFFFFFFFFFFFFFFFFFFFFFFFFFFFFF
310
FFFFFFFFFFFFFFFFFFFFFFFFFFFFFFFFF000FFFFFFFFFFFFFFFFFFFFFFFFFFFF
310
FFFFFFFFFFFFFFFFFFFFFFFFFFFFFFFFFFFFFFFFFFFFFFFFFFFFFFFFFFFFFFFF
310
FFFFFFFFFFFFFFFFFFFFFFFFFFFFFFFFFFFFFFFFFFFFFFFFFFFFFFFFFFFFFFFF
310
FFFFFFFFFFFFFFFFF000FFFFFFFFFFFFFFFFFFFFFFFFFFFFFFFFFFFFFFFFFFFF
310
FFFFFFFFFFFFFFFFFFFFFFFFFFFFFFFFFFFFFFFFFFFFFFFFFFFFFFFFFFFFFFFF
310
FFFFFFFFFFFFFFFFFFFFFFFFFFFFFFFFFFFFFFFFFFFFFFFFFFFFFFFFFFFFFFFF
310
F000FFFFFFFFFFFFFFFFFFFFFFFFFFFFFFFFFFFFFFFFFFFFFFFFFFFFFFFFFFFF
310
FFFFFFFFFFFFFFFFFFFFFFFFFFFFFFFFFFFFFFFFFFFFFFFFFFFFFFFFFFFFFFFF
310
FFFFFFFFFFFFFFFFFFFFFFFFFFFFFFFFFFFFFFFFFFFFFFFFF000FFFFFFFFFFFF
310
FFFFFFFFFFFFFFFFFFFFFFFFFFFFFFFFFFFFFFFFFFFFFFFFFFFFFFFFFFFFFFFF
310
FFFFFFFFFFFFFFFFFFFFFFFFFFFFFFFFFFFFFFFFFFFFFFFFFFFFFFFFFFFFFFFF
310
FFFFFFFFFFFFFFFFFFFFFFFFFFFFFFFFF000FFFFFFFFFFFFFFFFFFFFFFFFFFFF
310
FFFFFFFFFFFFFFFFFFFFFFFFFFFFFFFFFFFFFFFFFFFFFFFFFFFFFFFFFFFFFFFF
310
FFFFFFFFFFFFFFFFFFFFFFFFFFFFFFFFFFFFFFFFFFFFFFFFFFFFFFFFFFFFFFFF
310
FFFFFFFFFFFFFFFFF000FFFFFFFFFFFFFFFFFFFFFFFFFFFFFFFFFFFFFFFFFFFF
310
FFFFFFFFFFFFFFFFFFFFFFFFFFFFFFFFFFFFFFFFFFFFFFFFFFFFFFFFFFFFFFFF
310
FFFFFFFFFFFFFFFFFFFFFFFFFFFFFFFFFFFFFFFFFFFFFFFFFFFFFFFFFFFFFFFF
310
F000FFFFFFFFFFFFFFFFFFFFFFFFFFFFFFFFFFFFFFFFFFFFFFFFFFFFFFFFFFFF
310
FFFFFFFFFFFFFFFFFFFFFFFFFFFFFFFFFFFFFFFFFFFFFFFFFFFFFFFFFFFFFFFF
310
FFFFFFFFFFFFFFFFFFFFFFFFFFFFFFFFFFFFFFFFFFFFFFFFF000FFFFFFFFFFFF
310
FFFFFFFFFFFFFFFFFFFFFFFFFFFFFFFFFFFFFFFFFFFFFFFFFFFFFFFFFFFFFFFF
310
FFFFFFFFFFFFFFFFFFFFFFFFFFFFFFFFFFFFFFFFFFFFFFFFFFFFFFFFFFFFFFFF
310
FFFFFFFFFFFFFFFFFFFFFFFFFFFFFFFFF000FFFFFFFFFFFFFFFFFFFFFFFFFFFF
310
FFFFFFFFFFFFFFFFFFFFFFFFFFFFFFFFFFFFFFFFFFFFFFFFFFFFFFFFFFFFFFFF
310
FFFFFFFFFFFFFFFFFFFFFFFFFFFFFFFFFFFFFFFFFFFFFFFFFFFFFFFFFFFFFFFF
310
FFFFFFFFFFFFFFFFF000FFFFF80003FFFFFFFFFFFFFFFFFFFFFFFFFFFFFFFFFF
310
FFFFF00007FFFFFFFFFF00007FFFFFF800000000000000007FFFFFFFFFFFFFFF
310
FFFFFFFC001FFFFFFFFFFFFFFC001FFFFFFFFFFFFFFFFFFFFFFFFFFE0007FFFF
310
F000FFFF8000007FFFFFFFF8000FFFFFC0007FFFFF80007FFFFF0000007FFFFF
310
FFF8000007FFFFF800000000000000007FFFFFF0001FFFFFFFFFFFC00001FFFF
310
FFFFFFFFC00001FFFFFFFF000000000003FFFFE000007FFFF000FFFE0000000F
310
FFFFFFF0000FFFFF80007FFFFF80007FFFFC0000001FFFFFFFC0000001FFFFF8
310
00000000000000007FFFFFF0001FFFFFFFFFFE0000003FFFFFFFFFFE0000003F
310
FFFFFF000000000003FFFF0000000FFFF000FFF800000003FFFFFFF00007FFFF
310
80007FFFFF80007FFFF000000007FFFFFF000000003FFFF80000000000000000
310
7FFFFFF0001FFFFFFFFFF80000000FFFFFFFFFF80000000FFFFFFF0000000000
310
03FFFC00000003FFF000FFE000000000FFFFFFF00007FFFF80003FFFFF80007F
310
FFC000000001FFFFFC000000001FFFF800000000000000007FFFFFF0001FFFFF
310
FFFFE000000003FFFFFFFFE000000003FFFFFF000000000003FFF000000000FF
310
F000FF80000000007FFFFFF00007FFFF80003FFFFF80007FFF8000000000FFFF
310
F80000000007FFF800000000000000007FFFFFF0001FFFFFFFFFC000000001FF
310
FFFFFFC000000001FFFFFF000000000003FFC0000000007FF000FF0000000000
310
3FFFFFE00007FFFF00003FFFFF80007FFE00000000003FFFF00000000003FFF8
310
00000000000000007FFFFFF0001FFFFFFFFF8000000000FFFFFFFF8000000000
310
FFFFFF000000000003FF80000000003FF000FE00000000001FFFFFE00003FFFF
310
00003FFFFF80007FFC00000000001FFFE00000000001FFF8000001FFFE000000
310
7FFFFFF0001FFFFFFFFE00000000003FFFFFFE00000000003FFFFF0000000000
310
03FF00000000001FF000FC00000000000FFFFFE00003FFFF00001FFFFF80007F
310
F800000000001FFFC00000000000FFF8000001FFFE0000007FFFFFF0001FFFFF
310
FFFC00000000001FFFFFFC00000000001FFFFF000000000003FE00000000000F
310
F000F8000000000007FFFFE00003FFFF00001FFFFF80007FF800000000000FFF
310
800000000000FFF8000001FFFE0000007FFFFFF0001FFFFFFFF800000000000F
310
FFFFF800000000000FFFFF000000000003FC000000000007F000F80000000000
310
03FFFFC00003FFFE00001FFFFF80007FF0000000000007FF0000000000007FF8
310
000001FFFE0000007FFFFFF0001FFFFFFFF0000000000007FFFFF00000000000
310
07FFFF000000000003F8000000000003F000F0000000000003FFFFC00001FFFE
310
00001FFFFF80007FE0000000000007FE0000000000003FF8000001FFFE000000
310
7FFFFFF0001FFFFFFFF0000000000007FFFFF0000000000007FFFF0000000000
310
03F800001F800003F000E00001FFF00001FFFFC00001FFFE00000FFFFF80007F
310
E00001FFE00003FE00001FFF00003FF8000001FFFE0000007FFFFFF0001FFFFF
310
FFE000003E000003FFFFE000003E000003FFFF000000000003F00001FFF80001
310
F000E00007FFFC0001FFFFC00001FFFE00000FFFFF80007FC0000FFFFC0003FC
310
0000FFFFC0001FF8000001FFFE0000007FFFFFF0001FFFFFFFC00003FFE00001
310
FFFFC00003FFE00001FFFF0001FFFFFFFFF00007FFFE0001F000E0000FFFFF00
310
00FFFF800001FFFC00000FFFFF80007FC0001FFFFE0001FC0001FFFFE0001FF8
310
000001FFFE0000007FFFFFF0001FFFFFFF80000FFFF80000FFFF80000FFFF800
310
00FFFF0003FFFFFFFFE0000FFFFF8000F000C0003FFFFF8000FFFF800000FFFC
310
000007FFFF80007F80003FFFFF0001FC0003FFFFF0001FF8000001FFFE000000
310
7FFFFFF0001FFFFFFF80003FFFFE0000FFFF80003FFFFE0000FFFF0003FFFFFF
310
FFE0003FFFFF8000F000C0003FFFFF8000FFFF800000FFFC000007FFFF80007F
310
80007FFFFF8001F80007FFFFF8000FF8000001FFFE0000007FFFFFF0001FFFFF
310
FF00007FFFFF00007FFF00007FFFFF00007FFF0003FFFFFFFFE0003FFFFFC000
310
F000C0007FFFFFC000FFFF000000FFFC000007FFFF80007F8000FFFFFF8000F8
310
000FFFFFF8000FF8000001FFFE0000007FFFFFF0001FFFFFFF0000FFFFFF8000
310
7FFF0000FFFFFF80007FFF0003FFFFFFFFC0007FFFFFC00070008000FFFFFFC0
310
00FFFF000000FFF8000007FFFF80007F8000FFFFFF8000F8000FFFFFF8000FF8
310
000001FFFE0000007FFFFFF0001FFFFFFE0001FFFFFFC0003FFE0001FFFFFFC0
310
003FFF0003FFFFFFFFC0007FFFFFE00070008000FFFFFFC0007FFF0000007FF8
310
000003FFFF80007F0001FFFFFF8000F8000FFFFFF8000FF8000001FFFE000000
310
7FFFFFF0001FFFFFFE0001FFFFFFC0003FFE0001FFFFFFC0003FFF0003FFFFFF
310
FFC000FFFFFFE00070008000FFFFFFC0007FFF0000007FF8000003FFFF80007F
310
0001FFFFFF8000F8001FFFFFF8000FF8000001FFFE0000007FFFFFF0001FFFFF
310
FE0003FFFFFFE0003FFE0003FFFFFFE0003FFF0003FFFFFFFFC000FFFFFFE000
310
70008000FFFFFFC0007FFE0000007FF8000003FFFF80007F0001FFFFFF8000F0
310
001FFFFFF8000FF8000001FFFE0000007FFFFFF0001FFFFFFC0003FFFFFFE000
310
1FFC0003FFFFFFE0001FFF0003FFFFFFFFC000FFFFFFC00070008000FFFFFF80
310
007FFE0000007FF0000003FFFF80007F0001FFFFFF0000F0001FFFFFF8000FF8
310
000001FFFE0000007FFFFFF0001FFFFFFC0007FFFFFFF0001FFC0007FFFFFFF0
310
001FFF0003FFFFFFFFC000FFFFFFC00070008001FFFFFF0000FFFE0000003FF0
310
000001FFFF80007F0001FFFFFF0000F8001FFFFFF0000FF8000001FFFE000000
310
7FFFFFF0001FFFFFFC0007FFFFFFF0001FFC0007FFFFFFF0001FFF0003FFFFFF
310
FFC001FFFFFF80007000FFFFFFFFFE0000FFFE0008003FF0008001FFFF80007F
310
FFFFFFFFFC0000FFFFFFFFFFE0000FF8000001FFFE0000007FFFFFF0001FFFFF
310
F8000FFFFFFFF8000FF8000FFFFFFFF8000FFF0003FFFFFFFFFFFFFFFFFF0000
310
7000FFFFFFFFFC0000FFFC0008003FF0008001FFFF80007FFFFFFFFFF80001FF
310
FFFFFFFF80000FF8000001FFFE0000007FFFFFF0001FFFFFF8000FFFFFFFF800
310
0FF8000FFFFFFFF8000FFF0003FFFFFFFFFFFFFFFFFE0000F000FFFFFFFFE000
310
00FFFC000C003FE000C001FFFF80007FFFFFFFFFC00001FFFFFFFFFE00001FF8
310
000001FFFE0000007FFFFFF0001FFFFFF8000FFFFFFFF8000FF8000FFFFFFFF8
310
000FFF0003FFFFFFFFFFFFFFFFF00000F000FFFFFFFE000001FFFC000C001FE0
310
00C000FFFF80007FFFFFFFFE000001FFFFFFFFE000001FF80FFFFFFFFFFFFFC0
310
7FFFFFF0001FFFFFF8000FFFFFFFF8000FF8000FFFFFFFF8000FFF0003FFFFFF
310
FFFFFFFFFF800000F000FFFFFFC0000001FFFC001C001FE001C000FFFF80007F
310
FFFFFF80000003FFFFFFF80000001FF80FFFFFFFFFFFFFC07FFFFFF0001FFFFF
310
F8001FFFFFFFFC000FF8001FFFFFFFFC000FFF0003FFFFFFFFFFFFFFF0000001
310
F000FFFFF800000001FFF8001C001FE001C000FFFF80007FFFFFF800000003FF
310
FFFF800000003FF80FFFFFFFFFFFFFC07FFFFFF0001FFFFFF8001FFFFFFFFC00
310
0FF8001FFFFFFFFC000FFF0003FFFFFFFFFFFFFE00000001F000FFFFC0000000
310
03FFF8001E001FC001E000FFFF80007FFFFF8000000007FFFFFC000000003FF8
310
0FFFFFFFFFFFFFC07FFFFFF0001FFFFFF8001FFFFFFFFC000FF8001FFFFFFFFC
310
000FFF0003FFFFFFFFFFFFE000000003F000FFFE0000000007FFF8001E000FC0
310
01E0007FFF80007FFFFE0000000007FFFFE0000000007FF80FFFFFFFFFFFFFC0
310
7FFFFFF0001FFFFFF0001FFFFFFFFC0007F0001FFFFFFFFC0007FF0003FFFFFF
310
FFFFFF0000000003F000FFF80000000007FFF8001E000FC003E0007FFF80007F
310
FFF0000000000FFFFF8000000000FFF80FFFFFFFFFFFFFC07FFFFFF0001FFFFF
310
F0001FFFFFFFFC0007F0001FFFFFFFFC0007FF0003FFFFFFFFFFFC0000000007
310
F000FFE0000000000FFFF0003E000FC003E0007FFF80007FFFC0000000001FFF
310
FE0000000001FFF80FFFFFFFFFFFFFC07FFFFFF0001FFFFFF0001FFFFFFFFC00
310
07F0001FFFFFFFFC0007FF0003FFFFFFFFFFF0000000000FF000FFC000000000
310
1FFFF0003F000F8003F0003FFF80007FFF80000000003FFFF80000000003FFF8
310
0FFFFFFFFFFFFFC07FFFFFF0001FFFFFF0001FFFFFFFFC0007F0001FFFFFFFFC
310
0007FF0003FFFFFFFFFFE0000000001FF000FF00000000007FFFF0003F000780
310
03F0003FFF80007FFF00000000007FFFF00000000007FFF80FFFFFFFFFFFFFC0
310
7FFFFFF0001FFFFFF0001FFFFFFFFC0007F0001FFFFFFFFC0007FF0003FFFFFF
310
FFFF80000000007FF000FE0000000000FFFFE0003F00078007F0003FFF80007F
310
FE0000000001FFFFE0000000001FFFF80FFFFFFFFFFFFFC07FFFFFF0001FFFFF
310
F0001FFFFFFFFC0007F0001FFFFFFFFC0007FF0003FFFFFFFFFF0000000000FF
310
F000FC0000000003FFFFE0007F00078007F0003FFF80007FFC0000000007FFFF
310
C0000000007FFFF80FFFFFFFFFFFFFC07FFFFFF0001FFFFFF8001FFFFFFFFC00
310
0FF8001FFFFFFFFC000FFF0003FFFFFFFFFE0000000003FFF000FC000000000F
310
FFFFE0007F80070007F8001FFF80007FF8000000001FFFFF8000000001FFFFF8
310
0FFFFFFFFFFFFFC07FFFFFF0001FFFFFF8001FFFFFFFFC000FF8001FFFFFFFFC
310
000FFF0003FFFFFFFFFC000000000FFFF000F8000000007FFFFFE0007F800700
310
07F8001FFF80007FF000000000FFFFFF800000000FFFFFF80FFFFFFFFFFFFFC0
310
7FFFFFF0001FFFFFF8000FFFFFFFF8000FF8000FFFFFFFF8000FFF0003FFFFFF
310
FFFC000000007FFFF000F800000007FFFFFFC0007F8003000FF8001FFF80007F
310
F000000007FFFFFF000000007FFFFFF80FFFFFFFFFFFFFC07FFFFFF0001FFFFF
310
F8000FFFFFFFF8000FF8000FFFFFFFF8000FFF0003FFFFFFFFF80000000FFFFF
310
F000F0000000FFFFFFFFC000FF8003000FF8001FFF80007FE0000000FFFFFFFF
310
0000000FFFFFFFF8000001FFFE0000007FFFFFF0001FFFFFF8000FFFFFFFF800
310
0FF8000FFFFFFFF8000FFF0003FFFFFFFFF8000000FFFFFFF000F000000FFFFF
310
FFFFC000FFC002000FF8000FFF80007FE000001FFFFFFFFE000001FFFFFFFFF8
310
000001FFFE0000007FFFFFF0001FFFFFF8000FFFFFFFF8000FF8000FFFFFFFF8
310
000FFF0003FFFFFFFFF000001FFFFFFFF000E00000FFFFFFFFFFC000FFC00200
310
0FFC000FFF80007FE00001FFFFFFFFFE00001FFFFFFFFFF8000001FFFE000000
310
7FFFFFF0001FFFFFFC000FFFFFFFF8001FFC000FFFFFFFF8001FFF0003FFFFFF
310
FFF00001FFFFFFFFF000E00007FFFFFFFFFF8000FFC000001FFC000FFF80007F
310
C0000FFFFFFFFFFE0000FFFFFFFFFFF8000001FFFE0000007FFFFFF0001FFFFF
310
FC0007FFFFFFF0001FFC0007FFFFFFF0001FFF0003FFFFFFFFF00007FFFFFFFF
310
F000E0001FFFFFFFFFFF8000FFC000001FFC000FFF80007FC0003FFFFFFFFFFE
310
0001FFFFFFFFFFF8000001FFFE0000007FFFFFF0001FFFFFFC0007FFFFFFF000
310
1FFC0007FFFFFFF0001FFF0003FFFFFFFFF0001FFFFFFFFFF000E0003FFFFF00
310
03FF8001FFE000001FFC0007FF80007FC0007FFFFF0007FC0003FFFFF0003FF8
310
000001FFFE0000007FFFFFF0001FFFFFFC0003FFFFFFE0001FFC0003FFFFFFE0
310
001FFF0003FFFFFFFFF0003FFFFFFFFFF000E0003FFFFF0001FF8001FFE00000
310
1FFE0007FF80007FC0007FFFFE0003FC0007FFFFE0003FF8000001FFFE000000
310
7FFFFFF0001FFFFFFE0003FFFFFFE0003FFE0003FFFFFFE0003FFF0003FFFFFF
310
FFF0003FFFFF8001F000E0003FFFFF0001FF0001FFE000001FFE0007FF80007F
310
C0007FFFFE0003FC0007FFFFE0003FF8000001FFFE0000007FFFFFF0001FFFFF
310
FE0001FFFFFFC0003FFE0001FFFFFFC0003FFF0003FFFFFFFFF0003FFFFF0001
310
F000E0003FFFFF0003FF0001FFE000003FFE0007FF80007FC0007FFFFE0003FC
310
0007FFFFE0003FF8000001FFFE0000007FFFFFF0001FFFFFFF0001FFFFFFC000
310
7FFF0001FFFFFFC0007FFF0003FFFFFFFFF0003FFFFF0001F000E0003FFFFE00
310
03FF0003FFF000003FFE0003FF80007FC0007FFFFC0003FE0007FFFFE0003FF8
310
000001FFFE0000007FFFFFF0001FFFFFFF0000FFFFFF80007FFF0000FFFFFF80
310
007FFF0003FFFFFFFFF0003FFFFF0001F000E0003FFFFE0003FF0003FFF00000
310
3FFF0003FF80007FC0007FFFFC0007FE0007FFFFC0003FF8000001FFFE000000
310
7FFFFFF0001FFFFFFF80007FFFFF0000FFFF80007FFFFF0000FFFF0003FFFFFF
310
FFF0003FFFFF0003F000E0003FFFFC0003FE0003FFF000003FFF0003FF80007F
310
E0003FFFF80007FE0003FFFFC0007FF8000001FFFE0000007FFFFFF0001FFFFF
310
FF80003FFFFE0000FFFF80003FFFFE0000FFFF0003FFFFFFFFF0001FFFFE0003
310
F000F0001FFFF80003FE0003FFF000007FFF0001FF80007FE0003FFFF00007FE
310
0001FFFF80007FF8000001FFFE0000007FFFFFF0001FFFFFFFC0000FFFF80001
310
FFFFC0000FFFF80001FFFF0003FFFFFFFFF0001FFFFC0003F000F0000FFFF000
310
07FE0007FFF800007FFF0001FF80007FE0001FFFE00007FF0000FFFE00007FF8
310
000001FFFE0000007FFFFFF0001FFFFFFFC00003FFE00001FFFFC00003FFE000
310
01FFFF0003FFFFFFFFF8000FFFF80003F000F00003FFC00007FC0007FFF80000
310
7FFF8001FF80007FF00007FF80000FFF00007FF80000FFF8000001FFFE000000
310
7F80000000000001FFE000003E000003FFFFE000003E000003FFFF0003FFFFFF
310
FFF80003FFE00007F000F800000000000FFC0007FFF800007FFF8001FF80007F
310
F000000000000FFF000000000000FFF8000001FFFE0000007F80000000000001
310
FFF0000000000007FFFFF0000000000007FFFF0003FFFFFFFFFC00007E000007
310
F000F800000000000FFC0007FFF80000FFFF8000FF80007FF800000000001FFF
310
800000000001FFF8000001FFFE0000007F80000000000001FFF800000000000F
310
FFFFF800000000000FFFFF0003FFFFFFFFFC00000000000FF000FC0000000000
310
1FFC0007FFFC0000FFFF8000FF80007FF800000000003FFFC00000000001FFF8
310
000001FFFE0000007F80000000000001FFF800000000000FFFFFF80000000000
310
0FFFFF0003FFFFFFFFFE00000000001FF000FE00000000003FF8000FFFFC0000
310
FFFF8000FF80007FFC00000000003FFFC00000000003FFF8000001FFFE000000
310
7F80000000000001FFFC00000000001FFFFFFC00000000001FFFFF0003FFFFFF
310
FFFF00000000001FF000FF00000000003FF8000FFFFC0000FFFFC000FF80007F
310
FE00000000007FFFE00000000007FFF8000001FFFE0000007F80000000000001
310
FFFE00000000003FFFFFFE00000000003FFFFF0003FFFFFFFFFF80000000003F
310
F000FF80000000007FF8000FFFFC0001FFFFC0007F80007FFF0000000000FFFF
310
F0000000000FFFF800000000000000007F80000000000001FFFF8000000000FF
310
FFFFFF8000000000FFFFFF0003FFFFFFFFFFC0000000007FF000FFC000000000
310
FFF8000FFFFE0001FFFFC0007F80007FFF8000000001FFFFF8000000001FFFF8
310
00000000000000007F80000000000001FFFFC000000001FFFFFFFFC000000001
310
FFFFFF0003FFFFFFFFFFE000000000FFF000FFE000000003FFF0001FFFFE0001
310
FFFFC0007F80007FFFC000000007FFFFFE000000003FFFF80000000000000000
310
7F80000000000001FFFFE000000003FFFFFFFFE000000003FFFFFF0003FFFFFF
310
FFFFF000000003FFF000FFF80000000FFFF0001FFFFE0001FFFFE0007F80007F
310
FFF00000000FFFFFFF00000000FFFFF800000000000000007F80000000000001
310
FFFFF80000000FFFFFFFFFF80000000FFFFFFF0003FFFFFFFFFFFC0000000FFF
310
F000FFFE0000003FFFF0001FFFFE0003FFFFE0003F80007FFFFC0000003FFFFF
310
FFC0000003FFFFF800000000000000007F80000000000001FFFFFE0000003FFF
310
FFFFFFFE0000003FFFFFFF0003FFFFFFFFFFFF0000003FFFF000FFFF800000FF
310
FFF0001FFFFF0003FFFFE0003F80007FFFFF000001FFFFFFFFF800001FFFFFF8
310
00000000000000007F80000000000001FFFFFFC00001FFFFFFFFFFFFC00001FF
310
FFFFFF0003FFFFFFFFFFFFC00000FFFFF000FFFFF8000FFFFFFFFFFFFFFFFFFF
310
FFFFFFFFFFFFFFFFFFFFF0001FFFFFFFFFFF0000FFFFFFF80000000000000000
310
7FFFFFFFFFFFFFFFFFFFFFFC001FFFFFFFFFFFFFFC001FFFFFFFFFFFFFFFFFFF
310
FFFFFFFC001FFFFFF000FFFFFFFFFFFFFFFFFFFFFFFFFFFFFFFFFFFFFFFFFFFF
310
FFFFFFFFFFFFFFFFFFFFFFFFFFFFFFFFFFFFFFFFFFFFFFFFFFFFFFFFFFFFFFFF
310
FFFFFFFFFFFFFFFFFFFFFFFFFFFFFFFFFFFFFFFFFFFFFFFFFFFFFFFFFFFFFFFF
310
F000FFFFFFFFFFFFFFFFFFFFFFFFFFFFFFFFFFFFFFFFFFFFFFFFFFFFFFFFFFFF
310
FFFFFFFFFFFFFFFFFFFFFFFFFFFFFFFFFFFFFFFFFFFFFFFFFFFFFFFFFFFFFFFF
310
FFFFFFFFFFFFFFFFFFFFFFFFFFFFFFFFFFFFFFFFFFFFFFFFF000FFFFFFFFFFFF
310
FFFFFFFFFFFFFFFFFFFFFFFFFFFFFFFFFFFFFFFFFFFFFFFFFFFFFFFFFFFFFFFF
310
FFFFFFFFFFFFFFFFFFFFFFFFFFFFFFFFFFFFFFFFFFFFFFFFFFFFFFFFFFFFFFFF
310
FFFFFFFFFFFFFFFFFFFFFFFFFFFFFFFFF000FFFFFFFFFFFFFFFFFFFFFFFFFFFF
310
FFFFFFFFFFFFFFFFFFFFFFFFFFFFFFFFFFFFFFFFFFFFFFFFFFFFFFFFFFFFFFFF
310
FFFFFFFFFFFFFFFFFFFFFFFFFFFFFFFFFFFFFFFFFFFFFFFFFFFFFFFFFFFFFFFF
310
FFFFFFFFFFFFFFFFF000FFFFFFFFFFFFFFFFFFFFFFFFFFFFFFFFFFFFFFFFFFFF
310
FFFFFFFFFFFFFFFFFFFFFFFFFFFFFFFFFFFFFFFFFFFFFFFFFFFFFFFFFFFFFFFF
310
FFFFFFFFFFFFFFFFFFFFFFFFFFFFFFFFFFFFFFFFFFFFFFFFFFFFFFFFFFFFFFFF
310
F000FFFFFFFFFFFFFFFFFFFFFFFFFFFFFFFFFFFFFFFFFFFFFFFFFFFFFFFFFFFF
310
FFFFFFFFFFFFFFFFFFFFFFFFFFFFFFFFFFFFFFFFFFFFFFFFFFFFFFFFFFFFFFFF
310
FFFFFFFFFFFFFFFFFFFFFFFFFFFFFFFFFFFFFFFFFFFFFFFFF000FFFFFFFFFFFF
310
FFFFFFFFFFFFFFFFFFFFFFFFFFFFFFFFFFFFFFFFFFFFFFFFFFFFFFFFFFFFFFFF
310
FFFFFFFFFFFFFFFFFFFFFFFFFFFFFFFFFFFFFFFFFFFFFFFFFFFFFFFFFFFFFFFF
310
FFFFFFFFFFFFFFFFFFFFFFFFFFFFFFFFF000FFFFFFFFFFFFFFFFFFFFFFFFFFFF
310
FFFFFFFFFFFFFFFFFFFFFFFFFFFFFFFFFFFFFFFFFFFFFFFFFFFFFFFFFFFFFFFF
310
FFFFFFFFFFFFFFFFFFFFFFFFFFFFFFFFFFFFFFFFFFFFFFFFFFFFFFFFFFFFFFFF
310
FFFFFFFFFFFFFFFFF000FFFFFFFFFFFFFFFFFFFFFFFFFFFFFFFFFFFFFFFFFFFF
310
FFFFFFFFFFFFFFFFFFFFFFFFFFFFFFFFFFFFFFFFFFFFFFFFFFFFFFFFFFFFFFFF
310
FFFFFFFFFFFFFFFFFFFFFFFFFFFFFFFFFFFFFFFFFFFFFFFFFFFFFFFFFFFFFFFF
310
F000FFFFFFFFFFFFFFFFFFFFFFFFFFFFFFFFFFFFFFFFFFFFFFFFFFFFFFFFFFFF
310
FFFFFFFFFFFFFFFFFFFFFFFFFFFFFFFFFFFFFFFFFFFFFFFFFFFFFFFFFFFFFFFF
310
FFFFFFFFFFFFFFFFFFFFFFFFFFFFFFFFFFFFFFFFFFFFFFFFF000FFFFFFFFFFFF
310
FFFFFFFFFFFFFFFFFFFFFFFFFFFFFFFFFFFFFFFFFFFFFFFFFFFFFFFFFFFFFFFF
310
FFFFFFFFFFFFFFFFFFFFFFFFFFFFFFFFFFFFFFFFFFFFFFFFFFFFFFFFFFFFFFFF
310
FFFFFFFFFFFFFFFFFFFFFFFFFFFFFFFFF000FFFFFFFFFFFFFFFFFFFFFFFFFFFF
310
FFFFFFFFFFFFFFFFFFFFFFFFFFFFFFFFFFFFFFFFFFFFFFFFFFFFFFFFFFFFFFFF
310
FFFFFFFFFFFFFFFFFFFFFFFFFFFFFFFFFFFFFFFFFFFFFFFFFFFFFFFFFFFFFFFF
310
FFFFFFFFFFFFFFFFF000FFFFFFFFFFFFFFFFFFFFFFFFFFFFFFFFFFFFFFFFFFFF
310
FFFFFFFFFFFFFFFFFFFFFFFFFFFFFFFFFFFFFFFFFFFFFFFFFFFFFFFFFFFFFFFF
310
FFFFFFFFFFFFFFFFFFFFFFFFFFFFFFFFFFFFFFFFFFFFFFFFFFFFFFFFFFFFFFFF
310
F000FFFFFFFFFFFFFFFFFFFFFFFFFFFFFFFFFFFFFFFFFFFFFFFFFFFFFFFFFFFF
310
FFFFFFFFFFFFFFFFFFFFFFFFFFFFFFFFFFFFFFFFFFFFFFFFFFFFFFFFFFFFFFFF
310
FFFFFFFFFFFFFFFFFFFFFFFFFFFFFFFFFFFFFFFFFFFFFFFFF000FFFFFFFFFFFF
310
FFFFFFFFFFFFFFFFFFFFFFFFFFFFFFFFFFFFFFFFFFFFFFFFFFFFFFFFFFFFFFFF
310
FFFFFFFFFFFFFFFFFFFFFFFFFFFFFFFFFFFFFFFFFFFFFFFFFFFFFFFFFFFFFFFF
310
FFFFFFFFFFFFFFFFFFFFFFFFFFFFFFFFF000FFFFFFFFFFFFFFFFFFFFFFFFFFFF
310
FFFFFFFFFFFFFFFFFFFFFFFFFFFFFFFFFFFFFFFFFFFFFFFFFFFFFFFFFFFFFFFF
310
FFFFFFFFFFFFFFFFFFFFFFFFFFFFFFFFFFFFFFFFFFFFFFFFFFFFFFFFFFFFFFFF
310
FFFFFFFFFFFFFFFFF000FFFFFFFFFFFFFFFFFFFFFFFFFFFFFFFFFFFFFFFFFFFF
310
FFFFFFFFFFFFFFFFFFFFFFFFFFFFFFFFFFFFFFFFFFFFFFFFFFFFFFFFFFFFFFFF
310
FFFFFFFFFFFFFFFFFFFFFFFFFFFFFFFFFFFFFFFFFFFFFFFFFFFFFFFFFFFFFFFF
310
F000FFFFFFFFFFFFFFFFFFFFFFFFFFFFFFFFFFFFFFFFFFFFFFFFFFFFFFFFFFFF
310
FFFFFFFFFFFFFFFFFFFFFFFFFFFFFFFFFFFFFFFFFFFFFFFFFFFFFFFFFFFFFFFF
310
FFFFFFFFFFFFFFFFFFFFFFFFFFFFFFFFFFFFFFFFFFFFFFFFF000FFFFFFFFFFFF
310
FFFFFFFFFFFFFFFFFFFFFFFFFFFFFFFFFFFFFFFFFFFFFFFFFFFFFFFFFFFFFFFF
310
FFFFFFFFFFFFFFFFFFFFFFFFFFFFFFFFFFFFFFFFFFFFFFFFFFFFFFFFFFFFFFFF
310
FFFFFFFFFFFFFFFFFFFFFFFFFFFFFFFFF000FFFFFFFFFFFFFFFFFFFFFFFFFFFF
310
FFFFFFFFFFFFFFFFFFFFFFFFFFFFFFFFFFFFFFFFFFFFFFFFFFFFFFFFFFFFFFFF
310
FFFFFFFFFFFFFFFFFFFFFFFFFFFFFFFFFFFFFFFFFFFFFFFFFFFFFFFFFFFFFFFF
310
FFFFFFFFFFFFFFFFF000FFFFFFFFFFFFFFFFFFFFFFFFFFFFFFFFFFFFFFFFFFFF
310
FFFFFFFFFFFFFFFFFFFFFFFFFFFFFFFFFFFFFFFFFFFFFFFFFFFFFFFFFFFFFFFF
310
FFFFFFFFFFFFFFFFFFFFFFFFFFFFFFFFFFFFFFFFFFFFFFFFFFFFFFFFFFFFFFFF
310
F000FFFFFFFFFFFFFFFFFFFFFFFFFFFFFFFFFFFFFFFFFFFFFFFFFFFFFFFFFFFF
310
FFFFFFFFFFFFFFFFFFFFFFFFFFFFFFFFFFFFFFFFFFFFFFFFFFFFFFFFFFFFFFFF
310
FFFFFFFFFFFFFFFFFFFFFFFFFFFFFFFFFFFFFFFFFFFFFFFFF000FFFFFFFFFFFF
310
FFFFFFFFFFFFFFFFFFFFFFFFFFFFFFFFFFFFFFFFFFFFFFFFFFFFFFFFFFFFFFFF
310
FFFFFFFFFFFFFFFFFFFFFFFFFFFFFFFFFFFFFFFFFFFFFFFFFFFFFFFFFFFFFFFF
310
FFFFFFFFFFFFFFFFFFFFFFFFFFFFFFFFF0000000000000000000000000000000
310
0000000000000000000000000000000000000000000000000000000000000000
310
0000000000000000000000000000000000000000000000000000000000000000
310
0000000000000000000000000000000000000000000000000000000000000000
310
0000000000000000000000000000000000000000000000000000000000000000
310
0000000000000000000000000000000000000000000000000000000000000000
310
0000000000000000000000000000000000000000000000000000000000000000
310
0000000000000000000000000000000000000000000000000000000000000000
310
0000000000000000000000000000000000000000000000000000000000000000
310
0000000000000000000000000000000000000000000000000000000000000000
310
0000000000000000000000000000000000000000000000000000000000000000
310
0000000000000000000000000000000000000000000000000000000000000000
310
0000000000000000000000000000000000000000000000000000000000000000
310
0000000000000000000000000000000000000000000000000000000000000000
310
0000000000000000000000000000000000000000000000000000000000000000
310
0000000000000000000000000000000000000000000000000000000000000000
  1
OLE
  0
ENDSEC
  0
SECTION
  2
OBJECTS
  0
DICTIONARY
  5
C
330
0
100
AcDbDictionary
281
     1
  3
ACAD_GROUP
350
D
  3
ACAD_LAYOUT
350
1A
  3
ACAD_MLINESTYLE
350
17
  3
ACAD_PLOTSETTINGS
350
19
  3
ACAD_PLOTSTYLENAME
350
E
  3
ACAD_SCALELIST
350
47
  0
DICTIONARY
  5
D
102
{ACAD_REACTORS
330
C
102
}
330
C
100
AcDbDictionary
281
     1
  0
DICTIONARY
  5
1A
102
{ACAD_REACTORS
330
C
102
}
330
C
100
AcDbDictionary
281
     1
  3
Layout1
350
1E
  3
Layout2
350
26
  3
Model
350
22
  0
DICTIONARY
  5
17
102
{ACAD_REACTORS
330
C
102
}
330
C
100
AcDbDictionary
281
     1
  3
Standard
350
18
  0
DICTIONARY
  5
19
102
{ACAD_REACTORS
330
C
102
}
330
C
100
AcDbDictionary
281
     1
  0
ACDBDICTIONARYWDFLT
  5
E
102
{ACAD_REACTORS
330
C
102
}
330
C
100
AcDbDictionary
281
     1
  3
Normal
350
F
100
AcDbDictionaryWithDefault
340
F
  0
DICTIONARY
  5
47
102
{ACAD_REACTORS
330
C
102
}
330
C
100
AcDbDictionary
281
     1
  3
A0
350
48
  3
A1
350
49
  3
A2
350
4A
  3
A3
350
4B
  3
A4
350
4C
  3
A5
350
4D
  3
A6
350
4E
  3
A7
350
4F
  3
A8
350
50
  3
A9
350
51
  3
B0
350
52
  3
B1
350
53
  3
B2
350
54
  3
B3
350
55
  3
B4
350
56
  3
B5
350
57
  3
B6
350
58
  3
B7
350
59
  3
B8
350
5A
  3
B9
350
5B
  3
C0
350
5C
  3
C1
350
5D
  3
C2
350
5E
  3
C3
350
5F
  3
C4
350
60
  3
C5
350
61
  3
C6
350
62
  3
C7
350
63
  3
C8
350
64
  3
C9
350
65
  3
D0
350
66
  3
D1
350
67
  3
D2
350
68
  0
LAYOUT
  5
1E
102
{ACAD_REACTORS
330
1A
102
}
330
1A
100
AcDbPlotSettings
  1

  2
none_device
  4

  6

 40
0.0
 41
0.0
 42
0.0
 43
0.0
 44
0.0
 45
0.0
 46
0.0
 47
0.0
 48
0.0
 49
0.0
140
0.0
141
0.0
142
1.0
143
1.0
 70
   688
 72
     1
 73
     0
 74
     5
  7

 75
    16
147
1.0
148
0.0
149
0.0
100
AcDbLayout
  1
Layout1
 70
     1
 71
     1
 10
0.0
 20
0.0
 11
420.0
 21
297.0
 12
0.0
 22
0.0
 32
0.0
 14
1.0000000000E+20
 24
1.0000000000E+20
 34
1.0000000000E+20
 15
-1.0000000000E+20
 25
-1.0000000000E+20
 35
-1.0000000000E+20
146
0.0
 13
0.0
 23
0.0
 33
0.0
 16
1.0
 26
0.0
 36
0.0
 17
0.0
 27
1.0
 37
0.0
 76
     0
330
1B
  0
LAYOUT
  5
26
102
{ACAD_REACTORS
330
1A
102
}
330
1A
100
AcDbPlotSettings
  1

  2
none_device
  4

  6

 40
0.0
 41
0.0
 42
0.0
 43
0.0
 44
0.0
 45
0.0
 46
0.0
 47
0.0
 48
0.0
 49
0.0
140
0.0
141
0.0
142
1.0
143
1.0
 70
   688
 72
     1
 73
     0
 74
     5
  7

 75
    16
147
1.0
148
0.0
149
0.0
100
AcDbLayout
  1
Layout2
 70
     1
 71
     2
 10
0.0
 20
0.0
 11
0.0
 21
0.0
 12
0.0
 22
0.0
 32
0.0
 14
0.0
 24
0.0
 34
0.0
 15
0.0
 25
0.0
 35
0.0
146
0.0
 13
0.0
 23
0.0
 33
0.0
 16
1.0
 26
0.0
 36
0.0
 17
0.0
 27
1.0
 37
0.0
 76
     0
330
23
  0
LAYOUT
  5
22
102
{ACAD_REACTORS
330
1A
102
}
330
1A
100
AcDbPlotSettings
  1

  2
none_device
  4
Letter_(8.50_x_11.00_Inches)
  6

 40
6.35
 41
6.35
 42
6.35000508
 43
6.35000508
 44
215.9
 45
279.4
 46
0.0
 47
0.0
 48
0.0
 49
0.0
140
0.0
141
0.0
142
1.0
143
1.0
 70
  1712
 72
     1
 73
     0
 74
     0
  7

 75
     0
147
1.0
148
0.0
149
0.0
100
AcDbLayout
  1
Model
 70
     1
 71
     0
 10
0.0
 20
0.0
 11
297.0
 21
210.0
 12
0.0
 22
0.0
 32
0.0
 14
0.0
 24
0.0
 34
0.0
 15
297.0
 25
210.0
 35
0.0
146
0.0
 13
0.0
 23
0.0
 33
0.0
 16
1.0
 26
0.0
 36
0.0
 17
0.0
 27
1.0
 37
0.0
 76
     0
330
1F
331
29
  0
MLINESTYLE
  5
18
102
{ACAD_REACTORS
330
17
102
}
330
17
100
AcDbMlineStyle
  2
Standard
 70
     0
  3

 62
   256
 51
90.0
 52
90.0
 71
     2
 49
0.5
 62
   256
  6
BYLAYER
 49
-0.5
 62
   256
  6
BYLAYER
  0
ACDBPLACEHOLDER
  5
F
102
{ACAD_REACTORS
330
E
102
}
330
E
  0
SCALE
  5
48
102
{ACAD_REACTORS
330
47
102
}
330
47
100
AcDbScale
 70
     0
300
1:1
140
1.0
141
1.0
290
     1
  0
SCALE
  5
49
102
{ACAD_REACTORS
330
47
102
}
330
47
100
AcDbScale
 70
     0
300
1:2
140
1.0
141
2.0
290
     0
  0
SCALE
  5
4A
102
{ACAD_REACTORS
330
47
102
}
330
47
100
AcDbScale
 70
     0
300
1:4
140
1.0
141
4.0
290
     0
  0
SCALE
  5
4B
102
{ACAD_REACTORS
330
47
102
}
330
47
100
AcDbScale
 70
     0
300
1:5
140
1.0
141
5.0
290
     0
  0
SCALE
  5
4C
102
{ACAD_REACTORS
330
47
102
}
330
47
100
AcDbScale
 70
     0
300
1:8
140
1.0
141
8.0
290
     0
  0
SCALE
  5
4D
102
{ACAD_REACTORS
330
47
102
}
330
47
100
AcDbScale
 70
     0
300
1:10
140
1.0
141
10.0
290
     0
  0
SCALE
  5
4E
102
{ACAD_REACTORS
330
47
102
}
330
47
100
AcDbScale
 70
     0
300
1:16
140
1.0
141
16.0
290
     0
  0
SCALE
  5
4F
102
{ACAD_REACTORS
330
47
102
}
330
47
100
AcDbScale
 70
     0
300
1:20
140
1.0
141
20.0
290
     0
  0
SCALE
  5
50
102
{ACAD_REACTORS
330
47
102
}
330
47
100
AcDbScale
 70
     0
300
1:30
140
1.0
141
30.0
290
     0
  0
SCALE
  5
51
102
{ACAD_REACTORS
330
47
102
}
330
47
100
AcDbScale
 70
     0
300
1:40
140
1.0
141
40.0
290
     0
  0
SCALE
  5
52
102
{ACAD_REACTORS
330
47
102
}
330
47
100
AcDbScale
 70
     0
300
1:50
140
1.0
141
50.0
290
     0
  0
SCALE
  5
53
102
{ACAD_REACTORS
330
47
102
}
330
47
100
AcDbScale
 70
     0
300
1:100
140
1.0
141
100.0
290
     0
  0
SCALE
  5
54
102
{ACAD_REACTORS
330
47
102
}
330
47
100
AcDbScale
 70
     0
300
2:1
140
2.0
141
1.0
290
     0
  0
SCALE
  5
55
102
{ACAD_REACTORS
330
47
102
}
330
47
100
AcDbScale
 70
     0
300
4:1
140
4.0
141
1.0
290
     0
  0
SCALE
  5
56
102
{ACAD_REACTORS
330
47
102
}
330
47
100
AcDbScale
 70
     0
300
8:1
140
8.0
141
1.0
290
     0
  0
SCALE
  5
57
102
{ACAD_REACTORS
330
47
102
}
330
47
100
AcDbScale
 70
     0
300
10:1
140
10.0
141
1.0
290
     0
  0
SCALE
  5
58
102
{ACAD_REACTORS
330
47
102
}
330
47
100
AcDbScale
 70
     0
300
100:1
140
100.0
141
1.0
290
     0
  0
SCALE
  5
59
102
{ACAD_REACTORS
330
47
102
}
330
47
100
AcDbScale
 70
     0
300
1/128" = 1'-0"
140
0.0078125
141
12.0
290
     0
  0
SCALE
  5
5A
102
{ACAD_REACTORS
330
47
102
}
330
47
100
AcDbScale
 70
     0
300
1/64" = 1'-0"
140
0.015625
141
12.0
290
     0
  0
SCALE
  5
5B
102
{ACAD_REACTORS
330
47
102
}
330
47
100
AcDbScale
 70
     0
300
1/32" = 1'-0"
140
0.03125
141
12.0
290
     0
  0
SCALE
  5
5C
102
{ACAD_REACTORS
330
47
102
}
330
47
100
AcDbScale
 70
     0
300
1/16" = 1'-0"
140
0.0625
141
12.0
290
     0
  0
SCALE
  5
5D
102
{ACAD_REACTORS
330
47
102
}
330
47
100
AcDbScale
 70
     0
300
3/32" = 1'-0"
140
0.09375
141
12.0
290
     0
  0
SCALE
  5
5E
102
{ACAD_REACTORS
330
47
102
}
330
47
100
AcDbScale
 70
     0
300
1/8" = 1'-0"
140
0.125
141
12.0
290
     0
  0
SCALE
  5
5F
102
{ACAD_REACTORS
330
47
102
}
330
47
100
AcDbScale
 70
     0
300
3/16" = 1'-0"
140
0.1875
141
12.0
290
     0
  0
SCALE
  5
60
102
{ACAD_REACTORS
330
47
102
}
330
47
100
AcDbScale
 70
     0
300
1/4" = 1'-0"
140
0.25
141
12.0
290
     0
  0
SCALE
  5
61
102
{ACAD_REACTORS
330
47
102
}
330
47
100
AcDbScale
 70
     0
300
3/8" = 1'-0"
140
0.375
141
12.0
290
     0
  0
SCALE
  5
62
102
{ACAD_REACTORS
330
47
102
}
330
47
100
AcDbScale
 70
     0
300
1/2" = 1'-0"
140
0.5
141
12.0
290
     0
  0
SCALE
  5
63
102
{ACAD_REACTORS
330
47
102
}
330
47
100
AcDbScale
 70
     0
300
3/4" = 1'-0"
140
0.75
141
12.0
290
     0
  0
SCALE
  5
64
102
{ACAD_REACTORS
330
47
102
}
330
47
100
AcDbScale
 70
     0
300
1" = 1'-0"
140
1.0
141
12.0
290
     0
  0
SCALE
  5
65
102
{ACAD_REACTORS
330
47
102
}
330
47
100
AcDbScale
 70
     0
300
1-1/2" = 1'-0"
140
1.5
141
12.0
290
     0
  0
SCALE
  5
66
102
{ACAD_REACTORS
330
47
102
}
330
47
100
AcDbScale
 70
     0
300
3" = 1'-0"
140
3.0
141
12.0
290
     0
  0
SCALE
  5
67
102
{ACAD_REACTORS
330
47
102
}
330
47
100
AcDbScale
 70
     0
300
6" = 1'-0"
140
6.0
141
12.0
290
     0
  0
SCALE
  5
68
102
{ACAD_REACTORS
330
47
102
}
330
47
100
AcDbScale
 70
     0
300
1'-0" = 1'-0"
140
12.0
141
12.0
290
     0
  0
ENDSEC
  0
EOF
