  0
SECTION
  2
HEADER
  9
$ACADVER
  1
AC1015
  9
$ACADMAINTVER
 70
     6
  9
$DWGCODEPAGE
  3
ANSI_1252
  9
$INSBASE
 10
0.0
 20
0.0
 30
0.0
  9
$EXTMIN
 10
0.0
 20
0.0
 30
0.0
  9
$EXTMAX
 10
297.0
 20
210.0
 30
0.0
  9
$LIMMIN
 10
0.0
 20
0.0
  9
$LIMMAX
 10
297.0
 20
210.0
  9
$ORTHOMODE
 70
     0
  9
$REGENMODE
 70
     1
  9
$FILLMODE
 70
     1
  9
$QTEXTMODE
 70
     0
  9
$MIRRTEXT
 70
     1
  9
$LTSCALE
 40
1.0
  9
$ATTMODE
 70
     1
  9
$TEXTSIZE
 40
2.0
  9
$TRACEWID
 40
1.0
  9
$TEXTSTYLE
  7
Standard
  9
$CLAYER
  8
0
  9
$CELTYPE
  6
ByLayer
  9
$CECOLOR
 62
   256
  9
$CELTSCALE
 40
1.0
  9
$DISPSILH
 70
     0
  9
$DIMSCALE
 40
1.0
  9
$DIMASZ
 40
3.0
  9
$DIMEXO
 40
0.0
  9
$DIMDLI
 40
3.75
  9
$DIMRND
 40
0.0
  9
$DIMDLE
 40
0.0
  9
$DIMEXE
 40
1.0
  9
$DIMTP
 40
0.0
  9
$DIMTM
 40
0.0
  9
$DIMTXT
 40
2.0
  9
$DIMCEN
 40
2.5
  9
$DIMTSZ
 40
0.0
  9
$DIMTOL
 70
     0
  9
$DIMLIM
 70
     0
  9
$DIMTIH
 70
     1
  9
$DIMTOH
 70
     1
  9
$DIMSE1
 70
     0
  9
$DIMSE2
 70
     0
  9
$DIMTAD
 70
     1
  9
$DIMZIN
 70
     0
  9
$DIMBLK
  1

  9
$DIMASO
 70
     1
  9
$DIMSHO
 70
     1
  9
$DIMPOST
  1

  9
$DIMAPOST
  1

  9
$DIMALT
 70
     0
  9
$DIMALTD
 70
     3
  9
$DIMALTF
 40
0.0393700787
  9
$DIMLFAC
 40
1.0
  9
$DIMTOFL
 70
     1
  9
$DIMTVP
 40
0.0
  9
$DIMTIX
 70
     0
  9
$DIMSOXD
 70
     0
  9
$DIMSAH
 70
     0
  9
$DIMBLK1
  1

  9
$DIMBLK2
  1

  9
$DIMSTYLE
  2
ISO-25
  9
$DIMCLRD
 70
     0
  9
$DIMCLRE
 70
     0
  9
$DIMCLRT
 70
     0
  9
$DIMTFAC
 40
1.0
  9
$DIMGAP
 40
1.524
  9
$DIMJUST
 70
     0
  9
$DIMSD1
 70
     0
  9
$DIMSD2
 70
     0
  9
$DIMTOLJ
 70
     0
  9
$DIMTZIN
 70
     0
  9
$DIMALTZ
 70
     0
  9
$DIMALTTZ
 70
     0
  9
$DIMUPT
 70
     0
  9
$DIMDEC
 70
     2
  9
$DIMTDEC
 70
     3
  9
$DIMALTU
 70
     2
  9
$DIMALTTD
 70
     3
  9
$DIMTXSTY
  7
Standard
  9
$DIMAUNIT
 70
     0
  9
$DIMADEC
 70
     2
  9
$DIMALTRND
 40
0.0
  9
$DIMAZIN
 70
     0
  9
$DIMDSEP
 70
    44
  9
$DIMATFIT
 70
     3
  9
$DIMFRAC
 70
     0
  9
$DIMLDRBLK
  1

  9
$DIMLUNIT
 70
     2
  9
$DIMLWD
 70
    -2
  9
$DIMLWE
 70
    -2
  9
$DIMTMOVE
 70
     0
  9
$LUNITS
 70
     2
  9
$LUPREC
 70
     2
  9
$SKETCHINC
 40
1.0
  9
$FILLETRAD
 40
10.0
  9
$AUNITS
 70
     0
  9
$AUPREC
 70
     2
  9
$MENU
  1
.
  9
$ELEVATION
 40
0.0
  9
$PELEVATION
 40
0.0
  9
$THICKNESS
 40
0.0
  9
$LIMCHECK
 70
     0
  9
$CHAMFERA
 40
0.0
  9
$CHAMFERB
 40
0.0
  9
$CHAMFERC
 40
0.0
  9
$CHAMFERD
 40
0.0
  9
$SKPOLY
 70
     0
  9
$TDCREATE
 40
2457655.638415243
  9
$TDUCREATE
 40
2457655.55508191
  9
$TDUPDATE
 40
2457655.638416342
  9
$TDUUPDATE
 40
2457655.555083009
  9
$TDINDWG
 40
0.0000000116
  9
$TDUSRTIMER
 40
0.0000000116
  9
$USRTIMER
 70
     1
  9
$ANGBASE
 50
0.0
  9
$ANGDIR
 70
     0
  9
$PDMODE
 70
     0
  9
$PDSIZE
 40
-1.0
  9
$PLINEWID
 40
0.0
  9
$SPLFRAME
 70
     0
  9
$SPLINETYPE
 70
     6
  9
$SPLINESEGS
 70
     8
  9
$HANDSEED
  5
1F5
  9
$SURFTAB1
 70
     6
  9
$SURFTAB2
 70
     6
  9
$SURFTYPE
 70
     6
  9
$SURFU
 70
     6
  9
$SURFV
 70
     6
  9
$UCSBASE
  2

  9
$UCSNAME
  2

  9
$UCSORG
 10
0.0
 20
0.0
 30
0.0
  9
$UCSXDIR
 10
1.0
 20
0.0
 30
0.0
  9
$UCSYDIR
 10
0.0
 20
1.0
 30
0.0
  9
$UCSORTHOREF
  2

  9
$UCSORTHOVIEW
 70
     0
  9
$UCSORGTOP
 10
0.0
 20
0.0
 30
0.0
  9
$UCSORGBOTTOM
 10
0.0
 20
0.0
 30
0.0
  9
$UCSORGLEFT
 10
0.0
 20
0.0
 30
0.0
  9
$UCSORGRIGHT
 10
0.0
 20
0.0
 30
0.0
  9
$UCSORGFRONT
 10
0.0
 20
0.0
 30
0.0
  9
$UCSORGBACK
 10
0.0
 20
0.0
 30
0.0
  9
$PUCSBASE
  2

  9
$PUCSNAME
  2

  9
$PUCSORG
 10
0.0
 20
0.0
 30
0.0
  9
$PUCSXDIR
 10
1.0
 20
0.0
 30
0.0
  9
$PUCSYDIR
 10
0.0
 20
1.0
 30
0.0
  9
$PUCSORTHOREF
  2

  9
$PUCSORTHOVIEW
 70
     0
  9
$PUCSORGTOP
 10
0.0
 20
0.0
 30
0.0
  9
$PUCSORGBOTTOM
 10
0.0
 20
0.0
 30
0.0
  9
$PUCSORGLEFT
 10
0.0
 20
0.0
 30
0.0
  9
$PUCSORGRIGHT
 10
0.0
 20
0.0
 30
0.0
  9
$PUCSORGFRONT
 10
0.0
 20
0.0
 30
0.0
  9
$PUCSORGBACK
 10
0.0
 20
0.0
 30
0.0
  9
$USERI1
 70
     0
  9
$USERI2
 70
     0
  9
$USERI3
 70
     0
  9
$USERI4
 70
     0
  9
$USERI5
 70
     0
  9
$USERR1
 40
0.0
  9
$USERR2
 40
0.0
  9
$USERR3
 40
0.0
  9
$USERR4
 40
0.0
  9
$USERR5
 40
0.0
  9
$WORLDVIEW
 70
     1
  9
$SHADEDGE
 70
     3
  9
$SHADEDIF
 70
    70
  9
$TILEMODE
 70
     1
  9
$MAXACTVP
 70
    64
  9
$PINSBASE
 10
0.0
 20
0.0
 30
0.0
  9
$PLIMCHECK
 70
     0
  9
$PEXTMIN
 10
1.0000000000E+20
 20
1.0000000000E+20
 30
1.0000000000E+20
  9
$PEXTMAX
 10
-1.0000000000E+20
 20
-1.0000000000E+20
 30
-1.0000000000E+20
  9
$PLIMMIN
 10
0.0
 20
0.0
  9
$PLIMMAX
 10
420.0
 20
297.0
  9
$UNITMODE
 70
     0
  9
$VISRETAIN
 70
     1
  9
$PLINEGEN
 70
     0
  9
$PSLTSCALE
 70
     1
  9
$TREEDEPTH
 70
  3020
  9
$CMLSTYLE
  2
Standard
  9
$CMLJUST
 70
     0
  9
$CMLSCALE
 40
20.0
  9
$PROXYGRAPHICS
 70
     1
  9
$MEASUREMENT
 70
     1
  9
$CELWEIGHT
370
    -1
  9
$ENDCAPS
280
     0
  9
$JOINSTYLE
280
     0
  9
$LWDISPLAY
290
     1
  9
$INSUNITS
 70
     4
  9
$HYPERLINKBASE
  1

  9
$STYLESHEET
  1

  9
$XEDIT
290
     1
  9
$CEPSNTYPE
380
     0
  9
$PSTYLEMODE
290
     1
  9
$FINGERPRINTGUID
  2
{9C37AD71-DF4B-4800-9F0D-9DD9D01B2AE4}
  9
$VERSIONGUID
  2
{FAEB1C32-E019-11D5-929B-00C0DF256EC4}
  9
$EXTNAMES
290
     1
  9
$PSVPSCALE
 40
0.0
  9
$OLESTARTUP
290
     0
  0
ENDSEC
  0
SECTION
  2
CLASSES
  0
CLASS
  1
ACDBDICTIONARYWDFLT
  2
AcDbDictionaryWithDefault
  3
ObjectDBX Classes
 90
        0
280
     0
281
     0
  0
CLASS
  1
VISUALSTYLE
  2
AcDbVisualStyle
  3
ObjectDBX Classes
 90
     4095
280
     0
281
     0
  0
CLASS
  1
MATERIAL
  2
AcDbMaterial
  3
ObjectDBX Classes
 90
     1153
280
     0
281
     0
  0
CLASS
  1
SCALE
  2
AcDbScale
  3
ObjectDBX Classes
 90
     1153
280
     0
281
     0
  0
CLASS
  1
TABLESTYLE
  2
AcDbTableStyle
  3
ObjectDBX Classes
 90
     4095
280
     0
281
     0
  0
CLASS
  1
MLEADERSTYLE
  2
AcDbMLeaderStyle
  3
ACDB_MLEADERSTYLE_CLASS
 90
     4095
280
     0
281
     0
  0
CLASS
  1
SUN
  2
AcDbSun
  3
SCENEOE
 90
     1153
280
     0
281
     0
  0
CLASS
  1
ACDBPLACEHOLDER
  2
AcDbPlaceHolder
  3
ObjectDBX Classes
 90
        0
280
     0
281
     0
  0
CLASS
  1
LAYOUT
  2
AcDbLayout
  3
ObjectDBX Classes
 90
        0
280
     0
281
     0
  0
ENDSEC
  0
SECTION
  2
TABLES
  0
TABLE
  2
VPORT
  5
8
330
0
100
AcDbSymbolTable
 70
     1
  0
VPORT
  5
29
330
8
100
AcDbSymbolTableRecord
100
AcDbViewportTableRecord
  2
*Active
 70
     0
 10
0.0
 20
0.0
 11
1.0
 21
1.0
 12
148.5
 22
105.0
 13
0.0
 23
0.0
 14
10.0
 24
10.0
 15
10.0
 25
10.0
 16
0.0
 26
0.0
 36
1.0
 17
0.0
 27
0.0
 37
0.0
 40
210.0
 41
1.4142857143
 42
50.0
 43
0.0
 44
0.0
 50
0.0
 51
0.0
 71
     0
 72
  2000
 73
     1
 74
     3
 75
     0
 76
     0
 77
     0
 78
     0
281
     0
 65
     1
110
0.0
120
0.0
130
0.0
111
1.0
121
0.0
131
0.0
112
0.0
122
1.0
132
0.0
 79
     0
146
0.0
  0
ENDTAB
  0
TABLE
  2
LTYPE
  5
5
330
0
100
AcDbSymbolTable
 70
     6
  0
LTYPE
  5
14
330
5
100
AcDbSymbolTableRecord
100
AcDbLinetypeTableRecord
  2
ByBlock
 70
     0
  3

 72
    65
 73
     0
 40
0.0
  0
LTYPE
  5
15
330
5
100
AcDbSymbolTableRecord
100
AcDbLinetypeTableRecord
  2
ByLayer
 70
     0
  3

 72
    65
 73
     0
 40
0.0
  0
LTYPE
  5
16
330
5
100
AcDbSymbolTableRecord
100
AcDbLinetypeTableRecord
  2
Continuous
 70
     0
  3
Solid line
 72
    65
 73
     0
 40
0.0
  0
LTYPE
  5
6E
330
5
100
AcDbSymbolTableRecord
100
AcDbLinetypeTableRecord
  2
HIDDEN
 70
     0
  3
Hidden __ __ __ __ __ __ __ __ __ __ __ __ __ __
 72
    65
 73
     2
 40
1.905
 49
1.27
 74
     0
 49
-0.635
 74
     0
  0
LTYPE
  5
6F
330
5
100
AcDbSymbolTableRecord
100
AcDbLinetypeTableRecord
  2
PHANTOM
 70
     0
  3
Phantom ______  __  __  ______  __  __  ______
 72
    65
 73
     6
 40
12.7
 49
6.35
 74
     0
 49
-1.27
 74
     0
 49
1.27
 74
     0
 49
-1.27
 74
     0
 49
1.27
 74
     0
 49
-1.27
 74
     0
  0
LTYPE
  5
70
330
5
100
AcDbSymbolTableRecord
100
AcDbLinetypeTableRecord
  2
CENTER
 70
     0
  3
Center ____ _ ____ _ ____ _ ____ _ ____ _ ____
 72
    65
 73
     4
 40
10.16
 49
6.35
 74
     0
 49
-1.27
 74
     0
 49
1.27
 74
     0
 49
-1.27
 74
     0
  0
LTYPE
  5
71
330
5
100
AcDbSymbolTableRecord
100
AcDbLinetypeTableRecord
  2
CENTERX2
 70
     0
  3
Center (2x) ________  __  ________  __  _____
 72
    65
 73
     4
 40
20.32
 49
12.7
 74
     0
 49
-2.54
 74
     0
 49
2.54
 74
     0
 49
-2.54
 74
     0
  0
LTYPE
  5
72
330
5
100
AcDbSymbolTableRecord
100
AcDbLinetypeTableRecord
  2
DOT2
 70
     0
  3
Dot (.5x) ........................................
 72
    65
 73
     2
 40
0.635
 49
0.0
 74
     0
 49
-0.635
 74
     0
  0
ENDTAB
  0
TABLE
  2
LAYER
  5
2
330
0
100
AcDbSymbolTable
 70
     5
  0
LAYER
  5
10
330
2
100
AcDbSymbolTableRecord
100
AcDbLayerTableRecord
  2
0
 70
     0
 62
     7
  6
Continuous
370
    -3
390
F
  0
LAYER
  5
73
330
2
100
AcDbSymbolTableRecord
100
AcDbLayerTableRecord
  2
FORMAT
 70
     0
 62
     7
  6
Continuous
370
    -3
390
F
  0
LAYER
  5
74
330
2
100
AcDbSymbolTableRecord
100
AcDbLayerTableRecord
  2
VERMASSUNG
 70
     0
 62
     7
  6
Continuous
370
    -3
390
F
  0
LAYER
  5
75
330
2
100
AcDbSymbolTableRecord
100
AcDbLayerTableRecord
  2
KOPF_DÜNN
 70
     0
 62
     7
  6
Continuous
370
    -3
390
F
  0
LAYER
  5
76
330
2
100
AcDbSymbolTableRecord
100
AcDbLayerTableRecord
  2
KOPF_DICK
 70
     0
 62
     7
  6
Continuous
370
    15
390
F
  0
ENDTAB
  0
TABLE
  2
STYLE
  5
3
330
0
100
AcDbSymbolTable
 70
     3
  0
STYLE
  5
11
330
3
100
AcDbSymbolTableRecord
100
AcDbTextStyleTableRecord
  2
Standard
 70
     0
 40
0.0
 41
1.0
 50
0.0
 71
     0
 42
2.0
  3
txt
  4

  0
STYLE
  5
77
330
3
100
AcDbSymbolTableRecord
100
AcDbTextStyleTableRecord
  2
SLDTEXTSTYLE0
 70
     0
 40
0.0
 41
0.7
 50
0.0
 71
     0
 42
2.0
  3
TXT
  4

  0
STYLE
  5
7B
330
3
100
AcDbSymbolTableRecord
100
AcDbTextStyleTableRecord
  2
SLDTEXTSTYLE1
 70
     0
 40
0.0
 41
0.6444444444
 50
0.0
 71
     0
 42
2.0
  3
TXT
  4

  0
ENDTAB
  0
TABLE
  2
VIEW
  5
6
330
0
100
AcDbSymbolTable
 70
     0
  0
ENDTAB
  0
TABLE
  2
UCS
  5
7
330
0
100
AcDbSymbolTable
 70
     0
  0
ENDTAB
  0
TABLE
  2
APPID
  5
9
330
0
100
AcDbSymbolTable
 70
     1
  0
APPID
  5
12
330
9
100
AcDbSymbolTableRecord
100
AcDbRegAppTableRecord
  2
ACAD
 70
     0
  0
ENDTAB
  0
TABLE
  2
DIMSTYLE
  5
A
330
0
100
AcDbSymbolTable
 70
     2
100
AcDbDimStyleTable
  0
DIMSTYLE
105
27
330
A
100
AcDbSymbolTableRecord
100
AcDbDimStyleTableRecord
  2
ISO-25
 70
     0
 41
2.5
 42
0.625
 43
3.75
 44
1.25
 73
     0
 74
     0
 77
     1
 78
     8
140
2.5
141
2.5
143
0.0393700787
147
0.625
171
     3
172
     1
178
     0
271
     2
272
     2
274
     3
278
    44
283
     0
284
     8
340
11
  0
DIMSTYLE
105
12A
102
{ACAD_REACTORS
330
129
330
136
330
140
330
14A
330
154
102
}
330
A
100
AcDbSymbolTableRecord
100
AcDbDimStyleTableRecord
  2
SLDDIMSTYLE0
 70
     0
 41
3.0
 44
0.0
 45
0.000000001
 73
     0
 74
     0
 77
     1
 78
    12
 79
     3
140
2.0
147
0.5
173
     1
178
     0
271
     2
272
     3
276
     2
284
    12
340
77
  0
ENDTAB
  0
TABLE
  2
BLOCK_RECORD
  5
1
330
0
100
AcDbSymbolTable
 70
     6
  0
BLOCK_RECORD
  5
1F
330
1
100
AcDbSymbolTableRecord
100
AcDbBlockTableRecord
  2
*Model_Space
340
22
  0
BLOCK_RECORD
  5
1B
330
1
100
AcDbSymbolTableRecord
100
AcDbBlockTableRecord
  2
*Paper_Space
340
1E
  0
BLOCK_RECORD
  5
23
330
1
100
AcDbSymbolTableRecord
100
AcDbBlockTableRecord
  2
*Paper_Space0
340
26
  0
BLOCK_RECORD
  5
12B
330
1
100
AcDbSymbolTableRecord
100
AcDbBlockTableRecord
  2
_D
340
0
  0
BLOCK_RECORD
  5
137
330
1
100
AcDbSymbolTableRecord
100
AcDbBlockTableRecord
  2
_D_1
340
0
  0
BLOCK_RECORD
  5
141
330
1
100
AcDbSymbolTableRecord
100
AcDbBlockTableRecord
  2
_D_2
340
0
  0
BLOCK_RECORD
  5
14B
330
1
100
AcDbSymbolTableRecord
100
AcDbBlockTableRecord
  2
_D_3
340
0
  0
BLOCK_RECORD
  5
155
330
1
100
AcDbSymbolTableRecord
100
AcDbBlockTableRecord
  2
_D_4
340
0
  0
ENDTAB
  0
ENDSEC
  0
SECTION
  2
BLOCKS
  0
BLOCK
  5
20
330
1F
100
AcDbEntity
  8
0
100
AcDbBlockBegin
  2
*Model_Space
 70
     0
 10
0.0
 20
0.0
 30
0.0
  3
*Model_Space
  1

  0
ENDBLK
  5
21
330
1F
100
AcDbEntity
  8
0
100
AcDbBlockEnd
  0
BLOCK
  5
1C
330
1B
100
AcDbEntity
 67
     1
  8
0
100
AcDbBlockBegin
  2
*Paper_Space
 70
     0
 10
0.0
 20
0.0
 30
0.0
  3
*Paper_Space
  1

  0
ENDBLK
  5
1D
330
1B
100
AcDbEntity
 67
     1
  8
0
100
AcDbBlockEnd
  0
BLOCK
  5
24
330
23
100
AcDbEntity
  8
0
100
AcDbBlockBegin
  2
*Paper_Space0
 70
     0
 10
0.0
 20
0.0
 30
0.0
  3
*Paper_Space0
  1

  0
ENDBLK
  5
25
330
23
100
AcDbEntity
  8
0
100
AcDbBlockEnd
  0
BLOCK
  5
12C
330
12B
100
AcDbEntity
  8
0
100
AcDbBlockBegin
  2
_D
 70
     0
 10
0.0
 20
0.0
 30
0.0
  3
_D
  1

  0
SOLID
  5
12E
330
12B
100
AcDbEntity
  8
VERMASSUNG
100
AcDbTrace
 10
85.4143037049
 20
136.811026694
 30
0.0
 11
84.9643037049
 21
133.811026694
 31
0.0
 12
85.8643037049
 22
133.811026694
 32
0.0
 13
85.8643037049
 23
133.811026694
 33
0.0
  0
SOLID
  5
12F
330
12B
100
AcDbEntity
  8
VERMASSUNG
100
AcDbTrace
 10
85.4143037049
 20
73.811026694
 30
0.0
 11
85.8643037049
 21
76.811026694
 31
0.0
 12
84.9643037049
 22
76.811026694
 32
0.0
 13
84.9643037049
 23
76.811026694
 33
0.0
  0
LINE
  5
130
330
12B
100
AcDbEntity
  8
VERMASSUNG
100
AcDbLine
 10
181.4007556095
 20
136.811026694
 30
0.0
 11
84.4143037049
 21
136.811026694
 31
0.0
  0
LINE
  5
131
330
12B
100
AcDbEntity
  8
VERMASSUNG
100
AcDbLine
 10
181.4007605275
 20
73.811026694
 30
0.0
 11
84.4143037049
 21
73.811026694
 31
0.0
  0
LINE
  5
132
330
12B
100
AcDbEntity
  8
VERMASSUNG
100
AcDbLine
 10
85.4143037049
 20
136.811026694
 30
0.0
 11
85.4143037049
 21
73.811026694
 31
0.0
  0
MTEXT
  5
133
330
12B
100
AcDbEntity
  8
VERMASSUNG
100
AcDbMText
 10
82.6361684487
 20
94.6065416271
 30
0.0
 40
2.0
 41
0.0
 71
     1
 72
     1
  1
MAS BT 40
  7
SLDTEXTSTYLE0
 11
-7.044195017643634E-15
 21
1.0
 31
0.0
 73
     1
 44
1.0
  0
MTEXT
  5
134
330
12B
100
AcDbEntity
  8
VERMASSUNG
100
AcDbMText
 10
82.8361684
 20
109.6065412918
 30
0.0
 40
2.0
 41
0.0
 71
     1
 72
     1
  1
%%c
  7
SLDTEXTSTYLE0
 11
-7.044195017643634E-15
 21
1.0
 31
0.0
 73
     1
 44
1.0
  0
MTEXT
  5
135
330
12B
100
AcDbEntity
  8
VERMASSUNG
100
AcDbMText
 10
82.836168109
 20
113.2161317404
 30
0.0
 40
2.0
 41
0.0
 71
     1
 72
     1
  1
63
  7
SLDTEXTSTYLE0
 11
-7.044195017643634E-15
 21
1.0
 31
0.0
 73
     1
 44
1.0
  0
ENDBLK
  5
12D
330
12B
100
AcDbEntity
  8
0
100
AcDbBlockEnd
  0
BLOCK
  5
138
330
137
100
AcDbEntity
  8
0
100
AcDbBlockBegin
  2
_D_1
 70
     0
 10
0.0
 20
0.0
 30
0.0
  3
_D_1
  1

  0
SOLID
  5
13A
330
137
100
AcDbEntity
  8
VERMASSUNG
100
AcDbTrace
 10
92.0007597536
 20
154.8878560167
 30
0.0
 11
95.0007597536
 21
154.4378560167
 31
0.0
 12
95.0007597536
 22
155.3378560167
 32
0.0
 13
95.0007597536
 23
155.3378560167
 33
0.0
  0
SOLID
  5
13B
330
137
100
AcDbEntity
  8
VERMASSUNG
100
AcDbTrace
 10
199.4007597536
 20
154.8878560167
 30
0.0
 11
196.4007597536
 21
155.3378560167
 31
0.0
 12
196.4007597536
 22
154.4378560167
 32
0.0
 13
196.4007597536
 23
154.4378560167
 33
0.0
  0
LINE
  5
13C
330
137
100
AcDbEntity
  8
VERMASSUNG
100
AcDbLine
 10
92.0007597536
 20
117.1337822911
 30
0.0
 11
92.0007597536
 21
155.8878560167
 31
0.0
  0
LINE
  5
13D
330
137
100
AcDbEntity
  8
VERMASSUNG
100
AcDbLine
 10
199.4007597536
 20
115.111026694
 30
0.0
 11
199.4007597536
 21
155.8878560167
 31
0.0
  0
LINE
  5
13E
330
137
100
AcDbEntity
  8
VERMASSUNG
100
AcDbLine
 10
92.0007597536
 20
154.8878560167
 30
0.0
 11
199.4007597536
 21
154.8878560167
 31
0.0
  0
MTEXT
  5
13F
330
137
100
AcDbEntity
  8
VERMASSUNG
100
AcDbMText
 10
142.7017391563
 20
157.4659916126
 30
0.0
 40
2.0
 41
0.0
 71
     1
 72
     1
  1
107.4
  7
SLDTEXTSTYLE0
 73
     1
 44
1.0
  0
ENDBLK
  5
139
330
137
100
AcDbEntity
  8
0
100
AcDbBlockEnd
  0
BLOCK
  5
142
330
141
100
AcDbEntity
  8
0
100
AcDbBlockBegin
  2
_D_2
 70
     0
 10
0.0
 20
0.0
 30
0.0
  3
_D_2
  1

  0
SOLID
  5
144
330
141
100
AcDbEntity
  8
VERMASSUNG
100
AcDbTrace
 10
184.4007597536
 20
142.8878560167
 30
0.0
 11
187.4007597536
 21
142.4378560167
 31
0.0
 12
187.4007597536
 22
143.3378560167
 32
0.0
 13
187.4007597536
 23
143.3378560167
 33
0.0
  0
SOLID
  5
145
330
141
100
AcDbEntity
  8
VERMASSUNG
100
AcDbTrace
 10
199.4007597536
 20
142.8878560167
 30
0.0
 11
196.4007597536
 21
143.3378560167
 31
0.0
 12
196.4007597536
 22
142.4378560167
 32
0.0
 13
196.4007597536
 23
142.4378560167
 33
0.0
  0
LINE
  5
146
330
141
100
AcDbEntity
  8
VERMASSUNG
100
AcDbLine
 10
184.4007597536
 20
135.811026694
 30
0.0
 11
184.4007597536
 21
143.8878560167
 31
0.0
  0
LINE
  5
147
330
141
100
AcDbEntity
  8
VERMASSUNG
100
AcDbLine
 10
199.4007597536
 20
115.111026694
 30
0.0
 11
199.4007597536
 21
143.8878560167
 31
0.0
  0
LINE
  5
148
330
141
100
AcDbEntity
  8
VERMASSUNG
100
AcDbLine
 10
184.4007597536
 20
142.8878560167
 30
0.0
 11
199.4007597536
 21
142.8878560167
 31
0.0
  0
MTEXT
  5
149
330
141
100
AcDbEntity
  8
VERMASSUNG
100
AcDbMText
 10
190.7018133066
 20
145.4659916126
 30
0.0
 40
2.0
 41
0.0
 71
     1
 72
     1
  1
15
  7
SLDTEXTSTYLE0
 73
     1
 44
1.0
  0
ENDBLK
  5
143
330
141
100
AcDbEntity
  8
0
100
AcDbBlockEnd
  0
BLOCK
  5
14C
330
14B
100
AcDbEntity
  8
0
100
AcDbBlockBegin
  2
_D_3
 70
     0
 10
0.0
 20
0.0
 30
0.0
  3
_D_3
  1

  0
SOLID
  5
14E
330
14B
100
AcDbEntity
  8
VERMASSUNG
100
AcDbTrace
 10
157.4007597536
 20
148.8878560167
 30
0.0
 11
160.4007597536
 21
148.4378560167
 31
0.0
 12
160.4007597536
 22
149.3378560167
 32
0.0
 13
160.4007597536
 23
149.3378560167
 33
0.0
  0
SOLID
  5
14F
330
14B
100
AcDbEntity
  8
VERMASSUNG
100
AcDbTrace
 10
199.4007597536
 20
148.8878560167
 30
0.0
 11
196.4007597536
 21
149.3378560167
 31
0.0
 12
196.4007597536
 22
148.4378560167
 32
0.0
 13
196.4007597536
 23
148.4378560167
 33
0.0
  0
LINE
  5
150
330
14B
100
AcDbEntity
  8
VERMASSUNG
100
AcDbLine
 10
157.4007597536
 20
127.536026694
 30
0.0
 11
157.4007597536
 21
149.8878560167
 31
0.0
  0
LINE
  5
151
330
14B
100
AcDbEntity
  8
VERMASSUNG
100
AcDbLine
 10
199.4007597536
 20
115.111026694
 30
0.0
 11
199.4007597536
 21
149.8878560167
 31
0.0
  0
LINE
  5
152
330
14B
100
AcDbEntity
  8
VERMASSUNG
100
AcDbLine
 10
157.4007597536
 20
148.8878560167
 30
0.0
 11
199.4007597536
 21
148.8878560167
 31
0.0
  0
MTEXT
  5
153
330
14B
100
AcDbEntity
  8
VERMASSUNG
100
AcDbMText
 10
176.9018009482
 20
151.4659916126
 30
0.0
 40
2.0
 41
0.0
 71
     1
 72
     1
  1
42
  7
SLDTEXTSTYLE0
 73
     1
 44
1.0
  0
ENDBLK
  5
14D
330
14B
100
AcDbEntity
  8
0
100
AcDbBlockEnd
  0
BLOCK
  5
156
330
155
100
AcDbEntity
  8
0
100
AcDbBlockBegin
  2
_D_4
 70
     0
 10
0.0
 20
0.0
 30
0.0
  3
_D_4
  1

  0
SOLID
  5
158
330
155
100
AcDbEntity
  8
VERMASSUNG
100
AcDbTrace
 10
207.1747652552
 20
115.311026694
 30
0.0
 11
206.7247652552
 21
112.311026694
 31
0.0
 12
207.6247652552
 22
112.311026694
 32
0.0
 13
207.6247652552
 23
112.311026694
 33
0.0
  0
SOLID
  5
159
330
155
100
AcDbEntity
  8
VERMASSUNG
100
AcDbTrace
 10
207.1747652552
 20
95.311026694
 30
0.0
 11
207.6247652552
 21
98.311026694
 31
0.0
 12
206.7247652552
 22
98.311026694
 32
0.0
 13
206.7247652552
 23
98.311026694
 33
0.0
  0
LINE
  5
15A
330
155
100
AcDbEntity
  8
VERMASSUNG
100
AcDbLine
 10
199.2007597536
 20
115.311026694
 30
0.0
 11
208.1747652552
 21
115.311026694
 31
0.0
  0
LINE
  5
15B
330
155
100
AcDbEntity
  8
VERMASSUNG
100
AcDbLine
 10
199.2007597536
 20
95.311026694
 30
0.0
 11
208.1747652552
 21
95.311026694
 31
0.0
  0
LINE
  5
15C
330
155
100
AcDbEntity
  8
VERMASSUNG
100
AcDbLine
 10
207.1747652552
 20
115.311026694
 30
0.0
 11
207.1747652552
 21
95.311026694
 31
0.0
  0
MTEXT
  5
15D
330
155
100
AcDbEntity
  8
VERMASSUNG
100
AcDbMText
 10
204.396629999
 20
98.9060270505
 30
0.0
 40
2.0
 41
0.0
 71
     1
 72
     1
  1
MBM
  7
SLDTEXTSTYLE0
 11
-7.044195017643634E-15
 21
1.0
 31
0.0
 73
     1
 44
1.0
  0
MTEXT
  5
15E
330
155
100
AcDbEntity
  8
VERMASSUNG
100
AcDbMText
 10
204.5966299503
 20
105.3060268888
 30
0.0
 40
2.0
 41
0.0
 71
     1
 72
     1
  1
%%c
  7
SLDTEXTSTYLE0
 11
-7.044195017643634E-15
 21
1.0
 31
0.0
 73
     1
 44
1.0
  0
MTEXT
  5
15F
330
155
100
AcDbEntity
  8
VERMASSUNG
100
AcDbMText
 10
204.396629999
 20
108.9160273688
 30
0.0
 40
2.0
 41
0.0
 71
     1
 72
     1
  1
20
  7
SLDTEXTSTYLE0
 11
-7.044195017643634E-15
 21
1.0
 31
0.0
 73
     1
 44
1.0
  0
ENDBLK
  5
157
330
155
100
AcDbEntity
  8
0
100
AcDbBlockEnd
  0
ENDSEC
  0
SECTION
  2
ENTITIES
  0
MTEXT
  5
78
330
1F
100
AcDbEntity
  8
KOPF_DÜNN
100
AcDbMText
 10
13.8892156294
 20
23.8442973028
 30
0.0
 40
3.0
 41
0.0
 71
     1
 72
     1
  1
102.412.201
  7
SLDTEXTSTYLE0
 73
     1
 44
1.0
  0
MTEXT
  5
79
330
1F
100
AcDbEntity
  8
VERMASSUNG
100
AcDbMText
 10
13.9329988022
 20
28.8834360957
 30
0.0
 40
3.0
 41
0.0
 71
     1
 72
     1
  1
Aufnahme_Master shank MBM 20
  7
SLDTEXTSTYLE0
 73
     1
 44
1.0
  0
MTEXT
  5
7A
330
1F
100
AcDbEntity
  8
VERMASSUNG
100
AcDbMText
 10
98.8601118557
 20
13.8365368761
 30
0.0
 40
2.0
 41
0.0
 71
     1
 72
     1
  1
Datum: 21.11.2007
  7
SLDTEXTSTYLE0
 73
     1
 44
1.0
  0
MTEXT
  5
7C
330
1F
100
AcDbEntity
  8
VERMASSUNG
100
AcDbMText
 10
13.933048693
 20
18.0482802738
 30
0.0
 40
2.0
 41
0.0
 71
     1
 72
     1
  1
MAS BT 40 / MBM 20
  7
SLDTEXTSTYLE1
 73
     1
 44
1.0
  0
MTEXT
  5
7D
330
1F
100
AcDbEntity
  8
VERMASSUNG
100
AcDbMText
 10
13.9808475933
 20
13.9090974274
 30
0.0
 40
2.0
 41
0.0
 71
     1
 72
     1
  1
Gewicht: 1001g
  7
SLDTEXTSTYLE0
 73
     1
 44
1.0
  0
LINE
  5
7E
330
1F
100
AcDbEntity
  8
0
  6
Continuous
 62
     7
370
    15
100
AcDbLine
 10
181.4009146662
 20
73.811026694
 30
0.0
 11
183.4007597536
 21
73.811026694
 31
0.0
  0
LINE
  5
7F
330
1F
100
AcDbEntity
  8
0
  6
Continuous
 62
     7
370
    15
100
AcDbLine
 10
183.4007597536
 20
136.811026694
 30
0.0
 11
181.4002595836
 21
136.811026694
 31
0.0
  0
ARC
  5
80
330
1F
100
AcDbEntity
  8
0
  6
Continuous
 62
     7
370
    15
100
AcDbCircle
 10
183.4007597536
 20
74.811026694
 30
0.0
 40
1.0
100
AcDbArc
 50
270.0
 51
0.0
  0
ARC
  5
81
330
1F
100
AcDbEntity
  8
0
  6
Continuous
 62
     7
370
    15
100
AcDbCircle
 10
183.4007597536
 20
135.811026694
 30
0.0
 40
1.0
100
AcDbArc
 50
0.0
 51
90.0
  0
ARC
  5
82
330
1F
100
AcDbEntity
  8
0
  6
Continuous
 62
     7
370
    15
100
AcDbCircle
 10
158.4007597536
 20
82.086026694
 30
0.0
 40
1.000000000000003
100
AcDbArc
 50
46.4345794674
 51
90.0
  0
ARC
  5
83
330
1F
100
AcDbEntity
  8
0
  6
Continuous
 62
     7
370
    15
100
AcDbCircle
 10
158.4007597536
 20
128.536026694
 30
0.0
 40
1.000000000000027
100
AcDbArc
 50
270.0
 51
313.5376081075
  0
LINE
  5
84
330
1F
100
AcDbEntity
  8
0
  6
Continuous
 62
     7
370
    15
100
AcDbLine
 10
157.4007597536
 20
127.536026694
 30
0.0
 11
92.8564528605
 21
118.1233152721
 31
0.0
  0
LINE
  5
85
330
1F
100
AcDbEntity
  8
0
  6
Continuous
 62
     7
370
    15
100
AcDbLine
 10
92.8564528605
 20
92.498738116
 30
0.0
 11
157.4007597536
 21
83.086026694
 31
0.0
  0
LINE
  5
86
330
1F
100
AcDbEntity
  8
0
  6
Continuous
 62
     7
370
    15
100
AcDbLine
 10
157.4007597536
 20
83.086026694
 30
0.0
 11
158.4007597536
 21
83.086026694
 31
0.0
  0
LINE
  5
87
330
1F
100
AcDbEntity
  8
0
  6
Continuous
 62
     7
370
    15
100
AcDbLine
 10
158.4007597536
 20
127.536026694
 30
0.0
 11
157.4007597536
 21
127.536026694
 31
0.0
  0
ARC
  5
88
330
1F
100
AcDbEntity
  8
0
  6
Continuous
 62
     7
370
    15
100
AcDbCircle
 10
188.4007597536
 20
91.311026694
 30
0.0
 40
4.0
100
AcDbArc
 50
90.0
 51
180.0
  0
ARC
  5
89
330
1F
100
AcDbEntity
  8
0
  6
Continuous
 62
     7
370
    15
100
AcDbCircle
 10
188.4007597536
 20
119.311026694
 30
0.0
 40
3.999999999999986
100
AcDbArc
 50
180.0
 51
270.0
  0
ARC
  5
8A
330
1F
100
AcDbEntity
  8
0
  6
Continuous
 62
     7
370
    15
100
AcDbCircle
 10
93.0007597536
 20
93.488271097
 30
0.0
 40
1.000000000000012
100
AcDbArc
 50
180.0
 51
261.7028550302
  0
ARC
  5
8B
330
1F
100
AcDbEntity
  8
0
  6
Continuous
 62
     7
370
    15
100
AcDbCircle
 10
93.0007597536
 20
117.1337822911
 30
0.0
 40
1.0
100
AcDbArc
 50
98.2971449698
 51
180.0
  0
LINE
  5
8C
330
1F
100
AcDbEntity
  8
0
  6
Continuous
 62
     7
370
    15
100
AcDbLine
 10
188.4007597536
 20
95.311026694
 30
0.0
 11
199.2007597536
 21
95.311026694
 31
0.0
  0
LINE
  5
8D
330
1F
100
AcDbEntity
  8
0
  6
Continuous
 62
     7
370
    15
100
AcDbLine
 10
199.2007597536
 20
115.311026694
 30
0.0
 11
188.4007597536
 21
115.311026694
 31
0.0
  0
LINE
  5
8E
330
1F
100
AcDbEntity
  8
0
  6
Continuous
 62
     7
370
    15
100
AcDbLine
 10
199.2007597536
 20
95.311026694
 30
0.0
 11
199.4007597536
 21
95.511026694
 31
0.0
  0
LINE
  5
8F
330
1F
100
AcDbEntity
  8
0
  6
Continuous
 62
     7
370
    15
100
AcDbLine
 10
199.4007597536
 20
115.111026694
 30
0.0
 11
199.2007597536
 21
115.311026694
 31
0.0
  0
SPLINE
  5
90
330
1F
100
AcDbEntity
  8
0
  6
Continuous
 62
     7
370
    15
100
AcDbSpline
210
0.0
220
0.0
230
1.0
 70
    24
 71
     3
 72
    11
 73
     7
 74
     0
 42
0.000000001
 43
0.00000001
 40
0.0
 40
0.0
 40
0.0
 40
0.0
 40
0.1285561766306859
 40
0.4801535797842827
 40
0.815069183175483
 40
1.0
 40
1.0
 40
1.0
 40
1.0
 10
194.4224475900805
 20
104.0610266940452
 30
0.0
 10
194.3643185980888
 20
104.0610266940452
 30
0.0
 10
194.1472085040772
 20
104.0610266940452
 30
0.0
 10
193.7400784517826
 20
104.0610266940452
 30
0.0
 10
193.2992424847896
 20
104.0610266940452
 30
0.0
 10
193.0630834337857
 20
104.0610266940452
 30
0.0
 10
192.9790719171064
 20
104.0610266940452
 30
0.0
  0
SPLINE
  5
91
330
1F
100
AcDbEntity
  8
0
  6
Continuous
 62
     7
370
    15
100
AcDbSpline
210
0.0
220
0.0
230
1.0
 70
    24
 71
     3
 72
    10
 73
     6
 74
     0
 42
0.000000001
 43
0.00000001
 40
0.0
 40
0.0
 40
0.0
 40
0.0
 40
0.4391119879276894
 40
0.7513633230734675
 40
1.0
 40
1.0
 40
1.0
 40
1.0
 10
195.1441354265675
 20
105.3110266940452
 30
0.0
 10
195.0408214123392
 20
105.1320815722679
 30
0.0
 10
194.8640410848036
 20
104.8258890631976
 30
0.0
 10
194.6070579629036
 20
104.380781239379
 30
0.0
 10
194.4791486521341
 20
104.1592358143653
 30
0.0
 10
194.4224475900805
 20
104.0610266940452
 30
0.0
  0
SPLINE
  5
92
330
1F
100
AcDbEntity
  8
0
  6
Continuous
 62
     7
370
    15
100
AcDbSpline
210
0.0
220
0.0
230
1.0
 70
    24
 71
     3
 72
    10
 73
     6
 74
     0
 42
0.000000001
 43
0.00000001
 40
0.0
 40
0.0
 40
0.0
 40
0.0
 40
0.4391119879276898
 40
0.7513633230734653
 40
1.0
 40
1.0
 40
1.0
 40
1.0
 10
194.4224475900805
 20
106.5610266940452
 30
0.0
 10
194.5257616043088
 20
106.3820815722679
 30
0.0
 10
194.7025419318443
 20
106.0758890631976
 30
0.0
 10
194.9595250537444
 20
105.630781239379
 30
0.0
 10
195.0874343645138
 20
105.4092358143653
 30
0.0
 10
195.1441354265675
 20
105.3110266940452
 30
0.0
  0
SPLINE
  5
93
330
1F
100
AcDbEntity
  8
0
  6
Continuous
 62
     7
370
    15
100
AcDbSpline
210
0.0
220
0.0
230
1.0
 70
    24
 71
     3
 72
    11
 73
     7
 74
     0
 42
0.000000001
 43
0.00000001
 40
0.0
 40
0.0
 40
0.0
 40
0.0
 40
0.1849308168245189
 40
0.519846420215722
 40
0.8714438233693219
 40
1.0
 40
1.0
 40
1.0
 40
1.0
 10
192.9790719171064
 20
106.5610266940452
 30
0.0
 10
193.0630834337857
 20
106.5610266940452
 30
0.0
 10
193.2992424847896
 20
106.5610266940452
 30
0.0
 10
193.7400784517826
 20
106.5610266940452
 30
0.0
 10
194.1472085040772
 20
106.5610266940452
 30
0.0
 10
194.3643185980888
 20
106.5610266940452
 30
0.0
 10
194.4224475900805
 20
106.5610266940452
 30
0.0
  0
SPLINE
  5
94
330
1F
100
AcDbEntity
  8
0
  6
Continuous
 62
     7
370
    15
100
AcDbSpline
210
0.0
220
0.0
230
1.0
 70
    24
 71
     3
 72
    10
 73
     6
 74
     0
 42
0.000000001
 43
0.00000001
 40
0.0
 40
0.0
 40
0.0
 40
0.0
 40
0.4391119879276892
 40
0.7513633230734681
 40
1.0
 40
1.0
 40
1.0
 40
1.0
 10
192.2573840806194
 20
105.3110266940452
 30
0.0
 10
192.3606980948477
 20
105.4899718158225
 30
0.0
 10
192.5374784223832
 20
105.7961643248927
 30
0.0
 10
192.7944615442833
 20
106.2412721487114
 30
0.0
 10
192.9223708550527
 20
106.4628175737251
 30
0.0
 10
192.9790719171064
 20
106.5610266940452
 30
0.0
  0
CIRCLE
  5
95
330
1F
100
AcDbEntity
  8
0
  6
Continuous
 62
     7
370
    15
100
AcDbCircle
 10
193.7007597536
 20
105.311026694
 30
0.0
 40
1.5
  0
SPLINE
  5
96
330
1F
100
AcDbEntity
  8
0
  6
Continuous
 62
     7
370
    15
100
AcDbSpline
210
0.0
220
0.0
230
1.0
 70
    24
 71
     3
 72
    10
 73
     6
 74
     0
 42
0.000000001
 43
0.00000001
 40
0.0
 40
0.0
 40
0.0
 40
0.0
 40
0.4391119879276861
 40
0.7513633230734633
 40
1.0
 40
1.0
 40
1.0
 40
1.0
 10
192.9790719171064
 20
104.0610266940452
 30
0.0
 10
192.8757579028781
 20
104.2399718158225
 30
0.0
 10
192.6989775753426
 20
104.5461643248927
 30
0.0
 10
192.4419944534424
 20
104.9912721487114
 30
0.0
 10
192.314085142673
 20
105.2128175737251
 30
0.0
 10
192.2573840806194
 20
105.3110266940452
 30
0.0
  0
CIRCLE
  5
97
330
1F
100
AcDbEntity
  8
0
  6
Continuous
 62
     7
370
    15
100
AcDbCircle
 10
193.7007597536
 20
105.311026694
 30
0.0
 40
2.200000000000003
  0
CIRCLE
  5
98
330
1F
100
AcDbEntity
  8
0
  6
Continuous
 62
     7
370
    15
100
AcDbCircle
 10
193.7007597536
 20
105.311026694
 30
0.0
 40
2.5
  0
ARC
  5
99
330
1F
100
AcDbEntity
  8
0
  6
Continuous
 62
     7
370
    15
100
AcDbCircle
 10
193.7007597536
 20
105.311026694
 30
0.0
 40
1.24999999999998
100
AcDbArc
 50
330.0
 51
30.0
  0
ARC
  5
9A
330
1F
100
AcDbEntity
  8
0
  6
Continuous
 62
     7
370
    15
100
AcDbCircle
 10
193.7007597536
 20
105.311026694
 30
0.0
 40
1.25
100
AcDbArc
 50
30.0
 51
90.0
  0
ARC
  5
9B
330
1F
100
AcDbEntity
  8
0
  6
Continuous
 62
     7
370
    15
100
AcDbCircle
 10
193.7007597536
 20
105.311026694
 30
0.0
 40
1.25
100
AcDbArc
 50
270.0
 51
330.0
  0
ARC
  5
9C
330
1F
100
AcDbEntity
  8
0
  6
Continuous
 62
     7
370
    15
100
AcDbCircle
 10
193.7007597536
 20
105.311026694
 30
0.0
 40
1.250000000000004
100
AcDbArc
 50
210.0
 51
270.0
  0
ARC
  5
9D
330
1F
100
AcDbEntity
  8
0
  6
Continuous
 62
     7
370
    15
100
AcDbCircle
 10
193.7007597536
 20
105.311026694
 30
0.0
 40
1.250000000000004
100
AcDbArc
 50
90.0
 51
150.0
  0
ARC
  5
9E
330
1F
100
AcDbEntity
  8
0
  6
Continuous
 62
     7
370
    15
100
AcDbCircle
 10
193.7007597536
 20
105.311026694
 30
0.0
 40
1.250000000000004
100
AcDbArc
 50
150.0
 51
210.0
  0
SPLINE
  5
9F
330
1F
100
AcDbEntity
  8
0
  6
Continuous
 62
     7
370
    15
100
AcDbSpline
210
0.0
220
0.0
230
1.0
 70
     8
 71
     3
 72
    10
 73
     6
 74
     0
 42
0.000000001
 43
0.00000001
 40
0.0
 40
0.0
 40
0.0
 40
0.0
 40
0.5
 40
0.5
 40
1.0
 40
1.0
 40
1.0
 40
1.0
 10
178.3773681576389
 20
135.2154874153993
 30
0.0
 10
178.0612643264995
 20
134.5956248571221
 30
0.0
 10
177.7314852821547
 20
133.9497241218233
 30
0.0
 10
177.0592620097659
 20
132.6353054815228
 30
0.0
 10
176.7171288438353
 20
131.9673832545105
 30
0.0
 10
176.3699485153211
 20
131.2910455220291
 30
0.0
  0
SPLINE
  5
A0
330
1F
100
AcDbEntity
  8
0
  6
Continuous
 62
     7
370
    15
100
AcDbSpline
210
0.0
220
0.0
230
1.0
 70
     8
 71
     3
 72
     9
 73
     5
 74
     0
 42
0.000000001
 43
0.00000001
 40
0.0
 40
0.0
 40
0.0
 40
0.0
 40
0.5067595796178751
 40
1.0
 40
1.0
 40
1.0
 40
1.0
 10
179.026390296578
 20
136.1731618013942
 30
0.0
 10
178.9159899487959
 20
136.0110868630598
 30
0.0
 10
178.6981344760582
 20
135.6912607663207
 30
0.0
 10
178.4835413738497
 20
135.3729127866835
 30
0.0
 10
178.3776953819052
 20
135.2158906953794
 30
0.0
  0
LINE
  5
A1
330
1F
100
AcDbEntity
  8
0
  6
Continuous
 62
     7
370
    15
100
AcDbLine
 10
179.0257597536
 20
74.4499286745
 30
0.0
 11
179.0257597536
 21
136.1721084485
 31
0.0
  0
SPLINE
  5
A2
330
1F
100
AcDbEntity
  8
0
  6
Continuous
 62
     7
370
    15
100
AcDbSpline
210
0.0
220
0.0
230
1.0
 70
     8
 71
     3
 72
     9
 73
     5
 74
     0
 42
0.000000001
 43
0.00000001
 40
0.0
 40
0.0
 40
0.0
 40
0.0
 40
0.4932426502230348
 40
1.0
 40
1.0
 40
1.0
 40
1.0
 10
178.3776814668824
 20
75.40616059234041
 30
0.0
 10
178.4835275718936
 20
75.24913735268024
 30
0.0
 10
178.6981199332057
 20
74.93078848404701
 30
0.0
 10
178.9159742211658
 20
74.61096243734349
 30
0.0
 10
179.0263734827701
 20
74.44888823752636
 30
0.0
  0
SPLINE
  5
A3
330
1F
100
AcDbEntity
  8
0
  6
Continuous
 62
     7
370
    15
100
AcDbSpline
210
0.0
220
0.0
230
1.0
 70
     8
 71
     3
 72
    10
 73
     6
 74
     0
 42
0.000000001
 43
0.00000001
 40
0.0
 40
0.0
 40
0.0
 40
0.0
 40
0.5
 40
0.5
 40
1.0
 40
1.0
 40
1.0
 40
1.0
 10
178.3773622379711
 20
75.40657758084015
 30
0.0
 10
178.061183135297
 20
76.02658773285388
 30
0.0
 10
177.73074090813
 20
76.67378579872158
 30
0.0
 10
177.0590293874473
 20
77.98720172331534
 30
0.0
 10
176.7170555124153
 20
78.65481298961815
 30
0.0
 10
176.3699485153211
 20
79.33100786606131
 30
0.0
  0
SPLINE
  5
A4
330
1F
100
AcDbEntity
  8
0
  6
Continuous
 62
     7
370
    15
100
AcDbSpline
210
0.0
220
0.0
230
1.0
 70
     8
 71
     3
 72
    11
 73
     7
 74
     0
 42
0.000000001
 43
0.00000001
 40
0.0
 40
0.0
 40
0.0
 40
0.0
 40
0.2488814606695658
 40
0.5011921284368381
 40
0.7520447562540515
 40
1.0
 40
1.0
 40
1.0
 40
1.0
 10
181.4002595835763
 20
136.8108769486387
 30
0.0
 10
181.3704812540769
 20
136.8017449224944
 30
0.0
 10
181.3105142950958
 20
136.7833550448076
 30
0.0
 10
180.818592233349
 20
136.6393177963226
 30
0.0
 10
180.0905228107296
 20
136.4299147182113
 30
0.0
 10
179.379779339552
 20
136.2577104488624
 30
0.0
 10
179.0264718224023
 20
136.1721084485438
 30
0.0
  0
SPLINE
  5
A5
330
1F
100
AcDbEntity
  8
0
  6
Continuous
 62
     7
370
    15
100
AcDbSpline
210
0.0
220
0.0
230
1.0
 70
     8
 71
     3
 72
    24
 73
    20
 74
     0
 42
0.000000001
 43
0.00000001
 40
0.0
 40
0.0
 40
0.0
 40
0.0
 40
0.0452304145230468
 40
0.0903354254807773
 40
0.1353632524017138
 40
0.1803623629163211
 40
0.2253813173811786
 40
0.2704686120121845
 40
0.3156725230495646
 40
0.3610409544388638
 40
0.4066212913821985
 40
0.4524602619010737
 40
0.4986038082699224
 40
0.5832834063274132
 40
0.6671222514847349
 40
0.7504134308293638
 40
0.8334558303783486
 40
0.9165510206949746
 40
0.9999999999999999
 40
0.9999999999999999
 40
0.9999999999999999
 40
0.9999999999999999
 10
179.0263784470111
 20
74.4499286745097
 30
0.0
 10
179.0940821889138
 20
74.43416963349223
 30
0.0
 10
179.2293019607403
 20
74.40269524417927
 30
0.0
 10
179.4219636775782
 20
74.3562344408405
 30
0.0
 10
179.6067005492269
 20
74.31060346120844
 30
0.0
 10
179.7828184905181
 20
74.26597816377534
 30
0.0
 10
179.9505022831305
 20
74.22249087717594
 30
0.0
 10
180.1097017674197
 20
74.18028982937949
 30
0.0
 10
180.260429905912
 20
74.13952323706096
 30
0.0
 10
180.4026828593143
 20
74.10034348447623
 30
0.0
 10
180.5364616145404
 20
74.06290619258482
 30
0.0
 10
180.6617655249421
 20
74.02736960894546
 30
0.0
 10
180.8108140747229
 20
73.98466759347075
 30
0.0
 10
180.9715796520902
 20
73.93815890243927
 30
0.0
 10
181.1275057368902
 20
73.89249901224404
 30
0.0
 10
181.2491307548168
 20
73.85646874353402
 30
0.0
 10
181.335606484038
 20
73.83058721858488
 30
0.0
 10
181.3900253913852
 20
73.81415114205919
 30
0.0
 10
181.3971739329669
 20
73.81206978347105
 30
0.0
 10
181.4007557965643
 20
73.81102689346689
 30
0.0
  0
LINE
  5
A6
330
1F
100
AcDbEntity
  8
0
  6
Continuous
 62
     7
370
    15
100
AcDbLine
 10
184.4007597536
 20
74.811026694
 30
0.0
 11
184.4007597536
 21
135.811026688
 31
0.0
  0
LINE
  5
A7
330
1F
100
AcDbEntity
  8
0
  6
Continuous
 62
     7
370
    15
100
AcDbLine
 10
159.4007597536
 20
76.1846211486
 30
0.0
 11
159.4007597536
 21
134.4374322395
 31
0.0
  0
SPLINE
  5
A8
330
1F
100
AcDbEntity
  8
0
  6
Continuous
 62
     7
370
    15
100
AcDbSpline
210
0.0
220
0.0
230
1.0
 70
     8
 71
     3
 72
    12
 73
     8
 74
     0
 42
0.000000001
 43
0.00000001
 40
0.0
 40
0.0
 40
0.0
 40
0.0
 40
0.2500000000000001
 40
0.2500000000000001
 40
0.5000000000000002
 40
0.5000000000000002
 40
1.0
 40
1.0
 40
1.0
 40
1.0
 10
159.787792576559
 20
135.3780165938661
 30
0.0
 10
159.7359318253709
 20
135.3212040215517
 30
0.0
 10
159.6872000283519
 20
135.2592118352999
 30
0.0
 10
159.5970270184345
 20
135.123158762176
 30
0.0
 10
159.5552497701495
 20
135.0482526595772
 30
0.0
 10
159.4491609003036
 20
134.8101260242798
 30
0.0
 10
159.4007597535934
 20
134.626719292711
 30
0.0
 10
159.4007597535934
 20
134.4374322395292
 30
0.0
  0
SPLINE
  5
A9
330
1F
100
AcDbEntity
  8
0
  6
Continuous
 62
     7
370
    15
100
AcDbSpline
210
0.0
220
0.0
230
1.0
 70
     8
 71
     3
 72
     8
 73
     4
 74
     0
 42
0.000000001
 43
0.00000001
 40
0.0
 40
0.0
 40
0.0
 40
0.0
 40
1.0
 40
1.0
 40
1.0
 40
1.0
 10
160.4007597535934
 20
135.547416797047
 30
0.0
 10
160.1744154399936
 20
135.547416797047
 30
0.0
 10
159.9569633195884
 20
135.4840483280261
 30
0.0
 10
159.787792576559
 20
135.3780165938661
 30
0.0
  0
SPLINE
  5
AA
330
1F
100
AcDbEntity
  8
0
  6
Continuous
 62
     7
370
    15
100
AcDbSpline
210
0.0
220
0.0
230
1.0
 70
     8
 71
     3
 72
     8
 73
     4
 74
     0
 42
0.000000001
 43
0.00000001
 40
0.0
 40
0.0
 40
0.0
 40
0.0
 40
1.0
 40
1.0
 40
1.0
 40
1.0
 10
159.787792576559
 20
75.24403679422421
 30
0.0
 10
159.9573860822109
 20
75.13774008366703
 30
0.0
 10
160.1737547745442
 20
75.07463659104334
 30
0.0
 10
160.4007597535934
 20
75.07463659104334
 30
0.0
  0
SPLINE
  5
AB
330
1F
100
AcDbEntity
  8
0
  6
Continuous
 62
     7
370
    15
100
AcDbSpline
210
0.0
220
0.0
230
1.0
 70
     8
 71
     3
 72
    12
 73
     8
 74
     0
 42
0.000000001
 43
0.00000001
 40
0.0
 40
0.0
 40
0.0
 40
0.0
 40
0.2499999999999976
 40
0.2499999999999976
 40
0.4999999999999952
 40
0.4999999999999952
 40
1.0
 40
1.0
 40
1.0
 40
1.0
 10
159.787792576559
 20
75.24403679422421
 30
0.0
 10
159.7359318253709
 20
75.3008493665386
 30
0.0
 10
159.6872000283519
 20
75.36284155279041
 30
0.0
 10
159.5970270184345
 20
75.49889462591442
 30
0.0
 10
159.5552497701495
 20
75.57380072851315
 30
0.0
 10
159.4491609003036
 20
75.81192736381055
 30
0.0
 10
159.4007597535934
 20
75.99533409537932
 30
0.0
 10
159.4007597535934
 20
76.1846211485612
 30
0.0
  0
LINE
  5
AC
330
1F
100
AcDbEntity
  8
0
  6
Continuous
 62
     7
370
    15
100
AcDbLine
 10
168.9757597536
 20
135.547416797
 30
0.0
 11
160.4007597536
 21
135.547416797
 31
0.0
  0
LINE
  5
AD
330
1F
100
AcDbEntity
  8
0
  6
Continuous
 62
     7
370
    15
100
AcDbLine
 10
168.9757597536
 20
75.074636591
 30
0.0
 11
168.9757597536
 21
135.547416797
 31
0.0
  0
LINE
  5
AE
330
1F
100
AcDbEntity
  8
0
  6
Continuous
 62
     7
370
    15
100
AcDbLine
 10
160.4007597536
 20
75.074636591
 30
0.0
 11
168.9757597536
 21
75.074636591
 31
0.0
  0
SPLINE
  5
AF
330
1F
100
AcDbEntity
  8
0
  6
Continuous
 62
     7
370
    15
100
AcDbSpline
210
0.0
220
0.0
230
1.0
 70
     8
 71
     3
 72
     8
 73
     4
 74
     0
 42
0.000000001
 43
0.00000001
 40
0.0
 40
0.0
 40
0.0
 40
0.0
 40
0.0012389803509652
 40
0.0012389803509652
 40
0.0012389803509652
 40
0.0012389803509652
 10
169.5333212971272
 20
134.7650494168317
 30
0.0
 10
169.3482013239944
 20
135.0260993982106
 30
0.0
 10
169.1623228762354
 20
135.2868810113297
 30
0.0
 10
168.9757597535934
 20
135.547416797047
 30
0.0
  0
SPLINE
  5
B0
330
1F
100
AcDbEntity
  8
0
  6
Continuous
 62
     7
370
    15
100
AcDbSpline
210
0.0
220
0.0
230
1.0
 70
     8
 71
     3
 72
     8
 73
     4
 74
     0
 42
0.000000001
 43
0.00000001
 40
0.0
 40
0.0
 40
0.0
 40
0.0
 40
1.0
 40
1.0
 40
1.0
 40
1.0
 10
171.6315709918657
 20
130.9782723585102
 30
0.0
 10
170.9352776258242
 20
132.242210726625
 30
0.0
 10
170.2354824606331
 20
133.5042661721333
 30
0.0
 10
169.5333212971272
 20
134.7650494168317
 30
0.0
  0
SPLINE
  5
B1
330
1F
100
AcDbEntity
  8
0
  6
Continuous
 62
     7
370
    15
100
AcDbSpline
210
0.0
220
0.0
230
1.0
 70
     8
 71
     3
 72
     8
 73
     4
 74
     0
 42
0.000000001
 43
0.00000001
 40
0.0
 40
0.0
 40
0.0
 40
0.0
 40
1.0
 40
1.0
 40
1.0
 40
1.0
 10
171.6315709918657
 20
79.64378102958013
 30
0.0
 10
170.9352528512077
 20
78.37979768963334
 30
0.0
 10
170.2354556590973
 20
77.11773909178136
 30
0.0
 10
169.5333212971271
 20
75.85700397125866
 30
0.0
  0
SPLINE
  5
B2
330
1F
100
AcDbEntity
  8
0
  6
Continuous
 62
     7
370
    15
100
AcDbSpline
210
0.0
220
0.0
230
1.0
 70
     8
 71
     3
 72
     8
 73
     4
 74
     0
 42
0.000000001
 43
0.00000001
 40
0.0
 40
0.0
 40
0.0
 40
0.0
 40
0.0012389803509652
 40
0.0012389803509652
 40
0.0012389803509652
 40
0.0012389803509652
 10
168.9757597535934
 20
75.07463659104334
 30
0.0
 10
169.1623228762354
 20
75.33517237676068
 30
0.0
 10
169.3482013239943
 20
75.59595398987967
 30
0.0
 10
169.5333212971271
 20
75.85700397125866
 30
0.0
  0
SPLINE
  5
B3
330
1F
100
AcDbEntity
  8
0
  6
Continuous
 62
     7
370
    15
100
AcDbSpline
210
0.0
220
0.0
230
1.0
 70
     8
 71
     3
 72
    12
 73
     8
 74
     0
 42
0.000000001
 43
0.00000001
 40
0.0
 40
0.0
 40
0.0
 40
0.0
 40
0.2499999999999968
 40
0.2499999999999968
 40
0.4999999999999936
 40
0.4999999999999936
 40
1.0
 40
1.0
 40
1.0
 40
1.0
 10
176.3699485153211
 20
131.2910455220291
 30
0.0
 10
176.3340443649846
 20
131.2211010878809
 30
0.0
 10
176.2915128128551
 20
131.1578497248231
 30
0.0
 10
176.1947185360151
 20
131.0427910699071
 30
0.0
 10
176.1396288577508
 20
130.9904625361952
 30
0.0
 10
175.9614956241969
 20
130.8566776331101
 30
0.0
 10
175.8241185321943
 20
130.7961298659519
 30
0.0
 10
175.6771281922944
 20
130.776929917568
 30
0.0
  0
SPLINE
  5
B4
330
1F
100
AcDbEntity
  8
0
  6
Continuous
 62
     7
370
    15
100
AcDbSpline
210
0.0
220
0.0
230
1.0
 70
     8
 71
     3
 72
    12
 73
     8
 74
     0
 42
0.000000001
 43
0.00000001
 40
0.0
 40
0.0
 40
0.0
 40
0.0
 40
0.2500000000000022
 40
0.2500000000000022
 40
0.5000000000000044
 40
0.5000000000000044
 40
1.0
 40
1.0
 40
1.0
 40
1.0
 10
176.3699485153211
 20
79.3310078660613
 30
0.0
 10
176.3340443649846
 20
79.40095230020945
 30
0.0
 10
176.2915128128551
 20
79.4642036632673
 30
0.0
 10
176.1947185360151
 20
79.57926231818323
 30
0.0
 10
176.1396288577508
 20
79.63159085189521
 30
0.0
 10
175.9614956241969
 20
79.7653757549803
 30
0.0
 10
175.8241185321943
 20
79.82592352213844
 30
0.0
 10
175.6771281922944
 20
79.84512347052234
 30
0.0
  0
SPLINE
  5
B5
330
1F
100
AcDbEntity
  8
0
  6
Continuous
 62
     7
370
    15
100
AcDbSpline
210
0.0
220
0.0
230
1.0
 70
     8
 71
     3
 72
    10
 73
     6
 74
     0
 42
0.000000001
 43
0.00000001
 40
0.0
 40
0.0
 40
0.0
 40
0.0
 40
0.5
 40
0.5
 40
1.0
 40
1.0
 40
1.0
 40
1.0
 10
172.3243913148932
 20
130.5587493636247
 30
0.0
 10
172.1823740024463
 20
130.5587493636247
 30
0.0
 10
172.041926955584
 20
130.5992392158342
 30
0.0
 10
171.8003370363227
 20
130.7471750457734
 30
0.0
 10
171.6996595940694
 20
130.8546753217528
 30
0.0
 10
171.6315709918658
 20
130.9782723585099
 30
0.0
  0
SPLINE
  5
B6
330
1F
100
AcDbEntity
  8
0
  6
Continuous
 62
     7
370
    15
100
AcDbSpline
210
0.0
220
0.0
230
1.0
 70
     8
 71
     3
 72
    10
 73
     6
 74
     0
 42
0.000000001
 43
0.00000001
 40
0.0
 40
0.0
 40
0.0
 40
0.0
 40
0.5
 40
0.5
 40
1.0
 40
1.0
 40
1.0
 40
1.0
 10
172.3243913148932
 20
80.06330402446565
 30
0.0
 10
172.1835339503826
 20
80.06330402446565
 30
0.0
 10
172.0406998189084
 20
80.02220011864695
 30
0.0
 10
171.8004381281351
 20
79.874802225346
 30
0.0
 10
171.6997318590556
 20
79.76750924450634
 30
0.0
 10
171.6315709918657
 20
79.64378102958014
 30
0.0
  0
LINE
  5
B7
330
1F
100
AcDbEntity
  8
0
  6
Continuous
 62
     7
370
    15
100
AcDbLine
 10
172.3507597536
 20
80.0633040245
 30
0.0
 11
172.3243913149
 21
80.0633040245
 31
0.0
  0
LINE
  5
B8
330
1F
100
AcDbEntity
  8
0
  6
Continuous
 62
     7
370
    15
100
AcDbLine
 10
172.3507597536
 20
130.5587493636
 30
0.0
 11
172.3243913149
 21
130.5587493636
 31
0.0
  0
SPLINE
  5
B9
330
1F
100
AcDbEntity
  8
0
  6
Continuous
 62
     7
370
    15
100
AcDbSpline
210
0.0
220
0.0
230
1.0
 70
     8
 71
     3
 72
    10
 73
     6
 74
     0
 42
0.000000001
 43
0.00000001
 40
0.0
 40
0.0
 40
0.0
 40
0.0
 40
0.5
 40
0.5
 40
1.0
 40
1.0
 40
1.0
 40
1.0
 10
175.6771281922936
 20
130.776929917571
 30
0.0
 10
175.1552134678977
 20
130.7087571670628
 30
0.0
 10
174.6163622877883
 20
130.6541339021048
 30
0.0
 10
173.5049996457562
 20
130.5790380492135
 30
0.0
 10
172.9281588685601
 20
130.5587493636247
 30
0.0
 10
172.3507597535934
 20
130.5587493636247
 30
0.0
  0
SPLINE
  5
BA
330
1F
100
AcDbEntity
  8
0
  6
Continuous
 62
     7
370
    15
100
AcDbSpline
210
0.0
220
0.0
230
1.0
 70
     8
 71
     3
 72
    10
 73
     6
 74
     0
 42
0.000000001
 43
0.00000001
 40
0.0
 40
0.0
 40
0.0
 40
0.0
 40
0.5
 40
0.5
 40
1.0
 40
1.0
 40
1.0
 40
1.0
 10
175.6771281922936
 20
79.84512347051941
 30
0.0
 10
175.1552134678977
 20
79.91329622102761
 30
0.0
 10
174.6163622877883
 20
79.96791948598556
 30
0.0
 10
173.5049996457562
 20
80.0430153388769
 30
0.0
 10
172.9281588685601
 20
80.06330402446565
 30
0.0
 10
172.3507597535934
 20
80.06330402446565
 30
0.0
  0
SPLINE
  5
BB
330
1F
100
AcDbEntity
  8
0
  6
Continuous
 62
     7
370
    15
100
AcDbSpline
210
0.0
220
0.0
230
1.0
 70
     8
 71
     3
 72
    10
 73
     6
 74
     0
 42
0.000000001
 43
0.00000001
 40
0.0
 40
0.0
 40
0.0
 40
0.0
 40
0.2999517731092972
 40
0.9999943050113873
 40
1.0
 40
1.0
 40
1.0
 40
1.0
 10
159.2525612192002
 20
127.8110266940452
 30
0.0
 10
159.2295605039009
 20
127.8110266940557
 30
0.0
 10
159.1528795625881
 20
127.8110266940906
 30
0.0
 10
159.0601002456149
 20
127.8110266937759
 30
0.0
 10
159.0895090977751
 20
127.8110266940452
 30
0.0
 10
159.0895093370202
 20
127.8110266940452
 30
0.0
  0
SPLINE
  5
BC
330
1F
100
AcDbEntity
  8
0
  6
Continuous
 62
     7
370
    15
100
AcDbSpline
210
0.0
220
0.0
230
1.0
 70
    24
 71
     3
 72
     9
 73
     5
 74
     0
 42
0.000000001
 43
0.00000001
 40
0.0
 40
0.0
 40
0.0
 40
0.0
 40
0.6712481822973831
 40
1.0
 40
1.0
 40
1.0
 40
1.0
 10
159.0895094399592
 20
82.8110266940452
 30
0.0
 10
159.1087376108474
 20
82.8110266940452
 30
0.0
 10
159.1373830081764
 20
82.8110266940452
 30
0.0
 10
159.2215554599217
 20
82.8110266940452
 30
0.0
 10
159.2492273064334
 20
82.8110266940452
 30
0.0
  0
LINE
  5
BD
330
1F
100
AcDbEntity
  8
0
  6
Continuous
 62
     7
370
    15
100
AcDbLine
 10
157.4007597536
 20
83.086026694
 30
0.0
 11
157.4007597536
 21
127.536026694
 31
0.0
  0
LINE
  5
BE
330
1F
100
AcDbEntity
  8
0
  6
Continuous
 62
     7
370
    15
100
AcDbLine
 10
92.0007597536
 20
93.488271097
 30
0.0
 11
92.0007597536
 21
117.1337822881
 31
0.0
  0
LINE
  5
BF
330
1F
100
AcDbEntity
  8
0
  6
Continuous
 62
     7
370
    15
100
AcDbLine
 10
199.2007597536
 20
95.311026694
 30
0.0
 11
199.2007597536
 21
115.311026694
 31
0.0
  0
SPLINE
  5
C0
330
1F
100
AcDbEntity
  8
0
  6
Continuous
 62
     7
370
    15
100
AcDbSpline
210
0.0
220
0.0
230
1.0
 70
     8
 71
     3
 72
    38
 73
    34
 74
     0
 42
0.000000001
 43
0.00000001
 40
0.0
 40
0.0
 40
0.0
 40
0.0
 40
0.0625
 40
0.0625
 40
0.125
 40
0.125
 40
0.1875
 40
0.1875
 40
0.25
 40
0.25
 40
0.3125
 40
0.3125
 40
0.375
 40
0.375
 40
0.4375
 40
0.4375
 40
0.5
 40
0.5
 40
0.5625
 40
0.5625
 40
0.625
 40
0.625
 40
0.6875
 40
0.6875
 40
0.75
 40
0.75
 40
0.8125
 40
0.8125
 40
0.875
 40
0.875
 40
0.9375
 40
0.9375
 40
1.0
 40
1.0
 40
1.0
 40
1.0
 10
196.9507597535934
 20
105.3110266940452
 30
0.0
 10
196.9507597535934
 20
105.111473849278
 30
0.0
 10
196.9263909977426
 20
104.9121547054894
 30
0.0
 10
196.8294584171689
 20
104.520849206451
 30
0.0
 10
196.7586424408339
 20
104.33464613187
 30
0.0
 10
196.5761391379516
 20
103.9793485760741
 30
0.0
 10
196.4644418223609
 20
103.8114643215544
 30
0.0
 10
196.2121363079031
 20
103.5053840867639
 30
0.0
 10
196.0690278053223
 20
103.3640847659911
 30
0.0
 10
195.7607450325524
 20
103.1126928397302
 30
0.0
 10
195.5961437342511
 20
103.0024987423732
 30
0.0
 10
195.2470461894814
 20
102.8109755513146
 30
0.0
 10
195.0622441685783
 20
102.7299781939169
 30
0.0
 10
194.685948326023
 20
102.6015913227301
 30
0.0
 10
194.4928771529336
 20
102.5532467759945
 30
0.0
 10
194.096772936902
 20
102.488229748586
 30
0.0
 10
193.8955143614703
 20
102.4721458920267
 30
0.0
 10
193.497168645724
 20
102.4726242804683
 30
0.0
 10
193.298524661012
 20
102.4889018645872
 30
0.0
 10
192.9023261690348
 20
102.5546439030639
 30
0.0
 10
192.7073084419858
 20
102.6039444529775
 30
0.0
 10
192.3323235780715
 20
102.7328353273671
 30
0.0
 10
192.1509196337641
 20
102.8126222230251
 30
0.0
 10
191.800977466459
 20
103.0052216816202
 30
0.0
 10
191.6352341948873
 20
103.1168136782185
 30
0.0
 10
191.3303096670234
 20
103.366271333709
 30
0.0
 10
191.1898085797101
 20
103.5047804197998
 30
0.0
 10
190.9356198341395
 20
103.8133208691967
 30
0.0
 10
190.8250036729281
 20
103.9801096104899
 30
0.0
 10
190.6434093706112
 20
104.3335821834999
 30
0.0
 10
190.5711343766486
 20
104.5241198184672
 30
0.0
 10
190.4753689037231
 20
104.9116580629426
 30
0.0
 10
190.4507597535934
 20
105.1092921665327
 30
0.0
 10
190.4507597535934
 20
105.3110266940452
 30
0.0
  0
SPLINE
  5
C1
330
1F
100
AcDbEntity
  8
0
  6
Continuous
 62
     7
370
    15
100
AcDbSpline
210
0.0
220
0.0
230
1.0
 70
     8
 71
     3
 72
    32
 73
    28
 74
     0
 42
0.000000001
 43
0.00000001
 40
0.0
 40
0.0
 40
0.0
 40
0.0
 40
0.0624999999999996
 40
0.0624999999999996
 40
0.1249999999999992
 40
0.1249999999999992
 40
0.1874999999999988
 40
0.1874999999999988
 40
0.2499999999999984
 40
0.2499999999999984
 40
0.3749999999999976
 40
0.3749999999999976
 40
0.4999999999999968
 40
0.4999999999999968
 40
0.624999999999996
 40
0.624999999999996
 40
0.6874999999999966
 40
0.6874999999999966
 40
0.7499999999999971
 40
0.7499999999999971
 40
0.8124999999999979
 40
0.8124999999999979
 40
0.8749999999999986
 40
0.8749999999999986
 40
0.9374999999999993
 40
0.9374999999999993
 40
1.0
 40
1.0
 40
1.0
 40
1.0
 10
190.4507597535934
 20
105.3110266940452
 30
0.0
 10
190.4507597535934
 20
105.5129907061078
 30
0.0
 10
190.4758620277417
 20
105.7135759782467
 30
0.0
 10
190.5723754648001
 20
106.1017492757288
 30
0.0
 10
190.6450021983792
 20
106.2923692256003
 30
0.0
 10
190.8279458617603
 20
106.6468530897906
 30
0.0
 10
190.9394795944526
 20
106.8141536634358
 30
0.0
 10
191.1947563462242
 20
107.1225167290016
 30
0.0
 10
191.3367693787663
 20
107.2620304004341
 30
0.0
 10
191.8029537961872
 20
107.6404328908736
 30
0.0
 10
192.1521436739007
 20
107.8288649509411
 30
0.0
 10
192.9128299150757
 20
108.0871189900542
 30
0.0
 10
193.3076048182934
 20
108.1507117609694
 30
0.0
 10
194.1131581144836
 20
108.1486049849968
 30
0.0
 10
194.5070175225297
 20
108.0829962414116
 30
0.0
 10
195.0755322157393
 20
107.8867631468274
 30
0.0
 10
195.2566346535593
 20
107.8064015727451
 30
0.0
 10
195.6022405865326
 20
107.6155984683318
 30
0.0
 10
195.7677022323942
 20
107.5044120252143
 30
0.0
 10
196.0761258089464
 20
107.2514219526439
 30
0.0
 10
196.2159588361379
 20
107.1124721798087
 30
0.0
 10
196.4659259699564
 20
106.8083390482243
 30
0.0
 10
196.5771812772461
 20
106.6410189163719
 30
0.0
 10
196.7595260804497
 20
106.2853404060276
 30
0.0
 10
196.8295814044832
 20
106.1001508210544
 30
0.0
 10
196.9254566447928
 20
105.7142227321893
 30
0.0
 10
196.9507597535934
 20
105.5108065415738
 30
0.0
 10
196.9507597535934
 20
105.3110266940452
 30
0.0
  0
LINE
  5
C2
330
1F
100
AcDbEntity
  8
0
  6
Continuous
 62
     7
370
    15
100
AcDbLine
 10
199.4007597536
 20
95.511026694
 30
0.0
 11
199.4007597536
 21
115.111026694
 31
0.0
  0
CIRCLE
  5
C3
330
1F
100
AcDbEntity
  8
0
  6
HIDDEN
 62
     7
370
     0
100
AcDbCircle
 10
193.7007597536
 20
105.311026694
 30
0.0
 40
2.10566934772487
  0
CIRCLE
  5
C4
330
1F
100
AcDbEntity
  8
0
  6
HIDDEN
 62
     7
370
     0
100
AcDbCircle
 10
193.7007597536
 20
105.311026694
 30
0.0
 40
1.69553422183543
  0
LWPOLYLINE
  5
C5
330
1F
100
AcDbEntity
  8
0
  6
HIDDEN
 62
     7
370
     0
100
AcDbPolyline
 90
        3
 70
   128
 43
0.0
 10
193.7007597536
 20
103.9154924722
 10
193.2476305325
 20
103.9911063656
 10
192.8806129739
 20
104.1819230566
  0
LINE
  5
C6
330
1F
100
AcDbEntity
  8
0
  6
HIDDEN
 62
     7
370
     0
100
AcDbLine
 10
192.3124064688
 20
105.1696374404
 30
0.0
 11
192.3098703627
 21
105.4247916565
 31
0.0
  0
LWPOLYLINE
  5
C7
330
1F
100
AcDbEntity
  8
0
  6
HIDDEN
 62
     7
370
     0
100
AcDbPolyline
 90
        3
 70
   128
 43
0.0
 10
192.8892599044
 20
106.4463608999
 10
193.0365588788
 20
106.5383624111
 10
193.1171486907
 20
106.5786677677
  0
LWPOLYLINE
  5
C8
330
1F
100
AcDbEntity
  8
0
  6
HIDDEN
 62
     7
370
     0
100
AcDbPolyline
 90
        3
 70
   128
 43
0.0
 10
194.3179429413
 20
106.5626658901
 10
194.3649606284
 20
106.5383624111
 10
194.5210951974
 20
106.4399932675
  0
LWPOLYLINE
  5
C9
330
1F
100
AcDbEntity
  8
0
  6
HIDDEN
 62
     7
370
     0
100
AcDbPolyline
 90
        3
 70
   128
 43
0.0
 10
195.0884895619
 20
105.4584096766
 10
195.0915275185
 20
105.4262689967
 10
195.0927292638
 20
105.2113439622
  0
LWPOLYLINE
  5
CA
330
1F
100
AcDbEntity
  8
0
  6
HIDDEN
 62
     7
370
     0
100
AcDbPolyline
 90
        3
 70
   128
 43
0.0
 10
194.4981348489
 20
104.1657281646
 10
194.1538889747
 20
103.9911063656
 10
193.7007597536
 20
103.9154924722
  0
SPLINE
  5
CB
330
1F
100
AcDbEntity
  8
0
  6
HIDDEN
 62
     7
370
     0
100
AcDbSpline
210
0.0
220
0.0
230
1.0
 70
     8
 71
     3
 72
    17
 73
    13
 74
     0
 42
0.000000001
 43
0.00000001
 40
0.0
 40
0.0
 40
0.0
 40
0.0
 40
0.0004909084072919
 40
0.0005116394852635
 40
0.2498351754845136
 40
0.5021944977214489
 40
0.5865777378672907
 40
0.6700037584518806
 40
0.7527614182929998
 40
0.8351466077306873
 40
0.9174592349446918
 40
1.0
 40
1.0
 40
1.0
 40
1.0
 10
181.4007557965643
 20
73.81102689346689
 30
0.0
 10
181.4007574679309
 20
73.81102679692319
 30
0.0
 10
181.4007592098794
 20
73.81102669630242
 30
0.0
 10
181.4013782319904
 20
73.81102558506264
 30
0.0
 10
181.2972339361063
 20
73.84324220374793
 30
0.0
 10
180.9287491327597
 20
73.95160337167748
 30
0.0
 10
180.562136578209
 20
74.05643404849097
 30
0.0
 10
180.3126050445714
 20
74.1261267534701
 30
0.0
 10
180.0348192515343
 20
74.2012684623285
 30
0.0
 10
179.7281594766332
 20
74.28093345592912
 30
0.0
 10
179.3949726435253
 20
74.36408263736408
 30
0.0
 10
179.1499752014378
 20
74.42139511959384
 30
0.0
 10
179.027306956471
 20
74.45009101759959
 30
0.0
  0
CIRCLE
  5
CC
330
1F
100
AcDbEntity
  8
0
  6
HIDDEN
 62
     7
370
     0
100
AcDbCircle
 10
193.7007597536
 20
105.311026694
 30
0.0
 40
2.099999999999994
  0
LINE
  5
CD
330
1F
100
AcDbEntity
  8
0
  6
HIDDEN
 62
     7
370
     0
100
AcDbLine
 10
159.4007597536
 20
127.811026694
 30
0.0
 11
159.7380180538
 21
127.811026694
 31
0.0
  0
ELLIPSE
  5
CE
330
1F
100
AcDbEntity
  8
0
  6
HIDDEN
 62
     7
370
     0
100
AcDbEllipse
 10
159.7380180538
 20
129.411026694
 30
0.0
 11
0.0
 21
1.599999999999994
 31
0.0
210
0.0
220
0.0
230
1.0
 40
0.4142135624
 41
3.141592653589793
 42
4.712388980384695
  0
ELLIPSE
  5
CF
330
1F
100
AcDbEntity
  8
0
  6
HIDDEN
 62
     7
370
     0
100
AcDbEllipse
 10
159.7380180538
 20
81.211026694
 30
0.0
 11
0.0
 21
1.600000000000009
 31
0.0
210
0.0
220
0.0
230
1.0
 40
0.4142135624
 41
4.712388980384695
 42
6.283185307179586
  0
LINE
  5
D0
330
1F
100
AcDbEntity
  8
0
  6
HIDDEN
 62
     7
370
     0
100
AcDbLine
 10
159.7380180538
 20
82.811026694
 30
0.0
 11
159.4007597536
 21
82.811026694
 31
0.0
  0
LINE
  5
D1
330
1F
100
AcDbEntity
  8
0
  6
HIDDEN
 62
     7
370
     0
100
AcDbLine
 10
160.4007597536
 20
75.8570039713
 30
0.0
 11
159.7877925766
 21
75.2440367942
 31
0.0
  0
LINE
  5
D2
330
1F
100
AcDbEntity
  8
0
  6
HIDDEN
 62
     7
370
     0
100
AcDbLine
 10
159.7877925766
 20
135.3780165939
 30
0.0
 11
160.4007597536
 21
134.7650494168
 31
0.0
  0
LINE
  5
D3
330
1F
100
AcDbEntity
  8
0
  6
HIDDEN
 62
     7
370
     0
100
AcDbLine
 10
99.0007597536
 20
96.811026694
 30
0.0
 11
99.0007597536
 21
113.811026694
 31
0.0
  0
LINE
  5
D4
330
1F
100
AcDbEntity
  8
0
  6
HIDDEN
 62
     7
370
     0
100
AcDbLine
 10
101.9966889679
 20
98.311026694
 30
0.0
 11
101.9966889679
 21
112.311026694
 31
0.0
  0
LINE
  5
D5
330
1F
100
AcDbEntity
  8
0
  6
HIDDEN
 62
     7
370
     0
100
AcDbLine
 10
160.4007597536
 20
134.7650494168
 30
0.0
 11
169.5333212971
 21
134.7650494168
 31
0.0
  0
LINE
  5
D6
330
1F
100
AcDbEntity
  8
0
  6
HIDDEN
 62
     7
370
     0
100
AcDbLine
 10
160.4007597536
 20
134.7650494168
 30
0.0
 11
160.4007597536
 21
129.411026694
 31
0.0
  0
LINE
  5
D7
330
1F
100
AcDbEntity
  8
0
  6
HIDDEN
 62
     7
370
     0
100
AcDbLine
 10
169.5333212971
 20
75.8570039713
 30
0.0
 11
160.4007597536
 21
75.8570039713
 31
0.0
  0
LINE
  5
D8
330
1F
100
AcDbEntity
  8
0
  6
HIDDEN
 62
     7
370
     0
100
AcDbLine
 10
160.4007597536
 20
75.8570039713
 30
0.0
 11
160.4007597536
 21
81.211026694
 31
0.0
  0
LINE
  5
D9
330
1F
100
AcDbEntity
  8
0
  6
HIDDEN
 62
     7
370
     0
100
AcDbLine
 10
172.3507597536
 20
82.811026694
 30
0.0
 11
159.7380180538
 21
82.811026694
 31
0.0
  0
LINE
  5
DA
330
1F
100
AcDbEntity
  8
0
  6
HIDDEN
 62
     7
370
     0
100
AcDbLine
 10
159.7380180538
 20
127.811026694
 30
0.0
 11
172.3507597536
 21
127.811026694
 31
0.0
  0
LINE
  5
DB
330
1F
100
AcDbEntity
  8
0
  6
HIDDEN
 62
     7
370
     0
100
AcDbLine
 10
178.8007597536
 20
82.811026694
 30
0.0
 11
172.3507597536
 21
82.811026694
 31
0.0
  0
SPLINE
  5
DC
330
1F
100
AcDbEntity
  8
0
  6
HIDDEN
 62
     7
370
     0
100
AcDbSpline
210
0.0
220
0.0
230
1.0
 70
     8
 71
     3
 72
    13
 73
     9
 74
     0
 42
0.000000001
 43
0.00000001
 40
0.0
 40
0.0
 40
0.0
 40
0.0
 40
0.1850454653144679
 40
0.3520092965859432
 40
0.5010298177386109
 40
0.6766227814582007
 40
0.8430962614808595
 40
1.0
 40
1.0
 40
1.0
 40
1.0
 10
178.3770233842059
 20
135.2158874697562
 30
0.0
 10
178.6038134998259
 20
135.2747241412961
 30
0.0
 10
179.035233037378
 20
135.3866482855978
 30
0.0
 10
179.5226885083296
 20
135.5269143572261
 30
0.0
 10
179.9117976848738
 20
135.6462091164813
 30
0.0
 10
180.192697605299
 20
135.7368769261058
 30
0.0
 10
180.3695823803641
 20
135.798792686455
 30
0.0
 10
180.3904447601873
 20
135.8069819426127
 30
0.0
 10
180.4005672586225
 20
135.810955397863
 30
0.0
  0
LINE
  5
DD
330
1F
100
AcDbEntity
  8
0
  6
HIDDEN
 62
     7
370
     0
100
AcDbLine
 10
179.1272539274
 20
135.4156005491
 30
0.0
 11
178.3770013662
 21
135.2160748959
 31
0.0
  0
LINE
  5
DE
330
1F
100
AcDbEntity
  8
0
  6
HIDDEN
 62
     7
370
     0
100
AcDbLine
 10
172.3507597536
 20
127.811026694
 30
0.0
 11
178.8007597536
 21
127.811026694
 31
0.0
  0
LINE
  5
DF
330
1F
100
AcDbEntity
  8
0
  6
HIDDEN
 62
     7
370
     0
100
AcDbLine
 10
178.3770015198
 20
75.4059788007
 30
0.0
 11
178.4709442494
 21
75.3809951292
 31
0.0
  0
SPLINE
  5
E0
330
1F
100
AcDbEntity
  8
0
  6
HIDDEN
 62
     7
370
     0
100
AcDbSpline
210
0.0
220
0.0
230
1.0
 70
     8
 71
     3
 72
    13
 73
     9
 74
     0
 42
0.000000001
 43
0.00000001
 40
0.0
 40
0.0
 40
0.0
 40
0.0
 40
0.0000730266253407
 40
0.1576811714019511
 40
0.3241446478108668
 40
0.4996852929261713
 40
0.7294244053126598
 40
1.0
 40
1.0
 40
1.0
 40
1.0
 10
180.4007384465412
 20
74.81103499509703
 30
0.0
 10
180.400745548249
 20
74.81103208496212
 30
0.0
 10
180.416079758149
 20
74.80474843868409
 30
0.0
 10
180.3566186860587
 20
74.8284601317254
 30
0.0
 10
180.1958682839592
 20
74.88393506228579
 30
0.0
 10
179.8611836477084
 20
74.99188213026613
 30
0.0
 10
179.3033093891744
 20
75.16315434795514
 30
0.0
 10
178.7021429836357
 20
75.32088477593815
 30
0.0
 10
178.3770257016833
 20
75.40618709415583
 30
0.0
  0
LINE
  5
E1
330
1F
100
AcDbEntity
  8
0
  6
HIDDEN
 62
     7
370
     0
100
AcDbLine
 10
199.0507597536
 20
101.2042379241
 30
0.0
 11
199.0507597536
 21
109.417815464
 31
0.0
  0
LINE
  5
E2
330
1F
100
AcDbEntity
  8
0
  6
HIDDEN
 62
     7
370
     0
100
AcDbLine
 10
135.0007597536
 20
98.311026694
 30
0.0
 11
135.0007597536
 21
112.311026694
 31
0.0
  0
LINE
  5
E3
330
1F
100
AcDbEntity
  8
0
  6
HIDDEN
 62
     7
370
     0
100
AcDbLine
 10
136.6531264559
 20
101.061026694
 30
0.0
 11
136.6531264559
 21
109.561026694
 31
0.0
  0
LINE
  5
E4
330
1F
100
AcDbEntity
  8
0
  6
HIDDEN
 62
     7
370
     0
100
AcDbLine
 10
197.7517216479
 20
103.6156285107
 30
0.0
 11
197.7517216479
 21
107.0064248774
 31
0.0
  0
LINE
  5
E5
330
1F
100
AcDbEntity
  8
0
  6
HIDDEN
 62
     7
370
     0
100
AcDbLine
 10
197.0507597536
 20
103.6156285107
 30
0.0
 11
197.0507597536
 21
107.0064248774
 31
0.0
  0
SPLINE
  5
E6
330
1F
100
AcDbEntity
  8
0
  6
HIDDEN
 62
     7
370
     0
100
AcDbSpline
210
0.0
220
0.0
230
1.0
 70
     8
 71
     3
 72
     9
 73
     5
 74
     0
 42
0.000000001
 43
0.00000001
 40
0.0
 40
0.0
 40
0.0
 40
0.0
 40
0.4932365035776448
 40
1.0
 40
1.0
 40
1.0
 40
1.0
 10
178.3778192922909
 20
135.2158582052175
 30
0.0
 10
178.4836672477996
 20
135.3728795935004
 30
0.0
 10
178.6982660350769
 20
135.6912286758249
 30
0.0
 10
178.9161259169611
 20
136.0110547835025
 30
0.0
 10
179.0265293524349
 20
136.1731309800763
 30
0.0
  0
SPLINE
  5
E7
330
1F
100
AcDbEntity
  8
0
  6
HIDDEN
 62
     7
370
     0
100
AcDbSpline
210
0.0
220
0.0
230
1.0
 70
     8
 71
     3
 72
     9
 73
     5
 74
     0
 42
0.000000001
 43
0.00000001
 40
0.0
 40
0.0
 40
0.0
 40
0.0
 40
0.5067661695379747
 40
1.0
 40
1.0
 40
1.0
 40
1.0
 10
179.0265330377209
 20
74.44893654356804
 30
0.0
 10
178.9161282072468
 20
74.61101395814818
 30
0.0
 10
178.6982667217916
 20
74.93084078227871
 30
0.0
 10
178.4836670039059
 20
75.24918929854319
 30
0.0
 10
178.3778191630371
 20
75.40620955664221
 30
0.0
  0
SPLINE
  5
E8
330
1F
100
AcDbEntity
  8
0
  6
HIDDEN
 62
     7
370
     0
100
AcDbSpline
210
0.0
220
0.0
230
1.0
 70
     8
 71
     3
 72
    10
 73
     6
 74
     0
 42
0.000000001
 43
0.00000001
 40
0.0
 40
0.0
 40
0.0
 40
0.0
 40
0.2737453879027827
 40
0.6364271071772575
 40
0.9999999999999999
 40
0.9999999999999999
 40
0.9999999999999999
 40
0.9999999999999999
 10
199.3709116956848
 20
112.4105479031848
 30
0.0
 10
199.3645447859341
 20
112.4104323661073
 30
0.0
 10
199.3497424399099
 20
112.4101637554521
 30
0.0
 10
199.324763944427
 20
112.4038457826059
 30
0.0
 10
199.3054895522309
 20
112.3952380611022
 30
0.0
 10
199.2958405305085
 20
112.3909289191627
 30
0.0
  0
LINE
  5
E9
330
1F
100
AcDbEntity
  8
0
  6
HIDDEN
 62
     7
370
     0
100
AcDbLine
 10
197.0507597536
 20
112.3909289192
 30
0.0
 11
199.2958405305
 21
112.3909289192
 31
0.0
  0
LINE
  5
EA
330
1F
100
AcDbEntity
  8
0
  6
HIDDEN
 62
     7
370
     0
100
AcDbLine
 10
197.0507597536
 20
112.411026694
 30
0.0
 11
197.0507597536
 21
110.211026694
 31
0.0
  0
LINE
  5
EB
330
1F
100
AcDbEntity
  8
0
  6
HIDDEN
 62
     7
370
     0
100
AcDbLine
 10
197.0507597536
 20
110.211026694
 30
0.0
 11
197.0507597536
 21
107.0064248774
 31
0.0
  0
LINE
  5
EC
330
1F
100
AcDbEntity
  8
0
  6
HIDDEN
 62
     7
370
     0
100
AcDbLine
 10
197.0507597536
 20
107.0064248774
 30
0.0
 11
197.7517216479
 21
107.0064248774
 31
0.0
  0
SPLINE
  5
ED
330
1F
100
AcDbEntity
  8
0
  6
HIDDEN
 62
     7
370
     0
100
AcDbSpline
210
0.0
220
0.0
230
1.0
 70
     8
 71
     3
 72
    10
 73
     6
 74
     0
 42
0.000000001
 43
0.00000001
 40
0.0
 40
0.0
 40
0.0
 40
0.0
 40
0.5
 40
0.5
 40
1.0
 40
1.0
 40
1.0
 40
1.0
 10
197.7517216479168
 20
107.0064248773638
 30
0.0
 10
197.9123761649292
 20
107.3620348704119
 30
0.0
 10
198.1099784904083
 20
107.6971370644206
 30
0.0
 10
198.5520926860505
 20
108.3413044138331
 30
0.0
 10
198.7963685296991
 20
108.649170293813
 30
0.0
 10
199.0507597535934
 20
108.9424004010602
 30
0.0
  0
SPLINE
  5
EE
330
1F
100
AcDbEntity
  8
0
  6
HIDDEN
 62
     7
370
     0
100
AcDbSpline
210
0.0
220
0.0
230
1.0
 70
     8
 71
     3
 72
     8
 73
     4
 74
     0
 42
0.000000001
 43
0.00000001
 40
0.0
 40
0.0
 40
0.0
 40
0.0
 40
1.0
 40
1.0
 40
1.0
 40
1.0
 10
199.0507597535934
 20
109.4178154639652
 30
0.0
 10
199.1186164733751
 20
109.6835486374821
 30
0.0
 10
199.1907077320249
 20
109.9478631114277
 30
0.0
 10
199.2662341746705
 20
110.2110266940452
 30
0.0
  0
LINE
  5
EF
330
1F
100
AcDbEntity
  8
0
  6
HIDDEN
 62
     7
370
     0
100
AcDbLine
 10
197.0507597536
 20
103.6156285107
 30
0.0
 11
197.0507597536
 21
100.411026694
 31
0.0
  0
LINE
  5
F0
330
1F
100
AcDbEntity
  8
0
  6
HIDDEN
 62
     7
370
     0
100
AcDbLine
 10
197.7517216479
 20
103.6156285107
 30
0.0
 11
197.0507597536
 21
103.6156285107
 31
0.0
  0
SPLINE
  5
F1
330
1F
100
AcDbEntity
  8
0
  6
HIDDEN
 62
     7
370
     0
100
AcDbSpline
210
0.0
220
0.0
230
1.0
 70
     8
 71
     3
 72
    10
 73
     6
 74
     0
 42
0.000000001
 43
0.00000001
 40
0.0
 40
0.0
 40
0.0
 40
0.0
 40
0.5
 40
0.5
 40
1.0
 40
1.0
 40
1.0
 40
1.0
 10
199.0507597535932
 20
101.6796529870299
 30
0.0
 10
198.7944588884625
 20
101.9750842877616
 30
0.0
 10
198.5500324823274
 20
102.2835628237423
 30
0.0
 10
198.1094521668424
 20
102.9258721911705
 30
0.0
 10
197.9122674902825
 20
103.2602590698336
 30
0.0
 10
197.7517216479167
 20
103.6156285107265
 30
0.0
  0
SPLINE
  5
F2
330
1F
100
AcDbEntity
  8
0
  6
HIDDEN
 62
     7
370
     0
100
AcDbSpline
210
0.0
220
0.0
230
1.0
 70
     8
 71
     3
 72
     8
 73
     4
 74
     0
 42
0.000000001
 43
0.00000001
 40
0.0
 40
0.0
 40
0.0
 40
0.0
 40
1.0
 40
1.0
 40
1.0
 40
1.0
 10
199.2662341746704
 20
100.4110266940452
 30
0.0
 10
199.1906991655875
 20
100.6742201254718
 30
0.0
 10
199.1186082247877
 20
100.938537052837
 30
0.0
 10
199.0507597535934
 20
101.2042379241252
 30
0.0
  0
LINE
  5
F3
330
1F
100
AcDbEntity
  8
0
  6
HIDDEN
 62
     7
370
     0
100
AcDbLine
 10
199.2958405305
 20
98.2311244689
 30
0.0
 11
199.3683142056
 21
98.220034413
 31
0.0
  0
LINE
  5
F4
330
1F
100
AcDbEntity
  8
0
  6
HIDDEN
 62
     7
370
     0
100
AcDbLine
 10
197.0507597536
 20
98.2311244689
 30
0.0
 11
199.2958405305
 21
98.2311244689
 31
0.0
  0
LINE
  5
F5
330
1F
100
AcDbEntity
  8
0
  6
HIDDEN
 62
     7
370
     0
100
AcDbLine
 10
197.0507597536
 20
100.411026694
 30
0.0
 11
197.0507597536
 21
98.211026694
 31
0.0
  0
LINE
  5
F6
330
1F
100
AcDbEntity
  8
0
  6
HIDDEN
 62
     7
370
     0
100
AcDbLine
 10
196.5507597536
 20
99.811026694
 30
0.0
 11
196.5507597536
 21
110.811026694
 31
0.0
  0
LINE
  5
F7
330
1F
100
AcDbEntity
  8
0
  6
HIDDEN
 62
     7
370
     0
100
AcDbLine
 10
187.4007597536
 20
100.211026694
 30
0.0
 11
187.4007597536
 21
110.4110266922
 31
0.0
  0
LINE
  5
F8
330
1F
100
AcDbEntity
  8
0
  6
HIDDEN
 62
     7
370
     0
100
AcDbLine
 10
189.4007597536
 20
99.811026694
 30
0.0
 11
189.4007597536
 21
110.811026694
 31
0.0
  0
LINE
  5
F9
330
1F
100
AcDbEntity
  8
0
  6
HIDDEN
 62
     7
370
     0
100
AcDbLine
 10
199.2958405305
 20
97.286026694
 30
0.0
 11
199.2958405305
 21
98.2311244689
 31
0.0
  0
LINE
  5
FA
330
1F
100
AcDbEntity
  8
0
  6
HIDDEN
 62
     7
370
     0
100
AcDbLine
 10
199.2958405305
 20
112.3909289192
 30
0.0
 11
199.2958405305
 21
113.336026694
 31
0.0
  0
LINE
  5
FB
330
1F
100
AcDbEntity
  8
0
  6
HIDDEN
 62
     7
370
     0
100
AcDbLine
 10
197.0507597536
 20
113.336026694
 30
0.0
 11
197.0507597536
 21
112.3909289192
 31
0.0
  0
LINE
  5
FC
330
1F
100
AcDbEntity
  8
0
  6
HIDDEN
 62
     7
370
     0
100
AcDbLine
 10
197.0507597536
 20
98.2311244689
 30
0.0
 11
197.0507597536
 21
97.286026694
 31
0.0
  0
ARC
  5
FD
330
1F
100
AcDbEntity
  8
0
  6
HIDDEN
 62
     7
370
     0
100
AcDbCircle
 10
92.8007597536
 20
96.011026694
 30
0.0
 40
0.7999999999999972
100
AcDbArc
 50
90.0
 51
180.0
  0
ARC
  5
FE
330
1F
100
AcDbEntity
  8
0
  6
HIDDEN
 62
     7
370
     0
100
AcDbCircle
 10
92.8007597536
 20
114.611026694
 30
0.0
 40
0.7999999999999972
100
AcDbArc
 50
180.0
 51
270.0
  0
LINE
  5
FF
330
1F
100
AcDbEntity
  8
0
  6
HIDDEN
 62
     7
370
     0
100
AcDbLine
 10
99.8931321843
 20
96.586026694
 30
0.0
 11
100.7698196459
 21
96.586026694
 31
0.0
  0
LINE
  5
100
330
1F
100
AcDbEntity
  8
0
  6
HIDDEN
 62
     7
370
     0
100
AcDbLine
 10
100.7698196459
 20
114.036026694
 30
0.0
 11
99.8931321843
 21
114.036026694
 31
0.0
  0
ARC
  5
101
330
1F
100
AcDbEntity
  8
0
  6
HIDDEN
 62
     7
370
     0
100
AcDbCircle
 10
100.7698196459
 20
96.986026694
 30
0.0
 40
0.4000000000000121
100
AcDbArc
 50
270.0
 51
330.0
  0
ARC
  5
102
330
1F
100
AcDbEntity
  8
0
  6
HIDDEN
 62
     7
370
     0
100
AcDbCircle
 10
100.7698196459
 20
113.636026694
 30
0.0
 40
0.4000000000000121
100
AcDbArc
 50
30.0
 51
90.0
  0
ARC
  5
103
330
1F
100
AcDbEntity
  8
0
  6
HIDDEN
 62
     7
370
     0
100
AcDbCircle
 10
99.8931321843
 20
96.986026694
 30
0.0
 40
0.3999999999999915
100
AcDbArc
 50
255.0
 51
270.0
  0
ARC
  5
104
330
1F
100
AcDbEntity
  8
0
  6
HIDDEN
 62
     7
370
     0
100
AcDbCircle
 10
99.8931321843
 20
113.636026694
 30
0.0
 40
0.3999999999999915
100
AcDbArc
 50
90.0
 51
105.0
  0
LINE
  5
105
330
1F
100
AcDbEntity
  8
0
  6
HIDDEN
 62
     7
370
     0
100
AcDbLine
 10
99.7896045663
 20
114.0223970246
 30
0.0
 11
99.0007597536
 21
113.811026694
 31
0.0
  0
LINE
  5
106
330
1F
100
AcDbEntity
  8
0
  6
HIDDEN
 62
     7
370
     0
100
AcDbLine
 10
99.0007597536
 20
96.811026694
 30
0.0
 11
99.7896045663
 21
96.5996563635
 31
0.0
  0
LINE
  5
107
330
1F
100
AcDbEntity
  8
0
  6
HIDDEN
 62
     7
370
     0
100
AcDbLine
 10
101.1162298074
 20
96.786026694
 30
0.0
 11
101.9966889679
 21
98.311026694
 31
0.0
  0
LINE
  5
108
330
1F
100
AcDbEntity
  8
0
  6
HIDDEN
 62
     7
370
     0
100
AcDbLine
 10
101.9966889679
 20
112.311026694
 30
0.0
 11
101.1162298074
 21
113.836026694
 31
0.0
  0
LINE
  5
109
330
1F
100
AcDbEntity
  8
0
  6
HIDDEN
 62
     7
370
     0
100
AcDbLine
 10
92.8007597536
 20
96.811026694
 30
0.0
 11
99.0007597536
 21
96.811026694
 31
0.0
  0
LINE
  5
10A
330
1F
100
AcDbEntity
  8
0
  6
HIDDEN
 62
     7
370
     0
100
AcDbLine
 10
99.0007597536
 20
113.811026694
 30
0.0
 11
92.8007597536
 21
113.811026694
 31
0.0
  0
ARC
  5
10B
330
1F
100
AcDbEntity
  8
0
  6
HIDDEN
 62
     7
370
     0
100
AcDbCircle
 10
178.8007597536
 20
81.211026694
 30
0.0
 40
1.600000000000023
100
AcDbArc
 50
0.0
 51
90.0
  0
LINE
  5
10C
330
1F
100
AcDbEntity
  8
0
  6
HIDDEN
 62
     7
370
     0
100
AcDbLine
 10
180.4007597536
 20
129.411026694
 30
0.0
 11
180.4007597536
 21
135.8109553979
 31
0.0
  0
ARC
  5
10D
330
1F
100
AcDbEntity
  8
0
  6
HIDDEN
 62
     7
370
     0
100
AcDbCircle
 10
178.8007597536
 20
129.411026694
 30
0.0
 40
1.600000000000023
100
AcDbArc
 50
270.0
 51
0.0
  0
LINE
  5
10E
330
1F
100
AcDbEntity
  8
0
  6
HIDDEN
 62
     7
370
     0
100
AcDbLine
 10
180.4007597536
 20
74.8110349951
 30
0.0
 11
180.4007597536
 21
81.211026694
 31
0.0
  0
LINE
  5
10F
330
1F
100
AcDbEntity
  8
0
  6
HIDDEN
 62
     7
370
     0
100
AcDbLine
 10
101.9966889679
 20
98.311026694
 30
0.0
 11
135.0007597536
 21
98.311026694
 31
0.0
  0
LINE
  5
110
330
1F
100
AcDbEntity
  8
0
  6
HIDDEN
 62
     7
370
     0
100
AcDbLine
 10
135.0007597536
 20
112.311026694
 30
0.0
 11
101.9966889679
 21
112.311026694
 31
0.0
  0
LINE
  5
111
330
1F
100
AcDbEntity
  8
0
  6
HIDDEN
 62
     7
370
     0
100
AcDbLine
 10
135.0007597536
 20
98.311026694
 30
0.0
 11
136.6531264559
 21
101.061026694
 31
0.0
  0
LINE
  5
112
330
1F
100
AcDbEntity
  8
0
  6
HIDDEN
 62
     7
370
     0
100
AcDbLine
 10
136.6531264559
 20
109.561026694
 30
0.0
 11
135.0007597536
 21
112.311026694
 31
0.0
  0
LINE
  5
113
330
1F
100
AcDbEntity
  8
0
  6
HIDDEN
 62
     7
370
     0
100
AcDbLine
 10
180.4007588436
 20
135.8110264821
 30
0.0
 11
181.4007582129
 21
136.8110262289
 31
0.0
  0
LINE
  5
114
330
1F
100
AcDbEntity
  8
0
  6
HIDDEN
 62
     7
370
     0
100
AcDbLine
 10
181.400766115
 20
73.8110255563
 30
0.0
 11
180.4007658661
 21
74.8110253609
 31
0.0
  0
LINE
  5
115
330
1F
100
AcDbEntity
  8
0
  6
HIDDEN
 62
     7
370
     0
100
AcDbLine
 10
199.4007597536
 20
112.411026694
 30
0.0
 11
197.0507597536
 21
112.411026694
 31
0.0
  0
LINE
  5
116
330
1F
100
AcDbEntity
  8
0
  6
HIDDEN
 62
     7
370
     0
100
AcDbLine
 10
197.0507597536
 20
98.211026694
 30
0.0
 11
199.4007597536
 21
98.211026694
 31
0.0
  0
LINE
  5
117
330
1F
100
AcDbEntity
  8
0
  6
HIDDEN
 62
     7
370
     0
100
AcDbLine
 10
197.0507597536
 20
111.0997018286
 30
0.0
 11
196.5507597536
 21
110.811026694
 31
0.0
  0
LINE
  5
118
330
1F
100
AcDbEntity
  8
0
  6
HIDDEN
 62
     7
370
     0
100
AcDbLine
 10
196.5507597536
 20
99.811026694
 30
0.0
 11
197.0507597536
 21
99.5223515595
 31
0.0
  0
ARC
  5
119
330
1F
100
AcDbEntity
  8
0
  6
HIDDEN
 62
     7
370
     0
100
AcDbCircle
 10
188.5753580935
 20
100.211026694
 30
0.0
 40
0.6000000000000208
100
AcDbArc
 50
270.0
 51
285.0
  0
ARC
  5
11A
330
1F
100
AcDbEntity
  8
0
  6
HIDDEN
 62
     7
370
     0
100
AcDbCircle
 10
188.5753580935
 20
110.411026694
 30
0.0
 40
0.6000000000000208
100
AcDbArc
 50
75.0
 51
90.0
  0
LINE
  5
11B
330
1F
100
AcDbEntity
  8
0
  6
HIDDEN
 62
     7
370
     0
100
AcDbLine
 10
188.0007597536
 20
99.611026694
 30
0.0
 11
188.5753580935
 21
99.611026694
 31
0.0
  0
LINE
  5
11C
330
1F
100
AcDbEntity
  8
0
  6
HIDDEN
 62
     7
370
     0
100
AcDbLine
 10
188.5753580935
 20
111.011026694
 30
0.0
 11
188.0007597536
 21
111.011026694
 31
0.0
  0
ARC
  5
11D
330
1F
100
AcDbEntity
  8
0
  6
HIDDEN
 62
     7
370
     0
100
AcDbCircle
 10
188.0007597536
 20
100.211026694
 30
0.0
 40
0.5999999999999943
100
AcDbArc
 50
180.0
 51
270.0
  0
ARC
  5
11E
330
1F
100
AcDbEntity
  8
0
  6
HIDDEN
 62
     7
370
     0
100
AcDbCircle
 10
188.0007597536
 20
110.411026694
 30
0.0
 40
0.6000000000000085
100
AcDbArc
 50
90.0
 51
180.0
  0
LINE
  5
11F
330
1F
100
AcDbEntity
  8
0
  6
HIDDEN
 62
     7
370
     0
100
AcDbLine
 10
188.7306495206
 20
99.6314711983
 30
0.0
 11
189.4007597536
 21
99.811026694
 31
0.0
  0
LINE
  5
120
330
1F
100
AcDbEntity
  8
0
  6
HIDDEN
 62
     7
370
     0
100
AcDbLine
 10
189.4007597536
 20
110.811026694
 30
0.0
 11
188.7306495206
 21
110.9905821898
 31
0.0
  0
LINE
  5
121
330
1F
100
AcDbEntity
  8
0
  6
HIDDEN
 62
     7
370
     0
100
AcDbLine
 10
189.4007597536
 20
99.811026694
 30
0.0
 11
196.5507597536
 21
99.811026694
 31
0.0
  0
LINE
  5
122
330
1F
100
AcDbEntity
  8
0
  6
HIDDEN
 62
     7
370
     0
100
AcDbLine
 10
196.5507597536
 20
110.811026694
 30
0.0
 11
189.4007597536
 21
110.811026694
 31
0.0
  0
LINE
  5
123
330
1F
100
AcDbEntity
  8
0
  6
HIDDEN
 62
     7
370
     0
100
AcDbLine
 10
136.6531264559
 20
101.061026694
 30
0.0
 11
187.4007597536
 21
101.061026694
 31
0.0
  0
LINE
  5
124
330
1F
100
AcDbEntity
  8
0
  6
HIDDEN
 62
     7
370
     0
100
AcDbLine
 10
187.4007597536
 20
109.561026694
 30
0.0
 11
136.6531264559
 21
109.561026694
 31
0.0
  0
LINE
  5
125
330
1F
100
AcDbEntity
  8
0
  6
HIDDEN
 62
     7
370
     0
100
AcDbLine
 10
199.2958405305
 20
97.286026694
 30
0.0
 11
199.4007597536
 21
97.061026694
 31
0.0
  0
LINE
  5
126
330
1F
100
AcDbEntity
  8
0
  6
HIDDEN
 62
     7
370
     0
100
AcDbLine
 10
199.4007597536
 20
113.561026694
 30
0.0
 11
199.2958405305
 21
113.336026694
 31
0.0
  0
LINE
  5
127
330
1F
100
AcDbEntity
  8
0
  6
HIDDEN
 62
     7
370
     0
100
AcDbLine
 10
199.2958405305
 20
113.336026694
 30
0.0
 11
197.0507597536
 21
113.336026694
 31
0.0
  0
LINE
  5
128
330
1F
100
AcDbEntity
  8
0
  6
HIDDEN
 62
     7
370
     0
100
AcDbLine
 10
197.0507597536
 20
97.286026694
 30
0.0
 11
199.2958405305
 21
97.286026694
 31
0.0
  0
DIMENSION
  5
129
330
1F
100
AcDbEntity
  8
VERMASSUNG
100
AcDbDimension
  2
_D
 10
85.4143037049
 20
73.811026694
 30
0.0
 11
85.4143037049
 21
105.311026694
 31
0.0
 70
   160
  1
MAS BT 40 %%c<>
 71
     2
 42
-1.0
  3
SLDDIMSTYLE0
100
AcDbAlignedDimension
 13
181.4007556095
 23
136.811026694
 33
0.0
 14
181.4007605275
 24
73.811026694
 34
0.0
 50
90.0
100
AcDbRotatedDimension
  0
DIMENSION
  5
136
330
1F
100
AcDbEntity
  8
VERMASSUNG
100
AcDbDimension
  2
_D_1
 10
199.4007597536
 20
154.8878560167
 30
0.0
 11
145.7007597536
 21
154.8878560167
 31
0.0
 70
   160
  1
<>
 71
     2
 42
-1.0
  3
SLDDIMSTYLE0
100
AcDbAlignedDimension
 13
92.0007597536
 23
117.1337822911
 33
0.0
 14
199.4007597536
 24
115.111026694
 34
0.0
100
AcDbRotatedDimension
  0
DIMENSION
  5
140
330
1F
100
AcDbEntity
  8
VERMASSUNG
100
AcDbDimension
  2
_D_2
 10
199.4007597536
 20
142.8878560167
 30
0.0
 11
191.9007597536
 21
142.8878560167
 31
0.0
 70
   160
  1
<>
 71
     2
 42
-1.0
  3
SLDDIMSTYLE0
100
AcDbAlignedDimension
 13
184.4007597536
 23
135.811026694
 33
0.0
 14
199.4007597536
 24
115.111026694
 34
0.0
100
AcDbRotatedDimension
  0
DIMENSION
  5
14A
330
1F
100
AcDbEntity
  8
VERMASSUNG
100
AcDbDimension
  2
_D_3
 10
199.4007597536
 20
148.8878560167
 30
0.0
 11
178.4007597536
 21
148.8878560167
 31
0.0
 70
   160
  1
<>
 71
     2
 42
-1.0
  3
SLDDIMSTYLE0
100
AcDbAlignedDimension
 13
157.4007597536
 23
127.536026694
 33
0.0
 14
199.4007597536
 24
115.111026694
 34
0.0
100
AcDbRotatedDimension
  0
DIMENSION
  5
154
330
1F
100
AcDbEntity
  8
VERMASSUNG
100
AcDbDimension
  2
_D_4
 10
207.1747652552
 20
95.311026694
 30
0.0
 11
207.1747652552
 21
105.311026694
 31
0.0
 70
   160
  1
MBM %%c<>
 71
     2
 42
-1.0
  3
SLDDIMSTYLE0
100
AcDbAlignedDimension
 13
199.2007597536
 23
115.311026694
 33
0.0
 14
199.2007597536
 24
95.311026694
 34
0.0
 50
90.0
100
AcDbRotatedDimension
  0
LINE
  5
160
330
1F
100
AcDbEntity
  8
VERMASSUNG
  6
CENTERX2
 62
     7
370
     0
100
AcDbLine
 10
90.0007597536
 20
105.311026694
 30
0.0
 11
201.4007597536
 21
105.311026694
 31
0.0
  0
LINE
  5
161
330
1F
100
AcDbEntity
  8
0
  6
Continuous
 62
     7
370
    15
100
AcDbLine
 10
278.6386269211
 20
31.3986264749
 30
0.0
 11
278.5325436694
 21
31.4598869391
 31
0.0
  0
LINE
  5
162
330
1F
100
AcDbEntity
  8
0
  6
Continuous
 62
     7
370
    15
100
AcDbLine
 10
276.976655978
 20
31.4598869391
 30
0.0
 11
276.8705727263
 21
31.3986264749
 31
0.0
  0
LINE
  5
163
330
1F
100
AcDbEntity
  8
0
  6
Continuous
 62
     7
370
    15
100
AcDbLine
 10
279.0045998237
 20
30.7047326464
 30
0.0
 11
279.0045998237
 21
30.888454329
 31
0.0
  0
LINE
  5
164
330
1F
100
AcDbEntity
  8
0
  6
Continuous
 62
     7
370
    15
100
AcDbLine
 10
276.5045998237
 20
30.888454329
 30
0.0
 11
276.5045998237
 21
30.7047326464
 31
0.0
  0
SPLINE
  5
165
330
1F
100
AcDbEntity
  8
0
  6
Continuous
 62
     7
370
    15
100
AcDbSpline
210
0.0
220
0.0
230
1.0
 70
     8
 71
     3
 72
    25
 73
    21
 74
     0
 42
0.000000001
 43
0.00000001
 40
0.0
 40
0.0
 40
0.0
 40
0.0
 40
0.0285762806235332
 40
0.0868564798094234
 40
0.145469898777871
 40
0.2044522473076093
 40
0.2637730114707509
 40
0.3233610729175173
 40
0.3831327943830778
 40
0.4430122507616842
 40
0.5029407419360791
 40
0.5628726472807936
 40
0.6227837172731213
 40
0.6826641652440949
 40
0.742511041372019
 40
0.8023256970467378
 40
0.8621120660131822
 40
0.9218755661714401
 40
0.9816224331405418
 40
1.0
 40
1.0
 40
1.0
 40
1.0
 10
267.6719581821108
 20
14.81981164395678
 30
0.0
 10
267.7910866095002
 20
14.78662111461976
 30
0.0
 10
268.1531727740572
 20
14.68573980752446
 30
0.0
 10
268.7980292833039
 20
14.61390270845216
 30
0.0
 10
269.5991714419405
 20
14.59973296333541
 30
0.0
 10
270.4309915824968
 20
14.68093209862889
 30
0.0
 10
271.2859732318491
 20
14.85135021851506
 30
0.0
 10
272.1592776359685
 20
15.11187693849876
 30
0.0
 10
273.0448639599514
 20
15.46046587052849
 30
0.0
 10
273.9368366136463
 20
15.89485283949936
 30
0.0
 10
274.8292857487599
 20
16.41193616946531
 30
0.0
 10
275.7164741780015
 20
17.00809869348157
 30
0.0
 10
276.5928616282747
 20
17.67925231409199
 30
0.0
 10
277.4530895476109
 20
18.42096650963635
 30
0.0
 10
278.2920690252637
 20
19.2283841337834
 30
0.0
 10
279.1044670770943
 20
20.09659895522802
 30
0.0
 10
279.8865641801312
 20
21.01929780659434
 30
0.0
 10
280.6293855988957
 20
21.99392139094662
 30
0.0
 10
281.1794280502965
 20
22.76980127077174
 30
0.0
 10
281.4649765246004
 20
23.23001999897155
 30
0.0
 10
281.5321473944675
 20
23.33827934925403
 30
0.0
  0
SPLINE
  5
166
330
1F
100
AcDbEntity
  8
0
  6
Continuous
 62
     7
370
    15
100
AcDbSpline
210
0.0
220
0.0
230
1.0
 70
     8
 71
     3
 72
    26
 73
    22
 74
     0
 42
0.000000001
 43
0.00000001
 40
0.0
 40
0.0
 40
0.0
 40
0.0
 40
0.0033438880426863
 40
0.0618722431299674
 40
0.1204091408360153
 40
0.1789615818368636
 40
0.2375365411936945
 40
0.2961408290453306
 40
0.354780819223341
 40
0.4134619553334829
 40
0.4721879054452692
 40
0.5309591876840423
 40
0.5897710465009808
 40
0.6486103699773694
 40
0.7074417947236596
 40
0.7662144432836131
 40
0.8248587099914377
 40
0.8832877640267532
 40
0.941411572337504
 40
0.9991630012503964
 40
1.0
 40
1.0
 40
1.0
 40
1.0
 10
282.5650729327734
 20
25.08738206012752
 30
0.0
 10
282.5767351858201
 20
25.1079888374975
 30
0.0
 10
282.792522839814
 20
25.48927778117171
 30
0.0
 10
283.1644648930427
 20
26.25485998506438
 30
0.0
 10
283.6723721344462
 20
27.37749152561778
 30
0.0
 10
284.1154796959294
 20
28.51340867198464
 30
0.0
 10
284.4982552340152
 20
29.65197434412239
 30
0.0
 10
284.8162725655786
 20
30.7872919365723
 30
0.0
 10
285.0679266512783
 20
31.91223052984583
 30
0.0
 10
285.2512983466152
 20
33.02007177211014
 30
0.0
 10
285.3649961204636
 20
34.10410475366777
 30
0.0
 10
285.4079317474542
 20
35.15776171059476
 30
0.0
 10
285.3793792681636
 20
36.17458405148457
 30
0.0
 10
285.279000822074
 20
37.14819440224223
 30
0.0
 10
285.1068342144729
 20
38.07218979328646
 30
0.0
 10
284.8636717304165
 20
38.94053779272843
 30
0.0
 10
284.5501009483597
 20
39.74619460636404
 30
0.0
 10
284.1706110706899
 20
40.4866076546723
 30
0.0
 10
283.7189525473375
 20
41.1438444433666
 30
0.0
 10
283.3913386238842
 20
41.55839793512283
 30
0.0
 10
283.1994607938911
 20
41.72976131841484
 30
0.0
 10
283.1967196125659
 20
41.73220942878861
 30
0.0
  0
LINE
  5
167
330
1F
100
AcDbEntity
  8
0
  6
Continuous
 62
     7
370
    15
100
AcDbLine
 10
264.6918437972
 20
16.2831590691
 30
0.0
 11
266.238639881
 21
15.3902126968
 31
0.0
  0
LINE
  5
168
330
1F
100
AcDbEntity
  8
0
  6
Continuous
 62
     7
370
    15
100
AcDbLine
 10
281.9873599201
 20
42.6707518618
 30
0.0
 11
280.4405638362
 21
43.5636982341
 31
0.0
  0
LINE
  5
169
330
1F
100
AcDbEntity
  8
0
  6
Continuous
 62
     7
370
    15
100
AcDbLine
 10
276.8873522607
 20
45.6149236151
 30
0.0
 11
273.8556319364
 21
47.3650985048
 31
0.0
  0
SPLINE
  5
16A
330
1F
100
AcDbEntity
  8
0
  6
Continuous
 62
     7
370
    15
100
AcDbSpline
210
0.0
220
0.0
230
1.0
 70
     8
 71
     3
 72
    32
 73
    28
 74
     0
 42
0.000000001
 43
0.00000001
 40
0.0
 40
0.0
 40
0.0
 40
0.0
 40
0.0396860868669205
 40
0.0802084941032437
 40
0.1209757388025893
 40
0.1619966363227453
 40
0.2032388833410481
 40
0.2446484143183195
 40
0.2861677083573637
 40
0.3277474586022553
 40
0.3693510886556361
 40
0.410949224525652
 40
0.4525300997714897
 40
0.4940886530680181
 40
0.5356239433738996
 40
0.57713758219561
 40
0.6186326922408719
 40
0.6601132530203727
 40
0.7015837102610701
 40
0.743048756030891
 40
0.7845132136057911
 40
0.8259811222184005
 40
0.8674566522760246
 40
0.9089447648187285
 40
0.9504503786323647
 40
0.9919782475168376
 40
1.0
 40
1.0
 40
1.0
 40
1.0
 10
272.554270161395
 20
47.91147440126696
 30
0.0
 10
272.3128242087436
 20
47.97056620907691
 30
0.0
 10
271.8248442188184
 20
48.08999508938371
 30
0.0
 10
271.0461898914342
 20
48.15632744409791
 30
0.0
 10
270.234502199846
 20
48.13949592532513
 30
0.0
 10
269.3948697790353
 20
48.03023606403902
 30
0.0
 10
268.5334429763084
 20
47.83110062670949
 30
0.0
 10
267.6556138514353
 20
47.54249213525168
 30
0.0
 10
266.7673612928326
 20
47.16643734459183
 30
0.0
 10
265.8746011132592
 20
46.70550113606958
 30
0.0
 10
264.9832013016641
 20
46.16295716142899
 30
0.0
 10
264.0988383127978
 20
45.54258201444182
 30
0.0
 10
263.2269981566152
 20
44.84858737041024
 30
0.0
 10
262.3729533034958
 20
44.08552580461533
 30
0.0
 10
261.5418295208326
 20
43.25830274513896
 30
0.0
 10
260.7386036488643
 20
42.3721579068903
 30
0.0
 10
259.9680901318591
 20
41.43264478326129
 30
0.0
 10
259.2349206588572
 20
40.44560662357555
 30
0.0
 10
258.5435225127216
 20
39.417148825258
 30
0.0
 10
257.8980870350177
 20
38.35360523473164
 30
0.0
 10
257.3025741284378
 20
37.2615158827067
 30
0.0
 10
256.7605935262143
 20
36.14756660422122
 30
0.0
 10
256.2757266764705
 20
35.01862320246387
 30
0.0
 10
255.8502073214189
 20
33.88137488427092
 30
0.0
 10
255.4897599975117
 20
32.7434343384148
 30
0.0
 10
255.2673765898529
 20
31.9143609229074
 30
0.0
 10
255.170179007176
 20
31.4681856045463
 30
0.0
 10
255.1544433682614
 20
31.3959528029789
 30
0.0
  0
LINE
  5
16B
330
1F
100
AcDbEntity
  8
0
  6
Continuous
 62
     7
370
    15
100
AcDbLine
 10
279.6997180956
 20
21.7232979553
 30
0.0
 11
279.7704172813
 21
21.7641249954
 31
0.0
  0
LINE
  5
16C
330
1F
100
AcDbEntity
  8
0
  6
Continuous
 62
     7
370
    15
100
AcDbLine
 10
283.2346773779
 20
27.765049706
 30
0.0
 11
283.2346773779
 21
27.8466905172
 31
0.0
  0
LINE
  5
16D
330
1F
100
AcDbEntity
  8
0
  6
Continuous
 62
     7
370
    15
100
AcDbLine
 10
273.3809700219
 20
23.6797278277
 30
0.0
 11
277.1993466403
 21
21.4754259257
 31
0.0
  0
LINE
  5
16E
330
1F
100
AcDbEntity
  8
0
  6
Continuous
 62
     7
370
    15
100
AcDbLine
 10
282.1989403035
 20
30.1359145495
 30
0.0
 11
278.3805636851
 21
32.3402164515
 31
0.0
  0
LINE
  5
16F
330
1F
100
AcDbEntity
  8
0
  6
Continuous
 62
     7
370
    15
100
AcDbLine
 10
264.8455072436
 20
46.052578706
 30
0.0
 11
244.9561342589
 21
53.2199203422
 31
0.0
  0
LINE
  5
170
330
1F
100
AcDbEntity
  8
0
  6
Continuous
 62
     7
370
    15
100
AcDbLine
 10
238.5846648476
 20
42.1830157312
 30
0.0
 11
257.6125389339
 21
26.1160361538
 31
0.0
  0
LINE
  5
171
330
1F
100
AcDbEntity
  8
0
  6
Continuous
 62
     7
370
    15
100
AcDbLine
 10
258.1069118974
 20
20.0845593398
 30
0.0
 11
261.1386322217
 21
18.3343844501
 31
0.0
  0
SPLINE
  5
172
330
1F
100
AcDbEntity
  8
0
  6
Continuous
 62
     7
370
    15
100
AcDbSpline
210
0.0
220
0.0
230
1.0
 70
     8
 71
     3
 72
    13
 73
     9
 74
     0
 42
0.000000001
 43
0.00000001
 40
0.0
 40
0.0
 40
0.0
 40
0.0
 40
0.0737735013221148
 40
0.2979980693714442
 40
0.5216271021273152
 40
0.7441065526486939
 40
0.9651709677155685
 40
1.0
 40
1.0
 40
1.0
 40
1.0
 10
255.1435868011463
 20
24.15118894293417
 30
0.0
 10
255.170994058928
 20
24.05696422883334
 30
0.0
 10
255.2817019656877
 20
23.6763562546161
 30
0.0
 10
255.5263164921784
 20
23.05272056032431
 30
0.0
 10
255.9007620963723
 20
22.30782522388292
 30
0.0
 10
256.3480800216958
 20
21.64500963026769
 30
0.0
 10
256.6997706533395
 20
21.20243263897268
 30
0.0
 10
256.9187946543078
 20
21.00676809564502
 30
0.0
 10
256.948605476272
 20
20.98013667242174
 30
0.0
  0
SPLINE
  5
173
330
1F
100
AcDbEntity
  8
0
  6
Continuous
 62
     7
370
    15
100
AcDbSpline
210
0.0
220
0.0
230
1.0
 70
     8
 71
     3
 72
    25
 73
    21
 74
     0
 42
0.000000001
 43
0.00000001
 40
0.0
 40
0.0
 40
0.0
 40
0.0
 40
0.0417133444629361
 40
0.0957459558016484
 40
0.1507790166833671
 40
0.2069080436821821
 40
0.2638819353639582
 40
0.3213220295400801
 40
0.3789075809115746
 40
0.4364375034427859
 40
0.4938660973713823
 40
0.5511974506013032
 40
0.6084589326429798
 40
0.6656877733510806
 40
0.7229252553052403
 40
0.7802028742284515
 40
0.837562150351075
 40
0.8950467017984711
 40
0.9526954223409122
 40
1.0
 40
1.0
 40
1.0
 40
1.0
 10
244.7960039150062
 20
53.26322682879339
 30
0.0
 10
244.6710186550508
 20
53.29691051868465
 30
0.0
 10
244.3841360439916
 20
53.37422575497387
 30
0.0
 10
243.8989531351088
 20
53.38835023222306
 30
0.0
 10
243.3545318906548
 20
53.32456570196083
 30
0.0
 10
242.7893949746366
 20
53.16777239041912
 30
0.0
 10
242.2128953105828
 20
52.92271596923112
 30
0.0
 10
241.6343684902466
 20
52.59188813376137
 30
0.0
 10
241.0640254635458
 20
52.18155460195689
 30
0.0
 10
240.5111721714607
 20
51.69916618103927
 30
0.0
 10
239.9841531957246
 20
51.15305364745262
 30
0.0
 10
239.4904602658639
 20
50.55193059061929
 30
0.0
 10
239.0370633951285
 20
49.9050194632554
 30
0.0
 10
238.6304370049942
 20
49.22199908483508
 30
0.0
 10
238.2764934031129
 20
48.51294350568554
 30
0.0
 10
237.9806765157629
 20
47.78825665225357
 30
0.0
 10
237.7472068208756
 20
47.05816787301906
 30
0.0
 10
237.5816822434633
 20
46.33380109150598
 30
0.0
 10
237.48744118792
 20
45.66567407873899
 30
0.0
 10
237.4766581824418
 20
45.25386700412752
 30
0.0
 10
237.471798063429
 20
45.06825721315064
 30
0.0
  0
SPLINE
  5
174
330
1F
100
AcDbEntity
  8
0
  6
Continuous
 62
     7
370
    15
100
AcDbSpline
210
0.0
220
0.0
230
1.0
 70
     8
 71
     3
 72
    13
 73
     9
 74
     0
 42
0.000000001
 43
0.00000001
 40
0.0
 40
0.0
 40
0.0
 40
0.0
 40
0.1036006027273758
 40
0.2994795789643296
 40
0.495404382968361
 40
0.6899082311327394
 40
0.8813897955599109
 40
1.0
 40
1.0
 40
1.0
 40
1.0
 10
237.471798063429
 20
45.06825721315064
 30
0.0
 10
237.473897049025
 20
44.95043229081125
 30
0.0
 10
237.4799646133634
 20
44.60983429036757
 30
0.0
 10
237.5480295128642
 20
44.07630597603671
 30
0.0
 10
237.7006346777962
 20
43.49093730276558
 30
0.0
 10
237.9326986871216
 20
42.97072357818529
 30
0.0
 10
238.1904808736197
 20
42.56571770374018
 30
0.0
 10
238.397241690482
 20
42.37082921037699
 30
0.0
 10
238.4763277715083
 20
42.29628429702677
 30
0.0
  0
LWPOLYLINE
  5
175
330
1F
100
AcDbEntity
  8
0
  6
Continuous
 62
     7
370
    15
100
AcDbPolyline
 90
       20
 70
   128
 43
0.0
 10
276.9767823644
 20
30.5619109893
 10
276.7663697436
 20
30.7320383775
 10
276.6630471859
 20
30.9323885911
 10
276.6780112938
 20
31.1412505757
 10
276.8096404739
 20
31.3359908945
 10
277.043670662
 20
31.4955064123
 10
277.354741056
 20
31.6025111474
 10
277.709142352
 20
31.6454094766
 10
278.0684696703
 20
31.6195527002
 10
278.3937843206
 20
31.5277428012
 10
278.6498334127
 20
31.3799288067
 10
278.8088700544
 20
31.1921286565
 10
278.8536601579
 20
30.984693411
 10
278.7793500205
 20
30.7801018977
 10
278.5939922987
 20
30.6005247816
 10
278.3176733777
 20
30.4654220298
 10
277.9803367001
 20
30.3894341216
 10
277.6185379293
 20
30.380795526
 10
277.2714835759
 20
30.4404423689
 10
276.9767823644
 20
30.5619109893
  0
LWPOLYLINE
  5
176
330
1F
100
AcDbEntity
  8
0
  6
Continuous
 62
     7
370
    15
100
AcDbPolyline
 90
        7
 70
   128
 43
0.0
 10
276.8707163472
 20
30.3781992591
 10
276.6494555818
 20
30.5512687824
 10
276.5263917321
 20
30.7542987211
 10
276.5124595613
 20
30.9692489743
 10
276.6088970038
 20
31.1770202688
 10
276.8071351697
 20
31.3591512131
 10
276.8705727263
 20
31.3986264749
  0
LWPOLYLINE
  5
177
330
1F
100
AcDbEntity
  8
0
  6
Continuous
 62
     7
370
    15
100
AcDbPolyline
 90
       12
 70
   128
 43
0.0
 10
278.6386269211
 20
31.3986264749
 10
278.7603470484
 20
31.3169606994
 10
278.9344539865
 20
31.1267868841
 10
279.0037257046
 20
30.9154361753
 10
278.9620071065
 20
30.701688011
 10
278.8130050727
 20
30.5045348538
 10
278.5699590878
 20
30.3414946267
 10
278.2544648541
 20
30.2270541694
 10
277.8945554188
 20
30.1713820189
 10
277.5222103147
 20
30.1794248899
 10
277.1705140383
 20
30.2504681381
 10
276.8707163472
 20
30.3781992591
  0
LWPOLYLINE
  5
178
330
1F
100
AcDbEntity
  8
0
  6
Continuous
 62
     7
370
    15
100
AcDbPolyline
 90
       17
 70
   128
 43
0.0
 10
277.2242697378
 20
30.7047824089
 10
277.0616901743
 20
30.8452466185
 10
277.0045998237
 20
31.0109354508
 10
277.0616901743
 20
31.1766242832
 10
277.2242697378
 20
31.3170884928
 10
277.4675872494
 20
31.410943677
 10
277.7545998237
 20
31.4439012349
 10
278.0416123979
 20
31.410943677
 10
278.2849299095
 20
31.3170884928
 10
278.447509473
 20
31.1766242832
 10
278.5045998237
 20
31.0109354508
 10
278.447509473
 20
30.8452466185
 10
278.2849299095
 20
30.7047824089
 10
278.0416123979
 20
30.6109272246
 10
277.7545998237
 20
30.5779696668
 10
277.4675872494
 20
30.6109272246
 10
277.2242697378
 20
30.7047824089
  0
SPLINE
  5
179
330
1F
100
AcDbEntity
  8
0
  6
Continuous
 62
     7
370
    15
100
AcDbSpline
210
0.0
220
0.0
230
1.0
 70
     8
 71
     3
 72
     9
 73
     5
 74
     0
 42
0.000000001
 43
0.00000001
 40
0.0
 40
0.0
 40
0.0
 40
0.0
 40
0.6300416123972431
 40
1.0
 40
1.0
 40
1.0
 40
1.0
 10
277.3127459080593
 20
30.65587508439711
 30
0.0
 10
277.2565974653737
 20
30.69441046762159
 30
0.0
 10
277.1674788395863
 20
30.7555737026623
 30
0.0
 10
277.0872019956284
 20
30.84638969264907
 30
0.0
 10
277.0575029038758
 20
30.87998782987312
 30
0.0
  0
SPLINE
  5
17A
330
1F
100
AcDbEntity
  8
0
  6
Continuous
 62
     7
370
    15
100
AcDbSpline
210
0.0
220
0.0
230
1.0
 70
     8
 71
     3
 72
    10
 73
     6
 74
     0
 42
0.000000001
 43
0.00000001
 40
0.0
 40
0.0
 40
0.0
 40
0.0
 40
0.4391119879276897
 40
0.7513633230734652
 40
1.0
 40
1.0
 40
1.0
 40
1.0
 10
278.4516967434388
 20
31.09564699780641
 30
0.0
 10
278.4249571089306
 20
31.00308473555726
 30
0.0
 10
278.3792029933649
 20
30.84470170146396
 30
0.0
 10
278.3126908671473
 20
30.72798640941524
 30
0.0
 10
278.2795855014742
 20
30.703899170902
 30
0.0
 10
278.2649101867372
 20
30.69322151188387
 30
0.0
  0
SPLINE
  5
17B
330
1F
100
AcDbEntity
  8
0
  6
Continuous
 62
     7
370
    15
100
AcDbSpline
210
0.0
220
0.0
230
1.0
 70
     8
 71
     3
 72
    11
 73
     7
 74
     0
 42
0.000000001
 43
0.00000001
 40
0.0
 40
0.0
 40
0.0
 40
0.0
 40
0.1849308168245189
 40
0.519846420215722
 40
0.8714438233693219
 40
1.0
 40
1.0
 40
1.0
 40
1.0
 10
277.9413863803591
 20
31.39024289976231
 30
0.0
 10
277.9710889369299
 20
31.35717246631959
 30
0.0
 10
278.0545837701316
 20
31.26421042388999
 30
0.0
 10
278.2104428209574
 20
31.14116412203586
 30
0.0
 10
278.3543850313586
 20
31.09856522034769
 30
0.0
 10
278.4311450412284
 20
31.09626331047187
 30
0.0
 10
278.4516967434388
 20
31.09564699780641
 30
0.0
  0
SPLINE
  5
17C
330
1F
100
AcDbEntity
  8
0
  6
Continuous
 62
     7
370
    15
100
AcDbSpline
210
0.0
220
0.0
230
1.0
 70
     8
 71
     3
 72
    10
 73
     6
 74
     0
 42
0.000000001
 43
0.00000001
 40
0.0
 40
0.0
 40
0.0
 40
0.0
 40
0.439111987927689
 40
0.7513633230734679
 40
1.0
 40
1.0
 40
1.0
 40
1.0
 10
277.2442894605775
 20
31.28241331579566
 30
0.0
 10
277.3440831351382
 20
31.26289717804156
 30
0.0
 10
277.5148398190847
 20
31.22950316804041
 30
0.0
 10
277.7630664534483
 20
31.29448269499233
 30
0.0
 10
277.8866173601434
 20
31.3608311975383
 30
0.0
 10
277.9413863803591
 20
31.39024289976231
 30
0.0
  0
SPLINE
  5
17D
330
1F
100
AcDbEntity
  8
0
  6
Continuous
 62
     7
370
    15
100
AcDbSpline
210
0.0
220
0.0
230
1.0
 70
     8
 71
     3
 72
    10
 73
     6
 74
     0
 42
0.000000001
 43
0.00000001
 40
0.0
 40
0.0
 40
0.0
 40
0.0
 40
0.4391119879276862
 40
0.7513633230734633
 40
1.0
 40
1.0
 40
1.0
 40
1.0
 10
277.0575029038758
 20
30.87998782987312
 30
0.0
 10
277.0842425383841
 20
30.90264489175949
 30
0.0
 10
277.1299966539498
 20
30.94141332846369
 30
0.0
 10
277.1965087801674
 20
31.11129440807599
 30
0.0
 10
277.2296141458405
 20
31.22985601006687
 30
0.0
 10
277.2442894605775
 20
31.28241331579566
 30
0.0
  0
LINE
  5
17E
330
1F
100
AcDbEntity
  8
0
  6
Continuous
 62
     7
370
    15
100
AcDbLine
 10
277.2442894606
 20
30.6936459541
 30
0.0
 11
277.2442894606
 21
31.2824133158
 31
0.0
  0
LINE
  5
17F
330
1F
100
AcDbEntity
  8
0
  6
Continuous
 62
     7
370
    15
100
AcDbLine
 10
277.9413863804
 20
30.5916120065
 30
0.0
 11
277.9413863804
 21
31.3902428998
 31
0.0
  0
ARC
  5
180
330
1F
100
AcDbEntity
  8
0
  6
Continuous
 62
     7
370
    15
100
AcDbCircle
 10
279.3132474774
 20
38.038366562
 30
0.0
 40
5.347587089944904
100
AcDbArc
 50
44.5002903954
 51
75.1436985709
  0
ARC
  5
181
330
1F
100
AcDbEntity
  8
0
  6
Continuous
 62
     7
370
    15
100
AcDbCircle
 10
268.9108106479
 20
20.0189431227
 30
0.0
 40
5.343630994391227
100
AcDbArc
 50
224.5443236664
 51
255.6269378882
  0
ARC
  5
182
330
1F
100
AcDbEntity
  8
0
  6
Continuous
 62
     7
370
    15
100
AcDbCircle
 10
268.473670093
 20
22.0435041888
 30
0.0
 40
6.890847990550792
100
AcDbArc
 50
188.312493873
 51
236.7139908619
  0
SPLINE
  5
183
330
1F
100
AcDbEntity
  8
0
  6
Continuous
 62
     7
370
    15
100
AcDbSpline
210
0.0
220
0.0
230
1.0
 70
     8
 71
     3
 72
    29
 73
    25
 74
     0
 42
0.000000001
 43
0.00000001
 40
0.0
 40
0.0
 40
0.0
 40
0.0
 40
0.0226170105016674
 40
0.0451713142211041
 40
0.0676870228449807
 40
0.090188372120831
 40
0.1126996441629423
 40
0.1352450890127045
 40
0.1578488467149011
 40
0.1805348711521328
 40
0.2033268568146046
 40
0.2262481695760157
 40
0.2493217824052029
 40
0.3751991801868492
 40
0.499961424646005
 40
0.4999717960761217
 40
0.6247044141102638
 40
0.7509557879397657
 40
0.7931713871186022
 40
0.8349081045046313
 40
0.8763104515914815
 40
0.9175264576320521
 40
0.9587061619408423
 40
1.0
 40
1.0
 40
1.0
 40
1.0
 10
261.6553767156184
 20
26.20153404517935
 30
0.0
 10
261.6737419407406
 20
26.15269415538091
 30
0.0
 10
261.7104214724883
 20
26.05514978679839
 30
0.0
 10
261.7621113011513
 20
25.90768717740087
 30
0.0
 10
261.8112926609725
 20
25.75974988788358
 30
0.0
 10
261.8577823308705
 20
25.61125802265462
 30
0.0
 10
261.901692427329
 20
25.46226605652344
 30
0.0
 10
261.9430576187844
 20
25.31279426794527
 30
0.0
 10
261.9819349054896
 20
25.16287416463533
 30
0.0
 10
262.018376750513
 20
25.0125353546517
 30
0.0
 10
262.0524387316017
 20
24.86181290302311
 30
0.0
 10
262.0841757847013
 20
24.71073120628288
 30
0.0
 10
262.1573340565758
 20
24.33500999933136
 30
0.0
 10
262.2430105966151
 20
23.74623957761489
 30
0.0
 10
262.268742958432
 20
23.24475597360847
 30
0.0
 10
262.2691801146671
 20
22.77430314836474
 30
0.0
 10
262.2437490579476
 20
22.3278606184771
 30
0.0
 10
262.1517817419096
 20
21.89183394698735
 30
0.0
 10
262.0592278478643
 20
21.62364106436478
 30
0.0
 10
261.9956452239756
 20
21.4773899535303
 30
0.0
 10
261.92399971994
 20
21.34646962168443
 30
0.0
 10
261.8437449456274
 20
21.23102328923382
 30
0.0
 10
261.7553432860333
 20
21.12950128478888
 30
0.0
 10
261.6889866321216
 20
21.0745024078263
 30
0.0
 10
261.6557623902361
 20
21.04696491333388
 30
0.0
  0
LWPOLYLINE
  5
184
330
1F
100
AcDbEntity
  8
0
  6
Continuous
 62
     7
370
    15
100
AcDbPolyline
 90
       27
 70
   128
 43
0.0
 10
261.6551579745
 20
26.2016603218
 10
261.885795989
 20
27.4021566582
 10
262.1945820863
 20
28.6211010329
 10
262.579256892
 20
29.8495744825
 10
263.037005757
 20
31.0785883199
 10
263.5644793526
 20
32.2991499039
 10
264.1578181774
 20
33.5023284381
 10
264.8126807969
 20
34.6793203171
 10
265.5242756093
 20
35.8215135422
 10
266.2873959064
 20
36.9205507349
 10
267.0964579698
 20
37.9683902874
 10
267.9455419273
 20
38.9573652032
 10
268.8284350684
 20
39.8802391953
 10
269.7386773019
 20
40.7302596346
 10
270.6696084248
 20
41.5012069584
 10
271.6144168543
 20
42.1874401783
 10
272.566189468
 20
42.7839381555
 10
273.5179621866
 20
43.28633634
 10
274.4627709303
 20
43.6909587061
 10
275.3937025743
 20
43.9948446494
 10
276.3039455321
 20
44.1957706495
 10
277.1868395951
 20
44.2922665396
 10
278.0359246657
 20
44.2836262634
 10
278.844988025
 20
44.1699130414
 10
279.6081097915
 20
43.9519589084
 10
280.3197062361
 20
43.6313586254
 10
280.4405638362
 20
43.5636982341
  0
SPLINE
  5
185
330
1F
100
AcDbEntity
  8
0
  6
Continuous
 62
     7
370
    15
100
AcDbSpline
210
0.0
220
0.0
230
1.0
 70
     8
 71
     3
 72
     8
 73
     4
 74
     0
 42
0.000000001
 43
0.00000001
 40
0.0
 40
0.0
 40
0.0
 40
0.0
 40
1.0
 40
1.0
 40
1.0
 40
1.0
 10
260.8772215774434
 20
29.48043744868369
 30
0.0
 10
260.1841503423906
 20
29.36457583030898
 30
0.0
 10
259.4905295759943
 20
29.24981713715593
 30
0.0
 10
258.7965504151669
 20
29.13580558951777
 30
0.0
  0
SPLINE
  5
186
330
1F
100
AcDbEntity
  8
0
  6
Continuous
 62
     7
370
    15
100
AcDbSpline
210
0.0
220
0.0
230
1.0
 70
     8
 71
     3
 72
     8
 73
     4
 74
     0
 42
0.000000001
 43
0.00000001
 40
0.0
 40
0.0
 40
0.0
 40
0.0
 40
0.0012389803509652
 40
0.0012389803509652
 40
0.0012389803509652
 40
0.0012389803509652
 10
258.3228140010214
 20
29.40933971027177
 30
0.0
 10
258.4808873360024
 20
29.31806862982126
 30
0.0
 10
258.6388055149685
 20
29.22688710272102
 30
0.0
 10
258.7965504151669
 20
29.13580558951777
 30
0.0
  0
LWPOLYLINE
  5
187
330
1F
100
AcDbEntity
  8
0
  6
Continuous
 62
     7
370
    15
100
AcDbPolyline
 90
       28
 70
   128
 43
0.0
 10
258.322814001
 20
29.4093397103
 10
258.6296294787
 20
30.6307400973
 10
259.0127884009
 20
31.8620215818
 10
259.4694736001
 20
33.0941311939
 10
259.9963273085
 20
34.318009875
 10
260.5894758459
 20
35.5246590842
 10
261.2445581008
 20
36.70520696
 10
261.9567575955
 20
37.8509735502
 10
262.720837899
 20
38.9535346315
 10
263.5311811278
 20
40.004783648
 10
264.3818292512
 20
40.9969913144
 10
265.2665278979
 20
41.9228624461
 10
266.1787723405
 20
42.775589596
 10
267.1118553222
 20
43.5489031066
 10
268.0589163709
 20
44.2371172075
 10
269.0129922412
 20
44.8351718198
 10
269.9670681116
 20
45.3386697602
 10
270.9141291603
 20
45.7439090713
 10
271.847212142
 20
46.04791024
 10
272.7594565846
 20
46.2484381045
 10
273.6441552313
 20
46.3440182881
 10
274.4948033547
 20
46.3339480395
 10
275.3051465835
 20
46.2183014002
 10
276.069226887
 20
45.9979286594
 10
276.7814263817
 20
45.6744501028
 10
277.4365086366
 20
45.2502440994
 10
278.029657174
 20
44.7284296144
 10
278.4609892593
 20
44.2377205739
  0
LINE
  5
188
330
1F
100
AcDbEntity
  8
0
  6
Continuous
 62
     7
370
    15
100
AcDbLine
 10
255.2910936767
 20
31.1595146
 30
0.0
 11
258.322814001
 21
29.4093397103
 31
0.0
  0
ARC
  5
189
330
1F
100
AcDbEntity
  8
0
  6
Continuous
 62
     7
370
    15
100
AcDbCircle
 10
271.1893517457
 20
42.7377672054
 30
0.0
 40
5.34052853281125
100
AcDbArc
 50
60.0493432146
 51
74.3504436768
  0
LINE
  5
18A
330
1F
100
AcDbEntity
  8
0
  6
Continuous
 62
     7
370
    15
100
AcDbLine
 10
261.2798169799
 20
29.419275058
 30
0.0
 11
261.270494329
 21
29.4246569098
 31
0.0
  0
SPLINE
  5
18B
330
1F
100
AcDbEntity
  8
0
  6
Continuous
 62
     7
370
    15
100
AcDbSpline
210
0.0
220
0.0
230
1.0
 70
     8
 71
     3
 72
    10
 73
     6
 74
     0
 42
0.000000001
 43
0.00000001
 40
0.0
 40
0.0
 40
0.0
 40
0.0
 40
0.2409971518765583
 40
0.7131807703182222
 40
1.0
 40
1.0
 40
1.0
 40
1.0
 10
262.1970177033871
 20
28.61687271630863
 30
0.0
 10
262.1311590136683
 20
28.69789158575454
 30
0.0
 10
261.9362639673989
 20
28.93765001971039
 30
0.0
 10
261.6233790878707
 20
29.20337794965114
 30
0.0
 10
261.3740397174469
 20
29.36006475478504
 30
0.0
 10
261.2798169799024
 20
29.41927505796231
 30
0.0
  0
SPLINE
  5
18C
330
1F
100
AcDbEntity
  8
0
  6
Continuous
 62
     7
370
    15
100
AcDbSpline
210
0.0
220
0.0
230
1.0
 70
     8
 71
     3
 72
    10
 73
     6
 74
     0
 42
0.000000001
 43
0.00000001
 40
0.0
 40
0.0
 40
0.0
 40
0.0
 40
0.5
 40
0.5
 40
1.0
 40
1.0
 40
1.0
 40
1.0
 10
261.2704943289954
 20
29.42465690977504
 30
0.0
 10
261.2206937301825
 20
29.45340618352416
 30
0.0
 10
261.1556618134386
 20
29.47416952888482
 30
0.0
 10
261.0186034530931
 20
29.4931232182726
 30
0.0
 10
260.9450646130433
 20
29.4917788570448
 30
0.0
 10
260.8772215774434
 20
29.4804374486837
 30
0.0
  0
SPLINE
  5
18D
330
1F
100
AcDbEntity
  8
0
  6
Continuous
 62
     7
370
    15
100
AcDbSpline
210
0.0
220
0.0
230
1.0
 70
     8
 71
     3
 72
     8
 73
     4
 74
     0
 42
0.000000001
 43
0.00000001
 40
0.0
 40
0.0
 40
0.0
 40
0.0
 40
1.0
 40
1.0
 40
1.0
 40
1.0
 10
255.134269069123
 20
31.25003627918056
 30
0.0
 10
255.1566478656424
 20
31.23712432772872
 30
0.0
 10
255.2108352966597
 20
31.20584677657169
 30
0.0
 10
255.2910936766841
 20
31.1595145999917
 30
0.0
  0
LINE
  5
18E
330
1F
100
AcDbEntity
  8
0
  6
Continuous
 62
     7
370
    15
100
AcDbLine
 10
255.1342690691
 20
31.2500362792
 30
0.0
 11
255.1572366594
 21
31.395421687
 31
0.0
  0
SPLINE
  5
18F
330
1F
100
AcDbEntity
  8
0
  6
Continuous
 62
     7
370
    15
100
AcDbSpline
210
0.0
220
0.0
230
1.0
 70
     8
 71
     3
 72
    11
 73
     7
 74
     0
 42
0.000000001
 43
0.00000001
 40
0.0
 40
0.0
 40
0.0
 40
0.0
 40
0.3105157409986116
 40
0.5915933465014848
 40
0.8435752121776465
 40
1.0
 40
1.0
 40
1.0
 40
1.0
 10
261.7638020649022
 20
21.77309365209438
 30
0.0
 10
261.8548014233546
 20
21.86456308368215
 30
0.0
 10
262.0281730367332
 20
22.03883027851603
 30
0.0
 10
262.1784625217049
 20
22.45735740092737
 30
0.0
 10
262.2525414545382
 20
22.86849260035918
 30
0.0
 10
262.2600825982043
 20
23.16323035801851
 30
0.0
 10
262.2629709492823
 20
23.27611855611753
 30
0.0
  0
SPLINE
  5
190
330
1F
100
AcDbEntity
  8
0
  6
Continuous
 62
     7
370
    15
100
AcDbSpline
210
0.0
220
0.0
230
1.0
 70
     8
 71
     3
 72
     9
 73
     5
 74
     0
 42
0.000000001
 43
0.00000001
 40
0.0
 40
0.0
 40
0.0
 40
0.0
 40
0.5067661695379747
 40
1.0
 40
1.0
 40
1.0
 40
1.0
 10
261.6550806004297
 20
21.04646288555023
 30
0.0
 10
261.6733496177411
 20
21.16891723938023
 30
0.0
 10
261.7093998089528
 20
21.41055600927214
 30
0.0
 10
261.7460805483896
 20
21.65270640740132
 30
0.0
 10
261.7641727300062
 20
21.77214317581847
 30
0.0
  0
LWPOLYLINE
  5
191
330
1F
100
AcDbEntity
  8
0
  6
Continuous
 62
     7
370
    15
100
AcDbPolyline
 90
       43
 70
   128
 43
0.0
 10
276.3050309222
 20
23.7646499581
 10
276.343730135
 20
24.3833160939
 10
276.4589632967
 20
25.0328434105
 10
276.648156289
 20
25.698722541
 10
276.9070828531
 20
26.3660788459
 10
277.2299589973
 20
27.0200046881
 10
277.6095722023
 20
27.6458924449
 10
278.0374425361
 20
28.229760818
 10
278.5040120827
 20
28.7585671529
 10
278.9988584494
 20
29.2204987898
 10
279.510927586
 20
29.6052369393
 10
280.0287807141
 20
29.9041871868
 10
280.5408498507
 20
30.1106714779
 10
281.0356962173
 20
30.2200772947
 10
281.5022657639
 20
30.229960692
 10
281.9301360978
 20
30.1401008911
 10
282.3097493027
 20
29.9525052113
 10
282.632625447
 20
29.6713642304
 10
282.8915520111
 20
29.302958173
 10
283.0807450034
 20
28.8555166219
 10
283.1959781651
 20
28.3390346819
 10
283.2346773779
 20
27.765049706
 10
283.1959781651
 20
27.1463835702
 10
283.0807450034
 20
26.4968562536
 10
282.8915520111
 20
25.8309771231
 10
282.632625447
 20
25.1636208182
 10
282.3097493027
 20
24.509694976
 10
281.9301360978
 20
23.8838072192
 10
281.5022657639
 20
23.2999388461
 10
281.0356962173
 20
22.7711325112
 10
280.5408498507
 20
22.3092008743
 10
280.0287807141
 20
21.9244627248
 10
279.510927586
 20
21.6255124773
 10
278.9988584494
 20
21.4190281862
 10
278.5040120827
 20
21.3096223694
 10
278.0374425361
 20
21.2997389721
 10
277.6095722023
 20
21.389598773
 10
277.2299589973
 20
21.5771944527
 10
276.9070828531
 20
21.8583354337
 10
276.648156289
 20
22.2267414911
 10
276.4589632967
 20
22.6741830422
 10
276.343730135
 20
23.1906649822
 10
276.3050309222
 20
23.7646499581
  0
LWPOLYLINE
  5
192
330
1F
100
AcDbEntity
  8
0
  6
Continuous
 62
     7
370
    15
100
AcDbPolyline
 90
       22
 70
   128
 43
0.0
 10
276.163609566
 20
23.7646499581
 10
276.2030985586
 20
24.3959419334
 10
276.3206834175
 20
25.0587249095
 10
276.5137374913
 20
25.73819341
 10
276.7779482709
 20
26.4191692313
 10
277.1074137243
 20
27.0864404989
 10
277.4947741374
 20
27.7251014752
 10
277.931376519
 20
28.3208855295
 10
278.407467893
 20
28.8604838304
 10
278.9124131651
 20
29.3318426435
 10
279.4349326923
 20
29.724432592
 10
279.9633542516
 20
30.029483865
 10
280.4858737787
 20
30.2401821212
 10
280.9908190508
 20
30.3518207097
 10
281.4669104249
 20
30.361905809
 10
281.9035128064
 20
30.2702121346
 10
282.2908732196
 20
30.0787879716
 10
282.6203386729
 20
29.7919094196
 10
282.8845494526
 20
29.4159848713
 10
283.0776035264
 20
28.9594118599
 10
283.1951883853
 20
28.4323894722
 10
283.2346773779
 20
27.8466905172
  0
LWPOLYLINE
  5
193
330
1F
100
AcDbEntity
  8
0
  6
Continuous
 62
     7
370
    15
100
AcDbPolyline
 90
       12
 70
   128
 43
0.0
 10
279.6997180956
 20
21.7232979553
 10
279.4349326923
 20
21.5818566103
 10
278.9124131651
 20
21.3711583541
 10
278.407467893
 20
21.2595197655
 10
277.931376519
 20
21.2494346663
 10
277.4947741374
 20
21.3411283407
 10
277.1074137243
 20
21.5325525037
 10
276.7779482709
 20
21.8194310557
 10
276.5137374913
 20
22.195355604
 10
276.3206834175
 20
22.6519286153
 10
276.2030985586
 20
23.1789510031
 10
276.163609566
 20
23.7646499581
  0
SPLINE
  5
194
330
1F
100
AcDbEntity
  8
0
  6
Continuous
 62
     7
370
    15
100
AcDbSpline
210
0.0
220
0.0
230
1.0
 70
     8
 71
     3
 72
    38
 73
    34
 74
     0
 42
0.000000001
 43
0.00000001
 40
0.0
 40
0.0
 40
0.0
 40
0.0
 40
0.0625
 40
0.0625
 40
0.125
 40
0.125
 40
0.1875
 40
0.1875
 40
0.25
 40
0.25
 40
0.3125
 40
0.3125
 40
0.375
 40
0.375
 40
0.4375
 40
0.4375
 40
0.5
 40
0.5
 40
0.5625
 40
0.5625
 40
0.625
 40
0.625
 40
0.6875
 40
0.6875
 40
0.75
 40
0.75
 40
0.8125
 40
0.8125
 40
0.875
 40
0.875
 40
0.9375
 40
0.9375
 40
1.0
 40
1.0
 40
1.0
 40
1.0
 10
278.9036483430855
 20
30.34760385996494
 30
0.0
 10
278.8330957582154
 20
30.30687471966363
 30
0.0
 10
278.7540101428633
 20
30.26870268045347
 30
0.0
 10
278.5813919143997
 20
30.19910570496989
 30
0.0
 10
278.4905219575013
 20
30.16868295010192
 30
0.0
 10
278.3003806404516
 20
30.11656263757841
 30
0.0
 10
278.2015336283917
 20
30.09513111647306
 30
0.0
 10
278.004114453486
 20
30.06321617048479
 30
0.0
 10
277.9035611032281
 20
30.05240924610669
 30
0.0
 10
277.7056862157565
 20
30.04227589278802
 30
0.0
 10
277.608531371902
 20
30.04283350016614
 30
0.0
 10
277.417393077725
 20
30.05562669565741
 30
0.0
 10
277.3234188063091
 20
30.06801548402316
 30
0.0
 10
277.1449865216918
 20
30.10423661607464
 30
0.0
 10
277.0596331754051
 20
30.12809682877417
 30
0.0
 10
276.8966021963123
 20
30.18795936586925
 30
0.0
 10
276.8197600425621
 20
30.22379134736458
 30
0.0
 10
276.6790926999872
 20
30.30524997633464
 30
0.0
 10
276.6146164407273
 20
30.35110191501416
 30
0.0
 10
276.4977824411487
 20
30.45318081648819
 30
0.0
 10
276.4462636391048
 20
30.50883231343058
 30
0.0
 10
276.3592562747037
 20
30.62609312375957
 30
0.0
 10
276.3233292226117
 20
30.68806430054227
 30
0.0
 10
276.267700174462
 20
30.81825625217438
 30
0.0
 10
276.2485548075903
 20
30.88551547112445
 30
0.0
 10
276.2289443067971
 20
31.02020927656356
 30
0.0
 10
276.2282400280108
 20
31.08812304192504
 30
0.0
 10
276.2474562571831
 20
31.22407670968462
 30
0.0
 10
276.2673162633294
 20
31.29057135994058
 30
0.0
 10
276.3280844087023
 20
31.41654791597563
 30
0.0
 10
276.36989656641
 20
31.47720039027997
 30
0.0
 10
276.4730538190743
 20
31.5852448600305
 30
0.0
 10
276.5342273780274
 20
31.63309261550287
 30
0.0
 10
276.6055513042292
 20
31.67426704167685
 30
0.0
  0
SPLINE
  5
195
330
1F
100
AcDbEntity
  8
0
  6
Continuous
 62
     7
370
    15
100
AcDbSpline
210
0.0
220
0.0
230
1.0
 70
     8
 71
     3
 72
    32
 73
    28
 74
     0
 42
0.000000001
 43
0.00000001
 40
0.0
 40
0.0
 40
0.0
 40
0.0
 40
0.0624999999999996
 40
0.0624999999999996
 40
0.1249999999999992
 40
0.1249999999999992
 40
0.1874999999999988
 40
0.1874999999999988
 40
0.2499999999999984
 40
0.2499999999999984
 40
0.3749999999999976
 40
0.3749999999999976
 40
0.4999999999999968
 40
0.4999999999999968
 40
0.624999999999996
 40
0.624999999999996
 40
0.6874999999999966
 40
0.6874999999999966
 40
0.7499999999999971
 40
0.7499999999999971
 40
0.8124999999999979
 40
0.8124999999999979
 40
0.8749999999999986
 40
0.8749999999999986
 40
0.9374999999999993
 40
0.9374999999999993
 40
1.0
 40
1.0
 40
1.0
 40
1.0
 10
276.6055513042292
 20
31.67426704167685
 30
0.0
 10
276.6769563654717
 20
31.7154883061129
 30
0.0
 10
276.7567489626763
 20
31.74876774263733
 30
0.0
 10
276.9281116010486
 20
31.79882377047515
 30
0.0
 10
277.021183358545
 20
31.8158624189046
 30
0.0
 10
277.2111926831161
 20
31.83399279336411
 30
0.0
 10
277.3097754975354
 20
31.83542864809703
 30
0.0
 10
277.5090522660284
 20
31.82510631724057
 30
0.0
 10
277.6085869867612
 20
31.81352437424295
 30
0.0
 10
277.9071935516859
 20
31.76280259470406
 30
0.0
 10
278.0972716106457
 20
31.70975477836711
 30
0.0
 10
278.4575214015537
 20
31.5782661295945
 30
0.0
 10
278.6195788468817
 20
31.50269447996773
 30
0.0
 10
278.903640088265
 20
31.33810405624034
 30
0.0
 10
279.0196942236497
 20
31.25254363151155
 30
0.0
 10
279.1513156450991
 20
31.1183959399436
 30
0.0
 10
279.1869329190449
 20
31.07373710923105
 30
0.0
 10
279.2416639839557
 20
30.98351340852519
 30
0.0
 10
279.260853165911
 20
30.93767372106077
 30
0.0
 10
279.2804518691963
 20
30.8449077878457
 30
0.0
 10
279.2807641467687
 20
30.79895775028318
 30
0.0
 10
279.2616135746036
 20
30.70662925389096
 30
0.0
 10
279.2417916657865
 20
30.6596960419623
 30
0.0
 10
279.1805089459228
 20
30.56672731731543
 30
0.0
 10
279.1398028375941
 20
30.52143187132579
 30
0.0
 10
279.0372536695361
 20
30.4325048497209
 30
0.0
 10
278.9742811855514
 20
30.38837933199021
 30
0.0
 10
278.9036483430855
 20
30.34760385996494
 30
0.0
  0
SPLINE
  5
196
330
1F
100
AcDbEntity
  8
0
  6
Continuous
 62
     7
370
    15
100
AcDbSpline
210
0.0
220
0.0
230
1.0
 70
     8
 71
     3
 72
    10
 73
     6
 74
     0
 42
0.000000001
 43
0.00000001
 40
0.0
 40
0.0
 40
0.0
 40
0.0
 40
0.4807908150150776
 40
0.9757817590329644
 40
0.9999999999999999
 40
0.9999999999999999
 40
0.9999999999999999
 40
0.9999999999999999
 10
261.2798169799024
 20
22.84612152228202
 30
0.0
 10
261.4296079268027
 20
22.76595114691998
 30
0.0
 10
261.7336138875841
 20
22.60324256878161
 30
0.0
 10
262.0232293317826
 20
22.49174113806013
 30
0.0
 10
262.1575677624613
 20
22.46350952058086
 30
0.0
 10
262.163833908322
 20
22.46219267154433
 30
0.0
  0
ARC
  5
197
330
1F
100
AcDbEntity
  8
0
  6
Continuous
 62
     7
370
    15
100
AcDbCircle
 10
277.7094747114
 20
22.5497383663
 30
0.0
 40
0.4510551675024327
100
AcDbArc
 50
173.8039352909
 51
288.0938669718
  0
LWPOLYLINE
  5
198
330
1F
100
AcDbEntity
  8
0
  6
Continuous
 62
     7
370
    15
100
AcDbPolyline
 90
        9
 70
   128
 43
0.0
 10
281.690147273
 20
24.3381115832
 10
281.2669189691
 20
23.7383457847
 10
280.7955002656
 20
23.2038129931
 10
280.2910660937
 20
22.7517197775
 10
279.76985415
 20
22.396618983
 10
279.2486422064
 20
22.1499412766
 10
278.7442080345
 20
22.0196271942
 10
278.272789331
 20
22.0098715362
 10
277.8495610271
 20
22.1209883363
  0
ARC
  5
199
330
1F
100
AcDbEntity
  8
0
  6
Continuous
 62
     7
370
    15
100
AcDbCircle
 10
280.5376760172
 20
25.6524986993
 30
0.0
 40
1.748085663338878
100
AcDbArc
 50
311.2446942589
 51
354.8314148768
  0
ARC
  5
19A
330
1F
100
AcDbEntity
  8
0
  6
Continuous
 62
     7
370
    15
100
AcDbCircle
 10
278.9331884482
 20
27.2131490785
 30
0.0
 40
3.760865234062202
100
AcDbArc
 50
332.8163458041
 51
27.1836541959
  0
ARC
  5
19B
330
1F
100
AcDbEntity
  8
0
  6
Continuous
 62
     7
370
    15
100
AcDbCircle
 10
281.8302335887
 20
28.9799612978
 30
0.0
 40
0.4510551675025357
100
AcDbArc
 50
353.8039352909
 51
108.0938669718
  0
LWPOLYLINE
  5
19C
330
1F
100
AcDbEntity
  8
0
  6
Continuous
 62
     7
370
    15
100
AcDbPolyline
 90
        9
 70
   128
 43
0.0
 10
277.8495610271
 20
27.1915880809
 10
278.272789331
 20
27.7913538794
 10
278.7442080345
 20
28.3258866709
 10
279.2486422064
 20
28.7779798866
 10
279.76985415
 20
29.1330806811
 10
280.2910660937
 20
29.3797583875
 10
280.7955002656
 20
29.5100724698
 10
281.2669189691
 20
29.5198281279
 10
281.690147273
 20
29.4087113278
  0
ARC
  5
19D
330
1F
100
AcDbEntity
  8
0
  6
Continuous
 62
     7
370
    15
100
AcDbCircle
 10
279.0020322829
 20
25.8772009647
 30
0.0
 40
1.748085663337987
100
AcDbArc
 50
131.2446942589
 51
174.8314148769
  0
ARC
  5
19E
330
1F
100
AcDbEntity
  8
0
  6
Continuous
 62
     7
370
    15
100
AcDbCircle
 10
280.6065198519
 20
24.3165505856
 30
0.0
 40
3.760865234061801
100
AcDbArc
 50
152.8163458041
 51
207.1836541959
  0
SPLINE
  5
19F
330
1F
100
AcDbEntity
  8
0
  6
Continuous
 62
     7
370
    15
100
AcDbSpline
210
0.0
220
0.0
230
1.0
 70
     8
 71
     3
 72
     8
 73
     4
 74
     0
 42
0.000000001
 43
0.00000001
 40
0.0
 40
0.0
 40
0.0
 40
0.0
 40
1.0
 40
1.0
 40
1.0
 40
1.0
 10
281.4547037893963
 20
29.35430350978923
 30
0.0
 10
281.5357917269079
 20
29.3802372386397
 30
0.0
 10
281.6142595124506
 20
29.39856559115842
 30
0.0
 10
281.6901472729759
 20
29.40871132780774
 30
0.0
  0
SPLINE
  5
1A0
330
1F
100
AcDbEntity
  8
0
  6
Continuous
 62
     7
370
    15
100
AcDbSpline
210
0.0
220
0.0
230
1.0
 70
     8
 71
     3
 72
     8
 73
     4
 74
     0
 42
0.000000001
 43
0.00000001
 40
0.0
 40
0.0
 40
0.0
 40
0.0
 40
1.0
 40
1.0
 40
1.0
 40
1.0
 10
281.098079557387
 20
29.23638625544708
 30
0.0
 10
281.2160213952303
 20
29.27677324093913
 30
0.0
 10
281.3349587826045
 20
29.31600638900115
 30
0.0
 10
281.4547037893963
 20
29.35430350978923
 30
0.0
  0
ARC
  5
1A1
330
1F
100
AcDbEntity
  8
0
  6
Continuous
 62
     7
370
    15
100
AcDbCircle
 10
281.1248022154
 20
25.8367355578
 30
0.0
 40
3.399755721593213
100
AcDbArc
 50
90.4503592053
 51
149.544264262
  0
SPLINE
  5
1A2
330
1F
100
AcDbEntity
  8
0
  6
Continuous
 62
     7
370
    15
100
AcDbSpline
210
0.0
220
0.0
230
1.0
 70
     8
 71
     3
 72
     8
 73
     4
 74
     0
 42
0.000000001
 43
0.00000001
 40
0.0
 40
0.0
 40
0.0
 40
0.0
 40
1.0
 40
1.0
 40
1.0
 40
1.0
 10
277.9898805615822
 20
27.35410363582359
 30
0.0
 10
278.0562278330751
 20
27.42323879745787
 30
0.0
 10
278.1241899823855
 20
27.49190032557057
 30
0.0
 10
278.1941413692757
 20
27.55997842279453
 30
0.0
  0
SPLINE
  5
1A3
330
1F
100
AcDbEntity
  8
0
  6
Continuous
 62
     7
370
    15
100
AcDbSpline
210
0.0
220
0.0
230
1.0
 70
     8
 71
     3
 72
     8
 73
     4
 74
     0
 42
0.000000001
 43
0.00000001
 40
0.0
 40
0.0
 40
0.0
 40
0.0
 40
1.0
 40
1.0
 40
1.0
 40
1.0
 10
277.8495610271021
 20
27.19158808086008
 30
0.0
 10
277.8981176635257
 20
27.25328256540725
 30
0.0
 10
277.9449571580391
 20
27.30729256589979
 30
0.0
 10
277.9898805615822
 20
27.35410363582359
 30
0.0
  0
SPLINE
  5
1A4
330
1F
100
AcDbEntity
  8
0
  6
Continuous
 62
     7
370
    15
100
AcDbSpline
210
0.0
220
0.0
230
1.0
 70
     8
 71
     3
 72
     8
 73
     4
 74
     0
 42
0.000000001
 43
0.00000001
 40
0.0
 40
0.0
 40
0.0
 40
0.0
 40
1.0
 40
1.0
 40
1.0
 40
1.0
 10
277.2610544369963
 20
22.59842123472757
 30
0.0
 10
277.2470111472874
 20
22.66207573566266
 30
0.0
 10
277.2366272959472
 20
22.72885643583169
 30
0.0
 10
277.2296361662197
 20
22.79867041593355
 30
0.0
  0
ARC
  5
1A5
330
1F
100
AcDbEntity
  8
0
  6
Continuous
 62
     7
370
    15
100
AcDbCircle
 10
280.5675257648
 20
24.3412416564
 30
0.0
 40
3.67709572957519
100
AcDbArc
 50
155.1964677926
 51
204.8035322074
  0
SPLINE
  5
1A6
330
1F
100
AcDbEntity
  8
0
  6
Continuous
 62
     7
370
    15
100
AcDbSpline
210
0.0
220
0.0
230
1.0
 70
     8
 71
     3
 72
     8
 73
     4
 74
     0
 42
0.000000001
 43
0.00000001
 40
0.0
 40
0.0
 40
0.0
 40
0.0
 40
1.0
 40
1.0
 40
1.0
 40
1.0
 10
277.2296361662197
 20
25.88381289681352
 30
0.0
 10
277.2366272959472
 20
25.92979711556488
 30
0.0
 10
277.2470111472874
 20
25.98006045842821
 30
0.0
 10
277.2610544369963
 20
26.03467993651547
 30
0.0
  0
LWPOLYLINE
  5
1A7
330
1F
100
AcDbEntity
  8
0
  6
Continuous
 62
     7
370
    15
100
AcDbPolyline
 90
       23
 70
   128
 43
0.0
 10
279.8124344893
 20
28.8860249111
 10
280.0760368994
 20
28.8659342429
 10
280.3861724658
 20
28.7510594508
 10
280.6406941474
 20
28.539858585
 10
280.8298208188
 20
28.2404479762
 10
280.946284448
 20
27.8643338063
 10
280.985609403
 20
27.4259699319
 10
280.946284448
 20
26.9422024308
 10
280.8298208188
 20
26.4316222169
 10
280.6406941474
 20
25.9138506013
 10
280.3861724658
 20
25.4087852569
 10
280.0760368994
 20
24.9358355617
 10
279.7222057841
 20
24.5131767072
 10
279.3382766513
 20
24.1570512361
 10
278.9390036821
 20
23.8811448507
 10
278.539730713
 20
23.6960604784
 10
278.1558015802
 20
23.6089108081
 10
277.8019704649
 20
23.6230449526
 10
277.4918348985
 20
23.7379197447
 10
277.2373132169
 20
23.9491206105
 10
277.0481865455
 20
24.2485312193
 10
276.9317229163
 20
24.6246453892
 10
276.9267696828
 20
24.6515367105
  0
LINE
  5
1A8
330
1F
100
AcDbEntity
  8
0
  6
Continuous
 62
     7
370
    15
100
AcDbLine
 10
277.2065920682
 20
22.6824928635
 30
0.0
 11
278.339589906
 21
23.336558593
 31
0.0
  0
LINE
  5
1A9
330
1F
100
AcDbEntity
  8
0
  6
Continuous
 62
     7
370
    15
100
AcDbLine
 10
281.4421271189
 20
29.2320832401
 30
0.0
 11
281.4491606665
 21
29.3695027184
 31
0.0
  0
ARC
  5
1AA
330
1F
100
AcDbEntity
  8
0
  6
Continuous
 62
     7
370
    15
100
AcDbCircle
 10
278.1042375203
 20
27.6895119996
 30
0.0
 40
3.677095729575552
100
AcDbArc
 50
335.1964677926
 51
24.8035322074
  0
ARC
  5
1AB
330
1F
100
AcDbEntity
  8
0
  6
Continuous
 62
     7
370
    15
100
AcDbCircle
 10
279.7959162322
 20
26.0784719638
 30
0.0
 40
1.647634140084967
100
AcDbArc
 50
302.0978909557
 51
2.3816591776
  0
LINE
  5
1AC
330
1F
100
AcDbEntity
  8
0
  6
Continuous
 62
     7
370
    15
100
AcDbLine
 10
279.5384174583
 20
24.0286270079
 30
0.0
 11
280.6714152961
 21
24.6826927374
 31
0.0
  0
ARC
  5
1AD
330
1F
100
AcDbEntity
  8
0
  6
Continuous
 62
     7
370
    15
100
AcDbCircle
 10
277.4602960611
 20
26.2440670707
 30
0.0
 40
3.037558758882839
100
AcDbArc
 50
286.8264591401
 51
313.1681643272
  0
LINE
  5
1AE
330
1F
100
AcDbEntity
  8
0
  6
Continuous
 62
     7
370
    15
100
AcDbLine
 10
280.92999495
 20
29.139353077
 30
0.0
 11
281.0980795574
 21
29.2363862554
 31
0.0
  0
ARC
  5
1AF
330
1F
100
AcDbEntity
  8
0
  6
Continuous
 62
     7
370
    15
100
AcDbCircle
 10
281.1248061667
 20
25.8367287132
 30
0.0
 40
3.308365018965652
100
AcDbArc
 50
93.3757825808
 51
146.6188408865
  0
LINE
  5
1B0
330
1F
100
AcDbEntity
  8
0
  6
Continuous
 62
     7
370
    15
100
AcDbLine
 10
278.1941413693
 20
27.5599784228
 30
0.0
 11
278.3622259767
 21
27.6570116013
 31
0.0
  0
SPLINE
  5
1B1
330
1F
100
AcDbEntity
  8
0
  6
Continuous
 62
     7
370
    15
100
AcDbSpline
210
0.0
220
0.0
230
1.0
 70
     8
 71
     3
 72
     9
 73
     5
 74
     0
 42
0.000000001
 43
0.00000001
 40
0.0
 40
0.0
 40
0.0
 40
0.0
 40
0.451513634608404
 40
1.0
 40
1.0
 40
1.0
 40
1.0
 10
280.1833188321798
 20
29.06619479795122
 30
0.0
 10
280.2935972795294
 20
29.08407087093344
 30
0.0
 10
280.5378389566278
 20
29.1236623065226
 30
0.0
 10
280.7910901328051
 20
29.13379527947966
 30
0.0
 10
280.9299949499578
 20
29.1393530769875
 30
0.0
  0
LINE
  5
1B2
330
1F
100
AcDbEntity
  8
0
  6
Continuous
 62
     7
370
    15
100
AcDbLine
 10
255.5677023166
 20
30.999779921
 30
0.0
 11
255.1342690691
 21
31.2500362792
 31
0.0
  0
LINE
  5
1B3
330
1F
100
AcDbEntity
  8
0
  6
Continuous
 62
     7
370
    15
100
AcDbLine
 10
258.7965504152
 20
29.1358055895
 30
0.0
 11
255.5677023166
 21
30.999779921
 31
0.0
  0
LWPOLYLINE
  5
1B4
330
1F
100
AcDbEntity
  8
0
  6
Continuous
 62
     7
370
    15
100
AcDbPolyline
 90
       20
 70
   128
 43
0.0
 10
279.7455546969
 20
28.8514255218
 10
279.9524937873
 20
28.8093438309
 10
280.2376652749
 20
28.660941599
 10
280.4624321457
 20
28.4177875188
 10
280.6175924174
 20
28.0898363468
 10
280.6967938105
 20
27.6905144426
 10
280.6967938105
 20
27.2361700918
 10
280.6175924174
 20
26.7454042057
 10
280.4624321457
 20
26.2383087971
 10
280.2376652749
 20
25.7356444117
 10
279.9524937873
 20
25.2579901885
 10
279.618592637
 20
24.8249013475
 10
279.2496317764
 20
24.4541085969
 10
278.8607165064
 20
24.1607922352
 10
278.4677690639
 20
23.9569606689
 10
278.0868767634
 20
23.8509587862
 10
277.7336333804
 20
23.8471263167
 10
277.4225007405
 20
23.9456201621
 10
277.1662166505
 20
24.1424079728
 10
276.9889655044
 20
24.4013650431
  0
SPLINE
  5
1B5
330
1F
100
AcDbEntity
  8
0
  6
Continuous
 62
     7
370
    15
100
AcDbSpline
210
0.0
220
0.0
230
1.0
 70
     8
 71
     3
 72
    11
 73
     7
 74
     0
 42
0.000000001
 43
0.00000001
 40
0.0
 40
0.0
 40
0.0
 40
0.0
 40
0.2167959017936504
 40
0.5260805092056551
 40
0.8354028471249841
 40
1.0
 40
1.0
 40
1.0
 40
1.0
 10
257.6727672379594
 20
26.98595397519582
 30
0.0
 10
257.6680483479976
 20
27.19234637002621
 30
0.0
 10
257.6565974118247
 20
27.69318155773144
 30
0.0
 10
257.5914452724974
 20
28.51195494468173
 30
0.0
 10
257.5506993012222
 20
29.27132927663609
 30
0.0
 10
257.5719432041726
 20
29.70386064788758
 30
0.0
 10
257.5793214319296
 20
29.85408327772244
 30
0.0
  0
LINE
  5
1B6
330
1F
100
AcDbEntity
  8
0
  6
Continuous
 62
     7
370
    15
100
AcDbLine
 10
257.672767238
 20
26.5655986198
 30
0.0
 11
257.672767238
 21
26.9859539752
 31
0.0
  0
LINE
  5
1B7
330
1F
100
AcDbEntity
  8
0
  6
Continuous
 62
     7
370
    15
100
AcDbLine
 10
257.0628876392
 20
29.8009674349
 30
0.0
 11
257.0680755339
 21
30.1336328991
 31
0.0
  0
ARC
  5
1B8
330
1F
100
AcDbEntity
  8
0
  6
Continuous
 62
     7
370
    15
100
AcDbCircle
 10
264.6440413055
 20
29.6320000751
 30
0.0
 40
7.583036389277552
100
AcDbArc
 50
178.7232135802
 51
203.1724163449
  0
SPLINE
  5
1B9
330
1F
100
AcDbEntity
  8
0
  6
Continuous
 62
     7
370
    15
100
AcDbSpline
210
0.0
220
0.0
230
1.0
 70
     8
 71
     3
 72
     8
 73
     4
 74
     0
 42
0.000000001
 43
0.00000001
 40
0.0
 40
0.0
 40
0.0
 40
0.0
 40
1.0
 40
1.0
 40
1.0
 40
1.0
 10
277.9898805615822
 20
22.23031004124051
 30
0.0
 10
277.9449571580391
 20
22.18349897131671
 30
0.0
 10
277.8981176635257
 20
22.14691199503257
 30
0.0
 10
277.8495610271021
 20
22.12098833628182
 30
0.0
  0
LWPOLYLINE
  5
1BA
330
1F
100
AcDbEntity
  8
0
  6
Continuous
 62
     7
370
    15
100
AcDbPolyline
 90
        3
 70
   128
 43
0.0
 10
244.819050847
 20
53.2643542053
 10
244.8583378074
 20
53.2526133845
 10
244.9561342589
 20
53.2199203422
  0
LWPOLYLINE
  5
1BB
330
1F
100
AcDbEntity
  8
0
  6
Continuous
 62
     7
370
    15
100
AcDbPolyline
 90
        3
 70
   128
 43
0.0
 10
238.5846648476
 20
42.1830157312
 10
238.5069989709
 20
42.2517718557
 10
238.4837127027
 20
42.2736826594
  0
SPLINE
  5
1BC
330
1F
100
AcDbEntity
  8
0
  6
Continuous
 62
     7
370
    15
100
AcDbSpline
210
0.0
220
0.0
230
1.0
 70
     8
 71
     3
 72
     8
 73
     4
 74
     0
 42
0.000000001
 43
0.00000001
 40
0.0
 40
0.0
 40
0.0
 40
0.0
 40
1.0
 40
1.0
 40
1.0
 40
1.0
 10
282.2786538630817
 20
28.93127842936198
 30
0.0
 10
282.2708284558725
 20
28.88024845843701
 30
0.0
 10
282.2565224547574
 20
28.82772090670368
 30
0.0
 10
282.235883039738
 20
28.77385770056232
 30
0.0
  0
LINE
  5
1BD
330
1F
100
AcDbEntity
  8
0
  6
Continuous
 62
     7
370
    15
100
AcDbLine
 10
281.4421271189
 20
29.2320832401
 30
0.0
 11
282.2358830397
 21
28.7738577006
 31
0.0
  0
ARC
  5
1BE
330
1F
100
AcDbEntity
  8
0
  6
Continuous
 62
     7
370
    15
100
AcDbCircle
 10
278.1674187113
 20
25.8358355259
 30
0.0
 40
3.399755721593318
100
AcDbArc
 50
270.4503592053
 51
329.544264262
  0
SPLINE
  5
1BF
330
1F
100
AcDbEntity
  8
0
  6
Continuous
 62
     7
370
    15
100
AcDbSpline
210
0.0
220
0.0
230
1.0
 70
     8
 71
     3
 72
     8
 73
     4
 74
     0
 42
0.000000001
 43
0.00000001
 40
0.0
 40
0.0
 40
0.0
 40
0.0
 40
1.0
 40
1.0
 40
1.0
 40
1.0
 10
281.4547037893963
 20
24.23050991520615
 30
0.0
 10
281.3349452007637
 20
24.19220845064285
 30
0.0
 10
281.2160070583518
 20
24.15297473695906
 30
0.0
 10
281.098079557387
 20
24.112592660864
 30
0.0
  0
SPLINE
  5
1C0
330
1F
100
AcDbEntity
  8
0
  6
Continuous
 62
     7
370
    15
100
AcDbSpline
210
0.0
220
0.0
230
1.0
 70
     8
 71
     3
 72
     8
 73
     4
 74
     0
 42
0.000000001
 43
0.00000001
 40
0.0
 40
0.0
 40
0.0
 40
0.0
 40
1.0
 40
1.0
 40
1.0
 40
1.0
 10
281.6901472729759
 20
24.33811158322947
 30
0.0
 10
281.6142595124506
 20
24.29219502078374
 30
0.0
 10
281.5357917269079
 20
24.25644364405662
 30
0.0
 10
281.4547037893963
 20
24.23050991520615
 30
0.0
  0
SPLINE
  5
1C1
330
1F
100
AcDbEntity
  8
0
  6
Continuous
 62
     7
370
    15
100
AcDbSpline
210
0.0
220
0.0
230
1.0
 70
     8
 71
     3
 72
     8
 73
     4
 74
     0
 42
0.000000001
 43
0.00000001
 40
0.0
 40
0.0
 40
0.0
 40
0.0
 40
1.0
 40
1.0
 40
1.0
 40
1.0
 10
278.1941413692757
 20
22.43618482821145
 30
0.0
 10
278.1241814781391
 20
22.36809845448371
 30
0.0
 10
278.0562203086205
 20
22.29943736224506
 30
0.0
 10
277.9898805615822
 20
22.23031004124051
 30
0.0
  0
LINE
  5
1C2
330
1F
100
AcDbEntity
  8
0
  6
Continuous
 62
     7
370
    15
100
AcDbLine
 10
278.339589906
 20
23.336558593
 30
0.0
 11
278.5874173604
 21
23.1934908489
 31
0.0
  0
SPLINE
  5
1C3
330
1F
100
AcDbEntity
  8
0
  6
Continuous
 62
     7
370
    15
100
AcDbSpline
210
0.0
220
0.0
230
1.0
 70
     8
 71
     3
 72
    10
 73
     6
 74
     0
 42
0.000000001
 43
0.00000001
 40
0.0
 40
0.0
 40
0.0
 40
0.0
 40
0.5
 40
0.5
 40
1.0
 40
1.0
 40
1.0
 40
1.0
 10
278.5874173604415
 20
23.19349084889034
 30
0.0
 10
278.5184901908744
 20
23.08812021542543
 30
0.0
 10
278.4698766461496
 20
22.97939414269682
 30
0.0
 10
278.3984400685541
 20
22.75768187642033
 30
0.0
 10
278.3759575956012
 20
22.64498863090882
 30
0.0
 10
278.3622259767049
 20
22.53321800667104
 30
0.0
  0
LINE
  5
1C4
330
1F
100
AcDbEntity
  8
0
  6
Continuous
 62
     7
370
    15
100
AcDbLine
 10
278.3622259767
 20
22.5332180067
 30
0.0
 11
278.1941413693
 21
22.4361848282
 31
0.0
  0
ARC
  5
1C5
330
1F
100
AcDbEntity
  8
0
  6
Continuous
 62
     7
370
    15
100
AcDbCircle
 10
278.16741476
 20
25.8358423705
 30
0.0
 40
3.308365018965791
100
AcDbArc
 50
273.3757825808
 51
326.6188408865
  0
LINE
  5
1C6
330
1F
100
AcDbEntity
  8
0
  6
Continuous
 62
     7
370
    15
100
AcDbLine
 10
281.0980795574
 20
24.1125926609
 30
0.0
 11
280.92999495
 21
24.0155594824
 31
0.0
  0
SPLINE
  5
1C7
330
1F
100
AcDbEntity
  8
0
  6
Continuous
 62
     7
370
    15
100
AcDbSpline
210
0.0
220
0.0
230
1.0
 70
     8
 71
     3
 72
     8
 73
     4
 74
     0
 42
0.000000001
 43
0.00000001
 40
0.0
 40
0.0
 40
0.0
 40
0.0
 40
1.0
 40
1.0
 40
1.0
 40
1.0
 10
282.235883039738
 20
25.68871521968235
 30
0.0
 10
282.2565224547574
 20
25.62678022697049
 30
0.0
 10
282.2708284558725
 20
25.56226373567146
 30
0.0
 10
282.2786538630817
 20
25.4950197275741
 30
0.0
  0
ARC
  5
1C8
330
1F
100
AcDbEntity
  8
0
  6
Continuous
 62
     7
370
    15
100
AcDbCircle
 10
278.8979934411
 20
27.2312864601
 30
0.0
 40
3.677095729574158
100
AcDbArc
 50
335.1964677926
 51
24.8035322074
  0
ARC
  5
1C9
330
1F
100
AcDbEntity
  8
0
  6
Continuous
 62
     7
370
    15
100
AcDbCircle
 10
277.7081235155
 20
26.1009993266
 30
0.0
 40
3.037558758883197
100
AcDbArc
 50
286.8264591401
 51
313.1681643272
  0
SPLINE
  5
1CA
330
1F
100
AcDbEntity
  8
0
  6
Continuous
 62
     7
370
    15
100
AcDbSpline
210
0.0
220
0.0
230
1.0
 70
     8
 71
     3
 72
    10
 73
     6
 74
     0
 42
0.000000001
 43
0.00000001
 40
0.0
 40
0.0
 40
0.0
 40
0.0
 40
0.5
 40
0.5
 40
1.0
 40
1.0
 40
1.0
 40
1.0
 10
280.9299949499577
 20
24.01555948240453
 30
0.0
 10
280.7349281720177
 20
24.00757288114357
 30
0.0
 10
280.5394467550569
 20
23.9944997115472
 30
0.0
 10
280.1565874360245
 20
23.95332640294802
 30
0.0
 10
279.9686485103325
 20
23.92532315525876
 30
0.0
 10
279.7862449126774
 20
23.88555926370577
 30
0.0
  0
LINE
  5
1CB
330
1F
100
AcDbEntity
  8
0
  6
Continuous
 62
     7
370
    15
100
AcDbLine
 10
281.4421271189
 20
26.1469407592
 30
0.0
 11
282.2358830397
 21
25.6887152197
 31
0.0
  0
LINE
  5
1CC
330
1F
100
AcDbEntity
  8
0
  6
Continuous
 62
     7
370
    15
100
AcDbLine
 10
261.270494329
 20
22.8515033741
 30
0.0
 11
261.2798169799
 21
22.8461215223
 31
0.0
  0
ARC
  5
1CD
330
1F
100
AcDbEntity
  8
0
  6
Continuous
 62
     7
370
    15
100
AcDbCircle
 10
264.0977100951
 20
23.49840436
 30
0.0
 40
5.919642220385771
100
AcDbArc
 50
192.6964501329
 51
260.4756565155
  0
SPLINE
  5
1CE
330
1F
100
AcDbEntity
  8
0
  6
Continuous
 62
     7
370
    15
100
AcDbSpline
210
0.0
220
0.0
230
1.0
 70
     8
 71
     3
 72
     8
 73
     4
 74
     0
 42
0.000000001
 43
0.00000001
 40
0.0
 40
0.0
 40
0.0
 40
0.0
 40
0.0012389803509652
 40
0.0012389803509652
 40
0.0012389803509652
 40
0.0012389803509652
 10
258.7965504151669
 20
22.56265205383748
 30
0.0
 10
258.6388055149685
 20
22.44057560330276
 30
0.0
 10
258.4808873360024
 20
22.31881830030195
 30
0.0
 10
258.3228140010214
 20
22.19735127875751
 30
0.0
  0
SPLINE
  5
1CF
330
1F
100
AcDbEntity
  8
0
  6
Continuous
 62
     7
370
    15
100
AcDbSpline
210
0.0
220
0.0
230
1.0
 70
     8
 71
     3
 72
     8
 73
     4
 74
     0
 42
0.000000001
 43
0.00000001
 40
0.0
 40
0.0
 40
0.0
 40
0.0
 40
1.0
 40
1.0
 40
1.0
 40
1.0
 10
258.7965504151669
 20
22.56265205383748
 30
0.0
 10
259.4905309981085
 20
22.67666383511009
 30
0.0
 10
260.1841640588705
 20
22.79142458763046
 30
0.0
 10
260.8772215774434
 20
22.90728391300341
 30
0.0
  0
SPLINE
  5
1D0
330
1F
100
AcDbEntity
  8
0
  6
Continuous
 62
     7
370
    15
100
AcDbSpline
210
0.0
220
0.0
230
1.0
 70
     8
 71
     3
 72
    12
 73
     8
 74
     0
 42
0.000000001
 43
0.00000001
 40
0.0
 40
0.0
 40
0.0
 40
0.0
 40
0.2499999999999984
 40
0.2499999999999984
 40
0.4999999999999968
 40
0.4999999999999968
 40
1.0
 40
1.0
 40
1.0
 40
1.0
 10
260.8772215774434
 20
22.90728391300341
 30
0.0
 10
260.9110100933675
 20
22.91293238308766
 30
0.0
 10
260.9465818694364
 20
22.9161928466031
 30
0.0
 10
261.0171641158288
 20
22.91733043615123
 30
0.0
 10
261.0521870742778
 20
22.9153138196932
 30
0.0
 10
261.1563923695427
 20
22.9009380823536
 30
0.0
 10
261.2201028014824
 20
22.8805937837212
 30
0.0
 10
261.2704943289954
 20
22.85150337409475
 30
0.0
  0
LINE
  5
1D1
330
1F
100
AcDbEntity
  8
0
  6
Continuous
 62
     7
370
    15
100
AcDbLine
 10
255.5677023166
 20
24.4266263853
 30
0.0
 11
258.7965504152
 21
22.5626520538
 31
0.0
  0
LINE
  5
1D2
330
1F
100
AcDbEntity
  8
0
  6
Continuous
 62
     7
370
    15
100
AcDbLine
 10
255.5677023166
 20
24.4266263853
 30
0.0
 11
257.4606352036
 21
25.5193932807
 31
0.0
  0
LINE
  5
1D3
330
1F
100
AcDbEntity
  8
0
  6
Continuous
 62
     7
370
    15
100
AcDbLine
 10
279.7862449127
 20
23.8855592637
 30
0.0
 11
279.5384174583
 21
24.0286270079
 31
0.0
  0
LINE
  5
1D4
330
1F
100
AcDbEntity
  8
0
  6
Continuous
 62
     7
370
    15
100
AcDbLine
 10
255.1342690691
 20
24.1763700271
 30
0.0
 11
255.5677023166
 21
24.4266263853
 31
0.0
  0
LINE
  5
1D5
330
1F
100
AcDbEntity
  8
0
  6
Continuous
 62
     7
370
    15
100
AcDbLine
 10
258.322814001
 20
22.1973512788
 30
0.0
 11
255.2910936767
 21
23.9475261685
 31
0.0
  0
SPLINE
  5
1D6
330
1F
100
AcDbEntity
  8
0
  6
Continuous
 62
     7
370
    15
100
AcDbSpline
210
0.0
220
0.0
230
1.0
 70
     8
 71
     3
 72
     8
 73
     4
 74
     0
 42
0.000000001
 43
0.00000001
 40
0.0
 40
0.0
 40
0.0
 40
0.0
 40
1.0
 40
1.0
 40
1.0
 40
1.0
 10
255.2910936766841
 20
23.94752616847745
 30
0.0
 10
255.2110688771694
 20
23.99372350189941
 30
0.0
 10
255.1565920797875
 20
24.0769110242641
 30
0.0
 10
255.134269069123
 20
24.17637002710523
 30
0.0
  0
LWPOLYLINE
  5
1D7
330
1F
100
AcDbEntity
  8
0
  6
Continuous
 62
     7
370
    15
100
AcDbPolyline
 90
        3
 70
   128
 43
0.0
 10
258.1069118974
 20
20.0845593398
 10
257.5577555215
 20
20.4492388555
 10
257.011981045
 20
20.9235130657
  0
ELLIPSE
  5
1D8
330
1F
100
AcDbEntity
  8
0
  6
Continuous
 62
     7
370
    15
100
AcDbEllipse
 10
257.2263206286
 20
26.3078928552
 30
0.0
 11
-6.005970391242953E-5
 21
0.8534489614827194
 31
0.0
210
0.0
220
0.0
230
1.0
 40
0.7174342186
 41
3.534193645557373
 42
5.104989972352293
  0
ELLIPSE
  5
1D9
330
1F
100
AcDbEntity
  8
0
  6
Continuous
 62
     7
370
    15
100
AcDbEllipse
 10
257.107081813
 20
26.2390353751
 30
0.0
 11
0.2600075789209768
 21
0.9705436209909308
 31
0.0
210
0.0
220
0.0
230
1.0
 40
0.5176380889
 41
3.619174351347831
 42
5.189970678142574
  0
LWPOLYLINE
  5
1DA
330
1F
100
AcDbEntity
  8
0
  6
Continuous
 62
     7
370
     0
100
AcDbPolyline
 90
       46
 70
   128
 43
0.0
 10
263.683174878
 20
22.6012683987
 10
263.7220221223
 20
23.6797187865
 10
263.8382839599
 20
24.795250988
 10
264.0311227215
 20
25.9398275682
 10
264.2991489996
 20
27.1052018267
 10
264.6404316585
 20
28.2829772152
 10
265.052511749
 20
29.464667835
 10
265.5324202244
 20
30.6417595781
 10
266.0766993334
 20
31.8057714716
 10
266.6814275324
 20
32.948316783
 10
267.3422477409
 20
34.0611634473
 10
268.0543987341
 20
35.1362933787
 10
268.8127494478
 20
36.1659602415
 10
269.6118359478
 20
37.1427452622
 10
270.4459007975
 20
38.0596106825
 10
271.3089345405
 20
38.9099504659
 10
272.194718999
 20
39.6876378948
 10
273.0968720756
 20
40.3870697136
 10
274.0088937368
 20
41.0032064999
 10
274.9242128455
 20
41.531608974
 10
275.8362345067
 20
41.968469984
 10
276.7383875833
 20
42.3106419364
 10
277.6241720418
 20
42.5556594743
 10
278.4872057848
 20
42.7017572408
 10
279.3212706345
 20
42.7478825982
 10
280.1203571345
 20
42.6937032121
 10
280.8787078482
 20
42.5396094463
 10
281.5908588414
 20
42.28671155
 10
282.2516790499
 20
41.9368316582
 10
282.8564072489
 20
41.4924906636
 10
283.4006863578
 20
40.9568900532
 10
283.8805948333
 20
40.3338888417
 10
284.2926749238
 20
39.6279757671
 10
284.6339575827
 20
38.8442369494
 10
284.9019838607
 20
37.9883192446
 10
285.0948226224
 20
37.0663895593
 10
285.21108446
 20
36.0850904182
 10
285.2499317042
 20
35.051492104
 10
285.21108446
 20
33.9730417163
 10
285.0948226224
 20
32.8575095148
 10
284.9019838607
 20
31.7129329345
 10
284.6339575827
 20
30.547558676
 10
284.2926749238
 20
29.3697832876
 10
283.8805948333
 20
28.1880926678
 10
283.4006863578
 20
27.0110009247
 10
282.9694967806
 20
26.0768296772
  0
LWPOLYLINE
  5
1DB
330
1F
100
AcDbEntity
  8
0
  6
Continuous
 62
     7
370
     0
100
AcDbPolyline
 90
       28
 70
   128
 43
0.0
 10
281.0997676489
 20
22.8380128922
 10
280.8787078482
 20
22.516467124
 10
280.1203571345
 20
21.4868002613
 10
279.3212706345
 20
20.5100152406
 10
278.4872057848
 20
19.5931498203
 10
277.6241720418
 20
18.7428100369
 10
276.7383875833
 20
17.9651226079
 10
275.8362345067
 20
17.2656907892
 10
274.9242128455
 20
16.6495540029
 10
274.0088937368
 20
16.1211515288
 10
273.0968720756
 20
15.6842905188
 10
272.194718999
 20
15.3421185664
 10
271.3089345405
 20
15.0971010285
 10
270.4459007975
 20
14.951003262
 10
269.6118359478
 20
14.9048779046
 10
268.8127494478
 20
14.9590572907
 10
268.0543987341
 20
15.1131510564
 10
267.3422477409
 20
15.3660489528
 10
266.6814275324
 20
15.7159288446
 10
266.0766993334
 20
16.1602698392
 10
265.5324202244
 20
16.6958704496
 10
265.052511749
 20
17.3188716611
 10
264.6404316585
 20
18.0247847356
 10
264.2991489996
 20
18.8085235534
 10
264.0311227215
 20
19.6644412582
 10
263.8382839599
 20
20.5863709434
 10
263.7220221223
 20
21.5676700845
 10
263.683174878
 20
22.6012683987
  0
LWPOLYLINE
  5
1DC
330
1F
100
AcDbEntity
  8
0
  6
Continuous
 62
     7
370
     0
100
AcDbPolyline
 90
       28
 70
   128
 43
0.0
 10
262.9760680969
 20
22.6012683987
 10
263.0151268842
 20
23.6999569493
 10
263.132029277
 20
24.8360353051
 10
263.3259552889
 20
26.0015346927
 10
263.5955446682
 20
27.1882799713
 10
263.9389064392
 20
28.3879469755
 10
264.3536321658
 20
29.5921209032
 10
264.8368128449
 20
30.7923553394
 10
265.3850593113
 20
31.9802315021
 10
265.9945260099
 20
33.1474172934
 10
266.6609379698
 20
34.2857257435
 10
267.3796207898
 20
35.3871724366
 10
268.1455334263
 20
36.4440315156
 10
268.9533035525
 20
37.4488898733
 10
269.7972652414
 20
38.3946991503
 10
270.671498708
 20
39.2748251742
 10
271.5698718328
 20
40.0830944932
 10
272.4860831738
 20
40.8138376788
 10
273.4137061666
 20
41.4619290927
 10
274.3462342026
 20
42.0228228391
 10
275.2771262675
 20
42.4925846514
 10
276.1998528224
 20
42.8679194882
 10
277.1079416034
 20
43.1461946451
 10
277.9950230202
 20
43.3254582219
 10
278.8548748341
 20
43.4044528133
 10
279.6814658024
 20
43.3826243292
 10
280.4689979833
 20
43.2601258806
 10
280.6843457
 20
43.2071940256
  0
ARC
  5
1DD
330
1F
100
AcDbEntity
  8
0
  6
Continuous
 62
     7
370
     0
100
AcDbCircle
 10
271.7484952876
 20
22.0252609057
 30
0.0
 40
8.791317503546493
100
AcDbArc
 50
176.2432869865
 51
220.8881985468
  0
LWPOLYLINE
  5
1DE
330
1F
100
AcDbEntity
  8
0
  6
Continuous
 62
     7
370
     0
100
AcDbPolyline
 90
       26
 70
   128
 43
0.0
 10
269.5168058228
 20
25.96895186
 10
269.55583606
 20
26.7078614384
 10
269.6723112415
 20
27.480181324
 10
269.864394484
 20
28.2737315708
 10
270.1290565201
 20
29.0759974175
 10
270.4621234714
 20
29.8743266524
 10
270.8583426731
 20
30.6561291465
 10
271.3114655116
 20
31.4090754075
 10
271.8143459692
 20
32.1212910231
 10
272.3590533207
 20
32.7815439275
 10
272.9369972056
 20
33.379421538
 10
273.5390631037
 20
33.9054949676
 10
274.1557560761
 20
34.351467724
 10
274.7773505062
 20
34.7103065504
 10
275.3940434786
 20
34.9763523442
 10
275.9961093767
 20
35.1454094043
 10
276.5740532616
 20
35.2148115998
 10
277.118760613
 20
35.1834644167
 10
277.6216410706
 20
35.0518622188
 10
278.0747639092
 20
34.8220804513
 10
278.4709831109
 20
34.4977429101
 10
278.8040500621
 20
34.0839645918
 10
279.0687120983
 20
33.5872710277
 10
279.2607953408
 20
33.015495372
 10
279.3772705222
 20
32.3776548685
 10
279.4160389129
 20
31.7424493263
  0
LWPOLYLINE
  5
1DF
330
1F
100
AcDbEntity
  8
0
  6
Continuous
 62
     7
370
     0
100
AcDbPolyline
 90
       14
 70
   128
 43
0.0
 10
274.4164452497
 20
23.0819607025
 10
274.1557560761
 20
22.9424539524
 10
273.5390631037
 20
22.6764081586
 10
272.9369972056
 20
22.5073510985
 10
272.3590533207
 20
22.4379489029
 10
271.8143459692
 20
22.469296086
 10
271.3114655116
 20
22.600898284
 10
270.8583426731
 20
22.8306800514
 10
270.4621234714
 20
23.1550175927
 10
270.1290565201
 20
23.568795911
 10
269.864394484
 20
24.0654894751
 10
269.6723112415
 20
24.6372651307
 10
269.55583606
 20
25.2751056343
 10
269.5168058228
 20
25.96895186
  0
LWPOLYLINE
  5
1E0
330
1F
100
AcDbEntity
  8
0
  6
Continuous
 62
     7
370
     0
100
AcDbPolyline
 90
       21
 70
   128
 43
0.0
 10
260.8772215774
 20
29.4804374487
 10
261.1715489036
 20
30.5838859546
 10
261.5377276834
 20
31.6942795956
 10
261.9727614208
 20
32.8025318531
 10
262.4730901691
 20
33.8995737321
 10
263.0346196629
 20
34.9764279736
 10
263.6527548217
 20
36.0242825171
 10
264.3224373524
 20
37.0345626111
 10
265.0381871419
 20
37.9990009813
 10
265.794147102
 20
38.9097054834
 10
266.5841310985
 20
39.7592236851
 10
267.4016745732
 20
40.5406038511
 10
268.2400874448
 20
41.2474518298
 10
269.0925088544
 20
41.8739833778
 10
269.9519633093
 20
42.4150714929
 10
270.8114177642
 20
42.8662883696
 10
271.6638391739
 20
43.2239416323
 10
272.5022520454
 20
43.4851045504
 10
273.3197955201
 20
43.6476399885
 10
274.1097795166
 20
43.7102178945
 10
274.4964686974
 20
43.7036255317
  0
LWPOLYLINE
  5
1E1
330
1F
100
AcDbEntity
  8
0
  6
Continuous
 62
     7
370
     0
100
AcDbPolyline
 90
       24
 70
   128
 43
0.0
 10
255.2910936767
 20
31.1595146
 10
255.5979091544
 20
32.3809149871
 10
255.9810680765
 20
33.6121964716
 10
256.4377532757
 20
34.8443060836
 10
256.9646069841
 20
36.0681847647
 10
257.5577555215
 20
37.2748339739
 10
258.2128377764
 20
38.4553818497
 10
258.9250372712
 20
39.60114844
 10
259.6891175746
 20
40.7037095213
 10
260.4994608034
 20
41.7549585377
 10
261.3501089269
 20
42.7471662042
 10
262.2348075735
 20
43.6730373358
 10
263.1470520162
 20
44.5257644857
 10
264.0801349978
 20
45.2990779963
 10
265.0271960465
 20
45.9872920972
 10
265.9812719169
 20
46.5853467095
 10
266.9353477873
 20
47.0888446499
 10
267.882408836
 20
47.494083961
 10
268.8154918176
 20
47.7980851297
 10
269.7277362603
 20
47.9986129942
 10
270.6124349069
 20
48.0941931778
 10
271.4630830304
 20
48.0841229293
 10
272.2734262592
 20
47.9684762899
 10
272.6299741612
 20
47.8803202742
  0
LWPOLYLINE
  5
1E2
330
1F
100
AcDbEntity
  8
0
  6
Continuous
 62
     7
370
     0
100
AcDbPolyline
 90
       19
 70
   128
 43
0.0
 10
261.270494329
 20
29.4246569098
 10
261.5751792225
 20
30.5484998393
 10
261.9551700942
 20
31.6788297622
 10
262.4071479381
 20
32.8057738837
 10
262.9271649826
 20
33.9194889822
 10
263.5106791718
 20
35.0102473841
 10
264.1525938383
 20
36.0685219296
 10
264.8473022193
 20
37.0850691871
 10
265.5887364286
 20
38.0510101894
 10
266.3704204564
 20
38.9579079862
 10
267.1855267334
 20
39.7978413365
 10
268.0269357657
 20
40.563473896
 10
268.8872983196
 20
41.2481182958
 10
269.7590996133
 20
41.845794553
 10
270.6347249539
 20
42.3512823025
 10
271.5065262476
 20
42.7601663937
 10
272.3668888015
 20
43.0688754546
 10
273.2082978338
 20
43.2747130854
 10
273.6314034244
 20
43.3399132834
  0
ARC
  5
1E3
330
1F
100
AcDbEntity
  8
0
  6
Continuous
 62
     7
370
     0
100
AcDbCircle
 10
274.8043848291
 20
25.7026545492
 30
0.0
 40
2.473528296589962
100
AcDbArc
 50
173.8196216534
 51
234.8681979532
  0
LWPOLYLINE
  5
1E4
330
1F
100
AcDbEntity
  8
0
  6
Continuous
 62
     7
370
     0
100
AcDbPolyline
 90
       17
 70
   128
 43
0.0
 10
278.3805636851
 20
32.3402164515
 10
278.085136188
 20
32.4745140365
 10
277.6485338065
 20
32.5662077109
 10
277.1724424324
 20
32.5561226116
 10
276.6674971603
 20
32.4444840231
 10
276.1449776332
 20
32.2337857669
 10
275.6165560738
 20
31.9287344939
 10
275.0940365467
 20
31.5361445454
 10
274.5890912746
 20
31.0647857323
 10
274.1129999005
 20
30.5251874314
 10
273.676397519
 20
29.9294033771
 10
273.2890371059
 20
29.2907424008
 10
272.9595716525
 20
28.6234711332
 10
272.6953608729
 20
27.9424953119
 10
272.5023067991
 20
27.2630268115
 10
272.3847219402
 20
26.6002438353
 10
272.3452329476
 20
25.96895186
  0
LINE
  5
1E5
330
1F
100
AcDbEntity
  8
0
  6
Continuous
 62
     7
370
     0
100
AcDbLine
 10
261.2798169799
 20
22.8461215223
 30
0.0
 11
261.6855982212
 21
23.0803740467
 31
0.0
  0
LWPOLYLINE
  5
1E6
330
1F
100
AcDbEntity
  8
0
  6
Continuous
 62
     7
370
     0
100
AcDbPolyline
 90
        3
 70
   128
 43
0.0
 10
262.2326976176
 20
22.8258336142
 10
262.1540516737
 20
22.8547662482
 10
261.6855982212
 20
23.0803740467
  0
ARC
  5
1E7
330
1F
100
AcDbEntity
  8
0
  6
Continuous
 62
     7
370
     0
100
AcDbCircle
 10
260.9981001472
 20
24.136694653
 30
0.0
 40
1.260343931249459
100
AcDbArc
 50
303.0577786045
 51
346.2438194889
  0
LINE
  5
1E8
330
1F
100
AcDbEntity
  8
0
  6
Continuous
 62
     7
370
     0
100
AcDbLine
 10
257.7920060535
 20
26.6344560999
 30
0.0
 11
262.1795955606
 21
24.1015545918
 31
0.0
  0
LINE
  5
1E9
330
1F
100
AcDbEntity
  8
0
  6
Continuous
 62
     7
370
     0
100
AcDbLine
 10
257.672767238
 20
26.5655986198
 30
0.0
 11
257.7920060535
 21
26.6344560999
 31
0.0
  0
LINE
  5
1EA
330
1F
100
AcDbEntity
  8
0
  6
Continuous
 62
     7
370
     0
100
AcDbLine
 10
257.4164410298
 20
29.5968654069
 30
0.0
 11
257.4216289245
 21
29.9295308712
 31
0.0
  0
ARC
  5
1EB
330
1F
100
AcDbEntity
  8
0
  6
Continuous
 62
     7
370
     0
100
AcDbCircle
 10
266.0205532141
 20
29.5232100036
 30
0.0
 40
8.604427441706568
100
AcDbArc
 50
179.5095321196
 51
192.163968291
  0
LINE
  5
1EC
330
1F
100
AcDbEntity
  8
0
  6
Continuous
 62
     7
370
     0
100
AcDbLine
 10
277.2065920682
 20
22.6824928635
 30
0.0
 11
277.9898805616
 21
22.2303100412
 31
0.0
  0
LWPOLYLINE
  5
1ED
330
1F
100
AcDbEntity
  8
0
  6
Continuous
 62
     7
370
     0
100
AcDbPolyline
 90
       18
 70
   128
 43
0.0
 10
237.5709251315
 20
44.8957448545
 10
237.6096784386
 20
45.6008832836
 10
237.72527528
 20
46.3387002146
 10
237.9157377617
 20
47.0965713953
 10
238.1778070179
 20
47.8615294396
 10
238.5069989709
 20
48.6204857034
 10
238.8976810551
 20
49.3604542345
 10
239.3431685917
 20
50.0687739662
 10
239.8358391656
 20
50.7333253515
 10
240.3672630465
 20
51.342737732
 10
240.9283474245
 20
51.8865838929
 10
241.5094919904
 20
52.3555584756
 10
242.1007531996
 20
52.7416371949
 10
242.6920144087
 20
53.0382141369
 10
243.2731589746
 20
53.240214788
 10
243.8342433527
 20
53.3441828609
 10
244.3656672336
 20
53.3483394331
 10
244.819050847
 20
53.2643542053
  0
ARC
  5
1EE
330
1F
100
AcDbEntity
  8
0
  6
Continuous
 62
     7
370
     0
100
AcDbCircle
 10
241.1675727796
 20
44.6778932785
 30
0.0
 40
3.603239322259418
100
AcDbArc
 50
176.5337875941
 51
221.8540867457
  0
LWPOLYLINE
  5
1EF
330
1F
100
AcDbEntity
  8
0
  6
Continuous
 62
     7
370
     0
100
AcDbPolyline
 90
        3
 70
   128
 43
0.0
 10
261.7374837675
 20
21.7570650824
 10
261.5751792225
 20
22.0794421347
 10
261.270494329
 20
22.8515033741
  0
ARC
  5
1F0
330
1F
100
AcDbEntity
  8
0
  6
Continuous
 62
     7
370
     0
100
AcDbCircle
 10
266.9192147086
 20
24.7846601705
 30
0.0
 40
6.326944176270984
100
AcDbArc
 50
197.2611351492
 51
214.0281525679
  0
LINE
  5
1F1
330
1F
100
AcDbEntity
  8
0
  6
Continuous
 62
     7
370
     0
100
AcDbLine
 10
261.6855982212
 20
23.0803740467
 30
0.0
 11
257.4606352036
 21
25.5193932807
 31
0.0
  0
LINE
  5
1F2
330
1F
100
AcDbEntity
  8
0
  6
Continuous
 62
     7
370
     0
100
AcDbLine
 10
280.6714152961
 20
24.6826927374
 30
0.0
 11
281.4547037894
 21
24.2305099152
 31
0.0
  0
ARC
  5
1F3
330
1F
100
AcDbEntity
  8
0
  6
Continuous
 62
     7
370
     0
100
AcDbCircle
 10
261.9850535973
 20
25.7552222978
 30
0.0
 40
6.933748244316101
100
AcDbArc
 50
195.112183421
 51
224.1739785086
  0
OLE2FRAME
  5
1F4
330
1F
100
AcDbEntity
  8
0
100
AcDbOle2Frame
 70
     2
  3
Paintbrush-Bild
 10
13.8511154363
 20
38.264191557
 30
0.0
 11
51.6290888628
 21
31.9806341108
 31
0.0
 71
     2
 72
     0
 73
     1
 90
    12928
310
80552BED0767C5B32B40DDAF6807D121434000000000000000006FFBDDFB85D0
310
4940DDAF6807D121434000000000000000006FFBDDFB85D04940416F4BD60AFB
310
3F4000000000000000002BED0767C5B32B40416F4BD60AFB3F40000000000000
310
0000000000000100000000010000010000000100000000000100000000320000
310
D0CF11E0A1B11AE1000000000000000000000000000000003E000300FEFF0900
310
0600000000000000000000000100000001000000000000000010000002000000
310
01000000FEFFFFFF0000000000000000FFFFFFFFFFFFFFFFFFFFFFFFFFFFFFFF
310
FFFFFFFFFFFFFFFFFFFFFFFFFFFFFFFFFFFFFFFFFFFFFFFFFFFFFFFFFFFFFFFF
310
FFFFFFFFFFFFFFFFFFFFFFFFFFFFFFFFFFFFFFFFFFFFFFFFFFFFFFFFFFFFFFFF
310
FFFFFFFFFFFFFFFFFFFFFFFFFFFFFFFFFFFFFFFFFFFFFFFFFFFFFFFFFFFFFFFF
310
FFFFFFFFFFFFFFFFFFFFFFFFFFFFFFFFFFFFFFFFFFFFFFFFFFFFFFFFFFFFFFFF
310
FFFFFFFFFFFFFFFFFFFFFFFFFFFFFFFFFFFFFFFFFFFFFFFFFFFFFFFFFFFFFFFF
310
FFFFFFFFFFFFFFFFFFFFFFFFFFFFFFFFFFFFFFFFFFFFFFFFFFFFFFFFFFFFFFFF
310
FFFFFFFFFFFFFFFFFFFFFFFFFFFFFFFFFFFFFFFFFFFFFFFFFFFFFFFFFFFFFFFF
310
FFFFFFFFFFFFFFFFFFFFFFFFFFFFFFFFFFFFFFFFFFFFFFFFFFFFFFFFFFFFFFFF
310
FFFFFFFFFFFFFFFFFFFFFFFFFFFFFFFFFFFFFFFFFFFFFFFFFFFFFFFFFFFFFFFF
310
FFFFFFFFFFFFFFFFFFFFFFFFFFFFFFFFFFFFFFFFFFFFFFFFFFFFFFFFFFFFFFFF
310
FFFFFFFFFFFFFFFFFFFFFFFFFFFFFFFFFFFFFFFFFFFFFFFFFFFFFFFFFFFFFFFF
310
FFFFFFFFFFFFFFFFFFFFFFFFFFFFFFFFFFFFFFFFFFFFFFFFFFFFFFFFFFFFFFFF
310
FFFFFFFFFFFFFFFFFFFFFFFFFFFFFFFFFFFFFFFFFFFFFFFFFFFFFFFFFFFFFFFF
310
FDFFFFFFFEFFFFFFFEFFFFFFFEFFFFFF05000000060000000700000008000000
310
090000000A0000000B0000000C0000000D0000000E0000000F00000010000000
310
11000000120000001300000014000000150000001600000017000000FEFFFFFF
310
FFFFFFFFFFFFFFFFFFFFFFFFFFFFFFFFFFFFFFFFFFFFFFFFFFFFFFFFFFFFFFFF
310
FFFFFFFFFFFFFFFFFFFFFFFFFFFFFFFFFFFFFFFFFFFFFFFFFFFFFFFFFFFFFFFF
310
FFFFFFFFFFFFFFFFFFFFFFFFFFFFFFFFFFFFFFFFFFFFFFFFFFFFFFFFFFFFFFFF
310
FFFFFFFFFFFFFFFFFFFFFFFFFFFFFFFFFFFFFFFFFFFFFFFFFFFFFFFFFFFFFFFF
310
FFFFFFFFFFFFFFFFFFFFFFFFFFFFFFFFFFFFFFFFFFFFFFFFFFFFFFFFFFFFFFFF
310
FFFFFFFFFFFFFFFFFFFFFFFFFFFFFFFFFFFFFFFFFFFFFFFFFFFFFFFFFFFFFFFF
310
FFFFFFFFFFFFFFFFFFFFFFFFFFFFFFFFFFFFFFFFFFFFFFFFFFFFFFFFFFFFFFFF
310
FFFFFFFFFFFFFFFFFFFFFFFFFFFFFFFFFFFFFFFFFFFFFFFFFFFFFFFFFFFFFFFF
310
FFFFFFFFFFFFFFFFFFFFFFFFFFFFFFFFFFFFFFFFFFFFFFFFFFFFFFFFFFFFFFFF
310
FFFFFFFFFFFFFFFFFFFFFFFFFFFFFFFFFFFFFFFFFFFFFFFFFFFFFFFFFFFFFFFF
310
FFFFFFFFFFFFFFFFFFFFFFFFFFFFFFFFFFFFFFFFFFFFFFFFFFFFFFFFFFFFFFFF
310
FFFFFFFFFFFFFFFFFFFFFFFFFFFFFFFFFFFFFFFFFFFFFFFFFFFFFFFFFFFFFFFF
310
FFFFFFFFFFFFFFFFFFFFFFFFFFFFFFFFFFFFFFFFFFFFFFFFFFFFFFFFFFFFFFFF
310
52006F006F007400200045006E00740072007900000000000000000000000000
310
0000000000000000000000000000000000000000000000000000000000000000
310
16000500FFFFFFFFFFFFFFFF020000000A00030000000000C000000000000046
310
000000000000000000000000205646179D15D20103000000C000000000000000
310
01004F006C006500000000000000000000000000000000000000000000000000
310
0000000000000000000000000000000000000000000000000000000000000000
310
0A000200FFFFFFFFFFFFFFFFFFFFFFFF00000000000000000000000000000000
310
0000000000000000000000000000000000000000000000001400000000000000
310
010043006F006D0070004F0062006A0000000000000000000000000000000000
310
0000000000000000000000000000000000000000000000000000000000000000
310
120002010100000003000000FFFFFFFF00000000000000000000000000000000
310
0000000000000000000000000000000000000000010000004D00000000000000
310
01004F006C006500310030004E00610074006900760065000000000000000000
310
0000000000000000000000000000000000000000000000000000000000000000
310
1A000200FFFFFFFFFFFFFFFFFFFFFFFF00000000000000000000000000000000
310
0000000000000000000000000000000000000000040000002426000000000000
310
FEFFFFFF02000000FEFFFFFFFFFFFFFFFFFFFFFFFFFFFFFFFFFFFFFFFFFFFFFF
310
FFFFFFFFFFFFFFFFFFFFFFFFFFFFFFFFFFFFFFFFFFFFFFFFFFFFFFFFFFFFFFFF
310
FFFFFFFFFFFFFFFFFFFFFFFFFFFFFFFFFFFFFFFFFFFFFFFFFFFFFFFFFFFFFFFF
310
FFFFFFFFFFFFFFFFFFFFFFFFFFFFFFFFFFFFFFFFFFFFFFFFFFFFFFFFFFFFFFFF
310
FFFFFFFFFFFFFFFFFFFFFFFFFFFFFFFFFFFFFFFFFFFFFFFFFFFFFFFFFFFFFFFF
310
FFFFFFFFFFFFFFFFFFFFFFFFFFFFFFFFFFFFFFFFFFFFFFFFFFFFFFFFFFFFFFFF
310
FFFFFFFFFFFFFFFFFFFFFFFFFFFFFFFFFFFFFFFFFFFFFFFFFFFFFFFFFFFFFFFF
310
FFFFFFFFFFFFFFFFFFFFFFFFFFFFFFFFFFFFFFFFFFFFFFFFFFFFFFFFFFFFFFFF
310
FFFFFFFFFFFFFFFFFFFFFFFFFFFFFFFFFFFFFFFFFFFFFFFFFFFFFFFFFFFFFFFF
310
FFFFFFFFFFFFFFFFFFFFFFFFFFFFFFFFFFFFFFFFFFFFFFFFFFFFFFFFFFFFFFFF
310
FFFFFFFFFFFFFFFFFFFFFFFFFFFFFFFFFFFFFFFFFFFFFFFFFFFFFFFFFFFFFFFF
310
FFFFFFFFFFFFFFFFFFFFFFFFFFFFFFFFFFFFFFFFFFFFFFFFFFFFFFFFFFFFFFFF
310
FFFFFFFFFFFFFFFFFFFFFFFFFFFFFFFFFFFFFFFFFFFFFFFFFFFFFFFFFFFFFFFF
310
FFFFFFFFFFFFFFFFFFFFFFFFFFFFFFFFFFFFFFFFFFFFFFFFFFFFFFFFFFFFFFFF
310
FFFFFFFFFFFFFFFFFFFFFFFFFFFFFFFFFFFFFFFFFFFFFFFFFFFFFFFFFFFFFFFF
310
FFFFFFFFFFFFFFFFFFFFFFFFFFFFFFFFFFFFFFFFFFFFFFFFFFFFFFFFFFFFFFFF
310
0100000200000000000000000000000000000000000000000000000000000000
310
0000000000000000000000000000000000000000000000000000000000000000
310
0100FEFF030A0000FFFFFFFF0A00030000000000C00000000000004607000000
310
5042727573680007000000504272757368000700000050427275736800F439B2
310
7100000000000000000000000000000000000000000000000000000000000000
310
0000000000000000000000000000000000000000000000000000000000000000
310
0000000000000000000000000000000000000000000000000000000000000000
310
0000000000000000000000000000000000000000000000000000000000000000
310
0000000000000000000000000000000000000000000000000000000000000000
310
0000000000000000000000000000000000000000000000000000000000000000
310
0000000000000000000000000000000000000000000000000000000000000000
310
0000000000000000000000000000000000000000000000000000000000000000
310
0000000000000000000000000000000000000000000000000000000000000000
310
0000000000000000000000000000000000000000000000000000000000000000
310
0000000000000000000000000000000000000000000000000000000000000000
310
0000000000000000000000000000000000000000000000000000000000000000
310
20260000424D0E260000000000003E00000028000000B40200006E0000000100
310
01000000000000000000130B0000130B00000200000002000000000000FFFFFF
310
FFFFFFFFFFFFFFFFFFFFFFFFFFFFFFFFFFFFFFFFFFFFFFFFFFFFFFFFFFFFFFFF
310
FFFFFFFFFFFFFFFFFFFFFFFFFFFFFFFFFFFFFFFFFFFFFFFFFFFFFFFFFFFFFFFF
310
FFFFFFFFFFFFFFFFFFFFFFFFFFFFFFFFFFFFFFFFFFFFFFFFF000FFFFFFFFFFFF
310
FFFFFFFFFFFFFFFFFFFFFFFFFFFFFFFFFFFFFFFFFFFFFFFFFFFFFFFFFFFFFFFF
310
FFFFFFFFFFFFFFFFFFFFFFFFFFFFFFFFFFFFFFFFFFFFFFFFFFFFFFFFFFFFFFFF
310
FFFFFFFFFFFFFFFFFFFFFFFFFFFFFFFFF000FFFFFFFFFFFFFFFFFFFFFFFFFFFF
310
FFFFFFFFFFFFFFFFFFFFFFFFFFFFFFFFFFFFFFFFFFFFFFFFFFFFFFFFFFFFFFFF
310
FFFFFFFFFFFFFFFFFFFFFFFFFFFFFFFFFFFFFFFFFFFFFFFFFFFFFFFFFFFFFFFF
310
FFFFFFFFFFFFFFFFF000FFFFFFFFFFFFFFFFFFFFFFFFFFFFFFFFFFFFFFFFFFFF
310
FFFFFFFFFFFFFFFFFFFFFFFFFFFFFFFFFFFFFFFFFFFFFFFFFFFFFFFFFFFFFFFF
310
FFFFFFFFFFFFFFFFFFFFFFFFFFFFFFFFFFFFFFFFFFFFFFFFFFFFFFFFFFFFFFFF
310
F000FFFFFFFFFFFFFFFFFFFFFFFFFFFFFFFFFFFFFFFFFFFFFFFFFFFFFFFFFFFF
310
FFFFFFFFFFFFFFFFFFFFFFFFFFFFFFFFFFFFFFFFFFFFFFFFFFFFFFFFFFFFFFFF
310
FFFFFFFFFFFFFFFFFFFFFFFFFFFFFFFFFFFFFFFFFFFFFFFFF000FFFFFFFFFFFF
310
FFFFFFFFFFFFFFFFFFFFFFFFFFFFFFFFFFFFFFFFFFFFFFFFFFFFFFFFFFFFFFFF
310
FFFFFFFFFFFFFFFFFFFFFFFFFFFFFFFFFFFFFFFFFFFFFFFFFFFFFFFFFFFFFFFF
310
FFFFFFFFFFFFFFFFFFFFFFFFFFFFFFFFF000FFFFFFFFFFFFFFFFFFFFFFFFFFFF
310
FFFFFFFFFFFFFFFFFFFFFFFFFFFFFFFFFFFFFFFFFFFFFFFFFFFFFFFFFFFFFFFF
310
FFFFFFFFFFFFFFFFFFFFFFFFFFFFFFFFFFFFFFFFFFFFFFFFFFFFFFFFFFFFFFFF
310
FFFFFFFFFFFFFFFFF000FFFFFFFFFFFFFFFFFFFFFFFFFFFFFFFFFFFFFFFFFFFF
310
FFFFFFFFFFFFFFFFFFFFFFFFFFFFFFFFFFFFFFFFFFFFFFFFFFFFFFFFFFFFFFFF
310
FFFFFFFFFFFFFFFFFFFFFFFFFFFFFFFFFFFFFFFFFFFFFFFFFFFFFFFFFFFFFFFF
310
F000FFFFFFFFFFFFFFFFFFFFFFFFFFFFFFFFFFFFFFFFFFFFFFFFFFFFFFFFFFFF
310
FFFFFFFFFFFFFFFFFFFFFFFFFFFFFFFFFFFFFFFFFFFFFFFFFFFFFFFFFFFFFFFF
310
FFFFFFFFFFFFFFFFFFFFFFFFFFFFFFFFFFFFFFFFFFFFFFFFF000FFFFFFFFFFFF
310
FFFFFFFFFFFFFFFFFFFFFFFFFFFFFFFFFFFFFFFFFFFFFFFFFFFFFFFFFFFFFFFF
310
FFFFFFFFFFFFFFFFFFFFFFFFFFFFFFFFFFFFFFFFFFFFFFFFFFFFFFFFFFFFFFFF
310
FFFFFFFFFFFFFFFFFFFFFFFFFFFFFFFFF000FFFFFFFFFFFFFFFFFFFFFFFFFFFF
310
FFFFFFFFFFFFFFFFFFFFFFFFFFFFFFFFFFFFFFFFFFFFFFFFFFFFFFFFFFFFFFFF
310
FFFFFFFFFFFFFFFFFFFFFFFFFFFFFFFFFFFFFFFFFFFFFFFFFFFFFFFFFFFFFFFF
310
FFFFFFFFFFFFFFFFF000FFFFFFFFFFFFFFFFFFFFFFFFFFFFFFFFFFFFFFFFFFFF
310
FFFFFFFFFFFFFFFFFFFFFFFFFFFFFFFFFFFFFFFFFFFFFFFFFFFFFFFFFFFFFFFF
310
FFFFFFFFFFFFFFFFFFFFFFFFFFFFFFFFFFFFFFFFFFFFFFFFFFFFFFFFFFFFFFFF
310
F000FFFFFFFFFFFFFFFFFFFFFFFFFFFFFFFFFFFFFFFFFFFFFFFFFFFFFFFFFFFF
310
FFFFFFFFFFFFFFFFFFFFFFFFFFFFFFFFFFFFFFFFFFFFFFFFFFFFFFFFFFFFFFFF
310
FFFFFFFFFFFFFFFFFFFFFFFFFFFFFFFFFFFFFFFFFFFFFFFFF000FFFFFFFFFFFF
310
FFFFFFFFFFFFFFFFFFFFFFFFFFFFFFFFFFFFFFFFFFFFFFFFFFFFFFFFFFFFFFFF
310
FFFFFFFFFFFFFFFFFFFFFFFFFFFFFFFFFFFFFFFFFFFFFFFFFFFFFFFFFFFFFFFF
310
FFFFFFFFFFFFFFFFFFFFFFFFFFFFFFFFF000FFFFFFFFFFFFFFFFFFFFFFFFFFFF
310
FFFFFFFFFFFFFFFFFFFFFFFFFFFFFFFFFFFFFFFFFFFFFFFFFFFFFFFFFFFFFFFF
310
FFFFFFFFFFFFFFFFFFFFFFFFFFFFFFFFFFFFFFFFFFFFFFFFFFFFFFFFFFFFFFFF
310
FFFFFFFFFFFFFFFFF000FFFFFFFFFFFFFFFFFFFFFFFFFFFFFFFFFFFFFFFFFFFF
310
FFFFFFFFFFFFFFFFFFFFFFFFFFFFFFFFFFFFFFFFFFFFFFFFFFFFFFFFFFFFFFFF
310
FFFFFFFFFFFFFFFFFFFFFFFFFFFFFFFFFFFFFFFFFFFFFFFFFFFFFFFFFFFFFFFF
310
F000FFFFFFFFFFFFFFFFFFFFFFFFFFFFFFFFFFFFFFFFFFFFFFFFFFFFFFFFFFFF
310
FFFFFFFFFFFFFFFFFFFFFFFFFFFFFFFFFFFFFFFFFFFFFFFFFFFFFFFFFFFFFFFF
310
FFFFFFFFFFFFFFFFFFFFFFFFFFFFFFFFFFFFFFFFFFFFFFFFF000FFFFFFFFFFFF
310
FFFFFFFFFFFFFFFFFFFFFFFFFFFFFFFFFFFFFFFFFFFFFFFFFFFFFFFFFFFFFFFF
310
FFFFFFFFFFFFFFFFFFFFFFFFFFFFFFFFFFFFFFFFFFFFFFFFFFFFFFFFFFFFFFFF
310
FFFFFFFFFFFFFFFFFFFFFFFFFFFFFFFFF000FFFFFFFFFFFFFFFFFFFFFFFFFFFF
310
FFFFFFFFFFFFFFFFFFFFFFFFFFFFFFFFFFFFFFFFFFFFFFFFFFFFFFFFFFFFFFFF
310
FFFFFFFFFFFFFFFFFFFFFFFFFFFFFFFFFFFFFFFFFFFFFFFFFFFFFFFFFFFFFFFF
310
FFFFFFFFFFFFFFFFF000FFFFF80003FFFFFFFFFFFFFFFFFFFFFFFFFFFFFFFFFF
310
FFFFF00007FFFFFFFFFF00007FFFFFF800000000000000007FFFFFFFFFFFFFFF
310
FFFFFFFC001FFFFFFFFFFFFFFC001FFFFFFFFFFFFFFFFFFFFFFFFFFE0007FFFF
310
F000FFFF8000007FFFFFFFF8000FFFFFC0007FFFFF80007FFFFF0000007FFFFF
310
FFF8000007FFFFF800000000000000007FFFFFF0001FFFFFFFFFFFC00001FFFF
310
FFFFFFFFC00001FFFFFFFF000000000003FFFFE000007FFFF000FFFE0000000F
310
FFFFFFF0000FFFFF80007FFFFF80007FFFFC0000001FFFFFFFC0000001FFFFF8
310
00000000000000007FFFFFF0001FFFFFFFFFFE0000003FFFFFFFFFFE0000003F
310
FFFFFF000000000003FFFF0000000FFFF000FFF800000003FFFFFFF00007FFFF
310
80007FFFFF80007FFFF000000007FFFFFF000000003FFFF80000000000000000
310
7FFFFFF0001FFFFFFFFFF80000000FFFFFFFFFF80000000FFFFFFF0000000000
310
03FFFC00000003FFF000FFE000000000FFFFFFF00007FFFF80003FFFFF80007F
310
FFC000000001FFFFFC000000001FFFF800000000000000007FFFFFF0001FFFFF
310
FFFFE000000003FFFFFFFFE000000003FFFFFF000000000003FFF000000000FF
310
F000FF80000000007FFFFFF00007FFFF80003FFFFF80007FFF8000000000FFFF
310
F80000000007FFF800000000000000007FFFFFF0001FFFFFFFFFC000000001FF
310
FFFFFFC000000001FFFFFF000000000003FFC0000000007FF000FF0000000000
310
3FFFFFE00007FFFF00003FFFFF80007FFE00000000003FFFF00000000003FFF8
310
00000000000000007FFFFFF0001FFFFFFFFF8000000000FFFFFFFF8000000000
310
FFFFFF000000000003FF80000000003FF000FE00000000001FFFFFE00003FFFF
310
00003FFFFF80007FFC00000000001FFFE00000000001FFF8000001FFFE000000
310
7FFFFFF0001FFFFFFFFE00000000003FFFFFFE00000000003FFFFF0000000000
310
03FF00000000001FF000FC00000000000FFFFFE00003FFFF00001FFFFF80007F
310
F800000000001FFFC00000000000FFF8000001FFFE0000007FFFFFF0001FFFFF
310
FFFC00000000001FFFFFFC00000000001FFFFF000000000003FE00000000000F
310
F000F8000000000007FFFFE00003FFFF00001FFFFF80007FF800000000000FFF
310
800000000000FFF8000001FFFE0000007FFFFFF0001FFFFFFFF800000000000F
310
FFFFF800000000000FFFFF000000000003FC000000000007F000F80000000000
310
03FFFFC00003FFFE00001FFFFF80007FF0000000000007FF0000000000007FF8
310
000001FFFE0000007FFFFFF0001FFFFFFFF0000000000007FFFFF00000000000
310
07FFFF000000000003F8000000000003F000F0000000000003FFFFC00001FFFE
310
00001FFFFF80007FE0000000000007FE0000000000003FF8000001FFFE000000
310
7FFFFFF0001FFFFFFFF0000000000007FFFFF0000000000007FFFF0000000000
310
03F800001F800003F000E00001FFF00001FFFFC00001FFFE00000FFFFF80007F
310
E00001FFE00003FE00001FFF00003FF8000001FFFE0000007FFFFFF0001FFFFF
310
FFE000003E000003FFFFE000003E000003FFFF000000000003F00001FFF80001
310
F000E00007FFFC0001FFFFC00001FFFE00000FFFFF80007FC0000FFFFC0003FC
310
0000FFFFC0001FF8000001FFFE0000007FFFFFF0001FFFFFFFC00003FFE00001
310
FFFFC00003FFE00001FFFF0001FFFFFFFFF00007FFFE0001F000E0000FFFFF00
310
00FFFF800001FFFC00000FFFFF80007FC0001FFFFE0001FC0001FFFFE0001FF8
310
000001FFFE0000007FFFFFF0001FFFFFFF80000FFFF80000FFFF80000FFFF800
310
00FFFF0003FFFFFFFFE0000FFFFF8000F000C0003FFFFF8000FFFF800000FFFC
310
000007FFFF80007F80003FFFFF0001FC0003FFFFF0001FF8000001FFFE000000
310
7FFFFFF0001FFFFFFF80003FFFFE0000FFFF80003FFFFE0000FFFF0003FFFFFF
310
FFE0003FFFFF8000F000C0003FFFFF8000FFFF800000FFFC000007FFFF80007F
310
80007FFFFF8001F80007FFFFF8000FF8000001FFFE0000007FFFFFF0001FFFFF
310
FF00007FFFFF00007FFF00007FFFFF00007FFF0003FFFFFFFFE0003FFFFFC000
310
F000C0007FFFFFC000FFFF000000FFFC000007FFFF80007F8000FFFFFF8000F8
310
000FFFFFF8000FF8000001FFFE0000007FFFFFF0001FFFFFFF0000FFFFFF8000
310
7FFF0000FFFFFF80007FFF0003FFFFFFFFC0007FFFFFC00070008000FFFFFFC0
310
00FFFF000000FFF8000007FFFF80007F8000FFFFFF8000F8000FFFFFF8000FF8
310
000001FFFE0000007FFFFFF0001FFFFFFE0001FFFFFFC0003FFE0001FFFFFFC0
310
003FFF0003FFFFFFFFC0007FFFFFE00070008000FFFFFFC0007FFF0000007FF8
310
000003FFFF80007F0001FFFFFF8000F8000FFFFFF8000FF8000001FFFE000000
310
7FFFFFF0001FFFFFFE0001FFFFFFC0003FFE0001FFFFFFC0003FFF0003FFFFFF
310
FFC000FFFFFFE00070008000FFFFFFC0007FFF0000007FF8000003FFFF80007F
310
0001FFFFFF8000F8001FFFFFF8000FF8000001FFFE0000007FFFFFF0001FFFFF
310
FE0003FFFFFFE0003FFE0003FFFFFFE0003FFF0003FFFFFFFFC000FFFFFFE000
310
70008000FFFFFFC0007FFE0000007FF8000003FFFF80007F0001FFFFFF8000F0
310
001FFFFFF8000FF8000001FFFE0000007FFFFFF0001FFFFFFC0003FFFFFFE000
310
1FFC0003FFFFFFE0001FFF0003FFFFFFFFC000FFFFFFC00070008000FFFFFF80
310
007FFE0000007FF0000003FFFF80007F0001FFFFFF0000F0001FFFFFF8000FF8
310
000001FFFE0000007FFFFFF0001FFFFFFC0007FFFFFFF0001FFC0007FFFFFFF0
310
001FFF0003FFFFFFFFC000FFFFFFC00070008001FFFFFF0000FFFE0000003FF0
310
000001FFFF80007F0001FFFFFF0000F8001FFFFFF0000FF8000001FFFE000000
310
7FFFFFF0001FFFFFFC0007FFFFFFF0001FFC0007FFFFFFF0001FFF0003FFFFFF
310
FFC001FFFFFF80007000FFFFFFFFFE0000FFFE0008003FF0008001FFFF80007F
310
FFFFFFFFFC0000FFFFFFFFFFE0000FF8000001FFFE0000007FFFFFF0001FFFFF
310
F8000FFFFFFFF8000FF8000FFFFFFFF8000FFF0003FFFFFFFFFFFFFFFFFF0000
310
7000FFFFFFFFFC0000FFFC0008003FF0008001FFFF80007FFFFFFFFFF80001FF
310
FFFFFFFF80000FF8000001FFFE0000007FFFFFF0001FFFFFF8000FFFFFFFF800
310
0FF8000FFFFFFFF8000FFF0003FFFFFFFFFFFFFFFFFE0000F000FFFFFFFFE000
310
00FFFC000C003FE000C001FFFF80007FFFFFFFFFC00001FFFFFFFFFE00001FF8
310
000001FFFE0000007FFFFFF0001FFFFFF8000FFFFFFFF8000FF8000FFFFFFFF8
310
000FFF0003FFFFFFFFFFFFFFFFF00000F000FFFFFFFE000001FFFC000C001FE0
310
00C000FFFF80007FFFFFFFFE000001FFFFFFFFE000001FF80FFFFFFFFFFFFFC0
310
7FFFFFF0001FFFFFF8000FFFFFFFF8000FF8000FFFFFFFF8000FFF0003FFFFFF
310
FFFFFFFFFF800000F000FFFFFFC0000001FFFC001C001FE001C000FFFF80007F
310
FFFFFF80000003FFFFFFF80000001FF80FFFFFFFFFFFFFC07FFFFFF0001FFFFF
310
F8001FFFFFFFFC000FF8001FFFFFFFFC000FFF0003FFFFFFFFFFFFFFF0000001
310
F000FFFFF800000001FFF8001C001FE001C000FFFF80007FFFFFF800000003FF
310
FFFF800000003FF80FFFFFFFFFFFFFC07FFFFFF0001FFFFFF8001FFFFFFFFC00
310
0FF8001FFFFFFFFC000FFF0003FFFFFFFFFFFFFE00000001F000FFFFC0000000
310
03FFF8001E001FC001E000FFFF80007FFFFF8000000007FFFFFC000000003FF8
310
0FFFFFFFFFFFFFC07FFFFFF0001FFFFFF8001FFFFFFFFC000FF8001FFFFFFFFC
310
000FFF0003FFFFFFFFFFFFE000000003F000FFFE0000000007FFF8001E000FC0
310
01E0007FFF80007FFFFE0000000007FFFFE0000000007FF80FFFFFFFFFFFFFC0
310
7FFFFFF0001FFFFFF0001FFFFFFFFC0007F0001FFFFFFFFC0007FF0003FFFFFF
310
FFFFFF0000000003F000FFF80000000007FFF8001E000FC003E0007FFF80007F
310
FFF0000000000FFFFF8000000000FFF80FFFFFFFFFFFFFC07FFFFFF0001FFFFF
310
F0001FFFFFFFFC0007F0001FFFFFFFFC0007FF0003FFFFFFFFFFFC0000000007
310
F000FFE0000000000FFFF0003E000FC003E0007FFF80007FFFC0000000001FFF
310
FE0000000001FFF80FFFFFFFFFFFFFC07FFFFFF0001FFFFFF0001FFFFFFFFC00
310
07F0001FFFFFFFFC0007FF0003FFFFFFFFFFF0000000000FF000FFC000000000
310
1FFFF0003F000F8003F0003FFF80007FFF80000000003FFFF80000000003FFF8
310
0FFFFFFFFFFFFFC07FFFFFF0001FFFFFF0001FFFFFFFFC0007F0001FFFFFFFFC
310
0007FF0003FFFFFFFFFFE0000000001FF000FF00000000007FFFF0003F000780
310
03F0003FFF80007FFF00000000007FFFF00000000007FFF80FFFFFFFFFFFFFC0
310
7FFFFFF0001FFFFFF0001FFFFFFFFC0007F0001FFFFFFFFC0007FF0003FFFFFF
310
FFFF80000000007FF000FE0000000000FFFFE0003F00078007F0003FFF80007F
310
FE0000000001FFFFE0000000001FFFF80FFFFFFFFFFFFFC07FFFFFF0001FFFFF
310
F0001FFFFFFFFC0007F0001FFFFFFFFC0007FF0003FFFFFFFFFF0000000000FF
310
F000FC0000000003FFFFE0007F00078007F0003FFF80007FFC0000000007FFFF
310
C0000000007FFFF80FFFFFFFFFFFFFC07FFFFFF0001FFFFFF8001FFFFFFFFC00
310
0FF8001FFFFFFFFC000FFF0003FFFFFFFFFE0000000003FFF000FC000000000F
310
FFFFE0007F80070007F8001FFF80007FF8000000001FFFFF8000000001FFFFF8
310
0FFFFFFFFFFFFFC07FFFFFF0001FFFFFF8001FFFFFFFFC000FF8001FFFFFFFFC
310
000FFF0003FFFFFFFFFC000000000FFFF000F8000000007FFFFFE0007F800700
310
07F8001FFF80007FF000000000FFFFFF800000000FFFFFF80FFFFFFFFFFFFFC0
310
7FFFFFF0001FFFFFF8000FFFFFFFF8000FF8000FFFFFFFF8000FFF0003FFFFFF
310
FFFC000000007FFFF000F800000007FFFFFFC0007F8003000FF8001FFF80007F
310
F000000007FFFFFF000000007FFFFFF80FFFFFFFFFFFFFC07FFFFFF0001FFFFF
310
F8000FFFFFFFF8000FF8000FFFFFFFF8000FFF0003FFFFFFFFF80000000FFFFF
310
F000F0000000FFFFFFFFC000FF8003000FF8001FFF80007FE0000000FFFFFFFF
310
0000000FFFFFFFF8000001FFFE0000007FFFFFF0001FFFFFF8000FFFFFFFF800
310
0FF8000FFFFFFFF8000FFF0003FFFFFFFFF8000000FFFFFFF000F000000FFFFF
310
FFFFC000FFC002000FF8000FFF80007FE000001FFFFFFFFE000001FFFFFFFFF8
310
000001FFFE0000007FFFFFF0001FFFFFF8000FFFFFFFF8000FF8000FFFFFFFF8
310
000FFF0003FFFFFFFFF000001FFFFFFFF000E00000FFFFFFFFFFC000FFC00200
310
0FFC000FFF80007FE00001FFFFFFFFFE00001FFFFFFFFFF8000001FFFE000000
310
7FFFFFF0001FFFFFFC000FFFFFFFF8001FFC000FFFFFFFF8001FFF0003FFFFFF
310
FFF00001FFFFFFFFF000E00007FFFFFFFFFF8000FFC000001FFC000FFF80007F
310
C0000FFFFFFFFFFE0000FFFFFFFFFFF8000001FFFE0000007FFFFFF0001FFFFF
310
FC0007FFFFFFF0001FFC0007FFFFFFF0001FFF0003FFFFFFFFF00007FFFFFFFF
310
F000E0001FFFFFFFFFFF8000FFC000001FFC000FFF80007FC0003FFFFFFFFFFE
310
0001FFFFFFFFFFF8000001FFFE0000007FFFFFF0001FFFFFFC0007FFFFFFF000
310
1FFC0007FFFFFFF0001FFF0003FFFFFFFFF0001FFFFFFFFFF000E0003FFFFF00
310
03FF8001FFE000001FFC0007FF80007FC0007FFFFF0007FC0003FFFFF0003FF8
310
000001FFFE0000007FFFFFF0001FFFFFFC0003FFFFFFE0001FFC0003FFFFFFE0
310
001FFF0003FFFFFFFFF0003FFFFFFFFFF000E0003FFFFF0001FF8001FFE00000
310
1FFE0007FF80007FC0007FFFFE0003FC0007FFFFE0003FF8000001FFFE000000
310
7FFFFFF0001FFFFFFE0003FFFFFFE0003FFE0003FFFFFFE0003FFF0003FFFFFF
310
FFF0003FFFFF8001F000E0003FFFFF0001FF0001FFE000001FFE0007FF80007F
310
C0007FFFFE0003FC0007FFFFE0003FF8000001FFFE0000007FFFFFF0001FFFFF
310
FE0001FFFFFFC0003FFE0001FFFFFFC0003FFF0003FFFFFFFFF0003FFFFF0001
310
F000E0003FFFFF0003FF0001FFE000003FFE0007FF80007FC0007FFFFE0003FC
310
0007FFFFE0003FF8000001FFFE0000007FFFFFF0001FFFFFFF0001FFFFFFC000
310
7FFF0001FFFFFFC0007FFF0003FFFFFFFFF0003FFFFF0001F000E0003FFFFE00
310
03FF0003FFF000003FFE0003FF80007FC0007FFFFC0003FE0007FFFFE0003FF8
310
000001FFFE0000007FFFFFF0001FFFFFFF0000FFFFFF80007FFF0000FFFFFF80
310
007FFF0003FFFFFFFFF0003FFFFF0001F000E0003FFFFE0003FF0003FFF00000
310
3FFF0003FF80007FC0007FFFFC0007FE0007FFFFC0003FF8000001FFFE000000
310
7FFFFFF0001FFFFFFF80007FFFFF0000FFFF80007FFFFF0000FFFF0003FFFFFF
310
FFF0003FFFFF0003F000E0003FFFFC0003FE0003FFF000003FFF0003FF80007F
310
E0003FFFF80007FE0003FFFFC0007FF8000001FFFE0000007FFFFFF0001FFFFF
310
FF80003FFFFE0000FFFF80003FFFFE0000FFFF0003FFFFFFFFF0001FFFFE0003
310
F000F0001FFFF80003FE0003FFF000007FFF0001FF80007FE0003FFFF00007FE
310
0001FFFF80007FF8000001FFFE0000007FFFFFF0001FFFFFFFC0000FFFF80001
310
FFFFC0000FFFF80001FFFF0003FFFFFFFFF0001FFFFC0003F000F0000FFFF000
310
07FE0007FFF800007FFF0001FF80007FE0001FFFE00007FF0000FFFE00007FF8
310
000001FFFE0000007FFFFFF0001FFFFFFFC00003FFE00001FFFFC00003FFE000
310
01FFFF0003FFFFFFFFF8000FFFF80003F000F00003FFC00007FC0007FFF80000
310
7FFF8001FF80007FF00007FF80000FFF00007FF80000FFF8000001FFFE000000
310
7F80000000000001FFE000003E000003FFFFE000003E000003FFFF0003FFFFFF
310
FFF80003FFE00007F000F800000000000FFC0007FFF800007FFF8001FF80007F
310
F000000000000FFF000000000000FFF8000001FFFE0000007F80000000000001
310
FFF0000000000007FFFFF0000000000007FFFF0003FFFFFFFFFC00007E000007
310
F000F800000000000FFC0007FFF80000FFFF8000FF80007FF800000000001FFF
310
800000000001FFF8000001FFFE0000007F80000000000001FFF800000000000F
310
FFFFF800000000000FFFFF0003FFFFFFFFFC00000000000FF000FC0000000000
310
1FFC0007FFFC0000FFFF8000FF80007FF800000000003FFFC00000000001FFF8
310
000001FFFE0000007F80000000000001FFF800000000000FFFFFF80000000000
310
0FFFFF0003FFFFFFFFFE00000000001FF000FE00000000003FF8000FFFFC0000
310
FFFF8000FF80007FFC00000000003FFFC00000000003FFF8000001FFFE000000
310
7F80000000000001FFFC00000000001FFFFFFC00000000001FFFFF0003FFFFFF
310
FFFF00000000001FF000FF00000000003FF8000FFFFC0000FFFFC000FF80007F
310
FE00000000007FFFE00000000007FFF8000001FFFE0000007F80000000000001
310
FFFE00000000003FFFFFFE00000000003FFFFF0003FFFFFFFFFF80000000003F
310
F000FF80000000007FF8000FFFFC0001FFFFC0007F80007FFF0000000000FFFF
310
F0000000000FFFF800000000000000007F80000000000001FFFF8000000000FF
310
FFFFFF8000000000FFFFFF0003FFFFFFFFFFC0000000007FF000FFC000000000
310
FFF8000FFFFE0001FFFFC0007F80007FFF8000000001FFFFF8000000001FFFF8
310
00000000000000007F80000000000001FFFFC000000001FFFFFFFFC000000001
310
FFFFFF0003FFFFFFFFFFE000000000FFF000FFE000000003FFF0001FFFFE0001
310
FFFFC0007F80007FFFC000000007FFFFFE000000003FFFF80000000000000000
310
7F80000000000001FFFFE000000003FFFFFFFFE000000003FFFFFF0003FFFFFF
310
FFFFF000000003FFF000FFF80000000FFFF0001FFFFE0001FFFFE0007F80007F
310
FFF00000000FFFFFFF00000000FFFFF800000000000000007F80000000000001
310
FFFFF80000000FFFFFFFFFF80000000FFFFFFF0003FFFFFFFFFFFC0000000FFF
310
F000FFFE0000003FFFF0001FFFFE0003FFFFE0003F80007FFFFC0000003FFFFF
310
FFC0000003FFFFF800000000000000007F80000000000001FFFFFE0000003FFF
310
FFFFFFFE0000003FFFFFFF0003FFFFFFFFFFFF0000003FFFF000FFFF800000FF
310
FFF0001FFFFF0003FFFFE0003F80007FFFFF000001FFFFFFFFF800001FFFFFF8
310
00000000000000007F80000000000001FFFFFFC00001FFFFFFFFFFFFC00001FF
310
FFFFFF0003FFFFFFFFFFFFC00000FFFFF000FFFFF8000FFFFFFFFFFFFFFFFFFF
310
FFFFFFFFFFFFFFFFFFFFF0001FFFFFFFFFFF0000FFFFFFF80000000000000000
310
7FFFFFFFFFFFFFFFFFFFFFFC001FFFFFFFFFFFFFFC001FFFFFFFFFFFFFFFFFFF
310
FFFFFFFC001FFFFFF000FFFFFFFFFFFFFFFFFFFFFFFFFFFFFFFFFFFFFFFFFFFF
310
FFFFFFFFFFFFFFFFFFFFFFFFFFFFFFFFFFFFFFFFFFFFFFFFFFFFFFFFFFFFFFFF
310
FFFFFFFFFFFFFFFFFFFFFFFFFFFFFFFFFFFFFFFFFFFFFFFFFFFFFFFFFFFFFFFF
310
F000FFFFFFFFFFFFFFFFFFFFFFFFFFFFFFFFFFFFFFFFFFFFFFFFFFFFFFFFFFFF
310
FFFFFFFFFFFFFFFFFFFFFFFFFFFFFFFFFFFFFFFFFFFFFFFFFFFFFFFFFFFFFFFF
310
FFFFFFFFFFFFFFFFFFFFFFFFFFFFFFFFFFFFFFFFFFFFFFFFF000FFFFFFFFFFFF
310
FFFFFFFFFFFFFFFFFFFFFFFFFFFFFFFFFFFFFFFFFFFFFFFFFFFFFFFFFFFFFFFF
310
FFFFFFFFFFFFFFFFFFFFFFFFFFFFFFFFFFFFFFFFFFFFFFFFFFFFFFFFFFFFFFFF
310
FFFFFFFFFFFFFFFFFFFFFFFFFFFFFFFFF000FFFFFFFFFFFFFFFFFFFFFFFFFFFF
310
FFFFFFFFFFFFFFFFFFFFFFFFFFFFFFFFFFFFFFFFFFFFFFFFFFFFFFFFFFFFFFFF
310
FFFFFFFFFFFFFFFFFFFFFFFFFFFFFFFFFFFFFFFFFFFFFFFFFFFFFFFFFFFFFFFF
310
FFFFFFFFFFFFFFFFF000FFFFFFFFFFFFFFFFFFFFFFFFFFFFFFFFFFFFFFFFFFFF
310
FFFFFFFFFFFFFFFFFFFFFFFFFFFFFFFFFFFFFFFFFFFFFFFFFFFFFFFFFFFFFFFF
310
FFFFFFFFFFFFFFFFFFFFFFFFFFFFFFFFFFFFFFFFFFFFFFFFFFFFFFFFFFFFFFFF
310
F000FFFFFFFFFFFFFFFFFFFFFFFFFFFFFFFFFFFFFFFFFFFFFFFFFFFFFFFFFFFF
310
FFFFFFFFFFFFFFFFFFFFFFFFFFFFFFFFFFFFFFFFFFFFFFFFFFFFFFFFFFFFFFFF
310
FFFFFFFFFFFFFFFFFFFFFFFFFFFFFFFFFFFFFFFFFFFFFFFFF000FFFFFFFFFFFF
310
FFFFFFFFFFFFFFFFFFFFFFFFFFFFFFFFFFFFFFFFFFFFFFFFFFFFFFFFFFFFFFFF
310
FFFFFFFFFFFFFFFFFFFFFFFFFFFFFFFFFFFFFFFFFFFFFFFFFFFFFFFFFFFFFFFF
310
FFFFFFFFFFFFFFFFFFFFFFFFFFFFFFFFF000FFFFFFFFFFFFFFFFFFFFFFFFFFFF
310
FFFFFFFFFFFFFFFFFFFFFFFFFFFFFFFFFFFFFFFFFFFFFFFFFFFFFFFFFFFFFFFF
310
FFFFFFFFFFFFFFFFFFFFFFFFFFFFFFFFFFFFFFFFFFFFFFFFFFFFFFFFFFFFFFFF
310
FFFFFFFFFFFFFFFFF000FFFFFFFFFFFFFFFFFFFFFFFFFFFFFFFFFFFFFFFFFFFF
310
FFFFFFFFFFFFFFFFFFFFFFFFFFFFFFFFFFFFFFFFFFFFFFFFFFFFFFFFFFFFFFFF
310
FFFFFFFFFFFFFFFFFFFFFFFFFFFFFFFFFFFFFFFFFFFFFFFFFFFFFFFFFFFFFFFF
310
F000FFFFFFFFFFFFFFFFFFFFFFFFFFFFFFFFFFFFFFFFFFFFFFFFFFFFFFFFFFFF
310
FFFFFFFFFFFFFFFFFFFFFFFFFFFFFFFFFFFFFFFFFFFFFFFFFFFFFFFFFFFFFFFF
310
FFFFFFFFFFFFFFFFFFFFFFFFFFFFFFFFFFFFFFFFFFFFFFFFF000FFFFFFFFFFFF
310
FFFFFFFFFFFFFFFFFFFFFFFFFFFFFFFFFFFFFFFFFFFFFFFFFFFFFFFFFFFFFFFF
310
FFFFFFFFFFFFFFFFFFFFFFFFFFFFFFFFFFFFFFFFFFFFFFFFFFFFFFFFFFFFFFFF
310
FFFFFFFFFFFFFFFFFFFFFFFFFFFFFFFFF000FFFFFFFFFFFFFFFFFFFFFFFFFFFF
310
FFFFFFFFFFFFFFFFFFFFFFFFFFFFFFFFFFFFFFFFFFFFFFFFFFFFFFFFFFFFFFFF
310
FFFFFFFFFFFFFFFFFFFFFFFFFFFFFFFFFFFFFFFFFFFFFFFFFFFFFFFFFFFFFFFF
310
FFFFFFFFFFFFFFFFF000FFFFFFFFFFFFFFFFFFFFFFFFFFFFFFFFFFFFFFFFFFFF
310
FFFFFFFFFFFFFFFFFFFFFFFFFFFFFFFFFFFFFFFFFFFFFFFFFFFFFFFFFFFFFFFF
310
FFFFFFFFFFFFFFFFFFFFFFFFFFFFFFFFFFFFFFFFFFFFFFFFFFFFFFFFFFFFFFFF
310
F000FFFFFFFFFFFFFFFFFFFFFFFFFFFFFFFFFFFFFFFFFFFFFFFFFFFFFFFFFFFF
310
FFFFFFFFFFFFFFFFFFFFFFFFFFFFFFFFFFFFFFFFFFFFFFFFFFFFFFFFFFFFFFFF
310
FFFFFFFFFFFFFFFFFFFFFFFFFFFFFFFFFFFFFFFFFFFFFFFFF000FFFFFFFFFFFF
310
FFFFFFFFFFFFFFFFFFFFFFFFFFFFFFFFFFFFFFFFFFFFFFFFFFFFFFFFFFFFFFFF
310
FFFFFFFFFFFFFFFFFFFFFFFFFFFFFFFFFFFFFFFFFFFFFFFFFFFFFFFFFFFFFFFF
310
FFFFFFFFFFFFFFFFFFFFFFFFFFFFFFFFF000FFFFFFFFFFFFFFFFFFFFFFFFFFFF
310
FFFFFFFFFFFFFFFFFFFFFFFFFFFFFFFFFFFFFFFFFFFFFFFFFFFFFFFFFFFFFFFF
310
FFFFFFFFFFFFFFFFFFFFFFFFFFFFFFFFFFFFFFFFFFFFFFFFFFFFFFFFFFFFFFFF
310
FFFFFFFFFFFFFFFFF000FFFFFFFFFFFFFFFFFFFFFFFFFFFFFFFFFFFFFFFFFFFF
310
FFFFFFFFFFFFFFFFFFFFFFFFFFFFFFFFFFFFFFFFFFFFFFFFFFFFFFFFFFFFFFFF
310
FFFFFFFFFFFFFFFFFFFFFFFFFFFFFFFFFFFFFFFFFFFFFFFFFFFFFFFFFFFFFFFF
310
F000FFFFFFFFFFFFFFFFFFFFFFFFFFFFFFFFFFFFFFFFFFFFFFFFFFFFFFFFFFFF
310
FFFFFFFFFFFFFFFFFFFFFFFFFFFFFFFFFFFFFFFFFFFFFFFFFFFFFFFFFFFFFFFF
310
FFFFFFFFFFFFFFFFFFFFFFFFFFFFFFFFFFFFFFFFFFFFFFFFF000FFFFFFFFFFFF
310
FFFFFFFFFFFFFFFFFFFFFFFFFFFFFFFFFFFFFFFFFFFFFFFFFFFFFFFFFFFFFFFF
310
FFFFFFFFFFFFFFFFFFFFFFFFFFFFFFFFFFFFFFFFFFFFFFFFFFFFFFFFFFFFFFFF
310
FFFFFFFFFFFFFFFFFFFFFFFFFFFFFFFFF000FFFFFFFFFFFFFFFFFFFFFFFFFFFF
310
FFFFFFFFFFFFFFFFFFFFFFFFFFFFFFFFFFFFFFFFFFFFFFFFFFFFFFFFFFFFFFFF
310
FFFFFFFFFFFFFFFFFFFFFFFFFFFFFFFFFFFFFFFFFFFFFFFFFFFFFFFFFFFFFFFF
310
FFFFFFFFFFFFFFFFF000FFFFFFFFFFFFFFFFFFFFFFFFFFFFFFFFFFFFFFFFFFFF
310
FFFFFFFFFFFFFFFFFFFFFFFFFFFFFFFFFFFFFFFFFFFFFFFFFFFFFFFFFFFFFFFF
310
FFFFFFFFFFFFFFFFFFFFFFFFFFFFFFFFFFFFFFFFFFFFFFFFFFFFFFFFFFFFFFFF
310
F000FFFFFFFFFFFFFFFFFFFFFFFFFFFFFFFFFFFFFFFFFFFFFFFFFFFFFFFFFFFF
310
FFFFFFFFFFFFFFFFFFFFFFFFFFFFFFFFFFFFFFFFFFFFFFFFFFFFFFFFFFFFFFFF
310
FFFFFFFFFFFFFFFFFFFFFFFFFFFFFFFFFFFFFFFFFFFFFFFFF000FFFFFFFFFFFF
310
FFFFFFFFFFFFFFFFFFFFFFFFFFFFFFFFFFFFFFFFFFFFFFFFFFFFFFFFFFFFFFFF
310
FFFFFFFFFFFFFFFFFFFFFFFFFFFFFFFFFFFFFFFFFFFFFFFFFFFFFFFFFFFFFFFF
310
FFFFFFFFFFFFFFFFFFFFFFFFFFFFFFFFF0000000000000000000000000000000
310
0000000000000000000000000000000000000000000000000000000000000000
310
0000000000000000000000000000000000000000000000000000000000000000
310
0000000000000000000000000000000000000000000000000000000000000000
310
0000000000000000000000000000000000000000000000000000000000000000
310
0000000000000000000000000000000000000000000000000000000000000000
310
0000000000000000000000000000000000000000000000000000000000000000
310
0000000000000000000000000000000000000000000000000000000000000000
310
0000000000000000000000000000000000000000000000000000000000000000
310
0000000000000000000000000000000000000000000000000000000000000000
310
0000000000000000000000000000000000000000000000000000000000000000
310
0000000000000000000000000000000000000000000000000000000000000000
310
0000000000000000000000000000000000000000000000000000000000000000
310
0000000000000000000000000000000000000000000000000000000000000000
310
0000000000000000000000000000000000000000000000000000000000000000
310
0000000000000000000000000000000000000000000000000000000000000000
  1
OLE
  0
ENDSEC
  0
SECTION
  2
OBJECTS
  0
DICTIONARY
  5
C
330
0
100
AcDbDictionary
281
     1
  3
ACAD_GROUP
350
D
  3
ACAD_LAYOUT
350
1A
  3
ACAD_MLINESTYLE
350
17
  3
ACAD_PLOTSETTINGS
350
19
  3
ACAD_PLOTSTYLENAME
350
E
  3
ACAD_SCALELIST
350
47
  0
DICTIONARY
  5
D
102
{ACAD_REACTORS
330
C
102
}
330
C
100
AcDbDictionary
281
     1
  0
DICTIONARY
  5
1A
102
{ACAD_REACTORS
330
C
102
}
330
C
100
AcDbDictionary
281
     1
  3
Layout1
350
1E
  3
Layout2
350
26
  3
Model
350
22
  0
DICTIONARY
  5
17
102
{ACAD_REACTORS
330
C
102
}
330
C
100
AcDbDictionary
281
     1
  3
Standard
350
18
  0
DICTIONARY
  5
19
102
{ACAD_REACTORS
330
C
102
}
330
C
100
AcDbDictionary
281
     1
  0
ACDBDICTIONARYWDFLT
  5
E
102
{ACAD_REACTORS
330
C
102
}
330
C
100
AcDbDictionary
281
     1
  3
Normal
350
F
100
AcDbDictionaryWithDefault
340
F
  0
DICTIONARY
  5
47
102
{ACAD_REACTORS
330
C
102
}
330
C
100
AcDbDictionary
281
     1
  3
A0
350
48
  3
A1
350
49
  3
A2
350
4A
  3
A3
350
4B
  3
A4
350
4C
  3
A5
350
4D
  3
A6
350
4E
  3
A7
350
4F
  3
A8
350
50
  3
A9
350
51
  3
B0
350
52
  3
B1
350
53
  3
B2
350
54
  3
B3
350
55
  3
B4
350
56
  3
B5
350
57
  3
B6
350
58
  3
B7
350
59
  3
B8
350
5A
  3
B9
350
5B
  3
C0
350
5C
  3
C1
350
5D
  3
C2
350
5E
  3
C3
350
5F
  3
C4
350
60
  3
C5
350
61
  3
C6
350
62
  3
C7
350
63
  3
C8
350
64
  3
C9
350
65
  3
D0
350
66
  3
D1
350
67
  3
D2
350
68
  0
LAYOUT
  5
1E
102
{ACAD_REACTORS
330
1A
102
}
330
1A
100
AcDbPlotSettings
  1

  2
none_device
  4

  6

 40
0.0
 41
0.0
 42
0.0
 43
0.0
 44
0.0
 45
0.0
 46
0.0
 47
0.0
 48
0.0
 49
0.0
140
0.0
141
0.0
142
1.0
143
1.0
 70
   688
 72
     1
 73
     0
 74
     5
  7

 75
    16
147
1.0
148
0.0
149
0.0
100
AcDbLayout
  1
Layout1
 70
     1
 71
     1
 10
0.0
 20
0.0
 11
420.0
 21
297.0
 12
0.0
 22
0.0
 32
0.0
 14
1.0000000000E+20
 24
1.0000000000E+20
 34
1.0000000000E+20
 15
-1.0000000000E+20
 25
-1.0000000000E+20
 35
-1.0000000000E+20
146
0.0
 13
0.0
 23
0.0
 33
0.0
 16
1.0
 26
0.0
 36
0.0
 17
0.0
 27
1.0
 37
0.0
 76
     0
330
1B
  0
LAYOUT
  5
26
102
{ACAD_REACTORS
330
1A
102
}
330
1A
100
AcDbPlotSettings
  1

  2
none_device
  4

  6

 40
0.0
 41
0.0
 42
0.0
 43
0.0
 44
0.0
 45
0.0
 46
0.0
 47
0.0
 48
0.0
 49
0.0
140
0.0
141
0.0
142
1.0
143
1.0
 70
   688
 72
     1
 73
     0
 74
     5
  7

 75
    16
147
1.0
148
0.0
149
0.0
100
AcDbLayout
  1
Layout2
 70
     1
 71
     2
 10
0.0
 20
0.0
 11
0.0
 21
0.0
 12
0.0
 22
0.0
 32
0.0
 14
0.0
 24
0.0
 34
0.0
 15
0.0
 25
0.0
 35
0.0
146
0.0
 13
0.0
 23
0.0
 33
0.0
 16
1.0
 26
0.0
 36
0.0
 17
0.0
 27
1.0
 37
0.0
 76
     0
330
23
  0
LAYOUT
  5
22
102
{ACAD_REACTORS
330
1A
102
}
330
1A
100
AcDbPlotSettings
  1

  2
none_device
  4
Letter_(8.50_x_11.00_Inches)
  6

 40
6.35
 41
6.35
 42
6.35000508
 43
6.35000508
 44
215.9
 45
279.4
 46
0.0
 47
0.0
 48
0.0
 49
0.0
140
0.0
141
0.0
142
1.0
143
1.0
 70
  1712
 72
     1
 73
     0
 74
     0
  7

 75
     0
147
1.0
148
0.0
149
0.0
100
AcDbLayout
  1
Model
 70
     1
 71
     0
 10
0.0
 20
0.0
 11
297.0
 21
210.0
 12
0.0
 22
0.0
 32
0.0
 14
0.0
 24
0.0
 34
0.0
 15
297.0
 25
210.0
 35
0.0
146
0.0
 13
0.0
 23
0.0
 33
0.0
 16
1.0
 26
0.0
 36
0.0
 17
0.0
 27
1.0
 37
0.0
 76
     0
330
1F
331
29
  0
MLINESTYLE
  5
18
102
{ACAD_REACTORS
330
17
102
}
330
17
100
AcDbMlineStyle
  2
Standard
 70
     0
  3

 62
   256
 51
90.0
 52
90.0
 71
     2
 49
0.5
 62
   256
  6
BYLAYER
 49
-0.5
 62
   256
  6
BYLAYER
  0
ACDBPLACEHOLDER
  5
F
102
{ACAD_REACTORS
330
E
102
}
330
E
  0
SCALE
  5
48
102
{ACAD_REACTORS
330
47
102
}
330
47
100
AcDbScale
 70
     0
300
1:1
140
1.0
141
1.0
290
     1
  0
SCALE
  5
49
102
{ACAD_REACTORS
330
47
102
}
330
47
100
AcDbScale
 70
     0
300
1:2
140
1.0
141
2.0
290
     0
  0
SCALE
  5
4A
102
{ACAD_REACTORS
330
47
102
}
330
47
100
AcDbScale
 70
     0
300
1:4
140
1.0
141
4.0
290
     0
  0
SCALE
  5
4B
102
{ACAD_REACTORS
330
47
102
}
330
47
100
AcDbScale
 70
     0
300
1:5
140
1.0
141
5.0
290
     0
  0
SCALE
  5
4C
102
{ACAD_REACTORS
330
47
102
}
330
47
100
AcDbScale
 70
     0
300
1:8
140
1.0
141
8.0
290
     0
  0
SCALE
  5
4D
102
{ACAD_REACTORS
330
47
102
}
330
47
100
AcDbScale
 70
     0
300
1:10
140
1.0
141
10.0
290
     0
  0
SCALE
  5
4E
102
{ACAD_REACTORS
330
47
102
}
330
47
100
AcDbScale
 70
     0
300
1:16
140
1.0
141
16.0
290
     0
  0
SCALE
  5
4F
102
{ACAD_REACTORS
330
47
102
}
330
47
100
AcDbScale
 70
     0
300
1:20
140
1.0
141
20.0
290
     0
  0
SCALE
  5
50
102
{ACAD_REACTORS
330
47
102
}
330
47
100
AcDbScale
 70
     0
300
1:30
140
1.0
141
30.0
290
     0
  0
SCALE
  5
51
102
{ACAD_REACTORS
330
47
102
}
330
47
100
AcDbScale
 70
     0
300
1:40
140
1.0
141
40.0
290
     0
  0
SCALE
  5
52
102
{ACAD_REACTORS
330
47
102
}
330
47
100
AcDbScale
 70
     0
300
1:50
140
1.0
141
50.0
290
     0
  0
SCALE
  5
53
102
{ACAD_REACTORS
330
47
102
}
330
47
100
AcDbScale
 70
     0
300
1:100
140
1.0
141
100.0
290
     0
  0
SCALE
  5
54
102
{ACAD_REACTORS
330
47
102
}
330
47
100
AcDbScale
 70
     0
300
2:1
140
2.0
141
1.0
290
     0
  0
SCALE
  5
55
102
{ACAD_REACTORS
330
47
102
}
330
47
100
AcDbScale
 70
     0
300
4:1
140
4.0
141
1.0
290
     0
  0
SCALE
  5
56
102
{ACAD_REACTORS
330
47
102
}
330
47
100
AcDbScale
 70
     0
300
8:1
140
8.0
141
1.0
290
     0
  0
SCALE
  5
57
102
{ACAD_REACTORS
330
47
102
}
330
47
100
AcDbScale
 70
     0
300
10:1
140
10.0
141
1.0
290
     0
  0
SCALE
  5
58
102
{ACAD_REACTORS
330
47
102
}
330
47
100
AcDbScale
 70
     0
300
100:1
140
100.0
141
1.0
290
     0
  0
SCALE
  5
59
102
{ACAD_REACTORS
330
47
102
}
330
47
100
AcDbScale
 70
     0
300
1/128" = 1'-0"
140
0.0078125
141
12.0
290
     0
  0
SCALE
  5
5A
102
{ACAD_REACTORS
330
47
102
}
330
47
100
AcDbScale
 70
     0
300
1/64" = 1'-0"
140
0.015625
141
12.0
290
     0
  0
SCALE
  5
5B
102
{ACAD_REACTORS
330
47
102
}
330
47
100
AcDbScale
 70
     0
300
1/32" = 1'-0"
140
0.03125
141
12.0
290
     0
  0
SCALE
  5
5C
102
{ACAD_REACTORS
330
47
102
}
330
47
100
AcDbScale
 70
     0
300
1/16" = 1'-0"
140
0.0625
141
12.0
290
     0
  0
SCALE
  5
5D
102
{ACAD_REACTORS
330
47
102
}
330
47
100
AcDbScale
 70
     0
300
3/32" = 1'-0"
140
0.09375
141
12.0
290
     0
  0
SCALE
  5
5E
102
{ACAD_REACTORS
330
47
102
}
330
47
100
AcDbScale
 70
     0
300
1/8" = 1'-0"
140
0.125
141
12.0
290
     0
  0
SCALE
  5
5F
102
{ACAD_REACTORS
330
47
102
}
330
47
100
AcDbScale
 70
     0
300
3/16" = 1'-0"
140
0.1875
141
12.0
290
     0
  0
SCALE
  5
60
102
{ACAD_REACTORS
330
47
102
}
330
47
100
AcDbScale
 70
     0
300
1/4" = 1'-0"
140
0.25
141
12.0
290
     0
  0
SCALE
  5
61
102
{ACAD_REACTORS
330
47
102
}
330
47
100
AcDbScale
 70
     0
300
3/8" = 1'-0"
140
0.375
141
12.0
290
     0
  0
SCALE
  5
62
102
{ACAD_REACTORS
330
47
102
}
330
47
100
AcDbScale
 70
     0
300
1/2" = 1'-0"
140
0.5
141
12.0
290
     0
  0
SCALE
  5
63
102
{ACAD_REACTORS
330
47
102
}
330
47
100
AcDbScale
 70
     0
300
3/4" = 1'-0"
140
0.75
141
12.0
290
     0
  0
SCALE
  5
64
102
{ACAD_REACTORS
330
47
102
}
330
47
100
AcDbScale
 70
     0
300
1" = 1'-0"
140
1.0
141
12.0
290
     0
  0
SCALE
  5
65
102
{ACAD_REACTORS
330
47
102
}
330
47
100
AcDbScale
 70
     0
300
1-1/2" = 1'-0"
140
1.5
141
12.0
290
     0
  0
SCALE
  5
66
102
{ACAD_REACTORS
330
47
102
}
330
47
100
AcDbScale
 70
     0
300
3" = 1'-0"
140
3.0
141
12.0
290
     0
  0
SCALE
  5
67
102
{ACAD_REACTORS
330
47
102
}
330
47
100
AcDbScale
 70
     0
300
6" = 1'-0"
140
6.0
141
12.0
290
     0
  0
SCALE
  5
68
102
{ACAD_REACTORS
330
47
102
}
330
47
100
AcDbScale
 70
     0
300
1'-0" = 1'-0"
140
12.0
141
12.0
290
     0
  0
ENDSEC
  0
EOF
