  0
SECTION
  2
HEADER
  9
$ACADVER
  1
AC1015
  9
$ACADMAINTVER
 70
     6
  9
$DWGCODEPAGE
  3
ANSI_1252
  9
$INSBASE
 10
0.0
 20
0.0
 30
0.0
  9
$EXTMIN
 10
0.0
 20
0.0
 30
0.0
  9
$EXTMAX
 10
297.0
 20
210.0
 30
0.0
  9
$LIMMIN
 10
0.0
 20
0.0
  9
$LIMMAX
 10
297.0
 20
210.0
  9
$ORTHOMODE
 70
     0
  9
$REGENMODE
 70
     1
  9
$FILLMODE
 70
     1
  9
$QTEXTMODE
 70
     0
  9
$MIRRTEXT
 70
     1
  9
$LTSCALE
 40
1.0
  9
$ATTMODE
 70
     1
  9
$TEXTSIZE
 40
2.0
  9
$TRACEWID
 40
1.0
  9
$TEXTSTYLE
  7
Standard
  9
$CLAYER
  8
0
  9
$CELTYPE
  6
ByLayer
  9
$CECOLOR
 62
   256
  9
$CELTSCALE
 40
1.0
  9
$DISPSILH
 70
     0
  9
$DIMSCALE
 40
1.0
  9
$DIMASZ
 40
3.0
  9
$DIMEXO
 40
0.0
  9
$DIMDLI
 40
3.75
  9
$DIMRND
 40
0.0
  9
$DIMDLE
 40
0.0
  9
$DIMEXE
 40
1.0
  9
$DIMTP
 40
0.0
  9
$DIMTM
 40
0.0
  9
$DIMTXT
 40
2.0
  9
$DIMCEN
 40
2.5
  9
$DIMTSZ
 40
0.0
  9
$DIMTOL
 70
     0
  9
$DIMLIM
 70
     0
  9
$DIMTIH
 70
     1
  9
$DIMTOH
 70
     1
  9
$DIMSE1
 70
     0
  9
$DIMSE2
 70
     0
  9
$DIMTAD
 70
     1
  9
$DIMZIN
 70
     0
  9
$DIMBLK
  1

  9
$DIMASO
 70
     1
  9
$DIMSHO
 70
     1
  9
$DIMPOST
  1

  9
$DIMAPOST
  1

  9
$DIMALT
 70
     0
  9
$DIMALTD
 70
     3
  9
$DIMALTF
 40
0.0393700787
  9
$DIMLFAC
 40
1.0
  9
$DIMTOFL
 70
     1
  9
$DIMTVP
 40
0.0
  9
$DIMTIX
 70
     0
  9
$DIMSOXD
 70
     0
  9
$DIMSAH
 70
     0
  9
$DIMBLK1
  1

  9
$DIMBLK2
  1

  9
$DIMSTYLE
  2
ISO-25
  9
$DIMCLRD
 70
     0
  9
$DIMCLRE
 70
     0
  9
$DIMCLRT
 70
     0
  9
$DIMTFAC
 40
1.0
  9
$DIMGAP
 40
1.524
  9
$DIMJUST
 70
     0
  9
$DIMSD1
 70
     0
  9
$DIMSD2
 70
     0
  9
$DIMTOLJ
 70
     0
  9
$DIMTZIN
 70
     0
  9
$DIMALTZ
 70
     0
  9
$DIMALTTZ
 70
     0
  9
$DIMUPT
 70
     0
  9
$DIMDEC
 70
     2
  9
$DIMTDEC
 70
     3
  9
$DIMALTU
 70
     2
  9
$DIMALTTD
 70
     3
  9
$DIMTXSTY
  7
Standard
  9
$DIMAUNIT
 70
     0
  9
$DIMADEC
 70
     2
  9
$DIMALTRND
 40
0.0
  9
$DIMAZIN
 70
     0
  9
$DIMDSEP
 70
    44
  9
$DIMATFIT
 70
     3
  9
$DIMFRAC
 70
     0
  9
$DIMLDRBLK
  1

  9
$DIMLUNIT
 70
     2
  9
$DIMLWD
 70
    -2
  9
$DIMLWE
 70
    -2
  9
$DIMTMOVE
 70
     0
  9
$LUNITS
 70
     2
  9
$LUPREC
 70
     2
  9
$SKETCHINC
 40
1.0
  9
$FILLETRAD
 40
10.0
  9
$AUNITS
 70
     0
  9
$AUPREC
 70
     2
  9
$MENU
  1
.
  9
$ELEVATION
 40
0.0
  9
$PELEVATION
 40
0.0
  9
$THICKNESS
 40
0.0
  9
$LIMCHECK
 70
     0
  9
$CHAMFERA
 40
0.0
  9
$CHAMFERB
 40
0.0
  9
$CHAMFERC
 40
0.0
  9
$CHAMFERD
 40
0.0
  9
$SKPOLY
 70
     0
  9
$TDCREATE
 40
2457627.457541435
  9
$TDUCREATE
 40
2457627.374208102
  9
$TDUPDATE
 40
2457627.457542893
  9
$TDUUPDATE
 40
2457627.37420956
  9
$TDINDWG
 40
0.0000000116
  9
$TDUSRTIMER
 40
0.0000000116
  9
$USRTIMER
 70
     1
  9
$ANGBASE
 50
0.0
  9
$ANGDIR
 70
     0
  9
$PDMODE
 70
     0
  9
$PDSIZE
 40
-1.0
  9
$PLINEWID
 40
0.0
  9
$SPLFRAME
 70
     0
  9
$SPLINETYPE
 70
     6
  9
$SPLINESEGS
 70
     8
  9
$HANDSEED
  5
256
  9
$SURFTAB1
 70
     6
  9
$SURFTAB2
 70
     6
  9
$SURFTYPE
 70
     6
  9
$SURFU
 70
     6
  9
$SURFV
 70
     6
  9
$UCSBASE
  2

  9
$UCSNAME
  2

  9
$UCSORG
 10
0.0
 20
0.0
 30
0.0
  9
$UCSXDIR
 10
1.0
 20
0.0
 30
0.0
  9
$UCSYDIR
 10
0.0
 20
1.0
 30
0.0
  9
$UCSORTHOREF
  2

  9
$UCSORTHOVIEW
 70
     0
  9
$UCSORGTOP
 10
0.0
 20
0.0
 30
0.0
  9
$UCSORGBOTTOM
 10
0.0
 20
0.0
 30
0.0
  9
$UCSORGLEFT
 10
0.0
 20
0.0
 30
0.0
  9
$UCSORGRIGHT
 10
0.0
 20
0.0
 30
0.0
  9
$UCSORGFRONT
 10
0.0
 20
0.0
 30
0.0
  9
$UCSORGBACK
 10
0.0
 20
0.0
 30
0.0
  9
$PUCSBASE
  2

  9
$PUCSNAME
  2

  9
$PUCSORG
 10
0.0
 20
0.0
 30
0.0
  9
$PUCSXDIR
 10
1.0
 20
0.0
 30
0.0
  9
$PUCSYDIR
 10
0.0
 20
1.0
 30
0.0
  9
$PUCSORTHOREF
  2

  9
$PUCSORTHOVIEW
 70
     0
  9
$PUCSORGTOP
 10
0.0
 20
0.0
 30
0.0
  9
$PUCSORGBOTTOM
 10
0.0
 20
0.0
 30
0.0
  9
$PUCSORGLEFT
 10
0.0
 20
0.0
 30
0.0
  9
$PUCSORGRIGHT
 10
0.0
 20
0.0
 30
0.0
  9
$PUCSORGFRONT
 10
0.0
 20
0.0
 30
0.0
  9
$PUCSORGBACK
 10
0.0
 20
0.0
 30
0.0
  9
$USERI1
 70
     0
  9
$USERI2
 70
     0
  9
$USERI3
 70
     0
  9
$USERI4
 70
     0
  9
$USERI5
 70
     0
  9
$USERR1
 40
0.0
  9
$USERR2
 40
0.0
  9
$USERR3
 40
0.0
  9
$USERR4
 40
0.0
  9
$USERR5
 40
0.0
  9
$WORLDVIEW
 70
     1
  9
$SHADEDGE
 70
     3
  9
$SHADEDIF
 70
    70
  9
$TILEMODE
 70
     1
  9
$MAXACTVP
 70
    64
  9
$PINSBASE
 10
0.0
 20
0.0
 30
0.0
  9
$PLIMCHECK
 70
     0
  9
$PEXTMIN
 10
1.0000000000E+20
 20
1.0000000000E+20
 30
1.0000000000E+20
  9
$PEXTMAX
 10
-1.0000000000E+20
 20
-1.0000000000E+20
 30
-1.0000000000E+20
  9
$PLIMMIN
 10
0.0
 20
0.0
  9
$PLIMMAX
 10
420.0
 20
297.0
  9
$UNITMODE
 70
     0
  9
$VISRETAIN
 70
     1
  9
$PLINEGEN
 70
     0
  9
$PSLTSCALE
 70
     1
  9
$TREEDEPTH
 70
  3020
  9
$CMLSTYLE
  2
Standard
  9
$CMLJUST
 70
     0
  9
$CMLSCALE
 40
20.0
  9
$PROXYGRAPHICS
 70
     1
  9
$MEASUREMENT
 70
     1
  9
$CELWEIGHT
370
    -1
  9
$ENDCAPS
280
     0
  9
$JOINSTYLE
280
     0
  9
$LWDISPLAY
290
     1
  9
$INSUNITS
 70
     4
  9
$HYPERLINKBASE
  1

  9
$STYLESHEET
  1

  9
$XEDIT
290
     1
  9
$CEPSNTYPE
380
     0
  9
$PSTYLEMODE
290
     1
  9
$FINGERPRINTGUID
  2
{9243D82E-1CDF-4FF9-963E-A1BBA85E1A9F}
  9
$VERSIONGUID
  2
{FAEB1C32-E019-11D5-929B-00C0DF256EC4}
  9
$EXTNAMES
290
     1
  9
$PSVPSCALE
 40
0.0
  9
$OLESTARTUP
290
     0
  0
ENDSEC
  0
SECTION
  2
CLASSES
  0
CLASS
  1
ACDBDICTIONARYWDFLT
  2
AcDbDictionaryWithDefault
  3
ObjectDBX Classes
 90
        0
280
     0
281
     0
  0
CLASS
  1
VISUALSTYLE
  2
AcDbVisualStyle
  3
ObjectDBX Classes
 90
     4095
280
     0
281
     0
  0
CLASS
  1
MATERIAL
  2
AcDbMaterial
  3
ObjectDBX Classes
 90
     1153
280
     0
281
     0
  0
CLASS
  1
SCALE
  2
AcDbScale
  3
ObjectDBX Classes
 90
     1153
280
     0
281
     0
  0
CLASS
  1
TABLESTYLE
  2
AcDbTableStyle
  3
ObjectDBX Classes
 90
     4095
280
     0
281
     0
  0
CLASS
  1
MLEADERSTYLE
  2
AcDbMLeaderStyle
  3
ACDB_MLEADERSTYLE_CLASS
 90
     4095
280
     0
281
     0
  0
CLASS
  1
SUN
  2
AcDbSun
  3
SCENEOE
 90
     1153
280
     0
281
     0
  0
CLASS
  1
ACDBPLACEHOLDER
  2
AcDbPlaceHolder
  3
ObjectDBX Classes
 90
        0
280
     0
281
     0
  0
CLASS
  1
LAYOUT
  2
AcDbLayout
  3
ObjectDBX Classes
 90
        0
280
     0
281
     0
  0
ENDSEC
  0
SECTION
  2
TABLES
  0
TABLE
  2
VPORT
  5
8
330
0
100
AcDbSymbolTable
 70
     1
  0
VPORT
  5
29
330
8
100
AcDbSymbolTableRecord
100
AcDbViewportTableRecord
  2
*Active
 70
     0
 10
0.0
 20
0.0
 11
1.0
 21
1.0
 12
148.5
 22
105.0
 13
0.0
 23
0.0
 14
10.0
 24
10.0
 15
10.0
 25
10.0
 16
0.0
 26
0.0
 36
1.0
 17
0.0
 27
0.0
 37
0.0
 40
210.0
 41
1.4142857143
 42
50.0
 43
0.0
 44
0.0
 50
0.0
 51
0.0
 71
     0
 72
  2000
 73
     1
 74
     3
 75
     0
 76
     0
 77
     0
 78
     0
281
     0
 65
     1
110
0.0
120
0.0
130
0.0
111
1.0
121
0.0
131
0.0
112
0.0
122
1.0
132
0.0
 79
     0
146
0.0
  0
ENDTAB
  0
TABLE
  2
LTYPE
  5
5
330
0
100
AcDbSymbolTable
 70
     6
  0
LTYPE
  5
14
330
5
100
AcDbSymbolTableRecord
100
AcDbLinetypeTableRecord
  2
ByBlock
 70
     0
  3

 72
    65
 73
     0
 40
0.0
  0
LTYPE
  5
15
330
5
100
AcDbSymbolTableRecord
100
AcDbLinetypeTableRecord
  2
ByLayer
 70
     0
  3

 72
    65
 73
     0
 40
0.0
  0
LTYPE
  5
16
330
5
100
AcDbSymbolTableRecord
100
AcDbLinetypeTableRecord
  2
Continuous
 70
     0
  3
Solid line
 72
    65
 73
     0
 40
0.0
  0
LTYPE
  5
6E
330
5
100
AcDbSymbolTableRecord
100
AcDbLinetypeTableRecord
  2
HIDDEN
 70
     0
  3
Hidden __ __ __ __ __ __ __ __ __ __ __ __ __ __
 72
    65
 73
     2
 40
1.905
 49
1.27
 74
     0
 49
-0.635
 74
     0
  0
LTYPE
  5
6F
330
5
100
AcDbSymbolTableRecord
100
AcDbLinetypeTableRecord
  2
PHANTOM
 70
     0
  3
Phantom ______  __  __  ______  __  __  ______
 72
    65
 73
     6
 40
12.7
 49
6.35
 74
     0
 49
-1.27
 74
     0
 49
1.27
 74
     0
 49
-1.27
 74
     0
 49
1.27
 74
     0
 49
-1.27
 74
     0
  0
LTYPE
  5
70
330
5
100
AcDbSymbolTableRecord
100
AcDbLinetypeTableRecord
  2
CENTER
 70
     0
  3
Center ____ _ ____ _ ____ _ ____ _ ____ _ ____
 72
    65
 73
     4
 40
10.16
 49
6.35
 74
     0
 49
-1.27
 74
     0
 49
1.27
 74
     0
 49
-1.27
 74
     0
  0
LTYPE
  5
71
330
5
100
AcDbSymbolTableRecord
100
AcDbLinetypeTableRecord
  2
CENTERX2
 70
     0
  3
Center (2x) ________  __  ________  __  _____
 72
    65
 73
     4
 40
20.32
 49
12.7
 74
     0
 49
-2.54
 74
     0
 49
2.54
 74
     0
 49
-2.54
 74
     0
  0
LTYPE
  5
72
330
5
100
AcDbSymbolTableRecord
100
AcDbLinetypeTableRecord
  2
DOT2
 70
     0
  3
Dot (.5x) ........................................
 72
    65
 73
     2
 40
0.635
 49
0.0
 74
     0
 49
-0.635
 74
     0
  0
ENDTAB
  0
TABLE
  2
LAYER
  5
2
330
0
100
AcDbSymbolTable
 70
     5
  0
LAYER
  5
10
330
2
100
AcDbSymbolTableRecord
100
AcDbLayerTableRecord
  2
0
 70
     0
 62
     7
  6
Continuous
370
    -3
390
F
  0
LAYER
  5
73
330
2
100
AcDbSymbolTableRecord
100
AcDbLayerTableRecord
  2
FORMAT
 70
     0
 62
     7
  6
Continuous
370
    -3
390
F
  0
LAYER
  5
74
330
2
100
AcDbSymbolTableRecord
100
AcDbLayerTableRecord
  2
VERMASSUNG
 70
     0
 62
     7
  6
Continuous
370
    -3
390
F
  0
LAYER
  5
75
330
2
100
AcDbSymbolTableRecord
100
AcDbLayerTableRecord
  2
KOPF_DÜNN
 70
     0
 62
     7
  6
Continuous
370
    -3
390
F
  0
LAYER
  5
76
330
2
100
AcDbSymbolTableRecord
100
AcDbLayerTableRecord
  2
KOPF_DICK
 70
     0
 62
     7
  6
Continuous
370
    15
390
F
  0
ENDTAB
  0
TABLE
  2
STYLE
  5
3
330
0
100
AcDbSymbolTable
 70
     3
  0
STYLE
  5
11
330
3
100
AcDbSymbolTableRecord
100
AcDbTextStyleTableRecord
  2
Standard
 70
     0
 40
0.0
 41
1.0
 50
0.0
 71
     0
 42
2.0
  3
txt
  4

  0
STYLE
  5
77
330
3
100
AcDbSymbolTableRecord
100
AcDbTextStyleTableRecord
  2
SLDTEXTSTYLE0
 70
     0
 40
0.0
 41
0.7
 50
0.0
 71
     0
 42
2.0
  3
TXT
  4

  0
STYLE
  5
7B
330
3
100
AcDbSymbolTableRecord
100
AcDbTextStyleTableRecord
  2
SLDTEXTSTYLE1
 70
     0
 40
0.0
 41
0.6466666667
 50
0.0
 71
     0
 42
2.0
  3
TXT
  4

  0
ENDTAB
  0
TABLE
  2
VIEW
  5
6
330
0
100
AcDbSymbolTable
 70
     0
  0
ENDTAB
  0
TABLE
  2
UCS
  5
7
330
0
100
AcDbSymbolTable
 70
     0
  0
ENDTAB
  0
TABLE
  2
APPID
  5
9
330
0
100
AcDbSymbolTable
 70
     1
  0
APPID
  5
12
330
9
100
AcDbSymbolTableRecord
100
AcDbRegAppTableRecord
  2
ACAD
 70
     0
  0
ENDTAB
  0
TABLE
  2
DIMSTYLE
  5
A
330
0
100
AcDbSymbolTable
 70
     2
100
AcDbDimStyleTable
  0
DIMSTYLE
105
27
330
A
100
AcDbSymbolTableRecord
100
AcDbDimStyleTableRecord
  2
ISO-25
 70
     0
 41
2.5
 42
0.625
 43
3.75
 44
1.25
 73
     0
 74
     0
 77
     1
 78
     8
140
2.5
141
2.5
143
0.0393700787
147
0.625
171
     3
172
     1
178
     0
271
     2
272
     2
274
     3
278
    44
283
     0
284
     8
340
11
  0
DIMSTYLE
105
18A
102
{ACAD_REACTORS
330
189
330
196
330
1A2
330
1AC
102
}
330
A
100
AcDbSymbolTableRecord
100
AcDbDimStyleTableRecord
  2
SLDDIMSTYLE0
 70
     0
 41
3.0
 44
0.0
 45
0.000000001
 73
     0
 74
     0
 77
     1
 78
    12
 79
     3
140
2.0
147
0.5
173
     1
178
     0
271
     2
272
     3
276
     2
284
    12
340
77
  0
ENDTAB
  0
TABLE
  2
BLOCK_RECORD
  5
1
330
0
100
AcDbSymbolTable
 70
     5
  0
BLOCK_RECORD
  5
1F
330
1
100
AcDbSymbolTableRecord
100
AcDbBlockTableRecord
  2
*Model_Space
340
22
  0
BLOCK_RECORD
  5
1B
330
1
100
AcDbSymbolTableRecord
100
AcDbBlockTableRecord
  2
*Paper_Space
340
1E
  0
BLOCK_RECORD
  5
23
330
1
100
AcDbSymbolTableRecord
100
AcDbBlockTableRecord
  2
*Paper_Space0
340
26
  0
BLOCK_RECORD
  5
18B
330
1
100
AcDbSymbolTableRecord
100
AcDbBlockTableRecord
  2
_D
340
0
  0
BLOCK_RECORD
  5
197
330
1
100
AcDbSymbolTableRecord
100
AcDbBlockTableRecord
  2
_D_1
340
0
  0
BLOCK_RECORD
  5
1A3
330
1
100
AcDbSymbolTableRecord
100
AcDbBlockTableRecord
  2
_D_2
340
0
  0
BLOCK_RECORD
  5
1AD
330
1
100
AcDbSymbolTableRecord
100
AcDbBlockTableRecord
  2
_D_3
340
0
  0
ENDTAB
  0
ENDSEC
  0
SECTION
  2
BLOCKS
  0
BLOCK
  5
20
330
1F
100
AcDbEntity
  8
0
100
AcDbBlockBegin
  2
*Model_Space
 70
     0
 10
0.0
 20
0.0
 30
0.0
  3
*Model_Space
  1

  0
ENDBLK
  5
21
330
1F
100
AcDbEntity
  8
0
100
AcDbBlockEnd
  0
BLOCK
  5
1C
330
1B
100
AcDbEntity
 67
     1
  8
0
100
AcDbBlockBegin
  2
*Paper_Space
 70
     0
 10
0.0
 20
0.0
 30
0.0
  3
*Paper_Space
  1

  0
ENDBLK
  5
1D
330
1B
100
AcDbEntity
 67
     1
  8
0
100
AcDbBlockEnd
  0
BLOCK
  5
24
330
23
100
AcDbEntity
  8
0
100
AcDbBlockBegin
  2
*Paper_Space0
 70
     0
 10
0.0
 20
0.0
 30
0.0
  3
*Paper_Space0
  1

  0
ENDBLK
  5
25
330
23
100
AcDbEntity
  8
0
100
AcDbBlockEnd
  0
BLOCK
  5
18C
330
18B
100
AcDbEntity
  8
0
100
AcDbBlockBegin
  2
_D
 70
     0
 10
0.0
 20
0.0
 30
0.0
  3
_D
  1

  0
SOLID
  5
18E
330
18B
100
AcDbEntity
  8
VERMASSUNG
100
AcDbTrace
 10
100.2719754046
 20
91.9234915316
 30
0.0
 11
100.7219754046
 21
94.9234915316
 31
0.0
 12
99.8219754046
 22
94.9234915316
 32
0.0
 13
99.8219754046
 23
94.9234915316
 33
0.0
  0
SOLID
  5
18F
330
18B
100
AcDbEntity
  8
VERMASSUNG
100
AcDbTrace
 10
100.2719754046
 20
141.8734915316
 30
0.0
 11
99.8219754046
 21
138.8734915316
 31
0.0
 12
100.7219754046
 22
138.8734915316
 32
0.0
 13
100.7219754046
 23
138.8734915316
 33
0.0
  0
LINE
  5
190
330
18B
100
AcDbEntity
  8
VERMASSUNG
100
AcDbLine
 10
156.5859522138
 20
91.9234915316
 30
0.0
 11
99.2719754046
 21
91.9234915316
 31
0.0
  0
LINE
  5
191
330
18B
100
AcDbEntity
  8
VERMASSUNG
100
AcDbLine
 10
156.5859522138
 20
141.8734915316
 30
0.0
 11
99.2719754046
 21
141.8734915316
 31
0.0
  0
LINE
  5
192
330
18B
100
AcDbEntity
  8
VERMASSUNG
100
AcDbLine
 10
100.2719754046
 20
91.9234915316
 30
0.0
 11
100.2719754046
 21
141.8734915316
 31
0.0
  0
MTEXT
  5
193
330
18B
100
AcDbEntity
  8
VERMASSUNG
100
AcDbMText
 10
97.4938401484
 20
107.3940558983
 30
0.0
 40
2.0
 41
0.0
 71
     1
 72
     1
  1
ISO 30
  7
SLDTEXTSTYLE0
 11
3.391901413832837E-15
 21
1.0
 31
0.0
 73
     1
 44
1.0
  0
MTEXT
  5
194
330
18B
100
AcDbEntity
  8
VERMASSUNG
100
AcDbMText
 10
97.6938400997
 20
116.3940555108
 30
0.0
 40
2.0
 41
0.0
 71
     1
 72
     1
  1
%%c
  7
SLDTEXTSTYLE0
 11
3.391901413832837E-15
 21
1.0
 31
0.0
 73
     1
 44
1.0
  0
MTEXT
  5
195
330
18B
100
AcDbEntity
  8
VERMASSUNG
100
AcDbMText
 10
97.6938398086
 20
120.0033988437
 30
0.0
 40
2.0
 41
0.0
 71
     1
 72
     1
  1
49.95
  7
SLDTEXTSTYLE0
 11
3.391901413832837E-15
 21
1.0
 31
0.0
 73
     1
 44
1.0
  0
ENDBLK
  5
18D
330
18B
100
AcDbEntity
  8
0
100
AcDbBlockEnd
  0
BLOCK
  5
198
330
197
100
AcDbEntity
  8
0
100
AcDbBlockBegin
  2
_D_1
 70
     0
 10
0.0
 20
0.0
 30
0.0
  3
_D_1
  1

  0
ARC
  5
19A
330
197
100
AcDbEntity
  8
VERMASSUNG
100
AcDbCircle
 10
147.6227457256
 20
157.6201579331
 30
0.0
 40
4.247059938537323
100
AcDbArc
 50
153.4349488229
 51
206.5650511771
  0
ARC
  5
19B
330
197
100
AcDbEntity
  8
VERMASSUNG
100
AcDbCircle
 10
149.3991587019
 20
157.6201579331
 30
0.0
 40
4.247059938537272
100
AcDbArc
 50
333.4349488229
 51
26.5650511771
  0
SOLID
  5
19C
330
197
100
AcDbEntity
  8
VERMASSUNG
100
AcDbTrace
 10
105.1359522138
 20
155.7208149876
 30
0.0
 11
108.1359522138
 21
155.2708149876
 31
0.0
 12
108.1359522138
 22
156.1708149876
 32
0.0
 13
108.1359522138
 23
156.1708149876
 33
0.0
  0
SOLID
  5
19D
330
197
100
AcDbEntity
  8
VERMASSUNG
100
AcDbTrace
 10
191.8859522138
 20
155.7208149876
 30
0.0
 11
188.8859522138
 21
156.1708149876
 31
0.0
 12
188.8859522138
 22
155.2708149876
 32
0.0
 13
188.8859522138
 23
155.2708149876
 33
0.0
  0
LINE
  5
19E
330
197
100
AcDbEntity
  8
VERMASSUNG
100
AcDbLine
 10
105.1359522138
 20
124.9597887953
 30
0.0
 11
105.1359522138
 21
156.7208149876
 31
0.0
  0
LINE
  5
19F
330
197
100
AcDbEntity
  8
VERMASSUNG
100
AcDbLine
 10
191.8859522138
 20
143.8984915316
 30
0.0
 11
191.8859522138
 21
156.7208149876
 31
0.0
  0
LINE
  5
1A0
330
197
100
AcDbEntity
  8
VERMASSUNG
100
AcDbLine
 10
105.1359522138
 20
155.7208149876
 30
0.0
 11
191.8859522138
 21
155.7208149876
 31
0.0
  0
MTEXT
  5
1A1
330
197
100
AcDbEntity
  8
VERMASSUNG
100
AcDbMText
 10
145.4115598348
 20
158.2989505836
 30
0.0
 40
2.0
 41
0.0
 71
     1
 72
     1
  1
86.75
  7
SLDTEXTSTYLE0
 73
     1
 44
1.0
  0
ENDBLK
  5
199
330
197
100
AcDbEntity
  8
0
100
AcDbBlockEnd
  0
BLOCK
  5
1A4
330
1A3
100
AcDbEntity
  8
0
100
AcDbBlockBegin
  2
_D_2
 70
     0
 10
0.0
 20
0.0
 30
0.0
  3
_D_2
  1

  0
SOLID
  5
1A6
330
1A3
100
AcDbEntity
  8
VERMASSUNG
100
AcDbTrace
 10
152.7859522138
 20
149.7208149876
 30
0.0
 11
155.7859522138
 21
149.2708149876
 31
0.0
 12
155.7859522138
 22
150.1708149876
 32
0.0
 13
155.7859522138
 23
150.1708149876
 33
0.0
  0
SOLID
  5
1A7
330
1A3
100
AcDbEntity
  8
VERMASSUNG
100
AcDbTrace
 10
191.8859522138
 20
149.7208149876
 30
0.0
 11
188.8859522138
 21
150.1708149876
 31
0.0
 12
188.8859522138
 22
149.2708149876
 32
0.0
 13
188.8859522138
 23
149.2708149876
 33
0.0
  0
LINE
  5
1A8
330
1A3
100
AcDbEntity
  8
VERMASSUNG
100
AcDbLine
 10
152.7859522138
 20
132.7734915316
 30
0.0
 11
152.7859522138
 21
150.7208149876
 31
0.0
  0
LINE
  5
1A9
330
1A3
100
AcDbEntity
  8
VERMASSUNG
100
AcDbLine
 10
191.8859522138
 20
143.8984915316
 30
0.0
 11
191.8859522138
 21
150.7208149876
 31
0.0
  0
LINE
  5
1AA
330
1A3
100
AcDbEntity
  8
VERMASSUNG
100
AcDbLine
 10
152.7859522138
 20
149.7208149876
 30
0.0
 11
191.8859522138
 21
149.7208149876
 31
0.0
  0
MTEXT
  5
1AB
330
1A3
100
AcDbEntity
  8
VERMASSUNG
100
AcDbMText
 10
170.13659691
 20
152.2989505836
 30
0.0
 40
2.0
 41
0.0
 71
     1
 72
     1
  1
39.1
  7
SLDTEXTSTYLE0
 73
     1
 44
1.0
  0
ENDBLK
  5
1A5
330
1A3
100
AcDbEntity
  8
0
100
AcDbBlockEnd
  0
BLOCK
  5
1AE
330
1AD
100
AcDbEntity
  8
0
100
AcDbBlockBegin
  2
_D_3
 70
     0
 10
0.0
 20
0.0
 30
0.0
  3
_D_3
  1

  0
SOLID
  5
1B0
330
1AD
100
AcDbEntity
  8
VERMASSUNG
100
AcDbTrace
 10
200.091637087
 20
144.3984915316
 30
0.0
 11
199.641637087
 21
141.3984915316
 31
0.0
 12
200.541637087
 22
141.3984915316
 32
0.0
 13
200.541637087
 23
141.3984915316
 33
0.0
  0
SOLID
  5
1B1
330
1AD
100
AcDbEntity
  8
VERMASSUNG
100
AcDbTrace
 10
200.091637087
 20
89.3984915316
 30
0.0
 11
200.541637087
 21
92.3984915316
 31
0.0
 12
199.641637087
 22
92.3984915316
 32
0.0
 13
199.641637087
 23
92.3984915316
 33
0.0
  0
LINE
  5
1B2
330
1AD
100
AcDbEntity
  8
VERMASSUNG
100
AcDbLine
 10
191.3859522138
 20
144.3984915316
 30
0.0
 11
201.091637087
 21
144.3984915316
 31
0.0
  0
LINE
  5
1B3
330
1AD
100
AcDbEntity
  8
VERMASSUNG
100
AcDbLine
 10
191.3859522138
 20
89.3984915316
 30
0.0
 11
201.091637087
 21
89.3984915316
 31
0.0
  0
LINE
  5
1B4
330
1AD
100
AcDbEntity
  8
VERMASSUNG
100
AcDbLine
 10
200.091637087
 20
144.3984915316
 30
0.0
 11
200.091637087
 21
89.3984915316
 31
0.0
  0
MTEXT
  5
1B5
330
1AD
100
AcDbEntity
  8
VERMASSUNG
100
AcDbMText
 10
197.3135018307
 20
110.4934918881
 30
0.0
 40
2.0
 41
0.0
 71
     1
 72
     1
  1
MBM
  7
SLDTEXTSTYLE0
 11
-7.044195017643634E-15
 21
1.0
 31
0.0
 73
     1
 44
1.0
  0
MTEXT
  5
1B6
330
1AD
100
AcDbEntity
  8
VERMASSUNG
100
AcDbMText
 10
197.513501782
 20
116.8934917264
 30
0.0
 40
2.0
 41
0.0
 71
     1
 72
     1
  1
%%c
  7
SLDTEXTSTYLE0
 11
-7.044195017643634E-15
 21
1.0
 31
0.0
 73
     1
 44
1.0
  0
MTEXT
  5
1B7
330
1AD
100
AcDbEntity
  8
VERMASSUNG
100
AcDbMText
 10
197.3135018307
 20
120.5034922063
 30
0.0
 40
2.0
 41
0.0
 71
     1
 72
     1
  1
55
  7
SLDTEXTSTYLE0
 11
-7.044195017643634E-15
 21
1.0
 31
0.0
 73
     1
 44
1.0
  0
ENDBLK
  5
1AF
330
1AD
100
AcDbEntity
  8
0
100
AcDbBlockEnd
  0
ENDSEC
  0
SECTION
  2
ENTITIES
  0
MTEXT
  5
78
330
1F
100
AcDbEntity
  8
KOPF_DÜNN
100
AcDbMText
 10
13.8892156294
 20
23.8442973028
 30
0.0
 40
3.0
 41
0.0
 71
     1
 72
     1
  1
102.325.551
  7
SLDTEXTSTYLE0
 73
     1
 44
1.0
  0
MTEXT
  5
79
330
1F
100
AcDbEntity
  8
VERMASSUNG
100
AcDbMText
 10
13.9329988022
 20
28.8834360957
 30
0.0
 40
3.0
 41
0.0
 71
     1
 72
     1
  1
Aufnahme_Master shank MBM 55
  7
SLDTEXTSTYLE0
 73
     1
 44
1.0
  0
MTEXT
  5
7A
330
1F
100
AcDbEntity
  8
VERMASSUNG
100
AcDbMText
 10
98.8601118557
 20
13.8365368761
 30
0.0
 40
2.0
 41
0.0
 71
     1
 72
     1
  1
Datum: 05.11.2007
  7
SLDTEXTSTYLE0
 73
     1
 44
1.0
  0
MTEXT
  5
7C
330
1F
100
AcDbEntity
  8
VERMASSUNG
100
AcDbMText
 10
13.933048693
 20
18.0482802738
 30
0.0
 40
2.0
 41
0.0
 71
     1
 72
     1
  1
DIN 69 871 30 B
  7
SLDTEXTSTYLE1
 73
     1
 44
1.0
  0
MTEXT
  5
7D
330
1F
100
AcDbEntity
  8
VERMASSUNG
100
AcDbMText
 10
13.9808475933
 20
13.9090974274
 30
0.0
 40
2.0
 41
0.0
 71
     1
 72
     1
  1
Gewicht: 527g
  7
SLDTEXTSTYLE0
 73
     1
 44
1.0
  0
LINE
  5
7E
330
1F
100
AcDbEntity
  8
0
  6
Continuous
 62
     7
370
    15
100
AcDbLine
 10
180.6327296421
 20
89.3984915316
 30
0.0
 11
191.3859522138
 21
89.3984915316
 31
0.0
  0
LINE
  5
7F
330
1F
100
AcDbEntity
  8
0
  6
Continuous
 62
     7
370
    15
100
AcDbLine
 10
191.3859522138
 20
144.3984915316
 30
0.0
 11
180.3449283792
 21
144.3984915316
 31
0.0
  0
LINE
  5
80
330
1F
100
AcDbEntity
  8
0
  6
Continuous
 62
     7
370
    15
100
AcDbLine
 10
191.3859522138
 20
89.3984915316
 30
0.0
 11
191.8859522138
 21
89.8984915316
 31
0.0
  0
LINE
  5
81
330
1F
100
AcDbEntity
  8
0
  6
Continuous
 62
     7
370
    15
100
AcDbLine
 10
191.8859522138
 20
143.8984915316
 30
0.0
 11
191.3859522138
 21
144.3984915316
 31
0.0
  0
ARC
  5
82
330
1F
100
AcDbEntity
  8
0
  6
Continuous
 62
     7
370
    15
100
AcDbCircle
 10
155.3859522138
 20
100.4234915316
 30
0.0
 40
0.6000000000000085
100
AcDbArc
 50
0.0
 51
90.0
  0
ARC
  5
83
330
1F
100
AcDbEntity
  8
0
  6
Continuous
 62
     7
370
    15
100
AcDbCircle
 10
155.3859522138
 20
133.3734915316
 30
0.0
 40
0.5999999999999943
100
AcDbArc
 50
270.0
 51
0.0
  0
LINE
  5
84
330
1F
100
AcDbEntity
  8
0
  6
Continuous
 62
     7
370
    15
100
AcDbLine
 10
152.7859522138
 20
132.7734915316
 30
0.0
 11
105.9916453207
 21
125.9493217764
 31
0.0
  0
LINE
  5
85
330
1F
100
AcDbEntity
  8
0
  6
Continuous
 62
     7
370
    15
100
AcDbLine
 10
105.9916453207
 20
107.8476612869
 30
0.0
 11
152.7859522138
 21
101.0234915316
 31
0.0
  0
LINE
  5
86
330
1F
100
AcDbEntity
  8
0
  6
Continuous
 62
     7
370
    15
100
AcDbLine
 10
152.7859522138
 20
101.0234915316
 30
0.0
 11
155.3859522138
 21
101.0234915316
 31
0.0
  0
LINE
  5
87
330
1F
100
AcDbEntity
  8
0
  6
Continuous
 62
     7
370
    15
100
AcDbLine
 10
155.3859522138
 20
132.7734915316
 30
0.0
 11
152.7859522138
 21
132.7734915316
 31
0.0
  0
ARC
  5
88
330
1F
100
AcDbEntity
  8
0
  6
Continuous
 62
     7
370
    15
100
AcDbCircle
 10
106.1359522138
 20
108.8371942679
 30
0.0
 40
1.00000000000001
100
AcDbArc
 50
180.0
 51
261.7028550302
  0
ARC
  5
89
330
1F
100
AcDbEntity
  8
0
  6
Continuous
 62
     7
370
    15
100
AcDbCircle
 10
106.1359522138
 20
124.9597887953
 30
0.0
 40
1.000000000000024
100
AcDbArc
 50
98.2971449698
 51
180.0
  0
SPLINE
  5
8A
330
1F
100
AcDbEntity
  8
0
  6
Continuous
 62
     7
370
    15
100
AcDbSpline
210
0.0
220
0.0
230
1.0
 70
    24
 71
     3
 72
    13
 73
     9
 74
     0
 42
0.000000001
 43
0.00000001
 40
0.0
 40
0.0
 40
0.0
 40
0.0
 40
0.133307891020161
 40
0.3081793907436537
 40
0.4826178978901963
 40
0.6492099713623944
 40
0.8161279311171457
 40
1.0
 40
1.0
 40
1.0
 40
1.0
 10
179.068003021358
 20
113.8984915316245
 30
0.0
 10
178.9227335469731
 20
113.8984915316245
 30
0.0
 10
178.5869015285759
 20
113.8984915316245
 30
0.0
 10
178.0292897255939
 20
113.8984915316245
 30
0.0
 10
177.4088510348727
 20
113.8984915316245
 30
0.0
 10
176.7951128278667
 20
113.8984915316245
 30
0.0
 10
176.1890615700183
 20
113.8984915316245
 30
0.0
 10
175.8051399276048
 20
113.8984915316245
 30
0.0
 10
175.6039014062202
 20
113.8984915316245
 30
0.0
  0
SPLINE
  5
8B
330
1F
100
AcDbEntity
  8
0
  6
Continuous
 62
     7
370
    15
100
AcDbSpline
210
0.0
220
0.0
230
1.0
 70
    24
 71
     3
 72
    11
 73
     7
 74
     0
 42
0.000000001
 43
0.00000001
 40
0.0
 40
0.0
 40
0.0
 40
0.0
 40
0.2164553779443444
 40
0.4403112895790563
 40
0.7519005688038766
 40
0.9999999999999999
 40
0.9999999999999999
 40
0.9999999999999999
 40
0.9999999999999999
 10
180.8000538289269
 20
116.8984915316245
 30
0.0
 10
180.6814066704068
 20
116.692988624894
 30
0.0
 10
180.4400558485006
 20
116.2749567389041
 30
0.0
 10
179.9921731838483
 20
115.4992012078968
 30
0.0
 10
179.5117386852654
 20
114.6670642466423
 30
0.0
 10
179.2042894560616
 20
114.1345465609136
 30
0.0
 10
179.068003021358
 20
113.8984915316245
 30
0.0
  0
SPLINE
  5
8C
330
1F
100
AcDbEntity
  8
0
  6
Continuous
 62
     7
370
    15
100
AcDbSpline
210
0.0
220
0.0
230
1.0
 70
    24
 71
     3
 72
    11
 73
     7
 74
     0
 42
0.000000001
 43
0.00000001
 40
0.0
 40
0.0
 40
0.0
 40
0.0
 40
0.216455377944345
 40
0.440311289579057
 40
0.7519005688038777
 40
1.0
 40
1.0
 40
1.0
 40
1.0
 10
179.068003021358
 20
119.8984915316245
 30
0.0
 10
179.1866501798781
 20
119.692988624894
 30
0.0
 10
179.4280010017843
 20
119.2749567389041
 30
0.0
 10
179.8758836664367
 20
118.4992012078968
 30
0.0
 10
180.3563181650196
 20
117.6670642466423
 30
0.0
 10
180.6637673942233
 20
117.1345465609136
 30
0.0
 10
180.8000538289269
 20
116.8984915316245
 30
0.0
  0
SPLINE
  5
8D
330
1F
100
AcDbEntity
  8
0
  6
Continuous
 62
     7
370
    15
100
AcDbSpline
210
0.0
220
0.0
230
1.0
 70
    24
 71
     3
 72
    13
 73
     9
 74
     0
 42
0.000000001
 43
0.00000001
 40
0.0
 40
0.0
 40
0.0
 40
0.0
 40
0.1838720688828539
 40
0.3507900286376051
 40
0.5173821021098031
 40
0.6918206092563456
 40
0.8666921089798382
 40
0.9999999999999999
 40
0.9999999999999999
 40
0.9999999999999999
 40
0.9999999999999999
 10
175.6039014062203
 20
119.8984915316245
 30
0.0
 10
175.8051399276048
 20
119.8984915316245
 30
0.0
 10
176.1890615700182
 20
119.8984915316245
 30
0.0
 10
176.7951128278667
 20
119.8984915316245
 30
0.0
 10
177.4088510348727
 20
119.8984915316245
 30
0.0
 10
178.0292897255939
 20
119.8984915316245
 30
0.0
 10
178.5869015285759
 20
119.8984915316245
 30
0.0
 10
178.9227335469731
 20
119.8984915316245
 30
0.0
 10
179.068003021358
 20
119.8984915316245
 30
0.0
  0
SPLINE
  5
8E
330
1F
100
AcDbEntity
  8
0
  6
Continuous
 62
     7
370
    15
100
AcDbSpline
210
0.0
220
0.0
230
1.0
 70
    24
 71
     3
 72
    11
 73
     7
 74
     0
 42
0.000000001
 43
0.00000001
 40
0.0
 40
0.0
 40
0.0
 40
0.0
 40
0.2164553779443456
 40
0.4403112895790577
 40
0.7519005688038781
 40
1.0
 40
1.0
 40
1.0
 40
1.0
 10
173.8718505986514
 20
116.8984915316245
 30
0.0
 10
173.9904977571715
 20
117.103994438355
 30
0.0
 10
174.2318485790776
 20
117.522026324345
 30
0.0
 10
174.67973124373
 20
118.2977818553523
 30
0.0
 10
175.1601657423129
 20
119.1299188166067
 30
0.0
 10
175.4676149715167
 20
119.6624365023355
 30
0.0
 10
175.6039014062202
 20
119.8984915316245
 30
0.0
  0
SPLINE
  5
8F
330
1F
100
AcDbEntity
  8
0
  6
Continuous
 62
     7
370
    15
100
AcDbSpline
210
0.0
220
0.0
230
1.0
 70
    24
 71
     3
 72
    11
 73
     7
 74
     0
 42
0.000000001
 43
0.00000001
 40
0.0
 40
0.0
 40
0.0
 40
0.0
 40
0.2164553779443453
 40
0.4403112895790566
 40
0.7519005688038771
 40
1.0
 40
1.0
 40
1.0
 40
1.0
 10
175.6039014062202
 20
113.8984915316245
 30
0.0
 10
175.4852542477002
 20
114.103994438355
 30
0.0
 10
175.243903425794
 20
114.522026324345
 30
0.0
 10
174.7960207611416
 20
115.2977818553523
 30
0.0
 10
174.3155862625587
 20
116.1299188166067
 30
0.0
 10
174.008137033355
 20
116.6624365023354
 30
0.0
 10
173.8718505986514
 20
116.8984915316245
 30
0.0
  0
CIRCLE
  5
90
330
1F
100
AcDbEntity
  8
0
  6
Continuous
 62
     7
370
    15
100
AcDbCircle
 10
177.3359522138
 20
116.8984915316
 30
0.0
 40
3.5
  0
CIRCLE
  5
91
330
1F
100
AcDbEntity
  8
0
  6
Continuous
 62
     7
370
    15
100
AcDbCircle
 10
177.3359522138
 20
116.8984915316
 30
0.0
 40
5.5
  0
CIRCLE
  5
92
330
1F
100
AcDbEntity
  8
0
  6
Continuous
 62
     7
370
    15
100
AcDbCircle
 10
177.3359522138
 20
116.8984915316
 30
0.0
 40
6.0
  0
ARC
  5
93
330
1F
100
AcDbEntity
  8
0
  6
Continuous
 62
     7
370
    15
100
AcDbCircle
 10
177.3359522138
 20
116.8984915316
 30
0.0
 40
3.0
100
AcDbArc
 50
210.0
 51
270.0
  0
ARC
  5
94
330
1F
100
AcDbEntity
  8
0
  6
Continuous
 62
     7
370
    15
100
AcDbCircle
 10
177.3359522138
 20
116.8984915316
 30
0.0
 40
3.0
100
AcDbArc
 50
90.0
 51
150.0
  0
ARC
  5
95
330
1F
100
AcDbEntity
  8
0
  6
Continuous
 62
     7
370
    15
100
AcDbCircle
 10
177.3359522138
 20
116.8984915316
 30
0.0
 40
3.0
100
AcDbArc
 50
30.0
 51
90.0
  0
ARC
  5
96
330
1F
100
AcDbEntity
  8
0
  6
Continuous
 62
     7
370
    15
100
AcDbCircle
 10
177.3359522138
 20
116.8984915316
 30
0.0
 40
2.999999999999976
100
AcDbArc
 50
150.0
 51
210.0
  0
ARC
  5
97
330
1F
100
AcDbEntity
  8
0
  6
Continuous
 62
     7
370
    15
100
AcDbCircle
 10
177.3359522138
 20
116.8984915316
 30
0.0
 40
3.0
100
AcDbArc
 50
270.0
 51
330.0
  0
ARC
  5
98
330
1F
100
AcDbEntity
  8
0
  6
Continuous
 62
     7
370
    15
100
AcDbCircle
 10
177.3359522138
 20
116.8984915316
 30
0.0
 40
3.0
100
AcDbArc
 50
330.0
 51
30.0
  0
LINE
  5
99
330
1F
100
AcDbEntity
  8
0
  6
Continuous
 62
     7
370
    15
100
AcDbLine
 10
179.8359522138
 20
131.7484915316
 30
0.0
 11
174.7751657762
 21
131.7484915316
 31
0.0
  0
LINE
  5
9A
330
1F
100
AcDbEntity
  8
0
  6
Continuous
 62
     7
370
    15
100
AcDbLine
 10
179.8359522138
 20
132.1997169727
 30
0.0
 11
179.8359522138
 21
131.7484915316
 31
0.0
  0
SPLINE
  5
9B
330
1F
100
AcDbEntity
  8
0
  6
Continuous
 62
     7
370
    15
100
AcDbSpline
210
0.0
220
0.0
230
1.0
 70
     8
 71
     3
 72
    24
 73
    20
 74
     0
 42
0.000000001
 43
0.00000001
 40
0.0
 40
0.0
 40
0.0
 40
0.0
 40
0.1250000000000008
 40
0.1250000000000008
 40
0.1875000000000009
 40
0.1875000000000009
 40
0.2500000000000011
 40
0.2500000000000011
 40
0.3750000000000026
 40
0.3750000000000026
 40
0.4375000000000028
 40
0.4375000000000028
 40
0.5000000000000031
 40
0.5000000000000031
 40
0.6250000000000022
 40
0.6250000000000022
 40
0.7500000000000013
 40
0.7500000000000013
 40
1.0
 40
1.0
 40
1.0
 40
1.0
 10
174.7751657761622
 20
139.6756132843688
 30
0.0
 10
175.2474482534213
 20
139.5493954701458
 30
0.0
 10
175.6853896788732
 20
139.3942625645123
 30
0.0
 10
176.2962530653788
 20
139.1176545499356
 30
0.0
 10
176.4921369048457
 20
139.0180754456688
 30
0.0
 10
176.8687483688843
 20
138.8034724798872
 30
0.0
 10
177.0495225061511
 20
138.6882401647324
 30
0.0
 10
177.558842564788
 20
138.3261956140932
 30
0.0
 10
177.8588487540264
 20
138.0608679581748
 30
0.0
 10
178.2572851657391
 20
137.6262358891462
 30
0.0
 10
178.3819200941812
 20
137.4745617839926
 30
0.0
 10
178.612134345371
 20
137.162359367786
 30
0.0
 10
178.7176969164668
 20
137.0020506994576
 30
0.0
 10
179.0087776632677
 20
136.5087159691667
 30
0.0
 10
179.1688116555542
 20
136.1633007459345
 30
0.0
 10
179.4326800517646
 20
135.4398921319975
 30
0.0
 10
179.536775685091
 20
135.0599718882139
 30
0.0
 10
179.7746775233743
 20
133.8864205901171
 30
0.0
 10
179.8359522137891
 20
133.0630837416078
 30
0.0
 10
179.8359522137891
 20
132.1997169727453
 30
0.0
  0
SPLINE
  5
9C
330
1F
100
AcDbEntity
  8
0
  6
Continuous
 62
     7
370
    15
100
AcDbSpline
210
0.0
220
0.0
230
1.0
 70
     8
 71
     3
 72
    15
 73
    11
 74
     0
 42
0.000000001
 43
0.00000001
 40
0.0
 40
0.0
 40
0.0
 40
0.0
 40
0.1248030493060198
 40
0.2515494745529167
 40
0.3776793756119128
 40
0.5029412734239128
 40
0.6279122541012307
 40
0.7520505681268902
 40
0.8768531279205236
 40
1.0
 40
1.0
 40
1.0
 40
1.0
 10
180.3449283791722
 20
144.3982880039842
 30
0.0
 10
180.3263890241992
 20
144.392138011958
 30
0.0
 10
180.289021627906
 20
144.3797422630457
 30
0.0
 10
179.9784466984588
 20
144.28058236663
 30
0.0
 10
179.49916445642
 20
144.1311888806079
 30
0.0
 10
178.8363574695458
 20
143.9405243687592
 30
0.0
 10
178.0187886076461
 20
143.7265539852939
 30
0.0
 10
177.0548176343574
 20
143.5083041116886
 30
0.0
 10
175.9772292912783
 20
143.300478766518
 30
0.0
 10
175.1740659008757
 20
143.1938609309178
 30
0.0
 10
174.7751657761622
 20
143.1409079845736
 30
0.0
  0
SPLINE
  5
9D
330
1F
100
AcDbEntity
  8
0
  6
Continuous
 62
     7
370
    15
100
AcDbSpline
210
0.0
220
0.0
230
1.0
 70
     8
 71
     3
 72
    16
 73
    12
 74
     0
 42
0.000000001
 43
0.00000001
 40
0.0
 40
0.0
 40
0.0
 40
0.0
 40
0.1228383646980263
 40
0.2479183619946106
 40
0.3724631224014099
 40
0.4973002052215046
 40
0.6221481834419047
 40
0.7478137536356209
 40
0.8739961578673103
 40
0.9990872851014407
 40
1.0
 40
1.0
 40
1.0
 40
1.0
 10
174.7751657761622
 20
90.7260771014549
 30
0.0
 10
175.1906663514849
 20
90.6718555097263
 30
0.0
 10
176.0292498208679
 20
90.56242285618082
 30
0.0
 10
177.15904645461
 20
90.34470270928225
 30
0.0
 10
178.1737891408401
 20
90.11478994355024
 30
0.0
 10
179.0357212606702
 20
89.88786374165673
 30
0.0
 10
179.7313525196764
 20
89.68591823083857
 30
0.0
 10
180.2466145068111
 20
89.52359732366439
 30
0.0
 10
180.5445985707789
 20
89.42770743494164
 30
0.0
 10
180.667820209443
 20
89.38720195267358
 30
0.0
 10
180.6329819944216
 20
89.39865766069984
 30
0.0
 10
180.6327296421334
 20
89.3987406406726
 30
0.0
  0
SPLINE
  5
9E
330
1F
100
AcDbEntity
  8
0
  6
Continuous
 62
     7
370
    15
100
AcDbSpline
210
0.0
220
0.0
230
1.0
 70
     8
 71
     3
 72
    32
 73
    28
 74
     0
 42
0.000000001
 43
0.00000001
 40
0.0
 40
0.0
 40
0.0
 40
0.0
 40
0.0625000000000005
 40
0.0625000000000005
 40
0.125000000000001
 40
0.125000000000001
 40
0.1875000000000015
 40
0.1875000000000015
 40
0.2500000000000021
 40
0.2500000000000021
 40
0.3125000000000026
 40
0.3125000000000026
 40
0.3750000000000032
 40
0.3750000000000032
 40
0.4375000000000032
 40
0.4375000000000032
 40
0.5000000000000032
 40
0.5000000000000032
 40
0.6250000000000028
 40
0.6250000000000028
 40
0.6875000000000026
 40
0.6875000000000026
 40
0.7500000000000023
 40
0.7500000000000023
 40
0.8750000000000012
 40
0.8750000000000012
 40
1.0
 40
1.0
 40
1.0
 40
1.0
 10
186.3359522137891
 20
116.8984915316245
 30
0.0
 10
186.3359522137891
 20
116.5683258574328
 30
0.0
 10
186.3113644755154
 20
116.233173489149
 30
0.0
 10
186.2143043208771
 20
115.5761140462603
 30
0.0
 10
186.1424045629351
 20
115.2541555553336
 30
0.0
 10
185.954095206739
 20
114.6227086765178
 30
0.0
 10
185.8372517418823
 20
114.3123042510782
 30
0.0
 10
185.5609209261797
 20
113.7077978948754
 30
0.0
 10
185.4037063703389
 20
113.4182687191781
 30
0.0
 10
185.0541534220158
 20
112.8624760029947
 30
0.0
 10
184.8617994638938
 20
112.5962233276305
 30
0.0
 10
184.4430213135282
 20
112.0860593842664
 30
0.0
 10
184.2172690799194
 20
111.8433589011912
 30
0.0
 10
183.7434535103819
 20
111.389923254704
 30
0.0
 10
183.4942364008571
 20
111.1777505859066
 30
0.0
 10
182.9721374088374
 20
110.7810156510388
 30
0.0
 10
182.6981177465782
 20
110.5957962201209
 30
0.0
 10
181.8482302683496
 20
110.0858843856047
 30
0.0
 10
181.2531501607401
 20
109.8105126062919
 30
0.0
 10
180.3200020202618
 20
109.4872131365861
 30
0.0
 10
180.0007062871507
 20
109.3942530694945
 30
0.0
 10
179.3547939823107
 20
109.2407902898652
 30
0.0
 10
179.0301899876872
 20
109.1805992575789
 30
0.0
 10
178.0515904762225
 20
109.0478010693428
 30
0.0
 10
177.392857865446
 20
109.0224180652614
 30
0.0
 10
176.062289273396
 20
109.1019913869916
 30
0.0
 10
175.4102957806796
 20
109.2060147620141
 30
0.0
 10
174.7751657761622
 20
109.3721723798102
 30
0.0
  0
SPLINE
  5
9F
330
1F
100
AcDbEntity
  8
0
  6
Continuous
 62
     7
370
    15
100
AcDbSpline
210
0.0
220
0.0
230
1.0
 70
     8
 71
     3
 72
    30
 73
    26
 74
     0
 42
0.000000001
 43
0.00000001
 40
0.0
 40
0.0
 40
0.0
 40
0.0
 40
0.1250000000000002
 40
0.1250000000000002
 40
0.2500000000000005
 40
0.2500000000000005
 40
0.3125000000000003
 40
0.3125000000000003
 40
0.3750000000000001
 40
0.3750000000000001
 40
0.4999999999999997
 40
0.4999999999999997
 40
0.5624999999999996
 40
0.5624999999999996
 40
0.6249999999999993
 40
0.6249999999999993
 40
0.6874999999999991
 40
0.6874999999999991
 40
0.7499999999999989
 40
0.7499999999999989
 40
0.8749999999999993
 40
0.8749999999999993
 40
0.9374999999999997
 40
0.9374999999999997
 40
1.0
 40
1.0
 40
1.0
 40
1.0
 10
174.7751657761622
 20
124.4248106834389
 30
0.0
 10
175.4113673013629
 20
124.5912486238821
 30
0.0
 10
176.0644582523246
 20
124.6953398457998
 30
0.0
 10
177.397345600077
 20
124.774613832773
 30
0.0
 10
178.0569749096371
 20
124.7488496820976
 30
0.0
 10
179.0365570565564
 20
124.6153178200258
 30
0.0
 10
179.3614276284465
 20
124.5548541604399
 30
0.0
 10
180.0077499508696
 20
124.4008139258848
 30
0.0
 10
180.3279087053741
 20
124.3073287855805
 30
0.0
 10
181.2614130042488
 20
123.9829995835947
 30
0.0
 10
181.8551319183549
 20
123.7073728970957
 30
0.0
 10
182.7011047807778
 20
123.199184796887
 30
0.0
 10
182.9770969650178
 20
123.0125245786969
 30
0.0
 10
183.5005067497033
 20
122.6141348154043
 30
0.0
 10
183.7490813914425
 20
122.4019676204414
 30
0.0
 10
184.2196506087476
 20
121.9510464050897
 30
0.0
 10
184.4416529715574
 20
121.7123010681666
 30
0.0
 10
184.8574854235572
 20
121.2063008071694
 30
0.0
 10
185.0524669514884
 20
120.9371959246155
 30
0.0
 10
185.5819999699571
 20
120.0952109995965
 30
0.0
 10
185.8576030713853
 20
119.4975582686356
 30
0.0
 10
186.1432151596388
 20
118.5402479287759
 30
0.0
 10
186.215828854254
 20
118.2127420744786
 30
0.0
 10
186.3117923096654
 20
117.5586748150331
 30
0.0
 10
186.3359522137891
 20
117.2296129302917
 30
0.0
 10
186.3359522137891
 20
116.8984915316245
 30
0.0
  0
LINE
  5
A0
330
1F
100
AcDbEntity
  8
0
  6
Continuous
 62
     7
370
    15
100
AcDbLine
 10
191.3859522138
 20
89.3984915316
 30
0.0
 11
191.3859522138
 21
144.3984915316
 31
0.0
  0
SPLINE
  5
A1
330
1F
100
AcDbEntity
  8
0
  6
Continuous
 62
     7
370
    15
100
AcDbSpline
210
0.0
220
0.0
230
1.0
 70
     8
 71
     3
 72
    10
 73
     6
 74
     0
 42
0.000000001
 43
0.00000001
 40
0.0
 40
0.0
 40
0.0
 40
0.0
 40
0.5
 40
0.5
 40
1.0
 40
1.0
 40
1.0
 40
1.0
 10
172.1288454326026
 20
113.0524638151862
 30
0.0
 10
172.026365595742
 20
113.3012459959248
 30
0.0
 10
171.9106321031539
 20
113.5493084538936
 30
0.0
 10
171.6698894765967
 20
114.049413595796
 30
0.0
 10
171.5456335376415
 20
114.2998463685693
 30
0.0
 10
171.421738651416
 20
114.5480615300079
 30
0.0
  0
SPLINE
  5
A2
330
1F
100
AcDbEntity
  8
0
  6
Continuous
 62
     7
370
    15
100
AcDbSpline
210
0.0
220
0.0
230
1.0
 70
     8
 71
     3
 72
    20
 73
    16
 74
     0
 42
0.000000001
 43
0.00000001
 40
0.0
 40
0.0
 40
0.0
 40
0.0
 40
0.125
 40
0.125
 40
0.2500000000000001
 40
0.2500000000000001
 40
0.5000000000000001
 40
0.5000000000000001
 40
0.6250000000000001
 40
0.6250000000000001
 40
0.75
 40
0.75
 40
0.875
 40
0.875
 40
1.0
 40
1.0
 40
1.0
 40
1.0
 10
171.421738651416
 20
114.5480615300079
 30
0.0
 10
171.331674503079
 20
114.7284990589518
 30
0.0
 10
171.251541517271
 20
114.9137560027876
 30
0.0
 10
171.1120030392992
 20
115.2943705518614
 30
0.0
 10
171.0522958839554
 20
115.491115054648
 30
0.0
 10
170.9092225972114
 20
116.0865752848955
 30
0.0
 10
170.8613228687906
 20
116.4879769835517
 30
0.0
 10
170.8607700662515
 20
117.0967450023478
 30
0.0
 10
170.8727486081729
 20
117.3021250968176
 30
0.0
 10
170.9209524913076
 20
117.7084159570304
 30
0.0
 10
170.9568743687803
 20
117.9083721063626
 30
0.0
 10
171.0513280689071
 20
118.3021949854661
 30
0.0
 10
171.1098630798333
 20
118.4960608435436
 30
0.0
 10
171.2492937524569
 20
118.8777883741723
 30
0.0
 10
171.3306624467188
 20
119.0664564167141
 30
0.0
 10
171.4217386514113
 20
119.2489215332317
 30
0.0
  0
SPLINE
  5
A3
330
1F
100
AcDbEntity
  8
0
  6
Continuous
 62
     7
370
    15
100
AcDbSpline
210
0.0
220
0.0
230
1.0
 70
     8
 71
     3
 72
    10
 73
     6
 74
     0
 42
0.000000001
 43
0.00000001
 40
0.0
 40
0.0
 40
0.0
 40
0.0
 40
0.5
 40
0.5
 40
1.0
 40
1.0
 40
1.0
 40
1.0
 10
171.4217386514114
 20
119.2489215332316
 30
0.0
 10
171.5458973888194
 20
119.4976653029595
 30
0.0
 10
171.6689959944084
 20
119.7457926848619
 30
0.0
 10
171.9083228210595
 20
120.24279920556
 30
0.0
 10
172.0246714942461
 20
120.4916244313421
 30
0.0
 10
172.1288454326007
 20
120.7445192480579
 30
0.0
  0
SPLINE
  5
A4
330
1F
100
AcDbEntity
  8
0
  6
Continuous
 62
     7
370
    15
100
AcDbSpline
210
0.0
220
0.0
230
1.0
 70
     8
 71
     3
 72
    12
 73
     8
 74
     0
 42
0.000000001
 43
0.00000001
 40
0.0
 40
0.0
 40
0.0
 40
0.0
 40
0.25
 40
0.25
 40
0.5
 40
0.5
 40
1.0
 40
1.0
 40
1.0
 40
1.0
 10
172.1288454326006
 20
120.7445192480579
 30
0.0
 10
172.2524628905101
 20
121.0446155567393
 30
0.0
 10
172.3894481847598
 20
121.339495149029
 30
0.0
 10
172.6810912711431
 20
121.9072626697315
 30
0.0
 10
172.8363633348645
 20
122.181796911614
 30
0.0
 10
173.3263915500571
 20
122.9807711836602
 30
0.0
 10
173.6851813174571
 20
123.4807174735569
 30
0.0
 10
174.0680589949755
 20
123.9546704437241
 30
0.0
  0
SPLINE
  5
A5
330
1F
100
AcDbEntity
  8
0
  6
Continuous
 62
     7
370
    15
100
AcDbSpline
210
0.0
220
0.0
230
1.0
 70
     8
 71
     3
 72
    10
 73
     6
 74
     0
 42
0.000000001
 43
0.00000001
 40
0.0
 40
0.0
 40
0.0
 40
0.0
 40
0.5
 40
0.5
 40
1.0
 40
1.0
 40
1.0
 40
1.0
 10
174.0680589949755
 20
123.9546704437241
 30
0.0
 10
174.1526874198485
 20
124.0594294716965
 30
0.0
 10
174.2562722998806
 20
124.1578605195968
 30
0.0
 10
174.495086877159
 20
124.321567218303
 30
0.0
 10
174.6322840854846
 20
124.3874311214899
 30
0.0
 10
174.7751657761621
 20
124.4248106834391
 30
0.0
  0
SPLINE
  5
A6
330
1F
100
AcDbEntity
  8
0
  6
Continuous
 62
     7
370
    15
100
AcDbSpline
210
0.0
220
0.0
230
1.0
 70
     8
 71
     3
 72
    10
 73
     6
 74
     0
 42
0.000000001
 43
0.00000001
 40
0.0
 40
0.0
 40
0.0
 40
0.0
 40
0.5
 40
0.5
 40
1.0
 40
1.0
 40
1.0
 40
1.0
 10
174.7751657761621
 20
109.3721723798099
 30
0.0
 10
174.6325325107804
 20
109.4094869507257
 30
0.0
 10
174.4955617576419
 20
109.4751252305295
 30
0.0
 10
174.2562546120186
 20
109.6390998204997
 30
0.0
 10
174.1531452834565
 20
109.7369868157132
 30
0.0
 10
174.0680589949756
 20
109.8423126195246
 30
0.0
  0
SPLINE
  5
A7
330
1F
100
AcDbEntity
  8
0
  6
Continuous
 62
     7
370
    15
100
AcDbSpline
210
0.0
220
0.0
230
1.0
 70
     8
 71
     3
 72
    10
 73
     6
 74
     0
 42
0.000000001
 43
0.00000001
 40
0.0
 40
0.0
 40
0.0
 40
0.0
 40
0.5
 40
0.5
 40
1.0
 40
1.0
 40
1.0
 40
1.0
 10
174.0680589949757
 20
109.8423126195246
 30
0.0
 10
173.6828571263386
 20
110.3191426372416
 30
0.0
 10
173.3231762702956
 20
110.8209480225817
 30
0.0
 10
172.6704245629904
 20
111.8862544391055
 30
0.0
 10
172.3771779115429
 20
112.4496067307919
 30
0.0
 10
172.1288454326026
 20
113.0524638151862
 30
0.0
  0
LINE
  5
A8
330
1F
100
AcDbEntity
  8
0
  6
Continuous
 62
     7
370
    15
100
AcDbLine
 10
191.8859522138
 20
89.8984915316
 30
0.0
 11
191.8859522138
 21
143.8984915316
 31
0.0
  0
SPLINE
  5
A9
330
1F
100
AcDbEntity
  8
0
  6
Continuous
 62
     7
370
    15
100
AcDbSpline
210
0.0
220
0.0
230
1.0
 70
    24
 71
     3
 72
     8
 73
     4
 74
     0
 42
0.000000001
 43
0.00000001
 40
0.0
 40
0.0
 40
0.0
 40
0.0
 40
1.0
 40
1.0
 40
1.0
 40
1.0
 10
174.0680589949757
 20
131.7484915316245
 30
0.0
 10
173.4153505141404
 20
131.7484915316245
 30
0.0
 10
172.7682254488358
 20
131.7484915316245
 30
0.0
 10
172.1288454326026
 20
131.7484915316245
 30
0.0
  0
SPLINE
  5
AA
330
1F
100
AcDbEntity
  8
0
  6
Continuous
 62
     7
370
    15
100
AcDbSpline
210
0.0
220
0.0
230
1.0
 70
    24
 71
     3
 72
    10
 73
     6
 74
     0
 42
0.000000001
 43
0.00000001
 40
0.0
 40
0.0
 40
0.0
 40
0.0
 40
0.5
 40
0.5
 40
1.0
 40
1.0
 40
1.0
 40
1.0
 10
174.7751657761622
 20
131.7484915316245
 30
0.0
 10
174.6397231136662
 20
131.7484915316245
 30
0.0
 10
174.5043395604993
 20
131.7484915316245
 30
0.0
 10
174.2626910968646
 20
131.7484915316245
 30
0.0
 10
174.1558248268074
 20
131.7484915316245
 30
0.0
 10
174.0680589949757
 20
131.7484915316245
 30
0.0
  0
SPLINE
  5
AB
330
1F
100
AcDbEntity
  8
0
  6
Continuous
 62
     7
370
    15
100
AcDbSpline
210
0.0
220
0.0
230
1.0
 70
     8
 71
     3
 72
     8
 73
     4
 74
     0
 42
0.000000001
 43
0.00000001
 40
0.0
 40
0.0
 40
0.0
 40
0.0
 40
1.0
 40
1.0
 40
1.0
 40
1.0
 10
174.0680589949757
 20
91.05971208868304
 30
0.0
 10
174.2531791173989
 20
90.86542598983448
 30
0.0
 10
174.5133663883631
 20
90.74438334395144
 30
0.0
 10
174.7751657761622
 20
90.7260771014549
 30
0.0
  0
SPLINE
  5
AC
330
1F
100
AcDbEntity
  8
0
  6
Continuous
 62
     7
370
    15
100
AcDbSpline
210
0.0
220
0.0
230
1.0
 70
     8
 71
     3
 72
    14
 73
    10
 74
     0
 42
0.000000001
 43
0.00000001
 40
0.0
 40
0.0
 40
0.0
 40
0.0
 40
0.1385288287033636
 40
0.2783989833708894
 40
0.4196700753229523
 40
0.5624030049705975
 40
0.7066599070510429
 40
0.8525040943118893
 40
1.0
 40
1.0
 40
1.0
 40
1.0
 10
172.1288454326026
 20
93.2481914460673
 30
0.0
 10
172.2203145042954
 20
93.14750893871965
 30
0.0
 10
172.4041383105566
 20
92.94516905068926
 30
0.0
 10
172.6791517187127
 20
92.6392803863216
 30
0.0
 10
172.9552659650281
 20
92.32992106103143
 30
0.0
 10
173.2323487745577
 20
92.01706583008941
 30
0.0
 10
173.5103873454853
 20
91.70081431165237
 30
0.0
 10
173.7895694981688
 20
91.38118304120042
 30
0.0
 10
173.974881349132
 20
91.16727056721149
 30
0.0
 10
174.0680589949757
 20
91.05971208868304
 30
0.0
  0
SPLINE
  5
AD
330
1F
100
AcDbEntity
  8
0
  6
Continuous
 62
     7
370
    15
100
AcDbSpline
210
0.0
220
0.0
230
1.0
 70
    24
 71
     3
 72
    12
 73
     8
 74
     0
 42
0.000000001
 43
0.00000001
 40
0.0
 40
0.0
 40
0.0
 40
0.0
 40
0.4999999999999973
 40
0.4999999999999973
 40
0.7499999999999987
 40
0.7499999999999987
 40
1.0
 40
1.0
 40
1.0
 40
1.0
 10
172.1288454326026
 20
131.7484915316245
 30
0.0
 10
172.0431551509238
 20
131.7484915316245
 30
0.0
 10
171.9373682446423
 20
131.7484915316245
 30
0.0
 10
171.7558500822235
 20
131.7484915316245
 30
0.0
 10
171.6904682486585
 20
131.7484915316245
 30
0.0
 10
171.55777516937
 20
131.7484915316245
 30
0.0
 10
171.4903284955745
 20
131.7484915316245
 30
0.0
 10
171.421738651416
 20
131.7484915316245
 30
0.0
  0
SPLINE
  5
AE
330
1F
100
AcDbEntity
  8
0
  6
Continuous
 62
     7
370
    15
100
AcDbSpline
210
0.0
220
0.0
230
1.0
 70
     8
 71
     3
 72
    13
 73
     9
 74
     0
 42
0.000000001
 43
0.00000001
 40
0.0
 40
0.0
 40
0.0
 40
0.0
 40
0.1457024413509142
 40
0.2992079546182184
 40
0.4609954526750303
 40
0.6314836748886905
 40
0.8110420188119241
 40
1.0
 40
1.0
 40
1.0
 40
1.0
 10
171.7004530840277
 20
93.54548839023474
 30
0.0
 10
171.7247567605733
 20
93.53670064483775
 30
0.0
 10
171.7746656933371
 20
93.51865452768581
 30
0.0
 10
171.8476933556677
 20
93.48215951330238
 30
0.0
 10
171.9208970805799
 20
93.43755689519728
 30
0.0
 10
171.9930522726379
 20
93.38365834706644
 30
0.0
 10
172.0638587291286
 20
93.32081197004024
 30
0.0
 10
172.106817948728
 20
93.27280644167821
 30
0.0
 10
172.1288454326026
 20
93.2481914460673
 30
0.0
  0
SPLINE
  5
AF
330
1F
100
AcDbEntity
  8
0
  6
Continuous
 62
     7
370
    15
100
AcDbSpline
210
0.0
220
0.0
230
1.0
 70
     8
 71
     3
 72
     8
 73
     4
 74
     0
 42
0.000000001
 43
0.00000001
 40
0.0
 40
0.0
 40
0.0
 40
0.0
 40
1.0
 40
1.0
 40
1.0
 40
1.0
 10
171.421738651416
 20
93.59075647446191
 30
0.0
 10
171.5158903972592
 20
93.58799506068256
 30
0.0
 10
171.6100321930507
 20
93.57274588463592
 30
0.0
 10
171.7004530840277
 20
93.54548839023474
 30
0.0
  0
SPLINE
  5
B0
330
1F
100
AcDbEntity
  8
0
  6
Continuous
 62
     7
370
    15
100
AcDbSpline
210
0.0
220
0.0
230
1.0
 70
     8
 71
     3
 72
    10
 73
     6
 74
     0
 42
0.000000001
 43
0.00000001
 40
0.0
 40
0.0
 40
0.0
 40
0.0
 40
0.5
 40
0.5
 40
1.0
 40
1.0
 40
1.0
 40
1.0
 10
156.2180750736942
 20
93.66667410423489
 30
0.0
 10
156.2661479080902
 20
93.6441461617325
 30
0.0
 10
156.3218377820943
 20
93.62515287104577
 30
0.0
 10
156.447114417458
 20
93.59827259187884
 30
0.0
 10
156.5155601049561
 20
93.59075647446193
 30
0.0
 10
156.5859522137891
 20
93.59075647446193
 30
0.0
  0
SPLINE
  5
B1
330
1F
100
AcDbEntity
  8
0
  6
Continuous
 62
     7
370
    15
100
AcDbSpline
210
0.0
220
0.0
230
1.0
 70
     8
 71
     3
 72
    10
 73
     6
 74
     0
 42
0.000000001
 43
0.00000001
 40
0.0
 40
0.0
 40
0.0
 40
0.0
 40
0.5
 40
0.5
 40
1.0
 40
1.0
 40
1.0
 40
1.0
 10
156.2180750736942
 20
93.66667410423489
 30
0.0
 10
156.1556159983924
 20
93.7422318186598
 30
0.0
 10
156.0998868456442
 20
93.83080033528316
 30
0.0
 10
156.0152114632548
 20
94.03291776412122
 30
0.0
 10
155.9859522137891
 20
94.14683159215744
 30
0.0
 10
155.9859522137891
 20
94.26581327649969
 30
0.0
  0
LINE
  5
B2
330
1F
100
AcDbEntity
  8
0
  6
Continuous
 62
     7
370
    15
100
AcDbLine
 10
155.9859522138
 20
94.2658132765
 30
0.0
 11
155.9859522138
 21
131.7484915316
 31
0.0
  0
SPLINE
  5
B3
330
1F
100
AcDbEntity
  8
0
  6
Continuous
 62
     7
370
    15
100
AcDbSpline
210
0.0
220
0.0
230
1.0
 70
    24
 71
     3
 72
    12
 73
     8
 74
     0
 42
0.000000001
 43
0.00000001
 40
0.0
 40
0.0
 40
0.0
 40
0.0
 40
0.2499999999999998
 40
0.2499999999999998
 40
0.4999999999999997
 40
0.4999999999999997
 40
1.0
 40
1.0
 40
1.0
 40
1.0
 10
156.5859522137891
 20
131.7484915316245
 30
0.0
 10
156.4963365580248
 20
131.7484915316245
 30
0.0
 10
156.4087681593213
 20
131.7484915316245
 30
0.0
 10
156.255589900058
 20
131.7484915316245
 30
0.0
 10
156.1898921276941
 20
131.7484915316245
 30
0.0
 10
156.0346205904507
 20
131.7484915316245
 30
0.0
 10
155.9859522137891
 20
131.7484915316245
 30
0.0
 10
155.9859522137891
 20
131.7484915316245
 30
0.0
  0
LINE
  5
B4
330
1F
100
AcDbEntity
  8
0
  6
Continuous
 62
     7
370
    15
100
AcDbLine
 10
156.5859522138
 20
93.5907564745
 30
0.0
 11
160.5228868958
 21
93.5907564745
 31
0.0
  0
LINE
  5
B5
330
1F
100
AcDbEntity
  8
0
  6
Continuous
 62
     7
370
    15
100
AcDbLine
 10
160.5228868958
 20
131.7484915316
 30
0.0
 11
156.5859522138
 21
131.7484915316
 31
0.0
  0
LINE
  5
B6
330
1F
100
AcDbEntity
  8
0
  6
Continuous
 62
     7
370
    15
100
AcDbLine
 10
160.5228868958
 20
93.5907564745
 30
0.0
 11
160.5228868958
 21
131.7484915316
 31
0.0
  0
LINE
  5
B7
330
1F
100
AcDbEntity
  8
0
  6
Continuous
 62
     7
370
    15
100
AcDbLine
 10
167.2490175318
 20
93.5907564745
 30
0.0
 11
171.4217386514
 21
93.5907564745
 31
0.0
  0
LINE
  5
B8
330
1F
100
AcDbEntity
  8
0
  6
Continuous
 62
     7
370
    15
100
AcDbLine
 10
167.2490175318
 20
93.5907564745
 30
0.0
 11
167.2490175318
 21
131.7484915316
 31
0.0
  0
LINE
  5
B9
330
1F
100
AcDbEntity
  8
0
  6
Continuous
 62
     7
370
    15
100
AcDbLine
 10
171.4217386514
 20
131.7484915316
 30
0.0
 11
167.2490175318
 21
131.7484915316
 31
0.0
  0
SPLINE
  5
BA
330
1F
100
AcDbEntity
  8
0
  6
Continuous
 62
     7
370
    15
100
AcDbSpline
210
0.0
220
0.0
230
1.0
 70
     8
 71
     3
 72
     8
 73
     4
 74
     0
 42
0.000000001
 43
0.00000001
 40
0.0
 40
0.0
 40
0.0
 40
0.0
 40
0.0011140524372172
 40
0.0011140524372172
 40
0.0011140524372172
 40
0.0011140524372172
 10
166.8190867612069
 20
94.04445944584955
 30
0.0
 10
166.9606959301324
 20
93.89291316981135
 30
0.0
 10
167.1040669749189
 20
93.74168584452808
 30
0.0
 10
167.2490175318187
 20
93.59075647446193
 30
0.0
  0
SPLINE
  5
BB
330
1F
100
AcDbEntity
  8
0
  6
Continuous
 62
     7
370
    15
100
AcDbSpline
210
0.0
220
0.0
230
1.0
 70
     8
 71
     3
 72
     8
 73
     4
 74
     0
 42
0.000000001
 43
0.00000001
 40
0.0
 40
0.0
 40
0.0
 40
0.0
 40
1.0
 40
1.0
 40
1.0
 40
1.0
 10
166.8190867612068
 20
94.04445944584955
 30
0.0
 10
166.4767390391313
 20
94.67313230354115
 30
0.0
 10
166.1355691135452
 20
95.30248717709497
 30
0.0
 10
165.7959522137891
 20
95.93259034121326
 30
0.0
  0
LINE
  5
BC
330
1F
100
AcDbEntity
  8
0
  6
Continuous
 62
     7
370
    15
100
AcDbLine
 10
165.7959522138
 20
95.9325903412
 30
0.0
 11
165.7959522138
 21
131.7484915316
 31
0.0
  0
SPLINE
  5
BD
330
1F
100
AcDbEntity
  8
0
  6
Continuous
 62
     7
370
    15
100
AcDbSpline
210
0.0
220
0.0
230
1.0
 70
    24
 71
     3
 72
     8
 73
     4
 74
     0
 42
0.000000001
 43
0.00000001
 40
0.0
 40
0.0
 40
0.0
 40
0.0
 40
1.0
 40
1.0
 40
1.0
 40
1.0
 10
167.2490175318187
 20
131.7484915316245
 30
0.0
 10
166.7517038489956
 20
131.7484915316245
 30
0.0
 10
166.265717838647
 20
131.7484915316245
 30
0.0
 10
165.7959522137891
 20
131.7484915316245
 30
0.0
  0
SPLINE
  5
BE
330
1F
100
AcDbEntity
  8
0
  6
Continuous
 62
     7
370
    15
100
AcDbSpline
210
0.0
220
0.0
230
1.0
 70
     8
 71
     3
 72
     8
 73
     4
 74
     0
 42
0.000000001
 43
0.00000001
 40
0.0
 40
0.0
 40
0.0
 40
0.0
 40
1.0
 40
1.0
 40
1.0
 40
1.0
 10
161.9759522137891
 20
95.93259034121327
 30
0.0
 10
161.636316698632
 20
95.30245263928752
 30
0.0
 10
161.2951599874047
 20
94.67312238529577
 30
0.0
 10
160.9528176663714
 20
94.04445944584955
 30
0.0
  0
SPLINE
  5
BF
330
1F
100
AcDbEntity
  8
0
  6
Continuous
 62
     7
370
    15
100
AcDbSpline
210
0.0
220
0.0
230
1.0
 70
     8
 71
     3
 72
     8
 73
     4
 74
     0
 42
0.000000001
 43
0.00000001
 40
0.0
 40
0.0
 40
0.0
 40
0.0
 40
0.0011140524372172
 40
0.0011140524372172
 40
0.0011140524372172
 40
0.0011140524372172
 10
160.5228868957596
 20
93.59075647446193
 30
0.0
 10
160.6678374526594
 20
93.74168584452808
 30
0.0
 10
160.8112084974458
 20
93.89291316981135
 30
0.0
 10
160.9528176663714
 20
94.04445944584955
 30
0.0
  0
SPLINE
  5
C0
330
1F
100
AcDbEntity
  8
0
  6
Continuous
 62
     7
370
    15
100
AcDbSpline
210
0.0
220
0.0
230
1.0
 70
    24
 71
     3
 72
     8
 73
     4
 74
     0
 42
0.000000001
 43
0.00000001
 40
0.0
 40
0.0
 40
0.0
 40
0.0
 40
1.0
 40
1.0
 40
1.0
 40
1.0
 10
161.9759522137891
 20
131.7484915316245
 30
0.0
 10
161.5061865889313
 20
131.7484915316245
 30
0.0
 10
161.0202005785827
 20
131.7484915316245
 30
0.0
 10
160.5228868957596
 20
131.7484915316245
 30
0.0
  0
LINE
  5
C1
330
1F
100
AcDbEntity
  8
0
  6
Continuous
 62
     7
370
    15
100
AcDbLine
 10
161.9759522138
 20
95.9325903412
 30
0.0
 11
161.9759522138
 21
131.7484915316
 31
0.0
  0
SPLINE
  5
C2
330
1F
100
AcDbEntity
  8
0
  6
Continuous
 62
     7
370
    15
100
AcDbSpline
210
0.0
220
0.0
230
1.0
 70
     8
 71
     3
 72
     8
 73
     4
 74
     0
 42
0.000000001
 43
0.00000001
 40
0.0
 40
0.0
 40
0.0
 40
0.0
 40
1.0
 40
1.0
 40
1.0
 40
1.0
 10
171.8359522137892
 20
137.0906364303798
 30
0.0
 10
171.94908211231
 20
137.1545446469054
 30
0.0
 10
172.0463424354462
 20
137.2384771048696
 30
0.0
 10
172.1288454326025
 20
137.3382714834223
 30
0.0
  0
SPLINE
  5
C3
330
1F
100
AcDbEntity
  8
0
  6
Continuous
 62
     7
370
    15
100
AcDbSpline
210
0.0
220
0.0
230
1.0
 70
     8
 71
     3
 72
     8
 73
     4
 74
     0
 42
0.000000001
 43
0.00000001
 40
0.0
 40
0.0
 40
0.0
 40
0.0
 40
1.0
 40
1.0
 40
1.0
 40
1.0
 10
172.1288454326025
 20
137.3382714834223
 30
0.0
 10
172.7494878300729
 20
138.0889911480871
 30
0.0
 10
173.3955074676358
 20
138.806478410505
 30
0.0
 10
174.0680589949729
 20
139.4853786353897
 30
0.0
  0
SPLINE
  5
C4
330
1F
100
AcDbEntity
  8
0
  6
Continuous
 62
     7
370
    15
100
AcDbSpline
210
0.0
220
0.0
230
1.0
 70
     8
 71
     3
 72
    10
 73
     6
 74
     0
 42
0.000000001
 43
0.00000001
 40
0.0
 40
0.0
 40
0.0
 40
0.0
 40
0.5
 40
0.5
 40
1.0
 40
1.0
 40
1.0
 40
1.0
 10
174.0680589949726
 20
139.4853786353898
 30
0.0
 10
174.1604636918616
 20
139.5786556066687
 30
0.0
 10
174.2757837278998
 20
139.6477885666009
 30
0.0
 10
174.5242757109577
 20
139.7124921187755
 30
0.0
 10
174.653825249045
 20
139.7080416230157
 30
0.0
 10
174.7751657761623
 20
139.6756132843691
 30
0.0
  0
SPLINE
  5
C5
330
1F
100
AcDbEntity
  8
0
  6
Continuous
 62
     7
370
    15
100
AcDbSpline
210
0.0
220
0.0
230
1.0
 70
     8
 71
     3
 72
    10
 73
     6
 74
     0
 42
0.000000001
 43
0.00000001
 40
0.0
 40
0.0
 40
0.0
 40
0.0
 40
0.5
 40
0.5
 40
1.0
 40
1.0
 40
1.0
 40
1.0
 10
165.7959522137891
 20
95.93259034121327
 30
0.0
 10
165.7610707653505
 20
96.06171035747568
 30
0.0
 10
165.6883661385829
 20
96.17825810052119
 30
0.0
 10
165.4849046176439
 20
96.34714122444063
 30
0.0
 10
165.353080855326
 20
96.3973177847387
 30
0.0
 10
165.219598637351
 20
96.3973177847387
 30
0.0
  0
SPLINE
  5
C6
330
1F
100
AcDbEntity
  8
0
  6
Continuous
 62
     7
370
    15
100
AcDbSpline
210
0.0
220
0.0
230
1.0
 70
    24
 71
     3
 72
    12
 73
     8
 74
     0
 42
0.000000001
 43
0.00000001
 40
0.0
 40
0.0
 40
0.0
 40
0.0
 40
0.4999999999999976
 40
0.4999999999999976
 40
0.7499999999999988
 40
0.7499999999999988
 40
1.0
 40
1.0
 40
1.0
 40
1.0
 10
165.7959522137891
 20
131.7484915316245
 30
0.0
 10
165.7649489837613
 20
131.7484915316245
 30
0.0
 10
165.7033673968149
 20
131.7484915316245
 30
0.0
 10
165.5567389802457
 20
131.7484915316245
 30
0.0
 10
165.4992613569478
 20
131.7484915316245
 30
0.0
 10
165.366851706683
 20
131.7484915316245
 30
0.0
 10
165.2938869284428
 20
131.7484915316245
 30
0.0
 10
165.219598637351
 20
131.7484915316245
 30
0.0
  0
SPLINE
  5
C7
330
1F
100
AcDbEntity
  8
0
  6
Continuous
 62
     7
370
    15
100
AcDbSpline
210
0.0
220
0.0
230
1.0
 70
     8
 71
     3
 72
    12
 73
     8
 74
     0
 42
0.000000001
 43
0.00000001
 40
0.0
 40
0.0
 40
0.0
 40
0.0
 40
0.2499999999999988
 40
0.2499999999999988
 40
0.4999999999999976
 40
0.4999999999999976
 40
1.0
 40
1.0
 40
1.0
 40
1.0
 10
162.5523057902273
 20
96.3973177847387
 30
0.0
 10
162.4863090303119
 20
96.3973177847387
 30
0.0
 10
162.4196482183597
 20
96.38540166573985
 30
0.0
 10
162.294042806893
 20
96.3389164387411
 30
0.0
 10
162.2371168683547
 20
96.30565703636734
 30
0.0
 10
162.0828444124203
 20
96.17783893704049
 30
0.0
 10
162.0106448235248
 20
96.06101133672108
 30
0.0
 10
161.9759522137891
 20
95.93259034121327
 30
0.0
  0
SPLINE
  5
C8
330
1F
100
AcDbEntity
  8
0
  6
Continuous
 62
     7
370
    15
100
AcDbSpline
210
0.0
220
0.0
230
1.0
 70
    24
 71
     3
 72
    12
 73
     8
 74
     0
 42
0.000000001
 43
0.00000001
 40
0.0
 40
0.0
 40
0.0
 40
0.0
 40
0.249999999999999
 40
0.249999999999999
 40
0.499999999999998
 40
0.499999999999998
 40
1.0
 40
1.0
 40
1.0
 40
1.0
 10
162.5523057902273
 20
131.7484915316245
 30
0.0
 10
162.477851445716
 20
131.7484915316245
 30
0.0
 10
162.4042508716019
 20
131.7484915316245
 30
0.0
 10
162.2737216716101
 20
131.7484915316245
 30
0.0
 10
162.2155985435262
 20
131.7484915316245
 30
0.0
 10
162.0693057827484
 20
131.7484915316245
 30
0.0
 10
162.0072498352712
 20
131.7484915316245
 30
0.0
 10
161.9759522137891
 20
131.7484915316245
 30
0.0
  0
LINE
  5
C9
330
1F
100
AcDbEntity
  8
0
  6
Continuous
 62
     7
370
    15
100
AcDbLine
 10
165.2195986374
 20
96.3973177847
 30
0.0
 11
162.5523057902
 21
96.3973177847
 31
0.0
  0
LINE
  5
CA
330
1F
100
AcDbEntity
  8
0
  6
Continuous
 62
     7
370
    15
100
AcDbLine
 10
165.2195986374
 20
131.7484915316
 30
0.0
 11
162.5523057902
 21
131.7484915316
 31
0.0
  0
LINE
  5
CB
330
1F
100
AcDbEntity
  8
0
  6
Continuous
 62
     7
370
    15
100
AcDbLine
 10
152.7859522138
 20
101.0234915316
 30
0.0
 11
152.7859522138
 21
132.7734915316
 31
0.0
  0
SPLINE
  5
CC
330
1F
100
AcDbEntity
  8
0
  6
Continuous
 62
     7
370
    15
100
AcDbSpline
210
0.0
220
0.0
230
1.0
 70
     8
 71
     3
 72
    14
 73
    10
 74
     0
 42
0.000000001
 43
0.00000001
 40
0.0
 40
0.0
 40
0.0
 40
0.0
 40
0.1469096222192359
 40
0.2923556724838213
 40
0.4364070009902126
 40
0.5791313022649625
 40
0.7205950358446344
 40
0.8608633487082772
 40
1.0
 40
1.0
 40
1.0
 40
1.0
 10
174.0680589949757
 20
142.8380725214584
 30
0.0
 10
173.9754634785725
 20
142.7305957550531
 30
0.0
 10
173.7911949190453
 20
142.5167129484394
 30
0.0
 10
173.5131314365628
 20
142.1965459598142
 30
0.0
 10
173.2356589976449
 20
141.8791043556795
 30
0.0
 10
172.9585711695553
 20
141.5643933886403
 30
0.0
 10
172.6818825859939
 20
141.2525312796109
 30
0.0
 10
172.4057372695503
 20
140.9435203990353
 30
0.0
 10
172.2208931562722
 20
140.7388070117708
 30
0.0
 10
172.1288454326026
 20
140.6368648889289
 30
0.0
  0
SPLINE
  5
CD
330
1F
100
AcDbEntity
  8
0
  6
Continuous
 62
     7
370
    15
100
AcDbSpline
210
0.0
220
0.0
230
1.0
 70
     8
 71
     3
 72
     8
 73
     4
 74
     0
 42
0.000000001
 43
0.00000001
 40
0.0
 40
0.0
 40
0.0
 40
0.0
 40
1.0
 40
1.0
 40
1.0
 40
1.0
 10
174.7751657761622
 20
143.1409079845736
 30
0.0
 10
174.5133663883631
 20
143.1330811313247
 30
0.0
 10
174.2531791173989
 20
143.0223823189634
 30
0.0
 10
174.0680589949757
 20
142.8380725214584
 30
0.0
  0
SPLINE
  5
CE
330
1F
100
AcDbEntity
  8
0
  6
Continuous
 62
     7
370
    15
100
AcDbSpline
210
0.0
220
0.0
230
1.0
 70
     8
 71
     3
 72
     8
 73
     4
 74
     0
 42
0.000000001
 43
0.00000001
 40
0.0
 40
0.0
 40
0.0
 40
0.0
 40
1.0
 40
1.0
 40
1.0
 40
1.0
 10
171.6535794648598
 20
140.309054129478
 30
0.0
 10
171.5777145203901
 20
140.2899155616388
 30
0.0
 10
171.4997285284104
 20
140.2791281786607
 30
0.0
 10
171.421738651416
 20
140.2769177334667
 30
0.0
  0
SPLINE
  5
CF
330
1F
100
AcDbEntity
  8
0
  6
Continuous
 62
     7
370
    15
100
AcDbSpline
210
0.0
220
0.0
230
1.0
 70
     8
 71
     3
 72
    13
 73
     9
 74
     0
 42
0.000000001
 43
0.00000001
 40
0.0
 40
0.0
 40
0.0
 40
0.0
 40
0.1953724068749191
 40
0.3784282885802711
 40
0.5497178772306659
 40
0.7098813252142864
 40
0.859674689477629
 40
1.0
 40
1.0
 40
1.0
 40
1.0
 10
172.1288454326026
 20
140.6368648889289
 30
0.0
 10
172.1044160286949
 20
140.6083409729803
 30
0.0
 10
172.057097281592
 20
140.5530913250454
 30
0.0
 10
171.9780192911626
 20
140.481418043666
 30
0.0
 10
171.8975676897443
 20
140.4212594334473
 30
0.0
 10
171.8161850671789
 20
140.372941107808
 30
0.0
 10
171.7354299708487
 20
140.3348693215847
 30
0.0
 10
171.6802628384493
 20
140.3174699163683
 30
0.0
 10
171.6535794648599
 20
140.309054129478
 30
0.0
  0
SPLINE
  5
D0
330
1F
100
AcDbEntity
  8
0
  6
Continuous
 62
     7
370
    15
100
AcDbSpline
210
0.0
220
0.0
230
1.0
 70
     8
 71
     3
 72
    10
 73
     6
 74
     0
 42
0.000000001
 43
0.00000001
 40
0.0
 40
0.0
 40
0.0
 40
0.0
 40
0.5
 40
0.5
 40
1.0
 40
1.0
 40
1.0
 40
1.0
 10
171.421738651416
 20
136.9790324854933
 30
0.0
 10
171.4938914581841
 20
136.9790324854933
 30
0.0
 10
171.5655323330619
 20
136.988703438953
 30
0.0
 10
171.7062664004914
 20
137.0270603789008
 30
0.0
 10
171.7728098550996
 20
137.0549666774337
 30
0.0
 10
171.8359522137892
 20
137.0906364303798
 30
0.0
  0
LINE
  5
D1
330
1F
100
AcDbEntity
  8
0
  6
Continuous
 62
     7
370
    15
100
AcDbLine
 10
171.4217386514
 20
140.2769177335
 30
0.0
 11
167.2490175318
 21
140.2769177335
 31
0.0
  0
LINE
  5
D2
330
1F
100
AcDbEntity
  8
0
  6
Continuous
 62
     7
370
    15
100
AcDbLine
 10
167.2490175318
 20
136.9790324855
 30
0.0
 11
171.4217386514
 21
136.9790324855
 31
0.0
  0
LINE
  5
D3
330
1F
100
AcDbEntity
  8
0
  6
Continuous
 62
     7
370
    15
100
AcDbLine
 10
167.2490175318
 20
136.9790324855
 30
0.0
 11
167.2490175318
 21
140.2769177335
 31
0.0
  0
SPLINE
  5
D4
330
1F
100
AcDbEntity
  8
0
  6
Continuous
 62
     7
370
    15
100
AcDbSpline
210
0.0
220
0.0
230
1.0
 70
     8
 71
     3
 72
    12
 73
     8
 74
     0
 42
0.000000001
 43
0.00000001
 40
0.0
 40
0.0
 40
0.0
 40
0.0
 40
0.5
 40
0.5
 40
0.75
 40
0.75
 40
1.0
 40
1.0
 40
1.0
 40
1.0
 10
155.9859522137891
 20
136.2276954728115
 30
0.0
 10
155.9859522137891
 20
136.4051199923958
 30
0.0
 10
156.0341055415145
 20
136.5828239113219
 30
0.0
 10
156.1895065556252
 20
136.8010183748131
 30
0.0
 10
156.2546276086746
 20
136.8638679182081
 30
0.0
 10
156.4096392601846
 20
136.9539880403403
 30
0.0
 10
156.4974757524577
 20
136.9790324854935
 30
0.0
 10
156.5859522137891
 20
136.9790324854935
 30
0.0
  0
LINE
  5
D5
330
1F
100
AcDbEntity
  8
0
  6
Continuous
 62
     7
370
    15
100
AcDbLine
 10
156.5859522138
 20
136.9790324855
 30
0.0
 11
160.5228868958
 21
136.9790324855
 31
0.0
  0
SPLINE
  5
D6
330
1F
100
AcDbEntity
  8
0
  6
Continuous
 62
     7
370
    15
100
AcDbSpline
210
0.0
220
0.0
230
1.0
 70
     8
 71
     3
 72
     8
 73
     4
 74
     0
 42
0.000000001
 43
0.00000001
 40
0.0
 40
0.0
 40
0.0
 40
0.0
 40
1.0
 40
1.0
 40
1.0
 40
1.0
 10
160.5228868957596
 20
136.9790324854933
 30
0.0
 10
161.0207913050512
 20
135.906435212777
 30
0.0
 10
161.5068974646855
 20
134.8292790619539
 30
0.0
 10
161.9759522137891
 20
133.7463107592304
 30
0.0
  0
SPLINE
  5
D7
330
1F
100
AcDbEntity
  8
0
  6
Continuous
 62
     7
370
    15
100
AcDbSpline
210
0.0
220
0.0
230
1.0
 70
     8
 71
     3
 72
    12
 73
     8
 74
     0
 42
0.000000001
 43
0.00000001
 40
0.0
 40
0.0
 40
0.0
 40
0.0
 40
0.5000000000000063
 40
0.5000000000000063
 40
0.7500000000000031
 40
0.7500000000000031
 40
1.0
 40
1.0
 40
1.0
 40
1.0
 10
161.975952213789
 20
133.7463107592304
 30
0.0
 10
162.0069432396513
 20
133.6035513129902
 30
0.0
 10
162.0688160124832
 20
133.4643422458401
 30
0.0
 10
162.2159787392248
 20
133.2982221602514
 30
0.0
 10
162.2739393741596
 20
133.2507408219158
 30
0.0
 10
162.4051972451553
 20
133.1834443290066
 30
0.0
 10
162.4788832032423
 20
133.1643491788562
 30
0.0
 10
162.5523057902273
 20
133.1643491788562
 30
0.0
  0
LINE
  5
D8
330
1F
100
AcDbEntity
  8
0
  6
Continuous
 62
     7
370
    15
100
AcDbLine
 10
162.5523057902
 20
133.1643491789
 30
0.0
 11
165.2195986374
 21
133.1643491789
 31
0.0
  0
SPLINE
  5
D9
330
1F
100
AcDbEntity
  8
0
  6
Continuous
 62
     7
370
    15
100
AcDbSpline
210
0.0
220
0.0
230
1.0
 70
     8
 71
     3
 72
    14
 73
    10
 74
     0
 42
0.000000001
 43
0.00000001
 40
0.0
 40
0.0
 40
0.0
 40
0.0
 40
0.25
 40
0.25
 40
0.5
 40
0.5
 40
0.75
 40
0.75
 40
1.0
 40
1.0
 40
1.0
 40
1.0
 10
165.2195986373514
 20
133.1643491788561
 30
0.0
 10
165.293057227386
 20
133.1643491788562
 30
0.0
 10
165.3669064778452
 20
133.1834595706303
 30
0.0
 10
165.4987283530926
 20
133.2512197441359
 30
0.0
 10
165.5568475480761
 20
133.2991532415368
 30
0.0
 10
165.6540260280381
 20
133.4090702557668
 30
0.0
 10
165.6941910943756
 20
133.4721577337421
 30
0.0
 10
165.7571907257722
 20
133.6047525794806
 30
0.0
 10
165.7802886765026
 20
133.6741570357907
 30
0.0
 10
165.7959522137891
 20
133.7463107592304
 30
0.0
  0
SPLINE
  5
DA
330
1F
100
AcDbEntity
  8
0
  6
Continuous
 62
     7
370
    15
100
AcDbSpline
210
0.0
220
0.0
230
1.0
 70
     8
 71
     3
 72
     8
 73
     4
 74
     0
 42
0.000000001
 43
0.00000001
 40
0.0
 40
0.0
 40
0.0
 40
0.0
 40
1.0
 40
1.0
 40
1.0
 40
1.0
 10
165.7959522137891
 20
133.7463107592304
 30
0.0
 10
166.2650069628928
 20
134.8292790619539
 30
0.0
 10
166.7511131225271
 20
135.906435212777
 30
0.0
 10
167.2490175318187
 20
136.9790324854933
 30
0.0
  0
LINE
  5
DB
330
1F
100
AcDbEntity
  8
0
  6
Continuous
 62
     7
370
    15
100
AcDbLine
 10
155.9859522138
 20
136.2276954728
 30
0.0
 11
155.9859522138
 21
131.7484915316
 31
0.0
  0
SPLINE
  5
DC
330
1F
100
AcDbEntity
  8
0
  6
Continuous
 62
     7
370
    15
100
AcDbSpline
210
0.0
220
0.0
230
1.0
 70
     8
 71
     3
 72
    10
 73
     6
 74
     0
 42
0.000000001
 43
0.00000001
 40
0.0
 40
0.0
 40
0.0
 40
0.0
 40
0.5
 40
0.5
 40
1.0
 40
1.0
 40
1.0
 40
1.0
 10
162.5523057902273
 20
137.3996652785103
 30
0.0
 10
162.4200445975106
 20
137.3996652785103
 30
0.0
 10
162.2882056656335
 20
137.4490852854567
 30
0.0
 10
162.0836542161556
 20
137.61838594576
 30
0.0
 10
162.0104896635268
 20
137.7365460794391
 30
0.0
 10
161.9759522137891
 20
137.8643927220359
 30
0.0
  0
LINE
  5
DD
330
1F
100
AcDbEntity
  8
0
  6
Continuous
 62
     7
370
    15
100
AcDbLine
 10
161.9759522138
 20
133.7463107592
 30
0.0
 11
161.9759522138
 21
137.864392722
 31
0.0
  0
SPLINE
  5
DE
330
1F
100
AcDbEntity
  8
0
  6
Continuous
 62
     7
370
    15
100
AcDbSpline
210
0.0
220
0.0
230
1.0
 70
     8
 71
     3
 72
    10
 73
     6
 74
     0
 42
0.000000001
 43
0.00000001
 40
0.0
 40
0.0
 40
0.0
 40
0.0
 40
0.5
 40
0.5
 40
1.0
 40
1.0
 40
1.0
 40
1.0
 10
165.7959522137891
 20
137.8643927220358
 30
0.0
 10
165.7612320651306
 20
137.7358697862034
 30
0.0
 10
165.688718054337
 20
137.6188695106964
 30
0.0
 10
165.4837525317667
 20
137.4490336874439
 30
0.0
 10
165.352508933029
 20
137.3996652785103
 30
0.0
 10
165.219598637351
 20
137.3996652785103
 30
0.0
  0
LINE
  5
DF
330
1F
100
AcDbEntity
  8
0
  6
Continuous
 62
     7
370
    15
100
AcDbLine
 10
165.7959522138
 20
133.7463107592
 30
0.0
 11
165.7959522138
 21
137.864392722
 31
0.0
  0
SPLINE
  5
E0
330
1F
100
AcDbEntity
  8
0
  6
Continuous
 62
     7
370
    15
100
AcDbSpline
210
0.0
220
0.0
230
1.0
 70
     8
 71
     3
 72
    10
 73
     6
 74
     0
 42
0.000000001
 43
0.00000001
 40
0.0
 40
0.0
 40
0.0
 40
0.0
 40
0.5
 40
0.5
 40
1.0
 40
1.0
 40
1.0
 40
1.0
 10
156.3041907281399
 20
140.2223367875154
 30
0.0
 10
156.2197447359623
 20
140.1427614560844
 30
0.0
 10
156.1461642165922
 20
140.0470745129386
 30
0.0
 10
156.0283061414428
 20
139.8122494138163
 30
0.0
 10
155.9859522137902
 20
139.6760601434344
 30
0.0
 10
155.9859522137891
 20
139.5311697867542
 30
0.0
  0
SPLINE
  5
E1
330
1F
100
AcDbEntity
  8
0
  6
Continuous
 62
     7
370
    15
100
AcDbSpline
210
0.0
220
0.0
230
1.0
 70
     8
 71
     3
 72
     8
 73
     4
 74
     0
 42
0.000000001
 43
0.00000001
 40
0.0
 40
0.0
 40
0.0
 40
0.0
 40
1.0
 40
1.0
 40
1.0
 40
1.0
 10
156.5859522137891
 20
140.2769177334667
 30
0.0
 10
156.4866786126561
 20
140.2769177334667
 30
0.0
 10
156.3898672676585
 20
140.2577421784325
 30
0.0
 10
156.3041907281416
 20
140.2223367875212
 30
0.0
  0
LINE
  5
E2
330
1F
100
AcDbEntity
  8
0
  6
Continuous
 62
     7
370
    15
100
AcDbLine
 10
155.9859522138
 20
136.2276954728
 30
0.0
 11
155.9859522138
 21
139.5311697868
 31
0.0
  0
LINE
  5
E3
330
1F
100
AcDbEntity
  8
0
  6
Continuous
 62
     7
370
    15
100
AcDbLine
 10
165.2195986374
 20
137.3996652785
 30
0.0
 11
162.5523057902
 21
137.3996652785
 31
0.0
  0
SPLINE
  5
E4
330
1F
100
AcDbEntity
  8
0
  6
Continuous
 62
     7
370
    15
100
AcDbSpline
210
0.0
220
0.0
230
1.0
 70
     8
 71
     3
 72
     8
 73
     4
 74
     0
 42
0.000000001
 43
0.00000001
 40
0.0
 40
0.0
 40
0.0
 40
0.0
 40
1.0
 40
1.0
 40
1.0
 40
1.0
 10
166.7037285487172
 20
139.5405753018847
 30
0.0
 10
166.4000860528998
 20
138.982400575058
 30
0.0
 10
166.0974180965893
 20
138.4237129642338
 30
0.0
 10
165.7959522137891
 20
137.8643927220358
 30
0.0
  0
SPLINE
  5
E5
330
1F
100
AcDbEntity
  8
0
  6
Continuous
 62
     7
370
    15
100
AcDbSpline
210
0.0
220
0.0
230
1.0
 70
     8
 71
     3
 72
     8
 73
     4
 74
     0
 42
0.000000001
 43
0.00000001
 40
0.0
 40
0.0
 40
0.0
 40
0.0
 40
0.0011754745544622
 40
0.0011754745544622
 40
0.0011754745544622
 40
0.0011754745544622
 10
167.2490175318187
 20
140.2769177334667
 30
0.0
 10
167.0666735937589
 20
140.0316857998855
 30
0.0
 10
166.8848861437735
 20
139.78624646421
 30
0.0
 10
166.7037285487172
 20
139.5405753018847
 30
0.0
  0
SPLINE
  5
E6
330
1F
100
AcDbEntity
  8
0
  6
Continuous
 62
     7
370
    15
100
AcDbSpline
210
0.0
220
0.0
230
1.0
 70
     8
 71
     3
 72
     8
 73
     4
 74
     0
 42
0.000000001
 43
0.00000001
 40
0.0
 40
0.0
 40
0.0
 40
0.0
 40
0.0011754745544622
 40
0.0011754745544622
 40
0.0011754745544622
 40
0.0011754745544622
 10
161.0681758788611
 20
139.5405753018847
 30
0.0
 10
160.8870182838048
 20
139.78624646421
 30
0.0
 10
160.7052308338194
 20
140.0316857998855
 30
0.0
 10
160.5228868957596
 20
140.2769177334667
 30
0.0
  0
SPLINE
  5
E7
330
1F
100
AcDbEntity
  8
0
  6
Continuous
 62
     7
370
    15
100
AcDbSpline
210
0.0
220
0.0
230
1.0
 70
     8
 71
     3
 72
     8
 73
     4
 74
     0
 42
0.000000001
 43
0.00000001
 40
0.0
 40
0.0
 40
0.0
 40
0.0
 40
1.0
 40
1.0
 40
1.0
 40
1.0
 10
161.975952213789
 20
137.864392722036
 30
0.0
 10
161.6744863309889
 20
138.423712964234
 30
0.0
 10
161.3718183746785
 20
138.9824005750581
 30
0.0
 10
161.0681758788611
 20
139.5405753018847
 30
0.0
  0
LINE
  5
E8
330
1F
100
AcDbEntity
  8
0
  6
Continuous
 62
     7
370
    15
100
AcDbLine
 10
160.5228868958
 20
136.9790324855
 30
0.0
 11
160.5228868958
 21
140.2769177335
 31
0.0
  0
LINE
  5
E9
330
1F
100
AcDbEntity
  8
0
  6
Continuous
 62
     7
370
    15
100
AcDbLine
 10
160.5228868958
 20
140.2769177335
 30
0.0
 11
156.5859522138
 21
140.2769177335
 31
0.0
  0
LINE
  5
EA
330
1F
100
AcDbEntity
  8
0
  6
Continuous
 62
     7
370
    15
100
AcDbLine
 10
105.1359522138
 20
108.8371942679
 30
0.0
 11
105.1359522138
 21
124.9597887845
 31
0.0
  0
CIRCLE
  5
EB
330
1F
100
AcDbEntity
  8
0
  6
HIDDEN
 62
     7
370
     0
100
AcDbCircle
 10
177.3359522138
 20
116.8984915316
 30
0.0
 40
5.258613578496409
  0
CIRCLE
  5
EC
330
1F
100
AcDbEntity
  8
0
  6
HIDDEN
 62
     7
370
     0
100
AcDbCircle
 10
177.3359522138
 20
116.8984915316
 30
0.0
 40
4.094716599621009
  0
CIRCLE
  5
ED
330
1F
100
AcDbEntity
  8
0
  6
HIDDEN
 62
     7
370
     0
100
AcDbCircle
 10
177.3359522138
 20
116.8984915316
 30
0.0
 40
3.694716599621017
  0
LINE
  5
EE
330
1F
100
AcDbEntity
  8
0
  6
HIDDEN
 62
     7
370
     0
100
AcDbLine
 10
191.3359522138
 20
136.0650328342
 30
0.0
 11
191.3359522138
 21
139.2190127253
 31
0.0
  0
SPLINE
  5
EF
330
1F
100
AcDbEntity
  8
0
  6
HIDDEN
 62
     7
370
     0
100
AcDbSpline
210
0.0
220
0.0
230
1.0
 70
     8
 71
     3
 72
    18
 73
    14
 74
     0
 42
0.000000001
 43
0.00000001
 40
0.0
 40
0.0
 40
0.0
 40
0.0
 40
0.2499999999999994
 40
0.2499999999999994
 40
0.3749999999999996
 40
0.3749999999999996
 40
0.4999999999999999
 40
0.4999999999999999
 40
0.6250000000000001
 40
0.6250000000000001
 40
0.7500000000000003
 40
0.7500000000000003
 40
1.0
 40
1.0
 40
1.0
 40
1.0
 10
191.3359522137892
 20
132.757918494099
 30
0.0
 10
191.4264852726601
 20
133.1980668098446
 30
0.0
 10
191.4946680680269
 20
133.609175720614
 30
0.0
 10
191.5646978165193
 20
134.1812074791065
 30
0.0
 10
191.5824740496941
 20
134.3643044186397
 30
0.0
 10
191.6059065657779
 20
134.7031739865403
 30
0.0
 10
191.6117911167294
 20
134.8606024348781
 30
0.0
 10
191.6119331382354
 20
135.1514014156224
 30
0.0
 10
191.6060704060737
 20
135.285709237382
 30
0.0
 10
191.5826075595758
 20
135.5235328010886
 30
0.0
 10
191.5651522164677
 20
135.6270962032646
 30
0.0
 10
191.495930867531
 20
135.8932477201364
 30
0.0
 10
191.4265010200662
 20
136.0116439523918
 30
0.0
 10
191.3359522137892
 20
136.0650328341935
 30
0.0
  0
LINE
  5
F0
330
1F
100
AcDbEntity
  8
0
  6
HIDDEN
 62
     7
370
     0
100
AcDbLine
 10
191.3359522138
 20
101.0390645692
 30
0.0
 11
191.3359522138
 21
132.7579184941
 31
0.0
  0
SPLINE
  5
F1
330
1F
100
AcDbEntity
  8
0
  6
HIDDEN
 62
     7
370
     0
100
AcDbSpline
210
0.0
220
0.0
230
1.0
 70
     8
 71
     3
 72
    18
 73
    14
 74
     0
 42
0.000000001
 43
0.00000001
 40
0.0
 40
0.0
 40
0.0
 40
0.0
 40
0.2499999999999997
 40
0.2499999999999997
 40
0.3749999999999997
 40
0.3749999999999997
 40
0.4999999999999998
 40
0.4999999999999998
 40
0.6249999999999998
 40
0.6249999999999998
 40
0.7499999999999999
 40
0.7499999999999999
 40
1.0
 40
1.0
 40
1.0
 40
1.0
 10
191.3359522137892
 20
97.73195022905551
 30
0.0
 10
191.4264852726601
 20
97.78532982595958
 30
0.0
 10
191.4946680680269
 20
97.90043065268196
 30
0.0
 10
191.5646978165193
 20
98.16738231574615
 30
0.0
 10
191.5824740496941
 20
98.27271940808241
 30
0.0
 10
191.6059065657779
 20
98.50899855088248
 30
0.0
 10
191.6117911167295
 20
98.6406001381659
 30
0.0
 10
191.6119331382353
 20
98.93077630120945
 30
0.0
 10
191.6060704060737
 20
99.09081576840163
 30
0.0
 10
191.5826075595758
 20
99.4313639792882
 30
0.0
 10
191.5651522164677
 20
99.61128451263201
 30
0.0
 10
191.495930867531
 20
100.1790149510145
 30
0.0
 10
191.4265010200662
 20
100.5988396935888
 30
0.0
 10
191.3359522137892
 20
101.03906456915
 30
0.0
  0
LINE
  5
F2
330
1F
100
AcDbEntity
  8
0
  6
HIDDEN
 62
     7
370
     0
100
AcDbLine
 10
191.3359522138
 20
94.5779703379
 30
0.0
 11
191.3359522138
 21
97.7319502291
 31
0.0
  0
SPLINE
  5
F3
330
1F
100
AcDbEntity
  8
0
  6
HIDDEN
 62
     7
370
     0
100
AcDbSpline
210
0.0
220
0.0
230
1.0
 70
     8
 71
     3
 72
    16
 73
    12
 74
     0
 42
0.000000001
 43
0.00000001
 40
0.0
 40
0.0
 40
0.0
 40
0.0
 40
0.249999999999999
 40
0.249999999999999
 40
0.4999999999999998
 40
0.4999999999999998
 40
0.7500000000000006
 40
0.7500000000000006
 40
0.8750000000000002
 40
0.8750000000000002
 40
1.0
 40
1.0
 40
1.0
 40
1.0
 10
162.4586527242029
 20
109.2860808132381
 30
0.0
 10
162.5506020502964
 20
109.2709978237732
 30
0.0
 10
162.6430437577131
 20
109.2709435247619
 30
0.0
 10
162.8250721600406
 20
109.2937538840367
 30
0.0
 10
162.9150099197754
 20
109.3166390210931
 30
0.0
 10
163.082446727994
 20
109.3843929918321
 30
0.0
 10
163.1632262441755
 20
109.4288210626641
 30
0.0
 10
163.2357160262812
 20
109.5195030455698
 30
0.0
 10
163.2509662502701
 20
109.5537313686276
 30
0.0
 10
163.2369736253936
 20
109.635656484716
 30
0.0
 10
163.2043442952123
 20
109.6831381987204
 30
0.0
 10
163.1485903333919
 20
109.7363761963189
 30
0.0
  0
SPLINE
  5
F4
330
1F
100
AcDbEntity
  8
0
  6
HIDDEN
 62
     7
370
     0
100
AcDbSpline
210
0.0
220
0.0
230
1.0
 70
     8
 71
     3
 72
    22
 73
    18
 74
     0
 42
0.000000001
 43
0.00000001
 40
0.0
 40
0.0
 40
0.0
 40
0.0
 40
0.125
 40
0.125
 40
0.25
 40
0.25
 40
0.375
 40
0.375
 40
0.5
 40
0.5
 40
0.625
 40
0.625
 40
0.75
 40
0.75
 40
0.875
 40
0.875
 40
1.0
 40
1.0
 40
1.0
 40
1.0
 10
162.4586527242029
 20
112.1810760831205
 30
0.0
 10
162.5442945185115
 20
112.0689351318738
 30
0.0
 10
162.6160768236388
 20
111.9422326559093
 30
0.0
 10
162.7236258498529
 20
111.6743948191442
 30
0.0
 10
162.760059469303
 20
111.5329870046024
 30
0.0
 10
162.8068735414379
 20
111.2413265644783
 30
0.0
 10
162.8170895501053
 20
111.0946821793653
 30
0.0
 10
162.8273057035367
 20
110.8013597426443
 30
0.0
 10
162.8276702629333
 20
110.6562889158599
 30
0.0
 10
162.8276691454726
 20
110.3824886489247
 30
0.0
 10
162.8272998498251
 20
110.2506036330464
 30
0.0
 10
162.8170740976811
 20
110.0059496974665
 30
0.0
 10
162.8068522266581
 20
109.8937673026925
 30
0.0
 10
162.7600749597253
 20
109.6844529325992
 30
0.0
 10
162.7235693131383
 20
109.5896774080019
 30
0.0
 10
162.6162046079953
 20
109.4210292790199
 30
0.0
 10
162.5443058044338
 20
109.3466078383205
 30
0.0
 10
162.4586527242029
 20
109.2860808132381
 30
0.0
  0
SPLINE
  5
F5
330
1F
100
AcDbEntity
  8
0
  6
HIDDEN
 62
     7
370
     0
100
AcDbSpline
210
0.0
220
0.0
230
1.0
 70
     8
 71
     3
 72
    18
 73
    14
 74
     0
 42
0.000000001
 43
0.00000001
 40
0.0
 40
0.0
 40
0.0
 40
0.0
 40
0.0625
 40
0.0625
 40
0.1250000000000001
 40
0.1250000000000001
 40
0.25
 40
0.25
 40
0.4999999999999998
 40
0.4999999999999998
 40
0.7499999999999999
 40
0.7499999999999999
 40
1.0
 40
1.0
 40
1.0
 40
1.0
 10
163.1485903333996
 20
113.4317931254351
 30
0.0
 10
163.1765320076469
 20
113.4248048723084
 30
0.0
 10
163.1989297145684
 20
113.414434981608
 30
0.0
 10
163.2309795161243
 20
113.3875031218313
 30
0.0
 10
163.2405069121838
 20
113.3707530247938
 30
0.0
 10
163.2509499913779
 20
113.3155841762581
 30
0.0
 10
163.2353251941599
 20
113.2716854737758
 30
0.0
 10
163.163040318267
 20
113.1355974318124
 30
0.0
 10
163.082826953934
 20
113.0353968479387
 30
0.0
 10
162.915057186174
 20
112.8205298389042
 30
0.0
 10
162.8250013228237
 20
112.7058642778901
 30
0.0
 10
162.6428909387994
 20
112.4585060778236
 30
0.0
 10
162.5504814578743
 20
112.3259235557119
 30
0.0
 10
162.4586527242029
 20
112.1810760831205
 30
0.0
  0
SPLINE
  5
F6
330
1F
100
AcDbEntity
  8
0
  6
HIDDEN
 62
     7
370
     0
100
AcDbSpline
210
0.0
220
0.0
230
1.0
 70
     8
 71
     3
 72
     8
 73
     4
 74
     0
 42
0.000000001
 43
0.00000001
 40
0.0
 40
0.0
 40
0.0
 40
0.0
 40
1.0
 40
1.0
 40
1.0
 40
1.0
 10
163.0506652661469
 20
113.4424524118258
 30
0.0
 10
163.0829545819121
 20
113.4414072148614
 30
0.0
 10
163.115638074436
 20
113.4378495690324
 30
0.0
 10
163.1485903333996
 20
113.4317931254351
 30
0.0
  0
SPLINE
  5
F7
330
1F
100
AcDbEntity
  8
0
  6
HIDDEN
 62
     7
370
     0
100
AcDbSpline
210
0.0
220
0.0
230
1.0
 70
     8
 71
     3
 72
     8
 73
     4
 74
     0
 42
0.000000001
 43
0.00000001
 40
0.0
 40
0.0
 40
0.0
 40
0.0
 40
1.0
 40
1.0
 40
1.0
 40
1.0
 10
162.7040236579703
 20
113.3708738211943
 30
0.0
 10
162.8222783726142
 20
113.4161167328176
 30
0.0
 10
162.9454028640164
 20
113.4428038315898
 30
0.0
 10
163.0506652661469
 20
113.4424524118258
 30
0.0
  0
SPLINE
  5
F8
330
1F
100
AcDbEntity
  8
0
  6
HIDDEN
 62
     7
370
     0
100
AcDbSpline
210
0.0
220
0.0
230
1.0
 70
     8
 71
     3
 72
     8
 73
     4
 74
     0
 42
0.000000001
 43
0.00000001
 40
0.0
 40
0.0
 40
0.0
 40
0.0
 40
1.0
 40
1.0
 40
1.0
 40
1.0
 10
162.3426369000276
 20
113.2643713283729
 30
0.0
 10
162.4627273255888
 20
113.3016327270495
 30
0.0
 10
162.5832003487661
 20
113.3370758855964
 30
0.0
 10
162.7040236579703
 20
113.3708738211944
 30
0.0
  0
SPLINE
  5
F9
330
1F
100
AcDbEntity
  8
0
  6
HIDDEN
 62
     7
370
     0
100
AcDbSpline
210
0.0
220
0.0
230
1.0
 70
     8
 71
     3
 72
     8
 73
     4
 74
     0
 42
0.000000001
 43
0.00000001
 40
0.0
 40
0.0
 40
0.0
 40
0.0
 40
1.0
 40
1.0
 40
1.0
 40
1.0
 10
162.1873454729653
 20
113.2107592386781
 30
0.0
 10
162.2388082452738
 20
113.2306040378711
 30
0.0
 10
162.2906632849528
 20
113.2482450669954
 30
0.0
 10
162.3426369000273
 20
113.2643713283762
 30
0.0
  0
SPLINE
  5
FA
330
1F
100
AcDbEntity
  8
0
  6
HIDDEN
 62
     7
370
     0
100
AcDbSpline
210
0.0
220
0.0
230
1.0
 70
     8
 71
     3
 72
     8
 73
     4
 74
     0
 42
0.000000001
 43
0.00000001
 40
0.0
 40
0.0
 40
0.0
 40
0.0
 40
1.0
 40
1.0
 40
1.0
 40
1.0
 10
161.4859522137892
 20
112.8630885593947
 30
0.0
 10
161.706657651474
 20
113.0032778448639
 30
0.0
 10
161.9421064140928
 20
113.1161914635736
 30
0.0
 10
162.1873454729661
 20
113.2107592386736
 30
0.0
  0
SPLINE
  5
FB
330
1F
100
AcDbEntity
  8
0
  6
HIDDEN
 62
     7
370
     0
100
AcDbSpline
210
0.0
220
0.0
230
1.0
 70
     8
 71
     3
 72
    22
 73
    18
 74
     0
 42
0.000000001
 43
0.00000001
 40
0.0
 40
0.0
 40
0.0
 40
0.0
 40
0.125
 40
0.125
 40
0.25
 40
0.25
 40
0.375
 40
0.375
 40
0.5
 40
0.5
 40
0.625
 40
0.625
 40
0.75
 40
0.75
 40
0.875
 40
0.875
 40
1.0
 40
1.0
 40
1.0
 40
1.0
 10
161.4859522137892
 20
110.5033784646218
 30
0.0
 10
161.3854491956562
 20
110.5635015988777
 30
0.0
 10
161.3023486765015
 20
110.6511296445975
 30
0.0
 10
161.1728317967912
 20
110.84799130715
 30
0.0
 10
161.1253163770212
 20
110.9582808502855
 30
0.0
 10
161.0559230808173
 20
111.1825952550359
 30
0.0
 10
161.0335482481371
 20
111.2968372877645
 30
0.0
 10
161.004427450913
 20
111.5263668891766
 30
0.0
 10
160.9979158634227
 20
111.6408329975017
 30
0.0
 10
160.9979236136275
 20
111.8621966537447
 30
0.0
 10
161.0044008341459
 20
111.9706280943503
 30
0.0
 10
161.0335761436789
 20
112.1795831219299
 30
0.0
 10
161.0559964611518
 20
112.2787078276755
 30
0.0
 10
161.1253394136552
 20
112.4680920494802
 30
0.0
 10
161.17288595906
 20
112.5587203303179
 30
0.0
 10
161.3028511349566
 20
112.7243286281598
 30
0.0
 10
161.3854699365488
 20
112.7992634955612
 30
0.0
 10
161.4859522137892
 20
112.8630885593947
 30
0.0
  0
SPLINE
  5
FC
330
1F
100
AcDbEntity
  8
0
  6
HIDDEN
 62
     7
370
     0
100
AcDbSpline
210
0.0
220
0.0
230
1.0
 70
     8
 71
     3
 72
     8
 73
     4
 74
     0
 42
0.000000001
 43
0.00000001
 40
0.0
 40
0.0
 40
0.0
 40
0.0
 40
1.0
 40
1.0
 40
1.0
 40
1.0
 10
162.1873454729661
 20
110.1787521240627
 30
0.0
 10
161.9421064140928
 20
110.2662916979587
 30
0.0
 10
161.706657651474
 20
110.3713475773167
 30
0.0
 10
161.4859522137892
 20
110.5033784646218
 30
0.0
  0
SPLINE
  5
FD
330
1F
100
AcDbEntity
  8
0
  6
HIDDEN
 62
     7
370
     0
100
AcDbSpline
210
0.0
220
0.0
230
1.0
 70
     8
 71
     3
 72
     8
 73
     4
 74
     0
 42
0.000000001
 43
0.00000001
 40
0.0
 40
0.0
 40
0.0
 40
0.0
 40
1.0
 40
1.0
 40
1.0
 40
1.0
 10
162.3426369000273
 20
110.1427196140498
 30
0.0
 10
162.2906632849528
 20
110.1483951860466
 30
0.0
 10
162.2388082452738
 20
110.1603821744175
 30
0.0
 10
162.1873454729653
 20
110.1787521240497
 30
0.0
  0
SPLINE
  5
FE
330
1F
100
AcDbEntity
  8
0
  6
HIDDEN
 62
     7
370
     0
100
AcDbSpline
210
0.0
220
0.0
230
1.0
 70
     8
 71
     3
 72
     8
 73
     4
 74
     0
 42
0.000000001
 43
0.00000001
 40
0.0
 40
0.0
 40
0.0
 40
0.0
 40
1.0
 40
1.0
 40
1.0
 40
1.0
 10
162.7040236579703
 20
110.1086135057134
 30
0.0
 10
162.5832266426985
 20
110.1182963463789
 30
0.0
 10
162.462754384221
 20
110.1296026617671
 30
0.0
 10
162.3426369000276
 20
110.1427196140635
 30
0.0
  0
SPLINE
  5
FF
330
1F
100
AcDbEntity
  8
0
  6
HIDDEN
 62
     7
370
     0
100
AcDbSpline
210
0.0
220
0.0
230
1.0
 70
     8
 71
     3
 72
     8
 73
     4
 74
     0
 42
0.000000001
 43
0.00000001
 40
0.0
 40
0.0
 40
0.0
 40
0.0
 40
1.0
 40
1.0
 40
1.0
 40
1.0
 10
163.0506652661469
 20
109.8213809629687
 30
0.0
 10
162.9443929738293
 20
109.9083222719518
 30
0.0
 10
162.8229648253489
 20
110.0019114129876
 30
0.0
 10
162.7040236579678
 20
110.1086135057157
 30
0.0
  0
SPLINE
  5
100
330
1F
100
AcDbEntity
  8
0
  6
HIDDEN
 62
     7
370
     0
100
AcDbSpline
210
0.0
220
0.0
230
1.0
 70
     8
 71
     3
 72
     8
 73
     4
 74
     0
 42
0.000000001
 43
0.00000001
 40
0.0
 40
0.0
 40
0.0
 40
0.0
 40
1.0
 40
1.0
 40
1.0
 40
1.0
 10
163.1485903333996
 20
109.73637619632
 30
0.0
 10
163.1156380744361
 20
109.762511169463
 30
0.0
 10
163.0829545819121
 20
109.7908823795444
 30
0.0
 10
163.0506652661469
 20
109.8213809629687
 30
0.0
  0
LINE
  5
101
330
1F
100
AcDbEntity
  8
0
  6
HIDDEN
 62
     7
370
     0
100
AcDbLine
 10
187.3359522138
 20
107.698083932
 30
0.0
 11
187.3359522138
 21
126.0988991313
 31
0.0
  0
SPLINE
  5
102
330
1F
100
AcDbEntity
  8
0
  6
HIDDEN
 62
     7
370
     0
100
AcDbSpline
210
0.0
220
0.0
230
1.0
 70
     8
 71
     3
 72
     8
 73
     4
 74
     0
 42
0.000000001
 43
0.00000001
 40
0.0
 40
0.0
 40
0.0
 40
0.0
 40
1.0
 40
1.0
 40
1.0
 40
1.0
 10
163.3859522137892
 20
109.8992330383243
 30
0.0
 10
163.1406601248654
 20
109.930225793483
 30
0.0
 10
162.9130764706538
 20
109.9997399809297
 30
0.0
 10
162.7040236579703
 20
110.1086135057134
 30
0.0
  0
SPLINE
  5
103
330
1F
100
AcDbEntity
  8
0
  6
HIDDEN
 62
     7
370
     0
100
AcDbSpline
210
0.0
220
0.0
230
1.0
 70
     8
 71
     3
 72
    36
 73
    32
 74
     0
 42
0.000000001
 43
0.00000001
 40
0.0
 40
0.0
 40
0.0
 40
0.0
 40
0.0625
 40
0.0625
 40
0.125
 40
0.125
 40
0.2499999999999999
 40
0.2499999999999999
 40
0.3124999999999999
 40
0.3124999999999999
 40
0.3749999999999999
 40
0.3749999999999999
 40
0.4375
 40
0.4375
 40
0.5
 40
0.5
 40
0.5625
 40
0.5625
 40
0.625
 40
0.625
 40
0.6875
 40
0.6875
 40
0.75
 40
0.75
 40
0.8125
 40
0.8125
 40
0.875
 40
0.875
 40
0.9375
 40
0.9375
 40
1.0
 40
1.0
 40
1.0
 40
1.0
 10
163.3859522137892
 20
113.7324418464576
 30
0.0
 10
163.5414021581377
 20
113.7700403154032
 30
0.0
 10
163.698215357656
 20
113.7896604959619
 30
0.0
 10
164.0144763557108
 20
113.7940663691967
 30
0.0
 10
164.1753033725018
 20
113.7781887849538
 30
0.0
 10
164.6385827814619
 20
113.6793335673442
 30
0.0
 10
164.9332921532074
 20
113.5427744469463
 30
0.0
 10
165.3060597308461
 20
113.2570066001697
 30
0.0
 10
165.4207766519699
 20
113.1467432275073
 30
0.0
 10
165.6188106802308
 20
112.9088795413098
 30
0.0
 10
165.7041494078817
 20
112.7795686257484
 30
0.0
 10
165.8437662074175
 20
112.5041536908437
 30
0.0
 10
165.8962889418817
 20
112.3619240381122
 30
0.0
 10
165.9675833095955
 20
112.0689501839263
 30
0.0
 10
165.9859026392521
 20
111.9172363855502
 30
0.0
 10
165.9860015823209
 20
111.6203785192193
 30
0.0
 10
165.9682138381592
 20
111.4724516418528
 30
0.0
 10
165.8966612697794
 20
111.1836842680614
 30
0.0
 10
165.8440147957533
 20
111.0463178341227
 30
0.0
 10
165.7057916259304
 20
110.7848793125356
 30
0.0
 10
165.6194377131911
 20
110.6606910078358
 30
0.0
 10
165.4215900304153
 20
110.4375954609331
 30
0.0
 10
165.3082690444243
 20
110.3361666429744
 30
0.0
 10
165.0582603413808
 20
110.1590442886181
 30
0.0
 10
164.9241471280833
 20
110.0847905122056
 30
0.0
 10
164.6378778826597
 20
109.9639363003715
 30
0.0
 10
164.4852086025578
 20
109.9177483181528
 30
0.0
 10
164.176778354657
 20
109.8580583043848
 30
0.0
 10
164.0178398399485
 20
109.8436543287643
 30
0.0
 10
163.6988803466335
 20
109.8473901073514
 30
0.0
 10
163.5414050864096
 20
109.8652116241115
 30
0.0
 10
163.3859522137892
 20
109.8992330383243
 30
0.0
  0
SPLINE
  5
104
330
1F
100
AcDbEntity
  8
0
  6
HIDDEN
 62
     7
370
     0
100
AcDbSpline
210
0.0
220
0.0
230
1.0
 70
     8
 71
     3
 72
    10
 73
     6
 74
     0
 42
0.000000001
 43
0.00000001
 40
0.0
 40
0.0
 40
0.0
 40
0.0
 40
0.5
 40
0.5
 40
1.0
 40
1.0
 40
1.0
 40
1.0
 10
162.7040236579703
 20
113.3708738211943
 30
0.0
 10
162.8068866799005
 20
113.4489359570028
 30
0.0
 10
162.9170857109256
 20
113.5194827432167
 30
0.0
 10
163.1456128125557
 20
113.6407302125233
 30
0.0
 10
163.2637668637271
 20
113.6915865102945
 30
0.0
 10
163.3859522137892
 20
113.7324418464576
 30
0.0
  0
LWPOLYLINE
  5
105
330
1F
100
AcDbEntity
  8
0
  6
HIDDEN
 62
     7
370
     0
100
AcDbPolyline
 90
       20
 70
   128
 43
0.0
 10
162.4586527242
 20
109.2860808132
 10
162.8730882784
 20
109.0049253972
 10
163.3475324784
 20
108.8261866285
 10
163.8538761646
 20
108.7604541542
 10
164.3621202445
 20
108.8116223934
 10
164.842153034
 20
108.9766598069
 10
165.2655342691
 20
109.2457885052
 10
165.6071800925
 20
109.6030635542
 10
165.8468491839
 20
110.0273176567
 10
165.970341988
 20
110.493415241
 10
165.970341988
 20
110.9737416554
 10
165.8468491839
 20
111.4398392397
 10
165.6071800925
 20
111.8640933422
 10
165.2655342691
 20
112.2213683911
 10
164.842153034
 20
112.4904970894
 10
164.3621202445
 20
112.6555345029
 10
163.8538761646
 20
112.7067027421
 10
163.3475324784
 20
112.6409702678
 10
162.8730882784
 20
112.4622314992
 10
162.4586527242
 20
112.1810760831
  0
LINE
  5
106
330
1F
100
AcDbEntity
  8
0
  6
HIDDEN
 62
     7
370
     0
100
AcDbLine
 10
191.3359522138
 20
136.0650328342
 30
0.0
 11
191.3359522138
 21
135.9252292198
 31
0.0
  0
LINE
  5
107
330
1F
100
AcDbEntity
  8
0
  6
HIDDEN
 62
     7
370
     0
100
AcDbLine
 10
187.3359522138
 20
135.9252292198
 30
0.0
 11
191.3359522138
 21
135.9252292198
 31
0.0
  0
LINE
  5
108
330
1F
100
AcDbEntity
  8
0
  6
HIDDEN
 62
     7
370
     0
100
AcDbLine
 10
187.3359522138
 20
136.0984915316
 30
0.0
 11
187.3359522138
 21
130.8984915316
 31
0.0
  0
LINE
  5
109
330
1F
100
AcDbEntity
  8
0
  6
HIDDEN
 62
     7
370
     0
100
AcDbLine
 10
187.3359522138
 20
130.8984915316
 30
0.0
 11
187.3359522138
 21
126.0988991313
 31
0.0
  0
LINE
  5
10A
330
1F
100
AcDbEntity
  8
0
  6
HIDDEN
 62
     7
370
     0
100
AcDbLine
 10
187.3359522138
 20
126.0988991313
 30
0.0
 11
191.3359522138
 21
126.0988991313
 31
0.0
  0
LINE
  5
10B
330
1F
100
AcDbEntity
  8
0
  6
HIDDEN
 62
     7
370
     0
100
AcDbLine
 10
187.3359522138
 20
107.698083932
 30
0.0
 11
187.3359522138
 21
102.8984915316
 31
0.0
  0
LINE
  5
10C
330
1F
100
AcDbEntity
  8
0
  6
HIDDEN
 62
     7
370
     0
100
AcDbLine
 10
191.3359522138
 20
107.698083932
 30
0.0
 11
187.3359522138
 21
107.698083932
 31
0.0
  0
LINE
  5
10D
330
1F
100
AcDbEntity
  8
0
  6
HIDDEN
 62
     7
370
     0
100
AcDbLine
 10
187.3359522138
 20
97.8717538434
 30
0.0
 11
191.3359522138
 21
97.8717538434
 31
0.0
  0
LINE
  5
10E
330
1F
100
AcDbEntity
  8
0
  6
HIDDEN
 62
     7
370
     0
100
AcDbLine
 10
187.3359522138
 20
102.8984915316
 30
0.0
 11
187.3359522138
 21
97.6984915316
 31
0.0
  0
LINE
  5
10F
330
1F
100
AcDbEntity
  8
0
  6
HIDDEN
 62
     7
370
     0
100
AcDbLine
 10
186.1359522138
 20
101.8984915316
 30
0.0
 11
186.1359522138
 21
131.8984915316
 31
0.0
  0
SPLINE
  5
110
330
1F
100
AcDbEntity
  8
0
  6
HIDDEN
 62
     7
370
     0
100
AcDbSpline
210
0.0
220
0.0
230
1.0
 70
     8
 71
     3
 72
     8
 73
     4
 74
     0
 42
0.000000001
 43
0.00000001
 40
0.0
 40
0.0
 40
0.0
 40
0.0
 40
1.0
 40
1.0
 40
1.0
 40
1.0
 10
162.1873454729661
 20
123.6182309391864
 30
0.0
 10
161.9421064140928
 20
123.5306913652904
 30
0.0
 10
161.706657651474
 20
123.4256354859324
 30
0.0
 10
161.4859522137892
 20
123.2936045986273
 30
0.0
  0
SPLINE
  5
111
330
1F
100
AcDbEntity
  8
0
  6
HIDDEN
 62
     7
370
     0
100
AcDbSpline
210
0.0
220
0.0
230
1.0
 70
     8
 71
     3
 72
    22
 73
    18
 74
     0
 42
0.000000001
 43
0.00000001
 40
0.0
 40
0.0
 40
0.0
 40
0.0
 40
0.125
 40
0.125
 40
0.25
 40
0.25
 40
0.375
 40
0.375
 40
0.5
 40
0.5
 40
0.625
 40
0.625
 40
0.75
 40
0.75
 40
0.875
 40
0.875
 40
1.0
 40
1.0
 40
1.0
 40
1.0
 10
161.4859522137892
 20
123.2936045986273
 30
0.0
 10
161.3854491956562
 20
123.2334814643714
 30
0.0
 10
161.3023486765015
 20
123.1458534186516
 30
0.0
 10
161.1728317967912
 20
122.9489917560991
 30
0.0
 10
161.1253163770212
 20
122.8387022129636
 30
0.0
 10
161.0559230808173
 20
122.6143878082132
 30
0.0
 10
161.0335482481371
 20
122.5001457754846
 30
0.0
 10
161.004427450913
 20
122.2706161740725
 30
0.0
 10
160.9979158634227
 20
122.1561500657474
 30
0.0
 10
160.9979236136275
 20
121.9347864095045
 30
0.0
 10
161.0044008341459
 20
121.8263549688988
 30
0.0
 10
161.0335761436789
 20
121.6173999413192
 30
0.0
 10
161.0559964611518
 20
121.5182752355736
 30
0.0
 10
161.1253394136552
 20
121.3288910137689
 30
0.0
 10
161.17288595906
 20
121.2382627329312
 30
0.0
 10
161.3028511349566
 20
121.0726544350893
 30
0.0
 10
161.3854699365488
 20
120.997719567688
 30
0.0
 10
161.4859522137892
 20
120.9338945038544
 30
0.0
  0
LINE
  5
112
330
1F
100
AcDbEntity
  8
0
  6
HIDDEN
 62
     7
370
     0
100
AcDbLine
 10
160.8859522138
 20
102.1984915316
 30
0.0
 11
160.8859522138
 21
131.5984915316
 31
0.0
  0
SPLINE
  5
113
330
1F
100
AcDbEntity
  8
0
  6
HIDDEN
 62
     7
370
     0
100
AcDbSpline
210
0.0
220
0.0
230
1.0
 70
     8
 71
     3
 72
     8
 73
     4
 74
     0
 42
0.000000001
 43
0.00000001
 40
0.0
 40
0.0
 40
0.0
 40
0.0
 40
1.0
 40
1.0
 40
1.0
 40
1.0
 10
162.3426369000273
 20
123.6542634491994
 30
0.0
 10
162.2906632849528
 20
123.6485878772025
 30
0.0
 10
162.2388082452738
 20
123.6366008888316
 30
0.0
 10
162.1873454729653
 20
123.6182309391994
 30
0.0
  0
SPLINE
  5
114
330
1F
100
AcDbEntity
  8
0
  6
HIDDEN
 62
     7
370
     0
100
AcDbSpline
210
0.0
220
0.0
230
1.0
 70
     8
 71
     3
 72
     8
 73
     4
 74
     0
 42
0.000000001
 43
0.00000001
 40
0.0
 40
0.0
 40
0.0
 40
0.0
 40
1.0
 40
1.0
 40
1.0
 40
1.0
 10
162.7040236579705
 20
123.6883695575357
 30
0.0
 10
162.5832266426987
 20
123.6786867168702
 30
0.0
 10
162.4627543842211
 20
123.667380401482
 30
0.0
 10
162.3426369000276
 20
123.6542634491856
 30
0.0
  0
LINE
  5
115
330
1F
100
AcDbEntity
  8
0
  6
HIDDEN
 62
     7
370
     0
100
AcDbLine
 10
163.3859522138
 20
113.7324418465
 30
0.0
 11
163.3859522138
 21
131.8984915316
 31
0.0
  0
SPLINE
  5
116
330
1F
100
AcDbEntity
  8
0
  6
HIDDEN
 62
     7
370
     0
100
AcDbSpline
210
0.0
220
0.0
230
1.0
 70
     8
 71
     3
 72
     8
 73
     4
 74
     0
 42
0.000000001
 43
0.00000001
 40
0.0
 40
0.0
 40
0.0
 40
0.0
 40
1.0
 40
1.0
 40
1.0
 40
1.0
 10
163.3859522137892
 20
123.8977500249247
 30
0.0
 10
163.1406601248655
 20
123.8667572697661
 30
0.0
 10
162.9130764706539
 20
123.7972430823194
 30
0.0
 10
162.7040236579705
 20
123.6883695575357
 30
0.0
  0
LINE
  5
117
330
1F
100
AcDbEntity
  8
0
  6
HIDDEN
 62
     7
370
     0
100
AcDbLine
 10
163.3859522138
 20
113.7324418465
 30
0.0
 11
163.3859522138
 21
109.8992330383
 31
0.0
  0
LINE
  5
118
330
1F
100
AcDbEntity
  8
0
  6
HIDDEN
 62
     7
370
     0
100
AcDbLine
 10
163.3859522138
 20
101.8984915316
 30
0.0
 11
163.3859522138
 21
109.8992330383
 31
0.0
  0
SPLINE
  5
119
330
1F
100
AcDbEntity
  8
0
  6
HIDDEN
 62
     7
370
     0
100
AcDbSpline
210
0.0
220
0.0
230
1.0
 70
     8
 71
     3
 72
    36
 73
    32
 74
     0
 42
0.000000001
 43
0.00000001
 40
0.0
 40
0.0
 40
0.0
 40
0.0
 40
0.0625000000000001
 40
0.0625000000000001
 40
0.1250000000000001
 40
0.1250000000000001
 40
0.2500000000000002
 40
0.2500000000000002
 40
0.3125000000000002
 40
0.3125000000000002
 40
0.3750000000000002
 40
0.3750000000000002
 40
0.4375000000000003
 40
0.4375000000000003
 40
0.5000000000000002
 40
0.5000000000000002
 40
0.5625000000000003
 40
0.5625000000000003
 40
0.6250000000000002
 40
0.6250000000000002
 40
0.6875000000000002
 40
0.6875000000000002
 40
0.7500000000000001
 40
0.7500000000000001
 40
0.8125000000000001
 40
0.8125000000000001
 40
0.8750000000000001
 40
0.8750000000000001
 40
0.9375
 40
0.9375
 40
1.0
 40
1.0
 40
1.0
 40
1.0
 10
163.3859522137892
 20
120.0645412167915
 30
0.0
 10
163.5414021581377
 20
120.0269427478458
 30
0.0
 10
163.698215357656
 20
120.0073225672871
 30
0.0
 10
164.0144763557108
 20
120.0029166940523
 30
0.0
 10
164.1753033725018
 20
120.0187942782953
 30
0.0
 10
164.6385827814619
 20
120.1176494959048
 30
0.0
 10
164.9332921532074
 20
120.2542086163028
 30
0.0
 10
165.3060597308461
 20
120.5399764630793
 30
0.0
 10
165.4207766519699
 20
120.6502398357418
 30
0.0
 10
165.6188106802308
 20
120.8881035219392
 30
0.0
 10
165.7041494078817
 20
121.0174144375007
 30
0.0
 10
165.8437662074175
 20
121.2928293724053
 30
0.0
 10
165.8962889418817
 20
121.4350590251369
 30
0.0
 10
165.9675833095955
 20
121.7280328793228
 30
0.0
 10
165.9859026392521
 20
121.8797466776988
 30
0.0
 10
165.9860015823209
 20
122.1766045440297
 30
0.0
 10
165.9682138381592
 20
122.3245314213963
 30
0.0
 10
165.8966612697794
 20
122.6132987951876
 30
0.0
 10
165.8440147957533
 20
122.7506652291263
 30
0.0
 10
165.7057916259304
 20
123.0121037507134
 30
0.0
 10
165.6194377131911
 20
123.1362920554132
 30
0.0
 10
165.4215900304153
 20
123.359387602316
 30
0.0
 10
165.3082690444243
 20
123.4608164202747
 30
0.0
 10
165.0582603413808
 20
123.6379387746309
 30
0.0
 10
164.9241471280833
 20
123.7121925510434
 30
0.0
 10
164.6378778826597
 20
123.8330467628775
 30
0.0
 10
164.4852086025578
 20
123.8792347450962
 30
0.0
 10
164.176778354657
 20
123.9389247588642
 30
0.0
 10
164.0178398399485
 20
123.9533287344848
 30
0.0
 10
163.6988803466335
 20
123.9495929558976
 30
0.0
 10
163.5414050864096
 20
123.9317714391375
 30
0.0
 10
163.3859522137892
 20
123.8977500249247
 30
0.0
  0
SPLINE
  5
11A
330
1F
100
AcDbEntity
  8
0
  6
HIDDEN
 62
     7
370
     0
100
AcDbSpline
210
0.0
220
0.0
230
1.0
 70
     8
 71
     3
 72
     8
 73
     4
 74
     0
 42
0.000000001
 43
0.00000001
 40
0.0
 40
0.0
 40
0.0
 40
0.0
 40
1.0
 40
1.0
 40
1.0
 40
1.0
 10
161.4859522137892
 20
120.9338945038544
 30
0.0
 10
161.706657651474
 20
120.7937052183852
 30
0.0
 10
161.9421064140928
 20
120.6807915996755
 30
0.0
 10
162.1873454729661
 20
120.5862238245756
 30
0.0
  0
SPLINE
  5
11B
330
1F
100
AcDbEntity
  8
0
  6
HIDDEN
 62
     7
370
     0
100
AcDbSpline
210
0.0
220
0.0
230
1.0
 70
     8
 71
     3
 72
     8
 73
     4
 74
     0
 42
0.000000001
 43
0.00000001
 40
0.0
 40
0.0
 40
0.0
 40
0.0
 40
1.0
 40
1.0
 40
1.0
 40
1.0
 10
162.1873454729653
 20
120.5862238245711
 30
0.0
 10
162.2388082452738
 20
120.566379025378
 30
0.0
 10
162.2906632849528
 20
120.5487379962538
 30
0.0
 10
162.3426369000273
 20
120.5326117348729
 30
0.0
  0
SPLINE
  5
11C
330
1F
100
AcDbEntity
  8
0
  6
HIDDEN
 62
     7
370
     0
100
AcDbSpline
210
0.0
220
0.0
230
1.0
 70
     8
 71
     3
 72
     8
 73
     4
 74
     0
 42
0.000000001
 43
0.00000001
 40
0.0
 40
0.0
 40
0.0
 40
0.0
 40
1.0
 40
1.0
 40
1.0
 40
1.0
 10
162.3426369000276
 20
120.5326117348763
 30
0.0
 10
162.4627273255887
 20
120.4953503361997
 30
0.0
 10
162.583200348766
 20
120.4599071776527
 30
0.0
 10
162.7040236579701
 20
120.4261092420547
 30
0.0
  0
SPLINE
  5
11D
330
1F
100
AcDbEntity
  8
0
  6
HIDDEN
 62
     7
370
     0
100
AcDbSpline
210
0.0
220
0.0
230
1.0
 70
     8
 71
     3
 72
    10
 73
     6
 74
     0
 42
0.000000001
 43
0.00000001
 40
0.0
 40
0.0
 40
0.0
 40
0.0
 40
0.5
 40
0.5
 40
1.0
 40
1.0
 40
1.0
 40
1.0
 10
162.7040236579701
 20
120.4261092420549
 30
0.0
 10
162.8068866799003
 20
120.3480471062464
 30
0.0
 10
162.9170857109255
 20
120.2775003200324
 30
0.0
 10
163.1456128125556
 20
120.1562528507257
 30
0.0
 10
163.263766863727
 20
120.1053965529545
 30
0.0
 10
163.3859522137892
 20
120.0645412167915
 30
0.0
  0
LINE
  5
11E
330
1F
100
AcDbEntity
  8
0
  6
HIDDEN
 62
     7
370
     0
100
AcDbLine
 10
187.3359522138
 20
138.1734915316
 30
0.0
 11
187.3359522138
 21
136.0984915316
 31
0.0
  0
LINE
  5
11F
330
1F
100
AcDbEntity
  8
0
  6
HIDDEN
 62
     7
370
     0
100
AcDbLine
 10
187.3359522138
 20
97.6984915316
 30
0.0
 11
187.3359522138
 21
95.6234915316
 31
0.0
  0
LINE
  5
120
330
1F
100
AcDbEntity
  8
0
  6
HIDDEN
 62
     7
370
     0
100
AcDbLine
 10
172.1288454326
 20
93.2481914461
 30
0.0
 11
172.4185132595
 21
93.5699496823
 31
0.0
  0
LINE
  5
121
330
1F
100
AcDbEntity
  8
0
  6
HIDDEN
 62
     7
370
     0
100
AcDbLine
 10
171.700453084
 20
93.5454883902
 30
0.0
 11
171.8359522138
 21
93.9813676217
 31
0.0
  0
LINE
  5
122
330
1F
100
AcDbEntity
  8
0
  6
HIDDEN
 62
     7
370
     0
100
AcDbLine
 10
155.9859522138
 20
135.6984915316
 30
0.0
 11
156.323210514
 21
135.6984915316
 31
0.0
  0
ELLIPSE
  5
123
330
1F
100
AcDbEntity
  8
0
  6
HIDDEN
 62
     7
370
     0
100
AcDbEllipse
 10
156.323210514
 20
137.2984915316
 30
0.0
 11
0.0
 21
1.599999999999994
 31
0.0
210
0.0
220
0.0
230
1.0
 40
0.4142135624
 41
3.14159265358975
 42
4.712388980384695
  0
ELLIPSE
  5
124
330
1F
100
AcDbEntity
  8
0
  6
HIDDEN
 62
     7
370
     0
100
AcDbEllipse
 10
156.323210514
 20
99.0984915316
 30
0.0
 11
0.0
 21
1.600000000000009
 31
0.0
210
0.0
220
0.0
230
1.0
 40
0.4142135624
 41
4.712388980384695
 42
6.283185307179586
  0
LINE
  5
125
330
1F
100
AcDbEntity
  8
0
  6
HIDDEN
 62
     7
370
     0
100
AcDbLine
 10
156.323210514
 20
100.6984915316
 30
0.0
 11
155.9859522138
 21
100.6984915316
 31
0.0
  0
LINE
  5
126
330
1F
100
AcDbEntity
  8
0
  6
HIDDEN
 62
     7
370
     0
100
AcDbLine
 10
156.9859522138
 20
94.0444594458
 30
0.0
 11
156.2180750737
 21
93.6666741042
 31
0.0
  0
LINE
  5
127
330
1F
100
AcDbEntity
  8
0
  6
HIDDEN
 62
     7
370
     0
100
AcDbLine
 10
172.6392152343
 20
140.1143039086
 30
0.0
 11
172.1288454326
 21
140.6368648889
 31
0.0
  0
LINE
  5
128
330
1F
100
AcDbEntity
  8
0
  6
HIDDEN
 62
     7
370
     0
100
AcDbLine
 10
156.3041907281
 20
140.2223367875
 30
0.0
 11
156.9859522138
 21
139.5405753019
 31
0.0
  0
LINE
  5
129
330
1F
100
AcDbEntity
  8
0
  6
HIDDEN
 62
     7
370
     0
100
AcDbLine
 10
174.068058995
 20
91.0597120887
 30
0.0
 11
174.1929499921
 21
91.3861884065
 31
0.0
  0
SPLINE
  5
12A
330
1F
100
AcDbEntity
  8
0
  6
HIDDEN
 62
     7
370
     0
100
AcDbSpline
210
0.0
220
0.0
230
1.0
 70
     8
 71
     3
 72
    17
 73
    13
 74
     0
 42
0.000000001
 43
0.00000001
 40
0.0
 40
0.0
 40
0.0
 40
0.0
 40
0.0011833787915112
 40
0.1130397945287964
 40
0.2333457215825534
 40
0.3184159703873434
 40
0.407414661882333
 40
0.5003940623463992
 40
0.6253062030215946
 40
0.7503887368586437
 40
0.8753876037367732
 40
1.0
 40
1.0
 40
1.0
 40
1.0
 10
179.8850933717215
 20
89.88494826266164
 30
0.0
 10
179.8853806623273
 20
89.88484813417155
 30
0.0
 10
179.9128234991272
 20
89.87528356868668
 30
0.0
 10
179.8171600993084
 20
89.91239874237145
 30
0.0
 10
179.6076101626848
 20
89.98847487873881
 30
0.0
 10
179.2771451017593
 20
90.09897606453107
 30
0.0
 10
178.894388726239
 20
90.21977379783965
 30
0.0
 10
178.3562547340918
 20
90.3850911624398
 30
0.0
 10
177.6336668584399
 20
90.58435608222673
 30
0.0
 10
176.7089955169547
 20
90.81480730426925
 30
0.0
 10
175.6741324421756
 20
91.03237334128794
 30
0.0
 10
174.9079273719508
 20
91.13668828484333
 30
0.0
 10
174.5254179906506
 20
91.18876500173067
 30
0.0
  0
LINE
  5
12B
330
1F
100
AcDbEntity
  8
0
  6
HIDDEN
 62
     7
370
     0
100
AcDbLine
 10
174.7751657762
 20
90.7260771015
 30
0.0
 11
174.5254179907
 21
91.1887650017
 31
0.0
  0
LINE
  5
12C
330
1F
100
AcDbEntity
  8
0
  6
HIDDEN
 62
     7
370
     0
100
AcDbLine
 10
174.4736922468
 20
142.3077553984
 30
0.0
 11
174.068058995
 21
142.8380725215
 31
0.0
  0
SPLINE
  5
12D
330
1F
100
AcDbEntity
  8
0
  6
HIDDEN
 62
     7
370
     0
100
AcDbSpline
210
0.0
220
0.0
230
1.0
 70
     8
 71
     3
 72
    16
 73
    12
 74
     0
 42
0.000000001
 43
0.00000001
 40
0.0
 40
0.0
 40
0.0
 40
0.0
 40
0.0734998558181144
 40
0.1571458651847785
 40
0.2509598110544416
 40
0.3759549913075404
 40
0.5009904138817338
 40
0.6327669062902054
 40
0.7598777345291241
 40
0.8825371855937241
 40
1.0
 40
1.0
 40
1.0
 40
1.0
 10
174.6164194195786
 20
142.3902516016275
 30
0.0
 10
174.8398590078795
 20
142.4195915818876
 30
0.0
 10
175.3175824949428
 20
142.4823217264729
 30
0.0
 10
176.0376831804415
 20
142.6035567291611
 30
0.0
 10
176.8509376285777
 20
142.7641552109307
 30
0.0
 10
177.6837482679311
 20
142.9534428715135
 30
0.0
 10
178.4713512397711
 20
143.1699458085855
 30
0.0
 10
179.1072926742289
 20
143.3672953987938
 30
0.0
 10
179.5614845818227
 20
143.5064324537589
 30
0.0
 10
179.8363197115789
 20
143.5951579819786
 30
0.0
 10
179.8691282313775
 20
143.6062036948841
 30
0.0
 10
179.8851774763924
 20
143.611607027734
 30
0.0
  0
LINE
  5
12E
330
1F
100
AcDbEntity
  8
0
  6
HIDDEN
 62
     7
370
     0
100
AcDbLine
 10
174.6164194196
 20
142.3902516016
 30
0.0
 11
174.7751657762
 21
143.1409079846
 31
0.0
  0
SPLINE
  5
12F
330
1F
100
AcDbEntity
  8
0
  6
HIDDEN
 62
     7
370
     0
100
AcDbSpline
210
0.0
220
0.0
230
1.0
 70
     8
 71
     3
 72
    13
 73
     9
 74
     0
 42
0.000000001
 43
0.00000001
 40
0.0
 40
0.0
 40
0.0
 40
0.0
 40
0.1655315513722179
 40
0.327664864051014
 40
0.4893143702595182
 40
0.6534202821579662
 40
0.8227949376667087
 40
0.9999999999999999
 40
0.9999999999999999
 40
0.9999999999999999
 40
0.9999999999999999
 10
174.5254179906506
 20
91.18876500173067
 30
0.0
 10
174.5041738915386
 20
91.19219194458829
 30
0.0
 10
174.4621218187479
 20
91.19897547773495
 30
0.0
 10
174.401365942791
 20
91.22002315307347
 30
0.0
 10
174.3437676428741
 20
91.24892527912307
 30
0.0
 10
174.2895891223548
 20
91.2864898057173
 30
0.0
 10
174.2384007835838
 20
91.33205736223157
 30
0.0
 10
174.2083267472862
 20
91.36787497810755
 30
0.0
 10
174.1929499920913
 20
91.38618840652587
 30
0.0
  0
SPLINE
  5
130
330
1F
100
AcDbEntity
  8
0
  6
HIDDEN
 62
     7
370
     0
100
AcDbSpline
210
0.0
220
0.0
230
1.0
 70
     8
 71
     3
 72
    13
 73
     9
 74
     0
 42
0.000000001
 43
0.00000001
 40
0.0
 40
0.0
 40
0.0
 40
0.0
 40
0.1763799479157964
 40
0.3470727383362677
 40
0.5133602176091351
 40
0.6766280242192436
 40
0.8383394365444916
 40
1.0
 40
1.0
 40
1.0
 40
1.0
 10
172.4185132594923
 20
93.56994968228472
 30
0.0
 10
172.390575712594
 20
93.60192667843192
 30
0.0
 10
172.3356014311126
 20
93.66484961126937
 30
0.0
 10
172.2448354471441
 20
93.74898135416377
 30
0.0
 10
172.1498572857432
 20
93.82325005985084
 30
0.0
 10
172.0499394169884
 20
93.88682570183715
 30
0.0
 10
171.9456043115677
 20
93.9407977598313
 30
0.0
 10
171.8724990812197
 20
93.96784575211542
 30
0.0
 10
171.8359522137891
 20
93.98136762166654
 30
0.0
  0
SPLINE
  5
131
330
1F
100
AcDbEntity
  8
0
  6
HIDDEN
 62
     7
370
     0
100
AcDbSpline
210
0.0
220
0.0
230
1.0
 70
     8
 71
     3
 72
     8
 73
     4
 74
     0
 42
0.000000001
 43
0.00000001
 40
0.0
 40
0.0
 40
0.0
 40
0.0
 40
1.0
 40
1.0
 40
1.0
 40
1.0
 10
174.1929499920913
 20
91.38618840652587
 30
0.0
 10
173.6163846451767
 20
92.11410883177881
 30
0.0
 10
173.0199234720668
 20
92.84202925703178
 30
0.0
 10
172.4185132594922
 20
93.56994968228473
 30
0.0
  0
LINE
  5
132
330
1F
100
AcDbEntity
  8
0
  6
HIDDEN
 62
     7
370
     0
100
AcDbLine
 10
160.9528176664
 20
94.0444594458
 30
0.0
 11
156.9859522138
 21
94.0444594458
 31
0.0
  0
LINE
  5
133
330
1F
100
AcDbEntity
  8
0
  6
HIDDEN
 62
     7
370
     0
100
AcDbLine
 10
171.4217386514
 20
94.0444594458
 30
0.0
 11
166.8190867612
 21
94.0444594458
 31
0.0
  0
SPLINE
  5
134
330
1F
100
AcDbEntity
  8
0
  6
HIDDEN
 62
     7
370
     0
100
AcDbSpline
210
0.0
220
0.0
230
1.0
 70
     8
 71
     3
 72
    11
 73
     7
 74
     0
 42
0.000000001
 43
0.00000001
 40
0.0
 40
0.0
 40
0.0
 40
0.0
 40
0.2512653939212747
 40
0.5007531380118209
 40
0.7498627262671687
 40
1.0
 40
1.0
 40
1.0
 40
1.0
 10
171.8359522137891
 20
93.98136762166654
 30
0.0
 10
171.8020814986417
 20
93.99107563785512
 30
0.0
 10
171.7345796965349
 20
94.01042298805899
 30
0.0
 10
171.6311261054439
 20
94.02964514579469
 30
0.0
 10
171.5267974063368
 20
94.04208749136077
 30
0.0
 10
171.4568062613173
 20
94.04366771007484
 30
0.0
 10
171.421738651416
 20
94.04445944584955
 30
0.0
  0
LINE
  5
135
330
1F
100
AcDbEntity
  8
0
  6
HIDDEN
 62
     7
370
     0
100
AcDbLine
 10
156.9859522138
 20
94.0444594458
 30
0.0
 11
156.9859522138
 21
99.0984915316
 31
0.0
  0
LINE
  5
136
330
1F
100
AcDbEntity
  8
0
  6
HIDDEN
 62
     7
370
     0
100
AcDbLine
 10
156.9859522138
 20
139.5405753019
 30
0.0
 11
161.0681758789
 21
139.5405753019
 31
0.0
  0
LINE
  5
137
330
1F
100
AcDbEntity
  8
0
  6
HIDDEN
 62
     7
370
     0
100
AcDbLine
 10
166.7037285487
 20
139.5405753019
 30
0.0
 11
171.4217386514
 21
139.5405753019
 31
0.0
  0
SPLINE
  5
138
330
1F
100
AcDbEntity
  8
0
  6
HIDDEN
 62
     7
370
     0
100
AcDbSpline
210
0.0
220
0.0
230
1.0
 70
     8
 71
     3
 72
    11
 73
     7
 74
     0
 42
0.000000001
 43
0.00000001
 40
0.0
 40
0.0
 40
0.0
 40
0.0
 40
0.2501028913350042
 40
0.4994971132770309
 40
0.7491435029710247
 40
1.0
 40
1.0
 40
1.0
 40
1.0
 10
171.421738651416
 20
139.5405753018847
 30
0.0
 10
171.4566319244184
 20
139.5412238809596
 30
0.0
 10
171.5263195999366
 20
139.5425192013533
 30
0.0
 10
171.6304015879348
 20
139.5527653261537
 30
0.0
 10
171.73388894161
 20
139.5685838917037
 30
0.0
 10
171.801876330147
 20
139.5845626233022
 30
0.0
 10
171.8359522137891
 20
139.5925713056537
 30
0.0
  0
LINE
  5
139
330
1F
100
AcDbEntity
  8
0
  6
HIDDEN
 62
     7
370
     0
100
AcDbLine
 10
156.9859522138
 20
139.5405753019
 30
0.0
 11
156.9859522138
 21
137.2984915316
 31
0.0
  0
SPLINE
  5
13A
330
1F
100
AcDbEntity
  8
0
  6
HIDDEN
 62
     7
370
     0
100
AcDbSpline
210
0.0
220
0.0
230
1.0
 70
     8
 71
     3
 72
    11
 73
     7
 74
     0
 42
0.000000001
 43
0.00000001
 40
0.0
 40
0.0
 40
0.0
 40
0.0
 40
0.2607150748058522
 40
0.5082959614614548
 40
0.7516145820394263
 40
1.0
 40
1.0
 40
1.0
 40
1.0
 10
174.4736922468407
 20
142.3077553984102
 30
0.0
 10
174.4836619489317
 20
142.3189581699274
 30
0.0
 10
174.5030991038931
 20
142.3407993447178
 30
0.0
 10
174.5380579336853
 20
142.3655201879513
 30
0.0
 10
174.5759274438382
 20
142.3830762585623
 30
0.0
 10
174.6028296889994
 20
142.3878434460044
 30
0.0
 10
174.6164194195786
 20
142.3902516016275
 30
0.0
  0
SPLINE
  5
13B
330
1F
100
AcDbEntity
  8
0
  6
HIDDEN
 62
     7
370
     0
100
AcDbSpline
210
0.0
220
0.0
230
1.0
 70
     8
 71
     3
 72
    15
 73
    11
 74
     0
 42
0.000000001
 43
0.00000001
 40
0.0
 40
0.0
 40
0.0
 40
0.0
 40
0.1223024439934118
 40
0.2438930745055849
 40
0.3655271559199519
 40
0.4879591492608057
 40
0.611928949231103
 40
0.7381494106049343
 40
0.8672961250628559
 40
1.0
 40
1.0
 40
1.0
 40
1.0
 10
171.8359522137891
 20
139.5925713056537
 30
0.0
 10
171.8740740606671
 20
139.603706047108
 30
0.0
 10
171.950095881142
 20
139.6259107246145
 30
0.0
 10
172.0602643902635
 20
139.6703661781213
 30
0.0
 10
172.1667792946643
 20
139.7227955371802
 30
0.0
 10
172.2693921639861
 20
139.7839997136887
 30
0.0
 10
172.3681792848018
 20
139.8537217397404
 30
0.0
 10
172.4629733400564
 20
139.9321276409131
 30
0.0
 10
172.5543167614265
 20
140.018728996799
 30
0.0
 10
172.6106606053398
 20
140.0821583816884
 30
0.0
 10
172.6392152342731
 20
140.1143039085676
 30
0.0
  0
SPLINE
  5
13C
330
1F
100
AcDbEntity
  8
0
  6
HIDDEN
 62
     7
370
     0
100
AcDbSpline
210
0.0
220
0.0
230
1.0
 70
     8
 71
     3
 72
     8
 73
     4
 74
     0
 42
0.000000001
 43
0.00000001
 40
0.0
 40
0.0
 40
0.0
 40
0.0
 40
1.0
 40
1.0
 40
1.0
 40
1.0
 10
172.6392152342731
 20
140.1143039085676
 30
0.0
 10
173.2636753336643
 20
140.8454544051818
 30
0.0
 10
173.8807477725088
 20
141.576604901796
 30
0.0
 10
174.4736922468407
 20
142.3077553984102
 30
0.0
  0
LINE
  5
13D
330
1F
100
AcDbEntity
  8
0
  6
HIDDEN
 62
     7
370
     0
100
AcDbLine
 10
171.8359522138
 20
100.6984915316
 30
0.0
 11
156.323210514
 21
100.6984915316
 31
0.0
  0
LINE
  5
13E
330
1F
100
AcDbEntity
  8
0
  6
HIDDEN
 62
     7
370
     0
100
AcDbLine
 10
178.2859522138
 20
100.6984915316
 30
0.0
 11
171.8359522138
 21
100.6984915316
 31
0.0
  0
LINE
  5
13F
330
1F
100
AcDbEntity
  8
0
  6
HIDDEN
 62
     7
370
     0
100
AcDbLine
 10
171.8359522138
 20
135.6984915316
 30
0.0
 11
178.2859522138
 21
135.6984915316
 31
0.0
  0
LINE
  5
140
330
1F
100
AcDbEntity
  8
0
  6
HIDDEN
 62
     7
370
     0
100
AcDbLine
 10
156.323210514
 20
135.6984915316
 30
0.0
 11
171.8359522138
 21
135.6984915316
 31
0.0
  0
LINE
  5
141
330
1F
100
AcDbEntity
  8
0
  6
HIDDEN
 62
     7
370
     0
100
AcDbLine
 10
109.1359522138
 20
110.3984915316
 30
0.0
 11
109.1359522138
 21
123.3984915316
 31
0.0
  0
LINE
  5
142
330
1F
100
AcDbEntity
  8
0
  6
HIDDEN
 62
     7
370
     0
100
AcDbLine
 10
112.0741464012
 20
111.7984915316
 30
0.0
 11
112.0741464012
 21
121.9984915316
 31
0.0
  0
LINE
  5
143
330
1F
100
AcDbEntity
  8
0
  6
HIDDEN
 62
     7
370
     0
100
AcDbLine
 10
139.1359522138
 20
111.7984915316
 30
0.0
 11
139.1359522138
 21
121.9984915316
 31
0.0
  0
LINE
  5
144
330
1F
100
AcDbEntity
  8
0
  6
HIDDEN
 62
     7
370
     0
100
AcDbLine
 10
139.64668374
 20
112.6484915316
 30
0.0
 11
139.64668374
 21
121.1484915316
 31
0.0
  0
LINE
  5
145
330
1F
100
AcDbEntity
  8
0
  6
HIDDEN
 62
     7
370
     0
100
AcDbLine
 10
161.9759522138
 20
133.7463107592
 30
0.0
 11
161.9759522138
 21
131.7484915316
 31
0.0
  0
LINE
  5
146
330
1F
100
AcDbEntity
  8
0
  6
HIDDEN
 62
     7
370
     0
100
AcDbLine
 10
165.7959522138
 20
133.7463107592
 30
0.0
 11
165.7959522138
 21
131.7484915316
 31
0.0
  0
LINE
  5
147
330
1F
100
AcDbEntity
  8
0
  6
HIDDEN
 62
     7
370
     0
100
AcDbLine
 10
167.2490175318
 20
136.9790324855
 30
0.0
 11
167.2490175318
 21
131.7484915316
 31
0.0
  0
LINE
  5
148
330
1F
100
AcDbEntity
  8
0
  6
HIDDEN
 62
     7
370
     0
100
AcDbLine
 10
160.5228868958
 20
136.9790324855
 30
0.0
 11
160.5228868958
 21
131.7484915316
 31
0.0
  0
SPLINE
  5
149
330
1F
100
AcDbEntity
  8
0
  6
HIDDEN
 62
     7
370
     0
100
AcDbSpline
210
0.0
220
0.0
230
1.0
 70
     8
 71
     3
 72
     8
 73
     4
 74
     0
 42
0.000000001
 43
0.00000001
 40
0.0
 40
0.0
 40
0.0
 40
0.0
 40
1.0
 40
1.0
 40
1.0
 40
1.0
 10
162.7040236579701
 20
120.4261092420549
 30
0.0
 10
162.822278372615
 20
120.3808663304312
 30
0.0
 10
162.9454028640181
 20
120.354179231659
 30
0.0
 10
163.050665266149
 20
120.3545306514234
 30
0.0
  0
SPLINE
  5
14A
330
1F
100
AcDbEntity
  8
0
  6
HIDDEN
 62
     7
370
     0
100
AcDbSpline
210
0.0
220
0.0
230
1.0
 70
     8
 71
     3
 72
     8
 73
     4
 74
     0
 42
0.000000001
 43
0.00000001
 40
0.0
 40
0.0
 40
0.0
 40
0.0
 40
1.0
 40
1.0
 40
1.0
 40
1.0
 10
163.050665266149
 20
120.3545306514234
 30
0.0
 10
163.0829545819128
 20
120.3555758483879
 30
0.0
 10
163.1156380744354
 20
120.3591334942167
 30
0.0
 10
163.1485903333974
 20
120.3651899378136
 30
0.0
  0
SPLINE
  5
14B
330
1F
100
AcDbEntity
  8
0
  6
HIDDEN
 62
     7
370
     0
100
AcDbSpline
210
0.0
220
0.0
230
1.0
 70
     8
 71
     3
 72
    48
 73
    44
 74
     0
 42
0.000000001
 43
0.00000001
 40
0.0
 40
0.0
 40
0.0
 40
0.0
 40
0.0312499999999996
 40
0.0312499999999996
 40
0.0624999999999993
 40
0.0624999999999993
 40
0.1249999999999995
 40
0.1249999999999995
 40
0.1874999999999996
 40
0.1874999999999996
 40
0.2499999999999997
 40
0.2499999999999997
 40
0.3124999999999998
 40
0.3124999999999998
 40
0.3749999999999999
 40
0.3749999999999999
 40
0.4062499999999999
 40
0.4062499999999999
 40
0.4374999999999998
 40
0.4374999999999998
 40
0.4999999999999998
 40
0.4999999999999998
 40
0.5624999999999998
 40
0.5624999999999998
 40
0.5937499999999997
 40
0.5937499999999997
 40
0.6249999999999997
 40
0.6249999999999997
 40
0.6874999999999993
 40
0.6874999999999993
 40
0.7499999999999989
 40
0.7499999999999989
 40
0.8124999999999996
 40
0.8124999999999996
 40
0.8749999999999997
 40
0.8749999999999997
 40
0.9062499999999998
 40
0.9062499999999998
 40
0.9374999999999998
 40
0.9374999999999998
 40
0.9687499999999999
 40
0.9687499999999999
 40
1.0
 40
1.0
 40
1.0
 40
1.0
 10
163.1485903333974
 20
120.3651899378136
 30
0.0
 10
163.1998198198757
 20
120.3780025064479
 30
0.0
 10
163.231801497526
 20
120.4030014724409
 30
0.0
 10
163.2517285597476
 20
120.4681660902777
 30
0.0
 10
163.2414801915012
 20
120.5073780080129
 30
0.0
 10
163.1844090092396
 20
120.6298431706677
 30
0.0
 10
163.1147401799151
 20
120.7196762209685
 30
0.0
 10
162.9657398960431
 20
120.9121947638915
 30
0.0
 10
162.8847337868545
 20
121.0141377795242
 30
0.0
 10
162.7202821885475
 20
121.231712055269
 30
0.0
 10
162.6364805176987
 20
121.3472940161285
 30
0.0
 10
162.4694134701973
 20
121.5958018522431
 30
0.0
 10
162.3860561215947
 20
121.7285943717116
 30
0.0
 10
162.2222198112507
 20
122.0189507494451
 30
0.0
 10
162.1421788358518
 20
122.1758167387987
 30
0.0
 10
162.0325067328788
 20
122.4288240378472
 30
0.0
 10
161.9975197805743
 20
122.5164536258226
 30
0.0
 10
161.9319714057312
 20
122.7007417586251
 30
0.0
 10
161.9011959698947
 20
122.7983169464417
 30
0.0
 10
161.8225367519154
 20
123.0975066717183
 30
0.0
 10
161.7876126274109
 20
123.3123589469708
 30
0.0
 10
161.7844122649092
 20
123.711587697767
 30
0.0
 10
161.8163610325759
 20
123.8830573608009
 30
0.0
 10
161.8923616218021
 20
124.0809047800709
 30
0.0
 10
161.9223488712731
 20
124.1381332628909
 30
0.0
 10
161.9868566173788
 20
124.2361201195151
 30
0.0
 10
162.0216941769406
 20
124.2776129162437
 30
0.0
 10
162.1319191718493
 20
124.3850563256514
 30
0.0
 10
162.2116935652717
 20
124.4329821959895
 30
0.0
 10
162.3747435350018
 20
124.4978856177672
 30
0.0
 10
162.4587742015503
 20
124.5149947155432
 30
0.0
 10
162.6288527914997
 20
124.5262700403637
 30
0.0
 10
162.7141318506688
 20
124.5202822742662
 30
0.0
 10
162.8808659151275
 20
124.489222477145
 30
0.0
 10
162.9627790636978
 20
124.4642061262785
 30
0.0
 10
163.0755425176088
 20
124.4121599842165
 30
0.0
 10
163.1112329707962
 20
124.392438027665
 30
0.0
 10
163.1748617602084
 20
124.3474216018121
 30
0.0
 10
163.2030739147491
 20
124.3220273301218
 30
0.0
 10
163.2412839973077
 20
124.2642965886676
 30
0.0
 10
163.2517532857418
 20
124.2321481947726
 30
0.0
 10
163.2323366190552
 20
124.1540914146833
 30
0.0
 10
163.2002421312223
 20
124.1099278155869
 30
0.0
 10
163.1485903334016
 20
124.0606068669307
 30
0.0
  0
SPLINE
  5
14C
330
1F
100
AcDbEntity
  8
0
  6
HIDDEN
 62
     7
370
     0
100
AcDbSpline
210
0.0
220
0.0
230
1.0
 70
     8
 71
     3
 72
     8
 73
     4
 74
     0
 42
0.000000001
 43
0.00000001
 40
0.0
 40
0.0
 40
0.0
 40
0.0
 40
1.0
 40
1.0
 40
1.0
 40
1.0
 10
163.1485903334016
 20
124.0606068669307
 30
0.0
 10
163.1156380744367
 20
124.0344718937868
 30
0.0
 10
163.0829545819114
 20
124.0061006837042
 30
0.0
 10
163.0506652661449
 20
123.9756021002786
 30
0.0
  0
SPLINE
  5
14D
330
1F
100
AcDbEntity
  8
0
  6
HIDDEN
 62
     7
370
     0
100
AcDbSpline
210
0.0
220
0.0
230
1.0
 70
     8
 71
     3
 72
     8
 73
     4
 74
     0
 42
0.000000001
 43
0.00000001
 40
0.0
 40
0.0
 40
0.0
 40
0.0
 40
1.0
 40
1.0
 40
1.0
 40
1.0
 10
163.0506652661449
 20
123.9756021002786
 30
0.0
 10
162.9443929738278
 20
123.888660791296
 30
0.0
 10
162.8229648253483
 20
123.7950716502608
 30
0.0
 10
162.704023657968
 20
123.6883695575334
 30
0.0
  0
SPLINE
  5
14E
330
1F
100
AcDbEntity
  8
0
  6
HIDDEN
 62
     7
370
     0
100
AcDbSpline
210
0.0
220
0.0
230
1.0
 70
     8
 71
     3
 72
    14
 73
    10
 74
     0
 42
0.000000001
 43
0.00000001
 40
0.0
 40
0.0
 40
0.0
 40
0.0
 40
0.25
 40
0.25
 40
0.5
 40
0.5
 40
0.75
 40
0.75
 40
1.0
 40
1.0
 40
1.0
 40
1.0
 10
165.2195986373511
 20
122.8866991723295
 30
0.0
 10
165.0318125643072
 20
122.7377229135327
 30
0.0
 10
164.8228011718807
 20
122.6228038581866
 30
0.0
 10
164.3653198767088
 20
122.463778354761
 30
0.0
 10
164.1278567556869
 20
122.4237102058005
 30
0.0
 10
163.6422394522866
 20
122.4239135184185
 30
0.0
 10
163.4041641067746
 20
122.4644033647744
 30
0.0
 10
162.9480737711488
 20
122.6233797236749
 30
0.0
 10
162.7400904241054
 20
122.7377240552654
 30
0.0
 10
162.5523057902273
 20
122.8866991723294
 30
0.0
  0
SPLINE
  5
14F
330
1F
100
AcDbEntity
  8
0
  6
HIDDEN
 62
     7
370
     0
100
AcDbSpline
210
0.0
220
0.0
230
1.0
 70
     8
 71
     3
 72
    12
 73
     8
 74
     0
 42
0.000000001
 43
0.00000001
 40
0.0
 40
0.0
 40
0.0
 40
0.0
 40
0.2500000000000011
 40
0.2500000000000011
 40
0.5000000000000021
 40
0.5000000000000021
 40
1.0
 40
1.0
 40
1.0
 40
1.0
 10
165.7959522137891
 20
123.7536219945804
 30
0.0
 10
165.7742220006084
 20
123.6826044227729
 30
0.0
 10
165.7436826998113
 20
123.6043689484435
 30
0.0
 10
165.6701341374133
 20
123.4469349016964
 30
0.0
 10
165.6273624952831
 20
123.3685764711364
 30
0.0
 10
165.4828174537736
 20
123.1425707501371
 30
0.0
 10
165.3619762038512
 20
122.9996515167177
 30
0.0
 10
165.219598637351
 20
122.8866991723294
 30
0.0
  0
SPLINE
  5
150
330
1F
100
AcDbEntity
  8
0
  6
HIDDEN
 62
     7
370
     0
100
AcDbSpline
210
0.0
220
0.0
230
1.0
 70
     8
 71
     3
 72
    12
 73
     8
 74
     0
 42
0.000000001
 43
0.00000001
 40
0.0
 40
0.0
 40
0.0
 40
0.0
 40
0.5
 40
0.5
 40
0.75
 40
0.75
 40
1.0
 40
1.0
 40
1.0
 40
1.0
 10
162.5523057902273
 20
122.8866991723294
 30
0.0
 10
162.4099725862108
 20
122.9996163226443
 30
0.0
 10
162.2890710317801
 20
123.1425796961618
 30
0.0
 10
162.1444742780538
 20
123.368690249478
 30
0.0
 10
162.1014855337528
 20
123.4475107335267
 30
0.0
 10
162.0282232951372
 20
123.6043994261498
 30
0.0
 10
161.9977186852811
 20
123.6824859252134
 30
0.0
 10
161.9759522137889
 20
123.7536219945812
 30
0.0
  0
SPLINE
  5
151
330
1F
100
AcDbEntity
  8
0
  6
HIDDEN
 62
     7
370
     0
100
AcDbSpline
210
0.0
220
0.0
230
1.0
 70
     8
 71
     3
 72
    16
 73
    12
 74
     0
 42
0.000000001
 43
0.00000001
 40
0.0
 40
0.0
 40
0.0
 40
0.0
 40
0.2500000000000042
 40
0.2500000000000042
 40
0.3750000000000034
 40
0.3750000000000034
 40
0.5000000000000028
 40
0.5000000000000028
 40
0.7500000000000013
 40
0.7500000000000013
 40
1.0
 40
1.0
 40
1.0
 40
1.0
 10
165.7959522137893
 20
125.3940787975551
 30
0.0
 10
165.8503485599873
 20
125.3160598046881
 30
0.0
 10
165.8979432921801
 20
125.2201182354284
 30
0.0
 10
165.9489207779722
 20
125.0448063166957
 30
0.0
 10
165.9623995908813
 20
124.9816518371262
 30
0.0
 10
165.9809906772444
 20
124.8440893130821
 30
0.0
 10
165.9859187083059
 20
124.7693171385574
 30
0.0
 10
165.9860186942931
 20
124.5404230899012
 30
0.0
 10
165.9661962698985
 20
124.3745382788734
 30
0.0
 10
165.8979219768337
 20
124.0542726971791
 30
0.0
 10
165.8504026904061
 20
123.8994500007655
 30
0.0
 10
165.7959522137893
 20
123.7536219945802
 30
0.0
  0
SPLINE
  5
152
330
1F
100
AcDbEntity
  8
0
  6
HIDDEN
 62
     7
370
     0
100
AcDbSpline
210
0.0
220
0.0
230
1.0
 70
     8
 71
     3
 72
    16
 73
    12
 74
     0
 42
0.000000001
 43
0.00000001
 40
0.0
 40
0.0
 40
0.0
 40
0.0
 40
0.2499999999999993
 40
0.2499999999999993
 40
0.374999999999999
 40
0.374999999999999
 40
0.4999999999999987
 40
0.4999999999999987
 40
0.7499999999999993
 40
0.7499999999999993
 40
1.0
 40
1.0
 40
1.0
 40
1.0
 10
161.9759522137887
 20
123.7536219945811
 30
0.0
 10
161.9215558675907
 20
123.8993050299315
 30
0.0
 10
161.8739611353981
 20
124.0545472118984
 30
0.0
 10
161.822983649606
 20
124.2934144953125
 30
0.0
 10
161.8095048366969
 20
124.3733820618396
 30
0.0
 10
161.7909137503339
 20
124.5341377679403
 30
0.0
 10
161.7859857192724
 20
124.6150599197717
 30
0.0
 10
161.7858857332852
 20
124.8440787340753
 30
0.0
 10
161.8057081576798
 20
124.985220567744
 30
0.0
 10
161.8739824507444
 20
125.2203660844405
 30
0.0
 10
161.9215017371719
 20
125.3159821671062
 30
0.0
 10
161.9759522137886
 20
125.3940787975547
 30
0.0
  0
SPLINE
  5
153
330
1F
100
AcDbEntity
  8
0
  6
HIDDEN
 62
     7
370
     0
100
AcDbSpline
210
0.0
220
0.0
230
1.0
 70
     8
 71
     3
 72
    12
 73
     8
 74
     0
 42
0.000000001
 43
0.00000001
 40
0.0
 40
0.0
 40
0.0
 40
0.0
 40
0.4999999999999969
 40
0.4999999999999969
 40
0.7499999999999984
 40
0.7499999999999984
 40
1.0
 40
1.0
 40
1.0
 40
1.0
 10
165.219598637351
 20
125.9353535548848
 30
0.0
 10
165.3619318413674
 20
125.8283478515224
 30
0.0
 10
165.4828333957979
 20
125.7239360573399
 30
0.0
 10
165.6274301495243
 20
125.5795815980355
 30
0.0
 10
165.6704188938253
 20
125.5327728786239
 30
0.0
 10
165.7436811324408
 20
125.4498890230478
 30
0.0
 10
165.7741857422969
 20
125.4124561635607
 30
0.0
 10
165.7959522137891
 20
125.3940787975547
 30
0.0
  0
SPLINE
  5
154
330
1F
100
AcDbEntity
  8
0
  6
HIDDEN
 62
     7
370
     0
100
AcDbSpline
210
0.0
220
0.0
230
1.0
 70
     8
 71
     3
 72
    12
 73
     8
 74
     0
 42
0.000000001
 43
0.00000001
 40
0.0
 40
0.0
 40
0.0
 40
0.0
 40
0.2500000000000013
 40
0.2500000000000013
 40
0.5000000000000026
 40
0.5000000000000026
 40
1.0
 40
1.0
 40
1.0
 40
1.0
 10
161.9759522137889
 20
125.3940787975545
 30
0.0
 10
161.9976824269695
 20
125.4124255507776
 30
0.0
 10
162.0282217277667
 20
125.449891065658
 30
0.0
 10
162.1017702901646
 20
125.533091201894
 30
0.0
 10
162.1445419322948
 20
125.57965165348
 30
0.0
 10
162.2890869738044
 20
125.7239469395666
 30
0.0
 10
162.409928223727
 20
125.8283144999315
 30
0.0
 10
162.5523057902273
 20
125.9353535548848
 30
0.0
  0
SPLINE
  5
155
330
1F
100
AcDbEntity
  8
0
  6
HIDDEN
 62
     7
370
     0
100
AcDbSpline
210
0.0
220
0.0
230
1.0
 70
     8
 71
     3
 72
    14
 73
    10
 74
     0
 42
0.000000001
 43
0.00000001
 40
0.0
 40
0.0
 40
0.0
 40
0.0
 40
0.25
 40
0.25
 40
0.5
 40
0.5
 40
0.75
 40
0.75
 40
1.0
 40
1.0
 40
1.0
 40
1.0
 10
162.5523057902273
 20
125.9353535548848
 30
0.0
 10
162.7400918632711
 20
126.0765305976317
 30
0.0
 10
162.9491032556976
 20
126.1843993257569
 30
0.0
 10
163.4065845508695
 20
126.3333231052566
 30
0.0
 10
163.6440476718914
 20
126.3706153108379
 30
0.0
 10
164.1296649752917
 20
126.3704256964414
 30
0.0
 10
164.3677403208036
 20
126.3327393340843
 30
0.0
 10
164.8238306564295
 20
126.1838584925902
 30
0.0
 10
165.031814003473
 20
126.0765295156708
 30
0.0
 10
165.2195986373511
 20
125.9353535548847
 30
0.0
  0
LINE
  5
156
330
1F
100
AcDbEntity
  8
0
  6
HIDDEN
 62
     7
370
     0
100
AcDbLine
 10
191.8859522138
 20
140.3984915316
 30
0.0
 11
191.3359522138
 21
139.2190127253
 31
0.0
  0
LINE
  5
157
330
1F
100
AcDbEntity
  8
0
  6
HIDDEN
 62
     7
370
     0
100
AcDbLine
 10
191.3359522138
 20
94.5779703379
 30
0.0
 11
191.8859522138
 21
93.3984915316
 31
0.0
  0
LINE
  5
158
330
1F
100
AcDbEntity
  8
0
  6
HIDDEN
 62
     7
370
     0
100
AcDbLine
 10
155.9859522138
 20
107.6595149924
 30
0.0
 11
162.8486252062
 21
109.3030228007
 31
0.0
  0
LINE
  5
159
330
1F
100
AcDbEntity
  8
0
  6
HIDDEN
 62
     7
370
     0
100
AcDbLine
 10
162.8476993638
 20
113.415908134
 30
0.0
 11
155.9859522138
 21
111.7726220511
 31
0.0
  0
LINE
  5
15A
330
1F
100
AcDbEntity
  8
0
  6
HIDDEN
 62
     7
370
     0
100
AcDbLine
 10
165.9859522138
 20
110.7335784482
 30
0.0
 11
165.9859522138
 21
111.7695274875
 31
0.0
  0
LINE
  5
15B
330
1F
100
AcDbEntity
  8
0
  6
HIDDEN
 62
     7
370
     0
100
AcDbLine
 10
191.3359522138
 20
136.0984915316
 30
0.0
 11
187.3359522138
 21
136.0984915316
 31
0.0
  0
LINE
  5
15C
330
1F
100
AcDbEntity
  8
0
  6
HIDDEN
 62
     7
370
     0
100
AcDbLine
 10
187.3359522138
 20
97.6984915316
 30
0.0
 11
191.3359522138
 21
97.6984915316
 31
0.0
  0
LINE
  5
15D
330
1F
100
AcDbEntity
  8
0
  6
HIDDEN
 62
     7
370
     0
100
AcDbLine
 10
187.3359522138
 20
132.5913118547
 30
0.0
 11
186.1359522138
 21
131.8984915316
 31
0.0
  0
LINE
  5
15E
330
1F
100
AcDbEntity
  8
0
  6
HIDDEN
 62
     7
370
     0
100
AcDbLine
 10
186.1359522138
 20
101.8984915316
 30
0.0
 11
187.3359522138
 21
101.2056712086
 31
0.0
  0
LINE
  5
15F
330
1F
100
AcDbEntity
  8
0
  6
HIDDEN
 62
     7
370
     0
100
AcDbLine
 10
162.187345473
 20
132.1984915316
 30
0.0
 11
161.4859522138
 21
132.1984915316
 31
0.0
  0
ARC
  5
160
330
1F
100
AcDbEntity
  8
0
  6
HIDDEN
 62
     7
370
     0
100
AcDbCircle
 10
161.4859522138
 20
102.1984915316
 30
0.0
 40
0.6000000000000085
100
AcDbArc
 50
180.0
 51
270.0
  0
ARC
  5
161
330
1F
100
AcDbEntity
  8
0
  6
HIDDEN
 62
     7
370
     0
100
AcDbCircle
 10
161.4859522138
 20
131.5984915316
 30
0.0
 40
0.5999999999999943
100
AcDbArc
 50
90.0
 51
180.0
  0
ARC
  5
162
330
1F
100
AcDbEntity
  8
0
  6
HIDDEN
 62
     7
370
     0
100
AcDbCircle
 10
162.187345473
 20
131.5984915316
 30
0.0
 40
0.6000000000000008
100
AcDbArc
 50
75.0
 51
90.0
  0
LINE
  5
163
330
1F
100
AcDbEntity
  8
0
  6
HIDDEN
 62
     7
370
     0
100
AcDbLine
 10
163.3859522138
 20
131.8984915316
 30
0.0
 11
162.3426369
 21
132.1780470274
 31
0.0
  0
LINE
  5
164
330
1F
100
AcDbEntity
  8
0
  6
HIDDEN
 62
     7
370
     0
100
AcDbLine
 10
163.3859522138
 20
101.8984915316
 30
0.0
 11
186.1359522138
 21
101.8984915316
 31
0.0
  0
LINE
  5
165
330
1F
100
AcDbEntity
  8
0
  6
HIDDEN
 62
     7
370
     0
100
AcDbLine
 10
186.1359522138
 20
131.8984915316
 30
0.0
 11
163.3859522138
 21
131.8984915316
 31
0.0
  0
LINE
  5
166
330
1F
100
AcDbEntity
  8
0
  6
HIDDEN
 62
     7
370
     0
100
AcDbLine
 10
161.4859522138
 20
101.5984915316
 30
0.0
 11
162.187345473
 21
101.5984915316
 31
0.0
  0
ARC
  5
167
330
1F
100
AcDbEntity
  8
0
  6
HIDDEN
 62
     7
370
     0
100
AcDbCircle
 10
162.187345473
 20
102.1984915316
 30
0.0
 40
0.6000000000000085
100
AcDbArc
 50
270.0
 51
285.0
  0
LINE
  5
168
330
1F
100
AcDbEntity
  8
0
  6
HIDDEN
 62
     7
370
     0
100
AcDbLine
 10
162.3426369
 20
101.6189360359
 30
0.0
 11
163.3859522138
 21
101.8984915316
 31
0.0
  0
LINE
  5
169
330
1F
100
AcDbEntity
  8
0
  6
HIDDEN
 62
     7
370
     0
100
AcDbLine
 10
191.3359522138
 20
138.1734915316
 30
0.0
 11
187.3359522138
 21
138.1734915316
 31
0.0
  0
LINE
  5
16A
330
1F
100
AcDbEntity
  8
0
  6
HIDDEN
 62
     7
370
     0
100
AcDbLine
 10
187.3359522138
 20
95.6234915316
 30
0.0
 11
191.3359522138
 21
95.6234915316
 31
0.0
  0
LINE
  5
16B
330
1F
100
AcDbEntity
  8
0
  6
HIDDEN
 62
     7
370
     0
100
AcDbLine
 10
180.6334942761
 20
89.3984899491
 30
0.0
 11
179.8859587207
 21
89.8846475391
 31
0.0
  0
LINE
  5
16C
330
1F
100
AcDbEntity
  8
0
  6
HIDDEN
 62
     7
370
     0
100
AcDbLine
 10
179.8859572222
 20
143.6118635111
 30
0.0
 11
180.3455594685
 21
144.3984927279
 31
0.0
  0
LINE
  5
16D
330
1F
100
AcDbEntity
  8
0
  6
HIDDEN
 62
     7
370
     0
100
AcDbLine
 10
179.8859522138
 20
89.8848772086
 30
0.0
 11
179.8859522138
 21
99.0984915316
 31
0.0
  0
LINE
  5
16E
330
1F
100
AcDbEntity
  8
0
  6
HIDDEN
 62
     7
370
     0
100
AcDbLine
 10
179.8859522138
 20
137.2984915316
 30
0.0
 11
179.8859522138
 21
143.6116777031
 31
0.0
  0
ARC
  5
16F
330
1F
100
AcDbEntity
  8
0
  6
HIDDEN
 62
     7
370
     0
100
AcDbCircle
 10
178.2859522138
 20
99.0984915316
 30
0.0
 40
1.600000000000009
100
AcDbArc
 50
0.0
 51
90.0
  0
ARC
  5
170
330
1F
100
AcDbEntity
  8
0
  6
HIDDEN
 62
     7
370
     0
100
AcDbCircle
 10
178.2859522138
 20
137.2984915316
 30
0.0
 40
1.599999999999994
100
AcDbArc
 50
270.0
 51
0.0
  0
ARC
  5
171
330
1F
100
AcDbEntity
  8
0
  6
HIDDEN
 62
     7
370
     0
100
AcDbCircle
 10
105.9359522138
 20
109.5984915316
 30
0.0
 40
0.7999999999999972
100
AcDbArc
 50
90.0
 51
180.0
  0
ARC
  5
172
330
1F
100
AcDbEntity
  8
0
  6
HIDDEN
 62
     7
370
     0
100
AcDbCircle
 10
105.9359522138
 20
124.1984915316
 30
0.0
 40
0.7999999999999972
100
AcDbArc
 50
180.0
 51
270.0
  0
LINE
  5
173
330
1F
100
AcDbEntity
  8
0
  6
HIDDEN
 62
     7
370
     0
100
AcDbLine
 10
110.0283246445
 20
110.1734915316
 30
0.0
 11
110.9050121061
 21
110.1734915316
 31
0.0
  0
LINE
  5
174
330
1F
100
AcDbEntity
  8
0
  6
HIDDEN
 62
     7
370
     0
100
AcDbLine
 10
110.9050121061
 20
123.6234915316
 30
0.0
 11
110.0283246445
 21
123.6234915316
 31
0.0
  0
ARC
  5
175
330
1F
100
AcDbEntity
  8
0
  6
HIDDEN
 62
     7
370
     0
100
AcDbCircle
 10
110.0283246445
 20
110.5734915316
 30
0.0
 40
0.3999999999999923
100
AcDbArc
 50
255.0
 51
270.0
  0
ARC
  5
176
330
1F
100
AcDbEntity
  8
0
  6
HIDDEN
 62
     7
370
     0
100
AcDbCircle
 10
110.0283246445
 20
123.2234915316
 30
0.0
 40
0.3999999999999923
100
AcDbArc
 50
90.0
 51
105.0
  0
ARC
  5
177
330
1F
100
AcDbEntity
  8
0
  6
HIDDEN
 62
     7
370
     0
100
AcDbCircle
 10
110.9050121061
 20
110.5734915316
 30
0.0
 40
0.4000000000000244
100
AcDbArc
 50
270.0
 51
330.0
  0
ARC
  5
178
330
1F
100
AcDbEntity
  8
0
  6
HIDDEN
 62
     7
370
     0
100
AcDbCircle
 10
110.9050121061
 20
123.2234915316
 30
0.0
 40
0.4000000000000244
100
AcDbArc
 50
30.0
 51
90.0
  0
LINE
  5
179
330
1F
100
AcDbEntity
  8
0
  6
HIDDEN
 62
     7
370
     0
100
AcDbLine
 10
109.9247970265
 20
123.6098618621
 30
0.0
 11
109.1359522138
 21
123.3984915316
 31
0.0
  0
LINE
  5
17A
330
1F
100
AcDbEntity
  8
0
  6
HIDDEN
 62
     7
370
     0
100
AcDbLine
 10
109.1359522138
 20
110.3984915316
 30
0.0
 11
109.9247970265
 21
110.1871212011
 31
0.0
  0
LINE
  5
17B
330
1F
100
AcDbEntity
  8
0
  6
HIDDEN
 62
     7
370
     0
100
AcDbLine
 10
111.2514222676
 20
110.3734915316
 30
0.0
 11
112.0741464012
 21
111.7984915316
 31
0.0
  0
LINE
  5
17C
330
1F
100
AcDbEntity
  8
0
  6
HIDDEN
 62
     7
370
     0
100
AcDbLine
 10
112.0741464012
 20
121.9984915316
 30
0.0
 11
111.2514222676
 21
123.4234915316
 31
0.0
  0
LINE
  5
17D
330
1F
100
AcDbEntity
  8
0
  6
HIDDEN
 62
     7
370
     0
100
AcDbLine
 10
105.9359522138
 20
110.3984915316
 30
0.0
 11
109.1359522138
 21
110.3984915316
 31
0.0
  0
LINE
  5
17E
330
1F
100
AcDbEntity
  8
0
  6
HIDDEN
 62
     7
370
     0
100
AcDbLine
 10
109.1359522138
 20
123.3984915316
 30
0.0
 11
105.9359522138
 21
123.3984915316
 31
0.0
  0
LINE
  5
17F
330
1F
100
AcDbEntity
  8
0
  6
HIDDEN
 62
     7
370
     0
100
AcDbLine
 10
139.1359522138
 20
111.7984915316
 30
0.0
 11
139.64668374
 21
112.6484915316
 31
0.0
  0
LINE
  5
180
330
1F
100
AcDbEntity
  8
0
  6
HIDDEN
 62
     7
370
     0
100
AcDbLine
 10
139.64668374
 20
121.1484915316
 30
0.0
 11
139.1359522138
 21
121.9984915316
 31
0.0
  0
LINE
  5
181
330
1F
100
AcDbEntity
  8
0
  6
HIDDEN
 62
     7
370
     0
100
AcDbLine
 10
112.0741464012
 20
111.7984915316
 30
0.0
 11
139.1359522138
 21
111.7984915316
 31
0.0
  0
LINE
  5
182
330
1F
100
AcDbEntity
  8
0
  6
HIDDEN
 62
     7
370
     0
100
AcDbLine
 10
139.1359522138
 20
121.9984915316
 30
0.0
 11
112.0741464012
 21
121.9984915316
 31
0.0
  0
LINE
  5
183
330
1F
100
AcDbEntity
  8
0
  6
HIDDEN
 62
     7
370
     0
100
AcDbLine
 10
139.64668374
 20
112.6484915316
 30
0.0
 11
160.8859522138
 21
112.6484915316
 31
0.0
  0
LINE
  5
184
330
1F
100
AcDbEntity
  8
0
  6
HIDDEN
 62
     7
370
     0
100
AcDbLine
 10
160.8859522138
 20
121.1484915316
 30
0.0
 11
139.64668374
 21
121.1484915316
 31
0.0
  0
LINE
  5
185
330
1F
100
AcDbEntity
  8
0
  6
HIDDEN
 62
     7
370
     0
100
AcDbLine
 10
165.9859522138
 20
122.0274555757
 30
0.0
 11
165.9859522138
 21
124.6865299046
 31
0.0
  0
LINE
  5
186
330
1F
100
AcDbEntity
  8
0
  6
HIDDEN
 62
     7
370
     0
100
AcDbLine
 10
161.7859522138
 20
124.6865299046
 30
0.0
 11
161.7859522138
 21
123.5247125422
 31
0.0
  0
LINE
  5
187
330
1F
100
AcDbEntity
  8
0
  6
HIDDEN
 62
     7
370
     0
100
AcDbLine
 10
155.9859522138
 20
122.0243610121
 30
0.0
 11
162.8476993638
 21
120.3810749293
 31
0.0
  0
LINE
  5
188
330
1F
100
AcDbEntity
  8
0
  6
HIDDEN
 62
     7
370
     0
100
AcDbLine
 10
162.8519890242
 20
124.4931546783
 30
0.0
 11
155.9859522138
 21
126.1374680708
 31
0.0
  0
DIMENSION
  5
189
330
1F
100
AcDbEntity
  8
VERMASSUNG
100
AcDbDimension
  2
_D
 10
98.3726324592
 20
141.8734915316
 30
0.0
 11
98.3726324592
 21
116.8984915316
 31
0.0
 70
   160
  1
ISO 30 %%c<>
 71
     2
 42
-1.0
  3
SLDDIMSTYLE0
100
AcDbAlignedDimension
 13
156.5859522138
 23
91.9234915316
 33
0.0
 14
156.5859522138
 24
141.8734915316
 34
0.0
 50
90.0
100
AcDbRotatedDimension
  0
DIMENSION
  5
196
330
1F
100
AcDbEntity
  8
VERMASSUNG
100
AcDbDimension
  2
_D_1
 10
191.8859522138
 20
155.7208149876
 30
0.0
 11
148.5109522138
 21
155.7208149876
 31
0.0
 70
   160
  1
(<>)
 71
     2
 42
-1.0
  3
SLDDIMSTYLE0
100
AcDbAlignedDimension
 13
105.1359522138
 23
124.9597887953
 33
0.0
 14
191.8859522138
 24
143.8984915316
 34
0.0
100
AcDbRotatedDimension
  0
DIMENSION
  5
1A2
330
1F
100
AcDbEntity
  8
VERMASSUNG
100
AcDbDimension
  2
_D_2
 10
191.8859522138
 20
149.7208149876
 30
0.0
 11
172.3359522138
 21
149.7208149876
 31
0.0
 70
   160
  1
<>
 71
     2
 42
-1.0
  3
SLDDIMSTYLE0
100
AcDbAlignedDimension
 13
152.7859522138
 23
132.7734915316
 33
0.0
 14
191.8859522138
 24
143.8984915316
 34
0.0
100
AcDbRotatedDimension
  0
DIMENSION
  5
1AC
330
1F
100
AcDbEntity
  8
VERMASSUNG
100
AcDbDimension
  2
_D_3
 10
200.091637087
 20
89.3984915316
 30
0.0
 11
200.091637087
 21
116.8984915316
 31
0.0
 70
   160
  1
MBM %%c<>
 71
     2
 42
-1.0
  3
SLDDIMSTYLE0
100
AcDbAlignedDimension
 13
191.3859522138
 23
144.3984915316
 33
0.0
 14
191.3859522138
 24
89.3984915316
 34
0.0
 50
90.0
100
AcDbRotatedDimension
  0
LINE
  5
1B8
330
1F
100
AcDbEntity
  8
VERMASSUNG
  6
CENTERX2
 62
     7
370
     0
100
AcDbLine
 10
103.1359522138
 20
116.8984915316
 30
0.0
 11
193.8859522138
 21
116.8984915316
 31
0.0
  0
LINE
  5
1B9
330
1F
100
AcDbEntity
  8
VERMASSUNG
  6
CENTERX2
370
     0
100
AcDbLine
 10
154.0409505676
 20
124.5467134213
 30
0.0
 11
164.796787913
 21
121.9708508265
 31
0.0
  0
LINE
  5
1BA
330
1F
100
AcDbEntity
  8
VERMASSUNG
  6
CENTERX2
370
     0
100
AcDbLine
 10
154.0409505676
 20
109.2502696419
 30
0.0
 11
164.796787913
 21
111.8261322368
 31
0.0
  0
LINE
  5
1BB
330
1F
100
AcDbEntity
  8
0
  6
Continuous
 62
     7
370
    15
100
AcDbLine
 10
260.2978137611
 20
46.6938205049
 30
0.0
 11
260.1254284771
 21
46.7933687594
 31
0.0
  0
LINE
  5
1BC
330
1F
100
AcDbEntity
  8
0
  6
Continuous
 62
     7
370
    15
100
AcDbLine
 10
256.2357092486
 20
46.7933687594
 30
0.0
 11
256.0633239646
 21
46.6938205049
 31
0.0
  0
LINE
  5
1BD
330
1F
100
AcDbEntity
  8
0
  6
Continuous
 62
     7
370
    15
100
AcDbLine
 10
263.1495742158
 20
21.380279381
 30
0.0
 11
263.3263221799
 21
21.4823469811
 31
0.0
  0
LINE
  5
1BE
330
1F
100
AcDbEntity
  8
0
  6
Continuous
 62
     7
370
    15
100
AcDbLine
 10
272.870712242
 20
38.0155068982
 30
0.0
 11
272.870712242
 21
38.2196089261
 31
0.0
  0
LINE
  5
1BF
330
1F
100
AcDbEntity
  8
0
  6
Continuous
 62
     7
370
    15
100
AcDbLine
 10
250.4007528484
 20
24.0889264975
 30
0.0
 11
256.2735527138
 21
20.6986312996
 31
0.0
  0
LINE
  5
1C0
330
1F
100
AcDbEntity
  8
0
  6
Continuous
 62
     7
370
    15
100
AcDbLine
 10
270.0224352876
 20
44.5149750151
 30
0.0
 11
265.6684324331
 21
47.0284873613
 31
0.0
  0
LINE
  5
1C1
330
1F
100
AcDbEntity
  8
0
  6
Continuous
 62
     7
370
    15
100
AcDbLine
 10
247.921036673
 20
34.2237613259
 30
0.0
 11
248.0687721329
 21
33.9412669028
 31
0.0
  0
SPLINE
  5
1C2
330
1F
100
AcDbEntity
  8
0
  6
Continuous
 62
     7
370
    15
100
AcDbSpline
210
0.0
220
0.0
230
1.0
 70
     8
 71
     3
 72
    31
 73
    27
 74
     0
 42
0.000000001
 43
0.00000001
 40
0.0
 40
0.0
 40
0.0
 40
0.0
 40
0.0078382060639931
 40
0.0515496286601281
 40
0.0953944431785326
 40
0.1394579972525702
 40
0.1837334415129902
 40
0.2281819298469918
 40
0.2727522331077428
 40
0.3173958726802641
 40
0.3620746870701149
 40
0.4067599213575339
 40
0.4514343792663336
 40
0.4960914925476944
 40
0.5407291218008896
 40
0.5853478911069099
 40
0.6299500667757111
 40
0.6745388474434912
 40
0.7191179379624674
 40
0.7636913079175499
 40
0.8082630642721721
 40
0.8528370207874275
 40
0.897416375863293
 40
0.9420053808399724
 40
0.9866082667394434
 40
1.0
 40
1.0
 40
1.0
 40
1.0
 10
256.0511049988252
 20
50.95464783810053
 30
0.0
 10
256.0160659685321
 20
50.96508056772983
 30
0.0
 10
255.7856243361644
 20
51.03369363223857
 30
0.0
 10
255.3368152396979
 20
51.10877742512969
 30
0.0
 10
254.6959151258108
 20
51.14861511443925
 30
0.0
 10
254.0280675158209
 20
51.10918601098968
 30
0.0
 10
253.3390725539011
 20
50.99461205453239
 30
0.0
 10
252.6330365762168
 20
50.80427559396651
 30
0.0
 10
251.9150129940558
 20
50.53966847730444
 30
0.0
 10
251.1900063663239
 20
50.20256347525432
 30
0.0
 10
250.4630638814526
 20
49.79543319542194
 30
0.0
 10
249.7391332706275
 20
49.32123022156917
 30
0.0
 10
249.0230331367595
 20
48.78334018361135
 30
0.0
 10
248.3194341661141
 20
48.18550783934261
 30
0.0
 10
247.6328708761062
 20
47.53180863374097
 30
0.0
 10
246.9677543870577
 20
46.8266405518626
 30
0.0
 10
246.3283573970147
 20
46.07470326361587
 30
0.0
 10
245.7187956853516
 20
45.28097495319004
 30
0.0
 10
245.1430010696935
 20
44.45068512386052
 30
0.0
 10
244.6047144854711
 20
43.58928688507462
 30
0.0
 10
244.1074013424714
 20
42.70241778958228
 30
0.0
 10
243.6544643273177
 20
41.79590097134355
 30
0.0
 10
243.2483465280237
 20
40.87558184169598
 30
0.0
 10
242.8937653304709
 20
39.94773072055526
 30
0.0
 10
242.6574837069803
 20
39.23447274307897
 30
0.0
 10
242.5455242092209
 20
38.83341088107584
 30
0.0
 10
242.5196712636943
 20
38.74080033280914
 30
0.0
  0
SPLINE
  5
1C3
330
1F
100
AcDbEntity
  8
0
  6
Continuous
 62
     7
370
    15
100
AcDbSpline
210
0.0
220
0.0
230
1.0
 70
     8
 71
     3
 72
    12
 73
     8
 74
     0
 42
0.000000001
 43
0.00000001
 40
0.0
 40
0.0
 40
0.0
 40
0.0
 40
0.109202321418912
 40
0.3538061156437883
 40
0.5995758530284143
 40
0.8469995744997801
 40
1.0
 40
1.0
 40
1.0
 40
1.0
 10
262.4246559286194
 20
48.51397614020548
 30
0.0
 10
262.3265044060677
 20
48.52927812326797
 30
0.0
 10
262.0085019269329
 20
48.57885523040859
 30
0.0
 10
261.4497713309935
 20
48.60479718954885
 30
0.0
 10
260.7432209958268
 20
48.56494663610298
 30
0.0
 10
260.1095233985215
 20
48.46590062251833
 30
0.0
 10
259.7103775238435
 20
48.36539991758468
 30
0.0
 10
259.5578655209478
 20
48.32699901011141
 30
0.0
  0
SPLINE
  5
1C4
330
1F
100
AcDbEntity
  8
0
  6
Continuous
 62
     7
370
    15
100
AcDbSpline
210
0.0
220
0.0
230
1.0
 70
     8
 71
     3
 72
    14
 73
    10
 74
     0
 42
0.000000001
 43
0.00000001
 40
0.0
 40
0.0
 40
0.0
 40
0.0
 40
0.0488577894999812
 40
0.2245382717717296
 40
0.3995874416861807
 40
0.5735294617691038
 40
0.7461954217623514
 40
0.91761871772082
 40
1.0
 40
1.0
 40
1.0
 40
1.0
 10
247.9006663251268
 20
27.32885142429176
 30
0.0
 10
247.9228586865086
 20
27.26230398927582
 30
0.0
 10
248.0248492702453
 20
26.95646849810348
 30
0.0
 10
248.2482147209579
 20
26.44797717830922
 30
0.0
 10
248.5925231812872
 20
25.83011295400634
 30
0.0
 10
248.9923459618695
 20
25.27577526179023
 30
0.0
 10
249.4447504132212
 20
24.7919260254565
 30
0.0
 10
249.8514112028406
 20
24.43693862646639
 30
0.0
 10
250.1221827050895
 20
24.2710266206338
 30
0.0
 10
250.2100712046382
 20
24.21717399165087
 30
0.0
  0
LINE
  5
1C5
330
1F
100
AcDbEntity
  8
0
  6
Continuous
 62
     7
370
    15
100
AcDbLine
 10
249.233914773
 20
48.930170383
 30
0.0
 11
234.9736396094
 21
54.0690082942
 31
0.0
  0
LINE
  5
1C6
330
1F
100
AcDbEntity
  8
0
  6
Continuous
 62
     7
370
    15
100
AcDbLine
 10
230.4727194419
 20
46.2723410983
 30
0.0
 11
244.9046390461
 21
34.0861474915
 31
0.0
  0
LINE
  5
1C7
330
1F
100
AcDbEntity
  8
0
  6
Continuous
 62
     7
370
    15
100
AcDbLine
 10
244.6010934211
 20
28.8947685612
 30
0.0
 11
245.9930100265
 21
28.0912322087
 31
0.0
  0
SPLINE
  5
1C8
330
1F
100
AcDbEntity
  8
0
  6
Continuous
 62
     7
370
    15
100
AcDbSpline
210
0.0
220
0.0
230
1.0
 70
     8
 71
     3
 72
    11
 73
     7
 74
     0
 42
0.000000001
 43
0.00000001
 40
0.0
 40
0.0
 40
0.0
 40
0.0
 40
0.139708631699336
 40
0.5586549311487107
 40
0.9762843635956987
 40
1.0
 40
1.0
 40
1.0
 40
1.0
 10
242.516497443748
 20
31.40297202959591
 30
0.0
 10
242.5455115794576
 20
31.33147889126967
 30
0.0
 10
242.6615308245824
 20
31.04559824249768
 30
0.0
 10
242.9098148116197
 20
30.59067348752991
 30
0.0
 10
243.1467501444546
 20
30.20725382397574
 30
0.0
 10
243.2939382193456
 20
30.04178004926644
 30
0.0
 10
243.3018473569197
 20
30.03288833130601
 30
0.0
  0
SPLINE
  5
1C9
330
1F
100
AcDbEntity
  8
0
  6
Continuous
 62
     7
370
    15
100
AcDbSpline
210
0.0
220
0.0
230
1.0
 70
     8
 71
     3
 72
    24
 73
    20
 74
     0
 42
0.000000001
 43
0.00000001
 40
0.0
 40
0.0
 40
0.0
 40
0.0
 40
0.0504650972312731
 40
0.1073868241076481
 40
0.1655834382497223
 40
0.225417464921065
 40
0.2866453171135701
 40
0.3486855797853479
 40
0.4109795952491031
 40
0.4731818443524357
 40
0.5352261971783028
 40
0.5971343617175483
 40
0.6589658347096031
 40
0.720794924236726
 40
0.7826870804179827
 40
0.8447138675956999
 40
0.9069584350740888
 40
0.9694937746702472
 40
1.0
 40
1.0
 40
1.0
 40
1.0
 10
234.9829867804479
 20
54.0614943159617
 30
0.0
 10
234.8719336803283
 20
54.0972813858242
 30
0.0
 10
234.635619071154
 20
54.17343421198522
 30
0.0
 10
234.2427088205536
 20
54.19691283735037
 30
0.0
 10
233.8189423475201
 20
54.1533391455412
 30
0.0
 10
233.3789073792132
 20
54.03243290544195
 30
0.0
 10
232.9299638076874
 20
53.8369863926134
 30
0.0
 10
232.4806503760013
 20
53.56917186112121
 30
0.0
 10
232.0407257666614
 20
53.2349834303869
 30
0.0
 10
231.6190092809481
 20
52.8419564873462
 30
0.0
 10
231.2230673480188
 20
52.39834657171441
 30
0.0
 10
230.8594314718048
 20
51.9125430974828
 30
0.0
 10
230.5340761983093
 20
51.39325860423381
 30
0.0
 10
230.2524669021124
 20
50.84951917519977
 30
0.0
 10
230.0196389839984
 20
50.29063067349892
 30
0.0
 10
229.8396966120696
 20
49.72578083498885
 30
0.0
 10
229.7174972107195
 20
49.16465420209798
 30
0.0
 10
229.6636958981931
 20
48.70921588209995
 30
0.0
 10
229.6590061385762
 20
48.44711189267138
 30
0.0
 10
229.6574684724403
 20
48.36117392110241
 30
0.0
  0
SPLINE
  5
1CA
330
1F
100
AcDbEntity
  8
0
  6
Continuous
 62
     7
370
    15
100
AcDbSpline
210
0.0
220
0.0
230
1.0
 70
     8
 71
     3
 72
    13
 73
     9
 74
     0
 42
0.000000001
 43
0.00000001
 40
0.0
 40
0.0
 40
0.0
 40
0.0
 40
0.1109829133117411
 40
0.320063550955769
 40
0.5290056831853811
 40
0.7350596704358842
 40
0.9356481121916045
 40
1.0
 40
1.0
 40
1.0
 40
1.0
 10
229.6574684724403
 20
48.36117392110241
 30
0.0
 10
229.6593008629709
 20
48.26847604042533
 30
0.0
 10
229.6645852928212
 20
48.0011446830997
 30
0.0
 10
229.724130402901
 20
47.58342443479777
 30
0.0
 10
229.8575795762523
 20
47.12777564350589
 30
0.0
 10
230.0622691669651
 20
46.7313811602413
 30
0.0
 10
230.2588028460669
 20
46.45735998348729
 30
0.0
 10
230.4028396169202
 20
46.34312522566796
 30
0.0
 10
230.4378249969622
 20
46.31537851631985
 30
0.0
  0
LWPOLYLINE
  5
1CB
330
1F
100
AcDbEntity
  8
0
  6
Continuous
 62
     7
370
    15
100
AcDbPolyline
 90
       35
 70
   128
 43
0.0
 10
256.2360252146
 20
44.5484288848
 10
255.9118258077
 20
44.7738126924
 10
255.6648857245
 20
45.0297487984
 10
255.5036142133
 20
45.3075216059
 10
255.4335031821
 20
45.5976718948
 10
255.4569401779
 20
45.8903189452
 10
255.573127082
 20
46.1754970128
 10
255.7781072886
 20
46.4434947004
 10
256.0649004426
 20
46.6851856683
 10
256.4237401473
 20
46.8923394204
 10
256.8424065468
 20
47.0579015841
 10
257.306642459
 20
47.1762341386
 10
257.8006388867
 20
47.2433074106
 10
258.3075733741
 20
47.2568373003
 10
258.8101828752
 20
47.2163630635
 10
259.2913516262
 20
47.1232630018
 10
259.7346940025
 20
46.9807075262
 10
260.1251125111
 20
46.7935511923
 10
260.449311918
 20
46.5681673847
 10
260.6962520012
 20
46.3122312787
 10
260.8575235123
 20
46.0344584712
 10
260.9276345435
 20
45.7443081823
 10
260.9041975477
 20
45.4516611319
 10
260.7880106437
 20
45.1664830643
 10
260.5830304371
 20
44.8984853767
 10
260.296237283
 20
44.6567944088
 10
259.9373975784
 20
44.4496406567
 10
259.5187311789
 20
44.284078493
 10
259.0544952667
 20
44.1657459385
 10
258.560498839
 20
44.0986726665
 10
258.0535643516
 20
44.0851427768
 10
257.5509548505
 20
44.1256170136
 10
257.0697860994
 20
44.2187170753
 10
256.6264437232
 20
44.3612725509
 10
256.2360252146
 20
44.5484288848
  0
LWPOLYLINE
  5
1CC
330
1F
100
AcDbEntity
  8
0
  6
Continuous
 62
     7
370
    15
100
AcDbPolyline
 90
       10
 70
   128
 43
0.0
 10
255.8077677635
 20
44.4071245665
 10
255.7145626365
 20
44.4805856352
 10
255.4491362229
 20
44.7506281061
 10
255.2715003017
 20
45.0436906935
 10
255.1873642377
 20
45.3503541246
 10
255.1994322332
 20
45.6607619843
 10
255.3073164128
 20
45.9649375088
 10
255.5075492903
 20
46.2531042463
 10
255.7936952162
 20
46.5160002808
 10
256.0589038291
 20
46.6912679856
  0
ARC
  5
1CD
330
1F
100
AcDbEntity
  8
0
  6
Continuous
 62
     7
370
    15
100
AcDbCircle
 10
259.8741219683
 20
45.4939388478
 30
0.0
 40
1.271564739777615
100
AcDbArc
 50
311.2229882813
 51
70.3251973575
  0
LWPOLYLINE
  5
1CE
330
1F
100
AcDbEntity
  8
0
  6
Continuous
 62
     7
370
    15
100
AcDbPolyline
 90
       28
 70
   128
 43
0.0
 10
256.9431319958
 20
44.9566329407
 10
256.6911146861
 20
45.1406306129
 10
256.5193942366
 20
45.353220099
 10
256.4372281412
 20
45.5829406447
 10
256.4490459953
 20
45.8174079561
 10
256.5542106954
 20
46.0439818397
 10
256.7470527853
 20
46.2504476387
 10
257.017176098
 20
46.4256747285
 10
257.3500182158
 20
46.5602165713
 10
257.7276355339
 20
46.6468199816
 10
258.129670605
 20
46.680816147
 10
258.5344496144
 20
46.6603723256
 10
258.9201508209
 20
46.586590649
 10
259.2659809726
 20
46.4634487065
 10
259.5532962765
 20
46.297585112
 10
259.7666074902
 20
46.097941615
 10
259.8944149509
 20
45.875281048
 10
259.9298285255
 20
45.6416070998
 10
259.8709390588
 20
45.4095171934
 10
259.7209212974
 20
45.1915233557
 10
259.4878627375
 20
44.9993776911
 10
259.1843276265
 20
44.8434388219
 10
258.8266796206
 20
44.7321134531
 10
258.4341996166
 20
44.6714031639
 10
258.028046313
 20
44.664580862
 10
257.6301155396
 20
44.7120143392
 10
257.2618598473
 20
44.8111464446
 10
256.9431319958
 20
44.9566329407
  0
SPLINE
  5
1CF
330
1F
100
AcDbEntity
  8
0
  6
Continuous
 62
     7
370
    15
100
AcDbSpline
210
0.0
220
0.0
230
1.0
 70
     8
 71
     3
 72
     9
 73
     5
 74
     0
 42
0.000000001
 43
0.00000001
 40
0.0
 40
0.0
 40
0.0
 40
0.0
 40
0.6311775999677021
 40
1.0
 40
1.0
 40
1.0
 40
1.0
 10
257.1200772092373
 20
44.85907185843679
 30
0.0
 10
256.9851093650847
 20
44.95200678961259
 30
0.0
 10
256.7712743935023
 20
45.09924733043745
 30
0.0
 10
256.5785991873324
 20
45.31716855851697
 30
0.0
 10
256.5075362553661
 20
45.39754278887523
 30
0.0
  0
SPLINE
  5
1D0
330
1F
100
AcDbEntity
  8
0
  6
Continuous
 62
     7
370
    15
100
AcDbSpline
210
0.0
220
0.0
230
1.0
 70
     8
 71
     3
 72
    11
 73
     7
 74
     0
 42
0.000000001
 43
0.00000001
 40
0.0
 40
0.0
 40
0.0
 40
0.0
 40
0.216455377944345
 40
0.440311289579057
 40
0.7519005688038776
 40
1.0
 40
1.0
 40
1.0
 40
1.0
 10
259.8536014703174
 20
45.91512479191515
 30
0.0
 10
259.822893326045
 20
45.80460319095244
 30
0.0
 10
259.7604271367845
 20
45.57978129413294
 30
0.0
 10
259.6445065732013
 20
45.25481863088604
 30
0.0
 10
259.5201609750437
 20
45.03226913855359
 30
0.0
 10
259.4405872591237
 20
44.97478517895385
 30
0.0
 10
259.4053137342332
 20
44.94930362570103
 30
0.0
  0
SPLINE
  5
1D1
330
1F
100
AcDbEntity
  8
0
  6
Continuous
 62
     7
370
    15
100
AcDbSpline
210
0.0
220
0.0
230
1.0
 70
     8
 71
     3
 72
    11
 73
     7
 74
     0
 42
0.000000001
 43
0.00000001
 40
0.0
 40
0.0
 40
0.0
 40
0.0
 40
0.1843643438496127
 40
0.5174526391740194
 40
0.8663352079125942
 40
0.9999999999999999
 40
0.9999999999999999
 40
0.9999999999999999
 40
0.9999999999999999
 10
258.6288565989257
 20
46.6221549566093
 30
0.0
 10
258.6999268610789
 20
46.54302104404614
 30
0.0
 10
258.8993987001019
 20
46.32091707833915
 30
0.0
 10
259.2710325101158
 20
46.02679462058967
 30
0.0
 10
259.6170636826382
 20
45.92246882980925
 30
0.0
 10
259.8022932089312
 20
45.91671781356127
 30
0.0
 10
259.8536014703174
 20
45.91512479191515
 30
0.0
  0
SPLINE
  5
1D2
330
1F
100
AcDbEntity
  8
0
  6
Continuous
 62
     7
370
    15
100
AcDbSpline
210
0.0
220
0.0
230
1.0
 70
     8
 71
     3
 72
    11
 73
     7
 74
     0
 42
0.000000001
 43
0.00000001
 40
0.0
 40
0.0
 40
0.0
 40
0.0
 40
0.2164553779443456
 40
0.4403112895790577
 40
0.7519005688038781
 40
1.0
 40
1.0
 40
1.0
 40
1.0
 10
256.9558239914501
 20
46.36336395508935
 30
0.0
 10
257.0704283460805
 20
46.3367294741556
 30
0.0
 10
257.3035553381557
 20
46.28254988869748
 30
0.0
 10
257.7361767710906
 20
46.27425377960342
 30
0.0
 10
258.2002408611121
 20
46.39138596992878
 30
0.0
 10
258.4972140118726
 20
46.55127788948805
 30
0.0
 10
258.6288565989257
 20
46.6221549566093
 30
0.0
  0
SPLINE
  5
1D3
330
1F
100
AcDbEntity
  8
0
  6
Continuous
 62
     7
370
    15
100
AcDbSpline
210
0.0
220
0.0
230
1.0
 70
     8
 71
     3
 72
    11
 73
     7
 74
     0
 42
0.000000001
 43
0.00000001
 40
0.0
 40
0.0
 40
0.0
 40
0.0
 40
0.2164553779443453
 40
0.4403112895790566
 40
0.7519005688038771
 40
1.0
 40
1.0
 40
1.0
 40
1.0
 10
256.5075362553661
 20
45.39754278887523
 30
0.0
 10
256.5382443996384
 20
45.41934055927176
 30
0.0
 10
256.6007105888988
 20
45.46368135821327
 30
0.0
 10
256.7166311524822
 20
45.63821276940269
 30
0.0
 10
256.8409767506396
 20
45.95146027064933
 30
0.0
 10
256.9205504665597
 20
46.23685421255638
 30
0.0
 10
256.9558239914501
 20
46.36336395508935
 30
0.0
  0
LINE
  5
1D4
330
1F
100
AcDbEntity
  8
0
  6
Continuous
 62
     7
370
    15
100
AcDbLine
 10
256.9558239915
 20
44.9493803984
 30
0.0
 11
256.9558239915
 21
46.3633639551
 31
0.0
  0
LINE
  5
1D5
330
1F
100
AcDbEntity
  8
0
  6
Continuous
 62
     7
370
    15
100
AcDbLine
 10
258.6288565989
 20
44.6944454446
 30
0.0
 11
258.6288565989
 21
46.6221549566
 31
0.0
  0
LWPOLYLINE
  5
1D6
330
1F
100
AcDbEntity
  8
0
  6
Continuous
 62
     7
370
    15
100
AcDbPolyline
 90
       77
 70
   128
 43
0.0
 10
253.77882915
 20
26.9939973886
 10
253.8114333801
 20
27.9231163882
 10
253.9090233504
 20
28.8835326058
 10
254.0709324226
 20
29.8686854247
 10
254.2960545935
 20
30.8718452522
 10
254.5828520503
 20
31.8861594896
 10
254.9293656757
 20
32.904699342
 10
255.3332284302
 20
33.9205071495
 10
255.7916815217
 20
34.9266439147
 10
256.3015932507
 20
35.9162367034
 10
256.859480403
 20
36.8825255934
 10
257.4615320438
 20
37.8189098516
 10
258.1036355498
 20
38.7189930243
 10
258.7814047031
 20
39.5766266305
 10
259.4902096529
 20
40.3859521633
 10
260.2252085429
 20
41.1414411084
 10
260.9813805853
 20
41.8379327105
 10
261.7535603584
 20
42.4706692255
 10
262.5364730912
 20
43.0353284216
 10
263.324770696
 20
43.5280531038
 10
264.1130683008
 20
43.945477463
 10
264.8959810336
 20
44.2847500675
 10
265.6681608066
 20
44.5435533415
 10
266.424332849
 20
44.720119396
 10
267.159331739
 20
44.813242106
 10
267.8681366889
 20
44.822285349
 10
268.5459058421
 20
44.7471873503
 10
269.1880093481
 20
44.5884611055
 10
269.7900609889
 20
44.3471908757
 10
270.3479481413
 20
44.0250247813
 10
270.8578598703
 20
43.6241635435
 10
271.3163129618
 20
43.1473454508
 10
271.7201757162
 20
42.5978276544
 10
272.0666893416
 20
41.979363918
 10
272.3534867985
 20
41.296178976
 10
272.5786089693
 20
40.5529396744
 10
272.7405180415
 20
39.7547230912
 10
272.8381080119
 20
38.906981855
 10
272.870712242
 20
38.0155068982
 10
272.8381080119
 20
37.0863878985
 10
272.7405180415
 20
36.1259716809
 10
272.5786089693
 20
35.140818862
 10
272.3534867985
 20
34.1376590345
 10
272.0666893416
 20
33.1233447972
 10
271.7201757162
 20
32.1048049448
 10
271.3163129618
 20
31.0889971373
 10
270.8578598703
 20
30.082860372
 10
270.3479481413
 20
29.0932675833
 10
269.7900609889
 20
28.1269786934
 10
269.1880093481
 20
27.1905944351
 10
268.5459058421
 20
26.2905112625
 10
267.8681366889
 20
25.4328776562
 10
267.159331739
 20
24.6235521235
 10
266.424332849
 20
23.8680631783
 10
265.6681608066
 20
23.1715715763
 10
264.8959810336
 20
22.5388350612
 10
264.1130683008
 20
21.9741758651
 10
263.324770696
 20
21.4814511829
 10
262.5364730912
 20
21.0640268237
 10
261.7535603584
 20
20.7247542192
 10
260.9813805853
 20
20.4659509453
 10
260.2252085429
 20
20.2893848907
 10
259.4902096529
 20
20.1962621807
 10
258.7814047031
 20
20.1872189378
 10
258.1036355498
 20
20.2623169365
 10
257.4615320438
 20
20.4210431813
 10
256.859480403
 20
20.662313411
 10
256.3015932507
 20
20.9844795054
 10
255.7916815217
 20
21.3853407433
 10
255.3332284302
 20
21.862158836
 10
254.9293656757
 20
22.4116766324
 10
254.5828520503
 20
23.0301403688
 10
254.2960545935
 20
23.7133253108
 10
254.0709324226
 20
24.4565646124
 10
253.9090233504
 20
25.2547811956
 10
253.8114333801
 20
26.1025224317
 10
253.77882915
 20
26.9939973886
  0
LWPOLYLINE
  5
1D7
330
1F
100
AcDbEntity
  8
0
  6
Continuous
 62
     7
370
    15
100
AcDbPolyline
 90
       40
 70
   128
 43
0.0
 10
253.4252757594
 20
26.9939973886
 10
253.4584837715
 20
27.9403222956
 10
253.5578809636
 20
28.9185239987
 10
253.7227883519
 20
29.9219203884
 10
253.9520794518
 20
30.9436572497
 10
254.2441879727
 20
31.976755084
 10
254.5971185171
 20
33.0141567856
 10
255.0084602115
 20
34.0487758488
 10
255.475403175
 20
35.0735447763
 10
255.9947577138
 20
36.0814633574
 10
256.5629761097
 20
37.065646486
 10
257.176176855
 20
38.0193711935
 10
257.8301711666
 20
38.9361225731
 10
258.5204916005
 20
39.8096382832
 10
259.242422568
 20
40.6339513258
 10
259.9910325485
 20
41.4034308069
 10
260.7612077769
 20
42.1128204016
 10
261.5476871753
 20
42.7572742595
 10
262.3450982921
 20
43.3323901074
 10
263.1479940007
 20
43.8342393208
 10
263.9508897093
 20
44.2593937607
 10
264.748300826
 20
44.6049491912
 10
265.5347802245
 20
44.8685451184
 10
266.3049554529
 20
45.0483809147
 10
267.0535654334
 20
45.1432281193
 10
267.7754964009
 20
45.1524388297
 10
268.4658168347
 20
45.0759501273
 10
269.1198111464
 20
44.9142845076
 10
269.7330118916
 20
44.6685463107
 10
270.3012302876
 20
44.3404141775
 10
270.8205848263
 20
43.9321295834
 10
271.2875277899
 20
43.446481526
 10
271.6988694843
 20
42.8867874741
 10
272.0518000287
 20
42.2568707055
 10
272.3439085495
 20
41.5610341906
 10
272.5731996495
 20
40.8040311982
 10
272.7381070378
 20
39.9910328264
 10
272.8375042298
 20
39.1275926785
 10
272.870712242
 20
38.2196089261
 10
272.870712242
 20
38.2196089261
  0
LWPOLYLINE
  5
1D8
330
1F
100
AcDbEntity
  8
0
  6
Continuous
 62
     7
370
    15
100
AcDbPolyline
 90
       21
 70
   128
 43
0.0
 10
263.1495742158
 20
21.380279381
 10
263.1479940007
 20
21.3793669939
 10
262.3450982921
 20
20.954212554
 10
261.5476871753
 20
20.6086571235
 10
260.7612077769
 20
20.3450611963
 10
259.9910325485
 20
20.1652254
 10
259.242422568
 20
20.0703781954
 10
258.5204916005
 20
20.061167485
 10
257.8301711666
 20
20.1376561874
 10
257.176176855
 20
20.2993218071
 10
256.5629761097
 20
20.5450600041
 10
255.9947577138
 20
20.8731921372
 10
255.475403175
 20
21.2814767313
 10
255.0084602115
 20
21.7671247887
 10
254.5971185171
 20
22.3268188406
 10
254.2441879727
 20
22.9567356092
 10
253.9520794518
 20
23.6525721241
 10
253.7227883519
 20
24.4095751165
 10
253.5578809636
 20
25.2225734883
 10
253.4584837715
 20
26.0860136362
 10
253.4252757594
 20
26.9939973886
  0
LINE
  5
1D9
330
1F
100
AcDbEntity
  8
0
  6
Continuous
 62
     7
370
    15
100
AcDbLine
 10
264.3147201896
 20
47.4448369391
 30
0.0
 11
262.5254619855
 21
48.4777537141
 31
0.0
  0
ARC
  5
1DA
330
1F
100
AcDbEntity
  8
0
  6
Continuous
 62
     7
370
    15
100
AcDbCircle
 10
263.4810080455
 20
42.3467072772
 30
0.0
 40
5.16584959029735
100
AcDbArc
 50
78.9146376864
 51
80.7124625671
  0
SPLINE
  5
1DB
330
1F
100
AcDbEntity
  8
0
  6
Continuous
 62
     7
370
    15
100
AcDbSpline
210
0.0
220
0.0
230
1.0
 70
     8
 71
     3
 72
    11
 73
     7
 74
     0
 42
0.000000001
 43
0.00000001
 40
0.0
 40
0.0
 40
0.0
 40
0.0
 40
0.0115715727908811
 40
0.3550510199200225
 40
0.6754785583911792
 40
1.0
 40
1.0
 40
1.0
 40
1.0
 10
265.667992324834
 20
47.02775306546675
 30
0.0
 10
265.6661748200022
 20
47.02913058495192
 30
0.0
 10
265.6104082482577
 20
47.07139706912042
 30
0.0
 10
265.3689863702486
 20
47.17256564002967
 30
0.0
 10
264.9752639766074
 20
47.30662188511536
 30
0.0
 10
264.6419615362079
 20
47.37950075797101
 30
0.0
 10
264.4742524742651
 20
47.41617149877753
 30
0.0
  0
LINE
  5
1DC
330
1F
100
AcDbEntity
  8
0
  6
Continuous
 62
     7
370
    15
100
AcDbLine
 10
250.4007528484
 20
24.0889264975
 30
0.0
 11
250.2179346699
 21
24.2002330791
 31
0.0
  0
SPLINE
  5
1DD
330
1F
100
AcDbEntity
  8
0
  6
Continuous
 62
     7
370
    15
100
AcDbSpline
210
0.0
220
0.0
230
1.0
 70
     8
 71
     3
 72
    34
 73
    30
 74
     0
 42
0.000000001
 43
0.00000001
 40
0.0
 40
0.0
 40
0.0
 40
0.0
 40
0.013641834006893
 40
0.0272792781081192
 40
0.0409295500367067
 40
0.0546098190674626
 40
0.0683371418946992
 40
0.0821284006016543
 40
0.0960002438140811
 40
0.1099690319975895
 40
0.1240507876919893
 40
0.1863081204530962
 40
0.2487115791025874
 40
0.3111204841358539
 40
0.3739380863746816
 40
0.4370140431888385
 40
0.499544493351815
 40
0.4999996053893093
 40
0.5624764278287651
 40
0.6255696050719011
 40
0.6884053966110487
 40
0.7508965053691279
 40
0.8133412108590012
 40
0.8754471374648743
 40
0.9006873651410174
 40
0.9256656985682494
 40
0.9504783506206692
 40
0.975223467789055
 40
1.0
 40
1.0
 40
1.0
 40
1.0
 10
248.0218482734346
 20
34.10156857358042
 30
0.0
 10
248.050977168616
 20
34.06609899211529
 30
0.0
 10
248.1092255853782
 20
33.9951712432014
 30
0.0
 10
248.1936587849484
 20
33.8841818838113
 30
0.0
 10
248.2759189386053
 20
33.76992836770712
 30
0.0
 10
248.3558461145914
 20
33.65208505084458
 30
0.0
 10
248.4335470775947
 20
33.53075658937885
 30
0.0
 10
248.509061867437
 20
33.4059332575537
 30
0.0
 10
248.5824529304187
 20
33.27764116079388
 30
0.0
 10
248.6537830042651
 20
33.1458879503965
 30
0.0
 10
248.8019375629442
 20
32.85706810481081
 30
0.0
 10
249.0072265612977
 20
32.39330164785468
 30
0.0
 10
249.2317859066446
 20
31.74071871928545
 30
0.0
 10
249.4066399504504
 20
31.07553570548416
 30
0.0
 10
249.5301234991841
 20
30.41486697046684
 30
0.0
 10
249.6064741825319
 20
29.77781576073127
 30
0.0
 10
249.623552417179
 20
29.37914621085684
 30
0.0
 10
249.6238596270794
 20
29.00230709152931
 30
0.0
 10
249.6072807914541
 20
28.64241072564442
 30
0.0
 10
249.5313755183498
 20
28.17668427872722
 30
0.0
 10
249.4080915072695
 20
27.78883375305832
 30
0.0
 10
249.2330922399626
 20
27.49040565860504
 30
0.0
 10
249.00890224266
 20
27.2814806363638
 30
0.0
 10
248.7877421902846
 20
27.18685516415131
 30
0.0
 10
248.6009060393083
 20
27.15321400759455
 30
0.0
 10
248.4677890785415
 20
27.14515878295755
 30
0.0
 10
248.3271467800721
 20
27.15181011122581
 30
0.0
 10
248.1793288556692
 20
27.17166139025563
 30
0.0
 10
248.0743639963611
 20
27.19651015128886
 30
0.0
 10
248.0218482734346
 20
27.2089424134582
 30
0.0
  0
SPLINE
  5
1DE
330
1F
100
AcDbEntity
  8
0
  6
Continuous
 62
     7
370
    15
100
AcDbSpline
210
0.0
220
0.0
230
1.0
 70
     8
 71
     3
 72
    32
 73
    28
 74
     0
 42
0.000000001
 43
0.00000001
 40
0.0
 40
0.0
 40
0.0
 40
0.0
 40
0.0625000000000005
 40
0.0625000000000005
 40
0.125000000000001
 40
0.125000000000001
 40
0.1875000000000015
 40
0.1875000000000015
 40
0.2500000000000021
 40
0.2500000000000021
 40
0.3125000000000026
 40
0.3125000000000026
 40
0.3750000000000032
 40
0.3750000000000032
 40
0.4375000000000032
 40
0.4375000000000032
 40
0.5000000000000032
 40
0.5000000000000032
 40
0.6250000000000028
 40
0.6250000000000028
 40
0.6875000000000026
 40
0.6875000000000026
 40
0.7500000000000023
 40
0.7500000000000023
 40
0.8750000000000012
 40
0.8750000000000012
 40
1.0
 40
1.0
 40
1.0
 40
1.0
 10
261.3625493781811
 20
44.86495456196026
 30
0.0
 10
261.2458181846131
 20
44.79756707829637
 30
0.0
 10
261.1186308502074
 20
44.73169634840096
 30
0.0
 10
260.8520093095888
 20
44.60769820102107
 30
0.0
 10
260.7127593902882
 20
44.54950190497885
 30
0.0
 10
260.4229317939397
 20
44.44063504390892
 30
0.0
 10
260.2718768537017
 20
44.38982436875145
 30
0.0
 10
259.9604538850139
 20
44.2967762334719
 30
0.0
 10
259.8025061240024
 20
44.25522508214906
 30
0.0
 10
259.4824180946571
 20
44.18182766913993
 30
0.0
 10
259.3202761644395
 20
44.14998418944317
 30
0.0
 10
258.9918455375366
 20
44.09633084058053
 30
0.0
 10
258.8262224912203
 20
44.07469959390091
 30
0.0
 10
258.4983896798631
 20
44.04262828897875
 30
0.0
 10
258.3352637593522
 20
44.03203128196152
 30
0.0
 10
258.010406909109
 20
44.0219179866026
 30
0.0
 10
257.8480413706232
 20
44.02243194354362
 30
0.0
 10
257.3672797130759
 20
44.0414055600779
 30
0.0
 10
257.0595284971062
 20
44.07673714568433
 30
0.0
 10
256.6153071844228
 20
44.1648475503796
 30
0.0
 10
256.4695527484694
 20
44.20030275166777
 30
0.0
 10
256.1869309769995
 20
44.28284444600078
 30
0.0
 10
256.050885390552
 20
44.32962372498354
 30
0.0
 10
255.6579469655253
 20
44.48630137529213
 30
0.0
 10
255.4160755703345
 20
44.61242433891113
 30
0.0
 10
254.9737819508968
 20
44.90989505844914
 30
0.0
 10
254.7800452578423
 20
45.07688176635797
 30
0.0
 10
254.6142384804224
 20
45.25972918056702
 30
0.0
  0
SPLINE
  5
1DF
330
1F
100
AcDbEntity
  8
0
  6
Continuous
 62
     7
370
    15
100
AcDbSpline
210
0.0
220
0.0
230
1.0
 70
     8
 71
     3
 72
    30
 73
    26
 74
     0
 42
0.000000001
 43
0.00000001
 40
0.0
 40
0.0
 40
0.0
 40
0.0
 40
0.1250000000000002
 40
0.1250000000000002
 40
0.2500000000000005
 40
0.2500000000000005
 40
0.3125000000000003
 40
0.3125000000000003
 40
0.3750000000000001
 40
0.3750000000000001
 40
0.4999999999999997
 40
0.4999999999999997
 40
0.5624999999999996
 40
0.5624999999999996
 40
0.6249999999999993
 40
0.6249999999999993
 40
0.6874999999999991
 40
0.6874999999999991
 40
0.7499999999999989
 40
0.7499999999999989
 40
0.8749999999999993
 40
0.8749999999999993
 40
0.9374999999999997
 40
0.9374999999999997
 40
1.0
 40
1.0
 40
1.0
 40
1.0
 10
259.9361497900445
 20
48.33200318442093
 30
0.0
 10
260.2199256945468
 20
48.21678793274346
 30
0.0
 10
260.4876300190651
 20
48.09204428312174
 30
0.0
 10
260.9869044470221
 20
47.8265574239833
 30
0.0
 10
261.2110096231248
 20
47.68985940660279
 30
0.0
 10
261.510133569945
 20
47.47870898175134
 30
0.0
 10
261.6036155302864
 20
47.40728080246664
 30
0.0
 10
261.7776635315805
 20
47.26195685555248
 30
0.0
 10
261.857804756439
 20
47.18832891221663
 30
0.0
 10
262.073180677409
 20
46.96806434084016
 30
0.0
 10
262.1856432630009
 20
46.82055278670402
 30
0.0
 10
262.3050682109725
 20
46.59439028646243
 30
0.0
 10
262.3366518304578
 20
46.51770472657841
 30
0.0
 10
262.3808530829133
 20
46.36538571567387
 30
0.0
 10
262.3937250591639
 20
46.28948056036729
 30
0.0
 10
262.4006716768729
 20
46.13740531114406
 30
0.0
 10
262.3947521416065
 20
46.06123743084508
 30
0.0
 10
262.3628730070131
 20
45.9078322617092
 30
0.0
 10
262.3366664436642
 20
45.830087477174
 30
0.0
 10
262.2261980127059
 20
45.59757932849661
 30
0.0
 10
262.1123362742454
 20
45.44585696262841
 30
0.0
 10
261.8748550799344
 20
45.22011364999571
 30
0.0
 10
261.7847370926432
 20
45.14568008834981
 30
0.0
 10
261.5874176004239
 20
45.00218976351066
 30
0.0
 10
261.4796184713779
 20
44.93253711092774
 30
0.0
 10
261.3625493781811
 20
44.86495456196026
 30
0.0
  0
LWPOLYLINE
  5
1E0
330
1F
100
AcDbEntity
  8
0
  6
Continuous
 62
     7
370
    15
100
AcDbPolyline
 90
       72
 70
   128
 43
0.0
 10
255.016266017
 20
27.7083544864
 10
255.0487786741
 20
28.5750737016
 10
255.1460621898
 20
29.4725479787
 10
255.3073551886
 20
30.3937533645
 10
255.5313953342
 20
31.331480178
 10
255.8164292087
 20
32.2783894354
 10
256.1602260355
 20
33.2270702879
 10
256.5600951383
 20
34.1700980216
 10
257.0129069992
 20
35.1000921658
 10
257.5151177515
 20
36.0097742555
 10
258.0627969151
 20
36.8920247948
 10
258.6516581579
 20
37.7399389772
 10
259.2770928425
 20
38.5468807244
 10
259.9342060942
 20
39.3065346233
 10
260.6178551111
 20
40.0129553521
 10
261.3226894126
 20
40.6606142108
 10
262.0431927147
 20
41.2444423906
 10
262.7737261021
 20
41.7598706446
 10
263.5085721606
 20
42.2028650478
 10
264.2419797234
 20
42.5699585683
 10
264.968208882
 20
42.8582782016
 10
265.6815759085
 20
43.0655674556
 10
266.3764977388
 20
43.190204011
 10
267.0475356672
 20
43.2312124176
 10
267.6894379123
 20
43.1882717291
 10
268.2971807185
 20
43.0617180147
 10
268.8660076745
 20
42.8525417285
 10
269.391466938
 20
42.5623799589
 10
269.8694460779
 20
42.1935036149
 10
270.2962042594
 20
41.7487996542
 10
270.668401521
 20
41.2317484882
 10
270.9831249145
 20
40.6463967433
 10
271.2379113027
 20
39.9973255905
 10
271.4307666366
 20
39.2896148917
 10
271.5601815617
 20
38.5288034427
 10
271.6251432309
 20
37.7208456245
 10
271.6251432309
 20
36.8720648026
 10
271.5601815617
 20
35.9891038377
 10
271.4307666366
 20
35.0788730965
 10
271.2379113027
 20
34.1484963687
 10
270.9831249145
 20
33.2052551138
 10
270.668401521
 20
32.2565314733
 10
270.2962042594
 20
31.3097504961
 10
269.8694460779
 20
30.372322027
 10
269.391466938
 20
29.4515827148
 10
268.8660076745
 20
28.5547385931
 10
268.2971807185
 20
27.688808683
 10
267.6894379123
 20
26.8605700602
 10
267.0475356672
 20
26.0765048149
 10
266.3764977388
 20
25.3427493206
 10
265.6815759085
 20
24.6650462091
 10
264.968208882
 20
24.0486994259
 10
264.2419797234
 20
23.4985327204
 10
263.5085721606
 20
23.018851893
 10
262.7737261021
 20
22.6134110964
 10
262.0431927147
 20
22.2853834548
 10
261.3226894126
 20
22.0373362291
 10
260.6178551111
 20
21.8712107251
 10
259.9342060942
 20
21.7883071002
 10
259.2770928425
 20
21.7892741877
 10
258.6516581579
 20
21.8741044188
 10
258.0627969151
 20
22.0421338819
 10
257.5151177515
 20
22.2920475186
 10
257.0129069992
 20
22.6218894159
 10
256.5600951383
 20
23.0290781137
 10
256.1602260355
 20
23.5104268084
 10
255.8164292087
 20
24.0621682938
 10
255.5313953342
 20
24.6799844447
 10
255.3073551886
 20
25.3590400121
 10
255.1460621898
 20
26.0940204654
 10
255.0487786741
 20
26.8791735861
 10
255.016266017
 20
27.7083544864
  0
SPLINE
  5
1E1
330
1F
100
AcDbEntity
  8
0
  6
Continuous
 62
     7
370
    15
100
AcDbSpline
210
0.0
220
0.0
230
1.0
 70
     8
 71
     3
 72
    18
 73
    14
 74
     0
 42
0.000000001
 43
0.00000001
 40
0.0
 40
0.0
 40
0.0
 40
0.0
 40
0.2500000000000003
 40
0.2500000000000003
 40
0.3750000000000003
 40
0.3750000000000003
 40
0.5000000000000002
 40
0.5000000000000002
 40
0.6250000000000001
 40
0.6250000000000001
 40
0.7500000000000001
 40
0.7500000000000001
 40
1.0
 40
1.0
 40
1.0
 40
1.0
 10
257.5231621556983
 20
22.96769658586898
 30
0.0
 10
257.3995544962271
 20
22.92819016159176
 30
0.0
 10
257.2783118054036
 20
22.92213964055943
 30
0.0
 10
257.1008272926833
 20
22.96381690779599
 30
0.0
 10
257.042377596415
 20
22.98648990572162
 30
0.0
 10
256.9308537572265
 20
23.04780734080764
 30
0.0
 10
256.8772748984819
 20
23.08651948060967
 30
0.0
 10
256.7745121450436
 20
23.18006830432652
 30
0.0
 10
256.7249543704434
 20
23.23545442342163
 30
0.0
 10
256.6325756741996
 20
23.36029777367215
 30
0.0
 10
256.5897890864791
 20
23.42947275036673
 30
0.0
 10
256.4712168726596
 20
23.65663485675678
 30
0.0
 10
256.4048103253326
 20
23.8360956959037
 30
0.0
 10
256.3539206676782
 20
24.0348974089936
 30
0.0
  0
LWPOLYLINE
  5
1E2
330
1F
100
AcDbEntity
  8
0
  6
Continuous
 62
     7
370
    15
100
AcDbPolyline
 90
       18
 70
   128
 43
0.0
 10
268.7374705066
 20
29.4415789964
 10
268.197733188
 20
28.5565744638
 10
267.6142267238
 20
27.7066413931
 10
266.9919910743
 20
26.8991209695
 10
266.3364007179
 20
26.140988044
 10
265.65311823
 20
25.4387908901
 10
264.948045373
 20
24.798594643
 10
264.2272721209
 20
24.2259289137
 10
263.4970240576
 20
23.7257400267
 10
262.7636086047
 20
23.3023482979
 10
262.0333605414
 20
22.9594107174
 10
261.3125872893
 20
22.6998893635
 10
260.6075144323
 20
22.5260258176
 10
259.9242319444
 20
22.4393218032
 10
259.268641588
 20
22.4405262149
 10
258.6464059385
 20
22.5296286496
 10
258.0628994743
 20
22.7058594968
 10
257.5231621557
 20
22.9676965859
  0
SPLINE
  5
1E3
330
1F
100
AcDbEntity
  8
0
  6
Continuous
 62
     7
370
    15
100
AcDbSpline
210
0.0
220
0.0
230
1.0
 70
     8
 71
     3
 72
    18
 73
    14
 74
     0
 42
0.000000001
 43
0.00000001
 40
0.0
 40
0.0
 40
0.0
 40
0.0
 40
0.2500000000000003
 40
0.2500000000000003
 40
0.3750000000000006
 40
0.3750000000000006
 40
0.5000000000000009
 40
0.5000000000000009
 40
0.6250000000000012
 40
0.6250000000000012
 40
0.7500000000000014
 40
0.7500000000000014
 40
1.0
 40
1.0
 40
1.0
 40
1.0
 10
269.9067119946168
 20
31.85875730649476
 30
0.0
 10
269.9198477270675
 20
31.63820039919051
 30
0.0
 10
269.9032596980018
 20
31.41535816306557
 30
0.0
 10
269.8336372874228
 20
31.07732599053466
 30
0.0
 10
269.802679848783
 20
30.96392273189691
 30
0.0
 10
269.7274272022311
 20
30.74319043873637
 30
0.0
 10
269.6829795177807
 20
30.63491271909695
 30
0.0
 10
269.5804369636522
 20
30.42253065110893
 30
0.0
 10
269.5217816785638
 20
30.31760258319052
 30
0.0
 10
269.3930843350121
 20
30.11679307082536
 30
0.0
 10
269.3233014246712
 20
30.02104391647973
 30
0.0
 10
269.09810496062
 20
29.74736370258769
 30
0.0
 10
268.9251273414483
 20
29.58176728003598
 30
0.0
 10
268.7374705065968
 20
29.44157899638095
 30
0.0
  0
LWPOLYLINE
  5
1E4
330
1F
100
AcDbEntity
  8
0
  6
Continuous
 62
     7
370
    15
100
AcDbPolyline
 90
       12
 70
   128
 43
0.0
 10
269.9067119946
 20
41.1991191085
 10
270.2693382519
 20
40.6217985802
 10
270.5636905303
 20
39.9679243037
 10
270.7869537941
 20
39.2437496007
 10
270.9369928669
 20
38.4562001099
 10
271.0123728512
 20
37.6128075546
 10
271.0123728512
 20
36.7216377129
 10
270.9369928669
 20
35.7912132802
 10
270.7869537941
 20
34.8304323633
 10
270.5636905303
 20
33.8484833827
 10
270.2693382519
 20
32.8547571997
 10
269.9067119946
 20
31.8587573065
  0
SPLINE
  5
1E5
330
1F
100
AcDbEntity
  8
0
  6
Continuous
 62
     7
370
    15
100
AcDbSpline
210
0.0
220
0.0
230
1.0
 70
     8
 71
     3
 72
    18
 73
    14
 74
     0
 42
0.000000001
 43
0.00000001
 40
0.0
 40
0.0
 40
0.0
 40
0.0
 40
0.2499999999999994
 40
0.2499999999999994
 40
0.3749999999999996
 40
0.3749999999999996
 40
0.4999999999999999
 40
0.4999999999999999
 40
0.6250000000000001
 40
0.6250000000000001
 40
0.7500000000000003
 40
0.7500000000000003
 40
1.0
 40
1.0
 40
1.0
 40
1.0
 10
268.7374705065968
 20
42.26631993163663
 30
0.0
 10
268.9250947059172
 20
42.26887039408868
 30
0.0
 10
269.0945499137048
 20
42.24708842150889
 30
0.0
 10
269.3215529364688
 20
42.1768247269033
 30
0.0
 10
269.392572327759
 20
42.14689539849692
 30
0.0
 10
269.5206654579706
 20
42.07601271530523
 30
0.0
 10
269.5784053225973
 20
42.03489847793756
 30
0.0
 10
269.6812685004055
 20
41.94129168046599
 30
0.0
 10
269.7266806973379
 20
41.88829875241798
 30
0.0
 10
269.8024686557171
 20
41.77303303127111
 30
0.0
 10
269.8329124519579
 20
41.71098339643062
 30
0.0
 10
269.9025377805415
 20
41.51207772543216
 30
0.0
 10
269.9198500119093
 20
41.36095843162168
 30
0.0
 10
269.9067119946168
 20
41.19911910851201
 30
0.0
  0
LWPOLYLINE
  5
1E6
330
1F
100
AcDbEntity
  8
0
  6
Continuous
 62
     7
370
    15
100
AcDbPolyline
 90
       18
 70
   128
 43
0.0
 10
257.5231621557
 20
35.7924375211
 10
258.0628994743
 20
36.6774420537
 10
258.6464059385
 20
37.5273751244
 10
259.268641588
 20
38.334895548
 10
259.9242319444
 20
39.0930284735
 10
260.6075144323
 20
39.7952256274
 10
261.3125872893
 20
40.4354218745
 10
262.0333605414
 20
41.0080876038
 10
262.7636086047
 20
41.5082764908
 10
263.4970240576
 20
41.9316682196
 10
264.2272721209
 20
42.2746058001
 10
264.948045373
 20
42.534127154
 10
265.65311823
 20
42.7079906999
 10
266.3364007179
 20
42.7946947143
 10
266.9919910743
 20
42.7934903026
 10
267.6142267238
 20
42.7043878679
 10
268.197733188
 20
42.5281570207
 10
268.7374705066
 20
42.2663199316
  0
SPLINE
  5
1E7
330
1F
100
AcDbEntity
  8
0
  6
Continuous
 62
     7
370
    15
100
AcDbSpline
210
0.0
220
0.0
230
1.0
 70
     8
 71
     3
 72
    18
 73
    14
 74
     0
 42
0.000000001
 43
0.00000001
 40
0.0
 40
0.0
 40
0.0
 40
0.0
 40
0.2499999999999997
 40
0.2499999999999997
 40
0.3749999999999997
 40
0.3749999999999997
 40
0.4999999999999998
 40
0.4999999999999998
 40
0.6249999999999998
 40
0.6249999999999998
 40
0.7499999999999999
 40
0.7499999999999999
 40
1.0
 40
1.0
 40
1.0
 40
1.0
 10
256.3539206676782
 20
33.37525921101086
 30
0.0
 10
256.4048014750767
 20
33.55886015648994
 30
0.0
 10
256.4696020211066
 20
33.75386989900275
 30
0.0
 10
256.5887429417293
 20
34.06331564416463
 30
0.0
 10
256.632270075391
 20
34.16946257232162
 30
0.0
 10
256.724092012966
 20
34.38062961737651
 30
0.0
 10
256.7727007032985
 20
34.48650523945029
 30
0.0
 10
256.8753436817969
 20
34.69882933368358
 30
0.0
 10
256.9298533892176
 20
34.8061505926491
 30
0.0
 10
257.0419599949046
 20
35.01653773411792
 30
0.0
 10
257.0994001137659
 20
35.11941223031761
 30
0.0
 10
257.275649692581
 20
35.42134887960125
 30
0.0
 10
257.3995329957935
 20
35.61528684748939
 30
0.0
 10
257.5231621556983
 20
35.79243752112466
 30
0.0
  0
LWPOLYLINE
  5
1E8
330
1F
100
AcDbEntity
  8
0
  6
Continuous
 62
     7
370
    15
100
AcDbPolyline
 90
       12
 70
   128
 43
0.0
 10
256.3539206677
 20
24.034897409
 10
255.9912944104
 20
24.6122179373
 10
255.696942132
 20
25.2660922138
 10
255.4736788682
 20
25.9902669168
 10
255.3236397954
 20
26.7778164076
 10
255.2482598111
 20
27.6212089629
 10
255.2482598111
 20
28.5123788046
 10
255.3236397954
 20
29.4428032373
 10
255.4736788682
 20
30.4035841542
 10
255.696942132
 20
31.3855331348
 10
255.9912944104
 20
32.3792593178
 10
256.3539206677
 20
33.375259211
  0
ARC
  5
1E9
330
1F
100
AcDbEntity
  8
0
  6
Continuous
 62
     7
370
    15
100
AcDbCircle
 10
269.0200235403
 20
40.4663997138
 30
0.0
 40
1.821962954514155
100
AcDbArc
 50
98.9215321124
 51
121.0579635504
  0
LINE
  5
1EA
330
1F
100
AcDbEntity
  8
0
  6
Continuous
 62
     7
370
    15
100
AcDbLine
 10
266.3831516328
 20
41.0475701232
 30
0.0
 11
268.0800637995
 21
42.0271766655
 31
0.0
  0
LWPOLYLINE
  5
1EB
330
1F
100
AcDbEntity
  8
0
  6
Continuous
 62
     7
370
    15
100
AcDbPolyline
 90
       11
 70
   128
 43
0.0
 10
259.8774810294
 20
37.291926425
 10
260.4847501003
 20
37.9973460076
 10
261.1206634659
 20
38.6445111497
 10
261.7783359123
 20
39.2264148108
 10
262.4506466336
 20
39.7367565554
 10
263.1303163311
 20
40.1700107687
 10
263.8099860287
 20
40.5214864847
 10
264.48229675
 20
40.7873781764
 10
265.1399691964
 20
40.964806959
 10
265.775882562
 20
41.0518517608
 10
266.3831516328
 20
41.0475701232
  0
LINE
  5
1EC
330
1F
100
AcDbEntity
  8
0
  6
Continuous
 62
     7
370
    15
100
AcDbLine
 10
258.1805688628
 20
36.3123198828
 30
0.0
 11
259.8774810294
 21
37.291926425
 31
0.0
  0
ARC
  5
1ED
330
1F
100
AcDbEntity
  8
0
  6
Continuous
 62
     7
370
    15
100
AcDbCircle
 10
259.7692933859
 20
33.6277341293
 30
0.0
 40
3.119462498234479
100
AcDbArc
 50
120.6168359905
 51
136.0576097217
  0
SPLINE
  5
1EE
330
1F
100
AcDbEntity
  8
0
  6
Continuous
 62
     7
370
    15
100
AcDbSpline
210
0.0
220
0.0
230
1.0
 70
     8
 71
     3
 72
     8
 73
     4
 74
     0
 42
0.000000001
 43
0.00000001
 40
0.0
 40
0.0
 40
0.0
 40
0.0
 40
1.0
 40
1.0
 40
1.0
 40
1.0
 10
247.8898060543897
 20
34.345986779159
 30
0.0
 10
247.8865653923464
 20
34.26933833068689
 30
0.0
 10
247.9357604463266
 20
34.18191179738741
 30
0.0
 10
248.0218482734346
 20
34.10156857358042
 30
0.0
  0
ARC
  5
1EF
330
1F
100
AcDbEntity
  8
0
  6
Continuous
 62
     7
370
    15
100
AcDbCircle
 10
269.6513801617
 20
28.838011439
 30
0.0
 40
22.4478039009795
100
AcDbArc
 50
132.3458070629
 51
165.7964107536
  0
SPLINE
  5
1F0
330
1F
100
AcDbEntity
  8
0
  6
Continuous
 62
     7
370
    15
100
AcDbSpline
210
0.0
220
0.0
230
1.0
 70
     8
 71
     3
 72
    10
 73
     6
 74
     0
 42
0.000000001
 43
0.00000001
 40
0.0
 40
0.0
 40
0.0
 40
0.0
 40
0.5
 40
0.5
 40
1.0
 40
1.0
 40
1.0
 40
1.0
 10
254.6142384804222
 20
45.25972918056709
 30
0.0
 10
254.5770026989009
 20
45.30079183477923
 30
0.0
 10
254.551782861094
 20
45.33655185905394
 30
0.0
 10
254.5251487806209
 20
45.39330890484845
 30
0.0
 10
254.5233024069586
 20
45.41457948541024
 30
0.0
 10
254.5304581562277
 20
45.42902158546649
 30
0.0
  0
ARC
  5
1F1
330
1F
100
AcDbEntity
  8
0
  6
Continuous
 62
     7
370
    15
100
AcDbCircle
 10
267.9185924263
 20
29.7337204522
 30
0.0
 40
11.76123499238279
100
AcDbArc
 50
146.0530104619
 51
177.5792771537
  0
LWPOLYLINE
  5
1F2
330
1F
100
AcDbEntity
  8
0
  6
Continuous
 62
     7
370
    15
100
AcDbPolyline
 90
       42
 70
   128
 43
0.0
 10
263.9610509219
 20
40.5884158367
 10
264.3149498217
 20
40.5942846358
 10
264.8297088106
 20
40.5337952111
 10
265.3079636153
 20
40.3900603363
 10
265.7441071357
 20
40.1647651716
 10
266.1330259878
 20
39.8605510967
 10
266.4701604535
 20
39.4809847436
 10
266.7515579396
 20
39.0305161806
 10
266.9739193177
 20
38.5144267398
 10
267.1346376041
 20
37.9387670981
 10
267.2318285237
 20
37.3102863383
 10
267.264352602
 20
36.6363528228
 10
267.2318285237
 20
35.924867806
 10
267.1346376041
 20
35.1841727989
 10
266.9739193177
 20
34.4229517735
 10
266.7515579396
 20
33.6501293503
 10
266.4701604535
 20
32.8747661655
 10
266.1330259878
 20
32.1059526435
 10
265.7441071357
 20
31.3527024201
 10
265.3079636153
 20
30.6238466653
 10
264.8297088106
 20
29.9279305465
 10
264.3149498217
 20
29.2731130439
 10
263.7697217274
 20
28.6670712939
 10
263.2004168284
 20
28.1169105821
 10
262.6137097042
 20
27.6290810398
 10
262.0164789593
 20
27.2093020222
 10
261.4157265782
 20
26.8624950546
 10
260.8184958334
 20
26.5927261316
 10
260.2317887092
 20
26.4031580471
 10
259.6624838102
 20
26.2960133137
 10
259.1172557158
 20
26.2725481053
 10
258.602496727
 20
26.3330375301
 10
258.1242419222
 20
26.4767724048
 10
257.6880984018
 20
26.7020675695
 10
257.2991795498
 20
27.0062816444
 10
256.962045084
 20
27.3858479976
 10
256.680647598
 20
27.8363165606
 10
256.4582862198
 20
28.3524060013
 10
256.2975679335
 20
28.9280656431
 10
256.2003770138
 20
29.5565464028
 10
256.1678529356
 20
30.2304799183
 10
256.1678529356
 20
30.2304799183
  0
LINE
  5
1F3
330
1F
100
AcDbEntity
  8
0
  6
Continuous
 62
     7
370
    15
100
AcDbLine
 10
256.7663553005
 20
24.0232479638
 30
0.0
 11
258.4632674671
 21
25.0028545061
 31
0.0
  0
LINE
  5
1F4
330
1F
100
AcDbEntity
  8
0
  6
Continuous
 62
     7
370
    15
100
AcDbLine
 10
256.3971646079
 20
23.8533653272
 30
0.0
 11
256.7663553005
 21
24.0232479638
 31
0.0
  0
ARC
  5
1F5
330
1F
100
AcDbEntity
  8
0
  6
Continuous
 62
     7
370
    15
100
AcDbCircle
 10
266.0678139325
 20
41.7519640902
 30
0.0
 40
2.437849799888374
100
AcDbArc
 50
346.9883651865
 51
10.6364611934
  0
LWPOLYLINE
  5
1F6
330
1F
100
AcDbEntity
  8
0
  6
Continuous
 62
     7
370
    15
100
AcDbPolyline
 90
       10
 70
   128
 43
0.0
 10
268.4430703904
 20
33.4305393735
 10
268.753668868
 20
34.4298203485
 10
268.9895498995
 20
35.4185225581
 10
269.1482091491
 20
36.3861490062
 10
269.2279621404
 20
37.3224264568
 10
269.2279621404
 20
38.2174145047
 10
269.1482091491
 20
39.0616111115
 10
268.9895498995
 20
39.8460534892
 10
268.753668868
 20
40.5624132568
 10
268.4430703904
 20
41.2030848627
  0
ARC
  5
1F7
330
1F
100
AcDbEntity
  8
0
  6
Continuous
 62
     7
370
    15
100
AcDbCircle
 10
264.7369925138
 20
32.9404085074
 30
0.0
 40
3.738347428065373
100
AcDbArc
 50
301.0620018917
 51
7.5336799128
  0
LINE
  5
1F8
330
1F
100
AcDbEntity
  8
0
  6
Continuous
 62
     7
370
    15
100
AcDbLine
 10
264.9689380705
 20
28.7584982043
 30
0.0
 11
266.6658502371
 21
29.7381047466
 31
0.0
  0
LWPOLYLINE
  5
1F9
330
1F
100
AcDbEntity
  8
0
  6
Continuous
 62
     7
370
    15
100
AcDbPolyline
 90
       11
 70
   128
 43
0.0
 10
264.9689380705
 20
28.7584982043
 10
264.3616689997
 20
28.0530786217
 10
263.725755634
 20
27.4059134797
 10
263.0680831876
 20
26.8240098185
 10
262.3957724664
 20
26.313668074
 10
261.7161027688
 20
25.8804138606
 10
261.0364330712
 20
25.5289381446
 10
260.3641223499
 20
25.2630464529
 10
259.7064499035
 20
25.0856176703
 10
259.0705365379
 20
24.9985728685
 10
258.4632674671
 20
25.0028545061
  0
SPLINE
  5
1FA
330
1F
100
AcDbEntity
  8
0
  6
Continuous
 62
     7
370
    15
100
AcDbSpline
210
0.0
220
0.0
230
1.0
 70
     8
 71
     3
 72
    14
 73
    10
 74
     0
 42
0.000000001
 43
0.00000001
 40
0.0
 40
0.0
 40
0.0
 40
0.0
 40
0.1385288287033636
 40
0.2783989833708894
 40
0.4196700753229523
 40
0.5624030049705975
 40
0.7066599070510429
 40
0.8525040943118893
 40
1.0
 40
1.0
 40
1.0
 40
1.0
 10
247.9779348213748
 20
35.34190860707458
 30
0.0
 10
247.97467737996
 20
35.29940928979556
 30
0.0
 10
247.96813095647
 20
35.21399914928412
 30
0.0
 10
247.9572149049509
 20
35.0810592797728
 30
0.0
 10
247.9454609945589
 20
34.94372118934817
 30
0.0
 10
247.9328135336788
 20
34.80160275358089
 30
0.0
 10
247.9193032165223
 20
34.6546167035773
 30
0.0
 10
247.9050022937887
 20
34.50293289212115
 30
0.0
 10
247.8948904465449
 20
34.39849816467913
 30
0.0
 10
247.8898060543897
 20
34.345986779159
 30
0.0
  0
ARC
  5
1FB
330
1F
100
AcDbEntity
  8
0
  6
Continuous
 62
     7
370
    15
100
AcDbCircle
 10
267.7486404738
 20
29.9043264621
 30
0.0
 40
20.50482959139296
100
AcDbArc
 50
128.5152883517
 51
164.6274823361
  0
SPLINE
  5
1FC
330
1F
100
AcDbEntity
  8
0
  6
Continuous
 62
     7
370
    15
100
AcDbSpline
210
0.0
220
0.0
230
1.0
 70
     8
 71
     3
 72
    10
 73
     6
 74
     0
 42
0.000000001
 43
0.00000001
 40
0.0
 40
0.0
 40
0.0
 40
0.0
 40
0.5
 40
0.5
 40
1.0
 40
1.0
 40
1.0
 40
1.0
 10
254.5304581562278
 20
45.42902158546648
 30
0.0
 10
254.5628535990088
 20
45.49440372902956
 30
0.0
 10
254.6131022082282
 20
45.56974237348513
 30
0.0
 10
254.7589623244776
 20
45.74211769424262
 30
0.0
 10
254.8544590894025
 20
45.83911441733528
 30
0.0
 10
254.9798024657095
 20
45.94816679090291
 30
0.0
  0
ARC
  5
1FD
330
1F
100
AcDbEntity
  8
0
  6
Continuous
 62
     7
370
    15
100
AcDbCircle
 10
259.0519172122
 20
24.2784792088
 30
0.0
 40
2.708969812924694
100
AcDbArc
 50
167.8781475344
 51
185.1588186135
  0
LWPOLYLINE
  5
1FE
330
1F
100
AcDbEntity
  8
0
  6
Continuous
 62
     7
370
    15
100
AcDbPolyline
 90
       10
 70
   128
 43
0.0
 10
256.4033487096
 20
24.8473397666
 10
256.0927502319
 20
25.4880113725
 10
255.8568692004
 20
26.2043711401
 10
255.6982099508
 20
26.9888135178
 10
255.6184569595
 20
27.8330101247
 10
255.6184569595
 20
28.7279981725
 10
255.6982099508
 20
29.6642756231
 10
255.8568692004
 20
30.6319020712
 10
256.0927502319
 20
31.6206042809
 10
256.4033487096
 20
32.6198852558
  0
ARC
  5
1FF
330
1F
100
AcDbEntity
  8
0
  6
Continuous
 62
     7
370
    15
100
AcDbCircle
 10
258.5238851457
 20
33.1379471149
 30
0.0
 40
2.182902395197774
100
AcDbArc
 50
173.7588101909
 51
193.7288361877
  0
SPLINE
  5
200
330
1F
100
AcDbEntity
  8
0
  6
Continuous
 62
     7
370
    15
100
AcDbSpline
210
0.0
220
0.0
230
1.0
 70
     8
 71
     3
 72
    10
 73
     6
 74
     0
 42
0.000000001
 43
0.00000001
 40
0.0
 40
0.0
 40
0.0
 40
0.0
 40
0.5
 40
0.5
 40
1.0
 40
1.0
 40
1.0
 40
1.0
 10
254.9798024657095
 20
45.94816679090291
 30
0.0
 10
255.0315281554393
 20
45.99316964151738
 30
0.0
 10
255.0783135098233
 20
46.05178517520007
 30
0.0
 10
255.1700120065165
 20
46.1891890997366
 30
0.0
 10
255.2146222539272
 20
46.26758186575869
 30
0.0
 10
255.2585761087483
 20
46.35310993588828
 30
0.0
  0
SPLINE
  5
201
330
1F
100
AcDbEntity
  8
0
  6
Continuous
 62
     7
370
    15
100
AcDbSpline
210
0.0
220
0.0
230
1.0
 70
     8
 71
     3
 72
    20
 73
    16
 74
     0
 42
0.000000001
 43
0.00000001
 40
0.0
 40
0.0
 40
0.0
 40
0.0
 40
0.125
 40
0.125
 40
0.2500000000000001
 40
0.2500000000000001
 40
0.5000000000000001
 40
0.5000000000000001
 40
0.6250000000000001
 40
0.6250000000000001
 40
0.75
 40
0.75
 40
0.875
 40
0.875
 40
1.0
 40
1.0
 40
1.0
 40
1.0
 10
255.2585761087483
 20
46.35310993588828
 30
0.0
 10
255.2905279238812
 20
46.41528371101179
 30
0.0
 10
255.3276948556745
 20
46.47579238688522
 30
0.0
 10
255.4129281180035
 20
46.59315048027649
 30
0.0
 10
255.4613781368298
 20
46.65036956876005
 30
0.0
 10
255.6213210745656
 20
46.81288700304683
 30
0.0
 10
255.7463028947238
 20
46.90865701071833
 30
0.0
 10
255.9613394466419
 20
47.03306709220334
 30
0.0
 10
256.0381873295127
 20
47.07153124903945
 30
0.0
 10
256.19887548703
 20
47.14058629139078
 30
0.0
 10
256.2822709631733
 20
47.17107004745316
 30
0.0
 10
256.4549028033074
 20
47.22439362766895
 30
0.0
 10
256.5441399863324
 20
47.24723226834534
 30
0.0
 10
256.7283972361277
 20
47.28549671158655
 30
0.0
 10
256.8238696400095
 20
47.30095442070427
 30
0.0
 10
256.9205811015906
 20
47.31256499568335
 30
0.0
  0
SPLINE
  5
202
330
1F
100
AcDbEntity
  8
0
  6
Continuous
 62
     7
370
    15
100
AcDbSpline
210
0.0
220
0.0
230
1.0
 70
     8
 71
     3
 72
     9
 73
     5
 74
     0
 42
0.000000001
 43
0.00000001
 40
0.0
 40
0.0
 40
0.0
 40
0.0
 40
0.5557967530668205
 40
1.0
 40
1.0
 40
1.0
 40
1.0
 10
256.9205811015906
 20
47.31256499568333
 30
0.0
 10
257.0509532895718
 20
47.33086845934847
 30
0.0
 10
257.2855213889027
 20
47.36380039636349
 30
0.0
 10
257.5125868559726
 20
47.45020251619043
 30
0.0
 10
257.6134500737115
 20
47.48858261835946
 30
0.0
  0
SPLINE
  5
203
330
1F
100
AcDbEntity
  8
0
  6
Continuous
 62
     7
370
    15
100
AcDbSpline
210
0.0
220
0.0
230
1.0
 70
     8
 71
     3
 72
    12
 73
     8
 74
     0
 42
0.000000001
 43
0.00000001
 40
0.0
 40
0.0
 40
0.0
 40
0.0
 40
0.25
 40
0.25
 40
0.5
 40
0.5
 40
1.0
 40
1.0
 40
1.0
 40
1.0
 10
257.6993547446319
 20
47.51813090389938
 30
0.0
 10
257.8491601834513
 20
47.5863462386416
 30
0.0
 10
258.0018474783654
 20
47.65461071094472
 30
0.0
 10
258.3056950124125
 20
47.78870621661823
 30
0.0
 10
258.4576544890571
 20
47.85490612574708
 30
0.0
 10
258.9133856889035
 20
48.05182207200512
 30
0.0
 10
259.2169947335855
 20
48.18090055944865
 30
0.0
 10
259.5199301142389
 20
48.30938243662174
 30
0.0
  0
SPLINE
  5
204
330
1F
100
AcDbEntity
  8
0
  6
Continuous
 62
     7
370
    15
100
AcDbSpline
210
0.0
220
0.0
230
1.0
 70
     8
 71
     3
 72
    10
 73
     6
 74
     0
 42
0.000000001
 43
0.00000001
 40
0.0
 40
0.0
 40
0.0
 40
0.0
 40
0.5
 40
0.5
 40
1.0
 40
1.0
 40
1.0
 40
1.0
 10
259.5199301142389
 20
48.30938243662175
 30
0.0
 10
259.5868886903282
 20
48.33778111204302
 30
0.0
 10
259.6583121066026
 20
48.3566044669847
 30
0.0
 10
259.8006248685128
 20
48.3667981894125
 30
0.0
 10
259.8724178129858
 20
48.3578788689321
 30
0.0
 10
259.9361497900445
 20
48.3320031844211
 30
0.0
  0
SPLINE
  5
205
330
1F
100
AcDbEntity
  8
0
  6
Continuous
 62
     7
370
    15
100
AcDbSpline
210
0.0
220
0.0
230
1.0
 70
     8
 71
     3
 72
    13
 73
     9
 74
     0
 42
0.000000001
 43
0.00000001
 40
0.0
 40
0.0
 40
0.0
 40
0.0
 40
0.1457024413509142
 40
0.2992079546182184
 40
0.4609954526750303
 40
0.6314836748886905
 40
0.8110420188119241
 40
1.0
 40
1.0
 40
1.0
 40
1.0
 10
247.9315855966553
 20
35.51834614342663
 30
0.0
 10
247.9370713067211
 20
35.51095434530259
 30
0.0
 10
247.9483365132146
 20
35.49577488243884
 30
0.0
 10
247.9612527547636
 20
35.47010229786239
 30
0.0
 10
247.97136477305
 20
35.441789831067
 30
0.0
 10
247.9778194714113
 20
35.41075733405007
 30
0.0
 10
247.9806337844954
 20
35.3772402113452
 30
0.0
 10
247.9788496449224
 20
35.35388438522197
 30
0.0
 10
247.9779348213748
 20
35.34190860707458
 30
0.0
  0
SPLINE
  5
206
330
1F
100
AcDbEntity
  8
0
  6
Continuous
 62
     7
370
    15
100
AcDbSpline
210
0.0
220
0.0
230
1.0
 70
     8
 71
     3
 72
     8
 73
     4
 74
     0
 42
0.000000001
 43
0.00000001
 40
0.0
 40
0.0
 40
0.0
 40
0.0
 40
1.0
 40
1.0
 40
1.0
 40
1.0
 10
247.8490498486624
 20
35.5874614300681
 30
0.0
 10
247.881361210431
 20
35.56475251494734
 30
0.0
 10
247.9092539636346
 20
35.54145937702314
 30
0.0
 10
247.9315855966553
 20
35.51834614342663
 30
0.0
  0
LINE
  5
207
330
1F
100
AcDbEntity
  8
0
  6
Continuous
 62
     7
370
    15
100
AcDbLine
 10
246.3737701488
 20
36.4391222727
 30
0.0
 11
247.8490498487
 21
35.5874614301
 31
0.0
  0
LWPOLYLINE
  5
208
330
1F
100
AcDbEntity
  8
0
  6
Continuous
 62
     7
370
    15
100
AcDbPolyline
 90
       22
 70
   128
 43
0.0
 10
246.3737701488
 20
36.4391222727
 10
246.6829845072
 20
37.4363224107
 10
247.0530558145
 20
38.4342658938
 10
247.481144515
 20
39.4252955049
 10
247.9639658855
 20
40.4018070771
 10
248.4978152391
 20
41.3563078404
 10
249.0785963516
 20
42.2814739136
 10
249.7018528914
 20
43.1702065004
 10
250.3628026132
 20
44.0156863588
 10
251.0563740519
 20
44.8114261244
 10
251.7772454362
 20
45.5513200888
 10
252.5198855224
 20
46.229691048
 10
253.2785960355
 20
46.841333864
 10
254.0475553922
 20
47.3815554033
 10
254.8208633701
 20
47.8462105479
 10
255.5925863795
 20
48.2317340005
 10
256.3568029924
 20
48.5351676409
 10
257.1076493772
 20
48.7541832238
 10
257.8393642921
 20
48.8871002432
 10
258.546333291
 20
48.9328988274
 10
259.2231318031
 20
48.891227564
 10
259.8645667556
 20
48.7624061965
  0
LINE
  5
209
330
1F
100
AcDbEntity
  8
0
  6
Continuous
 62
     7
370
    15
100
AcDbLine
 10
260.3391521467
 20
48.4884338819
 30
0.0
 11
259.8645667556
 21
48.7624061965
 31
0.0
  0
LWPOLYLINE
  5
20A
330
1F
100
AcDbEntity
  8
0
  6
Continuous
 62
     7
370
    15
100
AcDbPolyline
 90
       36
 70
   128
 43
0.0
 10
263.8103918315
 20
40.5216717755
 10
264.1133648684
 20
40.4925576785
 10
264.5983927018
 20
40.3751516496
 10
265.0418387001
 20
40.1735293134
 10
265.4381262725
 20
39.8902261881
 10
265.7822718731
 20
39.5288049747
 10
266.0699476711
 20
39.0938107546
 10
266.2975359764
 20
38.5907138326
 10
266.4621747341
 20
38.0258409445
 10
266.5617935163
 20
37.4062956944
 10
266.595139559
 20
36.7398692235
 10
266.5617935163
 20
36.0349422311
 10
266.4621747341
 20
35.3003795834
 10
266.2975359764
 20
34.5454188317
 10
266.0699476711
 20
33.7795540456
 10
265.7822718731
 20
33.012416419
 10
265.4381262725
 20
32.2536531529
 10
265.0418387001
 20
31.5128061354
 10
264.5983927018
 20
30.7991919478
 10
264.1133648684
 20
30.1217847023
 10
263.5928547064
 20
29.4891031883
 10
263.043407933
 20
28.9091037428
 10
262.4719341602
 20
28.3890801953
 10
261.8856200023
 20
27.9355721437
 10
261.2918387001
 20
27.554282715
 10
260.6980573978
 20
27.2500068448
 10
260.1117432399
 20
27.0265709788
 10
259.5402694671
 20
26.8867849527
 10
258.9908226937
 20
26.8324066568
 10
258.4703125317
 20
26.8641199297
 10
257.9852846984
 20
26.9815259587
 10
257.5418387001
 20
27.1831482948
 10
257.1455511276
 20
27.4664514202
 10
256.801405527
 20
27.8278726336
 10
256.5137297291
 20
28.2628668536
 10
256.4408046516
 20
28.4032338572
  0
LINE
  5
20B
330
1F
100
AcDbEntity
  8
0
  6
Continuous
 62
     7
370
    15
100
AcDbLine
 10
248.0218482734
 20
27.2089424135
 30
0.0
 11
248.097133973
 21
27.7029370974
 31
0.0
  0
SPLINE
  5
20C
330
1F
100
AcDbEntity
  8
0
  6
Continuous
 62
     7
370
    15
100
AcDbSpline
210
0.0
220
0.0
230
1.0
 70
     8
 71
     3
 72
    35
 73
    31
 74
     0
 42
0.000000001
 43
0.00000001
 40
0.0
 40
0.0
 40
0.0
 40
0.0
 40
0.0132761419699495
 40
0.0272443708152777
 40
0.0419057955889244
 40
0.0572613734330681
 40
0.0733119355901766
 40
0.090058208091326
 40
0.1075008283705787
 40
0.1256403587269956
 40
0.1673425586153332
 40
0.2090586788019251
 40
0.25078886401602
 40
0.2888426949036164
 40
0.3260876528860355
 40
0.3625447282168628
 40
0.3982363030638169
 40
0.4331862321486247
 40
0.4674199224411573
 40
0.5009644102472823
 40
0.6167909040661502
 40
0.749855859010606
 40
0.7915341701312331
 40
0.8332498221147147
 40
0.8750038748364576
 40
0.9000695680371453
 40
0.925097240361716
 40
0.9500916693273849
 40
0.9750576515357676
 40
1.0
 40
1.0
 40
1.0
 40
1.0
 10
248.0971339730028
 20
27.7029370973949
 30
0.0
 10
248.1225421082154
 20
27.69624081226112
 30
0.0
 10
248.1746829077808
 20
27.6824991638453
 30
0.0
 10
248.2520619565188
 20
27.66601147034013
 30
0.0
 10
248.3310415150878
 20
27.65259492339073
 30
0.0
 10
248.4110741308833
 20
27.6432536076742
 30
0.0
 10
248.4918479789189
 20
27.63858287051243
 30
0.0
 10
248.5729153851897
 20
27.63931849202271
 30
0.0
 10
248.6538481550495
 20
27.64620192684616
 30
0.0
 10
248.7676556910862
 20
27.66565890026555
 30
0.0
 10
248.9058962151183
 20
27.7125771314978
 30
0.0
 10
249.0559539139193
 20
27.80701176474528
 30
0.0
 10
249.1783271728687
 20
27.93198092279181
 30
0.0
 10
249.2776490217702
 20
28.08432686431126
 30
0.0
 10
249.3591684842671
 20
28.26043186008318
 30
0.0
 10
249.4242196299542
 20
28.46024753538649
 30
0.0
 10
249.4735085118626
 20
28.68099947339748
 30
0.0
 10
249.5075481279143
 20
28.91968322010469
 30
0.0
 10
249.5272060832365
 20
29.17357224082532
 30
0.0
 10
249.5382717451124
 20
29.658758803908
 30
0.0
 10
249.479580735162
 20
30.50851851468865
 30
0.0
 10
249.2739450700155
 20
31.45787613727937
 30
0.0
 10
249.0512853590382
 20
32.14400016575505
 30
0.0
 10
248.9007866429139
 20
32.53156367079616
 30
0.0
 10
248.7552313332817
 20
32.85680062710866
 30
0.0
 10
248.6205354540752
 20
33.12162762987422
 30
0.0
 10
248.5012335360535
 20
33.33025093237477
 30
0.0
 10
248.3740150473232
 20
33.52986041468517
 30
0.0
 10
248.2398293458948
 20
33.72067213873881
 30
0.0
 10
248.1446840788395
 20
33.8391714351919
 30
0.0
 10
248.0971339730028
 20
33.8983930261581
 30
0.0
  0
LINE
  5
20D
330
1F
100
AcDbEntity
  8
0
  6
Continuous
 62
     7
370
    15
100
AcDbLine
 10
248.0218482734
 20
34.1015685736
 30
0.0
 11
248.097133973
 21
33.8983930262
 31
0.0
  0
LINE
  5
20E
330
1F
100
AcDbEntity
  8
0
  6
Continuous
 62
     7
370
    15
100
AcDbLine
 10
248.097133973
 20
33.8983930262
 30
0.0
 11
248.0704591588
 21
33.945539543
 31
0.0
  0
SPLINE
  5
20F
330
1F
100
AcDbEntity
  8
0
  6
Continuous
 62
     7
370
    15
100
AcDbSpline
210
0.0
220
0.0
230
1.0
 70
     8
 71
     3
 72
    12
 73
     8
 74
     0
 42
0.000000001
 43
0.00000001
 40
0.0
 40
0.0
 40
0.0
 40
0.0
 40
0.2113407597167496
 40
0.4122763128615715
 40
0.6073700908115028
 40
0.8015977204551661
 40
1.0
 40
1.0
 40
1.0
 40
1.0
 10
248.0493884989962
 20
27.76627339830492
 30
0.0
 10
248.0482344841063
 20
27.76039449880592
 30
0.0
 10
248.0459832713993
 20
27.74892614309271
 30
0.0
 10
248.0498592482536
 20
27.7336838686373
 30
0.0
 10
248.0594935976102
 20
27.72079015814512
 30
0.0
 10
248.0749049764778
 20
27.71017437576008
 30
0.0
 10
248.0896719706506
 20
27.70536656325602
 30
0.0
 10
248.0971339730028
 20
27.7029370973949
 30
0.0
  0
SPLINE
  5
210
330
1F
100
AcDbEntity
  8
0
  6
Continuous
 62
     7
370
    15
100
AcDbSpline
210
0.0
220
0.0
230
1.0
 70
     8
 71
     3
 72
     8
 73
     4
 74
     0
 42
0.000000001
 43
0.00000001
 40
0.0
 40
0.0
 40
0.0
 40
0.0
 40
1.0
 40
1.0
 40
1.0
 40
1.0
 10
248.1941065790834
 20
28.43873381248241
 30
0.0
 10
248.1493784644463
 20
28.18523049828642
 30
0.0
 10
248.1029006001262
 20
27.96044035753086
 30
0.0
 10
248.0493884989962
 20
27.76627339830493
 30
0.0
  0
SPLINE
  5
211
330
1F
100
AcDbEntity
  8
0
  6
Continuous
 62
     7
370
    15
100
AcDbSpline
210
0.0
220
0.0
230
1.0
 70
     8
 71
     3
 72
    14
 73
    10
 74
     0
 42
0.000000001
 43
0.00000001
 40
0.0
 40
0.0
 40
0.0
 40
0.0
 40
0.1390907466236235
 40
0.27790067532577
 40
0.4173749364793085
 40
0.558445329093506
 40
0.7020125780170136
 40
0.8489314930762483
 40
1.0
 40
1.0
 40
1.0
 40
1.0
 10
248.1335983535669
 20
28.63298957111443
 30
0.0
 10
248.140648684948
 20
28.62425514898317
 30
0.0
 10
248.1547351134104
 20
28.60680393912358
 30
0.0
 10
248.1710273967071
 20
28.57997322241885
 30
0.0
 10
248.1836535703545
 20
28.5527312920724
 30
0.0
 10
248.1922974814723
 20
28.52498147544041
 30
0.0
 10
248.1969691977298
 20
28.49670392819183
 30
0.0
 10
248.1979605677356
 20
28.46783066976167
 30
0.0
 10
248.1954031131539
 20
28.44852239003454
 30
0.0
 10
248.1941065790834
 20
28.43873381248241
 30
0.0
  0
SPLINE
  5
212
330
1F
100
AcDbEntity
  8
0
  6
Continuous
 62
     7
370
    15
100
AcDbSpline
210
0.0
220
0.0
230
1.0
 70
     8
 71
     3
 72
     8
 73
     4
 74
     0
 42
0.000000001
 43
0.00000001
 40
0.0
 40
0.0
 40
0.0
 40
0.0
 40
1.0
 40
1.0
 40
1.0
 40
1.0
 10
245.3374233306155
 20
37.61683761649037
 30
0.0
 10
244.9945567216094
 20
37.55754553104533
 30
0.0
 10
244.6514377645296
 20
37.49872872656395
 30
0.0
 10
244.3081355624031
 20
37.44029010770034
 30
0.0
  0
SPLINE
  5
213
330
1F
100
AcDbEntity
  8
0
  6
Continuous
 62
     7
370
    15
100
AcDbSpline
210
0.0
220
0.0
230
1.0
 70
     8
 71
     3
 72
     8
 73
     4
 74
     0
 42
0.000000001
 43
0.00000001
 40
0.0
 40
0.0
 40
0.0
 40
0.0
 40
0.0011140524372172
 40
0.0011140524372172
 40
0.0011140524372172
 40
0.0011140524372172
 10
243.9957238568766
 20
37.81193917578588
 30
0.0
 10
244.1003332082639
 20
37.68791218575664
 30
0.0
 10
244.2044894608653
 20
37.56402113536193
 30
0.0
 10
244.3081355624031
 20
37.44029010770034
 30
0.0
  0
LWPOLYLINE
  5
214
330
1F
100
AcDbEntity
  8
0
  6
Continuous
 62
     7
370
    15
100
AcDbPolyline
 90
       22
 70
   128
 43
0.0
 10
243.9957238569
 20
37.8119391758
 10
244.3049382152
 20
38.8091393138
 10
244.6750095226
 20
39.8070827969
 10
245.1030982231
 20
40.798112408
 10
245.5859195935
 20
41.7746239803
 10
246.1197689472
 20
42.7291247436
 10
246.7005500597
 20
43.6542908167
 10
247.3238065995
 20
44.5430234036
 10
247.9847563213
 20
45.3885032619
 10
248.67832776
 20
46.1842430275
 10
249.3991991443
 20
46.9241369919
 10
250.1418392304
 20
47.6025079511
 10
250.9005497435
 20
48.2141507671
 10
251.6695091003
 20
48.7543723064
 10
252.4428170781
 20
49.2190274511
 10
253.2145400875
 20
49.6045509037
 10
253.9787567004
 20
49.907984544
 10
254.7296030852
 20
50.1270001269
 10
255.4613180001
 20
50.2599171463
 10
256.168286999
 20
50.3057157306
 10
256.8450855111
 20
50.2640444672
 10
257.4865204637
 20
50.1352230996
  0
LINE
  5
215
330
1F
100
AcDbEntity
  8
0
  6
Continuous
 62
     7
370
    15
100
AcDbLine
 10
257.890766204
 20
48.8633210592
 30
0.0
 11
257.4865204637
 21
50.1352230996
 31
0.0
  0
LWPOLYLINE
  5
216
330
1F
100
AcDbEntity
  8
0
  6
Continuous
 62
     7
370
    15
100
AcDbPolyline
 90
       21
 70
   128
 43
0.0
 10
245.3374233306
 20
37.6168376165
 10
245.6293484653
 20
38.5557562457
 10
245.9811673905
 20
39.4951264566
 10
246.3899208543
 20
40.4270469314
 10
246.8521707116
 20
41.343679014
 10
247.3640288435
 20
42.2373126437
 10
247.9211898614
 20
43.1004312064
 10
248.5189673208
 20
43.9257747591
 10
249.1523331405
 20
44.7064010956
 10
249.8159598952
 20
45.4357441391
 10
250.5042656259
 20
46.1076691718
 10
251.2114607916
 20
46.7165244356
 10
251.9315969666
 20
47.2571886704
 10
252.6586168749
 20
47.7251141913
 10
253.3864053391
 20
48.1163651395
 10
254.1088407172
 20
48.4276505888
 10
254.8198463939
 20
48.6563522262
 10
255.5134418922
 20
48.8005463752
 10
256.1837931773
 20
48.8590201766
 10
256.8252617283
 20
48.8312817901
 10
257.1921294593
 20
48.7737070431
  0
LINE
  5
217
330
1F
100
AcDbEntity
  8
0
  6
Continuous
 62
     7
370
    15
100
AcDbLine
 10
242.6038072515
 20
38.6154755283
 30
0.0
 11
243.9957238569
 21
37.8119391758
 31
0.0
  0
LINE
  5
218
330
1F
100
AcDbEntity
  8
0
  6
Continuous
 62
     7
370
    15
100
AcDbLine
 10
257.4865204637
 20
50.1352230996
 30
0.0
 11
256.0946038583
 21
50.9387594521
 31
0.0
  0
LINE
  5
219
330
1F
100
AcDbEntity
  8
0
  6
Continuous
 62
     7
370
    15
100
AcDbLine
 10
246.5702648105
 20
37.0948370066
 30
0.0
 11
245.7055010551
 21
37.5940544964
 31
0.0
  0
SPLINE
  5
21A
330
1F
100
AcDbEntity
  8
0
  6
Continuous
 62
     7
370
    15
100
AcDbSpline
210
0.0
220
0.0
230
1.0
 70
     8
 71
     3
 72
    12
 73
     8
 74
     0
 42
0.000000001
 43
0.00000001
 40
0.0
 40
0.0
 40
0.0
 40
0.0
 40
0.2499999999999988
 40
0.2499999999999988
 40
0.4999999999999976
 40
0.4999999999999976
 40
1.0
 40
1.0
 40
1.0
 40
1.0
 10
245.705501055106
 20
37.59405449639004
 30
0.0
 10
245.6821676768697
 20
37.60752456892726
 30
0.0
 10
245.6543865365095
 20
37.61869807177887
 30
0.0
 10
245.5935433077907
 20
37.63484666188101
 30
0.0
 10
245.5616579747295
 20
37.63967704990687
 30
0.0
 10
245.4619239024625
 20
37.64507643773874
 30
0.0
 10
245.3950926988012
 20
37.63596777010348
 30
0.0
 10
245.3374233306155
 20
37.61683761649037
 30
0.0
  0
SPLINE
  5
21B
330
1F
100
AcDbEntity
  8
0
  6
Continuous
 62
     7
370
    15
100
AcDbSpline
210
0.0
220
0.0
230
1.0
 70
     8
 71
     3
 72
    10
 73
     6
 74
     0
 42
0.000000001
 43
0.00000001
 40
0.0
 40
0.0
 40
0.0
 40
0.0
 40
0.5
 40
0.5
 40
1.0
 40
1.0
 40
1.0
 40
1.0
 10
242.5005839767314
 20
38.64305543005923
 30
0.0
 10
242.5096154598728
 20
38.6473402635085
 30
0.0
 10
242.5225896613278
 20
38.64785867670928
 30
0.0
 10
242.5573780266832
 20
38.63910948155976
 30
0.0
 10
242.5789198827728
 20
38.62984270046999
 30
0.0
 10
242.6038072515217
 20
38.61547552830509
 30
0.0
  0
LINE
  5
21C
330
1F
100
AcDbEntity
  8
0
  6
Continuous
 62
     7
370
    15
100
AcDbLine
 10
242.5005839767
 20
38.6430554301
 30
0.0
 11
242.5207067711
 21
38.740540841
 31
0.0
  0
LINE
  5
21D
330
1F
100
AcDbEntity
  8
0
  6
Continuous
 62
     7
370
    15
100
AcDbLine
 10
247.9661967404
 20
35.3285363396
 30
0.0
 11
246.382174891
 21
36.2429726889
 31
0.0
  0
SPLINE
  5
21E
330
1F
100
AcDbEntity
  8
0
  6
Continuous
 62
     7
370
    15
100
AcDbSpline
210
0.0
220
0.0
230
1.0
 70
     8
 71
     3
 72
     8
 73
     4
 74
     0
 42
0.000000001
 43
0.00000001
 40
0.0
 40
0.0
 40
0.0
 40
0.0
 40
0.0011140524372172
 40
0.0011140524372172
 40
0.0011140524372172
 40
0.0011140524372172
 10
246.3821748910148
 20
36.24297268891071
 30
0.0
 10
246.3786615931024
 20
36.30889827946265
 30
0.0
 10
246.3758839784953
 20
36.37426468787527
 30
0.0
 10
246.3737701488286
 20
36.4391222726714
 30
0.0
  0
ARC
  5
21F
330
1F
100
AcDbEntity
  8
0
  6
Continuous
 62
     7
370
    15
100
AcDbCircle
 10
257.240609122
 20
24.7676168038
 30
0.0
 40
1.821962954516063
100
AcDbArc
 50
278.9215321124
 51
301.0579635503
  0
LINE
  5
220
330
1F
100
AcDbEntity
  8
0
  6
Continuous
 62
     7
370
    15
100
AcDbLine
 10
244.9046390461
 20
37.5422850986
 30
0.0
 11
244.9046390461
 21
35.301729415
 31
0.0
  0
LINE
  5
221
330
1F
100
AcDbEntity
  8
0
  6
Continuous
 62
     7
370
    15
100
AcDbLine
 10
244.9046390461
 20
35.301729415
 30
0.0
 11
244.9046390461
 21
33.7545253926
 31
0.0
  0
SPLINE
  5
222
330
1F
100
AcDbEntity
  8
0
  6
Continuous
 62
     7
370
    15
100
AcDbSpline
210
0.0
220
0.0
230
1.0
 70
     8
 71
     3
 72
     9
 73
     5
 74
     0
 42
0.000000001
 43
0.00000001
 40
0.0
 40
0.0
 40
0.0
 40
0.0
 40
0.7440389276569107
 40
1.0
 40
1.0
 40
1.0
 40
1.0
 10
262.5254619855435
 20
48.47775371410073
 30
0.0
 10
262.4991503058163
 20
48.49215945192233
 30
0.0
 10
262.4637869951759
 20
48.51152098972113
 30
0.0
 10
262.4324700993051
 20
48.51192495026757
 30
0.0
 10
262.4244541930556
 20
48.51202834844222
 30
0.0
  0
SPLINE
  5
223
330
1F
100
AcDbEntity
  8
0
  6
Continuous
 62
     7
370
    15
100
AcDbSpline
210
0.0
220
0.0
230
1.0
 70
     8
 71
     3
 72
     8
 73
     4
 74
     0
 42
0.000000001
 43
0.00000001
 40
0.0
 40
0.0
 40
0.0
 40
0.0
 40
1.0
 40
1.0
 40
1.0
 40
1.0
 10
248.0218482734346
 20
27.20894241345819
 30
0.0
 10
247.9357604463266
 20
27.24293944402149
 30
0.0
 10
247.8865653923464
 20
27.31113250901378
 30
0.0
 10
247.8898060543897
 20
27.38935921890285
 30
0.0
  0
LINE
  5
224
330
1F
100
AcDbEntity
  8
0
  6
Continuous
 62
     7
370
    15
100
AcDbLine
 10
247.8898060544
 20
27.3893592189
 30
0.0
 11
248.049388499
 21
27.7662733983
 31
0.0
  0
ARC
  5
225
330
1F
100
AcDbEntity
  8
0
  6
Continuous
 62
     7
370
    15
100
AcDbCircle
 10
267.2087154501
 20
40.9555373087
 30
0.0
 40
2.708969812922008
100
AcDbArc
 50
347.8781475344
 51
5.1588186135
  0
LINE
  5
226
330
1F
100
AcDbEntity
  8
0
  6
Continuous
 62
     7
370
    15
100
AcDbLine
 10
268.4430703904
 20
41.2030848627
 30
0.0
 11
269.8572839527
 21
40.3866767509
 31
0.0
  0
LINE
  5
227
330
1F
100
AcDbEntity
  8
0
  6
Continuous
 62
     7
370
    15
100
AcDbLine
 10
242.9056368316
 20
38.2499353912
 30
0.0
 11
242.5005839767
 21
38.6430554301
 31
0.0
  0
LINE
  5
228
330
1F
100
AcDbEntity
  8
0
  6
Continuous
 62
     7
370
    15
100
AcDbLine
 10
244.3081355624
 20
37.4402901077
 30
0.0
 11
242.9056368316
 21
38.2499353912
 31
0.0
  0
SPLINE
  5
229
330
1F
100
AcDbEntity
  8
0
  6
Continuous
 62
     7
370
    15
100
AcDbSpline
210
0.0
220
0.0
230
1.0
 70
     8
 71
     3
 72
    14
 73
    10
 74
     0
 42
0.000000001
 43
0.00000001
 40
0.0
 40
0.0
 40
0.0
 40
0.0
 40
0.1474959057338354
 40
0.2933400930250027
 40
0.4375969951204693
 40
0.5803299247679244
 40
0.7216010167046838
 40
0.8614711713418868
 40
0.9999999999999999
 40
0.9999999999999999
 40
0.9999999999999999
 40
0.9999999999999999
 10
247.8898060543897
 20
27.38935921890286
 30
0.0
 10
247.8948904465465
 20
27.41878913352845
 30
0.0
 10
247.905002293793
 20
27.47731939476543
 30
0.0
 10
247.9193032165298
 20
27.57007365138641
 30
0.0
 10
247.9328135336879
 20
27.66567922625956
 30
0.0
 10
247.945460994568
 20
27.76437589135
 30
0.0
 10
247.9572149049585
 20
27.86603048747468
 30
0.0
 10
247.9681309564744
 20
27.97021720003548
 30
0.0
 10
247.9746773799616
 20
28.04244064576366
 30
0.0
 10
247.9779348213748
 20
28.07837838238881
 30
0.0
  0
LINE
  5
22A
330
1F
100
AcDbEntity
  8
0
  6
Continuous
 62
     7
370
    15
100
AcDbLine
 10
247.9779348214
 20
28.0783783824
 30
0.0
 11
248.1941065791
 21
28.4387338125
 31
0.0
  0
LWPOLYLINE
  5
22B
330
1F
100
AcDbEntity
  8
0
  6
Continuous
 62
     7
370
    15
100
AcDbPolyline
 90
       11
 70
   128
 43
0.0
 10
266.3831516328
 20
27.9420900925
 10
265.775882562
 20
27.2366705099
 10
265.1399691964
 20
26.5895053678
 10
264.48229675
 20
26.0076017067
 10
263.8099860287
 20
25.4972599621
 10
263.1303163311
 20
25.0640057488
 10
262.4506466336
 20
24.7125300328
 10
261.7783359123
 20
24.4466383411
 10
261.1206634659
 20
24.2692095585
 10
260.4847501003
 20
24.1821647567
 10
259.8774810294
 20
24.1864463943
  0
LINE
  5
22C
330
1F
100
AcDbEntity
  8
0
  6
Continuous
 62
     7
370
    15
100
AcDbLine
 10
268.0800637995
 20
28.9216966347
 30
0.0
 11
266.3831516328
 21
27.9420900925
 31
0.0
  0
ARC
  5
22D
330
1F
100
AcDbEntity
  8
0
  6
Continuous
 62
     7
370
    15
100
AcDbCircle
 10
266.4913392764
 20
31.6062823882
 30
0.0
 40
3.119462498242559
100
AcDbArc
 50
300.6168359906
 51
316.0576097217
  0
LINE
  5
22E
330
1F
100
AcDbEntity
  8
0
  6
Continuous
 62
     7
370
    15
100
AcDbLine
 10
259.8774810294
 20
24.1864463943
 30
0.0
 11
258.1805688628
 21
23.206839852
 31
0.0
  0
LINE
  5
22F
330
1F
100
AcDbEntity
  8
0
  6
Continuous
 62
     7
370
    15
100
AcDbLine
 10
258.4632674671
 20
25.0028545061
 30
0.0
 11
259.8774810294
 21
24.1864463943
 31
0.0
  0
ARC
  5
230
330
1F
100
AcDbEntity
  8
0
  6
Continuous
 62
     7
370
    15
100
AcDbCircle
 10
252.4315904293
 20
36.5163386143
 30
0.0
 40
7.624321126030844
100
AcDbArc
 50
172.3392063362
 51
189.1666855416
  0
SPLINE
  5
231
330
1F
100
AcDbEntity
  8
0
  6
Continuous
 62
     7
370
    15
100
AcDbSpline
210
0.0
220
0.0
230
1.0
 70
     8
 71
     3
 72
    13
 73
     9
 74
     0
 42
0.000000001
 43
0.00000001
 40
0.0
 40
0.0
 40
0.0
 40
0.0
 40
0.1884361350962611
 40
0.3676806076597022
 40
0.5380642896259757
 40
0.6999571073623212
 40
0.8537769867630794
 40
1.0
 40
1.0
 40
1.0
 40
1.0
 10
247.9779348213748
 20
28.0783783823888
 30
0.0
 10
247.9788496235348
 20
28.08541796881284
 30
0.0
 10
247.9806346050294
 20
28.09915376005449
 30
0.0
 10
247.9778417130768
 20
28.12015813082206
 30
0.0
 10
247.9714088252817
 20
28.14057550119134
 30
0.0
 10
247.9613069994732
 20
28.16037262827033
 30
0.0
 10
247.948377949735
 20
28.17945067064593
 30
0.0
 10
247.937087761249
 20
28.19203655108221
 30
0.0
 10
247.9315855966553
 20
28.19817015866563
 30
0.0
  0
LINE
  5
232
330
1F
100
AcDbEntity
  8
0
  6
Continuous
 62
     7
370
    15
100
AcDbLine
 10
247.9315855967
 20
28.1981701587
 30
0.0
 11
248.1335983536
 21
28.6329895711
 31
0.0
  0
SPLINE
  5
233
330
1F
100
AcDbEntity
  8
0
  6
Continuous
 62
     7
370
    15
100
AcDbSpline
210
0.0
220
0.0
230
1.0
 70
     8
 71
     3
 72
     8
 73
     4
 74
     0
 42
0.000000001
 43
0.00000001
 40
0.0
 40
0.0
 40
0.0
 40
0.0
 40
1.0
 40
1.0
 40
1.0
 40
1.0
 10
247.9315855966553
 20
28.19817015866563
 30
0.0
 10
247.9092539636346
 20
28.22309371927356
 30
0.0
 10
247.881361210431
 20
28.24445441973377
 30
0.0
 10
247.8490498486624
 20
28.26130584944212
 30
0.0
  0
SPLINE
  5
234
330
1F
100
AcDbEntity
  8
0
  6
Continuous
 62
     7
370
    15
100
AcDbSpline
210
0.0
220
0.0
230
1.0
 70
     8
 71
     3
 72
    11
 73
     7
 74
     0
 42
0.000000001
 43
0.00000001
 40
0.0
 40
0.0
 40
0.0
 40
0.0
 40
0.2501372737342531
 40
0.4992468619900623
 40
0.7487346060801169
 40
1.0
 40
1.0
 40
1.0
 40
1.0
 10
248.0094580725187
 20
28.7304085684647
 30
0.0
 10
248.0215764240318
 20
28.72308960329104
 30
0.0
 10
248.0457633389808
 20
28.70848174280942
 30
0.0
 10
248.0782500708246
 20
28.68464853578505
 30
0.0
 10
248.1080303796818
 20
28.6596101666686
 30
0.0
 10
248.1250555494241
 20
28.6418840785558
 30
0.0
 10
248.1335983535669
 20
28.63298957111443
 30
0.0
  0
LINE
  5
235
330
1F
100
AcDbEntity
  8
0
  6
Continuous
 62
     7
370
    15
100
AcDbLine
 10
243.8881730481
 20
37.2450217426
 30
0.0
 11
243.9001867779
 21
37.6757939282
 31
0.0
  0
ARC
  5
236
330
1F
100
AcDbEntity
  8
0
  6
Continuous
 62
     7
370
    15
100
AcDbCircle
 10
248.3847511115
 20
36.9724241983
 30
0.0
 40
4.504833371113675
100
AcDbArc
 50
176.5307847916
 51
219.4185099443
  0
LINE
  5
237
330
1F
100
AcDbEntity
  8
0
  6
Continuous
 62
     7
370
    15
100
AcDbLine
 10
246.382174891
 20
29.6698191532
 30
0.0
 11
248.0094580725
 21
28.7304085685
 31
0.0
  0
SPLINE
  5
238
330
1F
100
AcDbEntity
  8
0
  6
Continuous
 62
     7
370
    15
100
AcDbSpline
210
0.0
220
0.0
230
1.0
 70
     8
 71
     3
 72
     8
 73
     4
 74
     0
 42
0.000000001
 43
0.00000001
 40
0.0
 40
0.0
 40
0.0
 40
0.0
 40
1.0
 40
1.0
 40
1.0
 40
1.0
 10
246.6879972826818
 20
30.26401433401939
 30
0.0
 10
246.585289249575
 20
30.06608165375568
 30
0.0
 10
246.4834045164514
 20
29.86800329604991
 30
0.0
 10
246.3821748910148
 20
29.66981915323042
 30
0.0
  0
SPLINE
  5
239
330
1F
100
AcDbEntity
  8
0
  6
Continuous
 62
     7
370
    15
100
AcDbSpline
210
0.0
220
0.0
230
1.0
 70
     8
 71
     3
 72
    12
 73
     8
 74
     0
 42
0.000000001
 43
0.00000001
 40
0.0
 40
0.0
 40
0.0
 40
0.0
 40
0.2500000000000013
 40
0.2500000000000013
 40
0.5000000000000026
 40
0.5000000000000026
 40
1.0
 40
1.0
 40
1.0
 40
1.0
 10
246.6485314849118
 20
30.47650108146012
 30
0.0
 10
246.671864863148
 20
30.4630310089229
 30
0.0
 10
246.6912200349587
 20
30.44699329796525
 30
0.0
 10
246.7191932444417
 20
30.41186924966226
 30
0.0
 10
246.7275606285462
 20
30.39346223869024
 30
0.0
 10
246.7369136560208
 20
30.33588698429427
 30
0.0
 10
246.7211352712664
 20
30.29730615163675
 30
0.0
 10
246.6879972826818
 20
30.26401433401939
 30
0.0
  0
LINE
  5
23A
330
1F
100
AcDbEntity
  8
0
  6
Continuous
 62
     7
370
    15
100
AcDbLine
 10
245.7055010551
 20
31.0209009607
 30
0.0
 11
246.6485314849
 21
30.4765010815
 31
0.0
  0
SPLINE
  5
23B
330
1F
100
AcDbEntity
  8
0
  6
Continuous
 62
     7
370
    15
100
AcDbSpline
210
0.0
220
0.0
230
1.0
 70
     8
 71
     3
 72
    10
 73
     6
 74
     0
 42
0.000000001
 43
0.00000001
 40
0.0
 40
0.0
 40
0.0
 40
0.0
 40
0.5
 40
0.5
 40
1.0
 40
1.0
 40
1.0
 40
1.0
 10
245.3374233306155
 20
31.04368408081008
 30
0.0
 10
245.3954066045229
 20
31.06291836361454
 30
0.0
 10
245.4623174215481
 20
31.07186683255879
 30
0.0
 10
245.593961133207
 20
31.06480931160362
 30
0.0
 10
245.658307964357
 20
31.04814495209446
 30
0.0
 10
245.705501055106
 20
31.02090096070975
 30
0.0
  0
SPLINE
  5
23C
330
1F
100
AcDbEntity
  8
0
  6
Continuous
 62
     7
370
    15
100
AcDbSpline
210
0.0
220
0.0
230
1.0
 70
     8
 71
     3
 72
     8
 73
     4
 74
     0
 42
0.000000001
 43
0.00000001
 40
0.0
 40
0.0
 40
0.0
 40
0.0
 40
1.0
 40
1.0
 40
1.0
 40
1.0
 10
244.3081355624031
 20
30.86713657202005
 30
0.0
 10
244.6514431807157
 20
30.92557611285396
 30
0.0
 10
244.9945755141065
 20
30.98439524516049
 30
0.0
 10
245.3374233306155
 20
31.04368408081008
 30
0.0
  0
LINE
  5
23D
330
1F
100
AcDbEntity
  8
0
  6
Continuous
 62
     7
370
    15
100
AcDbLine
 10
242.9056368316
 20
31.6767818555
 30
0.0
 11
244.3081355624
 21
30.867136572
 31
0.0
  0
LINE
  5
23E
330
1F
100
AcDbEntity
  8
0
  6
Continuous
 62
     7
370
    15
100
AcDbLine
 10
242.9056368316
 20
31.6767818555
 30
0.0
 11
244.6925070117
 21
32.7083200536
 31
0.0
  0
LINE
  5
23F
330
1F
100
AcDbEntity
  8
0
  6
Continuous
 62
     7
370
    15
100
AcDbLine
 10
247.8490498487
 20
28.2613058494
 30
0.0
 11
246.3737701488
 21
29.112966692
 31
0.0
  0
SPLINE
  5
240
330
1F
100
AcDbEntity
  8
0
  6
Continuous
 62
     7
370
    15
100
AcDbSpline
210
0.0
220
0.0
230
1.0
 70
     8
 71
     3
 72
     8
 73
     4
 74
     0
 42
0.000000001
 43
0.00000001
 40
0.0
 40
0.0
 40
0.0
 40
0.0
 40
0.0011140524372172
 40
0.0011140524372172
 40
0.0011140524372172
 40
0.0011140524372172
 10
246.3737701488286
 20
29.11296669204542
 30
0.0
 10
246.3758839784953
 20
29.29860366309181
 30
0.0
 10
246.3786615931024
 20
29.48422632103179
 30
0.0
 10
246.3821748910148
 20
29.66981915323042
 30
0.0
  0
ARC
  5
241
330
1F
100
AcDbEntity
  8
0
  6
Continuous
 62
     7
370
    15
100
AcDbCircle
 10
250.9444943549
 20
30.8765809572
 30
0.0
 40
4.899168811560199
100
AcDbArc
 50
201.0991116215
 51
233.7920489767
  0
LINE
  5
242
330
1F
100
AcDbEntity
  8
0
  6
Continuous
 62
     7
370
    15
100
AcDbLine
 10
230.4727194419
 20
46.2723410983
 30
0.0
 11
230.4389703408
 21
46.3016759997
 31
0.0
  0
LINE
  5
243
330
1F
100
AcDbEntity
  8
0
  6
Continuous
 62
     7
370
    15
100
AcDbLine
 10
266.3831516328
 20
27.9420900925
 30
0.0
 11
264.9689380705
 21
28.7584982043
 31
0.0
  0
ARC
  5
244
330
1F
100
AcDbEntity
  8
0
  6
Continuous
 62
     7
370
    15
100
AcDbCircle
 10
267.7367475166
 20
32.0960694026
 30
0.0
 40
2.182902395195995
100
AcDbArc
 50
353.7588101909
 51
13.7288361877
  0
LWPOLYLINE
  5
245
330
1F
100
AcDbEntity
  8
0
  6
Continuous
 62
     7
370
    15
100
AcDbPolyline
 90
       10
 70
   128
 43
0.0
 10
269.8572839527
 20
40.3866767509
 10
270.1678824304
 20
39.746005145
 10
270.4037634619
 20
39.0296453774
 10
270.5624227115
 20
38.2452029997
 10
270.6421757028
 20
37.4010063928
 10
270.6421757028
 20
36.506018345
 10
270.5624227115
 20
35.5697408944
 10
270.4037634619
 20
34.6021144463
 10
270.1678824304
 20
33.6134122367
 10
269.8572839527
 20
32.6141312617
  0
ELLIPSE
  5
246
330
1F
100
AcDbEntity
  8
0
  6
Continuous
 62
     7
370
    15
100
AcDbEllipse
 10
244.4581924367
 20
33.496819628
 30
0.0
 11
-6.005970382716441E-5
 21
0.8534489614827264
 31
0.0
210
0.0
220
0.0
230
1.0
 40
0.7174342186
 41
3.534193645557517
 42
5.104989972352387
  0
LINE
  5
247
330
1F
100
AcDbEntity
  8
0
  6
Continuous
 62
     7
370
    15
100
AcDbLine
 10
268.4430703904
 20
33.4305393735
 30
0.0
 11
269.8572839527
 21
32.6141312617
 31
0.0
  0
LINE
  5
248
330
1F
100
AcDbEntity
  8
0
  6
Continuous
 62
     7
370
    15
100
AcDbLine
 10
246.4457006196
 20
29.797213563
 30
0.0
 11
246.3553097407
 21
29.9076868297
 31
0.0
  0
ARC
  5
249
330
1F
100
AcDbEntity
  8
0
  6
Continuous
 62
     7
370
    15
100
AcDbCircle
 10
248.2386852706
 20
32.0123462075
 30
0.0
 40
4.50922553967913
100
AcDbArc
 50
199.7880748351
 51
257.9363582213
  0
SPLINE
  5
24A
330
1F
100
AcDbEntity
  8
0
  6
Continuous
 62
     7
370
    15
100
AcDbSpline
210
0.0
220
0.0
230
1.0
 70
     8
 71
     3
 72
     8
 73
     4
 74
     0
 42
0.000000001
 43
0.00000001
 40
0.0
 40
0.0
 40
0.0
 40
0.0
 40
0.0011140524372172
 40
0.0011140524372172
 40
0.0011140524372172
 40
0.0011140524372172
 10
244.3081355624031
 20
30.86713657202005
 30
0.0
 10
244.2044894608653
 20
30.73934917693107
 30
0.0
 10
244.1003332082639
 20
30.61225116097319
 30
0.0
 10
243.9957238568766
 20
30.48578359515989
 30
0.0
  0
ARC
  5
24B
330
1F
100
AcDbEntity
  8
0
  6
Continuous
 62
     7
370
    15
100
AcDbCircle
 10
249.6770651655
 20
32.7614656049
 30
0.0
 40
4.667254505571285
100
AcDbArc
 50
201.5953861387
 51
224.8616591509
  0
LINE
  5
24C
330
1F
100
AcDbEntity
  8
0
  6
Continuous
 62
     7
370
    15
100
AcDbLine
 10
242.5005839767
 20
31.442898871
 30
0.0
 11
242.9056368316
 21
31.6767818555
 31
0.0
  0
LINE
  5
24D
330
1F
100
AcDbEntity
  8
0
  6
Continuous
 62
     7
370
    15
100
AcDbLine
 10
243.9957238569
 20
30.4857835952
 30
0.0
 11
242.6038072515
 21
31.2893199477
 31
0.0
  0
SPLINE
  5
24E
330
1F
100
AcDbEntity
  8
0
  6
Continuous
 62
     7
370
    15
100
AcDbSpline
210
0.0
220
0.0
230
1.0
 70
     8
 71
     3
 72
     8
 73
     4
 74
     0
 42
0.000000001
 43
0.00000001
 40
0.0
 40
0.0
 40
0.0
 40
0.0
 40
1.0
 40
1.0
 40
1.0
 40
1.0
 10
242.6038072515217
 20
31.2893199476791
 30
0.0
 10
242.5541160103096
 20
31.31800609062913
 30
0.0
 10
242.5186386690019
 20
31.37672048500943
 30
0.0
 10
242.5005839767308
 20
31.44289887097948
 30
0.0
  0
ARC
  5
24F
330
1F
100
AcDbEntity
  8
0
  6
Continuous
 62
     7
370
    15
100
AcDbCircle
 10
246.7931981732
 20
32.658198572
 30
0.0
 40
4.355310401121544
100
AcDbArc
 50
217.9053686968
 51
239.7802598565
  0
SPLINE
  5
250
330
1F
100
AcDbEntity
  8
0
  6
Continuous
 62
     7
370
    15
100
AcDbSpline
210
0.0
220
0.0
230
1.0
 70
     8
 71
     3
 72
    12
 73
     8
 74
     0
 42
0.000000001
 43
0.00000001
 40
0.0
 40
0.0
 40
0.0
 40
0.0
 40
0.374080365711415
 40
0.4378664717815636
 40
0.6754972783753642
 40
0.9143909719226015
 40
0.9999999999999999
 40
0.9999999999999999
 40
0.9999999999999999
 40
0.9999999999999999
 10
257.5665811759819
 20
49.8833233931764
 30
0.0
 10
257.6130630134921
 20
49.895768249258
 30
0.0
 10
257.6674706757436
 20
49.91033513307163
 30
0.0
 10
257.7584070722666
 20
49.91503011793846
 30
0.0
 10
257.8319930032794
 20
49.91128966037201
 30
0.0
 10
257.9030520327457
 20
49.89243068563183
 30
0.0
 10
257.9353568244829
 20
49.8753535991849
 30
0.0
 10
257.9438793472187
 20
49.87084838959593
 30
0.0
  0
LINE
  5
251
330
1F
100
AcDbEntity
  8
0
  6
Continuous
 62
     7
370
    15
100
AcDbLine
 10
257.9438793472
 20
49.8708483896
 30
0.0
 11
259.3357959526
 21
49.0673120371
 31
0.0
  0
SPLINE
  5
252
330
1F
100
AcDbEntity
  8
0
  6
Continuous
 62
     7
370
    15
100
AcDbSpline
210
0.0
220
0.0
230
1.0
 70
     8
 71
     3
 72
     9
 73
     5
 74
     0
 42
0.000000001
 43
0.00000001
 40
0.0
 40
0.0
 40
0.0
 40
0.0
 40
0.3001771048041764
 40
1.0
 40
1.0
 40
1.0
 40
1.0
 10
259.3357959525736
 20
49.06731203707673
 30
0.0
 10
259.3234688159424
 20
49.04779367735319
 30
0.0
 10
259.2824026039168
 20
48.98277086444991
 30
0.0
 10
259.2392711153136
 20
48.91819354093134
 30
0.0
 10
259.209086712085
 20
48.87300085142258
 30
0.0
  0
ELLIPSE
  5
253
330
1F
100
AcDbEntity
  8
0
  6
Continuous
 62
     7
370
    15
100
AcDbEllipse
 10
244.3389536211
 20
33.4279621479
 30
0.0
 11
0.2600075789209484
 21
0.9705436209909308
 31
0.0
210
0.0
220
0.0
230
1.0
 40
0.5176380889
 41
3.619174351347741
 42
5.189970678142642
  0
LWPOLYLINE
  5
254
330
1F
100
AcDbEntity
  8
0
  6
Continuous
 62
     7
370
    15
100
AcDbPolyline
 90
        3
 70
   128
 43
0.0
 10
259.3357959526
 20
49.0673120371
 10
259.5134586593
 20
48.8821561366
 10
259.5542855847
 20
48.8365157077
  0
OLE2FRAME
  5
255
330
1F
100
AcDbEntity
  8
0
100
AcDbOle2Frame
 70
     2
  3
Paintbrush-Bild
 10
13.8511154363
 20
38.264191557
 30
0.0
 11
51.6290888628
 21
31.9806341108
 31
0.0
 71
     2
 72
     0
 73
     1
 90
    12928
310
80552BED0767C5B32B40DDAF6807D121434000000000000000006FFBDDFB85D0
310
4940DDAF6807D121434000000000000000006FFBDDFB85D04940416F4BD60AFB
310
3F4000000000000000002BED0767C5B32B40416F4BD60AFB3F40000000000000
310
0000000000000100000000010000010000000100000000000100000000320000
310
D0CF11E0A1B11AE1000000000000000000000000000000003E000300FEFF0900
310
0600000000000000000000000100000001000000000000000010000002000000
310
01000000FEFFFFFF0000000000000000FFFFFFFFFFFFFFFFFFFFFFFFFFFFFFFF
310
FFFFFFFFFFFFFFFFFFFFFFFFFFFFFFFFFFFFFFFFFFFFFFFFFFFFFFFFFFFFFFFF
310
FFFFFFFFFFFFFFFFFFFFFFFFFFFFFFFFFFFFFFFFFFFFFFFFFFFFFFFFFFFFFFFF
310
FFFFFFFFFFFFFFFFFFFFFFFFFFFFFFFFFFFFFFFFFFFFFFFFFFFFFFFFFFFFFFFF
310
FFFFFFFFFFFFFFFFFFFFFFFFFFFFFFFFFFFFFFFFFFFFFFFFFFFFFFFFFFFFFFFF
310
FFFFFFFFFFFFFFFFFFFFFFFFFFFFFFFFFFFFFFFFFFFFFFFFFFFFFFFFFFFFFFFF
310
FFFFFFFFFFFFFFFFFFFFFFFFFFFFFFFFFFFFFFFFFFFFFFFFFFFFFFFFFFFFFFFF
310
FFFFFFFFFFFFFFFFFFFFFFFFFFFFFFFFFFFFFFFFFFFFFFFFFFFFFFFFFFFFFFFF
310
FFFFFFFFFFFFFFFFFFFFFFFFFFFFFFFFFFFFFFFFFFFFFFFFFFFFFFFFFFFFFFFF
310
FFFFFFFFFFFFFFFFFFFFFFFFFFFFFFFFFFFFFFFFFFFFFFFFFFFFFFFFFFFFFFFF
310
FFFFFFFFFFFFFFFFFFFFFFFFFFFFFFFFFFFFFFFFFFFFFFFFFFFFFFFFFFFFFFFF
310
FFFFFFFFFFFFFFFFFFFFFFFFFFFFFFFFFFFFFFFFFFFFFFFFFFFFFFFFFFFFFFFF
310
FFFFFFFFFFFFFFFFFFFFFFFFFFFFFFFFFFFFFFFFFFFFFFFFFFFFFFFFFFFFFFFF
310
FFFFFFFFFFFFFFFFFFFFFFFFFFFFFFFFFFFFFFFFFFFFFFFFFFFFFFFFFFFFFFFF
310
FDFFFFFFFEFFFFFFFEFFFFFFFEFFFFFF05000000060000000700000008000000
310
090000000A0000000B0000000C0000000D0000000E0000000F00000010000000
310
11000000120000001300000014000000150000001600000017000000FEFFFFFF
310
FFFFFFFFFFFFFFFFFFFFFFFFFFFFFFFFFFFFFFFFFFFFFFFFFFFFFFFFFFFFFFFF
310
FFFFFFFFFFFFFFFFFFFFFFFFFFFFFFFFFFFFFFFFFFFFFFFFFFFFFFFFFFFFFFFF
310
FFFFFFFFFFFFFFFFFFFFFFFFFFFFFFFFFFFFFFFFFFFFFFFFFFFFFFFFFFFFFFFF
310
FFFFFFFFFFFFFFFFFFFFFFFFFFFFFFFFFFFFFFFFFFFFFFFFFFFFFFFFFFFFFFFF
310
FFFFFFFFFFFFFFFFFFFFFFFFFFFFFFFFFFFFFFFFFFFFFFFFFFFFFFFFFFFFFFFF
310
FFFFFFFFFFFFFFFFFFFFFFFFFFFFFFFFFFFFFFFFFFFFFFFFFFFFFFFFFFFFFFFF
310
FFFFFFFFFFFFFFFFFFFFFFFFFFFFFFFFFFFFFFFFFFFFFFFFFFFFFFFFFFFFFFFF
310
FFFFFFFFFFFFFFFFFFFFFFFFFFFFFFFFFFFFFFFFFFFFFFFFFFFFFFFFFFFFFFFF
310
FFFFFFFFFFFFFFFFFFFFFFFFFFFFFFFFFFFFFFFFFFFFFFFFFFFFFFFFFFFFFFFF
310
FFFFFFFFFFFFFFFFFFFFFFFFFFFFFFFFFFFFFFFFFFFFFFFFFFFFFFFFFFFFFFFF
310
FFFFFFFFFFFFFFFFFFFFFFFFFFFFFFFFFFFFFFFFFFFFFFFFFFFFFFFFFFFFFFFF
310
FFFFFFFFFFFFFFFFFFFFFFFFFFFFFFFFFFFFFFFFFFFFFFFFFFFFFFFFFFFFFFFF
310
FFFFFFFFFFFFFFFFFFFFFFFFFFFFFFFFFFFFFFFFFFFFFFFFFFFFFFFFFFFFFFFF
310
52006F006F007400200045006E00740072007900000000000000000000000000
310
0000000000000000000000000000000000000000000000000000000000000000
310
16000500FFFFFFFFFFFFFFFF020000000A00030000000000C000000000000046
310
0000000000000000000000008043031178FFD10103000000C000000000000000
310
01004F006C006500000000000000000000000000000000000000000000000000
310
0000000000000000000000000000000000000000000000000000000000000000
310
0A000200FFFFFFFFFFFFFFFFFFFFFFFF00000000000000000000000000000000
310
0000000000000000000000000000000000000000000000001400000000000000
310
010043006F006D0070004F0062006A0000000000000000000000000000000000
310
0000000000000000000000000000000000000000000000000000000000000000
310
120002010100000003000000FFFFFFFF00000000000000000000000000000000
310
0000000000000000000000000000000000000000010000004D00000000000000
310
01004F006C006500310030004E00610074006900760065000000000000000000
310
0000000000000000000000000000000000000000000000000000000000000000
310
1A000200FFFFFFFFFFFFFFFFFFFFFFFF00000000000000000000000000000000
310
0000000000000000000000000000000000000000040000002426000000000000
310
FEFFFFFF02000000FEFFFFFFFFFFFFFFFFFFFFFFFFFFFFFFFFFFFFFFFFFFFFFF
310
FFFFFFFFFFFFFFFFFFFFFFFFFFFFFFFFFFFFFFFFFFFFFFFFFFFFFFFFFFFFFFFF
310
FFFFFFFFFFFFFFFFFFFFFFFFFFFFFFFFFFFFFFFFFFFFFFFFFFFFFFFFFFFFFFFF
310
FFFFFFFFFFFFFFFFFFFFFFFFFFFFFFFFFFFFFFFFFFFFFFFFFFFFFFFFFFFFFFFF
310
FFFFFFFFFFFFFFFFFFFFFFFFFFFFFFFFFFFFFFFFFFFFFFFFFFFFFFFFFFFFFFFF
310
FFFFFFFFFFFFFFFFFFFFFFFFFFFFFFFFFFFFFFFFFFFFFFFFFFFFFFFFFFFFFFFF
310
FFFFFFFFFFFFFFFFFFFFFFFFFFFFFFFFFFFFFFFFFFFFFFFFFFFFFFFFFFFFFFFF
310
FFFFFFFFFFFFFFFFFFFFFFFFFFFFFFFFFFFFFFFFFFFFFFFFFFFFFFFFFFFFFFFF
310
FFFFFFFFFFFFFFFFFFFFFFFFFFFFFFFFFFFFFFFFFFFFFFFFFFFFFFFFFFFFFFFF
310
FFFFFFFFFFFFFFFFFFFFFFFFFFFFFFFFFFFFFFFFFFFFFFFFFFFFFFFFFFFFFFFF
310
FFFFFFFFFFFFFFFFFFFFFFFFFFFFFFFFFFFFFFFFFFFFFFFFFFFFFFFFFFFFFFFF
310
FFFFFFFFFFFFFFFFFFFFFFFFFFFFFFFFFFFFFFFFFFFFFFFFFFFFFFFFFFFFFFFF
310
FFFFFFFFFFFFFFFFFFFFFFFFFFFFFFFFFFFFFFFFFFFFFFFFFFFFFFFFFFFFFFFF
310
FFFFFFFFFFFFFFFFFFFFFFFFFFFFFFFFFFFFFFFFFFFFFFFFFFFFFFFFFFFFFFFF
310
FFFFFFFFFFFFFFFFFFFFFFFFFFFFFFFFFFFFFFFFFFFFFFFFFFFFFFFFFFFFFFFF
310
FFFFFFFFFFFFFFFFFFFFFFFFFFFFFFFFFFFFFFFFFFFFFFFFFFFFFFFFFFFFFFFF
310
0100000200000000000000000000000000000000000000000000000000000000
310
0000000000000000000000000000000000000000000000000000000000000000
310
0100FEFF030A0000FFFFFFFF0A00030000000000C00000000000004607000000
310
5042727573680007000000504272757368000700000050427275736800F439B2
310
7100000000000000000000000000000000000000000000000000000000000000
310
0000000000000000000000000000000000000000000000000000000000000000
310
0000000000000000000000000000000000000000000000000000000000000000
310
0000000000000000000000000000000000000000000000000000000000000000
310
0000000000000000000000000000000000000000000000000000000000000000
310
0000000000000000000000000000000000000000000000000000000000000000
310
0000000000000000000000000000000000000000000000000000000000000000
310
0000000000000000000000000000000000000000000000000000000000000000
310
0000000000000000000000000000000000000000000000000000000000000000
310
0000000000000000000000000000000000000000000000000000000000000000
310
0000000000000000000000000000000000000000000000000000000000000000
310
0000000000000000000000000000000000000000000000000000000000000000
310
20260000424D0E260000000000003E00000028000000B40200006E0000000100
310
01000000000000000000130B0000130B00000200000002000000000000FFFFFF
310
FFFFFFFFFFFFFFFFFFFFFFFFFFFFFFFFFFFFFFFFFFFFFFFFFFFFFFFFFFFFFFFF
310
FFFFFFFFFFFFFFFFFFFFFFFFFFFFFFFFFFFFFFFFFFFFFFFFFFFFFFFFFFFFFFFF
310
FFFFFFFFFFFFFFFFFFFFFFFFFFFFFFFFFFFFFFFFFFFFFFFFF000FFFFFFFFFFFF
310
FFFFFFFFFFFFFFFFFFFFFFFFFFFFFFFFFFFFFFFFFFFFFFFFFFFFFFFFFFFFFFFF
310
FFFFFFFFFFFFFFFFFFFFFFFFFFFFFFFFFFFFFFFFFFFFFFFFFFFFFFFFFFFFFFFF
310
FFFFFFFFFFFFFFFFFFFFFFFFFFFFFFFFF000FFFFFFFFFFFFFFFFFFFFFFFFFFFF
310
FFFFFFFFFFFFFFFFFFFFFFFFFFFFFFFFFFFFFFFFFFFFFFFFFFFFFFFFFFFFFFFF
310
FFFFFFFFFFFFFFFFFFFFFFFFFFFFFFFFFFFFFFFFFFFFFFFFFFFFFFFFFFFFFFFF
310
FFFFFFFFFFFFFFFFF000FFFFFFFFFFFFFFFFFFFFFFFFFFFFFFFFFFFFFFFFFFFF
310
FFFFFFFFFFFFFFFFFFFFFFFFFFFFFFFFFFFFFFFFFFFFFFFFFFFFFFFFFFFFFFFF
310
FFFFFFFFFFFFFFFFFFFFFFFFFFFFFFFFFFFFFFFFFFFFFFFFFFFFFFFFFFFFFFFF
310
F000FFFFFFFFFFFFFFFFFFFFFFFFFFFFFFFFFFFFFFFFFFFFFFFFFFFFFFFFFFFF
310
FFFFFFFFFFFFFFFFFFFFFFFFFFFFFFFFFFFFFFFFFFFFFFFFFFFFFFFFFFFFFFFF
310
FFFFFFFFFFFFFFFFFFFFFFFFFFFFFFFFFFFFFFFFFFFFFFFFF000FFFFFFFFFFFF
310
FFFFFFFFFFFFFFFFFFFFFFFFFFFFFFFFFFFFFFFFFFFFFFFFFFFFFFFFFFFFFFFF
310
FFFFFFFFFFFFFFFFFFFFFFFFFFFFFFFFFFFFFFFFFFFFFFFFFFFFFFFFFFFFFFFF
310
FFFFFFFFFFFFFFFFFFFFFFFFFFFFFFFFF000FFFFFFFFFFFFFFFFFFFFFFFFFFFF
310
FFFFFFFFFFFFFFFFFFFFFFFFFFFFFFFFFFFFFFFFFFFFFFFFFFFFFFFFFFFFFFFF
310
FFFFFFFFFFFFFFFFFFFFFFFFFFFFFFFFFFFFFFFFFFFFFFFFFFFFFFFFFFFFFFFF
310
FFFFFFFFFFFFFFFFF000FFFFFFFFFFFFFFFFFFFFFFFFFFFFFFFFFFFFFFFFFFFF
310
FFFFFFFFFFFFFFFFFFFFFFFFFFFFFFFFFFFFFFFFFFFFFFFFFFFFFFFFFFFFFFFF
310
FFFFFFFFFFFFFFFFFFFFFFFFFFFFFFFFFFFFFFFFFFFFFFFFFFFFFFFFFFFFFFFF
310
F000FFFFFFFFFFFFFFFFFFFFFFFFFFFFFFFFFFFFFFFFFFFFFFFFFFFFFFFFFFFF
310
FFFFFFFFFFFFFFFFFFFFFFFFFFFFFFFFFFFFFFFFFFFFFFFFFFFFFFFFFFFFFFFF
310
FFFFFFFFFFFFFFFFFFFFFFFFFFFFFFFFFFFFFFFFFFFFFFFFF000FFFFFFFFFFFF
310
FFFFFFFFFFFFFFFFFFFFFFFFFFFFFFFFFFFFFFFFFFFFFFFFFFFFFFFFFFFFFFFF
310
FFFFFFFFFFFFFFFFFFFFFFFFFFFFFFFFFFFFFFFFFFFFFFFFFFFFFFFFFFFFFFFF
310
FFFFFFFFFFFFFFFFFFFFFFFFFFFFFFFFF000FFFFFFFFFFFFFFFFFFFFFFFFFFFF
310
FFFFFFFFFFFFFFFFFFFFFFFFFFFFFFFFFFFFFFFFFFFFFFFFFFFFFFFFFFFFFFFF
310
FFFFFFFFFFFFFFFFFFFFFFFFFFFFFFFFFFFFFFFFFFFFFFFFFFFFFFFFFFFFFFFF
310
FFFFFFFFFFFFFFFFF000FFFFFFFFFFFFFFFFFFFFFFFFFFFFFFFFFFFFFFFFFFFF
310
FFFFFFFFFFFFFFFFFFFFFFFFFFFFFFFFFFFFFFFFFFFFFFFFFFFFFFFFFFFFFFFF
310
FFFFFFFFFFFFFFFFFFFFFFFFFFFFFFFFFFFFFFFFFFFFFFFFFFFFFFFFFFFFFFFF
310
F000FFFFFFFFFFFFFFFFFFFFFFFFFFFFFFFFFFFFFFFFFFFFFFFFFFFFFFFFFFFF
310
FFFFFFFFFFFFFFFFFFFFFFFFFFFFFFFFFFFFFFFFFFFFFFFFFFFFFFFFFFFFFFFF
310
FFFFFFFFFFFFFFFFFFFFFFFFFFFFFFFFFFFFFFFFFFFFFFFFF000FFFFFFFFFFFF
310
FFFFFFFFFFFFFFFFFFFFFFFFFFFFFFFFFFFFFFFFFFFFFFFFFFFFFFFFFFFFFFFF
310
FFFFFFFFFFFFFFFFFFFFFFFFFFFFFFFFFFFFFFFFFFFFFFFFFFFFFFFFFFFFFFFF
310
FFFFFFFFFFFFFFFFFFFFFFFFFFFFFFFFF000FFFFFFFFFFFFFFFFFFFFFFFFFFFF
310
FFFFFFFFFFFFFFFFFFFFFFFFFFFFFFFFFFFFFFFFFFFFFFFFFFFFFFFFFFFFFFFF
310
FFFFFFFFFFFFFFFFFFFFFFFFFFFFFFFFFFFFFFFFFFFFFFFFFFFFFFFFFFFFFFFF
310
FFFFFFFFFFFFFFFFF000FFFFFFFFFFFFFFFFFFFFFFFFFFFFFFFFFFFFFFFFFFFF
310
FFFFFFFFFFFFFFFFFFFFFFFFFFFFFFFFFFFFFFFFFFFFFFFFFFFFFFFFFFFFFFFF
310
FFFFFFFFFFFFFFFFFFFFFFFFFFFFFFFFFFFFFFFFFFFFFFFFFFFFFFFFFFFFFFFF
310
F000FFFFFFFFFFFFFFFFFFFFFFFFFFFFFFFFFFFFFFFFFFFFFFFFFFFFFFFFFFFF
310
FFFFFFFFFFFFFFFFFFFFFFFFFFFFFFFFFFFFFFFFFFFFFFFFFFFFFFFFFFFFFFFF
310
FFFFFFFFFFFFFFFFFFFFFFFFFFFFFFFFFFFFFFFFFFFFFFFFF000FFFFFFFFFFFF
310
FFFFFFFFFFFFFFFFFFFFFFFFFFFFFFFFFFFFFFFFFFFFFFFFFFFFFFFFFFFFFFFF
310
FFFFFFFFFFFFFFFFFFFFFFFFFFFFFFFFFFFFFFFFFFFFFFFFFFFFFFFFFFFFFFFF
310
FFFFFFFFFFFFFFFFFFFFFFFFFFFFFFFFF000FFFFFFFFFFFFFFFFFFFFFFFFFFFF
310
FFFFFFFFFFFFFFFFFFFFFFFFFFFFFFFFFFFFFFFFFFFFFFFFFFFFFFFFFFFFFFFF
310
FFFFFFFFFFFFFFFFFFFFFFFFFFFFFFFFFFFFFFFFFFFFFFFFFFFFFFFFFFFFFFFF
310
FFFFFFFFFFFFFFFFF000FFFFF80003FFFFFFFFFFFFFFFFFFFFFFFFFFFFFFFFFF
310
FFFFF00007FFFFFFFFFF00007FFFFFF800000000000000007FFFFFFFFFFFFFFF
310
FFFFFFFC001FFFFFFFFFFFFFFC001FFFFFFFFFFFFFFFFFFFFFFFFFFE0007FFFF
310
F000FFFF8000007FFFFFFFF8000FFFFFC0007FFFFF80007FFFFF0000007FFFFF
310
FFF8000007FFFFF800000000000000007FFFFFF0001FFFFFFFFFFFC00001FFFF
310
FFFFFFFFC00001FFFFFFFF000000000003FFFFE000007FFFF000FFFE0000000F
310
FFFFFFF0000FFFFF80007FFFFF80007FFFFC0000001FFFFFFFC0000001FFFFF8
310
00000000000000007FFFFFF0001FFFFFFFFFFE0000003FFFFFFFFFFE0000003F
310
FFFFFF000000000003FFFF0000000FFFF000FFF800000003FFFFFFF00007FFFF
310
80007FFFFF80007FFFF000000007FFFFFF000000003FFFF80000000000000000
310
7FFFFFF0001FFFFFFFFFF80000000FFFFFFFFFF80000000FFFFFFF0000000000
310
03FFFC00000003FFF000FFE000000000FFFFFFF00007FFFF80003FFFFF80007F
310
FFC000000001FFFFFC000000001FFFF800000000000000007FFFFFF0001FFFFF
310
FFFFE000000003FFFFFFFFE000000003FFFFFF000000000003FFF000000000FF
310
F000FF80000000007FFFFFF00007FFFF80003FFFFF80007FFF8000000000FFFF
310
F80000000007FFF800000000000000007FFFFFF0001FFFFFFFFFC000000001FF
310
FFFFFFC000000001FFFFFF000000000003FFC0000000007FF000FF0000000000
310
3FFFFFE00007FFFF00003FFFFF80007FFE00000000003FFFF00000000003FFF8
310
00000000000000007FFFFFF0001FFFFFFFFF8000000000FFFFFFFF8000000000
310
FFFFFF000000000003FF80000000003FF000FE00000000001FFFFFE00003FFFF
310
00003FFFFF80007FFC00000000001FFFE00000000001FFF8000001FFFE000000
310
7FFFFFF0001FFFFFFFFE00000000003FFFFFFE00000000003FFFFF0000000000
310
03FF00000000001FF000FC00000000000FFFFFE00003FFFF00001FFFFF80007F
310
F800000000001FFFC00000000000FFF8000001FFFE0000007FFFFFF0001FFFFF
310
FFFC00000000001FFFFFFC00000000001FFFFF000000000003FE00000000000F
310
F000F8000000000007FFFFE00003FFFF00001FFFFF80007FF800000000000FFF
310
800000000000FFF8000001FFFE0000007FFFFFF0001FFFFFFFF800000000000F
310
FFFFF800000000000FFFFF000000000003FC000000000007F000F80000000000
310
03FFFFC00003FFFE00001FFFFF80007FF0000000000007FF0000000000007FF8
310
000001FFFE0000007FFFFFF0001FFFFFFFF0000000000007FFFFF00000000000
310
07FFFF000000000003F8000000000003F000F0000000000003FFFFC00001FFFE
310
00001FFFFF80007FE0000000000007FE0000000000003FF8000001FFFE000000
310
7FFFFFF0001FFFFFFFF0000000000007FFFFF0000000000007FFFF0000000000
310
03F800001F800003F000E00001FFF00001FFFFC00001FFFE00000FFFFF80007F
310
E00001FFE00003FE00001FFF00003FF8000001FFFE0000007FFFFFF0001FFFFF
310
FFE000003E000003FFFFE000003E000003FFFF000000000003F00001FFF80001
310
F000E00007FFFC0001FFFFC00001FFFE00000FFFFF80007FC0000FFFFC0003FC
310
0000FFFFC0001FF8000001FFFE0000007FFFFFF0001FFFFFFFC00003FFE00001
310
FFFFC00003FFE00001FFFF0001FFFFFFFFF00007FFFE0001F000E0000FFFFF00
310
00FFFF800001FFFC00000FFFFF80007FC0001FFFFE0001FC0001FFFFE0001FF8
310
000001FFFE0000007FFFFFF0001FFFFFFF80000FFFF80000FFFF80000FFFF800
310
00FFFF0003FFFFFFFFE0000FFFFF8000F000C0003FFFFF8000FFFF800000FFFC
310
000007FFFF80007F80003FFFFF0001FC0003FFFFF0001FF8000001FFFE000000
310
7FFFFFF0001FFFFFFF80003FFFFE0000FFFF80003FFFFE0000FFFF0003FFFFFF
310
FFE0003FFFFF8000F000C0003FFFFF8000FFFF800000FFFC000007FFFF80007F
310
80007FFFFF8001F80007FFFFF8000FF8000001FFFE0000007FFFFFF0001FFFFF
310
FF00007FFFFF00007FFF00007FFFFF00007FFF0003FFFFFFFFE0003FFFFFC000
310
F000C0007FFFFFC000FFFF000000FFFC000007FFFF80007F8000FFFFFF8000F8
310
000FFFFFF8000FF8000001FFFE0000007FFFFFF0001FFFFFFF0000FFFFFF8000
310
7FFF0000FFFFFF80007FFF0003FFFFFFFFC0007FFFFFC00070008000FFFFFFC0
310
00FFFF000000FFF8000007FFFF80007F8000FFFFFF8000F8000FFFFFF8000FF8
310
000001FFFE0000007FFFFFF0001FFFFFFE0001FFFFFFC0003FFE0001FFFFFFC0
310
003FFF0003FFFFFFFFC0007FFFFFE00070008000FFFFFFC0007FFF0000007FF8
310
000003FFFF80007F0001FFFFFF8000F8000FFFFFF8000FF8000001FFFE000000
310
7FFFFFF0001FFFFFFE0001FFFFFFC0003FFE0001FFFFFFC0003FFF0003FFFFFF
310
FFC000FFFFFFE00070008000FFFFFFC0007FFF0000007FF8000003FFFF80007F
310
0001FFFFFF8000F8001FFFFFF8000FF8000001FFFE0000007FFFFFF0001FFFFF
310
FE0003FFFFFFE0003FFE0003FFFFFFE0003FFF0003FFFFFFFFC000FFFFFFE000
310
70008000FFFFFFC0007FFE0000007FF8000003FFFF80007F0001FFFFFF8000F0
310
001FFFFFF8000FF8000001FFFE0000007FFFFFF0001FFFFFFC0003FFFFFFE000
310
1FFC0003FFFFFFE0001FFF0003FFFFFFFFC000FFFFFFC00070008000FFFFFF80
310
007FFE0000007FF0000003FFFF80007F0001FFFFFF0000F0001FFFFFF8000FF8
310
000001FFFE0000007FFFFFF0001FFFFFFC0007FFFFFFF0001FFC0007FFFFFFF0
310
001FFF0003FFFFFFFFC000FFFFFFC00070008001FFFFFF0000FFFE0000003FF0
310
000001FFFF80007F0001FFFFFF0000F8001FFFFFF0000FF8000001FFFE000000
310
7FFFFFF0001FFFFFFC0007FFFFFFF0001FFC0007FFFFFFF0001FFF0003FFFFFF
310
FFC001FFFFFF80007000FFFFFFFFFE0000FFFE0008003FF0008001FFFF80007F
310
FFFFFFFFFC0000FFFFFFFFFFE0000FF8000001FFFE0000007FFFFFF0001FFFFF
310
F8000FFFFFFFF8000FF8000FFFFFFFF8000FFF0003FFFFFFFFFFFFFFFFFF0000
310
7000FFFFFFFFFC0000FFFC0008003FF0008001FFFF80007FFFFFFFFFF80001FF
310
FFFFFFFF80000FF8000001FFFE0000007FFFFFF0001FFFFFF8000FFFFFFFF800
310
0FF8000FFFFFFFF8000FFF0003FFFFFFFFFFFFFFFFFE0000F000FFFFFFFFE000
310
00FFFC000C003FE000C001FFFF80007FFFFFFFFFC00001FFFFFFFFFE00001FF8
310
000001FFFE0000007FFFFFF0001FFFFFF8000FFFFFFFF8000FF8000FFFFFFFF8
310
000FFF0003FFFFFFFFFFFFFFFFF00000F000FFFFFFFE000001FFFC000C001FE0
310
00C000FFFF80007FFFFFFFFE000001FFFFFFFFE000001FF80FFFFFFFFFFFFFC0
310
7FFFFFF0001FFFFFF8000FFFFFFFF8000FF8000FFFFFFFF8000FFF0003FFFFFF
310
FFFFFFFFFF800000F000FFFFFFC0000001FFFC001C001FE001C000FFFF80007F
310
FFFFFF80000003FFFFFFF80000001FF80FFFFFFFFFFFFFC07FFFFFF0001FFFFF
310
F8001FFFFFFFFC000FF8001FFFFFFFFC000FFF0003FFFFFFFFFFFFFFF0000001
310
F000FFFFF800000001FFF8001C001FE001C000FFFF80007FFFFFF800000003FF
310
FFFF800000003FF80FFFFFFFFFFFFFC07FFFFFF0001FFFFFF8001FFFFFFFFC00
310
0FF8001FFFFFFFFC000FFF0003FFFFFFFFFFFFFE00000001F000FFFFC0000000
310
03FFF8001E001FC001E000FFFF80007FFFFF8000000007FFFFFC000000003FF8
310
0FFFFFFFFFFFFFC07FFFFFF0001FFFFFF8001FFFFFFFFC000FF8001FFFFFFFFC
310
000FFF0003FFFFFFFFFFFFE000000003F000FFFE0000000007FFF8001E000FC0
310
01E0007FFF80007FFFFE0000000007FFFFE0000000007FF80FFFFFFFFFFFFFC0
310
7FFFFFF0001FFFFFF0001FFFFFFFFC0007F0001FFFFFFFFC0007FF0003FFFFFF
310
FFFFFF0000000003F000FFF80000000007FFF8001E000FC003E0007FFF80007F
310
FFF0000000000FFFFF8000000000FFF80FFFFFFFFFFFFFC07FFFFFF0001FFFFF
310
F0001FFFFFFFFC0007F0001FFFFFFFFC0007FF0003FFFFFFFFFFFC0000000007
310
F000FFE0000000000FFFF0003E000FC003E0007FFF80007FFFC0000000001FFF
310
FE0000000001FFF80FFFFFFFFFFFFFC07FFFFFF0001FFFFFF0001FFFFFFFFC00
310
07F0001FFFFFFFFC0007FF0003FFFFFFFFFFF0000000000FF000FFC000000000
310
1FFFF0003F000F8003F0003FFF80007FFF80000000003FFFF80000000003FFF8
310
0FFFFFFFFFFFFFC07FFFFFF0001FFFFFF0001FFFFFFFFC0007F0001FFFFFFFFC
310
0007FF0003FFFFFFFFFFE0000000001FF000FF00000000007FFFF0003F000780
310
03F0003FFF80007FFF00000000007FFFF00000000007FFF80FFFFFFFFFFFFFC0
310
7FFFFFF0001FFFFFF0001FFFFFFFFC0007F0001FFFFFFFFC0007FF0003FFFFFF
310
FFFF80000000007FF000FE0000000000FFFFE0003F00078007F0003FFF80007F
310
FE0000000001FFFFE0000000001FFFF80FFFFFFFFFFFFFC07FFFFFF0001FFFFF
310
F0001FFFFFFFFC0007F0001FFFFFFFFC0007FF0003FFFFFFFFFF0000000000FF
310
F000FC0000000003FFFFE0007F00078007F0003FFF80007FFC0000000007FFFF
310
C0000000007FFFF80FFFFFFFFFFFFFC07FFFFFF0001FFFFFF8001FFFFFFFFC00
310
0FF8001FFFFFFFFC000FFF0003FFFFFFFFFE0000000003FFF000FC000000000F
310
FFFFE0007F80070007F8001FFF80007FF8000000001FFFFF8000000001FFFFF8
310
0FFFFFFFFFFFFFC07FFFFFF0001FFFFFF8001FFFFFFFFC000FF8001FFFFFFFFC
310
000FFF0003FFFFFFFFFC000000000FFFF000F8000000007FFFFFE0007F800700
310
07F8001FFF80007FF000000000FFFFFF800000000FFFFFF80FFFFFFFFFFFFFC0
310
7FFFFFF0001FFFFFF8000FFFFFFFF8000FF8000FFFFFFFF8000FFF0003FFFFFF
310
FFFC000000007FFFF000F800000007FFFFFFC0007F8003000FF8001FFF80007F
310
F000000007FFFFFF000000007FFFFFF80FFFFFFFFFFFFFC07FFFFFF0001FFFFF
310
F8000FFFFFFFF8000FF8000FFFFFFFF8000FFF0003FFFFFFFFF80000000FFFFF
310
F000F0000000FFFFFFFFC000FF8003000FF8001FFF80007FE0000000FFFFFFFF
310
0000000FFFFFFFF8000001FFFE0000007FFFFFF0001FFFFFF8000FFFFFFFF800
310
0FF8000FFFFFFFF8000FFF0003FFFFFFFFF8000000FFFFFFF000F000000FFFFF
310
FFFFC000FFC002000FF8000FFF80007FE000001FFFFFFFFE000001FFFFFFFFF8
310
000001FFFE0000007FFFFFF0001FFFFFF8000FFFFFFFF8000FF8000FFFFFFFF8
310
000FFF0003FFFFFFFFF000001FFFFFFFF000E00000FFFFFFFFFFC000FFC00200
310
0FFC000FFF80007FE00001FFFFFFFFFE00001FFFFFFFFFF8000001FFFE000000
310
7FFFFFF0001FFFFFFC000FFFFFFFF8001FFC000FFFFFFFF8001FFF0003FFFFFF
310
FFF00001FFFFFFFFF000E00007FFFFFFFFFF8000FFC000001FFC000FFF80007F
310
C0000FFFFFFFFFFE0000FFFFFFFFFFF8000001FFFE0000007FFFFFF0001FFFFF
310
FC0007FFFFFFF0001FFC0007FFFFFFF0001FFF0003FFFFFFFFF00007FFFFFFFF
310
F000E0001FFFFFFFFFFF8000FFC000001FFC000FFF80007FC0003FFFFFFFFFFE
310
0001FFFFFFFFFFF8000001FFFE0000007FFFFFF0001FFFFFFC0007FFFFFFF000
310
1FFC0007FFFFFFF0001FFF0003FFFFFFFFF0001FFFFFFFFFF000E0003FFFFF00
310
03FF8001FFE000001FFC0007FF80007FC0007FFFFF0007FC0003FFFFF0003FF8
310
000001FFFE0000007FFFFFF0001FFFFFFC0003FFFFFFE0001FFC0003FFFFFFE0
310
001FFF0003FFFFFFFFF0003FFFFFFFFFF000E0003FFFFF0001FF8001FFE00000
310
1FFE0007FF80007FC0007FFFFE0003FC0007FFFFE0003FF8000001FFFE000000
310
7FFFFFF0001FFFFFFE0003FFFFFFE0003FFE0003FFFFFFE0003FFF0003FFFFFF
310
FFF0003FFFFF8001F000E0003FFFFF0001FF0001FFE000001FFE0007FF80007F
310
C0007FFFFE0003FC0007FFFFE0003FF8000001FFFE0000007FFFFFF0001FFFFF
310
FE0001FFFFFFC0003FFE0001FFFFFFC0003FFF0003FFFFFFFFF0003FFFFF0001
310
F000E0003FFFFF0003FF0001FFE000003FFE0007FF80007FC0007FFFFE0003FC
310
0007FFFFE0003FF8000001FFFE0000007FFFFFF0001FFFFFFF0001FFFFFFC000
310
7FFF0001FFFFFFC0007FFF0003FFFFFFFFF0003FFFFF0001F000E0003FFFFE00
310
03FF0003FFF000003FFE0003FF80007FC0007FFFFC0003FE0007FFFFE0003FF8
310
000001FFFE0000007FFFFFF0001FFFFFFF0000FFFFFF80007FFF0000FFFFFF80
310
007FFF0003FFFFFFFFF0003FFFFF0001F000E0003FFFFE0003FF0003FFF00000
310
3FFF0003FF80007FC0007FFFFC0007FE0007FFFFC0003FF8000001FFFE000000
310
7FFFFFF0001FFFFFFF80007FFFFF0000FFFF80007FFFFF0000FFFF0003FFFFFF
310
FFF0003FFFFF0003F000E0003FFFFC0003FE0003FFF000003FFF0003FF80007F
310
E0003FFFF80007FE0003FFFFC0007FF8000001FFFE0000007FFFFFF0001FFFFF
310
FF80003FFFFE0000FFFF80003FFFFE0000FFFF0003FFFFFFFFF0001FFFFE0003
310
F000F0001FFFF80003FE0003FFF000007FFF0001FF80007FE0003FFFF00007FE
310
0001FFFF80007FF8000001FFFE0000007FFFFFF0001FFFFFFFC0000FFFF80001
310
FFFFC0000FFFF80001FFFF0003FFFFFFFFF0001FFFFC0003F000F0000FFFF000
310
07FE0007FFF800007FFF0001FF80007FE0001FFFE00007FF0000FFFE00007FF8
310
000001FFFE0000007FFFFFF0001FFFFFFFC00003FFE00001FFFFC00003FFE000
310
01FFFF0003FFFFFFFFF8000FFFF80003F000F00003FFC00007FC0007FFF80000
310
7FFF8001FF80007FF00007FF80000FFF00007FF80000FFF8000001FFFE000000
310
7F80000000000001FFE000003E000003FFFFE000003E000003FFFF0003FFFFFF
310
FFF80003FFE00007F000F800000000000FFC0007FFF800007FFF8001FF80007F
310
F000000000000FFF000000000000FFF8000001FFFE0000007F80000000000001
310
FFF0000000000007FFFFF0000000000007FFFF0003FFFFFFFFFC00007E000007
310
F000F800000000000FFC0007FFF80000FFFF8000FF80007FF800000000001FFF
310
800000000001FFF8000001FFFE0000007F80000000000001FFF800000000000F
310
FFFFF800000000000FFFFF0003FFFFFFFFFC00000000000FF000FC0000000000
310
1FFC0007FFFC0000FFFF8000FF80007FF800000000003FFFC00000000001FFF8
310
000001FFFE0000007F80000000000001FFF800000000000FFFFFF80000000000
310
0FFFFF0003FFFFFFFFFE00000000001FF000FE00000000003FF8000FFFFC0000
310
FFFF8000FF80007FFC00000000003FFFC00000000003FFF8000001FFFE000000
310
7F80000000000001FFFC00000000001FFFFFFC00000000001FFFFF0003FFFFFF
310
FFFF00000000001FF000FF00000000003FF8000FFFFC0000FFFFC000FF80007F
310
FE00000000007FFFE00000000007FFF8000001FFFE0000007F80000000000001
310
FFFE00000000003FFFFFFE00000000003FFFFF0003FFFFFFFFFF80000000003F
310
F000FF80000000007FF8000FFFFC0001FFFFC0007F80007FFF0000000000FFFF
310
F0000000000FFFF800000000000000007F80000000000001FFFF8000000000FF
310
FFFFFF8000000000FFFFFF0003FFFFFFFFFFC0000000007FF000FFC000000000
310
FFF8000FFFFE0001FFFFC0007F80007FFF8000000001FFFFF8000000001FFFF8
310
00000000000000007F80000000000001FFFFC000000001FFFFFFFFC000000001
310
FFFFFF0003FFFFFFFFFFE000000000FFF000FFE000000003FFF0001FFFFE0001
310
FFFFC0007F80007FFFC000000007FFFFFE000000003FFFF80000000000000000
310
7F80000000000001FFFFE000000003FFFFFFFFE000000003FFFFFF0003FFFFFF
310
FFFFF000000003FFF000FFF80000000FFFF0001FFFFE0001FFFFE0007F80007F
310
FFF00000000FFFFFFF00000000FFFFF800000000000000007F80000000000001
310
FFFFF80000000FFFFFFFFFF80000000FFFFFFF0003FFFFFFFFFFFC0000000FFF
310
F000FFFE0000003FFFF0001FFFFE0003FFFFE0003F80007FFFFC0000003FFFFF
310
FFC0000003FFFFF800000000000000007F80000000000001FFFFFE0000003FFF
310
FFFFFFFE0000003FFFFFFF0003FFFFFFFFFFFF0000003FFFF000FFFF800000FF
310
FFF0001FFFFF0003FFFFE0003F80007FFFFF000001FFFFFFFFF800001FFFFFF8
310
00000000000000007F80000000000001FFFFFFC00001FFFFFFFFFFFFC00001FF
310
FFFFFF0003FFFFFFFFFFFFC00000FFFFF000FFFFF8000FFFFFFFFFFFFFFFFFFF
310
FFFFFFFFFFFFFFFFFFFFF0001FFFFFFFFFFF0000FFFFFFF80000000000000000
310
7FFFFFFFFFFFFFFFFFFFFFFC001FFFFFFFFFFFFFFC001FFFFFFFFFFFFFFFFFFF
310
FFFFFFFC001FFFFFF000FFFFFFFFFFFFFFFFFFFFFFFFFFFFFFFFFFFFFFFFFFFF
310
FFFFFFFFFFFFFFFFFFFFFFFFFFFFFFFFFFFFFFFFFFFFFFFFFFFFFFFFFFFFFFFF
310
FFFFFFFFFFFFFFFFFFFFFFFFFFFFFFFFFFFFFFFFFFFFFFFFFFFFFFFFFFFFFFFF
310
F000FFFFFFFFFFFFFFFFFFFFFFFFFFFFFFFFFFFFFFFFFFFFFFFFFFFFFFFFFFFF
310
FFFFFFFFFFFFFFFFFFFFFFFFFFFFFFFFFFFFFFFFFFFFFFFFFFFFFFFFFFFFFFFF
310
FFFFFFFFFFFFFFFFFFFFFFFFFFFFFFFFFFFFFFFFFFFFFFFFF000FFFFFFFFFFFF
310
FFFFFFFFFFFFFFFFFFFFFFFFFFFFFFFFFFFFFFFFFFFFFFFFFFFFFFFFFFFFFFFF
310
FFFFFFFFFFFFFFFFFFFFFFFFFFFFFFFFFFFFFFFFFFFFFFFFFFFFFFFFFFFFFFFF
310
FFFFFFFFFFFFFFFFFFFFFFFFFFFFFFFFF000FFFFFFFFFFFFFFFFFFFFFFFFFFFF
310
FFFFFFFFFFFFFFFFFFFFFFFFFFFFFFFFFFFFFFFFFFFFFFFFFFFFFFFFFFFFFFFF
310
FFFFFFFFFFFFFFFFFFFFFFFFFFFFFFFFFFFFFFFFFFFFFFFFFFFFFFFFFFFFFFFF
310
FFFFFFFFFFFFFFFFF000FFFFFFFFFFFFFFFFFFFFFFFFFFFFFFFFFFFFFFFFFFFF
310
FFFFFFFFFFFFFFFFFFFFFFFFFFFFFFFFFFFFFFFFFFFFFFFFFFFFFFFFFFFFFFFF
310
FFFFFFFFFFFFFFFFFFFFFFFFFFFFFFFFFFFFFFFFFFFFFFFFFFFFFFFFFFFFFFFF
310
F000FFFFFFFFFFFFFFFFFFFFFFFFFFFFFFFFFFFFFFFFFFFFFFFFFFFFFFFFFFFF
310
FFFFFFFFFFFFFFFFFFFFFFFFFFFFFFFFFFFFFFFFFFFFFFFFFFFFFFFFFFFFFFFF
310
FFFFFFFFFFFFFFFFFFFFFFFFFFFFFFFFFFFFFFFFFFFFFFFFF000FFFFFFFFFFFF
310
FFFFFFFFFFFFFFFFFFFFFFFFFFFFFFFFFFFFFFFFFFFFFFFFFFFFFFFFFFFFFFFF
310
FFFFFFFFFFFFFFFFFFFFFFFFFFFFFFFFFFFFFFFFFFFFFFFFFFFFFFFFFFFFFFFF
310
FFFFFFFFFFFFFFFFFFFFFFFFFFFFFFFFF000FFFFFFFFFFFFFFFFFFFFFFFFFFFF
310
FFFFFFFFFFFFFFFFFFFFFFFFFFFFFFFFFFFFFFFFFFFFFFFFFFFFFFFFFFFFFFFF
310
FFFFFFFFFFFFFFFFFFFFFFFFFFFFFFFFFFFFFFFFFFFFFFFFFFFFFFFFFFFFFFFF
310
FFFFFFFFFFFFFFFFF000FFFFFFFFFFFFFFFFFFFFFFFFFFFFFFFFFFFFFFFFFFFF
310
FFFFFFFFFFFFFFFFFFFFFFFFFFFFFFFFFFFFFFFFFFFFFFFFFFFFFFFFFFFFFFFF
310
FFFFFFFFFFFFFFFFFFFFFFFFFFFFFFFFFFFFFFFFFFFFFFFFFFFFFFFFFFFFFFFF
310
F000FFFFFFFFFFFFFFFFFFFFFFFFFFFFFFFFFFFFFFFFFFFFFFFFFFFFFFFFFFFF
310
FFFFFFFFFFFFFFFFFFFFFFFFFFFFFFFFFFFFFFFFFFFFFFFFFFFFFFFFFFFFFFFF
310
FFFFFFFFFFFFFFFFFFFFFFFFFFFFFFFFFFFFFFFFFFFFFFFFF000FFFFFFFFFFFF
310
FFFFFFFFFFFFFFFFFFFFFFFFFFFFFFFFFFFFFFFFFFFFFFFFFFFFFFFFFFFFFFFF
310
FFFFFFFFFFFFFFFFFFFFFFFFFFFFFFFFFFFFFFFFFFFFFFFFFFFFFFFFFFFFFFFF
310
FFFFFFFFFFFFFFFFFFFFFFFFFFFFFFFFF000FFFFFFFFFFFFFFFFFFFFFFFFFFFF
310
FFFFFFFFFFFFFFFFFFFFFFFFFFFFFFFFFFFFFFFFFFFFFFFFFFFFFFFFFFFFFFFF
310
FFFFFFFFFFFFFFFFFFFFFFFFFFFFFFFFFFFFFFFFFFFFFFFFFFFFFFFFFFFFFFFF
310
FFFFFFFFFFFFFFFFF000FFFFFFFFFFFFFFFFFFFFFFFFFFFFFFFFFFFFFFFFFFFF
310
FFFFFFFFFFFFFFFFFFFFFFFFFFFFFFFFFFFFFFFFFFFFFFFFFFFFFFFFFFFFFFFF
310
FFFFFFFFFFFFFFFFFFFFFFFFFFFFFFFFFFFFFFFFFFFFFFFFFFFFFFFFFFFFFFFF
310
F000FFFFFFFFFFFFFFFFFFFFFFFFFFFFFFFFFFFFFFFFFFFFFFFFFFFFFFFFFFFF
310
FFFFFFFFFFFFFFFFFFFFFFFFFFFFFFFFFFFFFFFFFFFFFFFFFFFFFFFFFFFFFFFF
310
FFFFFFFFFFFFFFFFFFFFFFFFFFFFFFFFFFFFFFFFFFFFFFFFF000FFFFFFFFFFFF
310
FFFFFFFFFFFFFFFFFFFFFFFFFFFFFFFFFFFFFFFFFFFFFFFFFFFFFFFFFFFFFFFF
310
FFFFFFFFFFFFFFFFFFFFFFFFFFFFFFFFFFFFFFFFFFFFFFFFFFFFFFFFFFFFFFFF
310
FFFFFFFFFFFFFFFFFFFFFFFFFFFFFFFFF000FFFFFFFFFFFFFFFFFFFFFFFFFFFF
310
FFFFFFFFFFFFFFFFFFFFFFFFFFFFFFFFFFFFFFFFFFFFFFFFFFFFFFFFFFFFFFFF
310
FFFFFFFFFFFFFFFFFFFFFFFFFFFFFFFFFFFFFFFFFFFFFFFFFFFFFFFFFFFFFFFF
310
FFFFFFFFFFFFFFFFF000FFFFFFFFFFFFFFFFFFFFFFFFFFFFFFFFFFFFFFFFFFFF
310
FFFFFFFFFFFFFFFFFFFFFFFFFFFFFFFFFFFFFFFFFFFFFFFFFFFFFFFFFFFFFFFF
310
FFFFFFFFFFFFFFFFFFFFFFFFFFFFFFFFFFFFFFFFFFFFFFFFFFFFFFFFFFFFFFFF
310
F000FFFFFFFFFFFFFFFFFFFFFFFFFFFFFFFFFFFFFFFFFFFFFFFFFFFFFFFFFFFF
310
FFFFFFFFFFFFFFFFFFFFFFFFFFFFFFFFFFFFFFFFFFFFFFFFFFFFFFFFFFFFFFFF
310
FFFFFFFFFFFFFFFFFFFFFFFFFFFFFFFFFFFFFFFFFFFFFFFFF000FFFFFFFFFFFF
310
FFFFFFFFFFFFFFFFFFFFFFFFFFFFFFFFFFFFFFFFFFFFFFFFFFFFFFFFFFFFFFFF
310
FFFFFFFFFFFFFFFFFFFFFFFFFFFFFFFFFFFFFFFFFFFFFFFFFFFFFFFFFFFFFFFF
310
FFFFFFFFFFFFFFFFFFFFFFFFFFFFFFFFF000FFFFFFFFFFFFFFFFFFFFFFFFFFFF
310
FFFFFFFFFFFFFFFFFFFFFFFFFFFFFFFFFFFFFFFFFFFFFFFFFFFFFFFFFFFFFFFF
310
FFFFFFFFFFFFFFFFFFFFFFFFFFFFFFFFFFFFFFFFFFFFFFFFFFFFFFFFFFFFFFFF
310
FFFFFFFFFFFFFFFFF000FFFFFFFFFFFFFFFFFFFFFFFFFFFFFFFFFFFFFFFFFFFF
310
FFFFFFFFFFFFFFFFFFFFFFFFFFFFFFFFFFFFFFFFFFFFFFFFFFFFFFFFFFFFFFFF
310
FFFFFFFFFFFFFFFFFFFFFFFFFFFFFFFFFFFFFFFFFFFFFFFFFFFFFFFFFFFFFFFF
310
F000FFFFFFFFFFFFFFFFFFFFFFFFFFFFFFFFFFFFFFFFFFFFFFFFFFFFFFFFFFFF
310
FFFFFFFFFFFFFFFFFFFFFFFFFFFFFFFFFFFFFFFFFFFFFFFFFFFFFFFFFFFFFFFF
310
FFFFFFFFFFFFFFFFFFFFFFFFFFFFFFFFFFFFFFFFFFFFFFFFF000FFFFFFFFFFFF
310
FFFFFFFFFFFFFFFFFFFFFFFFFFFFFFFFFFFFFFFFFFFFFFFFFFFFFFFFFFFFFFFF
310
FFFFFFFFFFFFFFFFFFFFFFFFFFFFFFFFFFFFFFFFFFFFFFFFFFFFFFFFFFFFFFFF
310
FFFFFFFFFFFFFFFFFFFFFFFFFFFFFFFFF0000000000000000000000000000000
310
0000000000000000000000000000000000000000000000000000000000000000
310
0000000000000000000000000000000000000000000000000000000000000000
310
0000000000000000000000000000000000000000000000000000000000000000
310
0000000000000000000000000000000000000000000000000000000000000000
310
0000000000000000000000000000000000000000000000000000000000000000
310
0000000000000000000000000000000000000000000000000000000000000000
310
0000000000000000000000000000000000000000000000000000000000000000
310
0000000000000000000000000000000000000000000000000000000000000000
310
0000000000000000000000000000000000000000000000000000000000000000
310
0000000000000000000000000000000000000000000000000000000000000000
310
0000000000000000000000000000000000000000000000000000000000000000
310
0000000000000000000000000000000000000000000000000000000000000000
310
0000000000000000000000000000000000000000000000000000000000000000
310
0000000000000000000000000000000000000000000000000000000000000000
310
0000000000000000000000000000000000000000000000000000000000000000
  1
OLE
  0
ENDSEC
  0
SECTION
  2
OBJECTS
  0
DICTIONARY
  5
C
330
0
100
AcDbDictionary
281
     1
  3
ACAD_GROUP
350
D
  3
ACAD_LAYOUT
350
1A
  3
ACAD_MLINESTYLE
350
17
  3
ACAD_PLOTSETTINGS
350
19
  3
ACAD_PLOTSTYLENAME
350
E
  3
ACAD_SCALELIST
350
47
  0
DICTIONARY
  5
D
102
{ACAD_REACTORS
330
C
102
}
330
C
100
AcDbDictionary
281
     1
  0
DICTIONARY
  5
1A
102
{ACAD_REACTORS
330
C
102
}
330
C
100
AcDbDictionary
281
     1
  3
Layout1
350
1E
  3
Layout2
350
26
  3
Model
350
22
  0
DICTIONARY
  5
17
102
{ACAD_REACTORS
330
C
102
}
330
C
100
AcDbDictionary
281
     1
  3
Standard
350
18
  0
DICTIONARY
  5
19
102
{ACAD_REACTORS
330
C
102
}
330
C
100
AcDbDictionary
281
     1
  0
ACDBDICTIONARYWDFLT
  5
E
102
{ACAD_REACTORS
330
C
102
}
330
C
100
AcDbDictionary
281
     1
  3
Normal
350
F
100
AcDbDictionaryWithDefault
340
F
  0
DICTIONARY
  5
47
102
{ACAD_REACTORS
330
C
102
}
330
C
100
AcDbDictionary
281
     1
  3
A0
350
48
  3
A1
350
49
  3
A2
350
4A
  3
A3
350
4B
  3
A4
350
4C
  3
A5
350
4D
  3
A6
350
4E
  3
A7
350
4F
  3
A8
350
50
  3
A9
350
51
  3
B0
350
52
  3
B1
350
53
  3
B2
350
54
  3
B3
350
55
  3
B4
350
56
  3
B5
350
57
  3
B6
350
58
  3
B7
350
59
  3
B8
350
5A
  3
B9
350
5B
  3
C0
350
5C
  3
C1
350
5D
  3
C2
350
5E
  3
C3
350
5F
  3
C4
350
60
  3
C5
350
61
  3
C6
350
62
  3
C7
350
63
  3
C8
350
64
  3
C9
350
65
  3
D0
350
66
  3
D1
350
67
  3
D2
350
68
  0
LAYOUT
  5
1E
102
{ACAD_REACTORS
330
1A
102
}
330
1A
100
AcDbPlotSettings
  1

  2
none_device
  4

  6

 40
0.0
 41
0.0
 42
0.0
 43
0.0
 44
0.0
 45
0.0
 46
0.0
 47
0.0
 48
0.0
 49
0.0
140
0.0
141
0.0
142
1.0
143
1.0
 70
   688
 72
     1
 73
     0
 74
     5
  7

 75
    16
147
1.0
148
0.0
149
0.0
100
AcDbLayout
  1
Layout1
 70
     1
 71
     1
 10
0.0
 20
0.0
 11
420.0
 21
297.0
 12
0.0
 22
0.0
 32
0.0
 14
1.0000000000E+20
 24
1.0000000000E+20
 34
1.0000000000E+20
 15
-1.0000000000E+20
 25
-1.0000000000E+20
 35
-1.0000000000E+20
146
0.0
 13
0.0
 23
0.0
 33
0.0
 16
1.0
 26
0.0
 36
0.0
 17
0.0
 27
1.0
 37
0.0
 76
     0
330
1B
  0
LAYOUT
  5
26
102
{ACAD_REACTORS
330
1A
102
}
330
1A
100
AcDbPlotSettings
  1

  2
none_device
  4

  6

 40
0.0
 41
0.0
 42
0.0
 43
0.0
 44
0.0
 45
0.0
 46
0.0
 47
0.0
 48
0.0
 49
0.0
140
0.0
141
0.0
142
1.0
143
1.0
 70
   688
 72
     1
 73
     0
 74
     5
  7

 75
    16
147
1.0
148
0.0
149
0.0
100
AcDbLayout
  1
Layout2
 70
     1
 71
     2
 10
0.0
 20
0.0
 11
0.0
 21
0.0
 12
0.0
 22
0.0
 32
0.0
 14
0.0
 24
0.0
 34
0.0
 15
0.0
 25
0.0
 35
0.0
146
0.0
 13
0.0
 23
0.0
 33
0.0
 16
1.0
 26
0.0
 36
0.0
 17
0.0
 27
1.0
 37
0.0
 76
     0
330
23
  0
LAYOUT
  5
22
102
{ACAD_REACTORS
330
1A
102
}
330
1A
100
AcDbPlotSettings
  1

  2
none_device
  4
Letter_(8.50_x_11.00_Inches)
  6

 40
6.35
 41
6.35
 42
6.35000508
 43
6.35000508
 44
215.9
 45
279.4
 46
0.0
 47
0.0
 48
0.0
 49
0.0
140
0.0
141
0.0
142
1.0
143
1.0
 70
  1712
 72
     1
 73
     0
 74
     0
  7

 75
     0
147
1.0
148
0.0
149
0.0
100
AcDbLayout
  1
Model
 70
     1
 71
     0
 10
0.0
 20
0.0
 11
297.0
 21
210.0
 12
0.0
 22
0.0
 32
0.0
 14
0.0
 24
0.0
 34
0.0
 15
297.0
 25
210.0
 35
0.0
146
0.0
 13
0.0
 23
0.0
 33
0.0
 16
1.0
 26
0.0
 36
0.0
 17
0.0
 27
1.0
 37
0.0
 76
     0
330
1F
331
29
  0
MLINESTYLE
  5
18
102
{ACAD_REACTORS
330
17
102
}
330
17
100
AcDbMlineStyle
  2
Standard
 70
     0
  3

 62
   256
 51
90.0
 52
90.0
 71
     2
 49
0.5
 62
   256
  6
BYLAYER
 49
-0.5
 62
   256
  6
BYLAYER
  0
ACDBPLACEHOLDER
  5
F
102
{ACAD_REACTORS
330
E
102
}
330
E
  0
SCALE
  5
48
102
{ACAD_REACTORS
330
47
102
}
330
47
100
AcDbScale
 70
     0
300
1:1
140
1.0
141
1.0
290
     1
  0
SCALE
  5
49
102
{ACAD_REACTORS
330
47
102
}
330
47
100
AcDbScale
 70
     0
300
1:2
140
1.0
141
2.0
290
     0
  0
SCALE
  5
4A
102
{ACAD_REACTORS
330
47
102
}
330
47
100
AcDbScale
 70
     0
300
1:4
140
1.0
141
4.0
290
     0
  0
SCALE
  5
4B
102
{ACAD_REACTORS
330
47
102
}
330
47
100
AcDbScale
 70
     0
300
1:5
140
1.0
141
5.0
290
     0
  0
SCALE
  5
4C
102
{ACAD_REACTORS
330
47
102
}
330
47
100
AcDbScale
 70
     0
300
1:8
140
1.0
141
8.0
290
     0
  0
SCALE
  5
4D
102
{ACAD_REACTORS
330
47
102
}
330
47
100
AcDbScale
 70
     0
300
1:10
140
1.0
141
10.0
290
     0
  0
SCALE
  5
4E
102
{ACAD_REACTORS
330
47
102
}
330
47
100
AcDbScale
 70
     0
300
1:16
140
1.0
141
16.0
290
     0
  0
SCALE
  5
4F
102
{ACAD_REACTORS
330
47
102
}
330
47
100
AcDbScale
 70
     0
300
1:20
140
1.0
141
20.0
290
     0
  0
SCALE
  5
50
102
{ACAD_REACTORS
330
47
102
}
330
47
100
AcDbScale
 70
     0
300
1:30
140
1.0
141
30.0
290
     0
  0
SCALE
  5
51
102
{ACAD_REACTORS
330
47
102
}
330
47
100
AcDbScale
 70
     0
300
1:40
140
1.0
141
40.0
290
     0
  0
SCALE
  5
52
102
{ACAD_REACTORS
330
47
102
}
330
47
100
AcDbScale
 70
     0
300
1:50
140
1.0
141
50.0
290
     0
  0
SCALE
  5
53
102
{ACAD_REACTORS
330
47
102
}
330
47
100
AcDbScale
 70
     0
300
1:100
140
1.0
141
100.0
290
     0
  0
SCALE
  5
54
102
{ACAD_REACTORS
330
47
102
}
330
47
100
AcDbScale
 70
     0
300
2:1
140
2.0
141
1.0
290
     0
  0
SCALE
  5
55
102
{ACAD_REACTORS
330
47
102
}
330
47
100
AcDbScale
 70
     0
300
4:1
140
4.0
141
1.0
290
     0
  0
SCALE
  5
56
102
{ACAD_REACTORS
330
47
102
}
330
47
100
AcDbScale
 70
     0
300
8:1
140
8.0
141
1.0
290
     0
  0
SCALE
  5
57
102
{ACAD_REACTORS
330
47
102
}
330
47
100
AcDbScale
 70
     0
300
10:1
140
10.0
141
1.0
290
     0
  0
SCALE
  5
58
102
{ACAD_REACTORS
330
47
102
}
330
47
100
AcDbScale
 70
     0
300
100:1
140
100.0
141
1.0
290
     0
  0
SCALE
  5
59
102
{ACAD_REACTORS
330
47
102
}
330
47
100
AcDbScale
 70
     0
300
1/128" = 1'-0"
140
0.0078125
141
12.0
290
     0
  0
SCALE
  5
5A
102
{ACAD_REACTORS
330
47
102
}
330
47
100
AcDbScale
 70
     0
300
1/64" = 1'-0"
140
0.015625
141
12.0
290
     0
  0
SCALE
  5
5B
102
{ACAD_REACTORS
330
47
102
}
330
47
100
AcDbScale
 70
     0
300
1/32" = 1'-0"
140
0.03125
141
12.0
290
     0
  0
SCALE
  5
5C
102
{ACAD_REACTORS
330
47
102
}
330
47
100
AcDbScale
 70
     0
300
1/16" = 1'-0"
140
0.0625
141
12.0
290
     0
  0
SCALE
  5
5D
102
{ACAD_REACTORS
330
47
102
}
330
47
100
AcDbScale
 70
     0
300
3/32" = 1'-0"
140
0.09375
141
12.0
290
     0
  0
SCALE
  5
5E
102
{ACAD_REACTORS
330
47
102
}
330
47
100
AcDbScale
 70
     0
300
1/8" = 1'-0"
140
0.125
141
12.0
290
     0
  0
SCALE
  5
5F
102
{ACAD_REACTORS
330
47
102
}
330
47
100
AcDbScale
 70
     0
300
3/16" = 1'-0"
140
0.1875
141
12.0
290
     0
  0
SCALE
  5
60
102
{ACAD_REACTORS
330
47
102
}
330
47
100
AcDbScale
 70
     0
300
1/4" = 1'-0"
140
0.25
141
12.0
290
     0
  0
SCALE
  5
61
102
{ACAD_REACTORS
330
47
102
}
330
47
100
AcDbScale
 70
     0
300
3/8" = 1'-0"
140
0.375
141
12.0
290
     0
  0
SCALE
  5
62
102
{ACAD_REACTORS
330
47
102
}
330
47
100
AcDbScale
 70
     0
300
1/2" = 1'-0"
140
0.5
141
12.0
290
     0
  0
SCALE
  5
63
102
{ACAD_REACTORS
330
47
102
}
330
47
100
AcDbScale
 70
     0
300
3/4" = 1'-0"
140
0.75
141
12.0
290
     0
  0
SCALE
  5
64
102
{ACAD_REACTORS
330
47
102
}
330
47
100
AcDbScale
 70
     0
300
1" = 1'-0"
140
1.0
141
12.0
290
     0
  0
SCALE
  5
65
102
{ACAD_REACTORS
330
47
102
}
330
47
100
AcDbScale
 70
     0
300
1-1/2" = 1'-0"
140
1.5
141
12.0
290
     0
  0
SCALE
  5
66
102
{ACAD_REACTORS
330
47
102
}
330
47
100
AcDbScale
 70
     0
300
3" = 1'-0"
140
3.0
141
12.0
290
     0
  0
SCALE
  5
67
102
{ACAD_REACTORS
330
47
102
}
330
47
100
AcDbScale
 70
     0
300
6" = 1'-0"
140
6.0
141
12.0
290
     0
  0
SCALE
  5
68
102
{ACAD_REACTORS
330
47
102
}
330
47
100
AcDbScale
 70
     0
300
1'-0" = 1'-0"
140
12.0
141
12.0
290
     0
  0
ENDSEC
  0
EOF
