  0
SECTION
  2
HEADER
  9
$ACADVER
  1
AC1015
  9
$ACADMAINTVER
 70
     6
  9
$DWGCODEPAGE
  3
ANSI_1252
  9
$INSBASE
 10
0.0
 20
0.0
 30
0.0
  9
$EXTMIN
 10
0.0
 20
0.0
 30
0.0
  9
$EXTMAX
 10
297.0
 20
210.0
 30
0.0
  9
$LIMMIN
 10
0.0
 20
0.0
  9
$LIMMAX
 10
297.0
 20
210.0
  9
$ORTHOMODE
 70
     0
  9
$REGENMODE
 70
     1
  9
$FILLMODE
 70
     1
  9
$QTEXTMODE
 70
     0
  9
$MIRRTEXT
 70
     1
  9
$LTSCALE
 40
1.0
  9
$ATTMODE
 70
     1
  9
$TEXTSIZE
 40
2.0
  9
$TRACEWID
 40
1.0
  9
$TEXTSTYLE
  7
Standard
  9
$CLAYER
  8
0
  9
$CELTYPE
  6
ByLayer
  9
$CECOLOR
 62
   256
  9
$CELTSCALE
 40
1.0
  9
$DISPSILH
 70
     0
  9
$DIMSCALE
 40
1.0
  9
$DIMASZ
 40
3.0
  9
$DIMEXO
 40
0.0
  9
$DIMDLI
 40
3.75
  9
$DIMRND
 40
0.0
  9
$DIMDLE
 40
0.0
  9
$DIMEXE
 40
1.0
  9
$DIMTP
 40
0.0
  9
$DIMTM
 40
0.0
  9
$DIMTXT
 40
2.0
  9
$DIMCEN
 40
2.5
  9
$DIMTSZ
 40
0.0
  9
$DIMTOL
 70
     0
  9
$DIMLIM
 70
     0
  9
$DIMTIH
 70
     1
  9
$DIMTOH
 70
     1
  9
$DIMSE1
 70
     0
  9
$DIMSE2
 70
     0
  9
$DIMTAD
 70
     1
  9
$DIMZIN
 70
     0
  9
$DIMBLK
  1

  9
$DIMASO
 70
     1
  9
$DIMSHO
 70
     1
  9
$DIMPOST
  1

  9
$DIMAPOST
  1

  9
$DIMALT
 70
     0
  9
$DIMALTD
 70
     3
  9
$DIMALTF
 40
0.0393700787
  9
$DIMLFAC
 40
1.0
  9
$DIMTOFL
 70
     1
  9
$DIMTVP
 40
0.0
  9
$DIMTIX
 70
     0
  9
$DIMSOXD
 70
     0
  9
$DIMSAH
 70
     0
  9
$DIMBLK1
  1

  9
$DIMBLK2
  1

  9
$DIMSTYLE
  2
ISO-25
  9
$DIMCLRD
 70
     0
  9
$DIMCLRE
 70
     0
  9
$DIMCLRT
 70
     0
  9
$DIMTFAC
 40
1.0
  9
$DIMGAP
 40
1.524
  9
$DIMJUST
 70
     0
  9
$DIMSD1
 70
     0
  9
$DIMSD2
 70
     0
  9
$DIMTOLJ
 70
     0
  9
$DIMTZIN
 70
     0
  9
$DIMALTZ
 70
     0
  9
$DIMALTTZ
 70
     0
  9
$DIMUPT
 70
     0
  9
$DIMDEC
 70
     2
  9
$DIMTDEC
 70
     3
  9
$DIMALTU
 70
     2
  9
$DIMALTTD
 70
     3
  9
$DIMTXSTY
  7
Standard
  9
$DIMAUNIT
 70
     0
  9
$DIMADEC
 70
     2
  9
$DIMALTRND
 40
0.0
  9
$DIMAZIN
 70
     0
  9
$DIMDSEP
 70
    44
  9
$DIMATFIT
 70
     3
  9
$DIMFRAC
 70
     0
  9
$DIMLDRBLK
  1

  9
$DIMLUNIT
 70
     2
  9
$DIMLWD
 70
    -2
  9
$DIMLWE
 70
    -2
  9
$DIMTMOVE
 70
     0
  9
$LUNITS
 70
     2
  9
$LUPREC
 70
     2
  9
$SKETCHINC
 40
1.0
  9
$FILLETRAD
 40
10.0
  9
$AUNITS
 70
     0
  9
$AUPREC
 70
     2
  9
$MENU
  1
.
  9
$ELEVATION
 40
0.0
  9
$PELEVATION
 40
0.0
  9
$THICKNESS
 40
0.0
  9
$LIMCHECK
 70
     0
  9
$CHAMFERA
 40
0.0
  9
$CHAMFERB
 40
0.0
  9
$CHAMFERC
 40
0.0
  9
$CHAMFERD
 40
0.0
  9
$SKPOLY
 70
     0
  9
$TDCREATE
 40
2457627.460905475
  9
$TDUCREATE
 40
2457627.377572141
  9
$TDUPDATE
 40
2457627.460907049
  9
$TDUUPDATE
 40
2457627.377573715
  9
$TDINDWG
 40
0.0000000116
  9
$TDUSRTIMER
 40
0.0000000116
  9
$USRTIMER
 70
     1
  9
$ANGBASE
 50
0.0
  9
$ANGDIR
 70
     0
  9
$PDMODE
 70
     0
  9
$PDSIZE
 40
-1.0
  9
$PLINEWID
 40
0.0
  9
$SPLFRAME
 70
     0
  9
$SPLINETYPE
 70
     6
  9
$SPLINESEGS
 70
     8
  9
$HANDSEED
  5
26B
  9
$SURFTAB1
 70
     6
  9
$SURFTAB2
 70
     6
  9
$SURFTYPE
 70
     6
  9
$SURFU
 70
     6
  9
$SURFV
 70
     6
  9
$UCSBASE
  2

  9
$UCSNAME
  2

  9
$UCSORG
 10
0.0
 20
0.0
 30
0.0
  9
$UCSXDIR
 10
1.0
 20
0.0
 30
0.0
  9
$UCSYDIR
 10
0.0
 20
1.0
 30
0.0
  9
$UCSORTHOREF
  2

  9
$UCSORTHOVIEW
 70
     0
  9
$UCSORGTOP
 10
0.0
 20
0.0
 30
0.0
  9
$UCSORGBOTTOM
 10
0.0
 20
0.0
 30
0.0
  9
$UCSORGLEFT
 10
0.0
 20
0.0
 30
0.0
  9
$UCSORGRIGHT
 10
0.0
 20
0.0
 30
0.0
  9
$UCSORGFRONT
 10
0.0
 20
0.0
 30
0.0
  9
$UCSORGBACK
 10
0.0
 20
0.0
 30
0.0
  9
$PUCSBASE
  2

  9
$PUCSNAME
  2

  9
$PUCSORG
 10
0.0
 20
0.0
 30
0.0
  9
$PUCSXDIR
 10
1.0
 20
0.0
 30
0.0
  9
$PUCSYDIR
 10
0.0
 20
1.0
 30
0.0
  9
$PUCSORTHOREF
  2

  9
$PUCSORTHOVIEW
 70
     0
  9
$PUCSORGTOP
 10
0.0
 20
0.0
 30
0.0
  9
$PUCSORGBOTTOM
 10
0.0
 20
0.0
 30
0.0
  9
$PUCSORGLEFT
 10
0.0
 20
0.0
 30
0.0
  9
$PUCSORGRIGHT
 10
0.0
 20
0.0
 30
0.0
  9
$PUCSORGFRONT
 10
0.0
 20
0.0
 30
0.0
  9
$PUCSORGBACK
 10
0.0
 20
0.0
 30
0.0
  9
$USERI1
 70
     0
  9
$USERI2
 70
     0
  9
$USERI3
 70
     0
  9
$USERI4
 70
     0
  9
$USERI5
 70
     0
  9
$USERR1
 40
0.0
  9
$USERR2
 40
0.0
  9
$USERR3
 40
0.0
  9
$USERR4
 40
0.0
  9
$USERR5
 40
0.0
  9
$WORLDVIEW
 70
     1
  9
$SHADEDGE
 70
     3
  9
$SHADEDIF
 70
    70
  9
$TILEMODE
 70
     1
  9
$MAXACTVP
 70
    64
  9
$PINSBASE
 10
0.0
 20
0.0
 30
0.0
  9
$PLIMCHECK
 70
     0
  9
$PEXTMIN
 10
1.0000000000E+20
 20
1.0000000000E+20
 30
1.0000000000E+20
  9
$PEXTMAX
 10
-1.0000000000E+20
 20
-1.0000000000E+20
 30
-1.0000000000E+20
  9
$PLIMMIN
 10
0.0
 20
0.0
  9
$PLIMMAX
 10
420.0
 20
297.0
  9
$UNITMODE
 70
     0
  9
$VISRETAIN
 70
     1
  9
$PLINEGEN
 70
     0
  9
$PSLTSCALE
 70
     1
  9
$TREEDEPTH
 70
  3020
  9
$CMLSTYLE
  2
Standard
  9
$CMLJUST
 70
     0
  9
$CMLSCALE
 40
20.0
  9
$PROXYGRAPHICS
 70
     1
  9
$MEASUREMENT
 70
     1
  9
$CELWEIGHT
370
    -1
  9
$ENDCAPS
280
     0
  9
$JOINSTYLE
280
     0
  9
$LWDISPLAY
290
     1
  9
$INSUNITS
 70
     4
  9
$HYPERLINKBASE
  1

  9
$STYLESHEET
  1

  9
$XEDIT
290
     1
  9
$CEPSNTYPE
380
     0
  9
$PSTYLEMODE
290
     1
  9
$FINGERPRINTGUID
  2
{635E851F-D180-46DC-8DAB-F4B9921A566D}
  9
$VERSIONGUID
  2
{FAEB1C32-E019-11D5-929B-00C0DF256EC4}
  9
$EXTNAMES
290
     1
  9
$PSVPSCALE
 40
0.0
  9
$OLESTARTUP
290
     0
  0
ENDSEC
  0
SECTION
  2
CLASSES
  0
CLASS
  1
ACDBDICTIONARYWDFLT
  2
AcDbDictionaryWithDefault
  3
ObjectDBX Classes
 90
        0
280
     0
281
     0
  0
CLASS
  1
VISUALSTYLE
  2
AcDbVisualStyle
  3
ObjectDBX Classes
 90
     4095
280
     0
281
     0
  0
CLASS
  1
MATERIAL
  2
AcDbMaterial
  3
ObjectDBX Classes
 90
     1153
280
     0
281
     0
  0
CLASS
  1
SCALE
  2
AcDbScale
  3
ObjectDBX Classes
 90
     1153
280
     0
281
     0
  0
CLASS
  1
TABLESTYLE
  2
AcDbTableStyle
  3
ObjectDBX Classes
 90
     4095
280
     0
281
     0
  0
CLASS
  1
MLEADERSTYLE
  2
AcDbMLeaderStyle
  3
ACDB_MLEADERSTYLE_CLASS
 90
     4095
280
     0
281
     0
  0
CLASS
  1
SUN
  2
AcDbSun
  3
SCENEOE
 90
     1153
280
     0
281
     0
  0
CLASS
  1
ACDBPLACEHOLDER
  2
AcDbPlaceHolder
  3
ObjectDBX Classes
 90
        0
280
     0
281
     0
  0
CLASS
  1
LAYOUT
  2
AcDbLayout
  3
ObjectDBX Classes
 90
        0
280
     0
281
     0
  0
ENDSEC
  0
SECTION
  2
TABLES
  0
TABLE
  2
VPORT
  5
8
330
0
100
AcDbSymbolTable
 70
     1
  0
VPORT
  5
29
330
8
100
AcDbSymbolTableRecord
100
AcDbViewportTableRecord
  2
*Active
 70
     0
 10
0.0
 20
0.0
 11
1.0
 21
1.0
 12
148.5
 22
105.0
 13
0.0
 23
0.0
 14
10.0
 24
10.0
 15
10.0
 25
10.0
 16
0.0
 26
0.0
 36
1.0
 17
0.0
 27
0.0
 37
0.0
 40
210.0
 41
1.4142857143
 42
50.0
 43
0.0
 44
0.0
 50
0.0
 51
0.0
 71
     0
 72
  2000
 73
     1
 74
     3
 75
     0
 76
     0
 77
     0
 78
     0
281
     0
 65
     1
110
0.0
120
0.0
130
0.0
111
1.0
121
0.0
131
0.0
112
0.0
122
1.0
132
0.0
 79
     0
146
0.0
  0
ENDTAB
  0
TABLE
  2
LTYPE
  5
5
330
0
100
AcDbSymbolTable
 70
     6
  0
LTYPE
  5
14
330
5
100
AcDbSymbolTableRecord
100
AcDbLinetypeTableRecord
  2
ByBlock
 70
     0
  3

 72
    65
 73
     0
 40
0.0
  0
LTYPE
  5
15
330
5
100
AcDbSymbolTableRecord
100
AcDbLinetypeTableRecord
  2
ByLayer
 70
     0
  3

 72
    65
 73
     0
 40
0.0
  0
LTYPE
  5
16
330
5
100
AcDbSymbolTableRecord
100
AcDbLinetypeTableRecord
  2
Continuous
 70
     0
  3
Solid line
 72
    65
 73
     0
 40
0.0
  0
LTYPE
  5
6E
330
5
100
AcDbSymbolTableRecord
100
AcDbLinetypeTableRecord
  2
HIDDEN
 70
     0
  3
Hidden __ __ __ __ __ __ __ __ __ __ __ __ __ __
 72
    65
 73
     2
 40
1.905
 49
1.27
 74
     0
 49
-0.635
 74
     0
  0
LTYPE
  5
6F
330
5
100
AcDbSymbolTableRecord
100
AcDbLinetypeTableRecord
  2
PHANTOM
 70
     0
  3
Phantom ______  __  __  ______  __  __  ______
 72
    65
 73
     6
 40
12.7
 49
6.35
 74
     0
 49
-1.27
 74
     0
 49
1.27
 74
     0
 49
-1.27
 74
     0
 49
1.27
 74
     0
 49
-1.27
 74
     0
  0
LTYPE
  5
70
330
5
100
AcDbSymbolTableRecord
100
AcDbLinetypeTableRecord
  2
CENTER
 70
     0
  3
Center ____ _ ____ _ ____ _ ____ _ ____ _ ____
 72
    65
 73
     4
 40
10.16
 49
6.35
 74
     0
 49
-1.27
 74
     0
 49
1.27
 74
     0
 49
-1.27
 74
     0
  0
LTYPE
  5
71
330
5
100
AcDbSymbolTableRecord
100
AcDbLinetypeTableRecord
  2
CENTERX2
 70
     0
  3
Center (2x) ________  __  ________  __  _____
 72
    65
 73
     4
 40
20.32
 49
12.7
 74
     0
 49
-2.54
 74
     0
 49
2.54
 74
     0
 49
-2.54
 74
     0
  0
LTYPE
  5
72
330
5
100
AcDbSymbolTableRecord
100
AcDbLinetypeTableRecord
  2
DOT2
 70
     0
  3
Dot (.5x) ........................................
 72
    65
 73
     2
 40
0.635
 49
0.0
 74
     0
 49
-0.635
 74
     0
  0
ENDTAB
  0
TABLE
  2
LAYER
  5
2
330
0
100
AcDbSymbolTable
 70
     5
  0
LAYER
  5
10
330
2
100
AcDbSymbolTableRecord
100
AcDbLayerTableRecord
  2
0
 70
     0
 62
     7
  6
Continuous
370
    -3
390
F
  0
LAYER
  5
73
330
2
100
AcDbSymbolTableRecord
100
AcDbLayerTableRecord
  2
FORMAT
 70
     0
 62
     7
  6
Continuous
370
    -3
390
F
  0
LAYER
  5
74
330
2
100
AcDbSymbolTableRecord
100
AcDbLayerTableRecord
  2
VERMASSUNG
 70
     0
 62
     7
  6
Continuous
370
    -3
390
F
  0
LAYER
  5
75
330
2
100
AcDbSymbolTableRecord
100
AcDbLayerTableRecord
  2
KOPF_DÜNN
 70
     0
 62
     7
  6
Continuous
370
    -3
390
F
  0
LAYER
  5
76
330
2
100
AcDbSymbolTableRecord
100
AcDbLayerTableRecord
  2
KOPF_DICK
 70
     0
 62
     7
  6
Continuous
370
    15
390
F
  0
ENDTAB
  0
TABLE
  2
STYLE
  5
3
330
0
100
AcDbSymbolTable
 70
     3
  0
STYLE
  5
11
330
3
100
AcDbSymbolTableRecord
100
AcDbTextStyleTableRecord
  2
Standard
 70
     0
 40
0.0
 41
1.0
 50
0.0
 71
     0
 42
2.0
  3
txt
  4

  0
STYLE
  5
77
330
3
100
AcDbSymbolTableRecord
100
AcDbTextStyleTableRecord
  2
SLDTEXTSTYLE0
 70
     0
 40
0.0
 41
0.7
 50
0.0
 71
     0
 42
2.0
  3
TXT
  4

  0
STYLE
  5
7B
330
3
100
AcDbSymbolTableRecord
100
AcDbTextStyleTableRecord
  2
SLDTEXTSTYLE1
 70
     0
 40
0.0
 41
0.6466666667
 50
0.0
 71
     0
 42
2.0
  3
TXT
  4

  0
ENDTAB
  0
TABLE
  2
VIEW
  5
6
330
0
100
AcDbSymbolTable
 70
     0
  0
ENDTAB
  0
TABLE
  2
UCS
  5
7
330
0
100
AcDbSymbolTable
 70
     0
  0
ENDTAB
  0
TABLE
  2
APPID
  5
9
330
0
100
AcDbSymbolTable
 70
     1
  0
APPID
  5
12
330
9
100
AcDbSymbolTableRecord
100
AcDbRegAppTableRecord
  2
ACAD
 70
     0
  0
ENDTAB
  0
TABLE
  2
DIMSTYLE
  5
A
330
0
100
AcDbSymbolTable
 70
     2
100
AcDbDimStyleTable
  0
DIMSTYLE
105
27
330
A
100
AcDbSymbolTableRecord
100
AcDbDimStyleTableRecord
  2
ISO-25
 70
     0
 41
2.5
 42
0.625
 43
3.75
 44
1.25
 73
     0
 74
     0
 77
     1
 78
     8
140
2.5
141
2.5
143
0.0393700787
147
0.625
171
     3
172
     1
178
     0
271
     2
272
     2
274
     3
278
    44
283
     0
284
     8
340
11
  0
DIMSTYLE
105
170
102
{ACAD_REACTORS
330
16F
330
17C
330
188
330
192
330
19C
102
}
330
A
100
AcDbSymbolTableRecord
100
AcDbDimStyleTableRecord
  2
SLDDIMSTYLE0
 70
     0
 41
3.0
 44
0.0
 45
0.000000001
 73
     0
 74
     0
 77
     1
 78
    12
 79
     3
140
2.0
147
0.5
173
     1
178
     0
271
     2
272
     3
276
     2
284
    12
340
77
  0
ENDTAB
  0
TABLE
  2
BLOCK_RECORD
  5
1
330
0
100
AcDbSymbolTable
 70
     6
  0
BLOCK_RECORD
  5
1F
330
1
100
AcDbSymbolTableRecord
100
AcDbBlockTableRecord
  2
*Model_Space
340
22
  0
BLOCK_RECORD
  5
1B
330
1
100
AcDbSymbolTableRecord
100
AcDbBlockTableRecord
  2
*Paper_Space
340
1E
  0
BLOCK_RECORD
  5
23
330
1
100
AcDbSymbolTableRecord
100
AcDbBlockTableRecord
  2
*Paper_Space0
340
26
  0
BLOCK_RECORD
  5
171
330
1
100
AcDbSymbolTableRecord
100
AcDbBlockTableRecord
  2
_D
340
0
  0
BLOCK_RECORD
  5
17D
330
1
100
AcDbSymbolTableRecord
100
AcDbBlockTableRecord
  2
_D_1
340
0
  0
BLOCK_RECORD
  5
189
330
1
100
AcDbSymbolTableRecord
100
AcDbBlockTableRecord
  2
_D_2
340
0
  0
BLOCK_RECORD
  5
193
330
1
100
AcDbSymbolTableRecord
100
AcDbBlockTableRecord
  2
_D_3
340
0
  0
BLOCK_RECORD
  5
19D
330
1
100
AcDbSymbolTableRecord
100
AcDbBlockTableRecord
  2
_D_4
340
0
  0
ENDTAB
  0
ENDSEC
  0
SECTION
  2
BLOCKS
  0
BLOCK
  5
20
330
1F
100
AcDbEntity
  8
0
100
AcDbBlockBegin
  2
*Model_Space
 70
     0
 10
0.0
 20
0.0
 30
0.0
  3
*Model_Space
  1

  0
ENDBLK
  5
21
330
1F
100
AcDbEntity
  8
0
100
AcDbBlockEnd
  0
BLOCK
  5
1C
330
1B
100
AcDbEntity
 67
     1
  8
0
100
AcDbBlockBegin
  2
*Paper_Space
 70
     0
 10
0.0
 20
0.0
 30
0.0
  3
*Paper_Space
  1

  0
ENDBLK
  5
1D
330
1B
100
AcDbEntity
 67
     1
  8
0
100
AcDbBlockEnd
  0
BLOCK
  5
24
330
23
100
AcDbEntity
  8
0
100
AcDbBlockBegin
  2
*Paper_Space0
 70
     0
 10
0.0
 20
0.0
 30
0.0
  3
*Paper_Space0
  1

  0
ENDBLK
  5
25
330
23
100
AcDbEntity
  8
0
100
AcDbBlockEnd
  0
BLOCK
  5
172
330
171
100
AcDbEntity
  8
0
100
AcDbBlockBegin
  2
_D
 70
     0
 10
0.0
 20
0.0
 30
0.0
  3
_D
  1

  0
SOLID
  5
174
330
171
100
AcDbEntity
  8
VERMASSUNG
100
AcDbTrace
 10
103.855100127
 20
89.5630791662
 30
0.0
 11
104.305100127
 21
92.5630791662
 31
0.0
 12
103.405100127
 22
92.5630791662
 32
0.0
 13
103.405100127
 23
92.5630791662
 33
0.0
  0
SOLID
  5
175
330
171
100
AcDbEntity
  8
VERMASSUNG
100
AcDbTrace
 10
103.855100127
 20
139.5130791662
 30
0.0
 11
103.405100127
 21
136.5130791662
 31
0.0
 12
104.305100127
 22
136.5130791662
 32
0.0
 13
104.305100127
 23
136.5130791662
 33
0.0
  0
LINE
  5
176
330
171
100
AcDbEntity
  8
VERMASSUNG
100
AcDbLine
 10
160.6868719667
 20
89.5630791662
 30
0.0
 11
102.855100127
 21
89.5630791662
 31
0.0
  0
LINE
  5
177
330
171
100
AcDbEntity
  8
VERMASSUNG
100
AcDbLine
 10
160.6868719667
 20
139.5130791662
 30
0.0
 11
102.855100127
 21
139.5130791662
 31
0.0
  0
LINE
  5
178
330
171
100
AcDbEntity
  8
VERMASSUNG
100
AcDbLine
 10
103.855100127
 20
89.5630791662
 30
0.0
 11
103.855100127
 21
139.5130791662
 31
0.0
  0
MTEXT
  5
179
330
171
100
AcDbEntity
  8
VERMASSUNG
100
AcDbMText
 10
101.0769648708
 20
105.0336435329
 30
0.0
 40
2.0
 41
0.0
 71
     1
 72
     1
  1
ISO 30
  7
SLDTEXTSTYLE0
 11
3.391901413832837E-15
 21
1.0
 31
0.0
 73
     1
 44
1.0
  0
MTEXT
  5
17A
330
171
100
AcDbEntity
  8
VERMASSUNG
100
AcDbMText
 10
101.2769648221
 20
114.0336431454
 30
0.0
 40
2.0
 41
0.0
 71
     1
 72
     1
  1
%%c
  7
SLDTEXTSTYLE0
 11
3.391901413832837E-15
 21
1.0
 31
0.0
 73
     1
 44
1.0
  0
MTEXT
  5
17B
330
171
100
AcDbEntity
  8
VERMASSUNG
100
AcDbMText
 10
101.2769645311
 20
117.6429864783
 30
0.0
 40
2.0
 41
0.0
 71
     1
 72
     1
  1
49.95
  7
SLDTEXTSTYLE0
 11
3.391901413832837E-15
 21
1.0
 31
0.0
 73
     1
 44
1.0
  0
ENDBLK
  5
173
330
171
100
AcDbEntity
  8
0
100
AcDbBlockEnd
  0
BLOCK
  5
17E
330
17D
100
AcDbEntity
  8
0
100
AcDbBlockBegin
  2
_D_1
 70
     0
 10
0.0
 20
0.0
 30
0.0
  3
_D_1
  1

  0
ARC
  5
180
330
17D
100
AcDbEntity
  8
VERMASSUNG
100
AcDbCircle
 10
151.7236654785
 20
157.6266242765
 30
0.0
 40
4.247059938537221
100
AcDbArc
 50
153.4349488229
 51
206.5650511771
  0
ARC
  5
181
330
17D
100
AcDbEntity
  8
VERMASSUNG
100
AcDbCircle
 10
153.5000784549
 20
157.6266242765
 30
0.0
 40
4.247059938537221
100
AcDbArc
 50
333.4349488229
 51
26.5650511771
  0
SOLID
  5
182
330
17D
100
AcDbEntity
  8
VERMASSUNG
100
AcDbTrace
 10
109.2368719667
 20
155.7272813311
 30
0.0
 11
112.2368719667
 21
155.2772813311
 31
0.0
 12
112.2368719667
 22
156.1772813311
 32
0.0
 13
112.2368719667
 23
156.1772813311
 33
0.0
  0
SOLID
  5
183
330
17D
100
AcDbEntity
  8
VERMASSUNG
100
AcDbTrace
 10
195.9868719667
 20
155.7272813311
 30
0.0
 11
192.9868719667
 21
156.1772813311
 31
0.0
 12
192.9868719667
 22
155.2772813311
 32
0.0
 13
192.9868719667
 23
155.2772813311
 33
0.0
  0
LINE
  5
184
330
17D
100
AcDbEntity
  8
VERMASSUNG
100
AcDbLine
 10
109.2368719667
 20
122.5993764299
 30
0.0
 11
109.2368719667
 21
156.7272813311
 31
0.0
  0
LINE
  5
185
330
17D
100
AcDbEntity
  8
VERMASSUNG
100
AcDbLine
 10
195.9868719667
 20
135.1380791662
 30
0.0
 11
195.9868719667
 21
156.7272813311
 31
0.0
  0
LINE
  5
186
330
17D
100
AcDbEntity
  8
VERMASSUNG
100
AcDbLine
 10
109.2368719667
 20
155.7272813311
 30
0.0
 11
195.9868719667
 21
155.7272813311
 31
0.0
  0
MTEXT
  5
187
330
17D
100
AcDbEntity
  8
VERMASSUNG
100
AcDbMText
 10
149.5124795877
 20
158.3054169271
 30
0.0
 40
2.0
 41
0.0
 71
     1
 72
     1
  1
86.75
  7
SLDTEXTSTYLE0
 73
     1
 44
1.0
  0
ENDBLK
  5
17F
330
17D
100
AcDbEntity
  8
0
100
AcDbBlockEnd
  0
BLOCK
  5
18A
330
189
100
AcDbEntity
  8
0
100
AcDbBlockBegin
  2
_D_2
 70
     0
 10
0.0
 20
0.0
 30
0.0
  3
_D_2
  1

  0
SOLID
  5
18C
330
189
100
AcDbEntity
  8
VERMASSUNG
100
AcDbTrace
 10
156.8868719667
 20
149.7272813311
 30
0.0
 11
159.8868719667
 21
149.2772813311
 31
0.0
 12
159.8868719667
 22
150.1772813311
 32
0.0
 13
159.8868719667
 23
150.1772813311
 33
0.0
  0
SOLID
  5
18D
330
189
100
AcDbEntity
  8
VERMASSUNG
100
AcDbTrace
 10
195.9868719667
 20
149.7272813311
 30
0.0
 11
192.9868719667
 21
150.1772813311
 31
0.0
 12
192.9868719667
 22
149.2772813311
 32
0.0
 13
192.9868719667
 23
149.2772813311
 33
0.0
  0
LINE
  5
18E
330
189
100
AcDbEntity
  8
VERMASSUNG
100
AcDbLine
 10
156.8868719667
 20
130.4130791662
 30
0.0
 11
156.8868719667
 21
150.7272813311
 31
0.0
  0
LINE
  5
18F
330
189
100
AcDbEntity
  8
VERMASSUNG
100
AcDbLine
 10
195.9868719667
 20
135.1380791662
 30
0.0
 11
195.9868719667
 21
150.7272813311
 31
0.0
  0
LINE
  5
190
330
189
100
AcDbEntity
  8
VERMASSUNG
100
AcDbLine
 10
156.8868719667
 20
149.7272813311
 30
0.0
 11
195.9868719667
 21
149.7272813311
 31
0.0
  0
MTEXT
  5
191
330
189
100
AcDbEntity
  8
VERMASSUNG
100
AcDbMText
 10
174.2375166629
 20
152.3054169271
 30
0.0
 40
2.0
 41
0.0
 71
     1
 72
     1
  1
39.1
  7
SLDTEXTSTYLE0
 73
     1
 44
1.0
  0
ENDBLK
  5
18B
330
189
100
AcDbEntity
  8
0
100
AcDbBlockEnd
  0
BLOCK
  5
194
330
193
100
AcDbEntity
  8
0
100
AcDbBlockBegin
  2
_D_3
 70
     0
 10
0.0
 20
0.0
 30
0.0
  3
_D_3
  1

  0
SOLID
  5
196
330
193
100
AcDbEntity
  8
VERMASSUNG
100
AcDbTrace
 10
175.9368719667
 20
143.7272813311
 30
0.0
 11
178.9368719667
 21
143.2772813311
 31
0.0
 12
178.9368719667
 22
144.1772813311
 32
0.0
 13
178.9368719667
 23
144.1772813311
 33
0.0
  0
SOLID
  5
197
330
193
100
AcDbEntity
  8
VERMASSUNG
100
AcDbTrace
 10
195.9868719667
 20
143.7272813311
 30
0.0
 11
192.9868719667
 21
144.1772813311
 31
0.0
 12
192.9868719667
 22
143.2772813311
 32
0.0
 13
192.9868719667
 23
143.2772813311
 33
0.0
  0
LINE
  5
198
330
193
100
AcDbEntity
  8
VERMASSUNG
100
AcDbLine
 10
175.9368719667
 20
137.4494367802
 30
0.0
 11
175.9368719667
 21
144.7272813311
 31
0.0
  0
LINE
  5
199
330
193
100
AcDbEntity
  8
VERMASSUNG
100
AcDbLine
 10
195.9868719667
 20
135.1380791662
 30
0.0
 11
195.9868719667
 21
144.7272813311
 31
0.0
  0
LINE
  5
19A
330
193
100
AcDbEntity
  8
VERMASSUNG
100
AcDbLine
 10
175.9368719667
 20
143.7272813311
 30
0.0
 11
195.9868719667
 21
143.7272813311
 31
0.0
  0
MTEXT
  5
19B
330
193
100
AcDbEntity
  8
VERMASSUNG
100
AcDbMText
 10
182.8624795877
 20
146.3054169271
 30
0.0
 40
2.0
 41
0.0
 71
     1
 72
     1
  1
20.05
  7
SLDTEXTSTYLE0
 73
     1
 44
1.0
  0
ENDBLK
  5
195
330
193
100
AcDbEntity
  8
0
100
AcDbBlockEnd
  0
BLOCK
  5
19E
330
19D
100
AcDbEntity
  8
0
100
AcDbBlockBegin
  2
_D_4
 70
     0
 10
0.0
 20
0.0
 30
0.0
  3
_D_4
  1

  0
SOLID
  5
1A0
330
19D
100
AcDbEntity
  8
VERMASSUNG
100
AcDbTrace
 10
203.6314798297
 20
135.5380791662
 30
0.0
 11
203.1814798297
 21
132.5380791662
 31
0.0
 12
204.0814798297
 22
132.5380791662
 32
0.0
 13
204.0814798297
 23
132.5380791662
 33
0.0
  0
SOLID
  5
1A1
330
19D
100
AcDbEntity
  8
VERMASSUNG
100
AcDbTrace
 10
203.6314798297
 20
93.5380791662
 30
0.0
 11
204.0814798297
 21
96.5380791662
 31
0.0
 12
203.1814798297
 22
96.5380791662
 32
0.0
 13
203.1814798297
 23
96.5380791662
 33
0.0
  0
LINE
  5
1A2
330
19D
100
AcDbEntity
  8
VERMASSUNG
100
AcDbLine
 10
195.5868719667
 20
135.5380791662
 30
0.0
 11
204.6314798297
 21
135.5380791662
 31
0.0
  0
LINE
  5
1A3
330
19D
100
AcDbEntity
  8
VERMASSUNG
100
AcDbLine
 10
195.5868719667
 20
93.5380791662
 30
0.0
 11
204.6314798297
 21
93.5380791662
 31
0.0
  0
LINE
  5
1A4
330
19D
100
AcDbEntity
  8
VERMASSUNG
100
AcDbLine
 10
203.6314798297
 20
135.5380791662
 30
0.0
 11
203.6314798297
 21
93.5380791662
 31
0.0
  0
MTEXT
  5
1A5
330
19D
100
AcDbEntity
  8
VERMASSUNG
100
AcDbMText
 10
200.8533445734
 20
108.0330796925
 30
0.0
 40
2.0
 41
0.0
 71
     1
 72
     1
  1
MBM
  7
SLDTEXTSTYLE0
 11
-7.044195017643634E-15
 21
1.0
 31
0.0
 73
     1
 44
1.0
  0
MTEXT
  5
1A6
330
19D
100
AcDbEntity
  8
VERMASSUNG
100
AcDbMText
 10
201.0533445247
 20
114.4330795309
 30
0.0
 40
2.0
 41
0.0
 71
     1
 72
     1
  1
%%c
  7
SLDTEXTSTYLE0
 11
-7.044195017643634E-15
 21
1.0
 31
0.0
 73
     1
 44
1.0
  0
MTEXT
  5
1A7
330
19D
100
AcDbEntity
  8
VERMASSUNG
100
AcDbMText
 10
200.8533445734
 20
118.0430800108
 30
0.0
 40
2.0
 41
0.0
 71
     1
 72
     1
  1
42
  7
SLDTEXTSTYLE0
 11
-7.044195017643634E-15
 21
1.0
 31
0.0
 73
     1
 44
1.0
  0
ENDBLK
  5
19F
330
19D
100
AcDbEntity
  8
0
100
AcDbBlockEnd
  0
ENDSEC
  0
SECTION
  2
ENTITIES
  0
MTEXT
  5
78
330
1F
100
AcDbEntity
  8
KOPF_DÜNN
100
AcDbMText
 10
13.8892156294
 20
23.8442973028
 30
0.0
 40
3.0
 41
0.0
 71
     1
 72
     1
  1
102.325.421
  7
SLDTEXTSTYLE0
 73
     1
 44
1.0
  0
MTEXT
  5
79
330
1F
100
AcDbEntity
  8
VERMASSUNG
100
AcDbMText
 10
13.9329988022
 20
28.8834360957
 30
0.0
 40
3.0
 41
0.0
 71
     1
 72
     1
  1
Aufnahme_Master shank MBM 42
  7
SLDTEXTSTYLE0
 73
     1
 44
1.0
  0
MTEXT
  5
7A
330
1F
100
AcDbEntity
  8
VERMASSUNG
100
AcDbMText
 10
98.8601118557
 20
13.8365368761
 30
0.0
 40
2.0
 41
0.0
 71
     1
 72
     1
  1
Datum: 05.11.2007
  7
SLDTEXTSTYLE0
 73
     1
 44
1.0
  0
MTEXT
  5
7C
330
1F
100
AcDbEntity
  8
VERMASSUNG
100
AcDbMText
 10
13.933048693
 20
18.0482802738
 30
0.0
 40
2.0
 41
0.0
 71
     1
 72
     1
  1
DIN 69 871 B 30
  7
SLDTEXTSTYLE1
 73
     1
 44
1.0
  0
MTEXT
  5
7D
330
1F
100
AcDbEntity
  8
VERMASSUNG
100
AcDbMText
 10
13.9808475933
 20
13.9090974274
 30
0.0
 40
2.0
 41
0.0
 71
     1
 72
     1
  1
Gewicht: 478g
  7
SLDTEXTSTYLE0
 73
     1
 44
1.0
  0
LINE
  5
7E
330
1F
100
AcDbEntity
  8
0
  6
Continuous
 62
     7
370
    15
100
AcDbLine
 10
183.9735937799
 20
93.5380791662
 30
0.0
 11
195.5868719667
 21
93.5380791662
 31
0.0
  0
LINE
  5
7F
330
1F
100
AcDbEntity
  8
0
  6
Continuous
 62
     7
370
    15
100
AcDbLine
 10
195.5868719667
 20
135.5380791662
 30
0.0
 11
183.9800415984
 21
135.5380791662
 31
0.0
  0
LINE
  5
80
330
1F
100
AcDbEntity
  8
0
  6
Continuous
 62
     7
370
    15
100
AcDbLine
 10
195.5868719667
 20
93.5380791662
 30
0.0
 11
195.9868719667
 21
93.9380791662
 31
0.0
  0
LINE
  5
81
330
1F
100
AcDbEntity
  8
0
  6
Continuous
 62
     7
370
    15
100
AcDbLine
 10
195.9868719667
 20
135.1380791662
 30
0.0
 11
195.5868719667
 21
135.5380791662
 31
0.0
  0
ARC
  5
82
330
1F
100
AcDbEntity
  8
0
  6
Continuous
 62
     7
370
    15
100
AcDbCircle
 10
159.4868719667
 20
98.0630791662
 30
0.0
 40
0.5999999999999943
100
AcDbArc
 50
0.0
 51
90.0
  0
ARC
  5
83
330
1F
100
AcDbEntity
  8
0
  6
Continuous
 62
     7
370
    15
100
AcDbCircle
 10
159.4868719667
 20
131.0130791662
 30
0.0
 40
0.6000000000000227
100
AcDbArc
 50
270.0
 51
0.0
  0
LINE
  5
84
330
1F
100
AcDbEntity
  8
0
  6
Continuous
 62
     7
370
    15
100
AcDbLine
 10
156.8868719667
 20
98.6630791662
 30
0.0
 11
159.4868719667
 21
98.6630791662
 31
0.0
  0
LINE
  5
85
330
1F
100
AcDbEntity
  8
0
  6
Continuous
 62
     7
370
    15
100
AcDbLine
 10
159.4868719667
 20
130.4130791662
 30
0.0
 11
156.8868719667
 21
130.4130791662
 31
0.0
  0
LINE
  5
86
330
1F
100
AcDbEntity
  8
0
  6
Continuous
 62
     7
370
    15
100
AcDbLine
 10
156.8868719667
 20
130.4130791662
 30
0.0
 11
110.0925650736
 21
123.588909411
 31
0.0
  0
LINE
  5
87
330
1F
100
AcDbEntity
  8
0
  6
Continuous
 62
     7
370
    15
100
AcDbLine
 10
110.0925650736
 20
105.4872489215
 30
0.0
 11
156.8868719667
 21
98.6630791662
 31
0.0
  0
ARC
  5
88
330
1F
100
AcDbEntity
  8
0
  6
Continuous
 62
     7
370
    15
100
AcDbCircle
 10
110.2368719667
 20
106.4767819025
 30
0.0
 40
1.000000000000008
100
AcDbArc
 50
180.0
 51
261.7028550302
  0
ARC
  5
89
330
1F
100
AcDbEntity
  8
0
  6
Continuous
 62
     7
370
    15
100
AcDbCircle
 10
110.2368719667
 20
122.5993764299
 30
0.0
 40
1.000000000000008
100
AcDbArc
 50
98.2971449698
 51
180.0
  0
SPLINE
  5
8A
330
1F
100
AcDbEntity
  8
0
  6
Continuous
 62
     7
370
    15
100
AcDbSpline
210
0.0
220
0.0
230
1.0
 70
    24
 71
     3
 72
    13
 73
     9
 74
     0
 42
0.000000001
 43
0.00000001
 40
0.0
 40
0.0
 40
0.0
 40
0.0
 40
0.1332942423098216
 40
0.3053794624259317
 40
0.4826135856442329
 40
0.6464918731749973
 40
0.8161467568339633
 40
0.9999999999999999
 40
0.9999999999999999
 40
0.9999999999999999
 40
0.9999999999999999
 10
185.1689227742747
 20
111.5380791662323
 30
0.0
 10
185.0236272238234
 20
111.5380791662323
 30
0.0
 10
184.6907525525634
 20
111.5380791662323
 30
0.0
 10
184.1339278449153
 20
111.5380791662323
 30
0.0
 10
183.5163934031786
 20
111.5380791662323
 30
0.0
 10
182.8990600553385
 20
111.5380791662323
 30
0.0
 10
182.2930978517508
 20
111.5380791662323
 30
0.0
 10
181.906094610963
 20
111.5380791662323
 30
0.0
 10
181.704821159137
 20
111.5380791662323
 30
0.0
  0
SPLINE
  5
8B
330
1F
100
AcDbEntity
  8
0
  6
Continuous
 62
     7
370
    15
100
AcDbSpline
210
0.0
220
0.0
230
1.0
 70
    24
 71
     3
 72
    13
 73
     9
 74
     0
 42
0.000000001
 43
0.00000001
 40
0.0
 40
0.0
 40
0.0
 40
0.0
 40
0.183872068882861
 40
0.3507900286376113
 40
0.5173821021098095
 40
0.6918206092563507
 40
0.8666921089798412
 40
1.0
 40
1.0
 40
1.0
 40
1.0
 10
181.704821159137
 20
117.5380791662323
 30
0.0
 10
181.9060596805215
 20
117.5380791662323
 30
0.0
 10
182.289981322935
 20
117.5380791662323
 30
0.0
 10
182.8960325807835
 20
117.5380791662323
 30
0.0
 10
183.5097707877894
 20
117.5380791662323
 30
0.0
 10
184.1302094785106
 20
117.5380791662323
 30
0.0
 10
184.6878212814926
 20
117.5380791662323
 30
0.0
 10
185.0236532998898
 20
117.5380791662323
 30
0.0
 10
185.1689227742747
 20
117.5380791662323
 30
0.0
  0
CIRCLE
  5
8C
330
1F
100
AcDbEntity
  8
0
  6
Continuous
 62
     7
370
    15
100
AcDbCircle
 10
183.4368719667
 20
114.5380791662
 30
0.0
 40
3.5
  0
SPLINE
  5
8D
330
1F
100
AcDbEntity
  8
0
  6
Continuous
 62
     7
370
    15
100
AcDbSpline
210
0.0
220
0.0
230
1.0
 70
    24
 71
     3
 72
    12
 73
     8
 74
     0
 42
0.000000001
 43
0.00000001
 40
0.0
 40
0.0
 40
0.0
 40
0.0
 40
0.2161857461389843
 40
0.4397628073511843
 40
0.5934185666353797
 40
0.7522096186328716
 40
0.9999999999999999
 40
0.9999999999999999
 40
0.9999999999999999
 40
0.9999999999999999
 10
186.9009735818436
 20
114.5380791662323
 30
0.0
 10
186.7823797749227
 20
114.3326686671823
 30
0.0
 10
186.5411374802874
 20
113.9148247559395
 30
0.0
 10
186.1864692532903
 20
113.3005213669501
 30
0.0
 10
185.8622076286312
 20
112.7388837580956
 30
0.0
 10
185.5291720483627
 20
112.1620492123423
 30
0.0
 10
185.3053380400362
 20
111.7743573374593
 30
0.0
 10
185.1689227742747
 20
111.5380791662323
 30
0.0
  0
SPLINE
  5
8E
330
1F
100
AcDbEntity
  8
0
  6
Continuous
 62
     7
370
    15
100
AcDbSpline
210
0.0
220
0.0
230
1.0
 70
    24
 71
     3
 72
    12
 73
     8
 74
     0
 42
0.000000001
 43
0.00000001
 40
0.0
 40
0.0
 40
0.0
 40
0.0
 40
0.2161857461389834
 40
0.4397628073511833
 40
0.5934185666353798
 40
0.7522096186328726
 40
1.0
 40
1.0
 40
1.0
 40
1.0
 10
181.704821159137
 20
111.5380791662323
 30
0.0
 10
181.5862273522161
 20
111.7434896652824
 30
0.0
 10
181.3449850575808
 20
112.1613335765252
 30
0.0
 10
180.9903168305837
 20
112.7756369655145
 30
0.0
 10
180.6660552059245
 20
113.337274574369
 30
0.0
 10
180.333019625656
 20
113.9141091201223
 30
0.0
 10
180.1091856173296
 20
114.3018009950054
 30
0.0
 10
179.9727703515681
 20
114.5380791662323
 30
0.0
  0
SPLINE
  5
8F
330
1F
100
AcDbEntity
  8
0
  6
Continuous
 62
     7
370
    15
100
AcDbSpline
210
0.0
220
0.0
230
1.0
 70
    24
 71
     3
 72
    12
 73
     8
 74
     0
 42
0.000000001
 43
0.00000001
 40
0.0
 40
0.0
 40
0.0
 40
0.0
 40
0.2161857461389842
 40
0.4397628073511841
 40
0.5934185666353797
 40
0.7522096186328714
 40
1.0
 40
1.0
 40
1.0
 40
1.0
 10
185.1689227742747
 20
117.5380791662323
 30
0.0
 10
185.2875165811957
 20
117.3326686671823
 30
0.0
 10
185.528758875831
 20
116.9148247559395
 30
0.0
 10
185.8834271028281
 20
116.3005213669501
 30
0.0
 10
186.2076887274872
 20
115.7388837580956
 30
0.0
 10
186.5407243077557
 20
115.1620492123423
 30
0.0
 10
186.7645583160821
 20
114.7743573374593
 30
0.0
 10
186.9009735818436
 20
114.5380791662323
 30
0.0
  0
SPLINE
  5
90
330
1F
100
AcDbEntity
  8
0
  6
Continuous
 62
     7
370
    15
100
AcDbSpline
210
0.0
220
0.0
230
1.0
 70
    24
 71
     3
 72
    12
 73
     8
 74
     0
 42
0.000000001
 43
0.00000001
 40
0.0
 40
0.0
 40
0.0
 40
0.0
 40
0.2161857461389846
 40
0.439762807351185
 40
0.593418566635381
 40
0.7522096186328721
 40
1.0
 40
1.0
 40
1.0
 40
1.0
 10
179.9727703515681
 20
114.5380791662323
 30
0.0
 10
180.091364158489
 20
114.7434896652824
 30
0.0
 10
180.3326064531243
 20
115.1613335765252
 30
0.0
 10
180.6872746801214
 20
115.7756369655146
 30
0.0
 10
181.0115363047805
 20
116.337274574369
 30
0.0
 10
181.3445718850491
 20
116.9141091201223
 30
0.0
 10
181.5684058933755
 20
117.3018009950054
 30
0.0
 10
181.704821159137
 20
117.5380791662323
 30
0.0
  0
CIRCLE
  5
91
330
1F
100
AcDbEntity
  8
0
  6
Continuous
 62
     7
370
    15
100
AcDbCircle
 10
183.4368719667
 20
114.5380791662
 30
0.0
 40
5.5
  0
ARC
  5
92
330
1F
100
AcDbEntity
  8
0
  6
Continuous
 62
     7
370
    15
100
AcDbCircle
 10
183.4368719667
 20
114.5380791662
 30
0.0
 40
5.999999999999999
100
AcDbArc
 50
209.1283728469
 51
270.0
  0
ARC
  5
93
330
1F
100
AcDbEntity
  8
0
  6
Continuous
 62
     7
370
    15
100
AcDbCircle
 10
183.4368719667
 20
114.5380791662
 30
0.0
 40
5.999999999999986
100
AcDbArc
 50
270.0
 51
150.8716329887
  0
ARC
  5
94
330
1F
100
AcDbEntity
  8
0
  6
Continuous
 62
     7
370
    15
100
AcDbCircle
 10
183.4368719667
 20
114.5380791662
 30
0.0
 40
3.0
100
AcDbArc
 50
210.0
 51
270.0
  0
ARC
  5
95
330
1F
100
AcDbEntity
  8
0
  6
Continuous
 62
     7
370
    15
100
AcDbCircle
 10
183.4368719667
 20
114.5380791662
 30
0.0
 40
3.0
100
AcDbArc
 50
150.0
 51
210.0
  0
ARC
  5
96
330
1F
100
AcDbEntity
  8
0
  6
Continuous
 62
     7
370
    15
100
AcDbCircle
 10
183.4368719667
 20
114.5380791662
 30
0.0
 40
3.0
100
AcDbArc
 50
330.0
 51
30.0
  0
ARC
  5
97
330
1F
100
AcDbEntity
  8
0
  6
Continuous
 62
     7
370
    15
100
AcDbCircle
 10
183.4368719667
 20
114.5380791662
 30
0.0
 40
3.0
100
AcDbArc
 50
30.0
 51
90.0
  0
ARC
  5
98
330
1F
100
AcDbEntity
  8
0
  6
Continuous
 62
     7
370
    15
100
AcDbCircle
 10
183.4368719667
 20
114.5380791662
 30
0.0
 40
3.0
100
AcDbArc
 50
270.0
 51
330.0
  0
ARC
  5
99
330
1F
100
AcDbEntity
  8
0
  6
Continuous
 62
     7
370
    15
100
AcDbCircle
 10
183.4368719667
 20
114.5380791662
 30
0.0
 40
3.0
100
AcDbArc
 50
90.0
 51
150.0
  0
SPLINE
  5
9A
330
1F
100
AcDbEntity
  8
0
  6
Continuous
 62
     7
370
    15
100
AcDbSpline
210
0.0
220
0.0
230
1.0
 70
     8
 71
     3
 72
    12
 73
     8
 74
     0
 42
0.000000001
 43
0.00000001
 40
0.0
 40
0.0
 40
0.0
 40
0.0
 40
0.25
 40
0.25
 40
0.5
 40
0.5
 40
1.0
 40
1.0
 40
1.0
 40
1.0
 10
175.3368719667059
 20
91.23034410906973
 30
0.0
 10
175.4320860044877
 20
91.23034410906973
 30
0.0
 10
175.5240114033727
 20
91.24435116276271
 30
0.0
 10
175.6802522216356
 20
91.29074454369562
 30
0.0
 10
175.7440583913246
 20
91.32233318539247
 30
0.0
 10
175.8933846123763
 20
91.42861404920482
 30
0.0
 10
175.9368719667058
 20
91.51155487817614
 30
0.0
 10
175.9368719667058
 20
91.59491850404905
 30
0.0
  0
SPLINE
  5
9B
330
1F
100
AcDbEntity
  8
0
  6
Continuous
 62
     7
370
    15
100
AcDbSpline
210
0.0
220
0.0
230
1.0
 70
    24
 71
     3
 72
    14
 73
    10
 74
     0
 42
0.000000001
 43
0.00000001
 40
0.0
 40
0.0
 40
0.0
 40
0.0
 40
0.25
 40
0.25
 40
0.5
 40
0.5
 40
0.75
 40
0.75
 40
1.0
 40
1.0
 40
1.0
 40
1.0
 10
175.9368719667058
 20
129.3880791662323
 30
0.0
 10
175.9368719667058
 20
129.3880791662323
 30
0.0
 10
175.9245487748663
 20
129.3880791662323
 30
0.0
 10
175.8746046594083
 20
129.3880791662323
 30
0.0
 10
175.8363741075694
 20
129.3880791662323
 30
0.0
 10
175.7335293961306
 20
129.3880791662323
 30
0.0
 10
175.6684338832985
 20
129.3880791662323
 30
0.0
 10
175.5133458762226
 20
129.3880791662323
 30
0.0
 10
175.4255564732883
 20
129.3880791662323
 30
0.0
 10
175.3368719667058
 20
129.3880791662323
 30
0.0
  0
LINE
  5
9C
330
1F
100
AcDbEntity
  8
0
  6
Continuous
 62
     7
370
    15
100
AcDbLine
 10
175.9368719667
 20
91.594918504
 30
0.0
 11
175.9368719667
 21
129.3880791662
 31
0.0
  0
LINE
  5
9D
330
1F
100
AcDbEntity
  8
0
  6
Continuous
 62
     7
370
    15
100
AcDbLine
 10
171.3499372847
 20
91.2303441091
 30
0.0
 11
175.3368719667
 21
91.2303441091
 31
0.0
  0
LINE
  5
9E
330
1F
100
AcDbEntity
  8
0
  6
Continuous
 62
     7
370
    15
100
AcDbLine
 10
171.3499372847
 20
91.2303441091
 30
0.0
 11
171.3499372847
 21
129.3880791662
 31
0.0
  0
LINE
  5
9F
330
1F
100
AcDbEntity
  8
0
  6
Continuous
 62
     7
370
    15
100
AcDbLine
 10
175.3368719667
 20
129.3880791662
 30
0.0
 11
171.3499372847
 21
129.3880791662
 31
0.0
  0
SPLINE
  5
A0
330
1F
100
AcDbEntity
  8
0
  6
Continuous
 62
     7
370
    15
100
AcDbSpline
210
0.0
220
0.0
230
1.0
 70
     8
 71
     3
 72
    10
 73
     6
 74
     0
 42
0.000000001
 43
0.00000001
 40
0.0
 40
0.0
 40
0.0
 40
0.0
 40
0.5
 40
0.5
 40
1.0
 40
1.0
 40
1.0
 40
1.0
 10
160.3189948266109
 20
91.30626173884271
 30
0.0
 10
160.3670676610069
 20
91.28373379634031
 30
0.0
 10
160.422757535011
 20
91.26474050565359
 30
0.0
 10
160.5480341703746
 20
91.23786022648665
 30
0.0
 10
160.6164798578728
 20
91.23034410906973
 30
0.0
 10
160.6868719667058
 20
91.23034410906973
 30
0.0
  0
SPLINE
  5
A1
330
1F
100
AcDbEntity
  8
0
  6
Continuous
 62
     7
370
    15
100
AcDbSpline
210
0.0
220
0.0
230
1.0
 70
     8
 71
     3
 72
    10
 73
     6
 74
     0
 42
0.000000001
 43
0.00000001
 40
0.0
 40
0.0
 40
0.0
 40
0.0
 40
0.5
 40
0.5
 40
1.0
 40
1.0
 40
1.0
 40
1.0
 10
160.3189948266109
 20
91.30626173884271
 30
0.0
 10
160.2565357513091
 20
91.38181945326762
 30
0.0
 10
160.2008065985609
 20
91.470387969891
 30
0.0
 10
160.1161312161715
 20
91.67250539872903
 30
0.0
 10
160.0868719667058
 20
91.78641922676523
 30
0.0
 10
160.0868719667058
 20
91.90540091110749
 30
0.0
  0
LINE
  5
A2
330
1F
100
AcDbEntity
  8
0
  6
Continuous
 62
     7
370
    15
100
AcDbLine
 10
160.0868719667
 20
91.9054009111
 30
0.0
 11
160.0868719667
 21
129.3880791662
 31
0.0
  0
SPLINE
  5
A3
330
1F
100
AcDbEntity
  8
0
  6
Continuous
 62
     7
370
    15
100
AcDbSpline
210
0.0
220
0.0
230
1.0
 70
    24
 71
     3
 72
    12
 73
     8
 74
     0
 42
0.000000001
 43
0.00000001
 40
0.0
 40
0.0
 40
0.0
 40
0.0
 40
0.2500000000000018
 40
0.2500000000000018
 40
0.5000000000000037
 40
0.5000000000000037
 40
1.0
 40
1.0
 40
1.0
 40
1.0
 10
160.6868719667058
 20
129.3880791662323
 30
0.0
 10
160.5986864436078
 20
129.3880791662323
 30
0.0
 10
160.509986990211
 20
129.3880791662323
 30
0.0
 10
160.3558090858552
 20
129.3880791662323
 30
0.0
 10
160.2904932135787
 20
129.3880791662323
 30
0.0
 10
160.1361069104711
 20
129.3880791662323
 30
0.0
 10
160.0868719667059
 20
129.3880791662323
 30
0.0
 10
160.0868719667058
 20
129.3880791662323
 30
0.0
  0
SPLINE
  5
A4
330
1F
100
AcDbEntity
  8
0
  6
Continuous
 62
     7
370
    15
100
AcDbSpline
210
0.0
220
0.0
230
1.0
 70
     8
 71
     3
 72
     8
 73
     4
 74
     0
 42
0.000000001
 43
0.00000001
 40
0.0
 40
0.0
 40
0.0
 40
0.0
 40
0.0011140524372172
 40
0.0011140524372172
 40
0.0011140524372172
 40
0.0011140524372172
 10
170.9200065141236
 20
91.68404708045738
 30
0.0
 10
171.0616156830491
 20
91.53250080441919
 30
0.0
 10
171.2049867278356
 20
91.3812734791359
 30
0.0
 10
171.3499372847354
 20
91.23034410906973
 30
0.0
  0
SPLINE
  5
A5
330
1F
100
AcDbEntity
  8
0
  6
Continuous
 62
     7
370
    15
100
AcDbSpline
210
0.0
220
0.0
230
1.0
 70
     8
 71
     3
 72
     8
 73
     4
 74
     0
 42
0.000000001
 43
0.00000001
 40
0.0
 40
0.0
 40
0.0
 40
0.0
 40
1.0
 40
1.0
 40
1.0
 40
1.0
 10
170.9200065141236
 20
91.68404708045738
 30
0.0
 10
170.577658792048
 20
92.31271993814897
 30
0.0
 10
170.2364888664619
 20
92.94207481170277
 30
0.0
 10
169.8968719667058
 20
93.57217797582106
 30
0.0
  0
LINE
  5
A6
330
1F
100
AcDbEntity
  8
0
  6
Continuous
 62
     7
370
    15
100
AcDbLine
 10
169.8968719667
 20
93.5721779758
 30
0.0
 11
169.8968719667
 21
129.3880791662
 31
0.0
  0
SPLINE
  5
A7
330
1F
100
AcDbEntity
  8
0
  6
Continuous
 62
     7
370
    15
100
AcDbSpline
210
0.0
220
0.0
230
1.0
 70
    24
 71
     3
 72
     8
 73
     4
 74
     0
 42
0.000000001
 43
0.00000001
 40
0.0
 40
0.0
 40
0.0
 40
0.0
 40
1.0
 40
1.0
 40
1.0
 40
1.0
 10
171.3499372847354
 20
129.3880791662323
 30
0.0
 10
170.8525817391387
 20
129.3880791662323
 30
0.0
 10
170.3664998011199
 20
129.3880791662323
 30
0.0
 10
169.8968719667058
 20
129.3880791662323
 30
0.0
  0
LINE
  5
A8
330
1F
100
AcDbEntity
  8
0
  6
Continuous
 62
     7
370
    15
100
AcDbLine
 10
160.6868719667
 20
91.2303441091
 30
0.0
 11
164.6238066487
 21
91.2303441091
 31
0.0
  0
LINE
  5
A9
330
1F
100
AcDbEntity
  8
0
  6
Continuous
 62
     7
370
    15
100
AcDbLine
 10
164.6238066487
 20
129.3880791662
 30
0.0
 11
160.6868719667
 21
129.3880791662
 31
0.0
  0
LINE
  5
AA
330
1F
100
AcDbEntity
  8
0
  6
Continuous
 62
     7
370
    15
100
AcDbLine
 10
164.6238066487
 20
91.2303441091
 30
0.0
 11
164.6238066487
 21
129.3880791662
 31
0.0
  0
SPLINE
  5
AB
330
1F
100
AcDbEntity
  8
0
  6
Continuous
 62
     7
370
    15
100
AcDbSpline
210
0.0
220
0.0
230
1.0
 70
     8
 71
     3
 72
     8
 73
     4
 74
     0
 42
0.000000001
 43
0.00000001
 40
0.0
 40
0.0
 40
0.0
 40
0.0
 40
1.0
 40
1.0
 40
1.0
 40
1.0
 10
166.0768719667059
 20
93.57217797582106
 30
0.0
 10
165.7372364515487
 20
92.94204027389533
 30
0.0
 10
165.3960797403214
 20
92.31271001990359
 30
0.0
 10
165.0537374192881
 20
91.68404708045738
 30
0.0
  0
SPLINE
  5
AC
330
1F
100
AcDbEntity
  8
0
  6
Continuous
 62
     7
370
    15
100
AcDbSpline
210
0.0
220
0.0
230
1.0
 70
     8
 71
     3
 72
     8
 73
     4
 74
     0
 42
0.000000001
 43
0.00000001
 40
0.0
 40
0.0
 40
0.0
 40
0.0
 40
0.0011140524372172
 40
0.0011140524372172
 40
0.0011140524372172
 40
0.0011140524372172
 10
164.6238066486763
 20
91.23034410906975
 30
0.0
 10
164.7687572055761
 20
91.3812734791359
 30
0.0
 10
164.9121282503625
 20
91.53250080441919
 30
0.0
 10
165.0537374192881
 20
91.68404708045738
 30
0.0
  0
SPLINE
  5
AD
330
1F
100
AcDbEntity
  8
0
  6
Continuous
 62
     7
370
    15
100
AcDbSpline
210
0.0
220
0.0
230
1.0
 70
    24
 71
     3
 72
     8
 73
     4
 74
     0
 42
0.000000001
 43
0.00000001
 40
0.0
 40
0.0
 40
0.0
 40
0.0
 40
1.0
 40
1.0
 40
1.0
 40
1.0
 10
166.0768719667058
 20
129.3880791662323
 30
0.0
 10
165.6072441322918
 20
129.3880791662323
 30
0.0
 10
165.121162194273
 20
129.3880791662323
 30
0.0
 10
164.6238066486763
 20
129.3880791662323
 30
0.0
  0
LINE
  5
AE
330
1F
100
AcDbEntity
  8
0
  6
Continuous
 62
     7
370
    15
100
AcDbLine
 10
166.0768719667
 20
93.5721779758
 30
0.0
 11
166.0768719667
 21
129.3880791662
 31
0.0
  0
SPLINE
  5
AF
330
1F
100
AcDbEntity
  8
0
  6
Continuous
 62
     7
370
    15
100
AcDbSpline
210
0.0
220
0.0
230
1.0
 70
     8
 71
     3
 72
    20
 73
    16
 74
     0
 42
0.000000001
 43
0.00000001
 40
0.0
 40
0.0
 40
0.0
 40
0.0
 40
0.1249999999999998
 40
0.1249999999999998
 40
0.2499999999999997
 40
0.2499999999999997
 40
0.3749999999999996
 40
0.3749999999999996
 40
0.4999999999999996
 40
0.4999999999999996
 40
0.6249999999999994
 40
0.6249999999999994
 40
0.7499999999999994
 40
0.7499999999999994
 40
1.0
 40
1.0
 40
1.0
 40
1.0
 10
178.9368719667059
 20
94.91163017513871
 30
0.0
 10
178.7485485863829
 20
94.94041633718082
 30
0.0
 10
178.5578816429301
 20
94.94812699068002
 30
0.0
 10
178.1719438606768
 20
94.9154278719853
 30
0.0
 10
177.9763308523175
 20
94.87397220075277
 30
0.0
 10
177.6041299351436
 20
94.7432956555636
 30
0.0
 10
177.422286888481
 20
94.65238867009431
 30
0.0
 10
177.0863577002357
 20
94.42966605607802
 30
0.0
 10
176.9324493138201
 20
94.29904764633714
 30
0.0
 10
176.6513661613204
 20
94.00201841091655
 30
0.0
 10
176.5287856453165
 20
93.84052256618381
 30
0.0
 10
176.3157912867136
 20
93.49469589646503
 30
0.0
 10
176.2254705490287
 20
93.30945322163666
 30
0.0
 10
176.0104606753556
 20
92.74091708414315
 30
0.0
 10
175.936871966706
 20
92.33233609348859
 30
0.0
 10
175.9368719667058
 20
91.92840203452693
 30
0.0
  0
SPLINE
  5
B0
330
1F
100
AcDbEntity
  8
0
  6
Continuous
 62
     7
370
    15
100
AcDbSpline
210
0.0
220
0.0
230
1.0
 70
    24
 71
     3
 72
    18
 73
    14
 74
     0
 42
0.000000001
 43
0.00000001
 40
0.0
 40
0.0
 40
0.0
 40
0.0
 40
0.1249999999999997
 40
0.1249999999999997
 40
0.2499999999999994
 40
0.2499999999999994
 40
0.4999999999999989
 40
0.4999999999999989
 40
0.7499999999999983
 40
0.7499999999999983
 40
0.8749999999999991
 40
0.8749999999999991
 40
1.0
 40
1.0
 40
1.0
 40
1.0
 10
177.9185729471774
 20
129.3880791662323
 30
0.0
 10
177.7511438844525
 20
129.3880791662323
 30
0.0
 10
177.5958542139869
 20
129.3880791662323
 30
0.0
 10
177.3050048991716
 20
129.3880791662323
 30
0.0
 10
177.168902678035
 20
129.3880791662323
 30
0.0
 10
176.7934299334823
 20
129.3880791662323
 30
0.0
 10
176.5935930247149
 20
129.3880791662323
 30
0.0
 10
176.268015009425
 20
129.3880791662323
 30
0.0
 10
176.14399762023
 20
129.3880791662323
 30
0.0
 10
176.0205699985565
 20
129.3880791662323
 30
0.0
 10
175.989439237433
 20
129.3880791662323
 30
0.0
 10
175.9475035684504
 20
129.3880791662323
 30
0.0
 10
175.9368719667058
 20
129.3880791662323
 30
0.0
 10
175.9368719667058
 20
129.3880791662323
 30
0.0
  0
SPLINE
  5
B1
330
1F
100
AcDbEntity
  8
0
  6
Continuous
 62
     7
370
    15
100
AcDbSpline
210
0.0
220
0.0
230
1.0
 70
     8
 71
     3
 72
    18
 73
    14
 74
     0
 42
0.000000001
 43
0.00000001
 40
0.0
 40
0.0
 40
0.0
 40
0.0
 40
0.2500000000000022
 40
0.2500000000000022
 40
0.3750000000000025
 40
0.3750000000000025
 40
0.5000000000000028
 40
0.5000000000000028
 40
0.7500000000000022
 40
0.7500000000000022
 40
0.8750000000000011
 40
0.8750000000000011
 40
1.0
 40
1.0
 40
1.0
 40
1.0
 10
175.9368719667058
 20
133.3921901237927
 30
0.0
 10
175.9368719667058
 20
133.007180514231
 30
0.0
 10
175.9834368599668
 20
132.6167100570482
 30
0.0
 10
176.1170036367897
 20
132.0548359689467
 30
0.0
 10
176.172127519643
 20
131.87047607351
 30
0.0
 10
176.3036430204554
 20
131.5076480540277
 30
0.0
 10
176.3806312899923
 20
131.3280772748265
 30
0.0
 10
176.6398818918447
 20
130.808134558075
 30
0.0
 10
176.8491507066711
 20
130.4866744696436
 30
0.0
 10
177.2151734977682
 20
130.0415340518531
 30
0.0
 10
177.346699271607
 20
129.8987059200692
 30
0.0
 10
177.622846408236
 20
129.6306229847244
 30
0.0
 10
177.7675246370024
 20
129.5050819580023
 30
0.0
 10
177.918572947177
 20
129.3880791662319
 30
0.0
  0
SPLINE
  5
B2
330
1F
100
AcDbEntity
  8
0
  6
Continuous
 62
     7
370
    15
100
AcDbSpline
210
0.0
220
0.0
230
1.0
 70
     8
 71
     3
 72
    12
 73
     8
 74
     0
 42
0.000000001
 43
0.00000001
 40
0.0
 40
0.0
 40
0.0
 40
0.0
 40
0.2500000000000001
 40
0.2500000000000001
 40
0.5000000000000001
 40
0.5000000000000001
 40
1.0
 40
1.0
 40
1.0
 40
1.0
 10
176.78019384344
 20
134.9380791662323
 30
0.0
 10
176.6416192927505
 20
135.0863046790891
 30
0.0
 10
176.5207080413505
 20
135.2472212000226
 30
0.0
 10
176.3105506756117
 20
135.5916008171878
 30
0.0
 10
176.2214935736998
 20
135.7757912148088
 30
0.0
 10
176.0094540413246
 20
136.3408551968415
 30
0.0
 10
175.9368719667058
 20
136.7466376174285
 30
0.0
 10
175.9368719667058
 20
137.1477562979386
 30
0.0
  0
SPLINE
  5
B3
330
1F
100
AcDbEntity
  8
0
  6
Continuous
 62
     7
370
    15
100
AcDbSpline
210
0.0
220
0.0
230
1.0
 70
     8
 71
     3
 72
    14
 73
    10
 74
     0
 42
0.000000001
 43
0.00000001
 40
0.0
 40
0.0
 40
0.0
 40
0.0
 40
0.25
 40
0.25
 40
0.5
 40
0.5
 40
0.75
 40
0.75
 40
1.0
 40
1.0
 40
1.0
 40
1.0
 10
178.9368719667059
 20
134.1645281573259
 30
0.0
 10
178.7472359919751
 20
134.1355413587232
 30
0.0
 10
178.555223697692
 20
134.1279219418212
 30
0.0
 10
178.1665312956177
 20
134.1615306650549
 30
0.0
 10
177.9696627619912
 20
134.2038022251225
 30
0.0
 10
177.5952405573159
 20
134.3367394245567
 30
0.0
 10
177.4123420297518
 20
134.429185596907
 30
0.0
 10
177.0752672975623
 20
134.6550985674628
 30
0.0
 10
176.9207136528418
 20
134.7877729179964
 30
0.0
 10
176.78019384344
 20
134.9380791662323
 30
0.0
  0
SPLINE
  5
B4
330
1F
100
AcDbEntity
  8
0
  6
Continuous
 62
     7
370
    15
100
AcDbSpline
210
0.0
220
0.0
230
1.0
 70
     8
 71
     3
 72
    24
 73
    20
 74
     0
 42
0.000000001
 43
0.00000001
 40
0.0
 40
0.0
 40
0.0
 40
0.0
 40
0.045160150425634
 40
0.090599368293215
 40
0.1363515608967232
 40
0.1824498943961531
 40
0.2289268686343499
 40
0.2758144018477884
 40
0.3231439244997889
 40
0.3709464813666188
 40
0.4192528409051543
 40
0.4680936108248073
 40
0.5174993586759136
 40
0.6041982524935692
 40
0.688058013876922
 40
0.7693069222464987
 40
0.8481959872114033
 40
0.9249970566042943
 40
1.0
 40
1.0
 40
1.0
 40
1.0
 10
177.3656363826621
 20
114.5380791662293
 30
0.0
 10
177.3661634055869
 20
114.6220634775375
 30
0.0
 10
177.3672207081781
 20
114.7905510817495
 30
0.0
 10
177.3772845207895
 20
115.043768265033
 30
0.0
 10
177.3935905334997
 20
115.2980007856683
 30
0.0
 10
177.4168339589228
 20
115.5530740494084
 30
0.0
 10
177.4469532442651
 20
115.808818729966
 30
0.0
 10
177.4841263523096
 20
116.0650764353658
 30
0.0
 10
177.528497500594
 20
116.3217025066995
 30
0.0
 10
177.5802448133983
 20
116.5785710413899
 30
0.0
 10
177.6395625950965
 20
116.8355749525474
 30
0.0
 10
177.7066350156366
 20
117.0926451056065
 30
0.0
 10
177.8003160899327
 20
117.4133295469253
 30
0.0
 10
177.9259422097809
 20
117.7887250784272
 30
0.0
 10
178.0920134440931
 20
118.2086041035045
 30
0.0
 10
178.2757303328491
 20
118.6051298655029
 30
0.0
 10
178.4776172642057
 20
118.9792295830595
 30
0.0
 10
178.6953650623763
 20
119.33340273314
 30
0.0
 10
178.8570078876677
 20
119.5572279726805
 30
0.0
 10
178.9368719667059
 20
119.6678149819657
 30
0.0
  0
SPLINE
  5
B5
330
1F
100
AcDbEntity
  8
0
  6
Continuous
 62
     7
370
    15
100
AcDbSpline
210
0.0
220
0.0
230
1.0
 70
     8
 71
     3
 72
    23
 73
    19
 74
     0
 42
0.000000001
 43
0.00000001
 40
0.0
 40
0.0
 40
0.0
 40
0.0
 40
0.0448006192296653
 40
0.0902070872246016
 40
0.1362840985598853
 40
0.183094369868986
 40
0.2306983498455039
 40
0.2791539716574343
 40
0.3285164493059007
 40
0.3788381177177104
 40
0.4301683149346226
 40
0.4825533036790665
 40
0.5726778714696625
 40
0.6609932074822517
 40
0.7476885416387894
 40
0.8329557779174328
 40
0.9169917191795754
 40
0.9999999999999999
 40
0.9999999999999999
 40
0.9999999999999999
 40
0.9999999999999999
 10
178.9368719667059
 20
109.4083427684788
 30
0.0
 10
178.8886950855648
 20
109.4741373132593
 30
0.0
 10
178.7916898165746
 20
109.6066161571229
 30
0.0
 10
178.6548311737141
 20
109.8117282558318
 30
0.0
 10
178.523445231756
 20
110.0235434226452
 30
0.0
 10
178.3983876710456
 20
110.2427905555289
 30
0.0
 10
178.2795831586739
 20
110.469709324191
 30
0.0
 10
178.167143971465
 20
110.7046344126118
 30
0.0
 10
178.0610731740765
 20
110.9478340355172
 30
0.0
 10
177.961347110087
 20
111.1995480515356
 30
0.0
 10
177.8679268253019
 20
111.4599928630897
 30
0.0
 10
177.7603187117423
 20
111.7920666362504
 30
0.0
 10
177.6479406914676
 20
112.194318609324
 30
0.0
 10
177.542616411348
 20
112.6657487714549
 30
0.0
 10
177.4621669135006
 20
113.1365579680094
 30
0.0
 10
177.4061306782855
 20
113.6059631872002
 30
0.0
 10
177.3715492920968
 20
114.0729947062984
 30
0.0
 10
177.367599252224
 20
114.3836881443161
 30
0.0
 10
177.3656363826621
 20
114.5380791662293
 30
0.0
  0
SPLINE
  5
B6
330
1F
100
AcDbEntity
  8
0
  6
Continuous
 62
     7
370
    15
100
AcDbSpline
210
0.0
220
0.0
230
1.0
 70
     8
 71
     3
 72
    10
 73
     6
 74
     0
 42
0.000000001
 43
0.00000001
 40
0.0
 40
0.0
 40
0.0
 40
0.0
 40
0.5
 40
0.5
 40
1.0
 40
1.0
 40
1.0
 40
1.0
 10
169.8968719667058
 20
93.57217797582106
 30
0.0
 10
169.8619905182672
 20
93.70129799208348
 30
0.0
 10
169.7892858914997
 20
93.817845735129
 30
0.0
 10
169.5858243705606
 20
93.98672885904844
 30
0.0
 10
169.4540006082427
 20
94.03690541934651
 30
0.0
 10
169.3205183902677
 20
94.03690541934651
 30
0.0
  0
SPLINE
  5
B7
330
1F
100
AcDbEntity
  8
0
  6
Continuous
 62
     7
370
    15
100
AcDbSpline
210
0.0
220
0.0
230
1.0
 70
    24
 71
     3
 72
    14
 73
    10
 74
     0
 42
0.000000001
 43
0.00000001
 40
0.0
 40
0.0
 40
0.0
 40
0.0
 40
0.25
 40
0.25
 40
0.5
 40
0.5
 40
0.75
 40
0.75
 40
1.0
 40
1.0
 40
1.0
 40
1.0
 10
169.8968719667059
 20
129.3880791662323
 30
0.0
 10
169.8813313275501
 20
129.3880791662323
 30
0.0
 10
169.8584051660601
 20
129.3880791662323
 30
0.0
 10
169.7953371884251
 20
129.3880791662323
 30
0.0
 10
169.7553106857549
 20
129.3880791662323
 30
0.0
 10
169.6578263690798
 20
129.3880791662323
 30
0.0
 10
169.5998913471128
 20
129.3880791662323
 30
0.0
 10
169.4681419226506
 20
129.3880791662323
 30
0.0
 10
169.3949973281515
 20
129.3880791662323
 30
0.0
 10
169.3205183902677
 20
129.3880791662323
 30
0.0
  0
SPLINE
  5
B8
330
1F
100
AcDbEntity
  8
0
  6
Continuous
 62
     7
370
    15
100
AcDbSpline
210
0.0
220
0.0
230
1.0
 70
     8
 71
     3
 72
    12
 73
     8
 74
     0
 42
0.000000001
 43
0.00000001
 40
0.0
 40
0.0
 40
0.0
 40
0.0
 40
0.2499999999999988
 40
0.2499999999999988
 40
0.4999999999999976
 40
0.4999999999999976
 40
1.0
 40
1.0
 40
1.0
 40
1.0
 10
166.653225543144
 20
94.03690541934651
 30
0.0
 10
166.5872287832286
 20
94.03690541934651
 30
0.0
 10
166.5205679712764
 20
94.02498930034766
 30
0.0
 10
166.3949625598097
 20
93.9785040733489
 30
0.0
 10
166.3380366212714
 20
93.94524467097516
 30
0.0
 10
166.183764165337
 20
93.8174265716483
 30
0.0
 10
166.1115645764415
 20
93.7005989713289
 30
0.0
 10
166.0768719667059
 20
93.57217797582106
 30
0.0
  0
SPLINE
  5
B9
330
1F
100
AcDbEntity
  8
0
  6
Continuous
 62
     7
370
    15
100
AcDbSpline
210
0.0
220
0.0
230
1.0
 70
    24
 71
     3
 72
    12
 73
     8
 74
     0
 42
0.000000001
 43
0.00000001
 40
0.0
 40
0.0
 40
0.0
 40
0.0
 40
0.2499999999999988
 40
0.2499999999999988
 40
0.4999999999999976
 40
0.4999999999999976
 40
1.0
 40
1.0
 40
1.0
 40
1.0
 10
166.653225543144
 20
129.3880791662323
 30
0.0
 10
166.5787295365324
 20
129.3880791662323
 30
0.0
 10
166.5053836711064
 20
129.3880791662323
 30
0.0
 10
166.3749904356639
 20
129.3880791662323
 30
0.0
 10
166.3166733202216
 20
129.3880791662323
 30
0.0
 10
166.1703205923741
 20
129.3880791662323
 30
0.0
 10
166.1080934202072
 20
129.3880791662323
 30
0.0
 10
166.0768719667058
 20
129.3880791662323
 30
0.0
  0
LINE
  5
BA
330
1F
100
AcDbEntity
  8
0
  6
Continuous
 62
     7
370
    15
100
AcDbLine
 10
169.3205183903
 20
94.0369054193
 30
0.0
 11
166.6532255431
 21
94.0369054193
 31
0.0
  0
LINE
  5
BB
330
1F
100
AcDbEntity
  8
0
  6
Continuous
 62
     7
370
    15
100
AcDbLine
 10
169.3205183903
 20
129.3880791662
 30
0.0
 11
166.6532255431
 21
129.3880791662
 31
0.0
  0
LINE
  5
BC
330
1F
100
AcDbEntity
  8
0
  6
Continuous
 62
     7
370
    15
100
AcDbLine
 10
177.3656363827
 20
114.5380791662
 30
0.0
 11
177.7575761652
 21
114.5380791662
 31
0.0
  0
LINE
  5
BD
330
1F
100
AcDbEntity
  8
0
  6
Continuous
 62
     7
370
    15
100
AcDbLine
 10
178.9368719667
 20
109.4083427685
 30
0.0
 11
179.4403664093
 21
110.1242303488
 31
0.0
  0
LINE
  5
BE
330
1F
100
AcDbEntity
  8
0
  6
Continuous
 62
     7
370
    15
100
AcDbLine
 10
179.4295985108
 20
118.9674063003
 30
0.0
 11
178.936934702
 21
119.6678988209
 31
0.0
  0
SPLINE
  5
BF
330
1F
100
AcDbEntity
  8
0
  6
Continuous
 62
     7
370
    15
100
AcDbSpline
210
0.0
220
0.0
230
1.0
 70
     8
 71
     3
 72
    12
 73
     8
 74
     0
 42
0.000000001
 43
0.00000001
 40
0.0
 40
0.0
 40
0.0
 40
0.0
 40
0.4999999999999996
 40
0.4999999999999996
 40
0.7499999999999998
 40
0.7499999999999998
 40
1.0
 40
1.0
 40
1.0
 40
1.0
 10
182.2584619565739
 20
134.9380791662323
 30
0.0
 10
181.8277775053746
 20
134.8046178664533
 30
0.0
 10
181.3197820564707
 20
134.6597637404037
 30
0.0
 10
180.4858901050661
 20
134.4583780668542
 30
0.0
 10
180.1949133037135
 20
134.3935416955506
 30
0.0
 10
179.5859056426189
 20
134.2719060377098
 30
0.0
 10
179.2663761313567
 20
134.2148945019664
 30
0.0
 10
178.9368719667059
 20
134.164528157326
 30
0.0
  0
SPLINE
  5
C0
330
1F
100
AcDbEntity
  8
0
  6
Continuous
 62
     7
370
    15
100
AcDbSpline
210
0.0
220
0.0
230
1.0
 70
     8
 71
     3
 72
    17
 73
    13
 74
     0
 42
0.000000001
 43
0.00000001
 40
0.0
 40
0.0
 40
0.0
 40
0.0
 40
0.0592295927287416
 40
0.1208837354519865
 40
0.1825378073334009
 40
0.2454204513028533
 40
0.3606855102441144
 40
0.5360670944914115
 40
0.7146230472474673
 40
0.7855771111031424
 40
0.9282461979112443
 40
1.0
 40
1.0
 40
1.0
 40
1.0
 10
183.9800415983867
 20
135.5354618102688
 30
0.0
 10
183.9816825486395
 20
135.5360902821316
 30
0.0
 10
183.9850316210729
 20
135.537372952211
 30
0.0
 10
183.9618885728229
 20
135.5285095080995
 30
0.0
 10
183.9285354973086
 20
135.5157750561598
 30
0.0
 10
183.8662670253139
 20
135.4921025471947
 30
0.0
 10
183.7375644121319
 20
135.443550655192
 30
0.0
 10
183.4870899263312
 20
135.3508566113167
 30
0.0
 10
183.1773330806709
 20
135.2405037944585
 30
0.0
 10
182.8407645138656
 20
135.125416291295
 30
0.0
 10
182.5669193189529
 20
135.0346569913055
 30
0.0
 10
182.3358022474856
 20
134.9622943674166
 30
0.0
 10
182.2584619565739
 20
134.9380791662323
 30
0.0
  0
SPLINE
  5
C1
330
1F
100
AcDbEntity
  8
0
  6
Continuous
 62
     7
370
    15
100
AcDbSpline
210
0.0
220
0.0
230
1.0
 70
     8
 71
     3
 72
    19
 73
    15
 74
     0
 42
0.000000001
 43
0.00000001
 40
0.0
 40
0.0
 40
0.0
 40
0.0
 40
0.0331391032215904
 40
0.1372302410051429
 40
0.2017124743731729
 40
0.2998254354714021
 40
0.3997142198144034
 40
0.4663642399654901
 40
0.5676973607131518
 40
0.670768477364457
 40
0.7413283106207265
 40
0.8487268161180979
 40
0.958204337371162
 40
1.0
 40
1.0
 40
1.0
 40
1.0
 10
183.9735937799181
 20
93.54316355381478
 30
0.0
 10
183.9773080593647
 20
93.54174135875782
 30
0.0
 10
183.9926890266833
 20
93.53585199690274
 30
0.0
 10
183.9080315348204
 20
93.56831178477432
 30
0.0
 10
183.7386143380048
 20
93.63220645803244
 30
0.0
 10
183.4867763173566
 20
93.7254302570952
 30
0.0
 10
183.1421728001946
 20
93.8481518774136
 30
0.0
 10
182.7195594602109
 20
93.99180106145695
 30
0.0
 10
182.2204448130274
 20
94.15257694558335
 30
0.0
 10
181.6332178647446
 20
94.32579001532812
 30
0.0
 10
180.9700770584086
 20
94.50322922185588
 30
0.0
 10
180.2292312485319
 20
94.67878269933769
 30
0.0
 10
179.5053150331229
 20
94.82148547380336
 30
0.0
 10
179.0599288713129
 20
94.89211559475515
 30
0.0
 10
178.9368719667059
 20
94.9116301751387
 30
0.0
  0
SPLINE
  5
C2
330
1F
100
AcDbEntity
  8
0
  6
Continuous
 62
     7
370
    15
100
AcDbSpline
210
0.0
220
0.0
230
1.0
 70
     8
 71
     3
 72
    35
 73
    31
 74
     0
 42
0.000000001
 43
0.00000001
 40
0.0
 40
0.0
 40
0.0
 40
0.0
 40
0.017396304817866
 40
0.0346506289467242
 40
0.0517855619907007
 40
0.0688241684252955
 40
0.0857899055934966
 40
0.102706533974641
 40
0.1195980212889549
 40
0.136488442285849
 40
0.153401876270499
 40
0.170362304533684
 40
0.1873935098545796
 40
0.2045189801449351
 40
0.2217618181044098
 40
0.239144658477909
 40
0.2566895941689268
 40
0.3419504272880969
 40
0.4244126453200115
 40
0.5071644679070746
 40
0.5685966532828607
 40
0.6299927911358548
 40
0.6914614550802706
 40
0.7523591338682112
 40
0.8133500677053982
 40
0.875433521677586
 40
0.906527612071966
 40
0.9375413996679606
 40
0.9686432228631409
 40
1.0
 40
1.0
 40
1.0
 40
1.0
 10
190.0669579480871
 20
114.5380791662323
 30
0.0
 10
190.0662603898546
 20
114.4464690513303
 30
0.0
 10
190.0648709665412
 20
114.2639965014139
 30
0.0
 10
190.0504366391588
 20
113.9916508337983
 30
0.0
 10
190.0269280617962
 20
113.7219602623769
 30
0.0
 10
189.9934792948445
 20
113.454965063638
 30
0.0
 10
189.9503195147348
 20
113.190706211296
 30
0.0
 10
189.8973874759078
 20
112.9292214821981
 30
0.0
 10
189.8346994823088
 20
112.6705465075185
 30
0.0
 10
189.7622514701622
 20
112.4147144931422
 30
0.0
 10
189.6800451442804
 20
112.1617563443303
 30
0.0
 10
189.5880808569524
 20
111.9117004982521
 30
0.0
 10
189.4863599322534
 20
111.6645735443856
 30
0.0
 10
189.3748823227248
 20
111.4203980022927
 30
0.0
 10
189.2536535182123
 20
111.1792008121656
 30
0.0
 10
189.1226587731623
 20
110.9409814811673
 30
0.0
 10
188.8015125998186
 20
110.4042515970908
 30
0.0
 10
188.2205880040044
 20
109.6302418051384
 30
0.0
 10
187.2447464199163
 20
108.761021469259
 30
0.0
 10
186.2195976603174
 20
108.1622776673508
 30
0.0
 10
185.2097035928337
 20
107.7816887676441
 30
0.0
 10
184.2575118152014
 20
107.585369252393
 30
0.0
 10
183.2875271220025
 20
107.5302007629028
 30
0.0
 10
182.3230730306697
 20
107.6273448599828
 30
0.0
 10
181.384945291561
 20
107.8704699994996
 30
0.0
 10
180.6422260771909
 20
108.1898624137993
 30
0.0
 10
180.0788138301751
 20
108.5081602640985
 30
0.0
 10
179.6758548430739
 20
108.7777332577351
 30
0.0
 10
179.2918658700187
 20
109.0753300030597
 30
0.0
 10
179.0555248465582
 20
109.2970368466704
 30
0.0
 10
178.9368719667059
 20
109.4083427684788
 30
0.0
  0
SPLINE
  5
C3
330
1F
100
AcDbEntity
  8
0
  6
Continuous
 62
     7
370
    15
100
AcDbSpline
210
0.0
220
0.0
230
1.0
 70
     8
 71
     3
 72
    31
 73
    27
 74
     0
 42
0.000000001
 43
0.00000001
 40
0.0
 40
0.0
 40
0.0
 40
0.0
 40
0.0157152994566294
 40
0.0313499688599996
 40
0.046924595015867
 40
0.0624600034696631
 40
0.0779771777059653
 40
0.0934971752038724
 40
0.1090410420013331
 40
0.1246297274910544
 40
0.1866727316015289
 40
0.2476538222972095
 40
0.3085249540739561
 40
0.3700392873378763
 40
0.4315475643868084
 40
0.4931117648498994
 40
0.6167645711678913
 40
0.7433601757370072
 40
0.776109071791451
 40
0.8083580652948696
 40
0.840257525367157
 40
0.8719627946339514
 40
0.9036320733552228
 40
0.9354240989706262
 40
0.967495786276758
 40
1.0
 40
1.0
 40
1.0
 40
1.0
 10
178.9369109673754
 20
119.6678535374731
 30
0.0
 10
178.9957246660446
 20
119.72422212077
 30
0.0
 10
179.1130503095623
 20
119.8366700786288
 30
0.0
 10
179.2964503679621
 20
119.9966393309164
 30
0.0
 10
179.4846046415047
 20
120.1495993923949
 30
0.0
 10
179.6780782859491
 20
120.2950082656812
 30
0.0
 10
179.8767207442422
 20
120.4330543490981
 30
0.0
 10
180.0805663274592
 20
120.5637313956386
 30
0.0
 10
180.2896215653919
 20
120.6870853470713
 30
0.0
 10
180.7161935228108
 20
120.9182206834003
 30
0.0
 10
181.383774818663
 20
121.2053135837522
 30
0.0
 10
182.320915363367
 20
121.4484179176839
 30
0.0
 10
183.2849268420874
 20
121.5456787683557
 30
0.0
 10
184.2550928615935
 20
121.4909401221976
 30
0.0
 10
185.2085312498513
 20
121.2948483398493
 30
0.0
 10
186.4195204815165
 20
120.8388138852935
 30
0.0
 10
187.7985348242717
 20
119.9426558789621
 30
0.0
 10
188.7430260062063
 20
118.7927049618508
 30
0.0
 10
189.2415713828788
 20
117.9290838434191
 30
0.0
 10
189.4635790058086
 20
117.4746705616436
 30
0.0
 10
189.6511298116397
 20
117.0098021648843
 30
0.0
 10
189.8042542828458
 20
116.5345762054841
 30
0.0
 10
189.9231181273564
 20
116.0492266254764
 30
0.0
 10
190.0069277213196
 20
115.5539957813517
 30
0.0
 10
190.0586827697147
 20
115.0491483480237
 30
0.0
 10
190.064187265676
 20
114.7091945584488
 30
0.0
 10
190.0669579480871
 20
114.5380791662323
 30
0.0
  0
LINE
  5
C4
330
1F
100
AcDbEntity
  8
0
  6
Continuous
 62
     7
370
    15
100
AcDbLine
 10
195.5868719667
 20
93.5380791662
 30
0.0
 11
195.5868719667
 21
135.5380791662
 31
0.0
  0
LINE
  5
C5
330
1F
100
AcDbEntity
  8
0
  6
Continuous
 62
     7
370
    15
100
AcDbLine
 10
195.9868719667
 20
93.9380791662
 30
0.0
 11
195.9868719667
 21
135.1380791662
 31
0.0
  0
LINE
  5
C6
330
1F
100
AcDbEntity
  8
0
  6
Continuous
 62
     7
370
    15
100
AcDbLine
 10
156.8868719667
 20
98.6630791662
 30
0.0
 11
156.8868719667
 21
130.4130791662
 31
0.0
  0
SPLINE
  5
C7
330
1F
100
AcDbEntity
  8
0
  6
Continuous
 62
     7
370
    15
100
AcDbSpline
210
0.0
220
0.0
230
1.0
 70
     8
 71
     3
 72
    10
 73
     6
 74
     0
 42
0.000000001
 43
0.00000001
 40
0.0
 40
0.0
 40
0.0
 40
0.0
 40
0.5
 40
0.5
 40
1.0
 40
1.0
 40
1.0
 40
1.0
 10
160.4051104810566
 20
137.8619244221233
 30
0.0
 10
160.320664488879
 20
137.7823490906922
 30
0.0
 10
160.2470839695089
 20
137.6866621475464
 30
0.0
 10
160.1292258943595
 20
137.4518370484241
 30
0.0
 10
160.0868719667069
 20
137.3156477780422
 30
0.0
 10
160.0868719667058
 20
137.170757421362
 30
0.0
  0
SPLINE
  5
C8
330
1F
100
AcDbEntity
  8
0
  6
Continuous
 62
     7
370
    15
100
AcDbSpline
210
0.0
220
0.0
230
1.0
 70
     8
 71
     3
 72
     8
 73
     4
 74
     0
 42
0.000000001
 43
0.00000001
 40
0.0
 40
0.0
 40
0.0
 40
0.0
 40
1.0
 40
1.0
 40
1.0
 40
1.0
 10
160.6868719667058
 20
137.9165053680745
 30
0.0
 10
160.5875983655728
 20
137.9165053680745
 30
0.0
 10
160.4907870205752
 20
137.8973298130403
 30
0.0
 10
160.4051104810584
 20
137.8619244221291
 30
0.0
  0
SPLINE
  5
C9
330
1F
100
AcDbEntity
  8
0
  6
Continuous
 62
     7
370
    15
100
AcDbSpline
210
0.0
220
0.0
230
1.0
 70
     8
 71
     3
 72
    12
 73
     8
 74
     0
 42
0.000000001
 43
0.00000001
 40
0.0
 40
0.0
 40
0.0
 40
0.0
 40
0.4999999999999997
 40
0.4999999999999997
 40
0.7499999999999998
 40
0.7499999999999998
 40
1.0
 40
1.0
 40
1.0
 40
1.0
 10
160.0868719667058
 20
133.8672831074194
 30
0.0
 10
160.0868719667058
 20
134.0447076270035
 30
0.0
 10
160.1350252944312
 20
134.2224115459297
 30
0.0
 10
160.2904263085419
 20
134.4406060094209
 30
0.0
 10
160.3555473615913
 20
134.503455552816
 30
0.0
 10
160.5105590131014
 20
134.5935756749481
 30
0.0
 10
160.5983955053744
 20
134.6186201201013
 30
0.0
 10
160.6868719667059
 20
134.6186201201013
 30
0.0
  0
LINE
  5
CA
330
1F
100
AcDbEntity
  8
0
  6
Continuous
 62
     7
370
    15
100
AcDbLine
 10
160.0868719667
 20
133.8672831074
 30
0.0
 11
160.0868719667
 21
137.1707574214
 31
0.0
  0
SPLINE
  5
CB
330
1F
100
AcDbEntity
  8
0
  6
Continuous
 62
     7
370
    15
100
AcDbSpline
210
0.0
220
0.0
230
1.0
 70
     8
 71
     3
 72
    10
 73
     6
 74
     0
 42
0.000000001
 43
0.00000001
 40
0.0
 40
0.0
 40
0.0
 40
0.0
 40
0.5
 40
0.5
 40
1.0
 40
1.0
 40
1.0
 40
1.0
 10
166.653225543144
 20
135.0392529131181
 30
0.0
 10
166.5209643504273
 20
135.0392529131181
 30
0.0
 10
166.3891254185502
 20
135.0886729200645
 30
0.0
 10
166.1845739690722
 20
135.2579735803678
 30
0.0
 10
166.1114094164435
 20
135.3761337140469
 30
0.0
 10
166.0768719667058
 20
135.5039803566438
 30
0.0
  0
SPLINE
  5
CC
330
1F
100
AcDbEntity
  8
0
  6
Continuous
 62
     7
370
    15
100
AcDbSpline
210
0.0
220
0.0
230
1.0
 70
     8
 71
     3
 72
    12
 73
     8
 74
     0
 42
0.000000001
 43
0.00000001
 40
0.0
 40
0.0
 40
0.0
 40
0.0
 40
0.5000000000000063
 40
0.5000000000000063
 40
0.7500000000000031
 40
0.7500000000000031
 40
1.0
 40
1.0
 40
1.0
 40
1.0
 10
166.0768719667057
 20
131.3858983938382
 30
0.0
 10
166.107862992568
 20
131.243138947598
 30
0.0
 10
166.1697357653998
 20
131.1039298804479
 30
0.0
 10
166.3168984921415
 20
130.9378097948592
 30
0.0
 10
166.3748591270763
 20
130.8903284565236
 30
0.0
 10
166.506116998072
 20
130.8230319636144
 30
0.0
 10
166.579802956159
 20
130.803936813464
 30
0.0
 10
166.653225543144
 20
130.803936813464
 30
0.0
  0
LINE
  5
CD
330
1F
100
AcDbEntity
  8
0
  6
Continuous
 62
     7
370
    15
100
AcDbLine
 10
166.0768719667
 20
131.3858983938
 30
0.0
 11
166.0768719667
 21
135.5039803566
 31
0.0
  0
SPLINE
  5
CE
330
1F
100
AcDbEntity
  8
0
  6
Continuous
 62
     7
370
    15
100
AcDbSpline
210
0.0
220
0.0
230
1.0
 70
     8
 71
     3
 72
     8
 73
     4
 74
     0
 42
0.000000001
 43
0.00000001
 40
0.0
 40
0.0
 40
0.0
 40
0.0
 40
0.0011754745544621
 40
0.0011754745544621
 40
0.0011754745544621
 40
0.0011754745544621
 10
165.1690956317778
 20
137.1801629364926
 30
0.0
 10
164.9879380367215
 20
137.4258340988179
 30
0.0
 10
164.8061505867361
 20
137.6712734344933
 30
0.0
 10
164.6238066486763
 20
137.9165053680745
 30
0.0
  0
SPLINE
  5
CF
330
1F
100
AcDbEntity
  8
0
  6
Continuous
 62
     7
370
    15
100
AcDbSpline
210
0.0
220
0.0
230
1.0
 70
     8
 71
     3
 72
     8
 73
     4
 74
     0
 42
0.000000001
 43
0.00000001
 40
0.0
 40
0.0
 40
0.0
 40
0.0
 40
1.0
 40
1.0
 40
1.0
 40
1.0
 10
166.0768719667057
 20
135.5039803566438
 30
0.0
 10
165.7754060839056
 20
136.0633005988418
 30
0.0
 10
165.4727381275951
 20
136.6219882096659
 30
0.0
 10
165.1690956317778
 20
137.1801629364926
 30
0.0
  0
SPLINE
  5
D0
330
1F
100
AcDbEntity
  8
0
  6
Continuous
 62
     7
370
    15
100
AcDbSpline
210
0.0
220
0.0
230
1.0
 70
     8
 71
     3
 72
     8
 73
     4
 74
     0
 42
0.000000001
 43
0.00000001
 40
0.0
 40
0.0
 40
0.0
 40
0.0
 40
1.0
 40
1.0
 40
1.0
 40
1.0
 10
164.6238066486763
 20
134.6186201201011
 30
0.0
 10
165.1217110579679
 20
133.5460228473848
 30
0.0
 10
165.6078172176022
 20
132.4688666965617
 30
0.0
 10
166.0768719667059
 20
131.3858983938383
 30
0.0
  0
LINE
  5
D1
330
1F
100
AcDbEntity
  8
0
  6
Continuous
 62
     7
370
    15
100
AcDbLine
 10
164.6238066487
 20
134.6186201201
 30
0.0
 11
164.6238066487
 21
137.9165053681
 31
0.0
  0
LINE
  5
D2
330
1F
100
AcDbEntity
  8
0
  6
Continuous
 62
     7
370
    15
100
AcDbLine
 10
160.6868719667
 20
134.6186201201
 30
0.0
 11
164.6238066487
 21
134.6186201201
 31
0.0
  0
LINE
  5
D3
330
1F
100
AcDbEntity
  8
0
  6
Continuous
 62
     7
370
    15
100
AcDbLine
 10
166.6532255431
 20
130.8039368135
 30
0.0
 11
169.3205183903
 21
130.8039368135
 31
0.0
  0
SPLINE
  5
D4
330
1F
100
AcDbEntity
  8
0
  6
Continuous
 62
     7
370
    15
100
AcDbSpline
210
0.0
220
0.0
230
1.0
 70
     8
 71
     3
 72
    14
 73
    10
 74
     0
 42
0.000000001
 43
0.00000001
 40
0.0
 40
0.0
 40
0.0
 40
0.0
 40
0.25
 40
0.25
 40
0.5
 40
0.5
 40
0.75
 40
0.75
 40
1.0
 40
1.0
 40
1.0
 40
1.0
 10
169.3205183902681
 20
130.8039368134639
 30
0.0
 10
169.3939769803027
 20
130.803936813464
 30
0.0
 10
169.4678262307618
 20
130.8230472052381
 30
0.0
 10
169.5996481060093
 20
130.8908073787437
 30
0.0
 10
169.6577673009928
 20
130.9387408761446
 30
0.0
 10
169.7549457809547
 20
131.0486578903746
 30
0.0
 10
169.7951108472923
 20
131.1117453683499
 30
0.0
 10
169.8581104786889
 20
131.2443402140884
 30
0.0
 10
169.8812084294193
 20
131.3137446703985
 30
0.0
 10
169.8968719667058
 20
131.3858983938383
 30
0.0
  0
SPLINE
  5
D5
330
1F
100
AcDbEntity
  8
0
  6
Continuous
 62
     7
370
    15
100
AcDbSpline
210
0.0
220
0.0
230
1.0
 70
     8
 71
     3
 72
     8
 73
     4
 74
     0
 42
0.000000001
 43
0.00000001
 40
0.0
 40
0.0
 40
0.0
 40
0.0
 40
1.0
 40
1.0
 40
1.0
 40
1.0
 10
169.8968719667058
 20
131.3858983938383
 30
0.0
 10
170.3659267158095
 20
132.4688666965617
 30
0.0
 10
170.8520328754438
 20
133.5460228473849
 30
0.0
 10
171.3499372847354
 20
134.6186201201011
 30
0.0
  0
LINE
  5
D6
330
1F
100
AcDbEntity
  8
0
  6
Continuous
 62
     7
370
    15
100
AcDbLine
 10
171.3499372847
 20
134.6186201201
 30
0.0
 11
175.3368719667
 21
134.6186201201
 31
0.0
  0
SPLINE
  5
D7
330
1F
100
AcDbEntity
  8
0
  6
Continuous
 62
     7
370
    15
100
AcDbSpline
210
0.0
220
0.0
230
1.0
 70
     8
 71
     3
 72
    12
 73
     8
 74
     0
 42
0.000000001
 43
0.00000001
 40
0.0
 40
0.0
 40
0.0
 40
0.0
 40
0.25
 40
0.25
 40
0.5
 40
0.5
 40
1.0
 40
1.0
 40
1.0
 40
1.0
 10
175.3368719667059
 20
134.6186201201011
 30
0.0
 10
175.4254132407498
 20
134.6186201201011
 30
0.0
 10
175.5147298892075
 20
134.5927491571464
 30
0.0
 10
175.6673249691775
 20
134.5038902743344
 30
0.0
 10
175.7329350709686
 20
134.4410088487134
 30
0.0
 10
175.8883946240176
 20
134.2231336688228
 30
0.0
 10
175.9368719667059
 20
134.0441951357437
 30
0.0
 10
175.9368719667058
 20
133.8672831074194
 30
0.0
  0
LINE
  5
D8
330
1F
100
AcDbEntity
  8
0
  6
Continuous
 62
     7
370
    15
100
AcDbLine
 10
175.9368719667
 20
133.8672831074
 30
0.0
 11
175.9368719667
 21
133.3921901238
 31
0.0
  0
LINE
  5
D9
330
1F
100
AcDbEntity
  8
0
  6
Continuous
 62
     7
370
    15
100
AcDbLine
 10
160.0868719667
 20
133.8672831074
 30
0.0
 11
160.0868719667
 21
129.3880791662
 31
0.0
  0
SPLINE
  5
DA
330
1F
100
AcDbEntity
  8
0
  6
Continuous
 62
     7
370
    15
100
AcDbSpline
210
0.0
220
0.0
230
1.0
 70
     8
 71
     3
 72
    12
 73
     8
 74
     0
 42
0.000000001
 43
0.00000001
 40
0.0
 40
0.0
 40
0.0
 40
0.0
 40
0.5
 40
0.5
 40
0.75
 40
0.75
 40
1.0
 40
1.0
 40
1.0
 40
1.0
 10
175.9368719667058
 20
137.4494367801726
 30
0.0
 10
175.9368719667058
 20
137.5672048906945
 30
0.0
 10
175.8803519048073
 20
137.6826938466388
 30
0.0
 10
175.7172469300334
 20
137.8160476163961
 30
0.0
 10
175.6514983844781
 20
137.8523056271945
 30
0.0
 10
175.5022092181184
 20
137.9029130744451
 30
0.0
 10
175.4204152910864
 20
137.9165053680745
 30
0.0
 10
175.3368719667059
 20
137.9165053680745
 30
0.0
  0
LINE
  5
DB
330
1F
100
AcDbEntity
  8
0
  6
Continuous
 62
     7
370
    15
100
AcDbLine
 10
175.9368719667
 20
133.8672831074
 30
0.0
 11
175.9368719667
 21
137.4494367802
 31
0.0
  0
LINE
  5
DC
330
1F
100
AcDbEntity
  8
0
  6
Continuous
 62
     7
370
    15
100
AcDbLine
 10
169.3205183903
 20
135.0392529131
 30
0.0
 11
166.6532255431
 21
135.0392529131
 31
0.0
  0
SPLINE
  5
DD
330
1F
100
AcDbEntity
  8
0
  6
Continuous
 62
     7
370
    15
100
AcDbSpline
210
0.0
220
0.0
230
1.0
 70
     8
 71
     3
 72
     8
 73
     4
 74
     0
 42
0.000000001
 43
0.00000001
 40
0.0
 40
0.0
 40
0.0
 40
0.0
 40
1.0
 40
1.0
 40
1.0
 40
1.0
 10
170.8046483016339
 20
137.1801629364926
 30
0.0
 10
170.5010058058165
 20
136.6219882096658
 30
0.0
 10
170.1983378495061
 20
136.0633005988416
 30
0.0
 10
169.8968719667058
 20
135.5039803566436
 30
0.0
  0
SPLINE
  5
DE
330
1F
100
AcDbEntity
  8
0
  6
Continuous
 62
     7
370
    15
100
AcDbSpline
210
0.0
220
0.0
230
1.0
 70
     8
 71
     3
 72
     8
 73
     4
 74
     0
 42
0.000000001
 43
0.00000001
 40
0.0
 40
0.0
 40
0.0
 40
0.0
 40
0.0011754745544621
 40
0.0011754745544621
 40
0.0011754745544621
 40
0.0011754745544621
 10
171.3499372847354
 20
137.9165053680745
 30
0.0
 10
171.1675933466756
 20
137.6712734344934
 30
0.0
 10
170.9858058966902
 20
137.4258340988179
 30
0.0
 10
170.8046483016339
 20
137.1801629364926
 30
0.0
  0
LINE
  5
DF
330
1F
100
AcDbEntity
  8
0
  6
Continuous
 62
     7
370
    15
100
AcDbLine
 10
171.3499372847
 20
134.6186201201
 30
0.0
 11
171.3499372847
 21
137.9165053681
 31
0.0
  0
LINE
  5
E0
330
1F
100
AcDbEntity
  8
0
  6
Continuous
 62
     7
370
    15
100
AcDbLine
 10
169.8968719667
 20
131.3858983938
 30
0.0
 11
169.8968719667
 21
135.5039803566
 31
0.0
  0
LINE
  5
E1
330
1F
100
AcDbEntity
  8
0
  6
Continuous
 62
     7
370
    15
100
AcDbLine
 10
164.6238066487
 20
137.9165053681
 30
0.0
 11
160.6868719667
 21
137.9165053681
 31
0.0
  0
LINE
  5
E2
330
1F
100
AcDbEntity
  8
0
  6
Continuous
 62
     7
370
    15
100
AcDbLine
 10
175.3368719667
 20
137.9165053681
 30
0.0
 11
171.3499372847
 21
137.9165053681
 31
0.0
  0
SPLINE
  5
E3
330
1F
100
AcDbEntity
  8
0
  6
Continuous
 62
     7
370
    15
100
AcDbSpline
210
0.0
220
0.0
230
1.0
 70
     8
 71
     3
 72
    10
 73
     6
 74
     0
 42
0.000000001
 43
0.00000001
 40
0.0
 40
0.0
 40
0.0
 40
0.0
 40
0.5
 40
0.5
 40
1.0
 40
1.0
 40
1.0
 40
1.0
 10
169.8968719667058
 20
135.5039803566436
 30
0.0
 10
169.8621518180473
 20
135.3754574208112
 30
0.0
 10
169.7896378072537
 20
135.2584571453042
 30
0.0
 10
169.5846722846834
 20
135.0886213220517
 30
0.0
 10
169.4534286859458
 20
135.0392529131181
 30
0.0
 10
169.3205183902677
 20
135.0392529131181
 30
0.0
  0
LINE
  5
E4
330
1F
100
AcDbEntity
  8
0
  6
Continuous
 62
     7
370
    15
100
AcDbLine
 10
109.2368719667
 20
106.4767819025
 30
0.0
 11
109.2368719667
 21
122.5993764209
 31
0.0
  0
ARC
  5
E5
330
1F
100
AcDbEntity
  8
0
  6
HIDDEN
 62
     7
370
     0
100
AcDbCircle
 10
183.4368719667
 20
114.5380791662
 30
0.0
 40
5.999999999999999
100
AcDbArc
 50
150.8716329887
 51
209.1283728469
  0
CIRCLE
  5
E6
330
1F
100
AcDbEntity
  8
0
  6
HIDDEN
 62
     7
370
     0
100
AcDbCircle
 10
183.4368719667
 20
114.5380791662
 30
0.0
 40
5.18125784838206
  0
CIRCLE
  5
E7
330
1F
100
AcDbEntity
  8
0
  6
HIDDEN
 62
     7
370
     0
100
AcDbCircle
 10
183.4368719667
 20
114.5380791662
 30
0.0
 40
4.172547133356716
  0
CIRCLE
  5
E8
330
1F
100
AcDbEntity
  8
0
  6
HIDDEN
 62
     7
370
     0
100
AcDbCircle
 10
183.4368719667
 20
114.5380791662
 30
0.0
 40
3.872547133356719
  0
SPLINE
  5
E9
330
1F
100
AcDbEntity
  8
0
  6
HIDDEN
 62
     7
370
     0
100
AcDbSpline
210
0.0
220
0.0
230
1.0
 70
     8
 71
     3
 72
    16
 73
    12
 74
     0
 42
0.000000001
 43
0.00000001
 40
0.0
 40
0.0
 40
0.0
 40
0.0
 40
0.2500000000000004
 40
0.2500000000000004
 40
0.5000000000000008
 40
0.5000000000000008
 40
0.7500000000000011
 40
0.7500000000000011
 40
0.8750000000000006
 40
0.8750000000000006
 40
1.0
 40
1.0
 40
1.0
 40
1.0
 10
166.5595724771196
 20
106.9256684478459
 30
0.0
 10
166.6515218032132
 20
106.910585458381
 30
0.0
 10
166.7439635106298
 20
106.9105311593697
 30
0.0
 10
166.9259919129574
 20
106.9333415186445
 30
0.0
 10
167.0159296726921
 20
106.956226655701
 30
0.0
 10
167.1833664809108
 20
107.0239806264399
 30
0.0
 10
167.2641459970923
 20
107.068408697272
 30
0.0
 10
167.3366357791979
 20
107.1590906801777
 30
0.0
 10
167.3518860031868
 20
107.1933190032355
 30
0.0
 10
167.3378933783103
 20
107.275244119324
 30
0.0
 10
167.3052640481288
 20
107.3227258333284
 30
0.0
 10
167.2495100863084
 20
107.3759638309269
 30
0.0
  0
SPLINE
  5
EA
330
1F
100
AcDbEntity
  8
0
  6
HIDDEN
 62
     7
370
     0
100
AcDbSpline
210
0.0
220
0.0
230
1.0
 70
     8
 71
     3
 72
    22
 73
    18
 74
     0
 42
0.000000001
 43
0.00000001
 40
0.0
 40
0.0
 40
0.0
 40
0.0
 40
0.125
 40
0.125
 40
0.25
 40
0.25
 40
0.375
 40
0.375
 40
0.5
 40
0.5
 40
0.625
 40
0.625
 40
0.75
 40
0.75
 40
0.875
 40
0.875
 40
1.0
 40
1.0
 40
1.0
 40
1.0
 10
166.5595724771196
 20
109.8206637177283
 30
0.0
 10
166.6452142714282
 20
109.7085227664816
 30
0.0
 10
166.7169965765555
 20
109.5818202905171
 30
0.0
 10
166.8245456027695
 20
109.313982453752
 30
0.0
 10
166.8609792222197
 20
109.1725746392102
 30
0.0
 10
166.9077932943545
 20
108.8809141990861
 30
0.0
 10
166.918009303022
 20
108.734269813973
 30
0.0
 10
166.9282254564534
 20
108.4409473772521
 30
0.0
 10
166.9285900158501
 20
108.2958765504677
 30
0.0
 10
166.9285888983893
 20
108.0220762835325
 30
0.0
 10
166.9282196027418
 20
107.8901912676542
 30
0.0
 10
166.9179938505978
 20
107.6455373320743
 30
0.0
 10
166.9077719795748
 20
107.5333549373003
 30
0.0
 10
166.8609947126421
 20
107.324040567207
 30
0.0
 10
166.824489066055
 20
107.2292650426097
 30
0.0
 10
166.717124360912
 20
107.0606169136278
 30
0.0
 10
166.6452255573505
 20
106.9861954729283
 30
0.0
 10
166.5595724771196
 20
106.9256684478459
 30
0.0
  0
SPLINE
  5
EB
330
1F
100
AcDbEntity
  8
0
  6
HIDDEN
 62
     7
370
     0
100
AcDbSpline
210
0.0
220
0.0
230
1.0
 70
     8
 71
     3
 72
    18
 73
    14
 74
     0
 42
0.000000001
 43
0.00000001
 40
0.0
 40
0.0
 40
0.0
 40
0.0
 40
0.0625000000000015
 40
0.0625000000000015
 40
0.125000000000003
 40
0.125000000000003
 40
0.2500000000000042
 40
0.2500000000000042
 40
0.5000000000000028
 40
0.5000000000000028
 40
0.7500000000000013
 40
0.7500000000000013
 40
1.0
 40
1.0
 40
1.0
 40
1.0
 10
167.249510086316
 20
111.071380760043
 30
0.0
 10
167.2774517605635
 20
111.0643925069163
 30
0.0
 10
167.2998494674849
 20
111.0540226162159
 30
0.0
 10
167.331899269041
 20
111.0270907564392
 30
0.0
 10
167.3414266651004
 20
111.0103406594017
 30
0.0
 10
167.3518697442947
 20
110.9551718108661
 30
0.0
 10
167.3362449470767
 20
110.9112731083837
 30
0.0
 10
167.2639600711838
 20
110.7751850664203
 30
0.0
 10
167.1837467068508
 20
110.6749844825466
 30
0.0
 10
167.0159769390907
 20
110.4601174735121
 30
0.0
 10
166.9259210757404
 20
110.3454519124979
 30
0.0
 10
166.7438106917162
 20
110.0980937124315
 30
0.0
 10
166.651401210791
 20
109.9655111903197
 30
0.0
 10
166.5595724771196
 20
109.8206637177283
 30
0.0
  0
SPLINE
  5
EC
330
1F
100
AcDbEntity
  8
0
  6
HIDDEN
 62
     7
370
     0
100
AcDbSpline
210
0.0
220
0.0
230
1.0
 70
     8
 71
     3
 72
     8
 73
     4
 74
     0
 42
0.000000001
 43
0.00000001
 40
0.0
 40
0.0
 40
0.0
 40
0.0
 40
1.0
 40
1.0
 40
1.0
 40
1.0
 10
167.1515850190636
 20
111.0820400464336
 30
0.0
 10
167.1838743348288
 20
111.0809948494692
 30
0.0
 10
167.2165578273528
 20
111.0774372036402
 30
0.0
 10
167.2495100863163
 20
111.0713807600429
 30
0.0
  0
SPLINE
  5
ED
330
1F
100
AcDbEntity
  8
0
  6
HIDDEN
 62
     7
370
     0
100
AcDbSpline
210
0.0
220
0.0
230
1.0
 70
     8
 71
     3
 72
    26
 73
    22
 74
     0
 42
0.000000001
 43
0.00000001
 40
0.0
 40
0.0
 40
0.0
 40
0.0
 40
0.0625000000000002
 40
0.0625000000000002
 40
0.1250000000000003
 40
0.1250000000000003
 40
0.2500000000000003
 40
0.2500000000000003
 40
0.3750000000000002
 40
0.3750000000000002
 40
0.5000000000000002
 40
0.5000000000000002
 40
0.6250000000000002
 40
0.6250000000000002
 40
0.7500000000000001
 40
0.7500000000000001
 40
0.8750000000000001
 40
0.8750000000000001
 40
0.9375000000000001
 40
0.9375000000000001
 40
1.0
 40
1.0
 40
1.0
 40
1.0
 10
167.1515850190638
 20
107.4609685975763
 30
0.0
 10
167.0821318371852
 20
107.5177882107971
 30
0.0
 10
167.0056318007518
 20
107.5772977601032
 30
0.0
 10
166.8511448763369
 20
107.706026762825
 30
0.0
 10
166.7726245521499
 20
107.7753123875788
 30
0.0
 10
166.5420061447713
 20
107.9999101341547
 30
0.0
 10
166.3995591979872
 20
108.1672988261561
 30
0.0
 10
166.1560255264974
 20
108.5391648574213
 30
0.0
 10
166.0589730337957
 20
108.7360711115727
 30
0.0
 10
165.9225414016673
 20
109.1558448882426
 30
0.0
 10
165.8872159514339
 20
109.3668887581968
 30
0.0
 10
165.8865328981441
 20
109.7865289010711
 30
0.0
 10
165.9214702890738
 20
109.9850974194638
 30
0.0
 10
166.0570596868584
 20
110.3507384269947
 30
0.0
 10
166.1551752996652
 20
110.5107770768449
 30
0.0
 10
166.3984542209853
 20
110.7802197794395
 30
0.0
 10
166.5410258738791
 20
110.8865913962895
 30
0.0
 10
166.7709745982528
 20
110.9998843298506
 30
0.0
 10
166.8492352051469
 20
111.0293804679369
 30
0.0
 10
167.0044786286171
 20
111.07052513358
 30
0.0
 10
167.0824492645451
 20
111.0822708569609
 30
0.0
 10
167.1515850190639
 20
111.0820400464336
 30
0.0
  0
SPLINE
  5
EE
330
1F
100
AcDbEntity
  8
0
  6
HIDDEN
 62
     7
370
     0
100
AcDbSpline
210
0.0
220
0.0
230
1.0
 70
     8
 71
     3
 72
     8
 73
     4
 74
     0
 42
0.000000001
 43
0.00000001
 40
0.0
 40
0.0
 40
0.0
 40
0.0
 40
1.0
 40
1.0
 40
1.0
 40
1.0
 10
167.2495100863163
 20
107.3759638309278
 30
0.0
 10
167.2165578273528
 20
107.4020988040708
 30
0.0
 10
167.1838743348288
 20
107.4304700141523
 30
0.0
 10
167.1515850190636
 20
107.4609685975765
 30
0.0
  0
LINE
  5
EF
330
1F
100
AcDbEntity
  8
0
  6
HIDDEN
 62
     7
370
     0
100
AcDbLine
 10
177.7575761652
 20
114.5380791662
 30
0.0
 11
177.9368719667
 21
114.5380791662
 31
0.0
  0
LINE
  5
F0
330
1F
100
AcDbEntity
  8
0
  6
HIDDEN
 62
     7
370
     0
100
AcDbLine
 10
179.4403664093
 20
110.1242303488
 30
0.0
 11
179.7038887038
 21
110.4989163868
 31
0.0
  0
LINE
  5
F1
330
1F
100
AcDbEntity
  8
0
  6
HIDDEN
 62
     7
370
     0
100
AcDbLine
 10
179.7039592559
 20
118.5773073191
 30
0.0
 11
179.4295985108
 21
118.9674063003
 31
0.0
  0
SPLINE
  5
F2
330
1F
100
AcDbEntity
  8
0
  6
HIDDEN
 62
     7
370
     0
100
AcDbSpline
210
0.0
220
0.0
230
1.0
 70
     8
 71
     3
 72
     9
 73
     5
 74
     0
 42
0.000000001
 43
0.00000001
 40
0.0
 40
0.0
 40
0.0
 40
0.0
 40
0.9462579009022982
 40
1.0
 40
1.0
 40
1.0
 40
1.0
 10
179.7038887038185
 20
110.4989163867689
 30
0.0
 10
179.9292865504351
 20
110.2951791930856
 30
0.0
 10
180.1674857204518
 20
110.0798708786303
 30
0.0
 10
180.4475219555246
 20
109.9240205189199
 30
0.0
 10
180.4625716906208
 20
109.9156447934439
 30
0.0
  0
SPLINE
  5
F3
330
1F
100
AcDbEntity
  8
0
  6
HIDDEN
 62
     7
370
     0
100
AcDbSpline
210
0.0
220
0.0
230
1.0
 70
     8
 71
     3
 72
    11
 73
     7
 74
     0
 42
0.000000001
 43
0.00000001
 40
0.0
 40
0.0
 40
0.0
 40
0.0
 40
0.3856177821571038
 40
0.6058992617730227
 40
0.8295613260809999
 40
1.0
 40
1.0
 40
1.0
 40
1.0
 10
183.4010746195642
 20
109.043191783259
 30
0.0
 10
183.6337828976071
 20
109.0475749157167
 30
0.0
 10
183.9994241631264
 20
109.0544618821461
 30
0.0
 10
184.4920317531423
 20
109.1364850196774
 30
0.0
 10
184.8522037252606
 20
109.2171211783649
 30
0.0
 10
185.0761993655165
 20
109.2905387304182
 30
0.0
 10
185.1730718556838
 20
109.3222899782606
 30
0.0
  0
LINE
  5
F4
330
1F
100
AcDbEntity
  8
0
  6
HIDDEN
 62
     7
370
     0
100
AcDbLine
 10
188.9004870704
 20
114.0130225104
 30
0.0
 11
188.9368719667
 21
114.5380791662
 31
0.0
  0
SPLINE
  5
F5
330
1F
100
AcDbEntity
  8
0
  6
HIDDEN
 62
     7
370
     0
100
AcDbSpline
210
0.0
220
0.0
230
1.0
 70
     8
 71
     3
 72
     9
 73
     5
 74
     0
 42
0.000000001
 43
0.00000001
 40
0.0
 40
0.0
 40
0.0
 40
0.0
 40
0.8154124376897768
 40
1.0
 40
1.0
 40
1.0
 40
1.0
 10
188.9368719667059
 20
114.5380791662323
 30
0.0
 10
188.934237578766
 20
114.7800190844411
 30
0.0
 10
188.9310068358707
 20
115.0767277278537
 30
0.0
 10
188.8685404392635
 20
115.3642035406879
 30
0.0
 10
188.8570099193875
 20
115.4172680002021
 30
0.0
  0
SPLINE
  5
F6
330
1F
100
AcDbEntity
  8
0
  6
HIDDEN
 62
     7
370
     0
100
AcDbSpline
210
0.0
220
0.0
230
1.0
 70
     8
 71
     3
 72
    27
 73
    23
 74
     0
 42
0.000000001
 43
0.00000001
 40
0.0
 40
0.0
 40
0.0
 40
0.0
 40
0.136842280644136
 40
0.2829667411543288
 40
0.3569111570551544
 40
0.3941041430099697
 40
0.4127558547224537
 40
0.4220955179957882
 40
0.4267688018098576
 40
0.4291063068004747
 40
0.4302752750715124
 40
0.4308598131515571
 40
0.4311520956777915
 40
0.4312982403124686
 40
0.4313713134726984
 40
0.4314078502635365
 40
0.4314261187116356
 40
0.4314352529488564
 40
0.4314443871948565
 40
0.562459272976354
 40
0.7822308586571372
 40
1.0
 40
1.0
 40
1.0
 40
1.0
 10
188.3565129359244
 20
116.9877546563649
 30
0.0
 10
188.3267276448082
 20
117.0498708909942
 30
0.0
 10
188.2651366897187
 20
117.1783167806935
 30
0.0
 10
188.1745890381792
 20
117.3329143721648
 30
0.0
 10
188.107443121794
 20
117.4429696113457
 30
0.0
 10
188.0726300710886
 20
117.4978655848896
 30
0.0
 10
188.0549527883081
 20
117.5252992656964
 30
0.0
 10
188.0460424680331
 20
117.5390099224741
 30
0.0
 10
188.0415696850028
 20
117.5458638183943
 30
0.0
 10
188.0393288541689
 20
117.5492903832668
 30
0.0
 10
188.0382073310006
 20
117.5510035702796
 30
0.0
 10
188.037646292182
 20
117.5518601396658
 30
0.0
 10
188.0373657034764
 20
117.552288418323
 30
0.0
 10
188.0372253917965
 20
117.5525025561395
 30
0.0
 10
188.037155231625
 20
117.5526096246697
 30
0.0
 10
188.0371201504562
 20
117.55266315884
 30
0.0
 10
188.0371026096012
 20
117.5526899259017
 30
0.0
 10
188.0370925861755
 20
117.5527052213621
 30
0.0
 10
188.0011452358878
 20
117.6075595577211
 30
0.0
 10
187.9022001508051
 20
117.7522270442226
 30
0.0
 10
187.7329693479332
 20
117.9806681103626
 30
0.0
 10
187.5866594382749
 20
118.1429573795319
 30
0.0
 10
187.5138392836508
 20
118.2237306484264
 30
0.0
  0
LINE
  5
F7
330
1F
100
AcDbEntity
  8
0
  6
HIDDEN
 62
     7
370
     0
100
AcDbLine
 10
180.318217017
 20
119.0537659243
 30
0.0
 11
179.7039946032
 21
118.577339815
 31
0.0
  0
SPLINE
  5
F8
330
1F
100
AcDbEntity
  8
0
  6
HIDDEN
 62
     7
370
     0
100
AcDbSpline
210
0.0
220
0.0
230
1.0
 70
    11
 71
     3
 72
    62
 73
    58
 74
     0
 42
0.000000001
 43
0.00000001
 40
0.0
 40
0.0
 40
0.0
 40
0.0
 40
0.0312499999999999
 40
0.0312499999999999
 40
0.0624999999999999
 40
0.0624999999999999
 40
0.1250000000000001
 40
0.1250000000000001
 40
0.1875000000000004
 40
0.1875000000000004
 40
0.2187500000000005
 40
0.2187500000000005
 40
0.2500000000000006
 40
0.2500000000000006
 40
0.2812500000000007
 40
0.2812500000000007
 40
0.3125000000000008
 40
0.3125000000000008
 40
0.3437500000000009
 40
0.3437500000000009
 40
0.375000000000001
 40
0.375000000000001
 40
0.4375000000000012
 40
0.4375000000000012
 40
0.4687500000000012
 40
0.4687500000000012
 40
0.5000000000000011
 40
0.5000000000000011
 40
0.531250000000001
 40
0.531250000000001
 40
0.562500000000001
 40
0.562500000000001
 40
0.5937500000000009
 40
0.5937500000000009
 40
0.6250000000000009
 40
0.6250000000000009
 40
0.6562500000000008
 40
0.6562500000000008
 40
0.6875000000000008
 40
0.6875000000000008
 40
0.7187500000000007
 40
0.7187500000000007
 40
0.7500000000000007
 40
0.7500000000000007
 40
0.7812500000000006
 40
0.7812500000000006
 40
0.8125000000000006
 40
0.8125000000000006
 40
0.8750000000000003
 40
0.8750000000000003
 40
0.9062500000000002
 40
0.9062500000000002
 40
0.9375000000000002
 40
0.9375000000000002
 40
0.9687500000000001
 40
0.9687500000000001
 40
1.0
 40
1.0
 40
1.0
 40
1.0
 10
167.9868719667058
 20
111.3009845310046
 30
0.0
 10
167.845673742726
 20
111.3009845310046
 30
0.0
 10
167.7073958657122
 20
111.3114524673881
 30
0.0
 10
167.4362297945044
 20
111.3524759483235
 30
0.0
 10
167.3020264670448
 20
111.3836024017391
 30
0.0
 10
166.9229632872546
 20
111.5049763896509
 30
0.0
 10
166.6939563655609
 20
111.6251311636591
 30
0.0
 10
166.3129257465581
 20
111.9339100626819
 30
0.0
 10
166.1573026696365
 20
112.1260792308458
 30
0.0
 10
165.9982321930678
 20
112.456063542684
 30
0.0
 10
165.9565050479245
 20
112.5755629059961
 30
0.0
 10
165.9012343467824
 20
112.8221473051518
 30
0.0
 10
165.8871544152926
 20
112.949319235589
 30
0.0
 10
165.8865978489714
 20
113.2118084282851
 30
0.0
 10
165.900587126392
 20
113.3469507969821
 30
0.0
 10
165.9550686456277
 20
113.6114358903419
 30
0.0
 10
165.9959191037826
 20
113.7435857945879
 30
0.0
 10
166.102533070642
 20
114.0002815455097
 30
0.0
 10
166.167285212915
 20
114.1230194299637
 30
0.0
 10
166.3188437548676
 20
114.357390178722
 30
0.0
 10
166.4061818780407
 20
114.4692076797355
 30
0.0
 10
166.6919582990022
 20
114.7743911448638
 30
0.0
 10
166.921494647468
 20
114.9452054640436
 30
0.0
 10
167.2978127834623
 20
115.1217158270177
 30
0.0
 10
167.430145691823
 20
115.1682006342114
 30
0.0
 10
167.7041783508138
 20
115.2313043469515
 30
0.0
 10
167.8422035104359
 20
115.2472620366958
 30
0.0
 10
168.1202748916546
 20
115.2481079055575
 30
0.0
 10
168.261987830325
 20
115.2323832305844
 30
0.0
 10
168.5344100860053
 20
115.1709427880852
 30
0.0
 10
168.6662382305024
 20
115.1256211443988
 30
0.0
 10
168.921637126107
 20
115.0070733413978
 30
0.0
 10
169.0418031292963
 20
114.9353862581815
 30
0.0
 10
169.2669745418526
 20
114.7706576921831
 30
0.0
 10
169.373125603187
 20
114.6763984191482
 30
0.0
 10
169.5645728918892
 20
114.4728337450045
 30
0.0
 10
169.6505069058087
 20
114.3633664547654
 30
0.0
 10
169.8029192238487
 20
114.1292688522814
 30
0.0
 10
169.8691027141362
 20
114.0043746293835
 30
0.0
 10
169.9752844126873
 20
113.7506428778487
 30
0.0
 10
170.0162644759031
 20
113.620473193065
 30
0.0
 10
170.0723446167005
 20
113.3534094979362
 30
0.0
 10
170.0865687921417
 20
113.219456267921
 30
0.0
 10
170.0871654760132
 20
112.9579995254529
 30
0.0
 10
170.0733969085148
 20
112.8278821560655
 30
0.0
 10
170.0185468415727
 20
112.5796913005816
 30
0.0
 10
169.9780503282963
 20
112.4623358095009
 30
0.0
 10
169.8185878571201
 20
112.1285866877612
 30
0.0
 10
169.6639194328059
 20
111.9367471158352
 30
0.0
 10
169.3756114014613
 20
111.7026245478655
 30
0.0
 10
169.2715865861135
 20
111.6344681385022
 30
0.0
 10
169.0471673279347
 20
111.5157571992782
 30
0.0
 10
168.9252365400742
 20
111.4648352629098
 30
0.0
 10
168.6727793886482
 20
111.3838854280882
 30
0.0
 10
168.541892858731
 20
111.3533501090892
 30
0.0
 10
168.2699519410182
 20
111.3117920803448
 30
0.0
 10
168.1280701906857
 20
111.3009845310046
 30
0.0
 10
167.9868719667058
 20
111.3009845310046
 30
0.0
  0
LWPOLYLINE
  5
F9
330
1F
100
AcDbEntity
  8
0
  6
HIDDEN
 62
     7
370
     0
100
AcDbPolyline
 90
       21
 70
   128
 43
0.0
 10
166.5595724771
 20
106.9256684478
 10
166.9516399147
 20
106.6562536469
 10
167.3990879881
 20
106.4786865646
 10
167.8779800748
 20
106.402466306
 10
168.3626974276
 20
106.4316703397
 10
168.8273096717
 20
106.5647363709
 10
169.2469619724
 20
106.7945459167
 10
169.5992046662
 20
107.1088051163
 10
169.865194225
 20
107.4907024016
 10
170.0307013067
 20
107.9198078463
 10
170.0868719667
 20
108.3731660828
 10
170.0307013067
 20
108.8265243192
 10
169.865194225
 20
109.2556297639
 10
169.5992046662
 20
109.6375270492
 10
169.2469619724
 20
109.9517862489
 10
168.8273096717
 20
110.1815957947
 10
168.3626974276
 20
110.3146618258
 10
167.8779800748
 20
110.3438658596
 10
167.3990879881
 20
110.267645601
 10
166.9516399147
 20
110.0900785187
 10
166.5595724771
 20
109.8206637177
  0
LINE
  5
FA
330
1F
100
AcDbEntity
  8
0
  6
HIDDEN
 62
     7
370
     0
100
AcDbLine
 10
195.4368719667
 20
103.3197852942
 30
0.0
 11
195.4368719667
 21
125.7563730383
 31
0.0
  0
LINE
  5
FB
330
1F
100
AcDbEntity
  8
0
  6
HIDDEN
 62
     7
370
     0
100
AcDbLine
 10
192.1368719667
 20
106.5064230481
 30
0.0
 11
192.1368719667
 21
122.5697352844
 31
0.0
  0
LINE
  5
FC
330
1F
100
AcDbEntity
  8
0
  6
HIDDEN
 62
     7
370
     0
100
AcDbLine
 10
191.1368719667
 20
102.5380791662
 30
0.0
 11
191.1368719667
 21
126.5380791662
 31
0.0
  0
SPLINE
  5
FD
330
1F
100
AcDbEntity
  8
0
  6
HIDDEN
 62
     7
370
     0
100
AcDbSpline
210
0.0
220
0.0
230
1.0
 70
     8
 71
     3
 72
    12
 73
     8
 74
     0
 42
0.000000001
 43
0.00000001
 40
0.0
 40
0.0
 40
0.0
 40
0.0
 40
0.4999999999999996
 40
0.4999999999999996
 40
0.7499999999999998
 40
0.7499999999999998
 40
1.0
 40
1.0
 40
1.0
 40
1.0
 10
195.9868719667059
 20
130.4126727928331
 30
0.0
 10
195.9299640552042
 20
130.5122588412048
 30
0.0
 10
195.8555916688956
 20
130.5514055237342
 30
0.0
 10
195.7175193351927
 20
130.5256018613353
 30
0.0
 10
195.6666973621563
 20
130.5024409883277
 30
0.0
 10
195.5576043000168
 20
130.4283464838474
 30
0.0
 10
195.499240785979
 20
130.377540423825
 30
0.0
 10
195.4368719667059
 20
130.313215478733
 30
0.0
  0
LINE
  5
FE
330
1F
100
AcDbEntity
  8
0
  6
HIDDEN
 62
     7
370
     0
100
AcDbLine
 10
195.4368719667
 20
130.3132154787
 30
0.0
 11
195.4368719667
 21
130.1571349217
 31
0.0
  0
LINE
  5
FF
330
1F
100
AcDbEntity
  8
0
  6
HIDDEN
 62
     7
370
     0
100
AcDbLine
 10
192.1368719667
 20
130.1571349217
 30
0.0
 11
195.4368719667
 21
130.1571349217
 31
0.0
  0
LINE
  5
100
330
1F
100
AcDbEntity
  8
0
  6
HIDDEN
 62
     7
370
     0
100
AcDbLine
 10
192.1368719667
 20
130.5380791662
 30
0.0
 11
192.1368719667
 21
125.3380791662
 31
0.0
  0
SPLINE
  5
101
330
1F
100
AcDbEntity
  8
0
  6
HIDDEN
 62
     7
370
     0
100
AcDbSpline
210
0.0
220
0.0
230
1.0
 70
     8
 71
     3
 72
    12
 73
     8
 74
     0
 42
0.000000001
 43
0.00000001
 40
0.0
 40
0.0
 40
0.0
 40
0.0
 40
0.5000000000000012
 40
0.5000000000000012
 40
0.7500000000000006
 40
0.7500000000000006
 40
1.0
 40
1.0
 40
1.0
 40
1.0
 10
195.4368719667059
 20
125.7563730382565
 30
0.0
 10
195.5612298020264
 20
126.1958629800797
 30
0.0
 10
195.6693957574344
 20
126.628229510441
 30
0.0
 10
195.8088854133978
 20
127.2647397584149
 30
0.0
 10
195.8512358197419
 20
127.4737538516653
 30
0.0
 10
195.9259737391911
 20
127.8751309444394
 30
0.0
 10
195.9586999737054
 20
128.0690083771756
 30
0.0
 10
195.9868719667059
 20
128.2559443398952
 30
0.0
  0
LINE
  5
102
330
1F
100
AcDbEntity
  8
0
  6
HIDDEN
 62
     7
370
     0
100
AcDbLine
 10
192.1368719667
 20
125.3380791662
 30
0.0
 11
192.1368719667
 21
122.5697352844
 31
0.0
  0
LINE
  5
103
330
1F
100
AcDbEntity
  8
0
  6
HIDDEN
 62
     7
370
     0
100
AcDbLine
 10
192.1368719667
 20
122.5697352844
 30
0.0
 11
195.4368719667
 21
122.5697352844
 31
0.0
  0
LINE
  5
104
330
1F
100
AcDbEntity
  8
0
  6
HIDDEN
 62
     7
370
     0
100
AcDbLine
 10
192.1368719667
 20
106.5064230481
 30
0.0
 11
192.1368719667
 21
103.7380791662
 31
0.0
  0
LINE
  5
105
330
1F
100
AcDbEntity
  8
0
  6
HIDDEN
 62
     7
370
     0
100
AcDbLine
 10
195.4368719667
 20
106.5064230481
 30
0.0
 11
192.1368719667
 21
106.5064230481
 31
0.0
  0
LINE
  5
106
330
1F
100
AcDbEntity
  8
0
  6
HIDDEN
 62
     7
370
     0
100
AcDbLine
 10
192.1368719667
 20
98.9190234108
 30
0.0
 11
195.4368719667
 21
98.9190234108
 31
0.0
  0
LINE
  5
107
330
1F
100
AcDbEntity
  8
0
  6
HIDDEN
 62
     7
370
     0
100
AcDbLine
 10
195.4368719667
 20
98.9190234108
 30
0.0
 11
195.4368719667
 21
98.7629428537
 31
0.0
  0
SPLINE
  5
108
330
1F
100
AcDbEntity
  8
0
  6
HIDDEN
 62
     7
370
     0
100
AcDbSpline
210
0.0
220
0.0
230
1.0
 70
     8
 71
     3
 72
    12
 73
     8
 74
     0
 42
0.000000001
 43
0.00000001
 40
0.0
 40
0.0
 40
0.0
 40
0.0
 40
0.2499999999999994
 40
0.2499999999999994
 40
0.4999999999999989
 40
0.4999999999999989
 40
1.0
 40
1.0
 40
1.0
 40
1.0
 10
195.4368719667059
 20
98.76294285373163
 30
0.0
 10
195.4987562641229
 20
98.69911762696292
 30
0.0
 10
195.5567808288124
 20
98.64851554645632
 30
0.0
 10
195.6654208932656
 20
98.57444266265314
 30
0.0
 10
195.7162848680824
 20
98.5509283080283
 30
0.0
 10
195.8559310633331
 20
98.52441031966227
 30
0.0
 10
195.9302649017028
 20
98.56442595784715
 30
0.0
 10
195.9868719667059
 20
98.66348553963154
 30
0.0
  0
LINE
  5
109
330
1F
100
AcDbEntity
  8
0
  6
HIDDEN
 62
     7
370
     0
100
AcDbLine
 10
192.1368719667
 20
103.7380791662
 30
0.0
 11
192.1368719667
 21
98.5380791662
 31
0.0
  0
SPLINE
  5
10A
330
1F
100
AcDbEntity
  8
0
  6
HIDDEN
 62
     7
370
     0
100
AcDbSpline
210
0.0
220
0.0
230
1.0
 70
     8
 71
     3
 72
    12
 73
     8
 74
     0
 42
0.000000001
 43
0.00000001
 40
0.0
 40
0.0
 40
0.0
 40
0.0
 40
0.5000000000000012
 40
0.5000000000000012
 40
0.7500000000000006
 40
0.7500000000000006
 40
1.0
 40
1.0
 40
1.0
 40
1.0
 10
195.9868719667059
 20
100.8202139925694
 30
0.0
 10
195.9299640552042
 20
101.197827859743
 30
0.0
 10
195.8555916688955
 20
101.5977764300489
 30
0.0
 10
195.7175193351927
 20
102.2285871649122
 30
0.0
 10
195.6666973621563
 20
102.4452506645394
 30
0.0
 10
195.5576043000168
 20
102.8803439383544
 30
0.0
 10
195.499240785979
 20
103.0993691967157
 30
0.0
 10
195.4368719667059
 20
103.3197852942082
 30
0.0
  0
LINE
  5
10B
330
1F
100
AcDbEntity
  8
0
  6
HIDDEN
 62
     7
370
     0
100
AcDbLine
 10
170.9868719667
 20
102.8380791662
 30
0.0
 11
170.9868719667
 21
126.2380791481
 31
0.0
  0
LINE
  5
10C
330
1F
100
AcDbEntity
  8
0
  6
HIDDEN
 62
     7
370
     0
100
AcDbLine
 10
173.4868719667
 20
102.5380791662
 30
0.0
 11
173.4868719667
 21
126.5380791662
 31
0.0
  0
LINE
  5
10D
330
1F
100
AcDbEntity
  8
0
  6
HIDDEN
 62
     7
370
     0
100
AcDbLine
 10
160.0868719667
 20
133.3380791662
 30
0.0
 11
160.4241302669
 21
133.3380791662
 31
0.0
  0
ELLIPSE
  5
10E
330
1F
100
AcDbEntity
  8
0
  6
HIDDEN
 62
     7
370
     0
100
AcDbEllipse
 10
160.4241302669
 20
134.9380791662
 30
0.0
 11
0.0
 21
1.600000000000023
 31
0.0
210
0.0
220
0.0
230
1.0
 40
0.4142135624
 41
3.141592653589793
 42
4.712388980384695
  0
ELLIPSE
  5
10F
330
1F
100
AcDbEntity
  8
0
  6
HIDDEN
 62
     7
370
     0
100
AcDbEllipse
 10
160.4241302669
 20
96.7380791662
 30
0.0
 11
0.0
 21
1.600000000000009
 31
0.0
210
0.0
220
0.0
230
1.0
 40
0.4142135624
 41
4.712388980384695
 42
6.283185307179586
  0
LINE
  5
110
330
1F
100
AcDbEntity
  8
0
  6
HIDDEN
 62
     7
370
     0
100
AcDbLine
 10
160.4241302669
 20
98.3380791662
 30
0.0
 11
160.0868719667
 21
98.3380791662
 31
0.0
  0
LINE
  5
111
330
1F
100
AcDbEntity
  8
0
  6
HIDDEN
 62
     7
370
     0
100
AcDbLine
 10
161.0868719667
 20
91.6840470805
 30
0.0
 11
160.3189948266
 21
91.3062617388
 31
0.0
  0
LINE
  5
112
330
1F
100
AcDbEntity
  8
0
  6
HIDDEN
 62
     7
370
     0
100
AcDbLine
 10
160.4051104811
 20
137.8619244221
 30
0.0
 11
161.0868719667
 21
137.1801629365
 31
0.0
  0
LINE
  5
113
330
1F
100
AcDbEntity
  8
0
  6
HIDDEN
 62
     7
370
     0
100
AcDbLine
 10
195.4368719667
 20
97.7175579725
 30
0.0
 11
195.4368719667
 21
98.7629428537
 31
0.0
  0
SPLINE
  5
114
330
1F
100
AcDbEntity
  8
0
  6
HIDDEN
 62
     7
370
     0
100
AcDbSpline
210
0.0
220
0.0
230
1.0
 70
     8
 71
     3
 72
    12
 73
     8
 74
     0
 42
0.000000001
 43
0.00000001
 40
0.0
 40
0.0
 40
0.0
 40
0.0
 40
0.2500000000000002
 40
0.2500000000000002
 40
0.5000000000000003
 40
0.5000000000000003
 40
1.0
 40
1.0
 40
1.0
 40
1.0
 10
195.4368719667059
 20
130.313215478733
 30
0.0
 10
195.4987562641229
 20
130.3770407055017
 30
0.0
 10
195.5567808288124
 20
130.4276427860083
 30
0.0
 10
195.6654208932656
 20
130.5017156698115
 30
0.0
 10
195.7162848680824
 20
130.5252300244363
 30
0.0
 10
195.8559310633331
 20
130.5517480128024
 30
0.0
 10
195.9302649017028
 20
130.5117323746175
 30
0.0
 10
195.9868719667058
 20
130.4126727928331
 30
0.0
  0
LINE
  5
115
330
1F
100
AcDbEntity
  8
0
  6
HIDDEN
 62
     7
370
     0
100
AcDbLine
 10
195.4368719667
 20
130.3132154787
 30
0.0
 11
195.4368719667
 21
131.35860036
 31
0.0
  0
LINE
  5
116
330
1F
100
AcDbEntity
  8
0
  6
HIDDEN
 62
     7
370
     0
100
AcDbLine
 10
165.0537374193
 20
91.6840470805
 30
0.0
 11
161.0868719667
 21
91.6840470805
 31
0.0
  0
LINE
  5
117
330
1F
100
AcDbEntity
  8
0
  6
HIDDEN
 62
     7
370
     0
100
AcDbLine
 10
175.9368719667
 20
91.6840470805
 30
0.0
 11
170.9200065141
 21
91.6840470805
 31
0.0
  0
LINE
  5
118
330
1F
100
AcDbEntity
  8
0
  6
HIDDEN
 62
     7
370
     0
100
AcDbLine
 10
161.0868719667
 20
91.6840470805
 30
0.0
 11
161.0868719667
 21
96.7380791662
 31
0.0
  0
LINE
  5
119
330
1F
100
AcDbEntity
  8
0
  6
HIDDEN
 62
     7
370
     0
100
AcDbLine
 10
175.9368719667
 20
98.3380791662
 30
0.0
 11
160.4241302669
 21
98.3380791662
 31
0.0
  0
LINE
  5
11A
330
1F
100
AcDbEntity
  8
0
  6
HIDDEN
 62
     7
370
     0
100
AcDbLine
 10
182.3868719667
 20
98.3380791662
 30
0.0
 11
175.9368719667
 21
98.3380791662
 31
0.0
  0
LINE
  5
11B
330
1F
100
AcDbEntity
  8
0
  6
HIDDEN
 62
     7
370
     0
100
AcDbLine
 10
161.0868719667
 20
137.1801629365
 30
0.0
 11
165.1690956318
 21
137.1801629365
 31
0.0
  0
LINE
  5
11C
330
1F
100
AcDbEntity
  8
0
  6
HIDDEN
 62
     7
370
     0
100
AcDbLine
 10
170.8046483016
 20
137.1801629365
 30
0.0
 11
175.9368719667
 21
137.1801629365
 31
0.0
  0
LINE
  5
11D
330
1F
100
AcDbEntity
  8
0
  6
HIDDEN
 62
     7
370
     0
100
AcDbLine
 10
161.0868719667
 20
137.1801629365
 30
0.0
 11
161.0868719667
 21
134.9380791662
 31
0.0
  0
SPLINE
  5
11E
330
1F
100
AcDbEntity
  8
0
  6
HIDDEN
 62
     7
370
     0
100
AcDbSpline
210
0.0
220
0.0
230
1.0
 70
    24
 71
     3
 72
    14
 73
    10
 74
     0
 42
0.000000001
 43
0.00000001
 40
0.0
 40
0.0
 40
0.0
 40
0.0
 40
0.25
 40
0.25
 40
0.5
 40
0.5
 40
0.75
 40
0.75
 40
1.0
 40
1.0
 40
1.0
 40
1.0
 10
176.612577072909
 20
133.3380791662323
 30
0.0
 10
176.756597980737
 20
133.3380791662323
 30
0.0
 10
176.9008574412239
 20
133.3380791662323
 30
0.0
 10
177.1895888855983
 20
133.3380791662323
 30
0.0
 10
177.3340681182229
 20
133.3380791662323
 30
0.0
 10
177.6227654966868
 20
133.3380791662323
 30
0.0
 10
177.7668629480715
 20
133.3380791662323
 30
0.0
 10
178.047038166546
 20
133.3380791662323
 30
0.0
 10
178.1845684551251
 20
133.3380791662323
 30
0.0
 10
178.3147022419473
 20
133.3380791662323
 30
0.0
  0
LINE
  5
11F
330
1F
100
AcDbEntity
  8
0
  6
HIDDEN
 62
     7
370
     0
100
AcDbLine
 10
160.4241302669
 20
133.3380791662
 30
0.0
 11
175.9368719667
 21
133.3380791662
 31
0.0
  0
LINE
  5
120
330
1F
100
AcDbEntity
  8
0
  6
HIDDEN
 62
     7
370
     0
100
AcDbLine
 10
175.9368719667
 20
133.3380791662
 30
0.0
 11
176.6125770729
 21
133.3380791662
 31
0.0
  0
SPLINE
  5
121
330
1F
100
AcDbEntity
  8
0
  6
HIDDEN
 62
     7
370
     0
100
AcDbSpline
210
0.0
220
0.0
230
1.0
 70
    24
 71
     3
 72
    12
 73
     8
 74
     0
 42
0.000000001
 43
0.00000001
 40
0.0
 40
0.0
 40
0.0
 40
0.0
 40
0.4999999999999989
 40
0.4999999999999989
 40
0.7499999999999994
 40
0.7499999999999994
 40
1.0
 40
1.0
 40
1.0
 40
1.0
 10
178.3147022419473
 20
133.3380791662323
 30
0.0
 10
178.8427840654304
 20
133.3380791662323
 30
0.0
 10
179.3264709363081
 20
133.3380791662323
 30
0.0
 10
180.0006858127368
 20
133.3380791662323
 30
0.0
 10
180.2170444534233
 20
133.3380791662323
 30
0.0
 10
180.6262435706964
 20
133.3380791662323
 30
0.0
 10
180.8198456437473
 20
133.3380791662323
 30
0.0
 10
181.00199686542
 20
133.3380791662323
 30
0.0
  0
LINE
  5
122
330
1F
100
AcDbEntity
  8
0
  6
HIDDEN
 62
     7
370
     0
100
AcDbLine
 10
113.2368719667
 20
108.0380791662
 30
0.0
 11
113.2368719667
 21
121.0380791662
 31
0.0
  0
LINE
  5
123
330
1F
100
AcDbEntity
  8
0
  6
HIDDEN
 62
     7
370
     0
100
AcDbLine
 10
116.1750661541
 20
109.4380791662
 30
0.0
 11
116.1750661541
 21
119.6380791662
 31
0.0
  0
LINE
  5
124
330
1F
100
AcDbEntity
  8
0
  6
HIDDEN
 62
     7
370
     0
100
AcDbLine
 10
192.1368719667
 20
131.0630791662
 30
0.0
 11
192.1368719667
 21
130.5380791662
 31
0.0
  0
LINE
  5
125
330
1F
100
AcDbEntity
  8
0
  6
HIDDEN
 62
     7
370
     0
100
AcDbLine
 10
192.1368719667
 20
98.5380791662
 30
0.0
 11
192.1368719667
 21
98.0130791662
 31
0.0
  0
LINE
  5
126
330
1F
100
AcDbEntity
  8
0
  6
HIDDEN
 62
     7
370
     0
100
AcDbLine
 10
143.2368719667
 20
109.4380791662
 30
0.0
 11
143.2368719667
 21
119.6380791662
 31
0.0
  0
LINE
  5
127
330
1F
100
AcDbEntity
  8
0
  6
HIDDEN
 62
     7
370
     0
100
AcDbLine
 10
143.7476034929
 20
110.2880791662
 30
0.0
 11
143.7476034929
 21
118.7880791662
 31
0.0
  0
LINE
  5
128
330
1F
100
AcDbEntity
  8
0
  6
HIDDEN
 62
     7
370
     0
100
AcDbLine
 10
181.0019968654
 20
133.3380791662
 30
0.0
 11
182.3868719667
 21
133.3380791662
 31
0.0
  0
SPLINE
  5
129
330
1F
100
AcDbEntity
  8
0
  6
HIDDEN
 62
     7
370
     0
100
AcDbSpline
210
0.0
220
0.0
230
1.0
 70
    11
 71
     3
 72
    62
 73
    58
 74
     0
 42
0.000000001
 43
0.00000001
 40
0.0
 40
0.0
 40
0.0
 40
0.0
 40
0.0312499999999997
 40
0.0312499999999997
 40
0.0624999999999994
 40
0.0624999999999994
 40
0.1249999999999991
 40
0.1249999999999991
 40
0.1874999999999988
 40
0.1874999999999988
 40
0.2187499999999987
 40
0.2187499999999987
 40
0.2499999999999986
 40
0.2499999999999986
 40
0.2812499999999984
 40
0.2812499999999984
 40
0.3124999999999984
 40
0.3124999999999984
 40
0.3437499999999983
 40
0.3437499999999983
 40
0.3749999999999982
 40
0.3749999999999982
 40
0.4374999999999981
 40
0.4374999999999981
 40
0.4687499999999982
 40
0.4687499999999982
 40
0.4999999999999982
 40
0.4999999999999982
 40
0.5312499999999983
 40
0.5312499999999983
 40
0.5624999999999984
 40
0.5624999999999984
 40
0.5937499999999987
 40
0.5937499999999987
 40
0.6249999999999988
 40
0.6249999999999988
 40
0.6562499999999989
 40
0.6562499999999989
 40
0.687499999999999
 40
0.687499999999999
 40
0.7187499999999991
 40
0.7187499999999991
 40
0.7499999999999991
 40
0.7499999999999991
 40
0.7812499999999992
 40
0.7812499999999992
 40
0.8124999999999992
 40
0.8124999999999992
 40
0.8749999999999994
 40
0.8749999999999994
 40
0.9062499999999996
 40
0.9062499999999996
 40
0.9374999999999998
 40
0.9374999999999998
 40
0.9687499999999999
 40
0.9687499999999999
 40
1.0
 40
1.0
 40
1.0
 40
1.0
 10
167.9868719667059
 20
113.8284647941592
 30
0.0
 10
168.1280701906857
 20
113.8284647941592
 30
0.0
 10
168.2663480676995
 20
113.8444762041507
 30
0.0
 10
168.5375141389073
 20
113.9062057697736
 30
0.0
 10
168.6717174663669
 20
113.9527435332283
 30
0.0
 10
169.050780646157
 20
114.1297198619634
 30
0.0
 10
169.2797875678508
 20
114.3001461556725
 30
0.0
 10
169.6608181868536
 20
114.7060324330959
 30
0.0
 10
169.8164412637752
 20
114.9457028744318
 30
0.0
 10
169.9755117403439
 20
115.3261797017485
 30
0.0
 10
170.0172388854872
 20
115.4594484370536
 30
0.0
 10
170.0725095866293
 20
115.7244296726823
 30
0.0
 10
170.0865895181191
 20
115.8563949874002
 30
0.0
 10
170.0871460844403
 20
116.1190722972144
 30
0.0
 10
170.0731568070196
 20
116.249452161172
 30
0.0
 10
170.018675287784
 20
116.4957960918952
 30
0.0
 10
169.9778248296291
 20
116.614450361878
 30
0.0
 10
169.8712108627697
 20
116.8372766286333
 30
0.0
 10
169.8064587204967
 20
116.9399617396178
 30
0.0
 10
169.6549001785441
 20
117.1300849925312
 30
0.0
 10
169.567562055371
 20
117.2175917837505
 30
0.0
 10
169.2817856344095
 20
117.4498592791991
 30
0.0
 10
169.0522492859437
 20
117.5703080218417
 30
0.0
 10
168.6759311499494
 20
117.6914046141434
 30
0.0
 10
168.5435982415887
 20
117.7225127475796
 30
0.0
 10
168.2695655825979
 20
117.7644599871352
 30
0.0
 10
168.1315404229758
 20
117.7748902217449
 30
0.0
 10
167.853469041757
 20
117.7754461206117
 30
0.0
 10
167.7117561030867
 20
117.7651676617816
 30
0.0
 10
167.4393338474064
 20
117.7243444770885
 30
0.0
 10
167.3075057029093
 20
117.6940511412137
 30
0.0
 10
167.0521068073047
 20
117.6127839509228
 30
0.0
 10
166.9319408041154
 20
117.5628361000645
 30
0.0
 10
166.706769391559
 20
117.4445148888665
 30
0.0
 10
166.6006183302247
 20
117.375221779784
 30
0.0
 10
166.4091710415225
 20
117.2204071311902
 30
0.0
 10
166.323237027603
 20
117.1348211433196
 30
0.0
 10
166.170824709563
 20
116.9451374712425
 30
0.0
 10
166.1046412192755
 20
116.8407162101719
 30
0.0
 10
165.9984595207244
 20
116.6206848703646
 30
0.0
 10
165.9574794575086
 20
116.5040363842552
 30
0.0
 10
165.9013993167112
 20
116.2556350032659
 30
0.0
 10
165.88717514127
 20
116.1265250144617
 30
0.0
 10
165.8865784573985
 20
115.8652699486296
 30
0.0
 10
165.9003470248969
 20
115.7304636579569
 30
0.0
 10
165.955197091839
 20
115.4640085436025
 30
0.0
 10
165.9956936051154
 20
115.3332746089039
 30
0.0
 10
166.1551560762916
 20
114.9488591549003
 30
0.0
 10
166.3098245006058
 20
114.7097001230235
 30
0.0
 10
166.5981325319503
 20
114.4020407635796
 30
0.0
 10
166.7021573472982
 20
114.3093676468154
 30
0.0
 10
166.926576605477
 20
114.1442248041758
 30
0.0
 10
167.0485073933375
 20
114.0711839354966
 30
0.0
 10
167.3009645447635
 20
113.9531620192242
 30
0.0
 10
167.4318510746807
 20
113.9075143136065
 30
0.0
 10
167.7037919923935
 20
113.8449938741393
 30
0.0
 10
167.845673742726
 20
113.8284647941592
 30
0.0
 10
167.9868719667058
 20
113.8284647941592
 30
0.0
  0
SPLINE
  5
12A
330
1F
100
AcDbEntity
  8
0
  6
HIDDEN
 62
     7
370
     0
100
AcDbSpline
210
0.0
220
0.0
230
1.0
 70
     8
 71
     3
 72
    12
 73
     8
 74
     0
 42
0.000000001
 43
0.00000001
 40
0.0
 40
0.0
 40
0.0
 40
0.0
 40
0.5
 40
0.5
 40
0.75
 40
0.75
 40
1.0
 40
1.0
 40
1.0
 40
1.0
 10
166.653225543144
 20
120.5262868069372
 30
0.0
 10
166.5108923391275
 20
120.6392039572521
 30
0.0
 10
166.3899907846969
 20
120.7821673307696
 30
0.0
 10
166.2453940309705
 20
121.0082778840858
 30
0.0
 10
166.2024052866695
 20
121.0870983681345
 30
0.0
 10
166.1291430480539
 20
121.2439870607576
 30
0.0
 10
166.0986384381978
 20
121.3220735598212
 30
0.0
 10
166.0768719667056
 20
121.393209629189
 30
0.0
  0
SPLINE
  5
12B
330
1F
100
AcDbEntity
  8
0
  6
HIDDEN
 62
     7
370
     0
100
AcDbSpline
210
0.0
220
0.0
230
1.0
 70
     8
 71
     3
 72
    14
 73
    10
 74
     0
 42
0.000000001
 43
0.00000001
 40
0.0
 40
0.0
 40
0.0
 40
0.0
 40
0.25
 40
0.25
 40
0.5
 40
0.5
 40
0.75
 40
0.75
 40
1.0
 40
1.0
 40
1.0
 40
1.0
 10
169.3205183902678
 20
120.5262868069373
 30
0.0
 10
169.1327323172239
 20
120.3773105481405
 30
0.0
 10
168.9237209247974
 20
120.2623914927944
 30
0.0
 10
168.4662396296255
 20
120.1033659893688
 30
0.0
 10
168.2287765086036
 20
120.0632978404083
 30
0.0
 10
167.7431592052033
 20
120.0635011530264
 30
0.0
 10
167.5050838596913
 20
120.1039909993822
 30
0.0
 10
167.0489935240655
 20
120.2629673582828
 30
0.0
 10
166.8410101770221
 20
120.3773116898733
 30
0.0
 10
166.653225543144
 20
120.5262868069372
 30
0.0
  0
SPLINE
  5
12C
330
1F
100
AcDbEntity
  8
0
  6
HIDDEN
 62
     7
370
     0
100
AcDbSpline
210
0.0
220
0.0
230
1.0
 70
     8
 71
     3
 72
    12
 73
     8
 74
     0
 42
0.000000001
 43
0.00000001
 40
0.0
 40
0.0
 40
0.0
 40
0.0
 40
0.2500000000000011
 40
0.2500000000000011
 40
0.5000000000000021
 40
0.5000000000000021
 40
1.0
 40
1.0
 40
1.0
 40
1.0
 10
169.8968719667058
 20
121.3932096291882
 30
0.0
 10
169.8751417535251
 20
121.3221920573807
 30
0.0
 10
169.844602452728
 20
121.2439565830513
 30
0.0
 10
169.77105389033
 20
121.0865225363042
 30
0.0
 10
169.7282822481998
 20
121.0081641057443
 30
0.0
 10
169.5837372066903
 20
120.7821583847449
 30
0.0
 10
169.4628959567678
 20
120.6392391513255
 30
0.0
 10
169.3205183902677
 20
120.5262868069372
 30
0.0
  0
SPLINE
  5
12D
330
1F
100
AcDbEntity
  8
0
  6
HIDDEN
 62
     7
370
     0
100
AcDbSpline
210
0.0
220
0.0
230
1.0
 70
     8
 71
     3
 72
    16
 73
    12
 74
     0
 42
0.000000001
 43
0.00000001
 40
0.0
 40
0.0
 40
0.0
 40
0.0
 40
0.2500000000000042
 40
0.2500000000000042
 40
0.3750000000000034
 40
0.3750000000000034
 40
0.5000000000000028
 40
0.5000000000000028
 40
0.7500000000000013
 40
0.7500000000000013
 40
1.0
 40
1.0
 40
1.0
 40
1.0
 10
169.896871966706
 20
123.0336664321629
 30
0.0
 10
169.951268312904
 20
122.9556474392959
 30
0.0
 10
169.9988630450967
 20
122.8597058700363
 30
0.0
 10
170.0498405308889
 20
122.6843939513035
 30
0.0
 10
170.063319343798
 20
122.621239471734
 30
0.0
 10
170.0819104301611
 20
122.4836769476899
 30
0.0
 10
170.0868384612226
 20
122.4089047731652
 30
0.0
 10
170.0869384472098
 20
122.180010724509
 30
0.0
 10
170.0671160228152
 20
122.0141259134813
 30
0.0
 10
169.9988417297504
 20
121.693860331787
 30
0.0
 10
169.9513224433229
 20
121.5390376353733
 30
0.0
 10
169.896871966706
 20
121.393209629188
 30
0.0
  0
SPLINE
  5
12E
330
1F
100
AcDbEntity
  8
0
  6
HIDDEN
 62
     7
370
     0
100
AcDbSpline
210
0.0
220
0.0
230
1.0
 70
     8
 71
     3
 72
    12
 73
     8
 74
     0
 42
0.000000001
 43
0.00000001
 40
0.0
 40
0.0
 40
0.0
 40
0.0
 40
0.4999999999999969
 40
0.4999999999999969
 40
0.7499999999999984
 40
0.7499999999999984
 40
1.0
 40
1.0
 40
1.0
 40
1.0
 10
169.3205183902677
 20
123.5749411894926
 30
0.0
 10
169.4628515942841
 20
123.4679354861302
 30
0.0
 10
169.5837531487147
 20
123.3635236919477
 30
0.0
 10
169.7283499024409
 20
123.2191692326433
 30
0.0
 10
169.771338646742
 20
123.1723605132317
 30
0.0
 10
169.8446008853575
 20
123.0894766576556
 30
0.0
 10
169.8751054952136
 20
123.0520437981685
 30
0.0
 10
169.8968719667058
 20
123.0336664321625
 30
0.0
  0
SPLINE
  5
12F
330
1F
100
AcDbEntity
  8
0
  6
HIDDEN
 62
     7
370
     0
100
AcDbSpline
210
0.0
220
0.0
230
1.0
 70
     8
 71
     3
 72
    14
 73
    10
 74
     0
 42
0.000000001
 43
0.00000001
 40
0.0
 40
0.0
 40
0.0
 40
0.0
 40
0.25
 40
0.25
 40
0.5
 40
0.5
 40
0.75
 40
0.75
 40
1.0
 40
1.0
 40
1.0
 40
1.0
 10
166.653225543144
 20
123.5749411894926
 30
0.0
 10
166.8410116161879
 20
123.7161182322395
 30
0.0
 10
167.0500230086143
 20
123.8239869603647
 30
0.0
 10
167.5075043037862
 20
123.9729107398644
 30
0.0
 10
167.7449674248081
 20
124.0102029454457
 30
0.0
 10
168.2305847282084
 20
124.0100133310492
 30
0.0
 10
168.4686600737203
 20
123.9723269686921
 30
0.0
 10
168.9247504093462
 20
123.823446127198
 30
0.0
 10
169.1327337563897
 20
123.7161171502786
 30
0.0
 10
169.3205183902678
 20
123.5749411894925
 30
0.0
  0
SPLINE
  5
130
330
1F
100
AcDbEntity
  8
0
  6
HIDDEN
 62
     7
370
     0
100
AcDbSpline
210
0.0
220
0.0
230
1.0
 70
     8
 71
     3
 72
    12
 73
     8
 74
     0
 42
0.000000001
 43
0.00000001
 40
0.0
 40
0.0
 40
0.0
 40
0.0
 40
0.2500000000000013
 40
0.2500000000000013
 40
0.5000000000000026
 40
0.5000000000000026
 40
1.0
 40
1.0
 40
1.0
 40
1.0
 10
166.0768719667056
 20
123.0336664321623
 30
0.0
 10
166.0986021798862
 20
123.0520131853854
 30
0.0
 10
166.1291414806834
 20
123.0894787002658
 30
0.0
 10
166.2026900430813
 20
123.1726788365018
 30
0.0
 10
166.2454616852115
 20
123.2192392880878
 30
0.0
 10
166.3900067267212
 20
123.3635345741745
 30
0.0
 10
166.5108479766437
 20
123.4679021345393
 30
0.0
 10
166.653225543144
 20
123.5749411894926
 30
0.0
  0
SPLINE
  5
131
330
1F
100
AcDbEntity
  8
0
  6
HIDDEN
 62
     7
370
     0
100
AcDbSpline
210
0.0
220
0.0
230
1.0
 70
     8
 71
     3
 72
    16
 73
    12
 74
     0
 42
0.000000001
 43
0.00000001
 40
0.0
 40
0.0
 40
0.0
 40
0.0
 40
0.2499999999999993
 40
0.2499999999999993
 40
0.374999999999999
 40
0.374999999999999
 40
0.4999999999999987
 40
0.4999999999999987
 40
0.7499999999999993
 40
0.7499999999999993
 40
1.0
 40
1.0
 40
1.0
 40
1.0
 10
166.0768719667054
 20
121.3932096291889
 30
0.0
 10
166.0224756205075
 20
121.5388926645393
 30
0.0
 10
165.9748808883148
 20
121.6941348465062
 30
0.0
 10
165.9239034025227
 20
121.9330021299203
 30
0.0
 10
165.9104245896136
 20
122.0129696964474
 30
0.0
 10
165.8918335032506
 20
122.1737254025481
 30
0.0
 10
165.8869054721891
 20
122.2546475543795
 30
0.0
 10
165.8868054862019
 20
122.4836663686831
 30
0.0
 10
165.9066279105965
 20
122.6248082023518
 30
0.0
 10
165.9749022036611
 20
122.8599537190483
 30
0.0
 10
166.0224214900886
 20
122.955569801714
 30
0.0
 10
166.0768719667053
 20
123.0336664321624
 30
0.0
  0
SPLINE
  5
132
330
1F
100
AcDbEntity
  8
0
  6
HIDDEN
 62
     7
370
     0
100
AcDbSpline
210
0.0
220
0.0
230
1.0
 70
     8
 71
     3
 72
     8
 73
     4
 74
     0
 42
0.000000001
 43
0.00000001
 40
0.0
 40
0.0
 40
0.0
 40
0.0
 40
1.0
 40
1.0
 40
1.0
 40
1.0
 10
167.1515850190657
 20
117.9941182860312
 30
0.0
 10
167.1838743348295
 20
117.9951634829957
 30
0.0
 10
167.2165578273521
 20
117.9987211288245
 30
0.0
 10
167.2495100863141
 20
118.0047775724214
 30
0.0
  0
SPLINE
  5
133
330
1F
100
AcDbEntity
  8
0
  6
HIDDEN
 62
     7
370
     0
100
AcDbSpline
210
0.0
220
0.0
230
1.0
 70
     8
 71
     3
 72
    48
 73
    44
 74
     0
 42
0.000000001
 43
0.00000001
 40
0.0
 40
0.0
 40
0.0
 40
0.0
 40
0.0312499999999996
 40
0.0312499999999996
 40
0.0624999999999993
 40
0.0624999999999993
 40
0.1249999999999995
 40
0.1249999999999995
 40
0.1874999999999996
 40
0.1874999999999996
 40
0.2499999999999997
 40
0.2499999999999997
 40
0.3124999999999998
 40
0.3124999999999998
 40
0.3749999999999999
 40
0.3749999999999999
 40
0.4062499999999999
 40
0.4062499999999999
 40
0.4374999999999998
 40
0.4374999999999998
 40
0.4999999999999998
 40
0.4999999999999998
 40
0.5624999999999998
 40
0.5624999999999998
 40
0.5937499999999997
 40
0.5937499999999997
 40
0.6249999999999997
 40
0.6249999999999997
 40
0.6874999999999993
 40
0.6874999999999993
 40
0.7499999999999989
 40
0.7499999999999989
 40
0.8124999999999996
 40
0.8124999999999996
 40
0.8749999999999997
 40
0.8749999999999997
 40
0.9062499999999998
 40
0.9062499999999998
 40
0.9374999999999998
 40
0.9374999999999998
 40
0.9687499999999999
 40
0.9687499999999999
 40
1.0
 40
1.0
 40
1.0
 40
1.0
 10
167.2495100863141
 20
118.0047775724214
 30
0.0
 10
167.3007395727924
 20
118.0175901410557
 30
0.0
 10
167.3327212504427
 20
118.0425891070487
 30
0.0
 10
167.3526483126643
 20
118.1077537248856
 30
0.0
 10
167.3423999444179
 20
118.1469656426207
 30
0.0
 10
167.2853287621563
 20
118.2694308052755
 30
0.0
 10
167.2156599328319
 20
118.3592638555763
 30
0.0
 10
167.0666596489598
 20
118.5517823984994
 30
0.0
 10
166.9856535397712
 20
118.653725414132
 30
0.0
 10
166.8212019414642
 20
118.8712996898768
 30
0.0
 10
166.7374002706155
 20
118.9868816507363
 30
0.0
 10
166.570333223114
 20
119.2353894868509
 30
0.0
 10
166.4869758745114
 20
119.3681820063194
 30
0.0
 10
166.3231395641674
 20
119.6585383840529
 30
0.0
 10
166.2430985887684
 20
119.8154043734065
 30
0.0
 10
166.1334264857955
 20
120.068411672455
 30
0.0
 10
166.098439533491
 20
120.1560412604305
 30
0.0
 10
166.0328911586479
 20
120.3403293932329
 30
0.0
 10
166.0021157228114
 20
120.4379045810495
 30
0.0
 10
165.9234565048321
 20
120.7370943063261
 30
0.0
 10
165.8885323803276
 20
120.9519465815787
 30
0.0
 10
165.8853320178258
 20
121.3511753323748
 30
0.0
 10
165.9172807854926
 20
121.5226449954087
 30
0.0
 10
165.9932813747187
 20
121.7204924146786
 30
0.0
 10
166.0232686241898
 20
121.7777208974987
 30
0.0
 10
166.0877763702955
 20
121.875707754123
 30
0.0
 10
166.1226139298573
 20
121.9172005508515
 30
0.0
 10
166.232838924766
 20
122.0246439602592
 30
0.0
 10
166.3126133181884
 20
122.0725698305973
 30
0.0
 10
166.4756632879185
 20
122.137473252375
 30
0.0
 10
166.559693954467
 20
122.154582350151
 30
0.0
 10
166.7297725444164
 20
122.1658576749715
 30
0.0
 10
166.8150516035855
 20
122.159869908874
 30
0.0
 10
166.9817856680442
 20
122.1288101117528
 30
0.0
 10
167.0636988166145
 20
122.1037937608863
 30
0.0
 10
167.1764622705255
 20
122.0517476188243
 30
0.0
 10
167.2121527237129
 20
122.0320256622728
 30
0.0
 10
167.2757815131251
 20
121.98700923642
 30
0.0
 10
167.3039936676657
 20
121.9616149647296
 30
0.0
 10
167.3422037502244
 20
121.9038842232754
 30
0.0
 10
167.3526730386585
 20
121.8717358293804
 30
0.0
 10
167.333256371972
 20
121.7936790492911
 30
0.0
 10
167.301161884139
 20
121.7495154501948
 30
0.0
 10
167.2495100863183
 20
121.7001945015385
 30
0.0
  0
SPLINE
  5
134
330
1F
100
AcDbEntity
  8
0
  6
HIDDEN
 62
     7
370
     0
100
AcDbSpline
210
0.0
220
0.0
230
1.0
 70
     8
 71
     3
 72
     8
 73
     4
 74
     0
 42
0.000000001
 43
0.00000001
 40
0.0
 40
0.0
 40
0.0
 40
0.0
 40
1.0
 40
1.0
 40
1.0
 40
1.0
 10
167.2495100863183
 20
121.7001945015385
 30
0.0
 10
167.2165578273534
 20
121.6740595283946
 30
0.0
 10
167.1838743348281
 20
121.645688318312
 30
0.0
 10
167.1515850190617
 20
121.6151897348864
 30
0.0
  0
SPLINE
  5
135
330
1F
100
AcDbEntity
  8
0
  6
HIDDEN
 62
     7
370
     0
100
AcDbSpline
210
0.0
220
0.0
230
1.0
 70
     8
 71
     3
 72
    26
 73
    22
 74
     0
 42
0.000000001
 43
0.00000001
 40
0.0
 40
0.0
 40
0.0
 40
0.0
 40
0.0625000000000003
 40
0.0625000000000003
 40
0.1250000000000005
 40
0.1250000000000005
 40
0.2500000000000004
 40
0.2500000000000004
 40
0.3750000000000003
 40
0.3750000000000003
 40
0.5000000000000002
 40
0.5000000000000002
 40
0.6250000000000002
 40
0.6250000000000002
 40
0.75
 40
0.75
 40
0.8749999999999999
 40
0.8749999999999999
 40
0.9375
 40
0.9375
 40
1.0
 40
1.0
 40
1.0
 40
1.0
 10
167.1515850190616
 20
121.6151897348864
 30
0.0
 10
167.0821318371827
 20
121.5583701216654
 30
0.0
 10
167.0056318007492
 20
121.4988605723593
 30
0.0
 10
166.8511448763342
 20
121.3701315696373
 30
0.0
 10
166.7726245521473
 20
121.3008459448834
 30
0.0
 10
166.5420061447688
 20
121.0762481983071
 30
0.0
 10
166.399559197985
 20
120.9088595063057
 30
0.0
 10
166.1560255264956
 20
120.5369934750401
 30
0.0
 10
166.0589730337942
 20
120.3400872208885
 30
0.0
 10
165.9225414016665
 20
119.9203134442188
 30
0.0
 10
165.8872159514335
 20
119.7092695742644
 30
0.0
 10
165.8865328981445
 20
119.2896294313904
 30
0.0
 10
165.9214702890745
 20
119.0910609129978
 30
0.0
 10
166.0570596868597
 20
118.7254199054673
 30
0.0
 10
166.1551752996668
 20
118.5653812556175
 30
0.0
 10
166.3984542209873
 20
118.2959385530235
 30
0.0
 10
166.5410258738812
 20
118.1895669361738
 30
0.0
 10
166.770974598255
 20
118.0762740026132
 30
0.0
 10
166.8492352051492
 20
118.0467778645271
 30
0.0
 10
167.0044786286193
 20
118.0056331988844
 30
0.0
 10
167.0824492645472
 20
117.9938874755037
 30
0.0
 10
167.1515850190657
 20
117.9941182860312
 30
0.0
  0
LINE
  5
136
330
1F
100
AcDbEntity
  8
0
  6
HIDDEN
 62
     7
370
     0
100
AcDbLine
 10
175.9368719667
 20
133.3921901238
 30
0.0
 11
175.9368719667
 21
129.3880791662
 31
0.0
  0
LINE
  5
137
330
1F
100
AcDbEntity
  8
0
  6
HIDDEN
 62
     7
370
     0
100
AcDbLine
 10
166.0768719667
 20
131.3858983938
 30
0.0
 11
166.0768719667
 21
129.3880791662
 31
0.0
  0
LINE
  5
138
330
1F
100
AcDbEntity
  8
0
  6
HIDDEN
 62
     7
370
     0
100
AcDbLine
 10
169.8968719667
 20
131.3858983938
 30
0.0
 11
169.8968719667
 21
129.3880791662
 31
0.0
  0
LINE
  5
139
330
1F
100
AcDbEntity
  8
0
  6
HIDDEN
 62
     7
370
     0
100
AcDbLine
 10
171.3499372847
 20
134.6186201201
 30
0.0
 11
171.3499372847
 21
129.3880791662
 31
0.0
  0
LINE
  5
13A
330
1F
100
AcDbEntity
  8
0
  6
HIDDEN
 62
     7
370
     0
100
AcDbLine
 10
164.6238066487
 20
134.6186201201
 30
0.0
 11
164.6238066487
 21
129.3880791662
 31
0.0
  0
LINE
  5
13B
330
1F
100
AcDbEntity
  8
0
  6
HIDDEN
 62
     7
370
     0
100
AcDbLine
 10
160.0868719667
 20
105.299102627
 30
0.0
 11
166.9495449591
 21
106.9426104353
 31
0.0
  0
LINE
  5
13C
330
1F
100
AcDbEntity
  8
0
  6
HIDDEN
 62
     7
370
     0
100
AcDbLine
 10
166.9459709301
 20
111.0548615674
 30
0.0
 11
160.0868719667
 21
109.4122096857
 31
0.0
  0
LINE
  5
13D
330
1F
100
AcDbEntity
  8
0
  6
HIDDEN
 62
     7
370
     0
100
AcDbLine
 10
170.0868719667
 20
108.3731660828
 30
0.0
 11
170.0868719667
 21
113.0890779488
 31
0.0
  0
LINE
  5
13E
330
1F
100
AcDbEntity
  8
0
  6
HIDDEN
 62
     7
370
     0
100
AcDbLine
 10
165.8868719667
 20
113.0873609249
 30
0.0
 11
165.8868719667
 21
109.5790139398
 31
0.0
  0
LINE
  5
13F
330
1F
100
AcDbEntity
  8
0
  6
HIDDEN
 62
     7
370
     0
100
AcDbLine
 10
192.1368719667
 20
127.1154294354
 30
0.0
 11
191.1368719667
 21
126.5380791662
 31
0.0
  0
LINE
  5
140
330
1F
100
AcDbEntity
  8
0
  6
HIDDEN
 62
     7
370
     0
100
AcDbLine
 10
191.1368719667
 20
102.5380791662
 30
0.0
 11
192.1368719667
 21
101.960728897
 31
0.0
  0
LINE
  5
141
330
1F
100
AcDbEntity
  8
0
  6
HIDDEN
 62
     7
370
     0
100
AcDbLine
 10
195.8035119032
 20
130.5380791662
 30
0.0
 11
192.1368719667
 21
130.5380791662
 31
0.0
  0
LINE
  5
142
330
1F
100
AcDbEntity
  8
0
  6
HIDDEN
 62
     7
370
     0
100
AcDbLine
 10
192.1368719667
 20
98.5380791662
 30
0.0
 11
195.8000751845
 21
98.5380791662
 31
0.0
  0
LINE
  5
143
330
1F
100
AcDbEntity
  8
0
  6
HIDDEN
 62
     7
370
     0
100
AcDbLine
 10
171.5868719667
 20
102.2380791662
 30
0.0
 11
172.2882652259
 21
102.2380791662
 31
0.0
  0
LINE
  5
144
330
1F
100
AcDbEntity
  8
0
  6
HIDDEN
 62
     7
370
     0
100
AcDbLine
 10
172.2882652259
 20
126.8380791662
 30
0.0
 11
171.5868719667
 21
126.8380791662
 31
0.0
  0
ARC
  5
145
330
1F
100
AcDbEntity
  8
0
  6
HIDDEN
 62
     7
370
     0
100
AcDbCircle
 10
172.2882652259
 20
102.8380791662
 30
0.0
 40
0.6000000000000085
100
AcDbArc
 50
270.0
 51
285.0
  0
ARC
  5
146
330
1F
100
AcDbEntity
  8
0
  6
HIDDEN
 62
     7
370
     0
100
AcDbCircle
 10
172.2882652259
 20
126.2380791662
 30
0.0
 40
0.6000000000000135
100
AcDbArc
 50
75.0
 51
90.0
  0
ARC
  5
147
330
1F
100
AcDbEntity
  8
0
  6
HIDDEN
 62
     7
370
     0
100
AcDbCircle
 10
171.5868719667
 20
102.8380791662
 30
0.0
 40
0.6000000000000227
100
AcDbArc
 50
180.0
 51
270.0
  0
ARC
  5
148
330
1F
100
AcDbEntity
  8
0
  6
HIDDEN
 62
     7
370
     0
100
AcDbCircle
 10
171.5868719667
 20
126.2380791662
 30
0.0
 40
0.6000000000000085
100
AcDbArc
 50
90.0
 51
180.0
  0
LINE
  5
149
330
1F
100
AcDbEntity
  8
0
  6
HIDDEN
 62
     7
370
     0
100
AcDbLine
 10
172.4435566529
 20
102.2585236705
 30
0.0
 11
173.4868719667
 21
102.5380791662
 31
0.0
  0
LINE
  5
14A
330
1F
100
AcDbEntity
  8
0
  6
HIDDEN
 62
     7
370
     0
100
AcDbLine
 10
173.4868719667
 20
126.5380791662
 30
0.0
 11
172.4435566529
 21
126.817634662
 31
0.0
  0
LINE
  5
14B
330
1F
100
AcDbEntity
  8
0
  6
HIDDEN
 62
     7
370
     0
100
AcDbLine
 10
173.4868719667
 20
102.5380791662
 30
0.0
 11
191.1368719667
 21
102.5380791662
 31
0.0
  0
LINE
  5
14C
330
1F
100
AcDbEntity
  8
0
  6
HIDDEN
 62
     7
370
     0
100
AcDbLine
 10
191.1368719667
 20
126.5380791662
 30
0.0
 11
173.4868719667
 21
126.5380791662
 31
0.0
  0
LINE
  5
14D
330
1F
100
AcDbEntity
  8
0
  6
HIDDEN
 62
     7
370
     0
100
AcDbLine
 10
195.4368719667
 20
97.7175579725
 30
0.0
 11
195.9868719667
 21
96.5380791662
 31
0.0
  0
LINE
  5
14E
330
1F
100
AcDbEntity
  8
0
  6
HIDDEN
 62
     7
370
     0
100
AcDbLine
 10
195.9868719667
 20
132.5380791662
 30
0.0
 11
195.4368719667
 21
131.35860036
 31
0.0
  0
LINE
  5
14F
330
1F
100
AcDbEntity
  8
0
  6
HIDDEN
 62
     7
370
     0
100
AcDbLine
 10
183.9868719667
 20
93.5431615544
 30
0.0
 11
183.9868719667
 21
96.7380791662
 31
0.0
  0
ARC
  5
150
330
1F
100
AcDbEntity
  8
0
  6
HIDDEN
 62
     7
370
     0
100
AcDbCircle
 10
182.3868719667
 20
96.7380791662
 30
0.0
 40
1.600000000000009
100
AcDbArc
 50
0.0
 51
90.0
  0
ARC
  5
151
330
1F
100
AcDbEntity
  8
0
  6
HIDDEN
 62
     7
370
     0
100
AcDbCircle
 10
110.0368719667
 20
107.2380791662
 30
0.0
 40
0.8000000000000114
100
AcDbArc
 50
90.0
 51
180.0
  0
ARC
  5
152
330
1F
100
AcDbEntity
  8
0
  6
HIDDEN
 62
     7
370
     0
100
AcDbCircle
 10
110.0368719667
 20
121.8380791662
 30
0.0
 40
0.8000000000000114
100
AcDbArc
 50
180.0
 51
270.0
  0
ARC
  5
153
330
1F
100
AcDbEntity
  8
0
  6
HIDDEN
 62
     7
370
     0
100
AcDbCircle
 10
114.1292443974
 20
108.2130791662
 30
0.0
 40
0.3999999999999915
100
AcDbArc
 50
255.0
 51
270.0
  0
ARC
  5
154
330
1F
100
AcDbEntity
  8
0
  6
HIDDEN
 62
     7
370
     0
100
AcDbCircle
 10
114.1292443974
 20
120.8630791662
 30
0.0
 40
0.4000000000000057
100
AcDbArc
 50
90.0
 51
105.0
  0
LINE
  5
155
330
1F
100
AcDbEntity
  8
0
  6
HIDDEN
 62
     7
370
     0
100
AcDbLine
 10
114.1292443974
 20
107.8130791662
 30
0.0
 11
115.005931859
 21
107.8130791662
 31
0.0
  0
LINE
  5
156
330
1F
100
AcDbEntity
  8
0
  6
HIDDEN
 62
     7
370
     0
100
AcDbLine
 10
115.005931859
 20
121.2630791662
 30
0.0
 11
114.1292443974
 21
121.2630791662
 31
0.0
  0
ARC
  5
157
330
1F
100
AcDbEntity
  8
0
  6
HIDDEN
 62
     7
370
     0
100
AcDbCircle
 10
115.005931859
 20
108.2130791662
 30
0.0
 40
0.400000000000005
100
AcDbArc
 50
270.0
 51
330.0
  0
ARC
  5
158
330
1F
100
AcDbEntity
  8
0
  6
HIDDEN
 62
     7
370
     0
100
AcDbCircle
 10
115.005931859
 20
120.8630791662
 30
0.0
 40
0.4000000000000121
100
AcDbArc
 50
30.0
 51
90.0
  0
LINE
  5
159
330
1F
100
AcDbEntity
  8
0
  6
HIDDEN
 62
     7
370
     0
100
AcDbLine
 10
114.0257167794
 20
121.2494494967
 30
0.0
 11
113.2368719667
 21
121.0380791662
 31
0.0
  0
LINE
  5
15A
330
1F
100
AcDbEntity
  8
0
  6
HIDDEN
 62
     7
370
     0
100
AcDbLine
 10
113.2368719667
 20
108.0380791662
 30
0.0
 11
114.0257167794
 21
107.8267088357
 31
0.0
  0
LINE
  5
15B
330
1F
100
AcDbEntity
  8
0
  6
HIDDEN
 62
     7
370
     0
100
AcDbLine
 10
115.3523420205
 20
108.0130791662
 30
0.0
 11
116.1750661541
 21
109.4380791662
 31
0.0
  0
LINE
  5
15C
330
1F
100
AcDbEntity
  8
0
  6
HIDDEN
 62
     7
370
     0
100
AcDbLine
 10
116.1750661541
 20
119.6380791662
 30
0.0
 11
115.3523420205
 21
121.0630791662
 31
0.0
  0
LINE
  5
15D
330
1F
100
AcDbEntity
  8
0
  6
HIDDEN
 62
     7
370
     0
100
AcDbLine
 10
110.0368719667
 20
108.0380791662
 30
0.0
 11
113.2368719667
 21
108.0380791662
 31
0.0
  0
LINE
  5
15E
330
1F
100
AcDbEntity
  8
0
  6
HIDDEN
 62
     7
370
     0
100
AcDbLine
 10
113.2368719667
 20
121.0380791662
 30
0.0
 11
110.0368719667
 21
121.0380791662
 31
0.0
  0
LINE
  5
15F
330
1F
100
AcDbEntity
  8
0
  6
HIDDEN
 62
     7
370
     0
100
AcDbLine
 10
195.4368719667
 20
131.0630791662
 30
0.0
 11
192.1368719667
 21
131.0630791662
 31
0.0
  0
LINE
  5
160
330
1F
100
AcDbEntity
  8
0
  6
HIDDEN
 62
     7
370
     0
100
AcDbLine
 10
192.1368719667
 20
98.0130791662
 30
0.0
 11
195.4368719667
 21
98.0130791662
 31
0.0
  0
LINE
  5
161
330
1F
100
AcDbEntity
  8
0
  6
HIDDEN
 62
     7
370
     0
100
AcDbLine
 10
143.2368719667
 20
109.4380791662
 30
0.0
 11
143.7476034929
 21
110.2880791662
 31
0.0
  0
LINE
  5
162
330
1F
100
AcDbEntity
  8
0
  6
HIDDEN
 62
     7
370
     0
100
AcDbLine
 10
143.7476034929
 20
118.7880791662
 30
0.0
 11
143.2368719667
 21
119.6380791662
 31
0.0
  0
LINE
  5
163
330
1F
100
AcDbEntity
  8
0
  6
HIDDEN
 62
     7
370
     0
100
AcDbLine
 10
116.1750661541
 20
109.4380791662
 30
0.0
 11
143.2368719667
 21
109.4380791662
 31
0.0
  0
LINE
  5
164
330
1F
100
AcDbEntity
  8
0
  6
HIDDEN
 62
     7
370
     0
100
AcDbLine
 10
143.2368719667
 20
119.6380791662
 30
0.0
 11
116.1750661541
 21
119.6380791662
 31
0.0
  0
ARC
  5
165
330
1F
100
AcDbEntity
  8
0
  6
HIDDEN
 62
     7
370
     0
100
AcDbCircle
 10
182.3868719667
 20
134.9380791662
 30
0.0
 40
1.600000000000023
100
AcDbArc
 50
270.0
 51
0.0
  0
LINE
  5
166
330
1F
100
AcDbEntity
  8
0
  6
HIDDEN
 62
     7
370
     0
100
AcDbLine
 10
183.9868719667
 20
134.9380791662
 30
0.0
 11
183.9868719667
 21
135.5380791662
 31
0.0
  0
LINE
  5
167
330
1F
100
AcDbEntity
  8
0
  6
HIDDEN
 62
     7
370
     0
100
AcDbLine
 10
143.7476034929
 20
110.2880791662
 30
0.0
 11
170.9868719667
 21
110.2880791662
 31
0.0
  0
LINE
  5
168
330
1F
100
AcDbEntity
  8
0
  6
HIDDEN
 62
     7
370
     0
100
AcDbLine
 10
170.9868719667
 20
118.7880791662
 30
0.0
 11
143.7476034929
 21
118.7880791662
 31
0.0
  0
LINE
  5
169
330
1F
100
AcDbEntity
  8
0
  6
HIDDEN
 62
     7
370
     0
100
AcDbLine
 10
170.0868719667
 20
115.9913962452
 30
0.0
 11
170.0868719667
 21
122.3305236505
 31
0.0
  0
LINE
  5
16A
330
1F
100
AcDbEntity
  8
0
  6
HIDDEN
 62
     7
370
     0
100
AcDbLine
 10
165.8868719667
 20
119.4965949
 30
0.0
 11
165.8868719667
 21
115.9905483514
 31
0.0
  0
LINE
  5
16B
330
1F
100
AcDbEntity
  8
0
  6
HIDDEN
 62
     7
370
     0
100
AcDbLine
 10
165.8868719667
 20
122.3305236505
 30
0.0
 11
165.8868719667
 21
121.1662581546
 31
0.0
  0
LINE
  5
16C
330
1F
100
AcDbEntity
  8
0
  6
HIDDEN
 62
     7
370
     0
100
AcDbLine
 10
195.8000751845
 20
98.5380791662
 30
0.0
 11
195.8025664465
 21
98.5380791662
 31
0.0
  0
LINE
  5
16D
330
1F
100
AcDbEntity
  8
0
  6
HIDDEN
 62
     7
370
     0
100
AcDbLine
 10
160.0868719667
 20
119.6639486467
 30
0.0
 11
166.9525094105
 21
118.0197308965
 31
0.0
  0
LINE
  5
16E
330
1F
100
AcDbEntity
  8
0
  6
HIDDEN
 62
     7
370
     0
100
AcDbLine
 10
166.9529253312
 20
122.1327383485
 30
0.0
 11
160.0868719667
 21
123.7770557054
 31
0.0
  0
DIMENSION
  5
16F
330
1F
100
AcDbEntity
  8
VERMASSUNG
100
AcDbDimension
  2
_D
 10
101.9557571816
 20
139.5130791662
 30
0.0
 11
101.9557571816
 21
114.5380791662
 31
0.0
 70
   160
  1
ISO 30 %%c<>
 71
     2
 42
-1.0
  3
SLDDIMSTYLE0
100
AcDbAlignedDimension
 13
160.6868719667
 23
89.5630791662
 33
0.0
 14
160.6868719667
 24
139.5130791662
 34
0.0
 50
90.0
100
AcDbRotatedDimension
  0
DIMENSION
  5
17C
330
1F
100
AcDbEntity
  8
VERMASSUNG
100
AcDbDimension
  2
_D_1
 10
195.9868719667
 20
155.7272813311
 30
0.0
 11
152.6118719667
 21
155.7272813311
 31
0.0
 70
   160
  1
(<>)
 71
     2
 42
-1.0
  3
SLDDIMSTYLE0
100
AcDbAlignedDimension
 13
109.2368719667
 23
122.5993764299
 33
0.0
 14
195.9868719667
 24
135.1380791662
 34
0.0
100
AcDbRotatedDimension
  0
DIMENSION
  5
188
330
1F
100
AcDbEntity
  8
VERMASSUNG
100
AcDbDimension
  2
_D_2
 10
195.9868719667
 20
149.7272813311
 30
0.0
 11
176.4368719667
 21
149.7272813311
 31
0.0
 70
   160
  1
<>
 71
     2
 42
-1.0
  3
SLDDIMSTYLE0
100
AcDbAlignedDimension
 13
156.8868719667
 23
130.4130791662
 33
0.0
 14
195.9868719667
 24
135.1380791662
 34
0.0
100
AcDbRotatedDimension
  0
DIMENSION
  5
192
330
1F
100
AcDbEntity
  8
VERMASSUNG
100
AcDbDimension
  2
_D_3
 10
195.9868719667
 20
143.7272813311
 30
0.0
 11
185.9618719667
 21
143.7272813311
 31
0.0
 70
   160
  1
<>
 71
     2
 42
-1.0
  3
SLDDIMSTYLE0
100
AcDbAlignedDimension
 13
175.9368719667
 23
137.4494367802
 33
0.0
 14
195.9868719667
 24
135.1380791662
 34
0.0
100
AcDbRotatedDimension
  0
DIMENSION
  5
19C
330
1F
100
AcDbEntity
  8
VERMASSUNG
100
AcDbDimension
  2
_D_4
 10
203.6314798297
 20
93.5380791662
 30
0.0
 11
203.6314798297
 21
114.5380791662
 31
0.0
 70
   160
  1
MBM %%c<>
 71
     2
 42
-1.0
  3
SLDDIMSTYLE0
100
AcDbAlignedDimension
 13
195.5868719667
 23
135.5380791662
 33
0.0
 14
195.5868719667
 24
93.5380791662
 34
0.0
 50
90.0
100
AcDbRotatedDimension
  0
LINE
  5
1A8
330
1F
100
AcDbEntity
  8
VERMASSUNG
  6
CENTERX2
 62
     7
370
     0
100
AcDbLine
 10
107.2368719667
 20
114.5380791662
 30
0.0
 11
197.9868719667
 21
114.5380791662
 31
0.0
  0
LINE
  5
1A9
330
1F
100
AcDbEntity
  8
VERMASSUNG
  6
CENTERX2
370
     0
100
AcDbLine
 10
158.1418703206
 20
122.1863010559
 30
0.0
 11
168.8977076659
 21
119.6104384611
 31
0.0
  0
LINE
  5
1AA
330
1F
100
AcDbEntity
  8
VERMASSUNG
  6
CENTERX2
370
     0
100
AcDbLine
 10
158.1418703206
 20
106.8898572766
 30
0.0
 11
168.8977076659
 21
109.4657198714
 31
0.0
  0
LINE
  5
1AB
330
1F
100
AcDbEntity
  8
0
  6
Continuous
 62
     7
370
    15
100
AcDbLine
 10
257.9123970029
 20
53.4791230572
 30
0.0
 11
257.7355915835
 21
53.581223831
 31
0.0
  0
LINE
  5
1AC
330
1F
100
AcDbEntity
  8
0
  6
Continuous
 62
     7
370
    15
100
AcDbLine
 10
253.8458723549
 20
53.581223831
 30
0.0
 11
253.7824738517
 21
53.5446127573
 31
0.0
  0
LINE
  5
1AD
330
1F
100
AcDbEntity
  8
0
  6
Continuous
 62
     7
370
    15
100
AcDbLine
 10
258.7907319692
 20
51.9629632446
 30
0.0
 11
258.7907319692
 21
52.2547099072
 31
0.0
  0
LINE
  5
1AE
330
1F
100
AcDbEntity
  8
0
  6
Continuous
 62
     7
370
    15
100
AcDbLine
 10
252.7907319692
 20
52.2547099072
 30
0.0
 11
252.7907319692
 21
51.9750027837
 31
0.0
  0
LINE
  5
1AF
330
1F
100
AcDbEntity
  8
0
  6
Continuous
 62
     7
370
    15
100
AcDbLine
 10
260.0876123747
 20
32.8323451529
 30
0.0
 11
260.2290107459
 21
32.913999233
 31
0.0
  0
LINE
  5
1B0
330
1F
100
AcDbEntity
  8
0
  6
Continuous
 62
     7
370
    15
100
AcDbLine
 10
267.5110268674
 20
45.5281879105
 30
0.0
 11
267.5110268674
 21
45.6914695328
 31
0.0
  0
LINE
  5
1B1
330
1F
100
AcDbEntity
  8
0
  6
Continuous
 62
     7
370
    15
100
AcDbLine
 10
248.9501683652
 20
35.7101126562
 30
0.0
 11
254.8368323186
 21
32.3118138907
 31
0.0
  0
LINE
  5
1B2
330
1F
100
AcDbEntity
  8
0
  6
Continuous
 62
     7
370
    15
100
AcDbLine
 10
265.3359790112
 20
50.4988400007
 30
0.0
 11
259.4493150579
 21
53.8971387662
 31
0.0
  0
SPLINE
  5
1B3
330
1F
100
AcDbEntity
  8
0
  6
Continuous
 62
     7
370
    15
100
AcDbSpline
210
0.0
220
0.0
230
1.0
 70
     8
 71
     3
 72
    32
 73
    28
 74
     0
 42
0.000000001
 43
0.00000001
 40
0.0
 40
0.0
 40
0.0
 40
0.0
 40
0.0070262225576946
 40
0.0492411646479604
 40
0.0915798512771624
 40
0.1341222016696609
 40
0.1768642800135456
 40
0.2197729060733143
 40
0.2628023032653811
 40
0.3059076315579501
 40
0.3490523670425363
 40
0.3922094188996737
 40
0.4353591668556965
 40
0.4784940664586013
 40
0.5216110190802832
 40
0.564709794423229
 40
0.6077919262109491
 40
0.6508599868628168
 40
0.693917134897797
 40
0.7369668464065062
 40
0.7800127649807417
 40
0.8230586238880484
 40
0.8661074077528816
 40
0.9091624742810729
 40
0.9522276503355229
 40
0.9953067252882758
 40
1.0
 40
1.0
 40
1.0
 40
1.0
 10
252.9542441351104
 20
59.77384294926377
 30
0.0
 10
252.9228415092194
 20
59.78321492823196
 30
0.0
 10
252.7027656634596
 20
59.84889562019141
 30
0.0
 10
252.2726476206948
 20
59.9228749351247
 30
0.0
 10
251.6554591238236
 20
59.96645750061301
 30
0.0
 10
251.0127348870733
 20
59.93599653487579
 30
0.0
 10
250.3497917937182
 20
59.83542015075292
 30
0.0
 10
249.6702729317316
 20
59.66402819466241
 30
0.0
 10
248.9787198640933
 20
59.42308819375286
 30
0.0
 10
248.2796336858367
 20
59.11408408049446
 30
0.0
 10
247.5775651216593
 20
58.73912892930056
 30
0.0
 10
246.8769960785862
 20
58.30077000907217
 30
0.0
 10
246.1822989528282
 20
57.80194653303649
 30
0.0
 10
245.4977235640056
 20
57.24592693821482
 30
0.0
 10
244.8273916920596
 20
56.63626773434284
 30
0.0
 10
244.1753221066235
 20
55.9768130270756
 30
0.0
 10
243.5454202449766
 20
55.27167749329926
 30
0.0
 10
242.9414627711275
 20
54.52522781408666
 30
0.0
 10
242.3670805191603
 20
53.74206189079781
 30
0.0
 10
241.8257346831037
 20
52.92698443989691
 30
0.0
 10
241.320712126289
 20
52.08498286363761
 30
0.0
 10
240.8550516410193
 20
51.22119521130408
 30
0.0
 10
240.4317367399001
 20
50.34091012218792
 30
0.0
 10
240.0528799993276
 20
49.44941106157726
 30
0.0
 10
239.7226817021177
 20
48.55238698134486
 30
0.0
 10
239.5214072887689
 20
47.92110852043996
 30
0.0
 10
239.4302113921885
 20
47.5908629601882
 30
0.0
 10
239.4212520799872
 20
47.55841881315599
 30
0.0
  0
SPLINE
  5
1B4
330
1F
100
AcDbEntity
  8
0
  6
Continuous
 62
     7
370
    15
100
AcDbSpline
210
0.0
220
0.0
230
1.0
 70
     8
 71
     3
 72
    12
 73
     8
 74
     0
 42
0.000000001
 43
0.00000001
 40
0.0
 40
0.0
 40
0.0
 40
0.0
 40
0.2110997089614652
 40
0.4304001475845042
 40
0.6507634197042714
 40
0.8720701810538208
 40
1.0
 40
1.0
 40
1.0
 40
1.0
 10
248.178565357793
 20
34.18892961908643
 30
0.0
 10
248.3723519701169
 20
34.16164628975898
 30
0.0
 10
248.7674533511392
 20
34.10601973761024
 30
0.0
 10
249.394934543346
 20
34.11030969522767
 30
0.0
 10
250.0498595732861
 20
34.18318345983118
 30
0.0
 10
250.6266458819077
 20
34.29771773981581
 30
0.0
 10
250.9876030222814
 20
34.41473200916101
 30
0.0
 10
251.11982623205
 20
34.45759583023833
 30
0.0
  0
LINE
  5
1B5
330
1F
100
AcDbEntity
  8
0
  6
Continuous
 62
     7
370
    15
100
AcDbLine
 10
245.2741126436
 20
35.5373492968
 30
0.0
 11
246.6837069185
 21
34.7236078429
 31
0.0
  0
LINE
  5
1B6
330
1F
100
AcDbEntity
  8
0
  6
Continuous
 62
     7
370
    15
100
AcDbLine
 10
246.1325958872
 20
57.7506810268
 30
0.0
 11
231.8766959345
 21
62.8879422854
 31
0.0
  0
LINE
  5
1B7
330
1F
100
AcDbEntity
  8
0
  6
Continuous
 62
     7
370
    15
100
AcDbLine
 10
227.3757757671
 20
55.0912750895
 30
0.0
 11
241.8076953712
 21
42.9050814827
 31
0.0
  0
LINE
  5
1B8
330
1F
100
AcDbEntity
  8
0
  6
Continuous
 62
     7
370
    15
100
AcDbLine
 10
241.5041497463
 20
37.7137025524
 30
0.0
 11
242.8960663517
 21
36.9101661999
 31
0.0
  0
SPLINE
  5
1B9
330
1F
100
AcDbEntity
  8
0
  6
Continuous
 62
     7
370
    15
100
AcDbSpline
210
0.0
220
0.0
230
1.0
 70
     8
 71
     3
 72
    11
 73
     7
 74
     0
 42
0.000000001
 43
0.00000001
 40
0.0
 40
0.0
 40
0.0
 40
0.0
 40
0.1206489226261361
 40
0.4902543010641514
 40
0.8587458241517503
 40
1.0
 40
1.0
 40
1.0
 40
1.0
 10
239.4194622452154
 20
40.22178072967645
 30
0.0
 10
239.4468844188067
 20
40.15418772183115
 30
0.0
 10
239.5583138311465
 20
39.87952498886411
 30
0.0
 10
239.7940861993751
 20
39.43772682746687
 30
0.0
 10
240.0624347571305
 20
39.01300575327286
 30
0.0
 10
240.2483858658591
 20
38.80343414022827
 30
0.0
 10
240.2999142469055
 20
38.74536034864239
 30
0.0
  0
SPLINE
  5
1BA
330
1F
100
AcDbEntity
  8
0
  6
Continuous
 62
     7
370
    15
100
AcDbSpline
210
0.0
220
0.0
230
1.0
 70
     8
 71
     3
 72
    12
 73
     8
 74
     0
 42
0.000000001
 43
0.00000001
 40
0.0
 40
0.0
 40
0.0
 40
0.0
 40
0.1085981014081887
 40
0.3898699025031653
 40
0.6703001413452225
 40
0.9493631022197213
 40
1.0
 40
1.0
 40
1.0
 40
1.0
 10
261.2758153841637
 20
53.79417143807618
 30
0.0
 10
261.2435626063671
 20
53.87428809930384
 30
0.0
 10
261.1277743267198
 20
54.16190891860624
 30
0.0
 10
260.8899603955228
 20
54.61975880075134
 30
0.0
 10
260.5432134843343
 20
55.14129121085236
 30
0.0
 10
260.2585832926027
 20
55.48189233518311
 30
0.0
 10
260.089181300385
 20
55.64499214556152
 30
0.0
 10
260.0631637236753
 20
55.6700418027249
 30
0.0
  0
SPLINE
  5
1BB
330
1F
100
AcDbEntity
  8
0
  6
Continuous
 62
     7
370
    15
100
AcDbSpline
210
0.0
220
0.0
230
1.0
 70
     8
 71
     3
 72
    25
 73
    21
 74
     0
 42
0.000000001
 43
0.00000001
 40
0.0
 40
0.0
 40
0.0
 40
0.0
 40
0.037150240990965
 40
0.0925891135035229
 40
0.1491830290001336
 40
0.2073143263058482
 40
0.2668201733164141
 40
0.3271914346649963
 40
0.3879070356665111
 40
0.448572831046338
 40
0.5090936051075863
 40
0.5694716790982597
 40
0.6297531997515482
 40
0.6900022719999598
 40
0.7502871760363533
 40
0.810661408297458
 40
0.8712010674923516
 40
0.9319787072603971
 40
0.9897463989178037
 40
1.0
 40
1.0
 40
1.0
 40
1.0
 10
231.8255396731844
 20
62.89688006992677
 30
0.0
 10
231.7447604445746
 20
62.92350117077003
 30
0.0
 10
231.5434353127055
 20
62.98984863075457
 30
0.0
 10
231.1932768258089
 20
63.01487694598808
 30
0.0
 10
230.7861784145744
 20
62.98309005249175
 30
0.0
 10
230.3627489150466
 20
62.87804540830741
 30
0.0
 10
229.9298391806936
 20
62.70339557191416
 30
0.0
 10
229.4947841406105
 20
62.46026931239487
 30
0.0
 10
229.0664719641973
 20
62.15373514952572
 30
0.0
 10
228.6530732666589
 20
61.79028718872034
 30
0.0
 10
228.2616998038624
 20
61.37728774564361
 30
0.0
 10
227.8984123477518
 20
60.92218499422532
 30
0.0
 10
227.5687460195333
 20
60.43270957836859
 30
0.0
 10
227.2778041580983
 20
59.91686808934065
 30
0.0
 10
227.0302653234809
 20
59.38293589427871
 30
0.0
 10
226.8303551481071
 20
58.83932345437215
 30
0.0
 10
226.6816445889915
 20
58.29432272886452
 30
0.0
 10
226.589508430476
 20
57.766093479848
 30
0.0
 10
226.5618951858133
 20
57.39751802343416
 30
0.0
 10
226.5607043112805
 20
57.20858749804221
 30
0.0
 10
226.5605247976031
 20
57.18010791228904
 30
0.0
  0
SPLINE
  5
1BC
330
1F
100
AcDbEntity
  8
0
  6
Continuous
 62
     7
370
    15
100
AcDbSpline
210
0.0
220
0.0
230
1.0
 70
     8
 71
     3
 72
    13
 73
     9
 74
     0
 42
0.000000001
 43
0.00000001
 40
0.0
 40
0.0
 40
0.0
 40
0.0
 40
0.1049210407738919
 40
0.3025199255982369
 40
0.5000225820926473
 40
0.6950324818161032
 40
0.8852445286567592
 40
1.0
 40
1.0
 40
1.0
 40
1.0
 10
226.5605247976031
 20
57.18010791228904
 30
0.0
 10
226.5622366446174
 20
57.09054287164522
 30
0.0
 10
226.567172430877
 20
56.83229906056675
 30
0.0
 10
226.6226136353959
 20
56.42777741073628
 30
0.0
 10
226.7473148208464
 20
55.98516612355407
 30
0.0
 10
226.9371302039647
 20
55.5950229038281
 30
0.0
 10
227.1466002137696
 20
55.29586939008938
 30
0.0
 10
227.3126062930754
 20
55.15674972188268
 30
0.0
 10
227.3750723090959
 20
55.10440072683807
 30
0.0
  0
LWPOLYLINE
  5
1BD
330
1F
100
AcDbEntity
  8
0
  6
Continuous
 62
     7
370
    15
100
AcDbPolyline
 90
       36
 70
   128
 43
0.0
 10
253.8461883209
 20
51.3362839565
 10
253.5302262617
 20
51.5547650099
 10
253.2869187159
 20
51.8023039416
 10
253.1240857882
 20
52.0709446466
 10
253.0469610628
 20
52.3520527918
 10
253.058023392
 20
52.6365933299
 10
253.1569172233
 20
52.915420894
 10
253.3404640277
 20
53.1795737367
 10
253.6027644598
 20
53.4205617683
 10
253.9353879679
 20
53.6306394353
 10
254.3276437588
 20
53.8030546685
 10
254.7669244086
 20
53.9322659005
 10
255.2391110758
 20
54.0141201759
 10
255.7290272924
 20
54.045986631
 10
256.2209267481
 20
54.0268410518
 10
256.6989993896
 20
53.9572987928
 10
257.1478795689
 20
53.8395949996
 10
257.5531399076
 20
53.6775127688
 10
257.9017550052
 20
53.4762615568
 10
258.1825200854
 20
53.242309743
 10
258.3864111275
 20
52.9831767313
 10
258.5068749058
 20
52.7071912698
 10
258.5400396153
 20
52.4232237585
 10
258.4848393149
 20
52.1404011467
 10
258.3430481876
 20
51.8678135859
 10
258.1192235171
 20
51.6142222646
 10
257.8205592123
 20
51.3877778166
 10
257.4566545898
 20
51.1957583526
 10
257.0392058435
 20
51.0443355363
 10
256.5816301196
 20
50.9383762215
 10
256.0986342785
 20
50.8812860279
 10
255.6057422038
 20
50.8748998812
 10
255.1187958523
 20
50.9194230374
 10
254.6534460805
 20
51.0134244857
 10
254.224649613
 20
51.1538829422
 10
253.8461883209
 20
51.3362839565
  0
LWPOLYLINE
  5
1BE
330
1F
100
AcDbEntity
  8
0
  6
Continuous
 62
     7
370
    15
100
AcDbPolyline
 90
        8
 70
   128
 43
0.0
 10
253.6694116256
 20
51.0300977395
 10
253.3414200094
 20
51.2546731316
 10
253.0838906388
 20
51.508017761
 10
252.904232165
 20
51.782843364
 10
252.807613035
 20
52.0712437083
 10
252.7968128055
 20
52.3649220411
 10
252.8721421793
 20
52.6554297714
 10
252.9051014008
 20
52.7283449142
  0
LWPOLYLINE
  5
1BF
330
1F
100
AcDbEntity
  8
0
  6
Continuous
 62
     7
370
    15
100
AcDbPolyline
 90
       20
 70
   128
 43
0.0
 10
257.9123970029
 20
53.4791230572
 10
258.0843107648
 20
53.3710560286
 10
258.3781297444
 20
53.1312320492
 10
258.5975140009
 20
52.8661921236
 10
258.7361522487
 20
52.5835609681
 10
258.7900561177
 20
52.2914693662
 10
258.7576748919
 20
51.9983202616
 10
258.63994012
 20
51.7125470203
 10
258.4402388172
 20
51.4423708182
 10
258.1643160263
 20
51.1955641326
 10
257.8201095437
 20
50.9792271426
 10
257.4175215631
 20
50.7995834695
 10
256.9681338078
 20
50.6618011346
 10
256.4848743453
 20
50.5698438849
 10
255.9816456705
 20
50.5263571631
 10
255.472924756
 20
50.5325920029
 10
254.9733465765
 20
50.5883690393
 10
254.4972830865
 20
50.6920836686
 10
254.0584297659
 20
50.8407522098
 10
253.6694116256
 20
51.0300977395
  0
LWPOLYLINE
  5
1C0
330
1F
100
AcDbEntity
  8
0
  6
Continuous
 62
     7
370
    15
100
AcDbPolyline
 90
       29
 70
   128
 43
0.0
 10
254.5532951021
 20
51.7444880124
 10
254.3089646205
 20
51.9213578448
 10
254.1389361412
 20
52.1251795332
 10
254.0517356019
 20
52.3457326068
 10
254.0517356019
 20
52.5719576136
 10
254.1389361412
 20
52.7925106873
 10
254.3089646205
 20
52.9963323756
 10
254.5532951021
 20
53.1732022081
 10
254.8596758353
 20
53.3142511928
 10
255.2127436108
 20
53.4124065446
 10
255.594794136
 20
53.4627463444
 10
255.9866698024
 20
53.4627463444
 10
256.3687203276
 20
53.4124065446
 10
256.7217881031
 20
53.3142511928
 10
257.0281688363
 20
53.1732022081
 10
257.2724993178
 20
52.9963323756
 10
257.4425277972
 20
52.7925106873
 10
257.5297283365
 20
52.5719576136
 10
257.5297283365
 20
52.3457326068
 10
257.4425277972
 20
52.1251795332
 10
257.2724993178
 20
51.9213578448
 10
257.0281688363
 20
51.7444880124
 10
256.7217881031
 20
51.6034390277
 10
256.3687203276
 20
51.5052836758
 10
255.9866698024
 20
51.454943876
 10
255.594794136
 20
51.454943876
 10
255.2127436108
 20
51.5052836758
 10
254.8596758353
 20
51.6034390277
 10
254.5532951021
 20
51.7444880124
  0
SPLINE
  5
1C1
330
1F
100
AcDbEntity
  8
0
  6
Continuous
 62
     7
370
    15
100
AcDbSpline
210
0.0
220
0.0
230
1.0
 70
     8
 71
     3
 72
    10
 73
     6
 74
     0
 42
0.000000001
 43
0.00000001
 40
0.0
 40
0.0
 40
0.0
 40
0.0
 40
0.1638254015716314
 40
0.5651205726022343
 40
1.0
 40
1.0
 40
1.0
 40
1.0
 10
254.6317361636021
 20
51.71014728790128
 30
0.0
 10
254.6022234490781
 20
51.72901232957391
 30
0.0
 10
254.5004184666342
 20
51.79408784930362
 30
0.0
 10
254.3258059824692
 20
51.95560132228849
 30
0.0
 10
254.1889011251592
 20
52.10677509159968
 30
0.0
 10
254.1176993617155
 20
52.18539786052758
 30
0.0
  0
SPLINE
  5
1C2
330
1F
100
AcDbEntity
  8
0
  6
Continuous
 62
     7
370
    15
100
AcDbSpline
210
0.0
220
0.0
230
1.0
 70
     8
 71
     3
 72
    12
 73
     8
 74
     0
 42
0.000000001
 43
0.00000001
 40
0.0
 40
0.0
 40
0.0
 40
0.0
 40
0.2161857461389842
 40
0.4397628073511841
 40
0.5934185666353797
 40
0.7522096186328714
 40
1.0
 40
1.0
 40
1.0
 40
1.0
 10
257.4637645766667
 20
52.70297986356749
 30
0.0
 10
257.4330702408043
 20
52.59247409585733
 30
0.0
 10
257.3706321404685
 20
52.36768440687629
 30
0.0
 10
257.2788372486289
 20
52.11067417949591
 30
0.0
 10
257.1949121645712
 20
51.93542068327076
 30
0.0
 10
257.108716213701
 20
51.80471448325677
 30
0.0
 10
257.0507837094045
 20
51.76273998550746
 30
0.0
 10
257.0154768405827
 20
51.73715869735337
 30
0.0
  0
SPLINE
  5
1C3
330
1F
100
AcDbEntity
  8
0
  6
Continuous
 62
     7
370
    15
100
AcDbSpline
210
0.0
220
0.0
230
1.0
 70
     8
 71
     3
 72
    11
 73
     7
 74
     0
 42
0.000000001
 43
0.00000001
 40
0.0
 40
0.0
 40
0.0
 40
0.0
 40
0.1843643438496198
 40
0.5174526391740258
 40
0.8663352079125972
 40
1.0
 40
1.0
 40
1.0
 40
1.0
 10
256.2390197052752
 20
53.41001002826164
 30
0.0
 10
256.3100899674283
 20
53.33087611569849
 30
0.0
 10
256.5095618064512
 20
53.10877214999148
 30
0.0
 10
256.8811956164653
 20
52.81464969224201
 30
0.0
 10
257.2272267889876
 20
52.71032390146159
 30
0.0
 10
257.4124563152806
 20
52.70457288521361
 30
0.0
 10
257.4637645766667
 20
52.70297986356749
 30
0.0
  0
SPLINE
  5
1C4
330
1F
100
AcDbEntity
  8
0
  6
Continuous
 62
     7
370
    15
100
AcDbSpline
210
0.0
220
0.0
230
1.0
 70
     8
 71
     3
 72
    12
 73
     8
 74
     0
 42
0.000000001
 43
0.00000001
 40
0.0
 40
0.0
 40
0.0
 40
0.0
 40
0.2161857461389845
 40
0.4397628073511849
 40
0.5934185666353808
 40
0.7522096186328721
 40
0.9999999999999999
 40
0.9999999999999999
 40
0.9999999999999999
 40
0.9999999999999999
 10
254.5659870977995
 20
53.15121902674169
 30
0.0
 10
254.6805399187423
 20
53.12456265787053
 30
0.0
 10
254.9135620815238
 20
53.07033854819667
 30
0.0
 10
255.2561452817444
 20
53.06408945576182
 30
0.0
 10
255.5693579594772
 20
53.11809870942345
 30
0.0
 10
255.8910456275317
 20
53.22285871057574
 30
0.0
 10
256.107252676976
 20
53.33914160859756
 30
0.0
 10
256.2390197052752
 20
53.41001002826164
 30
0.0
  0
SPLINE
  5
1C5
330
1F
100
AcDbEntity
  8
0
  6
Continuous
 62
     7
370
    15
100
AcDbSpline
210
0.0
220
0.0
230
1.0
 70
     8
 71
     3
 72
    12
 73
     8
 74
     0
 42
0.000000001
 43
0.00000001
 40
0.0
 40
0.0
 40
0.0
 40
0.0
 40
0.2161857461389834
 40
0.4397628073511831
 40
0.5934185666353797
 40
0.7522096186328726
 40
1.0
 40
1.0
 40
1.0
 40
1.0
 10
254.1176993617155
 20
52.18539786052758
 30
0.0
 10
254.1483936975778
 20
52.20715196464751
 30
0.0
 10
254.2108317979136
 20
52.25140393810112
 30
0.0
 10
254.3026266897532
 20
52.38993185442941
 30
0.0
 10
254.3865517738109
 20
52.57630601845328
 30
0.0
 10
254.4727477246812
 20
52.817012494234
 30
0.0
 10
254.5306802289777
 20
53.02466534230555
 30
0.0
 10
254.5659870977995
 20
53.15121902674169
 30
0.0
  0
LINE
  5
1C6
330
1F
100
AcDbEntity
  8
0
  6
Continuous
 62
     7
370
    15
100
AcDbLine
 10
254.5659870978
 20
51.7539402834
 30
0.0
 11
254.5659870978
 21
53.1512190267
 31
0.0
  0
LINE
  5
1C7
330
1F
100
AcDbEntity
  8
0
  6
Continuous
 62
     7
370
    15
100
AcDbLine
 10
256.2390197053
 20
51.4823005162
 30
0.0
 11
256.2390197053
 21
53.4100100283
 31
0.0
  0
LWPOLYLINE
  5
1C8
330
1F
100
AcDbEntity
  8
0
  6
Continuous
 62
     7
370
    15
100
AcDbPolyline
 90
       69
 70
   128
 43
0.0
 10
252.9446271749
 20
37.1191843587
 10
252.9756960215
 20
37.9131310978
 10
253.0686374927
 20
38.73617549
 10
253.2226586447
 20
39.5812956107
 10
253.4364454233
 20
40.441281193
 10
253.7081738752
 20
41.3087951432
 10
254.0355257089
 20
42.176436138
 10
254.4157080741
 20
43.0368017704
 10
254.8454773889
 20
43.8825517043
 10
255.3211670129
 20
44.7064702994
 10
255.8387185301
 20
45.5015281727
 10
256.3937163734
 20
46.2609421708
 10
256.9814254969
 20
46.9782332413
 10
257.5968317735
 20
47.6472817095
 10
258.2346847739
 20
48.26237949
 10
258.8895425612
 20
48.8182787852
 10
259.5558181197
 20
49.3102368585
 10
260.2278270211
 20
49.734056497
 10
260.8998359226
 20
50.0861218209
 10
261.566111481
 20
50.3634291332
 10
262.2209692683
 20
50.5636125455
 10
262.8588222688
 20
50.6849641635
 10
263.4742285454
 20
50.7264486581
 10
264.0619376689
 20
50.6877120982
 10
264.6169355121
 20
50.5690849705
 10
265.1344870293
 20
50.3715793596
 10
265.6101766534
 20
50.096880314
 10
266.0399459681
 20
49.747331469
 10
266.4201283333
 20
49.3259150521
 10
266.7474801671
 20
48.8362264396
 10
267.0192086189
 20
48.282443482
 10
267.2329953976
 20
47.6692908604
 10
267.3870165496
 20
47.0019997766
 10
267.4799580208
 20
46.2862633229
 10
267.5110268674
 20
45.5281879105
 10
267.4799580208
 20
44.7342411713
 10
267.3870165496
 20
43.9111967791
 10
267.2329953976
 20
43.0660766584
 10
267.0192086189
 20
42.2060910761
 10
266.7474801671
 20
41.338577126
 10
266.4201283333
 20
40.4709361311
 10
266.0399459681
 20
39.6105704987
 10
265.6101766534
 20
38.7648205648
 10
265.1344870293
 20
37.9409019697
 10
264.6169355121
 20
37.1458440964
 10
264.0619376689
 20
36.3864300983
 10
263.4742285454
 20
35.6691390279
 10
262.8588222688
 20
35.0000905596
 10
262.2209692683
 20
34.3849927792
 10
261.566111481
 20
33.8290934839
 10
260.8998359226
 20
33.3371354106
 10
260.2278270211
 20
32.9133157721
 10
259.5558181197
 20
32.5612504482
 10
258.8895425612
 20
32.2839431359
 10
258.2346847739
 20
32.0837597237
 10
257.5968317735
 20
31.9624081056
 10
256.9814254969
 20
31.920923611
 10
256.3937163734
 20
31.9596601709
 10
255.8387185301
 20
32.0782872987
 10
255.3211670129
 20
32.2757929095
 10
254.8454773889
 20
32.5504919551
 10
254.4157080741
 20
32.9000408001
 10
254.0355257089
 20
33.321457217
 10
253.7081738752
 20
33.8111458295
 10
253.4364454233
 20
34.3649287871
 10
253.2226586447
 20
34.9780814088
 10
253.0686374927
 20
35.6453724925
 10
252.9756960215
 20
36.3611089462
 10
252.9446271749
 20
37.1191843587
  0
LWPOLYLINE
  5
1C9
330
1F
100
AcDbEntity
  8
0
  6
Continuous
 62
     7
370
    15
100
AcDbPolyline
 90
       36
 70
   128
 43
0.0
 10
252.6617844624
 20
37.1191843587
 10
252.6925458372
 20
37.9165887985
 10
252.7845750631
 20
38.7429020213
 10
252.937109557
 20
39.5912769355
 10
253.1488853701
 20
40.4546836395
 10
253.4181476611
 20
41.3259676733
 10
253.7426652381
 20
42.197909303
 10
254.1197490461
 20
43.0632833456
 10
254.54627445
 20
43.9149190394
 10
255.018707126
 20
44.7457594627
 10
255.533132348
 20
45.5489200102
 10
256.0852874267
 20
46.3177454406
 10
256.6705970313
 20
47.0458650242
 10
257.2842111019
 20
47.7272453329
 10
257.9210450392
 20
48.3562402348
 10
258.5758218366
 20
48.9276376801
 10
259.2431158074
 20
49.4367028897
 10
259.9173975435
 20
49.8792175887
 10
260.5930797341
 20
50.2515149612
 10
261.2645634638
 20
50.5505100338
 10
261.9262846069
 20
50.7737252391
 10
262.5727599337
 20
50.9193109457
 10
263.198632546
 20
50.9860607846
 10
263.7987162661
 20
50.9734216456
 10
264.3680386115
 20
50.8814982606
 10
264.9018819979
 20
50.7110523356
 10
265.3958228307
 20
50.4634962394
 10
265.8457681609
 20
50.1408812996
 10
266.2479895995
 20
49.7458808053
 10
266.5991542131
 20
49.281767855
 10
266.8963521412
 20
48.7523882347
 10
267.1371207081
 20
48.1621285508
 10
267.3194648295
 20
47.5158798807
 10
267.4418735448
 20
46.8189972446
 10
267.5033325367
 20
46.0772552314
 10
267.5110268674
 20
45.6914695328
  0
LWPOLYLINE
  5
1CA
330
1F
100
AcDbEntity
  8
0
  6
Continuous
 62
     7
370
    15
100
AcDbPolyline
 90
       19
 70
   128
 43
0.0
 10
260.0876123747
 20
32.8323451529
 10
259.9173975435
 20
32.7363036793
 10
259.2431158074
 20
32.4003092569
 10
258.5758218366
 20
32.1389332471
 10
257.9210450392
 20
31.9543414938
 10
257.2842111019
 20
31.8480635824
 10
256.6705970313
 20
31.8209801652
 10
256.0852874267
 20
31.8733156639
 10
255.533132348
 20
32.00463641
 10
255.018707126
 20
32.2138542386
 10
254.54627445
 20
32.4992355047
 10
254.1197490461
 20
32.8584154494
 10
253.7426652381
 20
33.2884177945
 10
253.4181476611
 20
33.7856794051
 10
253.1488853701
 20
34.3460798149
 10
252.937109557
 20
34.9649753697
 10
252.7845750631
 20
35.6372377059
 10
252.6925458372
 20
36.3572962462
 10
252.6617844624
 20
37.1191843587
  0
LINE
  5
1CB
330
1F
100
AcDbEntity
  8
0
  6
Continuous
 62
     7
370
    15
100
AcDbLine
 10
248.9273751871
 20
35.723385622
 30
0.0
 11
248.9501683652
 21
35.7101126562
 31
0.0
  0
SPLINE
  5
1CC
330
1F
100
AcDbEntity
  8
0
  6
Continuous
 62
     7
370
    15
100
AcDbSpline
210
0.0
220
0.0
230
1.0
 70
     8
 71
     3
 72
    35
 73
    31
 74
     0
 42
0.000000001
 43
0.00000001
 40
0.0
 40
0.0
 40
0.0
 40
0.0
 40
0.1249999999999996
 40
0.1249999999999996
 40
0.1874999999999997
 40
0.1874999999999997
 40
0.2499999999999998
 40
0.2499999999999998
 40
0.3124999999999998
 40
0.3124999999999998
 40
0.3749999999999998
 40
0.3749999999999998
 40
0.4374999999999998
 40
0.4374999999999998
 40
0.4999999999999999
 40
0.5624999999999999
 40
0.5624999999999999
 40
0.6249999999999999
 40
0.6249999999999999
 40
0.6875
 40
0.6875
 40
0.75
 40
0.75
 40
0.8125
 40
0.8125
 40
0.875
 40
0.875
 40
0.9375000000000001
 40
0.9375000000000001
 40
1.0
 40
1.0
 40
1.0
 40
1.0
 10
247.2607441254142
 20
37.74800401473916
 30
0.0
 10
247.4849325677841
 20
37.69460618570557
 30
0.0
 10
247.6741687795178
 20
37.68967784741366
 30
0.0
 10
247.9195357755871
 20
37.75748291578186
 30
0.0
 10
247.9945178645697
 20
37.79308619554123
 30
0.0
 10
248.1285395451328
 20
37.8888341699663
 30
0.0
 10
248.1882722424808
 20
37.94911024136227
 30
0.0
 10
248.2948280845531
 20
38.0958534030617
 30
0.0
 10
248.3419379609578
 20
38.18326754519362
 30
0.0
 10
248.4215684533853
 20
38.38124740313316
 30
0.0
 10
248.454381983175
 20
38.49181060640252
 30
0.0
 10
248.5071539512658
 20
38.73676409195375
 30
0.0
 10
248.527165875936
 20
38.87175389926922
 30
0.0
 10
248.5539425203093
 20
39.16510568890219
 30
0.0
 10
248.5670489762985
 20
39.47575721018396
 30
0.0
 10
248.5542180559147
 20
39.82009704175322
 30
0.0
 10
248.5277445517175
 20
40.18171073139337
 30
0.0
 10
248.5078425380811
 20
40.36813814405364
 30
0.0
 10
248.4551867327363
 20
40.74593510123243
 30
0.0
 10
248.4223731398751
 20
40.93818163676473
 30
0.0
 10
248.3425329680369
 20
41.32895975105842
 30
0.0
 10
248.295706596356
 20
41.52598313914024
 30
0.0
 10
248.1893946390454
 20
41.91368730137726
 30
0.0
 10
248.1296470566779
 20
42.10573383136524
 30
0.0
 10
247.9950823793132
 20
42.48564005537355
 30
0.0
 10
247.9199930489529
 20
42.6737205640983
 30
0.0
 10
247.7572641131542
 20
43.03337499806587
 30
0.0
 10
247.669136986498
 20
43.20649138437152
 30
0.0
 10
247.4772202715612
 20
43.53854039606237
 30
0.0
 10
247.3728428406304
 20
43.69821867289394
 30
0.0
 10
247.2607441254142
 20
43.84765132637536
 30
0.0
  0
SPLINE
  5
1CD
330
1F
100
AcDbEntity
  8
0
  6
Continuous
 62
     7
370
    15
100
AcDbSpline
210
0.0
220
0.0
230
1.0
 70
     8
 71
     3
 72
    35
 73
    31
 74
     0
 42
0.000000001
 43
0.00000001
 40
0.0
 40
0.0
 40
0.0
 40
0.0
 40
0.017396304817866
 40
0.0346506289467242
 40
0.0517855619907007
 40
0.0688241684252955
 40
0.0857899055934966
 40
0.102706533974641
 40
0.1195980212889549
 40
0.136488442285849
 40
0.153401876270499
 40
0.170362304533684
 40
0.1873935098545796
 40
0.2045189801449351
 40
0.2217618181044098
 40
0.239144658477909
 40
0.2566895941689268
 40
0.3419504272880969
 40
0.4244126453200115
 40
0.5071644679070746
 40
0.5685966532828607
 40
0.6299927911358548
 40
0.6914614550802706
 40
0.7523591338682112
 40
0.8133500677053982
 40
0.875433521677586
 40
0.906527612071966
 40
0.9375413996679606
 40
0.9686432228631409
 40
1.0
 40
1.0
 40
1.0
 40
1.0
 10
258.1348213478333
 20
51.10563111588752
 30
0.0
 10
258.1021856570189
 20
51.08693441229549
 30
0.0
 10
258.0371806329823
 20
51.04969359906089
 30
0.0
 10
257.9357885933965
 20
50.99479398226489
 30
0.0
 10
257.8321270402248
 20
50.94099116068359
 30
0.0
 10
257.7259040574716
 20
50.88837936281862
 30
0.0
 10
257.6172151576367
 20
50.83699588178302
 30
0.0
 10
257.5060520432775
 20
50.78689222804543
 30
0.0
 10
257.3924330762315
 20
50.73811520771924
 30
0.0
 10
257.2763685597903
 20
50.69071192999166
 30
0.0
 10
257.1578700233559
 20
50.64472845557479
 30
0.0
 10
257.036947645539
 20
50.60021010928088
 30
0.0
 10
256.9136112952709
 20
50.55720148263611
 30
0.0
 10
256.7878689176399
 20
50.51574603033158
 30
0.0
 10
256.6597319783959
 20
50.47588763659377
 30
0.0
 10
256.5291950899543
 20
50.43766465587049
 30
0.0
 10
256.2258901011446
 20
50.35427942436367
 30
0.0
 10
255.7468484543183
 20
50.24664384244021
 30
0.0
 10
255.0945205566593
 20
50.17382443776422
 30
0.0
 10
254.5203878355792
 20
50.18567787542045
 30
0.0
 10
254.0287778679669
 20
50.26242431846671
 30
0.0
 10
253.6227178062333
 20
50.38879777520133
 30
0.0
 10
253.260271422616
 20
50.56751888105523
 30
0.0
 10
252.9536310334525
 20
50.79823187168199
 30
0.0
 10
252.7079105078957
 20
51.0735106357718
 30
0.0
 10
252.5582418824018
 20
51.33287255316388
 30
0.0
 10
252.4715808563595
 20
51.55271293177858
 30
0.0
 10
252.4244217861124
 20
51.72218190739582
 30
0.0
 10
252.3938775210773
 20
51.89520002909742
 30
0.0
 10
252.3887035571728
 20
52.01196618322088
 30
0.0
 10
252.3861060152459
 20
52.07058757807304
 30
0.0
  0
SPLINE
  5
1CE
330
1F
100
AcDbEntity
  8
0
  6
Continuous
 62
     7
370
    15
100
AcDbSpline
210
0.0
220
0.0
230
1.0
 70
     8
 71
     3
 72
    31
 73
    27
 74
     0
 42
0.000000001
 43
0.00000001
 40
0.0
 40
0.0
 40
0.0
 40
0.0
 40
0.0157152994566294
 40
0.0313499688599996
 40
0.046924595015867
 40
0.0624600034696631
 40
0.0779771777059653
 40
0.0934971752038724
 40
0.1090410420013331
 40
0.1246297274910544
 40
0.1866727316015289
 40
0.2476538222972095
 40
0.3085249540739561
 40
0.3700392873378763
 40
0.4315475643868084
 40
0.4931117648498994
 40
0.6167645711678913
 40
0.7433601757370072
 40
0.776109071791451
 40
0.8083580652948696
 40
0.840257525367157
 40
0.8719627946339514
 40
0.9036320733552228
 40
0.9354240989706262
 40
0.967495786276758
 40
1.0
 40
1.0
 40
1.0
 40
1.0
 10
256.013404622271
 20
54.16456266634184
 30
0.0
 10
256.0541277085964
 20
54.15820638619873
 30
0.0
 10
256.1353649444318
 20
54.14552643790361
 30
0.0
 10
256.256764328451
 20
54.12339462273096
 30
0.0
 10
256.3773664581777
 20
54.09915038787039
 30
0.0
 10
256.4971795213342
 20
54.07263783044436
 30
0.0
 10
256.6162168968297
 20
54.04398901222447
 30
0.0
 10
256.7344885068106
 20
54.01325626508485
 30
0.0
 10
256.8520129027751
 20
53.9805047112545
 30
0.0
 10
257.0845475464976
 20
53.91140687304757
 30
0.0
 10
257.4220758454775
 20
53.79546721416703
 30
0.0
 10
257.8393554240495
 20
53.6196380816156
 30
0.0
 10
258.2145718544489
 20
53.42867763335942
 30
0.0
 10
258.538224306138
 20
53.22742344656762
 30
0.0
 10
258.8059867665116
 20
53.02067889976225
 30
0.0
 10
259.0729035877033
 20
52.74235469997755
 30
0.0
 10
259.2436190826153
 20
52.38908529045615
 30
0.0
 10
259.1709780966132
 20
52.07080288283638
 30
0.0
 10
259.0419043302909
 20
51.85436250676793
 30
0.0
 10
258.9597365216129
 20
51.74461021106892
 30
0.0
 10
258.8616899470691
 20
51.63612167942444
 30
0.0
 10
258.7478098738029
 20
51.52865610452825
 30
0.0
 10
258.6182375994138
 20
51.42199013038449
 30
0.0
 10
258.4727782214571
 20
51.31594773756449
 30
0.0
 10
258.3125858725121
 20
51.2101573368494
 30
0.0
 10
258.1943401907735
 20
51.14062842336378
 30
0.0
 10
258.1348213478333
 20
51.10563111588752
 30
0.0
  0
LINE
  5
1CF
330
1F
100
AcDbEntity
  8
0
  6
Continuous
 62
     7
370
    15
100
AcDbLine
 10
259.4721082359
 20
53.8838658004
 30
0.0
 11
259.4493150579
 21
53.8971387662
 31
0.0
  0
ARC
  5
1D0
330
1F
100
AcDbEntity
  8
0
  6
Continuous
 62
     7
370
    15
100
AcDbCircle
 10
255.625052707
 20
34.7539955325
 30
0.0
 40
1.01866979159938
100
AcDbArc
 50
187.5911665598
 51
255.9544965879
  0
LWPOLYLINE
  5
1D1
330
1F
100
AcDbEntity
  8
0
  6
Continuous
 62
     7
370
    15
100
AcDbPolyline
 90
       18
 70
   128
 43
0.0
 10
265.077824765
 20
39.3654688189
 10
264.6333065893
 20
38.5635786715
 10
264.1430403814
 20
37.79035044
 10
263.612117236
 20
37.0538135956
 10
263.0460504438
 20
36.3616165928
 10
262.4507182393
 20
35.7209474462
 10
261.8323027591
 20
35.1384590871
 10
261.1972258447
 20
34.6202002772
 10
260.5520823557
 20
34.1715527963
 10
259.9035716866
 20
33.7971755558
 10
259.2584281976
 20
33.5009562193
 10
258.6233512832
 20
33.2859708314
 10
258.004935803
 20
33.1544518752
 10
257.4096035984
 20
33.1077650891
 10
256.8435368062
 20
33.1463952852
 10
256.3126136609
 20
33.2699413139
 10
255.8223474529
 20
33.4771202303
 10
255.3778292773
 20
33.7657806166
  0
ARC
  5
1D2
330
1F
100
AcDbEntity
  8
0
  6
Continuous
 62
     7
370
    15
100
AcDbCircle
 10
261.6859088813
 20
41.8916917087
 30
0.0
 40
4.2292901828572
100
AcDbArc
 50
323.3220855209
 51
349.2041011418
  0
LWPOLYLINE
  5
1D3
330
1F
100
AcDbEntity
  8
0
  6
Continuous
 62
     7
370
    15
100
AcDbPolyline
 90
       11
 70
   128
 43
0.0
 10
265.8403434221
 20
48.0279466531
 10
266.1073628586
 20
47.5301527342
 10
266.3177594462
 20
46.9725874608
 10
266.4695069612
 20
46.3606204633
 10
266.5611439998
 20
45.7001452877
 10
266.5917880518
 20
44.9975226378
 10
266.5611439998
 20
44.2595191185
 10
266.4695069612
 20
43.4932420702
 10
266.3177594462
 20
42.7060711211
 10
266.1073628586
 20
41.9055871184
 10
265.8403434221
 20
41.0994991203
  0
ARC
  5
1D4
330
1F
100
AcDbEntity
  8
0
  6
Continuous
 62
     7
370
    15
100
AcDbCircle
 10
264.8306013353
 20
47.8933767366
 30
0.0
 40
1.018669791599458
100
AcDbArc
 50
7.5911665598
 51
75.9544965879
  0
LWPOLYLINE
  5
1D5
330
1F
100
AcDbEntity
  8
0
  6
Continuous
 62
     7
370
    15
100
AcDbPolyline
 90
       18
 70
   128
 43
0.0
 10
255.3778292773
 20
43.2819034502
 10
255.8223474529
 20
44.0837935977
 10
256.3126136609
 20
44.8570218291
 10
256.8435368062
 20
45.5935586736
 10
257.4096035984
 20
46.2857556763
 10
258.004935803
 20
46.9264248229
 10
258.6233512832
 20
47.508913182
 10
259.2584281976
 20
48.0271719919
 10
259.9035716866
 20
48.4758194728
 10
260.5520823557
 20
48.8501967133
 10
261.1972258447
 20
49.1464160498
 10
261.8323027591
 20
49.3614014377
 10
262.4507182393
 20
49.492920394
 10
263.0460504438
 20
49.53960718
 10
263.612117236
 20
49.500976984
 10
264.1430403814
 20
49.3774309552
 10
264.6333065893
 20
49.1702520388
 10
265.077824765
 20
48.8815916526
  0
ARC
  5
1D6
330
1F
100
AcDbEntity
  8
0
  6
Continuous
 62
     7
370
    15
100
AcDbCircle
 10
258.769745161
 20
40.7556805604
 30
0.0
 40
4.229290182855665
100
AcDbArc
 50
143.3220855209
 51
169.2041011418
  0
LWPOLYLINE
  5
1D7
330
1F
100
AcDbEntity
  8
0
  6
Continuous
 62
     7
370
    15
100
AcDbPolyline
 90
       11
 70
   128
 43
0.0
 10
254.6153106202
 20
34.619425616
 10
254.3482911837
 20
35.1172195349
 10
254.1378945961
 20
35.6747848083
 10
253.9861470811
 20
36.2867518059
 10
253.8945100425
 20
36.9472269815
 10
253.8638659905
 20
37.6498496314
 10
253.8945100425
 20
38.3878531506
 10
253.9861470811
 20
39.1541301989
 10
254.1378945961
 20
39.941301148
 10
254.3482911837
 20
40.7417851507
 10
254.6153106202
 20
41.5478731488
  0
SPLINE
  5
1D8
330
1F
100
AcDbEntity
  8
0
  6
Continuous
 62
     7
370
    15
100
AcDbSpline
210
0.0
220
0.0
230
1.0
 70
     8
 71
     3
 72
    12
 73
     8
 74
     0
 42
0.000000001
 43
0.00000001
 40
0.0
 40
0.0
 40
0.0
 40
0.0
 40
0.5000000000000012
 40
0.5000000000000012
 40
0.7500000000000006
 40
0.7500000000000006
 40
1.0
 40
1.0
 40
1.0
 40
1.0
 10
263.9996384914363
 20
48.84253247865546
 30
0.0
 10
264.1989887848239
 20
48.89237104337963
 30
0.0
 10
264.3900958778934
 20
48.92169195605549
 30
0.0
 10
264.6644532750305
 20
48.93237890596549
 30
0.0
 10
264.7533240461369
 20
48.93021420359698
 30
0.0
 10
264.9216561230208
 20
48.91446792560593
 30
0.0
 10
265.0017726178982
 20
48.90092617351579
 30
0.0
 10
265.0778247649866
 20
48.88159165257511
 30
0.0
  0
LWPOLYLINE
  5
1D9
330
1F
100
AcDbEntity
  8
0
  6
Continuous
 62
     7
370
    15
100
AcDbPolyline
 90
       15
 70
   128
 43
0.0
 10
256.0671068212
 20
44.2631794197
 10
256.5499878972
 20
44.9909698276
 10
257.0707281504
 20
45.6801224081
 10
257.6236679139
 20
46.3231471045
 10
258.2027975603
 20
46.913055201
 10
258.8018228173
 20
47.4434352798
 10
259.4142331772
 20
47.9085229035
 10
260.0333726563
 20
48.3032632659
 10
260.6525121354
 20
48.6233661302
 10
261.2649224954
 20
48.8653524576
 10
261.8639477523
 20
49.026592219
 10
262.4430773987
 20
49.1053329796
 10
262.9960171622
 20
49.1007189452
 10
263.5167574154
 20
49.0128002634
 10
263.9996384914
 20
48.8425324787
  0
SPLINE
  5
1DA
330
1F
100
AcDbEntity
  8
0
  6
Continuous
 62
     7
370
    15
100
AcDbSpline
210
0.0
220
0.0
230
1.0
 70
     8
 71
     3
 72
    12
 73
     8
 74
     0
 42
0.000000001
 43
0.00000001
 40
0.0
 40
0.0
 40
0.0
 40
0.0
 40
0.5000000000000012
 40
0.5000000000000012
 40
0.7500000000000006
 40
0.7500000000000006
 40
1.0
 40
1.0
 40
1.0
 40
1.0
 10
255.3778292772867
 20
43.2819034502408
 30
0.0
 10
255.4912159552981
 20
43.47510302798615
 30
0.0
 10
255.6063245190466
 20
43.65349664530491
 30
0.0
 10
255.7805338514524
 20
43.90068100705479
 30
0.0
 10
255.8391676854798
 20
43.97999949231582
 30
0.0
 10
255.9544261656518
 20
44.12861287952588
 30
0.0
 10
256.011228670096
 20
44.19820006344039
 30
0.0
 10
256.0671068211845
 20
44.26317941968967
 30
0.0
  0
SPLINE
  5
1DB
330
1F
100
AcDbEntity
  8
0
  6
Continuous
 62
     7
370
    15
100
AcDbSpline
210
0.0
220
0.0
230
1.0
 70
     8
 71
     3
 72
    20
 73
    16
 74
     0
 42
0.000000001
 43
0.00000001
 40
0.0
 40
0.0
 40
0.0
 40
0.0
 40
0.1249999999999998
 40
0.1249999999999998
 40
0.2499999999999997
 40
0.2499999999999997
 40
0.3749999999999996
 40
0.3749999999999996
 40
0.4999999999999996
 40
0.4999999999999996
 40
0.6249999999999994
 40
0.6249999999999994
 40
0.7499999999999994
 40
0.7499999999999994
 40
1.0
 40
1.0
 40
1.0
 40
1.0
 10
247.2607441254142
 20
43.84765132637536
 30
0.0
 10
247.2043392009653
 20
43.92284163978425
 30
0.0
 10
247.1396543843218
 20
43.99122111191231
 30
0.0
 10
246.9916438885641
 20
44.1131646399752
 30
0.0
 10
246.907827453091
 20
44.1665006096949
 30
0.0
 10
246.7300334212196
 20
44.25174758347129
 30
0.0
 10
246.633601722575
 20
44.28493364927411
 30
0.0
 10
246.4360884837243
 20
44.33079185559976
 30
0.0
 10
246.3354930702285
 20
44.34376084662743
 30
0.0
 10
246.1310994753353
 20
44.35276464863126
 30
0.0
 10
246.0306633148095
 20
44.34867727159863
 30
0.0
 10
245.8330902455116
 20
44.32681914844963
 30
0.0
 10
245.735663866694
 20
44.30881707316757
 30
0.0
 10
245.4586385177602
 20
44.23902802875537
 30
0.0
 10
245.2881657857299
 20
44.17027136950556
 30
0.0
 10
245.1453535296079
 20
44.08782760891113
 30
0.0
  0
SPLINE
  5
1DC
330
1F
100
AcDbEntity
  8
0
  6
Continuous
 62
     7
370
    15
100
AcDbSpline
210
0.0
220
0.0
230
1.0
 70
     8
 71
     3
 72
    18
 73
    14
 74
     0
 42
0.000000001
 43
0.00000001
 40
0.0
 40
0.0
 40
0.0
 40
0.0
 40
0.1249999999999997
 40
0.1249999999999997
 40
0.2499999999999994
 40
0.2499999999999994
 40
0.4999999999999989
 40
0.4999999999999989
 40
0.7499999999999983
 40
0.7499999999999983
 40
0.8749999999999991
 40
0.8749999999999991
 40
1.0
 40
1.0
 40
1.0
 40
1.0
 10
259.0899864908394
 20
54.20698794789584
 30
0.0
 10
259.0307913780292
 20
54.27575795000286
 30
0.0
 10
258.9758881885119
 20
54.34891854823432
 30
0.0
 10
258.8730574271072
 20
54.50237573423851
 30
0.0
 10
258.8249380253571
 20
54.58312007961523
 30
0.0
 10
258.6921883634452
 20
54.8309597913592
 30
0.0
 10
258.6215353467848
 20
54.99760862392488
 30
0.0
 10
258.5064261355764
 20
55.33433325517509
 30
0.0
 10
258.462579367134
 20
55.50479018471751
 30
0.0
 10
258.4189411129984
 20
55.75054819365662
 30
0.0
 10
258.4079347268515
 20
55.83133524522354
 30
0.0
 10
258.3931082288959
 20
55.99061059080345
 30
0.0
 10
258.3893493900516
 20
56.06903648895928
 30
0.0
 10
258.3893493900516
 20
56.14442244455215
 30
0.0
  0
SPLINE
  5
1DD
330
1F
100
AcDbEntity
  8
0
  6
Continuous
 62
     7
370
    15
100
AcDbSpline
210
0.0
220
0.0
230
1.0
 70
     8
 71
     3
 72
    18
 73
    14
 74
     0
 42
0.000000001
 43
0.00000001
 40
0.0
 40
0.0
 40
0.0
 40
0.0
 40
0.2500000000000022
 40
0.2500000000000022
 40
0.3750000000000025
 40
0.3750000000000025
 40
0.5000000000000028
 40
0.5000000000000028
 40
0.7500000000000022
 40
0.7500000000000022
 40
0.8750000000000011
 40
0.8750000000000011
 40
1.0
 40
1.0
 40
1.0
 40
1.0
 10
259.8050163954088
 20
55.32690960506628
 30
0.0
 10
259.6688949425372
 20
55.24832836297229
 30
0.0
 10
259.5473059643688
 20
55.15898151321895
 30
0.0
 10
259.3958764622504
 20
55.01796512593822
 30
0.0
 10
259.3501846318147
 20
54.96961054922923
 30
0.0
 10
259.2684033065523
 20
54.87073578768521
 30
0.0
 10
259.232134912445
 20
54.81988484058055
 30
0.0
 10
259.1399663313215
 20
54.66787987801078
 30
0.0
 10
259.1003007261434
 20
54.56743442836712
 30
0.0
 10
259.0723284209703
 20
54.42370261338286
 30
0.0
 10
259.0683324339971
 20
54.37673814358384
 30
0.0
 10
259.0711835597036
 20
54.28789416974294
 30
0.0
 10
259.0779495823728
 20
54.24593022512079
 30
0.0
 10
259.0899864908391
 20
54.20698794789568
 30
0.0
  0
SPLINE
  5
1DE
330
1F
100
AcDbEntity
  8
0
  6
Continuous
 62
     7
370
    15
100
AcDbSpline
210
0.0
220
0.0
230
1.0
 70
     8
 71
     3
 72
     9
 73
     5
 74
     0
 42
0.000000001
 43
0.00000001
 40
0.0
 40
0.0
 40
0.0
 40
0.0
 40
0.4017285397538773
 40
1.0
 40
1.0
 40
1.0
 40
1.0
 10
260.8453168673713
 20
53.09124407552558
 30
0.0
 10
260.8770062232241
 20
53.12443263781234
 30
0.0
 10
260.9558887339668
 20
53.2070470378425
 30
0.0
 10
261.0665838319582
 20
53.27596053709259
 30
0.0
 10
261.1328095498755
 20
53.31718951691963
 30
0.0
  0
SPLINE
  5
1DF
330
1F
100
AcDbEntity
  8
0
  6
Continuous
 62
     7
370
    15
100
AcDbSpline
210
0.0
220
0.0
230
1.0
 70
     8
 71
     3
 72
    24
 73
    20
 74
     0
 42
0.000000001
 43
0.00000001
 40
0.0
 40
0.0
 40
0.0
 40
0.0
 40
0.045160150425634
 40
0.090599368293215
 40
0.1363515608967232
 40
0.1824498943961531
 40
0.2289268686343499
 40
0.2758144018477884
 40
0.3231439244997889
 40
0.3709464813666188
 40
0.4192528409051543
 40
0.4680936108248073
 40
0.5174993586759136
 40
0.6041982524935692
 40
0.688058013876922
 40
0.7693069222464987
 40
0.8481959872114033
 40
0.9249970566042943
 40
1.0
 40
1.0
 40
1.0
 40
1.0
 10
253.6442260433608
 20
53.87942179879401
 30
0.0
 10
253.6741053121225
 20
53.89620669022088
 30
0.0
 10
253.7340484887806
 20
53.92988019541985
 30
0.0
 10
253.827132377558
 20
53.97509614723631
 30
0.0
 10
253.9227821933084
 20
54.0165804649198
 30
0.0
 10
254.0211820024207
 20
54.05392527856631
 30
0.0
 10
254.1222501768131
 20
54.08724093513904
 30
0.0
 10
254.2259936358109
 20
54.11652308691379
 30
0.0
 10
254.332412223366
 20
54.14182630692095
 30
0.0
 10
254.4415244026385
 20
54.16322035341688
 30
0.0
 10
254.5533610096659
 20
54.1808023047071
 30
0.0
 10
254.6679627155975
 20
54.19470653356355
 30
0.0
 10
254.8144630485881
 20
54.20763168165855
 30
0.0
 10
254.9916009521836
 20
54.21622808115744
 30
0.0
 10
255.1987656531097
 20
54.21706467391525
 30
0.0
 10
255.4039124096508
 20
54.21028033987358
 30
0.0
 10
255.6075544423105
 20
54.19784578494217
 30
0.0
 10
255.809759032716
 20
54.18178744591484
 30
0.0
 10
255.9460425740028
 20
54.17026145496742
 30
0.0
 10
256.0133772020217
 20
54.16456672245853
 30
0.0
  0
SPLINE
  5
1E0
330
1F
100
AcDbEntity
  8
0
  6
Continuous
 62
     7
370
    15
100
AcDbSpline
210
0.0
220
0.0
230
1.0
 70
     8
 71
     3
 72
    23
 73
    19
 74
     0
 42
0.000000001
 43
0.00000001
 40
0.0
 40
0.0
 40
0.0
 40
0.0
 40
0.0448006192296653
 40
0.0902070872246016
 40
0.1362840985598853
 40
0.183094369868986
 40
0.2306983498455039
 40
0.2791539716574343
 40
0.3285164493059007
 40
0.3788381177177104
 40
0.4301683149346226
 40
0.4825533036790665
 40
0.5726778714696625
 40
0.6609932074822517
 40
0.7476885416387894
 40
0.8329557779174328
 40
0.9169917191795754
 40
0.9999999999999999
 40
0.9999999999999999
 40
0.9999999999999999
 40
0.9999999999999999
 10
252.3861060152459
 20
52.07058757807304
 30
0.0
 10
252.3923347999599
 20
52.10082741483098
 30
0.0
 10
252.4048766026329
 20
52.16171602840343
 30
0.0
 10
252.4290078433678
 20
52.25557416500942
 30
0.0
 10
252.4574438685181
 20
52.35152866471648
 30
0.0
 10
252.4907449111186
 20
52.449414540337
 30
0.0
 10
252.5289690730015
 20
52.54885166440109
 30
0.0
 10
252.5722743786748
 20
52.649531054663
 30
0.0
 10
252.6207567398844
 20
52.75113524178435
 30
0.0
 10
252.6744925956536
 20
52.85336068212204
 30
0.0
 10
252.733544683405
 20
52.95590527696854
 30
0.0
 10
252.8129052784287
 20
53.08240359579645
 30
0.0
 10
252.9153911972854
 20
53.22830308228937
 30
0.0
 10
253.0448291731867
 20
53.38689320675545
 30
0.0
 10
253.1828421682155
 20
53.53224381686378
 30
0.0
 10
253.3289901740662
 20
53.66322001582233
 30
0.0
 10
253.4818843848189
 20
53.78061166486572
 30
0.0
 10
253.5903345532751
 20
53.84662045007803
 30
0.0
 10
253.6442260433608
 20
53.87942179879401
 30
0.0
  0
SPLINE
  5
1E1
330
1F
100
AcDbEntity
  8
0
  6
Continuous
 62
     7
370
    15
100
AcDbSpline
210
0.0
220
0.0
230
1.0
 70
     8
 71
     3
 72
    12
 73
     8
 74
     0
 42
0.000000001
 43
0.00000001
 40
0.0
 40
0.0
 40
0.0
 40
0.0
 40
0.25
 40
0.25
 40
0.5
 40
0.5
 40
1.0
 40
1.0
 40
1.0
 40
1.0
 10
244.686420748876
 20
44.44431480994105
 30
0.0
 10
244.7200839947658
 20
44.42488143173993
 30
0.0
 10
244.7575367725487
 20
44.39735452144404
 30
0.0
 10
244.8291787807245
 20
44.33643533828094
 30
0.0
 10
244.862905939735
 20
44.30364614670343
 30
0.0
 10
244.9532766912483
 20
44.2066643551383
 30
0.0
 10
244.9979758041209
 20
44.14588924462601
 30
0.0
 10
245.0274492967004
 20
44.09372543110844
 30
0.0
  0
SPLINE
  5
1E2
330
1F
100
AcDbEntity
  8
0
  6
Continuous
 62
     7
370
    15
100
AcDbSpline
210
0.0
220
0.0
230
1.0
 70
     8
 71
     3
 72
    14
 73
    10
 74
     0
 42
0.000000001
 43
0.00000001
 40
0.0
 40
0.0
 40
0.0
 40
0.0
 40
0.25
 40
0.25
 40
0.5
 40
0.5
 40
0.75
 40
0.75
 40
1.0
 40
1.0
 40
1.0
 40
1.0
 10
258.3893493900516
 20
56.338388849838
 30
0.0
 10
258.3893493900516
 20
56.37468707886765
 30
0.0
 10
258.3849924837938
 20
56.4132784335183
 30
0.0
 10
258.3673345724335
 20
56.49261230986936
 30
0.0
 10
258.3538180312066
 20
56.53391996997701
 30
0.0
 10
258.3174569347728
 20
56.61381597522815
 30
0.0
 10
258.2944421954986
 20
56.65283400893431
 30
0.0
 10
258.2396103047566
 20
56.72133454827729
 30
0.0
 10
258.208572063691
 20
56.7494980461372
 30
0.0
 10
258.1772173556957
 20
56.76759873377893
 30
0.0
  0
LINE
  5
1E3
330
1F
100
AcDbEntity
  8
0
  6
Continuous
 62
     7
370
    15
100
AcDbLine
 10
243.276826474
 20
45.2580562639
 30
0.0
 11
244.6864207489
 21
44.4443148099
 31
0.0
  0
LWPOLYLINE
  5
1E4
330
1F
100
AcDbEntity
  8
0
  6
Continuous
 62
     7
370
    15
100
AcDbPolyline
 90
       23
 70
   128
 43
0.0
 10
243.276826474
 20
45.2580562639
 10
243.5706456981
 20
46.2098550404
 10
243.9200259496
 20
47.1626485923
 10
244.3225244657
 20
48.1097752707
 10
244.7753270966
 20
49.0446130479
 10
245.275267981
 20
49.9606258163
 10
245.8188516813
 20
50.8514090875
 10
246.402277622
 20
51.71073477
 10
247.0214666625
 20
52.5325947144
 10
247.6720896174
 20
53.3112427207
 10
248.3495975248
 20
54.0412347137
 10
249.049253451
 20
54.7174668069
 10
249.7661656102
 20
55.3352109867
 10
250.4953215658
 20
55.8901481698
 10
251.2316232765
 20
56.3783984005
 10
251.96992274
 20
56.7965479786
 10
252.7050579862
 20
57.1416733267
 10
253.4318891683
 20
57.4113614311
 10
254.1453344991
 20
57.6037267129
 10
254.8404057812
 20
57.7174242113
 10
255.5122432831
 20
57.7516589873
 10
256.156149717
 20
57.7061916815
 10
256.7676230808
 20
57.5813401877
  0
LINE
  5
1E5
330
1F
100
AcDbEntity
  8
0
  6
Continuous
 62
     7
370
    15
100
AcDbLine
 10
258.1772173557
 20
56.7675987338
 30
0.0
 11
256.7676230808
 21
57.5813401877
 31
0.0
  0
LINE
  5
1E6
330
1F
100
AcDbEntity
  8
0
  6
Continuous
 62
     7
370
    15
100
AcDbLine
 10
255.0482698489
 20
34.7813834457
 30
0.0
 11
256.0270272147
 21
35.3464080461
 31
0.0
  0
LWPOLYLINE
  5
1E7
330
1F
100
AcDbEntity
  8
0
  6
Continuous
 62
     7
370
    15
100
AcDbPolyline
 90
        3
 70
   128
 43
0.0
 10
254.6213075334
 20
34.5929479122
 10
254.6909616854
 20
34.6155947932
 10
255.0482698489
 20
34.7813834457
  0
ARC
  5
1E8
330
1F
100
AcDbEntity
  8
0
  6
Continuous
 62
     7
370
    15
100
AcDbCircle
 10
261.9924262775
 20
48.3182076048
 30
0.0
 40
2.532049637145813
100
AcDbArc
 50
341.1598352591
 51
13.9242980433
  0
ARC
  5
1E9
330
1F
100
AcDbEntity
  8
0
  6
Continuous
 62
     7
370
    15
100
AcDbCircle
 10
257.0250964731
 20
45.2973598966
 30
0.0
 40
7.686244433719089
100
AcDbArc
 50
343.3431752853
 51
16.6568247147
  0
ARC
  5
1EA
330
1F
100
AcDbEntity
  8
0
  6
Continuous
 62
     7
370
    15
100
AcDbCircle
 10
260.8996099657
 20
42.2930092381
 30
0.0
 40
3.580006350664659
100
AcDbArc
 50
299.9152107505
 51
12.9318370526
  0
LINE
  5
1EB
330
1F
100
AcDbEntity
  8
0
  6
Continuous
 62
     7
370
    15
100
AcDbLine
 10
261.70626572
 20
38.6249626492
 30
0.0
 11
262.6850230858
 21
39.1899872495
 31
0.0
  0
LWPOLYLINE
  5
1EC
330
1F
100
AcDbEntity
  8
0
  6
Continuous
 62
     7
370
    15
100
AcDbPolyline
 90
       11
 70
   128
 43
0.0
 10
261.70626572
 20
38.6249626492
 10
261.1837681989
 20
37.983960694
 10
260.6312643776
 20
37.3963834412
 10
260.0559090789
 20
36.8698399083
 10
259.4651530482
 20
36.411148737
 10
258.8666464674
 20
36.0262498936
 10
258.2681398865
 20
35.7201277475
 10
257.6773838558
 20
35.4967465241
 10
257.1020285571
 20
35.358998969
 10
256.5495247358
 20
35.3086688879
 10
256.0270272147
 20
35.3464080461
  0
LWPOLYLINE
  5
1ED
330
1F
100
AcDbEntity
  8
0
  6
Continuous
 62
     7
370
    15
100
AcDbPolyline
 90
        3
 70
   128
 43
0.0
 10
254.419881635
 20
39.5424162459
 10
254.4510930504
 20
40.1677622025
 10
254.4577279903
 20
40.2327868818
  0
ARC
  5
1EE
330
1F
100
AcDbEntity
  8
0
  6
Continuous
 62
     7
370
    15
100
AcDbCircle
 10
263.8653787629
 20
39.0429456715
 30
0.0
 40
9.48666953021713
100
AcDbArc
 50
152.9653610288
 51
171.1691945015
  0
LWPOLYLINE
  5
1EF
330
1F
100
AcDbEntity
  8
0
  6
Continuous
 62
     7
370
    15
100
AcDbPolyline
 90
       39
 70
   128
 43
0.0
 10
260.6758400215
 20
47.8446502068
 10
260.7790452845
 20
47.8493139347
 10
261.2404334912
 20
47.8219385918
 10
261.6684989315
 20
47.7143728373
 10
262.0572325049
 20
47.5281266586
 10
262.4011772443
 20
47.2658145438
 10
262.6955049193
 20
46.93111878
 10
262.9360838146
 20
46.528737762
 10
263.1195367299
 20
46.0643200374
 10
263.2432883883
 20
45.5443850128
 10
263.3056015879
 20
44.9762314365
 10
263.3056015879
 20
44.3678349391
 10
263.2432883883
 20
43.7277360739
 10
263.1195367299
 20
43.0649204258
 10
262.9360838146
 20
42.3886924737
 10
262.6955049193
 20
41.7085449756
 10
262.4011772443
 20
41.0340257115
 10
262.0572325049
 20
40.3746034534
 10
261.6684989315
 20
39.7395350443
 10
261.2404334912
 20
39.1377354525
 10
260.7790452845
 20
38.5776526252
 10
260.2908111904
 20
38.0671488974
 10
259.7825849454
 20
37.6133906227
 10
259.2615009319
 20
37.2227475723
 10
258.7348740273
 20
36.9007035186
 10
258.2100969189
 20
36.651779254
 10
257.694536327
 20
36.4794691297
 10
257.1954295922
 20
36.3861920019
 10
256.7197830789
 20
36.3732572772
 10
256.2742738216
 20
36.4408465308
 10
255.8651557938
 20
36.5880109576
 10
255.4981721156
 20
36.8126846917
 10
255.1784744335
 20
37.1117138063
 10
254.9105506023
 20
37.4809005882
 10
254.6981616851
 20
37.9150624643
 10
254.5442891568
 20
38.4081047534
 10
254.4510930504
 20
38.9531062226
 10
254.419881635
 20
39.5424162459
 10
254.419881635
 20
39.5424162459
  0
ARC
  5
1F0
330
1F
100
AcDbEntity
  8
0
  6
Continuous
 62
     7
370
    15
100
AcDbCircle
 10
265.0052361105
 20
46.7693568485
 30
0.0
 40
2.304188309331903
100
AcDbArc
 50
115.8757889868
 51
120.039995697
  0
LINE
  5
1F1
330
1F
100
AcDbEntity
  8
0
  6
Continuous
 62
     7
370
    15
100
AcDbLine
 10
262.872991909
 20
48.1990131461
 30
0.0
 11
263.8517492747
 21
48.7640377464
 31
0.0
  0
LWPOLYLINE
  5
1F2
330
1F
100
AcDbEntity
  8
0
  6
Continuous
 62
     7
370
    15
100
AcDbPolyline
 90
       11
 70
   128
 43
0.0
 10
257.1937534037
 20
44.920458543
 10
257.7162509248
 20
45.5614604982
 10
258.2687547461
 20
46.1490377509
 10
258.8441100448
 20
46.6755812839
 10
259.4348660755
 20
47.1342724552
 10
260.0333726563
 20
47.5191712985
 10
260.6318792372
 20
47.8252934446
 10
261.2226352679
 20
48.0486746681
 10
261.7979905665
 20
48.1864222231
 10
262.3504943878
 20
48.2367523042
 10
262.872991909
 20
48.1990131461
  0
LINE
  5
1F3
330
1F
100
AcDbEntity
  8
0
  6
Continuous
 62
     7
370
    15
100
AcDbLine
 10
256.2149960379
 20
44.3554339426
 30
0.0
 11
257.1937534037
 21
44.920458543
 31
0.0
  0
ARC
  5
1F4
330
1F
100
AcDbEntity
  8
0
  6
Continuous
 62
     7
370
    15
100
AcDbCircle
 10
257.5162468883
 20
42.1047906009
 30
0.0
 40
2.599740223030266
100
AcDbArc
 50
120.0351439475
 51
123.8773714499
  0
LINE
  5
1F5
330
1F
100
AcDbEntity
  8
0
  6
Continuous
 62
     7
370
    15
100
AcDbLine
 10
245.0589610071
 20
44.0379542672
 30
0.0
 11
245.1453535296
 21
44.0878276089
 31
0.0
  0
LINE
  5
1F6
330
1F
100
AcDbEntity
  8
0
  6
Continuous
 62
     7
370
    15
100
AcDbLine
 10
245.0274492967
 20
44.0937254311
 30
0.0
 11
245.0589610071
 21
44.0379542672
 31
0.0
  0
LINE
  5
1F7
330
1F
100
AcDbEntity
  8
0
  6
Continuous
 62
     7
370
    15
100
AcDbLine
 10
258.3893493901
 20
56.1444224446
 30
0.0
 11
258.3893493901
 21
56.3383888498
 31
0.0
  0
SPLINE
  5
1F8
330
1F
100
AcDbEntity
  8
0
  6
Continuous
 62
     7
370
    15
100
AcDbSpline
210
0.0
220
0.0
230
1.0
 70
     8
 71
     3
 72
    12
 73
     8
 74
     0
 42
0.000000001
 43
0.00000001
 40
0.0
 40
0.0
 40
0.0
 40
0.0
 40
0.4999999999999996
 40
0.4999999999999996
 40
0.7499999999999998
 40
0.7499999999999998
 40
1.0
 40
1.0
 40
1.0
 40
1.0
 10
254.6153106201616
 20
34.61942561599173
 30
0.0
 10
254.559981650041
 20
34.79247794534286
 30
0.0
 10
254.5198465983563
 20
34.98150038562259
 30
0.0
 10
254.4801536289594
 20
35.28764234222429
 30
0.0
 10
254.4703739532567
 20
35.39410191709638
 30
0.0
 10
254.4580000945304
 20
35.61051290042827
 30
0.0
 10
254.455328131039
 20
35.72073902360874
 30
0.0
 10
254.4560197259547
 20
35.83297535509581
 30
0.0
  0
ARC
  5
1F9
330
1F
100
AcDbEntity
  8
0
  6
Continuous
 62
     7
370
    15
100
AcDbCircle
 10
261.8933293311
 20
38.2162049373
 30
0.0
 40
7.809824415697936
100
AcDbArc
 50
162.2323364785
 51
197.7676635215
  0
SPLINE
  5
1FA
330
1F
100
AcDbEntity
  8
0
  6
Continuous
 62
     7
370
    15
100
AcDbSpline
210
0.0
220
0.0
230
1.0
 70
     8
 71
     3
 72
    12
 73
     8
 74
     0
 42
0.000000001
 43
0.00000001
 40
0.0
 40
0.0
 40
0.0
 40
0.0
 40
0.2499999999999994
 40
0.2499999999999994
 40
0.4999999999999989
 40
0.4999999999999989
 40
1.0
 40
1.0
 40
1.0
 40
1.0
 10
254.4560197259547
 20
40.5994345194658
 30
0.0
 10
254.4553335038015
 20
40.65948378794615
 30
0.0
 10
254.457957748251
 20
40.72467832417159
 30
0.0
 10
254.470179092173
 20
40.86546415734235
 30
0.0
 10
254.4798486431233
 20
40.94149209005702
 30
0.0
 10
254.5198455042391
 20
41.1831031717089
 30
0.0
 10
254.5602741493876
 20
41.35840637965595
 30
0.0
 10
254.6153106201616
 20
41.54787314881292
 30
0.0
  0
LINE
  5
1FB
330
1F
100
AcDbEntity
  8
0
  6
Continuous
 62
     7
370
    15
100
AcDbLine
 10
252.3861060152
 20
52.0705875781
 30
0.0
 11
252.7945598146
 21
51.8489334669
 31
0.0
  0
ARC
  5
1FC
330
1F
100
AcDbEntity
  8
0
  6
Continuous
 62
     7
370
    15
100
AcDbCircle
 10
258.0560043923
 20
35.0086599343
 30
0.0
 40
3.693153870482266
100
AcDbArc
 50
163.7051539947
 51
167.1028904291
  0
ARC
  5
1FD
330
1F
100
AcDbEntity
  8
0
  6
Continuous
 62
     7
370
    15
100
AcDbCircle
 10
261.8749226505
 20
38.2480612955
 30
0.0
 40
7.686244433718628
100
AcDbArc
 50
163.3431752853
 51
196.6568247147
  0
ARC
  5
1FE
330
1F
100
AcDbEntity
  8
0
  6
Continuous
 62
     7
370
    15
100
AcDbCircle
 10
255.7857834179
 20
41.0102093794
 30
0.0
 40
1.391764154519209
100
AcDbArc
 50
197.1663456622
 51
203.6800706087
  0
LWPOLYLINE
  5
1FF
330
1F
100
AcDbEntity
  8
0
  6
Continuous
 62
     7
370
    15
100
AcDbPolyline
 90
       33
 70
   128
 43
0.0
 10
260.5481622362
 20
47.7872376707
 10
260.9231876842
 20
47.7368984561
 10
261.3264842472
 20
47.6048545662
 10
261.6887552317
 20
47.3956519924
 10
262.004717911
 20
47.1123413792
 10
262.2697648379
 20
46.7590540334
 10
262.4800310311
 20
46.34094168
 10
262.6324503362
 20
45.8641013386
 10
262.7248001365
 20
45.3354864152
 10
262.7557337639
 20
44.7628053056
 10
262.7248001365
 20
44.1544089901
 10
262.6324503362
 20
43.5191692568
 10
262.4800310311
 20
42.8663493316
 10
262.2697648379
 20
42.2054687989
 10
262.004717911
 20
41.5461647852
 10
261.6887552317
 20
40.8980514275
 10
261.3264842472
 20
40.270579678
 10
260.9231876842
 20
39.6728994878
 10
260.4847465147
 20
39.1137263799
 10
260.0175541984
 20
38.6012143574
 10
259.5284234511
 20
38.1428369996
 10
259.0244869007
 20
37.7452784806
 10
258.5130930768
 20
37.4143360988
 10
258.0016992528
 20
37.1548357394
 10
257.4977627024
 20
36.9705615019
 10
257.0086319551
 20
36.8642005198
 10
256.5414396388
 20
36.8373037755
 10
256.1029984694
 20
36.8902634842
 10
255.6997019064
 20
37.0223073741
 10
255.3374309218
 20
37.2315099479
 10
255.0214682425
 20
37.5148205611
 10
254.7564213157
 20
37.8681079069
 10
254.6358836806
 20
38.0861554076
  0
SPLINE
  5
200
330
1F
100
AcDbEntity
  8
0
  6
Continuous
 62
     7
370
    15
100
AcDbSpline
210
0.0
220
0.0
230
1.0
 70
     8
 71
     3
 72
    22
 73
    18
 74
     0
 42
0.000000001
 43
0.00000001
 40
0.0
 40
0.0
 40
0.0
 40
0.0
 40
0.125
 40
0.125
 40
0.2500000000000001
 40
0.2500000000000001
 40
0.3750000000000001
 40
0.3750000000000001
 40
0.5000000000000001
 40
0.5000000000000001
 40
0.6250000000000001
 40
0.6250000000000001
 40
0.7500000000000002
 40
0.7500000000000002
 40
0.8750000000000001
 40
0.8750000000000001
 40
1.0
 40
1.0
 40
1.0
 40
1.0
 10
245.1453535296011
 20
37.51467407322691
 30
0.0
 10
245.2170049713031
 20
37.55603757007514
 30
0.0
 10
245.2945599108828
 20
37.59341483300221
 30
0.0
 10
245.4615579233825
 20
37.66044185863905
 30
0.0
 10
245.5511937133381
 20
37.69000369250404
 30
0.0
 10
245.7354140331481
 20
37.73956168923897
 30
0.0
 10
245.8308412125901
 20
37.75994054072822
 30
0.0
 10
246.0288834923651
 20
37.79251002794453
 30
0.0
 10
246.1306747786487
 20
37.80445808568269
 30
0.0
 10
246.3325663217177
 20
37.81987228974617
 30
0.0
 10
246.4351425715394
 20
37.82348766253439
 30
0.0
 10
246.6325260251534
 20
37.82318493157334
 30
0.0
 10
246.7268890668764
 20
37.81940168775203
 30
0.0
 10
246.9062785984649
 20
37.80605206155707
 30
0.0
 10
246.9900214182242
 20
37.79648993759795
 30
0.0
 10
247.1381453193462
 20
37.77430540031888
 30
0.0
 10
247.2041989008484
 20
37.76147211417424
 30
0.0
 10
247.2607441254143
 20
37.74800401473916
 30
0.0
  0
SPLINE
  5
201
330
1F
100
AcDbEntity
  8
0
  6
Continuous
 62
     7
370
    15
100
AcDbSpline
210
0.0
220
0.0
230
1.0
 70
     8
 71
     3
 72
     8
 73
     4
 74
     0
 42
0.000000001
 43
0.00000001
 40
0.0
 40
0.0
 40
0.0
 40
0.0
 40
1.0
 40
1.0
 40
1.0
 40
1.0
 10
242.2404796557784
 20
46.435771607677
 30
0.0
 10
241.8976130467722
 20
46.37647952223197
 30
0.0
 10
241.5544940896924
 20
46.31766271775058
 30
0.0
 10
241.211191887566
 20
46.25922409888697
 30
0.0
  0
SPLINE
  5
202
330
1F
100
AcDbEntity
  8
0
  6
Continuous
 62
     7
370
    15
100
AcDbSpline
210
0.0
220
0.0
230
1.0
 70
     8
 71
     3
 72
     8
 73
     4
 74
     0
 42
0.000000001
 43
0.00000001
 40
0.0
 40
0.0
 40
0.0
 40
0.0
 40
0.0011140524372172
 40
0.0011140524372172
 40
0.0011140524372172
 40
0.0011140524372172
 10
240.8987801820394
 20
46.63087316697252
 30
0.0
 10
241.0033895334268
 20
46.50684617694327
 30
0.0
 10
241.1075457860282
 20
46.38295512654856
 30
0.0
 10
241.211191887566
 20
46.25922409888697
 30
0.0
  0
LWPOLYLINE
  5
203
330
1F
100
AcDbEntity
  8
0
  6
Continuous
 62
     7
370
    15
100
AcDbPolyline
 90
       23
 70
   128
 43
0.0
 10
240.898780182
 20
46.630873167
 10
241.1925994062
 20
47.5826719435
 10
241.5419796577
 20
48.5354654954
 10
241.9444781737
 20
49.4825921738
 10
242.3972808046
 20
50.417429951
 10
242.8972216891
 20
51.3334427195
 10
243.4408053894
 20
52.2242259906
 10
244.02423133
 20
53.0835516731
 10
244.6434203705
 20
53.9054116175
 10
245.2940433255
 20
54.6840596238
 10
245.9715512329
 20
55.4140516169
 10
246.6712071591
 20
56.09028371
 10
247.3881193182
 20
56.7080278899
 10
248.1172752738
 20
57.2629650729
 10
248.8535769846
 20
57.7512153036
 10
249.5918764481
 20
58.1693648817
 10
250.3270116943
 20
58.5144902298
 10
251.0538428764
 20
58.7841783342
 10
251.7672882071
 20
58.976543616
 10
252.4623594892
 20
59.0902411145
 10
253.1341969911
 20
59.1244758904
 10
253.778103425
 20
59.0790085846
 10
254.3895767889
 20
58.9541570908
  0
LINE
  5
204
330
1F
100
AcDbEntity
  8
0
  6
Continuous
 62
     7
370
    15
100
AcDbLine
 10
254.7967273355
 20
57.675843788
 30
0.0
 11
254.3895767889
 21
58.9541570908
 31
0.0
  0
LWPOLYLINE
  5
205
330
1F
100
AcDbEntity
  8
0
  6
Continuous
 62
     7
370
    15
100
AcDbPolyline
 90
       22
 70
   128
 43
0.0
 10
242.2404796558
 20
46.4357716077
 10
242.5178156583
 20
47.3319424999
 10
242.8498395285
 20
48.2288525191
 10
243.2340064738
 20
49.1196273109
 10
243.6673720521
 20
49.997439544
 10
244.1466147389
 20
50.8555612388
 10
244.6680613852
 20
51.6874153334
 10
245.2277153705
 20
52.4866260935
 10
245.8212872343
 20
53.2470679794
 10
246.4442275535
 20
53.9629125947
 10
247.0917618106
 20
54.6286733582
 10
247.7589269881
 20
55.2392475558
 10
248.4406096077
 20
55.78995545
 10
249.1315849226
 20
56.2765761476
 10
249.8265569618
 20
56.6953799512
 10
250.5201991218
 20
57.0431569446
 10
251.2071949918
 20
57.3172415961
 10
251.8822791016
 20
57.5155331874
 10
252.5402772782
 20
57.6365119155
 10
253.1761463036
 20
57.6792505406
 10
253.7850125687
 20
57.6434214931
 10
254.0951857844
 20
57.5926410343
  0
LINE
  5
206
330
1F
100
AcDbEntity
  8
0
  6
Continuous
 62
     7
370
    15
100
AcDbLine
 10
239.5068635767
 20
47.4344095195
 30
0.0
 11
240.898780182
 21
46.630873167
 31
0.0
  0
LINE
  5
207
330
1F
100
AcDbEntity
  8
0
  6
Continuous
 62
     7
370
    15
100
AcDbLine
 10
254.3895767889
 20
58.9541570908
 30
0.0
 11
252.9976601835
 21
59.7576934433
 31
0.0
  0
LINE
  5
208
330
1F
100
AcDbEntity
  8
0
  6
Continuous
 62
     7
370
    15
100
AcDbLine
 10
243.4733211356
 20
45.9137709978
 30
0.0
 11
242.6085573803
 21
46.4129884876
 31
0.0
  0
LINE
  5
209
330
1F
100
AcDbEntity
  8
0
  6
Continuous
 62
     7
370
    15
100
AcDbLine
 10
255.9944933964
 20
54.0318813505
 30
0.0
 11
256.0134290238
 21
54.1645621937
 31
0.0
  0
SPLINE
  5
20A
330
1F
100
AcDbEntity
  8
0
  6
Continuous
 62
     7
370
    15
100
AcDbSpline
210
0.0
220
0.0
230
1.0
 70
     8
 71
     3
 72
    12
 73
     8
 74
     0
 42
0.000000001
 43
0.00000001
 40
0.0
 40
0.0
 40
0.0
 40
0.0
 40
0.2499999999999988
 40
0.2499999999999988
 40
0.4999999999999976
 40
0.4999999999999976
 40
1.0
 40
1.0
 40
1.0
 40
1.0
 10
242.6085573802688
 20
46.41298848757667
 30
0.0
 10
242.5852240020326
 20
46.42645856011389
 30
0.0
 10
242.5574428616724
 20
46.4376320629655
 30
0.0
 10
242.4965996329536
 20
46.45378065306763
 30
0.0
 10
242.4647142998923
 20
46.4586110410935
 30
0.0
 10
242.3649802276254
 20
46.46401042892536
 30
0.0
 10
242.2981490239641
 20
46.45490176129012
 30
0.0
 10
242.2404796557784
 20
46.435771607677
 30
0.0
  0
SPLINE
  5
20B
330
1F
100
AcDbEntity
  8
0
  6
Continuous
 62
     7
370
    15
100
AcDbSpline
210
0.0
220
0.0
230
1.0
 70
     8
 71
     3
 72
    10
 73
     6
 74
     0
 42
0.000000001
 43
0.00000001
 40
0.0
 40
0.0
 40
0.0
 40
0.0
 40
0.5
 40
0.5
 40
1.0
 40
1.0
 40
1.0
 40
1.0
 10
239.4036403018943
 20
47.46198942124587
 30
0.0
 10
239.4126717850356
 20
47.46627425469513
 30
0.0
 10
239.4256459864907
 20
47.46679266789592
 30
0.0
 10
239.460434351846
 20
47.45804347274639
 30
0.0
 10
239.4819762079356
 20
47.44877669165663
 30
0.0
 10
239.5068635766845
 20
47.43440951949173
 30
0.0
  0
LINE
  5
20C
330
1F
100
AcDbEntity
  8
0
  6
Continuous
 62
     7
370
    15
100
AcDbLine
 10
239.4036403019
 20
47.4619894212
 30
0.0
 11
239.4234338658
 21
47.5578798662
 31
0.0
  0
LINE
  5
20D
330
1F
100
AcDbEntity
  8
0
  6
Continuous
 62
     7
370
    15
100
AcDbLine
 10
245.0589610071
 20
44.0379542672
 30
0.0
 11
243.2852312162
 21
45.0619066801
 31
0.0
  0
SPLINE
  5
20E
330
1F
100
AcDbEntity
  8
0
  6
Continuous
 62
     7
370
    15
100
AcDbSpline
210
0.0
220
0.0
230
1.0
 70
     8
 71
     3
 72
     8
 73
     4
 74
     0
 42
0.000000001
 43
0.00000001
 40
0.0
 40
0.0
 40
0.0
 40
0.0
 40
0.0011140524372172
 40
0.0011140524372172
 40
0.0011140524372172
 40
0.0011140524372172
 10
243.2852312161776
 20
45.06190668009734
 30
0.0
 10
243.2817179182652
 20
45.12783227064928
 30
0.0
 10
243.2789403036581
 20
45.1931986790619
 30
0.0
 10
243.2768264739915
 20
45.25805626385804
 30
0.0
  0
LINE
  5
20F
330
1F
100
AcDbEntity
  8
0
  6
Continuous
 62
     7
370
    15
100
AcDbLine
 10
253.6442260434
 20
53.8794217988
 30
0.0
 11
253.7758291496
 21
53.5616273075
 31
0.0
  0
ARC
  5
210
330
1F
100
AcDbEntity
  8
0
  6
Continuous
 62
     7
370
    15
100
AcDbCircle
 10
255.0615092021
 20
36.1025276514
 30
0.0
 40
2.304188309350983
100
AcDbArc
 50
295.8757889869
 51
300.0399956969
  0
SPLINE
  5
211
330
1F
100
AcDbEntity
  8
0
  6
Continuous
 62
     7
370
    15
100
AcDbSpline
210
0.0
220
0.0
230
1.0
 70
     8
 71
     3
 72
    12
 73
     8
 74
     0
 42
0.000000001
 43
0.00000001
 40
0.0
 40
0.0
 40
0.0
 40
0.0
 40
0.5000000000000006
 40
0.5000000000000006
 40
0.7500000000000002
 40
0.7500000000000002
 40
1.0
 40
1.0
 40
1.0
 40
1.0
 10
256.0671068211845
 20
34.0293520212234
 30
0.0
 10
255.9556907964457
 20
33.92875008373705
 30
0.0
 10
255.8410685839386
 20
33.85527538935212
 30
0.0
 10
255.6653452684386
 20
33.78764819612018
 30
0.0
 10
255.6064207568441
 20
33.77252529084955
 30
0.0
 10
255.4909363696145
 20
33.75776324699106
 30
0.0
 10
255.433960817085
 20
33.75794601741775
 30
0.0
 10
255.3778292772867
 20
33.76578061655251
 30
0.0
  0
LINE
  5
212
330
1F
100
AcDbEntity
  8
0
  6
Continuous
 62
     7
370
    15
100
AcDbLine
 10
241.8076953712
 20
46.3612190898
 30
0.0
 11
241.8076953712
 21
44.1206634062
 31
0.0
  0
LINE
  5
213
330
1F
100
AcDbEntity
  8
0
  6
Continuous
 62
     7
370
    15
100
AcDbLine
 10
241.8076953712
 20
44.1206634062
 30
0.0
 11
241.8076953712
 21
42.5734593838
 31
0.0
  0
SPLINE
  5
214
330
1F
100
AcDbEntity
  8
0
  6
Continuous
 62
     7
370
    15
100
AcDbSpline
210
0.0
220
0.0
230
1.0
 70
     8
 71
     3
 72
    12
 73
     8
 74
     0
 42
0.000000001
 43
0.00000001
 40
0.0
 40
0.0
 40
0.0
 40
0.0
 40
0.4999999999999997
 40
0.4999999999999997
 40
0.7499999999999998
 40
0.7499999999999998
 40
1.0
 40
1.0
 40
1.0
 40
1.0
 10
265.0778247649866
 20
39.3654688188868
 30
0.0
 10
264.9241981168493
 20
39.19549928142987
 30
0.0
 10
264.7565003344088
 20
39.04746477385012
 30
0.0
 10
264.4846591185475
 20
38.85664209872692
 30
0.0
 10
264.3900887227528
 20
38.79806934898875
 30
0.0
 10
264.1976897985616
 20
38.6939881922158
 30
0.0
 10
264.0996180575674
 20
38.64822523144876
 30
0.0
 10
263.9996384914363
 20
38.60870508018919
 30
0.0
  0
LWPOLYLINE
  5
215
330
1F
100
AcDbEntity
  8
0
  6
Continuous
 62
     7
370
    15
100
AcDbPolyline
 90
       15
 70
   128
 43
0.0
 10
263.9996384914
 20
38.6087050802
 10
263.5167574154
 20
37.8809146723
 10
262.9960171622
 20
37.1917620917
 10
262.4430773987
 20
36.5487373953
 10
261.8639477523
 20
35.9588292988
 10
261.2649224954
 20
35.4284492201
 10
260.6525121354
 20
34.9633615964
 10
260.0333726563
 20
34.568621234
 10
259.4142331772
 20
34.2485183697
 10
258.8018228173
 20
34.0065320422
 10
258.2027975603
 20
33.8452922809
 10
257.6236679139
 20
33.7665515203
 10
257.0707281504
 20
33.7711655547
 10
256.5499878972
 20
33.8590842365
 10
256.0671068212
 20
34.0293520212
  0
SPLINE
  5
216
330
1F
100
AcDbEntity
  8
0
  6
Continuous
 62
     7
370
    15
100
AcDbSpline
210
0.0
220
0.0
230
1.0
 70
     8
 71
     3
 72
    12
 73
     8
 74
     0
 42
0.000000001
 43
0.00000001
 40
0.0
 40
0.0
 40
0.0
 40
0.0
 40
0.4999999999999996
 40
0.4999999999999996
 40
0.7499999999999998
 40
0.7499999999999998
 40
1.0
 40
1.0
 40
1.0
 40
1.0
 10
265.8403434221117
 20
48.02794665313587
 30
0.0
 10
265.8554324221063
 20
47.87812436407315
 30
0.0
 10
265.8429782550992
 20
47.71946103353245
 30
0.0
 10
265.7850393410405
 20
47.46968076355742
 30
0.0
 10
265.7588824549759
 20
47.38396692420819
 30
0.0
 10
265.694115869683
 20
47.2120881713134
 30
0.0
 10
265.6555185966244
 20
47.12568627128041
 30
0.0
 10
265.610725586666
 20
47.03890914478305
 30
0.0
  0
ARC
  5
217
330
1F
100
AcDbEntity
  8
0
  6
Continuous
 62
     7
370
    15
100
AcDbCircle
 10
262.0107409203
 20
47.8632245656
 30
0.0
 40
3.693153870503928
100
AcDbArc
 50
343.7051539947
 51
347.1028904291
  0
LINE
  5
218
330
1F
100
AcDbEntity
  8
0
  6
Continuous
 62
     7
370
    15
100
AcDbLine
 10
264.3888165876
 20
47.5005347811
 30
0.0
 11
265.5555427765
 21
46.8269980888
 31
0.0
  0
LINE
  5
219
330
1F
100
AcDbEntity
  8
0
  6
Continuous
 62
     7
370
    15
100
AcDbLine
 10
239.8086931568
 20
47.0688693824
 30
0.0
 11
239.4036403019
 21
47.4619894212
 31
0.0
  0
LINE
  5
21A
330
1F
100
AcDbEntity
  8
0
  6
Continuous
 62
     7
370
    15
100
AcDbLine
 10
241.2111918876
 20
46.2592240989
 30
0.0
 11
239.8086931568
 21
47.0688693824
 31
0.0
  0
LWPOLYLINE
  5
21B
330
1F
100
AcDbEntity
  8
0
  6
Continuous
 62
     7
370
    15
100
AcDbPolyline
 90
       11
 70
   128
 43
0.0
 10
262.872991909
 20
37.9514259569
 10
262.3504943878
 20
37.3104240017
 10
261.7979905665
 20
36.722846749
 10
261.2226352679
 20
36.196303216
 10
260.6318792372
 20
35.7376120447
 10
260.0333726563
 20
35.3527132014
 10
259.4348660755
 20
35.0465910553
 10
258.8441100448
 20
34.8232098318
 10
258.2687547461
 20
34.6854622768
 10
257.7162509248
 20
34.6351321957
 10
257.1937534037
 20
34.6728713538
  0
LINE
  5
21C
330
1F
100
AcDbEntity
  8
0
  6
Continuous
 62
     7
370
    15
100
AcDbLine
 10
263.8517492747
 20
38.5164505573
 30
0.0
 11
262.872991909
 21
37.9514259569
 31
0.0
  0
ARC
  5
21D
330
1F
100
AcDbEntity
  8
0
  6
Continuous
 62
     7
370
    15
100
AcDbCircle
 10
262.5504984243
 20
40.767093899
 30
0.0
 40
2.599740223070736
100
AcDbArc
 50
300.0351439476
 51
303.8773714499
  0
LINE
  5
21E
330
1F
100
AcDbEntity
  8
0
  6
Continuous
 62
     7
370
    15
100
AcDbLine
 10
257.1937534037
 20
34.6728713538
 30
0.0
 11
256.2149960379
 21
34.1078467534
 31
0.0
  0
LINE
  5
21F
330
1F
100
AcDbEntity
  8
0
  6
Continuous
 62
     7
370
    15
100
AcDbLine
 10
256.0270272147
 20
35.3464080461
 30
0.0
 11
257.1937534037
 21
34.6728713538
 31
0.0
  0
ARC
  5
220
330
1F
100
AcDbEntity
  8
0
  6
Continuous
 62
     7
370
    15
100
AcDbCircle
 10
249.3347660399
 20
45.3352825475
 30
0.0
 40
7.624440471879131
100
AcDbArc
 50
172.3376412124
 51
189.1666164959
  0
LINE
  5
221
330
1F
100
AcDbEntity
  8
0
  6
Continuous
 62
     7
370
    15
100
AcDbLine
 10
243.2852312162
 20
38.4887531444
 30
0.0
 11
245.0589610071
 21
37.4648007316
 31
0.0
  0
LINE
  5
222
330
1F
100
AcDbEntity
  8
0
  6
Continuous
 62
     7
370
    15
100
AcDbLine
 10
245.0589610071
 20
37.4648007316
 30
0.0
 11
245.0274492967
 21
37.3726469213
 31
0.0
  0
SPLINE
  5
223
330
1F
100
AcDbEntity
  8
0
  6
Continuous
 62
     7
370
    15
100
AcDbSpline
210
0.0
220
0.0
230
1.0
 70
     8
 71
     3
 72
    14
 73
    10
 74
     0
 42
0.000000001
 43
0.00000001
 40
0.0
 40
0.0
 40
0.0
 40
0.0
 40
0.25
 40
0.25
 40
0.5
 40
0.5
 40
0.75
 40
0.75
 40
1.0
 40
1.0
 40
1.0
 40
1.0
 10
245.0274492967004
 20
37.37264692131283
 30
0.0
 10
245.0127096338292
 20
37.32954180011555
 30
0.0
 10
244.994311779259
 20
37.28957911025586
 30
0.0
 10
244.9496542828898
 20
37.2164071017619
 30
0.0
 10
244.9232180888649
 20
37.1832317211066
 30
0.0
 10
244.863483121283
 20
37.13059976912826
 30
0.0
 10
244.8298344880476
 20
37.11075041447745
 30
0.0
 10
244.7575594063284
 20
37.09437392609316
 30
0.0
 10
244.7200973972391
 20
37.0987181140308
 30
0.0
 10
244.686420748876
 20
37.11815922931505
 30
0.0
  0
LINE
  5
224
330
1F
100
AcDbEntity
  8
0
  6
Continuous
 62
     7
370
    15
100
AcDbLine
 10
244.6864207489
 20
37.1181592293
 30
0.0
 11
243.276826474
 21
37.9319006832
 31
0.0
  0
SPLINE
  5
225
330
1F
100
AcDbEntity
  8
0
  6
Continuous
 62
     7
370
    15
100
AcDbSpline
210
0.0
220
0.0
230
1.0
 70
     8
 71
     3
 72
     8
 73
     4
 74
     0
 42
0.000000001
 43
0.00000001
 40
0.0
 40
0.0
 40
0.0
 40
0.0
 40
0.0011140524372172
 40
0.0011140524372172
 40
0.0011140524372172
 40
0.0011140524372172
 10
243.2768264739915
 20
37.93190068323204
 30
0.0
 10
243.2789403036581
 20
38.11753765427844
 30
0.0
 10
243.2817179182652
 20
38.30316031221842
 30
0.0
 10
243.2852312161776
 20
38.48875314441705
 30
0.0
  0
LINE
  5
226
330
1F
100
AcDbEntity
  8
0
  6
Continuous
 62
     7
370
    15
100
AcDbLine
 10
240.7912293733
 20
46.0639557338
 30
0.0
 11
240.8032431031
 21
46.4947279193
 31
0.0
  0
ARC
  5
227
330
1F
100
AcDbEntity
  8
0
  6
Continuous
 62
     7
370
    15
100
AcDbCircle
 10
245.312019889
 20
45.7992134491
 30
0.0
 40
4.528535675525917
100
AcDbArc
 50
176.6485260986
 51
219.3007686373
  0
ARC
  5
228
330
1F
100
AcDbEntity
  8
0
  6
Continuous
 62
     7
370
    15
100
AcDbCircle
 10
248.829372125
 20
38.4403873358
 30
0.0
 40
4.289233493073254
100
AcDbArc
 50
219.6343129376
 51
260.3979677243
  0
LINE
  5
229
330
1F
100
AcDbEntity
  8
0
  6
Continuous
 62
     7
370
    15
100
AcDbLine
 10
262.872991909
 20
37.9514259569
 30
0.0
 11
261.70626572
 21
38.6249626492
 31
0.0
  0
LINE
  5
22A
330
1F
100
AcDbEntity
  8
0
  6
Continuous
 62
     7
370
    15
100
AcDbLine
 10
245.0589610071
 20
37.4648007316
 30
0.0
 11
245.1453535296
 21
37.5146740732
 31
0.0
  0
SPLINE
  5
22B
330
1F
100
AcDbEntity
  8
0
  6
Continuous
 62
     7
370
    15
100
AcDbSpline
210
0.0
220
0.0
230
1.0
 70
     8
 71
     3
 72
     8
 73
     4
 74
     0
 42
0.000000001
 43
0.00000001
 40
0.0
 40
0.0
 40
0.0
 40
0.0
 40
1.0
 40
1.0
 40
1.0
 40
1.0
 10
243.5910536078447
 20
39.08294832520602
 30
0.0
 10
243.4883455747379
 20
38.88501564494231
 30
0.0
 10
243.3864608416143
 20
38.68693728723655
 30
0.0
 10
243.2852312161776
 20
38.48875314441705
 30
0.0
  0
SPLINE
  5
22C
330
1F
100
AcDbEntity
  8
0
  6
Continuous
 62
     7
370
    15
100
AcDbSpline
210
0.0
220
0.0
230
1.0
 70
     8
 71
     3
 72
    12
 73
     8
 74
     0
 42
0.000000001
 43
0.00000001
 40
0.0
 40
0.0
 40
0.0
 40
0.0
 40
0.2500000000000013
 40
0.2500000000000013
 40
0.5000000000000026
 40
0.5000000000000026
 40
1.0
 40
1.0
 40
1.0
 40
1.0
 10
243.5515878100746
 20
39.29543507264675
 30
0.0
 10
243.5749211883108
 20
39.28196500010952
 30
0.0
 10
243.5942763601215
 20
39.26592728915188
 30
0.0
 10
243.6222495696045
 20
39.23080324084889
 30
0.0
 10
243.6306169537091
 20
39.21239622987687
 30
0.0
 10
243.6399699811836
 20
39.1548209754809
 30
0.0
 10
243.6241915964293
 20
39.11624014282337
 30
0.0
 10
243.5910536078447
 20
39.08294832520602
 30
0.0
  0
LINE
  5
22D
330
1F
100
AcDbEntity
  8
0
  6
Continuous
 62
     7
370
    15
100
AcDbLine
 10
242.6085573803
 20
39.8398349519
 30
0.0
 11
243.5515878101
 21
39.2954350726
 31
0.0
  0
SPLINE
  5
22E
330
1F
100
AcDbEntity
  8
0
  6
Continuous
 62
     7
370
    15
100
AcDbSpline
210
0.0
220
0.0
230
1.0
 70
     8
 71
     3
 72
    10
 73
     6
 74
     0
 42
0.000000001
 43
0.00000001
 40
0.0
 40
0.0
 40
0.0
 40
0.0
 40
0.5
 40
0.5
 40
1.0
 40
1.0
 40
1.0
 40
1.0
 10
242.2404796557784
 20
39.86261807199671
 30
0.0
 10
242.2984629296857
 20
39.88185235480117
 30
0.0
 10
242.3653737467109
 20
39.89080082374542
 30
0.0
 10
242.4970174583699
 20
39.88374330279025
 30
0.0
 10
242.5613642895198
 20
39.86707894328109
 30
0.0
 10
242.6085573802688
 20
39.83983495189638
 30
0.0
  0
SPLINE
  5
22F
330
1F
100
AcDbEntity
  8
0
  6
Continuous
 62
     7
370
    15
100
AcDbSpline
210
0.0
220
0.0
230
1.0
 70
     8
 71
     3
 72
     8
 73
     4
 74
     0
 42
0.000000001
 43
0.00000001
 40
0.0
 40
0.0
 40
0.0
 40
0.0
 40
1.0
 40
1.0
 40
1.0
 40
1.0
 10
241.211191887566
 20
39.68607056320668
 30
0.0
 10
241.5544995058785
 20
39.7445101040406
 30
0.0
 10
241.8976318392693
 20
39.80332923634712
 30
0.0
 10
242.2404796557784
 20
39.86261807199671
 30
0.0
  0
LINE
  5
230
330
1F
100
AcDbEntity
  8
0
  6
Continuous
 62
     7
370
    15
100
AcDbLine
 10
239.8086931568
 20
40.4957158467
 30
0.0
 11
241.2111918876
 21
39.6860705632
 31
0.0
  0
LINE
  5
231
330
1F
100
AcDbEntity
  8
0
  6
Continuous
 62
     7
370
    15
100
AcDbLine
 10
239.8086931568
 20
40.4957158467
 30
0.0
 11
241.5955633369
 21
41.5272540448
 31
0.0
  0
ARC
  5
232
330
1F
100
AcDbEntity
  8
0
  6
Continuous
 62
     7
370
    15
100
AcDbCircle
 10
247.7248913278
 20
39.6117745185
 30
0.0
 40
4.754708933913533
100
AcDbArc
 50
200.6897442399
 51
238.9729683908
  0
SPLINE
  5
233
330
1F
100
AcDbEntity
  8
0
  6
Continuous
 62
     7
370
    15
100
AcDbSpline
210
0.0
220
0.0
230
1.0
 70
     8
 71
     3
 72
    12
 73
     8
 74
     0
 42
0.000000001
 43
0.00000001
 40
0.0
 40
0.0
 40
0.0
 40
0.0
 40
0.2500000000000002
 40
0.2500000000000002
 40
0.5000000000000003
 40
0.5000000000000003
 40
1.0
 40
1.0
 40
1.0
 40
1.0
 10
265.610725586666
 20
42.27244998041307
 30
0.0
 10
265.6551706151718
 20
42.18713929072987
 30
0.0
 10
265.6935759338897
 20
42.09825889185566
 30
0.0
 10
265.758174716251
 20
41.91312574374064
 30
0.0
 10
265.7844714268117
 20
41.816334930206
 30
0.0
 10
265.8432193373246
 20
41.51771970526021
 30
0.0
 10
265.855352653359
 20
41.31207312299919
 30
0.0
 10
265.8403434221117
 20
41.09949912031471
 30
0.0
  0
ARC
  5
234
330
1F
100
AcDbEntity
  8
0
  6
Continuous
 62
     7
370
    15
100
AcDbCircle
 10
258.1734159815
 20
44.6556795626
 30
0.0
 40
7.809824415697229
100
AcDbArc
 50
342.2323364785
 51
17.7676635215
  0
LINE
  5
235
330
1F
100
AcDbEntity
  8
0
  6
Continuous
 62
     7
370
    15
100
AcDbLine
 10
231.8370929044
 20
62.901616435
 30
0.0
 11
231.8766959345
 21
62.8879422854
 31
0.0
  0
ELLIPSE
  5
236
330
1F
100
AcDbEntity
  8
0
  6
Continuous
 62
     7
370
    15
100
AcDbEllipse
 10
241.3612487618
 20
42.3157536192
 30
0.0
 11
-6.005970385558612E-5
 21
0.8534489614827264
 31
0.0
210
0.0
220
0.0
230
1.0
 40
0.7174342186
 41
3.534193645557431
 42
5.104989972352351
  0
ARC
  5
237
330
1F
100
AcDbEntity
  8
0
  6
Continuous
 62
     7
370
    15
100
AcDbCircle
 10
264.2809618948
 20
41.8616751205
 30
0.0
 40
1.39176415453504
100
AcDbArc
 50
17.1663456622
 51
23.6800706086
  0
ARC
  5
238
330
1F
100
AcDbEntity
  8
0
  6
Continuous
 62
     7
370
    15
100
AcDbCircle
 10
258.1918226621
 20
44.6238232044
 30
0.0
 40
7.68624443372078
100
AcDbArc
 50
343.3431752853
 51
16.6568247147
  0
LINE
  5
239
330
1F
100
AcDbEntity
  8
0
  6
Continuous
 62
     7
370
    15
100
AcDbLine
 10
264.3888165876
 20
43.0941850122
 30
0.0
 11
265.5555427765
 21
42.42064832
 31
0.0
  0
ARC
  5
23A
330
1F
100
AcDbEntity
  8
0
  6
Continuous
 62
     7
370
    15
100
AcDbCircle
 10
245.1461624719
 20
40.836341203
 30
0.0
 40
4.515099912429503
100
AcDbArc
 50
199.8295135001
 51
257.8949195563
  0
SPLINE
  5
23B
330
1F
100
AcDbEntity
  8
0
  6
Continuous
 62
     7
370
    15
100
AcDbSpline
210
0.0
220
0.0
230
1.0
 70
     8
 71
     3
 72
     8
 73
     4
 74
     0
 42
0.000000001
 43
0.00000001
 40
0.0
 40
0.0
 40
0.0
 40
0.0
 40
0.0011140524372172
 40
0.0011140524372172
 40
0.0011140524372172
 40
0.0011140524372172
 10
241.211191887566
 20
39.68607056320668
 30
0.0
 10
241.1075457860282
 20
39.5582831681177
 30
0.0
 10
241.0033895334268
 20
39.43118515215981
 30
0.0
 10
240.8987801820394
 20
39.30471758634651
 30
0.0
  0
ARC
  5
23C
330
1F
100
AcDbEntity
  8
0
  6
Continuous
 62
     7
370
    15
100
AcDbCircle
 10
246.5219129866
 20
41.5422519572
 30
0.0
 40
4.599113105207074
100
AcDbArc
 50
201.420397136
 51
225.0283369009
  0
LINE
  5
23D
330
1F
100
AcDbEntity
  8
0
  6
Continuous
 62
     7
370
    15
100
AcDbLine
 10
239.4036403019
 20
40.2618328622
 30
0.0
 11
239.8086931568
 21
40.4957158467
 31
0.0
  0
LINE
  5
23E
330
1F
100
AcDbEntity
  8
0
  6
Continuous
 62
     7
370
    15
100
AcDbLine
 10
240.898780182
 20
39.3047175863
 30
0.0
 11
239.5068635767
 21
40.1082539389
 31
0.0
  0
SPLINE
  5
23F
330
1F
100
AcDbEntity
  8
0
  6
Continuous
 62
     7
370
    15
100
AcDbSpline
210
0.0
220
0.0
230
1.0
 70
     8
 71
     3
 72
     8
 73
     4
 74
     0
 42
0.000000001
 43
0.00000001
 40
0.0
 40
0.0
 40
0.0
 40
0.0
 40
1.0
 40
1.0
 40
1.0
 40
1.0
 10
239.5068635766845
 20
40.10825393886572
 30
0.0
 10
239.4571723354724
 20
40.13694008181575
 30
0.0
 10
239.4216949941647
 20
40.19565447619605
 30
0.0
 10
239.4036403018937
 20
40.26183286216612
 30
0.0
  0
ARC
  5
240
330
1F
100
AcDbEntity
  8
0
  6
Continuous
 62
     7
370
    15
100
AcDbCircle
 10
243.6705008119
 20
41.4442913464
 30
0.0
 40
4.313973770112687
100
AcDbArc
 50
219.6004829423
 51
239.8562859228
  0
SPLINE
  5
241
330
1F
100
AcDbEntity
  8
0
  6
Continuous
 62
     7
370
    15
100
AcDbSpline
210
0.0
220
0.0
230
1.0
 70
     8
 71
     3
 72
    12
 73
     8
 74
     0
 42
0.000000001
 43
0.00000001
 40
0.0
 40
0.0
 40
0.0
 40
0.0
 40
0.3738169866901017
 40
0.4376299331424092
 40
0.6753607317573067
 40
0.9143549487324089
 40
1.0
 40
1.0
 40
1.0
 40
1.0
 10
254.469798016148
 20
58.70228990592473
 30
0.0
 10
254.5162277617702
 20
58.71472033353635
 30
0.0
 10
254.5705833614244
 20
58.72927271450965
 30
0.0
 10
254.6614635034487
 20
58.73396383993809
 30
0.0
 10
254.7350492858382
 20
58.73022375973191
 30
0.0
 10
254.8061083611322
 20
58.71136466863351
 30
0.0
 10
254.8384131503187
 20
58.69428758866297
 30
0.0
 10
254.8469356723815
 20
58.68978238078255
 30
0.0
  0
LINE
  5
242
330
1F
100
AcDbEntity
  8
0
  6
Continuous
 62
     7
370
    15
100
AcDbLine
 10
254.8469356724
 20
58.6897823808
 30
0.0
 11
256.2388522777
 21
57.8862460283
 31
0.0
  0
SPLINE
  5
243
330
1F
100
AcDbEntity
  8
0
  6
Continuous
 62
     7
370
    15
100
AcDbSpline
210
0.0
220
0.0
230
1.0
 70
     8
 71
     3
 72
     9
 73
     5
 74
     0
 42
0.000000001
 43
0.00000001
 40
0.0
 40
0.0
 40
0.0
 40
0.0
 40
0.2743209788080325
 40
1.0
 40
1.0
 40
1.0
 40
1.0
 10
256.2388522777364
 20
57.88624602826335
 30
0.0
 10
256.2265197979477
 20
57.86672882108279
 30
0.0
 10
256.1815634120296
 20
57.7955814838818
 30
0.0
 10
256.1343470868738
 20
57.72492162567094
 30
0.0
 10
256.1000831902505
 20
57.67364524892692
 30
0.0
  0
SPLINE
  5
244
330
1F
100
AcDbEntity
  8
0
  6
Continuous
 62
     7
370
    15
100
AcDbSpline
210
0.0
220
0.0
230
1.0
 70
     8
 71
     3
 72
     9
 73
     5
 74
     0
 42
0.000000001
 43
0.00000001
 40
0.0
 40
0.0
 40
0.0
 40
0.0
 40
0.5883080878001081
 40
1.0
 40
1.0
 40
1.0
 40
1.0
 10
258.371019522977
 20
56.46079869225421
 30
0.0
 10
258.4191596783169
 20
56.47124035144959
 30
0.0
 10
258.5009878162232
 20
56.48898897570262
 30
0.0
 10
258.5830955002465
 20
56.50630164090601
 30
0.0
 10
258.6168985696884
 20
56.51342912514887
 30
0.0
  0
LINE
  5
245
330
1F
100
AcDbEntity
  8
0
  6
Continuous
 62
     7
370
    15
100
AcDbLine
 10
258.6168985697
 20
56.5134291251
 30
0.0
 11
260.0264928446
 21
55.6996876712
 31
0.0
  0
SPLINE
  5
246
330
1F
100
AcDbEntity
  8
0
  6
Continuous
 62
     7
370
    15
100
AcDbSpline
210
0.0
220
0.0
230
1.0
 70
     8
 71
     3
 72
    12
 73
     8
 74
     0
 42
0.000000001
 43
0.00000001
 40
0.0
 40
0.0
 40
0.0
 40
0.0
 40
0.25
 40
0.25
 40
0.5
 40
0.5
 40
1.0
 40
1.0
 40
1.0
 40
1.0
 10
260.0264928445729
 20
55.69968767123188
 30
0.0
 10
260.0577969122186
 20
55.68161621764173
 30
0.0
 10
260.0802283494468
 20
55.65810619255709
 30
0.0
 10
260.1027624980555
 20
55.60882494909536
 30
0.0
 10
260.1037272307672
 20
55.58259956777543
 30
0.0
 10
260.0816599742714
 20
55.50640119167615
 30
0.0
 10
260.0355349780679
 20
55.45998515024272
 30
0.0
 10
259.9729871306171
 20
55.42387704649197
 30
0.0
  0
LINE
  5
247
330
1F
100
AcDbEntity
  8
0
  6
Continuous
 62
     7
370
    15
100
AcDbLine
 10
259.9729871306
 20
55.4238770465
 30
0.0
 11
259.8050163954
 21
55.3269096051
 31
0.0
  0
ELLIPSE
  5
248
330
1F
100
AcDbEntity
  8
0
  6
Continuous
 62
     7
370
    15
100
AcDbEllipse
 10
241.2420099463
 20
42.2468961391
 30
0.0
 11
0.2600075789209484
 21
0.9705436209909378
 31
0.0
210
0.0
220
0.0
230
1.0
 40
0.5176380889
 41
3.619174351347741
 42
5.189970678142646
  0
LINE
  5
249
330
1F
100
AcDbEntity
  8
0
  6
Continuous
 62
     7
370
    15
100
AcDbLine
 10
261.1442670268
 20
53.3238037776
 30
0.0
 11
261.2394697072
 21
53.4886996566
 31
0.0
  0
LINE
  5
24A
330
1F
100
AcDbEntity
  8
0
  6
Continuous
 62
     7
370
    15
100
AcDbLine
 10
261.1442670268
 20
53.3238037776
 30
0.0
 11
261.1328095499
 21
53.3171895169
 31
0.0
  0
SPLINE
  5
24B
330
1F
100
AcDbEntity
  8
0
  6
Continuous
 62
     7
370
    15
100
AcDbSpline
210
0.0
220
0.0
230
1.0
 70
     8
 71
     3
 72
    13
 73
     9
 74
     0
 42
0.000000001
 43
0.00000001
 40
0.0
 40
0.0
 40
0.0
 40
0.0
 40
0.1781852705045038
 40
0.3614116563416148
 40
0.5396598827056804
 40
0.7236884618233723
 40
0.8914699225727354
 40
0.9999999999999999
 40
0.9999999999999999
 40
0.9999999999999999
 40
0.9999999999999999
 10
261.2394697072452
 20
53.4886996566073
 30
0.0
 10
261.2487183243339
 20
53.50623962790934
 30
0.0
 10
261.2674772150743
 20
53.54181580130744
 30
0.0
 10
261.2858080757944
 20
53.59863577920632
 30
0.0
 10
261.2962838213132
 20
53.6569057644389
 30
0.0
 10
261.2968171659015
 20
53.71272421862634
 30
0.0
 10
261.2904444864782
 20
53.75969483576696
 30
0.0
 10
261.2803952127692
 20
53.78462137774954
 30
0.0
 10
261.2764480433498
 20
53.7944120638324
 30
0.0
  0
LWPOLYLINE
  5
24C
330
1F
100
AcDbEntity
  8
0
  6
Continuous
 62
     7
370
    15
100
AcDbPolyline
 90
        3
 70
   128
 43
0.0
 10
256.2388522777
 20
57.8862460283
 10
256.4165149845
 20
57.7010901278
 10
256.4573419099
 20
57.6554496989
  0
ARC
  5
24D
330
1F
100
AcDbEntity
  8
0
  6
Continuous
 62
     7
370
     0
100
AcDbCircle
 10
251.0186034723
 20
39.1431290206
 30
0.0
 40
4.00847610110119
100
AcDbArc
 50
200.367707985
 51
238.5535410241
  0
ARC
  5
24E
330
1F
100
AcDbEntity
  8
0
  6
Continuous
 62
     7
370
     0
100
AcDbCircle
 10
263.9013120073
 20
39.1843627245
 30
0.0
 40
17.2816307105286
100
AcDbArc
 50
131.7841603211
 51
164.3452078179
  0
ARC
  5
24F
330
1F
100
AcDbEntity
  8
0
  6
Continuous
 62
     7
370
     0
100
AcDbCircle
 10
257.4206538527
 20
50.0390454712
 30
0.0
 40
4.3589391092789
100
AcDbArc
 50
62.2637250447
 51
108.8351811328
  0
LWPOLYLINE
  5
250
330
1F
100
AcDbEntity
  8
0
  6
Continuous
 62
     7
370
     0
100
AcDbPolyline
 90
       23
 70
   128
 43
0.0
 10
245.1453535296
 20
44.0878276089
 10
245.4199839435
 20
45.0286780164
 10
245.7519049018
 20
45.9724025915
 10
246.1386529129
 20
46.9119970834
 10
246.5773575629
 20
47.8404878947
 10
247.0647628201
 20
48.7509838384
 10
247.5972512002
 20
49.6367272842
 10
248.1708706158
 20
50.4911443128
 10
248.781363708
 20
51.3078935072
 10
249.4241994445
 20
52.0809130183
 10
250.094606748
 20
52.8044655549
 10
250.7876099076
 20
53.4731809664
 10
251.4980655076
 20
54.0820960987
 10
252.2207006014
 20
54.6266916308
 10
252.9501518473
 20
55.1029256169
 10
253.6810053149
 20
55.5072634853
 10
254.4078366661
 20
55.8367042715
 10
255.1252514151
 20
56.0888028917
 10
255.8279249651
 20
56.2616882894
 10
256.5106421275
 20
56.3540773225
 10
257.1683358284
 20
56.3652842868
 10
257.7961247161
 20
56.2952260051
 10
258.3893493901
 20
56.1444224446
  0
ARC
  5
251
330
1F
100
AcDbEntity
  8
0
  6
Continuous
 62
     7
370
     0
100
AcDbCircle
 10
256.4208652397
 20
51.6475626509
 30
0.0
 40
4.999007206803876
100
AcDbArc
 50
19.5112348106
 51
47.3930971159
  0
LWPOLYLINE
  5
252
330
1F
100
AcDbEntity
  8
0
  6
Continuous
 62
     7
370
     0
100
AcDbPolyline
 90
       23
 70
   128
 43
0.0
 10
244.6864207489
 20
44.4443148099
 10
244.980239973
 20
45.3961135865
 10
245.3296202245
 20
46.3489071384
 10
245.7321187406
 20
47.2960338168
 10
246.1849213714
 20
48.230871594
 10
246.6848622559
 20
49.1468843624
 10
247.2284459562
 20
50.0376676336
 10
247.8118718968
 20
50.8969933161
 10
248.4310609374
 20
51.7188532605
 10
249.0816838923
 20
52.4975012668
 10
249.7591917997
 20
53.2274932598
 10
250.4588477259
 20
53.903725353
 10
251.175759885
 20
54.5214695328
 10
251.9049158407
 20
55.0764067159
 10
252.6412175514
 20
55.5646569466
 10
253.3795170149
 20
55.9828065246
 10
254.1146522611
 20
56.3279318727
 10
254.8414834432
 20
56.5976199772
 10
255.554928774
 20
56.789985259
 10
256.250000056
 20
56.9036827574
 10
256.9218375579
 20
56.9379175334
 10
257.5657439919
 20
56.8924502276
 10
258.1772173557
 20
56.7675987338
  0
LWPOLYLINE
  5
253
330
1F
100
AcDbEntity
  8
0
  6
Continuous
 62
     7
370
     0
100
AcDbPolyline
 90
       23
 70
   128
 43
0.0
 10
245.0274492967
 20
44.0937254311
 10
245.3056650664
 20
45.042139797
 10
245.6411361212
 20
45.9932862489
 10
246.0314104672
 20
46.9402127549
 10
246.4736355471
 20
47.8759981271
 10
246.96457909
 20
48.7938026093
 10
247.5006527368
 20
49.6869178697
 10
248.0779382674
 20
50.5488160326
 10
248.6922162396
 20
51.3731973915
 10
249.3389968295
 20
52.154036454
 10
250.0135526482
 20
52.8856259835
 10
250.7109532943
 20
53.5626187131
 10
251.4261013914
 20
54.18006643
 10
252.1537698451
 20
54.7334561424
 10
252.8886400481
 20
55.2187430652
 10
253.625340755
 20
55.6323801839
 10
254.3584873408
 20
55.9713441804
 10
255.0827211583
 20
56.2331575301
 10
255.7927487043
 20
56.4159066112
 10
256.483380311
 20
56.5182556908
 10
257.1495680776
 20
56.5394566886
 10
257.7864427658
 20
56.4793546442
 10
258.3893493901
 20
56.3383888498
  0
LINE
  5
254
330
1F
100
AcDbEntity
  8
0
  6
Continuous
 62
     7
370
     0
100
AcDbLine
 10
245.1453535296
 20
37.5146740732
 30
0.0
 11
246.8458311872
 21
38.4963389296
 31
0.0
  0
ARC
  5
255
330
1F
100
AcDbEntity
  8
0
  6
Continuous
 62
     7
370
     0
100
AcDbCircle
 10
248.1447559791
 20
40.5105590481
 30
0.0
 40
2.396724494132485
100
AcDbArc
 50
237.1829497373
 51
274.046664665
  0
LWPOLYLINE
  5
256
330
1F
100
AcDbEntity
  8
0
  6
Continuous
 62
     7
370
     0
100
AcDbPolyline
 90
       23
 70
   128
 43
0.0
 10
239.5068635767
 20
47.4344095195
 10
239.8006828008
 20
48.386208296
 10
240.1500630523
 20
49.3390018479
 10
240.5525615684
 20
50.2861285263
 10
241.0053641993
 20
51.2209663035
 10
241.5053050837
 20
52.136979072
 10
242.048888784
 20
53.0277623432
 10
242.6323147246
 20
53.8870880256
 10
243.2515037652
 20
54.70894797
 10
243.9021267201
 20
55.4875959763
 10
244.5796346275
 20
56.2175879694
 10
245.2792905537
 20
56.8938200626
 10
245.9962027129
 20
57.5115642424
 10
246.7253586685
 20
58.0665014254
 10
247.4616603792
 20
58.5547516561
 10
248.1999598427
 20
58.9729012342
 10
248.9350950889
 20
59.3180265823
 10
249.661926271
 20
59.5877146867
 10
250.3753716018
 20
59.7800799686
 10
251.0704428839
 20
59.893777467
 10
251.7422803858
 20
59.928012243
 10
252.3861868197
 20
59.8825449371
 10
252.9976601835
 20
59.7576934433
  0
LWPOLYLINE
  5
257
330
1F
100
AcDbEntity
  8
0
  6
Continuous
 62
     7
370
     0
100
AcDbPolyline
 90
       19
 70
   128
 43
0.0
 10
242.6085573803
 20
46.4129884876
 10
242.9014429483
 20
47.3388691016
 10
243.2534351142
 20
48.2645106995
 10
243.6615426573
 20
49.1820472015
 10
244.1222974895
 20
50.0836814048
 10
244.6317841276
 20
50.961751244
 10
245.1856729665
 20
51.808794903
 10
245.7792570723
 20
52.6176142253
 10
246.4074921819
 20
53.3813358842
 10
247.0650395686
 20
54.0934697916
 10
247.7463114106
 20
54.747964251
 10
248.4455182766
 20
55.3392573843
 10
249.1567183236
 20
55.8623243969
 10
249.873867791
 20
56.3127202782
 10
250.59087236
 20
56.6866175749
 10
251.3016389434
 20
56.9808389169
 10
252.0001274641
 20
57.1928840185
 10
252.6804021836
 20
57.3209509254
 10
253.2878020052
 20
57.3636830696
  0
ARC
  5
258
330
1F
100
AcDbEntity
  8
0
  6
Continuous
 62
     7
370
     0
100
AcDbCircle
 10
248.4481583022
 20
41.0685881816
 30
0.0
 40
1.90014043964093
100
AcDbArc
 50
236.9370210534
 51
273.5887383586
  0
ARC
  5
259
330
1F
100
AcDbEntity
  8
0
  6
Continuous
 62
     7
370
     0
100
AcDbCircle
 10
246.183343731
 20
39.5320235057
 30
0.0
 40
1.229443846057702
100
AcDbArc
 50
302.60547834
 51
357.3945215143
  0
LINE
  5
25A
330
1F
100
AcDbEntity
  8
0
  6
Continuous
 62
     7
370
     0
100
AcDbLine
 10
255.0482698489
 20
34.7813834457
 30
0.0
 11
256.2149960379
 21
34.1078467534
 31
0.0
  0
LINE
  5
25B
330
1F
100
AcDbEntity
  8
0
  6
Continuous
 62
     7
370
     0
100
AcDbLine
 10
241.9269341868
 20
42.6423168639
 30
0.0
 11
247.4115166121
 21
39.4761348239
 31
0.0
  0
LINE
  5
25C
330
1F
100
AcDbEntity
  8
0
  6
Continuous
 62
     7
370
     0
100
AcDbLine
 10
241.8076953712
 20
42.5734593838
 30
0.0
 11
241.9269341868
 21
42.6423168639
 31
0.0
  0
ARC
  5
25D
330
1F
100
AcDbEntity
  8
0
  6
Continuous
 62
     7
370
     0
100
AcDbCircle
 10
249.4297933488
 20
38.9543117708
 30
0.0
 40
4.519843057522148
100
AcDbArc
 50
198.5731406067
 51
287.5737223099
  0
ARC
  5
25E
330
1F
100
AcDbEntity
  8
0
  6
Continuous
 62
     7
370
     0
100
AcDbCircle
 10
249.7763026185
 20
45.5282982805
 30
0.0
 40
8.06568179391148
100
AcDbArc
 50
174.1990918408
 51
180.8223854522
  0
ARC
  5
25F
330
1F
100
AcDbEntity
  8
0
  6
Continuous
 62
     7
370
     0
100
AcDbCircle
 10
249.6667417018
 20
39.1197748903
 30
0.0
 40
5.367500540099507
100
AcDbArc
 50
201.8954388387
 51
219.5176601571
  0
ARC
  5
260
330
1F
100
AcDbEntity
  8
0
  6
Continuous
 62
     7
370
     0
100
AcDbCircle
 10
249.3972424254
 20
38.8770284119
 30
0.0
 40
4.621499286722418
100
AcDbArc
 50
198.9969645552
 51
290.0741813439
  0
LINE
  5
261
330
1F
100
AcDbEntity
  8
0
  6
Continuous
 62
     7
370
     0
100
AcDbLine
 10
246.8458311872
 20
38.4963389296
 30
0.0
 11
241.5955633369
 21
41.5272540448
 31
0.0
  0
LWPOLYLINE
  5
262
330
1F
100
AcDbEntity
  8
0
  6
Continuous
 62
     7
370
     0
100
AcDbPolyline
 90
       18
 70
   128
 43
0.0
 10
226.6596518657
 20
57.0075955536
 10
226.6907935759
 20
57.5398437937
 10
226.7836125685
 20
58.0976878805
 10
226.9363022273
 20
58.6702700133
 10
227.1458906219
 20
59.2464455323
 10
227.4082983525
 20
59.8149998363
 10
227.7184179512
 20
60.3648666625
 10
228.0702132928
 20
60.8853434787
 10
228.456837081
 20
61.3662997957
 10
228.8707641236
 20
61.7983743457
 10
229.3039378015
 20
62.1731572893
 10
229.7479268819
 20
62.4833539026
 10
230.1940896223
 20
62.7229265615
 10
230.6337419725
 20
62.8872122567
 10
231.0583265996
 20
62.9730133539
 10
231.4595794468
 20
62.9786598325
 10
231.8296905838
 20
62.90404179
 10
231.8370929044
 20
62.901616435
  0
ARC
  5
263
330
1F
100
AcDbEntity
  8
0
  6
Continuous
 62
     7
370
     0
100
AcDbCircle
 10
229.1278940261
 20
56.8380040984
 30
0.0
 40
2.474061564348055
100
AcDbArc
 50
176.0694185984
 51
224.9117477784
  0
LINE
  5
264
330
1F
100
AcDbEntity
  8
0
  6
Continuous
 62
     7
370
     0
100
AcDbLine
 10
243.6232913145
 20
39.1333028111
 30
0.0
 11
243.5515878101
 21
39.2954350726
 31
0.0
  0
ARC
  5
265
330
1F
100
AcDbEntity
  8
0
  6
Continuous
 62
     7
370
     0
100
AcDbCircle
 10
246.9092401273
 20
41.6065131681
 30
0.0
 40
4.649411146616967
100
AcDbArc
 50
202.3323767889
 51
220.6392878947
  0
LINE
  5
266
330
1F
100
AcDbEntity
  8
0
  6
Continuous
 62
     7
370
     0
100
AcDbLine
 10
262.6850230858
 20
39.1899872495
 30
0.0
 11
263.8517492747
 21
38.5164505573
 31
0.0
  0
ARC
  5
267
330
1F
100
AcDbEntity
  8
0
  6
Continuous
 62
     7
370
     0
100
AcDbCircle
 10
244.4871806926
 20
42.1098676279
 30
0.0
 40
5.367496244541184
100
AcDbArc
 50
201.8954345813
 51
219.5178094597
  0
LINE
  5
268
330
1F
100
AcDbEntity
  8
0
  6
Continuous
 62
     7
370
     0
100
AcDbLine
 10
259.8050163954
 20
55.3269096051
 30
0.0
 11
258.7550254802
 21
54.7207627519
 31
0.0
  0
ARC
  5
269
330
1F
100
AcDbEntity
  8
0
  6
Continuous
 62
     7
370
     0
100
AcDbCircle
 10
256.4564812381
 20
51.7404740136
 30
0.0
 40
5.092472051468778
100
AcDbArc
 50
20.0778162143
 51
46.3279042356
  0
OLE2FRAME
  5
26A
330
1F
100
AcDbEntity
  8
0
100
AcDbOle2Frame
 70
     2
  3
Paintbrush-Bild
 10
13.8511154363
 20
38.264191557
 30
0.0
 11
51.6290888628
 21
31.9806341108
 31
0.0
 71
     2
 72
     0
 73
     1
 90
    12928
310
80552BED0767C5B32B40DDAF6807D121434000000000000000006FFBDDFB85D0
310
4940DDAF6807D121434000000000000000006FFBDDFB85D04940416F4BD60AFB
310
3F4000000000000000002BED0767C5B32B40416F4BD60AFB3F40000000000000
310
0000000000000100000000010000010000000100000000000100000000320000
310
D0CF11E0A1B11AE1000000000000000000000000000000003E000300FEFF0900
310
0600000000000000000000000100000001000000000000000010000002000000
310
01000000FEFFFFFF0000000000000000FFFFFFFFFFFFFFFFFFFFFFFFFFFFFFFF
310
FFFFFFFFFFFFFFFFFFFFFFFFFFFFFFFFFFFFFFFFFFFFFFFFFFFFFFFFFFFFFFFF
310
FFFFFFFFFFFFFFFFFFFFFFFFFFFFFFFFFFFFFFFFFFFFFFFFFFFFFFFFFFFFFFFF
310
FFFFFFFFFFFFFFFFFFFFFFFFFFFFFFFFFFFFFFFFFFFFFFFFFFFFFFFFFFFFFFFF
310
FFFFFFFFFFFFFFFFFFFFFFFFFFFFFFFFFFFFFFFFFFFFFFFFFFFFFFFFFFFFFFFF
310
FFFFFFFFFFFFFFFFFFFFFFFFFFFFFFFFFFFFFFFFFFFFFFFFFFFFFFFFFFFFFFFF
310
FFFFFFFFFFFFFFFFFFFFFFFFFFFFFFFFFFFFFFFFFFFFFFFFFFFFFFFFFFFFFFFF
310
FFFFFFFFFFFFFFFFFFFFFFFFFFFFFFFFFFFFFFFFFFFFFFFFFFFFFFFFFFFFFFFF
310
FFFFFFFFFFFFFFFFFFFFFFFFFFFFFFFFFFFFFFFFFFFFFFFFFFFFFFFFFFFFFFFF
310
FFFFFFFFFFFFFFFFFFFFFFFFFFFFFFFFFFFFFFFFFFFFFFFFFFFFFFFFFFFFFFFF
310
FFFFFFFFFFFFFFFFFFFFFFFFFFFFFFFFFFFFFFFFFFFFFFFFFFFFFFFFFFFFFFFF
310
FFFFFFFFFFFFFFFFFFFFFFFFFFFFFFFFFFFFFFFFFFFFFFFFFFFFFFFFFFFFFFFF
310
FFFFFFFFFFFFFFFFFFFFFFFFFFFFFFFFFFFFFFFFFFFFFFFFFFFFFFFFFFFFFFFF
310
FFFFFFFFFFFFFFFFFFFFFFFFFFFFFFFFFFFFFFFFFFFFFFFFFFFFFFFFFFFFFFFF
310
FDFFFFFFFEFFFFFFFEFFFFFFFEFFFFFF05000000060000000700000008000000
310
090000000A0000000B0000000C0000000D0000000E0000000F00000010000000
310
11000000120000001300000014000000150000001600000017000000FEFFFFFF
310
FFFFFFFFFFFFFFFFFFFFFFFFFFFFFFFFFFFFFFFFFFFFFFFFFFFFFFFFFFFFFFFF
310
FFFFFFFFFFFFFFFFFFFFFFFFFFFFFFFFFFFFFFFFFFFFFFFFFFFFFFFFFFFFFFFF
310
FFFFFFFFFFFFFFFFFFFFFFFFFFFFFFFFFFFFFFFFFFFFFFFFFFFFFFFFFFFFFFFF
310
FFFFFFFFFFFFFFFFFFFFFFFFFFFFFFFFFFFFFFFFFFFFFFFFFFFFFFFFFFFFFFFF
310
FFFFFFFFFFFFFFFFFFFFFFFFFFFFFFFFFFFFFFFFFFFFFFFFFFFFFFFFFFFFFFFF
310
FFFFFFFFFFFFFFFFFFFFFFFFFFFFFFFFFFFFFFFFFFFFFFFFFFFFFFFFFFFFFFFF
310
FFFFFFFFFFFFFFFFFFFFFFFFFFFFFFFFFFFFFFFFFFFFFFFFFFFFFFFFFFFFFFFF
310
FFFFFFFFFFFFFFFFFFFFFFFFFFFFFFFFFFFFFFFFFFFFFFFFFFFFFFFFFFFFFFFF
310
FFFFFFFFFFFFFFFFFFFFFFFFFFFFFFFFFFFFFFFFFFFFFFFFFFFFFFFFFFFFFFFF
310
FFFFFFFFFFFFFFFFFFFFFFFFFFFFFFFFFFFFFFFFFFFFFFFFFFFFFFFFFFFFFFFF
310
FFFFFFFFFFFFFFFFFFFFFFFFFFFFFFFFFFFFFFFFFFFFFFFFFFFFFFFFFFFFFFFF
310
FFFFFFFFFFFFFFFFFFFFFFFFFFFFFFFFFFFFFFFFFFFFFFFFFFFFFFFFFFFFFFFF
310
FFFFFFFFFFFFFFFFFFFFFFFFFFFFFFFFFFFFFFFFFFFFFFFFFFFFFFFFFFFFFFFF
310
52006F006F007400200045006E00740072007900000000000000000000000000
310
0000000000000000000000000000000000000000000000000000000000000000
310
16000500FFFFFFFFFFFFFFFF020000000A00030000000000C000000000000046
310
000000000000000000000000001243BE78FFD10103000000C000000000000000
310
01004F006C006500000000000000000000000000000000000000000000000000
310
0000000000000000000000000000000000000000000000000000000000000000
310
0A000200FFFFFFFFFFFFFFFFFFFFFFFF00000000000000000000000000000000
310
0000000000000000000000000000000000000000000000001400000000000000
310
010043006F006D0070004F0062006A0000000000000000000000000000000000
310
0000000000000000000000000000000000000000000000000000000000000000
310
120002010100000003000000FFFFFFFF00000000000000000000000000000000
310
0000000000000000000000000000000000000000010000004D00000000000000
310
01004F006C006500310030004E00610074006900760065000000000000000000
310
0000000000000000000000000000000000000000000000000000000000000000
310
1A000200FFFFFFFFFFFFFFFFFFFFFFFF00000000000000000000000000000000
310
0000000000000000000000000000000000000000040000002426000000000000
310
FEFFFFFF02000000FEFFFFFFFFFFFFFFFFFFFFFFFFFFFFFFFFFFFFFFFFFFFFFF
310
FFFFFFFFFFFFFFFFFFFFFFFFFFFFFFFFFFFFFFFFFFFFFFFFFFFFFFFFFFFFFFFF
310
FFFFFFFFFFFFFFFFFFFFFFFFFFFFFFFFFFFFFFFFFFFFFFFFFFFFFFFFFFFFFFFF
310
FFFFFFFFFFFFFFFFFFFFFFFFFFFFFFFFFFFFFFFFFFFFFFFFFFFFFFFFFFFFFFFF
310
FFFFFFFFFFFFFFFFFFFFFFFFFFFFFFFFFFFFFFFFFFFFFFFFFFFFFFFFFFFFFFFF
310
FFFFFFFFFFFFFFFFFFFFFFFFFFFFFFFFFFFFFFFFFFFFFFFFFFFFFFFFFFFFFFFF
310
FFFFFFFFFFFFFFFFFFFFFFFFFFFFFFFFFFFFFFFFFFFFFFFFFFFFFFFFFFFFFFFF
310
FFFFFFFFFFFFFFFFFFFFFFFFFFFFFFFFFFFFFFFFFFFFFFFFFFFFFFFFFFFFFFFF
310
FFFFFFFFFFFFFFFFFFFFFFFFFFFFFFFFFFFFFFFFFFFFFFFFFFFFFFFFFFFFFFFF
310
FFFFFFFFFFFFFFFFFFFFFFFFFFFFFFFFFFFFFFFFFFFFFFFFFFFFFFFFFFFFFFFF
310
FFFFFFFFFFFFFFFFFFFFFFFFFFFFFFFFFFFFFFFFFFFFFFFFFFFFFFFFFFFFFFFF
310
FFFFFFFFFFFFFFFFFFFFFFFFFFFFFFFFFFFFFFFFFFFFFFFFFFFFFFFFFFFFFFFF
310
FFFFFFFFFFFFFFFFFFFFFFFFFFFFFFFFFFFFFFFFFFFFFFFFFFFFFFFFFFFFFFFF
310
FFFFFFFFFFFFFFFFFFFFFFFFFFFFFFFFFFFFFFFFFFFFFFFFFFFFFFFFFFFFFFFF
310
FFFFFFFFFFFFFFFFFFFFFFFFFFFFFFFFFFFFFFFFFFFFFFFFFFFFFFFFFFFFFFFF
310
FFFFFFFFFFFFFFFFFFFFFFFFFFFFFFFFFFFFFFFFFFFFFFFFFFFFFFFFFFFFFFFF
310
0100000200000000000000000000000000000000000000000000000000000000
310
0000000000000000000000000000000000000000000000000000000000000000
310
0100FEFF030A0000FFFFFFFF0A00030000000000C00000000000004607000000
310
5042727573680007000000504272757368000700000050427275736800F439B2
310
7100000000000000000000000000000000000000000000000000000000000000
310
0000000000000000000000000000000000000000000000000000000000000000
310
0000000000000000000000000000000000000000000000000000000000000000
310
0000000000000000000000000000000000000000000000000000000000000000
310
0000000000000000000000000000000000000000000000000000000000000000
310
0000000000000000000000000000000000000000000000000000000000000000
310
0000000000000000000000000000000000000000000000000000000000000000
310
0000000000000000000000000000000000000000000000000000000000000000
310
0000000000000000000000000000000000000000000000000000000000000000
310
0000000000000000000000000000000000000000000000000000000000000000
310
0000000000000000000000000000000000000000000000000000000000000000
310
0000000000000000000000000000000000000000000000000000000000000000
310
20260000424D0E260000000000003E00000028000000B40200006E0000000100
310
01000000000000000000130B0000130B00000200000002000000000000FFFFFF
310
FFFFFFFFFFFFFFFFFFFFFFFFFFFFFFFFFFFFFFFFFFFFFFFFFFFFFFFFFFFFFFFF
310
FFFFFFFFFFFFFFFFFFFFFFFFFFFFFFFFFFFFFFFFFFFFFFFFFFFFFFFFFFFFFFFF
310
FFFFFFFFFFFFFFFFFFFFFFFFFFFFFFFFFFFFFFFFFFFFFFFFF000FFFFFFFFFFFF
310
FFFFFFFFFFFFFFFFFFFFFFFFFFFFFFFFFFFFFFFFFFFFFFFFFFFFFFFFFFFFFFFF
310
FFFFFFFFFFFFFFFFFFFFFFFFFFFFFFFFFFFFFFFFFFFFFFFFFFFFFFFFFFFFFFFF
310
FFFFFFFFFFFFFFFFFFFFFFFFFFFFFFFFF000FFFFFFFFFFFFFFFFFFFFFFFFFFFF
310
FFFFFFFFFFFFFFFFFFFFFFFFFFFFFFFFFFFFFFFFFFFFFFFFFFFFFFFFFFFFFFFF
310
FFFFFFFFFFFFFFFFFFFFFFFFFFFFFFFFFFFFFFFFFFFFFFFFFFFFFFFFFFFFFFFF
310
FFFFFFFFFFFFFFFFF000FFFFFFFFFFFFFFFFFFFFFFFFFFFFFFFFFFFFFFFFFFFF
310
FFFFFFFFFFFFFFFFFFFFFFFFFFFFFFFFFFFFFFFFFFFFFFFFFFFFFFFFFFFFFFFF
310
FFFFFFFFFFFFFFFFFFFFFFFFFFFFFFFFFFFFFFFFFFFFFFFFFFFFFFFFFFFFFFFF
310
F000FFFFFFFFFFFFFFFFFFFFFFFFFFFFFFFFFFFFFFFFFFFFFFFFFFFFFFFFFFFF
310
FFFFFFFFFFFFFFFFFFFFFFFFFFFFFFFFFFFFFFFFFFFFFFFFFFFFFFFFFFFFFFFF
310
FFFFFFFFFFFFFFFFFFFFFFFFFFFFFFFFFFFFFFFFFFFFFFFFF000FFFFFFFFFFFF
310
FFFFFFFFFFFFFFFFFFFFFFFFFFFFFFFFFFFFFFFFFFFFFFFFFFFFFFFFFFFFFFFF
310
FFFFFFFFFFFFFFFFFFFFFFFFFFFFFFFFFFFFFFFFFFFFFFFFFFFFFFFFFFFFFFFF
310
FFFFFFFFFFFFFFFFFFFFFFFFFFFFFFFFF000FFFFFFFFFFFFFFFFFFFFFFFFFFFF
310
FFFFFFFFFFFFFFFFFFFFFFFFFFFFFFFFFFFFFFFFFFFFFFFFFFFFFFFFFFFFFFFF
310
FFFFFFFFFFFFFFFFFFFFFFFFFFFFFFFFFFFFFFFFFFFFFFFFFFFFFFFFFFFFFFFF
310
FFFFFFFFFFFFFFFFF000FFFFFFFFFFFFFFFFFFFFFFFFFFFFFFFFFFFFFFFFFFFF
310
FFFFFFFFFFFFFFFFFFFFFFFFFFFFFFFFFFFFFFFFFFFFFFFFFFFFFFFFFFFFFFFF
310
FFFFFFFFFFFFFFFFFFFFFFFFFFFFFFFFFFFFFFFFFFFFFFFFFFFFFFFFFFFFFFFF
310
F000FFFFFFFFFFFFFFFFFFFFFFFFFFFFFFFFFFFFFFFFFFFFFFFFFFFFFFFFFFFF
310
FFFFFFFFFFFFFFFFFFFFFFFFFFFFFFFFFFFFFFFFFFFFFFFFFFFFFFFFFFFFFFFF
310
FFFFFFFFFFFFFFFFFFFFFFFFFFFFFFFFFFFFFFFFFFFFFFFFF000FFFFFFFFFFFF
310
FFFFFFFFFFFFFFFFFFFFFFFFFFFFFFFFFFFFFFFFFFFFFFFFFFFFFFFFFFFFFFFF
310
FFFFFFFFFFFFFFFFFFFFFFFFFFFFFFFFFFFFFFFFFFFFFFFFFFFFFFFFFFFFFFFF
310
FFFFFFFFFFFFFFFFFFFFFFFFFFFFFFFFF000FFFFFFFFFFFFFFFFFFFFFFFFFFFF
310
FFFFFFFFFFFFFFFFFFFFFFFFFFFFFFFFFFFFFFFFFFFFFFFFFFFFFFFFFFFFFFFF
310
FFFFFFFFFFFFFFFFFFFFFFFFFFFFFFFFFFFFFFFFFFFFFFFFFFFFFFFFFFFFFFFF
310
FFFFFFFFFFFFFFFFF000FFFFFFFFFFFFFFFFFFFFFFFFFFFFFFFFFFFFFFFFFFFF
310
FFFFFFFFFFFFFFFFFFFFFFFFFFFFFFFFFFFFFFFFFFFFFFFFFFFFFFFFFFFFFFFF
310
FFFFFFFFFFFFFFFFFFFFFFFFFFFFFFFFFFFFFFFFFFFFFFFFFFFFFFFFFFFFFFFF
310
F000FFFFFFFFFFFFFFFFFFFFFFFFFFFFFFFFFFFFFFFFFFFFFFFFFFFFFFFFFFFF
310
FFFFFFFFFFFFFFFFFFFFFFFFFFFFFFFFFFFFFFFFFFFFFFFFFFFFFFFFFFFFFFFF
310
FFFFFFFFFFFFFFFFFFFFFFFFFFFFFFFFFFFFFFFFFFFFFFFFF000FFFFFFFFFFFF
310
FFFFFFFFFFFFFFFFFFFFFFFFFFFFFFFFFFFFFFFFFFFFFFFFFFFFFFFFFFFFFFFF
310
FFFFFFFFFFFFFFFFFFFFFFFFFFFFFFFFFFFFFFFFFFFFFFFFFFFFFFFFFFFFFFFF
310
FFFFFFFFFFFFFFFFFFFFFFFFFFFFFFFFF000FFFFFFFFFFFFFFFFFFFFFFFFFFFF
310
FFFFFFFFFFFFFFFFFFFFFFFFFFFFFFFFFFFFFFFFFFFFFFFFFFFFFFFFFFFFFFFF
310
FFFFFFFFFFFFFFFFFFFFFFFFFFFFFFFFFFFFFFFFFFFFFFFFFFFFFFFFFFFFFFFF
310
FFFFFFFFFFFFFFFFF000FFFFFFFFFFFFFFFFFFFFFFFFFFFFFFFFFFFFFFFFFFFF
310
FFFFFFFFFFFFFFFFFFFFFFFFFFFFFFFFFFFFFFFFFFFFFFFFFFFFFFFFFFFFFFFF
310
FFFFFFFFFFFFFFFFFFFFFFFFFFFFFFFFFFFFFFFFFFFFFFFFFFFFFFFFFFFFFFFF
310
F000FFFFFFFFFFFFFFFFFFFFFFFFFFFFFFFFFFFFFFFFFFFFFFFFFFFFFFFFFFFF
310
FFFFFFFFFFFFFFFFFFFFFFFFFFFFFFFFFFFFFFFFFFFFFFFFFFFFFFFFFFFFFFFF
310
FFFFFFFFFFFFFFFFFFFFFFFFFFFFFFFFFFFFFFFFFFFFFFFFF000FFFFFFFFFFFF
310
FFFFFFFFFFFFFFFFFFFFFFFFFFFFFFFFFFFFFFFFFFFFFFFFFFFFFFFFFFFFFFFF
310
FFFFFFFFFFFFFFFFFFFFFFFFFFFFFFFFFFFFFFFFFFFFFFFFFFFFFFFFFFFFFFFF
310
FFFFFFFFFFFFFFFFFFFFFFFFFFFFFFFFF000FFFFFFFFFFFFFFFFFFFFFFFFFFFF
310
FFFFFFFFFFFFFFFFFFFFFFFFFFFFFFFFFFFFFFFFFFFFFFFFFFFFFFFFFFFFFFFF
310
FFFFFFFFFFFFFFFFFFFFFFFFFFFFFFFFFFFFFFFFFFFFFFFFFFFFFFFFFFFFFFFF
310
FFFFFFFFFFFFFFFFF000FFFFF80003FFFFFFFFFFFFFFFFFFFFFFFFFFFFFFFFFF
310
FFFFF00007FFFFFFFFFF00007FFFFFF800000000000000007FFFFFFFFFFFFFFF
310
FFFFFFFC001FFFFFFFFFFFFFFC001FFFFFFFFFFFFFFFFFFFFFFFFFFE0007FFFF
310
F000FFFF8000007FFFFFFFF8000FFFFFC0007FFFFF80007FFFFF0000007FFFFF
310
FFF8000007FFFFF800000000000000007FFFFFF0001FFFFFFFFFFFC00001FFFF
310
FFFFFFFFC00001FFFFFFFF000000000003FFFFE000007FFFF000FFFE0000000F
310
FFFFFFF0000FFFFF80007FFFFF80007FFFFC0000001FFFFFFFC0000001FFFFF8
310
00000000000000007FFFFFF0001FFFFFFFFFFE0000003FFFFFFFFFFE0000003F
310
FFFFFF000000000003FFFF0000000FFFF000FFF800000003FFFFFFF00007FFFF
310
80007FFFFF80007FFFF000000007FFFFFF000000003FFFF80000000000000000
310
7FFFFFF0001FFFFFFFFFF80000000FFFFFFFFFF80000000FFFFFFF0000000000
310
03FFFC00000003FFF000FFE000000000FFFFFFF00007FFFF80003FFFFF80007F
310
FFC000000001FFFFFC000000001FFFF800000000000000007FFFFFF0001FFFFF
310
FFFFE000000003FFFFFFFFE000000003FFFFFF000000000003FFF000000000FF
310
F000FF80000000007FFFFFF00007FFFF80003FFFFF80007FFF8000000000FFFF
310
F80000000007FFF800000000000000007FFFFFF0001FFFFFFFFFC000000001FF
310
FFFFFFC000000001FFFFFF000000000003FFC0000000007FF000FF0000000000
310
3FFFFFE00007FFFF00003FFFFF80007FFE00000000003FFFF00000000003FFF8
310
00000000000000007FFFFFF0001FFFFFFFFF8000000000FFFFFFFF8000000000
310
FFFFFF000000000003FF80000000003FF000FE00000000001FFFFFE00003FFFF
310
00003FFFFF80007FFC00000000001FFFE00000000001FFF8000001FFFE000000
310
7FFFFFF0001FFFFFFFFE00000000003FFFFFFE00000000003FFFFF0000000000
310
03FF00000000001FF000FC00000000000FFFFFE00003FFFF00001FFFFF80007F
310
F800000000001FFFC00000000000FFF8000001FFFE0000007FFFFFF0001FFFFF
310
FFFC00000000001FFFFFFC00000000001FFFFF000000000003FE00000000000F
310
F000F8000000000007FFFFE00003FFFF00001FFFFF80007FF800000000000FFF
310
800000000000FFF8000001FFFE0000007FFFFFF0001FFFFFFFF800000000000F
310
FFFFF800000000000FFFFF000000000003FC000000000007F000F80000000000
310
03FFFFC00003FFFE00001FFFFF80007FF0000000000007FF0000000000007FF8
310
000001FFFE0000007FFFFFF0001FFFFFFFF0000000000007FFFFF00000000000
310
07FFFF000000000003F8000000000003F000F0000000000003FFFFC00001FFFE
310
00001FFFFF80007FE0000000000007FE0000000000003FF8000001FFFE000000
310
7FFFFFF0001FFFFFFFF0000000000007FFFFF0000000000007FFFF0000000000
310
03F800001F800003F000E00001FFF00001FFFFC00001FFFE00000FFFFF80007F
310
E00001FFE00003FE00001FFF00003FF8000001FFFE0000007FFFFFF0001FFFFF
310
FFE000003E000003FFFFE000003E000003FFFF000000000003F00001FFF80001
310
F000E00007FFFC0001FFFFC00001FFFE00000FFFFF80007FC0000FFFFC0003FC
310
0000FFFFC0001FF8000001FFFE0000007FFFFFF0001FFFFFFFC00003FFE00001
310
FFFFC00003FFE00001FFFF0001FFFFFFFFF00007FFFE0001F000E0000FFFFF00
310
00FFFF800001FFFC00000FFFFF80007FC0001FFFFE0001FC0001FFFFE0001FF8
310
000001FFFE0000007FFFFFF0001FFFFFFF80000FFFF80000FFFF80000FFFF800
310
00FFFF0003FFFFFFFFE0000FFFFF8000F000C0003FFFFF8000FFFF800000FFFC
310
000007FFFF80007F80003FFFFF0001FC0003FFFFF0001FF8000001FFFE000000
310
7FFFFFF0001FFFFFFF80003FFFFE0000FFFF80003FFFFE0000FFFF0003FFFFFF
310
FFE0003FFFFF8000F000C0003FFFFF8000FFFF800000FFFC000007FFFF80007F
310
80007FFFFF8001F80007FFFFF8000FF8000001FFFE0000007FFFFFF0001FFFFF
310
FF00007FFFFF00007FFF00007FFFFF00007FFF0003FFFFFFFFE0003FFFFFC000
310
F000C0007FFFFFC000FFFF000000FFFC000007FFFF80007F8000FFFFFF8000F8
310
000FFFFFF8000FF8000001FFFE0000007FFFFFF0001FFFFFFF0000FFFFFF8000
310
7FFF0000FFFFFF80007FFF0003FFFFFFFFC0007FFFFFC00070008000FFFFFFC0
310
00FFFF000000FFF8000007FFFF80007F8000FFFFFF8000F8000FFFFFF8000FF8
310
000001FFFE0000007FFFFFF0001FFFFFFE0001FFFFFFC0003FFE0001FFFFFFC0
310
003FFF0003FFFFFFFFC0007FFFFFE00070008000FFFFFFC0007FFF0000007FF8
310
000003FFFF80007F0001FFFFFF8000F8000FFFFFF8000FF8000001FFFE000000
310
7FFFFFF0001FFFFFFE0001FFFFFFC0003FFE0001FFFFFFC0003FFF0003FFFFFF
310
FFC000FFFFFFE00070008000FFFFFFC0007FFF0000007FF8000003FFFF80007F
310
0001FFFFFF8000F8001FFFFFF8000FF8000001FFFE0000007FFFFFF0001FFFFF
310
FE0003FFFFFFE0003FFE0003FFFFFFE0003FFF0003FFFFFFFFC000FFFFFFE000
310
70008000FFFFFFC0007FFE0000007FF8000003FFFF80007F0001FFFFFF8000F0
310
001FFFFFF8000FF8000001FFFE0000007FFFFFF0001FFFFFFC0003FFFFFFE000
310
1FFC0003FFFFFFE0001FFF0003FFFFFFFFC000FFFFFFC00070008000FFFFFF80
310
007FFE0000007FF0000003FFFF80007F0001FFFFFF0000F0001FFFFFF8000FF8
310
000001FFFE0000007FFFFFF0001FFFFFFC0007FFFFFFF0001FFC0007FFFFFFF0
310
001FFF0003FFFFFFFFC000FFFFFFC00070008001FFFFFF0000FFFE0000003FF0
310
000001FFFF80007F0001FFFFFF0000F8001FFFFFF0000FF8000001FFFE000000
310
7FFFFFF0001FFFFFFC0007FFFFFFF0001FFC0007FFFFFFF0001FFF0003FFFFFF
310
FFC001FFFFFF80007000FFFFFFFFFE0000FFFE0008003FF0008001FFFF80007F
310
FFFFFFFFFC0000FFFFFFFFFFE0000FF8000001FFFE0000007FFFFFF0001FFFFF
310
F8000FFFFFFFF8000FF8000FFFFFFFF8000FFF0003FFFFFFFFFFFFFFFFFF0000
310
7000FFFFFFFFFC0000FFFC0008003FF0008001FFFF80007FFFFFFFFFF80001FF
310
FFFFFFFF80000FF8000001FFFE0000007FFFFFF0001FFFFFF8000FFFFFFFF800
310
0FF8000FFFFFFFF8000FFF0003FFFFFFFFFFFFFFFFFE0000F000FFFFFFFFE000
310
00FFFC000C003FE000C001FFFF80007FFFFFFFFFC00001FFFFFFFFFE00001FF8
310
000001FFFE0000007FFFFFF0001FFFFFF8000FFFFFFFF8000FF8000FFFFFFFF8
310
000FFF0003FFFFFFFFFFFFFFFFF00000F000FFFFFFFE000001FFFC000C001FE0
310
00C000FFFF80007FFFFFFFFE000001FFFFFFFFE000001FF80FFFFFFFFFFFFFC0
310
7FFFFFF0001FFFFFF8000FFFFFFFF8000FF8000FFFFFFFF8000FFF0003FFFFFF
310
FFFFFFFFFF800000F000FFFFFFC0000001FFFC001C001FE001C000FFFF80007F
310
FFFFFF80000003FFFFFFF80000001FF80FFFFFFFFFFFFFC07FFFFFF0001FFFFF
310
F8001FFFFFFFFC000FF8001FFFFFFFFC000FFF0003FFFFFFFFFFFFFFF0000001
310
F000FFFFF800000001FFF8001C001FE001C000FFFF80007FFFFFF800000003FF
310
FFFF800000003FF80FFFFFFFFFFFFFC07FFFFFF0001FFFFFF8001FFFFFFFFC00
310
0FF8001FFFFFFFFC000FFF0003FFFFFFFFFFFFFE00000001F000FFFFC0000000
310
03FFF8001E001FC001E000FFFF80007FFFFF8000000007FFFFFC000000003FF8
310
0FFFFFFFFFFFFFC07FFFFFF0001FFFFFF8001FFFFFFFFC000FF8001FFFFFFFFC
310
000FFF0003FFFFFFFFFFFFE000000003F000FFFE0000000007FFF8001E000FC0
310
01E0007FFF80007FFFFE0000000007FFFFE0000000007FF80FFFFFFFFFFFFFC0
310
7FFFFFF0001FFFFFF0001FFFFFFFFC0007F0001FFFFFFFFC0007FF0003FFFFFF
310
FFFFFF0000000003F000FFF80000000007FFF8001E000FC003E0007FFF80007F
310
FFF0000000000FFFFF8000000000FFF80FFFFFFFFFFFFFC07FFFFFF0001FFFFF
310
F0001FFFFFFFFC0007F0001FFFFFFFFC0007FF0003FFFFFFFFFFFC0000000007
310
F000FFE0000000000FFFF0003E000FC003E0007FFF80007FFFC0000000001FFF
310
FE0000000001FFF80FFFFFFFFFFFFFC07FFFFFF0001FFFFFF0001FFFFFFFFC00
310
07F0001FFFFFFFFC0007FF0003FFFFFFFFFFF0000000000FF000FFC000000000
310
1FFFF0003F000F8003F0003FFF80007FFF80000000003FFFF80000000003FFF8
310
0FFFFFFFFFFFFFC07FFFFFF0001FFFFFF0001FFFFFFFFC0007F0001FFFFFFFFC
310
0007FF0003FFFFFFFFFFE0000000001FF000FF00000000007FFFF0003F000780
310
03F0003FFF80007FFF00000000007FFFF00000000007FFF80FFFFFFFFFFFFFC0
310
7FFFFFF0001FFFFFF0001FFFFFFFFC0007F0001FFFFFFFFC0007FF0003FFFFFF
310
FFFF80000000007FF000FE0000000000FFFFE0003F00078007F0003FFF80007F
310
FE0000000001FFFFE0000000001FFFF80FFFFFFFFFFFFFC07FFFFFF0001FFFFF
310
F0001FFFFFFFFC0007F0001FFFFFFFFC0007FF0003FFFFFFFFFF0000000000FF
310
F000FC0000000003FFFFE0007F00078007F0003FFF80007FFC0000000007FFFF
310
C0000000007FFFF80FFFFFFFFFFFFFC07FFFFFF0001FFFFFF8001FFFFFFFFC00
310
0FF8001FFFFFFFFC000FFF0003FFFFFFFFFE0000000003FFF000FC000000000F
310
FFFFE0007F80070007F8001FFF80007FF8000000001FFFFF8000000001FFFFF8
310
0FFFFFFFFFFFFFC07FFFFFF0001FFFFFF8001FFFFFFFFC000FF8001FFFFFFFFC
310
000FFF0003FFFFFFFFFC000000000FFFF000F8000000007FFFFFE0007F800700
310
07F8001FFF80007FF000000000FFFFFF800000000FFFFFF80FFFFFFFFFFFFFC0
310
7FFFFFF0001FFFFFF8000FFFFFFFF8000FF8000FFFFFFFF8000FFF0003FFFFFF
310
FFFC000000007FFFF000F800000007FFFFFFC0007F8003000FF8001FFF80007F
310
F000000007FFFFFF000000007FFFFFF80FFFFFFFFFFFFFC07FFFFFF0001FFFFF
310
F8000FFFFFFFF8000FF8000FFFFFFFF8000FFF0003FFFFFFFFF80000000FFFFF
310
F000F0000000FFFFFFFFC000FF8003000FF8001FFF80007FE0000000FFFFFFFF
310
0000000FFFFFFFF8000001FFFE0000007FFFFFF0001FFFFFF8000FFFFFFFF800
310
0FF8000FFFFFFFF8000FFF0003FFFFFFFFF8000000FFFFFFF000F000000FFFFF
310
FFFFC000FFC002000FF8000FFF80007FE000001FFFFFFFFE000001FFFFFFFFF8
310
000001FFFE0000007FFFFFF0001FFFFFF8000FFFFFFFF8000FF8000FFFFFFFF8
310
000FFF0003FFFFFFFFF000001FFFFFFFF000E00000FFFFFFFFFFC000FFC00200
310
0FFC000FFF80007FE00001FFFFFFFFFE00001FFFFFFFFFF8000001FFFE000000
310
7FFFFFF0001FFFFFFC000FFFFFFFF8001FFC000FFFFFFFF8001FFF0003FFFFFF
310
FFF00001FFFFFFFFF000E00007FFFFFFFFFF8000FFC000001FFC000FFF80007F
310
C0000FFFFFFFFFFE0000FFFFFFFFFFF8000001FFFE0000007FFFFFF0001FFFFF
310
FC0007FFFFFFF0001FFC0007FFFFFFF0001FFF0003FFFFFFFFF00007FFFFFFFF
310
F000E0001FFFFFFFFFFF8000FFC000001FFC000FFF80007FC0003FFFFFFFFFFE
310
0001FFFFFFFFFFF8000001FFFE0000007FFFFFF0001FFFFFFC0007FFFFFFF000
310
1FFC0007FFFFFFF0001FFF0003FFFFFFFFF0001FFFFFFFFFF000E0003FFFFF00
310
03FF8001FFE000001FFC0007FF80007FC0007FFFFF0007FC0003FFFFF0003FF8
310
000001FFFE0000007FFFFFF0001FFFFFFC0003FFFFFFE0001FFC0003FFFFFFE0
310
001FFF0003FFFFFFFFF0003FFFFFFFFFF000E0003FFFFF0001FF8001FFE00000
310
1FFE0007FF80007FC0007FFFFE0003FC0007FFFFE0003FF8000001FFFE000000
310
7FFFFFF0001FFFFFFE0003FFFFFFE0003FFE0003FFFFFFE0003FFF0003FFFFFF
310
FFF0003FFFFF8001F000E0003FFFFF0001FF0001FFE000001FFE0007FF80007F
310
C0007FFFFE0003FC0007FFFFE0003FF8000001FFFE0000007FFFFFF0001FFFFF
310
FE0001FFFFFFC0003FFE0001FFFFFFC0003FFF0003FFFFFFFFF0003FFFFF0001
310
F000E0003FFFFF0003FF0001FFE000003FFE0007FF80007FC0007FFFFE0003FC
310
0007FFFFE0003FF8000001FFFE0000007FFFFFF0001FFFFFFF0001FFFFFFC000
310
7FFF0001FFFFFFC0007FFF0003FFFFFFFFF0003FFFFF0001F000E0003FFFFE00
310
03FF0003FFF000003FFE0003FF80007FC0007FFFFC0003FE0007FFFFE0003FF8
310
000001FFFE0000007FFFFFF0001FFFFFFF0000FFFFFF80007FFF0000FFFFFF80
310
007FFF0003FFFFFFFFF0003FFFFF0001F000E0003FFFFE0003FF0003FFF00000
310
3FFF0003FF80007FC0007FFFFC0007FE0007FFFFC0003FF8000001FFFE000000
310
7FFFFFF0001FFFFFFF80007FFFFF0000FFFF80007FFFFF0000FFFF0003FFFFFF
310
FFF0003FFFFF0003F000E0003FFFFC0003FE0003FFF000003FFF0003FF80007F
310
E0003FFFF80007FE0003FFFFC0007FF8000001FFFE0000007FFFFFF0001FFFFF
310
FF80003FFFFE0000FFFF80003FFFFE0000FFFF0003FFFFFFFFF0001FFFFE0003
310
F000F0001FFFF80003FE0003FFF000007FFF0001FF80007FE0003FFFF00007FE
310
0001FFFF80007FF8000001FFFE0000007FFFFFF0001FFFFFFFC0000FFFF80001
310
FFFFC0000FFFF80001FFFF0003FFFFFFFFF0001FFFFC0003F000F0000FFFF000
310
07FE0007FFF800007FFF0001FF80007FE0001FFFE00007FF0000FFFE00007FF8
310
000001FFFE0000007FFFFFF0001FFFFFFFC00003FFE00001FFFFC00003FFE000
310
01FFFF0003FFFFFFFFF8000FFFF80003F000F00003FFC00007FC0007FFF80000
310
7FFF8001FF80007FF00007FF80000FFF00007FF80000FFF8000001FFFE000000
310
7F80000000000001FFE000003E000003FFFFE000003E000003FFFF0003FFFFFF
310
FFF80003FFE00007F000F800000000000FFC0007FFF800007FFF8001FF80007F
310
F000000000000FFF000000000000FFF8000001FFFE0000007F80000000000001
310
FFF0000000000007FFFFF0000000000007FFFF0003FFFFFFFFFC00007E000007
310
F000F800000000000FFC0007FFF80000FFFF8000FF80007FF800000000001FFF
310
800000000001FFF8000001FFFE0000007F80000000000001FFF800000000000F
310
FFFFF800000000000FFFFF0003FFFFFFFFFC00000000000FF000FC0000000000
310
1FFC0007FFFC0000FFFF8000FF80007FF800000000003FFFC00000000001FFF8
310
000001FFFE0000007F80000000000001FFF800000000000FFFFFF80000000000
310
0FFFFF0003FFFFFFFFFE00000000001FF000FE00000000003FF8000FFFFC0000
310
FFFF8000FF80007FFC00000000003FFFC00000000003FFF8000001FFFE000000
310
7F80000000000001FFFC00000000001FFFFFFC00000000001FFFFF0003FFFFFF
310
FFFF00000000001FF000FF00000000003FF8000FFFFC0000FFFFC000FF80007F
310
FE00000000007FFFE00000000007FFF8000001FFFE0000007F80000000000001
310
FFFE00000000003FFFFFFE00000000003FFFFF0003FFFFFFFFFF80000000003F
310
F000FF80000000007FF8000FFFFC0001FFFFC0007F80007FFF0000000000FFFF
310
F0000000000FFFF800000000000000007F80000000000001FFFF8000000000FF
310
FFFFFF8000000000FFFFFF0003FFFFFFFFFFC0000000007FF000FFC000000000
310
FFF8000FFFFE0001FFFFC0007F80007FFF8000000001FFFFF8000000001FFFF8
310
00000000000000007F80000000000001FFFFC000000001FFFFFFFFC000000001
310
FFFFFF0003FFFFFFFFFFE000000000FFF000FFE000000003FFF0001FFFFE0001
310
FFFFC0007F80007FFFC000000007FFFFFE000000003FFFF80000000000000000
310
7F80000000000001FFFFE000000003FFFFFFFFE000000003FFFFFF0003FFFFFF
310
FFFFF000000003FFF000FFF80000000FFFF0001FFFFE0001FFFFE0007F80007F
310
FFF00000000FFFFFFF00000000FFFFF800000000000000007F80000000000001
310
FFFFF80000000FFFFFFFFFF80000000FFFFFFF0003FFFFFFFFFFFC0000000FFF
310
F000FFFE0000003FFFF0001FFFFE0003FFFFE0003F80007FFFFC0000003FFFFF
310
FFC0000003FFFFF800000000000000007F80000000000001FFFFFE0000003FFF
310
FFFFFFFE0000003FFFFFFF0003FFFFFFFFFFFF0000003FFFF000FFFF800000FF
310
FFF0001FFFFF0003FFFFE0003F80007FFFFF000001FFFFFFFFF800001FFFFFF8
310
00000000000000007F80000000000001FFFFFFC00001FFFFFFFFFFFFC00001FF
310
FFFFFF0003FFFFFFFFFFFFC00000FFFFF000FFFFF8000FFFFFFFFFFFFFFFFFFF
310
FFFFFFFFFFFFFFFFFFFFF0001FFFFFFFFFFF0000FFFFFFF80000000000000000
310
7FFFFFFFFFFFFFFFFFFFFFFC001FFFFFFFFFFFFFFC001FFFFFFFFFFFFFFFFFFF
310
FFFFFFFC001FFFFFF000FFFFFFFFFFFFFFFFFFFFFFFFFFFFFFFFFFFFFFFFFFFF
310
FFFFFFFFFFFFFFFFFFFFFFFFFFFFFFFFFFFFFFFFFFFFFFFFFFFFFFFFFFFFFFFF
310
FFFFFFFFFFFFFFFFFFFFFFFFFFFFFFFFFFFFFFFFFFFFFFFFFFFFFFFFFFFFFFFF
310
F000FFFFFFFFFFFFFFFFFFFFFFFFFFFFFFFFFFFFFFFFFFFFFFFFFFFFFFFFFFFF
310
FFFFFFFFFFFFFFFFFFFFFFFFFFFFFFFFFFFFFFFFFFFFFFFFFFFFFFFFFFFFFFFF
310
FFFFFFFFFFFFFFFFFFFFFFFFFFFFFFFFFFFFFFFFFFFFFFFFF000FFFFFFFFFFFF
310
FFFFFFFFFFFFFFFFFFFFFFFFFFFFFFFFFFFFFFFFFFFFFFFFFFFFFFFFFFFFFFFF
310
FFFFFFFFFFFFFFFFFFFFFFFFFFFFFFFFFFFFFFFFFFFFFFFFFFFFFFFFFFFFFFFF
310
FFFFFFFFFFFFFFFFFFFFFFFFFFFFFFFFF000FFFFFFFFFFFFFFFFFFFFFFFFFFFF
310
FFFFFFFFFFFFFFFFFFFFFFFFFFFFFFFFFFFFFFFFFFFFFFFFFFFFFFFFFFFFFFFF
310
FFFFFFFFFFFFFFFFFFFFFFFFFFFFFFFFFFFFFFFFFFFFFFFFFFFFFFFFFFFFFFFF
310
FFFFFFFFFFFFFFFFF000FFFFFFFFFFFFFFFFFFFFFFFFFFFFFFFFFFFFFFFFFFFF
310
FFFFFFFFFFFFFFFFFFFFFFFFFFFFFFFFFFFFFFFFFFFFFFFFFFFFFFFFFFFFFFFF
310
FFFFFFFFFFFFFFFFFFFFFFFFFFFFFFFFFFFFFFFFFFFFFFFFFFFFFFFFFFFFFFFF
310
F000FFFFFFFFFFFFFFFFFFFFFFFFFFFFFFFFFFFFFFFFFFFFFFFFFFFFFFFFFFFF
310
FFFFFFFFFFFFFFFFFFFFFFFFFFFFFFFFFFFFFFFFFFFFFFFFFFFFFFFFFFFFFFFF
310
FFFFFFFFFFFFFFFFFFFFFFFFFFFFFFFFFFFFFFFFFFFFFFFFF000FFFFFFFFFFFF
310
FFFFFFFFFFFFFFFFFFFFFFFFFFFFFFFFFFFFFFFFFFFFFFFFFFFFFFFFFFFFFFFF
310
FFFFFFFFFFFFFFFFFFFFFFFFFFFFFFFFFFFFFFFFFFFFFFFFFFFFFFFFFFFFFFFF
310
FFFFFFFFFFFFFFFFFFFFFFFFFFFFFFFFF000FFFFFFFFFFFFFFFFFFFFFFFFFFFF
310
FFFFFFFFFFFFFFFFFFFFFFFFFFFFFFFFFFFFFFFFFFFFFFFFFFFFFFFFFFFFFFFF
310
FFFFFFFFFFFFFFFFFFFFFFFFFFFFFFFFFFFFFFFFFFFFFFFFFFFFFFFFFFFFFFFF
310
FFFFFFFFFFFFFFFFF000FFFFFFFFFFFFFFFFFFFFFFFFFFFFFFFFFFFFFFFFFFFF
310
FFFFFFFFFFFFFFFFFFFFFFFFFFFFFFFFFFFFFFFFFFFFFFFFFFFFFFFFFFFFFFFF
310
FFFFFFFFFFFFFFFFFFFFFFFFFFFFFFFFFFFFFFFFFFFFFFFFFFFFFFFFFFFFFFFF
310
F000FFFFFFFFFFFFFFFFFFFFFFFFFFFFFFFFFFFFFFFFFFFFFFFFFFFFFFFFFFFF
310
FFFFFFFFFFFFFFFFFFFFFFFFFFFFFFFFFFFFFFFFFFFFFFFFFFFFFFFFFFFFFFFF
310
FFFFFFFFFFFFFFFFFFFFFFFFFFFFFFFFFFFFFFFFFFFFFFFFF000FFFFFFFFFFFF
310
FFFFFFFFFFFFFFFFFFFFFFFFFFFFFFFFFFFFFFFFFFFFFFFFFFFFFFFFFFFFFFFF
310
FFFFFFFFFFFFFFFFFFFFFFFFFFFFFFFFFFFFFFFFFFFFFFFFFFFFFFFFFFFFFFFF
310
FFFFFFFFFFFFFFFFFFFFFFFFFFFFFFFFF000FFFFFFFFFFFFFFFFFFFFFFFFFFFF
310
FFFFFFFFFFFFFFFFFFFFFFFFFFFFFFFFFFFFFFFFFFFFFFFFFFFFFFFFFFFFFFFF
310
FFFFFFFFFFFFFFFFFFFFFFFFFFFFFFFFFFFFFFFFFFFFFFFFFFFFFFFFFFFFFFFF
310
FFFFFFFFFFFFFFFFF000FFFFFFFFFFFFFFFFFFFFFFFFFFFFFFFFFFFFFFFFFFFF
310
FFFFFFFFFFFFFFFFFFFFFFFFFFFFFFFFFFFFFFFFFFFFFFFFFFFFFFFFFFFFFFFF
310
FFFFFFFFFFFFFFFFFFFFFFFFFFFFFFFFFFFFFFFFFFFFFFFFFFFFFFFFFFFFFFFF
310
F000FFFFFFFFFFFFFFFFFFFFFFFFFFFFFFFFFFFFFFFFFFFFFFFFFFFFFFFFFFFF
310
FFFFFFFFFFFFFFFFFFFFFFFFFFFFFFFFFFFFFFFFFFFFFFFFFFFFFFFFFFFFFFFF
310
FFFFFFFFFFFFFFFFFFFFFFFFFFFFFFFFFFFFFFFFFFFFFFFFF000FFFFFFFFFFFF
310
FFFFFFFFFFFFFFFFFFFFFFFFFFFFFFFFFFFFFFFFFFFFFFFFFFFFFFFFFFFFFFFF
310
FFFFFFFFFFFFFFFFFFFFFFFFFFFFFFFFFFFFFFFFFFFFFFFFFFFFFFFFFFFFFFFF
310
FFFFFFFFFFFFFFFFFFFFFFFFFFFFFFFFF000FFFFFFFFFFFFFFFFFFFFFFFFFFFF
310
FFFFFFFFFFFFFFFFFFFFFFFFFFFFFFFFFFFFFFFFFFFFFFFFFFFFFFFFFFFFFFFF
310
FFFFFFFFFFFFFFFFFFFFFFFFFFFFFFFFFFFFFFFFFFFFFFFFFFFFFFFFFFFFFFFF
310
FFFFFFFFFFFFFFFFF000FFFFFFFFFFFFFFFFFFFFFFFFFFFFFFFFFFFFFFFFFFFF
310
FFFFFFFFFFFFFFFFFFFFFFFFFFFFFFFFFFFFFFFFFFFFFFFFFFFFFFFFFFFFFFFF
310
FFFFFFFFFFFFFFFFFFFFFFFFFFFFFFFFFFFFFFFFFFFFFFFFFFFFFFFFFFFFFFFF
310
F000FFFFFFFFFFFFFFFFFFFFFFFFFFFFFFFFFFFFFFFFFFFFFFFFFFFFFFFFFFFF
310
FFFFFFFFFFFFFFFFFFFFFFFFFFFFFFFFFFFFFFFFFFFFFFFFFFFFFFFFFFFFFFFF
310
FFFFFFFFFFFFFFFFFFFFFFFFFFFFFFFFFFFFFFFFFFFFFFFFF000FFFFFFFFFFFF
310
FFFFFFFFFFFFFFFFFFFFFFFFFFFFFFFFFFFFFFFFFFFFFFFFFFFFFFFFFFFFFFFF
310
FFFFFFFFFFFFFFFFFFFFFFFFFFFFFFFFFFFFFFFFFFFFFFFFFFFFFFFFFFFFFFFF
310
FFFFFFFFFFFFFFFFFFFFFFFFFFFFFFFFF000FFFFFFFFFFFFFFFFFFFFFFFFFFFF
310
FFFFFFFFFFFFFFFFFFFFFFFFFFFFFFFFFFFFFFFFFFFFFFFFFFFFFFFFFFFFFFFF
310
FFFFFFFFFFFFFFFFFFFFFFFFFFFFFFFFFFFFFFFFFFFFFFFFFFFFFFFFFFFFFFFF
310
FFFFFFFFFFFFFFFFF000FFFFFFFFFFFFFFFFFFFFFFFFFFFFFFFFFFFFFFFFFFFF
310
FFFFFFFFFFFFFFFFFFFFFFFFFFFFFFFFFFFFFFFFFFFFFFFFFFFFFFFFFFFFFFFF
310
FFFFFFFFFFFFFFFFFFFFFFFFFFFFFFFFFFFFFFFFFFFFFFFFFFFFFFFFFFFFFFFF
310
F000FFFFFFFFFFFFFFFFFFFFFFFFFFFFFFFFFFFFFFFFFFFFFFFFFFFFFFFFFFFF
310
FFFFFFFFFFFFFFFFFFFFFFFFFFFFFFFFFFFFFFFFFFFFFFFFFFFFFFFFFFFFFFFF
310
FFFFFFFFFFFFFFFFFFFFFFFFFFFFFFFFFFFFFFFFFFFFFFFFF000FFFFFFFFFFFF
310
FFFFFFFFFFFFFFFFFFFFFFFFFFFFFFFFFFFFFFFFFFFFFFFFFFFFFFFFFFFFFFFF
310
FFFFFFFFFFFFFFFFFFFFFFFFFFFFFFFFFFFFFFFFFFFFFFFFFFFFFFFFFFFFFFFF
310
FFFFFFFFFFFFFFFFFFFFFFFFFFFFFFFFF0000000000000000000000000000000
310
0000000000000000000000000000000000000000000000000000000000000000
310
0000000000000000000000000000000000000000000000000000000000000000
310
0000000000000000000000000000000000000000000000000000000000000000
310
0000000000000000000000000000000000000000000000000000000000000000
310
0000000000000000000000000000000000000000000000000000000000000000
310
0000000000000000000000000000000000000000000000000000000000000000
310
0000000000000000000000000000000000000000000000000000000000000000
310
0000000000000000000000000000000000000000000000000000000000000000
310
0000000000000000000000000000000000000000000000000000000000000000
310
0000000000000000000000000000000000000000000000000000000000000000
310
0000000000000000000000000000000000000000000000000000000000000000
310
0000000000000000000000000000000000000000000000000000000000000000
310
0000000000000000000000000000000000000000000000000000000000000000
310
0000000000000000000000000000000000000000000000000000000000000000
310
0000000000000000000000000000000000000000000000000000000000000000
  1
OLE
  0
ENDSEC
  0
SECTION
  2
OBJECTS
  0
DICTIONARY
  5
C
330
0
100
AcDbDictionary
281
     1
  3
ACAD_GROUP
350
D
  3
ACAD_LAYOUT
350
1A
  3
ACAD_MLINESTYLE
350
17
  3
ACAD_PLOTSETTINGS
350
19
  3
ACAD_PLOTSTYLENAME
350
E
  3
ACAD_SCALELIST
350
47
  0
DICTIONARY
  5
D
102
{ACAD_REACTORS
330
C
102
}
330
C
100
AcDbDictionary
281
     1
  0
DICTIONARY
  5
1A
102
{ACAD_REACTORS
330
C
102
}
330
C
100
AcDbDictionary
281
     1
  3
Layout1
350
1E
  3
Layout2
350
26
  3
Model
350
22
  0
DICTIONARY
  5
17
102
{ACAD_REACTORS
330
C
102
}
330
C
100
AcDbDictionary
281
     1
  3
Standard
350
18
  0
DICTIONARY
  5
19
102
{ACAD_REACTORS
330
C
102
}
330
C
100
AcDbDictionary
281
     1
  0
ACDBDICTIONARYWDFLT
  5
E
102
{ACAD_REACTORS
330
C
102
}
330
C
100
AcDbDictionary
281
     1
  3
Normal
350
F
100
AcDbDictionaryWithDefault
340
F
  0
DICTIONARY
  5
47
102
{ACAD_REACTORS
330
C
102
}
330
C
100
AcDbDictionary
281
     1
  3
A0
350
48
  3
A1
350
49
  3
A2
350
4A
  3
A3
350
4B
  3
A4
350
4C
  3
A5
350
4D
  3
A6
350
4E
  3
A7
350
4F
  3
A8
350
50
  3
A9
350
51
  3
B0
350
52
  3
B1
350
53
  3
B2
350
54
  3
B3
350
55
  3
B4
350
56
  3
B5
350
57
  3
B6
350
58
  3
B7
350
59
  3
B8
350
5A
  3
B9
350
5B
  3
C0
350
5C
  3
C1
350
5D
  3
C2
350
5E
  3
C3
350
5F
  3
C4
350
60
  3
C5
350
61
  3
C6
350
62
  3
C7
350
63
  3
C8
350
64
  3
C9
350
65
  3
D0
350
66
  3
D1
350
67
  3
D2
350
68
  0
LAYOUT
  5
1E
102
{ACAD_REACTORS
330
1A
102
}
330
1A
100
AcDbPlotSettings
  1

  2
none_device
  4

  6

 40
0.0
 41
0.0
 42
0.0
 43
0.0
 44
0.0
 45
0.0
 46
0.0
 47
0.0
 48
0.0
 49
0.0
140
0.0
141
0.0
142
1.0
143
1.0
 70
   688
 72
     1
 73
     0
 74
     5
  7

 75
    16
147
1.0
148
0.0
149
0.0
100
AcDbLayout
  1
Layout1
 70
     1
 71
     1
 10
0.0
 20
0.0
 11
420.0
 21
297.0
 12
0.0
 22
0.0
 32
0.0
 14
1.0000000000E+20
 24
1.0000000000E+20
 34
1.0000000000E+20
 15
-1.0000000000E+20
 25
-1.0000000000E+20
 35
-1.0000000000E+20
146
0.0
 13
0.0
 23
0.0
 33
0.0
 16
1.0
 26
0.0
 36
0.0
 17
0.0
 27
1.0
 37
0.0
 76
     0
330
1B
  0
LAYOUT
  5
26
102
{ACAD_REACTORS
330
1A
102
}
330
1A
100
AcDbPlotSettings
  1

  2
none_device
  4

  6

 40
0.0
 41
0.0
 42
0.0
 43
0.0
 44
0.0
 45
0.0
 46
0.0
 47
0.0
 48
0.0
 49
0.0
140
0.0
141
0.0
142
1.0
143
1.0
 70
   688
 72
     1
 73
     0
 74
     5
  7

 75
    16
147
1.0
148
0.0
149
0.0
100
AcDbLayout
  1
Layout2
 70
     1
 71
     2
 10
0.0
 20
0.0
 11
0.0
 21
0.0
 12
0.0
 22
0.0
 32
0.0
 14
0.0
 24
0.0
 34
0.0
 15
0.0
 25
0.0
 35
0.0
146
0.0
 13
0.0
 23
0.0
 33
0.0
 16
1.0
 26
0.0
 36
0.0
 17
0.0
 27
1.0
 37
0.0
 76
     0
330
23
  0
LAYOUT
  5
22
102
{ACAD_REACTORS
330
1A
102
}
330
1A
100
AcDbPlotSettings
  1

  2
none_device
  4
Letter_(8.50_x_11.00_Inches)
  6

 40
6.35
 41
6.35
 42
6.35000508
 43
6.35000508
 44
215.9
 45
279.4
 46
0.0
 47
0.0
 48
0.0
 49
0.0
140
0.0
141
0.0
142
1.0
143
1.0
 70
  1712
 72
     1
 73
     0
 74
     0
  7

 75
     0
147
1.0
148
0.0
149
0.0
100
AcDbLayout
  1
Model
 70
     1
 71
     0
 10
0.0
 20
0.0
 11
297.0
 21
210.0
 12
0.0
 22
0.0
 32
0.0
 14
0.0
 24
0.0
 34
0.0
 15
297.0
 25
210.0
 35
0.0
146
0.0
 13
0.0
 23
0.0
 33
0.0
 16
1.0
 26
0.0
 36
0.0
 17
0.0
 27
1.0
 37
0.0
 76
     0
330
1F
331
29
  0
MLINESTYLE
  5
18
102
{ACAD_REACTORS
330
17
102
}
330
17
100
AcDbMlineStyle
  2
Standard
 70
     0
  3

 62
   256
 51
90.0
 52
90.0
 71
     2
 49
0.5
 62
   256
  6
BYLAYER
 49
-0.5
 62
   256
  6
BYLAYER
  0
ACDBPLACEHOLDER
  5
F
102
{ACAD_REACTORS
330
E
102
}
330
E
  0
SCALE
  5
48
102
{ACAD_REACTORS
330
47
102
}
330
47
100
AcDbScale
 70
     0
300
1:1
140
1.0
141
1.0
290
     1
  0
SCALE
  5
49
102
{ACAD_REACTORS
330
47
102
}
330
47
100
AcDbScale
 70
     0
300
1:2
140
1.0
141
2.0
290
     0
  0
SCALE
  5
4A
102
{ACAD_REACTORS
330
47
102
}
330
47
100
AcDbScale
 70
     0
300
1:4
140
1.0
141
4.0
290
     0
  0
SCALE
  5
4B
102
{ACAD_REACTORS
330
47
102
}
330
47
100
AcDbScale
 70
     0
300
1:5
140
1.0
141
5.0
290
     0
  0
SCALE
  5
4C
102
{ACAD_REACTORS
330
47
102
}
330
47
100
AcDbScale
 70
     0
300
1:8
140
1.0
141
8.0
290
     0
  0
SCALE
  5
4D
102
{ACAD_REACTORS
330
47
102
}
330
47
100
AcDbScale
 70
     0
300
1:10
140
1.0
141
10.0
290
     0
  0
SCALE
  5
4E
102
{ACAD_REACTORS
330
47
102
}
330
47
100
AcDbScale
 70
     0
300
1:16
140
1.0
141
16.0
290
     0
  0
SCALE
  5
4F
102
{ACAD_REACTORS
330
47
102
}
330
47
100
AcDbScale
 70
     0
300
1:20
140
1.0
141
20.0
290
     0
  0
SCALE
  5
50
102
{ACAD_REACTORS
330
47
102
}
330
47
100
AcDbScale
 70
     0
300
1:30
140
1.0
141
30.0
290
     0
  0
SCALE
  5
51
102
{ACAD_REACTORS
330
47
102
}
330
47
100
AcDbScale
 70
     0
300
1:40
140
1.0
141
40.0
290
     0
  0
SCALE
  5
52
102
{ACAD_REACTORS
330
47
102
}
330
47
100
AcDbScale
 70
     0
300
1:50
140
1.0
141
50.0
290
     0
  0
SCALE
  5
53
102
{ACAD_REACTORS
330
47
102
}
330
47
100
AcDbScale
 70
     0
300
1:100
140
1.0
141
100.0
290
     0
  0
SCALE
  5
54
102
{ACAD_REACTORS
330
47
102
}
330
47
100
AcDbScale
 70
     0
300
2:1
140
2.0
141
1.0
290
     0
  0
SCALE
  5
55
102
{ACAD_REACTORS
330
47
102
}
330
47
100
AcDbScale
 70
     0
300
4:1
140
4.0
141
1.0
290
     0
  0
SCALE
  5
56
102
{ACAD_REACTORS
330
47
102
}
330
47
100
AcDbScale
 70
     0
300
8:1
140
8.0
141
1.0
290
     0
  0
SCALE
  5
57
102
{ACAD_REACTORS
330
47
102
}
330
47
100
AcDbScale
 70
     0
300
10:1
140
10.0
141
1.0
290
     0
  0
SCALE
  5
58
102
{ACAD_REACTORS
330
47
102
}
330
47
100
AcDbScale
 70
     0
300
100:1
140
100.0
141
1.0
290
     0
  0
SCALE
  5
59
102
{ACAD_REACTORS
330
47
102
}
330
47
100
AcDbScale
 70
     0
300
1/128" = 1'-0"
140
0.0078125
141
12.0
290
     0
  0
SCALE
  5
5A
102
{ACAD_REACTORS
330
47
102
}
330
47
100
AcDbScale
 70
     0
300
1/64" = 1'-0"
140
0.015625
141
12.0
290
     0
  0
SCALE
  5
5B
102
{ACAD_REACTORS
330
47
102
}
330
47
100
AcDbScale
 70
     0
300
1/32" = 1'-0"
140
0.03125
141
12.0
290
     0
  0
SCALE
  5
5C
102
{ACAD_REACTORS
330
47
102
}
330
47
100
AcDbScale
 70
     0
300
1/16" = 1'-0"
140
0.0625
141
12.0
290
     0
  0
SCALE
  5
5D
102
{ACAD_REACTORS
330
47
102
}
330
47
100
AcDbScale
 70
     0
300
3/32" = 1'-0"
140
0.09375
141
12.0
290
     0
  0
SCALE
  5
5E
102
{ACAD_REACTORS
330
47
102
}
330
47
100
AcDbScale
 70
     0
300
1/8" = 1'-0"
140
0.125
141
12.0
290
     0
  0
SCALE
  5
5F
102
{ACAD_REACTORS
330
47
102
}
330
47
100
AcDbScale
 70
     0
300
3/16" = 1'-0"
140
0.1875
141
12.0
290
     0
  0
SCALE
  5
60
102
{ACAD_REACTORS
330
47
102
}
330
47
100
AcDbScale
 70
     0
300
1/4" = 1'-0"
140
0.25
141
12.0
290
     0
  0
SCALE
  5
61
102
{ACAD_REACTORS
330
47
102
}
330
47
100
AcDbScale
 70
     0
300
3/8" = 1'-0"
140
0.375
141
12.0
290
     0
  0
SCALE
  5
62
102
{ACAD_REACTORS
330
47
102
}
330
47
100
AcDbScale
 70
     0
300
1/2" = 1'-0"
140
0.5
141
12.0
290
     0
  0
SCALE
  5
63
102
{ACAD_REACTORS
330
47
102
}
330
47
100
AcDbScale
 70
     0
300
3/4" = 1'-0"
140
0.75
141
12.0
290
     0
  0
SCALE
  5
64
102
{ACAD_REACTORS
330
47
102
}
330
47
100
AcDbScale
 70
     0
300
1" = 1'-0"
140
1.0
141
12.0
290
     0
  0
SCALE
  5
65
102
{ACAD_REACTORS
330
47
102
}
330
47
100
AcDbScale
 70
     0
300
1-1/2" = 1'-0"
140
1.5
141
12.0
290
     0
  0
SCALE
  5
66
102
{ACAD_REACTORS
330
47
102
}
330
47
100
AcDbScale
 70
     0
300
3" = 1'-0"
140
3.0
141
12.0
290
     0
  0
SCALE
  5
67
102
{ACAD_REACTORS
330
47
102
}
330
47
100
AcDbScale
 70
     0
300
6" = 1'-0"
140
6.0
141
12.0
290
     0
  0
SCALE
  5
68
102
{ACAD_REACTORS
330
47
102
}
330
47
100
AcDbScale
 70
     0
300
1'-0" = 1'-0"
140
12.0
141
12.0
290
     0
  0
ENDSEC
  0
EOF
