  0
SECTION
  2
HEADER
  9
$ACADVER
  1
AC1015
  9
$ACADMAINTVER
 70
     6
  9
$DWGCODEPAGE
  3
ANSI_1252
  9
$INSBASE
 10
0.0
 20
0.0
 30
0.0
  9
$EXTMIN
 10
0.0
 20
0.0
 30
0.0
  9
$EXTMAX
 10
297.0
 20
210.0
 30
0.0
  9
$LIMMIN
 10
0.0
 20
0.0
  9
$LIMMAX
 10
297.0
 20
210.0
  9
$ORTHOMODE
 70
     0
  9
$REGENMODE
 70
     1
  9
$FILLMODE
 70
     1
  9
$QTEXTMODE
 70
     0
  9
$MIRRTEXT
 70
     1
  9
$LTSCALE
 40
1.0
  9
$ATTMODE
 70
     1
  9
$TEXTSIZE
 40
2.0
  9
$TRACEWID
 40
1.0
  9
$TEXTSTYLE
  7
Standard
  9
$CLAYER
  8
0
  9
$CELTYPE
  6
ByLayer
  9
$CECOLOR
 62
   256
  9
$CELTSCALE
 40
1.0
  9
$DISPSILH
 70
     0
  9
$DIMSCALE
 40
1.0
  9
$DIMASZ
 40
3.0
  9
$DIMEXO
 40
0.0
  9
$DIMDLI
 40
3.75
  9
$DIMRND
 40
0.0
  9
$DIMDLE
 40
0.0
  9
$DIMEXE
 40
1.0
  9
$DIMTP
 40
0.0
  9
$DIMTM
 40
0.0
  9
$DIMTXT
 40
2.0
  9
$DIMCEN
 40
2.5
  9
$DIMTSZ
 40
0.0
  9
$DIMTOL
 70
     0
  9
$DIMLIM
 70
     0
  9
$DIMTIH
 70
     1
  9
$DIMTOH
 70
     1
  9
$DIMSE1
 70
     0
  9
$DIMSE2
 70
     0
  9
$DIMTAD
 70
     1
  9
$DIMZIN
 70
     0
  9
$DIMBLK
  1

  9
$DIMASO
 70
     1
  9
$DIMSHO
 70
     1
  9
$DIMPOST
  1

  9
$DIMAPOST
  1

  9
$DIMALT
 70
     0
  9
$DIMALTD
 70
     3
  9
$DIMALTF
 40
0.0393700787
  9
$DIMLFAC
 40
1.0
  9
$DIMTOFL
 70
     1
  9
$DIMTVP
 40
0.0
  9
$DIMTIX
 70
     0
  9
$DIMSOXD
 70
     0
  9
$DIMSAH
 70
     0
  9
$DIMBLK1
  1

  9
$DIMBLK2
  1

  9
$DIMSTYLE
  2
ISO-25
  9
$DIMCLRD
 70
     0
  9
$DIMCLRE
 70
     0
  9
$DIMCLRT
 70
     0
  9
$DIMTFAC
 40
1.0
  9
$DIMGAP
 40
1.524
  9
$DIMJUST
 70
     0
  9
$DIMSD1
 70
     0
  9
$DIMSD2
 70
     0
  9
$DIMTOLJ
 70
     0
  9
$DIMTZIN
 70
     0
  9
$DIMALTZ
 70
     0
  9
$DIMALTTZ
 70
     0
  9
$DIMUPT
 70
     0
  9
$DIMDEC
 70
     2
  9
$DIMTDEC
 70
     3
  9
$DIMALTU
 70
     2
  9
$DIMALTTD
 70
     3
  9
$DIMTXSTY
  7
Standard
  9
$DIMAUNIT
 70
     0
  9
$DIMADEC
 70
     2
  9
$DIMALTRND
 40
0.0
  9
$DIMAZIN
 70
     0
  9
$DIMDSEP
 70
    44
  9
$DIMATFIT
 70
     3
  9
$DIMFRAC
 70
     0
  9
$DIMLDRBLK
  1

  9
$DIMLUNIT
 70
     2
  9
$DIMLWD
 70
    -2
  9
$DIMLWE
 70
    -2
  9
$DIMTMOVE
 70
     0
  9
$LUNITS
 70
     2
  9
$LUPREC
 70
     2
  9
$SKETCHINC
 40
1.0
  9
$FILLETRAD
 40
10.0
  9
$AUNITS
 70
     0
  9
$AUPREC
 70
     2
  9
$MENU
  1
.
  9
$ELEVATION
 40
0.0
  9
$PELEVATION
 40
0.0
  9
$THICKNESS
 40
0.0
  9
$LIMCHECK
 70
     0
  9
$CHAMFERA
 40
0.0
  9
$CHAMFERB
 40
0.0
  9
$CHAMFERC
 40
0.0
  9
$CHAMFERD
 40
0.0
  9
$SKPOLY
 70
     0
  9
$TDCREATE
 40
2457655.342074271
  9
$TDUCREATE
 40
2457655.258740937
  9
$TDUPDATE
 40
2457655.342075544
  9
$TDUUPDATE
 40
2457655.25874221
  9
$TDINDWG
 40
0.0000000116
  9
$TDUSRTIMER
 40
0.0000000116
  9
$USRTIMER
 70
     1
  9
$ANGBASE
 50
0.0
  9
$ANGDIR
 70
     0
  9
$PDMODE
 70
     0
  9
$PDSIZE
 40
-1.0
  9
$PLINEWID
 40
0.0
  9
$SPLFRAME
 70
     0
  9
$SPLINETYPE
 70
     6
  9
$SPLINESEGS
 70
     8
  9
$HANDSEED
  5
20B
  9
$SURFTAB1
 70
     6
  9
$SURFTAB2
 70
     6
  9
$SURFTYPE
 70
     6
  9
$SURFU
 70
     6
  9
$SURFV
 70
     6
  9
$UCSBASE
  2

  9
$UCSNAME
  2

  9
$UCSORG
 10
0.0
 20
0.0
 30
0.0
  9
$UCSXDIR
 10
1.0
 20
0.0
 30
0.0
  9
$UCSYDIR
 10
0.0
 20
1.0
 30
0.0
  9
$UCSORTHOREF
  2

  9
$UCSORTHOVIEW
 70
     0
  9
$UCSORGTOP
 10
0.0
 20
0.0
 30
0.0
  9
$UCSORGBOTTOM
 10
0.0
 20
0.0
 30
0.0
  9
$UCSORGLEFT
 10
0.0
 20
0.0
 30
0.0
  9
$UCSORGRIGHT
 10
0.0
 20
0.0
 30
0.0
  9
$UCSORGFRONT
 10
0.0
 20
0.0
 30
0.0
  9
$UCSORGBACK
 10
0.0
 20
0.0
 30
0.0
  9
$PUCSBASE
  2

  9
$PUCSNAME
  2

  9
$PUCSORG
 10
0.0
 20
0.0
 30
0.0
  9
$PUCSXDIR
 10
1.0
 20
0.0
 30
0.0
  9
$PUCSYDIR
 10
0.0
 20
1.0
 30
0.0
  9
$PUCSORTHOREF
  2

  9
$PUCSORTHOVIEW
 70
     0
  9
$PUCSORGTOP
 10
0.0
 20
0.0
 30
0.0
  9
$PUCSORGBOTTOM
 10
0.0
 20
0.0
 30
0.0
  9
$PUCSORGLEFT
 10
0.0
 20
0.0
 30
0.0
  9
$PUCSORGRIGHT
 10
0.0
 20
0.0
 30
0.0
  9
$PUCSORGFRONT
 10
0.0
 20
0.0
 30
0.0
  9
$PUCSORGBACK
 10
0.0
 20
0.0
 30
0.0
  9
$USERI1
 70
     0
  9
$USERI2
 70
     0
  9
$USERI3
 70
     0
  9
$USERI4
 70
     0
  9
$USERI5
 70
     0
  9
$USERR1
 40
0.0
  9
$USERR2
 40
0.0
  9
$USERR3
 40
0.0
  9
$USERR4
 40
0.0
  9
$USERR5
 40
0.0
  9
$WORLDVIEW
 70
     1
  9
$SHADEDGE
 70
     3
  9
$SHADEDIF
 70
    70
  9
$TILEMODE
 70
     1
  9
$MAXACTVP
 70
    64
  9
$PINSBASE
 10
0.0
 20
0.0
 30
0.0
  9
$PLIMCHECK
 70
     0
  9
$PEXTMIN
 10
1.0000000000E+20
 20
1.0000000000E+20
 30
1.0000000000E+20
  9
$PEXTMAX
 10
-1.0000000000E+20
 20
-1.0000000000E+20
 30
-1.0000000000E+20
  9
$PLIMMIN
 10
0.0
 20
0.0
  9
$PLIMMAX
 10
420.0
 20
297.0
  9
$UNITMODE
 70
     0
  9
$VISRETAIN
 70
     1
  9
$PLINEGEN
 70
     0
  9
$PSLTSCALE
 70
     1
  9
$TREEDEPTH
 70
  3020
  9
$CMLSTYLE
  2
Standard
  9
$CMLJUST
 70
     0
  9
$CMLSCALE
 40
20.0
  9
$PROXYGRAPHICS
 70
     1
  9
$MEASUREMENT
 70
     1
  9
$CELWEIGHT
370
    -1
  9
$ENDCAPS
280
     0
  9
$JOINSTYLE
280
     0
  9
$LWDISPLAY
290
     1
  9
$INSUNITS
 70
     4
  9
$HYPERLINKBASE
  1

  9
$STYLESHEET
  1

  9
$XEDIT
290
     1
  9
$CEPSNTYPE
380
     0
  9
$PSTYLEMODE
290
     1
  9
$FINGERPRINTGUID
  2
{66AC2049-E1F0-4BD1-9FA6-5584619220DD}
  9
$VERSIONGUID
  2
{FAEB1C32-E019-11D5-929B-00C0DF256EC4}
  9
$EXTNAMES
290
     1
  9
$PSVPSCALE
 40
0.0
  9
$OLESTARTUP
290
     0
  0
ENDSEC
  0
SECTION
  2
CLASSES
  0
CLASS
  1
ACDBDICTIONARYWDFLT
  2
AcDbDictionaryWithDefault
  3
ObjectDBX Classes
 90
        0
280
     0
281
     0
  0
CLASS
  1
VISUALSTYLE
  2
AcDbVisualStyle
  3
ObjectDBX Classes
 90
     4095
280
     0
281
     0
  0
CLASS
  1
MATERIAL
  2
AcDbMaterial
  3
ObjectDBX Classes
 90
     1153
280
     0
281
     0
  0
CLASS
  1
SCALE
  2
AcDbScale
  3
ObjectDBX Classes
 90
     1153
280
     0
281
     0
  0
CLASS
  1
TABLESTYLE
  2
AcDbTableStyle
  3
ObjectDBX Classes
 90
     4095
280
     0
281
     0
  0
CLASS
  1
MLEADERSTYLE
  2
AcDbMLeaderStyle
  3
ACDB_MLEADERSTYLE_CLASS
 90
     4095
280
     0
281
     0
  0
CLASS
  1
SUN
  2
AcDbSun
  3
SCENEOE
 90
     1153
280
     0
281
     0
  0
CLASS
  1
ACDBPLACEHOLDER
  2
AcDbPlaceHolder
  3
ObjectDBX Classes
 90
        0
280
     0
281
     0
  0
CLASS
  1
LAYOUT
  2
AcDbLayout
  3
ObjectDBX Classes
 90
        0
280
     0
281
     0
  0
ENDSEC
  0
SECTION
  2
TABLES
  0
TABLE
  2
VPORT
  5
8
330
0
100
AcDbSymbolTable
 70
     1
  0
VPORT
  5
29
330
8
100
AcDbSymbolTableRecord
100
AcDbViewportTableRecord
  2
*Active
 70
     0
 10
0.0
 20
0.0
 11
1.0
 21
1.0
 12
148.5
 22
105.0
 13
0.0
 23
0.0
 14
10.0
 24
10.0
 15
10.0
 25
10.0
 16
0.0
 26
0.0
 36
1.0
 17
0.0
 27
0.0
 37
0.0
 40
210.0
 41
1.4142857143
 42
50.0
 43
0.0
 44
0.0
 50
0.0
 51
0.0
 71
     0
 72
  2000
 73
     1
 74
     3
 75
     0
 76
     0
 77
     0
 78
     0
281
     0
 65
     1
110
0.0
120
0.0
130
0.0
111
1.0
121
0.0
131
0.0
112
0.0
122
1.0
132
0.0
 79
     0
146
0.0
  0
ENDTAB
  0
TABLE
  2
LTYPE
  5
5
330
0
100
AcDbSymbolTable
 70
     6
  0
LTYPE
  5
14
330
5
100
AcDbSymbolTableRecord
100
AcDbLinetypeTableRecord
  2
ByBlock
 70
     0
  3

 72
    65
 73
     0
 40
0.0
  0
LTYPE
  5
15
330
5
100
AcDbSymbolTableRecord
100
AcDbLinetypeTableRecord
  2
ByLayer
 70
     0
  3

 72
    65
 73
     0
 40
0.0
  0
LTYPE
  5
16
330
5
100
AcDbSymbolTableRecord
100
AcDbLinetypeTableRecord
  2
Continuous
 70
     0
  3
Solid line
 72
    65
 73
     0
 40
0.0
  0
LTYPE
  5
6E
330
5
100
AcDbSymbolTableRecord
100
AcDbLinetypeTableRecord
  2
HIDDEN
 70
     0
  3
Hidden __ __ __ __ __ __ __ __ __ __ __ __ __ __
 72
    65
 73
     2
 40
1.905
 49
1.27
 74
     0
 49
-0.635
 74
     0
  0
LTYPE
  5
6F
330
5
100
AcDbSymbolTableRecord
100
AcDbLinetypeTableRecord
  2
PHANTOM
 70
     0
  3
Phantom ______  __  __  ______  __  __  ______
 72
    65
 73
     6
 40
12.7
 49
6.35
 74
     0
 49
-1.27
 74
     0
 49
1.27
 74
     0
 49
-1.27
 74
     0
 49
1.27
 74
     0
 49
-1.27
 74
     0
  0
LTYPE
  5
70
330
5
100
AcDbSymbolTableRecord
100
AcDbLinetypeTableRecord
  2
CENTER
 70
     0
  3
Center ____ _ ____ _ ____ _ ____ _ ____ _ ____
 72
    65
 73
     4
 40
10.16
 49
6.35
 74
     0
 49
-1.27
 74
     0
 49
1.27
 74
     0
 49
-1.27
 74
     0
  0
LTYPE
  5
71
330
5
100
AcDbSymbolTableRecord
100
AcDbLinetypeTableRecord
  2
CENTERX2
 70
     0
  3
Center (2x) ________  __  ________  __  _____
 72
    65
 73
     4
 40
20.32
 49
12.7
 74
     0
 49
-2.54
 74
     0
 49
2.54
 74
     0
 49
-2.54
 74
     0
  0
LTYPE
  5
72
330
5
100
AcDbSymbolTableRecord
100
AcDbLinetypeTableRecord
  2
DOT2
 70
     0
  3
Dot (.5x) ........................................
 72
    65
 73
     2
 40
0.635
 49
0.0
 74
     0
 49
-0.635
 74
     0
  0
ENDTAB
  0
TABLE
  2
LAYER
  5
2
330
0
100
AcDbSymbolTable
 70
     5
  0
LAYER
  5
10
330
2
100
AcDbSymbolTableRecord
100
AcDbLayerTableRecord
  2
0
 70
     0
 62
     7
  6
Continuous
370
    -3
390
F
  0
LAYER
  5
73
330
2
100
AcDbSymbolTableRecord
100
AcDbLayerTableRecord
  2
FORMAT
 70
     0
 62
     7
  6
Continuous
370
    -3
390
F
  0
LAYER
  5
74
330
2
100
AcDbSymbolTableRecord
100
AcDbLayerTableRecord
  2
VERMASSUNG
 70
     0
 62
     7
  6
Continuous
370
    -3
390
F
  0
LAYER
  5
75
330
2
100
AcDbSymbolTableRecord
100
AcDbLayerTableRecord
  2
KOPF_DÜNN
 70
     0
 62
     7
  6
Continuous
370
    -3
390
F
  0
LAYER
  5
76
330
2
100
AcDbSymbolTableRecord
100
AcDbLayerTableRecord
  2
KOPF_DICK
 70
     0
 62
     7
  6
Continuous
370
    15
390
F
  0
ENDTAB
  0
TABLE
  2
STYLE
  5
3
330
0
100
AcDbSymbolTable
 70
     3
  0
STYLE
  5
11
330
3
100
AcDbSymbolTableRecord
100
AcDbTextStyleTableRecord
  2
Standard
 70
     0
 40
0.0
 41
1.0
 50
0.0
 71
     0
 42
2.0
  3
txt
  4

  0
STYLE
  5
77
330
3
100
AcDbSymbolTableRecord
100
AcDbTextStyleTableRecord
  2
SLDTEXTSTYLE0
 70
     0
 40
0.0
 41
0.7
 50
0.0
 71
     0
 42
2.0
  3
TXT
  4

  0
STYLE
  5
7B
330
3
100
AcDbSymbolTableRecord
100
AcDbTextStyleTableRecord
  2
SLDTEXTSTYLE1
 70
     0
 40
0.0
 41
0.6444444444
 50
0.0
 71
     0
 42
2.0
  3
TXT
  4

  0
ENDTAB
  0
TABLE
  2
VIEW
  5
6
330
0
100
AcDbSymbolTable
 70
     0
  0
ENDTAB
  0
TABLE
  2
UCS
  5
7
330
0
100
AcDbSymbolTable
 70
     0
  0
ENDTAB
  0
TABLE
  2
APPID
  5
9
330
0
100
AcDbSymbolTable
 70
     1
  0
APPID
  5
12
330
9
100
AcDbSymbolTableRecord
100
AcDbRegAppTableRecord
  2
ACAD
 70
     0
  0
ENDTAB
  0
TABLE
  2
DIMSTYLE
  5
A
330
0
100
AcDbSymbolTable
 70
     2
100
AcDbDimStyleTable
  0
DIMSTYLE
105
27
330
A
100
AcDbSymbolTableRecord
100
AcDbDimStyleTableRecord
  2
ISO-25
 70
     0
 41
2.5
 42
0.625
 43
3.75
 44
1.25
 73
     0
 74
     0
 77
     1
 78
     8
140
2.5
141
2.5
143
0.0393700787
147
0.625
171
     3
172
     1
178
     0
271
     2
272
     2
274
     3
278
    44
283
     0
284
     8
340
11
  0
DIMSTYLE
105
136
102
{ACAD_REACTORS
330
135
330
140
330
14C
330
156
330
160
102
}
330
A
100
AcDbSymbolTableRecord
100
AcDbDimStyleTableRecord
  2
SLDDIMSTYLE0
 70
     0
 41
3.0
 44
0.0
 45
0.000000001
 73
     0
 74
     0
 77
     1
 78
    12
 79
     3
140
2.0
147
0.5
173
     1
178
     0
271
     2
272
     3
276
     2
284
    12
340
77
  0
ENDTAB
  0
TABLE
  2
BLOCK_RECORD
  5
1
330
0
100
AcDbSymbolTable
 70
     6
  0
BLOCK_RECORD
  5
1F
330
1
100
AcDbSymbolTableRecord
100
AcDbBlockTableRecord
  2
*Model_Space
340
22
  0
BLOCK_RECORD
  5
1B
330
1
100
AcDbSymbolTableRecord
100
AcDbBlockTableRecord
  2
*Paper_Space
340
1E
  0
BLOCK_RECORD
  5
23
330
1
100
AcDbSymbolTableRecord
100
AcDbBlockTableRecord
  2
*Paper_Space0
340
26
  0
BLOCK_RECORD
  5
137
330
1
100
AcDbSymbolTableRecord
100
AcDbBlockTableRecord
  2
_D
340
0
  0
BLOCK_RECORD
  5
141
330
1
100
AcDbSymbolTableRecord
100
AcDbBlockTableRecord
  2
_D_1
340
0
  0
BLOCK_RECORD
  5
14D
330
1
100
AcDbSymbolTableRecord
100
AcDbBlockTableRecord
  2
_D_2
340
0
  0
BLOCK_RECORD
  5
157
330
1
100
AcDbSymbolTableRecord
100
AcDbBlockTableRecord
  2
_D_3
340
0
  0
BLOCK_RECORD
  5
161
330
1
100
AcDbSymbolTableRecord
100
AcDbBlockTableRecord
  2
_D_4
340
0
  0
ENDTAB
  0
ENDSEC
  0
SECTION
  2
BLOCKS
  0
BLOCK
  5
20
330
1F
100
AcDbEntity
  8
0
100
AcDbBlockBegin
  2
*Model_Space
 70
     0
 10
0.0
 20
0.0
 30
0.0
  3
*Model_Space
  1

  0
ENDBLK
  5
21
330
1F
100
AcDbEntity
  8
0
100
AcDbBlockEnd
  0
BLOCK
  5
1C
330
1B
100
AcDbEntity
 67
     1
  8
0
100
AcDbBlockBegin
  2
*Paper_Space
 70
     0
 10
0.0
 20
0.0
 30
0.0
  3
*Paper_Space
  1

  0
ENDBLK
  5
1D
330
1B
100
AcDbEntity
 67
     1
  8
0
100
AcDbBlockEnd
  0
BLOCK
  5
24
330
23
100
AcDbEntity
  8
0
100
AcDbBlockBegin
  2
*Paper_Space0
 70
     0
 10
0.0
 20
0.0
 30
0.0
  3
*Paper_Space0
  1

  0
ENDBLK
  5
25
330
23
100
AcDbEntity
  8
0
100
AcDbBlockEnd
  0
BLOCK
  5
138
330
137
100
AcDbEntity
  8
0
100
AcDbBlockBegin
  2
_D
 70
     0
 10
0.0
 20
0.0
 30
0.0
  3
_D
  1

  0
SOLID
  5
13A
330
137
100
AcDbEntity
  8
VERMASSUNG
100
AcDbTrace
 10
168.7235728953
 20
138.1553600567
 30
0.0
 11
171.7235728953
 21
137.7053600567
 31
0.0
 12
171.7235728953
 22
138.6053600567
 32
0.0
 13
171.7235728953
 23
138.6053600567
 33
0.0
  0
SOLID
  5
13B
330
137
100
AcDbEntity
  8
VERMASSUNG
100
AcDbTrace
 10
188.7235728953
 20
138.1553600567
 30
0.0
 11
185.7235728953
 21
138.6053600567
 31
0.0
 12
185.7235728953
 22
137.7053600567
 32
0.0
 13
185.7235728953
 23
137.7053600567
 33
0.0
  0
LINE
  5
13C
330
137
100
AcDbEntity
  8
VERMASSUNG
100
AcDbLine
 10
168.7235728953
 20
129.8661601643
 30
0.0
 11
168.7235728953
 21
139.1553600567
 31
0.0
  0
LINE
  5
13D
330
137
100
AcDbEntity
  8
VERMASSUNG
100
AcDbLine
 10
188.7235728953
 20
133.8661601643
 30
0.0
 11
188.7235728953
 21
139.1553600567
 31
0.0
  0
LINE
  5
13E
330
137
100
AcDbEntity
  8
VERMASSUNG
100
AcDbLine
 10
168.7235728953
 20
138.1553600567
 30
0.0
 11
188.7235728953
 21
138.1553600567
 31
0.0
  0
MTEXT
  5
13F
330
137
100
AcDbEntity
  8
VERMASSUNG
100
AcDbMText
 10
177.323882885
 20
140.7334956527
 30
0.0
 40
2.0
 41
0.0
 71
     1
 72
     1
  1
20
  7
SLDTEXTSTYLE0
 73
     1
 44
1.0
  0
ENDBLK
  5
139
330
137
100
AcDbEntity
  8
0
100
AcDbBlockEnd
  0
BLOCK
  5
142
330
141
100
AcDbEntity
  8
0
100
AcDbBlockBegin
  2
_D_1
 70
     0
 10
0.0
 20
0.0
 30
0.0
  3
_D_1
  1

  0
SOLID
  5
144
330
141
100
AcDbEntity
  8
VERMASSUNG
100
AcDbTrace
 10
92.4377687332
 20
129.8661601643
 30
0.0
 11
91.9877687332
 21
126.8661601643
 31
0.0
 12
92.8877687332
 22
126.8661601643
 32
0.0
 13
92.8877687332
 23
126.8661601643
 33
0.0
  0
SOLID
  5
145
330
141
100
AcDbEntity
  8
VERMASSUNG
100
AcDbTrace
 10
92.4377687332
 20
83.8661601643
 30
0.0
 11
92.8877687332
 21
86.8661601643
 31
0.0
 12
91.9877687332
 22
86.8661601643
 32
0.0
 13
91.9877687332
 23
86.8661601643
 33
0.0
  0
LINE
  5
146
330
141
100
AcDbEntity
  8
VERMASSUNG
100
AcDbLine
 10
166.7235714532
 20
129.8661601643
 30
0.0
 11
91.4377687332
 21
129.8661601643
 31
0.0
  0
LINE
  5
147
330
141
100
AcDbEntity
  8
VERMASSUNG
100
AcDbLine
 10
166.7235714844
 20
83.8661601643
 30
0.0
 11
91.4377687332
 21
83.8661601643
 31
0.0
  0
LINE
  5
148
330
141
100
AcDbEntity
  8
VERMASSUNG
100
AcDbLine
 10
92.4377687332
 20
129.8661601643
 30
0.0
 11
92.4377687332
 21
83.8661601643
 31
0.0
  0
MTEXT
  5
149
330
141
100
AcDbEntity
  8
VERMASSUNG
100
AcDbMText
 10
89.659633477
 20
96.1627780839
 30
0.0
 40
2.0
 41
0.0
 71
     1
 72
     1
  1
MAS BT 30
  7
SLDTEXTSTYLE0
 11
-7.044195017643634E-15
 21
1.0
 31
0.0
 73
     1
 44
1.0
  0
MTEXT
  5
14A
330
141
100
AcDbEntity
  8
VERMASSUNG
100
AcDbMText
 10
89.8596334283
 20
110.9627780884
 30
0.0
 40
2.0
 41
0.0
 71
     1
 72
     1
  1
%%c
  7
SLDTEXTSTYLE0
 11
-7.044195017643634E-15
 21
1.0
 31
0.0
 73
     1
 44
1.0
  0
MTEXT
  5
14B
330
141
100
AcDbEntity
  8
VERMASSUNG
100
AcDbMText
 10
89.8596331373
 20
114.5716246339
 30
0.0
 40
2.0
 41
0.0
 71
     1
 72
     1
  1
46
  7
SLDTEXTSTYLE0
 11
-7.044195017643634E-15
 21
1.0
 31
0.0
 73
     1
 44
1.0
  0
ENDBLK
  5
143
330
141
100
AcDbEntity
  8
0
100
AcDbBlockEnd
  0
BLOCK
  5
14E
330
14D
100
AcDbEntity
  8
0
100
AcDbBlockBegin
  2
_D_2
 70
     0
 10
0.0
 20
0.0
 30
0.0
  3
_D_2
  1

  0
SOLID
  5
150
330
14D
100
AcDbEntity
  8
VERMASSUNG
100
AcDbTrace
 10
146.7235728953
 20
144.1553600567
 30
0.0
 11
149.7235728953
 21
143.7053600567
 31
0.0
 12
149.7235728953
 22
144.6053600567
 32
0.0
 13
149.7235728953
 23
144.6053600567
 33
0.0
  0
SOLID
  5
151
330
14D
100
AcDbEntity
  8
VERMASSUNG
100
AcDbTrace
 10
188.7235728953
 20
144.1553600567
 30
0.0
 11
185.7235728953
 21
144.6053600567
 31
0.0
 12
185.7235728953
 22
143.7053600567
 32
0.0
 13
185.7235728953
 23
143.7053600567
 33
0.0
  0
LINE
  5
152
330
14D
100
AcDbEntity
  8
VERMASSUNG
100
AcDbLine
 10
146.7235728953
 20
122.7411601643
 30
0.0
 11
146.7235728953
 21
145.1553600567
 31
0.0
  0
LINE
  5
153
330
14D
100
AcDbEntity
  8
VERMASSUNG
100
AcDbLine
 10
188.7235728953
 20
133.8661601643
 30
0.0
 11
188.7235728953
 21
145.1553600567
 31
0.0
  0
LINE
  5
154
330
14D
100
AcDbEntity
  8
VERMASSUNG
100
AcDbLine
 10
146.7235728953
 20
144.1553600567
 30
0.0
 11
188.7235728953
 21
144.1553600567
 31
0.0
  0
MTEXT
  5
155
330
14D
100
AcDbEntity
  8
VERMASSUNG
100
AcDbMText
 10
166.2246140899
 20
146.7334956527
 30
0.0
 40
2.0
 41
0.0
 71
     1
 72
     1
  1
42
  7
SLDTEXTSTYLE0
 73
     1
 44
1.0
  0
ENDBLK
  5
14F
330
14D
100
AcDbEntity
  8
0
100
AcDbBlockEnd
  0
BLOCK
  5
158
330
157
100
AcDbEntity
  8
0
100
AcDbBlockBegin
  2
_D_3
 70
     0
 10
0.0
 20
0.0
 30
0.0
  3
_D_3
  1

  0
SOLID
  5
15A
330
157
100
AcDbEntity
  8
VERMASSUNG
100
AcDbTrace
 10
98.3235728953
 20
150.1553600567
 30
0.0
 11
101.3235728953
 21
149.7053600567
 31
0.0
 12
101.3235728953
 22
150.6053600567
 32
0.0
 13
101.3235728953
 23
150.6053600567
 33
0.0
  0
SOLID
  5
15B
330
157
100
AcDbEntity
  8
VERMASSUNG
100
AcDbTrace
 10
188.7235728953
 20
150.1553600567
 30
0.0
 11
185.7235728953
 21
150.6053600567
 31
0.0
 12
185.7235728953
 22
149.7053600567
 32
0.0
 13
185.7235728953
 23
149.7053600567
 33
0.0
  0
LINE
  5
15C
330
157
100
AcDbEntity
  8
VERMASSUNG
100
AcDbLine
 10
98.3235728953
 20
115.2504546295
 30
0.0
 11
98.3235728953
 21
151.1553600567
 31
0.0
  0
LINE
  5
15D
330
157
100
AcDbEntity
  8
VERMASSUNG
100
AcDbLine
 10
188.7235728953
 20
133.8661601643
 30
0.0
 11
188.7235728953
 21
151.1553600567
 31
0.0
  0
LINE
  5
15E
330
157
100
AcDbEntity
  8
VERMASSUNG
100
AcDbLine
 10
98.3235728953
 20
150.1553600567
 30
0.0
 11
188.7235728953
 21
150.1553600567
 31
0.0
  0
MTEXT
  5
15F
330
157
100
AcDbEntity
  8
VERMASSUNG
100
AcDbMText
 10
141.0242052331
 20
152.7334956527
 30
0.0
 40
2.0
 41
0.0
 71
     1
 72
     1
  1
90.4
  7
SLDTEXTSTYLE0
 73
     1
 44
1.0
  0
ENDBLK
  5
159
330
157
100
AcDbEntity
  8
0
100
AcDbBlockEnd
  0
BLOCK
  5
162
330
161
100
AcDbEntity
  8
0
100
AcDbBlockBegin
  2
_D_4
 70
     0
 10
0.0
 20
0.0
 30
0.0
  3
_D_4
  1

  0
SOLID
  5
164
330
161
100
AcDbEntity
  8
VERMASSUNG
100
AcDbTrace
 10
195.4604466718
 20
134.3661601643
 30
0.0
 11
195.0104466718
 21
131.3661601643
 31
0.0
 12
195.9104466718
 22
131.3661601643
 32
0.0
 13
195.9104466718
 23
131.3661601643
 33
0.0
  0
SOLID
  5
165
330
161
100
AcDbEntity
  8
VERMASSUNG
100
AcDbTrace
 10
195.4604466718
 20
79.3661601643
 30
0.0
 11
195.9104466718
 21
82.3661601643
 31
0.0
 12
195.0104466718
 22
82.3661601643
 32
0.0
 13
195.0104466718
 23
82.3661601643
 33
0.0
  0
LINE
  5
166
330
161
100
AcDbEntity
  8
VERMASSUNG
100
AcDbLine
 10
188.2235728953
 20
134.3661601643
 30
0.0
 11
196.4604466718
 21
134.3661601643
 31
0.0
  0
LINE
  5
167
330
161
100
AcDbEntity
  8
VERMASSUNG
100
AcDbLine
 10
188.2235728953
 20
79.3661601643
 30
0.0
 11
196.4604466718
 21
79.3661601643
 31
0.0
  0
LINE
  5
168
330
161
100
AcDbEntity
  8
VERMASSUNG
100
AcDbLine
 10
195.4604466718
 20
134.3661601643
 30
0.0
 11
195.4604466718
 21
79.3661601643
 31
0.0
  0
MTEXT
  5
169
330
161
100
AcDbEntity
  8
VERMASSUNG
100
AcDbMText
 10
192.6823114156
 20
100.4611605207
 30
0.0
 40
2.0
 41
0.0
 71
     1
 72
     1
  1
MBM
  7
SLDTEXTSTYLE0
 11
-7.044195017643634E-15
 21
1.0
 31
0.0
 73
     1
 44
1.0
  0
MTEXT
  5
16A
330
161
100
AcDbEntity
  8
VERMASSUNG
100
AcDbMText
 10
192.8823113669
 20
106.861160359
 30
0.0
 40
2.0
 41
0.0
 71
     1
 72
     1
  1
%%c
  7
SLDTEXTSTYLE0
 11
-7.044195017643634E-15
 21
1.0
 31
0.0
 73
     1
 44
1.0
  0
MTEXT
  5
16B
330
161
100
AcDbEntity
  8
VERMASSUNG
100
AcDbMText
 10
192.6823114156
 20
110.471160839
 30
0.0
 40
2.0
 41
0.0
 71
     1
 72
     1
  1
55
  7
SLDTEXTSTYLE0
 11
-7.044195017643634E-15
 21
1.0
 31
0.0
 73
     1
 44
1.0
  0
ENDBLK
  5
163
330
161
100
AcDbEntity
  8
0
100
AcDbBlockEnd
  0
ENDSEC
  0
SECTION
  2
ENTITIES
  0
MTEXT
  5
78
330
1F
100
AcDbEntity
  8
KOPF_DÜNN
100
AcDbMText
 10
13.8892156294
 20
23.8442973028
 30
0.0
 40
3.0
 41
0.0
 71
     1
 72
     1
  1
102.312.551
  7
SLDTEXTSTYLE0
 73
     1
 44
1.0
  0
MTEXT
  5
79
330
1F
100
AcDbEntity
  8
VERMASSUNG
100
AcDbMText
 10
13.9329988022
 20
28.8834360957
 30
0.0
 40
3.0
 41
0.0
 71
     1
 72
     1
  1
Aufnahme_Master shank MBM 55
  7
SLDTEXTSTYLE0
 73
     1
 44
1.0
  0
MTEXT
  5
7A
330
1F
100
AcDbEntity
  8
VERMASSUNG
100
AcDbMText
 10
98.8601118557
 20
13.8365368761
 30
0.0
 40
2.0
 41
0.0
 71
     1
 72
     1
  1
Datum: 21.11.2007
  7
SLDTEXTSTYLE0
 73
     1
 44
1.0
  0
MTEXT
  5
7C
330
1F
100
AcDbEntity
  8
VERMASSUNG
100
AcDbMText
 10
13.933048693
 20
18.0482802738
 30
0.0
 40
2.0
 41
0.0
 71
     1
 72
     1
  1
MAS BT 30 / MBM 55
  7
SLDTEXTSTYLE1
 73
     1
 44
1.0
  0
MTEXT
  5
7D
330
1F
100
AcDbEntity
  8
VERMASSUNG
100
AcDbMText
 10
13.9808475933
 20
13.9090974274
 30
0.0
 40
2.0
 41
0.0
 71
     1
 72
     1
  1
Gewicht: 545g
  7
SLDTEXTSTYLE0
 73
     1
 44
1.0
  0
LINE
  5
7E
330
1F
100
AcDbEntity
  8
0
  6
Continuous
 62
     7
370
    15
100
AcDbLine
 10
188.2235728953
 20
79.3661601643
 30
0.0
 11
188.7235728953
 21
79.8661601643
 31
0.0
  0
LINE
  5
7F
330
1F
100
AcDbEntity
  8
0
  6
Continuous
 62
     7
370
    15
100
AcDbLine
 10
188.7235728953
 20
133.8661601643
 30
0.0
 11
188.2235728953
 21
134.3661601643
 31
0.0
  0
LINE
  5
80
330
1F
100
AcDbEntity
  8
0
  6
Continuous
 62
     7
370
    15
100
AcDbLine
 10
173.6377864577
 20
79.3661601643
 30
0.0
 11
188.2235728953
 21
79.3661601643
 31
0.0
  0
LINE
  5
81
330
1F
100
AcDbEntity
  8
0
  6
Continuous
 62
     7
370
    15
100
AcDbLine
 10
188.2235728953
 20
134.3661601643
 30
0.0
 11
173.6377864577
 21
134.3661601643
 31
0.0
  0
LINE
  5
82
330
1F
100
AcDbEntity
  8
0
  6
Continuous
 62
     7
370
    15
100
AcDbLine
 10
172.9306796765
 20
134.0732669455
 30
0.0
 11
169.0164661141
 21
130.1590533831
 31
0.0
  0
LINE
  5
83
330
1F
100
AcDbEntity
  8
0
  6
Continuous
 62
     7
370
    15
100
AcDbLine
 10
169.0164661141
 20
83.5732669455
 30
0.0
 11
172.9306796765
 21
79.6590533831
 31
0.0
  0
ARC
  5
84
330
1F
100
AcDbEntity
  8
0
  6
Continuous
 62
     7
370
    15
100
AcDbCircle
 10
173.6377864577
 20
80.3661601643
 30
0.0
 40
1.0
100
AcDbArc
 50
225.0
 51
270.0
  0
ARC
  5
85
330
1F
100
AcDbEntity
  8
0
  6
Continuous
 62
     7
370
    15
100
AcDbCircle
 10
173.6377864577
 20
133.3661601643
 30
0.0
 40
1.0
100
AcDbArc
 50
90.0
 51
135.0
  0
ARC
  5
86
330
1F
100
AcDbEntity
  8
0
  6
Continuous
 62
     7
370
    15
100
AcDbCircle
 10
168.3093593329
 20
82.8661601643
 30
0.0
 40
1.000000000000008
100
AcDbArc
 50
45.0
 51
90.0
  0
ARC
  5
87
330
1F
100
AcDbEntity
  8
0
  6
Continuous
 62
     7
370
    15
100
AcDbCircle
 10
168.3093593329
 20
130.8661601643
 30
0.0
 40
1.000000000000008
100
AcDbArc
 50
270.0
 51
315.0
  0
LINE
  5
88
330
1F
100
AcDbEntity
  8
0
  6
Continuous
 62
     7
370
    15
100
AcDbLine
 10
166.7235316635
 20
83.8661601643
 30
0.0
 11
168.3093593329
 21
83.8661601643
 31
0.0
  0
LINE
  5
89
330
1F
100
AcDbEntity
  8
0
  6
Continuous
 62
     7
370
    15
100
AcDbLine
 10
168.3093593329
 20
129.8661601643
 30
0.0
 11
166.7234711134
 21
129.8661601643
 31
0.0
  0
ARC
  5
8A
330
1F
100
AcDbEntity
  8
0
  6
Continuous
 62
     7
370
    15
100
AcDbCircle
 10
147.7235728953
 20
89.9911601643
 30
0.0
 40
1.000000000000036
100
AcDbArc
 50
42.4528187395
 51
90.0
  0
ARC
  5
8B
330
1F
100
AcDbEntity
  8
0
  6
Continuous
 62
     7
370
    15
100
AcDbCircle
 10
147.7235728953
 20
123.7411601643
 30
0.0
 40
1.000000000000023
100
AcDbArc
 50
270.0
 51
317.5119543193
  0
LINE
  5
8C
330
1F
100
AcDbEntity
  8
0
  6
Continuous
 62
     7
370
    15
100
AcDbLine
 10
146.7235728953
 20
90.9911601643
 30
0.0
 11
147.7235728953
 21
90.9911601643
 31
0.0
  0
LINE
  5
8D
330
1F
100
AcDbEntity
  8
0
  6
Continuous
 62
     7
370
    15
100
AcDbLine
 10
147.7235728953
 20
122.7411601643
 30
0.0
 11
146.7235728953
 21
122.7411601643
 31
0.0
  0
LINE
  5
8E
330
1F
100
AcDbEntity
  8
0
  6
Continuous
 62
     7
370
    15
100
AcDbLine
 10
146.7235728953
 20
122.7411601643
 30
0.0
 11
98.7514194487
 21
115.74522112
 31
0.0
  0
LINE
  5
8F
330
1F
100
AcDbEntity
  8
0
  6
Continuous
 62
     7
370
    15
100
AcDbLine
 10
98.7514194487
 20
97.9870992086
 30
0.0
 11
146.7235728953
 21
90.9911601643
 31
0.0
  0
ARC
  5
90
330
1F
100
AcDbEntity
  8
0
  6
Continuous
 62
     7
370
    15
100
AcDbCircle
 10
98.8235728953
 20
98.4818656991
 30
0.0
 40
0.500000000000005
100
AcDbArc
 50
180.0
 51
261.7028550302
  0
ARC
  5
91
330
1F
100
AcDbEntity
  8
0
  6
Continuous
 62
     7
370
    15
100
AcDbCircle
 10
98.8235728953
 20
115.2504546295
 30
0.0
 40
0.500000000000005
100
AcDbArc
 50
98.2971449698
 51
180.0
  0
SPLINE
  5
92
330
1F
100
AcDbEntity
  8
0
  6
Continuous
 62
     7
370
    15
100
AcDbSpline
210
0.0
220
0.0
230
1.0
 70
    24
 71
     3
 72
    13
 73
     9
 74
     0
 42
0.000000001
 43
0.00000001
 40
0.0
 40
0.0
 40
0.0
 40
0.0
 40
0.1333078910201617
 40
0.3081793907436543
 40
0.4826178978901978
 40
0.6492099713623957
 40
0.8161279311171459
 40
1.0
 40
1.0
 40
1.0
 40
1.0
 10
175.9056237028461
 20
103.866160164271
 30
0.0
 10
175.7603542284612
 20
103.866160164271
 30
0.0
 10
175.4245222100639
 20
103.866160164271
 30
0.0
 10
174.866910407082
 20
103.866160164271
 30
0.0
 10
174.2464717163607
 20
103.866160164271
 30
0.0
 10
173.6327335093548
 20
103.866160164271
 30
0.0
 10
173.0266822515063
 20
103.866160164271
 30
0.0
 10
172.6427606090928
 20
103.866160164271
 30
0.0
 10
172.4415220877083
 20
103.866160164271
 30
0.0
  0
SPLINE
  5
93
330
1F
100
AcDbEntity
  8
0
  6
Continuous
 62
     7
370
    15
100
AcDbSpline
210
0.0
220
0.0
230
1.0
 70
    24
 71
     3
 72
    11
 73
     7
 74
     0
 42
0.000000001
 43
0.00000001
 40
0.0
 40
0.0
 40
0.0
 40
0.0
 40
0.216455377944345
 40
0.4403112895790571
 40
0.751900568803877
 40
0.9999999999999999
 40
0.9999999999999999
 40
0.9999999999999999
 40
0.9999999999999999
 10
177.637674510415
 20
106.866160164271
 30
0.0
 10
177.5190273518948
 20
106.6606572575405
 30
0.0
 10
177.2776765299887
 20
106.2426253715506
 30
0.0
 10
176.8297938653363
 20
105.4668698405433
 30
0.0
 10
176.3493593667534
 20
104.6347328792888
 30
0.0
 10
176.0419101375497
 20
104.1022151935601
 30
0.0
 10
175.9056237028461
 20
103.866160164271
 30
0.0
  0
SPLINE
  5
94
330
1F
100
AcDbEntity
  8
0
  6
Continuous
 62
     7
370
    15
100
AcDbSpline
210
0.0
220
0.0
230
1.0
 70
    24
 71
     3
 72
    11
 73
     7
 74
     0
 42
0.000000001
 43
0.00000001
 40
0.0
 40
0.0
 40
0.0
 40
0.0
 40
0.2164553779443449
 40
0.4403112895790563
 40
0.7519005688038767
 40
0.9999999999999999
 40
0.9999999999999999
 40
0.9999999999999999
 40
0.9999999999999999
 10
175.9056237028461
 20
109.8661601642711
 30
0.0
 10
176.0242708613662
 20
109.6606572575405
 30
0.0
 10
176.2656216832723
 20
109.2426253715506
 30
0.0
 10
176.7135043479247
 20
108.4668698405433
 30
0.0
 10
177.1939388465076
 20
107.6347328792888
 30
0.0
 10
177.5013880757114
 20
107.1022151935601
 30
0.0
 10
177.637674510415
 20
106.866160164271
 30
0.0
  0
SPLINE
  5
95
330
1F
100
AcDbEntity
  8
0
  6
Continuous
 62
     7
370
    15
100
AcDbSpline
210
0.0
220
0.0
230
1.0
 70
    24
 71
     3
 72
    13
 73
     9
 74
     0
 42
0.000000001
 43
0.00000001
 40
0.0
 40
0.0
 40
0.0
 40
0.0
 40
0.1838720688828539
 40
0.3507900286376051
 40
0.5173821021098041
 40
0.6918206092563465
 40
0.8666921089798383
 40
1.0
 40
1.0
 40
1.0
 40
1.0
 10
172.4415220877083
 20
109.8661601642711
 30
0.0
 10
172.6427606090928
 20
109.8661601642711
 30
0.0
 10
173.0266822515063
 20
109.8661601642711
 30
0.0
 10
173.6327335093548
 20
109.8661601642711
 30
0.0
 10
174.2464717163608
 20
109.8661601642711
 30
0.0
 10
174.866910407082
 20
109.8661601642711
 30
0.0
 10
175.4245222100639
 20
109.8661601642711
 30
0.0
 10
175.7603542284612
 20
109.8661601642711
 30
0.0
 10
175.9056237028461
 20
109.8661601642711
 30
0.0
  0
SPLINE
  5
96
330
1F
100
AcDbEntity
  8
0
  6
Continuous
 62
     7
370
    15
100
AcDbSpline
210
0.0
220
0.0
230
1.0
 70
    24
 71
     3
 72
    11
 73
     7
 74
     0
 42
0.000000001
 43
0.00000001
 40
0.0
 40
0.0
 40
0.0
 40
0.0
 40
0.2164553779443457
 40
0.4403112895790577
 40
0.7519005688038778
 40
1.0
 40
1.0
 40
1.0
 40
1.0
 10
170.7094712801394
 20
106.866160164271
 30
0.0
 10
170.8281184386595
 20
107.0716630710015
 30
0.0
 10
171.0694692605657
 20
107.4896949569915
 30
0.0
 10
171.5173519252181
 20
108.2654504879988
 30
0.0
 10
171.997786423801
 20
109.0975874492532
 30
0.0
 10
172.3052356530047
 20
109.630105134982
 30
0.0
 10
172.4415220877083
 20
109.8661601642711
 30
0.0
  0
CIRCLE
  5
97
330
1F
100
AcDbEntity
  8
0
  6
Continuous
 62
     7
370
    15
100
AcDbCircle
 10
174.1735728953
 20
106.8661601643
 30
0.0
 40
3.5
  0
SPLINE
  5
98
330
1F
100
AcDbEntity
  8
0
  6
Continuous
 62
     7
370
    15
100
AcDbSpline
210
0.0
220
0.0
230
1.0
 70
    24
 71
     3
 72
    11
 73
     7
 74
     0
 42
0.000000001
 43
0.00000001
 40
0.0
 40
0.0
 40
0.0
 40
0.0
 40
0.216455377944345
 40
0.440311289579057
 40
0.7519005688038776
 40
1.0
 40
1.0
 40
1.0
 40
1.0
 10
172.4415220877083
 20
103.866160164271
 30
0.0
 10
172.3228749291882
 20
104.0716630710015
 30
0.0
 10
172.0815241072821
 20
104.4896949569915
 30
0.0
 10
171.6336414426297
 20
105.2654504879988
 30
0.0
 10
171.1532069440468
 20
106.0975874492532
 30
0.0
 10
170.8457577148431
 20
106.630105134982
 30
0.0
 10
170.7094712801394
 20
106.866160164271
 30
0.0
  0
CIRCLE
  5
99
330
1F
100
AcDbEntity
  8
0
  6
Continuous
 62
     7
370
    15
100
AcDbCircle
 10
174.1735728953
 20
106.8661601643
 30
0.0
 40
5.5
  0
CIRCLE
  5
9A
330
1F
100
AcDbEntity
  8
0
  6
Continuous
 62
     7
370
    15
100
AcDbCircle
 10
174.1735728953
 20
106.8661601643
 30
0.0
 40
6.0
  0
ARC
  5
9B
330
1F
100
AcDbEntity
  8
0
  6
Continuous
 62
     7
370
    15
100
AcDbCircle
 10
174.1735728953
 20
106.8661601643
 30
0.0
 40
3.000000000000014
100
AcDbArc
 50
30.0
 51
90.0
  0
ARC
  5
9C
330
1F
100
AcDbEntity
  8
0
  6
Continuous
 62
     7
370
    15
100
AcDbCircle
 10
174.1735728953
 20
106.8661601643
 30
0.0
 40
3.0
100
AcDbArc
 50
210.0
 51
270.0
  0
ARC
  5
9D
330
1F
100
AcDbEntity
  8
0
  6
Continuous
 62
     7
370
    15
100
AcDbCircle
 10
174.1735728953
 20
106.8661601643
 30
0.0
 40
3.000000000000007
100
AcDbArc
 50
330.0
 51
30.0
  0
ARC
  5
9E
330
1F
100
AcDbEntity
  8
0
  6
Continuous
 62
     7
370
    15
100
AcDbCircle
 10
174.1735728953
 20
106.8661601643
 30
0.0
 40
3.000000000000014
100
AcDbArc
 50
90.0
 51
150.0
  0
ARC
  5
9F
330
1F
100
AcDbEntity
  8
0
  6
Continuous
 62
     7
370
    15
100
AcDbCircle
 10
174.1735728953
 20
106.8661601643
 30
0.0
 40
3.000000000000007
100
AcDbArc
 50
150.0
 51
210.0
  0
ARC
  5
A0
330
1F
100
AcDbEntity
  8
0
  6
Continuous
 62
     7
370
    15
100
AcDbCircle
 10
174.1735728953
 20
106.8661601643
 30
0.0
 40
3.0
100
AcDbArc
 50
270.0
 51
330.0
  0
SPLINE
  5
A1
330
1F
100
AcDbEntity
  8
0
  6
Continuous
 62
     7
370
    15
100
AcDbSpline
210
0.0
220
0.0
230
1.0
 70
     8
 71
     3
 72
    10
 73
     6
 74
     0
 42
0.000000001
 43
0.00000001
 40
0.0
 40
0.0
 40
0.0
 40
0.0
 40
0.5
 40
0.5
 40
1.0
 40
1.0
 40
1.0
 40
1.0
 10
173.6377864576503
 20
97.51883629971017
 30
0.0
 10
173.5012412928611
 20
97.52458274056633
 30
0.0
 10
173.3681815256322
 20
97.55449631399664
 30
0.0
 10
173.127235692358
 20
97.6522946635166
 30
0.0
 10
173.0197066613087
 20
97.71989328865898
 30
0.0
 10
172.9306796764621
 20
97.7991339820745
 30
0.0
  0
SPLINE
  5
A2
330
1F
100
AcDbEntity
  8
0
  6
Continuous
 62
     7
370
    15
100
AcDbSpline
210
0.0
220
0.0
230
1.0
 70
     8
 71
     3
 72
    12
 73
     8
 74
     0
 42
0.000000001
 43
0.00000001
 40
0.0
 40
0.0
 40
0.0
 40
0.0
 40
0.5000000000000002
 40
0.5000000000000002
 40
0.7500000000000001
 40
0.7500000000000001
 40
1.0
 40
1.0
 40
1.0
 40
1.0
 10
172.9306796764638
 20
97.79913398207567
 30
0.0
 10
172.1561575385742
 20
98.48851677289801
 30
0.0
 10
171.4193109411634
 20
99.24068564040414
 30
0.0
 10
170.4145648009693
 20
100.5160377606667
 30
0.0
 10
170.0966671499288
 20
100.9659306785434
 30
0.0
 10
169.5083269714194
 20
101.9302720727342
 30
0.0
 10
169.2428842749889
 20
102.4373323313503
 30
0.0
 10
169.0164661140907
 20
102.9683063961654
 30
0.0
  0
SPLINE
  5
A3
330
1F
100
AcDbEntity
  8
0
  6
Continuous
 62
     7
370
    15
100
AcDbSpline
210
0.0
220
0.0
230
1.0
 70
     8
 71
     3
 72
    10
 73
     6
 74
     0
 42
0.000000001
 43
0.00000001
 40
0.0
 40
0.0
 40
0.0
 40
0.0
 40
0.5
 40
0.5
 40
1.0
 40
1.0
 40
1.0
 40
1.0
 10
168.3093593329041
 20
104.3884728148158
 30
0.0
 10
168.4363216726979
 20
104.1534185179648
 30
0.0
 10
168.5600101792513
 20
103.9181095477811
 30
0.0
 10
168.7986978138584
 20
103.4460294918502
 30
0.0
 10
168.9137142651267
 20
103.2092701364203
 30
0.0
 10
169.0164661140907
 20
102.9683063961654
 30
0.0
  0
SPLINE
  5
A4
330
1F
100
AcDbEntity
  8
0
  6
Continuous
 62
     7
370
    15
100
AcDbSpline
210
0.0
220
0.0
230
1.0
 70
     8
 71
     3
 72
    20
 73
    16
 74
     0
 42
0.000000001
 43
0.00000001
 40
0.0
 40
0.0
 40
0.0
 40
0.0
 40
0.125
 40
0.125
 40
0.25
 40
0.25
 40
0.375
 40
0.375
 40
0.4999999999999999
 40
0.4999999999999999
 40
0.7499999999999999
 40
0.7499999999999999
 40
0.8749999999999999
 40
0.8749999999999999
 40
1.0
 40
1.0
 40
1.0
 40
1.0
 10
168.3093593329044
 20
104.3884728148152
 30
0.0
 10
168.2072019175176
 20
104.5776040129394
 30
0.0
 10
168.1149721456628
 20
104.7752862643734
 30
0.0
 10
167.9569963435008
 20
105.1759019003292
 30
0.0
 10
167.8906983884299
 20
105.3794997583263
 30
0.0
 10
167.7835914516335
 20
105.7933291079617
 30
0.0
 10
167.742779357718
 20
106.0035597595936
 30
0.0
 10
167.6877134522373
 20
106.4309491714888
 30
0.0
 10
167.6735798494661
 20
106.649745332879
 30
0.0
 10
167.6735589947548
 20
107.29850110338
 30
0.0
 10
167.7282362079971
 20
107.7244314489758
 30
0.0
 10
167.8908309681403
 20
108.3536721903635
 30
0.0
 10
167.9585149922456
 20
108.5607383565656
 30
0.0
 10
168.1166144845671
 20
108.9607207038352
 30
0.0
 10
168.2073612214534
 20
109.1550112461677
 30
0.0
 10
168.3093593329041
 20
109.3438475137263
 30
0.0
  0
SPLINE
  5
A5
330
1F
100
AcDbEntity
  8
0
  6
Continuous
 62
     7
370
    15
100
AcDbSpline
210
0.0
220
0.0
230
1.0
 70
     8
 71
     3
 72
    10
 73
     6
 74
     0
 42
0.000000001
 43
0.00000001
 40
0.0
 40
0.0
 40
0.0
 40
0.0
 40
0.5
 40
0.5
 40
1.0
 40
1.0
 40
1.0
 40
1.0
 10
169.0164661140907
 20
110.7640139323757
 30
0.0
 10
168.9137142651267
 20
110.5230501921209
 30
0.0
 10
168.7986978138581
 20
110.2862908366911
 30
0.0
 10
168.5600101792509
 20
109.8142107807603
 30
0.0
 10
168.4363216726979
 20
109.5789018105772
 30
0.0
 10
168.3093593329041
 20
109.3438475137263
 30
0.0
  0
SPLINE
  5
A6
330
1F
100
AcDbEntity
  8
0
  6
Continuous
 62
     7
370
    15
100
AcDbSpline
210
0.0
220
0.0
230
1.0
 70
     8
 71
     3
 72
    16
 73
    12
 74
     0
 42
0.000000001
 43
0.00000001
 40
0.0
 40
0.0
 40
0.0
 40
0.0
 40
0.1250000000000002
 40
0.1250000000000002
 40
0.2500000000000003
 40
0.2500000000000003
 40
0.5000000000000002
 40
0.5000000000000002
 40
0.7500000000000001
 40
0.7500000000000001
 40
1.0
 40
1.0
 40
1.0
 40
1.0
 10
169.0164661140903
 20
110.764013932376
 30
0.0
 10
169.1290747901263
 20
111.0280929541783
 30
0.0
 10
169.2513469812764
 20
111.2863363056188
 30
0.0
 10
169.5134216552566
 20
111.792006024652
 30
0.0
 10
169.6537803476045
 20
112.0402590629292
 30
0.0
 10
170.0925918393219
 20
112.7601050669374
 30
0.0
 10
170.4095245275785
 20
113.2093963780124
 30
0.0
 10
171.0790707761903
 20
114.0602393493861
 30
0.0
 10
171.4317633935993
 20
114.461712239677
 30
0.0
 10
172.16421161215
 20
115.2261972284394
 30
0.0
 10
172.5445058018931
 20
115.5894626355862
 30
0.0
 10
172.9306796764639
 20
115.9331863464665
 30
0.0
  0
SPLINE
  5
A7
330
1F
100
AcDbEntity
  8
0
  6
Continuous
 62
     7
370
    15
100
AcDbSpline
210
0.0
220
0.0
230
1.0
 70
     8
 71
     3
 72
    10
 73
     6
 74
     0
 42
0.000000001
 43
0.00000001
 40
0.0
 40
0.0
 40
0.0
 40
0.0
 40
0.5
 40
0.5
 40
1.0
 40
1.0
 40
1.0
 40
1.0
 10
172.9306796764639
 20
115.9331863464665
 30
0.0
 10
173.0197677133345
 20
116.0124813807622
 30
0.0
 10
173.1266054281806
 20
116.079714505264
 30
0.0
 10
173.3679739988655
 20
116.177794928668
 30
0.0
 10
173.5010598179087
 20
116.2077299506858
 30
0.0
 10
173.6377864576503
 20
116.2134840288323
 30
0.0
  0
SPLINE
  5
A8
330
1F
100
AcDbEntity
  8
0
  6
Continuous
 62
     7
370
    15
100
AcDbSpline
210
0.0
220
0.0
230
1.0
 70
     8
 71
     3
 72
    30
 73
    26
 74
     0
 42
0.000000001
 43
0.00000001
 40
0.0
 40
0.0
 40
0.0
 40
0.0
 40
0.1250000000000008
 40
0.1250000000000008
 40
0.1875000000000012
 40
0.1875000000000012
 40
0.2500000000000017
 40
0.2500000000000017
 40
0.3750000000000026
 40
0.3750000000000026
 40
0.4375000000000031
 40
0.4375000000000031
 40
0.5000000000000034
 40
0.5000000000000034
 40
0.6250000000000031
 40
0.6250000000000031
 40
0.6875000000000026
 40
0.6875000000000026
 40
0.750000000000002
 40
0.750000000000002
 40
0.8125000000000014
 40
0.8125000000000014
 40
0.8750000000000008
 40
0.8750000000000008
 40
1.0
 40
1.0
 40
1.0
 40
1.0
 10
173.6377864576503
 20
116.2134840288319
 30
0.0
 10
174.3287001633446
 20
116.242560816374
 30
0.0
 10
175.0179900095644
 20
116.2156755615154
 30
0.0
 10
176.0494716792371
 20
116.0905249063505
 30
0.0
 10
176.3943960909068
 20
116.0342521382272
 30
0.0
 10
177.0758484529268
 20
115.8936066907336
 30
0.0
 10
177.4110885632243
 20
115.8096515342796
 30
0.0
 10
178.4007692286971
 20
115.5175439622119
 30
0.0
 10
179.0393219176314
 20
115.2695711024441
 30
0.0
 10
179.9643709985911
 20
114.8132234524825
 30
0.0
 10
180.2688019352349
 20
114.6459134954353
 30
0.0
 10
180.8565033540378
 20
114.2867831179926
 30
0.0
 10
181.1398545918605
 20
114.0951726395122
 30
0.0
 10
181.9584304274409
 20
113.4836738059216
 30
0.0
 10
182.4626205457462
 20
113.0276575820232
 30
0.0
 10
183.1497439764552
 20
112.2606722315713
 30
0.0
 10
183.3681836248118
 20
111.9893596142821
 30
0.0
 10
183.769796113312
 20
111.4290307615505
 30
0.0
 10
183.954032924295
 20
111.139139033559
 30
0.0
 10
184.288100289378
 20
110.5389447961276
 30
0.0
 10
184.4379427236506
 20
110.2286497032089
 30
0.0
 10
184.7005038114706
 20
109.585851260765
 30
0.0
 10
184.8128678884026
 20
109.2529782682598
 30
0.0
 10
185.0811360889552
 20
108.2501740349373
 30
0.0
 10
185.1735728952772
 20
107.5663713257627
 30
0.0
 10
185.1735728952772
 20
106.866160164271
 30
0.0
  0
SPLINE
  5
A9
330
1F
100
AcDbEntity
  8
0
  6
Continuous
 62
     7
370
    15
100
AcDbSpline
210
0.0
220
0.0
230
1.0
 70
     8
 71
     3
 72
    30
 73
    26
 74
     0
 42
0.000000001
 43
0.00000001
 40
0.0
 40
0.0
 40
0.0
 40
0.0
 40
0.0625000000000002
 40
0.0625000000000002
 40
0.1250000000000004
 40
0.1250000000000004
 40
0.1875000000000007
 40
0.1875000000000007
 40
0.2500000000000009
 40
0.2500000000000009
 40
0.3125000000000011
 40
0.3125000000000011
 40
0.3750000000000013
 40
0.3750000000000013
 40
0.500000000000001
 40
0.500000000000001
 40
0.6250000000000008
 40
0.6250000000000008
 40
0.6875000000000007
 40
0.6875000000000007
 40
0.7500000000000006
 40
0.7500000000000006
 40
0.8750000000000003
 40
0.8750000000000003
 40
1.0
 40
1.0
 40
1.0
 40
1.0
 10
185.1735728952772
 20
106.866160164271
 30
0.0
 10
185.1735728952772
 20
106.5174871770755
 30
0.0
 10
185.150107313534
 20
106.1682856432038
 30
0.0
 10
185.0588925171576
 20
105.4834668096613
 30
0.0
 10
184.9911671645528
 20
105.1455749708176
 30
0.0
 10
184.812590705779
 20
104.4785686899701
 30
0.0
 10
184.7007598568338
 20
104.1472922791969
 30
0.0
 10
184.4390488043004
 20
103.5061831711626
 30
0.0
 10
184.2896085672541
 20
103.1963828826747
 30
0.0
 10
183.9561219837716
 20
102.5966402069266
 30
0.0
 10
183.7720649873137
 20
102.3067042920358
 30
0.0
 10
183.370440490638
 20
101.7458630828431
 30
0.0
 10
183.1538719269881
 20
101.4766522304803
 30
0.0
 10
182.4693366796834
 20
100.7113795192942
 30
0.0
 10
181.9634425903888
 20
100.2522142668324
 30
0.0
 10
180.8584306565544
 20
99.42709325936896
 30
0.0
 10
180.2736468568516
 20
99.07196681554079
 30
0.0
 10
179.3533051310568
 20
98.61749714443249
 30
0.0
 10
179.0391725520927
 20
98.47910649733616
 30
0.0
 10
178.3960932863348
 20
98.22835207093141
 30
0.0
 10
178.0668782472177
 20
98.11608295113209
 30
0.0
 10
177.0748550374224
 20
97.82372023362552
 30
0.0
 10
176.4018930173615
 20
97.6852131898199
 30
0.0
 10
175.0330218328685
 20
97.51782170337495
 30
0.0
 10
174.3324205894535
 20
97.48960293973558
 30
0.0
 10
173.6377864576503
 20
97.51883629971017
 30
0.0
  0
LINE
  5
AA
330
1F
100
AcDbEntity
  8
0
  6
Continuous
 62
     7
370
    15
100
AcDbLine
 10
188.7235728953
 20
79.8661601643
 30
0.0
 11
188.7235728953
 21
133.8661601643
 31
0.0
  0
LINE
  5
AB
330
1F
100
AcDbEntity
  8
0
  6
Continuous
 62
     7
370
    15
100
AcDbLine
 10
188.2235728953
 20
79.3661601643
 30
0.0
 11
188.2235728953
 21
134.3661601643
 31
0.0
  0
SPLINE
  5
AC
330
1F
100
AcDbEntity
  8
0
  6
Continuous
 62
     7
370
    15
100
AcDbSpline
210
0.0
220
0.0
230
1.0
 70
     8
 71
     3
 72
    12
 73
     8
 74
     0
 42
0.000000001
 43
0.00000001
 40
0.0
 40
0.0
 40
0.0
 40
0.0
 40
0.0001599767578005
 40
0.2512944248697269
 40
0.5029658357238114
 40
0.7514776885320068
 40
1.0
 40
1.0
 40
1.0
 40
1.0
 10
166.7234711134288
 20
129.8661175668313
 30
0.0
 10
166.7235040077341
 20
129.8661317651879
 30
0.0
 10
166.775174985774
 20
129.888434804027
 30
0.0
 10
166.5947216342734
 20
129.8099082535304
 30
0.0
 10
166.1523761802836
 20
129.6261137382215
 30
0.0
 10
165.4082655038772
 20
129.3256696581325
 30
0.0
 10
164.7018087199427
 20
129.0825497456478
 30
0.0
 10
164.3485728952961
 20
128.9609872315245
 30
0.0
  0
SPLINE
  5
AD
330
1F
100
AcDbEntity
  8
0
  6
Continuous
 62
     7
370
    15
100
AcDbSpline
210
0.0
220
0.0
230
1.0
 70
     8
 71
     3
 72
    16
 73
    12
 74
     0
 42
0.000000001
 43
0.00000001
 40
0.0
 40
0.0
 40
0.0
 40
0.0
 40
0.2483169671332734
 40
0.496694446198205
 40
0.581146785348524
 40
0.6649723970263892
 40
0.748461215409542
 40
0.8319066852962653
 40
0.9156027073821126
 40
0.9998405598659155
 40
0.9999999999999999
 40
0.9999999999999999
 40
0.9999999999999999
 40
0.9999999999999999
 10
164.3485728952961
 20
84.77133309701763
 30
0.0
 10
164.7023666087073
 20
84.64955892485452
 30
0.0
 10
165.410040250907
 20
84.40598090559115
 30
0.0
 10
165.9807663749691
 20
84.17526542909229
 30
0.0
 10
166.2943374936586
 20
84.04723491119125
 30
0.0
 10
166.450236851584
 20
83.98236832141761
 30
0.0
 10
166.5714667479318
 20
83.93123735095787
 30
0.0
 10
166.6595637001395
 20
83.89356906659353
 30
0.0
 10
166.7080098327794
 20
83.87265627304758
 30
0.0
 10
166.7302738631754
 20
83.86314766857242
 30
0.0
 10
166.7235443766003
 20
83.8661715890994
 30
0.0
 10
166.7235316635119
 20
83.86617730177429
 30
0.0
  0
LINE
  5
AE
330
1F
100
AcDbEntity
  8
0
  6
Continuous
 62
     7
370
    15
100
AcDbLine
 10
164.3485728953
 20
84.771333097
 30
0.0
 11
164.3485728953
 21
128.9609894134
 31
0.0
  0
SPLINE
  5
AF
330
1F
100
AcDbEntity
  8
0
  6
Continuous
 62
     7
370
    15
100
AcDbSpline
210
0.0
220
0.0
230
1.0
 70
     8
 71
     3
 72
    10
 73
     6
 74
     0
 42
0.000000001
 43
0.00000001
 40
0.0
 40
0.0
 40
0.0
 40
0.0
 40
0.5
 40
0.5
 40
1.0
 40
1.0
 40
1.0
 40
1.0
 10
163.6709925035203
 20
128.0217296187053
 30
0.0
 10
163.4458087621559
 20
127.5554947669816
 30
0.0
 10
163.2156285148713
 20
127.0778900708631
 30
0.0
 10
162.7478468049679
 20
126.1045069360611
 30
0.0
 10
162.5098047592164
 20
125.6078084257004
 30
0.0
 10
162.2701119261946
 20
125.1058331619634
 30
0.0
  0
SPLINE
  5
B0
330
1F
100
AcDbEntity
  8
0
  6
Continuous
 62
     7
370
    15
100
AcDbSpline
210
0.0
220
0.0
230
1.0
 70
     8
 71
     3
 72
     9
 73
     5
 74
     0
 42
0.000000001
 43
0.00000001
 40
0.0
 40
0.0
 40
0.0
 40
0.0
 40
0.508485917602383
 40
1.0
 40
1.0
 40
1.0
 40
1.0
 10
164.3485821388142
 20
128.961004793553
 30
0.0
 10
164.2327616033911
 20
128.8013584471421
 30
0.0
 10
164.0049862975
 20
128.4873943020509
 30
0.0
 10
163.7810590506484
 20
128.1751826710265
 30
0.0
 10
163.6709956553883
 20
128.0217262576897
 30
0.0
  0
SPLINE
  5
B1
330
1F
100
AcDbEntity
  8
0
  6
Continuous
 62
     7
370
    15
100
AcDbSpline
210
0.0
220
0.0
230
1.0
 70
     8
 71
     3
 72
     9
 73
     5
 74
     0
 42
0.000000001
 43
0.00000001
 40
0.0
 40
0.0
 40
0.0
 40
0.0
 40
0.4915140813385384
 40
1.0
 40
1.0
 40
1.0
 40
1.0
 10
163.6709956553883
 20
85.7105940708523
 30
0.0
 10
163.7810590504113
 20
85.55713765784435
 30
0.0
 10
164.0049862972631
 20
85.24492602681632
 30
0.0
 10
164.2327616031513
 20
84.93096188173006
 30
0.0
 10
164.3485821388142
 20
84.7713155349891
 30
0.0
  0
SPLINE
  5
B2
330
1F
100
AcDbEntity
  8
0
  6
Continuous
 62
     7
370
    15
100
AcDbSpline
210
0.0
220
0.0
230
1.0
 70
     8
 71
     3
 72
    10
 73
     6
 74
     0
 42
0.000000001
 43
0.00000001
 40
0.0
 40
0.0
 40
0.0
 40
0.0
 40
0.5
 40
0.5
 40
1.0
 40
1.0
 40
1.0
 40
1.0
 10
163.6709925844531
 20
85.71059054226835
 30
0.0
 10
163.4460910131449
 20
86.17624117077479
 30
0.0
 10
163.2159035231311
 20
86.65385804477727
 30
0.0
 10
162.7475910880014
 20
87.62834546311458
 30
0.0
 10
162.5094537670292
 20
88.12524696610383
 30
0.0
 10
162.2701119261946
 20
88.62648716657867
 30
0.0
  0
SPLINE
  5
B3
330
1F
100
AcDbEntity
  8
0
  6
Continuous
 62
     7
370
    15
100
AcDbSpline
210
0.0
220
0.0
230
1.0
 70
     8
 71
     3
 72
     8
 73
     4
 74
     0
 42
0.000000001
 43
0.00000001
 40
0.0
 40
0.0
 40
0.0
 40
0.0
 40
0.001149633737632
 40
0.001149633737632
 40
0.001149633737632
 40
0.001149633737632
 10
156.8378028998199
 20
127.4114032587455
 30
0.0
 10
156.6585996486902
 20
127.6509205376122
 30
0.0
 10
156.4788330949623
 20
127.890227414049
 30
0.0
 10
156.2985728952772
 20
128.1293478014863
 30
0.0
  0
SPLINE
  5
B4
330
1F
100
AcDbEntity
  8
0
  6
Continuous
 62
     7
370
    15
100
AcDbSpline
210
0.0
220
0.0
230
1.0
 70
     8
 71
     3
 72
     8
 73
     4
 74
     0
 42
0.000000001
 43
0.00000001
 40
0.0
 40
0.0
 40
0.0
 40
0.0
 40
1.0
 40
1.0
 40
1.0
 40
1.0
 10
157.6735728952772
 20
125.8481822225573
 30
0.0
 10
157.396261215403
 20
126.3699075386917
 30
0.0
 10
157.1175844729345
 20
126.8909369986924
 30
0.0
 10
156.8378028998199
 20
127.4114032587455
 30
0.0
  0
SPLINE
  5
B5
330
1F
100
AcDbEntity
  8
0
  6
Continuous
 62
     7
370
    15
100
AcDbSpline
210
0.0
220
0.0
230
1.0
 70
     8
 71
     3
 72
     8
 73
     4
 74
     0
 42
0.000000001
 43
0.00000001
 40
0.0
 40
0.0
 40
0.0
 40
0.0
 40
1.0
 40
1.0
 40
1.0
 40
1.0
 10
158.3045886943076
 20
124.666160164271
 30
0.0
 10
158.0935680585182
 20
125.0596082034567
 30
0.0
 10
157.8832806566105
 20
125.453644754366
 30
0.0
 10
157.6735728952772
 20
125.8481822225573
 30
0.0
  0
SPLINE
  5
B6
330
1F
100
AcDbEntity
  8
0
  6
Continuous
 62
     7
370
    15
100
AcDbSpline
210
0.0
220
0.0
230
1.0
 70
     8
 71
     3
 72
     8
 73
     4
 74
     0
 42
0.000000001
 43
0.00000001
 40
0.0
 40
0.0
 40
0.0
 40
0.0
 40
1.0
 40
1.0
 40
1.0
 40
1.0
 10
158.3770338643598
 20
124.5311639099548
 30
0.0
 10
158.3528756526452
 20
124.5761548255838
 30
0.0
 10
158.3287273523194
 20
124.621153629115
 30
0.0
 10
158.3045886943076
 20
124.666160164271
 30
0.0
  0
SPLINE
  5
B7
330
1F
100
AcDbEntity
  8
0
  6
Continuous
 62
     7
370
    15
100
AcDbSpline
210
0.0
220
0.0
230
1.0
 70
     8
 71
     3
 72
     8
 73
     4
 74
     0
 42
0.000000001
 43
0.00000001
 40
0.0
 40
0.0
 40
0.0
 40
0.0
 40
1.0
 40
1.0
 40
1.0
 40
1.0
 10
158.3770338643598
 20
89.20115641858725
 30
0.0
 10
158.3528756526452
 20
89.15616550295832
 30
0.0
 10
158.3287273523194
 20
89.11116669942713
 30
0.0
 10
158.3045886943076
 20
89.06616016427105
 30
0.0
  0
SPLINE
  5
B8
330
1F
100
AcDbEntity
  8
0
  6
Continuous
 62
     7
370
    15
100
AcDbSpline
210
0.0
220
0.0
230
1.0
 70
     8
 71
     3
 72
     8
 73
     4
 74
     0
 42
0.000000001
 43
0.00000001
 40
0.0
 40
0.0
 40
0.0
 40
0.0
 40
1.0
 40
1.0
 40
1.0
 40
1.0
 10
158.3045886943076
 20
89.06616016427105
 30
0.0
 10
158.0935680585182
 20
88.67271212508535
 30
0.0
 10
157.8832806566105
 20
88.27867557417603
 30
0.0
 10
157.6735728952772
 20
87.88413810598475
 30
0.0
  0
SPLINE
  5
B9
330
1F
100
AcDbEntity
  8
0
  6
Continuous
 62
     7
370
    15
100
AcDbSpline
210
0.0
220
0.0
230
1.0
 70
     8
 71
     3
 72
     8
 73
     4
 74
     0
 42
0.000000001
 43
0.00000001
 40
0.0
 40
0.0
 40
0.0
 40
0.0
 40
1.0
 40
1.0
 40
1.0
 40
1.0
 10
157.6735728952772
 20
87.88413810598475
 30
0.0
 10
157.3962458802676
 20
87.36238393881759
 30
0.0
 10
157.1175658375759
 20
86.84134866325134
 30
0.0
 10
156.8378028998199
 20
86.32091706979658
 30
0.0
  0
SPLINE
  5
BA
330
1F
100
AcDbEntity
  8
0
  6
Continuous
 62
     7
370
    15
100
AcDbSpline
210
0.0
220
0.0
230
1.0
 70
     8
 71
     3
 72
     8
 73
     4
 74
     0
 42
0.000000001
 43
0.00000001
 40
0.0
 40
0.0
 40
0.0
 40
0.0
 40
0.001149633737632
 40
0.001149633737632
 40
0.001149633737632
 40
0.001149633737632
 10
156.2985728952772
 20
85.60297252705581
 30
0.0
 10
156.4788330949623
 20
85.84209291449314
 30
0.0
 10
156.6585996486902
 20
86.08139979092994
 30
0.0
 10
156.8378028998199
 20
86.32091706979658
 30
0.0
  0
LINE
  5
BB
330
1F
100
AcDbEntity
  8
0
  6
Continuous
 62
     7
370
    15
100
AcDbLine
 10
156.2985728953
 20
85.6029725271
 30
0.0
 11
156.2985728953
 21
128.1293478015
 31
0.0
  0
LINE
  5
BC
330
1F
100
AcDbEntity
  8
0
  6
Continuous
 62
     7
370
    15
100
AcDbLine
 10
148.7235728953
 20
86.8137912269
 30
0.0
 11
148.7235728953
 21
126.9185291016
 31
0.0
  0
SPLINE
  5
BD
330
1F
100
AcDbEntity
  8
0
  6
Continuous
 62
     7
370
    15
100
AcDbSpline
210
0.0
220
0.0
230
1.0
 70
     8
 71
     3
 72
    12
 73
     8
 74
     0
 42
0.000000001
 43
0.00000001
 40
0.0
 40
0.0
 40
0.0
 40
0.0
 40
0.2500000000000003
 40
0.2500000000000003
 40
0.5000000000000006
 40
0.5000000000000006
 40
1.0
 40
1.0
 40
1.0
 40
1.0
 10
149.1462510336133
 20
127.9887251204094
 30
0.0
 10
149.0892887581321
 20
127.9219540107335
 30
0.0
 10
149.0360898978216
 20
127.8496347403873
 30
0.0
 10
148.9380618100301
 20
127.6926573889123
 30
0.0
 10
148.8928341757683
 20
127.6070524581983
 30
0.0
 10
148.7774421263099
 20
127.3362545268127
 30
0.0
 10
148.7235728952772
 20
127.1318429253201
 30
0.0
 10
148.7235728952772
 20
126.918529101631
 30
0.0
  0
SPLINE
  5
BE
330
1F
100
AcDbEntity
  8
0
  6
Continuous
 62
     7
370
    15
100
AcDbSpline
210
0.0
220
0.0
230
1.0
 70
     8
 71
     3
 72
     8
 73
     4
 74
     0
 42
0.000000001
 43
0.00000001
 40
0.0
 40
0.0
 40
0.0
 40
0.0
 40
1.0
 40
1.0
 40
1.0
 40
1.0
 10
149.7235728952772
 20
128.1293478014863
 30
0.0
 10
149.5144050204273
 20
128.1293478014863
 30
0.0
 10
149.3121109440239
 20
128.0786662629897
 30
0.0
 10
149.1462510336133
 20
127.9887251204094
 30
0.0
  0
SPLINE
  5
BF
330
1F
100
AcDbEntity
  8
0
  6
Continuous
 62
     7
370
    15
100
AcDbSpline
210
0.0
220
0.0
230
1.0
 70
     8
 71
     3
 72
     8
 73
     4
 74
     0
 42
0.000000001
 43
0.00000001
 40
0.0
 40
0.0
 40
0.0
 40
0.0
 40
1.0
 40
1.0
 40
1.0
 40
1.0
 10
149.1462510336133
 20
85.74359520813267
 30
0.0
 10
149.3120998451385
 20
85.65366008416434
 30
0.0
 10
149.5144110284517
 20
85.60297252705581
 30
0.0
 10
149.7235728952772
 20
85.60297252705581
 30
0.0
  0
SPLINE
  5
C0
330
1F
100
AcDbEntity
  8
0
  6
Continuous
 62
     7
370
    15
100
AcDbSpline
210
0.0
220
0.0
230
1.0
 70
     8
 71
     3
 72
    12
 73
     8
 74
     0
 42
0.000000001
 43
0.00000001
 40
0.0
 40
0.0
 40
0.0
 40
0.0
 40
0.2499999999999982
 40
0.2499999999999982
 40
0.4999999999999964
 40
0.4999999999999964
 40
1.0
 40
1.0
 40
1.0
 40
1.0
 10
149.1462510336133
 20
85.74359520813267
 30
0.0
 10
149.0892887581321
 20
85.8103663178086
 30
0.0
 10
149.0360898978216
 20
85.88268558815476
 30
0.0
 10
148.9380618100301
 20
86.03966293962984
 30
0.0
 10
148.8928341757683
 20
86.12526787034379
 30
0.0
 10
148.7774421263099
 20
86.39606580172935
 30
0.0
 10
148.7235728952772
 20
86.600477403222
 30
0.0
 10
148.7235728952772
 20
86.81379122691106
 30
0.0
  0
LINE
  5
C1
330
1F
100
AcDbEntity
  8
0
  6
Continuous
 62
     7
370
    15
100
AcDbLine
 10
156.2985728953
 20
128.1293478015
 30
0.0
 11
149.7235728953
 21
128.1293478015
 31
0.0
  0
LINE
  5
C2
330
1F
100
AcDbEntity
  8
0
  6
Continuous
 62
     7
370
    15
100
AcDbLine
 10
149.7235728953
 20
85.6029725271
 30
0.0
 11
156.2985728953
 21
85.6029725271
 31
0.0
  0
SPLINE
  5
C3
330
1F
100
AcDbEntity
  8
0
  6
Continuous
 62
     7
370
    15
100
AcDbSpline
210
0.0
220
0.0
230
1.0
 70
     8
 71
     3
 72
    10
 73
     6
 74
     0
 42
0.000000001
 43
0.00000001
 40
0.0
 40
0.0
 40
0.0
 40
0.0
 40
0.5
 40
0.5
 40
1.0
 40
1.0
 40
1.0
 40
1.0
 10
159.0698541873874
 20
124.1330968192396
 30
0.0
 10
158.9292720868171
 20
124.1217287253528
 30
0.0
 10
158.7876538361591
 20
124.1542772488302
 30
0.0
 10
158.5441614427077
 20
124.2971557587474
 30
0.0
 10
158.4446512612874
 20
124.4052370145185
 30
0.0
 10
158.3770338643549
 20
124.5311639099516
 30
0.0
  0
SPLINE
  5
C4
330
1F
100
AcDbEntity
  8
0
  6
Continuous
 62
     7
370
    15
100
AcDbSpline
210
0.0
220
0.0
230
1.0
 70
     8
 71
     3
 72
    10
 73
     6
 74
     0
 42
0.000000001
 43
0.00000001
 40
0.0
 40
0.0
 40
0.0
 40
0.0
 40
0.5
 40
0.5
 40
1.0
 40
1.0
 40
1.0
 40
1.0
 10
159.0698541873874
 20
89.59922350930246
 30
0.0
 10
158.9292720868171
 20
89.61059160318932
 30
0.0
 10
158.7876538361591
 20
89.57804307971188
 30
0.0
 10
158.5441614427077
 20
89.43516456979471
 30
0.0
 10
158.4446512612874
 20
89.32708331402358
 30
0.0
 10
158.3770338643549
 20
89.20115641859054
 30
0.0
  0
SPLINE
  5
C5
330
1F
100
AcDbEntity
  8
0
  6
Continuous
 62
     7
370
    15
100
AcDbSpline
210
0.0
220
0.0
230
1.0
 70
     8
 71
     3
 72
     8
 73
     4
 74
     0
 42
0.000000001
 43
0.00000001
 40
0.0
 40
0.0
 40
0.0
 40
0.0
 40
1.0
 40
1.0
 40
1.0
 40
1.0
 10
161.9075309591574
 20
89.06616016427125
 30
0.0
 10
161.8083192005889
 20
89.13793483802802
 30
0.0
 10
161.6966572825363
 20
89.1921918208587
 30
0.0
 10
161.5772916031679
 20
89.21859603348427
 30
0.0
  0
SPLINE
  5
C6
330
1F
100
AcDbEntity
  8
0
  6
Continuous
 62
     7
370
    15
100
AcDbSpline
210
0.0
220
0.0
230
1.0
 70
     8
 71
     3
 72
     8
 73
     4
 74
     0
 42
0.000000001
 43
0.00000001
 40
0.0
 40
0.0
 40
0.0
 40
0.0
 40
1.0
 40
1.0
 40
1.0
 40
1.0
 10
161.9075309591574
 20
124.6661601642708
 30
0.0
 10
161.8083192005889
 20
124.5943854905141
 30
0.0
 10
161.6966572825363
 20
124.5401285076834
 30
0.0
 10
161.5772916031679
 20
124.5137242950578
 30
0.0
  0
SPLINE
  5
C7
330
1F
100
AcDbEntity
  8
0
  6
Continuous
 62
     7
370
    15
100
AcDbSpline
210
0.0
220
0.0
230
1.0
 70
     8
 71
     3
 72
    10
 73
     6
 74
     0
 42
0.000000001
 43
0.00000001
 40
0.0
 40
0.0
 40
0.0
 40
0.0
 40
0.5
 40
0.5
 40
1.0
 40
1.0
 40
1.0
 40
1.0
 10
162.2701119261946
 20
125.1058331619634
 30
0.0
 10
162.2267737438871
 20
125.0150724361652
 30
0.0
 10
162.1740237486718
 20
124.9335699954831
 30
0.0
 10
162.0519660976455
 20
124.7859920878469
 30
0.0
 10
161.9824856820885
 20
124.7203861034391
 30
0.0
 10
161.9075309591574
 20
124.6661601642708
 30
0.0
  0
SPLINE
  5
C8
330
1F
100
AcDbEntity
  8
0
  6
Continuous
 62
     7
370
    15
100
AcDbSpline
210
0.0
220
0.0
230
1.0
 70
     8
 71
     3
 72
    10
 73
     6
 74
     0
 42
0.000000001
 43
0.00000001
 40
0.0
 40
0.0
 40
0.0
 40
0.0
 40
0.5
 40
0.5
 40
1.0
 40
1.0
 40
1.0
 40
1.0
 10
162.2701119261946
 20
88.62648716657873
 30
0.0
 10
162.2267737438871
 20
88.71724789237683
 30
0.0
 10
162.1740237486718
 20
88.79875033305902
 30
0.0
 10
162.0519660976455
 20
88.94632824069514
 30
0.0
 10
161.9824856820885
 20
89.01193422510302
 30
0.0
 10
161.9075309591574
 20
89.06616016427125
 30
0.0
  0
SPLINE
  5
C9
330
1F
100
AcDbEntity
  8
0
  6
Continuous
 62
     7
370
    15
100
AcDbSpline
210
0.0
220
0.0
230
1.0
 70
     8
 71
     3
 72
     8
 73
     4
 74
     0
 42
0.000000001
 43
0.00000001
 40
0.0
 40
0.0
 40
0.0
 40
0.0
 40
1.0
 40
1.0
 40
1.0
 40
1.0
 10
161.577291603167
 20
124.5137242950606
 30
0.0
 10
160.7968623168968
 20
124.3410899086705
 30
0.0
 10
159.9630522516475
 20
124.2053247871876
 30
0.0
 10
159.0698541873874
 20
124.1330968192396
 30
0.0
  0
SPLINE
  5
CA
330
1F
100
AcDbEntity
  8
0
  6
Continuous
 62
     7
370
    15
100
AcDbSpline
210
0.0
220
0.0
230
1.0
 70
     8
 71
     3
 72
     8
 73
     4
 74
     0
 42
0.000000001
 43
0.00000001
 40
0.0
 40
0.0
 40
0.0
 40
0.0
 40
1.0
 40
1.0
 40
1.0
 40
1.0
 10
161.577291603167
 20
89.21859603348152
 30
0.0
 10
160.7968623168968
 20
89.39123041987158
 30
0.0
 10
159.9630522516475
 20
89.52699554135447
 30
0.0
 10
159.0698541873874
 20
89.59922350930248
 30
0.0
  0
SPLINE
  5
CB
330
1F
100
AcDbEntity
  8
0
  6
Continuous
 62
     7
370
    15
100
AcDbSpline
210
0.0
220
0.0
230
1.0
 70
    24
 71
     3
 72
    16
 73
    12
 74
     0
 42
0.000000001
 43
0.00000001
 40
0.0
 40
0.0
 40
0.0
 40
0.0
 40
0.5000000000000001
 40
0.5000000000000001
 40
0.75
 40
0.75
 40
0.875
 40
0.875
 40
0.9375
 40
0.9375
 40
1.0
 40
1.0
 40
1.0
 40
1.0
 10
148.7235728952772
 20
123.0661601642711
 30
0.0
 10
148.7235728952772
 20
123.0661601642711
 30
0.0
 10
148.6536626861974
 20
123.0661601642711
 30
0.0
 10
148.5544257266056
 20
123.0661601642711
 30
0.0
 10
148.5219979372533
 20
123.0661601642711
 30
0.0
 10
148.4869456748234
 20
123.0661601642711
 30
0.0
 10
148.4775227316539
 20
123.0661601642711
 30
0.0
 10
148.4679343394316
 20
123.066160164271
 30
0.0
 10
148.4654906119695
 20
123.0661601642711
 30
0.0
 10
148.4622184779599
 20
123.0661601642711
 30
0.0
 10
148.4613903320785
 20
123.0661601642711
 30
0.0
 10
148.4613906235212
 20
123.0661601642711
 30
0.0
  0
SPLINE
  5
CC
330
1F
100
AcDbEntity
  8
0
  6
Continuous
 62
     7
370
    15
100
AcDbSpline
210
0.0
220
0.0
230
1.0
 70
    24
 71
     3
 72
     9
 73
     5
 74
     0
 42
0.000000001
 43
0.00000001
 40
0.0
 40
0.0
 40
0.0
 40
0.0
 40
0.8074308519025202
 40
1.0
 40
1.0
 40
1.0
 40
1.0
 10
148.4613934454897
 20
90.66616016427103
 30
0.0
 10
148.4845856203902
 20
90.66616016427103
 30
0.0
 10
148.5133090396724
 20
90.66616016427103
 30
0.0
 10
148.5825886112187
 20
90.66616016427103
 30
0.0
 10
148.595929719292
 20
90.66616016427103
 30
0.0
  0
LINE
  5
CD
330
1F
100
AcDbEntity
  8
0
  6
Continuous
 62
     7
370
    15
100
AcDbLine
 10
146.7235728953
 20
90.9911601643
 30
0.0
 11
146.7235728953
 21
122.7411601643
 31
0.0
  0
LINE
  5
CE
330
1F
100
AcDbEntity
  8
0
  6
Continuous
 62
     7
370
    15
100
AcDbLine
 10
98.3235728953
 20
98.4818656991
 30
0.0
 11
98.3235728953
 21
115.2504545852
 31
0.0
  0
CIRCLE
  5
CF
330
1F
100
AcDbEntity
  8
0
  6
HIDDEN
 62
     7
370
     0
100
AcDbCircle
 10
174.1735728953
 20
106.8661601643
 30
0.0
 40
5.258613578496409
  0
CIRCLE
  5
D0
330
1F
100
AcDbEntity
  8
0
  6
HIDDEN
 62
     7
370
     0
100
AcDbCircle
 10
174.1735728953
 20
106.8661601643
 30
0.0
 40
4.094716599620995
  0
CIRCLE
  5
D1
330
1F
100
AcDbEntity
  8
0
  6
HIDDEN
 62
     7
370
     0
100
AcDbCircle
 10
174.1735728953
 20
106.8661601643
 30
0.0
 40
3.694716599621017
  0
LINE
  5
D2
330
1F
100
AcDbEntity
  8
0
  6
HIDDEN
 62
     7
370
     0
100
AcDbLine
 10
188.1735728953
 20
126.0327014668
 30
0.0
 11
188.1735728953
 21
129.186681358
 31
0.0
  0
SPLINE
  5
D3
330
1F
100
AcDbEntity
  8
0
  6
HIDDEN
 62
     7
370
     0
100
AcDbSpline
210
0.0
220
0.0
230
1.0
 70
     8
 71
     3
 72
    18
 73
    14
 74
     0
 42
0.000000001
 43
0.00000001
 40
0.0
 40
0.0
 40
0.0
 40
0.0
 40
0.2499999999999994
 40
0.2499999999999994
 40
0.3749999999999996
 40
0.3749999999999996
 40
0.4999999999999999
 40
0.4999999999999999
 40
0.6250000000000001
 40
0.6250000000000001
 40
0.7500000000000003
 40
0.7500000000000003
 40
1.0
 40
1.0
 40
1.0
 40
1.0
 10
188.1735728952772
 20
122.7255871267455
 30
0.0
 10
188.2641059541481
 20
123.1657354424912
 30
0.0
 10
188.332288749515
 20
123.5768443532605
 30
0.0
 10
188.4023184980073
 20
124.1488761117531
 30
0.0
 10
188.4200947311821
 20
124.3319730512863
 30
0.0
 10
188.443527247266
 20
124.6708426191868
 30
0.0
 10
188.4494117982175
 20
124.8282710675246
 30
0.0
 10
188.4495538197234
 20
125.1190700482689
 30
0.0
 10
188.4436910875618
 20
125.2533778700285
 30
0.0
 10
188.4202282410639
 20
125.4912014337351
 30
0.0
 10
188.4027728979557
 20
125.5947648359112
 30
0.0
 10
188.3335515490191
 20
125.8609163527829
 30
0.0
 10
188.2641217015543
 20
125.9793125850383
 30
0.0
 10
188.1735728952772
 20
126.0327014668401
 30
0.0
  0
LINE
  5
D4
330
1F
100
AcDbEntity
  8
0
  6
HIDDEN
 62
     7
370
     0
100
AcDbLine
 10
188.1735728953
 20
91.0067332018
 30
0.0
 11
188.1735728953
 21
122.7255871267
 31
0.0
  0
SPLINE
  5
D5
330
1F
100
AcDbEntity
  8
0
  6
HIDDEN
 62
     7
370
     0
100
AcDbSpline
210
0.0
220
0.0
230
1.0
 70
     8
 71
     3
 72
    18
 73
    14
 74
     0
 42
0.000000001
 43
0.00000001
 40
0.0
 40
0.0
 40
0.0
 40
0.0
 40
0.2499999999999997
 40
0.2499999999999997
 40
0.3749999999999997
 40
0.3749999999999997
 40
0.4999999999999998
 40
0.4999999999999998
 40
0.6249999999999998
 40
0.6249999999999998
 40
0.7499999999999999
 40
0.7499999999999999
 40
1.0
 40
1.0
 40
1.0
 40
1.0
 10
188.1735728952772
 20
87.69961886170202
 30
0.0
 10
188.2641059541481
 20
87.7529984586061
 30
0.0
 10
188.332288749515
 20
87.86809928532848
 30
0.0
 10
188.4023184980073
 20
88.13505094839266
 30
0.0
 10
188.4200947311821
 20
88.24038804072893
 30
0.0
 10
188.443527247266
 20
88.476667183529
 30
0.0
 10
188.4494117982175
 20
88.60826877081242
 30
0.0
 10
188.4495538197234
 20
88.89844493385597
 30
0.0
 10
188.4436910875618
 20
89.05848440104816
 30
0.0
 10
188.4202282410639
 20
89.39903261193471
 30
0.0
 10
188.4027728979557
 20
89.57895314527855
 30
0.0
 10
188.3335515490191
 20
90.14668358366107
 30
0.0
 10
188.2641217015543
 20
90.56650832623531
 30
0.0
 10
188.1735728952772
 20
91.00673320179655
 30
0.0
  0
LINE
  5
D6
330
1F
100
AcDbEntity
  8
0
  6
HIDDEN
 62
     7
370
     0
100
AcDbLine
 10
188.1735728953
 20
84.5456389706
 30
0.0
 11
188.1735728953
 21
87.6996188617
 31
0.0
  0
LINE
  5
D7
330
1F
100
AcDbEntity
  8
0
  6
HIDDEN
 62
     7
370
     0
100
AcDbLine
 10
164.7176215014
 20
84.6416234884
 30
0.0
 11
164.348752216
 21
84.7713879742
 31
0.0
  0
LINE
  5
D8
330
1F
100
AcDbEntity
  8
0
  6
HIDDEN
 62
     7
370
     0
100
AcDbLine
 10
184.1735728953
 20
97.6657525646
 30
0.0
 11
184.1735728953
 21
116.0665677639
 31
0.0
  0
LINE
  5
D9
330
1F
100
AcDbEntity
  8
0
  6
HIDDEN
 62
     7
370
     0
100
AcDbLine
 10
184.1735728953
 20
116.0665677639
 30
0.0
 11
188.1735728953
 21
116.0665677639
 31
0.0
  0
LINE
  5
DA
330
1F
100
AcDbEntity
  8
0
  6
HIDDEN
 62
     7
370
     0
100
AcDbLine
 10
184.1735728953
 20
120.8661601643
 30
0.0
 11
184.1735728953
 21
116.0665677639
 31
0.0
  0
LINE
  5
DB
330
1F
100
AcDbEntity
  8
0
  6
HIDDEN
 62
     7
370
     0
100
AcDbLine
 10
188.1735728953
 20
126.0327014668
 30
0.0
 11
188.1735728953
 21
125.8928978525
 31
0.0
  0
LINE
  5
DC
330
1F
100
AcDbEntity
  8
0
  6
HIDDEN
 62
     7
370
     0
100
AcDbLine
 10
184.1735728953
 20
125.8928978525
 30
0.0
 11
188.1735728953
 21
125.8928978525
 31
0.0
  0
LINE
  5
DD
330
1F
100
AcDbEntity
  8
0
  6
HIDDEN
 62
     7
370
     0
100
AcDbLine
 10
184.1735728953
 20
126.0661601643
 30
0.0
 11
184.1735728953
 21
120.8661601643
 31
0.0
  0
LINE
  5
DE
330
1F
100
AcDbEntity
  8
0
  6
HIDDEN
 62
     7
370
     0
100
AcDbLine
 10
188.1735728953
 20
97.6657525646
 30
0.0
 11
184.1735728953
 21
97.6657525646
 31
0.0
  0
LINE
  5
DF
330
1F
100
AcDbEntity
  8
0
  6
HIDDEN
 62
     7
370
     0
100
AcDbLine
 10
184.1735728953
 20
97.6657525646
 30
0.0
 11
184.1735728953
 21
92.8661601643
 31
0.0
  0
LINE
  5
E0
330
1F
100
AcDbEntity
  8
0
  6
HIDDEN
 62
     7
370
     0
100
AcDbLine
 10
184.1735728953
 20
87.8394224761
 30
0.0
 11
188.1735728953
 21
87.8394224761
 31
0.0
  0
LINE
  5
E1
330
1F
100
AcDbEntity
  8
0
  6
HIDDEN
 62
     7
370
     0
100
AcDbLine
 10
184.1735728953
 20
92.8661601643
 30
0.0
 11
184.1735728953
 21
87.6661601643
 31
0.0
  0
LINE
  5
E2
330
1F
100
AcDbEntity
  8
0
  6
HIDDEN
 62
     7
370
     0
100
AcDbLine
 10
182.9735728953
 20
91.8661601643
 30
0.0
 11
182.9735728953
 21
121.8661601643
 31
0.0
  0
LINE
  5
E3
330
1F
100
AcDbEntity
  8
0
  6
HIDDEN
 62
     7
370
     0
100
AcDbLine
 10
157.7235728953
 20
92.1661601643
 30
0.0
 11
157.7235728953
 21
121.5661601618
 31
0.0
  0
LINE
  5
E4
330
1F
100
AcDbEntity
  8
0
  6
HIDDEN
 62
     7
370
     0
100
AcDbLine
 10
160.2235728953
 20
91.8661601643
 30
0.0
 11
160.2235728953
 21
121.8661601643
 31
0.0
  0
LINE
  5
E5
330
1F
100
AcDbEntity
  8
0
  6
HIDDEN
 62
     7
370
     0
100
AcDbLine
 10
184.1735728953
 20
128.1411601643
 30
0.0
 11
184.1735728953
 21
126.0661601643
 31
0.0
  0
LINE
  5
E6
330
1F
100
AcDbEntity
  8
0
  6
HIDDEN
 62
     7
370
     0
100
AcDbLine
 10
184.1735728953
 20
87.6661601643
 30
0.0
 11
184.1735728953
 21
85.5911601643
 31
0.0
  0
ELLIPSE
  5
E7
330
1F
100
AcDbEntity
  8
0
  6
HIDDEN
 62
     7
370
     0
100
AcDbEllipse
 10
149.0608311955
 20
89.0661601643
 30
0.0
 11
0.0
 21
1.59999999999998
 31
0.0
210
0.0
220
0.0
230
1.0
 40
0.4142135624
 41
4.712388980384695
 42
6.283185307179586
  0
LINE
  5
E8
330
1F
100
AcDbEntity
  8
0
  6
HIDDEN
 62
     7
370
     0
100
AcDbLine
 10
149.0608311955
 20
90.6661601643
 30
0.0
 11
148.7235728953
 21
90.6661601643
 31
0.0
  0
LINE
  5
E9
330
1F
100
AcDbEntity
  8
0
  6
HIDDEN
 62
     7
370
     0
100
AcDbLine
 10
148.7235728953
 20
123.0661601643
 30
0.0
 11
149.0608311955
 21
123.0661601643
 31
0.0
  0
ELLIPSE
  5
EA
330
1F
100
AcDbEntity
  8
0
  6
HIDDEN
 62
     7
370
     0
100
AcDbEllipse
 10
149.0608311955
 20
124.6661601643
 30
0.0
 11
0.0
 21
1.600000000000023
 31
0.0
210
0.0
220
0.0
230
1.0
 40
0.4142135624
 41
3.141592653589793
 42
4.712388980384695
  0
LINE
  5
EB
330
1F
100
AcDbEntity
  8
0
  6
HIDDEN
 62
     7
370
     0
100
AcDbLine
 10
149.1462510336
 20
127.9887251204
 30
0.0
 11
149.7235728953
 21
127.4114032587
 31
0.0
  0
LINE
  5
EC
330
1F
100
AcDbEntity
  8
0
  6
HIDDEN
 62
     7
370
     0
100
AcDbLine
 10
149.7235728953
 20
86.3209170698
 30
0.0
 11
149.1462510336
 21
85.7435952081
 31
0.0
  0
LINE
  5
ED
330
1F
100
AcDbEntity
  8
0
  6
HIDDEN
 62
     7
370
     0
100
AcDbLine
 10
158.1791694051
 20
90.6661601643
 30
0.0
 11
157.6735728953
 21
90.6661601643
 31
0.0
  0
LINE
  5
EE
330
1F
100
AcDbEntity
  8
0
  6
HIDDEN
 62
     7
370
     0
100
AcDbLine
 10
156.8378028998
 20
86.3209170698
 30
0.0
 11
149.7235728953
 21
86.3209170698
 31
0.0
  0
LINE
  5
EF
330
1F
100
AcDbEntity
  8
0
  6
HIDDEN
 62
     7
370
     0
100
AcDbLine
 10
149.7235728953
 20
86.3209170698
 30
0.0
 11
149.7235728953
 21
89.0661601643
 31
0.0
  0
SPLINE
  5
F0
330
1F
100
AcDbEntity
  8
0
  6
HIDDEN
 62
     7
370
     0
100
AcDbSpline
210
0.0
220
0.0
230
1.0
 70
    24
 71
     3
 72
    12
 73
     8
 74
     0
 42
0.000000001
 43
0.00000001
 40
0.0
 40
0.0
 40
0.0
 40
0.0
 40
0.4999999999999907
 40
0.4999999999999907
 40
0.7499999999999953
 40
0.7499999999999953
 40
1.0
 40
1.0
 40
1.0
 40
1.0
 10
158.4889335293154
 20
123.0661601642711
 30
0.0
 10
158.5352146733773
 20
123.066160164271
 30
0.0
 10
158.5813878633438
 20
123.0661601642711
 30
0.0
 10
158.6506031219327
 20
123.0661601642711
 30
0.0
 10
158.673666285517
 20
123.0661601642711
 30
0.0
 10
158.7198622261706
 20
123.0661601642711
 30
0.0
 10
158.7428417180409
 20
123.0661601642711
 30
0.0
 10
158.7664822278459
 20
123.0661601642711
 30
0.0
  0
LINE
  5
F1
330
1F
100
AcDbEntity
  8
0
  6
HIDDEN
 62
     7
370
     0
100
AcDbLine
 10
149.7235728953
 20
127.4114032587
 30
0.0
 11
156.8378028998
 21
127.4114032587
 31
0.0
  0
LINE
  5
F2
330
1F
100
AcDbEntity
  8
0
  6
HIDDEN
 62
     7
370
     0
100
AcDbLine
 10
149.7235728953
 20
127.4114032587
 30
0.0
 11
149.7235728953
 21
124.6661601643
 31
0.0
  0
LINE
  5
F3
330
1F
100
AcDbEntity
  8
0
  6
HIDDEN
 62
     7
370
     0
100
AcDbLine
 10
157.6735728953
 20
90.6661601643
 30
0.0
 11
149.0608311955
 21
90.6661601643
 31
0.0
  0
SPLINE
  5
F4
330
1F
100
AcDbEntity
  8
0
  6
HIDDEN
 62
     7
370
     0
100
AcDbSpline
210
0.0
220
0.0
230
1.0
 70
    24
 71
     3
 72
    12
 73
     8
 74
     0
 42
0.000000001
 43
0.00000001
 40
0.0
 40
0.0
 40
0.0
 40
0.0
 40
0.2499999999999953
 40
0.2499999999999953
 40
0.4999999999999907
 40
0.4999999999999907
 40
1.0
 40
1.0
 40
1.0
 40
1.0
 10
158.7664822278459
 20
90.66616016427103
 30
0.0
 10
158.7428417180409
 20
90.66616016427105
 30
0.0
 10
158.7198622261706
 20
90.66616016427105
 30
0.0
 10
158.673666285517
 20
90.66616016427103
 30
0.0
 10
158.6506031219327
 20
90.66616016427103
 30
0.0
 10
158.5813878633438
 20
90.66616016427103
 30
0.0
 10
158.5352146733774
 20
90.66616016427103
 30
0.0
 10
158.4889335293154
 20
90.66616016427103
 30
0.0
  0
LINE
  5
F5
330
1F
100
AcDbEntity
  8
0
  6
HIDDEN
 62
     7
370
     0
100
AcDbLine
 10
149.0608311955
 20
123.0661601643
 30
0.0
 11
157.6735728953
 21
123.0661601643
 31
0.0
  0
LINE
  5
F6
330
1F
100
AcDbEntity
  8
0
  6
HIDDEN
 62
     7
370
     0
100
AcDbLine
 10
157.6735728953
 20
123.0661601643
 30
0.0
 11
158.1791694051
 21
123.0661601643
 31
0.0
  0
SPLINE
  5
F7
330
1F
100
AcDbEntity
  8
0
  6
HIDDEN
 62
     7
370
     0
100
AcDbSpline
210
0.0
220
0.0
230
1.0
 70
    24
 71
     3
 72
     8
 73
     4
 74
     0
 42
0.000000001
 43
0.00000001
 40
0.0
 40
0.0
 40
0.0
 40
0.0
 40
1.0
 40
1.0
 40
1.0
 40
1.0
 10
158.4889335293154
 20
90.66616016427103
 30
0.0
 10
158.3856461947508
 20
90.66616016427103
 30
0.0
 10
158.2823915952651
 20
90.66616016427103
 30
0.0
 10
158.1791694050594
 20
90.66616016427103
 30
0.0
  0
SPLINE
  5
F8
330
1F
100
AcDbEntity
  8
0
  6
HIDDEN
 62
     7
370
     0
100
AcDbSpline
210
0.0
220
0.0
230
1.0
 70
    24
 71
     3
 72
     8
 73
     4
 74
     0
 42
0.000000001
 43
0.00000001
 40
0.0
 40
0.0
 40
0.0
 40
0.0
 40
1.0
 40
1.0
 40
1.0
 40
1.0
 10
158.1791694050594
 20
123.0661601642711
 30
0.0
 10
158.2823915952651
 20
123.0661601642711
 30
0.0
 10
158.3856461947508
 20
123.0661601642711
 30
0.0
 10
158.4889335293154
 20
123.0661601642711
 30
0.0
  0
SPLINE
  5
F9
330
1F
100
AcDbEntity
  8
0
  6
HIDDEN
 62
     7
370
     0
100
AcDbSpline
210
0.0
220
0.0
230
1.0
 70
    24
 71
     3
 72
     8
 73
     4
 74
     0
 42
0.000000001
 43
0.00000001
 40
0.0000000000000044
 40
0.0000000000000044
 40
0.0000000000000044
 40
0.0000000000000044
 40
0.0003364172281863
 40
0.0003364172281863
 40
0.0003364172281863
 40
0.0003364172281863
 10
160.7792689821987
 20
123.0661601642711
 30
0.0
 10
160.8763166321559
 20
123.0661601642711
 30
0.0
 10
160.9706234221964
 20
123.0661601642711
 30
0.0
 10
161.0659989216158
 20
123.0661601642711
 30
0.0
  0
SPLINE
  5
FA
330
1F
100
AcDbEntity
  8
0
  6
HIDDEN
 62
     7
370
     0
100
AcDbSpline
210
0.0
220
0.0
230
1.0
 70
    24
 71
     3
 72
    11
 73
     7
 74
     0
 42
0.000000001
 43
0.00000001
 40
0.0
 40
0.0
 40
0.0
 40
0.0
 40
0.0000172284261762
 40
0.0000172284261762
 40
0.0000172284261762
 40
0.0003364215432166
 40
0.0003364215432166
 40
0.0003364215432166
 40
0.0003364215432166
 10
161.0659989216158
 20
90.66616016427103
 30
0.0
 10
161.0611146005612
 20
90.66616016427103
 30
0.0
 10
161.0562327580996
 20
90.66616016427103
 30
0.0
 10
161.0513529985341
 20
90.66616016427103
 30
0.0
 10
160.9609462849984
 20
90.66616016427103
 30
0.0
 10
160.8713467239072
 20
90.66616016427103
 30
0.0
 10
160.7792689821987
 20
90.66616016427103
 30
0.0
  0
SPLINE
  5
FB
330
1F
100
AcDbEntity
  8
0
  6
HIDDEN
 62
     7
370
     0
100
AcDbSpline
210
0.0
220
0.0
230
1.0
 70
     8
 71
     3
 72
    18
 73
    14
 74
     0
 42
0.000000001
 43
0.00000001
 40
0.0
 40
0.0
 40
0.0
 40
0.0
 40
0.1460838096880265
 40
0.2781305992445324
 40
0.3961757258561179
 40
0.500270309296004
 40
0.5869262499645393
 40
0.6721524276012449
 40
0.75599972850748
 40
0.838521590677738
 40
0.9197740681281876
 40
0.999815882648148
 40
0.9999999999999999
 40
0.9999999999999999
 40
0.9999999999999999
 40
0.9999999999999999
 10
163.6709904085938
 20
128.0217321764153
 30
0.0
 10
163.8529356289603
 20
128.0881328908335
 30
0.0
 10
164.1993431691135
 20
128.2145539537208
 30
0.0
 10
164.6161078393923
 20
128.380580920311
 30
0.0
 10
164.9397525981674
 20
128.5168745189847
 30
0.0
 10
165.1783223913071
 20
128.6210740403041
 30
0.0
 10
165.3573346707806
 20
128.6990900587139
 30
0.0
 10
165.4934736310979
 20
128.7596470886589
 30
0.0
 10
165.5974547766019
 20
128.8066594186746
 30
0.0
 10
165.6715874059168
 20
128.8409584873057
 30
0.0
 10
165.7114049185492
 20
128.8598593381116
 30
0.0
 10
165.7291445666682
 20
128.8687344674365
 30
0.0
 10
165.7235472047898
 20
128.8661473060614
 30
0.0
 10
165.7235343589254
 20
128.8661413685635
 30
0.0
  0
SPLINE
  5
FC
330
1F
100
AcDbEntity
  8
0
  6
HIDDEN
 62
     7
370
     0
100
AcDbSpline
210
0.0
220
0.0
230
1.0
 70
     8
 71
     3
 72
    14
 73
    10
 74
     0
 42
0.000000001
 43
0.00000001
 40
0.0
 40
0.0
 40
0.0
 40
0.0
 40
0.0001837459954045
 40
0.1206873855942913
 40
0.244022104966844
 40
0.3703795474084404
 40
0.4999379337759426
 40
0.7219783401294918
 40
1.0
 40
1.0
 40
1.0
 40
1.0
 10
165.7234752904301
 20
84.8662064463718
 30
0.0
 10
165.7235078372939
 20
84.86619134153702
 30
0.0
 10
165.7448851516666
 20
84.85627023813376
 30
0.0
 10
165.6918056222434
 20
84.88197699830647
 30
0.0
 10
165.6060604085123
 20
84.92180963552318
 30
0.0
 10
165.4342649589168
 20
84.9995379907794
 30
0.0
 10
165.1376442520469
 20
85.12880113140508
 30
0.0
 10
164.6112748337428
 20
85.36083569916835
 30
0.0
 10
164.0069689516002
 20
85.58561605175485
 30
0.0
 10
163.6709904085936
 20
85.71058815212685
 30
0.0
  0
LINE
  5
FD
330
1F
100
AcDbEntity
  8
0
  6
HIDDEN
 62
     7
370
     0
100
AcDbLine
 10
164.1235728953
 20
90.6661601643
 30
0.0
 11
161.0659989216
 21
90.6661601643
 31
0.0
  0
LINE
  5
FE
330
1F
100
AcDbEntity
  8
0
  6
HIDDEN
 62
     7
370
     0
100
AcDbLine
 10
161.0659989216
 20
123.0661601643
 30
0.0
 11
164.1235728953
 21
123.0661601643
 31
0.0
  0
SPLINE
  5
FF
330
1F
100
AcDbEntity
  8
0
  6
HIDDEN
 62
     7
370
     0
100
AcDbSpline
210
0.0
220
0.0
230
1.0
 70
    24
 71
     3
 72
    10
 73
     6
 74
     0
 42
0.000000001
 43
0.00000001
 40
0.0
 40
0.0
 40
0.0
 40
0.0
 40
0.5
 40
0.5
 40
1.0
 40
1.0
 40
1.0
 40
1.0
 10
158.7664822278459
 20
123.0661601642711
 30
0.0
 10
159.1226520313069
 20
123.0661601642711
 30
0.0
 10
159.4709911262362
 20
123.0661601642711
 30
0.0
 10
160.141271651478
 20
123.066160164271
 30
0.0
 10
160.4650868846298
 20
123.0661601642711
 30
0.0
 10
160.7792689821948
 20
123.0661601642711
 30
0.0
  0
SPLINE
  5
100
330
1F
100
AcDbEntity
  8
0
  6
HIDDEN
 62
     7
370
     0
100
AcDbSpline
210
0.0
220
0.0
230
1.0
 70
    24
 71
     3
 72
    10
 73
     6
 74
     0
 42
0.000000001
 43
0.00000001
 40
0.0
 40
0.0
 40
0.0
 40
0.0
 40
0.5
 40
0.5
 40
1.0
 40
1.0
 40
1.0
 40
1.0
 10
160.7792689821948
 20
90.66616016427103
 30
0.0
 10
160.4650868846298
 20
90.66616016427103
 30
0.0
 10
160.141271651478
 20
90.66616016427103
 30
0.0
 10
159.4709911262362
 20
90.66616016427105
 30
0.0
 10
159.1226520313069
 20
90.66616016427103
 30
0.0
 10
158.7664822278459
 20
90.66616016427103
 30
0.0
  0
LINE
  5
101
330
1F
100
AcDbEntity
  8
0
  6
HIDDEN
 62
     7
370
     0
100
AcDbLine
 10
103.3235728953
 20
100.6161601643
 30
0.0
 11
103.3235728953
 21
113.1161601643
 31
0.0
  0
SPLINE
  5
102
330
1F
100
AcDbEntity
  8
0
  6
HIDDEN
 62
     7
370
     0
100
AcDbSpline
210
0.0
220
0.0
230
1.0
 70
     8
 71
     3
 72
     9
 73
     5
 74
     0
 42
0.000000001
 43
0.00000001
 40
0.0
 40
0.0
 40
0.0
 40
0.0
 40
0.4915031083965279
 40
1.0
 40
1.0
 40
1.0
 40
1.0
 10
163.6709907196537
 20
128.0216696782549
 30
0.0
 10
163.7810549570828
 20
128.1751192159345
 30
0.0
 10
164.0049889171104
 20
128.487323828801
 30
0.0
 10
164.2327754689014
 20
128.8012891873611
 30
0.0
 10
164.3486042224361
 20
128.9609395962601
 30
0.0
  0
SPLINE
  5
103
330
1F
100
AcDbEntity
  8
0
  6
HIDDEN
 62
     7
370
     0
100
AcDbSpline
210
0.0
220
0.0
230
1.0
 70
     8
 71
     3
 72
     9
 73
     5
 74
     0
 42
0.000000001
 43
0.00000001
 40
0.0
 40
0.0
 40
0.0
 40
0.0
 40
0.508496891989613
 40
1.0
 40
1.0
 40
1.0
 40
1.0
 10
164.3486042224361
 20
84.77138073228195
 30
0.0
 10
164.2327754688138
 20
84.93103114130174
 30
0.0
 10
164.0049889170235
 20
85.244996499861
 30
0.0
 10
163.7810549569962
 20
85.5572011127279
 30
0.0
 10
163.6709907196537
 20
85.71065065028716
 30
0.0
  0
LINE
  5
104
330
1F
100
AcDbEntity
  8
0
  6
HIDDEN
 62
     7
370
     0
100
AcDbLine
 10
106.1462970289
 20
101.7661601643
 30
0.0
 11
106.1462970289
 21
111.9661601643
 31
0.0
  0
LINE
  5
105
330
1F
100
AcDbEntity
  8
0
  6
HIDDEN
 62
     7
370
     0
100
AcDbLine
 10
132.3235728953
 20
101.7661601643
 30
0.0
 11
132.3235728953
 21
111.9661601643
 31
0.0
  0
LINE
  5
106
330
1F
100
AcDbEntity
  8
0
  6
HIDDEN
 62
     7
370
     0
100
AcDbLine
 10
132.8343044215
 20
102.6161601643
 30
0.0
 11
132.8343044215
 21
111.1161601643
 31
0.0
  0
LINE
  5
107
330
1F
100
AcDbEntity
  8
0
  6
HIDDEN
 62
     7
370
     0
100
AcDbLine
 10
188.7235728953
 20
130.3661601643
 30
0.0
 11
188.1735728953
 21
129.186681358
 31
0.0
  0
LINE
  5
108
330
1F
100
AcDbEntity
  8
0
  6
HIDDEN
 62
     7
370
     0
100
AcDbLine
 10
188.1735728953
 20
84.5456389706
 30
0.0
 11
188.7235728953
 21
83.3661601643
 31
0.0
  0
LINE
  5
109
330
1F
100
AcDbEntity
  8
0
  6
HIDDEN
 62
     7
370
     0
100
AcDbLine
 10
188.1735728953
 20
126.0661601643
 30
0.0
 11
184.1735728953
 21
126.0661601643
 31
0.0
  0
LINE
  5
10A
330
1F
100
AcDbEntity
  8
0
  6
HIDDEN
 62
     7
370
     0
100
AcDbLine
 10
184.1735728953
 20
87.6661601643
 30
0.0
 11
188.1735728953
 21
87.6661601643
 31
0.0
  0
LINE
  5
10B
330
1F
100
AcDbEntity
  8
0
  6
HIDDEN
 62
     7
370
     0
100
AcDbLine
 10
184.1735728953
 20
122.5589804873
 30
0.0
 11
182.9735728953
 21
121.8661601643
 31
0.0
  0
LINE
  5
10C
330
1F
100
AcDbEntity
  8
0
  6
HIDDEN
 62
     7
370
     0
100
AcDbLine
 10
182.9735728953
 20
91.8661601643
 30
0.0
 11
184.1735728953
 21
91.1733398412
 31
0.0
  0
ARC
  5
10D
330
1F
100
AcDbEntity
  8
0
  6
HIDDEN
 62
     7
370
     0
100
AcDbCircle
 10
159.0249661545
 20
92.1661601643
 30
0.0
 40
0.6000000000000008
100
AcDbArc
 50
270.0
 51
285.0
  0
ARC
  5
10E
330
1F
100
AcDbEntity
  8
0
  6
HIDDEN
 62
     7
370
     0
100
AcDbCircle
 10
159.0249661545
 20
121.5661601643
 30
0.0
 40
0.5999999999999943
100
AcDbArc
 50
75.0
 51
90.0
  0
ARC
  5
10F
330
1F
100
AcDbEntity
  8
0
  6
HIDDEN
 62
     7
370
     0
100
AcDbCircle
 10
158.3235728953
 20
92.1661601643
 30
0.0
 40
0.5999999999999943
100
AcDbArc
 50
180.0
 51
270.0
  0
ARC
  5
110
330
1F
100
AcDbEntity
  8
0
  6
HIDDEN
 62
     7
370
     0
100
AcDbCircle
 10
158.3235728953
 20
121.5661601643
 30
0.0
 40
0.5999999999999943
100
AcDbArc
 50
90.0
 51
180.0
  0
LINE
  5
111
330
1F
100
AcDbEntity
  8
0
  6
HIDDEN
 62
     7
370
     0
100
AcDbLine
 10
158.3235728953
 20
91.5661601643
 30
0.0
 11
159.0249661545
 21
91.5661601643
 31
0.0
  0
LINE
  5
112
330
1F
100
AcDbEntity
  8
0
  6
HIDDEN
 62
     7
370
     0
100
AcDbLine
 10
159.0249661545
 20
122.1661601643
 30
0.0
 11
158.3235728953
 21
122.1661601643
 31
0.0
  0
LINE
  5
113
330
1F
100
AcDbEntity
  8
0
  6
HIDDEN
 62
     7
370
     0
100
AcDbLine
 10
159.1802575815
 20
91.5866046685
 30
0.0
 11
160.2235728953
 21
91.8661601643
 31
0.0
  0
LINE
  5
114
330
1F
100
AcDbEntity
  8
0
  6
HIDDEN
 62
     7
370
     0
100
AcDbLine
 10
160.2235728953
 20
121.8661601643
 30
0.0
 11
159.1802575815
 21
122.14571566
 31
0.0
  0
LINE
  5
115
330
1F
100
AcDbEntity
  8
0
  6
HIDDEN
 62
     7
370
     0
100
AcDbLine
 10
160.2235728953
 20
91.8661601643
 30
0.0
 11
182.9735728953
 21
91.8661601643
 31
0.0
  0
LINE
  5
116
330
1F
100
AcDbEntity
  8
0
  6
HIDDEN
 62
     7
370
     0
100
AcDbLine
 10
182.9735728953
 20
121.8661601643
 30
0.0
 11
160.2235728953
 21
121.8661601643
 31
0.0
  0
LINE
  5
117
330
1F
100
AcDbEntity
  8
0
  6
HIDDEN
 62
     7
370
     0
100
AcDbLine
 10
188.1735728953
 20
128.1411601643
 30
0.0
 11
184.1735728953
 21
128.1411601643
 31
0.0
  0
LINE
  5
118
330
1F
100
AcDbEntity
  8
0
  6
HIDDEN
 62
     7
370
     0
100
AcDbLine
 10
184.1735728953
 20
85.5911601643
 30
0.0
 11
188.1735728953
 21
85.5911601643
 31
0.0
  0
ARC
  5
119
330
1F
100
AcDbEntity
  8
0
  6
HIDDEN
 62
     7
370
     0
100
AcDbCircle
 10
99.1235728953
 20
99.8161601643
 30
0.0
 40
0.8000000000000114
100
AcDbArc
 50
90.0
 51
180.0
  0
ARC
  5
11A
330
1F
100
AcDbEntity
  8
0
  6
HIDDEN
 62
     7
370
     0
100
AcDbCircle
 10
99.1235728953
 20
113.9161601643
 30
0.0
 40
0.8000000000000114
100
AcDbArc
 50
180.0
 51
270.0
  0
LINE
  5
11B
330
1F
100
AcDbEntity
  8
0
  6
HIDDEN
 62
     7
370
     0
100
AcDbLine
 10
165.7235728953
 20
124.6661601643
 30
0.0
 11
165.7235728953
 21
128.8661413686
 31
0.0
  0
LINE
  5
11C
330
1F
100
AcDbEntity
  8
0
  6
HIDDEN
 62
     7
370
     0
100
AcDbLine
 10
165.7235728953
 20
84.8662064464
 30
0.0
 11
165.7235728953
 21
89.0661601643
 31
0.0
  0
ARC
  5
11D
330
1F
100
AcDbEntity
  8
0
  6
HIDDEN
 62
     7
370
     0
100
AcDbCircle
 10
164.1235728953
 20
89.0661601643
 30
0.0
 40
1.59999999999998
100
AcDbArc
 50
0.0
 51
90.0
  0
ARC
  5
11E
330
1F
100
AcDbEntity
  8
0
  6
HIDDEN
 62
     7
370
     0
100
AcDbCircle
 10
164.1235728953
 20
124.6661601643
 30
0.0
 40
1.59999999999998
100
AcDbArc
 50
270.0
 51
0.0
  0
LINE
  5
11F
330
1F
100
AcDbEntity
  8
0
  6
HIDDEN
 62
     7
370
     0
100
AcDbLine
 10
104.4025478664
 20
100.3411601643
 30
0.0
 11
105.0926327876
 21
100.3411601643
 31
0.0
  0
LINE
  5
120
330
1F
100
AcDbEntity
  8
0
  6
HIDDEN
 62
     7
370
     0
100
AcDbLine
 10
105.0926327876
 20
113.3911601643
 30
0.0
 11
104.4025478664
 21
113.3911601643
 31
0.0
  0
ARC
  5
121
330
1F
100
AcDbEntity
  8
0
  6
HIDDEN
 62
     7
370
     0
100
AcDbCircle
 10
104.4025478664
 20
100.7411601643
 30
0.0
 40
0.3999999999999915
100
AcDbArc
 50
255.0
 51
270.0
  0
ARC
  5
122
330
1F
100
AcDbEntity
  8
0
  6
HIDDEN
 62
     7
370
     0
100
AcDbCircle
 10
104.4025478664
 20
112.9911601643
 30
0.0
 40
0.3999999999999915
100
AcDbArc
 50
90.0
 51
105.0
  0
ARC
  5
123
330
1F
100
AcDbEntity
  8
0
  6
HIDDEN
 62
     7
370
     0
100
AcDbCircle
 10
105.0926327876
 20
100.7411601643
 30
0.0
 40
0.4000000000000102
100
AcDbArc
 50
270.0
 51
330.0
  0
ARC
  5
124
330
1F
100
AcDbEntity
  8
0
  6
HIDDEN
 62
     7
370
     0
100
AcDbCircle
 10
105.0926327876
 20
112.9911601643
 30
0.0
 40
0.4000000000000102
100
AcDbArc
 50
30.0
 51
90.0
  0
LINE
  5
125
330
1F
100
AcDbEntity
  8
0
  6
HIDDEN
 62
     7
370
     0
100
AcDbLine
 10
104.2990202484
 20
113.3775304948
 30
0.0
 11
103.3235728953
 21
113.1161601643
 31
0.0
  0
LINE
  5
126
330
1F
100
AcDbEntity
  8
0
  6
HIDDEN
 62
     7
370
     0
100
AcDbLine
 10
103.3235728953
 20
100.6161601643
 30
0.0
 11
104.2990202484
 21
100.3547898338
 31
0.0
  0
LINE
  5
127
330
1F
100
AcDbEntity
  8
0
  6
HIDDEN
 62
     7
370
     0
100
AcDbLine
 10
165.7235817668
 20
128.8661662523
 30
0.0
 11
166.7235822371
 21
129.8661662812
 31
0.0
  0
LINE
  5
128
330
1F
100
AcDbEntity
  8
0
  6
HIDDEN
 62
     7
370
     0
100
AcDbLine
 10
166.7235822369
 20
83.8661540475
 30
0.0
 11
165.7235817665
 21
84.8661540765
 31
0.0
  0
LINE
  5
129
330
1F
100
AcDbEntity
  8
0
  6
HIDDEN
 62
     7
370
     0
100
AcDbLine
 10
105.4390429491
 20
100.5411601643
 30
0.0
 11
106.1462970289
 21
101.7661601643
 31
0.0
  0
LINE
  5
12A
330
1F
100
AcDbEntity
  8
0
  6
HIDDEN
 62
     7
370
     0
100
AcDbLine
 10
106.1462970289
 20
111.9661601643
 30
0.0
 11
105.4390429491
 21
113.1911601643
 31
0.0
  0
LINE
  5
12B
330
1F
100
AcDbEntity
  8
0
  6
HIDDEN
 62
     7
370
     0
100
AcDbLine
 10
99.1235728953
 20
100.6161601643
 30
0.0
 11
103.3235728953
 21
100.6161601643
 31
0.0
  0
LINE
  5
12C
330
1F
100
AcDbEntity
  8
0
  6
HIDDEN
 62
     7
370
     0
100
AcDbLine
 10
103.3235728953
 20
113.1161601643
 30
0.0
 11
99.1235728953
 21
113.1161601643
 31
0.0
  0
LINE
  5
12D
330
1F
100
AcDbEntity
  8
0
  6
HIDDEN
 62
     7
370
     0
100
AcDbLine
 10
132.3235728953
 20
101.7661601643
 30
0.0
 11
132.8343044215
 21
102.6161601643
 31
0.0
  0
LINE
  5
12E
330
1F
100
AcDbEntity
  8
0
  6
HIDDEN
 62
     7
370
     0
100
AcDbLine
 10
132.8343044215
 20
111.1161601643
 30
0.0
 11
132.3235728953
 21
111.9661601643
 31
0.0
  0
LINE
  5
12F
330
1F
100
AcDbEntity
  8
0
  6
HIDDEN
 62
     7
370
     0
100
AcDbLine
 10
106.1462970289
 20
101.7661601643
 30
0.0
 11
132.3235728953
 21
101.7661601643
 31
0.0
  0
LINE
  5
130
330
1F
100
AcDbEntity
  8
0
  6
HIDDEN
 62
     7
370
     0
100
AcDbLine
 10
132.3235728953
 20
111.9661601643
 30
0.0
 11
106.1462970289
 21
111.9661601643
 31
0.0
  0
LINE
  5
131
330
1F
100
AcDbEntity
  8
0
  6
HIDDEN
 62
     7
370
     0
100
AcDbLine
 10
132.8343044215
 20
102.6161601643
 30
0.0
 11
157.7235728953
 21
102.6161601643
 31
0.0
  0
LINE
  5
132
330
1F
100
AcDbEntity
  8
0
  6
HIDDEN
 62
     7
370
     0
100
AcDbLine
 10
157.7235728953
 20
111.1161601643
 30
0.0
 11
132.8343044215
 21
111.1161601643
 31
0.0
  0
LINE
  5
133
330
1F
100
AcDbEntity
  8
VERMASSUNG
100
AcDbLine
 10
168.7235728953
 20
129.8661601643
 30
0.0
 11
168.7235728953
 21
111.0529028142
 31
0.0
  0
LINE
  5
134
330
1F
100
AcDbEntity
  8
VERMASSUNG
100
AcDbLine
 10
168.7235728953
 20
83.8661601643
 30
0.0
 11
168.7235728953
 21
102.5822049328
 31
0.0
  0
DIMENSION
  5
135
330
1F
100
AcDbEntity
  8
VERMASSUNG
100
AcDbDimension
  2
_D
 10
188.7235728953
 20
138.1553600567
 30
0.0
 11
178.7235728953
 21
138.1553600567
 31
0.0
 70
   160
  1
<>
 71
     2
 42
-1.0
  3
SLDDIMSTYLE0
100
AcDbAlignedDimension
 13
168.7235728953
 23
129.8661601643
 33
0.0
 14
188.7235728953
 24
133.8661601643
 34
0.0
100
AcDbRotatedDimension
  0
DIMENSION
  5
140
330
1F
100
AcDbEntity
  8
VERMASSUNG
100
AcDbDimension
  2
_D_1
 10
92.4377687332
 20
83.8661601643
 30
0.0
 11
92.4377687332
 21
106.8661601643
 31
0.0
 70
   160
  1
MAS BT 30 %%c<>
 71
     2
 42
-1.0
  3
SLDDIMSTYLE0
100
AcDbAlignedDimension
 13
166.7235714532
 23
129.8661601643
 33
0.0
 14
166.7235714844
 24
83.8661601643
 34
0.0
 50
90.0
100
AcDbRotatedDimension
  0
DIMENSION
  5
14C
330
1F
100
AcDbEntity
  8
VERMASSUNG
100
AcDbDimension
  2
_D_2
 10
188.7235728953
 20
144.1553600567
 30
0.0
 11
167.7235728953
 21
144.1553600567
 31
0.0
 70
   160
  1
<>
 71
     2
 42
-1.0
  3
SLDDIMSTYLE0
100
AcDbAlignedDimension
 13
146.7235728953
 23
122.7411601643
 33
0.0
 14
188.7235728953
 24
133.8661601643
 34
0.0
100
AcDbRotatedDimension
  0
DIMENSION
  5
156
330
1F
100
AcDbEntity
  8
VERMASSUNG
100
AcDbDimension
  2
_D_3
 10
188.7235728953
 20
150.1553600567
 30
0.0
 11
143.5235728953
 21
150.1553600567
 31
0.0
 70
   160
  1
<>
 71
     2
 42
-1.0
  3
SLDDIMSTYLE0
100
AcDbAlignedDimension
 13
98.3235728953
 23
115.2504546295
 33
0.0
 14
188.7235728953
 24
133.8661601643
 34
0.0
100
AcDbRotatedDimension
  0
DIMENSION
  5
160
330
1F
100
AcDbEntity
  8
VERMASSUNG
100
AcDbDimension
  2
_D_4
 10
195.4604466718
 20
79.3661601643
 30
0.0
 11
195.4604466718
 21
106.8661601643
 31
0.0
 70
   160
  1
MBM %%c<>
 71
     2
 42
-1.0
  3
SLDDIMSTYLE0
100
AcDbAlignedDimension
 13
188.2235728953
 23
134.3661601643
 33
0.0
 14
188.2235728953
 24
79.3661601643
 34
0.0
 50
90.0
100
AcDbRotatedDimension
  0
LINE
  5
16C
330
1F
100
AcDbEntity
  8
VERMASSUNG
  6
CENTERX2
 62
     7
370
     0
100
AcDbLine
 10
96.3235728953
 20
106.8661601643
 30
0.0
 11
190.7235728953
 21
106.8661601643
 31
0.0
  0
LINE
  5
16D
330
1F
100
AcDbEntity
  8
0
  6
Continuous
 62
     7
370
    15
100
AcDbLine
 10
261.1680661568
 20
52.3601383058
 30
0.0
 11
260.9912607373
 21
52.4622390796
 31
0.0
  0
LINE
  5
16E
330
1F
100
AcDbEntity
  8
0
  6
Continuous
 62
     7
370
    15
100
AcDbLine
 10
257.1015415088
 20
52.4622390796
 30
0.0
 11
256.9247360893
 21
52.3601383058
 31
0.0
  0
LINE
  5
16F
330
1F
100
AcDbEntity
  8
0
  6
Continuous
 62
     7
370
    15
100
AcDbLine
 10
262.046401123
 20
49.298508329
 30
0.0
 11
262.046401123
 21
51.1357251558
 31
0.0
  0
LINE
  5
170
330
1F
100
AcDbEntity
  8
0
  6
Continuous
 62
     7
370
    15
100
AcDbLine
 10
256.046401123
 20
51.1357251558
 30
0.0
 11
256.046401123
 21
49.298508329
 31
0.0
  0
LINE
  5
171
330
1F
100
AcDbEntity
  8
0
  6
Continuous
 62
     7
370
    15
100
AcDbLine
 10
264.015406476
 20
26.0182669262
 30
0.0
 11
264.1921544401
 21
26.1203345263
 31
0.0
  0
LINE
  5
172
330
1F
100
AcDbEntity
  8
0
  6
Continuous
 62
     7
370
    15
100
AcDbLine
 10
273.7365445022
 20
42.6534944434
 30
0.0
 11
273.7365445022
 21
42.8575964713
 31
0.0
  0
LINE
  5
173
330
1F
100
AcDbEntity
  8
0
  6
Continuous
 62
     7
370
    15
100
AcDbLine
 10
251.9825307245
 20
28.313607436
 30
0.0
 11
257.139384974
 21
25.3366188448
 31
0.0
  0
LINE
  5
174
330
1F
100
AcDbEntity
  8
0
  6
Continuous
 62
     7
370
    15
100
AcDbLine
 10
270.8882675477
 20
49.1529625603
 30
0.0
 11
265.7314132982
 21
52.1299511515
 31
0.0
  0
SPLINE
  5
175
330
1F
100
AcDbEntity
  8
0
  6
Continuous
 62
     7
370
    15
100
AcDbSpline
210
0.0
220
0.0
230
1.0
 70
     8
 71
     3
 72
    14
 73
    10
 74
     0
 42
0.000000001
 43
0.00000001
 40
0.0
 40
0.0
 40
0.0
 40
0.0
 40
0.1328755981508592
 40
0.2993576963716206
 40
0.4660363211684611
 40
0.6334398286181216
 40
0.8019144886385071
 40
0.9715751008481555
 40
1.0
 40
1.0
 40
1.0
 40
1.0
 10
265.8214394077226
 20
52.06870041932994
 30
0.0
 10
265.6736968852933
 20
52.15554895609645
 30
0.0
 10
265.3408452422071
 20
52.35121150257962
 30
0.0
 10
264.7748328404926
 20
52.56739684557926
 30
0.0
 10
264.1378218063996
 20
52.7311204109057
 30
0.0
 10
263.4683615661106
 20
52.81695328056259
 30
0.0
 10
262.7703294204708
 20
52.82186419931902
 30
0.0
 10
262.2519070039121
 20
52.78051058031991
 30
0.0
 10
261.9657248936422
 20
52.72745292808288
 30
0.0
 10
261.9246582978696
 20
52.71983925455519
 30
0.0
  0
SPLINE
  5
176
330
1F
100
AcDbEntity
  8
0
  6
Continuous
 62
     7
370
    15
100
AcDbSpline
210
0.0
220
0.0
230
1.0
 70
     8
 71
     3
 72
    15
 73
    11
 74
     0
 42
0.000000001
 43
0.00000001
 40
0.0
 40
0.0
 40
0.0
 40
0.0
 40
0.0631548187022625
 40
0.2164138341832947
 40
0.3691135360390602
 40
0.5209895618953205
 40
0.6718211932584921
 40
0.8215189575689552
 40
0.9701965017884902
 40
1.0
 40
1.0
 40
1.0
 40
1.0
 10
249.3148184486196
 20
32.13695700244011
 30
0.0
 10
249.3402377320483
 20
32.03069782629631
 30
0.0
 10
249.4273424803799
 20
31.66657745988613
 30
0.0
 10
249.6403022111331
 20
31.0968766134956
 30
0.0
 10
249.9506156463888
 20
30.43333448062661
 30
0.0
 10
250.3219293343154
 20
29.83484392961309
 30
0.0
 10
250.7451487582624
 20
29.29986461837317
 30
0.0
 10
251.2226371792742
 20
28.84119241619661
 30
0.0
 10
251.5973868237814
 20
28.53937490730457
 30
0.0
 10
251.8244334944208
 20
28.41417911636956
 30
0.0
 10
251.8623466808869
 20
28.39327340851176
 30
0.0
  0
LINE
  5
177
330
1F
100
AcDbEntity
  8
0
  6
Continuous
 62
     7
370
    15
100
AcDbLine
 10
248.9878071606
 20
36.4108734048
 30
0.0
 11
248.9878071606
 21
34.813075553
 31
0.0
  0
LINE
  5
178
330
1F
100
AcDbEntity
  8
0
  6
Continuous
 62
     7
370
    15
100
AcDbLine
 10
258.4761669788
 20
53.7203098624
 30
0.0
 11
256.1515534357
 21
55.0622806962
 31
0.0
  0
SPLINE
  5
179
330
1F
100
AcDbEntity
  8
0
  6
Continuous
 62
     7
370
    15
100
AcDbSpline
210
0.0
220
0.0
230
1.0
 70
     8
 71
     3
 72
    31
 73
    27
 74
     0
 42
0.000000001
 43
0.00000001
 40
0.0
 40
0.0
 40
0.0
 40
0.0
 40
0.0300813021674076
 40
0.0725828582748423
 40
0.1151535770501164
 40
0.1579737340458566
 40
0.2011535502290449
 40
0.244717303342695
 40
0.2886173974309848
 40
0.3327668660400862
 40
0.3770725487061668
 40
0.421456453809435
 40
0.4658596141304768
 40
0.5102444730819321
 40
0.5545975227353555
 40
0.598914656617796
 40
0.6431975013567475
 40
0.6874509844602331
 40
0.7316818392648343
 40
0.775897742563644
 40
0.820106850006944
 40
0.8643175653612314
 40
0.9085360810462771
 40
0.9527705393043808
 40
0.997029567681169
 40
1.0
 40
1.0
 40
1.0
 40
1.0
 10
256.1809071389022
 20
55.03499436103193
 30
0.0
 10
256.0601117793611
 20
55.10556262412445
 30
0.0
 10
255.7686459241584
 20
55.27583604547571
 30
0.0
 10
255.2601735677472
 20
55.45973595704745
 30
0.0
 10
254.6686640864331
 20
55.59709453988573
 30
0.0
 10
254.045628937307
 20
55.6548409527454
 30
0.0
 10
253.3964213311831
 20
55.63580252313038
 30
0.0
 10
252.7245011610318
 20
55.53867309959325
 30
0.0
 10
252.0347560850157
 20
55.36386532729883
 30
0.0
 10
251.3325051581363
 20
55.11232421253895
 30
0.0
 10
250.6234158117122
 20
54.78599824324734
 30
0.0
 10
249.9131645825159
 20
54.38763376762927
 30
0.0
 10
249.2072750889817
 20
53.92064144956689
 30
0.0
 10
248.5110091551464
 20
53.38891580182622
 30
0.0
 10
247.8293630326318
 20
52.79671510763908
 30
0.0
 10
247.167103495171
 20
52.14859922895685
 30
0.0
 10
246.528831673383
 20
51.44944161180626
 30
0.0
 10
245.9189823960417
 20
50.70441116811006
 30
0.0
 10
245.3418036352201
 20
49.91895039479756
 30
0.0
 10
244.8013587158073
 20
49.09875083469331
 30
0.0
 10
244.3014130943876
 20
48.24971179535738
 30
0.0
 10
243.8457471772484
 20
47.37795022145748
 30
0.0
 10
243.4368912085809
 20
46.48962827698769
 30
0.0
 10
243.0806990786108
 20
45.5913524719392
 30
0.0
 10
242.8661087281893
 20
44.96941667010071
 30
0.0
 10
242.7718179576223
 20
44.64945512021497
 30
0.0
 10
242.7658876686007
 20
44.62933157625395
 30
0.0
  0
LINE
  5
17A
330
1F
100
AcDbEntity
  8
0
  6
Continuous
 62
     7
370
    15
100
AcDbLine
 10
249.4063342374
 20
54.0404530749
 30
0.0
 11
234.3594544289
 21
59.4627521202
 31
0.0
  0
LINE
  5
17B
330
1F
100
AcDbEntity
  8
0
  6
Continuous
 62
     7
370
    15
100
AcDbLine
 10
229.9439540337
 20
51.8140523422
 30
0.0
 11
244.3209024048
 21
39.6742759901
 31
0.0
  0
LINE
  5
17C
330
1F
100
AcDbEntity
  8
0
  6
Continuous
 62
     7
370
    15
100
AcDbLine
 10
244.6524880104
 20
35.1431568614
 30
0.0
 11
246.9771015535
 21
33.8011860276
 31
0.0
  0
SPLINE
  5
17D
330
1F
100
AcDbEntity
  8
0
  6
Continuous
 62
     7
370
    15
100
AcDbSpline
210
0.0
220
0.0
230
1.0
 70
     8
 71
     3
 72
    13
 73
     9
 74
     0
 42
0.000000001
 43
0.00000001
 40
0.0
 40
0.0
 40
0.0
 40
0.0
 40
0.0787100164819882
 40
0.2961514384970128
 40
0.5121623342939223
 40
0.7261019011064195
 40
0.93813562303054
 40
1.0
 40
1.0
 40
1.0
 40
1.0
 10
242.7493210411052
 20
37.34157443150639
 30
0.0
 10
242.7825717648242
 20
37.26722969690547
 30
0.0
 10
242.9076797256729
 20
36.98750290886976
 30
0.0
 10
243.1679526977845
 20
36.54441711592865
 30
0.0
 10
243.548026266516
 20
36.03831230920839
 30
0.0
 10
243.98423876647
 20
35.60850753096257
 30
0.0
 10
244.3446860150505
 20
35.31871423514533
 30
0.0
 10
244.5718300925568
 20
35.19776219764317
 30
0.0
 10
244.6231343071315
 20
35.17044319662241
 30
0.0
  0
SPLINE
  5
17E
330
1F
100
AcDbEntity
  8
0
  6
Continuous
 62
     7
370
    15
100
AcDbSpline
210
0.0
220
0.0
230
1.0
 70
     8
 71
     3
 72
    23
 73
    19
 74
     0
 42
0.000000001
 43
0.00000001
 40
0.0
 40
0.0
 40
0.0
 40
0.0
 40
0.0430751178455375
 40
0.1055198357494992
 40
0.1690476697661565
 40
0.2335025289697686
 40
0.2984839505039494
 40
0.3636377975169215
 40
0.4287430258119081
 40
0.493756580263543
 40
0.5586868660426532
 40
0.623564128357263
 40
0.6884269782975883
 40
0.7533133860156239
 40
0.818256551582512
 40
0.8833003824068179
 40
0.948486039930201
 40
1.0
 40
1.0
 40
1.0
 40
1.0
 10
234.1047570453605
 20
59.52439978683508
 30
0.0
 10
234.017515171617
 20
59.54124952396407
 30
0.0
 10
233.8038013468307
 20
59.58252582413925
 30
0.0
 10
233.4351008546441
 20
59.55886854488995
 30
0.0
 10
233.0100076186054
 20
59.4665084687857
 30
0.0
 10
232.5711702544058
 20
59.2949475220415
 30
0.0
 10
232.1284594663605
 20
59.05064660244242
 30
0.0
 10
231.6908189288069
 20
58.73767902407205
 30
0.0
 10
231.2671484691552
 20
58.36308976872578
 30
0.0
 10
230.8654226528216
 20
57.93454728830772
 30
0.0
 10
230.4928924166924
 20
57.46041336475539
 30
0.0
 10
230.1562607003919
 20
56.94965448909089
 30
0.0
 10
229.8616186902677
 20
56.41176162656043
 30
0.0
 10
229.6145258030935
 20
55.85670278816865
 30
0.0
 10
229.4193303278896
 20
55.29442451732287
 30
0.0
 10
229.2812865583818
 20
54.73577176847602
 30
0.0
 10
229.2043045408404
 20
54.22686092276354
 30
0.0
 10
229.1956692338377
 20
53.91702803377545
 30
0.0
 10
229.1918574059217
 20
53.78026049844999
 30
0.0
  0
SPLINE
  5
17F
330
1F
100
AcDbEntity
  8
0
  6
Continuous
 62
     7
370
    15
100
AcDbSpline
210
0.0
220
0.0
230
1.0
 70
     8
 71
     3
 72
    12
 73
     8
 74
     0
 42
0.000000001
 43
0.00000001
 40
0.0
 40
0.0
 40
0.0
 40
0.0
 40
0.1267325600694326
 40
0.3670797130715206
 40
0.6074934910856815
 40
0.8462848271435474
 40
1.0
 40
1.0
 40
1.0
 40
1.0
 10
229.1918574059217
 20
53.78026049844999
 30
0.0
 10
229.1936283427779
 20
53.69077804216361
 30
0.0
 10
229.1987578453515
 20
53.43159291751576
 30
0.0
 10
229.2552424630848
 20
53.02875865076146
 30
0.0
 10
229.3852169882225
 20
52.59737534700813
 30
0.0
 10
229.5484991163511
 20
52.25574236851243
 30
0.0
 10
229.6923196952203
 20
52.0882484848395
 30
0.0
 10
229.7486433602784
 20
52.02265377316861
 30
0.0
  0
LWPOLYLINE
  5
180
330
1F
100
AcDbEntity
  8
0
  6
Continuous
 62
     7
370
    15
100
AcDbPolyline
 90
       35
 70
   128
 43
0.0
 10
257.1018574748
 20
50.217299205
 10
256.7776580679
 20
50.4426830126
 10
256.5307179847
 20
50.6986191186
 10
256.3694464735
 20
50.976391926
 10
256.2993354423
 20
51.266542215
 10
256.3227724381
 20
51.5591892654
 10
256.4389593421
 20
51.8443673329
 10
256.6439395487
 20
52.1123650206
 10
256.9307327028
 20
52.3540559885
 10
257.2895724075
 20
52.5612097406
 10
257.708238807
 20
52.7267719043
 10
258.1724747192
 20
52.8451044588
 10
258.6664711469
 20
52.9121777308
 10
259.1734056343
 20
52.9257076205
 10
259.6760151354
 20
52.8852333837
 10
260.1571838864
 20
52.792133322
 10
260.6005262627
 20
52.6495778464
 10
260.9909447713
 20
52.4624215125
 10
261.3151441782
 20
52.2370377049
 10
261.5620842614
 20
51.9811015988
 10
261.7233557725
 20
51.7033287914
 10
261.7934668037
 20
51.4131785025
 10
261.7700298079
 20
51.1205314521
 10
261.6538429039
 20
50.8353533845
 10
261.4488626973
 20
50.5673556969
 10
261.1620695432
 20
50.325664729
 10
260.8032298386
 20
50.1185109769
 10
260.3845634391
 20
49.9529488132
 10
259.9203275269
 20
49.8346162587
 10
259.4263310991
 20
49.7675429867
 10
258.9193966117
 20
49.754013097
 10
258.4167871107
 20
49.7944873338
 10
257.9356183596
 20
49.8875873955
 10
257.4922759834
 20
50.0301428711
 10
257.1018574748
 20
50.217299205
  0
LWPOLYLINE
  5
181
330
1F
100
AcDbEntity
  8
0
  6
Continuous
 62
     7
370
    15
100
AcDbPolyline
 90
       10
 70
   128
 43
0.0
 10
256.9250807795
 20
49.911112988
 10
256.5803948967
 20
50.1494559554
 10
256.314968483
 20
50.4194984263
 10
256.1373325619
 20
50.7125610137
 10
256.0531964979
 20
51.0192244447
 10
256.0652644933
 20
51.3296323045
 10
256.173148673
 20
51.633807829
 10
256.3733815505
 20
51.9219745665
 10
256.6595274764
 20
52.184870601
 10
256.9247360893
 20
52.3601383058
  0
LWPOLYLINE
  5
182
330
1F
100
AcDbEntity
  8
0
  6
Continuous
 62
     7
370
    15
100
AcDbPolyline
 90
       19
 70
   128
 43
0.0
 10
261.1680661568
 20
52.3601383058
 10
261.3493353441
 20
52.2456340066
 10
261.6556245225
 20
51.9904138461
 10
261.8780511139
 20
51.7077232878
 10
262.0094661448
 20
51.406648239
 10
262.0456458278
 20
51.0968654994
 10
261.9854273183
 20
50.7883317411
 10
261.8307460886
 20
50.4909634929
 10
261.5865737207
 20
50.2143184151
 10
261.2607581155
 20
49.9672881082
 10
260.8637712545
 20
49.7578123293
 10
260.4083726222
 20
49.5926238024
 10
259.9091991053
 20
49.4770318226
 10
259.3822945513
 20
49.4147516114
 10
258.8445941062
 20
49.4077849059
 10
258.3133799046
 20
49.4563556218
 10
257.8057256081
 20
49.5589026563
 10
257.3379476435
 20
49.7121300634
 10
256.9250807795
 20
49.911112988
  0
LWPOLYLINE
  5
183
330
1F
100
AcDbEntity
  8
0
  6
Continuous
 62
     7
370
    15
100
AcDbPolyline
 90
       28
 70
   128
 43
0.0
 10
257.8089642559
 20
50.6255032609
 10
257.5569469463
 20
50.8095009331
 10
257.3852264968
 20
51.0220904191
 10
257.3030604014
 20
51.2518109649
 10
257.3148782555
 20
51.4862782763
 10
257.4200429556
 20
51.7128521599
 10
257.6128850455
 20
51.9193179589
 10
257.8830083582
 20
52.0945450487
 10
258.215850476
 20
52.2290868915
 10
258.5934677941
 20
52.3156903018
 10
258.9955028652
 20
52.3496864672
 10
259.4002818746
 20
52.3292426458
 10
259.7859830811
 20
52.2554609692
 10
260.1318132327
 20
52.1323190267
 10
260.4191285366
 20
51.9664554322
 10
260.6324397503
 20
51.7668119352
 10
260.7602472111
 20
51.5441513682
 10
260.7956607857
 20
51.3104774199
 10
260.736771319
 20
51.0783875136
 10
260.5867535576
 20
50.8603936759
 10
260.3536949977
 20
50.6682480113
 10
260.0501598866
 20
50.5123091421
 10
259.6925118808
 20
50.4009837733
 10
259.3000318768
 20
50.3402734841
 10
258.8938785732
 20
50.3334511821
 10
258.4959477998
 20
50.3808846594
 10
258.1276921074
 20
50.4800167648
 10
257.8089642559
 20
50.6255032609
  0
SPLINE
  5
184
330
1F
100
AcDbEntity
  8
0
  6
Continuous
 62
     7
370
    15
100
AcDbSpline
210
0.0
220
0.0
230
1.0
 70
     8
 71
     3
 72
    11
 73
     7
 74
     0
 42
0.000000001
 43
0.00000001
 40
0.0
 40
0.0
 40
0.0
 40
0.0
 40
0.1637896638582334
 40
0.5649972943017677
 40
0.7820320217234319
 40
1.0
 40
1.0
 40
1.0
 40
1.0
 10
257.8874053174333
 20
50.59116253643326
 30
0.0
 10
257.8578819742681
 20
50.60999577525865
 30
0.0
 10
257.7560403280119
 20
50.6749615901253
 30
0.0
 10
257.6199323979814
 20
50.80271740565929
 30
0.0
 10
257.4793971412553
 20
50.94607018209904
 30
0.0
 10
257.4087619041817
 20
51.02624146715706
 30
0.0
 10
257.3733685155467
 20
51.06641310905957
 30
0.0
  0
SPLINE
  5
185
330
1F
100
AcDbEntity
  8
0
  6
Continuous
 62
     7
370
    15
100
AcDbSpline
210
0.0
220
0.0
230
1.0
 70
     8
 71
     3
 72
    15
 73
    11
 74
     0
 42
0.000000001
 43
0.00000001
 40
0.0
 40
0.0
 40
0.0
 40
0.0
 40
0.1077869592233296
 40
0.2161701819135361
 40
0.3273150562947917
 40
0.4399598612360049
 40
0.5934902695338442
 40
0.7521517812193738
 40
0.8755082115460576
 40
1.0
 40
1.0
 40
1.0
 40
1.0
 10
260.7194337304979
 20
51.58399511209947
 30
0.0
 10
260.7042570837403
 20
51.52838813152423
 30
0.0
 10
260.6738198349852
 20
51.41686655977541
 30
0.0
 10
260.6258328395689
 20
51.25760003708766
 30
0.0
 10
260.5756596731617
 20
51.10732933904677
 30
0.0
 10
260.5172045927515
 20
50.95547903472925
 30
0.0
 10
260.4505186524536
 20
50.81604552174888
 30
0.0
 10
260.383687627504
 20
50.7161398739841
 30
0.0
 10
260.323649354816
 20
50.65258056549552
 30
0.0
 10
260.2887004798555
 20
50.62967779056146
 30
0.0
 10
260.2711459944139
 20
50.61817394588537
 30
0.0
  0
SPLINE
  5
186
330
1F
100
AcDbEntity
  8
0
  6
Continuous
 62
     7
370
    15
100
AcDbSpline
210
0.0
220
0.0
230
1.0
 70
     8
 71
     3
 72
    11
 73
     7
 74
     0
 42
0.000000001
 43
0.00000001
 40
0.0
 40
0.0
 40
0.0
 40
0.0
 40
0.1843643438496127
 40
0.5174526391740203
 40
0.8663352079125943
 40
1.0
 40
1.0
 40
1.0
 40
1.0
 10
259.4946888591064
 20
52.29102527679363
 30
0.0
 10
259.5657591212595
 20
52.21189136423047
 30
0.0
 10
259.7652309602825
 20
51.98978739852348
 30
0.0
 10
260.1368647702965
 20
51.695664940774
 30
0.0
 10
260.4828959428188
 20
51.59133914999358
 30
0.0
 10
260.6681254691119
 20
51.5855881337456
 30
0.0
 10
260.7194337304979
 20
51.58399511209947
 30
0.0
  0
SPLINE
  5
187
330
1F
100
AcDbEntity
  8
0
  6
Continuous
 62
     7
370
    15
100
AcDbSpline
210
0.0
220
0.0
230
1.0
 70
     8
 71
     3
 72
    11
 73
     7
 74
     0
 42
0.000000001
 43
0.00000001
 40
0.0
 40
0.0
 40
0.0
 40
0.0
 40
0.2164553779443457
 40
0.4403112895790577
 40
0.7519005688038777
 40
1.0
 40
1.0
 40
1.0
 40
1.0
 10
257.8216562516307
 20
52.03223427527367
 30
0.0
 10
257.9362606062611
 20
52.00559979433994
 30
0.0
 10
258.1693875983364
 20
51.95142020888181
 30
0.0
 10
258.6020090312713
 20
51.94312409978775
 30
0.0
 10
259.0660731212928
 20
52.06025629011311
 30
0.0
 10
259.3630462720533
 20
52.22014820967238
 30
0.0
 10
259.4946888591064
 20
52.29102527679363
 30
0.0
  0
SPLINE
  5
188
330
1F
100
AcDbEntity
  8
0
  6
Continuous
 62
     7
370
    15
100
AcDbSpline
210
0.0
220
0.0
230
1.0
 70
     8
 71
     3
 72
    11
 73
     7
 74
     0
 42
0.000000001
 43
0.00000001
 40
0.0
 40
0.0
 40
0.0
 40
0.0
 40
0.2164553779443448
 40
0.440311289579057
 40
0.7519005688038775
 40
1.0
 40
1.0
 40
1.0
 40
1.0
 10
257.3733685155467
 20
51.06641310905957
 30
0.0
 10
257.404076659819
 20
51.08821087945608
 30
0.0
 10
257.4665428490795
 20
51.1325516783976
 30
0.0
 10
257.5824634126628
 20
51.30708308958702
 30
0.0
 10
257.7068090108203
 20
51.62033059083367
 30
0.0
 10
257.7863827267403
 20
51.90572453274072
 30
0.0
 10
257.8216562516307
 20
52.03223427527367
 30
0.0
  0
LINE
  5
189
330
1F
100
AcDbEntity
  8
0
  6
Continuous
 62
     7
370
    15
100
AcDbLine
 10
257.8216562516
 20
50.6349555319
 30
0.0
 11
257.8216562516
 21
52.0322342753
 31
0.0
  0
LINE
  5
18A
330
1F
100
AcDbEntity
  8
0
  6
Continuous
 62
     7
370
    15
100
AcDbLine
 10
259.4946888591
 20
50.3633157648
 30
0.0
 11
259.4946888591
 21
52.2910252768
 31
0.0
  0
LWPOLYLINE
  5
18B
330
1F
100
AcDbEntity
  8
0
  6
Continuous
 62
     7
370
    15
100
AcDbPolyline
 90
       76
 70
   128
 43
0.0
 10
254.6446614101
 20
31.6319849338
 10
254.6781403707
 20
32.5737179771
 10
254.7783424217
 20
33.5474994249
 10
254.9445647176
 20
34.5464989
 10
255.1756413284
 20
35.5637091388
 10
255.4699514179
 20
36.5919951424
 10
255.8254306121
 20
37.6241442233
 10
256.2395854799
 20
38.6529165972
 10
256.7095110225
 20
39.6710961652
 10
257.2319110499
 20
40.6715411292
 10
257.8031213012
 20
41.6472340864
 10
258.4191351469
 20
42.591331252
 10
259.0756316925
 20
43.4972104625
 10
259.7680060864
 20
44.3585176262
 10
260.4914018197
 20
45.1692112923
 10
261.2407447911
 20
45.923605027
 10
262.0107788981
 20
46.6164073005
 10
262.7961029046
 20
47.2427586024
 10
263.5912083271
 20
47.7982655285
 10
264.3905180722
 20
48.2790315969
 10
265.1884255564
 20
48.6816845789
 10
265.979334032
 20
49.0034001533
 10
266.7576958443
 20
49.2419217163
 10
267.5180513445
 20
49.3955762107
 10
268.2550671849
 20
49.4632858605
 10
268.9635737292
 20
49.4445757313
 10
269.6386013128
 20
49.339577061
 10
270.2754151023
 20
49.14902634
 10
270.8695483066
 20
48.8742601447
 10
271.416833508
 20
48.5172057624
 10
271.9134318942
 20
48.0803676732
 10
272.3558601842
 20
47.5668099823
 10
272.7410150615
 20
46.980134928
 10
273.0661949413
 20
46.3244576142
 10
273.3291189205
 20
45.6043771463
 10
273.5279427761
 20
44.8249443713
 10
273.6612719018
 20
43.9916264501
 10
273.7281710896
 20
43.1102685091
 10
273.7281710896
 20
42.1870526412
 10
273.6612719018
 20
41.2284545422
 10
273.5279427761
 20
40.2411980891
 10
273.3291189205
 20
39.2322081766
 10
273.0661949413
 20
38.2085621439
 10
272.7410150615
 20
37.1774401325
 10
272.3558601842
 20
36.1460747224
 10
271.9134318942
 20
35.1217002009
 10
271.416833508
 20
34.1115018193
 10
270.8695483066
 20
33.1225653934
 10
270.2754151023
 20
32.1618276018
 10
269.6386013128
 20
31.2360273296
 10
268.9635737292
 20
30.3516584006
 10
268.2550671849
 20
29.5149240275
 10
267.5180513445
 20
28.7316933007
 10
266.7576958443
 20
28.007460021
 10
265.979334032
 20
27.3473041645
 10
265.1884255564
 20
26.7558562501
 10
264.3905180722
 20
26.2372648601
 10
263.5912083271
 20
25.7951675405
 10
262.7961029046
 20
25.4326652862
 10
262.0107788981
 20
25.1523007902
 10
261.2407447911
 20
24.956040608
 10
260.4914018197
 20
24.8452613636
 10
259.7680060864
 20
24.820740094
 10
259.0756316925
 20
24.8826487982
 10
258.4191351469
 20
25.0305532312
 10
257.8031213012
 20
25.2634159495
 10
257.2319110499
 20
25.5796035886
 10
256.7095110225
 20
25.9768983194
 10
256.2395854799
 20
26.4525134047
 10
255.8254306121
 20
27.0031127464
 10
255.4699514179
 20
27.6248342859
 10
255.1756413284
 20
28.3133170931
 10
254.9445647176
 20
29.0637319559
 10
254.7783424217
 20
29.8708152532
 10
254.6781403707
 20
30.7289058755
 10
254.6446614101
 20
31.6319849338
  0
LWPOLYLINE
  5
18C
330
1F
100
AcDbEntity
  8
0
  6
Continuous
 62
     7
370
    15
100
AcDbPolyline
 90
       40
 70
   128
 43
0.0
 10
254.2911080195
 20
31.6319849338
 10
254.3243160317
 20
32.5783098408
 10
254.4237132237
 20
33.5565115439
 10
254.5886206121
 20
34.5599079335
 10
254.817911712
 20
35.5816447949
 10
255.1100202329
 20
36.6147426292
 10
255.4629507772
 20
37.6521443307
 10
255.8742924716
 20
38.6867633939
 10
256.3412354352
 20
39.7115323215
 10
256.860589974
 20
40.7194509026
 10
257.4288083699
 20
41.7036340312
 10
258.0420091151
 20
42.6573587387
 10
258.6960034268
 20
43.5741101183
 10
259.3863238607
 20
44.4476258283
 10
260.1082548281
 20
45.2719388709
 10
260.8568648087
 20
46.0414183521
 10
261.6270400371
 20
46.7508079468
 10
262.4135194355
 20
47.3952618047
 10
263.2109305523
 20
47.9703776526
 10
264.0138262609
 20
48.472226866
 10
264.8167219694
 20
48.8973813059
 10
265.6141330862
 20
49.2429367364
 10
266.4006124847
 20
49.5065326636
 10
267.170787713
 20
49.6863684599
 10
267.9193976936
 20
49.7812156645
 10
268.641328661
 20
49.7904263749
 10
269.3316490949
 20
49.7139376725
 10
269.9856434066
 20
49.5522720528
 10
270.5988441518
 20
49.3065338558
 10
271.1670625477
 20
48.9784017227
 10
271.6864170865
 20
48.5701171285
 10
272.1533600501
 20
48.0844690712
 10
272.5647017445
 20
47.5247750193
 10
272.9176322888
 20
46.8948582507
 10
273.2097408097
 20
46.1990217358
 10
273.4390319096
 20
45.4420187434
 10
273.603939298
 20
44.6290203716
 10
273.70333649
 20
43.7655802237
 10
273.7365445022
 20
42.8575964713
 10
273.7365445022
 20
42.8575964713
  0
LWPOLYLINE
  5
18D
330
1F
100
AcDbEntity
  8
0
  6
Continuous
 62
     7
370
    15
100
AcDbPolyline
 90
       21
 70
   128
 43
0.0
 10
264.015406476
 20
26.0182669262
 10
264.0138262609
 20
26.0173545391
 10
263.2109305523
 20
25.5922000992
 10
262.4135194355
 20
25.2466446687
 10
261.6270400371
 20
24.9830487415
 10
260.8568648087
 20
24.8032129452
 10
260.1082548281
 20
24.7083657406
 10
259.3863238607
 20
24.6991550302
 10
258.6960034268
 20
24.7756437325
 10
258.0420091151
 20
24.9373093523
 10
257.4288083699
 20
25.1830475492
 10
256.860589974
 20
25.5111796824
 10
256.3412354352
 20
25.9194642765
 10
255.8742924716
 20
26.4051123339
 10
255.4629507772
 20
26.9648063858
 10
255.1100202329
 20
27.5947231544
 10
254.817911712
 20
28.2905596693
 10
254.5886206121
 20
29.0475626617
 10
254.4237132237
 20
29.8605610335
 10
254.3243160317
 20
30.7240011814
 10
254.2911080195
 20
31.6319849338
  0
SPLINE
  5
18E
330
1F
100
AcDbEntity
  8
0
  6
Continuous
 62
     7
370
    15
100
AcDbSpline
210
0.0
220
0.0
230
1.0
 70
     8
 71
     3
 72
    30
 73
    26
 74
     0
 42
0.000000001
 43
0.00000001
 40
0.0
 40
0.0
 40
0.0
 40
0.0
 40
0.0625000000000002
 40
0.0625000000000002
 40
0.1250000000000004
 40
0.1250000000000004
 40
0.1875000000000007
 40
0.1875000000000007
 40
0.2500000000000009
 40
0.2500000000000009
 40
0.3125000000000011
 40
0.3125000000000011
 40
0.3750000000000013
 40
0.3750000000000013
 40
0.500000000000001
 40
0.500000000000001
 40
0.6250000000000008
 40
0.6250000000000008
 40
0.6875000000000007
 40
0.6875000000000007
 40
0.7500000000000006
 40
0.7500000000000006
 40
0.8750000000000003
 40
0.8750000000000003
 40
1.0
 40
1.0
 40
1.0
 40
1.0
 10
262.9354884195483
 20
49.09473805122747
 30
0.0
 10
262.8122139027171
 20
49.0235731874475
 30
0.0
 10
262.6804561804288
 20
48.95434578319765
 30
0.0
 10
262.4060868593565
 20
48.82260589979087
 30
0.0
 10
262.2626795260371
 20
48.75962737580371
 30
0.0
 10
261.9637208814168
 20
48.63954025493993
 30
0.0
 10
261.8070588073468
 20
48.58208157457431
 30
0.0
 10
261.4878636784821
 20
48.47553801169142
 30
0.0
 10
261.3254976335817
 20
48.42641791815674
 30
0.0
 10
260.9955512647799
 20
48.33635505949037
 30
0.0
 10
260.8279694638554
 20
48.29541384724548
 30
0.0
 10
260.4876864502158
 20
48.22197984967822
 30
0.0
 10
260.3159374906041
 20
48.18973948135954
 30
0.0
 10
259.8033529711706
 20
48.10773513657585
 30
0.0
 10
259.462152968769
 20
48.0718501347969
 30
0.0
 10
258.7797479230773
 20
48.03994719460994
 30
0.0
 10
258.4474394696236
 20
48.04440179605998
 30
0.0
 10
257.9613702388222
 20
48.08232015213118
 30
0.0
 10
257.8013791179263
 20
48.10019986433375
 30
0.0
 10
257.4853611854357
 20
48.14694769813529
 30
0.0
 10
257.3292729641576
 20
48.17589959088598
 30
0.0
 10
256.8751739647298
 20
48.27814279577558
 30
0.0
 10
256.5882763258382
 20
48.36709709496061
 30
0.0
 10
256.0451254496862
 20
48.58786822925773
 30
0.0
 10
255.7874486650599
 20
48.72087660001289
 30
0.0
 10
255.5521939660765
 20
48.87293303049896
 30
0.0
  0
SPLINE
  5
18F
330
1F
100
AcDbEntity
  8
0
  6
Continuous
 62
     7
370
    15
100
AcDbSpline
210
0.0
220
0.0
230
1.0
 70
     8
 71
     3
 72
    30
 73
    26
 74
     0
 42
0.000000001
 43
0.00000001
 40
0.0
 40
0.0
 40
0.0
 40
0.0
 40
0.1250000000000008
 40
0.1250000000000008
 40
0.1875000000000012
 40
0.1875000000000012
 40
0.2500000000000017
 40
0.2500000000000017
 40
0.3750000000000026
 40
0.3750000000000026
 40
0.4375000000000031
 40
0.4375000000000031
 40
0.5000000000000034
 40
0.5000000000000034
 40
0.6250000000000031
 40
0.6250000000000031
 40
0.6875000000000026
 40
0.6875000000000026
 40
0.750000000000002
 40
0.750000000000002
 40
0.8125000000000014
 40
0.8125000000000014
 40
0.8750000000000008
 40
0.8750000000000008
 40
1.0
 40
1.0
 40
1.0
 40
1.0
 10
262.1617500566544
 20
52.6885485439297
 30
0.0
 10
262.4163051367331
 20
52.54917578278432
 30
0.0
 10
262.6505005259534
 20
52.40703205969569
 30
0.0
 10
262.9709369291324
 20
52.18924683587041
 30
0.0
 10
263.0729906964086
 20
52.11554213792801
 30
0.0
 10
263.2641948146957
 20
51.9678804088297
 30
0.0
 10
263.3530374621321
 20
51.89421123151802
 30
0.0
 10
263.5996667944921
 20
51.67311197762211
 30
0.0
 10
263.7377576173913
 20
51.52565089743391
 30
0.0
 10
263.9034685974966
 20
51.3011238984868
 30
0.0
 10
263.9519481847544
 20
51.22529756076482
 30
0.0
 10
264.0327602514188
 20
51.07421159857857
 30
0.0
 10
264.0651955079398
 20
50.99896171434103
 30
0.0
 10
264.1384082841072
 20
50.77304699747184
 30
0.0
 10
264.1554403278128
 20
50.6222627332407
 30
0.0
 10
264.1272048753085
 20
50.39121620977937
 30
0.0
 10
264.1085114578716
 20
50.31293319252323
 30
0.0
 10
264.0523967491549
 20
50.1575267050243
 30
0.0
 10
264.0150420950138
 20
50.0801018220628
 30
0.0
 10
263.920952036967
 20
49.92519321312606
 30
0.0
 10
263.8642234554729
 20
49.84771061480991
 30
0.0
 10
263.7297892495154
 20
49.69212546129189
 30
0.0
 10
263.6518275747584
 20
49.61398168952213
 30
0.0
 10
263.3921298698598
 20
49.38519671591254
 30
0.0
 10
263.183050449825
 20
49.23765256928512
 30
0.0
 10
262.9354884195483
 20
49.09473805122747
 30
0.0
  0
LWPOLYLINE
  5
190
330
1F
100
AcDbEntity
  8
0
  6
Continuous
 62
     7
370
    15
100
AcDbPolyline
 90
        3
 70
   128
 43
0.0
 10
251.9825307245
 20
28.313607436
 10
251.9329839182
 20
28.3426254369
 10
251.8671958232
 20
28.3824610479
  0
LWPOLYLINE
  5
191
330
1F
100
AcDbEntity
  8
0
  6
Continuous
 62
     7
370
    15
100
AcDbPolyline
 90
       71
 70
   128
 43
0.0
 10
255.8820982772
 20
32.3463420316
 10
255.9155458744
 20
33.2256822288
 10
256.0156193655
 20
34.1365602694
 10
256.1815130177
 20
35.0716422991
 10
256.4118911529
 20
36.0233995872
 10
256.7048989016
 20
36.9841691436
 10
257.0581771379
 20
37.9462154169
 10
257.468881473
 20
38.901792576
 10
257.9337051573
 20
39.8432068755
 10
258.4489057036
 20
40.7628786011
 10
259.0103350201
 20
41.6534030968
 10
259.6134728081
 20
42.507610383
 10
260.2534629568
 20
43.3186228848
 10
260.9251526417
 20
44.0799108065
 10
261.6231338125
 20
44.7853447054
 10
262.3417867352
 20
45.4292448424
 10
263.075325239
 20
46.0064269123
 10
263.8178433033
 20
46.5122437844
 10
264.563362609
 20
46.9426229188
 10
265.3058806733
 20
47.2940991556
 10
266.0394191771
 20
47.5638426149
 10
266.7580720998
 20
47.7496814809
 10
267.4560532706
 20
47.8501194884
 10
268.1277429555
 20
47.8643479696
 10
268.7677331042
 20
47.7922523651
 10
269.3708708922
 20
47.6344131464
 10
269.9323002087
 20
47.392101142
 10
270.447500755
 20
47.0672673057
 10
270.9123244393
 20
46.6625270085
 10
271.3230287744
 20
46.1811389814
 10
271.6763070107
 20
45.6269790776
 10
271.9693147595
 20
45.004509067
 10
272.1996928946
 20
44.318740712
 10
272.3655865468
 20
43.5751954161
 10
272.4656600379
 20
42.779859769
 10
272.4991076351
 20
41.9391373455
 10
272.4656600379
 20
41.0597971484
 10
272.3655865468
 20
40.1489191077
 10
272.1996928946
 20
39.213837078
 10
271.9693147595
 20
38.2620797899
 10
271.6763070107
 20
37.3013102335
 10
271.3230287744
 20
36.3392639602
 10
270.9123244393
 20
35.3836868011
 10
270.447500755
 20
34.4422725016
 10
269.9323002087
 20
33.522600776
 10
269.3708708922
 20
32.6320762803
 10
268.7677331042
 20
31.7778689941
 10
268.1277429555
 20
30.9668564923
 10
267.4560532706
 20
30.2055685706
 10
266.7580720998
 20
29.5001346717
 10
266.0394191771
 20
28.8562345347
 10
265.3058806733
 20
28.2790524648
 10
264.563362609
 20
27.7732355927
 10
263.8178433033
 20
27.3428564583
 10
263.075325239
 20
26.9913802215
 10
262.3417867352
 20
26.7216367622
 10
261.6231338125
 20
26.5357978962
 10
260.9251526417
 20
26.4353598887
 10
260.2534629568
 20
26.4211314075
 10
259.6134728081
 20
26.493227012
 10
259.0103350201
 20
26.6510662307
 10
258.4489057036
 20
26.8933782351
 10
257.9337051573
 20
27.2182120715
 10
257.468881473
 20
27.6229523686
 10
257.0581771379
 20
28.1043403957
 10
256.7048989016
 20
28.6585002995
 10
256.4118911529
 20
29.2809703101
 10
256.1815130177
 20
29.9667386651
 10
256.0156193655
 20
30.710283961
 10
255.9155458744
 20
31.5056196081
 10
255.8820982772
 20
32.3463420316
  0
SPLINE
  5
192
330
1F
100
AcDbEntity
  8
0
  6
Continuous
 62
     7
370
    15
100
AcDbSpline
210
0.0
220
0.0
230
1.0
 70
     8
 71
     3
 72
    18
 73
    14
 74
     0
 42
0.000000001
 43
0.00000001
 40
0.0
 40
0.0
 40
0.0
 40
0.0
 40
0.2500000000000003
 40
0.2500000000000003
 40
0.3750000000000003
 40
0.3750000000000003
 40
0.5000000000000002
 40
0.5000000000000002
 40
0.6250000000000001
 40
0.6250000000000001
 40
0.7500000000000001
 40
0.7500000000000001
 40
1.0
 40
1.0
 40
1.0
 40
1.0
 10
258.3889944158789
 20
27.60568413104755
 30
0.0
 10
258.2653867564077
 20
27.56617770677033
 30
0.0
 10
258.1441440655842
 20
27.56012718573799
 30
0.0
 10
257.966659552864
 20
27.60180445297457
 30
0.0
 10
257.9082098565957
 20
27.62447745090019
 30
0.0
 10
257.7966860174071
 20
27.68579488598622
 30
0.0
 10
257.7431071586625
 20
27.72450702578825
 30
0.0
 10
257.6403444052243
 20
27.81805584950509
 30
0.0
 10
257.5907866306241
 20
27.8734419686002
 30
0.0
 10
257.4984079343803
 20
27.99828531885073
 30
0.0
 10
257.4556213466597
 20
28.0674602955453
 30
0.0
 10
257.3370491328401
 20
28.29462240193536
 30
0.0
 10
257.2706425855133
 20
28.47408324108227
 30
0.0
 10
257.2197529278588
 20
28.67288495417217
 30
0.0
  0
LWPOLYLINE
  5
193
330
1F
100
AcDbEntity
  8
0
  6
Continuous
 62
     7
370
    15
100
AcDbPolyline
 90
       18
 70
   128
 43
0.0
 10
269.6033027668
 20
34.0795665416
 10
269.0635654482
 20
33.1945620089
 10
268.480058984
 20
32.3446289383
 10
267.8578233345
 20
31.5371085146
 10
267.2022329781
 20
30.7789755892
 10
266.5189504902
 20
30.0767784353
 10
265.8138776332
 20
29.4365821882
 10
265.0931043811
 20
28.8639164588
 10
264.3628563178
 20
28.3637275719
 10
263.6294408649
 20
27.9403358431
 10
262.8991928016
 20
27.5973982626
 10
262.1784195495
 20
27.3378769087
 10
261.4733466925
 20
27.1640133628
 10
260.7900642045
 20
27.0773093484
 10
260.1344738482
 20
27.07851376
 10
259.5122381987
 20
27.1676161948
 10
258.9287317345
 20
27.343847042
 10
258.3889944159
 20
27.605684131
  0
SPLINE
  5
194
330
1F
100
AcDbEntity
  8
0
  6
Continuous
 62
     7
370
    15
100
AcDbSpline
210
0.0
220
0.0
230
1.0
 70
     8
 71
     3
 72
    18
 73
    14
 74
     0
 42
0.000000001
 43
0.00000001
 40
0.0
 40
0.0
 40
0.0
 40
0.0
 40
0.2500000000000003
 40
0.2500000000000003
 40
0.3750000000000006
 40
0.3750000000000006
 40
0.5000000000000009
 40
0.5000000000000009
 40
0.6250000000000012
 40
0.6250000000000012
 40
0.7500000000000014
 40
0.7500000000000014
 40
1.0
 40
1.0
 40
1.0
 40
1.0
 10
270.7725442547975
 20
36.49674485167333
 30
0.0
 10
270.7856799872481
 20
36.27618794436907
 30
0.0
 10
270.7690919581825
 20
36.05334570824414
 30
0.0
 10
270.6994695476034
 20
35.71531353571323
 30
0.0
 10
270.6685121089636
 20
35.60191027707548
 30
0.0
 10
270.5932594624118
 20
35.38117798391495
 30
0.0
 10
270.5488117779613
 20
35.27290026427552
 30
0.0
 10
270.4462692238329
 20
35.0605181962875
 30
0.0
 10
270.3876139387444
 20
34.95559012836909
 30
0.0
 10
270.2589165951927
 20
34.75478061600392
 30
0.0
 10
270.1891336848518
 20
34.6590314616583
 30
0.0
 10
269.9639372208006
 20
34.38535124776627
 30
0.0
 10
269.790959601629
 20
34.21975482521455
 30
0.0
 10
269.6033027667774
 20
34.07956654155952
 30
0.0
  0
LWPOLYLINE
  5
195
330
1F
100
AcDbEntity
  8
0
  6
Continuous
 62
     7
370
    15
100
AcDbPolyline
 90
       12
 70
   128
 43
0.0
 10
270.7725442548
 20
45.8371066537
 10
271.1351705121
 20
45.2597861253
 10
271.4295227904
 20
44.6059118489
 10
271.6527860543
 20
43.8817371458
 10
271.8028251271
 20
43.0941876551
 10
271.8782051114
 20
42.2507950998
 10
271.8782051114
 20
41.3596252581
 10
271.8028251271
 20
40.4292008254
 10
271.6527860543
 20
39.4684199085
 10
271.4295227904
 20
38.4864709279
 10
271.1351705121
 20
37.4927447448
 10
270.7725442548
 20
36.4967448517
  0
SPLINE
  5
196
330
1F
100
AcDbEntity
  8
0
  6
Continuous
 62
     7
370
    15
100
AcDbSpline
210
0.0
220
0.0
230
1.0
 70
     8
 71
     3
 72
    18
 73
    14
 74
     0
 42
0.000000001
 43
0.00000001
 40
0.0
 40
0.0
 40
0.0
 40
0.0
 40
0.2499999999999994
 40
0.2499999999999994
 40
0.3749999999999996
 40
0.3749999999999996
 40
0.4999999999999999
 40
0.4999999999999999
 40
0.6250000000000001
 40
0.6250000000000001
 40
0.7500000000000003
 40
0.7500000000000003
 40
1.0
 40
1.0
 40
1.0
 40
1.0
 10
269.6033027667774
 20
46.90430747681521
 30
0.0
 10
269.7909269660978
 20
46.90685793926725
 30
0.0
 10
269.9603821738855
 20
46.88507596668747
 30
0.0
 10
270.1873851966494
 20
46.81481227208186
 30
0.0
 10
270.2584045879395
 20
46.78488294367548
 30
0.0
 10
270.3864977181512
 20
46.71400026048381
 30
0.0
 10
270.444237582778
 20
46.67288602311613
 30
0.0
 10
270.5471007605861
 20
46.57927922564457
 30
0.0
 10
270.5925129575185
 20
46.52628629759655
 30
0.0
 10
270.6683009158976
 20
46.41102057644969
 30
0.0
 10
270.6987447121385
 20
46.34897094160919
 30
0.0
 10
270.7683700407221
 20
46.15006527061072
 30
0.0
 10
270.7856822720899
 20
45.99894597680024
 30
0.0
 10
270.7725442547975
 20
45.83710665369058
 30
0.0
  0
LWPOLYLINE
  5
197
330
1F
100
AcDbEntity
  8
0
  6
Continuous
 62
     7
370
    15
100
AcDbPolyline
 90
       18
 70
   128
 43
0.0
 10
258.3889944159
 20
40.4304250663
 10
258.9287317345
 20
41.3154295989
 10
259.5122381987
 20
42.1653626695
 10
260.1344738482
 20
42.9728830932
 10
260.7900642045
 20
43.7310160187
 10
261.4733466925
 20
44.4332131726
 10
262.1784195495
 20
45.0734094196
 10
262.8991928016
 20
45.646075149
 10
263.6294408649
 20
46.1462640359
 10
264.3628563178
 20
46.5696557648
 10
265.0931043811
 20
46.9125933453
 10
265.8138776332
 20
47.1721146992
 10
266.5189504902
 20
47.3459782451
 10
267.2022329781
 20
47.4326822595
 10
267.8578233345
 20
47.4314778478
 10
268.480058984
 20
47.3423754131
 10
269.0635654482
 20
47.1661445659
 10
269.6033027668
 20
46.9043074768
  0
SPLINE
  5
198
330
1F
100
AcDbEntity
  8
0
  6
Continuous
 62
     7
370
    15
100
AcDbSpline
210
0.0
220
0.0
230
1.0
 70
     8
 71
     3
 72
    18
 73
    14
 74
     0
 42
0.000000001
 43
0.00000001
 40
0.0
 40
0.0
 40
0.0
 40
0.0
 40
0.2499999999999997
 40
0.2499999999999997
 40
0.3749999999999997
 40
0.3749999999999997
 40
0.4999999999999998
 40
0.4999999999999998
 40
0.6249999999999998
 40
0.6249999999999998
 40
0.7499999999999999
 40
0.7499999999999999
 40
1.0
 40
1.0
 40
1.0
 40
1.0
 10
257.2197529278588
 20
38.01324675618943
 30
0.0
 10
257.2706337352574
 20
38.19684770166852
 30
0.0
 10
257.3354342812872
 20
38.39185744418133
 30
0.0
 10
257.45457520191
 20
38.70130318934321
 30
0.0
 10
257.4981023355716
 20
38.8074501175002
 30
0.0
 10
257.5899242731467
 20
39.01861716255508
 30
0.0
 10
257.6385329634792
 20
39.12449278462886
 30
0.0
 10
257.7411759419775
 20
39.33681687886214
 30
0.0
 10
257.7956856493981
 20
39.44413813782768
 30
0.0
 10
257.9077922550853
 20
39.6545252792965
 30
0.0
 10
257.9652323739465
 20
39.7573997754962
 30
0.0
 10
258.1414819527616
 20
40.05933642477981
 30
0.0
 10
258.2653652559741
 20
40.25327439266797
 30
0.0
 10
258.3889944158789
 20
40.43042506630323
 30
0.0
  0
LWPOLYLINE
  5
199
330
1F
100
AcDbEntity
  8
0
  6
Continuous
 62
     7
370
    15
100
AcDbPolyline
 90
       12
 70
   128
 43
0.0
 10
257.2197529279
 20
28.6728849542
 10
256.8571266706
 20
29.2502054825
 10
256.5627743922
 20
29.9040797589
 10
256.3395111284
 20
30.628254462
 10
256.1894720556
 20
31.4158039528
 10
256.1140920713
 20
32.259196508
 10
256.1140920713
 20
33.1503663498
 10
256.1894720556
 20
34.0807907824
 10
256.3395111284
 20
35.0415716994
 10
256.5627743922
 20
36.02352068
 10
256.8571266706
 20
37.017246863
 10
257.2197529279
 20
38.0132467562
  0
SPLINE
  5
19A
330
1F
100
AcDbEntity
  8
0
  6
Continuous
 62
     7
370
    15
100
AcDbSpline
210
0.0
220
0.0
230
1.0
 70
     8
 71
     3
 72
    10
 73
     6
 74
     0
 42
0.000000001
 43
0.00000001
 40
0.0
 40
0.0
 40
0.0
 40
0.0
 40
0.5
 40
0.5
 40
1.0
 40
1.0
 40
1.0
 40
1.0
 10
261.8126498606787
 20
52.68957723541353
 30
0.0
 10
261.872182266408
 20
52.71471271728699
 30
0.0
 10
261.9337256018629
 20
52.72856514034843
 30
0.0
 10
262.0537389446565
 20
52.72935862784693
 30
0.0
 10
262.111375515751
 20
52.71612936791111
 30
0.0
 10
262.1617500566546
 20
52.68854854392996
 30
0.0
  0
LWPOLYLINE
  5
19B
330
1F
100
AcDbEntity
  8
0
  6
Continuous
 62
     7
370
    15
100
AcDbPolyline
 90
       19
 70
   128
 43
0.0
 10
249.2989172189
 20
32.1905129739
 10
249.1623467602
 20
32.8074173702
 10
249.0429754603
 20
33.6569745685
 10
248.9904664812
 20
34.5534355665
 10
249.0051869155
 20
35.490533166
 10
249.087033852
 20
36.4617160763
 10
249.2354350951
 20
37.4601947149
 10
249.4493531652
 20
38.4789886739
 10
249.7272925517
 20
39.5109755197
 10
250.0673101682
 20
40.548940587
 10
250.4670289363
 20
41.5856274162
 10
250.9236544048
 20
42.6137884841
 10
251.4339942848
 20
43.6262358714
 10
251.9944807678
 20
44.6158915139
 10
252.6011954681
 20
45.5758366855
 10
253.2498968165
 20
46.4993603671
 10
253.9360497133
 20
47.3800061642
 10
254.6548572335
 20
48.2116174431
 10
255.4012941621
 20
48.9883803728
  0
SPLINE
  5
19C
330
1F
100
AcDbEntity
  8
0
  6
Continuous
 62
     7
370
    15
100
AcDbSpline
210
0.0
220
0.0
230
1.0
 70
     8
 71
     3
 72
    10
 73
     6
 74
     0
 42
0.000000001
 43
0.00000001
 40
0.0
 40
0.0
 40
0.0
 40
0.0
 40
0.5
 40
0.5
 40
1.0
 40
1.0
 40
1.0
 40
1.0
 10
255.5521939660765
 20
48.87293303049896
 30
0.0
 10
255.5059496337447
 20
48.90282296738427
 30
0.0
 10
255.4694819472004
 20
48.92826901890585
 30
0.0
 10
255.4188716689643
 20
48.96746117569772
 30
0.0
 10
255.4047541385681
 20
48.98115225687197
 30
0.0
 10
255.4012941620513
 20
48.98838037278752
 30
0.0
  0
SPLINE
  5
19D
330
1F
100
AcDbEntity
  8
0
  6
Continuous
 62
     7
370
    15
100
AcDbSpline
210
0.0
220
0.0
230
1.0
 70
     8
 71
     3
 72
     9
 73
     5
 74
     0
 42
0.000000001
 43
0.00000001
 40
0.0
 40
0.0
 40
0.0
 40
0.0
 40
0.3221481738492374
 40
1.0
 40
1.0
 40
1.0
 40
1.0
 10
261.1368454558694
 20
52.40655749452985
 30
0.0
 10
261.2109531730879
 20
52.43733257951095
 30
0.0
 10
261.4409955052637
 20
52.5328634174275
 30
0.0
 10
261.6625015701155
 20
52.6262648820524
 30
0.0
 10
261.8126498606787
 20
52.68957723541353
 30
0.0
  0
ARC
  5
19E
330
1F
100
AcDbEntity
  8
0
  6
Continuous
 62
     7
370
    15
100
AcDbCircle
 10
267.1409950465
 20
35.5058463342
 30
0.0
 40
18.1757339443736
100
AcDbArc
 50
128.424899411
 51
177.1458823547
  0
SPLINE
  5
19F
330
1F
100
AcDbEntity
  8
0
  6
Continuous
 62
     7
370
    15
100
AcDbSpline
210
0.0
220
0.0
230
1.0
 70
     8
 71
     3
 72
    12
 73
     8
 74
     0
 42
0.000000001
 43
0.00000001
 40
0.0
 40
0.0
 40
0.0
 40
0.0
 40
0.5000000000000002
 40
0.5000000000000002
 40
0.7500000000000001
 40
0.7500000000000001
 40
1.0
 40
1.0
 40
1.0
 40
1.0
 10
255.4012941620523
 20
48.98838037278691
 30
0.0
 10
255.3711928572238
 20
49.05126395579785
 30
0.0
 10
255.3766100977676
 20
49.14043498961393
 30
0.0
 10
255.4722837595356
 20
49.32612029836043
 30
0.0
 10
255.5189511336678
 20
49.39669330125438
 30
0.0
 10
255.6518876383391
 20
49.55799672908829
 30
0.0
 10
255.7373123466767
 20
49.6475239732115
 30
0.0
 10
255.8449891191317
 20
49.74514247222263
 30
0.0
  0
ARC
  5
1A0
330
1F
100
AcDbEntity
  8
0
  6
Continuous
 62
     7
370
    15
100
AcDbCircle
 10
269.8858558005
 20
45.1043872589
 30
0.0
 40
1.821962954515721
100
AcDbArc
 50
98.9215321124
 51
121.0579635503
  0
LINE
  5
1A1
330
1F
100
AcDbEntity
  8
0
  6
Continuous
 62
     7
370
    15
100
AcDbLine
 10
267.248983893
 20
45.6855576684
 30
0.0
 11
268.9458960596
 21
46.6651642107
 31
0.0
  0
LWPOLYLINE
  5
1A2
330
1F
100
AcDbEntity
  8
0
  6
Continuous
 62
     7
370
    15
100
AcDbPolyline
 90
       11
 70
   128
 43
0.0
 10
260.7433132896
 20
41.9299139702
 10
261.3505823604
 20
42.6353335528
 10
261.9864957261
 20
43.2824986948
 10
262.6441681725
 20
43.864402356
 10
263.3164788937
 20
44.3747441005
 10
263.9961485913
 20
44.8079983139
 10
264.6758182889
 20
45.1594740299
 10
265.3481290102
 20
45.4253657216
 10
266.0058014566
 20
45.6027945042
 10
266.6417148222
 20
45.689839306
 10
267.248983893
 20
45.6855576684
  0
LINE
  5
1A3
330
1F
100
AcDbEntity
  8
0
  6
Continuous
 62
     7
370
    15
100
AcDbLine
 10
259.046401123
 20
40.9503074279
 30
0.0
 11
260.7433132896
 21
41.9299139702
 31
0.0
  0
ARC
  5
1A4
330
1F
100
AcDbEntity
  8
0
  6
Continuous
 62
     7
370
    15
100
AcDbCircle
 10
260.6351256461
 20
38.2657216745
 30
0.0
 40
3.119462498235669
100
AcDbArc
 50
120.6168359905
 51
136.0576097217
  0
ARC
  5
1A5
330
1F
100
AcDbEntity
  8
0
  6
Continuous
 62
     7
370
    15
100
AcDbCircle
 10
268.6507425288
 20
34.41561872
 30
0.0
 40
11.6258803134897
100
AcDbArc
 50
145.8646250115
 51
177.7676626041
  0
LWPOLYLINE
  5
1A6
330
1F
100
AcDbEntity
  8
0
  6
Continuous
 62
     7
370
    15
100
AcDbPolyline
 90
       41
 70
   128
 43
0.0
 10
264.8268831821
 20
45.2264033819
 10
265.3560599455
 20
45.2214225329
 10
265.8678041708
 20
45.1307636307
 10
266.3396623957
 20
44.9544136644
 10
266.7659069008
 20
44.6945132837
 10
267.1413636552
 20
44.3542173273
 10
267.4614751224
 20
43.9376565269
 10
267.7223555828
 20
43.4498873665
 10
267.9208383011
 20
42.8968307028
 10
268.054513966
 20
42.2851998947
 10
268.1217599359
 20
41.6224193115
 10
268.1217599359
 20
40.9165342118
 10
268.054513966
 20
40.1761130844
 10
267.9208383011
 20
39.4101436388
 10
267.7223555828
 20
38.6279237064
 10
267.4614751224
 20
37.8389483777
 10
267.1413636552
 20
37.0527947444
 10
266.7659069008
 20
36.2790056465
 10
266.3396623957
 20
35.5269738356
 10
265.8678041708
 20
34.805827959
 10
265.3560599455
 20
34.1243217509
 10
264.8106416018
 20
33.4907277735
 10
264.2381697793
 20
32.9127369992
 10
263.6455935105
 20
32.3973654532
 10
263.0401058687
 20
31.9508690479
 10
262.4290566535
 20
31.5786676448
 10
261.8198631747
 20
31.2852792647
 10
261.2199202159
 20
31.0742652451
 10
260.6365102719
 20
30.9481870105
 10
260.076715149
 20
30.9085749797
 10
259.5473300019
 20
30.9559099892
 10
259.054780849
 20
31.089617456
 10
258.6050465698
 20
31.3080743527
 10
258.2035863293
 20
31.6086289084
 10
257.855273311
 20
31.987632798
 10
257.564335563
 20
32.4404854276
 10
257.3343046755
 20
32.9616897799
 10
257.1679729118
 20
33.54491914
 10
257.0673593143
 20
34.1830938935
 10
257.0336851958
 20
34.8684674635
 10
257.0336851958
 20
34.8684674635
  0
LINE
  5
1A7
330
1F
100
AcDbEntity
  8
0
  6
Continuous
 62
     7
370
    15
100
AcDbLine
 10
257.6321875606
 20
28.661235509
 30
0.0
 11
259.3290997273
 21
29.6408420513
 31
0.0
  0
LINE
  5
1A8
330
1F
100
AcDbEntity
  8
0
  6
Continuous
 62
     7
370
    15
100
AcDbLine
 10
257.2644491515
 20
28.4918481868
 30
0.0
 11
257.6321875606
 21
28.661235509
 31
0.0
  0
ARC
  5
1A9
330
1F
100
AcDbEntity
  8
0
  6
Continuous
 62
     7
370
    15
100
AcDbCircle
 10
266.9336461927
 20
46.3899516354
 30
0.0
 40
2.437849799887152
100
AcDbArc
 50
346.9883651865
 51
10.6364611934
  0
LWPOLYLINE
  5
1AA
330
1F
100
AcDbEntity
  8
0
  6
Continuous
 62
     7
370
    15
100
AcDbPolyline
 90
       10
 70
   128
 43
0.0
 10
269.3089026505
 20
38.0685269187
 10
269.6195011282
 20
39.0678078937
 10
269.8553821597
 20
40.0565101033
 10
270.0140414093
 20
41.0241365514
 10
270.0937944006
 20
41.960414002
 10
270.0937944006
 20
42.8554020498
 10
270.0140414093
 20
43.6995986567
 10
269.8553821597
 20
44.4840410344
 10
269.6195011282
 20
45.200400802
 10
269.3089026505
 20
45.8410724079
  0
ARC
  5
1AB
330
1F
100
AcDbEntity
  8
0
  6
Continuous
 62
     7
370
    15
100
AcDbCircle
 10
265.602824774
 20
37.5783960525
 30
0.0
 40
3.738347428065366
100
AcDbArc
 50
301.0620018917
 51
7.5336799128
  0
LINE
  5
1AC
330
1F
100
AcDbEntity
  8
0
  6
Continuous
 62
     7
370
    15
100
AcDbLine
 10
265.8347703307
 20
33.3964857495
 30
0.0
 11
267.5316824973
 21
34.3760922918
 31
0.0
  0
LWPOLYLINE
  5
1AD
330
1F
100
AcDbEntity
  8
0
  6
Continuous
 62
     7
370
    15
100
AcDbPolyline
 90
       11
 70
   128
 43
0.0
 10
265.8347703307
 20
33.3964857495
 10
265.2275012598
 20
32.6910661669
 10
264.5915878942
 20
32.0439010248
 10
263.9339154478
 20
31.4619973637
 10
263.2616047265
 20
30.9516556191
 10
262.581935029
 20
30.5184014058
 10
261.9022653314
 20
30.1669256898
 10
261.2299546101
 20
29.9010339981
 10
260.5722821637
 20
29.7236052155
 10
259.9363687981
 20
29.6365604137
 10
259.3290997273
 20
29.6408420513
  0
SPLINE
  5
1AE
330
1F
100
AcDbEntity
  8
0
  6
Continuous
 62
     7
370
    15
100
AcDbSpline
210
0.0
220
0.0
230
1.0
 70
     8
 71
     3
 72
     9
 73
     5
 74
     0
 42
0.000000001
 43
0.00000001
 40
0.0
 40
0.0
 40
0.0
 40
0.0
 40
0.3558553157970684
 40
1.0
 40
1.0
 40
1.0
 40
1.0
 10
256.0464011230223
 20
50.04256969684104
 30
0.0
 10
256.02468727451
 20
49.99834688245114
 30
0.0
 10
255.9636685189978
 20
49.87407498759173
 30
0.0
 10
255.8914854556663
 20
49.79565578482455
 30
0.0
 10
255.8449891191317
 20
49.74514247222263
 30
0.0
  0
ARC
  5
1AF
330
1F
100
AcDbEntity
  8
0
  6
Continuous
 62
     7
370
    15
100
AcDbCircle
 10
259.9177494724
 20
28.9164667539
 30
0.0
 40
2.708969812925145
100
AcDbArc
 50
167.8781475344
 51
185.1588186135
  0
LWPOLYLINE
  5
1B0
330
1F
100
AcDbEntity
  8
0
  6
Continuous
 62
     7
370
    15
100
AcDbPolyline
 90
       10
 70
   128
 43
0.0
 10
257.2691809697
 20
29.4853273118
 10
256.9585824921
 20
30.1259989177
 10
256.7227014606
 20
30.8423586853
 10
256.564042211
 20
31.626801063
 10
256.4842892197
 20
32.4709976699
 10
256.4842892197
 20
33.3659857177
 10
256.564042211
 20
34.3022631683
 10
256.7227014606
 20
35.2698896164
 10
256.9585824921
 20
36.258591826
 10
257.2691809697
 20
37.257872801
  0
ARC
  5
1B1
330
1F
100
AcDbEntity
  8
0
  6
Continuous
 62
     7
370
    15
100
AcDbCircle
 10
259.3897174059
 20
37.7759346601
 30
0.0
 40
2.182902395198279
100
AcDbArc
 50
173.7588101909
 51
193.7288361877
  0
LWPOLYLINE
  5
1B2
330
1F
100
AcDbEntity
  8
0
  6
Continuous
 62
     7
370
    15
100
AcDbPolyline
 90
       36
 70
   128
 43
0.0
 10
264.6762240917
 20
45.1596593206
 10
264.9791971286
 20
45.1305452237
 10
265.464224962
 20
45.0131391947
 10
265.9076709602
 20
44.8115168586
 10
266.3039585327
 20
44.5282137333
 10
266.6481041333
 20
44.1667925198
 10
266.9357799312
 20
43.7317982998
 10
267.1633682366
 20
43.2287013778
 10
267.3280069943
 20
42.6638284897
 10
267.4276257765
 20
42.0442832396
 10
267.4609718191
 20
41.3778567686
 10
267.4276257765
 20
40.6729297763
 10
267.3280069943
 20
39.9383671285
 10
267.1633682366
 20
39.1834063769
 10
266.9357799312
 20
38.4175415907
 10
266.6481041333
 20
37.6504039642
 10
266.3039585327
 20
36.8916406981
 10
265.9076709602
 20
36.1507936806
 10
265.464224962
 20
35.4371794929
 10
264.9791971286
 20
34.7597722475
 10
264.4586869666
 20
34.1270907335
 10
263.9092401932
 20
33.5470912879
 10
263.3377664204
 20
33.0270677405
 10
262.7514522625
 20
32.5735596889
 10
262.1576709602
 20
32.1922702602
 10
261.563889658
 20
31.88799439
 10
260.9775755001
 20
31.664558524
 10
260.4061017273
 20
31.5247724978
 10
259.8566549539
 20
31.4703942019
 10
259.3361447919
 20
31.5021074749
 10
258.8511169585
 20
31.6195135039
 10
258.4076709602
 20
31.82113584
 10
258.0113833878
 20
32.1044389653
 10
257.6672377872
 20
32.4658601788
 10
257.3795619893
 20
32.9008543988
 10
257.3066369118
 20
33.0412214024
  0
ARC
  5
1B3
330
1F
100
AcDbEntity
  8
0
  6
Continuous
 62
     7
370
    15
100
AcDbCircle
 10
252.5645488603
 20
36.2581572736
 30
0.0
 40
4.965620302884829
100
AcDbArc
 50
194.6814807205
 51
227.3830572729
  0
SPLINE
  5
1B4
330
1F
100
AcDbEntity
  8
0
  6
Continuous
 62
     7
370
    15
100
AcDbSpline
210
0.0
220
0.0
230
1.0
 70
     8
 71
     3
 72
    29
 73
    25
 74
     0
 42
0.000000001
 43
0.00000001
 40
0.0
 40
0.0
 40
0.0
 40
0.0
 40
0.0227703431572545
 40
0.0454410032927677
 40
0.0680340978352544
 40
0.0905719725563
 40
0.1130771376998851
 40
0.1355722016904878
 40
0.1580798033768699
 40
0.1806225438191841
 40
0.2032229186429297
 40
0.2259032519635706
 40
0.2486856328315024
 40
0.37440342998092
 40
0.4999236975978598
 40
0.5000033831470044
 40
0.62491547859338
 40
0.7509968892327752
 40
0.7926749797131527
 40
0.8340977989462387
 40
0.8754030632547732
 40
0.916729664752105
 40
0.9582162817868252
 40
0.9999999999999999
 40
0.9999999999999999
 40
0.9999999999999999
 40
0.9999999999999999
 10
247.7610380362506
 20
40.21654473394182
 30
0.0
 10
247.7771001099232
 20
40.16574398026398
 30
0.0
 10
247.8091539414181
 20
40.0643648662468
 30
0.0
 10
247.8540985059861
 20
39.9113577671837
 30
0.0
 10
247.8966592012034
 20
39.75819496222705
 30
0.0
 10
247.9366805873469
 20
39.60480877634111
 30
0.0
 10
247.9742830044928
 20
39.45125884512269
 30
0.0
 10
248.0095149546071
 20
39.29757345741316
 30
0.0
 10
248.0424458968205
 20
39.14379225936259
 30
0.0
 10
248.0731412792144
 20
38.9899538808365
 30
0.0
 10
248.1016697608087
 20
38.83610323757637
 30
0.0
 10
248.1280991499658
 20
38.68227501818548
 30
0.0
 10
248.1892068016058
 20
38.2973898712768
 30
0.0
 10
248.259768361585
 20
37.69231212177333
 30
0.0
 10
248.2803774977159
 20
37.17940228947256
 30
0.0
 10
248.2810201097676
 20
36.69949662474808
 30
0.0
 10
248.26065667521
 20
36.24789921033321
 30
0.0
 10
248.1848354516013
 20
35.81421516615568
 30
0.0
 10
248.107555771625
 20
35.55224455422614
 30
0.0
 10
248.054214807901
 20
35.41098267219989
 30
0.0
 10
247.9934407233449
 20
35.28497951798498
 30
0.0
 10
247.9246301070207
 20
35.17435323536939
 30
0.0
 10
247.8481162930045
 20
35.07753005512833
 30
0.0
 10
247.790188216894
 20
35.02564346229978
 30
0.0
 10
247.7611208377172
 20
34.99960760250247
 30
0.0
  0
LWPOLYLINE
  5
1B5
330
1F
100
AcDbEntity
  8
0
  6
Continuous
 62
     7
370
    15
100
AcDbPolyline
 90
       17
 70
   128
 43
0.0
 10
247.7610380362
 20
40.2165447339
 10
248.0018719402
 20
41.1740955186
 10
248.3068710964
 20
42.1396438452
 10
248.6734505502
 20
43.1050064171
 10
249.0985034365
 20
44.0620015119
 10
249.5784273111
 20
45.002518324
 10
250.1091546827
 20
45.9185857059
 10
250.6861874859
 20
46.8024397259
 10
251.3046352036
 20
47.64658947
 10
251.9592563154
 20
48.4438805288
 10
252.6445027212
 20
49.187555634
 10
253.3545667629
 20
49.8713119274
 10
254.0834304457
 20
50.48935438
 10
254.8249164426
 20
51.0364449062
 10
255.5727404489
 20
51.5079467582
 10
256.3205644435
 20
51.8998638238
 10
256.3772030082
 20
51.9262893094
  0
SPLINE
  5
1B6
330
1F
100
AcDbEntity
  8
0
  6
Continuous
 62
     7
370
    15
100
AcDbSpline
210
0.0
220
0.0
230
1.0
 70
     8
 71
     3
 72
     8
 73
     4
 74
     0
 42
0.000000001
 43
0.00000001
 40
0.0
 40
0.0
 40
0.0
 40
0.0
 40
1.0
 40
1.0
 40
1.0
 40
1.0
 10
247.2159592198731
 20
43.00507068156548
 30
0.0
 10
247.1915113114442
 20
43.00168389417846
 30
0.0
 10
247.1670641184259
 20
42.99824820784421
 30
0.0
 10
247.1426176009382
 20
42.99476392840651
 30
0.0
  0
SPLINE
  5
1B7
330
1F
100
AcDbEntity
  8
0
  6
Continuous
 62
     7
370
    15
100
AcDbSpline
210
0.0
220
0.0
230
1.0
 70
     8
 71
     3
 72
     8
 73
     4
 74
     0
 42
0.000000001
 43
0.00000001
 40
0.0
 40
0.0
 40
0.0
 40
0.0
 40
1.0
 40
1.0
 40
1.0
 40
1.0
 10
247.1426176009382
 20
42.99476392840651
 30
0.0
 10
246.9289056513933
 20
42.96430428720144
 30
0.0
 10
246.7152448688581
 20
42.93013934562024
 30
0.0
 10
246.5016119192099
 20
42.89241522762406
 30
0.0
  0
SPLINE
  5
1B8
330
1F
100
AcDbEntity
  8
0
  6
Continuous
 62
     7
370
    15
100
AcDbSpline
210
0.0
220
0.0
230
1.0
 70
     8
 71
     3
 72
     8
 73
     4
 74
     0
 42
0.000000001
 43
0.00000001
 40
0.0
 40
0.0
 40
0.0
 40
0.0
 40
1.0
 40
1.0
 40
1.0
 40
1.0
 10
246.5016119192099
 20
42.89241522762406
 30
0.0
 10
246.219094057892
 20
42.84252715018128
 30
0.0
 10
245.9363519956125
 20
42.79306195566592
 30
0.0
 10
245.6534405059688
 20
42.74394099497242
 30
0.0
  0
SPLINE
  5
1B9
330
1F
100
AcDbEntity
  8
0
  6
Continuous
 62
     7
370
    15
100
AcDbSpline
210
0.0
220
0.0
230
1.0
 70
     8
 71
     3
 72
     8
 73
     4
 74
     0
 42
0.000000001
 43
0.00000001
 40
0.0
 40
0.0
 40
0.0
 40
0.0
 40
0.001149633737632
 40
0.001149633737632
 40
0.001149633737632
 40
0.001149633737632
 10
245.2089621822091
 20
43.00058050521029
 30
0.0
 10
245.3572356107352
 20
42.91496821124812
 30
0.0
 10
245.5054004428775
 20
42.82941859627037
 30
0.0
 10
245.6534405059688
 20
42.74394099497242
 30
0.0
  0
LWPOLYLINE
  5
1BA
330
1F
100
AcDbEntity
  8
0
  6
Continuous
 62
     7
370
    15
100
AcDbPolyline
 90
       25
 70
   128
 43
0.0
 10
245.2089621822
 20
43.0005805052
 10
245.5208118286
 20
43.9525680066
 10
245.8919583464
 20
44.9029770164
 10
246.3193475627
 20
45.843986598
 10
246.7994624824
 20
46.767853163
 10
247.3283522292
 20
47.6669741929
 10
247.9016645576
 20
48.533950801
 10
248.514681668
 20
49.3616486178
 10
249.1623590291
 20
50.1432564997
 10
249.8393668895
 20
50.8723425781
 10
250.5401341367
 20
51.5429071878
 10
251.2588941416
 20
52.1494322378
 10
251.9897322123
 20
52.6869266202
 10
252.7266342662
 20
53.1509672817
 10
253.4635363201
 20
53.5377356216
 10
254.1943743908
 20
53.8440489148
 10
254.9131343957
 20
54.0673865023
 10
255.6139016429
 20
54.2059105343
 10
256.2909095033
 20
54.2584810934
 10
256.9385868643
 20
54.2246655754
 10
257.5516039747
 20
54.1047422489
 10
258.1249163031
 20
53.8996979655
 10
258.6538060499
 20
53.6112200393
 10
259.1339209696
 20
53.2416823614
 10
259.4632175768
 20
52.9090600438
  0
LINE
  5
1BB
330
1F
100
AcDbEntity
  8
0
  6
Continuous
 62
     7
370
    15
100
AcDbLine
 10
242.8843486391
 20
44.342551339
 30
0.0
 11
245.2089621822
 21
43.0005805052
 31
0.0
  0
LINE
  5
1BC
330
1F
100
AcDbEntity
  8
0
  6
Continuous
 62
     7
370
    15
100
AcDbLine
 10
256.1515534357
 20
55.0622806962
 30
0.0
 11
256.1824341742
 21
55.0442611216
 31
0.0
  0
SPLINE
  5
1BD
330
1F
100
AcDbEntity
  8
0
  6
Continuous
 62
     7
370
    15
100
AcDbSpline
210
0.0
220
0.0
230
1.0
 70
     8
 71
     3
 72
     9
 73
     5
 74
     0
 42
0.000000001
 43
0.00000001
 40
0.0
 40
0.0
 40
0.0
 40
0.0
 40
0.4345524107271962
 40
1.0
 40
1.0
 40
1.0
 40
1.0
 10
248.2823193894516
 20
42.06188274479203
 30
0.0
 10
248.195184682118
 20
42.20103259428549
 30
0.0
 10
247.9946686909908
 20
42.52124678723083
 30
0.0
 10
247.7436078890026
 20
42.76809035405617
 30
0.0
 10
247.6016461637574
 20
42.90766745384506
 30
0.0
  0
ARC
  5
1BE
330
1F
100
AcDbEntity
  8
0
  6
Continuous
 62
     7
370
    15
100
AcDbCircle
 10
258.1064413821
 20
29.4056043489
 30
0.0
 40
1.821962954514475
100
AcDbArc
 50
278.9215321124
 51
301.0579635504
  0
SPLINE
  5
1BF
330
1F
100
AcDbEntity
  8
0
  6
Continuous
 62
     7
370
    15
100
AcDbSpline
210
0.0
220
0.0
230
1.0
 70
     8
 71
     3
 72
    12
 73
     8
 74
     0
 42
0.000000001
 43
0.00000001
 40
0.0
 40
0.0
 40
0.0
 40
0.0
 40
0.2024429117069342
 40
0.3784745147447413
 40
0.5281955025072017
 40
0.7983121576102956
 40
1.0
 40
1.0
 40
1.0
 40
1.0
 10
247.8535595523444
 20
35.74584899338224
 30
0.0
 10
247.9065263367429
 20
35.79673944930233
 30
0.0
 10
248.0055497001878
 20
35.89188103982331
 30
0.0
 10
248.1071682697152
 20
36.0957596434803
 30
0.0
 10
248.1966215140885
 20
36.37632161783296
 30
0.0
 10
248.262443383136
 20
36.73605575647833
 30
0.0
 10
248.2716456010298
 20
37.08369708283264
 30
0.0
 10
248.2755793818269
 20
37.23230742760572
 30
0.0
  0
SPLINE
  5
1C0
330
1F
100
AcDbEntity
  8
0
  6
Continuous
 62
     7
370
    15
100
AcDbSpline
210
0.0
220
0.0
230
1.0
 70
     8
 71
     3
 72
     9
 73
     5
 74
     0
 42
0.000000001
 43
0.00000001
 40
0.0
 40
0.0
 40
0.0
 40
0.0
 40
0.508496891989613
 40
1.0
 40
1.0
 40
1.0
 40
1.0
 10
247.7610659536764
 20
34.99956680851194
 30
0.0
 10
247.7765592485236
 20
35.12590500434413
 30
0.0
 10
247.807028057854
 20
35.37435921875999
 30
0.0
 10
247.8382364464553
 20
35.62337538393314
 30
0.0
 10
247.8535754664489
 20
35.74576760306058
 30
0.0
  0
SPLINE
  5
1C1
330
1F
100
AcDbEntity
  8
0
  6
Continuous
 62
     7
370
    15
100
AcDbSpline
210
0.0
220
0.0
230
1.0
 70
     8
 71
     3
 72
    10
 73
     6
 74
     0
 42
0.000000001
 43
0.00000001
 40
0.0
 40
0.0
 40
0.0
 40
0.0
 40
0.5
 40
0.5
 40
1.0
 40
1.0
 40
1.0
 40
1.0
 10
247.6016461637574
 20
42.90766745384506
 30
0.0
 10
247.5559621135823
 20
42.94878933106816
 30
0.0
 10
247.4943848600581
 20
42.97951741165783
 30
0.0
 10
247.3577821171455
 20
43.01240159336143
 30
0.0
 10
247.2843874606684
 20
43.01455009791579
 30
0.0
 10
247.2159592198725
 20
43.0050706815674
 30
0.0
  0
SPLINE
  5
1C2
330
1F
100
AcDbEntity
  8
0
  6
Continuous
 62
     7
370
    15
100
AcDbSpline
210
0.0
220
0.0
230
1.0
 70
     8
 71
     3
 72
     8
 73
     4
 74
     0
 42
0.000000001
 43
0.00000001
 40
0.0
 40
0.0
 40
0.0
 40
0.0
 40
1.0
 40
1.0
 40
1.0
 40
1.0
 10
242.7299521630925
 20
44.43167319706394
 30
0.0
 10
242.7567917047207
 20
44.41618502668231
 30
0.0
 10
242.8103987518594
 20
44.38524170020894
 30
0.0
 10
242.8843486390584
 20
44.34255133901887
 30
0.0
  0
LINE
  5
1C3
330
1F
100
AcDbEntity
  8
0
  6
Continuous
 62
     7
370
    15
100
AcDbLine
 10
242.7299521631
 20
44.4316731971
 30
0.0
 11
242.7684163435
 21
44.6286889837
 31
0.0
  0
ARC
  5
1C4
330
1F
100
AcDbEntity
  8
0
  6
Continuous
 62
     7
370
    15
100
AcDbCircle
 10
268.0745477103
 20
45.5935248539
 30
0.0
 40
2.708969812923947
100
AcDbArc
 50
347.8781475344
 51
5.1588186135
  0
LINE
  5
1C5
330
1F
100
AcDbEntity
  8
0
  6
Continuous
 62
     7
370
    15
100
AcDbLine
 10
269.3089026505
 20
45.8410724079
 30
0.0
 11
270.7231162129
 21
45.0246642961
 31
0.0
  0
LWPOLYLINE
  5
1C6
330
1F
100
AcDbEntity
  8
0
  6
Continuous
 62
     7
370
    15
100
AcDbPolyline
 90
       11
 70
   128
 43
0.0
 10
267.248983893
 20
32.5800776377
 10
266.6417148222
 20
31.874658055
 10
266.0058014566
 20
31.227492913
 10
265.3481290102
 20
30.6455892519
 10
264.6758182889
 20
30.1352475073
 10
263.9961485913
 20
29.701993294
 10
263.3164788937
 20
29.3505175779
 10
262.6441681725
 20
29.0846258863
 10
261.9864957261
 20
28.9071971037
 10
261.3505823604
 20
28.8201523018
 10
260.7433132896
 20
28.8244339394
  0
LINE
  5
1C7
330
1F
100
AcDbEntity
  8
0
  6
Continuous
 62
     7
370
    15
100
AcDbLine
 10
268.9458960596
 20
33.5596841799
 30
0.0
 11
267.248983893
 21
32.5800776377
 31
0.0
  0
ARC
  5
1C8
330
1F
100
AcDbEntity
  8
0
  6
Continuous
 62
     7
370
    15
100
AcDbCircle
 10
267.3571715366
 20
36.2442699334
 30
0.0
 40
3.119462498235883
100
AcDbArc
 50
300.6168359905
 51
316.0576097217
  0
LINE
  5
1C9
330
1F
100
AcDbEntity
  8
0
  6
Continuous
 62
     7
370
    15
100
AcDbLine
 10
260.7433132896
 20
28.8244339394
 30
0.0
 11
259.046401123
 21
27.8448273972
 31
0.0
  0
SPLINE
  5
1CA
330
1F
100
AcDbEntity
  8
0
  6
Continuous
 62
     7
370
    15
100
AcDbSpline
210
0.0
220
0.0
230
1.0
 70
     8
 71
     3
 72
    15
 73
    11
 74
     0
 42
0.000000001
 43
0.00000001
 40
0.0
 40
0.0
 40
0.0
 40
0.0
 40
0.1399493580072394
 40
0.2802320306539421
 40
0.4202251584356582
 40
0.560405570222951
 40
0.6788441088018881
 40
0.7975203862097614
 40
0.9591009949640317
 40
1.0
 40
1.0
 40
1.0
 40
1.0
 10
244.3209024048125
 20
40.07129028582081
 30
0.0
 10
244.3172570633793
 20
40.23424930317362
 30
0.0
 10
244.3099576984747
 20
40.5605554541728
 30
0.0
 10
244.2721657180863
 20
41.06359942446766
 30
0.0
 10
244.2382380504051
 20
41.56487603308283
 30
0.0
 10
244.2239477344816
 20
42.03134862288803
 30
0.0
 10
244.2354414741668
 20
42.45841572712404
 30
0.0
 10
244.2633771225093
 20
42.89945488496332
 30
0.0
 10
244.2972816232056
 20
43.24723601219119
 30
0.0
 10
244.3046105804753
 20
43.47561823807736
 30
0.0
 10
244.3060909619056
 20
43.52174933064414
 30
0.0
  0
LINE
  5
1CB
330
1F
100
AcDbEntity
  8
0
  6
Continuous
 62
     7
370
    15
100
AcDbLine
 10
244.3209024048
 20
39.2293312524
 30
0.0
 11
244.3209024048
 21
40.0712902858
 31
0.0
  0
LINE
  5
1CC
330
1F
100
AcDbEntity
  8
0
  6
Continuous
 62
     7
370
    15
100
AcDbLine
 10
245.653440506
 20
42.743940995
 30
0.0
 11
243.1381803664
 21
44.1959697662
 31
0.0
  0
LINE
  5
1CD
330
1F
100
AcDbEntity
  8
0
  6
Continuous
 62
     7
370
    15
100
AcDbLine
 10
243.1381803664
 20
44.1959697662
 30
0.0
 11
242.7299521631
 21
44.4316731971
 31
0.0
  0
LINE
  5
1CE
330
1F
100
AcDbEntity
  8
0
  6
Continuous
 62
     7
370
    15
100
AcDbLine
 10
259.3290997273
 20
29.6408420513
 30
0.0
 11
260.7433132896
 21
28.8244339394
 31
0.0
  0
LINE
  5
1CF
330
1F
100
AcDbEntity
  8
0
  6
Continuous
 62
     7
370
    15
100
AcDbLine
 10
267.248983893
 20
32.5800776377
 30
0.0
 11
265.8347703307
 21
33.3964857495
 31
0.0
  0
ARC
  5
1D0
330
1F
100
AcDbEntity
  8
0
  6
Continuous
 62
     7
370
    15
100
AcDbCircle
 10
268.6025797767
 20
36.7340569478
 30
0.0
 40
2.18290239519714
100
AcDbArc
 50
353.7588101909
 51
13.7288361877
  0
LWPOLYLINE
  5
1D1
330
1F
100
AcDbEntity
  8
0
  6
Continuous
 62
     7
370
    15
100
AcDbPolyline
 90
       10
 70
   128
 43
0.0
 10
270.7231162129
 20
45.0246642961
 10
271.0337146906
 20
44.3839926902
 10
271.269595722
 20
43.6676329226
 10
271.4282549717
 20
42.8831905449
 10
271.508007963
 20
42.038993938
 10
271.508007963
 20
41.1440058902
 10
271.4282549717
 20
40.2077284395
 10
271.269595722
 20
39.2401019914
 10
271.0337146906
 20
38.2513997818
 10
270.7231162129
 20
37.2521188069
  0
LWPOLYLINE
  5
1D2
330
1F
100
AcDbEntity
  8
0
  6
Continuous
 62
     7
370
    15
100
AcDbPolyline
 90
        3
 70
   128
 43
0.0
 10
243.7287004756
 20
42.4749051689
 10
243.7627655207
 20
43.2075659799
 10
243.8352865665
 20
43.7935389229
  0
ARC
  5
1D3
330
1F
100
AcDbEntity
  8
0
  6
Continuous
 62
     7
370
    15
100
AcDbCircle
 10
248.7838757446
 20
42.299669302
 30
0.0
 40
5.058211601901004
100
AcDbArc
 50
178.0146569876
 51
208.0762066622
  0
LINE
  5
1D4
330
1F
100
AcDbEntity
  8
0
  6
Continuous
 62
     7
370
    15
100
AcDbLine
 10
269.3089026505
 20
38.0685269187
 30
0.0
 11
270.7231162129
 21
37.2521188069
 31
0.0
  0
LWPOLYLINE
  5
1D5
330
1F
100
AcDbEntity
  8
0
  6
Continuous
 62
     7
370
    15
100
AcDbPolyline
 90
        3
 70
   128
 43
0.0
 10
234.1310198968
 20
59.5259470659
 10
234.2072274165
 20
59.5089257139
 10
234.3594544289
 20
59.4627521202
  0
LWPOLYLINE
  5
1D6
330
1F
100
AcDbEntity
  8
0
  6
Continuous
 62
     7
370
    15
100
AcDbPolyline
 90
        3
 70
   128
 43
0.0
 10
229.9439540337
 20
51.8140523422
 10
229.7625386597
 20
51.9946492114
 10
229.7609093056
 20
51.9965554335
  0
SPLINE
  5
1D7
330
1F
100
AcDbEntity
  8
0
  6
Continuous
 62
     7
370
    15
100
AcDbSpline
210
0.0
220
0.0
230
1.0
 70
     8
 71
     3
 72
     9
 73
     5
 74
     0
 42
0.000000001
 43
0.00000001
 40
0.0
 40
0.0
 40
0.0
 40
0.0
 40
0.693498830571964
 40
1.0
 40
1.0
 40
1.0
 40
1.0
 10
247.6016461637574
 20
36.43414659695891
 30
0.0
 10
247.7408101655425
 20
36.37293789158583
 30
0.0
 10
247.9414795764345
 20
36.28467717264186
 30
0.0
 10
248.1022274805884
 20
36.25707284826096
 30
0.0
 10
248.1514969011947
 20
36.24861209055695
 30
0.0
  0
SPLINE
  5
1D8
330
1F
100
AcDbEntity
  8
0
  6
Continuous
 62
     7
370
    15
100
AcDbSpline
210
0.0
220
0.0
230
1.0
 70
     8
 71
     3
 72
     8
 73
     4
 74
     0
 42
0.000000001
 43
0.00000001
 40
0.0
 40
0.0
 40
0.0
 40
0.0
 40
1.0
 40
1.0
 40
1.0
 40
1.0
 10
246.5016119192099
 20
36.31926169194378
 30
0.0
 10
246.7152448688581
 20
36.35698580993996
 30
0.0
 10
246.9289056513933
 20
36.39782801625147
 30
0.0
 10
247.1426176009382
 20
36.44183598102212
 30
0.0
  0
SPLINE
  5
1D9
330
1F
100
AcDbEntity
  8
0
  6
Continuous
 62
     7
370
    15
100
AcDbSpline
210
0.0
220
0.0
230
1.0
 70
     8
 71
     3
 72
     8
 73
     4
 74
     0
 42
0.000000001
 43
0.00000001
 40
0.0
 40
0.0
 40
0.0
 40
0.0
 40
1.0
 40
1.0
 40
1.0
 40
1.0
 10
247.1426176009382
 20
36.44183598102212
 30
0.0
 10
247.1670641184259
 20
36.44687005367297
 30
0.0
 10
247.1915113114442
 20
36.45194562731501
 30
0.0
 10
247.2159592198731
 20
36.45706283416137
 30
0.0
  0
ARC
  5
1DA
330
1F
100
AcDbEntity
  8
0
  6
Continuous
 62
     7
370
    15
100
AcDbCircle
 10
249.0186190579
 20
37.3712937984
 30
0.0
 40
4.105445765914803
100
AcDbArc
 50
201.8822030517
 51
263.8526739872
  0
SPLINE
  5
1DB
330
1F
100
AcDbEntity
  8
0
  6
Continuous
 62
     7
370
    15
100
AcDbSpline
210
0.0
220
0.0
230
1.0
 70
     8
 71
     3
 72
     8
 73
     4
 74
     0
 42
0.000000001
 43
0.00000001
 40
0.0000000000000008
 40
0.0000000000000008
 40
0.0000000000000008
 40
0.0000000000000008
 40
0.0011496337376356
 40
0.0011496337376356
 40
0.0011496337376356
 40
0.0011496337376356
 10
245.6534405059715
 20
36.17078745929057
 30
0.0
 10
245.5054004428798
 20
36.06068942724174
 30
0.0
 10
245.3572356107357
 20
35.95083521104619
 30
0.0
 10
245.2089621822091
 20
35.84119594971151
 30
0.0
  0
SPLINE
  5
1DC
330
1F
100
AcDbEntity
  8
0
  6
Continuous
 62
     7
370
    15
100
AcDbSpline
210
0.0
220
0.0
230
1.0
 70
     8
 71
     3
 72
     8
 73
     4
 74
     0
 42
0.000000001
 43
0.00000001
 40
0.0
 40
0.0
 40
0.0
 40
0.0
 40
1.0
 40
1.0
 40
1.0
 40
1.0
 10
245.6534405059705
 20
36.17078745929243
 30
0.0
 10
245.9363519956137
 20
36.21990841998583
 30
0.0
 10
246.2190940578926
 20
36.26937361450108
 30
0.0
 10
246.5016119192099
 20
36.31926169194378
 30
0.0
  0
SPLINE
  5
1DD
330
1F
100
AcDbEntity
  8
0
  6
Continuous
 62
     7
370
    15
100
AcDbSpline
210
0.0
220
0.0
230
1.0
 70
     8
 71
     3
 72
    10
 73
     6
 74
     0
 42
0.000000001
 43
0.00000001
 40
0.0
 40
0.0
 40
0.0
 40
0.0
 40
0.5
 40
0.5
 40
1.0
 40
1.0
 40
1.0
 40
1.0
 10
247.2159592198731
 20
36.45706283416136
 30
0.0
 10
247.2844413120799
 20
36.4713968632712
 30
0.0
 10
247.3575134842648
 20
36.4769883903875
 30
0.0
 10
247.4933922139181
 20
36.46896551369331
 30
0.0
 10
247.5558808539735
 20
36.45508858942812
 30
0.0
 10
247.6016461637575
 20
36.43414659695897
 30
0.0
  0
LINE
  5
1DE
330
1F
100
AcDbEntity
  8
0
  6
Continuous
 62
     7
370
    15
100
AcDbLine
 10
243.1381803664
 20
37.6228162306
 30
0.0
 11
245.653440506
 21
36.1707874593
 31
0.0
  0
LINE
  5
1DF
330
1F
100
AcDbEntity
  8
0
  6
Continuous
 62
     7
370
    15
100
AcDbLine
 10
243.1381803664
 20
37.6228162306
 30
0.0
 11
244.1087703705
 21
38.1831259134
 31
0.0
  0
LINE
  5
1E0
330
1F
100
AcDbEntity
  8
0
  6
Continuous
 62
     7
370
    15
100
AcDbLine
 10
242.7299521631
 20
37.3871127997
 30
0.0
 11
243.1381803664
 21
37.6228162306
 31
0.0
  0
LINE
  5
1E1
330
1F
100
AcDbEntity
  8
0
  6
Continuous
 62
     7
370
    15
100
AcDbLine
 10
245.2089621822
 20
35.8411959497
 30
0.0
 11
242.8843486391
 21
37.1831667835
 31
0.0
  0
SPLINE
  5
1E2
330
1F
100
AcDbEntity
  8
0
  6
Continuous
 62
     7
370
    15
100
AcDbSpline
210
0.0
220
0.0
230
1.0
 70
     8
 71
     3
 72
     8
 73
     4
 74
     0
 42
0.000000001
 43
0.00000001
 40
0.0
 40
0.0
 40
0.0
 40
0.0
 40
1.0
 40
1.0
 40
1.0
 40
1.0
 10
242.8843486390584
 20
37.18316678352009
 30
0.0
 10
242.810396627701
 20
37.22585837096069
 30
0.0
 10
242.756793500869
 20
37.2981829792792
 30
0.0
 10
242.7299521630925
 20
37.38711279974121
 30
0.0
  0
ELLIPSE
  5
1E3
330
1F
100
AcDbEntity
  8
0
  6
Continuous
 62
     7
370
    15
100
AcDbEllipse
 10
243.8744557954
 20
38.9716254878
 30
0.0
 11
-6.005970385558612E-5
 21
0.8534489614827194
 31
0.0
210
0.0
220
0.0
230
1.0
 40
0.7174342186
 41
3.534193645557484
 42
5.104989972352364
  0
LINE
  5
1E4
330
1F
100
AcDbEntity
  8
0
  6
Continuous
 62
     7
370
    15
100
AcDbLine
 10
244.6524880104
 20
35.1431568614
 30
0.0
 11
244.6216072718
 21
35.161176436
 31
0.0
  0
ELLIPSE
  5
1E5
330
1F
100
AcDbEntity
  8
0
  6
Continuous
 62
     7
370
    15
100
AcDbEllipse
 10
243.7552169799
 20
38.9027680077
 30
0.0
 11
0.2600075789209484
 21
0.9705436209909308
 31
0.0
210
0.0
220
0.0
230
1.0
 40
0.5176380889
 41
3.619174351347762
 42
5.189970678142631
  0
ARC
  5
1E6
330
1F
100
AcDbEntity
  8
0
  6
Continuous
 62
     7
370
     0
100
AcDbCircle
 10
263.1736441447
 20
47.4698664275
 30
0.0
 40
5.315879294900404
100
AcDbArc
 50
61.2390467581
 51
100.9733912582
  0
LWPOLYLINE
  5
1E7
330
1F
100
AcDbEntity
  8
0
  6
Continuous
 62
     7
370
     0
100
AcDbPolyline
 90
       25
 70
   128
 43
0.0
 10
251.8671958232
 20
28.3824610479
 10
251.3882863099
 20
28.7218580394
 10
250.8955401526
 20
29.1810829751
 10
250.4581729405
 20
29.7171059199
 10
250.0792269575
 20
30.3261983506
 10
249.7613381149
 20
31.0041234793
 10
249.5067176166
 20
31.7461657249
 10
249.3171365779
 20
32.5471635137
 10
249.1939137062
 20
33.401545183
 10
249.1379061278
 20
34.3033677372
 10
249.1495034259
 20
35.2463581862
 10
249.2286249308
 20
36.2239571802
 10
249.374720281
 20
37.2293646359
 10
249.5867732515
 20
38.2555870367
 10
249.8633088226
 20
39.2954860795
 10
250.2024034396
 20
40.3418283278
 10
250.6016983933
 20
41.3873355267
 10
251.0584162271
 20
42.4247352298
 10
251.569380056
 20
43.4468113858
 10
252.1310356653
 20
44.4464545324
 10
252.7394762334
 20
45.4167112492
 10
253.3904695068
 20
46.3508325248
 10
254.0794872397
 20
47.2423207026
 10
254.8017366918
 20
48.0849746775
 10
255.5521939661
 20
48.8729330305
  0
LWPOLYLINE
  5
1E8
330
1F
100
AcDbEntity
  8
0
  6
Continuous
 62
     7
370
     0
100
AcDbPolyline
 90
       20
 70
   128
 43
0.0
 10
248.9878071606
 20
34.925430791
 10
248.9547114893
 20
35.1180083035
 10
248.8652097777
 20
35.9100926907
 10
248.8421517901
 20
36.7464235346
 10
248.8857264857
 20
37.6201471394
 10
248.9955767717
 20
38.5241033769
 10
249.1708024296
 20
39.4508843641
 10
249.4099674927
 20
40.3928951698
 10
249.7111120132
 20
41.3424160553
 10
250.0717681247
 20
42.2916657371
 10
250.4889802654
 20
43.232865154
 10
250.9593293995
 20
44.1583012166
 10
251.4789610358
 20
45.0603900155
 10
252.0436168148
 20
45.9317389711
 10
252.6486694064
 20
46.7652074154
 10
253.2891604301
 20
47.5539651099
 10
253.9598410891
 20
48.2915482184
 10
254.6552151836
 20
48.9719122785
 10
255.3695841523
 20
49.5894817356
 10
256.046401123
 20
50.1034026298
  0
LWPOLYLINE
  5
1E9
330
1F
100
AcDbEntity
  8
0
  6
Continuous
 62
     7
370
     0
100
AcDbPolyline
 90
       18
 70
   128
 43
0.0
 10
247.2159592199
 20
43.0050706816
 10
247.5286096319
 20
43.88602763
 10
247.899989945
 20
44.7615450623
 10
248.3264238401
 20
45.6229561716
 10
248.8036900189
 20
46.4617337904
 10
249.3270639909
 20
47.2695748017
 10
249.8913648413
 20
48.0384823322
 10
250.4910065176
 20
48.7608449135
 10
251.1200531256
 20
49.4295118293
 10
251.7722776901
 20
50.0378638999
 10
252.4412237955
 20
50.5798790066
 10
253.1202694985
 20
51.0501917049
 10
253.8026928795
 20
51.4441463371
 10
254.4817385825
 20
51.7578431195
 10
255.1506846879
 20
51.9881767462
 10
255.8029092524
 20
52.1328671288
 10
256.4319558605
 20
52.1904819673
 10
256.6654399246
 20
52.1893382985
  0
LWPOLYLINE
  5
1EA
330
1F
100
AcDbEntity
  8
0
  6
Continuous
 62
     7
370
     0
100
AcDbPolyline
 90
       23
 70
   128
 43
0.0
 10
242.8843486391
 20
44.342551339
 10
243.1961982854
 20
45.2945388404
 10
243.5673448032
 20
46.2449478502
 10
243.9947340196
 20
47.1859574319
 10
244.4748489393
 20
48.1098239968
 10
245.003738686
 20
49.0089450267
 10
245.5770510145
 20
49.8759216348
 10
246.1900681249
 20
50.7036194516
 10
246.8377454859
 20
51.4852273335
 10
247.5147533463
 20
52.2143134119
 10
248.2155205935
 20
52.8848780216
 10
248.9342805984
 20
53.4914030717
 10
249.6651186691
 20
54.028897454
 10
250.402020723
 20
54.4929381155
 10
251.1389227769
 20
54.8797064554
 10
251.8697608476
 20
55.1860197486
 10
252.5885208525
 20
55.4093573361
 10
253.2892880997
 20
55.5478813681
 10
253.9662959601
 20
55.6004519272
 10
254.6139733211
 20
55.5666364092
 10
255.2269904315
 20
55.4467130827
 10
255.80030276
 20
55.2416687993
 10
256.1515534357
 20
55.0622806962
  0
LWPOLYLINE
  5
1EB
330
1F
100
AcDbEntity
  8
0
  6
Continuous
 62
     7
370
     0
100
AcDbPolyline
 90
       16
 70
   128
 43
0.0
 10
247.6016461638
 20
42.9076674538
 10
247.9244840834
 20
43.8061787624
 10
248.3094071831
 20
44.6981287063
 10
248.7522822489
 20
45.5739397364
 10
249.2483537925
 20
46.4242075993
 10
249.7922951139
 20
47.2398023184
 10
250.3782654989
 20
48.0119662289
 10
250.999972935
 20
48.7324080159
 10
251.6507416737
 20
49.3933917447
 10
252.3235839129
 20
49.987819927
 10
253.0112748307
 20
50.5093097325
 10
253.7064301633
 20
50.9522615262
 10
254.4015854959
 20
51.3119189955
 10
255.0892764136
 20
51.584420223
 10
255.7621186529
 20
51.7668391545
 10
256.1877733016
 20
51.8361008379
  0
LINE
  5
1EC
330
1F
100
AcDbEntity
  8
0
  6
Continuous
 62
     7
370
     0
100
AcDbLine
 10
257.6321875606
 20
28.661235509
 30
0.0
 11
259.046401123
 21
27.8448273972
 31
0.0
  0
LINE
  5
1ED
330
1F
100
AcDbEntity
  8
0
  6
Continuous
 62
     7
370
     0
100
AcDbLine
 10
248.0140610811
 20
42.4614696556
 30
0.0
 11
247.8716070508
 21
42.5840198068
 31
0.0
  0
LINE
  5
1EE
330
1F
100
AcDbEntity
  8
0
  6
Continuous
 62
     7
370
     0
100
AcDbLine
 10
247.4852052506
 20
42.806998922
 30
0.0
 11
247.1565579418
 21
42.996722975
 31
0.0
  0
ARC
  5
1EF
330
1F
100
AcDbEntity
  8
0
  6
Continuous
 62
     7
370
     0
100
AcDbCircle
 10
245.8736149225
 20
40.0193842765
 30
0.0
 40
3.21994080652266
100
AcDbArc
 50
56.2191255253
 51
59.9667101493
  0
SPLINE
  5
1F0
330
1F
100
AcDbEntity
  8
0
  6
Continuous
 62
     7
370
     0
100
AcDbSpline
210
0.0
220
0.0
230
1.0
 70
     8
 71
     3
 72
     8
 73
     4
 74
     0
 42
0.000000001
 43
0.00000001
 40
0.0
 40
0.0
 40
0.0
 40
0.0
 40
1.0
 40
1.0
 40
1.0
 40
1.0
 10
247.7734787673428
 20
42.63194382028865
 30
0.0
 10
247.7369611800021
 20
42.65005790677905
 30
0.0
 10
247.7004551662596
 20
42.67132136524656
 30
0.0
 10
247.6639606109279
 20
42.69570285125968
 30
0.0
  0
SPLINE
  5
1F1
330
1F
100
AcDbEntity
  8
0
  6
Continuous
 62
     7
370
     0
100
AcDbSpline
210
0.0
220
0.0
230
1.0
 70
     8
 71
     3
 72
    12
 73
     8
 74
     0
 42
0.000000001
 43
0.00000001
 40
0.0
 40
0.0
 40
0.0
 40
0.0
 40
0.2499999999999953
 40
0.2499999999999953
 40
0.4999999999999907
 40
0.4999999999999907
 40
1.0
 40
1.0
 40
1.0
 40
1.0
 10
247.8716070507629
 20
42.58401980684954
 30
0.0
 10
247.8632488683661
 20
42.59082628602864
 30
0.0
 10
247.8551243911012
 20
42.59399729868987
 30
0.0
 10
247.8387916596515
 20
42.60164253967131
 30
0.0
 10
247.8306375999684
 20
42.60527373003524
 30
0.0
 10
247.8061663106135
 20
42.61630901907454
 30
0.0
 10
247.7898416227464
 20
42.62382723319745
 30
0.0
 10
247.7734787673428
 20
42.63194382028865
 30
0.0
  0
SPLINE
  5
1F2
330
1F
100
AcDbEntity
  8
0
  6
Continuous
 62
     7
370
     0
100
AcDbSpline
210
0.0
220
0.0
230
1.0
 70
     8
 71
     3
 72
    10
 73
     6
 74
     0
 42
0.000000001
 43
0.00000001
 40
0.0
 40
0.0
 40
0.0
 40
0.0
 40
0.0381110146236185
 40
0.9108191192088758
 40
0.9999999999999999
 40
0.9999999999999999
 40
0.9999999999999999
 40
0.9999999999999999
 10
247.871607050763
 20
37.31715977824737
 30
0.0
 10
247.8768836938476
 20
37.3153864494564
 30
0.0
 10
248.0029907380747
 20
37.27300547945551
 30
0.0
 10
248.1423823009338
 20
37.23277805973869
 30
0.0
 10
248.2642779133183
 20
37.23234735966875
 30
0.0
 10
248.2755793818269
 20
37.23230742760572
 30
0.0
  0
SPLINE
  5
1F3
330
1F
100
AcDbEntity
  8
0
  6
Continuous
 62
     7
370
     0
100
AcDbSpline
210
0.0
220
0.0
230
1.0
 70
     8
 71
     3
 72
    12
 73
     8
 74
     0
 42
0.000000001
 43
0.00000001
 40
0.0
 40
0.0
 40
0.0
 40
0.0
 40
0.5000000000000093
 40
0.5000000000000093
 40
0.7500000000000047
 40
0.7500000000000047
 40
1.0
 40
1.0
 40
1.0
 40
1.0
 10
247.7734787673428
 20
37.38253226926164
 30
0.0
 10
247.7898417845471
 20
37.37175659908264
 30
0.0
 10
247.8061663769181
 20
37.36042679009687
 30
0.0
 10
247.8306377333474
 20
37.34320808203621
 30
0.0
 10
247.8387918194418
 20
37.33742477676766
 30
0.0
 10
247.8551245713511
 20
37.3262126395164
 30
0.0
 10
247.8632491201137
 20
37.32000336540364
 30
0.0
 10
247.871607050763
 20
37.31715977824769
 30
0.0
  0
SPLINE
  5
1F4
330
1F
100
AcDbEntity
  8
0
  6
Continuous
 62
     7
370
     0
100
AcDbSpline
210
0.0
220
0.0
230
1.0
 70
     8
 71
     3
 72
    11
 73
     7
 74
     0
 42
0.000000001
 43
0.00000001
 40
0.0
 40
0.0
 40
0.0
 40
0.0
 40
0.000121716006687
 40
0.000121716006687
 40
0.000121716006687
 40
0.0003100832903278
 40
0.0003100832903278
 40
0.0003100832903278
 40
0.0003100832903278
 10
247.6639606109279
 20
37.44522021018776
 30
0.0
 10
247.678260842267
 20
37.4382632928122
 30
0.0
 10
247.6925998737134
 20
37.43080372596386
 30
0.0
 10
247.7069413040778
 20
37.4228598651633
 30
0.0
 10
247.7291228106609
 20
37.41057330823249
 30
0.0
 10
247.7513474306975
 20
37.39710659753697
 30
0.0
 10
247.7734787673428
 20
37.38253226926165
 30
0.0
  0
ARC
  5
1F5
330
1F
100
AcDbEntity
  8
0
  6
Continuous
 62
     7
370
     0
100
AcDbCircle
 10
248.9181858641
 20
40.0185307887
 30
0.0
 40
2.862692494702368
100
AcDbArc
 50
239.9622210953
 51
244.0155097316
  0
LINE
  5
1F6
330
1F
100
AcDbEntity
  8
0
  6
Continuous
 62
     7
370
     0
100
AcDbLine
 10
244.4401412204
 20
39.2981887326
 30
0.0
 11
247.4852052506
 21
37.5403106854
 31
0.0
  0
LINE
  5
1F7
330
1F
100
AcDbEntity
  8
0
  6
Continuous
 62
     7
370
     0
100
AcDbLine
 10
244.3209024048
 20
39.2293312524
 30
0.0
 11
244.4401412204
 21
39.2981887326
 31
0.0
  0
LINE
  5
1F8
330
1F
100
AcDbEntity
  8
0
  6
Continuous
 62
     7
370
     0
100
AcDbLine
 10
247.7566799904
 20
42.7497863249
 30
0.0
 11
247.7734787673
 21
42.6319438203
 31
0.0
  0
LWPOLYLINE
  5
1F9
330
1F
100
AcDbEntity
  8
0
  6
Continuous
 62
     7
370
     0
100
AcDbPolyline
 90
        3
 70
   128
 43
0.0
 10
247.6521883578
 20
42.8644259142
 10
247.6617419001
 20
42.8114812805
 10
247.6639606109
 20
42.6957028513
  0
LWPOLYLINE
  5
1FA
330
1F
100
AcDbEntity
  8
0
  6
Continuous
 62
     7
370
     0
100
AcDbPolyline
 90
        3
 70
   128
 43
0.0
 10
247.4587303128
 20
42.9892170631
 10
247.4743357638
 20
42.9281634688
 10
247.4852052506
 20
42.806998922
  0
LWPOLYLINE
  5
1FB
330
1F
100
AcDbEntity
  8
0
  6
Continuous
 62
     7
370
     0
100
AcDbPolyline
 90
        3
 70
   128
 43
0.0
 10
244.0822538662
 20
42.2708031409
 10
244.1163189113
 20
43.0034639519
 10
244.1888399571
 20
43.5894368949
  0
ARC
  5
1FC
330
1F
100
AcDbEntity
  8
0
  6
Continuous
 62
     7
370
     0
100
AcDbCircle
 10
250.0484011896
 20
42.2033247001
 30
0.0
 40
5.966528909211092
100
AcDbArc
 50
179.3519997389
 51
194.4281330745
  0
LWPOLYLINE
  5
1FD
330
1F
100
AcDbEntity
  8
0
  6
Continuous
 62
     7
370
     0
100
AcDbPolyline
 90
       16
 70
   128
 43
0.0
 10
229.24142094
 20
53.6940043191
 10
229.2748744745
 20
54.2411292853
 10
229.374522074
 20
54.8152178616
 10
229.538239923
 20
55.4040343466
 10
229.7625386597
 20
55.9950291392
 10
230.042637746
 20
56.5756062115
 10
230.3725673562
 20
57.1333915712
 10
230.7452956133
 20
57.6564969917
 10
231.1528784618
 20
58.1337733892
 10
231.5866289808
 20
58.5550484459
 10
232.037302531
 20
58.9113434153
 10
232.4952937883
 20
59.1950644887
 10
232.950841464
 20
59.4001646441
 10
233.3942363505
 20
59.5222725277
 10
233.8160282554
 20
59.5587856221
 10
234.1310198968
 20
59.5259470659
  0
ARC
  5
1FE
330
1F
100
AcDbEntity
  8
0
  6
Continuous
 62
     7
370
     0
100
AcDbCircle
 10
231.8318303871
 20
53.5585581961
 30
0.0
 40
2.593948102025729
100
AcDbArc
 50
177.0068706981
 51
217.0256103225
  0
ARC
  5
1FF
330
1F
100
AcDbEntity
  8
0
  6
Continuous
 62
     7
370
     0
100
AcDbCircle
 10
246.776364351
 20
37.1692311952
 30
0.0
 40
1.105187512130489
100
AcDbArc
 50
318.3083095737
 51
7.6920861831
  0
LWPOLYLINE
  5
200
330
1F
100
AcDbEntity
  8
0
  6
Continuous
 62
     7
370
     0
100
AcDbPolyline
 90
        3
 70
   128
 43
0.0
 10
247.9595960522
 20
35.8608803917
 10
247.9244840834
 20
35.9083760164
 10
247.6016461638
 20
36.434146597
  0
LWPOLYLINE
  5
201
330
1F
100
AcDbEntity
  8
0
  6
Continuous
 62
     7
370
     0
100
AcDbPolyline
 90
        3
 70
   128
 43
0.0
 10
247.8165547707
 20
35.5786795147
 10
247.5286096319
 20
35.9370843678
 10
247.2159592199
 20
36.4570628342
  0
ARC
  5
202
330
1F
100
AcDbEntity
  8
0
  6
Continuous
 62
     7
370
     0
100
AcDbCircle
 10
246.4597193677
 20
37.5433000697
 30
0.0
 40
1.323559611765578
100
AcDbArc
 50
304.8456886156
 51
353.0232693864
  0
LINE
  5
203
330
1F
100
AcDbEntity
  8
0
  6
Continuous
 62
     7
370
     0
100
AcDbLine
 10
246.9195198257
 20
36.5605147911
 30
0.0
 11
244.1087703705
 21
38.1831259134
 31
0.0
  0
LINE
  5
204
330
1F
100
AcDbEntity
  8
0
  6
Continuous
 62
     7
370
     0
100
AcDbLine
 10
246.5016119192
 20
36.3192616919
 30
0.0
 11
246.9195198257
 21
36.5605147911
 31
0.0
  0
ARC
  5
205
330
1F
100
AcDbEntity
  8
0
  6
Continuous
 62
     7
370
     0
100
AcDbCircle
 10
246.5114028328
 20
37.4069384829
 30
0.0
 40
1.153193358753967
100
AcDbArc
 50
303.1862550559
 51
1.9023561302
  0
ARC
  5
206
330
1F
100
AcDbEntity
  8
0
  6
Continuous
 62
     7
370
     0
100
AcDbCircle
 10
248.7079684983
 20
39.6534871682
 30
0.0
 40
3.572817764722574
100
AcDbArc
 50
239.9622210953
 51
244.0155097316
  0
ARC
  5
207
330
1F
100
AcDbEntity
  8
0
  6
Continuous
 62
     7
370
     0
100
AcDbCircle
 10
246.2570323695
 20
37.5961993672
 30
0.0
 40
1.229443846057744
100
AcDbArc
 50
302.60547834
 51
357.3945215143
  0
ARC
  5
208
330
1F
100
AcDbEntity
  8
0
  6
Continuous
 62
     7
370
     0
100
AcDbCircle
 10
246.8956594881
 20
38.8723084474
 30
0.0
 40
4.352449228635213
100
AcDbArc
 50
202.8357006141
 51
238.5014861395
  0
LINE
  5
209
330
1F
100
AcDbEntity
  8
0
  6
Continuous
 62
     7
370
     0
100
AcDbLine
 10
267.5316824973
 20
34.3760922918
 30
0.0
 11
268.9458960596
 21
33.5596841799
 31
0.0
  0
OLE2FRAME
  5
20A
330
1F
100
AcDbEntity
  8
0
100
AcDbOle2Frame
 70
     2
  3
Paintbrush-Bild
 10
13.8511154363
 20
38.264191557
 30
0.0
 11
51.6290888628
 21
31.9806341108
 31
0.0
 71
     2
 72
     0
 73
     1
 90
    12928
310
80552BED0767C5B32B40DDAF6807D121434000000000000000006FFBDDFB85D0
310
4940DDAF6807D121434000000000000000006FFBDDFB85D04940416F4BD60AFB
310
3F4000000000000000002BED0767C5B32B40416F4BD60AFB3F40000000000000
310
0000000000000100000000010000010000000100000000000100000000320000
310
D0CF11E0A1B11AE1000000000000000000000000000000003E000300FEFF0900
310
0600000000000000000000000100000001000000000000000010000002000000
310
01000000FEFFFFFF0000000000000000FFFFFFFFFFFFFFFFFFFFFFFFFFFFFFFF
310
FFFFFFFFFFFFFFFFFFFFFFFFFFFFFFFFFFFFFFFFFFFFFFFFFFFFFFFFFFFFFFFF
310
FFFFFFFFFFFFFFFFFFFFFFFFFFFFFFFFFFFFFFFFFFFFFFFFFFFFFFFFFFFFFFFF
310
FFFFFFFFFFFFFFFFFFFFFFFFFFFFFFFFFFFFFFFFFFFFFFFFFFFFFFFFFFFFFFFF
310
FFFFFFFFFFFFFFFFFFFFFFFFFFFFFFFFFFFFFFFFFFFFFFFFFFFFFFFFFFFFFFFF
310
FFFFFFFFFFFFFFFFFFFFFFFFFFFFFFFFFFFFFFFFFFFFFFFFFFFFFFFFFFFFFFFF
310
FFFFFFFFFFFFFFFFFFFFFFFFFFFFFFFFFFFFFFFFFFFFFFFFFFFFFFFFFFFFFFFF
310
FFFFFFFFFFFFFFFFFFFFFFFFFFFFFFFFFFFFFFFFFFFFFFFFFFFFFFFFFFFFFFFF
310
FFFFFFFFFFFFFFFFFFFFFFFFFFFFFFFFFFFFFFFFFFFFFFFFFFFFFFFFFFFFFFFF
310
FFFFFFFFFFFFFFFFFFFFFFFFFFFFFFFFFFFFFFFFFFFFFFFFFFFFFFFFFFFFFFFF
310
FFFFFFFFFFFFFFFFFFFFFFFFFFFFFFFFFFFFFFFFFFFFFFFFFFFFFFFFFFFFFFFF
310
FFFFFFFFFFFFFFFFFFFFFFFFFFFFFFFFFFFFFFFFFFFFFFFFFFFFFFFFFFFFFFFF
310
FFFFFFFFFFFFFFFFFFFFFFFFFFFFFFFFFFFFFFFFFFFFFFFFFFFFFFFFFFFFFFFF
310
FFFFFFFFFFFFFFFFFFFFFFFFFFFFFFFFFFFFFFFFFFFFFFFFFFFFFFFFFFFFFFFF
310
FDFFFFFFFEFFFFFFFEFFFFFFFEFFFFFF05000000060000000700000008000000
310
090000000A0000000B0000000C0000000D0000000E0000000F00000010000000
310
11000000120000001300000014000000150000001600000017000000FEFFFFFF
310
FFFFFFFFFFFFFFFFFFFFFFFFFFFFFFFFFFFFFFFFFFFFFFFFFFFFFFFFFFFFFFFF
310
FFFFFFFFFFFFFFFFFFFFFFFFFFFFFFFFFFFFFFFFFFFFFFFFFFFFFFFFFFFFFFFF
310
FFFFFFFFFFFFFFFFFFFFFFFFFFFFFFFFFFFFFFFFFFFFFFFFFFFFFFFFFFFFFFFF
310
FFFFFFFFFFFFFFFFFFFFFFFFFFFFFFFFFFFFFFFFFFFFFFFFFFFFFFFFFFFFFFFF
310
FFFFFFFFFFFFFFFFFFFFFFFFFFFFFFFFFFFFFFFFFFFFFFFFFFFFFFFFFFFFFFFF
310
FFFFFFFFFFFFFFFFFFFFFFFFFFFFFFFFFFFFFFFFFFFFFFFFFFFFFFFFFFFFFFFF
310
FFFFFFFFFFFFFFFFFFFFFFFFFFFFFFFFFFFFFFFFFFFFFFFFFFFFFFFFFFFFFFFF
310
FFFFFFFFFFFFFFFFFFFFFFFFFFFFFFFFFFFFFFFFFFFFFFFFFFFFFFFFFFFFFFFF
310
FFFFFFFFFFFFFFFFFFFFFFFFFFFFFFFFFFFFFFFFFFFFFFFFFFFFFFFFFFFFFFFF
310
FFFFFFFFFFFFFFFFFFFFFFFFFFFFFFFFFFFFFFFFFFFFFFFFFFFFFFFFFFFFFFFF
310
FFFFFFFFFFFFFFFFFFFFFFFFFFFFFFFFFFFFFFFFFFFFFFFFFFFFFFFFFFFFFFFF
310
FFFFFFFFFFFFFFFFFFFFFFFFFFFFFFFFFFFFFFFFFFFFFFFFFFFFFFFFFFFFFFFF
310
FFFFFFFFFFFFFFFFFFFFFFFFFFFFFFFFFFFFFFFFFFFFFFFFFFFFFFFFFFFFFFFF
310
52006F006F007400200045006E00740072007900000000000000000000000000
310
0000000000000000000000000000000000000000000000000000000000000000
310
16000500FFFFFFFFFFFFFFFF020000000A00030000000000C000000000000046
310
000000000000000000000000D0A2317A6115D20103000000C000000000000000
310
01004F006C006500000000000000000000000000000000000000000000000000
310
0000000000000000000000000000000000000000000000000000000000000000
310
0A000200FFFFFFFFFFFFFFFFFFFFFFFF00000000000000000000000000000000
310
0000000000000000000000000000000000000000000000001400000000000000
310
010043006F006D0070004F0062006A0000000000000000000000000000000000
310
0000000000000000000000000000000000000000000000000000000000000000
310
120002010100000003000000FFFFFFFF00000000000000000000000000000000
310
0000000000000000000000000000000000000000010000004D00000000000000
310
01004F006C006500310030004E00610074006900760065000000000000000000
310
0000000000000000000000000000000000000000000000000000000000000000
310
1A000200FFFFFFFFFFFFFFFFFFFFFFFF00000000000000000000000000000000
310
0000000000000000000000000000000000000000040000002426000000000000
310
FEFFFFFF02000000FEFFFFFFFFFFFFFFFFFFFFFFFFFFFFFFFFFFFFFFFFFFFFFF
310
FFFFFFFFFFFFFFFFFFFFFFFFFFFFFFFFFFFFFFFFFFFFFFFFFFFFFFFFFFFFFFFF
310
FFFFFFFFFFFFFFFFFFFFFFFFFFFFFFFFFFFFFFFFFFFFFFFFFFFFFFFFFFFFFFFF
310
FFFFFFFFFFFFFFFFFFFFFFFFFFFFFFFFFFFFFFFFFFFFFFFFFFFFFFFFFFFFFFFF
310
FFFFFFFFFFFFFFFFFFFFFFFFFFFFFFFFFFFFFFFFFFFFFFFFFFFFFFFFFFFFFFFF
310
FFFFFFFFFFFFFFFFFFFFFFFFFFFFFFFFFFFFFFFFFFFFFFFFFFFFFFFFFFFFFFFF
310
FFFFFFFFFFFFFFFFFFFFFFFFFFFFFFFFFFFFFFFFFFFFFFFFFFFFFFFFFFFFFFFF
310
FFFFFFFFFFFFFFFFFFFFFFFFFFFFFFFFFFFFFFFFFFFFFFFFFFFFFFFFFFFFFFFF
310
FFFFFFFFFFFFFFFFFFFFFFFFFFFFFFFFFFFFFFFFFFFFFFFFFFFFFFFFFFFFFFFF
310
FFFFFFFFFFFFFFFFFFFFFFFFFFFFFFFFFFFFFFFFFFFFFFFFFFFFFFFFFFFFFFFF
310
FFFFFFFFFFFFFFFFFFFFFFFFFFFFFFFFFFFFFFFFFFFFFFFFFFFFFFFFFFFFFFFF
310
FFFFFFFFFFFFFFFFFFFFFFFFFFFFFFFFFFFFFFFFFFFFFFFFFFFFFFFFFFFFFFFF
310
FFFFFFFFFFFFFFFFFFFFFFFFFFFFFFFFFFFFFFFFFFFFFFFFFFFFFFFFFFFFFFFF
310
FFFFFFFFFFFFFFFFFFFFFFFFFFFFFFFFFFFFFFFFFFFFFFFFFFFFFFFFFFFFFFFF
310
FFFFFFFFFFFFFFFFFFFFFFFFFFFFFFFFFFFFFFFFFFFFFFFFFFFFFFFFFFFFFFFF
310
FFFFFFFFFFFFFFFFFFFFFFFFFFFFFFFFFFFFFFFFFFFFFFFFFFFFFFFFFFFFFFFF
310
0100000200000000000000000000000000000000000000000000000000000000
310
0000000000000000000000000000000000000000000000000000000000000000
310
0100FEFF030A0000FFFFFFFF0A00030000000000C00000000000004607000000
310
5042727573680007000000504272757368000700000050427275736800F439B2
310
7100000000000000000000000000000000000000000000000000000000000000
310
0000000000000000000000000000000000000000000000000000000000000000
310
0000000000000000000000000000000000000000000000000000000000000000
310
0000000000000000000000000000000000000000000000000000000000000000
310
0000000000000000000000000000000000000000000000000000000000000000
310
0000000000000000000000000000000000000000000000000000000000000000
310
0000000000000000000000000000000000000000000000000000000000000000
310
0000000000000000000000000000000000000000000000000000000000000000
310
0000000000000000000000000000000000000000000000000000000000000000
310
0000000000000000000000000000000000000000000000000000000000000000
310
0000000000000000000000000000000000000000000000000000000000000000
310
0000000000000000000000000000000000000000000000000000000000000000
310
20260000424D0E260000000000003E00000028000000B40200006E0000000100
310
01000000000000000000130B0000130B00000200000002000000000000FFFFFF
310
FFFFFFFFFFFFFFFFFFFFFFFFFFFFFFFFFFFFFFFFFFFFFFFFFFFFFFFFFFFFFFFF
310
FFFFFFFFFFFFFFFFFFFFFFFFFFFFFFFFFFFFFFFFFFFFFFFFFFFFFFFFFFFFFFFF
310
FFFFFFFFFFFFFFFFFFFFFFFFFFFFFFFFFFFFFFFFFFFFFFFFF000FFFFFFFFFFFF
310
FFFFFFFFFFFFFFFFFFFFFFFFFFFFFFFFFFFFFFFFFFFFFFFFFFFFFFFFFFFFFFFF
310
FFFFFFFFFFFFFFFFFFFFFFFFFFFFFFFFFFFFFFFFFFFFFFFFFFFFFFFFFFFFFFFF
310
FFFFFFFFFFFFFFFFFFFFFFFFFFFFFFFFF000FFFFFFFFFFFFFFFFFFFFFFFFFFFF
310
FFFFFFFFFFFFFFFFFFFFFFFFFFFFFFFFFFFFFFFFFFFFFFFFFFFFFFFFFFFFFFFF
310
FFFFFFFFFFFFFFFFFFFFFFFFFFFFFFFFFFFFFFFFFFFFFFFFFFFFFFFFFFFFFFFF
310
FFFFFFFFFFFFFFFFF000FFFFFFFFFFFFFFFFFFFFFFFFFFFFFFFFFFFFFFFFFFFF
310
FFFFFFFFFFFFFFFFFFFFFFFFFFFFFFFFFFFFFFFFFFFFFFFFFFFFFFFFFFFFFFFF
310
FFFFFFFFFFFFFFFFFFFFFFFFFFFFFFFFFFFFFFFFFFFFFFFFFFFFFFFFFFFFFFFF
310
F000FFFFFFFFFFFFFFFFFFFFFFFFFFFFFFFFFFFFFFFFFFFFFFFFFFFFFFFFFFFF
310
FFFFFFFFFFFFFFFFFFFFFFFFFFFFFFFFFFFFFFFFFFFFFFFFFFFFFFFFFFFFFFFF
310
FFFFFFFFFFFFFFFFFFFFFFFFFFFFFFFFFFFFFFFFFFFFFFFFF000FFFFFFFFFFFF
310
FFFFFFFFFFFFFFFFFFFFFFFFFFFFFFFFFFFFFFFFFFFFFFFFFFFFFFFFFFFFFFFF
310
FFFFFFFFFFFFFFFFFFFFFFFFFFFFFFFFFFFFFFFFFFFFFFFFFFFFFFFFFFFFFFFF
310
FFFFFFFFFFFFFFFFFFFFFFFFFFFFFFFFF000FFFFFFFFFFFFFFFFFFFFFFFFFFFF
310
FFFFFFFFFFFFFFFFFFFFFFFFFFFFFFFFFFFFFFFFFFFFFFFFFFFFFFFFFFFFFFFF
310
FFFFFFFFFFFFFFFFFFFFFFFFFFFFFFFFFFFFFFFFFFFFFFFFFFFFFFFFFFFFFFFF
310
FFFFFFFFFFFFFFFFF000FFFFFFFFFFFFFFFFFFFFFFFFFFFFFFFFFFFFFFFFFFFF
310
FFFFFFFFFFFFFFFFFFFFFFFFFFFFFFFFFFFFFFFFFFFFFFFFFFFFFFFFFFFFFFFF
310
FFFFFFFFFFFFFFFFFFFFFFFFFFFFFFFFFFFFFFFFFFFFFFFFFFFFFFFFFFFFFFFF
310
F000FFFFFFFFFFFFFFFFFFFFFFFFFFFFFFFFFFFFFFFFFFFFFFFFFFFFFFFFFFFF
310
FFFFFFFFFFFFFFFFFFFFFFFFFFFFFFFFFFFFFFFFFFFFFFFFFFFFFFFFFFFFFFFF
310
FFFFFFFFFFFFFFFFFFFFFFFFFFFFFFFFFFFFFFFFFFFFFFFFF000FFFFFFFFFFFF
310
FFFFFFFFFFFFFFFFFFFFFFFFFFFFFFFFFFFFFFFFFFFFFFFFFFFFFFFFFFFFFFFF
310
FFFFFFFFFFFFFFFFFFFFFFFFFFFFFFFFFFFFFFFFFFFFFFFFFFFFFFFFFFFFFFFF
310
FFFFFFFFFFFFFFFFFFFFFFFFFFFFFFFFF000FFFFFFFFFFFFFFFFFFFFFFFFFFFF
310
FFFFFFFFFFFFFFFFFFFFFFFFFFFFFFFFFFFFFFFFFFFFFFFFFFFFFFFFFFFFFFFF
310
FFFFFFFFFFFFFFFFFFFFFFFFFFFFFFFFFFFFFFFFFFFFFFFFFFFFFFFFFFFFFFFF
310
FFFFFFFFFFFFFFFFF000FFFFFFFFFFFFFFFFFFFFFFFFFFFFFFFFFFFFFFFFFFFF
310
FFFFFFFFFFFFFFFFFFFFFFFFFFFFFFFFFFFFFFFFFFFFFFFFFFFFFFFFFFFFFFFF
310
FFFFFFFFFFFFFFFFFFFFFFFFFFFFFFFFFFFFFFFFFFFFFFFFFFFFFFFFFFFFFFFF
310
F000FFFFFFFFFFFFFFFFFFFFFFFFFFFFFFFFFFFFFFFFFFFFFFFFFFFFFFFFFFFF
310
FFFFFFFFFFFFFFFFFFFFFFFFFFFFFFFFFFFFFFFFFFFFFFFFFFFFFFFFFFFFFFFF
310
FFFFFFFFFFFFFFFFFFFFFFFFFFFFFFFFFFFFFFFFFFFFFFFFF000FFFFFFFFFFFF
310
FFFFFFFFFFFFFFFFFFFFFFFFFFFFFFFFFFFFFFFFFFFFFFFFFFFFFFFFFFFFFFFF
310
FFFFFFFFFFFFFFFFFFFFFFFFFFFFFFFFFFFFFFFFFFFFFFFFFFFFFFFFFFFFFFFF
310
FFFFFFFFFFFFFFFFFFFFFFFFFFFFFFFFF000FFFFFFFFFFFFFFFFFFFFFFFFFFFF
310
FFFFFFFFFFFFFFFFFFFFFFFFFFFFFFFFFFFFFFFFFFFFFFFFFFFFFFFFFFFFFFFF
310
FFFFFFFFFFFFFFFFFFFFFFFFFFFFFFFFFFFFFFFFFFFFFFFFFFFFFFFFFFFFFFFF
310
FFFFFFFFFFFFFFFFF000FFFFFFFFFFFFFFFFFFFFFFFFFFFFFFFFFFFFFFFFFFFF
310
FFFFFFFFFFFFFFFFFFFFFFFFFFFFFFFFFFFFFFFFFFFFFFFFFFFFFFFFFFFFFFFF
310
FFFFFFFFFFFFFFFFFFFFFFFFFFFFFFFFFFFFFFFFFFFFFFFFFFFFFFFFFFFFFFFF
310
F000FFFFFFFFFFFFFFFFFFFFFFFFFFFFFFFFFFFFFFFFFFFFFFFFFFFFFFFFFFFF
310
FFFFFFFFFFFFFFFFFFFFFFFFFFFFFFFFFFFFFFFFFFFFFFFFFFFFFFFFFFFFFFFF
310
FFFFFFFFFFFFFFFFFFFFFFFFFFFFFFFFFFFFFFFFFFFFFFFFF000FFFFFFFFFFFF
310
FFFFFFFFFFFFFFFFFFFFFFFFFFFFFFFFFFFFFFFFFFFFFFFFFFFFFFFFFFFFFFFF
310
FFFFFFFFFFFFFFFFFFFFFFFFFFFFFFFFFFFFFFFFFFFFFFFFFFFFFFFFFFFFFFFF
310
FFFFFFFFFFFFFFFFFFFFFFFFFFFFFFFFF000FFFFFFFFFFFFFFFFFFFFFFFFFFFF
310
FFFFFFFFFFFFFFFFFFFFFFFFFFFFFFFFFFFFFFFFFFFFFFFFFFFFFFFFFFFFFFFF
310
FFFFFFFFFFFFFFFFFFFFFFFFFFFFFFFFFFFFFFFFFFFFFFFFFFFFFFFFFFFFFFFF
310
FFFFFFFFFFFFFFFFF000FFFFF80003FFFFFFFFFFFFFFFFFFFFFFFFFFFFFFFFFF
310
FFFFF00007FFFFFFFFFF00007FFFFFF800000000000000007FFFFFFFFFFFFFFF
310
FFFFFFFC001FFFFFFFFFFFFFFC001FFFFFFFFFFFFFFFFFFFFFFFFFFE0007FFFF
310
F000FFFF8000007FFFFFFFF8000FFFFFC0007FFFFF80007FFFFF0000007FFFFF
310
FFF8000007FFFFF800000000000000007FFFFFF0001FFFFFFFFFFFC00001FFFF
310
FFFFFFFFC00001FFFFFFFF000000000003FFFFE000007FFFF000FFFE0000000F
310
FFFFFFF0000FFFFF80007FFFFF80007FFFFC0000001FFFFFFFC0000001FFFFF8
310
00000000000000007FFFFFF0001FFFFFFFFFFE0000003FFFFFFFFFFE0000003F
310
FFFFFF000000000003FFFF0000000FFFF000FFF800000003FFFFFFF00007FFFF
310
80007FFFFF80007FFFF000000007FFFFFF000000003FFFF80000000000000000
310
7FFFFFF0001FFFFFFFFFF80000000FFFFFFFFFF80000000FFFFFFF0000000000
310
03FFFC00000003FFF000FFE000000000FFFFFFF00007FFFF80003FFFFF80007F
310
FFC000000001FFFFFC000000001FFFF800000000000000007FFFFFF0001FFFFF
310
FFFFE000000003FFFFFFFFE000000003FFFFFF000000000003FFF000000000FF
310
F000FF80000000007FFFFFF00007FFFF80003FFFFF80007FFF8000000000FFFF
310
F80000000007FFF800000000000000007FFFFFF0001FFFFFFFFFC000000001FF
310
FFFFFFC000000001FFFFFF000000000003FFC0000000007FF000FF0000000000
310
3FFFFFE00007FFFF00003FFFFF80007FFE00000000003FFFF00000000003FFF8
310
00000000000000007FFFFFF0001FFFFFFFFF8000000000FFFFFFFF8000000000
310
FFFFFF000000000003FF80000000003FF000FE00000000001FFFFFE00003FFFF
310
00003FFFFF80007FFC00000000001FFFE00000000001FFF8000001FFFE000000
310
7FFFFFF0001FFFFFFFFE00000000003FFFFFFE00000000003FFFFF0000000000
310
03FF00000000001FF000FC00000000000FFFFFE00003FFFF00001FFFFF80007F
310
F800000000001FFFC00000000000FFF8000001FFFE0000007FFFFFF0001FFFFF
310
FFFC00000000001FFFFFFC00000000001FFFFF000000000003FE00000000000F
310
F000F8000000000007FFFFE00003FFFF00001FFFFF80007FF800000000000FFF
310
800000000000FFF8000001FFFE0000007FFFFFF0001FFFFFFFF800000000000F
310
FFFFF800000000000FFFFF000000000003FC000000000007F000F80000000000
310
03FFFFC00003FFFE00001FFFFF80007FF0000000000007FF0000000000007FF8
310
000001FFFE0000007FFFFFF0001FFFFFFFF0000000000007FFFFF00000000000
310
07FFFF000000000003F8000000000003F000F0000000000003FFFFC00001FFFE
310
00001FFFFF80007FE0000000000007FE0000000000003FF8000001FFFE000000
310
7FFFFFF0001FFFFFFFF0000000000007FFFFF0000000000007FFFF0000000000
310
03F800001F800003F000E00001FFF00001FFFFC00001FFFE00000FFFFF80007F
310
E00001FFE00003FE00001FFF00003FF8000001FFFE0000007FFFFFF0001FFFFF
310
FFE000003E000003FFFFE000003E000003FFFF000000000003F00001FFF80001
310
F000E00007FFFC0001FFFFC00001FFFE00000FFFFF80007FC0000FFFFC0003FC
310
0000FFFFC0001FF8000001FFFE0000007FFFFFF0001FFFFFFFC00003FFE00001
310
FFFFC00003FFE00001FFFF0001FFFFFFFFF00007FFFE0001F000E0000FFFFF00
310
00FFFF800001FFFC00000FFFFF80007FC0001FFFFE0001FC0001FFFFE0001FF8
310
000001FFFE0000007FFFFFF0001FFFFFFF80000FFFF80000FFFF80000FFFF800
310
00FFFF0003FFFFFFFFE0000FFFFF8000F000C0003FFFFF8000FFFF800000FFFC
310
000007FFFF80007F80003FFFFF0001FC0003FFFFF0001FF8000001FFFE000000
310
7FFFFFF0001FFFFFFF80003FFFFE0000FFFF80003FFFFE0000FFFF0003FFFFFF
310
FFE0003FFFFF8000F000C0003FFFFF8000FFFF800000FFFC000007FFFF80007F
310
80007FFFFF8001F80007FFFFF8000FF8000001FFFE0000007FFFFFF0001FFFFF
310
FF00007FFFFF00007FFF00007FFFFF00007FFF0003FFFFFFFFE0003FFFFFC000
310
F000C0007FFFFFC000FFFF000000FFFC000007FFFF80007F8000FFFFFF8000F8
310
000FFFFFF8000FF8000001FFFE0000007FFFFFF0001FFFFFFF0000FFFFFF8000
310
7FFF0000FFFFFF80007FFF0003FFFFFFFFC0007FFFFFC00070008000FFFFFFC0
310
00FFFF000000FFF8000007FFFF80007F8000FFFFFF8000F8000FFFFFF8000FF8
310
000001FFFE0000007FFFFFF0001FFFFFFE0001FFFFFFC0003FFE0001FFFFFFC0
310
003FFF0003FFFFFFFFC0007FFFFFE00070008000FFFFFFC0007FFF0000007FF8
310
000003FFFF80007F0001FFFFFF8000F8000FFFFFF8000FF8000001FFFE000000
310
7FFFFFF0001FFFFFFE0001FFFFFFC0003FFE0001FFFFFFC0003FFF0003FFFFFF
310
FFC000FFFFFFE00070008000FFFFFFC0007FFF0000007FF8000003FFFF80007F
310
0001FFFFFF8000F8001FFFFFF8000FF8000001FFFE0000007FFFFFF0001FFFFF
310
FE0003FFFFFFE0003FFE0003FFFFFFE0003FFF0003FFFFFFFFC000FFFFFFE000
310
70008000FFFFFFC0007FFE0000007FF8000003FFFF80007F0001FFFFFF8000F0
310
001FFFFFF8000FF8000001FFFE0000007FFFFFF0001FFFFFFC0003FFFFFFE000
310
1FFC0003FFFFFFE0001FFF0003FFFFFFFFC000FFFFFFC00070008000FFFFFF80
310
007FFE0000007FF0000003FFFF80007F0001FFFFFF0000F0001FFFFFF8000FF8
310
000001FFFE0000007FFFFFF0001FFFFFFC0007FFFFFFF0001FFC0007FFFFFFF0
310
001FFF0003FFFFFFFFC000FFFFFFC00070008001FFFFFF0000FFFE0000003FF0
310
000001FFFF80007F0001FFFFFF0000F8001FFFFFF0000FF8000001FFFE000000
310
7FFFFFF0001FFFFFFC0007FFFFFFF0001FFC0007FFFFFFF0001FFF0003FFFFFF
310
FFC001FFFFFF80007000FFFFFFFFFE0000FFFE0008003FF0008001FFFF80007F
310
FFFFFFFFFC0000FFFFFFFFFFE0000FF8000001FFFE0000007FFFFFF0001FFFFF
310
F8000FFFFFFFF8000FF8000FFFFFFFF8000FFF0003FFFFFFFFFFFFFFFFFF0000
310
7000FFFFFFFFFC0000FFFC0008003FF0008001FFFF80007FFFFFFFFFF80001FF
310
FFFFFFFF80000FF8000001FFFE0000007FFFFFF0001FFFFFF8000FFFFFFFF800
310
0FF8000FFFFFFFF8000FFF0003FFFFFFFFFFFFFFFFFE0000F000FFFFFFFFE000
310
00FFFC000C003FE000C001FFFF80007FFFFFFFFFC00001FFFFFFFFFE00001FF8
310
000001FFFE0000007FFFFFF0001FFFFFF8000FFFFFFFF8000FF8000FFFFFFFF8
310
000FFF0003FFFFFFFFFFFFFFFFF00000F000FFFFFFFE000001FFFC000C001FE0
310
00C000FFFF80007FFFFFFFFE000001FFFFFFFFE000001FF80FFFFFFFFFFFFFC0
310
7FFFFFF0001FFFFFF8000FFFFFFFF8000FF8000FFFFFFFF8000FFF0003FFFFFF
310
FFFFFFFFFF800000F000FFFFFFC0000001FFFC001C001FE001C000FFFF80007F
310
FFFFFF80000003FFFFFFF80000001FF80FFFFFFFFFFFFFC07FFFFFF0001FFFFF
310
F8001FFFFFFFFC000FF8001FFFFFFFFC000FFF0003FFFFFFFFFFFFFFF0000001
310
F000FFFFF800000001FFF8001C001FE001C000FFFF80007FFFFFF800000003FF
310
FFFF800000003FF80FFFFFFFFFFFFFC07FFFFFF0001FFFFFF8001FFFFFFFFC00
310
0FF8001FFFFFFFFC000FFF0003FFFFFFFFFFFFFE00000001F000FFFFC0000000
310
03FFF8001E001FC001E000FFFF80007FFFFF8000000007FFFFFC000000003FF8
310
0FFFFFFFFFFFFFC07FFFFFF0001FFFFFF8001FFFFFFFFC000FF8001FFFFFFFFC
310
000FFF0003FFFFFFFFFFFFE000000003F000FFFE0000000007FFF8001E000FC0
310
01E0007FFF80007FFFFE0000000007FFFFE0000000007FF80FFFFFFFFFFFFFC0
310
7FFFFFF0001FFFFFF0001FFFFFFFFC0007F0001FFFFFFFFC0007FF0003FFFFFF
310
FFFFFF0000000003F000FFF80000000007FFF8001E000FC003E0007FFF80007F
310
FFF0000000000FFFFF8000000000FFF80FFFFFFFFFFFFFC07FFFFFF0001FFFFF
310
F0001FFFFFFFFC0007F0001FFFFFFFFC0007FF0003FFFFFFFFFFFC0000000007
310
F000FFE0000000000FFFF0003E000FC003E0007FFF80007FFFC0000000001FFF
310
FE0000000001FFF80FFFFFFFFFFFFFC07FFFFFF0001FFFFFF0001FFFFFFFFC00
310
07F0001FFFFFFFFC0007FF0003FFFFFFFFFFF0000000000FF000FFC000000000
310
1FFFF0003F000F8003F0003FFF80007FFF80000000003FFFF80000000003FFF8
310
0FFFFFFFFFFFFFC07FFFFFF0001FFFFFF0001FFFFFFFFC0007F0001FFFFFFFFC
310
0007FF0003FFFFFFFFFFE0000000001FF000FF00000000007FFFF0003F000780
310
03F0003FFF80007FFF00000000007FFFF00000000007FFF80FFFFFFFFFFFFFC0
310
7FFFFFF0001FFFFFF0001FFFFFFFFC0007F0001FFFFFFFFC0007FF0003FFFFFF
310
FFFF80000000007FF000FE0000000000FFFFE0003F00078007F0003FFF80007F
310
FE0000000001FFFFE0000000001FFFF80FFFFFFFFFFFFFC07FFFFFF0001FFFFF
310
F0001FFFFFFFFC0007F0001FFFFFFFFC0007FF0003FFFFFFFFFF0000000000FF
310
F000FC0000000003FFFFE0007F00078007F0003FFF80007FFC0000000007FFFF
310
C0000000007FFFF80FFFFFFFFFFFFFC07FFFFFF0001FFFFFF8001FFFFFFFFC00
310
0FF8001FFFFFFFFC000FFF0003FFFFFFFFFE0000000003FFF000FC000000000F
310
FFFFE0007F80070007F8001FFF80007FF8000000001FFFFF8000000001FFFFF8
310
0FFFFFFFFFFFFFC07FFFFFF0001FFFFFF8001FFFFFFFFC000FF8001FFFFFFFFC
310
000FFF0003FFFFFFFFFC000000000FFFF000F8000000007FFFFFE0007F800700
310
07F8001FFF80007FF000000000FFFFFF800000000FFFFFF80FFFFFFFFFFFFFC0
310
7FFFFFF0001FFFFFF8000FFFFFFFF8000FF8000FFFFFFFF8000FFF0003FFFFFF
310
FFFC000000007FFFF000F800000007FFFFFFC0007F8003000FF8001FFF80007F
310
F000000007FFFFFF000000007FFFFFF80FFFFFFFFFFFFFC07FFFFFF0001FFFFF
310
F8000FFFFFFFF8000FF8000FFFFFFFF8000FFF0003FFFFFFFFF80000000FFFFF
310
F000F0000000FFFFFFFFC000FF8003000FF8001FFF80007FE0000000FFFFFFFF
310
0000000FFFFFFFF8000001FFFE0000007FFFFFF0001FFFFFF8000FFFFFFFF800
310
0FF8000FFFFFFFF8000FFF0003FFFFFFFFF8000000FFFFFFF000F000000FFFFF
310
FFFFC000FFC002000FF8000FFF80007FE000001FFFFFFFFE000001FFFFFFFFF8
310
000001FFFE0000007FFFFFF0001FFFFFF8000FFFFFFFF8000FF8000FFFFFFFF8
310
000FFF0003FFFFFFFFF000001FFFFFFFF000E00000FFFFFFFFFFC000FFC00200
310
0FFC000FFF80007FE00001FFFFFFFFFE00001FFFFFFFFFF8000001FFFE000000
310
7FFFFFF0001FFFFFFC000FFFFFFFF8001FFC000FFFFFFFF8001FFF0003FFFFFF
310
FFF00001FFFFFFFFF000E00007FFFFFFFFFF8000FFC000001FFC000FFF80007F
310
C0000FFFFFFFFFFE0000FFFFFFFFFFF8000001FFFE0000007FFFFFF0001FFFFF
310
FC0007FFFFFFF0001FFC0007FFFFFFF0001FFF0003FFFFFFFFF00007FFFFFFFF
310
F000E0001FFFFFFFFFFF8000FFC000001FFC000FFF80007FC0003FFFFFFFFFFE
310
0001FFFFFFFFFFF8000001FFFE0000007FFFFFF0001FFFFFFC0007FFFFFFF000
310
1FFC0007FFFFFFF0001FFF0003FFFFFFFFF0001FFFFFFFFFF000E0003FFFFF00
310
03FF8001FFE000001FFC0007FF80007FC0007FFFFF0007FC0003FFFFF0003FF8
310
000001FFFE0000007FFFFFF0001FFFFFFC0003FFFFFFE0001FFC0003FFFFFFE0
310
001FFF0003FFFFFFFFF0003FFFFFFFFFF000E0003FFFFF0001FF8001FFE00000
310
1FFE0007FF80007FC0007FFFFE0003FC0007FFFFE0003FF8000001FFFE000000
310
7FFFFFF0001FFFFFFE0003FFFFFFE0003FFE0003FFFFFFE0003FFF0003FFFFFF
310
FFF0003FFFFF8001F000E0003FFFFF0001FF0001FFE000001FFE0007FF80007F
310
C0007FFFFE0003FC0007FFFFE0003FF8000001FFFE0000007FFFFFF0001FFFFF
310
FE0001FFFFFFC0003FFE0001FFFFFFC0003FFF0003FFFFFFFFF0003FFFFF0001
310
F000E0003FFFFF0003FF0001FFE000003FFE0007FF80007FC0007FFFFE0003FC
310
0007FFFFE0003FF8000001FFFE0000007FFFFFF0001FFFFFFF0001FFFFFFC000
310
7FFF0001FFFFFFC0007FFF0003FFFFFFFFF0003FFFFF0001F000E0003FFFFE00
310
03FF0003FFF000003FFE0003FF80007FC0007FFFFC0003FE0007FFFFE0003FF8
310
000001FFFE0000007FFFFFF0001FFFFFFF0000FFFFFF80007FFF0000FFFFFF80
310
007FFF0003FFFFFFFFF0003FFFFF0001F000E0003FFFFE0003FF0003FFF00000
310
3FFF0003FF80007FC0007FFFFC0007FE0007FFFFC0003FF8000001FFFE000000
310
7FFFFFF0001FFFFFFF80007FFFFF0000FFFF80007FFFFF0000FFFF0003FFFFFF
310
FFF0003FFFFF0003F000E0003FFFFC0003FE0003FFF000003FFF0003FF80007F
310
E0003FFFF80007FE0003FFFFC0007FF8000001FFFE0000007FFFFFF0001FFFFF
310
FF80003FFFFE0000FFFF80003FFFFE0000FFFF0003FFFFFFFFF0001FFFFE0003
310
F000F0001FFFF80003FE0003FFF000007FFF0001FF80007FE0003FFFF00007FE
310
0001FFFF80007FF8000001FFFE0000007FFFFFF0001FFFFFFFC0000FFFF80001
310
FFFFC0000FFFF80001FFFF0003FFFFFFFFF0001FFFFC0003F000F0000FFFF000
310
07FE0007FFF800007FFF0001FF80007FE0001FFFE00007FF0000FFFE00007FF8
310
000001FFFE0000007FFFFFF0001FFFFFFFC00003FFE00001FFFFC00003FFE000
310
01FFFF0003FFFFFFFFF8000FFFF80003F000F00003FFC00007FC0007FFF80000
310
7FFF8001FF80007FF00007FF80000FFF00007FF80000FFF8000001FFFE000000
310
7F80000000000001FFE000003E000003FFFFE000003E000003FFFF0003FFFFFF
310
FFF80003FFE00007F000F800000000000FFC0007FFF800007FFF8001FF80007F
310
F000000000000FFF000000000000FFF8000001FFFE0000007F80000000000001
310
FFF0000000000007FFFFF0000000000007FFFF0003FFFFFFFFFC00007E000007
310
F000F800000000000FFC0007FFF80000FFFF8000FF80007FF800000000001FFF
310
800000000001FFF8000001FFFE0000007F80000000000001FFF800000000000F
310
FFFFF800000000000FFFFF0003FFFFFFFFFC00000000000FF000FC0000000000
310
1FFC0007FFFC0000FFFF8000FF80007FF800000000003FFFC00000000001FFF8
310
000001FFFE0000007F80000000000001FFF800000000000FFFFFF80000000000
310
0FFFFF0003FFFFFFFFFE00000000001FF000FE00000000003FF8000FFFFC0000
310
FFFF8000FF80007FFC00000000003FFFC00000000003FFF8000001FFFE000000
310
7F80000000000001FFFC00000000001FFFFFFC00000000001FFFFF0003FFFFFF
310
FFFF00000000001FF000FF00000000003FF8000FFFFC0000FFFFC000FF80007F
310
FE00000000007FFFE00000000007FFF8000001FFFE0000007F80000000000001
310
FFFE00000000003FFFFFFE00000000003FFFFF0003FFFFFFFFFF80000000003F
310
F000FF80000000007FF8000FFFFC0001FFFFC0007F80007FFF0000000000FFFF
310
F0000000000FFFF800000000000000007F80000000000001FFFF8000000000FF
310
FFFFFF8000000000FFFFFF0003FFFFFFFFFFC0000000007FF000FFC000000000
310
FFF8000FFFFE0001FFFFC0007F80007FFF8000000001FFFFF8000000001FFFF8
310
00000000000000007F80000000000001FFFFC000000001FFFFFFFFC000000001
310
FFFFFF0003FFFFFFFFFFE000000000FFF000FFE000000003FFF0001FFFFE0001
310
FFFFC0007F80007FFFC000000007FFFFFE000000003FFFF80000000000000000
310
7F80000000000001FFFFE000000003FFFFFFFFE000000003FFFFFF0003FFFFFF
310
FFFFF000000003FFF000FFF80000000FFFF0001FFFFE0001FFFFE0007F80007F
310
FFF00000000FFFFFFF00000000FFFFF800000000000000007F80000000000001
310
FFFFF80000000FFFFFFFFFF80000000FFFFFFF0003FFFFFFFFFFFC0000000FFF
310
F000FFFE0000003FFFF0001FFFFE0003FFFFE0003F80007FFFFC0000003FFFFF
310
FFC0000003FFFFF800000000000000007F80000000000001FFFFFE0000003FFF
310
FFFFFFFE0000003FFFFFFF0003FFFFFFFFFFFF0000003FFFF000FFFF800000FF
310
FFF0001FFFFF0003FFFFE0003F80007FFFFF000001FFFFFFFFF800001FFFFFF8
310
00000000000000007F80000000000001FFFFFFC00001FFFFFFFFFFFFC00001FF
310
FFFFFF0003FFFFFFFFFFFFC00000FFFFF000FFFFF8000FFFFFFFFFFFFFFFFFFF
310
FFFFFFFFFFFFFFFFFFFFF0001FFFFFFFFFFF0000FFFFFFF80000000000000000
310
7FFFFFFFFFFFFFFFFFFFFFFC001FFFFFFFFFFFFFFC001FFFFFFFFFFFFFFFFFFF
310
FFFFFFFC001FFFFFF000FFFFFFFFFFFFFFFFFFFFFFFFFFFFFFFFFFFFFFFFFFFF
310
FFFFFFFFFFFFFFFFFFFFFFFFFFFFFFFFFFFFFFFFFFFFFFFFFFFFFFFFFFFFFFFF
310
FFFFFFFFFFFFFFFFFFFFFFFFFFFFFFFFFFFFFFFFFFFFFFFFFFFFFFFFFFFFFFFF
310
F000FFFFFFFFFFFFFFFFFFFFFFFFFFFFFFFFFFFFFFFFFFFFFFFFFFFFFFFFFFFF
310
FFFFFFFFFFFFFFFFFFFFFFFFFFFFFFFFFFFFFFFFFFFFFFFFFFFFFFFFFFFFFFFF
310
FFFFFFFFFFFFFFFFFFFFFFFFFFFFFFFFFFFFFFFFFFFFFFFFF000FFFFFFFFFFFF
310
FFFFFFFFFFFFFFFFFFFFFFFFFFFFFFFFFFFFFFFFFFFFFFFFFFFFFFFFFFFFFFFF
310
FFFFFFFFFFFFFFFFFFFFFFFFFFFFFFFFFFFFFFFFFFFFFFFFFFFFFFFFFFFFFFFF
310
FFFFFFFFFFFFFFFFFFFFFFFFFFFFFFFFF000FFFFFFFFFFFFFFFFFFFFFFFFFFFF
310
FFFFFFFFFFFFFFFFFFFFFFFFFFFFFFFFFFFFFFFFFFFFFFFFFFFFFFFFFFFFFFFF
310
FFFFFFFFFFFFFFFFFFFFFFFFFFFFFFFFFFFFFFFFFFFFFFFFFFFFFFFFFFFFFFFF
310
FFFFFFFFFFFFFFFFF000FFFFFFFFFFFFFFFFFFFFFFFFFFFFFFFFFFFFFFFFFFFF
310
FFFFFFFFFFFFFFFFFFFFFFFFFFFFFFFFFFFFFFFFFFFFFFFFFFFFFFFFFFFFFFFF
310
FFFFFFFFFFFFFFFFFFFFFFFFFFFFFFFFFFFFFFFFFFFFFFFFFFFFFFFFFFFFFFFF
310
F000FFFFFFFFFFFFFFFFFFFFFFFFFFFFFFFFFFFFFFFFFFFFFFFFFFFFFFFFFFFF
310
FFFFFFFFFFFFFFFFFFFFFFFFFFFFFFFFFFFFFFFFFFFFFFFFFFFFFFFFFFFFFFFF
310
FFFFFFFFFFFFFFFFFFFFFFFFFFFFFFFFFFFFFFFFFFFFFFFFF000FFFFFFFFFFFF
310
FFFFFFFFFFFFFFFFFFFFFFFFFFFFFFFFFFFFFFFFFFFFFFFFFFFFFFFFFFFFFFFF
310
FFFFFFFFFFFFFFFFFFFFFFFFFFFFFFFFFFFFFFFFFFFFFFFFFFFFFFFFFFFFFFFF
310
FFFFFFFFFFFFFFFFFFFFFFFFFFFFFFFFF000FFFFFFFFFFFFFFFFFFFFFFFFFFFF
310
FFFFFFFFFFFFFFFFFFFFFFFFFFFFFFFFFFFFFFFFFFFFFFFFFFFFFFFFFFFFFFFF
310
FFFFFFFFFFFFFFFFFFFFFFFFFFFFFFFFFFFFFFFFFFFFFFFFFFFFFFFFFFFFFFFF
310
FFFFFFFFFFFFFFFFF000FFFFFFFFFFFFFFFFFFFFFFFFFFFFFFFFFFFFFFFFFFFF
310
FFFFFFFFFFFFFFFFFFFFFFFFFFFFFFFFFFFFFFFFFFFFFFFFFFFFFFFFFFFFFFFF
310
FFFFFFFFFFFFFFFFFFFFFFFFFFFFFFFFFFFFFFFFFFFFFFFFFFFFFFFFFFFFFFFF
310
F000FFFFFFFFFFFFFFFFFFFFFFFFFFFFFFFFFFFFFFFFFFFFFFFFFFFFFFFFFFFF
310
FFFFFFFFFFFFFFFFFFFFFFFFFFFFFFFFFFFFFFFFFFFFFFFFFFFFFFFFFFFFFFFF
310
FFFFFFFFFFFFFFFFFFFFFFFFFFFFFFFFFFFFFFFFFFFFFFFFF000FFFFFFFFFFFF
310
FFFFFFFFFFFFFFFFFFFFFFFFFFFFFFFFFFFFFFFFFFFFFFFFFFFFFFFFFFFFFFFF
310
FFFFFFFFFFFFFFFFFFFFFFFFFFFFFFFFFFFFFFFFFFFFFFFFFFFFFFFFFFFFFFFF
310
FFFFFFFFFFFFFFFFFFFFFFFFFFFFFFFFF000FFFFFFFFFFFFFFFFFFFFFFFFFFFF
310
FFFFFFFFFFFFFFFFFFFFFFFFFFFFFFFFFFFFFFFFFFFFFFFFFFFFFFFFFFFFFFFF
310
FFFFFFFFFFFFFFFFFFFFFFFFFFFFFFFFFFFFFFFFFFFFFFFFFFFFFFFFFFFFFFFF
310
FFFFFFFFFFFFFFFFF000FFFFFFFFFFFFFFFFFFFFFFFFFFFFFFFFFFFFFFFFFFFF
310
FFFFFFFFFFFFFFFFFFFFFFFFFFFFFFFFFFFFFFFFFFFFFFFFFFFFFFFFFFFFFFFF
310
FFFFFFFFFFFFFFFFFFFFFFFFFFFFFFFFFFFFFFFFFFFFFFFFFFFFFFFFFFFFFFFF
310
F000FFFFFFFFFFFFFFFFFFFFFFFFFFFFFFFFFFFFFFFFFFFFFFFFFFFFFFFFFFFF
310
FFFFFFFFFFFFFFFFFFFFFFFFFFFFFFFFFFFFFFFFFFFFFFFFFFFFFFFFFFFFFFFF
310
FFFFFFFFFFFFFFFFFFFFFFFFFFFFFFFFFFFFFFFFFFFFFFFFF000FFFFFFFFFFFF
310
FFFFFFFFFFFFFFFFFFFFFFFFFFFFFFFFFFFFFFFFFFFFFFFFFFFFFFFFFFFFFFFF
310
FFFFFFFFFFFFFFFFFFFFFFFFFFFFFFFFFFFFFFFFFFFFFFFFFFFFFFFFFFFFFFFF
310
FFFFFFFFFFFFFFFFFFFFFFFFFFFFFFFFF000FFFFFFFFFFFFFFFFFFFFFFFFFFFF
310
FFFFFFFFFFFFFFFFFFFFFFFFFFFFFFFFFFFFFFFFFFFFFFFFFFFFFFFFFFFFFFFF
310
FFFFFFFFFFFFFFFFFFFFFFFFFFFFFFFFFFFFFFFFFFFFFFFFFFFFFFFFFFFFFFFF
310
FFFFFFFFFFFFFFFFF000FFFFFFFFFFFFFFFFFFFFFFFFFFFFFFFFFFFFFFFFFFFF
310
FFFFFFFFFFFFFFFFFFFFFFFFFFFFFFFFFFFFFFFFFFFFFFFFFFFFFFFFFFFFFFFF
310
FFFFFFFFFFFFFFFFFFFFFFFFFFFFFFFFFFFFFFFFFFFFFFFFFFFFFFFFFFFFFFFF
310
F000FFFFFFFFFFFFFFFFFFFFFFFFFFFFFFFFFFFFFFFFFFFFFFFFFFFFFFFFFFFF
310
FFFFFFFFFFFFFFFFFFFFFFFFFFFFFFFFFFFFFFFFFFFFFFFFFFFFFFFFFFFFFFFF
310
FFFFFFFFFFFFFFFFFFFFFFFFFFFFFFFFFFFFFFFFFFFFFFFFF000FFFFFFFFFFFF
310
FFFFFFFFFFFFFFFFFFFFFFFFFFFFFFFFFFFFFFFFFFFFFFFFFFFFFFFFFFFFFFFF
310
FFFFFFFFFFFFFFFFFFFFFFFFFFFFFFFFFFFFFFFFFFFFFFFFFFFFFFFFFFFFFFFF
310
FFFFFFFFFFFFFFFFFFFFFFFFFFFFFFFFF000FFFFFFFFFFFFFFFFFFFFFFFFFFFF
310
FFFFFFFFFFFFFFFFFFFFFFFFFFFFFFFFFFFFFFFFFFFFFFFFFFFFFFFFFFFFFFFF
310
FFFFFFFFFFFFFFFFFFFFFFFFFFFFFFFFFFFFFFFFFFFFFFFFFFFFFFFFFFFFFFFF
310
FFFFFFFFFFFFFFFFF000FFFFFFFFFFFFFFFFFFFFFFFFFFFFFFFFFFFFFFFFFFFF
310
FFFFFFFFFFFFFFFFFFFFFFFFFFFFFFFFFFFFFFFFFFFFFFFFFFFFFFFFFFFFFFFF
310
FFFFFFFFFFFFFFFFFFFFFFFFFFFFFFFFFFFFFFFFFFFFFFFFFFFFFFFFFFFFFFFF
310
F000FFFFFFFFFFFFFFFFFFFFFFFFFFFFFFFFFFFFFFFFFFFFFFFFFFFFFFFFFFFF
310
FFFFFFFFFFFFFFFFFFFFFFFFFFFFFFFFFFFFFFFFFFFFFFFFFFFFFFFFFFFFFFFF
310
FFFFFFFFFFFFFFFFFFFFFFFFFFFFFFFFFFFFFFFFFFFFFFFFF000FFFFFFFFFFFF
310
FFFFFFFFFFFFFFFFFFFFFFFFFFFFFFFFFFFFFFFFFFFFFFFFFFFFFFFFFFFFFFFF
310
FFFFFFFFFFFFFFFFFFFFFFFFFFFFFFFFFFFFFFFFFFFFFFFFFFFFFFFFFFFFFFFF
310
FFFFFFFFFFFFFFFFFFFFFFFFFFFFFFFFF0000000000000000000000000000000
310
0000000000000000000000000000000000000000000000000000000000000000
310
0000000000000000000000000000000000000000000000000000000000000000
310
0000000000000000000000000000000000000000000000000000000000000000
310
0000000000000000000000000000000000000000000000000000000000000000
310
0000000000000000000000000000000000000000000000000000000000000000
310
0000000000000000000000000000000000000000000000000000000000000000
310
0000000000000000000000000000000000000000000000000000000000000000
310
0000000000000000000000000000000000000000000000000000000000000000
310
0000000000000000000000000000000000000000000000000000000000000000
310
0000000000000000000000000000000000000000000000000000000000000000
310
0000000000000000000000000000000000000000000000000000000000000000
310
0000000000000000000000000000000000000000000000000000000000000000
310
0000000000000000000000000000000000000000000000000000000000000000
310
0000000000000000000000000000000000000000000000000000000000000000
310
0000000000000000000000000000000000000000000000000000000000000000
  1
OLE
  0
ENDSEC
  0
SECTION
  2
OBJECTS
  0
DICTIONARY
  5
C
330
0
100
AcDbDictionary
281
     1
  3
ACAD_GROUP
350
D
  3
ACAD_LAYOUT
350
1A
  3
ACAD_MLINESTYLE
350
17
  3
ACAD_PLOTSETTINGS
350
19
  3
ACAD_PLOTSTYLENAME
350
E
  3
ACAD_SCALELIST
350
47
  0
DICTIONARY
  5
D
102
{ACAD_REACTORS
330
C
102
}
330
C
100
AcDbDictionary
281
     1
  0
DICTIONARY
  5
1A
102
{ACAD_REACTORS
330
C
102
}
330
C
100
AcDbDictionary
281
     1
  3
Layout1
350
1E
  3
Layout2
350
26
  3
Model
350
22
  0
DICTIONARY
  5
17
102
{ACAD_REACTORS
330
C
102
}
330
C
100
AcDbDictionary
281
     1
  3
Standard
350
18
  0
DICTIONARY
  5
19
102
{ACAD_REACTORS
330
C
102
}
330
C
100
AcDbDictionary
281
     1
  0
ACDBDICTIONARYWDFLT
  5
E
102
{ACAD_REACTORS
330
C
102
}
330
C
100
AcDbDictionary
281
     1
  3
Normal
350
F
100
AcDbDictionaryWithDefault
340
F
  0
DICTIONARY
  5
47
102
{ACAD_REACTORS
330
C
102
}
330
C
100
AcDbDictionary
281
     1
  3
A0
350
48
  3
A1
350
49
  3
A2
350
4A
  3
A3
350
4B
  3
A4
350
4C
  3
A5
350
4D
  3
A6
350
4E
  3
A7
350
4F
  3
A8
350
50
  3
A9
350
51
  3
B0
350
52
  3
B1
350
53
  3
B2
350
54
  3
B3
350
55
  3
B4
350
56
  3
B5
350
57
  3
B6
350
58
  3
B7
350
59
  3
B8
350
5A
  3
B9
350
5B
  3
C0
350
5C
  3
C1
350
5D
  3
C2
350
5E
  3
C3
350
5F
  3
C4
350
60
  3
C5
350
61
  3
C6
350
62
  3
C7
350
63
  3
C8
350
64
  3
C9
350
65
  3
D0
350
66
  3
D1
350
67
  3
D2
350
68
  0
LAYOUT
  5
1E
102
{ACAD_REACTORS
330
1A
102
}
330
1A
100
AcDbPlotSettings
  1

  2
none_device
  4

  6

 40
0.0
 41
0.0
 42
0.0
 43
0.0
 44
0.0
 45
0.0
 46
0.0
 47
0.0
 48
0.0
 49
0.0
140
0.0
141
0.0
142
1.0
143
1.0
 70
   688
 72
     1
 73
     0
 74
     5
  7

 75
    16
147
1.0
148
0.0
149
0.0
100
AcDbLayout
  1
Layout1
 70
     1
 71
     1
 10
0.0
 20
0.0
 11
420.0
 21
297.0
 12
0.0
 22
0.0
 32
0.0
 14
1.0000000000E+20
 24
1.0000000000E+20
 34
1.0000000000E+20
 15
-1.0000000000E+20
 25
-1.0000000000E+20
 35
-1.0000000000E+20
146
0.0
 13
0.0
 23
0.0
 33
0.0
 16
1.0
 26
0.0
 36
0.0
 17
0.0
 27
1.0
 37
0.0
 76
     0
330
1B
  0
LAYOUT
  5
26
102
{ACAD_REACTORS
330
1A
102
}
330
1A
100
AcDbPlotSettings
  1

  2
none_device
  4

  6

 40
0.0
 41
0.0
 42
0.0
 43
0.0
 44
0.0
 45
0.0
 46
0.0
 47
0.0
 48
0.0
 49
0.0
140
0.0
141
0.0
142
1.0
143
1.0
 70
   688
 72
     1
 73
     0
 74
     5
  7

 75
    16
147
1.0
148
0.0
149
0.0
100
AcDbLayout
  1
Layout2
 70
     1
 71
     2
 10
0.0
 20
0.0
 11
0.0
 21
0.0
 12
0.0
 22
0.0
 32
0.0
 14
0.0
 24
0.0
 34
0.0
 15
0.0
 25
0.0
 35
0.0
146
0.0
 13
0.0
 23
0.0
 33
0.0
 16
1.0
 26
0.0
 36
0.0
 17
0.0
 27
1.0
 37
0.0
 76
     0
330
23
  0
LAYOUT
  5
22
102
{ACAD_REACTORS
330
1A
102
}
330
1A
100
AcDbPlotSettings
  1

  2
none_device
  4
Letter_(8.50_x_11.00_Inches)
  6

 40
6.35
 41
6.35
 42
6.35000508
 43
6.35000508
 44
215.9
 45
279.4
 46
0.0
 47
0.0
 48
0.0
 49
0.0
140
0.0
141
0.0
142
1.0
143
1.0
 70
  1712
 72
     1
 73
     0
 74
     0
  7

 75
     0
147
1.0
148
0.0
149
0.0
100
AcDbLayout
  1
Model
 70
     1
 71
     0
 10
0.0
 20
0.0
 11
297.0
 21
210.0
 12
0.0
 22
0.0
 32
0.0
 14
0.0
 24
0.0
 34
0.0
 15
297.0
 25
210.0
 35
0.0
146
0.0
 13
0.0
 23
0.0
 33
0.0
 16
1.0
 26
0.0
 36
0.0
 17
0.0
 27
1.0
 37
0.0
 76
     0
330
1F
331
29
  0
MLINESTYLE
  5
18
102
{ACAD_REACTORS
330
17
102
}
330
17
100
AcDbMlineStyle
  2
Standard
 70
     0
  3

 62
   256
 51
90.0
 52
90.0
 71
     2
 49
0.5
 62
   256
  6
BYLAYER
 49
-0.5
 62
   256
  6
BYLAYER
  0
ACDBPLACEHOLDER
  5
F
102
{ACAD_REACTORS
330
E
102
}
330
E
  0
SCALE
  5
48
102
{ACAD_REACTORS
330
47
102
}
330
47
100
AcDbScale
 70
     0
300
1:1
140
1.0
141
1.0
290
     1
  0
SCALE
  5
49
102
{ACAD_REACTORS
330
47
102
}
330
47
100
AcDbScale
 70
     0
300
1:2
140
1.0
141
2.0
290
     0
  0
SCALE
  5
4A
102
{ACAD_REACTORS
330
47
102
}
330
47
100
AcDbScale
 70
     0
300
1:4
140
1.0
141
4.0
290
     0
  0
SCALE
  5
4B
102
{ACAD_REACTORS
330
47
102
}
330
47
100
AcDbScale
 70
     0
300
1:5
140
1.0
141
5.0
290
     0
  0
SCALE
  5
4C
102
{ACAD_REACTORS
330
47
102
}
330
47
100
AcDbScale
 70
     0
300
1:8
140
1.0
141
8.0
290
     0
  0
SCALE
  5
4D
102
{ACAD_REACTORS
330
47
102
}
330
47
100
AcDbScale
 70
     0
300
1:10
140
1.0
141
10.0
290
     0
  0
SCALE
  5
4E
102
{ACAD_REACTORS
330
47
102
}
330
47
100
AcDbScale
 70
     0
300
1:16
140
1.0
141
16.0
290
     0
  0
SCALE
  5
4F
102
{ACAD_REACTORS
330
47
102
}
330
47
100
AcDbScale
 70
     0
300
1:20
140
1.0
141
20.0
290
     0
  0
SCALE
  5
50
102
{ACAD_REACTORS
330
47
102
}
330
47
100
AcDbScale
 70
     0
300
1:30
140
1.0
141
30.0
290
     0
  0
SCALE
  5
51
102
{ACAD_REACTORS
330
47
102
}
330
47
100
AcDbScale
 70
     0
300
1:40
140
1.0
141
40.0
290
     0
  0
SCALE
  5
52
102
{ACAD_REACTORS
330
47
102
}
330
47
100
AcDbScale
 70
     0
300
1:50
140
1.0
141
50.0
290
     0
  0
SCALE
  5
53
102
{ACAD_REACTORS
330
47
102
}
330
47
100
AcDbScale
 70
     0
300
1:100
140
1.0
141
100.0
290
     0
  0
SCALE
  5
54
102
{ACAD_REACTORS
330
47
102
}
330
47
100
AcDbScale
 70
     0
300
2:1
140
2.0
141
1.0
290
     0
  0
SCALE
  5
55
102
{ACAD_REACTORS
330
47
102
}
330
47
100
AcDbScale
 70
     0
300
4:1
140
4.0
141
1.0
290
     0
  0
SCALE
  5
56
102
{ACAD_REACTORS
330
47
102
}
330
47
100
AcDbScale
 70
     0
300
8:1
140
8.0
141
1.0
290
     0
  0
SCALE
  5
57
102
{ACAD_REACTORS
330
47
102
}
330
47
100
AcDbScale
 70
     0
300
10:1
140
10.0
141
1.0
290
     0
  0
SCALE
  5
58
102
{ACAD_REACTORS
330
47
102
}
330
47
100
AcDbScale
 70
     0
300
100:1
140
100.0
141
1.0
290
     0
  0
SCALE
  5
59
102
{ACAD_REACTORS
330
47
102
}
330
47
100
AcDbScale
 70
     0
300
1/128" = 1'-0"
140
0.0078125
141
12.0
290
     0
  0
SCALE
  5
5A
102
{ACAD_REACTORS
330
47
102
}
330
47
100
AcDbScale
 70
     0
300
1/64" = 1'-0"
140
0.015625
141
12.0
290
     0
  0
SCALE
  5
5B
102
{ACAD_REACTORS
330
47
102
}
330
47
100
AcDbScale
 70
     0
300
1/32" = 1'-0"
140
0.03125
141
12.0
290
     0
  0
SCALE
  5
5C
102
{ACAD_REACTORS
330
47
102
}
330
47
100
AcDbScale
 70
     0
300
1/16" = 1'-0"
140
0.0625
141
12.0
290
     0
  0
SCALE
  5
5D
102
{ACAD_REACTORS
330
47
102
}
330
47
100
AcDbScale
 70
     0
300
3/32" = 1'-0"
140
0.09375
141
12.0
290
     0
  0
SCALE
  5
5E
102
{ACAD_REACTORS
330
47
102
}
330
47
100
AcDbScale
 70
     0
300
1/8" = 1'-0"
140
0.125
141
12.0
290
     0
  0
SCALE
  5
5F
102
{ACAD_REACTORS
330
47
102
}
330
47
100
AcDbScale
 70
     0
300
3/16" = 1'-0"
140
0.1875
141
12.0
290
     0
  0
SCALE
  5
60
102
{ACAD_REACTORS
330
47
102
}
330
47
100
AcDbScale
 70
     0
300
1/4" = 1'-0"
140
0.25
141
12.0
290
     0
  0
SCALE
  5
61
102
{ACAD_REACTORS
330
47
102
}
330
47
100
AcDbScale
 70
     0
300
3/8" = 1'-0"
140
0.375
141
12.0
290
     0
  0
SCALE
  5
62
102
{ACAD_REACTORS
330
47
102
}
330
47
100
AcDbScale
 70
     0
300
1/2" = 1'-0"
140
0.5
141
12.0
290
     0
  0
SCALE
  5
63
102
{ACAD_REACTORS
330
47
102
}
330
47
100
AcDbScale
 70
     0
300
3/4" = 1'-0"
140
0.75
141
12.0
290
     0
  0
SCALE
  5
64
102
{ACAD_REACTORS
330
47
102
}
330
47
100
AcDbScale
 70
     0
300
1" = 1'-0"
140
1.0
141
12.0
290
     0
  0
SCALE
  5
65
102
{ACAD_REACTORS
330
47
102
}
330
47
100
AcDbScale
 70
     0
300
1-1/2" = 1'-0"
140
1.5
141
12.0
290
     0
  0
SCALE
  5
66
102
{ACAD_REACTORS
330
47
102
}
330
47
100
AcDbScale
 70
     0
300
3" = 1'-0"
140
3.0
141
12.0
290
     0
  0
SCALE
  5
67
102
{ACAD_REACTORS
330
47
102
}
330
47
100
AcDbScale
 70
     0
300
6" = 1'-0"
140
6.0
141
12.0
290
     0
  0
SCALE
  5
68
102
{ACAD_REACTORS
330
47
102
}
330
47
100
AcDbScale
 70
     0
300
1'-0" = 1'-0"
140
12.0
141
12.0
290
     0
  0
ENDSEC
  0
EOF
