  0
SECTION
  2
HEADER
  9
$ACADVER
  1
AC1015
  9
$ACADMAINTVER
 70
     6
  9
$DWGCODEPAGE
  3
ANSI_1252
  9
$INSBASE
 10
0.0
 20
0.0
 30
0.0
  9
$EXTMIN
 10
0.0
 20
0.0
 30
0.0
  9
$EXTMAX
 10
297.0
 20
210.0
 30
0.0
  9
$LIMMIN
 10
0.0
 20
0.0
  9
$LIMMAX
 10
297.0
 20
210.0
  9
$ORTHOMODE
 70
     0
  9
$REGENMODE
 70
     1
  9
$FILLMODE
 70
     1
  9
$QTEXTMODE
 70
     0
  9
$MIRRTEXT
 70
     1
  9
$LTSCALE
 40
1.0
  9
$ATTMODE
 70
     1
  9
$TEXTSIZE
 40
2.0
  9
$TRACEWID
 40
1.0
  9
$TEXTSTYLE
  7
Standard
  9
$CLAYER
  8
0
  9
$CELTYPE
  6
ByLayer
  9
$CECOLOR
 62
   256
  9
$CELTSCALE
 40
1.0
  9
$DISPSILH
 70
     0
  9
$DIMSCALE
 40
1.0
  9
$DIMASZ
 40
3.0
  9
$DIMEXO
 40
0.0
  9
$DIMDLI
 40
3.75
  9
$DIMRND
 40
0.0
  9
$DIMDLE
 40
0.0
  9
$DIMEXE
 40
1.0
  9
$DIMTP
 40
0.0
  9
$DIMTM
 40
0.0
  9
$DIMTXT
 40
2.0
  9
$DIMCEN
 40
2.5
  9
$DIMTSZ
 40
0.0
  9
$DIMTOL
 70
     0
  9
$DIMLIM
 70
     0
  9
$DIMTIH
 70
     1
  9
$DIMTOH
 70
     1
  9
$DIMSE1
 70
     0
  9
$DIMSE2
 70
     0
  9
$DIMTAD
 70
     1
  9
$DIMZIN
 70
     0
  9
$DIMBLK
  1

  9
$DIMASO
 70
     1
  9
$DIMSHO
 70
     1
  9
$DIMPOST
  1

  9
$DIMAPOST
  1

  9
$DIMALT
 70
     0
  9
$DIMALTD
 70
     3
  9
$DIMALTF
 40
0.0393700787
  9
$DIMLFAC
 40
1.0
  9
$DIMTOFL
 70
     1
  9
$DIMTVP
 40
0.0
  9
$DIMTIX
 70
     0
  9
$DIMSOXD
 70
     0
  9
$DIMSAH
 70
     0
  9
$DIMBLK1
  1

  9
$DIMBLK2
  1

  9
$DIMSTYLE
  2
ISO-25
  9
$DIMCLRD
 70
     0
  9
$DIMCLRE
 70
     0
  9
$DIMCLRT
 70
     0
  9
$DIMTFAC
 40
1.0
  9
$DIMGAP
 40
1.524
  9
$DIMJUST
 70
     0
  9
$DIMSD1
 70
     0
  9
$DIMSD2
 70
     0
  9
$DIMTOLJ
 70
     0
  9
$DIMTZIN
 70
     0
  9
$DIMALTZ
 70
     0
  9
$DIMALTTZ
 70
     0
  9
$DIMUPT
 70
     0
  9
$DIMDEC
 70
     2
  9
$DIMTDEC
 70
     3
  9
$DIMALTU
 70
     2
  9
$DIMALTTD
 70
     3
  9
$DIMTXSTY
  7
Standard
  9
$DIMAUNIT
 70
     0
  9
$DIMADEC
 70
     2
  9
$DIMALTRND
 40
0.0
  9
$DIMAZIN
 70
     0
  9
$DIMDSEP
 70
    44
  9
$DIMATFIT
 70
     3
  9
$DIMFRAC
 70
     0
  9
$DIMLDRBLK
  1

  9
$DIMLUNIT
 70
     2
  9
$DIMLWD
 70
    -2
  9
$DIMLWE
 70
    -2
  9
$DIMTMOVE
 70
     0
  9
$LUNITS
 70
     2
  9
$LUPREC
 70
     2
  9
$SKETCHINC
 40
1.0
  9
$FILLETRAD
 40
10.0
  9
$AUNITS
 70
     0
  9
$AUPREC
 70
     2
  9
$MENU
  1
.
  9
$ELEVATION
 40
0.0
  9
$PELEVATION
 40
0.0
  9
$THICKNESS
 40
0.0
  9
$LIMCHECK
 70
     0
  9
$CHAMFERA
 40
0.0
  9
$CHAMFERB
 40
0.0
  9
$CHAMFERC
 40
0.0
  9
$CHAMFERD
 40
0.0
  9
$SKPOLY
 70
     0
  9
$TDCREATE
 40
2457655.343148727
  9
$TDUCREATE
 40
2457655.259815393
  9
$TDUPDATE
 40
2457655.343149977
  9
$TDUUPDATE
 40
2457655.259816643
  9
$TDINDWG
 40
0.0000000116
  9
$TDUSRTIMER
 40
0.0000000116
  9
$USRTIMER
 70
     1
  9
$ANGBASE
 50
0.0
  9
$ANGDIR
 70
     0
  9
$PDMODE
 70
     0
  9
$PDSIZE
 40
-1.0
  9
$PLINEWID
 40
0.0
  9
$SPLFRAME
 70
     0
  9
$SPLINETYPE
 70
     6
  9
$SPLINESEGS
 70
     8
  9
$HANDSEED
  5
217
  9
$SURFTAB1
 70
     6
  9
$SURFTAB2
 70
     6
  9
$SURFTYPE
 70
     6
  9
$SURFU
 70
     6
  9
$SURFV
 70
     6
  9
$UCSBASE
  2

  9
$UCSNAME
  2

  9
$UCSORG
 10
0.0
 20
0.0
 30
0.0
  9
$UCSXDIR
 10
1.0
 20
0.0
 30
0.0
  9
$UCSYDIR
 10
0.0
 20
1.0
 30
0.0
  9
$UCSORTHOREF
  2

  9
$UCSORTHOVIEW
 70
     0
  9
$UCSORGTOP
 10
0.0
 20
0.0
 30
0.0
  9
$UCSORGBOTTOM
 10
0.0
 20
0.0
 30
0.0
  9
$UCSORGLEFT
 10
0.0
 20
0.0
 30
0.0
  9
$UCSORGRIGHT
 10
0.0
 20
0.0
 30
0.0
  9
$UCSORGFRONT
 10
0.0
 20
0.0
 30
0.0
  9
$UCSORGBACK
 10
0.0
 20
0.0
 30
0.0
  9
$PUCSBASE
  2

  9
$PUCSNAME
  2

  9
$PUCSORG
 10
0.0
 20
0.0
 30
0.0
  9
$PUCSXDIR
 10
1.0
 20
0.0
 30
0.0
  9
$PUCSYDIR
 10
0.0
 20
1.0
 30
0.0
  9
$PUCSORTHOREF
  2

  9
$PUCSORTHOVIEW
 70
     0
  9
$PUCSORGTOP
 10
0.0
 20
0.0
 30
0.0
  9
$PUCSORGBOTTOM
 10
0.0
 20
0.0
 30
0.0
  9
$PUCSORGLEFT
 10
0.0
 20
0.0
 30
0.0
  9
$PUCSORGRIGHT
 10
0.0
 20
0.0
 30
0.0
  9
$PUCSORGFRONT
 10
0.0
 20
0.0
 30
0.0
  9
$PUCSORGBACK
 10
0.0
 20
0.0
 30
0.0
  9
$USERI1
 70
     0
  9
$USERI2
 70
     0
  9
$USERI3
 70
     0
  9
$USERI4
 70
     0
  9
$USERI5
 70
     0
  9
$USERR1
 40
0.0
  9
$USERR2
 40
0.0
  9
$USERR3
 40
0.0
  9
$USERR4
 40
0.0
  9
$USERR5
 40
0.0
  9
$WORLDVIEW
 70
     1
  9
$SHADEDGE
 70
     3
  9
$SHADEDIF
 70
    70
  9
$TILEMODE
 70
     1
  9
$MAXACTVP
 70
    64
  9
$PINSBASE
 10
0.0
 20
0.0
 30
0.0
  9
$PLIMCHECK
 70
     0
  9
$PEXTMIN
 10
1.0000000000E+20
 20
1.0000000000E+20
 30
1.0000000000E+20
  9
$PEXTMAX
 10
-1.0000000000E+20
 20
-1.0000000000E+20
 30
-1.0000000000E+20
  9
$PLIMMIN
 10
0.0
 20
0.0
  9
$PLIMMAX
 10
420.0
 20
297.0
  9
$UNITMODE
 70
     0
  9
$VISRETAIN
 70
     1
  9
$PLINEGEN
 70
     0
  9
$PSLTSCALE
 70
     1
  9
$TREEDEPTH
 70
  3020
  9
$CMLSTYLE
  2
Standard
  9
$CMLJUST
 70
     0
  9
$CMLSCALE
 40
20.0
  9
$PROXYGRAPHICS
 70
     1
  9
$MEASUREMENT
 70
     1
  9
$CELWEIGHT
370
    -1
  9
$ENDCAPS
280
     0
  9
$JOINSTYLE
280
     0
  9
$LWDISPLAY
290
     1
  9
$INSUNITS
 70
     4
  9
$HYPERLINKBASE
  1

  9
$STYLESHEET
  1

  9
$XEDIT
290
     1
  9
$CEPSNTYPE
380
     0
  9
$PSTYLEMODE
290
     1
  9
$FINGERPRINTGUID
  2
{D171BC67-6317-4565-81C2-C6C9B9B935C9}
  9
$VERSIONGUID
  2
{FAEB1C32-E019-11D5-929B-00C0DF256EC4}
  9
$EXTNAMES
290
     1
  9
$PSVPSCALE
 40
0.0
  9
$OLESTARTUP
290
     0
  0
ENDSEC
  0
SECTION
  2
CLASSES
  0
CLASS
  1
ACDBDICTIONARYWDFLT
  2
AcDbDictionaryWithDefault
  3
ObjectDBX Classes
 90
        0
280
     0
281
     0
  0
CLASS
  1
VISUALSTYLE
  2
AcDbVisualStyle
  3
ObjectDBX Classes
 90
     4095
280
     0
281
     0
  0
CLASS
  1
MATERIAL
  2
AcDbMaterial
  3
ObjectDBX Classes
 90
     1153
280
     0
281
     0
  0
CLASS
  1
SCALE
  2
AcDbScale
  3
ObjectDBX Classes
 90
     1153
280
     0
281
     0
  0
CLASS
  1
TABLESTYLE
  2
AcDbTableStyle
  3
ObjectDBX Classes
 90
     4095
280
     0
281
     0
  0
CLASS
  1
MLEADERSTYLE
  2
AcDbMLeaderStyle
  3
ACDB_MLEADERSTYLE_CLASS
 90
     4095
280
     0
281
     0
  0
CLASS
  1
SUN
  2
AcDbSun
  3
SCENEOE
 90
     1153
280
     0
281
     0
  0
CLASS
  1
ACDBPLACEHOLDER
  2
AcDbPlaceHolder
  3
ObjectDBX Classes
 90
        0
280
     0
281
     0
  0
CLASS
  1
LAYOUT
  2
AcDbLayout
  3
ObjectDBX Classes
 90
        0
280
     0
281
     0
  0
ENDSEC
  0
SECTION
  2
TABLES
  0
TABLE
  2
VPORT
  5
8
330
0
100
AcDbSymbolTable
 70
     1
  0
VPORT
  5
29
330
8
100
AcDbSymbolTableRecord
100
AcDbViewportTableRecord
  2
*Active
 70
     0
 10
0.0
 20
0.0
 11
1.0
 21
1.0
 12
148.5
 22
105.0
 13
0.0
 23
0.0
 14
10.0
 24
10.0
 15
10.0
 25
10.0
 16
0.0
 26
0.0
 36
1.0
 17
0.0
 27
0.0
 37
0.0
 40
210.0
 41
1.4142857143
 42
50.0
 43
0.0
 44
0.0
 50
0.0
 51
0.0
 71
     0
 72
  2000
 73
     1
 74
     3
 75
     0
 76
     0
 77
     0
 78
     0
281
     0
 65
     1
110
0.0
120
0.0
130
0.0
111
1.0
121
0.0
131
0.0
112
0.0
122
1.0
132
0.0
 79
     0
146
0.0
  0
ENDTAB
  0
TABLE
  2
LTYPE
  5
5
330
0
100
AcDbSymbolTable
 70
     6
  0
LTYPE
  5
14
330
5
100
AcDbSymbolTableRecord
100
AcDbLinetypeTableRecord
  2
ByBlock
 70
     0
  3

 72
    65
 73
     0
 40
0.0
  0
LTYPE
  5
15
330
5
100
AcDbSymbolTableRecord
100
AcDbLinetypeTableRecord
  2
ByLayer
 70
     0
  3

 72
    65
 73
     0
 40
0.0
  0
LTYPE
  5
16
330
5
100
AcDbSymbolTableRecord
100
AcDbLinetypeTableRecord
  2
Continuous
 70
     0
  3
Solid line
 72
    65
 73
     0
 40
0.0
  0
LTYPE
  5
6E
330
5
100
AcDbSymbolTableRecord
100
AcDbLinetypeTableRecord
  2
HIDDEN
 70
     0
  3
Hidden __ __ __ __ __ __ __ __ __ __ __ __ __ __
 72
    65
 73
     2
 40
1.905
 49
1.27
 74
     0
 49
-0.635
 74
     0
  0
LTYPE
  5
6F
330
5
100
AcDbSymbolTableRecord
100
AcDbLinetypeTableRecord
  2
PHANTOM
 70
     0
  3
Phantom ______  __  __  ______  __  __  ______
 72
    65
 73
     6
 40
12.7
 49
6.35
 74
     0
 49
-1.27
 74
     0
 49
1.27
 74
     0
 49
-1.27
 74
     0
 49
1.27
 74
     0
 49
-1.27
 74
     0
  0
LTYPE
  5
70
330
5
100
AcDbSymbolTableRecord
100
AcDbLinetypeTableRecord
  2
CENTER
 70
     0
  3
Center ____ _ ____ _ ____ _ ____ _ ____ _ ____
 72
    65
 73
     4
 40
10.16
 49
6.35
 74
     0
 49
-1.27
 74
     0
 49
1.27
 74
     0
 49
-1.27
 74
     0
  0
LTYPE
  5
71
330
5
100
AcDbSymbolTableRecord
100
AcDbLinetypeTableRecord
  2
CENTERX2
 70
     0
  3
Center (2x) ________  __  ________  __  _____
 72
    65
 73
     4
 40
20.32
 49
12.7
 74
     0
 49
-2.54
 74
     0
 49
2.54
 74
     0
 49
-2.54
 74
     0
  0
LTYPE
  5
72
330
5
100
AcDbSymbolTableRecord
100
AcDbLinetypeTableRecord
  2
DOT2
 70
     0
  3
Dot (.5x) ........................................
 72
    65
 73
     2
 40
0.635
 49
0.0
 74
     0
 49
-0.635
 74
     0
  0
ENDTAB
  0
TABLE
  2
LAYER
  5
2
330
0
100
AcDbSymbolTable
 70
     5
  0
LAYER
  5
10
330
2
100
AcDbSymbolTableRecord
100
AcDbLayerTableRecord
  2
0
 70
     0
 62
     7
  6
Continuous
370
    -3
390
F
  0
LAYER
  5
73
330
2
100
AcDbSymbolTableRecord
100
AcDbLayerTableRecord
  2
FORMAT
 70
     0
 62
     7
  6
Continuous
370
    -3
390
F
  0
LAYER
  5
74
330
2
100
AcDbSymbolTableRecord
100
AcDbLayerTableRecord
  2
VERMASSUNG
 70
     0
 62
     7
  6
Continuous
370
    -3
390
F
  0
LAYER
  5
75
330
2
100
AcDbSymbolTableRecord
100
AcDbLayerTableRecord
  2
KOPF_DÜNN
 70
     0
 62
     7
  6
Continuous
370
    -3
390
F
  0
LAYER
  5
76
330
2
100
AcDbSymbolTableRecord
100
AcDbLayerTableRecord
  2
KOPF_DICK
 70
     0
 62
     7
  6
Continuous
370
    15
390
F
  0
ENDTAB
  0
TABLE
  2
STYLE
  5
3
330
0
100
AcDbSymbolTable
 70
     3
  0
STYLE
  5
11
330
3
100
AcDbSymbolTableRecord
100
AcDbTextStyleTableRecord
  2
Standard
 70
     0
 40
0.0
 41
1.0
 50
0.0
 71
     0
 42
2.0
  3
txt
  4

  0
STYLE
  5
77
330
3
100
AcDbSymbolTableRecord
100
AcDbTextStyleTableRecord
  2
SLDTEXTSTYLE0
 70
     0
 40
0.0
 41
0.7
 50
0.0
 71
     0
 42
2.0
  3
TXT
  4

  0
STYLE
  5
7B
330
3
100
AcDbSymbolTableRecord
100
AcDbTextStyleTableRecord
  2
SLDTEXTSTYLE1
 70
     0
 40
0.0
 41
0.6444444444
 50
0.0
 71
     0
 42
2.0
  3
TXT
  4

  0
ENDTAB
  0
TABLE
  2
VIEW
  5
6
330
0
100
AcDbSymbolTable
 70
     0
  0
ENDTAB
  0
TABLE
  2
UCS
  5
7
330
0
100
AcDbSymbolTable
 70
     0
  0
ENDTAB
  0
TABLE
  2
APPID
  5
9
330
0
100
AcDbSymbolTable
 70
     1
  0
APPID
  5
12
330
9
100
AcDbSymbolTableRecord
100
AcDbRegAppTableRecord
  2
ACAD
 70
     0
  0
ENDTAB
  0
TABLE
  2
DIMSTYLE
  5
A
330
0
100
AcDbSymbolTable
 70
     2
100
AcDbDimStyleTable
  0
DIMSTYLE
105
27
330
A
100
AcDbSymbolTableRecord
100
AcDbDimStyleTableRecord
  2
ISO-25
 70
     0
 41
2.5
 42
0.625
 43
3.75
 44
1.25
 73
     0
 74
     0
 77
     1
 78
     8
140
2.5
141
2.5
143
0.0393700787
147
0.625
171
     3
172
     1
178
     0
271
     2
272
     2
274
     3
278
    44
283
     0
284
     8
340
11
  0
DIMSTYLE
105
135
102
{ACAD_REACTORS
330
134
330
13F
330
14B
330
155
330
15F
102
}
330
A
100
AcDbSymbolTableRecord
100
AcDbDimStyleTableRecord
  2
SLDDIMSTYLE0
 70
     0
 41
3.0
 44
0.0
 45
0.000000001
 73
     0
 74
     0
 77
     1
 78
    12
 79
     3
140
2.0
147
0.5
173
     1
178
     0
271
     2
272
     3
276
     2
284
    12
340
77
  0
ENDTAB
  0
TABLE
  2
BLOCK_RECORD
  5
1
330
0
100
AcDbSymbolTable
 70
     6
  0
BLOCK_RECORD
  5
1F
330
1
100
AcDbSymbolTableRecord
100
AcDbBlockTableRecord
  2
*Model_Space
340
22
  0
BLOCK_RECORD
  5
1B
330
1
100
AcDbSymbolTableRecord
100
AcDbBlockTableRecord
  2
*Paper_Space
340
1E
  0
BLOCK_RECORD
  5
23
330
1
100
AcDbSymbolTableRecord
100
AcDbBlockTableRecord
  2
*Paper_Space0
340
26
  0
BLOCK_RECORD
  5
136
330
1
100
AcDbSymbolTableRecord
100
AcDbBlockTableRecord
  2
_D
340
0
  0
BLOCK_RECORD
  5
140
330
1
100
AcDbSymbolTableRecord
100
AcDbBlockTableRecord
  2
_D_1
340
0
  0
BLOCK_RECORD
  5
14C
330
1
100
AcDbSymbolTableRecord
100
AcDbBlockTableRecord
  2
_D_2
340
0
  0
BLOCK_RECORD
  5
156
330
1
100
AcDbSymbolTableRecord
100
AcDbBlockTableRecord
  2
_D_3
340
0
  0
BLOCK_RECORD
  5
160
330
1
100
AcDbSymbolTableRecord
100
AcDbBlockTableRecord
  2
_D_4
340
0
  0
ENDTAB
  0
ENDSEC
  0
SECTION
  2
BLOCKS
  0
BLOCK
  5
20
330
1F
100
AcDbEntity
  8
0
100
AcDbBlockBegin
  2
*Model_Space
 70
     0
 10
0.0
 20
0.0
 30
0.0
  3
*Model_Space
  1

  0
ENDBLK
  5
21
330
1F
100
AcDbEntity
  8
0
100
AcDbBlockEnd
  0
BLOCK
  5
1C
330
1B
100
AcDbEntity
 67
     1
  8
0
100
AcDbBlockBegin
  2
*Paper_Space
 70
     0
 10
0.0
 20
0.0
 30
0.0
  3
*Paper_Space
  1

  0
ENDBLK
  5
1D
330
1B
100
AcDbEntity
 67
     1
  8
0
100
AcDbBlockEnd
  0
BLOCK
  5
24
330
23
100
AcDbEntity
  8
0
100
AcDbBlockBegin
  2
*Paper_Space0
 70
     0
 10
0.0
 20
0.0
 30
0.0
  3
*Paper_Space0
  1

  0
ENDBLK
  5
25
330
23
100
AcDbEntity
  8
0
100
AcDbBlockEnd
  0
BLOCK
  5
137
330
136
100
AcDbEntity
  8
0
100
AcDbBlockBegin
  2
_D
 70
     0
 10
0.0
 20
0.0
 30
0.0
  3
_D
  1

  0
SOLID
  5
139
330
136
100
AcDbEntity
  8
VERMASSUNG
100
AcDbTrace
 10
162.5030390144
 20
134.3174142318
 30
0.0
 11
165.5030390144
 21
133.8674142318
 31
0.0
 12
165.5030390144
 22
134.7674142318
 32
0.0
 13
165.5030390144
 23
134.7674142318
 33
0.0
  0
SOLID
  5
13A
330
136
100
AcDbEntity
  8
VERMASSUNG
100
AcDbTrace
 10
182.5030390144
 20
134.3174142318
 30
0.0
 11
179.5030390144
 21
134.7674142318
 31
0.0
 12
179.5030390144
 22
133.8674142318
 32
0.0
 13
179.5030390144
 23
133.8674142318
 33
0.0
  0
LINE
  5
13B
330
136
100
AcDbEntity
  8
VERMASSUNG
100
AcDbLine
 10
162.5030390144
 20
128.311026694
 30
0.0
 11
162.5030390144
 21
135.3174142318
 31
0.0
  0
LINE
  5
13C
330
136
100
AcDbEntity
  8
VERMASSUNG
100
AcDbLine
 10
182.5030390144
 20
125.911026694
 30
0.0
 11
182.5030390144
 21
135.3174142318
 31
0.0
  0
LINE
  5
13D
330
136
100
AcDbEntity
  8
VERMASSUNG
100
AcDbLine
 10
162.5030390144
 20
134.3174142318
 30
0.0
 11
182.5030390144
 21
134.3174142318
 31
0.0
  0
MTEXT
  5
13E
330
136
100
AcDbEntity
  8
VERMASSUNG
100
AcDbMText
 10
171.1033490041
 20
136.8955498278
 30
0.0
 40
2.0
 41
0.0
 71
     1
 72
     1
  1
20
  7
SLDTEXTSTYLE0
 73
     1
 44
1.0
  0
ENDBLK
  5
138
330
136
100
AcDbEntity
  8
0
100
AcDbBlockEnd
  0
BLOCK
  5
141
330
140
100
AcDbEntity
  8
0
100
AcDbBlockBegin
  2
_D_1
 70
     0
 10
0.0
 20
0.0
 30
0.0
  3
_D_1
  1

  0
SOLID
  5
143
330
140
100
AcDbEntity
  8
VERMASSUNG
100
AcDbTrace
 10
87.1252075477
 20
128.311026694
 30
0.0
 11
86.6752075477
 21
125.311026694
 31
0.0
 12
87.5752075477
 22
125.311026694
 32
0.0
 13
87.5752075477
 23
125.311026694
 33
0.0
  0
SOLID
  5
144
330
140
100
AcDbEntity
  8
VERMASSUNG
100
AcDbTrace
 10
87.1252075477
 20
82.311026694
 30
0.0
 11
87.5752075477
 21
85.311026694
 31
0.0
 12
86.6752075477
 22
85.311026694
 32
0.0
 13
86.6752075477
 23
85.311026694
 33
0.0
  0
LINE
  5
145
330
140
100
AcDbEntity
  8
VERMASSUNG
100
AcDbLine
 10
160.5030375723
 20
128.311026694
 30
0.0
 11
86.1252075477
 21
128.311026694
 31
0.0
  0
LINE
  5
146
330
140
100
AcDbEntity
  8
VERMASSUNG
100
AcDbLine
 10
160.5030376035
 20
82.311026694
 30
0.0
 11
86.1252075477
 21
82.311026694
 31
0.0
  0
LINE
  5
147
330
140
100
AcDbEntity
  8
VERMASSUNG
100
AcDbLine
 10
87.1252075477
 20
128.311026694
 30
0.0
 11
87.1252075477
 21
82.311026694
 31
0.0
  0
MTEXT
  5
148
330
140
100
AcDbEntity
  8
VERMASSUNG
100
AcDbMText
 10
84.3470722915
 20
94.6076446137
 30
0.0
 40
2.0
 41
0.0
 71
     1
 72
     1
  1
MAS BT 30
  7
SLDTEXTSTYLE0
 11
-7.044195017643634E-15
 21
1.0
 31
0.0
 73
     1
 44
1.0
  0
MTEXT
  5
149
330
140
100
AcDbEntity
  8
VERMASSUNG
100
AcDbMText
 10
84.5470722428
 20
109.4076446182
 30
0.0
 40
2.0
 41
0.0
 71
     1
 72
     1
  1
%%c
  7
SLDTEXTSTYLE0
 11
-7.044195017643634E-15
 21
1.0
 31
0.0
 73
     1
 44
1.0
  0
MTEXT
  5
14A
330
140
100
AcDbEntity
  8
VERMASSUNG
100
AcDbMText
 10
84.5470719517
 20
113.0164911637
 30
0.0
 40
2.0
 41
0.0
 71
     1
 72
     1
  1
46
  7
SLDTEXTSTYLE0
 11
-7.044195017643634E-15
 21
1.0
 31
0.0
 73
     1
 44
1.0
  0
ENDBLK
  5
142
330
140
100
AcDbEntity
  8
0
100
AcDbBlockEnd
  0
BLOCK
  5
14D
330
14C
100
AcDbEntity
  8
0
100
AcDbBlockBegin
  2
_D_2
 70
     0
 10
0.0
 20
0.0
 30
0.0
  3
_D_2
  1

  0
SOLID
  5
14F
330
14C
100
AcDbEntity
  8
VERMASSUNG
100
AcDbTrace
 10
140.5030390144
 20
140.3174142318
 30
0.0
 11
143.5030390144
 21
139.8674142318
 31
0.0
 12
143.5030390144
 22
140.7674142318
 32
0.0
 13
143.5030390144
 23
140.7674142318
 33
0.0
  0
SOLID
  5
150
330
14C
100
AcDbEntity
  8
VERMASSUNG
100
AcDbTrace
 10
182.5030390144
 20
140.3174142318
 30
0.0
 11
179.5030390144
 21
140.7674142318
 31
0.0
 12
179.5030390144
 22
139.8674142318
 32
0.0
 13
179.5030390144
 23
139.8674142318
 33
0.0
  0
LINE
  5
151
330
14C
100
AcDbEntity
  8
VERMASSUNG
100
AcDbLine
 10
140.5030390144
 20
121.186026694
 30
0.0
 11
140.5030390144
 21
141.3174142318
 31
0.0
  0
LINE
  5
152
330
14C
100
AcDbEntity
  8
VERMASSUNG
100
AcDbLine
 10
182.5030390144
 20
125.911026694
 30
0.0
 11
182.5030390144
 21
141.3174142318
 31
0.0
  0
LINE
  5
153
330
14C
100
AcDbEntity
  8
VERMASSUNG
100
AcDbLine
 10
140.5030390144
 20
140.3174142318
 30
0.0
 11
182.5030390144
 21
140.3174142318
 31
0.0
  0
MTEXT
  5
154
330
14C
100
AcDbEntity
  8
VERMASSUNG
100
AcDbMText
 10
160.004080209
 20
142.8955498278
 30
0.0
 40
2.0
 41
0.0
 71
     1
 72
     1
  1
42
  7
SLDTEXTSTYLE0
 73
     1
 44
1.0
  0
ENDBLK
  5
14E
330
14C
100
AcDbEntity
  8
0
100
AcDbBlockEnd
  0
BLOCK
  5
157
330
156
100
AcDbEntity
  8
0
100
AcDbBlockBegin
  2
_D_3
 70
     0
 10
0.0
 20
0.0
 30
0.0
  3
_D_3
  1

  0
SOLID
  5
159
330
156
100
AcDbEntity
  8
VERMASSUNG
100
AcDbTrace
 10
92.1030390144
 20
146.3174142318
 30
0.0
 11
95.1030390144
 21
145.8674142318
 31
0.0
 12
95.1030390144
 22
146.7674142318
 32
0.0
 13
95.1030390144
 23
146.7674142318
 33
0.0
  0
SOLID
  5
15A
330
156
100
AcDbEntity
  8
VERMASSUNG
100
AcDbTrace
 10
182.5030390144
 20
146.3174142318
 30
0.0
 11
179.5030390144
 21
146.7674142318
 31
0.0
 12
179.5030390144
 22
145.8674142318
 32
0.0
 13
179.5030390144
 23
145.8674142318
 33
0.0
  0
LINE
  5
15B
330
156
100
AcDbEntity
  8
VERMASSUNG
100
AcDbLine
 10
92.1030390144
 20
113.6953211592
 30
0.0
 11
92.1030390144
 21
147.3174142318
 31
0.0
  0
LINE
  5
15C
330
156
100
AcDbEntity
  8
VERMASSUNG
100
AcDbLine
 10
182.5030390144
 20
125.911026694
 30
0.0
 11
182.5030390144
 21
147.3174142318
 31
0.0
  0
LINE
  5
15D
330
156
100
AcDbEntity
  8
VERMASSUNG
100
AcDbLine
 10
92.1030390144
 20
146.3174142318
 30
0.0
 11
182.5030390144
 21
146.3174142318
 31
0.0
  0
MTEXT
  5
15E
330
156
100
AcDbEntity
  8
VERMASSUNG
100
AcDbMText
 10
134.8036713522
 20
148.8955498278
 30
0.0
 40
2.0
 41
0.0
 71
     1
 72
     1
  1
90.4
  7
SLDTEXTSTYLE0
 73
     1
 44
1.0
  0
ENDBLK
  5
158
330
156
100
AcDbEntity
  8
0
100
AcDbBlockEnd
  0
BLOCK
  5
161
330
160
100
AcDbEntity
  8
0
100
AcDbBlockBegin
  2
_D_4
 70
     0
 10
0.0
 20
0.0
 30
0.0
  3
_D_4
  1

  0
SOLID
  5
163
330
160
100
AcDbEntity
  8
VERMASSUNG
100
AcDbTrace
 10
189.0895120781
 20
126.311026694
 30
0.0
 11
188.6395120781
 21
123.311026694
 31
0.0
 12
189.5395120781
 22
123.311026694
 32
0.0
 13
189.5395120781
 23
123.311026694
 33
0.0
  0
SOLID
  5
164
330
160
100
AcDbEntity
  8
VERMASSUNG
100
AcDbTrace
 10
189.0895120781
 20
84.311026694
 30
0.0
 11
189.5395120781
 21
87.311026694
 31
0.0
 12
188.6395120781
 22
87.311026694
 32
0.0
 13
188.6395120781
 23
87.311026694
 33
0.0
  0
LINE
  5
165
330
160
100
AcDbEntity
  8
VERMASSUNG
100
AcDbLine
 10
182.1030390144
 20
126.311026694
 30
0.0
 11
190.0895120781
 21
126.311026694
 31
0.0
  0
LINE
  5
166
330
160
100
AcDbEntity
  8
VERMASSUNG
100
AcDbLine
 10
182.1030390144
 20
84.311026694
 30
0.0
 11
190.0895120781
 21
84.311026694
 31
0.0
  0
LINE
  5
167
330
160
100
AcDbEntity
  8
VERMASSUNG
100
AcDbLine
 10
189.0895120781
 20
126.311026694
 30
0.0
 11
189.0895120781
 21
84.311026694
 31
0.0
  0
MTEXT
  5
168
330
160
100
AcDbEntity
  8
VERMASSUNG
100
AcDbMText
 10
186.3113768218
 20
98.8060272204
 30
0.0
 40
2.0
 41
0.0
 71
     1
 72
     1
  1
MBM
  7
SLDTEXTSTYLE0
 11
-7.044195017643634E-15
 21
1.0
 31
0.0
 73
     1
 44
1.0
  0
MTEXT
  5
169
330
160
100
AcDbEntity
  8
VERMASSUNG
100
AcDbMText
 10
186.5113767731
 20
105.2060270587
 30
0.0
 40
2.0
 41
0.0
 71
     1
 72
     1
  1
%%c
  7
SLDTEXTSTYLE0
 11
-7.044195017643634E-15
 21
1.0
 31
0.0
 73
     1
 44
1.0
  0
MTEXT
  5
16A
330
160
100
AcDbEntity
  8
VERMASSUNG
100
AcDbMText
 10
186.3113768218
 20
108.8160275386
 30
0.0
 40
2.0
 41
0.0
 71
     1
 72
     1
  1
42
  7
SLDTEXTSTYLE0
 11
-7.044195017643634E-15
 21
1.0
 31
0.0
 73
     1
 44
1.0
  0
ENDBLK
  5
162
330
160
100
AcDbEntity
  8
0
100
AcDbBlockEnd
  0
ENDSEC
  0
SECTION
  2
ENTITIES
  0
MTEXT
  5
78
330
1F
100
AcDbEntity
  8
KOPF_DÜNN
100
AcDbMText
 10
13.8892156294
 20
23.8442973028
 30
0.0
 40
3.0
 41
0.0
 71
     1
 72
     1
  1
102.312.421
  7
SLDTEXTSTYLE0
 73
     1
 44
1.0
  0
MTEXT
  5
79
330
1F
100
AcDbEntity
  8
VERMASSUNG
100
AcDbMText
 10
13.9329988022
 20
28.8834360957
 30
0.0
 40
3.0
 41
0.0
 71
     1
 72
     1
  1
Aufnahme_Master shank MBM 42
  7
SLDTEXTSTYLE0
 73
     1
 44
1.0
  0
MTEXT
  5
7A
330
1F
100
AcDbEntity
  8
VERMASSUNG
100
AcDbMText
 10
98.8601118557
 20
13.8365368761
 30
0.0
 40
2.0
 41
0.0
 71
     1
 72
     1
  1
Datum: 21.11.2007
  7
SLDTEXTSTYLE0
 73
     1
 44
1.0
  0
MTEXT
  5
7C
330
1F
100
AcDbEntity
  8
VERMASSUNG
100
AcDbMText
 10
13.933048693
 20
18.0482802738
 30
0.0
 40
2.0
 41
0.0
 71
     1
 72
     1
  1
MAS BT 30 / MBM 42
  7
SLDTEXTSTYLE1
 73
     1
 44
1.0
  0
MTEXT
  5
7D
330
1F
100
AcDbEntity
  8
VERMASSUNG
100
AcDbMText
 10
13.9808475933
 20
13.9090974274
 30
0.0
 40
2.0
 41
0.0
 71
     1
 72
     1
  1
Gewicht: 497g
  7
SLDTEXTSTYLE0
 73
     1
 44
1.0
  0
LINE
  5
7E
330
1F
100
AcDbEntity
  8
0
  6
Continuous
 62
     7
370
    15
100
AcDbLine
 10
160.5029977826
 20
82.311026694
 30
0.0
 11
161.867364524
 21
82.311026694
 31
0.0
  0
LINE
  5
7F
330
1F
100
AcDbEntity
  8
0
  6
Continuous
 62
     7
370
    15
100
AcDbLine
 10
161.867364524
 20
128.311026694
 30
0.0
 11
160.5029372325
 21
128.311026694
 31
0.0
  0
ARC
  5
80
330
1F
100
AcDbEntity
  8
0
  6
Continuous
 62
     7
370
    15
100
AcDbCircle
 10
161.867364524
 20
83.311026694
 30
0.0
 40
1.0
100
AcDbArc
 50
270.0
 51
330.0
  0
ARC
  5
81
330
1F
100
AcDbEntity
  8
0
  6
Continuous
 62
     7
370
    15
100
AcDbCircle
 10
161.867364524
 20
127.311026694
 30
0.0
 40
1.0
100
AcDbArc
 50
30.0
 51
90.0
  0
ARC
  5
82
330
1F
100
AcDbEntity
  8
0
  6
Continuous
 62
     7
370
    15
100
AcDbCircle
 10
165.3314661391
 20
81.311026694
 30
0.0
 40
3.000000000000025
100
AcDbArc
 50
90.0
 51
150.0
  0
ARC
  5
83
330
1F
100
AcDbEntity
  8
0
  6
Continuous
 62
     7
370
    15
100
AcDbCircle
 10
165.3314661391
 20
129.311026694
 30
0.0
 40
3.000000000000039
100
AcDbArc
 50
210.0
 51
270.0
  0
LINE
  5
84
330
1F
100
AcDbEntity
  8
0
  6
Continuous
 62
     7
370
    15
100
AcDbLine
 10
165.3314661391
 20
84.311026694
 30
0.0
 11
182.1030390144
 21
84.311026694
 31
0.0
  0
LINE
  5
85
330
1F
100
AcDbEntity
  8
0
  6
Continuous
 62
     7
370
    15
100
AcDbLine
 10
182.1030390144
 20
126.311026694
 30
0.0
 11
165.3314661391
 21
126.311026694
 31
0.0
  0
LINE
  5
86
330
1F
100
AcDbEntity
  8
0
  6
Continuous
 62
     7
370
    15
100
AcDbLine
 10
182.1030390144
 20
84.311026694
 30
0.0
 11
182.5030390144
 21
84.711026694
 31
0.0
  0
LINE
  5
87
330
1F
100
AcDbEntity
  8
0
  6
Continuous
 62
     7
370
    15
100
AcDbLine
 10
182.5030390144
 20
125.911026694
 30
0.0
 11
182.1030390144
 21
126.311026694
 31
0.0
  0
ARC
  5
88
330
1F
100
AcDbEntity
  8
0
  6
Continuous
 62
     7
370
    15
100
AcDbCircle
 10
141.5030390144
 20
88.436026694
 30
0.0
 40
1.000000000000032
100
AcDbArc
 50
42.4516300131
 51
90.0
  0
ARC
  5
89
330
1F
100
AcDbEntity
  8
0
  6
Continuous
 62
     7
370
    15
100
AcDbCircle
 10
141.5030390144
 20
122.186026694
 30
0.0
 40
1.00000000000001
100
AcDbArc
 50
270.0
 51
317.5138447187
  0
LINE
  5
8A
330
1F
100
AcDbEntity
  8
0
  6
Continuous
 62
     7
370
    15
100
AcDbLine
 10
140.5030390144
 20
89.436026694
 30
0.0
 11
141.5030390144
 21
89.436026694
 31
0.0
  0
LINE
  5
8B
330
1F
100
AcDbEntity
  8
0
  6
Continuous
 62
     7
370
    15
100
AcDbLine
 10
141.5030390144
 20
121.186026694
 30
0.0
 11
140.5030390144
 21
121.186026694
 31
0.0
  0
LINE
  5
8C
330
1F
100
AcDbEntity
  8
0
  6
Continuous
 62
     7
370
    15
100
AcDbLine
 10
140.5030390144
 20
121.186026694
 30
0.0
 11
92.5308855678
 21
114.1900876498
 31
0.0
  0
LINE
  5
8D
330
1F
100
AcDbEntity
  8
0
  6
Continuous
 62
     7
370
    15
100
AcDbLine
 10
92.5308855678
 20
96.4319657383
 30
0.0
 11
140.5030390144
 21
89.436026694
 31
0.0
  0
ARC
  5
8E
330
1F
100
AcDbEntity
  8
0
  6
Continuous
 62
     7
370
    15
100
AcDbCircle
 10
92.6030390144
 20
96.9267322289
 30
0.0
 40
0.5
100
AcDbArc
 50
180.0
 51
261.7028550302
  0
ARC
  5
8F
330
1F
100
AcDbEntity
  8
0
  6
Continuous
 62
     7
370
    15
100
AcDbCircle
 10
92.6030390144
 20
113.6953211592
 30
0.0
 40
0.5
100
AcDbArc
 50
98.2971449698
 51
180.0
  0
SPLINE
  5
90
330
1F
100
AcDbEntity
  8
0
  6
Continuous
 62
     7
370
    15
100
AcDbSpline
210
0.0
220
0.0
230
1.0
 70
    24
 71
     3
 72
    13
 73
     9
 74
     0
 42
0.000000001
 43
0.00000001
 40
0.0
 40
0.0
 40
0.0
 40
0.0
 40
0.1333078910201584
 40
0.3081793907436481
 40
0.4826178978901886
 40
0.6492099713623862
 40
0.8161279311171359
 40
1.0
 40
1.0
 40
1.0
 40
1.0
 10
171.6850898219426
 20
102.3110266940452
 30
0.0
 10
171.5398203475577
 20
102.3110266940452
 30
0.0
 10
171.2039883291605
 20
102.3110266940452
 30
0.0
 10
170.6463765261785
 20
102.3110266940452
 30
0.0
 10
170.0259378354573
 20
102.3110266940452
 30
0.0
 10
169.4121996284514
 20
102.3110266940452
 30
0.0
 10
168.8061483706028
 20
102.3110266940452
 30
0.0
 10
168.4222267281894
 20
102.3110266940452
 30
0.0
 10
168.2209882068048
 20
102.3110266940452
 30
0.0
  0
SPLINE
  5
91
330
1F
100
AcDbEntity
  8
0
  6
Continuous
 62
     7
370
    15
100
AcDbSpline
210
0.0
220
0.0
230
1.0
 70
    24
 71
     3
 72
    12
 73
     8
 74
     0
 42
0.000000001
 43
0.00000001
 40
0.0
 40
0.0
 40
0.0
 40
0.0
 40
0.2161857461389841
 40
0.4397628073511844
 40
0.5934185666353795
 40
0.7522096186328715
 40
1.0
 40
1.0
 40
1.0
 40
1.0
 10
171.6850898219426
 20
108.3110266940452
 30
0.0
 10
171.8036836288635
 20
108.1056161949952
 30
0.0
 10
172.0449259234988
 20
107.6877722837524
 30
0.0
 10
172.3995941504959
 20
107.073468894763
 30
0.0
 10
172.7238557751551
 20
106.5118312859085
 30
0.0
 10
173.0568913554236
 20
105.9349967401552
 30
0.0
 10
173.28072536375
 20
105.5473048652721
 30
0.0
 10
173.4171406295115
 20
105.3110266940452
 30
0.0
  0
SPLINE
  5
92
330
1F
100
AcDbEntity
  8
0
  6
Continuous
 62
     7
370
    15
100
AcDbSpline
210
0.0
220
0.0
230
1.0
 70
    24
 71
     3
 72
    13
 73
     9
 74
     0
 42
0.000000001
 43
0.00000001
 40
0.0
 40
0.0
 40
0.0
 40
0.0
 40
0.183872068882861
 40
0.3507900286376113
 40
0.5173821021098095
 40
0.6918206092563507
 40
0.8666921089798412
 40
1.0
 40
1.0
 40
1.0
 40
1.0
 10
168.2209882068049
 20
108.3110266940452
 30
0.0
 10
168.4222267281894
 20
108.3110266940452
 30
0.0
 10
168.8061483706029
 20
108.3110266940452
 30
0.0
 10
169.4121996284514
 20
108.3110266940452
 30
0.0
 10
170.0259378354573
 20
108.3110266940452
 30
0.0
 10
170.6463765261785
 20
108.3110266940452
 30
0.0
 10
171.2039883291604
 20
108.3110266940452
 30
0.0
 10
171.5398203475577
 20
108.3110266940452
 30
0.0
 10
171.6850898219426
 20
108.3110266940452
 30
0.0
  0
SPLINE
  5
93
330
1F
100
AcDbEntity
  8
0
  6
Continuous
 62
     7
370
    15
100
AcDbSpline
210
0.0
220
0.0
230
1.0
 70
    24
 71
     3
 72
    12
 73
     8
 74
     0
 42
0.000000001
 43
0.00000001
 40
0.0
 40
0.0
 40
0.0
 40
0.0
 40
0.2161857461389846
 40
0.4397628073511848
 40
0.5934185666353807
 40
0.7522096186328722
 40
1.0
 40
1.0
 40
1.0
 40
1.0
 10
166.488937399236
 20
105.3110266940452
 30
0.0
 10
166.6075312061569
 20
105.5164371930952
 30
0.0
 10
166.8487735007921
 20
105.934281104338
 30
0.0
 10
167.2034417277893
 20
106.5485844933274
 30
0.0
 10
167.5277033524484
 20
107.1102221021819
 30
0.0
 10
167.860738932717
 20
107.6870566479352
 30
0.0
 10
168.0845729410434
 20
108.0747485228183
 30
0.0
 10
168.2209882068049
 20
108.3110266940452
 30
0.0
  0
SPLINE
  5
94
330
1F
100
AcDbEntity
  8
0
  6
Continuous
 62
     7
370
    15
100
AcDbSpline
210
0.0
220
0.0
230
1.0
 70
    24
 71
     3
 72
    12
 73
     8
 74
     0
 42
0.000000001
 43
0.00000001
 40
0.0
 40
0.0
 40
0.0
 40
0.0
 40
0.2161857461389834
 40
0.4397628073511829
 40
0.5934185666353795
 40
0.7522096186328725
 40
1.0
 40
1.0
 40
1.0
 40
1.0
 10
168.2209882068048
 20
102.3110266940452
 30
0.0
 10
168.1023943998839
 20
102.5164371930952
 30
0.0
 10
167.8611521052487
 20
102.934281104338
 30
0.0
 10
167.5064838782515
 20
103.5485844933274
 30
0.0
 10
167.1822222535924
 20
104.1102221021819
 30
0.0
 10
166.8491866733238
 20
104.6870566479352
 30
0.0
 10
166.6253526649975
 20
105.0747485228183
 30
0.0
 10
166.488937399236
 20
105.3110266940452
 30
0.0
  0
CIRCLE
  5
95
330
1F
100
AcDbEntity
  8
0
  6
Continuous
 62
     7
370
    15
100
AcDbCircle
 10
169.9530390144
 20
105.311026694
 30
0.0
 40
3.5
  0
SPLINE
  5
96
330
1F
100
AcDbEntity
  8
0
  6
Continuous
 62
     7
370
    15
100
AcDbSpline
210
0.0
220
0.0
230
1.0
 70
    24
 71
     3
 72
    12
 73
     8
 74
     0
 42
0.000000001
 43
0.00000001
 40
0.0
 40
0.0
 40
0.0
 40
0.0
 40
0.2161857461389838
 40
0.4397628073511842
 40
0.5934185666353791
 40
0.7522096186328715
 40
1.0
 40
1.0
 40
1.0
 40
1.0
 10
173.4171406295115
 20
105.3110266940452
 30
0.0
 10
173.2985468225906
 20
105.1056161949952
 30
0.0
 10
173.0573045279553
 20
104.6877722837524
 30
0.0
 10
172.7026363009582
 20
104.073468894763
 30
0.0
 10
172.378374676299
 20
103.5118312859085
 30
0.0
 10
172.0453390960305
 20
102.9349967401552
 30
0.0
 10
171.8215050877041
 20
102.5473048652721
 30
0.0
 10
171.6850898219426
 20
102.3110266940452
 30
0.0
  0
CIRCLE
  5
97
330
1F
100
AcDbEntity
  8
0
  6
Continuous
 62
     7
370
    15
100
AcDbCircle
 10
169.9530390144
 20
105.311026694
 30
0.0
 40
5.5
  0
CIRCLE
  5
98
330
1F
100
AcDbEntity
  8
0
  6
Continuous
 62
     7
370
    15
100
AcDbCircle
 10
169.9530390144
 20
105.311026694
 30
0.0
 40
6.0
  0
ARC
  5
99
330
1F
100
AcDbEntity
  8
0
  6
Continuous
 62
     7
370
    15
100
AcDbCircle
 10
169.9530390144
 20
105.311026694
 30
0.0
 40
3.0
100
AcDbArc
 50
210.0
 51
270.0
  0
ARC
  5
9A
330
1F
100
AcDbEntity
  8
0
  6
Continuous
 62
     7
370
    15
100
AcDbCircle
 10
169.9530390144
 20
105.311026694
 30
0.0
 40
2.999999999999976
100
AcDbArc
 50
330.0
 51
30.0
  0
ARC
  5
9B
330
1F
100
AcDbEntity
  8
0
  6
Continuous
 62
     7
370
    15
100
AcDbCircle
 10
169.9530390144
 20
105.311026694
 30
0.0
 40
3.0
100
AcDbArc
 50
150.0
 51
210.0
  0
ARC
  5
9C
330
1F
100
AcDbEntity
  8
0
  6
Continuous
 62
     7
370
    15
100
AcDbCircle
 10
169.9530390144
 20
105.311026694
 30
0.0
 40
3.0
100
AcDbArc
 50
30.0
 51
90.0
  0
ARC
  5
9D
330
1F
100
AcDbEntity
  8
0
  6
Continuous
 62
     7
370
    15
100
AcDbCircle
 10
169.9530390144
 20
105.311026694
 30
0.0
 40
3.0
100
AcDbArc
 50
270.0
 51
330.0
  0
ARC
  5
9E
330
1F
100
AcDbEntity
  8
0
  6
Continuous
 62
     7
370
    15
100
AcDbCircle
 10
169.9530390144
 20
105.311026694
 30
0.0
 40
3.0
100
AcDbArc
 50
90.0
 51
150.0
  0
SPLINE
  5
9F
330
1F
100
AcDbEntity
  8
0
  6
Continuous
 62
     7
370
    15
100
AcDbSpline
210
0.0
220
0.0
230
1.0
 70
     8
 71
     3
 72
    14
 73
    10
 74
     0
 42
0.000000001
 43
0.00000001
 40
0.0
 40
0.0
 40
0.0
 40
0.0
 40
0.2500000000000001
 40
0.2500000000000001
 40
0.5000000000000001
 40
0.5000000000000001
 40
0.7500000000000001
 40
0.7500000000000001
 40
1.0
 40
1.0
 40
1.0
 40
1.0
 10
160.4530390143737
 20
105.3110266940452
 30
0.0
 10
160.4530390143737
 20
105.6872354329131
 30
0.0
 10
160.4854513808021
 20
106.0693951502841
 30
0.0
 10
160.6111182865966
 20
106.8106123744155
 30
0.0
 10
160.7040199131176
 20
107.1734719313973
 30
0.0
 10
160.9476464792378
 20
107.8843760041545
 30
0.0
 10
161.0992477614896
 20
108.2329651296765
 30
0.0
 10
161.4483347579293
 20
108.8949126084062
 30
0.0
 10
161.6466470827968
 20
109.2112144136458
 30
0.0
 10
161.8673645239822
 20
109.5138738935011
 30
0.0
  0
SPLINE
  5
A0
330
1F
100
AcDbEntity
  8
0
  6
Continuous
 62
     7
370
    15
100
AcDbSpline
210
0.0
220
0.0
230
1.0
 70
     8
 71
     3
 72
    14
 73
    10
 74
     0
 42
0.000000001
 43
0.00000001
 40
0.0
 40
0.0
 40
0.0
 40
0.0
 40
0.4999999999999993
 40
0.4999999999999993
 40
0.6249999999999994
 40
0.6249999999999994
 40
0.7499999999999997
 40
0.7499999999999997
 40
1.0
 40
1.0
 40
1.0
 40
1.0
 10
161.8673645239822
 20
101.1081794945893
 30
0.0
 10
161.4245683498237
 20
101.715365129911
 30
0.0
 10
161.0731102288441
 20
102.3728034964045
 30
0.0
 10
160.7655219785883
 20
103.2688141915353
 30
0.0
 10
160.7107627786627
 20
103.45206147011
 30
0.0
 10
160.6174277956575
 20
103.8186202442834
 30
0.0
 10
160.5784956737018
 20
104.0028664705619
 30
0.0
 10
160.4848054785394
 20
104.5585001353384
 30
0.0
 10
160.4530390143737
 20
104.9327690840293
 30
0.0
 10
160.4530390143737
 20
105.3110266940452
 30
0.0
  0
SPLINE
  5
A1
330
1F
100
AcDbEntity
  8
0
  6
Continuous
 62
     7
370
    15
100
AcDbSpline
210
0.0
220
0.0
230
1.0
 70
     8
 71
     3
 72
    12
 73
     8
 74
     0
 42
0.000000001
 43
0.00000001
 40
0.0
 40
0.0
 40
0.0
 40
0.0
 40
0.0001599767577976
 40
0.2512944248697292
 40
0.5029658357238095
 40
0.7514776885320058
 40
0.9999999999999999
 40
0.9999999999999999
 40
0.9999999999999999
 40
0.9999999999999999
 10
160.5029372325253
 20
128.3109840966055
 30
0.0
 10
160.5029701268306
 20
128.3109982949621
 30
0.0
 10
160.5546411048705
 20
128.3333013338004
 30
0.0
 10
160.3741877533699
 20
128.2547747833049
 30
0.0
 10
159.9318422993801
 20
128.0709802679955
 30
0.0
 10
159.1877316229737
 20
127.7705361879067
 30
0.0
 10
158.4812748390392
 20
127.5274162754219
 30
0.0
 10
158.1280390143926
 20
127.4058537612986
 30
0.0
  0
SPLINE
  5
A2
330
1F
100
AcDbEntity
  8
0
  6
Continuous
 62
     7
370
    15
100
AcDbSpline
210
0.0
220
0.0
230
1.0
 70
     8
 71
     3
 72
    16
 73
    12
 74
     0
 42
0.000000001
 43
0.00000001
 40
0.0
 40
0.0
 40
0.0
 40
0.0
 40
0.2483169671332734
 40
0.496694446198205
 40
0.581146785348524
 40
0.6649723970263892
 40
0.748461215409542
 40
0.8319066852962653
 40
0.9156027073821126
 40
0.9998405598659155
 40
0.9999999999999999
 40
0.9999999999999999
 40
0.9999999999999999
 40
0.9999999999999999
 10
158.1280390143926
 20
83.21619962679178
 30
0.0
 10
158.4818327278038
 20
83.09442545462865
 30
0.0
 10
159.1895063700034
 20
82.8508474353653
 30
0.0
 10
159.7602324940656
 20
82.62013195886642
 30
0.0
 10
160.0738036127552
 20
82.4921014409654
 30
0.0
 10
160.2297029706805
 20
82.42723485119176
 30
0.0
 10
160.3509328670283
 20
82.37610388073202
 30
0.0
 10
160.439029819236
 20
82.33843559636766
 30
0.0
 10
160.4874759518759
 20
82.31752280282173
 30
0.0
 10
160.5097399822719
 20
82.30801419834656
 30
0.0
 10
160.5030104956968
 20
82.31103811887353
 30
0.0
 10
160.5029977826084
 20
82.31104383154842
 30
0.0
  0
LINE
  5
A3
330
1F
100
AcDbEntity
  8
0
  6
Continuous
 62
     7
370
    15
100
AcDbLine
 10
158.1280390144
 20
83.2161996268
 30
0.0
 11
158.1280390144
 21
127.4058559431
 31
0.0
  0
SPLINE
  5
A4
330
1F
100
AcDbEntity
  8
0
  6
Continuous
 62
     7
370
    15
100
AcDbSpline
210
0.0
220
0.0
230
1.0
 70
     8
 71
     3
 72
    10
 73
     6
 74
     0
 42
0.000000001
 43
0.00000001
 40
0.0
 40
0.0
 40
0.0
 40
0.0
 40
0.5
 40
0.5
 40
1.0
 40
1.0
 40
1.0
 40
1.0
 10
157.4504586226168
 20
126.4665961484794
 30
0.0
 10
157.2252748812524
 20
126.0003612967557
 30
0.0
 10
156.9950946339678
 20
125.5227566006373
 30
0.0
 10
156.5273129240644
 20
124.5493734658352
 30
0.0
 10
156.2892708783129
 20
124.0526749554745
 30
0.0
 10
156.0495780452911
 20
123.5506996917375
 30
0.0
  0
SPLINE
  5
A5
330
1F
100
AcDbEntity
  8
0
  6
Continuous
 62
     7
370
    15
100
AcDbSpline
210
0.0
220
0.0
230
1.0
 70
     8
 71
     3
 72
     9
 73
     5
 74
     0
 42
0.000000001
 43
0.00000001
 40
0.0
 40
0.0
 40
0.0
 40
0.0
 40
0.508485917530151
 40
1.0
 40
1.0
 40
1.0
 40
1.0
 10
158.1280482579107
 20
127.4058713233271
 30
0.0
 10
158.0122277225011
 20
127.2462249769312
 30
0.0
 10
157.7844524166042
 20
126.9322608318248
 30
0.0
 10
157.5605251697583
 20
126.6200492008157
 30
0.0
 10
157.4504617744848
 20
126.4665927874639
 30
0.0
  0
SPLINE
  5
A6
330
1F
100
AcDbEntity
  8
0
  6
Continuous
 62
     7
370
    15
100
AcDbSpline
210
0.0
220
0.0
230
1.0
 70
     8
 71
     3
 72
     9
 73
     5
 74
     0
 42
0.000000001
 43
0.00000001
 40
0.0
 40
0.0
 40
0.0
 40
0.0
 40
0.4915140813385384
 40
1.0
 40
1.0
 40
1.0
 40
1.0
 10
157.4504617744848
 20
84.15546060062644
 30
0.0
 10
157.5605251695078
 20
84.0020041876185
 30
0.0
 10
157.7844524163596
 20
83.68979255659045
 30
0.0
 10
158.0122277222478
 20
83.37582841150419
 30
0.0
 10
158.1280482579107
 20
83.21618206476323
 30
0.0
  0
SPLINE
  5
A7
330
1F
100
AcDbEntity
  8
0
  6
Continuous
 62
     7
370
    15
100
AcDbSpline
210
0.0
220
0.0
230
1.0
 70
     8
 71
     3
 72
    10
 73
     6
 74
     0
 42
0.000000001
 43
0.00000001
 40
0.0
 40
0.0
 40
0.0
 40
0.0
 40
0.5
 40
0.5
 40
1.0
 40
1.0
 40
1.0
 40
1.0
 10
157.4504587035496
 20
84.15545707204248
 30
0.0
 10
157.2255571322414
 20
84.62110770054892
 30
0.0
 10
156.9953696422276
 20
85.09872457455141
 30
0.0
 10
156.5270572070979
 20
86.07321199288873
 30
0.0
 10
156.2889198861257
 20
86.57011349587796
 30
0.0
 10
156.0495780452911
 20
87.07135369635283
 30
0.0
  0
LINE
  5
A8
330
1F
100
AcDbEntity
  8
0
  6
Continuous
 62
     7
370
    15
100
AcDbLine
 10
150.0780390144
 20
126.5742143313
 30
0.0
 11
143.5030390144
 21
126.5742143313
 31
0.0
  0
LINE
  5
A9
330
1F
100
AcDbEntity
  8
0
  6
Continuous
 62
     7
370
    15
100
AcDbLine
 10
150.0780390144
 20
84.0478390568
 30
0.0
 11
150.0780390144
 21
126.5742143313
 31
0.0
  0
LINE
  5
AA
330
1F
100
AcDbEntity
  8
0
  6
Continuous
 62
     7
370
    15
100
AcDbLine
 10
143.5030390144
 20
84.0478390568
 30
0.0
 11
150.0780390144
 21
84.0478390568
 31
0.0
  0
SPLINE
  5
AB
330
1F
100
AcDbEntity
  8
0
  6
Continuous
 62
     7
370
    15
100
AcDbSpline
210
0.0
220
0.0
230
1.0
 70
     8
 71
     3
 72
     8
 73
     4
 74
     0
 42
0.000000001
 43
0.00000001
 40
0.0
 40
0.0
 40
0.0
 40
0.0
 40
0.001149633737632
 40
0.001149633737632
 40
0.001149633737632
 40
0.001149633737632
 10
150.6172690189165
 20
125.8562697885196
 30
0.0
 10
150.4380657677866
 20
126.0957870673863
 30
0.0
 10
150.2582992140588
 20
126.3350939438231
 30
0.0
 10
150.0780390143737
 20
126.5742143312604
 30
0.0
  0
SPLINE
  5
AC
330
1F
100
AcDbEntity
  8
0
  6
Continuous
 62
     7
370
    15
100
AcDbSpline
210
0.0
220
0.0
230
1.0
 70
     8
 71
     3
 72
     8
 73
     4
 74
     0
 42
0.000000001
 43
0.00000001
 40
0.0
 40
0.0
 40
0.0
 40
0.0
 40
1.0
 40
1.0
 40
1.0
 40
1.0
 10
151.4530390143737
 20
124.2930487523315
 30
0.0
 10
151.1757273344995
 20
124.8147740684659
 30
0.0
 10
150.897050592031
 20
125.3358035284666
 30
0.0
 10
150.6172690189165
 20
125.8562697885196
 30
0.0
  0
SPLINE
  5
AD
330
1F
100
AcDbEntity
  8
0
  6
Continuous
 62
     7
370
    15
100
AcDbSpline
210
0.0
220
0.0
230
1.0
 70
     8
 71
     3
 72
     8
 73
     4
 74
     0
 42
0.000000001
 43
0.00000001
 40
0.0
 40
0.0
 40
0.0
 40
0.0
 40
1.0
 40
1.0
 40
1.0
 40
1.0
 10
152.0840548134042
 20
123.1110266940452
 30
0.0
 10
151.8730341776147
 20
123.5044747332309
 30
0.0
 10
151.6627467757069
 20
123.8985112841402
 30
0.0
 10
151.4530390143737
 20
124.2930487523315
 30
0.0
  0
SPLINE
  5
AE
330
1F
100
AcDbEntity
  8
0
  6
Continuous
 62
     7
370
    15
100
AcDbSpline
210
0.0
220
0.0
230
1.0
 70
     8
 71
     3
 72
     8
 73
     4
 74
     0
 42
0.000000001
 43
0.00000001
 40
0.0
 40
0.0
 40
0.0
 40
0.0
 40
1.0
 40
1.0
 40
1.0
 40
1.0
 10
152.1564999834563
 20
122.976030439729
 30
0.0
 10
152.1323417717416
 20
123.0210213553579
 30
0.0
 10
152.108193471416
 20
123.0660201588891
 30
0.0
 10
152.0840548134042
 20
123.1110266940452
 30
0.0
  0
SPLINE
  5
AF
330
1F
100
AcDbEntity
  8
0
  6
Continuous
 62
     7
370
    15
100
AcDbSpline
210
0.0
220
0.0
230
1.0
 70
     8
 71
     3
 72
     8
 73
     4
 74
     0
 42
0.000000001
 43
0.00000001
 40
0.0
 40
0.0
 40
0.0
 40
0.0
 40
1.0
 40
1.0
 40
1.0
 40
1.0
 10
152.1564999834563
 20
87.64602294836139
 30
0.0
 10
152.1323417717417
 20
87.60103203273248
 30
0.0
 10
152.108193471416
 20
87.55603322920128
 30
0.0
 10
152.0840548134042
 20
87.51102669404519
 30
0.0
  0
SPLINE
  5
B0
330
1F
100
AcDbEntity
  8
0
  6
Continuous
 62
     7
370
    15
100
AcDbSpline
210
0.0
220
0.0
230
1.0
 70
     8
 71
     3
 72
     8
 73
     4
 74
     0
 42
0.000000001
 43
0.00000001
 40
0.0
 40
0.0
 40
0.0
 40
0.0
 40
1.0
 40
1.0
 40
1.0
 40
1.0
 10
152.0840548134042
 20
87.51102669404519
 30
0.0
 10
151.8730341776147
 20
87.1175786548595
 30
0.0
 10
151.6627467757069
 20
86.72354210395017
 30
0.0
 10
151.4530390143737
 20
86.32900463575888
 30
0.0
  0
SPLINE
  5
B1
330
1F
100
AcDbEntity
  8
0
  6
Continuous
 62
     7
370
    15
100
AcDbSpline
210
0.0
220
0.0
230
1.0
 70
     8
 71
     3
 72
     8
 73
     4
 74
     0
 42
0.000000001
 43
0.00000001
 40
0.0
 40
0.0
 40
0.0
 40
0.0
 40
1.0
 40
1.0
 40
1.0
 40
1.0
 10
151.4530390143737
 20
86.32900463575889
 30
0.0
 10
151.1757119993641
 20
85.80725046859172
 30
0.0
 10
150.8970319566724
 20
85.28621519302548
 30
0.0
 10
150.6172690189165
 20
84.76578359957072
 30
0.0
  0
SPLINE
  5
B2
330
1F
100
AcDbEntity
  8
0
  6
Continuous
 62
     7
370
    15
100
AcDbSpline
210
0.0
220
0.0
230
1.0
 70
     8
 71
     3
 72
     8
 73
     4
 74
     0
 42
0.000000001
 43
0.00000001
 40
0.0
 40
0.0
 40
0.0
 40
0.0
 40
0.001149633737632
 40
0.001149633737632
 40
0.001149633737632
 40
0.001149633737632
 10
150.0780390143737
 20
84.04783905682996
 30
0.0
 10
150.2582992140588
 20
84.28695944426728
 30
0.0
 10
150.4380657677866
 20
84.52626632070408
 30
0.0
 10
150.6172690189165
 20
84.76578359957072
 30
0.0
  0
SPLINE
  5
B3
330
1F
100
AcDbEntity
  8
0
  6
Continuous
 62
     7
370
    15
100
AcDbSpline
210
0.0
220
0.0
230
1.0
 70
     8
 71
     3
 72
    16
 73
    12
 74
     0
 42
0.000000001
 43
0.00000001
 40
0.0
 40
0.0
 40
0.0
 40
0.0
 40
0.2500000000000036
 40
0.2500000000000036
 40
0.5000000000000072
 40
0.5000000000000072
 40
0.6250000000000053
 40
0.6250000000000053
 40
0.7500000000000034
 40
0.7500000000000034
 40
1.0
 40
1.0
 40
1.0
 40
1.0
 10
161.8673645239822
 20
109.5138738935011
 30
0.0
 10
161.9277557734763
 20
109.5966855827883
 30
0.0
 10
161.9928124667452
 20
109.6743712348873
 30
0.0
 10
162.1366474468195
 20
109.8140275200043
 30
0.0
 10
162.2153730526406
 20
109.8755677117294
 30
0.0
 10
162.3391979503579
 20
109.9390817757199
 30
0.0
 10
162.380541403139
 20
109.9550065305562
 30
0.0
 10
162.4631979009646
 20
109.9741641492336
 30
0.0
 10
162.5047222352554
 20
109.977094167195
 30
0.0
 10
162.6198972648383
 20
109.9630952650712
 30
0.0
 10
162.6859323477545
 20
109.9220172964683
 30
0.0
 10
162.7333899277675
 20
109.8628341011518
 30
0.0
  0
SPLINE
  5
B4
330
1F
100
AcDbEntity
  8
0
  6
Continuous
 62
     7
370
    15
100
AcDbSpline
210
0.0
220
0.0
230
1.0
 70
     8
 71
     3
 72
    20
 73
    16
 74
     0
 42
0.000000001
 43
0.00000001
 40
0.0
 40
0.0
 40
0.0
 40
0.0
 40
0.1249999999999995
 40
0.1249999999999995
 40
0.2499999999999991
 40
0.2499999999999991
 40
0.3749999999999986
 40
0.3749999999999986
 40
0.4999999999999981
 40
0.4999999999999981
 40
0.6249999999999977
 40
0.6249999999999977
 40
0.7499999999999971
 40
0.7499999999999971
 40
1.0
 40
1.0
 40
1.0
 40
1.0
 10
162.7333899277673
 20
109.8628341011516
 30
0.0
 10
162.7992066445439
 20
109.7807556723109
 30
0.0
 10
162.8737958435983
 20
109.7108273951934
 30
0.0
 10
163.0442843677083
 20
109.6011295044547
 30
0.0
 10
163.1410928716689
 20
109.5620018189019
 30
0.0
 10
163.3457857181728
 20
109.5221810495624
 30
0.0
 10
163.4565487152515
 20
109.5206004015204
 30
0.0
 10
163.6839363703749
 20
109.5491679922766
 30
0.0
 10
163.7993316358218
 20
109.578473346475
 30
0.0
 10
164.0339488292848
 20
109.6583787868093
 30
0.0
 10
164.1531008189975
 20
109.7091371187927
 30
0.0
 10
164.3885010394054
 20
109.8224212633503
 30
0.0
 10
164.5058250629706
 20
109.8853424832873
 30
0.0
 10
164.8585955799282
 20
110.0872727528394
 30
0.0
 10
165.0957804292987
 20
110.2396647190295
 30
0.0
 10
165.3314661391199
 20
110.3997153732369
 30
0.0
  0
SPLINE
  5
B5
330
1F
100
AcDbEntity
  8
0
  6
Continuous
 62
     7
370
    15
100
AcDbSpline
210
0.0
220
0.0
230
1.0
 70
     8
 71
     3
 72
    64
 73
    60
 74
     0
 42
0.000000001
 43
0.00000001
 40
0.0
 40
0.0
 40
0.0
 40
0.0
 40
0.0312499999999998
 40
0.0312499999999998
 40
0.0624999999999996
 40
0.0624999999999996
 40
0.0937499999999994
 40
0.0937499999999994
 40
0.1249999999999991
 40
0.1249999999999991
 40
0.1562499999999989
 40
0.1562499999999989
 40
0.1874999999999987
 40
0.1874999999999987
 40
0.2499999999999979
 40
0.2499999999999979
 40
0.2812499999999979
 40
0.2812499999999979
 40
0.3124999999999978
 40
0.3124999999999978
 40
0.3437499999999978
 40
0.3437499999999978
 40
0.3749999999999977
 40
0.3749999999999977
 40
0.4062499999999977
 40
0.4062499999999977
 40
0.4374999999999977
 40
0.4374999999999977
 40
0.4687499999999976
 40
0.4687499999999976
 40
0.4999999999999976
 40
0.4999999999999976
 40
0.5312499999999974
 40
0.5312499999999974
 40
0.5624999999999973
 40
0.5624999999999973
 40
0.5937499999999973
 40
0.5937499999999973
 40
0.6249999999999973
 40
0.6249999999999973
 40
0.6874999999999972
 40
0.6874999999999972
 40
0.7187499999999974
 40
0.7187499999999974
 40
0.7499999999999977
 40
0.7499999999999977
 40
0.781249999999998
 40
0.781249999999998
 40
0.8124999999999982
 40
0.8124999999999982
 40
0.874999999999999
 40
0.874999999999999
 40
0.9062499999999992
 40
0.9062499999999992
 40
0.9374999999999994
 40
0.9374999999999994
 40
0.9687499999999997
 40
0.9687499999999997
 40
1.0
 40
1.0
 40
1.0
 40
1.0
 10
165.3314661391199
 20
110.3997153732369
 30
0.0
 10
165.6050191128876
 20
110.58548112223
 30
0.0
 10
165.8915616977338
 20
110.7535397701409
 30
0.0
 10
166.4787943723307
 20
111.0504095558903
 30
0.0
 10
166.7810154263049
 20
111.1802730431549
 30
0.0
 10
167.4024473039032
 20
111.4039054327572
 30
0.0
 10
167.7238305758482
 20
111.4980793552832
 30
0.0
 10
168.3712782595012
 20
111.6466159868642
 30
0.0
 10
168.6972983915755
 20
111.7013192917848
 30
0.0
 10
169.3538186684657
 20
111.772846936883
 30
0.0
 10
169.6843191726447
 20
111.7896677042594
 30
0.0
 10
170.3498979188475
 20
111.7846951611402
 30
0.0
 10
170.6853719999968
 20
111.7625311711611
 30
0.0
 10
171.6715571663307
 20
111.6393281412465
 30
0.0
 10
172.3114814508496
 20
111.4829574558165
 30
0.0
 10
173.2441999496774
 20
111.1308825113178
 30
0.0
 10
173.5468308747986
 20
110.9948565753021
 30
0.0
 10
174.1271803148169
 20
110.6892741931386
 30
0.0
 10
174.4062979391725
 20
110.5192130325741
 30
0.0
 10
174.9417405169343
 20
110.14285486908
 30
0.0
 10
175.199261326056
 20
109.9354772253006
 30
0.0
 10
175.684020796734
 20
109.4849910764997
 30
0.0
 10
175.9076356482302
 20
109.2455369957078
 30
0.0
 10
176.3167323098352
 20
108.7372917454693
 30
0.0
 10
176.5022366686754
 20
108.4685196981269
 30
0.0
 10
176.831686862718
 20
107.8985734611784
 30
0.0
 10
176.9764041582335
 20
107.5943854946727
 30
0.0
 10
177.208828153354
 20
106.9732920333997
 30
0.0
 10
177.2980933258171
 20
106.654650453053
 30
0.0
 10
177.4199165982229
 20
106.0002287657259
 30
0.0
 10
177.4518178816651
 20
105.6628573418903
 30
0.0
 10
177.4541896779751
 20
104.99866419367
 30
0.0
 10
177.4256037559453
 20
104.668448884764
 30
0.0
 10
177.3089565258198
 20
104.0117693420595
 30
0.0
 10
177.2203559781435
 20
103.6863772735519
 30
0.0
 10
176.9924254586521
 20
103.0644392511239
 30
0.0
 10
176.8526063677795
 20
102.7644966524328
 30
0.0
 10
176.5232386463767
 20
102.1856148397351
 30
0.0
 10
176.3360224000643
 20
101.911190752592
 30
0.0
 10
175.7200336646299
 20
101.1388372983323
 30
0.0
 10
175.2281221869932
 20
100.6827848906093
 30
0.0
 10
174.422657017244
 20
100.1132473650515
 30
0.0
 10
174.1419213450291
 20
99.94120833990505
 30
0.0
 10
173.556340879201
 20
99.63156408298227
 30
0.0
 10
173.2515720944924
 20
99.49438994132971
 30
0.0
 10
172.633596259375
 20
99.26026182598072
 30
0.0
 10
172.3185061384874
 20
99.16224653430184
 30
0.0
 10
171.6762695107977
 20
99.00336907837956
 30
0.0
 10
171.3478576768803
 20
98.94236051451847
 30
0.0
 10
170.3521936405585
 20
98.81774986068052
 30
0.0
 10
169.6902847938094
 20
98.81291511402284
 30
0.0
 10
168.7001580743411
 20
98.92024119896371
 30
0.0
 10
168.3683420259039
 20
98.97597989716363
 30
0.0
 10
167.7204313277947
 20
99.12488630355564
 30
0.0
 10
167.4037082157017
 20
99.21780211401067
 30
0.0
 10
166.7844972962368
 20
99.44042024244392
 30
0.0
 10
166.4820058309555
 20
99.57011137453227
 30
0.0
 10
165.8918054865662
 20
99.86829984036854
 30
0.0
 10
165.6036301186401
 20
100.0375155111599
 30
0.0
 10
165.3314661391162
 20
100.222338014856
 30
0.0
  0
SPLINE
  5
B6
330
1F
100
AcDbEntity
  8
0
  6
Continuous
 62
     7
370
    15
100
AcDbSpline
210
0.0
220
0.0
230
1.0
 70
     8
 71
     3
 72
    20
 73
    16
 74
     0
 42
0.000000001
 43
0.00000001
 40
0.0
 40
0.0
 40
0.0
 40
0.0
 40
0.2500000000000023
 40
0.2500000000000023
 40
0.3750000000000019
 40
0.3750000000000019
 40
0.5000000000000016
 40
0.5000000000000016
 40
0.6250000000000011
 40
0.6250000000000011
 40
0.7500000000000008
 40
0.7500000000000008
 40
0.8750000000000003
 40
0.8750000000000003
 40
1.0
 40
1.0
 40
1.0
 40
1.0
 10
165.3314661391162
 20
100.222338014856
 30
0.0
 10
165.0957601591805
 20
100.382402434196
 30
0.0
 10
164.8625569006519
 20
100.5322361273252
 30
0.0
 10
164.5122674955689
 20
100.7331567333921
 30
0.0
 10
164.3953919545079
 20
100.7960534001721
 30
0.0
 10
164.159956815909
 20
100.9098645069716
 30
0.0
 10
164.0402764654755
 20
100.9611712224826
 30
0.0
 10
163.8047820928813
 20
101.0420550447594
 30
0.0
 10
163.6886162855368
 20
101.0719843677512
 30
0.0
 10
163.4588309473463
 20
101.1014699818884
 30
0.0
 10
163.34968764405
 20
101.1002003801945
 30
0.0
 10
163.1438974974129
 20
101.0610143806452
 30
0.0
 10
163.0464456964192
 20
101.0219925568009
 30
0.0
 10
162.8753141665998
 20
100.9125180738171
 30
0.0
 10
162.7994580482427
 20
100.841611235226
 30
0.0
 10
162.7333899277665
 20
100.7592192869379
 30
0.0
  0
SPLINE
  5
B7
330
1F
100
AcDbEntity
  8
0
  6
Continuous
 62
     7
370
    15
100
AcDbSpline
210
0.0
220
0.0
230
1.0
 70
     8
 71
     3
 72
    14
 73
    10
 74
     0
 42
0.000000001
 43
0.00000001
 40
0.0
 40
0.0
 40
0.0
 40
0.0
 40
0.25
 40
0.25
 40
0.5
 40
0.5
 40
0.75
 40
0.75
 40
1.0
 40
1.0
 40
1.0
 40
1.0
 10
162.7333899277666
 20
100.7592192869378
 30
0.0
 10
162.685485781382
 20
100.6994791895466
 30
0.0
 10
162.6204804573499
 20
100.6592656558312
 30
0.0
 10
162.4675193796082
 20
100.6402034903355
 30
0.0
 10
162.3800217978999
 20
100.6620576165757
 30
0.0
 10
162.2161268794591
 20
100.7460730957867
 30
0.0
 10
162.1373762927661
 20
100.8074637660373
 30
0.0
 10
161.9941737226351
 20
100.9462169844047
 30
0.0
 10
161.9283130637239
 20
101.0246036193113
 30
0.0
 10
161.8673645239822
 20
101.1081794945893
 30
0.0
  0
LINE
  5
B8
330
1F
100
AcDbEntity
  8
0
  6
Continuous
 62
     7
370
    15
100
AcDbLine
 10
142.5030390144
 20
85.2586577567
 30
0.0
 11
142.5030390144
 21
125.3633956314
 31
0.0
  0
SPLINE
  5
B9
330
1F
100
AcDbEntity
  8
0
  6
Continuous
 62
     7
370
    15
100
AcDbSpline
210
0.0
220
0.0
230
1.0
 70
     8
 71
     3
 72
    12
 73
     8
 74
     0
 42
0.000000001
 43
0.00000001
 40
0.0
 40
0.0
 40
0.0
 40
0.0
 40
0.2499999999999997
 40
0.2499999999999997
 40
0.4999999999999994
 40
0.4999999999999994
 40
1.0
 40
1.0
 40
1.0
 40
1.0
 10
142.9257171527098
 20
126.4335916501836
 30
0.0
 10
142.8687548772286
 20
126.3668205405076
 30
0.0
 10
142.8155560169181
 20
126.2945012701614
 30
0.0
 10
142.7175279291266
 20
126.1375239186864
 30
0.0
 10
142.6723002948648
 20
126.0519189879724
 30
0.0
 10
142.5569082454064
 20
125.7811210565869
 30
0.0
 10
142.5030390143737
 20
125.5767094550942
 30
0.0
 10
142.5030390143737
 20
125.3633956314052
 30
0.0
  0
SPLINE
  5
BA
330
1F
100
AcDbEntity
  8
0
  6
Continuous
 62
     7
370
    15
100
AcDbSpline
210
0.0
220
0.0
230
1.0
 70
     8
 71
     3
 72
     8
 73
     4
 74
     0
 42
0.000000001
 43
0.00000001
 40
0.0
 40
0.0
 40
0.0
 40
0.0
 40
1.0
 40
1.0
 40
1.0
 40
1.0
 10
143.5030390143737
 20
126.5742143312604
 30
0.0
 10
143.2938711395238
 20
126.5742143312604
 30
0.0
 10
143.0915770631204
 20
126.5235327927638
 30
0.0
 10
142.9257171527098
 20
126.4335916501836
 30
0.0
  0
SPLINE
  5
BB
330
1F
100
AcDbEntity
  8
0
  6
Continuous
 62
     7
370
    15
100
AcDbSpline
210
0.0
220
0.0
230
1.0
 70
     8
 71
     3
 72
     8
 73
     4
 74
     0
 42
0.000000001
 43
0.00000001
 40
0.0
 40
0.0
 40
0.0
 40
0.0
 40
1.0
 40
1.0
 40
1.0
 40
1.0
 10
142.9257171527098
 20
84.1884617379068
 30
0.0
 10
143.091565964235
 20
84.09852661393849
 30
0.0
 10
143.2938771475482
 20
84.04783905682996
 30
0.0
 10
143.5030390143737
 20
84.04783905682996
 30
0.0
  0
SPLINE
  5
BC
330
1F
100
AcDbEntity
  8
0
  6
Continuous
 62
     7
370
    15
100
AcDbSpline
210
0.0
220
0.0
230
1.0
 70
     8
 71
     3
 72
    12
 73
     8
 74
     0
 42
0.000000001
 43
0.00000001
 40
0.0
 40
0.0
 40
0.0
 40
0.0
 40
0.2499999999999997
 40
0.2499999999999997
 40
0.4999999999999993
 40
0.4999999999999993
 40
1.0
 40
1.0
 40
1.0
 40
1.0
 10
142.9257171527098
 20
84.1884617379068
 30
0.0
 10
142.8687548772286
 20
84.25523284758273
 30
0.0
 10
142.8155560169181
 20
84.3275521179289
 30
0.0
 10
142.7175279291266
 20
84.484529469404
 30
0.0
 10
142.6723002948648
 20
84.57013440011792
 30
0.0
 10
142.5569082454064
 20
84.8409323315035
 30
0.0
 10
142.5030390143737
 20
85.04534393299615
 30
0.0
 10
142.5030390143737
 20
85.2586577566852
 30
0.0
  0
LINE
  5
BD
330
1F
100
AcDbEntity
  8
0
  6
Continuous
 62
     7
370
    15
100
AcDbLine
 10
182.1030390144
 20
84.311026694
 30
0.0
 11
182.1030390144
 21
126.311026694
 31
0.0
  0
LINE
  5
BE
330
1F
100
AcDbEntity
  8
0
  6
Continuous
 62
     7
370
    15
100
AcDbLine
 10
182.5030390144
 20
84.711026694
 30
0.0
 11
182.5030390144
 21
125.911026694
 31
0.0
  0
SPLINE
  5
BF
330
1F
100
AcDbEntity
  8
0
  6
Continuous
 62
     7
370
    15
100
AcDbSpline
210
0.0
220
0.0
230
1.0
 70
     8
 71
     3
 72
    10
 73
     6
 74
     0
 42
0.000000001
 43
0.00000001
 40
0.0
 40
0.0
 40
0.0
 40
0.0
 40
0.5
 40
0.5
 40
1.0
 40
1.0
 40
1.0
 40
1.0
 10
152.8493203064839
 20
122.5779633490137
 30
0.0
 10
152.7087382059136
 20
122.5665952551269
 30
0.0
 10
152.5671199552557
 20
122.5991437786044
 30
0.0
 10
152.3236275618042
 20
122.7420222885215
 30
0.0
 10
152.224117380384
 20
122.8501035442927
 30
0.0
 10
152.1564999834514
 20
122.9760304397257
 30
0.0
  0
SPLINE
  5
C0
330
1F
100
AcDbEntity
  8
0
  6
Continuous
 62
     7
370
    15
100
AcDbSpline
210
0.0
220
0.0
230
1.0
 70
     8
 71
     3
 72
    10
 73
     6
 74
     0
 42
0.000000001
 43
0.00000001
 40
0.0
 40
0.0
 40
0.0
 40
0.0
 40
0.5
 40
0.5
 40
1.0
 40
1.0
 40
1.0
 40
1.0
 10
152.8493203064839
 20
88.04409003907662
 30
0.0
 10
152.7087382059136
 20
88.05545813296347
 30
0.0
 10
152.5671199552557
 20
88.022909609486
 30
0.0
 10
152.3236275618042
 20
87.88003109956885
 30
0.0
 10
152.224117380384
 20
87.77194984379771
 30
0.0
 10
152.1564999834514
 20
87.64602294836469
 30
0.0
  0
SPLINE
  5
C1
330
1F
100
AcDbEntity
  8
0
  6
Continuous
 62
     7
370
    15
100
AcDbSpline
210
0.0
220
0.0
230
1.0
 70
     8
 71
     3
 72
     8
 73
     4
 74
     0
 42
0.000000001
 43
0.00000001
 40
0.0
 40
0.0
 40
0.0
 40
0.0
 40
1.0
 40
1.0
 40
1.0
 40
1.0
 10
155.6869970782539
 20
87.5110266940454
 30
0.0
 10
155.5877853196854
 20
87.58280136780215
 30
0.0
 10
155.4761234016327
 20
87.63705835063281
 30
0.0
 10
155.3567577222644
 20
87.6634625632584
 30
0.0
  0
SPLINE
  5
C2
330
1F
100
AcDbEntity
  8
0
  6
Continuous
 62
     7
370
    15
100
AcDbSpline
210
0.0
220
0.0
230
1.0
 70
     8
 71
     3
 72
     8
 73
     4
 74
     0
 42
0.000000001
 43
0.00000001
 40
0.0
 40
0.0
 40
0.0
 40
0.0
 40
1.0
 40
1.0
 40
1.0
 40
1.0
 10
155.6869970782539
 20
123.111026694045
 30
0.0
 10
155.5877853196854
 20
123.0392520202882
 30
0.0
 10
155.4761234016327
 20
122.9849950374575
 30
0.0
 10
155.3567577222644
 20
122.958590824832
 30
0.0
  0
SPLINE
  5
C3
330
1F
100
AcDbEntity
  8
0
  6
Continuous
 62
     7
370
    15
100
AcDbSpline
210
0.0
220
0.0
230
1.0
 70
     8
 71
     3
 72
    10
 73
     6
 74
     0
 42
0.000000001
 43
0.00000001
 40
0.0
 40
0.0
 40
0.0
 40
0.0
 40
0.5
 40
0.5
 40
1.0
 40
1.0
 40
1.0
 40
1.0
 10
156.0495780452911
 20
123.5506996917375
 30
0.0
 10
156.0062398629836
 20
123.4599389659394
 30
0.0
 10
155.9534898677683
 20
123.3784365252572
 30
0.0
 10
155.831432216742
 20
123.2308586176211
 30
0.0
 10
155.761951801185
 20
123.1652526332132
 30
0.0
 10
155.6869970782539
 20
123.111026694045
 30
0.0
  0
SPLINE
  5
C4
330
1F
100
AcDbEntity
  8
0
  6
Continuous
 62
     7
370
    15
100
AcDbSpline
210
0.0
220
0.0
230
1.0
 70
     8
 71
     3
 72
    10
 73
     6
 74
     0
 42
0.000000001
 43
0.00000001
 40
0.0
 40
0.0
 40
0.0
 40
0.0
 40
0.5
 40
0.5
 40
1.0
 40
1.0
 40
1.0
 40
1.0
 10
156.049578045291
 20
87.07135369635287
 30
0.0
 10
156.0062398629836
 20
87.16211442215096
 30
0.0
 10
155.9534898677683
 20
87.24361686283316
 30
0.0
 10
155.831432216742
 20
87.39119477046928
 30
0.0
 10
155.761951801185
 20
87.45680075487716
 30
0.0
 10
155.6869970782539
 20
87.5110266940454
 30
0.0
  0
SPLINE
  5
C5
330
1F
100
AcDbEntity
  8
0
  6
Continuous
 62
     7
370
    15
100
AcDbSpline
210
0.0
220
0.0
230
1.0
 70
     8
 71
     3
 72
     8
 73
     4
 74
     0
 42
0.000000001
 43
0.00000001
 40
0.0
 40
0.0
 40
0.0
 40
0.0
 40
1.0
 40
1.0
 40
1.0
 40
1.0
 10
155.3567577222635
 20
122.9585908248347
 30
0.0
 10
154.5763284359933
 20
122.7859564384447
 30
0.0
 10
153.7425183707441
 20
122.6501913169618
 30
0.0
 10
152.8493203064839
 20
122.5779633490137
 30
0.0
  0
SPLINE
  5
C6
330
1F
100
AcDbEntity
  8
0
  6
Continuous
 62
     7
370
    15
100
AcDbSpline
210
0.0
220
0.0
230
1.0
 70
     8
 71
     3
 72
     8
 73
     4
 74
     0
 42
0.000000001
 43
0.00000001
 40
0.0
 40
0.0
 40
0.0
 40
0.0
 40
1.0
 40
1.0
 40
1.0
 40
1.0
 10
155.3567577222635
 20
87.66346256325566
 30
0.0
 10
154.5763284359933
 20
87.83609694964571
 30
0.0
 10
153.7425183707441
 20
87.9718620711286
 30
0.0
 10
152.8493203064839
 20
88.04409003907662
 30
0.0
  0
SPLINE
  5
C7
330
1F
100
AcDbEntity
  8
0
  6
Continuous
 62
     7
370
    15
100
AcDbSpline
210
0.0
220
0.0
230
1.0
 70
    24
 71
     3
 72
    14
 73
    10
 74
     0
 42
0.000000001
 43
0.00000001
 40
0.0
 40
0.0
 40
0.0
 40
0.0
 40
0.1008554085653125
 40
0.3254657914915947
 40
0.5501004680571773
 40
0.6999933276220451
 40
0.7749552168431758
 40
0.84989040573469
 40
1.0
 40
1.0
 40
1.0
 40
1.0
 10
142.3889239821065
 20
121.5110266940452
 30
0.0
 10
142.3816097782124
 20
121.5110266940452
 30
0.0
 10
142.3580064514956
 20
121.5110266940452
 30
0.0
 10
142.3175996261261
 20
121.5110266940452
 30
0.0
 10
142.2805591281074
 20
121.5110266940452
 30
0.0
 10
142.2601274571959
 20
121.5110266940452
 30
0.0
 10
142.250314416912
 20
121.5110266940452
 30
0.0
 10
142.2428933271691
 20
121.5110266940452
 30
0.0
 10
142.2416716361181
 20
121.5110266940452
 30
0.0
 10
142.2408567425427
 20
121.5110266940452
 30
0.0
  0
SPLINE
  5
C8
330
1F
100
AcDbEntity
  8
0
  6
Continuous
 62
     7
370
    15
100
AcDbSpline
210
0.0
220
0.0
230
1.0
 70
    24
 71
     3
 72
    12
 73
     8
 74
     0
 42
0.000000001
 43
0.00000001
 40
0.0
 40
0.0
 40
0.0
 40
0.0
 40
0.1914750094933755
 40
0.3830857449705959
 40
0.5749779315234552
 40
0.7669178111544303
 40
1.0
 40
1.0
 40
1.0
 40
1.0
 10
142.2408567425427
 20
89.1110266940452
 30
0.0
 10
142.2422304565888
 20
89.1110266940452
 30
0.0
 10
142.2449788584305
 20
89.1110266940452
 30
0.0
 10
142.2663039990291
 20
89.11102669404518
 30
0.0
 10
142.2974553295888
 20
89.1110266940452
 30
0.0
 10
142.3391460430662
 20
89.11102669404518
 30
0.0
 10
142.3703733411065
 20
89.1110266940452
 30
0.0
 10
142.3874983977067
 20
89.11102669404518
 30
0.0
  0
LINE
  5
C9
330
1F
100
AcDbEntity
  8
0
  6
Continuous
 62
     7
370
    15
100
AcDbLine
 10
140.5030390144
 20
89.436026694
 30
0.0
 11
140.5030390144
 21
121.186026694
 31
0.0
  0
LINE
  5
CA
330
1F
100
AcDbEntity
  8
0
  6
Continuous
 62
     7
370
    15
100
AcDbLine
 10
92.1030390144
 20
96.9267322289
 30
0.0
 11
92.1030390144
 21
113.6953211592
 31
0.0
  0
CIRCLE
  5
CB
330
1F
100
AcDbEntity
  8
0
  6
HIDDEN
 62
     7
370
     0
100
AcDbCircle
 10
169.9530390144
 20
105.311026694
 30
0.0
 40
5.18125784838206
  0
CIRCLE
  5
CC
330
1F
100
AcDbEntity
  8
0
  6
HIDDEN
 62
     7
370
     0
100
AcDbCircle
 10
169.9530390144
 20
105.311026694
 30
0.0
 40
4.172547133356716
  0
CIRCLE
  5
CD
330
1F
100
AcDbEntity
  8
0
  6
HIDDEN
 62
     7
370
     0
100
AcDbCircle
 10
169.9530390144
 20
105.311026694
 30
0.0
 40
3.872547133356719
  0
LINE
  5
CE
330
1F
100
AcDbEntity
  8
0
  6
HIDDEN
 62
     7
370
     0
100
AcDbLine
 10
158.4970876205
 20
83.0864900182
 30
0.0
 11
158.1282183351
 21
83.216254504
 31
0.0
  0
LINE
  5
CF
330
1F
100
AcDbEntity
  8
0
  6
HIDDEN
 62
     7
370
     0
100
AcDbLine
 10
181.9530390144
 20
94.092732822
 30
0.0
 11
181.9530390144
 21
116.5293205661
 31
0.0
  0
LINE
  5
D0
330
1F
100
AcDbEntity
  8
0
  6
HIDDEN
 62
     7
370
     0
100
AcDbLine
 10
178.6530390144
 20
97.2793705759
 30
0.0
 11
178.6530390144
 21
113.3426828122
 31
0.0
  0
LINE
  5
D1
330
1F
100
AcDbEntity
  8
0
  6
HIDDEN
 62
     7
370
     0
100
AcDbLine
 10
177.6530390144
 20
93.311026694
 30
0.0
 11
177.6530390144
 21
117.311026694
 31
0.0
  0
SPLINE
  5
D2
330
1F
100
AcDbEntity
  8
0
  6
HIDDEN
 62
     7
370
     0
100
AcDbSpline
210
0.0
220
0.0
230
1.0
 70
     8
 71
     3
 72
    12
 73
     8
 74
     0
 42
0.000000001
 43
0.00000001
 40
0.0
 40
0.0
 40
0.0
 40
0.0
 40
0.5
 40
0.5
 40
0.75
 40
0.75
 40
1.0
 40
1.0
 40
1.0
 40
1.0
 10
182.5030390143737
 20
121.185620320646
 30
0.0
 10
182.4461311028721
 20
121.2852063690177
 30
0.0
 10
182.3717587165634
 20
121.3243530515471
 30
0.0
 10
182.2336863828605
 20
121.2985493891481
 30
0.0
 10
182.1828644098241
 20
121.2753885161406
 30
0.0
 10
182.0737713476847
 20
121.2012940116602
 30
0.0
 10
182.0154078336469
 20
121.1504879516379
 30
0.0
 10
181.9530390143737
 20
121.0861630065459
 30
0.0
  0
LINE
  5
D3
330
1F
100
AcDbEntity
  8
0
  6
HIDDEN
 62
     7
370
     0
100
AcDbLine
 10
181.9530390144
 20
121.0861630065
 30
0.0
 11
181.9530390144
 21
120.9300824495
 31
0.0
  0
LINE
  5
D4
330
1F
100
AcDbEntity
  8
0
  6
HIDDEN
 62
     7
370
     0
100
AcDbLine
 10
178.6530390144
 20
120.9300824495
 30
0.0
 11
181.9530390144
 21
120.9300824495
 31
0.0
  0
LINE
  5
D5
330
1F
100
AcDbEntity
  8
0
  6
HIDDEN
 62
     7
370
     0
100
AcDbLine
 10
178.6530390144
 20
121.311026694
 30
0.0
 11
178.6530390144
 21
116.111026694
 31
0.0
  0
SPLINE
  5
D6
330
1F
100
AcDbEntity
  8
0
  6
HIDDEN
 62
     7
370
     0
100
AcDbSpline
210
0.0
220
0.0
230
1.0
 70
     8
 71
     3
 72
    12
 73
     8
 74
     0
 42
0.000000001
 43
0.00000001
 40
0.0
 40
0.0
 40
0.0
 40
0.0
 40
0.4999999999999991
 40
0.4999999999999991
 40
0.7499999999999996
 40
0.7499999999999996
 40
1.0
 40
1.0
 40
1.0
 40
1.0
 10
181.9530390143738
 20
116.5293205660693
 30
0.0
 10
182.0773968496942
 20
116.9688105078926
 30
0.0
 10
182.1855628051022
 20
117.4011770382539
 30
0.0
 10
182.3250524610656
 20
118.0376872862278
 30
0.0
 10
182.3674028674097
 20
118.2467013794782
 30
0.0
 10
182.4421407868589
 20
118.6480784722523
 30
0.0
 10
182.4748670213732
 20
118.8419559049885
 30
0.0
 10
182.5030390143737
 20
119.0288918677081
 30
0.0
  0
LINE
  5
D7
330
1F
100
AcDbEntity
  8
0
  6
HIDDEN
 62
     7
370
     0
100
AcDbLine
 10
178.6530390144
 20
113.3426828122
 30
0.0
 11
181.9530390144
 21
113.3426828122
 31
0.0
  0
LINE
  5
D8
330
1F
100
AcDbEntity
  8
0
  6
HIDDEN
 62
     7
370
     0
100
AcDbLine
 10
178.6530390144
 20
116.111026694
 30
0.0
 11
178.6530390144
 21
113.3426828122
 31
0.0
  0
LINE
  5
D9
330
1F
100
AcDbEntity
  8
0
  6
HIDDEN
 62
     7
370
     0
100
AcDbLine
 10
181.9530390144
 20
97.2793705759
 30
0.0
 11
178.6530390144
 21
97.2793705759
 31
0.0
  0
LINE
  5
DA
330
1F
100
AcDbEntity
  8
0
  6
HIDDEN
 62
     7
370
     0
100
AcDbLine
 10
178.6530390144
 20
97.2793705759
 30
0.0
 11
178.6530390144
 21
94.511026694
 31
0.0
  0
LINE
  5
DB
330
1F
100
AcDbEntity
  8
0
  6
HIDDEN
 62
     7
370
     0
100
AcDbLine
 10
178.6530390144
 20
89.6919709386
 30
0.0
 11
181.9530390144
 21
89.6919709386
 31
0.0
  0
LINE
  5
DC
330
1F
100
AcDbEntity
  8
0
  6
HIDDEN
 62
     7
370
     0
100
AcDbLine
 10
181.9530390144
 20
89.6919709386
 30
0.0
 11
181.9530390144
 21
89.5358903815
 31
0.0
  0
SPLINE
  5
DD
330
1F
100
AcDbEntity
  8
0
  6
HIDDEN
 62
     7
370
     0
100
AcDbSpline
210
0.0
220
0.0
230
1.0
 70
     8
 71
     3
 72
    12
 73
     8
 74
     0
 42
0.000000001
 43
0.00000001
 40
0.0
 40
0.0
 40
0.0
 40
0.0
 40
0.2499999999999997
 40
0.2499999999999997
 40
0.4999999999999993
 40
0.4999999999999993
 40
1.0
 40
1.0
 40
1.0
 40
1.0
 10
181.9530390143737
 20
89.53589038154449
 30
0.0
 10
182.0149233117907
 20
89.47206515477578
 30
0.0
 10
182.0729478764803
 20
89.42146307426918
 30
0.0
 10
182.1815879409335
 20
89.347390190466
 30
0.0
 10
182.2324519157502
 20
89.32387583584115
 30
0.0
 10
182.3720981110009
 20
89.29735784747511
 30
0.0
 10
182.4464319493707
 20
89.33737348566001
 30
0.0
 10
182.5030390143737
 20
89.43643306744441
 30
0.0
  0
LINE
  5
DE
330
1F
100
AcDbEntity
  8
0
  6
HIDDEN
 62
     7
370
     0
100
AcDbLine
 10
178.6530390144
 20
94.511026694
 30
0.0
 11
178.6530390144
 21
89.311026694
 31
0.0
  0
SPLINE
  5
DF
330
1F
100
AcDbEntity
  8
0
  6
HIDDEN
 62
     7
370
     0
100
AcDbSpline
210
0.0
220
0.0
230
1.0
 70
     8
 71
     3
 72
    12
 73
     8
 74
     0
 42
0.000000001
 43
0.00000001
 40
0.0
 40
0.0
 40
0.0
 40
0.0
 40
0.5000000000000009
 40
0.5000000000000009
 40
0.7500000000000004
 40
0.7500000000000004
 40
1.0
 40
1.0
 40
1.0
 40
1.0
 10
182.5030390143737
 20
91.59316152038227
 30
0.0
 10
182.4461311028721
 20
91.97077538755588
 30
0.0
 10
182.3717587165634
 20
92.37072395786171
 30
0.0
 10
182.2336863828605
 20
93.00153469272504
 30
0.0
 10
182.1828644098241
 20
93.21819819235225
 30
0.0
 10
182.0737713476847
 20
93.65329146616723
 30
0.0
 10
182.0154078336469
 20
93.87231672452853
 30
0.0
 10
181.9530390143737
 20
94.09273282202103
 30
0.0
  0
LINE
  5
E0
330
1F
100
AcDbEntity
  8
0
  6
HIDDEN
 62
     7
370
     0
100
AcDbLine
 10
157.5030390144
 20
93.611026694
 30
0.0
 11
157.5030390144
 21
117.0110266843
 31
0.0
  0
LINE
  5
E1
330
1F
100
AcDbEntity
  8
0
  6
HIDDEN
 62
     7
370
     0
100
AcDbLine
 10
160.0030390144
 20
93.311026694
 30
0.0
 11
160.0030390144
 21
117.311026694
 31
0.0
  0
ELLIPSE
  5
E2
330
1F
100
AcDbEntity
  8
0
  6
HIDDEN
 62
     7
370
     0
100
AcDbEllipse
 10
142.8402973146
 20
87.511026694
 30
0.0
 11
0.0
 21
1.600000000000009
 31
0.0
210
0.0
220
0.0
230
1.0
 40
0.4142135624
 41
4.712388980384695
 42
6.283185307179586
  0
LINE
  5
E3
330
1F
100
AcDbEntity
  8
0
  6
HIDDEN
 62
     7
370
     0
100
AcDbLine
 10
142.8402973146
 20
89.111026694
 30
0.0
 11
142.5030390144
 21
89.111026694
 31
0.0
  0
LINE
  5
E4
330
1F
100
AcDbEntity
  8
0
  6
HIDDEN
 62
     7
370
     0
100
AcDbLine
 10
142.5030390144
 20
121.511026694
 30
0.0
 11
142.8402973146
 21
121.511026694
 31
0.0
  0
ELLIPSE
  5
E5
330
1F
100
AcDbEntity
  8
0
  6
HIDDEN
 62
     7
370
     0
100
AcDbEllipse
 10
142.8402973146
 20
123.111026694
 30
0.0
 11
0.0
 21
1.600000000000009
 31
0.0
210
0.0
220
0.0
230
1.0
 40
0.4142135624
 41
3.14159265358975
 42
4.712388980384695
  0
LINE
  5
E6
330
1F
100
AcDbEntity
  8
0
  6
HIDDEN
 62
     7
370
     0
100
AcDbLine
 10
142.9257171527
 20
126.4335916502
 30
0.0
 11
143.5030390144
 21
125.8562697885
 31
0.0
  0
LINE
  5
E7
330
1F
100
AcDbEntity
  8
0
  6
HIDDEN
 62
     7
370
     0
100
AcDbLine
 10
143.5030390144
 20
84.7657835996
 30
0.0
 11
142.9257171527
 21
84.1884617379
 31
0.0
  0
LINE
  5
E8
330
1F
100
AcDbEntity
  8
0
  6
HIDDEN
 62
     7
370
     0
100
AcDbLine
 10
181.9530390144
 20
88.4905055003
 30
0.0
 11
181.9530390144
 21
89.5358903815
 31
0.0
  0
LINE
  5
E9
330
1F
100
AcDbEntity
  8
0
  6
HIDDEN
 62
     7
370
     0
100
AcDbLine
 10
181.9530390144
 20
121.0861630065
 30
0.0
 11
181.9530390144
 21
122.1315478878
 31
0.0
  0
LINE
  5
EA
330
1F
100
AcDbEntity
  8
0
  6
HIDDEN
 62
     7
370
     0
100
AcDbLine
 10
150.6172690189
 20
84.7657835996
 30
0.0
 11
143.5030390144
 21
84.7657835996
 31
0.0
  0
LINE
  5
EB
330
1F
100
AcDbEntity
  8
0
  6
HIDDEN
 62
     7
370
     0
100
AcDbLine
 10
143.5030390144
 20
84.7657835996
 30
0.0
 11
143.5030390144
 21
87.511026694
 31
0.0
  0
SPLINE
  5
EC
330
1F
100
AcDbEntity
  8
0
  6
HIDDEN
 62
     7
370
     0
100
AcDbSpline
210
0.0
220
0.0
230
1.0
 70
    24
 71
     3
 72
    12
 73
     8
 74
     0
 42
0.000000001
 43
0.00000001
 40
0.0
 40
0.0
 40
0.0
 40
0.0
 40
0.4999999999999907
 40
0.4999999999999907
 40
0.7499999999999953
 40
0.7499999999999953
 40
1.0
 40
1.0
 40
1.0
 40
1.0
 10
152.2683996484119
 20
121.5110266940452
 30
0.0
 10
152.3146807924738
 20
121.5110266940452
 30
0.0
 10
152.3608539824403
 20
121.5110266940452
 30
0.0
 10
152.4300692410292
 20
121.5110266940452
 30
0.0
 10
152.4531324046135
 20
121.5110266940452
 30
0.0
 10
152.4993283452671
 20
121.5110266940452
 30
0.0
 10
152.5223078371374
 20
121.5110266940452
 30
0.0
 10
152.5459483469423
 20
121.5110266940452
 30
0.0
  0
SPLINE
  5
ED
330
1F
100
AcDbEntity
  8
0
  6
HIDDEN
 62
     7
370
     0
100
AcDbSpline
210
0.0
220
0.0
230
1.0
 70
    24
 71
     3
 72
    12
 73
     8
 74
     0
 42
0.000000001
 43
0.00000001
 40
0.0
 40
0.0
 40
0.0
 40
0.0
 40
0.2499999999999953
 40
0.2499999999999953
 40
0.4999999999999907
 40
0.4999999999999907
 40
1.0
 40
1.0
 40
1.0
 40
1.0
 10
152.5459483469423
 20
89.1110266940452
 30
0.0
 10
152.5223078371374
 20
89.1110266940452
 30
0.0
 10
152.4993283452671
 20
89.1110266940452
 30
0.0
 10
152.4531324046135
 20
89.11102669404518
 30
0.0
 10
152.4300692410292
 20
89.1110266940452
 30
0.0
 10
152.3608539824403
 20
89.11102669404518
 30
0.0
 10
152.3146807924738
 20
89.1110266940452
 30
0.0
 10
152.2683996484119
 20
89.1110266940452
 30
0.0
  0
LINE
  5
EE
330
1F
100
AcDbEntity
  8
0
  6
HIDDEN
 62
     7
370
     0
100
AcDbLine
 10
151.4530390144
 20
89.111026694
 30
0.0
 11
142.8402973146
 21
89.111026694
 31
0.0
  0
LINE
  5
EF
330
1F
100
AcDbEntity
  8
0
  6
HIDDEN
 62
     7
370
     0
100
AcDbLine
 10
151.9586355242
 20
89.111026694
 30
0.0
 11
151.4530390144
 21
89.111026694
 31
0.0
  0
LINE
  5
F0
330
1F
100
AcDbEntity
  8
0
  6
HIDDEN
 62
     7
370
     0
100
AcDbLine
 10
151.4530390144
 20
121.511026694
 30
0.0
 11
151.9586355242
 21
121.511026694
 31
0.0
  0
LINE
  5
F1
330
1F
100
AcDbEntity
  8
0
  6
HIDDEN
 62
     7
370
     0
100
AcDbLine
 10
143.5030390144
 20
125.8562697885
 30
0.0
 11
150.6172690189
 21
125.8562697885
 31
0.0
  0
LINE
  5
F2
330
1F
100
AcDbEntity
  8
0
  6
HIDDEN
 62
     7
370
     0
100
AcDbLine
 10
143.5030390144
 20
125.8562697885
 30
0.0
 11
143.5030390144
 21
123.111026694
 31
0.0
  0
LINE
  5
F3
330
1F
100
AcDbEntity
  8
0
  6
HIDDEN
 62
     7
370
     0
100
AcDbLine
 10
142.8402973146
 20
121.511026694
 30
0.0
 11
151.4530390144
 21
121.511026694
 31
0.0
  0
SPLINE
  5
F4
330
1F
100
AcDbEntity
  8
0
  6
HIDDEN
 62
     7
370
     0
100
AcDbSpline
210
0.0
220
0.0
230
1.0
 70
    24
 71
     3
 72
     8
 73
     4
 74
     0
 42
0.000000001
 43
0.00000001
 40
0.0
 40
0.0
 40
0.0
 40
0.0
 40
1.0
 40
1.0
 40
1.0
 40
1.0
 10
152.2683996484119
 20
89.1110266940452
 30
0.0
 10
152.1651123138473
 20
89.1110266940452
 30
0.0
 10
152.0618577143616
 20
89.1110266940452
 30
0.0
 10
151.9586355241559
 20
89.1110266940452
 30
0.0
  0
SPLINE
  5
F5
330
1F
100
AcDbEntity
  8
0
  6
HIDDEN
 62
     7
370
     0
100
AcDbSpline
210
0.0
220
0.0
230
1.0
 70
    24
 71
     3
 72
     8
 73
     4
 74
     0
 42
0.000000001
 43
0.00000001
 40
0.0
 40
0.0
 40
0.0
 40
0.0
 40
1.0
 40
1.0
 40
1.0
 40
1.0
 10
151.9586355241559
 20
121.5110266940452
 30
0.0
 10
152.0618577143616
 20
121.5110266940452
 30
0.0
 10
152.1651123138472
 20
121.5110266940452
 30
0.0
 10
152.2683996484119
 20
121.5110266940452
 30
0.0
  0
SPLINE
  5
F6
330
1F
100
AcDbEntity
  8
0
  6
HIDDEN
 62
     7
370
     0
100
AcDbSpline
210
0.0
220
0.0
230
1.0
 70
    24
 71
     3
 72
    11
 73
     7
 74
     0
 42
0.000000001
 43
0.00000001
 40
0.0
 40
0.0
 40
0.0
 40
0.0
 40
0.0000172284261762
 40
0.0000172284261762
 40
0.0000172284261762
 40
0.0003364215432166
 40
0.0003364215432166
 40
0.0003364215432166
 40
0.0003364215432166
 10
154.8454650407123
 20
89.1110266940452
 30
0.0
 10
154.8405807196577
 20
89.1110266940452
 30
0.0
 10
154.8356988771961
 20
89.1110266940452
 30
0.0
 10
154.8308191176305
 20
89.1110266940452
 30
0.0
 10
154.7404124040949
 20
89.1110266940452
 30
0.0
 10
154.6508128430037
 20
89.1110266940452
 30
0.0
 10
154.5587351012952
 20
89.1110266940452
 30
0.0
  0
SPLINE
  5
F7
330
1F
100
AcDbEntity
  8
0
  6
HIDDEN
 62
     7
370
     0
100
AcDbSpline
210
0.0
220
0.0
230
1.0
 70
    24
 71
     3
 72
     8
 73
     4
 74
     0
 42
0.000000001
 43
0.00000001
 40
0.0000000000000044
 40
0.0000000000000044
 40
0.0000000000000044
 40
0.0000000000000044
 40
0.0003364172281863
 40
0.0003364172281863
 40
0.0003364172281863
 40
0.0003364172281863
 10
154.5587351012952
 20
121.5110266940452
 30
0.0
 10
154.6557827512524
 20
121.5110266940452
 30
0.0
 10
154.7500895412929
 20
121.5110266940452
 30
0.0
 10
154.8454650407123
 20
121.5110266940452
 30
0.0
  0
SPLINE
  5
F8
330
1F
100
AcDbEntity
  8
0
  6
HIDDEN
 62
     7
370
     0
100
AcDbSpline
210
0.0
220
0.0
230
1.0
 70
     8
 71
     3
 72
    18
 73
    14
 74
     0
 42
0.000000001
 43
0.00000001
 40
0.0
 40
0.0
 40
0.0
 40
0.0
 40
0.1460838096918961
 40
0.278130599249695
 40
0.3961757258599856
 40
0.5002703092959755
 40
0.5869262499628183
 40
0.6721524275985051
 40
0.7559997285044003
 40
0.8385215906750008
 40
0.919774068126477
 40
0.999815882648149
 40
1.0
 40
1.0
 40
1.0
 40
1.0
 10
157.4504565276903
 20
126.4665987061895
 30
0.0
 10
157.6324017480617
 20
126.5329994206082
 30
0.0
 10
157.9788092882213
 20
126.6594204834956
 30
0.0
 10
158.395573958502
 20
126.8254474500865
 30
0.0
 10
158.7192187172714
 20
126.9617410487595
 30
0.0
 10
158.9577885104048
 20
127.0659405700788
 30
0.0
 10
159.1368007898743
 20
127.1439565884883
 30
0.0
 10
159.2729397501907
 20
127.2045136184333
 30
0.0
 10
159.3769208956954
 20
127.2515259484489
 30
0.0
 10
159.4510535250116
 20
127.2858250170799
 30
0.0
 10
159.4908710376451
 20
127.3047258678861
 30
0.0
 10
159.5086106857654
 20
127.31360099721
 30
0.0
 10
159.5030133238863
 20
127.3110138358355
 30
0.0
 10
159.5030004780218
 20
127.3110078983376
 30
0.0
  0
SPLINE
  5
F9
330
1F
100
AcDbEntity
  8
0
  6
HIDDEN
 62
     7
370
     0
100
AcDbSpline
210
0.0
220
0.0
230
1.0
 70
     8
 71
     3
 72
    14
 73
    10
 74
     0
 42
0.000000001
 43
0.00000001
 40
0.0
 40
0.0
 40
0.0
 40
0.0
 40
0.0001837459954045
 40
0.1206873855942913
 40
0.244022104966844
 40
0.3703795474084404
 40
0.4999379337759426
 40
0.7219783401294918
 40
1.0
 40
1.0
 40
1.0
 40
1.0
 10
159.5029414095266
 20
83.31107297614594
 30
0.0
 10
159.5029739563905
 20
83.31105787131115
 30
0.0
 10
159.5243512707631
 20
83.3011367679079
 30
0.0
 10
159.4712717413399
 20
83.32684352808062
 30
0.0
 10
159.3855265276088
 20
83.36667616529732
 30
0.0
 10
159.2137310780134
 20
83.44440452055355
 30
0.0
 10
158.9171103711435
 20
83.57366766117924
 30
0.0
 10
158.3907409528393
 20
83.80570222894248
 30
0.0
 10
157.7864350706967
 20
84.030482581529
 30
0.0
 10
157.4504565276901
 20
84.15545468190099
 30
0.0
  0
LINE
  5
FA
330
1F
100
AcDbEntity
  8
0
  6
HIDDEN
 62
     7
370
     0
100
AcDbLine
 10
157.9030390144
 20
89.111026694
 30
0.0
 11
154.8454650407
 21
89.111026694
 31
0.0
  0
LINE
  5
FB
330
1F
100
AcDbEntity
  8
0
  6
HIDDEN
 62
     7
370
     0
100
AcDbLine
 10
154.8454650407
 20
121.511026694
 30
0.0
 11
157.9030390144
 21
121.511026694
 31
0.0
  0
SPLINE
  5
FC
330
1F
100
AcDbEntity
  8
0
  6
HIDDEN
 62
     7
370
     0
100
AcDbSpline
210
0.0
220
0.0
230
1.0
 70
    24
 71
     3
 72
    10
 73
     6
 74
     0
 42
0.000000001
 43
0.00000001
 40
0.0
 40
0.0
 40
0.0
 40
0.0
 40
0.5
 40
0.5
 40
1.0
 40
1.0
 40
1.0
 40
1.0
 10
152.5459483469424
 20
121.5110266940452
 30
0.0
 10
152.9021181504034
 20
121.5110266940452
 30
0.0
 10
153.2504572453327
 20
121.5110266940452
 30
0.0
 10
153.9207377705745
 20
121.5110266940452
 30
0.0
 10
154.2445530037263
 20
121.5110266940452
 30
0.0
 10
154.5587351012913
 20
121.5110266940452
 30
0.0
  0
SPLINE
  5
FD
330
1F
100
AcDbEntity
  8
0
  6
HIDDEN
 62
     7
370
     0
100
AcDbSpline
210
0.0
220
0.0
230
1.0
 70
    24
 71
     3
 72
    10
 73
     6
 74
     0
 42
0.000000001
 43
0.00000001
 40
0.0
 40
0.0
 40
0.0
 40
0.0
 40
0.5
 40
0.5
 40
1.0
 40
1.0
 40
1.0
 40
1.0
 10
154.5587351012913
 20
89.1110266940452
 30
0.0
 10
154.2445530037263
 20
89.1110266940452
 30
0.0
 10
153.9207377705745
 20
89.1110266940452
 30
0.0
 10
153.2504572453327
 20
89.1110266940452
 30
0.0
 10
152.9021181504034
 20
89.1110266940452
 30
0.0
 10
152.5459483469424
 20
89.1110266940452
 30
0.0
  0
LINE
  5
FE
330
1F
100
AcDbEntity
  8
0
  6
HIDDEN
 62
     7
370
     0
100
AcDbLine
 10
97.1030390144
 20
99.061026694
 30
0.0
 11
97.1030390144
 21
111.561026694
 31
0.0
  0
SPLINE
  5
FF
330
1F
100
AcDbEntity
  8
0
  6
HIDDEN
 62
     7
370
     0
100
AcDbSpline
210
0.0
220
0.0
230
1.0
 70
     8
 71
     3
 72
     9
 73
     5
 74
     0
 42
0.000000001
 43
0.00000001
 40
0.0
 40
0.0
 40
0.0
 40
0.0
 40
0.508496891989613
 40
1.0
 40
1.0
 40
1.0
 40
1.0
 10
158.1280703415326
 20
83.21624726205609
 30
0.0
 10
158.0122415879102
 20
83.37589767107588
 30
0.0
 10
157.78445503612
 20
83.68986302963515
 30
0.0
 10
157.5605210760927
 20
84.00206764250204
 30
0.0
 10
157.4504568387502
 20
84.1555171800613
 30
0.0
  0
SPLINE
  5
100
330
1F
100
AcDbEntity
  8
0
  6
HIDDEN
 62
     7
370
     0
100
AcDbSpline
210
0.0
220
0.0
230
1.0
 70
     8
 71
     3
 72
     9
 73
     5
 74
     0
 42
0.000000001
 43
0.00000001
 40
0.0
 40
0.0
 40
0.0
 40
0.0
 40
0.4915031080748115
 40
1.0
 40
1.0
 40
1.0
 40
1.0
 10
157.4504568387502
 20
126.4665362080291
 30
0.0
 10
157.560521076109
 20
126.6199857456133
 30
0.0
 10
157.7844550361401
 20
126.93219035849
 30
0.0
 10
158.0122415879268
 20
127.2461557170396
 30
0.0
 10
158.1280703415326
 20
127.4058061260343
 30
0.0
  0
LINE
  5
101
330
1F
100
AcDbEntity
  8
0
  6
HIDDEN
 62
     7
370
     0
100
AcDbLine
 10
99.925763148
 20
100.211026694
 30
0.0
 11
99.925763148
 21
110.411026694
 31
0.0
  0
LINE
  5
102
330
1F
100
AcDbEntity
  8
0
  6
HIDDEN
 62
     7
370
     0
100
AcDbLine
 10
178.6530390144
 20
121.836026694
 30
0.0
 11
178.6530390144
 21
121.311026694
 31
0.0
  0
LINE
  5
103
330
1F
100
AcDbEntity
  8
0
  6
HIDDEN
 62
     7
370
     0
100
AcDbLine
 10
178.6530390144
 20
89.311026694
 30
0.0
 11
178.6530390144
 21
88.786026694
 31
0.0
  0
LINE
  5
104
330
1F
100
AcDbEntity
  8
0
  6
HIDDEN
 62
     7
370
     0
100
AcDbLine
 10
126.1030390144
 20
100.211026694
 30
0.0
 11
126.1030390144
 21
110.411026694
 31
0.0
  0
LINE
  5
105
330
1F
100
AcDbEntity
  8
0
  6
HIDDEN
 62
     7
370
     0
100
AcDbLine
 10
126.6137705405
 20
101.061026694
 30
0.0
 11
126.6137705405
 21
109.561026694
 31
0.0
  0
LINE
  5
106
330
1F
100
AcDbEntity
  8
0
  6
HIDDEN
 62
     7
370
     0
100
AcDbLine
 10
178.6530390144
 20
117.8883769632
 30
0.0
 11
177.6530390144
 21
117.311026694
 31
0.0
  0
LINE
  5
107
330
1F
100
AcDbEntity
  8
0
  6
HIDDEN
 62
     7
370
     0
100
AcDbLine
 10
177.6530390144
 20
93.311026694
 30
0.0
 11
178.6530390144
 21
92.7336764249
 31
0.0
  0
LINE
  5
108
330
1F
100
AcDbEntity
  8
0
  6
HIDDEN
 62
     7
370
     0
100
AcDbLine
 10
182.3187334941
 20
121.311026694
 30
0.0
 11
178.6530390144
 21
121.311026694
 31
0.0
  0
LINE
  5
109
330
1F
100
AcDbEntity
  8
0
  6
HIDDEN
 62
     7
370
     0
100
AcDbLine
 10
178.6530390144
 20
89.311026694
 30
0.0
 11
182.3092421135
 21
89.311026694
 31
0.0
  0
ARC
  5
10A
330
1F
100
AcDbEntity
  8
0
  6
HIDDEN
 62
     7
370
     0
100
AcDbCircle
 10
158.1030390144
 20
93.611026694
 30
0.0
 40
0.5999999999999943
100
AcDbArc
 50
180.0
 51
270.0
  0
ARC
  5
10B
330
1F
100
AcDbEntity
  8
0
  6
HIDDEN
 62
     7
370
     0
100
AcDbCircle
 10
158.1030390144
 20
117.011026694
 30
0.0
 40
0.6000000000000085
100
AcDbArc
 50
90.0
 51
180.0
  0
LINE
  5
10C
330
1F
100
AcDbEntity
  8
0
  6
HIDDEN
 62
     7
370
     0
100
AcDbLine
 10
158.1030390144
 20
93.011026694
 30
0.0
 11
158.8044322736
 21
93.011026694
 31
0.0
  0
LINE
  5
10D
330
1F
100
AcDbEntity
  8
0
  6
HIDDEN
 62
     7
370
     0
100
AcDbLine
 10
158.8044322736
 20
117.611026694
 30
0.0
 11
158.1030390144
 21
117.611026694
 31
0.0
  0
ARC
  5
10E
330
1F
100
AcDbEntity
  8
0
  6
HIDDEN
 62
     7
370
     0
100
AcDbCircle
 10
158.8044322736
 20
93.611026694
 30
0.0
 40
0.6000000000000071
100
AcDbArc
 50
270.0
 51
285.0
  0
ARC
  5
10F
330
1F
100
AcDbEntity
  8
0
  6
HIDDEN
 62
     7
370
     0
100
AcDbCircle
 10
158.8044322736
 20
117.011026694
 30
0.0
 40
0.6000000000000085
100
AcDbArc
 50
75.0
 51
90.0
  0
LINE
  5
110
330
1F
100
AcDbEntity
  8
0
  6
HIDDEN
 62
     7
370
     0
100
AcDbLine
 10
158.9597237006
 20
93.0314711983
 30
0.0
 11
160.0030390144
 21
93.311026694
 31
0.0
  0
LINE
  5
111
330
1F
100
AcDbEntity
  8
0
  6
HIDDEN
 62
     7
370
     0
100
AcDbLine
 10
160.0030390144
 20
117.311026694
 30
0.0
 11
158.9597237006
 21
117.5905821898
 31
0.0
  0
LINE
  5
112
330
1F
100
AcDbEntity
  8
0
  6
HIDDEN
 62
     7
370
     0
100
AcDbLine
 10
160.0030390144
 20
93.311026694
 30
0.0
 11
177.6530390144
 21
93.311026694
 31
0.0
  0
LINE
  5
113
330
1F
100
AcDbEntity
  8
0
  6
HIDDEN
 62
     7
370
     0
100
AcDbLine
 10
177.6530390144
 20
117.311026694
 30
0.0
 11
160.0030390144
 21
117.311026694
 31
0.0
  0
LINE
  5
114
330
1F
100
AcDbEntity
  8
0
  6
HIDDEN
 62
     7
370
     0
100
AcDbLine
 10
181.9530390144
 20
88.4905055003
 30
0.0
 11
182.5030390144
 21
87.311026694
 31
0.0
  0
LINE
  5
115
330
1F
100
AcDbEntity
  8
0
  6
HIDDEN
 62
     7
370
     0
100
AcDbLine
 10
182.5030390144
 20
123.311026694
 30
0.0
 11
181.9530390144
 21
122.1315478878
 31
0.0
  0
ARC
  5
116
330
1F
100
AcDbEntity
  8
0
  6
HIDDEN
 62
     7
370
     0
100
AcDbCircle
 10
92.9030390144
 20
98.261026694
 30
0.0
 40
0.8000000000000114
100
AcDbArc
 50
90.0
 51
180.0
  0
ARC
  5
117
330
1F
100
AcDbEntity
  8
0
  6
HIDDEN
 62
     7
370
     0
100
AcDbCircle
 10
92.9030390144
 20
112.361026694
 30
0.0
 40
0.8000000000000114
100
AcDbArc
 50
180.0
 51
270.0
  0
LINE
  5
118
330
1F
100
AcDbEntity
  8
0
  6
HIDDEN
 62
     7
370
     0
100
AcDbLine
 10
159.5030390144
 20
123.111026694
 30
0.0
 11
159.5030390144
 21
127.3110078983
 31
0.0
  0
LINE
  5
119
330
1F
100
AcDbEntity
  8
0
  6
HIDDEN
 62
     7
370
     0
100
AcDbLine
 10
159.5030390144
 20
83.3110729761
 30
0.0
 11
159.5030390144
 21
87.511026694
 31
0.0
  0
ARC
  5
11A
330
1F
100
AcDbEntity
  8
0
  6
HIDDEN
 62
     7
370
     0
100
AcDbCircle
 10
157.9030390144
 20
87.511026694
 30
0.0
 40
1.600000000000023
100
AcDbArc
 50
0.0
 51
90.0
  0
ARC
  5
11B
330
1F
100
AcDbEntity
  8
0
  6
HIDDEN
 62
     7
370
     0
100
AcDbCircle
 10
157.9030390144
 20
123.111026694
 30
0.0
 40
1.600000000000023
100
AcDbArc
 50
270.0
 51
0.0
  0
ARC
  5
11C
330
1F
100
AcDbEntity
  8
0
  6
HIDDEN
 62
     7
370
     0
100
AcDbCircle
 10
98.1820139855
 20
99.186026694
 30
0.0
 40
0.4000000000000057
100
AcDbArc
 50
255.0
 51
270.0
  0
ARC
  5
11D
330
1F
100
AcDbEntity
  8
0
  6
HIDDEN
 62
     7
370
     0
100
AcDbCircle
 10
98.1820139855
 20
111.436026694
 30
0.0
 40
0.3999999999999915
100
AcDbArc
 50
90.0
 51
105.0
  0
LINE
  5
11E
330
1F
100
AcDbEntity
  8
0
  6
HIDDEN
 62
     7
370
     0
100
AcDbLine
 10
98.1820139855
 20
98.786026694
 30
0.0
 11
98.8720989067
 21
98.786026694
 31
0.0
  0
LINE
  5
11F
330
1F
100
AcDbEntity
  8
0
  6
HIDDEN
 62
     7
370
     0
100
AcDbLine
 10
98.8720989067
 20
111.836026694
 30
0.0
 11
98.1820139855
 21
111.836026694
 31
0.0
  0
ARC
  5
120
330
1F
100
AcDbEntity
  8
0
  6
HIDDEN
 62
     7
370
     0
100
AcDbCircle
 10
98.8720989067
 20
99.186026694
 30
0.0
 40
0.4000000000000199
100
AcDbArc
 50
270.0
 51
330.0
  0
ARC
  5
121
330
1F
100
AcDbEntity
  8
0
  6
HIDDEN
 62
     7
370
     0
100
AcDbCircle
 10
98.8720989067
 20
111.436026694
 30
0.0
 40
0.4000000000000173
100
AcDbArc
 50
30.0
 51
90.0
  0
LINE
  5
122
330
1F
100
AcDbEntity
  8
0
  6
HIDDEN
 62
     7
370
     0
100
AcDbLine
 10
98.0784863674
 20
111.8223970246
 30
0.0
 11
97.1030390144
 21
111.561026694
 31
0.0
  0
LINE
  5
123
330
1F
100
AcDbEntity
  8
0
  6
HIDDEN
 62
     7
370
     0
100
AcDbLine
 10
97.1030390144
 20
99.061026694
 30
0.0
 11
98.0784863674
 21
98.7996563635
 31
0.0
  0
LINE
  5
124
330
1F
100
AcDbEntity
  8
0
  6
HIDDEN
 62
     7
370
     0
100
AcDbLine
 10
160.503048356
 20
82.3110205773
 30
0.0
 11
159.5030478856
 21
83.3110206063
 31
0.0
  0
LINE
  5
125
330
1F
100
AcDbEntity
  8
0
  6
HIDDEN
 62
     7
370
     0
100
AcDbLine
 10
159.5030478859
 20
127.3110327821
 30
0.0
 11
160.5030483562
 21
128.311032811
 31
0.0
  0
LINE
  5
126
330
1F
100
AcDbEntity
  8
0
  6
HIDDEN
 62
     7
370
     0
100
AcDbLine
 10
99.2185090682
 20
98.986026694
 30
0.0
 11
99.925763148
 21
100.211026694
 31
0.0
  0
LINE
  5
127
330
1F
100
AcDbEntity
  8
0
  6
HIDDEN
 62
     7
370
     0
100
AcDbLine
 10
99.925763148
 20
110.411026694
 30
0.0
 11
99.2185090682
 21
111.636026694
 31
0.0
  0
LINE
  5
128
330
1F
100
AcDbEntity
  8
0
  6
HIDDEN
 62
     7
370
     0
100
AcDbLine
 10
92.9030390144
 20
99.061026694
 30
0.0
 11
97.1030390144
 21
99.061026694
 31
0.0
  0
LINE
  5
129
330
1F
100
AcDbEntity
  8
0
  6
HIDDEN
 62
     7
370
     0
100
AcDbLine
 10
97.1030390144
 20
111.561026694
 30
0.0
 11
92.9030390144
 21
111.561026694
 31
0.0
  0
LINE
  5
12A
330
1F
100
AcDbEntity
  8
0
  6
HIDDEN
 62
     7
370
     0
100
AcDbLine
 10
181.9530390144
 20
121.836026694
 30
0.0
 11
178.6530390144
 21
121.836026694
 31
0.0
  0
LINE
  5
12B
330
1F
100
AcDbEntity
  8
0
  6
HIDDEN
 62
     7
370
     0
100
AcDbLine
 10
178.6530390144
 20
88.786026694
 30
0.0
 11
181.9530390144
 21
88.786026694
 31
0.0
  0
LINE
  5
12C
330
1F
100
AcDbEntity
  8
0
  6
HIDDEN
 62
     7
370
     0
100
AcDbLine
 10
99.925763148
 20
100.211026694
 30
0.0
 11
126.1030390144
 21
100.211026694
 31
0.0
  0
LINE
  5
12D
330
1F
100
AcDbEntity
  8
0
  6
HIDDEN
 62
     7
370
     0
100
AcDbLine
 10
126.1030390144
 20
110.411026694
 30
0.0
 11
99.925763148
 21
110.411026694
 31
0.0
  0
LINE
  5
12E
330
1F
100
AcDbEntity
  8
0
  6
HIDDEN
 62
     7
370
     0
100
AcDbLine
 10
126.1030390144
 20
100.211026694
 30
0.0
 11
126.6137705405
 21
101.061026694
 31
0.0
  0
LINE
  5
12F
330
1F
100
AcDbEntity
  8
0
  6
HIDDEN
 62
     7
370
     0
100
AcDbLine
 10
126.6137705405
 20
109.561026694
 30
0.0
 11
126.1030390144
 21
110.411026694
 31
0.0
  0
LINE
  5
130
330
1F
100
AcDbEntity
  8
0
  6
HIDDEN
 62
     7
370
     0
100
AcDbLine
 10
126.6137705405
 20
101.061026694
 30
0.0
 11
157.5030390144
 21
101.061026694
 31
0.0
  0
LINE
  5
131
330
1F
100
AcDbEntity
  8
0
  6
HIDDEN
 62
     7
370
     0
100
AcDbLine
 10
157.5030390144
 20
109.561026694
 30
0.0
 11
126.6137705405
 21
109.561026694
 31
0.0
  0
LINE
  5
132
330
1F
100
AcDbEntity
  8
0
  6
HIDDEN
 62
     7
370
     0
100
AcDbLine
 10
182.3092421135
 20
89.311026694
 30
0.0
 11
182.3187334941
 21
89.311026694
 31
0.0
  0
LINE
  5
133
330
1F
100
AcDbEntity
  8
VERMASSUNG
100
AcDbLine
 10
162.5030390144
 20
128.311026694
 30
0.0
 11
162.5030390144
 21
82.311026694
 31
0.0
  0
DIMENSION
  5
134
330
1F
100
AcDbEntity
  8
VERMASSUNG
100
AcDbDimension
  2
_D
 10
182.5030390144
 20
134.3174142318
 30
0.0
 11
172.5030390144
 21
134.3174142318
 31
0.0
 70
   160
  1
<>
 71
     2
 42
-1.0
  3
SLDDIMSTYLE0
100
AcDbAlignedDimension
 13
162.5030390144
 23
128.311026694
 33
0.0
 14
182.5030390144
 24
125.911026694
 34
0.0
100
AcDbRotatedDimension
  0
DIMENSION
  5
13F
330
1F
100
AcDbEntity
  8
VERMASSUNG
100
AcDbDimension
  2
_D_1
 10
87.1252075477
 20
82.311026694
 30
0.0
 11
87.1252075477
 21
105.311026694
 31
0.0
 70
   160
  1
MAS BT 30 %%c<>
 71
     2
 42
-1.0
  3
SLDDIMSTYLE0
100
AcDbAlignedDimension
 13
160.5030375723
 23
128.311026694
 33
0.0
 14
160.5030376035
 24
82.311026694
 34
0.0
 50
90.0
100
AcDbRotatedDimension
  0
DIMENSION
  5
14B
330
1F
100
AcDbEntity
  8
VERMASSUNG
100
AcDbDimension
  2
_D_2
 10
182.5030390144
 20
140.3174142318
 30
0.0
 11
161.5030390144
 21
140.3174142318
 31
0.0
 70
   160
  1
<>
 71
     2
 42
-1.0
  3
SLDDIMSTYLE0
100
AcDbAlignedDimension
 13
140.5030390144
 23
121.186026694
 33
0.0
 14
182.5030390144
 24
125.911026694
 34
0.0
100
AcDbRotatedDimension
  0
DIMENSION
  5
155
330
1F
100
AcDbEntity
  8
VERMASSUNG
100
AcDbDimension
  2
_D_3
 10
182.5030390144
 20
146.3174142318
 30
0.0
 11
137.3030390144
 21
146.3174142318
 31
0.0
 70
   160
  1
<>
 71
     2
 42
-1.0
  3
SLDDIMSTYLE0
100
AcDbAlignedDimension
 13
92.1030390144
 23
113.6953211592
 33
0.0
 14
182.5030390144
 24
125.911026694
 34
0.0
100
AcDbRotatedDimension
  0
DIMENSION
  5
15F
330
1F
100
AcDbEntity
  8
VERMASSUNG
100
AcDbDimension
  2
_D_4
 10
189.0895120781
 20
84.311026694
 30
0.0
 11
189.0895120781
 21
105.311026694
 31
0.0
 70
   160
  1
MBM %%c<>
 71
     2
 42
-1.0
  3
SLDDIMSTYLE0
100
AcDbAlignedDimension
 13
182.1030390144
 23
126.311026694
 33
0.0
 14
182.1030390144
 24
84.311026694
 34
0.0
 50
90.0
100
AcDbRotatedDimension
  0
LINE
  5
16B
330
1F
100
AcDbEntity
  8
VERMASSUNG
  6
CENTERX2
 62
     7
370
     0
100
AcDbLine
 10
90.1030390144
 20
105.311026694
 30
0.0
 11
184.5030390144
 21
105.311026694
 31
0.0
  0
LINE
  5
16C
330
1F
100
AcDbEntity
  8
0
  6
Continuous
 62
     7
370
    15
100
AcDbLine
 10
275.1410031929
 20
37.4682721544
 30
0.0
 11
274.9641977734
 21
37.5703729283
 31
0.0
  0
LINE
  5
16D
330
1F
100
AcDbEntity
  8
0
  6
Continuous
 62
     7
370
    15
100
AcDbLine
 10
271.0744785449
 20
37.5703729283
 30
0.0
 11
270.8976731254
 21
37.4682721544
 31
0.0
  0
LINE
  5
16E
330
1F
100
AcDbEntity
  8
0
  6
Continuous
 62
     7
370
    15
100
AcDbLine
 10
276.0193381592
 20
35.8355885985
 30
0.0
 11
276.0193381592
 21
36.2438590045
 31
0.0
  0
LINE
  5
16F
330
1F
100
AcDbEntity
  8
0
  6
Continuous
 62
     7
370
    15
100
AcDbLine
 10
270.0193381592
 20
36.2438590045
 30
0.0
 11
270.0193381592
 21
35.8355885985
 31
0.0
  0
LINE
  5
170
330
1F
100
AcDbEntity
  8
0
  6
Continuous
 62
     7
370
    15
100
AcDbLine
 10
277.3162185646
 20
16.8214942501
 30
0.0
 11
277.4576169359
 21
16.9031483302
 31
0.0
  0
LINE
  5
171
330
1F
100
AcDbEntity
  8
0
  6
Continuous
 62
     7
370
    15
100
AcDbLine
 10
284.7396330573
 20
29.5173370077
 30
0.0
 11
284.7396330573
 21
29.68061863
 31
0.0
  0
LINE
  5
172
330
1F
100
AcDbEntity
  8
0
  6
Continuous
 62
     7
370
    15
100
AcDbLine
 10
266.1357920529
 20
19.7240750238
 30
0.0
 11
272.0654385085
 21
16.300962988
 31
0.0
  0
LINE
  5
173
330
1F
100
AcDbEntity
  8
0
  6
Continuous
 62
     7
370
    15
100
AcDbLine
 10
282.5645852012
 20
34.487989098
 30
0.0
 11
276.6349387456
 21
37.9111011338
 31
0.0
  0
SPLINE
  5
174
330
1F
100
AcDbEntity
  8
0
  6
Continuous
 62
     7
370
    15
100
AcDbSpline
210
0.0
220
0.0
230
1.0
 70
     8
 71
     3
 72
    13
 73
     9
 74
     0
 42
0.000000001
 43
0.00000001
 40
0.0
 40
0.0
 40
0.0
 40
0.0
 40
0.1378455817821881
 40
0.3329075979232251
 40
0.5263400679865793
 40
0.7179935694584142
 40
0.9080571474340154
 40
1.0
 40
1.0
 40
1.0
 40
1.0
 10
277.8383179728515
 20
37.21640509293
 30
0.0
 10
277.7774945277604
 20
37.35631577893006
 30
0.0
 10
277.6306012669036
 20
37.69421076111141
 30
0.0
 10
277.3349090896391
 20
38.16878733598663
 30
0.0
 10
276.9645668682526
 20
38.64341550204456
 30
0.0
 10
276.5439978201931
 20
39.04860643655643
 30
0.0
 10
276.1668241627268
 20
39.34146576943344
 30
0.0
 10
275.9167299709761
 20
39.47264229615296
 30
0.0
 10
275.8351914991207
 20
39.5154099168527
 30
0.0
  0
SPLINE
  5
175
330
1F
100
AcDbEntity
  8
0
  6
Continuous
 62
     7
370
    15
100
AcDbSpline
210
0.0
220
0.0
230
1.0
 70
     8
 71
     3
 72
    13
 73
     9
 74
     0
 42
0.000000001
 43
0.00000001
 40
0.0
 40
0.0
 40
0.0
 40
0.0
 40
0.1747022713911677
 40
0.3661789274504347
 40
0.5581104742804538
 40
0.751204421513035
 40
0.9458758010726248
 40
1.0
 40
1.0
 40
1.0
 40
1.0
 10
264.3814999403775
 20
19.58591313178468
 30
0.0
 10
264.5324901988222
 20
19.50268492724846
 30
0.0
 10
264.8489683444838
 20
19.32823719724464
 30
0.0
 10
265.3750383180583
 20
19.14714941409634
 30
0.0
 10
265.9437527783448
 20
19.02303516202734
 30
0.0
 10
266.5417675835842
 20
18.97620024420538
 30
0.0
 10
267.0093125477111
 20
18.97885974249104
 30
0.0
 10
267.2809159924761
 20
19.01995861353801
 30
0.0
 10
267.3400019254465
 20
19.02889946162608
 30
0.0
  0
LINE
  5
176
330
1F
100
AcDbEntity
  8
0
  6
Continuous
 62
     7
370
    15
100
AcDbLine
 10
263.0890366027
 20
20.3282602458
 30
0.0
 11
264.4110878152
 21
19.5650563261
 31
0.0
  0
LINE
  5
177
330
1F
100
AcDbEntity
  8
0
  6
Continuous
 62
     7
370
    15
100
AcDbLine
 10
275.9101532405
 20
39.4841801609
 30
0.0
 11
274.5881020281
 21
40.2473840806
 31
0.0
  0
LINE
  5
178
330
1F
100
AcDbEntity
  8
0
  6
Continuous
 62
     7
370
    15
100
AcDbLine
 10
271.7419972338
 20
41.8904054056
 30
0.0
 11
269.4173836906
 21
43.2323762394
 31
0.0
  0
SPLINE
  5
179
330
1F
100
AcDbEntity
  8
0
  6
Continuous
 62
     7
370
    15
100
AcDbSpline
210
0.0
220
0.0
230
1.0
 70
     8
 71
     3
 72
    32
 73
    28
 74
     0
 42
0.000000001
 43
0.00000001
 40
0.0
 40
0.0
 40
0.0
 40
0.0
 40
0.0132970383589692
 40
0.0541961783547136
 40
0.0951203563523338
 40
0.1362333393770224
 40
0.1776535739262092
 40
0.2194283487219652
 40
0.2615373193166679
 40
0.3039146992356096
 40
0.3464776482147833
 40
0.3891488406214754
 40
0.4318680611684724
 40
0.4745882054991413
 40
0.5172861102423107
 40
0.5599527186028125
 40
0.6025859377209792
 40
0.6451879472234289
 40
0.6877634181997689
 40
0.7303184084986837
 40
0.7728597158645852
 40
0.8153945225429259
 40
0.8579302142853845
 40
0.900472401761209
 40
0.9430280548463882
 40
0.9856047544744182
 40
1.0
 40
1.0
 40
1.0
 40
1.0
 10
269.36928709594
 20
43.24999299633865
 30
0.0
 10
269.3169219296472
 20
43.28210176154916
 30
0.0
 10
269.103491553998
 20
43.41297093099276
 30
0.0
 10
268.6905514774826
 20
43.5738864749622
 30
0.0
 10
268.1358236173782
 20
43.72977254171659
 30
0.0
 10
267.5497769480895
 20
43.81077351562192
 30
0.0
 10
266.9388310957446
 20
43.82239706046717
 30
0.0
 10
266.305340419921
 20
43.76254470558877
 30
0.0
 10
265.653475901504
 20
43.6315426257538
 30
0.0
 10
264.9876703106087
 20
43.42979391723273
 30
0.0
 10
264.3128119290323
 20
43.15862331369404
 30
0.0
 10
263.6338710635173
 20
42.82005052069061
 30
0.0
 10
262.9557697868449
 20
42.41673592826113
 30
0.0
 10
262.2832404685805
 20
41.95181920221716
 30
0.0
 10
261.6207972675475
 20
41.42880714270657
 30
0.0
 10
260.9727271252513
 20
40.85147477689866
 30
0.0
 10
260.343156548194
 20
40.22385936920323
 30
0.0
 10
259.7360763983962
 20
39.55025719453617
 30
0.0
 10
259.1553392559532
 20
38.83520928437548
 30
0.0
 10
258.604640842427
 20
38.08348359862472
 30
0.0
 10
258.0875240522608
 20
37.30005487023625
 30
0.0
 10
257.6072773419327
 20
36.49007216457235
 30
0.0
 10
257.1672251676542
 20
35.65886412458754
 30
0.0
 10
256.7695663037317
 20
34.81181266067685
 30
0.0
 10
256.4195921521397
 20
33.95463396284757
 30
0.0
 10
256.1782496743348
 20
33.28260780077676
 30
0.0
 10
256.0637481330335
 20
32.8989934169999
 30
0.0
 10
256.0348167388948
 20
32.80206460007565
 30
0.0
  0
LINE
  5
17A
330
1F
100
AcDbEntity
  8
0
  6
Continuous
 62
     7
370
    15
100
AcDbLine
 10
262.6728834447
 20
42.2102895362
 30
0.0
 11
247.6252846839
 21
47.6328476634
 31
0.0
  0
LINE
  5
17B
330
1F
100
AcDbEntity
  8
0
  6
Continuous
 62
     7
370
    15
100
AcDbLine
 10
243.2097842886
 20
39.9841478854
 30
0.0
 11
257.5867326598
 21
27.8443715333
 31
0.0
  0
LINE
  5
17C
330
1F
100
AcDbEntity
  8
0
  6
Continuous
 62
     7
370
    15
100
AcDbLine
 10
257.9183182653
 20
23.3132524047
 30
0.0
 11
260.2429318085
 21
21.9712815709
 31
0.0
  0
SPLINE
  5
17D
330
1F
100
AcDbEntity
  8
0
  6
Continuous
 62
     7
370
    15
100
AcDbSpline
210
0.0
220
0.0
230
1.0
 70
     8
 71
     3
 72
    13
 73
     9
 74
     0
 42
0.000000001
 43
0.00000001
 40
0.0
 40
0.0
 40
0.0
 40
0.0
 40
0.0719576996164673
 40
0.2753385738776472
 40
0.4774506042876404
 40
0.6777181190918056
 40
0.876244669045626
 40
1.0
 40
1.0
 40
1.0
 40
1.0
 10
256.0150285746259
 20
25.51154703304934
 30
0.0
 10
256.0460498388235
 20
25.44204325015831
 30
0.0
 10
256.1647494455313
 20
25.17609433069146
 30
0.0
 10
256.4105356400783
 20
24.75180640211931
 30
0.0
 10
256.7693991319103
 20
24.26301429005555
 30
0.0
 10
257.1787040077625
 20
23.84130288545235
 30
0.0
 10
257.5695946127314
 20
23.51979400458564
 30
0.0
 10
257.8392541209244
 20
23.36794988679448
 30
0.0
 10
257.9428026095561
 20
23.30964217493129
 30
0.0
  0
SPLINE
  5
17E
330
1F
100
AcDbEntity
  8
0
  6
Continuous
 62
     7
370
    15
100
AcDbSpline
210
0.0
220
0.0
230
1.0
 70
     8
 71
     3
 72
    30
 73
    26
 74
     0
 42
0.000000001
 43
0.00000001
 40
0.0
 40
0.0
 40
0.0
 40
0.0
 40
0.0383492694244036
 40
0.0821098866017378
 40
0.1265527794306499
 40
0.1717012629738681
 40
0.2173372831483246
 40
0.2632012944501687
 40
0.3090974290606078
 40
0.3549423347855666
 40
0.4007235989249179
 40
0.4464527262114061
 40
0.4921513119255132
 40
0.5378448965330583
 40
0.5835566550402703
 40
0.6293094893257899
 40
0.6751315360997471
 40
0.721048965206304
 40
0.7616338221080481
 40
0.7859648759052628
 40
0.8320943149442626
 40
0.8782403051039976
 40
0.9241128347326831
 40
0.9693857418601544
 40
0.9999999999999999
 40
0.9999999999999999
 40
0.9999999999999999
 40
0.9999999999999999
 10
247.5701232376902
 20
47.64758272967671
 30
0.0
 10
247.4678305668005
 20
47.67631214057017
 30
0.0
 10
247.2488110200657
 20
47.73782488138641
 30
0.0
 10
246.8819307079125
 20
47.74584650241896
 30
0.0
 10
246.4830455877695
 20
47.69059296681219
 30
0.0
 10
246.0685023505004
 20
47.56325745021768
 30
0.0
 10
245.6461754276613
 20
47.36757413367557
 30
0.0
 10
245.2238101982086
 20
47.10634368952072
 30
0.0
 10
244.8094726204919
 20
46.78492588628797
 30
0.0
 10
244.4105318868978
 20
46.4095530521998
 30
0.0
 10
244.0336955875626
 20
45.98714722676867
 30
0.0
 10
243.6851417553369
 20
45.52513910959159
 30
0.0
 10
243.3705976132526
 20
45.03146949507398
 30
0.0
 10
243.0953000917696
 20
44.51451105063495
 30
0.0
 10
242.8639274083445
 20
43.98295924106553
 30
0.0
 10
242.6805221537548
 20
43.44566954140609
 30
0.0
 10
242.5484554028929
 20
42.91149376938315
 30
0.0
 10
242.4735056507406
 20
42.40977910149619
 30
0.0
 10
242.453245299474
 20
42.00583122175634
 30
0.0
 10
242.4653913769919
 20
41.61758417547186
 30
0.0
 10
242.5155565179501
 20
41.23075825506989
 30
0.0
 10
242.6327979388053
 20
40.81204653347766
 30
0.0
 10
242.8089830360876
 20
40.44536935295062
 30
0.0
 10
243.0093122416282
 20
40.16006180200767
 30
0.0
 10
243.1704167406337
 20
40.02742309542234
 30
0.0
 10
243.2354092160104
 20
39.97391423673148
 30
0.0
  0
LWPOLYLINE
  5
17F
330
1F
100
AcDbEntity
  8
0
  6
Continuous
 62
     7
370
    15
100
AcDbPolyline
 90
       36
 70
   128
 43
0.0
 10
271.0747945109
 20
35.3254330537
 10
270.7588324517
 20
35.5439141071
 10
270.5155249059
 20
35.7914530388
 10
270.3526919781
 20
36.0600937438
 10
270.2755672528
 20
36.341201889
 10
270.286629582
 20
36.6257424271
 10
270.3855234133
 20
36.9045699912
 10
270.5690702176
 20
37.1687228339
 10
270.8313706497
 20
37.4097108656
 10
271.1639941579
 20
37.6197885325
 10
271.5562499487
 20
37.7922037657
 10
271.9955305986
 20
37.9214149977
 10
272.4677172658
 20
38.0032692731
 10
272.9576334824
 20
38.0351357283
 10
273.449532938
 20
38.015990149
 10
273.9276055795
 20
37.9464478901
 10
274.3764857588
 20
37.8287440968
 10
274.7817460976
 20
37.666661866
 10
275.1303611951
 20
37.465410654
 10
275.4111262753
 20
37.2314588402
 10
275.6150173175
 20
36.9723258285
 10
275.7354810958
 20
36.6963403671
 10
275.7686458053
 20
36.4123728557
 10
275.7134455048
 20
36.1295502439
 10
275.5716543776
 20
35.8569626832
 10
275.347829707
 20
35.6033713619
 10
275.0491654023
 20
35.3769269138
 10
274.6852607797
 20
35.1849074498
 10
274.2678120334
 20
35.0334846335
 10
273.8102363096
 20
34.9275253187
 10
273.3272404684
 20
34.8704351251
 10
272.8343483937
 20
34.8640489784
 10
272.3474020423
 20
34.9085721346
 10
271.8820522705
 20
35.0025735829
 10
271.453255803
 20
35.1430320394
 10
271.0747945109
 20
35.3254330537
  0
LWPOLYLINE
  5
180
330
1F
100
AcDbEntity
  8
0
  6
Continuous
 62
     7
370
    15
100
AcDbPolyline
 90
       11
 70
   128
 43
0.0
 10
270.8980178156
 20
35.0192468367
 10
270.5700261994
 20
35.2438222289
 10
270.3124968288
 20
35.4971668583
 10
270.1328383549
 20
35.7719924612
 10
270.036219225
 20
36.0603928055
 10
270.0254189955
 20
36.3540711383
 10
270.1007483693
 20
36.6445788686
 10
270.2600402575
 20
36.9235586181
 10
270.4987121224
 20
37.1829846472
 10
270.8098978092
 20
37.4153937414
 10
270.8976731254
 20
37.4682721544
  0
LWPOLYLINE
  5
181
330
1F
100
AcDbEntity
  8
0
  6
Continuous
 62
     7
370
    15
100
AcDbPolyline
 90
       20
 70
   128
 43
0.0
 10
275.1410031929
 20
37.4682721544
 10
275.3129169547
 20
37.3602051258
 10
275.6067359344
 20
37.1203811464
 10
275.8261201909
 20
36.8553412209
 10
275.9647584387
 20
36.5727100653
 10
276.0186623077
 20
36.2806184634
 10
275.9862810818
 20
35.9874693588
 10
275.86854631
 20
35.7016961175
 10
275.6688450072
 20
35.4315199154
 10
275.3929222163
 20
35.1847132298
 10
275.0487157337
 20
34.9683762398
 10
274.6461277531
 20
34.7887325667
 10
274.1967399978
 20
34.6509502318
 10
273.7134805353
 20
34.5589929821
 10
273.2102518604
 20
34.5155062603
 10
272.701530946
 20
34.5217411001
 10
272.2019527665
 20
34.5775181365
 10
271.7258892765
 20
34.6812327659
 10
271.2870359558
 20
34.829901307
 10
270.8980178156
 20
35.0192468367
  0
LWPOLYLINE
  5
182
330
1F
100
AcDbEntity
  8
0
  6
Continuous
 62
     7
370
    15
100
AcDbPolyline
 90
       29
 70
   128
 43
0.0
 10
271.7819012921
 20
35.7336371096
 10
271.5375708105
 20
35.9105069421
 10
271.3675423311
 20
36.1143286304
 10
271.2803417919
 20
36.334881704
 10
271.2803417919
 20
36.5611067109
 10
271.3675423311
 20
36.7816597845
 10
271.5375708105
 20
36.9854814728
 10
271.7819012921
 20
37.1623513053
 10
272.0882820253
 20
37.30340029
 10
272.4413498007
 20
37.4015556418
 10
272.823400326
 20
37.4518954416
 10
273.2152759923
 20
37.4518954416
 10
273.5973265176
 20
37.4015556418
 10
273.9503942931
 20
37.30340029
 10
274.2567750262
 20
37.1623513053
 10
274.5011055078
 20
36.9854814728
 10
274.6711339872
 20
36.7816597845
 10
274.7583345265
 20
36.5611067109
 10
274.7583345265
 20
36.334881704
 10
274.6711339872
 20
36.1143286304
 10
274.5011055078
 20
35.9105069421
 10
274.2567750262
 20
35.7336371096
 10
273.9503942931
 20
35.5925881249
 10
273.5973265176
 20
35.494432773
 10
273.2152759923
 20
35.4440929732
 10
272.823400326
 20
35.4440929732
 10
272.4413498007
 20
35.494432773
 10
272.0882820253
 20
35.5925881249
 10
271.7819012921
 20
35.7336371096
  0
SPLINE
  5
183
330
1F
100
AcDbEntity
  8
0
  6
Continuous
 62
     7
370
    15
100
AcDbSpline
210
0.0
220
0.0
230
1.0
 70
     8
 71
     3
 72
     9
 73
     5
 74
     0
 42
0.000000001
 43
0.00000001
 40
0.0
 40
0.0
 40
0.0
 40
0.0
 40
0.6311775999676722
 40
1.0
 40
1.0
 40
1.0
 40
1.0
 10
271.958846505561
 20
35.63607602731022
 30
0.0
 10
271.8238786614085
 20
35.729010958486
 30
0.0
 10
271.6100436898261
 20
35.87625149931086
 30
0.0
 10
271.4173684836561
 20
36.09417272739037
 30
0.0
 10
271.3463055516898
 20
36.17454695774865
 30
0.0
  0
SPLINE
  5
184
330
1F
100
AcDbEntity
  8
0
  6
Continuous
 62
     7
370
    15
100
AcDbSpline
210
0.0
220
0.0
230
1.0
 70
     8
 71
     3
 72
    12
 73
     8
 74
     0
 42
0.000000001
 43
0.00000001
 40
0.0
 40
0.0
 40
0.0
 40
0.0
 40
0.2161857461389841
 40
0.4397628073511844
 40
0.5934185666353795
 40
0.7522096186328715
 40
1.0
 40
1.0
 40
1.0
 40
1.0
 10
274.692370766641
 20
36.69212896078855
 30
0.0
 10
274.6616764307787
 20
36.58162319307839
 30
0.0
 10
274.5992383304429
 20
36.35683350409735
 30
0.0
 10
274.5074434386032
 20
36.09982327671698
 30
0.0
 10
274.4235183545456
 20
35.92456978049183
 30
0.0
 10
274.3373224036753
 20
35.79386358047785
 30
0.0
 10
274.2793898993788
 20
35.75188908272852
 30
0.0
 10
274.244083030557
 20
35.72630779457444
 30
0.0
  0
SPLINE
  5
185
330
1F
100
AcDbEntity
  8
0
  6
Continuous
 62
     7
370
    15
100
AcDbSpline
210
0.0
220
0.0
230
1.0
 70
     8
 71
     3
 72
    11
 73
     7
 74
     0
 42
0.000000001
 43
0.00000001
 40
0.0
 40
0.0
 40
0.0
 40
0.0
 40
0.1843643438496198
 40
0.5174526391740258
 40
0.8663352079125972
 40
1.0
 40
1.0
 40
1.0
 40
1.0
 10
273.4676258952494
 20
37.3991591254827
 30
0.0
 10
273.5386961574026
 20
37.32002521291955
 30
0.0
 10
273.7381679964256
 20
37.09792124721255
 30
0.0
 10
274.1098018064396
 20
36.80379878946308
 30
0.0
 10
274.4558329789619
 20
36.69947299868264
 30
0.0
 10
274.6410625052549
 20
36.69372198243468
 30
0.0
 10
274.692370766641
 20
36.69212896078855
 30
0.0
  0
SPLINE
  5
186
330
1F
100
AcDbEntity
  8
0
  6
Continuous
 62
     7
370
    15
100
AcDbSpline
210
0.0
220
0.0
230
1.0
 70
     8
 71
     3
 72
    12
 73
     8
 74
     0
 42
0.000000001
 43
0.00000001
 40
0.0
 40
0.0
 40
0.0
 40
0.0
 40
0.2161857461389846
 40
0.4397628073511848
 40
0.5934185666353807
 40
0.7522096186328722
 40
1.0
 40
1.0
 40
1.0
 40
1.0
 10
271.7945932877738
 20
37.14036812396275
 30
0.0
 10
271.9091461087167
 20
37.1137117550916
 30
0.0
 10
272.1421682714981
 20
37.05948764541773
 30
0.0
 10
272.4847514717188
 20
37.0532385529829
 30
0.0
 10
272.7979641494515
 20
37.10724780664452
 30
0.0
 10
273.1196518175061
 20
37.21200780779681
 30
0.0
 10
273.3358588669503
 20
37.32829070581863
 30
0.0
 10
273.4676258952494
 20
37.3991591254827
 30
0.0
  0
SPLINE
  5
187
330
1F
100
AcDbEntity
  8
0
  6
Continuous
 62
     7
370
    15
100
AcDbSpline
210
0.0
220
0.0
230
1.0
 70
     8
 71
     3
 72
    12
 73
     8
 74
     0
 42
0.000000001
 43
0.00000001
 40
0.0
 40
0.0
 40
0.0
 40
0.0
 40
0.2161857461389834
 40
0.4397628073511829
 40
0.5934185666353795
 40
0.7522096186328725
 40
1.0
 40
1.0
 40
1.0
 40
1.0
 10
271.3463055516898
 20
36.17454695774865
 30
0.0
 10
271.3769998875521
 20
36.19630106186858
 30
0.0
 10
271.439437987888
 20
36.24055303532219
 30
0.0
 10
271.5312328797276
 20
36.37908095165047
 30
0.0
 10
271.6151579637853
 20
36.56545511567435
 30
0.0
 10
271.7013539146555
 20
36.80616159145507
 30
0.0
 10
271.759286418952
 20
37.01381443952661
 30
0.0
 10
271.7945932877738
 20
37.14036812396275
 30
0.0
  0
LINE
  5
188
330
1F
100
AcDbEntity
  8
0
  6
Continuous
 62
     7
370
    15
100
AcDbLine
 10
271.7945932878
 20
35.7632462202
 30
0.0
 11
271.7945932878
 21
37.140368124
 31
0.0
  0
LINE
  5
189
330
1F
100
AcDbEntity
  8
0
  6
Continuous
 62
     7
370
    15
100
AcDbLine
 10
273.4676258952
 20
35.4714496135
 30
0.0
 11
273.4676258952
 21
37.3991591255
 31
0.0
  0
LWPOLYLINE
  5
18A
330
1F
100
AcDbEntity
  8
0
  6
Continuous
 62
     7
370
    15
100
AcDbPolyline
 90
       69
 70
   128
 43
0.0
 10
270.1732333649
 20
21.1083334559
 10
270.2043022114
 20
21.9022801951
 10
270.2972436827
 20
22.7253245873
 10
270.4512648347
 20
23.570444708
 10
270.6650516133
 20
24.4304302903
 10
270.9367800652
 20
25.2979442404
 10
271.2641318989
 20
26.1655852352
 10
271.6443142641
 20
27.0259508677
 10
272.0740835789
 20
27.8717008016
 10
272.5497732029
 20
28.6956193966
 10
273.0673247201
 20
29.4906772699
 10
273.6223225634
 20
30.250091268
 10
274.2100316869
 20
30.9673823385
 10
274.8254379635
 20
31.6364308067
 10
275.4632909639
 20
32.2515285872
 10
276.1181487512
 20
32.8074278824
 10
276.7844243097
 20
33.2993859557
 10
277.4564332111
 20
33.7232055942
 10
278.1284421126
 20
34.0752709182
 10
278.794717671
 20
34.3525782304
 10
279.4495754583
 20
34.5527616427
 10
280.0874284587
 20
34.6741132608
 10
280.7028347354
 20
34.7155977554
 10
281.2905438588
 20
34.6768611955
 10
281.8455417021
 20
34.5582340677
 10
282.3630932193
 20
34.3607284569
 10
282.8387828434
 20
34.0860294113
 10
283.2685521581
 20
33.7364805662
 10
283.6487345233
 20
33.3150641493
 10
283.9760863571
 20
32.8253755368
 10
284.2478148089
 20
32.2715925793
 10
284.4616015876
 20
31.6584399576
 10
284.6156227396
 20
30.9911488738
 10
284.7085642108
 20
30.2754124201
 10
284.7396330573
 20
29.5173370077
 10
284.7085642108
 20
28.7233902685
 10
284.6156227396
 20
27.9003458763
 10
284.4616015876
 20
27.0552257556
 10
284.2478148089
 20
26.1952401733
 10
283.9760863571
 20
25.3277262232
 10
283.6487345233
 20
24.4600852284
 10
283.2685521581
 20
23.5997195959
 10
282.8387828434
 20
22.753969662
 10
282.3630932193
 20
21.9300510669
 10
281.8455417021
 20
21.1349931936
 10
281.2905438588
 20
20.3755791955
 10
280.7028347354
 20
19.6582881251
 10
280.0874284587
 20
18.9892396568
 10
279.4495754583
 20
18.3741418764
 10
278.794717671
 20
17.8182425811
 10
278.1284421126
 20
17.3262845078
 10
277.4564332111
 20
16.9024648694
 10
276.7844243097
 20
16.5503995454
 10
276.1181487512
 20
16.2730922332
 10
275.4632909639
 20
16.0729088209
 10
274.8254379635
 20
15.9515572028
 10
274.2100316869
 20
15.9100727082
 10
273.6223225634
 20
15.9488092681
 10
273.0673247201
 20
16.0674363959
 10
272.5497732029
 20
16.2649420067
 10
272.0740835789
 20
16.5396410523
 10
271.6443142641
 20
16.8891898973
 10
271.2641318989
 20
17.3106063142
 10
270.9367800652
 20
17.8002949268
 10
270.6650516133
 20
18.3540778843
 10
270.4512648347
 20
18.967230506
 10
270.2972436827
 20
19.6345215898
 10
270.2043022114
 20
20.3502580434
 10
270.1732333649
 20
21.1083334559
  0
LWPOLYLINE
  5
18B
330
1F
100
AcDbEntity
  8
0
  6
Continuous
 62
     7
370
    15
100
AcDbPolyline
 90
       36
 70
   128
 43
0.0
 10
269.8903906524
 20
21.1083334559
 10
269.9211520272
 20
21.9057378957
 10
270.0131812531
 20
22.7320511185
 10
270.165715747
 20
23.5804260328
 10
270.37749156
 20
24.4438327367
 10
270.6467538511
 20
25.3151167705
 10
270.9712714281
 20
26.1870584002
 10
271.3483552361
 20
27.0524324428
 10
271.77488064
 20
27.9040681366
 10
272.2473133159
 20
28.73490856
 10
272.761738538
 20
29.5380691074
 10
273.3138936167
 20
30.3068945378
 10
273.8992032212
 20
31.0350141214
 10
274.5128172919
 20
31.7163944301
 10
275.1496512292
 20
32.345389332
 10
275.8044280266
 20
32.9167867774
 10
276.4717219973
 20
33.4258519869
 10
277.1460037334
 20
33.8683666859
 10
277.821685924
 20
34.2406640584
 10
278.4931696538
 20
34.539659131
 10
279.1548907969
 20
34.7628743363
 10
279.8013661237
 20
34.908460043
 10
280.4272387359
 20
34.9752098819
 10
281.0273224561
 20
34.9625707429
 10
281.5966448015
 20
34.8706473578
 10
282.1304881878
 20
34.7002014329
 10
282.6244290207
 20
34.4526453366
 10
283.0743743508
 20
34.1300303969
 10
283.4765957895
 20
33.7350299026
 10
283.8277604031
 20
33.2709169522
 10
284.1249583312
 20
32.741537332
 10
284.365726898
 20
32.151277648
 10
284.5480710195
 20
31.5050289779
 10
284.6704797348
 20
30.8081463418
 10
284.7319387267
 20
30.0664043287
 10
284.7396330573
 20
29.68061863
  0
LWPOLYLINE
  5
18C
330
1F
100
AcDbEntity
  8
0
  6
Continuous
 62
     7
370
    15
100
AcDbPolyline
 90
       19
 70
   128
 43
0.0
 10
277.3162185646
 20
16.8214942501
 10
277.1460037334
 20
16.7254527765
 10
276.4717219973
 20
16.3894583541
 10
275.8044280266
 20
16.1280823443
 10
275.1496512292
 20
15.943490591
 10
274.5128172919
 20
15.8372126796
 10
273.8992032212
 20
15.8101292624
 10
273.3138936167
 20
15.8624647611
 10
272.761738538
 20
15.9937855072
 10
272.2473133159
 20
16.2030033358
 10
271.77488064
 20
16.4883846019
 10
271.3483552361
 20
16.8475645466
 10
270.9712714281
 20
17.2775668917
 10
270.6467538511
 20
17.7748285023
 10
270.37749156
 20
18.3352289121
 10
270.165715747
 20
18.9541244669
 10
270.0131812531
 20
19.6263868032
 10
269.9211520272
 20
20.3464453434
 10
269.8903906524
 20
21.1083334559
  0
SPLINE
  5
18D
330
1F
100
AcDbEntity
  8
0
  6
Continuous
 62
     7
370
    15
100
AcDbSpline
210
0.0
220
0.0
230
1.0
 70
     8
 71
     3
 72
    10
 73
     6
 74
     0
 42
0.000000001
 43
0.00000001
 40
0.0
 40
0.0
 40
0.0
 40
0.0
 40
0.1021587932390422
 40
0.6955990107127924
 40
1.0
 40
1.0
 40
1.0
 40
1.0
 10
273.1844885354474
 20
38.17435482783343
 30
0.0
 10
273.2181610714143
 20
38.16652787131667
 30
0.0
 10
273.4474372987869
 20
38.1132341406711
 30
0.0
 10
273.7748330904697
 20
38.02339177607364
 30
0.0
 10
274.0461316468522
 20
37.92096301933812
 30
0.0
 10
274.1381117746668
 20
37.88623592656607
 30
0.0
  0
LWPOLYLINE
  5
18E
330
1F
100
AcDbEntity
  8
0
  6
Continuous
 62
     7
370
    15
100
AcDbPolyline
 90
       26
 70
   128
 43
0.0
 10
275.1204392553
 20
37.450350413
 10
275.4566703572
 20
37.2637834117
 10
275.8692707751
 20
36.97711409
 10
276.1977974675
 20
36.6737297989
 10
276.4117277018
 20
36.3742858427
 10
276.5127462642
 20
36.0607369911
 10
276.4873700989
 20
35.7683378617
 10
276.3302396238
 20
35.4631477483
 10
276.1398014286
 20
35.2540458895
 10
275.8755397745
 20
35.0455547745
 10
275.5570380943
 20
34.8541216804
 10
275.1748899889
 20
34.6744695531
 10
274.7793545253
 20
34.527841796
 10
274.3477098057
 20
34.4032661156
 10
273.8758185404
 20
34.3035539088
 10
273.3870066428
 20
34.2379466629
 10
272.8396417225
 20
34.2105133428
 10
272.2950050644
 20
34.2356174974
 10
271.719096925
 20
34.3285381992
 10
271.1737786312
 20
34.4955373731
 10
270.6714192027
 20
34.7426905542
 10
270.2342466627
 20
35.0695784286
 10
269.8967468166
 20
35.4509748882
 10
269.6553112253
 20
35.8920852447
 10
269.586242263
 20
36.0971314697
 10
269.586242263
 20
36.0971314697
  0
ARC
  5
18F
330
1F
100
AcDbEntity
  8
0
  6
Continuous
 62
     7
370
    15
100
AcDbCircle
 10
272.853658897
 20
18.7431446297
 30
0.0
 40
1.018669791599333
100
AcDbArc
 50
187.5911665598
 51
255.9544965879
  0
LWPOLYLINE
  5
190
330
1F
100
AcDbEntity
  8
0
  6
Continuous
 62
     7
370
    15
100
AcDbPolyline
 90
       18
 70
   128
 43
0.0
 10
282.306430955
 20
23.3546179161
 10
281.8619127793
 20
22.5527277687
 10
281.3716465714
 20
21.7794995373
 10
280.840723426
 20
21.0429626928
 10
280.2746566338
 20
20.35076569
 10
279.6793244292
 20
19.7100965435
 10
279.060908949
 20
19.1276081843
 10
278.4258320347
 20
18.6093493744
 10
277.7806885457
 20
18.1607018935
 10
277.1321778765
 20
17.7863246531
 10
276.4870343876
 20
17.4901053166
 10
275.8519574732
 20
17.2751199286
 10
275.233541993
 20
17.1436009724
 10
274.6382097884
 20
17.0969141864
 10
274.0721429962
 20
17.1355443824
 10
273.5412198508
 20
17.2590904111
 10
273.0509536429
 20
17.4662693275
 10
272.6064354673
 20
17.7549297138
  0
ARC
  5
191
330
1F
100
AcDbEntity
  8
0
  6
Continuous
 62
     7
370
    15
100
AcDbCircle
 10
278.9145150713
 20
25.8808408059
 30
0.0
 40
4.229290182855562
100
AcDbArc
 50
323.3220855209
 51
349.2041011418
  0
LWPOLYLINE
  5
192
330
1F
100
AcDbEntity
  8
0
  6
Continuous
 62
     7
370
    15
100
AcDbPolyline
 90
       11
 70
   128
 43
0.0
 10
283.0689496121
 20
32.0170957504
 10
283.3359690486
 20
31.5193018314
 10
283.5463656361
 20
30.961736558
 10
283.6981131512
 20
30.3497695605
 10
283.7897501898
 20
29.6892943849
 10
283.8203942418
 20
28.986671735
 10
283.7897501898
 20
28.2486682157
 10
283.6981131512
 20
27.4823911674
 10
283.5463656361
 20
26.6952202184
 10
283.3359690486
 20
25.8947362156
 10
283.0689496121
 20
25.0886482175
  0
ARC
  5
193
330
1F
100
AcDbEntity
  8
0
  6
Continuous
 62
     7
370
    15
100
AcDbCircle
 10
282.0592075253
 20
31.8825258338
 30
0.0
 40
1.018669791599301
100
AcDbArc
 50
7.5911665598
 51
75.9544965879
  0
LWPOLYLINE
  5
194
330
1F
100
AcDbEntity
  8
0
  6
Continuous
 62
     7
370
    15
100
AcDbPolyline
 90
       18
 70
   128
 43
0.0
 10
272.6064354673
 20
27.2710525475
 10
273.0509536429
 20
28.0729426949
 10
273.5412198508
 20
28.8461709263
 10
274.0721429962
 20
29.5827077708
 10
274.6382097884
 20
30.2749047736
 10
275.233541993
 20
30.9155739201
 10
275.8519574732
 20
31.4980622792
 10
276.4870343876
 20
32.0163210891
 10
277.1321778765
 20
32.4649685701
 10
277.7806885457
 20
32.8393458105
 10
278.4258320347
 20
33.135565147
 10
279.060908949
 20
33.3505505349
 10
279.6793244292
 20
33.4820694912
 10
280.2746566338
 20
33.5287562772
 10
280.840723426
 20
33.4901260812
 10
281.3716465714
 20
33.3665800525
 10
281.8619127793
 20
33.159401136
 10
282.306430955
 20
32.8707407498
  0
ARC
  5
195
330
1F
100
AcDbEntity
  8
0
  6
Continuous
 62
     7
370
    15
100
AcDbCircle
 10
275.9983513509
 20
24.7448296577
 30
0.0
 40
4.229290182855446
100
AcDbArc
 50
143.3220855209
 51
169.2041011418
  0
LWPOLYLINE
  5
196
330
1F
100
AcDbEntity
  8
0
  6
Continuous
 62
     7
370
    15
100
AcDbPolyline
 90
       11
 70
   128
 43
0.0
 10
271.8439168101
 20
18.6085747132
 10
271.5768973736
 20
19.1063686322
 10
271.3665007861
 20
19.6639339056
 10
271.2147532711
 20
20.2759009031
 10
271.1231162324
 20
20.9363760787
 10
271.0924721804
 20
21.6389987286
 10
271.1231162324
 20
22.3770022478
 10
271.2147532711
 20
23.1432792962
 10
271.3665007861
 20
23.9304502452
 10
271.5768973736
 20
24.7309342479
 10
271.8439168101
 20
25.537022246
  0
SPLINE
  5
197
330
1F
100
AcDbEntity
  8
0
  6
Continuous
 62
     7
370
    15
100
AcDbSpline
210
0.0
220
0.0
230
1.0
 70
     8
 71
     3
 72
    12
 73
     8
 74
     0
 42
0.000000001
 43
0.00000001
 40
0.0
 40
0.0
 40
0.0
 40
0.0
 40
0.4999999999999991
 40
0.4999999999999991
 40
0.7499999999999996
 40
0.7499999999999996
 40
1.0
 40
1.0
 40
1.0
 40
1.0
 10
281.2282446814106
 20
32.83168157587652
 30
0.0
 10
281.4275949747982
 20
32.8815201406007
 30
0.0
 10
281.6187020678678
 20
32.91084105327656
 30
0.0
 10
281.8930594650049
 20
32.92152800318656
 30
0.0
 10
281.9819302361113
 20
32.91936330081803
 30
0.0
 10
282.1502623129952
 20
32.90361702282699
 30
0.0
 10
282.2303788078725
 20
32.89007527073685
 30
0.0
 10
282.3064309549609
 20
32.87074074979616
 30
0.0
  0
LWPOLYLINE
  5
198
330
1F
100
AcDbEntity
  8
0
  6
Continuous
 62
     7
370
    15
100
AcDbPolyline
 90
       15
 70
   128
 43
0.0
 10
273.2957130112
 20
28.2523285169
 10
273.7785940872
 20
28.9801189248
 10
274.2993343404
 20
29.6692715054
 10
274.8522741039
 20
30.3122962018
 10
275.4314037502
 20
30.9022042983
 10
276.0304290072
 20
31.432584377
 10
276.6428393672
 20
31.8976720007
 10
277.2619788463
 20
32.2924123631
 10
277.8811183254
 20
32.6125152274
 10
278.4935286853
 20
32.8545015549
 10
279.0925539423
 20
33.0157413162
 10
279.6716835887
 20
33.0944820768
 10
280.2246233521
 20
33.0898680424
 10
280.7453636054
 20
33.0019493606
 10
281.2282446814
 20
32.8316815759
  0
SPLINE
  5
199
330
1F
100
AcDbEntity
  8
0
  6
Continuous
 62
     7
370
    15
100
AcDbSpline
210
0.0
220
0.0
230
1.0
 70
     8
 71
     3
 72
    12
 73
     8
 74
     0
 42
0.000000001
 43
0.00000001
 40
0.0
 40
0.0
 40
0.0
 40
0.0
 40
0.5000000000000009
 40
0.5000000000000009
 40
0.7500000000000004
 40
0.7500000000000004
 40
1.0
 40
1.0
 40
1.0
 40
1.0
 10
272.6064354672611
 20
27.27105254746186
 30
0.0
 10
272.7198221452724
 20
27.46425212520722
 30
0.0
 10
272.8349307090209
 20
27.64264574252598
 30
0.0
 10
273.0091400414267
 20
27.88983010427585
 30
0.0
 10
273.0677738754541
 20
27.96914858953688
 30
0.0
 10
273.1830323556262
 20
28.11776197674694
 30
0.0
 10
273.2398348600703
 20
28.18734916066146
 30
0.0
 10
273.2957130111588
 20
28.25232851691074
 30
0.0
  0
SPLINE
  5
19A
330
1F
100
AcDbEntity
  8
0
  6
Continuous
 62
     7
370
    15
100
AcDbSpline
210
0.0
220
0.0
230
1.0
 70
     8
 71
     3
 72
    20
 73
    16
 74
     0
 42
0.000000001
 43
0.00000001
 40
0.0
 40
0.0
 40
0.0
 40
0.0
 40
0.1249999999999995
 40
0.1249999999999995
 40
0.2499999999999991
 40
0.2499999999999991
 40
0.3749999999999986
 40
0.3749999999999986
 40
0.4999999999999981
 40
0.4999999999999981
 40
0.6249999999999977
 40
0.6249999999999977
 40
0.7499999999999971
 40
0.7499999999999971
 40
1.0
 40
1.0
 40
1.0
 40
1.0
 10
272.0761136878122
 20
39.2730379506562
 30
0.0
 10
272.0703643043751
 20
39.2022499503894
 30
0.0
 10
272.0720121891291
 20
39.13183782583307
 30
0.0
 10
272.0935049236738
 20
38.99189243762474
 30
0.0
 10
272.1138981725941
 20
38.92211528517342
 30
0.0
 10
272.1721892544898
 20
38.79284893015648
 30
0.0
 10
272.2107910441846
 20
38.73141766441593
 30
0.0
 10
272.3012848892055
 20
38.61985569285344
 30
0.0
 10
272.3524442839021
 20
38.57004470416762
 30
0.0
 10
272.4636448274994
 20
38.47944525747394
 30
0.0
 10
272.5237171978318
 20
38.43879047980542
 30
0.0
 10
272.6469957373122
 20
38.36676746841705
 30
0.0
 10
272.7107220542907
 20
38.33498778217137
 30
0.0
 10
272.906838398126
 20
38.24973513074211
 30
0.0
 10
273.0445746021639
 20
38.20611254588929
 30
0.0
 10
273.1844885354474
 20
38.17435482783342
 30
0.0
  0
SPLINE
  5
19B
330
1F
100
AcDbEntity
  8
0
  6
Continuous
 62
     7
370
    15
100
AcDbSpline
210
0.0
220
0.0
230
1.0
 70
     8
 71
     3
 72
    20
 73
    16
 74
     0
 42
0.000000001
 43
0.00000001
 40
0.0
 40
0.0
 40
0.0
 40
0.0
 40
0.2500000000000023
 40
0.2500000000000023
 40
0.3750000000000019
 40
0.3750000000000019
 40
0.5000000000000016
 40
0.5000000000000016
 40
0.6250000000000011
 40
0.6250000000000011
 40
0.7500000000000008
 40
0.7500000000000008
 40
0.8750000000000003
 40
0.8750000000000003
 40
1.0
 40
1.0
 40
1.0
 40
1.0
 10
269.5862422630432
 20
36.0971314697187
 30
0.0
 10
269.5594989328249
 20
36.19423086427425
 30
0.0
 10
269.5300233403056
 20
36.29827790101141
 30
0.0
 10
269.4772134949646
 20
36.46461884404121
 30
0.0
 10
269.4581290809422
 20
36.52179526492347
 30
0.0
 10
269.4151284921219
 20
36.63996346936799
 30
0.0
 10
269.3909547616679
 20
36.70155578903409
 30
0.0
 10
269.3362916773817
 20
36.82515469179331
 30
0.0
 10
269.3058024759459
 20
36.88730916770984
 30
0.0
 10
269.234985829372
 20
37.01180029004077
 30
0.0
 10
269.1959489724475
 20
37.07169276428163
 30
0.0
 10
269.1093368253487
 20
37.18529344272746
 30
0.0
 10
269.0610861125608
 20
37.23945227624812
 30
0.0
 10
268.9618769053133
 20
37.33497023379854
 30
0.0
 10
268.9099883642708
 20
37.37754603976527
 30
0.0
 10
268.8574998035915
 20
37.41497170534846
 30
0.0
  0
LINE
  5
19C
330
1F
100
AcDbEntity
  8
0
  6
Continuous
 62
     7
370
    15
100
AcDbLine
 10
272.2768760389
 20
18.7705325429
 30
0.0
 11
273.2556334047
 21
19.3355571433
 31
0.0
  0
LWPOLYLINE
  5
19D
330
1F
100
AcDbEntity
  8
0
  6
Continuous
 62
     7
370
    15
100
AcDbPolyline
 90
        3
 70
   128
 43
0.0
 10
271.8499137233
 20
18.5820970094
 10
271.9195678754
 20
18.6047438904
 10
272.2768760389
 20
18.7705325429
  0
ARC
  5
19E
330
1F
100
AcDbEntity
  8
0
  6
Continuous
 62
     7
370
    15
100
AcDbCircle
 10
279.2209764555
 20
32.307365219
 30
0.0
 40
2.532105398500355
100
AcDbArc
 50
341.1600621532
 51
13.9220445311
  0
ARC
  5
19F
330
1F
100
AcDbEntity
  8
0
  6
Continuous
 62
     7
370
    15
100
AcDbCircle
 10
274.2537026631
 20
29.2865089939
 30
0.0
 40
7.686244433718057
100
AcDbArc
 50
343.3431752853
 51
16.6568247147
  0
ARC
  5
1A0
330
1F
100
AcDbEntity
  8
0
  6
Continuous
 62
     7
370
    15
100
AcDbCircle
 10
278.1282161557
 20
26.2821583353
 30
0.0
 40
3.580006350664534
100
AcDbArc
 50
299.9152107505
 51
12.9318370526
  0
LINE
  5
1A1
330
1F
100
AcDbEntity
  8
0
  6
Continuous
 62
     7
370
    15
100
AcDbLine
 10
278.93487191
 20
22.6141117464
 30
0.0
 11
279.9136292757
 21
23.1791363468
 31
0.0
  0
LWPOLYLINE
  5
1A2
330
1F
100
AcDbEntity
  8
0
  6
Continuous
 62
     7
370
    15
100
AcDbPolyline
 90
       11
 70
   128
 43
0.0
 10
278.93487191
 20
22.6141117464
 10
278.4123743889
 20
21.9731097912
 10
277.8598705675
 20
21.3855325384
 10
277.2845152689
 20
20.8589890055
 10
276.6937592382
 20
20.4002978342
 10
276.0952526573
 20
20.0153989909
 10
275.4967460765
 20
19.7092768447
 10
274.9059900458
 20
19.4858956213
 10
274.3306347471
 20
19.3481480663
 10
273.7781309258
 20
19.2978179852
 10
273.2556334047
 20
19.3355571433
  0
LWPOLYLINE
  5
1A3
330
1F
100
AcDbEntity
  8
0
  6
Continuous
 62
     7
370
    15
100
AcDbPolyline
 90
        3
 70
   128
 43
0.0
 10
271.648487825
 20
23.5315653432
 10
271.6796992404
 20
24.1569112997
 10
271.6863341802
 20
24.221935979
  0
ARC
  5
1A4
330
1F
100
AcDbEntity
  8
0
  6
Continuous
 62
     7
370
    15
100
AcDbCircle
 10
281.0936933453
 20
23.0321621633
 30
0.0
 40
9.4863710331332
100
AcDbArc
 50
152.9711038347
 51
171.169326344
  0
LWPOLYLINE
  5
1A5
330
1F
100
AcDbEntity
  8
0
  6
Continuous
 62
     7
370
    15
100
AcDbPolyline
 90
       39
 70
   128
 43
0.0
 10
277.9044462115
 20
31.833799304
 10
278.0076514744
 20
31.8384630319
 10
278.4690396811
 20
31.811087689
 10
278.8971051215
 20
31.7035219346
 10
279.2858386949
 20
31.5172757559
 10
279.6297834342
 20
31.2549636411
 10
279.9241111093
 20
30.9202678772
 10
280.1646900046
 20
30.5178868593
 10
280.3481429198
 20
30.0534691346
 10
280.4718945783
 20
29.53353411
 10
280.5342077779
 20
28.9653805337
 10
280.5342077779
 20
28.3569840363
 10
280.4718945783
 20
27.7168851711
 10
280.3481429198
 20
27.054069523
 10
280.1646900046
 20
26.3778415709
 10
279.9241111093
 20
25.6976940728
 10
279.6297834342
 20
25.0231748088
 10
279.2858386949
 20
24.3637525507
 10
278.8971051215
 20
23.7286841415
 10
278.4690396811
 20
23.1268845497
 10
278.0076514744
 20
22.5668017224
 10
277.5194173803
 20
22.0562979947
 10
277.0111911354
 20
21.6025397199
 10
276.4901071219
 20
21.2118966696
 10
275.9634802173
 20
20.8898526158
 10
275.4387031089
 20
20.6409283513
 10
274.923142517
 20
20.4686182269
 10
274.4240357822
 20
20.3753410992
 10
273.9483892689
 20
20.3624063745
 10
273.5028800116
 20
20.429995628
 10
273.0937619837
 20
20.5771600548
 10
272.7267783056
 20
20.8018337889
 10
272.4070806235
 20
21.1008629035
 10
272.1391567922
 20
21.4700496854
 10
271.926767875
 20
21.9042115615
 10
271.7728953468
 20
22.3972538506
 10
271.6796992404
 20
22.9422553198
 10
271.648487825
 20
23.5315653432
 10
271.648487825
 20
23.5315653432
  0
ARC
  5
1A6
330
1F
100
AcDbEntity
  8
0
  6
Continuous
 62
     7
370
    15
100
AcDbCircle
 10
282.2338423005
 20
30.7585059457
 30
0.0
 40
2.304188309355181
100
AcDbArc
 50
115.8757889869
 51
120.0399956969
  0
LINE
  5
1A7
330
1F
100
AcDbEntity
  8
0
  6
Continuous
 62
     7
370
    15
100
AcDbLine
 10
280.1015980989
 20
32.1881622433
 30
0.0
 11
281.0803554647
 21
32.7531868437
 31
0.0
  0
LWPOLYLINE
  5
1A8
330
1F
100
AcDbEntity
  8
0
  6
Continuous
 62
     7
370
    15
100
AcDbPolyline
 90
       11
 70
   128
 43
0.0
 10
274.4223595936
 20
28.9096076402
 10
274.9448571148
 20
29.5506095954
 10
275.4973609361
 20
30.1381868481
 10
276.0727162347
 20
30.6647303811
 10
276.6634722654
 20
31.1234215524
 10
277.2619788463
 20
31.5083203957
 10
277.8604854271
 20
31.8144425418
 10
278.4512414578
 20
32.0378237653
 10
279.0265967565
 20
32.1755713203
 10
279.5791005778
 20
32.2259014014
 10
280.1015980989
 20
32.1881622433
  0
LINE
  5
1A9
330
1F
100
AcDbEntity
  8
0
  6
Continuous
 62
     7
370
    15
100
AcDbLine
 10
273.4436022279
 20
28.3445830398
 30
0.0
 11
274.4223595936
 21
28.9096076402
 31
0.0
  0
ARC
  5
1AA
330
1F
100
AcDbEntity
  8
0
  6
Continuous
 62
     7
370
    15
100
AcDbCircle
 10
274.7448530783
 20
26.0939396981
 30
0.0
 40
2.599740223031763
100
AcDbArc
 50
120.0351439475
 51
123.8773714499
  0
SPLINE
  5
1AB
330
1F
100
AcDbEntity
  8
0
  6
Continuous
 62
     7
370
    15
100
AcDbSpline
210
0.0
220
0.0
230
1.0
 70
     8
 71
     3
 72
    12
 73
     8
 74
     0
 42
0.000000001
 43
0.00000001
 40
0.0
 40
0.0
 40
0.0
 40
0.0
 40
0.5
 40
0.5
 40
0.75
 40
0.75
 40
1.0
 40
1.0
 40
1.0
 40
1.0
 10
271.8439168101359
 20
18.60857471321279
 30
0.0
 10
271.7885878400153
 20
18.78162704256393
 30
0.0
 10
271.7484527883306
 20
18.97064948284365
 30
0.0
 10
271.7087598189337
 20
19.27679143944535
 30
0.0
 10
271.698980143231
 20
19.38325101431744
 30
0.0
 10
271.6866062845048
 20
19.59966199764933
 30
0.0
 10
271.6839343210133
 20
19.7098881208298
 30
0.0
 10
271.684625915929
 20
19.82212445231687
 30
0.0
  0
ARC
  5
1AC
330
1F
100
AcDbEntity
  8
0
  6
Continuous
 62
     7
370
    15
100
AcDbCircle
 10
279.1219355211
 20
22.2053540345
 30
0.0
 40
7.809824415697232
100
AcDbArc
 50
162.2323364785
 51
197.7676635215
  0
SPLINE
  5
1AD
330
1F
100
AcDbEntity
  8
0
  6
Continuous
 62
     7
370
    15
100
AcDbSpline
210
0.0
220
0.0
230
1.0
 70
     8
 71
     3
 72
    12
 73
     8
 74
     0
 42
0.000000001
 43
0.00000001
 40
0.0
 40
0.0
 40
0.0
 40
0.0
 40
0.2499999999999997
 40
0.2499999999999997
 40
0.4999999999999993
 40
0.4999999999999993
 40
1.0
 40
1.0
 40
1.0
 40
1.0
 10
271.684625915929
 20
24.58858361668686
 30
0.0
 10
271.6839396937758
 20
24.64863288516722
 30
0.0
 10
271.6865639382253
 20
24.71382742139266
 30
0.0
 10
271.6987852821474
 20
24.85461325456343
 30
0.0
 10
271.7084548330976
 20
24.93064118727809
 30
0.0
 10
271.7484516942135
 20
25.17225226892997
 30
0.0
 10
271.7888803393619
 20
25.34755547687702
 30
0.0
 10
271.8439168101359
 20
25.53702224603399
 30
0.0
  0
SPLINE
  5
1AE
330
1F
100
AcDbEntity
  8
0
  6
Continuous
 62
     7
370
    15
100
AcDbSpline
210
0.0
220
0.0
230
1.0
 70
     8
 71
     3
 72
    14
 73
    10
 74
     0
 42
0.000000001
 43
0.00000001
 40
0.0
 40
0.0
 40
0.0
 40
0.0
 40
0.25
 40
0.25
 40
0.5
 40
0.5
 40
0.75
 40
0.75
 40
1.0
 40
1.0
 40
1.0
 40
1.0
 10
268.8574998035915
 20
37.41497170534845
 30
0.0
 10
268.8194418162266
 20
37.44210800875342
 30
0.0
 10
268.7822413323157
 20
37.47836328767662
 30
0.0
 10
268.7214219314083
 20
37.56269519344745
 30
0.0
 10
268.6982134651572
 20
37.61057808562414
 30
0.0
 10
268.6699718185789
 20
37.70082146117565
 30
0.0
 10
268.6638341612602
 20
37.74450656547489
 30
0.0
 10
268.6622610778583
 20
37.82525661189235
 30
0.0
 10
268.6666896791419
 20
37.86308211028196
 30
0.0
 10
268.6746896503408
 20
37.89892173397153
 30
0.0
  0
SPLINE
  5
1AF
330
1F
100
AcDbEntity
  8
0
  6
Continuous
 62
     7
370
    15
100
AcDbSpline
210
0.0
220
0.0
230
1.0
 70
     8
 71
     3
 72
    16
 73
    12
 74
     0
 42
0.000000001
 43
0.00000001
 40
0.0
 40
0.0
 40
0.0
 40
0.0
 40
0.2500000000000036
 40
0.2500000000000036
 40
0.5000000000000072
 40
0.5000000000000072
 40
0.6250000000000053
 40
0.6250000000000053
 40
0.7500000000000034
 40
0.7500000000000034
 40
1.0
 40
1.0
 40
1.0
 40
1.0
 10
271.646551405367
 20
39.6145410071651
 30
0.0
 10
271.6971812899161
 20
39.61283315479628
 30
0.0
 10
271.7476483301021
 20
39.60716582995607
 30
0.0
 10
271.8478776281141
 20
39.58305416457729
 30
0.0
 10
271.8974690764208
 20
39.56450104135804
 30
0.0
 10
271.9637034015229
 20
39.52224708100447
 30
0.0
 10
271.9839507704992
 20
39.50605579709111
 30
0.0
 10
272.0199474965991
 20
39.46849906297594
 30
0.0
 10
272.0356644835645
 20
39.44689054657595
 30
0.0
 10
272.0714356464748
 20
39.37768062267295
 30
0.0
 10
272.0802593188596
 20
39.32408010759082
 30
0.0
 10
272.0761136878123
 20
39.27303795065617
 30
0.0
  0
LINE
  5
1B0
330
1F
100
AcDbEntity
  8
0
  6
Continuous
 62
     7
370
    15
100
AcDbLine
 10
275.8455203291
 20
39.5206624775
 30
0.0
 11
275.9101532405
 21
39.4841801609
 31
0.0
  0
LINE
  5
1B1
330
1F
100
AcDbEntity
  8
0
  6
Continuous
 62
     7
370
    15
100
AcDbLine
 10
264.4110878152
 20
19.5650563261
 30
0.0
 11
264.3822753758
 21
19.581856913
 31
0.0
  0
SPLINE
  5
1B2
330
1F
100
AcDbEntity
  8
0
  6
Continuous
 62
     7
370
    15
100
AcDbSpline
210
0.0
220
0.0
230
1.0
 70
     8
 71
     3
 72
    14
 73
    10
 74
     0
 42
0.000000001
 43
0.00000001
 40
0.0
 40
0.0
 40
0.0
 40
0.0
 40
0.2500000000000001
 40
0.2500000000000001
 40
0.5000000000000001
 40
0.5000000000000001
 40
0.7500000000000001
 40
0.7500000000000001
 40
1.0
 40
1.0
 40
1.0
 40
1.0
 10
269.6605809485293
 20
39.20350428489369
 30
0.0
 10
269.7935908237269
 20
39.28028925143129
 30
0.0
 10
269.9401641895995
 20
39.3477901159327
 30
0.0
 10
270.2466540129863
 20
39.4585530080637
 30
0.0
 10
270.4077899247145
 20
39.50270608375306
 30
0.0
 10
270.7452674685147
 20
39.56995928766489
 30
0.0
 10
270.9221114831254
 20
39.59290114574665
 30
0.0
 10
271.2795661498283
 20
39.61814627592054
 30
0.0
 10
271.4615097203749
 20
39.62078285193442
 30
0.0
 10
271.646551405367
 20
39.6145410071651
 30
0.0
  0
SPLINE
  5
1B3
330
1F
100
AcDbEntity
  8
0
  6
Continuous
 62
     7
370
    15
100
AcDbSpline
210
0.0
220
0.0
230
1.0
 70
     8
 71
     3
 72
    14
 73
    10
 74
     0
 42
0.000000001
 43
0.00000001
 40
0.0
 40
0.0
 40
0.0
 40
0.0
 40
0.4999999999999993
 40
0.4999999999999993
 40
0.6249999999999994
 40
0.6249999999999994
 40
0.7499999999999997
 40
0.7499999999999997
 40
1.0
 40
1.0
 40
1.0
 40
1.0
 10
268.6746896503408
 20
37.89892173397153
 30
0.0
 10
268.7328101017129
 20
38.15929955959711
 30
0.0
 10
268.840990454969
 20
38.40495104389348
 30
0.0
 10
269.0490292054557
 20
38.6861055496809
 30
0.0
 10
269.0944566013129
 20
38.7410628931638
 30
0.0
 10
269.1910557990711
 20
38.8458604523689
 30
0.0
 10
269.2424320933555
 20
38.89600514464731
 30
0.0
 10
269.4057537733
 20
39.03962232114962
 30
0.0
 10
269.5268466879905
 20
39.12630113959978
 30
0.0
 10
269.6605809485293
 20
39.20350428489369
 30
0.0
  0
ARC
  5
1B4
330
1F
100
AcDbEntity
  8
0
  6
Continuous
 62
     7
370
    15
100
AcDbCircle
 10
265.5565403818
 20
24.2880256303
 30
0.0
 40
4.665652880325238
100
AcDbArc
 50
193.8679353198
 51
238.0711532232
  0
SPLINE
  5
1B5
330
1F
100
AcDbEntity
  8
0
  6
Continuous
 62
     7
370
    15
100
AcDbSpline
210
0.0
220
0.0
230
1.0
 70
     8
 71
     3
 72
    29
 73
    25
 74
     0
 42
0.000000001
 43
0.00000001
 40
0.0
 40
0.0
 40
0.0
 40
0.0
 40
0.0227703431572545
 40
0.0454410032927677
 40
0.0680340978352544
 40
0.0905719725563
 40
0.1130771376998851
 40
0.1355722016904878
 40
0.1580798033768699
 40
0.1806225438191841
 40
0.2032229186429297
 40
0.2259032519635706
 40
0.2486856328315024
 40
0.37440342998092
 40
0.4999236975978598
 40
0.5000033831470044
 40
0.62491547859338
 40
0.7509968892327752
 40
0.7926749797131527
 40
0.8340977989462387
 40
0.8754030632547732
 40
0.916729664752105
 40
0.9582162817868252
 40
0.9999999999999999
 40
0.9999999999999999
 40
0.9999999999999999
 40
0.9999999999999999
 10
261.0268682912072
 20
28.38664027717095
 30
0.0
 10
261.0429303648797
 20
28.33583952349311
 30
0.0
 10
261.0749841963747
 20
28.23446040947593
 30
0.0
 10
261.1199287609426
 20
28.08145331041283
 30
0.0
 10
261.16248945616
 20
27.92829050545618
 30
0.0
 10
261.2025108423034
 20
27.77490431957023
 30
0.0
 10
261.2401132594493
 20
27.62135438835182
 30
0.0
 10
261.2753452095636
 20
27.46766900064229
 30
0.0
 10
261.308276151777
 20
27.31388780259172
 30
0.0
 10
261.3389715341709
 20
27.16004942406562
 30
0.0
 10
261.3675000157652
 20
27.00619878080549
 30
0.0
 10
261.3939294049223
 20
26.8523705614146
 30
0.0
 10
261.4550370565623
 20
26.46748541450592
 30
0.0
 10
261.5255986165415
 20
25.86240766500245
 30
0.0
 10
261.5462077526724
 20
25.34949783270168
 30
0.0
 10
261.5468503647242
 20
24.8695921679772
 30
0.0
 10
261.5264869301666
 20
24.41799475356233
 30
0.0
 10
261.4506657065579
 20
23.98431070938481
 30
0.0
 10
261.3733860265816
 20
23.72234009745527
 30
0.0
 10
261.3200450628576
 20
23.58107821542902
 30
0.0
 10
261.2592709783014
 20
23.45507506121411
 30
0.0
 10
261.1904603619772
 20
23.34444877859852
 30
0.0
 10
261.1139465479611
 20
23.24762559835746
 30
0.0
 10
261.0560184718506
 20
23.19573900552891
 30
0.0
 10
261.0269510926738
 20
23.1697031457316
 30
0.0
  0
LWPOLYLINE
  5
1B6
330
1F
100
AcDbEntity
  8
0
  6
Continuous
 62
     7
370
    15
100
AcDbPolyline
 90
       25
 70
   128
 43
0.0
 10
261.0268682912
 20
28.3866402772
 10
261.2583161554
 20
29.3109920793
 10
261.5496574055
 20
30.2430620487
 10
261.8985900849
 20
31.1754856783
 10
262.3023571934
 20
32.1008956671
 10
262.7577684709
 20
33.0119801302
 10
263.2612256044
 20
33.9015403723
 10
263.8087506591
 20
34.762547766
 10
264.3960175092
 20
35.5881992868
 10
265.0183860193
 20
36.3719712654
 10
265.6709387077
 20
37.1076709325
 10
266.3485196001
 20
37.78948535
 10
267.0457749684
 20
38.4120273396
 10
267.757195632
 20
38.9703780489
 10
268.4771604866
 20
39.4601258158
 10
269.1999809185
 20
39.8774010267
 10
269.9199457512
 20
40.2189066906
 10
270.631366371
 20
40.4819444899
 10
271.3286216743
 20
40.6644361004
 10
272.0062024807
 20
40.7649396123
 10
272.658755063
 20
40.7826609235
 10
273.2811234476
 20
40.7174600137
 10
273.8683901537
 20
40.5698520508
 10
274.4159150473
 20
40.3410033204
 10
274.5881020281
 20
40.2473840806
  0
ARC
  5
1B7
330
1F
100
AcDbEntity
  8
0
  6
Continuous
 62
     7
370
    15
100
AcDbCircle
 10
275.2846105822
 20
18.9978090315
 30
0.0
 40
3.69315387042703
100
AcDbArc
 50
163.7051539947
 51
167.1028904291
  0
ARC
  5
1B8
330
1F
100
AcDbEntity
  8
0
  6
Continuous
 62
     7
370
    15
100
AcDbCircle
 10
279.1035288405
 20
22.2372103927
 30
0.0
 40
7.686244433719934
100
AcDbArc
 50
163.3431752853
 51
196.6568247147
  0
ARC
  5
1B9
330
1F
100
AcDbEntity
  8
0
  6
Continuous
 62
     7
370
    15
100
AcDbCircle
 10
273.0143896078
 20
24.9993584766
 30
0.0
 40
1.391764154535896
100
AcDbArc
 50
197.1663456622
 51
203.6800706086
  0
LWPOLYLINE
  5
1BA
330
1F
100
AcDbEntity
  8
0
  6
Continuous
 62
     7
370
    15
100
AcDbPolyline
 90
       33
 70
   128
 43
0.0
 10
277.7767684262
 20
31.7763867679
 10
278.1517938741
 20
31.7260475533
 10
278.5550904371
 20
31.5940036634
 10
278.9173614217
 20
31.3848010896
 10
279.233324101
 20
31.1014904764
 10
279.4983710278
 20
30.7482031306
 10
279.7086372211
 20
30.3300907772
 10
279.8610565262
 20
29.8532504358
 10
279.9534063264
 20
29.3246355124
 10
279.9843399539
 20
28.7519544028
 10
279.9534063264
 20
28.1435580873
 10
279.8610565262
 20
27.508318354
 10
279.7086372211
 20
26.8554984288
 10
279.4983710278
 20
26.1946178962
 10
279.233324101
 20
25.5353138824
 10
278.9173614217
 20
24.8872005247
 10
278.5550904371
 20
24.2597287752
 10
278.1517938741
 20
23.662048585
 10
277.7133527047
 20
23.1028754771
 10
277.2461603884
 20
22.5903634546
 10
276.7570296411
 20
22.1319860968
 10
276.2530930907
 20
21.7344275778
 10
275.7416992667
 20
21.4034851961
 10
275.2303054428
 20
21.1439848366
 10
274.7263688924
 20
20.9597105992
 10
274.2372381451
 20
20.853349617
 10
273.7700458288
 20
20.8264528727
 10
273.3316046593
 20
20.8794125814
 10
272.9283080963
 20
21.0114564713
 10
272.5660371118
 20
21.2206590452
 10
272.2500744325
 20
21.5039696583
 10
271.9850275056
 20
21.8572570041
 10
271.8644898706
 20
22.0753045048
  0
SPLINE
  5
1BB
330
1F
100
AcDbEntity
  8
0
  6
Continuous
 62
     7
370
    15
100
AcDbSpline
210
0.0
220
0.0
230
1.0
 70
     8
 71
     3
 72
     8
 73
     4
 74
     0
 42
0.000000001
 43
0.00000001
 40
0.0
 40
0.0
 40
0.0
 40
0.0
 40
1.0
 40
1.0
 40
1.0
 40
1.0
 10
260.4817894748296
 20
31.17516622479461
 30
0.0
 10
260.4573415664008
 20
31.17177943740758
 30
0.0
 10
260.4328943733825
 20
31.16834375107333
 30
0.0
 10
260.4084478558947
 20
31.16485947163563
 30
0.0
  0
SPLINE
  5
1BC
330
1F
100
AcDbEntity
  8
0
  6
Continuous
 62
     7
370
    15
100
AcDbSpline
210
0.0
220
0.0
230
1.0
 70
     8
 71
     3
 72
     8
 73
     4
 74
     0
 42
0.000000001
 43
0.00000001
 40
0.0
 40
0.0
 40
0.0
 40
0.0
 40
1.0
 40
1.0
 40
1.0
 40
1.0
 10
260.4084478558947
 20
31.16485947163563
 30
0.0
 10
260.1947359063498
 20
31.13439983043056
 30
0.0
 10
259.9810751238146
 20
31.10023488884937
 30
0.0
 10
259.7674421741664
 20
31.06251077085319
 30
0.0
  0
SPLINE
  5
1BD
330
1F
100
AcDbEntity
  8
0
  6
Continuous
 62
     7
370
    15
100
AcDbSpline
210
0.0
220
0.0
230
1.0
 70
     8
 71
     3
 72
     8
 73
     4
 74
     0
 42
0.000000001
 43
0.00000001
 40
0.0
 40
0.0
 40
0.0
 40
0.0
 40
1.0
 40
1.0
 40
1.0
 40
1.0
 10
259.7674421741664
 20
31.06251077085319
 30
0.0
 10
259.4849243128485
 20
31.0126226934104
 30
0.0
 10
259.202182250569
 20
30.96315749889504
 30
0.0
 10
258.9192707609253
 20
30.91403653820154
 30
0.0
  0
SPLINE
  5
1BE
330
1F
100
AcDbEntity
  8
0
  6
Continuous
 62
     7
370
    15
100
AcDbSpline
210
0.0
220
0.0
230
1.0
 70
     8
 71
     3
 72
     8
 73
     4
 74
     0
 42
0.000000001
 43
0.00000001
 40
0.0
 40
0.0
 40
0.0
 40
0.0
 40
0.001149633737632
 40
0.001149633737632
 40
0.001149633737632
 40
0.001149633737632
 10
258.4747924371657
 20
31.17067604843941
 30
0.0
 10
258.6230658656918
 20
31.08506375447725
 30
0.0
 10
258.7712306978341
 20
30.9995141394995
 30
0.0
 10
258.9192707609253
 20
30.91403653820154
 30
0.0
  0
LWPOLYLINE
  5
1BF
330
1F
100
AcDbEntity
  8
0
  6
Continuous
 62
     7
370
    15
100
AcDbPolyline
 90
       27
 70
   128
 43
0.0
 10
258.4747924372
 20
31.1706760484
 10
258.7740173527
 20
32.0873845707
 10
259.1283272034
 20
33.0028985069
 10
259.5350182037
 20
33.9102314481
 10
259.99098684
 20
34.8024594151
 10
260.4927535548
 20
35.6727736971
 10
261.0364892991
 20
36.5145328094
 10
261.6180447529
 20
37.3213131758
 10
262.2329819887
 20
38.0869581474
 10
262.8766083383
 20
38.8056249852
 10
263.5440122029
 20
39.4718294463
 10
264.2301005344
 20
40.0804876355
 10
264.9296377012
 20
40.6269548007
 10
265.6372854415
 20
41.1070607781
 10
266.3476436008
 20
41.5171418146
 10
267.0552913411
 20
41.8540685272
 10
267.7548285078
 20
42.1152697829
 10
268.4409168394
 20
42.2987523202
 10
269.108320704
 20
42.4031159591
 10
269.7519470535
 20
42.427564287
 10
270.3668842893
 20
42.3719107352
 10
270.9484397431
 20
42.2365800035
 10
271.4921754875
 20
42.0226048189
 10
271.9939422022
 20
41.7316180544
 10
272.4499108386
 20
41.3658402691
 10
272.8566018388
 20
40.9280627621
 10
272.9862176324
 20
40.7591150703
  0
LINE
  5
1C0
330
1F
100
AcDbEntity
  8
0
  6
Continuous
 62
     7
370
    15
100
AcDbLine
 10
256.150178894
 20
32.5126468822
 30
0.0
 11
258.4747924372
 21
31.1706760484
 31
0.0
  0
LINE
  5
1C1
330
1F
100
AcDbEntity
  8
0
  6
Continuous
 62
     7
370
    15
100
AcDbLine
 10
269.3769541414
 20
43.2553898206
 30
0.0
 11
269.4173836906
 21
43.2323762394
 31
0.0
  0
ARC
  5
1C2
330
1F
100
AcDbEntity
  8
0
  6
Continuous
 62
     7
370
    15
100
AcDbCircle
 10
272.2901153921
 20
20.0916767486
 30
0.0
 40
2.304188309338136
100
AcDbArc
 50
295.8757889868
 51
300.039995697
  0
SPLINE
  5
1C3
330
1F
100
AcDbEntity
  8
0
  6
Continuous
 62
     7
370
    15
100
AcDbSpline
210
0.0
220
0.0
230
1.0
 70
     8
 71
     3
 72
    12
 73
     8
 74
     0
 42
0.000000001
 43
0.00000001
 40
0.0
 40
0.0
 40
0.0
 40
0.0
 40
0.4999999999999997
 40
0.4999999999999997
 40
0.7499999999999998
 40
0.7499999999999998
 40
1.0
 40
1.0
 40
1.0
 40
1.0
 10
273.2957130111588
 20
18.01850111844446
 30
0.0
 10
273.18429698642
 20
17.91789918095812
 30
0.0
 10
273.0696747739129
 20
17.8444244865732
 30
0.0
 10
272.8939514584129
 20
17.77679729334125
 30
0.0
 10
272.8350269468185
 20
17.76167438807062
 30
0.0
 10
272.7195425595888
 20
17.74691234421213
 30
0.0
 10
272.6625670070592
 20
17.74709511463883
 30
0.0
 10
272.6064354672611
 20
17.75492971377359
 30
0.0
  0
SPLINE
  5
1C4
330
1F
100
AcDbEntity
  8
0
  6
Continuous
 62
     7
370
    15
100
AcDbSpline
210
0.0
220
0.0
230
1.0
 70
     8
 71
     3
 72
     9
 73
     5
 74
     0
 42
0.000000001
 43
0.00000001
 40
0.0
 40
0.0
 40
0.0
 40
0.0
 40
0.4347808892163895
 40
1.0
 40
1.0
 40
1.0
 40
1.0
 10
261.5484016867672
 20
30.23160285574372
 30
0.0
 10
261.4611875992172
 20
30.37088457588342
 30
0.0
 10
261.2605944045457
 20
30.69123379912259
 30
0.0
 10
261.0094359672871
 20
30.93818273763771
 30
0.0
 10
260.8674764187139
 20
31.07776299707418
 30
0.0
  0
SPLINE
  5
1C5
330
1F
100
AcDbEntity
  8
0
  6
Continuous
 62
     7
370
    15
100
AcDbSpline
210
0.0
220
0.0
230
1.0
 70
     8
 71
     3
 72
    13
 73
     9
 74
     0
 42
0.000000001
 43
0.00000001
 40
0.0
 40
0.0
 40
0.0
 40
0.0
 40
0.1543420314082836
 40
0.2938061119980941
 40
0.4184291878163319
 40
0.5282647859492363
 40
0.7983417750217692
 40
1.0
 40
1.0
 40
1.0
 40
1.0
 10
261.119389807301
 20
23.91594453661137
 30
0.0
 10
261.1603474293483
 20
23.95352232874864
 30
0.0
 10
261.2383145234743
 20
24.02505556505884
 30
0.0
 10
261.3270545254042
 20
24.17095420914379
 30
0.0
 10
261.3933576701641
 20
24.32606062148618
 30
0.0
 10
261.4664549061808
 20
24.56995302138608
 30
0.0
 10
261.5283258545573
 20
24.90604174197584
 30
0.0
 10
261.5374914930255
 20
25.25375981728102
 30
0.0
 10
261.5414096367834
 20
25.40240297083484
 30
0.0
  0
SPLINE
  5
1C6
330
1F
100
AcDbEntity
  8
0
  6
Continuous
 62
     7
370
    15
100
AcDbSpline
210
0.0
220
0.0
230
1.0
 70
     8
 71
     3
 72
     9
 73
     5
 74
     0
 42
0.000000001
 43
0.00000001
 40
0.0
 40
0.0
 40
0.0
 40
0.0
 40
0.508496891989613
 40
1.0
 40
1.0
 40
1.0
 40
1.0
 10
261.0268962086329
 20
23.16966235174107
 30
0.0
 10
261.0423895034801
 20
23.29600054757325
 30
0.0
 10
261.0728583128106
 20
23.54445476198912
 30
0.0
 10
261.1040667014119
 20
23.79347092716227
 30
0.0
 10
261.1194057214054
 20
23.91586314628971
 30
0.0
  0
SPLINE
  5
1C7
330
1F
100
AcDbEntity
  8
0
  6
Continuous
 62
     7
370
    15
100
AcDbSpline
210
0.0
220
0.0
230
1.0
 70
     8
 71
     3
 72
    10
 73
     6
 74
     0
 42
0.000000001
 43
0.00000001
 40
0.0
 40
0.0
 40
0.0
 40
0.0
 40
0.5
 40
0.5
 40
1.0
 40
1.0
 40
1.0
 40
1.0
 10
260.8674764187139
 20
31.07776299707418
 30
0.0
 10
260.8217923685389
 20
31.11888487429729
 30
0.0
 10
260.7602151150146
 20
31.14961295488695
 30
0.0
 10
260.623612372102
 20
31.18249713659055
 30
0.0
 10
260.5502177156249
 20
31.18464564114491
 30
0.0
 10
260.481789474829
 20
31.17516622479653
 30
0.0
  0
SPLINE
  5
1C8
330
1F
100
AcDbEntity
  8
0
  6
Continuous
 62
     7
370
    15
100
AcDbSpline
210
0.0
220
0.0
230
1.0
 70
     8
 71
     3
 72
     8
 73
     4
 74
     0
 42
0.000000001
 43
0.00000001
 40
0.0
 40
0.0
 40
0.0
 40
0.0
 40
1.0
 40
1.0
 40
1.0
 40
1.0
 10
255.995782418049
 20
32.60176874029307
 30
0.0
 10
256.0226219596772
 20
32.58628056991143
 30
0.0
 10
256.0762290068159
 20
32.55533724343807
 30
0.0
 10
256.1501788940149
 20
32.51264688224799
 30
0.0
  0
LINE
  5
1C9
330
1F
100
AcDbEntity
  8
0
  6
Continuous
 62
     7
370
    15
100
AcDbLine
 10
255.995782418
 20
32.6017687403
 30
0.0
 11
256.0348835937
 21
32.8020472542
 31
0.0
  0
SPLINE
  5
1CA
330
1F
100
AcDbEntity
  8
0
  6
Continuous
 62
     7
370
    15
100
AcDbSpline
210
0.0
220
0.0
230
1.0
 70
     8
 71
     3
 72
    12
 73
     8
 74
     0
 42
0.000000001
 43
0.00000001
 40
0.0
 40
0.0
 40
0.0
 40
0.0
 40
0.4999999999999997
 40
0.4999999999999997
 40
0.7499999999999998
 40
0.7499999999999998
 40
1.0
 40
1.0
 40
1.0
 40
1.0
 10
282.3064309549609
 20
23.35461791610787
 30
0.0
 10
282.1528043068237
 20
23.18464837865094
 30
0.0
 10
281.9851065243831
 20
23.0366138710712
 30
0.0
 10
281.7132653085218
 20
22.84579119594799
 30
0.0
 10
281.6186949127271
 20
22.78721844620982
 30
0.0
 10
281.4262959885359
 20
22.68313728943687
 30
0.0
 10
281.3282242475417
 20
22.63737432866983
 30
0.0
 10
281.2282446814106
 20
22.59785417741026
 30
0.0
  0
LWPOLYLINE
  5
1CB
330
1F
100
AcDbEntity
  8
0
  6
Continuous
 62
     7
370
    15
100
AcDbPolyline
 90
       15
 70
   128
 43
0.0
 10
281.2282446814
 20
22.5978541774
 10
280.7453636054
 20
21.8700637695
 10
280.2246233521
 20
21.180911189
 10
279.6716835887
 20
20.5378864926
 10
279.0925539423
 20
19.9479783961
 10
278.4935286853
 20
19.4175983173
 10
277.8811183254
 20
18.9525106936
 10
277.2619788463
 20
18.5577703312
 10
276.6428393672
 20
18.2376674669
 10
276.0304290072
 20
17.9956811395
 10
275.4314037502
 20
17.8344413781
 10
274.8522741039
 20
17.7557006175
 10
274.2993343404
 20
17.7603146519
 10
273.7785940872
 20
17.8482333337
 10
273.2957130112
 20
18.0185011184
  0
SPLINE
  5
1CC
330
1F
100
AcDbEntity
  8
0
  6
Continuous
 62
     7
370
    15
100
AcDbSpline
210
0.0
220
0.0
230
1.0
 70
     8
 71
     3
 72
    12
 73
     8
 74
     0
 42
0.000000001
 43
0.00000001
 40
0.0
 40
0.0
 40
0.0
 40
0.0
 40
0.5
 40
0.5
 40
0.75
 40
0.75
 40
1.0
 40
1.0
 40
1.0
 40
1.0
 10
283.068949612086
 20
32.01709575035694
 30
0.0
 10
283.0840386120807
 20
31.86727346129423
 30
0.0
 10
283.0715844450735
 20
31.70861013075352
 30
0.0
 10
283.0136455310148
 20
31.45882986077848
 30
0.0
 10
282.9874886449502
 20
31.37311602142926
 30
0.0
 10
282.9227220596573
 20
31.20123726853448
 30
0.0
 10
282.8841247865988
 20
31.11483536850148
 30
0.0
 10
282.8393317766404
 20
31.02805824200412
 30
0.0
  0
ARC
  5
1CD
330
1F
100
AcDbEntity
  8
0
  6
Continuous
 62
     7
370
    15
100
AcDbCircle
 10
279.2393471103
 20
31.8523736628
 30
0.0
 40
3.693153870470076
100
AcDbArc
 50
343.7051539947
 51
347.1028904291
  0
LINE
  5
1CE
330
1F
100
AcDbEntity
  8
0
  6
Continuous
 62
     7
370
    15
100
AcDbLine
 10
281.6174227775
 20
31.4896838783
 30
0.0
 11
282.7841489665
 21
30.816147186
 31
0.0
  0
SPLINE
  5
1CF
330
1F
100
AcDbEntity
  8
0
  6
Continuous
 62
     7
370
    15
100
AcDbSpline
210
0.0
220
0.0
230
1.0
 70
     8
 71
     3
 72
    26
 73
    22
 74
     0
 42
0.000000001
 43
0.00000001
 40
0.0
 40
0.0
 40
0.0
 40
0.0
 40
0.0466178561040771
 40
0.0699373816344696
 40
0.0932345420199579
 40
0.1399568718203082
 40
0.210087147842786
 40
0.2802260084005975
 40
0.3502125981955997
 40
0.4202067576716923
 40
0.4669120343329644
 40
0.4902694896866624
 40
0.5136186254560567
 40
0.5603914347147834
 40
0.6195884301727497
 40
0.6788273870880908
 40
0.7381533582727631
 40
0.7974940743943127
 40
0.8782759093969847
 40
0.9590578192893531
 40
1.0
 40
1.0
 40
1.0
 40
1.0
 10
257.586732659769
 20
28.24138582904993
 30
0.0
 10
257.5863396160103
 20
28.2952051075156
 30
0.0
 10
257.5857499610229
 20
28.37594625976725
 30
0.0
 10
257.5825265490378
 20
28.48492850510529
 30
0.0
 10
257.5784342338251
 20
28.59448816182601
 30
0.0
 10
257.5702818178814
 20
28.76004142858833
 30
0.0
 10
257.556283397049
 20
28.98248353987099
 30
0.0
 10
257.5385793893013
 20
29.23354329211605
 30
0.0
 10
257.5211989861074
 20
29.48429169073523
 30
0.0
 10
257.5080656322163
 20
29.7059597360923
 30
0.0
 10
257.5008577879821
 20
29.87092092559442
 30
0.0
 10
257.497368996513
 20
29.98024547432086
 30
0.0
 10
257.4948221204743
 20
30.08913922871645
 30
0.0
 10
257.4933736371664
 20
30.23864112939172
 30
0.0
 10
257.4957199323827
 20
30.42721380550812
 30
0.0
 10
257.5029734739513
 20
30.62722671707403
 30
0.0
 10
257.5140649910936
 20
30.82495042376585
 30
0.0
 10
257.5294509685166
 20
31.04466589920288
 30
0.0
 10
257.5481480236588
 20
31.2868957560438
 30
0.0
 10
257.5647914968649
 20
31.50930593007405
 30
0.0
 10
257.5721644691981
 20
31.64472447858851
 30
0.0
 10
257.5746443855741
 20
31.69027282203792
 30
0.0
  0
LINE
  5
1D0
330
1F
100
AcDbEntity
  8
0
  6
Continuous
 62
     7
370
    15
100
AcDbLine
 10
257.5867326598
 20
27.3994267957
 30
0.0
 11
257.5867326598
 21
28.241385829
 31
0.0
  0
LINE
  5
1D1
330
1F
100
AcDbEntity
  8
0
  6
Continuous
 62
     7
370
    15
100
AcDbLine
 10
258.9192707609
 20
30.9140365382
 30
0.0
 11
256.4040106214
 21
32.3660653095
 31
0.0
  0
LINE
  5
1D2
330
1F
100
AcDbEntity
  8
0
  6
Continuous
 62
     7
370
    15
100
AcDbLine
 10
256.4040106214
 20
32.3660653095
 30
0.0
 11
255.995782418
 21
32.6017687403
 31
0.0
  0
LWPOLYLINE
  5
1D3
330
1F
100
AcDbEntity
  8
0
  6
Continuous
 62
     7
370
    15
100
AcDbPolyline
 90
       11
 70
   128
 43
0.0
 10
280.1015980989
 20
21.9405750541
 10
279.5791005778
 20
21.2995730989
 10
279.0265967565
 20
20.7119958462
 10
278.4512414578
 20
20.1854523132
 10
277.8604854271
 20
19.7267611419
 10
277.2619788463
 20
19.3418622986
 10
276.6634722654
 20
19.0357401525
 10
276.0727162347
 20
18.812358929
 10
275.4973609361
 20
18.674611374
 10
274.9448571148
 20
18.6242812929
 10
274.4223595936
 20
18.662020451
  0
LINE
  5
1D4
330
1F
100
AcDbEntity
  8
0
  6
Continuous
 62
     7
370
    15
100
AcDbLine
 10
281.0803554647
 20
22.5055996545
 30
0.0
 11
280.1015980989
 21
21.9405750541
 31
0.0
  0
ARC
  5
1D5
330
1F
100
AcDbEntity
  8
0
  6
Continuous
 62
     7
370
    15
100
AcDbCircle
 10
279.7791046143
 20
24.7562429962
 30
0.0
 40
2.59974022303523
100
AcDbArc
 50
300.0351439475
 51
303.8773714499
  0
LINE
  5
1D6
330
1F
100
AcDbEntity
  8
0
  6
Continuous
 62
     7
370
    15
100
AcDbLine
 10
274.4223595936
 20
18.662020451
 30
0.0
 11
273.4436022279
 21
18.0969958507
 31
0.0
  0
LINE
  5
1D7
330
1F
100
AcDbEntity
  8
0
  6
Continuous
 62
     7
370
    15
100
AcDbLine
 10
273.2556334047
 20
19.3355571433
 30
0.0
 11
274.4223595936
 21
18.662020451
 31
0.0
  0
LINE
  5
1D8
330
1F
100
AcDbEntity
  8
0
  6
Continuous
 62
     7
370
    15
100
AcDbLine
 10
280.1015980989
 20
21.9405750541
 30
0.0
 11
278.93487191
 21
22.6141117464
 31
0.0
  0
SPLINE
  5
1D9
330
1F
100
AcDbEntity
  8
0
  6
Continuous
 62
     7
370
    15
100
AcDbSpline
210
0.0
220
0.0
230
1.0
 70
     8
 71
     3
 72
    12
 73
     8
 74
     0
 42
0.000000001
 43
0.00000001
 40
0.0
 40
0.0
 40
0.0
 40
0.0
 40
0.2499999999999997
 40
0.2499999999999997
 40
0.4999999999999993
 40
0.4999999999999993
 40
1.0
 40
1.0
 40
1.0
 40
1.0
 10
282.8393317766404
 20
26.26159907763414
 30
0.0
 10
282.8837768051462
 20
26.17628838795093
 30
0.0
 10
282.922182123864
 20
26.08740798907672
 30
0.0
 10
282.9867809062253
 20
25.90227484096171
 30
0.0
 10
283.0130776167861
 20
25.80548402742706
 30
0.0
 10
283.0718255272989
 20
25.50686880248127
 30
0.0
 10
283.0839588433333
 20
25.30122222022024
 30
0.0
 10
283.068949612086
 20
25.08864821753578
 30
0.0
  0
ARC
  5
1DA
330
1F
100
AcDbEntity
  8
0
  6
Continuous
 62
     7
370
    15
100
AcDbCircle
 10
275.4020221715
 20
28.6448286598
 30
0.0
 40
7.809824415697177
100
AcDbArc
 50
342.2323364785
 51
17.7676635215
  0
LWPOLYLINE
  5
1DB
330
1F
100
AcDbEntity
  8
0
  6
Continuous
 62
     7
370
    15
100
AcDbPolyline
 90
        3
 70
   128
 43
0.0
 10
256.9945307305
 20
30.6450007121
 10
257.0252774697
 20
31.3402299922
 10
257.1011168215
 20
31.9636344661
  0
ARC
  5
1DC
330
1F
100
AcDbEntity
  8
0
  6
Continuous
 62
     7
370
    15
100
AcDbCircle
 10
262.0845400221
 20
30.4778360117
 30
0.0
 40
5.092753540603529
100
AcDbArc
 50
178.1189836767
 51
207.971879973
  0
LWPOLYLINE
  5
1DD
330
1F
100
AcDbEntity
  8
0
  6
Continuous
 62
     7
370
    15
100
AcDbPolyline
 90
        3
 70
   128
 43
0.0
 10
247.5769983823
 20
47.6493458977
 10
247.5791714144
 20
47.6486416269
 10
247.6252846839
 20
47.6328476634
  0
ARC
  5
1DE
330
1F
100
AcDbEntity
  8
0
  6
Continuous
 62
     7
370
    15
100
AcDbCircle
 10
281.5095680847
 20
25.8508242177
 30
0.0
 40
1.391764154527423
100
AcDbArc
 50
17.1663456622
 51
23.6800706087
  0
ARC
  5
1DF
330
1F
100
AcDbEntity
  8
0
  6
Continuous
 62
     7
370
    15
100
AcDbCircle
 10
275.4204288521
 20
28.6129723016
 30
0.0
 40
7.686244433719634
100
AcDbArc
 50
343.3431752853
 51
16.6568247147
  0
LINE
  5
1E0
330
1F
100
AcDbEntity
  8
0
  6
Continuous
 62
     7
370
    15
100
AcDbLine
 10
281.6174227775
 20
27.0833341094
 30
0.0
 11
282.7841489665
 21
26.4097974172
 31
0.0
  0
SPLINE
  5
1E1
330
1F
100
AcDbEntity
  8
0
  6
Continuous
 62
     7
370
    15
100
AcDbSpline
210
0.0
220
0.0
230
1.0
 70
     8
 71
     3
 72
     9
 73
     5
 74
     0
 42
0.000000001
 43
0.00000001
 40
0.0
 40
0.0
 40
0.0
 40
0.0
 40
0.6916770441018806
 40
1.0
 40
1.0
 40
1.0
 40
1.0
 10
260.8674764187139
 20
24.60424214018804
 30
0.0
 10
261.0066236081315
 20
24.5430589793818
 30
0.0
 10
261.2077972492175
 20
24.45460272464852
 30
0.0
 10
261.3689442355613
 20
24.42696262545329
 30
0.0
 10
261.4186295507249
 20
24.41844054836811
 30
0.0
  0
SPLINE
  5
1E2
330
1F
100
AcDbEntity
  8
0
  6
Continuous
 62
     7
370
    15
100
AcDbSpline
210
0.0
220
0.0
230
1.0
 70
     8
 71
     3
 72
     8
 73
     4
 74
     0
 42
0.000000001
 43
0.00000001
 40
0.0
 40
0.0
 40
0.0
 40
0.0
 40
1.0
 40
1.0
 40
1.0
 40
1.0
 10
259.7674421741664
 20
24.4893572351729
 30
0.0
 10
259.9810751238146
 20
24.52708135316908
 30
0.0
 10
260.1947359063498
 20
24.5679235594806
 30
0.0
 10
260.4084478558947
 20
24.61193152425125
 30
0.0
  0
SPLINE
  5
1E3
330
1F
100
AcDbEntity
  8
0
  6
Continuous
 62
     7
370
    15
100
AcDbSpline
210
0.0
220
0.0
230
1.0
 70
     8
 71
     3
 72
     8
 73
     4
 74
     0
 42
0.000000001
 43
0.00000001
 40
0.0
 40
0.0
 40
0.0
 40
0.0
 40
1.0
 40
1.0
 40
1.0
 40
1.0
 10
260.4084478558947
 20
24.61193152425125
 30
0.0
 10
260.4328943733825
 20
24.6169655969021
 30
0.0
 10
260.4573415664008
 20
24.62204117054413
 30
0.0
 10
260.4817894748296
 20
24.62715837739049
 30
0.0
  0
ARC
  5
1E4
330
1F
100
AcDbEntity
  8
0
  6
Continuous
 62
     7
370
    15
100
AcDbCircle
 10
262.2860182113
 20
25.5434613486
 30
0.0
 40
4.107674082488574
100
AcDbArc
 50
201.9008660444
 51
263.8340109944
  0
SPLINE
  5
1E5
330
1F
100
AcDbEntity
  8
0
  6
Continuous
 62
     7
370
    15
100
AcDbSpline
210
0.0
220
0.0
230
1.0
 70
     8
 71
     3
 72
     8
 73
     4
 74
     0
 42
0.000000001
 43
0.00000001
 40
0.0000000000000008
 40
0.0000000000000008
 40
0.0000000000000008
 40
0.0000000000000008
 40
0.0011496337376356
 40
0.0011496337376356
 40
0.0011496337376356
 40
0.0011496337376356
 10
258.919270760928
 20
24.3408830025197
 30
0.0
 10
258.7712306978363
 20
24.23078497047087
 30
0.0
 10
258.6230658656922
 20
24.12093075427531
 30
0.0
 10
258.4747924371657
 20
24.01129149294064
 30
0.0
  0
SPLINE
  5
1E6
330
1F
100
AcDbEntity
  8
0
  6
Continuous
 62
     7
370
    15
100
AcDbSpline
210
0.0
220
0.0
230
1.0
 70
     8
 71
     3
 72
     8
 73
     4
 74
     0
 42
0.000000001
 43
0.00000001
 40
0.0
 40
0.0
 40
0.0
 40
0.0
 40
1.0
 40
1.0
 40
1.0
 40
1.0
 10
258.919270760927
 20
24.34088300252156
 30
0.0
 10
259.2021822505702
 20
24.39000396321496
 30
0.0
 10
259.4849243128491
 20
24.43946915773021
 30
0.0
 10
259.7674421741664
 20
24.4893572351729
 30
0.0
  0
SPLINE
  5
1E7
330
1F
100
AcDbEntity
  8
0
  6
Continuous
 62
     7
370
    15
100
AcDbSpline
210
0.0
220
0.0
230
1.0
 70
     8
 71
     3
 72
    10
 73
     6
 74
     0
 42
0.000000001
 43
0.00000001
 40
0.0
 40
0.0
 40
0.0
 40
0.0
 40
0.5
 40
0.5
 40
1.0
 40
1.0
 40
1.0
 40
1.0
 10
260.4817894748296
 20
24.62715837739049
 30
0.0
 10
260.5502715670365
 20
24.64149240650032
 30
0.0
 10
260.6233437392213
 20
24.64708393361662
 30
0.0
 10
260.7592224688747
 20
24.63906105692244
 30
0.0
 10
260.8217111089301
 20
24.62518413265725
 30
0.0
 10
260.867476418714
 20
24.6042421401881
 30
0.0
  0
LINE
  5
1E8
330
1F
100
AcDbEntity
  8
0
  6
Continuous
 62
     7
370
    15
100
AcDbLine
 10
256.4040106214
 20
25.7929117738
 30
0.0
 11
258.9192707609
 21
24.3408830025
 31
0.0
  0
LINE
  5
1E9
330
1F
100
AcDbEntity
  8
0
  6
Continuous
 62
     7
370
    15
100
AcDbLine
 10
256.4040106214
 20
25.7929117738
 30
0.0
 11
257.3746006254
 21
26.3532214566
 31
0.0
  0
LINE
  5
1EA
330
1F
100
AcDbEntity
  8
0
  6
Continuous
 62
     7
370
    15
100
AcDbLine
 10
255.995782418
 20
25.557208343
 30
0.0
 11
256.4040106214
 21
25.7929117738
 31
0.0
  0
LINE
  5
1EB
330
1F
100
AcDbEntity
  8
0
  6
Continuous
 62
     7
370
    15
100
AcDbLine
 10
258.4747924372
 20
24.0112914929
 30
0.0
 11
256.150178894
 21
25.3532623267
 31
0.0
  0
SPLINE
  5
1EC
330
1F
100
AcDbEntity
  8
0
  6
Continuous
 62
     7
370
    15
100
AcDbSpline
210
0.0
220
0.0
230
1.0
 70
     8
 71
     3
 72
     8
 73
     4
 74
     0
 42
0.000000001
 43
0.00000001
 40
0.0
 40
0.0
 40
0.0
 40
0.0
 40
1.0
 40
1.0
 40
1.0
 40
1.0
 10
256.1501788940149
 20
25.35326232674921
 30
0.0
 10
256.0762268826585
 20
25.39595391418925
 30
0.0
 10
256.0226237558251
 20
25.4682785225095
 30
0.0
 10
255.995782418049
 20
25.55720834297033
 30
0.0
  0
ELLIPSE
  5
1ED
330
1F
100
AcDbEntity
  8
0
  6
Continuous
 62
     7
370
    15
100
AcDbEllipse
 10
257.1402860504
 20
27.1417210311
 30
0.0
 11
-6.005970379874270E-5
 21
0.8534489614827194
 31
0.0
210
0.0
220
0.0
230
1.0
 40
0.7174342186
 41
3.534193645557566
 42
5.104989972352389
  0
ELLIPSE
  5
1EE
330
1F
100
AcDbEntity
  8
0
  6
Continuous
 62
     7
370
    15
100
AcDbEllipse
 10
257.0210472348
 20
27.0728635509
 30
0.0
 11
0.2600075789209199
 21
0.9705436209909308
 31
0.0
210
0.0
220
0.0
230
1.0
 40
0.5176380889
 41
3.619174351347737
 42
5.189970678142601
  0
ARC
  5
1EF
330
1F
100
AcDbEntity
  8
0
  6
Continuous
 62
     7
370
     0
100
AcDbCircle
 10
274.6026928842
 20
34.0186255386
 30
0.0
 40
4.391057902137093
100
AcDbArc
 50
62.4311195613
 51
108.8429694309
  0
LWPOLYLINE
  5
1F0
330
1F
100
AcDbEntity
  8
0
  6
Continuous
 62
     7
370
     0
100
AcDbPolyline
 90
       25
 70
   128
 43
0.0
 10
266.1357920529
 20
19.7240750238
 10
265.9836249522
 20
19.8171652823
 10
265.545256051
 20
20.1520925538
 10
265.1547141088
 20
20.5579849862
 10
264.8151974276
 20
21.0315185662
 10
264.5294864434
 20
21.5688153405
 10
264.2999209562
 20
22.165475174
 10
264.1283809682
 20
22.8166117838
 10
264.0162712882
 20
23.5168927555
 10
263.9645100265
 20
24.260583212
 10
263.9735210765
 20
25.0415927789
 10
264.0432306431
 20
25.8535254606
 10
264.1730678473
 20
26.6897320202
 10
264.3619694009
 20
27.5433644324
 10
264.6083883146
 20
28.4074319646
 10
264.9103065667
 20
29.274858427
 10
265.2652516296
 20
30.1385401222
 10
265.6703167181
 20
30.99140402
 10
266.1221845945
 20
31.8264656817
 10
266.6171547345
 20
32.6368864579
 10
267.1511736324
 20
33.4160294932
 10
267.7198679968
 20
34.157514078
 10
268.3185805652
 20
34.8552679025
 10
268.9424082443
 20
35.5035767855
 10
269.586242263
 20
36.0971314697
  0
LWPOLYLINE
  5
1F1
330
1F
100
AcDbEntity
  8
0
  6
Continuous
 62
     7
370
     0
100
AcDbPolyline
 90
       12
 70
   128
 43
0.0
 10
272.0761136878
 20
39.2730379507
 10
272.7522623583
 20
39.4660315933
 10
273.4108449776
 20
39.5812568005
 10
274.0467996684
 20
39.6178279495
 10
274.6552384722
 20
39.5754639536
 10
275.2314849176
 20
39.4544904233
 10
275.7711099648
 20
39.2558371632
 10
276.2699660462
 20
38.9810310257
 10
276.7242189454
 20
38.6321841756
 10
277.130377267
 20
38.2119778556
 10
277.4853192709
 20
37.7236417788
 10
277.7359809957
 20
37.2754829723
  0
LWPOLYLINE
  5
1F2
330
1F
100
AcDbEntity
  8
0
  6
Continuous
 62
     7
370
     0
100
AcDbPolyline
 90
       30
 70
   128
 43
0.0
 10
267.236834303
 20
19.0884568623
 10
266.7768806613
 20
19.0796467052
 10
266.1738108131
 20
19.1359782222
 10
265.6037370053
 20
19.2707984435
 10
265.0710408352
 20
19.4830711386
 10
264.5798166146
 20
19.7711647758
 10
264.1338399013
 20
20.1328650626
 10
263.7365384801
 20
20.5653919642
 10
263.3909660165
 20
21.0654210716
 10
263.0997785864
 20
21.6291091523
 10
262.8652142613
 20
22.2521236901
 10
262.6890759067
 20
22.9296761846
 10
262.5727173251
 20
23.6565589556
 10
262.5170328504
 20
24.4271851696
 10
262.5224504746
 20
25.2356317804
 10
262.5889285576
 20
26.0756850534
 10
262.7159561479
 20
26.9408883247
 10
262.902556909
 20
27.824591627
 10
263.1472966244
 20
28.7200028017
 10
263.4482942205
 20
29.6202397029
 10
263.8032362244
 20
30.5183830945
 10
264.209394546
 20
31.4075298308
 10
264.6636474452
 20
32.2808459149
 10
265.1625035266
 20
33.1316190241
 10
265.7021285738
 20
33.9533101019
 10
266.2783750192
 20
34.7396036164
 10
266.886813823
 20
35.4844561021
 10
267.5227685138
 20
36.1821426102
 10
268.1813511331
 20
36.82730071
 10
268.8574998036
 20
37.4149717053
  0
ARC
  5
1F3
330
1F
100
AcDbEntity
  8
0
  6
Continuous
 62
     7
370
     0
100
AcDbCircle
 10
273.6459158968
 20
35.0894676518
 30
0.0
 40
4.947094828421008
100
AcDbArc
 50
63.6006201711
 51
113.8378235586
  0
LWPOLYLINE
  5
1F4
330
1F
100
AcDbEntity
  8
0
  6
Continuous
 62
     7
370
     0
100
AcDbPolyline
 90
       26
 70
   128
 43
0.0
 10
264.3822753758
 20
19.581856913
 10
263.9455713571
 20
19.8813201662
 10
263.5134598071
 20
20.2783346204
 10
263.131623034
 20
20.7452819176
 10
262.8029490017
 20
21.2786303738
 10
262.5299235854
 20
21.8743460902
 10
262.3146117711
 20
22.5279234624
 10
262.1586420363
 20
23.2344192588
 10
262.0631940342
 20
23.988490007
 10
262.0289896711
 20
24.7844324091
 10
262.0562876465
 20
25.6162264771
 10
262.1448814961
 20
26.4775810647
 10
262.2941011542
 20
27.361981449
 10
262.5028180209
 20
28.2627386038
 10
262.7694534981
 20
29.1730397911
 10
263.0919909295
 20
30.0860000878
 10
263.467990853
 20
30.9947144595
 10
263.8946094509
 20
31.8923099846
 10
264.3686200591
 20
32.7719978377
 10
264.8864375715
 20
33.627124635
 10
265.4441455548
 20
34.4512227567
 10
266.0375258706
 20
35.2380592635
 10
266.6620905783
 20
35.9816830384
 10
267.3131158788
 20
36.6764697976
 10
267.9856778425
 20
37.3171646284
 10
268.6746896503
 20
37.898921734
  0
LWPOLYLINE
  5
1F5
330
1F
100
AcDbEntity
  8
0
  6
Continuous
 62
     7
370
     0
100
AcDbPolyline
 90
       19
 70
   128
 43
0.0
 10
260.4817894748
 20
31.1751662248
 10
260.7802167525
 20
32.0194648434
 10
261.1327146848
 20
32.8591007542
 10
261.53607838
 20
33.6864400342
 10
261.9866404778
 20
34.4939605604
 10
262.4803044928
 20
35.2743204013
 10
263.012582059
 20
36.0204245684
 10
263.5786337384
 20
36.7254895241
 10
264.1733130206
 20
37.383104857
 10
264.7912131146
 20
37.987291565
 10
265.426716107
 20
38.5325564162
 10
266.07404404
 20
39.0139418928
 10
266.727311444
 20
39.4270712647
 10
267.3805788479
 20
39.7681883828
 10
268.0279067809
 20
40.034191829
 10
268.6634097734
 20
40.2226631149
 10
269.2813098673
 20
40.33188867
 10
269.8759891495
 20
40.3608754216
 10
270.2210645486
 20
40.339435347
  0
LWPOLYLINE
  5
1F6
330
1F
100
AcDbEntity
  8
0
  6
Continuous
 62
     7
370
     0
100
AcDbPolyline
 90
       24
 70
   128
 43
0.0
 10
256.150178894
 20
32.5126468822
 10
256.4494038095
 20
33.4293554045
 10
256.8037136603
 20
34.3448693407
 10
257.2104046605
 20
35.2522022819
 10
257.6663732969
 20
36.1444302489
 10
258.1681400116
 20
37.0147445309
 10
258.711875756
 20
37.8565036432
 10
259.2934312098
 20
38.6632840096
 10
259.9083684455
 20
39.4289289812
 10
260.5519947951
 20
40.147595819
 10
261.2193986597
 20
40.8138002801
 10
261.9054869913
 20
41.4224584693
 10
262.605024158
 20
41.9689256345
 10
263.3126718983
 20
42.4490316119
 10
264.0230300576
 20
42.8591126484
 10
264.7306777979
 20
43.196039361
 10
265.4302149646
 20
43.4572406167
 10
266.1163032962
 20
43.640723154
 10
266.7837071608
 20
43.7450867929
 10
267.4273335104
 20
43.7695351208
 10
268.0422707462
 20
43.713881569
 10
268.6238262
 20
43.5785508373
 10
269.1675619443
 20
43.3645756527
 10
269.3769541414
 20
43.2553898206
  0
LINE
  5
1F7
330
1F
100
AcDbEntity
  8
0
  6
Continuous
 62
     7
370
     0
100
AcDbLine
 10
272.2768760389
 20
18.7705325429
 30
0.0
 11
273.4436022279
 21
18.0969958507
 31
0.0
  0
LWPOLYLINE
  5
1F8
330
1F
100
AcDbEntity
  8
0
  6
Continuous
 62
     7
370
     0
100
AcDbPolyline
 90
       17
 70
   128
 43
0.0
 10
260.8674764187
 20
31.0777629971
 10
261.1609875389
 20
31.9015160821
 10
261.5069395657
 20
32.7204296273
 10
261.9022106292
 20
33.5271137597
 10
262.3432338047
 20
34.3142889644
 10
262.8260293005
 20
35.074851775
 10
263.3462403717
 20
35.8019388753
 10
263.8991726354
 20
36.4889890339
 10
264.4798364328
 20
37.1298023124
 10
265.0829918557
 20
37.718596014
 10
265.7031960317
 20
38.2500568664
 10
266.3348522404
 20
38.7193889686
 10
266.9722604182
 20
39.1223570694
 10
267.6096685961
 20
39.455324786
 10
268.2413248048
 20
39.7152874188
 10
268.8615289807
 20
39.899899066
 10
269.4536035566
 20
40.0061963812
  0
LINE
  5
1F9
330
1F
100
AcDbEntity
  8
0
  6
Continuous
 62
     7
370
     0
100
AcDbLine
 10
261.279891336
 20
30.6315651988
 30
0.0
 11
261.1374373057
 21
30.7541153501
 31
0.0
  0
LINE
  5
1FA
330
1F
100
AcDbEntity
  8
0
  6
Continuous
 62
     7
370
     0
100
AcDbLine
 10
260.7510355056
 20
30.9770944653
 30
0.0
 11
260.4223881967
 21
31.1668185183
 31
0.0
  0
ARC
  5
1FB
330
1F
100
AcDbEntity
  8
0
  6
Continuous
 62
     7
370
     0
100
AcDbCircle
 10
259.1394451775
 20
28.1894798197
 30
0.0
 40
3.21994080653651
100
AcDbArc
 50
56.2191255253
 51
59.9667101493
  0
SPLINE
  5
1FC
330
1F
100
AcDbEntity
  8
0
  6
Continuous
 62
     7
370
     0
100
AcDbSpline
210
0.0
220
0.0
230
1.0
 70
     8
 71
     3
 72
     8
 73
     4
 74
     0
 42
0.000000001
 43
0.00000001
 40
0.0
 40
0.0
 40
0.0
 40
0.0
 40
1.0
 40
1.0
 40
1.0
 40
1.0
 10
261.0393090222993
 20
30.80203936351777
 30
0.0
 10
261.0027914349586
 20
30.82015345000818
 30
0.0
 10
260.9662854212161
 20
30.84141690847568
 30
0.0
 10
260.9297908658844
 20
30.86579839448881
 30
0.0
  0
SPLINE
  5
1FD
330
1F
100
AcDbEntity
  8
0
  6
Continuous
 62
     7
370
     0
100
AcDbSpline
210
0.0
220
0.0
230
1.0
 70
     8
 71
     3
 72
    12
 73
     8
 74
     0
 42
0.000000001
 43
0.00000001
 40
0.0
 40
0.0
 40
0.0
 40
0.0
 40
0.2499999999999953
 40
0.2499999999999953
 40
0.4999999999999907
 40
0.4999999999999907
 40
1.0
 40
1.0
 40
1.0
 40
1.0
 10
261.1374373057195
 20
30.75411535007866
 30
0.0
 10
261.1290791233226
 20
30.76092182925776
 30
0.0
 10
261.1209546460577
 20
30.764092841919
 30
0.0
 10
261.104621914608
 20
30.77173808290044
 30
0.0
 10
261.096467854925
 20
30.77536927326436
 30
0.0
 10
261.0719965655701
 20
30.78640456230367
 30
0.0
 10
261.0556718777029
 20
30.79392277642657
 30
0.0
 10
261.0393090222993
 20
30.80203936351777
 30
0.0
  0
SPLINE
  5
1FE
330
1F
100
AcDbEntity
  8
0
  6
Continuous
 62
     7
370
     0
100
AcDbSpline
210
0.0
220
0.0
230
1.0
 70
     8
 71
     3
 72
    10
 73
     6
 74
     0
 42
0.000000001
 43
0.00000001
 40
0.0
 40
0.0
 40
0.0
 40
0.0
 40
0.0381110146236184
 40
0.9108191192088751
 40
1.0
 40
1.0
 40
1.0
 40
1.0
 10
261.1374373057195
 20
25.4872553214765
 30
0.0
 10
261.1427139488041
 20
25.48548199268552
 30
0.0
 10
261.2688209930313
 20
25.44310102268464
 30
0.0
 10
261.4082125558904
 20
25.40287360296783
 30
0.0
 10
261.5301081682748
 20
25.40244290289787
 30
0.0
 10
261.5414096367834
 20
25.40240297083485
 30
0.0
  0
SPLINE
  5
1FF
330
1F
100
AcDbEntity
  8
0
  6
Continuous
 62
     7
370
     0
100
AcDbSpline
210
0.0
220
0.0
230
1.0
 70
     8
 71
     3
 72
    12
 73
     8
 74
     0
 42
0.000000001
 43
0.00000001
 40
0.0
 40
0.0
 40
0.0
 40
0.0
 40
0.5000000000000093
 40
0.5000000000000093
 40
0.7500000000000047
 40
0.7500000000000047
 40
1.0
 40
1.0
 40
1.0
 40
1.0
 10
261.0393090222993
 20
25.55262781249076
 30
0.0
 10
261.0556720395036
 20
25.54185214231176
 30
0.0
 10
261.0719966318747
 20
25.53052233332599
 30
0.0
 10
261.0964679883039
 20
25.51330362526533
 30
0.0
 10
261.1046220743984
 20
25.50752031999679
 30
0.0
 10
261.1209548263076
 20
25.49630818274552
 30
0.0
 10
261.1290793750703
 20
25.49009890863276
 30
0.0
 10
261.1374373057195
 20
25.48725532147682
 30
0.0
  0
SPLINE
  5
200
330
1F
100
AcDbEntity
  8
0
  6
Continuous
 62
     7
370
     0
100
AcDbSpline
210
0.0
220
0.0
230
1.0
 70
     8
 71
     3
 72
    11
 73
     7
 74
     0
 42
0.000000001
 43
0.00000001
 40
0.0
 40
0.0
 40
0.0
 40
0.0
 40
0.000121716006687
 40
0.000121716006687
 40
0.000121716006687
 40
0.0003100832903278
 40
0.0003100832903278
 40
0.0003100832903278
 40
0.0003100832903278
 10
260.9297908658844
 20
25.61531575341688
 30
0.0
 10
260.9440910972236
 20
25.60835883604133
 30
0.0
 10
260.9584301286699
 20
25.60089926919298
 30
0.0
 10
260.9727715590344
 20
25.59295540839243
 30
0.0
 10
260.9949530656174
 20
25.58066885146161
 30
0.0
 10
261.017177685654
 20
25.5672021407661
 30
0.0
 10
261.0393090222993
 20
25.55262781249078
 30
0.0
  0
ARC
  5
201
330
1F
100
AcDbEntity
  8
0
  6
Continuous
 62
     7
370
     0
100
AcDbCircle
 10
262.1840161191
 20
28.1886263319
 30
0.0
 40
2.862692494693272
100
AcDbArc
 50
239.9622210953
 51
244.0155097316
  0
LINE
  5
202
330
1F
100
AcDbEntity
  8
0
  6
Continuous
 62
     7
370
     0
100
AcDbLine
 10
257.7059714753
 20
27.4682842758
 30
0.0
 11
260.7510355056
 21
25.7104062286
 31
0.0
  0
LINE
  5
203
330
1F
100
AcDbEntity
  8
0
  6
Continuous
 62
     7
370
     0
100
AcDbLine
 10
257.5867326598
 20
27.3994267957
 30
0.0
 11
257.7059714753
 21
27.4682842758
 31
0.0
  0
LINE
  5
204
330
1F
100
AcDbEntity
  8
0
  6
Continuous
 62
     7
370
     0
100
AcDbLine
 10
261.0225102454
 20
30.9198818681
 30
0.0
 11
261.0393090223
 21
30.8020393635
 31
0.0
  0
LWPOLYLINE
  5
205
330
1F
100
AcDbEntity
  8
0
  6
Continuous
 62
     7
370
     0
100
AcDbPolyline
 90
        3
 70
   128
 43
0.0
 10
260.9180186127
 20
31.0345214575
 10
260.9275721551
 20
30.9815768237
 10
260.9297908659
 20
30.8657983945
  0
LWPOLYLINE
  5
206
330
1F
100
AcDbEntity
  8
0
  6
Continuous
 62
     7
370
     0
100
AcDbPolyline
 90
        3
 70
   128
 43
0.0
 10
260.7245605677
 20
31.1593126063
 10
260.7401660188
 20
31.098259012
 10
260.7510355056
 20
30.9770944653
  0
LWPOLYLINE
  5
207
330
1F
100
AcDbEntity
  8
0
  6
Continuous
 62
     7
370
     0
100
AcDbPolyline
 90
        3
 70
   128
 43
0.0
 10
257.3480841211
 20
30.4408986842
 10
257.3788308603
 20
31.1361279642
 10
257.4546702121
 20
31.7595324382
  0
ARC
  5
208
330
1F
100
AcDbEntity
  8
0
  6
Continuous
 62
     7
370
     0
100
AcDbCircle
 10
263.2837185983
 20
30.3726301825
 30
0.0
 40
5.936027058119789
100
AcDbArc
 50
179.3410435613
 51
195.4202547044
  0
LWPOLYLINE
  5
209
330
1F
100
AcDbEntity
  8
0
  6
Continuous
 62
     7
370
     0
100
AcDbPolyline
 90
       17
 70
   128
 43
0.0
 10
242.5072511949
 20
41.8640998624
 10
242.5378018887
 20
42.3862469405
 10
242.6288593354
 20
42.9335040999
 10
242.7786512055
 20
43.4952196025
 10
242.9842619706
 20
44.0604602948
 10
243.241689651
 20
44.6182244099
 10
243.5459237097
 20
45.1576557036
 10
243.8910425769
 20
45.6682547594
 10
244.2703289064
 20
46.1400833474
 10
244.6764003212
 20
46.563957861
 10
245.1013531031
 20
46.9316280649
 10
245.5369160296
 20
47.2359376766
 10
245.9746113637
 20
47.4709636559
 10
246.4059198637
 20
47.6321314894
 10
246.8224466003
 20
47.7163042284
 10
247.2160843542
 20
47.7218435464
 10
247.5769983823
 20
47.6493458977
  0
ARC
  5
20A
330
1F
100
AcDbEntity
  8
0
  6
Continuous
 62
     7
370
     0
100
AcDbCircle
 10
244.9286503377
 20
41.6977269631
 30
0.0
 40
2.42710810433692
100
AcDbArc
 50
176.0694185984
 51
224.9117477784
  0
ARC
  5
20B
330
1F
100
AcDbEntity
  8
0
  6
Continuous
 62
     7
370
     0
100
AcDbCircle
 10
260.042194606
 20
25.3393267384
 30
0.0
 40
1.105187512130141
100
AcDbArc
 50
318.3083095736
 51
7.6920861831
  0
LWPOLYLINE
  5
20C
330
1F
100
AcDbEntity
  8
0
  6
Continuous
 62
     7
370
     0
100
AcDbPolyline
 90
        3
 70
   128
 43
0.0
 10
261.2271924639
 20
24.0286278486
 10
261.1609875389
 20
24.1193697812
 10
260.8674764187
 20
24.6042421402
  0
LINE
  5
20D
330
1F
100
AcDbEntity
  8
0
  6
Continuous
 62
     7
370
     0
100
AcDbLine
 10
279.9136292757
 20
23.1791363468
 30
0.0
 11
281.0803554647
 21
22.5055996545
 31
0.0
  0
LWPOLYLINE
  5
20E
330
1F
100
AcDbEntity
  8
0
  6
Continuous
 62
     7
370
     0
100
AcDbPolyline
 90
        3
 70
   128
 43
0.0
 10
261.0828131621
 20
23.7483059911
 10
260.7802167525
 20
24.1274165595
 10
260.4817894748
 20
24.6271583774
  0
ARC
  5
20F
330
1F
100
AcDbEntity
  8
0
  6
Continuous
 62
     7
370
     0
100
AcDbCircle
 10
259.7255496226
 20
25.7133956129
 30
0.0
 40
1.323559611765247
100
AcDbArc
 50
304.8456886156
 51
353.0232693864
  0
LINE
  5
210
330
1F
100
AcDbEntity
  8
0
  6
Continuous
 62
     7
370
     0
100
AcDbLine
 10
260.1853500806
 20
24.7306103344
 30
0.0
 11
257.3746006254
 21
26.3532214566
 31
0.0
  0
LINE
  5
211
330
1F
100
AcDbEntity
  8
0
  6
Continuous
 62
     7
370
     0
100
AcDbLine
 10
259.7674421742
 20
24.4893572352
 30
0.0
 11
260.1853500806
 21
24.7306103344
 31
0.0
  0
ARC
  5
212
330
1F
100
AcDbEntity
  8
0
  6
Continuous
 62
     7
370
     0
100
AcDbCircle
 10
259.7772330877
 20
25.5770340261
 30
0.0
 40
1.153193358753959
100
AcDbArc
 50
303.1862550559
 51
1.9023561302
  0
ARC
  5
213
330
1F
100
AcDbEntity
  8
0
  6
Continuous
 62
     7
370
     0
100
AcDbCircle
 10
261.9737987533
 20
27.8235827114
 30
0.0
 40
3.572817764683357
100
AcDbArc
 50
239.9622210953
 51
244.0155097316
  0
ARC
  5
214
330
1F
100
AcDbEntity
  8
0
  6
Continuous
 62
     7
370
     0
100
AcDbCircle
 10
259.5228626245
 20
25.7662949104
 30
0.0
 40
1.22944384605772
100
AcDbArc
 50
302.60547834
 51
357.3945215143
  0
ARC
  5
215
330
1F
100
AcDbEntity
  8
0
  6
Continuous
 62
     7
370
     0
100
AcDbCircle
 10
260.1635221697
 20
27.0454950751
 30
0.0
 40
4.355522462737692
100
AcDbArc
 50
202.8627999871
 51
238.9701612235
  0
OLE2FRAME
  5
216
330
1F
100
AcDbEntity
  8
0
100
AcDbOle2Frame
 70
     2
  3
Paintbrush-Bild
 10
13.8511154363
 20
38.264191557
 30
0.0
 11
51.6290888628
 21
31.9806341108
 31
0.0
 71
     2
 72
     0
 73
     1
 90
    12928
310
80552BED0767C5B32B40DDAF6807D121434000000000000000006FFBDDFB85D0
310
4940DDAF6807D121434000000000000000006FFBDDFB85D04940416F4BD60AFB
310
3F4000000000000000002BED0767C5B32B40416F4BD60AFB3F40000000000000
310
0000000000000100000000010000010000000100000000000100000000320000
310
D0CF11E0A1B11AE1000000000000000000000000000000003E000300FEFF0900
310
0600000000000000000000000100000001000000000000000010000002000000
310
01000000FEFFFFFF0000000000000000FFFFFFFFFFFFFFFFFFFFFFFFFFFFFFFF
310
FFFFFFFFFFFFFFFFFFFFFFFFFFFFFFFFFFFFFFFFFFFFFFFFFFFFFFFFFFFFFFFF
310
FFFFFFFFFFFFFFFFFFFFFFFFFFFFFFFFFFFFFFFFFFFFFFFFFFFFFFFFFFFFFFFF
310
FFFFFFFFFFFFFFFFFFFFFFFFFFFFFFFFFFFFFFFFFFFFFFFFFFFFFFFFFFFFFFFF
310
FFFFFFFFFFFFFFFFFFFFFFFFFFFFFFFFFFFFFFFFFFFFFFFFFFFFFFFFFFFFFFFF
310
FFFFFFFFFFFFFFFFFFFFFFFFFFFFFFFFFFFFFFFFFFFFFFFFFFFFFFFFFFFFFFFF
310
FFFFFFFFFFFFFFFFFFFFFFFFFFFFFFFFFFFFFFFFFFFFFFFFFFFFFFFFFFFFFFFF
310
FFFFFFFFFFFFFFFFFFFFFFFFFFFFFFFFFFFFFFFFFFFFFFFFFFFFFFFFFFFFFFFF
310
FFFFFFFFFFFFFFFFFFFFFFFFFFFFFFFFFFFFFFFFFFFFFFFFFFFFFFFFFFFFFFFF
310
FFFFFFFFFFFFFFFFFFFFFFFFFFFFFFFFFFFFFFFFFFFFFFFFFFFFFFFFFFFFFFFF
310
FFFFFFFFFFFFFFFFFFFFFFFFFFFFFFFFFFFFFFFFFFFFFFFFFFFFFFFFFFFFFFFF
310
FFFFFFFFFFFFFFFFFFFFFFFFFFFFFFFFFFFFFFFFFFFFFFFFFFFFFFFFFFFFFFFF
310
FFFFFFFFFFFFFFFFFFFFFFFFFFFFFFFFFFFFFFFFFFFFFFFFFFFFFFFFFFFFFFFF
310
FFFFFFFFFFFFFFFFFFFFFFFFFFFFFFFFFFFFFFFFFFFFFFFFFFFFFFFFFFFFFFFF
310
FDFFFFFFFEFFFFFFFEFFFFFFFEFFFFFF05000000060000000700000008000000
310
090000000A0000000B0000000C0000000D0000000E0000000F00000010000000
310
11000000120000001300000014000000150000001600000017000000FEFFFFFF
310
FFFFFFFFFFFFFFFFFFFFFFFFFFFFFFFFFFFFFFFFFFFFFFFFFFFFFFFFFFFFFFFF
310
FFFFFFFFFFFFFFFFFFFFFFFFFFFFFFFFFFFFFFFFFFFFFFFFFFFFFFFFFFFFFFFF
310
FFFFFFFFFFFFFFFFFFFFFFFFFFFFFFFFFFFFFFFFFFFFFFFFFFFFFFFFFFFFFFFF
310
FFFFFFFFFFFFFFFFFFFFFFFFFFFFFFFFFFFFFFFFFFFFFFFFFFFFFFFFFFFFFFFF
310
FFFFFFFFFFFFFFFFFFFFFFFFFFFFFFFFFFFFFFFFFFFFFFFFFFFFFFFFFFFFFFFF
310
FFFFFFFFFFFFFFFFFFFFFFFFFFFFFFFFFFFFFFFFFFFFFFFFFFFFFFFFFFFFFFFF
310
FFFFFFFFFFFFFFFFFFFFFFFFFFFFFFFFFFFFFFFFFFFFFFFFFFFFFFFFFFFFFFFF
310
FFFFFFFFFFFFFFFFFFFFFFFFFFFFFFFFFFFFFFFFFFFFFFFFFFFFFFFFFFFFFFFF
310
FFFFFFFFFFFFFFFFFFFFFFFFFFFFFFFFFFFFFFFFFFFFFFFFFFFFFFFFFFFFFFFF
310
FFFFFFFFFFFFFFFFFFFFFFFFFFFFFFFFFFFFFFFFFFFFFFFFFFFFFFFFFFFFFFFF
310
FFFFFFFFFFFFFFFFFFFFFFFFFFFFFFFFFFFFFFFFFFFFFFFFFFFFFFFFFFFFFFFF
310
FFFFFFFFFFFFFFFFFFFFFFFFFFFFFFFFFFFFFFFFFFFFFFFFFFFFFFFFFFFFFFFF
310
FFFFFFFFFFFFFFFFFFFFFFFFFFFFFFFFFFFFFFFFFFFFFFFFFFFFFFFFFFFFFFFF
310
52006F006F007400200045006E00740072007900000000000000000000000000
310
0000000000000000000000000000000000000000000000000000000000000000
310
16000500FFFFFFFFFFFFFFFF020000000A00030000000000C000000000000046
310
000000000000000000000000C08586B16115D20103000000C000000000000000
310
01004F006C006500000000000000000000000000000000000000000000000000
310
0000000000000000000000000000000000000000000000000000000000000000
310
0A000200FFFFFFFFFFFFFFFFFFFFFFFF00000000000000000000000000000000
310
0000000000000000000000000000000000000000000000001400000000000000
310
010043006F006D0070004F0062006A0000000000000000000000000000000000
310
0000000000000000000000000000000000000000000000000000000000000000
310
120002010100000003000000FFFFFFFF00000000000000000000000000000000
310
0000000000000000000000000000000000000000010000004D00000000000000
310
01004F006C006500310030004E00610074006900760065000000000000000000
310
0000000000000000000000000000000000000000000000000000000000000000
310
1A000200FFFFFFFFFFFFFFFFFFFFFFFF00000000000000000000000000000000
310
0000000000000000000000000000000000000000040000002426000000000000
310
FEFFFFFF02000000FEFFFFFFFFFFFFFFFFFFFFFFFFFFFFFFFFFFFFFFFFFFFFFF
310
FFFFFFFFFFFFFFFFFFFFFFFFFFFFFFFFFFFFFFFFFFFFFFFFFFFFFFFFFFFFFFFF
310
FFFFFFFFFFFFFFFFFFFFFFFFFFFFFFFFFFFFFFFFFFFFFFFFFFFFFFFFFFFFFFFF
310
FFFFFFFFFFFFFFFFFFFFFFFFFFFFFFFFFFFFFFFFFFFFFFFFFFFFFFFFFFFFFFFF
310
FFFFFFFFFFFFFFFFFFFFFFFFFFFFFFFFFFFFFFFFFFFFFFFFFFFFFFFFFFFFFFFF
310
FFFFFFFFFFFFFFFFFFFFFFFFFFFFFFFFFFFFFFFFFFFFFFFFFFFFFFFFFFFFFFFF
310
FFFFFFFFFFFFFFFFFFFFFFFFFFFFFFFFFFFFFFFFFFFFFFFFFFFFFFFFFFFFFFFF
310
FFFFFFFFFFFFFFFFFFFFFFFFFFFFFFFFFFFFFFFFFFFFFFFFFFFFFFFFFFFFFFFF
310
FFFFFFFFFFFFFFFFFFFFFFFFFFFFFFFFFFFFFFFFFFFFFFFFFFFFFFFFFFFFFFFF
310
FFFFFFFFFFFFFFFFFFFFFFFFFFFFFFFFFFFFFFFFFFFFFFFFFFFFFFFFFFFFFFFF
310
FFFFFFFFFFFFFFFFFFFFFFFFFFFFFFFFFFFFFFFFFFFFFFFFFFFFFFFFFFFFFFFF
310
FFFFFFFFFFFFFFFFFFFFFFFFFFFFFFFFFFFFFFFFFFFFFFFFFFFFFFFFFFFFFFFF
310
FFFFFFFFFFFFFFFFFFFFFFFFFFFFFFFFFFFFFFFFFFFFFFFFFFFFFFFFFFFFFFFF
310
FFFFFFFFFFFFFFFFFFFFFFFFFFFFFFFFFFFFFFFFFFFFFFFFFFFFFFFFFFFFFFFF
310
FFFFFFFFFFFFFFFFFFFFFFFFFFFFFFFFFFFFFFFFFFFFFFFFFFFFFFFFFFFFFFFF
310
FFFFFFFFFFFFFFFFFFFFFFFFFFFFFFFFFFFFFFFFFFFFFFFFFFFFFFFFFFFFFFFF
310
0100000200000000000000000000000000000000000000000000000000000000
310
0000000000000000000000000000000000000000000000000000000000000000
310
0100FEFF030A0000FFFFFFFF0A00030000000000C00000000000004607000000
310
5042727573680007000000504272757368000700000050427275736800F439B2
310
7100000000000000000000000000000000000000000000000000000000000000
310
0000000000000000000000000000000000000000000000000000000000000000
310
0000000000000000000000000000000000000000000000000000000000000000
310
0000000000000000000000000000000000000000000000000000000000000000
310
0000000000000000000000000000000000000000000000000000000000000000
310
0000000000000000000000000000000000000000000000000000000000000000
310
0000000000000000000000000000000000000000000000000000000000000000
310
0000000000000000000000000000000000000000000000000000000000000000
310
0000000000000000000000000000000000000000000000000000000000000000
310
0000000000000000000000000000000000000000000000000000000000000000
310
0000000000000000000000000000000000000000000000000000000000000000
310
0000000000000000000000000000000000000000000000000000000000000000
310
20260000424D0E260000000000003E00000028000000B40200006E0000000100
310
01000000000000000000130B0000130B00000200000002000000000000FFFFFF
310
FFFFFFFFFFFFFFFFFFFFFFFFFFFFFFFFFFFFFFFFFFFFFFFFFFFFFFFFFFFFFFFF
310
FFFFFFFFFFFFFFFFFFFFFFFFFFFFFFFFFFFFFFFFFFFFFFFFFFFFFFFFFFFFFFFF
310
FFFFFFFFFFFFFFFFFFFFFFFFFFFFFFFFFFFFFFFFFFFFFFFFF000FFFFFFFFFFFF
310
FFFFFFFFFFFFFFFFFFFFFFFFFFFFFFFFFFFFFFFFFFFFFFFFFFFFFFFFFFFFFFFF
310
FFFFFFFFFFFFFFFFFFFFFFFFFFFFFFFFFFFFFFFFFFFFFFFFFFFFFFFFFFFFFFFF
310
FFFFFFFFFFFFFFFFFFFFFFFFFFFFFFFFF000FFFFFFFFFFFFFFFFFFFFFFFFFFFF
310
FFFFFFFFFFFFFFFFFFFFFFFFFFFFFFFFFFFFFFFFFFFFFFFFFFFFFFFFFFFFFFFF
310
FFFFFFFFFFFFFFFFFFFFFFFFFFFFFFFFFFFFFFFFFFFFFFFFFFFFFFFFFFFFFFFF
310
FFFFFFFFFFFFFFFFF000FFFFFFFFFFFFFFFFFFFFFFFFFFFFFFFFFFFFFFFFFFFF
310
FFFFFFFFFFFFFFFFFFFFFFFFFFFFFFFFFFFFFFFFFFFFFFFFFFFFFFFFFFFFFFFF
310
FFFFFFFFFFFFFFFFFFFFFFFFFFFFFFFFFFFFFFFFFFFFFFFFFFFFFFFFFFFFFFFF
310
F000FFFFFFFFFFFFFFFFFFFFFFFFFFFFFFFFFFFFFFFFFFFFFFFFFFFFFFFFFFFF
310
FFFFFFFFFFFFFFFFFFFFFFFFFFFFFFFFFFFFFFFFFFFFFFFFFFFFFFFFFFFFFFFF
310
FFFFFFFFFFFFFFFFFFFFFFFFFFFFFFFFFFFFFFFFFFFFFFFFF000FFFFFFFFFFFF
310
FFFFFFFFFFFFFFFFFFFFFFFFFFFFFFFFFFFFFFFFFFFFFFFFFFFFFFFFFFFFFFFF
310
FFFFFFFFFFFFFFFFFFFFFFFFFFFFFFFFFFFFFFFFFFFFFFFFFFFFFFFFFFFFFFFF
310
FFFFFFFFFFFFFFFFFFFFFFFFFFFFFFFFF000FFFFFFFFFFFFFFFFFFFFFFFFFFFF
310
FFFFFFFFFFFFFFFFFFFFFFFFFFFFFFFFFFFFFFFFFFFFFFFFFFFFFFFFFFFFFFFF
310
FFFFFFFFFFFFFFFFFFFFFFFFFFFFFFFFFFFFFFFFFFFFFFFFFFFFFFFFFFFFFFFF
310
FFFFFFFFFFFFFFFFF000FFFFFFFFFFFFFFFFFFFFFFFFFFFFFFFFFFFFFFFFFFFF
310
FFFFFFFFFFFFFFFFFFFFFFFFFFFFFFFFFFFFFFFFFFFFFFFFFFFFFFFFFFFFFFFF
310
FFFFFFFFFFFFFFFFFFFFFFFFFFFFFFFFFFFFFFFFFFFFFFFFFFFFFFFFFFFFFFFF
310
F000FFFFFFFFFFFFFFFFFFFFFFFFFFFFFFFFFFFFFFFFFFFFFFFFFFFFFFFFFFFF
310
FFFFFFFFFFFFFFFFFFFFFFFFFFFFFFFFFFFFFFFFFFFFFFFFFFFFFFFFFFFFFFFF
310
FFFFFFFFFFFFFFFFFFFFFFFFFFFFFFFFFFFFFFFFFFFFFFFFF000FFFFFFFFFFFF
310
FFFFFFFFFFFFFFFFFFFFFFFFFFFFFFFFFFFFFFFFFFFFFFFFFFFFFFFFFFFFFFFF
310
FFFFFFFFFFFFFFFFFFFFFFFFFFFFFFFFFFFFFFFFFFFFFFFFFFFFFFFFFFFFFFFF
310
FFFFFFFFFFFFFFFFFFFFFFFFFFFFFFFFF000FFFFFFFFFFFFFFFFFFFFFFFFFFFF
310
FFFFFFFFFFFFFFFFFFFFFFFFFFFFFFFFFFFFFFFFFFFFFFFFFFFFFFFFFFFFFFFF
310
FFFFFFFFFFFFFFFFFFFFFFFFFFFFFFFFFFFFFFFFFFFFFFFFFFFFFFFFFFFFFFFF
310
FFFFFFFFFFFFFFFFF000FFFFFFFFFFFFFFFFFFFFFFFFFFFFFFFFFFFFFFFFFFFF
310
FFFFFFFFFFFFFFFFFFFFFFFFFFFFFFFFFFFFFFFFFFFFFFFFFFFFFFFFFFFFFFFF
310
FFFFFFFFFFFFFFFFFFFFFFFFFFFFFFFFFFFFFFFFFFFFFFFFFFFFFFFFFFFFFFFF
310
F000FFFFFFFFFFFFFFFFFFFFFFFFFFFFFFFFFFFFFFFFFFFFFFFFFFFFFFFFFFFF
310
FFFFFFFFFFFFFFFFFFFFFFFFFFFFFFFFFFFFFFFFFFFFFFFFFFFFFFFFFFFFFFFF
310
FFFFFFFFFFFFFFFFFFFFFFFFFFFFFFFFFFFFFFFFFFFFFFFFF000FFFFFFFFFFFF
310
FFFFFFFFFFFFFFFFFFFFFFFFFFFFFFFFFFFFFFFFFFFFFFFFFFFFFFFFFFFFFFFF
310
FFFFFFFFFFFFFFFFFFFFFFFFFFFFFFFFFFFFFFFFFFFFFFFFFFFFFFFFFFFFFFFF
310
FFFFFFFFFFFFFFFFFFFFFFFFFFFFFFFFF000FFFFFFFFFFFFFFFFFFFFFFFFFFFF
310
FFFFFFFFFFFFFFFFFFFFFFFFFFFFFFFFFFFFFFFFFFFFFFFFFFFFFFFFFFFFFFFF
310
FFFFFFFFFFFFFFFFFFFFFFFFFFFFFFFFFFFFFFFFFFFFFFFFFFFFFFFFFFFFFFFF
310
FFFFFFFFFFFFFFFFF000FFFFFFFFFFFFFFFFFFFFFFFFFFFFFFFFFFFFFFFFFFFF
310
FFFFFFFFFFFFFFFFFFFFFFFFFFFFFFFFFFFFFFFFFFFFFFFFFFFFFFFFFFFFFFFF
310
FFFFFFFFFFFFFFFFFFFFFFFFFFFFFFFFFFFFFFFFFFFFFFFFFFFFFFFFFFFFFFFF
310
F000FFFFFFFFFFFFFFFFFFFFFFFFFFFFFFFFFFFFFFFFFFFFFFFFFFFFFFFFFFFF
310
FFFFFFFFFFFFFFFFFFFFFFFFFFFFFFFFFFFFFFFFFFFFFFFFFFFFFFFFFFFFFFFF
310
FFFFFFFFFFFFFFFFFFFFFFFFFFFFFFFFFFFFFFFFFFFFFFFFF000FFFFFFFFFFFF
310
FFFFFFFFFFFFFFFFFFFFFFFFFFFFFFFFFFFFFFFFFFFFFFFFFFFFFFFFFFFFFFFF
310
FFFFFFFFFFFFFFFFFFFFFFFFFFFFFFFFFFFFFFFFFFFFFFFFFFFFFFFFFFFFFFFF
310
FFFFFFFFFFFFFFFFFFFFFFFFFFFFFFFFF000FFFFFFFFFFFFFFFFFFFFFFFFFFFF
310
FFFFFFFFFFFFFFFFFFFFFFFFFFFFFFFFFFFFFFFFFFFFFFFFFFFFFFFFFFFFFFFF
310
FFFFFFFFFFFFFFFFFFFFFFFFFFFFFFFFFFFFFFFFFFFFFFFFFFFFFFFFFFFFFFFF
310
FFFFFFFFFFFFFFFFF000FFFFF80003FFFFFFFFFFFFFFFFFFFFFFFFFFFFFFFFFF
310
FFFFF00007FFFFFFFFFF00007FFFFFF800000000000000007FFFFFFFFFFFFFFF
310
FFFFFFFC001FFFFFFFFFFFFFFC001FFFFFFFFFFFFFFFFFFFFFFFFFFE0007FFFF
310
F000FFFF8000007FFFFFFFF8000FFFFFC0007FFFFF80007FFFFF0000007FFFFF
310
FFF8000007FFFFF800000000000000007FFFFFF0001FFFFFFFFFFFC00001FFFF
310
FFFFFFFFC00001FFFFFFFF000000000003FFFFE000007FFFF000FFFE0000000F
310
FFFFFFF0000FFFFF80007FFFFF80007FFFFC0000001FFFFFFFC0000001FFFFF8
310
00000000000000007FFFFFF0001FFFFFFFFFFE0000003FFFFFFFFFFE0000003F
310
FFFFFF000000000003FFFF0000000FFFF000FFF800000003FFFFFFF00007FFFF
310
80007FFFFF80007FFFF000000007FFFFFF000000003FFFF80000000000000000
310
7FFFFFF0001FFFFFFFFFF80000000FFFFFFFFFF80000000FFFFFFF0000000000
310
03FFFC00000003FFF000FFE000000000FFFFFFF00007FFFF80003FFFFF80007F
310
FFC000000001FFFFFC000000001FFFF800000000000000007FFFFFF0001FFFFF
310
FFFFE000000003FFFFFFFFE000000003FFFFFF000000000003FFF000000000FF
310
F000FF80000000007FFFFFF00007FFFF80003FFFFF80007FFF8000000000FFFF
310
F80000000007FFF800000000000000007FFFFFF0001FFFFFFFFFC000000001FF
310
FFFFFFC000000001FFFFFF000000000003FFC0000000007FF000FF0000000000
310
3FFFFFE00007FFFF00003FFFFF80007FFE00000000003FFFF00000000003FFF8
310
00000000000000007FFFFFF0001FFFFFFFFF8000000000FFFFFFFF8000000000
310
FFFFFF000000000003FF80000000003FF000FE00000000001FFFFFE00003FFFF
310
00003FFFFF80007FFC00000000001FFFE00000000001FFF8000001FFFE000000
310
7FFFFFF0001FFFFFFFFE00000000003FFFFFFE00000000003FFFFF0000000000
310
03FF00000000001FF000FC00000000000FFFFFE00003FFFF00001FFFFF80007F
310
F800000000001FFFC00000000000FFF8000001FFFE0000007FFFFFF0001FFFFF
310
FFFC00000000001FFFFFFC00000000001FFFFF000000000003FE00000000000F
310
F000F8000000000007FFFFE00003FFFF00001FFFFF80007FF800000000000FFF
310
800000000000FFF8000001FFFE0000007FFFFFF0001FFFFFFFF800000000000F
310
FFFFF800000000000FFFFF000000000003FC000000000007F000F80000000000
310
03FFFFC00003FFFE00001FFFFF80007FF0000000000007FF0000000000007FF8
310
000001FFFE0000007FFFFFF0001FFFFFFFF0000000000007FFFFF00000000000
310
07FFFF000000000003F8000000000003F000F0000000000003FFFFC00001FFFE
310
00001FFFFF80007FE0000000000007FE0000000000003FF8000001FFFE000000
310
7FFFFFF0001FFFFFFFF0000000000007FFFFF0000000000007FFFF0000000000
310
03F800001F800003F000E00001FFF00001FFFFC00001FFFE00000FFFFF80007F
310
E00001FFE00003FE00001FFF00003FF8000001FFFE0000007FFFFFF0001FFFFF
310
FFE000003E000003FFFFE000003E000003FFFF000000000003F00001FFF80001
310
F000E00007FFFC0001FFFFC00001FFFE00000FFFFF80007FC0000FFFFC0003FC
310
0000FFFFC0001FF8000001FFFE0000007FFFFFF0001FFFFFFFC00003FFE00001
310
FFFFC00003FFE00001FFFF0001FFFFFFFFF00007FFFE0001F000E0000FFFFF00
310
00FFFF800001FFFC00000FFFFF80007FC0001FFFFE0001FC0001FFFFE0001FF8
310
000001FFFE0000007FFFFFF0001FFFFFFF80000FFFF80000FFFF80000FFFF800
310
00FFFF0003FFFFFFFFE0000FFFFF8000F000C0003FFFFF8000FFFF800000FFFC
310
000007FFFF80007F80003FFFFF0001FC0003FFFFF0001FF8000001FFFE000000
310
7FFFFFF0001FFFFFFF80003FFFFE0000FFFF80003FFFFE0000FFFF0003FFFFFF
310
FFE0003FFFFF8000F000C0003FFFFF8000FFFF800000FFFC000007FFFF80007F
310
80007FFFFF8001F80007FFFFF8000FF8000001FFFE0000007FFFFFF0001FFFFF
310
FF00007FFFFF00007FFF00007FFFFF00007FFF0003FFFFFFFFE0003FFFFFC000
310
F000C0007FFFFFC000FFFF000000FFFC000007FFFF80007F8000FFFFFF8000F8
310
000FFFFFF8000FF8000001FFFE0000007FFFFFF0001FFFFFFF0000FFFFFF8000
310
7FFF0000FFFFFF80007FFF0003FFFFFFFFC0007FFFFFC00070008000FFFFFFC0
310
00FFFF000000FFF8000007FFFF80007F8000FFFFFF8000F8000FFFFFF8000FF8
310
000001FFFE0000007FFFFFF0001FFFFFFE0001FFFFFFC0003FFE0001FFFFFFC0
310
003FFF0003FFFFFFFFC0007FFFFFE00070008000FFFFFFC0007FFF0000007FF8
310
000003FFFF80007F0001FFFFFF8000F8000FFFFFF8000FF8000001FFFE000000
310
7FFFFFF0001FFFFFFE0001FFFFFFC0003FFE0001FFFFFFC0003FFF0003FFFFFF
310
FFC000FFFFFFE00070008000FFFFFFC0007FFF0000007FF8000003FFFF80007F
310
0001FFFFFF8000F8001FFFFFF8000FF8000001FFFE0000007FFFFFF0001FFFFF
310
FE0003FFFFFFE0003FFE0003FFFFFFE0003FFF0003FFFFFFFFC000FFFFFFE000
310
70008000FFFFFFC0007FFE0000007FF8000003FFFF80007F0001FFFFFF8000F0
310
001FFFFFF8000FF8000001FFFE0000007FFFFFF0001FFFFFFC0003FFFFFFE000
310
1FFC0003FFFFFFE0001FFF0003FFFFFFFFC000FFFFFFC00070008000FFFFFF80
310
007FFE0000007FF0000003FFFF80007F0001FFFFFF0000F0001FFFFFF8000FF8
310
000001FFFE0000007FFFFFF0001FFFFFFC0007FFFFFFF0001FFC0007FFFFFFF0
310
001FFF0003FFFFFFFFC000FFFFFFC00070008001FFFFFF0000FFFE0000003FF0
310
000001FFFF80007F0001FFFFFF0000F8001FFFFFF0000FF8000001FFFE000000
310
7FFFFFF0001FFFFFFC0007FFFFFFF0001FFC0007FFFFFFF0001FFF0003FFFFFF
310
FFC001FFFFFF80007000FFFFFFFFFE0000FFFE0008003FF0008001FFFF80007F
310
FFFFFFFFFC0000FFFFFFFFFFE0000FF8000001FFFE0000007FFFFFF0001FFFFF
310
F8000FFFFFFFF8000FF8000FFFFFFFF8000FFF0003FFFFFFFFFFFFFFFFFF0000
310
7000FFFFFFFFFC0000FFFC0008003FF0008001FFFF80007FFFFFFFFFF80001FF
310
FFFFFFFF80000FF8000001FFFE0000007FFFFFF0001FFFFFF8000FFFFFFFF800
310
0FF8000FFFFFFFF8000FFF0003FFFFFFFFFFFFFFFFFE0000F000FFFFFFFFE000
310
00FFFC000C003FE000C001FFFF80007FFFFFFFFFC00001FFFFFFFFFE00001FF8
310
000001FFFE0000007FFFFFF0001FFFFFF8000FFFFFFFF8000FF8000FFFFFFFF8
310
000FFF0003FFFFFFFFFFFFFFFFF00000F000FFFFFFFE000001FFFC000C001FE0
310
00C000FFFF80007FFFFFFFFE000001FFFFFFFFE000001FF80FFFFFFFFFFFFFC0
310
7FFFFFF0001FFFFFF8000FFFFFFFF8000FF8000FFFFFFFF8000FFF0003FFFFFF
310
FFFFFFFFFF800000F000FFFFFFC0000001FFFC001C001FE001C000FFFF80007F
310
FFFFFF80000003FFFFFFF80000001FF80FFFFFFFFFFFFFC07FFFFFF0001FFFFF
310
F8001FFFFFFFFC000FF8001FFFFFFFFC000FFF0003FFFFFFFFFFFFFFF0000001
310
F000FFFFF800000001FFF8001C001FE001C000FFFF80007FFFFFF800000003FF
310
FFFF800000003FF80FFFFFFFFFFFFFC07FFFFFF0001FFFFFF8001FFFFFFFFC00
310
0FF8001FFFFFFFFC000FFF0003FFFFFFFFFFFFFE00000001F000FFFFC0000000
310
03FFF8001E001FC001E000FFFF80007FFFFF8000000007FFFFFC000000003FF8
310
0FFFFFFFFFFFFFC07FFFFFF0001FFFFFF8001FFFFFFFFC000FF8001FFFFFFFFC
310
000FFF0003FFFFFFFFFFFFE000000003F000FFFE0000000007FFF8001E000FC0
310
01E0007FFF80007FFFFE0000000007FFFFE0000000007FF80FFFFFFFFFFFFFC0
310
7FFFFFF0001FFFFFF0001FFFFFFFFC0007F0001FFFFFFFFC0007FF0003FFFFFF
310
FFFFFF0000000003F000FFF80000000007FFF8001E000FC003E0007FFF80007F
310
FFF0000000000FFFFF8000000000FFF80FFFFFFFFFFFFFC07FFFFFF0001FFFFF
310
F0001FFFFFFFFC0007F0001FFFFFFFFC0007FF0003FFFFFFFFFFFC0000000007
310
F000FFE0000000000FFFF0003E000FC003E0007FFF80007FFFC0000000001FFF
310
FE0000000001FFF80FFFFFFFFFFFFFC07FFFFFF0001FFFFFF0001FFFFFFFFC00
310
07F0001FFFFFFFFC0007FF0003FFFFFFFFFFF0000000000FF000FFC000000000
310
1FFFF0003F000F8003F0003FFF80007FFF80000000003FFFF80000000003FFF8
310
0FFFFFFFFFFFFFC07FFFFFF0001FFFFFF0001FFFFFFFFC0007F0001FFFFFFFFC
310
0007FF0003FFFFFFFFFFE0000000001FF000FF00000000007FFFF0003F000780
310
03F0003FFF80007FFF00000000007FFFF00000000007FFF80FFFFFFFFFFFFFC0
310
7FFFFFF0001FFFFFF0001FFFFFFFFC0007F0001FFFFFFFFC0007FF0003FFFFFF
310
FFFF80000000007FF000FE0000000000FFFFE0003F00078007F0003FFF80007F
310
FE0000000001FFFFE0000000001FFFF80FFFFFFFFFFFFFC07FFFFFF0001FFFFF
310
F0001FFFFFFFFC0007F0001FFFFFFFFC0007FF0003FFFFFFFFFF0000000000FF
310
F000FC0000000003FFFFE0007F00078007F0003FFF80007FFC0000000007FFFF
310
C0000000007FFFF80FFFFFFFFFFFFFC07FFFFFF0001FFFFFF8001FFFFFFFFC00
310
0FF8001FFFFFFFFC000FFF0003FFFFFFFFFE0000000003FFF000FC000000000F
310
FFFFE0007F80070007F8001FFF80007FF8000000001FFFFF8000000001FFFFF8
310
0FFFFFFFFFFFFFC07FFFFFF0001FFFFFF8001FFFFFFFFC000FF8001FFFFFFFFC
310
000FFF0003FFFFFFFFFC000000000FFFF000F8000000007FFFFFE0007F800700
310
07F8001FFF80007FF000000000FFFFFF800000000FFFFFF80FFFFFFFFFFFFFC0
310
7FFFFFF0001FFFFFF8000FFFFFFFF8000FF8000FFFFFFFF8000FFF0003FFFFFF
310
FFFC000000007FFFF000F800000007FFFFFFC0007F8003000FF8001FFF80007F
310
F000000007FFFFFF000000007FFFFFF80FFFFFFFFFFFFFC07FFFFFF0001FFFFF
310
F8000FFFFFFFF8000FF8000FFFFFFFF8000FFF0003FFFFFFFFF80000000FFFFF
310
F000F0000000FFFFFFFFC000FF8003000FF8001FFF80007FE0000000FFFFFFFF
310
0000000FFFFFFFF8000001FFFE0000007FFFFFF0001FFFFFF8000FFFFFFFF800
310
0FF8000FFFFFFFF8000FFF0003FFFFFFFFF8000000FFFFFFF000F000000FFFFF
310
FFFFC000FFC002000FF8000FFF80007FE000001FFFFFFFFE000001FFFFFFFFF8
310
000001FFFE0000007FFFFFF0001FFFFFF8000FFFFFFFF8000FF8000FFFFFFFF8
310
000FFF0003FFFFFFFFF000001FFFFFFFF000E00000FFFFFFFFFFC000FFC00200
310
0FFC000FFF80007FE00001FFFFFFFFFE00001FFFFFFFFFF8000001FFFE000000
310
7FFFFFF0001FFFFFFC000FFFFFFFF8001FFC000FFFFFFFF8001FFF0003FFFFFF
310
FFF00001FFFFFFFFF000E00007FFFFFFFFFF8000FFC000001FFC000FFF80007F
310
C0000FFFFFFFFFFE0000FFFFFFFFFFF8000001FFFE0000007FFFFFF0001FFFFF
310
FC0007FFFFFFF0001FFC0007FFFFFFF0001FFF0003FFFFFFFFF00007FFFFFFFF
310
F000E0001FFFFFFFFFFF8000FFC000001FFC000FFF80007FC0003FFFFFFFFFFE
310
0001FFFFFFFFFFF8000001FFFE0000007FFFFFF0001FFFFFFC0007FFFFFFF000
310
1FFC0007FFFFFFF0001FFF0003FFFFFFFFF0001FFFFFFFFFF000E0003FFFFF00
310
03FF8001FFE000001FFC0007FF80007FC0007FFFFF0007FC0003FFFFF0003FF8
310
000001FFFE0000007FFFFFF0001FFFFFFC0003FFFFFFE0001FFC0003FFFFFFE0
310
001FFF0003FFFFFFFFF0003FFFFFFFFFF000E0003FFFFF0001FF8001FFE00000
310
1FFE0007FF80007FC0007FFFFE0003FC0007FFFFE0003FF8000001FFFE000000
310
7FFFFFF0001FFFFFFE0003FFFFFFE0003FFE0003FFFFFFE0003FFF0003FFFFFF
310
FFF0003FFFFF8001F000E0003FFFFF0001FF0001FFE000001FFE0007FF80007F
310
C0007FFFFE0003FC0007FFFFE0003FF8000001FFFE0000007FFFFFF0001FFFFF
310
FE0001FFFFFFC0003FFE0001FFFFFFC0003FFF0003FFFFFFFFF0003FFFFF0001
310
F000E0003FFFFF0003FF0001FFE000003FFE0007FF80007FC0007FFFFE0003FC
310
0007FFFFE0003FF8000001FFFE0000007FFFFFF0001FFFFFFF0001FFFFFFC000
310
7FFF0001FFFFFFC0007FFF0003FFFFFFFFF0003FFFFF0001F000E0003FFFFE00
310
03FF0003FFF000003FFE0003FF80007FC0007FFFFC0003FE0007FFFFE0003FF8
310
000001FFFE0000007FFFFFF0001FFFFFFF0000FFFFFF80007FFF0000FFFFFF80
310
007FFF0003FFFFFFFFF0003FFFFF0001F000E0003FFFFE0003FF0003FFF00000
310
3FFF0003FF80007FC0007FFFFC0007FE0007FFFFC0003FF8000001FFFE000000
310
7FFFFFF0001FFFFFFF80007FFFFF0000FFFF80007FFFFF0000FFFF0003FFFFFF
310
FFF0003FFFFF0003F000E0003FFFFC0003FE0003FFF000003FFF0003FF80007F
310
E0003FFFF80007FE0003FFFFC0007FF8000001FFFE0000007FFFFFF0001FFFFF
310
FF80003FFFFE0000FFFF80003FFFFE0000FFFF0003FFFFFFFFF0001FFFFE0003
310
F000F0001FFFF80003FE0003FFF000007FFF0001FF80007FE0003FFFF00007FE
310
0001FFFF80007FF8000001FFFE0000007FFFFFF0001FFFFFFFC0000FFFF80001
310
FFFFC0000FFFF80001FFFF0003FFFFFFFFF0001FFFFC0003F000F0000FFFF000
310
07FE0007FFF800007FFF0001FF80007FE0001FFFE00007FF0000FFFE00007FF8
310
000001FFFE0000007FFFFFF0001FFFFFFFC00003FFE00001FFFFC00003FFE000
310
01FFFF0003FFFFFFFFF8000FFFF80003F000F00003FFC00007FC0007FFF80000
310
7FFF8001FF80007FF00007FF80000FFF00007FF80000FFF8000001FFFE000000
310
7F80000000000001FFE000003E000003FFFFE000003E000003FFFF0003FFFFFF
310
FFF80003FFE00007F000F800000000000FFC0007FFF800007FFF8001FF80007F
310
F000000000000FFF000000000000FFF8000001FFFE0000007F80000000000001
310
FFF0000000000007FFFFF0000000000007FFFF0003FFFFFFFFFC00007E000007
310
F000F800000000000FFC0007FFF80000FFFF8000FF80007FF800000000001FFF
310
800000000001FFF8000001FFFE0000007F80000000000001FFF800000000000F
310
FFFFF800000000000FFFFF0003FFFFFFFFFC00000000000FF000FC0000000000
310
1FFC0007FFFC0000FFFF8000FF80007FF800000000003FFFC00000000001FFF8
310
000001FFFE0000007F80000000000001FFF800000000000FFFFFF80000000000
310
0FFFFF0003FFFFFFFFFE00000000001FF000FE00000000003FF8000FFFFC0000
310
FFFF8000FF80007FFC00000000003FFFC00000000003FFF8000001FFFE000000
310
7F80000000000001FFFC00000000001FFFFFFC00000000001FFFFF0003FFFFFF
310
FFFF00000000001FF000FF00000000003FF8000FFFFC0000FFFFC000FF80007F
310
FE00000000007FFFE00000000007FFF8000001FFFE0000007F80000000000001
310
FFFE00000000003FFFFFFE00000000003FFFFF0003FFFFFFFFFF80000000003F
310
F000FF80000000007FF8000FFFFC0001FFFFC0007F80007FFF0000000000FFFF
310
F0000000000FFFF800000000000000007F80000000000001FFFF8000000000FF
310
FFFFFF8000000000FFFFFF0003FFFFFFFFFFC0000000007FF000FFC000000000
310
FFF8000FFFFE0001FFFFC0007F80007FFF8000000001FFFFF8000000001FFFF8
310
00000000000000007F80000000000001FFFFC000000001FFFFFFFFC000000001
310
FFFFFF0003FFFFFFFFFFE000000000FFF000FFE000000003FFF0001FFFFE0001
310
FFFFC0007F80007FFFC000000007FFFFFE000000003FFFF80000000000000000
310
7F80000000000001FFFFE000000003FFFFFFFFE000000003FFFFFF0003FFFFFF
310
FFFFF000000003FFF000FFF80000000FFFF0001FFFFE0001FFFFE0007F80007F
310
FFF00000000FFFFFFF00000000FFFFF800000000000000007F80000000000001
310
FFFFF80000000FFFFFFFFFF80000000FFFFFFF0003FFFFFFFFFFFC0000000FFF
310
F000FFFE0000003FFFF0001FFFFE0003FFFFE0003F80007FFFFC0000003FFFFF
310
FFC0000003FFFFF800000000000000007F80000000000001FFFFFE0000003FFF
310
FFFFFFFE0000003FFFFFFF0003FFFFFFFFFFFF0000003FFFF000FFFF800000FF
310
FFF0001FFFFF0003FFFFE0003F80007FFFFF000001FFFFFFFFF800001FFFFFF8
310
00000000000000007F80000000000001FFFFFFC00001FFFFFFFFFFFFC00001FF
310
FFFFFF0003FFFFFFFFFFFFC00000FFFFF000FFFFF8000FFFFFFFFFFFFFFFFFFF
310
FFFFFFFFFFFFFFFFFFFFF0001FFFFFFFFFFF0000FFFFFFF80000000000000000
310
7FFFFFFFFFFFFFFFFFFFFFFC001FFFFFFFFFFFFFFC001FFFFFFFFFFFFFFFFFFF
310
FFFFFFFC001FFFFFF000FFFFFFFFFFFFFFFFFFFFFFFFFFFFFFFFFFFFFFFFFFFF
310
FFFFFFFFFFFFFFFFFFFFFFFFFFFFFFFFFFFFFFFFFFFFFFFFFFFFFFFFFFFFFFFF
310
FFFFFFFFFFFFFFFFFFFFFFFFFFFFFFFFFFFFFFFFFFFFFFFFFFFFFFFFFFFFFFFF
310
F000FFFFFFFFFFFFFFFFFFFFFFFFFFFFFFFFFFFFFFFFFFFFFFFFFFFFFFFFFFFF
310
FFFFFFFFFFFFFFFFFFFFFFFFFFFFFFFFFFFFFFFFFFFFFFFFFFFFFFFFFFFFFFFF
310
FFFFFFFFFFFFFFFFFFFFFFFFFFFFFFFFFFFFFFFFFFFFFFFFF000FFFFFFFFFFFF
310
FFFFFFFFFFFFFFFFFFFFFFFFFFFFFFFFFFFFFFFFFFFFFFFFFFFFFFFFFFFFFFFF
310
FFFFFFFFFFFFFFFFFFFFFFFFFFFFFFFFFFFFFFFFFFFFFFFFFFFFFFFFFFFFFFFF
310
FFFFFFFFFFFFFFFFFFFFFFFFFFFFFFFFF000FFFFFFFFFFFFFFFFFFFFFFFFFFFF
310
FFFFFFFFFFFFFFFFFFFFFFFFFFFFFFFFFFFFFFFFFFFFFFFFFFFFFFFFFFFFFFFF
310
FFFFFFFFFFFFFFFFFFFFFFFFFFFFFFFFFFFFFFFFFFFFFFFFFFFFFFFFFFFFFFFF
310
FFFFFFFFFFFFFFFFF000FFFFFFFFFFFFFFFFFFFFFFFFFFFFFFFFFFFFFFFFFFFF
310
FFFFFFFFFFFFFFFFFFFFFFFFFFFFFFFFFFFFFFFFFFFFFFFFFFFFFFFFFFFFFFFF
310
FFFFFFFFFFFFFFFFFFFFFFFFFFFFFFFFFFFFFFFFFFFFFFFFFFFFFFFFFFFFFFFF
310
F000FFFFFFFFFFFFFFFFFFFFFFFFFFFFFFFFFFFFFFFFFFFFFFFFFFFFFFFFFFFF
310
FFFFFFFFFFFFFFFFFFFFFFFFFFFFFFFFFFFFFFFFFFFFFFFFFFFFFFFFFFFFFFFF
310
FFFFFFFFFFFFFFFFFFFFFFFFFFFFFFFFFFFFFFFFFFFFFFFFF000FFFFFFFFFFFF
310
FFFFFFFFFFFFFFFFFFFFFFFFFFFFFFFFFFFFFFFFFFFFFFFFFFFFFFFFFFFFFFFF
310
FFFFFFFFFFFFFFFFFFFFFFFFFFFFFFFFFFFFFFFFFFFFFFFFFFFFFFFFFFFFFFFF
310
FFFFFFFFFFFFFFFFFFFFFFFFFFFFFFFFF000FFFFFFFFFFFFFFFFFFFFFFFFFFFF
310
FFFFFFFFFFFFFFFFFFFFFFFFFFFFFFFFFFFFFFFFFFFFFFFFFFFFFFFFFFFFFFFF
310
FFFFFFFFFFFFFFFFFFFFFFFFFFFFFFFFFFFFFFFFFFFFFFFFFFFFFFFFFFFFFFFF
310
FFFFFFFFFFFFFFFFF000FFFFFFFFFFFFFFFFFFFFFFFFFFFFFFFFFFFFFFFFFFFF
310
FFFFFFFFFFFFFFFFFFFFFFFFFFFFFFFFFFFFFFFFFFFFFFFFFFFFFFFFFFFFFFFF
310
FFFFFFFFFFFFFFFFFFFFFFFFFFFFFFFFFFFFFFFFFFFFFFFFFFFFFFFFFFFFFFFF
310
F000FFFFFFFFFFFFFFFFFFFFFFFFFFFFFFFFFFFFFFFFFFFFFFFFFFFFFFFFFFFF
310
FFFFFFFFFFFFFFFFFFFFFFFFFFFFFFFFFFFFFFFFFFFFFFFFFFFFFFFFFFFFFFFF
310
FFFFFFFFFFFFFFFFFFFFFFFFFFFFFFFFFFFFFFFFFFFFFFFFF000FFFFFFFFFFFF
310
FFFFFFFFFFFFFFFFFFFFFFFFFFFFFFFFFFFFFFFFFFFFFFFFFFFFFFFFFFFFFFFF
310
FFFFFFFFFFFFFFFFFFFFFFFFFFFFFFFFFFFFFFFFFFFFFFFFFFFFFFFFFFFFFFFF
310
FFFFFFFFFFFFFFFFFFFFFFFFFFFFFFFFF000FFFFFFFFFFFFFFFFFFFFFFFFFFFF
310
FFFFFFFFFFFFFFFFFFFFFFFFFFFFFFFFFFFFFFFFFFFFFFFFFFFFFFFFFFFFFFFF
310
FFFFFFFFFFFFFFFFFFFFFFFFFFFFFFFFFFFFFFFFFFFFFFFFFFFFFFFFFFFFFFFF
310
FFFFFFFFFFFFFFFFF000FFFFFFFFFFFFFFFFFFFFFFFFFFFFFFFFFFFFFFFFFFFF
310
FFFFFFFFFFFFFFFFFFFFFFFFFFFFFFFFFFFFFFFFFFFFFFFFFFFFFFFFFFFFFFFF
310
FFFFFFFFFFFFFFFFFFFFFFFFFFFFFFFFFFFFFFFFFFFFFFFFFFFFFFFFFFFFFFFF
310
F000FFFFFFFFFFFFFFFFFFFFFFFFFFFFFFFFFFFFFFFFFFFFFFFFFFFFFFFFFFFF
310
FFFFFFFFFFFFFFFFFFFFFFFFFFFFFFFFFFFFFFFFFFFFFFFFFFFFFFFFFFFFFFFF
310
FFFFFFFFFFFFFFFFFFFFFFFFFFFFFFFFFFFFFFFFFFFFFFFFF000FFFFFFFFFFFF
310
FFFFFFFFFFFFFFFFFFFFFFFFFFFFFFFFFFFFFFFFFFFFFFFFFFFFFFFFFFFFFFFF
310
FFFFFFFFFFFFFFFFFFFFFFFFFFFFFFFFFFFFFFFFFFFFFFFFFFFFFFFFFFFFFFFF
310
FFFFFFFFFFFFFFFFFFFFFFFFFFFFFFFFF000FFFFFFFFFFFFFFFFFFFFFFFFFFFF
310
FFFFFFFFFFFFFFFFFFFFFFFFFFFFFFFFFFFFFFFFFFFFFFFFFFFFFFFFFFFFFFFF
310
FFFFFFFFFFFFFFFFFFFFFFFFFFFFFFFFFFFFFFFFFFFFFFFFFFFFFFFFFFFFFFFF
310
FFFFFFFFFFFFFFFFF000FFFFFFFFFFFFFFFFFFFFFFFFFFFFFFFFFFFFFFFFFFFF
310
FFFFFFFFFFFFFFFFFFFFFFFFFFFFFFFFFFFFFFFFFFFFFFFFFFFFFFFFFFFFFFFF
310
FFFFFFFFFFFFFFFFFFFFFFFFFFFFFFFFFFFFFFFFFFFFFFFFFFFFFFFFFFFFFFFF
310
F000FFFFFFFFFFFFFFFFFFFFFFFFFFFFFFFFFFFFFFFFFFFFFFFFFFFFFFFFFFFF
310
FFFFFFFFFFFFFFFFFFFFFFFFFFFFFFFFFFFFFFFFFFFFFFFFFFFFFFFFFFFFFFFF
310
FFFFFFFFFFFFFFFFFFFFFFFFFFFFFFFFFFFFFFFFFFFFFFFFF000FFFFFFFFFFFF
310
FFFFFFFFFFFFFFFFFFFFFFFFFFFFFFFFFFFFFFFFFFFFFFFFFFFFFFFFFFFFFFFF
310
FFFFFFFFFFFFFFFFFFFFFFFFFFFFFFFFFFFFFFFFFFFFFFFFFFFFFFFFFFFFFFFF
310
FFFFFFFFFFFFFFFFFFFFFFFFFFFFFFFFF000FFFFFFFFFFFFFFFFFFFFFFFFFFFF
310
FFFFFFFFFFFFFFFFFFFFFFFFFFFFFFFFFFFFFFFFFFFFFFFFFFFFFFFFFFFFFFFF
310
FFFFFFFFFFFFFFFFFFFFFFFFFFFFFFFFFFFFFFFFFFFFFFFFFFFFFFFFFFFFFFFF
310
FFFFFFFFFFFFFFFFF000FFFFFFFFFFFFFFFFFFFFFFFFFFFFFFFFFFFFFFFFFFFF
310
FFFFFFFFFFFFFFFFFFFFFFFFFFFFFFFFFFFFFFFFFFFFFFFFFFFFFFFFFFFFFFFF
310
FFFFFFFFFFFFFFFFFFFFFFFFFFFFFFFFFFFFFFFFFFFFFFFFFFFFFFFFFFFFFFFF
310
F000FFFFFFFFFFFFFFFFFFFFFFFFFFFFFFFFFFFFFFFFFFFFFFFFFFFFFFFFFFFF
310
FFFFFFFFFFFFFFFFFFFFFFFFFFFFFFFFFFFFFFFFFFFFFFFFFFFFFFFFFFFFFFFF
310
FFFFFFFFFFFFFFFFFFFFFFFFFFFFFFFFFFFFFFFFFFFFFFFFF000FFFFFFFFFFFF
310
FFFFFFFFFFFFFFFFFFFFFFFFFFFFFFFFFFFFFFFFFFFFFFFFFFFFFFFFFFFFFFFF
310
FFFFFFFFFFFFFFFFFFFFFFFFFFFFFFFFFFFFFFFFFFFFFFFFFFFFFFFFFFFFFFFF
310
FFFFFFFFFFFFFFFFFFFFFFFFFFFFFFFFF0000000000000000000000000000000
310
0000000000000000000000000000000000000000000000000000000000000000
310
0000000000000000000000000000000000000000000000000000000000000000
310
0000000000000000000000000000000000000000000000000000000000000000
310
0000000000000000000000000000000000000000000000000000000000000000
310
0000000000000000000000000000000000000000000000000000000000000000
310
0000000000000000000000000000000000000000000000000000000000000000
310
0000000000000000000000000000000000000000000000000000000000000000
310
0000000000000000000000000000000000000000000000000000000000000000
310
0000000000000000000000000000000000000000000000000000000000000000
310
0000000000000000000000000000000000000000000000000000000000000000
310
0000000000000000000000000000000000000000000000000000000000000000
310
0000000000000000000000000000000000000000000000000000000000000000
310
0000000000000000000000000000000000000000000000000000000000000000
310
0000000000000000000000000000000000000000000000000000000000000000
310
0000000000000000000000000000000000000000000000000000000000000000
  1
OLE
  0
ENDSEC
  0
SECTION
  2
OBJECTS
  0
DICTIONARY
  5
C
330
0
100
AcDbDictionary
281
     1
  3
ACAD_GROUP
350
D
  3
ACAD_LAYOUT
350
1A
  3
ACAD_MLINESTYLE
350
17
  3
ACAD_PLOTSETTINGS
350
19
  3
ACAD_PLOTSTYLENAME
350
E
  3
ACAD_SCALELIST
350
47
  0
DICTIONARY
  5
D
102
{ACAD_REACTORS
330
C
102
}
330
C
100
AcDbDictionary
281
     1
  0
DICTIONARY
  5
1A
102
{ACAD_REACTORS
330
C
102
}
330
C
100
AcDbDictionary
281
     1
  3
Layout1
350
1E
  3
Layout2
350
26
  3
Model
350
22
  0
DICTIONARY
  5
17
102
{ACAD_REACTORS
330
C
102
}
330
C
100
AcDbDictionary
281
     1
  3
Standard
350
18
  0
DICTIONARY
  5
19
102
{ACAD_REACTORS
330
C
102
}
330
C
100
AcDbDictionary
281
     1
  0
ACDBDICTIONARYWDFLT
  5
E
102
{ACAD_REACTORS
330
C
102
}
330
C
100
AcDbDictionary
281
     1
  3
Normal
350
F
100
AcDbDictionaryWithDefault
340
F
  0
DICTIONARY
  5
47
102
{ACAD_REACTORS
330
C
102
}
330
C
100
AcDbDictionary
281
     1
  3
A0
350
48
  3
A1
350
49
  3
A2
350
4A
  3
A3
350
4B
  3
A4
350
4C
  3
A5
350
4D
  3
A6
350
4E
  3
A7
350
4F
  3
A8
350
50
  3
A9
350
51
  3
B0
350
52
  3
B1
350
53
  3
B2
350
54
  3
B3
350
55
  3
B4
350
56
  3
B5
350
57
  3
B6
350
58
  3
B7
350
59
  3
B8
350
5A
  3
B9
350
5B
  3
C0
350
5C
  3
C1
350
5D
  3
C2
350
5E
  3
C3
350
5F
  3
C4
350
60
  3
C5
350
61
  3
C6
350
62
  3
C7
350
63
  3
C8
350
64
  3
C9
350
65
  3
D0
350
66
  3
D1
350
67
  3
D2
350
68
  0
LAYOUT
  5
1E
102
{ACAD_REACTORS
330
1A
102
}
330
1A
100
AcDbPlotSettings
  1

  2
none_device
  4

  6

 40
0.0
 41
0.0
 42
0.0
 43
0.0
 44
0.0
 45
0.0
 46
0.0
 47
0.0
 48
0.0
 49
0.0
140
0.0
141
0.0
142
1.0
143
1.0
 70
   688
 72
     1
 73
     0
 74
     5
  7

 75
    16
147
1.0
148
0.0
149
0.0
100
AcDbLayout
  1
Layout1
 70
     1
 71
     1
 10
0.0
 20
0.0
 11
420.0
 21
297.0
 12
0.0
 22
0.0
 32
0.0
 14
1.0000000000E+20
 24
1.0000000000E+20
 34
1.0000000000E+20
 15
-1.0000000000E+20
 25
-1.0000000000E+20
 35
-1.0000000000E+20
146
0.0
 13
0.0
 23
0.0
 33
0.0
 16
1.0
 26
0.0
 36
0.0
 17
0.0
 27
1.0
 37
0.0
 76
     0
330
1B
  0
LAYOUT
  5
26
102
{ACAD_REACTORS
330
1A
102
}
330
1A
100
AcDbPlotSettings
  1

  2
none_device
  4

  6

 40
0.0
 41
0.0
 42
0.0
 43
0.0
 44
0.0
 45
0.0
 46
0.0
 47
0.0
 48
0.0
 49
0.0
140
0.0
141
0.0
142
1.0
143
1.0
 70
   688
 72
     1
 73
     0
 74
     5
  7

 75
    16
147
1.0
148
0.0
149
0.0
100
AcDbLayout
  1
Layout2
 70
     1
 71
     2
 10
0.0
 20
0.0
 11
0.0
 21
0.0
 12
0.0
 22
0.0
 32
0.0
 14
0.0
 24
0.0
 34
0.0
 15
0.0
 25
0.0
 35
0.0
146
0.0
 13
0.0
 23
0.0
 33
0.0
 16
1.0
 26
0.0
 36
0.0
 17
0.0
 27
1.0
 37
0.0
 76
     0
330
23
  0
LAYOUT
  5
22
102
{ACAD_REACTORS
330
1A
102
}
330
1A
100
AcDbPlotSettings
  1

  2
none_device
  4
Letter_(8.50_x_11.00_Inches)
  6

 40
6.35
 41
6.35
 42
6.35000508
 43
6.35000508
 44
215.9
 45
279.4
 46
0.0
 47
0.0
 48
0.0
 49
0.0
140
0.0
141
0.0
142
1.0
143
1.0
 70
  1712
 72
     1
 73
     0
 74
     0
  7

 75
     0
147
1.0
148
0.0
149
0.0
100
AcDbLayout
  1
Model
 70
     1
 71
     0
 10
0.0
 20
0.0
 11
297.0
 21
210.0
 12
0.0
 22
0.0
 32
0.0
 14
0.0
 24
0.0
 34
0.0
 15
297.0
 25
210.0
 35
0.0
146
0.0
 13
0.0
 23
0.0
 33
0.0
 16
1.0
 26
0.0
 36
0.0
 17
0.0
 27
1.0
 37
0.0
 76
     0
330
1F
331
29
  0
MLINESTYLE
  5
18
102
{ACAD_REACTORS
330
17
102
}
330
17
100
AcDbMlineStyle
  2
Standard
 70
     0
  3

 62
   256
 51
90.0
 52
90.0
 71
     2
 49
0.5
 62
   256
  6
BYLAYER
 49
-0.5
 62
   256
  6
BYLAYER
  0
ACDBPLACEHOLDER
  5
F
102
{ACAD_REACTORS
330
E
102
}
330
E
  0
SCALE
  5
48
102
{ACAD_REACTORS
330
47
102
}
330
47
100
AcDbScale
 70
     0
300
1:1
140
1.0
141
1.0
290
     1
  0
SCALE
  5
49
102
{ACAD_REACTORS
330
47
102
}
330
47
100
AcDbScale
 70
     0
300
1:2
140
1.0
141
2.0
290
     0
  0
SCALE
  5
4A
102
{ACAD_REACTORS
330
47
102
}
330
47
100
AcDbScale
 70
     0
300
1:4
140
1.0
141
4.0
290
     0
  0
SCALE
  5
4B
102
{ACAD_REACTORS
330
47
102
}
330
47
100
AcDbScale
 70
     0
300
1:5
140
1.0
141
5.0
290
     0
  0
SCALE
  5
4C
102
{ACAD_REACTORS
330
47
102
}
330
47
100
AcDbScale
 70
     0
300
1:8
140
1.0
141
8.0
290
     0
  0
SCALE
  5
4D
102
{ACAD_REACTORS
330
47
102
}
330
47
100
AcDbScale
 70
     0
300
1:10
140
1.0
141
10.0
290
     0
  0
SCALE
  5
4E
102
{ACAD_REACTORS
330
47
102
}
330
47
100
AcDbScale
 70
     0
300
1:16
140
1.0
141
16.0
290
     0
  0
SCALE
  5
4F
102
{ACAD_REACTORS
330
47
102
}
330
47
100
AcDbScale
 70
     0
300
1:20
140
1.0
141
20.0
290
     0
  0
SCALE
  5
50
102
{ACAD_REACTORS
330
47
102
}
330
47
100
AcDbScale
 70
     0
300
1:30
140
1.0
141
30.0
290
     0
  0
SCALE
  5
51
102
{ACAD_REACTORS
330
47
102
}
330
47
100
AcDbScale
 70
     0
300
1:40
140
1.0
141
40.0
290
     0
  0
SCALE
  5
52
102
{ACAD_REACTORS
330
47
102
}
330
47
100
AcDbScale
 70
     0
300
1:50
140
1.0
141
50.0
290
     0
  0
SCALE
  5
53
102
{ACAD_REACTORS
330
47
102
}
330
47
100
AcDbScale
 70
     0
300
1:100
140
1.0
141
100.0
290
     0
  0
SCALE
  5
54
102
{ACAD_REACTORS
330
47
102
}
330
47
100
AcDbScale
 70
     0
300
2:1
140
2.0
141
1.0
290
     0
  0
SCALE
  5
55
102
{ACAD_REACTORS
330
47
102
}
330
47
100
AcDbScale
 70
     0
300
4:1
140
4.0
141
1.0
290
     0
  0
SCALE
  5
56
102
{ACAD_REACTORS
330
47
102
}
330
47
100
AcDbScale
 70
     0
300
8:1
140
8.0
141
1.0
290
     0
  0
SCALE
  5
57
102
{ACAD_REACTORS
330
47
102
}
330
47
100
AcDbScale
 70
     0
300
10:1
140
10.0
141
1.0
290
     0
  0
SCALE
  5
58
102
{ACAD_REACTORS
330
47
102
}
330
47
100
AcDbScale
 70
     0
300
100:1
140
100.0
141
1.0
290
     0
  0
SCALE
  5
59
102
{ACAD_REACTORS
330
47
102
}
330
47
100
AcDbScale
 70
     0
300
1/128" = 1'-0"
140
0.0078125
141
12.0
290
     0
  0
SCALE
  5
5A
102
{ACAD_REACTORS
330
47
102
}
330
47
100
AcDbScale
 70
     0
300
1/64" = 1'-0"
140
0.015625
141
12.0
290
     0
  0
SCALE
  5
5B
102
{ACAD_REACTORS
330
47
102
}
330
47
100
AcDbScale
 70
     0
300
1/32" = 1'-0"
140
0.03125
141
12.0
290
     0
  0
SCALE
  5
5C
102
{ACAD_REACTORS
330
47
102
}
330
47
100
AcDbScale
 70
     0
300
1/16" = 1'-0"
140
0.0625
141
12.0
290
     0
  0
SCALE
  5
5D
102
{ACAD_REACTORS
330
47
102
}
330
47
100
AcDbScale
 70
     0
300
3/32" = 1'-0"
140
0.09375
141
12.0
290
     0
  0
SCALE
  5
5E
102
{ACAD_REACTORS
330
47
102
}
330
47
100
AcDbScale
 70
     0
300
1/8" = 1'-0"
140
0.125
141
12.0
290
     0
  0
SCALE
  5
5F
102
{ACAD_REACTORS
330
47
102
}
330
47
100
AcDbScale
 70
     0
300
3/16" = 1'-0"
140
0.1875
141
12.0
290
     0
  0
SCALE
  5
60
102
{ACAD_REACTORS
330
47
102
}
330
47
100
AcDbScale
 70
     0
300
1/4" = 1'-0"
140
0.25
141
12.0
290
     0
  0
SCALE
  5
61
102
{ACAD_REACTORS
330
47
102
}
330
47
100
AcDbScale
 70
     0
300
3/8" = 1'-0"
140
0.375
141
12.0
290
     0
  0
SCALE
  5
62
102
{ACAD_REACTORS
330
47
102
}
330
47
100
AcDbScale
 70
     0
300
1/2" = 1'-0"
140
0.5
141
12.0
290
     0
  0
SCALE
  5
63
102
{ACAD_REACTORS
330
47
102
}
330
47
100
AcDbScale
 70
     0
300
3/4" = 1'-0"
140
0.75
141
12.0
290
     0
  0
SCALE
  5
64
102
{ACAD_REACTORS
330
47
102
}
330
47
100
AcDbScale
 70
     0
300
1" = 1'-0"
140
1.0
141
12.0
290
     0
  0
SCALE
  5
65
102
{ACAD_REACTORS
330
47
102
}
330
47
100
AcDbScale
 70
     0
300
1-1/2" = 1'-0"
140
1.5
141
12.0
290
     0
  0
SCALE
  5
66
102
{ACAD_REACTORS
330
47
102
}
330
47
100
AcDbScale
 70
     0
300
3" = 1'-0"
140
3.0
141
12.0
290
     0
  0
SCALE
  5
67
102
{ACAD_REACTORS
330
47
102
}
330
47
100
AcDbScale
 70
     0
300
6" = 1'-0"
140
6.0
141
12.0
290
     0
  0
SCALE
  5
68
102
{ACAD_REACTORS
330
47
102
}
330
47
100
AcDbScale
 70
     0
300
1'-0" = 1'-0"
140
12.0
141
12.0
290
     0
  0
ENDSEC
  0
EOF
