  0
SECTION
  2
HEADER
  9
$ACADVER
  1
AC1015
  9
$ACADMAINTVER
 70
     6
  9
$DWGCODEPAGE
  3
ANSI_1252
  9
$INSBASE
 10
0.0
 20
0.0
 30
0.0
  9
$EXTMIN
 10
0.0
 20
0.0
 30
0.0
  9
$EXTMAX
 10
297.0
 20
210.0
 30
0.0
  9
$LIMMIN
 10
0.0
 20
0.0
  9
$LIMMAX
 10
297.0
 20
210.0
  9
$ORTHOMODE
 70
     0
  9
$REGENMODE
 70
     1
  9
$FILLMODE
 70
     1
  9
$QTEXTMODE
 70
     0
  9
$MIRRTEXT
 70
     1
  9
$LTSCALE
 40
1.0
  9
$ATTMODE
 70
     1
  9
$TEXTSIZE
 40
2.0
  9
$TRACEWID
 40
1.0
  9
$TEXTSTYLE
  7
Standard
  9
$CLAYER
  8
0
  9
$CELTYPE
  6
ByLayer
  9
$CECOLOR
 62
   256
  9
$CELTSCALE
 40
1.0
  9
$DISPSILH
 70
     0
  9
$DIMSCALE
 40
1.0
  9
$DIMASZ
 40
3.0
  9
$DIMEXO
 40
0.0
  9
$DIMDLI
 40
3.75
  9
$DIMRND
 40
0.0
  9
$DIMDLE
 40
0.0
  9
$DIMEXE
 40
1.0
  9
$DIMTP
 40
0.0
  9
$DIMTM
 40
0.0
  9
$DIMTXT
 40
2.0
  9
$DIMCEN
 40
2.5
  9
$DIMTSZ
 40
0.0
  9
$DIMTOL
 70
     0
  9
$DIMLIM
 70
     0
  9
$DIMTIH
 70
     1
  9
$DIMTOH
 70
     1
  9
$DIMSE1
 70
     0
  9
$DIMSE2
 70
     0
  9
$DIMTAD
 70
     1
  9
$DIMZIN
 70
     0
  9
$DIMBLK
  1

  9
$DIMASO
 70
     1
  9
$DIMSHO
 70
     1
  9
$DIMPOST
  1

  9
$DIMAPOST
  1

  9
$DIMALT
 70
     0
  9
$DIMALTD
 70
     3
  9
$DIMALTF
 40
0.0393700787
  9
$DIMLFAC
 40
1.0
  9
$DIMTOFL
 70
     1
  9
$DIMTVP
 40
0.0
  9
$DIMTIX
 70
     0
  9
$DIMSOXD
 70
     0
  9
$DIMSAH
 70
     0
  9
$DIMBLK1
  1

  9
$DIMBLK2
  1

  9
$DIMSTYLE
  2
ISO-25
  9
$DIMCLRD
 70
     0
  9
$DIMCLRE
 70
     0
  9
$DIMCLRT
 70
     0
  9
$DIMTFAC
 40
1.0
  9
$DIMGAP
 40
1.524
  9
$DIMJUST
 70
     0
  9
$DIMSD1
 70
     0
  9
$DIMSD2
 70
     0
  9
$DIMTOLJ
 70
     0
  9
$DIMTZIN
 70
     0
  9
$DIMALTZ
 70
     0
  9
$DIMALTTZ
 70
     0
  9
$DIMUPT
 70
     0
  9
$DIMDEC
 70
     2
  9
$DIMTDEC
 70
     3
  9
$DIMALTU
 70
     2
  9
$DIMALTTD
 70
     3
  9
$DIMTXSTY
  7
Standard
  9
$DIMAUNIT
 70
     0
  9
$DIMADEC
 70
     2
  9
$DIMALTRND
 40
0.0
  9
$DIMAZIN
 70
     0
  9
$DIMDSEP
 70
    44
  9
$DIMATFIT
 70
     3
  9
$DIMFRAC
 70
     0
  9
$DIMLDRBLK
  1

  9
$DIMLUNIT
 70
     2
  9
$DIMLWD
 70
    -2
  9
$DIMLWE
 70
    -2
  9
$DIMTMOVE
 70
     0
  9
$LUNITS
 70
     2
  9
$LUPREC
 70
     2
  9
$SKETCHINC
 40
1.0
  9
$FILLETRAD
 40
10.0
  9
$AUNITS
 70
     0
  9
$AUPREC
 70
     2
  9
$MENU
  1
.
  9
$ELEVATION
 40
0.0
  9
$PELEVATION
 40
0.0
  9
$THICKNESS
 40
0.0
  9
$LIMCHECK
 70
     0
  9
$CHAMFERA
 40
0.0
  9
$CHAMFERB
 40
0.0
  9
$CHAMFERC
 40
0.0
  9
$CHAMFERD
 40
0.0
  9
$SKPOLY
 70
     0
  9
$TDCREATE
 40
2457655.344269224
  9
$TDUCREATE
 40
2457655.260935891
  9
$TDUPDATE
 40
2457655.344270405
  9
$TDUUPDATE
 40
2457655.260937072
  9
$TDINDWG
 40
0.0000000116
  9
$TDUSRTIMER
 40
0.0000000116
  9
$USRTIMER
 70
     1
  9
$ANGBASE
 50
0.0
  9
$ANGDIR
 70
     0
  9
$PDMODE
 70
     0
  9
$PDSIZE
 40
-1.0
  9
$PLINEWID
 40
0.0
  9
$SPLFRAME
 70
     0
  9
$SPLINETYPE
 70
     6
  9
$SPLINESEGS
 70
     8
  9
$HANDSEED
  5
200
  9
$SURFTAB1
 70
     6
  9
$SURFTAB2
 70
     6
  9
$SURFTYPE
 70
     6
  9
$SURFU
 70
     6
  9
$SURFV
 70
     6
  9
$UCSBASE
  2

  9
$UCSNAME
  2

  9
$UCSORG
 10
0.0
 20
0.0
 30
0.0
  9
$UCSXDIR
 10
1.0
 20
0.0
 30
0.0
  9
$UCSYDIR
 10
0.0
 20
1.0
 30
0.0
  9
$UCSORTHOREF
  2

  9
$UCSORTHOVIEW
 70
     0
  9
$UCSORGTOP
 10
0.0
 20
0.0
 30
0.0
  9
$UCSORGBOTTOM
 10
0.0
 20
0.0
 30
0.0
  9
$UCSORGLEFT
 10
0.0
 20
0.0
 30
0.0
  9
$UCSORGRIGHT
 10
0.0
 20
0.0
 30
0.0
  9
$UCSORGFRONT
 10
0.0
 20
0.0
 30
0.0
  9
$UCSORGBACK
 10
0.0
 20
0.0
 30
0.0
  9
$PUCSBASE
  2

  9
$PUCSNAME
  2

  9
$PUCSORG
 10
0.0
 20
0.0
 30
0.0
  9
$PUCSXDIR
 10
1.0
 20
0.0
 30
0.0
  9
$PUCSYDIR
 10
0.0
 20
1.0
 30
0.0
  9
$PUCSORTHOREF
  2

  9
$PUCSORTHOVIEW
 70
     0
  9
$PUCSORGTOP
 10
0.0
 20
0.0
 30
0.0
  9
$PUCSORGBOTTOM
 10
0.0
 20
0.0
 30
0.0
  9
$PUCSORGLEFT
 10
0.0
 20
0.0
 30
0.0
  9
$PUCSORGRIGHT
 10
0.0
 20
0.0
 30
0.0
  9
$PUCSORGFRONT
 10
0.0
 20
0.0
 30
0.0
  9
$PUCSORGBACK
 10
0.0
 20
0.0
 30
0.0
  9
$USERI1
 70
     0
  9
$USERI2
 70
     0
  9
$USERI3
 70
     0
  9
$USERI4
 70
     0
  9
$USERI5
 70
     0
  9
$USERR1
 40
0.0
  9
$USERR2
 40
0.0
  9
$USERR3
 40
0.0
  9
$USERR4
 40
0.0
  9
$USERR5
 40
0.0
  9
$WORLDVIEW
 70
     1
  9
$SHADEDGE
 70
     3
  9
$SHADEDIF
 70
    70
  9
$TILEMODE
 70
     1
  9
$MAXACTVP
 70
    64
  9
$PINSBASE
 10
0.0
 20
0.0
 30
0.0
  9
$PLIMCHECK
 70
     0
  9
$PEXTMIN
 10
1.0000000000E+20
 20
1.0000000000E+20
 30
1.0000000000E+20
  9
$PEXTMAX
 10
-1.0000000000E+20
 20
-1.0000000000E+20
 30
-1.0000000000E+20
  9
$PLIMMIN
 10
0.0
 20
0.0
  9
$PLIMMAX
 10
420.0
 20
297.0
  9
$UNITMODE
 70
     0
  9
$VISRETAIN
 70
     1
  9
$PLINEGEN
 70
     0
  9
$PSLTSCALE
 70
     1
  9
$TREEDEPTH
 70
  3020
  9
$CMLSTYLE
  2
Standard
  9
$CMLJUST
 70
     0
  9
$CMLSCALE
 40
20.0
  9
$PROXYGRAPHICS
 70
     1
  9
$MEASUREMENT
 70
     1
  9
$CELWEIGHT
370
    -1
  9
$ENDCAPS
280
     0
  9
$JOINSTYLE
280
     0
  9
$LWDISPLAY
290
     1
  9
$INSUNITS
 70
     4
  9
$HYPERLINKBASE
  1

  9
$STYLESHEET
  1

  9
$XEDIT
290
     1
  9
$CEPSNTYPE
380
     0
  9
$PSTYLEMODE
290
     1
  9
$FINGERPRINTGUID
  2
{C8CCFF7E-2079-4A77-9FBB-DB9F7222E1B9}
  9
$VERSIONGUID
  2
{FAEB1C32-E019-11D5-929B-00C0DF256EC4}
  9
$EXTNAMES
290
     1
  9
$PSVPSCALE
 40
0.0
  9
$OLESTARTUP
290
     0
  0
ENDSEC
  0
SECTION
  2
CLASSES
  0
CLASS
  1
ACDBDICTIONARYWDFLT
  2
AcDbDictionaryWithDefault
  3
ObjectDBX Classes
 90
        0
280
     0
281
     0
  0
CLASS
  1
VISUALSTYLE
  2
AcDbVisualStyle
  3
ObjectDBX Classes
 90
     4095
280
     0
281
     0
  0
CLASS
  1
MATERIAL
  2
AcDbMaterial
  3
ObjectDBX Classes
 90
     1153
280
     0
281
     0
  0
CLASS
  1
SCALE
  2
AcDbScale
  3
ObjectDBX Classes
 90
     1153
280
     0
281
     0
  0
CLASS
  1
TABLESTYLE
  2
AcDbTableStyle
  3
ObjectDBX Classes
 90
     4095
280
     0
281
     0
  0
CLASS
  1
MLEADERSTYLE
  2
AcDbMLeaderStyle
  3
ACDB_MLEADERSTYLE_CLASS
 90
     4095
280
     0
281
     0
  0
CLASS
  1
SUN
  2
AcDbSun
  3
SCENEOE
 90
     1153
280
     0
281
     0
  0
CLASS
  1
ACDBPLACEHOLDER
  2
AcDbPlaceHolder
  3
ObjectDBX Classes
 90
        0
280
     0
281
     0
  0
CLASS
  1
LAYOUT
  2
AcDbLayout
  3
ObjectDBX Classes
 90
        0
280
     0
281
     0
  0
ENDSEC
  0
SECTION
  2
TABLES
  0
TABLE
  2
VPORT
  5
8
330
0
100
AcDbSymbolTable
 70
     1
  0
VPORT
  5
29
330
8
100
AcDbSymbolTableRecord
100
AcDbViewportTableRecord
  2
*Active
 70
     0
 10
0.0
 20
0.0
 11
1.0
 21
1.0
 12
148.5
 22
105.0
 13
0.0
 23
0.0
 14
10.0
 24
10.0
 15
10.0
 25
10.0
 16
0.0
 26
0.0
 36
1.0
 17
0.0
 27
0.0
 37
0.0
 40
210.0
 41
1.4142857143
 42
50.0
 43
0.0
 44
0.0
 50
0.0
 51
0.0
 71
     0
 72
  2000
 73
     1
 74
     3
 75
     0
 76
     0
 77
     0
 78
     0
281
     0
 65
     1
110
0.0
120
0.0
130
0.0
111
1.0
121
0.0
131
0.0
112
0.0
122
1.0
132
0.0
 79
     0
146
0.0
  0
ENDTAB
  0
TABLE
  2
LTYPE
  5
5
330
0
100
AcDbSymbolTable
 70
     6
  0
LTYPE
  5
14
330
5
100
AcDbSymbolTableRecord
100
AcDbLinetypeTableRecord
  2
ByBlock
 70
     0
  3

 72
    65
 73
     0
 40
0.0
  0
LTYPE
  5
15
330
5
100
AcDbSymbolTableRecord
100
AcDbLinetypeTableRecord
  2
ByLayer
 70
     0
  3

 72
    65
 73
     0
 40
0.0
  0
LTYPE
  5
16
330
5
100
AcDbSymbolTableRecord
100
AcDbLinetypeTableRecord
  2
Continuous
 70
     0
  3
Solid line
 72
    65
 73
     0
 40
0.0
  0
LTYPE
  5
6E
330
5
100
AcDbSymbolTableRecord
100
AcDbLinetypeTableRecord
  2
HIDDEN
 70
     0
  3
Hidden __ __ __ __ __ __ __ __ __ __ __ __ __ __
 72
    65
 73
     2
 40
1.905
 49
1.27
 74
     0
 49
-0.635
 74
     0
  0
LTYPE
  5
6F
330
5
100
AcDbSymbolTableRecord
100
AcDbLinetypeTableRecord
  2
PHANTOM
 70
     0
  3
Phantom ______  __  __  ______  __  __  ______
 72
    65
 73
     6
 40
12.7
 49
6.35
 74
     0
 49
-1.27
 74
     0
 49
1.27
 74
     0
 49
-1.27
 74
     0
 49
1.27
 74
     0
 49
-1.27
 74
     0
  0
LTYPE
  5
70
330
5
100
AcDbSymbolTableRecord
100
AcDbLinetypeTableRecord
  2
CENTER
 70
     0
  3
Center ____ _ ____ _ ____ _ ____ _ ____ _ ____
 72
    65
 73
     4
 40
10.16
 49
6.35
 74
     0
 49
-1.27
 74
     0
 49
1.27
 74
     0
 49
-1.27
 74
     0
  0
LTYPE
  5
71
330
5
100
AcDbSymbolTableRecord
100
AcDbLinetypeTableRecord
  2
CENTERX2
 70
     0
  3
Center (2x) ________  __  ________  __  _____
 72
    65
 73
     4
 40
20.32
 49
12.7
 74
     0
 49
-2.54
 74
     0
 49
2.54
 74
     0
 49
-2.54
 74
     0
  0
LTYPE
  5
72
330
5
100
AcDbSymbolTableRecord
100
AcDbLinetypeTableRecord
  2
DOT2
 70
     0
  3
Dot (.5x) ........................................
 72
    65
 73
     2
 40
0.635
 49
0.0
 74
     0
 49
-0.635
 74
     0
  0
ENDTAB
  0
TABLE
  2
LAYER
  5
2
330
0
100
AcDbSymbolTable
 70
     5
  0
LAYER
  5
10
330
2
100
AcDbSymbolTableRecord
100
AcDbLayerTableRecord
  2
0
 70
     0
 62
     7
  6
Continuous
370
    -3
390
F
  0
LAYER
  5
73
330
2
100
AcDbSymbolTableRecord
100
AcDbLayerTableRecord
  2
FORMAT
 70
     0
 62
     7
  6
Continuous
370
    -3
390
F
  0
LAYER
  5
74
330
2
100
AcDbSymbolTableRecord
100
AcDbLayerTableRecord
  2
VERMASSUNG
 70
     0
 62
     7
  6
Continuous
370
    -3
390
F
  0
LAYER
  5
75
330
2
100
AcDbSymbolTableRecord
100
AcDbLayerTableRecord
  2
KOPF_DÜNN
 70
     0
 62
     7
  6
Continuous
370
    -3
390
F
  0
LAYER
  5
76
330
2
100
AcDbSymbolTableRecord
100
AcDbLayerTableRecord
  2
KOPF_DICK
 70
     0
 62
     7
  6
Continuous
370
    15
390
F
  0
ENDTAB
  0
TABLE
  2
STYLE
  5
3
330
0
100
AcDbSymbolTable
 70
     3
  0
STYLE
  5
11
330
3
100
AcDbSymbolTableRecord
100
AcDbTextStyleTableRecord
  2
Standard
 70
     0
 40
0.0
 41
1.0
 50
0.0
 71
     0
 42
2.0
  3
txt
  4

  0
STYLE
  5
77
330
3
100
AcDbSymbolTableRecord
100
AcDbTextStyleTableRecord
  2
SLDTEXTSTYLE0
 70
     0
 40
0.0
 41
0.7
 50
0.0
 71
     0
 42
2.0
  3
TXT
  4

  0
STYLE
  5
7B
330
3
100
AcDbSymbolTableRecord
100
AcDbTextStyleTableRecord
  2
SLDTEXTSTYLE1
 70
     0
 40
0.0
 41
0.6444444444
 50
0.0
 71
     0
 42
2.0
  3
TXT
  4

  0
ENDTAB
  0
TABLE
  2
VIEW
  5
6
330
0
100
AcDbSymbolTable
 70
     0
  0
ENDTAB
  0
TABLE
  2
UCS
  5
7
330
0
100
AcDbSymbolTable
 70
     0
  0
ENDTAB
  0
TABLE
  2
APPID
  5
9
330
0
100
AcDbSymbolTable
 70
     1
  0
APPID
  5
12
330
9
100
AcDbSymbolTableRecord
100
AcDbRegAppTableRecord
  2
ACAD
 70
     0
  0
ENDTAB
  0
TABLE
  2
DIMSTYLE
  5
A
330
0
100
AcDbSymbolTable
 70
     2
100
AcDbDimStyleTable
  0
DIMSTYLE
105
27
330
A
100
AcDbSymbolTableRecord
100
AcDbDimStyleTableRecord
  2
ISO-25
 70
     0
 41
2.5
 42
0.625
 43
3.75
 44
1.25
 73
     0
 74
     0
 77
     1
 78
     8
140
2.5
141
2.5
143
0.0393700787
147
0.625
171
     3
172
     1
178
     0
271
     2
272
     2
274
     3
278
    44
283
     0
284
     8
340
11
  0
DIMSTYLE
105
131
102
{ACAD_REACTORS
330
130
330
13D
330
147
330
151
330
15B
102
}
330
A
100
AcDbSymbolTableRecord
100
AcDbDimStyleTableRecord
  2
SLDDIMSTYLE0
 70
     0
 41
3.0
 44
0.0
 45
0.000000001
 73
     0
 74
     0
 77
     1
 78
    12
 79
     3
140
2.0
147
0.5
173
     1
178
     0
271
     2
272
     3
276
     2
284
    12
340
77
  0
ENDTAB
  0
TABLE
  2
BLOCK_RECORD
  5
1
330
0
100
AcDbSymbolTable
 70
     6
  0
BLOCK_RECORD
  5
1F
330
1
100
AcDbSymbolTableRecord
100
AcDbBlockTableRecord
  2
*Model_Space
340
22
  0
BLOCK_RECORD
  5
1B
330
1
100
AcDbSymbolTableRecord
100
AcDbBlockTableRecord
  2
*Paper_Space
340
1E
  0
BLOCK_RECORD
  5
23
330
1
100
AcDbSymbolTableRecord
100
AcDbBlockTableRecord
  2
*Paper_Space0
340
26
  0
BLOCK_RECORD
  5
132
330
1
100
AcDbSymbolTableRecord
100
AcDbBlockTableRecord
  2
_D
340
0
  0
BLOCK_RECORD
  5
13E
330
1
100
AcDbSymbolTableRecord
100
AcDbBlockTableRecord
  2
_D_1
340
0
  0
BLOCK_RECORD
  5
148
330
1
100
AcDbSymbolTableRecord
100
AcDbBlockTableRecord
  2
_D_2
340
0
  0
BLOCK_RECORD
  5
152
330
1
100
AcDbSymbolTableRecord
100
AcDbBlockTableRecord
  2
_D_3
340
0
  0
BLOCK_RECORD
  5
15C
330
1
100
AcDbSymbolTableRecord
100
AcDbBlockTableRecord
  2
_D_4
340
0
  0
ENDTAB
  0
ENDSEC
  0
SECTION
  2
BLOCKS
  0
BLOCK
  5
20
330
1F
100
AcDbEntity
  8
0
100
AcDbBlockBegin
  2
*Model_Space
 70
     0
 10
0.0
 20
0.0
 30
0.0
  3
*Model_Space
  1

  0
ENDBLK
  5
21
330
1F
100
AcDbEntity
  8
0
100
AcDbBlockEnd
  0
BLOCK
  5
1C
330
1B
100
AcDbEntity
 67
     1
  8
0
100
AcDbBlockBegin
  2
*Paper_Space
 70
     0
 10
0.0
 20
0.0
 30
0.0
  3
*Paper_Space
  1

  0
ENDBLK
  5
1D
330
1B
100
AcDbEntity
 67
     1
  8
0
100
AcDbBlockEnd
  0
BLOCK
  5
24
330
23
100
AcDbEntity
  8
0
100
AcDbBlockBegin
  2
*Paper_Space0
 70
     0
 10
0.0
 20
0.0
 30
0.0
  3
*Paper_Space0
  1

  0
ENDBLK
  5
25
330
23
100
AcDbEntity
  8
0
100
AcDbBlockEnd
  0
BLOCK
  5
133
330
132
100
AcDbEntity
  8
0
100
AcDbBlockBegin
  2
_D
 70
     0
 10
0.0
 20
0.0
 30
0.0
  3
_D
  1

  0
SOLID
  5
135
330
132
100
AcDbEntity
  8
VERMASSUNG
100
AcDbTrace
 10
99.9841414544
 20
134.7631101111
 30
0.0
 11
99.5341414544
 21
131.7631101111
 31
0.0
 12
100.4341414544
 22
131.7631101111
 32
0.0
 13
100.4341414544
 23
131.7631101111
 33
0.0
  0
SOLID
  5
136
330
132
100
AcDbEntity
  8
VERMASSUNG
100
AcDbTrace
 10
99.9841414544
 20
88.7631101111
 30
0.0
 11
100.4341414544
 21
91.7631101111
 31
0.0
 12
99.5341414544
 22
91.7631101111
 32
0.0
 13
99.5341414544
 23
91.7631101111
 33
0.0
  0
LINE
  5
137
330
132
100
AcDbEntity
  8
VERMASSUNG
100
AcDbLine
 10
174.0142353044
 20
134.7631101111
 30
0.0
 11
98.9841414544
 21
134.7631101111
 31
0.0
  0
LINE
  5
138
330
132
100
AcDbEntity
  8
VERMASSUNG
100
AcDbLine
 10
174.0142353357
 20
88.7631101111
 30
0.0
 11
98.9841414544
 21
88.7631101111
 31
0.0
  0
LINE
  5
139
330
132
100
AcDbEntity
  8
VERMASSUNG
100
AcDbLine
 10
99.9841414544
 20
134.7631101111
 30
0.0
 11
99.9841414544
 21
88.7631101111
 31
0.0
  0
MTEXT
  5
13A
330
132
100
AcDbEntity
  8
VERMASSUNG
100
AcDbMText
 10
97.2060061982
 20
101.0597280308
 30
0.0
 40
2.0
 41
0.0
 71
     1
 72
     1
  1
MAS BT 30
  7
SLDTEXTSTYLE0
 11
-7.044195017643634E-15
 21
1.0
 31
0.0
 73
     1
 44
1.0
  0
MTEXT
  5
13B
330
132
100
AcDbEntity
  8
VERMASSUNG
100
AcDbMText
 10
97.4060061494
 20
115.8597280352
 30
0.0
 40
2.0
 41
0.0
 71
     1
 72
     1
  1
%%c
  7
SLDTEXTSTYLE0
 11
-7.044195017643634E-15
 21
1.0
 31
0.0
 73
     1
 44
1.0
  0
MTEXT
  5
13C
330
132
100
AcDbEntity
  8
VERMASSUNG
100
AcDbMText
 10
97.4060058584
 20
119.4685745807
 30
0.0
 40
2.0
 41
0.0
 71
     1
 72
     1
  1
46
  7
SLDTEXTSTYLE0
 11
-7.044195017643634E-15
 21
1.0
 31
0.0
 73
     1
 44
1.0
  0
ENDBLK
  5
134
330
132
100
AcDbEntity
  8
0
100
AcDbBlockEnd
  0
BLOCK
  5
13F
330
13E
100
AcDbEntity
  8
0
100
AcDbBlockBegin
  2
_D_1
 70
     0
 10
0.0
 20
0.0
 30
0.0
  3
_D_1
  1

  0
SOLID
  5
141
330
13E
100
AcDbEntity
  8
VERMASSUNG
100
AcDbTrace
 10
176.0142367466
 20
137.9201011818
 30
0.0
 11
179.0142367466
 21
137.4701011818
 31
0.0
 12
179.0142367466
 22
138.3701011818
 32
0.0
 13
179.0142367466
 23
138.3701011818
 33
0.0
  0
SOLID
  5
142
330
13E
100
AcDbEntity
  8
VERMASSUNG
100
AcDbTrace
 10
196.0142367466
 20
137.9201011818
 30
0.0
 11
193.0142367466
 21
138.3701011818
 31
0.0
 12
193.0142367466
 22
137.4701011818
 32
0.0
 13
193.0142367466
 23
137.4701011818
 33
0.0
  0
LINE
  5
143
330
13E
100
AcDbEntity
  8
VERMASSUNG
100
AcDbLine
 10
176.0142367466
 20
134.7631101111
 30
0.0
 11
176.0142367466
 21
138.9201011818
 31
0.0
  0
LINE
  5
144
330
13E
100
AcDbEntity
  8
VERMASSUNG
100
AcDbLine
 10
196.0142367466
 20
127.4631101111
 30
0.0
 11
196.0142367466
 21
138.9201011818
 31
0.0
  0
LINE
  5
145
330
13E
100
AcDbEntity
  8
VERMASSUNG
100
AcDbLine
 10
176.0142367466
 20
137.9201011818
 30
0.0
 11
196.0142367466
 21
137.9201011818
 31
0.0
  0
MTEXT
  5
146
330
13E
100
AcDbEntity
  8
VERMASSUNG
100
AcDbMText
 10
184.6145467363
 20
140.4982367777
 30
0.0
 40
2.0
 41
0.0
 71
     1
 72
     1
  1
20
  7
SLDTEXTSTYLE0
 73
     1
 44
1.0
  0
ENDBLK
  5
140
330
13E
100
AcDbEntity
  8
0
100
AcDbBlockEnd
  0
BLOCK
  5
149
330
148
100
AcDbEntity
  8
0
100
AcDbBlockBegin
  2
_D_2
 70
     0
 10
0.0
 20
0.0
 30
0.0
  3
_D_2
  1

  0
SOLID
  5
14B
330
148
100
AcDbEntity
  8
VERMASSUNG
100
AcDbTrace
 10
154.0142367466
 20
143.9201011818
 30
0.0
 11
157.0142367466
 21
143.4701011818
 31
0.0
 12
157.0142367466
 22
144.3701011818
 32
0.0
 13
157.0142367466
 23
144.3701011818
 33
0.0
  0
SOLID
  5
14C
330
148
100
AcDbEntity
  8
VERMASSUNG
100
AcDbTrace
 10
196.0142367466
 20
143.9201011818
 30
0.0
 11
193.0142367466
 21
144.3701011818
 31
0.0
 12
193.0142367466
 22
143.4701011818
 32
0.0
 13
193.0142367466
 23
143.4701011818
 33
0.0
  0
LINE
  5
14D
330
148
100
AcDbEntity
  8
VERMASSUNG
100
AcDbLine
 10
154.0142367466
 20
127.6381101111
 30
0.0
 11
154.0142367466
 21
144.9201011818
 31
0.0
  0
LINE
  5
14E
330
148
100
AcDbEntity
  8
VERMASSUNG
100
AcDbLine
 10
196.0142367466
 20
127.4631101111
 30
0.0
 11
196.0142367466
 21
144.9201011818
 31
0.0
  0
LINE
  5
14F
330
148
100
AcDbEntity
  8
VERMASSUNG
100
AcDbLine
 10
154.0142367466
 20
143.9201011818
 30
0.0
 11
196.0142367466
 21
143.9201011818
 31
0.0
  0
MTEXT
  5
150
330
148
100
AcDbEntity
  8
VERMASSUNG
100
AcDbMText
 10
173.5152779412
 20
146.4982367777
 30
0.0
 40
2.0
 41
0.0
 71
     1
 72
     1
  1
42
  7
SLDTEXTSTYLE0
 73
     1
 44
1.0
  0
ENDBLK
  5
14A
330
148
100
AcDbEntity
  8
0
100
AcDbBlockEnd
  0
BLOCK
  5
153
330
152
100
AcDbEntity
  8
0
100
AcDbBlockBegin
  2
_D_3
 70
     0
 10
0.0
 20
0.0
 30
0.0
  3
_D_3
  1

  0
SOLID
  5
155
330
152
100
AcDbEntity
  8
VERMASSUNG
100
AcDbTrace
 10
105.6142367466
 20
149.9201011818
 30
0.0
 11
108.6142367466
 21
149.4701011818
 31
0.0
 12
108.6142367466
 22
150.3701011818
 32
0.0
 13
108.6142367466
 23
150.3701011818
 33
0.0
  0
SOLID
  5
156
330
152
100
AcDbEntity
  8
VERMASSUNG
100
AcDbTrace
 10
196.0142367466
 20
149.9201011818
 30
0.0
 11
193.0142367466
 21
150.3701011818
 31
0.0
 12
193.0142367466
 22
149.4701011818
 32
0.0
 13
193.0142367466
 23
149.4701011818
 33
0.0
  0
LINE
  5
157
330
152
100
AcDbEntity
  8
VERMASSUNG
100
AcDbLine
 10
105.6142367466
 20
120.1474045763
 30
0.0
 11
105.6142367466
 21
150.9201011818
 31
0.0
  0
LINE
  5
158
330
152
100
AcDbEntity
  8
VERMASSUNG
100
AcDbLine
 10
196.0142367466
 20
127.4631101111
 30
0.0
 11
196.0142367466
 21
150.9201011818
 31
0.0
  0
LINE
  5
159
330
152
100
AcDbEntity
  8
VERMASSUNG
100
AcDbLine
 10
105.6142367466
 20
149.9201011818
 30
0.0
 11
196.0142367466
 21
149.9201011818
 31
0.0
  0
MTEXT
  5
15A
330
152
100
AcDbEntity
  8
VERMASSUNG
100
AcDbMText
 10
148.3148690843
 20
152.4982367777
 30
0.0
 40
2.0
 41
0.0
 71
     1
 72
     1
  1
90.4
  7
SLDTEXTSTYLE0
 73
     1
 44
1.0
  0
ENDBLK
  5
154
330
152
100
AcDbEntity
  8
0
100
AcDbBlockEnd
  0
BLOCK
  5
15D
330
15C
100
AcDbEntity
  8
0
100
AcDbBlockBegin
  2
_D_4
 70
     0
 10
0.0
 20
0.0
 30
0.0
  3
_D_4
  1

  0
SOLID
  5
15F
330
15C
100
AcDbEntity
  8
VERMASSUNG
100
AcDbTrace
 10
202.103247255
 20
127.7631101111
 30
0.0
 11
201.653247255
 21
124.7631101111
 31
0.0
 12
202.553247255
 22
124.7631101111
 32
0.0
 13
202.553247255
 23
124.7631101111
 33
0.0
  0
SOLID
  5
160
330
15C
100
AcDbEntity
  8
VERMASSUNG
100
AcDbTrace
 10
202.103247255
 20
95.7631101111
 30
0.0
 11
202.553247255
 21
98.7631101111
 31
0.0
 12
201.653247255
 22
98.7631101111
 32
0.0
 13
201.653247255
 23
98.7631101111
 33
0.0
  0
LINE
  5
161
330
15C
100
AcDbEntity
  8
VERMASSUNG
100
AcDbLine
 10
195.7142367466
 20
127.7631101111
 30
0.0
 11
203.103247255
 21
127.7631101111
 31
0.0
  0
LINE
  5
162
330
15C
100
AcDbEntity
  8
VERMASSUNG
100
AcDbLine
 10
195.7142367466
 20
95.7631101111
 30
0.0
 11
203.103247255
 21
95.7631101111
 31
0.0
  0
LINE
  5
163
330
15C
100
AcDbEntity
  8
VERMASSUNG
100
AcDbLine
 10
202.103247255
 20
127.7631101111
 30
0.0
 11
202.103247255
 21
95.7631101111
 31
0.0
  0
MTEXT
  5
164
330
15C
100
AcDbEntity
  8
VERMASSUNG
100
AcDbMText
 10
199.3251119988
 20
105.3581104675
 30
0.0
 40
2.0
 41
0.0
 71
     1
 72
     1
  1
MBM
  7
SLDTEXTSTYLE0
 11
-7.044195017643634E-15
 21
1.0
 31
0.0
 73
     1
 44
1.0
  0
MTEXT
  5
165
330
15C
100
AcDbEntity
  8
VERMASSUNG
100
AcDbMText
 10
199.5251119501
 20
111.7581103058
 30
0.0
 40
2.0
 41
0.0
 71
     1
 72
     1
  1
%%c
  7
SLDTEXTSTYLE0
 11
-7.044195017643634E-15
 21
1.0
 31
0.0
 73
     1
 44
1.0
  0
MTEXT
  5
166
330
15C
100
AcDbEntity
  8
VERMASSUNG
100
AcDbMText
 10
199.3251119988
 20
115.3681107858
 30
0.0
 40
2.0
 41
0.0
 71
     1
 72
     1
  1
32
  7
SLDTEXTSTYLE0
 11
-7.044195017643634E-15
 21
1.0
 31
0.0
 73
     1
 44
1.0
  0
ENDBLK
  5
15E
330
15C
100
AcDbEntity
  8
0
100
AcDbBlockEnd
  0
ENDSEC
  0
SECTION
  2
ENTITIES
  0
MTEXT
  5
78
330
1F
100
AcDbEntity
  8
KOPF_DÜNN
100
AcDbMText
 10
13.8892156294
 20
23.8442973028
 30
0.0
 40
3.0
 41
0.0
 71
     1
 72
     1
  1
102.312.321
  7
SLDTEXTSTYLE0
 73
     1
 44
1.0
  0
MTEXT
  5
79
330
1F
100
AcDbEntity
  8
VERMASSUNG
100
AcDbMText
 10
13.9329988022
 20
28.8834360957
 30
0.0
 40
3.0
 41
0.0
 71
     1
 72
     1
  1
Aufnahme_Master shank MBM 32
  7
SLDTEXTSTYLE0
 73
     1
 44
1.0
  0
MTEXT
  5
7A
330
1F
100
AcDbEntity
  8
VERMASSUNG
100
AcDbMText
 10
98.8601118557
 20
13.8365368761
 30
0.0
 40
2.0
 41
0.0
 71
     1
 72
     1
  1
Datum: 21.11.2007
  7
SLDTEXTSTYLE0
 73
     1
 44
1.0
  0
MTEXT
  5
7C
330
1F
100
AcDbEntity
  8
VERMASSUNG
100
AcDbMText
 10
13.933048693
 20
18.0482802738
 30
0.0
 40
2.0
 41
0.0
 71
     1
 72
     1
  1
MAS BT 30 / MBM 32
  7
SLDTEXTSTYLE1
 73
     1
 44
1.0
  0
MTEXT
  5
7D
330
1F
100
AcDbEntity
  8
VERMASSUNG
100
AcDbMText
 10
13.9808475933
 20
13.9090974274
 30
0.0
 40
2.0
 41
0.0
 71
     1
 72
     1
  1
Gewicht: 461g
  7
SLDTEXTSTYLE0
 73
     1
 44
1.0
  0
LINE
  5
7E
330
1F
100
AcDbEntity
  8
0
  6
Continuous
 62
     7
370
    15
100
AcDbLine
 10
174.0141955148
 20
88.7631101111
 30
0.0
 11
176.0142367466
 21
88.7631101111
 31
0.0
  0
LINE
  5
7F
330
1F
100
AcDbEntity
  8
0
  6
Continuous
 62
     7
370
    15
100
AcDbLine
 10
176.0142367466
 20
134.7631101111
 30
0.0
 11
174.0141349647
 21
134.7631101111
 31
0.0
  0
ARC
  5
80
330
1F
100
AcDbEntity
  8
0
  6
Continuous
 62
     7
370
    15
100
AcDbCircle
 10
179.0142367466
 20
92.7631101111
 30
0.0
 40
3.000000000000014
100
AcDbArc
 50
90.0
 51
180.0
  0
ARC
  5
81
330
1F
100
AcDbEntity
  8
0
  6
Continuous
 62
     7
370
    15
100
AcDbCircle
 10
179.0142367466
 20
130.7631101111
 30
0.0
 40
3.0
100
AcDbArc
 50
180.0
 51
270.0
  0
ARC
  5
82
330
1F
100
AcDbEntity
  8
0
  6
Continuous
 62
     7
370
    15
100
AcDbCircle
 10
155.0142367466
 20
94.8881101111
 30
0.0
 40
1.000000000000014
100
AcDbArc
 50
42.4519685321
 51
90.0
  0
ARC
  5
83
330
1F
100
AcDbEntity
  8
0
  6
Continuous
 62
     7
370
    15
100
AcDbCircle
 10
155.0142367466
 20
128.6381101111
 30
0.0
 40
1.000000000000009
100
AcDbArc
 50
270.0
 51
317.5135497509
  0
LINE
  5
84
330
1F
100
AcDbEntity
  8
0
  6
Continuous
 62
     7
370
    15
100
AcDbLine
 10
179.0142367466
 20
95.7631101111
 30
0.0
 11
195.7142367466
 21
95.7631101111
 31
0.0
  0
LINE
  5
85
330
1F
100
AcDbEntity
  8
0
  6
Continuous
 62
     7
370
    15
100
AcDbLine
 10
195.7142367466
 20
127.7631101111
 30
0.0
 11
179.0142367466
 21
127.7631101111
 31
0.0
  0
LINE
  5
86
330
1F
100
AcDbEntity
  8
0
  6
Continuous
 62
     7
370
    15
100
AcDbLine
 10
195.7142367466
 20
95.7631101111
 30
0.0
 11
196.0142367466
 21
96.0631101111
 31
0.0
  0
LINE
  5
87
330
1F
100
AcDbEntity
  8
0
  6
Continuous
 62
     7
370
    15
100
AcDbLine
 10
196.0142367466
 20
127.4631101111
 30
0.0
 11
195.7142367466
 21
127.7631101111
 31
0.0
  0
LINE
  5
88
330
1F
100
AcDbEntity
  8
0
  6
Continuous
 62
     7
370
    15
100
AcDbLine
 10
154.0142367466
 20
127.6381101111
 30
0.0
 11
106.0420833
 21
120.6421710668
 31
0.0
  0
LINE
  5
89
330
1F
100
AcDbEntity
  8
0
  6
Continuous
 62
     7
370
    15
100
AcDbLine
 10
106.0420833
 20
102.8840491554
 30
0.0
 11
154.0142367466
 21
95.8881101111
 31
0.0
  0
LINE
  5
8A
330
1F
100
AcDbEntity
  8
0
  6
Continuous
 62
     7
370
    15
100
AcDbLine
 10
154.0142367466
 20
95.8881101111
 30
0.0
 11
155.0142367466
 21
95.8881101111
 31
0.0
  0
LINE
  5
8B
330
1F
100
AcDbEntity
  8
0
  6
Continuous
 62
     7
370
    15
100
AcDbLine
 10
155.0142367466
 20
127.6381101111
 30
0.0
 11
154.0142367466
 21
127.6381101111
 31
0.0
  0
ARC
  5
8C
330
1F
100
AcDbEntity
  8
0
  6
Continuous
 62
     7
370
    15
100
AcDbCircle
 10
106.1142367466
 20
103.3788156459
 30
0.0
 40
0.5000000000000029
100
AcDbArc
 50
180.0
 51
261.7028550302
  0
ARC
  5
8D
330
1F
100
AcDbEntity
  8
0
  6
Continuous
 62
     7
370
    15
100
AcDbCircle
 10
106.1142367466
 20
120.1474045763
 30
0.0
 40
0.5000000000000029
100
AcDbArc
 50
98.2971449698
 51
180.0
  0
SPLINE
  5
8E
330
1F
100
AcDbEntity
  8
0
  6
Continuous
 62
     7
370
    15
100
AcDbSpline
210
0.0
220
0.0
230
1.0
 70
    24
 71
     3
 72
    11
 73
     7
 74
     0
 42
0.000000001
 43
0.00000001
 40
0.0
 40
0.0
 40
0.0
 40
0.0
 40
0.1323877169514958
 40
0.4819434960836145
 40
0.8154866441480849
 40
1.0
 40
1.0
 40
1.0
 40
1.0
 10
187.8689372849327
 20
109.763110111086
 30
0.0
 10
187.7731251412488
 20
109.763110111086
 30
0.0
 10
187.4243311552391
 20
109.763110111086
 30
0.0
 10
186.7721230473213
 20
109.763110111086
 30
0.0
 10
186.0702184858608
 20
109.763110111086
 30
0.0
 10
185.6936548292906
 20
109.763110111086
 30
0.0
 10
185.5595362081742
 20
109.763110111086
 30
0.0
  0
SPLINE
  5
8F
330
1F
100
AcDbEntity
  8
0
  6
Continuous
 62
     7
370
    15
100
AcDbSpline
210
0.0
220
0.0
230
1.0
 70
    24
 71
     3
 72
    11
 73
     7
 74
     0
 42
0.000000001
 43
0.00000001
 40
0.0
 40
0.0
 40
0.0
 40
0.0
 40
0.2164526859271189
 40
0.4403055508634022
 40
0.7518960204221906
 40
1.0
 40
1.0
 40
1.0
 40
1.0
 10
189.0236378233119
 20
111.763110111086
 30
0.0
 10
188.9445407204232
 20
111.6261099101512
 30
0.0
 10
188.7836423083294
 20
111.3474256855477
 30
0.0
 10
188.4850561088032
 20
110.8302592175293
 30
0.0
 10
188.16476496478
 20
110.2754986828667
 30
0.0
 10
187.9597966157142
 20
109.9204830883413
 30
0.0
 10
187.8689372849327
 20
109.763110111086
 30
0.0
  0
SPLINE
  5
90
330
1F
100
AcDbEntity
  8
0
  6
Continuous
 62
     7
370
    15
100
AcDbSpline
210
0.0
220
0.0
230
1.0
 70
    24
 71
     3
 72
    11
 73
     7
 74
     0
 42
0.000000001
 43
0.00000001
 40
0.0
 40
0.0
 40
0.0
 40
0.0
 40
0.2164526859271176
 40
0.4403055508633989
 40
0.7518960204221907
 40
1.0
 40
1.0
 40
1.0
 40
1.0
 10
187.8689372849327
 20
113.763110111086
 30
0.0
 10
187.9480343878213
 20
113.6261099101512
 30
0.0
 10
188.1089327999151
 20
113.3474256855477
 30
0.0
 10
188.4075189994414
 20
112.8302592175293
 30
0.0
 10
188.7278101434646
 20
112.2754986828667
 30
0.0
 10
188.9327784925304
 20
111.9204830883413
 30
0.0
 10
189.0236378233119
 20
111.763110111086
 30
0.0
  0
SPLINE
  5
91
330
1F
100
AcDbEntity
  8
0
  6
Continuous
 62
     7
370
    15
100
AcDbSpline
210
0.0
220
0.0
230
1.0
 70
    24
 71
     3
 72
    11
 73
     7
 74
     0
 42
0.000000001
 43
0.00000001
 40
0.0
 40
0.0
 40
0.0
 40
0.0
 40
0.1845133558519151
 40
0.5180565039163911
 40
0.8676122830485041
 40
1.0
 40
1.0
 40
1.0
 40
1.0
 10
185.5595362081742
 20
113.763110111086
 30
0.0
 10
185.6936548292906
 20
113.763110111086
 30
0.0
 10
186.0702184858608
 20
113.763110111086
 30
0.0
 10
186.7721230473213
 20
113.763110111086
 30
0.0
 10
187.4243311552391
 20
113.763110111086
 30
0.0
 10
187.7731251412488
 20
113.763110111086
 30
0.0
 10
187.8689372849327
 20
113.763110111086
 30
0.0
  0
SPLINE
  5
92
330
1F
100
AcDbEntity
  8
0
  6
Continuous
 62
     7
370
    15
100
AcDbSpline
210
0.0
220
0.0
230
1.0
 70
    24
 71
     3
 72
    11
 73
     7
 74
     0
 42
0.000000001
 43
0.00000001
 40
0.0
 40
0.0
 40
0.0
 40
0.0
 40
0.2164526859271168
 40
0.4403055508634
 40
0.7518960204221942
 40
1.0
 40
1.0
 40
1.0
 40
1.0
 10
185.5595362081742
 20
109.763110111086
 30
0.0
 10
185.4804391052855
 20
109.9001103120207
 30
0.0
 10
185.3195406931917
 20
110.1787945366243
 30
0.0
 10
185.0209544936654
 20
110.6959610046426
 30
0.0
 10
184.7006633496422
 20
111.2507215393052
 30
0.0
 10
184.4956950005764
 20
111.6057371338306
 30
0.0
 10
184.4048356697949
 20
111.763110111086
 30
0.0
  0
CIRCLE
  5
93
330
1F
100
AcDbEntity
  8
0
  6
Continuous
 62
     7
370
    15
100
AcDbCircle
 10
186.7142367466
 20
111.7631101111
 30
0.0
 40
2.350000000000009
  0
SPLINE
  5
94
330
1F
100
AcDbEntity
  8
0
  6
Continuous
 62
     7
370
    15
100
AcDbSpline
210
0.0
220
0.0
230
1.0
 70
    24
 71
     3
 72
    11
 73
     7
 74
     0
 42
0.000000001
 43
0.00000001
 40
0.0
 40
0.0
 40
0.0
 40
0.0
 40
0.2164526859271188
 40
0.4403055508634022
 40
0.751896020422193
 40
1.0
 40
1.0
 40
1.0
 40
1.0
 10
184.4048356697949
 20
111.763110111086
 30
0.0
 10
184.4839327726836
 20
111.9001103120207
 30
0.0
 10
184.6448311847774
 20
112.1787945366243
 30
0.0
 10
184.9434173843036
 20
112.6959610046426
 30
0.0
 10
185.2637085283269
 20
113.2507215393053
 30
0.0
 10
185.4686768773926
 20
113.6057371338306
 30
0.0
 10
185.5595362081742
 20
113.763110111086
 30
0.0
  0
CIRCLE
  5
95
330
1F
100
AcDbEntity
  8
0
  6
Continuous
 62
     7
370
    15
100
AcDbCircle
 10
186.7142367466
 20
111.7631101111
 30
0.0
 40
3.500000000000014
  0
CIRCLE
  5
96
330
1F
100
AcDbEntity
  8
0
  6
Continuous
 62
     7
370
    15
100
AcDbCircle
 10
186.7142367466
 20
111.7631101111
 30
0.0
 40
4.000000000000014
  0
ARC
  5
97
330
1F
100
AcDbEntity
  8
0
  6
Continuous
 62
     7
370
    15
100
AcDbCircle
 10
186.7142367466
 20
111.7631101111
 30
0.0
 40
2.000000000000016
100
AcDbArc
 50
270.0
 51
330.0
  0
ARC
  5
98
330
1F
100
AcDbEntity
  8
0
  6
Continuous
 62
     7
370
    15
100
AcDbCircle
 10
186.7142367466
 20
111.7631101111
 30
0.0
 40
2.000000000000016
100
AcDbArc
 50
330.0
 51
30.0
  0
ARC
  5
99
330
1F
100
AcDbEntity
  8
0
  6
Continuous
 62
     7
370
    15
100
AcDbCircle
 10
186.7142367466
 20
111.7631101111
 30
0.0
 40
2.000000000000016
100
AcDbArc
 50
150.0
 51
210.0
  0
ARC
  5
9A
330
1F
100
AcDbEntity
  8
0
  6
Continuous
 62
     7
370
    15
100
AcDbCircle
 10
186.7142367466
 20
111.7631101111
 30
0.0
 40
2.000000000000016
100
AcDbArc
 50
30.0
 51
90.0
  0
ARC
  5
9B
330
1F
100
AcDbEntity
  8
0
  6
Continuous
 62
     7
370
    15
100
AcDbCircle
 10
186.7142367466
 20
111.7631101111
 30
0.0
 40
2.000000000000016
100
AcDbArc
 50
210.0
 51
270.0
  0
ARC
  5
9C
330
1F
100
AcDbEntity
  8
0
  6
Continuous
 62
     7
370
    15
100
AcDbCircle
 10
186.7142367466
 20
111.7631101111
 30
0.0
 40
2.000000000000016
100
AcDbArc
 50
90.0
 51
150.0
  0
SPLINE
  5
9D
330
1F
100
AcDbEntity
  8
0
  6
Continuous
 62
     7
370
    15
100
AcDbSpline
210
0.0
220
0.0
230
1.0
 70
     8
 71
     3
 72
    10
 73
     6
 74
     0
 42
0.000000001
 43
0.00000001
 40
0.0
 40
0.0
 40
0.0
 40
0.0
 40
0.5
 40
0.5
 40
1.0
 40
1.0
 40
1.0
 40
1.0
 10
170.9616563547964
 20
132.9186795655202
 30
0.0
 10
170.7364726134321
 20
132.4524447137965
 30
0.0
 10
170.5062923661474
 20
131.9748400176781
 30
0.0
 10
170.0385106562441
 20
131.001456882876
 30
0.0
 10
169.8004686104926
 20
130.5047583725153
 30
0.0
 10
169.5607757774707
 20
130.0027831087783
 30
0.0
  0
SPLINE
  5
9E
330
1F
100
AcDbEntity
  8
0
  6
Continuous
 62
     7
370
    15
100
AcDbSpline
210
0.0
220
0.0
230
1.0
 70
     8
 71
     3
 72
     9
 73
     5
 74
     0
 42
0.000000001
 43
0.00000001
 40
0.0
 40
0.0
 40
0.0
 40
0.0
 40
0.508485917530151
 40
1.0
 40
1.0
 40
1.0
 40
1.0
 10
171.6392459900904
 20
133.8579547403679
 30
0.0
 10
171.5234254546807
 20
133.698308393972
 30
0.0
 10
171.2956501487839
 20
133.3843442488656
 30
0.0
 10
171.0717229019379
 20
133.0721326178565
 30
0.0
 10
170.9616595066644
 20
132.9186762045047
 30
0.0
  0
LINE
  5
9F
330
1F
100
AcDbEntity
  8
0
  6
Continuous
 62
     7
370
    15
100
AcDbLine
 10
171.6392367466
 20
89.6682830438
 30
0.0
 11
171.6392367466
 21
133.8579393602
 31
0.0
  0
SPLINE
  5
A0
330
1F
100
AcDbEntity
  8
0
  6
Continuous
 62
     7
370
    15
100
AcDbSpline
210
0.0
220
0.0
230
1.0
 70
     8
 71
     3
 72
     9
 73
     5
 74
     0
 42
0.000000001
 43
0.00000001
 40
0.0
 40
0.0
 40
0.0
 40
0.0
 40
0.4915140813385384
 40
1.0
 40
1.0
 40
1.0
 40
1.0
 10
170.9616595066645
 20
90.60754401766722
 30
0.0
 10
171.0717229016875
 20
90.45408760465928
 30
0.0
 10
171.2956501485393
 20
90.14187597363124
 30
0.0
 10
171.5234254544275
 20
89.82791182854498
 30
0.0
 10
171.6392459900904
 20
89.66826548180403
 30
0.0
  0
SPLINE
  5
A1
330
1F
100
AcDbEntity
  8
0
  6
Continuous
 62
     7
370
    15
100
AcDbSpline
210
0.0
220
0.0
230
1.0
 70
     8
 71
     3
 72
    10
 73
     6
 74
     0
 42
0.000000001
 43
0.00000001
 40
0.0
 40
0.0
 40
0.0
 40
0.0
 40
0.5
 40
0.5
 40
1.0
 40
1.0
 40
1.0
 40
1.0
 10
170.9616564357293
 20
90.60754048908328
 30
0.0
 10
170.736754864421
 20
91.07319111758972
 30
0.0
 10
170.5065673744072
 20
91.5508079915922
 30
0.0
 10
170.0382549392776
 20
92.52529540992951
 30
0.0
 10
169.8001176183054
 20
93.02219691291876
 30
0.0
 10
169.5607757774708
 20
93.52343711339361
 30
0.0
  0
SPLINE
  5
A2
330
1F
100
AcDbEntity
  8
0
  6
Continuous
 62
     7
370
    15
100
AcDbSpline
210
0.0
220
0.0
230
1.0
 70
     8
 71
     3
 72
    12
 73
     8
 74
     0
 42
0.000000001
 43
0.00000001
 40
0.0
 40
0.0
 40
0.0
 40
0.0
 40
0.0001599767577976
 40
0.2512944248697292
 40
0.5029658357238095
 40
0.7514776885320058
 40
0.9999999999999999
 40
0.9999999999999999
 40
0.9999999999999999
 40
0.9999999999999999
 10
174.014134964705
 20
134.7630675136463
 30
0.0
 10
174.0141678590103
 20
134.7630817120028
 30
0.0
 10
174.0658388370501
 20
134.7853847508412
 30
0.0
 10
173.8853854855495
 20
134.7068582003456
 30
0.0
 10
173.4430400315598
 20
134.5230636850363
 30
0.0
 10
172.6989293551534
 20
134.2226196049475
 30
0.0
 10
171.9924725712189
 20
133.9794996924627
 30
0.0
 10
171.6392367465723
 20
133.8579371783394
 30
0.0
  0
SPLINE
  5
A3
330
1F
100
AcDbEntity
  8
0
  6
Continuous
 62
     7
370
    15
100
AcDbSpline
210
0.0
220
0.0
230
1.0
 70
     8
 71
     3
 72
    16
 73
    12
 74
     0
 42
0.000000001
 43
0.00000001
 40
0.0
 40
0.0
 40
0.0
 40
0.0
 40
0.2483169671332734
 40
0.496694446198205
 40
0.581146785348524
 40
0.6649723970263892
 40
0.748461215409542
 40
0.8319066852962653
 40
0.9156027073821126
 40
0.9998405598659155
 40
0.9999999999999999
 40
0.9999999999999999
 40
0.9999999999999999
 40
0.9999999999999999
 10
171.6392367465723
 20
89.66828304383256
 30
0.0
 10
171.9930304599835
 20
89.54650887166945
 30
0.0
 10
172.7007041021831
 20
89.30293085240608
 30
0.0
 10
173.2714302262453
 20
89.07221537590722
 30
0.0
 10
173.5850013449349
 20
88.9441848580062
 30
0.0
 10
173.7409007028602
 20
88.87931826823255
 30
0.0
 10
173.8621305992079
 20
88.82818729777281
 30
0.0
 10
173.9502275514157
 20
88.79051901340846
 30
0.0
 10
173.9986736840556
 20
88.76960621986252
 30
0.0
 10
174.0209377144516
 20
88.76009761538735
 30
0.0
 10
174.0142082278765
 20
88.76312153591431
 30
0.0
 10
174.0141955147881
 20
88.7631272485892
 30
0.0
  0
LINE
  5
A4
330
1F
100
AcDbEntity
  8
0
  6
Continuous
 62
     7
370
    15
100
AcDbLine
 10
176.0142367466
 20
88.7631101111
 30
0.0
 11
176.0142367466
 21
134.7631101111
 31
0.0
  0
SPLINE
  5
A5
330
1F
100
AcDbEntity
  8
0
  6
Continuous
 62
     7
370
    15
100
AcDbSpline
210
0.0
220
0.0
230
1.0
 70
     8
 71
     3
 72
     8
 73
     4
 74
     0
 42
0.000000001
 43
0.00000001
 40
0.0
 40
0.0
 40
0.0
 40
0.0
 40
0.001149633737632
 40
0.001149633737632
 40
0.001149633737632
 40
0.001149633737632
 10
164.1284667510961
 20
132.3083532055604
 30
0.0
 10
163.9492634999663
 20
132.5478704844271
 30
0.0
 10
163.7694969462384
 20
132.7871773608639
 30
0.0
 10
163.5892367465534
 20
133.0262977483012
 30
0.0
  0
SPLINE
  5
A6
330
1F
100
AcDbEntity
  8
0
  6
Continuous
 62
     7
370
    15
100
AcDbSpline
210
0.0
220
0.0
230
1.0
 70
     8
 71
     3
 72
     8
 73
     4
 74
     0
 42
0.000000001
 43
0.00000001
 40
0.0
 40
0.0
 40
0.0
 40
0.0
 40
1.0
 40
1.0
 40
1.0
 40
1.0
 10
164.9642367465534
 20
130.7451321693723
 30
0.0
 10
164.6869250666792
 20
131.2668574855066
 30
0.0
 10
164.4082483242107
 20
131.7878869455074
 30
0.0
 10
164.1284667510961
 20
132.3083532055604
 30
0.0
  0
SPLINE
  5
A7
330
1F
100
AcDbEntity
  8
0
  6
Continuous
 62
     7
370
    15
100
AcDbSpline
210
0.0
220
0.0
230
1.0
 70
     8
 71
     3
 72
     8
 73
     4
 74
     0
 42
0.000000001
 43
0.00000001
 40
0.0
 40
0.0
 40
0.0
 40
0.0
 40
1.0
 40
1.0
 40
1.0
 40
1.0
 10
165.5952525455838
 20
129.563110111086
 30
0.0
 10
165.3842319097944
 20
129.9565581502717
 30
0.0
 10
165.1739445078866
 20
130.350594701181
 30
0.0
 10
164.9642367465534
 20
130.7451321693723
 30
0.0
  0
SPLINE
  5
A8
330
1F
100
AcDbEntity
  8
0
  6
Continuous
 62
     7
370
    15
100
AcDbSpline
210
0.0
220
0.0
230
1.0
 70
     8
 71
     3
 72
     8
 73
     4
 74
     0
 42
0.000000001
 43
0.00000001
 40
0.0
 40
0.0
 40
0.0
 40
0.0
 40
1.0
 40
1.0
 40
1.0
 40
1.0
 10
165.667697715636
 20
129.4281138567698
 30
0.0
 10
165.6435395039213
 20
129.4731047723987
 30
0.0
 10
165.6193912035956
 20
129.5181035759299
 30
0.0
 10
165.5952525455838
 20
129.563110111086
 30
0.0
  0
SPLINE
  5
A9
330
1F
100
AcDbEntity
  8
0
  6
Continuous
 62
     7
370
    15
100
AcDbSpline
210
0.0
220
0.0
230
1.0
 70
     8
 71
     3
 72
     8
 73
     4
 74
     0
 42
0.000000001
 43
0.00000001
 40
0.0
 40
0.0
 40
0.0
 40
0.0
 40
1.0
 40
1.0
 40
1.0
 40
1.0
 10
165.667697715636
 20
94.09810636540219
 30
0.0
 10
165.6435395039213
 20
94.05311544977327
 30
0.0
 10
165.6193912035956
 20
94.00811664624206
 30
0.0
 10
165.5952525455838
 20
93.96311011108598
 30
0.0
  0
SPLINE
  5
AA
330
1F
100
AcDbEntity
  8
0
  6
Continuous
 62
     7
370
    15
100
AcDbSpline
210
0.0
220
0.0
230
1.0
 70
     8
 71
     3
 72
     8
 73
     4
 74
     0
 42
0.000000001
 43
0.00000001
 40
0.0
 40
0.0
 40
0.0
 40
0.0
 40
1.0
 40
1.0
 40
1.0
 40
1.0
 10
165.5952525455838
 20
93.96311011108598
 30
0.0
 10
165.3842319097944
 20
93.56966207190028
 30
0.0
 10
165.1739445078866
 20
93.17562552099096
 30
0.0
 10
164.9642367465534
 20
92.78108805279966
 30
0.0
  0
SPLINE
  5
AB
330
1F
100
AcDbEntity
  8
0
  6
Continuous
 62
     7
370
    15
100
AcDbSpline
210
0.0
220
0.0
230
1.0
 70
     8
 71
     3
 72
     8
 73
     4
 74
     0
 42
0.000000001
 43
0.00000001
 40
0.0
 40
0.0
 40
0.0
 40
0.0
 40
1.0
 40
1.0
 40
1.0
 40
1.0
 10
164.9642367465534
 20
92.78108805279967
 30
0.0
 10
164.6869097315438
 20
92.25933388563251
 30
0.0
 10
164.4082296888521
 20
91.73829861006627
 30
0.0
 10
164.1284667510961
 20
91.2178670166115
 30
0.0
  0
SPLINE
  5
AC
330
1F
100
AcDbEntity
  8
0
  6
Continuous
 62
     7
370
    15
100
AcDbSpline
210
0.0
220
0.0
230
1.0
 70
     8
 71
     3
 72
     8
 73
     4
 74
     0
 42
0.000000001
 43
0.00000001
 40
0.0
 40
0.0
 40
0.0
 40
0.0
 40
0.001149633737632
 40
0.001149633737632
 40
0.001149633737632
 40
0.001149633737632
 10
163.5892367465534
 20
90.49992247387074
 30
0.0
 10
163.7694969462384
 20
90.73904286130808
 30
0.0
 10
163.9492634999663
 20
90.97834973774486
 30
0.0
 10
164.1284667510961
 20
91.2178670166115
 30
0.0
  0
LINE
  5
AD
330
1F
100
AcDbEntity
  8
0
  6
Continuous
 62
     7
370
    15
100
AcDbLine
 10
163.5892367466
 20
90.4999224739
 30
0.0
 11
163.5892367466
 21
133.0262977483
 31
0.0
  0
LINE
  5
AE
330
1F
100
AcDbEntity
  8
0
  6
Continuous
 62
     7
370
    15
100
AcDbLine
 10
163.5892367466
 20
133.0262977483
 30
0.0
 11
157.0142367466
 21
133.0262977483
 31
0.0
  0
LINE
  5
AF
330
1F
100
AcDbEntity
  8
0
  6
Continuous
 62
     7
370
    15
100
AcDbLine
 10
157.0142367466
 20
90.4999224739
 30
0.0
 11
163.5892367466
 21
90.4999224739
 31
0.0
  0
LINE
  5
B0
330
1F
100
AcDbEntity
  8
0
  6
Continuous
 62
     7
370
    15
100
AcDbLine
 10
156.0142367466
 20
91.7107411737
 30
0.0
 11
156.0142367466
 21
131.8154790484
 31
0.0
  0
SPLINE
  5
B1
330
1F
100
AcDbEntity
  8
0
  6
Continuous
 62
     7
370
    15
100
AcDbSpline
210
0.0
220
0.0
230
1.0
 70
     8
 71
     3
 72
    12
 73
     8
 74
     0
 42
0.000000001
 43
0.00000001
 40
0.0
 40
0.0
 40
0.0
 40
0.0
 40
0.2499999999999997
 40
0.2499999999999997
 40
0.4999999999999994
 40
0.4999999999999994
 40
1.0
 40
1.0
 40
1.0
 40
1.0
 10
156.4369148848895
 20
132.8856750672244
 30
0.0
 10
156.3799526094083
 20
132.8189039575484
 30
0.0
 10
156.3267537490978
 20
132.7465846872022
 30
0.0
 10
156.2287256613063
 20
132.5896073357272
 30
0.0
 10
156.1834980270445
 20
132.5040024050132
 30
0.0
 10
156.0681059775861
 20
132.2332044736277
 30
0.0
 10
156.0142367465534
 20
132.028792872135
 30
0.0
 10
156.0142367465534
 20
131.815479048446
 30
0.0
  0
SPLINE
  5
B2
330
1F
100
AcDbEntity
  8
0
  6
Continuous
 62
     7
370
    15
100
AcDbSpline
210
0.0
220
0.0
230
1.0
 70
     8
 71
     3
 72
     8
 73
     4
 74
     0
 42
0.000000001
 43
0.00000001
 40
0.0
 40
0.0
 40
0.0
 40
0.0
 40
1.0
 40
1.0
 40
1.0
 40
1.0
 10
157.0142367465534
 20
133.0262977483012
 30
0.0
 10
156.8050688717035
 20
133.0262977483012
 30
0.0
 10
156.6027747953001
 20
132.9756162098046
 30
0.0
 10
156.4369148848895
 20
132.8856750672244
 30
0.0
  0
SPLINE
  5
B3
330
1F
100
AcDbEntity
  8
0
  6
Continuous
 62
     7
370
    15
100
AcDbSpline
210
0.0
220
0.0
230
1.0
 70
     8
 71
     3
 72
     8
 73
     4
 74
     0
 42
0.000000001
 43
0.00000001
 40
0.0
 40
0.0
 40
0.0
 40
0.0
 40
1.0
 40
1.0
 40
1.0
 40
1.0
 10
156.4369148848895
 20
90.6405451549476
 30
0.0
 10
156.6027636964147
 20
90.55061003097927
 30
0.0
 10
156.8050748797279
 20
90.49992247387074
 30
0.0
 10
157.0142367465534
 20
90.49992247387074
 30
0.0
  0
SPLINE
  5
B4
330
1F
100
AcDbEntity
  8
0
  6
Continuous
 62
     7
370
    15
100
AcDbSpline
210
0.0
220
0.0
230
1.0
 70
     8
 71
     3
 72
    12
 73
     8
 74
     0
 42
0.000000001
 43
0.00000001
 40
0.0
 40
0.0
 40
0.0
 40
0.0
 40
0.2499999999999997
 40
0.2499999999999997
 40
0.4999999999999993
 40
0.4999999999999993
 40
1.0
 40
1.0
 40
1.0
 40
1.0
 10
156.4369148848895
 20
90.6405451549476
 30
0.0
 10
156.3799526094083
 20
90.70731626462353
 30
0.0
 10
156.3267537490978
 20
90.77963553496969
 30
0.0
 10
156.2287256613063
 20
90.93661288644478
 30
0.0
 10
156.1834980270445
 20
91.0222178171587
 30
0.0
 10
156.0681059775861
 20
91.29301574854429
 30
0.0
 10
156.0142367465534
 20
91.49742735003693
 30
0.0
 10
156.0142367465534
 20
91.71074117372599
 30
0.0
  0
SPLINE
  5
B5
330
1F
100
AcDbEntity
  8
0
  6
Continuous
 62
     7
370
    15
100
AcDbSpline
210
0.0
220
0.0
230
1.0
 70
     8
 71
     3
 72
    10
 73
     6
 74
     0
 42
0.000000001
 43
0.00000001
 40
0.0
 40
0.0
 40
0.0
 40
0.0
 40
0.5
 40
0.5
 40
1.0
 40
1.0
 40
1.0
 40
1.0
 10
166.3605180386636
 20
129.0300467660545
 30
0.0
 10
166.2199359380932
 20
129.0186786721677
 30
0.0
 10
166.0783176874353
 20
129.0512271956452
 30
0.0
 10
165.8348252939839
 20
129.1941057055623
 30
0.0
 10
165.7353151125637
 20
129.3021869613334
 30
0.0
 10
165.667697715631
 20
129.4281138567665
 30
0.0
  0
SPLINE
  5
B6
330
1F
100
AcDbEntity
  8
0
  6
Continuous
 62
     7
370
    15
100
AcDbSpline
210
0.0
220
0.0
230
1.0
 70
     8
 71
     3
 72
    10
 73
     6
 74
     0
 42
0.000000001
 43
0.00000001
 40
0.0
 40
0.0
 40
0.0
 40
0.0
 40
0.5
 40
0.5
 40
1.0
 40
1.0
 40
1.0
 40
1.0
 10
166.3605180386636
 20
94.4961734561174
 30
0.0
 10
166.2199359380932
 20
94.50754155000425
 30
0.0
 10
166.0783176874353
 20
94.4749930265268
 30
0.0
 10
165.8348252939839
 20
94.33211451660964
 30
0.0
 10
165.7353151125637
 20
94.2240332608385
 30
0.0
 10
165.667697715631
 20
94.09810636540547
 30
0.0
  0
SPLINE
  5
B7
330
1F
100
AcDbEntity
  8
0
  6
Continuous
 62
     7
370
    15
100
AcDbSpline
210
0.0
220
0.0
230
1.0
 70
     8
 71
     3
 72
     8
 73
     4
 74
     0
 42
0.000000001
 43
0.00000001
 40
0.0
 40
0.0
 40
0.0
 40
0.0
 40
1.0
 40
1.0
 40
1.0
 40
1.0
 10
169.1981948104336
 20
93.96311011108618
 30
0.0
 10
169.0989830518651
 20
94.03488478484294
 30
0.0
 10
168.9873211338124
 20
94.08914176767361
 30
0.0
 10
168.8679554544441
 20
94.1155459802992
 30
0.0
  0
SPLINE
  5
B8
330
1F
100
AcDbEntity
  8
0
  6
Continuous
 62
     7
370
    15
100
AcDbSpline
210
0.0
220
0.0
230
1.0
 70
     8
 71
     3
 72
     8
 73
     4
 74
     0
 42
0.000000001
 43
0.00000001
 40
0.0
 40
0.0
 40
0.0
 40
0.0
 40
1.0
 40
1.0
 40
1.0
 40
1.0
 10
169.1981948104336
 20
129.5631101110858
 30
0.0
 10
169.0989830518651
 20
129.491335437329
 30
0.0
 10
168.9873211338124
 20
129.4370784544983
 30
0.0
 10
168.8679554544441
 20
129.4106742418728
 30
0.0
  0
SPLINE
  5
B9
330
1F
100
AcDbEntity
  8
0
  6
Continuous
 62
     7
370
    15
100
AcDbSpline
210
0.0
220
0.0
230
1.0
 70
     8
 71
     3
 72
    10
 73
     6
 74
     0
 42
0.000000001
 43
0.00000001
 40
0.0
 40
0.0
 40
0.0
 40
0.0
 40
0.5
 40
0.5
 40
1.0
 40
1.0
 40
1.0
 40
1.0
 10
169.5607757774707
 20
130.0027831087783
 30
0.0
 10
169.5174375951633
 20
129.9120223829802
 30
0.0
 10
169.464687599948
 20
129.830519942298
 30
0.0
 10
169.3426299489217
 20
129.6829420346619
 30
0.0
 10
169.2731495333647
 20
129.617336050254
 30
0.0
 10
169.1981948104336
 20
129.5631101110858
 30
0.0
  0
SPLINE
  5
BA
330
1F
100
AcDbEntity
  8
0
  6
Continuous
 62
     7
370
    15
100
AcDbSpline
210
0.0
220
0.0
230
1.0
 70
     8
 71
     3
 72
    10
 73
     6
 74
     0
 42
0.000000001
 43
0.00000001
 40
0.0
 40
0.0
 40
0.0
 40
0.0
 40
0.5
 40
0.5
 40
1.0
 40
1.0
 40
1.0
 40
1.0
 10
169.5607757774707
 20
93.52343711339365
 30
0.0
 10
169.5174375951633
 20
93.61419783919176
 30
0.0
 10
169.464687599948
 20
93.69570027987395
 30
0.0
 10
169.3426299489217
 20
93.84327818751007
 30
0.0
 10
169.2731495333647
 20
93.90888417191795
 30
0.0
 10
169.1981948104336
 20
93.96311011108618
 30
0.0
  0
SPLINE
  5
BB
330
1F
100
AcDbEntity
  8
0
  6
Continuous
 62
     7
370
    15
100
AcDbSpline
210
0.0
220
0.0
230
1.0
 70
     8
 71
     3
 72
     8
 73
     4
 74
     0
 42
0.000000001
 43
0.00000001
 40
0.0
 40
0.0
 40
0.0
 40
0.0
 40
1.0
 40
1.0
 40
1.0
 40
1.0
 10
168.8679554544432
 20
129.4106742418755
 30
0.0
 10
168.087526168173
 20
129.2380398554854
 30
0.0
 10
167.2537161029237
 20
129.1022747340025
 30
0.0
 10
166.3605180386636
 20
129.0300467660545
 30
0.0
  0
SPLINE
  5
BC
330
1F
100
AcDbEntity
  8
0
  6
Continuous
 62
     7
370
    15
100
AcDbSpline
210
0.0
220
0.0
230
1.0
 70
     8
 71
     3
 72
     8
 73
     4
 74
     0
 42
0.000000001
 43
0.00000001
 40
0.0
 40
0.0
 40
0.0
 40
0.0
 40
1.0
 40
1.0
 40
1.0
 40
1.0
 10
168.8679554544432
 20
94.11554598029645
 30
0.0
 10
168.087526168173
 20
94.2881803666865
 30
0.0
 10
167.2537161029237
 20
94.4239454881694
 30
0.0
 10
166.3605180386636
 20
94.4961734561174
 30
0.0
  0
SPLINE
  5
BD
330
1F
100
AcDbEntity
  8
0
  6
Continuous
 62
     7
370
    15
100
AcDbSpline
210
0.0
220
0.0
230
1.0
 70
    24
 71
     3
 72
    10
 73
     6
 74
     0
 42
0.000000001
 43
0.00000001
 40
0.0
 40
0.0
 40
0.0
 40
0.0
 40
0.0881699516425669
 40
0.5437802161638867
 40
1.0
 40
1.0
 40
1.0
 40
1.0
 10
155.8960187096871
 20
127.963110111086
 30
0.0
 10
155.8901171253138
 20
127.963110111086
 30
0.0
 10
155.8537196365266
 20
127.963110111086
 30
0.0
 10
155.7753153776131
 20
127.963110111086
 30
0.0
 10
155.7598115635644
 20
127.963110111086
 30
0.0
 10
155.7520544747224
 20
127.963110111086
 30
0.0
  0
SPLINE
  5
BE
330
1F
100
AcDbEntity
  8
0
  6
Continuous
 62
     7
370
    15
100
AcDbSpline
210
0.0
220
0.0
230
1.0
 70
    24
 71
     3
 72
    10
 73
     6
 74
     0
 42
0.000000001
 43
0.00000001
 40
0.0
 40
0.0
 40
0.0
 40
0.0
 40
0.3856296239769461
 40
0.7720333130201062
 40
1.0
 40
1.0
 40
1.0
 40
1.0
 10
155.7520544747224
 20
95.56311011108598
 30
0.0
 10
155.7576429439946
 20
95.56311011108598
 30
0.0
 10
155.7688311001389
 20
95.56311011108598
 30
0.0
 10
155.836812791346
 20
95.56311011108596
 30
0.0
 10
155.879818913529
 20
95.56311011108598
 30
0.0
 10
155.8957766542934
 20
95.56311011108598
 30
0.0
  0
LINE
  5
BF
330
1F
100
AcDbEntity
  8
0
  6
Continuous
 62
     7
370
    15
100
AcDbLine
 10
195.7142367466
 20
95.7631101111
 30
0.0
 11
195.7142367466
 21
127.7631101111
 31
0.0
  0
SPLINE
  5
C0
330
1F
100
AcDbEntity
  8
0
  6
Continuous
 62
     7
370
    15
100
AcDbSpline
210
0.0
220
0.0
230
1.0
 70
     8
 71
     3
 72
    42
 73
    38
 74
     0
 42
0.000000001
 43
0.00000001
 40
0.0
 40
0.0
 40
0.0
 40
0.0
 40
0.0312499999999998
 40
0.0312499999999998
 40
0.0624999999999995
 40
0.0624999999999995
 40
0.1249999999999993
 40
0.1249999999999993
 40
0.1874999999999991
 40
0.1874999999999991
 40
0.2499999999999988
 40
0.2499999999999988
 40
0.3124999999999986
 40
0.3124999999999986
 40
0.3749999999999984
 40
0.3749999999999984
 40
0.4374999999999981
 40
0.4374999999999981
 40
0.4999999999999979
 40
0.4999999999999979
 40
0.5624999999999977
 40
0.5624999999999977
 40
0.6249999999999973
 40
0.6249999999999973
 40
0.6874999999999978
 40
0.6874999999999978
 40
0.7499999999999982
 40
0.7499999999999982
 40
0.7812499999999984
 40
0.7812499999999984
 40
0.8124999999999987
 40
0.8124999999999987
 40
0.874999999999999
 40
0.874999999999999
 40
0.9374999999999994
 40
0.9374999999999994
 40
1.0
 40
1.0
 40
1.0
 40
1.0
 10
191.9642367465534
 20
111.763110111086
 30
0.0
 10
191.9642367465534
 20
111.6021773400787
 30
0.0
 10
191.9544360927982
 20
111.4411059601987
 30
0.0
 10
191.9148075497994
 20
111.1186801981058
 30
0.0
 10
191.8848199470754
 20
110.957510598027
 30
0.0
 10
191.767760694519
 20
110.4871175870433
 30
0.0
 10
191.6533935804158
 20
110.1860477599377
 30
0.0
 10
191.3556124739049
 20
109.6084212415877
 30
0.0
 10
191.1773450366651
 20
109.3416470335403
 30
0.0
 10
190.7684041580206
 20
108.8467746666313
 30
0.0
 10
190.5363843660007
 20
108.6185188955353
 30
0.0
 10
190.0398201965051
 20
108.2146166085325
 30
0.0
 10
189.773287298928
 20
108.0363393429943
 30
0.0
 10
189.2050755748544
 20
107.7256835261672
 30
0.0
 10
188.9108283667998
 20
107.5973461377643
 30
0.0
 10
188.3032242020322
 20
107.3905762952353
 30
0.0
 10
187.9873865503919
 20
107.3118273478269
 30
0.0
 10
187.3475871983077
 20
107.2076365091155
 30
0.0
 10
187.0267169553812
 20
107.182243258258
 30
0.0
 10
186.3830854805833
 20
107.1832533053307
 30
0.0
 10
186.0574614959423
 20
107.2102100095341
 30
0.0
 10
185.4188726635411
 20
107.3167780935198
 30
0.0
 10
185.1077794415723
 20
107.3955084020077
 30
0.0
 10
184.5017735151825
 20
107.6038175168063
 30
0.0
 10
184.2040917022454
 20
107.7349889431388
 30
0.0
 10
183.6409073834487
 20
108.0454724436057
 30
0.0
 10
183.3766105831236
 20
108.2233609596536
 30
0.0
 10
183.0067793231951
 20
108.5257897871222
 30
0.0
 10
182.8879690095208
 20
108.6325740159654
 30
0.0
 10
182.6598417732419
 20
108.8589759581001
 30
0.0
 10
182.5502501602008
 20
108.979081687179
 30
0.0
 10
182.2446139354381
 20
109.3507726100433
 30
0.0
 10
182.0686299987184
 20
109.6160620678707
 30
0.0
 10
181.7760843425791
 20
110.1846720497217
 30
0.0
 10
181.6588579031525
 20
110.4929393107414
 30
0.0
 10
181.5040822518914
 20
111.118182129676
 30
0.0
 10
181.4642367465534
 20
111.4372262342122
 30
0.0
 10
181.4642367465534
 20
111.763110111086
 30
0.0
  0
SPLINE
  5
C1
330
1F
100
AcDbEntity
  8
0
  6
Continuous
 62
     7
370
    15
100
AcDbSpline
210
0.0
220
0.0
230
1.0
 70
     8
 71
     3
 72
    42
 73
    38
 74
     0
 42
0.000000001
 43
0.00000001
 40
0.0
 40
0.0
 40
0.0
 40
0.0
 40
0.03125
 40
0.03125
 40
0.0624999999999999
 40
0.0624999999999999
 40
0.1249999999999997
 40
0.1249999999999997
 40
0.1874999999999995
 40
0.1874999999999995
 40
0.2499999999999992
 40
0.2499999999999992
 40
0.3124999999999989
 40
0.3124999999999989
 40
0.3749999999999987
 40
0.3749999999999987
 40
0.4999999999999981
 40
0.4999999999999981
 40
0.5624999999999984
 40
0.5624999999999984
 40
0.6249999999999988
 40
0.6249999999999988
 40
0.6874999999999992
 40
0.6874999999999992
 40
0.7499999999999996
 40
0.7499999999999996
 40
0.8124999999999998
 40
0.8124999999999998
 40
0.84375
 40
0.84375
 40
0.8750000000000002
 40
0.8750000000000002
 40
0.9374999999999999
 40
0.9374999999999999
 40
0.96875
 40
0.96875
 40
1.0
 40
1.0
 40
1.0
 40
1.0
 10
181.4642367465534
 20
111.763110111086
 30
0.0
 10
181.4642367465534
 20
111.9260545414388
 30
0.0
 10
181.4744536518914
 20
112.0898905692493
 30
0.0
 10
181.514283996385
 20
112.4111423072604
 30
0.0
 10
181.5438744287855
 20
112.5697459710477
 30
0.0
 10
181.6609261587842
 20
113.0396612574029
 30
0.0
 10
181.7783616917403
 20
113.3473383414376
 30
0.0
 10
182.0741244465631
 20
113.9194373473727
 30
0.0
 10
182.2543387371626
 20
114.1892973547376
 30
0.0
 10
182.666881541629
 20
114.6868292554414
 30
0.0
 10
182.8963480747978
 20
114.9118953288997
 30
0.0
 10
183.3984504879556
 20
115.3188220515691
 30
0.0
 10
183.666207373923
 20
115.4964340072416
 30
0.0
 10
184.2264490878841
 20
115.8016638528804
 30
0.0
 10
184.519920255773
 20
115.9299920692708
 30
0.0
 10
185.4409798494565
 20
116.242391339818
 30
0.0
 10
186.0781055920777
 20
116.3449843088432
 30
0.0
 10
187.0531857010569
 20
116.3427023069013
 30
0.0
 10
187.3737978731409
 20
116.3155363706148
 30
0.0
 10
188.0064957208284
 20
116.2099692399219
 30
0.0
 10
188.3199972345588
 20
116.131092400481
 30
0.0
 10
188.9318752904211
 20
115.9204816461609
 30
0.0
 10
189.2242979139116
 20
115.7910780206523
 30
0.0
 10
189.7824413272596
 20
115.4837707172699
 30
0.0
 10
190.0497053170131
 20
115.3046714441239
 30
0.0
 10
190.5480353172215
 20
114.8970672949601
 30
0.0
 10
190.7740424621521
 20
114.6731612831071
 30
0.0
 10
191.0771685588215
 20
114.3055239711296
 30
0.0
 10
191.1721851535173
 20
114.1776429616347
 30
0.0
 10
191.3493354494217
 20
113.9103734224891
 30
0.0
 10
191.431945476507
 20
113.7699690427074
 30
0.0
 10
191.6536671823099
 20
113.3391582630793
 30
0.0
 10
191.7678568529971
 20
113.0389769068336
 30
0.0
 10
191.8850573408415
 20
112.5676248618204
 30
0.0
 10
191.9150119078005
 20
112.406155099615
 30
0.0
 10
191.9544352444332
 20
112.0848419548845
 30
0.0
 10
191.9642367465534
 20
111.9240453432824
 30
0.0
 10
191.9642367465534
 20
111.763110111086
 30
0.0
  0
LINE
  5
C2
330
1F
100
AcDbEntity
  8
0
  6
Continuous
 62
     7
370
    15
100
AcDbLine
 10
196.0142367466
 20
96.0631101111
 30
0.0
 11
196.0142367466
 21
127.4631101111
 31
0.0
  0
LINE
  5
C3
330
1F
100
AcDbEntity
  8
0
  6
Continuous
 62
     7
370
    15
100
AcDbLine
 10
154.0142367466
 20
95.8881101111
 30
0.0
 11
154.0142367466
 21
127.6381101111
 31
0.0
  0
LINE
  5
C4
330
1F
100
AcDbEntity
  8
0
  6
Continuous
 62
     7
370
    15
100
AcDbLine
 10
105.6142367466
 20
103.3788156459
 30
0.0
 11
105.6142367466
 21
120.1474045763
 31
0.0
  0
CIRCLE
  5
C5
330
1F
100
AcDbEntity
  8
0
  6
HIDDEN
 62
     7
370
     0
100
AcDbCircle
 10
186.7142367466
 20
111.7631101111
 30
0.0
 40
3.508270759903354
  0
CIRCLE
  5
C6
330
1F
100
AcDbEntity
  8
0
  6
HIDDEN
 62
     7
370
     0
100
AcDbCircle
 10
186.7142367466
 20
111.7631101111
 30
0.0
 40
2.49956004487801
  0
CIRCLE
  5
C7
330
1F
100
AcDbEntity
  8
0
  6
HIDDEN
 62
     7
370
     0
100
AcDbCircle
 10
186.7142367466
 20
111.7631101111
 30
0.0
 40
2.199560044877998
  0
LINE
  5
C8
330
1F
100
AcDbEntity
  8
0
  6
HIDDEN
 62
     7
370
     0
100
AcDbLine
 10
172.0082853527
 20
89.5385734352
 30
0.0
 11
171.6394160673
 21
89.668337921
 31
0.0
  0
LINE
  5
C9
330
1F
100
AcDbEntity
  8
0
  6
HIDDEN
 62
     7
370
     0
100
AcDbLine
 10
195.5642367466
 20
122.5630842415
 30
0.0
 11
195.5642367466
 21
124.2980819969
 31
0.0
  0
SPLINE
  5
CA
330
1F
100
AcDbEntity
  8
0
  6
HIDDEN
 62
     7
370
     0
100
AcDbSpline
210
0.0
220
0.0
230
1.0
 70
     8
 71
     3
 72
    10
 73
     6
 74
     0
 42
0.000000001
 43
0.00000001
 40
0.0
 40
0.0
 40
0.0
 40
0.0
 40
0.5537498796924841
 40
0.8897211641691849
 40
1.0
 40
1.0
 40
1.0
 40
1.0
 10
195.5642367465534
 20
119.9446765546443
 30
0.0
 10
195.5955608514278
 20
120.0818337926097
 30
0.0
 10
195.6458899261191
 20
120.3022071089969
 30
0.0
 10
195.6921210817544
 20
120.5429385293124
 30
0.0
 10
195.7098544233324
 20
120.6471376754677
 30
0.0
 10
195.7142367465534
 20
120.6728877201392
 30
0.0
  0
SPLINE
  5
CB
330
1F
100
AcDbEntity
  8
0
  6
HIDDEN
 62
     7
370
     0
100
AcDbSpline
210
0.0
220
0.0
230
1.0
 70
     8
 71
     3
 72
    11
 73
     7
 74
     0
 42
0.000000001
 43
0.00000001
 40
0.0
 40
0.0
 40
0.0
 40
0.0
 40
0.3672179524350062
 40
0.5884280257844544
 40
0.7939530891681235
 40
1.0
 40
1.0
 40
1.0
 40
1.0
 10
195.7142367465534
 20
122.4659855450687
 30
0.0
 10
195.6989731757878
 20
122.487628104234
 30
0.0
 10
195.6745149140051
 20
122.5223080219182
 30
0.0
 10
195.634422256696
 20
122.5470736914518
 30
0.0
 10
195.6004515601192
 20
122.5602787896543
 30
0.0
 10
195.5763185507894
 20
122.5621483007372
 30
0.0
 10
195.5642367465534
 20
122.5630842414901
 30
0.0
  0
LINE
  5
CC
330
1F
100
AcDbEntity
  8
0
  6
HIDDEN
 62
     7
370
     0
100
AcDbLine
 10
195.5642367466
 20
103.5815436675
 30
0.0
 11
195.5642367466
 21
119.9446765546
 31
0.0
  0
LINE
  5
CD
330
1F
100
AcDbEntity
  8
0
  6
HIDDEN
 62
     7
370
     0
100
AcDbLine
 10
195.5642367466
 20
100.9631359807
 30
0.0
 11
195.7142367466
 21
101.0975630663
 31
0.0
  0
SPLINE
  5
CE
330
1F
100
AcDbEntity
  8
0
  6
HIDDEN
 62
     7
370
     0
100
AcDbSpline
210
0.0
220
0.0
230
1.0
 70
     8
 71
     3
 72
     9
 73
     5
 74
     0
 42
0.000000001
 43
0.00000001
 40
0.0
 40
0.0
 40
0.0
 40
0.0
 40
0.6262737817586358
 40
1.0
 40
1.0
 40
1.0
 40
1.0
 10
195.7142367465534
 20
102.7928154806382
 30
0.0
 10
195.6908682341206
 20
102.950610704951
 30
0.0
 10
195.6535546611857
 20
103.2025695589041
 30
0.0
 10
195.5885359453409
 20
103.4784426576273
 30
0.0
 10
195.5642367465534
 20
103.5815436675276
 30
0.0
  0
LINE
  5
CF
330
1F
100
AcDbEntity
  8
0
  6
HIDDEN
 62
     7
370
     0
100
AcDbLine
 10
195.5642367466
 20
99.2281382253
 30
0.0
 11
195.5642367466
 21
100.9631359807
 31
0.0
  0
LINE
  5
D0
330
1F
100
AcDbEntity
  8
0
  6
HIDDEN
 62
     7
370
     0
100
AcDbLine
 10
193.832185939
 20
107.398765945
 30
0.0
 11
193.832185939
 21
116.1274542772
 31
0.0
  0
LINE
  5
D1
330
1F
100
AcDbEntity
  8
0
  6
HIDDEN
 62
     7
370
     0
100
AcDbLine
 10
192.6642367466
 20
107.398765945
 30
0.0
 11
192.6642367466
 21
116.1274542772
 31
0.0
  0
LINE
  5
D2
330
1F
100
AcDbEntity
  8
0
  6
HIDDEN
 62
     7
370
     0
100
AcDbLine
 10
195.5642367466
 20
122.5630842415
 30
0.0
 11
195.5642367466
 21
122.5032734378
 31
0.0
  0
LINE
  5
D3
330
1F
100
AcDbEntity
  8
0
  6
HIDDEN
 62
     7
370
     0
100
AcDbLine
 10
192.6642367466
 20
122.5032734378
 30
0.0
 11
195.5642367466
 21
122.5032734378
 31
0.0
  0
LINE
  5
D4
330
1F
100
AcDbEntity
  8
0
  6
HIDDEN
 62
     7
370
     0
100
AcDbLine
 10
192.6642367466
 20
122.5631101111
 30
0.0
 11
192.6642367466
 21
119.3631101111
 31
0.0
  0
LINE
  5
D5
330
1F
100
AcDbEntity
  8
0
  6
HIDDEN
 62
     7
370
     0
100
AcDbLine
 10
192.6642367466
 20
119.3631101111
 30
0.0
 11
192.6642367466
 21
116.1274542772
 31
0.0
  0
LINE
  5
D6
330
1F
100
AcDbEntity
  8
0
  6
HIDDEN
 62
     7
370
     0
100
AcDbLine
 10
192.6642367466
 20
116.1274542772
 30
0.0
 11
193.832185939
 21
116.1274542772
 31
0.0
  0
SPLINE
  5
D7
330
1F
100
AcDbEntity
  8
0
  6
HIDDEN
 62
     7
370
     0
100
AcDbSpline
210
0.0
220
0.0
230
1.0
 70
     8
 71
     3
 72
     8
 73
     4
 74
     0
 42
0.000000001
 43
0.00000001
 40
0.0
 40
0.0
 40
0.0
 40
0.0
 40
1.0
 40
1.0
 40
1.0
 40
1.0
 10
193.8321859389844
 20
116.1274542771664
 30
0.0
 10
194.3589328324415
 20
116.8591182377006
 30
0.0
 10
194.9464581275046
 20
117.5297260963467
 30
0.0
 10
195.5642367465534
 20
118.1699424016957
 30
0.0
  0
LINE
  5
D8
330
1F
100
AcDbEntity
  8
0
  6
HIDDEN
 62
     7
370
     0
100
AcDbLine
 10
192.6642367466
 20
101.0229467844
 30
0.0
 11
195.5642367466
 21
101.0229467844
 31
0.0
  0
LINE
  5
D9
330
1F
100
AcDbEntity
  8
0
  6
HIDDEN
 62
     7
370
     0
100
AcDbLine
 10
195.5642367466
 20
101.0229467844
 30
0.0
 11
195.5642367466
 21
100.9631359807
 31
0.0
  0
LINE
  5
DA
330
1F
100
AcDbEntity
  8
0
  6
HIDDEN
 62
     7
370
     0
100
AcDbLine
 10
192.6642367466
 20
104.1631101111
 30
0.0
 11
192.6642367466
 21
100.9631101111
 31
0.0
  0
LINE
  5
DB
330
1F
100
AcDbEntity
  8
0
  6
HIDDEN
 62
     7
370
     0
100
AcDbLine
 10
192.6642367466
 20
107.398765945
 30
0.0
 11
192.6642367466
 21
104.1631101111
 31
0.0
  0
LINE
  5
DC
330
1F
100
AcDbEntity
  8
0
  6
HIDDEN
 62
     7
370
     0
100
AcDbLine
 10
193.832185939
 20
107.398765945
 30
0.0
 11
192.6642367466
 21
107.398765945
 31
0.0
  0
SPLINE
  5
DD
330
1F
100
AcDbEntity
  8
0
  6
HIDDEN
 62
     7
370
     0
100
AcDbSpline
210
0.0
220
0.0
230
1.0
 70
     8
 71
     3
 72
     8
 73
     4
 74
     0
 42
0.000000001
 43
0.00000001
 40
0.0
 40
0.0
 40
0.0
 40
0.0
 40
1.0
 40
1.0
 40
1.0
 40
1.0
 10
195.5642367465534
 20
105.3562778204762
 30
0.0
 10
194.9410946577189
 20
106.0020523965458
 30
0.0
 10
194.3533184704418
 20
106.674900466793
 30
0.0
 10
193.8321859389844
 20
107.3987659450056
 30
0.0
  0
LINE
  5
DE
330
1F
100
AcDbEntity
  8
0
  6
HIDDEN
 62
     7
370
     0
100
AcDbLine
 10
191.8642367466
 20
102.7631101111
 30
0.0
 11
191.8642367466
 21
120.7631101111
 31
0.0
  0
LINE
  5
DF
330
1F
100
AcDbEntity
  8
0
  6
HIDDEN
 62
     7
370
     0
100
AcDbLine
 10
177.0142367466
 20
103.1631101111
 30
0.0
 11
177.0142367466
 21
120.3631100723
 31
0.0
  0
LINE
  5
E0
330
1F
100
AcDbEntity
  8
0
  6
HIDDEN
 62
     7
370
     0
100
AcDbLine
 10
179.0142367466
 20
102.7631101111
 30
0.0
 11
179.0142367466
 21
120.7631101111
 31
0.0
  0
ELLIPSE
  5
E1
330
1F
100
AcDbEntity
  8
0
  6
HIDDEN
 62
     7
370
     0
100
AcDbEllipse
 10
156.3514950468
 20
93.9631101111
 30
0.0
 11
0.0
 21
1.599999999999994
 31
0.0
210
0.0
220
0.0
230
1.0
 40
0.4142135624
 41
4.712388980384695
 42
6.283185307179586
  0
LINE
  5
E2
330
1F
100
AcDbEntity
  8
0
  6
HIDDEN
 62
     7
370
     0
100
AcDbLine
 10
156.3514950468
 20
95.5631101111
 30
0.0
 11
156.0142367466
 21
95.5631101111
 31
0.0
  0
LINE
  5
E3
330
1F
100
AcDbEntity
  8
0
  6
HIDDEN
 62
     7
370
     0
100
AcDbLine
 10
156.0142367466
 20
127.9631101111
 30
0.0
 11
156.3514950468
 21
127.9631101111
 31
0.0
  0
ELLIPSE
  5
E4
330
1F
100
AcDbEntity
  8
0
  6
HIDDEN
 62
     7
370
     0
100
AcDbEllipse
 10
156.3514950468
 20
129.5631101111
 30
0.0
 11
0.0
 21
1.599999999999994
 31
0.0
210
0.0
220
0.0
230
1.0
 40
0.4142135624
 41
3.141592653589793
 42
4.712388980384677
  0
LINE
  5
E5
330
1F
100
AcDbEntity
  8
0
  6
HIDDEN
 62
     7
370
     0
100
AcDbLine
 10
156.4369148849
 20
132.8856750672
 30
0.0
 11
157.0142367466
 21
132.3083532056
 31
0.0
  0
LINE
  5
E6
330
1F
100
AcDbEntity
  8
0
  6
HIDDEN
 62
     7
370
     0
100
AcDbLine
 10
157.0142367466
 20
91.2178670166
 30
0.0
 11
156.4369148849
 21
90.6405451549
 31
0.0
  0
SPLINE
  5
E7
330
1F
100
AcDbEntity
  8
0
  6
HIDDEN
 62
     7
370
     0
100
AcDbSpline
210
0.0
220
0.0
230
1.0
 70
    24
 71
     3
 72
    12
 73
     8
 74
     0
 42
0.000000001
 43
0.00000001
 40
0.0
 40
0.0
 40
0.0
 40
0.0
 40
0.4999999999999907
 40
0.4999999999999907
 40
0.7499999999999953
 40
0.7499999999999953
 40
1.0
 40
1.0
 40
1.0
 40
1.0
 10
165.7795973805916
 20
127.963110111086
 30
0.0
 10
165.8258785246535
 20
127.963110111086
 30
0.0
 10
165.87205171462
 20
127.963110111086
 30
0.0
 10
165.9412669732089
 20
127.963110111086
 30
0.0
 10
165.9643301367932
 20
127.963110111086
 30
0.0
 10
166.0105260774468
 20
127.963110111086
 30
0.0
 10
166.0335055693171
 20
127.963110111086
 30
0.0
 10
166.057146079122
 20
127.963110111086
 30
0.0
  0
LINE
  5
E8
330
1F
100
AcDbEntity
  8
0
  6
HIDDEN
 62
     7
370
     0
100
AcDbLine
 10
164.1284667511
 20
91.2178670166
 30
0.0
 11
157.0142367466
 21
91.2178670166
 31
0.0
  0
LINE
  5
E9
330
1F
100
AcDbEntity
  8
0
  6
HIDDEN
 62
     7
370
     0
100
AcDbLine
 10
157.0142367466
 20
91.2178670166
 30
0.0
 11
157.0142367466
 21
93.9631101111
 31
0.0
  0
LINE
  5
EA
330
1F
100
AcDbEntity
  8
0
  6
HIDDEN
 62
     7
370
     0
100
AcDbLine
 10
164.9642367466
 20
127.9631101111
 30
0.0
 11
165.4698332563
 21
127.9631101111
 31
0.0
  0
SPLINE
  5
EB
330
1F
100
AcDbEntity
  8
0
  6
HIDDEN
 62
     7
370
     0
100
AcDbSpline
210
0.0
220
0.0
230
1.0
 70
    24
 71
     3
 72
    12
 73
     8
 74
     0
 42
0.000000001
 43
0.00000001
 40
0.0
 40
0.0
 40
0.0
 40
0.0
 40
0.2499999999999953
 40
0.2499999999999953
 40
0.4999999999999907
 40
0.4999999999999907
 40
1.0
 40
1.0
 40
1.0
 40
1.0
 10
166.057146079122
 20
95.56311011108598
 30
0.0
 10
166.0335055693171
 20
95.56311011108598
 30
0.0
 10
166.0105260774468
 20
95.56311011108598
 30
0.0
 10
165.9643301367932
 20
95.56311011108596
 30
0.0
 10
165.9412669732089
 20
95.56311011108598
 30
0.0
 10
165.87205171462
 20
95.56311011108596
 30
0.0
 10
165.8258785246535
 20
95.56311011108598
 30
0.0
 10
165.7795973805916
 20
95.56311011108598
 30
0.0
  0
LINE
  5
EC
330
1F
100
AcDbEntity
  8
0
  6
HIDDEN
 62
     7
370
     0
100
AcDbLine
 10
157.0142367466
 20
132.3083532056
 30
0.0
 11
164.1284667511
 21
132.3083532056
 31
0.0
  0
LINE
  5
ED
330
1F
100
AcDbEntity
  8
0
  6
HIDDEN
 62
     7
370
     0
100
AcDbLine
 10
157.0142367466
 20
132.3083532056
 30
0.0
 11
157.0142367466
 21
129.5631101111
 31
0.0
  0
LINE
  5
EE
330
1F
100
AcDbEntity
  8
0
  6
HIDDEN
 62
     7
370
     0
100
AcDbLine
 10
156.3514950468
 20
127.9631101111
 30
0.0
 11
164.9642367466
 21
127.9631101111
 31
0.0
  0
LINE
  5
EF
330
1F
100
AcDbEntity
  8
0
  6
HIDDEN
 62
     7
370
     0
100
AcDbLine
 10
165.4698332563
 20
95.5631101111
 30
0.0
 11
164.9642367466
 21
95.5631101111
 31
0.0
  0
LINE
  5
F0
330
1F
100
AcDbEntity
  8
0
  6
HIDDEN
 62
     7
370
     0
100
AcDbLine
 10
164.9642367466
 20
95.5631101111
 30
0.0
 11
156.3514950468
 21
95.5631101111
 31
0.0
  0
SPLINE
  5
F1
330
1F
100
AcDbEntity
  8
0
  6
HIDDEN
 62
     7
370
     0
100
AcDbSpline
210
0.0
220
0.0
230
1.0
 70
    24
 71
     3
 72
     8
 73
     4
 74
     0
 42
0.000000001
 43
0.00000001
 40
0.0
 40
0.0
 40
0.0
 40
0.0
 40
1.0
 40
1.0
 40
1.0
 40
1.0
 10
165.7795973805916
 20
95.56311011108598
 30
0.0
 10
165.6763100460269
 20
95.56311011108598
 30
0.0
 10
165.5730554465413
 20
95.56311011108598
 30
0.0
 10
165.4698332563355
 20
95.56311011108598
 30
0.0
  0
SPLINE
  5
F2
330
1F
100
AcDbEntity
  8
0
  6
HIDDEN
 62
     7
370
     0
100
AcDbSpline
210
0.0
220
0.0
230
1.0
 70
    24
 71
     3
 72
     8
 73
     4
 74
     0
 42
0.000000001
 43
0.00000001
 40
0.0
 40
0.0
 40
0.0
 40
0.0
 40
1.0
 40
1.0
 40
1.0
 40
1.0
 10
165.4698332563355
 20
127.963110111086
 30
0.0
 10
165.5730554465413
 20
127.963110111086
 30
0.0
 10
165.6763100460269
 20
127.963110111086
 30
0.0
 10
165.7795973805916
 20
127.963110111086
 30
0.0
  0
SPLINE
  5
F3
330
1F
100
AcDbEntity
  8
0
  6
HIDDEN
 62
     7
370
     0
100
AcDbSpline
210
0.0
220
0.0
230
1.0
 70
    24
 71
     3
 72
     8
 73
     4
 74
     0
 42
0.000000001
 43
0.00000001
 40
0.0000000000000044
 40
0.0000000000000044
 40
0.0000000000000044
 40
0.0000000000000044
 40
0.0003364172281863
 40
0.0003364172281863
 40
0.0003364172281863
 40
0.0003364172281863
 10
168.0699328334748
 20
127.963110111086
 30
0.0
 10
168.166980483432
 20
127.963110111086
 30
0.0
 10
168.2612872734726
 20
127.963110111086
 30
0.0
 10
168.356662772892
 20
127.963110111086
 30
0.0
  0
SPLINE
  5
F4
330
1F
100
AcDbEntity
  8
0
  6
HIDDEN
 62
     7
370
     0
100
AcDbSpline
210
0.0
220
0.0
230
1.0
 70
    24
 71
     3
 72
    11
 73
     7
 74
     0
 42
0.000000001
 43
0.00000001
 40
0.0
 40
0.0
 40
0.0
 40
0.0
 40
0.0000172284261762
 40
0.0000172284261762
 40
0.0000172284261762
 40
0.0003364215432166
 40
0.0003364215432166
 40
0.0003364215432166
 40
0.0003364215432166
 10
168.356662772892
 20
95.56311011108598
 30
0.0
 10
168.3517784518374
 20
95.56311011108598
 30
0.0
 10
168.3468966093758
 20
95.56311011108598
 30
0.0
 10
168.3420168498102
 20
95.56311011108598
 30
0.0
 10
168.2516101362746
 20
95.56311011108598
 30
0.0
 10
168.1620105751834
 20
95.56311011108598
 30
0.0
 10
168.0699328334748
 20
95.56311011108598
 30
0.0
  0
SPLINE
  5
F5
330
1F
100
AcDbEntity
  8
0
  6
HIDDEN
 62
     7
370
     0
100
AcDbSpline
210
0.0
220
0.0
230
1.0
 70
     8
 71
     3
 72
    18
 73
    14
 74
     0
 42
0.000000001
 43
0.00000001
 40
0.0
 40
0.0
 40
0.0
 40
0.0
 40
0.1460838096918961
 40
0.278130599249695
 40
0.3961757258599856
 40
0.5002703092959755
 40
0.5869262499628183
 40
0.6721524275985051
 40
0.7559997285044003
 40
0.8385215906750008
 40
0.919774068126477
 40
0.999815882648149
 40
1.0
 40
1.0
 40
1.0
 40
1.0
 10
170.96165425987
 20
132.9186821232302
 30
0.0
 10
171.1435994802414
 20
132.985082837649
 30
0.0
 10
171.490007020401
 20
133.1115039005364
 30
0.0
 10
171.9067716906817
 20
133.2775308671273
 30
0.0
 10
172.2304164494511
 20
133.4138244658003
 30
0.0
 10
172.4689862425844
 20
133.5180239871196
 30
0.0
 10
172.6479985220539
 20
133.5960400055291
 30
0.0
 10
172.7841374823704
 20
133.6565970354741
 30
0.0
 10
172.888118627875
 20
133.7036093654897
 30
0.0
 10
172.9622512571913
 20
133.7379084341206
 30
0.0
 10
173.0020687698248
 20
133.7568092849269
 30
0.0
 10
173.0198084179451
 20
133.7656844142508
 30
0.0
 10
173.014211056066
 20
133.7630972528763
 30
0.0
 10
173.0141982102015
 20
133.7630913153784
 30
0.0
  0
SPLINE
  5
F6
330
1F
100
AcDbEntity
  8
0
  6
HIDDEN
 62
     7
370
     0
100
AcDbSpline
210
0.0
220
0.0
230
1.0
 70
     8
 71
     3
 72
    14
 73
    10
 74
     0
 42
0.000000001
 43
0.00000001
 40
0.0
 40
0.0
 40
0.0
 40
0.0
 40
0.0001837459954045
 40
0.1206873855942913
 40
0.244022104966844
 40
0.3703795474084404
 40
0.4999379337759426
 40
0.7219783401294918
 40
1.0
 40
1.0
 40
1.0
 40
1.0
 10
173.0141391417063
 20
89.76315639318673
 30
0.0
 10
173.0141716885701
 20
89.76314128835195
 30
0.0
 10
173.0355490029428
 20
89.75322018494869
 30
0.0
 10
172.9824694735196
 20
89.77892694512141
 30
0.0
 10
172.8967242597885
 20
89.8187595823381
 30
0.0
 10
172.724928810193
 20
89.89648793759433
 30
0.0
 10
172.4283081033231
 20
90.02575107822003
 30
0.0
 10
171.9019386850189
 20
90.25778564598328
 30
0.0
 10
171.2976328028764
 20
90.48256599856978
 30
0.0
 10
170.9616542598698
 20
90.60753809894177
 30
0.0
  0
LINE
  5
F7
330
1F
100
AcDbEntity
  8
0
  6
HIDDEN
 62
     7
370
     0
100
AcDbLine
 10
171.4142367466
 20
95.5631101111
 30
0.0
 11
168.3566627729
 21
95.5631101111
 31
0.0
  0
LINE
  5
F8
330
1F
100
AcDbEntity
  8
0
  6
HIDDEN
 62
     7
370
     0
100
AcDbLine
 10
168.3566627729
 20
127.9631101111
 30
0.0
 11
171.4142367466
 21
127.9631101111
 31
0.0
  0
SPLINE
  5
F9
330
1F
100
AcDbEntity
  8
0
  6
HIDDEN
 62
     7
370
     0
100
AcDbSpline
210
0.0
220
0.0
230
1.0
 70
    24
 71
     3
 72
    10
 73
     6
 74
     0
 42
0.000000001
 43
0.00000001
 40
0.0
 40
0.0
 40
0.0
 40
0.0
 40
0.5
 40
0.5
 40
1.0
 40
1.0
 40
1.0
 40
1.0
 10
166.057146079122
 20
127.963110111086
 30
0.0
 10
166.4133158825831
 20
127.963110111086
 30
0.0
 10
166.7616549775124
 20
127.963110111086
 30
0.0
 10
167.4319355027542
 20
127.963110111086
 30
0.0
 10
167.755750735906
 20
127.963110111086
 30
0.0
 10
168.069932833471
 20
127.963110111086
 30
0.0
  0
SPLINE
  5
FA
330
1F
100
AcDbEntity
  8
0
  6
HIDDEN
 62
     7
370
     0
100
AcDbSpline
210
0.0
220
0.0
230
1.0
 70
    24
 71
     3
 72
    10
 73
     6
 74
     0
 42
0.000000001
 43
0.00000001
 40
0.0
 40
0.0
 40
0.0
 40
0.0
 40
0.5
 40
0.5
 40
1.0
 40
1.0
 40
1.0
 40
1.0
 10
168.069932833471
 20
95.56311011108598
 30
0.0
 10
167.755750735906
 20
95.56311011108598
 30
0.0
 10
167.4319355027542
 20
95.56311011108598
 30
0.0
 10
166.7616549775124
 20
95.56311011108598
 30
0.0
 10
166.4133158825831
 20
95.56311011108598
 30
0.0
 10
166.0571460791221
 20
95.56311011108598
 30
0.0
  0
LINE
  5
FB
330
1F
100
AcDbEntity
  8
0
  6
HIDDEN
 62
     7
370
     0
100
AcDbLine
 10
110.6142367466
 20
105.5131101111
 30
0.0
 11
110.6142367466
 21
118.0131101111
 31
0.0
  0
SPLINE
  5
FC
330
1F
100
AcDbEntity
  8
0
  6
HIDDEN
 62
     7
370
     0
100
AcDbSpline
210
0.0
220
0.0
230
1.0
 70
     8
 71
     3
 72
     9
 73
     5
 74
     0
 42
0.000000001
 43
0.00000001
 40
0.0
 40
0.0
 40
0.0
 40
0.0
 40
0.508496891989613
 40
1.0
 40
1.0
 40
1.0
 40
1.0
 10
171.6392680737123
 20
89.66833067909688
 30
0.0
 10
171.5234393200899
 20
89.82798108811667
 30
0.0
 10
171.2956527682997
 20
90.14194644667593
 30
0.0
 10
171.0717188082724
 20
90.45415105954282
 30
0.0
 10
170.9616545709299
 20
90.60760059710209
 30
0.0
  0
SPLINE
  5
FD
330
1F
100
AcDbEntity
  8
0
  6
HIDDEN
 62
     7
370
     0
100
AcDbSpline
210
0.0
220
0.0
230
1.0
 70
     8
 71
     3
 72
     9
 73
     5
 74
     0
 42
0.000000001
 43
0.00000001
 40
0.0
 40
0.0
 40
0.0
 40
0.0
 40
0.4915031080748115
 40
1.0
 40
1.0
 40
1.0
 40
1.0
 10
170.9616545709299
 20
132.9186196250699
 30
0.0
 10
171.0717188082887
 20
133.0720691626541
 30
0.0
 10
171.2956527683198
 20
133.3842737755308
 30
0.0
 10
171.5234393201064
 20
133.6982391340804
 30
0.0
 10
171.6392680737123
 20
133.8578895430751
 30
0.0
  0
LINE
  5
FE
330
1F
100
AcDbEntity
  8
0
  6
HIDDEN
 62
     7
370
     0
100
AcDbLine
 10
113.4369608801
 20
106.6631101111
 30
0.0
 11
113.4369608801
 21
116.8631101111
 31
0.0
  0
LINE
  5
FF
330
1F
100
AcDbEntity
  8
0
  6
HIDDEN
 62
     7
370
     0
100
AcDbLine
 10
192.6642367466
 20
123.9381101111
 30
0.0
 11
192.6642367466
 21
122.5631101111
 31
0.0
  0
LINE
  5
100
330
1F
100
AcDbEntity
  8
0
  6
HIDDEN
 62
     7
370
     0
100
AcDbLine
 10
192.6642367466
 20
100.9631101111
 30
0.0
 11
192.6642367466
 21
99.5881101111
 31
0.0
  0
LINE
  5
101
330
1F
100
AcDbEntity
  8
0
  6
HIDDEN
 62
     7
370
     0
100
AcDbLine
 10
139.6142367466
 20
106.6631101111
 30
0.0
 11
139.6142367466
 21
116.8631101111
 31
0.0
  0
LINE
  5
102
330
1F
100
AcDbEntity
  8
0
  6
HIDDEN
 62
     7
370
     0
100
AcDbLine
 10
140.1249682727
 20
107.5131101111
 30
0.0
 11
140.1249682727
 21
116.0131101111
 31
0.0
  0
LINE
  5
103
330
1F
100
AcDbEntity
  8
0
  6
HIDDEN
 62
     7
370
     0
100
AcDbLine
 10
196.0142367466
 20
125.2631101111
 30
0.0
 11
195.5642367466
 21
124.2980819969
 31
0.0
  0
LINE
  5
104
330
1F
100
AcDbEntity
  8
0
  6
HIDDEN
 62
     7
370
     0
100
AcDbLine
 10
195.5642367466
 20
99.2281382253
 30
0.0
 11
196.0142367466
 21
98.2631101111
 31
0.0
  0
LINE
  5
105
330
1F
100
AcDbEntity
  8
0
  6
HIDDEN
 62
     7
370
     0
100
AcDbLine
 10
195.5613123893
 20
122.5631101111
 30
0.0
 11
192.6642367466
 21
122.5631101111
 31
0.0
  0
LINE
  5
106
330
1F
100
AcDbEntity
  8
0
  6
HIDDEN
 62
     7
370
     0
100
AcDbLine
 10
192.6642367466
 20
100.9631101111
 30
0.0
 11
195.5642367466
 21
100.9631101111
 31
0.0
  0
LINE
  5
107
330
1F
100
AcDbEntity
  8
0
  6
HIDDEN
 62
     7
370
     0
100
AcDbLine
 10
192.6642367466
 20
121.2249903264
 30
0.0
 11
191.8642367466
 21
120.7631101111
 31
0.0
  0
LINE
  5
108
330
1F
100
AcDbEntity
  8
0
  6
HIDDEN
 62
     7
370
     0
100
AcDbLine
 10
191.8642367466
 20
102.7631101111
 30
0.0
 11
192.6642367466
 21
102.3012298957
 31
0.0
  0
LINE
  5
109
330
1F
100
AcDbEntity
  8
0
  6
HIDDEN
 62
     7
370
     0
100
AcDbLine
 10
177.6142367466
 20
102.5631101111
 30
0.0
 11
178.1888350865
 21
102.5631101111
 31
0.0
  0
LINE
  5
10A
330
1F
100
AcDbEntity
  8
0
  6
HIDDEN
 62
     7
370
     0
100
AcDbLine
 10
178.1888350865
 20
120.9631101111
 30
0.0
 11
177.6142367466
 21
120.9631101111
 31
0.0
  0
ARC
  5
10B
330
1F
100
AcDbEntity
  8
0
  6
HIDDEN
 62
     7
370
     0
100
AcDbCircle
 10
178.1888350865
 20
103.1631101111
 30
0.0
 40
0.6000000000000085
100
AcDbArc
 50
270.0
 51
285.0
  0
ARC
  5
10C
330
1F
100
AcDbEntity
  8
0
  6
HIDDEN
 62
     7
370
     0
100
AcDbCircle
 10
178.1888350865
 20
120.3631101111
 30
0.0
 40
0.6000000000000145
100
AcDbArc
 50
75.0
 51
90.0
  0
ARC
  5
10D
330
1F
100
AcDbEntity
  8
0
  6
HIDDEN
 62
     7
370
     0
100
AcDbCircle
 10
177.6142367466
 20
103.1631101111
 30
0.0
 40
0.6000000000000227
100
AcDbArc
 50
180.0
 51
270.0
  0
ARC
  5
10E
330
1F
100
AcDbEntity
  8
0
  6
HIDDEN
 62
     7
370
     0
100
AcDbCircle
 10
177.6142367466
 20
120.3631101111
 30
0.0
 40
0.6000000000000227
100
AcDbArc
 50
90.0
 51
180.0
  0
LINE
  5
10F
330
1F
100
AcDbEntity
  8
0
  6
HIDDEN
 62
     7
370
     0
100
AcDbLine
 10
178.3441265135
 20
102.5835546153
 30
0.0
 11
179.0142367466
 21
102.7631101111
 31
0.0
  0
LINE
  5
110
330
1F
100
AcDbEntity
  8
0
  6
HIDDEN
 62
     7
370
     0
100
AcDbLine
 10
179.0142367466
 20
120.7631101111
 30
0.0
 11
178.3441265135
 21
120.9426656069
 31
0.0
  0
LINE
  5
111
330
1F
100
AcDbEntity
  8
0
  6
HIDDEN
 62
     7
370
     0
100
AcDbLine
 10
179.0142367466
 20
102.7631101111
 30
0.0
 11
191.8642367466
 21
102.7631101111
 31
0.0
  0
LINE
  5
112
330
1F
100
AcDbEntity
  8
0
  6
HIDDEN
 62
     7
370
     0
100
AcDbLine
 10
191.8642367466
 20
120.7631101111
 30
0.0
 11
179.0142367466
 21
120.7631101111
 31
0.0
  0
ARC
  5
113
330
1F
100
AcDbEntity
  8
0
  6
HIDDEN
 62
     7
370
     0
100
AcDbCircle
 10
106.4142367466
 20
104.7131101111
 30
0.0
 40
0.7999999999999972
100
AcDbArc
 50
90.0
 51
180.0
  0
ARC
  5
114
330
1F
100
AcDbEntity
  8
0
  6
HIDDEN
 62
     7
370
     0
100
AcDbCircle
 10
106.4142367466
 20
118.8131101111
 30
0.0
 40
0.7999999999999972
100
AcDbArc
 50
180.0
 51
270.0
  0
LINE
  5
115
330
1F
100
AcDbEntity
  8
0
  6
HIDDEN
 62
     7
370
     0
100
AcDbLine
 10
173.0142367466
 20
129.5631101111
 30
0.0
 11
173.0142367466
 21
133.7630913154
 31
0.0
  0
LINE
  5
116
330
1F
100
AcDbEntity
  8
0
  6
HIDDEN
 62
     7
370
     0
100
AcDbLine
 10
173.0142367466
 20
89.7631563932
 30
0.0
 11
173.0142367466
 21
93.9631101111
 31
0.0
  0
ARC
  5
117
330
1F
100
AcDbEntity
  8
0
  6
HIDDEN
 62
     7
370
     0
100
AcDbCircle
 10
171.4142367466
 20
93.9631101111
 30
0.0
 40
1.600000000000023
100
AcDbArc
 50
0.0
 51
90.0
  0
ARC
  5
118
330
1F
100
AcDbEntity
  8
0
  6
HIDDEN
 62
     7
370
     0
100
AcDbCircle
 10
171.4142367466
 20
129.5631101111
 30
0.0
 40
1.600000000000023
100
AcDbArc
 50
270.0
 51
0.0
  0
ARC
  5
119
330
1F
100
AcDbEntity
  8
0
  6
HIDDEN
 62
     7
370
     0
100
AcDbCircle
 10
111.6932117177
 20
105.6381101111
 30
0.0
 40
0.3999999999999923
100
AcDbArc
 50
255.0
 51
270.0
  0
ARC
  5
11A
330
1F
100
AcDbEntity
  8
0
  6
HIDDEN
 62
     7
370
     0
100
AcDbCircle
 10
111.6932117177
 20
117.8881101111
 30
0.0
 40
0.400000000000006
100
AcDbArc
 50
90.0
 51
105.0
  0
LINE
  5
11B
330
1F
100
AcDbEntity
  8
0
  6
HIDDEN
 62
     7
370
     0
100
AcDbLine
 10
111.6932117177
 20
105.2381101111
 30
0.0
 11
112.3832966389
 21
105.2381101111
 31
0.0
  0
LINE
  5
11C
330
1F
100
AcDbEntity
  8
0
  6
HIDDEN
 62
     7
370
     0
100
AcDbLine
 10
112.3832966389
 20
118.2881101111
 30
0.0
 11
111.6932117177
 21
118.2881101111
 31
0.0
  0
ARC
  5
11D
330
1F
100
AcDbEntity
  8
0
  6
HIDDEN
 62
     7
370
     0
100
AcDbCircle
 10
112.3832966389
 20
105.6381101111
 30
0.0
 40
0.4000000000000173
100
AcDbArc
 50
270.0
 51
330.0
  0
ARC
  5
11E
330
1F
100
AcDbEntity
  8
0
  6
HIDDEN
 62
     7
370
     0
100
AcDbCircle
 10
112.3832966389
 20
117.8881101111
 30
0.0
 40
0.4000000000000173
100
AcDbArc
 50
30.0
 51
90.0
  0
LINE
  5
11F
330
1F
100
AcDbEntity
  8
0
  6
HIDDEN
 62
     7
370
     0
100
AcDbLine
 10
111.5896840996
 20
118.2744804416
 30
0.0
 11
110.6142367466
 21
118.0131101111
 31
0.0
  0
LINE
  5
120
330
1F
100
AcDbEntity
  8
0
  6
HIDDEN
 62
     7
370
     0
100
AcDbLine
 10
110.6142367466
 20
105.5131101111
 30
0.0
 11
111.5896840996
 21
105.2517397806
 31
0.0
  0
LINE
  5
121
330
1F
100
AcDbEntity
  8
0
  6
HIDDEN
 62
     7
370
     0
100
AcDbLine
 10
174.0142460881
 20
88.7631039943
 30
0.0
 11
173.0142456177
 21
89.7631040233
 31
0.0
  0
LINE
  5
122
330
1F
100
AcDbEntity
  8
0
  6
HIDDEN
 62
     7
370
     0
100
AcDbLine
 10
173.014245618
 20
133.7631161992
 30
0.0
 11
174.0142460884
 21
134.7631162281
 31
0.0
  0
LINE
  5
123
330
1F
100
AcDbEntity
  8
0
  6
HIDDEN
 62
     7
370
     0
100
AcDbLine
 10
112.7297068004
 20
105.4381101111
 30
0.0
 11
113.4369608801
 21
106.6631101111
 31
0.0
  0
LINE
  5
124
330
1F
100
AcDbEntity
  8
0
  6
HIDDEN
 62
     7
370
     0
100
AcDbLine
 10
113.4369608801
 20
116.8631101111
 30
0.0
 11
112.7297068004
 21
118.0881101111
 31
0.0
  0
LINE
  5
125
330
1F
100
AcDbEntity
  8
0
  6
HIDDEN
 62
     7
370
     0
100
AcDbLine
 10
106.4142367466
 20
105.5131101111
 30
0.0
 11
110.6142367466
 21
105.5131101111
 31
0.0
  0
LINE
  5
126
330
1F
100
AcDbEntity
  8
0
  6
HIDDEN
 62
     7
370
     0
100
AcDbLine
 10
110.6142367466
 20
118.0131101111
 30
0.0
 11
106.4142367466
 21
118.0131101111
 31
0.0
  0
LINE
  5
127
330
1F
100
AcDbEntity
  8
0
  6
HIDDEN
 62
     7
370
     0
100
AcDbLine
 10
195.5642367466
 20
123.9381101111
 30
0.0
 11
192.6642367466
 21
123.9381101111
 31
0.0
  0
LINE
  5
128
330
1F
100
AcDbEntity
  8
0
  6
HIDDEN
 62
     7
370
     0
100
AcDbLine
 10
192.6642367466
 20
99.5881101111
 30
0.0
 11
195.5642367466
 21
99.5881101111
 31
0.0
  0
LINE
  5
129
330
1F
100
AcDbEntity
  8
0
  6
HIDDEN
 62
     7
370
     0
100
AcDbLine
 10
113.4369608801
 20
106.6631101111
 30
0.0
 11
139.6142367466
 21
106.6631101111
 31
0.0
  0
LINE
  5
12A
330
1F
100
AcDbEntity
  8
0
  6
HIDDEN
 62
     7
370
     0
100
AcDbLine
 10
139.6142367466
 20
116.8631101111
 30
0.0
 11
113.4369608801
 21
116.8631101111
 31
0.0
  0
LINE
  5
12B
330
1F
100
AcDbEntity
  8
0
  6
HIDDEN
 62
     7
370
     0
100
AcDbLine
 10
139.6142367466
 20
106.6631101111
 30
0.0
 11
140.1249682727
 21
107.5131101111
 31
0.0
  0
LINE
  5
12C
330
1F
100
AcDbEntity
  8
0
  6
HIDDEN
 62
     7
370
     0
100
AcDbLine
 10
140.1249682727
 20
116.0131101111
 30
0.0
 11
139.6142367466
 21
116.8631101111
 31
0.0
  0
LINE
  5
12D
330
1F
100
AcDbEntity
  8
0
  6
HIDDEN
 62
     7
370
     0
100
AcDbLine
 10
140.1249682727
 20
107.5131101111
 30
0.0
 11
177.0142367466
 21
107.5131101111
 31
0.0
  0
LINE
  5
12E
330
1F
100
AcDbEntity
  8
0
  6
HIDDEN
 62
     7
370
     0
100
AcDbLine
 10
177.0142367466
 20
116.0131101111
 30
0.0
 11
140.1249682727
 21
116.0131101111
 31
0.0
  0
LINE
  5
12F
330
1F
100
AcDbEntity
  8
0
  6
HIDDEN
 62
     7
370
     0
100
AcDbLine
 10
195.561543216
 20
122.5631101111
 30
0.0
 11
195.5613123893
 21
122.5631101111
 31
0.0
  0
DIMENSION
  5
130
330
1F
100
AcDbEntity
  8
VERMASSUNG
100
AcDbDimension
  2
_D
 10
99.9841414544
 20
88.7631101111
 30
0.0
 11
99.9841414544
 21
111.7631101111
 31
0.0
 70
   160
  1
MAS BT 30 %%c<>
 71
     2
 42
-1.0
  3
SLDDIMSTYLE0
100
AcDbAlignedDimension
 13
174.0142353044
 23
134.7631101111
 33
0.0
 14
174.0142353357
 24
88.7631101111
 34
0.0
 50
90.0
100
AcDbRotatedDimension
  0
DIMENSION
  5
13D
330
1F
100
AcDbEntity
  8
VERMASSUNG
100
AcDbDimension
  2
_D_1
 10
196.0142367466
 20
137.9201011818
 30
0.0
 11
186.0142367466
 21
137.9201011818
 31
0.0
 70
   160
  1
<>
 71
     2
 42
-1.0
  3
SLDDIMSTYLE0
100
AcDbAlignedDimension
 13
176.0142367466
 23
134.7631101111
 33
0.0
 14
196.0142367466
 24
127.4631101111
 34
0.0
100
AcDbRotatedDimension
  0
DIMENSION
  5
147
330
1F
100
AcDbEntity
  8
VERMASSUNG
100
AcDbDimension
  2
_D_2
 10
196.0142367466
 20
143.9201011818
 30
0.0
 11
175.0142367466
 21
143.9201011818
 31
0.0
 70
   160
  1
<>
 71
     2
 42
-1.0
  3
SLDDIMSTYLE0
100
AcDbAlignedDimension
 13
154.0142367466
 23
127.6381101111
 33
0.0
 14
196.0142367466
 24
127.4631101111
 34
0.0
100
AcDbRotatedDimension
  0
DIMENSION
  5
151
330
1F
100
AcDbEntity
  8
VERMASSUNG
100
AcDbDimension
  2
_D_3
 10
196.0142367466
 20
149.9201011818
 30
0.0
 11
150.8142367466
 21
149.9201011818
 31
0.0
 70
   160
  1
<>
 71
     2
 42
-1.0
  3
SLDDIMSTYLE0
100
AcDbAlignedDimension
 13
105.6142367466
 23
120.1474045763
 33
0.0
 14
196.0142367466
 24
127.4631101111
 34
0.0
100
AcDbRotatedDimension
  0
DIMENSION
  5
15B
330
1F
100
AcDbEntity
  8
VERMASSUNG
100
AcDbDimension
  2
_D_4
 10
202.103247255
 20
95.7631101111
 30
0.0
 11
202.103247255
 21
111.7631101111
 31
0.0
 70
   160
  1
MBM %%c<>
 71
     2
 42
-1.0
  3
SLDDIMSTYLE0
100
AcDbAlignedDimension
 13
195.7142367466
 23
127.7631101111
 33
0.0
 14
195.7142367466
 24
95.7631101111
 34
0.0
 50
90.0
100
AcDbRotatedDimension
  0
LINE
  5
167
330
1F
100
AcDbEntity
  8
VERMASSUNG
  6
CENTERX2
 62
     7
370
     0
100
AcDbLine
 10
103.6142367466
 20
111.7631101111
 30
0.0
 11
198.0142367466
 21
111.7631101111
 31
0.0
  0
LINE
  5
168
330
1F
100
AcDbEntity
  8
0
  6
Continuous
 62
     7
370
    15
100
AcDbLine
 10
276.6558257321
 20
33.8951647869
 30
0.0
 11
276.4790203126
 21
33.9972655607
 31
0.0
  0
LINE
  5
169
330
1F
100
AcDbEntity
  8
0
  6
Continuous
 62
     7
370
    15
100
AcDbLine
 10
274.0037444399
 20
33.9972655607
 30
0.0
 11
273.8269390204
 21
33.8951647869
 31
0.0
  0
LINE
  5
16A
330
1F
100
AcDbEntity
  8
0
  6
Continuous
 62
     7
370
    15
100
AcDbLine
 10
277.2413823763
 20
32.7726865491
 30
0.0
 11
277.2413823763
 21
33.0788893536
 31
0.0
  0
LINE
  5
16B
330
1F
100
AcDbEntity
  8
0
  6
Continuous
 62
     7
370
    15
100
AcDbLine
 10
273.2413823763
 20
33.0788893536
 30
0.0
 11
273.2413823763
 21
32.7726865491
 31
0.0
  0
LINE
  5
16C
330
1F
100
AcDbEntity
  8
0
  6
Continuous
 62
     7
370
    15
100
AcDbLine
 10
278.4242822895
 20
18.3819841582
 30
0.0
 11
278.530331068
 21
18.4432247183
 31
0.0
  0
LINE
  5
16D
330
1F
100
AcDbEntity
  8
0
  6
Continuous
 62
     7
370
    15
100
AcDbLine
 10
284.0802171411
 20
28.0569510404
 30
0.0
 11
284.0802171411
 21
28.1794122572
 31
0.0
  0
LINE
  5
16E
330
1F
100
AcDbEntity
  8
0
  6
Continuous
 62
     7
370
    15
100
AcDbLine
 10
268.5193463382
 20
21.3938927777
 30
0.0
 11
274.4236879611
 21
17.9853889108
 31
0.0
  0
LINE
  5
16F
330
1F
100
AcDbEntity
  8
0
  6
Continuous
 62
     7
370
    15
100
AcDbLine
 10
282.4230378221
 20
31.8421707089
 30
0.0
 11
276.5186961992
 21
35.2506745758
 31
0.0
  0
LINE
  5
170
330
1F
100
AcDbEntity
  8
0
  6
Continuous
 62
     7
370
    15
100
AcDbLine
 10
264.1620323004
 20
19.8679742155
 30
0.0
 11
265.7088283843
 21
18.9750278432
 31
0.0
  0
LINE
  5
171
330
1F
100
AcDbEntity
  8
0
  6
Continuous
 62
     7
370
    15
100
AcDbLine
 10
277.2078938096
 20
38.894151678
 30
0.0
 11
275.6610977257
 21
39.7870980503
 31
0.0
  0
LINE
  5
172
330
1F
100
AcDbEntity
  8
0
  6
Continuous
 62
     7
370
    15
100
AcDbLine
 10
272.8149929315
 20
41.4301193753
 30
0.0
 11
270.4903793883
 21
42.7720902091
 31
0.0
  0
SPLINE
  5
173
330
1F
100
AcDbEntity
  8
0
  6
Continuous
 62
     7
370
    15
100
AcDbSpline
210
0.0
220
0.0
230
1.0
 70
     8
 71
     3
 72
    32
 73
    28
 74
     0
 42
0.000000001
 43
0.00000001
 40
0.0
 40
0.0
 40
0.0
 40
0.0
 40
0.0132970383589692
 40
0.054196178354714
 40
0.0951203563523354
 40
0.1362333393770229
 40
0.1776535739262095
 40
0.2194283487219662
 40
0.2615373193166686
 40
0.3039146992356091
 40
0.3464776482147836
 40
0.3891488406214755
 40
0.4318680611684723
 40
0.474588205499141
 40
0.5172861102423103
 40
0.559952718602812
 40
0.6025859377209797
 40
0.64518794722343
 40
0.68776341819977
 40
0.7303184084986842
 40
0.7728597158645858
 40
0.8153945225429251
 40
0.8579302142853846
 40
0.9004724017612101
 40
0.9430280548463887
 40
0.9856047544744184
 40
1.0
 40
1.0
 40
1.0
 40
1.0
 10
270.4422827936093
 20
42.78970696604466
 30
0.0
 10
270.3899176273165
 20
42.82181573125516
 30
0.0
 10
270.1764872516673
 20
42.95268490069878
 30
0.0
 10
269.7635471751519
 20
43.11360044466823
 30
0.0
 10
269.2088193150475
 20
43.26948651142261
 30
0.0
 10
268.6227726457587
 20
43.35048748532792
 30
0.0
 10
268.0118267934139
 20
43.36211103017318
 30
0.0
 10
267.3783361175904
 20
43.30225867529478
 30
0.0
 10
266.7264715991734
 20
43.17125659545982
 30
0.0
 10
266.060666008278
 20
42.96950788693874
 30
0.0
 10
265.3858076267016
 20
42.69833728340006
 30
0.0
 10
264.7068667611866
 20
42.35976449039662
 30
0.0
 10
264.0287654845143
 20
41.95644989796715
 30
0.0
 10
263.3562361662498
 20
41.49153317192317
 30
0.0
 10
262.6937929652169
 20
40.9685211124126
 30
0.0
 10
262.0457228229207
 20
40.39118874660468
 30
0.0
 10
261.4161522458633
 20
39.76357333890923
 30
0.0
 10
260.8090720960655
 20
39.08997116424218
 30
0.0
 10
260.2283349536225
 20
38.37492325408147
 30
0.0
 10
259.6776365400963
 20
37.62319756833071
 30
0.0
 10
259.1605197499301
 20
36.83976883994227
 30
0.0
 10
258.6802730396021
 20
36.02978613427837
 30
0.0
 10
258.2402208653235
 20
35.19857809429355
 30
0.0
 10
257.8425620014011
 20
34.35152663038286
 30
0.0
 10
257.492587849809
 20
33.49434793255357
 30
0.0
 10
257.2512453720041
 20
32.82232177048276
 30
0.0
 10
257.1367438307028
 20
32.43870738670591
 30
0.0
 10
257.1078124365641
 20
32.34177856978167
 30
0.0
  0
LINE
  5
174
330
1F
100
AcDbEntity
  8
0
  6
Continuous
 62
     7
370
    15
100
AcDbLine
 10
263.7458791424
 20
41.7500035059
 30
0.0
 11
248.6982803816
 21
47.1725616331
 31
0.0
  0
LINE
  5
175
330
1F
100
AcDbEntity
  8
0
  6
Continuous
 62
     7
370
    15
100
AcDbLine
 10
244.2827799863
 20
39.5238618551
 30
0.0
 11
258.6597283574
 21
27.384085503
 31
0.0
  0
LINE
  5
176
330
1F
100
AcDbEntity
  8
0
  6
Continuous
 62
     7
370
    15
100
AcDbLine
 10
258.991313963
 20
22.8529663744
 30
0.0
 11
261.3159275061
 21
21.5109955406
 31
0.0
  0
SPLINE
  5
177
330
1F
100
AcDbEntity
  8
0
  6
Continuous
 62
     7
370
    15
100
AcDbSpline
210
0.0
220
0.0
230
1.0
 70
     8
 71
     3
 72
    13
 73
     9
 74
     0
 42
0.000000001
 43
0.00000001
 40
0.0
 40
0.0
 40
0.0
 40
0.0
 40
0.0719576996164673
 40
0.2753385738776472
 40
0.4774506042876404
 40
0.6777181190918056
 40
0.876244669045626
 40
1.0
 40
1.0
 40
1.0
 40
1.0
 10
257.0880242722952
 20
25.05126100275536
 30
0.0
 10
257.1190455364928
 20
24.98175721986432
 30
0.0
 10
257.2377451432006
 20
24.71580830039748
 30
0.0
 10
257.4835313377476
 20
24.29152037182532
 30
0.0
 10
257.8423948295796
 20
23.80272825976157
 30
0.0
 10
258.2516997054318
 20
23.38101685515836
 30
0.0
 10
258.6425903104006
 20
23.05950797429166
 30
0.0
 10
258.9122498185938
 20
22.90766385650049
 30
0.0
 10
259.0157983072255
 20
22.84935614463731
 30
0.0
  0
SPLINE
  5
178
330
1F
100
AcDbEntity
  8
0
  6
Continuous
 62
     7
370
    15
100
AcDbSpline
210
0.0
220
0.0
230
1.0
 70
     8
 71
     3
 72
    30
 73
    26
 74
     0
 42
0.000000001
 43
0.00000001
 40
0.0
 40
0.0
 40
0.0
 40
0.0
 40
0.0383492694244033
 40
0.0821098866017377
 40
0.1265527794306499
 40
0.1717012629738674
 40
0.2173372831483238
 40
0.2632012944501683
 40
0.3090974290606079
 40
0.3549423347855667
 40
0.4007235989249174
 40
0.4464527262114055
 40
0.4921513119255125
 40
0.5378448965330581
 40
0.5835566550402704
 40
0.6293094893257895
 40
0.6751315360997467
 40
0.7210489652063033
 40
0.7616338221080483
 40
0.7859648759052629
 40
0.8320943149442627
 40
0.8782403051039978
 40
0.9241128347326832
 40
0.9693857418601545
 40
1.0
 40
1.0
 40
1.0
 40
1.0
 10
248.6431189353595
 20
47.18729669938273
 30
0.0
 10
248.5408262644698
 20
47.21602611027617
 30
0.0
 10
248.321806717735
 20
47.27753885109243
 30
0.0
 10
247.9549264055819
 20
47.28556047212498
 30
0.0
 10
247.5560412854389
 20
47.2303069365182
 30
0.0
 10
247.1414980481698
 20
47.1029714199237
 30
0.0
 10
246.7191711253306
 20
46.90728810338159
 30
0.0
 10
246.2968058958779
 20
46.64605765922674
 30
0.0
 10
245.8824683181612
 20
46.32463985599398
 30
0.0
 10
245.4835275845672
 20
45.94926702190582
 30
0.0
 10
245.1066912852319
 20
45.52686119647469
 30
0.0
 10
244.7581374530062
 20
45.06485307929763
 30
0.0
 10
244.443593310922
 20
44.57118346478001
 30
0.0
 10
244.1682957894389
 20
44.05422502034098
 30
0.0
 10
243.9369231060138
 20
43.52267321077155
 30
0.0
 10
243.7535178514241
 20
42.9853835111121
 30
0.0
 10
243.6214511005623
 20
42.45120773908918
 30
0.0
 10
243.5465013484099
 20
41.94949307120221
 30
0.0
 10
243.5262409971433
 20
41.54554519146236
 30
0.0
 10
243.5383870746612
 20
41.15729814517788
 30
0.0
 10
243.5885522156194
 20
40.7704722247759
 30
0.0
 10
243.7057936364746
 20
40.35176050318368
 30
0.0
 10
243.8819787337569
 20
39.98508332265664
 30
0.0
 10
244.0823079392976
 20
39.69977577171368
 30
0.0
 10
244.243412438303
 20
39.56713706512835
 30
0.0
 10
244.3084049136797
 20
39.5136282064375
 30
0.0
  0
LWPOLYLINE
  5
179
330
1F
100
AcDbEntity
  8
0
  6
Continuous
 62
     7
370
    15
100
AcDbPolyline
 90
       29
 70
   128
 43
0.0
 10
274.0039455092
 20
32.5686674587
 10
273.7596150276
 20
32.7455372912
 10
273.5895865482
 20
32.9493589795
 10
273.5023860089
 20
33.1699120531
 10
273.5023860089
 20
33.39613706
 10
273.5895865482
 20
33.6166901336
 10
273.7596150276
 20
33.8205118219
 10
274.0039455092
 20
33.9973816544
 10
274.3103262424
 20
34.1384306391
 10
274.6633940178
 20
34.236585991
 10
275.0454445431
 20
34.2869257908
 10
275.4373202094
 20
34.2869257908
 10
275.8193707347
 20
34.236585991
 10
276.1724385102
 20
34.1384306391
 10
276.4788192433
 20
33.9973816544
 10
276.7231497249
 20
33.8205118219
 10
276.8931782043
 20
33.6166901336
 10
276.9803787436
 20
33.39613706
 10
276.9803787436
 20
33.1699120531
 10
276.8931782043
 20
32.9493589795
 10
276.7231497249
 20
32.7455372912
 10
276.4788192433
 20
32.5686674587
 10
276.1724385102
 20
32.427618474
 10
275.8193707347
 20
32.3294631222
 10
275.4373202094
 20
32.2791233224
 10
275.0454445431
 20
32.2791233224
 10
274.6633940178
 20
32.3294631222
 10
274.3103262424
 20
32.427618474
 10
274.0039455092
 20
32.5686674587
  0
ARC
  5
17A
330
1F
100
AcDbEntity
  8
0
  6
Continuous
 62
     7
370
    15
100
AcDbCircle
 10
274.1424363943
 20
33.0788674031
 30
0.0
 40
0.8751457088282811
100
AcDbArc
 50
111.1314215039
 51
248.884706784
  0
LWPOLYLINE
  5
17B
330
1F
100
AcDbEntity
  8
0
  6
Continuous
 62
     7
370
    15
100
AcDbPolyline
 90
       16
 70
   128
 43
0.0
 10
276.6558257321
 20
33.8951647869
 10
276.9187235122
 20
33.7077161985
 10
277.1085432293
 20
33.4926521809
 10
277.2167590575
 20
33.2595047424
 10
277.2386414458
 20
33.0184635447
 10
277.1732340288
 20
32.7800632448
 10
277.0233954246
 20
32.5547230798
 10
276.7956742992
 20
32.3522914962
 10
276.5000231584
 20
32.1816157255
 10
276.1493633757
 20
32.050155118
 10
275.7590204665
 20
31.963655133
 10
275.3460542887
 20
31.9258962349
 10
274.9285134462
 20
31.9385286688
 10
274.5246464772
 20
32.0010003367
 10
274.1521043062
 20
32.1105809269
 10
273.8271688139
 20
32.2624812418
  0
LWPOLYLINE
  5
17C
330
1F
100
AcDbEntity
  8
0
  6
Continuous
 62
     7
370
    15
100
AcDbPolyline
 90
       24
 70
   128
 43
0.0
 10
274.4105319084
 20
32.8033847909
 10
274.217181324
 20
32.9505763946
 10
274.0997910462
 20
33.1224241576
 10
274.067067375
 20
33.3061829175
 10
274.1214372753
 20
33.4882241278
 10
274.2588683803
 20
33.6550466245
 10
274.4691680537
 20
33.7942779464
 10
274.7367393307
 20
33.8955919432
 10
275.0417376739
 20
33.9514746192
 10
275.3615427513
 20
33.957781412
 10
275.6724360834
 20
33.9140445757
 10
275.951360134
 20
33.8235078713
 10
276.1776283822
 20
33.6928859919
 10
276.3344595472
 20
33.5318665649
 10
276.4102221789
 20
33.3523916645
 10
276.3992973096
 20
33.1677721231
 10
276.3024951867
 20
32.9917003274
 10
276.126995181
 20
32.837234717
 10
275.885813325
 20
32.7158312997
 10
275.5968369735
 20
32.6364940115
 10
275.2814981807
 20
32.6051069362
 10
274.9631841822
 20
32.6239979095
 10
274.6655028711
 20
32.6917658744
 10
274.4105319084
 20
32.8033847909
  0
SPLINE
  5
17D
330
1F
100
AcDbEntity
  8
0
  6
Continuous
 62
     7
370
    15
100
AcDbSpline
210
0.0
220
0.0
230
1.0
 70
     8
 71
     3
 72
     9
 73
     5
 74
     0
 42
0.000000001
 43
0.00000001
 40
0.0
 40
0.0
 40
0.0
 40
0.0
 40
0.6308787452298976
 40
1.0
 40
1.0
 40
1.0
 40
1.0
 10
274.5343951035022
 20
32.73504223943726
 30
0.0
 10
274.4444538297581
 20
32.79692173517239
 30
0.0
 10
274.3018887577467
 20
32.89500634525476
 30
0.0
 10
274.1734403441957
 20
33.04029335865668
 30
0.0
 10
274.1260273046125
 20
33.09392188334541
 30
0.0
  0
SPLINE
  5
17E
330
1F
100
AcDbEntity
  8
0
  6
Continuous
 62
     7
370
    15
100
AcDbSpline
210
0.0
220
0.0
230
1.0
 70
     8
 71
     3
 72
    11
 73
     7
 74
     0
 42
0.000000001
 43
0.00000001
 40
0.0
 40
0.0
 40
0.0
 40
0.0
 40
0.2164526859271176
 40
0.4403055508633989
 40
0.7518960204221907
 40
1.0
 40
1.0
 40
1.0
 40
1.0
 10
276.3567374479133
 20
33.43897655203868
 30
0.0
 10
276.3362656112733
 20
33.36529639073521
 30
0.0
 10
276.2946220378966
 20
33.21541705857783
 30
0.0
 10
276.2173422428545
 20
32.99877574375768
 30
0.0
 10
276.1344447948036
 20
32.85040701814049
 30
0.0
 10
276.0813950824221
 20
32.81208384876437
 30
0.0
 10
276.0578789571906
 20
32.7950957745626
 30
0.0
  0
SPLINE
  5
17F
330
1F
100
AcDbEntity
  8
0
  6
Continuous
 62
     7
370
    15
100
AcDbSpline
210
0.0
220
0.0
230
1.0
 70
     8
 71
     3
 72
    11
 73
     7
 74
     0
 42
0.000000001
 43
0.00000001
 40
0.0
 40
0.0
 40
0.0
 40
0.0
 40
0.1845133558519151
 40
0.5180565039163911
 40
0.8676122830485041
 40
1.0
 40
1.0
 40
1.0
 40
1.0
 10
275.5402408669856
 20
33.91032999516811
 30
0.0
 10
275.587658960223
 20
33.85753277477821
 30
0.0
 10
275.7207943177776
 20
33.70929448988327
 30
0.0
 10
275.9689550553549
 20
33.51301619099599
 30
0.0
 10
276.1995454432816
 20
33.44381553521508
 30
0.0
 10
276.3228627396539
 20
33.44001934771876
 30
0.0
 10
276.3567374479133
 20
33.43897655203868
 30
0.0
  0
SPLINE
  5
180
330
1F
100
AcDbEntity
  8
0
  6
Continuous
 62
     7
370
    15
100
AcDbSpline
210
0.0
220
0.0
230
1.0
 70
     8
 71
     3
 72
    11
 73
     7
 74
     0
 42
0.000000001
 43
0.00000001
 40
0.0
 40
0.0
 40
0.0
 40
0.0
 40
0.216452685927119
 40
0.4403055508634026
 40
0.751896020422193
 40
1.0
 40
1.0
 40
1.0
 40
1.0
 10
274.4248857953351
 20
33.73780266082148
 30
0.0
 10
274.5012877298
 20
33.72004653720024
 30
0.0
 10
274.6567036614503
 20
33.68392723584455
 30
0.0
 10
274.9451157829462
 20
33.67839537085083
 30
0.0
 10
275.2544932708899
 20
33.75648214554248
 30
0.0
 10
275.4524774928243
 20
33.86307778176339
 30
0.0
 10
275.5402408669856
 20
33.91032999516811
 30
0.0
  0
SPLINE
  5
181
330
1F
100
AcDbEntity
  8
0
  6
Continuous
 62
     7
370
    15
100
AcDbSpline
210
0.0
220
0.0
230
1.0
 70
     8
 71
     3
 72
    11
 73
     7
 74
     0
 42
0.000000001
 43
0.00000001
 40
0.0
 40
0.0
 40
0.0
 40
0.0
 40
0.2164526859271171
 40
0.4403055508633997
 40
0.7518960204221941
 40
1.0
 40
1.0
 40
1.0
 40
1.0
 10
274.1260273046125
 20
33.0939218833454
 30
0.0
 10
274.1464991412525
 20
33.10845351793417
 30
0.0
 10
274.1881427146291
 20
33.13801360098485
 30
0.0
 10
274.2654225096713
 20
33.2543658336769
 30
0.0
 10
274.3483199577222
 20
33.46319675243134
 30
0.0
 10
274.4013696701036
 20
33.65346130007434
 30
0.0
 10
274.4248857953351
 20
33.73780266082148
 30
0.0
  0
LINE
  5
182
330
1F
100
AcDbEntity
  8
0
  6
Continuous
 62
     7
370
    15
100
AcDbLine
 10
274.4248857953
 20
32.8197736519
 30
0.0
 11
274.4248857953
 21
33.7378026608
 31
0.0
  0
LINE
  5
183
330
1F
100
AcDbEntity
  8
0
  6
Continuous
 62
     7
370
    15
100
AcDbLine
 10
275.540240867
 20
32.6270192757
 30
0.0
 11
275.540240867
 21
33.9103299952
 31
0.0
  0
LWPOLYLINE
  5
184
330
1F
100
AcDbEntity
  8
0
  6
Continuous
 62
     7
370
    15
100
AcDbPolyline
 90
       61
 70
   128
 43
0.0
 10
272.9786406765
 20
21.6481473626
 10
273.0090484752
 20
22.3357126978
 10
273.0999387172
 20
23.0508530204
 10
273.2503155899
 20
23.7857331034
 10
273.4585315328
 20
24.5323014469
 10
273.7223052886
 20
25.2823784917
 10
274.0387468967
 20
26.0277462369
 10
274.4043893566
 20
26.7602382775
 10
274.8152266131
 20
27.4718292773
 10
275.2667574472
 20
28.1547228965
 10
275.7540347926
 20
28.8014372096
 10
276.2717199367
 20
29.4048866794
 10
276.8141410128
 20
29.9584597872
 10
277.375355142
 20
30.4560914701
 10
277.9492135449
 20
30.8923295713
 10
278.5294289088
 20
31.2623945748
 10
279.1096442726
 20
31.5622319711
 10
279.6835026755
 20
31.7885566788
 10
280.2447168047
 20
31.9388890372
 10
280.7871378808
 20
32.0115819735
 10
281.3048230249
 20
32.0058390486
 10
281.7921003703
 20
31.9217231831
 10
282.2436312044
 20
31.7601559683
 10
282.6544684609
 20
31.5229075681
 10
283.0201109209
 20
31.2125773259
 10
283.336552529
 20
30.8325652846
 10
283.6003262847
 20
30.3870349357
 10
283.8085422277
 20
29.8808676029
 10
283.9589191004
 20
29.3196089614
 10
284.0498093424
 20
28.7094082785
 10
284.0802171411
 20
28.0569510404
 10
284.0498093424
 20
27.3693857052
 10
283.9589191004
 20
26.6542453826
 10
283.8085422277
 20
25.9193652995
 10
283.6003262847
 20
25.1727969561
 10
283.336552529
 20
24.4227199113
 10
283.0201109209
 20
23.6773521661
 10
282.6544684609
 20
22.9448601255
 10
282.2436312044
 20
22.2332691257
 10
281.7921003703
 20
21.5503755065
 10
281.3048230249
 20
20.9036611933
 10
280.7871378808
 20
20.3002117235
 10
280.2447168047
 20
19.7466386158
 10
279.6835026755
 20
19.2490069329
 10
279.1096442726
 20
18.8127688317
 10
278.5294289088
 20
18.4427038282
 10
277.9492135449
 20
18.1428664319
 10
277.375355142
 20
17.9165417241
 10
276.8141410128
 20
17.7662093657
 10
276.2717199367
 20
17.6935164295
 10
275.7540347926
 20
17.6992593544
 10
275.2667574472
 20
17.7833752198
 10
274.8152266131
 20
17.9449424347
 10
274.4043893566
 20
18.1821908349
 10
274.0387468967
 20
18.4925210771
 10
273.7223052886
 20
18.8725331184
 10
273.4585315328
 20
19.3180634673
 10
273.2503155899
 20
19.8242308001
 10
273.0999387172
 20
20.3854894415
 10
273.0090484752
 20
20.9956901245
 10
272.9786406765
 20
21.6481473626
  0
LWPOLYLINE
  5
185
330
1F
100
AcDbEntity
  8
0
  6
Continuous
 62
     7
370
    15
100
AcDbPolyline
 90
       32
 70
   128
 43
0.0
 10
272.7665086421
 20
21.6481473626
 10
272.7974974816
 20
22.3488508889
 10
272.8901244798
 20
23.0776563132
 10
273.0433747959
 20
23.8265786908
 10
273.2555693874
 20
24.5874126714
 10
273.524383406
 20
25.3518223986
 10
273.8468716691
 20
26.1114328396
 10
274.2195009276
 20
26.8579215434
 10
274.6381885776
 20
27.5831098234
 10
275.0983473894
 20
28.2790523653
 10
275.5949357669
 20
28.9381242768
 10
276.1225129838
 20
29.5531046282
 10
276.6752987938
 20
30.117255566
 10
277.2472367599
 20
30.6243961346
 10
277.83206061
 20
31.0689699956
 10
278.4233628916
 20
31.446106305
 10
279.0146651732
 20
31.7516730782
 10
279.5994890233
 20
31.982322462
 10
280.1714269894
 20
32.1355274132
 10
280.7242127994
 20
32.2096093864
 10
281.2517900163
 20
32.2037567241
 10
281.7483783938
 20
32.1180335491
 10
282.2085372056
 20
31.9533790626
 10
282.6272248556
 20
31.7115972536
 10
282.9998541141
 20
31.3953371341
 10
283.3223423772
 20
31.0080637162
 10
283.5911563958
 20
30.5540200485
 10
283.8033509873
 20
30.0381807285
 10
283.9566013034
 20
29.4661973996
 10
284.0492283016
 20
28.844336831
 10
284.0802171411
 20
28.1794122572
 10
284.0802171411
 20
28.1794122572
  0
LWPOLYLINE
  5
186
330
1F
100
AcDbEntity
  8
0
  6
Continuous
 62
     7
370
    15
100
AcDbPolyline
 90
       17
 70
   128
 43
0.0
 10
278.4242822895
 20
18.3819841582
 10
278.4233628916
 20
18.3814533148
 10
277.83206061
 20
18.0758865415
 10
277.2472367599
 20
17.8452371578
 10
276.6752987938
 20
17.6920322066
 10
276.1225129838
 20
17.6179502333
 10
275.5949357669
 20
17.6238028957
 10
275.0983473894
 20
17.7095260706
 10
274.6381885776
 20
17.8741805571
 10
274.2195009276
 20
18.1159623662
 10
273.8468716691
 20
18.4322224857
 10
273.524383406
 20
18.8194959036
 10
273.2555693874
 20
19.2735395712
 10
273.0433747959
 20
19.7893788913
 10
272.8901244798
 20
20.3613622201
 10
272.7974974816
 20
20.9832227887
 10
272.7665086421
 20
21.6481473626
  0
SPLINE
  5
187
330
1F
100
AcDbEntity
  8
0
  6
Continuous
 62
     7
370
    15
100
AcDbSpline
210
0.0
220
0.0
230
1.0
 70
     8
 71
     3
 72
    42
 73
    38
 74
     0
 42
0.000000001
 43
0.00000001
 40
0.0
 40
0.0
 40
0.0
 40
0.0
 40
0.0312499999999998
 40
0.0312499999999998
 40
0.0624999999999995
 40
0.0624999999999995
 40
0.1249999999999993
 40
0.1249999999999993
 40
0.1874999999999991
 40
0.1874999999999991
 40
0.2499999999999988
 40
0.2499999999999988
 40
0.3124999999999986
 40
0.3124999999999986
 40
0.3749999999999984
 40
0.3749999999999984
 40
0.4374999999999981
 40
0.4374999999999981
 40
0.4999999999999979
 40
0.4999999999999979
 40
0.5624999999999977
 40
0.5624999999999977
 40
0.6249999999999973
 40
0.6249999999999973
 40
0.6874999999999978
 40
0.6874999999999978
 40
0.7499999999999982
 40
0.7499999999999982
 40
0.7812499999999984
 40
0.7812499999999984
 40
0.8124999999999987
 40
0.8124999999999987
 40
0.874999999999999
 40
0.874999999999999
 40
0.9374999999999994
 40
0.9374999999999994
 40
1.0
 40
1.0
 40
1.0
 40
1.0
 10
277.0975376768776
 20
32.21148890979739
 30
0.0
 10
277.0406393500303
 20
32.17864220487028
 30
0.0
 10
276.9802269631811
 20
32.14677647610792
 30
0.0
 10
276.852221436037
 20
32.08507960147053
 30
0.0
 10
276.7846371588498
 20
32.05530338110584
 30
0.0
 10
276.5769414192635
 20
31.97161466463428
 30
0.0
 10
276.4300622801214
 20
31.92232577274772
 30
0.0
 10
276.1205589462006
 20
31.83751823714404
 30
0.0
 10
275.9632129635542
 20
31.80344008000649
 30
0.0
 10
275.6436667261256
 20
31.75172059117213
 30
0.0
 10
275.4809347401787
 20
31.73425021968747
 30
0.0
 10
275.1625717713682
 20
31.71789198374294
 30
0.0
 10
275.0053076300284
 20
31.71869024838932
 30
0.0
 10
274.6945810310606
 20
31.73953676538416
 30
0.0
 10
274.5451748141706
 20
31.75931708406499
 30
0.0
 10
274.2572501226798
 20
31.817756289517
 30
0.0
 10
274.1177426927035
 20
31.85681008113643
 30
0.0
 10
273.8547024381796
 20
31.95365163951777
 30
0.0
 10
273.7322798059136
 20
32.01083133046889
 30
0.0
 10
273.5050788212735
 20
32.14252717974005
 30
0.0
 10
273.3994839916155
 20
32.21780793851146
 30
0.0
 10
273.2113862521472
 20
32.38264630798786
 30
0.0
 10
273.1292335562379
 20
32.47153365388637
 30
0.0
 10
272.9886265000717
 20
32.6612490345066
 30
0.0
 10
272.9297561883186
 20
32.76313595253104
 30
0.0
 10
272.8404129571925
 20
32.9730769150931
 30
0.0
 10
272.8098630153108
 20
33.08046022727913
 30
0.0
 10
272.7860326567805
 20
33.24401001935637
 30
0.0
 10
272.7817807937129
 20
33.2989414403561
 30
0.0
 10
272.7811708101184
 20
33.40946162382965
 30
0.0
 10
272.7848881114926
 20
33.46523291922826
 30
0.0
 10
272.8082419739711
 20
33.62906261244949
 30
0.0
 10
272.8398162437574
 20
33.73495905981427
 30
0.0
 10
272.9374197221346
 20
33.93793456029744
 30
0.0
 10
273.0049628523506
 20
34.03623225581882
 30
0.0
 10
273.1712981146443
 20
34.21074003022789
 30
0.0
 10
273.2700097260398
 20
34.28804664318402
 30
0.0
 10
273.3852270756482
 20
34.354560203332
 30
0.0
  0
SPLINE
  5
188
330
1F
100
AcDbEntity
  8
0
  6
Continuous
 62
     7
370
    15
100
AcDbSpline
210
0.0
220
0.0
230
1.0
 70
     8
 71
     3
 72
    42
 73
    38
 74
     0
 42
0.000000001
 43
0.00000001
 40
0.0
 40
0.0
 40
0.0
 40
0.0
 40
0.03125
 40
0.03125
 40
0.0624999999999999
 40
0.0624999999999999
 40
0.1249999999999997
 40
0.1249999999999997
 40
0.1874999999999995
 40
0.1874999999999995
 40
0.2499999999999992
 40
0.2499999999999992
 40
0.3124999999999989
 40
0.3124999999999989
 40
0.3749999999999987
 40
0.3749999999999987
 40
0.4999999999999981
 40
0.4999999999999981
 40
0.5624999999999984
 40
0.5624999999999984
 40
0.6249999999999988
 40
0.6249999999999988
 40
0.6874999999999992
 40
0.6874999999999992
 40
0.7499999999999996
 40
0.7499999999999996
 40
0.8124999999999998
 40
0.8124999999999998
 40
0.84375
 40
0.84375
 40
0.8750000000000002
 40
0.8750000000000002
 40
0.9374999999999999
 40
0.9374999999999999
 40
0.96875
 40
0.96875
 40
1.0
 40
1.0
 40
1.0
 40
1.0
 10
273.3852270756482
 20
34.354560203332
 30
0.0
 10
273.4428366314777
 20
34.3878174920111
 30
0.0
 10
273.504373636135
 20
34.41813845000434
 30
0.0
 10
273.6320354306872
 20
34.47157983240989
 30
0.0
 10
273.6985720914839
 20
34.49494986038779
 30
0.0
 10
273.9060962702823
 20
34.55539862638503
 30
0.0
 10
274.0563962774033
 20
34.58275465238492
 30
0.0
 10
274.3632317454856
 20
34.61166430265946
 30
0.0
 10
274.5223570395498
 20
34.61377233208525
 30
0.0
 10
274.8441170372558
 20
34.59667419948278
 30
0.0
 10
275.004818581464
 20
34.57775301318974
 30
0.0
 10
275.3262089145838
 20
34.52272926909885
 30
0.0
 10
275.4836705786102
 20
34.48712512848473
 30
0.0
 10
275.7896609829688
 20
34.40387680887142
 30
0.0
 10
275.9387895854309
 20
34.35609938756592
 30
0.0
 10
276.374883149037
 20
34.19654241866107
 30
0.0
 10
276.6364132076249
 20
34.0744559861721
 30
0.0
 10
276.9803492767306
 20
33.87525275938096
 30
0.0
 10
277.0840981883537
 20
33.80761324214446
 30
0.0
 10
277.270467040633
 20
33.66956251677644
 30
0.0
 10
277.3534193897449
 20
33.59882324408242
 30
0.0
 10
277.4952888047393
 20
33.45471880451684
 30
0.0
 10
277.5529247242069
 20
33.38277522395099
 30
0.0
 10
277.6416086813686
 20
33.23744738047261
 30
0.0
 10
277.6727796158558
 20
33.16362211606216
 30
0.0
 10
277.704856048107
 20
33.01421542405529
 30
0.0
 10
277.7055989108308
 20
32.94020667433974
 30
0.0
 10
277.6827907519273
 20
32.82865655702616
 30
0.0
 10
277.6711714266452
 20
32.79138482056061
 30
0.0
 10
277.6393094626395
 20
32.71639381721745
 30
0.0
 10
277.6188760732866
 20
32.67841531119121
 30
0.0
 10
277.5449519222997
 20
32.56585510687814
 30
0.0
 10
277.4791939312483
 20
32.492443954461
 30
0.0
 10
277.3539824474274
 20
32.3839061107395
 30
0.0
 10
277.3074848042335
 20
32.34783460686599
 30
0.0
 10
277.2078217068068
 20
32.27816442008563
 30
0.0
 10
277.1544368738865
 20
32.2443361170582
 30
0.0
 10
277.0975376768776
 20
32.21148890979739
 30
0.0
  0
LWPOLYLINE
  5
189
330
1F
100
AcDbEntity
  8
0
  6
Continuous
 62
     7
370
    15
100
AcDbPolyline
 90
       56
 70
   128
 43
0.0
 10
273.7564581358
 20
22.0971718241
 10
273.7875696224
 20
22.7434129121
 10
273.8804984967
 20
23.4171498172
 10
274.0340332884
 20
24.1095993484
 10
274.2461724369
 20
24.8117343671
 10
274.5141503839
 20
25.5144014696
 10
274.834473627
 20
26.2084403157
 10
275.202966263
 20
26.8848030474
 10
275.6148244267
 20
27.5346722424
 10
276.0646789171
 20
28.1495758618
 10
276.5466651931
 20
28.7214976965
 10
277.0544998263
 20
29.2429818707
 10
277.5815624157
 20
29.7072300408
 10
278.1209818944
 20
30.1081900219
 10
278.6657261046
 20
30.4406346875
 10
279.2086934724
 20
30.7002301128
 10
279.7428055878
 20
30.8835920746
 10
280.2610994826
 20
30.9883301693
 10
280.7568184033
 20
31.0130789755
 10
281.2234998955
 20
30.9575158549
 10
281.6550600523
 20
30.8223651576
 10
282.0458728271
 20
30.6093887796
 10
282.3908433778
 20
30.3213631938
 10
282.6854744856
 20
29.9620432541
 10
282.9259251834
 20
29.5361132455
 10
283.1090608288
 20
29.049125817
 10
283.2324939684
 20
28.5074295944
 10
283.2946154625
 20
27.9180864166
 10
283.2946154625
 20
27.2887792729
 10
283.2324939684
 20
26.6277121446
 10
283.1090608287
 20
25.9435030526
 10
282.9259251834
 20
25.2450717087
 10
282.6854744856
 20
24.5415232336
 10
282.3908433778
 20
23.8420294577
 10
282.0458728271
 20
23.155709352
 10
281.6550600523
 20
22.4915101487
 10
281.2234998955
 20
21.8580907003
 10
280.7568184033
 20
21.2637085978
 10
280.2610994826
 20
20.716112521
 10
279.7428055878
 20
20.2224412223
 10
279.2086934724
 20
19.7891304619
 10
278.6657261046
 20
19.4218291082
 10
278.1209818944
 20
19.1253254962
 10
277.5815624157
 20
18.9034850038
 10
277.0544998263
 20
18.7591996612
 10
276.5466651931
 20
18.6943504484
 10
276.0646789171
 20
18.7097827741
 10
275.6148244267
 20
18.8052954544
 10
275.202966263
 20
18.9796433353
 10
274.834473627
 20
19.2305535256
 10
274.5141503839
 20
19.5547550273
 10
274.2461724369
 20
19.948021378
 10
274.0340332884
 20
20.4052257494
 10
273.8804984967
 20
20.9204077833
 10
273.7875696224
 20
21.486851294
 10
273.7564581358
 20
22.0971718241
  0
SPLINE
  5
18A
330
1F
100
AcDbEntity
  8
0
  6
Continuous
 62
     7
370
    15
100
AcDbSpline
210
0.0
220
0.0
230
1.0
 70
     8
 71
     3
 72
    22
 73
    18
 74
     0
 42
0.000000001
 43
0.00000001
 40
0.0
 40
0.0
 40
0.0
 40
0.0
 40
0.1249999999999998
 40
0.1249999999999998
 40
0.2499999999999997
 40
0.2499999999999997
 40
0.3749999999999995
 40
0.3749999999999995
 40
0.4999999999999993
 40
0.4999999999999993
 40
0.6249999999999991
 40
0.6249999999999991
 40
0.7499999999999994
 40
0.7499999999999994
 40
0.8749999999999997
 40
0.8749999999999997
 40
1.0
 40
1.0
 40
1.0
 40
1.0
 10
275.4777093265292
 20
19.39729538174194
 30
0.0
 10
275.4293320245303
 20
19.36538792969748
 30
0.0
 10
275.3806402200055
 20
19.34157331386226
 30
0.0
 10
275.2828647386172
 20
19.30989487847168
 30
0.0
 10
275.2334747060404
 20
19.30203508263152
 30
0.0
 10
275.1358122563169
 20
19.30343851629801
 30
0.0
 10
275.0883869795677
 20
19.3125804954302
 30
0.0
 10
274.9964072596212
 20
19.34741937660744
 30
0.0
 10
274.9514365091977
 20
19.37347883999011
 30
0.0
 10
274.8667507136797
 20
19.44156465662353
 30
0.0
 10
274.8272822437247
 20
19.48316575455607
 30
0.0
 10
274.7539243921376
 20
19.58114125662558
 30
0.0
 10
274.7197614688938
 20
19.63821203748879
 30
0.0
 10
274.6593000065651
 20
19.76351652342653
 30
0.0
 10
274.6327863304647
 20
19.83179961331168
 30
0.0
 10
274.5868498721602
 20
19.9793925246762
 30
0.0
 10
274.5674243174682
 20
20.05902953757036
 30
0.0
 10
274.5519624108893
 20
20.14232811893123
 30
0.0
  0
LWPOLYLINE
  5
18B
330
1F
100
AcDbEntity
  8
0
  6
Continuous
 62
     7
370
    15
100
AcDbPolyline
 90
       13
 70
   128
 43
0.0
 10
281.2629504395
 20
22.7370439877
 10
280.8456335346
 20
22.1283563576
 10
280.3935846213
 20
21.559181731
 10
279.9131465846
 20
21.0375064323
 10
279.4110606493
 20
20.5706503033
 10
278.8943717904
 20
20.1651639951
 10
278.370329883
 20
19.8267370538
 10
277.8462879756
 20
19.5601180876
 10
277.3295991168
 20
19.3690481374
 10
276.8275131814
 20
19.2562081846
 10
276.3470751447
 20
19.2231815333
 10
275.8950262314
 20
19.2704315941
 10
275.4777093265
 20
19.3972953817
  0
SPLINE
  5
18C
330
1F
100
AcDbEntity
  8
0
  6
Continuous
 62
     7
370
    15
100
AcDbSpline
210
0.0
220
0.0
230
1.0
 70
     8
 71
     3
 72
    22
 73
    18
 74
     0
 42
0.000000001
 43
0.00000001
 40
0.0
 40
0.0
 40
0.0
 40
0.0
 40
0.125
 40
0.125
 40
0.25
 40
0.25
 40
0.375
 40
0.375
 40
0.5
 40
0.5
 40
0.625
 40
0.625
 40
0.75
 40
0.75
 40
0.875
 40
0.875
 40
1.0
 40
1.0
 40
1.0
 40
1.0
 10
282.1886973551374
 20
24.55092136269988
 30
0.0
 10
282.2036362874427
 20
24.46733898274166
 30
0.0
 10
282.2112202782798
 20
24.38231166356482
 30
0.0
 10
282.211997028792
 20
24.20932022362692
 30
0.0
 10
282.2050996353643
 20
24.12080114526691
 30
0.0
 10
282.1763222731629
 20
23.94300451618848
 30
0.0
 10
282.1547896004931
 20
23.85528417096633
 30
0.0
 10
282.0977636826353
 20
23.68211476907699
 30
0.0
 10
282.0618295231027
 20
23.59584577590967
 30
0.0
 10
281.9772048621069
 20
23.42992771193851
 30
0.0
 10
281.9289632332992
 20
23.35080286531794
 30
0.0
 10
281.8208726923077
 20
23.20005905949587
 30
0.0
 10
281.7603253192354
 20
23.12781984851145
 30
0.0
 10
281.6314685765905
 20
22.99588891105719
 30
0.0
 10
281.5630546093929
 20
22.93579609827872
 30
0.0
 10
281.418337499816
 20
22.82715338005713
 30
0.0
 10
281.3417410147823
 20
22.77854820701243
 30
0.0
 10
281.2629504394976
 20
22.73704398771068
 30
0.0
  0
LWPOLYLINE
  5
18D
330
1F
100
AcDbEntity
  8
0
  6
Continuous
 62
     7
370
    15
100
AcDbPolyline
 90
       10
 70
   128
 43
0.0
 10
282.1886973551
 20
29.7464621092
 10
282.4275414723
 20
29.3457217651
 10
282.6096592783
 20
28.8834438305
 10
282.7325044745
 20
28.3660916907
 10
282.7943594887
 20
27.8008987567
 10
282.7943594887
 20
27.19576733
 10
282.7325044745
 20
26.5591581167
 10
282.6096592783
 20
25.8999719323
 10
282.4275414723
 20
25.2274252547
 10
282.1886973551
 20
24.5509213627
  0
SPLINE
  5
18E
330
1F
100
AcDbEntity
  8
0
  6
Continuous
 62
     7
370
    15
100
AcDbSpline
210
0.0
220
0.0
230
1.0
 70
     8
 71
     3
 72
    22
 73
    18
 74
     0
 42
0.000000001
 43
0.00000001
 40
0.0
 40
0.0
 40
0.0
 40
0.0
 40
0.1249999999999998
 40
0.1249999999999998
 40
0.2499999999999997
 40
0.2499999999999997
 40
0.3749999999999995
 40
0.3749999999999995
 40
0.4999999999999993
 40
0.4999999999999993
 40
0.6249999999999991
 40
0.6249999999999991
 40
0.7499999999999994
 40
0.7499999999999994
 40
0.8749999999999997
 40
0.8749999999999997
 40
1.0
 40
1.0
 40
1.0
 40
1.0
 10
281.2629504394976
 20
30.49149484639997
 30
0.0
 10
281.34172554448
 20
30.50585402030763
 30
0.0
 10
281.4171059865943
 20
30.51426161361014
 30
0.0
 10
281.5612942540106
 20
30.51914651794303
 30
0.0
 10
281.6305066827275
 20
30.51556308806749
 30
0.0
 10
281.7601621100289
 20
30.49569050157222
 30
0.0
 10
281.8195291790378
 20
30.47965467250815
 30
0.0
 10
281.9276072384067
 20
30.43552241779742
 30
0.0
 10
281.9767226298768
 20
30.40707030406751
 30
0.0
 10
282.061436501985
 20
30.33896827916361
 30
0.0
 10
282.0968813601702
 20
30.29968996286395
 30
0.0
 10
282.1542434520947
 20
30.21094861629318
 30
0.0
 10
282.1762373818619
 20
30.16090284583241
 30
0.0
 10
282.2049343840951
 20
30.05393559238886
 30
0.0
 10
282.211904968112
 20
29.99693448941963
 30
0.0
 10
282.211326379207
 20
29.87619414323625
 30
0.0
 10
282.2036392212352
 20
29.81220896620426
 30
0.0
 10
282.1886973551374
 20
29.74646210921067
 30
0.0
  0
LWPOLYLINE
  5
18F
330
1F
100
AcDbEntity
  8
0
  6
Continuous
 62
     7
370
    15
100
AcDbPolyline
 90
       13
 70
   128
 43
0.0
 10
275.4777093265
 20
27.1517462404
 10
275.8950262314
 20
27.7604338705
 10
276.3470751447
 20
28.3296084971
 10
276.8275131814
 20
28.8512837958
 10
277.3295991168
 20
29.3181399249
 10
277.8462879756
 20
29.723626233
 10
278.370329883
 20
30.0620531744
 10
278.8943717904
 20
30.3286721406
 10
279.4110606493
 20
30.5197420908
 10
279.9131465846
 20
30.6325820435
 10
280.3935846213
 20
30.6656086948
 10
280.8456335346
 20
30.6183586341
 10
281.2629504395
 20
30.4914948464
  0
SPLINE
  5
190
330
1F
100
AcDbEntity
  8
0
  6
Continuous
 62
     7
370
    15
100
AcDbSpline
210
0.0
220
0.0
230
1.0
 70
     8
 71
     3
 72
    22
 73
    18
 74
     0
 42
0.000000001
 43
0.00000001
 40
0.0
 40
0.0
 40
0.0
 40
0.0
 40
0.125
 40
0.125
 40
0.25
 40
0.25
 40
0.375
 40
0.375
 40
0.5
 40
0.5
 40
0.625
 40
0.625
 40
0.75
 40
0.75
 40
0.875
 40
0.875
 40
1.0
 40
1.0
 40
1.0
 40
1.0
 10
274.5519624108893
 20
25.33786886544202
 30
0.0
 10
274.5674212815674
 20
25.40390296726344
 30
0.0
 10
274.5865259283199
 20
25.47352326390757
 30
0.0
 10
274.6321619638359
 20
25.61972117278778
 30
0.0
 10
274.6588817534035
 20
25.6967970254321
 30
0.0
 10
274.7196520931828
 20
25.85612450168174
 30
0.0
 10
274.7531265581125
 20
25.93695099697202
 30
0.0
 10
274.8262508153925
 20
26.10082702532786
 30
0.0
 10
274.8663296159718
 20
26.18470336814795
 30
0.0
 10
274.9509823535578
 20
26.35060522384863
 30
0.0
 10
274.9952003705958
 20
26.43205285210208
 30
0.0
 10
275.0872951519246
 20
26.59203081342288
 30
0.0
 10
275.1356735315203
 20
26.67129503480975
 30
0.0
 10
275.2327658140696
 20
26.8215632047582
 30
0.0
 10
275.2816366891839
 20
26.89293800445259
 30
0.0
 10
275.3798387515512
 20
27.02843328785532
 30
0.0
 10
275.429322523921
 20
27.09269029676221
 30
0.0
 10
275.4777093265292
 20
27.15174624043122
 30
0.0
  0
LWPOLYLINE
  5
191
330
1F
100
AcDbEntity
  8
0
  6
Continuous
 62
     7
370
    15
100
AcDbPolyline
 90
       10
 70
   128
 43
0.0
 10
274.5519624109
 20
20.1423281189
 10
274.3131182937
 20
20.543068463
 10
274.1310004878
 20
21.0053463976
 10
274.0081552915
 20
21.5226985374
 10
273.9463002773
 20
22.0878914715
 10
273.9463002773
 20
22.6930228981
 10
274.0081552915
 20
23.3296321114
 10
274.1310004878
 20
23.9888182958
 10
274.3131182937
 20
24.6613649735
 10
274.5519624109
 20
25.3378688654
  0
ARC
  5
192
330
1F
100
AcDbEntity
  8
0
  6
Continuous
 62
     7
370
    15
100
AcDbCircle
 10
266.6295360795
 20
23.8277396
 30
0.0
 40
4.66565288032589
100
AcDbArc
 50
193.8679353198
 51
238.0711532232
  0
SPLINE
  5
193
330
1F
100
AcDbEntity
  8
0
  6
Continuous
 62
     7
370
    15
100
AcDbSpline
210
0.0
220
0.0
230
1.0
 70
     8
 71
     3
 72
    29
 73
    25
 74
     0
 42
0.000000001
 43
0.00000001
 40
0.0
 40
0.0
 40
0.0
 40
0.0
 40
0.0227703431572545
 40
0.0454410032927677
 40
0.0680340978352544
 40
0.0905719725563
 40
0.1130771376998851
 40
0.1355722016904878
 40
0.1580798033768699
 40
0.1806225438191841
 40
0.2032229186429297
 40
0.2259032519635706
 40
0.2486856328315024
 40
0.37440342998092
 40
0.4999236975978598
 40
0.5000033831470044
 40
0.62491547859338
 40
0.7509968892327752
 40
0.7926749797131527
 40
0.8340977989462387
 40
0.8754030632547732
 40
0.916729664752105
 40
0.9582162817868252
 40
0.9999999999999999
 40
0.9999999999999999
 40
0.9999999999999999
 40
0.9999999999999999
 10
262.0998639888765
 20
27.92635424687696
 30
0.0
 10
262.115926062549
 20
27.87555349319912
 30
0.0
 10
262.147979894044
 20
27.77417437918195
 30
0.0
 10
262.192924458612
 20
27.62116728011884
 30
0.0
 10
262.2354851538292
 20
27.46800447516219
 30
0.0
 10
262.2755065399728
 20
27.31461828927625
 30
0.0
 10
262.3131089571187
 20
27.16106835805783
 30
0.0
 10
262.348340907233
 20
27.00738297034831
 30
0.0
 10
262.3812718494464
 20
26.85360177229773
 30
0.0
 10
262.4119672318403
 20
26.69976339377163
 30
0.0
 10
262.4404957134345
 20
26.54591275051151
 30
0.0
 10
262.4669251025916
 20
26.39208453112062
 30
0.0
 10
262.5280327542316
 20
26.00719938421194
 30
0.0
 10
262.5985943142109
 20
25.40212163470846
 30
0.0
 10
262.6192034503417
 20
24.8892118024077
 30
0.0
 10
262.6198460623935
 20
24.40930613768322
 30
0.0
 10
262.5994826278359
 20
23.95770872326835
 30
0.0
 10
262.5236614042272
 20
23.52402467909082
 30
0.0
 10
262.4463817242509
 20
23.26205406716128
 30
0.0
 10
262.3930407605269
 20
23.12079218513503
 30
0.0
 10
262.3322666759707
 20
22.99478903092012
 30
0.0
 10
262.2634560596466
 20
22.88416274830453
 30
0.0
 10
262.1869422456304
 20
22.78733956806347
 30
0.0
 10
262.1290141695199
 20
22.73545297523492
 30
0.0
 10
262.0999467903431
 20
22.70941711543761
 30
0.0
  0
LWPOLYLINE
  5
194
330
1F
100
AcDbEntity
  8
0
  6
Continuous
 62
     7
370
    15
100
AcDbPolyline
 90
       25
 70
   128
 43
0.0
 10
262.0998639889
 20
27.9263542469
 10
262.3313118531
 20
28.850706049
 10
262.6226531032
 20
29.7827760184
 10
262.9715857826
 20
30.715199648
 10
263.3753528911
 20
31.6406096368
 10
263.8307641686
 20
32.5516940999
 10
264.3342213021
 20
33.441254342
 10
264.8817463568
 20
34.3022617357
 10
265.4690132068
 20
35.1279132565
 10
266.091381717
 20
35.9116852351
 10
266.7439344054
 20
36.6473849022
 10
267.4215152978
 20
37.3291993197
 10
268.1187706661
 20
37.9517413093
 10
268.8301913297
 20
38.5100920186
 10
269.5501561843
 20
38.9998397855
 10
270.2729766161
 20
39.4171149964
 10
270.9929414488
 20
39.7586206603
 10
271.7043620687
 20
40.0216584596
 10
272.401617372
 20
40.2041500701
 10
273.0791981784
 20
40.304653582
 10
273.7317507606
 20
40.3223748932
 10
274.3541191453
 20
40.2571739834
 10
274.9413858514
 20
40.1095660205
 10
275.488910745
 20
39.8807172901
 10
275.6610977257
 20
39.7870980503
  0
LWPOLYLINE
  5
195
330
1F
100
AcDbEntity
  8
0
  6
Continuous
 62
     7
370
    15
100
AcDbPolyline
 90
       38
 70
   128
 43
0.0
 10
263.3266331133
 20
24.2402431176
 10
263.3575767933
 20
25.0765180647
 10
263.4501723332
 20
25.942155267
 10
263.6037150252
 20
26.8305667026
 10
263.8170363164
 20
27.7349910242
 10
264.0885127033
 20
28.6485450165
 10
264.4160780864
 20
29.564275982
 10
264.7972394955
 20
30.4752146551
 10
265.2290960621
 20
31.3744282425
 10
265.7083610969
 20
32.2550731859
 10
266.2313871037
 20
33.1104472455
 10
266.7941935387
 20
33.9340405081
 10
267.3924971051
 20
34.7195849318
 10
268.0217443515
 20
35.4611020492
 10
268.6771463265
 20
36.1529484672
 10
269.3537150252
 20
36.7898588169
 10
270.0463013513
 20
37.366985826
 10
270.7496343047
 20
37.8799372093
 10
271.4583610969
 20
38.3248090973
 10
272.1670878892
 20
38.6982157461
 10
272.8704208426
 20
38.9973153057
 10
273.5630071687
 20
39.2198314479
 10
274.2395758674
 20
39.3640706905
 10
274.8949778423
 20
39.4289352857
 10
275.5242250887
 20
39.4139315748
 10
276.1225286552
 20
39.3191737451
 10
276.6853350901
 20
39.1453829608
 10
277.2083610969
 20
38.8938818749
 10
277.6876261317
 20
38.5665845624
 10
278.1194826983
 20
38.1659819535
 10
278.5006441074
 20
37.6951228759
 10
278.8282094906
 20
37.1575908516
 10
279.0996858774
 20
36.5574768238
 10
279.3130071687
 20
35.8993480226
 10
279.4665498606
 20
35.1882132056
 10
279.5591454005
 20
34.4294845382
 10
279.5900890806
 20
33.6289364036
 10
279.5890496
 20
33.4781972858
  0
LWPOLYLINE
  5
196
330
1F
100
AcDbEntity
  8
0
  6
Continuous
 62
     7
370
    15
100
AcDbPolyline
 90
       20
 70
   128
 43
0.0
 10
271.5896997389
 20
19.6214154877
 10
271.4583610969
 20
19.5443704239
 10
270.7496343047
 20
19.1709637751
 10
270.0463013513
 20
18.8718642155
 10
269.3537150252
 20
18.6493480733
 10
268.6771463265
 20
18.5051088307
 10
268.0217443515
 20
18.4402442355
 10
267.3924971051
 20
18.4552479464
 10
266.7941935387
 20
18.5500057762
 10
266.2313871037
 20
18.7237965604
 10
265.7083610969
 20
18.9752976463
 10
265.2290960621
 20
19.3025949588
 10
264.7972394955
 20
19.7031975677
 10
264.4160780864
 20
20.1740566453
 10
264.0885127033
 20
20.7115886696
 10
263.8170363164
 20
21.3117026974
 10
263.6037150252
 20
21.9698314986
 10
263.4501723332
 20
22.6809663156
 10
263.3575767933
 20
23.439694983
 10
263.3266331133
 20
24.2402431176
  0
ARC
  5
197
330
1F
100
AcDbEntity
  8
0
  6
Continuous
 62
     7
370
    15
100
AcDbCircle
 10
281.7151882766
 20
29.2657676342
 30
0.0
 40
1.306493880556741
100
AcDbArc
 50
110.2517772116
 51
120.2335023561
  0
LINE
  5
198
330
1F
100
AcDbEntity
  8
0
  6
Continuous
 62
     7
370
    15
100
AcDbLine
 10
280.6354871623
 20
30.1510249541
 30
0.0
 11
281.0573356515
 21
30.3945529033
 31
0.0
  0
LWPOLYLINE
  5
199
330
1F
100
AcDbEntity
  8
0
  6
Continuous
 62
     7
370
    15
100
AcDbPolyline
 90
       10
 70
   128
 43
0.0
 10
276.1051726037
 20
27.5357300275
 10
276.5667705869
 20
28.1111297387
 10
277.0594228881
 20
28.6320034997
 10
277.5746468468
 20
29.0893827232
 10
278.1035711558
 20
29.4753920928
 10
278.6370886103
 20
29.7833851634
 10
279.1660129192
 20
30.0080588022
 10
279.6812368779
 20
30.1455444994
 10
280.1738891791
 20
30.193474978
 10
280.6354871623
 20
30.1510249541
  0
LINE
  5
19A
330
1F
100
AcDbEntity
  8
0
  6
Continuous
 62
     7
370
    15
100
AcDbLine
 10
275.6833241145
 20
27.2922020784
 30
0.0
 11
276.1051726037
 21
27.5357300275
 31
0.0
  0
ARC
  5
19B
330
1F
100
AcDbEntity
  8
0
  6
Continuous
 62
     7
370
    15
100
AcDbCircle
 10
276.5460805582
 20
25.8084750362
 30
0.0
 40
1.71633173279091
100
AcDbArc
 50
120.1771113865
 51
128.4969973883
  0
LWPOLYLINE
  5
19C
330
1F
100
AcDbEntity
  8
0
  6
Continuous
 62
     7
370
    15
100
AcDbPolyline
 90
       32
 70
   128
 43
0.0
 10
278.7849289527
 20
29.8543740057
 10
278.8840713422
 20
29.8546691466
 10
279.2741821011
 20
29.8059289895
 10
279.6283563142
 20
29.677653555
 10
279.9399963862
 20
29.4722323719
 10
280.203297052
 20
29.1934920479
 10
280.4133535185
 20
28.8466249881
 10
280.5662528311
 20
28.4380926693
 10
280.6591467649
 20
27.9755052758
 10
280.6903048818
 20
27.4674799354
 10
280.6591467649
 20
26.923480199
 10
280.5662528311
 20
26.3536397523
 10
280.4133535185
 20
25.7685736449
 10
280.203297052
 20
25.1791805511
 10
279.9399963862
 20
24.5964397493
 10
279.6283563142
 20
24.0312065978
 10
279.2741821011
 20
23.494010321
 10
278.8840713422
 20
22.994857869
 10
278.4652910629
 20
22.5430475076
 10
278.0256423474
 20
22.1469956089
 10
277.5733150194
 20
21.8140798704
 10
277.1167350812
 20
21.5505018825
 10
276.6644077532
 20
21.3611716044
 10
276.2247590377
 20
21.2496159009
 10
275.8059787584
 20
21.2179128437
 10
275.4158679995
 20
21.2666530008
 10
275.0616937863
 20
21.3949284352
 10
274.7500537144
 20
21.6003496184
 10
274.4867530486
 20
21.8790899424
 10
274.2766965821
 20
22.2259570022
 10
274.1237972695
 20
22.634489321
 10
274.0770154078
 20
22.8242271093
  0
LINE
  5
19D
330
1F
100
AcDbEntity
  8
0
  6
Continuous
 62
     7
370
    15
100
AcDbLine
 10
274.6580192818
 20
20.0861332059
 30
0.0
 11
275.8019963727
 21
20.7465371234
 31
0.0
  0
LINE
  5
19E
330
1F
100
AcDbEntity
  8
0
  6
Continuous
 62
     7
370
    15
100
AcDbLine
 10
274.5728961719
 20
20.0406958093
 30
0.0
 11
274.6580192818
 21
20.0861332059
 31
0.0
  0
LWPOLYLINE
  5
19F
330
1F
100
AcDbEntity
  8
0
  6
Continuous
 62
     7
370
    15
100
AcDbPolyline
 90
        3
 70
   128
 43
0.0
 10
281.14224621
 20
30.0694297003
 10
281.1629931939
 20
30.3679779413
 10
281.1588240146
 20
30.4478738469
  0
ARC
  5
1A0
330
1F
100
AcDbEntity
  8
0
  6
Continuous
 62
     7
370
    15
100
AcDbCircle
 10
276.0786904475
 20
27.7283801107
 30
0.0
 40
5.578540144217588
100
AcDbArc
 50
335.1873353003
 51
24.8126646997
  0
ARC
  5
1A1
330
1F
100
AcDbEntity
  8
0
  6
Continuous
 62
     7
370
    15
100
AcDbCircle
 10
278.7873481063
 20
25.1966360211
 30
0.0
 40
2.36260649936068
100
AcDbArc
 50
301.7912553701
 51
4.6295852366
  0
LINE
  5
1A2
330
1F
100
AcDbEntity
  8
0
  6
Continuous
 62
     7
370
    15
100
AcDbLine
 10
278.8880537279
 20
22.5280801134
 30
0.0
 11
280.0320308188
 21
23.1884840309
 31
0.0
  0
ARC
  5
1A3
330
1F
100
AcDbEntity
  8
0
  6
Continuous
 62
     7
370
    15
100
AcDbCircle
 10
275.0945713243
 20
25.5356312032
 30
0.0
 40
4.841061072136434
100
AcDbArc
 50
278.4027299562
 51
321.5918935111
  0
ARC
  5
1A4
330
1F
100
AcDbEntity
  8
0
  6
Continuous
 62
     7
370
    15
100
AcDbCircle
 10
276.2763120535
 20
20.1420349535
 30
0.0
 40
1.724349667483499
100
AcDbArc
 50
171.0177039064
 51
179.9902588546
  0
ARC
  5
1A5
330
1F
100
AcDbEntity
  8
0
  6
Continuous
 62
     7
370
    15
100
AcDbCircle
 10
279.6366644858
 20
22.7523059985
 30
0.0
 40
5.578540144216917
100
AcDbArc
 50
155.1873353003
 51
204.8126646997
  0
ARC
  5
1A6
330
1F
100
AcDbEntity
  8
0
  6
Continuous
 62
     7
370
    15
100
AcDbCircle
 10
275.8513001937
 20
25.3270688306
 30
0.0
 40
1.299382666686949
100
AcDbArc
 50
179.5237711273
 51
190.3618866346
  0
SPLINE
  5
1A7
330
1F
100
AcDbEntity
  8
0
  6
Continuous
 62
     7
370
    15
100
AcDbSpline
210
0.0
220
0.0
230
1.0
 70
     8
 71
     3
 72
     9
 73
     5
 74
     0
 42
0.000000001
 43
0.00000001
 40
0.0
 40
0.0
 40
0.0
 40
0.0
 40
0.3207309825395805
 40
1.0
 40
1.0
 40
1.0
 40
1.0
 10
279.6493814113125
 20
30.1114446921067
 30
0.0
 10
279.7542886404626
 20
30.11930528475189
 30
0.0
 10
280.0813765579426
 20
30.14381365180438
 30
0.0
 10
280.4113478720185
 20
30.14810796214502
 30
0.0
 10
280.6354871623209
 20
30.15102495411077
 30
0.0
  0
LWPOLYLINE
  5
1A8
330
1F
100
AcDbEntity
  8
0
  6
Continuous
 62
     7
370
    15
100
AcDbPolyline
 90
       28
 70
   128
 43
0.0
 10
278.6680863067
 20
29.7987887896
 10
279.0212051563
 20
29.7259856507
 10
279.3511075664
 20
29.5734171199
 10
279.6364586505
 20
29.3454486124
 10
279.8717043744
 20
29.0465172757
 10
280.0522659476
 20
28.6824414683
 10
280.1746289445
 20
28.2603075117
 10
280.2364117085
 20
27.7883317632
 10
280.2364117085
 20
27.2757006939
 10
280.1746289445
 20
26.7323920844
 10
280.0522659476
 20
26.1689808187
 10
279.8717043744
 20
25.5964330564
 10
279.6364586505
 20
25.0258927883
 10
279.3511075664
 20
24.4684649318
 10
279.0212051563
 20
23.934999186
 10
278.6531725955
 20
23.4358788549
 10
278.254173219
 20
22.9808187479
 10
277.8319730959
 20
22.5786760925
 10
277.3947898712
 20
22.237278138
 10
276.9511328193
 20
21.9632698073
 10
276.50963722
 20
21.7619843607
 10
276.0788962828
 20
21.6373395906
 10
275.6672938902
 20
21.5917615657
 10
275.2828414147
 20
21.6261374104
 10
274.9330217862
 20
21.7397980378
 10
274.6246438459
 20
21.9305311733
 10
274.3637098198
 20
22.1946244133
 10
274.158821305
 20
22.5198675124
  0
SPLINE
  5
1A9
330
1F
100
AcDbEntity
  8
0
  6
Continuous
 62
     7
370
    15
100
AcDbSpline
210
0.0
220
0.0
230
1.0
 70
     8
 71
     3
 72
     8
 73
     4
 74
     0
 42
0.000000001
 43
0.00000001
 40
0.0
 40
0.0
 40
0.0
 40
0.0
 40
1.0
 40
1.0
 40
1.0
 40
1.0
 10
261.554785172499
 20
30.71488019450062
 30
0.0
 10
261.5303372640701
 20
30.71149340711359
 30
0.0
 10
261.5058900710518
 20
30.70805772077934
 30
0.0
 10
261.4814435535641
 20
30.70457344134164
 30
0.0
  0
SPLINE
  5
1AA
330
1F
100
AcDbEntity
  8
0
  6
Continuous
 62
     7
370
    15
100
AcDbSpline
210
0.0
220
0.0
230
1.0
 70
     8
 71
     3
 72
     8
 73
     4
 74
     0
 42
0.000000001
 43
0.00000001
 40
0.0
 40
0.0
 40
0.0
 40
0.0
 40
1.0
 40
1.0
 40
1.0
 40
1.0
 10
261.4814435535641
 20
30.70457344134164
 30
0.0
 10
261.2677316040192
 20
30.67411380013658
 30
0.0
 10
261.0540708214839
 20
30.63994885855538
 30
0.0
 10
260.8404378718358
 20
30.6022247405592
 30
0.0
  0
SPLINE
  5
1AB
330
1F
100
AcDbEntity
  8
0
  6
Continuous
 62
     7
370
    15
100
AcDbSpline
210
0.0
220
0.0
230
1.0
 70
     8
 71
     3
 72
     8
 73
     4
 74
     0
 42
0.000000001
 43
0.00000001
 40
0.0
 40
0.0
 40
0.0
 40
0.0
 40
1.0
 40
1.0
 40
1.0
 40
1.0
 10
260.8404378718358
 20
30.6022247405592
 30
0.0
 10
260.5579200105179
 20
30.55233666311641
 30
0.0
 10
260.2751779482384
 20
30.50287146860106
 30
0.0
 10
259.9922664585947
 20
30.45375050790756
 30
0.0
  0
SPLINE
  5
1AC
330
1F
100
AcDbEntity
  8
0
  6
Continuous
 62
     7
370
    15
100
AcDbSpline
210
0.0
220
0.0
230
1.0
 70
     8
 71
     3
 72
     8
 73
     4
 74
     0
 42
0.000000001
 43
0.00000001
 40
0.0
 40
0.0
 40
0.0
 40
0.0
 40
0.001149633737632
 40
0.001149633737632
 40
0.001149633737632
 40
0.001149633737632
 10
259.547788134835
 20
30.71039001814543
 30
0.0
 10
259.6960615633611
 20
30.62477772418326
 30
0.0
 10
259.8442263955034
 20
30.53922810920551
 30
0.0
 10
259.9922664585947
 20
30.45375050790756
 30
0.0
  0
LWPOLYLINE
  5
1AD
330
1F
100
AcDbEntity
  8
0
  6
Continuous
 62
     7
370
    15
100
AcDbPolyline
 90
       27
 70
   128
 43
0.0
 10
259.5477881348
 20
30.7103900181
 10
259.8470130503
 20
31.6270985404
 10
260.2013229011
 20
32.5426124766
 10
260.6080139014
 20
33.4499454178
 10
261.0639825377
 20
34.3421733848
 10
261.5657492524
 20
35.2124876668
 10
262.1094849968
 20
36.0542467791
 10
262.6910404506
 20
36.8610271455
 10
263.3059776864
 20
37.6266721171
 10
263.9496040359
 20
38.3453389549
 10
264.6170079006
 20
39.011543416
 10
265.3030962321
 20
39.6202016052
 10
266.0026333989
 20
40.1666687704
 10
266.7102811391
 20
40.6467747478
 10
267.4206392985
 20
41.0568557843
 10
268.1282870387
 20
41.3937824969
 10
268.8278242055
 20
41.6549837526
 10
269.513912537
 20
41.8384662899
 10
270.1813164017
 20
41.9428299288
 10
270.8249427512
 20
41.9672782567
 10
271.439879987
 20
41.9116247049
 10
272.0214354408
 20
41.7762939732
 10
272.5651711851
 20
41.5623187886
 10
273.0669378999
 20
41.2713320241
 10
273.5229065362
 20
40.9055542388
 10
273.9295975365
 20
40.4677767318
 10
274.05921333
 20
40.29882904
  0
LINE
  5
1AE
330
1F
100
AcDbEntity
  8
0
  6
Continuous
 62
     7
370
    15
100
AcDbLine
 10
257.2231745917
 20
32.052360852
 30
0.0
 11
259.5477881348
 21
30.7103900181
 31
0.0
  0
LINE
  5
1AF
330
1F
100
AcDbEntity
  8
0
  6
Continuous
 62
     7
370
    15
100
AcDbLine
 10
270.4499498391
 20
42.7951037903
 30
0.0
 11
270.4903793883
 21
42.7720902091
 31
0.0
  0
SPLINE
  5
1B0
330
1F
100
AcDbEntity
  8
0
  6
Continuous
 62
     7
370
    15
100
AcDbSpline
210
0.0
220
0.0
230
1.0
 70
     8
 71
     3
 72
     9
 73
     5
 74
     0
 42
0.000000001
 43
0.00000001
 40
0.0
 40
0.0
 40
0.0
 40
0.0
 40
0.4347808892163895
 40
1.0
 40
1.0
 40
1.0
 40
1.0
 10
262.6213973844366
 20
29.77131682544973
 30
0.0
 10
262.5341832968866
 20
29.91059854558944
 30
0.0
 10
262.333590102215
 20
30.2309477688286
 30
0.0
 10
262.0824316649563
 20
30.47789670734372
 30
0.0
 10
261.9404721163833
 20
30.6174769667802
 30
0.0
  0
SPLINE
  5
1B1
330
1F
100
AcDbEntity
  8
0
  6
Continuous
 62
     7
370
    15
100
AcDbSpline
210
0.0
220
0.0
230
1.0
 70
     8
 71
     3
 72
    13
 73
     9
 74
     0
 42
0.000000001
 43
0.00000001
 40
0.0
 40
0.0
 40
0.0
 40
0.0
 40
0.1543420314082836
 40
0.2938061119980941
 40
0.4184291878163319
 40
0.5282647859492363
 40
0.7983417750217692
 40
1.0
 40
1.0
 40
1.0
 40
1.0
 10
262.1923855049703
 20
23.45565850631739
 30
0.0
 10
262.2333431270176
 20
23.49323629845466
 30
0.0
 10
262.3113102211436
 20
23.56476953476485
 30
0.0
 10
262.4000502230735
 20
23.71066817884981
 30
0.0
 10
262.4663533678334
 20
23.8657745911922
 30
0.0
 10
262.5394506038502
 20
24.1096669910921
 30
0.0
 10
262.6013215522266
 20
24.44575571168185
 30
0.0
 10
262.6104871906949
 20
24.79347378698704
 30
0.0
 10
262.6144053344527
 20
24.94211694054086
 30
0.0
  0
SPLINE
  5
1B2
330
1F
100
AcDbEntity
  8
0
  6
Continuous
 62
     7
370
    15
100
AcDbSpline
210
0.0
220
0.0
230
1.0
 70
     8
 71
     3
 72
     9
 73
     5
 74
     0
 42
0.000000001
 43
0.00000001
 40
0.0
 40
0.0
 40
0.0
 40
0.0
 40
0.508496891989613
 40
1.0
 40
1.0
 40
1.0
 40
1.0
 10
262.0998919063022
 20
22.70937632144708
 30
0.0
 10
262.1153852011494
 20
22.83571451727927
 30
0.0
 10
262.1458540104799
 20
23.08416873169513
 30
0.0
 10
262.1770623990813
 20
23.33318489686828
 30
0.0
 10
262.1924014190747
 20
23.45557711599572
 30
0.0
  0
SPLINE
  5
1B3
330
1F
100
AcDbEntity
  8
0
  6
Continuous
 62
     7
370
    15
100
AcDbSpline
210
0.0
220
0.0
230
1.0
 70
     8
 71
     3
 72
    10
 73
     6
 74
     0
 42
0.000000001
 43
0.00000001
 40
0.0
 40
0.0
 40
0.0
 40
0.0
 40
0.5
 40
0.5
 40
1.0
 40
1.0
 40
1.0
 40
1.0
 10
261.9404721163833
 20
30.6174769667802
 30
0.0
 10
261.8947880662082
 20
30.6585988440033
 30
0.0
 10
261.8332108126839
 20
30.68932692459297
 30
0.0
 10
261.6966080697713
 20
30.72221110629657
 30
0.0
 10
261.6232134132943
 20
30.72435961085093
 30
0.0
 10
261.5547851724984
 20
30.71488019450255
 30
0.0
  0
SPLINE
  5
1B4
330
1F
100
AcDbEntity
  8
0
  6
Continuous
 62
     7
370
    15
100
AcDbSpline
210
0.0
220
0.0
230
1.0
 70
     8
 71
     3
 72
     8
 73
     4
 74
     0
 42
0.000000001
 43
0.00000001
 40
0.0
 40
0.0
 40
0.0
 40
0.0
 40
1.0
 40
1.0
 40
1.0
 40
1.0
 10
257.0687781157184
 20
32.14148270999909
 30
0.0
 10
257.0956176573466
 20
32.12599453961744
 30
0.0
 10
257.1492247044853
 20
32.09505121314408
 30
0.0
 10
257.2231745916842
 20
32.05236085195401
 30
0.0
  0
LINE
  5
1B5
330
1F
100
AcDbEntity
  8
0
  6
Continuous
 62
     7
370
    15
100
AcDbLine
 10
257.0687781157
 20
32.14148271
 30
0.0
 11
257.1078792914
 21
32.3417612239
 31
0.0
  0
ARC
  5
1B6
330
1F
100
AcDbEntity
  8
0
  6
Continuous
 62
     7
370
    15
100
AcDbCircle
 10
275.0254714894
 20
20.6230225939
 30
0.0
 40
1.306493880559075
100
AcDbArc
 50
290.2517772116
 51
300.2335023561
  0
ARC
  5
1B7
330
1F
100
AcDbEntity
  8
0
  6
Continuous
 62
     7
370
    15
100
AcDbCircle
 10
280.4643477126
 20
29.7467552746
 30
0.0
 40
1.724349667492026
100
AcDbArc
 50
351.0177039064
 51
359.9902588546
  0
LINE
  5
1B8
330
1F
100
AcDbEntity
  8
0
  6
Continuous
 62
     7
370
    15
100
AcDbLine
 10
281.14224621
 20
30.0694297003
 30
0.0
 11
282.1675510427
 21
29.4775338193
 31
0.0
  0
SPLINE
  5
1B9
330
1F
100
AcDbEntity
  8
0
  6
Continuous
 62
     7
370
    15
100
AcDbSpline
210
0.0
220
0.0
230
1.0
 70
     8
 71
     3
 72
    12
 73
     8
 74
     0
 42
0.000000001
 43
0.00000001
 40
0.0
 40
0.0
 40
0.0
 40
0.0
 40
0.2802222289746473
 40
0.5603789091392132
 40
0.7974842720911098
 40
0.9590937002468355
 40
1.0
 40
1.0
 40
1.0
 40
1.0
 10
258.6597283574383
 20
27.78109979875595
 30
0.0
 10
258.6452563384225
 20
28.11097910401701
 30
0.0
 10
258.6163156856455
 20
28.77066055008287
 30
0.0
 10
258.5483935097632
 20
29.72469620286803
 30
0.0
 10
258.5903712885208
 20
30.48086761263824
 30
0.0
 10
258.6360798315919
 20
30.95705365248898
 30
0.0
 10
258.6434318707696
 20
31.18542911679002
 30
0.0
 10
258.6449169145315
 20
31.23155884357928
 30
0.0
  0
LINE
  5
1BA
330
1F
100
AcDbEntity
  8
0
  6
Continuous
 62
     7
370
    15
100
AcDbLine
 10
258.6597283574
 20
26.9391407654
 30
0.0
 11
258.6597283574
 21
27.7810997988
 31
0.0
  0
LINE
  5
1BB
330
1F
100
AcDbEntity
  8
0
  6
Continuous
 62
     7
370
    15
100
AcDbLine
 10
259.9922664586
 20
30.4537505079
 30
0.0
 11
257.477006319
 21
31.9057792792
 31
0.0
  0
LINE
  5
1BC
330
1F
100
AcDbEntity
  8
0
  6
Continuous
 62
     7
370
    15
100
AcDbLine
 10
257.477006319
 20
31.9057792792
 30
0.0
 11
257.0687781157
 21
32.14148271
 31
0.0
  0
LWPOLYLINE
  5
1BD
330
1F
100
AcDbEntity
  8
0
  6
Continuous
 62
     7
370
    15
100
AcDbPolyline
 90
       10
 70
   128
 43
0.0
 10
280.6354871623
 20
22.3530602006
 10
280.1738891791
 20
21.7776604895
 10
279.6812368779
 20
21.2567867284
 10
279.1660129192
 20
20.799407505
 10
278.6370886103
 20
20.4133981354
 10
278.1035711558
 20
20.1054050647
 10
277.5746468468
 20
19.8807314259
 10
277.0594228881
 20
19.7432457287
 10
276.5667705869
 20
19.6953152501
 10
276.1051726037
 20
19.737765274
  0
LINE
  5
1BE
330
1F
100
AcDbEntity
  8
0
  6
Continuous
 62
     7
370
    15
100
AcDbLine
 10
281.0573356515
 20
22.5965881498
 30
0.0
 11
280.6354871623
 21
22.3530602006
 31
0.0
  0
ARC
  5
1BF
330
1F
100
AcDbEntity
  8
0
  6
Continuous
 62
     7
370
    15
100
AcDbCircle
 10
280.1945792078
 20
24.080315192
 30
0.0
 40
1.716331732797523
100
AcDbArc
 50
300.1771113865
 51
308.4969973883
  0
LINE
  5
1C0
330
1F
100
AcDbEntity
  8
0
  6
Continuous
 62
     7
370
    15
100
AcDbLine
 10
276.1051726037
 20
19.737765274
 30
0.0
 11
275.6833241145
 21
19.4942373249
 31
0.0
  0
LINE
  5
1C1
330
1F
100
AcDbEntity
  8
0
  6
Continuous
 62
     7
370
    15
100
AcDbLine
 10
275.8019963727
 20
20.7465371234
 30
0.0
 11
276.2149287697
 21
20.5081563247
 31
0.0
  0
SPLINE
  5
1C2
330
1F
100
AcDbEntity
  8
0
  6
Continuous
 62
     7
370
    15
100
AcDbSpline
210
0.0
220
0.0
230
1.0
 70
     8
 71
     3
 72
     8
 73
     4
 74
     0
 42
0.000000001
 43
0.00000001
 40
0.0
 40
0.0
 40
0.0
 40
0.0
 40
1.0
 40
1.0
 40
1.0
 40
1.0
 10
276.2149287696838
 20
20.50815632467005
 30
0.0
 10
276.1424796458283
 20
20.25131211736899
 30
0.0
 10
276.1131055237743
 20
19.99452458925867
 30
0.0
 10
276.1051726037057
 20
19.73776527403113
 30
0.0
  0
ARC
  5
1C3
330
1F
100
AcDbEntity
  8
0
  6
Continuous
 62
     7
370
    15
100
AcDbCircle
 10
275.5075037214
 20
25.2972504045
 30
0.0
 40
4.841061072136512
100
AcDbArc
 50
278.4027299562
 51
321.5918935111
  0
SPLINE
  5
1C4
330
1F
100
AcDbEntity
  8
0
  6
Continuous
 62
     7
370
    15
100
AcDbSpline
210
0.0
220
0.0
230
1.0
 70
     8
 71
     3
 72
     8
 73
     4
 74
     0
 42
0.000000001
 43
0.00000001
 40
0.0
 40
0.0
 40
0.0
 40
0.0
 40
1.0
 40
1.0
 40
1.0
 40
1.0
 10
280.6354871623209
 20
22.35306020060186
 30
0.0
 10
280.1868573730637
 20
22.34844086405949
 30
0.0
 10
279.7411593925519
 20
22.33107752022329
 30
0.0
 10
279.3009861249512
 20
22.28969931465712
 30
0.0
  0
ARC
  5
1C5
330
1F
100
AcDbEntity
  8
0
  6
Continuous
 62
     7
370
    15
100
AcDbCircle
 10
280.8893595724
 20
24.5617213976
 30
0.0
 40
1.299382666692402
100
AcDbArc
 50
359.5237711273
 51
10.3618866345
  0
ARC
  5
1C6
330
1F
100
AcDbEntity
  8
0
  6
Continuous
 62
     7
370
    15
100
AcDbCircle
 10
277.1039952802
 20
27.1364842296
 30
0.0
 40
5.57854014421707
100
AcDbArc
 50
335.1873353003
 51
24.8126646997
  0
LINE
  5
1C7
330
1F
100
AcDbEntity
  8
0
  6
Continuous
 62
     7
370
    15
100
AcDbLine
 10
281.14224621
 20
25.3873305211
 30
0.0
 11
282.1675510427
 21
24.79543464
 31
0.0
  0
LINE
  5
1C8
330
1F
100
AcDbEntity
  8
0
  6
Continuous
 62
     7
370
    15
100
AcDbLine
 10
279.300986125
 20
22.2896993147
 30
0.0
 11
278.8880537279
 21
22.5280801134
 31
0.0
  0
LWPOLYLINE
  5
1C9
330
1F
100
AcDbEntity
  8
0
  6
Continuous
 62
     7
370
    15
100
AcDbPolyline
 90
        3
 70
   128
 43
0.0
 10
258.0675264282
 20
30.1847146818
 10
258.0982731674
 20
30.8799439619
 10
258.1741125191
 20
31.5033484358
  0
ARC
  5
1CA
330
1F
100
AcDbEntity
  8
0
  6
Continuous
 62
     7
370
    15
100
AcDbCircle
 10
263.1575357198
 20
30.0175499814
 30
0.0
 40
5.092753540604543
100
AcDbArc
 50
178.1189836767
 51
207.971879973
  0
LWPOLYLINE
  5
1CB
330
1F
100
AcDbEntity
  8
0
  6
Continuous
 62
     7
370
    15
100
AcDbPolyline
 90
        3
 70
   128
 43
0.0
 10
248.6499940799
 20
47.1890598674
 10
248.652167112
 20
47.1883555966
 10
248.6982803816
 20
47.1725616331
  0
SPLINE
  5
1CC
330
1F
100
AcDbEntity
  8
0
  6
Continuous
 62
     7
370
    15
100
AcDbSpline
210
0.0
220
0.0
230
1.0
 70
     8
 71
     3
 72
     9
 73
     5
 74
     0
 42
0.000000001
 43
0.00000001
 40
0.0
 40
0.0
 40
0.0
 40
0.0
 40
0.6916770441018806
 40
1.0
 40
1.0
 40
1.0
 40
1.0
 10
261.9404721163833
 20
24.14395610989406
 30
0.0
 10
262.0796193058009
 20
24.08277294908782
 30
0.0
 10
262.2807929468869
 20
23.99431669435453
 30
0.0
 10
262.4419399332306
 20
23.96667659515931
 30
0.0
 10
262.4916252483942
 20
23.95815451807412
 30
0.0
  0
SPLINE
  5
1CD
330
1F
100
AcDbEntity
  8
0
  6
Continuous
 62
     7
370
    15
100
AcDbSpline
210
0.0
220
0.0
230
1.0
 70
     8
 71
     3
 72
     8
 73
     4
 74
     0
 42
0.000000001
 43
0.00000001
 40
0.0
 40
0.0
 40
0.0
 40
0.0
 40
1.0
 40
1.0
 40
1.0
 40
1.0
 10
260.8404378718358
 20
24.02907120487892
 30
0.0
 10
261.0540708214839
 20
24.06679532287509
 30
0.0
 10
261.2677316040192
 20
24.10763752918661
 30
0.0
 10
261.481443553564
 20
24.15164549395726
 30
0.0
  0
SPLINE
  5
1CE
330
1F
100
AcDbEntity
  8
0
  6
Continuous
 62
     7
370
    15
100
AcDbSpline
210
0.0
220
0.0
230
1.0
 70
     8
 71
     3
 72
     8
 73
     4
 74
     0
 42
0.000000001
 43
0.00000001
 40
0.0
 40
0.0
 40
0.0
 40
0.0
 40
1.0
 40
1.0
 40
1.0
 40
1.0
 10
261.481443553564
 20
24.15164549395726
 30
0.0
 10
261.5058900710518
 20
24.15667956660812
 30
0.0
 10
261.5303372640701
 20
24.16175514025014
 30
0.0
 10
261.554785172499
 20
24.16687234709651
 30
0.0
  0
ARC
  5
1CF
330
1F
100
AcDbEntity
  8
0
  6
Continuous
 62
     7
370
    15
100
AcDbCircle
 10
263.359013909
 20
25.0831753183
 30
0.0
 40
4.107674082488551
100
AcDbArc
 50
201.9008660444
 51
263.8340109944
  0
SPLINE
  5
1D0
330
1F
100
AcDbEntity
  8
0
  6
Continuous
 62
     7
370
    15
100
AcDbSpline
210
0.0
220
0.0
230
1.0
 70
     8
 71
     3
 72
     8
 73
     4
 74
     0
 42
0.000000001
 43
0.00000001
 40
0.0000000000000008
 40
0.0000000000000008
 40
0.0000000000000008
 40
0.0000000000000008
 40
0.0011496337376356
 40
0.0011496337376356
 40
0.0011496337376356
 40
0.0011496337376356
 10
259.9922664585973
 20
23.88059697222571
 30
0.0
 10
259.8442263955056
 20
23.77049894017688
 30
0.0
 10
259.6960615633616
 20
23.66064472398133
 30
0.0
 10
259.547788134835
 20
23.55100546264665
 30
0.0
  0
SPLINE
  5
1D1
330
1F
100
AcDbEntity
  8
0
  6
Continuous
 62
     7
370
    15
100
AcDbSpline
210
0.0
220
0.0
230
1.0
 70
     8
 71
     3
 72
     8
 73
     4
 74
     0
 42
0.000000001
 43
0.00000001
 40
0.0
 40
0.0
 40
0.0
 40
0.0
 40
1.0
 40
1.0
 40
1.0
 40
1.0
 10
259.9922664585964
 20
23.88059697222757
 30
0.0
 10
260.2751779482395
 20
23.92971793292097
 30
0.0
 10
260.5579200105184
 20
23.97918312743623
 30
0.0
 10
260.8404378718358
 20
24.02907120487892
 30
0.0
  0
SPLINE
  5
1D2
330
1F
100
AcDbEntity
  8
0
  6
Continuous
 62
     7
370
    15
100
AcDbSpline
210
0.0
220
0.0
230
1.0
 70
     8
 71
     3
 72
    10
 73
     6
 74
     0
 42
0.000000001
 43
0.00000001
 40
0.0
 40
0.0
 40
0.0
 40
0.0
 40
0.5
 40
0.5
 40
1.0
 40
1.0
 40
1.0
 40
1.0
 10
261.554785172499
 20
24.16687234709651
 30
0.0
 10
261.6232672647058
 20
24.18120637620633
 30
0.0
 10
261.6963394368906
 20
24.18679790332263
 30
0.0
 10
261.832218166544
 20
24.17877502662845
 30
0.0
 10
261.8947068065995
 20
24.16489810236326
 30
0.0
 10
261.9404721163834
 20
24.14395610989411
 30
0.0
  0
LINE
  5
1D3
330
1F
100
AcDbEntity
  8
0
  6
Continuous
 62
     7
370
    15
100
AcDbLine
 10
257.477006319
 20
25.3326257435
 30
0.0
 11
259.9922664586
 21
23.8805969722
 31
0.0
  0
LINE
  5
1D4
330
1F
100
AcDbEntity
  8
0
  6
Continuous
 62
     7
370
    15
100
AcDbLine
 10
257.477006319
 20
25.3326257435
 30
0.0
 11
258.4475963231
 21
25.8929354263
 31
0.0
  0
LINE
  5
1D5
330
1F
100
AcDbEntity
  8
0
  6
Continuous
 62
     7
370
    15
100
AcDbLine
 10
257.0687781157
 20
25.0969223127
 30
0.0
 11
257.477006319
 21
25.3326257435
 31
0.0
  0
LINE
  5
1D6
330
1F
100
AcDbEntity
  8
0
  6
Continuous
 62
     7
370
    15
100
AcDbLine
 10
259.5477881348
 20
23.5510054626
 30
0.0
 11
257.2231745917
 21
24.8929762965
 31
0.0
  0
SPLINE
  5
1D7
330
1F
100
AcDbEntity
  8
0
  6
Continuous
 62
     7
370
    15
100
AcDbSpline
210
0.0
220
0.0
230
1.0
 70
     8
 71
     3
 72
     8
 73
     4
 74
     0
 42
0.000000001
 43
0.00000001
 40
0.0
 40
0.0
 40
0.0
 40
0.0
 40
1.0
 40
1.0
 40
1.0
 40
1.0
 10
257.2231745916842
 20
24.89297629645523
 30
0.0
 10
257.1492225803278
 20
24.93566788389526
 30
0.0
 10
257.0956194534945
 20
25.00799249221551
 30
0.0
 10
257.0687781157184
 20
25.09692231267635
 30
0.0
  0
ELLIPSE
  5
1D8
330
1F
100
AcDbEntity
  8
0
  6
Continuous
 62
     7
370
    15
100
AcDbEllipse
 10
258.213281748
 20
26.6814350008
 30
0.0
 11
-6.005970379874270E-5
 21
0.8534489614827194
 31
0.0
210
0.0
220
0.0
230
1.0
 40
0.7174342186
 41
3.534193645557564
 42
5.104989972352428
  0
ELLIPSE
  5
1D9
330
1F
100
AcDbEntity
  8
0
  6
Continuous
 62
     7
370
    15
100
AcDbEllipse
 10
258.0940429325
 20
26.6125775206
 30
0.0
 11
0.2600075789209199
 21
0.9705436209909308
 31
0.0
210
0.0
220
0.0
230
1.0
 40
0.5176380889
 41
3.619174351347737
 42
5.189970678142601
  0
ARC
  5
1DA
330
1F
100
AcDbEntity
  8
0
  6
Continuous
 62
     7
370
     0
100
AcDbCircle
 10
270.8209937819
 20
24.6415172349
 30
0.0
 40
3.980533327433269
100
AcDbArc
 50
174.0136776181
 51
234.6741419885
  0
LWPOLYLINE
  5
1DB
330
1F
100
AcDbEntity
  8
0
  6
Continuous
 62
     7
370
     0
100
AcDbPolyline
 90
       24
 70
   128
 43
0.0
 10
276.5186961992
 20
35.2506745758
 10
276.3041955827
 20
35.3618829295
 10
275.8440367709
 20
35.526537416
 10
275.3474483934
 20
35.6122605909
 10
274.8198711765
 20
35.6181132533
 10
274.2670853665
 20
35.5440312801
 10
273.6951474004
 20
35.3908263288
 10
273.1103235503
 20
35.1601769451
 10
272.5190212687
 20
34.8546101718
 10
271.9277189871
 20
34.4774738625
 10
271.342895137
 20
34.0329000014
 10
270.7709571709
 20
33.5257594329
 10
270.2181713609
 20
32.961608495
 10
269.6905941439
 20
32.3466281437
 10
269.1940057665
 20
31.6875562321
 10
268.7338469546
 20
30.9916136903
 10
268.3151593047
 20
30.2664254102
 10
267.9425300462
 20
29.5199367065
 10
267.6200417831
 20
28.7603262655
 10
267.3512277645
 20
27.9959165383
 10
267.139033173
 20
27.2350825577
 10
266.9857828569
 20
26.4861601801
 10
266.8931558587
 20
25.7573547558
 10
266.8621670192
 20
25.0566512294
  0
LWPOLYLINE
  5
1DC
330
1F
100
AcDbEntity
  8
0
  6
Continuous
 62
     7
370
     0
100
AcDbPolyline
 90
       32
 70
   128
 43
0.0
 10
264.7408466756
 20
25.0566512294
 10
264.7712641011
 20
25.8115736537
 10
264.8622409124
 20
26.5947785955
 10
265.0129532096
 20
27.3991732295
 10
265.2220361186
 20
28.2174728333
 10
265.4875961524
 20
29.0422667592
 10
265.8072283582
 20
29.8660855454
 10
266.1780380971
 20
30.6814685616
 10
266.5966672588
 20
31.4810315728
 10
267.0593246727
 20
32.2575336126
 10
267.5618204417
 20
33.0039425584
 10
268.0996038863
 20
33.7134988151
 10
268.6678047563
 20
34.3797765313
 10
269.2612773366
 20
34.9967417929
 10
269.8746470477
 20
35.558807267
 10
270.5023591185
 20
36.0608828016
 10
271.1387288912
 20
36.4984215228
 10
271.7779933027
 20
36.8674610123
 10
272.4143630754
 20
37.1646591914
 10
273.0420751461
 20
37.3873245872
 10
273.6554448572
 20
37.5334407074
 10
274.2489174376
 20
37.601684302
 10
274.8171183076
 20
37.5914373462
 10
275.3549017521
 20
37.5027926382
 10
275.8573975211
 20
37.3365529581
 10
276.3200549351
 20
37.0942237981
 10
276.7386840967
 20
36.7779997288
 10
277.1094938357
 20
36.3907445243
 10
277.4291260414
 20
35.9359652276
 10
277.6946860752
 20
35.4177803904
 10
277.9037689843
 20
34.840882775
 10
278.0199818877
 20
34.3840007955
  0
LWPOLYLINE
  5
1DD
330
1F
100
AcDbEntity
  8
0
  6
Continuous
 62
     7
370
     0
100
AcDbPolyline
 90
       16
 70
   128
 43
0.0
 10
270.0206320266
 20
20.5272189974
 10
269.8746470477
 20
20.481854934
 10
269.2612773366
 20
20.3357388138
 10
268.6678047563
 20
20.2674952192
 10
268.0996038863
 20
20.277742175
 10
267.5618204417
 20
20.366386883
 10
267.0593246727
 20
20.5326265632
 10
266.5966672588
 20
20.7749557231
 10
266.1780380971
 20
21.0911797924
 10
265.8072283582
 20
21.4784349969
 10
265.4875961524
 20
21.9332142937
 10
265.2220361186
 20
22.4513991308
 10
265.0129532096
 20
23.0282967462
 10
264.8622409124
 20
23.6586826658
 10
264.7712641011
 20
24.336848017
 10
264.7408466756
 20
25.0566512294
  0
LWPOLYLINE
  5
1DE
330
1F
100
AcDbEntity
  8
0
  6
Continuous
 62
     7
370
     0
100
AcDbPolyline
 90
       19
 70
   128
 43
0.0
 10
261.5547851725
 20
30.7148801945
 10
261.8532124502
 20
31.5591788131
 10
262.2057103825
 20
32.398814724
 10
262.6090740777
 20
33.2261540039
 10
263.0596361755
 20
34.0336745302
 10
263.5533001904
 20
34.814034371
 10
264.0855777566
 20
35.5601385381
 10
264.651629436
 20
36.2652034938
 10
265.2463087182
 20
36.9228188267
 10
265.8642088122
 20
37.5270055347
 10
266.4997118047
 20
38.0722703859
 10
267.1470397377
 20
38.5536558625
 10
267.8003071416
 20
38.9667852344
 10
268.4535745456
 20
39.3079023525
 10
269.1009024786
 20
39.5739057987
 10
269.736405471
 20
39.7623770846
 10
270.354305565
 20
39.8716026397
 10
270.9489848472
 20
39.9005893913
 10
271.2940602463
 20
39.8791493167
  0
LWPOLYLINE
  5
1DF
330
1F
100
AcDbEntity
  8
0
  6
Continuous
 62
     7
370
     0
100
AcDbPolyline
 90
       24
 70
   128
 43
0.0
 10
257.2231745917
 20
32.052360852
 10
257.5223995072
 20
32.9690693742
 10
257.876709358
 20
33.8845833105
 10
258.2834003582
 20
34.7919162516
 10
258.7393689945
 20
35.6841442186
 10
259.2411357093
 20
36.5544585006
 10
259.7848714536
 20
37.3962176129
 10
260.3664269074
 20
38.2029979793
 10
260.9813641432
 20
38.968642951
 10
261.6249904928
 20
39.6873097887
 10
262.2923943574
 20
40.3535142498
 10
262.978482689
 20
40.962172439
 10
263.6780198557
 20
41.5086396042
 10
264.385667596
 20
41.9887455816
 10
265.0960257553
 20
42.3988266181
 10
265.8036734956
 20
42.7357533307
 10
266.5032106623
 20
42.9969545864
 10
267.1892989939
 20
43.1804371237
 10
267.8567028585
 20
43.2848007627
 10
268.5003292081
 20
43.3092490905
 10
269.1152664439
 20
43.2535955387
 10
269.6968218976
 20
43.118264807
 10
270.240557642
 20
42.9042896224
 10
270.4499498391
 20
42.7951037903
  0
LWPOLYLINE
  5
1E0
330
1F
100
AcDbEntity
  8
0
  6
Continuous
 62
     7
370
     0
100
AcDbPolyline
 90
       17
 70
   128
 43
0.0
 10
261.9404721164
 20
30.6174769668
 10
262.2339832366
 20
31.4412300518
 10
262.5799352634
 20
32.2601435971
 10
262.9752063269
 20
33.0668277294
 10
263.4162295023
 20
33.8540029341
 10
263.8990249981
 20
34.6145657447
 10
264.4192360694
 20
35.341652845
 10
264.9721683331
 20
36.0287030036
 10
265.5528321305
 20
36.6695162821
 10
266.1559875534
 20
37.2583099837
 10
266.7761917294
 20
37.7897708361
 10
267.407847938
 20
38.2591029383
 10
268.0452561159
 20
38.6620710391
 10
268.6826642938
 20
38.9950387557
 10
269.3143205024
 20
39.2550013885
 10
269.9345246784
 20
39.4396130357
 10
270.5265992543
 20
39.5459103509
  0
LINE
  5
1E1
330
1F
100
AcDbEntity
  8
0
  6
Continuous
 62
     7
370
     0
100
AcDbLine
 10
274.6580192818
 20
20.0861332059
 30
0.0
 11
275.6833241145
 21
19.4942373249
 31
0.0
  0
LINE
  5
1E2
330
1F
100
AcDbEntity
  8
0
  6
Continuous
 62
     7
370
     0
100
AcDbLine
 10
262.3528870337
 20
30.1712791685
 30
0.0
 11
262.2104330034
 21
30.2938293198
 31
0.0
  0
LINE
  5
1E3
330
1F
100
AcDbEntity
  8
0
  6
Continuous
 62
     7
370
     0
100
AcDbLine
 10
261.8240312032
 20
30.516808435
 30
0.0
 11
261.4953838944
 21
30.706532488
 31
0.0
  0
ARC
  5
1E4
330
1F
100
AcDbEntity
  8
0
  6
Continuous
 62
     7
370
     0
100
AcDbCircle
 10
260.2124408752
 20
27.7291937894
 30
0.0
 40
3.21994080653045
100
AcDbArc
 50
56.2191255253
 51
59.9667101493
  0
SPLINE
  5
1E5
330
1F
100
AcDbEntity
  8
0
  6
Continuous
 62
     7
370
     0
100
AcDbSpline
210
0.0
220
0.0
230
1.0
 70
     8
 71
     3
 72
     8
 73
     4
 74
     0
 42
0.000000001
 43
0.00000001
 40
0.0
 40
0.0
 40
0.0
 40
0.0
 40
1.0
 40
1.0
 40
1.0
 40
1.0
 10
262.1123047199687
 20
30.34175333322379
 30
0.0
 10
262.075787132628
 20
30.35986741971419
 30
0.0
 10
262.0392811188855
 20
30.3811308781817
 30
0.0
 10
262.0027865635537
 20
30.40551236419483
 30
0.0
  0
SPLINE
  5
1E6
330
1F
100
AcDbEntity
  8
0
  6
Continuous
 62
     7
370
     0
100
AcDbSpline
210
0.0
220
0.0
230
1.0
 70
     8
 71
     3
 72
    12
 73
     8
 74
     0
 42
0.000000001
 43
0.00000001
 40
0.0
 40
0.0
 40
0.0
 40
0.0
 40
0.2499999999999953
 40
0.2499999999999953
 40
0.4999999999999907
 40
0.4999999999999907
 40
1.0
 40
1.0
 40
1.0
 40
1.0
 10
262.2104330033888
 20
30.29382931978467
 30
0.0
 10
262.2020748209919
 20
30.30063579896377
 30
0.0
 10
262.1939503437271
 20
30.30380681162501
 30
0.0
 10
262.1776176122773
 20
30.31145205260645
 30
0.0
 10
262.1694635525943
 20
30.31508324297037
 30
0.0
 10
262.1449922632394
 20
30.32611853200968
 30
0.0
 10
262.1286675753723
 20
30.33363674613259
 30
0.0
 10
262.1123047199687
 20
30.34175333322379
 30
0.0
  0
SPLINE
  5
1E7
330
1F
100
AcDbEntity
  8
0
  6
Continuous
 62
     7
370
     0
100
AcDbSpline
210
0.0
220
0.0
230
1.0
 70
     8
 71
     3
 72
    10
 73
     6
 74
     0
 42
0.000000001
 43
0.00000001
 40
0.0
 40
0.0
 40
0.0
 40
0.0
 40
0.0381110146236184
 40
0.9108191192088751
 40
1.0
 40
1.0
 40
1.0
 40
1.0
 10
262.2104330033888
 20
25.02696929118251
 30
0.0
 10
262.2157096464734
 20
25.02519596239154
 30
0.0
 10
262.3418166907006
 20
24.98281499239066
 30
0.0
 10
262.4812082535597
 20
24.94258757267384
 30
0.0
 10
262.6031038659441
 20
24.94215687260389
 30
0.0
 10
262.6144053344527
 20
24.94211694054086
 30
0.0
  0
SPLINE
  5
1E8
330
1F
100
AcDbEntity
  8
0
  6
Continuous
 62
     7
370
     0
100
AcDbSpline
210
0.0
220
0.0
230
1.0
 70
     8
 71
     3
 72
    12
 73
     8
 74
     0
 42
0.000000001
 43
0.00000001
 40
0.0
 40
0.0
 40
0.0
 40
0.0
 40
0.5000000000000093
 40
0.5000000000000093
 40
0.7500000000000047
 40
0.7500000000000047
 40
1.0
 40
1.0
 40
1.0
 40
1.0
 10
262.1123047199687
 20
25.09234178219678
 30
0.0
 10
262.128667737173
 20
25.08156611201778
 30
0.0
 10
262.144992329544
 20
25.070236303032
 30
0.0
 10
262.1694636859733
 20
25.05301759497135
 30
0.0
 10
262.1776177720677
 20
25.0472342897028
 30
0.0
 10
262.193950523977
 20
25.03602215245154
 30
0.0
 10
262.2020750727395
 20
25.02981287833877
 30
0.0
 10
262.2104330033888
 20
25.02696929118283
 30
0.0
  0
SPLINE
  5
1E9
330
1F
100
AcDbEntity
  8
0
  6
Continuous
 62
     7
370
     0
100
AcDbSpline
210
0.0
220
0.0
230
1.0
 70
     8
 71
     3
 72
    11
 73
     7
 74
     0
 42
0.000000001
 43
0.00000001
 40
0.0
 40
0.0
 40
0.0
 40
0.0
 40
0.000121716006687
 40
0.000121716006687
 40
0.000121716006687
 40
0.0003100832903278
 40
0.0003100832903278
 40
0.0003100832903278
 40
0.0003100832903278
 10
262.0027865635537
 20
25.15502972312289
 30
0.0
 10
262.0170867948929
 20
25.14807280574734
 30
0.0
 10
262.0314258263393
 20
25.140613238899
 30
0.0
 10
262.0457672567037
 20
25.13266937809845
 30
0.0
 10
262.0679487632868
 20
25.12038282116763
 30
0.0
 10
262.0901733833233
 20
25.10691611047211
 30
0.0
 10
262.1123047199687
 20
25.09234178219679
 30
0.0
  0
ARC
  5
1EA
330
1F
100
AcDbEntity
  8
0
  6
Continuous
 62
     7
370
     0
100
AcDbCircle
 10
263.2570118167
 20
27.7283403016
 30
0.0
 40
2.862692494701695
100
AcDbArc
 50
239.9622210953
 51
244.0155097316
  0
LINE
  5
1EB
330
1F
100
AcDbEntity
  8
0
  6
Continuous
 62
     7
370
     0
100
AcDbLine
 10
258.778967173
 20
27.0079982455
 30
0.0
 11
261.8240312032
 21
25.2501201983
 31
0.0
  0
LINE
  5
1EC
330
1F
100
AcDbEntity
  8
0
  6
Continuous
 62
     7
370
     0
100
AcDbLine
 10
258.6597283574
 20
26.9391407654
 30
0.0
 11
258.778967173
 21
27.0079982455
 31
0.0
  0
LINE
  5
1ED
330
1F
100
AcDbEntity
  8
0
  6
Continuous
 62
     7
370
     0
100
AcDbLine
 10
262.0955059431
 20
30.4595958378
 30
0.0
 11
262.11230472
 21
30.3417533332
 31
0.0
  0
LWPOLYLINE
  5
1EE
330
1F
100
AcDbEntity
  8
0
  6
Continuous
 62
     7
370
     0
100
AcDbPolyline
 90
        3
 70
   128
 43
0.0
 10
261.9910143104
 20
30.5742354272
 10
262.0005678527
 20
30.5212907934
 10
262.0027865636
 20
30.4055123642
  0
LWPOLYLINE
  5
1EF
330
1F
100
AcDbEntity
  8
0
  6
Continuous
 62
     7
370
     0
100
AcDbPolyline
 90
        3
 70
   128
 43
0.0
 10
261.7975562654
 20
30.699026576
 10
261.8131617164
 20
30.6379729817
 10
261.8240312032
 20
30.516808435
  0
LWPOLYLINE
  5
1F0
330
1F
100
AcDbEntity
  8
0
  6
Continuous
 62
     7
370
     0
100
AcDbPolyline
 90
        3
 70
   128
 43
0.0
 10
258.4210798188
 20
29.9806126539
 10
258.4518265579
 20
30.6758419339
 10
258.5276659097
 20
31.2992464079
  0
ARC
  5
1F1
330
1F
100
AcDbEntity
  8
0
  6
Continuous
 62
     7
370
     0
100
AcDbCircle
 10
264.3709017073
 20
29.9133473003
 30
0.0
 40
5.95020210858134
100
AcDbArc
 50
179.3522736049
 51
195.1667374596
  0
LWPOLYLINE
  5
1F2
330
1F
100
AcDbEntity
  8
0
  6
Continuous
 62
     7
370
     0
100
AcDbPolyline
 90
       17
 70
   128
 43
0.0
 10
243.5802468926
 20
41.4038138321
 10
243.6107975863
 20
41.9259609102
 10
243.7018550331
 20
42.4732180696
 10
243.8516469032
 20
43.0349335722
 10
244.0572576682
 20
43.6001742646
 10
244.3146853486
 20
44.1579383796
 10
244.6189194074
 20
44.6973696733
 10
244.9640382746
 20
45.2079687291
 10
245.3433246041
 20
45.6797973172
 10
245.7493960189
 20
46.1036718307
 10
246.1743488007
 20
46.4713420346
 10
246.6099117272
 20
46.7756516463
 10
247.0476070614
 20
47.0106776256
 10
247.4789155614
 20
47.1718454591
 10
247.895442298
 20
47.2560181981
 10
248.2890800519
 20
47.2615575162
 10
248.6499940799
 20
47.1890598674
  0
ARC
  5
1F3
330
1F
100
AcDbEntity
  8
0
  6
Continuous
 62
     7
370
     0
100
AcDbCircle
 10
246.0016460354
 20
41.2374409328
 30
0.0
 40
2.427108104336804
100
AcDbArc
 50
176.0694185984
 51
224.9117477784
  0
LINE
  5
1F4
330
1F
100
AcDbEntity
  8
0
  6
Continuous
 62
     7
370
     0
100
AcDbLine
 10
280.0320308188
 20
23.1884840309
 30
0.0
 11
281.0573356515
 21
22.5965881498
 31
0.0
  0
ARC
  5
1F5
330
1F
100
AcDbEntity
  8
0
  6
Continuous
 62
     7
370
     0
100
AcDbCircle
 10
261.1151903037
 20
24.8790407081
 30
0.0
 40
1.105187512130096
100
AcDbArc
 50
318.3083095736
 51
7.6920861831
  0
LWPOLYLINE
  5
1F6
330
1F
100
AcDbEntity
  8
0
  6
Continuous
 62
     7
370
     0
100
AcDbPolyline
 90
        3
 70
   128
 43
0.0
 10
262.3001881616
 20
23.5683418183
 10
262.2339832366
 20
23.6590837509
 10
261.9404721164
 20
24.1439561099
  0
LWPOLYLINE
  5
1F7
330
1F
100
AcDbEntity
  8
0
  6
Continuous
 62
     7
370
     0
100
AcDbPolyline
 90
        3
 70
   128
 43
0.0
 10
262.1558088598
 20
23.2880199608
 10
261.8532124502
 20
23.6671305292
 10
261.5547851725
 20
24.1668723471
  0
ARC
  5
1F8
330
1F
100
AcDbEntity
  8
0
  6
Continuous
 62
     7
370
     0
100
AcDbCircle
 10
260.7985453203
 20
25.2531095826
 30
0.0
 40
1.323559611765377
100
AcDbArc
 50
304.8456886156
 51
353.0232693864
  0
LINE
  5
1F9
330
1F
100
AcDbEntity
  8
0
  6
Continuous
 62
     7
370
     0
100
AcDbLine
 10
261.2583457783
 20
24.2703243041
 30
0.0
 11
258.4475963231
 21
25.8929354263
 31
0.0
  0
LINE
  5
1FA
330
1F
100
AcDbEntity
  8
0
  6
Continuous
 62
     7
370
     0
100
AcDbLine
 10
260.8404378718
 20
24.0290712049
 30
0.0
 11
261.2583457783
 21
24.2703243041
 31
0.0
  0
ARC
  5
1FB
330
1F
100
AcDbEntity
  8
0
  6
Continuous
 62
     7
370
     0
100
AcDbCircle
 10
260.8502287854
 20
25.1167479958
 30
0.0
 40
1.153193358754071
100
AcDbArc
 50
303.1862550559
 51
1.9023561302
  0
ARC
  5
1FC
330
1F
100
AcDbEntity
  8
0
  6
Continuous
 62
     7
370
     0
100
AcDbCircle
 10
263.046794451
 20
27.3632966811
 30
0.0
 40
3.572817764710742
100
AcDbArc
 50
239.9622210953
 51
244.0155097316
  0
ARC
  5
1FD
330
1F
100
AcDbEntity
  8
0
  6
Continuous
 62
     7
370
     0
100
AcDbCircle
 10
260.5958583222
 20
25.3060088801
 30
0.0
 40
1.229443846057646
100
AcDbArc
 50
302.60547834
 51
357.3945215143
  0
ARC
  5
1FE
330
1F
100
AcDbEntity
  8
0
  6
Continuous
 62
     7
370
     0
100
AcDbCircle
 10
261.2365178674
 20
26.5852090448
 30
0.0
 40
4.355522462737249
100
AcDbArc
 50
202.8627999871
 51
238.9701612235
  0
OLE2FRAME
  5
1FF
330
1F
100
AcDbEntity
  8
0
100
AcDbOle2Frame
 70
     2
  3
Paintbrush-Bild
 10
13.8511154363
 20
38.264191557
 30
0.0
 11
51.6290888628
 21
31.9806341108
 31
0.0
 71
     2
 72
     0
 73
     1
 90
    12928
310
80552BED0767C5B32B40DDAF6807D121434000000000000000006FFBDDFB85D0
310
4940DDAF6807D121434000000000000000006FFBDDFB85D04940416F4BD60AFB
310
3F4000000000000000002BED0767C5B32B40416F4BD60AFB3F40000000000000
310
0000000000000100000000010000010000000100000000000100000000320000
310
D0CF11E0A1B11AE1000000000000000000000000000000003E000300FEFF0900
310
0600000000000000000000000100000001000000000000000010000002000000
310
01000000FEFFFFFF0000000000000000FFFFFFFFFFFFFFFFFFFFFFFFFFFFFFFF
310
FFFFFFFFFFFFFFFFFFFFFFFFFFFFFFFFFFFFFFFFFFFFFFFFFFFFFFFFFFFFFFFF
310
FFFFFFFFFFFFFFFFFFFFFFFFFFFFFFFFFFFFFFFFFFFFFFFFFFFFFFFFFFFFFFFF
310
FFFFFFFFFFFFFFFFFFFFFFFFFFFFFFFFFFFFFFFFFFFFFFFFFFFFFFFFFFFFFFFF
310
FFFFFFFFFFFFFFFFFFFFFFFFFFFFFFFFFFFFFFFFFFFFFFFFFFFFFFFFFFFFFFFF
310
FFFFFFFFFFFFFFFFFFFFFFFFFFFFFFFFFFFFFFFFFFFFFFFFFFFFFFFFFFFFFFFF
310
FFFFFFFFFFFFFFFFFFFFFFFFFFFFFFFFFFFFFFFFFFFFFFFFFFFFFFFFFFFFFFFF
310
FFFFFFFFFFFFFFFFFFFFFFFFFFFFFFFFFFFFFFFFFFFFFFFFFFFFFFFFFFFFFFFF
310
FFFFFFFFFFFFFFFFFFFFFFFFFFFFFFFFFFFFFFFFFFFFFFFFFFFFFFFFFFFFFFFF
310
FFFFFFFFFFFFFFFFFFFFFFFFFFFFFFFFFFFFFFFFFFFFFFFFFFFFFFFFFFFFFFFF
310
FFFFFFFFFFFFFFFFFFFFFFFFFFFFFFFFFFFFFFFFFFFFFFFFFFFFFFFFFFFFFFFF
310
FFFFFFFFFFFFFFFFFFFFFFFFFFFFFFFFFFFFFFFFFFFFFFFFFFFFFFFFFFFFFFFF
310
FFFFFFFFFFFFFFFFFFFFFFFFFFFFFFFFFFFFFFFFFFFFFFFFFFFFFFFFFFFFFFFF
310
FFFFFFFFFFFFFFFFFFFFFFFFFFFFFFFFFFFFFFFFFFFFFFFFFFFFFFFFFFFFFFFF
310
FDFFFFFFFEFFFFFFFEFFFFFFFEFFFFFF05000000060000000700000008000000
310
090000000A0000000B0000000C0000000D0000000E0000000F00000010000000
310
11000000120000001300000014000000150000001600000017000000FEFFFFFF
310
FFFFFFFFFFFFFFFFFFFFFFFFFFFFFFFFFFFFFFFFFFFFFFFFFFFFFFFFFFFFFFFF
310
FFFFFFFFFFFFFFFFFFFFFFFFFFFFFFFFFFFFFFFFFFFFFFFFFFFFFFFFFFFFFFFF
310
FFFFFFFFFFFFFFFFFFFFFFFFFFFFFFFFFFFFFFFFFFFFFFFFFFFFFFFFFFFFFFFF
310
FFFFFFFFFFFFFFFFFFFFFFFFFFFFFFFFFFFFFFFFFFFFFFFFFFFFFFFFFFFFFFFF
310
FFFFFFFFFFFFFFFFFFFFFFFFFFFFFFFFFFFFFFFFFFFFFFFFFFFFFFFFFFFFFFFF
310
FFFFFFFFFFFFFFFFFFFFFFFFFFFFFFFFFFFFFFFFFFFFFFFFFFFFFFFFFFFFFFFF
310
FFFFFFFFFFFFFFFFFFFFFFFFFFFFFFFFFFFFFFFFFFFFFFFFFFFFFFFFFFFFFFFF
310
FFFFFFFFFFFFFFFFFFFFFFFFFFFFFFFFFFFFFFFFFFFFFFFFFFFFFFFFFFFFFFFF
310
FFFFFFFFFFFFFFFFFFFFFFFFFFFFFFFFFFFFFFFFFFFFFFFFFFFFFFFFFFFFFFFF
310
FFFFFFFFFFFFFFFFFFFFFFFFFFFFFFFFFFFFFFFFFFFFFFFFFFFFFFFFFFFFFFFF
310
FFFFFFFFFFFFFFFFFFFFFFFFFFFFFFFFFFFFFFFFFFFFFFFFFFFFFFFFFFFFFFFF
310
FFFFFFFFFFFFFFFFFFFFFFFFFFFFFFFFFFFFFFFFFFFFFFFFFFFFFFFFFFFFFFFF
310
FFFFFFFFFFFFFFFFFFFFFFFFFFFFFFFFFFFFFFFFFFFFFFFFFFFFFFFFFFFFFFFF
310
52006F006F007400200045006E00740072007900000000000000000000000000
310
0000000000000000000000000000000000000000000000000000000000000000
310
16000500FFFFFFFFFFFFFFFF020000000A00030000000000C000000000000046
310
00000000000000000000000010CB39EB6115D20103000000C000000000000000
310
01004F006C006500000000000000000000000000000000000000000000000000
310
0000000000000000000000000000000000000000000000000000000000000000
310
0A000200FFFFFFFFFFFFFFFFFFFFFFFF00000000000000000000000000000000
310
0000000000000000000000000000000000000000000000001400000000000000
310
010043006F006D0070004F0062006A0000000000000000000000000000000000
310
0000000000000000000000000000000000000000000000000000000000000000
310
120002010100000003000000FFFFFFFF00000000000000000000000000000000
310
0000000000000000000000000000000000000000010000004D00000000000000
310
01004F006C006500310030004E00610074006900760065000000000000000000
310
0000000000000000000000000000000000000000000000000000000000000000
310
1A000200FFFFFFFFFFFFFFFFFFFFFFFF00000000000000000000000000000000
310
0000000000000000000000000000000000000000040000002426000000000000
310
FEFFFFFF02000000FEFFFFFFFFFFFFFFFFFFFFFFFFFFFFFFFFFFFFFFFFFFFFFF
310
FFFFFFFFFFFFFFFFFFFFFFFFFFFFFFFFFFFFFFFFFFFFFFFFFFFFFFFFFFFFFFFF
310
FFFFFFFFFFFFFFFFFFFFFFFFFFFFFFFFFFFFFFFFFFFFFFFFFFFFFFFFFFFFFFFF
310
FFFFFFFFFFFFFFFFFFFFFFFFFFFFFFFFFFFFFFFFFFFFFFFFFFFFFFFFFFFFFFFF
310
FFFFFFFFFFFFFFFFFFFFFFFFFFFFFFFFFFFFFFFFFFFFFFFFFFFFFFFFFFFFFFFF
310
FFFFFFFFFFFFFFFFFFFFFFFFFFFFFFFFFFFFFFFFFFFFFFFFFFFFFFFFFFFFFFFF
310
FFFFFFFFFFFFFFFFFFFFFFFFFFFFFFFFFFFFFFFFFFFFFFFFFFFFFFFFFFFFFFFF
310
FFFFFFFFFFFFFFFFFFFFFFFFFFFFFFFFFFFFFFFFFFFFFFFFFFFFFFFFFFFFFFFF
310
FFFFFFFFFFFFFFFFFFFFFFFFFFFFFFFFFFFFFFFFFFFFFFFFFFFFFFFFFFFFFFFF
310
FFFFFFFFFFFFFFFFFFFFFFFFFFFFFFFFFFFFFFFFFFFFFFFFFFFFFFFFFFFFFFFF
310
FFFFFFFFFFFFFFFFFFFFFFFFFFFFFFFFFFFFFFFFFFFFFFFFFFFFFFFFFFFFFFFF
310
FFFFFFFFFFFFFFFFFFFFFFFFFFFFFFFFFFFFFFFFFFFFFFFFFFFFFFFFFFFFFFFF
310
FFFFFFFFFFFFFFFFFFFFFFFFFFFFFFFFFFFFFFFFFFFFFFFFFFFFFFFFFFFFFFFF
310
FFFFFFFFFFFFFFFFFFFFFFFFFFFFFFFFFFFFFFFFFFFFFFFFFFFFFFFFFFFFFFFF
310
FFFFFFFFFFFFFFFFFFFFFFFFFFFFFFFFFFFFFFFFFFFFFFFFFFFFFFFFFFFFFFFF
310
FFFFFFFFFFFFFFFFFFFFFFFFFFFFFFFFFFFFFFFFFFFFFFFFFFFFFFFFFFFFFFFF
310
0100000200000000000000000000000000000000000000000000000000000000
310
0000000000000000000000000000000000000000000000000000000000000000
310
0100FEFF030A0000FFFFFFFF0A00030000000000C00000000000004607000000
310
5042727573680007000000504272757368000700000050427275736800F439B2
310
7100000000000000000000000000000000000000000000000000000000000000
310
0000000000000000000000000000000000000000000000000000000000000000
310
0000000000000000000000000000000000000000000000000000000000000000
310
0000000000000000000000000000000000000000000000000000000000000000
310
0000000000000000000000000000000000000000000000000000000000000000
310
0000000000000000000000000000000000000000000000000000000000000000
310
0000000000000000000000000000000000000000000000000000000000000000
310
0000000000000000000000000000000000000000000000000000000000000000
310
0000000000000000000000000000000000000000000000000000000000000000
310
0000000000000000000000000000000000000000000000000000000000000000
310
0000000000000000000000000000000000000000000000000000000000000000
310
0000000000000000000000000000000000000000000000000000000000000000
310
20260000424D0E260000000000003E00000028000000B40200006E0000000100
310
01000000000000000000130B0000130B00000200000002000000000000FFFFFF
310
FFFFFFFFFFFFFFFFFFFFFFFFFFFFFFFFFFFFFFFFFFFFFFFFFFFFFFFFFFFFFFFF
310
FFFFFFFFFFFFFFFFFFFFFFFFFFFFFFFFFFFFFFFFFFFFFFFFFFFFFFFFFFFFFFFF
310
FFFFFFFFFFFFFFFFFFFFFFFFFFFFFFFFFFFFFFFFFFFFFFFFF000FFFFFFFFFFFF
310
FFFFFFFFFFFFFFFFFFFFFFFFFFFFFFFFFFFFFFFFFFFFFFFFFFFFFFFFFFFFFFFF
310
FFFFFFFFFFFFFFFFFFFFFFFFFFFFFFFFFFFFFFFFFFFFFFFFFFFFFFFFFFFFFFFF
310
FFFFFFFFFFFFFFFFFFFFFFFFFFFFFFFFF000FFFFFFFFFFFFFFFFFFFFFFFFFFFF
310
FFFFFFFFFFFFFFFFFFFFFFFFFFFFFFFFFFFFFFFFFFFFFFFFFFFFFFFFFFFFFFFF
310
FFFFFFFFFFFFFFFFFFFFFFFFFFFFFFFFFFFFFFFFFFFFFFFFFFFFFFFFFFFFFFFF
310
FFFFFFFFFFFFFFFFF000FFFFFFFFFFFFFFFFFFFFFFFFFFFFFFFFFFFFFFFFFFFF
310
FFFFFFFFFFFFFFFFFFFFFFFFFFFFFFFFFFFFFFFFFFFFFFFFFFFFFFFFFFFFFFFF
310
FFFFFFFFFFFFFFFFFFFFFFFFFFFFFFFFFFFFFFFFFFFFFFFFFFFFFFFFFFFFFFFF
310
F000FFFFFFFFFFFFFFFFFFFFFFFFFFFFFFFFFFFFFFFFFFFFFFFFFFFFFFFFFFFF
310
FFFFFFFFFFFFFFFFFFFFFFFFFFFFFFFFFFFFFFFFFFFFFFFFFFFFFFFFFFFFFFFF
310
FFFFFFFFFFFFFFFFFFFFFFFFFFFFFFFFFFFFFFFFFFFFFFFFF000FFFFFFFFFFFF
310
FFFFFFFFFFFFFFFFFFFFFFFFFFFFFFFFFFFFFFFFFFFFFFFFFFFFFFFFFFFFFFFF
310
FFFFFFFFFFFFFFFFFFFFFFFFFFFFFFFFFFFFFFFFFFFFFFFFFFFFFFFFFFFFFFFF
310
FFFFFFFFFFFFFFFFFFFFFFFFFFFFFFFFF000FFFFFFFFFFFFFFFFFFFFFFFFFFFF
310
FFFFFFFFFFFFFFFFFFFFFFFFFFFFFFFFFFFFFFFFFFFFFFFFFFFFFFFFFFFFFFFF
310
FFFFFFFFFFFFFFFFFFFFFFFFFFFFFFFFFFFFFFFFFFFFFFFFFFFFFFFFFFFFFFFF
310
FFFFFFFFFFFFFFFFF000FFFFFFFFFFFFFFFFFFFFFFFFFFFFFFFFFFFFFFFFFFFF
310
FFFFFFFFFFFFFFFFFFFFFFFFFFFFFFFFFFFFFFFFFFFFFFFFFFFFFFFFFFFFFFFF
310
FFFFFFFFFFFFFFFFFFFFFFFFFFFFFFFFFFFFFFFFFFFFFFFFFFFFFFFFFFFFFFFF
310
F000FFFFFFFFFFFFFFFFFFFFFFFFFFFFFFFFFFFFFFFFFFFFFFFFFFFFFFFFFFFF
310
FFFFFFFFFFFFFFFFFFFFFFFFFFFFFFFFFFFFFFFFFFFFFFFFFFFFFFFFFFFFFFFF
310
FFFFFFFFFFFFFFFFFFFFFFFFFFFFFFFFFFFFFFFFFFFFFFFFF000FFFFFFFFFFFF
310
FFFFFFFFFFFFFFFFFFFFFFFFFFFFFFFFFFFFFFFFFFFFFFFFFFFFFFFFFFFFFFFF
310
FFFFFFFFFFFFFFFFFFFFFFFFFFFFFFFFFFFFFFFFFFFFFFFFFFFFFFFFFFFFFFFF
310
FFFFFFFFFFFFFFFFFFFFFFFFFFFFFFFFF000FFFFFFFFFFFFFFFFFFFFFFFFFFFF
310
FFFFFFFFFFFFFFFFFFFFFFFFFFFFFFFFFFFFFFFFFFFFFFFFFFFFFFFFFFFFFFFF
310
FFFFFFFFFFFFFFFFFFFFFFFFFFFFFFFFFFFFFFFFFFFFFFFFFFFFFFFFFFFFFFFF
310
FFFFFFFFFFFFFFFFF000FFFFFFFFFFFFFFFFFFFFFFFFFFFFFFFFFFFFFFFFFFFF
310
FFFFFFFFFFFFFFFFFFFFFFFFFFFFFFFFFFFFFFFFFFFFFFFFFFFFFFFFFFFFFFFF
310
FFFFFFFFFFFFFFFFFFFFFFFFFFFFFFFFFFFFFFFFFFFFFFFFFFFFFFFFFFFFFFFF
310
F000FFFFFFFFFFFFFFFFFFFFFFFFFFFFFFFFFFFFFFFFFFFFFFFFFFFFFFFFFFFF
310
FFFFFFFFFFFFFFFFFFFFFFFFFFFFFFFFFFFFFFFFFFFFFFFFFFFFFFFFFFFFFFFF
310
FFFFFFFFFFFFFFFFFFFFFFFFFFFFFFFFFFFFFFFFFFFFFFFFF000FFFFFFFFFFFF
310
FFFFFFFFFFFFFFFFFFFFFFFFFFFFFFFFFFFFFFFFFFFFFFFFFFFFFFFFFFFFFFFF
310
FFFFFFFFFFFFFFFFFFFFFFFFFFFFFFFFFFFFFFFFFFFFFFFFFFFFFFFFFFFFFFFF
310
FFFFFFFFFFFFFFFFFFFFFFFFFFFFFFFFF000FFFFFFFFFFFFFFFFFFFFFFFFFFFF
310
FFFFFFFFFFFFFFFFFFFFFFFFFFFFFFFFFFFFFFFFFFFFFFFFFFFFFFFFFFFFFFFF
310
FFFFFFFFFFFFFFFFFFFFFFFFFFFFFFFFFFFFFFFFFFFFFFFFFFFFFFFFFFFFFFFF
310
FFFFFFFFFFFFFFFFF000FFFFFFFFFFFFFFFFFFFFFFFFFFFFFFFFFFFFFFFFFFFF
310
FFFFFFFFFFFFFFFFFFFFFFFFFFFFFFFFFFFFFFFFFFFFFFFFFFFFFFFFFFFFFFFF
310
FFFFFFFFFFFFFFFFFFFFFFFFFFFFFFFFFFFFFFFFFFFFFFFFFFFFFFFFFFFFFFFF
310
F000FFFFFFFFFFFFFFFFFFFFFFFFFFFFFFFFFFFFFFFFFFFFFFFFFFFFFFFFFFFF
310
FFFFFFFFFFFFFFFFFFFFFFFFFFFFFFFFFFFFFFFFFFFFFFFFFFFFFFFFFFFFFFFF
310
FFFFFFFFFFFFFFFFFFFFFFFFFFFFFFFFFFFFFFFFFFFFFFFFF000FFFFFFFFFFFF
310
FFFFFFFFFFFFFFFFFFFFFFFFFFFFFFFFFFFFFFFFFFFFFFFFFFFFFFFFFFFFFFFF
310
FFFFFFFFFFFFFFFFFFFFFFFFFFFFFFFFFFFFFFFFFFFFFFFFFFFFFFFFFFFFFFFF
310
FFFFFFFFFFFFFFFFFFFFFFFFFFFFFFFFF000FFFFFFFFFFFFFFFFFFFFFFFFFFFF
310
FFFFFFFFFFFFFFFFFFFFFFFFFFFFFFFFFFFFFFFFFFFFFFFFFFFFFFFFFFFFFFFF
310
FFFFFFFFFFFFFFFFFFFFFFFFFFFFFFFFFFFFFFFFFFFFFFFFFFFFFFFFFFFFFFFF
310
FFFFFFFFFFFFFFFFF000FFFFF80003FFFFFFFFFFFFFFFFFFFFFFFFFFFFFFFFFF
310
FFFFF00007FFFFFFFFFF00007FFFFFF800000000000000007FFFFFFFFFFFFFFF
310
FFFFFFFC001FFFFFFFFFFFFFFC001FFFFFFFFFFFFFFFFFFFFFFFFFFE0007FFFF
310
F000FFFF8000007FFFFFFFF8000FFFFFC0007FFFFF80007FFFFF0000007FFFFF
310
FFF8000007FFFFF800000000000000007FFFFFF0001FFFFFFFFFFFC00001FFFF
310
FFFFFFFFC00001FFFFFFFF000000000003FFFFE000007FFFF000FFFE0000000F
310
FFFFFFF0000FFFFF80007FFFFF80007FFFFC0000001FFFFFFFC0000001FFFFF8
310
00000000000000007FFFFFF0001FFFFFFFFFFE0000003FFFFFFFFFFE0000003F
310
FFFFFF000000000003FFFF0000000FFFF000FFF800000003FFFFFFF00007FFFF
310
80007FFFFF80007FFFF000000007FFFFFF000000003FFFF80000000000000000
310
7FFFFFF0001FFFFFFFFFF80000000FFFFFFFFFF80000000FFFFFFF0000000000
310
03FFFC00000003FFF000FFE000000000FFFFFFF00007FFFF80003FFFFF80007F
310
FFC000000001FFFFFC000000001FFFF800000000000000007FFFFFF0001FFFFF
310
FFFFE000000003FFFFFFFFE000000003FFFFFF000000000003FFF000000000FF
310
F000FF80000000007FFFFFF00007FFFF80003FFFFF80007FFF8000000000FFFF
310
F80000000007FFF800000000000000007FFFFFF0001FFFFFFFFFC000000001FF
310
FFFFFFC000000001FFFFFF000000000003FFC0000000007FF000FF0000000000
310
3FFFFFE00007FFFF00003FFFFF80007FFE00000000003FFFF00000000003FFF8
310
00000000000000007FFFFFF0001FFFFFFFFF8000000000FFFFFFFF8000000000
310
FFFFFF000000000003FF80000000003FF000FE00000000001FFFFFE00003FFFF
310
00003FFFFF80007FFC00000000001FFFE00000000001FFF8000001FFFE000000
310
7FFFFFF0001FFFFFFFFE00000000003FFFFFFE00000000003FFFFF0000000000
310
03FF00000000001FF000FC00000000000FFFFFE00003FFFF00001FFFFF80007F
310
F800000000001FFFC00000000000FFF8000001FFFE0000007FFFFFF0001FFFFF
310
FFFC00000000001FFFFFFC00000000001FFFFF000000000003FE00000000000F
310
F000F8000000000007FFFFE00003FFFF00001FFFFF80007FF800000000000FFF
310
800000000000FFF8000001FFFE0000007FFFFFF0001FFFFFFFF800000000000F
310
FFFFF800000000000FFFFF000000000003FC000000000007F000F80000000000
310
03FFFFC00003FFFE00001FFFFF80007FF0000000000007FF0000000000007FF8
310
000001FFFE0000007FFFFFF0001FFFFFFFF0000000000007FFFFF00000000000
310
07FFFF000000000003F8000000000003F000F0000000000003FFFFC00001FFFE
310
00001FFFFF80007FE0000000000007FE0000000000003FF8000001FFFE000000
310
7FFFFFF0001FFFFFFFF0000000000007FFFFF0000000000007FFFF0000000000
310
03F800001F800003F000E00001FFF00001FFFFC00001FFFE00000FFFFF80007F
310
E00001FFE00003FE00001FFF00003FF8000001FFFE0000007FFFFFF0001FFFFF
310
FFE000003E000003FFFFE000003E000003FFFF000000000003F00001FFF80001
310
F000E00007FFFC0001FFFFC00001FFFE00000FFFFF80007FC0000FFFFC0003FC
310
0000FFFFC0001FF8000001FFFE0000007FFFFFF0001FFFFFFFC00003FFE00001
310
FFFFC00003FFE00001FFFF0001FFFFFFFFF00007FFFE0001F000E0000FFFFF00
310
00FFFF800001FFFC00000FFFFF80007FC0001FFFFE0001FC0001FFFFE0001FF8
310
000001FFFE0000007FFFFFF0001FFFFFFF80000FFFF80000FFFF80000FFFF800
310
00FFFF0003FFFFFFFFE0000FFFFF8000F000C0003FFFFF8000FFFF800000FFFC
310
000007FFFF80007F80003FFFFF0001FC0003FFFFF0001FF8000001FFFE000000
310
7FFFFFF0001FFFFFFF80003FFFFE0000FFFF80003FFFFE0000FFFF0003FFFFFF
310
FFE0003FFFFF8000F000C0003FFFFF8000FFFF800000FFFC000007FFFF80007F
310
80007FFFFF8001F80007FFFFF8000FF8000001FFFE0000007FFFFFF0001FFFFF
310
FF00007FFFFF00007FFF00007FFFFF00007FFF0003FFFFFFFFE0003FFFFFC000
310
F000C0007FFFFFC000FFFF000000FFFC000007FFFF80007F8000FFFFFF8000F8
310
000FFFFFF8000FF8000001FFFE0000007FFFFFF0001FFFFFFF0000FFFFFF8000
310
7FFF0000FFFFFF80007FFF0003FFFFFFFFC0007FFFFFC00070008000FFFFFFC0
310
00FFFF000000FFF8000007FFFF80007F8000FFFFFF8000F8000FFFFFF8000FF8
310
000001FFFE0000007FFFFFF0001FFFFFFE0001FFFFFFC0003FFE0001FFFFFFC0
310
003FFF0003FFFFFFFFC0007FFFFFE00070008000FFFFFFC0007FFF0000007FF8
310
000003FFFF80007F0001FFFFFF8000F8000FFFFFF8000FF8000001FFFE000000
310
7FFFFFF0001FFFFFFE0001FFFFFFC0003FFE0001FFFFFFC0003FFF0003FFFFFF
310
FFC000FFFFFFE00070008000FFFFFFC0007FFF0000007FF8000003FFFF80007F
310
0001FFFFFF8000F8001FFFFFF8000FF8000001FFFE0000007FFFFFF0001FFFFF
310
FE0003FFFFFFE0003FFE0003FFFFFFE0003FFF0003FFFFFFFFC000FFFFFFE000
310
70008000FFFFFFC0007FFE0000007FF8000003FFFF80007F0001FFFFFF8000F0
310
001FFFFFF8000FF8000001FFFE0000007FFFFFF0001FFFFFFC0003FFFFFFE000
310
1FFC0003FFFFFFE0001FFF0003FFFFFFFFC000FFFFFFC00070008000FFFFFF80
310
007FFE0000007FF0000003FFFF80007F0001FFFFFF0000F0001FFFFFF8000FF8
310
000001FFFE0000007FFFFFF0001FFFFFFC0007FFFFFFF0001FFC0007FFFFFFF0
310
001FFF0003FFFFFFFFC000FFFFFFC00070008001FFFFFF0000FFFE0000003FF0
310
000001FFFF80007F0001FFFFFF0000F8001FFFFFF0000FF8000001FFFE000000
310
7FFFFFF0001FFFFFFC0007FFFFFFF0001FFC0007FFFFFFF0001FFF0003FFFFFF
310
FFC001FFFFFF80007000FFFFFFFFFE0000FFFE0008003FF0008001FFFF80007F
310
FFFFFFFFFC0000FFFFFFFFFFE0000FF8000001FFFE0000007FFFFFF0001FFFFF
310
F8000FFFFFFFF8000FF8000FFFFFFFF8000FFF0003FFFFFFFFFFFFFFFFFF0000
310
7000FFFFFFFFFC0000FFFC0008003FF0008001FFFF80007FFFFFFFFFF80001FF
310
FFFFFFFF80000FF8000001FFFE0000007FFFFFF0001FFFFFF8000FFFFFFFF800
310
0FF8000FFFFFFFF8000FFF0003FFFFFFFFFFFFFFFFFE0000F000FFFFFFFFE000
310
00FFFC000C003FE000C001FFFF80007FFFFFFFFFC00001FFFFFFFFFE00001FF8
310
000001FFFE0000007FFFFFF0001FFFFFF8000FFFFFFFF8000FF8000FFFFFFFF8
310
000FFF0003FFFFFFFFFFFFFFFFF00000F000FFFFFFFE000001FFFC000C001FE0
310
00C000FFFF80007FFFFFFFFE000001FFFFFFFFE000001FF80FFFFFFFFFFFFFC0
310
7FFFFFF0001FFFFFF8000FFFFFFFF8000FF8000FFFFFFFF8000FFF0003FFFFFF
310
FFFFFFFFFF800000F000FFFFFFC0000001FFFC001C001FE001C000FFFF80007F
310
FFFFFF80000003FFFFFFF80000001FF80FFFFFFFFFFFFFC07FFFFFF0001FFFFF
310
F8001FFFFFFFFC000FF8001FFFFFFFFC000FFF0003FFFFFFFFFFFFFFF0000001
310
F000FFFFF800000001FFF8001C001FE001C000FFFF80007FFFFFF800000003FF
310
FFFF800000003FF80FFFFFFFFFFFFFC07FFFFFF0001FFFFFF8001FFFFFFFFC00
310
0FF8001FFFFFFFFC000FFF0003FFFFFFFFFFFFFE00000001F000FFFFC0000000
310
03FFF8001E001FC001E000FFFF80007FFFFF8000000007FFFFFC000000003FF8
310
0FFFFFFFFFFFFFC07FFFFFF0001FFFFFF8001FFFFFFFFC000FF8001FFFFFFFFC
310
000FFF0003FFFFFFFFFFFFE000000003F000FFFE0000000007FFF8001E000FC0
310
01E0007FFF80007FFFFE0000000007FFFFE0000000007FF80FFFFFFFFFFFFFC0
310
7FFFFFF0001FFFFFF0001FFFFFFFFC0007F0001FFFFFFFFC0007FF0003FFFFFF
310
FFFFFF0000000003F000FFF80000000007FFF8001E000FC003E0007FFF80007F
310
FFF0000000000FFFFF8000000000FFF80FFFFFFFFFFFFFC07FFFFFF0001FFFFF
310
F0001FFFFFFFFC0007F0001FFFFFFFFC0007FF0003FFFFFFFFFFFC0000000007
310
F000FFE0000000000FFFF0003E000FC003E0007FFF80007FFFC0000000001FFF
310
FE0000000001FFF80FFFFFFFFFFFFFC07FFFFFF0001FFFFFF0001FFFFFFFFC00
310
07F0001FFFFFFFFC0007FF0003FFFFFFFFFFF0000000000FF000FFC000000000
310
1FFFF0003F000F8003F0003FFF80007FFF80000000003FFFF80000000003FFF8
310
0FFFFFFFFFFFFFC07FFFFFF0001FFFFFF0001FFFFFFFFC0007F0001FFFFFFFFC
310
0007FF0003FFFFFFFFFFE0000000001FF000FF00000000007FFFF0003F000780
310
03F0003FFF80007FFF00000000007FFFF00000000007FFF80FFFFFFFFFFFFFC0
310
7FFFFFF0001FFFFFF0001FFFFFFFFC0007F0001FFFFFFFFC0007FF0003FFFFFF
310
FFFF80000000007FF000FE0000000000FFFFE0003F00078007F0003FFF80007F
310
FE0000000001FFFFE0000000001FFFF80FFFFFFFFFFFFFC07FFFFFF0001FFFFF
310
F0001FFFFFFFFC0007F0001FFFFFFFFC0007FF0003FFFFFFFFFF0000000000FF
310
F000FC0000000003FFFFE0007F00078007F0003FFF80007FFC0000000007FFFF
310
C0000000007FFFF80FFFFFFFFFFFFFC07FFFFFF0001FFFFFF8001FFFFFFFFC00
310
0FF8001FFFFFFFFC000FFF0003FFFFFFFFFE0000000003FFF000FC000000000F
310
FFFFE0007F80070007F8001FFF80007FF8000000001FFFFF8000000001FFFFF8
310
0FFFFFFFFFFFFFC07FFFFFF0001FFFFFF8001FFFFFFFFC000FF8001FFFFFFFFC
310
000FFF0003FFFFFFFFFC000000000FFFF000F8000000007FFFFFE0007F800700
310
07F8001FFF80007FF000000000FFFFFF800000000FFFFFF80FFFFFFFFFFFFFC0
310
7FFFFFF0001FFFFFF8000FFFFFFFF8000FF8000FFFFFFFF8000FFF0003FFFFFF
310
FFFC000000007FFFF000F800000007FFFFFFC0007F8003000FF8001FFF80007F
310
F000000007FFFFFF000000007FFFFFF80FFFFFFFFFFFFFC07FFFFFF0001FFFFF
310
F8000FFFFFFFF8000FF8000FFFFFFFF8000FFF0003FFFFFFFFF80000000FFFFF
310
F000F0000000FFFFFFFFC000FF8003000FF8001FFF80007FE0000000FFFFFFFF
310
0000000FFFFFFFF8000001FFFE0000007FFFFFF0001FFFFFF8000FFFFFFFF800
310
0FF8000FFFFFFFF8000FFF0003FFFFFFFFF8000000FFFFFFF000F000000FFFFF
310
FFFFC000FFC002000FF8000FFF80007FE000001FFFFFFFFE000001FFFFFFFFF8
310
000001FFFE0000007FFFFFF0001FFFFFF8000FFFFFFFF8000FF8000FFFFFFFF8
310
000FFF0003FFFFFFFFF000001FFFFFFFF000E00000FFFFFFFFFFC000FFC00200
310
0FFC000FFF80007FE00001FFFFFFFFFE00001FFFFFFFFFF8000001FFFE000000
310
7FFFFFF0001FFFFFFC000FFFFFFFF8001FFC000FFFFFFFF8001FFF0003FFFFFF
310
FFF00001FFFFFFFFF000E00007FFFFFFFFFF8000FFC000001FFC000FFF80007F
310
C0000FFFFFFFFFFE0000FFFFFFFFFFF8000001FFFE0000007FFFFFF0001FFFFF
310
FC0007FFFFFFF0001FFC0007FFFFFFF0001FFF0003FFFFFFFFF00007FFFFFFFF
310
F000E0001FFFFFFFFFFF8000FFC000001FFC000FFF80007FC0003FFFFFFFFFFE
310
0001FFFFFFFFFFF8000001FFFE0000007FFFFFF0001FFFFFFC0007FFFFFFF000
310
1FFC0007FFFFFFF0001FFF0003FFFFFFFFF0001FFFFFFFFFF000E0003FFFFF00
310
03FF8001FFE000001FFC0007FF80007FC0007FFFFF0007FC0003FFFFF0003FF8
310
000001FFFE0000007FFFFFF0001FFFFFFC0003FFFFFFE0001FFC0003FFFFFFE0
310
001FFF0003FFFFFFFFF0003FFFFFFFFFF000E0003FFFFF0001FF8001FFE00000
310
1FFE0007FF80007FC0007FFFFE0003FC0007FFFFE0003FF8000001FFFE000000
310
7FFFFFF0001FFFFFFE0003FFFFFFE0003FFE0003FFFFFFE0003FFF0003FFFFFF
310
FFF0003FFFFF8001F000E0003FFFFF0001FF0001FFE000001FFE0007FF80007F
310
C0007FFFFE0003FC0007FFFFE0003FF8000001FFFE0000007FFFFFF0001FFFFF
310
FE0001FFFFFFC0003FFE0001FFFFFFC0003FFF0003FFFFFFFFF0003FFFFF0001
310
F000E0003FFFFF0003FF0001FFE000003FFE0007FF80007FC0007FFFFE0003FC
310
0007FFFFE0003FF8000001FFFE0000007FFFFFF0001FFFFFFF0001FFFFFFC000
310
7FFF0001FFFFFFC0007FFF0003FFFFFFFFF0003FFFFF0001F000E0003FFFFE00
310
03FF0003FFF000003FFE0003FF80007FC0007FFFFC0003FE0007FFFFE0003FF8
310
000001FFFE0000007FFFFFF0001FFFFFFF0000FFFFFF80007FFF0000FFFFFF80
310
007FFF0003FFFFFFFFF0003FFFFF0001F000E0003FFFFE0003FF0003FFF00000
310
3FFF0003FF80007FC0007FFFFC0007FE0007FFFFC0003FF8000001FFFE000000
310
7FFFFFF0001FFFFFFF80007FFFFF0000FFFF80007FFFFF0000FFFF0003FFFFFF
310
FFF0003FFFFF0003F000E0003FFFFC0003FE0003FFF000003FFF0003FF80007F
310
E0003FFFF80007FE0003FFFFC0007FF8000001FFFE0000007FFFFFF0001FFFFF
310
FF80003FFFFE0000FFFF80003FFFFE0000FFFF0003FFFFFFFFF0001FFFFE0003
310
F000F0001FFFF80003FE0003FFF000007FFF0001FF80007FE0003FFFF00007FE
310
0001FFFF80007FF8000001FFFE0000007FFFFFF0001FFFFFFFC0000FFFF80001
310
FFFFC0000FFFF80001FFFF0003FFFFFFFFF0001FFFFC0003F000F0000FFFF000
310
07FE0007FFF800007FFF0001FF80007FE0001FFFE00007FF0000FFFE00007FF8
310
000001FFFE0000007FFFFFF0001FFFFFFFC00003FFE00001FFFFC00003FFE000
310
01FFFF0003FFFFFFFFF8000FFFF80003F000F00003FFC00007FC0007FFF80000
310
7FFF8001FF80007FF00007FF80000FFF00007FF80000FFF8000001FFFE000000
310
7F80000000000001FFE000003E000003FFFFE000003E000003FFFF0003FFFFFF
310
FFF80003FFE00007F000F800000000000FFC0007FFF800007FFF8001FF80007F
310
F000000000000FFF000000000000FFF8000001FFFE0000007F80000000000001
310
FFF0000000000007FFFFF0000000000007FFFF0003FFFFFFFFFC00007E000007
310
F000F800000000000FFC0007FFF80000FFFF8000FF80007FF800000000001FFF
310
800000000001FFF8000001FFFE0000007F80000000000001FFF800000000000F
310
FFFFF800000000000FFFFF0003FFFFFFFFFC00000000000FF000FC0000000000
310
1FFC0007FFFC0000FFFF8000FF80007FF800000000003FFFC00000000001FFF8
310
000001FFFE0000007F80000000000001FFF800000000000FFFFFF80000000000
310
0FFFFF0003FFFFFFFFFE00000000001FF000FE00000000003FF8000FFFFC0000
310
FFFF8000FF80007FFC00000000003FFFC00000000003FFF8000001FFFE000000
310
7F80000000000001FFFC00000000001FFFFFFC00000000001FFFFF0003FFFFFF
310
FFFF00000000001FF000FF00000000003FF8000FFFFC0000FFFFC000FF80007F
310
FE00000000007FFFE00000000007FFF8000001FFFE0000007F80000000000001
310
FFFE00000000003FFFFFFE00000000003FFFFF0003FFFFFFFFFF80000000003F
310
F000FF80000000007FF8000FFFFC0001FFFFC0007F80007FFF0000000000FFFF
310
F0000000000FFFF800000000000000007F80000000000001FFFF8000000000FF
310
FFFFFF8000000000FFFFFF0003FFFFFFFFFFC0000000007FF000FFC000000000
310
FFF8000FFFFE0001FFFFC0007F80007FFF8000000001FFFFF8000000001FFFF8
310
00000000000000007F80000000000001FFFFC000000001FFFFFFFFC000000001
310
FFFFFF0003FFFFFFFFFFE000000000FFF000FFE000000003FFF0001FFFFE0001
310
FFFFC0007F80007FFFC000000007FFFFFE000000003FFFF80000000000000000
310
7F80000000000001FFFFE000000003FFFFFFFFE000000003FFFFFF0003FFFFFF
310
FFFFF000000003FFF000FFF80000000FFFF0001FFFFE0001FFFFE0007F80007F
310
FFF00000000FFFFFFF00000000FFFFF800000000000000007F80000000000001
310
FFFFF80000000FFFFFFFFFF80000000FFFFFFF0003FFFFFFFFFFFC0000000FFF
310
F000FFFE0000003FFFF0001FFFFE0003FFFFE0003F80007FFFFC0000003FFFFF
310
FFC0000003FFFFF800000000000000007F80000000000001FFFFFE0000003FFF
310
FFFFFFFE0000003FFFFFFF0003FFFFFFFFFFFF0000003FFFF000FFFF800000FF
310
FFF0001FFFFF0003FFFFE0003F80007FFFFF000001FFFFFFFFF800001FFFFFF8
310
00000000000000007F80000000000001FFFFFFC00001FFFFFFFFFFFFC00001FF
310
FFFFFF0003FFFFFFFFFFFFC00000FFFFF000FFFFF8000FFFFFFFFFFFFFFFFFFF
310
FFFFFFFFFFFFFFFFFFFFF0001FFFFFFFFFFF0000FFFFFFF80000000000000000
310
7FFFFFFFFFFFFFFFFFFFFFFC001FFFFFFFFFFFFFFC001FFFFFFFFFFFFFFFFFFF
310
FFFFFFFC001FFFFFF000FFFFFFFFFFFFFFFFFFFFFFFFFFFFFFFFFFFFFFFFFFFF
310
FFFFFFFFFFFFFFFFFFFFFFFFFFFFFFFFFFFFFFFFFFFFFFFFFFFFFFFFFFFFFFFF
310
FFFFFFFFFFFFFFFFFFFFFFFFFFFFFFFFFFFFFFFFFFFFFFFFFFFFFFFFFFFFFFFF
310
F000FFFFFFFFFFFFFFFFFFFFFFFFFFFFFFFFFFFFFFFFFFFFFFFFFFFFFFFFFFFF
310
FFFFFFFFFFFFFFFFFFFFFFFFFFFFFFFFFFFFFFFFFFFFFFFFFFFFFFFFFFFFFFFF
310
FFFFFFFFFFFFFFFFFFFFFFFFFFFFFFFFFFFFFFFFFFFFFFFFF000FFFFFFFFFFFF
310
FFFFFFFFFFFFFFFFFFFFFFFFFFFFFFFFFFFFFFFFFFFFFFFFFFFFFFFFFFFFFFFF
310
FFFFFFFFFFFFFFFFFFFFFFFFFFFFFFFFFFFFFFFFFFFFFFFFFFFFFFFFFFFFFFFF
310
FFFFFFFFFFFFFFFFFFFFFFFFFFFFFFFFF000FFFFFFFFFFFFFFFFFFFFFFFFFFFF
310
FFFFFFFFFFFFFFFFFFFFFFFFFFFFFFFFFFFFFFFFFFFFFFFFFFFFFFFFFFFFFFFF
310
FFFFFFFFFFFFFFFFFFFFFFFFFFFFFFFFFFFFFFFFFFFFFFFFFFFFFFFFFFFFFFFF
310
FFFFFFFFFFFFFFFFF000FFFFFFFFFFFFFFFFFFFFFFFFFFFFFFFFFFFFFFFFFFFF
310
FFFFFFFFFFFFFFFFFFFFFFFFFFFFFFFFFFFFFFFFFFFFFFFFFFFFFFFFFFFFFFFF
310
FFFFFFFFFFFFFFFFFFFFFFFFFFFFFFFFFFFFFFFFFFFFFFFFFFFFFFFFFFFFFFFF
310
F000FFFFFFFFFFFFFFFFFFFFFFFFFFFFFFFFFFFFFFFFFFFFFFFFFFFFFFFFFFFF
310
FFFFFFFFFFFFFFFFFFFFFFFFFFFFFFFFFFFFFFFFFFFFFFFFFFFFFFFFFFFFFFFF
310
FFFFFFFFFFFFFFFFFFFFFFFFFFFFFFFFFFFFFFFFFFFFFFFFF000FFFFFFFFFFFF
310
FFFFFFFFFFFFFFFFFFFFFFFFFFFFFFFFFFFFFFFFFFFFFFFFFFFFFFFFFFFFFFFF
310
FFFFFFFFFFFFFFFFFFFFFFFFFFFFFFFFFFFFFFFFFFFFFFFFFFFFFFFFFFFFFFFF
310
FFFFFFFFFFFFFFFFFFFFFFFFFFFFFFFFF000FFFFFFFFFFFFFFFFFFFFFFFFFFFF
310
FFFFFFFFFFFFFFFFFFFFFFFFFFFFFFFFFFFFFFFFFFFFFFFFFFFFFFFFFFFFFFFF
310
FFFFFFFFFFFFFFFFFFFFFFFFFFFFFFFFFFFFFFFFFFFFFFFFFFFFFFFFFFFFFFFF
310
FFFFFFFFFFFFFFFFF000FFFFFFFFFFFFFFFFFFFFFFFFFFFFFFFFFFFFFFFFFFFF
310
FFFFFFFFFFFFFFFFFFFFFFFFFFFFFFFFFFFFFFFFFFFFFFFFFFFFFFFFFFFFFFFF
310
FFFFFFFFFFFFFFFFFFFFFFFFFFFFFFFFFFFFFFFFFFFFFFFFFFFFFFFFFFFFFFFF
310
F000FFFFFFFFFFFFFFFFFFFFFFFFFFFFFFFFFFFFFFFFFFFFFFFFFFFFFFFFFFFF
310
FFFFFFFFFFFFFFFFFFFFFFFFFFFFFFFFFFFFFFFFFFFFFFFFFFFFFFFFFFFFFFFF
310
FFFFFFFFFFFFFFFFFFFFFFFFFFFFFFFFFFFFFFFFFFFFFFFFF000FFFFFFFFFFFF
310
FFFFFFFFFFFFFFFFFFFFFFFFFFFFFFFFFFFFFFFFFFFFFFFFFFFFFFFFFFFFFFFF
310
FFFFFFFFFFFFFFFFFFFFFFFFFFFFFFFFFFFFFFFFFFFFFFFFFFFFFFFFFFFFFFFF
310
FFFFFFFFFFFFFFFFFFFFFFFFFFFFFFFFF000FFFFFFFFFFFFFFFFFFFFFFFFFFFF
310
FFFFFFFFFFFFFFFFFFFFFFFFFFFFFFFFFFFFFFFFFFFFFFFFFFFFFFFFFFFFFFFF
310
FFFFFFFFFFFFFFFFFFFFFFFFFFFFFFFFFFFFFFFFFFFFFFFFFFFFFFFFFFFFFFFF
310
FFFFFFFFFFFFFFFFF000FFFFFFFFFFFFFFFFFFFFFFFFFFFFFFFFFFFFFFFFFFFF
310
FFFFFFFFFFFFFFFFFFFFFFFFFFFFFFFFFFFFFFFFFFFFFFFFFFFFFFFFFFFFFFFF
310
FFFFFFFFFFFFFFFFFFFFFFFFFFFFFFFFFFFFFFFFFFFFFFFFFFFFFFFFFFFFFFFF
310
F000FFFFFFFFFFFFFFFFFFFFFFFFFFFFFFFFFFFFFFFFFFFFFFFFFFFFFFFFFFFF
310
FFFFFFFFFFFFFFFFFFFFFFFFFFFFFFFFFFFFFFFFFFFFFFFFFFFFFFFFFFFFFFFF
310
FFFFFFFFFFFFFFFFFFFFFFFFFFFFFFFFFFFFFFFFFFFFFFFFF000FFFFFFFFFFFF
310
FFFFFFFFFFFFFFFFFFFFFFFFFFFFFFFFFFFFFFFFFFFFFFFFFFFFFFFFFFFFFFFF
310
FFFFFFFFFFFFFFFFFFFFFFFFFFFFFFFFFFFFFFFFFFFFFFFFFFFFFFFFFFFFFFFF
310
FFFFFFFFFFFFFFFFFFFFFFFFFFFFFFFFF000FFFFFFFFFFFFFFFFFFFFFFFFFFFF
310
FFFFFFFFFFFFFFFFFFFFFFFFFFFFFFFFFFFFFFFFFFFFFFFFFFFFFFFFFFFFFFFF
310
FFFFFFFFFFFFFFFFFFFFFFFFFFFFFFFFFFFFFFFFFFFFFFFFFFFFFFFFFFFFFFFF
310
FFFFFFFFFFFFFFFFF000FFFFFFFFFFFFFFFFFFFFFFFFFFFFFFFFFFFFFFFFFFFF
310
FFFFFFFFFFFFFFFFFFFFFFFFFFFFFFFFFFFFFFFFFFFFFFFFFFFFFFFFFFFFFFFF
310
FFFFFFFFFFFFFFFFFFFFFFFFFFFFFFFFFFFFFFFFFFFFFFFFFFFFFFFFFFFFFFFF
310
F000FFFFFFFFFFFFFFFFFFFFFFFFFFFFFFFFFFFFFFFFFFFFFFFFFFFFFFFFFFFF
310
FFFFFFFFFFFFFFFFFFFFFFFFFFFFFFFFFFFFFFFFFFFFFFFFFFFFFFFFFFFFFFFF
310
FFFFFFFFFFFFFFFFFFFFFFFFFFFFFFFFFFFFFFFFFFFFFFFFF000FFFFFFFFFFFF
310
FFFFFFFFFFFFFFFFFFFFFFFFFFFFFFFFFFFFFFFFFFFFFFFFFFFFFFFFFFFFFFFF
310
FFFFFFFFFFFFFFFFFFFFFFFFFFFFFFFFFFFFFFFFFFFFFFFFFFFFFFFFFFFFFFFF
310
FFFFFFFFFFFFFFFFFFFFFFFFFFFFFFFFF000FFFFFFFFFFFFFFFFFFFFFFFFFFFF
310
FFFFFFFFFFFFFFFFFFFFFFFFFFFFFFFFFFFFFFFFFFFFFFFFFFFFFFFFFFFFFFFF
310
FFFFFFFFFFFFFFFFFFFFFFFFFFFFFFFFFFFFFFFFFFFFFFFFFFFFFFFFFFFFFFFF
310
FFFFFFFFFFFFFFFFF000FFFFFFFFFFFFFFFFFFFFFFFFFFFFFFFFFFFFFFFFFFFF
310
FFFFFFFFFFFFFFFFFFFFFFFFFFFFFFFFFFFFFFFFFFFFFFFFFFFFFFFFFFFFFFFF
310
FFFFFFFFFFFFFFFFFFFFFFFFFFFFFFFFFFFFFFFFFFFFFFFFFFFFFFFFFFFFFFFF
310
F000FFFFFFFFFFFFFFFFFFFFFFFFFFFFFFFFFFFFFFFFFFFFFFFFFFFFFFFFFFFF
310
FFFFFFFFFFFFFFFFFFFFFFFFFFFFFFFFFFFFFFFFFFFFFFFFFFFFFFFFFFFFFFFF
310
FFFFFFFFFFFFFFFFFFFFFFFFFFFFFFFFFFFFFFFFFFFFFFFFF000FFFFFFFFFFFF
310
FFFFFFFFFFFFFFFFFFFFFFFFFFFFFFFFFFFFFFFFFFFFFFFFFFFFFFFFFFFFFFFF
310
FFFFFFFFFFFFFFFFFFFFFFFFFFFFFFFFFFFFFFFFFFFFFFFFFFFFFFFFFFFFFFFF
310
FFFFFFFFFFFFFFFFFFFFFFFFFFFFFFFFF0000000000000000000000000000000
310
0000000000000000000000000000000000000000000000000000000000000000
310
0000000000000000000000000000000000000000000000000000000000000000
310
0000000000000000000000000000000000000000000000000000000000000000
310
0000000000000000000000000000000000000000000000000000000000000000
310
0000000000000000000000000000000000000000000000000000000000000000
310
0000000000000000000000000000000000000000000000000000000000000000
310
0000000000000000000000000000000000000000000000000000000000000000
310
0000000000000000000000000000000000000000000000000000000000000000
310
0000000000000000000000000000000000000000000000000000000000000000
310
0000000000000000000000000000000000000000000000000000000000000000
310
0000000000000000000000000000000000000000000000000000000000000000
310
0000000000000000000000000000000000000000000000000000000000000000
310
0000000000000000000000000000000000000000000000000000000000000000
310
0000000000000000000000000000000000000000000000000000000000000000
310
0000000000000000000000000000000000000000000000000000000000000000
  1
OLE
  0
ENDSEC
  0
SECTION
  2
OBJECTS
  0
DICTIONARY
  5
C
330
0
100
AcDbDictionary
281
     1
  3
ACAD_GROUP
350
D
  3
ACAD_LAYOUT
350
1A
  3
ACAD_MLINESTYLE
350
17
  3
ACAD_PLOTSETTINGS
350
19
  3
ACAD_PLOTSTYLENAME
350
E
  3
ACAD_SCALELIST
350
47
  0
DICTIONARY
  5
D
102
{ACAD_REACTORS
330
C
102
}
330
C
100
AcDbDictionary
281
     1
  0
DICTIONARY
  5
1A
102
{ACAD_REACTORS
330
C
102
}
330
C
100
AcDbDictionary
281
     1
  3
Layout1
350
1E
  3
Layout2
350
26
  3
Model
350
22
  0
DICTIONARY
  5
17
102
{ACAD_REACTORS
330
C
102
}
330
C
100
AcDbDictionary
281
     1
  3
Standard
350
18
  0
DICTIONARY
  5
19
102
{ACAD_REACTORS
330
C
102
}
330
C
100
AcDbDictionary
281
     1
  0
ACDBDICTIONARYWDFLT
  5
E
102
{ACAD_REACTORS
330
C
102
}
330
C
100
AcDbDictionary
281
     1
  3
Normal
350
F
100
AcDbDictionaryWithDefault
340
F
  0
DICTIONARY
  5
47
102
{ACAD_REACTORS
330
C
102
}
330
C
100
AcDbDictionary
281
     1
  3
A0
350
48
  3
A1
350
49
  3
A2
350
4A
  3
A3
350
4B
  3
A4
350
4C
  3
A5
350
4D
  3
A6
350
4E
  3
A7
350
4F
  3
A8
350
50
  3
A9
350
51
  3
B0
350
52
  3
B1
350
53
  3
B2
350
54
  3
B3
350
55
  3
B4
350
56
  3
B5
350
57
  3
B6
350
58
  3
B7
350
59
  3
B8
350
5A
  3
B9
350
5B
  3
C0
350
5C
  3
C1
350
5D
  3
C2
350
5E
  3
C3
350
5F
  3
C4
350
60
  3
C5
350
61
  3
C6
350
62
  3
C7
350
63
  3
C8
350
64
  3
C9
350
65
  3
D0
350
66
  3
D1
350
67
  3
D2
350
68
  0
LAYOUT
  5
1E
102
{ACAD_REACTORS
330
1A
102
}
330
1A
100
AcDbPlotSettings
  1

  2
none_device
  4

  6

 40
0.0
 41
0.0
 42
0.0
 43
0.0
 44
0.0
 45
0.0
 46
0.0
 47
0.0
 48
0.0
 49
0.0
140
0.0
141
0.0
142
1.0
143
1.0
 70
   688
 72
     1
 73
     0
 74
     5
  7

 75
    16
147
1.0
148
0.0
149
0.0
100
AcDbLayout
  1
Layout1
 70
     1
 71
     1
 10
0.0
 20
0.0
 11
420.0
 21
297.0
 12
0.0
 22
0.0
 32
0.0
 14
1.0000000000E+20
 24
1.0000000000E+20
 34
1.0000000000E+20
 15
-1.0000000000E+20
 25
-1.0000000000E+20
 35
-1.0000000000E+20
146
0.0
 13
0.0
 23
0.0
 33
0.0
 16
1.0
 26
0.0
 36
0.0
 17
0.0
 27
1.0
 37
0.0
 76
     0
330
1B
  0
LAYOUT
  5
26
102
{ACAD_REACTORS
330
1A
102
}
330
1A
100
AcDbPlotSettings
  1

  2
none_device
  4

  6

 40
0.0
 41
0.0
 42
0.0
 43
0.0
 44
0.0
 45
0.0
 46
0.0
 47
0.0
 48
0.0
 49
0.0
140
0.0
141
0.0
142
1.0
143
1.0
 70
   688
 72
     1
 73
     0
 74
     5
  7

 75
    16
147
1.0
148
0.0
149
0.0
100
AcDbLayout
  1
Layout2
 70
     1
 71
     2
 10
0.0
 20
0.0
 11
0.0
 21
0.0
 12
0.0
 22
0.0
 32
0.0
 14
0.0
 24
0.0
 34
0.0
 15
0.0
 25
0.0
 35
0.0
146
0.0
 13
0.0
 23
0.0
 33
0.0
 16
1.0
 26
0.0
 36
0.0
 17
0.0
 27
1.0
 37
0.0
 76
     0
330
23
  0
LAYOUT
  5
22
102
{ACAD_REACTORS
330
1A
102
}
330
1A
100
AcDbPlotSettings
  1

  2
none_device
  4
Letter_(8.50_x_11.00_Inches)
  6

 40
6.35
 41
6.35
 42
6.35000508
 43
6.35000508
 44
215.9
 45
279.4
 46
0.0
 47
0.0
 48
0.0
 49
0.0
140
0.0
141
0.0
142
1.0
143
1.0
 70
  1712
 72
     1
 73
     0
 74
     0
  7

 75
     0
147
1.0
148
0.0
149
0.0
100
AcDbLayout
  1
Model
 70
     1
 71
     0
 10
0.0
 20
0.0
 11
297.0
 21
210.0
 12
0.0
 22
0.0
 32
0.0
 14
0.0
 24
0.0
 34
0.0
 15
297.0
 25
210.0
 35
0.0
146
0.0
 13
0.0
 23
0.0
 33
0.0
 16
1.0
 26
0.0
 36
0.0
 17
0.0
 27
1.0
 37
0.0
 76
     0
330
1F
331
29
  0
MLINESTYLE
  5
18
102
{ACAD_REACTORS
330
17
102
}
330
17
100
AcDbMlineStyle
  2
Standard
 70
     0
  3

 62
   256
 51
90.0
 52
90.0
 71
     2
 49
0.5
 62
   256
  6
BYLAYER
 49
-0.5
 62
   256
  6
BYLAYER
  0
ACDBPLACEHOLDER
  5
F
102
{ACAD_REACTORS
330
E
102
}
330
E
  0
SCALE
  5
48
102
{ACAD_REACTORS
330
47
102
}
330
47
100
AcDbScale
 70
     0
300
1:1
140
1.0
141
1.0
290
     1
  0
SCALE
  5
49
102
{ACAD_REACTORS
330
47
102
}
330
47
100
AcDbScale
 70
     0
300
1:2
140
1.0
141
2.0
290
     0
  0
SCALE
  5
4A
102
{ACAD_REACTORS
330
47
102
}
330
47
100
AcDbScale
 70
     0
300
1:4
140
1.0
141
4.0
290
     0
  0
SCALE
  5
4B
102
{ACAD_REACTORS
330
47
102
}
330
47
100
AcDbScale
 70
     0
300
1:5
140
1.0
141
5.0
290
     0
  0
SCALE
  5
4C
102
{ACAD_REACTORS
330
47
102
}
330
47
100
AcDbScale
 70
     0
300
1:8
140
1.0
141
8.0
290
     0
  0
SCALE
  5
4D
102
{ACAD_REACTORS
330
47
102
}
330
47
100
AcDbScale
 70
     0
300
1:10
140
1.0
141
10.0
290
     0
  0
SCALE
  5
4E
102
{ACAD_REACTORS
330
47
102
}
330
47
100
AcDbScale
 70
     0
300
1:16
140
1.0
141
16.0
290
     0
  0
SCALE
  5
4F
102
{ACAD_REACTORS
330
47
102
}
330
47
100
AcDbScale
 70
     0
300
1:20
140
1.0
141
20.0
290
     0
  0
SCALE
  5
50
102
{ACAD_REACTORS
330
47
102
}
330
47
100
AcDbScale
 70
     0
300
1:30
140
1.0
141
30.0
290
     0
  0
SCALE
  5
51
102
{ACAD_REACTORS
330
47
102
}
330
47
100
AcDbScale
 70
     0
300
1:40
140
1.0
141
40.0
290
     0
  0
SCALE
  5
52
102
{ACAD_REACTORS
330
47
102
}
330
47
100
AcDbScale
 70
     0
300
1:50
140
1.0
141
50.0
290
     0
  0
SCALE
  5
53
102
{ACAD_REACTORS
330
47
102
}
330
47
100
AcDbScale
 70
     0
300
1:100
140
1.0
141
100.0
290
     0
  0
SCALE
  5
54
102
{ACAD_REACTORS
330
47
102
}
330
47
100
AcDbScale
 70
     0
300
2:1
140
2.0
141
1.0
290
     0
  0
SCALE
  5
55
102
{ACAD_REACTORS
330
47
102
}
330
47
100
AcDbScale
 70
     0
300
4:1
140
4.0
141
1.0
290
     0
  0
SCALE
  5
56
102
{ACAD_REACTORS
330
47
102
}
330
47
100
AcDbScale
 70
     0
300
8:1
140
8.0
141
1.0
290
     0
  0
SCALE
  5
57
102
{ACAD_REACTORS
330
47
102
}
330
47
100
AcDbScale
 70
     0
300
10:1
140
10.0
141
1.0
290
     0
  0
SCALE
  5
58
102
{ACAD_REACTORS
330
47
102
}
330
47
100
AcDbScale
 70
     0
300
100:1
140
100.0
141
1.0
290
     0
  0
SCALE
  5
59
102
{ACAD_REACTORS
330
47
102
}
330
47
100
AcDbScale
 70
     0
300
1/128" = 1'-0"
140
0.0078125
141
12.0
290
     0
  0
SCALE
  5
5A
102
{ACAD_REACTORS
330
47
102
}
330
47
100
AcDbScale
 70
     0
300
1/64" = 1'-0"
140
0.015625
141
12.0
290
     0
  0
SCALE
  5
5B
102
{ACAD_REACTORS
330
47
102
}
330
47
100
AcDbScale
 70
     0
300
1/32" = 1'-0"
140
0.03125
141
12.0
290
     0
  0
SCALE
  5
5C
102
{ACAD_REACTORS
330
47
102
}
330
47
100
AcDbScale
 70
     0
300
1/16" = 1'-0"
140
0.0625
141
12.0
290
     0
  0
SCALE
  5
5D
102
{ACAD_REACTORS
330
47
102
}
330
47
100
AcDbScale
 70
     0
300
3/32" = 1'-0"
140
0.09375
141
12.0
290
     0
  0
SCALE
  5
5E
102
{ACAD_REACTORS
330
47
102
}
330
47
100
AcDbScale
 70
     0
300
1/8" = 1'-0"
140
0.125
141
12.0
290
     0
  0
SCALE
  5
5F
102
{ACAD_REACTORS
330
47
102
}
330
47
100
AcDbScale
 70
     0
300
3/16" = 1'-0"
140
0.1875
141
12.0
290
     0
  0
SCALE
  5
60
102
{ACAD_REACTORS
330
47
102
}
330
47
100
AcDbScale
 70
     0
300
1/4" = 1'-0"
140
0.25
141
12.0
290
     0
  0
SCALE
  5
61
102
{ACAD_REACTORS
330
47
102
}
330
47
100
AcDbScale
 70
     0
300
3/8" = 1'-0"
140
0.375
141
12.0
290
     0
  0
SCALE
  5
62
102
{ACAD_REACTORS
330
47
102
}
330
47
100
AcDbScale
 70
     0
300
1/2" = 1'-0"
140
0.5
141
12.0
290
     0
  0
SCALE
  5
63
102
{ACAD_REACTORS
330
47
102
}
330
47
100
AcDbScale
 70
     0
300
3/4" = 1'-0"
140
0.75
141
12.0
290
     0
  0
SCALE
  5
64
102
{ACAD_REACTORS
330
47
102
}
330
47
100
AcDbScale
 70
     0
300
1" = 1'-0"
140
1.0
141
12.0
290
     0
  0
SCALE
  5
65
102
{ACAD_REACTORS
330
47
102
}
330
47
100
AcDbScale
 70
     0
300
1-1/2" = 1'-0"
140
1.5
141
12.0
290
     0
  0
SCALE
  5
66
102
{ACAD_REACTORS
330
47
102
}
330
47
100
AcDbScale
 70
     0
300
3" = 1'-0"
140
3.0
141
12.0
290
     0
  0
SCALE
  5
67
102
{ACAD_REACTORS
330
47
102
}
330
47
100
AcDbScale
 70
     0
300
6" = 1'-0"
140
6.0
141
12.0
290
     0
  0
SCALE
  5
68
102
{ACAD_REACTORS
330
47
102
}
330
47
100
AcDbScale
 70
     0
300
1'-0" = 1'-0"
140
12.0
141
12.0
290
     0
  0
ENDSEC
  0
EOF
