  0
SECTION
  2
HEADER
  9
$ACADVER
  1
AC1015
  9
$ACADMAINTVER
 70
     6
  9
$DWGCODEPAGE
  3
ANSI_1252
  9
$INSBASE
 10
0.0
 20
0.0
 30
0.0
  9
$EXTMIN
 10
0.0
 20
0.0
 30
0.0
  9
$EXTMAX
 10
297.0
 20
210.0
 30
0.0
  9
$LIMMIN
 10
0.0
 20
0.0
  9
$LIMMAX
 10
297.0
 20
210.0
  9
$ORTHOMODE
 70
     0
  9
$REGENMODE
 70
     1
  9
$FILLMODE
 70
     1
  9
$QTEXTMODE
 70
     0
  9
$MIRRTEXT
 70
     1
  9
$LTSCALE
 40
1.0
  9
$ATTMODE
 70
     1
  9
$TEXTSIZE
 40
2.0
  9
$TRACEWID
 40
1.0
  9
$TEXTSTYLE
  7
Standard
  9
$CLAYER
  8
0
  9
$CELTYPE
  6
ByLayer
  9
$CECOLOR
 62
   256
  9
$CELTSCALE
 40
1.0
  9
$DISPSILH
 70
     0
  9
$DIMSCALE
 40
1.0
  9
$DIMASZ
 40
3.0
  9
$DIMEXO
 40
0.0
  9
$DIMDLI
 40
3.75
  9
$DIMRND
 40
0.0
  9
$DIMDLE
 40
0.0
  9
$DIMEXE
 40
1.0
  9
$DIMTP
 40
0.0
  9
$DIMTM
 40
0.0
  9
$DIMTXT
 40
2.0
  9
$DIMCEN
 40
2.5
  9
$DIMTSZ
 40
0.0
  9
$DIMTOL
 70
     0
  9
$DIMLIM
 70
     0
  9
$DIMTIH
 70
     1
  9
$DIMTOH
 70
     1
  9
$DIMSE1
 70
     0
  9
$DIMSE2
 70
     0
  9
$DIMTAD
 70
     1
  9
$DIMZIN
 70
     0
  9
$DIMBLK
  1

  9
$DIMASO
 70
     1
  9
$DIMSHO
 70
     1
  9
$DIMPOST
  1

  9
$DIMAPOST
  1

  9
$DIMALT
 70
     0
  9
$DIMALTD
 70
     3
  9
$DIMALTF
 40
0.0393700787
  9
$DIMLFAC
 40
1.0
  9
$DIMTOFL
 70
     1
  9
$DIMTVP
 40
0.0
  9
$DIMTIX
 70
     0
  9
$DIMSOXD
 70
     0
  9
$DIMSAH
 70
     0
  9
$DIMBLK1
  1

  9
$DIMBLK2
  1

  9
$DIMSTYLE
  2
ISO-25
  9
$DIMCLRD
 70
     0
  9
$DIMCLRE
 70
     0
  9
$DIMCLRT
 70
     0
  9
$DIMTFAC
 40
1.0
  9
$DIMGAP
 40
1.524
  9
$DIMJUST
 70
     0
  9
$DIMSD1
 70
     0
  9
$DIMSD2
 70
     0
  9
$DIMTOLJ
 70
     0
  9
$DIMTZIN
 70
     0
  9
$DIMALTZ
 70
     0
  9
$DIMALTTZ
 70
     0
  9
$DIMUPT
 70
     0
  9
$DIMDEC
 70
     2
  9
$DIMTDEC
 70
     3
  9
$DIMALTU
 70
     2
  9
$DIMALTTD
 70
     3
  9
$DIMTXSTY
  7
Standard
  9
$DIMAUNIT
 70
     0
  9
$DIMADEC
 70
     2
  9
$DIMALTRND
 40
0.0
  9
$DIMAZIN
 70
     0
  9
$DIMDSEP
 70
    44
  9
$DIMATFIT
 70
     3
  9
$DIMFRAC
 70
     0
  9
$DIMLDRBLK
  1

  9
$DIMLUNIT
 70
     2
  9
$DIMLWD
 70
    -2
  9
$DIMLWE
 70
    -2
  9
$DIMTMOVE
 70
     0
  9
$LUNITS
 70
     2
  9
$LUPREC
 70
     2
  9
$SKETCHINC
 40
1.0
  9
$FILLETRAD
 40
10.0
  9
$AUNITS
 70
     0
  9
$AUPREC
 70
     2
  9
$MENU
  1
.
  9
$ELEVATION
 40
0.0
  9
$PELEVATION
 40
0.0
  9
$THICKNESS
 40
0.0
  9
$LIMCHECK
 70
     0
  9
$CHAMFERA
 40
0.0
  9
$CHAMFERB
 40
0.0
  9
$CHAMFERC
 40
0.0
  9
$CHAMFERD
 40
0.0
  9
$SKPOLY
 70
     0
  9
$TDCREATE
 40
2457655.345874954
  9
$TDUCREATE
 40
2457655.262541621
  9
$TDUPDATE
 40
2457655.345876076
  9
$TDUUPDATE
 40
2457655.262542743
  9
$TDINDWG
 40
0.0000000116
  9
$TDUSRTIMER
 40
0.0000000116
  9
$USRTIMER
 70
     1
  9
$ANGBASE
 50
0.0
  9
$ANGDIR
 70
     0
  9
$PDMODE
 70
     0
  9
$PDSIZE
 40
-1.0
  9
$PLINEWID
 40
0.0
  9
$SPLFRAME
 70
     0
  9
$SPLINETYPE
 70
     6
  9
$SPLINESEGS
 70
     8
  9
$HANDSEED
  5
200
  9
$SURFTAB1
 70
     6
  9
$SURFTAB2
 70
     6
  9
$SURFTYPE
 70
     6
  9
$SURFU
 70
     6
  9
$SURFV
 70
     6
  9
$UCSBASE
  2

  9
$UCSNAME
  2

  9
$UCSORG
 10
0.0
 20
0.0
 30
0.0
  9
$UCSXDIR
 10
1.0
 20
0.0
 30
0.0
  9
$UCSYDIR
 10
0.0
 20
1.0
 30
0.0
  9
$UCSORTHOREF
  2

  9
$UCSORTHOVIEW
 70
     0
  9
$UCSORGTOP
 10
0.0
 20
0.0
 30
0.0
  9
$UCSORGBOTTOM
 10
0.0
 20
0.0
 30
0.0
  9
$UCSORGLEFT
 10
0.0
 20
0.0
 30
0.0
  9
$UCSORGRIGHT
 10
0.0
 20
0.0
 30
0.0
  9
$UCSORGFRONT
 10
0.0
 20
0.0
 30
0.0
  9
$UCSORGBACK
 10
0.0
 20
0.0
 30
0.0
  9
$PUCSBASE
  2

  9
$PUCSNAME
  2

  9
$PUCSORG
 10
0.0
 20
0.0
 30
0.0
  9
$PUCSXDIR
 10
1.0
 20
0.0
 30
0.0
  9
$PUCSYDIR
 10
0.0
 20
1.0
 30
0.0
  9
$PUCSORTHOREF
  2

  9
$PUCSORTHOVIEW
 70
     0
  9
$PUCSORGTOP
 10
0.0
 20
0.0
 30
0.0
  9
$PUCSORGBOTTOM
 10
0.0
 20
0.0
 30
0.0
  9
$PUCSORGLEFT
 10
0.0
 20
0.0
 30
0.0
  9
$PUCSORGRIGHT
 10
0.0
 20
0.0
 30
0.0
  9
$PUCSORGFRONT
 10
0.0
 20
0.0
 30
0.0
  9
$PUCSORGBACK
 10
0.0
 20
0.0
 30
0.0
  9
$USERI1
 70
     0
  9
$USERI2
 70
     0
  9
$USERI3
 70
     0
  9
$USERI4
 70
     0
  9
$USERI5
 70
     0
  9
$USERR1
 40
0.0
  9
$USERR2
 40
0.0
  9
$USERR3
 40
0.0
  9
$USERR4
 40
0.0
  9
$USERR5
 40
0.0
  9
$WORLDVIEW
 70
     1
  9
$SHADEDGE
 70
     3
  9
$SHADEDIF
 70
    70
  9
$TILEMODE
 70
     1
  9
$MAXACTVP
 70
    64
  9
$PINSBASE
 10
0.0
 20
0.0
 30
0.0
  9
$PLIMCHECK
 70
     0
  9
$PEXTMIN
 10
1.0000000000E+20
 20
1.0000000000E+20
 30
1.0000000000E+20
  9
$PEXTMAX
 10
-1.0000000000E+20
 20
-1.0000000000E+20
 30
-1.0000000000E+20
  9
$PLIMMIN
 10
0.0
 20
0.0
  9
$PLIMMAX
 10
420.0
 20
297.0
  9
$UNITMODE
 70
     0
  9
$VISRETAIN
 70
     1
  9
$PLINEGEN
 70
     0
  9
$PSLTSCALE
 70
     1
  9
$TREEDEPTH
 70
  3020
  9
$CMLSTYLE
  2
Standard
  9
$CMLJUST
 70
     0
  9
$CMLSCALE
 40
20.0
  9
$PROXYGRAPHICS
 70
     1
  9
$MEASUREMENT
 70
     1
  9
$CELWEIGHT
370
    -1
  9
$ENDCAPS
280
     0
  9
$JOINSTYLE
280
     0
  9
$LWDISPLAY
290
     1
  9
$INSUNITS
 70
     4
  9
$HYPERLINKBASE
  1

  9
$STYLESHEET
  1

  9
$XEDIT
290
     1
  9
$CEPSNTYPE
380
     0
  9
$PSTYLEMODE
290
     1
  9
$FINGERPRINTGUID
  2
{E7C3D000-4481-460C-854B-AB265592D34E}
  9
$VERSIONGUID
  2
{FAEB1C32-E019-11D5-929B-00C0DF256EC4}
  9
$EXTNAMES
290
     1
  9
$PSVPSCALE
 40
0.0
  9
$OLESTARTUP
290
     0
  0
ENDSEC
  0
SECTION
  2
CLASSES
  0
CLASS
  1
ACDBDICTIONARYWDFLT
  2
AcDbDictionaryWithDefault
  3
ObjectDBX Classes
 90
        0
280
     0
281
     0
  0
CLASS
  1
VISUALSTYLE
  2
AcDbVisualStyle
  3
ObjectDBX Classes
 90
     4095
280
     0
281
     0
  0
CLASS
  1
MATERIAL
  2
AcDbMaterial
  3
ObjectDBX Classes
 90
     1153
280
     0
281
     0
  0
CLASS
  1
SCALE
  2
AcDbScale
  3
ObjectDBX Classes
 90
     1153
280
     0
281
     0
  0
CLASS
  1
TABLESTYLE
  2
AcDbTableStyle
  3
ObjectDBX Classes
 90
     4095
280
     0
281
     0
  0
CLASS
  1
MLEADERSTYLE
  2
AcDbMLeaderStyle
  3
ACDB_MLEADERSTYLE_CLASS
 90
     4095
280
     0
281
     0
  0
CLASS
  1
SUN
  2
AcDbSun
  3
SCENEOE
 90
     1153
280
     0
281
     0
  0
CLASS
  1
ACDBPLACEHOLDER
  2
AcDbPlaceHolder
  3
ObjectDBX Classes
 90
        0
280
     0
281
     0
  0
CLASS
  1
LAYOUT
  2
AcDbLayout
  3
ObjectDBX Classes
 90
        0
280
     0
281
     0
  0
ENDSEC
  0
SECTION
  2
TABLES
  0
TABLE
  2
VPORT
  5
8
330
0
100
AcDbSymbolTable
 70
     1
  0
VPORT
  5
29
330
8
100
AcDbSymbolTableRecord
100
AcDbViewportTableRecord
  2
*Active
 70
     0
 10
0.0
 20
0.0
 11
1.0
 21
1.0
 12
148.5
 22
105.0
 13
0.0
 23
0.0
 14
10.0
 24
10.0
 15
10.0
 25
10.0
 16
0.0
 26
0.0
 36
1.0
 17
0.0
 27
0.0
 37
0.0
 40
210.0
 41
1.4142857143
 42
50.0
 43
0.0
 44
0.0
 50
0.0
 51
0.0
 71
     0
 72
  2000
 73
     1
 74
     3
 75
     0
 76
     0
 77
     0
 78
     0
281
     0
 65
     1
110
0.0
120
0.0
130
0.0
111
1.0
121
0.0
131
0.0
112
0.0
122
1.0
132
0.0
 79
     0
146
0.0
  0
ENDTAB
  0
TABLE
  2
LTYPE
  5
5
330
0
100
AcDbSymbolTable
 70
     6
  0
LTYPE
  5
14
330
5
100
AcDbSymbolTableRecord
100
AcDbLinetypeTableRecord
  2
ByBlock
 70
     0
  3

 72
    65
 73
     0
 40
0.0
  0
LTYPE
  5
15
330
5
100
AcDbSymbolTableRecord
100
AcDbLinetypeTableRecord
  2
ByLayer
 70
     0
  3

 72
    65
 73
     0
 40
0.0
  0
LTYPE
  5
16
330
5
100
AcDbSymbolTableRecord
100
AcDbLinetypeTableRecord
  2
Continuous
 70
     0
  3
Solid line
 72
    65
 73
     0
 40
0.0
  0
LTYPE
  5
6E
330
5
100
AcDbSymbolTableRecord
100
AcDbLinetypeTableRecord
  2
HIDDEN
 70
     0
  3
Hidden __ __ __ __ __ __ __ __ __ __ __ __ __ __
 72
    65
 73
     2
 40
1.905
 49
1.27
 74
     0
 49
-0.635
 74
     0
  0
LTYPE
  5
6F
330
5
100
AcDbSymbolTableRecord
100
AcDbLinetypeTableRecord
  2
PHANTOM
 70
     0
  3
Phantom ______  __  __  ______  __  __  ______
 72
    65
 73
     6
 40
12.7
 49
6.35
 74
     0
 49
-1.27
 74
     0
 49
1.27
 74
     0
 49
-1.27
 74
     0
 49
1.27
 74
     0
 49
-1.27
 74
     0
  0
LTYPE
  5
70
330
5
100
AcDbSymbolTableRecord
100
AcDbLinetypeTableRecord
  2
CENTER
 70
     0
  3
Center ____ _ ____ _ ____ _ ____ _ ____ _ ____
 72
    65
 73
     4
 40
10.16
 49
6.35
 74
     0
 49
-1.27
 74
     0
 49
1.27
 74
     0
 49
-1.27
 74
     0
  0
LTYPE
  5
71
330
5
100
AcDbSymbolTableRecord
100
AcDbLinetypeTableRecord
  2
CENTERX2
 70
     0
  3
Center (2x) ________  __  ________  __  _____
 72
    65
 73
     4
 40
20.32
 49
12.7
 74
     0
 49
-2.54
 74
     0
 49
2.54
 74
     0
 49
-2.54
 74
     0
  0
LTYPE
  5
72
330
5
100
AcDbSymbolTableRecord
100
AcDbLinetypeTableRecord
  2
DOT2
 70
     0
  3
Dot (.5x) ........................................
 72
    65
 73
     2
 40
0.635
 49
0.0
 74
     0
 49
-0.635
 74
     0
  0
ENDTAB
  0
TABLE
  2
LAYER
  5
2
330
0
100
AcDbSymbolTable
 70
     5
  0
LAYER
  5
10
330
2
100
AcDbSymbolTableRecord
100
AcDbLayerTableRecord
  2
0
 70
     0
 62
     7
  6
Continuous
370
    -3
390
F
  0
LAYER
  5
73
330
2
100
AcDbSymbolTableRecord
100
AcDbLayerTableRecord
  2
FORMAT
 70
     0
 62
     7
  6
Continuous
370
    -3
390
F
  0
LAYER
  5
74
330
2
100
AcDbSymbolTableRecord
100
AcDbLayerTableRecord
  2
VERMASSUNG
 70
     0
 62
     7
  6
Continuous
370
    -3
390
F
  0
LAYER
  5
75
330
2
100
AcDbSymbolTableRecord
100
AcDbLayerTableRecord
  2
KOPF_DÜNN
 70
     0
 62
     7
  6
Continuous
370
    -3
390
F
  0
LAYER
  5
76
330
2
100
AcDbSymbolTableRecord
100
AcDbLayerTableRecord
  2
KOPF_DICK
 70
     0
 62
     7
  6
Continuous
370
    15
390
F
  0
ENDTAB
  0
TABLE
  2
STYLE
  5
3
330
0
100
AcDbSymbolTable
 70
     3
  0
STYLE
  5
11
330
3
100
AcDbSymbolTableRecord
100
AcDbTextStyleTableRecord
  2
Standard
 70
     0
 40
0.0
 41
1.0
 50
0.0
 71
     0
 42
2.0
  3
txt
  4

  0
STYLE
  5
77
330
3
100
AcDbSymbolTableRecord
100
AcDbTextStyleTableRecord
  2
SLDTEXTSTYLE0
 70
     0
 40
0.0
 41
0.7
 50
0.0
 71
     0
 42
2.0
  3
TXT
  4

  0
STYLE
  5
7B
330
3
100
AcDbSymbolTableRecord
100
AcDbTextStyleTableRecord
  2
SLDTEXTSTYLE1
 70
     0
 40
0.0
 41
0.6444444444
 50
0.0
 71
     0
 42
2.0
  3
TXT
  4

  0
ENDTAB
  0
TABLE
  2
VIEW
  5
6
330
0
100
AcDbSymbolTable
 70
     0
  0
ENDTAB
  0
TABLE
  2
UCS
  5
7
330
0
100
AcDbSymbolTable
 70
     0
  0
ENDTAB
  0
TABLE
  2
APPID
  5
9
330
0
100
AcDbSymbolTable
 70
     1
  0
APPID
  5
12
330
9
100
AcDbSymbolTableRecord
100
AcDbRegAppTableRecord
  2
ACAD
 70
     0
  0
ENDTAB
  0
TABLE
  2
DIMSTYLE
  5
A
330
0
100
AcDbSymbolTable
 70
     2
100
AcDbDimStyleTable
  0
DIMSTYLE
105
27
330
A
100
AcDbSymbolTableRecord
100
AcDbDimStyleTableRecord
  2
ISO-25
 70
     0
 41
2.5
 42
0.625
 43
3.75
 44
1.25
 73
     0
 74
     0
 77
     1
 78
     8
140
2.5
141
2.5
143
0.0393700787
147
0.625
171
     3
172
     1
178
     0
271
     2
272
     2
274
     3
278
    44
283
     0
284
     8
340
11
  0
DIMSTYLE
105
138
102
{ACAD_REACTORS
330
137
330
144
330
14E
330
158
330
162
102
}
330
A
100
AcDbSymbolTableRecord
100
AcDbDimStyleTableRecord
  2
SLDDIMSTYLE0
 70
     0
 41
3.0
 44
0.0
 45
0.000000001
 73
     0
 74
     0
 77
     1
 78
    12
 79
     3
140
2.0
147
0.5
173
     1
178
     0
271
     2
272
     3
276
     2
284
    12
340
77
  0
ENDTAB
  0
TABLE
  2
BLOCK_RECORD
  5
1
330
0
100
AcDbSymbolTable
 70
     6
  0
BLOCK_RECORD
  5
1F
330
1
100
AcDbSymbolTableRecord
100
AcDbBlockTableRecord
  2
*Model_Space
340
22
  0
BLOCK_RECORD
  5
1B
330
1
100
AcDbSymbolTableRecord
100
AcDbBlockTableRecord
  2
*Paper_Space
340
1E
  0
BLOCK_RECORD
  5
23
330
1
100
AcDbSymbolTableRecord
100
AcDbBlockTableRecord
  2
*Paper_Space0
340
26
  0
BLOCK_RECORD
  5
139
330
1
100
AcDbSymbolTableRecord
100
AcDbBlockTableRecord
  2
_D
340
0
  0
BLOCK_RECORD
  5
145
330
1
100
AcDbSymbolTableRecord
100
AcDbBlockTableRecord
  2
_D_1
340
0
  0
BLOCK_RECORD
  5
14F
330
1
100
AcDbSymbolTableRecord
100
AcDbBlockTableRecord
  2
_D_2
340
0
  0
BLOCK_RECORD
  5
159
330
1
100
AcDbSymbolTableRecord
100
AcDbBlockTableRecord
  2
_D_3
340
0
  0
BLOCK_RECORD
  5
163
330
1
100
AcDbSymbolTableRecord
100
AcDbBlockTableRecord
  2
_D_4
340
0
  0
ENDTAB
  0
ENDSEC
  0
SECTION
  2
BLOCKS
  0
BLOCK
  5
20
330
1F
100
AcDbEntity
  8
0
100
AcDbBlockBegin
  2
*Model_Space
 70
     0
 10
0.0
 20
0.0
 30
0.0
  3
*Model_Space
  1

  0
ENDBLK
  5
21
330
1F
100
AcDbEntity
  8
0
100
AcDbBlockEnd
  0
BLOCK
  5
1C
330
1B
100
AcDbEntity
 67
     1
  8
0
100
AcDbBlockBegin
  2
*Paper_Space
 70
     0
 10
0.0
 20
0.0
 30
0.0
  3
*Paper_Space
  1

  0
ENDBLK
  5
1D
330
1B
100
AcDbEntity
 67
     1
  8
0
100
AcDbBlockEnd
  0
BLOCK
  5
24
330
23
100
AcDbEntity
  8
0
100
AcDbBlockBegin
  2
*Paper_Space0
 70
     0
 10
0.0
 20
0.0
 30
0.0
  3
*Paper_Space0
  1

  0
ENDBLK
  5
25
330
23
100
AcDbEntity
  8
0
100
AcDbBlockEnd
  0
BLOCK
  5
13A
330
139
100
AcDbEntity
  8
0
100
AcDbBlockBegin
  2
_D
 70
     0
 10
0.0
 20
0.0
 30
0.0
  3
_D
  1

  0
SOLID
  5
13C
330
139
100
AcDbEntity
  8
VERMASSUNG
100
AcDbTrace
 10
100.843595364
 20
130.7992402464
 30
0.0
 11
100.393595364
 21
127.7992402464
 31
0.0
 12
101.293595364
 22
127.7992402464
 32
0.0
 13
101.293595364
 23
127.7992402464
 33
0.0
  0
SOLID
  5
13D
330
139
100
AcDbEntity
  8
VERMASSUNG
100
AcDbTrace
 10
100.843595364
 20
84.7992402464
 30
0.0
 11
101.293595364
 21
87.7992402464
 31
0.0
 12
100.393595364
 22
87.7992402464
 32
0.0
 13
100.393595364
 23
87.7992402464
 33
0.0
  0
LINE
  5
13E
330
139
100
AcDbEntity
  8
VERMASSUNG
100
AcDbLine
 10
173.5661587222
 20
130.7992402464
 30
0.0
 11
99.843595364
 21
130.7992402464
 31
0.0
  0
LINE
  5
13F
330
139
100
AcDbEntity
  8
VERMASSUNG
100
AcDbLine
 10
173.5661587534
 20
84.7992402464
 30
0.0
 11
99.843595364
 21
84.7992402464
 31
0.0
  0
LINE
  5
140
330
139
100
AcDbEntity
  8
VERMASSUNG
100
AcDbLine
 10
100.843595364
 20
130.7992402464
 30
0.0
 11
100.843595364
 21
84.7992402464
 31
0.0
  0
MTEXT
  5
141
330
139
100
AcDbEntity
  8
VERMASSUNG
100
AcDbMText
 10
98.0654601077
 20
97.0958581661
 30
0.0
 40
2.0
 41
0.0
 71
     1
 72
     1
  1
MAS BT 30
  7
SLDTEXTSTYLE0
 11
-7.044195017643634E-15
 21
1.0
 31
0.0
 73
     1
 44
1.0
  0
MTEXT
  5
142
330
139
100
AcDbEntity
  8
VERMASSUNG
100
AcDbMText
 10
98.265460059
 20
111.8958581705
 30
0.0
 40
2.0
 41
0.0
 71
     1
 72
     1
  1
%%c
  7
SLDTEXTSTYLE0
 11
-7.044195017643634E-15
 21
1.0
 31
0.0
 73
     1
 44
1.0
  0
MTEXT
  5
143
330
139
100
AcDbEntity
  8
VERMASSUNG
100
AcDbMText
 10
98.265459768
 20
115.504704716
 30
0.0
 40
2.0
 41
0.0
 71
     1
 72
     1
  1
46
  7
SLDTEXTSTYLE0
 11
-7.044195017643634E-15
 21
1.0
 31
0.0
 73
     1
 44
1.0
  0
ENDBLK
  5
13B
330
139
100
AcDbEntity
  8
0
100
AcDbBlockEnd
  0
BLOCK
  5
146
330
145
100
AcDbEntity
  8
0
100
AcDbBlockBegin
  2
_D_1
 70
     0
 10
0.0
 20
0.0
 30
0.0
  3
_D_1
  1

  0
SOLID
  5
148
330
145
100
AcDbEntity
  8
VERMASSUNG
100
AcDbTrace
 10
105.1661601643
 20
146.2608943961
 30
0.0
 11
108.1661601643
 21
145.8108943961
 31
0.0
 12
108.1661601643
 22
146.7108943961
 32
0.0
 13
108.1661601643
 23
146.7108943961
 33
0.0
  0
SOLID
  5
149
330
145
100
AcDbEntity
  8
VERMASSUNG
100
AcDbTrace
 10
195.5661601643
 20
146.2608943961
 30
0.0
 11
192.5661601643
 21
146.7108943961
 31
0.0
 12
192.5661601643
 22
145.8108943961
 32
0.0
 13
192.5661601643
 23
145.8108943961
 33
0.0
  0
LINE
  5
14A
330
145
100
AcDbEntity
  8
VERMASSUNG
100
AcDbLine
 10
105.1661601643
 20
116.1835347116
 30
0.0
 11
105.1661601643
 21
147.2608943961
 31
0.0
  0
LINE
  5
14B
330
145
100
AcDbEntity
  8
VERMASSUNG
100
AcDbLine
 10
195.5661601643
 20
120.0992402464
 30
0.0
 11
195.5661601643
 21
147.2608943961
 31
0.0
  0
LINE
  5
14C
330
145
100
AcDbEntity
  8
VERMASSUNG
100
AcDbLine
 10
105.1661601643
 20
146.2608943961
 30
0.0
 11
195.5661601643
 21
146.2608943961
 31
0.0
  0
MTEXT
  5
14D
330
145
100
AcDbEntity
  8
VERMASSUNG
100
AcDbMText
 10
147.8667925021
 20
148.839029992
 30
0.0
 40
2.0
 41
0.0
 71
     1
 72
     1
  1
90.4
  7
SLDTEXTSTYLE0
 73
     1
 44
1.0
  0
ENDBLK
  5
147
330
145
100
AcDbEntity
  8
0
100
AcDbBlockEnd
  0
BLOCK
  5
150
330
14F
100
AcDbEntity
  8
0
100
AcDbBlockBegin
  2
_D_2
 70
     0
 10
0.0
 20
0.0
 30
0.0
  3
_D_2
  1

  0
SOLID
  5
152
330
14F
100
AcDbEntity
  8
VERMASSUNG
100
AcDbTrace
 10
153.5661601643
 20
140.2608943961
 30
0.0
 11
156.5661601643
 21
139.8108943961
 31
0.0
 12
156.5661601643
 22
140.7108943961
 32
0.0
 13
156.5661601643
 23
140.7108943961
 33
0.0
  0
SOLID
  5
153
330
14F
100
AcDbEntity
  8
VERMASSUNG
100
AcDbTrace
 10
195.5661601643
 20
140.2608943961
 30
0.0
 11
192.5661601643
 21
140.7108943961
 31
0.0
 12
192.5661601643
 22
139.8108943961
 32
0.0
 13
192.5661601643
 23
139.8108943961
 33
0.0
  0
LINE
  5
154
330
14F
100
AcDbEntity
  8
VERMASSUNG
100
AcDbLine
 10
153.5661601643
 20
123.6742402464
 30
0.0
 11
153.5661601643
 21
141.2608943961
 31
0.0
  0
LINE
  5
155
330
14F
100
AcDbEntity
  8
VERMASSUNG
100
AcDbLine
 10
195.5661601643
 20
120.0992402464
 30
0.0
 11
195.5661601643
 21
141.2608943961
 31
0.0
  0
LINE
  5
156
330
14F
100
AcDbEntity
  8
VERMASSUNG
100
AcDbLine
 10
153.5661601643
 20
140.2608943961
 30
0.0
 11
195.5661601643
 21
140.2608943961
 31
0.0
  0
MTEXT
  5
157
330
14F
100
AcDbEntity
  8
VERMASSUNG
100
AcDbMText
 10
173.0672013589
 20
142.839029992
 30
0.0
 40
2.0
 41
0.0
 71
     1
 72
     1
  1
42
  7
SLDTEXTSTYLE0
 73
     1
 44
1.0
  0
ENDBLK
  5
151
330
14F
100
AcDbEntity
  8
0
100
AcDbBlockEnd
  0
BLOCK
  5
15A
330
159
100
AcDbEntity
  8
0
100
AcDbBlockBegin
  2
_D_3
 70
     0
 10
0.0
 20
0.0
 30
0.0
  3
_D_3
  1

  0
SOLID
  5
15C
330
159
100
AcDbEntity
  8
VERMASSUNG
100
AcDbTrace
 10
175.5661601643
 20
134.2608943961
 30
0.0
 11
178.5661601643
 21
133.8108943961
 31
0.0
 12
178.5661601643
 22
134.7108943961
 32
0.0
 13
178.5661601643
 23
134.7108943961
 33
0.0
  0
SOLID
  5
15D
330
159
100
AcDbEntity
  8
VERMASSUNG
100
AcDbTrace
 10
195.5661601643
 20
134.2608943961
 30
0.0
 11
192.5661601643
 21
134.7108943961
 31
0.0
 12
192.5661601643
 22
133.8108943961
 32
0.0
 13
192.5661601643
 23
133.8108943961
 33
0.0
  0
LINE
  5
15E
330
159
100
AcDbEntity
  8
VERMASSUNG
100
AcDbLine
 10
175.5661601643
 20
130.7992402464
 30
0.0
 11
175.5661601643
 21
135.2608943961
 31
0.0
  0
LINE
  5
15F
330
159
100
AcDbEntity
  8
VERMASSUNG
100
AcDbLine
 10
195.5661601643
 20
120.0992402464
 30
0.0
 11
195.5661601643
 21
135.2608943961
 31
0.0
  0
LINE
  5
160
330
159
100
AcDbEntity
  8
VERMASSUNG
100
AcDbLine
 10
175.5661601643
 20
134.2608943961
 30
0.0
 11
195.5661601643
 21
134.2608943961
 31
0.0
  0
MTEXT
  5
161
330
159
100
AcDbEntity
  8
VERMASSUNG
100
AcDbMText
 10
184.166470154
 20
136.839029992
 30
0.0
 40
2.0
 41
0.0
 71
     1
 72
     1
  1
20
  7
SLDTEXTSTYLE0
 73
     1
 44
1.0
  0
ENDBLK
  5
15B
330
159
100
AcDbEntity
  8
0
100
AcDbBlockEnd
  0
BLOCK
  5
164
330
163
100
AcDbEntity
  8
0
100
AcDbBlockBegin
  2
_D_4
 70
     0
 10
0.0
 20
0.0
 30
0.0
  3
_D_4
  1

  0
SOLID
  5
166
330
163
100
AcDbEntity
  8
VERMASSUNG
100
AcDbTrace
 10
203.5402225497
 20
120.2992402464
 30
0.0
 11
203.0902225497
 21
117.2992402464
 31
0.0
 12
203.9902225497
 22
117.2992402464
 32
0.0
 13
203.9902225497
 23
117.2992402464
 33
0.0
  0
SOLID
  5
167
330
163
100
AcDbEntity
  8
VERMASSUNG
100
AcDbTrace
 10
203.5402225497
 20
95.2992402464
 30
0.0
 11
203.9902225497
 21
98.2992402464
 31
0.0
 12
203.0902225497
 22
98.2992402464
 32
0.0
 13
203.0902225497
 23
98.2992402464
 33
0.0
  0
LINE
  5
168
330
163
100
AcDbEntity
  8
VERMASSUNG
100
AcDbLine
 10
195.3661601643
 20
120.2992402464
 30
0.0
 11
204.5402225497
 21
120.2992402464
 31
0.0
  0
LINE
  5
169
330
163
100
AcDbEntity
  8
VERMASSUNG
100
AcDbLine
 10
195.3661601643
 20
95.2992402464
 30
0.0
 11
204.5402225497
 21
95.2992402464
 31
0.0
  0
LINE
  5
16A
330
163
100
AcDbEntity
  8
VERMASSUNG
100
AcDbLine
 10
203.5402225497
 20
120.2992402464
 30
0.0
 11
203.5402225497
 21
95.2992402464
 31
0.0
  0
MTEXT
  5
16B
330
163
100
AcDbEntity
  8
VERMASSUNG
100
AcDbMText
 10
200.7620872935
 20
101.3942406028
 30
0.0
 40
2.0
 41
0.0
 71
     1
 72
     1
  1
MBM
  7
SLDTEXTSTYLE0
 11
-7.044195017643634E-15
 21
1.0
 31
0.0
 73
     1
 44
1.0
  0
MTEXT
  5
16C
330
163
100
AcDbEntity
  8
VERMASSUNG
100
AcDbMText
 10
200.9620872448
 20
107.7942404412
 30
0.0
 40
2.0
 41
0.0
 71
     1
 72
     1
  1
%%c
  7
SLDTEXTSTYLE0
 11
-7.044195017643634E-15
 21
1.0
 31
0.0
 73
     1
 44
1.0
  0
MTEXT
  5
16D
330
163
100
AcDbEntity
  8
VERMASSUNG
100
AcDbMText
 10
200.7620872935
 20
111.4042409211
 30
0.0
 40
2.0
 41
0.0
 71
     1
 72
     1
  1
25
  7
SLDTEXTSTYLE0
 11
-7.044195017643634E-15
 21
1.0
 31
0.0
 73
     1
 44
1.0
  0
ENDBLK
  5
165
330
163
100
AcDbEntity
  8
0
100
AcDbBlockEnd
  0
ENDSEC
  0
SECTION
  2
ENTITIES
  0
MTEXT
  5
78
330
1F
100
AcDbEntity
  8
KOPF_DÜNN
100
AcDbMText
 10
13.8892156294
 20
23.8442973028
 30
0.0
 40
3.0
 41
0.0
 71
     1
 72
     1
  1
102.312.251
  7
SLDTEXTSTYLE0
 73
     1
 44
1.0
  0
MTEXT
  5
79
330
1F
100
AcDbEntity
  8
VERMASSUNG
100
AcDbMText
 10
13.9329988022
 20
28.8834360957
 30
0.0
 40
3.0
 41
0.0
 71
     1
 72
     1
  1
Aufnahme_Master shank MBM 25
  7
SLDTEXTSTYLE0
 73
     1
 44
1.0
  0
MTEXT
  5
7A
330
1F
100
AcDbEntity
  8
VERMASSUNG
100
AcDbMText
 10
98.8601118557
 20
13.8365368761
 30
0.0
 40
2.0
 41
0.0
 71
     1
 72
     1
  1
Datum: 21.11.2007
  7
SLDTEXTSTYLE0
 73
     1
 44
1.0
  0
MTEXT
  5
7C
330
1F
100
AcDbEntity
  8
VERMASSUNG
100
AcDbMText
 10
13.933048693
 20
18.0482802738
 30
0.0
 40
2.0
 41
0.0
 71
     1
 72
     1
  1
MAS BT 30 / MBM 25
  7
SLDTEXTSTYLE1
 73
     1
 44
1.0
  0
MTEXT
  5
7D
330
1F
100
AcDbEntity
  8
VERMASSUNG
100
AcDbMText
 10
13.9808475933
 20
13.9090974274
 30
0.0
 40
2.0
 41
0.0
 71
     1
 72
     1
  1
Gewicht: 432g
  7
SLDTEXTSTYLE0
 73
     1
 44
1.0
  0
LINE
  5
7E
330
1F
100
AcDbEntity
  8
0
  6
Continuous
 62
     7
370
    15
100
AcDbLine
 10
173.5661189325
 20
84.7992402464
 30
0.0
 11
175.5661601643
 21
84.7992402464
 31
0.0
  0
LINE
  5
7F
330
1F
100
AcDbEntity
  8
0
  6
Continuous
 62
     7
370
    15
100
AcDbLine
 10
175.5661601643
 20
130.7992402464
 30
0.0
 11
173.5660583824
 21
130.7992402464
 31
0.0
  0
ARC
  5
80
330
1F
100
AcDbEntity
  8
0
  6
Continuous
 62
     7
370
    15
100
AcDbCircle
 10
154.5661601643
 20
90.9242402464
 30
0.0
 40
1.0
100
AcDbArc
 50
42.4519685321
 51
90.0
  0
ARC
  5
81
330
1F
100
AcDbEntity
  8
0
  6
Continuous
 62
     7
370
    15
100
AcDbCircle
 10
154.5661601643
 20
124.6742402464
 30
0.0
 40
1.000000000000009
100
AcDbArc
 50
270.0
 51
317.5135497509
  0
LINE
  5
82
330
1F
100
AcDbEntity
  8
0
  6
Continuous
 62
     7
370
    15
100
AcDbLine
 10
153.5661601643
 20
91.9242402464
 30
0.0
 11
154.5661601643
 21
91.9242402464
 31
0.0
  0
LINE
  5
83
330
1F
100
AcDbEntity
  8
0
  6
Continuous
 62
     7
370
    15
100
AcDbLine
 10
154.5661601643
 20
123.6742402464
 30
0.0
 11
153.5661601643
 21
123.6742402464
 31
0.0
  0
LINE
  5
84
330
1F
100
AcDbEntity
  8
0
  6
Continuous
 62
     7
370
    15
100
AcDbLine
 10
153.5661601643
 20
123.6742402464
 30
0.0
 11
105.5940067177
 21
116.6783012021
 31
0.0
  0
LINE
  5
85
330
1F
100
AcDbEntity
  8
0
  6
Continuous
 62
     7
370
    15
100
AcDbLine
 10
105.5940067177
 20
98.9201792907
 30
0.0
 11
153.5661601643
 21
91.9242402464
 31
0.0
  0
ARC
  5
86
330
1F
100
AcDbEntity
  8
0
  6
Continuous
 62
     7
370
    15
100
AcDbCircle
 10
178.5661601643
 20
92.2992402464
 30
0.0
 40
3.0
100
AcDbArc
 50
90.0
 51
180.0
  0
ARC
  5
87
330
1F
100
AcDbEntity
  8
0
  6
Continuous
 62
     7
370
    15
100
AcDbCircle
 10
178.5661601643
 20
123.2992402464
 30
0.0
 40
3.0
100
AcDbArc
 50
180.0
 51
270.0
  0
LINE
  5
88
330
1F
100
AcDbEntity
  8
0
  6
Continuous
 62
     7
370
    15
100
AcDbLine
 10
178.5661601643
 20
95.2992402464
 30
0.0
 11
195.3661601643
 21
95.2992402464
 31
0.0
  0
LINE
  5
89
330
1F
100
AcDbEntity
  8
0
  6
Continuous
 62
     7
370
    15
100
AcDbLine
 10
195.3661601643
 20
120.2992402464
 30
0.0
 11
178.5661601643
 21
120.2992402464
 31
0.0
  0
LINE
  5
8A
330
1F
100
AcDbEntity
  8
0
  6
Continuous
 62
     7
370
    15
100
AcDbLine
 10
195.3661601643
 20
95.2992402464
 30
0.0
 11
195.5661601643
 21
95.4992402464
 31
0.0
  0
LINE
  5
8B
330
1F
100
AcDbEntity
  8
0
  6
Continuous
 62
     7
370
    15
100
AcDbLine
 10
195.5661601643
 20
120.0992402464
 30
0.0
 11
195.3661601643
 21
120.2992402464
 31
0.0
  0
ARC
  5
8C
330
1F
100
AcDbEntity
  8
0
  6
Continuous
 62
     7
370
    15
100
AcDbCircle
 10
105.6661601643
 20
99.4149457812
 30
0.0
 40
0.5
100
AcDbArc
 50
180.0
 51
261.7028550302
  0
ARC
  5
8D
330
1F
100
AcDbEntity
  8
0
  6
Continuous
 62
     7
370
    15
100
AcDbCircle
 10
105.6661601643
 20
116.1835347116
 30
0.0
 40
0.5
100
AcDbArc
 50
98.2971449698
 51
180.0
  0
SPLINE
  5
8E
330
1F
100
AcDbEntity
  8
0
  6
Continuous
 62
     7
370
    15
100
AcDbSpline
210
0.0
220
0.0
230
1.0
 70
    24
 71
     3
 72
    11
 73
     7
 74
     0
 42
0.000000001
 43
0.00000001
 40
0.0
 40
0.0
 40
0.0
 40
0.0
 40
0.1336647920874131
 40
0.482547360825974
 40
0.8156356561503735
 40
1.0
 40
1.0
 40
1.0
 40
1.0
 10
189.1821855680555
 20
106.2992402464066
 30
0.0
 10
189.1096247289415
 20
106.2992402464066
 30
0.0
 10
188.8476706207059
 20
106.2992402464066
 30
0.0
 10
188.358308643521
 20
106.2992402464066
 30
0.0
 10
187.8327390691628
 20
106.2992402464066
 30
0.0
 10
187.550643289105
 20
106.2992402464066
 30
0.0
 10
187.4501347604866
 20
106.2992402464066
 30
0.0
  0
SPLINE
  5
8F
330
1F
100
AcDbEntity
  8
0
  6
Continuous
 62
     7
370
    15
100
AcDbSpline
210
0.0
220
0.0
230
1.0
 70
    24
 71
     3
 72
    10
 73
     6
 74
     0
 42
0.000000001
 43
0.00000001
 40
0.0
 40
0.0
 40
0.0
 40
0.0
 40
0.4391165375904078
 40
0.751366942907332
 40
1.0
 40
1.0
 40
1.0
 40
1.0
 10
190.0482109718399
 20
107.7992402464066
 30
0.0
 10
189.9242327589111
 20
107.5845036825823
 30
0.0
 10
189.7120951533756
 20
107.2170705715988
 30
0.0
 10
189.4037156759513
 20
106.6829416486884
 30
0.0
 10
189.2502258200297
 20
106.4170894197857
 30
0.0
 10
189.1821855680555
 20
106.2992402464066
 30
0.0
  0
SPLINE
  5
90
330
1F
100
AcDbEntity
  8
0
  6
Continuous
 62
     7
370
    15
100
AcDbSpline
210
0.0
220
0.0
230
1.0
 70
    24
 71
     3
 72
    10
 73
     6
 74
     0
 42
0.000000001
 43
0.00000001
 40
0.0
 40
0.0
 40
0.0
 40
0.0
 40
0.4391165375904046
 40
0.7513669429073321
 40
1.0
 40
1.0
 40
1.0
 40
1.0
 10
189.1821855680555
 20
109.2992402464066
 30
0.0
 10
189.3061637809843
 20
109.0845036825823
 30
0.0
 10
189.5183013865198
 20
108.7170705715988
 30
0.0
 10
189.8266808639441
 20
108.1829416486884
 30
0.0
 10
189.9801707198657
 20
107.9170894197857
 30
0.0
 10
190.0482109718399
 20
107.7992402464066
 30
0.0
  0
SPLINE
  5
91
330
1F
100
AcDbEntity
  8
0
  6
Continuous
 62
     7
370
    15
100
AcDbSpline
210
0.0
220
0.0
230
1.0
 70
    24
 71
     3
 72
    11
 73
     7
 74
     0
 42
0.000000001
 43
0.00000001
 40
0.0
 40
0.0
 40
0.0
 40
0.0
 40
0.1843643438496319
 40
0.517452639174029
 40
0.866335207912595
 40
1.0
 40
1.0
 40
1.0
 40
1.0
 10
187.4501347604866
 20
109.2992402464066
 30
0.0
 10
187.550643289105
 20
109.2992402464066
 30
0.0
 10
187.8327390691628
 20
109.2992402464066
 30
0.0
 10
188.358308643521
 20
109.2992402464066
 30
0.0
 10
188.8476706207059
 20
109.2992402464066
 30
0.0
 10
189.1096247289416
 20
109.2992402464066
 30
0.0
 10
189.1821855680555
 20
109.2992402464066
 30
0.0
  0
SPLINE
  5
92
330
1F
100
AcDbEntity
  8
0
  6
Continuous
 62
     7
370
    15
100
AcDbSpline
210
0.0
220
0.0
230
1.0
 70
    24
 71
     3
 72
    10
 73
     6
 74
     0
 42
0.000000001
 43
0.00000001
 40
0.0
 40
0.0
 40
0.0
 40
0.0
 40
0.4391165375904081
 40
0.751366942907335
 40
1.0
 40
1.0
 40
1.0
 40
1.0
 10
186.5841093567022
 20
107.7992402464066
 30
0.0
 10
186.708087569631
 20
108.0139768102309
 30
0.0
 10
186.9202251751664
 20
108.3814099212143
 30
0.0
 10
187.2286046525907
 20
108.9155388441247
 30
0.0
 10
187.3820945085124
 20
109.1813910730275
 30
0.0
 10
187.4501347604866
 20
109.2992402464066
 30
0.0
  0
SPLINE
  5
93
330
1F
100
AcDbEntity
  8
0
  6
Continuous
 62
     7
370
    15
100
AcDbSpline
210
0.0
220
0.0
230
1.0
 70
    24
 71
     3
 72
    10
 73
     6
 74
     0
 42
0.000000001
 43
0.00000001
 40
0.0
 40
0.0
 40
0.0
 40
0.0
 40
0.4391165375904058
 40
0.7513669429073397
 40
0.9999999999999999
 40
0.9999999999999999
 40
0.9999999999999999
 40
0.9999999999999999
 10
187.4501347604866
 20
106.2992402464066
 30
0.0
 10
187.3261565475578
 20
106.5139768102309
 30
0.0
 10
187.1140189420223
 20
106.8814099212143
 30
0.0
 10
186.805639464598
 20
107.4155388441247
 30
0.0
 10
186.6521496086764
 20
107.6813910730275
 30
0.0
 10
186.5841093567022
 20
107.7992402464066
 30
0.0
  0
CIRCLE
  5
94
330
1F
100
AcDbEntity
  8
0
  6
Continuous
 62
     7
370
    15
100
AcDbCircle
 10
188.3161601643
 20
107.7992402464
 30
0.0
 40
1.75
  0
CIRCLE
  5
95
330
1F
100
AcDbEntity
  8
0
  6
Continuous
 62
     7
370
    15
100
AcDbCircle
 10
188.3161601643
 20
107.7992402464
 30
0.0
 40
2.600000000000009
  0
CIRCLE
  5
96
330
1F
100
AcDbEntity
  8
0
  6
Continuous
 62
     7
370
    15
100
AcDbCircle
 10
188.3161601643
 20
107.7992402464
 30
0.0
 40
3.0
  0
ARC
  5
97
330
1F
100
AcDbEntity
  8
0
  6
Continuous
 62
     7
370
    15
100
AcDbCircle
 10
188.3161601643
 20
107.7992402464
 30
0.0
 40
1.5
100
AcDbArc
 50
30.0
 51
90.0
  0
ARC
  5
98
330
1F
100
AcDbEntity
  8
0
  6
Continuous
 62
     7
370
    15
100
AcDbCircle
 10
188.3161601643
 20
107.7992402464
 30
0.0
 40
1.5
100
AcDbArc
 50
330.0
 51
30.0
  0
ARC
  5
99
330
1F
100
AcDbEntity
  8
0
  6
Continuous
 62
     7
370
    15
100
AcDbCircle
 10
188.3161601643
 20
107.7992402464
 30
0.0
 40
1.5
100
AcDbArc
 50
270.0
 51
330.0
  0
ARC
  5
9A
330
1F
100
AcDbEntity
  8
0
  6
Continuous
 62
     7
370
    15
100
AcDbCircle
 10
188.3161601643
 20
107.7992402464
 30
0.0
 40
1.5
100
AcDbArc
 50
90.0
 51
150.0
  0
ARC
  5
9B
330
1F
100
AcDbEntity
  8
0
  6
Continuous
 62
     7
370
    15
100
AcDbCircle
 10
188.3161601643
 20
107.7992402464
 30
0.0
 40
1.5
100
AcDbArc
 50
210.0
 51
270.0
  0
ARC
  5
9C
330
1F
100
AcDbEntity
  8
0
  6
Continuous
 62
     7
370
    15
100
AcDbCircle
 10
188.3161601643
 20
107.7992402464
 30
0.0
 40
1.5
100
AcDbArc
 50
150.0
 51
210.0
  0
SPLINE
  5
9D
330
1F
100
AcDbEntity
  8
0
  6
Continuous
 62
     7
370
    15
100
AcDbSpline
210
0.0
220
0.0
230
1.0
 70
     8
 71
     3
 72
    12
 73
     8
 74
     0
 42
0.000000001
 43
0.00000001
 40
0.0
 40
0.0
 40
0.0
 40
0.0
 40
0.0001599767577962
 40
0.25129442486839
 40
0.5029658357237687
 40
0.7514776885306621
 40
1.0
 40
1.0
 40
1.0
 40
1.0
 10
173.5660583824227
 20
130.7991976489669
 30
0.0
 10
173.566091276728
 20
130.7992118473234
 30
0.0
 10
173.6177622547659
 20
130.8215148861562
 30
0.0
 10
173.4373089032655
 20
130.742988335669
 30
0.0
 10
172.9949634492795
 20
130.5591938203572
 30
0.0
 10
172.2508527728747
 20
130.2587497402686
 30
0.0
 10
171.544395988939
 20
130.015629827784
 30
0.0
 10
171.1911601642899
 20
129.89406731366
 30
0.0
  0
SPLINE
  5
9E
330
1F
100
AcDbEntity
  8
0
  6
Continuous
 62
     7
370
    15
100
AcDbSpline
210
0.0
220
0.0
230
1.0
 70
     8
 71
     3
 72
    16
 73
    12
 74
     0
 42
0.000000001
 43
0.00000001
 40
0.0
 40
0.0
 40
0.0
 40
0.0
 40
0.2483169671332734
 40
0.496694446198205
 40
0.581146785348524
 40
0.6649723970263892
 40
0.748461215409542
 40
0.8319066852962653
 40
0.9156027073821126
 40
0.9998405598659155
 40
0.9999999999999999
 40
0.9999999999999999
 40
0.9999999999999999
 40
0.9999999999999999
 10
171.1911601642899
 20
85.70441317915318
 30
0.0
 10
171.5449538777011
 20
85.58263900699005
 30
0.0
 10
172.2526275199008
 20
85.33906098772668
 30
0.0
 10
172.8233536439629
 20
85.10834551122782
 30
0.0
 10
173.1369247626525
 20
84.9803149933268
 30
0.0
 10
173.2928241205779
 20
84.91544840355316
 30
0.0
 10
173.4140540169256
 20
84.86431743309342
 30
0.0
 10
173.5021509691333
 20
84.82664914872906
 30
0.0
 10
173.5505971017733
 20
84.80573635518313
 30
0.0
 10
173.5728611321692
 20
84.79622775070796
 30
0.0
 10
173.5661316455941
 20
84.79925167123493
 30
0.0
 10
173.5661189325057
 20
84.7992573839098
 30
0.0
  0
LINE
  5
9F
330
1F
100
AcDbEntity
  8
0
  6
Continuous
 62
     7
370
    15
100
AcDbLine
 10
171.1911601643
 20
85.7044131792
 30
0.0
 11
171.1911601643
 21
129.8940694955
 31
0.0
  0
LINE
  5
A0
330
1F
100
AcDbEntity
  8
0
  6
Continuous
 62
     7
370
    15
100
AcDbLine
 10
175.5661601643
 20
84.7992402464
 30
0.0
 11
175.5661601643
 21
130.7992402464
 31
0.0
  0
SPLINE
  5
A1
330
1F
100
AcDbEntity
  8
0
  6
Continuous
 62
     7
370
    15
100
AcDbSpline
210
0.0
220
0.0
230
1.0
 70
     8
 71
     3
 72
    10
 73
     6
 74
     0
 42
0.000000001
 43
0.00000001
 40
0.0
 40
0.0
 40
0.0
 40
0.0
 40
0.5
 40
0.5
 40
1.0
 40
1.0
 40
1.0
 40
1.0
 10
170.5135797725141
 20
128.9548097008408
 30
0.0
 10
170.2883960311497
 20
128.4885748491171
 30
0.0
 10
170.0582157838651
 20
128.0109701529987
 30
0.0
 10
169.5904340739617
 20
127.0375870181966
 30
0.0
 10
169.3523920282103
 20
126.5408885078359
 30
0.0
 10
169.1126991951884
 20
126.0389132440989
 30
0.0
  0
SPLINE
  5
A2
330
1F
100
AcDbEntity
  8
0
  6
Continuous
 62
     7
370
    15
100
AcDbSpline
210
0.0
220
0.0
230
1.0
 70
     8
 71
     3
 72
     9
 73
     5
 74
     0
 42
0.000000001
 43
0.00000001
 40
0.0
 40
0.0
 40
0.0
 40
0.0
 40
0.5084859174836485
 40
1.0
 40
1.0
 40
1.0
 40
1.0
 10
171.1911694078081
 20
129.8940848756885
 30
0.0
 10
171.075348872412
 20
129.7344385293152
 30
0.0
 10
170.8475735665211
 20
129.4204743842245
 30
0.0
 10
170.623646319669
 20
129.1082627531995
 30
0.0
 10
170.5135829243821
 20
128.9548063398253
 30
0.0
  0
SPLINE
  5
A3
330
1F
100
AcDbEntity
  8
0
  6
Continuous
 62
     7
370
    15
100
AcDbSpline
210
0.0
220
0.0
230
1.0
 70
     8
 71
     3
 72
     9
 73
     5
 74
     0
 42
0.000000001
 43
0.00000001
 40
0.0
 40
0.0
 40
0.0
 40
0.0
 40
0.4915140813385384
 40
1.0
 40
1.0
 40
1.0
 40
1.0
 10
170.5135829243821
 20
86.64367415298783
 30
0.0
 10
170.6236463194052
 20
86.4902177399799
 30
0.0
 10
170.847573566257
 20
86.17800610895185
 30
0.0
 10
171.0753488721452
 20
85.86404196386559
 30
0.0
 10
171.1911694078081
 20
85.70439561712463
 30
0.0
  0
SPLINE
  5
A4
330
1F
100
AcDbEntity
  8
0
  6
Continuous
 62
     7
370
    15
100
AcDbSpline
210
0.0
220
0.0
230
1.0
 70
     8
 71
     3
 72
    10
 73
     6
 74
     0
 42
0.000000001
 43
0.00000001
 40
0.0
 40
0.0
 40
0.0
 40
0.0
 40
0.5
 40
0.5
 40
1.0
 40
1.0
 40
1.0
 40
1.0
 10
170.5135798534469
 20
86.64367062440388
 30
0.0
 10
170.2886782821387
 20
87.10932125291032
 30
0.0
 10
170.0584907921249
 20
87.5869381269128
 30
0.0
 10
169.5901783569952
 20
88.56142554525012
 30
0.0
 10
169.352041036023
 20
89.05832704823936
 30
0.0
 10
169.1126991951884
 20
89.55956724871422
 30
0.0
  0
SPLINE
  5
A5
330
1F
100
AcDbEntity
  8
0
  6
Continuous
 62
     7
370
    15
100
AcDbSpline
210
0.0
220
0.0
230
1.0
 70
     8
 71
     3
 72
     8
 73
     4
 74
     0
 42
0.000000001
 43
0.00000001
 40
0.0
 40
0.0
 40
0.0
 40
0.0
 40
0.001149633737632
 40
0.001149633737632
 40
0.001149633737632
 40
0.001149633737632
 10
163.6803901688138
 20
128.3444833408811
 30
0.0
 10
163.501186917684
 20
128.5840006197477
 30
0.0
 10
163.3214203639561
 20
128.8233074961845
 30
0.0
 10
163.141160164271
 20
129.0624278836218
 30
0.0
  0
SPLINE
  5
A6
330
1F
100
AcDbEntity
  8
0
  6
Continuous
 62
     7
370
    15
100
AcDbSpline
210
0.0
220
0.0
230
1.0
 70
     8
 71
     3
 72
     8
 73
     4
 74
     0
 42
0.000000001
 43
0.00000001
 40
0.0
 40
0.0
 40
0.0
 40
0.0
 40
1.0
 40
1.0
 40
1.0
 40
1.0
 10
164.516160164271
 20
126.7812623046929
 30
0.0
 10
164.2388484843968
 20
127.3029876208273
 30
0.0
 10
163.9601717419283
 20
127.824017080828
 30
0.0
 10
163.6803901688138
 20
128.3444833408811
 30
0.0
  0
SPLINE
  5
A7
330
1F
100
AcDbEntity
  8
0
  6
Continuous
 62
     7
370
    15
100
AcDbSpline
210
0.0
220
0.0
230
1.0
 70
     8
 71
     3
 72
     8
 73
     4
 74
     0
 42
0.000000001
 43
0.00000001
 40
0.0
 40
0.0
 40
0.0
 40
0.0
 40
1.0
 40
1.0
 40
1.0
 40
1.0
 10
165.1471759633015
 20
125.5992402464066
 30
0.0
 10
164.936155327512
 20
125.9926882855923
 30
0.0
 10
164.7258679256043
 20
126.3867248365016
 30
0.0
 10
164.516160164271
 20
126.7812623046929
 30
0.0
  0
SPLINE
  5
A8
330
1F
100
AcDbEntity
  8
0
  6
Continuous
 62
     7
370
    15
100
AcDbSpline
210
0.0
220
0.0
230
1.0
 70
     8
 71
     3
 72
     8
 73
     4
 74
     0
 42
0.000000001
 43
0.00000001
 40
0.0
 40
0.0
 40
0.0
 40
0.0
 40
1.0
 40
1.0
 40
1.0
 40
1.0
 10
165.2196211333537
 20
125.4642439920904
 30
0.0
 10
165.195462921639
 20
125.5092349077193
 30
0.0
 10
165.1713146213133
 20
125.5542337112505
 30
0.0
 10
165.1471759633015
 20
125.5992402464066
 30
0.0
  0
SPLINE
  5
A9
330
1F
100
AcDbEntity
  8
0
  6
Continuous
 62
     7
370
    15
100
AcDbSpline
210
0.0
220
0.0
230
1.0
 70
     8
 71
     3
 72
     8
 73
     4
 74
     0
 42
0.000000001
 43
0.00000001
 40
0.0
 40
0.0
 40
0.0
 40
0.0
 40
1.0
 40
1.0
 40
1.0
 40
1.0
 10
165.2196211333537
 20
90.13423650072279
 30
0.0
 10
165.195462921639
 20
90.08924558509388
 30
0.0
 10
165.1713146213133
 20
90.04424678156268
 30
0.0
 10
165.1471759633015
 20
89.99924024640659
 30
0.0
  0
SPLINE
  5
AA
330
1F
100
AcDbEntity
  8
0
  6
Continuous
 62
     7
370
    15
100
AcDbSpline
210
0.0
220
0.0
230
1.0
 70
     8
 71
     3
 72
     8
 73
     4
 74
     0
 42
0.000000001
 43
0.00000001
 40
0.0
 40
0.0
 40
0.0
 40
0.0
 40
1.0
 40
1.0
 40
1.0
 40
1.0
 10
165.1471759633015
 20
89.99924024640659
 30
0.0
 10
164.936155327512
 20
89.6057922072209
 30
0.0
 10
164.7258679256043
 20
89.21175565631157
 30
0.0
 10
164.516160164271
 20
88.81721818812028
 30
0.0
  0
SPLINE
  5
AB
330
1F
100
AcDbEntity
  8
0
  6
Continuous
 62
     7
370
    15
100
AcDbSpline
210
0.0
220
0.0
230
1.0
 70
     8
 71
     3
 72
     8
 73
     4
 74
     0
 42
0.000000001
 43
0.00000001
 40
0.0
 40
0.0
 40
0.0
 40
0.0
 40
1.0
 40
1.0
 40
1.0
 40
1.0
 10
164.516160164271
 20
88.8172181881203
 30
0.0
 10
164.2388331492615
 20
88.29546402095312
 30
0.0
 10
163.9601531065697
 20
87.77442874538688
 30
0.0
 10
163.6803901688138
 20
87.25399715193213
 30
0.0
  0
SPLINE
  5
AC
330
1F
100
AcDbEntity
  8
0
  6
Continuous
 62
     7
370
    15
100
AcDbSpline
210
0.0
220
0.0
230
1.0
 70
     8
 71
     3
 72
     8
 73
     4
 74
     0
 42
0.000000001
 43
0.00000001
 40
0.0
 40
0.0
 40
0.0
 40
0.0
 40
0.001149633737632
 40
0.001149633737632
 40
0.001149633737632
 40
0.001149633737632
 10
163.141160164271
 20
86.53605260919136
 30
0.0
 10
163.3214203639561
 20
86.77517299662868
 30
0.0
 10
163.501186917684
 20
87.01447987306547
 30
0.0
 10
163.6803901688138
 20
87.25399715193213
 30
0.0
  0
LINE
  5
AD
330
1F
100
AcDbEntity
  8
0
  6
Continuous
 62
     7
370
    15
100
AcDbLine
 10
163.1411601643
 20
86.5360526092
 30
0.0
 11
163.1411601643
 21
129.0624278836
 31
0.0
  0
LINE
  5
AE
330
1F
100
AcDbEntity
  8
0
  6
Continuous
 62
     7
370
    15
100
AcDbLine
 10
155.5661601643
 20
87.746871309
 30
0.0
 11
155.5661601643
 21
127.8516091838
 31
0.0
  0
SPLINE
  5
AF
330
1F
100
AcDbEntity
  8
0
  6
Continuous
 62
     7
370
    15
100
AcDbSpline
210
0.0
220
0.0
230
1.0
 70
     8
 71
     3
 72
    12
 73
     8
 74
     0
 42
0.000000001
 43
0.00000001
 40
0.0
 40
0.0
 40
0.0
 40
0.0
 40
0.2500000000000017
 40
0.2500000000000017
 40
0.5000000000000033
 40
0.5000000000000033
 40
1.0
 40
1.0
 40
1.0
 40
1.0
 10
155.9888383026071
 20
128.921805202545
 30
0.0
 10
155.9318760271259
 20
128.855034092869
 30
0.0
 10
155.8786771668155
 20
128.7827148225228
 30
0.0
 10
155.780649079024
 20
128.6257374710478
 30
0.0
 10
155.7354214447621
 20
128.5401325403339
 30
0.0
 10
155.6200293953038
 20
128.2693346089483
 30
0.0
 10
155.566160164271
 20
128.0649230074556
 30
0.0
 10
155.566160164271
 20
127.8516091837666
 30
0.0
  0
SPLINE
  5
B0
330
1F
100
AcDbEntity
  8
0
  6
Continuous
 62
     7
370
    15
100
AcDbSpline
210
0.0
220
0.0
230
1.0
 70
     8
 71
     3
 72
     8
 73
     4
 74
     0
 42
0.000000001
 43
0.00000001
 40
0.0
 40
0.0
 40
0.0
 40
0.0
 40
1.0
 40
1.0
 40
1.0
 40
1.0
 10
156.5661601642711
 20
129.0624278836218
 30
0.0
 10
156.3569922894212
 20
129.0624278836218
 30
0.0
 10
156.1546982130178
 20
129.0117463451252
 30
0.0
 10
155.9888383026071
 20
128.921805202545
 30
0.0
  0
SPLINE
  5
B1
330
1F
100
AcDbEntity
  8
0
  6
Continuous
 62
     7
370
    15
100
AcDbSpline
210
0.0
220
0.0
230
1.0
 70
     8
 71
     3
 72
     8
 73
     4
 74
     0
 42
0.000000001
 43
0.00000001
 40
0.0
 40
0.0
 40
0.0
 40
0.0
 40
1.0
 40
1.0
 40
1.0
 40
1.0
 10
155.9888383026071
 20
86.67667529026821
 30
0.0
 10
156.1546871141323
 20
86.58674016629989
 30
0.0
 10
156.3569982974456
 20
86.53605260919136
 30
0.0
 10
156.5661601642711
 20
86.53605260919136
 30
0.0
  0
SPLINE
  5
B2
330
1F
100
AcDbEntity
  8
0
  6
Continuous
 62
     7
370
    15
100
AcDbSpline
210
0.0
220
0.0
230
1.0
 70
     8
 71
     3
 72
    12
 73
     8
 74
     0
 42
0.000000001
 43
0.00000001
 40
0.0
 40
0.0
 40
0.0
 40
0.0
 40
0.2499999999999997
 40
0.2499999999999997
 40
0.4999999999999993
 40
0.4999999999999993
 40
1.0
 40
1.0
 40
1.0
 40
1.0
 10
155.9888383026071
 20
86.67667529026821
 30
0.0
 10
155.9318760271259
 20
86.74344639994413
 30
0.0
 10
155.8786771668155
 20
86.8157656702903
 30
0.0
 10
155.780649079024
 20
86.97274302176538
 30
0.0
 10
155.7354214447621
 20
87.05834795247931
 30
0.0
 10
155.6200293953038
 20
87.3291458838649
 30
0.0
 10
155.566160164271
 20
87.53355748535755
 30
0.0
 10
155.566160164271
 20
87.7468713090466
 30
0.0
  0
LINE
  5
B3
330
1F
100
AcDbEntity
  8
0
  6
Continuous
 62
     7
370
    15
100
AcDbLine
 10
163.1411601643
 20
129.0624278836
 30
0.0
 11
156.5661601643
 21
129.0624278836
 31
0.0
  0
LINE
  5
B4
330
1F
100
AcDbEntity
  8
0
  6
Continuous
 62
     7
370
    15
100
AcDbLine
 10
156.5661601643
 20
86.5360526092
 30
0.0
 11
163.1411601643
 21
86.5360526092
 31
0.0
  0
SPLINE
  5
B5
330
1F
100
AcDbEntity
  8
0
  6
Continuous
 62
     7
370
    15
100
AcDbSpline
210
0.0
220
0.0
230
1.0
 70
     8
 71
     3
 72
    10
 73
     6
 74
     0
 42
0.000000001
 43
0.00000001
 40
0.0
 40
0.0
 40
0.0
 40
0.0
 40
0.5
 40
0.5
 40
1.0
 40
1.0
 40
1.0
 40
1.0
 10
165.9124414563812
 20
125.0661769013751
 30
0.0
 10
165.7718593558109
 20
125.0548088074883
 30
0.0
 10
165.630241105153
 20
125.0873573309658
 30
0.0
 10
165.3867487117015
 20
125.2302358408829
 30
0.0
 10
165.2872385302813
 20
125.3383170966541
 30
0.0
 10
165.2196211333487
 20
125.4642439920871
 30
0.0
  0
SPLINE
  5
B6
330
1F
100
AcDbEntity
  8
0
  6
Continuous
 62
     7
370
    15
100
AcDbSpline
210
0.0
220
0.0
230
1.0
 70
     8
 71
     3
 72
    10
 73
     6
 74
     0
 42
0.000000001
 43
0.00000001
 40
0.0
 40
0.0
 40
0.0
 40
0.0
 40
0.5
 40
0.5
 40
1.0
 40
1.0
 40
1.0
 40
1.0
 10
165.9124414563812
 20
90.53230359143802
 30
0.0
 10
165.7718593558109
 20
90.54367168532485
 30
0.0
 10
165.630241105153
 20
90.51112316184741
 30
0.0
 10
165.3867487117015
 20
90.36824465193024
 30
0.0
 10
165.2872385302813
 20
90.26016339615911
 30
0.0
 10
165.2196211333487
 20
90.13423650072608
 30
0.0
  0
SPLINE
  5
B7
330
1F
100
AcDbEntity
  8
0
  6
Continuous
 62
     7
370
    15
100
AcDbSpline
210
0.0
220
0.0
230
1.0
 70
     8
 71
     3
 72
     8
 73
     4
 74
     0
 42
0.000000001
 43
0.00000001
 40
0.0
 40
0.0
 40
0.0
 40
0.0
 40
1.0
 40
1.0
 40
1.0
 40
1.0
 10
168.7501182281513
 20
89.99924024640679
 30
0.0
 10
168.6509064695827
 20
90.07101492016355
 30
0.0
 10
168.5392445515301
 20
90.12527190299421
 30
0.0
 10
168.4198788721617
 20
90.15167611561981
 30
0.0
  0
SPLINE
  5
B8
330
1F
100
AcDbEntity
  8
0
  6
Continuous
 62
     7
370
    15
100
AcDbSpline
210
0.0
220
0.0
230
1.0
 70
     8
 71
     3
 72
     8
 73
     4
 74
     0
 42
0.000000001
 43
0.00000001
 40
0.0
 40
0.0
 40
0.0
 40
0.0
 40
1.0
 40
1.0
 40
1.0
 40
1.0
 10
168.7501182281512
 20
125.5992402464064
 30
0.0
 10
168.6509064695827
 20
125.5274655726496
 30
0.0
 10
168.5392445515301
 20
125.473208589819
 30
0.0
 10
168.4198788721617
 20
125.4468043771934
 30
0.0
  0
SPLINE
  5
B9
330
1F
100
AcDbEntity
  8
0
  6
Continuous
 62
     7
370
    15
100
AcDbSpline
210
0.0
220
0.0
230
1.0
 70
     8
 71
     3
 72
    10
 73
     6
 74
     0
 42
0.000000001
 43
0.00000001
 40
0.0
 40
0.0
 40
0.0
 40
0.0
 40
0.5
 40
0.5
 40
1.0
 40
1.0
 40
1.0
 40
1.0
 10
169.1126991951884
 20
126.0389132440989
 30
0.0
 10
169.069361012881
 20
125.9481525183008
 30
0.0
 10
169.0166110176657
 20
125.8666500776186
 30
0.0
 10
168.8945533666393
 20
125.7190721699825
 30
0.0
 10
168.8250729510823
 20
125.6534661855746
 30
0.0
 10
168.7501182281512
 20
125.5992402464064
 30
0.0
  0
SPLINE
  5
BA
330
1F
100
AcDbEntity
  8
0
  6
Continuous
 62
     7
370
    15
100
AcDbSpline
210
0.0
220
0.0
230
1.0
 70
     8
 71
     3
 72
    10
 73
     6
 74
     0
 42
0.000000001
 43
0.00000001
 40
0.0
 40
0.0
 40
0.0
 40
0.0
 40
0.5
 40
0.5
 40
1.0
 40
1.0
 40
1.0
 40
1.0
 10
169.1126991951884
 20
89.55956724871426
 30
0.0
 10
169.069361012881
 20
89.65032797451236
 30
0.0
 10
169.0166110176657
 20
89.73183041519455
 30
0.0
 10
168.8945533666393
 20
89.87940832283067
 30
0.0
 10
168.8250729510823
 20
89.94501430723855
 30
0.0
 10
168.7501182281513
 20
89.99924024640679
 30
0.0
  0
SPLINE
  5
BB
330
1F
100
AcDbEntity
  8
0
  6
Continuous
 62
     7
370
    15
100
AcDbSpline
210
0.0
220
0.0
230
1.0
 70
     8
 71
     3
 72
     8
 73
     4
 74
     0
 42
0.000000001
 43
0.00000001
 40
0.0
 40
0.0
 40
0.0
 40
0.0
 40
1.0
 40
1.0
 40
1.0
 40
1.0
 10
168.4198788721608
 20
125.4468043771961
 30
0.0
 10
167.6394495858907
 20
125.274169990806
 30
0.0
 10
166.8056395206414
 20
125.1384048693232
 30
0.0
 10
165.9124414563812
 20
125.0661769013751
 30
0.0
  0
SPLINE
  5
BC
330
1F
100
AcDbEntity
  8
0
  6
Continuous
 62
     7
370
    15
100
AcDbSpline
210
0.0
220
0.0
230
1.0
 70
     8
 71
     3
 72
     8
 73
     4
 74
     0
 42
0.000000001
 43
0.00000001
 40
0.0
 40
0.0
 40
0.0
 40
0.0
 40
1.0
 40
1.0
 40
1.0
 40
1.0
 10
168.4198788721608
 20
90.15167611561706
 30
0.0
 10
167.6394495858907
 20
90.32431050200711
 30
0.0
 10
166.8056395206414
 20
90.46007562349
 30
0.0
 10
165.9124414563812
 20
90.53230359143802
 30
0.0
  0
SPLINE
  5
BD
330
1F
100
AcDbEntity
  8
0
  6
Continuous
 62
     7
370
    15
100
AcDbSpline
210
0.0
220
0.0
230
1.0
 70
    24
 71
     3
 72
    10
 73
     6
 74
     0
 42
0.000000001
 43
0.00000001
 40
0.0
 40
0.0
 40
0.0
 40
0.0
 40
0.0881249568519708
 40
0.543757703730044
 40
1.0
 40
1.0
 40
1.0
 40
1.0
 10
155.4479321274048
 20
123.9992402464066
 30
0.0
 10
155.4420338207373
 20
123.9992402464066
 30
0.0
 10
155.4056394802012
 20
123.9992402464066
 30
0.0
 10
155.3272386842068
 20
123.9992402464066
 30
0.0
 10
155.3117349442242
 20
123.9992402464066
 30
0.0
 10
155.30397789244
 20
123.9992402464066
 30
0.0
  0
SPLINE
  5
BE
330
1F
100
AcDbEntity
  8
0
  6
Continuous
 62
     7
370
    15
100
AcDbSpline
210
0.0
220
0.0
230
1.0
 70
    24
 71
     3
 72
    10
 73
     6
 74
     0
 42
0.000000001
 43
0.00000001
 40
0.0
 40
0.0
 40
0.0
 40
0.0
 40
0.3856296239769461
 40
0.7720333130201062
 40
1.0
 40
1.0
 40
1.0
 40
1.0
 10
155.30397789244
 20
91.5992402464066
 30
0.0
 10
155.3095663617122
 20
91.5992402464066
 30
0.0
 10
155.3207545178566
 20
91.5992402464066
 30
0.0
 10
155.3887362090637
 20
91.59924024640658
 30
0.0
 10
155.4317423312466
 20
91.5992402464066
 30
0.0
 10
155.447700072011
 20
91.5992402464066
 30
0.0
  0
LINE
  5
BF
330
1F
100
AcDbEntity
  8
0
  6
Continuous
 62
     7
370
    15
100
AcDbLine
 10
153.5661601643
 20
91.9242402464
 30
0.0
 11
153.5661601643
 21
123.6742402464
 31
0.0
  0
LINE
  5
C0
330
1F
100
AcDbEntity
  8
0
  6
Continuous
 62
     7
370
    15
100
AcDbLine
 10
195.3661601643
 20
95.2992402464
 30
0.0
 11
195.3661601643
 21
120.2992402464
 31
0.0
  0
SPLINE
  5
C1
330
1F
100
AcDbEntity
  8
0
  6
Continuous
 62
     7
370
    15
100
AcDbSpline
210
0.0
220
0.0
230
1.0
 70
     8
 71
     3
 72
    38
 73
    34
 74
     0
 42
0.000000001
 43
0.00000001
 40
0.0
 40
0.0
 40
0.0
 40
0.0
 40
0.0625
 40
0.0625
 40
0.1250000000000001
 40
0.1250000000000001
 40
0.1875000000000001
 40
0.1875000000000001
 40
0.2500000000000001
 40
0.2500000000000001
 40
0.3125
 40
0.3125
 40
0.375
 40
0.375
 40
0.4374999999999999
 40
0.4374999999999999
 40
0.4999999999999999
 40
0.4999999999999999
 40
0.5624999999999999
 40
0.5624999999999999
 40
0.6249999999999999
 40
0.6249999999999999
 40
0.6875
 40
0.6875
 40
0.75
 40
0.75
 40
0.8125
 40
0.8125
 40
0.875
 40
0.875
 40
0.9375000000000001
 40
0.9375000000000001
 40
1.0
 40
1.0
 40
1.0
 40
1.0
 10
192.066160164271
 20
107.7992402464066
 30
0.0
 10
192.066160164271
 20
107.5682910557806
 30
0.0
 10
192.038207010811
 20
107.336376540448
 30
0.0
 10
191.9276073490514
 20
106.8834540128063
 30
0.0
 10
191.8466980082044
 20
106.667305749822
 30
0.0
 10
191.6373932061474
 20
106.2539627726272
 30
0.0
 10
191.5092944319127
 20
106.0586733723027
 30
0.0
 10
191.2191283323859
 20
105.7018374824491
 30
0.0
 10
191.0541653672386
 20
105.5367615911751
 30
0.0
 10
190.6986055378536
 20
105.2431002002264
 30
0.0
 10
190.508494742732
 20
105.1142159565507
 30
0.0
 10
190.1047450135746
 20
104.8900645447372
 30
0.0
 10
189.890988086349
 20
104.7953035458347
 30
0.0
 10
189.455436312798
 20
104.6450673723896
 30
0.0
 10
189.2317910748258
 20
104.5884738899274
 30
0.0
 10
188.772605551989
 20
104.512428183437
 30
0.0
 10
188.5398323560202
 20
104.4937325611859
 30
0.0
 10
188.0784332239432
 20
104.4945024989062
 30
0.0
 10
187.8482149732467
 20
104.5136825730464
 30
0.0
 10
187.3887749102612
 20
104.591104367389
 30
0.0
 10
187.1636234940597
 20
104.648877453048
 30
0.0
 10
186.7297632220869
 20
104.8001029676924
 30
0.0
 10
186.5198076015774
 20
104.8937303807212
 30
0.0
 10
186.1147358453595
 20
105.1199364006629
 30
0.0
 10
185.9242128373799
 20
105.2501757988827
 30
0.0
 10
185.572741476378
 20
105.5420382792125
 30
0.0
 10
185.4108317154568
 20
105.7041201889696
 30
0.0
 10
185.118148981895
 20
106.0653062114235
 30
0.0
 10
184.9926802090339
 20
106.2580776204865
 30
0.0
 10
184.7860668011272
 20
106.6667532367528
 30
0.0
 10
184.7039411831144
 20
106.8858871021811
 30
0.0
 10
184.5938445956209
 20
107.3382114311784
 30
0.0
 10
184.566160164271
 20
107.5672609199732
 30
0.0
 10
184.566160164271
 20
107.7992402464066
 30
0.0
  0
SPLINE
  5
C2
330
1F
100
AcDbEntity
  8
0
  6
Continuous
 62
     7
370
    15
100
AcDbSpline
210
0.0
220
0.0
230
1.0
 70
     8
 71
     3
 72
    34
 73
    30
 74
     0
 42
0.000000001
 43
0.00000001
 40
0.0
 40
0.0
 40
0.0
 40
0.0
 40
0.0624999999999998
 40
0.0624999999999998
 40
0.1249999999999996
 40
0.1249999999999996
 40
0.2499999999999984
 40
0.2499999999999984
 40
0.3749999999999972
 40
0.3749999999999972
 40
0.4374999999999976
 40
0.4374999999999976
 40
0.4999999999999978
 40
0.4999999999999978
 40
0.5624999999999981
 40
0.5624999999999981
 40
0.6249999999999983
 40
0.6249999999999983
 40
0.6874999999999987
 40
0.6874999999999987
 40
0.7499999999999989
 40
0.7499999999999989
 40
0.8124999999999991
 40
0.8124999999999991
 40
0.8749999999999993
 40
0.8749999999999993
 40
0.9374999999999997
 40
0.9374999999999997
 40
1.0
 40
1.0
 40
1.0
 40
1.0
 10
184.566160164271
 20
107.7992402464066
 30
0.0
 10
184.5661601642711
 20
108.0312933130899
 30
0.0
 10
184.594962794751
 20
108.2664876777544
 30
0.0
 10
184.705171699673
 20
108.7159891946935
 30
0.0
 10
184.7877316672408
 20
108.9362744604318
 30
0.0
 10
185.103178985584
 20
109.5563941312609
 30
0.0
 10
185.4036288022541
 20
109.9189887462883
 30
0.0
 10
186.1215395129447
 20
110.5090674474572
 30
0.0
 10
186.5245448444336
 20
110.7291299298274
 30
0.0
 10
187.1849892569963
 20
110.9558366530587
 30
0.0
 10
187.4088047219268
 20
111.011712398317
 30
0.0
 10
187.8634268544253
 20
111.0863228106818
 30
0.0
 10
188.0955930700631
 20
111.1050277424674
 30
0.0
 10
188.5612091707889
 20
111.1036743287616
 30
0.0
 10
188.7910204912936
 20
111.0838628768969
 30
0.0
 10
189.2448222338625
 20
111.0069265210505
 30
0.0
 10
189.4704056950813
 20
110.9492345054541
 30
0.0
 10
189.9079973382977
 20
110.7962504452332
 30
0.0
 10
190.1172261858861
 20
110.702263548694
 30
0.0
 10
190.5166469474025
 20
110.4789206673611
 30
0.0
 10
190.7084979875284
 20
110.3481897615414
 30
0.0
 10
191.0631139533282
 20
110.0532949929392
 30
0.0
 10
191.2239713701015
 20
109.8912814086366
 30
0.0
 10
191.5115126993433
 20
109.5364702253456
 30
0.0
 10
191.6396375880402
 20
109.3406741214372
 30
0.0
 10
191.8477272104944
 20
108.9285442217585
 30
0.0
 10
191.9278260351757
 20
108.7137546673591
 30
0.0
 10
192.0374479446217
 20
108.2655868523275
 30
0.0
 10
192.066160164271
 20
108.0302628498288
 30
0.0
 10
192.066160164271
 20
107.7992402464066
 30
0.0
  0
LINE
  5
C3
330
1F
100
AcDbEntity
  8
0
  6
Continuous
 62
     7
370
    15
100
AcDbLine
 10
195.5661601643
 20
95.4992402464
 30
0.0
 11
195.5661601643
 21
120.0992402464
 31
0.0
  0
LINE
  5
C4
330
1F
100
AcDbEntity
  8
0
  6
Continuous
 62
     7
370
    15
100
AcDbLine
 10
105.1661601643
 20
99.4149457812
 30
0.0
 11
105.1661601643
 21
116.1835347116
 31
0.0
  0
CIRCLE
  5
C5
330
1F
100
AcDbEntity
  8
0
  6
HIDDEN
 62
     7
370
     0
100
AcDbCircle
 10
188.3161601643
 20
107.7992402464
 30
0.0
 40
2.477364010367808
  0
CIRCLE
  5
C6
330
1F
100
AcDbEntity
  8
0
  6
HIDDEN
 62
     7
370
     0
100
AcDbCircle
 10
188.3161601643
 20
107.7992402464
 30
0.0
 40
1.845534221835436
  0
ARC
  5
C7
330
1F
100
AcDbEntity
  8
0
  6
HIDDEN
 62
     7
370
     0
100
AcDbCircle
 10
188.3161601643
 20
107.7992402464
 30
0.0
 40
1.545534221835452
100
AcDbArc
 50
223.3142371015
 51
270.0
  0
ARC
  5
C8
330
1F
100
AcDbEntity
  8
0
  6
HIDDEN
 62
     7
370
     0
100
AcDbCircle
 10
188.3161601643
 20
107.7992402464
 30
0.0
 40
1.545534221835473
100
AcDbArc
 50
160.3004640295
 51
198.2266647022
  0
ARC
  5
C9
330
1F
100
AcDbEntity
  8
0
  6
HIDDEN
 62
     7
370
     0
100
AcDbCircle
 10
188.3161601643
 20
107.7992402464
 30
0.0
 40
1.545534221835457
100
AcDbArc
 50
97.9675884445
 51
141.8264383524
  0
ARC
  5
CA
330
1F
100
AcDbEntity
  8
0
  6
HIDDEN
 62
     7
370
     0
100
AcDbCircle
 10
188.3161601643
 20
107.7992402464
 30
0.0
 40
1.545534221835444
100
AcDbArc
 50
42.4315240859
 51
80.2855745786
  0
ARC
  5
CB
330
1F
100
AcDbEntity
  8
0
  6
HIDDEN
 62
     7
370
     0
100
AcDbCircle
 10
188.3161601643
 20
107.7992402464
 30
0.0
 40
1.545534221835435
100
AcDbArc
 50
338.9988521981
 51
16.672622324
  0
ARC
  5
CC
330
1F
100
AcDbEntity
  8
0
  6
HIDDEN
 62
     7
370
     0
100
AcDbCircle
 10
188.3161601643
 20
107.7992402464
 30
0.0
 40
1.545534221835439
100
AcDbArc
 50
270.0
 51
321.8186002493
  0
LINE
  5
CD
330
1F
100
AcDbEntity
  8
0
  6
HIDDEN
 62
     7
370
     0
100
AcDbLine
 10
171.5602087704
 20
85.5747035706
 30
0.0
 11
171.191339485
 21
85.7044680563
 31
0.0
  0
CIRCLE
  5
CE
330
1F
100
AcDbEntity
  8
0
  6
HIDDEN
 62
     7
370
     0
100
AcDbCircle
 10
188.3161601643
 20
107.7992402464
 30
0.0
 40
2.625
  0
LINE
  5
CF
330
1F
100
AcDbEntity
  8
0
  6
HIDDEN
 62
     7
370
     0
100
AcDbLine
 10
195.2280871121
 20
98.2742402464
 30
0.0
 11
195.2280871121
 21
99.6060918608
 31
0.0
  0
LINE
  5
D0
330
1F
100
AcDbEntity
  8
0
  6
HIDDEN
 62
     7
370
     0
100
AcDbLine
 10
195.3356655848
 20
99.6126925904
 30
0.0
 11
195.274235005
 21
99.6089233731
 31
0.0
  0
LINE
  5
D1
330
1F
100
AcDbEntity
  8
0
  6
HIDDEN
 62
     7
370
     0
100
AcDbLine
 10
195.2280871121
 20
115.992388632
 30
0.0
 11
195.2280871121
 21
117.3242402464
 31
0.0
  0
LINE
  5
D2
330
1F
100
AcDbEntity
  8
0
  6
HIDDEN
 62
     7
370
     0
100
AcDbLine
 10
195.217963062
 20
113.2992402464
 30
0.0
 11
195.3661601643
 21
113.960364529
 31
0.0
  0
LINE
  5
D3
330
1F
100
AcDbEntity
  8
0
  6
HIDDEN
 62
     7
370
     0
100
AcDbLine
 10
195.3661601643
 20
115.9287845682
 30
0.0
 11
195.2280871121
 21
115.992388632
 31
0.0
  0
SPLINE
  5
D4
330
1F
100
AcDbEntity
  8
0
  6
HIDDEN
 62
     7
370
     0
100
AcDbSpline
210
0.0
220
0.0
230
1.0
 70
     8
 71
     3
 72
     8
 73
     4
 74
     0
 42
0.000000001
 43
0.00000001
 40
0.0
 40
0.0
 40
0.0
 40
0.0
 40
1.0
 40
1.0
 40
1.0
 40
1.0
 10
195.116160164271
 20
112.9127716015028
 30
0.0
 10
195.1493101102062
 20
113.0418548678369
 30
0.0
 10
195.1832654783648
 20
113.1706707551393
 30
0.0
 10
195.2179630619514
 20
113.2992402464066
 30
0.0
  0
LINE
  5
D5
330
1F
100
AcDbEntity
  8
0
  6
HIDDEN
 62
     7
370
     0
100
AcDbLine
 10
195.1161601643
 20
102.6857088913
 30
0.0
 11
195.1161601643
 21
112.9127716015
 31
0.0
  0
SPLINE
  5
D6
330
1F
100
AcDbEntity
  8
0
  6
HIDDEN
 62
     7
370
     0
100
AcDbSpline
210
0.0
220
0.0
230
1.0
 70
     8
 71
     3
 72
     8
 73
     4
 74
     0
 42
0.000000001
 43
0.00000001
 40
0.0
 40
0.0
 40
0.0
 40
0.0
 40
1.0
 40
1.0
 40
1.0
 40
1.0
 10
195.2179630619514
 20
102.2992402464066
 30
0.0
 10
195.1832608033661
 20
102.4278270605575
 30
0.0
 10
195.1493055216947
 20
102.5566434922767
 30
0.0
 10
195.116160164271
 20
102.6857088913103
 30
0.0
  0
SPLINE
  5
D7
330
1F
100
AcDbEntity
  8
0
  6
HIDDEN
 62
     7
370
     0
100
AcDbSpline
210
0.0
220
0.0
230
1.0
 70
     8
 71
     3
 72
     9
 73
     5
 74
     0
 42
0.000000001
 43
0.00000001
 40
0.0
 40
0.0
 40
0.0
 40
0.0
 40
0.7122181482480869
 40
1.0
 40
1.0
 40
1.0
 40
1.0
 10
195.2280871121087
 20
99.60609186079165
 30
0.0
 10
195.2653816222815
 20
99.59894687793346
 30
0.0
 10
195.3177455086338
 20
99.58891486333825
 30
0.0
 10
195.3553408945071
 20
99.62853915744236
 30
0.0
 10
195.3661601642711
 20
99.639942310174
 30
0.0
  0
SPLINE
  5
D8
330
1F
100
AcDbEntity
  8
0
  6
HIDDEN
 62
     7
370
     0
100
AcDbSpline
210
0.0
220
0.0
230
1.0
 70
     8
 71
     3
 72
     9
 73
     5
 74
     0
 42
0.000000001
 43
0.00000001
 40
0.0
 40
0.0
 40
0.0
 40
0.0
 40
0.2763873115550673
 40
0.9999999999999999
 40
0.9999999999999999
 40
0.9999999999999999
 40
0.9999999999999999
 10
195.3661601642711
 20
101.6612290802877
 30
0.0
 10
195.3551192568529
 20
101.7190650615731
 30
0.0
 10
195.3151720271627
 20
101.9283220674757
 30
0.0
 10
195.2587736460977
 20
102.1435201693564
 30
0.0
 10
195.2179630619514
 20
102.2992402464066
 30
0.0
  0
ELLIPSE
  5
D9
330
1F
100
AcDbEntity
  8
0
  6
HIDDEN
 62
     7
370
     0
100
AcDbEllipse
 10
155.9034184645
 20
89.9992402464
 30
0.0
 11
0.0
 21
1.600000000000009
 31
0.0
210
0.0
220
0.0
230
1.0
 40
0.4142135624
 41
4.712388980384695
 42
6.283185307179586
  0
LINE
  5
DA
330
1F
100
AcDbEntity
  8
0
  6
HIDDEN
 62
     7
370
     0
100
AcDbLine
 10
155.9034184645
 20
91.5992402464
 30
0.0
 11
155.5661601643
 21
91.5992402464
 31
0.0
  0
LINE
  5
DB
330
1F
100
AcDbEntity
  8
0
  6
HIDDEN
 62
     7
370
     0
100
AcDbLine
 10
155.5661601643
 20
123.9992402464
 30
0.0
 11
155.9034184645
 21
123.9992402464
 31
0.0
  0
ELLIPSE
  5
DC
330
1F
100
AcDbEntity
  8
0
  6
HIDDEN
 62
     7
370
     0
100
AcDbEllipse
 10
155.9034184645
 20
125.5992402464
 30
0.0
 11
0.0
 21
1.59999999999998
 31
0.0
210
0.0
220
0.0
230
1.0
 40
0.4142135624
 41
3.141592653589793
 42
4.712388980384677
  0
LINE
  5
DD
330
1F
100
AcDbEntity
  8
0
  6
HIDDEN
 62
     7
370
     0
100
AcDbLine
 10
155.9888383026
 20
128.9218052025
 30
0.0
 11
156.5661601643
 21
128.3444833409
 31
0.0
  0
LINE
  5
DE
330
1F
100
AcDbEntity
  8
0
  6
HIDDEN
 62
     7
370
     0
100
AcDbLine
 10
156.5661601643
 20
87.2539971519
 30
0.0
 11
155.9888383026
 21
86.6766752903
 31
0.0
  0
LINE
  5
DF
330
1F
100
AcDbEntity
  8
0
  6
HIDDEN
 62
     7
370
     0
100
AcDbLine
 10
163.6803901688
 20
87.2539971519
 30
0.0
 11
156.5661601643
 21
87.2539971519
 31
0.0
  0
LINE
  5
E0
330
1F
100
AcDbEntity
  8
0
  6
HIDDEN
 62
     7
370
     0
100
AcDbLine
 10
156.5661601643
 20
87.2539971519
 30
0.0
 11
156.5661601643
 21
89.9992402464
 31
0.0
  0
LINE
  5
E1
330
1F
100
AcDbEntity
  8
0
  6
HIDDEN
 62
     7
370
     0
100
AcDbLine
 10
165.0217566741
 20
91.5992402464
 30
0.0
 11
164.5161601643
 21
91.5992402464
 31
0.0
  0
SPLINE
  5
E2
330
1F
100
AcDbEntity
  8
0
  6
HIDDEN
 62
     7
370
     0
100
AcDbSpline
210
0.0
220
0.0
230
1.0
 70
    24
 71
     3
 72
    12
 73
     8
 74
     0
 42
0.000000001
 43
0.00000001
 40
0.0
 40
0.0
 40
0.0
 40
0.0
 40
0.2499999999999953
 40
0.2499999999999953
 40
0.4999999999999907
 40
0.4999999999999907
 40
1.0
 40
1.0
 40
1.0
 40
1.0
 10
165.6090694968397
 20
91.5992402464066
 30
0.0
 10
165.5854289870348
 20
91.5992402464066
 30
0.0
 10
165.5624494951644
 20
91.5992402464066
 30
0.0
 10
165.5162535545108
 20
91.59924024640658
 30
0.0
 10
165.4931903909265
 20
91.5992402464066
 30
0.0
 10
165.4239751323377
 20
91.59924024640658
 30
0.0
 10
165.3778019423712
 20
91.5992402464066
 30
0.0
 10
165.3315207983093
 20
91.5992402464066
 30
0.0
  0
SPLINE
  5
E3
330
1F
100
AcDbEntity
  8
0
  6
HIDDEN
 62
     7
370
     0
100
AcDbSpline
210
0.0
220
0.0
230
1.0
 70
    24
 71
     3
 72
    12
 73
     8
 74
     0
 42
0.000000001
 43
0.00000001
 40
0.0
 40
0.0
 40
0.0
 40
0.0
 40
0.4999999999999907
 40
0.4999999999999907
 40
0.7499999999999953
 40
0.7499999999999953
 40
1.0
 40
1.0
 40
1.0
 40
1.0
 10
165.3315207983093
 20
123.9992402464066
 30
0.0
 10
165.3778019423712
 20
123.9992402464066
 30
0.0
 10
165.4239751323377
 20
123.9992402464066
 30
0.0
 10
165.4931903909265
 20
123.9992402464066
 30
0.0
 10
165.5162535545108
 20
123.9992402464066
 30
0.0
 10
165.5624494951644
 20
123.9992402464066
 30
0.0
 10
165.5854289870348
 20
123.9992402464066
 30
0.0
 10
165.6090694968397
 20
123.9992402464066
 30
0.0
  0
LINE
  5
E4
330
1F
100
AcDbEntity
  8
0
  6
HIDDEN
 62
     7
370
     0
100
AcDbLine
 10
155.9034184645
 20
123.9992402464
 30
0.0
 11
164.5161601643
 21
123.9992402464
 31
0.0
  0
LINE
  5
E5
330
1F
100
AcDbEntity
  8
0
  6
HIDDEN
 62
     7
370
     0
100
AcDbLine
 10
164.5161601643
 20
123.9992402464
 30
0.0
 11
165.0217566741
 21
123.9992402464
 31
0.0
  0
LINE
  5
E6
330
1F
100
AcDbEntity
  8
0
  6
HIDDEN
 62
     7
370
     0
100
AcDbLine
 10
156.5661601643
 20
128.3444833409
 30
0.0
 11
163.6803901688
 21
128.3444833409
 31
0.0
  0
LINE
  5
E7
330
1F
100
AcDbEntity
  8
0
  6
HIDDEN
 62
     7
370
     0
100
AcDbLine
 10
156.5661601643
 20
128.3444833409
 30
0.0
 11
156.5661601643
 21
125.5992402464
 31
0.0
  0
LINE
  5
E8
330
1F
100
AcDbEntity
  8
0
  6
HIDDEN
 62
     7
370
     0
100
AcDbLine
 10
164.5161601643
 20
91.5992402464
 30
0.0
 11
155.9034184645
 21
91.5992402464
 31
0.0
  0
SPLINE
  5
E9
330
1F
100
AcDbEntity
  8
0
  6
HIDDEN
 62
     7
370
     0
100
AcDbSpline
210
0.0
220
0.0
230
1.0
 70
    24
 71
     3
 72
     8
 73
     4
 74
     0
 42
0.000000001
 43
0.00000001
 40
0.0
 40
0.0
 40
0.0
 40
0.0
 40
1.0
 40
1.0
 40
1.0
 40
1.0
 10
165.3315207983093
 20
91.5992402464066
 30
0.0
 10
165.2282334637446
 20
91.5992402464066
 30
0.0
 10
165.1249788642589
 20
91.5992402464066
 30
0.0
 10
165.0217566740532
 20
91.5992402464066
 30
0.0
  0
SPLINE
  5
EA
330
1F
100
AcDbEntity
  8
0
  6
HIDDEN
 62
     7
370
     0
100
AcDbSpline
210
0.0
220
0.0
230
1.0
 70
    24
 71
     3
 72
     8
 73
     4
 74
     0
 42
0.000000001
 43
0.00000001
 40
0.0
 40
0.0
 40
0.0
 40
0.0
 40
1.0
 40
1.0
 40
1.0
 40
1.0
 10
165.0217566740532
 20
123.9992402464066
 30
0.0
 10
165.1249788642589
 20
123.9992402464066
 30
0.0
 10
165.2282334637446
 20
123.9992402464066
 30
0.0
 10
165.3315207983093
 20
123.9992402464066
 30
0.0
  0
LINE
  5
EB
330
1F
100
AcDbEntity
  8
0
  6
HIDDEN
 62
     7
370
     0
100
AcDbLine
 10
192.7161601643
 20
105.8149267631
 30
0.0
 11
192.7161601643
 21
109.7835537297
 31
0.0
  0
LINE
  5
EC
330
1F
100
AcDbEntity
  8
0
  6
HIDDEN
 62
     7
370
     0
100
AcDbLine
 10
193.3841093567
 20
105.8149267631
 30
0.0
 11
193.3841093567
 21
109.7835537297
 31
0.0
  0
LINE
  5
ED
330
1F
100
AcDbEntity
  8
0
  6
HIDDEN
 62
     7
370
     0
100
AcDbLine
 10
192.7161601643
 20
115.992388632
 30
0.0
 11
195.2280871121
 21
115.992388632
 31
0.0
  0
LINE
  5
EE
330
1F
100
AcDbEntity
  8
0
  6
HIDDEN
 62
     7
370
     0
100
AcDbLine
 10
192.7161601643
 20
115.9992402464
 30
0.0
 11
192.7161601643
 21
113.2992402464
 31
0.0
  0
LINE
  5
EF
330
1F
100
AcDbEntity
  8
0
  6
HIDDEN
 62
     7
370
     0
100
AcDbLine
 10
192.7161601643
 20
109.7835537297
 30
0.0
 11
193.3841093567
 21
109.7835537297
 31
0.0
  0
LINE
  5
F0
330
1F
100
AcDbEntity
  8
0
  6
HIDDEN
 62
     7
370
     0
100
AcDbLine
 10
192.7161601643
 20
113.2992402464
 30
0.0
 11
192.7161601643
 21
109.7835537297
 31
0.0
  0
SPLINE
  5
F1
330
1F
100
AcDbEntity
  8
0
  6
HIDDEN
 62
     7
370
     0
100
AcDbSpline
210
0.0
220
0.0
230
1.0
 70
     8
 71
     3
 72
    10
 73
     6
 74
     0
 42
0.000000001
 43
0.00000001
 40
0.0
 40
0.0
 40
0.0
 40
0.0
 40
0.5
 40
0.5
 40
1.0
 40
1.0
 40
1.0
 40
1.0
 10
193.3841093567021
 20
109.783553729705
 30
0.0
 10
193.5900756569552
 20
110.2629727323816
 30
0.0
 10
193.8525243854367
 20
110.7140173221324
 30
0.0
 10
194.4478707586245
 20
111.580715908456
 30
0.0
 10
194.7737653513758
 20
111.986173296046
 30
0.0
 10
195.116160164271
 20
112.3749915508374
 30
0.0
  0
LINE
  5
F2
330
1F
100
AcDbEntity
  8
0
  6
HIDDEN
 62
     7
370
     0
100
AcDbLine
 10
193.3841093567
 20
105.8149267631
 30
0.0
 11
192.7161601643
 21
105.8149267631
 31
0.0
  0
LINE
  5
F3
330
1F
100
AcDbEntity
  8
0
  6
HIDDEN
 62
     7
370
     0
100
AcDbLine
 10
192.7161601643
 20
105.8149267631
 30
0.0
 11
192.7161601643
 21
102.2992402464
 31
0.0
  0
SPLINE
  5
F4
330
1F
100
AcDbEntity
  8
0
  6
HIDDEN
 62
     7
370
     0
100
AcDbSpline
210
0.0
220
0.0
230
1.0
 70
     8
 71
     3
 72
    10
 73
     6
 74
     0
 42
0.000000001
 43
0.00000001
 40
0.0
 40
0.0
 40
0.0
 40
0.0
 40
0.5
 40
0.5
 40
1.0
 40
1.0
 40
1.0
 40
1.0
 10
195.116160164271
 20
103.2234889419758
 30
0.0
 10
194.7729120853463
 20
103.6132761524755
 30
0.0
 10
194.4449604008764
 20
104.0218620723347
 30
0.0
 10
193.8536655562207
 20
104.8829416628541
 30
0.0
 10
193.5912284375959
 20
105.3328244819322
 30
0.0
 10
193.3841093567021
 20
105.8149267631081
 30
0.0
  0
LINE
  5
F5
330
1F
100
AcDbEntity
  8
0
  6
HIDDEN
 62
     7
370
     0
100
AcDbLine
 10
192.7161601643
 20
99.6060918608
 30
0.0
 11
195.2280871121
 21
99.6060918608
 31
0.0
  0
LINE
  5
F6
330
1F
100
AcDbEntity
  8
0
  6
HIDDEN
 62
     7
370
     0
100
AcDbLine
 10
192.7161601643
 20
102.2992402464
 30
0.0
 11
192.7161601643
 21
99.5992402464
 31
0.0
  0
LINE
  5
F7
330
1F
100
AcDbEntity
  8
0
  6
HIDDEN
 62
     7
370
     0
100
AcDbLine
 10
192.1161601643
 20
100.7992402464
 30
0.0
 11
192.1161601643
 21
114.7992402464
 31
0.0
  0
LINE
  5
F8
330
1F
100
AcDbEntity
  8
0
  6
HIDDEN
 62
     7
370
     0
100
AcDbLine
 10
180.5661601643
 20
101.1992402464
 30
0.0
 11
180.5661601643
 21
114.3992402197
 31
0.0
  0
LINE
  5
F9
330
1F
100
AcDbEntity
  8
0
  6
HIDDEN
 62
     7
370
     0
100
AcDbLine
 10
182.5661601643
 20
100.7992402464
 30
0.0
 11
182.5661601643
 21
114.7992402464
 31
0.0
  0
SPLINE
  5
FA
330
1F
100
AcDbEntity
  8
0
  6
HIDDEN
 62
     7
370
     0
100
AcDbSpline
210
0.0
220
0.0
230
1.0
 70
    24
 71
     3
 72
    11
 73
     7
 74
     0
 42
0.000000001
 43
0.00000001
 40
0.0
 40
0.0
 40
0.0
 40
0.0
 40
0.0000172284261762
 40
0.0000172284261762
 40
0.0000172284261762
 40
0.0003364215432166
 40
0.0003364215432166
 40
0.0003364215432166
 40
0.0003364215432166
 10
167.9085861906097
 20
91.5992402464066
 30
0.0
 10
167.903701869555
 20
91.5992402464066
 30
0.0
 10
167.8988200270935
 20
91.5992402464066
 30
0.0
 10
167.8939402675279
 20
91.5992402464066
 30
0.0
 10
167.8035335539923
 20
91.5992402464066
 30
0.0
 10
167.713933992901
 20
91.5992402464066
 30
0.0
 10
167.6218562511925
 20
91.5992402464066
 30
0.0
  0
SPLINE
  5
FB
330
1F
100
AcDbEntity
  8
0
  6
HIDDEN
 62
     7
370
     0
100
AcDbSpline
210
0.0
220
0.0
230
1.0
 70
    24
 71
     3
 72
     8
 73
     4
 74
     0
 42
0.000000001
 43
0.00000001
 40
0.0000000000000044
 40
0.0000000000000044
 40
0.0000000000000044
 40
0.0000000000000044
 40
0.0003364172281863
 40
0.0003364172281863
 40
0.0003364172281863
 40
0.0003364172281863
 10
167.6218562511925
 20
123.9992402464066
 30
0.0
 10
167.7189039011497
 20
123.9992402464066
 30
0.0
 10
167.8132106911902
 20
123.9992402464066
 30
0.0
 10
167.9085861906097
 20
123.9992402464066
 30
0.0
  0
SPLINE
  5
FC
330
1F
100
AcDbEntity
  8
0
  6
HIDDEN
 62
     7
370
     0
100
AcDbSpline
210
0.0
220
0.0
230
1.0
 70
     8
 71
     3
 72
    18
 73
    14
 74
     0
 42
0.000000001
 43
0.00000001
 40
0.0
 40
0.0
 40
0.0
 40
0.0
 40
0.1460838096783754
 40
0.2781305992316608
 40
0.3961757258464597
 40
0.500270309295989
 40
0.5869262499594833
 40
0.6721524275931573
 40
0.7559997284983787
 40
0.8385215906696465
 40
0.9197740681231308
 40
0.9998158826481479
 40
1.0
 40
1.0
 40
1.0
 40
1.0
 10
170.5135776775876
 20
128.9548122585508
 30
0.0
 10
170.6955228979425
 20
129.021212972965
 30
0.0
 10
171.0419304380803
 20
129.1476340358472
 30
0.0
 10
171.4586951083543
 20
129.313661002433
 30
0.0
 10
171.7823398671433
 20
129.44995460111
 30
0.0
 10
172.0209096602908
 20
129.5541541224347
 30
0.0
 10
172.1999219397661
 20
129.6321701408488
 30
0.0
 10
172.3360609000809
 20
129.6927271707926
 30
0.0
 10
172.4400420455868
 20
129.7397395008079
 30
0.0
 10
172.5141746749056
 20
129.7740385694392
 30
0.0
 10
172.5539921875419
 20
129.7929394202456
 30
0.0
 10
172.5717318356625
 20
129.8018145495718
 30
0.0
 10
172.5661344737836
 20
129.7992273881969
 30
0.0
 10
172.5661216279192
 20
129.799221450699
 30
0.0
  0
SPLINE
  5
FD
330
1F
100
AcDbEntity
  8
0
  6
HIDDEN
 62
     7
370
     0
100
AcDbSpline
210
0.0
220
0.0
230
1.0
 70
     8
 71
     3
 72
    14
 73
    10
 74
     0
 42
0.000000001
 43
0.00000001
 40
0.0
 40
0.0
 40
0.0
 40
0.0
 40
0.0001837459954045
 40
0.1206873855942913
 40
0.244022104966844
 40
0.3703795474084404
 40
0.4999379337759426
 40
0.7219783401294918
 40
1.0
 40
1.0
 40
1.0
 40
1.0
 10
172.5660625594239
 20
85.79928652850734
 30
0.0
 10
172.5660951062878
 20
85.79927142367255
 30
0.0
 10
172.5874724206604
 20
85.78935032026929
 30
0.0
 10
172.5343928912372
 20
85.81505708044202
 30
0.0
 10
172.4486476775062
 20
85.85488971765871
 30
0.0
 10
172.2768522279107
 20
85.93261807291493
 30
0.0
 10
171.9802315210408
 20
86.06188121354063
 30
0.0
 10
171.4538621027366
 20
86.29391578130388
 30
0.0
 10
170.849556220594
 20
86.51869613389039
 30
0.0
 10
170.5135776775874
 20
86.64366823426238
 30
0.0
  0
LINE
  5
FE
330
1F
100
AcDbEntity
  8
0
  6
HIDDEN
 62
     7
370
     0
100
AcDbLine
 10
170.9661601643
 20
91.5992402464
 30
0.0
 11
167.9085861906
 21
91.5992402464
 31
0.0
  0
LINE
  5
FF
330
1F
100
AcDbEntity
  8
0
  6
HIDDEN
 62
     7
370
     0
100
AcDbLine
 10
167.9085861906
 20
123.9992402464
 30
0.0
 11
170.9661601643
 21
123.9992402464
 31
0.0
  0
SPLINE
  5
100
330
1F
100
AcDbEntity
  8
0
  6
HIDDEN
 62
     7
370
     0
100
AcDbSpline
210
0.0
220
0.0
230
1.0
 70
    24
 71
     3
 72
    10
 73
     6
 74
     0
 42
0.000000001
 43
0.00000001
 40
0.0
 40
0.0
 40
0.0
 40
0.0
 40
0.5
 40
0.5
 40
1.0
 40
1.0
 40
1.0
 40
1.0
 10
165.6090694968397
 20
123.9992402464066
 30
0.0
 10
165.9652393003007
 20
123.9992402464066
 30
0.0
 10
166.31357839523
 20
123.9992402464066
 30
0.0
 10
166.9838589204718
 20
123.9992402464066
 30
0.0
 10
167.3076741536237
 20
123.9992402464066
 30
0.0
 10
167.6218562511887
 20
123.9992402464066
 30
0.0
  0
SPLINE
  5
101
330
1F
100
AcDbEntity
  8
0
  6
HIDDEN
 62
     7
370
     0
100
AcDbSpline
210
0.0
220
0.0
230
1.0
 70
    24
 71
     3
 72
    10
 73
     6
 74
     0
 42
0.000000001
 43
0.00000001
 40
0.0
 40
0.0
 40
0.0
 40
0.0
 40
0.5
 40
0.5
 40
1.0
 40
1.0
 40
1.0
 40
1.0
 10
167.6218562511887
 20
91.5992402464066
 30
0.0
 10
167.3076741536237
 20
91.5992402464066
 30
0.0
 10
166.9838589204718
 20
91.5992402464066
 30
0.0
 10
166.31357839523
 20
91.5992402464066
 30
0.0
 10
165.9652393003007
 20
91.5992402464066
 30
0.0
 10
165.6090694968397
 20
91.5992402464066
 30
0.0
  0
LINE
  5
102
330
1F
100
AcDbEntity
  8
0
  6
HIDDEN
 62
     7
370
     0
100
AcDbLine
 10
110.1661601643
 20
101.5492402464
 30
0.0
 11
110.1661601643
 21
114.0492402464
 31
0.0
  0
SPLINE
  5
103
330
1F
100
AcDbEntity
  8
0
  6
HIDDEN
 62
     7
370
     0
100
AcDbSpline
210
0.0
220
0.0
230
1.0
 70
     8
 71
     3
 72
     9
 73
     5
 74
     0
 42
0.000000001
 43
0.00000001
 40
0.0
 40
0.0
 40
0.0
 40
0.0
 40
0.508496891989613
 40
1.0
 40
1.0
 40
1.0
 40
1.0
 10
171.19119149143
 20
85.70446081441749
 30
0.0
 10
171.0753627378076
 20
85.86411122343728
 30
0.0
 10
170.8475761860173
 20
86.17807658199654
 30
0.0
 10
170.62364222599
 20
86.49028119486343
 30
0.0
 10
170.5135779886475
 20
86.6437307324227
 30
0.0
  0
SPLINE
  5
104
330
1F
100
AcDbEntity
  8
0
  6
HIDDEN
 62
     7
370
     0
100
AcDbSpline
210
0.0
220
0.0
230
1.0
 70
     8
 71
     3
 72
     9
 73
     5
 74
     0
 42
0.000000001
 43
0.00000001
 40
0.0
 40
0.0
 40
0.0
 40
0.0
 40
0.4915031079772486
 40
1.0
 40
1.0
 40
1.0
 40
1.0
 10
170.5135779886475
 20
128.9547497603905
 30
0.0
 10
170.623642225985
 20
129.1081992979456
 30
0.0
 10
170.847576186017
 20
129.4204039108252
 30
0.0
 10
171.0753627378025
 20
129.7343692693719
 30
0.0
 10
171.19119149143
 20
129.8940196783957
 30
0.0
  0
LINE
  5
105
330
1F
100
AcDbEntity
  8
0
  6
HIDDEN
 62
     7
370
     0
100
AcDbLine
 10
112.9888842979
 20
102.6992402464
 30
0.0
 11
112.9888842979
 21
112.8992402464
 31
0.0
  0
LINE
  5
106
330
1F
100
AcDbEntity
  8
0
  6
HIDDEN
 62
     7
370
     0
100
AcDbLine
 10
139.1661601643
 20
102.6992402464
 30
0.0
 11
139.1661601643
 21
112.8992402464
 31
0.0
  0
LINE
  5
107
330
1F
100
AcDbEntity
  8
0
  6
HIDDEN
 62
     7
370
     0
100
AcDbLine
 10
139.6768916904
 20
103.5492402464
 30
0.0
 11
139.6768916904
 21
112.0492402464
 31
0.0
  0
LINE
  5
108
330
1F
100
AcDbEntity
  8
0
  6
HIDDEN
 62
     7
370
     0
100
AcDbLine
 10
192.7161601643
 20
117.3242402464
 30
0.0
 11
192.7161601643
 21
115.992388632
 31
0.0
  0
LINE
  5
109
330
1F
100
AcDbEntity
  8
0
  6
HIDDEN
 62
     7
370
     0
100
AcDbLine
 10
192.7161601643
 20
99.6060918608
 30
0.0
 11
192.7161601643
 21
98.2742402464
 31
0.0
  0
LINE
  5
10A
330
1F
100
AcDbEntity
  8
0
  6
HIDDEN
 62
     7
370
     0
100
AcDbLine
 10
195.5661601643
 20
118.0492402464
 30
0.0
 11
195.2280871121
 21
117.3242402464
 31
0.0
  0
LINE
  5
10B
330
1F
100
AcDbEntity
  8
0
  6
HIDDEN
 62
     7
370
     0
100
AcDbLine
 10
195.2280871121
 20
98.2742402464
 30
0.0
 11
195.5661601643
 21
97.5492402464
 31
0.0
  0
LINE
  5
10C
330
1F
100
AcDbEntity
  8
0
  6
HIDDEN
 62
     7
370
     0
100
AcDbLine
 10
195.269000717
 20
115.9992402464
 30
0.0
 11
192.7161601643
 21
115.9992402464
 31
0.0
  0
LINE
  5
10D
330
1F
100
AcDbEntity
  8
0
  6
HIDDEN
 62
     7
370
     0
100
AcDbLine
 10
192.7161601643
 20
99.5992402464
 30
0.0
 11
195.2745963354
 21
99.5992402464
 31
0.0
  0
LINE
  5
10E
330
1F
100
AcDbEntity
  8
0
  6
HIDDEN
 62
     7
370
     0
100
AcDbLine
 10
192.7161601643
 20
115.1456504079
 30
0.0
 11
192.1161601643
 21
114.7992402464
 31
0.0
  0
LINE
  5
10F
330
1F
100
AcDbEntity
  8
0
  6
HIDDEN
 62
     7
370
     0
100
AcDbLine
 10
192.1161601643
 20
100.7992402464
 30
0.0
 11
192.7161601643
 21
100.4528300849
 31
0.0
  0
ARC
  5
110
330
1F
100
AcDbEntity
  8
0
  6
HIDDEN
 62
     7
370
     0
100
AcDbCircle
 10
181.7407585042
 20
101.1992402464
 30
0.0
 40
0.6000000000000085
100
AcDbArc
 50
270.0
 51
285.0
  0
ARC
  5
111
330
1F
100
AcDbEntity
  8
0
  6
HIDDEN
 62
     7
370
     0
100
AcDbCircle
 10
181.7407585042
 20
114.3992402464
 30
0.0
 40
0.6000000000000071
100
AcDbArc
 50
75.0
 51
90.0
  0
LINE
  5
112
330
1F
100
AcDbEntity
  8
0
  6
HIDDEN
 62
     7
370
     0
100
AcDbLine
 10
181.1661601643
 20
100.5992402464
 30
0.0
 11
181.7407585042
 21
100.5992402464
 31
0.0
  0
LINE
  5
113
330
1F
100
AcDbEntity
  8
0
  6
HIDDEN
 62
     7
370
     0
100
AcDbLine
 10
181.7407585042
 20
114.9992402464
 30
0.0
 11
181.1661601643
 21
114.9992402464
 31
0.0
  0
ARC
  5
114
330
1F
100
AcDbEntity
  8
0
  6
HIDDEN
 62
     7
370
     0
100
AcDbCircle
 10
181.1661601643
 20
101.1992402464
 30
0.0
 40
0.6000000000000227
100
AcDbArc
 50
180.0
 51
270.0
  0
ARC
  5
115
330
1F
100
AcDbEntity
  8
0
  6
HIDDEN
 62
     7
370
     0
100
AcDbCircle
 10
181.1661601643
 20
114.3992402464
 30
0.0
 40
0.6000000000000227
100
AcDbArc
 50
90.0
 51
180.0
  0
LINE
  5
116
330
1F
100
AcDbEntity
  8
0
  6
HIDDEN
 62
     7
370
     0
100
AcDbLine
 10
181.8960499313
 20
100.6196847506
 30
0.0
 11
182.5661601643
 21
100.7992402464
 31
0.0
  0
LINE
  5
117
330
1F
100
AcDbEntity
  8
0
  6
HIDDEN
 62
     7
370
     0
100
AcDbLine
 10
182.5661601643
 20
114.7992402464
 30
0.0
 11
181.8960499313
 21
114.9787957422
 31
0.0
  0
ARC
  5
118
330
1F
100
AcDbEntity
  8
0
  6
HIDDEN
 62
     7
370
     0
100
AcDbCircle
 10
105.9661601643
 20
100.7492402464
 30
0.0
 40
0.8000000000000114
100
AcDbArc
 50
90.0
 51
180.0
  0
ARC
  5
119
330
1F
100
AcDbEntity
  8
0
  6
HIDDEN
 62
     7
370
     0
100
AcDbCircle
 10
105.9661601643
 20
114.8492402464
 30
0.0
 40
0.8000000000000114
100
AcDbArc
 50
180.0
 51
270.0
  0
LINE
  5
11A
330
1F
100
AcDbEntity
  8
0
  6
HIDDEN
 62
     7
370
     0
100
AcDbLine
 10
182.5661601643
 20
100.7992402464
 30
0.0
 11
192.1161601643
 21
100.7992402464
 31
0.0
  0
LINE
  5
11B
330
1F
100
AcDbEntity
  8
0
  6
HIDDEN
 62
     7
370
     0
100
AcDbLine
 10
192.1161601643
 20
114.7992402464
 30
0.0
 11
182.5661601643
 21
114.7992402464
 31
0.0
  0
LINE
  5
11C
330
1F
100
AcDbEntity
  8
0
  6
HIDDEN
 62
     7
370
     0
100
AcDbLine
 10
172.5661601643
 20
125.5992402464
 30
0.0
 11
172.5661601643
 21
129.7992214507
 31
0.0
  0
LINE
  5
11D
330
1F
100
AcDbEntity
  8
0
  6
HIDDEN
 62
     7
370
     0
100
AcDbLine
 10
172.5661601643
 20
85.7992865285
 30
0.0
 11
172.5661601643
 21
89.9992402464
 31
0.0
  0
ARC
  5
11E
330
1F
100
AcDbEntity
  8
0
  6
HIDDEN
 62
     7
370
     0
100
AcDbCircle
 10
170.9661601643
 20
89.9992402464
 30
0.0
 40
1.600000000000009
100
AcDbArc
 50
0.0
 51
90.0
  0
ARC
  5
11F
330
1F
100
AcDbEntity
  8
0
  6
HIDDEN
 62
     7
370
     0
100
AcDbCircle
 10
170.9661601643
 20
125.5992402464
 30
0.0
 40
1.600000000000023
100
AcDbArc
 50
270.0
 51
0.0
  0
LINE
  5
120
330
1F
100
AcDbEntity
  8
0
  6
HIDDEN
 62
     7
370
     0
100
AcDbLine
 10
111.2451351354
 20
101.2742402464
 30
0.0
 11
111.9352200566
 21
101.2742402464
 31
0.0
  0
LINE
  5
121
330
1F
100
AcDbEntity
  8
0
  6
HIDDEN
 62
     7
370
     0
100
AcDbLine
 10
111.9352200566
 20
114.3242402464
 30
0.0
 11
111.2451351354
 21
114.3242402464
 31
0.0
  0
ARC
  5
122
330
1F
100
AcDbEntity
  8
0
  6
HIDDEN
 62
     7
370
     0
100
AcDbCircle
 10
111.2451351354
 20
101.6742402464
 30
0.0
 40
0.3999999999999915
100
AcDbArc
 50
255.0
 51
270.0
  0
ARC
  5
123
330
1F
100
AcDbEntity
  8
0
  6
HIDDEN
 62
     7
370
     0
100
AcDbCircle
 10
111.2451351354
 20
113.9242402464
 30
0.0
 40
0.4000000000000057
100
AcDbArc
 50
90.0
 51
105.0
  0
ARC
  5
124
330
1F
100
AcDbEntity
  8
0
  6
HIDDEN
 62
     7
370
     0
100
AcDbCircle
 10
111.9352200566
 20
101.6742402464
 30
0.0
 40
0.4000000000000173
100
AcDbArc
 50
270.0
 51
330.0
  0
ARC
  5
125
330
1F
100
AcDbEntity
  8
0
  6
HIDDEN
 62
     7
370
     0
100
AcDbCircle
 10
111.9352200566
 20
113.9242402464
 30
0.0
 40
0.4000000000000199
100
AcDbArc
 50
30.0
 51
90.0
  0
LINE
  5
126
330
1F
100
AcDbEntity
  8
0
  6
HIDDEN
 62
     7
370
     0
100
AcDbLine
 10
111.1416075173
 20
114.3106105769
 30
0.0
 11
110.1661601643
 21
114.0492402464
 31
0.0
  0
LINE
  5
127
330
1F
100
AcDbEntity
  8
0
  6
HIDDEN
 62
     7
370
     0
100
AcDbLine
 10
110.1661601643
 20
101.5492402464
 30
0.0
 11
111.1416075173
 21
101.2878699159
 31
0.0
  0
LINE
  5
128
330
1F
100
AcDbEntity
  8
0
  6
HIDDEN
 62
     7
370
     0
100
AcDbLine
 10
173.5661695059
 20
84.7992341297
 30
0.0
 11
172.5661690355
 21
85.7992341586
 31
0.0
  0
LINE
  5
129
330
1F
100
AcDbEntity
  8
0
  6
HIDDEN
 62
     7
370
     0
100
AcDbLine
 10
172.5661690357
 20
129.7992463345
 30
0.0
 11
173.5661695061
 21
130.7992463634
 31
0.0
  0
LINE
  5
12A
330
1F
100
AcDbEntity
  8
0
  6
HIDDEN
 62
     7
370
     0
100
AcDbLine
 10
112.2816302181
 20
101.4742402464
 30
0.0
 11
112.9888842979
 21
102.6992402464
 31
0.0
  0
LINE
  5
12B
330
1F
100
AcDbEntity
  8
0
  6
HIDDEN
 62
     7
370
     0
100
AcDbLine
 10
112.9888842979
 20
112.8992402464
 30
0.0
 11
112.2816302181
 21
114.1242402464
 31
0.0
  0
LINE
  5
12C
330
1F
100
AcDbEntity
  8
0
  6
HIDDEN
 62
     7
370
     0
100
AcDbLine
 10
105.9661601643
 20
101.5492402464
 30
0.0
 11
110.1661601643
 21
101.5492402464
 31
0.0
  0
LINE
  5
12D
330
1F
100
AcDbEntity
  8
0
  6
HIDDEN
 62
     7
370
     0
100
AcDbLine
 10
110.1661601643
 20
114.0492402464
 30
0.0
 11
105.9661601643
 21
114.0492402464
 31
0.0
  0
LINE
  5
12E
330
1F
100
AcDbEntity
  8
0
  6
HIDDEN
 62
     7
370
     0
100
AcDbLine
 10
139.1661601643
 20
102.6992402464
 30
0.0
 11
139.6768916904
 21
103.5492402464
 31
0.0
  0
LINE
  5
12F
330
1F
100
AcDbEntity
  8
0
  6
HIDDEN
 62
     7
370
     0
100
AcDbLine
 10
139.6768916904
 20
112.0492402464
 30
0.0
 11
139.1661601643
 21
112.8992402464
 31
0.0
  0
LINE
  5
130
330
1F
100
AcDbEntity
  8
0
  6
HIDDEN
 62
     7
370
     0
100
AcDbLine
 10
112.9888842979
 20
102.6992402464
 30
0.0
 11
139.1661601643
 21
102.6992402464
 31
0.0
  0
LINE
  5
131
330
1F
100
AcDbEntity
  8
0
  6
HIDDEN
 62
     7
370
     0
100
AcDbLine
 10
139.1661601643
 20
112.8992402464
 30
0.0
 11
112.9888842979
 21
112.8992402464
 31
0.0
  0
LINE
  5
132
330
1F
100
AcDbEntity
  8
0
  6
HIDDEN
 62
     7
370
     0
100
AcDbLine
 10
195.2280871121
 20
117.3242402464
 30
0.0
 11
192.7161601643
 21
117.3242402464
 31
0.0
  0
LINE
  5
133
330
1F
100
AcDbEntity
  8
0
  6
HIDDEN
 62
     7
370
     0
100
AcDbLine
 10
192.7161601643
 20
98.2742402464
 30
0.0
 11
195.2280871121
 21
98.2742402464
 31
0.0
  0
LINE
  5
134
330
1F
100
AcDbEntity
  8
0
  6
HIDDEN
 62
     7
370
     0
100
AcDbLine
 10
139.6768916904
 20
103.5492402464
 30
0.0
 11
180.5661601643
 21
103.5492402464
 31
0.0
  0
LINE
  5
135
330
1F
100
AcDbEntity
  8
0
  6
HIDDEN
 62
     7
370
     0
100
AcDbLine
 10
180.5661601643
 20
112.0492402464
 30
0.0
 11
139.6768916904
 21
112.0492402464
 31
0.0
  0
LINE
  5
136
330
1F
100
AcDbEntity
  8
0
  6
HIDDEN
 62
     7
370
     0
100
AcDbLine
 10
195.2745963354
 20
115.9992402464
 30
0.0
 11
195.269000717
 21
115.9992402464
 31
0.0
  0
DIMENSION
  5
137
330
1F
100
AcDbEntity
  8
VERMASSUNG
100
AcDbDimension
  2
_D
 10
100.843595364
 20
84.7992402464
 30
0.0
 11
100.843595364
 21
107.7992402464
 31
0.0
 70
   160
  1
MAS BT 30 %%c<>
 71
     2
 42
-1.0
  3
SLDDIMSTYLE0
100
AcDbAlignedDimension
 13
173.5661587222
 23
130.7992402464
 33
0.0
 14
173.5661587534
 24
84.7992402464
 34
0.0
 50
90.0
100
AcDbRotatedDimension
  0
DIMENSION
  5
144
330
1F
100
AcDbEntity
  8
VERMASSUNG
100
AcDbDimension
  2
_D_1
 10
195.5661601643
 20
146.2608943961
 30
0.0
 11
150.3661601643
 21
146.2608943961
 31
0.0
 70
   160
  1
<>
 71
     2
 42
-1.0
  3
SLDDIMSTYLE0
100
AcDbAlignedDimension
 13
105.1661601643
 23
116.1835347116
 33
0.0
 14
195.5661601643
 24
120.0992402464
 34
0.0
100
AcDbRotatedDimension
  0
DIMENSION
  5
14E
330
1F
100
AcDbEntity
  8
VERMASSUNG
100
AcDbDimension
  2
_D_2
 10
195.5661601643
 20
140.2608943961
 30
0.0
 11
174.5661601643
 21
140.2608943961
 31
0.0
 70
   160
  1
<>
 71
     2
 42
-1.0
  3
SLDDIMSTYLE0
100
AcDbAlignedDimension
 13
153.5661601643
 23
123.6742402464
 33
0.0
 14
195.5661601643
 24
120.0992402464
 34
0.0
100
AcDbRotatedDimension
  0
DIMENSION
  5
158
330
1F
100
AcDbEntity
  8
VERMASSUNG
100
AcDbDimension
  2
_D_3
 10
195.5661601643
 20
134.2608943961
 30
0.0
 11
185.5661601643
 21
134.2608943961
 31
0.0
 70
   160
  1
<>
 71
     2
 42
-1.0
  3
SLDDIMSTYLE0
100
AcDbAlignedDimension
 13
175.5661601643
 23
130.7992402464
 33
0.0
 14
195.5661601643
 24
120.0992402464
 34
0.0
100
AcDbRotatedDimension
  0
DIMENSION
  5
162
330
1F
100
AcDbEntity
  8
VERMASSUNG
100
AcDbDimension
  2
_D_4
 10
203.5402225497
 20
95.2992402464
 30
0.0
 11
203.5402225497
 21
107.7992402464
 31
0.0
 70
   160
  1
MBM %%c<>
 71
     2
 42
-1.0
  3
SLDDIMSTYLE0
100
AcDbAlignedDimension
 13
195.3661601643
 23
120.2992402464
 33
0.0
 14
195.3661601643
 24
95.2992402464
 34
0.0
 50
90.0
100
AcDbRotatedDimension
  0
LINE
  5
16E
330
1F
100
AcDbEntity
  8
VERMASSUNG
  6
CENTERX2
 62
     7
370
     0
100
AcDbLine
 10
103.1661601643
 20
107.7992402464
 30
0.0
 11
197.5661601643
 21
107.7992402464
 31
0.0
  0
LINE
  5
16F
330
1F
100
AcDbEntity
  8
0
  6
Continuous
 62
     7
370
    15
100
AcDbLine
 10
269.7472877064
 20
38.0612924168
 30
0.0
 11
269.6058433708
 21
38.1429730359
 31
0.0
  0
LINE
  5
170
330
1F
100
AcDbEntity
  8
0
  6
Continuous
 62
     7
370
    15
100
AcDbLine
 10
267.7670670082
 20
38.1429730359
 30
0.0
 11
267.6256226726
 21
38.0612924168
 31
0.0
  0
LINE
  5
171
330
1F
100
AcDbEntity
  8
0
  6
Continuous
 62
     7
370
    15
100
AcDbLine
 10
270.1864551895
 20
37.3061911997
 30
0.0
 11
270.1864551895
 21
37.4490858418
 31
0.0
  0
LINE
  5
172
330
1F
100
AcDbEntity
  8
0
  6
Continuous
 62
     7
370
    15
100
AcDbLine
 10
267.1864551895
 20
37.4490858418
 30
0.0
 11
267.1864551895
 21
37.3061911997
 31
0.0
  0
LINE
  5
173
330
1F
100
AcDbEntity
  8
0
  6
Continuous
 62
     7
370
    15
100
AcDbLine
 10
256.8823206629
 20
26.0446992413
 30
0.0
 11
258.4291167468
 21
25.151752869
 31
0.0
  0
LINE
  5
174
330
1F
100
AcDbEntity
  8
0
  6
Continuous
 62
     7
370
    15
100
AcDbLine
 10
269.9281821721
 20
45.0708767037
 30
0.0
 11
268.3813860882
 21
45.963823076
 31
0.0
  0
LINE
  5
175
330
1F
100
AcDbEntity
  8
0
  6
Continuous
 62
     7
370
    15
100
AcDbLine
 10
271.1797248728
 20
25.9671292799
 30
0.0
 11
271.2504240584
 21
26.00795632
 31
0.0
  0
LINE
  5
176
330
1F
100
AcDbEntity
  8
0
  6
Continuous
 62
     7
370
    15
100
AcDbLine
 10
275.5984239756
 20
33.5397291711
 30
0.0
 11
275.5984239756
 21
33.6213699823
 31
0.0
  0
LINE
  5
177
330
1F
100
AcDbEntity
  8
0
  6
Continuous
 62
     7
370
    15
100
AcDbLine
 10
262.1145635917
 20
29.0862033126
 30
0.0
 11
268.0542605537
 21
25.6572892429
 31
0.0
  0
LINE
  5
178
330
1F
100
AcDbEntity
  8
0
  6
Continuous
 62
     7
370
    15
100
AcDbLine
 10
274.3037526327
 20
36.4829000227
 30
0.0
 11
268.3640556707
 21
39.9118140924
 31
0.0
  0
LINE
  5
179
330
1F
100
AcDbEntity
  8
0
  6
Continuous
 62
     7
370
    15
100
AcDbLine
 10
265.535281294
 20
47.6068444011
 30
0.0
 11
263.2106677508
 21
48.9488152349
 31
0.0
  0
SPLINE
  5
17A
330
1F
100
AcDbEntity
  8
0
  6
Continuous
 62
     7
370
    15
100
AcDbSpline
210
0.0
220
0.0
230
1.0
 70
     8
 71
     3
 72
    32
 73
    28
 74
     0
 42
0.000000001
 43
0.00000001
 40
0.0
 40
0.0
 40
0.0
 40
0.0
 40
0.0132970383589684
 40
0.0541961783547128
 40
0.0951203563523326
 40
0.136233339377021
 40
0.1776535739262088
 40
0.2194283487219649
 40
0.2615373193166677
 40
0.3039146992356097
 40
0.3464776482147829
 40
0.3891488406214754
 40
0.4318680611684719
 40
0.4745882054991403
 40
0.5172861102423101
 40
0.5599527186028125
 40
0.6025859377209796
 40
0.6451879472234295
 40
0.6877634181997698
 40
0.7303184084986846
 40
0.7728597158645873
 40
0.8153945225429268
 40
0.8579302142853867
 40
0.9004724017612125
 40
0.9430280548463911
 40
0.9856047544744229
 40
1.0
 40
1.0
 40
1.0
 40
1.0
 10
263.1625711561226
 20
48.96643199179134
 30
0.0
 10
263.1102059898298
 20
48.99854075700184
 30
0.0
 10
262.8967756141806
 20
49.12940992644545
 30
0.0
 10
262.4838355376652
 20
49.29032547041488
 30
0.0
 10
261.9291076775608
 20
49.44621153716925
 30
0.0
 10
261.3430610082721
 20
49.52721251107459
 30
0.0
 10
260.7321151559272
 20
49.53883605591983
 30
0.0
 10
260.0986244801036
 20
49.47898370104142
 30
0.0
 10
259.4467599616866
 20
49.34798162120645
 30
0.0
 10
258.7809543707913
 20
49.14623291268537
 30
0.0
 10
258.1060959892149
 20
48.87506230914668
 30
0.0
 10
257.4271551236999
 20
48.53648951614325
 30
0.0
 10
256.7490538470275
 20
48.13317492371377
 30
0.0
 10
256.0765245287631
 20
47.66825819766979
 30
0.0
 10
255.4140813277301
 20
47.14524613815922
 30
0.0
 10
254.766011185434
 20
46.5679137723513
 30
0.0
 10
254.1364406083766
 20
45.94029836465585
 30
0.0
 10
253.5293604585788
 20
45.2666961899888
 30
0.0
 10
252.9486233161358
 20
44.55164827982811
 30
0.0
 10
252.3979249026096
 20
43.79992259407734
 30
0.0
 10
251.8808081124433
 20
43.01649386568887
 30
0.0
 10
251.4005614021154
 20
42.20651116002497
 30
0.0
 10
250.9605092278368
 20
41.37530312004014
 30
0.0
 10
250.5628503639144
 20
40.52825165612945
 30
0.0
 10
250.2128762123223
 20
39.67107295830016
 30
0.0
 10
249.9715337345174
 20
38.99904679622936
 30
0.0
 10
249.8570321932162
 20
38.61543241245253
 30
0.0
 10
249.8281007990774
 20
38.51850359552832
 30
0.0
  0
LINE
  5
17B
330
1F
100
AcDbEntity
  8
0
  6
Continuous
 62
     7
370
    15
100
AcDbLine
 10
256.4661675049
 20
47.9267285317
 30
0.0
 11
241.4185687441
 21
53.3492866589
 31
0.0
  0
LINE
  5
17C
330
1F
100
AcDbEntity
  8
0
  6
Continuous
 62
     7
370
    15
100
AcDbLine
 10
237.0030683488
 20
45.7005868808
 30
0.0
 11
251.38001672
 21
33.5608105287
 31
0.0
  0
LINE
  5
17D
330
1F
100
AcDbEntity
  8
0
  6
Continuous
 62
     7
370
    15
100
AcDbLine
 10
251.7116023255
 20
29.0296914001
 30
0.0
 11
254.0362158686
 21
27.6877205663
 31
0.0
  0
SPLINE
  5
17E
330
1F
100
AcDbEntity
  8
0
  6
Continuous
 62
     7
370
    15
100
AcDbSpline
210
0.0
220
0.0
230
1.0
 70
     8
 71
     3
 72
    13
 73
     9
 74
     0
 42
0.000000001
 43
0.00000001
 40
0.0
 40
0.0
 40
0.0
 40
0.0
 40
0.0719576996164671
 40
0.2753385738776465
 40
0.4774506042876392
 40
0.6777181190918039
 40
0.8762446690456239
 40
1.0
 40
1.0
 40
1.0
 40
1.0
 10
249.8083126348085
 20
31.227986028502
 30
0.0
 10
249.8393338990062
 20
31.15848224561096
 30
0.0
 10
249.9580335057139
 20
30.89253332614412
 30
0.0
 10
250.2038197002609
 20
30.46824539757198
 30
0.0
 10
250.5626831920929
 20
29.97945328550822
 30
0.0
 10
250.9719880679451
 20
29.557741880905
 30
0.0
 10
251.362878672914
 20
29.2362330000383
 30
0.0
 10
251.632538181107
 20
29.08438888224713
 30
0.0
 10
251.7360866697387
 20
29.02608117038395
 30
0.0
  0
SPLINE
  5
17F
330
1F
100
AcDbEntity
  8
0
  6
Continuous
 62
     7
370
    15
100
AcDbSpline
210
0.0
220
0.0
230
1.0
 70
     8
 71
     3
 72
    30
 73
    26
 74
     0
 42
0.000000001
 43
0.00000001
 40
0.0
 40
0.0
 40
0.0
 40
0.0
 40
0.0383492694244036
 40
0.0821098866017378
 40
0.1265527794306499
 40
0.1717012629738681
 40
0.2173372831483246
 40
0.2632012944501687
 40
0.3090974290606078
 40
0.3549423347855666
 40
0.4007235989249179
 40
0.4464527262114061
 40
0.4921513119255132
 40
0.5378448965330583
 40
0.5835566550402703
 40
0.6293094893257899
 40
0.6751315360997471
 40
0.721048965206304
 40
0.7616338221080481
 40
0.7859648759052628
 40
0.8320943149442626
 40
0.8782403051039976
 40
0.9241128347326831
 40
0.9693857418601544
 40
0.9999999999999999
 40
0.9999999999999999
 40
0.9999999999999999
 40
0.9999999999999999
 10
241.3634072978728
 20
53.36402172512937
 30
0.0
 10
241.2611146269831
 20
53.39275113602282
 30
0.0
 10
241.0420950802483
 20
53.45426387683907
 30
0.0
 10
240.6752147680952
 20
53.46228549787163
 30
0.0
 10
240.2763296479522
 20
53.40703196226485
 30
0.0
 10
239.861786410683
 20
53.27969644567034
 30
0.0
 10
239.4394594878439
 20
53.08401312912823
 30
0.0
 10
239.0170942583912
 20
52.82278268497338
 30
0.0
 10
238.6027566806745
 20
52.50136488174062
 30
0.0
 10
238.2038159470804
 20
52.12599204765246
 30
0.0
 10
237.8269796477452
 20
51.70358622222133
 30
0.0
 10
237.4784258155195
 20
51.24157810504425
 30
0.0
 10
237.1638816734352
 20
50.74790849052665
 30
0.0
 10
236.8885841519522
 20
50.23095004608761
 30
0.0
 10
236.6572114685272
 20
49.69939823651819
 30
0.0
 10
236.4738062139374
 20
49.16210853685875
 30
0.0
 10
236.3417394630756
 20
48.62793276483581
 30
0.0
 10
236.2667897109232
 20
48.12621809694885
 30
0.0
 10
236.2465293596566
 20
47.722270217209
 30
0.0
 10
236.2586754371745
 20
47.33402317092452
 30
0.0
 10
236.3088405781327
 20
46.94719725052255
 30
0.0
 10
236.426081998988
 20
46.52848552893033
 30
0.0
 10
236.6022670962703
 20
46.16180834840328
 30
0.0
 10
236.8025963018109
 20
45.87650079746033
 30
0.0
 10
236.9637008008163
 20
45.743862090875
 30
0.0
 10
237.028693276193
 20
45.69035323218414
 30
0.0
  0
LWPOLYLINE
  5
180
330
1F
100
AcDbEntity
  8
0
  6
Continuous
 62
     7
370
    15
100
AcDbPolyline
 90
       25
 70
   128
 43
0.0
 10
267.7672163739
 20
37.0817287315
 10
267.5606221646
 20
37.2371569913
 10
267.4307516153
 20
37.4181570335
 10
267.3864551895
 20
37.6123940042
 10
267.4307516153
 20
37.8066309749
 10
267.5606221646
 20
37.9876310171
 10
267.7672163739
 20
38.1430592769
 10
268.0364551895
 20
38.2623235753
 10
268.3499904309
 20
38.3372962476
 10
268.6864551895
 20
38.3628680299
 10
269.0229199481
 20
38.3372962476
 10
269.3364551895
 20
38.2623235753
 10
269.605694005
 20
38.1430592769
 10
269.8122882144
 20
37.9876310171
 10
269.9421587637
 20
37.8066309749
 10
269.9864551895
 20
37.6123940042
 10
269.9421587637
 20
37.4181570335
 10
269.8122882144
 20
37.2371569913
 10
269.605694005
 20
37.0817287315
 10
269.3364551895
 20
36.9624644331
 10
269.0229199481
 20
36.8874917608
 10
268.6864551895
 20
36.8619199785
 10
268.3499904309
 20
36.8874917608
 10
268.0364551895
 20
36.9624644331
 10
267.7672163739
 20
37.0817287315
  0
LWPOLYLINE
  5
181
330
1F
100
AcDbEntity
  8
0
  6
Continuous
 62
     7
370
    15
100
AcDbPolyline
 90
        8
 70
   128
 43
0.0
 10
267.6257950177
 20
36.836779758
 10
267.402783281
 20
37.0011066971
 10
267.2543738897
 20
37.1914685559
 10
267.1891918582
 20
37.3968021949
 10
267.2110253291
 20
37.6051743694
 10
267.3186054205
 20
37.804475246
 10
267.5056799686
 20
37.9831221823
 10
267.6256226726
 20
38.0612924168
  0
LWPOLYLINE
  5
182
330
1F
100
AcDbEntity
  8
0
  6
Continuous
 62
     7
370
    15
100
AcDbPolyline
 90
       14
 70
   128
 43
0.0
 10
269.7472877064
 20
38.0612924168
 10
269.9701270979
 20
37.8970649865
 10
270.1185364893
 20
37.7067031278
 10
270.1837185208
 20
37.5013694888
 10
270.1618850499
 20
37.2929973143
 10
270.0543049585
 20
37.0936964376
 10
269.8672304104
 20
36.9150495014
 10
269.6115334984
 20
36.7674388161
 10
269.3020743977
 20
36.6594429782
 10
268.9568377462
 20
36.5973383134
 10
268.5958874434
 20
36.5847341189
 10
268.2402006087
 20
36.6223629048
 10
267.9104484682
 20
36.7080378227
 10
267.6257950177
 20
36.836779758
  0
LWPOLYLINE
  5
183
330
1F
100
AcDbEntity
  8
0
  6
Continuous
 62
     7
370
    15
100
AcDbPolyline
 90
       21
 70
   128
 43
0.0
 10
268.067736756
 20
37.2552154553
 10
267.9068244808
 20
37.3830712594
 10
267.8222278915
 20
37.5333747716
 10
267.8222278915
 20
37.6914132368
 10
267.9068244808
 20
37.841716749
 10
268.067736756
 20
37.9695725531
 10
268.2892135022
 20
38.0624652323
 10
268.5495750326
 20
38.1113018038
 10
268.8233353464
 20
38.1113018038
 10
269.0836968768
 20
38.0624652323
 10
269.305173623
 20
37.9695725531
 10
269.4660858982
 20
37.841716749
 10
269.5506824875
 20
37.6914132368
 10
269.5506824875
 20
37.5333747716
 10
269.4660858982
 20
37.3830712594
 10
269.305173623
 20
37.2552154553
 10
269.0836968768
 20
37.1623227761
 10
268.8233353464
 20
37.1134862046
 10
268.5495750326
 20
37.1134862046
 10
268.2892135022
 20
37.1623227761
 10
268.067736756
 20
37.2552154553
  0
SPLINE
  5
184
330
1F
100
AcDbEntity
  8
0
  6
Continuous
 62
     7
370
    15
100
AcDbSpline
210
0.0
220
0.0
230
1.0
 70
     8
 71
     3
 72
     9
 73
     5
 74
     0
 42
0.000000001
 43
0.00000001
 40
0.0
 40
0.0
 40
0.0
 40
0.0
 40
0.6311775999676632
 40
1.0
 40
1.0
 40
1.0
 40
1.0
 10
268.1562093626902
 20
37.20643491414275
 30
0.0
 10
268.0887254406139
 20
37.25290237973064
 30
0.0
 10
267.9818079548227
 20
37.32652265014307
 30
0.0
 10
267.8854703517378
 20
37.43548326418283
 30
0.0
 10
267.8499388857546
 20
37.47567037936196
 30
0.0
  0
SPLINE
  5
185
330
1F
100
AcDbEntity
  8
0
  6
Continuous
 62
     7
370
    15
100
AcDbSpline
210
0.0
220
0.0
230
1.0
 70
     8
 71
     3
 72
    10
 73
     6
 74
     0
 42
0.000000001
 43
0.00000001
 40
0.0
 40
0.0
 40
0.0
 40
0.0
 40
0.4391165375904045
 40
0.7513669429073321
 40
1.0
 40
1.0
 40
1.0
 40
1.0
 10
269.5229714932302
 20
37.73446138088191
 30
0.0
 10
269.4908835705464
 20
37.62338553583619
 30
0.0
 10
269.4359783180514
 20
37.4333250143609
 30
0.0
 10
269.3561638361753
 20
37.29326813276825
 30
0.0
 10
269.3164377382327
 20
37.26436376487717
 30
0.0
 10
269.2988276251882
 20
37.25155079777486
 30
0.0
  0
SPLINE
  5
186
330
1F
100
AcDbEntity
  8
0
  6
Continuous
 62
     7
370
    15
100
AcDbSpline
210
0.0
220
0.0
230
1.0
 70
     8
 71
     3
 72
    11
 73
     7
 74
     0
 42
0.000000001
 43
0.00000001
 40
0.0
 40
0.0
 40
0.0
 40
0.0
 40
0.184364343849632
 40
0.5174526391740291
 40
0.8663352079125951
 40
0.9999999999999999
 40
0.9999999999999999
 40
0.9999999999999999
 40
0.9999999999999999
 10
268.9105990575344
 20
38.087976463229
 30
0.0
 10
268.946134188611
 20
38.04840950694742
 30
0.0
 10
269.0458701081225
 20
37.93735752409392
 30
0.0
 10
269.2316870131295
 20
37.79029629521918
 30
0.0
 10
269.4047025993906
 20
37.73813339982897
 30
0.0
 10
269.4973173625372
 20
37.73525789170498
 30
0.0
 10
269.5229714932302
 20
37.73446138088192
 30
0.0
  0
SPLINE
  5
187
330
1F
100
AcDbEntity
  8
0
  6
Continuous
 62
     7
370
    15
100
AcDbSpline
210
0.0
220
0.0
230
1.0
 70
     8
 71
     3
 72
    10
 73
     6
 74
     0
 42
0.000000001
 43
0.00000001
 40
0.0
 40
0.0
 40
0.0
 40
0.0
 40
0.4391165375904081
 40
0.751366942907335
 40
1.0
 40
1.0
 40
1.0
 40
1.0
 10
268.0740827537966
 20
37.95858096246901
 30
0.0
 10
268.1938365115617
 20
37.93516145372885
 30
0.0
 10
268.3987457034755
 20
37.89508861843312
 30
0.0
 10
268.6966174050172
 20
37.97306532955206
 30
0.0
 10
268.8448772209253
 20
38.05268291977217
 30
0.0
 10
268.9105990575344
 20
38.087976463229
 30
0.0
  0
SPLINE
  5
188
330
1F
100
AcDbEntity
  8
0
  6
Continuous
 62
     7
370
    15
100
AcDbSpline
210
0.0
220
0.0
230
1.0
 70
     8
 71
     3
 72
    10
 73
     6
 74
     0
 42
0.000000001
 43
0.00000001
 40
0.0
 40
0.0
 40
0.0
 40
0.0
 40
0.4391165375904058
 40
0.7513669429073397
 40
0.9999999999999999
 40
0.9999999999999999
 40
0.9999999999999999
 40
0.9999999999999999
 10
267.8499388857546
 20
37.47567037936196
 30
0.0
 10
267.8820268084384
 20
37.50285927998399
 30
0.0
 10
267.9369320609334
 20
37.54938187567916
 30
0.0
 10
268.0167465428095
 20
37.75324034024252
 30
0.0
 10
268.0564726407521
 20
37.89551311219108
 30
0.0
 10
268.0740827537966
 20
37.95858096246901
 30
0.0
  0
LINE
  5
189
330
1F
100
AcDbEntity
  8
0
  6
Continuous
 62
     7
370
    15
100
AcDbLine
 10
268.0740827538
 20
37.2700200106
 30
0.0
 11
268.0740827538
 21
37.9585809625
 31
0.0
  0
LINE
  5
18A
330
1F
100
AcDbEntity
  8
0
  6
Continuous
 62
     7
370
    15
100
AcDbLine
 10
268.9105990575
 20
37.1241217072
 30
0.0
 11
268.9105990575
 21
38.0879764632
 31
0.0
  0
ARC
  5
18B
330
1F
100
AcDbEntity
  8
0
  6
Continuous
 62
     7
370
    15
100
AcDbCircle
 10
259.349824442
 20
30.0044646257
 30
0.0
 40
4.665652880325657
100
AcDbArc
 50
193.8679353198
 51
238.0711532232
  0
SPLINE
  5
18C
330
1F
100
AcDbEntity
  8
0
  6
Continuous
 62
     7
370
    15
100
AcDbSpline
210
0.0
220
0.0
230
1.0
 70
     8
 71
     3
 72
    29
 73
    25
 74
     0
 42
0.000000001
 43
0.00000001
 40
0.0
 40
0.0
 40
0.0
 40
0.0
 40
0.0227703431572545
 40
0.0454410032927677
 40
0.0680340978352544
 40
0.0905719725563
 40
0.1130771376998851
 40
0.1355722016904878
 40
0.1580798033768699
 40
0.1806225438191841
 40
0.2032229186429297
 40
0.2259032519635706
 40
0.2486856328315024
 40
0.37440342998092
 40
0.4999236975978598
 40
0.5000033831470044
 40
0.62491547859338
 40
0.7509968892327752
 40
0.7926749797131527
 40
0.8340977989462387
 40
0.8754030632547732
 40
0.916729664752105
 40
0.9582162817868252
 40
0.9999999999999999
 40
0.9999999999999999
 40
0.9999999999999999
 40
0.9999999999999999
 10
254.8201523513898
 20
34.10307927262361
 30
0.0
 10
254.8362144250623
 20
34.05227851894578
 30
0.0
 10
254.8682682565573
 20
33.95089940492859
 30
0.0
 10
254.9132128211253
 20
33.79789230586548
 30
0.0
 10
254.9557735163426
 20
33.64472950090884
 30
0.0
 10
254.995794902486
 20
33.4913433150229
 30
0.0
 10
255.033397319632
 20
33.33779338380448
 30
0.0
 10
255.0686292697463
 20
33.18410799609494
 30
0.0
 10
255.1015602119597
 20
33.03032679804438
 30
0.0
 10
255.1322555943536
 20
32.87648841951828
 30
0.0
 10
255.1607840759478
 20
32.72263777625815
 30
0.0
 10
255.187213465105
 20
32.56880955686726
 30
0.0
 10
255.248321116745
 20
32.18392440995859
 30
0.0
 10
255.3188826767241
 20
31.57884666045511
 30
0.0
 10
255.339491812855
 20
31.06593682815434
 30
0.0
 10
255.3401344249068
 20
30.58603116342986
 30
0.0
 10
255.3197709903492
 20
30.13443374901499
 30
0.0
 10
255.2439497667405
 20
29.70074970483747
 30
0.0
 10
255.1666700867642
 20
29.43877909290793
 30
0.0
 10
255.1133291230402
 20
29.29751721088168
 30
0.0
 10
255.0525550384841
 20
29.17151405666677
 30
0.0
 10
254.9837444221599
 20
29.06088777405118
 30
0.0
 10
254.9072306081437
 20
28.96406459381012
 30
0.0
 10
254.8493025320332
 20
28.91217800098157
 30
0.0
 10
254.8202351528564
 20
28.88614214118425
 30
0.0
  0
LWPOLYLINE
  5
18D
330
1F
100
AcDbEntity
  8
0
  6
Continuous
 62
     7
370
    15
100
AcDbPolyline
 90
       25
 70
   128
 43
0.0
 10
254.8201523514
 20
34.1030792726
 10
255.0516002156
 20
35.0274310748
 10
255.3429414657
 20
35.9595010441
 10
255.6918741451
 20
36.8919246738
 10
256.0956412536
 20
37.8173346625
 10
256.5510525311
 20
38.7284191257
 10
257.0545096646
 20
39.6179793678
 10
257.6020347193
 20
40.4789867615
 10
258.1893015693
 20
41.3046382823
 10
258.8116700795
 20
42.0884102608
 10
259.4642227679
 20
42.824109928
 10
260.1418036603
 20
43.5059243454
 10
260.8390590286
 20
44.1284663351
 10
261.5504796922
 20
44.6868170444
 10
262.2704445468
 20
45.1765648113
 10
262.9932649786
 20
45.5938400221
 10
263.7132298113
 20
45.935345686
 10
264.4246504312
 20
46.1983834854
 10
265.1219057345
 20
46.3808750958
 10
265.7994865409
 20
46.4813786078
 10
266.4520391231
 20
46.499099919
 10
267.0744075078
 20
46.4338990092
 10
267.6616742139
 20
46.2862910462
 10
268.2091991075
 20
46.0574423159
 10
268.3813860882
 20
45.963823076
  0
LWPOLYLINE
  5
18E
330
1F
100
AcDbEntity
  8
0
  6
Continuous
 62
     7
370
    15
100
AcDbPolyline
 90
       40
 70
   128
 43
0.0
 10
256.0469214758
 20
30.4169681434
 10
256.0778651558
 20
31.2532430905
 10
256.1704606957
 20
32.1188802927
 10
256.3240033877
 20
33.0072917284
 10
256.537324679
 20
33.9117160499
 10
256.8088010658
 20
34.8252700422
 10
257.1363664489
 20
35.7410010077
 10
257.517527858
 20
36.6519396808
 10
257.9493844246
 20
37.5511532683
 10
258.4286494594
 20
38.4317982117
 10
258.9516754662
 20
39.2871722712
 10
259.5144819012
 20
40.1107655338
 10
260.1127854676
 20
40.8963099575
 10
260.742032714
 20
41.6378270749
 10
261.397434689
 20
42.3296734929
 10
262.0740033877
 20
42.9665838427
 10
262.7665897138
 20
43.5437108517
 10
263.4699226672
 20
44.0566622351
 10
264.1786494594
 20
44.501534123
 10
264.8873762517
 20
44.8749407719
 10
265.5907092051
 20
45.1740403315
 10
266.2832955312
 20
45.3965564737
 10
266.9598642299
 20
45.5407957162
 10
267.6152662048
 20
45.6056603114
 10
268.2445134513
 20
45.5906566005
 10
268.8428170177
 20
45.4958987708
 10
269.4056234527
 20
45.3221079866
 10
269.9286494594
 20
45.0706069006
 10
270.4079144943
 20
44.7433095881
 10
270.8397710608
 20
44.3427069792
 10
271.2209324699
 20
43.8718479017
 10
271.5484978531
 20
43.3343158774
 10
271.8199742399
 20
42.7342018496
 10
272.0332955312
 20
42.0760730484
 10
272.1868382231
 20
41.3649382314
 10
272.2794337631
 20
40.6062095639
 10
272.3103774431
 20
39.8056614293
 10
272.2794337631
 20
38.9693864822
 10
272.1868382231
 20
38.10374928
 10
272.130471363
 20
37.7375085946
  0
LWPOLYLINE
  5
18F
330
1F
100
AcDbEntity
  8
0
  6
Continuous
 62
     7
370
    15
100
AcDbPolyline
 90
       22
 70
   128
 43
0.0
 10
265.880979284
 20
26.9118978148
 10
265.5907092051
 20
26.678918721
 10
264.8873762517
 20
26.1659673376
 10
264.1786494594
 20
25.7210954497
 10
263.4699226672
 20
25.3476888008
 10
262.7665897138
 20
25.0485892412
 10
262.0740033877
 20
24.826073099
 10
261.397434689
 20
24.6818338565
 10
260.742032714
 20
24.6169692613
 10
260.1127854676
 20
24.6319729722
 10
259.5144819012
 20
24.7267308019
 10
258.9516754662
 20
24.9005215861
 10
258.4286494594
 20
25.1520226721
 10
257.9493844246
 20
25.4793199846
 10
257.517527858
 20
25.8799225935
 10
257.1363664489
 20
26.350781671
 10
256.8088010658
 20
26.8883136953
 10
256.537324679
 20
27.4884277231
 10
256.3240033877
 20
28.1465565243
 10
256.1704606957
 20
28.8576913413
 10
256.0778651558
 20
29.6164200088
 10
256.0469214758
 20
30.4169681434
  0
LWPOLYLINE
  5
190
330
1F
100
AcDbEntity
  8
0
  6
Continuous
 62
     7
370
    15
100
AcDbPolyline
 90
       54
 70
   128
 43
0.0
 10
266.901010567
 20
28.5188192834
 10
266.9315337218
 20
29.1303753823
 10
267.0226747081
 20
29.7685878586
 10
267.1731541062
 20
30.424497608
 10
267.3808595152
 20
31.0888970954
 10
267.6428752064
 20
31.7524596085
 10
267.9555230539
 20
32.4058701841
 10
268.3144141673
 20
33.03995637
 10
268.714510502
 20
33.6458169861
 10
269.1501955825
 20
34.2149470773
 10
269.6153533453
 20
34.7393573049
 10
270.103453995
 20
35.2116860986
 10
270.6076456685
 20
35.6253029976
 10
271.1208506199
 20
35.9744017273
 10
271.6358645766
 20
36.2540817067
 10
272.1454578716
 20
36.4604168421
 10
272.642476932
 20
36.5905106403
 10
273.1199446997
 20
36.6425368697
 10
273.571158574
 20
36.615765196
 10
273.989784501
 20
36.5105714349
 10
274.3699458904
 20
36.3284322761
 10
274.7063061096
 20
36.0719045542
 10
274.9941433985
 20
35.7445893561
 10
275.2294171524
 20
35.3510814697
 10
275.4088246436
 20
34.8969048831
 10
275.5298473842
 20
34.38843524
 10
275.5907864801
 20
33.8328103398
 10
275.5907864801
 20
33.2378299379
 10
275.5298473842
 20
32.611846255
 10
275.4088246436
 20
31.96364673
 10
275.2294171524
 20
31.3023306631
 10
274.9941433985
 20
30.6371814825
 10
274.7063061096
 20
29.9775364245
 10
274.3699458904
 20
29.3326554598
 10
273.989784501
 20
28.7115913035
 10
273.571158574
 20
28.1230623352
 10
273.1199446997
 20
27.5753302112
 10
272.642476932
 20
27.0760838901
 10
272.1454578716
 20
26.6323316959
 10
271.6358645766
 20
26.2503029366
 10
271.1208506199
 20
25.9353604585
 10
270.6076456685
 20
25.6919253638
 10
270.103453995
 20
25.5234149475
 10
269.6153533453
 20
25.4321947265
 10
269.1501955825
 20
25.4195452328
 10
268.714510502
 20
25.4856440374
 10
268.3144141673
 20
25.6295632581
 10
267.9555230539
 20
25.8492825845
 10
267.6428752064
 20
26.1417176389
 10
267.3808595152
 20
26.5027632742
 10
267.1731541062
 20
26.927351201
 10
267.0226747081
 20
27.4095211355
 10
266.9315337218
 20
27.9425044689
 10
266.901010567
 20
28.5188192834
  0
LWPOLYLINE
  5
191
330
1F
100
AcDbEntity
  8
0
  6
Continuous
 62
     7
370
    15
100
AcDbPolyline
 90
       28
 70
   128
 43
0.0
 10
266.7595892108
 20
28.5188192834
 10
266.790608677
 20
29.1403193839
 10
266.8832316306
 20
29.7889092988
 10
267.0361578481
 20
30.4554842474
 10
267.2472405808
 20
31.1306869786
 10
267.5135166898
 20
31.805039126
 10
267.8312482422
 20
32.4690742638
 10
268.1959749834
 20
33.1134707942
 10
268.6025769496
 20
33.7291828024
 10
269.0453463403
 20
34.3075670415
 10
269.518067644
 20
34.8405042646
 10
270.0141048897
 20
35.3205132013
 10
270.5264948018
 20
35.7408555783
 10
271.0480445491
 20
36.0956307101
 10
271.5714327165
 20
36.3798583315
 10
272.0893120812
 20
36.5895485097
 10
272.5944127524
 20
36.7217576543
 10
273.0796442237
 20
36.7746298386
 10
273.5381949089
 20
36.7474228532
 10
273.9636277615
 20
36.6405186243
 10
274.349970637
 20
36.4554178532
 10
274.691800128
 20
36.1947189488
 10
274.984317698
 20
35.8620815524
 10
275.2234170415
 20
35.4621751638
 10
275.4057417276
 20
35.000613592
 10
275.5287323177
 20
34.4838761499
 10
275.5906622932
 20
33.9192166984
 10
275.5984239756
 20
33.6213699823
  0
LWPOLYLINE
  5
192
330
1F
100
AcDbEntity
  8
0
  6
Continuous
 62
     7
370
    15
100
AcDbPolyline
 90
       15
 70
   128
 43
0.0
 10
271.1797248728
 20
25.9671292799
 10
271.0480445491
 20
25.893352998
 10
270.5264948018
 20
25.645959609
 10
270.0141048897
 20
25.4747091859
 10
269.518067644
 20
25.3820057093
 10
269.0453463403
 20
25.3691505327
 10
268.6025769496
 20
25.4363241147
 10
268.1959749834
 20
25.5825834854
 10
267.8312482422
 20
25.8058754837
 10
267.5135166898
 20
26.1030655797
 10
267.2472405808
 20
26.4699818757
 10
267.0361578481
 20
26.9014736712
 10
266.8832316306
 20
27.3914837673
 10
266.790608677
 20
27.9331334963
 10
266.7595892108
 20
28.5188192834
  0
SPLINE
  5
193
330
1F
100
AcDbEntity
  8
0
  6
Continuous
 62
     7
370
    15
100
AcDbSpline
210
0.0
220
0.0
230
1.0
 70
     8
 71
     3
 72
    38
 73
    34
 74
     0
 42
0.000000001
 43
0.00000001
 40
0.0
 40
0.0
 40
0.0
 40
0.0
 40
0.0625
 40
0.0625
 40
0.1250000000000001
 40
0.1250000000000001
 40
0.1875000000000001
 40
0.1875000000000001
 40
0.2500000000000001
 40
0.2500000000000001
 40
0.3125
 40
0.3125
 40
0.375
 40
0.375
 40
0.4374999999999999
 40
0.4374999999999999
 40
0.4999999999999999
 40
0.4999999999999999
 40
0.5624999999999999
 40
0.5624999999999999
 40
0.6249999999999999
 40
0.6249999999999999
 40
0.6875
 40
0.6875
 40
0.75
 40
0.75
 40
0.8125
 40
0.8125
 40
0.875
 40
0.875
 40
0.9375000000000001
 40
0.9375000000000001
 40
1.0
 40
1.0
 40
1.0
 40
1.0
 10
270.0122804042172
 20
36.84701139936835
 30
0.0
 10
269.9306275348166
 20
36.79987420120687
 30
0.0
 10
269.8387504394094
 20
36.7555858965724
 30
0.0
 10
269.639515258672
 20
36.67550424988999
 30
0.0
 10
269.5344895356359
 20
36.64051508740663
 30
0.0
 10
269.3143503021361
 20
36.58069416733663
 30
0.0
 10
269.2000153165429
 20
36.55623563389593
 30
0.0
 10
268.9712655694769
 20
36.51999442142852
 30
0.0
 10
268.8545792127616
 20
36.50786646475191
 30
0.0
 10
268.6250448490675
 20
36.49694967125547
 30
0.0
 10
268.5122630715182
 20
36.49801127920865
 30
0.0
 10
268.2902664941706
 20
36.51365688648898
 30
0.0
 10
268.1811889353293
 20
36.52840523416005
 30
0.0
 10
267.9740816205001
 20
36.57104959098451
 30
0.0
 10
267.875002270715
 20
36.59898694828521
 30
0.0
 10
267.6857694548349
 20
36.66883012254181
 30
0.0
 10
267.5968618015249
 20
36.71041096396016
 30
0.0
 10
267.4340047880538
 20
36.80482679088276
 30
0.0
 10
267.3593915251877
 20
36.85789663791894
 30
0.0
 10
267.2243276710404
 20
36.97597343041193
 30
0.0
 10
267.1651504947653
 20
37.03999757387364
 30
0.0
 10
267.0652240180123
 20
37.17508321115066
 30
0.0
 10
267.0240957858359
 20
37.24646003791171
 30
0.0
 10
266.9608571983144
 20
37.39647102731887
 30
0.0
 10
266.9395437236867
 20
37.47345497438297
 30
0.0
 10
266.9184688018156
 20
37.62810453516247
 30
0.0
 10
266.9185296656202
 20
37.70611714801939
 30
0.0
 10
266.9427492356749
 20
37.86242828627569
 30
0.0
 10
266.9665443108998
 20
37.93792640203949
 30
0.0
 10
267.0379840897762
 20
38.08145502279418
 30
0.0
 10
267.0864238201891
 20
38.15043638599276
 30
0.0
 10
267.2074195985529
 20
38.27539533175892
 30
0.0
 10
267.2786128973596
 20
38.33042915806708
 30
0.0
 10
267.3606299747676
 20
38.37777660903593
 30
0.0
  0
SPLINE
  5
194
330
1F
100
AcDbEntity
  8
0
  6
Continuous
 62
     7
370
    15
100
AcDbSpline
210
0.0
220
0.0
230
1.0
 70
     8
 71
     3
 72
    34
 73
    30
 74
     0
 42
0.000000001
 43
0.00000001
 40
0.0
 40
0.0
 40
0.0
 40
0.0
 40
0.0624999999999998
 40
0.0624999999999998
 40
0.1249999999999996
 40
0.1249999999999996
 40
0.2499999999999984
 40
0.2499999999999984
 40
0.3749999999999972
 40
0.3749999999999972
 40
0.4374999999999976
 40
0.4374999999999976
 40
0.4999999999999978
 40
0.4999999999999978
 40
0.5624999999999981
 40
0.5624999999999981
 40
0.6249999999999983
 40
0.6249999999999983
 40
0.6874999999999987
 40
0.6874999999999987
 40
0.7499999999999989
 40
0.7499999999999989
 40
0.8124999999999991
 40
0.8124999999999991
 40
0.8749999999999993
 40
0.8749999999999993
 40
0.9374999999999997
 40
0.9374999999999997
 40
1.0
 40
1.0
 40
1.0
 40
1.0
 10
267.3606299747676
 20
38.37777660903593
 30
0.0
 10
267.4426731232911
 20
38.42513911053933
 30
0.0
 10
267.5360101560308
 20
38.46452545362548
 30
0.0
 10
267.7338976734302
 20
38.52360062075699
 30
0.0
 10
267.8409696324906
 20
38.54417612956153
 30
0.0
 10
268.1717425136396
 20
38.57898545352504
 30
0.0
 10
268.4061641205803
 20
38.5670756020158
 30
0.0
 10
268.8686082120033
 20
38.49355126506587
 30
0.0
 10
269.0888959501627
 20
38.43430318214036
 30
0.0
 10
269.4025512421914
 20
38.32223635315668
 30
0.0
 10
269.5014370178728
 20
38.28187204012195
 30
0.0
 10
269.6885489785215
 20
38.19610948394498
 30
0.0
 10
269.7772453232951
 20
38.15042853686686
 30
0.0
 10
269.9413869704169
 20
38.05527060494444
 30
0.0
 10
270.0156331359987
 20
38.00655888423586
 30
0.0
 10
270.1488751712717
 20
37.90668111965725
 30
0.0
 10
270.2082337611232
 20
37.85513587895844
 30
0.0
 10
270.3088577370797
 20
37.75044197786069
 30
0.0
 10
270.3496019196118
 20
37.69798980953967
 30
0.0
 10
270.4118548511591
 20
37.59177219070874
 30
0.0
 10
270.4334640818766
 20
37.53750511907
 30
0.0
 10
270.4545787136361
 20
37.4285083868734
 30
0.0
 10
270.454169946686
 20
37.37444582713211
 30
0.0
 10
270.4303864617021
 20
37.26579349073923
 30
0.0
 10
270.4064610741185
 20
37.21043114053334
 30
0.0
 10
270.3343219422882
 20
37.10192171714182
 30
0.0
 10
270.286701578115
 20
37.04904822023283
 30
0.0
 10
270.1670075253237
 20
36.94532410586221
 30
0.0
 10
270.0939592289608
 20
36.89416358123043
 30
0.0
 10
270.0122804042172
 20
36.84701139936835
 30
0.0
  0
LWPOLYLINE
  5
195
330
1F
100
AcDbEntity
  8
0
  6
Continuous
 62
     7
370
    15
100
AcDbPolyline
 90
       49
 70
   128
 43
0.0
 10
267.6257950177
 20
28.9372284407
 10
267.656798175
 20
29.5013484926
 10
267.7492771741
 20
30.0916117775
 10
267.9016496738
 20
30.6979187268
 10
268.1113085384
 20
31.3098952607
 10
268.3746664465
 20
31.9170702908
 10
268.6872172713
 20
32.5090548842
 10
269.0436131816
 20
33.0757200202
 10
269.4377561445
 20
33.6073699014
 10
269.8629022647
 20
34.0949078507
 10
270.3117771741
 20
34.5299919589
 10
270.7767004986
 20
34.905177816
 10
271.2497172713
 20
35.2140458882
 10
271.722734044
 20
35.4513113569
 10
272.1876573685
 20
35.6129145444
 10
272.6365322779
 20
35.6960903752
 10
273.0616783981
 20
35.6994156879
 10
273.455821361
 20
35.6228335853
 10
273.8122172713
 20
35.4676544086
 10
274.1247680961
 20
35.2365333164
 10
274.3881260042
 20
34.9334248547
 10
274.5977848688
 20
34.5635152934
 10
274.7501573685
 20
34.1331338875
 10
274.8426363676
 20
33.6496445823
 10
274.8736395249
 20
33.1213200138
 10
274.8426363676
 20
32.5571999619
 10
274.7501573685
 20
31.966936677
 10
274.5977848688
 20
31.3606297276
 10
274.3881260042
 20
30.7486531938
 10
274.1247680961
 20
30.1414781637
 10
273.8122172713
 20
29.5494935703
 10
273.455821361
 20
28.9828284343
 10
273.0616783981
 20
28.4511785531
 10
272.6365322779
 20
27.9636406037
 10
272.1876573685
 20
27.5285564956
 10
271.722734044
 20
27.1533706385
 10
271.2497172713
 20
26.8445025663
 10
270.7767004986
 20
26.6072370975
 10
270.3117771741
 20
26.4456339101
 10
269.8629022647
 20
26.3624580792
 10
269.4377561445
 20
26.3591327666
 10
269.0436131816
 20
26.4357148691
 10
268.6872172713
 20
26.5908940459
 10
268.3746664465
 20
26.8220151381
 10
268.1113085384
 20
27.1251235998
 10
267.9016496738
 20
27.4950331611
 10
267.7492771741
 20
27.925414567
 10
267.656798175
 20
28.4089038722
 10
267.6257950177
 20
28.9372284407
  0
ARC
  5
196
330
1F
100
AcDbEntity
  8
0
  6
Continuous
 62
     7
370
    15
100
AcDbCircle
 10
272.0962230198
 20
29.4260374219
 30
0.0
 40
4.34214683048804
100
AcDbArc
 50
152.8222804837
 51
207.1777195163
  0
SPLINE
  5
197
330
1F
100
AcDbEntity
  8
0
  6
Continuous
 62
     7
370
    15
100
AcDbSpline
210
0.0
220
0.0
230
1.0
 70
     8
 71
     3
 72
    22
 73
    18
 74
     0
 42
0.000000001
 43
0.00000001
 40
0.0
 40
0.0
 40
0.0
 40
0.0
 40
0.1250000000000001
 40
0.1250000000000001
 40
0.2500000000000003
 40
0.2500000000000003
 40
0.3750000000000004
 40
0.3750000000000004
 40
0.5000000000000006
 40
0.5000000000000006
 40
0.6250000000000007
 40
0.6250000000000007
 40
0.7500000000000004
 40
0.7500000000000004
 40
0.8750000000000003
 40
0.8750000000000003
 40
1.0
 40
1.0
 40
1.0
 40
1.0
 10
269.1820673569107
 20
26.81368516213577
 30
0.0
 10
269.1350296831268
 20
26.76645699218972
 30
0.0
 10
269.0865489179457
 20
26.72821707398943
 30
0.0
 10
268.9870923337803
 20
26.66961104899199
 30
0.0
 10
268.935491600543
 20
26.64921115147625
 30
0.0
 10
268.8340522708247
 20
26.62891728263733
 30
0.0
 10
268.7840201496076
 20
26.62864470854327
 30
0.0
 10
268.6855710606079
 20
26.64842817282928
 30
0.0
 10
268.6376802604759
 20
26.66865012338569
 30
0.0
 10
268.5482962561351
 20
26.72786950922214
 30
0.0
 10
268.5058111238679
 20
26.76751008402994
 30
0.0
 10
268.4284578844168
 20
26.86425127267064
 30
0.0
 10
268.3939024991238
 20
26.92063047735776
 30
0.0
 10
268.3326439529795
 20
27.04903115633901
 30
0.0
 10
268.3061052428598
 20
27.12121535972147
 30
0.0
 10
268.2629985511736
 20
27.27427855700194
 30
0.0
 10
268.2460232753564
 20
27.3559257579985
 30
0.0
 10
268.2334750060654
 20
27.44275305506593
 30
0.0
  0
SPLINE
  5
198
330
1F
100
AcDbEntity
  8
0
  6
Continuous
 62
     7
370
    15
100
AcDbSpline
210
0.0
220
0.0
230
1.0
 70
     8
 71
     3
 72
     8
 73
     4
 74
     0
 42
0.000000001
 43
0.00000001
 40
0.0
 40
0.0
 40
0.0
 40
0.0
 40
1.0
 40
1.0
 40
1.0
 40
1.0
 10
269.2827118970274
 20
26.91334237417024
 30
0.0
 10
269.2487943463294
 20
26.88023024654432
 30
0.0
 10
269.2152560881527
 20
26.84700830321183
 30
0.0
 10
269.1820673569107
 20
26.81368516213577
 30
0.0
  0
LWPOLYLINE
  5
199
330
1F
100
AcDbEntity
  8
0
  6
Continuous
 62
     7
370
    15
100
AcDbPolyline
 90
        9
 70
   128
 43
0.0
 10
272.898524594
 20
29.0007066134
 10
272.4812284634
 20
28.4900514037
 10
272.0344194297
 20
28.0352353325
 10
271.5675801155
 20
27.6459109554
 10
271.0906182455
 20
27.3303408988
 10
270.6136563756
 20
27.0952225021
 10
270.1468170613
 20
26.9455456799
 10
269.7000080277
 20
26.8844870215
 10
269.282711897
 20
26.9133423742
  0
SPLINE
  5
19A
330
1F
100
AcDbEntity
  8
0
  6
Continuous
 62
     7
370
    15
100
AcDbSpline
210
0.0
220
0.0
230
1.0
 70
     8
 71
     3
 72
     8
 73
     4
 74
     0
 42
0.000000001
 43
0.00000001
 40
0.0
 40
0.0
 40
0.0
 40
0.0
 40
1.0
 40
1.0
 40
1.0
 40
1.0
 10
273.0711546534368
 20
29.05880746964822
 30
0.0
 10
273.0134232481241
 20
29.03964544146354
 30
0.0
 10
272.9558747569621
 20
29.02028408836458
 30
0.0
 10
272.8985245940259
 20
29.00070661335039
 30
0.0
  0
SPLINE
  5
19B
330
1F
100
AcDbEntity
  8
0
  6
Continuous
 62
     7
370
    15
100
AcDbSpline
210
0.0
220
0.0
230
1.0
 70
     8
 71
     3
 72
    22
 73
    18
 74
     0
 42
0.000000001
 43
0.00000001
 40
0.0
 40
0.0
 40
0.0
 40
0.0
 40
0.1250000000000002
 40
0.1250000000000002
 40
0.2500000000000004
 40
0.2500000000000004
 40
0.3750000000000006
 40
0.3750000000000006
 40
0.5000000000000004
 40
0.5000000000000004
 40
0.6250000000000004
 40
0.6250000000000004
 40
0.7500000000000002
 40
0.7500000000000002
 40
0.8750000000000001
 40
0.8750000000000001
 40
1.0
 40
1.0
 40
1.0
 40
1.0
 10
274.0269057888013
 20
30.7872294567575
 30
0.0
 10
274.0486374427646
 20
30.70570144233917
 30
0.0
 10
274.0618087823514
 20
30.6217839786649
 30
0.0
 10
274.071313199584
 20
30.4490533585798
 30
0.0
 10
274.0674092490265
 20
30.35914635384354
 30
0.0
 10
274.0422742140506
 20
30.18123235339852
 30
0.0
 10
274.0212936675155
 20
30.09288472943661
 30
0.0
 10
273.9621042199654
 20
29.91737695959263
 30
0.0
 10
273.923997388048
 20
29.83118965118477
 30
0.0
 10
273.8339550795387
 20
29.66838678806253
 30
0.0
 10
273.7810224129253
 20
29.58996884996605
 30
0.0
 10
273.6631026859575
 20
29.44525372247087
 30
0.0
 10
273.5988344719408
 20
29.37950221068876
 30
0.0
 10
273.459825840314
 20
29.26095867103766
 30
0.0
 10
273.3850607718238
 20
29.20849027521692
 30
0.0
 10
273.2320530432923
 20
29.12138263190608
 30
0.0
 10
273.1529632688762
 20
29.08596113040372
 30
0.0
 10
273.0711546534368
 20
29.05880746964822
 30
0.0
  0
ARC
  5
19C
330
1F
100
AcDbEntity
  8
0
  6
Continuous
 62
     7
370
    15
100
AcDbCircle
 10
270.1641577751
 20
32.7705138236
 30
0.0
 40
4.342146830487485
100
AcDbArc
 50
332.8222804837
 51
27.1777195163
  0
SPLINE
  5
19D
330
1F
100
AcDbEntity
  8
0
  6
Continuous
 62
     7
370
    15
100
AcDbSpline
210
0.0
220
0.0
230
1.0
 70
     8
 71
     3
 72
    22
 73
    18
 74
     0
 42
0.000000001
 43
0.00000001
 40
0.0
 40
0.0
 40
0.0
 40
0.0
 40
0.1250000000000001
 40
0.1250000000000001
 40
0.2500000000000003
 40
0.2500000000000003
 40
0.3750000000000004
 40
0.3750000000000004
 40
0.5000000000000006
 40
0.5000000000000006
 40
0.6250000000000007
 40
0.6250000000000007
 40
0.7500000000000004
 40
0.7500000000000004
 40
0.8750000000000003
 40
0.8750000000000003
 40
1.0
 40
1.0
 40
1.0
 40
1.0
 10
273.0711546534368
 20
35.38699876176278
 30
0.0
 10
273.1529651076649
 20
35.41415303284331
 30
0.0
 10
273.2321238851346
 20
35.43468291151824
 30
0.0
 10
273.3853776720078
 20
35.46223247244786
 30
0.0
 10
273.4602824052247
 20
35.46917925713291
 30
0.0
 10
273.598959417702
 20
35.46797626928859
 30
0.0
 10
273.66314637859
 20
35.46007742837405
 30
0.0
 10
273.7810189630087
 20
35.42908101885695
 30
0.0
 10
273.8339635903081
 20
35.40594155597778
 30
0.0
 10
273.9240010663597
 20
35.34634492895243
 30
0.0
 10
273.962098911879
 20
35.30923708087359
 30
0.0
 10
274.0213098631157
 20
35.2229692122882
 30
0.0
 10
274.0423187606314
 20
35.17441022853687
 30
0.0
 10
274.0674612176007
 20
35.06685892404494
 30
0.0
 10
274.0713079537343
 20
35.00777451840761
 30
0.0
 10
274.0617914817208
 20
34.88509002690201
 30
0.0
 10
274.0486369409064
 20
34.82083639881431
 30
0.0
 10
274.0269057888013
 20
34.75379819049617
 30
0.0
  0
SPLINE
  5
19E
330
1F
100
AcDbEntity
  8
0
  6
Continuous
 62
     7
370
    15
100
AcDbSpline
210
0.0
220
0.0
230
1.0
 70
     8
 71
     3
 72
     8
 73
     4
 74
     0
 42
0.000000001
 43
0.00000001
 40
0.0
 40
0.0
 40
0.0
 40
0.0
 40
1.0
 40
1.0
 40
1.0
 40
1.0
 10
272.8985245940259
 20
35.32889790546496
 30
0.0
 10
272.9558826962906
 20
35.34847809070692
 30
0.0
 10
273.0134310255499
 20
35.36783931503708
 30
0.0
 10
273.0711546534368
 20
35.38699876176278
 30
0.0
  0
LWPOLYLINE
  5
19F
330
1F
100
AcDbEntity
  8
0
  6
Continuous
 62
     7
370
    15
100
AcDbPolyline
 90
        9
 70
   128
 43
0.0
 10
269.282711897
 20
33.2415336663
 10
269.7000080277
 20
33.752188876
 10
270.1468170613
 20
34.2070049472
 10
270.6136563756
 20
34.5963293242
 10
271.0906182455
 20
34.9118993808
 10
271.5675801155
 20
35.1470177776
 10
272.0344194297
 20
35.2966945998
 10
272.4812284634
 20
35.3577532581
 10
272.898524594
 20
35.3288979055
  0
SPLINE
  5
1A0
330
1F
100
AcDbEntity
  8
0
  6
Continuous
 62
     7
370
    15
100
AcDbSpline
210
0.0
220
0.0
230
1.0
 70
     8
 71
     3
 72
     8
 73
     4
 74
     0
 42
0.000000001
 43
0.00000001
 40
0.0
 40
0.0
 40
0.0
 40
0.0
 40
1.0
 40
1.0
 40
1.0
 40
1.0
 10
269.1820673569107
 20
33.14187645425033
 30
0.0
 10
269.2152605598553
 20
33.17520408513879
 30
0.0
 10
269.2487990410904
 20
33.20842612193563
 30
0.0
 10
269.2827118970274
 20
33.24153366628479
 30
0.0
  0
SPLINE
  5
1A1
330
1F
100
AcDbEntity
  8
0
  6
Continuous
 62
     7
370
    15
100
AcDbSpline
210
0.0
220
0.0
230
1.0
 70
     8
 71
     3
 72
    22
 73
    18
 74
     0
 42
0.000000001
 43
0.00000001
 40
0.0
 40
0.0
 40
0.0
 40
0.0
 40
0.1250000000000002
 40
0.1250000000000002
 40
0.2500000000000004
 40
0.2500000000000004
 40
0.3750000000000007
 40
0.3750000000000007
 40
0.5000000000000006
 40
0.5000000000000006
 40
0.6250000000000004
 40
0.6250000000000004
 40
0.7500000000000003
 40
0.7500000000000003
 40
0.8750000000000002
 40
0.8750000000000002
 40
1.0
 40
1.0
 40
1.0
 40
1.0
 10
268.2334750060654
 20
31.40932178880459
 30
0.0
 10
268.2460235651456
 20
31.47106025746529
 30
0.0
 10
268.2630088065
 20
31.53756869752367
 30
0.0
 10
268.306197277692
 20
31.67988036060698
 30
0.0
 10
268.3328134188033
 20
31.75667589682202
 30
0.0
 10
268.3939680234568
 20
31.9137962422975
 30
0.0
 10
268.4284799240238
 20
31.99433238184891
 30
0.0
 10
268.5058033075566
 20
32.15937165327837
 30
0.0
 10
268.5483003235574
 20
32.24302456236111
 30
0.0
 10
268.637688293613
 20
32.4062051670322
 30
0.0
 10
268.6855690042267
 20
32.48753953724926
 30
0.0
 10
268.7840558170743
 20
32.64347304727605
 30
0.0
 10
268.8341523892403
 20
32.71740567375866
 30
0.0
 10
268.9358168084317
 20
32.85750756836624
 30
0.0
 10
268.9873029101748
 20
32.92341462564013
 30
0.0
 10
269.0865899606825
 20
33.04153455625903
 30
0.0
 10
269.1350307403553
 20
33.09464934581441
 30
0.0
 10
269.1820673569107
 20
33.14187645425033
 30
0.0
  0
LWPOLYLINE
  5
1A2
330
1F
100
AcDbEntity
  8
0
  6
Continuous
 62
     7
370
    15
100
AcDbPolyline
 90
       27
 70
   128
 43
0.0
 10
271.4160430603
 20
34.9641508634
 10
271.6539243173
 20
34.9435266175
 10
271.970172632
 20
34.8477192098
 10
272.2459161571
 20
34.6760450269
 10
272.4746916979
 20
34.4325279662
 10
272.6511369497
 20
34.1228758612
 10
272.7711161854
 20
33.7543466947
 10
272.8318171933
 20
33.3355784782
 10
272.8318171933
 20
32.8763867835
 10
272.7711161854
 20
32.387534675
 10
272.6511369497
 20
31.8804804316
 10
272.4746916979
 20
31.3671089751
 10
272.2459161571
 20
30.8594532973
 10
271.970172632
 20
30.369412417
 10
271.6539243173
 20
29.9084724772
 10
271.3045838052
 20
29.4874375192
 10
270.9303393415
 20
29.1161762458
 10
270.5399628991
 20
28.8033907064
 10
270.1426045709
 20
28.5564123291
 10
269.7475780994
 20
28.3810300776
 10
269.3641425702
 20
28.2813547633
 10
269.0012853872
 20
28.259722691
 10
268.6675116152
 20
28.3166408983
 10
268.3706446286
 20
28.4507752705
 10
268.1176427378
 20
28.6589818116
 10
267.9144360927
 20
28.9363803369
 10
267.7697651119
 20
29.264377785
  0
LINE
  5
1A3
330
1F
100
AcDbEntity
  8
0
  6
Continuous
 62
     7
370
    15
100
AcDbLine
 10
268.2975464598
 20
27.3243082071
 30
0.0
 11
269.5405293481
 21
28.0418669548
 31
0.0
  0
LINE
  5
1A4
330
1F
100
AcDbEntity
  8
0
  6
Continuous
 62
     7
370
    15
100
AcDbLine
 10
273.1388054995
 20
35.2664875746
 30
0.0
 11
273.1405647528
 21
35.3870662413
 31
0.0
  0
ARC
  5
1A5
330
1F
100
AcDbEntity
  8
0
  6
Continuous
 62
     7
370
    15
100
AcDbCircle
 10
269.2760574857
 20
33.2832032078
 30
0.0
 40
4.342146830488041
100
AcDbArc
 50
332.8222804837
 51
27.1777195163
  0
ARC
  5
1A6
330
1F
100
AcDbEntity
  8
0
  6
Continuous
 62
     7
370
    15
100
AcDbCircle
 10
271.0893360599
 20
31.300402202
 30
0.0
 40
2.049469496522479
100
AcDbArc
 50
302.3714306933
 51
359.986486965
  0
LINE
  5
1A7
330
1F
100
AcDbEntity
  8
0
  6
Continuous
 62
     7
370
    15
100
AcDbLine
 10
270.9436508681
 20
28.8518717669
 30
0.0
 11
272.1866337564
 21
29.5694305146
 31
0.0
  0
ARC
  5
1A8
330
1F
100
AcDbEntity
  8
0
  6
Continuous
 62
     7
370
    15
100
AcDbCircle
 10
268.4157973828
 20
31.6104439305
 30
0.0
 40
3.741625799717281
100
AcDbArc
 50
287.4936320258
 51
312.5009914415
  0
LINE
  5
1A9
330
1F
100
AcDbEntity
  8
0
  6
Continuous
 62
     7
370
    15
100
AcDbLine
 10
272.7083906337
 20
35.2191359065
 30
0.0
 11
272.898524594
 21
35.3288979055
 31
0.0
  0
ARC
  5
1AA
330
1F
100
AcDbEntity
  8
0
  6
Continuous
 62
     7
370
    15
100
AcDbCircle
 10
272.9168950812
 20
31.1216687409
 30
0.0
 40
4.102768733146669
100
AcDbArc
 50
92.9130506693
 51
147.081572798
  0
LINE
  5
1AB
330
1F
100
AcDbEntity
  8
0
  6
Continuous
 62
     7
370
    15
100
AcDbLine
 10
269.282711897
 20
33.2415336663
 30
0.0
 11
269.4728458573
 21
33.3512956652
 31
0.0
  0
SPLINE
  5
1AC
330
1F
100
AcDbEntity
  8
0
  6
Continuous
 62
     7
370
    15
100
AcDbSpline
210
0.0
220
0.0
230
1.0
 70
     8
 71
     3
 72
     8
 73
     4
 74
     0
 42
0.000000001
 43
0.00000001
 40
0.0
 40
0.0
 40
0.0
 40
0.0
 40
1.0
 40
1.0
 40
1.0
 40
1.0
 10
254.2750735350123
 20
36.89160522024726
 30
0.0
 10
254.2506256265834
 20
36.88821843286023
 30
0.0
 10
254.2261784335651
 20
36.88478274652599
 30
0.0
 10
254.2017319160774
 20
36.88129846708829
 30
0.0
  0
SPLINE
  5
1AD
330
1F
100
AcDbEntity
  8
0
  6
Continuous
 62
     7
370
    15
100
AcDbSpline
210
0.0
220
0.0
230
1.0
 70
     8
 71
     3
 72
     8
 73
     4
 74
     0
 42
0.000000001
 43
0.00000001
 40
0.0
 40
0.0
 40
0.0
 40
0.0
 40
1.0
 40
1.0
 40
1.0
 40
1.0
 10
254.2017319160774
 20
36.88129846708829
 30
0.0
 10
253.9880199665325
 20
36.85083882588323
 30
0.0
 10
253.7743591839973
 20
36.81667388430203
 30
0.0
 10
253.5607262343491
 20
36.77894976630585
 30
0.0
  0
SPLINE
  5
1AE
330
1F
100
AcDbEntity
  8
0
  6
Continuous
 62
     7
370
    15
100
AcDbSpline
210
0.0
220
0.0
230
1.0
 70
     8
 71
     3
 72
     8
 73
     4
 74
     0
 42
0.000000001
 43
0.00000001
 40
0.0
 40
0.0
 40
0.0
 40
0.0
 40
1.0
 40
1.0
 40
1.0
 40
1.0
 10
253.5607262343491
 20
36.77894976630585
 30
0.0
 10
253.2782083730312
 20
36.72906168886306
 30
0.0
 10
252.9954663107517
 20
36.67959649434771
 30
0.0
 10
252.7125548211079
 20
36.63047553365421
 30
0.0
  0
SPLINE
  5
1AF
330
1F
100
AcDbEntity
  8
0
  6
Continuous
 62
     7
370
    15
100
AcDbSpline
210
0.0
220
0.0
230
1.0
 70
     8
 71
     3
 72
     8
 73
     4
 74
     0
 42
0.000000001
 43
0.00000001
 40
0.0
 40
0.0
 40
0.0
 40
0.0
 40
0.001149633737632
 40
0.001149633737632
 40
0.001149633737632
 40
0.001149633737632
 10
252.2680764973483
 20
36.88711504389207
 30
0.0
 10
252.4163499258744
 20
36.80150274992991
 30
0.0
 10
252.5645147580167
 20
36.71595313495216
 30
0.0
 10
252.7125548211079
 20
36.63047553365421
 30
0.0
  0
LWPOLYLINE
  5
1B0
330
1F
100
AcDbEntity
  8
0
  6
Continuous
 62
     7
370
    15
100
AcDbPolyline
 90
       27
 70
   128
 43
0.0
 10
252.2680764973
 20
36.8871150439
 10
252.5673014128
 20
37.8038235661
 10
252.9216112636
 20
38.7193375024
 10
253.3283022639
 20
39.6266704435
 10
253.7842709002
 20
40.5188984105
 10
254.286037615
 20
41.3892126925
 10
254.8297733593
 20
42.2309718049
 10
255.4113288131
 20
43.0377521713
 10
256.0262660489
 20
43.8033971429
 10
256.6698923984
 20
44.5220639806
 10
257.3372962631
 20
45.1882684417
 10
258.0233845946
 20
45.7969266309
 10
258.7229217614
 20
46.3433937962
 10
259.4305695016
 20
46.8234997735
 10
260.140927661
 20
47.2335808101
 10
260.8485754012
 20
47.5705075226
 10
261.548112568
 20
47.8317087784
 10
262.2342008995
 20
48.0151913156
 10
262.9016047642
 20
48.1195549546
 10
263.5452311137
 20
48.1440032824
 10
264.1601683495
 20
48.0883497307
 10
264.7417238033
 20
47.953018999
 10
265.2854595477
 20
47.7390438143
 10
265.7872262624
 20
47.4480570499
 10
266.2431948987
 20
47.0822792645
 10
266.649885899
 20
46.6445017575
 10
266.7795016926
 20
46.4755540658
  0
SPLINE
  5
1B1
330
1F
100
AcDbEntity
  8
0
  6
Continuous
 62
     7
370
    15
100
AcDbSpline
210
0.0
220
0.0
230
1.0
 70
     8
 71
     3
 72
     9
 73
     5
 74
     0
 42
0.000000001
 43
0.00000001
 40
0.0
 40
0.0
 40
0.0
 40
0.0
 40
0.2251343464365425
 40
1.0
 40
1.0
 40
1.0
 40
1.0
 10
271.7185800376204
 20
35.13088847164557
 30
0.0
 10
271.7908493628692
 20
35.14336271552192
 30
0.0
 10
272.1118546932088
 20
35.19877071556189
 30
0.0
 10
272.447956718347
 20
35.21024493104815
 30
0.0
 10
272.7083906337198
 20
35.21913590653003
 30
0.0
  0
LWPOLYLINE
  5
1B2
330
1F
100
AcDbEntity
  8
0
  6
Continuous
 62
     7
370
    15
100
AcDbPolyline
 90
       26
 70
   128
 43
0.0
 10
271.317852942
 20
34.9173521528
 10
271.484652356
 20
34.8852872346
 10
271.7799580737
 20
34.764515128
 10
272.0321729836
 20
34.569107553
 10
272.2350867174
 20
34.3038760926
 10
272.3837028656
 20
33.9753516256
 10
272.4743620054
 20
33.5916235146
 10
272.5048318079
 20
33.1621404194
 10
272.4743620054
 20
32.697477639
 10
272.3837028656
 20
32.2090767133
 10
272.2350867174
 20
31.7089636939
 10
272.0321729836
 20
31.2094530232
 10
271.7799580737
 20
30.7228443116
 10
271.484652356
 20
30.2611194807
 10
271.1535272371
 20
29.8356477281
 10
270.7947361165
 20
29.4569055804
 10
270.4171136224
 20
29.1342189263
 10
270.0299580737
 20
28.8755333821
 10
269.6428025251
 20
28.6872186445
 10
269.265180031
 20
28.5739116472
 10
268.9063889104
 20
28.5384023847
 10
268.5752637915
 20
28.5815652128
 10
268.2799580737
 20
28.7023373193
 10
268.0277431639
 20
28.8977448943
 10
267.8248294301
 20
29.1629763548
 10
267.7642119437
 20
29.2756551412
  0
LINE
  5
1B3
330
1F
100
AcDbEntity
  8
0
  6
Continuous
 62
     7
370
    15
100
AcDbLine
 10
249.9434629542
 20
38.2290858777
 30
0.0
 11
252.2680764973
 21
36.8871150439
 31
0.0
  0
LINE
  5
1B4
330
1F
100
AcDbEntity
  8
0
  6
Continuous
 62
     7
370
    15
100
AcDbLine
 10
263.1702382016
 20
48.9718288161
 30
0.0
 11
263.2106677508
 21
48.9488152349
 31
0.0
  0
SPLINE
  5
1B5
330
1F
100
AcDbEntity
  8
0
  6
Continuous
 62
     7
370
    15
100
AcDbSpline
210
0.0
220
0.0
230
1.0
 70
     8
 71
     3
 72
     9
 73
     5
 74
     0
 42
0.000000001
 43
0.00000001
 40
0.0
 40
0.0
 40
0.0
 40
0.0
 40
0.4347808892163895
 40
1.0
 40
1.0
 40
1.0
 40
1.0
 10
255.3416857469499
 20
35.94804185119638
 30
0.0
 10
255.2544716593999
 20
36.08732357133608
 30
0.0
 10
255.0538784647283
 20
36.40767279457525
 30
0.0
 10
254.8027200274697
 20
36.65462173309037
 30
0.0
 10
254.6607604788966
 20
36.79420199252684
 30
0.0
  0
SPLINE
  5
1B6
330
1F
100
AcDbEntity
  8
0
  6
Continuous
 62
     7
370
    15
100
AcDbSpline
210
0.0
220
0.0
230
1.0
 70
     8
 71
     3
 72
    13
 73
     9
 74
     0
 42
0.000000001
 43
0.00000001
 40
0.0
 40
0.0
 40
0.0
 40
0.0
 40
0.1543420314082836
 40
0.2938061119980941
 40
0.4184291878163319
 40
0.5282647859492363
 40
0.7983417750217692
 40
1.0
 40
1.0
 40
1.0
 40
1.0
 10
254.9126738674836
 20
29.63238353206403
 30
0.0
 10
254.9536314895309
 20
29.6699613242013
 30
0.0
 10
255.0315985836569
 20
29.74149456051149
 30
0.0
 10
255.1203385855869
 20
29.88739320459645
 30
0.0
 10
255.1866417303467
 20
30.04249961693884
 30
0.0
 10
255.2597389663635
 20
30.28639201683874
 30
0.0
 10
255.32160991474
 20
30.6224807374285
 30
0.0
 10
255.3307755532082
 20
30.97019881273368
 30
0.0
 10
255.334693696966
 20
31.1188419662875
 30
0.0
  0
SPLINE
  5
1B7
330
1F
100
AcDbEntity
  8
0
  6
Continuous
 62
     7
370
    15
100
AcDbSpline
210
0.0
220
0.0
230
1.0
 70
     8
 71
     3
 72
     9
 73
     5
 74
     0
 42
0.000000001
 43
0.00000001
 40
0.0
 40
0.0
 40
0.0
 40
0.0
 40
0.508496891989613
 40
1.0
 40
1.0
 40
1.0
 40
1.0
 10
254.8201802688156
 20
28.88610134719373
 30
0.0
 10
254.8356735636627
 20
29.01243954302592
 30
0.0
 10
254.8661423729932
 20
29.26089375744177
 30
0.0
 10
254.8973507615945
 20
29.50990992261493
 30
0.0
 10
254.912689781588
 20
29.63230214174236
 30
0.0
  0
SPLINE
  5
1B8
330
1F
100
AcDbEntity
  8
0
  6
Continuous
 62
     7
370
    15
100
AcDbSpline
210
0.0
220
0.0
230
1.0
 70
     8
 71
     3
 72
    10
 73
     6
 74
     0
 42
0.000000001
 43
0.00000001
 40
0.0
 40
0.0
 40
0.0
 40
0.0
 40
0.5
 40
0.5
 40
1.0
 40
1.0
 40
1.0
 40
1.0
 10
254.6607604788966
 20
36.79420199252684
 30
0.0
 10
254.6150764287215
 20
36.83532386974995
 30
0.0
 10
254.5534991751973
 20
36.86605195033961
 30
0.0
 10
254.4168964322847
 20
36.89893613204321
 30
0.0
 10
254.3435017758076
 20
36.90108463659757
 30
0.0
 10
254.2750735350117
 20
36.8916052202492
 30
0.0
  0
SPLINE
  5
1B9
330
1F
100
AcDbEntity
  8
0
  6
Continuous
 62
     7
370
    15
100
AcDbSpline
210
0.0
220
0.0
230
1.0
 70
     8
 71
     3
 72
     8
 73
     4
 74
     0
 42
0.000000001
 43
0.00000001
 40
0.0
 40
0.0
 40
0.0
 40
0.0
 40
1.0
 40
1.0
 40
1.0
 40
1.0
 10
249.7890664782317
 20
38.31820773574574
 30
0.0
 10
249.8159060198599
 20
38.30271956536409
 30
0.0
 10
249.8695130669986
 20
38.27177623889073
 30
0.0
 10
249.9434629541975
 20
38.22908587770065
 30
0.0
  0
LINE
  5
1BA
330
1F
100
AcDbEntity
  8
0
  6
Continuous
 62
     7
370
    15
100
AcDbLine
 10
249.7890664782
 20
38.3182077357
 30
0.0
 11
249.8281676539
 21
38.5184862497
 31
0.0
  0
LINE
  5
1BB
330
1F
100
AcDbEntity
  8
0
  6
Continuous
 62
     7
370
    15
100
AcDbLine
 10
273.1388054995
 20
35.2664875746
 30
0.0
 11
274.0269057888
 21
34.7537981905
 31
0.0
  0
SPLINE
  5
1BC
330
1F
100
AcDbEntity
  8
0
  6
Continuous
 62
     7
370
    15
100
AcDbSpline
210
0.0
220
0.0
230
1.0
 70
     8
 71
     3
 72
    15
 73
    11
 74
     0
 42
0.000000001
 43
0.00000001
 40
0.0
 40
0.0
 40
0.0
 40
0.0
 40
0.1399493580072394
 40
0.2802320306539421
 40
0.4202251584356582
 40
0.560405570222951
 40
0.6788441088018881
 40
0.7975203862097614
 40
0.9591009949640317
 40
1.0
 40
1.0
 40
1.0
 40
1.0
 10
251.3800167199516
 20
33.95782482450259
 30
0.0
 10
251.3763713785184
 20
34.12078384185541
 30
0.0
 10
251.3690720136138
 20
34.44708999285459
 30
0.0
 10
251.3312800332254
 20
34.95013396314944
 30
0.0
 10
251.2973523655443
 20
35.45141057176461
 30
0.0
 10
251.2830620496208
 20
35.9178831615698
 30
0.0
 10
251.2945557893059
 20
36.34495026580582
 30
0.0
 10
251.3224914376485
 20
36.78598942364511
 30
0.0
 10
251.3563959383447
 20
37.13377055087297
 30
0.0
 10
251.3637248956144
 20
37.36215277675915
 30
0.0
 10
251.3652052770448
 20
37.40828386932593
 30
0.0
  0
LINE
  5
1BD
330
1F
100
AcDbEntity
  8
0
  6
Continuous
 62
     7
370
    15
100
AcDbLine
 10
251.38001672
 20
33.1158657911
 30
0.0
 11
251.38001672
 21
33.9578248245
 31
0.0
  0
LINE
  5
1BE
330
1F
100
AcDbEntity
  8
0
  6
Continuous
 62
     7
370
    15
100
AcDbLine
 10
252.7125548211
 20
36.6304755337
 30
0.0
 11
250.1972946815
 21
38.0825043049
 31
0.0
  0
LINE
  5
1BF
330
1F
100
AcDbEntity
  8
0
  6
Continuous
 62
     7
370
    15
100
AcDbLine
 10
250.1972946815
 20
38.0825043049
 30
0.0
 11
249.7890664782
 21
38.3182077357
 31
0.0
  0
LINE
  5
1C0
330
1F
100
AcDbEntity
  8
0
  6
Continuous
 62
     7
370
    15
100
AcDbLine
 10
269.5405293481
 20
28.0418669548
 30
0.0
 11
269.7766850498
 21
27.9055371701
 31
0.0
  0
SPLINE
  5
1C1
330
1F
100
AcDbEntity
  8
0
  6
Continuous
 62
     7
370
    15
100
AcDbSpline
210
0.0
220
0.0
230
1.0
 70
     8
 71
     3
 72
    10
 73
     6
 74
     0
 42
0.000000001
 43
0.00000001
 40
0.0
 40
0.0
 40
0.0
 40
0.0
 40
0.5
 40
0.5
 40
1.0
 40
1.0
 40
1.0
 40
1.0
 10
269.7766850498107
 20
27.90553717006639
 30
0.0
 10
269.680004919702
 20
27.76564863980745
 30
0.0
 10
269.6133262134984
 20
27.62002320662341
 30
0.0
 10
269.5173887184992
 20
27.32161686542474
 30
0.0
 10
269.4892590226189
 20
27.17234644308768
 30
0.0
 10
269.4728458573335
 20
27.02310437310516
 30
0.0
  0
LINE
  5
1C2
330
1F
100
AcDbEntity
  8
0
  6
Continuous
 62
     7
370
    15
100
AcDbLine
 10
269.4728458573
 20
27.0231043731
 30
0.0
 11
269.282711897
 21
26.9133423742
 31
0.0
  0
ARC
  5
1C3
330
1F
100
AcDbEntity
  8
0
  6
Continuous
 62
     7
370
    15
100
AcDbCircle
 10
269.2643414099
 20
31.1205715387
 30
0.0
 40
4.102768733146548
100
AcDbArc
 50
272.9130506693
 51
327.081572798
  0
LINE
  5
1C4
330
1F
100
AcDbEntity
  8
0
  6
Continuous
 62
     7
370
    15
100
AcDbLine
 10
272.898524594
 20
29.0007066134
 30
0.0
 11
272.7083906337
 21
28.8909446144
 31
0.0
  0
ARC
  5
1C5
330
1F
100
AcDbEntity
  8
0
  6
Continuous
 62
     7
370
    15
100
AcDbCircle
 10
268.6519530845
 20
31.4741141457
 30
0.0
 40
3.741625799717371
100
AcDbArc
 50
287.4936320258
 51
312.5009914415
  0
SPLINE
  5
1C6
330
1F
100
AcDbEntity
  8
0
  6
Continuous
 62
     7
370
    15
100
AcDbSpline
210
0.0
220
0.0
230
1.0
 70
     8
 71
     3
 72
    10
 73
     6
 74
     0
 42
0.000000001
 43
0.00000001
 40
0.0
 40
0.0
 40
0.0
 40
0.0
 40
0.5
 40
0.5
 40
1.0
 40
1.0
 40
1.0
 40
1.0
 10
272.7083906337198
 20
28.89094461441547
 30
0.0
 10
272.4492235217193
 20
28.88144588328174
 30
0.0
 10
272.1888181544092
 20
28.86498827231611
 30
0.0
 10
271.6753262484421
 20
28.80992465857381
 30
0.0
 10
271.42348311928
 20
28.77166661097975
 30
0.0
 10
271.1798065698509
 20
28.7155419821484
 30
0.0
  0
LINE
  5
1C7
330
1F
100
AcDbEntity
  8
0
  6
Continuous
 62
     7
370
    15
100
AcDbLine
 10
273.1388054995
 20
31.2999188409
 30
0.0
 11
274.0269057888
 21
30.7872294568
 31
0.0
  0
LINE
  5
1C8
330
1F
100
AcDbEntity
  8
0
  6
Continuous
 62
     7
370
    15
100
AcDbLine
 10
271.1798065699
 20
28.7155419821
 30
0.0
 11
270.9436508681
 21
28.8518717669
 31
0.0
  0
LWPOLYLINE
  5
1C9
330
1F
100
AcDbEntity
  8
0
  6
Continuous
 62
     7
370
    15
100
AcDbPolyline
 90
        3
 70
   128
 43
0.0
 10
250.7878147907
 20
36.3614397076
 10
250.8185615299
 20
37.0566689876
 10
250.8944008817
 20
37.6800734616
  0
ARC
  5
1CA
330
1F
100
AcDbEntity
  8
0
  6
Continuous
 62
     7
370
    15
100
AcDbCircle
 10
255.8778240823
 20
36.1942750071
 30
0.0
 40
5.092753540602373
100
AcDbArc
 50
178.1189836767
 51
207.971879973
  0
LWPOLYLINE
  5
1CB
330
1F
100
AcDbEntity
  8
0
  6
Continuous
 62
     7
370
    15
100
AcDbPolyline
 90
        3
 70
   128
 43
0.0
 10
241.3702824424
 20
53.3657848931
 10
241.3724554746
 20
53.3650806224
 10
241.4185687441
 20
53.3492866589
  0
SPLINE
  5
1CC
330
1F
100
AcDbEntity
  8
0
  6
Continuous
 62
     7
370
    15
100
AcDbSpline
210
0.0
220
0.0
230
1.0
 70
     8
 71
     3
 72
     9
 73
     5
 74
     0
 42
0.000000001
 43
0.00000001
 40
0.0
 40
0.0
 40
0.0
 40
0.0
 40
0.6916770441018806
 40
1.0
 40
1.0
 40
1.0
 40
1.0
 10
254.6607604788966
 20
30.3206811356407
 30
0.0
 10
254.7999076683142
 20
30.25949797483446
 30
0.0
 10
255.0010813094002
 20
30.17104172010118
 30
0.0
 10
255.1622282957439
 20
30.14340162090595
 30
0.0
 10
255.2119136109075
 20
30.13487954382077
 30
0.0
  0
SPLINE
  5
1CD
330
1F
100
AcDbEntity
  8
0
  6
Continuous
 62
     7
370
    15
100
AcDbSpline
210
0.0
220
0.0
230
1.0
 70
     8
 71
     3
 72
     8
 73
     4
 74
     0
 42
0.000000001
 43
0.00000001
 40
0.0
 40
0.0
 40
0.0
 40
0.0
 40
1.0
 40
1.0
 40
1.0
 40
1.0
 10
253.5607262343491
 20
30.20579623062556
 30
0.0
 10
253.7743591839973
 20
30.24352034862174
 30
0.0
 10
253.9880199665325
 20
30.28436255493325
 30
0.0
 10
254.2017319160774
 20
30.32837051970391
 30
0.0
  0
SPLINE
  5
1CE
330
1F
100
AcDbEntity
  8
0
  6
Continuous
 62
     7
370
    15
100
AcDbSpline
210
0.0
220
0.0
230
1.0
 70
     8
 71
     3
 72
     8
 73
     4
 74
     0
 42
0.000000001
 43
0.00000001
 40
0.0
 40
0.0
 40
0.0
 40
0.0
 40
1.0
 40
1.0
 40
1.0
 40
1.0
 10
254.2017319160774
 20
30.32837051970391
 30
0.0
 10
254.2261784335651
 20
30.33340459235476
 30
0.0
 10
254.2506256265834
 20
30.33848016599679
 30
0.0
 10
254.2750735350123
 20
30.34359737284315
 30
0.0
  0
ARC
  5
1CF
330
1F
100
AcDbEntity
  8
0
  6
Continuous
 62
     7
370
    15
100
AcDbCircle
 10
256.0793022715
 20
31.2599003441
 30
0.0
 40
4.107674082488574
100
AcDbArc
 50
201.9008660444
 51
263.8340109944
  0
SPLINE
  5
1D0
330
1F
100
AcDbEntity
  8
0
  6
Continuous
 62
     7
370
    15
100
AcDbSpline
210
0.0
220
0.0
230
1.0
 70
     8
 71
     3
 72
     8
 73
     4
 74
     0
 42
0.000000001
 43
0.00000001
 40
0.0000000000000008
 40
0.0000000000000008
 40
0.0000000000000008
 40
0.0000000000000008
 40
0.0011496337376356
 40
0.0011496337376356
 40
0.0011496337376356
 40
0.0011496337376356
 10
252.7125548211106
 20
30.05732199797236
 30
0.0
 10
252.5645147580189
 20
29.94722396592353
 30
0.0
 10
252.4163499258749
 20
29.83736974972798
 30
0.0
 10
252.2680764973483
 20
29.72773048839329
 30
0.0
  0
SPLINE
  5
1D1
330
1F
100
AcDbEntity
  8
0
  6
Continuous
 62
     7
370
    15
100
AcDbSpline
210
0.0
220
0.0
230
1.0
 70
     8
 71
     3
 72
     8
 73
     4
 74
     0
 42
0.000000001
 43
0.00000001
 40
0.0
 40
0.0
 40
0.0
 40
0.0
 40
1.0
 40
1.0
 40
1.0
 40
1.0
 10
252.7125548211096
 20
30.05732199797422
 30
0.0
 10
252.9954663107528
 20
30.10644295866762
 30
0.0
 10
253.2782083730317
 20
30.15590815318287
 30
0.0
 10
253.5607262343491
 20
30.20579623062556
 30
0.0
  0
SPLINE
  5
1D2
330
1F
100
AcDbEntity
  8
0
  6
Continuous
 62
     7
370
    15
100
AcDbSpline
210
0.0
220
0.0
230
1.0
 70
     8
 71
     3
 72
    10
 73
     6
 74
     0
 42
0.000000001
 43
0.00000001
 40
0.0
 40
0.0
 40
0.0
 40
0.0
 40
0.5
 40
0.5
 40
1.0
 40
1.0
 40
1.0
 40
1.0
 10
254.2750735350123
 20
30.34359737284315
 30
0.0
 10
254.3435556272191
 20
30.35793140195297
 30
0.0
 10
254.416627799404
 20
30.36352292906928
 30
0.0
 10
254.5525065290573
 20
30.3555000523751
 30
0.0
 10
254.6149951691127
 20
30.34162312810991
 30
0.0
 10
254.6607604788967
 20
30.32068113564076
 30
0.0
  0
LINE
  5
1D3
330
1F
100
AcDbEntity
  8
0
  6
Continuous
 62
     7
370
    15
100
AcDbLine
 10
250.1972946815
 20
31.5093507692
 30
0.0
 11
252.7125548211
 21
30.057321998
 31
0.0
  0
LINE
  5
1D4
330
1F
100
AcDbEntity
  8
0
  6
Continuous
 62
     7
370
    15
100
AcDbLine
 10
250.1972946815
 20
31.5093507692
 30
0.0
 11
251.1678846856
 21
32.0696604521
 31
0.0
  0
LINE
  5
1D5
330
1F
100
AcDbEntity
  8
0
  6
Continuous
 62
     7
370
    15
100
AcDbLine
 10
249.7890664782
 20
31.2736473384
 30
0.0
 11
250.1972946815
 21
31.5093507692
 31
0.0
  0
LINE
  5
1D6
330
1F
100
AcDbEntity
  8
0
  6
Continuous
 62
     7
370
    15
100
AcDbLine
 10
252.2680764973
 20
29.7277304884
 30
0.0
 11
249.9434629542
 21
31.0697013222
 31
0.0
  0
SPLINE
  5
1D7
330
1F
100
AcDbEntity
  8
0
  6
Continuous
 62
     7
370
    15
100
AcDbSpline
210
0.0
220
0.0
230
1.0
 70
     8
 71
     3
 72
     8
 73
     4
 74
     0
 42
0.000000001
 43
0.00000001
 40
0.0
 40
0.0
 40
0.0
 40
0.0
 40
1.0
 40
1.0
 40
1.0
 40
1.0
 10
249.9434629541975
 20
31.06970132220188
 30
0.0
 10
249.8695109428412
 20
31.1123929096419
 30
0.0
 10
249.8159078160078
 20
31.18471751796216
 30
0.0
 10
249.7890664782317
 20
31.27364733842299
 30
0.0
  0
ELLIPSE
  5
1D8
330
1F
100
AcDbEntity
  8
0
  6
Continuous
 62
     7
370
    15
100
AcDbEllipse
 10
250.9335701105
 20
32.8581600265
 30
0.0
 11
-6.005970382716441E-5
 21
0.8534489614827264
 31
0.0
210
0.0
220
0.0
230
1.0
 40
0.7174342186
 41
3.534193645557544
 42
5.104989972352378
  0
ELLIPSE
  5
1D9
330
1F
100
AcDbEntity
  8
0
  6
Continuous
 62
     7
370
    15
100
AcDbEllipse
 10
250.814331295
 20
32.7893025464
 30
0.0
 11
0.2600075789209199
 21
0.9705436209909377
 31
0.0
210
0.0
220
0.0
230
1.0
 40
0.5176380889
 41
3.619174351347737
 42
5.189970678142584
  0
LWPOLYLINE
  5
1DA
330
1F
100
AcDbEntity
  8
0
  6
Continuous
 62
     7
370
     0
100
AcDbPolyline
 90
       30
 70
   128
 43
0.0
 10
258.6985719052
 20
31.947733353
 10
258.7296176394
 20
32.6383011842
 10
258.8224030815
 20
33.3568892476
 10
258.9758769353
 20
34.0953556534
 10
259.1883002806
 20
34.8453332822
 10
259.4572662763
 20
35.5983245877
 10
259.7797274299
 20
36.3457978775
 10
260.1520301279
 20
37.0792839806
 10
260.5699560318
 20
37.7904722064
 10
261.0287698743
 20
38.4713045081
 10
261.5232731111
 20
39.1140667837
 10
262.0478628229
 20
39.7114762797
 10
262.5965951987
 20
40.2567641078
 10
263.1632528815
 20
40.7437519392
 10
263.7414154133
 20
41.166922007
 10
264.3245319814
 20
41.5214796252
 10
264.9059956424
 20
41.8034075145
 10
265.4792181804
 20
42.0095113192
 10
266.0377047552
 20
42.1374558007
 10
266.5751274906
 20
42.185791297
 10
267.0853971723
 20
42.1539701477
 10
267.562732241
 20
42.042352899
 10
268.0017242995
 20
41.852204219
 10
268.3973993925
 20
41.5856785682
 10
268.745274363
 20
41.2457957888
 10
269.0414076486
 20
40.8364068883
 10
269.2824439409
 20
40.3621504068
 10
269.4656522023
 20
39.8283998595
 10
269.5889566101
 20
39.2412028534
 10
269.5948695382
 20
39.2012803708
  0
LWPOLYLINE
  5
1DB
330
1F
100
AcDbEntity
  8
0
  6
Continuous
 62
     7
370
     0
100
AcDbPolyline
 90
       15
 70
   128
 43
0.0
 10
263.3453774592
 20
28.375669591
 10
263.1632528815
 20
28.3065256989
 10
262.5965951987
 20
28.1392644958
 10
262.0478628229
 20
28.0509994083
 10
261.5232731111
 20
28.0427305153
 10
261.0287698743
 20
28.1145515065
 10
260.5699560318
 20
28.2656486214
 10
260.1520301279
 20
28.4943098694
 10
259.7797274299
 20
28.7979444271
 10
259.4572662763
 20
29.1731119937
 10
259.1883002806
 20
29.6155617706
 10
258.9758769353
 20
30.1202806253
 10
258.8224030815
 20
30.6815498913
 10
258.7296176394
 20
31.2930101636
 10
258.6985719052
 20
31.947733353
  0
ARC
  5
1DC
330
1F
100
AcDbEntity
  8
0
  6
Continuous
 62
     7
370
     0
100
AcDbCircle
 10
263.8408440223
 20
31.5908877756
 30
0.0
 40
3.041954697853132
100
AcDbArc
 50
173.2632359045
 51
235.4245837021
  0
LWPOLYLINE
  5
1DD
330
1F
100
AcDbEntity
  8
0
  6
Continuous
 62
     7
370
     0
100
AcDbPolyline
 90
       21
 70
   128
 43
0.0
 10
268.3640556707
 20
39.9118140924
 10
268.0239307996
 20
40.069432694
 10
267.5984979469
 20
40.1763369228
 10
267.1399472617
 20
40.2035439083
 10
266.6547157904
 20
40.1506717239
 10
266.1496151193
 20
40.0184625794
 10
265.6317357545
 20
39.8087724012
 10
265.1083475871
 20
39.5245447798
 10
264.5867978398
 20
39.169769648
 10
264.0744079277
 20
38.7494272709
 10
263.578370682
 20
38.2694183342
 10
263.1056493784
 20
37.7364811111
 10
262.6628799876
 20
37.158096872
 10
262.2562780215
 20
36.5423848638
 10
261.8915512802
 20
35.8979883335
 10
261.5738197279
 20
35.2339531957
 10
261.3075436189
 20
34.5596010482
 10
261.0964608862
 20
33.8843983171
 10
260.9435346686
 20
33.2178233685
 10
260.8509117151
 20
32.5692334536
 10
260.8198922488
 20
31.947733353
  0
LWPOLYLINE
  5
1DE
330
1F
100
AcDbEntity
  8
0
  6
Continuous
 62
     7
370
     0
100
AcDbPolyline
 90
       19
 70
   128
 43
0.0
 10
254.275073535
 20
36.8916052202
 10
254.5735008127
 20
37.7359038389
 10
254.925998745
 20
38.5755397497
 10
255.3293624402
 20
39.4028790296
 10
255.779924538
 20
40.2103995559
 10
256.2735885529
 20
40.9907593967
 10
256.8058661191
 20
41.7368635638
 10
257.3719177986
 20
42.4419285195
 10
257.9665970808
 20
43.0995438524
 10
258.5844971747
 20
43.7037305605
 10
259.2200001672
 20
44.2489954116
 10
259.8673281002
 20
44.7303808882
 10
260.5205955041
 20
45.1435102602
 10
261.1738629081
 20
45.4846273782
 10
261.8211908411
 20
45.7506308245
 10
262.4566938335
 20
45.9391021104
 10
263.0745939275
 20
46.0483276655
 10
263.6692732097
 20
46.077314417
 10
264.0143486088
 20
46.0558743425
  0
LWPOLYLINE
  5
1DF
330
1F
100
AcDbEntity
  8
0
  6
Continuous
 62
     7
370
     0
100
AcDbPolyline
 90
       24
 70
   128
 43
0.0
 10
249.9434629542
 20
38.2290858777
 10
250.2426878697
 20
39.1457943999
 10
250.5969977205
 20
40.0613083362
 10
251.0036887207
 20
40.9686412773
 10
251.459657357
 20
41.8608692443
 10
251.9614240718
 20
42.7311835263
 10
252.5051598162
 20
43.5729426387
 10
253.0867152699
 20
44.3797230051
 10
253.7016525057
 20
45.1453679767
 10
254.3452788553
 20
45.8640348144
 10
255.0126827199
 20
46.5302392755
 10
255.6987710515
 20
47.1388974647
 10
256.3983082182
 20
47.68536463
 10
257.1059559585
 20
48.1654706073
 10
257.8163141178
 20
48.5755516439
 10
258.5239618581
 20
48.9124783564
 10
259.2234990248
 20
49.1736796122
 10
259.9095873564
 20
49.3571621494
 10
260.576991221
 20
49.4615257884
 10
261.2206175706
 20
49.4859741162
 10
261.8355548064
 20
49.4303205645
 10
262.4171102602
 20
49.2949898328
 10
262.9608460045
 20
49.0810146481
 10
263.1702382016
 20
48.9718288161
  0
LWPOLYLINE
  5
1E0
330
1F
100
AcDbEntity
  8
0
  6
Continuous
 62
     7
370
     0
100
AcDbPolyline
 90
       17
 70
   128
 43
0.0
 10
254.6607604789
 20
36.7942019925
 10
254.9542715991
 20
37.6179550776
 10
255.3002236259
 20
38.4368686228
 10
255.6954946894
 20
39.2435527552
 10
256.1365178648
 20
40.0307279598
 10
256.6193133606
 20
40.7912907705
 10
257.1395244319
 20
41.5183778708
 10
257.6924566956
 20
42.2054280294
 10
258.273120493
 20
42.8462413079
 10
258.8762759159
 20
43.4350350095
 10
259.4964800919
 20
43.9664958619
 10
260.1281363005
 20
44.4358279641
 10
260.7655444784
 20
44.8387960649
 10
261.4029526563
 20
45.1717637814
 10
262.0346088649
 20
45.4317264142
 10
262.6548130409
 20
45.6163380614
 10
263.2468876168
 20
45.7226353766
  0
LINE
  5
1E1
330
1F
100
AcDbEntity
  8
0
  6
Continuous
 62
     7
370
     0
100
AcDbLine
 10
268.2975464598
 20
27.3243082071
 30
0.0
 11
269.1820673569
 21
26.8136851621
 31
0.0
  0
LINE
  5
1E2
330
1F
100
AcDbEntity
  8
0
  6
Continuous
 62
     7
370
     0
100
AcDbLine
 10
255.0731753962
 20
36.3480041943
 30
0.0
 11
254.9307213659
 21
36.4705543455
 31
0.0
  0
LINE
  5
1E3
330
1F
100
AcDbEntity
  8
0
  6
Continuous
 62
     7
370
     0
100
AcDbLine
 10
254.5443195658
 20
36.6935334607
 30
0.0
 11
254.2156722569
 21
36.8832575137
 31
0.0
  0
ARC
  5
1E4
330
1F
100
AcDbEntity
  8
0
  6
Continuous
 62
     7
370
     0
100
AcDbCircle
 10
252.9327292377
 20
33.9059188152
 30
0.0
 40
3.219940806519269
100
AcDbArc
 50
56.2191255253
 51
59.9667101493
  0
SPLINE
  5
1E5
330
1F
100
AcDbEntity
  8
0
  6
Continuous
 62
     7
370
     0
100
AcDbSpline
210
0.0
220
0.0
230
1.0
 70
     8
 71
     3
 72
     8
 73
     4
 74
     0
 42
0.000000001
 43
0.00000001
 40
0.0
 40
0.0
 40
0.0
 40
0.0
 40
1.0
 40
1.0
 40
1.0
 40
1.0
 10
254.832593082482
 20
36.51847835897043
 30
0.0
 10
254.7960754951413
 20
36.53659244546084
 30
0.0
 10
254.7595694813988
 20
36.55785590392835
 30
0.0
 10
254.7230749260671
 20
36.58223738994147
 30
0.0
  0
SPLINE
  5
1E6
330
1F
100
AcDbEntity
  8
0
  6
Continuous
 62
     7
370
     0
100
AcDbSpline
210
0.0
220
0.0
230
1.0
 70
     8
 71
     3
 72
    12
 73
     8
 74
     0
 42
0.000000001
 43
0.00000001
 40
0.0
 40
0.0
 40
0.0
 40
0.0
 40
0.2499999999999953
 40
0.2499999999999953
 40
0.4999999999999907
 40
0.4999999999999907
 40
1.0
 40
1.0
 40
1.0
 40
1.0
 10
254.9307213659021
 20
36.47055434553132
 30
0.0
 10
254.9223631835052
 20
36.47736082471042
 30
0.0
 10
254.9142387062404
 20
36.48053183737166
 30
0.0
 10
254.8979059747906
 20
36.4881770783531
 30
0.0
 10
254.8897519151076
 20
36.49180826871702
 30
0.0
 10
254.8652806257527
 20
36.50284355775633
 30
0.0
 10
254.8489559378856
 20
36.51036177187923
 30
0.0
 10
254.832593082482
 20
36.51847835897043
 30
0.0
  0
SPLINE
  5
1E7
330
1F
100
AcDbEntity
  8
0
  6
Continuous
 62
     7
370
     0
100
AcDbSpline
210
0.0
220
0.0
230
1.0
 70
     8
 71
     3
 72
    10
 73
     6
 74
     0
 42
0.000000001
 43
0.00000001
 40
0.0
 40
0.0
 40
0.0
 40
0.0
 40
0.0381110146236184
 40
0.9108191192088751
 40
1.0
 40
1.0
 40
1.0
 40
1.0
 10
254.9307213659022
 20
31.20369431692916
 30
0.0
 10
254.9359980089868
 20
31.20192098813818
 30
0.0
 10
255.0621050532139
 20
31.1595400181373
 30
0.0
 10
255.201496616073
 20
31.11931259842049
 30
0.0
 10
255.3233922284574
 20
31.11888189835053
 30
0.0
 10
255.334693696966
 20
31.1188419662875
 30
0.0
  0
SPLINE
  5
1E8
330
1F
100
AcDbEntity
  8
0
  6
Continuous
 62
     7
370
     0
100
AcDbSpline
210
0.0
220
0.0
230
1.0
 70
     8
 71
     3
 72
    12
 73
     8
 74
     0
 42
0.000000001
 43
0.00000001
 40
0.0
 40
0.0
 40
0.0
 40
0.0
 40
0.5000000000000093
 40
0.5000000000000093
 40
0.7500000000000047
 40
0.7500000000000047
 40
1.0
 40
1.0
 40
1.0
 40
1.0
 10
254.832593082482
 20
31.26906680794342
 30
0.0
 10
254.8489560996863
 20
31.25829113776442
 30
0.0
 10
254.8652806920573
 20
31.24696132877865
 30
0.0
 10
254.8897520484866
 20
31.229742620718
 30
0.0
 10
254.897906134581
 20
31.22395931544945
 30
0.0
 10
254.9142388864903
 20
31.21274717819819
 30
0.0
 10
254.9223634352529
 20
31.20653790408542
 30
0.0
 10
254.9307213659021
 20
31.20369431692948
 30
0.0
  0
SPLINE
  5
1E9
330
1F
100
AcDbEntity
  8
0
  6
Continuous
 62
     7
370
     0
100
AcDbSpline
210
0.0
220
0.0
230
1.0
 70
     8
 71
     3
 72
    11
 73
     7
 74
     0
 42
0.000000001
 43
0.00000001
 40
0.0
 40
0.0
 40
0.0
 40
0.0
 40
0.000121716006687
 40
0.000121716006687
 40
0.000121716006687
 40
0.0003100832903278
 40
0.0003100832903278
 40
0.0003100832903278
 40
0.0003100832903278
 10
254.7230749260671
 20
31.33175474886954
 30
0.0
 10
254.7373751574062
 20
31.32479783149399
 30
0.0
 10
254.7517141888526
 20
31.31733826464564
 30
0.0
 10
254.766055619217
 20
31.30939440384509
 30
0.0
 10
254.7882371258001
 20
31.29710784691427
 30
0.0
 10
254.8104617458366
 20
31.28364113621876
 30
0.0
 10
254.832593082482
 20
31.26906680794344
 30
0.0
  0
ARC
  5
1EA
330
1F
100
AcDbEntity
  8
0
  6
Continuous
 62
     7
370
     0
100
AcDbCircle
 10
255.9773001793
 20
33.9050653274
 30
0.0
 40
2.862692494705342
100
AcDbArc
 50
239.9622210953
 51
244.0155097316
  0
LINE
  5
1EB
330
1F
100
AcDbEntity
  8
0
  6
Continuous
 62
     7
370
     0
100
AcDbLine
 10
251.4992555355
 20
33.1847232712
 30
0.0
 11
254.5443195658
 21
31.426845224
 31
0.0
  0
LINE
  5
1EC
330
1F
100
AcDbEntity
  8
0
  6
Continuous
 62
     7
370
     0
100
AcDbLine
 10
251.38001672
 20
33.1158657911
 30
0.0
 11
251.4992555355
 21
33.1847232712
 31
0.0
  0
LINE
  5
1ED
330
1F
100
AcDbEntity
  8
0
  6
Continuous
 62
     7
370
     0
100
AcDbLine
 10
254.8157943056
 20
36.6363208635
 30
0.0
 11
254.8325930825
 21
36.518478359
 31
0.0
  0
LWPOLYLINE
  5
1EE
330
1F
100
AcDbEntity
  8
0
  6
Continuous
 62
     7
370
     0
100
AcDbPolyline
 90
        3
 70
   128
 43
0.0
 10
254.7113026729
 20
36.7509604529
 10
254.7208562153
 20
36.6980158192
 10
254.7230749261
 20
36.5822373899
  0
LWPOLYLINE
  5
1EF
330
1F
100
AcDbEntity
  8
0
  6
Continuous
 62
     7
370
     0
100
AcDbPolyline
 90
        3
 70
   128
 43
0.0
 10
254.5178446279
 20
36.8757516017
 10
254.5334500789
 20
36.8146980075
 10
254.5443195658
 20
36.6935334607
  0
LWPOLYLINE
  5
1F0
330
1F
100
AcDbEntity
  8
0
  6
Continuous
 62
     7
370
     0
100
AcDbPolyline
 90
        3
 70
   128
 43
0.0
 10
251.1413681813
 20
36.1573376796
 10
251.1721149205
 20
36.8525669597
 10
251.2479542723
 20
37.4759714336
  0
ARC
  5
1F1
330
1F
100
AcDbEntity
  8
0
  6
Continuous
 62
     7
370
     0
100
AcDbCircle
 10
257.0775070516
 20
36.0891048413
 30
0.0
 40
5.936531007897357
100
AcDbArc
 50
179.3414437258
 51
195.4112244674
  0
LINE
  5
1F2
330
1F
100
AcDbEntity
  8
0
  6
Continuous
 62
     7
370
     0
100
AcDbLine
 10
272.1866337564
 20
29.5694305146
 30
0.0
 11
273.0711546534
 21
29.0588074696
 31
0.0
  0
LWPOLYLINE
  5
1F3
330
1F
100
AcDbEntity
  8
0
  6
Continuous
 62
     7
370
     0
100
AcDbPolyline
 90
       17
 70
   128
 43
0.0
 10
236.3005352551
 20
47.5805388578
 10
236.3310859489
 20
48.102685936
 10
236.4221433956
 20
48.6499430954
 10
236.5719352657
 20
49.2116585979
 10
236.7775460307
 20
49.7768992903
 10
237.0349737111
 20
50.3346634054
 10
237.3392077699
 20
50.874094699
 10
237.6843266371
 20
51.3846937548
 10
238.0636129666
 20
51.8565223429
 10
238.4696843814
 20
52.2803968565
 10
238.8946371633
 20
52.6480670603
 10
239.3302000897
 20
52.9523766721
 10
239.7678954239
 20
53.1874026514
 10
240.1992039239
 20
53.3485704848
 10
240.6157306605
 20
53.4327432239
 10
241.0093684144
 20
53.4382825419
 10
241.3702824424
 20
53.3657848931
  0
ARC
  5
1F4
330
1F
100
AcDbEntity
  8
0
  6
Continuous
 62
     7
370
     0
100
AcDbCircle
 10
238.7219343979
 20
47.4141659585
 30
0.0
 40
2.427108104337085
100
AcDbArc
 50
176.0694185984
 51
224.9117477784
  0
ARC
  5
1F5
330
1F
100
AcDbEntity
  8
0
  6
Continuous
 62
     7
370
     0
100
AcDbCircle
 10
253.8354786662
 20
31.0557657339
 30
0.0
 40
1.10518751213062
100
AcDbArc
 50
318.3083095737
 51
7.6920861831
  0
LWPOLYLINE
  5
1F6
330
1F
100
AcDbEntity
  8
0
  6
Continuous
 62
     7
370
     0
100
AcDbPolyline
 90
        3
 70
   128
 43
0.0
 10
255.0204765241
 20
29.745066844
 10
254.9542715991
 20
29.8358087767
 10
254.6607604789
 20
30.3206811356
  0
LWPOLYLINE
  5
1F7
330
1F
100
AcDbEntity
  8
0
  6
Continuous
 62
     7
370
     0
100
AcDbPolyline
 90
        3
 70
   128
 43
0.0
 10
254.8760972223
 20
29.4647449866
 10
254.5735008127
 20
29.8438555549
 10
254.275073535
 20
30.3435973728
  0
ARC
  5
1F8
330
1F
100
AcDbEntity
  8
0
  6
Continuous
 62
     7
370
     0
100
AcDbCircle
 10
253.5188336828
 20
31.4298346084
 30
0.0
 40
1.323559611765429
100
AcDbArc
 50
304.8456886156
 51
353.0232693864
  0
LINE
  5
1F9
330
1F
100
AcDbEntity
  8
0
  6
Continuous
 62
     7
370
     0
100
AcDbLine
 10
253.9786341408
 20
30.4470493298
 30
0.0
 11
251.1678846856
 21
32.0696604521
 31
0.0
  0
LINE
  5
1FA
330
1F
100
AcDbEntity
  8
0
  6
Continuous
 62
     7
370
     0
100
AcDbLine
 10
253.5607262343
 20
30.2057962306
 30
0.0
 11
253.9786341408
 21
30.4470493298
 31
0.0
  0
ARC
  5
1FB
330
1F
100
AcDbEntity
  8
0
  6
Continuous
 62
     7
370
     0
100
AcDbCircle
 10
253.5705171479
 20
31.2934730216
 30
0.0
 40
1.153193358754105
100
AcDbArc
 50
303.1862550559
 51
1.9023561302
  0
ARC
  5
1FC
330
1F
100
AcDbEntity
  8
0
  6
Continuous
 62
     7
370
     0
100
AcDbCircle
 10
255.7670828135
 20
33.5400217068
 30
0.0
 40
3.572817764674883
100
AcDbArc
 50
239.9622210953
 51
244.0155097316
  0
ARC
  5
1FD
330
1F
100
AcDbEntity
  8
0
  6
Continuous
 62
     7
370
     0
100
AcDbCircle
 10
253.3161466847
 20
31.4827339059
 30
0.0
 40
1.229443846057881
100
AcDbArc
 50
302.60547834
 51
357.3945215143
  0
ARC
  5
1FE
330
1F
100
AcDbEntity
  8
0
  6
Continuous
 62
     7
370
     0
100
AcDbCircle
 10
253.9568062299
 20
32.7619340706
 30
0.0
 40
4.35552246273688
100
AcDbArc
 50
202.8627999871
 51
238.9701612235
  0
OLE2FRAME
  5
1FF
330
1F
100
AcDbEntity
  8
0
100
AcDbOle2Frame
 70
     2
  3
Paintbrush-Bild
 10
13.8511154363
 20
38.264191557
 30
0.0
 11
51.6290888628
 21
31.9806341108
 31
0.0
 71
     2
 72
     0
 73
     1
 90
    12928
310
80552BED0767C5B32B40DDAF6807D121434000000000000000006FFBDDFB85D0
310
4940DDAF6807D121434000000000000000006FFBDDFB85D04940416F4BD60AFB
310
3F4000000000000000002BED0767C5B32B40416F4BD60AFB3F40000000000000
310
0000000000000100000000010000010000000100000000000100000000320000
310
D0CF11E0A1B11AE1000000000000000000000000000000003E000300FEFF0900
310
0600000000000000000000000100000001000000000000000010000002000000
310
01000000FEFFFFFF0000000000000000FFFFFFFFFFFFFFFFFFFFFFFFFFFFFFFF
310
FFFFFFFFFFFFFFFFFFFFFFFFFFFFFFFFFFFFFFFFFFFFFFFFFFFFFFFFFFFFFFFF
310
FFFFFFFFFFFFFFFFFFFFFFFFFFFFFFFFFFFFFFFFFFFFFFFFFFFFFFFFFFFFFFFF
310
FFFFFFFFFFFFFFFFFFFFFFFFFFFFFFFFFFFFFFFFFFFFFFFFFFFFFFFFFFFFFFFF
310
FFFFFFFFFFFFFFFFFFFFFFFFFFFFFFFFFFFFFFFFFFFFFFFFFFFFFFFFFFFFFFFF
310
FFFFFFFFFFFFFFFFFFFFFFFFFFFFFFFFFFFFFFFFFFFFFFFFFFFFFFFFFFFFFFFF
310
FFFFFFFFFFFFFFFFFFFFFFFFFFFFFFFFFFFFFFFFFFFFFFFFFFFFFFFFFFFFFFFF
310
FFFFFFFFFFFFFFFFFFFFFFFFFFFFFFFFFFFFFFFFFFFFFFFFFFFFFFFFFFFFFFFF
310
FFFFFFFFFFFFFFFFFFFFFFFFFFFFFFFFFFFFFFFFFFFFFFFFFFFFFFFFFFFFFFFF
310
FFFFFFFFFFFFFFFFFFFFFFFFFFFFFFFFFFFFFFFFFFFFFFFFFFFFFFFFFFFFFFFF
310
FFFFFFFFFFFFFFFFFFFFFFFFFFFFFFFFFFFFFFFFFFFFFFFFFFFFFFFFFFFFFFFF
310
FFFFFFFFFFFFFFFFFFFFFFFFFFFFFFFFFFFFFFFFFFFFFFFFFFFFFFFFFFFFFFFF
310
FFFFFFFFFFFFFFFFFFFFFFFFFFFFFFFFFFFFFFFFFFFFFFFFFFFFFFFFFFFFFFFF
310
FFFFFFFFFFFFFFFFFFFFFFFFFFFFFFFFFFFFFFFFFFFFFFFFFFFFFFFFFFFFFFFF
310
FDFFFFFFFEFFFFFFFEFFFFFFFEFFFFFF05000000060000000700000008000000
310
090000000A0000000B0000000C0000000D0000000E0000000F00000010000000
310
11000000120000001300000014000000150000001600000017000000FEFFFFFF
310
FFFFFFFFFFFFFFFFFFFFFFFFFFFFFFFFFFFFFFFFFFFFFFFFFFFFFFFFFFFFFFFF
310
FFFFFFFFFFFFFFFFFFFFFFFFFFFFFFFFFFFFFFFFFFFFFFFFFFFFFFFFFFFFFFFF
310
FFFFFFFFFFFFFFFFFFFFFFFFFFFFFFFFFFFFFFFFFFFFFFFFFFFFFFFFFFFFFFFF
310
FFFFFFFFFFFFFFFFFFFFFFFFFFFFFFFFFFFFFFFFFFFFFFFFFFFFFFFFFFFFFFFF
310
FFFFFFFFFFFFFFFFFFFFFFFFFFFFFFFFFFFFFFFFFFFFFFFFFFFFFFFFFFFFFFFF
310
FFFFFFFFFFFFFFFFFFFFFFFFFFFFFFFFFFFFFFFFFFFFFFFFFFFFFFFFFFFFFFFF
310
FFFFFFFFFFFFFFFFFFFFFFFFFFFFFFFFFFFFFFFFFFFFFFFFFFFFFFFFFFFFFFFF
310
FFFFFFFFFFFFFFFFFFFFFFFFFFFFFFFFFFFFFFFFFFFFFFFFFFFFFFFFFFFFFFFF
310
FFFFFFFFFFFFFFFFFFFFFFFFFFFFFFFFFFFFFFFFFFFFFFFFFFFFFFFFFFFFFFFF
310
FFFFFFFFFFFFFFFFFFFFFFFFFFFFFFFFFFFFFFFFFFFFFFFFFFFFFFFFFFFFFFFF
310
FFFFFFFFFFFFFFFFFFFFFFFFFFFFFFFFFFFFFFFFFFFFFFFFFFFFFFFFFFFFFFFF
310
FFFFFFFFFFFFFFFFFFFFFFFFFFFFFFFFFFFFFFFFFFFFFFFFFFFFFFFFFFFFFFFF
310
FFFFFFFFFFFFFFFFFFFFFFFFFFFFFFFFFFFFFFFFFFFFFFFFFFFFFFFFFFFFFFFF
310
52006F006F007400200045006E00740072007900000000000000000000000000
310
0000000000000000000000000000000000000000000000000000000000000000
310
16000500FFFFFFFFFFFFFFFF020000000A00030000000000C000000000000046
310
000000000000000000000000B04FEA3D6215D20103000000C000000000000000
310
01004F006C006500000000000000000000000000000000000000000000000000
310
0000000000000000000000000000000000000000000000000000000000000000
310
0A000200FFFFFFFFFFFFFFFFFFFFFFFF00000000000000000000000000000000
310
0000000000000000000000000000000000000000000000001400000000000000
310
010043006F006D0070004F0062006A0000000000000000000000000000000000
310
0000000000000000000000000000000000000000000000000000000000000000
310
120002010100000003000000FFFFFFFF00000000000000000000000000000000
310
0000000000000000000000000000000000000000010000004D00000000000000
310
01004F006C006500310030004E00610074006900760065000000000000000000
310
0000000000000000000000000000000000000000000000000000000000000000
310
1A000200FFFFFFFFFFFFFFFFFFFFFFFF00000000000000000000000000000000
310
0000000000000000000000000000000000000000040000002426000000000000
310
FEFFFFFF02000000FEFFFFFFFFFFFFFFFFFFFFFFFFFFFFFFFFFFFFFFFFFFFFFF
310
FFFFFFFFFFFFFFFFFFFFFFFFFFFFFFFFFFFFFFFFFFFFFFFFFFFFFFFFFFFFFFFF
310
FFFFFFFFFFFFFFFFFFFFFFFFFFFFFFFFFFFFFFFFFFFFFFFFFFFFFFFFFFFFFFFF
310
FFFFFFFFFFFFFFFFFFFFFFFFFFFFFFFFFFFFFFFFFFFFFFFFFFFFFFFFFFFFFFFF
310
FFFFFFFFFFFFFFFFFFFFFFFFFFFFFFFFFFFFFFFFFFFFFFFFFFFFFFFFFFFFFFFF
310
FFFFFFFFFFFFFFFFFFFFFFFFFFFFFFFFFFFFFFFFFFFFFFFFFFFFFFFFFFFFFFFF
310
FFFFFFFFFFFFFFFFFFFFFFFFFFFFFFFFFFFFFFFFFFFFFFFFFFFFFFFFFFFFFFFF
310
FFFFFFFFFFFFFFFFFFFFFFFFFFFFFFFFFFFFFFFFFFFFFFFFFFFFFFFFFFFFFFFF
310
FFFFFFFFFFFFFFFFFFFFFFFFFFFFFFFFFFFFFFFFFFFFFFFFFFFFFFFFFFFFFFFF
310
FFFFFFFFFFFFFFFFFFFFFFFFFFFFFFFFFFFFFFFFFFFFFFFFFFFFFFFFFFFFFFFF
310
FFFFFFFFFFFFFFFFFFFFFFFFFFFFFFFFFFFFFFFFFFFFFFFFFFFFFFFFFFFFFFFF
310
FFFFFFFFFFFFFFFFFFFFFFFFFFFFFFFFFFFFFFFFFFFFFFFFFFFFFFFFFFFFFFFF
310
FFFFFFFFFFFFFFFFFFFFFFFFFFFFFFFFFFFFFFFFFFFFFFFFFFFFFFFFFFFFFFFF
310
FFFFFFFFFFFFFFFFFFFFFFFFFFFFFFFFFFFFFFFFFFFFFFFFFFFFFFFFFFFFFFFF
310
FFFFFFFFFFFFFFFFFFFFFFFFFFFFFFFFFFFFFFFFFFFFFFFFFFFFFFFFFFFFFFFF
310
FFFFFFFFFFFFFFFFFFFFFFFFFFFFFFFFFFFFFFFFFFFFFFFFFFFFFFFFFFFFFFFF
310
0100000200000000000000000000000000000000000000000000000000000000
310
0000000000000000000000000000000000000000000000000000000000000000
310
0100FEFF030A0000FFFFFFFF0A00030000000000C00000000000004607000000
310
5042727573680007000000504272757368000700000050427275736800F439B2
310
7100000000000000000000000000000000000000000000000000000000000000
310
0000000000000000000000000000000000000000000000000000000000000000
310
0000000000000000000000000000000000000000000000000000000000000000
310
0000000000000000000000000000000000000000000000000000000000000000
310
0000000000000000000000000000000000000000000000000000000000000000
310
0000000000000000000000000000000000000000000000000000000000000000
310
0000000000000000000000000000000000000000000000000000000000000000
310
0000000000000000000000000000000000000000000000000000000000000000
310
0000000000000000000000000000000000000000000000000000000000000000
310
0000000000000000000000000000000000000000000000000000000000000000
310
0000000000000000000000000000000000000000000000000000000000000000
310
0000000000000000000000000000000000000000000000000000000000000000
310
20260000424D0E260000000000003E00000028000000B40200006E0000000100
310
01000000000000000000130B0000130B00000200000002000000000000FFFFFF
310
FFFFFFFFFFFFFFFFFFFFFFFFFFFFFFFFFFFFFFFFFFFFFFFFFFFFFFFFFFFFFFFF
310
FFFFFFFFFFFFFFFFFFFFFFFFFFFFFFFFFFFFFFFFFFFFFFFFFFFFFFFFFFFFFFFF
310
FFFFFFFFFFFFFFFFFFFFFFFFFFFFFFFFFFFFFFFFFFFFFFFFF000FFFFFFFFFFFF
310
FFFFFFFFFFFFFFFFFFFFFFFFFFFFFFFFFFFFFFFFFFFFFFFFFFFFFFFFFFFFFFFF
310
FFFFFFFFFFFFFFFFFFFFFFFFFFFFFFFFFFFFFFFFFFFFFFFFFFFFFFFFFFFFFFFF
310
FFFFFFFFFFFFFFFFFFFFFFFFFFFFFFFFF000FFFFFFFFFFFFFFFFFFFFFFFFFFFF
310
FFFFFFFFFFFFFFFFFFFFFFFFFFFFFFFFFFFFFFFFFFFFFFFFFFFFFFFFFFFFFFFF
310
FFFFFFFFFFFFFFFFFFFFFFFFFFFFFFFFFFFFFFFFFFFFFFFFFFFFFFFFFFFFFFFF
310
FFFFFFFFFFFFFFFFF000FFFFFFFFFFFFFFFFFFFFFFFFFFFFFFFFFFFFFFFFFFFF
310
FFFFFFFFFFFFFFFFFFFFFFFFFFFFFFFFFFFFFFFFFFFFFFFFFFFFFFFFFFFFFFFF
310
FFFFFFFFFFFFFFFFFFFFFFFFFFFFFFFFFFFFFFFFFFFFFFFFFFFFFFFFFFFFFFFF
310
F000FFFFFFFFFFFFFFFFFFFFFFFFFFFFFFFFFFFFFFFFFFFFFFFFFFFFFFFFFFFF
310
FFFFFFFFFFFFFFFFFFFFFFFFFFFFFFFFFFFFFFFFFFFFFFFFFFFFFFFFFFFFFFFF
310
FFFFFFFFFFFFFFFFFFFFFFFFFFFFFFFFFFFFFFFFFFFFFFFFF000FFFFFFFFFFFF
310
FFFFFFFFFFFFFFFFFFFFFFFFFFFFFFFFFFFFFFFFFFFFFFFFFFFFFFFFFFFFFFFF
310
FFFFFFFFFFFFFFFFFFFFFFFFFFFFFFFFFFFFFFFFFFFFFFFFFFFFFFFFFFFFFFFF
310
FFFFFFFFFFFFFFFFFFFFFFFFFFFFFFFFF000FFFFFFFFFFFFFFFFFFFFFFFFFFFF
310
FFFFFFFFFFFFFFFFFFFFFFFFFFFFFFFFFFFFFFFFFFFFFFFFFFFFFFFFFFFFFFFF
310
FFFFFFFFFFFFFFFFFFFFFFFFFFFFFFFFFFFFFFFFFFFFFFFFFFFFFFFFFFFFFFFF
310
FFFFFFFFFFFFFFFFF000FFFFFFFFFFFFFFFFFFFFFFFFFFFFFFFFFFFFFFFFFFFF
310
FFFFFFFFFFFFFFFFFFFFFFFFFFFFFFFFFFFFFFFFFFFFFFFFFFFFFFFFFFFFFFFF
310
FFFFFFFFFFFFFFFFFFFFFFFFFFFFFFFFFFFFFFFFFFFFFFFFFFFFFFFFFFFFFFFF
310
F000FFFFFFFFFFFFFFFFFFFFFFFFFFFFFFFFFFFFFFFFFFFFFFFFFFFFFFFFFFFF
310
FFFFFFFFFFFFFFFFFFFFFFFFFFFFFFFFFFFFFFFFFFFFFFFFFFFFFFFFFFFFFFFF
310
FFFFFFFFFFFFFFFFFFFFFFFFFFFFFFFFFFFFFFFFFFFFFFFFF000FFFFFFFFFFFF
310
FFFFFFFFFFFFFFFFFFFFFFFFFFFFFFFFFFFFFFFFFFFFFFFFFFFFFFFFFFFFFFFF
310
FFFFFFFFFFFFFFFFFFFFFFFFFFFFFFFFFFFFFFFFFFFFFFFFFFFFFFFFFFFFFFFF
310
FFFFFFFFFFFFFFFFFFFFFFFFFFFFFFFFF000FFFFFFFFFFFFFFFFFFFFFFFFFFFF
310
FFFFFFFFFFFFFFFFFFFFFFFFFFFFFFFFFFFFFFFFFFFFFFFFFFFFFFFFFFFFFFFF
310
FFFFFFFFFFFFFFFFFFFFFFFFFFFFFFFFFFFFFFFFFFFFFFFFFFFFFFFFFFFFFFFF
310
FFFFFFFFFFFFFFFFF000FFFFFFFFFFFFFFFFFFFFFFFFFFFFFFFFFFFFFFFFFFFF
310
FFFFFFFFFFFFFFFFFFFFFFFFFFFFFFFFFFFFFFFFFFFFFFFFFFFFFFFFFFFFFFFF
310
FFFFFFFFFFFFFFFFFFFFFFFFFFFFFFFFFFFFFFFFFFFFFFFFFFFFFFFFFFFFFFFF
310
F000FFFFFFFFFFFFFFFFFFFFFFFFFFFFFFFFFFFFFFFFFFFFFFFFFFFFFFFFFFFF
310
FFFFFFFFFFFFFFFFFFFFFFFFFFFFFFFFFFFFFFFFFFFFFFFFFFFFFFFFFFFFFFFF
310
FFFFFFFFFFFFFFFFFFFFFFFFFFFFFFFFFFFFFFFFFFFFFFFFF000FFFFFFFFFFFF
310
FFFFFFFFFFFFFFFFFFFFFFFFFFFFFFFFFFFFFFFFFFFFFFFFFFFFFFFFFFFFFFFF
310
FFFFFFFFFFFFFFFFFFFFFFFFFFFFFFFFFFFFFFFFFFFFFFFFFFFFFFFFFFFFFFFF
310
FFFFFFFFFFFFFFFFFFFFFFFFFFFFFFFFF000FFFFFFFFFFFFFFFFFFFFFFFFFFFF
310
FFFFFFFFFFFFFFFFFFFFFFFFFFFFFFFFFFFFFFFFFFFFFFFFFFFFFFFFFFFFFFFF
310
FFFFFFFFFFFFFFFFFFFFFFFFFFFFFFFFFFFFFFFFFFFFFFFFFFFFFFFFFFFFFFFF
310
FFFFFFFFFFFFFFFFF000FFFFFFFFFFFFFFFFFFFFFFFFFFFFFFFFFFFFFFFFFFFF
310
FFFFFFFFFFFFFFFFFFFFFFFFFFFFFFFFFFFFFFFFFFFFFFFFFFFFFFFFFFFFFFFF
310
FFFFFFFFFFFFFFFFFFFFFFFFFFFFFFFFFFFFFFFFFFFFFFFFFFFFFFFFFFFFFFFF
310
F000FFFFFFFFFFFFFFFFFFFFFFFFFFFFFFFFFFFFFFFFFFFFFFFFFFFFFFFFFFFF
310
FFFFFFFFFFFFFFFFFFFFFFFFFFFFFFFFFFFFFFFFFFFFFFFFFFFFFFFFFFFFFFFF
310
FFFFFFFFFFFFFFFFFFFFFFFFFFFFFFFFFFFFFFFFFFFFFFFFF000FFFFFFFFFFFF
310
FFFFFFFFFFFFFFFFFFFFFFFFFFFFFFFFFFFFFFFFFFFFFFFFFFFFFFFFFFFFFFFF
310
FFFFFFFFFFFFFFFFFFFFFFFFFFFFFFFFFFFFFFFFFFFFFFFFFFFFFFFFFFFFFFFF
310
FFFFFFFFFFFFFFFFFFFFFFFFFFFFFFFFF000FFFFFFFFFFFFFFFFFFFFFFFFFFFF
310
FFFFFFFFFFFFFFFFFFFFFFFFFFFFFFFFFFFFFFFFFFFFFFFFFFFFFFFFFFFFFFFF
310
FFFFFFFFFFFFFFFFFFFFFFFFFFFFFFFFFFFFFFFFFFFFFFFFFFFFFFFFFFFFFFFF
310
FFFFFFFFFFFFFFFFF000FFFFF80003FFFFFFFFFFFFFFFFFFFFFFFFFFFFFFFFFF
310
FFFFF00007FFFFFFFFFF00007FFFFFF800000000000000007FFFFFFFFFFFFFFF
310
FFFFFFFC001FFFFFFFFFFFFFFC001FFFFFFFFFFFFFFFFFFFFFFFFFFE0007FFFF
310
F000FFFF8000007FFFFFFFF8000FFFFFC0007FFFFF80007FFFFF0000007FFFFF
310
FFF8000007FFFFF800000000000000007FFFFFF0001FFFFFFFFFFFC00001FFFF
310
FFFFFFFFC00001FFFFFFFF000000000003FFFFE000007FFFF000FFFE0000000F
310
FFFFFFF0000FFFFF80007FFFFF80007FFFFC0000001FFFFFFFC0000001FFFFF8
310
00000000000000007FFFFFF0001FFFFFFFFFFE0000003FFFFFFFFFFE0000003F
310
FFFFFF000000000003FFFF0000000FFFF000FFF800000003FFFFFFF00007FFFF
310
80007FFFFF80007FFFF000000007FFFFFF000000003FFFF80000000000000000
310
7FFFFFF0001FFFFFFFFFF80000000FFFFFFFFFF80000000FFFFFFF0000000000
310
03FFFC00000003FFF000FFE000000000FFFFFFF00007FFFF80003FFFFF80007F
310
FFC000000001FFFFFC000000001FFFF800000000000000007FFFFFF0001FFFFF
310
FFFFE000000003FFFFFFFFE000000003FFFFFF000000000003FFF000000000FF
310
F000FF80000000007FFFFFF00007FFFF80003FFFFF80007FFF8000000000FFFF
310
F80000000007FFF800000000000000007FFFFFF0001FFFFFFFFFC000000001FF
310
FFFFFFC000000001FFFFFF000000000003FFC0000000007FF000FF0000000000
310
3FFFFFE00007FFFF00003FFFFF80007FFE00000000003FFFF00000000003FFF8
310
00000000000000007FFFFFF0001FFFFFFFFF8000000000FFFFFFFF8000000000
310
FFFFFF000000000003FF80000000003FF000FE00000000001FFFFFE00003FFFF
310
00003FFFFF80007FFC00000000001FFFE00000000001FFF8000001FFFE000000
310
7FFFFFF0001FFFFFFFFE00000000003FFFFFFE00000000003FFFFF0000000000
310
03FF00000000001FF000FC00000000000FFFFFE00003FFFF00001FFFFF80007F
310
F800000000001FFFC00000000000FFF8000001FFFE0000007FFFFFF0001FFFFF
310
FFFC00000000001FFFFFFC00000000001FFFFF000000000003FE00000000000F
310
F000F8000000000007FFFFE00003FFFF00001FFFFF80007FF800000000000FFF
310
800000000000FFF8000001FFFE0000007FFFFFF0001FFFFFFFF800000000000F
310
FFFFF800000000000FFFFF000000000003FC000000000007F000F80000000000
310
03FFFFC00003FFFE00001FFFFF80007FF0000000000007FF0000000000007FF8
310
000001FFFE0000007FFFFFF0001FFFFFFFF0000000000007FFFFF00000000000
310
07FFFF000000000003F8000000000003F000F0000000000003FFFFC00001FFFE
310
00001FFFFF80007FE0000000000007FE0000000000003FF8000001FFFE000000
310
7FFFFFF0001FFFFFFFF0000000000007FFFFF0000000000007FFFF0000000000
310
03F800001F800003F000E00001FFF00001FFFFC00001FFFE00000FFFFF80007F
310
E00001FFE00003FE00001FFF00003FF8000001FFFE0000007FFFFFF0001FFFFF
310
FFE000003E000003FFFFE000003E000003FFFF000000000003F00001FFF80001
310
F000E00007FFFC0001FFFFC00001FFFE00000FFFFF80007FC0000FFFFC0003FC
310
0000FFFFC0001FF8000001FFFE0000007FFFFFF0001FFFFFFFC00003FFE00001
310
FFFFC00003FFE00001FFFF0001FFFFFFFFF00007FFFE0001F000E0000FFFFF00
310
00FFFF800001FFFC00000FFFFF80007FC0001FFFFE0001FC0001FFFFE0001FF8
310
000001FFFE0000007FFFFFF0001FFFFFFF80000FFFF80000FFFF80000FFFF800
310
00FFFF0003FFFFFFFFE0000FFFFF8000F000C0003FFFFF8000FFFF800000FFFC
310
000007FFFF80007F80003FFFFF0001FC0003FFFFF0001FF8000001FFFE000000
310
7FFFFFF0001FFFFFFF80003FFFFE0000FFFF80003FFFFE0000FFFF0003FFFFFF
310
FFE0003FFFFF8000F000C0003FFFFF8000FFFF800000FFFC000007FFFF80007F
310
80007FFFFF8001F80007FFFFF8000FF8000001FFFE0000007FFFFFF0001FFFFF
310
FF00007FFFFF00007FFF00007FFFFF00007FFF0003FFFFFFFFE0003FFFFFC000
310
F000C0007FFFFFC000FFFF000000FFFC000007FFFF80007F8000FFFFFF8000F8
310
000FFFFFF8000FF8000001FFFE0000007FFFFFF0001FFFFFFF0000FFFFFF8000
310
7FFF0000FFFFFF80007FFF0003FFFFFFFFC0007FFFFFC00070008000FFFFFFC0
310
00FFFF000000FFF8000007FFFF80007F8000FFFFFF8000F8000FFFFFF8000FF8
310
000001FFFE0000007FFFFFF0001FFFFFFE0001FFFFFFC0003FFE0001FFFFFFC0
310
003FFF0003FFFFFFFFC0007FFFFFE00070008000FFFFFFC0007FFF0000007FF8
310
000003FFFF80007F0001FFFFFF8000F8000FFFFFF8000FF8000001FFFE000000
310
7FFFFFF0001FFFFFFE0001FFFFFFC0003FFE0001FFFFFFC0003FFF0003FFFFFF
310
FFC000FFFFFFE00070008000FFFFFFC0007FFF0000007FF8000003FFFF80007F
310
0001FFFFFF8000F8001FFFFFF8000FF8000001FFFE0000007FFFFFF0001FFFFF
310
FE0003FFFFFFE0003FFE0003FFFFFFE0003FFF0003FFFFFFFFC000FFFFFFE000
310
70008000FFFFFFC0007FFE0000007FF8000003FFFF80007F0001FFFFFF8000F0
310
001FFFFFF8000FF8000001FFFE0000007FFFFFF0001FFFFFFC0003FFFFFFE000
310
1FFC0003FFFFFFE0001FFF0003FFFFFFFFC000FFFFFFC00070008000FFFFFF80
310
007FFE0000007FF0000003FFFF80007F0001FFFFFF0000F0001FFFFFF8000FF8
310
000001FFFE0000007FFFFFF0001FFFFFFC0007FFFFFFF0001FFC0007FFFFFFF0
310
001FFF0003FFFFFFFFC000FFFFFFC00070008001FFFFFF0000FFFE0000003FF0
310
000001FFFF80007F0001FFFFFF0000F8001FFFFFF0000FF8000001FFFE000000
310
7FFFFFF0001FFFFFFC0007FFFFFFF0001FFC0007FFFFFFF0001FFF0003FFFFFF
310
FFC001FFFFFF80007000FFFFFFFFFE0000FFFE0008003FF0008001FFFF80007F
310
FFFFFFFFFC0000FFFFFFFFFFE0000FF8000001FFFE0000007FFFFFF0001FFFFF
310
F8000FFFFFFFF8000FF8000FFFFFFFF8000FFF0003FFFFFFFFFFFFFFFFFF0000
310
7000FFFFFFFFFC0000FFFC0008003FF0008001FFFF80007FFFFFFFFFF80001FF
310
FFFFFFFF80000FF8000001FFFE0000007FFFFFF0001FFFFFF8000FFFFFFFF800
310
0FF8000FFFFFFFF8000FFF0003FFFFFFFFFFFFFFFFFE0000F000FFFFFFFFE000
310
00FFFC000C003FE000C001FFFF80007FFFFFFFFFC00001FFFFFFFFFE00001FF8
310
000001FFFE0000007FFFFFF0001FFFFFF8000FFFFFFFF8000FF8000FFFFFFFF8
310
000FFF0003FFFFFFFFFFFFFFFFF00000F000FFFFFFFE000001FFFC000C001FE0
310
00C000FFFF80007FFFFFFFFE000001FFFFFFFFE000001FF80FFFFFFFFFFFFFC0
310
7FFFFFF0001FFFFFF8000FFFFFFFF8000FF8000FFFFFFFF8000FFF0003FFFFFF
310
FFFFFFFFFF800000F000FFFFFFC0000001FFFC001C001FE001C000FFFF80007F
310
FFFFFF80000003FFFFFFF80000001FF80FFFFFFFFFFFFFC07FFFFFF0001FFFFF
310
F8001FFFFFFFFC000FF8001FFFFFFFFC000FFF0003FFFFFFFFFFFFFFF0000001
310
F000FFFFF800000001FFF8001C001FE001C000FFFF80007FFFFFF800000003FF
310
FFFF800000003FF80FFFFFFFFFFFFFC07FFFFFF0001FFFFFF8001FFFFFFFFC00
310
0FF8001FFFFFFFFC000FFF0003FFFFFFFFFFFFFE00000001F000FFFFC0000000
310
03FFF8001E001FC001E000FFFF80007FFFFF8000000007FFFFFC000000003FF8
310
0FFFFFFFFFFFFFC07FFFFFF0001FFFFFF8001FFFFFFFFC000FF8001FFFFFFFFC
310
000FFF0003FFFFFFFFFFFFE000000003F000FFFE0000000007FFF8001E000FC0
310
01E0007FFF80007FFFFE0000000007FFFFE0000000007FF80FFFFFFFFFFFFFC0
310
7FFFFFF0001FFFFFF0001FFFFFFFFC0007F0001FFFFFFFFC0007FF0003FFFFFF
310
FFFFFF0000000003F000FFF80000000007FFF8001E000FC003E0007FFF80007F
310
FFF0000000000FFFFF8000000000FFF80FFFFFFFFFFFFFC07FFFFFF0001FFFFF
310
F0001FFFFFFFFC0007F0001FFFFFFFFC0007FF0003FFFFFFFFFFFC0000000007
310
F000FFE0000000000FFFF0003E000FC003E0007FFF80007FFFC0000000001FFF
310
FE0000000001FFF80FFFFFFFFFFFFFC07FFFFFF0001FFFFFF0001FFFFFFFFC00
310
07F0001FFFFFFFFC0007FF0003FFFFFFFFFFF0000000000FF000FFC000000000
310
1FFFF0003F000F8003F0003FFF80007FFF80000000003FFFF80000000003FFF8
310
0FFFFFFFFFFFFFC07FFFFFF0001FFFFFF0001FFFFFFFFC0007F0001FFFFFFFFC
310
0007FF0003FFFFFFFFFFE0000000001FF000FF00000000007FFFF0003F000780
310
03F0003FFF80007FFF00000000007FFFF00000000007FFF80FFFFFFFFFFFFFC0
310
7FFFFFF0001FFFFFF0001FFFFFFFFC0007F0001FFFFFFFFC0007FF0003FFFFFF
310
FFFF80000000007FF000FE0000000000FFFFE0003F00078007F0003FFF80007F
310
FE0000000001FFFFE0000000001FFFF80FFFFFFFFFFFFFC07FFFFFF0001FFFFF
310
F0001FFFFFFFFC0007F0001FFFFFFFFC0007FF0003FFFFFFFFFF0000000000FF
310
F000FC0000000003FFFFE0007F00078007F0003FFF80007FFC0000000007FFFF
310
C0000000007FFFF80FFFFFFFFFFFFFC07FFFFFF0001FFFFFF8001FFFFFFFFC00
310
0FF8001FFFFFFFFC000FFF0003FFFFFFFFFE0000000003FFF000FC000000000F
310
FFFFE0007F80070007F8001FFF80007FF8000000001FFFFF8000000001FFFFF8
310
0FFFFFFFFFFFFFC07FFFFFF0001FFFFFF8001FFFFFFFFC000FF8001FFFFFFFFC
310
000FFF0003FFFFFFFFFC000000000FFFF000F8000000007FFFFFE0007F800700
310
07F8001FFF80007FF000000000FFFFFF800000000FFFFFF80FFFFFFFFFFFFFC0
310
7FFFFFF0001FFFFFF8000FFFFFFFF8000FF8000FFFFFFFF8000FFF0003FFFFFF
310
FFFC000000007FFFF000F800000007FFFFFFC0007F8003000FF8001FFF80007F
310
F000000007FFFFFF000000007FFFFFF80FFFFFFFFFFFFFC07FFFFFF0001FFFFF
310
F8000FFFFFFFF8000FF8000FFFFFFFF8000FFF0003FFFFFFFFF80000000FFFFF
310
F000F0000000FFFFFFFFC000FF8003000FF8001FFF80007FE0000000FFFFFFFF
310
0000000FFFFFFFF8000001FFFE0000007FFFFFF0001FFFFFF8000FFFFFFFF800
310
0FF8000FFFFFFFF8000FFF0003FFFFFFFFF8000000FFFFFFF000F000000FFFFF
310
FFFFC000FFC002000FF8000FFF80007FE000001FFFFFFFFE000001FFFFFFFFF8
310
000001FFFE0000007FFFFFF0001FFFFFF8000FFFFFFFF8000FF8000FFFFFFFF8
310
000FFF0003FFFFFFFFF000001FFFFFFFF000E00000FFFFFFFFFFC000FFC00200
310
0FFC000FFF80007FE00001FFFFFFFFFE00001FFFFFFFFFF8000001FFFE000000
310
7FFFFFF0001FFFFFFC000FFFFFFFF8001FFC000FFFFFFFF8001FFF0003FFFFFF
310
FFF00001FFFFFFFFF000E00007FFFFFFFFFF8000FFC000001FFC000FFF80007F
310
C0000FFFFFFFFFFE0000FFFFFFFFFFF8000001FFFE0000007FFFFFF0001FFFFF
310
FC0007FFFFFFF0001FFC0007FFFFFFF0001FFF0003FFFFFFFFF00007FFFFFFFF
310
F000E0001FFFFFFFFFFF8000FFC000001FFC000FFF80007FC0003FFFFFFFFFFE
310
0001FFFFFFFFFFF8000001FFFE0000007FFFFFF0001FFFFFFC0007FFFFFFF000
310
1FFC0007FFFFFFF0001FFF0003FFFFFFFFF0001FFFFFFFFFF000E0003FFFFF00
310
03FF8001FFE000001FFC0007FF80007FC0007FFFFF0007FC0003FFFFF0003FF8
310
000001FFFE0000007FFFFFF0001FFFFFFC0003FFFFFFE0001FFC0003FFFFFFE0
310
001FFF0003FFFFFFFFF0003FFFFFFFFFF000E0003FFFFF0001FF8001FFE00000
310
1FFE0007FF80007FC0007FFFFE0003FC0007FFFFE0003FF8000001FFFE000000
310
7FFFFFF0001FFFFFFE0003FFFFFFE0003FFE0003FFFFFFE0003FFF0003FFFFFF
310
FFF0003FFFFF8001F000E0003FFFFF0001FF0001FFE000001FFE0007FF80007F
310
C0007FFFFE0003FC0007FFFFE0003FF8000001FFFE0000007FFFFFF0001FFFFF
310
FE0001FFFFFFC0003FFE0001FFFFFFC0003FFF0003FFFFFFFFF0003FFFFF0001
310
F000E0003FFFFF0003FF0001FFE000003FFE0007FF80007FC0007FFFFE0003FC
310
0007FFFFE0003FF8000001FFFE0000007FFFFFF0001FFFFFFF0001FFFFFFC000
310
7FFF0001FFFFFFC0007FFF0003FFFFFFFFF0003FFFFF0001F000E0003FFFFE00
310
03FF0003FFF000003FFE0003FF80007FC0007FFFFC0003FE0007FFFFE0003FF8
310
000001FFFE0000007FFFFFF0001FFFFFFF0000FFFFFF80007FFF0000FFFFFF80
310
007FFF0003FFFFFFFFF0003FFFFF0001F000E0003FFFFE0003FF0003FFF00000
310
3FFF0003FF80007FC0007FFFFC0007FE0007FFFFC0003FF8000001FFFE000000
310
7FFFFFF0001FFFFFFF80007FFFFF0000FFFF80007FFFFF0000FFFF0003FFFFFF
310
FFF0003FFFFF0003F000E0003FFFFC0003FE0003FFF000003FFF0003FF80007F
310
E0003FFFF80007FE0003FFFFC0007FF8000001FFFE0000007FFFFFF0001FFFFF
310
FF80003FFFFE0000FFFF80003FFFFE0000FFFF0003FFFFFFFFF0001FFFFE0003
310
F000F0001FFFF80003FE0003FFF000007FFF0001FF80007FE0003FFFF00007FE
310
0001FFFF80007FF8000001FFFE0000007FFFFFF0001FFFFFFFC0000FFFF80001
310
FFFFC0000FFFF80001FFFF0003FFFFFFFFF0001FFFFC0003F000F0000FFFF000
310
07FE0007FFF800007FFF0001FF80007FE0001FFFE00007FF0000FFFE00007FF8
310
000001FFFE0000007FFFFFF0001FFFFFFFC00003FFE00001FFFFC00003FFE000
310
01FFFF0003FFFFFFFFF8000FFFF80003F000F00003FFC00007FC0007FFF80000
310
7FFF8001FF80007FF00007FF80000FFF00007FF80000FFF8000001FFFE000000
310
7F80000000000001FFE000003E000003FFFFE000003E000003FFFF0003FFFFFF
310
FFF80003FFE00007F000F800000000000FFC0007FFF800007FFF8001FF80007F
310
F000000000000FFF000000000000FFF8000001FFFE0000007F80000000000001
310
FFF0000000000007FFFFF0000000000007FFFF0003FFFFFFFFFC00007E000007
310
F000F800000000000FFC0007FFF80000FFFF8000FF80007FF800000000001FFF
310
800000000001FFF8000001FFFE0000007F80000000000001FFF800000000000F
310
FFFFF800000000000FFFFF0003FFFFFFFFFC00000000000FF000FC0000000000
310
1FFC0007FFFC0000FFFF8000FF80007FF800000000003FFFC00000000001FFF8
310
000001FFFE0000007F80000000000001FFF800000000000FFFFFF80000000000
310
0FFFFF0003FFFFFFFFFE00000000001FF000FE00000000003FF8000FFFFC0000
310
FFFF8000FF80007FFC00000000003FFFC00000000003FFF8000001FFFE000000
310
7F80000000000001FFFC00000000001FFFFFFC00000000001FFFFF0003FFFFFF
310
FFFF00000000001FF000FF00000000003FF8000FFFFC0000FFFFC000FF80007F
310
FE00000000007FFFE00000000007FFF8000001FFFE0000007F80000000000001
310
FFFE00000000003FFFFFFE00000000003FFFFF0003FFFFFFFFFF80000000003F
310
F000FF80000000007FF8000FFFFC0001FFFFC0007F80007FFF0000000000FFFF
310
F0000000000FFFF800000000000000007F80000000000001FFFF8000000000FF
310
FFFFFF8000000000FFFFFF0003FFFFFFFFFFC0000000007FF000FFC000000000
310
FFF8000FFFFE0001FFFFC0007F80007FFF8000000001FFFFF8000000001FFFF8
310
00000000000000007F80000000000001FFFFC000000001FFFFFFFFC000000001
310
FFFFFF0003FFFFFFFFFFE000000000FFF000FFE000000003FFF0001FFFFE0001
310
FFFFC0007F80007FFFC000000007FFFFFE000000003FFFF80000000000000000
310
7F80000000000001FFFFE000000003FFFFFFFFE000000003FFFFFF0003FFFFFF
310
FFFFF000000003FFF000FFF80000000FFFF0001FFFFE0001FFFFE0007F80007F
310
FFF00000000FFFFFFF00000000FFFFF800000000000000007F80000000000001
310
FFFFF80000000FFFFFFFFFF80000000FFFFFFF0003FFFFFFFFFFFC0000000FFF
310
F000FFFE0000003FFFF0001FFFFE0003FFFFE0003F80007FFFFC0000003FFFFF
310
FFC0000003FFFFF800000000000000007F80000000000001FFFFFE0000003FFF
310
FFFFFFFE0000003FFFFFFF0003FFFFFFFFFFFF0000003FFFF000FFFF800000FF
310
FFF0001FFFFF0003FFFFE0003F80007FFFFF000001FFFFFFFFF800001FFFFFF8
310
00000000000000007F80000000000001FFFFFFC00001FFFFFFFFFFFFC00001FF
310
FFFFFF0003FFFFFFFFFFFFC00000FFFFF000FFFFF8000FFFFFFFFFFFFFFFFFFF
310
FFFFFFFFFFFFFFFFFFFFF0001FFFFFFFFFFF0000FFFFFFF80000000000000000
310
7FFFFFFFFFFFFFFFFFFFFFFC001FFFFFFFFFFFFFFC001FFFFFFFFFFFFFFFFFFF
310
FFFFFFFC001FFFFFF000FFFFFFFFFFFFFFFFFFFFFFFFFFFFFFFFFFFFFFFFFFFF
310
FFFFFFFFFFFFFFFFFFFFFFFFFFFFFFFFFFFFFFFFFFFFFFFFFFFFFFFFFFFFFFFF
310
FFFFFFFFFFFFFFFFFFFFFFFFFFFFFFFFFFFFFFFFFFFFFFFFFFFFFFFFFFFFFFFF
310
F000FFFFFFFFFFFFFFFFFFFFFFFFFFFFFFFFFFFFFFFFFFFFFFFFFFFFFFFFFFFF
310
FFFFFFFFFFFFFFFFFFFFFFFFFFFFFFFFFFFFFFFFFFFFFFFFFFFFFFFFFFFFFFFF
310
FFFFFFFFFFFFFFFFFFFFFFFFFFFFFFFFFFFFFFFFFFFFFFFFF000FFFFFFFFFFFF
310
FFFFFFFFFFFFFFFFFFFFFFFFFFFFFFFFFFFFFFFFFFFFFFFFFFFFFFFFFFFFFFFF
310
FFFFFFFFFFFFFFFFFFFFFFFFFFFFFFFFFFFFFFFFFFFFFFFFFFFFFFFFFFFFFFFF
310
FFFFFFFFFFFFFFFFFFFFFFFFFFFFFFFFF000FFFFFFFFFFFFFFFFFFFFFFFFFFFF
310
FFFFFFFFFFFFFFFFFFFFFFFFFFFFFFFFFFFFFFFFFFFFFFFFFFFFFFFFFFFFFFFF
310
FFFFFFFFFFFFFFFFFFFFFFFFFFFFFFFFFFFFFFFFFFFFFFFFFFFFFFFFFFFFFFFF
310
FFFFFFFFFFFFFFFFF000FFFFFFFFFFFFFFFFFFFFFFFFFFFFFFFFFFFFFFFFFFFF
310
FFFFFFFFFFFFFFFFFFFFFFFFFFFFFFFFFFFFFFFFFFFFFFFFFFFFFFFFFFFFFFFF
310
FFFFFFFFFFFFFFFFFFFFFFFFFFFFFFFFFFFFFFFFFFFFFFFFFFFFFFFFFFFFFFFF
310
F000FFFFFFFFFFFFFFFFFFFFFFFFFFFFFFFFFFFFFFFFFFFFFFFFFFFFFFFFFFFF
310
FFFFFFFFFFFFFFFFFFFFFFFFFFFFFFFFFFFFFFFFFFFFFFFFFFFFFFFFFFFFFFFF
310
FFFFFFFFFFFFFFFFFFFFFFFFFFFFFFFFFFFFFFFFFFFFFFFFF000FFFFFFFFFFFF
310
FFFFFFFFFFFFFFFFFFFFFFFFFFFFFFFFFFFFFFFFFFFFFFFFFFFFFFFFFFFFFFFF
310
FFFFFFFFFFFFFFFFFFFFFFFFFFFFFFFFFFFFFFFFFFFFFFFFFFFFFFFFFFFFFFFF
310
FFFFFFFFFFFFFFFFFFFFFFFFFFFFFFFFF000FFFFFFFFFFFFFFFFFFFFFFFFFFFF
310
FFFFFFFFFFFFFFFFFFFFFFFFFFFFFFFFFFFFFFFFFFFFFFFFFFFFFFFFFFFFFFFF
310
FFFFFFFFFFFFFFFFFFFFFFFFFFFFFFFFFFFFFFFFFFFFFFFFFFFFFFFFFFFFFFFF
310
FFFFFFFFFFFFFFFFF000FFFFFFFFFFFFFFFFFFFFFFFFFFFFFFFFFFFFFFFFFFFF
310
FFFFFFFFFFFFFFFFFFFFFFFFFFFFFFFFFFFFFFFFFFFFFFFFFFFFFFFFFFFFFFFF
310
FFFFFFFFFFFFFFFFFFFFFFFFFFFFFFFFFFFFFFFFFFFFFFFFFFFFFFFFFFFFFFFF
310
F000FFFFFFFFFFFFFFFFFFFFFFFFFFFFFFFFFFFFFFFFFFFFFFFFFFFFFFFFFFFF
310
FFFFFFFFFFFFFFFFFFFFFFFFFFFFFFFFFFFFFFFFFFFFFFFFFFFFFFFFFFFFFFFF
310
FFFFFFFFFFFFFFFFFFFFFFFFFFFFFFFFFFFFFFFFFFFFFFFFF000FFFFFFFFFFFF
310
FFFFFFFFFFFFFFFFFFFFFFFFFFFFFFFFFFFFFFFFFFFFFFFFFFFFFFFFFFFFFFFF
310
FFFFFFFFFFFFFFFFFFFFFFFFFFFFFFFFFFFFFFFFFFFFFFFFFFFFFFFFFFFFFFFF
310
FFFFFFFFFFFFFFFFFFFFFFFFFFFFFFFFF000FFFFFFFFFFFFFFFFFFFFFFFFFFFF
310
FFFFFFFFFFFFFFFFFFFFFFFFFFFFFFFFFFFFFFFFFFFFFFFFFFFFFFFFFFFFFFFF
310
FFFFFFFFFFFFFFFFFFFFFFFFFFFFFFFFFFFFFFFFFFFFFFFFFFFFFFFFFFFFFFFF
310
FFFFFFFFFFFFFFFFF000FFFFFFFFFFFFFFFFFFFFFFFFFFFFFFFFFFFFFFFFFFFF
310
FFFFFFFFFFFFFFFFFFFFFFFFFFFFFFFFFFFFFFFFFFFFFFFFFFFFFFFFFFFFFFFF
310
FFFFFFFFFFFFFFFFFFFFFFFFFFFFFFFFFFFFFFFFFFFFFFFFFFFFFFFFFFFFFFFF
310
F000FFFFFFFFFFFFFFFFFFFFFFFFFFFFFFFFFFFFFFFFFFFFFFFFFFFFFFFFFFFF
310
FFFFFFFFFFFFFFFFFFFFFFFFFFFFFFFFFFFFFFFFFFFFFFFFFFFFFFFFFFFFFFFF
310
FFFFFFFFFFFFFFFFFFFFFFFFFFFFFFFFFFFFFFFFFFFFFFFFF000FFFFFFFFFFFF
310
FFFFFFFFFFFFFFFFFFFFFFFFFFFFFFFFFFFFFFFFFFFFFFFFFFFFFFFFFFFFFFFF
310
FFFFFFFFFFFFFFFFFFFFFFFFFFFFFFFFFFFFFFFFFFFFFFFFFFFFFFFFFFFFFFFF
310
FFFFFFFFFFFFFFFFFFFFFFFFFFFFFFFFF000FFFFFFFFFFFFFFFFFFFFFFFFFFFF
310
FFFFFFFFFFFFFFFFFFFFFFFFFFFFFFFFFFFFFFFFFFFFFFFFFFFFFFFFFFFFFFFF
310
FFFFFFFFFFFFFFFFFFFFFFFFFFFFFFFFFFFFFFFFFFFFFFFFFFFFFFFFFFFFFFFF
310
FFFFFFFFFFFFFFFFF000FFFFFFFFFFFFFFFFFFFFFFFFFFFFFFFFFFFFFFFFFFFF
310
FFFFFFFFFFFFFFFFFFFFFFFFFFFFFFFFFFFFFFFFFFFFFFFFFFFFFFFFFFFFFFFF
310
FFFFFFFFFFFFFFFFFFFFFFFFFFFFFFFFFFFFFFFFFFFFFFFFFFFFFFFFFFFFFFFF
310
F000FFFFFFFFFFFFFFFFFFFFFFFFFFFFFFFFFFFFFFFFFFFFFFFFFFFFFFFFFFFF
310
FFFFFFFFFFFFFFFFFFFFFFFFFFFFFFFFFFFFFFFFFFFFFFFFFFFFFFFFFFFFFFFF
310
FFFFFFFFFFFFFFFFFFFFFFFFFFFFFFFFFFFFFFFFFFFFFFFFF000FFFFFFFFFFFF
310
FFFFFFFFFFFFFFFFFFFFFFFFFFFFFFFFFFFFFFFFFFFFFFFFFFFFFFFFFFFFFFFF
310
FFFFFFFFFFFFFFFFFFFFFFFFFFFFFFFFFFFFFFFFFFFFFFFFFFFFFFFFFFFFFFFF
310
FFFFFFFFFFFFFFFFFFFFFFFFFFFFFFFFF000FFFFFFFFFFFFFFFFFFFFFFFFFFFF
310
FFFFFFFFFFFFFFFFFFFFFFFFFFFFFFFFFFFFFFFFFFFFFFFFFFFFFFFFFFFFFFFF
310
FFFFFFFFFFFFFFFFFFFFFFFFFFFFFFFFFFFFFFFFFFFFFFFFFFFFFFFFFFFFFFFF
310
FFFFFFFFFFFFFFFFF000FFFFFFFFFFFFFFFFFFFFFFFFFFFFFFFFFFFFFFFFFFFF
310
FFFFFFFFFFFFFFFFFFFFFFFFFFFFFFFFFFFFFFFFFFFFFFFFFFFFFFFFFFFFFFFF
310
FFFFFFFFFFFFFFFFFFFFFFFFFFFFFFFFFFFFFFFFFFFFFFFFFFFFFFFFFFFFFFFF
310
F000FFFFFFFFFFFFFFFFFFFFFFFFFFFFFFFFFFFFFFFFFFFFFFFFFFFFFFFFFFFF
310
FFFFFFFFFFFFFFFFFFFFFFFFFFFFFFFFFFFFFFFFFFFFFFFFFFFFFFFFFFFFFFFF
310
FFFFFFFFFFFFFFFFFFFFFFFFFFFFFFFFFFFFFFFFFFFFFFFFF000FFFFFFFFFFFF
310
FFFFFFFFFFFFFFFFFFFFFFFFFFFFFFFFFFFFFFFFFFFFFFFFFFFFFFFFFFFFFFFF
310
FFFFFFFFFFFFFFFFFFFFFFFFFFFFFFFFFFFFFFFFFFFFFFFFFFFFFFFFFFFFFFFF
310
FFFFFFFFFFFFFFFFFFFFFFFFFFFFFFFFF0000000000000000000000000000000
310
0000000000000000000000000000000000000000000000000000000000000000
310
0000000000000000000000000000000000000000000000000000000000000000
310
0000000000000000000000000000000000000000000000000000000000000000
310
0000000000000000000000000000000000000000000000000000000000000000
310
0000000000000000000000000000000000000000000000000000000000000000
310
0000000000000000000000000000000000000000000000000000000000000000
310
0000000000000000000000000000000000000000000000000000000000000000
310
0000000000000000000000000000000000000000000000000000000000000000
310
0000000000000000000000000000000000000000000000000000000000000000
310
0000000000000000000000000000000000000000000000000000000000000000
310
0000000000000000000000000000000000000000000000000000000000000000
310
0000000000000000000000000000000000000000000000000000000000000000
310
0000000000000000000000000000000000000000000000000000000000000000
310
0000000000000000000000000000000000000000000000000000000000000000
310
0000000000000000000000000000000000000000000000000000000000000000
  1
OLE
  0
ENDSEC
  0
SECTION
  2
OBJECTS
  0
DICTIONARY
  5
C
330
0
100
AcDbDictionary
281
     1
  3
ACAD_GROUP
350
D
  3
ACAD_LAYOUT
350
1A
  3
ACAD_MLINESTYLE
350
17
  3
ACAD_PLOTSETTINGS
350
19
  3
ACAD_PLOTSTYLENAME
350
E
  3
ACAD_SCALELIST
350
47
  0
DICTIONARY
  5
D
102
{ACAD_REACTORS
330
C
102
}
330
C
100
AcDbDictionary
281
     1
  0
DICTIONARY
  5
1A
102
{ACAD_REACTORS
330
C
102
}
330
C
100
AcDbDictionary
281
     1
  3
Layout1
350
1E
  3
Layout2
350
26
  3
Model
350
22
  0
DICTIONARY
  5
17
102
{ACAD_REACTORS
330
C
102
}
330
C
100
AcDbDictionary
281
     1
  3
Standard
350
18
  0
DICTIONARY
  5
19
102
{ACAD_REACTORS
330
C
102
}
330
C
100
AcDbDictionary
281
     1
  0
ACDBDICTIONARYWDFLT
  5
E
102
{ACAD_REACTORS
330
C
102
}
330
C
100
AcDbDictionary
281
     1
  3
Normal
350
F
100
AcDbDictionaryWithDefault
340
F
  0
DICTIONARY
  5
47
102
{ACAD_REACTORS
330
C
102
}
330
C
100
AcDbDictionary
281
     1
  3
A0
350
48
  3
A1
350
49
  3
A2
350
4A
  3
A3
350
4B
  3
A4
350
4C
  3
A5
350
4D
  3
A6
350
4E
  3
A7
350
4F
  3
A8
350
50
  3
A9
350
51
  3
B0
350
52
  3
B1
350
53
  3
B2
350
54
  3
B3
350
55
  3
B4
350
56
  3
B5
350
57
  3
B6
350
58
  3
B7
350
59
  3
B8
350
5A
  3
B9
350
5B
  3
C0
350
5C
  3
C1
350
5D
  3
C2
350
5E
  3
C3
350
5F
  3
C4
350
60
  3
C5
350
61
  3
C6
350
62
  3
C7
350
63
  3
C8
350
64
  3
C9
350
65
  3
D0
350
66
  3
D1
350
67
  3
D2
350
68
  0
LAYOUT
  5
1E
102
{ACAD_REACTORS
330
1A
102
}
330
1A
100
AcDbPlotSettings
  1

  2
none_device
  4

  6

 40
0.0
 41
0.0
 42
0.0
 43
0.0
 44
0.0
 45
0.0
 46
0.0
 47
0.0
 48
0.0
 49
0.0
140
0.0
141
0.0
142
1.0
143
1.0
 70
   688
 72
     1
 73
     0
 74
     5
  7

 75
    16
147
1.0
148
0.0
149
0.0
100
AcDbLayout
  1
Layout1
 70
     1
 71
     1
 10
0.0
 20
0.0
 11
420.0
 21
297.0
 12
0.0
 22
0.0
 32
0.0
 14
1.0000000000E+20
 24
1.0000000000E+20
 34
1.0000000000E+20
 15
-1.0000000000E+20
 25
-1.0000000000E+20
 35
-1.0000000000E+20
146
0.0
 13
0.0
 23
0.0
 33
0.0
 16
1.0
 26
0.0
 36
0.0
 17
0.0
 27
1.0
 37
0.0
 76
     0
330
1B
  0
LAYOUT
  5
26
102
{ACAD_REACTORS
330
1A
102
}
330
1A
100
AcDbPlotSettings
  1

  2
none_device
  4

  6

 40
0.0
 41
0.0
 42
0.0
 43
0.0
 44
0.0
 45
0.0
 46
0.0
 47
0.0
 48
0.0
 49
0.0
140
0.0
141
0.0
142
1.0
143
1.0
 70
   688
 72
     1
 73
     0
 74
     5
  7

 75
    16
147
1.0
148
0.0
149
0.0
100
AcDbLayout
  1
Layout2
 70
     1
 71
     2
 10
0.0
 20
0.0
 11
0.0
 21
0.0
 12
0.0
 22
0.0
 32
0.0
 14
0.0
 24
0.0
 34
0.0
 15
0.0
 25
0.0
 35
0.0
146
0.0
 13
0.0
 23
0.0
 33
0.0
 16
1.0
 26
0.0
 36
0.0
 17
0.0
 27
1.0
 37
0.0
 76
     0
330
23
  0
LAYOUT
  5
22
102
{ACAD_REACTORS
330
1A
102
}
330
1A
100
AcDbPlotSettings
  1

  2
none_device
  4
Letter_(8.50_x_11.00_Inches)
  6

 40
6.35
 41
6.35
 42
6.35000508
 43
6.35000508
 44
215.9
 45
279.4
 46
0.0
 47
0.0
 48
0.0
 49
0.0
140
0.0
141
0.0
142
1.0
143
1.0
 70
  1712
 72
     1
 73
     0
 74
     0
  7

 75
     0
147
1.0
148
0.0
149
0.0
100
AcDbLayout
  1
Model
 70
     1
 71
     0
 10
0.0
 20
0.0
 11
297.0
 21
210.0
 12
0.0
 22
0.0
 32
0.0
 14
0.0
 24
0.0
 34
0.0
 15
297.0
 25
210.0
 35
0.0
146
0.0
 13
0.0
 23
0.0
 33
0.0
 16
1.0
 26
0.0
 36
0.0
 17
0.0
 27
1.0
 37
0.0
 76
     0
330
1F
331
29
  0
MLINESTYLE
  5
18
102
{ACAD_REACTORS
330
17
102
}
330
17
100
AcDbMlineStyle
  2
Standard
 70
     0
  3

 62
   256
 51
90.0
 52
90.0
 71
     2
 49
0.5
 62
   256
  6
BYLAYER
 49
-0.5
 62
   256
  6
BYLAYER
  0
ACDBPLACEHOLDER
  5
F
102
{ACAD_REACTORS
330
E
102
}
330
E
  0
SCALE
  5
48
102
{ACAD_REACTORS
330
47
102
}
330
47
100
AcDbScale
 70
     0
300
1:1
140
1.0
141
1.0
290
     1
  0
SCALE
  5
49
102
{ACAD_REACTORS
330
47
102
}
330
47
100
AcDbScale
 70
     0
300
1:2
140
1.0
141
2.0
290
     0
  0
SCALE
  5
4A
102
{ACAD_REACTORS
330
47
102
}
330
47
100
AcDbScale
 70
     0
300
1:4
140
1.0
141
4.0
290
     0
  0
SCALE
  5
4B
102
{ACAD_REACTORS
330
47
102
}
330
47
100
AcDbScale
 70
     0
300
1:5
140
1.0
141
5.0
290
     0
  0
SCALE
  5
4C
102
{ACAD_REACTORS
330
47
102
}
330
47
100
AcDbScale
 70
     0
300
1:8
140
1.0
141
8.0
290
     0
  0
SCALE
  5
4D
102
{ACAD_REACTORS
330
47
102
}
330
47
100
AcDbScale
 70
     0
300
1:10
140
1.0
141
10.0
290
     0
  0
SCALE
  5
4E
102
{ACAD_REACTORS
330
47
102
}
330
47
100
AcDbScale
 70
     0
300
1:16
140
1.0
141
16.0
290
     0
  0
SCALE
  5
4F
102
{ACAD_REACTORS
330
47
102
}
330
47
100
AcDbScale
 70
     0
300
1:20
140
1.0
141
20.0
290
     0
  0
SCALE
  5
50
102
{ACAD_REACTORS
330
47
102
}
330
47
100
AcDbScale
 70
     0
300
1:30
140
1.0
141
30.0
290
     0
  0
SCALE
  5
51
102
{ACAD_REACTORS
330
47
102
}
330
47
100
AcDbScale
 70
     0
300
1:40
140
1.0
141
40.0
290
     0
  0
SCALE
  5
52
102
{ACAD_REACTORS
330
47
102
}
330
47
100
AcDbScale
 70
     0
300
1:50
140
1.0
141
50.0
290
     0
  0
SCALE
  5
53
102
{ACAD_REACTORS
330
47
102
}
330
47
100
AcDbScale
 70
     0
300
1:100
140
1.0
141
100.0
290
     0
  0
SCALE
  5
54
102
{ACAD_REACTORS
330
47
102
}
330
47
100
AcDbScale
 70
     0
300
2:1
140
2.0
141
1.0
290
     0
  0
SCALE
  5
55
102
{ACAD_REACTORS
330
47
102
}
330
47
100
AcDbScale
 70
     0
300
4:1
140
4.0
141
1.0
290
     0
  0
SCALE
  5
56
102
{ACAD_REACTORS
330
47
102
}
330
47
100
AcDbScale
 70
     0
300
8:1
140
8.0
141
1.0
290
     0
  0
SCALE
  5
57
102
{ACAD_REACTORS
330
47
102
}
330
47
100
AcDbScale
 70
     0
300
10:1
140
10.0
141
1.0
290
     0
  0
SCALE
  5
58
102
{ACAD_REACTORS
330
47
102
}
330
47
100
AcDbScale
 70
     0
300
100:1
140
100.0
141
1.0
290
     0
  0
SCALE
  5
59
102
{ACAD_REACTORS
330
47
102
}
330
47
100
AcDbScale
 70
     0
300
1/128" = 1'-0"
140
0.0078125
141
12.0
290
     0
  0
SCALE
  5
5A
102
{ACAD_REACTORS
330
47
102
}
330
47
100
AcDbScale
 70
     0
300
1/64" = 1'-0"
140
0.015625
141
12.0
290
     0
  0
SCALE
  5
5B
102
{ACAD_REACTORS
330
47
102
}
330
47
100
AcDbScale
 70
     0
300
1/32" = 1'-0"
140
0.03125
141
12.0
290
     0
  0
SCALE
  5
5C
102
{ACAD_REACTORS
330
47
102
}
330
47
100
AcDbScale
 70
     0
300
1/16" = 1'-0"
140
0.0625
141
12.0
290
     0
  0
SCALE
  5
5D
102
{ACAD_REACTORS
330
47
102
}
330
47
100
AcDbScale
 70
     0
300
3/32" = 1'-0"
140
0.09375
141
12.0
290
     0
  0
SCALE
  5
5E
102
{ACAD_REACTORS
330
47
102
}
330
47
100
AcDbScale
 70
     0
300
1/8" = 1'-0"
140
0.125
141
12.0
290
     0
  0
SCALE
  5
5F
102
{ACAD_REACTORS
330
47
102
}
330
47
100
AcDbScale
 70
     0
300
3/16" = 1'-0"
140
0.1875
141
12.0
290
     0
  0
SCALE
  5
60
102
{ACAD_REACTORS
330
47
102
}
330
47
100
AcDbScale
 70
     0
300
1/4" = 1'-0"
140
0.25
141
12.0
290
     0
  0
SCALE
  5
61
102
{ACAD_REACTORS
330
47
102
}
330
47
100
AcDbScale
 70
     0
300
3/8" = 1'-0"
140
0.375
141
12.0
290
     0
  0
SCALE
  5
62
102
{ACAD_REACTORS
330
47
102
}
330
47
100
AcDbScale
 70
     0
300
1/2" = 1'-0"
140
0.5
141
12.0
290
     0
  0
SCALE
  5
63
102
{ACAD_REACTORS
330
47
102
}
330
47
100
AcDbScale
 70
     0
300
3/4" = 1'-0"
140
0.75
141
12.0
290
     0
  0
SCALE
  5
64
102
{ACAD_REACTORS
330
47
102
}
330
47
100
AcDbScale
 70
     0
300
1" = 1'-0"
140
1.0
141
12.0
290
     0
  0
SCALE
  5
65
102
{ACAD_REACTORS
330
47
102
}
330
47
100
AcDbScale
 70
     0
300
1-1/2" = 1'-0"
140
1.5
141
12.0
290
     0
  0
SCALE
  5
66
102
{ACAD_REACTORS
330
47
102
}
330
47
100
AcDbScale
 70
     0
300
3" = 1'-0"
140
3.0
141
12.0
290
     0
  0
SCALE
  5
67
102
{ACAD_REACTORS
330
47
102
}
330
47
100
AcDbScale
 70
     0
300
6" = 1'-0"
140
6.0
141
12.0
290
     0
  0
SCALE
  5
68
102
{ACAD_REACTORS
330
47
102
}
330
47
100
AcDbScale
 70
     0
300
1'-0" = 1'-0"
140
12.0
141
12.0
290
     0
  0
ENDSEC
  0
EOF
