  0
SECTION
  2
HEADER
  9
$ACADVER
  1
AC1015
  9
$ACADMAINTVER
 70
     6
  9
$DWGCODEPAGE
  3
ANSI_1252
  9
$INSBASE
 10
0.0
 20
0.0
 30
0.0
  9
$EXTMIN
 10
0.0
 20
0.0
 30
0.0
  9
$EXTMAX
 10
297.0
 20
210.0
 30
0.0
  9
$LIMMIN
 10
0.0
 20
0.0
  9
$LIMMAX
 10
297.0
 20
210.0
  9
$ORTHOMODE
 70
     0
  9
$REGENMODE
 70
     1
  9
$FILLMODE
 70
     1
  9
$QTEXTMODE
 70
     0
  9
$MIRRTEXT
 70
     1
  9
$LTSCALE
 40
1.0
  9
$ATTMODE
 70
     1
  9
$TEXTSIZE
 40
2.0
  9
$TRACEWID
 40
1.0
  9
$TEXTSTYLE
  7
Standard
  9
$CLAYER
  8
0
  9
$CELTYPE
  6
ByLayer
  9
$CECOLOR
 62
   256
  9
$CELTSCALE
 40
1.0
  9
$DISPSILH
 70
     0
  9
$DIMSCALE
 40
1.0
  9
$DIMASZ
 40
3.0
  9
$DIMEXO
 40
0.0
  9
$DIMDLI
 40
3.75
  9
$DIMRND
 40
0.0
  9
$DIMDLE
 40
0.0
  9
$DIMEXE
 40
1.0
  9
$DIMTP
 40
0.0
  9
$DIMTM
 40
0.0
  9
$DIMTXT
 40
2.0
  9
$DIMCEN
 40
2.5
  9
$DIMTSZ
 40
0.0
  9
$DIMTOL
 70
     0
  9
$DIMLIM
 70
     0
  9
$DIMTIH
 70
     1
  9
$DIMTOH
 70
     1
  9
$DIMSE1
 70
     0
  9
$DIMSE2
 70
     0
  9
$DIMTAD
 70
     1
  9
$DIMZIN
 70
     0
  9
$DIMBLK
  1

  9
$DIMASO
 70
     1
  9
$DIMSHO
 70
     1
  9
$DIMPOST
  1

  9
$DIMAPOST
  1

  9
$DIMALT
 70
     0
  9
$DIMALTD
 70
     3
  9
$DIMALTF
 40
0.0393700787
  9
$DIMLFAC
 40
1.0
  9
$DIMTOFL
 70
     1
  9
$DIMTVP
 40
0.0
  9
$DIMTIX
 70
     0
  9
$DIMSOXD
 70
     0
  9
$DIMSAH
 70
     0
  9
$DIMBLK1
  1

  9
$DIMBLK2
  1

  9
$DIMSTYLE
  2
ISO-25
  9
$DIMCLRD
 70
     0
  9
$DIMCLRE
 70
     0
  9
$DIMCLRT
 70
     0
  9
$DIMTFAC
 40
1.0
  9
$DIMGAP
 40
1.524
  9
$DIMJUST
 70
     0
  9
$DIMSD1
 70
     0
  9
$DIMSD2
 70
     0
  9
$DIMTOLJ
 70
     0
  9
$DIMTZIN
 70
     0
  9
$DIMALTZ
 70
     0
  9
$DIMALTTZ
 70
     0
  9
$DIMUPT
 70
     0
  9
$DIMDEC
 70
     2
  9
$DIMTDEC
 70
     3
  9
$DIMALTU
 70
     2
  9
$DIMALTTD
 70
     3
  9
$DIMTXSTY
  7
Standard
  9
$DIMAUNIT
 70
     0
  9
$DIMADEC
 70
     2
  9
$DIMALTRND
 40
0.0
  9
$DIMAZIN
 70
     0
  9
$DIMDSEP
 70
    44
  9
$DIMATFIT
 70
     3
  9
$DIMFRAC
 70
     0
  9
$DIMLDRBLK
  1

  9
$DIMLUNIT
 70
     2
  9
$DIMLWD
 70
    -2
  9
$DIMLWE
 70
    -2
  9
$DIMTMOVE
 70
     0
  9
$LUNITS
 70
     2
  9
$LUPREC
 70
     2
  9
$SKETCHINC
 40
1.0
  9
$FILLETRAD
 40
10.0
  9
$AUNITS
 70
     0
  9
$AUPREC
 70
     2
  9
$MENU
  1
.
  9
$ELEVATION
 40
0.0
  9
$PELEVATION
 40
0.0
  9
$THICKNESS
 40
0.0
  9
$LIMCHECK
 70
     0
  9
$CHAMFERA
 40
0.0
  9
$CHAMFERB
 40
0.0
  9
$CHAMFERC
 40
0.0
  9
$CHAMFERD
 40
0.0
  9
$SKPOLY
 70
     0
  9
$TDCREATE
 40
2457655.347152512
  9
$TDUCREATE
 40
2457655.263819178
  9
$TDUPDATE
 40
2457655.347153715
  9
$TDUUPDATE
 40
2457655.263820382
  9
$TDINDWG
 40
0.0000000116
  9
$TDUSRTIMER
 40
0.0000000116
  9
$USRTIMER
 70
     1
  9
$ANGBASE
 50
0.0
  9
$ANGDIR
 70
     0
  9
$PDMODE
 70
     0
  9
$PDSIZE
 40
-1.0
  9
$PLINEWID
 40
0.0
  9
$SPLFRAME
 70
     0
  9
$SPLINETYPE
 70
     6
  9
$SPLINESEGS
 70
     8
  9
$HANDSEED
  5
205
  9
$SURFTAB1
 70
     6
  9
$SURFTAB2
 70
     6
  9
$SURFTYPE
 70
     6
  9
$SURFU
 70
     6
  9
$SURFV
 70
     6
  9
$UCSBASE
  2

  9
$UCSNAME
  2

  9
$UCSORG
 10
0.0
 20
0.0
 30
0.0
  9
$UCSXDIR
 10
1.0
 20
0.0
 30
0.0
  9
$UCSYDIR
 10
0.0
 20
1.0
 30
0.0
  9
$UCSORTHOREF
  2

  9
$UCSORTHOVIEW
 70
     0
  9
$UCSORGTOP
 10
0.0
 20
0.0
 30
0.0
  9
$UCSORGBOTTOM
 10
0.0
 20
0.0
 30
0.0
  9
$UCSORGLEFT
 10
0.0
 20
0.0
 30
0.0
  9
$UCSORGRIGHT
 10
0.0
 20
0.0
 30
0.0
  9
$UCSORGFRONT
 10
0.0
 20
0.0
 30
0.0
  9
$UCSORGBACK
 10
0.0
 20
0.0
 30
0.0
  9
$PUCSBASE
  2

  9
$PUCSNAME
  2

  9
$PUCSORG
 10
0.0
 20
0.0
 30
0.0
  9
$PUCSXDIR
 10
1.0
 20
0.0
 30
0.0
  9
$PUCSYDIR
 10
0.0
 20
1.0
 30
0.0
  9
$PUCSORTHOREF
  2

  9
$PUCSORTHOVIEW
 70
     0
  9
$PUCSORGTOP
 10
0.0
 20
0.0
 30
0.0
  9
$PUCSORGBOTTOM
 10
0.0
 20
0.0
 30
0.0
  9
$PUCSORGLEFT
 10
0.0
 20
0.0
 30
0.0
  9
$PUCSORGRIGHT
 10
0.0
 20
0.0
 30
0.0
  9
$PUCSORGFRONT
 10
0.0
 20
0.0
 30
0.0
  9
$PUCSORGBACK
 10
0.0
 20
0.0
 30
0.0
  9
$USERI1
 70
     0
  9
$USERI2
 70
     0
  9
$USERI3
 70
     0
  9
$USERI4
 70
     0
  9
$USERI5
 70
     0
  9
$USERR1
 40
0.0
  9
$USERR2
 40
0.0
  9
$USERR3
 40
0.0
  9
$USERR4
 40
0.0
  9
$USERR5
 40
0.0
  9
$WORLDVIEW
 70
     1
  9
$SHADEDGE
 70
     3
  9
$SHADEDIF
 70
    70
  9
$TILEMODE
 70
     1
  9
$MAXACTVP
 70
    64
  9
$PINSBASE
 10
0.0
 20
0.0
 30
0.0
  9
$PLIMCHECK
 70
     0
  9
$PEXTMIN
 10
1.0000000000E+20
 20
1.0000000000E+20
 30
1.0000000000E+20
  9
$PEXTMAX
 10
-1.0000000000E+20
 20
-1.0000000000E+20
 30
-1.0000000000E+20
  9
$PLIMMIN
 10
0.0
 20
0.0
  9
$PLIMMAX
 10
420.0
 20
297.0
  9
$UNITMODE
 70
     0
  9
$VISRETAIN
 70
     1
  9
$PLINEGEN
 70
     0
  9
$PSLTSCALE
 70
     1
  9
$TREEDEPTH
 70
  3020
  9
$CMLSTYLE
  2
Standard
  9
$CMLJUST
 70
     0
  9
$CMLSCALE
 40
20.0
  9
$PROXYGRAPHICS
 70
     1
  9
$MEASUREMENT
 70
     1
  9
$CELWEIGHT
370
    -1
  9
$ENDCAPS
280
     0
  9
$JOINSTYLE
280
     0
  9
$LWDISPLAY
290
     1
  9
$INSUNITS
 70
     4
  9
$HYPERLINKBASE
  1

  9
$STYLESHEET
  1

  9
$XEDIT
290
     1
  9
$CEPSNTYPE
380
     0
  9
$PSTYLEMODE
290
     1
  9
$FINGERPRINTGUID
  2
{B78356DD-D930-44B6-939A-4AA140AFB448}
  9
$VERSIONGUID
  2
{FAEB1C32-E019-11D5-929B-00C0DF256EC4}
  9
$EXTNAMES
290
     1
  9
$PSVPSCALE
 40
0.0
  9
$OLESTARTUP
290
     0
  0
ENDSEC
  0
SECTION
  2
CLASSES
  0
CLASS
  1
ACDBDICTIONARYWDFLT
  2
AcDbDictionaryWithDefault
  3
ObjectDBX Classes
 90
        0
280
     0
281
     0
  0
CLASS
  1
VISUALSTYLE
  2
AcDbVisualStyle
  3
ObjectDBX Classes
 90
     4095
280
     0
281
     0
  0
CLASS
  1
MATERIAL
  2
AcDbMaterial
  3
ObjectDBX Classes
 90
     1153
280
     0
281
     0
  0
CLASS
  1
SCALE
  2
AcDbScale
  3
ObjectDBX Classes
 90
     1153
280
     0
281
     0
  0
CLASS
  1
TABLESTYLE
  2
AcDbTableStyle
  3
ObjectDBX Classes
 90
     4095
280
     0
281
     0
  0
CLASS
  1
MLEADERSTYLE
  2
AcDbMLeaderStyle
  3
ACDB_MLEADERSTYLE_CLASS
 90
     4095
280
     0
281
     0
  0
CLASS
  1
SUN
  2
AcDbSun
  3
SCENEOE
 90
     1153
280
     0
281
     0
  0
CLASS
  1
ACDBPLACEHOLDER
  2
AcDbPlaceHolder
  3
ObjectDBX Classes
 90
        0
280
     0
281
     0
  0
CLASS
  1
LAYOUT
  2
AcDbLayout
  3
ObjectDBX Classes
 90
        0
280
     0
281
     0
  0
ENDSEC
  0
SECTION
  2
TABLES
  0
TABLE
  2
VPORT
  5
8
330
0
100
AcDbSymbolTable
 70
     1
  0
VPORT
  5
29
330
8
100
AcDbSymbolTableRecord
100
AcDbViewportTableRecord
  2
*Active
 70
     0
 10
0.0
 20
0.0
 11
1.0
 21
1.0
 12
148.5
 22
105.0
 13
0.0
 23
0.0
 14
10.0
 24
10.0
 15
10.0
 25
10.0
 16
0.0
 26
0.0
 36
1.0
 17
0.0
 27
0.0
 37
0.0
 40
210.0
 41
1.4142857143
 42
50.0
 43
0.0
 44
0.0
 50
0.0
 51
0.0
 71
     0
 72
  2000
 73
     1
 74
     3
 75
     0
 76
     0
 77
     0
 78
     0
281
     0
 65
     1
110
0.0
120
0.0
130
0.0
111
1.0
121
0.0
131
0.0
112
0.0
122
1.0
132
0.0
 79
     0
146
0.0
  0
ENDTAB
  0
TABLE
  2
LTYPE
  5
5
330
0
100
AcDbSymbolTable
 70
     6
  0
LTYPE
  5
14
330
5
100
AcDbSymbolTableRecord
100
AcDbLinetypeTableRecord
  2
ByBlock
 70
     0
  3

 72
    65
 73
     0
 40
0.0
  0
LTYPE
  5
15
330
5
100
AcDbSymbolTableRecord
100
AcDbLinetypeTableRecord
  2
ByLayer
 70
     0
  3

 72
    65
 73
     0
 40
0.0
  0
LTYPE
  5
16
330
5
100
AcDbSymbolTableRecord
100
AcDbLinetypeTableRecord
  2
Continuous
 70
     0
  3
Solid line
 72
    65
 73
     0
 40
0.0
  0
LTYPE
  5
6E
330
5
100
AcDbSymbolTableRecord
100
AcDbLinetypeTableRecord
  2
HIDDEN
 70
     0
  3
Hidden __ __ __ __ __ __ __ __ __ __ __ __ __ __
 72
    65
 73
     2
 40
1.905
 49
1.27
 74
     0
 49
-0.635
 74
     0
  0
LTYPE
  5
6F
330
5
100
AcDbSymbolTableRecord
100
AcDbLinetypeTableRecord
  2
PHANTOM
 70
     0
  3
Phantom ______  __  __  ______  __  __  ______
 72
    65
 73
     6
 40
12.7
 49
6.35
 74
     0
 49
-1.27
 74
     0
 49
1.27
 74
     0
 49
-1.27
 74
     0
 49
1.27
 74
     0
 49
-1.27
 74
     0
  0
LTYPE
  5
70
330
5
100
AcDbSymbolTableRecord
100
AcDbLinetypeTableRecord
  2
CENTER
 70
     0
  3
Center ____ _ ____ _ ____ _ ____ _ ____ _ ____
 72
    65
 73
     4
 40
10.16
 49
6.35
 74
     0
 49
-1.27
 74
     0
 49
1.27
 74
     0
 49
-1.27
 74
     0
  0
LTYPE
  5
71
330
5
100
AcDbSymbolTableRecord
100
AcDbLinetypeTableRecord
  2
CENTERX2
 70
     0
  3
Center (2x) ________  __  ________  __  _____
 72
    65
 73
     4
 40
20.32
 49
12.7
 74
     0
 49
-2.54
 74
     0
 49
2.54
 74
     0
 49
-2.54
 74
     0
  0
LTYPE
  5
72
330
5
100
AcDbSymbolTableRecord
100
AcDbLinetypeTableRecord
  2
DOT2
 70
     0
  3
Dot (.5x) ........................................
 72
    65
 73
     2
 40
0.635
 49
0.0
 74
     0
 49
-0.635
 74
     0
  0
ENDTAB
  0
TABLE
  2
LAYER
  5
2
330
0
100
AcDbSymbolTable
 70
     5
  0
LAYER
  5
10
330
2
100
AcDbSymbolTableRecord
100
AcDbLayerTableRecord
  2
0
 70
     0
 62
     7
  6
Continuous
370
    -3
390
F
  0
LAYER
  5
73
330
2
100
AcDbSymbolTableRecord
100
AcDbLayerTableRecord
  2
FORMAT
 70
     0
 62
     7
  6
Continuous
370
    -3
390
F
  0
LAYER
  5
74
330
2
100
AcDbSymbolTableRecord
100
AcDbLayerTableRecord
  2
VERMASSUNG
 70
     0
 62
     7
  6
Continuous
370
    -3
390
F
  0
LAYER
  5
75
330
2
100
AcDbSymbolTableRecord
100
AcDbLayerTableRecord
  2
KOPF_DÜNN
 70
     0
 62
     7
  6
Continuous
370
    -3
390
F
  0
LAYER
  5
76
330
2
100
AcDbSymbolTableRecord
100
AcDbLayerTableRecord
  2
KOPF_DICK
 70
     0
 62
     7
  6
Continuous
370
    15
390
F
  0
ENDTAB
  0
TABLE
  2
STYLE
  5
3
330
0
100
AcDbSymbolTable
 70
     3
  0
STYLE
  5
11
330
3
100
AcDbSymbolTableRecord
100
AcDbTextStyleTableRecord
  2
Standard
 70
     0
 40
0.0
 41
1.0
 50
0.0
 71
     0
 42
2.0
  3
txt
  4

  0
STYLE
  5
77
330
3
100
AcDbSymbolTableRecord
100
AcDbTextStyleTableRecord
  2
SLDTEXTSTYLE0
 70
     0
 40
0.0
 41
0.7
 50
0.0
 71
     0
 42
2.0
  3
TXT
  4

  0
STYLE
  5
7B
330
3
100
AcDbSymbolTableRecord
100
AcDbTextStyleTableRecord
  2
SLDTEXTSTYLE1
 70
     0
 40
0.0
 41
0.6444444444
 50
0.0
 71
     0
 42
2.0
  3
TXT
  4

  0
ENDTAB
  0
TABLE
  2
VIEW
  5
6
330
0
100
AcDbSymbolTable
 70
     0
  0
ENDTAB
  0
TABLE
  2
UCS
  5
7
330
0
100
AcDbSymbolTable
 70
     0
  0
ENDTAB
  0
TABLE
  2
APPID
  5
9
330
0
100
AcDbSymbolTable
 70
     1
  0
APPID
  5
12
330
9
100
AcDbSymbolTableRecord
100
AcDbRegAppTableRecord
  2
ACAD
 70
     0
  0
ENDTAB
  0
TABLE
  2
DIMSTYLE
  5
A
330
0
100
AcDbSymbolTable
 70
     2
100
AcDbDimStyleTable
  0
DIMSTYLE
105
27
330
A
100
AcDbSymbolTableRecord
100
AcDbDimStyleTableRecord
  2
ISO-25
 70
     0
 41
2.5
 42
0.625
 43
3.75
 44
1.25
 73
     0
 74
     0
 77
     1
 78
     8
140
2.5
141
2.5
143
0.0393700787
147
0.625
171
     3
172
     1
178
     0
271
     2
272
     2
274
     3
278
    44
283
     0
284
     8
340
11
  0
DIMSTYLE
105
132
102
{ACAD_REACTORS
330
131
330
13E
330
148
330
152
330
15C
102
}
330
A
100
AcDbSymbolTableRecord
100
AcDbDimStyleTableRecord
  2
SLDDIMSTYLE0
 70
     0
 41
3.0
 44
0.0
 45
0.000000001
 73
     0
 74
     0
 77
     1
 78
    12
 79
     3
140
2.0
147
0.5
173
     1
178
     0
271
     2
272
     3
276
     2
284
    12
340
77
  0
ENDTAB
  0
TABLE
  2
BLOCK_RECORD
  5
1
330
0
100
AcDbSymbolTable
 70
     6
  0
BLOCK_RECORD
  5
1F
330
1
100
AcDbSymbolTableRecord
100
AcDbBlockTableRecord
  2
*Model_Space
340
22
  0
BLOCK_RECORD
  5
1B
330
1
100
AcDbSymbolTableRecord
100
AcDbBlockTableRecord
  2
*Paper_Space
340
1E
  0
BLOCK_RECORD
  5
23
330
1
100
AcDbSymbolTableRecord
100
AcDbBlockTableRecord
  2
*Paper_Space0
340
26
  0
BLOCK_RECORD
  5
133
330
1
100
AcDbSymbolTableRecord
100
AcDbBlockTableRecord
  2
_D
340
0
  0
BLOCK_RECORD
  5
13F
330
1
100
AcDbSymbolTableRecord
100
AcDbBlockTableRecord
  2
_D_1
340
0
  0
BLOCK_RECORD
  5
149
330
1
100
AcDbSymbolTableRecord
100
AcDbBlockTableRecord
  2
_D_2
340
0
  0
BLOCK_RECORD
  5
153
330
1
100
AcDbSymbolTableRecord
100
AcDbBlockTableRecord
  2
_D_3
340
0
  0
BLOCK_RECORD
  5
15D
330
1
100
AcDbSymbolTableRecord
100
AcDbBlockTableRecord
  2
_D_4
340
0
  0
ENDTAB
  0
ENDSEC
  0
SECTION
  2
BLOCKS
  0
BLOCK
  5
20
330
1F
100
AcDbEntity
  8
0
100
AcDbBlockBegin
  2
*Model_Space
 70
     0
 10
0.0
 20
0.0
 30
0.0
  3
*Model_Space
  1

  0
ENDBLK
  5
21
330
1F
100
AcDbEntity
  8
0
100
AcDbBlockEnd
  0
BLOCK
  5
1C
330
1B
100
AcDbEntity
 67
     1
  8
0
100
AcDbBlockBegin
  2
*Paper_Space
 70
     0
 10
0.0
 20
0.0
 30
0.0
  3
*Paper_Space
  1

  0
ENDBLK
  5
1D
330
1B
100
AcDbEntity
 67
     1
  8
0
100
AcDbBlockEnd
  0
BLOCK
  5
24
330
23
100
AcDbEntity
  8
0
100
AcDbBlockBegin
  2
*Paper_Space0
 70
     0
 10
0.0
 20
0.0
 30
0.0
  3
*Paper_Space0
  1

  0
ENDBLK
  5
25
330
23
100
AcDbEntity
  8
0
100
AcDbBlockEnd
  0
BLOCK
  5
134
330
133
100
AcDbEntity
  8
0
100
AcDbBlockBegin
  2
_D
 70
     0
 10
0.0
 20
0.0
 30
0.0
  3
_D
  1

  0
SOLID
  5
136
330
133
100
AcDbEntity
  8
VERMASSUNG
100
AcDbTrace
 10
96.0115365212
 20
134.2205338809
 30
0.0
 11
95.5615365212
 21
131.2205338809
 31
0.0
 12
96.4615365212
 22
131.2205338809
 32
0.0
 13
96.4615365212
 23
131.2205338809
 33
0.0
  0
SOLID
  5
137
330
133
100
AcDbEntity
  8
VERMASSUNG
100
AcDbTrace
 10
96.0115365212
 20
88.2205338809
 30
0.0
 11
96.4615365212
 21
91.2205338809
 31
0.0
 12
95.5615365212
 22
91.2205338809
 32
0.0
 13
95.5615365212
 23
91.2205338809
 33
0.0
  0
LINE
  5
138
330
133
100
AcDbEntity
  8
VERMASSUNG
100
AcDbLine
 10
168.9007583115
 20
134.2205338809
 30
0.0
 11
95.0115365212
 21
134.2205338809
 31
0.0
  0
LINE
  5
139
330
133
100
AcDbEntity
  8
VERMASSUNG
100
AcDbLine
 10
168.9007583427
 20
88.2205338809
 30
0.0
 11
95.0115365212
 21
88.2205338809
 31
0.0
  0
LINE
  5
13A
330
133
100
AcDbEntity
  8
VERMASSUNG
100
AcDbLine
 10
96.0115365212
 20
134.2205338809
 30
0.0
 11
96.0115365212
 21
88.2205338809
 31
0.0
  0
MTEXT
  5
13B
330
133
100
AcDbEntity
  8
VERMASSUNG
100
AcDbMText
 10
93.233401265
 20
100.5171518006
 30
0.0
 40
2.0
 41
0.0
 71
     1
 72
     1
  1
MAS BT 30
  7
SLDTEXTSTYLE0
 11
-7.044195017643634E-15
 21
1.0
 31
0.0
 73
     1
 44
1.0
  0
MTEXT
  5
13C
330
133
100
AcDbEntity
  8
VERMASSUNG
100
AcDbMText
 10
93.4334012163
 20
115.317151805
 30
0.0
 40
2.0
 41
0.0
 71
     1
 72
     1
  1
%%c
  7
SLDTEXTSTYLE0
 11
-7.044195017643634E-15
 21
1.0
 31
0.0
 73
     1
 44
1.0
  0
MTEXT
  5
13D
330
133
100
AcDbEntity
  8
VERMASSUNG
100
AcDbMText
 10
93.4334009252
 20
118.9259983505
 30
0.0
 40
2.0
 41
0.0
 71
     1
 72
     1
  1
46
  7
SLDTEXTSTYLE0
 11
-7.044195017643634E-15
 21
1.0
 31
0.0
 73
     1
 44
1.0
  0
ENDBLK
  5
135
330
133
100
AcDbEntity
  8
0
100
AcDbBlockEnd
  0
BLOCK
  5
140
330
13F
100
AcDbEntity
  8
0
100
AcDbBlockBegin
  2
_D_1
 70
     0
 10
0.0
 20
0.0
 30
0.0
  3
_D_1
  1

  0
SOLID
  5
142
330
13F
100
AcDbEntity
  8
VERMASSUNG
100
AcDbTrace
 10
148.9007597536
 20
144.1212956694
 30
0.0
 11
151.9007597536
 21
143.6712956694
 31
0.0
 12
151.9007597536
 22
144.5712956694
 32
0.0
 13
151.9007597536
 23
144.5712956694
 33
0.0
  0
SOLID
  5
143
330
13F
100
AcDbEntity
  8
VERMASSUNG
100
AcDbTrace
 10
190.9007597536
 20
144.1212956694
 30
0.0
 11
187.9007597536
 21
144.5712956694
 31
0.0
 12
187.9007597536
 22
143.6712956694
 32
0.0
 13
187.9007597536
 23
143.6712956694
 33
0.0
  0
LINE
  5
144
330
13F
100
AcDbEntity
  8
VERMASSUNG
100
AcDbLine
 10
148.9007597536
 20
127.0955338809
 30
0.0
 11
148.9007597536
 21
145.1212956694
 31
0.0
  0
LINE
  5
145
330
13F
100
AcDbEntity
  8
VERMASSUNG
100
AcDbLine
 10
190.9007597536
 20
121.0205338809
 30
0.0
 11
190.9007597536
 21
145.1212956694
 31
0.0
  0
LINE
  5
146
330
13F
100
AcDbEntity
  8
VERMASSUNG
100
AcDbLine
 10
148.9007597536
 20
144.1212956694
 30
0.0
 11
190.9007597536
 21
144.1212956694
 31
0.0
  0
MTEXT
  5
147
330
13F
100
AcDbEntity
  8
VERMASSUNG
100
AcDbMText
 10
168.4018009482
 20
146.6994312654
 30
0.0
 40
2.0
 41
0.0
 71
     1
 72
     1
  1
42
  7
SLDTEXTSTYLE0
 73
     1
 44
1.0
  0
ENDBLK
  5
141
330
13F
100
AcDbEntity
  8
0
100
AcDbBlockEnd
  0
BLOCK
  5
14A
330
149
100
AcDbEntity
  8
0
100
AcDbBlockBegin
  2
_D_2
 70
     0
 10
0.0
 20
0.0
 30
0.0
  3
_D_2
  1

  0
SOLID
  5
14C
330
149
100
AcDbEntity
  8
VERMASSUNG
100
AcDbTrace
 10
170.9007597536
 20
138.1212956694
 30
0.0
 11
173.9007597536
 21
137.6712956694
 31
0.0
 12
173.9007597536
 22
138.5712956694
 32
0.0
 13
173.9007597536
 23
138.5712956694
 33
0.0
  0
SOLID
  5
14D
330
149
100
AcDbEntity
  8
VERMASSUNG
100
AcDbTrace
 10
190.9007597536
 20
138.1212956694
 30
0.0
 11
187.9007597536
 21
138.5712956694
 31
0.0
 12
187.9007597536
 22
137.6712956694
 32
0.0
 13
187.9007597536
 23
137.6712956694
 33
0.0
  0
LINE
  5
14E
330
149
100
AcDbEntity
  8
VERMASSUNG
100
AcDbLine
 10
170.9007597536
 20
134.2205338809
 30
0.0
 11
170.9007597536
 21
139.1212956694
 31
0.0
  0
LINE
  5
14F
330
149
100
AcDbEntity
  8
VERMASSUNG
100
AcDbLine
 10
190.9007597536
 20
121.0205338809
 30
0.0
 11
190.9007597536
 21
139.1212956694
 31
0.0
  0
LINE
  5
150
330
149
100
AcDbEntity
  8
VERMASSUNG
100
AcDbLine
 10
170.9007597536
 20
138.1212956694
 30
0.0
 11
190.9007597536
 21
138.1212956694
 31
0.0
  0
MTEXT
  5
151
330
149
100
AcDbEntity
  8
VERMASSUNG
100
AcDbMText
 10
179.5010697433
 20
140.6994312654
 30
0.0
 40
2.0
 41
0.0
 71
     1
 72
     1
  1
20
  7
SLDTEXTSTYLE0
 73
     1
 44
1.0
  0
ENDBLK
  5
14B
330
149
100
AcDbEntity
  8
0
100
AcDbBlockEnd
  0
BLOCK
  5
154
330
153
100
AcDbEntity
  8
0
100
AcDbBlockBegin
  2
_D_3
 70
     0
 10
0.0
 20
0.0
 30
0.0
  3
_D_3
  1

  0
SOLID
  5
156
330
153
100
AcDbEntity
  8
VERMASSUNG
100
AcDbTrace
 10
100.5007597536
 20
150.1212956694
 30
0.0
 11
103.5007597536
 21
149.6712956694
 31
0.0
 12
103.5007597536
 22
150.5712956694
 32
0.0
 13
103.5007597536
 23
150.5712956694
 33
0.0
  0
SOLID
  5
157
330
153
100
AcDbEntity
  8
VERMASSUNG
100
AcDbTrace
 10
190.9007597536
 20
150.1212956694
 30
0.0
 11
187.9007597536
 21
150.5712956694
 31
0.0
 12
187.9007597536
 22
149.6712956694
 32
0.0
 13
187.9007597536
 23
149.6712956694
 33
0.0
  0
LINE
  5
158
330
153
100
AcDbEntity
  8
VERMASSUNG
100
AcDbLine
 10
100.5007597536
 20
119.6048283461
 30
0.0
 11
100.5007597536
 21
151.1212956694
 31
0.0
  0
LINE
  5
159
330
153
100
AcDbEntity
  8
VERMASSUNG
100
AcDbLine
 10
190.9007597536
 20
121.0205338809
 30
0.0
 11
190.9007597536
 21
151.1212956694
 31
0.0
  0
LINE
  5
15A
330
153
100
AcDbEntity
  8
VERMASSUNG
100
AcDbLine
 10
100.5007597536
 20
150.1212956694
 30
0.0
 11
190.9007597536
 21
150.1212956694
 31
0.0
  0
MTEXT
  5
15B
330
153
100
AcDbEntity
  8
VERMASSUNG
100
AcDbMText
 10
143.2013920914
 20
152.6994312654
 30
0.0
 40
2.0
 41
0.0
 71
     1
 72
     1
  1
90.4
  7
SLDTEXTSTYLE0
 73
     1
 44
1.0
  0
ENDBLK
  5
155
330
153
100
AcDbEntity
  8
0
100
AcDbBlockEnd
  0
BLOCK
  5
15E
330
15D
100
AcDbEntity
  8
0
100
AcDbBlockBegin
  2
_D_4
 70
     0
 10
0.0
 20
0.0
 30
0.0
  3
_D_4
  1

  0
SOLID
  5
160
330
15D
100
AcDbEntity
  8
VERMASSUNG
100
AcDbTrace
 10
199.0035364557
 20
121.2205338809
 30
0.0
 11
198.5535364557
 21
118.2205338809
 31
0.0
 12
199.4535364557
 22
118.2205338809
 32
0.0
 13
199.4535364557
 23
118.2205338809
 33
0.0
  0
SOLID
  5
161
330
15D
100
AcDbEntity
  8
VERMASSUNG
100
AcDbTrace
 10
199.0035364557
 20
101.2205338809
 30
0.0
 11
199.4535364557
 21
104.2205338809
 31
0.0
 12
198.5535364557
 22
104.2205338809
 32
0.0
 13
198.5535364557
 23
104.2205338809
 33
0.0
  0
LINE
  5
162
330
15D
100
AcDbEntity
  8
VERMASSUNG
100
AcDbLine
 10
190.7007597536
 20
121.2205338809
 30
0.0
 11
200.0035364557
 21
121.2205338809
 31
0.0
  0
LINE
  5
163
330
15D
100
AcDbEntity
  8
VERMASSUNG
100
AcDbLine
 10
190.7007597536
 20
101.2205338809
 30
0.0
 11
200.0035364557
 21
101.2205338809
 31
0.0
  0
LINE
  5
164
330
15D
100
AcDbEntity
  8
VERMASSUNG
100
AcDbLine
 10
199.0035364557
 20
121.2205338809
 30
0.0
 11
199.0035364557
 21
101.2205338809
 31
0.0
  0
MTEXT
  5
165
330
15D
100
AcDbEntity
  8
VERMASSUNG
100
AcDbMText
 10
196.2254011995
 20
104.8155342373
 30
0.0
 40
2.0
 41
0.0
 71
     1
 72
     1
  1
MBM
  7
SLDTEXTSTYLE0
 11
-7.044195017643634E-15
 21
1.0
 31
0.0
 73
     1
 44
1.0
  0
MTEXT
  5
166
330
15D
100
AcDbEntity
  8
VERMASSUNG
100
AcDbMText
 10
196.4254011508
 20
111.2155340757
 30
0.0
 40
2.0
 41
0.0
 71
     1
 72
     1
  1
%%c
  7
SLDTEXTSTYLE0
 11
-7.044195017643634E-15
 21
1.0
 31
0.0
 73
     1
 44
1.0
  0
MTEXT
  5
167
330
15D
100
AcDbEntity
  8
VERMASSUNG
100
AcDbMText
 10
196.2254011995
 20
114.8255345556
 30
0.0
 40
2.0
 41
0.0
 71
     1
 72
     1
  1
20
  7
SLDTEXTSTYLE0
 11
-7.044195017643634E-15
 21
1.0
 31
0.0
 73
     1
 44
1.0
  0
ENDBLK
  5
15F
330
15D
100
AcDbEntity
  8
0
100
AcDbBlockEnd
  0
ENDSEC
  0
SECTION
  2
ENTITIES
  0
MTEXT
  5
78
330
1F
100
AcDbEntity
  8
KOPF_DÜNN
100
AcDbMText
 10
13.8892156294
 20
23.8442973028
 30
0.0
 40
3.0
 41
0.0
 71
     1
 72
     1
  1
102.312.201
  7
SLDTEXTSTYLE0
 73
     1
 44
1.0
  0
MTEXT
  5
79
330
1F
100
AcDbEntity
  8
VERMASSUNG
100
AcDbMText
 10
13.9329988022
 20
28.8834360957
 30
0.0
 40
3.0
 41
0.0
 71
     1
 72
     1
  1
Aufnahme_Master shank MBM 20
  7
SLDTEXTSTYLE0
 73
     1
 44
1.0
  0
MTEXT
  5
7A
330
1F
100
AcDbEntity
  8
VERMASSUNG
100
AcDbMText
 10
98.8601118557
 20
13.8365368761
 30
0.0
 40
2.0
 41
0.0
 71
     1
 72
     1
  1
Datum: 21.11.2007
  7
SLDTEXTSTYLE0
 73
     1
 44
1.0
  0
MTEXT
  5
7C
330
1F
100
AcDbEntity
  8
VERMASSUNG
100
AcDbMText
 10
13.933048693
 20
18.0482802738
 30
0.0
 40
2.0
 41
0.0
 71
     1
 72
     1
  1
MAS BT 30 / MBM 20
  7
SLDTEXTSTYLE1
 73
     1
 44
1.0
  0
MTEXT
  5
7D
330
1F
100
AcDbEntity
  8
VERMASSUNG
100
AcDbMText
 10
13.9808475933
 20
13.9090974274
 30
0.0
 40
2.0
 41
0.0
 71
     1
 72
     1
  1
Gewicht: 412g
  7
SLDTEXTSTYLE0
 73
     1
 44
1.0
  0
LINE
  5
7E
330
1F
100
AcDbEntity
  8
0
  6
Continuous
 62
     7
370
    15
100
AcDbLine
 10
168.9007185218
 20
88.2205338809
 30
0.0
 11
170.9007597536
 21
88.2205338809
 31
0.0
  0
LINE
  5
7F
330
1F
100
AcDbEntity
  8
0
  6
Continuous
 62
     7
370
    15
100
AcDbLine
 10
170.9007597536
 20
134.2205338809
 30
0.0
 11
168.9006579717
 21
134.2205338809
 31
0.0
  0
ARC
  5
80
330
1F
100
AcDbEntity
  8
0
  6
Continuous
 62
     7
370
    15
100
AcDbCircle
 10
149.9007597536
 20
94.3455338809
 30
0.0
 40
1.000000000000018
100
AcDbArc
 50
42.4519685321
 51
90.0
  0
ARC
  5
81
330
1F
100
AcDbEntity
  8
0
  6
Continuous
 62
     7
370
    15
100
AcDbCircle
 10
149.9007597536
 20
128.0955338809
 30
0.0
 40
1.00000000000003
100
AcDbArc
 50
270.0
 51
317.5135497509
  0
LINE
  5
82
330
1F
100
AcDbEntity
  8
0
  6
Continuous
 62
     7
370
    15
100
AcDbLine
 10
148.9007597536
 20
95.3455338809
 30
0.0
 11
149.9007597536
 21
95.3455338809
 31
0.0
  0
LINE
  5
83
330
1F
100
AcDbEntity
  8
0
  6
Continuous
 62
     7
370
    15
100
AcDbLine
 10
149.9007597536
 20
127.0955338809
 30
0.0
 11
148.9007597536
 21
127.0955338809
 31
0.0
  0
LINE
  5
84
330
1F
100
AcDbEntity
  8
0
  6
Continuous
 62
     7
370
    15
100
AcDbLine
 10
148.9007597536
 20
127.0955338809
 30
0.0
 11
100.9286063071
 21
120.0995948366
 31
0.0
  0
LINE
  5
85
330
1F
100
AcDbEntity
  8
0
  6
Continuous
 62
     7
370
    15
100
AcDbLine
 10
100.9286063071
 20
102.3414729252
 30
0.0
 11
148.9007597536
 21
95.3455338809
 31
0.0
  0
ARC
  5
86
330
1F
100
AcDbEntity
  8
0
  6
Continuous
 62
     7
370
    15
100
AcDbCircle
 10
173.9007597536
 20
98.2205338809
 30
0.0
 40
3.0
100
AcDbArc
 50
90.0
 51
180.0
  0
ARC
  5
87
330
1F
100
AcDbEntity
  8
0
  6
Continuous
 62
     7
370
    15
100
AcDbCircle
 10
173.9007597536
 20
124.2205338809
 30
0.0
 40
3.0
100
AcDbArc
 50
180.0
 51
270.0
  0
LINE
  5
88
330
1F
100
AcDbEntity
  8
0
  6
Continuous
 62
     7
370
    15
100
AcDbLine
 10
173.9007597536
 20
101.2205338809
 30
0.0
 11
190.7007597536
 21
101.2205338809
 31
0.0
  0
LINE
  5
89
330
1F
100
AcDbEntity
  8
0
  6
Continuous
 62
     7
370
    15
100
AcDbLine
 10
190.7007597536
 20
121.2205338809
 30
0.0
 11
173.9007597536
 21
121.2205338809
 31
0.0
  0
LINE
  5
8A
330
1F
100
AcDbEntity
  8
0
  6
Continuous
 62
     7
370
    15
100
AcDbLine
 10
190.7007597536
 20
101.2205338809
 30
0.0
 11
190.9007597536
 21
101.4205338809
 31
0.0
  0
LINE
  5
8B
330
1F
100
AcDbEntity
  8
0
  6
Continuous
 62
     7
370
    15
100
AcDbLine
 10
190.9007597536
 20
121.0205338809
 30
0.0
 11
190.7007597536
 21
121.2205338809
 31
0.0
  0
ARC
  5
8C
330
1F
100
AcDbEntity
  8
0
  6
Continuous
 62
     7
370
    15
100
AcDbCircle
 10
101.0007597536
 20
102.8362394157
 30
0.0
 40
0.5
100
AcDbArc
 50
180.0
 51
261.7028550302
  0
ARC
  5
8D
330
1F
100
AcDbEntity
  8
0
  6
Continuous
 62
     7
370
    15
100
AcDbCircle
 10
101.0007597536
 20
119.6048283461
 30
0.0
 40
0.5
100
AcDbArc
 50
98.2971449698
 51
180.0
  0
SPLINE
  5
8E
330
1F
100
AcDbEntity
  8
0
  6
Continuous
 62
     7
370
    15
100
AcDbSpline
210
0.0
220
0.0
230
1.0
 70
    24
 71
     3
 72
    11
 73
     7
 74
     0
 42
0.000000001
 43
0.00000001
 40
0.0
 40
0.0
 40
0.0
 40
0.0
 40
0.1285561766306902
 40
0.4801535797842854
 40
0.8150691831754854
 40
1.0
 40
1.0
 40
1.0
 40
1.0
 10
186.1413361031637
 20
112.3153623898319
 30
0.0
 10
186.1605809789984
 20
112.2605115515149
 30
0.0
 10
186.2324600303724
 20
112.0556452661108
 30
0.0
 10
186.3672493504085
 20
111.6714750971939
 30
0.0
 10
186.5131977516714
 20
111.2554998407622
 30
0.0
 10
186.5913833774335
 20
111.0326588541927
 30
0.0
 10
186.619197229898
 20
110.953385122441
 30
0.0
  0
SPLINE
  5
8F
330
1F
100
AcDbEntity
  8
0
  6
Continuous
 62
     7
370
    15
100
AcDbSpline
210
0.0
220
0.0
230
1.0
 70
    24
 71
     3
 72
    10
 73
     6
 74
     0
 42
0.000000001
 43
0.00000001
 40
0.0
 40
0.0
 40
0.0
 40
0.0
 40
0.4391119879276908
 40
0.7513633230734691
 40
1.0
 40
1.0
 40
1.0
 40
1.0
 10
184.7228986268591
 20
112.5825111482944
 30
0.0
 10
184.9259566004038
 20
112.5442671746018
 30
0.0
 10
185.273408544267
 20
112.4788280156829
 30
0.0
 10
185.7784946389075
 20
112.3837000136708
 30
0.0
 10
186.0298933057422
 20
112.3363515454825
 30
0.0
 10
186.1413361031637
 20
112.3153623898319
 30
0.0
  0
SPLINE
  5
90
330
1F
100
AcDbEntity
  8
0
  6
Continuous
 62
     7
370
    15
100
AcDbSpline
210
0.0
220
0.0
230
1.0
 70
    24
 71
     3
 72
    10
 73
     6
 74
     0
 42
0.000000001
 43
0.00000001
 40
0.0
 40
0.0
 40
0.0
 40
0.0
 40
0.4391119879276904
 40
0.7513633230734755
 40
0.9999999999999999
 40
0.9999999999999999
 40
0.9999999999999999
 40
0.9999999999999999
 10
183.7823222772889
 20
111.487682639366
 30
0.0
 10
183.9169715168207
 20
111.6444140160504
 30
0.0
 10
184.1473694627783
 20
111.9125966465707
 30
0.0
 10
184.4822957764523
 20
112.3024500346217
 30
0.0
 10
184.649000086151
 20
112.4964934324838
 30
0.0
 10
184.7228986268591
 20
112.5825111482944
 30
0.0
  0
SPLINE
  5
91
330
1F
100
AcDbEntity
  8
0
  6
Continuous
 62
     7
370
    15
100
AcDbSpline
210
0.0
220
0.0
230
1.0
 70
    24
 71
     3
 72
    11
 73
     7
 74
     0
 42
0.000000001
 43
0.00000001
 40
0.0
 40
0.0
 40
0.0
 40
0.0
 40
0.1849308168245207
 40
0.5198464202157221
 40
0.871443823369322
 40
1.0
 40
1.0
 40
1.0
 40
1.0
 10
184.2601834040232
 20
110.1257053719751
 30
0.0
 10
184.2323695515586
 20
110.2049791037268
 30
0.0
 10
184.1541839257966
 20
110.4278200902963
 30
0.0
 10
184.0082355245337
 20
110.843795346728
 30
0.0
 10
183.8734462044975
 20
111.2279655156449
 30
0.0
 10
183.8015671531235
 20
111.432831801049
 30
0.0
 10
183.7823222772889
 20
111.487682639366
 30
0.0
  0
SPLINE
  5
92
330
1F
100
AcDbEntity
  8
0
  6
Continuous
 62
     7
370
    15
100
AcDbSpline
210
0.0
220
0.0
230
1.0
 70
    24
 71
     3
 72
    10
 73
     6
 74
     0
 42
0.000000001
 43
0.00000001
 40
0.0
 40
0.0
 40
0.0
 40
0.0
 40
0.4391119879276773
 40
0.7513633230734703
 40
1.0
 40
1.0
 40
1.0
 40
1.0
 10
185.6786208803277
 20
109.8585566135126
 30
0.0
 10
185.4755629067831
 20
109.8968005872052
 30
0.0
 10
185.1281109629199
 20
109.9622397461241
 30
0.0
 10
184.6230248682794
 20
110.0573677481362
 30
0.0
 10
184.3716262014447
 20
110.1047162163245
 30
0.0
 10
184.2601834040232
 20
110.1257053719751
 30
0.0
  0
SPLINE
  5
93
330
1F
100
AcDbEntity
  8
0
  6
Continuous
 62
     7
370
    15
100
AcDbSpline
210
0.0
220
0.0
230
1.0
 70
    24
 71
     3
 72
    10
 73
     6
 74
     0
 42
0.000000001
 43
0.00000001
 40
0.0
 40
0.0
 40
0.0
 40
0.0
 40
0.439111987927685
 40
0.7513633230734633
 40
0.9999999999999999
 40
0.9999999999999999
 40
0.9999999999999999
 40
0.9999999999999999
 10
186.619197229898
 20
110.953385122441
 30
0.0
 10
186.4845479903662
 20
110.7966537457566
 30
0.0
 10
186.2541500444086
 20
110.5284711152363
 30
0.0
 10
185.9192237307346
 20
110.1386177271853
 30
0.0
 10
185.7525194210359
 20
109.9445743293232
 30
0.0
 10
185.6786208803277
 20
109.8585566135126
 30
0.0
  0
CIRCLE
  5
94
330
1F
100
AcDbEntity
  8
0
  6
Continuous
 62
     7
370
    15
100
AcDbCircle
 10
185.2007597536
 20
111.2205338809
 30
0.0
 40
1.500000000000003
  0
CIRCLE
  5
95
330
1F
100
AcDbEntity
  8
0
  6
Continuous
 62
     7
370
    15
100
AcDbCircle
 10
185.2007597536
 20
111.2205338809
 30
0.0
 40
2.199999999999993
  0
CIRCLE
  5
96
330
1F
100
AcDbEntity
  8
0
  6
Continuous
 62
     7
370
    15
100
AcDbCircle
 10
185.2007597536
 20
111.2205338809
 30
0.0
 40
2.500000000000004
  0
ARC
  5
97
330
1F
100
AcDbEntity
  8
0
  6
Continuous
 62
     7
370
    15
100
AcDbCircle
 10
185.2007597536
 20
111.2205338809
 30
0.0
 40
1.250000000000002
100
AcDbArc
 50
139.3338483783
 51
199.3338483783
  0
ARC
  5
98
330
1F
100
AcDbEntity
  8
0
  6
Continuous
 62
     7
370
    15
100
AcDbCircle
 10
185.2007597536
 20
111.2205338809
 30
0.0
 40
1.250000000000008
100
AcDbArc
 50
79.3338483783
 51
139.3338483783
  0
ARC
  5
99
330
1F
100
AcDbEntity
  8
0
  6
Continuous
 62
     7
370
    15
100
AcDbCircle
 10
185.2007597536
 20
111.2205338809
 30
0.0
 40
1.250000000000008
100
AcDbArc
 50
19.3338483783
 51
79.3338483783
  0
ARC
  5
9A
330
1F
100
AcDbEntity
  8
0
  6
Continuous
 62
     7
370
    15
100
AcDbCircle
 10
185.2007597536
 20
111.2205338809
 30
0.0
 40
1.250000000000015
100
AcDbArc
 50
319.3338483783
 51
19.3338483783
  0
ARC
  5
9B
330
1F
100
AcDbEntity
  8
0
  6
Continuous
 62
     7
370
    15
100
AcDbCircle
 10
185.2007597536
 20
111.2205338809
 30
0.0
 40
1.250000000000002
100
AcDbArc
 50
199.3338483783
 51
259.3338483783
  0
ARC
  5
9C
330
1F
100
AcDbEntity
  8
0
  6
Continuous
 62
     7
370
    15
100
AcDbCircle
 10
185.2007597536
 20
111.2205338809
 30
0.0
 40
1.250000000000015
100
AcDbArc
 50
259.3338483783
 51
319.3338483783
  0
SPLINE
  5
9D
330
1F
100
AcDbEntity
  8
0
  6
Continuous
 62
     7
370
    15
100
AcDbSpline
210
0.0
220
0.0
230
1.0
 70
     8
 71
     3
 72
    10
 73
     6
 74
     0
 42
0.000000001
 43
0.00000001
 40
0.0
 40
0.0
 40
0.0
 40
0.0
 40
0.5
 40
0.5
 40
1.0
 40
1.0
 40
1.0
 40
1.0
 10
165.8481793618365
 20
132.3761033353377
 30
0.0
 10
165.6229956204722
 20
131.909868483614
 30
0.0
 10
165.3928153731875
 20
131.4322637874956
 30
0.0
 10
164.9250336632841
 20
130.4588806526936
 30
0.0
 10
164.6869916175326
 20
129.9621821423328
 30
0.0
 10
164.4472987845108
 20
129.4602068785958
 30
0.0
  0
SPLINE
  5
9E
330
1F
100
AcDbEntity
  8
0
  6
Continuous
 62
     7
370
    15
100
AcDbSpline
210
0.0
220
0.0
230
1.0
 70
     8
 71
     3
 72
     9
 73
     5
 74
     0
 42
0.000000001
 43
0.00000001
 40
0.0
 40
0.0
 40
0.0
 40
0.0
 40
0.5084859175931838
 40
1.0
 40
1.0
 40
1.0
 40
1.0
 10
166.5257689971305
 20
133.3153785101855
 30
0.0
 10
166.4099484617096
 20
133.1557321637779
 30
0.0
 10
166.1821731558189
 20
132.8417680186876
 30
0.0
 10
165.9582459089669
 20
132.5295563876624
 30
0.0
 10
165.8481825137045
 20
132.3760999743223
 30
0.0
  0
LINE
  5
9F
330
1F
100
AcDbEntity
  8
0
  6
Continuous
 62
     7
370
    15
100
AcDbLine
 10
166.5257597536
 20
89.1257068137
 30
0.0
 11
166.5257597536
 21
133.31536313
 31
0.0
  0
SPLINE
  5
A0
330
1F
100
AcDbEntity
  8
0
  6
Continuous
 62
     7
370
    15
100
AcDbSpline
210
0.0
220
0.0
230
1.0
 70
     8
 71
     3
 72
     9
 73
     5
 74
     0
 42
0.000000001
 43
0.00000001
 40
0.0
 40
0.0
 40
0.0
 40
0.0
 40
0.4915140819337744
 40
1.0
 40
1.0
 40
1.0
 40
1.0
 10
165.8481825137045
 20
90.06496778748476
 30
0.0
 10
165.9582459088619
 20
89.91151137428906
 30
0.0
 10
166.1821731557159
 20
89.59929974325712
 30
0.0
 10
166.4099484616034
 20
89.285335598174
 30
0.0
 10
166.5257689971305
 20
89.12568925162154
 30
0.0
  0
SPLINE
  5
A1
330
1F
100
AcDbEntity
  8
0
  6
Continuous
 62
     7
370
    15
100
AcDbSpline
210
0.0
220
0.0
230
1.0
 70
     8
 71
     3
 72
    10
 73
     6
 74
     0
 42
0.000000001
 43
0.00000001
 40
0.0
 40
0.0
 40
0.0
 40
0.0
 40
0.5
 40
0.5
 40
1.0
 40
1.0
 40
1.0
 40
1.0
 10
165.8481794427693
 20
90.0649642589008
 30
0.0
 10
165.6232778714611
 20
90.53061488740724
 30
0.0
 10
165.3930903814473
 20
91.00823176140972
 30
0.0
 10
164.9247779463176
 20
91.98271917974704
 30
0.0
 10
164.6866406253454
 20
92.47962068273628
 30
0.0
 10
164.4472987845108
 20
92.98086088321114
 30
0.0
  0
SPLINE
  5
A2
330
1F
100
AcDbEntity
  8
0
  6
Continuous
 62
     7
370
    15
100
AcDbSpline
210
0.0
220
0.0
230
1.0
 70
     8
 71
     3
 72
    12
 73
     8
 74
     0
 42
0.000000001
 43
0.00000001
 40
0.0
 40
0.0
 40
0.0
 40
0.0
 40
0.0001599767577991
 40
0.2512944248785473
 40
0.5029658357236086
 40
0.7514776885305807
 40
1.0
 40
1.0
 40
1.0
 40
1.0
 10
168.900657971745
 20
134.2204912834638
 30
0.0
 10
168.9006908660504
 20
134.2205054818204
 30
0.0
 10
168.9523618440835
 20
134.2428085206572
 30
0.0
 10
168.7719084925644
 20
134.1642819701633
 30
0.0
 10
168.3295630385966
 20
133.9804874548501
 30
0.0
 10
167.5854523621958
 20
133.6800433747654
 30
0.0
 10
166.878995578261
 20
133.4369234622808
 30
0.0
 10
166.5257597536123
 20
133.3153609481569
 30
0.0
  0
SPLINE
  5
A3
330
1F
100
AcDbEntity
  8
0
  6
Continuous
 62
     7
370
    15
100
AcDbSpline
210
0.0
220
0.0
230
1.0
 70
     8
 71
     3
 72
    16
 73
    12
 74
     0
 42
0.000000001
 43
0.00000001
 40
0.0
 40
0.0
 40
0.0
 40
0.0
 40
0.2483169671328836
 40
0.4966944461982074
 40
0.5811467853484816
 40
0.6649723970263186
 40
0.7484612154094613
 40
0.8319066852961928
 40
0.915602707382067
 40
0.9998405598659154
 40
1.0
 40
1.0
 40
1.0
 40
1.0
 10
166.5257597536123
 20
89.1257068136501
 30
0.0
 10
166.8795534670232
 20
89.00393264148718
 30
0.0
 10
167.5872271092232
 20
88.76035462222386
 30
0.0
 10
168.1579532332848
 20
88.52963914572489
 30
0.0
 10
168.4715243519749
 20
88.40160862782376
 30
0.0
 10
168.6274237099003
 20
88.33674203805012
 30
0.0
 10
168.748653606248
 20
88.2856110675904
 30
0.0
 10
168.8367505584557
 20
88.24794278322591
 30
0.0
 10
168.8851966910958
 20
88.22702998968037
 30
0.0
 10
168.9074607214912
 20
88.21752138520417
 30
0.0
 10
168.9007312349165
 20
88.22054530573185
 30
0.0
 10
168.9007185218281
 20
88.22055101840672
 30
0.0
  0
LINE
  5
A4
330
1F
100
AcDbEntity
  8
0
  6
Continuous
 62
     7
370
    15
100
AcDbLine
 10
170.9007597536
 20
88.2205338809
 30
0.0
 11
170.9007597536
 21
134.2205338809
 31
0.0
  0
LINE
  5
A5
330
1F
100
AcDbEntity
  8
0
  6
Continuous
 62
     7
370
    15
100
AcDbLine
 10
158.4757597536
 20
132.4837215181
 30
0.0
 11
151.9007597536
 21
132.4837215181
 31
0.0
  0
LINE
  5
A6
330
1F
100
AcDbEntity
  8
0
  6
Continuous
 62
     7
370
    15
100
AcDbLine
 10
158.4757597536
 20
89.9573462437
 30
0.0
 11
158.4757597536
 21
132.4837215181
 31
0.0
  0
LINE
  5
A7
330
1F
100
AcDbEntity
  8
0
  6
Continuous
 62
     7
370
    15
100
AcDbLine
 10
151.9007597536
 20
89.9573462437
 30
0.0
 11
158.4757597536
 21
89.9573462437
 31
0.0
  0
SPLINE
  5
A8
330
1F
100
AcDbEntity
  8
0
  6
Continuous
 62
     7
370
    15
100
AcDbSpline
210
0.0
220
0.0
230
1.0
 70
     8
 71
     3
 72
     8
 73
     4
 74
     0
 42
0.000000001
 43
0.00000001
 40
0.0
 40
0.0
 40
0.0
 40
0.0
 40
0.0011496337376319
 40
0.0011496337376319
 40
0.0011496337376319
 40
0.0011496337376319
 10
159.0149897581362
 20
131.765776975378
 30
0.0
 10
158.8357865070064
 20
132.0052942542446
 30
0.0
 10
158.6560199532785
 20
132.2446011306814
 30
0.0
 10
158.4757597535934
 20
132.4837215181187
 30
0.0
  0
SPLINE
  5
A9
330
1F
100
AcDbEntity
  8
0
  6
Continuous
 62
     7
370
    15
100
AcDbSpline
210
0.0
220
0.0
230
1.0
 70
     8
 71
     3
 72
     8
 73
     4
 74
     0
 42
0.000000001
 43
0.00000001
 40
0.0
 40
0.0
 40
0.0
 40
0.0
 40
1.0
 40
1.0
 40
1.0
 40
1.0
 10
159.8507597535934
 20
130.2025559391898
 30
0.0
 10
159.5734480737192
 20
130.7242812553242
 30
0.0
 10
159.2947713312507
 20
131.2453107153249
 30
0.0
 10
159.0149897581362
 20
131.765776975378
 30
0.0
  0
SPLINE
  5
AA
330
1F
100
AcDbEntity
  8
0
  6
Continuous
 62
     7
370
    15
100
AcDbSpline
210
0.0
220
0.0
230
1.0
 70
     8
 71
     3
 72
     8
 73
     4
 74
     0
 42
0.000000001
 43
0.00000001
 40
0.0
 40
0.0
 40
0.0
 40
0.0
 40
1.0
 40
1.0
 40
1.0
 40
1.0
 10
160.4817755526238
 20
129.0205338809035
 30
0.0
 10
160.2707549168344
 20
129.4139819200892
 30
0.0
 10
160.0604675149267
 20
129.8080184709985
 30
0.0
 10
159.8507597535934
 20
130.2025559391898
 30
0.0
  0
SPLINE
  5
AB
330
1F
100
AcDbEntity
  8
0
  6
Continuous
 62
     7
370
    15
100
AcDbSpline
210
0.0
220
0.0
230
1.0
 70
     8
 71
     3
 72
     8
 73
     4
 74
     0
 42
0.000000001
 43
0.00000001
 40
0.0
 40
0.0
 40
0.0
 40
0.0
 40
1.0
 40
1.0
 40
1.0
 40
1.0
 10
160.5542207226761
 20
128.8855376265873
 30
0.0
 10
160.5300625109614
 20
128.9305285422162
 30
0.0
 10
160.5059142106357
 20
128.9755273457474
 30
0.0
 10
160.4817755526238
 20
129.0205338809035
 30
0.0
  0
SPLINE
  5
AC
330
1F
100
AcDbEntity
  8
0
  6
Continuous
 62
     7
370
    15
100
AcDbSpline
210
0.0
220
0.0
230
1.0
 70
     8
 71
     3
 72
     8
 73
     4
 74
     0
 42
0.000000001
 43
0.00000001
 40
0.0
 40
0.0
 40
0.0
 40
0.0
 40
1.0
 40
1.0
 40
1.0
 40
1.0
 10
160.5542207226761
 20
93.5555301352197
 30
0.0
 10
160.5300625109614
 20
93.51053921959078
 30
0.0
 10
160.5059142106357
 20
93.46554041605958
 30
0.0
 10
160.4817755526238
 20
93.4205338809035
 30
0.0
  0
SPLINE
  5
AD
330
1F
100
AcDbEntity
  8
0
  6
Continuous
 62
     7
370
    15
100
AcDbSpline
210
0.0
220
0.0
230
1.0
 70
     8
 71
     3
 72
     8
 73
     4
 74
     0
 42
0.000000001
 43
0.00000001
 40
0.0
 40
0.0
 40
0.0
 40
0.0
 40
1.0
 40
1.0
 40
1.0
 40
1.0
 10
160.4817755526238
 20
93.4205338809035
 30
0.0
 10
160.2707549168344
 20
93.02708584171782
 30
0.0
 10
160.0604675149267
 20
92.63304929080849
 30
0.0
 10
159.8507597535934
 20
92.2385118226172
 30
0.0
  0
SPLINE
  5
AE
330
1F
100
AcDbEntity
  8
0
  6
Continuous
 62
     7
370
    15
100
AcDbSpline
210
0.0
220
0.0
230
1.0
 70
     8
 71
     3
 72
     8
 73
     4
 74
     0
 42
0.000000001
 43
0.00000001
 40
0.0
 40
0.0
 40
0.0
 40
0.0
 40
1.0
 40
1.0
 40
1.0
 40
1.0
 10
159.8507597535934
 20
92.23851182261721
 30
0.0
 10
159.5734327385838
 20
91.71675765545004
 30
0.0
 10
159.2947526958921
 20
91.19572237988379
 30
0.0
 10
159.0149897581361
 20
90.67529078642902
 30
0.0
  0
SPLINE
  5
AF
330
1F
100
AcDbEntity
  8
0
  6
Continuous
 62
     7
370
    15
100
AcDbSpline
210
0.0
220
0.0
230
1.0
 70
     8
 71
     3
 72
     8
 73
     4
 74
     0
 42
0.000000001
 43
0.00000001
 40
0.0
 40
0.0
 40
0.0
 40
0.0
 40
0.0011496337376319
 40
0.0011496337376319
 40
0.0011496337376319
 40
0.0011496337376319
 10
158.4757597535934
 20
89.95734624368828
 30
0.0
 10
158.6560199532785
 20
90.19646663112559
 30
0.0
 10
158.8357865070064
 20
90.43577350756237
 30
0.0
 10
159.0149897581362
 20
90.67529078642902
 30
0.0
  0
LINE
  5
B0
330
1F
100
AcDbEntity
  8
0
  6
Continuous
 62
     7
370
    15
100
AcDbLine
 10
150.9007597536
 20
91.1681649435
 30
0.0
 11
150.9007597536
 21
131.2729028183
 31
0.0
  0
SPLINE
  5
B1
330
1F
100
AcDbEntity
  8
0
  6
Continuous
 62
     7
370
    15
100
AcDbSpline
210
0.0
220
0.0
230
1.0
 70
     8
 71
     3
 72
    12
 73
     8
 74
     0
 42
0.000000001
 43
0.00000001
 40
0.0
 40
0.0
 40
0.0
 40
0.0
 40
0.2500000000000015
 40
0.2500000000000015
 40
0.500000000000003
 40
0.500000000000003
 40
1.0
 40
1.0
 40
1.0
 40
1.0
 10
151.3234378919295
 20
132.3430988370419
 30
0.0
 10
151.2664756164483
 20
132.276327727366
 30
0.0
 10
151.2132767561378
 20
132.2040084570198
 30
0.0
 10
151.1152486683464
 20
132.0470311055447
 30
0.0
 10
151.0700210340845
 20
131.9614261748308
 30
0.0
 10
150.9546289846262
 20
131.6906282434452
 30
0.0
 10
150.9007597535934
 20
131.4862166419525
 30
0.0
 10
150.9007597535934
 20
131.2729028182635
 30
0.0
  0
SPLINE
  5
B2
330
1F
100
AcDbEntity
  8
0
  6
Continuous
 62
     7
370
    15
100
AcDbSpline
210
0.0
220
0.0
230
1.0
 70
     8
 71
     3
 72
     8
 73
     4
 74
     0
 42
0.000000001
 43
0.00000001
 40
0.0
 40
0.0
 40
0.0
 40
0.0
 40
1.0
 40
1.0
 40
1.0
 40
1.0
 10
151.9007597535934
 20
132.4837215181187
 30
0.0
 10
151.6915918787436
 20
132.4837215181187
 30
0.0
 10
151.4892978023401
 20
132.4330399796221
 30
0.0
 10
151.3234378919295
 20
132.3430988370419
 30
0.0
  0
SPLINE
  5
B3
330
1F
100
AcDbEntity
  8
0
  6
Continuous
 62
     7
370
    15
100
AcDbSpline
210
0.0
220
0.0
230
1.0
 70
     8
 71
     3
 72
     8
 73
     4
 74
     0
 42
0.000000001
 43
0.00000001
 40
0.0
 40
0.0
 40
0.0
 40
0.0
 40
1.0
 40
1.0
 40
1.0
 40
1.0
 10
151.3234378919295
 20
90.09796892476511
 30
0.0
 10
151.4892867034547
 20
90.0080338007968
 30
0.0
 10
151.6915978867679
 20
89.95734624368826
 30
0.0
 10
151.9007597535934
 20
89.95734624368826
 30
0.0
  0
SPLINE
  5
B4
330
1F
100
AcDbEntity
  8
0
  6
Continuous
 62
     7
370
    15
100
AcDbSpline
210
0.0
220
0.0
230
1.0
 70
     8
 71
     3
 72
    12
 73
     8
 74
     0
 42
0.000000001
 43
0.00000001
 40
0.0
 40
0.0
 40
0.0
 40
0.0
 40
0.2500000000000014
 40
0.2500000000000014
 40
0.5000000000000028
 40
0.5000000000000028
 40
1.0
 40
1.0
 40
1.0
 40
1.0
 10
151.3234378919295
 20
90.09796892476511
 30
0.0
 10
151.2664756164483
 20
90.16474003444104
 30
0.0
 10
151.2132767561378
 20
90.23705930478722
 30
0.0
 10
151.1152486683464
 20
90.39403665626229
 30
0.0
 10
151.0700210340845
 20
90.47964158697621
 30
0.0
 10
150.9546289846262
 20
90.75043951836179
 30
0.0
 10
150.9007597535934
 20
90.95485111985447
 30
0.0
 10
150.9007597535934
 20
91.16816494354352
 30
0.0
  0
SPLINE
  5
B5
330
1F
100
AcDbEntity
  8
0
  6
Continuous
 62
     7
370
    15
100
AcDbSpline
210
0.0
220
0.0
230
1.0
 70
     8
 71
     3
 72
    10
 73
     6
 74
     0
 42
0.000000001
 43
0.00000001
 40
0.0
 40
0.0
 40
0.0
 40
0.0
 40
0.5
 40
0.5
 40
1.0
 40
1.0
 40
1.0
 40
1.0
 10
161.2470410457036
 20
128.4874705358721
 30
0.0
 10
161.1064589451333
 20
128.4761024419852
 30
0.0
 10
160.9648406944754
 20
128.5086509654627
 30
0.0
 10
160.7213483010239
 20
128.6515294753798
 30
0.0
 10
160.6218381196037
 20
128.759610731151
 30
0.0
 10
160.5542207226711
 20
128.885537626584
 30
0.0
  0
SPLINE
  5
B6
330
1F
100
AcDbEntity
  8
0
  6
Continuous
 62
     7
370
    15
100
AcDbSpline
210
0.0
220
0.0
230
1.0
 70
     8
 71
     3
 72
    10
 73
     6
 74
     0
 42
0.000000001
 43
0.00000001
 40
0.0
 40
0.0
 40
0.0
 40
0.0
 40
0.5
 40
0.5
 40
1.0
 40
1.0
 40
1.0
 40
1.0
 10
161.2470410457036
 20
93.95359722593494
 30
0.0
 10
161.1064589451333
 20
93.96496531982177
 30
0.0
 10
160.9648406944754
 20
93.93241679634431
 30
0.0
 10
160.7213483010239
 20
93.78953828642716
 30
0.0
 10
160.6218381196037
 20
93.68145703065603
 30
0.0
 10
160.5542207226711
 20
93.55553013522298
 30
0.0
  0
SPLINE
  5
B7
330
1F
100
AcDbEntity
  8
0
  6
Continuous
 62
     7
370
    15
100
AcDbSpline
210
0.0
220
0.0
230
1.0
 70
     8
 71
     3
 72
     8
 73
     4
 74
     0
 42
0.000000001
 43
0.00000001
 40
0.0
 40
0.0
 40
0.0
 40
0.0
 40
1.0
 40
1.0
 40
1.0
 40
1.0
 10
164.0847178174736
 20
93.4205338809037
 30
0.0
 10
163.9855060589051
 20
93.49230855466047
 30
0.0
 10
163.8738441408525
 20
93.54656553749113
 30
0.0
 10
163.7544784614841
 20
93.57296975011673
 30
0.0
  0
SPLINE
  5
B8
330
1F
100
AcDbEntity
  8
0
  6
Continuous
 62
     7
370
    15
100
AcDbSpline
210
0.0
220
0.0
230
1.0
 70
     8
 71
     3
 72
     8
 73
     4
 74
     0
 42
0.000000001
 43
0.00000001
 40
0.0
 40
0.0
 40
0.0
 40
0.0
 40
1.0
 40
1.0
 40
1.0
 40
1.0
 10
164.0847178174736
 20
129.0205338809033
 30
0.0
 10
163.9855060589051
 20
128.9487592071465
 30
0.0
 10
163.8738441408525
 20
128.8945022243159
 30
0.0
 10
163.7544784614841
 20
128.8680980116903
 30
0.0
  0
SPLINE
  5
B9
330
1F
100
AcDbEntity
  8
0
  6
Continuous
 62
     7
370
    15
100
AcDbSpline
210
0.0
220
0.0
230
1.0
 70
     8
 71
     3
 72
    10
 73
     6
 74
     0
 42
0.000000001
 43
0.00000001
 40
0.0
 40
0.0
 40
0.0
 40
0.0
 40
0.5
 40
0.5
 40
1.0
 40
1.0
 40
1.0
 40
1.0
 10
164.4472987845108
 20
129.4602068785958
 30
0.0
 10
164.4039606022033
 20
129.3694461527977
 30
0.0
 10
164.351210606988
 20
129.2879437121155
 30
0.0
 10
164.2291529559617
 20
129.1403658044794
 30
0.0
 10
164.1596725404047
 20
129.0747598200715
 30
0.0
 10
164.0847178174736
 20
129.0205338809033
 30
0.0
  0
SPLINE
  5
BA
330
1F
100
AcDbEntity
  8
0
  6
Continuous
 62
     7
370
    15
100
AcDbSpline
210
0.0
220
0.0
230
1.0
 70
     8
 71
     3
 72
    10
 73
     6
 74
     0
 42
0.000000001
 43
0.00000001
 40
0.0
 40
0.0
 40
0.0
 40
0.0
 40
0.5
 40
0.5
 40
1.0
 40
1.0
 40
1.0
 40
1.0
 10
164.4472987845108
 20
92.98086088321118
 30
0.0
 10
164.4039606022033
 20
93.07162160900928
 30
0.0
 10
164.351210606988
 20
93.15312404969147
 30
0.0
 10
164.2291529559617
 20
93.30070195732759
 30
0.0
 10
164.1596725404047
 20
93.36630794173547
 30
0.0
 10
164.0847178174736
 20
93.4205338809037
 30
0.0
  0
SPLINE
  5
BB
330
1F
100
AcDbEntity
  8
0
  6
Continuous
 62
     7
370
    15
100
AcDbSpline
210
0.0
220
0.0
230
1.0
 70
     8
 71
     3
 72
     8
 73
     4
 74
     0
 42
0.000000001
 43
0.00000001
 40
0.0
 40
0.0
 40
0.0
 40
0.0
 40
1.0
 40
1.0
 40
1.0
 40
1.0
 10
163.7544784614832
 20
128.868098011693
 30
0.0
 10
162.9740491752131
 20
128.6954636253029
 30
0.0
 10
162.1402391099637
 20
128.5596985038201
 30
0.0
 10
161.2470410457036
 20
128.4874705358721
 30
0.0
  0
SPLINE
  5
BC
330
1F
100
AcDbEntity
  8
0
  6
Continuous
 62
     7
370
    15
100
AcDbSpline
210
0.0
220
0.0
230
1.0
 70
     8
 71
     3
 72
     8
 73
     4
 74
     0
 42
0.000000001
 43
0.00000001
 40
0.0
 40
0.0
 40
0.0
 40
0.0
 40
1.0
 40
1.0
 40
1.0
 40
1.0
 10
163.7544784614832
 20
93.57296975011397
 30
0.0
 10
162.9740491752131
 20
93.74560413650403
 30
0.0
 10
162.1402391099637
 20
93.88136925798692
 30
0.0
 10
161.2470410457036
 20
93.95359722593494
 30
0.0
  0
SPLINE
  5
BD
330
1F
100
AcDbEntity
  8
0
  6
Continuous
 62
     7
370
    15
100
AcDbSpline
210
0.0
220
0.0
230
1.0
 70
    24
 71
     3
 72
    10
 73
     6
 74
     0
 42
0.000000001
 43
0.00000001
 40
0.0
 40
0.0
 40
0.0
 40
0.0
 40
0.0881249568519708
 40
0.543757703730044
 40
1.0
 40
1.0
 40
1.0
 40
1.0
 10
150.7825317167272
 20
127.4205338809035
 30
0.0
 10
150.7766334100597
 20
127.4205338809035
 30
0.0
 10
150.7402390695236
 20
127.4205338809035
 30
0.0
 10
150.6618382735292
 20
127.4205338809035
 30
0.0
 10
150.6463345335466
 20
127.4205338809035
 30
0.0
 10
150.6385774817624
 20
127.4205338809035
 30
0.0
  0
SPLINE
  5
BE
330
1F
100
AcDbEntity
  8
0
  6
Continuous
 62
     7
370
    15
100
AcDbSpline
210
0.0
220
0.0
230
1.0
 70
    24
 71
     3
 72
    10
 73
     6
 74
     0
 42
0.000000001
 43
0.00000001
 40
0.0
 40
0.0
 40
0.0
 40
0.0
 40
0.3856296239769472
 40
0.7720333130201084
 40
1.0
 40
1.0
 40
1.0
 40
1.0
 10
150.6385774817624
 20
95.02053388090351
 30
0.0
 10
150.6441659510346
 20
95.0205338809035
 30
0.0
 10
150.655354107179
 20
95.02053388090351
 30
0.0
 10
150.723335798386
 20
95.02053388090351
 30
0.0
 10
150.766341920569
 20
95.0205338809035
 30
0.0
 10
150.7822996613334
 20
95.0205338809035
 30
0.0
  0
LINE
  5
BF
330
1F
100
AcDbEntity
  8
0
  6
Continuous
 62
     7
370
    15
100
AcDbLine
 10
148.9007597536
 20
95.3455338809
 30
0.0
 11
148.9007597536
 21
127.0955338809
 31
0.0
  0
LINE
  5
C0
330
1F
100
AcDbEntity
  8
0
  6
Continuous
 62
     7
370
    15
100
AcDbLine
 10
190.7007597536
 20
101.2205338809
 30
0.0
 11
190.7007597536
 21
121.2205338809
 31
0.0
  0
SPLINE
  5
C1
330
1F
100
AcDbEntity
  8
0
  6
Continuous
 62
     7
370
    15
100
AcDbSpline
210
0.0
220
0.0
230
1.0
 70
     8
 71
     3
 72
    38
 73
    34
 74
     0
 42
0.000000001
 43
0.00000001
 40
0.0
 40
0.0
 40
0.0
 40
0.0
 40
0.0625
 40
0.0625
 40
0.125
 40
0.125
 40
0.1874999999999999
 40
0.1874999999999999
 40
0.2499999999999999
 40
0.2499999999999999
 40
0.3124999999999999
 40
0.3124999999999999
 40
0.3749999999999999
 40
0.3749999999999999
 40
0.4375
 40
0.4375
 40
0.5000000000000001
 40
0.5000000000000001
 40
0.5625000000000001
 40
0.5625000000000001
 40
0.6250000000000001
 40
0.6250000000000001
 40
0.6875000000000001
 40
0.6875000000000001
 40
0.75
 40
0.75
 40
0.8125
 40
0.8125
 40
0.875
 40
0.875
 40
0.9375
 40
0.9375
 40
1.0
 40
1.0
 40
1.0
 40
1.0
 10
188.4507597535934
 20
111.2205338809035
 30
0.0
 10
188.4507597535934
 20
111.0209810361363
 30
0.0
 10
188.4263909977426
 20
110.8216618923477
 30
0.0
 10
188.3294584171689
 20
110.4303563933094
 30
0.0
 10
188.2586424408339
 20
110.2441533187284
 30
0.0
 10
188.0761391379516
 20
109.8888557629324
 30
0.0
 10
187.9644418223609
 20
109.7209715084127
 30
0.0
 10
187.7121363079031
 20
109.4148912736222
 30
0.0
 10
187.5690278053223
 20
109.2735919528494
 30
0.0
 10
187.2607450325524
 20
109.0222000265885
 30
0.0
 10
187.096143734251
 20
108.9120059292315
 30
0.0
 10
186.7470461894814
 20
108.720482738173
 30
0.0
 10
186.5622441685783
 20
108.6394853807752
 30
0.0
 10
186.185948326023
 20
108.5110985095885
 30
0.0
 10
185.9928771529335
 20
108.4627539628528
 30
0.0
 10
185.596772936902
 20
108.3977369354443
 30
0.0
 10
185.3955143614703
 20
108.381653078885
 30
0.0
 10
184.9971686457241
 20
108.3821314673266
 30
0.0
 10
184.798524661012
 20
108.3984090514456
 30
0.0
 10
184.4023261690347
 20
108.4641510899222
 30
0.0
 10
184.2073084419859
 20
108.5134516398358
 30
0.0
 10
183.8323235780715
 20
108.6423425142254
 30
0.0
 10
183.6509196337641
 20
108.7221294098834
 30
0.0
 10
183.300977466459
 20
108.9147288684785
 30
0.0
 10
183.1352341948873
 20
109.0263208650768
 30
0.0
 10
182.8303096670234
 20
109.2757785205674
 30
0.0
 10
182.6898085797101
 20
109.4142876066581
 30
0.0
 10
182.4356198341395
 20
109.722828056055
 30
0.0
 10
182.3250036729281
 20
109.8896167973482
 30
0.0
 10
182.1434093706112
 20
110.2430893703582
 30
0.0
 10
182.0711343766486
 20
110.4336270053255
 30
0.0
 10
181.9753689037231
 20
110.8211652498009
 30
0.0
 10
181.9507597535934
 20
111.0187993533911
 30
0.0
 10
181.9507597535934
 20
111.2205338809035
 30
0.0
  0
SPLINE
  5
C2
330
1F
100
AcDbEntity
  8
0
  6
Continuous
 62
     7
370
    15
100
AcDbSpline
210
0.0
220
0.0
230
1.0
 70
     8
 71
     3
 72
    32
 73
    28
 74
     0
 42
0.000000001
 43
0.00000001
 40
0.0
 40
0.0
 40
0.0
 40
0.0
 40
0.0625000000000003
 40
0.0625000000000003
 40
0.1250000000000006
 40
0.1250000000000006
 40
0.1875000000000009
 40
0.1875000000000009
 40
0.2500000000000013
 40
0.2500000000000013
 40
0.3750000000000021
 40
0.3750000000000021
 40
0.5000000000000029
 40
0.5000000000000029
 40
0.6250000000000037
 40
0.6250000000000037
 40
0.6875000000000031
 40
0.6875000000000031
 40
0.7500000000000024
 40
0.7500000000000024
 40
0.8125000000000018
 40
0.8125000000000018
 40
0.8750000000000012
 40
0.8750000000000012
 40
0.9375000000000006
 40
0.9375000000000006
 40
1.0
 40
1.0
 40
1.0
 40
1.0
 10
181.9507597535934
 20
111.2205338809035
 30
0.0
 10
181.9507597535934
 20
111.4224978929661
 30
0.0
 10
181.9758620277418
 20
111.623083165105
 30
0.0
 10
182.0723754648001
 20
112.0112564625871
 30
0.0
 10
182.1450021983792
 20
112.2018764124586
 30
0.0
 10
182.3279458617604
 20
112.5563602766489
 30
0.0
 10
182.4394795944526
 20
112.7236608502941
 30
0.0
 10
182.6947563462242
 20
113.0320239158599
 30
0.0
 10
182.8367693787663
 20
113.1715375872924
 30
0.0
 10
183.3029537961873
 20
113.5499400777319
 30
0.0
 10
183.6521436739006
 20
113.7383721377994
 30
0.0
 10
184.4128299150757
 20
113.9966261769125
 30
0.0
 10
184.8076048182934
 20
114.0602189478277
 30
0.0
 10
185.6131581144836
 20
114.058112171855
 30
0.0
 10
186.0070175225297
 20
113.99250342827
 30
0.0
 10
186.5755322157393
 20
113.7962703336857
 30
0.0
 10
186.7566346535593
 20
113.7159087596034
 30
0.0
 10
187.1022405865326
 20
113.5251056551901
 30
0.0
 10
187.2677022323941
 20
113.4139192120727
 30
0.0
 10
187.5761258089463
 20
113.1609291395022
 30
0.0
 10
187.7159588361379
 20
113.021979366667
 30
0.0
 10
187.9659259699564
 20
112.7178462350826
 30
0.0
 10
188.0771812772461
 20
112.5505261032302
 30
0.0
 10
188.2595260804497
 20
112.1948475928859
 30
0.0
 10
188.3295814044832
 20
112.0096580079127
 30
0.0
 10
188.4254566447928
 20
111.6237299190476
 30
0.0
 10
188.4507597535934
 20
111.4203137284321
 30
0.0
 10
188.4507597535934
 20
111.2205338809035
 30
0.0
  0
LINE
  5
C3
330
1F
100
AcDbEntity
  8
0
  6
Continuous
 62
     7
370
    15
100
AcDbLine
 10
190.9007597536
 20
101.4205338809
 30
0.0
 11
190.9007597536
 21
121.0205338809
 31
0.0
  0
LINE
  5
C4
330
1F
100
AcDbEntity
  8
0
  6
Continuous
 62
     7
370
    15
100
AcDbLine
 10
100.5007597536
 20
102.8362394157
 30
0.0
 11
100.5007597536
 21
119.6048283461
 31
0.0
  0
CIRCLE
  5
C5
330
1F
100
AcDbEntity
  8
0
  6
HIDDEN
 62
     7
370
     0
100
AcDbCircle
 10
185.2007597536
 20
111.2205338809
 30
0.0
 40
2.105669347724854
  0
CIRCLE
  5
C6
330
1F
100
AcDbEntity
  8
0
  6
HIDDEN
 62
     7
370
     0
100
AcDbCircle
 10
185.2007597536
 20
111.2205338809
 30
0.0
 40
1.695534221835441
  0
ARC
  5
C7
330
1F
100
AcDbEntity
  8
0
  6
HIDDEN
 62
     7
370
     0
100
AcDbCircle
 10
185.2007597536
 20
111.2205338809
 30
0.0
 40
1.395534221835455
100
AcDbArc
 50
163.3307521877
 51
19.3338483783
  0
ARC
  5
C8
330
1F
100
AcDbEntity
  8
0
  6
HIDDEN
 62
     7
370
     0
100
AcDbCircle
 10
185.2007597536
 20
111.2205338809
 30
0.0
 40
1.395534221835435
100
AcDbArc
 50
19.3338483783
 51
115.3961860997
  0
LINE
  5
C9
330
1F
100
AcDbEntity
  8
0
  6
HIDDEN
 62
     7
370
     0
100
AcDbLine
 10
166.8948083595
 20
88.9959972051
 30
0.0
 11
166.5259390744
 21
89.1257616908
 31
0.0
  0
CIRCLE
  5
CA
330
1F
100
AcDbEntity
  8
0
  6
HIDDEN
 62
     7
370
     0
100
AcDbCircle
 10
185.2007597536
 20
111.2205338809
 30
0.0
 40
2.099999999999994
  0
LINE
  5
CB
330
1F
100
AcDbEntity
  8
0
  6
HIDDEN
 62
     7
370
     0
100
AcDbLine
 10
150.9007597536
 20
127.4205338809
 30
0.0
 11
151.2380180538
 21
127.4205338809
 31
0.0
  0
ELLIPSE
  5
CC
330
1F
100
AcDbEntity
  8
0
  6
HIDDEN
 62
     7
370
     0
100
AcDbEllipse
 10
151.2380180538
 20
129.0205338809
 30
0.0
 11
0.0
 21
1.599999999999994
 31
0.0
210
0.0
220
0.0
230
1.0
 40
0.4142135624
 41
3.141592653589793
 42
4.712388980384695
  0
ELLIPSE
  5
CD
330
1F
100
AcDbEntity
  8
0
  6
HIDDEN
 62
     7
370
     0
100
AcDbEllipse
 10
151.2380180538
 20
93.4205338809
 30
0.0
 11
0.0
 21
1.600000000000009
 31
0.0
210
0.0
220
0.0
230
1.0
 40
0.4142135624
 41
4.712388980384695
 42
6.283185307179586
  0
LINE
  5
CE
330
1F
100
AcDbEntity
  8
0
  6
HIDDEN
 62
     7
370
     0
100
AcDbLine
 10
151.2380180538
 20
95.0205338809
 30
0.0
 11
150.9007597536
 21
95.0205338809
 31
0.0
  0
LINE
  5
CF
330
1F
100
AcDbEntity
  8
0
  6
HIDDEN
 62
     7
370
     0
100
AcDbLine
 10
151.3234378919
 20
132.343098837
 30
0.0
 11
151.9007597536
 21
131.7657769754
 31
0.0
  0
LINE
  5
D0
330
1F
100
AcDbEntity
  8
0
  6
HIDDEN
 62
     7
370
     0
100
AcDbLine
 10
151.9007597536
 20
90.6752907864
 30
0.0
 11
151.3234378919
 21
90.0979689248
 31
0.0
  0
LINE
  5
D1
330
1F
100
AcDbEntity
  8
0
  6
HIDDEN
 62
     7
370
     0
100
AcDbLine
 10
159.8507597536
 20
127.4205338809
 30
0.0
 11
160.3563562634
 21
127.4205338809
 31
0.0
  0
SPLINE
  5
D2
330
1F
100
AcDbEntity
  8
0
  6
HIDDEN
 62
     7
370
     0
100
AcDbSpline
210
0.0
220
0.0
230
1.0
 70
    24
 71
     3
 72
    12
 73
     8
 74
     0
 42
0.000000001
 43
0.00000001
 40
0.0
 40
0.0
 40
0.0
 40
0.0
 40
0.5000000000000088
 40
0.5000000000000088
 40
0.7500000000000043
 40
0.7500000000000043
 40
1.0
 40
1.0
 40
1.0
 40
1.0
 10
160.6661203876317
 20
127.4205338809035
 30
0.0
 10
160.7124015316936
 20
127.4205338809035
 30
0.0
 10
160.7585747216601
 20
127.4205338809035
 30
0.0
 10
160.8277899802489
 20
127.4205338809035
 30
0.0
 10
160.8508531438332
 20
127.4205338809035
 30
0.0
 10
160.8970490844868
 20
127.4205338809035
 30
0.0
 10
160.9200285763572
 20
127.4205338809035
 30
0.0
 10
160.9436690861621
 20
127.4205338809035
 30
0.0
  0
SPLINE
  5
D3
330
1F
100
AcDbEntity
  8
0
  6
HIDDEN
 62
     7
370
     0
100
AcDbSpline
210
0.0
220
0.0
230
1.0
 70
    24
 71
     3
 72
    12
 73
     8
 74
     0
 42
0.000000001
 43
0.00000001
 40
0.0
 40
0.0
 40
0.0
 40
0.0
 40
0.2499999999999956
 40
0.2499999999999956
 40
0.4999999999999912
 40
0.4999999999999912
 40
1.0
 40
1.0
 40
1.0
 40
1.0
 10
160.9436690861621
 20
95.02053388090351
 30
0.0
 10
160.9200285763572
 20
95.02053388090351
 30
0.0
 10
160.8970490844868
 20
95.02053388090351
 30
0.0
 10
160.8508531438332
 20
95.0205338809035
 30
0.0
 10
160.8277899802489
 20
95.0205338809035
 30
0.0
 10
160.7585747216601
 20
95.02053388090351
 30
0.0
 10
160.7124015316936
 20
95.02053388090351
 30
0.0
 10
160.6661203876317
 20
95.02053388090351
 30
0.0
  0
LINE
  5
D4
330
1F
100
AcDbEntity
  8
0
  6
HIDDEN
 62
     7
370
     0
100
AcDbLine
 10
151.2380180538
 20
127.4205338809
 30
0.0
 11
159.8507597536
 21
127.4205338809
 31
0.0
  0
LINE
  5
D5
330
1F
100
AcDbEntity
  8
0
  6
HIDDEN
 62
     7
370
     0
100
AcDbLine
 10
159.0149897581
 20
90.6752907864
 30
0.0
 11
151.9007597536
 21
90.6752907864
 31
0.0
  0
LINE
  5
D6
330
1F
100
AcDbEntity
  8
0
  6
HIDDEN
 62
     7
370
     0
100
AcDbLine
 10
151.9007597536
 20
90.6752907864
 30
0.0
 11
151.9007597536
 21
93.4205338809
 31
0.0
  0
LINE
  5
D7
330
1F
100
AcDbEntity
  8
0
  6
HIDDEN
 62
     7
370
     0
100
AcDbLine
 10
151.9007597536
 20
131.7657769754
 30
0.0
 11
159.0149897581
 21
131.7657769754
 31
0.0
  0
LINE
  5
D8
330
1F
100
AcDbEntity
  8
0
  6
HIDDEN
 62
     7
370
     0
100
AcDbLine
 10
151.9007597536
 20
131.7657769754
 30
0.0
 11
151.9007597536
 21
129.0205338809
 31
0.0
  0
LINE
  5
D9
330
1F
100
AcDbEntity
  8
0
  6
HIDDEN
 62
     7
370
     0
100
AcDbLine
 10
160.3563562634
 20
95.0205338809
 30
0.0
 11
159.8507597536
 21
95.0205338809
 31
0.0
  0
LINE
  5
DA
330
1F
100
AcDbEntity
  8
0
  6
HIDDEN
 62
     7
370
     0
100
AcDbLine
 10
159.8507597536
 20
95.0205338809
 30
0.0
 11
151.2380180538
 21
95.0205338809
 31
0.0
  0
SPLINE
  5
DB
330
1F
100
AcDbEntity
  8
0
  6
HIDDEN
 62
     7
370
     0
100
AcDbSpline
210
0.0
220
0.0
230
1.0
 70
    24
 71
     3
 72
     8
 73
     4
 74
     0
 42
0.000000001
 43
0.00000001
 40
0.0
 40
0.0
 40
0.0
 40
0.0
 40
1.0
 40
1.0
 40
1.0
 40
1.0
 10
160.6661203876317
 20
95.02053388090351
 30
0.0
 10
160.562833053067
 20
95.02053388090351
 30
0.0
 10
160.4595784535813
 20
95.02053388090351
 30
0.0
 10
160.3563562633756
 20
95.02053388090351
 30
0.0
  0
SPLINE
  5
DC
330
1F
100
AcDbEntity
  8
0
  6
HIDDEN
 62
     7
370
     0
100
AcDbSpline
210
0.0
220
0.0
230
1.0
 70
    24
 71
     3
 72
     8
 73
     4
 74
     0
 42
0.000000001
 43
0.00000001
 40
0.0
 40
0.0
 40
0.0
 40
0.0
 40
1.0
 40
1.0
 40
1.0
 40
1.0
 10
160.3563562633756
 20
127.4205338809035
 30
0.0
 10
160.4595784535813
 20
127.4205338809035
 30
0.0
 10
160.562833053067
 20
127.4205338809035
 30
0.0
 10
160.6661203876317
 20
127.4205338809035
 30
0.0
  0
LINE
  5
DD
330
1F
100
AcDbEntity
  8
0
  6
HIDDEN
 62
     7
370
     0
100
AcDbLine
 10
190.5507597536
 20
107.113745111
 30
0.0
 11
190.5507597536
 21
115.3273226508
 31
0.0
  0
SPLINE
  5
DE
330
1F
100
AcDbEntity
  8
0
  6
HIDDEN
 62
     7
370
     0
100
AcDbSpline
210
0.0
220
0.0
230
1.0
 70
    24
 71
     3
 72
    11
 73
     7
 74
     0
 42
0.000000001
 43
0.00000001
 40
0.0
 40
0.0
 40
0.0
 40
0.0
 40
0.0000172284261762
 40
0.0000172284261762
 40
0.0000172284261762
 40
0.0003364215432166
 40
0.0003364215432166
 40
0.0003364215432166
 40
0.0003364215432166
 10
163.243185779932
 20
95.02053388090351
 30
0.0
 10
163.2383014588774
 20
95.02053388090351
 30
0.0
 10
163.2334196164159
 20
95.02053388090351
 30
0.0
 10
163.2285398568503
 20
95.02053388090351
 30
0.0
 10
163.1381331433146
 20
95.02053388090351
 30
0.0
 10
163.0485335822234
 20
95.02053388090351
 30
0.0
 10
162.9564558405149
 20
95.02053388090351
 30
0.0
  0
SPLINE
  5
DF
330
1F
100
AcDbEntity
  8
0
  6
HIDDEN
 62
     7
370
     0
100
AcDbSpline
210
0.0
220
0.0
230
1.0
 70
    24
 71
     3
 72
     8
 73
     4
 74
     0
 42
0.000000001
 43
0.00000001
 40
0.0000000000000044
 40
0.0000000000000044
 40
0.0000000000000044
 40
0.0000000000000044
 40
0.0003364172281863
 40
0.0003364172281863
 40
0.0003364172281863
 40
0.0003364172281863
 10
162.9564558405149
 20
127.4205338809035
 30
0.0
 10
163.0535034904721
 20
127.4205338809035
 30
0.0
 10
163.1478102805126
 20
127.4205338809035
 30
0.0
 10
163.243185779932
 20
127.4205338809035
 30
0.0
  0
SPLINE
  5
E0
330
1F
100
AcDbEntity
  8
0
  6
HIDDEN
 62
     7
370
     0
100
AcDbSpline
210
0.0
220
0.0
230
1.0
 70
     8
 71
     3
 72
    18
 73
    14
 74
     0
 42
0.000000001
 43
0.00000001
 40
0.0
 40
0.0
 40
0.0
 40
0.0
 40
0.1460838096863769
 40
0.2781305992423326
 40
0.3961757258544635
 40
0.5002703092959839
 40
0.5869262499627257
 40
0.6721524275983513
 40
0.7559997285042249
 40
0.8385215906748436
 40
0.9197740681263782
 40
0.9998158826481488
 40
1.0
 40
1.0
 40
1.0
 40
1.0
 10
165.84817726691
 20
132.3761058930478
 30
0.0
 10
166.0301224872746
 20
132.4425066074649
 30
0.0
 10
166.3765300274253
 20
132.5689276703505
 30
0.0
 10
166.7932946977033
 20
132.7349546369396
 30
0.0
 10
167.1169394564807
 20
132.8712482356141
 30
0.0
 10
167.3555092496209
 20
132.9754477569353
 30
0.0
 10
167.5345215290938
 20
133.0534637753467
 30
0.0
 10
167.6706604894102
 20
133.1140208052916
 30
0.0
 10
167.7746416349149
 20
133.1610331353072
 30
0.0
 10
167.8487742642312
 20
133.1953322039382
 30
0.0
 10
167.8885917768649
 20
133.2142330547442
 30
0.0
 10
167.9063314249848
 20
133.2231081840688
 30
0.0
 10
167.9007340631061
 20
133.2205210226938
 30
0.0
 10
167.9007212172416
 20
133.220515085196
 30
0.0
  0
SPLINE
  5
E1
330
1F
100
AcDbEntity
  8
0
  6
HIDDEN
 62
     7
370
     0
100
AcDbSpline
210
0.0
220
0.0
230
1.0
 70
     8
 71
     3
 72
    14
 73
    10
 74
     0
 42
0.000000001
 43
0.00000001
 40
0.0
 40
0.0
 40
0.0
 40
0.0
 40
0.0001837459954047
 40
0.1206873855963683
 40
0.2440221049696188
 40
0.3703795474105205
 40
0.4999379337759328
 40
0.7219783401294863
 40
1.0
 40
1.0
 40
1.0
 40
1.0
 10
167.9006621487463
 20
89.22058016300426
 30
0.0
 10
167.9006946956102
 20
89.22056505816947
 30
0.0
 10
167.9220720099826
 20
89.21064395476722
 30
0.0
 10
167.8689924805592
 20
89.23635071494078
 30
0.0
 10
167.783247266826
 20
89.27618335215813
 30
0.0
 10
167.6114518172303
 20
89.35391170741345
 30
0.0
 10
167.3148311103614
 20
89.48317484803816
 30
0.0
 10
166.788461692059
 20
89.71520941580087
 30
0.0
 10
166.1841558099164
 20
89.93998976838733
 30
0.0
 10
165.8481772669098
 20
90.0649618687593
 30
0.0
  0
LINE
  5
E2
330
1F
100
AcDbEntity
  8
0
  6
HIDDEN
 62
     7
370
     0
100
AcDbLine
 10
166.3007597536
 20
95.0205338809
 30
0.0
 11
163.2431857799
 21
95.0205338809
 31
0.0
  0
LINE
  5
E3
330
1F
100
AcDbEntity
  8
0
  6
HIDDEN
 62
     7
370
     0
100
AcDbLine
 10
163.2431857799
 20
127.4205338809
 30
0.0
 11
166.3007597536
 21
127.4205338809
 31
0.0
  0
SPLINE
  5
E4
330
1F
100
AcDbEntity
  8
0
  6
HIDDEN
 62
     7
370
     0
100
AcDbSpline
210
0.0
220
0.0
230
1.0
 70
    24
 71
     3
 72
    10
 73
     6
 74
     0
 42
0.000000001
 43
0.00000001
 40
0.0
 40
0.0
 40
0.0
 40
0.0
 40
0.5
 40
0.5
 40
1.0
 40
1.0
 40
1.0
 40
1.0
 10
160.9436690861621
 20
127.4205338809035
 30
0.0
 10
161.2998388896231
 20
127.4205338809035
 30
0.0
 10
161.6481779845524
 20
127.4205338809035
 30
0.0
 10
162.3184585097942
 20
127.4205338809035
 30
0.0
 10
162.642273742946
 20
127.4205338809035
 30
0.0
 10
162.956455840511
 20
127.4205338809035
 30
0.0
  0
SPLINE
  5
E5
330
1F
100
AcDbEntity
  8
0
  6
HIDDEN
 62
     7
370
     0
100
AcDbSpline
210
0.0
220
0.0
230
1.0
 70
    24
 71
     3
 72
    10
 73
     6
 74
     0
 42
0.000000001
 43
0.00000001
 40
0.0
 40
0.0
 40
0.0
 40
0.0
 40
0.5
 40
0.5
 40
1.0
 40
1.0
 40
1.0
 40
1.0
 10
162.956455840511
 20
95.02053388090351
 30
0.0
 10
162.642273742946
 20
95.02053388090351
 30
0.0
 10
162.3184585097942
 20
95.02053388090351
 30
0.0
 10
161.6481779845524
 20
95.02053388090351
 30
0.0
 10
161.2998388896231
 20
95.02053388090351
 30
0.0
 10
160.9436690861621
 20
95.02053388090351
 30
0.0
  0
LINE
  5
E6
330
1F
100
AcDbEntity
  8
0
  6
HIDDEN
 62
     7
370
     0
100
AcDbLine
 10
105.5007597536
 20
104.9705338809
 30
0.0
 11
105.5007597536
 21
117.4705338809
 31
0.0
  0
LINE
  5
E7
330
1F
100
AcDbEntity
  8
0
  6
HIDDEN
 62
     7
370
     0
100
AcDbLine
 10
188.5507597536
 20
109.5251356976
 30
0.0
 11
188.5507597536
 21
112.9159320642
 31
0.0
  0
LINE
  5
E8
330
1F
100
AcDbEntity
  8
0
  6
HIDDEN
 62
     7
370
     0
100
AcDbLine
 10
189.2517216479
 20
109.5251356976
 30
0.0
 11
189.2517216479
 21
112.9159320642
 31
0.0
  0
SPLINE
  5
E9
330
1F
100
AcDbEntity
  8
0
  6
HIDDEN
 62
     7
370
     0
100
AcDbSpline
210
0.0
220
0.0
230
1.0
 70
     8
 71
     3
 72
     9
 73
     5
 74
     0
 42
0.000000001
 43
0.00000001
 40
0.0
 40
0.0
 40
0.0
 40
0.0
 40
0.5084968925805682
 40
1.0
 40
1.0
 40
1.0
 40
1.0
 10
166.5257910807524
 20
89.12575444891439
 30
0.0
 10
166.4099623269956
 20
89.28540485811978
 30
0.0
 10
166.1821757752058
 20
89.59937021667919
 30
0.0
 10
165.9582418151796
 20
89.91157482954524
 30
0.0
 10
165.8481775779699
 20
90.0650243669196
 30
0.0
  0
SPLINE
  5
EA
330
1F
100
AcDbEntity
  8
0
  6
HIDDEN
 62
     7
370
     0
100
AcDbSpline
210
0.0
220
0.0
230
1.0
 70
     8
 71
     3
 72
     9
 73
     5
 74
     0
 42
0.000000001
 43
0.00000001
 40
0.0
 40
0.0
 40
0.0
 40
0.0
 40
0.4915031079811942
 40
1.0
 40
1.0
 40
1.0
 40
1.0
 10
165.8481775779699
 20
132.3760433948874
 30
0.0
 10
165.9582418153088
 20
132.5294929324453
 30
0.0
 10
166.182175775342
 20
132.8416975453279
 30
0.0
 10
166.4099623271264
 20
133.1556629038716
 30
0.0
 10
166.5257910807524
 20
133.3153133128926
 30
0.0
  0
LINE
  5
EB
330
1F
100
AcDbEntity
  8
0
  6
HIDDEN
 62
     7
370
     0
100
AcDbLine
 10
108.3234838872
 20
106.1205338809
 30
0.0
 11
108.3234838872
 21
116.3205338809
 31
0.0
  0
LINE
  5
EC
330
1F
100
AcDbEntity
  8
0
  6
HIDDEN
 62
     7
370
     0
100
AcDbLine
 10
188.5507597536
 20
112.9159320642
 30
0.0
 11
189.2517216479
 21
112.9159320642
 31
0.0
  0
LINE
  5
ED
330
1F
100
AcDbEntity
  8
0
  6
HIDDEN
 62
     7
370
     0
100
AcDbLine
 10
188.5507597536
 20
116.1205338809
 30
0.0
 11
188.5507597536
 21
112.9159320642
 31
0.0
  0
SPLINE
  5
EE
330
1F
100
AcDbEntity
  8
0
  6
HIDDEN
 62
     7
370
     0
100
AcDbSpline
210
0.0
220
0.0
230
1.0
 70
     8
 71
     3
 72
    10
 73
     6
 74
     0
 42
0.000000001
 43
0.00000001
 40
0.0
 40
0.0
 40
0.0
 40
0.0
 40
0.5
 40
0.5
 40
1.0
 40
1.0
 40
1.0
 40
1.0
 10
189.2517216479168
 20
112.9159320642221
 30
0.0
 10
189.4123761649292
 20
113.2715420572702
 30
0.0
 10
189.6099784904083
 20
113.6066442512789
 30
0.0
 10
190.0520926860505
 20
114.2508116006914
 30
0.0
 10
190.2963685296991
 20
114.5586774806713
 30
0.0
 10
190.5507597535934
 20
114.8519075879185
 30
0.0
  0
SPLINE
  5
EF
330
1F
100
AcDbEntity
  8
0
  6
HIDDEN
 62
     7
370
     0
100
AcDbSpline
210
0.0
220
0.0
230
1.0
 70
     8
 71
     3
 72
     8
 73
     4
 74
     0
 42
0.000000001
 43
0.00000001
 40
0.0
 40
0.0
 40
0.0
 40
0.0
 40
1.0
 40
1.0
 40
1.0
 40
1.0
 10
190.5507597535934
 20
115.3273226508235
 30
0.0
 10
190.618616473375
 20
115.5930558243404
 30
0.0
 10
190.6907077320249
 20
115.857370298286
 30
0.0
 10
190.7662341746704
 20
116.1205338809035
 30
0.0
  0
SPLINE
  5
F0
330
1F
100
AcDbEntity
  8
0
  6
HIDDEN
 62
     7
370
     0
100
AcDbSpline
210
0.0
220
0.0
230
1.0
 70
     8
 71
     3
 72
     9
 73
     5
 74
     0
 42
0.000000001
 43
0.00000001
 40
0.0
 40
0.0
 40
0.0
 40
0.0
 40
0.2733875688636292
 40
0.9999999999999999
 40
0.9999999999999999
 40
0.9999999999999999
 40
0.9999999999999999
 10
190.8702861477396
 20
118.3180554261968
 30
0.0
 10
190.8641652710458
 20
118.318737224076
 30
0.0
 10
190.8417762622138
 20
118.3212311117172
 30
0.0
 10
190.81517172093
 20
118.309187293822
 30
0.0
 10
190.7958405305085
 20
118.300436106021
 30
0.0
  0
LINE
  5
F1
330
1F
100
AcDbEntity
  8
0
  6
HIDDEN
 62
     7
370
     0
100
AcDbLine
 10
188.5507597536
 20
118.300436106
 30
0.0
 11
190.7958405305
 21
118.300436106
 31
0.0
  0
LINE
  5
F2
330
1F
100
AcDbEntity
  8
0
  6
HIDDEN
 62
     7
370
     0
100
AcDbLine
 10
188.5507597536
 20
118.3205338809
 30
0.0
 11
188.5507597536
 21
116.1205338809
 31
0.0
  0
SPLINE
  5
F3
330
1F
100
AcDbEntity
  8
0
  6
HIDDEN
 62
     7
370
     0
100
AcDbSpline
210
0.0
220
0.0
230
1.0
 70
     8
 71
     3
 72
     8
 73
     4
 74
     0
 42
0.000000001
 43
0.00000001
 40
0.0
 40
0.0
 40
0.0
 40
0.0
 40
1.0
 40
1.0
 40
1.0
 40
1.0
 10
190.7662341746704
 20
116.1205338809035
 30
0.0
 10
190.8173785490856
 20
116.2987408284358
 30
0.0
 10
190.8621077072138
 20
116.4759520833553
 30
0.0
 10
190.9007597535934
 20
116.6519430372817
 30
0.0
  0
LINE
  5
F4
330
1F
100
AcDbEntity
  8
0
  6
HIDDEN
 62
     7
370
     0
100
AcDbLine
 10
189.2517216479
 20
109.5251356976
 30
0.0
 11
188.5507597536
 21
109.5251356976
 31
0.0
  0
LINE
  5
F5
330
1F
100
AcDbEntity
  8
0
  6
HIDDEN
 62
     7
370
     0
100
AcDbLine
 10
188.5507597536
 20
109.5251356976
 30
0.0
 11
188.5507597536
 21
106.3205338809
 31
0.0
  0
SPLINE
  5
F6
330
1F
100
AcDbEntity
  8
0
  6
HIDDEN
 62
     7
370
     0
100
AcDbSpline
210
0.0
220
0.0
230
1.0
 70
     8
 71
     3
 72
    10
 73
     6
 74
     0
 42
0.000000001
 43
0.00000001
 40
0.0
 40
0.0
 40
0.0
 40
0.0
 40
0.5
 40
0.5
 40
1.0
 40
1.0
 40
1.0
 40
1.0
 10
190.5507597535931
 20
107.5891601738882
 30
0.0
 10
190.2944588884624
 20
107.8845914746199
 30
0.0
 10
190.0500324823273
 20
108.1930700106006
 30
0.0
 10
189.6094521668424
 20
108.8353793780288
 30
0.0
 10
189.4122674902825
 20
109.1697662566919
 30
0.0
 10
189.2517216479166
 20
109.5251356975848
 30
0.0
  0
SPLINE
  5
F7
330
1F
100
AcDbEntity
  8
0
  6
HIDDEN
 62
     7
370
     0
100
AcDbSpline
210
0.0
220
0.0
230
1.0
 70
     8
 71
     3
 72
     8
 73
     4
 74
     0
 42
0.000000001
 43
0.00000001
 40
0.0
 40
0.0
 40
0.0
 40
0.0
 40
1.0
 40
1.0
 40
1.0
 40
1.0
 10
190.7662341746704
 20
106.3205338809035
 30
0.0
 10
190.6906991655875
 20
106.5837273123301
 30
0.0
 10
190.6186082247877
 20
106.8480442396953
 30
0.0
 10
190.5507597535934
 20
107.1137451109835
 30
0.0
  0
SPLINE
  5
F8
330
1F
100
AcDbEntity
  8
0
  6
HIDDEN
 62
     7
370
     0
100
AcDbSpline
210
0.0
220
0.0
230
1.0
 70
     8
 71
     3
 72
     9
 73
     5
 74
     0
 42
0.000000001
 43
0.00000001
 40
0.0
 40
0.0
 40
0.0
 40
0.0
 40
0.7194823742985307
 40
0.9999999999999999
 40
0.9999999999999999
 40
0.9999999999999999
 40
0.9999999999999999
 10
190.7958405305085
 20
104.140631655786
 30
0.0
 10
190.8149839847495
 20
104.1319573976525
 30
0.0
 10
190.8415912442527
 20
104.1199011493782
 30
0.0
 10
190.863984495528
 20
104.1223811840383
 30
0.0
 10
190.8702661972075
 20
104.1230768774728
 30
0.0
  0
LINE
  5
F9
330
1F
100
AcDbEntity
  8
0
  6
HIDDEN
 62
     7
370
     0
100
AcDbLine
 10
188.5507597536
 20
104.1406316558
 30
0.0
 11
190.7958405305
 21
104.1406316558
 31
0.0
  0
LINE
  5
FA
330
1F
100
AcDbEntity
  8
0
  6
HIDDEN
 62
     7
370
     0
100
AcDbLine
 10
188.5507597536
 20
106.3205338809
 30
0.0
 11
188.5507597536
 21
104.1205338809
 31
0.0
  0
SPLINE
  5
FB
330
1F
100
AcDbEntity
  8
0
  6
HIDDEN
 62
     7
370
     0
100
AcDbSpline
210
0.0
220
0.0
230
1.0
 70
     8
 71
     3
 72
     8
 73
     4
 74
     0
 42
0.000000001
 43
0.00000001
 40
0.0
 40
0.0
 40
0.0
 40
0.0
 40
1.0
 40
1.0
 40
1.0
 40
1.0
 10
190.9007597535934
 20
105.7891247245253
 30
0.0
 10
190.8621077072138
 20
105.9651156784517
 30
0.0
 10
190.8173785490856
 20
106.1423269333712
 30
0.0
 10
190.7662341746704
 20
106.3205338809035
 30
0.0
  0
LINE
  5
FC
330
1F
100
AcDbEntity
  8
0
  6
HIDDEN
 62
     7
370
     0
100
AcDbLine
 10
188.0507597536
 20
105.7205338809
 30
0.0
 11
188.0507597536
 21
116.7205338809
 31
0.0
  0
LINE
  5
FD
330
1F
100
AcDbEntity
  8
0
  6
HIDDEN
 62
     7
370
     0
100
AcDbLine
 10
178.9007597536
 20
106.1205338809
 30
0.0
 11
178.9007597536
 21
116.3205338809
 31
0.0
  0
LINE
  5
FE
330
1F
100
AcDbEntity
  8
0
  6
HIDDEN
 62
     7
370
     0
100
AcDbLine
 10
180.9007597536
 20
105.7205338809
 30
0.0
 11
180.9007597536
 21
116.7205338809
 31
0.0
  0
LINE
  5
FF
330
1F
100
AcDbEntity
  8
0
  6
HIDDEN
 62
     7
370
     0
100
AcDbLine
 10
134.5007597536
 20
106.1205338809
 30
0.0
 11
134.5007597536
 21
116.3205338809
 31
0.0
  0
LINE
  5
100
330
1F
100
AcDbEntity
  8
0
  6
HIDDEN
 62
     7
370
     0
100
AcDbLine
 10
135.0114912798
 20
106.9705338809
 30
0.0
 11
135.0114912798
 21
115.4705338809
 31
0.0
  0
LINE
  5
101
330
1F
100
AcDbEntity
  8
0
  6
HIDDEN
 62
     7
370
     0
100
AcDbLine
 10
190.7958405305
 20
103.1955338809
 30
0.0
 11
190.7958405305
 21
104.1406316558
 31
0.0
  0
LINE
  5
102
330
1F
100
AcDbEntity
  8
0
  6
HIDDEN
 62
     7
370
     0
100
AcDbLine
 10
190.7958405305
 20
118.300436106
 30
0.0
 11
190.7958405305
 21
119.2455338809
 31
0.0
  0
LINE
  5
103
330
1F
100
AcDbEntity
  8
0
  6
HIDDEN
 62
     7
370
     0
100
AcDbLine
 10
188.5507597536
 20
119.2455338809
 30
0.0
 11
188.5507597536
 21
118.300436106
 31
0.0
  0
LINE
  5
104
330
1F
100
AcDbEntity
  8
0
  6
HIDDEN
 62
     7
370
     0
100
AcDbLine
 10
188.5507597536
 20
104.1406316558
 30
0.0
 11
188.5507597536
 21
103.1955338809
 31
0.0
  0
ARC
  5
105
330
1F
100
AcDbEntity
  8
0
  6
HIDDEN
 62
     7
370
     0
100
AcDbCircle
 10
101.3007597536
 20
104.1705338809
 30
0.0
 40
0.8000000000000114
100
AcDbArc
 50
90.0
 51
180.0
  0
ARC
  5
106
330
1F
100
AcDbEntity
  8
0
  6
HIDDEN
 62
     7
370
     0
100
AcDbCircle
 10
101.3007597536
 20
118.2705338809
 30
0.0
 40
0.8000000000000114
100
AcDbArc
 50
180.0
 51
270.0
  0
LINE
  5
107
330
1F
100
AcDbEntity
  8
0
  6
HIDDEN
 62
     7
370
     0
100
AcDbLine
 10
167.9007597536
 20
129.0205338809
 30
0.0
 11
167.9007597536
 21
133.2205150852
 31
0.0
  0
LINE
  5
108
330
1F
100
AcDbEntity
  8
0
  6
HIDDEN
 62
     7
370
     0
100
AcDbLine
 10
167.9007597536
 20
89.220580163
 30
0.0
 11
167.9007597536
 21
93.4205338809
 31
0.0
  0
ARC
  5
109
330
1F
100
AcDbEntity
  8
0
  6
HIDDEN
 62
     7
370
     0
100
AcDbCircle
 10
166.3007597536
 20
93.4205338809
 30
0.0
 40
1.600000000000009
100
AcDbArc
 50
0.0
 51
90.0
  0
ARC
  5
10A
330
1F
100
AcDbEntity
  8
0
  6
HIDDEN
 62
     7
370
     0
100
AcDbCircle
 10
166.3007597536
 20
129.0205338809
 30
0.0
 40
1.600000000000023
100
AcDbArc
 50
270.0
 51
0.0
  0
ARC
  5
10B
330
1F
100
AcDbEntity
  8
0
  6
HIDDEN
 62
     7
370
     0
100
AcDbCircle
 10
106.5797347247
 20
105.0955338809
 30
0.0
 40
0.3999999999999915
100
AcDbArc
 50
255.0
 51
270.0
  0
ARC
  5
10C
330
1F
100
AcDbEntity
  8
0
  6
HIDDEN
 62
     7
370
     0
100
AcDbCircle
 10
106.5797347247
 20
117.3455338809
 30
0.0
 40
0.4000000000000057
100
AcDbArc
 50
90.0
 51
105.0
  0
LINE
  5
10D
330
1F
100
AcDbEntity
  8
0
  6
HIDDEN
 62
     7
370
     0
100
AcDbLine
 10
106.5797347247
 20
104.6955338809
 30
0.0
 11
107.2698196459
 21
104.6955338809
 31
0.0
  0
LINE
  5
10E
330
1F
100
AcDbEntity
  8
0
  6
HIDDEN
 62
     7
370
     0
100
AcDbLine
 10
107.2698196459
 20
117.7455338809
 30
0.0
 11
106.5797347247
 21
117.7455338809
 31
0.0
  0
ARC
  5
10F
330
1F
100
AcDbEntity
  8
0
  6
HIDDEN
 62
     7
370
     0
100
AcDbCircle
 10
107.2698196459
 20
105.0955338809
 30
0.0
 40
0.4000000000000057
100
AcDbArc
 50
270.0
 51
330.0
  0
ARC
  5
110
330
1F
100
AcDbEntity
  8
0
  6
HIDDEN
 62
     7
370
     0
100
AcDbCircle
 10
107.2698196459
 20
117.3455338809
 30
0.0
 40
0.4000000000000199
100
AcDbArc
 50
30.0
 51
90.0
  0
LINE
  5
111
330
1F
100
AcDbEntity
  8
0
  6
HIDDEN
 62
     7
370
     0
100
AcDbLine
 10
106.4762071067
 20
117.7319042114
 30
0.0
 11
105.5007597536
 21
117.4705338809
 31
0.0
  0
LINE
  5
112
330
1F
100
AcDbEntity
  8
0
  6
HIDDEN
 62
     7
370
     0
100
AcDbLine
 10
105.5007597536
 20
104.9705338809
 30
0.0
 11
106.4762071067
 21
104.7091635504
 31
0.0
  0
LINE
  5
113
330
1F
100
AcDbEntity
  8
0
  6
HIDDEN
 62
     7
370
     0
100
AcDbLine
 10
168.9007690952
 20
88.2205277642
 30
0.0
 11
167.9007686248
 21
89.2205277931
 31
0.0
  0
LINE
  5
114
330
1F
100
AcDbEntity
  8
0
  6
HIDDEN
 62
     7
370
     0
100
AcDbLine
 10
167.9007686251
 20
133.220539969
 30
0.0
 11
168.9007690954
 21
134.2205399979
 31
0.0
  0
LINE
  5
115
330
1F
100
AcDbEntity
  8
0
  6
HIDDEN
 62
     7
370
     0
100
AcDbLine
 10
107.6162298074
 20
104.8955338809
 30
0.0
 11
108.3234838872
 21
106.1205338809
 31
0.0
  0
LINE
  5
116
330
1F
100
AcDbEntity
  8
0
  6
HIDDEN
 62
     7
370
     0
100
AcDbLine
 10
108.3234838872
 20
116.3205338809
 30
0.0
 11
107.6162298074
 21
117.5455338809
 31
0.0
  0
LINE
  5
117
330
1F
100
AcDbEntity
  8
0
  6
HIDDEN
 62
     7
370
     0
100
AcDbLine
 10
190.9007597536
 20
118.3205338809
 30
0.0
 11
188.5507597536
 21
118.3205338809
 31
0.0
  0
LINE
  5
118
330
1F
100
AcDbEntity
  8
0
  6
HIDDEN
 62
     7
370
     0
100
AcDbLine
 10
188.5507597536
 20
104.1205338809
 30
0.0
 11
190.9007597536
 21
104.1205338809
 31
0.0
  0
LINE
  5
119
330
1F
100
AcDbEntity
  8
0
  6
HIDDEN
 62
     7
370
     0
100
AcDbLine
 10
101.3007597536
 20
104.9705338809
 30
0.0
 11
105.5007597536
 21
104.9705338809
 31
0.0
  0
LINE
  5
11A
330
1F
100
AcDbEntity
  8
0
  6
HIDDEN
 62
     7
370
     0
100
AcDbLine
 10
105.5007597536
 20
117.4705338809
 30
0.0
 11
101.3007597536
 21
117.4705338809
 31
0.0
  0
LINE
  5
11B
330
1F
100
AcDbEntity
  8
0
  6
HIDDEN
 62
     7
370
     0
100
AcDbLine
 10
188.5507597536
 20
117.0092090155
 30
0.0
 11
188.0507597536
 21
116.7205338809
 31
0.0
  0
LINE
  5
11C
330
1F
100
AcDbEntity
  8
0
  6
HIDDEN
 62
     7
370
     0
100
AcDbLine
 10
188.0507597536
 20
105.7205338809
 30
0.0
 11
188.5507597536
 21
105.4318587463
 31
0.0
  0
ARC
  5
11D
330
1F
100
AcDbEntity
  8
0
  6
HIDDEN
 62
     7
370
     0
100
AcDbCircle
 10
179.5007597536
 20
106.1205338809
 30
0.0
 40
0.6000000000000227
100
AcDbArc
 50
180.0
 51
270.0
  0
ARC
  5
11E
330
1F
100
AcDbEntity
  8
0
  6
HIDDEN
 62
     7
370
     0
100
AcDbCircle
 10
179.5007597536
 20
116.3205338809
 30
0.0
 40
0.6000000000000085
100
AcDbArc
 50
90.0
 51
180.0
  0
LINE
  5
11F
330
1F
100
AcDbEntity
  8
0
  6
HIDDEN
 62
     7
370
     0
100
AcDbLine
 10
179.5007597536
 20
105.5205338809
 30
0.0
 11
180.0753580935
 21
105.5205338809
 31
0.0
  0
LINE
  5
120
330
1F
100
AcDbEntity
  8
0
  6
HIDDEN
 62
     7
370
     0
100
AcDbLine
 10
180.0753580935
 20
116.9205338809
 30
0.0
 11
179.5007597536
 21
116.9205338809
 31
0.0
  0
ARC
  5
121
330
1F
100
AcDbEntity
  8
0
  6
HIDDEN
 62
     7
370
     0
100
AcDbCircle
 10
180.0753580935
 20
106.1205338809
 30
0.0
 40
0.6000000000000145
100
AcDbArc
 50
270.0
 51
285.0
  0
ARC
  5
122
330
1F
100
AcDbEntity
  8
0
  6
HIDDEN
 62
     7
370
     0
100
AcDbCircle
 10
180.0753580935
 20
116.3205338809
 30
0.0
 40
0.6000000000000145
100
AcDbArc
 50
75.0
 51
90.0
  0
LINE
  5
123
330
1F
100
AcDbEntity
  8
0
  6
HIDDEN
 62
     7
370
     0
100
AcDbLine
 10
180.2306495206
 20
105.5409783851
 30
0.0
 11
180.9007597536
 21
105.7205338809
 31
0.0
  0
LINE
  5
124
330
1F
100
AcDbEntity
  8
0
  6
HIDDEN
 62
     7
370
     0
100
AcDbLine
 10
180.9007597536
 20
116.7205338809
 30
0.0
 11
180.2306495206
 21
116.9000893767
 31
0.0
  0
LINE
  5
125
330
1F
100
AcDbEntity
  8
0
  6
HIDDEN
 62
     7
370
     0
100
AcDbLine
 10
180.9007597536
 20
105.7205338809
 30
0.0
 11
188.0507597536
 21
105.7205338809
 31
0.0
  0
LINE
  5
126
330
1F
100
AcDbEntity
  8
0
  6
HIDDEN
 62
     7
370
     0
100
AcDbLine
 10
188.0507597536
 20
116.7205338809
 30
0.0
 11
180.9007597536
 21
116.7205338809
 31
0.0
  0
LINE
  5
127
330
1F
100
AcDbEntity
  8
0
  6
HIDDEN
 62
     7
370
     0
100
AcDbLine
 10
134.5007597536
 20
106.1205338809
 30
0.0
 11
135.0114912798
 21
106.9705338809
 31
0.0
  0
LINE
  5
128
330
1F
100
AcDbEntity
  8
0
  6
HIDDEN
 62
     7
370
     0
100
AcDbLine
 10
135.0114912798
 20
115.4705338809
 30
0.0
 11
134.5007597536
 21
116.3205338809
 31
0.0
  0
LINE
  5
129
330
1F
100
AcDbEntity
  8
0
  6
HIDDEN
 62
     7
370
     0
100
AcDbLine
 10
108.3234838872
 20
106.1205338809
 30
0.0
 11
134.5007597536
 21
106.1205338809
 31
0.0
  0
LINE
  5
12A
330
1F
100
AcDbEntity
  8
0
  6
HIDDEN
 62
     7
370
     0
100
AcDbLine
 10
134.5007597536
 20
116.3205338809
 30
0.0
 11
108.3234838872
 21
116.3205338809
 31
0.0
  0
LINE
  5
12B
330
1F
100
AcDbEntity
  8
0
  6
HIDDEN
 62
     7
370
     0
100
AcDbLine
 10
135.0114912798
 20
106.9705338809
 30
0.0
 11
178.9007597536
 21
106.9705338809
 31
0.0
  0
LINE
  5
12C
330
1F
100
AcDbEntity
  8
0
  6
HIDDEN
 62
     7
370
     0
100
AcDbLine
 10
178.9007597536
 20
115.4705338809
 30
0.0
 11
135.0114912798
 21
115.4705338809
 31
0.0
  0
LINE
  5
12D
330
1F
100
AcDbEntity
  8
0
  6
HIDDEN
 62
     7
370
     0
100
AcDbLine
 10
190.7958405305
 20
103.1955338809
 30
0.0
 11
190.9007597536
 21
102.9705338809
 31
0.0
  0
LINE
  5
12E
330
1F
100
AcDbEntity
  8
0
  6
HIDDEN
 62
     7
370
     0
100
AcDbLine
 10
190.9007597536
 20
119.4705338809
 30
0.0
 11
190.7958405305
 21
119.2455338809
 31
0.0
  0
LINE
  5
12F
330
1F
100
AcDbEntity
  8
0
  6
HIDDEN
 62
     7
370
     0
100
AcDbLine
 10
190.7958405305
 20
119.2455338809
 30
0.0
 11
188.5507597536
 21
119.2455338809
 31
0.0
  0
LINE
  5
130
330
1F
100
AcDbEntity
  8
0
  6
HIDDEN
 62
     7
370
     0
100
AcDbLine
 10
188.5507597536
 20
103.1955338809
 30
0.0
 11
190.7958405305
 21
103.1955338809
 31
0.0
  0
DIMENSION
  5
131
330
1F
100
AcDbEntity
  8
VERMASSUNG
100
AcDbDimension
  2
_D
 10
96.0115365212
 20
88.2205338809
 30
0.0
 11
96.0115365212
 21
111.2205338809
 31
0.0
 70
   160
  1
MAS BT 30 %%c<>
 71
     2
 42
-1.0
  3
SLDDIMSTYLE0
100
AcDbAlignedDimension
 13
168.9007583115
 23
134.2205338809
 33
0.0
 14
168.9007583427
 24
88.2205338809
 34
0.0
 50
90.0
100
AcDbRotatedDimension
  0
DIMENSION
  5
13E
330
1F
100
AcDbEntity
  8
VERMASSUNG
100
AcDbDimension
  2
_D_1
 10
190.9007597536
 20
144.1212956694
 30
0.0
 11
169.9007597536
 21
144.1212956694
 31
0.0
 70
   160
  1
<>
 71
     2
 42
-1.0
  3
SLDDIMSTYLE0
100
AcDbAlignedDimension
 13
148.9007597536
 23
127.0955338809
 33
0.0
 14
190.9007597536
 24
121.0205338809
 34
0.0
100
AcDbRotatedDimension
  0
DIMENSION
  5
148
330
1F
100
AcDbEntity
  8
VERMASSUNG
100
AcDbDimension
  2
_D_2
 10
190.9007597536
 20
138.1212956694
 30
0.0
 11
180.9007597536
 21
138.1212956694
 31
0.0
 70
   160
  1
<>
 71
     2
 42
-1.0
  3
SLDDIMSTYLE0
100
AcDbAlignedDimension
 13
170.9007597536
 23
134.2205338809
 33
0.0
 14
190.9007597536
 24
121.0205338809
 34
0.0
100
AcDbRotatedDimension
  0
DIMENSION
  5
152
330
1F
100
AcDbEntity
  8
VERMASSUNG
100
AcDbDimension
  2
_D_3
 10
190.9007597536
 20
150.1212956694
 30
0.0
 11
145.7007597536
 21
150.1212956694
 31
0.0
 70
   160
  1
<>
 71
     2
 42
-1.0
  3
SLDDIMSTYLE0
100
AcDbAlignedDimension
 13
100.5007597536
 23
119.6048283461
 33
0.0
 14
190.9007597536
 24
121.0205338809
 34
0.0
100
AcDbRotatedDimension
  0
DIMENSION
  5
15C
330
1F
100
AcDbEntity
  8
VERMASSUNG
100
AcDbDimension
  2
_D_4
 10
199.0035364557
 20
101.2205338809
 30
0.0
 11
199.0035364557
 21
111.2205338809
 31
0.0
 70
   160
  1
MBM %%c<>
 71
     2
 42
-1.0
  3
SLDDIMSTYLE0
100
AcDbAlignedDimension
 13
190.7007597536
 23
121.2205338809
 33
0.0
 14
190.7007597536
 24
101.2205338809
 34
0.0
 50
90.0
100
AcDbRotatedDimension
  0
LINE
  5
168
330
1F
100
AcDbEntity
  8
VERMASSUNG
  6
CENTERX2
 62
     7
370
     0
100
AcDbLine
 10
98.5007597536
 20
111.2205338809
 30
0.0
 11
192.9007597536
 21
111.2205338809
 31
0.0
  0
LINE
  5
169
330
1F
100
AcDbEntity
  8
0
  6
Continuous
 62
     7
370
    15
100
AcDbLine
 10
271.6626712987
 20
36.2218562254
 30
0.0
 11
271.5565880471
 21
36.2831166896
 31
0.0
  0
LINE
  5
16A
330
1F
100
AcDbEntity
  8
0
  6
Continuous
 62
     7
370
    15
100
AcDbLine
 10
270.0007003556
 20
36.2831166896
 30
0.0
 11
269.894617104
 21
36.2218562254
 31
0.0
  0
LINE
  5
16B
330
1F
100
AcDbEntity
  8
0
  6
Continuous
 62
     7
370
    15
100
AcDbLine
 10
272.0286442013
 20
35.5279623969
 30
0.0
 11
272.0286442013
 21
35.7116840795
 31
0.0
  0
LINE
  5
16C
330
1F
100
AcDbEntity
  8
0
  6
Continuous
 62
     7
370
    15
100
AcDbLine
 10
269.5286442013
 20
35.7116840795
 30
0.0
 11
269.5286442013
 21
35.5279623969
 31
0.0
  0
LINE
  5
16D
330
1F
100
AcDbEntity
  8
0
  6
Continuous
 62
     7
370
    15
100
AcDbLine
 10
258.4265019194
 20
25.6035045966
 30
0.0
 11
259.9732980032
 21
24.7105582243
 31
0.0
  0
LINE
  5
16E
330
1F
100
AcDbEntity
  8
0
  6
Continuous
 62
     7
370
    15
100
AcDbLine
 10
271.4723634285
 20
44.629682059
 30
0.0
 11
269.9255673447
 21
45.5226284313
 31
0.0
  0
LINE
  5
16F
330
1F
100
AcDbEntity
  8
0
  6
Continuous
 62
     7
370
    15
100
AcDbLine
 10
272.7237624733
 20
26.5465277058
 30
0.0
 11
272.7944616589
 21
26.5873547459
 31
0.0
  0
LINE
  5
170
330
1F
100
AcDbEntity
  8
0
  6
Continuous
 62
     7
370
    15
100
AcDbLine
 10
276.2587217555
 20
32.5882794565
 30
0.0
 11
276.2587217555
 21
32.6699202677
 31
0.0
  0
LINE
  5
171
330
1F
100
AcDbEntity
  8
0
  6
Continuous
 62
     7
370
    15
100
AcDbLine
 10
264.2836940561
 20
29.7275697459
 30
0.0
 11
270.223391018
 21
26.2986556762
 31
0.0
  0
LINE
  5
172
330
1F
100
AcDbEntity
  8
0
  6
Continuous
 62
     7
370
    15
100
AcDbLine
 10
275.2229846812
 20
34.9591443
 30
0.0
 11
269.2832877192
 21
38.3880583697
 31
0.0
  0
LINE
  5
173
330
1F
100
AcDbEntity
  8
0
  6
Continuous
 62
     7
370
    15
100
AcDbLine
 10
267.0794625504
 20
47.1656497564
 30
0.0
 11
264.7548490072
 21
48.5076205902
 31
0.0
  0
SPLINE
  5
174
330
1F
100
AcDbEntity
  8
0
  6
Continuous
 62
     7
370
    15
100
AcDbSpline
210
0.0
220
0.0
230
1.0
 70
     8
 71
     3
 72
    32
 73
    28
 74
     0
 42
0.000000001
 43
0.00000001
 40
0.0
 40
0.0
 40
0.0
 40
0.0
 40
0.0132970383589679
 40
0.0541961783547117
 40
0.0951203563523325
 40
0.1362333393770206
 40
0.1776535739262079
 40
0.2194283487219635
 40
0.2615373193166669
 40
0.3039146992356083
 40
0.3464776482147819
 40
0.3891488406214738
 40
0.4318680611684706
 40
0.4745882054991394
 40
0.5172861102423079
 40
0.5599527186028107
 40
0.6025859377209772
 40
0.6451879472234266
 40
0.6877634181997667
 40
0.7303184084986811
 40
0.7728597158645827
 40
0.8153945225429232
 40
0.8579302142853821
 40
0.9004724017612082
 40
0.943028054846386
 40
0.9856047544744171
 40
1.0
 40
1.0
 40
1.0
 40
1.0
 10
264.7067524125589
 20
48.52523734709511
 30
0.0
 10
264.6543872462661
 20
48.55734611230562
 30
0.0
 10
264.4409568706168
 20
48.68821528174922
 30
0.0
 10
264.0280167941015
 20
48.84913082571866
 30
0.0
 10
263.4732889339971
 20
49.00501689247304
 30
0.0
 10
262.8872422647084
 20
49.08601786637838
 30
0.0
 10
262.2762964123635
 20
49.09764141122362
 30
0.0
 10
261.64280573654
 20
49.03778905634523
 30
0.0
 10
260.9909412181229
 20
48.90678697651026
 30
0.0
 10
260.3251356272277
 20
48.70503826798918
 30
0.0
 10
259.6502772456512
 20
48.4338676644505
 30
0.0
 10
258.9713363801363
 20
48.09529487144708
 30
0.0
 10
258.2932351034639
 20
47.69198027901759
 30
0.0
 10
257.6207057851994
 20
47.22706355297363
 30
0.0
 10
256.9582625841665
 20
46.70405149346305
 30
0.0
 10
256.3101924418703
 20
46.12671912765514
 30
0.0
 10
255.6806218648129
 20
45.4991037199597
 30
0.0
 10
255.0735417150152
 20
44.82550154529266
 30
0.0
 10
254.4928045725722
 20
44.11045363513196
 30
0.0
 10
253.942106159046
 20
43.3587279493812
 30
0.0
 10
253.4249893688797
 20
42.57529922099275
 30
0.0
 10
252.9447426585517
 20
41.76531651532886
 30
0.0
 10
252.5046904842731
 20
40.93410847534403
 30
0.0
 10
252.1070316203507
 20
40.08705701143334
 30
0.0
 10
251.7570574687587
 20
39.22987831360405
 30
0.0
 10
251.5157149909537
 20
38.55785215153323
 30
0.0
 10
251.4012134496524
 20
38.17423776775636
 30
0.0
 10
251.3722820555137
 20
38.07730895083211
 30
0.0
  0
LINE
  5
175
330
1F
100
AcDbEntity
  8
0
  6
Continuous
 62
     7
370
    15
100
AcDbLine
 10
258.0103487613
 20
47.485533887
 30
0.0
 11
242.9627500005
 21
52.9080920142
 31
0.0
  0
LINE
  5
176
330
1F
100
AcDbEntity
  8
0
  6
Continuous
 62
     7
370
    15
100
AcDbLine
 10
238.5472496052
 20
45.2593922361
 30
0.0
 11
252.9241979764
 21
33.119615884
 31
0.0
  0
LINE
  5
177
330
1F
100
AcDbEntity
  8
0
  6
Continuous
 62
     7
370
    15
100
AcDbLine
 10
253.2557835819
 20
28.5884967554
 30
0.0
 11
255.5803971251
 21
27.2465259216
 31
0.0
  0
SPLINE
  5
178
330
1F
100
AcDbEntity
  8
0
  6
Continuous
 62
     7
370
    15
100
AcDbSpline
210
0.0
220
0.0
230
1.0
 70
     8
 71
     3
 72
    13
 73
     9
 74
     0
 42
0.000000001
 43
0.00000001
 40
0.0
 40
0.0
 40
0.0
 40
0.0
 40
0.071957699616265
 40
0.2753385738774258
 40
0.477450604287435
 40
0.6777181190916102
 40
0.876244669045449
 40
1.0
 40
1.0
 40
1.0
 40
1.0
 10
251.3524938912448
 20
30.78679138380591
 30
0.0
 10
251.3835151554423
 20
30.71728760091506
 30
0.0
 10
251.5022147621499
 20
30.45133868144842
 30
0.0
 10
251.7480009566968
 20
30.02705075287643
 30
0.0
 10
252.1068644485287
 20
29.53825864081261
 30
0.0
 10
252.5161693243809
 20
29.11654723620931
 30
0.0
 10
252.9070599293497
 20
28.79503835534244
 30
0.0
 10
253.176719437543
 20
28.64319423755114
 30
0.0
 10
253.2802679261748
 20
28.58488652568786
 30
0.0
  0
SPLINE
  5
179
330
1F
100
AcDbEntity
  8
0
  6
Continuous
 62
     7
370
    15
100
AcDbSpline
210
0.0
220
0.0
230
1.0
 70
     8
 71
     3
 72
    30
 73
    26
 74
     0
 42
0.000000001
 43
0.00000001
 40
0.0
 40
0.0
 40
0.0
 40
0.0
 40
0.0383492694244036
 40
0.0821098866017378
 40
0.1265527794306499
 40
0.1717012629738681
 40
0.2173372831483246
 40
0.2632012944501687
 40
0.3090974290606078
 40
0.3549423347855666
 40
0.4007235989249179
 40
0.4464527262114061
 40
0.4921513119255132
 40
0.5378448965330583
 40
0.5835566550402703
 40
0.6293094893257899
 40
0.6751315360997471
 40
0.721048965206304
 40
0.7616338221080481
 40
0.7859648759052628
 40
0.8320943149442626
 40
0.8782403051039976
 40
0.9241128347326831
 40
0.9693857418601544
 40
0.9999999999999999
 40
0.9999999999999999
 40
0.9999999999999999
 40
0.9999999999999999
 10
242.9075885543091
 20
52.92282708043317
 30
0.0
 10
242.8052958834194
 20
52.95155649132661
 30
0.0
 10
242.5862763366846
 20
53.01306923214286
 30
0.0
 10
242.2193960245315
 20
53.02109085317542
 30
0.0
 10
241.8205109043885
 20
52.96583731756864
 30
0.0
 10
241.4059676671193
 20
52.83850180097414
 30
0.0
 10
240.9836407442802
 20
52.64281848443202
 30
0.0
 10
240.5612755148275
 20
52.38158804027718
 30
0.0
 10
240.1469379371108
 20
52.06017023704442
 30
0.0
 10
239.7479972035167
 20
51.68479740295626
 30
0.0
 10
239.3711609041815
 20
51.26239157752513
 30
0.0
 10
239.0226070719558
 20
50.80038346034805
 30
0.0
 10
238.7080629298715
 20
50.30671384583044
 30
0.0
 10
238.4327654083885
 20
49.78975540139141
 30
0.0
 10
238.2013927249634
 20
49.25820359182199
 30
0.0
 10
238.0179874703737
 20
48.72091389216254
 30
0.0
 10
237.8859207195119
 20
48.18673812013961
 30
0.0
 10
237.8109709673595
 20
47.68502345225264
 30
0.0
 10
237.790710616093
 20
47.28107557251279
 30
0.0
 10
237.8028566936108
 20
46.89282852622832
 30
0.0
 10
237.853021834569
 20
46.50600260582635
 30
0.0
 10
237.9702632554242
 20
46.08729088423412
 30
0.0
 10
238.1464483527065
 20
45.72061370370707
 30
0.0
 10
238.3467775582472
 20
45.43530615276412
 30
0.0
 10
238.5078820572526
 20
45.30266744617879
 30
0.0
 10
238.5728745326293
 20
45.24915858748794
 30
0.0
  0
LWPOLYLINE
  5
17A
330
1F
100
AcDbEntity
  8
0
  6
Continuous
 62
     7
370
    15
100
AcDbPolyline
 90
       23
 70
   128
 43
0.0
 10
271.7701105618
 20
35.5591226179
 10
271.595720731
 20
35.4090109494
 10
271.3551362191
 20
35.2933427499
 10
271.0678477524
 20
35.221488769
 10
270.757129734
 20
35.199270189
 10
270.4481546898
 20
35.2284870269
 10
270.1659539403
 20
35.3067723085
 10
269.9333897119
 20
35.4277838257
 10
269.7693029754
 20
35.5817179451
 10
269.6869870622
 20
35.7561038399
 10
269.6931107181
 20
35.9368138019
 10
269.7871778409
 20
36.1092077848
 10
269.9615676717
 20
36.2593194533
 10
270.2021521836
 20
36.3749876527
 10
270.4894406503
 20
36.4468416336
 10
270.8001586687
 20
36.4690602137
 10
271.1091337129
 20
36.4398433757
 10
271.3913344624
 20
36.3615580941
 10
271.6238986907
 20
36.2405465769
 10
271.7879854273
 20
36.0866124575
 10
271.8703013405
 20
35.9122265628
 10
271.8641776846
 20
35.7315166007
 10
271.7701105618
 20
35.5591226179
  0
LWPOLYLINE
  5
17B
330
1F
100
AcDbEntity
  8
0
  6
Continuous
 62
     7
370
    15
100
AcDbPolyline
 90
       14
 70
   128
 43
0.0
 10
271.90531052
 20
35.3991356893
 10
271.7174604508
 20
35.2352471458
 10
271.4599826751
 20
35.1066937502
 10
271.1519731417
 20
35.0230097197
 10
270.8162755087
 20
34.9904015159
 10
270.4777869338
 20
35.0112875403
 10
270.161611566
 20
35.0841187719
 10
269.8911986862
 20
35.2034936514
 10
269.6866035803
 20
35.3605586901
 10
269.5630001316
 20
35.5436650927
 10
269.5295554423
 20
35.7392326949
 10
269.5887499521
 20
35.9327571424
 10
269.736193475
 20
36.1098856121
 10
269.894617104
 20
36.2218562254
  0
ARC
  5
17C
330
1F
100
AcDbEntity
  8
0
  6
Continuous
 62
     7
370
    15
100
AcDbCircle
 10
271.476883803
 20
35.7199230035
 30
0.0
 40
0.5352139318203076
100
AcDbArc
 50
323.1757257042
 51
69.68827704
  0
LWPOLYLINE
  5
17D
330
1F
100
AcDbEntity
  8
0
  6
Continuous
 62
     7
370
    15
100
AcDbPolyline
 90
       19
 70
   128
 43
0.0
 10
271.4546439926
 20
35.6466361672
 10
271.302772679
 20
35.5244734314
 10
271.0876837357
 20
35.4396640936
 10
270.8353200637
 20
35.4024374116
 10
270.5761204462
 20
35.4172834727
 10
270.3413481825
 20
35.4824116228
 10
270.1593202725
 20
35.5899664458
 10
270.0519919685
 20
35.7269752427
 10
270.0323086481
 20
35.8769127305
 10
270.1026444101
 20
36.0216942355
 10
270.2545157237
 20
36.1438569713
 10
270.469604667
 20
36.228666309
 10
270.721968339
 20
36.265892991
 10
270.9811679565
 20
36.2510469299
 10
271.2159402202
 20
36.1859187798
 10
271.3979681302
 20
36.0783639569
 10
271.5052964342
 20
35.94135516
 10
271.5249797546
 20
35.7914176721
 10
271.4546439926
 20
35.6466361672
  0
SPLINE
  5
17E
330
1F
100
AcDbEntity
  8
0
  6
Continuous
 62
     7
370
    15
100
AcDbSpline
210
0.0
220
0.0
230
1.0
 70
     8
 71
     3
 72
    10
 73
     6
 74
     0
 42
0.000000001
 43
0.00000001
 40
0.0
 40
0.0
 40
0.0
 40
0.0
 40
0.161398623450025
 40
0.6028191632084192
 40
1.0
 40
1.0
 40
1.0
 40
1.0
 10
271.4982684903005
 20
35.84253034287786
 30
0.0
 10
271.4856917816952
 20
35.8162333726275
 30
0.0
 10
271.4387181409336
 20
35.71801495376879
 30
0.0
 10
271.3518035229897
 20
35.57024853301314
 30
0.0
 10
271.280653376247
 20
35.51858930229638
 30
0.0
 10
271.2469550356392
 20
35.49412230634594
 30
0.0
  0
SPLINE
  5
17F
330
1F
100
AcDbEntity
  8
0
  6
Continuous
 62
     7
370
    15
100
AcDbSpline
210
0.0
220
0.0
230
1.0
 70
     8
 71
     3
 72
    10
 73
     6
 74
     0
 42
0.000000001
 43
0.00000001
 40
0.0
 40
0.0
 40
0.0
 40
0.0
 40
0.4391119879276907
 40
0.751363323073469
 40
1.0
 40
1.0
 40
1.0
 40
1.0
 10
271.0912264605557
 20
36.18656191168798
 30
0.0
 10
271.1494970090206
 20
36.10235909472581
 30
0.0
 10
271.2492035853283
 20
35.9582798846286
 30
0.0
 10
271.3941456589782
 20
35.86235786407599
 30
0.0
 10
271.4662882985609
 20
35.84862014971066
 30
0.0
 10
271.4982684903005
 20
35.84253034287786
 30
0.0
  0
SPLINE
  5
180
330
1F
100
AcDbEntity
  8
0
  6
Continuous
 62
     7
370
    15
100
AcDbSpline
210
0.0
220
0.0
230
1.0
 70
     8
 71
     3
 72
    10
 73
     6
 74
     0
 42
0.000000001
 43
0.00000001
 40
0.0
 40
0.0
 40
0.0
 40
0.0
 40
0.4391119879276911
 40
0.7513633230734728
 40
1.0
 40
1.0
 40
1.0
 40
1.0
 10
270.3716021716035
 20
36.15507873314645
 30
0.0
 10
270.4746207764198
 20
36.1246331419395
 30
0.0
 10
270.6508956297176
 20
36.07253777398986
 30
0.0
 10
270.9071439506956
 20
36.11033139504166
 30
0.0
 10
271.0346875258525
 20
36.1631485401171
 30
0.0
 10
271.0912264605557
 20
36.18656191168798
 30
0.0
  0
SPLINE
  5
181
330
1F
100
AcDbEntity
  8
0
  6
Continuous
 62
     7
370
    15
100
AcDbSpline
210
0.0
220
0.0
230
1.0
 70
     8
 71
     3
 72
    11
 73
     7
 74
     0
 42
0.000000001
 43
0.00000001
 40
0.0
 40
0.0
 40
0.0
 40
0.0
 40
0.1849308168245202
 40
0.5198464202157222
 40
0.8714438233693218
 40
1.0
 40
1.0
 40
1.0
 40
1.0
 10
270.0590199123961
 20
35.77956398579478
 30
0.0
 10
270.0772137271975
 20
35.78549726638536
 30
0.0
 10
270.1283571204785
 20
35.80217590723124
 30
0.0
 10
270.2238260306747
 20
35.88379487832791
 30
0.0
 10
270.3119954753455
 20
36.03021273007693
 30
0.0
 10
270.3590135628424
 20
36.12870771514221
 30
0.0
 10
270.3716021716035
 20
36.15507873314645
 30
0.0
  0
SPLINE
  5
182
330
1F
100
AcDbEntity
  8
0
  6
Continuous
 62
     7
370
    15
100
AcDbSpline
210
0.0
220
0.0
230
1.0
 70
     8
 71
     3
 72
     9
 73
     5
 74
     0
 42
0.000000001
 43
0.00000001
 40
0.0
 40
0.0
 40
0.0
 40
0.0
 40
0.5223251969883499
 40
0.9999999999999999
 40
0.9999999999999999
 40
0.9999999999999999
 40
0.9999999999999999
 10
270.2711256398751
 20
35.52541709477667
 30
0.0
 10
270.2323513889577
 20
35.56055252519803
 30
0.0
 10
270.1581174612417
 20
35.62781987248272
 30
0.0
 10
270.0910542964347
 20
35.73051101467639
 30
0.0
 10
270.0590199123961
 20
35.77956398579478
 30
0.0
  0
LINE
  5
183
330
1F
100
AcDbEntity
  8
0
  6
Continuous
 62
     7
370
    15
100
AcDbLine
 10
270.3716021716
 20
35.4705120704
 30
0.0
 11
270.3716021716
 21
36.1550787331
 31
0.0
  0
LINE
  5
184
330
1F
100
AcDbEntity
  8
0
  6
Continuous
 62
     7
370
    15
100
AcDbLine
 10
271.0912264606
 20
35.4405953794
 30
0.0
 11
271.0912264606
 21
36.1865619117
 31
0.0
  0
ARC
  5
185
330
1F
100
AcDbEntity
  8
0
  6
Continuous
 62
     7
370
    15
100
AcDbCircle
 10
260.8940056984
 20
29.563269981
 30
0.0
 40
4.665652880325233
100
AcDbArc
 50
193.8679353198
 51
238.0711532232
  0
SPLINE
  5
186
330
1F
100
AcDbEntity
  8
0
  6
Continuous
 62
     7
370
    15
100
AcDbSpline
210
0.0
220
0.0
230
1.0
 70
     8
 71
     3
 72
    29
 73
    25
 74
     0
 42
0.000000001
 43
0.00000001
 40
0.0
 40
0.0
 40
0.0
 40
0.0
 40
0.0227703431571905
 40
0.0454410032926536
 40
0.0680340978351017
 40
0.0905719725561206
 40
0.1130771376996924
 40
0.1355722016902949
 40
0.1580798033766902
 40
0.1806225438190301
 40
0.2032229186428157
 40
0.2259032519635084
 40
0.2486856328315057
 40
0.3744034299808821
 40
0.4999236975978628
 40
0.5000033831470077
 40
0.6249154785933824
 40
0.7509968892327769
 40
0.7926749797131541
 40
0.8340977989462398
 40
0.8754030632547741
 40
0.9167296647521057
 40
0.9582162817868256
 40
1.0
 40
1.0
 40
1.0
 40
1.0
 10
256.364333607826
 20
33.66188462792741
 30
0.0
 10
256.3803956814986
 20
33.61108387424972
 30
0.0
 10
256.4124495129935
 20
33.50970476023281
 30
0.0
 10
256.4573940775615
 20
33.35669766117007
 30
0.0
 10
256.4999547727788
 20
33.20353485621369
 30
0.0
 10
256.5399761589222
 20
33.05014867032793
 30
0.0
 10
256.577578576068
 20
32.8965987391096
 30
0.0
 10
256.6128105261824
 20
32.74291335140006
 30
0.0
 10
256.6457414683958
 20
32.5891321533494
 30
0.0
 10
256.6764368507897
 20
32.43529377482312
 30
0.0
 10
256.704965332384
 20
32.28144313156272
 30
0.0
 10
256.7313947215412
 20
32.12761491217147
 30
0.0
 10
256.7925023731813
 20
31.74272976526261
 30
0.0
 10
256.8630639331603
 20
31.13765201575908
 30
0.0
 10
256.8836730692917
 20
30.62474218345799
 30
0.0
 10
256.8843156813428
 20
30.14483651873388
 30
0.0
 10
256.8639522467856
 20
29.69323910431867
 30
0.0
 10
256.7881310231768
 20
29.25955506014127
 30
0.0
 10
256.7108513432005
 20
28.99758444821172
 30
0.0
 10
256.6575103794765
 20
28.85632256618548
 30
0.0
 10
256.5967362949203
 20
28.73031941197056
 30
0.0
 10
256.5279256785961
 20
28.61969312935497
 30
0.0
 10
256.45141186458
 20
28.52286994911391
 30
0.0
 10
256.3934837884695
 20
28.47098335628537
 30
0.0
 10
256.3644164092927
 20
28.44494749648805
 30
0.0
  0
LWPOLYLINE
  5
187
330
1F
100
AcDbEntity
  8
0
  6
Continuous
 62
     7
370
    15
100
AcDbPolyline
 90
       25
 70
   128
 43
0.0
 10
256.3643336078
 20
33.6618846279
 10
256.595781472
 20
34.5862364301
 10
256.8871227221
 20
35.5183063994
 10
257.2360554016
 20
36.4507300291
 10
257.6398225101
 20
37.3761400179
 10
258.0952337875
 20
38.287224481
 10
258.598690921
 20
39.1767847231
 10
259.1462159757
 20
40.0377921168
 10
259.7334828258
 20
40.8634436376
 10
260.3558513359
 20
41.6472156161
 10
261.0084040243
 20
42.3829152833
 10
261.6859849167
 20
43.0647297007
 10
262.3832402851
 20
43.6872716904
 10
263.0946609486
 20
44.2456223997
 10
263.8146258032
 20
44.7353701666
 10
264.5374462351
 20
45.1526453774
 10
265.2574110678
 20
45.4941510413
 10
265.9688316877
 20
45.7571888407
 10
266.6660869909
 20
45.9396804511
 10
267.3436677974
 20
46.0401839631
 10
267.9962203796
 20
46.0579052743
 10
268.6185887642
 20
45.9927043645
 10
269.2058554704
 20
45.8450964015
 10
269.7533803639
 20
45.6162476712
 10
269.9255673447
 20
45.5226284313
  0
LWPOLYLINE
  5
188
330
1F
100
AcDbEntity
  8
0
  6
Continuous
 62
     7
370
    15
100
AcDbPolyline
 90
       41
 70
   128
 43
0.0
 10
257.5911027322
 20
29.9757734987
 10
257.6220464122
 20
30.8120484458
 10
257.7146419522
 20
31.677685648
 10
257.8681846441
 20
32.5660970837
 10
258.0815059354
 20
33.4705214052
 10
258.3529823222
 20
34.3840753975
 10
258.6805477054
 20
35.299806363
 10
259.0617091145
 20
36.2107450361
 10
259.493565681
 20
37.1099586236
 10
259.9728307159
 20
37.990603567
 10
260.4958567226
 20
38.8459776265
 10
261.0586631576
 20
39.6695708891
 10
261.656966724
 20
40.4551153128
 10
262.2862139705
 20
41.1966324302
 10
262.9416159454
 20
41.8884788482
 10
263.6181846441
 20
42.525389198
 10
264.3107709702
 20
43.102516207
 10
265.0141039236
 20
43.6154675904
 10
265.7228307159
 20
44.0603394783
 10
266.4315575081
 20
44.4337461272
 10
267.1348904615
 20
44.7328456868
 10
267.8274767876
 20
44.955361829
 10
268.5040454863
 20
45.0996010716
 10
269.1594474613
 20
45.1644656667
 10
269.7886947077
 20
45.1494619558
 10
270.3869982741
 20
45.0547041261
 10
270.9498047091
 20
44.8809133419
 10
271.4728307159
 20
44.6294122559
 10
271.9520957507
 20
44.3021149434
 10
272.3839523173
 20
43.9015123345
 10
272.7651137264
 20
43.430653257
 10
273.0926791095
 20
42.8931212327
 10
273.3641554963
 20
42.2930072049
 10
273.5774767876
 20
41.6348784037
 10
273.7310194795
 20
40.9237435867
 10
273.8236150195
 20
40.1650149192
 10
273.8545586995
 20
39.3644667846
 10
273.8236150195
 20
38.5281918375
 10
273.7310194795
 20
37.6625546353
 10
273.5774767876
 20
36.7741431996
 10
273.4011271164
 20
36.0108802854
  0
LWPOLYLINE
  5
189
330
1F
100
AcDbEntity
  8
0
  6
Continuous
 62
     7
370
    15
100
AcDbPolyline
 90
       23
 70
   128
 43
0.0
 10
268.4015334532
 20
27.3503916616
 10
267.8274767876
 20
26.8148510853
 10
267.1348904615
 20
26.2377240763
 10
266.4315575081
 20
25.7247726929
 10
265.7228307159
 20
25.279900805
 10
265.0141039236
 20
24.9064941561
 10
264.3107709702
 20
24.6073945965
 10
263.6181846441
 20
24.3848784543
 10
262.9416159454
 20
24.2406392118
 10
262.2862139705
 20
24.1757746166
 10
261.656966724
 20
24.1907783275
 10
261.0586631576
 20
24.2855361572
 10
260.4958567226
 20
24.4593269414
 10
259.9728307159
 20
24.7108280274
 10
259.493565681
 20
25.0381253399
 10
259.0617091145
 20
25.4387279488
 10
258.6805477054
 20
25.9095870263
 10
258.3529823222
 20
26.4471190506
 10
258.0815059354
 20
27.0472330784
 10
257.8681846441
 20
27.7053618796
 10
257.7146419522
 20
28.4164966966
 10
257.6220464122
 20
29.1752253641
 10
257.5911027322
 20
29.9757734987
  0
LWPOLYLINE
  5
18A
330
1F
100
AcDbEntity
  8
0
  6
Continuous
 62
     7
370
    15
100
AcDbPolyline
 90
       48
 70
   128
 43
0.0
 10
269.3290752999
 20
28.5878797086
 10
269.3599902262
 20
29.1390142855
 10
269.4521833275
 20
29.7160074671
 10
269.6040094157
 20
30.3085627961
 10
269.8127591507
 20
30.9061061089
 10
270.0747073884
 20
31.4979742308
 10
270.3851796565
 20
32.0736052611
 10
270.7386355699
 20
32.6227270504
 10
271.1287676995
 20
33.1355405076
 10
271.5486141281
 20
33.6028944641
 10
271.9906826864
 20
34.0164489777
 10
272.4470846504
 20
34.3688241582
 10
272.9096755162
 20
34.6537318622
 10
273.370200339
 20
34.8660879049
 10
273.8204410422
 20
35.0021027878
 10
274.25236307
 20
35.059349322
 10
274.6582587634
 20
35.0368059417
 10
275.0308849043
 20
34.9348749342
 10
275.3635919703
 20
34.7553752607
 10
275.650442796
 20
34.5015100971
 10
275.8863185215
 20
34.1778096732
 10
276.0670099389
 20
33.7900504308
 10
276.1892926057
 20
33.3451519428
 10
276.2509843847
 20
32.8510534332
 10
276.2509843847
 20
32.3165721016
 10
276.1892926057
 20
31.7512457801
 10
276.0670099389
 20
31.1651627302
 10
275.8863185215
 20
30.5687816179
 10
275.650442796
 20
29.9727448782
 10
275.3635919703
 20
29.3876888009
 10
275.0308849043
 20
28.8240537255
 10
274.6582587634
 20
28.2918977333
 10
274.25236307
 20
27.8007171606
 10
273.8204410422
 20
27.3592771364
 10
273.370200339
 20
26.9754551683
 10
272.9096755162
 20
26.6561005685
 10
272.4470846504
 20
26.4069122274
 10
271.9906826864
 20
26.2323369167
 10
271.5486141281
 20
26.1354899371
 10
271.1287676995
 20
26.1180995252
 10
270.7386355699
 20
26.1804760133
 10
270.3851796565
 20
26.3215062916
 10
270.0747073884
 20
26.5386736713
 10
269.8127591507
 20
26.8281027954
 10
269.6040094157
 20
27.1846287943
 10
269.4521833275
 20
27.6018894532
 10
269.3599902262
 20
28.0724387457
 10
269.3290752999
 20
28.5878797086
  0
LWPOLYLINE
  5
18B
330
1F
100
AcDbEntity
  8
0
  6
Continuous
 62
     7
370
    15
100
AcDbPolyline
 90
       25
 70
   128
 43
0.0
 10
269.1876539437
 20
28.5878797086
 10
269.2179009264
 20
29.1382407348
 10
269.3081243402
 20
29.7141073542
 10
269.4567804374
 20
30.3056263292
 10
269.6613256711
 20
30.9026766061
 10
269.9182602156
 20
31.4950424892
 10
270.2231878496
 20
32.0725884339
 10
270.5708911767
 20
32.6254324691
 10
270.9554208966
 20
33.14411528
 10
271.3701975992
 20
33.6197620598
 10
271.8081243402
 20
34.0442343604
 10
272.2617080714
 20
34.410269343
 10
272.7231878496
 20
34.7116040476
 10
273.1846676278
 20
34.9430825537
 10
273.6382513591
 20
35.1007442
 10
274.0761781
 20
35.181891352
 10
274.4909548026
 20
35.1851355595
 10
274.8754845225
 20
35.1104213131
 10
275.2231878496
 20
34.9590269943
 10
275.5281154836
 20
34.733543002
 10
275.7850500281
 20
34.4378274296
 10
275.9895952618
 20
34.0769400526
 10
276.1382513591
 20
33.6570557542
 10
276.2284747729
 20
33.1853588711
 10
276.2587217555
 20
32.6699202677
  0
LWPOLYLINE
  5
18C
330
1F
100
AcDbEntity
  8
0
  6
Continuous
 62
     7
370
    15
100
AcDbPolyline
 90
       14
 70
   128
 43
0.0
 10
272.7237624733
 20
26.5465277058
 10
272.7231878496
 20
26.5461959287
 10
272.2617080714
 20
26.3147174226
 10
271.8081243402
 20
26.1570557762
 10
271.3701975992
 20
26.0759086242
 10
270.9554208966
 20
26.0726644168
 10
270.5708911767
 20
26.1473786631
 10
270.2231878496
 20
26.2987729819
 10
269.9182602156
 20
26.5242569743
 10
269.6613256711
 20
26.8199725467
 10
269.4567804374
 20
27.1808599236
 10
269.3081243402
 20
27.600744222
 10
269.2179009264
 20
28.0724411052
 10
269.1876539437
 20
28.5878797086
  0
SPLINE
  5
18D
330
1F
100
AcDbEntity
  8
0
  6
Continuous
 62
     7
370
    15
100
AcDbSpline
210
0.0
220
0.0
230
1.0
 70
     8
 71
     3
 72
    38
 73
    34
 74
     0
 42
0.000000001
 43
0.00000001
 40
0.0
 40
0.0
 40
0.0
 40
0.0
 40
0.0625
 40
0.0625
 40
0.125
 40
0.125
 40
0.1874999999999999
 40
0.1874999999999999
 40
0.2499999999999999
 40
0.2499999999999999
 40
0.3124999999999999
 40
0.3124999999999999
 40
0.3749999999999999
 40
0.3749999999999999
 40
0.4375
 40
0.4375
 40
0.5000000000000001
 40
0.5000000000000001
 40
0.5625000000000001
 40
0.5625000000000001
 40
0.6250000000000001
 40
0.6250000000000001
 40
0.6875000000000001
 40
0.6875000000000001
 40
0.75
 40
0.75
 40
0.8125
 40
0.8125
 40
0.875
 40
0.875
 40
0.9375
 40
0.9375
 40
1.0
 40
1.0
 40
1.0
 40
1.0
 10
271.9276927207764
 20
35.17083361046149
 30
0.0
 10
271.8571401359064
 20
35.13010447016018
 30
0.0
 10
271.7780545205542
 20
35.09193243095003
 30
0.0
 10
271.6054362920906
 20
35.02233545546645
 30
0.0
 10
271.5145663351922
 20
34.99191270059848
 30
0.0
 10
271.3244250181425
 20
34.93979238807497
 30
0.0
 10
271.2255780060826
 20
34.91836086696961
 30
0.0
 10
271.0281588311769
 20
34.88644592098134
 30
0.0
 10
270.927605480919
 20
34.87563899660324
 30
0.0
 10
270.7297305934474
 20
34.86550564328457
 30
0.0
 10
270.632575749593
 20
34.8660632506627
 30
0.0
 10
270.4414374554159
 20
34.87885644615397
 30
0.0
 10
270.347463184
 20
34.89124523451972
 30
0.0
 10
270.1690308993827
 20
34.9274663665712
 30
0.0
 10
270.083677553096
 20
34.95132657927073
 30
0.0
 10
269.9206465740032
 20
35.01118911636581
 30
0.0
 10
269.843804420253
 20
35.04702109786114
 30
0.0
 10
269.7031370776782
 20
35.12847972683119
 30
0.0
 10
269.6386608184182
 20
35.17433166551072
 30
0.0
 10
269.5218268188396
 20
35.27641056698475
 30
0.0
 10
269.4703080167957
 20
35.33206206392713
 30
0.0
 10
269.3833006523946
 20
35.44932287425613
 30
0.0
 10
269.3473736003026
 20
35.51129405103883
 30
0.0
 10
269.291744552153
 20
35.64148600267094
 30
0.0
 10
269.2725991852813
 20
35.70874522162102
 30
0.0
 10
269.2529886844881
 20
35.84343902706011
 30
0.0
 10
269.2522844057017
 20
35.9113527924216
 30
0.0
 10
269.271500634874
 20
36.04730646018118
 30
0.0
 10
269.2913606410203
 20
36.11380111043713
 30
0.0
 10
269.3521287863932
 20
36.23977766647219
 30
0.0
 10
269.3939409441009
 20
36.30043014077653
 30
0.0
 10
269.4970981967652
 20
36.40847461052706
 30
0.0
 10
269.5582717557184
 20
36.45632236599943
 30
0.0
 10
269.6295956819201
 20
36.4974967921734
 30
0.0
  0
SPLINE
  5
18E
330
1F
100
AcDbEntity
  8
0
  6
Continuous
 62
     7
370
    15
100
AcDbSpline
210
0.0
220
0.0
230
1.0
 70
     8
 71
     3
 72
    32
 73
    28
 74
     0
 42
0.000000001
 43
0.00000001
 40
0.0
 40
0.0
 40
0.0
 40
0.0
 40
0.0625000000000003
 40
0.0625000000000003
 40
0.1250000000000006
 40
0.1250000000000006
 40
0.1875000000000009
 40
0.1875000000000009
 40
0.2500000000000013
 40
0.2500000000000013
 40
0.3750000000000021
 40
0.3750000000000021
 40
0.5000000000000029
 40
0.5000000000000029
 40
0.6250000000000037
 40
0.6250000000000037
 40
0.6875000000000031
 40
0.6875000000000031
 40
0.7500000000000024
 40
0.7500000000000024
 40
0.8125000000000018
 40
0.8125000000000018
 40
0.8750000000000012
 40
0.8750000000000012
 40
0.9375000000000006
 40
0.9375000000000006
 40
1.0
 40
1.0
 40
1.0
 40
1.0
 10
269.6295956819201
 20
36.4974967921734
 30
0.0
 10
269.7010007431627
 20
36.53871805660945
 30
0.0
 10
269.7807933403672
 20
36.57199749313389
 30
0.0
 10
269.9521559787395
 20
36.62205352097171
 30
0.0
 10
270.045227736236
 20
36.63909216940116
 30
0.0
 10
270.235237060807
 20
36.65722254386068
 30
0.0
 10
270.3338198752263
 20
36.65865839859358
 30
0.0
 10
270.5330966437194
 20
36.64833606773713
 30
0.0
 10
270.6326313644521
 20
36.6367541247395
 30
0.0
 10
270.9312379293769
 20
36.58603234520061
 30
0.0
 10
271.1213159883366
 20
36.53298452886366
 30
0.0
 10
271.4815657792446
 20
36.40149588009105
 30
0.0
 10
271.6436232245726
 20
36.32592423046429
 30
0.0
 10
271.9276844659559
 20
36.1613338067369
 30
0.0
 10
272.0437386013406
 20
36.07577338200811
 30
0.0
 10
272.17536002279
 20
35.94162569044015
 30
0.0
 10
272.2109772967358
 20
35.89696685972761
 30
0.0
 10
272.2657083616466
 20
35.80674315902174
 30
0.0
 10
272.2848975436019
 20
35.76090347155733
 30
0.0
 10
272.3044962468871
 20
35.66813753834226
 30
0.0
 10
272.3048085244596
 20
35.62218750077974
 30
0.0
 10
272.2856579522946
 20
35.52985900438753
 30
0.0
 10
272.2658360434774
 20
35.48292579245886
 30
0.0
 10
272.2045533236137
 20
35.38995706781198
 30
0.0
 10
272.163847215285
 20
35.34466162182234
 30
0.0
 10
272.061298047227
 20
35.25573460021746
 30
0.0
 10
271.9983255632424
 20
35.21160908248677
 30
0.0
 10
271.9276927207764
 20
35.17083361046149
 30
0.0
  0
ARC
  5
18F
330
1F
100
AcDbEntity
  8
0
  6
Continuous
 62
     7
370
    15
100
AcDbCircle
 10
270.733519089
 20
27.3729681168
 30
0.0
 40
0.4510551675024323
100
AcDbArc
 50
173.8039352909
 51
288.0938669718
  0
LWPOLYLINE
  5
190
330
1F
100
AcDbEntity
  8
0
  6
Continuous
 62
     7
370
    15
100
AcDbPolyline
 90
       10
 70
   128
 43
0.0
 10
274.7141916507
 20
29.1613413337
 10
274.3406327591
 20
28.625331935
 10
273.9277119853
 20
28.1392712865
 10
273.4859374946
 20
27.7155288446
 10
273.0265517325
 20
27.3648881687
 10
272.561245323
 20
27.0962724961
 10
272.1018595609
 20
26.916517661
 10
271.6600850702
 20
26.8301981328
 10
271.2471642964
 20
26.8395106038
 10
270.8736054048
 20
26.9442180868
  0
ARC
  5
191
330
1F
100
AcDbEntity
  8
0
  6
Continuous
 62
     7
370
    15
100
AcDbCircle
 10
273.5617203949
 20
30.4757284498
 30
0.0
 40
1.748085663338627
100
AcDbArc
 50
311.2446942589
 51
354.8314148768
  0
ARC
  5
192
330
1F
100
AcDbEntity
  8
0
  6
Continuous
 62
     7
370
    15
100
AcDbCircle
 10
271.9572328259
 20
32.036378829
 30
0.0
 40
3.760865234062197
100
AcDbArc
 50
332.8163458041
 51
27.1836541959
  0
ARC
  5
193
330
1F
100
AcDbEntity
  8
0
  6
Continuous
 62
     7
370
    15
100
AcDbCircle
 10
274.8542779664
 20
33.8031910483
 30
0.0
 40
0.4510551675024857
100
AcDbArc
 50
353.8039352909
 51
108.0938669718
  0
LWPOLYLINE
  5
194
330
1F
100
AcDbEntity
  8
0
  6
Continuous
 62
     7
370
    15
100
AcDbPolyline
 90
       10
 70
   128
 43
0.0
 10
270.8736054048
 20
32.0148178314
 10
271.2471642964
 20
32.55082723
 10
271.6600850702
 20
33.0368878786
 10
272.1018595609
 20
33.4606303204
 10
272.561245323
 20
33.8112709964
 10
273.0265517325
 20
34.079886669
 10
273.4859374946
 20
34.2596415041
 10
273.9277119853
 20
34.3459610323
 10
274.3406327591
 20
34.3366485612
 10
274.7141916507
 20
34.2319410783
  0
ARC
  5
195
330
1F
100
AcDbEntity
  8
0
  6
Continuous
 62
     7
370
    15
100
AcDbCircle
 10
272.0260766606
 20
30.7004307152
 30
0.0
 40
1.748085663338037
100
AcDbArc
 50
131.2446942589
 51
174.8314148769
  0
ARC
  5
196
330
1F
100
AcDbEntity
  8
0
  6
Continuous
 62
     7
370
    15
100
AcDbCircle
 10
273.6305642296
 20
29.1397803361
 30
0.0
 40
3.760865234061796
100
AcDbArc
 50
152.8163458041
 51
207.1836541959
  0
SPLINE
  5
197
330
1F
100
AcDbEntity
  8
0
  6
Continuous
 62
     7
370
    15
100
AcDbSpline
210
0.0
220
0.0
230
1.0
 70
     8
 71
     3
 72
     8
 73
     4
 74
     0
 42
0.000000001
 43
0.00000001
 40
0.0
 40
0.0
 40
0.0
 40
0.0
 40
1.0
 40
1.0
 40
1.0
 40
1.0
 10
255.8192547914486
 20
36.45041057555106
 30
0.0
 10
255.7948068830197
 20
36.44702378816403
 30
0.0
 10
255.7703596900014
 20
36.44358810182978
 30
0.0
 10
255.7459131725137
 20
36.44010382239209
 30
0.0
  0
SPLINE
  5
198
330
1F
100
AcDbEntity
  8
0
  6
Continuous
 62
     7
370
    15
100
AcDbSpline
210
0.0
220
0.0
230
1.0
 70
     8
 71
     3
 72
     8
 73
     4
 74
     0
 42
0.000000001
 43
0.00000001
 40
0.0
 40
0.0
 40
0.0
 40
0.0
 40
1.0
 40
1.0
 40
1.0
 40
1.0
 10
255.7459131725137
 20
36.44010382239209
 30
0.0
 10
255.5322012229688
 20
36.40964418118702
 30
0.0
 10
255.3185404404336
 20
36.37547923960582
 30
0.0
 10
255.1049074907853
 20
36.33775512160965
 30
0.0
  0
SPLINE
  5
199
330
1F
100
AcDbEntity
  8
0
  6
Continuous
 62
     7
370
    15
100
AcDbSpline
210
0.0
220
0.0
230
1.0
 70
     8
 71
     3
 72
     8
 73
     4
 74
     0
 42
0.000000001
 43
0.00000001
 40
0.0
 40
0.0
 40
0.0
 40
0.0
 40
1.0
 40
1.0
 40
1.0
 40
1.0
 10
255.1049074907853
 20
36.33775512160965
 30
0.0
 10
254.8223896294675
 20
36.28786704416685
 30
0.0
 10
254.539647567188
 20
36.2384018496515
 30
0.0
 10
254.2567360775442
 20
36.189280888958
 30
0.0
  0
SPLINE
  5
19A
330
1F
100
AcDbEntity
  8
0
  6
Continuous
 62
     7
370
    15
100
AcDbSpline
210
0.0
220
0.0
230
1.0
 70
     8
 71
     3
 72
     8
 73
     4
 74
     0
 42
0.000000001
 43
0.00000001
 40
0.0
 40
0.0
 40
0.0
 40
0.0
 40
0.0011496337376319
 40
0.0011496337376319
 40
0.0011496337376319
 40
0.0011496337376319
 10
253.8122577537846
 20
36.44592039919586
 30
0.0
 10
253.9605311823107
 20
36.36030810523369
 30
0.0
 10
254.108696014453
 20
36.27475849025595
 30
0.0
 10
254.2567360775442
 20
36.189280888958
 30
0.0
  0
LWPOLYLINE
  5
19B
330
1F
100
AcDbEntity
  8
0
  6
Continuous
 62
     7
370
    15
100
AcDbPolyline
 90
       27
 70
   128
 43
0.0
 10
253.8122577538
 20
36.4459203992
 10
254.1114826693
 20
37.3626289214
 10
254.4657925201
 20
38.2781428577
 10
254.8724835203
 20
39.1854757988
 10
255.3284521566
 20
40.0777037658
 10
255.8302188714
 20
40.9480180478
 10
256.3739546157
 20
41.7897771602
 10
256.9555100695
 20
42.5965575266
 10
257.5704473053
 20
43.3622024982
 10
258.2140736549
 20
44.0808693359
 10
258.8814775195
 20
44.747073797
 10
259.5675658511
 20
45.3557319862
 10
260.2671030178
 20
45.9021991515
 10
260.9747507581
 20
46.3823051288
 10
261.6851089174
 20
46.7923861654
 10
262.3927566577
 20
47.1293128779
 10
263.0922938244
 20
47.3905141337
 10
263.778382156
 20
47.5739966709
 10
264.4457860206
 20
47.6783603099
 10
265.0894123702
 20
47.7028086377
 10
265.704349606
 20
47.647155086
 10
266.2859050597
 20
47.5118243543
 10
266.8296408041
 20
47.2978491696
 10
267.3314075189
 20
47.0068624052
 10
267.7873761552
 20
46.6410846198
 10
268.1940671554
 20
46.2033071128
 10
268.323682949
 20
46.0343594211
  0
SPLINE
  5
19C
330
1F
100
AcDbEntity
  8
0
  6
Continuous
 62
     7
370
    15
100
AcDbSpline
210
0.0
220
0.0
230
1.0
 70
     8
 71
     3
 72
     8
 73
     4
 74
     0
 42
0.000000001
 43
0.00000001
 40
0.0
 40
0.0
 40
0.0
 40
0.0
 40
1.0
 40
1.0
 40
1.0
 40
1.0
 10
274.4787481670872
 20
34.17753326028579
 30
0.0
 10
274.5598361045988
 20
34.20346698913625
 30
0.0
 10
274.6383038901415
 20
34.22179534165497
 30
0.0
 10
274.7141916506668
 20
34.2319410783043
 30
0.0
  0
SPLINE
  5
19D
330
1F
100
AcDbEntity
  8
0
  6
Continuous
 62
     7
370
    15
100
AcDbSpline
210
0.0
220
0.0
230
1.0
 70
     8
 71
     3
 72
     8
 73
     4
 74
     0
 42
0.000000001
 43
0.00000001
 40
0.0
 40
0.0
 40
0.0
 40
0.0
 40
1.0
 40
1.0
 40
1.0
 40
1.0
 10
274.1221239350779
 20
34.05961600594365
 30
0.0
 10
274.2400657729212
 20
34.10000299143569
 30
0.0
 10
274.3590031602953
 20
34.13923613949771
 30
0.0
 10
274.4787481670872
 20
34.17753326028579
 30
0.0
  0
ARC
  5
19E
330
1F
100
AcDbEntity
  8
0
  6
Continuous
 62
     7
370
    15
100
AcDbCircle
 10
274.148846593
 20
30.6599653083
 30
0.0
 40
3.399755721593214
100
AcDbArc
 50
90.4503592053
 51
149.544264262
  0
SPLINE
  5
19F
330
1F
100
AcDbEntity
  8
0
  6
Continuous
 62
     7
370
    15
100
AcDbSpline
210
0.0
220
0.0
230
1.0
 70
     8
 71
     3
 72
     8
 73
     4
 74
     0
 42
0.000000001
 43
0.00000001
 40
0.0
 40
0.0
 40
0.0
 40
0.0
 40
1.0
 40
1.0
 40
1.0
 40
1.0
 10
271.0139249392731
 20
32.17733338632015
 30
0.0
 10
271.0802722107661
 20
32.24646854795444
 30
0.0
 10
271.1482343600765
 20
32.31513007606713
 30
0.0
 10
271.2181857469666
 20
32.3832081732911
 30
0.0
  0
SPLINE
  5
1A0
330
1F
100
AcDbEntity
  8
0
  6
Continuous
 62
     7
370
    15
100
AcDbSpline
210
0.0
220
0.0
230
1.0
 70
     8
 71
     3
 72
     8
 73
     4
 74
     0
 42
0.000000001
 43
0.00000001
 40
0.0
 40
0.0
 40
0.0
 40
0.0
 40
1.0
 40
1.0
 40
1.0
 40
1.0
 10
270.8736054047931
 20
32.01481783135664
 30
0.0
 10
270.9221620412166
 20
32.07651231590381
 30
0.0
 10
270.9690015357301
 20
32.13052231639635
 30
0.0
 10
271.0139249392731
 20
32.17733338632015
 30
0.0
  0
SPLINE
  5
1A1
330
1F
100
AcDbEntity
  8
0
  6
Continuous
 62
     7
370
    15
100
AcDbSpline
210
0.0
220
0.0
230
1.0
 70
     8
 71
     3
 72
     8
 73
     4
 74
     0
 42
0.000000001
 43
0.00000001
 40
0.0
 40
0.0
 40
0.0
 40
0.0
 40
1.0
 40
1.0
 40
1.0
 40
1.0
 10
270.2850988146873
 20
27.42165098522414
 30
0.0
 10
270.2710555249784
 20
27.48530548615923
 30
0.0
 10
270.2606716736381
 20
27.55208618632825
 30
0.0
 10
270.2536805439107
 20
27.62190016643011
 30
0.0
  0
ARC
  5
1A2
330
1F
100
AcDbEntity
  8
0
  6
Continuous
 62
     7
370
    15
100
AcDbCircle
 10
273.5915701425
 20
29.1644714069
 30
0.0
 40
3.677095729574625
100
AcDbArc
 50
155.1964677926
 51
204.8035322074
  0
SPLINE
  5
1A3
330
1F
100
AcDbEntity
  8
0
  6
Continuous
 62
     7
370
    15
100
AcDbSpline
210
0.0
220
0.0
230
1.0
 70
     8
 71
     3
 72
     8
 73
     4
 74
     0
 42
0.000000001
 43
0.00000001
 40
0.0
 40
0.0
 40
0.0
 40
0.0
 40
1.0
 40
1.0
 40
1.0
 40
1.0
 10
270.2536805439107
 20
30.70704264731009
 30
0.0
 10
270.2606716736381
 20
30.75302686606144
 30
0.0
 10
270.2710555249784
 20
30.80329020892476
 30
0.0
 10
270.2850988146873
 20
30.85790968701201
 30
0.0
  0
LWPOLYLINE
  5
1A4
330
1F
100
AcDbEntity
  8
0
  6
Continuous
 62
     7
370
    15
100
AcDbPolyline
 90
       25
 70
   128
 43
0.0
 10
272.8364788669
 20
33.7092546616
 10
272.9863509203
 20
33.7051761042
 10
273.2785808591
 20
33.6375873788
 10
273.5308389996
 20
33.4919145137
 10
273.7354606056
 20
33.2725837052
 10
273.8862283534
 20
32.986259209
 10
273.9785612411
 20
32.6416408499
 10
274.0096537807
 20
32.2491996824
 10
273.9785612411
 20
31.8208598328
 10
273.8862283534
 20
31.3696361907
 10
273.7354606056
 20
30.9092389581
 10
273.5308389996
 20
30.453657072
 10
273.2785808591
 20
30.0167331574
 10
272.9863509203
 20
29.6117429264
 10
272.6630284418
 20
29.2509918023
 10
272.3184374137
 20
28.9454410253
 10
271.9630480598
 20
28.7043746012
 10
271.607658706
 20
28.5351172113
 10
271.2630676778
 20
28.4428116558
 10
270.9397451994
 20
28.4302625923
 10
270.6475152605
 20
28.4978513177
 10
270.3952571201
 20
28.6435241828
 10
270.190635514
 20
28.8628549913
 10
270.0398677663
 20
29.1491794875
 10
269.9508140604
 20
29.474766461
  0
LINE
  5
1A5
330
1F
100
AcDbEntity
  8
0
  6
Continuous
 62
     7
370
    15
100
AcDbLine
 10
270.2306364459
 20
27.505722614
 30
0.0
 11
271.3636342837
 21
28.1597883435
 31
0.0
  0
LINE
  5
1A6
330
1F
100
AcDbEntity
  8
0
  6
Continuous
 62
     7
370
    15
100
AcDbLine
 10
274.4661714966
 20
34.0553129906
 30
0.0
 11
274.4732060801
 21
34.1926448857
 31
0.0
  0
ARC
  5
1A7
330
1F
100
AcDbEntity
  8
0
  6
Continuous
 62
     7
370
    15
100
AcDbCircle
 10
271.128281898
 20
32.5127417501
 30
0.0
 40
3.677095729575553
100
AcDbArc
 50
335.1964677926
 51
24.8035322074
  0
ARC
  5
1A8
330
1F
100
AcDbEntity
  8
0
  6
Continuous
 62
     7
370
    15
100
AcDbCircle
 10
272.8199606099
 20
30.9017017143
 30
0.0
 40
1.647634140084966
100
AcDbArc
 50
302.0978909557
 51
2.3816591776
  0
LINE
  5
1A9
330
1F
100
AcDbEntity
  8
0
  6
Continuous
 62
     7
370
    15
100
AcDbLine
 10
272.562461836
 20
28.8518567584
 30
0.0
 11
273.6954596737
 21
29.5059224879
 31
0.0
  0
ARC
  5
1AA
330
1F
100
AcDbEntity
  8
0
  6
Continuous
 62
     7
370
    15
100
AcDbCircle
 10
270.4843404388
 20
31.0672968212
 30
0.0
 40
3.037558758883266
100
AcDbArc
 50
286.8264591401
 51
313.1681643272
  0
LINE
  5
1AB
330
1F
100
AcDbEntity
  8
0
  6
Continuous
 62
     7
370
    15
100
AcDbLine
 10
251.4876442106
 20
37.787891233
 30
0.0
 11
253.8122577538
 21
36.4459203992
 31
0.0
  0
LINE
  5
1AC
330
1F
100
AcDbEntity
  8
0
  6
Continuous
 62
     7
370
    15
100
AcDbLine
 10
264.7144194581
 20
48.5306341714
 30
0.0
 11
264.7548490072
 21
48.5076205902
 31
0.0
  0
LINE
  5
1AD
330
1F
100
AcDbEntity
  8
0
  6
Continuous
 62
     7
370
    15
100
AcDbLine
 10
273.9540393276
 20
33.9625828275
 30
0.0
 11
274.1221239351
 21
34.0596160059
 31
0.0
  0
ARC
  5
1AE
330
1F
100
AcDbEntity
  8
0
  6
Continuous
 62
     7
370
    15
100
AcDbCircle
 10
274.1488505444
 20
30.6599584637
 30
0.0
 40
3.308365018965588
100
AcDbArc
 50
93.3757825808
 51
146.6188408865
  0
LINE
  5
1AF
330
1F
100
AcDbEntity
  8
0
  6
Continuous
 62
     7
370
    15
100
AcDbLine
 10
271.218185747
 20
32.3832081733
 30
0.0
 11
271.3862703544
 21
32.4802413518
 31
0.0
  0
SPLINE
  5
1B0
330
1F
100
AcDbEntity
  8
0
  6
Continuous
 62
     7
370
    15
100
AcDbSpline
210
0.0
220
0.0
230
1.0
 70
     8
 71
     3
 72
     9
 73
     5
 74
     0
 42
0.000000001
 43
0.00000001
 40
0.0
 40
0.0
 40
0.0
 40
0.0
 40
0.4600451708083509
 40
1.0
 40
1.0
 40
1.0
 40
1.0
 10
273.1916739845372
 20
33.8983809418453
 30
0.0
 10
273.3074591184429
 20
33.91256624919199
 30
0.0
 10
273.5591412167512
 20
33.94340084598118
 30
0.0
 10
273.8155760831588
 20
33.95585704348728
 30
0.0
 10
273.9540393276487
 20
33.96258282748406
 30
0.0
  0
SPLINE
  5
1B1
330
1F
100
AcDbEntity
  8
0
  6
Continuous
 62
     7
370
    15
100
AcDbSpline
210
0.0
220
0.0
230
1.0
 70
     8
 71
     3
 72
     9
 73
     5
 74
     0
 42
0.000000001
 43
0.00000001
 40
0.0
 40
0.0
 40
0.0
 40
0.0
 40
0.4347808892163895
 40
1.0
 40
1.0
 40
1.0
 40
1.0
 10
256.8858670033862
 20
35.50684720650018
 30
0.0
 10
256.7986529158362
 20
35.64612892663988
 30
0.0
 10
256.5980597211646
 20
35.96647814987904
 30
0.0
 10
256.346901283906
 20
36.21342708839416
 30
0.0
 10
256.2049417353329
 20
36.35300734783063
 30
0.0
  0
LWPOLYLINE
  5
1B2
330
1F
100
AcDbEntity
  8
0
  6
Continuous
 62
     7
370
    15
100
AcDbPolyline
 90
       23
 70
   128
 43
0.0
 10
272.7695990746
 20
33.6746552723
 10
272.8575145907
 20
33.6622094993
 10
273.1300728492
 20
33.5685570854
 10
273.3594402223
 20
33.3978056924
 10
273.5382446539
 20
33.1554434107
 10
273.6607392225
 20
32.8492599634
 10
273.7229868518
 20
32.4890963385
 10
273.7229868518
 20
32.0865284911
 10
273.6607392225
 20
31.6544952832
 10
273.5382446539
 20
31.2068826174
 10
273.3594402223
 20
30.7580771332
 10
273.1300728492
 20
30.3225038082
 10
272.8575145907
 20
29.9141623273
 10
272.5505256935
 20
29.5461771218
 10
272.2189730333
 20
29.230375539
 10
271.8735129854
 20
28.9769077015
 10
271.5252489201
 20
28.7939202742
 10
271.1853743309
 20
28.6872946236
 10
270.8648130668
 20
28.6604577858
 10
270.5738682306
 20
28.7142723189
 10
270.3218910286
 20
28.8470085795
 10
270.1169802156
 20
29.054400315
 10
270.0130098821
 20
29.2245947937
  0
SPLINE
  5
1B3
330
1F
100
AcDbEntity
  8
0
  6
Continuous
 62
     7
370
    15
100
AcDbSpline
210
0.0
220
0.0
230
1.0
 70
     8
 71
     3
 72
    13
 73
     9
 74
     0
 42
0.000000001
 43
0.00000001
 40
0.0
 40
0.0
 40
0.0
 40
0.0
 40
0.1543420314117103
 40
0.2938061120026537
 40
0.4184291878197337
 40
0.5282647859491916
 40
0.7983417750277072
 40
1.0
 40
1.0
 40
1.0
 40
1.0
 10
256.4568551239199
 20
29.19118888736783
 30
0.0
 10
256.4978127459681
 20
29.228766679506
 30
0.0
 10
256.5757798400952
 20
29.30029991581744
 30
0.0
 10
256.6645198420251
 20
29.44619855990442
 30
0.0
 10
256.7308229867837
 20
29.60130497224604
 30
0.0
 10
256.8039202228014
 20
29.84519737214766
 30
0.0
 10
256.8657911711768
 20
30.18128609273628
 30
0.0
 10
256.8749568096449
 20
30.52900416804174
 30
0.0
 10
256.8788749534025
 20
30.6776473215913
 30
0.0
  0
SPLINE
  5
1B4
330
1F
100
AcDbEntity
  8
0
  6
Continuous
 62
     7
370
    15
100
AcDbSpline
210
0.0
220
0.0
230
1.0
 70
     8
 71
     3
 72
     9
 73
     5
 74
     0
 42
0.000000001
 43
0.00000001
 40
0.0
 40
0.0
 40
0.0
 40
0.0
 40
0.5084968925805682
 40
1.0
 40
1.0
 40
1.0
 40
1.0
 10
256.3643615252519
 20
28.44490670249751
 30
0.0
 10
256.3798548201171
 20
28.57124489847654
 30
0.0
 10
256.4103236294478
 20
28.81969911289242
 30
0.0
 10
256.4415320180492
 20
29.06871527806578
 30
0.0
 10
256.4568710380244
 20
29.19110749704616
 30
0.0
  0
SPLINE
  5
1B5
330
1F
100
AcDbEntity
  8
0
  6
Continuous
 62
     7
370
    15
100
AcDbSpline
210
0.0
220
0.0
230
1.0
 70
     8
 71
     3
 72
    10
 73
     6
 74
     0
 42
0.000000001
 43
0.00000001
 40
0.0
 40
0.0
 40
0.0
 40
0.0
 40
0.5
 40
0.5
 40
1.0
 40
1.0
 40
1.0
 40
1.0
 10
256.2049417353329
 20
36.35300734783063
 30
0.0
 10
256.1592576851578
 20
36.39412922505375
 30
0.0
 10
256.0976804316335
 20
36.42485730564341
 30
0.0
 10
255.961077688721
 20
36.45774148734701
 30
0.0
 10
255.8876830322438
 20
36.45988999190137
 30
0.0
 10
255.819254791448
 20
36.45041057555298
 30
0.0
  0
SPLINE
  5
1B6
330
1F
100
AcDbEntity
  8
0
  6
Continuous
 62
     7
370
    15
100
AcDbSpline
210
0.0
220
0.0
230
1.0
 70
     8
 71
     3
 72
     8
 73
     4
 74
     0
 42
0.000000001
 43
0.00000001
 40
0.0
 40
0.0
 40
0.0
 40
0.0
 40
1.0
 40
1.0
 40
1.0
 40
1.0
 10
251.333247734668
 20
37.87701309104952
 30
0.0
 10
251.3600872762962
 20
37.86152492066788
 30
0.0
 10
251.4136943234349
 20
37.83058159419451
 30
0.0
 10
251.4876442106338
 20
37.78789123300444
 30
0.0
  0
LINE
  5
1B7
330
1F
100
AcDbEntity
  8
0
  6
Continuous
 62
     7
370
    15
100
AcDbLine
 10
251.3332477347
 20
37.877013091
 30
0.0
 11
251.3723489103
 21
38.077291605
 31
0.0
  0
SPLINE
  5
1B8
330
1F
100
AcDbEntity
  8
0
  6
Continuous
 62
     7
370
    15
100
AcDbSpline
210
0.0
220
0.0
230
1.0
 70
     8
 71
     3
 72
     8
 73
     4
 74
     0
 42
0.000000001
 43
0.00000001
 40
0.0
 40
0.0
 40
0.0
 40
0.0
 40
1.0
 40
1.0
 40
1.0
 40
1.0
 10
271.0139249392731
 20
27.05353979173707
 30
0.0
 10
270.9690015357301
 20
27.00672872181327
 30
0.0
 10
270.9221620412166
 20
26.97014174552913
 30
0.0
 10
270.8736054047931
 20
26.94421808677838
 30
0.0
  0
SPLINE
  5
1B9
330
1F
100
AcDbEntity
  8
0
  6
Continuous
 62
     7
370
    15
100
AcDbSpline
210
0.0
220
0.0
230
1.0
 70
     8
 71
     3
 72
     8
 73
     4
 74
     0
 42
0.000000001
 43
0.00000001
 40
0.0
 40
0.0
 40
0.0
 40
0.0
 40
1.0
 40
1.0
 40
1.0
 40
1.0
 10
275.3026982407726
 20
33.75450817985853
 30
0.0
 10
275.2948728335634
 20
33.70347820893356
 30
0.0
 10
275.2805668324483
 20
33.65095065720023
 30
0.0
 10
275.259927417429
 20
33.59708745105888
 30
0.0
  0
LINE
  5
1BA
330
1F
100
AcDbEntity
  8
0
  6
Continuous
 62
     7
370
    15
100
AcDbLine
 10
274.4661714966
 20
34.0553129906
 30
0.0
 11
275.2599274174
 21
33.5970874511
 31
0.0
  0
ARC
  5
1BB
330
1F
100
AcDbEntity
  8
0
  6
Continuous
 62
     7
370
    15
100
AcDbCircle
 10
271.191463089
 20
30.6590652764
 30
0.0
 40
3.399755721593121
100
AcDbArc
 50
270.4503592053
 51
329.544264262
  0
SPLINE
  5
1BC
330
1F
100
AcDbEntity
  8
0
  6
Continuous
 62
     7
370
    15
100
AcDbSpline
210
0.0
220
0.0
230
1.0
 70
     8
 71
     3
 72
     8
 73
     4
 74
     0
 42
0.000000001
 43
0.00000001
 40
0.0
 40
0.0
 40
0.0
 40
0.0
 40
1.0
 40
1.0
 40
1.0
 40
1.0
 10
274.4787481670872
 20
29.0537396657027
 30
0.0
 10
274.3589895784547
 20
29.01543820113941
 30
0.0
 10
274.2400514360427
 20
28.97620448745561
 30
0.0
 10
274.1221239350779
 20
28.93582241136057
 30
0.0
  0
SPLINE
  5
1BD
330
1F
100
AcDbEntity
  8
0
  6
Continuous
 62
     7
370
    15
100
AcDbSpline
210
0.0
220
0.0
230
1.0
 70
     8
 71
     3
 72
     8
 73
     4
 74
     0
 42
0.000000001
 43
0.00000001
 40
0.0
 40
0.0
 40
0.0
 40
0.0
 40
1.0
 40
1.0
 40
1.0
 40
1.0
 10
274.7141916506668
 20
29.16134133372602
 30
0.0
 10
274.6383038901415
 20
29.1154247712803
 30
0.0
 10
274.5598361045988
 20
29.07967339455318
 30
0.0
 10
274.4787481670872
 20
29.05373966570271
 30
0.0
  0
SPLINE
  5
1BE
330
1F
100
AcDbEntity
  8
0
  6
Continuous
 62
     7
370
    15
100
AcDbSpline
210
0.0
220
0.0
230
1.0
 70
     8
 71
     3
 72
     8
 73
     4
 74
     0
 42
0.000000001
 43
0.00000001
 40
0.0
 40
0.0
 40
0.0
 40
0.0
 40
1.0
 40
1.0
 40
1.0
 40
1.0
 10
271.2181857469666
 20
27.25941457870801
 30
0.0
 10
271.14822585583
 20
27.19132820498027
 30
0.0
 10
271.0802646863115
 20
27.12266711274162
 30
0.0
 10
271.0139249392731
 20
27.05353979173707
 30
0.0
  0
LINE
  5
1BF
330
1F
100
AcDbEntity
  8
0
  6
Continuous
 62
     7
370
    15
100
AcDbLine
 10
271.3636342837
 20
28.1597883435
 30
0.0
 11
271.6114617381
 21
28.0167205994
 31
0.0
  0
SPLINE
  5
1C0
330
1F
100
AcDbEntity
  8
0
  6
Continuous
 62
     7
370
    15
100
AcDbSpline
210
0.0
220
0.0
230
1.0
 70
     8
 71
     3
 72
    10
 73
     6
 74
     0
 42
0.000000001
 43
0.00000001
 40
0.0
 40
0.0
 40
0.0
 40
0.0
 40
0.5
 40
0.5
 40
1.0
 40
1.0
 40
1.0
 40
1.0
 10
271.6114617381324
 20
28.0167205993869
 30
0.0
 10
271.5425345685653
 20
27.91134996592199
 30
0.0
 10
271.4939210238405
 20
27.80262389319338
 30
0.0
 10
271.422484446245
 20
27.58091162691689
 30
0.0
 10
271.4000019732921
 20
27.46821838140538
 30
0.0
 10
271.3862703543958
 20
27.3564477571676
 30
0.0
  0
LINE
  5
1C1
330
1F
100
AcDbEntity
  8
0
  6
Continuous
 62
     7
370
    15
100
AcDbLine
 10
271.3862703544
 20
27.3564477572
 30
0.0
 11
271.218185747
 21
27.2594145787
 31
0.0
  0
SPLINE
  5
1C2
330
1F
100
AcDbEntity
  8
0
  6
Continuous
 62
     7
370
    15
100
AcDbSpline
210
0.0
220
0.0
230
1.0
 70
     8
 71
     3
 72
    15
 73
    11
 74
     0
 42
0.000000001
 43
0.00000001
 40
0.0
 40
0.0
 40
0.0
 40
0.0
 40
0.1399493580072398
 40
0.2802320306539431
 40
0.4202251584356596
 40
0.5604055702229529
 40
0.6788441088018903
 40
0.797520386209764
 40
0.9591009949640348
 40
1.0
 40
1.0
 40
1.0
 40
1.0
 10
252.9241979763879
 20
33.51663017980639
 30
0.0
 10
252.9205526349547
 20
33.6795891971592
 30
0.0
 10
252.9132532700502
 20
34.00589534815838
 30
0.0
 10
252.8754612896617
 20
34.50893931845324
 30
0.0
 10
252.8415336219806
 20
35.01021592706841
 30
0.0
 10
252.8272433060571
 20
35.4766885168736
 30
0.0
 10
252.8387370457422
 20
35.90375562110962
 30
0.0
 10
252.8666726940848
 20
36.3447947789489
 30
0.0
 10
252.9005771947811
 20
36.69257590617676
 30
0.0
 10
252.9079061520507
 20
36.92095813206294
 30
0.0
 10
252.9093865334811
 20
36.96708922462971
 30
0.0
  0
LINE
  5
1C3
330
1F
100
AcDbEntity
  8
0
  6
Continuous
 62
     7
370
    15
100
AcDbLine
 10
252.9241979764
 20
32.6746711464
 30
0.0
 11
252.9241979764
 21
33.5166301798
 31
0.0
  0
LINE
  5
1C4
330
1F
100
AcDbEntity
  8
0
  6
Continuous
 62
     7
370
    15
100
AcDbLine
 10
254.2567360775
 20
36.189280889
 30
0.0
 11
251.741475938
 21
37.6413096602
 31
0.0
  0
LINE
  5
1C5
330
1F
100
AcDbEntity
  8
0
  6
Continuous
 62
     7
370
    15
100
AcDbLine
 10
251.741475938
 20
37.6413096602
 30
0.0
 11
251.3332477347
 21
37.877013091
 31
0.0
  0
ARC
  5
1C6
330
1F
100
AcDbEntity
  8
0
  6
Continuous
 62
     7
370
    15
100
AcDbCircle
 10
271.1914591377
 20
30.659072121
 30
0.0
 40
3.30836501896545
100
AcDbArc
 50
273.3757825808
 51
326.6188408865
  0
LINE
  5
1C7
330
1F
100
AcDbEntity
  8
0
  6
Continuous
 62
     7
370
    15
100
AcDbLine
 10
274.1221239351
 20
28.9358224114
 30
0.0
 11
273.9540393276
 21
28.8387892329
 31
0.0
  0
SPLINE
  5
1C8
330
1F
100
AcDbEntity
  8
0
  6
Continuous
 62
     7
370
    15
100
AcDbSpline
210
0.0
220
0.0
230
1.0
 70
     8
 71
     3
 72
     8
 73
     4
 74
     0
 42
0.000000001
 43
0.00000001
 40
0.0
 40
0.0
 40
0.0
 40
0.0
 40
1.0
 40
1.0
 40
1.0
 40
1.0
 10
275.259927417429
 20
30.51194497017891
 30
0.0
 10
275.2805668324483
 20
30.45000997746705
 30
0.0
 10
275.2948728335634
 20
30.38549348616803
 30
0.0
 10
275.3026982407726
 20
30.31824947807067
 30
0.0
  0
ARC
  5
1C9
330
1F
100
AcDbEntity
  8
0
  6
Continuous
 62
     7
370
    15
100
AcDbCircle
 10
271.9220378188
 20
32.0545162106
 30
0.0
 40
3.677095729574108
100
AcDbArc
 50
335.1964677926
 51
24.8035322074
  0
ARC
  5
1CA
330
1F
100
AcDbEntity
  8
0
  6
Continuous
 62
     7
370
    15
100
AcDbCircle
 10
270.7321678932
 20
30.9242290771
 30
0.0
 40
3.037558758883248
100
AcDbArc
 50
286.8264591401
 51
313.1681643272
  0
SPLINE
  5
1CB
330
1F
100
AcDbEntity
  8
0
  6
Continuous
 62
     7
370
    15
100
AcDbSpline
210
0.0
220
0.0
230
1.0
 70
     8
 71
     3
 72
    10
 73
     6
 74
     0
 42
0.000000001
 43
0.00000001
 40
0.0
 40
0.0
 40
0.0
 40
0.0
 40
0.5
 40
0.5
 40
1.0
 40
1.0
 40
1.0
 40
1.0
 10
273.9540393276487
 20
28.83878923290109
 30
0.0
 10
273.7589725497086
 20
28.83080263164014
 30
0.0
 10
273.5634911327478
 20
28.81772946204376
 30
0.0
 10
273.1806318137154
 20
28.77655615344457
 30
0.0
 10
272.9926928880234
 20
28.74855290575532
 30
0.0
 10
272.8102892903684
 20
28.70878901420232
 30
0.0
  0
LINE
  5
1CC
330
1F
100
AcDbEntity
  8
0
  6
Continuous
 62
     7
370
    15
100
AcDbLine
 10
274.4661714966
 20
30.9701705097
 30
0.0
 11
275.2599274174
 21
30.5119449702
 31
0.0
  0
LINE
  5
1CD
330
1F
100
AcDbEntity
  8
0
  6
Continuous
 62
     7
370
    15
100
AcDbLine
 10
272.8102892904
 20
28.7087890142
 30
0.0
 11
272.562461836
 21
28.8518567584
 31
0.0
  0
LWPOLYLINE
  5
1CE
330
1F
100
AcDbEntity
  8
0
  6
Continuous
 62
     7
370
    15
100
AcDbPolyline
 90
        3
 70
   128
 43
0.0
 10
252.3319960471
 20
35.9202450629
 10
252.3627427863
 20
36.6154743429
 10
252.4385821381
 20
37.2388788169
  0
ARC
  5
1CF
330
1F
100
AcDbEntity
  8
0
  6
Continuous
 62
     7
370
    15
100
AcDbCircle
 10
257.4220053387
 20
35.7530803624
 30
0.0
 40
5.092753540602851
100
AcDbArc
 50
178.1189836767
 51
207.971879973
  0
LWPOLYLINE
  5
1D0
330
1F
100
AcDbEntity
  8
0
  6
Continuous
 62
     7
370
    15
100
AcDbPolyline
 90
        3
 70
   128
 43
0.0
 10
242.9144636989
 20
52.9245902484
 10
242.916636731
 20
52.9238859777
 10
242.9627500005
 20
52.9080920142
  0
SPLINE
  5
1D1
330
1F
100
AcDbEntity
  8
0
  6
Continuous
 62
     7
370
    15
100
AcDbSpline
210
0.0
220
0.0
230
1.0
 70
     8
 71
     3
 72
     9
 73
     5
 74
     0
 42
0.000000001
 43
0.00000001
 40
0.0
 40
0.0
 40
0.0
 40
0.0
 40
0.6916770441019198
 40
1.0
 40
1.0
 40
1.0
 40
1.0
 10
256.2049417353329
 20
29.8794864909445
 30
0.0
 10
256.3440889247505
 20
29.81830333013825
 30
0.0
 10
256.5452625658365
 20
29.72984707540498
 30
0.0
 10
256.7064095521802
 20
29.70220697620976
 30
0.0
 10
256.7560948673437
 20
29.69368489912457
 30
0.0
  0
SPLINE
  5
1D2
330
1F
100
AcDbEntity
  8
0
  6
Continuous
 62
     7
370
    15
100
AcDbSpline
210
0.0
220
0.0
230
1.0
 70
     8
 71
     3
 72
     8
 73
     4
 74
     0
 42
0.000000001
 43
0.00000001
 40
0.0
 40
0.0
 40
0.0
 40
0.0
 40
1.0
 40
1.0
 40
1.0
 40
1.0
 10
255.1049074907853
 20
29.76460158592936
 30
0.0
 10
255.3185404404336
 20
29.80232570392553
 30
0.0
 10
255.5322012229688
 20
29.84316791023705
 30
0.0
 10
255.7459131725137
 20
29.8871758750077
 30
0.0
  0
SPLINE
  5
1D3
330
1F
100
AcDbEntity
  8
0
  6
Continuous
 62
     7
370
    15
100
AcDbSpline
210
0.0
220
0.0
230
1.0
 70
     8
 71
     3
 72
     8
 73
     4
 74
     0
 42
0.000000001
 43
0.00000001
 40
0.0
 40
0.0
 40
0.0
 40
0.0
 40
1.0
 40
1.0
 40
1.0
 40
1.0
 10
255.7459131725137
 20
29.8871758750077
 30
0.0
 10
255.7703596900014
 20
29.89220994765856
 30
0.0
 10
255.7948068830197
 20
29.89728552130059
 30
0.0
 10
255.8192547914486
 20
29.90240272814695
 30
0.0
  0
ARC
  5
1D4
330
1F
100
AcDbEntity
  8
0
  6
Continuous
 62
     7
370
    15
100
AcDbCircle
 10
257.6234835279
 20
30.8187056994
 30
0.0
 40
4.107674082488725
100
AcDbArc
 50
201.9008660444
 51
263.8340109944
  0
SPLINE
  5
1D5
330
1F
100
AcDbEntity
  8
0
  6
Continuous
 62
     7
370
    15
100
AcDbSpline
210
0.0
220
0.0
230
1.0
 70
     8
 71
     3
 72
     8
 73
     4
 74
     0
 42
0.000000001
 43
0.00000001
 40
0.0
 40
0.0
 40
0.0
 40
0.0
 40
0.0011496337376319
 40
0.0011496337376319
 40
0.0011496337376319
 40
0.0011496337376319
 10
254.2567360775442
 20
29.61612735327771
 30
0.0
 10
254.108696014453
 20
29.50602932122923
 30
0.0
 10
253.9605311823107
 20
29.39617510503143
 30
0.0
 10
253.8122577537846
 20
29.2865358436971
 30
0.0
  0
SPLINE
  5
1D6
330
1F
100
AcDbEntity
  8
0
  6
Continuous
 62
     7
370
    15
100
AcDbSpline
210
0.0
220
0.0
230
1.0
 70
     8
 71
     3
 72
     8
 73
     4
 74
     0
 42
0.000000001
 43
0.00000001
 40
0.0
 40
0.0
 40
0.0
 40
0.0
 40
1.0
 40
1.0
 40
1.0
 40
1.0
 10
254.2567360775442
 20
29.61612735327771
 30
0.0
 10
254.539647567188
 20
29.66524831397121
 30
0.0
 10
254.8223896294675
 20
29.71471350848656
 30
0.0
 10
255.1049074907853
 20
29.76460158592936
 30
0.0
  0
SPLINE
  5
1D7
330
1F
100
AcDbEntity
  8
0
  6
Continuous
 62
     7
370
    15
100
AcDbSpline
210
0.0
220
0.0
230
1.0
 70
     8
 71
     3
 72
    10
 73
     6
 74
     0
 42
0.000000001
 43
0.00000001
 40
0.0
 40
0.0
 40
0.0
 40
0.0
 40
0.5
 40
0.5
 40
1.0
 40
1.0
 40
1.0
 40
1.0
 10
255.8192547914486
 20
29.90240272814695
 30
0.0
 10
255.8877368836554
 20
29.91673675725677
 30
0.0
 10
255.9608090558403
 20
29.92232828437307
 30
0.0
 10
256.0966877854936
 20
29.91430540767889
 30
0.0
 10
256.159176425549
 20
29.90042848341371
 30
0.0
 10
256.204941735333
 20
29.87948649094455
 30
0.0
  0
LINE
  5
1D8
330
1F
100
AcDbEntity
  8
0
  6
Continuous
 62
     7
370
    15
100
AcDbLine
 10
251.741475938
 20
31.0681561245
 30
0.0
 11
254.2567360775
 21
29.6161273533
 31
0.0
  0
LINE
  5
1D9
330
1F
100
AcDbEntity
  8
0
  6
Continuous
 62
     7
370
    15
100
AcDbLine
 10
251.741475938
 20
31.0681561245
 30
0.0
 11
252.712065942
 21
31.6284658074
 31
0.0
  0
LINE
  5
1DA
330
1F
100
AcDbEntity
  8
0
  6
Continuous
 62
     7
370
    15
100
AcDbLine
 10
251.3332477347
 20
30.8324526937
 30
0.0
 11
251.741475938
 21
31.0681561245
 31
0.0
  0
LINE
  5
1DB
330
1F
100
AcDbEntity
  8
0
  6
Continuous
 62
     7
370
    15
100
AcDbLine
 10
253.8122577538
 20
29.2865358437
 30
0.0
 11
251.4876442106
 21
30.6285066775
 31
0.0
  0
SPLINE
  5
1DC
330
1F
100
AcDbEntity
  8
0
  6
Continuous
 62
     7
370
    15
100
AcDbSpline
210
0.0
220
0.0
230
1.0
 70
     8
 71
     3
 72
     8
 73
     4
 74
     0
 42
0.000000001
 43
0.00000001
 40
0.0
 40
0.0
 40
0.0
 40
0.0
 40
1.0
 40
1.0
 40
1.0
 40
1.0
 10
251.4876442106338
 20
30.62850667750568
 30
0.0
 10
251.4136921992765
 20
30.67119826494629
 30
0.0
 10
251.3600890724425
 20
30.74352287326827
 30
0.0
 10
251.3332477346667
 20
30.83245269373074
 30
0.0
  0
ELLIPSE
  5
1DD
330
1F
100
AcDbEntity
  8
0
  6
Continuous
 62
     7
370
    15
100
AcDbEllipse
 10
252.477751367
 20
32.4169653818
 30
0.0
 11
-6.005970382716441E-5
 21
0.8534489614827264
 31
0.0
210
0.0
220
0.0
230
1.0
 40
0.7174342186
 41
3.534193645557502
 42
5.104989972352385
  0
ELLIPSE
  5
1DE
330
1F
100
AcDbEntity
  8
0
  6
Continuous
 62
     7
370
    15
100
AcDbEllipse
 10
252.3585125514
 20
32.3481079017
 30
0.0
 11
0.2600075789209199
 21
0.9705436209909308
 31
0.0
210
0.0
220
0.0
230
1.0
 40
0.5176380889
 41
3.619174351347715
 42
5.189970678142601
  0
LWPOLYLINE
  5
1DF
330
1F
100
AcDbEntity
  8
0
  6
Continuous
 62
     7
370
     0
100
AcDbPolyline
 90
       28
 70
   128
 43
0.0
 10
261.1266366382
 20
32.0167937782
 10
261.1577144583
 20
32.6508995372
 10
261.2505276444
 20
33.3123117909
 10
261.4038210573
 20
33.9920860732
 10
261.6155216668
 20
34.6810296032
 10
261.882766585
 20
35.3698256014
 10
262.2019417831
 20
36.0491592836
 10
262.568730964
 20
36.7098438271
 10
262.9781739332
 20
37.3429446069
 10
263.424733677
 20
37.939900021
 10
263.9023712409
 20
38.4926372715
 10
264.4046273962
 20
38.9936815353
 10
264.9247099901
 20
39.4362570482
 10
265.4555857976
 20
39.8143787356
 10
265.9900756342
 20
40.1229331505
 10
266.5209514417
 20
40.3577476237
 10
267.0410340355
 20
40.5156466922
 10
267.5432901908
 20
40.594495042
 10
268.0209277547
 20
40.5932263844
 10
268.4674874985
 20
40.511857876
 10
268.8769304677
 20
40.351489886
 10
269.2437196486
 20
40.1142911166
 10
269.5628948467
 20
39.8034692741
 10
269.830139765
 20
39.4232276908
 10
270.0418403744
 20
38.9787084817
 10
270.1951337874
 20
38.4759230067
 10
270.2879469735
 20
37.9216705767
 10
270.2994522638
 20
37.8014390646
  0
LWPOLYLINE
  5
1E0
330
1F
100
AcDbEntity
  8
0
  6
Continuous
 62
     7
370
     0
100
AcDbPolyline
 90
       14
 70
   128
 43
0.0
 10
265.2998586006
 20
29.1409504408
 10
264.9247099901
 20
28.9824926596
 10
264.4046273962
 20
28.8245935911
 10
263.9023712409
 20
28.7457452413
 10
263.424733677
 20
28.7470138989
 10
262.9781739332
 20
28.8283824074
 10
262.568730964
 20
28.9887503973
 10
262.2019417831
 20
29.2259491667
 10
261.882766585
 20
29.5367710092
 10
261.6155216668
 20
29.9170125925
 10
261.4038210573
 20
30.3615318016
 10
261.2505276444
 20
30.8643172766
 10
261.1577144583
 20
31.4185697066
 10
261.1266366382
 20
32.0167937782
  0
ARC
  5
1E1
330
1F
100
AcDbEntity
  8
0
  6
Continuous
 62
     7
370
     0
100
AcDbCircle
 10
265.6177101646
 20
31.7100488987
 30
0.0
 40
2.389523502529333
100
AcDbArc
 50
172.6245467544
 51
236.0632728522
  0
LWPOLYLINE
  5
1E2
330
1F
100
AcDbEntity
  8
0
  6
Continuous
 62
     7
370
     0
100
AcDbPolyline
 90
       19
 70
   128
 43
0.0
 10
269.2832877192
 20
38.3880583697
 10
268.9357875605
 20
38.5393353828
 10
268.5512578406
 20
38.6140496292
 10
268.136481138
 20
38.6108054217
 10
267.6985543971
 20
38.5296582697
 10
267.2449706659
 20
38.3719966234
 10
266.7834908876
 20
38.1405181172
 10
266.3220111094
 20
37.8391834127
 10
265.8684273782
 20
37.4731484301
 10
265.4305006373
 20
37.0486761295
 10
265.0157239347
 20
36.5730293496
 10
264.6311942148
 20
36.0543465387
 10
264.2834908876
 20
35.5015025036
 10
263.9785632537
 20
34.9239565588
 10
263.7216287092
 20
34.3315906758
 10
263.5170834755
 20
33.7345403989
 10
263.3684273782
 20
33.1430214239
 10
263.2782039644
 20
32.5671548045
 10
263.2479569817
 20
32.0167937782
  0
LWPOLYLINE
  5
1E3
330
1F
100
AcDbEntity
  8
0
  6
Continuous
 62
     7
370
     0
100
AcDbPolyline
 90
       19
 70
   128
 43
0.0
 10
255.8192547914
 20
36.4504105756
 10
256.1176820691
 20
37.2947091942
 10
256.4701800014
 20
38.134345105
 10
256.8735436966
 20
38.9616843849
 10
257.3241057945
 20
39.7692049112
 10
257.8177698094
 20
40.549564752
 10
258.3500473756
 20
41.2956689191
 10
258.916099055
 20
42.0007338748
 10
259.5107783372
 20
42.6583492078
 10
260.1286784312
 20
43.2625359158
 10
260.7641814236
 20
43.8078007669
 10
261.4115093566
 20
44.2891862435
 10
262.0647767606
 20
44.7023156155
 10
262.7180441645
 20
45.0434327335
 10
263.3653720975
 20
45.3094361798
 10
264.00087509
 20
45.4979074657
 10
264.618775184
 20
45.6071330208
 10
265.2134544662
 20
45.6361197723
 10
265.5585298652
 20
45.6146796978
  0
LWPOLYLINE
  5
1E4
330
1F
100
AcDbEntity
  8
0
  6
Continuous
 62
     7
370
     0
100
AcDbPolyline
 90
       24
 70
   128
 43
0.0
 10
251.4876442106
 20
37.787891233
 10
251.7868691261
 20
38.7045997552
 10
252.1411789769
 20
39.6201136915
 10
252.5478699772
 20
40.5274466326
 10
253.0038386135
 20
41.4196745996
 10
253.5056053282
 20
42.2899888816
 10
254.0493410726
 20
43.131747994
 10
254.6308965264
 20
43.9385283604
 10
255.2458337622
 20
44.704173332
 10
255.8894601117
 20
45.4228401697
 10
256.5568639764
 20
46.0890446308
 10
257.2429523079
 20
46.69770282
 10
257.9424894747
 20
47.2441699853
 10
258.6501372149
 20
47.7242759626
 10
259.3604953742
 20
48.1343569992
 10
260.0681431145
 20
48.4712837117
 10
260.7676802813
 20
48.7324849675
 10
261.4537686128
 20
48.9159675047
 10
262.1211724775
 20
49.0203311437
 10
262.764798827
 20
49.0447794715
 10
263.3797360628
 20
48.9891259198
 10
263.9612915166
 20
48.8537951881
 10
264.5050272609
 20
48.6398200034
 10
264.7144194581
 20
48.5306341714
  0
LWPOLYLINE
  5
1E5
330
1F
100
AcDbEntity
  8
0
  6
Continuous
 62
     7
370
     0
100
AcDbPolyline
 90
       17
 70
   128
 43
0.0
 10
256.2049417353
 20
36.3530073478
 10
256.4984528555
 20
37.1767604329
 10
256.8444048823
 20
37.9956739781
 10
257.2396759458
 20
38.8023581105
 10
257.6806991213
 20
39.5895333152
 10
258.1634946171
 20
40.3500961258
 10
258.6837056883
 20
41.0771832261
 10
259.2366379521
 20
41.7642333847
 10
259.8173017494
 20
42.4050466632
 10
260.4204571724
 20
42.9938403648
 10
261.0406613483
 20
43.5253012172
 10
261.672317557
 20
43.9946333194
 10
262.3097257349
 20
44.3976014202
 10
262.9471339127
 20
44.7305691367
 10
263.5787901214
 20
44.9905317695
 10
264.1989942973
 20
45.1751434167
 10
264.7910688732
 20
45.2814407319
  0
LINE
  5
1E6
330
1F
100
AcDbEntity
  8
0
  6
Continuous
 62
     7
370
     0
100
AcDbLine
 10
270.274017911
 20
27.4806790272
 30
0.0
 11
271.0139249393
 21
27.0535397917
 31
0.0
  0
LINE
  5
1E7
330
1F
100
AcDbEntity
  8
0
  6
Continuous
 62
     7
370
     0
100
AcDbLine
 10
256.6173566526
 20
35.9068095496
 30
0.0
 11
256.4749026223
 21
36.0293597008
 31
0.0
  0
LINE
  5
1E8
330
1F
100
AcDbEntity
  8
0
  6
Continuous
 62
     7
370
     0
100
AcDbLine
 10
256.0885008222
 20
36.252338816
 30
0.0
 11
255.7598535133
 21
36.442062869
 31
0.0
  0
ARC
  5
1E9
330
1F
100
AcDbEntity
  8
0
  6
Continuous
 62
     7
370
     0
100
AcDbCircle
 10
254.4769104941
 20
33.4647241705
 30
0.0
 40
3.219940806508951
100
AcDbArc
 50
56.2191255253
 51
59.9667101493
  0
SPLINE
  5
1EA
330
1F
100
AcDbEntity
  8
0
  6
Continuous
 62
     7
370
     0
100
AcDbSpline
210
0.0
220
0.0
230
1.0
 70
     8
 71
     3
 72
     8
 73
     4
 74
     0
 42
0.000000001
 43
0.00000001
 40
0.0
 40
0.0
 40
0.0
 40
0.0
 40
1.0
 40
1.0
 40
1.0
 40
1.0
 10
256.3767743389183
 20
36.07728371427422
 30
0.0
 10
256.3402567515776
 20
36.09539780076463
 30
0.0
 10
256.3037507378351
 20
36.11666125923214
 30
0.0
 10
256.2672561825033
 20
36.14104274524527
 30
0.0
  0
SPLINE
  5
1EB
330
1F
100
AcDbEntity
  8
0
  6
Continuous
 62
     7
370
     0
100
AcDbSpline
210
0.0
220
0.0
230
1.0
 70
     8
 71
     3
 72
    12
 73
     8
 74
     0
 42
0.000000001
 43
0.00000001
 40
0.0
 40
0.0
 40
0.0
 40
0.0
 40
0.2499999999999956
 40
0.2499999999999956
 40
0.4999999999999912
 40
0.4999999999999912
 40
1.0
 40
1.0
 40
1.0
 40
1.0
 10
256.4749026223384
 20
36.02935970083512
 30
0.0
 10
256.4665444399416
 20
36.03616618001421
 30
0.0
 10
256.4584199626767
 20
36.03933719267545
 30
0.0
 10
256.442087231227
 20
36.04698243365689
 30
0.0
 10
256.4339331715439
 20
36.05061362402081
 30
0.0
 10
256.409461882189
 20
36.06164891306013
 30
0.0
 10
256.3931371943219
 20
36.06916712718303
 30
0.0
 10
256.3767743389183
 20
36.07728371427423
 30
0.0
  0
SPLINE
  5
1EC
330
1F
100
AcDbEntity
  8
0
  6
Continuous
 62
     7
370
     0
100
AcDbSpline
210
0.0
220
0.0
230
1.0
 70
     8
 71
     3
 72
    10
 73
     6
 74
     0
 42
0.000000001
 43
0.00000001
 40
0.0
 40
0.0
 40
0.0
 40
0.0
 40
0.0381110146236029
 40
0.9108191192085034
 40
1.0
 40
1.0
 40
1.0
 40
1.0
 10
256.4749026223384
 20
30.76249967223296
 30
0.0
 10
256.480179265423
 20
30.76072634344197
 30
0.0
 10
256.6062863096502
 20
30.71834537344108
 30
0.0
 10
256.7456778725094
 20
30.67811795372427
 30
0.0
 10
256.8675734848938
 20
30.67768725365433
 30
0.0
 10
256.8788749534025
 20
30.6776473215913
 30
0.0
  0
SPLINE
  5
1ED
330
1F
100
AcDbEntity
  8
0
  6
Continuous
 62
     7
370
     0
100
AcDbSpline
210
0.0
220
0.0
230
1.0
 70
     8
 71
     3
 72
    12
 73
     8
 74
     0
 42
0.000000001
 43
0.00000001
 40
0.0
 40
0.0
 40
0.0
 40
0.0
 40
0.5
 40
0.5
 40
0.75
 40
0.75
 40
1.0
 40
1.0
 40
1.0
 40
1.0
 10
256.3767743389183
 20
30.82787216324722
 30
0.0
 10
256.3931373561226
 20
30.81709649306821
 30
0.0
 10
256.4094619484936
 20
30.80576668408245
 30
0.0
 10
256.4339333049228
 20
30.78854797602179
 30
0.0
 10
256.4420873910173
 20
30.78276467075324
 30
0.0
 10
256.4584201429266
 20
30.77155253350198
 30
0.0
 10
256.4665446916892
 20
30.76534325938922
 30
0.0
 10
256.4749026223384
 20
30.76249967223328
 30
0.0
  0
SPLINE
  5
1EE
330
1F
100
AcDbEntity
  8
0
  6
Continuous
 62
     7
370
     0
100
AcDbSpline
210
0.0
220
0.0
230
1.0
 70
     8
 71
     3
 72
    11
 73
     7
 74
     0
 42
0.000000001
 43
0.00000001
 40
0.0
 40
0.0
 40
0.0
 40
0.0
 40
0.000121716006687
 40
0.000121716006687
 40
0.000121716006687
 40
0.0003100832903278
 40
0.0003100832903278
 40
0.0003100832903278
 40
0.0003100832903278
 10
256.2672561825033
 20
30.89056010417334
 30
0.0
 10
256.2815564138425
 20
30.88360318679778
 30
0.0
 10
256.2958954452889
 20
30.87614361994943
 30
0.0
 10
256.3102368756533
 20
30.86819975914889
 30
0.0
 10
256.3324183822364
 20
30.85591320221807
 30
0.0
 10
256.354643002273
 20
30.84244649152255
 30
0.0
 10
256.3767743389183
 20
30.82787216324724
 30
0.0
  0
ARC
  5
1EF
330
1F
100
AcDbEntity
  8
0
  6
Continuous
 62
     7
370
     0
100
AcDbCircle
 10
257.5214814357
 20
33.4638706827
 30
0.0
 40
2.862692494712159
100
AcDbArc
 50
239.9622210953
 51
244.0155097316
  0
LINE
  5
1F0
330
1F
100
AcDbEntity
  8
0
  6
Continuous
 62
     7
370
     0
100
AcDbLine
 10
253.0434367919
 20
32.7435286265
 30
0.0
 11
256.0885008222
 21
30.9856505794
 31
0.0
  0
LINE
  5
1F1
330
1F
100
AcDbEntity
  8
0
  6
Continuous
 62
     7
370
     0
100
AcDbLine
 10
252.9241979764
 20
32.6746711464
 30
0.0
 11
253.0434367919
 21
32.7435286265
 31
0.0
  0
LINE
  5
1F2
330
1F
100
AcDbEntity
  8
0
  6
Continuous
 62
     7
370
     0
100
AcDbLine
 10
256.359975562
 20
36.1951262188
 30
0.0
 11
256.3767743389
 21
36.0772837143
 31
0.0
  0
LWPOLYLINE
  5
1F3
330
1F
100
AcDbEntity
  8
0
  6
Continuous
 62
     7
370
     0
100
AcDbPolyline
 90
        3
 70
   128
 43
0.0
 10
256.2554839293
 20
36.3097658082
 10
256.2650374717
 20
36.2568211745
 10
256.2672561825
 20
36.1410427452
  0
LWPOLYLINE
  5
1F4
330
1F
100
AcDbEntity
  8
0
  6
Continuous
 62
     7
370
     0
100
AcDbPolyline
 90
        3
 70
   128
 43
0.0
 10
256.0620258843
 20
36.434556957
 10
256.0776313354
 20
36.3735033628
 10
256.0885008222
 20
36.252338816
  0
LWPOLYLINE
  5
1F5
330
1F
100
AcDbEntity
  8
0
  6
Continuous
 62
     7
370
     0
100
AcDbPolyline
 90
        3
 70
   128
 43
0.0
 10
252.6855494377
 20
35.7161430349
 10
252.7162961769
 20
36.411372315
 10
252.7921355287
 20
37.0347767889
  0
ARC
  5
1F6
330
1F
100
AcDbEntity
  8
0
  6
Continuous
 62
     7
370
     0
100
AcDbCircle
 10
258.621688308
 20
35.6479101966
 30
0.0
 40
5.936531007895796
100
AcDbArc
 50
179.3414437257
 51
195.4112244674
  0
LINE
  5
1F7
330
1F
100
AcDbEntity
  8
0
  6
Continuous
 62
     7
370
     0
100
AcDbLine
 10
273.6954596737
 20
29.5059224879
 30
0.0
 11
274.4787481671
 21
29.0537396657
 31
0.0
  0
LWPOLYLINE
  5
1F8
330
1F
100
AcDbEntity
  8
0
  6
Continuous
 62
     7
370
     0
100
AcDbPolyline
 90
       17
 70
   128
 43
0.0
 10
237.8447165116
 20
47.1393442131
 10
237.8752672053
 20
47.6614912913
 10
237.966324652
 20
48.2087484507
 10
238.1161165221
 20
48.7704639532
 10
238.3217272872
 20
49.3357046456
 10
238.5791549676
 20
49.8934687607
 10
238.8833890263
 20
50.4329000543
 10
239.2285078935
 20
50.9434991101
 10
239.607794223
 20
51.4153276982
 10
240.0138656378
 20
51.8392022118
 10
240.4388184197
 20
52.2068724156
 10
240.8743813462
 20
52.5111820274
 10
241.3120766803
 20
52.7462080067
 10
241.7433851804
 20
52.9073758401
 10
242.1599119169
 20
52.9915485792
 10
242.5535496708
 20
52.9970878972
 10
242.9144636989
 20
52.9245902484
  0
ARC
  5
1F9
330
1F
100
AcDbEntity
  8
0
  6
Continuous
 62
     7
370
     0
100
AcDbCircle
 10
240.2661156543
 20
46.9729713138
 30
0.0
 40
2.427108104336924
100
AcDbArc
 50
176.0694185984
 51
224.9117477784
  0
ARC
  5
1FA
330
1F
100
AcDbEntity
  8
0
  6
Continuous
 62
     7
370
     0
100
AcDbCircle
 10
255.3796599226
 20
30.6145710892
 30
0.0
 40
1.105187512130568
100
AcDbArc
 50
318.3083095737
 51
7.6920861831
  0
LWPOLYLINE
  5
1FB
330
1F
100
AcDbEntity
  8
0
  6
Continuous
 62
     7
370
     0
100
AcDbPolyline
 90
        3
 70
   128
 43
0.0
 10
256.5646577805
 20
29.3038721993
 10
256.4984528555
 20
29.394614132
 10
256.2049417353
 20
29.8794864909
  0
LWPOLYLINE
  5
1FC
330
1F
100
AcDbEntity
  8
0
  6
Continuous
 62
     7
370
     0
100
AcDbPolyline
 90
        3
 70
   128
 43
0.0
 10
256.4202784788
 20
29.0235503419
 10
256.1176820691
 20
29.4026609102
 10
255.8192547914
 20
29.9024027281
  0
ARC
  5
1FD
330
1F
100
AcDbEntity
  8
0
  6
Continuous
 62
     7
370
     0
100
AcDbCircle
 10
255.0630149392
 20
30.9886399637
 30
0.0
 40
1.323559611765308
100
AcDbArc
 50
304.8456886156
 51
353.0232693864
  0
LINE
  5
1FE
330
1F
100
AcDbEntity
  8
0
  6
Continuous
 62
     7
370
     0
100
AcDbLine
 10
255.5228153972
 20
30.0058546851
 30
0.0
 11
252.712065942
 21
31.6284658074
 31
0.0
  0
LINE
  5
1FF
330
1F
100
AcDbEntity
  8
0
  6
Continuous
 62
     7
370
     0
100
AcDbLine
 10
255.1049074908
 20
29.7646015859
 30
0.0
 11
255.5228153972
 21
30.0058546851
 31
0.0
  0
ARC
  5
200
330
1F
100
AcDbEntity
  8
0
  6
Continuous
 62
     7
370
     0
100
AcDbCircle
 10
255.1146984043
 20
30.8522783769
 30
0.0
 40
1.153193358754029
100
AcDbArc
 50
303.1862550559
 51
1.9023561302
  0
ARC
  5
201
330
1F
100
AcDbEntity
  8
0
  6
Continuous
 62
     7
370
     0
100
AcDbCircle
 10
257.3112640699
 20
33.0988270621
 30
0.0
 40
3.57281776467243
100
AcDbArc
 50
239.9622210953
 51
244.0155097316
  0
ARC
  5
202
330
1F
100
AcDbEntity
  8
0
  6
Continuous
 62
     7
370
     0
100
AcDbCircle
 10
254.8603279411
 20
31.0415392612
 30
0.0
 40
1.229443846057907
100
AcDbArc
 50
302.60547834
 51
357.3945215143
  0
ARC
  5
203
330
1F
100
AcDbEntity
  8
0
  6
Continuous
 62
     7
370
     0
100
AcDbCircle
 10
255.5009874864
 20
32.3207394259
 30
0.0
 40
4.355522462737492
100
AcDbArc
 50
202.8627999871
 51
238.9701612235
  0
OLE2FRAME
  5
204
330
1F
100
AcDbEntity
  8
0
100
AcDbOle2Frame
 70
     2
  3
Paintbrush-Bild
 10
13.8511154363
 20
38.264191557
 30
0.0
 11
51.6290888628
 21
31.9806341108
 31
0.0
 71
     2
 72
     0
 73
     1
 90
    12928
310
80552BED0767C5B32B40DDAF6807D121434000000000000000006FFBDDFB85D0
310
4940DDAF6807D121434000000000000000006FFBDDFB85D04940416F4BD60AFB
310
3F4000000000000000002BED0767C5B32B40416F4BD60AFB3F40000000000000
310
0000000000000100000000010000010000000100000000000100000000320000
310
D0CF11E0A1B11AE1000000000000000000000000000000003E000300FEFF0900
310
0600000000000000000000000100000001000000000000000010000002000000
310
01000000FEFFFFFF0000000000000000FFFFFFFFFFFFFFFFFFFFFFFFFFFFFFFF
310
FFFFFFFFFFFFFFFFFFFFFFFFFFFFFFFFFFFFFFFFFFFFFFFFFFFFFFFFFFFFFFFF
310
FFFFFFFFFFFFFFFFFFFFFFFFFFFFFFFFFFFFFFFFFFFFFFFFFFFFFFFFFFFFFFFF
310
FFFFFFFFFFFFFFFFFFFFFFFFFFFFFFFFFFFFFFFFFFFFFFFFFFFFFFFFFFFFFFFF
310
FFFFFFFFFFFFFFFFFFFFFFFFFFFFFFFFFFFFFFFFFFFFFFFFFFFFFFFFFFFFFFFF
310
FFFFFFFFFFFFFFFFFFFFFFFFFFFFFFFFFFFFFFFFFFFFFFFFFFFFFFFFFFFFFFFF
310
FFFFFFFFFFFFFFFFFFFFFFFFFFFFFFFFFFFFFFFFFFFFFFFFFFFFFFFFFFFFFFFF
310
FFFFFFFFFFFFFFFFFFFFFFFFFFFFFFFFFFFFFFFFFFFFFFFFFFFFFFFFFFFFFFFF
310
FFFFFFFFFFFFFFFFFFFFFFFFFFFFFFFFFFFFFFFFFFFFFFFFFFFFFFFFFFFFFFFF
310
FFFFFFFFFFFFFFFFFFFFFFFFFFFFFFFFFFFFFFFFFFFFFFFFFFFFFFFFFFFFFFFF
310
FFFFFFFFFFFFFFFFFFFFFFFFFFFFFFFFFFFFFFFFFFFFFFFFFFFFFFFFFFFFFFFF
310
FFFFFFFFFFFFFFFFFFFFFFFFFFFFFFFFFFFFFFFFFFFFFFFFFFFFFFFFFFFFFFFF
310
FFFFFFFFFFFFFFFFFFFFFFFFFFFFFFFFFFFFFFFFFFFFFFFFFFFFFFFFFFFFFFFF
310
FFFFFFFFFFFFFFFFFFFFFFFFFFFFFFFFFFFFFFFFFFFFFFFFFFFFFFFFFFFFFFFF
310
FDFFFFFFFEFFFFFFFEFFFFFFFEFFFFFF05000000060000000700000008000000
310
090000000A0000000B0000000C0000000D0000000E0000000F00000010000000
310
11000000120000001300000014000000150000001600000017000000FEFFFFFF
310
FFFFFFFFFFFFFFFFFFFFFFFFFFFFFFFFFFFFFFFFFFFFFFFFFFFFFFFFFFFFFFFF
310
FFFFFFFFFFFFFFFFFFFFFFFFFFFFFFFFFFFFFFFFFFFFFFFFFFFFFFFFFFFFFFFF
310
FFFFFFFFFFFFFFFFFFFFFFFFFFFFFFFFFFFFFFFFFFFFFFFFFFFFFFFFFFFFFFFF
310
FFFFFFFFFFFFFFFFFFFFFFFFFFFFFFFFFFFFFFFFFFFFFFFFFFFFFFFFFFFFFFFF
310
FFFFFFFFFFFFFFFFFFFFFFFFFFFFFFFFFFFFFFFFFFFFFFFFFFFFFFFFFFFFFFFF
310
FFFFFFFFFFFFFFFFFFFFFFFFFFFFFFFFFFFFFFFFFFFFFFFFFFFFFFFFFFFFFFFF
310
FFFFFFFFFFFFFFFFFFFFFFFFFFFFFFFFFFFFFFFFFFFFFFFFFFFFFFFFFFFFFFFF
310
FFFFFFFFFFFFFFFFFFFFFFFFFFFFFFFFFFFFFFFFFFFFFFFFFFFFFFFFFFFFFFFF
310
FFFFFFFFFFFFFFFFFFFFFFFFFFFFFFFFFFFFFFFFFFFFFFFFFFFFFFFFFFFFFFFF
310
FFFFFFFFFFFFFFFFFFFFFFFFFFFFFFFFFFFFFFFFFFFFFFFFFFFFFFFFFFFFFFFF
310
FFFFFFFFFFFFFFFFFFFFFFFFFFFFFFFFFFFFFFFFFFFFFFFFFFFFFFFFFFFFFFFF
310
FFFFFFFFFFFFFFFFFFFFFFFFFFFFFFFFFFFFFFFFFFFFFFFFFFFFFFFFFFFFFFFF
310
FFFFFFFFFFFFFFFFFFFFFFFFFFFFFFFFFFFFFFFFFFFFFFFFFFFFFFFFFFFFFFFF
310
52006F006F007400200045006E00740072007900000000000000000000000000
310
0000000000000000000000000000000000000000000000000000000000000000
310
16000500FFFFFFFFFFFFFFFF020000000A00030000000000C000000000000046
310
000000000000000000000000F02EB67F6215D20103000000C000000000000000
310
01004F006C006500000000000000000000000000000000000000000000000000
310
0000000000000000000000000000000000000000000000000000000000000000
310
0A000200FFFFFFFFFFFFFFFFFFFFFFFF00000000000000000000000000000000
310
0000000000000000000000000000000000000000000000001400000000000000
310
010043006F006D0070004F0062006A0000000000000000000000000000000000
310
0000000000000000000000000000000000000000000000000000000000000000
310
120002010100000003000000FFFFFFFF00000000000000000000000000000000
310
0000000000000000000000000000000000000000010000004D00000000000000
310
01004F006C006500310030004E00610074006900760065000000000000000000
310
0000000000000000000000000000000000000000000000000000000000000000
310
1A000200FFFFFFFFFFFFFFFFFFFFFFFF00000000000000000000000000000000
310
0000000000000000000000000000000000000000040000002426000000000000
310
FEFFFFFF02000000FEFFFFFFFFFFFFFFFFFFFFFFFFFFFFFFFFFFFFFFFFFFFFFF
310
FFFFFFFFFFFFFFFFFFFFFFFFFFFFFFFFFFFFFFFFFFFFFFFFFFFFFFFFFFFFFFFF
310
FFFFFFFFFFFFFFFFFFFFFFFFFFFFFFFFFFFFFFFFFFFFFFFFFFFFFFFFFFFFFFFF
310
FFFFFFFFFFFFFFFFFFFFFFFFFFFFFFFFFFFFFFFFFFFFFFFFFFFFFFFFFFFFFFFF
310
FFFFFFFFFFFFFFFFFFFFFFFFFFFFFFFFFFFFFFFFFFFFFFFFFFFFFFFFFFFFFFFF
310
FFFFFFFFFFFFFFFFFFFFFFFFFFFFFFFFFFFFFFFFFFFFFFFFFFFFFFFFFFFFFFFF
310
FFFFFFFFFFFFFFFFFFFFFFFFFFFFFFFFFFFFFFFFFFFFFFFFFFFFFFFFFFFFFFFF
310
FFFFFFFFFFFFFFFFFFFFFFFFFFFFFFFFFFFFFFFFFFFFFFFFFFFFFFFFFFFFFFFF
310
FFFFFFFFFFFFFFFFFFFFFFFFFFFFFFFFFFFFFFFFFFFFFFFFFFFFFFFFFFFFFFFF
310
FFFFFFFFFFFFFFFFFFFFFFFFFFFFFFFFFFFFFFFFFFFFFFFFFFFFFFFFFFFFFFFF
310
FFFFFFFFFFFFFFFFFFFFFFFFFFFFFFFFFFFFFFFFFFFFFFFFFFFFFFFFFFFFFFFF
310
FFFFFFFFFFFFFFFFFFFFFFFFFFFFFFFFFFFFFFFFFFFFFFFFFFFFFFFFFFFFFFFF
310
FFFFFFFFFFFFFFFFFFFFFFFFFFFFFFFFFFFFFFFFFFFFFFFFFFFFFFFFFFFFFFFF
310
FFFFFFFFFFFFFFFFFFFFFFFFFFFFFFFFFFFFFFFFFFFFFFFFFFFFFFFFFFFFFFFF
310
FFFFFFFFFFFFFFFFFFFFFFFFFFFFFFFFFFFFFFFFFFFFFFFFFFFFFFFFFFFFFFFF
310
FFFFFFFFFFFFFFFFFFFFFFFFFFFFFFFFFFFFFFFFFFFFFFFFFFFFFFFFFFFFFFFF
310
0100000200000000000000000000000000000000000000000000000000000000
310
0000000000000000000000000000000000000000000000000000000000000000
310
0100FEFF030A0000FFFFFFFF0A00030000000000C00000000000004607000000
310
5042727573680007000000504272757368000700000050427275736800F439B2
310
7100000000000000000000000000000000000000000000000000000000000000
310
0000000000000000000000000000000000000000000000000000000000000000
310
0000000000000000000000000000000000000000000000000000000000000000
310
0000000000000000000000000000000000000000000000000000000000000000
310
0000000000000000000000000000000000000000000000000000000000000000
310
0000000000000000000000000000000000000000000000000000000000000000
310
0000000000000000000000000000000000000000000000000000000000000000
310
0000000000000000000000000000000000000000000000000000000000000000
310
0000000000000000000000000000000000000000000000000000000000000000
310
0000000000000000000000000000000000000000000000000000000000000000
310
0000000000000000000000000000000000000000000000000000000000000000
310
0000000000000000000000000000000000000000000000000000000000000000
310
20260000424D0E260000000000003E00000028000000B40200006E0000000100
310
01000000000000000000130B0000130B00000200000002000000000000FFFFFF
310
FFFFFFFFFFFFFFFFFFFFFFFFFFFFFFFFFFFFFFFFFFFFFFFFFFFFFFFFFFFFFFFF
310
FFFFFFFFFFFFFFFFFFFFFFFFFFFFFFFFFFFFFFFFFFFFFFFFFFFFFFFFFFFFFFFF
310
FFFFFFFFFFFFFFFFFFFFFFFFFFFFFFFFFFFFFFFFFFFFFFFFF000FFFFFFFFFFFF
310
FFFFFFFFFFFFFFFFFFFFFFFFFFFFFFFFFFFFFFFFFFFFFFFFFFFFFFFFFFFFFFFF
310
FFFFFFFFFFFFFFFFFFFFFFFFFFFFFFFFFFFFFFFFFFFFFFFFFFFFFFFFFFFFFFFF
310
FFFFFFFFFFFFFFFFFFFFFFFFFFFFFFFFF000FFFFFFFFFFFFFFFFFFFFFFFFFFFF
310
FFFFFFFFFFFFFFFFFFFFFFFFFFFFFFFFFFFFFFFFFFFFFFFFFFFFFFFFFFFFFFFF
310
FFFFFFFFFFFFFFFFFFFFFFFFFFFFFFFFFFFFFFFFFFFFFFFFFFFFFFFFFFFFFFFF
310
FFFFFFFFFFFFFFFFF000FFFFFFFFFFFFFFFFFFFFFFFFFFFFFFFFFFFFFFFFFFFF
310
FFFFFFFFFFFFFFFFFFFFFFFFFFFFFFFFFFFFFFFFFFFFFFFFFFFFFFFFFFFFFFFF
310
FFFFFFFFFFFFFFFFFFFFFFFFFFFFFFFFFFFFFFFFFFFFFFFFFFFFFFFFFFFFFFFF
310
F000FFFFFFFFFFFFFFFFFFFFFFFFFFFFFFFFFFFFFFFFFFFFFFFFFFFFFFFFFFFF
310
FFFFFFFFFFFFFFFFFFFFFFFFFFFFFFFFFFFFFFFFFFFFFFFFFFFFFFFFFFFFFFFF
310
FFFFFFFFFFFFFFFFFFFFFFFFFFFFFFFFFFFFFFFFFFFFFFFFF000FFFFFFFFFFFF
310
FFFFFFFFFFFFFFFFFFFFFFFFFFFFFFFFFFFFFFFFFFFFFFFFFFFFFFFFFFFFFFFF
310
FFFFFFFFFFFFFFFFFFFFFFFFFFFFFFFFFFFFFFFFFFFFFFFFFFFFFFFFFFFFFFFF
310
FFFFFFFFFFFFFFFFFFFFFFFFFFFFFFFFF000FFFFFFFFFFFFFFFFFFFFFFFFFFFF
310
FFFFFFFFFFFFFFFFFFFFFFFFFFFFFFFFFFFFFFFFFFFFFFFFFFFFFFFFFFFFFFFF
310
FFFFFFFFFFFFFFFFFFFFFFFFFFFFFFFFFFFFFFFFFFFFFFFFFFFFFFFFFFFFFFFF
310
FFFFFFFFFFFFFFFFF000FFFFFFFFFFFFFFFFFFFFFFFFFFFFFFFFFFFFFFFFFFFF
310
FFFFFFFFFFFFFFFFFFFFFFFFFFFFFFFFFFFFFFFFFFFFFFFFFFFFFFFFFFFFFFFF
310
FFFFFFFFFFFFFFFFFFFFFFFFFFFFFFFFFFFFFFFFFFFFFFFFFFFFFFFFFFFFFFFF
310
F000FFFFFFFFFFFFFFFFFFFFFFFFFFFFFFFFFFFFFFFFFFFFFFFFFFFFFFFFFFFF
310
FFFFFFFFFFFFFFFFFFFFFFFFFFFFFFFFFFFFFFFFFFFFFFFFFFFFFFFFFFFFFFFF
310
FFFFFFFFFFFFFFFFFFFFFFFFFFFFFFFFFFFFFFFFFFFFFFFFF000FFFFFFFFFFFF
310
FFFFFFFFFFFFFFFFFFFFFFFFFFFFFFFFFFFFFFFFFFFFFFFFFFFFFFFFFFFFFFFF
310
FFFFFFFFFFFFFFFFFFFFFFFFFFFFFFFFFFFFFFFFFFFFFFFFFFFFFFFFFFFFFFFF
310
FFFFFFFFFFFFFFFFFFFFFFFFFFFFFFFFF000FFFFFFFFFFFFFFFFFFFFFFFFFFFF
310
FFFFFFFFFFFFFFFFFFFFFFFFFFFFFFFFFFFFFFFFFFFFFFFFFFFFFFFFFFFFFFFF
310
FFFFFFFFFFFFFFFFFFFFFFFFFFFFFFFFFFFFFFFFFFFFFFFFFFFFFFFFFFFFFFFF
310
FFFFFFFFFFFFFFFFF000FFFFFFFFFFFFFFFFFFFFFFFFFFFFFFFFFFFFFFFFFFFF
310
FFFFFFFFFFFFFFFFFFFFFFFFFFFFFFFFFFFFFFFFFFFFFFFFFFFFFFFFFFFFFFFF
310
FFFFFFFFFFFFFFFFFFFFFFFFFFFFFFFFFFFFFFFFFFFFFFFFFFFFFFFFFFFFFFFF
310
F000FFFFFFFFFFFFFFFFFFFFFFFFFFFFFFFFFFFFFFFFFFFFFFFFFFFFFFFFFFFF
310
FFFFFFFFFFFFFFFFFFFFFFFFFFFFFFFFFFFFFFFFFFFFFFFFFFFFFFFFFFFFFFFF
310
FFFFFFFFFFFFFFFFFFFFFFFFFFFFFFFFFFFFFFFFFFFFFFFFF000FFFFFFFFFFFF
310
FFFFFFFFFFFFFFFFFFFFFFFFFFFFFFFFFFFFFFFFFFFFFFFFFFFFFFFFFFFFFFFF
310
FFFFFFFFFFFFFFFFFFFFFFFFFFFFFFFFFFFFFFFFFFFFFFFFFFFFFFFFFFFFFFFF
310
FFFFFFFFFFFFFFFFFFFFFFFFFFFFFFFFF000FFFFFFFFFFFFFFFFFFFFFFFFFFFF
310
FFFFFFFFFFFFFFFFFFFFFFFFFFFFFFFFFFFFFFFFFFFFFFFFFFFFFFFFFFFFFFFF
310
FFFFFFFFFFFFFFFFFFFFFFFFFFFFFFFFFFFFFFFFFFFFFFFFFFFFFFFFFFFFFFFF
310
FFFFFFFFFFFFFFFFF000FFFFFFFFFFFFFFFFFFFFFFFFFFFFFFFFFFFFFFFFFFFF
310
FFFFFFFFFFFFFFFFFFFFFFFFFFFFFFFFFFFFFFFFFFFFFFFFFFFFFFFFFFFFFFFF
310
FFFFFFFFFFFFFFFFFFFFFFFFFFFFFFFFFFFFFFFFFFFFFFFFFFFFFFFFFFFFFFFF
310
F000FFFFFFFFFFFFFFFFFFFFFFFFFFFFFFFFFFFFFFFFFFFFFFFFFFFFFFFFFFFF
310
FFFFFFFFFFFFFFFFFFFFFFFFFFFFFFFFFFFFFFFFFFFFFFFFFFFFFFFFFFFFFFFF
310
FFFFFFFFFFFFFFFFFFFFFFFFFFFFFFFFFFFFFFFFFFFFFFFFF000FFFFFFFFFFFF
310
FFFFFFFFFFFFFFFFFFFFFFFFFFFFFFFFFFFFFFFFFFFFFFFFFFFFFFFFFFFFFFFF
310
FFFFFFFFFFFFFFFFFFFFFFFFFFFFFFFFFFFFFFFFFFFFFFFFFFFFFFFFFFFFFFFF
310
FFFFFFFFFFFFFFFFFFFFFFFFFFFFFFFFF000FFFFFFFFFFFFFFFFFFFFFFFFFFFF
310
FFFFFFFFFFFFFFFFFFFFFFFFFFFFFFFFFFFFFFFFFFFFFFFFFFFFFFFFFFFFFFFF
310
FFFFFFFFFFFFFFFFFFFFFFFFFFFFFFFFFFFFFFFFFFFFFFFFFFFFFFFFFFFFFFFF
310
FFFFFFFFFFFFFFFFF000FFFFF80003FFFFFFFFFFFFFFFFFFFFFFFFFFFFFFFFFF
310
FFFFF00007FFFFFFFFFF00007FFFFFF800000000000000007FFFFFFFFFFFFFFF
310
FFFFFFFC001FFFFFFFFFFFFFFC001FFFFFFFFFFFFFFFFFFFFFFFFFFE0007FFFF
310
F000FFFF8000007FFFFFFFF8000FFFFFC0007FFFFF80007FFFFF0000007FFFFF
310
FFF8000007FFFFF800000000000000007FFFFFF0001FFFFFFFFFFFC00001FFFF
310
FFFFFFFFC00001FFFFFFFF000000000003FFFFE000007FFFF000FFFE0000000F
310
FFFFFFF0000FFFFF80007FFFFF80007FFFFC0000001FFFFFFFC0000001FFFFF8
310
00000000000000007FFFFFF0001FFFFFFFFFFE0000003FFFFFFFFFFE0000003F
310
FFFFFF000000000003FFFF0000000FFFF000FFF800000003FFFFFFF00007FFFF
310
80007FFFFF80007FFFF000000007FFFFFF000000003FFFF80000000000000000
310
7FFFFFF0001FFFFFFFFFF80000000FFFFFFFFFF80000000FFFFFFF0000000000
310
03FFFC00000003FFF000FFE000000000FFFFFFF00007FFFF80003FFFFF80007F
310
FFC000000001FFFFFC000000001FFFF800000000000000007FFFFFF0001FFFFF
310
FFFFE000000003FFFFFFFFE000000003FFFFFF000000000003FFF000000000FF
310
F000FF80000000007FFFFFF00007FFFF80003FFFFF80007FFF8000000000FFFF
310
F80000000007FFF800000000000000007FFFFFF0001FFFFFFFFFC000000001FF
310
FFFFFFC000000001FFFFFF000000000003FFC0000000007FF000FF0000000000
310
3FFFFFE00007FFFF00003FFFFF80007FFE00000000003FFFF00000000003FFF8
310
00000000000000007FFFFFF0001FFFFFFFFF8000000000FFFFFFFF8000000000
310
FFFFFF000000000003FF80000000003FF000FE00000000001FFFFFE00003FFFF
310
00003FFFFF80007FFC00000000001FFFE00000000001FFF8000001FFFE000000
310
7FFFFFF0001FFFFFFFFE00000000003FFFFFFE00000000003FFFFF0000000000
310
03FF00000000001FF000FC00000000000FFFFFE00003FFFF00001FFFFF80007F
310
F800000000001FFFC00000000000FFF8000001FFFE0000007FFFFFF0001FFFFF
310
FFFC00000000001FFFFFFC00000000001FFFFF000000000003FE00000000000F
310
F000F8000000000007FFFFE00003FFFF00001FFFFF80007FF800000000000FFF
310
800000000000FFF8000001FFFE0000007FFFFFF0001FFFFFFFF800000000000F
310
FFFFF800000000000FFFFF000000000003FC000000000007F000F80000000000
310
03FFFFC00003FFFE00001FFFFF80007FF0000000000007FF0000000000007FF8
310
000001FFFE0000007FFFFFF0001FFFFFFFF0000000000007FFFFF00000000000
310
07FFFF000000000003F8000000000003F000F0000000000003FFFFC00001FFFE
310
00001FFFFF80007FE0000000000007FE0000000000003FF8000001FFFE000000
310
7FFFFFF0001FFFFFFFF0000000000007FFFFF0000000000007FFFF0000000000
310
03F800001F800003F000E00001FFF00001FFFFC00001FFFE00000FFFFF80007F
310
E00001FFE00003FE00001FFF00003FF8000001FFFE0000007FFFFFF0001FFFFF
310
FFE000003E000003FFFFE000003E000003FFFF000000000003F00001FFF80001
310
F000E00007FFFC0001FFFFC00001FFFE00000FFFFF80007FC0000FFFFC0003FC
310
0000FFFFC0001FF8000001FFFE0000007FFFFFF0001FFFFFFFC00003FFE00001
310
FFFFC00003FFE00001FFFF0001FFFFFFFFF00007FFFE0001F000E0000FFFFF00
310
00FFFF800001FFFC00000FFFFF80007FC0001FFFFE0001FC0001FFFFE0001FF8
310
000001FFFE0000007FFFFFF0001FFFFFFF80000FFFF80000FFFF80000FFFF800
310
00FFFF0003FFFFFFFFE0000FFFFF8000F000C0003FFFFF8000FFFF800000FFFC
310
000007FFFF80007F80003FFFFF0001FC0003FFFFF0001FF8000001FFFE000000
310
7FFFFFF0001FFFFFFF80003FFFFE0000FFFF80003FFFFE0000FFFF0003FFFFFF
310
FFE0003FFFFF8000F000C0003FFFFF8000FFFF800000FFFC000007FFFF80007F
310
80007FFFFF8001F80007FFFFF8000FF8000001FFFE0000007FFFFFF0001FFFFF
310
FF00007FFFFF00007FFF00007FFFFF00007FFF0003FFFFFFFFE0003FFFFFC000
310
F000C0007FFFFFC000FFFF000000FFFC000007FFFF80007F8000FFFFFF8000F8
310
000FFFFFF8000FF8000001FFFE0000007FFFFFF0001FFFFFFF0000FFFFFF8000
310
7FFF0000FFFFFF80007FFF0003FFFFFFFFC0007FFFFFC00070008000FFFFFFC0
310
00FFFF000000FFF8000007FFFF80007F8000FFFFFF8000F8000FFFFFF8000FF8
310
000001FFFE0000007FFFFFF0001FFFFFFE0001FFFFFFC0003FFE0001FFFFFFC0
310
003FFF0003FFFFFFFFC0007FFFFFE00070008000FFFFFFC0007FFF0000007FF8
310
000003FFFF80007F0001FFFFFF8000F8000FFFFFF8000FF8000001FFFE000000
310
7FFFFFF0001FFFFFFE0001FFFFFFC0003FFE0001FFFFFFC0003FFF0003FFFFFF
310
FFC000FFFFFFE00070008000FFFFFFC0007FFF0000007FF8000003FFFF80007F
310
0001FFFFFF8000F8001FFFFFF8000FF8000001FFFE0000007FFFFFF0001FFFFF
310
FE0003FFFFFFE0003FFE0003FFFFFFE0003FFF0003FFFFFFFFC000FFFFFFE000
310
70008000FFFFFFC0007FFE0000007FF8000003FFFF80007F0001FFFFFF8000F0
310
001FFFFFF8000FF8000001FFFE0000007FFFFFF0001FFFFFFC0003FFFFFFE000
310
1FFC0003FFFFFFE0001FFF0003FFFFFFFFC000FFFFFFC00070008000FFFFFF80
310
007FFE0000007FF0000003FFFF80007F0001FFFFFF0000F0001FFFFFF8000FF8
310
000001FFFE0000007FFFFFF0001FFFFFFC0007FFFFFFF0001FFC0007FFFFFFF0
310
001FFF0003FFFFFFFFC000FFFFFFC00070008001FFFFFF0000FFFE0000003FF0
310
000001FFFF80007F0001FFFFFF0000F8001FFFFFF0000FF8000001FFFE000000
310
7FFFFFF0001FFFFFFC0007FFFFFFF0001FFC0007FFFFFFF0001FFF0003FFFFFF
310
FFC001FFFFFF80007000FFFFFFFFFE0000FFFE0008003FF0008001FFFF80007F
310
FFFFFFFFFC0000FFFFFFFFFFE0000FF8000001FFFE0000007FFFFFF0001FFFFF
310
F8000FFFFFFFF8000FF8000FFFFFFFF8000FFF0003FFFFFFFFFFFFFFFFFF0000
310
7000FFFFFFFFFC0000FFFC0008003FF0008001FFFF80007FFFFFFFFFF80001FF
310
FFFFFFFF80000FF8000001FFFE0000007FFFFFF0001FFFFFF8000FFFFFFFF800
310
0FF8000FFFFFFFF8000FFF0003FFFFFFFFFFFFFFFFFE0000F000FFFFFFFFE000
310
00FFFC000C003FE000C001FFFF80007FFFFFFFFFC00001FFFFFFFFFE00001FF8
310
000001FFFE0000007FFFFFF0001FFFFFF8000FFFFFFFF8000FF8000FFFFFFFF8
310
000FFF0003FFFFFFFFFFFFFFFFF00000F000FFFFFFFE000001FFFC000C001FE0
310
00C000FFFF80007FFFFFFFFE000001FFFFFFFFE000001FF80FFFFFFFFFFFFFC0
310
7FFFFFF0001FFFFFF8000FFFFFFFF8000FF8000FFFFFFFF8000FFF0003FFFFFF
310
FFFFFFFFFF800000F000FFFFFFC0000001FFFC001C001FE001C000FFFF80007F
310
FFFFFF80000003FFFFFFF80000001FF80FFFFFFFFFFFFFC07FFFFFF0001FFFFF
310
F8001FFFFFFFFC000FF8001FFFFFFFFC000FFF0003FFFFFFFFFFFFFFF0000001
310
F000FFFFF800000001FFF8001C001FE001C000FFFF80007FFFFFF800000003FF
310
FFFF800000003FF80FFFFFFFFFFFFFC07FFFFFF0001FFFFFF8001FFFFFFFFC00
310
0FF8001FFFFFFFFC000FFF0003FFFFFFFFFFFFFE00000001F000FFFFC0000000
310
03FFF8001E001FC001E000FFFF80007FFFFF8000000007FFFFFC000000003FF8
310
0FFFFFFFFFFFFFC07FFFFFF0001FFFFFF8001FFFFFFFFC000FF8001FFFFFFFFC
310
000FFF0003FFFFFFFFFFFFE000000003F000FFFE0000000007FFF8001E000FC0
310
01E0007FFF80007FFFFE0000000007FFFFE0000000007FF80FFFFFFFFFFFFFC0
310
7FFFFFF0001FFFFFF0001FFFFFFFFC0007F0001FFFFFFFFC0007FF0003FFFFFF
310
FFFFFF0000000003F000FFF80000000007FFF8001E000FC003E0007FFF80007F
310
FFF0000000000FFFFF8000000000FFF80FFFFFFFFFFFFFC07FFFFFF0001FFFFF
310
F0001FFFFFFFFC0007F0001FFFFFFFFC0007FF0003FFFFFFFFFFFC0000000007
310
F000FFE0000000000FFFF0003E000FC003E0007FFF80007FFFC0000000001FFF
310
FE0000000001FFF80FFFFFFFFFFFFFC07FFFFFF0001FFFFFF0001FFFFFFFFC00
310
07F0001FFFFFFFFC0007FF0003FFFFFFFFFFF0000000000FF000FFC000000000
310
1FFFF0003F000F8003F0003FFF80007FFF80000000003FFFF80000000003FFF8
310
0FFFFFFFFFFFFFC07FFFFFF0001FFFFFF0001FFFFFFFFC0007F0001FFFFFFFFC
310
0007FF0003FFFFFFFFFFE0000000001FF000FF00000000007FFFF0003F000780
310
03F0003FFF80007FFF00000000007FFFF00000000007FFF80FFFFFFFFFFFFFC0
310
7FFFFFF0001FFFFFF0001FFFFFFFFC0007F0001FFFFFFFFC0007FF0003FFFFFF
310
FFFF80000000007FF000FE0000000000FFFFE0003F00078007F0003FFF80007F
310
FE0000000001FFFFE0000000001FFFF80FFFFFFFFFFFFFC07FFFFFF0001FFFFF
310
F0001FFFFFFFFC0007F0001FFFFFFFFC0007FF0003FFFFFFFFFF0000000000FF
310
F000FC0000000003FFFFE0007F00078007F0003FFF80007FFC0000000007FFFF
310
C0000000007FFFF80FFFFFFFFFFFFFC07FFFFFF0001FFFFFF8001FFFFFFFFC00
310
0FF8001FFFFFFFFC000FFF0003FFFFFFFFFE0000000003FFF000FC000000000F
310
FFFFE0007F80070007F8001FFF80007FF8000000001FFFFF8000000001FFFFF8
310
0FFFFFFFFFFFFFC07FFFFFF0001FFFFFF8001FFFFFFFFC000FF8001FFFFFFFFC
310
000FFF0003FFFFFFFFFC000000000FFFF000F8000000007FFFFFE0007F800700
310
07F8001FFF80007FF000000000FFFFFF800000000FFFFFF80FFFFFFFFFFFFFC0
310
7FFFFFF0001FFFFFF8000FFFFFFFF8000FF8000FFFFFFFF8000FFF0003FFFFFF
310
FFFC000000007FFFF000F800000007FFFFFFC0007F8003000FF8001FFF80007F
310
F000000007FFFFFF000000007FFFFFF80FFFFFFFFFFFFFC07FFFFFF0001FFFFF
310
F8000FFFFFFFF8000FF8000FFFFFFFF8000FFF0003FFFFFFFFF80000000FFFFF
310
F000F0000000FFFFFFFFC000FF8003000FF8001FFF80007FE0000000FFFFFFFF
310
0000000FFFFFFFF8000001FFFE0000007FFFFFF0001FFFFFF8000FFFFFFFF800
310
0FF8000FFFFFFFF8000FFF0003FFFFFFFFF8000000FFFFFFF000F000000FFFFF
310
FFFFC000FFC002000FF8000FFF80007FE000001FFFFFFFFE000001FFFFFFFFF8
310
000001FFFE0000007FFFFFF0001FFFFFF8000FFFFFFFF8000FF8000FFFFFFFF8
310
000FFF0003FFFFFFFFF000001FFFFFFFF000E00000FFFFFFFFFFC000FFC00200
310
0FFC000FFF80007FE00001FFFFFFFFFE00001FFFFFFFFFF8000001FFFE000000
310
7FFFFFF0001FFFFFFC000FFFFFFFF8001FFC000FFFFFFFF8001FFF0003FFFFFF
310
FFF00001FFFFFFFFF000E00007FFFFFFFFFF8000FFC000001FFC000FFF80007F
310
C0000FFFFFFFFFFE0000FFFFFFFFFFF8000001FFFE0000007FFFFFF0001FFFFF
310
FC0007FFFFFFF0001FFC0007FFFFFFF0001FFF0003FFFFFFFFF00007FFFFFFFF
310
F000E0001FFFFFFFFFFF8000FFC000001FFC000FFF80007FC0003FFFFFFFFFFE
310
0001FFFFFFFFFFF8000001FFFE0000007FFFFFF0001FFFFFFC0007FFFFFFF000
310
1FFC0007FFFFFFF0001FFF0003FFFFFFFFF0001FFFFFFFFFF000E0003FFFFF00
310
03FF8001FFE000001FFC0007FF80007FC0007FFFFF0007FC0003FFFFF0003FF8
310
000001FFFE0000007FFFFFF0001FFFFFFC0003FFFFFFE0001FFC0003FFFFFFE0
310
001FFF0003FFFFFFFFF0003FFFFFFFFFF000E0003FFFFF0001FF8001FFE00000
310
1FFE0007FF80007FC0007FFFFE0003FC0007FFFFE0003FF8000001FFFE000000
310
7FFFFFF0001FFFFFFE0003FFFFFFE0003FFE0003FFFFFFE0003FFF0003FFFFFF
310
FFF0003FFFFF8001F000E0003FFFFF0001FF0001FFE000001FFE0007FF80007F
310
C0007FFFFE0003FC0007FFFFE0003FF8000001FFFE0000007FFFFFF0001FFFFF
310
FE0001FFFFFFC0003FFE0001FFFFFFC0003FFF0003FFFFFFFFF0003FFFFF0001
310
F000E0003FFFFF0003FF0001FFE000003FFE0007FF80007FC0007FFFFE0003FC
310
0007FFFFE0003FF8000001FFFE0000007FFFFFF0001FFFFFFF0001FFFFFFC000
310
7FFF0001FFFFFFC0007FFF0003FFFFFFFFF0003FFFFF0001F000E0003FFFFE00
310
03FF0003FFF000003FFE0003FF80007FC0007FFFFC0003FE0007FFFFE0003FF8
310
000001FFFE0000007FFFFFF0001FFFFFFF0000FFFFFF80007FFF0000FFFFFF80
310
007FFF0003FFFFFFFFF0003FFFFF0001F000E0003FFFFE0003FF0003FFF00000
310
3FFF0003FF80007FC0007FFFFC0007FE0007FFFFC0003FF8000001FFFE000000
310
7FFFFFF0001FFFFFFF80007FFFFF0000FFFF80007FFFFF0000FFFF0003FFFFFF
310
FFF0003FFFFF0003F000E0003FFFFC0003FE0003FFF000003FFF0003FF80007F
310
E0003FFFF80007FE0003FFFFC0007FF8000001FFFE0000007FFFFFF0001FFFFF
310
FF80003FFFFE0000FFFF80003FFFFE0000FFFF0003FFFFFFFFF0001FFFFE0003
310
F000F0001FFFF80003FE0003FFF000007FFF0001FF80007FE0003FFFF00007FE
310
0001FFFF80007FF8000001FFFE0000007FFFFFF0001FFFFFFFC0000FFFF80001
310
FFFFC0000FFFF80001FFFF0003FFFFFFFFF0001FFFFC0003F000F0000FFFF000
310
07FE0007FFF800007FFF0001FF80007FE0001FFFE00007FF0000FFFE00007FF8
310
000001FFFE0000007FFFFFF0001FFFFFFFC00003FFE00001FFFFC00003FFE000
310
01FFFF0003FFFFFFFFF8000FFFF80003F000F00003FFC00007FC0007FFF80000
310
7FFF8001FF80007FF00007FF80000FFF00007FF80000FFF8000001FFFE000000
310
7F80000000000001FFE000003E000003FFFFE000003E000003FFFF0003FFFFFF
310
FFF80003FFE00007F000F800000000000FFC0007FFF800007FFF8001FF80007F
310
F000000000000FFF000000000000FFF8000001FFFE0000007F80000000000001
310
FFF0000000000007FFFFF0000000000007FFFF0003FFFFFFFFFC00007E000007
310
F000F800000000000FFC0007FFF80000FFFF8000FF80007FF800000000001FFF
310
800000000001FFF8000001FFFE0000007F80000000000001FFF800000000000F
310
FFFFF800000000000FFFFF0003FFFFFFFFFC00000000000FF000FC0000000000
310
1FFC0007FFFC0000FFFF8000FF80007FF800000000003FFFC00000000001FFF8
310
000001FFFE0000007F80000000000001FFF800000000000FFFFFF80000000000
310
0FFFFF0003FFFFFFFFFE00000000001FF000FE00000000003FF8000FFFFC0000
310
FFFF8000FF80007FFC00000000003FFFC00000000003FFF8000001FFFE000000
310
7F80000000000001FFFC00000000001FFFFFFC00000000001FFFFF0003FFFFFF
310
FFFF00000000001FF000FF00000000003FF8000FFFFC0000FFFFC000FF80007F
310
FE00000000007FFFE00000000007FFF8000001FFFE0000007F80000000000001
310
FFFE00000000003FFFFFFE00000000003FFFFF0003FFFFFFFFFF80000000003F
310
F000FF80000000007FF8000FFFFC0001FFFFC0007F80007FFF0000000000FFFF
310
F0000000000FFFF800000000000000007F80000000000001FFFF8000000000FF
310
FFFFFF8000000000FFFFFF0003FFFFFFFFFFC0000000007FF000FFC000000000
310
FFF8000FFFFE0001FFFFC0007F80007FFF8000000001FFFFF8000000001FFFF8
310
00000000000000007F80000000000001FFFFC000000001FFFFFFFFC000000001
310
FFFFFF0003FFFFFFFFFFE000000000FFF000FFE000000003FFF0001FFFFE0001
310
FFFFC0007F80007FFFC000000007FFFFFE000000003FFFF80000000000000000
310
7F80000000000001FFFFE000000003FFFFFFFFE000000003FFFFFF0003FFFFFF
310
FFFFF000000003FFF000FFF80000000FFFF0001FFFFE0001FFFFE0007F80007F
310
FFF00000000FFFFFFF00000000FFFFF800000000000000007F80000000000001
310
FFFFF80000000FFFFFFFFFF80000000FFFFFFF0003FFFFFFFFFFFC0000000FFF
310
F000FFFE0000003FFFF0001FFFFE0003FFFFE0003F80007FFFFC0000003FFFFF
310
FFC0000003FFFFF800000000000000007F80000000000001FFFFFE0000003FFF
310
FFFFFFFE0000003FFFFFFF0003FFFFFFFFFFFF0000003FFFF000FFFF800000FF
310
FFF0001FFFFF0003FFFFE0003F80007FFFFF000001FFFFFFFFF800001FFFFFF8
310
00000000000000007F80000000000001FFFFFFC00001FFFFFFFFFFFFC00001FF
310
FFFFFF0003FFFFFFFFFFFFC00000FFFFF000FFFFF8000FFFFFFFFFFFFFFFFFFF
310
FFFFFFFFFFFFFFFFFFFFF0001FFFFFFFFFFF0000FFFFFFF80000000000000000
310
7FFFFFFFFFFFFFFFFFFFFFFC001FFFFFFFFFFFFFFC001FFFFFFFFFFFFFFFFFFF
310
FFFFFFFC001FFFFFF000FFFFFFFFFFFFFFFFFFFFFFFFFFFFFFFFFFFFFFFFFFFF
310
FFFFFFFFFFFFFFFFFFFFFFFFFFFFFFFFFFFFFFFFFFFFFFFFFFFFFFFFFFFFFFFF
310
FFFFFFFFFFFFFFFFFFFFFFFFFFFFFFFFFFFFFFFFFFFFFFFFFFFFFFFFFFFFFFFF
310
F000FFFFFFFFFFFFFFFFFFFFFFFFFFFFFFFFFFFFFFFFFFFFFFFFFFFFFFFFFFFF
310
FFFFFFFFFFFFFFFFFFFFFFFFFFFFFFFFFFFFFFFFFFFFFFFFFFFFFFFFFFFFFFFF
310
FFFFFFFFFFFFFFFFFFFFFFFFFFFFFFFFFFFFFFFFFFFFFFFFF000FFFFFFFFFFFF
310
FFFFFFFFFFFFFFFFFFFFFFFFFFFFFFFFFFFFFFFFFFFFFFFFFFFFFFFFFFFFFFFF
310
FFFFFFFFFFFFFFFFFFFFFFFFFFFFFFFFFFFFFFFFFFFFFFFFFFFFFFFFFFFFFFFF
310
FFFFFFFFFFFFFFFFFFFFFFFFFFFFFFFFF000FFFFFFFFFFFFFFFFFFFFFFFFFFFF
310
FFFFFFFFFFFFFFFFFFFFFFFFFFFFFFFFFFFFFFFFFFFFFFFFFFFFFFFFFFFFFFFF
310
FFFFFFFFFFFFFFFFFFFFFFFFFFFFFFFFFFFFFFFFFFFFFFFFFFFFFFFFFFFFFFFF
310
FFFFFFFFFFFFFFFFF000FFFFFFFFFFFFFFFFFFFFFFFFFFFFFFFFFFFFFFFFFFFF
310
FFFFFFFFFFFFFFFFFFFFFFFFFFFFFFFFFFFFFFFFFFFFFFFFFFFFFFFFFFFFFFFF
310
FFFFFFFFFFFFFFFFFFFFFFFFFFFFFFFFFFFFFFFFFFFFFFFFFFFFFFFFFFFFFFFF
310
F000FFFFFFFFFFFFFFFFFFFFFFFFFFFFFFFFFFFFFFFFFFFFFFFFFFFFFFFFFFFF
310
FFFFFFFFFFFFFFFFFFFFFFFFFFFFFFFFFFFFFFFFFFFFFFFFFFFFFFFFFFFFFFFF
310
FFFFFFFFFFFFFFFFFFFFFFFFFFFFFFFFFFFFFFFFFFFFFFFFF000FFFFFFFFFFFF
310
FFFFFFFFFFFFFFFFFFFFFFFFFFFFFFFFFFFFFFFFFFFFFFFFFFFFFFFFFFFFFFFF
310
FFFFFFFFFFFFFFFFFFFFFFFFFFFFFFFFFFFFFFFFFFFFFFFFFFFFFFFFFFFFFFFF
310
FFFFFFFFFFFFFFFFFFFFFFFFFFFFFFFFF000FFFFFFFFFFFFFFFFFFFFFFFFFFFF
310
FFFFFFFFFFFFFFFFFFFFFFFFFFFFFFFFFFFFFFFFFFFFFFFFFFFFFFFFFFFFFFFF
310
FFFFFFFFFFFFFFFFFFFFFFFFFFFFFFFFFFFFFFFFFFFFFFFFFFFFFFFFFFFFFFFF
310
FFFFFFFFFFFFFFFFF000FFFFFFFFFFFFFFFFFFFFFFFFFFFFFFFFFFFFFFFFFFFF
310
FFFFFFFFFFFFFFFFFFFFFFFFFFFFFFFFFFFFFFFFFFFFFFFFFFFFFFFFFFFFFFFF
310
FFFFFFFFFFFFFFFFFFFFFFFFFFFFFFFFFFFFFFFFFFFFFFFFFFFFFFFFFFFFFFFF
310
F000FFFFFFFFFFFFFFFFFFFFFFFFFFFFFFFFFFFFFFFFFFFFFFFFFFFFFFFFFFFF
310
FFFFFFFFFFFFFFFFFFFFFFFFFFFFFFFFFFFFFFFFFFFFFFFFFFFFFFFFFFFFFFFF
310
FFFFFFFFFFFFFFFFFFFFFFFFFFFFFFFFFFFFFFFFFFFFFFFFF000FFFFFFFFFFFF
310
FFFFFFFFFFFFFFFFFFFFFFFFFFFFFFFFFFFFFFFFFFFFFFFFFFFFFFFFFFFFFFFF
310
FFFFFFFFFFFFFFFFFFFFFFFFFFFFFFFFFFFFFFFFFFFFFFFFFFFFFFFFFFFFFFFF
310
FFFFFFFFFFFFFFFFFFFFFFFFFFFFFFFFF000FFFFFFFFFFFFFFFFFFFFFFFFFFFF
310
FFFFFFFFFFFFFFFFFFFFFFFFFFFFFFFFFFFFFFFFFFFFFFFFFFFFFFFFFFFFFFFF
310
FFFFFFFFFFFFFFFFFFFFFFFFFFFFFFFFFFFFFFFFFFFFFFFFFFFFFFFFFFFFFFFF
310
FFFFFFFFFFFFFFFFF000FFFFFFFFFFFFFFFFFFFFFFFFFFFFFFFFFFFFFFFFFFFF
310
FFFFFFFFFFFFFFFFFFFFFFFFFFFFFFFFFFFFFFFFFFFFFFFFFFFFFFFFFFFFFFFF
310
FFFFFFFFFFFFFFFFFFFFFFFFFFFFFFFFFFFFFFFFFFFFFFFFFFFFFFFFFFFFFFFF
310
F000FFFFFFFFFFFFFFFFFFFFFFFFFFFFFFFFFFFFFFFFFFFFFFFFFFFFFFFFFFFF
310
FFFFFFFFFFFFFFFFFFFFFFFFFFFFFFFFFFFFFFFFFFFFFFFFFFFFFFFFFFFFFFFF
310
FFFFFFFFFFFFFFFFFFFFFFFFFFFFFFFFFFFFFFFFFFFFFFFFF000FFFFFFFFFFFF
310
FFFFFFFFFFFFFFFFFFFFFFFFFFFFFFFFFFFFFFFFFFFFFFFFFFFFFFFFFFFFFFFF
310
FFFFFFFFFFFFFFFFFFFFFFFFFFFFFFFFFFFFFFFFFFFFFFFFFFFFFFFFFFFFFFFF
310
FFFFFFFFFFFFFFFFFFFFFFFFFFFFFFFFF000FFFFFFFFFFFFFFFFFFFFFFFFFFFF
310
FFFFFFFFFFFFFFFFFFFFFFFFFFFFFFFFFFFFFFFFFFFFFFFFFFFFFFFFFFFFFFFF
310
FFFFFFFFFFFFFFFFFFFFFFFFFFFFFFFFFFFFFFFFFFFFFFFFFFFFFFFFFFFFFFFF
310
FFFFFFFFFFFFFFFFF000FFFFFFFFFFFFFFFFFFFFFFFFFFFFFFFFFFFFFFFFFFFF
310
FFFFFFFFFFFFFFFFFFFFFFFFFFFFFFFFFFFFFFFFFFFFFFFFFFFFFFFFFFFFFFFF
310
FFFFFFFFFFFFFFFFFFFFFFFFFFFFFFFFFFFFFFFFFFFFFFFFFFFFFFFFFFFFFFFF
310
F000FFFFFFFFFFFFFFFFFFFFFFFFFFFFFFFFFFFFFFFFFFFFFFFFFFFFFFFFFFFF
310
FFFFFFFFFFFFFFFFFFFFFFFFFFFFFFFFFFFFFFFFFFFFFFFFFFFFFFFFFFFFFFFF
310
FFFFFFFFFFFFFFFFFFFFFFFFFFFFFFFFFFFFFFFFFFFFFFFFF000FFFFFFFFFFFF
310
FFFFFFFFFFFFFFFFFFFFFFFFFFFFFFFFFFFFFFFFFFFFFFFFFFFFFFFFFFFFFFFF
310
FFFFFFFFFFFFFFFFFFFFFFFFFFFFFFFFFFFFFFFFFFFFFFFFFFFFFFFFFFFFFFFF
310
FFFFFFFFFFFFFFFFFFFFFFFFFFFFFFFFF000FFFFFFFFFFFFFFFFFFFFFFFFFFFF
310
FFFFFFFFFFFFFFFFFFFFFFFFFFFFFFFFFFFFFFFFFFFFFFFFFFFFFFFFFFFFFFFF
310
FFFFFFFFFFFFFFFFFFFFFFFFFFFFFFFFFFFFFFFFFFFFFFFFFFFFFFFFFFFFFFFF
310
FFFFFFFFFFFFFFFFF000FFFFFFFFFFFFFFFFFFFFFFFFFFFFFFFFFFFFFFFFFFFF
310
FFFFFFFFFFFFFFFFFFFFFFFFFFFFFFFFFFFFFFFFFFFFFFFFFFFFFFFFFFFFFFFF
310
FFFFFFFFFFFFFFFFFFFFFFFFFFFFFFFFFFFFFFFFFFFFFFFFFFFFFFFFFFFFFFFF
310
F000FFFFFFFFFFFFFFFFFFFFFFFFFFFFFFFFFFFFFFFFFFFFFFFFFFFFFFFFFFFF
310
FFFFFFFFFFFFFFFFFFFFFFFFFFFFFFFFFFFFFFFFFFFFFFFFFFFFFFFFFFFFFFFF
310
FFFFFFFFFFFFFFFFFFFFFFFFFFFFFFFFFFFFFFFFFFFFFFFFF000FFFFFFFFFFFF
310
FFFFFFFFFFFFFFFFFFFFFFFFFFFFFFFFFFFFFFFFFFFFFFFFFFFFFFFFFFFFFFFF
310
FFFFFFFFFFFFFFFFFFFFFFFFFFFFFFFFFFFFFFFFFFFFFFFFFFFFFFFFFFFFFFFF
310
FFFFFFFFFFFFFFFFFFFFFFFFFFFFFFFFF0000000000000000000000000000000
310
0000000000000000000000000000000000000000000000000000000000000000
310
0000000000000000000000000000000000000000000000000000000000000000
310
0000000000000000000000000000000000000000000000000000000000000000
310
0000000000000000000000000000000000000000000000000000000000000000
310
0000000000000000000000000000000000000000000000000000000000000000
310
0000000000000000000000000000000000000000000000000000000000000000
310
0000000000000000000000000000000000000000000000000000000000000000
310
0000000000000000000000000000000000000000000000000000000000000000
310
0000000000000000000000000000000000000000000000000000000000000000
310
0000000000000000000000000000000000000000000000000000000000000000
310
0000000000000000000000000000000000000000000000000000000000000000
310
0000000000000000000000000000000000000000000000000000000000000000
310
0000000000000000000000000000000000000000000000000000000000000000
310
0000000000000000000000000000000000000000000000000000000000000000
310
0000000000000000000000000000000000000000000000000000000000000000
  1
OLE
  0
ENDSEC
  0
SECTION
  2
OBJECTS
  0
DICTIONARY
  5
C
330
0
100
AcDbDictionary
281
     1
  3
ACAD_GROUP
350
D
  3
ACAD_LAYOUT
350
1A
  3
ACAD_MLINESTYLE
350
17
  3
ACAD_PLOTSETTINGS
350
19
  3
ACAD_PLOTSTYLENAME
350
E
  3
ACAD_SCALELIST
350
47
  0
DICTIONARY
  5
D
102
{ACAD_REACTORS
330
C
102
}
330
C
100
AcDbDictionary
281
     1
  0
DICTIONARY
  5
1A
102
{ACAD_REACTORS
330
C
102
}
330
C
100
AcDbDictionary
281
     1
  3
Layout1
350
1E
  3
Layout2
350
26
  3
Model
350
22
  0
DICTIONARY
  5
17
102
{ACAD_REACTORS
330
C
102
}
330
C
100
AcDbDictionary
281
     1
  3
Standard
350
18
  0
DICTIONARY
  5
19
102
{ACAD_REACTORS
330
C
102
}
330
C
100
AcDbDictionary
281
     1
  0
ACDBDICTIONARYWDFLT
  5
E
102
{ACAD_REACTORS
330
C
102
}
330
C
100
AcDbDictionary
281
     1
  3
Normal
350
F
100
AcDbDictionaryWithDefault
340
F
  0
DICTIONARY
  5
47
102
{ACAD_REACTORS
330
C
102
}
330
C
100
AcDbDictionary
281
     1
  3
A0
350
48
  3
A1
350
49
  3
A2
350
4A
  3
A3
350
4B
  3
A4
350
4C
  3
A5
350
4D
  3
A6
350
4E
  3
A7
350
4F
  3
A8
350
50
  3
A9
350
51
  3
B0
350
52
  3
B1
350
53
  3
B2
350
54
  3
B3
350
55
  3
B4
350
56
  3
B5
350
57
  3
B6
350
58
  3
B7
350
59
  3
B8
350
5A
  3
B9
350
5B
  3
C0
350
5C
  3
C1
350
5D
  3
C2
350
5E
  3
C3
350
5F
  3
C4
350
60
  3
C5
350
61
  3
C6
350
62
  3
C7
350
63
  3
C8
350
64
  3
C9
350
65
  3
D0
350
66
  3
D1
350
67
  3
D2
350
68
  0
LAYOUT
  5
1E
102
{ACAD_REACTORS
330
1A
102
}
330
1A
100
AcDbPlotSettings
  1

  2
none_device
  4

  6

 40
0.0
 41
0.0
 42
0.0
 43
0.0
 44
0.0
 45
0.0
 46
0.0
 47
0.0
 48
0.0
 49
0.0
140
0.0
141
0.0
142
1.0
143
1.0
 70
   688
 72
     1
 73
     0
 74
     5
  7

 75
    16
147
1.0
148
0.0
149
0.0
100
AcDbLayout
  1
Layout1
 70
     1
 71
     1
 10
0.0
 20
0.0
 11
420.0
 21
297.0
 12
0.0
 22
0.0
 32
0.0
 14
1.0000000000E+20
 24
1.0000000000E+20
 34
1.0000000000E+20
 15
-1.0000000000E+20
 25
-1.0000000000E+20
 35
-1.0000000000E+20
146
0.0
 13
0.0
 23
0.0
 33
0.0
 16
1.0
 26
0.0
 36
0.0
 17
0.0
 27
1.0
 37
0.0
 76
     0
330
1B
  0
LAYOUT
  5
26
102
{ACAD_REACTORS
330
1A
102
}
330
1A
100
AcDbPlotSettings
  1

  2
none_device
  4

  6

 40
0.0
 41
0.0
 42
0.0
 43
0.0
 44
0.0
 45
0.0
 46
0.0
 47
0.0
 48
0.0
 49
0.0
140
0.0
141
0.0
142
1.0
143
1.0
 70
   688
 72
     1
 73
     0
 74
     5
  7

 75
    16
147
1.0
148
0.0
149
0.0
100
AcDbLayout
  1
Layout2
 70
     1
 71
     2
 10
0.0
 20
0.0
 11
0.0
 21
0.0
 12
0.0
 22
0.0
 32
0.0
 14
0.0
 24
0.0
 34
0.0
 15
0.0
 25
0.0
 35
0.0
146
0.0
 13
0.0
 23
0.0
 33
0.0
 16
1.0
 26
0.0
 36
0.0
 17
0.0
 27
1.0
 37
0.0
 76
     0
330
23
  0
LAYOUT
  5
22
102
{ACAD_REACTORS
330
1A
102
}
330
1A
100
AcDbPlotSettings
  1

  2
none_device
  4
Letter_(8.50_x_11.00_Inches)
  6

 40
6.35
 41
6.35
 42
6.35000508
 43
6.35000508
 44
215.9
 45
279.4
 46
0.0
 47
0.0
 48
0.0
 49
0.0
140
0.0
141
0.0
142
1.0
143
1.0
 70
  1712
 72
     1
 73
     0
 74
     0
  7

 75
     0
147
1.0
148
0.0
149
0.0
100
AcDbLayout
  1
Model
 70
     1
 71
     0
 10
0.0
 20
0.0
 11
297.0
 21
210.0
 12
0.0
 22
0.0
 32
0.0
 14
0.0
 24
0.0
 34
0.0
 15
297.0
 25
210.0
 35
0.0
146
0.0
 13
0.0
 23
0.0
 33
0.0
 16
1.0
 26
0.0
 36
0.0
 17
0.0
 27
1.0
 37
0.0
 76
     0
330
1F
331
29
  0
MLINESTYLE
  5
18
102
{ACAD_REACTORS
330
17
102
}
330
17
100
AcDbMlineStyle
  2
Standard
 70
     0
  3

 62
   256
 51
90.0
 52
90.0
 71
     2
 49
0.5
 62
   256
  6
BYLAYER
 49
-0.5
 62
   256
  6
BYLAYER
  0
ACDBPLACEHOLDER
  5
F
102
{ACAD_REACTORS
330
E
102
}
330
E
  0
SCALE
  5
48
102
{ACAD_REACTORS
330
47
102
}
330
47
100
AcDbScale
 70
     0
300
1:1
140
1.0
141
1.0
290
     1
  0
SCALE
  5
49
102
{ACAD_REACTORS
330
47
102
}
330
47
100
AcDbScale
 70
     0
300
1:2
140
1.0
141
2.0
290
     0
  0
SCALE
  5
4A
102
{ACAD_REACTORS
330
47
102
}
330
47
100
AcDbScale
 70
     0
300
1:4
140
1.0
141
4.0
290
     0
  0
SCALE
  5
4B
102
{ACAD_REACTORS
330
47
102
}
330
47
100
AcDbScale
 70
     0
300
1:5
140
1.0
141
5.0
290
     0
  0
SCALE
  5
4C
102
{ACAD_REACTORS
330
47
102
}
330
47
100
AcDbScale
 70
     0
300
1:8
140
1.0
141
8.0
290
     0
  0
SCALE
  5
4D
102
{ACAD_REACTORS
330
47
102
}
330
47
100
AcDbScale
 70
     0
300
1:10
140
1.0
141
10.0
290
     0
  0
SCALE
  5
4E
102
{ACAD_REACTORS
330
47
102
}
330
47
100
AcDbScale
 70
     0
300
1:16
140
1.0
141
16.0
290
     0
  0
SCALE
  5
4F
102
{ACAD_REACTORS
330
47
102
}
330
47
100
AcDbScale
 70
     0
300
1:20
140
1.0
141
20.0
290
     0
  0
SCALE
  5
50
102
{ACAD_REACTORS
330
47
102
}
330
47
100
AcDbScale
 70
     0
300
1:30
140
1.0
141
30.0
290
     0
  0
SCALE
  5
51
102
{ACAD_REACTORS
330
47
102
}
330
47
100
AcDbScale
 70
     0
300
1:40
140
1.0
141
40.0
290
     0
  0
SCALE
  5
52
102
{ACAD_REACTORS
330
47
102
}
330
47
100
AcDbScale
 70
     0
300
1:50
140
1.0
141
50.0
290
     0
  0
SCALE
  5
53
102
{ACAD_REACTORS
330
47
102
}
330
47
100
AcDbScale
 70
     0
300
1:100
140
1.0
141
100.0
290
     0
  0
SCALE
  5
54
102
{ACAD_REACTORS
330
47
102
}
330
47
100
AcDbScale
 70
     0
300
2:1
140
2.0
141
1.0
290
     0
  0
SCALE
  5
55
102
{ACAD_REACTORS
330
47
102
}
330
47
100
AcDbScale
 70
     0
300
4:1
140
4.0
141
1.0
290
     0
  0
SCALE
  5
56
102
{ACAD_REACTORS
330
47
102
}
330
47
100
AcDbScale
 70
     0
300
8:1
140
8.0
141
1.0
290
     0
  0
SCALE
  5
57
102
{ACAD_REACTORS
330
47
102
}
330
47
100
AcDbScale
 70
     0
300
10:1
140
10.0
141
1.0
290
     0
  0
SCALE
  5
58
102
{ACAD_REACTORS
330
47
102
}
330
47
100
AcDbScale
 70
     0
300
100:1
140
100.0
141
1.0
290
     0
  0
SCALE
  5
59
102
{ACAD_REACTORS
330
47
102
}
330
47
100
AcDbScale
 70
     0
300
1/128" = 1'-0"
140
0.0078125
141
12.0
290
     0
  0
SCALE
  5
5A
102
{ACAD_REACTORS
330
47
102
}
330
47
100
AcDbScale
 70
     0
300
1/64" = 1'-0"
140
0.015625
141
12.0
290
     0
  0
SCALE
  5
5B
102
{ACAD_REACTORS
330
47
102
}
330
47
100
AcDbScale
 70
     0
300
1/32" = 1'-0"
140
0.03125
141
12.0
290
     0
  0
SCALE
  5
5C
102
{ACAD_REACTORS
330
47
102
}
330
47
100
AcDbScale
 70
     0
300
1/16" = 1'-0"
140
0.0625
141
12.0
290
     0
  0
SCALE
  5
5D
102
{ACAD_REACTORS
330
47
102
}
330
47
100
AcDbScale
 70
     0
300
3/32" = 1'-0"
140
0.09375
141
12.0
290
     0
  0
SCALE
  5
5E
102
{ACAD_REACTORS
330
47
102
}
330
47
100
AcDbScale
 70
     0
300
1/8" = 1'-0"
140
0.125
141
12.0
290
     0
  0
SCALE
  5
5F
102
{ACAD_REACTORS
330
47
102
}
330
47
100
AcDbScale
 70
     0
300
3/16" = 1'-0"
140
0.1875
141
12.0
290
     0
  0
SCALE
  5
60
102
{ACAD_REACTORS
330
47
102
}
330
47
100
AcDbScale
 70
     0
300
1/4" = 1'-0"
140
0.25
141
12.0
290
     0
  0
SCALE
  5
61
102
{ACAD_REACTORS
330
47
102
}
330
47
100
AcDbScale
 70
     0
300
3/8" = 1'-0"
140
0.375
141
12.0
290
     0
  0
SCALE
  5
62
102
{ACAD_REACTORS
330
47
102
}
330
47
100
AcDbScale
 70
     0
300
1/2" = 1'-0"
140
0.5
141
12.0
290
     0
  0
SCALE
  5
63
102
{ACAD_REACTORS
330
47
102
}
330
47
100
AcDbScale
 70
     0
300
3/4" = 1'-0"
140
0.75
141
12.0
290
     0
  0
SCALE
  5
64
102
{ACAD_REACTORS
330
47
102
}
330
47
100
AcDbScale
 70
     0
300
1" = 1'-0"
140
1.0
141
12.0
290
     0
  0
SCALE
  5
65
102
{ACAD_REACTORS
330
47
102
}
330
47
100
AcDbScale
 70
     0
300
1-1/2" = 1'-0"
140
1.5
141
12.0
290
     0
  0
SCALE
  5
66
102
{ACAD_REACTORS
330
47
102
}
330
47
100
AcDbScale
 70
     0
300
3" = 1'-0"
140
3.0
141
12.0
290
     0
  0
SCALE
  5
67
102
{ACAD_REACTORS
330
47
102
}
330
47
100
AcDbScale
 70
     0
300
6" = 1'-0"
140
6.0
141
12.0
290
     0
  0
SCALE
  5
68
102
{ACAD_REACTORS
330
47
102
}
330
47
100
AcDbScale
 70
     0
300
1'-0" = 1'-0"
140
12.0
141
12.0
290
     0
  0
ENDSEC
  0
EOF
