  0
SECTION
  2
HEADER
  9
$ACADVER
  1
AC1015
  9
$ACADMAINTVER
 70
     6
  9
$DWGCODEPAGE
  3
ANSI_1252
  9
$INSBASE
 10
0.0
 20
0.0
 30
0.0
  9
$EXTMIN
 10
0.0
 20
0.0
 30
0.0
  9
$EXTMAX
 10
297.0
 20
210.0
 30
0.0
  9
$LIMMIN
 10
0.0
 20
0.0
  9
$LIMMAX
 10
297.0
 20
210.0
  9
$ORTHOMODE
 70
     0
  9
$REGENMODE
 70
     1
  9
$FILLMODE
 70
     1
  9
$QTEXTMODE
 70
     0
  9
$MIRRTEXT
 70
     1
  9
$LTSCALE
 40
1.0
  9
$ATTMODE
 70
     1
  9
$TEXTSIZE
 40
2.0
  9
$TRACEWID
 40
1.0
  9
$TEXTSTYLE
  7
Standard
  9
$CLAYER
  8
0
  9
$CELTYPE
  6
ByLayer
  9
$CECOLOR
 62
   256
  9
$CELTSCALE
 40
1.0
  9
$DISPSILH
 70
     0
  9
$DIMSCALE
 40
1.0
  9
$DIMASZ
 40
3.0
  9
$DIMEXO
 40
0.0
  9
$DIMDLI
 40
3.75
  9
$DIMRND
 40
0.0
  9
$DIMDLE
 40
0.0
  9
$DIMEXE
 40
1.0
  9
$DIMTP
 40
0.0
  9
$DIMTM
 40
0.0
  9
$DIMTXT
 40
2.0
  9
$DIMCEN
 40
2.5
  9
$DIMTSZ
 40
0.0
  9
$DIMTOL
 70
     0
  9
$DIMLIM
 70
     0
  9
$DIMTIH
 70
     1
  9
$DIMTOH
 70
     1
  9
$DIMSE1
 70
     0
  9
$DIMSE2
 70
     0
  9
$DIMTAD
 70
     1
  9
$DIMZIN
 70
     0
  9
$DIMBLK
  1

  9
$DIMASO
 70
     1
  9
$DIMSHO
 70
     1
  9
$DIMPOST
  1

  9
$DIMAPOST
  1

  9
$DIMALT
 70
     0
  9
$DIMALTD
 70
     3
  9
$DIMALTF
 40
0.0393700787
  9
$DIMLFAC
 40
1.0
  9
$DIMTOFL
 70
     1
  9
$DIMTVP
 40
0.0
  9
$DIMTIX
 70
     0
  9
$DIMSOXD
 70
     0
  9
$DIMSAH
 70
     0
  9
$DIMBLK1
  1

  9
$DIMBLK2
  1

  9
$DIMSTYLE
  2
ISO-25
  9
$DIMCLRD
 70
     0
  9
$DIMCLRE
 70
     0
  9
$DIMCLRT
 70
     0
  9
$DIMTFAC
 40
1.0
  9
$DIMGAP
 40
1.524
  9
$DIMJUST
 70
     0
  9
$DIMSD1
 70
     0
  9
$DIMSD2
 70
     0
  9
$DIMTOLJ
 70
     0
  9
$DIMTZIN
 70
     0
  9
$DIMALTZ
 70
     0
  9
$DIMALTTZ
 70
     0
  9
$DIMUPT
 70
     0
  9
$DIMDEC
 70
     2
  9
$DIMTDEC
 70
     3
  9
$DIMALTU
 70
     2
  9
$DIMALTTD
 70
     3
  9
$DIMTXSTY
  7
Standard
  9
$DIMAUNIT
 70
     0
  9
$DIMADEC
 70
     2
  9
$DIMALTRND
 40
0.0
  9
$DIMAZIN
 70
     0
  9
$DIMDSEP
 70
    44
  9
$DIMATFIT
 70
     3
  9
$DIMFRAC
 70
     0
  9
$DIMLDRBLK
  1

  9
$DIMLUNIT
 70
     2
  9
$DIMLWD
 70
    -2
  9
$DIMLWE
 70
    -2
  9
$DIMTMOVE
 70
     0
  9
$LUNITS
 70
     2
  9
$LUPREC
 70
     2
  9
$SKETCHINC
 40
1.0
  9
$FILLETRAD
 40
10.0
  9
$AUNITS
 70
     0
  9
$AUPREC
 70
     2
  9
$MENU
  1
.
  9
$ELEVATION
 40
0.0
  9
$PELEVATION
 40
0.0
  9
$THICKNESS
 40
0.0
  9
$LIMCHECK
 70
     0
  9
$CHAMFERA
 40
0.0
  9
$CHAMFERB
 40
0.0
  9
$CHAMFERC
 40
0.0
  9
$CHAMFERD
 40
0.0
  9
$SKPOLY
 70
     0
  9
$TDCREATE
 40
2457632.718903217
  9
$TDUCREATE
 40
2457632.635569884
  9
$TDUPDATE
 40
2457632.718904722
  9
$TDUUPDATE
 40
2457632.635571389
  9
$TDINDWG
 40
0.0000000116
  9
$TDUSRTIMER
 40
0.0000000116
  9
$USRTIMER
 70
     1
  9
$ANGBASE
 50
0.0
  9
$ANGDIR
 70
     0
  9
$PDMODE
 70
     0
  9
$PDSIZE
 40
-1.0
  9
$PLINEWID
 40
0.0
  9
$SPLFRAME
 70
     0
  9
$SPLINETYPE
 70
     6
  9
$SPLINESEGS
 70
     8
  9
$HANDSEED
  5
27B
  9
$SURFTAB1
 70
     6
  9
$SURFTAB2
 70
     6
  9
$SURFTYPE
 70
     6
  9
$SURFU
 70
     6
  9
$SURFV
 70
     6
  9
$UCSBASE
  2

  9
$UCSNAME
  2

  9
$UCSORG
 10
0.0
 20
0.0
 30
0.0
  9
$UCSXDIR
 10
1.0
 20
0.0
 30
0.0
  9
$UCSYDIR
 10
0.0
 20
1.0
 30
0.0
  9
$UCSORTHOREF
  2

  9
$UCSORTHOVIEW
 70
     0
  9
$UCSORGTOP
 10
0.0
 20
0.0
 30
0.0
  9
$UCSORGBOTTOM
 10
0.0
 20
0.0
 30
0.0
  9
$UCSORGLEFT
 10
0.0
 20
0.0
 30
0.0
  9
$UCSORGRIGHT
 10
0.0
 20
0.0
 30
0.0
  9
$UCSORGFRONT
 10
0.0
 20
0.0
 30
0.0
  9
$UCSORGBACK
 10
0.0
 20
0.0
 30
0.0
  9
$PUCSBASE
  2

  9
$PUCSNAME
  2

  9
$PUCSORG
 10
0.0
 20
0.0
 30
0.0
  9
$PUCSXDIR
 10
1.0
 20
0.0
 30
0.0
  9
$PUCSYDIR
 10
0.0
 20
1.0
 30
0.0
  9
$PUCSORTHOREF
  2

  9
$PUCSORTHOVIEW
 70
     0
  9
$PUCSORGTOP
 10
0.0
 20
0.0
 30
0.0
  9
$PUCSORGBOTTOM
 10
0.0
 20
0.0
 30
0.0
  9
$PUCSORGLEFT
 10
0.0
 20
0.0
 30
0.0
  9
$PUCSORGRIGHT
 10
0.0
 20
0.0
 30
0.0
  9
$PUCSORGFRONT
 10
0.0
 20
0.0
 30
0.0
  9
$PUCSORGBACK
 10
0.0
 20
0.0
 30
0.0
  9
$USERI1
 70
     0
  9
$USERI2
 70
     0
  9
$USERI3
 70
     0
  9
$USERI4
 70
     0
  9
$USERI5
 70
     0
  9
$USERR1
 40
0.0
  9
$USERR2
 40
0.0
  9
$USERR3
 40
0.0
  9
$USERR4
 40
0.0
  9
$USERR5
 40
0.0
  9
$WORLDVIEW
 70
     1
  9
$SHADEDGE
 70
     3
  9
$SHADEDIF
 70
    70
  9
$TILEMODE
 70
     1
  9
$MAXACTVP
 70
    64
  9
$PINSBASE
 10
0.0
 20
0.0
 30
0.0
  9
$PLIMCHECK
 70
     0
  9
$PEXTMIN
 10
1.0000000000E+20
 20
1.0000000000E+20
 30
1.0000000000E+20
  9
$PEXTMAX
 10
-1.0000000000E+20
 20
-1.0000000000E+20
 30
-1.0000000000E+20
  9
$PLIMMIN
 10
0.0
 20
0.0
  9
$PLIMMAX
 10
420.0
 20
297.0
  9
$UNITMODE
 70
     0
  9
$VISRETAIN
 70
     1
  9
$PLINEGEN
 70
     0
  9
$PSLTSCALE
 70
     1
  9
$TREEDEPTH
 70
  3020
  9
$CMLSTYLE
  2
Standard
  9
$CMLJUST
 70
     0
  9
$CMLSCALE
 40
20.0
  9
$PROXYGRAPHICS
 70
     1
  9
$MEASUREMENT
 70
     1
  9
$CELWEIGHT
370
    -1
  9
$ENDCAPS
280
     0
  9
$JOINSTYLE
280
     0
  9
$LWDISPLAY
290
     1
  9
$INSUNITS
 70
     4
  9
$HYPERLINKBASE
  1

  9
$STYLESHEET
  1

  9
$XEDIT
290
     1
  9
$CEPSNTYPE
380
     0
  9
$PSTYLEMODE
290
     1
  9
$FINGERPRINTGUID
  2
{6057876F-4246-41A1-B3E2-8B4C9DC7BED2}
  9
$VERSIONGUID
  2
{FAEB1C32-E019-11D5-929B-00C0DF256EC4}
  9
$EXTNAMES
290
     1
  9
$PSVPSCALE
 40
0.0
  9
$OLESTARTUP
290
     0
  0
ENDSEC
  0
SECTION
  2
CLASSES
  0
CLASS
  1
ACDBDICTIONARYWDFLT
  2
AcDbDictionaryWithDefault
  3
ObjectDBX Classes
 90
        0
280
     0
281
     0
  0
CLASS
  1
VISUALSTYLE
  2
AcDbVisualStyle
  3
ObjectDBX Classes
 90
     4095
280
     0
281
     0
  0
CLASS
  1
MATERIAL
  2
AcDbMaterial
  3
ObjectDBX Classes
 90
     1153
280
     0
281
     0
  0
CLASS
  1
SCALE
  2
AcDbScale
  3
ObjectDBX Classes
 90
     1153
280
     0
281
     0
  0
CLASS
  1
TABLESTYLE
  2
AcDbTableStyle
  3
ObjectDBX Classes
 90
     4095
280
     0
281
     0
  0
CLASS
  1
MLEADERSTYLE
  2
AcDbMLeaderStyle
  3
ACDB_MLEADERSTYLE_CLASS
 90
     4095
280
     0
281
     0
  0
CLASS
  1
SUN
  2
AcDbSun
  3
SCENEOE
 90
     1153
280
     0
281
     0
  0
CLASS
  1
ACDBPLACEHOLDER
  2
AcDbPlaceHolder
  3
ObjectDBX Classes
 90
        0
280
     0
281
     0
  0
CLASS
  1
LAYOUT
  2
AcDbLayout
  3
ObjectDBX Classes
 90
        0
280
     0
281
     0
  0
ENDSEC
  0
SECTION
  2
TABLES
  0
TABLE
  2
VPORT
  5
8
330
0
100
AcDbSymbolTable
 70
     1
  0
VPORT
  5
29
330
8
100
AcDbSymbolTableRecord
100
AcDbViewportTableRecord
  2
*Active
 70
     0
 10
0.0
 20
0.0
 11
1.0
 21
1.0
 12
148.5
 22
105.0
 13
0.0
 23
0.0
 14
10.0
 24
10.0
 15
10.0
 25
10.0
 16
0.0
 26
0.0
 36
1.0
 17
0.0
 27
0.0
 37
0.0
 40
210.0
 41
1.4142857143
 42
50.0
 43
0.0
 44
0.0
 50
0.0
 51
0.0
 71
     0
 72
  2000
 73
     1
 74
     3
 75
     0
 76
     0
 77
     0
 78
     0
281
     0
 65
     1
110
0.0
120
0.0
130
0.0
111
1.0
121
0.0
131
0.0
112
0.0
122
1.0
132
0.0
 79
     0
146
0.0
  0
ENDTAB
  0
TABLE
  2
LTYPE
  5
5
330
0
100
AcDbSymbolTable
 70
     6
  0
LTYPE
  5
14
330
5
100
AcDbSymbolTableRecord
100
AcDbLinetypeTableRecord
  2
ByBlock
 70
     0
  3

 72
    65
 73
     0
 40
0.0
  0
LTYPE
  5
15
330
5
100
AcDbSymbolTableRecord
100
AcDbLinetypeTableRecord
  2
ByLayer
 70
     0
  3

 72
    65
 73
     0
 40
0.0
  0
LTYPE
  5
16
330
5
100
AcDbSymbolTableRecord
100
AcDbLinetypeTableRecord
  2
Continuous
 70
     0
  3
Solid line
 72
    65
 73
     0
 40
0.0
  0
LTYPE
  5
6E
330
5
100
AcDbSymbolTableRecord
100
AcDbLinetypeTableRecord
  2
HIDDEN
 70
     0
  3
Hidden __ __ __ __ __ __ __ __ __ __ __ __ __ __
 72
    65
 73
     2
 40
1.905
 49
1.27
 74
     0
 49
-0.635
 74
     0
  0
LTYPE
  5
6F
330
5
100
AcDbSymbolTableRecord
100
AcDbLinetypeTableRecord
  2
PHANTOM
 70
     0
  3
Phantom ______  __  __  ______  __  __  ______
 72
    65
 73
     6
 40
12.7
 49
6.35
 74
     0
 49
-1.27
 74
     0
 49
1.27
 74
     0
 49
-1.27
 74
     0
 49
1.27
 74
     0
 49
-1.27
 74
     0
  0
LTYPE
  5
70
330
5
100
AcDbSymbolTableRecord
100
AcDbLinetypeTableRecord
  2
CENTER
 70
     0
  3
Center ____ _ ____ _ ____ _ ____ _ ____ _ ____
 72
    65
 73
     4
 40
10.16
 49
6.35
 74
     0
 49
-1.27
 74
     0
 49
1.27
 74
     0
 49
-1.27
 74
     0
  0
LTYPE
  5
71
330
5
100
AcDbSymbolTableRecord
100
AcDbLinetypeTableRecord
  2
CENTERX2
 70
     0
  3
Center (2x) ________  __  ________  __  _____
 72
    65
 73
     4
 40
20.32
 49
12.7
 74
     0
 49
-2.54
 74
     0
 49
2.54
 74
     0
 49
-2.54
 74
     0
  0
LTYPE
  5
72
330
5
100
AcDbSymbolTableRecord
100
AcDbLinetypeTableRecord
  2
DOT2
 70
     0
  3
Dot (.5x) ........................................
 72
    65
 73
     2
 40
0.635
 49
0.0
 74
     0
 49
-0.635
 74
     0
  0
ENDTAB
  0
TABLE
  2
LAYER
  5
2
330
0
100
AcDbSymbolTable
 70
     5
  0
LAYER
  5
10
330
2
100
AcDbSymbolTableRecord
100
AcDbLayerTableRecord
  2
0
 70
     0
 62
     7
  6
Continuous
370
    -3
390
F
  0
LAYER
  5
73
330
2
100
AcDbSymbolTableRecord
100
AcDbLayerTableRecord
  2
FORMAT
 70
     0
 62
     7
  6
Continuous
370
    -3
390
F
  0
LAYER
  5
74
330
2
100
AcDbSymbolTableRecord
100
AcDbLayerTableRecord
  2
VERMASSUNG
 70
     0
 62
     7
  6
Continuous
370
    -3
390
F
  0
LAYER
  5
75
330
2
100
AcDbSymbolTableRecord
100
AcDbLayerTableRecord
  2
KOPF_DÜNN
 70
     0
 62
     7
  6
Continuous
370
    -3
390
F
  0
LAYER
  5
76
330
2
100
AcDbSymbolTableRecord
100
AcDbLayerTableRecord
  2
KOPF_DICK
 70
     0
 62
     7
  6
Continuous
370
    15
390
F
  0
ENDTAB
  0
TABLE
  2
STYLE
  5
3
330
0
100
AcDbSymbolTable
 70
     3
  0
STYLE
  5
11
330
3
100
AcDbSymbolTableRecord
100
AcDbTextStyleTableRecord
  2
Standard
 70
     0
 40
0.0
 41
1.0
 50
0.0
 71
     0
 42
2.0
  3
txt
  4

  0
STYLE
  5
77
330
3
100
AcDbSymbolTableRecord
100
AcDbTextStyleTableRecord
  2
SLDTEXTSTYLE0
 70
     0
 40
0.0
 41
0.7
 50
0.0
 71
     0
 42
2.0
  3
TXT
  4

  0
STYLE
  5
7B
330
3
100
AcDbSymbolTableRecord
100
AcDbTextStyleTableRecord
  2
SLDTEXTSTYLE1
 70
     0
 40
0.0
 41
0.6411764706
 50
0.0
 71
     0
 42
2.0
  3
TXT
  4

  0
ENDTAB
  0
TABLE
  2
VIEW
  5
6
330
0
100
AcDbSymbolTable
 70
     0
  0
ENDTAB
  0
TABLE
  2
UCS
  5
7
330
0
100
AcDbSymbolTable
 70
     0
  0
ENDTAB
  0
TABLE
  2
APPID
  5
9
330
0
100
AcDbSymbolTable
 70
     1
  0
APPID
  5
12
330
9
100
AcDbSymbolTableRecord
100
AcDbRegAppTableRecord
  2
ACAD
 70
     0
  0
ENDTAB
  0
TABLE
  2
DIMSTYLE
  5
A
330
0
100
AcDbSymbolTable
 70
     2
100
AcDbDimStyleTable
  0
DIMSTYLE
105
27
330
A
100
AcDbSymbolTableRecord
100
AcDbDimStyleTableRecord
  2
ISO-25
 70
     0
 41
2.5
 42
0.625
 43
3.75
 44
1.25
 73
     0
 74
     0
 77
     1
 78
     8
140
2.5
141
2.5
143
0.0393700787
147
0.625
171
     3
172
     1
178
     0
271
     2
272
     2
274
     3
278
    44
283
     0
284
     8
340
11
  0
DIMSTYLE
105
177
102
{ACAD_REACTORS
330
176
330
183
330
18D
330
197
330
1A1
102
}
330
A
100
AcDbSymbolTableRecord
100
AcDbDimStyleTableRecord
  2
SLDDIMSTYLE0
 70
     0
 41
3.0
 44
0.0
 45
0.000000001
 73
     0
 74
     0
 77
     1
 78
    12
 79
     3
140
2.0
147
0.5
173
     1
178
     0
271
     2
272
     3
276
     2
284
    12
340
77
  0
ENDTAB
  0
TABLE
  2
BLOCK_RECORD
  5
1
330
0
100
AcDbSymbolTable
 70
     6
  0
BLOCK_RECORD
  5
1F
330
1
100
AcDbSymbolTableRecord
100
AcDbBlockTableRecord
  2
*Model_Space
340
22
  0
BLOCK_RECORD
  5
1B
330
1
100
AcDbSymbolTableRecord
100
AcDbBlockTableRecord
  2
*Paper_Space
340
1E
  0
BLOCK_RECORD
  5
23
330
1
100
AcDbSymbolTableRecord
100
AcDbBlockTableRecord
  2
*Paper_Space0
340
26
  0
BLOCK_RECORD
  5
178
330
1
100
AcDbSymbolTableRecord
100
AcDbBlockTableRecord
  2
_D
340
0
  0
BLOCK_RECORD
  5
184
330
1
100
AcDbSymbolTableRecord
100
AcDbBlockTableRecord
  2
_D_1
340
0
  0
BLOCK_RECORD
  5
18E
330
1
100
AcDbSymbolTableRecord
100
AcDbBlockTableRecord
  2
_D_2
340
0
  0
BLOCK_RECORD
  5
198
330
1
100
AcDbSymbolTableRecord
100
AcDbBlockTableRecord
  2
_D_3
340
0
  0
BLOCK_RECORD
  5
1A2
330
1
100
AcDbSymbolTableRecord
100
AcDbBlockTableRecord
  2
_D_4
340
0
  0
ENDTAB
  0
ENDSEC
  0
SECTION
  2
BLOCKS
  0
BLOCK
  5
20
330
1F
100
AcDbEntity
  8
0
100
AcDbBlockBegin
  2
*Model_Space
 70
     0
 10
0.0
 20
0.0
 30
0.0
  3
*Model_Space
  1

  0
ENDBLK
  5
21
330
1F
100
AcDbEntity
  8
0
100
AcDbBlockEnd
  0
BLOCK
  5
1C
330
1B
100
AcDbEntity
 67
     1
  8
0
100
AcDbBlockBegin
  2
*Paper_Space
 70
     0
 10
0.0
 20
0.0
 30
0.0
  3
*Paper_Space
  1

  0
ENDBLK
  5
1D
330
1B
100
AcDbEntity
 67
     1
  8
0
100
AcDbBlockEnd
  0
BLOCK
  5
24
330
23
100
AcDbEntity
  8
0
100
AcDbBlockBegin
  2
*Paper_Space0
 70
     0
 10
0.0
 20
0.0
 30
0.0
  3
*Paper_Space0
  1

  0
ENDBLK
  5
25
330
23
100
AcDbEntity
  8
0
100
AcDbBlockEnd
  0
BLOCK
  5
179
330
178
100
AcDbEntity
  8
0
100
AcDbBlockBegin
  2
_D
 70
     0
 10
0.0
 20
0.0
 30
0.0
  3
_D
  1

  0
SOLID
  5
17B
330
178
100
AcDbEntity
  8
VERMASSUNG
100
AcDbTrace
 10
102.2386518454
 20
153.0866940452
 30
0.0
 11
101.7886518454
 21
150.0866940452
 31
0.0
 12
102.6886518454
 22
150.0866940452
 32
0.0
 13
102.6886518454
 23
150.0866940452
 33
0.0
  0
SOLID
  5
17C
330
178
100
AcDbEntity
  8
VERMASSUNG
100
AcDbTrace
 10
102.2386518454
 20
73.0866940452
 30
0.0
 11
102.6886518454
 21
76.0866940452
 31
0.0
 12
101.7886518454
 22
76.0866940452
 32
0.0
 13
101.7886518454
 23
76.0866940452
 33
0.0
  0
LINE
  5
17D
330
178
100
AcDbEntity
  8
VERMASSUNG
100
AcDbLine
 10
147.8043737166
 20
153.0866940452
 30
0.0
 11
101.2386518454
 21
153.0866940452
 31
0.0
  0
LINE
  5
17E
330
178
100
AcDbEntity
  8
VERMASSUNG
100
AcDbLine
 10
147.8043737166
 20
73.0866940452
 30
0.0
 11
101.2386518454
 21
73.0866940452
 31
0.0
  0
LINE
  5
17F
330
178
100
AcDbEntity
  8
VERMASSUNG
100
AcDbLine
 10
102.2386518454
 20
153.0866940452
 30
0.0
 11
102.2386518454
 21
73.0866940452
 31
0.0
  0
MTEXT
  5
180
330
178
100
AcDbEntity
  8
VERMASSUNG
100
AcDbMText
 10
99.4605165892
 20
105.3823325622
 30
0.0
 40
2.0
 41
0.0
 71
     1
 72
     1
  1
HSK A
  7
SLDTEXTSTYLE0
 11
-7.044195017643634E-15
 21
1.0
 31
0.0
 73
     1
 44
1.0
  0
MTEXT
  5
181
330
178
100
AcDbEntity
  8
VERMASSUNG
100
AcDbMText
 10
99.6605165405
 20
114.3823321747
 30
0.0
 40
2.0
 41
0.0
 71
     1
 72
     1
  1
%%c
  7
SLDTEXTSTYLE0
 11
-7.044195017643634E-15
 21
1.0
 31
0.0
 73
     1
 44
1.0
  0
MTEXT
  5
182
330
178
100
AcDbEntity
  8
VERMASSUNG
100
AcDbMText
 10
99.6605162494
 20
117.9916755076
 30
0.0
 40
2.0
 41
0.0
 71
     1
 72
     1
  1
80
  7
SLDTEXTSTYLE0
 11
-7.044195017643634E-15
 21
1.0
 31
0.0
 73
     1
 44
1.0
  0
ENDBLK
  5
17A
330
178
100
AcDbEntity
  8
0
100
AcDbBlockEnd
  0
BLOCK
  5
185
330
184
100
AcDbEntity
  8
0
100
AcDbBlockBegin
  2
_D_1
 70
     0
 10
0.0
 20
0.0
 30
0.0
  3
_D_1
  1

  0
SOLID
  5
187
330
184
100
AcDbEntity
  8
VERMASSUNG
100
AcDbTrace
 10
107.4043737166
 20
168.5468071196
 30
0.0
 11
110.4043737166
 21
168.0968071196
 31
0.0
 12
110.4043737166
 22
168.9968071196
 32
0.0
 13
110.4043737166
 23
168.9968071196
 33
0.0
  0
SOLID
  5
188
330
184
100
AcDbEntity
  8
VERMASSUNG
100
AcDbTrace
 10
198.3043737166
 20
168.5468071196
 30
0.0
 11
195.3043737166
 21
168.9968071196
 31
0.0
 12
195.3043737166
 22
168.0968071196
 32
0.0
 13
195.3043737166
 23
168.0968071196
 33
0.0
  0
LINE
  5
189
330
184
100
AcDbEntity
  8
VERMASSUNG
100
AcDbLine
 10
107.4043737166
 20
137.2535724809
 30
0.0
 11
107.4043737166
 21
169.5468071196
 31
0.0
  0
LINE
  5
18A
330
184
100
AcDbEntity
  8
VERMASSUNG
100
AcDbLine
 10
198.3043737166
 20
128.7866940452
 30
0.0
 11
198.3043737166
 21
169.5468071196
 31
0.0
  0
LINE
  5
18B
330
184
100
AcDbEntity
  8
VERMASSUNG
100
AcDbLine
 10
107.4043737166
 20
168.5468071196
 30
0.0
 11
198.3043737166
 21
168.5468071196
 31
0.0
  0
MTEXT
  5
18C
330
184
100
AcDbEntity
  8
VERMASSUNG
100
AcDbMText
 10
150.4553778361
 20
171.1249427155
 30
0.0
 40
2.0
 41
0.0
 71
     1
 72
     1
  1
90.9
  7
SLDTEXTSTYLE0
 73
     1
 44
1.0
  0
ENDBLK
  5
186
330
184
100
AcDbEntity
  8
0
100
AcDbBlockEnd
  0
BLOCK
  5
18F
330
18E
100
AcDbEntity
  8
0
100
AcDbBlockBegin
  2
_D_2
 70
     0
 10
0.0
 20
0.0
 30
0.0
  3
_D_2
  1

  0
SOLID
  5
191
330
18E
100
AcDbEntity
  8
VERMASSUNG
100
AcDbTrace
 10
147.3043737166
 20
162.5468071196
 30
0.0
 11
150.3043737166
 21
162.0968071196
 31
0.0
 12
150.3043737166
 22
162.9968071196
 32
0.0
 13
150.3043737166
 23
162.9968071196
 33
0.0
  0
SOLID
  5
192
330
18E
100
AcDbEntity
  8
VERMASSUNG
100
AcDbTrace
 10
198.3043737166
 20
162.5468071196
 30
0.0
 11
195.3043737166
 21
162.9968071196
 31
0.0
 12
195.3043737166
 22
162.0968071196
 32
0.0
 13
195.3043737166
 23
162.0968071196
 33
0.0
  0
LINE
  5
193
330
18E
100
AcDbEntity
  8
VERMASSUNG
100
AcDbLine
 10
147.3043737166
 20
152.5866940452
 30
0.0
 11
147.3043737166
 21
163.5468071196
 31
0.0
  0
LINE
  5
194
330
18E
100
AcDbEntity
  8
VERMASSUNG
100
AcDbLine
 10
198.3043737166
 20
128.7866940452
 30
0.0
 11
198.3043737166
 21
163.5468071196
 31
0.0
  0
LINE
  5
195
330
18E
100
AcDbEntity
  8
VERMASSUNG
100
AcDbLine
 10
147.3043737166
 20
162.5468071196
 30
0.0
 11
198.3043737166
 21
162.5468071196
 31
0.0
  0
MTEXT
  5
196
330
18E
100
AcDbEntity
  8
VERMASSUNG
100
AcDbMText
 10
171.6054272697
 20
165.1249427155
 30
0.0
 40
2.0
 41
0.0
 71
     1
 72
     1
  1
51
  7
SLDTEXTSTYLE0
 73
     1
 44
1.0
  0
ENDBLK
  5
190
330
18E
100
AcDbEntity
  8
0
100
AcDbBlockEnd
  0
BLOCK
  5
199
330
198
100
AcDbEntity
  8
0
100
AcDbBlockBegin
  2
_D_3
 70
     0
 10
0.0
 20
0.0
 30
0.0
  3
_D_3
  1

  0
SOLID
  5
19B
330
198
100
AcDbEntity
  8
VERMASSUNG
100
AcDbTrace
 10
173.2543737166
 20
156.5468071196
 30
0.0
 11
176.2543737166
 21
156.0968071196
 31
0.0
 12
176.2543737166
 22
156.9968071196
 32
0.0
 13
176.2543737166
 23
156.9968071196
 33
0.0
  0
SOLID
  5
19C
330
198
100
AcDbEntity
  8
VERMASSUNG
100
AcDbTrace
 10
198.3043737166
 20
156.5468071196
 30
0.0
 11
195.3043737166
 21
156.9968071196
 31
0.0
 12
195.3043737166
 22
156.0968071196
 32
0.0
 13
195.3043737166
 23
156.0968071196
 33
0.0
  0
LINE
  5
19D
330
198
100
AcDbEntity
  8
VERMASSUNG
100
AcDbLine
 10
173.2543737166
 20
151.0340259672
 30
0.0
 11
173.2543737166
 21
157.5468071196
 31
0.0
  0
LINE
  5
19E
330
198
100
AcDbEntity
  8
VERMASSUNG
100
AcDbLine
 10
198.3043737166
 20
128.7866940452
 30
0.0
 11
198.3043737166
 21
157.5468071196
 31
0.0
  0
LINE
  5
19F
330
198
100
AcDbEntity
  8
VERMASSUNG
100
AcDbLine
 10
173.2543737166
 20
156.5468071196
 30
0.0
 11
198.3043737166
 21
156.5468071196
 31
0.0
  0
MTEXT
  5
1A0
330
198
100
AcDbEntity
  8
VERMASSUNG
100
AcDbMText
 10
182.6799813376
 20
159.1249427155
 30
0.0
 40
2.0
 41
0.0
 71
     1
 72
     1
  1
25.05
  7
SLDTEXTSTYLE0
 73
     1
 44
1.0
  0
ENDBLK
  5
19A
330
198
100
AcDbEntity
  8
0
100
AcDbBlockEnd
  0
BLOCK
  5
1A3
330
1A2
100
AcDbEntity
  8
0
100
AcDbBlockBegin
  2
_D_4
 70
     0
 10
0.0
 20
0.0
 30
0.0
  3
_D_4
  1

  0
SOLID
  5
1A5
330
1A2
100
AcDbEntity
  8
VERMASSUNG
100
AcDbTrace
 10
206.1074159139
 20
129.0866940452
 30
0.0
 11
205.6574159139
 21
126.0866940452
 31
0.0
 12
206.5574159139
 22
126.0866940452
 32
0.0
 13
206.5574159139
 23
126.0866940452
 33
0.0
  0
SOLID
  5
1A6
330
1A2
100
AcDbEntity
  8
VERMASSUNG
100
AcDbTrace
 10
206.1074159139
 20
97.0866940452
 30
0.0
 11
206.5574159139
 21
100.0866940452
 31
0.0
 12
205.6574159139
 22
100.0866940452
 32
0.0
 13
205.6574159139
 23
100.0866940452
 33
0.0
  0
LINE
  5
1A7
330
1A2
100
AcDbEntity
  8
VERMASSUNG
100
AcDbLine
 10
198.0043737166
 20
129.0866940452
 30
0.0
 11
207.1074159139
 21
129.0866940452
 31
0.0
  0
LINE
  5
1A8
330
1A2
100
AcDbEntity
  8
VERMASSUNG
100
AcDbLine
 10
198.0043737166
 20
97.0866940452
 30
0.0
 11
207.1074159139
 21
97.0866940452
 31
0.0
  0
LINE
  5
1A9
330
1A2
100
AcDbEntity
  8
VERMASSUNG
100
AcDbLine
 10
206.1074159139
 20
129.0866940452
 30
0.0
 11
206.1074159139
 21
97.0866940452
 31
0.0
  0
MTEXT
  5
1AA
330
1A2
100
AcDbEntity
  8
VERMASSUNG
100
AcDbMText
 10
203.3292806577
 20
106.6816944016
 30
0.0
 40
2.0
 41
0.0
 71
     1
 72
     1
  1
MBM
  7
SLDTEXTSTYLE0
 11
-7.044195017643634E-15
 21
1.0
 31
0.0
 73
     1
 44
1.0
  0
MTEXT
  5
1AB
330
1A2
100
AcDbEntity
  8
VERMASSUNG
100
AcDbMText
 10
203.529280609
 20
113.0816942399
 30
0.0
 40
2.0
 41
0.0
 71
     1
 72
     1
  1
%%c
  7
SLDTEXTSTYLE0
 11
-7.044195017643634E-15
 21
1.0
 31
0.0
 73
     1
 44
1.0
  0
MTEXT
  5
1AC
330
1A2
100
AcDbEntity
  8
VERMASSUNG
100
AcDbMText
 10
203.3292806577
 20
116.6916947199
 30
0.0
 40
2.0
 41
0.0
 71
     1
 72
     1
  1
32
  7
SLDTEXTSTYLE0
 11
-7.044195017643634E-15
 21
1.0
 31
0.0
 73
     1
 44
1.0
  0
ENDBLK
  5
1A4
330
1A2
100
AcDbEntity
  8
0
100
AcDbBlockEnd
  0
ENDSEC
  0
SECTION
  2
ENTITIES
  0
MTEXT
  5
78
330
1F
100
AcDbEntity
  8
KOPF_DÜNN
100
AcDbMText
 10
13.8892156294
 20
23.8442973028
 30
0.0
 40
3.0
 41
0.0
 71
     1
 72
     1
  1
102.080.321
  7
SLDTEXTSTYLE0
 73
     1
 44
1.0
  0
MTEXT
  5
79
330
1F
100
AcDbEntity
  8
VERMASSUNG
100
AcDbMText
 10
13.9329988022
 20
28.8834360957
 30
0.0
 40
3.0
 41
0.0
 71
     1
 72
     1
  1
Aufnahme_Master shank MBM 32
  7
SLDTEXTSTYLE0
 73
     1
 44
1.0
  0
MTEXT
  5
7A
330
1F
100
AcDbEntity
  8
VERMASSUNG
100
AcDbMText
 10
98.8601118557
 20
13.8365368761
 30
0.0
 40
2.0
 41
0.0
 71
     1
 72
     1
  1
Datum: 20.11.2007
  7
SLDTEXTSTYLE0
 73
     1
 44
1.0
  0
MTEXT
  5
7C
330
1F
100
AcDbEntity
  8
VERMASSUNG
100
AcDbMText
 10
13.933048693
 20
18.0482802738
 30
0.0
 40
2.0
 41
0.0
 71
     1
 72
     1
  1
HSK A 80 / MBM 32
  7
SLDTEXTSTYLE1
 73
     1
 44
1.0
  0
MTEXT
  5
7D
330
1F
100
AcDbEntity
  8
VERMASSUNG
100
AcDbMText
 10
13.9808475933
 20
13.9090974274
 30
0.0
 40
2.0
 41
0.0
 71
     1
 72
     1
  1
Gewicht: 1190g
  7
SLDTEXTSTYLE0
 73
     1
 44
1.0
  0
ARC
  5
7E
330
1F
100
AcDbEntity
  8
0
  6
Continuous
 62
     7
370
    15
100
AcDbCircle
 10
147.8043737166
 20
73.5866940452
 30
0.0
 40
0.5
100
AcDbArc
 50
180.0
 51
270.0
  0
ARC
  5
7F
330
1F
100
AcDbEntity
  8
0
  6
Continuous
 62
     7
370
    15
100
AcDbCircle
 10
147.8043737166
 20
152.5866940452
 30
0.0
 40
0.5
100
AcDbArc
 50
90.0
 51
180.0
  0
LINE
  5
80
330
1F
100
AcDbEntity
  8
0
  6
Continuous
 62
     7
370
    15
100
AcDbLine
 10
147.8043737166
 20
73.0866940452
 30
0.0
 11
151.2543737166
 21
73.0866940452
 31
0.0
  0
LINE
  5
81
330
1F
100
AcDbEntity
  8
0
  6
Continuous
 62
     7
370
    15
100
AcDbLine
 10
151.2699419042
 20
153.0866940452
 30
0.0
 11
147.8043737166
 21
153.0866940452
 31
0.0
  0
ARC
  5
82
330
1F
100
AcDbEntity
  8
0
  6
Continuous
 62
     7
370
    15
100
AcDbCircle
 10
146.4074367982
 20
82.0589091215
 30
0.0
 40
0.9962338214386932
100
AcDbArc
 50
25.7988228126
 51
90.0
  0
ARC
  5
83
330
1F
100
AcDbEntity
  8
0
  6
Continuous
 62
     7
370
    15
100
AcDbCircle
 10
146.4074367982
 20
144.1144789688
 30
0.0
 40
0.9962338214386665
100
AcDbArc
 50
270.0
 51
334.2011771874
  0
LINE
  5
84
330
1F
100
AcDbEntity
  8
0
  6
Continuous
 62
     7
370
    15
100
AcDbLine
 10
144.8043737166
 20
82.805142943
 30
0.0
 11
145.610219871
 21
83.0210687693
 31
0.0
  0
LINE
  5
85
330
1F
100
AcDbEntity
  8
0
  6
Continuous
 62
     7
370
    15
100
AcDbLine
 10
145.610219871
 20
143.1523193211
 30
0.0
 11
144.8043737166
 21
143.3682451474
 31
0.0
  0
LINE
  5
86
330
1F
100
AcDbEntity
  8
0
  6
Continuous
 62
     7
370
    15
100
AcDbLine
 10
130.5655090596
 20
142.6548751746
 30
0.0
 11
115.5043737166
 21
141.9003092756
 31
0.0
  0
LINE
  5
87
330
1F
100
AcDbEntity
  8
0
  6
Continuous
 62
     7
370
    15
100
AcDbLine
 10
144.8043737166
 20
143.3682451474
 30
0.0
 11
139.9943521384
 21
143.1272621024
 31
0.0
  0
LINE
  5
88
330
1F
100
AcDbEntity
  8
0
  6
Continuous
 62
     7
370
    15
100
AcDbLine
 10
139.9943935149
 20
83.046123915
 30
0.0
 11
144.8043737166
 21
82.805142943
 31
0.0
  0
LINE
  5
89
330
1F
100
AcDbEntity
  8
0
  6
Continuous
 62
     7
370
    15
100
AcDbLine
 10
119.5043737166
 20
84.0726780131
 30
0.0
 11
130.5659340661
 21
83.5184916229
 31
0.0
  0
ARC
  5
8A
330
1F
100
AcDbEntity
  8
0
  6
Continuous
 62
     7
370
    15
100
AcDbCircle
 10
145.8690389161
 20
82.055142943
 30
0.0
 40
0.9999999999999893
100
AcDbArc
 50
90.0
 51
105.0
  0
ARC
  5
8B
330
1F
100
AcDbEntity
  8
0
  6
Continuous
 62
     7
370
    15
100
AcDbCircle
 10
145.8690389161
 20
144.1182451474
 30
0.0
 40
1.000000000000003
100
AcDbArc
 50
255.0
 51
270.0
  0
LINE
  5
8C
330
1F
100
AcDbEntity
  8
0
  6
Continuous
 62
     7
370
    15
100
AcDbLine
 10
145.8690389161
 20
83.055142943
 30
0.0
 11
146.4074367982
 21
83.055142943
 31
0.0
  0
LINE
  5
8D
330
1F
100
AcDbEntity
  8
0
  6
Continuous
 62
     7
370
    15
100
AcDbLine
 10
146.4074367982
 20
143.1182451474
 30
0.0
 11
145.8690389161
 21
143.1182451474
 31
0.0
  0
ARC
  5
8E
330
1F
100
AcDbEntity
  8
0
  6
Continuous
 62
     7
370
    15
100
AcDbCircle
 10
177.2543737166
 20
93.0866940452
 30
0.0
 40
4.0
100
AcDbArc
 50
90.0
 51
180.0
  0
ARC
  5
8F
330
1F
100
AcDbEntity
  8
0
  6
Continuous
 62
     7
370
    15
100
AcDbCircle
 10
177.2543737166
 20
133.0866940452
 30
0.0
 40
4.0
100
AcDbArc
 50
180.0
 51
270.0
  0
LINE
  5
90
330
1F
100
AcDbEntity
  8
0
  6
Continuous
 62
     7
370
    15
100
AcDbLine
 10
177.2543737166
 20
97.0866940452
 30
0.0
 11
198.0043737166
 21
97.0866940452
 31
0.0
  0
LINE
  5
91
330
1F
100
AcDbEntity
  8
0
  6
Continuous
 62
     7
370
    15
100
AcDbLine
 10
198.0043737166
 20
129.0866940452
 30
0.0
 11
177.2543737166
 21
129.0866940452
 31
0.0
  0
LINE
  5
92
330
1F
100
AcDbEntity
  8
0
  6
Continuous
 62
     7
370
    15
100
AcDbLine
 10
198.0043737166
 20
97.0866940452
 30
0.0
 11
198.3043737166
 21
97.3866940452
 31
0.0
  0
LINE
  5
93
330
1F
100
AcDbEntity
  8
0
  6
Continuous
 62
     7
370
    15
100
AcDbLine
 10
198.3043737166
 20
128.7866940452
 30
0.0
 11
198.0043737166
 21
129.0866940452
 31
0.0
  0
LINE
  5
94
330
1F
100
AcDbEntity
  8
0
  6
Continuous
 62
     7
370
    15
100
AcDbLine
 10
109.0543737166
 20
87.2666940452
 30
0.0
 11
117.6043737166
 21
87.2666940452
 31
0.0
  0
ARC
  5
95
330
1F
100
AcDbEntity
  8
0
  6
Continuous
 62
     7
370
    15
100
AcDbCircle
 10
117.6043737166
 20
85.3666940452
 30
0.0
 40
1.899999999999997
100
AcDbArc
 50
42.9692748872
 51
90.0
  0
LINE
  5
96
330
1F
100
AcDbEntity
  8
0
  6
Continuous
 62
     7
370
    15
100
AcDbLine
 10
109.0543737166
 20
138.9066940452
 30
0.0
 11
107.4043842216
 21
137.2567045501
 31
0.0
  0
LINE
  5
97
330
1F
100
AcDbEntity
  8
0
  6
Continuous
 62
     7
370
    15
100
AcDbLine
 10
107.400769693
 20
88.9202980688
 30
0.0
 11
109.0543737166
 21
87.2666940452
 31
0.0
  0
ARC
  5
98
330
1F
100
AcDbEntity
  8
0
  6
Continuous
 62
     7
370
    15
100
AcDbCircle
 10
113.6043737166
 20
140.8066940452
 30
0.0
 40
1.900000000000002
100
AcDbArc
 50
270.0
 51
306.6115952788
  0
LINE
  5
99
330
1F
100
AcDbEntity
  8
0
  6
Continuous
 62
     7
370
    15
100
AcDbLine
 10
113.6043737166
 20
138.9066940452
 30
0.0
 11
109.0543737166
 21
138.9066940452
 31
0.0
  0
SPLINE
  5
9A
330
1F
100
AcDbEntity
  8
0
  6
Continuous
 62
     7
370
    15
100
AcDbSpline
210
0.0
220
0.0
230
1.0
 70
    24
 71
     3
 72
    11
 73
     7
 74
     0
 42
0.000000001
 43
0.00000001
 40
0.0
 40
0.0
 40
0.0
 40
0.0
 40
0.1323877169514958
 40
0.4819434960836149
 40
0.815486644148085
 40
1.0
 40
1.0
 40
1.0
 40
1.0
 10
190.1590742550117
 20
111.0866940451745
 30
0.0
 10
190.0632621113279
 20
111.0866940451745
 30
0.0
 10
189.7144681253181
 20
111.0866940451745
 30
0.0
 10
189.0622600174003
 20
111.0866940451745
 30
0.0
 10
188.3603554559398
 20
111.0866940451745
 30
0.0
 10
187.9837917993696
 20
111.0866940451745
 30
0.0
 10
187.8496731782532
 20
111.0866940451745
 30
0.0
  0
SPLINE
  5
9B
330
1F
100
AcDbEntity
  8
0
  6
Continuous
 62
     7
370
    15
100
AcDbSpline
210
0.0
220
0.0
230
1.0
 70
    24
 71
     3
 72
    10
 73
     6
 74
     0
 42
0.000000001
 43
0.00000001
 40
0.0
 40
0.0
 40
0.0
 40
0.0
 40
0.4391222274230459
 40
0.7513714712594607
 40
1.0
 40
1.0
 40
1.0
 40
1.0
 10
190.1590742550117
 20
115.0866940451746
 30
0.0
 10
190.324380866474
 20
114.8003745952948
 30
0.0
 10
190.6072330295089
 20
114.3104602778875
 30
0.0
 10
191.0184052177835
 20
113.5982891571367
 30
0.0
 10
191.223056162914
 20
113.2438233223537
 30
0.0
 10
191.3137747933909
 20
113.0866940451745
 30
0.0
  0
SPLINE
  5
9C
330
1F
100
AcDbEntity
  8
0
  6
Continuous
 62
     7
370
    15
100
AcDbSpline
210
0.0
220
0.0
230
1.0
 70
    24
 71
     3
 72
    11
 73
     7
 74
     0
 42
0.000000001
 43
0.00000001
 40
0.0
 40
0.0
 40
0.0
 40
0.0
 40
0.1845133558519149
 40
0.5180565039163908
 40
0.8676122830485042
 40
1.0
 40
1.0
 40
1.0
 40
1.0
 10
187.8496731782532
 20
115.0866940451746
 30
0.0
 10
187.9837917993696
 20
115.0866940451746
 30
0.0
 10
188.3603554559398
 20
115.0866940451746
 30
0.0
 10
189.0622600174003
 20
115.0866940451746
 30
0.0
 10
189.7144681253181
 20
115.0866940451746
 30
0.0
 10
190.0632621113278
 20
115.0866940451746
 30
0.0
 10
190.1590742550117
 20
115.0866940451746
 30
0.0
  0
SPLINE
  5
9D
330
1F
100
AcDbEntity
  8
0
  6
Continuous
 62
     7
370
    15
100
AcDbSpline
210
0.0
220
0.0
230
1.0
 70
    24
 71
     3
 72
    10
 73
     6
 74
     0
 42
0.000000001
 43
0.00000001
 40
0.0
 40
0.0
 40
0.0
 40
0.0
 40
0.4391222274230505
 40
0.7513714712594628
 40
1.0
 40
1.0
 40
1.0
 40
1.0
 10
186.6949726398739
 20
113.0866940451745
 30
0.0
 10
186.8602792513362
 20
113.3730134950543
 30
0.0
 10
187.1431314143712
 20
113.8629278124616
 30
0.0
 10
187.5543036026457
 20
114.5750989332124
 30
0.0
 10
187.7589545477762
 20
114.9295647679954
 30
0.0
 10
187.8496731782532
 20
115.0866940451746
 30
0.0
  0
SPLINE
  5
9E
330
1F
100
AcDbEntity
  8
0
  6
Continuous
 62
     7
370
    15
100
AcDbSpline
210
0.0
220
0.0
230
1.0
 70
    24
 71
     3
 72
    10
 73
     6
 74
     0
 42
0.000000001
 43
0.00000001
 40
0.0
 40
0.0
 40
0.0
 40
0.0
 40
0.4391222274230462
 40
0.7513714712594637
 40
1.0
 40
1.0
 40
1.0
 40
1.0
 10
187.8496731782532
 20
111.0866940451745
 30
0.0
 10
187.6843665667909
 20
111.3730134950543
 30
0.0
 10
187.4015144037559
 20
111.8629278124616
 30
0.0
 10
186.9903422154813
 20
112.5750989332124
 30
0.0
 10
186.7856912703509
 20
112.9295647679954
 30
0.0
 10
186.6949726398739
 20
113.0866940451745
 30
0.0
  0
CIRCLE
  5
9F
330
1F
100
AcDbEntity
  8
0
  6
Continuous
 62
     7
370
    15
100
AcDbCircle
 10
189.0043737166
 20
113.0866940452
 30
0.0
 40
2.349999999999994
  0
SPLINE
  5
A0
330
1F
100
AcDbEntity
  8
0
  6
Continuous
 62
     7
370
    15
100
AcDbSpline
210
0.0
220
0.0
230
1.0
 70
    24
 71
     3
 72
    10
 73
     6
 74
     0
 42
0.000000001
 43
0.00000001
 40
0.0
 40
0.0
 40
0.0
 40
0.0
 40
0.4391222274230493
 40
0.7513714712594605
 40
1.0
 40
1.0
 40
1.0
 40
1.0
 10
191.3137747933909
 20
113.0866940451745
 30
0.0
 10
191.1484681819286
 20
112.8003745952948
 30
0.0
 10
190.8656160188937
 20
112.3104602778875
 30
0.0
 10
190.4544438306191
 20
111.5982891571367
 30
0.0
 10
190.2497928854886
 20
111.2438233223537
 30
0.0
 10
190.1590742550117
 20
111.0866940451745
 30
0.0
  0
CIRCLE
  5
A1
330
1F
100
AcDbEntity
  8
0
  6
Continuous
 62
     7
370
    15
100
AcDbCircle
 10
189.0043737166
 20
113.0866940452
 30
0.0
 40
3.5
  0
CIRCLE
  5
A2
330
1F
100
AcDbEntity
  8
0
  6
Continuous
 62
     7
370
    15
100
AcDbCircle
 10
189.0043737166
 20
113.0866940452
 30
0.0
 40
4.0
  0
ARC
  5
A3
330
1F
100
AcDbEntity
  8
0
  6
Continuous
 62
     7
370
    15
100
AcDbCircle
 10
189.0043737166
 20
113.0866940452
 30
0.0
 40
2.000000000000024
100
AcDbArc
 50
330.0
 51
30.0
  0
ARC
  5
A4
330
1F
100
AcDbEntity
  8
0
  6
Continuous
 62
     7
370
    15
100
AcDbCircle
 10
189.0043737166
 20
113.0866940452
 30
0.0
 40
2.000000000000024
100
AcDbArc
 50
30.0
 51
90.0
  0
ARC
  5
A5
330
1F
100
AcDbEntity
  8
0
  6
Continuous
 62
     7
370
    15
100
AcDbCircle
 10
189.0043737166
 20
113.0866940452
 30
0.0
 40
2.000000000000016
100
AcDbArc
 50
270.0
 51
330.0
  0
ARC
  5
A6
330
1F
100
AcDbEntity
  8
0
  6
Continuous
 62
     7
370
    15
100
AcDbCircle
 10
189.0043737166
 20
113.0866940452
 30
0.0
 40
1.999999999999999
100
AcDbArc
 50
150.0
 51
210.0
  0
ARC
  5
A7
330
1F
100
AcDbEntity
  8
0
  6
Continuous
 62
     7
370
    15
100
AcDbCircle
 10
189.0043737166
 20
113.0866940452
 30
0.0
 40
2.0
100
AcDbArc
 50
210.0
 51
270.0
  0
ARC
  5
A8
330
1F
100
AcDbEntity
  8
0
  6
Continuous
 62
     7
370
    15
100
AcDbCircle
 10
189.0043737166
 20
113.0866940452
 30
0.0
 40
2.000000000000014
100
AcDbArc
 50
90.0
 51
150.0
  0
LINE
  5
A9
330
1F
100
AcDbEntity
  8
0
  6
Continuous
 62
     7
370
    15
100
AcDbLine
 10
147.3043737166
 20
73.5866940452
 30
0.0
 11
147.3043737166
 21
152.5866940428
 31
0.0
  0
LINE
  5
AA
330
1F
100
AcDbEntity
  8
0
  6
Continuous
 62
     7
370
    15
100
AcDbLine
 10
168.8406441154
 20
74.3568605831
 30
0.0
 11
168.8406441154
 21
137.9366940452
 31
0.0
  0
SPLINE
  5
AB
330
1F
100
AcDbEntity
  8
0
  6
Continuous
 62
     7
370
    15
100
AcDbSpline
210
0.0
220
0.0
230
1.0
 70
     8
 71
     3
 72
     8
 73
     4
 74
     0
 42
0.000000001
 43
0.00000001
 40
0.0
 40
0.0
 40
0.0
 40
0.0
 40
1.0
 40
1.0
 40
1.0
 40
1.0
 10
168.8406441154189
 20
74.35686058310037
 30
0.0
 10
168.2975063295275
 20
75.32845499142185
 30
0.0
 10
167.7553333627427
 20
76.30059507658274
 30
0.0
 10
167.2143737166325
 20
77.27340559484605
 30
0.0
  0
LINE
  5
AC
330
1F
100
AcDbEntity
  8
0
  6
Continuous
 62
     7
370
    15
100
AcDbLine
 10
167.2143737166
 20
77.2734055948
 30
0.0
 11
167.2143737166
 21
137.9366940452
 31
0.0
  0
SPLINE
  5
AD
330
1F
100
AcDbEntity
  8
0
  6
Continuous
 62
     7
370
    15
100
AcDbSpline
210
0.0
220
0.0
230
1.0
 70
    24
 71
     3
 72
     8
 73
     4
 74
     0
 42
0.000000001
 43
0.00000001
 40
0.0
 40
0.0
 40
0.0
 40
0.0
 40
1.0
 40
1.0
 40
1.0
 40
1.0
 10
167.2143737166325
 20
137.9366940451746
 30
0.0
 10
167.7441270030137
 20
137.9366940451746
 30
0.0
 10
168.2873499006014
 20
137.9366940451746
 30
0.0
 10
168.8406441154189
 20
137.9366940451746
 30
0.0
  0
LINE
  5
AE
330
1F
100
AcDbEntity
  8
0
  6
Continuous
 62
     7
370
    15
100
AcDbLine
 10
163.3943737166
 20
77.2734055948
 30
0.0
 11
163.3943737166
 21
137.9366940452
 31
0.0
  0
SPLINE
  5
AF
330
1F
100
AcDbEntity
  8
0
  6
Continuous
 62
     7
370
    15
100
AcDbSpline
210
0.0
220
0.0
230
1.0
 70
     8
 71
     3
 72
     8
 73
     4
 74
     0
 42
0.000000001
 43
0.00000001
 40
0.0
 40
0.0
 40
0.0
 40
0.0
 40
1.0
 40
1.0
 40
1.0
 40
1.0
 10
163.3943737166324
 20
77.27340559484605
 30
0.0
 10
162.8534140705221
 20
76.30059507658274
 30
0.0
 10
162.3112411037374
 20
75.32845499142185
 30
0.0
 10
161.768103317846
 20
74.35686058310037
 30
0.0
  0
LINE
  5
B0
330
1F
100
AcDbEntity
  8
0
  6
Continuous
 62
     7
370
    15
100
AcDbLine
 10
161.7681033178
 20
74.3568605831
 30
0.0
 11
161.7681033178
 21
137.9366940452
 31
0.0
  0
SPLINE
  5
B1
330
1F
100
AcDbEntity
  8
0
  6
Continuous
 62
     7
370
    15
100
AcDbSpline
210
0.0
220
0.0
230
1.0
 70
    24
 71
     3
 72
     8
 73
     4
 74
     0
 42
0.000000001
 43
0.00000001
 40
0.0
 40
0.0
 40
0.0
 40
0.0
 40
1.0
 40
1.0
 40
1.0
 40
1.0
 10
161.768103317846
 20
137.9366940451746
 30
0.0
 10
162.3213975326635
 20
137.9366940451746
 30
0.0
 10
162.8646204302511
 20
137.9366940451746
 30
0.0
 10
163.3943737166324
 20
137.9366940451746
 30
0.0
  0
LINE
  5
B2
330
1F
100
AcDbEntity
  8
0
  6
Continuous
 62
     7
370
    15
100
AcDbLine
 10
151.2543737166
 20
137.9366940452
 30
0.0
 11
161.7681033178
 21
137.9366940452
 31
0.0
  0
LINE
  5
B3
330
1F
100
AcDbEntity
  8
0
  6
Continuous
 62
     7
370
    15
100
AcDbLine
 10
161.7681033178
 20
74.3568605831
 30
0.0
 11
160.2543737166
 21
74.3568605831
 31
0.0
  0
SPLINE
  5
B4
330
1F
100
AcDbEntity
  8
0
  6
Continuous
 62
     7
370
    15
100
AcDbSpline
210
0.0
220
0.0
230
1.0
 70
     8
 71
     3
 72
    30
 73
    26
 74
     0
 42
0.000000001
 43
0.00000001
 40
0.0
 40
0.0
 40
0.0
 40
0.0
 40
0.1250000000000005
 40
0.1250000000000005
 40
0.1875000000000008
 40
0.1875000000000008
 40
0.2500000000000011
 40
0.2500000000000011
 40
0.3750000000000012
 40
0.3750000000000012
 40
0.4375000000000013
 40
0.4375000000000013
 40
0.5000000000000013
 40
0.5000000000000013
 40
0.6250000000000011
 40
0.6250000000000011
 40
0.6875000000000009
 40
0.6875000000000009
 40
0.7500000000000007
 40
0.7500000000000007
 40
0.8125000000000006
 40
0.8125000000000006
 40
0.8750000000000003
 40
0.8750000000000003
 40
1.0
 40
1.0
 40
1.0
 40
1.0
 10
160.2543737166324
 20
74.35686058310037
 30
0.0
 10
159.6571978397584
 20
74.35686058310037
 30
0.0
 10
159.0704917567367
 20
74.34153326813885
 30
0.0
 10
158.2053819264609
 20
74.29780065004677
 30
0.0
 10
157.9195214726108
 20
74.27976274174681
 30
0.0
 10
157.3529057852803
 20
74.23711920930535
 30
0.0
 10
157.0719660275508
 20
74.21244889793601
 30
0.0
 10
156.2555151283413
 20
74.13122131812634
 30
0.0
 10
155.7396140237132
 20
74.06702988423226
 30
0.0
 10
155.007411545498
 20
73.96079521284236
 30
0.0
 10
154.7691413660154
 20
73.92351480556242
 30
0.0
 10
154.3136200376009
 20
73.84758320967879
 30
0.0
 10
154.0966561064114
 20
73.80901725596738
 30
0.0
 10
153.4771341718173
 20
73.69297521784264
 30
0.0
 10
153.1056294857781
 20
73.61514796002838
 30
0.0
 10
152.6123685447268
 20
73.50325791942821
 30
0.0
 10
152.4601457639739
 20
73.46709175296853
 30
0.0
 10
152.1831293797325
 20
73.39863872583454
 30
0.0
 10
152.0577174303577
 20
73.36621067550332
 30
0.0
 10
151.8328774534319
 20
73.3056222501262
 30
0.0
 10
151.7334486565308
 20
73.27746066920939
 30
0.0
 10
151.5611467709165
 20
73.22607749483825
 30
0.0
 10
151.4880426468797
 20
73.20276779696361
 30
0.0
 10
151.3131756926508
 20
73.14222485220026
 30
0.0
 10
151.2543737166324
 20
73.1141236460243
 30
0.0
 10
151.2543737166324
 20
73.09919599891013
 30
0.0
  0
LINE
  5
B5
330
1F
100
AcDbEntity
  8
0
  6
Continuous
 62
     7
370
    15
100
AcDbLine
 10
151.2543737166
 20
73.0991959989
 30
0.0
 11
151.2543737166
 21
73.0866940452
 31
0.0
  0
SPLINE
  5
B6
330
1F
100
AcDbEntity
  8
0
  6
Continuous
 62
     7
370
    15
100
AcDbSpline
210
0.0
220
0.0
230
1.0
 70
     8
 71
     3
 72
    23
 73
    19
 74
     0
 42
0.000000001
 43
0.00000001
 40
0.0
 40
0.0
 40
0.0
 40
0.0
 40
0.0910958546468792
 40
0.1707320223409377
 40
0.2110440519299384
 40
0.302120525672169
 40
0.3816713102756598
 40
0.4219165821878909
 40
0.5144517191652742
 40
0.5545877081363955
 40
0.5953235757014188
 40
0.6362250562346606
 40
0.6893756467523529
 40
0.729789227234742
 40
0.770368754011958
 40
0.8529479601385942
 40
0.9448852754212954
 40
1.0
 40
1.0
 40
1.0
 40
1.0
 10
160.2543737166324
 20
152.0610445849847
 30
0.0
 10
159.8235788355648
 20
152.0651470423143
 30
0.0
 10
159.0161822581476
 20
152.0728358755677
 30
0.0
 10
158.0384007457821
 20
152.1212449866329
 30
0.0
 10
157.0876743671483
 20
152.1859225304819
 30
0.0
 10
156.1708884414151
 20
152.2695574152692
 30
0.0
 10
155.3173383032589
 20
152.3704212218518
 30
0.0
 10
154.5121460394701
 20
152.4793703029688
 30
0.0
 10
153.9077624187899
 20
152.5726446542866
 30
0.0
 10
153.3638600773014
 20
152.6649164564266
 30
0.0
 10
153.0093566775414
 20
152.7282456350994
 30
0.0
 10
152.6494213920093
 20
152.7955504104877
 30
0.0
 10
152.3291357142463
 20
152.8582786179057
 30
0.0
 10
152.0504903179914
 20
152.9148975548002
 30
0.0
 10
151.7544160940913
 20
152.9767551261731
 30
0.0
 10
151.4610438637745
 20
153.0403748046259
 30
0.0
 10
151.2718418554782
 20
153.0827573328845
 30
0.0
 10
151.27045986914
 20
153.0830763517941
 30
0.0
 10
151.2699419042313
 20
153.0831959192572
 30
0.0
  0
LINE
  5
B7
330
1F
100
AcDbEntity
  8
0
  6
Continuous
 62
     7
370
    15
100
AcDbLine
 10
161.7681033178
 20
152.061044585
 30
0.0
 11
160.2543737166
 21
152.061044585
 31
0.0
  0
LINE
  5
B8
330
1F
100
AcDbEntity
  8
0
  6
Continuous
 62
     7
370
    15
100
AcDbLine
 10
161.7681033178
 20
144.4311911699
 30
0.0
 11
161.7681033178
 21
152.061044585
 31
0.0
  0
LINE
  5
B9
330
1F
100
AcDbEntity
  8
0
  6
Continuous
 62
     7
370
    15
100
AcDbLine
 10
159.898588854
 20
144.4311911699
 30
0.0
 11
161.7681033178
 21
144.4311911699
 31
0.0
  0
SPLINE
  5
BA
330
1F
100
AcDbEntity
  8
0
  6
Continuous
 62
     7
370
    15
100
AcDbSpline
210
0.0
220
0.0
230
1.0
 70
     8
 71
     3
 72
    26
 73
    22
 74
     0
 42
0.000000001
 43
0.00000001
 40
0.0
 40
0.0
 40
0.0
 40
0.0
 40
0.2499999999999984
 40
0.2499999999999984
 40
0.3124999999999984
 40
0.3124999999999984
 40
0.3749999999999983
 40
0.3749999999999983
 40
0.4999999999999983
 40
0.4999999999999983
 40
0.6249999999999984
 40
0.6249999999999984
 40
0.7499999999999986
 40
0.7499999999999986
 40
0.812499999999999
 40
0.812499999999999
 40
0.8749999999999993
 40
0.8749999999999993
 40
0.9374999999999998
 40
0.9374999999999998
 40
1.0
 40
1.0
 40
1.0
 40
1.0
 10
151.2543737166324
 20
137.9366940451746
 30
0.0
 10
151.4582419985713
 20
138.8238811855491
 30
0.0
 10
151.7577665216276
 20
139.6543266325458
 30
0.0
 10
152.3015717168585
 20
140.6169253133315
 30
0.0
 10
152.4189472651421
 20
140.8056455533113
 30
0.0
 10
152.6729564728634
 20
141.1752301836686
 30
0.0
 10
152.8097114419156
 20
141.3560669709617
 30
0.0
 10
153.2448687590288
 20
141.8778870248587
 30
0.0
 10
153.5698652578911
 20
142.2012321766617
 30
0.0
 10
154.3009910039933
 20
142.79734248774
 30
0.0
 10
154.711738825463
 20
143.0720830723954
 30
0.0
 10
155.5964632883231
 20
143.5479131741545
 30
0.0
 10
156.0719577513821
 20
143.7515286855581
 30
0.0
 10
156.8416087243925
 20
144.0034101837628
 30
0.0
 10
157.1067150545241
 20
144.07789570984
 30
0.0
 10
157.6422312861576
 20
144.204922271994
 30
0.0
 10
157.9142652357903
 20
144.2580256173117
 30
0.0
 10
158.4669923632788
 20
144.3436376024824
 30
0.0
 10
158.7476837865408
 20
144.3761502415026
 30
0.0
 10
159.3181144733893
 20
144.4199724356034
 30
0.0
 10
159.6086334929523
 20
144.4311911698695
 30
0.0
 10
159.8985888540429
 20
144.4311911698695
 30
0.0
  0
LINE
  5
BB
330
1F
100
AcDbEntity
  8
0
  6
Continuous
 62
     7
370
    15
100
AcDbLine
 10
172.2543737166
 20
74.3568605831
 30
0.0
 11
168.8406441154
 21
74.3568605831
 31
0.0
  0
LINE
  5
BC
330
1F
100
AcDbEntity
  8
0
  6
Continuous
 62
     7
370
    15
100
AcDbLine
 10
168.8406441154
 20
137.9366940452
 30
0.0
 11
172.2543737166
 21
137.9366940452
 31
0.0
  0
LINE
  5
BD
330
1F
100
AcDbEntity
  8
0
  6
Continuous
 62
     7
370
    15
100
AcDbLine
 10
173.2543737166
 20
75.3905403952
 30
0.0
 11
173.2543737166
 21
137.9366940452
 31
0.0
  0
SPLINE
  5
BE
330
1F
100
AcDbEntity
  8
0
  6
Continuous
 62
     7
370
    15
100
AcDbSpline
210
0.0
220
0.0
230
1.0
 70
     8
 71
     3
 72
    14
 73
    10
 74
     0
 42
0.000000001
 43
0.00000001
 40
0.0
 40
0.0
 40
0.0
 40
0.0
 40
0.25
 40
0.25
 40
0.5
 40
0.5
 40
0.75
 40
0.75
 40
1.0
 40
1.0
 40
1.0
 40
1.0
 10
173.2543737166324
 20
75.39054039523302
 30
0.0
 10
173.2543737166324
 20
75.2564139579957
 30
0.0
 10
173.2293561656049
 20
75.12436026924114
 30
0.0
 10
173.1315014273522
 20
74.87610046233002
 30
0.0
 10
173.0588995353411
 20
74.76171638585424
 30
0.0
 10
172.8756314983683
 20
74.56920530700626
 30
0.0
 10
172.764075404908
 20
74.49071952845361
 30
0.0
 10
172.5209544559864
 20
74.38495476521129
 30
0.0
 10
172.3870301850287
 20
74.35686058310039
 30
0.0
 10
172.2543737166324
 20
74.35686058310039
 30
0.0
  0
SPLINE
  5
BF
330
1F
100
AcDbEntity
  8
0
  6
Continuous
 62
     7
370
    15
100
AcDbSpline
210
0.0
220
0.0
230
1.0
 70
    24
 71
     3
 72
    12
 73
     8
 74
     0
 42
0.000000001
 43
0.00000001
 40
0.0
 40
0.0
 40
0.0
 40
0.0
 40
0.2500000000000031
 40
0.2500000000000031
 40
0.5000000000000031
 40
0.5000000000000031
 40
1.0
 40
1.0
 40
1.0
 40
1.0
 10
172.2543737166324
 20
137.9366940451746
 30
0.0
 10
172.4056142721873
 20
137.9366940451746
 30
0.0
 10
172.5539894293015
 20
137.9366940451746
 30
0.0
 10
172.8115313850124
 20
137.9366940451746
 30
0.0
 10
172.9207763833591
 20
137.9366940451746
 30
0.0
 10
173.1751189918242
 20
137.9366940451746
 30
0.0
 10
173.2543737166324
 20
137.9366940451746
 30
0.0
 10
173.2543737166324
 20
137.9366940451746
 30
0.0
  0
SPLINE
  5
C0
330
1F
100
AcDbEntity
  8
0
  6
Continuous
 62
     7
370
    15
100
AcDbSpline
210
0.0
220
0.0
230
1.0
 70
     8
 71
     3
 72
    10
 73
     6
 74
     0
 42
0.000000001
 43
0.00000001
 40
0.0
 40
0.0
 40
0.0
 40
0.0
 40
0.5
 40
0.5
 40
1.0
 40
1.0
 40
1.0
 40
1.0
 10
167.2143737166325
 20
78.73774027653717
 30
0.0
 10
167.2143737166324
 20
78.81614375657497
 30
0.0
 10
167.2036051670928
 20
78.89535134879387
 30
0.0
 10
167.160974894309
 20
79.04745080156985
 30
0.0
 10
167.1294037798429
 20
79.11989156800996
 30
0.0
 10
167.0884517598101
 20
79.18669404517453
 30
0.0
  0
SPLINE
  5
C1
330
1F
100
AcDbEntity
  8
0
  6
Continuous
 62
     7
370
    15
100
AcDbSpline
210
0.0
220
0.0
230
1.0
 70
    24
 71
     3
 72
    14
 73
    10
 74
     0
 42
0.000000001
 43
0.00000001
 40
0.0
 40
0.0
 40
0.0
 40
0.0
 40
0.4999999999999987
 40
0.4999999999999987
 40
0.749999999999998
 40
0.749999999999998
 40
0.874999999999999
 40
0.874999999999999
 40
1.0
 40
1.0
 40
1.0
 40
1.0
 10
167.0884517598101
 20
79.18669404517455
 30
0.0
 10
167.0407273852763
 20
79.18669404517455
 30
0.0
 10
166.9801806287551
 20
79.18669404517455
 30
0.0
 10
166.8443999295762
 20
79.18669404517455
 30
0.0
 10
166.791785756061
 20
79.18669404517455
 30
0.0
 10
166.6864020425768
 20
79.18669404517455
 30
0.0
 10
166.64613054624
 20
79.18669404517453
 30
0.0
 10
166.5466644256625
 20
79.18669404517455
 30
0.0
 10
166.4834873886635
 20
79.18669404517455
 30
0.0
 10
166.4143737166324
 20
79.18669404517455
 30
0.0
  0
SPLINE
  5
C2
330
1F
100
AcDbEntity
  8
0
  6
Continuous
 62
     7
370
    15
100
AcDbSpline
210
0.0
220
0.0
230
1.0
 70
    24
 71
     3
 72
    12
 73
     8
 74
     0
 42
0.000000001
 43
0.00000001
 40
0.0
 40
0.0
 40
0.0
 40
0.0
 40
0.5
 40
0.5
 40
0.75
 40
0.75
 40
1.0
 40
1.0
 40
1.0
 40
1.0
 10
166.8004941896926
 20
146.9866940451746
 30
0.0
 10
166.7601994416865
 20
146.9866940451745
 30
0.0
 10
166.7136334097517
 20
146.9866940451745
 30
0.0
 10
166.6235324584208
 20
146.9866940451746
 30
0.0
 10
166.589513897987
 20
146.9866940451746
 30
0.0
 10
166.5098809758297
 20
146.9866940451746
 30
0.0
 10
166.4627687796955
 20
146.9866940451746
 30
0.0
 10
166.4143737166324
 20
146.9866940451746
 30
0.0
  0
SPLINE
  5
C3
330
1F
100
AcDbEntity
  8
0
  6
Continuous
 62
     7
370
    15
100
AcDbSpline
210
0.0
220
0.0
230
1.0
 70
     8
 71
     3
 72
    10
 73
     6
 74
     0
 42
0.000000001
 43
0.00000001
 40
0.0
 40
0.0
 40
0.0
 40
0.0
 40
0.5
 40
0.5
 40
1.0
 40
1.0
 40
1.0
 40
1.0
 10
167.2143737166324
 20
147.711116423028
 30
0.0
 10
167.2143737166324
 20
147.5644663005919
 30
0.0
 10
167.176175642842
 20
147.4194716068411
 30
0.0
 10
167.0333402914086
 20
147.1671958196366
 30
0.0
 10
166.9275414657025
 20
147.0591337617899
 30
0.0
 10
166.8004941896927
 20
146.9866940451746
 30
0.0
  0
SPLINE
  5
C4
330
1F
100
AcDbEntity
  8
0
  6
Continuous
 62
     7
370
    15
100
AcDbSpline
210
0.0
220
0.0
230
1.0
 70
     8
 71
     3
 72
    10
 73
     6
 74
     0
 42
0.000000001
 43
0.00000001
 40
0.0
 40
0.0
 40
0.0
 40
0.0
 40
0.5
 40
0.5
 40
1.0
 40
1.0
 40
1.0
 40
1.0
 10
166.9051258299285
 20
137.9366940451746
 30
0.0
 10
167.0138017484475
 20
138.0560751800586
 30
0.0
 10
167.0897192659855
 20
138.2003781670733
 30
0.0
 10
167.1899140973239
 20
138.5026905696419
 30
0.0
 10
167.2143737166324
 20
138.6631384789357
 30
0.0
 10
167.2143737166325
 20
138.8224303859125
 30
0.0
  0
SPLINE
  5
C5
330
1F
100
AcDbEntity
  8
0
  6
Continuous
 62
     7
370
    15
100
AcDbSpline
210
0.0
220
0.0
230
1.0
 70
    24
 71
     3
 72
    10
 73
     6
 74
     0
 42
0.000000001
 43
0.00000001
 40
0.0
 40
0.0
 40
0.0
 40
0.0
 40
0.5
 40
0.5
 40
1.0
 40
1.0
 40
1.0
 40
1.0
 10
166.9051258299286
 20
137.9366940451746
 30
0.0
 10
167.0125733857828
 20
137.9366940451746
 30
0.0
 10
167.0894825656128
 20
137.9366940451746
 30
0.0
 10
167.1897380915323
 20
137.9366940451746
 30
0.0
 10
167.2143737166324
 20
137.9366940451746
 30
0.0
 10
167.2143737166324
 20
137.9366940451746
 30
0.0
  0
SPLINE
  5
C6
330
1F
100
AcDbEntity
  8
0
  6
Continuous
 62
     7
370
    15
100
AcDbSpline
210
0.0
220
0.0
230
1.0
 70
     8
 71
     3
 72
    10
 73
     6
 74
     0
 42
0.000000001
 43
0.00000001
 40
0.0
 40
0.0
 40
0.0
 40
0.0
 40
0.5
 40
0.5
 40
1.0
 40
1.0
 40
1.0
 40
1.0
 10
163.8082532435724
 20
146.9866940451746
 30
0.0
 10
163.6821325080918
 20
147.0586054676345
 30
0.0
 10
163.5754768799883
 20
147.1669760801549
 30
0.0
 10
163.4322328044632
 20
147.4201670734486
 30
0.0
 10
163.3943737166324
 20
147.565299591255
 30
0.0
 10
163.3943737166324
 20
147.711116423028
 30
0.0
  0
SPLINE
  5
C7
330
1F
100
AcDbEntity
  8
0
  6
Continuous
 62
     7
370
    15
100
AcDbSpline
210
0.0
220
0.0
230
1.0
 70
    24
 71
     3
 72
    12
 73
     8
 74
     0
 42
0.000000001
 43
0.00000001
 40
0.0
 40
0.0
 40
0.0
 40
0.0
 40
0.2499999999999982
 40
0.2499999999999982
 40
0.4999999999999964
 40
0.4999999999999964
 40
1.0
 40
1.0
 40
1.0
 40
1.0
 10
164.1943737166347
 20
146.9866940451746
 30
0.0
 10
164.1460945385014
 20
146.9866940451746
 30
0.0
 10
164.0983935783838
 20
146.9866940451746
 30
0.0
 10
164.0189772985262
 20
146.9866940451746
 30
0.0
 10
163.9849285600021
 20
146.9866940451745
 30
0.0
 10
163.8949704573011
 20
146.9866940451746
 30
0.0
 10
163.8488777576289
 20
146.9866940451746
 30
0.0
 10
163.8082532435724
 20
146.9866940451746
 30
0.0
  0
SPLINE
  5
C8
330
1F
100
AcDbEntity
  8
0
  6
Continuous
 62
     7
370
    15
100
AcDbSpline
210
0.0
220
0.0
230
1.0
 70
    24
 71
     3
 72
    14
 73
    10
 74
     0
 42
0.000000001
 43
0.00000001
 40
0.0
 40
0.0
 40
0.0
 40
0.0
 40
0.1249999999999994
 40
0.1249999999999994
 40
0.2499999999999988
 40
0.2499999999999988
 40
0.5000000000000009
 40
0.5000000000000009
 40
1.0
 40
1.0
 40
1.0
 40
1.0
 10
164.1943737166324
 20
79.18669404517455
 30
0.0
 10
164.1251972850037
 20
79.18669404517453
 30
0.0
 10
164.0620760523574
 20
79.18669404517456
 30
0.0
 10
163.9614992556789
 20
79.18669404517455
 30
0.0
 10
163.9223052237897
 20
79.18669404517455
 30
0.0
 10
163.8174131091424
 20
79.18669404517453
 30
0.0
 10
163.7646256720045
 20
79.18669404517455
 30
0.0
 10
163.6290385455172
 20
79.18669404517456
 30
0.0
 10
163.5682134296439
 20
79.18669404517456
 30
0.0
 10
163.5202956734548
 20
79.18669404517455
 30
0.0
  0
SPLINE
  5
C9
330
1F
100
AcDbEntity
  8
0
  6
Continuous
 62
     7
370
    15
100
AcDbSpline
210
0.0
220
0.0
230
1.0
 70
     8
 71
     3
 72
    10
 73
     6
 74
     0
 42
0.000000001
 43
0.00000001
 40
0.0
 40
0.0
 40
0.0
 40
0.0
 40
0.5
 40
0.5
 40
1.0
 40
1.0
 40
1.0
 40
1.0
 10
163.5202956734548
 20
79.18669404517456
 30
0.0
 10
163.4791118559139
 20
79.11951345118607
 30
0.0
 10
163.447180793008
 20
79.04583955092
 30
0.0
 10
163.4049325026023
 20
78.89409336702052
 30
0.0
 10
163.3943737166325
 20
78.81668432101029
 30
0.0
 10
163.3943737166325
 20
78.73774027653698
 30
0.0
  0
SPLINE
  5
CA
330
1F
100
AcDbEntity
  8
0
  6
Continuous
 62
     7
370
    15
100
AcDbSpline
210
0.0
220
0.0
230
1.0
 70
    24
 71
     3
 72
    10
 73
     6
 74
     0
 42
0.000000001
 43
0.00000001
 40
0.0
 40
0.0
 40
0.0
 40
0.0
 40
0.5
 40
0.5
 40
1.0
 40
1.0
 40
1.0
 40
1.0
 10
163.3943737166324
 20
137.9366940451746
 30
0.0
 10
163.3943737166324
 20
137.9366940451746
 30
0.0
 10
163.4189843345689
 20
137.9366940451746
 30
0.0
 10
163.518675722884
 20
137.9366940451746
 30
0.0
 10
163.5962691872685
 20
137.9366940451746
 30
0.0
 10
163.7036216033364
 20
137.9366940451746
 30
0.0
  0
SPLINE
  5
CB
330
1F
100
AcDbEntity
  8
0
  6
Continuous
 62
     7
370
    15
100
AcDbSpline
210
0.0
220
0.0
230
1.0
 70
     8
 71
     3
 72
    10
 73
     6
 74
     0
 42
0.000000001
 43
0.00000001
 40
0.0
 40
0.0
 40
0.0
 40
0.0
 40
0.5
 40
0.5
 40
1.0
 40
1.0
 40
1.0
 40
1.0
 10
163.3943737166324
 20
138.8224303859129
 30
0.0
 10
163.3943737166324
 20
138.6629982786098
 30
0.0
 10
163.418926107049
 20
138.5022424734283
 30
0.0
 10
163.5192249781322
 20
138.1999530099255
 30
0.0
 10
163.5959660643865
 20
138.0549542871079
 30
0.0
 10
163.7036216033364
 20
137.9366940451746
 30
0.0
  0
LINE
  5
CC
330
1F
100
AcDbEntity
  8
0
  6
Continuous
 62
     7
370
    15
100
AcDbLine
 10
166.4143737166
 20
146.9866940452
 30
0.0
 11
164.1943737166
 21
146.9866940452
 31
0.0
  0
LINE
  5
CD
330
1F
100
AcDbEntity
  8
0
  6
Continuous
 62
     7
370
    15
100
AcDbLine
 10
166.4143737166
 20
79.1866940452
 30
0.0
 11
164.1943737166
 21
79.1866940452
 31
0.0
  0
LINE
  5
CE
330
1F
100
AcDbEntity
  8
0
  6
Continuous
 62
     7
370
    15
100
AcDbLine
 10
144.8043737166
 20
82.805142943
 30
0.0
 11
144.8043737166
 21
143.3682451474
 31
0.0
  0
LINE
  5
CF
330
1F
100
AcDbEntity
  8
0
  6
Continuous
 62
     7
370
    15
100
AcDbLine
 10
119.5043737166
 20
84.0726780131
 30
0.0
 11
119.5043737166
 21
85.7701271209
 31
0.0
  0
SPLINE
  5
D0
330
1F
100
AcDbEntity
  8
0
  6
Continuous
 62
     7
370
    15
100
AcDbSpline
210
0.0
220
0.0
230
1.0
 70
     8
 71
     3
 72
    16
 73
    12
 74
     0
 42
0.000000001
 43
0.00000001
 40
0.0
 40
0.0
 40
0.0
 40
0.0
 40
0.1249999999999996
 40
0.1249999999999996
 40
0.2499999999999992
 40
0.2499999999999992
 40
0.4999999999999994
 40
0.4999999999999994
 40
0.7499999999999997
 40
0.7499999999999997
 40
1.0
 40
1.0
 40
1.0
 40
1.0
 10
118.3560152837299
 20
87.35503700060933
 30
0.0
 10
118.409058021897
 20
87.27970611133875
 30
0.0
 10
118.4735220565675
 20
87.20647281946952
 30
0.0
 10
118.6065054611468
 20
87.06313446990822
 30
0.0
 10
118.6755326532882
 20
86.99287762711236
 30
0.0
 10
118.8790407031867
 20
86.78500849435308
 30
0.0
 10
119.0097947499993
 20
86.6502575211002
 30
0.0
 10
119.2350615181526
 20
86.38629939418621
 30
0.0
 10
119.3304036340425
 20
86.25698106431165
 30
0.0
 10
119.4657035312727
 20
86.00443965805158
 30
0.0
 10
119.5043737166324
 20
85.88409823256646
 30
0.0
 10
119.5043737166324
 20
85.77012712085464
 30
0.0
  0
SPLINE
  5
D1
330
1F
100
AcDbEntity
  8
0
  6
Continuous
 62
     7
370
    15
100
AcDbSpline
210
0.0
220
0.0
230
1.0
 70
     8
 71
     3
 72
    14
 73
    10
 74
     0
 42
0.000000001
 43
0.00000001
 40
0.0
 40
0.0
 40
0.0
 40
0.0
 40
0.1250000000000001
 40
0.1250000000000001
 40
0.2500000000000002
 40
0.2500000000000002
 40
0.5000000000000023
 40
0.5000000000000023
 40
1.0
 40
1.0
 40
1.0
 40
1.0
 10
117.6043737166325
 20
87.78095905077632
 30
0.0
 10
117.6538982935665
 20
87.7864151785501
 30
0.0
 10
117.706640447897
 20
87.78573001847678
 30
0.0
 10
117.8071730169962
 20
87.77162245892454
 30
0.0
 10
117.8547973666085
 20
87.75848087169197
 30
0.0
 10
117.9812550415447
 20
87.71073118705134
 30
0.0
 10
118.0469451040346
 20
87.66883085221934
 30
0.0
 10
118.2162544259435
 20
87.5386080603655
 30
0.0
 10
118.2914506515296
 20
87.44673119527407
 30
0.0
 10
118.3560152837295
 20
87.35503700060931
 30
0.0
  0
SPLINE
  5
D2
330
1F
100
AcDbEntity
  8
0
  6
Continuous
 62
     7
370
    15
100
AcDbSpline
210
0.0
220
0.0
230
1.0
 70
     8
 71
     3
 72
     8
 73
     4
 74
     0
 42
0.000000001
 43
0.00000001
 40
0.0
 40
0.0
 40
0.0
 40
0.0
 40
1.0
 40
1.0
 40
1.0
 40
1.0
 10
115.287470414714
 20
87.50068667652536
 30
0.0
 10
116.0516436235849
 20
87.60321775869966
 30
0.0
 10
116.8252958849067
 20
87.69512796530766
 30
0.0
 10
117.6043737166325
 20
87.78095905077632
 30
0.0
  0
SPLINE
  5
D3
330
1F
100
AcDbEntity
  8
0
  6
Continuous
 62
     7
370
    15
100
AcDbSpline
210
0.0
220
0.0
230
1.0
 70
     8
 71
     3
 72
    14
 73
    10
 74
     0
 42
0.000000001
 43
0.00000001
 40
0.0
 40
0.0
 40
0.0
 40
0.0
 40
0.4999999999999968
 40
0.4999999999999968
 40
0.7499999999999967
 40
0.7499999999999967
 40
0.8749999999999983
 40
0.8749999999999983
 40
1.0
 40
1.0
 40
1.0
 40
1.0
 10
109.0543737166325
 20
87.26956267145523
 30
0.0
 10
110.1059014907406
 20
87.27478596289909
 30
0.0
 10
111.1548329844282
 20
87.28672458965814
 30
0.0
 10
112.7188149368727
 20
87.32935827564587
 30
0.0
 10
113.238594031392
 20
87.34763477298499
 30
0.0
 10
114.0132513041364
 20
87.38828356031773
 30
0.0
 10
114.2706290760499
 20
87.40405499535768
 30
0.0
 10
114.7823098135763
 20
87.44373588860678
 30
0.0
 10
115.0368340680206
 20
87.4670581541426
 30
0.0
 10
115.2874704147141
 20
87.5006866765252
 30
0.0
  0
SPLINE
  5
D4
330
1F
100
AcDbEntity
  8
0
  6
Continuous
 62
     7
370
    15
100
AcDbSpline
210
0.0
220
0.0
230
1.0
 70
     8
 71
     3
 72
     8
 73
     4
 74
     0
 42
0.000000001
 43
0.00000001
 40
0.0
 40
0.0
 40
0.0
 40
0.0
 40
1.0
 40
1.0
 40
1.0
 40
1.0
 10
108.9243138094142
 20
87.4253937621836
 30
0.0
 10
108.9639183067971
 20
87.37237195791819
 30
0.0
 10
109.0074861616709
 20
87.32046772639751
 30
0.0
 10
109.0543737166325
 20
87.26956267145523
 30
0.0
  0
SPLINE
  5
D5
330
1F
100
AcDbEntity
  8
0
  6
Continuous
 62
     7
370
    15
100
AcDbSpline
210
0.0
220
0.0
230
1.0
 70
     8
 71
     3
 72
     8
 73
     4
 74
     0
 42
0.000000001
 43
0.00000001
 40
0.0
 40
0.0
 40
0.0
 40
0.0
 40
1.0
 40
1.0
 40
1.0
 40
1.0
 10
109.0543737166325
 20
138.9038254188938
 30
0.0
 10
109.0074861616686
 20
138.852920363949
 30
0.0
 10
108.9639183067926
 20
138.8010161324256
 30
0.0
 10
108.9243138094081
 20
138.7479943281574
 30
0.0
  0
SPLINE
  5
D6
330
1F
100
AcDbEntity
  8
0
  6
Continuous
 62
     7
370
    15
100
AcDbSpline
210
0.0
220
0.0
230
1.0
 70
     8
 71
     3
 72
    10
 73
     6
 74
     0
 42
0.000000001
 43
0.00000001
 40
0.0
 40
0.0
 40
0.0
 40
0.0
 40
0.5
 40
0.5
 40
1.0
 40
1.0
 40
1.0
 40
1.0
 10
113.6043737166324
 20
138.8062956668434
 30
0.0
 10
112.8524917787213
 20
138.8431554159765
 30
0.0
 10
112.0954728146412
 20
138.863552462544
 30
0.0
 10
110.5776768853972
 20
138.8924225856215
 30
0.0
 10
109.8166341146111
 20
138.9000390156121
 30
0.0
 10
109.0543737166325
 20
138.9038254188938
 30
0.0
  0
SPLINE
  5
D7
330
1F
100
AcDbEntity
  8
0
  6
Continuous
 62
     7
370
    15
100
AcDbSpline
210
0.0
220
0.0
230
1.0
 70
     8
 71
     3
 72
    20
 73
    16
 74
     0
 42
0.000000001
 43
0.00000001
 40
0.0
 40
0.0
 40
0.0
 40
0.0
 40
0.1249999999999991
 40
0.1249999999999991
 40
0.2499999999999982
 40
0.2499999999999982
 40
0.4999999999999986
 40
0.4999999999999986
 40
0.7499999999999989
 40
0.7499999999999989
 40
0.8749999999999991
 40
0.8749999999999991
 40
0.9374999999999996
 40
0.9374999999999996
 40
1.0
 40
1.0
 40
1.0
 40
1.0
 10
115.5043737166325
 20
140.2873008614654
 30
0.0
 10
115.5043737166325
 20
140.2276453384734
 30
0.0
 10
115.4918775099015
 20
140.1652649687194
 30
0.0
 10
115.4458289146278
 20
140.0389345916668
 30
0.0
 10
115.412313800334
 20
139.9745440466262
 30
0.0
 10
115.2841086714984
 20
139.7779107921059
 30
0.0
 10
115.1606382127204
 20
139.6408826141293
 30
0.0
 10
114.8576930667552
 20
139.3672104769917
 30
0.0
 10
114.6811577416591
 20
139.2297210153665
 30
0.0
 10
114.3582320007828
 20
139.028631210882
 30
0.0
 10
114.2404865695215
 20
138.9614608352518
 30
0.0
 10
114.0326718104778
 20
138.8750804398484
 30
0.0
 10
113.9571262541432
 20
138.8484437589458
 30
0.0
 10
113.7878512991684
 20
138.8108910468058
 30
0.0
 10
113.6944152695685
 20
138.801881530946
 30
0.0
 10
113.6043737166324
 20
138.8062956668434
 30
0.0
  0
LINE
  5
D8
330
1F
100
AcDbEntity
  8
0
  6
Continuous
 62
     7
370
    15
100
AcDbLine
 10
115.5043737166
 20
140.2873008615
 30
0.0
 11
115.5043737166
 21
141.9003092756
 31
0.0
  0
SPLINE
  5
D9
330
1F
100
AcDbEntity
  8
0
  6
Continuous
 62
     7
370
    15
100
AcDbSpline
210
0.0
220
0.0
230
1.0
 70
     8
 71
     3
 72
    24
 73
    20
 74
     0
 42
0.000000001
 43
0.00000001
 40
0.0
 40
0.0
 40
0.0
 40
0.0
 40
0.000667588315994
 40
0.0632907201581533
 40
0.1266235196374506
 40
0.189722521783609
 40
0.2519902853093297
 40
0.3139693710876271
 40
0.3765073132820698
 40
0.4388698633073668
 40
0.5004598758002466
 40
0.5619749718355993
 40
0.6247082698745705
 40
0.6873839318233963
 40
0.7496296591638497
 40
0.8119076813147132
 40
0.8749614520961208
 40
0.9381947704105754
 40
1.0
 40
1.0
 40
1.0
 40
1.0
 10
130.5659418011254
 20
83.51864601358733
 30
0.0
 10
130.5656211971613
 20
83.51861053415467
 30
0.0
 10
130.535226333607
 20
83.51524690601704
 30
0.0
 10
130.6418117927328
 20
83.52736307914034
 30
0.0
 10
130.9022402203802
 20
83.554918820078
 30
0.0
 10
131.3444860557612
 20
83.5988361046791
 30
0.0
 10
131.9341856221928
 20
83.64551791100641
 30
0.0
 10
132.654540213627
 20
83.68571992869087
 30
0.0
 10
133.4813729163168
 20
83.70802656352542
 30
0.0
 10
134.3741451738452
 20
83.70666824358547
 30
0.0
 10
135.2996146946855
 20
83.67428382379394
 30
0.0
 10
136.2243156573987
 20
83.6112539640556
 30
0.0
 10
137.1124034496414
 20
83.52149750421358
 30
0.0
 10
137.9341565535265
 20
83.41575044755473
 30
0.0
 10
138.6476966718108
 20
83.30431144998722
 30
0.0
 10
139.2336763050386
 20
83.19963277247541
 30
0.0
 10
139.6623238045684
 20
83.1148249968526
 30
0.0
 10
139.9446261744082
 20
83.05699003423686
 30
0.0
 10
139.9779367142569
 20
83.04982842068408
 30
0.0
 10
139.9944017612172
 20
83.04628851097398
 30
0.0
  0
SPLINE
  5
DA
330
1F
100
AcDbEntity
  8
0
  6
Continuous
 62
     7
370
    15
100
AcDbSpline
210
0.0
220
0.0
230
1.0
 70
     8
 71
     3
 72
    24
 73
    20
 74
     0
 42
0.000000001
 43
0.00000001
 40
0.0
 40
0.0
 40
0.0
 40
0.0
 40
0.0617087493744319
 40
0.1252372755575011
 40
0.1885309805132643
 40
0.2509305509555719
 40
0.3130409675232999
 40
0.375502391456025
 40
0.4379589352474998
 40
0.4994688322562076
 40
0.5610824013278441
 40
0.6235443699845022
 40
0.6861429606815932
 40
0.7482311544071424
 40
0.8104792077815886
 40
0.8736616521711298
 40
0.9368990575730586
 40
0.9995527319596672
 40
1.0
 40
1.0
 40
1.0
 40
1.0
 10
139.9943614283152
 20
143.1270766763392
 30
0.0
 10
139.9775762814907
 20
143.1235365313454
 30
0.0
 10
139.9435109977272
 20
143.116351843297
 30
0.0
 10
139.6589438074423
 20
143.0582959571563
 30
0.0
 10
139.2287213267226
 20
142.9730969127346
 30
0.0
 10
138.6421804787146
 20
142.8681347619639
 30
0.0
 10
137.9295807584835
 20
142.75670945784
 30
0.0
 10
137.1104661367493
 20
142.6512493720581
 30
0.0
 10
136.2242311275392
 20
142.5619054406443
 30
0.0
 10
135.3007201994559
 20
142.4991649672901
 30
0.0
 10
134.3747475644109
 20
142.4668242158936
 30
0.0
 10
133.4811628173571
 20
142.4654943089469
 30
0.0
 10
132.6531545542166
 20
142.4878080708289
 30
0.0
 10
131.9320701008318
 20
142.5279812812393
 30
0.0
 10
131.3419941513229
 20
142.5746775860224
 30
0.0
 10
130.9007251720028
 20
142.618595236657
 30
0.0
 10
130.6414335968909
 20
142.6461049378604
 30
0.0
 10
130.5351310197767
 20
142.6581686768422
 30
0.0
 10
130.5653004092102
 20
142.6547954067666
 30
0.0
 10
130.5655142539354
 20
142.6547714965707
 30
0.0
  0
SPLINE
  5
DB
330
1F
100
AcDbEntity
  8
0
  6
Continuous
 62
     7
370
    15
100
AcDbSpline
210
0.0
220
0.0
230
1.0
 70
     8
 71
     3
 72
     9
 73
     5
 74
     0
 42
0.000000001
 43
0.00000001
 40
0.0
 40
0.0
 40
0.0
 40
0.0
 40
0.7140681271130342
 40
1.0
 40
1.0
 40
1.0
 40
1.0
 10
107.4081353843464
 20
88.9276637601917
 30
0.0
 10
107.4135711584769
 20
88.92748624905975
 30
0.0
 10
107.4211835611653
 20
88.92723765774862
 30
0.0
 10
107.4319105102244
 20
89.00125675634267
 30
0.0
 10
107.4349776868593
 20
89.02242117583307
 30
0.0
  0
LINE
  5
DC
330
1F
100
AcDbEntity
  8
0
  6
Continuous
 62
     7
370
    15
100
AcDbLine
 10
107.4043737166
 20
88.9198156095
 30
0.0
 11
107.4043737166
 21
137.2535724809
 31
0.0
  0
SPLINE
  5
DD
330
1F
100
AcDbEntity
  8
0
  6
Continuous
 62
     7
370
    15
100
AcDbSpline
210
0.0
220
0.0
230
1.0
 70
     8
 71
     3
 72
     8
 73
     4
 74
     0
 42
0.000000001
 43
0.00000001
 40
0.0
 40
0.0
 40
0.0
 40
0.0
 40
1.0
 40
1.0
 40
1.0
 40
1.0
 10
107.4349776868591
 20
137.1509669145159
 30
0.0
 10
107.4248813498843
 20
137.2448402986909
 30
0.0
 10
107.4043737166324
 20
137.269523645432
 30
0.0
 10
107.4043737166324
 20
137.2535724808516
 30
0.0
  0
SPLINE
  5
DE
330
1F
100
AcDbEntity
  8
0
  6
Continuous
 62
     7
370
    15
100
AcDbSpline
210
0.0
220
0.0
230
1.0
 70
     8
 71
     3
 72
    26
 73
    22
 74
     0
 42
0.000000001
 43
0.00000001
 40
0.0
 40
0.0
 40
0.0
 40
0.0
 40
0.2500000000000056
 40
0.2500000000000056
 40
0.3750000000000083
 40
0.3750000000000083
 40
0.4375000000000094
 40
0.4375000000000094
 40
0.5000000000000105
 40
0.5000000000000105
 40
0.5312500000000097
 40
0.5312500000000097
 40
0.5625000000000088
 40
0.5625000000000088
 40
0.6250000000000071
 40
0.6250000000000071
 40
0.7500000000000048
 40
0.7500000000000048
 40
0.8750000000000024
 40
0.8750000000000024
 40
1.0
 40
1.0
 40
1.0
 40
1.0
 10
108.7067830147919
 20
138.3460729962506
 30
0.0
 10
108.6406700789241
 20
138.1435927706523
 30
0.0
 10
108.5601782401476
 20
137.9288310415107
 30
0.0
 10
108.3957925160717
 20
137.5731657120829
 30
0.0
 10
108.3343425848261
 20
137.4498343941343
 30
0.0
 10
108.21845920478
 20
137.2478213500094
 30
0.0
 10
108.1763936284784
 20
137.17850829807
 30
0.0
 10
108.0774721351679
 20
137.0314931351863
 30
0.0
 10
108.0202090848849
 20
136.952011523991
 30
0.0
 10
107.9127308559928
 20
136.8336207127689
 30
0.0
 10
107.8736646029758
 20
136.7957032287969
 30
0.0
 10
107.8006135460317
 20
136.7376092295557
 30
0.0
 10
107.7690584278533
 20
136.7189438775774
 30
0.0
 10
107.6904311765431
 20
136.6841845138766
 30
0.0
 10
107.6561926607558
 20
136.6853610563251
 30
0.0
 10
107.5722197144611
 20
136.707736161826
 30
0.0
 10
107.5422117816579
 20
136.7499420071126
 30
0.0
 10
107.4933880764058
 20
136.8461125221533
 30
0.0
 10
107.4768672217541
 20
136.9024920897544
 30
0.0
 10
107.4510979180714
 20
137.0220090018306
 30
0.0
 10
107.4420197107353
 20
137.0854918204955
 30
0.0
 10
107.4349776868593
 20
137.150966914516
 30
0.0
  0
SPLINE
  5
DF
330
1F
100
AcDbEntity
  8
0
  6
Continuous
 62
     7
370
    15
100
AcDbSpline
210
0.0
220
0.0
230
1.0
 70
     8
 71
     3
 72
     8
 73
     4
 74
     0
 42
0.000000001
 43
0.00000001
 40
0.0
 40
0.0
 40
0.0
 40
0.0
 40
1.0
 40
1.0
 40
1.0
 40
1.0
 10
108.9243138094081
 20
138.7479943281574
 30
0.0
 10
108.8312210067186
 20
138.6233633218585
 30
0.0
 10
108.7527112797257
 20
138.486734809594
 30
0.0
 10
108.7067830147957
 20
138.3460729962538
 30
0.0
  0
SPLINE
  5
E0
330
1F
100
AcDbEntity
  8
0
  6
Continuous
 62
     7
370
    15
100
AcDbSpline
210
0.0
220
0.0
230
1.0
 70
     8
 71
     3
 72
     8
 73
     4
 74
     0
 42
0.000000001
 43
0.00000001
 40
0.0
 40
0.0
 40
0.0
 40
0.0
 40
1.0
 40
1.0
 40
1.0
 40
1.0
 10
108.7067830147956
 20
87.82731509409571
 30
0.0
 10
108.7527112797266
 20
87.68665328075222
 30
0.0
 10
108.8312210067219
 20
87.55002476848477
 30
0.0
 10
108.9243138094142
 20
87.4253937621836
 30
0.0
  0
SPLINE
  5
E1
330
1F
100
AcDbEntity
  8
0
  6
Continuous
 62
     7
370
    15
100
AcDbSpline
210
0.0
220
0.0
230
1.0
 70
     8
 71
     3
 72
    26
 73
    22
 74
     0
 42
0.000000001
 43
0.00000001
 40
0.0
 40
0.0
 40
0.0
 40
0.0
 40
0.2500000000000008
 40
0.2500000000000008
 40
0.3750000000000012
 40
0.3750000000000012
 40
0.4375000000000003
 40
0.4375000000000003
 40
0.4687500000000004
 40
0.4687500000000004
 40
0.5000000000000004
 40
0.5000000000000004
 40
0.5312500000000004
 40
0.5312500000000004
 40
0.5625000000000004
 40
0.5625000000000004
 40
0.6250000000000004
 40
0.6250000000000004
 40
0.7500000000000006
 40
0.7500000000000006
 40
1.0
 40
1.0
 40
1.0
 40
1.0
 10
107.4349776868593
 20
89.02242117583307
 30
0.0
 10
107.4490700448019
 20
89.15344863008585
 30
0.0
 10
107.4688023551358
 20
89.27891090479405
 30
0.0
 10
107.542367265093
 20
89.42372076671867
 30
0.0
 10
107.5728286648156
 20
89.46594587372326
 30
0.0
 10
107.6562979653361
 20
89.4879887635181
 30
0.0
 10
107.6911915536718
 20
89.48906395319145
 30
0.0
 10
107.7699428706141
 20
89.45395257139715
 30
0.0
 10
107.8017724821384
 20
89.43496318855644
 30
0.0
 10
107.8743758982232
 20
89.37701046178314
 30
0.0
 10
107.9143155174497
 20
89.33814428030564
 30
0.0
 10
107.9856913146414
 20
89.25927149990315
 30
0.0
 10
108.0184064330017
 20
89.21859479085387
 30
0.0
 10
108.0772573407544
 20
89.1406386564296
 30
0.0
 10
108.1042215671711
 20
89.10223824385633
 30
0.0
 10
108.1785568922117
 20
88.9914564954199
 30
0.0
 10
108.2204247673207
 20
88.92227081945032
 30
0.0
 10
108.3356401084114
 20
88.72102163498042
 30
0.0
 10
108.3976514539607
 20
88.59639286640994
 30
0.0
 10
108.5608291650635
 20
88.24275589347293
 30
0.0
 10
108.6407289832806
 20
88.02961491676986
 30
0.0
 10
108.7067830147934
 20
87.82731509409766
 30
0.0
  0
LINE
  5
E2
330
1F
100
AcDbEntity
  8
0
  6
Continuous
 62
     7
370
    15
100
AcDbLine
 10
167.2143737166
 20
138.8224303859
 30
0.0
 11
167.2143737166
 21
140.7465770823
 31
0.0
  0
SPLINE
  5
E3
330
1F
100
AcDbEntity
  8
0
  6
Continuous
 62
     7
370
    15
100
AcDbSpline
210
0.0
220
0.0
230
1.0
 70
     8
 71
     3
 72
     8
 73
     4
 74
     0
 42
0.000000001
 43
0.00000001
 40
0.0
 40
0.0
 40
0.0
 40
0.0
 40
1.0
 40
1.0
 40
1.0
 40
1.0
 10
167.2143737166325
 20
140.7465770822814
 30
0.0
 10
167.7441733063619
 20
141.9801614786307
 30
0.0
 10
168.2873390243221
 20
143.2081981500054
 30
0.0
 10
168.8406441154189
 20
144.4311911698693
 30
0.0
  0
LINE
  5
E4
330
1F
100
AcDbEntity
  8
0
  6
Continuous
 62
     7
370
    15
100
AcDbLine
 10
168.8406441154
 20
144.4311911699
 30
0.0
 11
172.2543737166
 21
144.4311911699
 31
0.0
  0
SPLINE
  5
E5
330
1F
100
AcDbEntity
  8
0
  6
Continuous
 62
     7
370
    15
100
AcDbSpline
210
0.0
220
0.0
230
1.0
 70
     8
 71
     3
 72
    12
 73
     8
 74
     0
 42
0.000000001
 43
0.00000001
 40
0.0
 40
0.0
 40
0.0
 40
0.0
 40
0.2500000000000011
 40
0.2500000000000011
 40
0.4999999999999991
 40
0.4999999999999991
 40
1.0
 40
1.0
 40
1.0
 40
1.0
 10
172.2543737166324
 20
144.4311911698694
 30
0.0
 10
172.4049497900492
 20
144.4311911698694
 30
0.0
 10
172.5539515603326
 20
144.3860801681966
 30
0.0
 10
172.8112045662637
 20
144.2302845288059
 30
0.0
 10
172.9204883187342
 20
144.1204070248251
 30
0.0
 10
173.17526007458
 20
143.7485642086395
 30
0.0
 10
173.2543737166324
 20
143.4447214254086
 30
0.0
 10
173.2543737166324
 20
143.1445965002694
 30
0.0
  0
LINE
  5
E6
330
1F
100
AcDbEntity
  8
0
  6
Continuous
 62
     7
370
    15
100
AcDbLine
 10
173.2543737166
 20
143.1445965003
 30
0.0
 11
173.2543737166
 21
137.9366940452
 31
0.0
  0
LINE
  5
E7
330
1F
100
AcDbEntity
  8
0
  6
Continuous
 62
     7
370
    15
100
AcDbLine
 10
172.2543737166
 20
152.061044585
 30
0.0
 11
168.8406441154
 21
152.061044585
 31
0.0
  0
LINE
  5
E8
330
1F
100
AcDbEntity
  8
0
  6
Continuous
 62
     7
370
    15
100
AcDbLine
 10
168.8406441154
 20
144.4311911699
 30
0.0
 11
168.8406441154
 21
152.061044585
 31
0.0
  0
SPLINE
  5
E9
330
1F
100
AcDbEntity
  8
0
  6
Continuous
 62
     7
370
    15
100
AcDbSpline
210
0.0
220
0.0
230
1.0
 70
     8
 71
     3
 72
     8
 73
     4
 74
     0
 42
0.000000001
 43
0.00000001
 40
0.0
 40
0.0
 40
0.0
 40
0.0
 40
1.0
 40
1.0
 40
1.0
 40
1.0
 10
163.3943737166324
 20
149.1642719797648
 30
0.0
 10
162.8531849344607
 20
150.1303651266412
 30
0.0
 10
162.3110302207826
 20
151.0959206327879
 30
0.0
 10
161.768103317846
 20
152.0610445849847
 30
0.0
  0
LINE
  5
EA
330
1F
100
AcDbEntity
  8
0
  6
Continuous
 62
     7
370
    15
100
AcDbLine
 10
163.3943737166
 20
140.7465770823
 30
0.0
 11
163.3943737166
 21
149.1642719798
 31
0.0
  0
SPLINE
  5
EB
330
1F
100
AcDbEntity
  8
0
  6
Continuous
 62
     7
370
    15
100
AcDbSpline
210
0.0
220
0.0
230
1.0
 70
     8
 71
     3
 72
     8
 73
     4
 74
     0
 42
0.000000001
 43
0.00000001
 40
0.0
 40
0.0
 40
0.0
 40
0.0
 40
1.0
 40
1.0
 40
1.0
 40
1.0
 10
161.768103317846
 20
144.4311911698693
 30
0.0
 10
162.321636316786
 20
143.2076943959176
 30
0.0
 10
162.8650491344541
 20
141.979055471917
 30
0.0
 10
163.3943737166324
 20
140.7465770822814
 30
0.0
  0
SPLINE
  5
EC
330
1F
100
AcDbEntity
  8
0
  6
Continuous
 62
     7
370
    15
100
AcDbSpline
210
0.0
220
0.0
230
1.0
 70
     8
 71
     3
 72
     8
 73
     4
 74
     0
 42
0.000000001
 43
0.00000001
 40
0.0
 40
0.0
 40
0.0
 40
0.0
 40
1.0
 40
1.0
 40
1.0
 40
1.0
 10
168.8406441154189
 20
152.0610445849847
 30
0.0
 10
168.2977172124823
 20
151.0959206327879
 30
0.0
 10
167.7555624988042
 20
150.1303651266412
 30
0.0
 10
167.2143737166325
 20
149.1642719797648
 30
0.0
  0
LINE
  5
ED
330
1F
100
AcDbEntity
  8
0
  6
Continuous
 62
     7
370
    15
100
AcDbLine
 10
167.2143737166
 20
140.7465770823
 30
0.0
 11
167.2143737166
 21
149.1642719798
 31
0.0
  0
LINE
  5
EE
330
1F
100
AcDbEntity
  8
0
  6
Continuous
 62
     7
370
    15
100
AcDbLine
 10
163.3943737166
 20
140.7465770823
 30
0.0
 11
163.3943737166
 21
138.8224303859
 31
0.0
  0
SPLINE
  5
EF
330
1F
100
AcDbEntity
  8
0
  6
Continuous
 62
     7
370
    15
100
AcDbSpline
210
0.0
220
0.0
230
1.0
 70
     8
 71
     3
 72
    12
 73
     8
 74
     0
 42
0.000000001
 43
0.00000001
 40
0.0
 40
0.0
 40
0.0
 40
0.0
 40
0.5
 40
0.5
 40
0.75
 40
0.75
 40
1.0
 40
1.0
 40
1.0
 40
1.0
 10
173.2543737166324
 20
151.0340259671951
 30
0.0
 10
173.2543737166324
 20
151.300167735448
 30
0.0
 10
173.1506570210646
 20
151.563454653675
 30
0.0
 10
172.8742750359487
 20
151.8512160992701
 30
0.0
 10
172.7639774509865
 20
151.9281956687273
 30
0.0
 10
172.5194816706165
 20
152.0336367475641
 30
0.0
 10
172.3872686432155
 20
152.0610445849847
 30
0.0
 10
172.2543737166324
 20
152.0610445849847
 30
0.0
  0
LINE
  5
F0
330
1F
100
AcDbEntity
  8
0
  6
Continuous
 62
     7
370
    15
100
AcDbLine
 10
173.2543737166
 20
143.1445965003
 30
0.0
 11
173.2543737166
 21
151.0340259672
 31
0.0
  0
SPLINE
  5
F1
330
1F
100
AcDbEntity
  8
0
  6
Continuous
 62
     7
370
    15
100
AcDbSpline
210
0.0
220
0.0
230
1.0
 70
     8
 71
     3
 72
    42
 73
    38
 74
     0
 42
0.000000001
 43
0.00000001
 40
0.0
 40
0.0
 40
0.0
 40
0.0
 40
0.0312499999999998
 40
0.0312499999999998
 40
0.0624999999999995
 40
0.0624999999999995
 40
0.1249999999999994
 40
0.1249999999999994
 40
0.1874999999999993
 40
0.1874999999999993
 40
0.2499999999999991
 40
0.2499999999999991
 40
0.3124999999999989
 40
0.3124999999999989
 40
0.3749999999999987
 40
0.3749999999999987
 40
0.4374999999999984
 40
0.4374999999999984
 40
0.4999999999999982
 40
0.4999999999999982
 40
0.562499999999998
 40
0.562499999999998
 40
0.6249999999999977
 40
0.6249999999999977
 40
0.6874999999999974
 40
0.6874999999999974
 40
0.7499999999999972
 40
0.7499999999999972
 40
0.7812499999999976
 40
0.7812499999999976
 40
0.8124999999999979
 40
0.8124999999999979
 40
0.8749999999999986
 40
0.8749999999999986
 40
0.9374999999999993
 40
0.9374999999999993
 40
1.0
 40
1.0
 40
1.0
 40
1.0
 10
194.2543737166324
 20
113.0866940451745
 30
0.0
 10
194.2543737166324
 20
112.9257612741673
 30
0.0
 10
194.2445730628772
 20
112.7646898942873
 30
0.0
 10
194.2049445198784
 20
112.4422641321944
 30
0.0
 10
194.1749569171544
 20
112.2810945321155
 30
0.0
 10
194.057897664598
 20
111.8107015211319
 30
0.0
 10
193.9435305504948
 20
111.5096316940262
 30
0.0
 10
193.6457494439839
 20
110.9320051756763
 30
0.0
 10
193.4674820067441
 20
110.6652309676289
 30
0.0
 10
193.0585411280997
 20
110.1703586007199
 30
0.0
 10
192.8265213360797
 20
109.9421028296239
 30
0.0
 10
192.3299571665841
 20
109.5382005426211
 30
0.0
 10
192.063424269007
 20
109.3599232770829
 30
0.0
 10
191.4952125449334
 20
109.0492674602558
 30
0.0
 10
191.2009653368788
 20
108.9209300718529
 30
0.0
 10
190.5933611721112
 20
108.7141602293238
 30
0.0
 10
190.2775235204709
 20
108.6354112819155
 30
0.0
 10
189.6377241683867
 20
108.531220443204
 30
0.0
 10
189.3168539254602
 20
108.5058271923466
 30
0.0
 10
188.6732224506623
 20
108.5068372394193
 30
0.0
 10
188.3475984660213
 20
108.5337939436226
 30
0.0
 10
187.7090096336201
 20
108.6403620276084
 30
0.0
 10
187.3979164116513
 20
108.7190923360963
 30
0.0
 10
186.7919104852616
 20
108.9274014508948
 30
0.0
 10
186.4942286723245
 20
109.0585728772273
 30
0.0
 10
185.9310443535277
 20
109.3690563776943
 30
0.0
 10
185.6667475532026
 20
109.5469448937422
 30
0.0
 10
185.2969162932741
 20
109.8493737212108
 30
0.0
 10
185.1781059795998
 20
109.956157950054
 30
0.0
 10
184.9499787433209
 20
110.1825598921886
 30
0.0
 10
184.8403871302799
 20
110.3026656212676
 30
0.0
 10
184.5347509055171
 20
110.6743565441319
 30
0.0
 10
184.3587669687974
 20
110.9396460019592
 30
0.0
 10
184.0662213126581
 20
111.5082559838102
 30
0.0
 10
183.9489948732316
 20
111.81652324483
 30
0.0
 10
183.7942192219704
 20
112.4417660637646
 30
0.0
 10
183.7543737166324
 20
112.7608101683008
 30
0.0
 10
183.7543737166324
 20
113.0866940451745
 30
0.0
  0
SPLINE
  5
F2
330
1F
100
AcDbEntity
  8
0
  6
Continuous
 62
     7
370
    15
100
AcDbSpline
210
0.0
220
0.0
230
1.0
 70
     8
 71
     3
 72
    42
 73
    38
 74
     0
 42
0.000000001
 43
0.00000001
 40
0.0
 40
0.0
 40
0.0
 40
0.0
 40
0.0312500000000001
 40
0.0312500000000001
 40
0.0625000000000002
 40
0.0625000000000002
 40
0.1250000000000007
 40
0.1250000000000007
 40
0.1875000000000012
 40
0.1875000000000012
 40
0.2500000000000016
 40
0.2500000000000016
 40
0.3125000000000021
 40
0.3125000000000021
 40
0.3750000000000026
 40
0.3750000000000026
 40
0.5000000000000034
 40
0.5000000000000034
 40
0.5625000000000032
 40
0.5625000000000032
 40
0.6250000000000029
 40
0.6250000000000029
 40
0.6875000000000027
 40
0.6875000000000027
 40
0.7500000000000024
 40
0.7500000000000024
 40
0.8125000000000022
 40
0.8125000000000022
 40
0.8437500000000021
 40
0.8437500000000021
 40
0.875000000000002
 40
0.875000000000002
 40
0.9375000000000011
 40
0.9375000000000011
 40
0.9687500000000006
 40
0.9687500000000006
 40
1.0
 40
1.0
 40
1.0
 40
1.0
 10
183.7543737166324
 20
113.0866940451745
 30
0.0
 10
183.7543737166324
 20
113.2496384755274
 30
0.0
 10
183.7645906219704
 20
113.4134745033379
 30
0.0
 10
183.8044209664641
 20
113.734726241349
 30
0.0
 10
183.8340113988645
 20
113.8933299051363
 30
0.0
 10
183.9510631288632
 20
114.3632451914915
 30
0.0
 10
184.0684986618193
 20
114.6709222755262
 30
0.0
 10
184.3642614166421
 20
115.2430212814613
 30
0.0
 10
184.5444757072416
 20
115.5128812888262
 30
0.0
 10
184.957018511708
 20
116.01041318953
 30
0.0
 10
185.1864850448768
 20
116.2354792629883
 30
0.0
 10
185.6885874580346
 20
116.6424059856576
 30
0.0
 10
185.956344344002
 20
116.8200179413301
 30
0.0
 10
186.5165860579632
 20
117.125247786969
 30
0.0
 10
186.810057225852
 20
117.2535760033594
 30
0.0
 10
187.7311168195355
 20
117.5659752739065
 30
0.0
 10
188.3682425621567
 20
117.6685682429318
 30
0.0
 10
189.3433226711359
 20
117.6662862409898
 30
0.0
 10
189.6639348432199
 20
117.6391203047034
 30
0.0
 10
190.2966326909074
 20
117.5335531740104
 30
0.0
 10
190.6101342046378
 20
117.4546763345696
 30
0.0
 10
191.2220122605001
 20
117.2440655802495
 30
0.0
 10
191.5144348839906
 20
117.1146619547409
 30
0.0
 10
192.0725782973386
 20
116.8073546513585
 30
0.0
 10
192.3398422870922
 20
116.6282553782125
 30
0.0
 10
192.8381722873006
 20
116.2206512290487
 30
0.0
 10
193.0641794322312
 20
115.9967452171957
 30
0.0
 10
193.3673055289004
 20
115.6291079052181
 30
0.0
 10
193.4623221235964
 20
115.5012268957233
 30
0.0
 10
193.6394724195007
 20
115.2339573565777
 30
0.0
 10
193.722082446586
 20
115.0935529767959
 30
0.0
 10
193.9438041523889
 20
114.6627421971679
 30
0.0
 10
194.0579938230761
 20
114.3625608409222
 30
0.0
 10
194.1751943109205
 20
113.891208795909
 30
0.0
 10
194.2051488778795
 20
113.7297390337036
 30
0.0
 10
194.2445722145123
 20
113.4084258889731
 30
0.0
 10
194.2543737166324
 20
113.247629277371
 30
0.0
 10
194.2543737166324
 20
113.0866940451745
 30
0.0
  0
LINE
  5
F3
330
1F
100
AcDbEntity
  8
0
  6
Continuous
 62
     7
370
    15
100
AcDbLine
 10
198.0043737166
 20
97.0866940452
 30
0.0
 11
198.0043737166
 21
129.0866940452
 31
0.0
  0
LINE
  5
F4
330
1F
100
AcDbEntity
  8
0
  6
Continuous
 62
     7
370
    15
100
AcDbLine
 10
198.3043737166
 20
97.3866940452
 30
0.0
 11
198.3043737166
 21
128.7866940452
 31
0.0
  0
LINE
  5
F5
330
1F
100
AcDbEntity
  8
0
  6
Continuous
 62
     7
370
    15
100
AcDbLine
 10
109.0543737166
 20
87.2666940452
 30
0.0
 11
109.0543737166
 21
87.2695626715
 31
0.0
  0
LINE
  5
F6
330
1F
100
AcDbEntity
  8
0
  6
Continuous
 62
     7
370
    15
100
AcDbLine
 10
109.0543737166
 20
138.9066940452
 30
0.0
 11
109.0543737166
 21
138.9038254189
 31
0.0
  0
CIRCLE
  5
F7
330
1F
100
AcDbEntity
  8
0
  6
HIDDEN
 62
     7
370
     0
100
AcDbCircle
 10
189.0043737166
 20
113.0866940452
 30
0.0
 40
3.50827075990334
  0
CIRCLE
  5
F8
330
1F
100
AcDbEntity
  8
0
  6
HIDDEN
 62
     7
370
     0
100
AcDbCircle
 10
189.0043737166
 20
113.0866940452
 30
0.0
 40
2.499560044877995
  0
ARC
  5
F9
330
1F
100
AcDbEntity
  8
0
  6
HIDDEN
 62
     7
370
     0
100
AcDbCircle
 10
189.0043737166
 20
113.0866940452
 30
0.0
 40
2.199560044877987
100
AcDbArc
 50
232.1941991511
 51
270.0
  0
ARC
  5
FA
330
1F
100
AcDbEntity
  8
0
  6
HIDDEN
 62
     7
370
     0
100
AcDbCircle
 10
189.0043737166
 20
113.0866940452
 30
0.0
 40
2.199560044878019
100
AcDbArc
 50
51.9012059431
 51
188.0639895685
  0
ARC
  5
FB
330
1F
100
AcDbEntity
  8
0
  6
HIDDEN
 62
     7
370
     0
100
AcDbCircle
 10
189.0043737166
 20
113.0866940452
 30
0.0
 40
2.199560044878029
100
AcDbArc
 50
270.0
 51
7.984968135
  0
LINE
  5
FC
330
1F
100
AcDbEntity
  8
0
  6
HIDDEN
 62
     7
370
     0
100
AcDbLine
 10
161.7681033178
 20
144.4311911699
 30
0.0
 11
161.7681033178
 21
137.9366940452
 31
0.0
  0
LINE
  5
FD
330
1F
100
AcDbEntity
  8
0
  6
HIDDEN
 62
     7
370
     0
100
AcDbLine
 10
131.9437881607
 20
83.643637197
 30
0.0
 11
131.6576716613
 21
83.6215091738
 31
0.0
  0
SPLINE
  5
FE
330
1F
100
AcDbEntity
  8
0
  6
HIDDEN
 62
     7
370
     0
100
AcDbSpline
210
0.0
220
0.0
230
1.0
 70
     8
 71
     3
 72
    10
 73
     6
 74
     0
 42
0.000000001
 43
0.00000001
 40
0.0
 40
0.0
 40
0.0
 40
0.0
 40
0.4763366956050779
 40
0.9664872534214385
 40
1.0
 40
1.0
 40
1.0
 40
1.0
 10
139.3043737166324
 20
138.0454099576569
 30
0.0
 10
139.3701104787788
 20
138.0556701086006
 30
0.0
 10
139.5034903827035
 20
138.0764879569769
 30
0.0
 10
139.5723748272927
 20
138.0862060380354
 30
0.0
 10
139.5516852811225
 20
138.0831742018425
 30
0.0
 10
139.5503612175271
 20
138.082980174197
 30
0.0
  0
SPLINE
  5
FF
330
1F
100
AcDbEntity
  8
0
  6
HIDDEN
 62
     7
370
     0
100
AcDbSpline
210
0.0
220
0.0
230
1.0
 70
     8
 71
     3
 72
     9
 73
     5
 74
     0
 42
0.000000001
 43
0.00000001
 40
0.0
 40
0.0
 40
0.0
 40
0.0
 40
0.4748140139546293
 40
1.0
 40
1.0
 40
1.0
 40
1.0
 10
139.5503648215625
 20
88.09040738724089
 30
0.0
 10
139.5423574410142
 20
88.09147732254122
 30
0.0
 10
139.5254931945663
 20
88.09373070021942
 30
0.0
 10
139.3805144969143
 20
88.11618529446963
 30
0.0
 10
139.3043737166324
 20
88.12797813269219
 30
0.0
  0
SPLINE
  5
100
330
1F
100
AcDbEntity
  8
0
  6
HIDDEN
 62
     7
370
     0
100
AcDbSpline
210
0.0
220
0.0
230
1.0
 70
     8
 71
     3
 72
    24
 73
    20
 74
     0
 42
0.000000001
 43
0.00000001
 40
0.0
 40
0.0
 40
0.0
 40
0.0
 40
0.0595370949379792
 40
0.1208126116616082
 40
0.1803454131236866
 40
0.24159190184671
 40
0.3013076762315021
 40
0.3627887741767186
 40
0.4218966067046793
 40
0.4827545513882367
 40
0.541280709109937
 40
0.6014867151310417
 40
0.6603627197932922
 40
0.7209039658167992
 40
0.7805131136233137
 40
0.8418488855574525
 40
0.9014407220638351
 40
0.962803033191668
 40
1.0
 40
1.0
 40
1.0
 40
1.0
 10
139.3043737166324
 20
88.12797813269219
 30
0.0
 10
139.2139247205467
 20
88.14226740240925
 30
0.0
 10
139.0303857109484
 20
88.17126317378596
 30
0.0
 10
138.621278908162
 20
88.22966894415178
 30
0.0
 10
138.1223777773164
 20
88.2918637598826
 30
0.0
 10
137.5455681124089
 20
88.35138658989486
 30
0.0
 10
136.8985439474125
 20
88.40209054715008
 30
0.0
 10
136.2124167821226
 20
88.43722169154572
 30
0.0
 10
135.4957992928164
 20
88.45332778914404
 30
0.0
 10
134.7849626043652
 20
88.44851335651643
 30
0.0
 10
134.0851691228654
 20
88.4235626755524
 30
0.0
 10
133.4270908535722
 20
88.38189588857395
 30
0.0
 10
132.8147985713498
 20
88.32735300535826
 30
0.0
 10
132.2736743224416
 20
88.26654435555642
 30
0.0
 10
131.8112334150115
 20
88.20531198615849
 30
0.0
 10
131.4482864525267
 20
88.15123491884947
 30
0.0
 10
131.1970295627594
 20
88.11080374258663
 30
0.0
 10
131.0649199496373
 20
88.08849248857084
 30
0.0
 10
131.0670184656276
 20
88.08884187155384
 30
0.0
 10
131.0678104603669
 20
88.08897373115646
 30
0.0
  0
SPLINE
  5
101
330
1F
100
AcDbEntity
  8
0
  6
HIDDEN
 62
     7
370
     0
100
AcDbSpline
210
0.0
220
0.0
230
1.0
 70
     8
 71
     3
 72
    33
 73
    29
 74
     0
 42
0.000000001
 43
0.00000001
 40
0.0
 40
0.0
 40
0.0
 40
0.0
 40
0.051778749890371
 40
0.08219707528378
 40
0.1113837518600812
 40
0.1707334178293996
 40
0.2009628169384004
 40
0.2304350683972792
 40
0.2903615263873394
 40
0.3208846843845232
 40
0.350649146520223
 40
0.3806210344601019
 40
0.4112505773338799
 40
0.4421092224731233
 40
0.471713994260585
 40
0.5319531377543747
 40
0.5626641418409355
 40
0.591897627612295
 40
0.6513610142207854
 40
0.6816603716357007
 40
0.7108935020539576
 40
0.7703317218891614
 40
0.8006029472231719
 40
0.8302023854065688
 40
0.8903940292937448
 40
0.9210575911712637
 40
0.9602868115168236
 40
1.0
 40
1.0
 40
1.0
 40
1.0
 10
131.0612002925754
 20
138.0855386967085
 30
0.0
 10
131.066516271631
 20
138.0846246985624
 30
0.0
 10
131.0749552148571
 20
138.0831737563404
 30
0.0
 10
131.1614069499288
 20
138.0686753334618
 30
0.0
 10
131.2868288115697
 20
138.0480714198408
 30
0.0
 10
131.4693315825061
 20
138.0190826795726
 30
0.0
 10
131.7037554391602
 20
137.9842901948436
 30
0.0
 10
131.972594985543
 20
137.946395470546
 30
0.0
 10
132.289987072442
 20
137.9054597388937
 30
0.0
 10
132.6489083701454
 20
137.8649748379837
 30
0.0
 10
132.9372759832314
 20
137.8356727815784
 30
0.0
 10
133.2426973741725
 20
137.808247388208
 30
0.0
 10
133.5668680067526
 20
137.7832412317601
 30
0.0
 10
133.9026640621004
 20
137.7618635475523
 30
0.0
 10
134.3609719854236
 20
137.7389750849281
 30
0.0
 10
134.8351264594983
 20
137.7252073170956
 30
0.0
 10
135.3120523316267
 20
137.7219370052262
 30
0.0
 10
135.7857558367248
 20
137.7255371374941
 30
0.0
 10
136.253606972336
 20
137.7392072263195
 30
0.0
 10
136.7053520566396
 20
137.7618485727632
 30
0.0
 10
137.1437886232351
 20
137.7897260350826
 30
0.0
 10
137.5587377678885
 20
137.8243765703911
 30
0.0
 10
137.9411992986209
 20
137.8629897862732
 30
0.0
 10
138.3013523344937
 20
137.9033477780706
 30
0.0
 10
138.6227267467832
 20
137.9445693693037
 30
0.0
 10
138.9162630803617
 20
137.9858301213012
 30
0.0
 10
139.1313110880758
 20
138.0179537140244
 30
0.0
 10
139.2464508799272
 20
138.0362205472699
 30
0.0
 10
139.3043737166324
 20
138.0454099576569
 30
0.0
  0
LINE
  5
102
330
1F
100
AcDbEntity
  8
0
  6
HIDDEN
 62
     7
370
     0
100
AcDbLine
 10
123.2996731783
 20
92.0866940452
 30
0.0
 11
123.2996731783
 21
134.0866940452
 31
0.0
  0
LINE
  5
103
330
1F
100
AcDbEntity
  8
0
  6
HIDDEN
 62
     7
370
     0
100
AcDbLine
 10
156.8327582871
 20
92.0866940452
 30
0.0
 11
156.8327582871
 21
134.0866940452
 31
0.0
  0
LINE
  5
104
330
1F
100
AcDbEntity
  8
0
  6
HIDDEN
 62
     7
370
     0
100
AcDbLine
 10
159.7543737166
 20
93.8616940452
 30
0.0
 11
159.7543737166
 21
132.3116940401
 31
0.0
  0
SPLINE
  5
105
330
1F
100
AcDbEntity
  8
0
  6
HIDDEN
 62
     7
370
     0
100
AcDbSpline
210
0.0
220
0.0
230
1.0
 70
     8
 71
     3
 72
    18
 73
    14
 74
     0
 42
0.000000001
 43
0.00000001
 40
0.0
 40
0.0
 40
0.0
 40
0.0
 40
0.2499999999999984
 40
0.2499999999999984
 40
0.3749999999999984
 40
0.3749999999999984
 40
0.4999999999999986
 40
0.4999999999999986
 40
0.6249999999999987
 40
0.6249999999999987
 40
0.7499999999999987
 40
0.7499999999999987
 40
1.0
 40
1.0
 40
1.0
 40
1.0
 10
115.5043737166324
 20
133.1751384847025
 30
0.0
 10
115.5043737166324
 20
133.0998022812126
 30
0.0
 10
115.457012517706
 20
133.0215068462527
 30
0.0
 10
115.3187262532028
 20
132.9042652687323
 30
0.0
 10
115.2622930800057
 20
132.86607613776
 30
0.0
 10
115.128940227426
 20
132.7919710069945
 30
0.0
 10
115.0509778502667
 20
132.7556789111792
 30
0.0
 10
114.8783857436501
 20
132.6885565910763
 30
0.0
 10
114.78403268834
 20
132.6576691888562
 30
0.0
 10
114.5786697910868
 20
132.6021044216156
 30
0.0
 10
114.466445639484
 20
132.5773054972359
 30
0.0
 10
114.118631286103
 20
132.5172945639964
 30
0.0
 10
113.8633234549422
 20
132.4949294106064
 30
0.0
 10
113.6043737166325
 20
132.4949294106064
 30
0.0
  0
LINE
  5
106
330
1F
100
AcDbEntity
  8
0
  6
HIDDEN
 62
     7
370
     0
100
AcDbLine
 10
113.6043737166
 20
132.4949294106
 30
0.0
 11
109.0543737166
 21
132.4949294106
 31
0.0
  0
LINE
  5
107
330
1F
100
AcDbEntity
  8
0
  6
HIDDEN
 62
     7
370
     0
100
AcDbLine
 10
109.0543737166
 20
93.6784586797
 30
0.0
 11
117.6043737166
 21
93.6784586797
 31
0.0
  0
SPLINE
  5
108
330
1F
100
AcDbEntity
  8
0
  6
HIDDEN
 62
     7
370
     0
100
AcDbSpline
210
0.0
220
0.0
230
1.0
 70
     8
 71
     3
 72
    18
 73
    14
 74
     0
 42
0.000000001
 43
0.00000001
 40
0.0
 40
0.0
 40
0.0
 40
0.0
 40
0.1249999999999988
 40
0.1249999999999988
 40
0.2499999999999976
 40
0.2499999999999976
 40
0.4999999999999982
 40
0.4999999999999982
 40
0.7499999999999989
 40
0.7499999999999989
 40
0.8749999999999994
 40
0.8749999999999994
 40
1.0
 40
1.0
 40
1.0
 40
1.0
 10
117.6043737166325
 20
93.67845867974269
 30
0.0
 10
117.7336877888485
 20
93.67845867974268
 30
0.0
 10
117.8605436662514
 20
93.67304646644286
 30
0.0
 10
118.1095980743195
 20
93.6521169320025
 30
0.0
 10
118.2330665044502
 20
93.63631160595843
 30
0.0
 10
118.5817120121082
 20
93.57626942243627
 30
0.0
 10
118.7920349215564
 20
93.51835478066864
 30
0.0
 10
119.1360202487207
 20
93.38469452848003
 30
0.0
 10
119.272649379661
 20
93.3080471567574
 30
0.0
 10
119.4101572688322
 20
93.19167562398592
 30
0.0
 10
119.4455528119914
 20
93.15196453112762
 30
0.0
 10
119.4924443913807
 20
93.07417431579142
 30
0.0
 10
119.5043737166324
 20
93.03587911808376
 30
0.0
 10
119.5043737166324
 20
92.99824960564663
 30
0.0
  0
LINE
  5
109
330
1F
100
AcDbEntity
  8
0
  6
HIDDEN
 62
     7
370
     0
100
AcDbLine
 10
109.0543737166
 20
93.6784586797
 30
0.0
 11
109.0543737166
 21
132.4949294106
 31
0.0
  0
LINE
  5
10A
330
1F
100
AcDbEntity
  8
0
  6
HIDDEN
 62
     7
370
     0
100
AcDbLine
 10
109.0543737166
 20
91.1466940452
 30
0.0
 11
109.0543737166
 21
87.2695626715
 31
0.0
  0
LINE
  5
10B
330
1F
100
AcDbEntity
  8
0
  6
HIDDEN
 62
     7
370
     0
100
AcDbLine
 10
197.8543737166
 20
123.8866681756
 30
0.0
 11
197.8543737166
 21
125.6216659309
 31
0.0
  0
SPLINE
  5
10C
330
1F
100
AcDbEntity
  8
0
  6
HIDDEN
 62
     7
370
     0
100
AcDbSpline
210
0.0
220
0.0
230
1.0
 70
     8
 71
     3
 72
     9
 73
     5
 74
     0
 42
0.000000001
 43
0.00000001
 40
0.0
 40
0.0
 40
0.0
 40
0.0
 40
0.6465687876946551
 40
1.0
 40
1.0
 40
1.0
 40
1.0
 10
197.8543737166324
 20
121.2682604887329
 30
0.0
 10
197.8925985860548
 20
121.4335804960424
 30
0.0
 10
197.9517181571659
 20
121.6892686926517
 30
0.0
 10
197.9906233922364
 20
121.9271837494344
 30
0.0
 10
198.0043737166324
 20
122.0112703563788
 30
0.0
  0
SPLINE
  5
10D
330
1F
100
AcDbEntity
  8
0
  6
HIDDEN
 62
     7
370
     0
100
AcDbSpline
210
0.0
220
0.0
230
1.0
 70
     8
 71
     3
 72
    10
 73
     6
 74
     0
 42
0.000000001
 43
0.00000001
 40
0.0
 40
0.0
 40
0.0
 40
0.0
 40
0.589716230205337
 40
0.7945980080597652
 40
1.0
 40
1.0
 40
1.0
 40
1.0
 10
198.0043737166324
 20
123.7875418969865
 30
0.0
 10
197.9790659495681
 20
123.8203464015923
 30
0.0
 10
197.9449656479861
 20
123.8645479898817
 30
0.0
 10
197.8905148333911
 20
123.8836349589554
 30
0.0
 10
197.8664309345097
 20
123.8856562490812
 30
0.0
 10
197.8543737166324
 20
123.8866681755786
 30
0.0
  0
LINE
  5
10E
330
1F
100
AcDbEntity
  8
0
  6
HIDDEN
 62
     7
370
     0
100
AcDbLine
 10
197.8543737166
 20
104.9051276016
 30
0.0
 11
197.8543737166
 21
121.2682604887
 31
0.0
  0
SPLINE
  5
10F
330
1F
100
AcDbEntity
  8
0
  6
HIDDEN
 62
     7
370
     0
100
AcDbSpline
210
0.0
220
0.0
230
1.0
 70
     8
 71
     3
 72
    10
 73
     6
 74
     0
 42
0.000000001
 43
0.00000001
 40
0.0
 40
0.0
 40
0.0
 40
0.0
 40
0.2189401613293332
 40
0.883720280317554
 40
1.0
 40
1.0
 40
1.0
 40
1.0
 10
197.8543737166324
 20
102.2867199147704
 30
0.0
 10
197.8671552921423
 20
102.2879996624733
 30
0.0
 10
197.9187462721796
 20
102.293165178895
 30
0.0
 10
197.9707466997489
 20
102.321473824248
 30
0.0
 10
198.0000162356091
 20
102.377342666598
 30
0.0
 10
198.0043737166324
 20
102.3856601001745
 30
0.0
  0
SPLINE
  5
110
330
1F
100
AcDbEntity
  8
0
  6
HIDDEN
 62
     7
370
     0
100
AcDbSpline
210
0.0
220
0.0
230
1.0
 70
     8
 71
     3
 72
    10
 73
     6
 74
     0
 42
0.000000001
 43
0.00000001
 40
0.0
 40
0.0
 40
0.0
 40
0.0
 40
0.1504981757665218
 40
0.5902594888189064
 40
0.9999999999999999
 40
0.9999999999999999
 40
0.9999999999999999
 40
0.9999999999999999
 10
198.0043737166324
 20
104.1725792008388
 30
0.0
 10
197.9986277337916
 20
104.2076768478561
 30
0.0
 10
197.9760917736236
 20
104.3453311355688
 30
0.0
 10
197.9267254787447
 20
104.590882580283
 30
0.0
 10
197.8779160064356
 20
104.8028765002547
 30
0.0
 10
197.8543737166324
 20
104.9051276016162
 30
0.0
  0
LINE
  5
111
330
1F
100
AcDbEntity
  8
0
  6
HIDDEN
 62
     7
370
     0
100
AcDbLine
 10
197.8543737166
 20
100.5517221594
 30
0.0
 11
197.8543737166
 21
102.2867199148
 31
0.0
  0
LINE
  5
112
330
1F
100
AcDbEntity
  8
0
  6
HIDDEN
 62
     7
370
     0
100
AcDbLine
 10
119.5043737166
 20
91.1466940452
 30
0.0
 11
119.5043737166
 21
85.7701271209
 31
0.0
  0
LINE
  5
113
330
1F
100
AcDbEntity
  8
0
  6
HIDDEN
 62
     7
370
     0
100
AcDbLine
 10
109.0543737166
 20
135.0266940452
 30
0.0
 11
109.0543737166
 21
138.9038254189
 31
0.0
  0
LINE
  5
114
330
1F
100
AcDbEntity
  8
0
  6
HIDDEN
 62
     7
370
     0
100
AcDbLine
 10
115.5043737166
 20
135.0266940452
 30
0.0
 11
115.5043737166
 21
140.2873008615
 31
0.0
  0
LINE
  5
115
330
1F
100
AcDbEntity
  8
0
  6
HIDDEN
 62
     7
370
     0
100
AcDbLine
 10
169.6043737166
 20
102.0866940452
 30
0.0
 11
169.6043737166
 21
124.0866940452
 31
0.0
  0
LINE
  5
116
330
1F
100
AcDbEntity
  8
0
  6
HIDDEN
 62
     7
370
     0
100
AcDbLine
 10
173.6043737166
 20
102.0866940452
 30
0.0
 11
173.6043737166
 21
124.0866940452
 31
0.0
  0
LINE
  5
117
330
1F
100
AcDbEntity
  8
0
  6
HIDDEN
 62
     7
370
     0
100
AcDbLine
 10
194.9543737166
 20
108.7223498791
 30
0.0
 11
194.9543737166
 21
117.4510382113
 31
0.0
  0
LINE
  5
118
330
1F
100
AcDbEntity
  8
0
  6
HIDDEN
 62
     7
370
     0
100
AcDbLine
 10
196.1223229091
 20
108.7223498791
 30
0.0
 11
196.1223229091
 21
117.4510382113
 31
0.0
  0
LINE
  5
119
330
1F
100
AcDbEntity
  8
0
  6
HIDDEN
 62
     7
370
     0
100
AcDbLine
 10
173.2543737166
 20
79.1866940452
 30
0.0
 11
167.0884517598
 21
79.1866940452
 31
0.0
  0
LINE
  5
11A
330
1F
100
AcDbEntity
  8
0
  6
HIDDEN
 62
     7
370
     0
100
AcDbLine
 10
151.2543737166
 20
73.0991959989
 30
0.0
 11
151.2543737166
 21
79.1866940452
 31
0.0
  0
LINE
  5
11B
330
1F
100
AcDbEntity
  8
0
  6
HIDDEN
 62
     7
370
     0
100
AcDbLine
 10
160.2543737166
 20
79.1866940452
 30
0.0
 11
151.2543737166
 21
79.1866940452
 31
0.0
  0
LINE
  5
11C
330
1F
100
AcDbEntity
  8
0
  6
HIDDEN
 62
     7
370
     0
100
AcDbLine
 10
163.5202956735
 20
79.1866940452
 30
0.0
 11
160.2543737166
 21
79.1866940452
 31
0.0
  0
LINE
  5
11D
330
1F
100
AcDbEntity
  8
0
  6
HIDDEN
 62
     7
370
     0
100
AcDbLine
 10
160.5043737166
 20
103.8366940452
 30
0.0
 11
160.5043737166
 21
122.3366940452
 31
0.0
  0
ELLIPSE
  5
11E
330
1F
100
AcDbEntity
  8
0
  6
HIDDEN
 62
     7
370
     0
100
AcDbEllipse
 10
102.8978402372
 20
113.0866940452
 30
0.0
 11
24.55447626164853
 21
0.0
 31
0.0
210
0.0
220
0.0
230
1.0
 40
0.8164965809
 41
4.896967322800382
 42
4.965822814181951
  0
ELLIPSE
  5
11F
330
1F
100
AcDbEntity
  8
0
  6
HIDDEN
 62
     7
370
     0
100
AcDbEllipse
 10
102.8978402372
 20
113.0866940452
 30
0.0
 11
24.55447626164853
 21
0.0
 31
0.0
210
0.0
220
0.0
230
1.0
 40
0.8164965809
 41
1.317362492997646
 42
1.386217984379215
  0
LINE
  5
120
330
1F
100
AcDbEntity
  8
0
  6
HIDDEN
 62
     7
370
     0
100
AcDbLine
 10
197.8543737166
 20
123.8866681756
 30
0.0
 11
197.8543737166
 21
123.8268573719
 31
0.0
  0
LINE
  5
121
330
1F
100
AcDbEntity
  8
0
  6
HIDDEN
 62
     7
370
     0
100
AcDbLine
 10
194.9543737166
 20
123.8268573719
 30
0.0
 11
197.8543737166
 21
123.8268573719
 31
0.0
  0
LINE
  5
122
330
1F
100
AcDbEntity
  8
0
  6
HIDDEN
 62
     7
370
     0
100
AcDbLine
 10
194.9543737166
 20
123.8866940452
 30
0.0
 11
194.9543737166
 21
120.6866940452
 31
0.0
  0
LINE
  5
123
330
1F
100
AcDbEntity
  8
0
  6
HIDDEN
 62
     7
370
     0
100
AcDbLine
 10
194.9543737166
 20
117.4510382113
 30
0.0
 11
196.1223229091
 21
117.4510382113
 31
0.0
  0
LINE
  5
124
330
1F
100
AcDbEntity
  8
0
  6
HIDDEN
 62
     7
370
     0
100
AcDbLine
 10
194.9543737166
 20
120.6866940452
 30
0.0
 11
194.9543737166
 21
117.4510382113
 31
0.0
  0
SPLINE
  5
125
330
1F
100
AcDbEntity
  8
0
  6
HIDDEN
 62
     7
370
     0
100
AcDbSpline
210
0.0
220
0.0
230
1.0
 70
     8
 71
     3
 72
     8
 73
     4
 74
     0
 42
0.000000001
 43
0.00000001
 40
0.0
 40
0.0
 40
0.0
 40
0.0
 40
1.0
 40
1.0
 40
1.0
 40
1.0
 10
196.1223229090635
 20
117.451038211255
 30
0.0
 10
196.6490698025206
 20
118.1827021717892
 30
0.0
 10
197.2365950975837
 20
118.8533100304353
 30
0.0
 10
197.8543737166324
 20
119.4935263357843
 30
0.0
  0
LINE
  5
126
330
1F
100
AcDbEntity
  8
0
  6
HIDDEN
 62
     7
370
     0
100
AcDbLine
 10
196.1223229091
 20
108.7223498791
 30
0.0
 11
194.9543737166
 21
108.7223498791
 31
0.0
  0
LINE
  5
127
330
1F
100
AcDbEntity
  8
0
  6
HIDDEN
 62
     7
370
     0
100
AcDbLine
 10
194.9543737166
 20
108.7223498791
 30
0.0
 11
194.9543737166
 21
105.4866940452
 31
0.0
  0
SPLINE
  5
128
330
1F
100
AcDbEntity
  8
0
  6
HIDDEN
 62
     7
370
     0
100
AcDbSpline
210
0.0
220
0.0
230
1.0
 70
     8
 71
     3
 72
     8
 73
     4
 74
     0
 42
0.000000001
 43
0.00000001
 40
0.0
 40
0.0
 40
0.0
 40
0.0
 40
1.0
 40
1.0
 40
1.0
 40
1.0
 10
197.8543737166324
 20
106.6798617545648
 30
0.0
 10
197.231231627798
 20
107.3256363306343
 30
0.0
 10
196.6434554405209
 20
107.9984844008816
 30
0.0
 10
196.1223229090635
 20
108.7223498790941
 30
0.0
  0
LINE
  5
129
330
1F
100
AcDbEntity
  8
0
  6
HIDDEN
 62
     7
370
     0
100
AcDbLine
 10
194.9543737166
 20
102.3465307185
 30
0.0
 11
197.8543737166
 21
102.3465307185
 31
0.0
  0
LINE
  5
12A
330
1F
100
AcDbEntity
  8
0
  6
HIDDEN
 62
     7
370
     0
100
AcDbLine
 10
197.8543737166
 20
102.3465307185
 30
0.0
 11
197.8543737166
 21
102.2867199148
 31
0.0
  0
LINE
  5
12B
330
1F
100
AcDbEntity
  8
0
  6
HIDDEN
 62
     7
370
     0
100
AcDbLine
 10
194.9543737166
 20
105.4866940452
 30
0.0
 11
194.9543737166
 21
102.2866940452
 31
0.0
  0
LINE
  5
12C
330
1F
100
AcDbEntity
  8
0
  6
HIDDEN
 62
     7
370
     0
100
AcDbLine
 10
194.1543737166
 20
104.0866940452
 30
0.0
 11
194.1543737166
 21
122.0866940452
 31
0.0
  0
LINE
  5
12D
330
1F
100
AcDbEntity
  8
0
  6
HIDDEN
 62
     7
370
     0
100
AcDbLine
 10
179.3043737166
 20
104.4866940452
 30
0.0
 11
179.3043737166
 21
121.6866940116
 31
0.0
  0
LINE
  5
12E
330
1F
100
AcDbEntity
  8
0
  6
HIDDEN
 62
     7
370
     0
100
AcDbLine
 10
181.3043737166
 20
104.0866940452
 30
0.0
 11
181.3043737166
 21
122.0866940452
 31
0.0
  0
LINE
  5
12F
330
1F
100
AcDbEntity
  8
0
  6
HIDDEN
 62
     7
370
     0
100
AcDbLine
 10
173.2543737166
 20
146.9866940452
 30
0.0
 11
166.8004941897
 21
146.9866940452
 31
0.0
  0
LINE
  5
130
330
1F
100
AcDbEntity
  8
0
  6
HIDDEN
 62
     7
370
     0
100
AcDbLine
 10
163.8082532436
 20
146.9866940452
 30
0.0
 11
160.2543737166
 21
146.9866940452
 31
0.0
  0
LINE
  5
131
330
1F
100
AcDbEntity
  8
0
  6
HIDDEN
 62
     7
370
     0
100
AcDbLine
 10
160.2543737166
 20
146.9866940452
 30
0.0
 11
151.2543737166
 21
146.9866940452
 31
0.0
  0
LINE
  5
132
330
1F
100
AcDbEntity
  8
0
  6
HIDDEN
 62
     7
370
     0
100
AcDbLine
 10
119.5043737166
 20
91.1466940452
 30
0.0
 11
119.5043737166
 21
92.9982496056
 31
0.0
  0
LINE
  5
133
330
1F
100
AcDbEntity
  8
0
  6
HIDDEN
 62
     7
370
     0
100
AcDbLine
 10
109.0543737166
 20
91.1466940452
 30
0.0
 11
109.0543737166
 21
93.6784586797
 31
0.0
  0
LINE
  5
134
330
1F
100
AcDbEntity
  8
0
  6
HIDDEN
 62
     7
370
     0
100
AcDbLine
 10
109.0543737166
 20
135.0266940452
 30
0.0
 11
109.0543737166
 21
132.4949294106
 31
0.0
  0
LINE
  5
135
330
1F
100
AcDbEntity
  8
0
  6
HIDDEN
 62
     7
370
     0
100
AcDbLine
 10
115.5043737166
 20
135.0266940452
 30
0.0
 11
115.5043737166
 21
133.1751384847
 31
0.0
  0
LINE
  5
136
330
1F
100
AcDbEntity
  8
0
  6
HIDDEN
 62
     7
370
     0
100
AcDbLine
 10
194.9543737166
 20
125.2616940452
 30
0.0
 11
194.9543737166
 21
123.8866940452
 31
0.0
  0
LINE
  5
137
330
1F
100
AcDbEntity
  8
0
  6
HIDDEN
 62
     7
370
     0
100
AcDbLine
 10
194.9543737166
 20
102.2866940452
 30
0.0
 11
194.9543737166
 21
100.9116940452
 31
0.0
  0
SPLINE
  5
138
330
1F
100
AcDbEntity
  8
0
  6
HIDDEN
 62
     7
370
     0
100
AcDbSpline
210
0.0
220
0.0
230
1.0
 70
     8
 71
     3
 72
    27
 73
    23
 74
     0
 42
0.000000001
 43
0.00000001
 40
0.0
 40
0.0
 40
0.0
 40
0.0
 40
0.0529626289488145
 40
0.1124052356769162
 40
0.177757484743872
 40
0.2127177515007156
 40
0.2491792185421917
 40
0.3302874812210647
 40
0.3990991208405877
 40
0.4381650644010885
 40
0.4717480517838163
 40
0.4998543095749394
 40
0.5547242224236295
 40
0.6146012163195053
 40
0.6795323427764737
 40
0.7139554998664708
 40
0.7496605550786081
 40
0.8307827411983352
 40
0.8994830673914735
 40
0.9557410448305121
 40
0.9995459183826138
 40
0.9999999999999999
 40
0.9999999999999999
 40
0.9999999999999999
 40
0.9999999999999999
 10
139.5536646799342
 20
83.52858320362884
 30
0.0
 10
139.5424249516495
 20
83.53185098644867
 30
0.0
 10
139.5185703142976
 20
83.53878636532417
 30
0.0
 10
139.3056959328779
 20
83.59027184758924
 30
0.0
 10
138.9931152040394
 20
83.65608532475407
 30
0.0
 10
138.6434887870565
 20
83.72411843903585
 30
0.0
 10
138.1958678037933
 20
83.8096487369194
 30
0.0
 10
137.5387269566814
 20
83.9161663830841
 30
0.0
 10
136.7716320555908
 20
84.01316487759783
 30
0.0
 10
136.1642454271444
 20
84.07801076010145
 30
0.0
 10
135.7210081894725
 20
84.11846013670146
 30
0.0
 10
135.2030572722864
 20
84.15511561540221
 30
0.0
 10
134.5656217406643
 20
84.1782399874697
 30
0.0
 10
133.788163871723
 20
84.1835711487297
 30
0.0
 10
133.1475381325148
 20
84.16898220414116
 30
0.0
 10
132.6559079923586
 20
84.14702085880002
 30
0.0
 10
132.1515066245271
 20
84.11381231220147
 30
0.0
 10
131.6395870581009
 20
84.07121339317176
 30
0.0
 10
131.2546550520042
 20
84.03181701852036
 30
0.0
 10
131.0944507778978
 20
84.00968732067507
 30
0.0
 10
131.0412348656744
 20
83.99838079994174
 30
0.0
 10
131.0546543148535
 20
84.0009145378187
 30
0.0
 10
131.0547919937744
 20
84.00094053309556
 30
0.0
  0
SPLINE
  5
139
330
1F
100
AcDbEntity
  8
0
  6
HIDDEN
 62
     7
370
     0
100
AcDbSpline
210
0.0
220
0.0
230
1.0
 70
     8
 71
     3
 72
    27
 73
    23
 74
     0
 42
0.000000001
 43
0.00000001
 40
0.0
 40
0.0
 40
0.0
 40
0.0
 40
0.0004748867208622
 40
0.0442297919315138
 40
0.1004434394922223
 40
0.1691050317930728
 40
0.2081707967446196
 40
0.2503592414128348
 40
0.3204224954440631
 40
0.3853947964490412
 40
0.425933600600608
 40
0.4642332523779173
 40
0.5003102843682532
 40
0.5443701453187447
 40
0.6006841134822934
 40
0.6692530686350585
 40
0.708200143872184
 40
0.7502232460341065
 40
0.8217130323854428
 40
0.8872114079222404
 40
0.9467673186013446
 40
1.0
 40
1.0
 40
1.0
 40
1.0
 10
131.0548086840622
 20
142.1723867075675
 30
0.0
 10
131.0546636464381
 20
142.1724140960337
 30
0.0
 10
131.0411551955651
 20
142.1749649910265
 30
0.0
 10
131.0939782474138
 20
142.1636474775683
 30
0.0
 10
131.2534186341195
 20
142.1416903271531
 30
0.0
 10
131.5601435042042
 20
142.1098248305134
 30
0.0
 10
131.9340532973742
 20
142.0783280535093
 30
0.0
 10
132.3803348427922
 20
142.0426693530814
 30
0.0
 10
133.0029661512311
 20
142.007243137485
 30
0.0
 10
133.7094815809267
 20
141.9917932906267
 30
0.0
 10
134.3247091335916
 20
141.9930422276092
 30
0.0
 10
134.8308105571506
 20
142.0044565985166
 30
0.0
 10
135.3587098766427
 20
142.0271251539563
 30
0.0
 10
135.9655248167682
 20
142.0745823538689
 30
0.0
 10
136.6985547184703
 20
142.1508240950934
 30
0.0
 10
137.3644776266694
 20
142.235437100057
 30
0.0
 10
137.913544610169
 20
142.3170532346414
 30
0.0
 10
138.4208551959956
 20
142.4050966332189
 30
0.0
 10
138.9193511572974
 20
142.5021348992396
 30
0.0
 10
139.3047355569901
 20
142.5825861216874
 30
0.0
 10
139.5187267679769
 20
142.6345044691432
 30
0.0
 10
139.5425644172972
 20
142.6414977713524
 30
0.0
 10
139.5538150408593
 20
142.6447983908705
 30
0.0
  0
LINE
  5
13A
330
1F
100
AcDbEntity
  8
0
  6
HIDDEN
 62
     7
370
     0
100
AcDbLine
 10
163.3943737166
 20
138.8224303859
 30
0.0
 11
163.3943737166
 21
137.9366940452
 31
0.0
  0
LINE
  5
13B
330
1F
100
AcDbEntity
  8
0
  6
HIDDEN
 62
     7
370
     0
100
AcDbLine
 10
167.2143737166
 20
138.8224303859
 30
0.0
 11
167.2143737166
 21
137.9366940452
 31
0.0
  0
LINE
  5
13C
330
1F
100
AcDbEntity
  8
0
  6
HIDDEN
 62
     7
370
     0
100
AcDbLine
 10
168.8406441154
 20
144.4311911699
 30
0.0
 11
168.8406441154
 21
137.9366940452
 31
0.0
  0
CIRCLE
  5
13D
330
1F
100
AcDbEntity
  8
0
  6
HIDDEN
 62
     7
370
     0
100
AcDbCircle
 10
154.3043737166
 20
113.0866940452
 30
0.0
 40
5.0
  0
LINE
  5
13E
330
1F
100
AcDbEntity
  8
0
  6
HIDDEN
 62
     7
370
     0
100
AcDbLine
 10
147.3043737166
 20
81.2827114894
 30
0.0
 11
147.3939753406
 21
81.9202601713
 31
0.0
  0
LINE
  5
13F
330
1F
100
AcDbEntity
  8
0
  6
HIDDEN
 62
     7
370
     0
100
AcDbLine
 10
147.3939753406
 20
144.253127919
 30
0.0
 11
147.3043737166
 21
144.890676601
 31
0.0
  0
ARC
  5
140
330
1F
100
AcDbEntity
  8
0
  6
HIDDEN
 62
     7
370
     0
100
AcDbCircle
 10
146.4074367982
 20
82.0589091215
 30
0.0
 40
0.9962338214386721
100
AcDbArc
 50
352.0
 51
0.0
  0
ARC
  5
141
330
1F
100
AcDbEntity
  8
0
  6
HIDDEN
 62
     7
370
     0
100
AcDbCircle
 10
146.4074367982
 20
82.0589091215
 30
0.0
 40
0.9962338214386727
100
AcDbArc
 50
0.0
 51
25.7988228126
  0
ARC
  5
142
330
1F
100
AcDbEntity
  8
0
  6
HIDDEN
 62
     7
370
     0
100
AcDbCircle
 10
146.4074367982
 20
144.1144789688
 30
0.0
 40
0.9962338214386743
100
AcDbArc
 50
348.75
 51
8.0
  0
LWPOLYLINE
  5
143
330
1F
100
AcDbEntity
  8
0
  6
HIDDEN
 62
     7
370
     0
100
AcDbPolyline
 90
        3
 70
   128
 43
0.0
 10
147.3845282661
 20
143.9201233918
 10
147.3278368354
 20
143.7332367906
 10
147.3043737166
 20
143.6809054557
  0
LINE
  5
144
330
1F
100
AcDbEntity
  8
0
  6
HIDDEN
 62
     7
370
     0
100
AcDbLine
 10
147.4036706196
 20
82.0589091215
 30
0.0
 11
147.4036706196
 21
144.1144789688
 31
0.0
  0
ARC
  5
145
330
1F
100
AcDbEntity
  8
0
  6
HIDDEN
 62
     7
370
     0
100
AcDbCircle
 10
139.3043737166
 20
98.0866940452
 30
0.0
 40
10.00000000000001
100
AcDbArc
 50
271.4131878979
 51
323.1301023542
  0
ARC
  5
146
330
1F
100
AcDbEntity
  8
0
  6
HIDDEN
 62
     7
370
     0
100
AcDbCircle
 10
139.3043737166
 20
128.0866940452
 30
0.0
 40
10.0
100
AcDbArc
 50
36.8698976458
 51
88.5875252268
  0
LINE
  5
147
330
1F
100
AcDbEntity
  8
0
  6
HIDDEN
 62
     7
370
     0
100
AcDbLine
 10
126.0709544704
 20
88.0866940452
 30
0.0
 11
131.0678104604
 21
88.0866940452
 31
0.0
  0
LINE
  5
148
330
1F
100
AcDbEntity
  8
0
  6
HIDDEN
 62
     7
370
     0
100
AcDbLine
 10
131.0612002926
 20
138.0866940452
 30
0.0
 11
126.0709544704
 21
138.0866940452
 31
0.0
  0
ARC
  5
149
330
1F
100
AcDbEntity
  8
0
  6
HIDDEN
 62
     7
370
     0
100
AcDbCircle
 10
126.0709544704
 20
88.8866940452
 30
0.0
 40
0.8000000000000119
100
AcDbArc
 50
210.0
 51
270.0
  0
ARC
  5
14A
330
1F
100
AcDbEntity
  8
0
  6
HIDDEN
 62
     7
370
     0
100
AcDbCircle
 10
126.0709544704
 20
137.2866940452
 30
0.0
 40
0.7999999999999977
100
AcDbArc
 50
90.0
 51
150.0
  0
LINE
  5
14B
330
1F
100
AcDbEntity
  8
0
  6
HIDDEN
 62
     7
370
     0
100
AcDbLine
 10
125.3781341473
 20
137.6866940452
 30
0.0
 11
123.2996731783
 21
134.0866940452
 31
0.0
  0
LINE
  5
14C
330
1F
100
AcDbEntity
  8
0
  6
HIDDEN
 62
     7
370
     0
100
AcDbLine
 10
123.2996731783
 20
92.0866940452
 30
0.0
 11
125.3781341473
 21
88.4866940452
 31
0.0
  0
ARC
  5
14D
330
1F
100
AcDbEntity
  8
0
  6
HIDDEN
 62
     7
370
     0
100
AcDbCircle
 10
157.7543737166
 20
93.8616940452
 30
0.0
 40
2.0
100
AcDbArc
 50
242.5607598493
 51
0.0
  0
ARC
  5
14E
330
1F
100
AcDbEntity
  8
0
  6
HIDDEN
 62
     7
370
     0
100
AcDbCircle
 10
157.7543737166
 20
132.3116940452
 30
0.0
 40
2.0
100
AcDbArc
 50
0.0
 51
117.4392401507
  0
LINE
  5
14F
330
1F
100
AcDbEntity
  8
0
  6
HIDDEN
 62
     7
370
     0
100
AcDbLine
 10
147.3043737166
 20
92.0866940452
 30
0.0
 11
156.8327582871
 21
92.0866940452
 31
0.0
  0
LINE
  5
150
330
1F
100
AcDbEntity
  8
0
  6
HIDDEN
 62
     7
370
     0
100
AcDbLine
 10
156.8327582871
 20
134.0866940452
 30
0.0
 11
147.3043737166
 21
134.0866940452
 31
0.0
  0
LINE
  5
151
330
1F
100
AcDbEntity
  8
0
  6
HIDDEN
 62
     7
370
     0
100
AcDbLine
 10
119.5043737166
 20
92.0866940452
 30
0.0
 11
123.2996731783
 21
92.0866940452
 31
0.0
  0
LINE
  5
152
330
1F
100
AcDbEntity
  8
0
  6
HIDDEN
 62
     7
370
     0
100
AcDbLine
 10
123.2996731783
 20
134.0866940452
 30
0.0
 11
115.5043737166
 21
134.0866940452
 31
0.0
  0
LINE
  5
153
330
1F
100
AcDbEntity
  8
0
  6
HIDDEN
 62
     7
370
     0
100
AcDbLine
 10
198.3043737166
 20
126.5866940452
 30
0.0
 11
197.8543737166
 21
125.6216659309
 31
0.0
  0
LINE
  5
154
330
1F
100
AcDbEntity
  8
0
  6
HIDDEN
 62
     7
370
     0
100
AcDbLine
 10
197.8543737166
 20
100.5517221594
 30
0.0
 11
198.3043737166
 21
99.5866940452
 31
0.0
  0
LINE
  5
155
330
1F
100
AcDbEntity
  8
0
  6
HIDDEN
 62
     7
370
     0
100
AcDbLine
 10
169.6043737166
 20
102.0866940452
 30
0.0
 11
173.6043737166
 21
102.0866940452
 31
0.0
  0
LINE
  5
156
330
1F
100
AcDbEntity
  8
0
  6
HIDDEN
 62
     7
370
     0
100
AcDbLine
 10
173.6043737166
 20
124.0866940452
 30
0.0
 11
169.6043737166
 21
124.0866940452
 31
0.0
  0
LINE
  5
157
330
1F
100
AcDbEntity
  8
0
  6
HIDDEN
 62
     7
370
     0
100
AcDbLine
 10
159.7543737166
 20
103.0866940452
 30
0.0
 11
160.5043737166
 21
103.8366940452
 31
0.0
  0
LINE
  5
158
330
1F
100
AcDbEntity
  8
0
  6
HIDDEN
 62
     7
370
     0
100
AcDbLine
 10
160.5043737166
 20
122.3366940452
 30
0.0
 11
159.7543737166
 21
123.0866940452
 31
0.0
  0
LINE
  5
159
330
1F
100
AcDbEntity
  8
0
  6
HIDDEN
 62
     7
370
     0
100
AcDbLine
 10
197.8514493594
 20
123.8866940452
 30
0.0
 11
194.9543737166
 21
123.8866940452
 31
0.0
  0
LINE
  5
15A
330
1F
100
AcDbEntity
  8
0
  6
HIDDEN
 62
     7
370
     0
100
AcDbLine
 10
194.9543737166
 20
102.2866940452
 30
0.0
 11
197.8543737166
 21
102.2866940452
 31
0.0
  0
LINE
  5
15B
330
1F
100
AcDbEntity
  8
0
  6
HIDDEN
 62
     7
370
     0
100
AcDbLine
 10
194.9543737166
 20
122.5485742605
 30
0.0
 11
194.1543737166
 21
122.0866940452
 31
0.0
  0
LINE
  5
15C
330
1F
100
AcDbEntity
  8
0
  6
HIDDEN
 62
     7
370
     0
100
AcDbLine
 10
194.1543737166
 20
104.0866940452
 30
0.0
 11
194.9543737166
 21
103.6248138298
 31
0.0
  0
LINE
  5
15D
330
1F
100
AcDbEntity
  8
0
  6
HIDDEN
 62
     7
370
     0
100
AcDbLine
 10
160.5043737166
 20
103.8366940452
 30
0.0
 11
169.6043737166
 21
103.8366940452
 31
0.0
  0
LINE
  5
15E
330
1F
100
AcDbEntity
  8
0
  6
HIDDEN
 62
     7
370
     0
100
AcDbLine
 10
169.6043737166
 20
122.3366940452
 30
0.0
 11
160.5043737166
 21
122.3366940452
 31
0.0
  0
LINE
  5
15F
330
1F
100
AcDbEntity
  8
0
  6
HIDDEN
 62
     7
370
     0
100
AcDbLine
 10
179.9043737166
 20
103.8866940452
 30
0.0
 11
180.4789720566
 21
103.8866940452
 31
0.0
  0
LINE
  5
160
330
1F
100
AcDbEntity
  8
0
  6
HIDDEN
 62
     7
370
     0
100
AcDbLine
 10
180.4789720566
 20
122.2866940452
 30
0.0
 11
179.9043737166
 21
122.2866940452
 31
0.0
  0
ARC
  5
161
330
1F
100
AcDbEntity
  8
0
  6
HIDDEN
 62
     7
370
     0
100
AcDbCircle
 10
180.4789720566
 20
104.4866940452
 30
0.0
 40
0.5999999999999943
100
AcDbArc
 50
270.0
 51
285.0
  0
ARC
  5
162
330
1F
100
AcDbEntity
  8
0
  6
HIDDEN
 62
     7
370
     0
100
AcDbCircle
 10
180.4789720566
 20
121.6866940452
 30
0.0
 40
0.5999999999999943
100
AcDbArc
 50
75.0
 51
90.0
  0
ARC
  5
163
330
1F
100
AcDbEntity
  8
0
  6
HIDDEN
 62
     7
370
     0
100
AcDbCircle
 10
179.9043737166
 20
104.4866940452
 30
0.0
 40
0.5999999999999943
100
AcDbArc
 50
180.0
 51
270.0
  0
ARC
  5
164
330
1F
100
AcDbEntity
  8
0
  6
HIDDEN
 62
     7
370
     0
100
AcDbCircle
 10
179.9043737166
 20
121.6866940452
 30
0.0
 40
0.5999999999999943
100
AcDbArc
 50
90.0
 51
180.0
  0
LINE
  5
165
330
1F
100
AcDbEntity
  8
0
  6
HIDDEN
 62
     7
370
     0
100
AcDbLine
 10
180.6342634836
 20
103.9071385494
 30
0.0
 11
181.3043737166
 21
104.0866940452
 31
0.0
  0
LINE
  5
166
330
1F
100
AcDbEntity
  8
0
  6
HIDDEN
 62
     7
370
     0
100
AcDbLine
 10
181.3043737166
 20
122.0866940452
 30
0.0
 11
180.6342634836
 21
122.2662495409
 31
0.0
  0
LINE
  5
167
330
1F
100
AcDbEntity
  8
0
  6
HIDDEN
 62
     7
370
     0
100
AcDbLine
 10
151.2543737166
 20
153.0866940452
 30
0.0
 11
151.2543737166
 21
146.9866940452
 31
0.0
  0
LINE
  5
168
330
1F
100
AcDbEntity
  8
0
  6
HIDDEN
 62
     7
370
     0
100
AcDbLine
 10
181.3043737166
 20
104.0866940452
 30
0.0
 11
194.1543737166
 21
104.0866940452
 31
0.0
  0
LINE
  5
169
330
1F
100
AcDbEntity
  8
0
  6
HIDDEN
 62
     7
370
     0
100
AcDbLine
 10
194.1543737166
 20
122.0866940452
 30
0.0
 11
181.3043737166
 21
122.0866940452
 31
0.0
  0
LINE
  5
16A
330
1F
100
AcDbEntity
  8
0
  6
HIDDEN
 62
     7
370
     0
100
AcDbLine
 10
197.8543737166
 20
125.2616940452
 30
0.0
 11
194.9543737166
 21
125.2616940452
 31
0.0
  0
LINE
  5
16B
330
1F
100
AcDbEntity
  8
0
  6
HIDDEN
 62
     7
370
     0
100
AcDbLine
 10
194.9543737166
 20
100.9116940452
 30
0.0
 11
197.8543737166
 21
100.9116940452
 31
0.0
  0
LINE
  5
16C
330
1F
100
AcDbEntity
  8
0
  6
HIDDEN
 62
     7
370
     0
100
AcDbLine
 10
173.6043737166
 20
107.9866940452
 30
0.0
 11
179.3043737166
 21
107.9866940452
 31
0.0
  0
LINE
  5
16D
330
1F
100
AcDbEntity
  8
0
  6
HIDDEN
 62
     7
370
     0
100
AcDbLine
 10
179.3043737166
 20
118.1866940452
 30
0.0
 11
173.6043737166
 21
118.1866940452
 31
0.0
  0
LINE
  5
16E
330
1F
100
AcDbEntity
  8
0
  6
HIDDEN
 62
     7
370
     0
100
AcDbLine
 10
139.9954435326
 20
83.0460708149
 30
0.0
 11
139.554378094
 21
83.5283936298
 31
0.0
  0
LINE
  5
16F
330
1F
100
AcDbEntity
  8
0
  6
HIDDEN
 62
     7
370
     0
100
AcDbLine
 10
131.0543746291
 20
84.0008623264
 30
0.0
 11
130.5649808569
 21
83.5185395372
 31
0.0
  0
LINE
  5
170
330
1F
100
AcDbEntity
  8
0
  6
HIDDEN
 62
     7
370
     0
100
AcDbLine
 10
130.5648681688
 20
142.6548432639
 30
0.0
 11
131.0543720906
 21
142.1724688519
 31
0.0
  0
LINE
  5
171
330
1F
100
AcDbEntity
  8
0
  6
HIDDEN
 62
     7
370
     0
100
AcDbLine
 10
139.5543732134
 20
142.6449472921
 30
0.0
 11
139.9955427969
 21
143.1273216988
 31
0.0
  0
LINE
  5
172
330
1F
100
AcDbEntity
  8
0
  6
HIDDEN
 62
     7
370
     0
100
AcDbLine
 10
139.5543737166
 20
83.5285702183
 30
0.0
 11
139.5543737166
 21
88.0903956245
 31
0.0
  0
LINE
  5
173
330
1F
100
AcDbEntity
  8
0
  6
HIDDEN
 62
     7
370
     0
100
AcDbLine
 10
131.0543737166
 20
88.0889726798
 30
0.0
 11
131.0543737166
 21
84.0009750742
 31
0.0
  0
LINE
  5
174
330
1F
100
AcDbEntity
  8
0
  6
HIDDEN
 62
     7
370
     0
100
AcDbLine
 10
139.5543737166
 20
138.0829924659
 30
0.0
 11
139.5543737166
 21
142.644740874
 31
0.0
  0
LINE
  5
175
330
1F
100
AcDbEntity
  8
0
  6
HIDDEN
 62
     7
370
     0
100
AcDbLine
 10
131.0543737166
 20
142.172392668
 30
0.0
 11
131.0543737166
 21
138.0855429418
 31
0.0
  0
DIMENSION
  5
176
330
1F
100
AcDbEntity
  8
VERMASSUNG
100
AcDbDimension
  2
_D
 10
102.2386518454
 20
73.0866940452
 30
0.0
 11
102.2386518454
 21
113.0866940452
 31
0.0
 70
   160
  1
HSK A %%c<>
 71
     2
 42
-1.0
  3
SLDDIMSTYLE0
100
AcDbAlignedDimension
 13
147.8043737166
 23
153.0866940452
 33
0.0
 14
147.8043737166
 24
73.0866940452
 34
0.0
 50
90.0
100
AcDbRotatedDimension
  0
DIMENSION
  5
183
330
1F
100
AcDbEntity
  8
VERMASSUNG
100
AcDbDimension
  2
_D_1
 10
198.3043737166
 20
168.5468071196
 30
0.0
 11
152.8543737166
 21
168.5468071196
 31
0.0
 70
   160
  1
<>
 71
     2
 42
-1.0
  3
SLDDIMSTYLE0
100
AcDbAlignedDimension
 13
107.4043737166
 23
137.2535724809
 33
0.0
 14
198.3043737166
 24
128.7866940452
 34
0.0
100
AcDbRotatedDimension
  0
DIMENSION
  5
18D
330
1F
100
AcDbEntity
  8
VERMASSUNG
100
AcDbDimension
  2
_D_2
 10
198.3043737166
 20
162.5468071196
 30
0.0
 11
172.8043737166
 21
162.5468071196
 31
0.0
 70
   160
  1
<>
 71
     2
 42
-1.0
  3
SLDDIMSTYLE0
100
AcDbAlignedDimension
 13
147.3043737166
 23
152.5866940452
 33
0.0
 14
198.3043737166
 24
128.7866940452
 34
0.0
100
AcDbRotatedDimension
  0
DIMENSION
  5
197
330
1F
100
AcDbEntity
  8
VERMASSUNG
100
AcDbDimension
  2
_D_3
 10
198.3043737166
 20
156.5468071196
 30
0.0
 11
185.7793737166
 21
156.5468071196
 31
0.0
 70
   160
  1
<>
 71
     2
 42
-1.0
  3
SLDDIMSTYLE0
100
AcDbAlignedDimension
 13
173.2543737166
 23
151.0340259672
 33
0.0
 14
198.3043737166
 24
128.7866940452
 34
0.0
100
AcDbRotatedDimension
  0
DIMENSION
  5
1A1
330
1F
100
AcDbEntity
  8
VERMASSUNG
100
AcDbDimension
  2
_D_4
 10
206.1074159139
 20
97.0866940452
 30
0.0
 11
206.1074159139
 21
113.0866940452
 31
0.0
 70
   160
  1
MBM %%c<>
 71
     2
 42
-1.0
  3
SLDDIMSTYLE0
100
AcDbAlignedDimension
 13
198.0043737166
 23
129.0866940452
 33
0.0
 14
198.0043737166
 24
97.0866940452
 34
0.0
 50
90.0
100
AcDbRotatedDimension
  0
LINE
  5
1AD
330
1F
100
AcDbEntity
  8
VERMASSUNG
  6
CENTERX2
 62
     7
370
     0
100
AcDbLine
 10
105.1693197253
 20
113.0866940452
 30
0.0
 11
200.3043737166
 21
113.0866940452
 31
0.0
  0
LINE
  5
1AE
330
1F
100
AcDbEntity
  8
0
  6
Continuous
 62
     7
370
    15
100
AcDbLine
 10
271.7120277335
 20
43.7470312874
 30
0.0
 11
271.5352223141
 21
43.8491320612
 31
0.0
  0
LINE
  5
1AF
330
1F
100
AcDbEntity
  8
0
  6
Continuous
 62
     7
370
    15
100
AcDbLine
 10
269.0599464414
 20
43.8491320612
 30
0.0
 11
268.8831410219
 21
43.7470312874
 31
0.0
  0
LINE
  5
1B0
330
1F
100
AcDbEntity
  8
0
  6
Continuous
 62
     7
370
    15
100
AcDbLine
 10
272.2975843777
 20
42.6245530497
 30
0.0
 11
272.2975843777
 21
42.9307558541
 31
0.0
  0
LINE
  5
1B1
330
1F
100
AcDbEntity
  8
0
  6
Continuous
 62
     7
370
    15
100
AcDbLine
 10
268.2975843777
 20
42.9307558541
 30
0.0
 11
268.2975843777
 21
42.6245530497
 31
0.0
  0
LINE
  5
1B2
330
1F
100
AcDbEntity
  8
0
  6
Continuous
 62
     7
370
    15
100
AcDbLine
 10
245.7319973589
 20
27.6905908662
 30
0.0
 11
250.6689213047
 21
24.8405653367
 31
0.0
  0
LINE
  5
1B3
330
1F
100
AcDbEntity
  8
0
  6
Continuous
 62
     7
370
    15
100
AcDbLine
 10
267.5124031845
 20
61.3038006627
 30
0.0
 11
265.7303720116
 21
62.3325453614
 31
0.0
  0
LINE
  5
1B4
330
1F
100
AcDbEntity
  8
0
  6
Continuous
 62
     7
370
    15
100
AcDbLine
 10
273.4804842909
 20
28.2338506587
 30
0.0
 11
273.5865330694
 21
28.2950912188
 31
0.0
  0
LINE
  5
1B5
330
1F
100
AcDbEntity
  8
0
  6
Continuous
 62
     7
370
    15
100
AcDbLine
 10
279.1364191425
 20
37.9088175409
 30
0.0
 11
279.1364191425
 21
38.0312787577
 31
0.0
  0
LINE
  5
1B6
330
1F
100
AcDbEntity
  8
0
  6
Continuous
 62
     7
370
    15
100
AcDbLine
 10
262.1436571077
 20
32.0723724914
 30
0.0
 11
269.4798899625
 21
27.8372554114
 31
0.0
  0
LINE
  5
1B7
330
1F
100
AcDbEntity
  8
0
  6
Continuous
 62
     7
370
    15
100
AcDbLine
 10
277.4792398236
 20
41.6940372094
 30
0.0
 11
270.1430069688
 21
45.9291542895
 31
0.0
  0
SPLINE
  5
1B8
330
1F
100
AcDbEntity
  8
0
  6
Continuous
 62
     7
370
    15
100
AcDbSpline
210
0.0
220
0.0
230
1.0
 70
     8
 71
     3
 72
    36
 73
    32
 74
     0
 42
0.000000001
 43
0.00000001
 40
0.0
 40
0.0
 40
0.0
 40
0.0
 40
0.0076750814057485
 40
0.0441039630621969
 40
0.0806038400293698
 40
0.1171565026641203
 40
0.1537440453987703
 40
0.1903514911094558
 40
0.2269676352618039
 40
0.2635835494423459
 40
0.3001946781236907
 40
0.3367989629580867
 40
0.3733956513981715
 40
0.4099848484262702
 40
0.4465672014197703
 40
0.4831436886327162
 40
0.5197154828288245
 40
0.5562838669445442
 40
0.5928501844778764
 40
0.6294158121224309
 40
0.6659820698801606
 40
0.7025499745137818
 40
0.7391209404744875
 40
0.775696380139989
 40
0.8122776854606575
 40
0.8488661932780216
 40
0.8854631236883229
 40
0.9220694767822538
 40
0.9586858674479191
 40
0.993383932308516
 40
1.0
 40
1.0
 40
1.0
 40
1.0
 10
261.3739408808718
 20
63.26341818694503
 30
0.0
 10
261.3082032465754
 20
63.2615572574793
 30
0.0
 10
260.930449573157
 20
63.25086364263942
 30
0.0
 10
260.2127668667259
 20
63.13701045555273
 30
0.0
 10
259.2252472033146
 20
62.91794075532417
 30
0.0
 10
258.2168220331911
 20
62.59613608297267
 30
0.0
 10
257.1960956219168
 20
62.18383106773192
 30
0.0
 10
256.1677322509611
 20
61.68047959218123
 30
0.0
 10
255.1374583570977
 20
61.08962968244
 30
0.0
 10
254.1106620437973
 20
60.41433382728368
 30
0.0
 10
253.0927340646955
 20
59.65832679534505
 30
0.0
 10
252.0889472677588
 20
58.82565874795447
 30
0.0
 10
251.1044849325267
 20
57.9207682971152
 30
0.0
 10
250.1444222435026
 20
56.94844231430307
 30
0.0
 10
249.2137084692873
 20
55.91380098306807
 30
0.0
 10
248.317144891785
 20
54.82227310848969
 30
0.0
 10
247.4593623367519
 20
53.67957139924992
 30
0.0
 10
246.6447982506524
 20
52.4916649790661
 30
0.0
 10
245.8776741591186
 20
51.26475000382373
 30
0.0
 10
245.1619744195162
 20
50.00521930107757
 30
0.0
 10
244.5014274026146
 20
48.71963344973117
 30
0.0
 10
243.8994830439751
 20
47.41468246334886
 30
0.0
 10
243.3592954261833
 20
46.09714988411245
 30
0.0
 10
242.8837052066354
 20
44.77387251814752
 30
0.0
 10
242.4752337591784
 20
43.45171272369579
 30
0.0
 10
242.1360538176155
 20
42.13751174182957
 30
0.0
 10
241.868049745915
 20
40.83809905559689
 30
0.0
 10
241.6725539604038
 20
39.56009769391713
 30
0.0
 10
241.5534310587006
 20
38.33243585765327
 30
0.0
 10
241.5177044822782
 20
37.46927721685153
 30
0.0
 10
241.5160850875741
 20
37.02128045500331
 30
0.0
 10
241.515825756824
 20
36.94953800952859
 30
0.0
  0
SPLINE
  5
1B9
330
1F
100
AcDbEntity
  8
0
  6
Continuous
 62
     7
370
    15
100
AcDbSpline
210
0.0
220
0.0
230
1.0
 70
     8
 71
     3
 72
    14
 73
    10
 74
     0
 42
0.000000001
 43
0.00000001
 40
0.0
 40
0.0
 40
0.0
 40
0.0
 40
0.0923326795574403
 40
0.2677073962448823
 40
0.4431313287199734
 40
0.6185261364626861
 40
0.7938364062235238
 40
0.9689869795629861
 40
1.0
 40
1.0
 40
1.0
 40
1.0
 10
241.515825756824
 20
36.94953800952859
 30
0.0
 10
241.517918039328
 20
36.74198629859666
 30
0.0
 10
241.523984358469
 20
36.14021530715488
 30
0.0
 10
241.5912719311444
 20
35.1778804567156
 30
0.0
 10
241.7426841808503
 20
34.08468445836199
 30
0.0
 10
241.9676865693224
 20
33.04703190305142
 30
0.0
 10
242.272004927748
 20
32.07846682746097
 30
0.0
 10
242.5279582446014
 20
31.40637827700015
 30
0.0
 10
242.7029326978056
 20
31.08128408987023
 30
0.0
 10
242.7292539613894
 20
31.03238043775236
 30
0.0
  0
LINE
  5
1BA
330
1F
100
AcDbEntity
  8
0
  6
Continuous
 62
     7
370
    15
100
AcDbLine
 10
256.2756704492
 20
61.7188737485
 30
0.0
 11
248.8486364692
 21
65.4192269206
 31
0.0
  0
LINE
  5
1BB
330
1F
100
AcDbEntity
  8
0
  6
Continuous
 62
     7
370
    15
100
AcDbLine
 10
234.6167579018
 20
40.7662189498
 30
0.0
 11
241.5359591767
 21
36.1846112453
 31
0.0
  0
SPLINE
  5
1BC
330
1F
100
AcDbEntity
  8
0
  6
Continuous
 62
     7
370
    15
100
AcDbSpline
210
0.0
220
0.0
230
1.0
 70
     8
 71
     3
 72
    22
 73
    18
 74
     0
 42
0.000000001
 43
0.00000001
 40
0.0
 40
0.0
 40
0.0
 40
0.0
 40
0.0353967101623214
 40
0.1076445667290241
 40
0.1802090200190313
 40
0.2531113988398889
 40
0.3263219898543396
 40
0.3997802012796255
 40
0.4734153868147281
 40
0.5471619364187867
 40
0.6209669505924316
 40
0.6947906652986
 40
0.7686031448936194
 40
0.8423921106829658
 40
0.9161518592364362
 40
0.9898811130462445
 40
1.0
 40
1.0
 40
1.0
 40
1.0
 10
256.3090953765267
 20
21.94911500266928
 30
0.0
 10
256.4480073781771
 20
21.91340518967028
 30
0.0
 10
256.8704512200637
 20
21.80480844916462
 30
0.0
 10
257.6188015368586
 20
21.72652282227997
 30
0.0
 10
258.5468165119742
 20
21.70936292473671
 30
0.0
 10
259.5080392419134
 20
21.79385450231034
 30
0.0
 10
260.4948297807058
 20
21.97341144911956
 30
0.0
 10
261.5025573983913
 20
22.24908223829174
 30
0.0
 10
262.5254052684174
 20
22.61898056565566
 30
0.0
 10
263.557722357997
 20
23.08113588694036
 30
0.0
 10
264.5937919947758
 20
23.6328695184001
 30
0.0
 10
265.6280799066506
 20
24.27083162114421
 30
0.0
 10
266.6548537476004
 20
24.99193129163142
 30
0.0
 10
267.6697556308152
 20
25.79004770023026
 30
0.0
 10
268.663992520312
 20
26.66861919671549
 30
0.0
 10
269.3637153440094
 20
27.32789611867645
 30
0.0
 10
269.7214966404451
 20
27.71109755233171
 30
0.0
 10
269.7646740855242
 20
27.75734272786409
 30
0.0
  0
SPLINE
  5
1BD
330
1F
100
AcDbEntity
  8
0
  6
Continuous
 62
     7
370
    15
100
AcDbSpline
210
0.0
220
0.0
230
1.0
 70
     8
 71
     3
 72
    10
 73
     6
 74
     0
 42
0.000000001
 43
0.00000001
 40
0.0
 40
0.0
 40
0.0
 40
0.0
 40
0.2886083749654961
 40
0.8074190050484019
 40
1.0
 40
1.0
 40
1.0
 40
1.0
 10
277.7030521857283
 20
41.54586784186728
 30
0.0
 10
277.7730496987111
 20
41.79075662303313
 30
0.0
 10
277.9688767335128
 20
42.47586444798825
 30
0.0
 10
278.1574078670404
 20
43.31721088716639
 30
0.0
 10
278.2637240673697
 20
43.9073967706287
 30
0.0
 10
278.2925049510887
 20
44.06716613063213
 30
0.0
  0
LINE
  5
1BE
330
1F
100
AcDbEntity
  8
0
  6
Continuous
 62
     7
370
    15
100
AcDbLine
 10
253.1694420838
 20
23.3970454171
 30
0.0
 11
254.3763777589
 21
22.7002962826
 31
0.0
  0
SPLINE
  5
1BF
330
1F
100
AcDbEntity
  8
0
  6
Continuous
 62
     7
370
    15
100
AcDbSpline
210
0.0
220
0.0
230
1.0
 70
     8
 71
     3
 72
    14
 73
    10
 74
     0
 42
0.000000001
 43
0.00000001
 40
0.0
 40
0.0
 40
0.0
 40
0.0
 40
0.0861467729091296
 40
0.2489188739957929
 40
0.4114727928192414
 40
0.5735437348527012
 40
0.7349658377335299
 40
0.8956199487028614
 40
1.0
 40
1.0
 40
1.0
 40
1.0
 10
278.3072043748002
 20
51.43023074865673
 30
0.0
 10
278.2641434129633
 20
51.61233570441647
 30
0.0
 10
278.139719876577
 20
52.13852326787381
 30
0.0
 10
277.8766770579306
 20
52.96207094863775
 30
0.0
 10
277.4950544485247
 20
53.87400458595284
 30
0.0
 10
277.041998494296
 20
54.71260517570745
 30
0.0
 10
276.5187265605335
 20
55.46937322094915
 30
0.0
 10
276.0062072576141
 20
56.07637059568481
 30
0.0
 10
275.6439231828319
 20
56.39447570566727
 30
0.0
 10
275.5012425940861
 20
56.5197570181362
 30
0.0
  0
SPLINE
  5
1C0
330
1F
100
AcDbEntity
  8
0
  6
Continuous
 62
     7
370
    15
100
AcDbSpline
210
0.0
220
0.0
230
1.0
 70
     8
 71
     3
 72
    29
 73
    25
 74
     0
 42
0.000000001
 43
0.00000001
 40
0.0
 40
0.0
 40
0.0
 40
0.0
 40
0.0042355897351212
 40
0.0508183926223001
 40
0.097422546602021
 40
0.1442888970169147
 40
0.1916006784204422
 40
0.2394359216176504
 40
0.2877682460729722
 40
0.3364982111257842
 40
0.3854979295995677
 40
0.4346483298282293
 40
0.4838584574162555
 40
0.533056083351048
 40
0.5822140337418726
 40
0.6313220650999991
 40
0.6803800149402053
 40
0.7293936360033246
 40
0.778371968378469
 40
0.8273257931532618
 40
0.8762667815623224
 40
0.9252070615409667
 40
0.9741566436858424
 40
0.9999999999999999
 40
0.9999999999999999
 40
0.9999999999999999
 40
0.9999999999999999
 10
248.9634372427329
 20
65.35535605978092
 30
0.0
 10
248.9442164665744
 20
65.36714691257156
 30
0.0
 10
248.7136065608927
 20
65.50861297135857
 30
0.0
 10
248.2231165224979
 20
65.69369424112233
 30
0.0
 10
247.4970798588427
 20
65.90055182933743
 30
0.0
 10
246.7276823363938
 20
66.00221817089918
 30
0.0
 10
245.9259515444419
 20
66.01031216555924
 30
0.0
 10
245.0944001519246
 20
65.92080146771598
 30
0.0
 10
244.2390076657108
 20
65.73433639335732
 30
0.0
 10
243.3661098168385
 20
65.45141131090959
 30
0.0
 10
242.4828675357438
 20
65.07408295584607
 30
0.0
 10
241.5965581006417
 20
64.605513800166
 30
0.0
 10
240.7143551862112
 20
64.04988487936896
 30
0.0
 10
239.8430337862095
 20
63.41206476992188
 30
0.0
 10
238.9889641936287
 20
62.69741626397228
 30
0.0
 10
238.1581041271736
 20
61.91161045767706
 30
0.0
 10
237.3561629690348
 20
61.06067415989221
 30
0.0
 10
236.588659973329
 20
60.15097007923763
 30
0.0
 10
235.8607955460944
 20
59.18919871146714
 30
0.0
 10
235.1779021963292
 20
58.18229742242907
 30
0.0
 10
234.5436679778939
 20
57.13768702942192
 30
0.0
 10
233.9666454549321
 20
56.06219831902031
 30
0.0
 10
233.519434105884
 20
55.13856458494176
 30
0.0
 10
233.2906616389051
 20
54.57185160106339
 30
0.0
 10
233.2116134225786
 20
54.3760341098406
 30
0.0
  0
LINE
  5
1C1
330
1F
100
AcDbEntity
  8
0
  6
Continuous
 62
     7
370
    15
100
AcDbLine
 10
233.3041082395
 20
51.6208062414
 30
0.0
 11
236.1756758691
 21
49.9630855344
 31
0.0
  0
LINE
  5
1C2
330
1F
100
AcDbEntity
  8
0
  6
Continuous
 62
     7
370
    15
100
AcDbLine
 10
232.9022422547
 20
53.1840330353
 30
0.0
 11
232.9022422547
 21
52.509025166
 31
0.0
  0
LINE
  5
1C3
330
1F
100
AcDbEntity
  8
0
  6
Continuous
 62
     7
370
    15
100
AcDbLine
 10
232.9022422547
 20
43.4659162589
 30
0.0
 11
232.9022422547
 21
42.7921895045
 31
0.0
  0
SPLINE
  5
1C4
330
1F
100
AcDbEntity
  8
0
  6
Continuous
 62
     7
370
    15
100
AcDbSpline
210
0.0
220
0.0
230
1.0
 70
     8
 71
     3
 72
    11
 73
     7
 74
     0
 42
0.000000001
 43
0.00000001
 40
0.0
 40
0.0
 40
0.0
 40
0.0
 40
0.2048330137482317
 40
0.5835187276630163
 40
0.9578548547288475
 40
1.0
 40
1.0
 40
1.0
 40
1.0
 10
233.122347961404
 20
42.25864970352018
 30
0.0
 10
233.2026548500552
 20
42.13938833575297
 30
0.0
 10
233.4314293656024
 20
41.79964211855179
 30
0.0
 10
233.8895593879857
 20
41.33395678249066
 30
0.0
 10
234.2909708852301
 20
40.97181440627871
 30
0.0
 10
234.530808294445
 20
40.82860029395042
 30
0.0
 10
234.5550782511614
 20
40.81410797467976
 30
0.0
  0
LWPOLYLINE
  5
1C5
330
1F
100
AcDbEntity
  8
0
  6
Continuous
 62
     7
370
    15
100
AcDbPolyline
 90
       25
 70
   128
 43
0.0
 10
269.0601475106
 20
42.4205339592
 10
268.7820399211
 20
42.629764309
 10
268.6072141817
 20
42.8734182119
 10
268.5475843777
 20
43.1348910571
 10
268.6072141817
 20
43.3963639023
 10
268.7820399211
 20
43.6400178052
 10
269.0601475106
 20
43.8492481549
 10
269.4225843777
 20
44.009796249
 10
269.8446510488
 20
44.1107210001
 10
270.2975843777
 20
44.1451445532
 10
270.7505177066
 20
44.1107210001
 10
271.1725843777
 20
44.009796249
 10
271.5350212448
 20
43.8492481549
 10
271.8131288343
 20
43.6400178052
 10
271.9879545737
 20
43.3963639023
 10
272.0475843777
 20
43.1348910571
 10
271.9879545737
 20
42.8734182119
 10
271.8131288343
 20
42.629764309
 10
271.5350212448
 20
42.4205339592
 10
271.1725843777
 20
42.2599858652
 10
270.7505177066
 20
42.1590611141
 10
270.2975843777
 20
42.1246375609
 10
269.8446510488
 20
42.1590611141
 10
269.4225843777
 20
42.2599858652
 10
269.0601475106
 20
42.4205339592
  0
LWPOLYLINE
  5
1C6
330
1F
100
AcDbEntity
  8
0
  6
Continuous
 62
     7
370
    15
100
AcDbPolyline
 90
        8
 70
   128
 43
0.0
 10
268.8833708153
 20
42.1143477423
 10
268.5860218331
 20
42.3334503279
 10
268.3881426447
 20
42.5872661395
 10
268.3012332693
 20
42.8610443248
 10
268.3303445638
 20
43.1388738909
 10
268.4737846857
 20
43.4046083931
 10
268.7232174165
 20
43.6428043081
 10
268.8831410219
 20
43.7470312874
  0
LWPOLYLINE
  5
1C7
330
1F
100
AcDbEntity
  8
0
  6
Continuous
 62
     7
370
    15
100
AcDbPolyline
 90
       14
 70
   128
 43
0.0
 10
271.7120277335
 20
43.7470312874
 10
272.0091469223
 20
43.5280613804
 10
272.2070261107
 20
43.2742455687
 10
272.2939354861
 20
43.0004673834
 10
272.2648241916
 20
42.7226378174
 10
272.1213840697
 20
42.4569033152
 10
271.8719513389
 20
42.2187074002
 10
271.531022123
 20
42.0218931531
 10
271.1184099886
 20
41.8778987026
 10
270.6580944533
 20
41.7950924828
 10
270.1768273829
 20
41.7782868902
 10
269.70257827
 20
41.8284586047
 10
269.2629087493
 20
41.9426918287
 10
268.8833708153
 20
42.1143477423
  0
LWPOLYLINE
  5
1C8
330
1F
100
AcDbEntity
  8
0
  6
Continuous
 62
     7
370
    15
100
AcDbPolyline
 90
       20
 70
   128
 43
0.0
 10
269.4667339098
 20
42.6552512914
 10
269.241974974
 20
42.8369782742
 10
269.1316076965
 20
43.0509887297
 10
269.1475920844
 20
43.2740913042
 10
269.2881959813
 20
43.482109372
 10
269.5381827732
 20
43.6525009477
 10
269.8704625123
 20
43.7668014603
 10
270.249027533
 20
43.8126246755
 10
270.6328544412
 20
43.7850049371
 10
270.9803496358
 20
43.6869352723
 10
271.2538566205
 20
43.5290430508
 10
271.4237366696
 20
43.328438345
 10
271.4715806438
 20
43.1068597873
 10
271.3922039062
 20
42.8883188526
 10
271.1942081578
 20
42.6964978423
 10
270.8990493104
 20
42.5521835391
 10
270.5387124048
 20
42.4710146372
 10
270.152245536
 20
42.4617870465
 10
269.7815283858
 20
42.5255007196
 10
269.4667339098
 20
42.6552512914
  0
SPLINE
  5
1C9
330
1F
100
AcDbEntity
  8
0
  6
Continuous
 62
     7
370
    15
100
AcDbSpline
210
0.0
220
0.0
230
1.0
 70
     8
 71
     3
 72
     9
 73
     5
 74
     0
 42
0.000000001
 43
0.00000001
 40
0.0
 40
0.0
 40
0.0
 40
0.0
 40
0.6308787452298976
 40
1.0
 40
1.0
 40
1.0
 40
1.0
 10
269.5905971049406
 20
42.58690873996247
 30
0.0
 10
269.5006558311964
 20
42.64878823569761
 30
0.0
 10
269.358090759185
 20
42.74687284577998
 30
0.0
 10
269.229642345634
 20
42.8921598591819
 30
0.0
 10
269.1822293060508
 20
42.94578838387062
 30
0.0
  0
SPLINE
  5
1CA
330
1F
100
AcDbEntity
  8
0
  6
Continuous
 62
     7
370
    15
100
AcDbSpline
210
0.0
220
0.0
230
1.0
 70
     8
 71
     3
 72
    10
 73
     6
 74
     0
 42
0.000000001
 43
0.00000001
 40
0.0
 40
0.0
 40
0.0
 40
0.0
 40
0.439122227423046
 40
0.7513714712594608
 40
1.0
 40
1.0
 40
1.0
 40
1.0
 10
271.4129394493517
 20
43.29084305256389
 30
0.0
 10
271.3701549500238
 20
43.14274004101464
 30
0.0
 10
271.2969474232819
 20
42.88932454360572
 30
0.0
 10
271.1905282301399
 20
42.7025844844087
 30
0.0
 10
271.137560667942
 20
42.66404585806456
 30
0.0
 10
271.114080958629
 20
42.64696227508782
 30
0.0
  0
SPLINE
  5
1CB
330
1F
100
AcDbEntity
  8
0
  6
Continuous
 62
     7
370
    15
100
AcDbSpline
210
0.0
220
0.0
230
1.0
 70
     8
 71
     3
 72
    11
 73
     7
 74
     0
 42
0.000000001
 43
0.00000001
 40
0.0
 40
0.0
 40
0.0
 40
0.0
 40
0.184513355851915
 40
0.5180565039163909
 40
0.8676122830485041
 40
1.0
 40
1.0
 40
1.0
 40
1.0
 10
270.5964428684239
 20
43.76219649569333
 30
0.0
 10
270.6438609616613
 20
43.70939927530342
 30
0.0
 10
270.7769963192159
 20
43.56116099040848
 30
0.0
 10
271.0251570567931
 20
43.36488269152121
 30
0.0
 10
271.2557474447199
 20
43.2956820357403
 30
0.0
 10
271.3790647410922
 20
43.29188584824398
 30
0.0
 10
271.4129394493517
 20
43.29084305256389
 30
0.0
  0
SPLINE
  5
1CC
330
1F
100
AcDbEntity
  8
0
  6
Continuous
 62
     7
370
    15
100
AcDbSpline
210
0.0
220
0.0
230
1.0
 70
     8
 71
     3
 72
    10
 73
     6
 74
     0
 42
0.000000001
 43
0.00000001
 40
0.0
 40
0.0
 40
0.0
 40
0.0
 40
0.4391222274230505
 40
0.7513714712594627
 40
1.0
 40
1.0
 40
1.0
 40
1.0
 10
269.4810877967735
 20
43.5896691613467
 30
0.0
 10
269.6407617220412
 20
43.55844291052466
 30
0.0
 10
269.9139759313384
 20
43.50501242453045
 30
0.0
 10
270.3111377670446
 20
43.60898350532685
 30
0.0
 10
270.5088154003206
 20
43.71513927042312
 30
0.0
 10
270.5964428684239
 20
43.76219649569333
 30
0.0
  0
SPLINE
  5
1CD
330
1F
100
AcDbEntity
  8
0
  6
Continuous
 62
     7
370
    15
100
AcDbSpline
210
0.0
220
0.0
230
1.0
 70
     8
 71
     3
 72
    10
 73
     6
 74
     0
 42
0.000000001
 43
0.00000001
 40
0.0
 40
0.0
 40
0.0
 40
0.0
 40
0.4391222274230462
 40
0.7513714712594637
 40
1.0
 40
1.0
 40
1.0
 40
1.0
 10
269.1822293060508
 20
42.94578838387062
 30
0.0
 10
269.2250138053786
 20
42.98204096231645
 30
0.0
 10
269.2982213321205
 20
43.04407187649642
 30
0.0
 10
269.4046405252624
 20
43.31588511222444
 30
0.0
 10
269.4576080874605
 20
43.50558022316906
 30
0.0
 10
269.4810877967735
 20
43.5896691613467
 30
0.0
  0
LINE
  5
1CE
330
1F
100
AcDbEntity
  8
0
  6
Continuous
 62
     7
370
    15
100
AcDbLine
 10
269.4810877968
 20
42.6716401524
 30
0.0
 11
269.4810877968
 21
43.5896691613
 31
0.0
  0
LINE
  5
1CF
330
1F
100
AcDbEntity
  8
0
  6
Continuous
 62
     7
370
    15
100
AcDbLine
 10
270.5964428684
 20
42.4788857762
 30
0.0
 11
270.5964428684
 21
43.7621964957
 31
0.0
  0
SPLINE
  5
1D0
330
1F
100
AcDbEntity
  8
0
  6
Continuous
 62
     7
370
    15
100
AcDbSpline
210
0.0
220
0.0
230
1.0
 70
     8
 71
     3
 72
    14
 73
    10
 74
     0
 42
0.000000001
 43
0.00000001
 40
0.0
 40
0.0
 40
0.0
 40
0.0
 40
0.25
 40
0.25
 40
0.5
 40
0.5
 40
0.75
 40
0.75
 40
1.0
 40
1.0
 40
1.0
 40
1.0
 10
251.4015155405953
 20
36.20601415565272
 30
0.0
 10
251.3540946839418
 20
36.17863867781011
 30
0.0
 10
251.2985616145522
 20
36.15679238503548
 30
0.0
 10
251.1761916435759
 20
36.12609440550749
 30
0.0
 10
251.110082120424
 20
36.11756657692583
 30
0.0
 10
250.9772241399114
 20
36.11568005333464
 30
0.0
 10
250.9100341917065
 20
36.12242977167241
 30
0.0
 10
250.7866844652414
 20
36.15046444772181
 30
0.0
 10
250.7294022918203
 20
36.17206458347417
 30
0.0
 10
250.6825011476347
 20
36.19914003769529
 30
0.0
  0
SPLINE
  5
1D1
330
1F
100
AcDbEntity
  8
0
  6
Continuous
 62
     7
370
    15
100
AcDbSpline
210
0.0
220
0.0
230
1.0
 70
     8
 71
     3
 72
    12
 73
     8
 74
     0
 42
0.000000001
 43
0.00000001
 40
0.0
 40
0.0
 40
0.0
 40
0.0
 40
0.2500000000000031
 40
0.2500000000000031
 40
0.5000000000000031
 40
0.5000000000000031
 40
1.0
 40
1.0
 40
1.0
 40
1.0
 10
273.1613668415068
 20
57.8902394901345
 30
0.0
 10
273.2148384527184
 20
57.85937098603661
 30
0.0
 10
273.2672969925959
 20
57.8106771020191
 30
0.0
 10
273.3583518242575
 20
57.69440077686146
 30
0.0
 10
273.3969757638284
 20
57.62719223533097
 30
0.0
 10
273.4868994554236
 20
57.42365613412144
 30
0.0
 10
273.5149202321001
 20
57.28322046190397
 30
0.0
 10
273.5149202321
 20
57.16085893413733
 30
0.0
  0
LINE
  5
1D2
330
1F
100
AcDbEntity
  8
0
  6
Continuous
 62
     7
370
    15
100
AcDbLine
 10
250.6825011476
 20
36.1991400377
 30
0.0
 11
249.4755654726
 21
36.8958891722
 31
0.0
  0
LWPOLYLINE
  5
1D3
330
1F
100
AcDbEntity
  8
0
  6
Continuous
 62
     7
370
    15
100
AcDbPolyline
 90
       27
 70
   128
 43
0.0
 10
249.4755654726
 20
36.8958891722
 10
249.7857219774
 20
38.271130097
 10
250.1741173794
 20
39.6606759983
 10
250.638481049
 20
41.0564033395
 10
251.176098232
 20
42.450152446
 10
251.7838259212
 20
43.8337752086
 10
252.4581112306
 20
45.1991827183
 10
253.1950121663
 20
46.5383925558
 10
253.9902206723
 20
47.8435754584
 10
254.8390878157
 20
49.1071010906
 10
255.7366509657
 20
50.3215826531
 10
256.6776628059
 20
51.479920067
 10
257.6566220107
 20
52.5753414824
 10
258.6678054077
 20
53.6014428675
 10
259.7053014358
 20
54.552225448
 10
260.7630447056
 20
55.4221307771
 10
261.8348514587
 20
56.2060732308
 10
262.9144557189
 20
56.8994697397
 10
263.9955459244
 20
57.4982665826
 10
265.0718018265
 20
57.9989630847
 10
266.1369314384
 20
58.3986320837
 10
267.1847078198
 20
58.6949370424
 10
268.2090054805
 20
58.8861457085
 10
269.2038361911
 20
58.9711402413
 10
270.1633839913
 20
58.9494237477
 10
271.0820391913
 20
58.821123186
 10
271.9544311664
 20
58.5869886246
  0
LINE
  5
1D4
330
1F
100
AcDbEntity
  8
0
  6
Continuous
 62
     7
370
    15
100
AcDbLine
 10
271.9544311664
 20
58.5869886246
 30
0.0
 11
273.1613668415
 21
57.8902394901
 31
0.0
  0
LINE
  5
1D5
330
1F
100
AcDbEntity
  8
0
  6
Continuous
 62
     7
370
    15
100
AcDbLine
 10
276.714578417
 20
50.4106639035
 30
0.0
 11
278.1455263409
 21
51.2367325566
 31
0.0
  0
LINE
  5
1D6
330
1F
100
AcDbEntity
  8
0
  6
Continuous
 62
     7
370
    15
100
AcDbLine
 10
276.714578417
 20
43.0617965965
 30
0.0
 11
276.714578417
 21
50.4106639035
 31
0.0
  0
LINE
  5
1D7
330
1F
100
AcDbEntity
  8
0
  6
Continuous
 62
     7
370
    15
100
AcDbLine
 10
278.1455263409
 20
43.8878652496
 30
0.0
 11
276.714578417
 21
43.0617965965
 31
0.0
  0
LINE
  5
1D8
330
1F
100
AcDbEntity
  8
0
  6
Continuous
 62
     7
370
    15
100
AcDbLine
 10
251.4015155406
 20
28.0406060368
 30
0.0
 11
252.7436585347
 21
28.8154086952
 31
0.0
  0
LINE
  5
1D9
330
1F
100
AcDbEntity
  8
0
  6
Continuous
 62
     7
370
    15
100
AcDbLine
 10
252.7436585347
 20
28.8154086952
 30
0.0
 11
252.7436585347
 21
36.980816814
 31
0.0
  0
LINE
  5
1DA
330
1F
100
AcDbEntity
  8
0
  6
Continuous
 62
     7
370
    15
100
AcDbLine
 10
252.7436585347
 20
36.980816814
 30
0.0
 11
251.4015155406
 21
36.2060141557
 31
0.0
  0
LINE
  5
1DB
330
1F
100
AcDbEntity
  8
0
  6
Continuous
 62
     7
370
    15
100
AcDbLine
 10
273.5149202321
 20
57.1608589341
 30
0.0
 11
273.5149202321
 21
55.0346264847
 31
0.0
  0
LINE
  5
1DC
330
1F
100
AcDbEntity
  8
0
  6
Continuous
 62
     7
370
    15
100
AcDbLine
 10
275.356191803
 20
56.0975699372
 30
0.0
 11
273.5149202321
 21
55.0346264847
 31
0.0
  0
LWPOLYLINE
  5
1DD
330
1F
100
AcDbEntity
  8
0
  6
Continuous
 62
     7
370
    15
100
AcDbPolyline
 90
       24
 70
   128
 43
0.0
 10
248.5811724847
 20
38.6027567569
 10
248.9097429774
 20
39.9651988041
 10
249.319623401
 20
41.3399323934
 10
249.808111539
 20
42.7178943266
 10
250.3719869388
 20
44.0900001226
 10
251.0075321423
 20
45.4472039075
 10
251.7105571945
 20
46.7805580521
 10
252.4764272663
 20
48.0812721605
 10
253.3000932107
 20
49.3407710226
 10
254.1761248501
 20
50.5507511477
 10
255.0987467759
 20
51.7032355071
 10
256.0618764242
 20
52.7906261241
 10
257.0591641758
 20
53.805754165
 10
258.0840352177
 20
54.7419272013
 10
259.1297328888
 20
55.5929733305
 10
260.1893632242
 20
56.353281866
 10
261.2559404054
 20
57.0178403262
 10
262.3224328154
 20
57.5822674806
 10
263.3818093959
 20
58.0428422335
 10
264.4270860015
 20
58.3965281566
 10
265.4513714432
 20
58.6409935068
 10
266.4479129205
 20
58.7746265989
 10
267.4101405404
 20
58.7965464307
 10
267.6108491075
 20
58.7867067516
  0
SPLINE
  5
1DE
330
1F
100
AcDbEntity
  8
0
  6
Continuous
 62
     7
370
    15
100
AcDbSpline
210
0.0
220
0.0
230
1.0
 70
     8
 71
     3
 72
     8
 73
     4
 74
     0
 42
0.000000001
 43
0.00000001
 40
0.0
 40
0.0
 40
0.0
 40
0.0
 40
1.0
 40
1.0
 40
1.0
 40
1.0
 10
248.5811724846989
 20
38.60275675690389
 30
0.0
 10
248.0459739105057
 20
38.51461511812303
 30
0.0
 10
247.5105833965706
 20
38.42685795730821
 30
0.0
 10
246.9750446934659
 20
38.3394090917792
 30
0.0
  0
LWPOLYLINE
  5
1DF
330
1F
100
AcDbEntity
  8
0
  6
Continuous
 62
     7
370
    15
100
AcDbPolyline
 90
       27
 70
   128
 43
0.0
 10
246.9750446935
 20
38.3394090918
 10
247.2852011983
 20
39.7146500166
 10
247.6735966003
 20
41.1041959179
 10
248.1379602699
 20
42.4999232591
 10
248.6755774529
 20
43.8936723656
 10
249.2833051421
 20
45.2772951282
 10
249.9575904515
 20
46.6427026378
 10
250.6944913872
 20
47.9819124754
 10
251.4896998932
 20
49.2870953779
 10
252.3385670366
 20
50.5506210101
 10
253.2361301867
 20
51.7651025726
 10
254.1771420268
 20
52.9234399866
 10
255.1561012316
 20
54.018861402
 10
256.1672846286
 20
55.0449627871
 10
257.2047806567
 20
55.9957453676
 10
258.2625239265
 20
56.8656506966
 10
259.3343306796
 20
57.6495931503
 10
260.4139349398
 20
58.3429896593
 10
261.4950251453
 20
58.9417865022
 10
262.5712810474
 20
59.4424830043
 10
263.6364106593
 20
59.8421520033
 10
264.6841870407
 20
60.138456962
 10
265.7084847014
 20
60.329665628
 10
266.703315412
 20
60.4146601609
 10
267.6628632122
 20
60.3929436673
 10
268.5815184122
 20
60.2646431056
 10
269.4539103873
 20
60.0305085442
  0
LINE
  5
1E0
330
1F
100
AcDbEntity
  8
0
  6
Continuous
 62
     7
370
    15
100
AcDbLine
 10
269.4539103873
 20
60.0305085442
 30
0.0
 11
269.795868999
 21
58.9433725167
 31
0.0
  0
LINE
  5
1E1
330
1F
100
AcDbEntity
  8
0
  6
Continuous
 62
     7
370
    15
100
AcDbLine
 10
265.736745639
 20
62.1763820772
 30
0.0
 11
269.4539103873
 21
60.0305085442
 31
0.0
  0
LINE
  5
1E2
330
1F
100
AcDbEntity
  8
0
  6
Continuous
 62
     7
370
    15
100
AcDbLine
 10
246.9750446935
 20
38.3394090918
 30
0.0
 11
246.4398604605
 21
38.6483643732
 31
0.0
  0
SPLINE
  5
1E3
330
1F
100
AcDbEntity
  8
0
  6
Continuous
 62
     7
370
    15
100
AcDbSpline
210
0.0
220
0.0
230
1.0
 70
     8
 71
     3
 72
    30
 73
    26
 74
     0
 42
0.000000001
 43
0.00000001
 40
0.0
 40
0.0
 40
0.0
 40
0.0
 40
0.1250000000000005
 40
0.1250000000000005
 40
0.1875000000000008
 40
0.1875000000000008
 40
0.2500000000000011
 40
0.2500000000000011
 40
0.3750000000000012
 40
0.3750000000000012
 40
0.4375000000000013
 40
0.4375000000000013
 40
0.5000000000000013
 40
0.5000000000000013
 40
0.6250000000000011
 40
0.6250000000000011
 40
0.6875000000000009
 40
0.6875000000000009
 40
0.7500000000000007
 40
0.7500000000000007
 40
0.8125000000000006
 40
0.8125000000000006
 40
0.8750000000000003
 40
0.8750000000000003
 40
1.0
 40
1.0
 40
1.0
 40
1.0
 10
246.4398604605154
 20
38.64836437316342
 30
0.0
 10
246.2287269044661
 20
38.77024918067961
 30
0.0
 10
246.0158759553587
 20
38.86284488601484
 30
0.0
 10
245.6945516262232
 20
38.96003397581818
 30
0.0
 10
245.5871073298893
 20
38.98543172212297
 30
0.0
 10
245.3717016669887
 20
39.02203733205003
 30
0.0
 10
245.2636521908593
 20
39.03314954102163
 30
0.0
 10
244.9462749209395
 20
39.04465000265066
 30
0.0
 10
244.7411812370871
 20
39.02394178771024
 30
0.0
 10
244.4447489400449
 20
38.95180034593521
 30
0.0
 10
244.347327095815
 20
38.92063946474435
 30
0.0
 10
244.1594301124887
 20
38.84533345187478
 30
0.0
 10
244.0690866552841
 20
38.80134446393919
 30
0.0
 10
243.8090255187311
 20
38.65115228237204
 30
0.0
 10
243.6501626864799
 20
38.52690639888694
 30
0.0
 10
243.4362095050961
 20
38.3040870505982
 30
0.0
 10
243.3696039540588
 20
38.22425870251697
 30
0.0
 10
243.2474620723208
 20
38.05578101862023
 30
0.0
 10
243.1916572052535
 20
37.96685694355686
 30
0.0
 10
243.0907430258477
 20
37.77982334104192
 30
0.0
 10
243.045633015163
 20
37.68171391515797
 30
0.0
 10
242.9665484037801
 20
37.47619878253074
 30
0.0
 10
242.9324609701433
 20
37.36823216817618
 30
0.0
 10
242.8492310021754
 20
37.03523661276278
 30
0.0
 10
242.8185060874572
 20
36.80090831072488
 30
0.0
 10
242.8132283672064
 20
36.55415707915738
 30
0.0
  0
ARC
  5
1E4
330
1F
100
AcDbEntity
  8
0
  6
Continuous
 62
     7
370
    15
100
AcDbCircle
 10
261.6655584777
 20
36.1458866732
 30
0.0
 40
18.85675039126131
100
AcDbArc
 50
178.7593833157
 51
181.2406166843
  0
SPLINE
  5
1E5
330
1F
100
AcDbEntity
  8
0
  6
Continuous
 62
     7
370
    15
100
AcDbSpline
210
0.0
220
0.0
230
1.0
 70
     8
 71
     3
 72
    30
 73
    26
 74
     0
 42
0.000000001
 43
0.00000001
 40
0.0
 40
0.0
 40
0.0
 40
0.0
 40
0.1250000000000001
 40
0.1250000000000001
 40
0.1875000000000002
 40
0.1875000000000002
 40
0.2500000000000003
 40
0.2500000000000003
 40
0.3750000000000004
 40
0.3750000000000004
 40
0.4375000000000003
 40
0.4375000000000003
 40
0.5000000000000003
 40
0.5000000000000003
 40
0.625
 40
0.625
 40
0.6875
 40
0.6875
 40
0.75
 40
0.75
 40
0.8125000000000001
 40
0.8125000000000001
 40
0.8750000000000001
 40
0.8750000000000001
 40
1.0
 40
1.0
 40
1.0
 40
1.0
 10
242.8132283672064
 20
35.73761626727163
 30
0.0
 10
242.8185065808323
 20
35.49693606448833
 30
0.0
 10
242.8492031052128
 20
35.25129654506354
 30
0.0
 10
242.9312310938847
 20
34.87552168280585
 30
0.0
 10
242.9646096691318
 20
34.74903030322137
 30
0.0
 10
243.0435311062068
 20
34.49343335118679
 30
0.0
 10
243.0892340458406
 20
34.36409965768728
 30
0.0
 10
243.2413194398175
 20
33.98048604191088
 30
0.0
 10
243.3633087839188
 20
33.72775792823293
 30
0.0
 10
243.5753050023373
 20
33.3519735731148
 30
0.0
 10
243.6512373096656
 20
33.22666207392726
 30
0.0
 10
243.8109214273095
 20
32.97998442473822
 30
0.0
 10
243.8942976443759
 20
32.8591038063755
 30
0.0
 10
244.1542833917902
 20
32.5032669238751
 30
0.0
 10
244.3406580233315
 20
32.27505303605397
 30
0.0
 10
244.63862536227
 20
31.94521850126512
 30
0.0
 10
244.740618279606
 20
31.83789766207842
 30
0.0
 10
244.9461125798662
 20
31.63184910981595
 30
0.0
 10
245.0501067224275
 20
31.53256912220688
 30
0.0
 10
245.2603166093998
 20
31.34124971353029
 30
0.0
 10
245.3665326170913
 20
31.24921035434948
 30
0.0
 10
245.5810209205383
 20
31.07237003918862
 30
0.0
 10
245.689831545805
 20
30.9871804278686
 30
0.0
 10
246.0146987403309
 20
30.74616561504926
 30
0.0
 10
246.2287211516995
 20
30.6048443828236
 30
0.0
 10
246.4398604605154
 20
30.48295625430591
 30
0.0
  0
LINE
  5
1E6
330
1F
100
AcDbEntity
  8
0
  6
Continuous
 62
     7
370
    15
100
AcDbLine
 10
246.4398604605
 20
30.4829562543
 30
0.0
 11
246.9750446935
 21
30.1740009729
 31
0.0
  0
ARC
  5
1E7
330
1F
100
AcDbEntity
  8
0
  6
Continuous
 62
     7
370
    15
100
AcDbCircle
 10
254.681726156
 20
31.6226794318
 30
0.0
 40
7.841658526259437
100
AcDbArc
 50
190.6460519988
 51
249.983724452
  0
LINE
  5
1E8
330
1F
100
AcDbEntity
  8
0
  6
Continuous
 62
     7
370
    15
100
AcDbLine
 10
271.750061866
 20
58.7045376004
 30
0.0
 11
271.8391101308
 21
58.6248723164
 31
0.0
  0
LINE
  5
1E9
330
1F
100
AcDbEntity
  8
0
  6
Continuous
 62
     7
370
    15
100
AcDbLine
 10
271.0890886885
 20
59.0861092938
 30
0.0
 11
271.750061866
 21
58.7045376004
 31
0.0
  0
SPLINE
  5
1EA
330
1F
100
AcDbEntity
  8
0
  6
Continuous
 62
     7
370
    15
100
AcDbSpline
210
0.0
220
0.0
230
1.0
 70
     8
 71
     3
 72
    26
 73
    22
 74
     0
 42
0.000000001
 43
0.00000001
 40
0.0
 40
0.0
 40
0.0
 40
0.0
 40
0.2499999999999984
 40
0.2499999999999984
 40
0.3124999999999984
 40
0.3124999999999984
 40
0.3749999999999983
 40
0.3749999999999983
 40
0.4999999999999983
 40
0.4999999999999983
 40
0.6249999999999984
 40
0.6249999999999984
 40
0.7499999999999986
 40
0.7499999999999986
 40
0.812499999999999
 40
0.812499999999999
 40
0.8749999999999993
 40
0.8749999999999993
 40
0.9374999999999998
 40
0.9374999999999998
 40
1.0
 40
1.0
 40
1.0
 40
1.0
 10
265.736745639048
 20
62.17638207720373
 30
0.0
 10
266.1224919829322
 20
62.02868601158856
 30
0.0
 10
266.521996697113
 20
61.8430900592037
 30
0.0
 10
267.0545908950814
 20
61.56063255780712
 30
0.0
 10
267.1628120988683
 20
61.50160002438072
 30
0.0
 10
267.383285814674
 20
61.37827900882303
 30
0.0
 10
267.4955714569544
 20
61.31395658156096
 30
0.0
 10
267.8339140511961
 20
61.11618462094488
 30
0.0
 10
268.0631374400516
 20
60.97699677145228
 30
0.0
 10
268.5323862481855
 20
60.68538513717373
 30
0.0
 10
268.7747429983834
 20
60.53143649295505
 30
0.0
 10
269.2557716777916
 20
60.22389930589792
 30
0.0
 10
269.4958733118486
 20
60.06946217557839
 30
0.0
 10
269.8570395806478
 20
59.83935582678637
 30
0.0
 10
269.9771034328283
 20
59.76323679846193
 30
0.0
 10
270.211347683985
 20
59.61598153082598
 30
0.0
 10
270.3263010770231
 20
59.5443510378458
 30
0.0
 10
270.551988034652
 20
59.40539461805122
 30
0.0
 10
270.6627223928195
 20
59.33806772617528
 30
0.0
 10
270.8798935815609
 20
59.20808035013606
 30
0.0
 10
270.9865739874971
 20
59.14528977099686
 30
0.0
 10
271.0890886885314
 20
59.08610929378164
 30
0.0
  0
ARC
  5
1EB
330
1F
100
AcDbEntity
  8
0
  6
Continuous
 62
     7
370
    15
100
AcDbCircle
 10
262.076763387
 20
55.7199409662
 30
0.0
 40
7.55482580006851
100
AcDbArc
 50
61.0783891355
 51
94.6395054429
  0
ARC
  5
1EC
330
1F
100
AcDbEntity
  8
0
  6
Continuous
 62
     7
370
    15
100
AcDbCircle
 10
249.5662300787
 20
34.1043575146
 30
0.0
 40
7.472465668662619
100
AcDbArc
 50
204.8746599538
 51
239.1284714213
  0
LINE
  5
1ED
330
1F
100
AcDbEntity
  8
0
  6
Continuous
 62
     7
370
    15
100
AcDbLine
 10
249.0988929764
 20
38.901630435
 30
0.0
 11
248.5811724847
 21
38.6027567569
 31
0.0
  0
LINE
  5
1EE
330
1F
100
AcDbEntity
  8
0
  6
Continuous
 62
     7
370
    15
100
AcDbLine
 10
249.7524204162
 20
38.1379565017
 30
0.0
 11
249.540464816
 21
38.2603158653
 31
0.0
  0
SPLINE
  5
1EF
330
1F
100
AcDbEntity
  8
0
  6
Continuous
 62
     7
370
    15
100
AcDbSpline
210
0.0
220
0.0
230
1.0
 70
     8
 71
     3
 72
    14
 73
    10
 74
     0
 42
0.000000001
 43
0.00000001
 40
0.0
 40
0.0
 40
0.0
 40
0.0
 40
0.1249999999999994
 40
0.1249999999999994
 40
0.2499999999999988
 40
0.2499999999999988
 40
0.5000000000000009
 40
0.5000000000000009
 40
1.0
 40
1.0
 40
1.0
 40
1.0
 10
249.5404648159701
 20
38.26031586525024
 30
0.0
 10
249.5160072540186
 20
38.27443491523239
 30
0.0
 10
249.4936905281981
 20
38.30281257096442
 30
0.0
 10
249.4581312607174
 20
38.36210500711457
 30
0.0
 10
249.4442740778519
 20
38.39268152513372
 30
0.0
 10
249.4071891150719
 20
38.48454981065581
 30
0.0
 10
249.3885259376911
 20
38.54704714371989
 30
0.0
 10
249.3405886494007
 20
38.73034714146195
 30
0.0
 10
249.3190837234504
 20
38.84959820128992
 30
0.0
 10
249.3021422382802
 20
38.96756188292852
 30
0.0
  0
SPLINE
  5
1F0
330
1F
100
AcDbEntity
  8
0
  6
Continuous
 62
     7
370
    15
100
AcDbSpline
210
0.0
220
0.0
230
1.0
 70
     8
 71
     3
 72
    10
 73
     6
 74
     0
 42
0.000000001
 43
0.00000001
 40
0.0
 40
0.0
 40
0.0
 40
0.0
 40
0.5
 40
0.5
 40
1.0
 40
1.0
 40
1.0
 40
1.0
 10
249.3021422382802
 20
38.96756188292852
 30
0.0
 10
249.2638296331643
 20
38.96225588813527
 30
0.0
 10
249.2264926403714
 20
38.95373609037744
 30
0.0
 10
249.1579052362244
 20
38.93138734825848
 30
0.0
 10
249.1268039109647
 20
38.91774307461487
 30
0.0
 10
249.0988929763741
 20
38.90163043504284
 30
0.0
  0
LWPOLYLINE
  5
1F1
330
1F
100
AcDbEntity
  8
0
  6
Continuous
 62
     7
370
    15
100
AcDbPolyline
 90
       52
 70
   128
 43
0.0
 10
268.0348426779
 20
31.5000138631
 10
268.0769148236
 20
32.3119965372
 10
268.2024934899
 20
33.1602458471
 10
268.4096750323
 20
34.031903198
 10
268.6953187897
 20
34.913755153
 10
269.0550946939
 20
35.7924337352
 10
269.4835489089
 20
36.6546190732
 10
269.9741865057
 20
37.4872413159
 10
270.5195699184
 20
38.277678759
 10
271.1114316903
 20
39.0139491765
 10
271.7407998003
 20
39.6848914595
 10
272.3981336695
 20
40.2803348068
 10
273.0734687863
 20
40.7912529042
 10
273.7565677589
 20
41.2099007543
 10
274.4370755031
 20
41.5299320823
 10
275.1046762151
 20
41.7464955395
 10
275.7492497488
 20
41.8563082446
 10
276.3610250264
 20
41.8577055491
 10
276.9307281582
 20
41.7506662711
 10
277.4497230256
 20
41.5368130171
 10
277.9101421953
 20
41.2193875843
 10
278.3050061821
 20
40.8032018188
 10
278.6283292505
 20
40.2945646725
 10
278.8752101523
 20
39.7011865661
 10
279.0419064246
 20
39.0320625069
 10
279.125891122
 20
38.2973357334
 10
279.125891122
 20
37.5081439547
 10
279.0419064246
 20
36.6764505136
 10
278.8752101523
 20
35.814863035
 10
278.6283292505
 20
34.9364423067
 10
278.3050061821
 20
34.0545042916
 10
277.9101421953
 20
33.1824182711
 10
277.4497230256
 20
32.3334041801
 10
276.9307281582
 20
31.5203322069
 10
276.3610250264
 20
30.7555276939
 10
275.7492497488
 20
30.0505842977
 10
275.1046762151
 20
29.4161882418
 10
274.4370755031
 20
28.8619563237
 10
273.7565677589
 20
28.3962901343
 10
273.0734687863
 20
28.0262486983
 10
272.3981336695
 20
27.7574414668
 10
271.7407998003
 20
27.5939432833
 10
271.1114316903
 20
27.5382326137
 10
270.5195699184
 20
27.5911539748
 10
269.9741865057
 20
27.7519051329
 10
269.4835489089
 20
28.0180492643
 10
269.0550946939
 20
28.3855518951
 10
268.6953187897
 20
28.8488420601
 10
268.4096750323
 20
29.4008967527
 10
268.2024934899
 20
30.0333473865
 10
268.0769148236
 20
30.7366066545
 10
268.0348426779
 20
31.5000138631
  0
LWPOLYLINE
  5
1F2
330
1F
100
AcDbEntity
  8
0
  6
Continuous
 62
     7
370
    15
100
AcDbPolyline
 90
       28
 70
   128
 43
0.0
 10
267.8227106435
 20
31.5000138631
 10
267.8639554801
 20
32.3112089505
 10
267.9870885471
 20
33.1581952615
 10
268.1903142873
 20
34.0286218285
 10
268.4706692116
 20
34.909795872
 10
268.824065114
 20
35.7888678903
 10
269.2453486865
 20
36.6530190339
 10
269.7283766658
 20
37.4896480333
 10
270.2661054165
 20
38.2865549535
 10
270.8506936424
 20
39.0321190974
 10
271.4736167309
 20
39.7154684607
 10
272.1257910605
 20
40.3266382711
 10
272.7977064611
 20
40.8567162965
 10
273.479564893
 20
41.2979728055
 10
274.161423325
 20
41.6439732847
 10
274.8333387255
 20
41.889672268
 10
275.4855130552
 20
42.0314869109
 10
276.1084361437
 20
42.0673492366
 10
276.6930243696
 20
41.9967362917
 10
277.2307531202
 20
41.8206777718
 10
277.7137810996
 20
41.5417410067
 10
278.1350646721
 20
41.1639935225
 10
278.4884605745
 20
40.692943728
 10
278.7688154988
 20
40.1354605902
 10
278.972041239
 20
39.4996734683
 10
279.095174306
 20
38.7948535704
 10
279.1364191425
 20
38.0312787577
 10
279.1364191425
 20
38.0312787577
  0
LWPOLYLINE
  5
1F3
330
1F
100
AcDbEntity
  8
0
  6
Continuous
 62
     7
370
    15
100
AcDbPolyline
 90
       15
 70
   128
 43
0.0
 10
273.4804842909
 20
28.2338506587
 10
273.479564893
 20
28.2333198153
 10
272.7977064611
 20
27.8873193361
 10
272.1257910605
 20
27.6416203528
 10
271.4736167309
 20
27.4998057099
 10
270.8506936424
 20
27.4639433842
 10
270.2661054165
 20
27.5345563291
 10
269.7283766658
 20
27.710614849
 10
269.2453486865
 20
27.9895516141
 10
268.824065114
 20
28.3672990983
 10
268.4706692116
 20
28.8383488928
 10
268.1903142873
 20
29.3958320306
 10
267.9870885471
 20
30.0316191525
 10
267.8639554801
 20
30.7364390504
 10
267.8227106435
 20
31.5000138631
  0
SPLINE
  5
1F4
330
1F
100
AcDbEntity
  8
0
  6
Continuous
 62
     7
370
    15
100
AcDbSpline
210
0.0
220
0.0
230
1.0
 70
     8
 71
     3
 72
    42
 73
    38
 74
     0
 42
0.000000001
 43
0.00000001
 40
0.0
 40
0.0
 40
0.0
 40
0.0
 40
0.0312499999999998
 40
0.0312499999999998
 40
0.0624999999999995
 40
0.0624999999999995
 40
0.1249999999999994
 40
0.1249999999999994
 40
0.1874999999999993
 40
0.1874999999999993
 40
0.2499999999999991
 40
0.2499999999999991
 40
0.3124999999999989
 40
0.3124999999999989
 40
0.3749999999999987
 40
0.3749999999999987
 40
0.4374999999999984
 40
0.4374999999999984
 40
0.4999999999999982
 40
0.4999999999999982
 40
0.562499999999998
 40
0.562499999999998
 40
0.6249999999999977
 40
0.6249999999999977
 40
0.6874999999999974
 40
0.6874999999999974
 40
0.7499999999999972
 40
0.7499999999999972
 40
0.7812499999999976
 40
0.7812499999999976
 40
0.8124999999999979
 40
0.8124999999999979
 40
0.8749999999999986
 40
0.8749999999999986
 40
0.9374999999999993
 40
0.9374999999999993
 40
1.0
 40
1.0
 40
1.0
 40
1.0
 10
272.1537396783159
 20
42.06335541032261
 30
0.0
 10
272.0968413514687
 20
42.0305087053955
 30
0.0
 10
272.0364289646194
 20
41.99864297663314
 30
0.0
 10
271.9084234374753
 20
41.93694610199575
 30
0.0
 10
271.8408391602881
 20
41.90716988163106
 30
0.0
 10
271.6331434207018
 20
41.8234811651595
 30
0.0
 10
271.4862642815597
 20
41.77419227327294
 30
0.0
 10
271.1767609476389
 20
41.68938473766926
 30
0.0
 10
271.0194149649924
 20
41.65530658053171
 30
0.0
 10
270.6998687275639
 20
41.60358709169735
 30
0.0
 10
270.5371367416171
 20
41.58611672021269
 30
0.0
 10
270.2187737728065
 20
41.56975848426816
 30
0.0
 10
270.0615096314667
 20
41.57055674891453
 30
0.0
 10
269.7507830324989
 20
41.59140326590938
 30
0.0
 10
269.6013768156089
 20
41.61118358459021
 30
0.0
 10
269.3134521241181
 20
41.66962279004222
 30
0.0
 10
269.1739446941418
 20
41.70867658166165
 30
0.0
 10
268.9109044396179
 20
41.80551814004298
 30
0.0
 10
268.7884818073519
 20
41.86269783099411
 30
0.0
 10
268.5612808227118
 20
41.99439368026528
 30
0.0
 10
268.4556859930537
 20
42.06967443903667
 30
0.0
 10
268.2675882535855
 20
42.23451280851307
 30
0.0
 10
268.1854355576762
 20
42.32340015441159
 30
0.0
 10
268.04482850151
 20
42.51311553503182
 30
0.0
 10
267.985958189757
 20
42.61500245305626
 30
0.0
 10
267.8966149586308
 20
42.82494341561832
 30
0.0
 10
267.8660650167492
 20
42.93232672780435
 30
0.0
 10
267.8422346582188
 20
43.09587651988159
 30
0.0
 10
267.8379827951512
 20
43.15080794088131
 30
0.0
 10
267.8373728115567
 20
43.26132812435488
 30
0.0
 10
267.841090112931
 20
43.31709941975348
 30
0.0
 10
267.8644439754094
 20
43.48092911297471
 30
0.0
 10
267.8960182451957
 20
43.58682556033948
 30
0.0
 10
267.9936217235729
 20
43.78980106082266
 30
0.0
 10
268.061164853789
 20
43.88809875634404
 30
0.0
 10
268.2275001160827
 20
44.0626065307531
 30
0.0
 10
268.3262117274781
 20
44.13991314370924
 30
0.0
 10
268.4414290770865
 20
44.20642670385723
 30
0.0
  0
SPLINE
  5
1F5
330
1F
100
AcDbEntity
  8
0
  6
Continuous
 62
     7
370
    15
100
AcDbSpline
210
0.0
220
0.0
230
1.0
 70
     8
 71
     3
 72
    42
 73
    38
 74
     0
 42
0.000000001
 43
0.00000001
 40
0.0
 40
0.0
 40
0.0
 40
0.0
 40
0.0312500000000001
 40
0.0312500000000001
 40
0.0625000000000002
 40
0.0625000000000002
 40
0.1250000000000007
 40
0.1250000000000007
 40
0.1875000000000012
 40
0.1875000000000012
 40
0.2500000000000016
 40
0.2500000000000016
 40
0.3125000000000021
 40
0.3125000000000021
 40
0.3750000000000026
 40
0.3750000000000026
 40
0.5000000000000034
 40
0.5000000000000034
 40
0.5625000000000032
 40
0.5625000000000032
 40
0.6250000000000029
 40
0.6250000000000029
 40
0.6875000000000027
 40
0.6875000000000027
 40
0.7500000000000024
 40
0.7500000000000024
 40
0.8125000000000022
 40
0.8125000000000022
 40
0.8437500000000021
 40
0.8437500000000021
 40
0.875000000000002
 40
0.875000000000002
 40
0.9375000000000011
 40
0.9375000000000011
 40
0.9687500000000006
 40
0.9687500000000006
 40
1.0
 40
1.0
 40
1.0
 40
1.0
 10
268.4414290770865
 20
44.20642670385723
 30
0.0
 10
268.4990386329161
 20
44.23968399253632
 30
0.0
 10
268.5605756375734
 20
44.27000495052955
 30
0.0
 10
268.6882374321254
 20
44.3234463329351
 30
0.0
 10
268.7547740929223
 20
44.34681636091301
 30
0.0
 10
268.9622982717206
 20
44.40726512691025
 30
0.0
 10
269.1125982788416
 20
44.43462115291015
 30
0.0
 10
269.4194337469239
 20
44.46353080318468
 30
0.0
 10
269.5785590409881
 20
44.46563883261047
 30
0.0
 10
269.9003190386941
 20
44.448540700008
 30
0.0
 10
270.0610205829024
 20
44.42961951371495
 30
0.0
 10
270.3824109160221
 20
44.37459576962407
 30
0.0
 10
270.5398725800485
 20
44.33899162900995
 30
0.0
 10
270.8458629844072
 20
44.25574330939664
 30
0.0
 10
270.9949915868692
 20
44.20796588809114
 30
0.0
 10
271.4310851504753
 20
44.04840891918629
 30
0.0
 10
271.6926152090633
 20
43.92632248669732
 30
0.0
 10
272.0365512781689
 20
43.72711925990618
 30
0.0
 10
272.140300189792
 20
43.65947974266967
 30
0.0
 10
272.3266690420713
 20
43.52142901730166
 30
0.0
 10
272.4096213911832
 20
43.45068974460764
 30
0.0
 10
272.5514908061776
 20
43.30658530504206
 30
0.0
 10
272.6091267256452
 20
43.23464172447621
 30
0.0
 10
272.6978106828068
 20
43.08931388099782
 30
0.0
 10
272.7289816172942
 20
43.01548861658738
 30
0.0
 10
272.7610580495454
 20
42.86608192458052
 30
0.0
 10
272.7618009122691
 20
42.79207317486496
 30
0.0
 10
272.7389927533656
 20
42.68052305755137
 30
0.0
 10
272.7273734280836
 20
42.64325132108583
 30
0.0
 10
272.6955114640779
 20
42.56826031774266
 30
0.0
 10
272.6750780747249
 20
42.53028181171643
 30
0.0
 10
272.601153923738
 20
42.41772160740336
 30
0.0
 10
272.5353959326866
 20
42.34431045498621
 30
0.0
 10
272.4101844488657
 20
42.23577261126471
 30
0.0
 10
272.3636868056719
 20
42.19970110739121
 30
0.0
 10
272.2640237082452
 20
42.13003092061084
 30
0.0
 10
272.2106388753249
 20
42.09620261758342
 30
0.0
 10
272.1537396783159
 20
42.06335541032261
 30
0.0
  0
LWPOLYLINE
  5
1F6
330
1F
100
AcDbEntity
  8
0
  6
Continuous
 62
     7
370
    15
100
AcDbPolyline
 90
       48
 70
   128
 43
0.0
 10
268.8126601372
 20
31.9490383246
 10
268.8552470255
 20
32.7082543235
 10
268.9822477262
 20
33.5030918695
 10
269.1913959089
 20
34.3193670677
 10
269.4789593194
 20
35.1425134679
 10
269.8398063816
 20
35.9578420031
 10
270.2674977713
 20
36.7508031163
 10
270.7544013255
 20
37.5072463976
 10
271.2918282387
 20
38.2136730987
 10
271.8701881149
 20
38.8574770185
 10
272.4791601084
 20
39.4271694606
 10
273.1078770996
 20
39.9125842501
 10
273.7451196189
 20
40.3050591484
 10
274.3795160583
 20
40.5975904318
 10
274.9997455985
 20
40.7849578725
 10
275.5947402286
 20
40.8638178941
 10
276.1538822553
 20
40.8327632376
 10
276.6671937759
 20
40.6923480742
 10
277.1255147342
 20
40.4450781158
 10
277.5206663818
 20
40.0953659006
 10
277.8455972281
 20
39.6494520514
 10
278.0945088746
 20
39.1152939114
 10
278.262959487
 20
38.5024235452
 10
278.3479430602
 20
37.8217776392
 10
278.3479430602
 20
37.0855023354
 10
278.262959487
 20
36.3067364843
 10
278.0945088746
 20
35.4993771809
 10
277.8455972281
 20
34.6778317711
 10
277.5206663818
 20
33.8567607521
 10
277.1255147342
 20
33.0508161558
 10
276.6671937759
 20
32.2743800826
 10
276.1538822553
 20
31.5413080526
 10
275.5947402286
 20
30.8646817535
 10
274.9997455985
 20
30.2565755977
 10
274.3795160583
 20
29.7278412539
 10
273.7451196189
 20
29.287913999
 10
273.1078770996
 20
28.9446443454
 10
272.4791601084
 20
28.7041579481
 10
271.8701881149
 20
28.5707462925
 10
271.2918282387
 20
28.5467901128
 10
270.7544013255
 20
28.6327169077
 10
270.2674977713
 20
28.8269933114
 10
269.8398063816
 20
29.1261524569
 10
269.4789593194
 20
29.5248558422
 10
269.1913959089
 20
30.0159885958
 10
268.9822477262
 20
30.5907864423
 10
268.8552470255
 20
31.2389921003
 10
268.8126601372
 20
31.9490383246
  0
SPLINE
  5
1F7
330
1F
100
AcDbEntity
  8
0
  6
Continuous
 62
     7
370
    15
100
AcDbSpline
210
0.0
220
0.0
230
1.0
 70
     8
 71
     3
 72
    22
 73
    18
 74
     0
 42
0.000000001
 43
0.00000001
 40
0.0
 40
0.0
 40
0.0
 40
0.0
 40
0.1249999999999998
 40
0.1249999999999998
 40
0.2499999999999997
 40
0.2499999999999997
 40
0.3749999999999995
 40
0.3749999999999995
 40
0.4999999999999993
 40
0.4999999999999993
 40
0.6249999999999991
 40
0.6249999999999991
 40
0.7499999999999994
 40
0.7499999999999994
 40
0.8749999999999997
 40
0.8749999999999997
 40
1.0
 40
1.0
 40
1.0
 40
1.0
 10
270.5339113279675
 20
29.24916188226715
 30
0.0
 10
270.4855340259685
 20
29.21725443022269
 30
0.0
 10
270.4368422214438
 20
29.19343981438747
 30
0.0
 10
270.3390667400556
 20
29.16176137899689
 30
0.0
 10
270.2896767074787
 20
29.15390158315673
 30
0.0
 10
270.1920142577552
 20
29.15530501682322
 30
0.0
 10
270.144588981006
 20
29.16444699595541
 30
0.0
 10
270.0526092610595
 20
29.19928587713266
 30
0.0
 10
270.007638510636
 20
29.22534534051533
 30
0.0
 10
269.922952715118
 20
29.29343115714875
 30
0.0
 10
269.883484245163
 20
29.33503225508128
 30
0.0
 10
269.8101263935759
 20
29.43300775715078
 30
0.0
 10
269.7759634703322
 20
29.490078538014
 30
0.0
 10
269.7155020080035
 20
29.61538302395175
 30
0.0
 10
269.688988331903
 20
29.6836661138369
 30
0.0
 10
269.6430518735985
 20
29.83125902520141
 30
0.0
 10
269.6236263189065
 20
29.91089603809558
 30
0.0
 10
269.6081644123277
 20
29.99419461945644
 30
0.0
  0
LWPOLYLINE
  5
1F8
330
1F
100
AcDbEntity
  8
0
  6
Continuous
 62
     7
370
    15
100
AcDbPolyline
 90
       11
 70
   128
 43
0.0
 10
276.3191524409
 20
32.5889104882
 10
275.8140078141
 20
31.8629626112
 10
275.2606485232
 20
31.1962522011
 10
274.6702495635
 20
30.6022433594
 10
274.05473394
 20
30.0929319921
 10
273.4265318845
 20
29.6786035543
 10
272.7983298289
 20
29.3676253373
 10
272.1828142054
 20
29.1662774926
 10
271.5924152457
 20
29.0786262049
 10
271.0390559548
 20
29.106441577
 10
270.533911328
 20
29.2491618823
  0
SPLINE
  5
1F9
330
1F
100
AcDbEntity
  8
0
  6
Continuous
 62
     7
370
    15
100
AcDbSpline
210
0.0
220
0.0
230
1.0
 70
     8
 71
     3
 72
    22
 73
    18
 74
     0
 42
0.000000001
 43
0.00000001
 40
0.0
 40
0.0
 40
0.0
 40
0.0
 40
0.125
 40
0.125
 40
0.25
 40
0.25
 40
0.375
 40
0.375
 40
0.5
 40
0.5
 40
0.625
 40
0.625
 40
0.75
 40
0.75
 40
0.875
 40
0.875
 40
1.0
 40
1.0
 40
1.0
 40
1.0
 10
277.2448993565757
 20
34.40278786322509
 30
0.0
 10
277.2598382888811
 20
34.31920548326688
 30
0.0
 10
277.2674222797181
 20
34.23417816409004
 30
0.0
 10
277.2681990302303
 20
34.06118672415214
 30
0.0
 10
277.2613016368026
 20
33.97266764579212
 30
0.0
 10
277.2325242746012
 20
33.79487101671369
 30
0.0
 10
277.2109916019315
 20
33.70715067149154
 30
0.0
 10
277.1539656840737
 20
33.53398126960221
 30
0.0
 10
277.118031524541
 20
33.44771227643488
 30
0.0
 10
277.0334068635453
 20
33.28179421246372
 30
0.0
 10
276.9851652347375
 20
33.20266936584315
 30
0.0
 10
276.877074693746
 20
33.05192556002109
 30
0.0
 10
276.8165273206738
 20
32.97968634903666
 30
0.0
 10
276.6876705780289
 20
32.8477554115824
 30
0.0
 10
276.6192566108313
 20
32.78766259880393
 30
0.0
 10
276.4745395012544
 20
32.67901988058234
 30
0.0
 10
276.3979430162206
 20
32.63041470753764
 30
0.0
 10
276.3191524409359
 20
32.5889104882359
 30
0.0
  0
LWPOLYLINE
  5
1FA
330
1F
100
AcDbEntity
  8
0
  6
Continuous
 62
     7
370
    15
100
AcDbPolyline
 90
        9
 70
   128
 43
0.0
 10
277.2448993566
 20
39.5983286097
 10
277.5096704307
 20
39.1430442352
 10
277.7022108676
 20
38.6108653653
 10
277.819114631
 20
38.0112062333
 10
277.8583136957
 20
37.3546747968
 10
277.819114631
 20
36.6528850837
 10
277.7022108676
 20
35.9182517394
 10
277.5096704307
 20
35.1637704129
 10
277.2448993566
 20
34.4027878632
  0
SPLINE
  5
1FB
330
1F
100
AcDbEntity
  8
0
  6
Continuous
 62
     7
370
    15
100
AcDbSpline
210
0.0
220
0.0
230
1.0
 70
     8
 71
     3
 72
    22
 73
    18
 74
     0
 42
0.000000001
 43
0.00000001
 40
0.0
 40
0.0
 40
0.0
 40
0.0
 40
0.1249999999999998
 40
0.1249999999999998
 40
0.2499999999999997
 40
0.2499999999999997
 40
0.3749999999999995
 40
0.3749999999999995
 40
0.4999999999999993
 40
0.4999999999999993
 40
0.6249999999999991
 40
0.6249999999999991
 40
0.7499999999999994
 40
0.7499999999999994
 40
0.8749999999999997
 40
0.8749999999999997
 40
1.0
 40
1.0
 40
1.0
 40
1.0
 10
276.3191524409359
 20
40.34336134692518
 30
0.0
 10
276.3979275459184
 20
40.35772052083284
 30
0.0
 10
276.4733079880326
 20
40.36612811413536
 30
0.0
 10
276.6174962554489
 20
40.37101301846824
 30
0.0
 10
276.6867086841658
 20
40.36742958859271
 30
0.0
 10
276.8163641114672
 20
40.34755700209742
 30
0.0
 10
276.8757311804762
 20
40.33152117303337
 30
0.0
 10
276.9838092398451
 20
40.28738891832263
 30
0.0
 10
277.0329246313152
 20
40.25893680459272
 30
0.0
 10
277.1176385034233
 20
40.19083477968883
 30
0.0
 10
277.1530833616086
 20
40.15155646338916
 30
0.0
 10
277.210445453533
 20
40.0628151168184
 30
0.0
 10
277.2324393833002
 20
40.01276934635762
 30
0.0
 10
277.2611363855334
 20
39.90580209291408
 30
0.0
 10
277.2681069695504
 20
39.84880098994484
 30
0.0
 10
277.2675283806454
 20
39.72806064376147
 30
0.0
 10
277.2598412226735
 20
39.66407546672948
 30
0.0
 10
277.2448993565757
 20
39.59832860973589
 30
0.0
  0
LWPOLYLINE
  5
1FC
330
1F
100
AcDbEntity
  8
0
  6
Continuous
 62
     7
370
    15
100
AcDbPolyline
 90
       11
 70
   128
 43
0.0
 10
270.533911328
 20
37.003612741
 10
271.0390559548
 20
37.729560618
 10
271.5924152457
 20
38.3962710281
 10
272.1828142054
 20
38.9902798698
 10
272.7983298289
 20
39.4995912371
 10
273.4265318845
 20
39.9139196749
 10
274.05473394
 20
40.2248978918
 10
274.6702495635
 20
40.4262457366
 10
275.2606485232
 20
40.5138970243
 10
275.8140078141
 20
40.4860816522
 10
276.3191524409
 20
40.3433613469
  0
SPLINE
  5
1FD
330
1F
100
AcDbEntity
  8
0
  6
Continuous
 62
     7
370
    15
100
AcDbSpline
210
0.0
220
0.0
230
1.0
 70
     8
 71
     3
 72
    22
 73
    18
 74
     0
 42
0.000000001
 43
0.00000001
 40
0.0
 40
0.0
 40
0.0
 40
0.0
 40
0.125
 40
0.125
 40
0.25
 40
0.25
 40
0.375
 40
0.375
 40
0.5
 40
0.5
 40
0.625
 40
0.625
 40
0.75
 40
0.75
 40
0.875
 40
0.875
 40
1.0
 40
1.0
 40
1.0
 40
1.0
 10
269.6081644123277
 20
35.18973536596724
 30
0.0
 10
269.6236232830058
 20
35.25576946778865
 30
0.0
 10
269.6427279297583
 20
35.32538976443278
 30
0.0
 10
269.6883639652742
 20
35.471587673313
 30
0.0
 10
269.7150837548418
 20
35.54866352595732
 30
0.0
 10
269.7758540946212
 20
35.70799100220695
 30
0.0
 10
269.8093285595507
 20
35.78881749749723
 30
0.0
 10
269.8824528168309
 20
35.95269352585308
 30
0.0
 10
269.9225316174101
 20
36.03656986867315
 30
0.0
 10
270.0071843549961
 20
36.20247172437384
 30
0.0
 10
270.0514023720341
 20
36.28391935262729
 30
0.0
 10
270.1434971533629
 20
36.44389731394809
 30
0.0
 10
270.1918755329586
 20
36.52316153533496
 30
0.0
 10
270.288967815508
 20
36.67342970528342
 30
0.0
 10
270.3378386906222
 20
36.7448045049778
 30
0.0
 10
270.4360407529896
 20
36.88029978838053
 30
0.0
 10
270.4855245253594
 20
36.94455679728742
 30
0.0
 10
270.5339113279675
 20
37.00361274095643
 30
0.0
  0
LWPOLYLINE
  5
1FE
330
1F
100
AcDbEntity
  8
0
  6
Continuous
 62
     7
370
    15
100
AcDbPolyline
 90
        9
 70
   128
 43
0.0
 10
269.6081644123
 20
29.9941946195
 10
269.3433933382
 20
30.449478994
 10
269.1508529013
 20
30.9816578639
 10
269.0339491379
 20
31.5813169959
 10
268.9947500732
 20
32.2378484323
 10
269.0339491379
 20
32.9396381455
 10
269.1508529013
 20
33.6742714898
 10
269.3433933382
 20
34.4287528163
 10
269.6081644123
 20
35.189735366
  0
ARC
  5
1FF
330
1F
100
AcDbEntity
  8
0
  6
Continuous
 62
     7
370
    15
100
AcDbCircle
 10
276.771390278
 20
39.1176341348
 30
0.0
 40
1.306493880560213
100
AcDbArc
 50
110.2517772116
 51
120.2335023561
  0
LINE
  5
200
330
1F
100
AcDbEntity
  8
0
  6
Continuous
 62
     7
370
    15
100
AcDbLine
 10
275.6916891638
 20
40.0028914546
 30
0.0
 11
276.113537653
 21
40.2464194038
 31
0.0
  0
LWPOLYLINE
  5
201
330
1F
100
AcDbEntity
  8
0
  6
Continuous
 62
     7
370
    15
100
AcDbPolyline
 90
        9
 70
   128
 43
0.0
 10
271.1613746051
 20
37.3875965281
 10
271.6830252445
 20
38.0312809635
 10
272.2426558352
 20
38.6044948457
 10
272.8280755762
 20
39.0947514797
 10
273.4265318845
 20
39.4913712829
 10
274.0249881927
 20
39.7857144256
 10
274.6104079337
 20
39.9713690374
 10
275.1700385244
 20
40.0442908819
 10
275.6916891638
 20
40.0028914546
  0
LINE
  5
202
330
1F
100
AcDbEntity
  8
0
  6
Continuous
 62
     7
370
    15
100
AcDbLine
 10
270.7395261159
 20
37.1440685789
 30
0.0
 11
271.1613746051
 21
37.3875965281
 31
0.0
  0
ARC
  5
203
330
1F
100
AcDbEntity
  8
0
  6
Continuous
 62
     7
370
    15
100
AcDbCircle
 10
271.6022825597
 20
35.6603415367
 30
0.0
 40
1.716331732794146
100
AcDbArc
 50
120.1771113865
 51
128.4969973883
  0
LWPOLYLINE
  5
204
330
1F
100
AcDbEntity
  8
0
  6
Continuous
 62
     7
370
    15
100
AcDbPolyline
 90
       28
 70
   128
 43
0.0
 10
273.8411309542
 20
39.7062405062
 10
273.9199523142
 20
39.7068621885
 10
274.3675332015
 20
39.6485191158
 10
274.7666971056
 20
39.4852718007
 10
275.1076152864
 20
39.2211399338
 10
275.3818932069
 20
38.8626273184
 10
275.5827772343
 20
38.4185617249
 10
275.7053209374
 20
37.8998775219
 10
275.7465068833
 20
37.3193464359
 10
275.7053209374
 20
36.691263069
 10
275.5827772343
 20
36.0310929181
 10
275.3818932069
 20
35.3550915633
 10
275.1076152864
 20
34.6799044015
 10
274.7666971056
 20
34.0221567814
 10
274.3675332015
 20
33.3980446325
 10
273.9199523142
 20
32.822935667
 10
273.4349753706
 20
32.3109909764
 10
272.9245441126
 20
31.8748163381
 10
272.4012270517
 20
31.5251518192
 10
271.8779099909
 20
31.2706073206
 10
271.3674787329
 20
31.1174505727
 10
270.8825017892
 20
31.0694528029
 10
270.434920902
 20
31.1277958756
 10
270.0357569979
 20
31.2910431907
 10
269.6948388171
 20
31.5551750575
 10
269.4205608966
 20
31.9136876729
 10
269.2196768691
 20
32.3577532665
 10
269.1332174092
 20
32.6760936098
  0
LINE
  5
205
330
1F
100
AcDbEntity
  8
0
  6
Continuous
 62
     7
370
    15
100
AcDbLine
 10
269.7142212832
 20
29.9379997065
 30
0.0
 11
270.8581983741
 21
30.5984036239
 31
0.0
  0
LINE
  5
206
330
1F
100
AcDbEntity
  8
0
  6
Continuous
 62
     7
370
    15
100
AcDbLine
 10
269.6284557747
 20
29.8922476457
 30
0.0
 11
269.7142212832
 21
29.9379997065
 31
0.0
  0
LWPOLYLINE
  5
207
330
1F
100
AcDbEntity
  8
0
  6
Continuous
 62
     7
370
    15
100
AcDbPolyline
 90
        3
 70
   128
 43
0.0
 10
276.1984482114
 20
39.9212962009
 10
276.2191951953
 20
40.2198444418
 10
276.215026016
 20
40.2997403474
  0
ARC
  5
208
330
1F
100
AcDbEntity
  8
0
  6
Continuous
 62
     7
370
    15
100
AcDbCircle
 10
271.134892449
 20
37.5802466112
 30
0.0
 40
5.578540144217179
100
AcDbArc
 50
335.1873353003
 51
24.8126646997
  0
ARC
  5
209
330
1F
100
AcDbEntity
  8
0
  6
Continuous
 62
     7
370
    15
100
AcDbCircle
 10
273.8435501078
 20
35.0485025217
 30
0.0
 40
2.362606499360675
100
AcDbArc
 50
301.7912553701
 51
4.6295852366
  0
LINE
  5
20A
330
1F
100
AcDbEntity
  8
0
  6
Continuous
 62
     7
370
    15
100
AcDbLine
 10
273.9442557294
 20
32.3799466139
 30
0.0
 11
275.0882328202
 21
33.0403505314
 31
0.0
  0
ARC
  5
20B
330
1F
100
AcDbEntity
  8
0
  6
Continuous
 62
     7
370
    15
100
AcDbCircle
 10
270.1507733258
 20
35.3874977037
 30
0.0
 40
4.841061072136306
100
AcDbArc
 50
278.4027299562
 51
321.5918935111
  0
LINE
  5
20C
330
1F
100
AcDbEntity
  8
0
  6
Continuous
 62
     7
370
    15
100
AcDbLine
 10
250.5636759208
 20
30.0738858708
 30
0.0
 11
252.7436585347
 21
28.8154086952
 31
0.0
  0
SPLINE
  5
20D
330
1F
100
AcDbEntity
  8
0
  6
Continuous
 62
     7
370
    15
100
AcDbSpline
210
0.0
220
0.0
230
1.0
 70
     8
 71
     3
 72
    16
 73
    12
 74
     0
 42
0.000000001
 43
0.00000001
 40
0.0
 40
0.0
 40
0.0
 40
0.0
 40
0.1250000000000011
 40
0.1250000000000011
 40
0.2500000000000021
 40
0.2500000000000021
 40
0.5000000000000014
 40
0.5000000000000014
 40
0.7500000000000008
 40
0.7500000000000008
 40
1.0
 40
1.0
 40
1.0
 40
1.0
 10
250.3253533430871
 20
30.78113188846181
 30
0.0
 10
250.3496576014716
 20
30.76710133874514
 30
0.0
 10
250.3721233374416
 20
30.73857249087183
 30
0.0
 10
250.4072393726567
 20
30.68015792020888
 30
0.0
 10
250.4215098282116
 20
30.64886068934092
 30
0.0
 10
250.4588160452388
 20
30.55641543468675
 30
0.0
 10
250.4772618744281
 20
30.49455674041319
 30
0.0
 10
250.5094639674087
 20
30.37134371573403
 30
0.0
 10
250.5227191401536
 20
30.31042927576045
 30
0.0
 10
250.5455959208808
 20
30.1911997629498
 30
0.0
 10
250.5552893128788
 20
30.13228188118006
 30
0.0
 10
250.5636759207771
 20
30.07388587078352
 30
0.0
  0
LINE
  5
20E
330
1F
100
AcDbEntity
  8
0
  6
Continuous
 62
     7
370
    15
100
AcDbLine
 10
249.540464816
 20
31.2342383905
 30
0.0
 11
250.3253533431
 21
30.7811318885
 31
0.0
  0
SPLINE
  5
20F
330
1F
100
AcDbEntity
  8
0
  6
Continuous
 62
     7
370
    15
100
AcDbSpline
210
0.0
220
0.0
230
1.0
 70
     8
 71
     3
 72
    14
 73
    10
 74
     0
 42
0.000000001
 43
0.00000001
 40
0.0
 40
0.0
 40
0.0
 40
0.0
 40
0.4999999999999972
 40
0.4999999999999972
 40
0.7499999999999969
 40
0.7499999999999969
 40
0.8749999999999984
 40
0.8749999999999984
 40
1.0
 40
1.0
 40
1.0
 40
1.0
 10
249.3021422382801
 20
30.80215376407085
 30
0.0
 10
249.3190323280958
 20
30.90025869687669
 30
0.0
 10
249.3407589518339
 20
30.99553354399028
 30
0.0
 10
249.3886132993816
 20
31.12311504303123
 30
0.0
 10
249.4068925770128
 20
31.16351949642257
 30
0.0
 10
249.4445153413876
 20
31.21323603559973
 30
0.0
 10
249.4584548138631
 20
31.2277388007542
 30
0.0
 10
249.4937791416177
 20
31.24572751188909
 30
0.0
 10
249.5163073058526
 20
31.24818422426878
 30
0.0
 10
249.5404648159701
 20
31.23423839052341
 30
0.0
  0
LINE
  5
210
330
1F
100
AcDbEntity
  8
0
  6
Continuous
 62
     7
370
    15
100
AcDbLine
 10
248.147464457
 20
31.4687350586
 30
0.0
 11
249.3021422383
 21
30.8021537641
 31
0.0
  0
ARC
  5
211
330
1F
100
AcDbEntity
  8
0
  6
Continuous
 62
     7
370
    15
100
AcDbCircle
 10
251.8447373456
 20
37.2775911712
 30
0.0
 40
6.885683419173176
100
AcDbArc
 50
182.476303705
 51
237.5236964406
  0
LINE
  5
212
330
1F
100
AcDbEntity
  8
0
  6
Continuous
 62
     7
370
    15
100
AcDbLine
 10
244.9654839417
 20
37.7966277756
 30
0.0
 11
244.9654839417
 21
36.9800869637
 31
0.0
  0
ARC
  5
213
330
1F
100
AcDbEntity
  8
0
  6
Continuous
 62
     7
370
    15
100
AcDbCircle
 10
247.9349547622
 20
37.884839108
 30
0.0
 40
2.970780737919925
100
AcDbArc
 50
156.5752906625
 51
181.7015325179
  0
ARC
  5
214
330
1F
100
AcDbEntity
  8
0
  6
Continuous
 62
     7
370
    15
100
AcDbCircle
 10
271.3325140549
 20
29.993901454
 30
0.0
 40
1.724349667469459
100
AcDbArc
 50
171.0177039064
 51
179.9902588546
  0
ARC
  5
215
330
1F
100
AcDbEntity
  8
0
  6
Continuous
 62
     7
370
    15
100
AcDbCircle
 10
274.6928664872
 20
32.604172499
 30
0.0
 40
5.578540144216918
100
AcDbArc
 50
155.1873353003
 51
204.8126646997
  0
ARC
  5
216
330
1F
100
AcDbEntity
  8
0
  6
Continuous
 62
     7
370
    15
100
AcDbCircle
 10
270.9075021951
 20
35.1789353311
 30
0.0
 40
1.299382666676839
100
AcDbArc
 50
179.5237711272
 51
190.3618866346
  0
LINE
  5
217
330
1F
100
AcDbEntity
  8
0
  6
Continuous
 62
     7
370
    15
100
AcDbLine
 10
274.6475360297
 20
39.953316021
 30
0.0
 11
275.6916891638
 21
40.0028914546
 31
0.0
  0
LWPOLYLINE
  5
218
330
1F
100
AcDbEntity
  8
0
  6
Continuous
 62
     7
370
    15
100
AcDbPolyline
 90
       25
 70
   128
 43
0.0
 10
273.7242883082
 20
39.6506552901
 10
274.1308132014
 20
39.5594241115
 10
274.5001309555
 20
39.3629923847
 10
274.8077627232
 20
39.0678434304
 10
275.0457410035
 20
38.6816214515
 10
275.2079022838
 20
38.2143293944
 10
275.2900466723
 20
37.6780698778
 10
275.2900466723
 20
37.0867317417
 10
275.2079022838
 20
36.455630333
 10
275.0457410035
 20
35.8011108469
 10
274.8077627232
 20
35.1401249941
 10
274.5001309555
 20
34.489791961
 10
274.1308132014
 20
33.8669550317
 10
273.7093745969
 20
33.2877453554
 10
273.2467301805
 20
32.7671641585
 10
272.7548621994
 20
32.3186942205
 10
272.2465097761
 20
31.9539506773
 10
271.7348389713
 20
31.682380195
 10
271.23310179
 20
31.5110163065
 10
270.7542929618
 20
31.4442972465
 10
270.3108133837
 20
31.4839510036
 10
269.9141489439
 20
31.6289505662
 10
269.574573043
 20
31.875540522
 10
269.3008805184
 20
32.2173343206
 10
269.2150233065
 20
32.3717340129
  0
SPLINE
  5
219
330
1F
100
AcDbEntity
  8
0
  6
Continuous
 62
     7
370
    15
100
AcDbSpline
210
0.0
220
0.0
230
1.0
 70
     8
 71
     3
 72
    14
 73
    10
 74
     0
 42
0.000000001
 43
0.00000001
 40
0.0
 40
0.0
 40
0.0
 40
0.0
 40
0.5000000000000016
 40
0.5000000000000016
 40
0.7500000000000023
 40
0.7500000000000023
 40
0.8750000000000011
 40
0.8750000000000011
 40
1.0
 40
1.0
 40
1.0
 40
1.0
 10
232.9032564671986
 20
42.73187244929743
 30
0.0
 10
233.2768743894375
 20
42.46289338097579
 30
0.0
 10
233.6519486175005
 20
42.19074400211463
 30
0.0
 10
234.2199730238484
 20
41.77112893988755
 30
0.0
 10
234.4102044026777
 20
41.62938399037014
 30
0.0
 10
234.6984586245892
 20
41.41072451450962
 30
0.0
 10
234.7950314528454
 20
41.33682369346537
 30
0.0
 10
234.9899672268491
 20
41.1853199873024
 30
0.0
 10
235.0882008060526
 20
41.10798310390323
 30
0.0
 10
235.1887036143411
 20
41.0259697918935
 30
0.0
  0
SPLINE
  5
21A
330
1F
100
AcDbEntity
  8
0
  6
Continuous
 62
     7
370
    15
100
AcDbSpline
210
0.0
220
0.0
230
1.0
 70
     8
 71
     3
 72
     8
 73
     4
 74
     0
 42
0.000000001
 43
0.00000001
 40
0.0
 40
0.0
 40
0.0
 40
0.0
 40
1.0
 40
1.0
 40
1.0
 40
1.0
 10
235.1887036143411
 20
41.0259697918934
 30
0.0
 10
235.4951298550818
 20
40.77591677031297
 30
0.0
 10
235.8011524003887
 20
40.53367489451801
 30
0.0
 10
236.1069438806171
 20
40.2959039214439
 30
0.0
  0
SPLINE
  5
21B
330
1F
100
AcDbEntity
  8
0
  6
Continuous
 62
     7
370
    15
100
AcDbSpline
210
0.0
220
0.0
230
1.0
 70
     8
 71
     3
 72
    14
 73
    10
 74
     0
 42
0.000000001
 43
0.00000001
 40
0.0
 40
0.0
 40
0.0
 40
0.0
 40
0.1249999999999967
 40
0.1249999999999967
 40
0.2499999999999933
 40
0.2499999999999933
 40
0.4999999999999956
 40
0.4999999999999956
 40
1.0
 40
1.0
 40
1.0
 40
1.0
 10
236.1069438806171
 20
40.29590392144388
 30
0.0
 10
236.1263824951838
 20
40.28078924821206
 30
0.0
 10
236.1447874220075
 20
40.2681653326389
 30
0.0
 10
236.1753432771649
 20
40.25092634962171
 30
0.0
 10
236.1875347747213
 20
40.24620868924638
 30
0.0
 10
236.2153622515571
 20
40.24068864402536
 30
0.0
 10
236.2237731904318
 20
40.24718217196617
 30
0.0
 10
236.2375923656593
 20
40.27710859824941
 30
0.0
 10
236.2316948690049
 20
40.31053849619765
 30
0.0
 10
236.2221031202102
 20
40.34830287639058
 30
0.0
  0
SPLINE
  5
21C
330
1F
100
AcDbEntity
  8
0
  6
Continuous
 62
     7
370
    15
100
AcDbSpline
210
0.0
220
0.0
230
1.0
 70
     8
 71
     3
 72
    16
 73
    12
 74
     0
 42
0.000000001
 43
0.00000001
 40
0.0
 40
0.0
 40
0.0
 40
0.0
 40
0.1249999999999996
 40
0.1249999999999996
 40
0.2499999999999992
 40
0.2499999999999992
 40
0.4999999999999994
 40
0.4999999999999994
 40
0.7499999999999997
 40
0.7499999999999997
 40
1.0
 40
1.0
 40
1.0
 40
1.0
 10
236.2221031202103
 20
40.34830287639047
 30
0.0
 10
236.2142230688176
 20
40.37932800674999
 30
0.0
 10
236.2111226682021
 20
40.4074393310861
 30
0.0
 10
236.2074616422942
 20
40.46296709944655
 30
0.0
 10
236.2070268951361
 20
40.49035338428885
 30
0.0
 10
236.205485019504
 20
40.57499636540048
 30
0.0
 10
236.2040718926091
 20
40.63477809316537
 30
0.0
 10
236.1903924315326
 20
40.77000581831747
 30
0.0
 10
236.1783800258788
 20
40.84534711815085
 30
0.0
 10
236.136928892843
 20
41.01800539871944
 30
0.0
 10
236.1080537489827
 20
41.11330781399167
 30
0.0
 10
236.0677588760073
 20
41.22003259345961
 30
0.0
  0
ARC
  5
21D
330
1F
100
AcDbEntity
  8
0
  6
Continuous
 62
     7
370
    15
100
AcDbCircle
 10
248.9463613126
 20
45.2122887989
 30
0.0
 40
13.48319362501797
100
AcDbArc
 50
162.7770125163
 51
197.2229874837
  0
SPLINE
  5
21E
330
1F
100
AcDbEntity
  8
0
  6
Continuous
 62
     7
370
    15
100
AcDbSpline
210
0.0
220
0.0
230
1.0
 70
     8
 71
     3
 72
    16
 73
    12
 74
     0
 42
0.000000001
 43
0.00000001
 40
0.0
 40
0.0
 40
0.0
 40
0.0
 40
0.1249999999999996
 40
0.1249999999999996
 40
0.2499999999999992
 40
0.2499999999999992
 40
0.4999999999999994
 40
0.4999999999999994
 40
0.7499999999999997
 40
0.7499999999999997
 40
1.0
 40
1.0
 40
1.0
 40
1.0
 10
236.2221031202103
 20
51.19200593249588
 30
0.0
 10
236.2142230688176
 20
51.10857816674426
 30
0.0
 10
236.2111226682021
 20
51.02425823522646
 30
0.0
 10
236.2074616422942
 20
50.85593480608927
 30
0.0
 10
236.2070268951361
 20
50.77169221326189
 30
0.0
 10
236.205485019504
 20
50.51912339767997
 30
0.0
 10
236.2040718926091
 20
50.3509614438595
 30
0.0
 10
236.1903924315326
 20
50.01603013228814
 30
0.0
 10
236.1783800258788
 20
49.84898152729087
 30
0.0
 10
236.136928892843
 20
49.5180048535876
 30
0.0
 10
236.1080537489827
 20
49.3577932538315
 30
0.0
 10
236.0677588760073
 20
49.20454500430606
 30
0.0
  0
SPLINE
  5
21F
330
1F
100
AcDbEntity
  8
0
  6
Continuous
 62
     7
370
    15
100
AcDbSpline
210
0.0
220
0.0
230
1.0
 70
     8
 71
     3
 72
    14
 73
    10
 74
     0
 42
0.000000001
 43
0.00000001
 40
0.0
 40
0.0
 40
0.0
 40
0.0
 40
0.1250000000000001
 40
0.1250000000000001
 40
0.2500000000000002
 40
0.2500000000000002
 40
0.5000000000000023
 40
0.5000000000000023
 40
1.0
 40
1.0
 40
1.0
 40
1.0
 10
236.1069438806171
 20
51.72509113210347
 30
0.0
 10
236.1263824951838
 20
51.72221688565036
 30
0.0
 10
236.1447874220075
 20
51.7130315547874
 30
0.0
 10
236.1753432771649
 20
51.68347397231887
 30
0.0
 10
236.1875347747213
 20
51.66338673081287
 30
0.0
 10
236.2153622515571
 20
51.59779462528498
 30
0.0
 10
236.2237731904318
 20
51.54738226078028
 30
0.0
 10
236.2375923656593
 20
51.39518561078339
 30
0.0
 10
236.2316948690049
 20
51.29355579958695
 30
0.0
 10
236.2221031202102
 20
51.19200593249592
 30
0.0
  0
SPLINE
  5
220
330
1F
100
AcDbEntity
  8
0
  6
Continuous
 62
     7
370
    15
100
AcDbSpline
210
0.0
220
0.0
230
1.0
 70
     8
 71
     3
 72
     8
 73
     4
 74
     0
 42
0.000000001
 43
0.00000001
 40
0.0
 40
0.0
 40
0.0
 40
0.0
 40
1.0
 40
1.0
 40
1.0
 40
1.0
 10
235.1887036143411
 20
51.82638626672233
 30
0.0
 10
235.4951298550818
 20
51.8063542886234
 30
0.0
 10
235.8011524003887
 20
51.77030629259884
 30
0.0
 10
236.1069438806171
 20
51.72509113210348
 30
0.0
  0
SPLINE
  5
221
330
1F
100
AcDbEntity
  8
0
  6
Continuous
 62
     7
370
    15
100
AcDbSpline
210
0.0
220
0.0
230
1.0
 70
     8
 71
     3
 72
    14
 73
    10
 74
     0
 42
0.000000001
 43
0.00000001
 40
0.0
 40
0.0
 40
0.0
 40
0.0
 40
0.4999999999999968
 40
0.4999999999999968
 40
0.7499999999999967
 40
0.7499999999999967
 40
0.8749999999999983
 40
0.8749999999999983
 40
1.0
 40
1.0
 40
1.0
 40
1.0
 10
232.9032564671986
 20
52.57051320607474
 30
0.0
 10
233.2768743894375
 20
52.41238654085459
 30
0.0
 10
233.6519486175006
 20
52.26123122548437
 30
0.0
 10
234.2199730238484
 20
52.0598257548901
 30
0.0
 10
234.4102044026777
 20
51.99685531018845
 30
0.0
 10
234.6984586245892
 20
51.91588954523059
 30
0.0
 10
234.7950314528454
 20
51.89116567962918
 30
0.0
 10
234.9899672268491
 20
51.84999713496864
 30
0.0
 10
235.0882008060526
 20
51.8329564287606
 30
0.0
 10
235.1887036143411
 20
51.8263862667221
 30
0.0
  0
SPLINE
  5
222
330
1F
100
AcDbEntity
  8
0
  6
Continuous
 62
     7
370
    15
100
AcDbSpline
210
0.0
220
0.0
230
1.0
 70
     8
 71
     3
 72
     8
 73
     4
 74
     0
 42
0.000000001
 43
0.00000001
 40
0.0
 40
0.0
 40
0.0
 40
0.0
 40
1.0
 40
1.0
 40
1.0
 40
1.0
 10
232.9123679565081
 20
52.75681695290433
 30
0.0
 10
232.9076242221672
 20
52.69484451964058
 30
0.0
 10
232.9046768679385
 20
52.63273587383852
 30
0.0
 10
232.9032564671986
 20
52.57051320607474
 30
0.0
  0
LINE
  5
223
330
1F
100
AcDbEntity
  8
0
  6
Continuous
 62
     7
370
    15
100
AcDbLine
 10
234.6167579018
 20
40.7662189498
 30
0.0
 11
234.5585676066
 21
40.8053686929
 31
0.0
  0
SPLINE
  5
224
330
1F
100
AcDbEntity
  8
0
  6
Continuous
 62
     7
370
    15
100
AcDbSpline
210
0.0
220
0.0
230
1.0
 70
     8
 71
     3
 72
     8
 73
     4
 74
     0
 42
0.000000001
 43
0.00000001
 40
0.0
 40
0.0
 40
0.0
 40
0.0
 40
1.0
 40
1.0
 40
1.0
 40
1.0
 10
232.9123679565081
 20
42.66227056737819
 30
0.0
 10
232.9076242221672
 20
42.68643256862504
 30
0.0
 10
232.9046768679385
 20
42.70956912153453
 30
0.0
 10
232.9032564671986
 20
42.73187244929743
 30
0.0
  0
SPLINE
  5
225
330
1F
100
AcDbEntity
  8
0
  6
Continuous
 62
     7
370
    15
100
AcDbSpline
210
0.0
220
0.0
230
1.0
 70
     8
 71
     3
 72
    18
 73
    14
 74
     0
 42
0.000000001
 43
0.00000001
 40
0.0
 40
0.0
 40
0.0
 40
0.0
 40
0.1189110846384158
 40
0.2383593474279989
 40
0.357798237409543
 40
0.4766801064929531
 40
0.5947304558138174
 40
0.6541538712531425
 40
0.7128411587003847
 40
0.7714570604878507
 40
0.8312337506606644
 40
0.9496887282393474
 40
1.0
 40
1.0
 40
1.0
 40
1.0
 10
239.7139283070368
 20
40.85653272216287
 30
0.0
 10
239.5669451407115
 20
41.13133037055792
 30
0.0
 10
239.2723148149119
 20
41.68216705954588
 30
0.0
 10
239.1343865975684
 20
42.52356013898501
 30
0.0
 10
239.2830251731725
 20
43.21940411717032
 30
0.0
 10
239.6870852224373
 20
43.68098173892778
 30
0.0
 10
240.1769379565191
 20
43.7822775210065
 30
0.0
 10
240.5954569459198
 20
43.68922566364564
 30
0.0
 10
240.9110744889307
 20
43.53008499031988
 30
0.0
 10
241.2165076263495
 20
43.28843662194591
 30
0.0
 10
241.5877567935683
 20
42.86913187970217
 30
0.0
 10
241.9161344276728
 20
42.35860095349682
 30
0.0
 10
242.0427390549846
 20
41.93831103742423
 30
0.0
 10
242.0804814343749
 20
41.81301750113623
 30
0.0
  0
SPLINE
  5
226
330
1F
100
AcDbEntity
  8
0
  6
Continuous
 62
     7
370
    15
100
AcDbSpline
210
0.0
220
0.0
230
1.0
 70
     8
 71
     3
 72
    12
 73
     8
 74
     0
 42
0.000000001
 43
0.00000001
 40
0.0
 40
0.0
 40
0.0
 40
0.0
 40
0.1148525978196184
 40
0.4090310016786708
 40
0.5557956212979484
 40
0.7045739022718225
 40
1.0
 40
1.0
 40
1.0
 40
1.0
 10
241.6674155929116
 20
39.38479654410422
 30
0.0
 10
241.6095265428215
 20
39.3712295688609
 30
0.0
 10
241.4033630202363
 20
39.322912738603
 30
0.0
 10
241.0070195518063
 20
39.52315438280154
 30
0.0
 10
240.5903291389805
 20
39.8276292260948
 30
0.0
 10
240.1666261751417
 20
40.22029017679564
 30
0.0
 10
239.8947466601009
 20
40.60240223622932
 30
0.0
 10
239.7139283070368
 20
40.85653272216287
 30
0.0
  0
ARC
  5
227
330
1F
100
AcDbEntity
  8
0
  6
Continuous
 62
     7
370
    15
100
AcDbCircle
 10
270.0816734909
 20
30.4748890944
 30
0.0
 40
1.306493880555832
100
AcDbArc
 50
290.2517772116
 51
300.2335023561
  0
SPLINE
  5
228
330
1F
100
AcDbEntity
  8
0
  6
Continuous
 62
     7
370
    15
100
AcDbSpline
210
0.0
220
0.0
230
1.0
 70
     8
 71
     3
 72
    14
 73
    10
 74
     0
 42
0.000000001
 43
0.00000001
 40
0.0
 40
0.0
 40
0.0
 40
0.0
 40
0.25
 40
0.25
 40
0.5
 40
0.5
 40
0.75
 40
0.75
 40
1.0
 40
1.0
 40
1.0
 40
1.0
 10
278.1550788647846
 20
44.30158386020632
 30
0.0
 10
278.2019054630701
 20
44.27455144041731
 30
0.0
 10
278.2396090050851
 20
44.24129209980129
 30
0.0
 10
278.2882293928109
 20
44.17040917188285
 30
0.0
 10
278.3000869743069
 20
44.13176220780408
 30
0.0
 10
278.2973406367325
 20
44.05557166586441
 30
0.0
 10
278.2827903117483
 20
44.01732470021408
 30
0.0
 10
278.2303808426248
 20
43.94717072016972
 30
0.0
 10
278.1925187843532
 20
43.91499340980344
 30
0.0
 10
278.145526340856
 20
43.88786524961154
 30
0.0
  0
ARC
  5
229
330
1F
100
AcDbEntity
  8
0
  6
Continuous
 62
     7
370
    15
100
AcDbCircle
 10
257.7760840831
 20
28.5893618205
 30
0.0
 40
6.798393451342369
100
AcDbArc
 50
223.3013779221
 51
256.7389530224
  0
SPLINE
  5
22A
330
1F
100
AcDbEntity
  8
0
  6
Continuous
 62
     7
370
    15
100
AcDbSpline
210
0.0
220
0.0
230
1.0
 70
     8
 71
     3
 72
    14
 73
    10
 74
     0
 42
0.000000001
 43
0.00000001
 40
0.0
 40
0.0
 40
0.0
 40
0.0
 40
0.25
 40
0.25
 40
0.5
 40
0.5
 40
0.75
 40
0.75
 40
1.0
 40
1.0
 40
1.0
 40
1.0
 10
250.6825011476347
 20
28.03373191883779
 30
0.0
 10
250.7300298448909
 20
28.00629418594037
 30
0.0
 10
250.7866196640155
 20
27.98505143100209
 30
0.0
 10
250.9105342306138
 20
27.9569276997999
 30
0.0
 10
250.9776566019543
 20
27.95025641287778
 30
0.0
 10
251.1102264334325
 20
27.95218226406682
 30
0.0
 10
251.1767669815706
 20
27.96081344097221
 30
0.0
 10
251.2983845493227
 20
27.99135707970662
 30
0.0
 10
251.3545201293819
 20
28.01347616337731
 30
0.0
 10
251.4015155405953
 20
28.04060603679524
 30
0.0
  0
LINE
  5
22B
330
1F
100
AcDbEntity
  8
0
  6
Continuous
 62
     7
370
    15
100
AcDbLine
 10
249.4755654726
 20
28.7304810533
 30
0.0
 11
250.6825011476
 21
28.0337319188
 31
0.0
  0
SPLINE
  5
22C
330
1F
100
AcDbEntity
  8
0
  6
Continuous
 62
     7
370
    15
100
AcDbSpline
210
0.0
220
0.0
230
1.0
 70
     8
 71
     3
 72
     8
 73
     4
 74
     0
 42
0.000000001
 43
0.00000001
 40
0.0
 40
0.0
 40
0.0
 40
0.0
 40
1.0
 40
1.0
 40
1.0
 40
1.0
 10
249.9317464367652
 20
29.65767889125571
 30
0.0
 10
249.7790640966848
 20
29.34871533084826
 30
0.0
 10
249.6270477641393
 20
29.03964096598639
 30
0.0
 10
249.475565472557
 20
28.73048105333779
 30
0.0
  0
LINE
  5
22D
330
1F
100
AcDbEntity
  8
0
  6
Continuous
 62
     7
370
    15
100
AcDbLine
 10
250.4494669284
 20
29.9565525694
 30
0.0
 11
249.9317464368
 21
29.6576788913
 31
0.0
  0
SPLINE
  5
22E
330
1F
100
AcDbEntity
  8
0
  6
Continuous
 62
     7
370
    15
100
AcDbSpline
210
0.0
220
0.0
230
1.0
 70
     8
 71
     3
 72
    10
 73
     6
 74
     0
 42
0.000000001
 43
0.00000001
 40
0.0
 40
0.0
 40
0.0
 40
0.0
 40
0.5
 40
0.5
 40
1.0
 40
1.0
 40
1.0
 40
1.0
 10
250.5636759207771
 20
30.07388587078352
 30
0.0
 10
250.5544846723195
 20
30.05176847463213
 30
0.0
 10
250.5397263506379
 20
30.03021428748655
 30
0.0
 10
250.5010129991304
 20
29.99061962186869
 30
0.0
 10
250.477377863031
 20
29.97266520896668
 30
0.0
 10
250.4494669284403
 20
29.95655256939466
 30
0.0
  0
LINE
  5
22F
330
1F
100
AcDbEntity
  8
0
  6
Continuous
 62
     7
370
    15
100
AcDbLine
 10
276.9481431897
 20
44.9983329947
 30
0.0
 11
278.1550788648
 21
44.3015838602
 31
0.0
  0
ARC
  5
230
330
1F
100
AcDbEntity
  8
0
  6
Continuous
 62
     7
370
    15
100
AcDbCircle
 10
257.7055327518
 20
30.4845762052
 30
0.0
 40
8.41482092613532
100
AcDbArc
 50
192.0317128644
 51
237.3803499557
  0
ARC
  5
231
330
1F
100
AcDbEntity
  8
0
  6
Continuous
 62
     7
370
    15
100
AcDbCircle
 10
275.520549714
 20
39.5986217751
 30
0.0
 40
1.724349667500154
100
AcDbArc
 50
351.0177039064
 51
359.9902588545
  0
LINE
  5
232
330
1F
100
AcDbEntity
  8
0
  6
Continuous
 62
     7
370
    15
100
AcDbLine
 10
276.1984482114
 20
39.9212962009
 30
0.0
 11
277.2237530441
 21
39.3294003198
 31
0.0
  0
LWPOLYLINE
  5
233
330
1F
100
AcDbEntity
  8
0
  6
Continuous
 62
     7
370
    15
100
AcDbPolyline
 90
        9
 70
   128
 43
0.0
 10
275.6916891638
 20
32.2049267011
 10
275.1700385244
 20
31.5612422657
 10
274.6104079337
 20
30.9880283835
 10
274.0249881927
 20
30.4977717495
 10
273.4265318845
 20
30.1011519463
 10
272.8280755762
 20
29.8068088036
 10
272.2426558352
 20
29.6211541918
 10
271.6830252445
 20
29.5482323473
 10
271.1613746051
 20
29.5896317746
  0
LINE
  5
234
330
1F
100
AcDbEntity
  8
0
  6
Continuous
 62
     7
370
    15
100
AcDbLine
 10
276.113537653
 20
32.4484546503
 30
0.0
 11
275.6916891638
 21
32.2049267011
 31
0.0
  0
ARC
  5
235
330
1F
100
AcDbEntity
  8
0
  6
Continuous
 62
     7
370
    15
100
AcDbCircle
 10
275.2507812092
 20
33.9321816925
 30
0.0
 40
1.716331732791889
100
AcDbArc
 50
300.1771113865
 51
308.4969973883
  0
LINE
  5
236
330
1F
100
AcDbEntity
  8
0
  6
Continuous
 62
     7
370
    15
100
AcDbLine
 10
271.1613746051
 20
29.5896317746
 30
0.0
 11
270.7395261159
 21
29.3461038254
 31
0.0
  0
LINE
  5
237
330
1F
100
AcDbEntity
  8
0
  6
Continuous
 62
     7
370
    15
100
AcDbLine
 10
270.8581983741
 20
30.5984036239
 30
0.0
 11
271.2711307711
 21
30.3600228252
 31
0.0
  0
SPLINE
  5
238
330
1F
100
AcDbEntity
  8
0
  6
Continuous
 62
     7
370
    15
100
AcDbSpline
210
0.0
220
0.0
230
1.0
 70
     8
 71
     3
 72
     8
 73
     4
 74
     0
 42
0.000000001
 43
0.00000001
 40
0.0
 40
0.0
 40
0.0
 40
0.0
 40
1.0
 40
1.0
 40
1.0
 40
1.0
 10
271.2711307711222
 20
30.36002282519525
 30
0.0
 10
271.1986816472667
 20
30.1031786178942
 30
0.0
 10
271.1693075252126
 20
29.84639108978388
 30
0.0
 10
271.1613746051441
 20
29.58963177455634
 30
0.0
  0
ARC
  5
239
330
1F
100
AcDbEntity
  8
0
  6
Continuous
 62
     7
370
    15
100
AcDbCircle
 10
270.5637057228
 20
35.149116905
 30
0.0
 40
4.841061072136372
100
AcDbArc
 50
278.4027299562
 51
321.5918935111
  0
SPLINE
  5
23A
330
1F
100
AcDbEntity
  8
0
  6
Continuous
 62
     7
370
    15
100
AcDbSpline
210
0.0
220
0.0
230
1.0
 70
     8
 71
     3
 72
     8
 73
     4
 74
     0
 42
0.000000001
 43
0.00000001
 40
0.0
 40
0.0
 40
0.0
 40
0.0
 40
1.0
 40
1.0
 40
1.0
 40
1.0
 10
275.6916891637592
 20
32.20492670112706
 30
0.0
 10
275.2430593745021
 20
32.20030736458471
 30
0.0
 10
274.7973613939902
 20
32.18294402074849
 30
0.0
 10
274.3571881263895
 20
32.14156581518233
 30
0.0
  0
ARC
  5
23B
330
1F
100
AcDbEntity
  8
0
  6
Continuous
 62
     7
370
    15
100
AcDbCircle
 10
275.9455615738
 20
34.4135878981
 30
0.0
 40
1.299382666698308
100
AcDbArc
 50
359.5237711273
 51
10.3618866345
  0
ARC
  5
23C
330
1F
100
AcDbEntity
  8
0
  6
Continuous
 62
     7
370
    15
100
AcDbCircle
 10
272.1601972817
 20
36.9883507302
 30
0.0
 40
5.57854014421707
100
AcDbArc
 50
335.1873353003
 51
24.8126646997
  0
ARC
  5
23D
330
1F
100
AcDbEntity
  8
0
  6
Continuous
 62
     7
370
    15
100
AcDbCircle
 10
257.4365642736
 20
32.8310326381
 30
0.0
 40
9.173204828600669
100
AcDbArc
 50
195.1260264461
 51
212.9970328995
  0
SPLINE
  5
23E
330
1F
100
AcDbEntity
  8
0
  6
Continuous
 62
     7
370
    15
100
AcDbSpline
210
0.0
220
0.0
230
1.0
 70
     8
 71
     3
 72
     8
 73
     4
 74
     0
 42
0.000000001
 43
0.00000001
 40
0.0
 40
0.0
 40
0.0
 40
0.0
 40
1.0
 40
1.0
 40
1.0
 40
1.0
 10
246.9750446934659
 20
30.17400097292169
 30
0.0
 10
247.5105833965706
 20
30.26144983845072
 30
0.0
 10
248.0459739105057
 20
30.34920699926554
 30
0.0
 10
248.5811724846989
 20
30.4373486380464
 30
0.0
  0
LINE
  5
23F
330
1F
100
AcDbEntity
  8
0
  6
Continuous
 62
     7
370
    15
100
AcDbLine
 10
276.1984482114
 20
35.2391970216
 30
0.0
 11
277.2237530441
 21
34.6473011405
 31
0.0
  0
LINE
  5
240
330
1F
100
AcDbEntity
  8
0
  6
Continuous
 62
     7
370
    15
100
AcDbLine
 10
248.5811724847
 20
30.437348638
 30
0.0
 11
249.0988929764
 21
30.7362223162
 31
0.0
  0
SPLINE
  5
241
330
1F
100
AcDbEntity
  8
0
  6
Continuous
 62
     7
370
    15
100
AcDbSpline
210
0.0
220
0.0
230
1.0
 70
     8
 71
     3
 72
    10
 73
     6
 74
     0
 42
0.000000001
 43
0.00000001
 40
0.0
 40
0.0
 40
0.0
 40
0.0
 40
0.5
 40
0.5
 40
1.0
 40
1.0
 40
1.0
 40
1.0
 10
249.0988929763741
 20
30.73622231618535
 30
0.0
 10
249.1266127925756
 20
30.75222462545981
 30
0.0
 10
249.1584241625668
 20
30.76619317286198
 30
0.0
 10
249.2272715172876
 20
30.788536054497
 30
0.0
 10
249.2640452704439
 20
30.79687763334673
 30
0.0
 10
249.3021422382795
 20
30.80215376407094
 30
0.0
  0
LINE
  5
242
330
1F
100
AcDbEntity
  8
0
  6
Continuous
 62
     7
370
    15
100
AcDbLine
 10
274.3571881264
 20
32.1415658152
 30
0.0
 11
273.9442557294
 21
32.3799466139
 31
0.0
  0
SPLINE
  5
243
330
1F
100
AcDbEntity
  8
0
  6
Continuous
 62
     7
370
    15
100
AcDbSpline
210
0.0
220
0.0
230
1.0
 70
     8
 71
     3
 72
    15
 73
    11
 74
     0
 42
0.000000001
 43
0.00000001
 40
0.0
 40
0.0
 40
0.0
 40
0.0
 40
0.0970501748013054
 40
0.237011103857299
 40
0.3722741203855414
 40
0.5113888099879884
 40
0.6479731927123809
 40
0.7884372866459824
 40
0.9263832186806923
 40
0.9999999999999999
 40
0.9999999999999999
 40
0.9999999999999999
 40
0.9999999999999999
 10
240.9780697772639
 20
43.42335734440373
 30
0.0
 10
240.974550486292
 20
43.35674908081742
 30
0.0
 10
240.9659558491391
 20
43.19408169653987
 30
0.0
 10
241.0091487504367
 20
42.9168378140108
 30
0.0
 10
241.0980135283987
 20
42.60277846343389
 30
0.0
 10
241.2311458043575
 20
42.29016042630258
 30
0.0
 10
241.4039357622725
 20
41.98093422538107
 30
0.0
 10
241.6093584466371
 20
41.68892608062818
 30
0.0
 10
241.8026684289701
 20
41.45473319399428
 30
0.0
 10
241.9290064975403
 20
41.3338356172055
 30
0.0
 10
241.9729679396054
 20
41.29176728516629
 30
0.0
  0
SPLINE
  5
244
330
1F
100
AcDbEntity
  8
0
  6
Continuous
 62
     7
370
    15
100
AcDbSpline
210
0.0
220
0.0
230
1.0
 70
     8
 71
     3
 72
    12
 73
     8
 74
     0
 42
0.000000001
 43
0.00000001
 40
0.0
 40
0.0
 40
0.0
 40
0.0
 40
0.1742119672066228
 40
0.3355853874293688
 40
0.6190039662589699
 40
0.8689919604951264
 40
1.0
 40
1.0
 40
1.0
 40
1.0
 10
240.0082639184403
 20
41.03892947879467
 30
0.0
 10
240.0966521156919
 20
40.90935913553414
 30
0.0
 10
240.2669147439973
 20
40.65976713252971
 30
0.0
 10
240.631098379105
 20
40.25754432045457
 30
0.0
 10
241.0659766987852
 20
39.90712629840914
 30
0.0
 10
241.4514046066187
 20
39.70647374525823
 30
0.0
 10
241.638696379883
 20
39.68953138606157
 30
0.0
 10
241.7030979112843
 20
39.68370564231
 30
0.0
  0
SPLINE
  5
245
330
1F
100
AcDbEntity
  8
0
  6
Continuous
 62
     7
370
    15
100
AcDbSpline
210
0.0
220
0.0
230
1.0
 70
     8
 71
     3
 72
    16
 73
    12
 74
     0
 42
0.000000001
 43
0.00000001
 40
0.0
 40
0.0
 40
0.0
 40
0.0
 40
0.1459864682787611
 40
0.2334311618936711
 40
0.3277305154375097
 40
0.4369801942539158
 40
0.5295009820949319
 40
0.6638428914979189
 40
0.7988945757663216
 40
0.8912546655657119
 40
1.0
 40
1.0
 40
1.0
 40
1.0
 10
241.0589362312202
 20
43.39790383244831
 30
0.0
 10
240.8930943630082
 20
43.48082571846935
 30
0.0
 10
240.6279145799516
 20
43.61341713210192
 30
0.0
 10
240.2736656358758
 20
43.60268428583358
 30
0.0
 10
239.9901128425132
 20
43.50439245582899
 30
0.0
 10
239.7570230339085
 20
43.29824250099325
 30
0.0
 10
239.5776873926867
 20
42.96726598418115
 30
0.0
 10
239.4952193238479
 20
42.50807621495183
 30
0.0
 10
239.5769064830145
 20
41.98653874453584
 30
0.0
 10
239.7519941284745
 20
41.48371010064754
 30
0.0
 10
239.9183233801791
 20
41.19502984685965
 30
0.0
 10
240.0082639184403
 20
41.03892947879467
 30
0.0
  0
SPLINE
  5
246
330
1F
100
AcDbEntity
  8
0
  6
Continuous
 62
     7
370
    15
100
AcDbSpline
210
0.0
220
0.0
230
1.0
 70
     8
 71
     3
 72
     9
 73
     5
 74
     0
 42
0.000000001
 43
0.00000001
 40
0.0
 40
0.0
 40
0.0
 40
0.0
 40
0.0950624230754636
 40
0.9999999999999999
 40
0.9999999999999999
 40
0.9999999999999999
 40
0.9999999999999999
 10
273.5149202321001
 20
57.09896630148495
 30
0.0
 10
273.5381504336609
 20
57.10422257086675
 30
0.0
 10
273.7825183006829
 20
57.15951539017165
 30
0.0
 10
274.0282294200655
 20
57.21279917852301
 30
0.0
 10
274.2505826450632
 20
57.26101768084305
 30
0.0
  0
LINE
  5
247
330
1F
100
AcDbEntity
  8
0
  6
Continuous
 62
     7
370
    15
100
AcDbLine
 10
274.2505826451
 20
57.2610176808
 30
0.0
 11
275.4575183201
 21
56.5642685463
 31
0.0
  0
SPLINE
  5
248
330
1F
100
AcDbEntity
  8
0
  6
Continuous
 62
     7
370
    15
100
AcDbSpline
210
0.0
220
0.0
230
1.0
 70
     8
 71
     3
 72
    12
 73
     8
 74
     0
 42
0.000000001
 43
0.00000001
 40
0.0
 40
0.0
 40
0.0
 40
0.0
 40
0.2500000000000011
 40
0.2500000000000011
 40
0.4999999999999991
 40
0.4999999999999991
 40
1.0
 40
1.0
 40
1.0
 40
1.0
 10
275.4575183201409
 20
56.56426854634306
 30
0.0
 10
275.5107550014396
 20
56.53353566439709
 30
0.0
 10
275.5474859349332
 20
56.49391685398871
 30
0.0
 10
275.5833565308743
 20
56.4096127878342
 30
0.0
 10
275.5831466080147
 20
56.36488153094317
 30
0.0
 10
275.5417557376911
 20
56.23698822604499
 30
0.0
 10
275.4623019878624
 20
56.158826043026
 30
0.0
 10
275.3561918029779
 20
56.09756993716506
 30
0.0
  0
SPLINE
  5
249
330
1F
100
AcDbEntity
  8
0
  6
Continuous
 62
     7
370
    15
100
AcDbSpline
210
0.0
220
0.0
230
1.0
 70
     8
 71
     3
 72
    14
 73
    10
 74
     0
 42
0.000000001
 43
0.00000001
 40
0.0
 40
0.0
 40
0.0
 40
0.0
 40
0.0432229042603244
 40
0.2285170654091579
 40
0.4192106211167513
 40
0.6038789441005163
 40
0.794101085848893
 40
0.9752482191531039
 40
1.0
 40
1.0
 40
1.0
 40
1.0
 10
278.145526340856
 20
51.23673255658329
 30
0.0
 10
278.1502819344206
 20
51.23954572586944
 30
0.0
 10
278.1754244903011
 20
51.25441879376643
 30
0.0
 10
278.2161709293268
 20
51.28470432623642
 30
0.0
 10
278.258270345547
 20
51.32975385419983
 30
0.0
 10
278.2871084598746
 20
51.37877682046842
 30
0.0
 10
278.2992673344139
 20
51.42889675116243
 30
0.0
 10
278.3011025355841
 20
51.46539149269994
 30
0.0
 10
278.2945459868365
 20
51.48373966543226
 30
0.0
 10
278.2937578027007
 20
51.48594535919361
 30
0.0
  0
LINE
  5
24A
330
1F
100
AcDbEntity
  8
0
  6
Continuous
 62
     7
370
    15
100
AcDbLine
 10
235.1691433809
 20
45.6849328443
 30
0.0
 11
235.4821393066
 21
45.5042441424
 31
0.0
  0
SPLINE
  5
24B
330
1F
100
AcDbEntity
  8
0
  6
Continuous
 62
     7
370
    15
100
AcDbSpline
210
0.0
220
0.0
230
1.0
 70
     8
 71
     3
 72
     9
 73
     5
 74
     0
 42
0.000000001
 43
0.00000001
 40
0.0
 40
0.0
 40
0.0
 40
0.0
 40
0.7140681271130297
 40
0.9999999999999999
 40
0.9999999999999999
 40
0.9999999999999999
 40
0.9999999999999999
 10
232.9074505849634
 20
53.18373519756989
 30
0.0
 10
232.9093096616752
 20
53.2593377989064
 30
0.0
 10
232.9119131621553
 20
53.36521369290853
 30
0.0
 10
232.9418754146425
 20
53.48057302295434
 30
0.0
 10
232.950442577612
 20
53.51355793224931
 30
0.0
  0
SPLINE
  5
24C
330
1F
100
AcDbEntity
  8
0
  6
Continuous
 62
     7
370
    15
100
AcDbSpline
210
0.0
220
0.0
230
1.0
 70
     8
 71
     3
 72
     8
 73
     4
 74
     0
 42
0.000000001
 43
0.00000001
 40
0.0
 40
0.0
 40
0.0
 40
0.0
 40
1.0
 40
1.0
 40
1.0
 40
1.0
 10
232.9775598561616
 20
53.18764701328958
 30
0.0
 10
232.9440664889174
 20
53.04660601269568
 30
0.0
 10
232.9235183953273
 20
52.90248696220744
 30
0.0
 10
232.9123679565081
 20
52.75681695290432
 30
0.0
  0
SPLINE
  5
24D
330
1F
100
AcDbEntity
  8
0
  6
Continuous
 62
     7
370
    15
100
AcDbSpline
210
0.0
220
0.0
230
1.0
 70
     8
 71
     3
 72
    26
 73
    22
 74
     0
 42
0.000000001
 43
0.00000001
 40
0.0
 40
0.0
 40
0.0
 40
0.0
 40
0.2500000000000008
 40
0.2500000000000008
 40
0.3750000000000012
 40
0.3750000000000012
 40
0.4375000000000003
 40
0.4375000000000003
 40
0.4687500000000004
 40
0.4687500000000004
 40
0.5000000000000004
 40
0.5000000000000004
 40
0.5312500000000004
 40
0.5312500000000004
 40
0.5625000000000004
 40
0.5625000000000004
 40
0.6250000000000004
 40
0.6250000000000004
 40
0.7500000000000006
 40
0.7500000000000006
 40
1.0
 40
1.0
 40
1.0
 40
1.0
 10
232.950442577612
 20
53.51355793224932
 30
0.0
 10
233.001750179256
 20
53.70122200312212
 30
0.0
 10
233.0530842170934
 20
53.8870889726003
 30
0.0
 10
233.1302913581122
 20
54.1518800605732
 30
0.0
 10
233.155989919016
 20
54.23800739742435
 30
0.0
 10
233.1932941116509
 20
54.34983349289239
 30
0.0
 10
233.2060109950715
 20
54.38578971857756
 30
0.0
 10
233.2214400421084
 20
54.41717086039665
 30
0.0
 10
233.2259797484954
 20
54.42349304599263
 30
0.0
 10
233.231159549376
 20
54.41850680541038
 30
0.0
 10
233.2315390669318
 20
54.40650168828698
 30
0.0
 10
233.2288884830984
 20
54.37256445851076
 30
0.0
 10
233.2260736357158
 20
54.35100954371576
 30
0.0
 10
233.219318918048
 20
54.30589297723832
 30
0.0
 10
233.2152756156569
 20
54.2816649250001
 30
0.0
 10
233.2023898590903
 20
54.20835103393198
 30
0.0
 10
233.1927315579725
 20
54.15805605702779
 30
0.0
 10
233.16231400094
 20
54.00525391029287
 30
0.0
 10
233.1401753987207
 20
53.90138560211545
 30
0.0
 10
233.0728378809293
 20
53.59400892426918
 30
0.0
 10
233.02573001758
 20
53.39049218307289
 30
0.0
 10
232.9775598561615
 20
53.18764701328985
 30
0.0
  0
ARC
  5
24E
330
1F
100
AcDbEntity
  8
0
  6
Continuous
 62
     7
370
    15
100
AcDbCircle
 10
233.8811846255
 20
52.4238274379
 30
0.0
 40
0.9888681395001748
100
AcDbArc
 50
171.4694323953
 51
234.2977828939
  0
ARC
  5
24F
330
1F
100
AcDbEntity
  8
0
  6
Continuous
 62
     7
370
    15
100
AcDbCircle
 10
235.8654475336
 20
42.6690115284
 30
0.0
 40
2.962857979913029
100
AcDbArc
 50
122.487978997
 51
178.78430362
  0
LINE
  5
250
330
1F
100
AcDbEntity
  8
0
  6
Continuous
 62
     7
370
    15
100
AcDbLine
 10
234.2740294102
 20
45.1681945481
 30
0.0
 11
235.1691433809
 21
45.6849328443
 31
0.0
  0
SPLINE
  5
251
330
1F
100
AcDbEntity
  8
0
  6
Continuous
 62
     7
370
    15
100
AcDbSpline
210
0.0
220
0.0
230
1.0
 70
     8
 71
     3
 72
     9
 73
     5
 74
     0
 42
0.000000001
 43
0.00000001
 40
0.0
 40
0.0
 40
0.0
 40
0.0
 40
0.6507536851497459
 40
1.0
 40
1.0
 40
1.0
 40
1.0
 10
276.7145784169692
 20
44.96049639415453
 30
0.0
 10
276.7652344698088
 20
44.96872096694803
 30
0.0
 10
276.8430765996279
 20
44.98135950128322
 30
0.0
 10
276.9209471773887
 20
44.993939482593
 30
0.0
 10
276.9481431897069
 20
44.99833299470632
 30
0.0
  0
SPLINE
  5
252
330
1F
100
AcDbEntity
  8
0
  6
Continuous
 62
     7
370
    15
100
AcDbSpline
210
0.0
220
0.0
230
1.0
 70
     8
 71
     3
 72
     8
 73
     4
 74
     0
 42
0.000000001
 43
0.00000001
 40
0.0
 40
0.0
 40
0.0
 40
0.0
 40
1.0
 40
1.0
 40
1.0
 40
1.0
 10
232.9775598561616
 20
42.4843033774857
 30
0.0
 10
232.9440664889174
 20
42.54917755133513
 30
0.0
 10
232.9235183953273
 20
42.6054762999747
 30
0.0
 10
232.9123679565081
 20
42.66227056737819
 30
0.0
  0
LINE
  5
253
330
1F
100
AcDbEntity
  8
0
  6
Continuous
 62
     7
370
    15
100
AcDbLine
 10
232.9033458943
 20
43.5145192072
 30
0.0
 11
232.9042827178
 21
43.4659427398
 31
0.0
  0
ARC
  5
254
330
1F
100
AcDbEntity
  8
0
  6
Continuous
 62
     7
370
    15
100
AcDbCircle
 10
234.6239637871
 20
43.3795227264
 30
0.0
 40
1.725905554404535
100
AcDbArc
 50
122.7352634073
 51
175.5138696649
  0
LINE
  5
255
330
1F
100
AcDbEntity
  8
0
  6
Continuous
 62
     7
370
    15
100
AcDbLine
 10
234.2740294102
 20
45.1681945481
 30
0.0
 11
233.6906663157
 21
44.8313167244
 31
0.0
  0
SPLINE
  5
256
330
1F
100
AcDbEntity
  8
0
  6
Continuous
 62
     7
370
    15
100
AcDbSpline
210
0.0
220
0.0
230
1.0
 70
     8
 71
     3
 72
     9
 73
     5
 74
     0
 42
0.000000001
 43
0.00000001
 40
0.0
 40
0.0
 40
0.0
 40
0.0
 40
0.2987483432453474
 40
1.0
 40
1.0
 40
1.0
 40
1.0
 10
233.114792202669
 20
42.25342302745624
 30
0.0
 10
233.1017998219507
 20
42.27059084737475
 30
0.0
 10
233.0583104402953
 20
42.32805667206188
 30
0.0
 10
233.0108450439717
 20
42.41989887824409
 30
0.0
 10
232.9775598561613
 20
42.48430337748938
 30
0.0
  0
LWPOLYLINE
  5
257
330
1F
100
AcDbEntity
  8
0
  6
Continuous
 62
     7
370
     0
100
AcDbPolyline
 90
       26
 70
   128
 43
0.0
 10
251.4015155406
 20
36.2060141557
 10
251.7271087276
 20
37.6122175815
 10
252.1360636132
 20
39.0325579528
 10
252.6257582047
 20
40.4579288325
 10
253.1930528512
 20
41.8791915305
 10
253.8343103728
 20
43.2872336959
 10
254.5454193811
 20
44.673027741
 10
255.321820638
 20
46.0276887203
 10
256.158536288
 20
47.3425312966
 10
257.0502017729
 20
48.6091254262
 10
257.9911002265
 20
49.8193504077
 10
258.9751991282
 20
50.9654469476
 10
259.9961889797
 20
52.0400669084
 10
261.0475237587
 20
53.0363204212
 10
262.1224628876
 20
53.9478200591
 10
263.2141144512
 20
54.7687217903
 10
264.315479383
 20
55.4937624468
 10
265.41949634
 20
56.1182934687
 10
266.5190869758
 20
56.6383107084
 10
267.6072013231
 20
57.0504801028
 10
268.6768629943
 20
57.3521590495
 10
269.7212139101
 20
57.5414133501
 10
270.7335582698
 20
57.6170296104
 10
271.707405481
 20
57.578523021
 10
272.6365117737
 20
57.4261404646
 10
273.5149202321
 20
57.1608589341
  0
LWPOLYLINE
  5
258
330
1F
100
AcDbEntity
  8
0
  6
Continuous
 62
     7
370
     0
100
AcDbPolyline
 90
       27
 70
   128
 43
0.0
 10
250.6825011476
 20
36.1991400377
 10
250.9926576525
 20
37.5743809625
 10
251.3810530545
 20
38.9639268638
 10
251.845416724
 20
40.359654205
 10
252.383033907
 20
41.7534033115
 10
252.9907615962
 20
43.1370260741
 10
253.6650469057
 20
44.5024335838
 10
254.4019478414
 20
45.8416434213
 10
255.1971563474
 20
47.1468263239
 10
256.0460234908
 20
48.4103519561
 10
256.9435866408
 20
49.6248335186
 10
257.884598481
 20
50.7831709325
 10
258.8635576858
 20
51.8785923479
 10
259.8747410828
 20
52.904693733
 10
260.9122371109
 20
53.8554763135
 10
261.9699803807
 20
54.7253816426
 10
263.0417871337
 20
55.5093240963
 10
264.1213913939
 20
56.2027206052
 10
265.2024815995
 20
56.8015174481
 10
266.2787375015
 20
57.3022139502
 10
267.3438671134
 20
57.7018829492
 10
268.3916434949
 20
57.9981879079
 10
269.4159411556
 20
58.189396574
 10
270.4107718662
 20
58.2743911068
 10
271.3703196664
 20
58.2526746132
 10
272.2889748663
 20
58.1243740515
 10
273.1613668415
 20
57.8902394901
  0
LWPOLYLINE
  5
259
330
1F
100
AcDbEntity
  8
0
  6
Continuous
 62
     7
370
     0
100
AcDbPolyline
 90
        3
 70
   128
 43
0.0
 10
278.1455263409
 20
43.8878652496
 10
277.8571116872
 20
42.5264789182
 10
277.6198162684
 20
41.6069688914
  0
LWPOLYLINE
  5
25A
330
1F
100
AcDbEntity
  8
0
  6
Continuous
 62
     7
370
     0
100
AcDbPolyline
 90
       23
 70
   128
 43
0.0
 10
269.6255888985
 20
27.7590604698
 10
269.1308281573
 20
27.2687821004
 10
268.1002571455
 20
26.3239537277
 10
267.0492263997
 20
25.4610168683
 10
265.9841147168
 20
24.6852087613
 10
264.9113863526
 20
24.0012378535
 10
263.8375517887
 20
23.413255224
 10
262.7691282207
 20
22.9248293905
 10
261.7126000041
 20
22.5389246519
 10
260.6743793008
 20
22.2578830977
 10
259.6607671626
 20
22.0834103935
 10
258.6779152897
 20
22.0165654294
 10
257.7317886958
 20
22.0577538933
 10
256.8281295055
 20
22.2067258087
 10
255.9724221051
 20
22.4625770523
 10
255.1698598573
 20
22.8237548404
 10
254.4253135823
 20
23.2880671537
 10
253.7433019963
 20
23.8526960404
 10
253.1279642869
 20
24.5142147184
 10
252.5830349923
 20
25.2686083735
 10
252.1118213358
 20
26.1112985248
 10
251.717183154
 20
27.0371708124
 10
251.4015155406
 20
28.0406060368
  0
ARC
  5
25B
330
1F
100
AcDbEntity
  8
0
  6
Continuous
 62
     7
370
     0
100
AcDbCircle
 10
269.6196325211
 20
49.5749805038
 30
0.0
 40
8.686327492720476
100
AcDbArc
 50
11.0290475412
 51
48.66865979
  0
LWPOLYLINE
  5
25C
330
1F
100
AcDbEntity
  8
0
  6
Continuous
 62
     7
370
     0
100
AcDbPolyline
 90
       29
 70
   128
 43
0.0
 10
257.658050664
 20
35.7351309432
 10
257.6995015665
 20
36.6418959507
 10
257.8233683
 20
37.5858881608
 10
258.0281986403
 20
38.5560401281
 10
258.311591139
 20
39.5409777077
 10
258.6702232781
 20
40.5291534069
 10
259.0998904237
 20
41.5089817693
 10
259.5955551214
 20
42.4689752032
 10
260.1514061557
 20
43.3978786632
 10
260.7609266815
 20
44.2848016057
 10
261.416970628
 20
45.11934567
 10
262.1118464797
 20
45.89172659
 10
262.8374074525
 20
46.5928889056
 10
263.5851470075
 20
47.2146121297
 10
264.346298582
 20
47.749607126
 10
265.1119383697
 20
48.1916015674
 10
265.8730899442
 20
48.535413473
 10
266.6208294992
 20
48.7770119627
 10
267.346390472
 20
48.9135645151
 10
268.0412663237
 20
48.9434701763
 10
268.6973102702
 20
48.8663783298
 10
269.306830796
 20
48.683192807
 10
269.8626818304
 20
48.3960612907
 10
270.358346528
 20
48.0083501354
 10
270.7880136736
 20
47.5246048999
 10
271.1466458127
 20
46.9504970548
 10
271.4300383114
 20
46.2927574896
 10
271.6348686517
 20
45.5590975994
 10
271.7290371887
 20
45.0135585326
  0
LWPOLYLINE
  5
25D
330
1F
100
AcDbEntity
  8
0
  6
Continuous
 62
     7
370
     0
100
AcDbPolyline
 90
       15
 70
   128
 43
0.0
 10
263.7296873276
 20
31.1567767345
 10
263.5851470075
 20
31.0989295316
 10
262.8374074525
 20
30.8573310419
 10
262.1118464797
 20
30.7207784895
 10
261.416970628
 20
30.6908728283
 10
260.7609266815
 20
30.7679646748
 10
260.1514061557
 20
30.9511501976
 10
259.5955551214
 20
31.2382817139
 10
259.0998904237
 20
31.6259928692
 10
258.6702232781
 20
32.1097381047
 10
258.311591139
 20
32.6838459499
 10
258.0281986403
 20
33.341585515
 10
257.8233683
 20
34.0752454052
 10
257.6995015665
 20
34.876224129
 10
257.658050664
 20
35.7351309432
  0
LWPOLYLINE
  5
25E
330
1F
100
AcDbEntity
  8
0
  6
Continuous
 62
     7
370
     0
100
AcDbPolyline
 90
       27
 70
   128
 43
0.0
 10
241.5890490615
 20
36.8474869956
 10
241.6305448991
 20
38.1215538139
 10
241.7547888979
 20
39.4360539759
 10
241.9610519446
 20
40.7832734718
 10
242.2481236056
 20
42.155306282
 10
242.6143192304
 20
43.5441007724
 10
243.0574898374
 20
44.9415069446
 10
243.5750347252
 20
46.3393242637
 10
244.1639167347
 20
47.7293497817
 10
244.820680072
 20
49.1034262761
 10
245.5414705887
 20
50.4534901199
 10
246.3220583996
 20
51.7716186014
 10
247.1578627048
 20
53.0500764186
 10
248.0439786725
 20
54.2813610728
 10
248.9752062217
 20
55.4582468959
 10
249.946080539
 20
56.5738274539
 10
250.9509041477
 20
57.6215560766
 10
251.9837803434
 20
58.5952842758
 10
253.0386477979
 20
59.4892978273
 10
254.1093161295
 20
60.2983503039
 10
255.1895022307
 20
61.0176938642
 10
256.2728671399
 20
61.643107114
 10
257.353053241
 20
62.1709198797
 10
258.4237215726
 20
62.5980347461
 10
259.4785890271
 20
62.9219452334
 10
260.5114652228
 20
63.1407505059
 10
261.465682355
 20
63.2500122037
  0
ARC
  5
25F
330
1F
100
AcDbEntity
  8
0
  6
Continuous
 62
     7
370
     0
100
AcDbCircle
 10
254.8808645773
 20
36.4874820461
 30
0.0
 40
13.29668993651749
100
AcDbArc
 50
178.4485398102
 51
204.5580446997
  0
LWPOLYLINE
  5
260
330
1F
100
AcDbEntity
  8
0
  6
Continuous
 62
     7
370
     0
100
AcDbPolyline
 90
       21
 70
   128
 43
0.0
 10
249.0988929764
 20
38.901630435
 10
249.4302618451
 20
40.2307989788
 10
249.8414331891
 20
41.5707684722
 10
250.3296293067
 20
42.9124866414
 10
250.891552149
 20
44.2468893993
 10
251.5234056002
 20
45.5649620787
 10
252.2209211224
 20
46.8578003316
 10
252.9793865923
 20
48.1166702831
 10
253.7936781344
 20
49.3330675341
 10
254.6582947354
 20
50.4987746132
 10
255.5673954068
 20
51.6059164907
 10
256.5148386446
 20
52.6470137788
 10
257.4942239184
 20
53.6150332596
 10
258.4989349105
 20
54.503435398
 10
259.5221842136
 20
55.3062185205
 10
260.5570591831
 20
56.0179593599
 10
261.5965686363
 20
56.6338496927
 10
262.6336900818
 20
57.1497288213
 10
263.6614171607
 20
57.5621116818
 10
264.6728069785
 20
57.868212388
 10
264.8869630171
 20
57.9198147444
  0
LWPOLYLINE
  5
261
330
1F
100
AcDbEntity
  8
0
  6
Continuous
 62
     7
370
     0
100
AcDbPolyline
 90
       17
 70
   128
 43
0.0
 10
249.540464816
 20
38.2603158653
 10
249.8324858372
 20
39.5593568591
 10
250.2043178711
 20
40.8727785779
 10
250.6534230594
 20
42.1916165487
 10
251.1767361327
 20
43.506869331
 10
251.770685332
 20
44.8095599543
 10
252.4312167868
 20
46.0907971884
 10
253.1538221839
 20
47.3418362284
 10
253.9335695381
 20
48.5541383806
 10
254.7651368541
 20
49.7194293416
 10
255.642848451
 20
50.8297556725
 10
256.5607136999
 20
51.8775390835
 10
257.5124679121
 20
52.8556281579
 10
258.4916150972
 20
53.7573471623
 10
259.4914723
 20
54.5765416107
 10
260.5052152135
 20
55.3076202703
 10
261.1932196256
 20
55.7483572482
  0
LWPOLYLINE
  5
262
330
1F
100
AcDbEntity
  8
0
  6
Continuous
 62
     7
370
     0
100
AcDbPolyline
 90
       21
 70
   128
 43
0.0
 10
260.4864777887
 20
35.7351309432
 10
260.5277226253
 20
36.5463260306
 10
260.6508556923
 20
37.3933123416
 10
260.8540814325
 20
38.2637389085
 10
261.1344363568
 20
39.1449129521
 10
261.4878322592
 20
40.0239849704
 10
261.9091158316
 20
40.888136114
 10
262.392143811
 20
41.7247651133
 10
262.9298725617
 20
42.5216720336
 10
263.5144607876
 20
43.2672361775
 10
264.1373838761
 20
43.9505855408
 10
264.7895582057
 20
44.5617553512
 10
265.4614736063
 20
45.0918333765
 10
266.1433320382
 20
45.5330898856
 10
266.8251904702
 20
45.8790903648
 10
267.4971058707
 20
46.1247893481
 10
268.1492802004
 20
46.266603991
 10
268.7722032888
 20
46.3024663167
 10
269.3567915148
 20
46.2318533718
 10
269.8945202654
 20
46.0557948519
 10
270.1430069688
 20
45.9291542895
  0
ARC
  5
263
330
1F
100
AcDbEntity
  8
0
  6
Continuous
 62
     7
370
     0
100
AcDbCircle
 10
264.5631546466
 20
35.3733170742
 30
0.0
 40
4.092701244824625
100
AcDbArc
 50
174.9281649173
 51
233.7596546893
  0
LINE
  5
264
330
1F
100
AcDbEntity
  8
0
  6
Continuous
 62
     7
370
     0
100
AcDbLine
 10
242.8132283672
 20
36.5541570792
 30
0.0
 11
244.9654839417
 21
37.7966277756
 31
0.0
  0
LWPOLYLINE
  5
265
330
1F
100
AcDbEntity
  8
0
  6
Continuous
 62
     7
370
     0
100
AcDbPolyline
 90
       22
 70
   128
 43
0.0
 10
232.9123679565
 20
52.7568169529
 10
233.3600079949
 20
53.9712105662
 10
233.882974534
 20
55.1766598155
 10
234.4767002415
 20
56.3626369005
 10
235.1359998095
 20
57.5187840814
 10
235.85511524
 20
58.6350041377
 10
236.627766133
 20
59.7015485533
 10
237.447204536
 20
60.7091026542
 10
238.3062738774
 20
61.648866959
 10
239.1974714686
 20
62.5126340289
 10
240.1130140287
 20
63.2928601478
 10
241.0449056595
 20
63.9827312047
 10
241.9850076786
 20
64.5762222055
 10
242.9251096976
 20
65.0681498921
 10
243.8570013285
 20
65.4542180102
 10
244.7725438885
 20
65.7310548309
 10
245.6637414798
 20
65.8962425979
 10
246.5228108212
 20
65.9483386424
 10
247.3422492242
 20
65.8868879832
 10
248.1149001172
 20
65.7124273002
 10
248.8340155477
 20
65.426480247
 10
248.8486364692
 20
65.4192269206
  0
ARC
  5
266
330
1F
100
AcDbEntity
  8
0
  6
Continuous
 62
     7
370
     0
100
AcDbCircle
 10
237.5548054453
 20
45.1197779363
 30
0.0
 40
5.25276768057627
100
AcDbArc
 50
207.8948257703
 51
235.2210907549
  0
LINE
  5
267
330
1F
100
AcDbEntity
  8
0
  6
Continuous
 62
     7
370
     0
100
AcDbLine
 10
269.7142212832
 20
29.9379997065
 30
0.0
 11
270.7395261159
 21
29.3461038254
 31
0.0
  0
ARC
  5
268
330
1F
100
AcDbEntity
  8
0
  6
Continuous
 62
     7
370
     0
100
AcDbCircle
 10
259.6878342147
 20
30.1251428108
 30
0.0
 40
9.244999900878415
100
AcDbArc
 50
193.0746735474
 51
222.1022465005
  0
LINE
  5
269
330
1F
100
AcDbEntity
  8
0
  6
Continuous
 62
     7
370
     0
100
AcDbLine
 10
242.8132283672
 20
35.7376162673
 30
0.0
 11
244.9654839417
 21
36.9800869637
 31
0.0
  0
LINE
  5
26A
330
1F
100
AcDbEntity
  8
0
  6
Continuous
 62
     7
370
     0
100
AcDbLine
 10
246.4398604605
 20
30.4829562543
 30
0.0
 11
248.147464457
 21
31.4687350586
 31
0.0
  0
LINE
  5
26B
330
1F
100
AcDbEntity
  8
0
  6
Continuous
 62
     7
370
     0
100
AcDbLine
 10
250.5392050376
 20
30.045421381
 30
0.0
 11
250.3253533431
 21
30.7811318885
 31
0.0
  0
LWPOLYLINE
  5
26C
330
1F
100
AcDbEntity
  8
0
  6
Continuous
 62
     7
370
     0
100
AcDbPolyline
 90
        3
 70
   128
 43
0.0
 10
250.0490839186
 20
29.7254163777
 10
249.8324858372
 20
30.2723576911
 10
249.540464816
 20
31.2342383905
  0
LWPOLYLINE
  5
26D
330
1F
100
AcDbEntity
  8
0
  6
Continuous
 62
     7
370
     0
100
AcDbPolyline
 90
        3
 70
   128
 43
0.0
 10
249.6941704448
 20
29.2064161052
 10
249.4264646425
 20
29.798923853
 10
249.0988929764
 20
30.7362223162
  0
LINE
  5
26E
330
1F
100
AcDbEntity
  8
0
  6
Continuous
 62
     7
370
     0
100
AcDbLine
 10
275.0882328202
 20
33.0403505314
 30
0.0
 11
276.113537653
 21
32.4484546503
 31
0.0
  0
LINE
  5
26F
330
1F
100
AcDbEntity
  8
0
  6
Continuous
 62
     7
370
     0
100
AcDbLine
 10
271.0890886885
 20
59.0861092938
 30
0.0
 11
270.7366147225
 21
58.8826304044
 31
0.0
  0
ARC
  5
270
330
1F
100
AcDbEntity
  8
0
  6
Continuous
 62
     7
370
     0
100
AcDbCircle
 10
237.3947721012
 20
50.8316529228
 30
0.0
 40
1.481847380531581
100
AcDbArc
 50
159.3804585659
 51
213.4234454268
  0
ARC
  5
271
330
1F
100
AcDbEntity
  8
0
  6
Continuous
 62
     7
370
     0
100
AcDbCircle
 10
235.5615118292
 20
50.5384903091
 30
0.0
 40
0.929227379988041
100
AcDbArc
 50
44.6915000058
 51
61.2926903386
  0
LINE
  5
272
330
1F
100
AcDbEntity
  8
0
  6
Continuous
 62
     7
370
     0
100
AcDbLine
 10
236.0078526324
 20
51.3535016042
 30
0.0
 11
236.1069438806
 21
51.7250911321
 31
0.0
  0
LINE
  5
273
330
1F
100
AcDbEntity
  8
0
  6
Continuous
 62
     7
370
     0
100
AcDbLine
 10
236.0078526324
 20
51.3535016042
 30
0.0
 11
235.1887036143
 21
51.8263862667
 31
0.0
  0
LINE
  5
274
330
1F
100
AcDbEntity
  8
0
  6
Continuous
 62
     7
370
     0
100
AcDbLine
 10
232.9775598562
 20
53.1876470133
 30
0.0
 11
232.9504425776
 21
53.5135579322
 31
0.0
  0
ARC
  5
275
330
1F
100
AcDbEntity
  8
0
  6
Continuous
 62
     7
370
     0
100
AcDbCircle
 10
235.7167598649
 20
40.0340641341
 30
0.0
 40
0.5950779720698782
100
AcDbArc
 50
31.8746821496
 51
60.714125574
  0
ARC
  5
276
330
1F
100
AcDbEntity
  8
0
  6
Continuous
 62
     7
370
     0
100
AcDbCircle
 10
237.6670654728
 20
41.0835848766
 30
0.0
 40
1.741957873065845
100
AcDbArc
 50
166.6109710952
 51
197.7306259078
  0
LINE
  5
277
330
1F
100
AcDbEntity
  8
0
  6
Continuous
 62
     7
370
     0
100
AcDbLine
 10
235.4732732412
 20
44.4758858206
 30
0.0
 11
234.2740294102
 21
45.1681945481
 31
0.0
  0
LINE
  5
278
330
1F
100
AcDbEntity
  8
0
  6
Continuous
 62
     7
370
     0
100
AcDbLine
 10
236.0078526324
 20
40.5530851294
 30
0.0
 11
235.1887036143
 21
41.0259697919
 31
0.0
  0
LINE
  5
279
330
1F
100
AcDbEntity
  8
0
  6
Continuous
 62
     7
370
     0
100
AcDbLine
 10
236.0078526324
 20
40.5530851294
 30
0.0
 11
236.1069438806
 21
40.2959039214
 31
0.0
  0
OLE2FRAME
  5
27A
330
1F
100
AcDbEntity
  8
0
100
AcDbOle2Frame
 70
     2
  3
Paintbrush-Bild
 10
13.8511154363
 20
38.264191557
 30
0.0
 11
51.6290888628
 21
31.9806341108
 31
0.0
 71
     2
 72
     0
 73
     1
 90
    12928
310
80552BED0767C5B32B40DDAF6807D121434000000000000000006FFBDDFB85D0
310
4940DDAF6807D121434000000000000000006FFBDDFB85D04940416F4BD60AFB
310
3F4000000000000000002BED0767C5B32B40416F4BD60AFB3F40000000000000
310
0000000000000100000000010000010000000100000000000100000000320000
310
D0CF11E0A1B11AE1000000000000000000000000000000003E000300FEFF0900
310
0600000000000000000000000100000001000000000000000010000002000000
310
01000000FEFFFFFF0000000000000000FFFFFFFFFFFFFFFFFFFFFFFFFFFFFFFF
310
FFFFFFFFFFFFFFFFFFFFFFFFFFFFFFFFFFFFFFFFFFFFFFFFFFFFFFFFFFFFFFFF
310
FFFFFFFFFFFFFFFFFFFFFFFFFFFFFFFFFFFFFFFFFFFFFFFFFFFFFFFFFFFFFFFF
310
FFFFFFFFFFFFFFFFFFFFFFFFFFFFFFFFFFFFFFFFFFFFFFFFFFFFFFFFFFFFFFFF
310
FFFFFFFFFFFFFFFFFFFFFFFFFFFFFFFFFFFFFFFFFFFFFFFFFFFFFFFFFFFFFFFF
310
FFFFFFFFFFFFFFFFFFFFFFFFFFFFFFFFFFFFFFFFFFFFFFFFFFFFFFFFFFFFFFFF
310
FFFFFFFFFFFFFFFFFFFFFFFFFFFFFFFFFFFFFFFFFFFFFFFFFFFFFFFFFFFFFFFF
310
FFFFFFFFFFFFFFFFFFFFFFFFFFFFFFFFFFFFFFFFFFFFFFFFFFFFFFFFFFFFFFFF
310
FFFFFFFFFFFFFFFFFFFFFFFFFFFFFFFFFFFFFFFFFFFFFFFFFFFFFFFFFFFFFFFF
310
FFFFFFFFFFFFFFFFFFFFFFFFFFFFFFFFFFFFFFFFFFFFFFFFFFFFFFFFFFFFFFFF
310
FFFFFFFFFFFFFFFFFFFFFFFFFFFFFFFFFFFFFFFFFFFFFFFFFFFFFFFFFFFFFFFF
310
FFFFFFFFFFFFFFFFFFFFFFFFFFFFFFFFFFFFFFFFFFFFFFFFFFFFFFFFFFFFFFFF
310
FFFFFFFFFFFFFFFFFFFFFFFFFFFFFFFFFFFFFFFFFFFFFFFFFFFFFFFFFFFFFFFF
310
FFFFFFFFFFFFFFFFFFFFFFFFFFFFFFFFFFFFFFFFFFFFFFFFFFFFFFFFFFFFFFFF
310
FDFFFFFFFEFFFFFFFEFFFFFFFEFFFFFF05000000060000000700000008000000
310
090000000A0000000B0000000C0000000D0000000E0000000F00000010000000
310
11000000120000001300000014000000150000001600000017000000FEFFFFFF
310
FFFFFFFFFFFFFFFFFFFFFFFFFFFFFFFFFFFFFFFFFFFFFFFFFFFFFFFFFFFFFFFF
310
FFFFFFFFFFFFFFFFFFFFFFFFFFFFFFFFFFFFFFFFFFFFFFFFFFFFFFFFFFFFFFFF
310
FFFFFFFFFFFFFFFFFFFFFFFFFFFFFFFFFFFFFFFFFFFFFFFFFFFFFFFFFFFFFFFF
310
FFFFFFFFFFFFFFFFFFFFFFFFFFFFFFFFFFFFFFFFFFFFFFFFFFFFFFFFFFFFFFFF
310
FFFFFFFFFFFFFFFFFFFFFFFFFFFFFFFFFFFFFFFFFFFFFFFFFFFFFFFFFFFFFFFF
310
FFFFFFFFFFFFFFFFFFFFFFFFFFFFFFFFFFFFFFFFFFFFFFFFFFFFFFFFFFFFFFFF
310
FFFFFFFFFFFFFFFFFFFFFFFFFFFFFFFFFFFFFFFFFFFFFFFFFFFFFFFFFFFFFFFF
310
FFFFFFFFFFFFFFFFFFFFFFFFFFFFFFFFFFFFFFFFFFFFFFFFFFFFFFFFFFFFFFFF
310
FFFFFFFFFFFFFFFFFFFFFFFFFFFFFFFFFFFFFFFFFFFFFFFFFFFFFFFFFFFFFFFF
310
FFFFFFFFFFFFFFFFFFFFFFFFFFFFFFFFFFFFFFFFFFFFFFFFFFFFFFFFFFFFFFFF
310
FFFFFFFFFFFFFFFFFFFFFFFFFFFFFFFFFFFFFFFFFFFFFFFFFFFFFFFFFFFFFFFF
310
FFFFFFFFFFFFFFFFFFFFFFFFFFFFFFFFFFFFFFFFFFFFFFFFFFFFFFFFFFFFFFFF
310
FFFFFFFFFFFFFFFFFFFFFFFFFFFFFFFFFFFFFFFFFFFFFFFFFFFFFFFFFFFFFFFF
310
52006F006F007400200045006E00740072007900000000000000000000000000
310
0000000000000000000000000000000000000000000000000000000000000000
310
16000500FFFFFFFFFFFFFFFF020000000A00030000000000C000000000000046
310
000000000000000000000000602FCC789A03D20103000000C000000000000000
310
01004F006C006500000000000000000000000000000000000000000000000000
310
0000000000000000000000000000000000000000000000000000000000000000
310
0A000200FFFFFFFFFFFFFFFFFFFFFFFF00000000000000000000000000000000
310
0000000000000000000000000000000000000000000000001400000000000000
310
010043006F006D0070004F0062006A0000000000000000000000000000000000
310
0000000000000000000000000000000000000000000000000000000000000000
310
120002010100000003000000FFFFFFFF00000000000000000000000000000000
310
0000000000000000000000000000000000000000010000004D00000000000000
310
01004F006C006500310030004E00610074006900760065000000000000000000
310
0000000000000000000000000000000000000000000000000000000000000000
310
1A000200FFFFFFFFFFFFFFFFFFFFFFFF00000000000000000000000000000000
310
0000000000000000000000000000000000000000040000002426000000000000
310
FEFFFFFF02000000FEFFFFFFFFFFFFFFFFFFFFFFFFFFFFFFFFFFFFFFFFFFFFFF
310
FFFFFFFFFFFFFFFFFFFFFFFFFFFFFFFFFFFFFFFFFFFFFFFFFFFFFFFFFFFFFFFF
310
FFFFFFFFFFFFFFFFFFFFFFFFFFFFFFFFFFFFFFFFFFFFFFFFFFFFFFFFFFFFFFFF
310
FFFFFFFFFFFFFFFFFFFFFFFFFFFFFFFFFFFFFFFFFFFFFFFFFFFFFFFFFFFFFFFF
310
FFFFFFFFFFFFFFFFFFFFFFFFFFFFFFFFFFFFFFFFFFFFFFFFFFFFFFFFFFFFFFFF
310
FFFFFFFFFFFFFFFFFFFFFFFFFFFFFFFFFFFFFFFFFFFFFFFFFFFFFFFFFFFFFFFF
310
FFFFFFFFFFFFFFFFFFFFFFFFFFFFFFFFFFFFFFFFFFFFFFFFFFFFFFFFFFFFFFFF
310
FFFFFFFFFFFFFFFFFFFFFFFFFFFFFFFFFFFFFFFFFFFFFFFFFFFFFFFFFFFFFFFF
310
FFFFFFFFFFFFFFFFFFFFFFFFFFFFFFFFFFFFFFFFFFFFFFFFFFFFFFFFFFFFFFFF
310
FFFFFFFFFFFFFFFFFFFFFFFFFFFFFFFFFFFFFFFFFFFFFFFFFFFFFFFFFFFFFFFF
310
FFFFFFFFFFFFFFFFFFFFFFFFFFFFFFFFFFFFFFFFFFFFFFFFFFFFFFFFFFFFFFFF
310
FFFFFFFFFFFFFFFFFFFFFFFFFFFFFFFFFFFFFFFFFFFFFFFFFFFFFFFFFFFFFFFF
310
FFFFFFFFFFFFFFFFFFFFFFFFFFFFFFFFFFFFFFFFFFFFFFFFFFFFFFFFFFFFFFFF
310
FFFFFFFFFFFFFFFFFFFFFFFFFFFFFFFFFFFFFFFFFFFFFFFFFFFFFFFFFFFFFFFF
310
FFFFFFFFFFFFFFFFFFFFFFFFFFFFFFFFFFFFFFFFFFFFFFFFFFFFFFFFFFFFFFFF
310
FFFFFFFFFFFFFFFFFFFFFFFFFFFFFFFFFFFFFFFFFFFFFFFFFFFFFFFFFFFFFFFF
310
0100000200000000000000000000000000000000000000000000000000000000
310
0000000000000000000000000000000000000000000000000000000000000000
310
0100FEFF030A0000FFFFFFFF0A00030000000000C00000000000004607000000
310
5042727573680007000000504272757368000700000050427275736800F439B2
310
7100000000000000000000000000000000000000000000000000000000000000
310
0000000000000000000000000000000000000000000000000000000000000000
310
0000000000000000000000000000000000000000000000000000000000000000
310
0000000000000000000000000000000000000000000000000000000000000000
310
0000000000000000000000000000000000000000000000000000000000000000
310
0000000000000000000000000000000000000000000000000000000000000000
310
0000000000000000000000000000000000000000000000000000000000000000
310
0000000000000000000000000000000000000000000000000000000000000000
310
0000000000000000000000000000000000000000000000000000000000000000
310
0000000000000000000000000000000000000000000000000000000000000000
310
0000000000000000000000000000000000000000000000000000000000000000
310
0000000000000000000000000000000000000000000000000000000000000000
310
20260000424D0E260000000000003E00000028000000B40200006E0000000100
310
01000000000000000000130B0000130B00000200000002000000000000FFFFFF
310
FFFFFFFFFFFFFFFFFFFFFFFFFFFFFFFFFFFFFFFFFFFFFFFFFFFFFFFFFFFFFFFF
310
FFFFFFFFFFFFFFFFFFFFFFFFFFFFFFFFFFFFFFFFFFFFFFFFFFFFFFFFFFFFFFFF
310
FFFFFFFFFFFFFFFFFFFFFFFFFFFFFFFFFFFFFFFFFFFFFFFFF000FFFFFFFFFFFF
310
FFFFFFFFFFFFFFFFFFFFFFFFFFFFFFFFFFFFFFFFFFFFFFFFFFFFFFFFFFFFFFFF
310
FFFFFFFFFFFFFFFFFFFFFFFFFFFFFFFFFFFFFFFFFFFFFFFFFFFFFFFFFFFFFFFF
310
FFFFFFFFFFFFFFFFFFFFFFFFFFFFFFFFF000FFFFFFFFFFFFFFFFFFFFFFFFFFFF
310
FFFFFFFFFFFFFFFFFFFFFFFFFFFFFFFFFFFFFFFFFFFFFFFFFFFFFFFFFFFFFFFF
310
FFFFFFFFFFFFFFFFFFFFFFFFFFFFFFFFFFFFFFFFFFFFFFFFFFFFFFFFFFFFFFFF
310
FFFFFFFFFFFFFFFFF000FFFFFFFFFFFFFFFFFFFFFFFFFFFFFFFFFFFFFFFFFFFF
310
FFFFFFFFFFFFFFFFFFFFFFFFFFFFFFFFFFFFFFFFFFFFFFFFFFFFFFFFFFFFFFFF
310
FFFFFFFFFFFFFFFFFFFFFFFFFFFFFFFFFFFFFFFFFFFFFFFFFFFFFFFFFFFFFFFF
310
F000FFFFFFFFFFFFFFFFFFFFFFFFFFFFFFFFFFFFFFFFFFFFFFFFFFFFFFFFFFFF
310
FFFFFFFFFFFFFFFFFFFFFFFFFFFFFFFFFFFFFFFFFFFFFFFFFFFFFFFFFFFFFFFF
310
FFFFFFFFFFFFFFFFFFFFFFFFFFFFFFFFFFFFFFFFFFFFFFFFF000FFFFFFFFFFFF
310
FFFFFFFFFFFFFFFFFFFFFFFFFFFFFFFFFFFFFFFFFFFFFFFFFFFFFFFFFFFFFFFF
310
FFFFFFFFFFFFFFFFFFFFFFFFFFFFFFFFFFFFFFFFFFFFFFFFFFFFFFFFFFFFFFFF
310
FFFFFFFFFFFFFFFFFFFFFFFFFFFFFFFFF000FFFFFFFFFFFFFFFFFFFFFFFFFFFF
310
FFFFFFFFFFFFFFFFFFFFFFFFFFFFFFFFFFFFFFFFFFFFFFFFFFFFFFFFFFFFFFFF
310
FFFFFFFFFFFFFFFFFFFFFFFFFFFFFFFFFFFFFFFFFFFFFFFFFFFFFFFFFFFFFFFF
310
FFFFFFFFFFFFFFFFF000FFFFFFFFFFFFFFFFFFFFFFFFFFFFFFFFFFFFFFFFFFFF
310
FFFFFFFFFFFFFFFFFFFFFFFFFFFFFFFFFFFFFFFFFFFFFFFFFFFFFFFFFFFFFFFF
310
FFFFFFFFFFFFFFFFFFFFFFFFFFFFFFFFFFFFFFFFFFFFFFFFFFFFFFFFFFFFFFFF
310
F000FFFFFFFFFFFFFFFFFFFFFFFFFFFFFFFFFFFFFFFFFFFFFFFFFFFFFFFFFFFF
310
FFFFFFFFFFFFFFFFFFFFFFFFFFFFFFFFFFFFFFFFFFFFFFFFFFFFFFFFFFFFFFFF
310
FFFFFFFFFFFFFFFFFFFFFFFFFFFFFFFFFFFFFFFFFFFFFFFFF000FFFFFFFFFFFF
310
FFFFFFFFFFFFFFFFFFFFFFFFFFFFFFFFFFFFFFFFFFFFFFFFFFFFFFFFFFFFFFFF
310
FFFFFFFFFFFFFFFFFFFFFFFFFFFFFFFFFFFFFFFFFFFFFFFFFFFFFFFFFFFFFFFF
310
FFFFFFFFFFFFFFFFFFFFFFFFFFFFFFFFF000FFFFFFFFFFFFFFFFFFFFFFFFFFFF
310
FFFFFFFFFFFFFFFFFFFFFFFFFFFFFFFFFFFFFFFFFFFFFFFFFFFFFFFFFFFFFFFF
310
FFFFFFFFFFFFFFFFFFFFFFFFFFFFFFFFFFFFFFFFFFFFFFFFFFFFFFFFFFFFFFFF
310
FFFFFFFFFFFFFFFFF000FFFFFFFFFFFFFFFFFFFFFFFFFFFFFFFFFFFFFFFFFFFF
310
FFFFFFFFFFFFFFFFFFFFFFFFFFFFFFFFFFFFFFFFFFFFFFFFFFFFFFFFFFFFFFFF
310
FFFFFFFFFFFFFFFFFFFFFFFFFFFFFFFFFFFFFFFFFFFFFFFFFFFFFFFFFFFFFFFF
310
F000FFFFFFFFFFFFFFFFFFFFFFFFFFFFFFFFFFFFFFFFFFFFFFFFFFFFFFFFFFFF
310
FFFFFFFFFFFFFFFFFFFFFFFFFFFFFFFFFFFFFFFFFFFFFFFFFFFFFFFFFFFFFFFF
310
FFFFFFFFFFFFFFFFFFFFFFFFFFFFFFFFFFFFFFFFFFFFFFFFF000FFFFFFFFFFFF
310
FFFFFFFFFFFFFFFFFFFFFFFFFFFFFFFFFFFFFFFFFFFFFFFFFFFFFFFFFFFFFFFF
310
FFFFFFFFFFFFFFFFFFFFFFFFFFFFFFFFFFFFFFFFFFFFFFFFFFFFFFFFFFFFFFFF
310
FFFFFFFFFFFFFFFFFFFFFFFFFFFFFFFFF000FFFFFFFFFFFFFFFFFFFFFFFFFFFF
310
FFFFFFFFFFFFFFFFFFFFFFFFFFFFFFFFFFFFFFFFFFFFFFFFFFFFFFFFFFFFFFFF
310
FFFFFFFFFFFFFFFFFFFFFFFFFFFFFFFFFFFFFFFFFFFFFFFFFFFFFFFFFFFFFFFF
310
FFFFFFFFFFFFFFFFF000FFFFFFFFFFFFFFFFFFFFFFFFFFFFFFFFFFFFFFFFFFFF
310
FFFFFFFFFFFFFFFFFFFFFFFFFFFFFFFFFFFFFFFFFFFFFFFFFFFFFFFFFFFFFFFF
310
FFFFFFFFFFFFFFFFFFFFFFFFFFFFFFFFFFFFFFFFFFFFFFFFFFFFFFFFFFFFFFFF
310
F000FFFFFFFFFFFFFFFFFFFFFFFFFFFFFFFFFFFFFFFFFFFFFFFFFFFFFFFFFFFF
310
FFFFFFFFFFFFFFFFFFFFFFFFFFFFFFFFFFFFFFFFFFFFFFFFFFFFFFFFFFFFFFFF
310
FFFFFFFFFFFFFFFFFFFFFFFFFFFFFFFFFFFFFFFFFFFFFFFFF000FFFFFFFFFFFF
310
FFFFFFFFFFFFFFFFFFFFFFFFFFFFFFFFFFFFFFFFFFFFFFFFFFFFFFFFFFFFFFFF
310
FFFFFFFFFFFFFFFFFFFFFFFFFFFFFFFFFFFFFFFFFFFFFFFFFFFFFFFFFFFFFFFF
310
FFFFFFFFFFFFFFFFFFFFFFFFFFFFFFFFF000FFFFFFFFFFFFFFFFFFFFFFFFFFFF
310
FFFFFFFFFFFFFFFFFFFFFFFFFFFFFFFFFFFFFFFFFFFFFFFFFFFFFFFFFFFFFFFF
310
FFFFFFFFFFFFFFFFFFFFFFFFFFFFFFFFFFFFFFFFFFFFFFFFFFFFFFFFFFFFFFFF
310
FFFFFFFFFFFFFFFFF000FFFFF80003FFFFFFFFFFFFFFFFFFFFFFFFFFFFFFFFFF
310
FFFFF00007FFFFFFFFFF00007FFFFFF800000000000000007FFFFFFFFFFFFFFF
310
FFFFFFFC001FFFFFFFFFFFFFFC001FFFFFFFFFFFFFFFFFFFFFFFFFFE0007FFFF
310
F000FFFF8000007FFFFFFFF8000FFFFFC0007FFFFF80007FFFFF0000007FFFFF
310
FFF8000007FFFFF800000000000000007FFFFFF0001FFFFFFFFFFFC00001FFFF
310
FFFFFFFFC00001FFFFFFFF000000000003FFFFE000007FFFF000FFFE0000000F
310
FFFFFFF0000FFFFF80007FFFFF80007FFFFC0000001FFFFFFFC0000001FFFFF8
310
00000000000000007FFFFFF0001FFFFFFFFFFE0000003FFFFFFFFFFE0000003F
310
FFFFFF000000000003FFFF0000000FFFF000FFF800000003FFFFFFF00007FFFF
310
80007FFFFF80007FFFF000000007FFFFFF000000003FFFF80000000000000000
310
7FFFFFF0001FFFFFFFFFF80000000FFFFFFFFFF80000000FFFFFFF0000000000
310
03FFFC00000003FFF000FFE000000000FFFFFFF00007FFFF80003FFFFF80007F
310
FFC000000001FFFFFC000000001FFFF800000000000000007FFFFFF0001FFFFF
310
FFFFE000000003FFFFFFFFE000000003FFFFFF000000000003FFF000000000FF
310
F000FF80000000007FFFFFF00007FFFF80003FFFFF80007FFF8000000000FFFF
310
F80000000007FFF800000000000000007FFFFFF0001FFFFFFFFFC000000001FF
310
FFFFFFC000000001FFFFFF000000000003FFC0000000007FF000FF0000000000
310
3FFFFFE00007FFFF00003FFFFF80007FFE00000000003FFFF00000000003FFF8
310
00000000000000007FFFFFF0001FFFFFFFFF8000000000FFFFFFFF8000000000
310
FFFFFF000000000003FF80000000003FF000FE00000000001FFFFFE00003FFFF
310
00003FFFFF80007FFC00000000001FFFE00000000001FFF8000001FFFE000000
310
7FFFFFF0001FFFFFFFFE00000000003FFFFFFE00000000003FFFFF0000000000
310
03FF00000000001FF000FC00000000000FFFFFE00003FFFF00001FFFFF80007F
310
F800000000001FFFC00000000000FFF8000001FFFE0000007FFFFFF0001FFFFF
310
FFFC00000000001FFFFFFC00000000001FFFFF000000000003FE00000000000F
310
F000F8000000000007FFFFE00003FFFF00001FFFFF80007FF800000000000FFF
310
800000000000FFF8000001FFFE0000007FFFFFF0001FFFFFFFF800000000000F
310
FFFFF800000000000FFFFF000000000003FC000000000007F000F80000000000
310
03FFFFC00003FFFE00001FFFFF80007FF0000000000007FF0000000000007FF8
310
000001FFFE0000007FFFFFF0001FFFFFFFF0000000000007FFFFF00000000000
310
07FFFF000000000003F8000000000003F000F0000000000003FFFFC00001FFFE
310
00001FFFFF80007FE0000000000007FE0000000000003FF8000001FFFE000000
310
7FFFFFF0001FFFFFFFF0000000000007FFFFF0000000000007FFFF0000000000
310
03F800001F800003F000E00001FFF00001FFFFC00001FFFE00000FFFFF80007F
310
E00001FFE00003FE00001FFF00003FF8000001FFFE0000007FFFFFF0001FFFFF
310
FFE000003E000003FFFFE000003E000003FFFF000000000003F00001FFF80001
310
F000E00007FFFC0001FFFFC00001FFFE00000FFFFF80007FC0000FFFFC0003FC
310
0000FFFFC0001FF8000001FFFE0000007FFFFFF0001FFFFFFFC00003FFE00001
310
FFFFC00003FFE00001FFFF0001FFFFFFFFF00007FFFE0001F000E0000FFFFF00
310
00FFFF800001FFFC00000FFFFF80007FC0001FFFFE0001FC0001FFFFE0001FF8
310
000001FFFE0000007FFFFFF0001FFFFFFF80000FFFF80000FFFF80000FFFF800
310
00FFFF0003FFFFFFFFE0000FFFFF8000F000C0003FFFFF8000FFFF800000FFFC
310
000007FFFF80007F80003FFFFF0001FC0003FFFFF0001FF8000001FFFE000000
310
7FFFFFF0001FFFFFFF80003FFFFE0000FFFF80003FFFFE0000FFFF0003FFFFFF
310
FFE0003FFFFF8000F000C0003FFFFF8000FFFF800000FFFC000007FFFF80007F
310
80007FFFFF8001F80007FFFFF8000FF8000001FFFE0000007FFFFFF0001FFFFF
310
FF00007FFFFF00007FFF00007FFFFF00007FFF0003FFFFFFFFE0003FFFFFC000
310
F000C0007FFFFFC000FFFF000000FFFC000007FFFF80007F8000FFFFFF8000F8
310
000FFFFFF8000FF8000001FFFE0000007FFFFFF0001FFFFFFF0000FFFFFF8000
310
7FFF0000FFFFFF80007FFF0003FFFFFFFFC0007FFFFFC00070008000FFFFFFC0
310
00FFFF000000FFF8000007FFFF80007F8000FFFFFF8000F8000FFFFFF8000FF8
310
000001FFFE0000007FFFFFF0001FFFFFFE0001FFFFFFC0003FFE0001FFFFFFC0
310
003FFF0003FFFFFFFFC0007FFFFFE00070008000FFFFFFC0007FFF0000007FF8
310
000003FFFF80007F0001FFFFFF8000F8000FFFFFF8000FF8000001FFFE000000
310
7FFFFFF0001FFFFFFE0001FFFFFFC0003FFE0001FFFFFFC0003FFF0003FFFFFF
310
FFC000FFFFFFE00070008000FFFFFFC0007FFF0000007FF8000003FFFF80007F
310
0001FFFFFF8000F8001FFFFFF8000FF8000001FFFE0000007FFFFFF0001FFFFF
310
FE0003FFFFFFE0003FFE0003FFFFFFE0003FFF0003FFFFFFFFC000FFFFFFE000
310
70008000FFFFFFC0007FFE0000007FF8000003FFFF80007F0001FFFFFF8000F0
310
001FFFFFF8000FF8000001FFFE0000007FFFFFF0001FFFFFFC0003FFFFFFE000
310
1FFC0003FFFFFFE0001FFF0003FFFFFFFFC000FFFFFFC00070008000FFFFFF80
310
007FFE0000007FF0000003FFFF80007F0001FFFFFF0000F0001FFFFFF8000FF8
310
000001FFFE0000007FFFFFF0001FFFFFFC0007FFFFFFF0001FFC0007FFFFFFF0
310
001FFF0003FFFFFFFFC000FFFFFFC00070008001FFFFFF0000FFFE0000003FF0
310
000001FFFF80007F0001FFFFFF0000F8001FFFFFF0000FF8000001FFFE000000
310
7FFFFFF0001FFFFFFC0007FFFFFFF0001FFC0007FFFFFFF0001FFF0003FFFFFF
310
FFC001FFFFFF80007000FFFFFFFFFE0000FFFE0008003FF0008001FFFF80007F
310
FFFFFFFFFC0000FFFFFFFFFFE0000FF8000001FFFE0000007FFFFFF0001FFFFF
310
F8000FFFFFFFF8000FF8000FFFFFFFF8000FFF0003FFFFFFFFFFFFFFFFFF0000
310
7000FFFFFFFFFC0000FFFC0008003FF0008001FFFF80007FFFFFFFFFF80001FF
310
FFFFFFFF80000FF8000001FFFE0000007FFFFFF0001FFFFFF8000FFFFFFFF800
310
0FF8000FFFFFFFF8000FFF0003FFFFFFFFFFFFFFFFFE0000F000FFFFFFFFE000
310
00FFFC000C003FE000C001FFFF80007FFFFFFFFFC00001FFFFFFFFFE00001FF8
310
000001FFFE0000007FFFFFF0001FFFFFF8000FFFFFFFF8000FF8000FFFFFFFF8
310
000FFF0003FFFFFFFFFFFFFFFFF00000F000FFFFFFFE000001FFFC000C001FE0
310
00C000FFFF80007FFFFFFFFE000001FFFFFFFFE000001FF80FFFFFFFFFFFFFC0
310
7FFFFFF0001FFFFFF8000FFFFFFFF8000FF8000FFFFFFFF8000FFF0003FFFFFF
310
FFFFFFFFFF800000F000FFFFFFC0000001FFFC001C001FE001C000FFFF80007F
310
FFFFFF80000003FFFFFFF80000001FF80FFFFFFFFFFFFFC07FFFFFF0001FFFFF
310
F8001FFFFFFFFC000FF8001FFFFFFFFC000FFF0003FFFFFFFFFFFFFFF0000001
310
F000FFFFF800000001FFF8001C001FE001C000FFFF80007FFFFFF800000003FF
310
FFFF800000003FF80FFFFFFFFFFFFFC07FFFFFF0001FFFFFF8001FFFFFFFFC00
310
0FF8001FFFFFFFFC000FFF0003FFFFFFFFFFFFFE00000001F000FFFFC0000000
310
03FFF8001E001FC001E000FFFF80007FFFFF8000000007FFFFFC000000003FF8
310
0FFFFFFFFFFFFFC07FFFFFF0001FFFFFF8001FFFFFFFFC000FF8001FFFFFFFFC
310
000FFF0003FFFFFFFFFFFFE000000003F000FFFE0000000007FFF8001E000FC0
310
01E0007FFF80007FFFFE0000000007FFFFE0000000007FF80FFFFFFFFFFFFFC0
310
7FFFFFF0001FFFFFF0001FFFFFFFFC0007F0001FFFFFFFFC0007FF0003FFFFFF
310
FFFFFF0000000003F000FFF80000000007FFF8001E000FC003E0007FFF80007F
310
FFF0000000000FFFFF8000000000FFF80FFFFFFFFFFFFFC07FFFFFF0001FFFFF
310
F0001FFFFFFFFC0007F0001FFFFFFFFC0007FF0003FFFFFFFFFFFC0000000007
310
F000FFE0000000000FFFF0003E000FC003E0007FFF80007FFFC0000000001FFF
310
FE0000000001FFF80FFFFFFFFFFFFFC07FFFFFF0001FFFFFF0001FFFFFFFFC00
310
07F0001FFFFFFFFC0007FF0003FFFFFFFFFFF0000000000FF000FFC000000000
310
1FFFF0003F000F8003F0003FFF80007FFF80000000003FFFF80000000003FFF8
310
0FFFFFFFFFFFFFC07FFFFFF0001FFFFFF0001FFFFFFFFC0007F0001FFFFFFFFC
310
0007FF0003FFFFFFFFFFE0000000001FF000FF00000000007FFFF0003F000780
310
03F0003FFF80007FFF00000000007FFFF00000000007FFF80FFFFFFFFFFFFFC0
310
7FFFFFF0001FFFFFF0001FFFFFFFFC0007F0001FFFFFFFFC0007FF0003FFFFFF
310
FFFF80000000007FF000FE0000000000FFFFE0003F00078007F0003FFF80007F
310
FE0000000001FFFFE0000000001FFFF80FFFFFFFFFFFFFC07FFFFFF0001FFFFF
310
F0001FFFFFFFFC0007F0001FFFFFFFFC0007FF0003FFFFFFFFFF0000000000FF
310
F000FC0000000003FFFFE0007F00078007F0003FFF80007FFC0000000007FFFF
310
C0000000007FFFF80FFFFFFFFFFFFFC07FFFFFF0001FFFFFF8001FFFFFFFFC00
310
0FF8001FFFFFFFFC000FFF0003FFFFFFFFFE0000000003FFF000FC000000000F
310
FFFFE0007F80070007F8001FFF80007FF8000000001FFFFF8000000001FFFFF8
310
0FFFFFFFFFFFFFC07FFFFFF0001FFFFFF8001FFFFFFFFC000FF8001FFFFFFFFC
310
000FFF0003FFFFFFFFFC000000000FFFF000F8000000007FFFFFE0007F800700
310
07F8001FFF80007FF000000000FFFFFF800000000FFFFFF80FFFFFFFFFFFFFC0
310
7FFFFFF0001FFFFFF8000FFFFFFFF8000FF8000FFFFFFFF8000FFF0003FFFFFF
310
FFFC000000007FFFF000F800000007FFFFFFC0007F8003000FF8001FFF80007F
310
F000000007FFFFFF000000007FFFFFF80FFFFFFFFFFFFFC07FFFFFF0001FFFFF
310
F8000FFFFFFFF8000FF8000FFFFFFFF8000FFF0003FFFFFFFFF80000000FFFFF
310
F000F0000000FFFFFFFFC000FF8003000FF8001FFF80007FE0000000FFFFFFFF
310
0000000FFFFFFFF8000001FFFE0000007FFFFFF0001FFFFFF8000FFFFFFFF800
310
0FF8000FFFFFFFF8000FFF0003FFFFFFFFF8000000FFFFFFF000F000000FFFFF
310
FFFFC000FFC002000FF8000FFF80007FE000001FFFFFFFFE000001FFFFFFFFF8
310
000001FFFE0000007FFFFFF0001FFFFFF8000FFFFFFFF8000FF8000FFFFFFFF8
310
000FFF0003FFFFFFFFF000001FFFFFFFF000E00000FFFFFFFFFFC000FFC00200
310
0FFC000FFF80007FE00001FFFFFFFFFE00001FFFFFFFFFF8000001FFFE000000
310
7FFFFFF0001FFFFFFC000FFFFFFFF8001FFC000FFFFFFFF8001FFF0003FFFFFF
310
FFF00001FFFFFFFFF000E00007FFFFFFFFFF8000FFC000001FFC000FFF80007F
310
C0000FFFFFFFFFFE0000FFFFFFFFFFF8000001FFFE0000007FFFFFF0001FFFFF
310
FC0007FFFFFFF0001FFC0007FFFFFFF0001FFF0003FFFFFFFFF00007FFFFFFFF
310
F000E0001FFFFFFFFFFF8000FFC000001FFC000FFF80007FC0003FFFFFFFFFFE
310
0001FFFFFFFFFFF8000001FFFE0000007FFFFFF0001FFFFFFC0007FFFFFFF000
310
1FFC0007FFFFFFF0001FFF0003FFFFFFFFF0001FFFFFFFFFF000E0003FFFFF00
310
03FF8001FFE000001FFC0007FF80007FC0007FFFFF0007FC0003FFFFF0003FF8
310
000001FFFE0000007FFFFFF0001FFFFFFC0003FFFFFFE0001FFC0003FFFFFFE0
310
001FFF0003FFFFFFFFF0003FFFFFFFFFF000E0003FFFFF0001FF8001FFE00000
310
1FFE0007FF80007FC0007FFFFE0003FC0007FFFFE0003FF8000001FFFE000000
310
7FFFFFF0001FFFFFFE0003FFFFFFE0003FFE0003FFFFFFE0003FFF0003FFFFFF
310
FFF0003FFFFF8001F000E0003FFFFF0001FF0001FFE000001FFE0007FF80007F
310
C0007FFFFE0003FC0007FFFFE0003FF8000001FFFE0000007FFFFFF0001FFFFF
310
FE0001FFFFFFC0003FFE0001FFFFFFC0003FFF0003FFFFFFFFF0003FFFFF0001
310
F000E0003FFFFF0003FF0001FFE000003FFE0007FF80007FC0007FFFFE0003FC
310
0007FFFFE0003FF8000001FFFE0000007FFFFFF0001FFFFFFF0001FFFFFFC000
310
7FFF0001FFFFFFC0007FFF0003FFFFFFFFF0003FFFFF0001F000E0003FFFFE00
310
03FF0003FFF000003FFE0003FF80007FC0007FFFFC0003FE0007FFFFE0003FF8
310
000001FFFE0000007FFFFFF0001FFFFFFF0000FFFFFF80007FFF0000FFFFFF80
310
007FFF0003FFFFFFFFF0003FFFFF0001F000E0003FFFFE0003FF0003FFF00000
310
3FFF0003FF80007FC0007FFFFC0007FE0007FFFFC0003FF8000001FFFE000000
310
7FFFFFF0001FFFFFFF80007FFFFF0000FFFF80007FFFFF0000FFFF0003FFFFFF
310
FFF0003FFFFF0003F000E0003FFFFC0003FE0003FFF000003FFF0003FF80007F
310
E0003FFFF80007FE0003FFFFC0007FF8000001FFFE0000007FFFFFF0001FFFFF
310
FF80003FFFFE0000FFFF80003FFFFE0000FFFF0003FFFFFFFFF0001FFFFE0003
310
F000F0001FFFF80003FE0003FFF000007FFF0001FF80007FE0003FFFF00007FE
310
0001FFFF80007FF8000001FFFE0000007FFFFFF0001FFFFFFFC0000FFFF80001
310
FFFFC0000FFFF80001FFFF0003FFFFFFFFF0001FFFFC0003F000F0000FFFF000
310
07FE0007FFF800007FFF0001FF80007FE0001FFFE00007FF0000FFFE00007FF8
310
000001FFFE0000007FFFFFF0001FFFFFFFC00003FFE00001FFFFC00003FFE000
310
01FFFF0003FFFFFFFFF8000FFFF80003F000F00003FFC00007FC0007FFF80000
310
7FFF8001FF80007FF00007FF80000FFF00007FF80000FFF8000001FFFE000000
310
7F80000000000001FFE000003E000003FFFFE000003E000003FFFF0003FFFFFF
310
FFF80003FFE00007F000F800000000000FFC0007FFF800007FFF8001FF80007F
310
F000000000000FFF000000000000FFF8000001FFFE0000007F80000000000001
310
FFF0000000000007FFFFF0000000000007FFFF0003FFFFFFFFFC00007E000007
310
F000F800000000000FFC0007FFF80000FFFF8000FF80007FF800000000001FFF
310
800000000001FFF8000001FFFE0000007F80000000000001FFF800000000000F
310
FFFFF800000000000FFFFF0003FFFFFFFFFC00000000000FF000FC0000000000
310
1FFC0007FFFC0000FFFF8000FF80007FF800000000003FFFC00000000001FFF8
310
000001FFFE0000007F80000000000001FFF800000000000FFFFFF80000000000
310
0FFFFF0003FFFFFFFFFE00000000001FF000FE00000000003FF8000FFFFC0000
310
FFFF8000FF80007FFC00000000003FFFC00000000003FFF8000001FFFE000000
310
7F80000000000001FFFC00000000001FFFFFFC00000000001FFFFF0003FFFFFF
310
FFFF00000000001FF000FF00000000003FF8000FFFFC0000FFFFC000FF80007F
310
FE00000000007FFFE00000000007FFF8000001FFFE0000007F80000000000001
310
FFFE00000000003FFFFFFE00000000003FFFFF0003FFFFFFFFFF80000000003F
310
F000FF80000000007FF8000FFFFC0001FFFFC0007F80007FFF0000000000FFFF
310
F0000000000FFFF800000000000000007F80000000000001FFFF8000000000FF
310
FFFFFF8000000000FFFFFF0003FFFFFFFFFFC0000000007FF000FFC000000000
310
FFF8000FFFFE0001FFFFC0007F80007FFF8000000001FFFFF8000000001FFFF8
310
00000000000000007F80000000000001FFFFC000000001FFFFFFFFC000000001
310
FFFFFF0003FFFFFFFFFFE000000000FFF000FFE000000003FFF0001FFFFE0001
310
FFFFC0007F80007FFFC000000007FFFFFE000000003FFFF80000000000000000
310
7F80000000000001FFFFE000000003FFFFFFFFE000000003FFFFFF0003FFFFFF
310
FFFFF000000003FFF000FFF80000000FFFF0001FFFFE0001FFFFE0007F80007F
310
FFF00000000FFFFFFF00000000FFFFF800000000000000007F80000000000001
310
FFFFF80000000FFFFFFFFFF80000000FFFFFFF0003FFFFFFFFFFFC0000000FFF
310
F000FFFE0000003FFFF0001FFFFE0003FFFFE0003F80007FFFFC0000003FFFFF
310
FFC0000003FFFFF800000000000000007F80000000000001FFFFFE0000003FFF
310
FFFFFFFE0000003FFFFFFF0003FFFFFFFFFFFF0000003FFFF000FFFF800000FF
310
FFF0001FFFFF0003FFFFE0003F80007FFFFF000001FFFFFFFFF800001FFFFFF8
310
00000000000000007F80000000000001FFFFFFC00001FFFFFFFFFFFFC00001FF
310
FFFFFF0003FFFFFFFFFFFFC00000FFFFF000FFFFF8000FFFFFFFFFFFFFFFFFFF
310
FFFFFFFFFFFFFFFFFFFFF0001FFFFFFFFFFF0000FFFFFFF80000000000000000
310
7FFFFFFFFFFFFFFFFFFFFFFC001FFFFFFFFFFFFFFC001FFFFFFFFFFFFFFFFFFF
310
FFFFFFFC001FFFFFF000FFFFFFFFFFFFFFFFFFFFFFFFFFFFFFFFFFFFFFFFFFFF
310
FFFFFFFFFFFFFFFFFFFFFFFFFFFFFFFFFFFFFFFFFFFFFFFFFFFFFFFFFFFFFFFF
310
FFFFFFFFFFFFFFFFFFFFFFFFFFFFFFFFFFFFFFFFFFFFFFFFFFFFFFFFFFFFFFFF
310
F000FFFFFFFFFFFFFFFFFFFFFFFFFFFFFFFFFFFFFFFFFFFFFFFFFFFFFFFFFFFF
310
FFFFFFFFFFFFFFFFFFFFFFFFFFFFFFFFFFFFFFFFFFFFFFFFFFFFFFFFFFFFFFFF
310
FFFFFFFFFFFFFFFFFFFFFFFFFFFFFFFFFFFFFFFFFFFFFFFFF000FFFFFFFFFFFF
310
FFFFFFFFFFFFFFFFFFFFFFFFFFFFFFFFFFFFFFFFFFFFFFFFFFFFFFFFFFFFFFFF
310
FFFFFFFFFFFFFFFFFFFFFFFFFFFFFFFFFFFFFFFFFFFFFFFFFFFFFFFFFFFFFFFF
310
FFFFFFFFFFFFFFFFFFFFFFFFFFFFFFFFF000FFFFFFFFFFFFFFFFFFFFFFFFFFFF
310
FFFFFFFFFFFFFFFFFFFFFFFFFFFFFFFFFFFFFFFFFFFFFFFFFFFFFFFFFFFFFFFF
310
FFFFFFFFFFFFFFFFFFFFFFFFFFFFFFFFFFFFFFFFFFFFFFFFFFFFFFFFFFFFFFFF
310
FFFFFFFFFFFFFFFFF000FFFFFFFFFFFFFFFFFFFFFFFFFFFFFFFFFFFFFFFFFFFF
310
FFFFFFFFFFFFFFFFFFFFFFFFFFFFFFFFFFFFFFFFFFFFFFFFFFFFFFFFFFFFFFFF
310
FFFFFFFFFFFFFFFFFFFFFFFFFFFFFFFFFFFFFFFFFFFFFFFFFFFFFFFFFFFFFFFF
310
F000FFFFFFFFFFFFFFFFFFFFFFFFFFFFFFFFFFFFFFFFFFFFFFFFFFFFFFFFFFFF
310
FFFFFFFFFFFFFFFFFFFFFFFFFFFFFFFFFFFFFFFFFFFFFFFFFFFFFFFFFFFFFFFF
310
FFFFFFFFFFFFFFFFFFFFFFFFFFFFFFFFFFFFFFFFFFFFFFFFF000FFFFFFFFFFFF
310
FFFFFFFFFFFFFFFFFFFFFFFFFFFFFFFFFFFFFFFFFFFFFFFFFFFFFFFFFFFFFFFF
310
FFFFFFFFFFFFFFFFFFFFFFFFFFFFFFFFFFFFFFFFFFFFFFFFFFFFFFFFFFFFFFFF
310
FFFFFFFFFFFFFFFFFFFFFFFFFFFFFFFFF000FFFFFFFFFFFFFFFFFFFFFFFFFFFF
310
FFFFFFFFFFFFFFFFFFFFFFFFFFFFFFFFFFFFFFFFFFFFFFFFFFFFFFFFFFFFFFFF
310
FFFFFFFFFFFFFFFFFFFFFFFFFFFFFFFFFFFFFFFFFFFFFFFFFFFFFFFFFFFFFFFF
310
FFFFFFFFFFFFFFFFF000FFFFFFFFFFFFFFFFFFFFFFFFFFFFFFFFFFFFFFFFFFFF
310
FFFFFFFFFFFFFFFFFFFFFFFFFFFFFFFFFFFFFFFFFFFFFFFFFFFFFFFFFFFFFFFF
310
FFFFFFFFFFFFFFFFFFFFFFFFFFFFFFFFFFFFFFFFFFFFFFFFFFFFFFFFFFFFFFFF
310
F000FFFFFFFFFFFFFFFFFFFFFFFFFFFFFFFFFFFFFFFFFFFFFFFFFFFFFFFFFFFF
310
FFFFFFFFFFFFFFFFFFFFFFFFFFFFFFFFFFFFFFFFFFFFFFFFFFFFFFFFFFFFFFFF
310
FFFFFFFFFFFFFFFFFFFFFFFFFFFFFFFFFFFFFFFFFFFFFFFFF000FFFFFFFFFFFF
310
FFFFFFFFFFFFFFFFFFFFFFFFFFFFFFFFFFFFFFFFFFFFFFFFFFFFFFFFFFFFFFFF
310
FFFFFFFFFFFFFFFFFFFFFFFFFFFFFFFFFFFFFFFFFFFFFFFFFFFFFFFFFFFFFFFF
310
FFFFFFFFFFFFFFFFFFFFFFFFFFFFFFFFF000FFFFFFFFFFFFFFFFFFFFFFFFFFFF
310
FFFFFFFFFFFFFFFFFFFFFFFFFFFFFFFFFFFFFFFFFFFFFFFFFFFFFFFFFFFFFFFF
310
FFFFFFFFFFFFFFFFFFFFFFFFFFFFFFFFFFFFFFFFFFFFFFFFFFFFFFFFFFFFFFFF
310
FFFFFFFFFFFFFFFFF000FFFFFFFFFFFFFFFFFFFFFFFFFFFFFFFFFFFFFFFFFFFF
310
FFFFFFFFFFFFFFFFFFFFFFFFFFFFFFFFFFFFFFFFFFFFFFFFFFFFFFFFFFFFFFFF
310
FFFFFFFFFFFFFFFFFFFFFFFFFFFFFFFFFFFFFFFFFFFFFFFFFFFFFFFFFFFFFFFF
310
F000FFFFFFFFFFFFFFFFFFFFFFFFFFFFFFFFFFFFFFFFFFFFFFFFFFFFFFFFFFFF
310
FFFFFFFFFFFFFFFFFFFFFFFFFFFFFFFFFFFFFFFFFFFFFFFFFFFFFFFFFFFFFFFF
310
FFFFFFFFFFFFFFFFFFFFFFFFFFFFFFFFFFFFFFFFFFFFFFFFF000FFFFFFFFFFFF
310
FFFFFFFFFFFFFFFFFFFFFFFFFFFFFFFFFFFFFFFFFFFFFFFFFFFFFFFFFFFFFFFF
310
FFFFFFFFFFFFFFFFFFFFFFFFFFFFFFFFFFFFFFFFFFFFFFFFFFFFFFFFFFFFFFFF
310
FFFFFFFFFFFFFFFFFFFFFFFFFFFFFFFFF000FFFFFFFFFFFFFFFFFFFFFFFFFFFF
310
FFFFFFFFFFFFFFFFFFFFFFFFFFFFFFFFFFFFFFFFFFFFFFFFFFFFFFFFFFFFFFFF
310
FFFFFFFFFFFFFFFFFFFFFFFFFFFFFFFFFFFFFFFFFFFFFFFFFFFFFFFFFFFFFFFF
310
FFFFFFFFFFFFFFFFF000FFFFFFFFFFFFFFFFFFFFFFFFFFFFFFFFFFFFFFFFFFFF
310
FFFFFFFFFFFFFFFFFFFFFFFFFFFFFFFFFFFFFFFFFFFFFFFFFFFFFFFFFFFFFFFF
310
FFFFFFFFFFFFFFFFFFFFFFFFFFFFFFFFFFFFFFFFFFFFFFFFFFFFFFFFFFFFFFFF
310
F000FFFFFFFFFFFFFFFFFFFFFFFFFFFFFFFFFFFFFFFFFFFFFFFFFFFFFFFFFFFF
310
FFFFFFFFFFFFFFFFFFFFFFFFFFFFFFFFFFFFFFFFFFFFFFFFFFFFFFFFFFFFFFFF
310
FFFFFFFFFFFFFFFFFFFFFFFFFFFFFFFFFFFFFFFFFFFFFFFFF000FFFFFFFFFFFF
310
FFFFFFFFFFFFFFFFFFFFFFFFFFFFFFFFFFFFFFFFFFFFFFFFFFFFFFFFFFFFFFFF
310
FFFFFFFFFFFFFFFFFFFFFFFFFFFFFFFFFFFFFFFFFFFFFFFFFFFFFFFFFFFFFFFF
310
FFFFFFFFFFFFFFFFFFFFFFFFFFFFFFFFF000FFFFFFFFFFFFFFFFFFFFFFFFFFFF
310
FFFFFFFFFFFFFFFFFFFFFFFFFFFFFFFFFFFFFFFFFFFFFFFFFFFFFFFFFFFFFFFF
310
FFFFFFFFFFFFFFFFFFFFFFFFFFFFFFFFFFFFFFFFFFFFFFFFFFFFFFFFFFFFFFFF
310
FFFFFFFFFFFFFFFFF000FFFFFFFFFFFFFFFFFFFFFFFFFFFFFFFFFFFFFFFFFFFF
310
FFFFFFFFFFFFFFFFFFFFFFFFFFFFFFFFFFFFFFFFFFFFFFFFFFFFFFFFFFFFFFFF
310
FFFFFFFFFFFFFFFFFFFFFFFFFFFFFFFFFFFFFFFFFFFFFFFFFFFFFFFFFFFFFFFF
310
F000FFFFFFFFFFFFFFFFFFFFFFFFFFFFFFFFFFFFFFFFFFFFFFFFFFFFFFFFFFFF
310
FFFFFFFFFFFFFFFFFFFFFFFFFFFFFFFFFFFFFFFFFFFFFFFFFFFFFFFFFFFFFFFF
310
FFFFFFFFFFFFFFFFFFFFFFFFFFFFFFFFFFFFFFFFFFFFFFFFF000FFFFFFFFFFFF
310
FFFFFFFFFFFFFFFFFFFFFFFFFFFFFFFFFFFFFFFFFFFFFFFFFFFFFFFFFFFFFFFF
310
FFFFFFFFFFFFFFFFFFFFFFFFFFFFFFFFFFFFFFFFFFFFFFFFFFFFFFFFFFFFFFFF
310
FFFFFFFFFFFFFFFFFFFFFFFFFFFFFFFFF0000000000000000000000000000000
310
0000000000000000000000000000000000000000000000000000000000000000
310
0000000000000000000000000000000000000000000000000000000000000000
310
0000000000000000000000000000000000000000000000000000000000000000
310
0000000000000000000000000000000000000000000000000000000000000000
310
0000000000000000000000000000000000000000000000000000000000000000
310
0000000000000000000000000000000000000000000000000000000000000000
310
0000000000000000000000000000000000000000000000000000000000000000
310
0000000000000000000000000000000000000000000000000000000000000000
310
0000000000000000000000000000000000000000000000000000000000000000
310
0000000000000000000000000000000000000000000000000000000000000000
310
0000000000000000000000000000000000000000000000000000000000000000
310
0000000000000000000000000000000000000000000000000000000000000000
310
0000000000000000000000000000000000000000000000000000000000000000
310
0000000000000000000000000000000000000000000000000000000000000000
310
0000000000000000000000000000000000000000000000000000000000000000
  1
OLE
  0
ENDSEC
  0
SECTION
  2
OBJECTS
  0
DICTIONARY
  5
C
330
0
100
AcDbDictionary
281
     1
  3
ACAD_GROUP
350
D
  3
ACAD_LAYOUT
350
1A
  3
ACAD_MLINESTYLE
350
17
  3
ACAD_PLOTSETTINGS
350
19
  3
ACAD_PLOTSTYLENAME
350
E
  3
ACAD_SCALELIST
350
47
  0
DICTIONARY
  5
D
102
{ACAD_REACTORS
330
C
102
}
330
C
100
AcDbDictionary
281
     1
  0
DICTIONARY
  5
1A
102
{ACAD_REACTORS
330
C
102
}
330
C
100
AcDbDictionary
281
     1
  3
Layout1
350
1E
  3
Layout2
350
26
  3
Model
350
22
  0
DICTIONARY
  5
17
102
{ACAD_REACTORS
330
C
102
}
330
C
100
AcDbDictionary
281
     1
  3
Standard
350
18
  0
DICTIONARY
  5
19
102
{ACAD_REACTORS
330
C
102
}
330
C
100
AcDbDictionary
281
     1
  0
ACDBDICTIONARYWDFLT
  5
E
102
{ACAD_REACTORS
330
C
102
}
330
C
100
AcDbDictionary
281
     1
  3
Normal
350
F
100
AcDbDictionaryWithDefault
340
F
  0
DICTIONARY
  5
47
102
{ACAD_REACTORS
330
C
102
}
330
C
100
AcDbDictionary
281
     1
  3
A0
350
48
  3
A1
350
49
  3
A2
350
4A
  3
A3
350
4B
  3
A4
350
4C
  3
A5
350
4D
  3
A6
350
4E
  3
A7
350
4F
  3
A8
350
50
  3
A9
350
51
  3
B0
350
52
  3
B1
350
53
  3
B2
350
54
  3
B3
350
55
  3
B4
350
56
  3
B5
350
57
  3
B6
350
58
  3
B7
350
59
  3
B8
350
5A
  3
B9
350
5B
  3
C0
350
5C
  3
C1
350
5D
  3
C2
350
5E
  3
C3
350
5F
  3
C4
350
60
  3
C5
350
61
  3
C6
350
62
  3
C7
350
63
  3
C8
350
64
  3
C9
350
65
  3
D0
350
66
  3
D1
350
67
  3
D2
350
68
  0
LAYOUT
  5
1E
102
{ACAD_REACTORS
330
1A
102
}
330
1A
100
AcDbPlotSettings
  1

  2
none_device
  4

  6

 40
0.0
 41
0.0
 42
0.0
 43
0.0
 44
0.0
 45
0.0
 46
0.0
 47
0.0
 48
0.0
 49
0.0
140
0.0
141
0.0
142
1.0
143
1.0
 70
   688
 72
     1
 73
     0
 74
     5
  7

 75
    16
147
1.0
148
0.0
149
0.0
100
AcDbLayout
  1
Layout1
 70
     1
 71
     1
 10
0.0
 20
0.0
 11
420.0
 21
297.0
 12
0.0
 22
0.0
 32
0.0
 14
1.0000000000E+20
 24
1.0000000000E+20
 34
1.0000000000E+20
 15
-1.0000000000E+20
 25
-1.0000000000E+20
 35
-1.0000000000E+20
146
0.0
 13
0.0
 23
0.0
 33
0.0
 16
1.0
 26
0.0
 36
0.0
 17
0.0
 27
1.0
 37
0.0
 76
     0
330
1B
  0
LAYOUT
  5
26
102
{ACAD_REACTORS
330
1A
102
}
330
1A
100
AcDbPlotSettings
  1

  2
none_device
  4

  6

 40
0.0
 41
0.0
 42
0.0
 43
0.0
 44
0.0
 45
0.0
 46
0.0
 47
0.0
 48
0.0
 49
0.0
140
0.0
141
0.0
142
1.0
143
1.0
 70
   688
 72
     1
 73
     0
 74
     5
  7

 75
    16
147
1.0
148
0.0
149
0.0
100
AcDbLayout
  1
Layout2
 70
     1
 71
     2
 10
0.0
 20
0.0
 11
0.0
 21
0.0
 12
0.0
 22
0.0
 32
0.0
 14
0.0
 24
0.0
 34
0.0
 15
0.0
 25
0.0
 35
0.0
146
0.0
 13
0.0
 23
0.0
 33
0.0
 16
1.0
 26
0.0
 36
0.0
 17
0.0
 27
1.0
 37
0.0
 76
     0
330
23
  0
LAYOUT
  5
22
102
{ACAD_REACTORS
330
1A
102
}
330
1A
100
AcDbPlotSettings
  1

  2
none_device
  4
Letter_(8.50_x_11.00_Inches)
  6

 40
6.35
 41
6.35
 42
6.35000508
 43
6.35000508
 44
215.9
 45
279.4
 46
0.0
 47
0.0
 48
0.0
 49
0.0
140
0.0
141
0.0
142
1.0
143
1.0
 70
  1712
 72
     1
 73
     0
 74
     0
  7

 75
     0
147
1.0
148
0.0
149
0.0
100
AcDbLayout
  1
Model
 70
     1
 71
     0
 10
0.0
 20
0.0
 11
297.0
 21
210.0
 12
0.0
 22
0.0
 32
0.0
 14
0.0
 24
0.0
 34
0.0
 15
297.0
 25
210.0
 35
0.0
146
0.0
 13
0.0
 23
0.0
 33
0.0
 16
1.0
 26
0.0
 36
0.0
 17
0.0
 27
1.0
 37
0.0
 76
     0
330
1F
331
29
  0
MLINESTYLE
  5
18
102
{ACAD_REACTORS
330
17
102
}
330
17
100
AcDbMlineStyle
  2
Standard
 70
     0
  3

 62
   256
 51
90.0
 52
90.0
 71
     2
 49
0.5
 62
   256
  6
BYLAYER
 49
-0.5
 62
   256
  6
BYLAYER
  0
ACDBPLACEHOLDER
  5
F
102
{ACAD_REACTORS
330
E
102
}
330
E
  0
SCALE
  5
48
102
{ACAD_REACTORS
330
47
102
}
330
47
100
AcDbScale
 70
     0
300
1:1
140
1.0
141
1.0
290
     1
  0
SCALE
  5
49
102
{ACAD_REACTORS
330
47
102
}
330
47
100
AcDbScale
 70
     0
300
1:2
140
1.0
141
2.0
290
     0
  0
SCALE
  5
4A
102
{ACAD_REACTORS
330
47
102
}
330
47
100
AcDbScale
 70
     0
300
1:4
140
1.0
141
4.0
290
     0
  0
SCALE
  5
4B
102
{ACAD_REACTORS
330
47
102
}
330
47
100
AcDbScale
 70
     0
300
1:5
140
1.0
141
5.0
290
     0
  0
SCALE
  5
4C
102
{ACAD_REACTORS
330
47
102
}
330
47
100
AcDbScale
 70
     0
300
1:8
140
1.0
141
8.0
290
     0
  0
SCALE
  5
4D
102
{ACAD_REACTORS
330
47
102
}
330
47
100
AcDbScale
 70
     0
300
1:10
140
1.0
141
10.0
290
     0
  0
SCALE
  5
4E
102
{ACAD_REACTORS
330
47
102
}
330
47
100
AcDbScale
 70
     0
300
1:16
140
1.0
141
16.0
290
     0
  0
SCALE
  5
4F
102
{ACAD_REACTORS
330
47
102
}
330
47
100
AcDbScale
 70
     0
300
1:20
140
1.0
141
20.0
290
     0
  0
SCALE
  5
50
102
{ACAD_REACTORS
330
47
102
}
330
47
100
AcDbScale
 70
     0
300
1:30
140
1.0
141
30.0
290
     0
  0
SCALE
  5
51
102
{ACAD_REACTORS
330
47
102
}
330
47
100
AcDbScale
 70
     0
300
1:40
140
1.0
141
40.0
290
     0
  0
SCALE
  5
52
102
{ACAD_REACTORS
330
47
102
}
330
47
100
AcDbScale
 70
     0
300
1:50
140
1.0
141
50.0
290
     0
  0
SCALE
  5
53
102
{ACAD_REACTORS
330
47
102
}
330
47
100
AcDbScale
 70
     0
300
1:100
140
1.0
141
100.0
290
     0
  0
SCALE
  5
54
102
{ACAD_REACTORS
330
47
102
}
330
47
100
AcDbScale
 70
     0
300
2:1
140
2.0
141
1.0
290
     0
  0
SCALE
  5
55
102
{ACAD_REACTORS
330
47
102
}
330
47
100
AcDbScale
 70
     0
300
4:1
140
4.0
141
1.0
290
     0
  0
SCALE
  5
56
102
{ACAD_REACTORS
330
47
102
}
330
47
100
AcDbScale
 70
     0
300
8:1
140
8.0
141
1.0
290
     0
  0
SCALE
  5
57
102
{ACAD_REACTORS
330
47
102
}
330
47
100
AcDbScale
 70
     0
300
10:1
140
10.0
141
1.0
290
     0
  0
SCALE
  5
58
102
{ACAD_REACTORS
330
47
102
}
330
47
100
AcDbScale
 70
     0
300
100:1
140
100.0
141
1.0
290
     0
  0
SCALE
  5
59
102
{ACAD_REACTORS
330
47
102
}
330
47
100
AcDbScale
 70
     0
300
1/128" = 1'-0"
140
0.0078125
141
12.0
290
     0
  0
SCALE
  5
5A
102
{ACAD_REACTORS
330
47
102
}
330
47
100
AcDbScale
 70
     0
300
1/64" = 1'-0"
140
0.015625
141
12.0
290
     0
  0
SCALE
  5
5B
102
{ACAD_REACTORS
330
47
102
}
330
47
100
AcDbScale
 70
     0
300
1/32" = 1'-0"
140
0.03125
141
12.0
290
     0
  0
SCALE
  5
5C
102
{ACAD_REACTORS
330
47
102
}
330
47
100
AcDbScale
 70
     0
300
1/16" = 1'-0"
140
0.0625
141
12.0
290
     0
  0
SCALE
  5
5D
102
{ACAD_REACTORS
330
47
102
}
330
47
100
AcDbScale
 70
     0
300
3/32" = 1'-0"
140
0.09375
141
12.0
290
     0
  0
SCALE
  5
5E
102
{ACAD_REACTORS
330
47
102
}
330
47
100
AcDbScale
 70
     0
300
1/8" = 1'-0"
140
0.125
141
12.0
290
     0
  0
SCALE
  5
5F
102
{ACAD_REACTORS
330
47
102
}
330
47
100
AcDbScale
 70
     0
300
3/16" = 1'-0"
140
0.1875
141
12.0
290
     0
  0
SCALE
  5
60
102
{ACAD_REACTORS
330
47
102
}
330
47
100
AcDbScale
 70
     0
300
1/4" = 1'-0"
140
0.25
141
12.0
290
     0
  0
SCALE
  5
61
102
{ACAD_REACTORS
330
47
102
}
330
47
100
AcDbScale
 70
     0
300
3/8" = 1'-0"
140
0.375
141
12.0
290
     0
  0
SCALE
  5
62
102
{ACAD_REACTORS
330
47
102
}
330
47
100
AcDbScale
 70
     0
300
1/2" = 1'-0"
140
0.5
141
12.0
290
     0
  0
SCALE
  5
63
102
{ACAD_REACTORS
330
47
102
}
330
47
100
AcDbScale
 70
     0
300
3/4" = 1'-0"
140
0.75
141
12.0
290
     0
  0
SCALE
  5
64
102
{ACAD_REACTORS
330
47
102
}
330
47
100
AcDbScale
 70
     0
300
1" = 1'-0"
140
1.0
141
12.0
290
     0
  0
SCALE
  5
65
102
{ACAD_REACTORS
330
47
102
}
330
47
100
AcDbScale
 70
     0
300
1-1/2" = 1'-0"
140
1.5
141
12.0
290
     0
  0
SCALE
  5
66
102
{ACAD_REACTORS
330
47
102
}
330
47
100
AcDbScale
 70
     0
300
3" = 1'-0"
140
3.0
141
12.0
290
     0
  0
SCALE
  5
67
102
{ACAD_REACTORS
330
47
102
}
330
47
100
AcDbScale
 70
     0
300
6" = 1'-0"
140
6.0
141
12.0
290
     0
  0
SCALE
  5
68
102
{ACAD_REACTORS
330
47
102
}
330
47
100
AcDbScale
 70
     0
300
1'-0" = 1'-0"
140
12.0
141
12.0
290
     0
  0
ENDSEC
  0
EOF
