  0
SECTION
  2
HEADER
  9
$ACADVER
  1
AC1015
  9
$ACADMAINTVER
 70
     6
  9
$DWGCODEPAGE
  3
ANSI_1252
  9
$INSBASE
 10
0.0
 20
0.0
 30
0.0
  9
$EXTMIN
 10
0.0
 20
0.0
 30
0.0
  9
$EXTMAX
 10
297.0
 20
210.0
 30
0.0
  9
$LIMMIN
 10
0.0
 20
0.0
  9
$LIMMAX
 10
297.0
 20
210.0
  9
$ORTHOMODE
 70
     0
  9
$REGENMODE
 70
     1
  9
$FILLMODE
 70
     1
  9
$QTEXTMODE
 70
     0
  9
$MIRRTEXT
 70
     1
  9
$LTSCALE
 40
1.0
  9
$ATTMODE
 70
     1
  9
$TEXTSIZE
 40
2.0
  9
$TRACEWID
 40
1.0
  9
$TEXTSTYLE
  7
Standard
  9
$CLAYER
  8
0
  9
$CELTYPE
  6
ByLayer
  9
$CECOLOR
 62
   256
  9
$CELTSCALE
 40
1.0
  9
$DISPSILH
 70
     0
  9
$DIMSCALE
 40
1.0
  9
$DIMASZ
 40
3.0
  9
$DIMEXO
 40
0.0
  9
$DIMDLI
 40
3.75
  9
$DIMRND
 40
0.0
  9
$DIMDLE
 40
0.0
  9
$DIMEXE
 40
1.0
  9
$DIMTP
 40
0.0
  9
$DIMTM
 40
0.0
  9
$DIMTXT
 40
2.0
  9
$DIMCEN
 40
2.5
  9
$DIMTSZ
 40
0.0
  9
$DIMTOL
 70
     0
  9
$DIMLIM
 70
     0
  9
$DIMTIH
 70
     1
  9
$DIMTOH
 70
     1
  9
$DIMSE1
 70
     0
  9
$DIMSE2
 70
     0
  9
$DIMTAD
 70
     1
  9
$DIMZIN
 70
     0
  9
$DIMBLK
  1

  9
$DIMASO
 70
     1
  9
$DIMSHO
 70
     1
  9
$DIMPOST
  1

  9
$DIMAPOST
  1

  9
$DIMALT
 70
     0
  9
$DIMALTD
 70
     3
  9
$DIMALTF
 40
0.0393700787
  9
$DIMLFAC
 40
1.0
  9
$DIMTOFL
 70
     1
  9
$DIMTVP
 40
0.0
  9
$DIMTIX
 70
     0
  9
$DIMSOXD
 70
     0
  9
$DIMSAH
 70
     0
  9
$DIMBLK1
  1

  9
$DIMBLK2
  1

  9
$DIMSTYLE
  2
ISO-25
  9
$DIMCLRD
 70
     0
  9
$DIMCLRE
 70
     0
  9
$DIMCLRT
 70
     0
  9
$DIMTFAC
 40
1.0
  9
$DIMGAP
 40
1.524
  9
$DIMJUST
 70
     0
  9
$DIMSD1
 70
     0
  9
$DIMSD2
 70
     0
  9
$DIMTOLJ
 70
     0
  9
$DIMTZIN
 70
     0
  9
$DIMALTZ
 70
     0
  9
$DIMALTTZ
 70
     0
  9
$DIMUPT
 70
     0
  9
$DIMDEC
 70
     2
  9
$DIMTDEC
 70
     3
  9
$DIMALTU
 70
     2
  9
$DIMALTTD
 70
     3
  9
$DIMTXSTY
  7
Standard
  9
$DIMAUNIT
 70
     0
  9
$DIMADEC
 70
     2
  9
$DIMALTRND
 40
0.0
  9
$DIMAZIN
 70
     0
  9
$DIMDSEP
 70
    44
  9
$DIMATFIT
 70
     3
  9
$DIMFRAC
 70
     0
  9
$DIMLDRBLK
  1

  9
$DIMLUNIT
 70
     2
  9
$DIMLWD
 70
    -2
  9
$DIMLWE
 70
    -2
  9
$DIMTMOVE
 70
     0
  9
$LUNITS
 70
     2
  9
$LUPREC
 70
     2
  9
$SKETCHINC
 40
1.0
  9
$FILLETRAD
 40
10.0
  9
$AUNITS
 70
     0
  9
$AUPREC
 70
     2
  9
$MENU
  1
.
  9
$ELEVATION
 40
0.0
  9
$PELEVATION
 40
0.0
  9
$THICKNESS
 40
0.0
  9
$LIMCHECK
 70
     0
  9
$CHAMFERA
 40
0.0
  9
$CHAMFERB
 40
0.0
  9
$CHAMFERC
 40
0.0
  9
$CHAMFERD
 40
0.0
  9
$SKPOLY
 70
     0
  9
$TDCREATE
 40
2457632.655721933
  9
$TDUCREATE
 40
2457632.5723886
  9
$TDUPDATE
 40
2457632.655723692
  9
$TDUUPDATE
 40
2457632.572390359
  9
$TDINDWG
 40
0.0000000116
  9
$TDUSRTIMER
 40
0.0000000116
  9
$USRTIMER
 70
     1
  9
$ANGBASE
 50
0.0
  9
$ANGDIR
 70
     0
  9
$PDMODE
 70
     0
  9
$PDSIZE
 40
-1.0
  9
$PLINEWID
 40
0.0
  9
$SPLFRAME
 70
     0
  9
$SPLINETYPE
 70
     6
  9
$SPLINESEGS
 70
     8
  9
$HANDSEED
  5
2BA
  9
$SURFTAB1
 70
     6
  9
$SURFTAB2
 70
     6
  9
$SURFTYPE
 70
     6
  9
$SURFU
 70
     6
  9
$SURFV
 70
     6
  9
$UCSBASE
  2

  9
$UCSNAME
  2

  9
$UCSORG
 10
0.0
 20
0.0
 30
0.0
  9
$UCSXDIR
 10
1.0
 20
0.0
 30
0.0
  9
$UCSYDIR
 10
0.0
 20
1.0
 30
0.0
  9
$UCSORTHOREF
  2

  9
$UCSORTHOVIEW
 70
     0
  9
$UCSORGTOP
 10
0.0
 20
0.0
 30
0.0
  9
$UCSORGBOTTOM
 10
0.0
 20
0.0
 30
0.0
  9
$UCSORGLEFT
 10
0.0
 20
0.0
 30
0.0
  9
$UCSORGRIGHT
 10
0.0
 20
0.0
 30
0.0
  9
$UCSORGFRONT
 10
0.0
 20
0.0
 30
0.0
  9
$UCSORGBACK
 10
0.0
 20
0.0
 30
0.0
  9
$PUCSBASE
  2

  9
$PUCSNAME
  2

  9
$PUCSORG
 10
0.0
 20
0.0
 30
0.0
  9
$PUCSXDIR
 10
1.0
 20
0.0
 30
0.0
  9
$PUCSYDIR
 10
0.0
 20
1.0
 30
0.0
  9
$PUCSORTHOREF
  2

  9
$PUCSORTHOVIEW
 70
     0
  9
$PUCSORGTOP
 10
0.0
 20
0.0
 30
0.0
  9
$PUCSORGBOTTOM
 10
0.0
 20
0.0
 30
0.0
  9
$PUCSORGLEFT
 10
0.0
 20
0.0
 30
0.0
  9
$PUCSORGRIGHT
 10
0.0
 20
0.0
 30
0.0
  9
$PUCSORGFRONT
 10
0.0
 20
0.0
 30
0.0
  9
$PUCSORGBACK
 10
0.0
 20
0.0
 30
0.0
  9
$USERI1
 70
     0
  9
$USERI2
 70
     0
  9
$USERI3
 70
     0
  9
$USERI4
 70
     0
  9
$USERI5
 70
     0
  9
$USERR1
 40
0.0
  9
$USERR2
 40
0.0
  9
$USERR3
 40
0.0
  9
$USERR4
 40
0.0
  9
$USERR5
 40
0.0
  9
$WORLDVIEW
 70
     1
  9
$SHADEDGE
 70
     3
  9
$SHADEDIF
 70
    70
  9
$TILEMODE
 70
     1
  9
$MAXACTVP
 70
    64
  9
$PINSBASE
 10
0.0
 20
0.0
 30
0.0
  9
$PLIMCHECK
 70
     0
  9
$PEXTMIN
 10
1.0000000000E+20
 20
1.0000000000E+20
 30
1.0000000000E+20
  9
$PEXTMAX
 10
-1.0000000000E+20
 20
-1.0000000000E+20
 30
-1.0000000000E+20
  9
$PLIMMIN
 10
0.0
 20
0.0
  9
$PLIMMAX
 10
420.0
 20
297.0
  9
$UNITMODE
 70
     0
  9
$VISRETAIN
 70
     1
  9
$PLINEGEN
 70
     0
  9
$PSLTSCALE
 70
     1
  9
$TREEDEPTH
 70
  3020
  9
$CMLSTYLE
  2
Standard
  9
$CMLJUST
 70
     0
  9
$CMLSCALE
 40
20.0
  9
$PROXYGRAPHICS
 70
     1
  9
$MEASUREMENT
 70
     1
  9
$CELWEIGHT
370
    -1
  9
$ENDCAPS
280
     0
  9
$JOINSTYLE
280
     0
  9
$LWDISPLAY
290
     1
  9
$INSUNITS
 70
     4
  9
$HYPERLINKBASE
  1

  9
$STYLESHEET
  1

  9
$XEDIT
290
     1
  9
$CEPSNTYPE
380
     0
  9
$PSTYLEMODE
290
     1
  9
$FINGERPRINTGUID
  2
{98353C43-805F-4B7E-8229-06C51C40441F}
  9
$VERSIONGUID
  2
{FAEB1C32-E019-11D5-929B-00C0DF256EC4}
  9
$EXTNAMES
290
     1
  9
$PSVPSCALE
 40
0.0
  9
$OLESTARTUP
290
     0
  0
ENDSEC
  0
SECTION
  2
CLASSES
  0
CLASS
  1
ACDBDICTIONARYWDFLT
  2
AcDbDictionaryWithDefault
  3
ObjectDBX Classes
 90
        0
280
     0
281
     0
  0
CLASS
  1
VISUALSTYLE
  2
AcDbVisualStyle
  3
ObjectDBX Classes
 90
     4095
280
     0
281
     0
  0
CLASS
  1
MATERIAL
  2
AcDbMaterial
  3
ObjectDBX Classes
 90
     1153
280
     0
281
     0
  0
CLASS
  1
SCALE
  2
AcDbScale
  3
ObjectDBX Classes
 90
     1153
280
     0
281
     0
  0
CLASS
  1
TABLESTYLE
  2
AcDbTableStyle
  3
ObjectDBX Classes
 90
     4095
280
     0
281
     0
  0
CLASS
  1
MLEADERSTYLE
  2
AcDbMLeaderStyle
  3
ACDB_MLEADERSTYLE_CLASS
 90
     4095
280
     0
281
     0
  0
CLASS
  1
SUN
  2
AcDbSun
  3
SCENEOE
 90
     1153
280
     0
281
     0
  0
CLASS
  1
ACDBPLACEHOLDER
  2
AcDbPlaceHolder
  3
ObjectDBX Classes
 90
        0
280
     0
281
     0
  0
CLASS
  1
LAYOUT
  2
AcDbLayout
  3
ObjectDBX Classes
 90
        0
280
     0
281
     0
  0
ENDSEC
  0
SECTION
  2
TABLES
  0
TABLE
  2
VPORT
  5
8
330
0
100
AcDbSymbolTable
 70
     1
  0
VPORT
  5
29
330
8
100
AcDbSymbolTableRecord
100
AcDbViewportTableRecord
  2
*Active
 70
     0
 10
0.0
 20
0.0
 11
1.0
 21
1.0
 12
148.5
 22
105.0
 13
0.0
 23
0.0
 14
10.0
 24
10.0
 15
10.0
 25
10.0
 16
0.0
 26
0.0
 36
1.0
 17
0.0
 27
0.0
 37
0.0
 40
210.0
 41
1.4142857143
 42
50.0
 43
0.0
 44
0.0
 50
0.0
 51
0.0
 71
     0
 72
  2000
 73
     1
 74
     3
 75
     0
 76
     0
 77
     0
 78
     0
281
     0
 65
     1
110
0.0
120
0.0
130
0.0
111
1.0
121
0.0
131
0.0
112
0.0
122
1.0
132
0.0
 79
     0
146
0.0
  0
ENDTAB
  0
TABLE
  2
LTYPE
  5
5
330
0
100
AcDbSymbolTable
 70
     6
  0
LTYPE
  5
14
330
5
100
AcDbSymbolTableRecord
100
AcDbLinetypeTableRecord
  2
ByBlock
 70
     0
  3

 72
    65
 73
     0
 40
0.0
  0
LTYPE
  5
15
330
5
100
AcDbSymbolTableRecord
100
AcDbLinetypeTableRecord
  2
ByLayer
 70
     0
  3

 72
    65
 73
     0
 40
0.0
  0
LTYPE
  5
16
330
5
100
AcDbSymbolTableRecord
100
AcDbLinetypeTableRecord
  2
Continuous
 70
     0
  3
Solid line
 72
    65
 73
     0
 40
0.0
  0
LTYPE
  5
6E
330
5
100
AcDbSymbolTableRecord
100
AcDbLinetypeTableRecord
  2
HIDDEN
 70
     0
  3
Hidden __ __ __ __ __ __ __ __ __ __ __ __ __ __
 72
    65
 73
     2
 40
1.905
 49
1.27
 74
     0
 49
-0.635
 74
     0
  0
LTYPE
  5
6F
330
5
100
AcDbSymbolTableRecord
100
AcDbLinetypeTableRecord
  2
PHANTOM
 70
     0
  3
Phantom ______  __  __  ______  __  __  ______
 72
    65
 73
     6
 40
12.7
 49
6.35
 74
     0
 49
-1.27
 74
     0
 49
1.27
 74
     0
 49
-1.27
 74
     0
 49
1.27
 74
     0
 49
-1.27
 74
     0
  0
LTYPE
  5
70
330
5
100
AcDbSymbolTableRecord
100
AcDbLinetypeTableRecord
  2
CENTER
 70
     0
  3
Center ____ _ ____ _ ____ _ ____ _ ____ _ ____
 72
    65
 73
     4
 40
10.16
 49
6.35
 74
     0
 49
-1.27
 74
     0
 49
1.27
 74
     0
 49
-1.27
 74
     0
  0
LTYPE
  5
71
330
5
100
AcDbSymbolTableRecord
100
AcDbLinetypeTableRecord
  2
CENTERX2
 70
     0
  3
Center (2x) ________  __  ________  __  _____
 72
    65
 73
     4
 40
20.32
 49
12.7
 74
     0
 49
-2.54
 74
     0
 49
2.54
 74
     0
 49
-2.54
 74
     0
  0
LTYPE
  5
72
330
5
100
AcDbSymbolTableRecord
100
AcDbLinetypeTableRecord
  2
DOT2
 70
     0
  3
Dot (.5x) ........................................
 72
    65
 73
     2
 40
0.635
 49
0.0
 74
     0
 49
-0.635
 74
     0
  0
ENDTAB
  0
TABLE
  2
LAYER
  5
2
330
0
100
AcDbSymbolTable
 70
     5
  0
LAYER
  5
10
330
2
100
AcDbSymbolTableRecord
100
AcDbLayerTableRecord
  2
0
 70
     0
 62
     7
  6
Continuous
370
    -3
390
F
  0
LAYER
  5
73
330
2
100
AcDbSymbolTableRecord
100
AcDbLayerTableRecord
  2
FORMAT
 70
     0
 62
     7
  6
Continuous
370
    -3
390
F
  0
LAYER
  5
74
330
2
100
AcDbSymbolTableRecord
100
AcDbLayerTableRecord
  2
VERMASSUNG
 70
     0
 62
     7
  6
Continuous
370
    -3
390
F
  0
LAYER
  5
75
330
2
100
AcDbSymbolTableRecord
100
AcDbLayerTableRecord
  2
KOPF_DÜNN
 70
     0
 62
     7
  6
Continuous
370
    -3
390
F
  0
LAYER
  5
76
330
2
100
AcDbSymbolTableRecord
100
AcDbLayerTableRecord
  2
KOPF_DICK
 70
     0
 62
     7
  6
Continuous
370
    15
390
F
  0
ENDTAB
  0
TABLE
  2
STYLE
  5
3
330
0
100
AcDbSymbolTable
 70
     2
  0
STYLE
  5
11
330
3
100
AcDbSymbolTableRecord
100
AcDbTextStyleTableRecord
  2
Standard
 70
     0
 40
0.0
 41
1.0
 50
0.0
 71
     0
 42
2.0
  3
txt
  4

  0
STYLE
  5
77
330
3
100
AcDbSymbolTableRecord
100
AcDbTextStyleTableRecord
  2
SLDTEXTSTYLE0
 70
     0
 40
0.0
 41
0.7
 50
0.0
 71
     0
 42
2.0
  3
TXT
  4

  0
ENDTAB
  0
TABLE
  2
VIEW
  5
6
330
0
100
AcDbSymbolTable
 70
     0
  0
ENDTAB
  0
TABLE
  2
UCS
  5
7
330
0
100
AcDbSymbolTable
 70
     0
  0
ENDTAB
  0
TABLE
  2
APPID
  5
9
330
0
100
AcDbSymbolTable
 70
     1
  0
APPID
  5
12
330
9
100
AcDbSymbolTableRecord
100
AcDbRegAppTableRecord
  2
ACAD
 70
     0
  0
ENDTAB
  0
TABLE
  2
DIMSTYLE
  5
A
330
0
100
AcDbSymbolTable
 70
     3
100
AcDbDimStyleTable
  0
DIMSTYLE
105
27
330
A
100
AcDbSymbolTableRecord
100
AcDbDimStyleTableRecord
  2
ISO-25
 70
     0
 41
2.5
 42
0.625
 43
3.75
 44
1.25
 73
     0
 74
     0
 77
     1
 78
     8
140
2.5
141
2.5
143
0.0393700787
147
0.625
171
     3
172
     1
178
     0
271
     2
272
     2
274
     3
278
    44
283
     0
284
     8
340
11
  0
DIMSTYLE
105
1A2
102
{ACAD_REACTORS
330
1A1
330
1AE
330
1B8
330
1C2
330
1CC
102
}
330
A
100
AcDbSymbolTableRecord
100
AcDbDimStyleTableRecord
  2
SLDDIMSTYLE0
 70
     0
 41
3.0
 44
0.0
 45
0.000000001
 73
     0
 74
     0
 77
     1
 78
    12
 79
     3
140
2.0
147
0.5
173
     1
178
     0
271
     2
272
     3
276
     2
284
    12
340
77
  0
DIMSTYLE
105
1DE
330
A
100
AcDbSymbolTableRecord
100
AcDbDimStyleTableRecord
  2
SLDDIMSTYLE1
 70
     0
 41
0.9
 44
0.0
 45
0.000000001
146
0.9
147
0.0
173
     1
178
     0
271
     0
272
     0
276
     2
340
11
341
1DF
343
1DF
344
1DF
  0
ENDTAB
  0
TABLE
  2
BLOCK_RECORD
  5
1
330
0
100
AcDbSymbolTable
 70
    10
  0
BLOCK_RECORD
  5
1F
330
1
100
AcDbSymbolTableRecord
100
AcDbBlockTableRecord
  2
*Model_Space
340
22
  0
BLOCK_RECORD
  5
1B
330
1
100
AcDbSymbolTableRecord
100
AcDbBlockTableRecord
  2
*Paper_Space
340
1E
  0
BLOCK_RECORD
  5
23
330
1
100
AcDbSymbolTableRecord
100
AcDbBlockTableRecord
  2
*Paper_Space0
340
26
  0
BLOCK_RECORD
  5
7D
330
1
100
AcDbSymbolTableRecord
100
AcDbBlockTableRecord
  2
SW_TABLEANNOTATION_0
340
0
102
{BLKREFS
331
98
102
}
  0
BLOCK_RECORD
  5
1A3
330
1
100
AcDbSymbolTableRecord
100
AcDbBlockTableRecord
  2
_D
340
0
  0
BLOCK_RECORD
  5
1AF
330
1
100
AcDbSymbolTableRecord
100
AcDbBlockTableRecord
  2
_D_1
340
0
  0
BLOCK_RECORD
  5
1B9
330
1
100
AcDbSymbolTableRecord
100
AcDbBlockTableRecord
  2
_D_2
340
0
  0
BLOCK_RECORD
  5
1C3
330
1
100
AcDbSymbolTableRecord
100
AcDbBlockTableRecord
  2
_D_3
340
0
  0
BLOCK_RECORD
  5
1CD
330
1
100
AcDbSymbolTableRecord
100
AcDbBlockTableRecord
  2
_D_4
340
0
  0
BLOCK_RECORD
  5
1D8
330
1
100
AcDbSymbolTableRecord
100
AcDbBlockTableRecord
  2
SW_NOTE_0
340
0
102
{BLKREFS
331
1DD
102
}
  0
BLOCK_RECORD
  5
1DF
330
1
100
AcDbSymbolTableRecord
100
AcDbBlockTableRecord
  2
_DOT
340
0
  0
BLOCK_RECORD
  5
1E8
330
1
100
AcDbSymbolTableRecord
100
AcDbBlockTableRecord
  2
SW_NOTE_1
340
0
102
{BLKREFS
331
1ED
102
}
  0
ENDTAB
  0
ENDSEC
  0
SECTION
  2
BLOCKS
  0
BLOCK
  5
20
330
1F
100
AcDbEntity
  8
0
100
AcDbBlockBegin
  2
*Model_Space
 70
     0
 10
0.0
 20
0.0
 30
0.0
  3
*Model_Space
  1

  0
ENDBLK
  5
21
330
1F
100
AcDbEntity
  8
0
100
AcDbBlockEnd
  0
BLOCK
  5
1C
330
1B
100
AcDbEntity
 67
     1
  8
0
100
AcDbBlockBegin
  2
*Paper_Space
 70
     0
 10
0.0
 20
0.0
 30
0.0
  3
*Paper_Space
  1

  0
ENDBLK
  5
1D
330
1B
100
AcDbEntity
 67
     1
  8
0
100
AcDbBlockEnd
  0
BLOCK
  5
24
330
23
100
AcDbEntity
  8
0
100
AcDbBlockBegin
  2
*Paper_Space0
 70
     0
 10
0.0
 20
0.0
 30
0.0
  3
*Paper_Space0
  1

  0
ENDBLK
  5
25
330
23
100
AcDbEntity
  8
0
100
AcDbBlockEnd
  0
BLOCK
  5
7E
330
7D
100
AcDbEntity
  8
0
100
AcDbBlockBegin
  2
SW_TABLEANNOTATION_0
 70
     0
 10
0.0
 20
0.0
 30
0.0
  3
SW_TABLEANNOTATION_0
  1

  0
LINE
  5
80
330
7D
100
AcDbEntity
  8
0
  6
Continuous
 62
     0
370
     0
100
AcDbLine
 10
0.0
 20
0.0
 30
0.0
 11
0.0
 21
-10.9613963039
 31
0.0
  0
LINE
  5
81
330
7D
100
AcDbEntity
  8
0
  6
Continuous
 62
     0
370
     0
100
AcDbLine
 10
0.0
 20
-10.9613963039
 30
0.0
 11
125.0044361962
 21
-10.9613963039
 31
0.0
  0
LINE
  5
82
330
7D
100
AcDbEntity
  8
0
  6
Continuous
 62
     0
370
     0
100
AcDbLine
 10
125.0044361962
 20
-10.9613963039
 30
0.0
 11
125.0044361962
 21
0.0
 31
0.0
  0
LINE
  5
83
330
7D
100
AcDbEntity
  8
0
  6
Continuous
 62
     0
370
     0
100
AcDbLine
 10
125.0044361962
 20
0.0
 30
0.0
 11
0.0
 21
0.0
 31
0.0
  0
LINE
  5
84
330
7D
100
AcDbEntity
  8
0
  6
Continuous
 62
     0
370
     0
100
AcDbLine
 10
15.9651052694
 20
-7.3075975359
 30
0.0
 11
15.9651052694
 21
-10.9613963039
 31
0.0
  0
LINE
  5
85
330
7D
100
AcDbEntity
  8
0
  6
Continuous
 62
     0
370
     0
100
AcDbLine
 10
34.1012448998
 20
-7.3075975359
 30
0.0
 11
34.1012448998
 21
-10.9613963039
 31
0.0
  0
LINE
  5
86
330
7D
100
AcDbEntity
  8
0
  6
Continuous
 62
     0
370
     0
100
AcDbLine
 10
92.6586456418
 20
-7.3075975359
 30
0.0
 11
92.6586456418
 21
-10.9613963039
 31
0.0
  0
LINE
  5
87
330
7D
100
AcDbEntity
  8
0
  6
Continuous
 62
     0
370
     0
100
AcDbLine
 10
15.9651052694
 20
0.0
 30
0.0
 11
15.9651052694
 21
-7.3075975359
 31
0.0
  0
LINE
  5
88
330
7D
100
AcDbEntity
  8
0
  6
Continuous
 62
     0
370
     0
100
AcDbLine
 10
34.1012448998
 20
0.0
 30
0.0
 11
34.1012448998
 21
-7.3075975359
 31
0.0
  0
LINE
  5
89
330
7D
100
AcDbEntity
  8
0
  6
Continuous
 62
     0
370
     0
100
AcDbLine
 10
92.6586456418
 20
0.0
 30
0.0
 11
92.6586456418
 21
-7.3075975359
 31
0.0
  0
LINE
  5
8A
330
7D
100
AcDbEntity
  8
0
  6
Continuous
 62
     0
370
     0
100
AcDbLine
 10
0.0
 20
-3.653798768
 30
0.0
 11
125.0044361962
 21
-3.653798768
 31
0.0
  0
LINE
  5
8B
330
7D
100
AcDbEntity
  8
0
  6
Continuous
 62
     0
370
     0
100
AcDbLine
 10
0.0
 20
-7.3075975359
 30
0.0
 11
125.0044361962
 21
-7.3075975359
 31
0.0
  0
MTEXT
  5
8C
330
7D
100
AcDbEntity
  8
0
  6
Continuous
 62
     0
370
     0
100
AcDbMText
 10
5.2825527975
 20
-7.9563615651
 30
0.0
 40
2.0
 41
0.0
 71
     1
 72
     1
  1
POS.
  7
SLDTEXTSTYLE0
 73
     1
 44
1.0
  0
MTEXT
  5
8D
330
7D
100
AcDbEntity
  8
0
  6
Continuous
 62
     0
370
     0
100
AcDbMText
 10
21.1331751904
 20
-7.9563615651
 30
0.0
 40
2.0
 41
0.0
 71
     1
 72
     1
  1
MENGE
  7
SLDTEXTSTYLE0
 73
     1
 44
1.0
  0
MTEXT
  5
8E
330
7D
100
AcDbEntity
  8
0
  6
Continuous
 62
     0
370
     0
100
AcDbMText
 10
56.0799464956
 20
-7.9563615651
 30
0.0
 40
2.0
 41
0.0
 71
     1
 72
     1
  1
Bezeichnung
  7
SLDTEXTSTYLE0
 73
     1
 44
1.0
  0
MTEXT
  5
8F
330
7D
100
AcDbEntity
  8
0
  6
Continuous
 62
     0
370
     0
100
AcDbMText
 10
97.7315420798
 20
-7.9563615651
 30
0.0
 40
2.0
 41
0.0
 71
     1
 72
     1
  1
Zeichnungsnummer
  7
SLDTEXTSTYLE0
 73
     1
 44
1.0
  0
MTEXT
  5
90
330
7D
100
AcDbEntity
  8
0
  6
Continuous
 62
     0
370
     0
100
AcDbMText
 10
7.2825526596
 20
-0.9171773494
 30
0.0
 40
2.0
 41
0.0
 71
     1
 72
     1
  1
2
  7
SLDTEXTSTYLE0
 73
     1
 44
1.0
  0
MTEXT
  5
91
330
7D
100
AcDbEntity
  8
0
  6
Continuous
 62
     0
370
     0
100
AcDbMText
 10
24.5331750608
 20
-0.9171773494
 30
0.0
 40
2.0
 41
0.0
 71
     1
 72
     1
  1
1
  7
SLDTEXTSTYLE0
 73
     1
 44
1.0
  0
MTEXT
  5
92
330
7D
100
AcDbEntity
  8
0
  6
Continuous
 62
     0
370
     0
100
AcDbMText
 10
54.2799467594
 20
-0.9171773494
 30
0.0
 40
2.0
 41
0.0
 71
     1
 72
     1
  1
Klemmschraube
  7
SLDTEXTSTYLE0
 73
     1
 44
1.0
  0
MTEXT
  5
93
330
7D
100
AcDbEntity
  8
0
  6
Continuous
 62
     0
370
     0
100
AcDbMText
 10
99.1315415642
 20
-0.9171773494
 30
0.0
 40
2.0
 41
0.0
 71
     1
 72
     1
  1
MB9-ER1.001.032
  7
SLDTEXTSTYLE0
 73
     1
 44
1.0
  0
MTEXT
  5
94
330
7D
100
AcDbEntity
  8
0
  6
Continuous
 62
     0
370
     0
100
AcDbMText
 10
7.4825526109
 20
-4.5709761174
 30
0.0
 40
2.0
 41
0.0
 71
     1
 72
     1
  1
1
  7
SLDTEXTSTYLE0
 73
     1
 44
1.0
  0
MTEXT
  5
95
330
7D
100
AcDbEntity
  8
0
  6
Continuous
 62
     0
370
     0
100
AcDbMText
 10
24.5331750608
 20
-4.5709761174
 30
0.0
 40
2.0
 41
0.0
 71
     1
 72
     1
  1
1
  7
SLDTEXTSTYLE0
 73
     1
 44
1.0
  0
MTEXT
  5
96
330
7D
100
AcDbEntity
  8
0
  6
Continuous
 62
     0
370
     0
100
AcDbMText
 10
54.2799448967
 20
-4.5709761174
 30
0.0
 40
2.0
 41
0.0
 71
     1
 72
     1
  1
Aufnahme MBM
  7
SLDTEXTSTYLE0
 73
     1
 44
1.0
  0
MTEXT
  5
97
330
7D
100
AcDbEntity
  8
0
  6
Continuous
 62
     0
370
     0
100
AcDbMText
 10
98.8315411425
 20
-4.5709761174
 30
0.0
 40
2.0
 41
0.0
 71
     1
 72
     1
  1
HA6-MB9.K01.105
  7
SLDTEXTSTYLE0
 73
     1
 44
1.0
  0
ENDBLK
  5
7F
330
7D
100
AcDbEntity
  8
0
100
AcDbBlockEnd
  0
BLOCK
  5
1A4
330
1A3
100
AcDbEntity
  8
0
100
AcDbBlockBegin
  2
_D
 70
     0
 10
0.0
 20
0.0
 30
0.0
  3
_D
  1

  0
SOLID
  5
1A6
330
1A3
100
AcDbEntity
  8
VERMASSUNG
100
AcDbTrace
 10
57.8690390301
 20
139.2927129424
 30
0.0
 11
57.4190390301
 21
136.2927129424
 31
0.0
 12
58.3190390301
 22
136.2927129424
 32
0.0
 13
58.3190390301
 23
136.2927129424
 33
0.0
  0
SOLID
  5
1A7
330
1A3
100
AcDbEntity
  8
VERMASSUNG
100
AcDbTrace
 10
57.8690390301
 20
76.2927129424
 30
0.0
 11
58.3190390301
 21
79.2927129424
 31
0.0
 12
57.4190390301
 22
79.2927129424
 32
0.0
 13
57.4190390301
 23
79.2927129424
 33
0.0
  0
LINE
  5
1A8
330
1A3
100
AcDbEntity
  8
VERMASSUNG
100
AcDbLine
 10
95.6473196357
 20
139.2927129424
 30
0.0
 11
56.8690390301
 21
139.2927129424
 31
0.0
  0
LINE
  5
1A9
330
1A3
100
AcDbEntity
  8
VERMASSUNG
100
AcDbLine
 10
95.6473196357
 20
76.2927129424
 30
0.0
 11
56.8690390301
 21
76.2927129424
 31
0.0
  0
LINE
  5
1AA
330
1A3
100
AcDbEntity
  8
VERMASSUNG
100
AcDbLine
 10
57.8690390301
 20
139.2927129424
 30
0.0
 11
57.8690390301
 21
76.2927129424
 31
0.0
  0
MTEXT
  5
1AB
330
1A3
100
AcDbEntity
  8
VERMASSUNG
100
AcDbMText
 10
55.0909037738
 20
99.4209277162
 30
0.0
 40
2.0
 41
0.0
 71
     1
 72
     1
  1
HSK A
  7
SLDTEXTSTYLE0
 11
-7.044195017643634E-15
 21
1.0
 31
0.0
 73
     1
 44
1.0
  0
MTEXT
  5
1AC
330
1A3
100
AcDbEntity
  8
VERMASSUNG
100
AcDbMText
 10
55.2909037251
 20
108.4209273288
 30
0.0
 40
2.0
 41
0.0
 71
     1
 72
     1
  1
%%c
  7
SLDTEXTSTYLE0
 11
-7.044195017643634E-15
 21
1.0
 31
0.0
 73
     1
 44
1.0
  0
MTEXT
  5
1AD
330
1A3
100
AcDbEntity
  8
VERMASSUNG
100
AcDbMText
 10
55.2909034341
 20
112.0302706617
 30
0.0
 40
2.0
 41
0.0
 71
     1
 72
     1
  1
63
  7
SLDTEXTSTYLE0
 11
-7.044195017643634E-15
 21
1.0
 31
0.0
 73
     1
 44
1.0
  0
ENDBLK
  5
1A5
330
1A3
100
AcDbEntity
  8
0
100
AcDbBlockEnd
  0
BLOCK
  5
1B0
330
1AF
100
AcDbEntity
  8
0
100
AcDbBlockBegin
  2
_D_1
 70
     0
 10
0.0
 20
0.0
 30
0.0
  3
_D_1
  1

  0
SOLID
  5
1B2
330
1AF
100
AcDbEntity
  8
VERMASSUNG
100
AcDbTrace
 10
200.3473196357
 20
167.7820571001
 30
0.0
 11
197.3473196357
 21
168.2320571001
 31
0.0
 12
197.3473196357
 22
167.3320571001
 32
0.0
 13
197.3473196357
 23
167.3320571001
 33
0.0
  0
SOLID
  5
1B3
330
1AF
100
AcDbEntity
  8
VERMASSUNG
100
AcDbTrace
 10
95.3473196357
 20
167.7820571001
 30
0.0
 11
98.3473196357
 21
167.3320571001
 31
0.0
 12
98.3473196357
 22
168.2320571001
 32
0.0
 13
98.3473196357
 23
168.2320571001
 33
0.0
  0
LINE
  5
1B4
330
1AF
100
AcDbEntity
  8
VERMASSUNG
100
AcDbLine
 10
200.3473196357
 20
153.8927129424
 30
0.0
 11
200.3473196357
 21
168.7820571001
 31
0.0
  0
LINE
  5
1B5
330
1AF
100
AcDbEntity
  8
VERMASSUNG
100
AcDbLine
 10
95.3473196357
 20
138.9927129424
 30
0.0
 11
95.3473196357
 21
168.7820571001
 31
0.0
  0
LINE
  5
1B6
330
1AF
100
AcDbEntity
  8
VERMASSUNG
100
AcDbLine
 10
200.3473196357
 20
167.7820571001
 30
0.0
 11
95.3473196357
 21
167.7820571001
 31
0.0
  0
MTEXT
  5
1B7
330
1AF
100
AcDbEntity
  8
VERMASSUNG
100
AcDbMText
 10
142.113884585
 20
170.3601926961
 30
0.0
 40
2.0
 41
0.0
 71
     1
 72
     1
  1
105
  7
SLDTEXTSTYLE0
 73
     1
 44
1.0
  0
ENDBLK
  5
1B1
330
1AF
100
AcDbEntity
  8
0
100
AcDbBlockEnd
  0
BLOCK
  5
1BA
330
1B9
100
AcDbEntity
  8
0
100
AcDbBlockBegin
  2
_D_2
 70
     0
 10
0.0
 20
0.0
 30
0.0
  3
_D_2
  1

  0
SOLID
  5
1BC
330
1B9
100
AcDbEntity
  8
VERMASSUNG
100
AcDbTrace
 10
200.3473196357
 20
161.7820571001
 30
0.0
 11
197.3473196357
 21
162.2320571001
 31
0.0
 12
197.3473196357
 22
161.3320571001
 32
0.0
 13
197.3473196357
 23
161.3320571001
 33
0.0
  0
SOLID
  5
1BD
330
1B9
100
AcDbEntity
  8
VERMASSUNG
100
AcDbTrace
 10
121.2973196357
 20
161.7820571001
 30
0.0
 11
124.2973196357
 21
161.3320571001
 31
0.0
 12
124.2973196357
 22
162.2320571001
 32
0.0
 13
124.2973196357
 23
162.2320571001
 33
0.0
  0
LINE
  5
1BE
330
1B9
100
AcDbEntity
  8
VERMASSUNG
100
AcDbLine
 10
200.3473196357
 20
153.8927129424
 30
0.0
 11
200.3473196357
 21
162.7820571001
 31
0.0
  0
LINE
  5
1BF
330
1B9
100
AcDbEntity
  8
VERMASSUNG
100
AcDbLine
 10
121.2973196357
 20
137.6391532661
 30
0.0
 11
121.2973196357
 21
162.7820571001
 31
0.0
  0
LINE
  5
1C0
330
1B9
100
AcDbEntity
  8
VERMASSUNG
100
AcDbLine
 10
200.3473196357
 20
161.7820571001
 30
0.0
 11
121.2973196357
 21
161.7820571001
 31
0.0
  0
MTEXT
  5
1C1
330
1B9
100
AcDbEntity
  8
VERMASSUNG
100
AcDbMText
 10
161.5502978287
 20
164.3601926961
 30
0.0
 40
2.0
 41
0.0
 71
     1
 72
     1
  1
79.05
  7
SLDTEXTSTYLE0
 73
     1
 44
1.0
  0
ENDBLK
  5
1BB
330
1B9
100
AcDbEntity
  8
0
100
AcDbBlockEnd
  0
BLOCK
  5
1C4
330
1C3
100
AcDbEntity
  8
0
100
AcDbBlockBegin
  2
_D_3
 70
     0
 10
0.0
 20
0.0
 30
0.0
  3
_D_3
  1

  0
SOLID
  5
1C6
330
1C3
100
AcDbEntity
  8
VERMASSUNG
100
AcDbTrace
 10
200.3473196357
 20
173.7820571001
 30
0.0
 11
197.3473196357
 21
174.2320571001
 31
0.0
 12
197.3473196357
 22
173.3320571001
 32
0.0
 13
197.3473196357
 23
173.3320571001
 33
0.0
  0
SOLID
  5
1C7
330
1C3
100
AcDbEntity
  8
VERMASSUNG
100
AcDbTrace
 10
63.4473196357
 20
173.7820571001
 30
0.0
 11
66.4473196357
 21
173.3320571001
 31
0.0
 12
66.4473196357
 22
174.2320571001
 32
0.0
 13
66.4473196357
 23
174.2320571001
 33
0.0
  0
LINE
  5
1C8
330
1C3
100
AcDbEntity
  8
VERMASSUNG
100
AcDbLine
 10
200.3473196357
 20
153.8927129424
 30
0.0
 11
200.3473196357
 21
174.7820571001
 31
0.0
  0
LINE
  5
1C9
330
1C3
100
AcDbEntity
  8
VERMASSUNG
100
AcDbLine
 10
63.4473196357
 20
127.4833906889
 30
0.0
 11
63.4473196357
 21
174.7820571001
 31
0.0
  0
LINE
  5
1CA
330
1C3
100
AcDbEntity
  8
VERMASSUNG
100
AcDbLine
 10
200.3473196357
 20
173.7820571001
 30
0.0
 11
63.4473196357
 21
173.7820571001
 31
0.0
  0
MTEXT
  5
1CB
330
1C3
100
AcDbEntity
  8
VERMASSUNG
100
AcDbMText
 10
138.8376410376
 20
176.3601926961
 30
0.0
 40
2.0
 41
0.0
 71
     1
 72
     1
  1
136.9
  7
SLDTEXTSTYLE0
 73
     1
 44
1.0
  0
ENDBLK
  5
1C5
330
1C3
100
AcDbEntity
  8
0
100
AcDbBlockEnd
  0
BLOCK
  5
1CE
330
1CD
100
AcDbEntity
  8
0
100
AcDbBlockBegin
  2
_D_4
 70
     0
 10
0.0
 20
0.0
 30
0.0
  3
_D_4
  1

  0
SOLID
  5
1D0
330
1CD
100
AcDbEntity
  8
VERMASSUNG
100
AcDbTrace
 10
212.152094517
 20
154.7927129424
 30
0.0
 11
211.702094517
 21
151.7927129424
 31
0.0
 12
212.602094517
 22
151.7927129424
 32
0.0
 13
212.602094517
 23
151.7927129424
 33
0.0
  0
SOLID
  5
1D1
330
1CD
100
AcDbEntity
  8
VERMASSUNG
100
AcDbTrace
 10
212.152094517
 20
60.7927129424
 30
0.0
 11
212.602094517
 21
63.7927129424
 31
0.0
 12
211.702094517
 22
63.7927129424
 32
0.0
 13
211.702094517
 23
63.7927129424
 33
0.0
  0
LINE
  5
1D2
330
1CD
100
AcDbEntity
  8
VERMASSUNG
100
AcDbLine
 10
199.4473196357
 20
154.7927129424
 30
0.0
 11
213.152094517
 21
154.7927129424
 31
0.0
  0
LINE
  5
1D3
330
1CD
100
AcDbEntity
  8
VERMASSUNG
100
AcDbLine
 10
199.4473196357
 20
60.7927129424
 30
0.0
 11
213.152094517
 21
60.7927129424
 31
0.0
  0
LINE
  5
1D4
330
1CD
100
AcDbEntity
  8
VERMASSUNG
100
AcDbLine
 10
212.152094517
 20
154.7927129424
 30
0.0
 11
212.152094517
 21
60.7927129424
 31
0.0
  0
MTEXT
  5
1D5
330
1CD
100
AcDbEntity
  8
VERMASSUNG
100
AcDbMText
 10
209.3739592608
 20
100.6202892599
 30
0.0
 40
2.0
 41
0.0
 71
     1
 72
     1
  1
MBM
  7
SLDTEXTSTYLE0
 11
-7.044195017643634E-15
 21
1.0
 31
0.0
 73
     1
 44
1.0
  0
MTEXT
  5
1D6
330
1CD
100
AcDbEntity
  8
VERMASSUNG
100
AcDbMText
 10
209.5739592121
 20
107.0202890982
 30
0.0
 40
2.0
 41
0.0
 71
     1
 72
     1
  1
%%c
  7
SLDTEXTSTYLE0
 11
-7.044195017643634E-15
 21
1.0
 31
0.0
 73
     1
 44
1.0
  0
MTEXT
  5
1D7
330
1CD
100
AcDbEntity
  8
VERMASSUNG
100
AcDbMText
 10
209.3739592608
 20
110.6302895782
 30
0.0
 40
2.0
 41
0.0
 71
     1
 72
     1
  1
94
  7
SLDTEXTSTYLE0
 11
-7.044195017643634E-15
 21
1.0
 31
0.0
 73
     1
 44
1.0
  0
ENDBLK
  5
1CF
330
1CD
100
AcDbEntity
  8
0
100
AcDbBlockEnd
  0
BLOCK
  5
1D9
330
1D8
100
AcDbEntity
  8
0
100
AcDbBlockBegin
  2
SW_NOTE_0
 70
     0
 10
0.0
 20
0.0
 30
0.0
  3
SW_NOTE_0
  1

  0
CIRCLE
  5
1DB
330
1D8
100
AcDbEntity
  8
VERMASSUNG
 62
     0
100
AcDbCircle
 10
0.0
 20
-2.5028270988
 30
0.0
 40
2.50282709876212
  0
MTEXT
  5
1DC
330
1D8
100
AcDbEntity
  8
VERMASSUNG
 62
     0
100
AcDbMText
 10
-0.0000000237
 20
-1.8101961014
 30
0.0
 40
2.0
 41
0.0
 71
     2
 72
     1
  1
1
  7
SLDTEXTSTYLE0
 73
     1
 44
1.0
  0
ENDBLK
  5
1DA
330
1D8
100
AcDbEntity
  8
0
100
AcDbBlockEnd
  0
BLOCK
  5
1E0
330
1DF
100
AcDbEntity
  8
0
100
AcDbBlockBegin
  2
_DOT
 70
     0
 10
0.0
 20
0.0
 30
0.0
  3
_DOT
  1

  0
POLYLINE
  5
1E2
330
1DF
100
AcDbEntity
  8
0
  6
ByBlock
 62
     0
100
AcDb2dPolyline
 66
     1
 10
0.0
 20
0.0
 30
0.0
 70
     1
 40
0.5
 41
0.5
  0
VERTEX
  5
1E4
330
1E2
100
AcDbEntity
  8
0
  6
ByBlock
 62
     0
100
AcDbVertex
100
AcDb2dVertex
 10
-0.25
 20
0.0
 30
0.0
 42
1.0
  0
VERTEX
  5
1E5
330
1E2
100
AcDbEntity
  8
0
  6
ByBlock
 62
     0
100
AcDbVertex
100
AcDb2dVertex
 10
0.25
 20
0.0
 30
0.0
 42
1.0
  0
SEQEND
  5
1E6
330
1E2
100
AcDbEntity
  8
0
  6
ByBlock
 62
     0
  0
LINE
  5
1E3
330
1DF
100
AcDbEntity
  8
0
  6
ByBlock
 62
     0
370
    -2
100
AcDbLine
 10
-0.5
 20
0.0
 30
0.0
 11
-1.0
 21
0.0
 31
0.0
  0
ENDBLK
  5
1E1
330
1DF
100
AcDbEntity
  8
0
100
AcDbBlockEnd
  0
BLOCK
  5
1E9
330
1E8
100
AcDbEntity
  8
0
100
AcDbBlockBegin
  2
SW_NOTE_1
 70
     0
 10
0.0
 20
0.0
 30
0.0
  3
SW_NOTE_1
  1

  0
CIRCLE
  5
1EB
330
1E8
100
AcDbEntity
  8
VERMASSUNG
 62
     0
100
AcDbCircle
 10
0.0
 20
-2.5028270988
 30
0.0
 40
2.50282709876212
  0
MTEXT
  5
1EC
330
1E8
100
AcDbEntity
  8
VERMASSUNG
 62
     0
100
AcDbMText
 10
-0.012499975
 20
-1.8101961014
 30
0.0
 40
2.0
 41
0.0
 71
     2
 72
     1
  1
2
  7
SLDTEXTSTYLE0
 73
     1
 44
1.0
  0
ENDBLK
  5
1EA
330
1E8
100
AcDbEntity
  8
0
100
AcDbBlockEnd
  0
ENDSEC
  0
SECTION
  2
ENTITIES
  0
MTEXT
  5
78
330
1F
100
AcDbEntity
  8
KOPF_DÜNN
100
AcDbMText
 10
13.8892156294
 20
23.8442973028
 30
0.0
 40
3.0
 41
0.0
 71
     1
 72
     1
  1
102.063.941
  7
SLDTEXTSTYLE0
 73
     1
 44
1.0
  0
MTEXT
  5
79
330
1F
100
AcDbEntity
  8
VERMASSUNG
100
AcDbMText
 10
13.9329988022
 20
28.8834360957
 30
0.0
 40
3.0
 41
0.0
 71
     1
 72
     1
  1
Aufnahme
  7
SLDTEXTSTYLE0
 73
     1
 44
1.0
  0
MTEXT
  5
7A
330
1F
100
AcDbEntity
  8
VERMASSUNG
100
AcDbMText
 10
98.8601118557
 20
13.8365368761
 30
0.0
 40
2.0
 41
0.0
 71
     1
 72
     1
  1
Datum: 08.12.2006
  7
SLDTEXTSTYLE0
 73
     1
 44
1.0
  0
MTEXT
  5
7B
330
1F
100
AcDbEntity
  8
VERMASSUNG
100
AcDbMText
 10
13.933048693
 20
18.0482802738
 30
0.0
 40
2.0
 41
0.0
 71
     1
 72
     1
  1
HSK-A63 / MBM ø94
  7
SLDTEXTSTYLE0
 73
     1
 44
1.0
  0
MTEXT
  5
7C
330
1F
100
AcDbEntity
  8
VERMASSUNG
100
AcDbMText
 10
13.9808475933
 20
13.9090974274
 30
0.0
 40
2.0
 41
0.0
 71
     1
 72
     1
  1
Gewicht: 3208g
  7
SLDTEXTSTYLE0
 73
     1
 44
1.0
  0
INSERT
  5
98
330
1F
100
AcDbEntity
  8
0
  6
Continuous
 62
     7
370
     0
100
AcDbBlockReference
  2
SW_TABLEANNOTATION_0
 10
155.4069348624
 20
22.9491325334
 30
0.0
  0
LINE
  5
99
330
1F
100
AcDbEntity
  8
0
  6
Continuous
 62
     7
370
    15
100
AcDbLine
 10
199.4473196357
 20
154.7927129424
 30
0.0
 11
150.0490255579
 21
154.7927129424
 31
0.0
  0
LINE
  5
9A
330
1F
100
AcDbEntity
  8
0
  6
Continuous
 62
     7
370
    15
100
AcDbLine
 10
150.0490255579
 20
60.7927129424
 30
0.0
 11
199.4473196357
 21
60.7927129424
 31
0.0
  0
LINE
  5
9B
330
1F
100
AcDbEntity
  8
0
  6
Continuous
 62
     7
370
    15
100
AcDbLine
 10
199.4473196357
 20
60.7927129424
 30
0.0
 11
200.3473196357
 21
61.6927129424
 31
0.0
  0
LINE
  5
9C
330
1F
100
AcDbEntity
  8
0
  6
Continuous
 62
     7
370
    15
100
AcDbLine
 10
200.3473196357
 20
153.8927129424
 30
0.0
 11
199.4473196357
 21
154.7927129424
 31
0.0
  0
ARC
  5
9D
330
1F
100
AcDbEntity
  8
0
  6
Continuous
 62
     7
370
    15
100
AcDbCircle
 10
150.0490255579
 20
153.7927129424
 30
0.0
 40
1.000000000000008
100
AcDbArc
 50
90.0
 51
150.0
  0
ARC
  5
9E
330
1F
100
AcDbEntity
  8
0
  6
Continuous
 62
     7
370
    15
100
AcDbCircle
 10
150.0490255579
 20
61.7927129424
 30
0.0
 40
1.000000000000008
100
AcDbArc
 50
210.0
 51
270.0
  0
LINE
  5
9F
330
1F
100
AcDbEntity
  8
0
  6
Continuous
 62
     7
370
    15
100
AcDbLine
 10
149.1830001541
 20
154.2927129424
 30
0.0
 11
137.6359947703
 21
134.2927129424
 31
0.0
  0
LINE
  5
A0
330
1F
100
AcDbEntity
  8
0
  6
Continuous
 62
     7
370
    15
100
AcDbLine
 10
137.6359947703
 20
81.2927129424
 30
0.0
 11
149.1830001541
 21
61.2927129424
 31
0.0
  0
LINE
  5
A1
330
1F
100
AcDbEntity
  8
0
  6
Continuous
 62
     7
370
    15
100
AcDbLine
 10
95.6473196357
 20
76.2927129424
 30
0.0
 11
100.2973196357
 21
76.2927129424
 31
0.0
  0
LINE
  5
A2
330
1F
100
AcDbEntity
  8
0
  6
Continuous
 62
     7
370
    15
100
AcDbLine
 10
100.3253079948
 20
139.2927129424
 30
0.0
 11
95.6473196357
 21
139.2927129424
 31
0.0
  0
ARC
  5
A3
330
1F
100
AcDbEntity
  8
0
  6
Continuous
 62
     7
370
    15
100
AcDbCircle
 10
95.6473196357
 20
76.5927129424
 30
0.0
 40
0.3000000000000114
100
AcDbArc
 50
180.0
 51
270.0
  0
ARC
  5
A4
330
1F
100
AcDbEntity
  8
0
  6
Continuous
 62
     7
370
    15
100
AcDbCircle
 10
95.6473196357
 20
138.9927129424
 30
0.0
 40
0.2999999999999829
100
AcDbArc
 50
90.0
 51
180.0
  0
ARC
  5
A5
330
1F
100
AcDbEntity
  8
0
  6
Continuous
 62
     7
370
    15
100
AcDbCircle
 10
122.2973196357
 20
80.7927129424
 30
0.0
 40
1.0
100
AcDbArc
 50
90.0
 51
143.1139143113
  0
ARC
  5
A6
330
1F
100
AcDbEntity
  8
0
  6
Continuous
 62
     7
370
    15
100
AcDbCircle
 10
122.2973196357
 20
134.7927129424
 30
0.0
 40
1.0
100
AcDbArc
 50
216.9095844457
 51
270.0
  0
ARC
  5
A7
330
1F
100
AcDbEntity
  8
0
  6
Continuous
 62
     7
370
    15
100
AcDbCircle
 10
136.7699693665
 20
134.7927129424
 30
0.0
 40
1.0
100
AcDbArc
 50
270.0
 51
330.0
  0
ARC
  5
A8
330
1F
100
AcDbEntity
  8
0
  6
Continuous
 62
     7
370
    15
100
AcDbCircle
 10
136.7699693665
 20
80.7927129424
 30
0.0
 40
1.000000000000014
100
AcDbArc
 50
30.0
 51
90.0
  0
LINE
  5
A9
330
1F
100
AcDbEntity
  8
0
  6
Continuous
 62
     7
370
    15
100
AcDbLine
 10
122.2973196357
 20
81.7927129424
 30
0.0
 11
136.7699693665
 21
81.7927129424
 31
0.0
  0
LINE
  5
AA
330
1F
100
AcDbEntity
  8
0
  6
Continuous
 62
     7
370
    15
100
AcDbLine
 10
136.7699693665
 20
133.7927129424
 30
0.0
 11
122.2973196357
 21
133.7927129424
 31
0.0
  0
ARC
  5
AB
330
1F
100
AcDbEntity
  8
0
  6
Continuous
 62
     7
370
    15
100
AcDbCircle
 10
94.8473128831
 20
83.227285348
 30
0.0
 40
0.6000067526677242
100
AcDbArc
 50
33.5571153394
 51
90.0
  0
ARC
  5
AC
330
1F
100
AcDbEntity
  8
0
  6
Continuous
 62
     7
370
    15
100
AcDbCircle
 10
94.8473128831
 20
132.3581405367
 30
0.0
 40
0.6000067526677164
100
AcDbArc
 50
270.0
 51
326.4428846606
  0
LINE
  5
AD
330
1F
100
AcDbEntity
  8
0
  6
Continuous
 62
     7
370
    15
100
AcDbLine
 10
82.1168944169
 20
131.4504972501
 30
0.0
 11
69.5473196357
 21
130.8207590346
 31
0.0
  0
LINE
  5
AE
330
1F
100
AcDbEntity
  8
0
  6
Continuous
 62
     7
370
    15
100
AcDbLine
 10
93.3315673024
 20
132.012354609
 30
0.0
 11
90.5287134256
 21
131.8719310681
 31
0.0
  0
LINE
  5
AF
330
1F
100
AcDbEntity
  8
0
  6
Continuous
 62
     7
370
    15
100
AcDbLine
 10
90.5289348748
 20
83.713483722
 30
0.0
 11
93.3315673024
 21
83.5730712757
 31
0.0
  0
LINE
  5
B0
330
1F
100
AcDbEntity
  8
0
  6
Continuous
 62
     7
370
    15
100
AcDbLine
 10
73.5473196357
 20
84.5642660486
 30
0.0
 11
82.1175933635
 21
84.1348936173
 31
0.0
  0
LINE
  5
B1
330
1F
100
AcDbEntity
  8
0
  6
Continuous
 62
     7
370
    15
100
AcDbLine
 10
93.3315673024
 20
83.5730712757
 30
0.0
 11
94.2040324091
 21
83.8068475965
 31
0.0
  0
LINE
  5
B2
330
1F
100
AcDbEntity
  8
0
  6
Continuous
 62
     7
370
    15
100
AcDbLine
 10
94.2040324091
 20
131.7785782883
 30
0.0
 11
93.3315673024
 21
132.012354609
 31
0.0
  0
ARC
  5
B3
330
1F
100
AcDbEntity
  8
0
  6
Continuous
 62
     7
370
    15
100
AcDbCircle
 10
94.3593238362
 20
83.2272921007
 30
0.0
 40
0.6000000000000085
100
AcDbArc
 50
90.0
 51
105.0
  0
ARC
  5
B4
330
1F
100
AcDbEntity
  8
0
  6
Continuous
 62
     7
370
    15
100
AcDbCircle
 10
94.3593238362
 20
132.3581337841
 30
0.0
 40
0.6000000000000227
100
AcDbArc
 50
255.0
 51
270.0
  0
LINE
  5
B5
330
1F
100
AcDbEntity
  8
0
  6
Continuous
 62
     7
370
    15
100
AcDbLine
 10
94.3593238362
 20
83.8272921007
 30
0.0
 11
94.8473128831
 21
83.8272921007
 31
0.0
  0
LINE
  5
B6
330
1F
100
AcDbEntity
  8
0
  6
Continuous
 62
     7
370
    15
100
AcDbLine
 10
94.8473128831
 20
131.7581337841
 30
0.0
 11
94.3593238362
 21
131.7581337841
 31
0.0
  0
LINE
  5
B7
330
1F
100
AcDbEntity
  8
0
  6
Continuous
 62
     7
370
    15
100
AcDbLine
 10
64.7306562757
 20
86.9227129424
 30
0.0
 11
72.1473196357
 21
86.9227129424
 31
0.0
  0
ARC
  5
B8
330
1F
100
AcDbEntity
  8
0
  6
Continuous
 62
     7
370
    15
100
AcDbCircle
 10
72.1473196357
 20
85.5227129424
 30
0.0
 40
1.400000000000006
100
AcDbArc
 50
42.2465410162
 51
90.0
  0
LINE
  5
B9
330
1F
100
AcDbEntity
  8
0
  6
Continuous
 62
     7
370
    15
100
AcDbLine
 10
63.4483521299
 20
88.0716804482
 30
0.0
 11
64.5884830939
 21
86.9315494842
 31
0.0
  0
LINE
  5
BA
330
1F
100
AcDbEntity
  8
0
  6
Continuous
 62
     7
370
    15
100
AcDbLine
 10
64.5884830939
 20
128.6538764006
 30
0.0
 11
63.4572204091
 21
127.5226137158
 31
0.0
  0
ARC
  5
BB
330
1F
100
AcDbEntity
  8
0
  6
Continuous
 62
     7
370
    15
100
AcDbCircle
 10
68.1473196357
 20
130.0627129424
 30
0.0
 40
1.400000000000015
100
AcDbArc
 50
270.0
 51
301.7485287426
  0
LINE
  5
BC
330
1F
100
AcDbEntity
  8
0
  6
Continuous
 62
     7
370
    15
100
AcDbLine
 10
68.1473196357
 20
128.6627129424
 30
0.0
 11
64.7215853696
 21
128.6627129424
 31
0.0
  0
SPLINE
  5
BD
330
1F
100
AcDbEntity
  8
0
  6
Continuous
 62
     7
370
    15
100
AcDbSpline
210
0.0
220
0.0
230
1.0
 70
    24
 71
     3
 72
    13
 73
     9
 74
     0
 42
0.000000001
 43
0.00000001
 40
0.0
 40
0.0
 40
0.0
 40
0.0
 40
0.1282074676581365
 40
0.304441742188707
 40
0.4802277444393578
 40
0.6477338926901351
 40
0.8155708085101403
 40
1.0
 40
1.0
 40
1.0
 40
1.0
 10
179.2483856105868
 20
112.4212631441766
 30
0.0
 10
179.3404182089137
 20
112.2074799593098
 30
0.0
 10
179.558959024707
 20
111.6998299258104
 30
0.0
 10
179.9241221352469
 20
110.8515899088353
 30
0.0
 10
180.3357007717782
 20
109.8955309325555
 30
0.0
 10
180.7428054625177
 20
108.9498645171473
 30
0.0
 10
181.144183860578
 20
108.0174997482068
 30
0.0
 10
181.3982684817331
 20
107.4272847534799
 30
0.0
 10
181.531294680613
 20
107.1182772389223
 30
0.0
  0
SPLINE
  5
BE
330
1F
100
AcDbEntity
  8
0
  6
Continuous
 62
     7
370
    15
100
AcDbSpline
210
0.0
220
0.0
230
1.0
 70
    24
 71
     3
 72
    11
 73
     7
 74
     0
 42
0.000000001
 43
0.00000001
 40
0.0
 40
0.0
 40
0.0
 40
0.0
 40
0.2164575325957942
 40
0.4403158827730674
 40
0.751904210360694
 40
1.0
 40
1.0
 40
1.0
 40
1.0
 10
173.5144105657127
 20
113.0956988476311
 30
0.0
 10
173.9071973976135
 20
113.0494988796844
 30
0.0
 10
174.7062006873397
 20
112.9555193381706
 30
0.0
 10
176.1889305585657
 20
112.781119213317
 30
0.0
 10
177.7794088729613
 20
112.5940456121234
 30
0.0
 10
178.7972145173408
 20
112.4743303255421
 30
0.0
 10
179.2483856105868
 20
112.4212631441766
 30
0.0
  0
SPLINE
  5
BF
330
1F
100
AcDbEntity
  8
0
  6
Continuous
 62
     7
370
    15
100
AcDbSpline
210
0.0
220
0.0
230
1.0
 70
    24
 71
     3
 72
    11
 73
     7
 74
     0
 42
0.000000001
 43
0.00000001
 40
0.0
 40
0.0
 40
0.0
 40
0.0
 40
0.2164575325957949
 40
0.4403158827730652
 40
0.7519042103606938
 40
1.0
 40
1.0
 40
1.0
 40
1.0
 10
170.0633445908647
 20
108.4671486458314
 30
0.0
 10
170.2997483527111
 20
108.7842120365561
 30
0.0
 10
170.7806386679611
 20
109.4291794124094
 30
0.0
 10
171.6730385421206
 20
110.6260610854145
 30
0.0
 10
172.6302881903294
 20
111.9099189092524
 30
0.0
 10
173.2428674919199
 20
112.7315068101097
 30
0.0
 10
173.5144105657126
 20
113.0956988476311
 30
0.0
  0
SPLINE
  5
C0
330
1F
100
AcDbEntity
  8
0
  6
Continuous
 62
     7
370
    15
100
AcDbSpline
210
0.0
220
0.0
230
1.0
 70
    24
 71
     3
 72
    13
 73
     9
 74
     0
 42
0.000000001
 43
0.00000001
 40
0.0
 40
0.0
 40
0.0
 40
0.0
 40
0.1844291914898597
 40
0.3522661073098647
 40
0.5197722555606419
 40
0.6955582578112927
 40
0.8717925323418633
 40
1.0
 40
1.0
 40
1.0
 40
1.0
 10
172.346253660891
 20
103.1641627405771
 30
0.0
 10
172.2132274620111
 20
103.4731702551346
 30
0.0
 10
171.959142840856
 20
104.0633852498615
 30
0.0
 10
171.5577644427957
 20
104.9957500188021
 30
0.0
 10
171.1506597520561
 20
105.9414164342103
 30
0.0
 10
170.7390811155249
 20
106.89747541049
 30
0.0
 10
170.373918004985
 20
107.7457154274652
 30
0.0
 10
170.1553771891917
 20
108.2533654609645
 30
0.0
 10
170.0633445908647
 20
108.4671486458314
 30
0.0
  0
SPLINE
  5
C1
330
1F
100
AcDbEntity
  8
0
  6
Continuous
 62
     7
370
    15
100
AcDbSpline
210
0.0
220
0.0
230
1.0
 70
    24
 71
     3
 72
    11
 73
     7
 74
     0
 42
0.000000001
 43
0.00000001
 40
0.0
 40
0.0
 40
0.0
 40
0.0
 40
0.2164575325957938
 40
0.4403158827730672
 40
0.7519042103606961
 40
1.0
 40
1.0
 40
1.0
 40
1.0
 10
178.0802287057651
 20
102.4897270371226
 30
0.0
 10
177.6874418738643
 20
102.5359270050694
 30
0.0
 10
176.8884385841382
 20
102.6299065465832
 30
0.0
 10
175.405708712912
 20
102.8043066714368
 30
0.0
 10
173.8152303985165
 20
102.9913802726303
 30
0.0
 10
172.797424754137
 20
103.1110955592116
 30
0.0
 10
172.346253660891
 20
103.1641627405771
 30
0.0
  0
SPLINE
  5
C2
330
1F
100
AcDbEntity
  8
0
  6
Continuous
 62
     7
370
    15
100
AcDbSpline
210
0.0
220
0.0
230
1.0
 70
    24
 71
     3
 72
    11
 73
     7
 74
     0
 42
0.000000001
 43
0.00000001
 40
0.0
 40
0.0
 40
0.0
 40
0.0
 40
0.2164575325957948
 40
0.4403158827730653
 40
0.751904210360694
 40
1.0
 40
1.0
 40
1.0
 40
1.0
 10
181.531294680613
 20
107.1182772389223
 30
0.0
 10
181.2948909187667
 20
106.8012138481976
 30
0.0
 10
180.8140006035167
 20
106.1562464723443
 30
0.0
 10
179.9216007293572
 20
104.9593647993393
 30
0.0
 10
178.9643510811484
 20
103.6755069755013
 30
0.0
 10
178.3517717795579
 20
102.8539190746441
 30
0.0
 10
178.0802287057651
 20
102.4897270371226
 30
0.0
  0
CIRCLE
  5
C3
330
1F
100
AcDbEntity
  8
0
  6
Continuous
 62
     7
370
    15
100
AcDbCircle
 10
175.7973196357
 20
107.7927129424
 30
0.0
 40
5.999999999999987
  0
CIRCLE
  5
C4
330
1F
100
AcDbEntity
  8
0
  6
Continuous
 62
     7
370
    15
100
AcDbCircle
 10
175.7973196357
 20
107.7927129424
 30
0.0
 40
9.000000000000004
  0
CIRCLE
  5
C5
330
1F
100
AcDbEntity
  8
0
  6
Continuous
 62
     7
370
    15
100
AcDbCircle
 10
175.7973196357
 20
107.7927129424
 30
0.0
 40
10.00000000000002
  0
ARC
  5
C6
330
1F
100
AcDbEntity
  8
0
  6
Continuous
 62
     7
370
    15
100
AcDbCircle
 10
175.7973196357
 20
107.7927129424
 30
0.0
 40
5.000000000000042
100
AcDbArc
 50
263.291637602
 51
323.291637602
  0
ARC
  5
C7
330
1F
100
AcDbEntity
  8
0
  6
Continuous
 62
     7
370
    15
100
AcDbCircle
 10
175.7973196357
 20
107.7927129424
 30
0.0
 40
5.000000000000014
100
AcDbArc
 50
83.291637602
 51
143.291637602
  0
ARC
  5
C8
330
1F
100
AcDbEntity
  8
0
  6
Continuous
 62
     7
370
    15
100
AcDbCircle
 10
175.7973196357
 20
107.7927129424
 30
0.0
 40
4.999999999999994
100
AcDbArc
 50
203.291637602
 51
263.291637602
  0
ARC
  5
C9
330
1F
100
AcDbEntity
  8
0
  6
Continuous
 62
     7
370
    15
100
AcDbCircle
 10
175.7973196357
 20
107.7927129424
 30
0.0
 40
5.000000000000004
100
AcDbArc
 50
143.291637602
 51
203.291637602
  0
ARC
  5
CA
330
1F
100
AcDbEntity
  8
0
  6
Continuous
 62
     7
370
    15
100
AcDbCircle
 10
175.7973196357
 20
107.7927129424
 30
0.0
 40
5.000000000000042
100
AcDbArc
 50
323.291637602
 51
23.291637602
  0
ARC
  5
CB
330
1F
100
AcDbEntity
  8
0
  6
Continuous
 62
     7
370
    15
100
AcDbCircle
 10
175.7973196357
 20
107.7927129424
 30
0.0
 40
5.000000000000023
100
AcDbArc
 50
23.291637602
 51
83.291637602
  0
LINE
  5
CC
330
1F
100
AcDbEntity
  8
0
  6
Continuous
 62
     7
370
    15
100
AcDbLine
 10
199.4473196357
 20
107.7927129424
 30
0.0
 11
199.4473196357
 21
60.7927129424
 31
0.0
  0
LINE
  5
CD
330
1F
100
AcDbEntity
  8
0
  6
Continuous
 62
     7
370
    15
100
AcDbLine
 10
199.4473196357
 20
154.7927129424
 30
0.0
 11
199.4473196357
 21
107.7927129424
 31
0.0
  0
SPLINE
  5
CE
330
1F
100
AcDbEntity
  8
0
  6
Continuous
 62
     7
370
    15
100
AcDbSpline
210
0.0
220
0.0
230
1.0
 70
     8
 71
     3
 72
    52
 73
    48
 74
     0
 42
0.000000001
 43
0.00000001
 40
0.0
 40
0.0
 40
0.0
 40
0.0
 40
0.0312499999999995
 40
0.0312499999999995
 40
0.062499999999999
 40
0.062499999999999
 40
0.124999999999998
 40
0.124999999999998
 40
0.1562499999999978
 40
0.1562499999999978
 40
0.1874999999999975
 40
0.1874999999999975
 40
0.2499999999999979
 40
0.2499999999999979
 40
0.3124999999999982
 40
0.3124999999999982
 40
0.3749999999999984
 40
0.3749999999999984
 40
0.4062499999999981
 40
0.4062499999999981
 40
0.4374999999999977
 40
0.4374999999999977
 40
0.499999999999998
 40
0.499999999999998
 40
0.5312499999999981
 40
0.5312499999999981
 40
0.5624999999999983
 40
0.5624999999999983
 40
0.6249999999999987
 40
0.6249999999999987
 40
0.687499999999999
 40
0.687499999999999
 40
0.7187499999999991
 40
0.7187499999999991
 40
0.7499999999999992
 40
0.7499999999999992
 40
0.8124999999999994
 40
0.8124999999999994
 40
0.8437499999999997
 40
0.8437499999999997
 40
0.8749999999999998
 40
0.8749999999999998
 40
0.9374999999999998
 40
0.9374999999999998
 40
0.96875
 40
0.96875
 40
1.0
 40
1.0
 40
1.0
 40
1.0
 10
188.0473196357389
 20
107.7927129423769
 30
0.0
 10
188.0473196357389
 20
108.1765430657705
 30
0.0
 10
188.0243655880492
 20
108.5608469466089
 30
0.0
 10
187.9347562792248
 20
109.3165961629482
 30
0.0
 10
187.8681213155859
 20
109.690178755256
 30
0.0
 10
187.6040277106978
 20
110.7983294919661
 30
0.0
 10
187.3383410768382
 20
111.5266021219197
 30
0.0
 10
186.8331692777405
 20
112.5464832033491
 30
0.0
 10
186.6467871771005
 20
112.8761631462156
 30
0.0
 10
186.239178589083
 20
113.5157150507949
 30
0.0
 10
186.0171617915109
 20
113.826559158399
 30
0.0
 10
185.3041059905411
 20
114.7229999623027
 30
0.0
 10
184.7750022063662
 20
115.2632778742088
 30
0.0
 10
183.6182038108431
 20
116.2400690438198
 30
0.0
 10
182.98538109746
 20
116.6781615870387
 30
0.0
 10
181.6674392282555
 20
117.4241650546567
 30
0.0
 10
180.9782237208311
 20
117.7365653666483
 30
0.0
 10
179.899547523533
 20
118.1163993325943
 30
0.0
 10
179.5314728300455
 20
118.2282151503005
 30
0.0
 10
178.7935506286052
 20
118.4181818101416
 30
0.0
 10
178.422194308463
 20
118.4969553176836
 30
0.0
 10
177.3011025562501
 20
118.685916187672
 30
0.0
 10
176.5444004539876
 20
118.7491433744822
 30
0.0
 10
175.3949967268303
 20
118.7475194392644
 30
0.0
 10
175.0111278184299
 20
118.7306455818628
 30
0.0
 10
174.2527790015409
 20
118.6652857475623
 30
0.0
 10
173.8766934412997
 20
118.616815164173
 30
0.0
 10
172.7575904044297
 20
118.4245050765646
 30
0.0
 10
172.0236448108178
 20
118.2342112598792
 30
0.0
 10
170.5812461554412
 20
117.7219631288521
 30
0.0
 10
169.8902323015746
 20
117.4058223679754
 30
0.0
 10
168.9070341732959
 20
116.845321164336
 30
0.0
 10
168.5877577197028
 20
116.6438349106735
 30
0.0
 10
167.9666898045185
 20
116.2103504525643
 30
0.0
 10
167.6634338263348
 20
115.9770640649912
 30
0.0
 10
166.7935468911402
 20
115.2384943383837
 30
0.0
 10
166.2673766194972
 20
114.6969355233135
 30
0.0
 10
165.5625961286603
 20
113.8062394455853
 30
0.0
 10
165.3407609386267
 20
113.4943921460357
 30
0.0
 10
164.9331644998098
 20
112.8512463385691
 30
0.0
 10
164.7480904069342
 20
112.521492470789
 30
0.0
 10
164.2489880370708
 20
111.5075880346302
 30
0.0
 10
163.9903840132176
 20
110.7990955967953
 30
0.0
 10
163.7248329675535
 20
109.6822392392393
 30
0.0
 10
163.657863637828
 20
109.3035806076036
 30
0.0
 10
163.5693983824497
 20
108.5493166461999
 30
0.0
 10
163.5473196357389
 20
108.1714040250703
 30
0.0
 10
163.5473196357389
 20
107.7927129423769
 30
0.0
  0
SPLINE
  5
CF
330
1F
100
AcDbEntity
  8
0
  6
Continuous
 62
     7
370
    15
100
AcDbSpline
210
0.0
220
0.0
230
1.0
 70
     8
 71
     3
 72
    52
 73
    48
 74
     0
 42
0.000000001
 43
0.00000001
 40
0.0
 40
0.0
 40
0.0
 40
0.0
 40
0.0312500000000003
 40
0.0312500000000003
 40
0.0625000000000007
 40
0.0625000000000007
 40
0.1250000000000014
 40
0.1250000000000014
 40
0.1875000000000021
 40
0.1875000000000021
 40
0.2500000000000028
 40
0.2500000000000028
 40
0.3125000000000035
 40
0.3125000000000035
 40
0.3437500000000038
 40
0.3437500000000038
 40
0.3750000000000042
 40
0.3750000000000042
 40
0.4062500000000046
 40
0.4062500000000046
 40
0.4375000000000049
 40
0.4375000000000049
 40
0.5000000000000043
 40
0.5000000000000043
 40
0.5312500000000047
 40
0.5312500000000047
 40
0.562500000000005
 40
0.562500000000005
 40
0.6250000000000046
 40
0.6250000000000046
 40
0.6562500000000038
 40
0.6562500000000038
 40
0.687500000000003
 40
0.687500000000003
 40
0.7500000000000016
 40
0.7500000000000016
 40
0.7812500000000014
 40
0.7812500000000014
 40
0.8125000000000012
 40
0.8125000000000012
 40
0.8750000000000008
 40
0.8750000000000008
 40
0.9062500000000006
 40
0.9062500000000006
 40
0.9375000000000003
 40
0.9375000000000003
 40
1.0
 40
1.0
 40
1.0
 40
1.0
 10
163.5473196357389
 20
107.7927129423769
 30
0.0
 10
163.5473196357389
 20
107.4135562059532
 30
0.0
 10
163.5694496515139
 20
107.0336191974334
 30
0.0
 10
163.6592465371512
 20
106.2721405904683
 30
0.0
 10
163.7269883388395
 20
105.8927003753545
 30
0.0
 10
163.9920868432396
 20
104.7820599094331
 30
0.0
 10
164.2516304580564
 20
104.0687568285773
 30
0.0
 10
164.9318095555159
 20
102.694540165514
 30
0.0
 10
165.3415789658372
 20
102.0558232435758
 30
0.0
 10
166.2843300688182
 20
100.8698371174663
 30
0.0
 10
166.8226623652659
 20
100.3192825435232
 30
0.0
 10
167.9791312846419
 20
99.34339297940852
 30
0.0
 10
168.6007392258427
 20
98.91236338178992
 30
0.0
 10
169.5967936275749
 20
98.34814554195151
 30
0.0
 10
169.9378565105692
 20
98.17499378766009
 30
0.0
 10
170.629027901983
 20
97.86159833975825
 30
0.0
 10
170.9803871230649
 20
97.72063510920181
 30
0.0
 10
171.6944063025619
 20
97.4693284276657
 30
0.0
 10
172.057067026522
 20
97.35898731895284
 30
0.0
 10
172.7937453411473
 20
97.16893184134275
 30
0.0
 10
173.1693695815625
 20
97.08896883576071
 30
0.0
 10
174.3017516914436
 20
96.89816528995343
 30
0.0
 10
175.0583492945837
 20
96.8362906883838
 30
0.0
 10
176.1956754578754
 20
96.83790248116911
 30
0.0
 10
176.57519162548
 20
96.85427975198233
 30
0.0
 10
177.3350543485635
 20
96.91934131216215
 30
0.0
 10
177.7172061547472
 20
96.9684074581493
 30
0.0
 10
178.8463797718319
 20
97.1626773651328
 30
0.0
 10
179.578786767696
 20
97.35405296613297
 30
0.0
 10
180.6472555936168
 20
97.73339860521426
 30
0.0
 10
180.9983573112051
 20
97.87532612207399
 30
0.0
 10
181.6901196900309
 20
98.19134201154492
 30
0.0
 10
182.0321056195452
 20
98.36633126945365
 30
0.0
 10
183.0219210176158
 20
98.93086539634966
 30
0.0
 10
183.6395224997445
 20
99.36150555259826
 30
0.0
 10
184.5011261363795
 20
100.0918580927407
 30
0.0
 10
184.7774527577013
 20
100.3494722593691
 30
0.0
 10
185.3070692984442
 20
100.8949189922964
 30
0.0
 10
185.5604828302896
 20
101.1833659546536
 30
0.0
 10
186.265865590706
 20
102.0744231948327
 30
0.0
 10
186.6704203012108
 20
102.7089429542667
 30
0.0
 10
187.1729712732205
 20
103.7256891093309
 30
0.0
 10
187.3230294579411
 20
104.0756505213093
 30
0.0
 10
187.5850319954939
 20
104.7987243118992
 30
0.0
 10
187.6941533330411
 20
105.1640502952932
 30
0.0
 10
187.9571316322857
 20
106.27121128062
 30
0.0
 10
188.0473196357389
 20
107.0241087497883
 30
0.0
 10
188.0473196357389
 20
107.7927129423769
 30
0.0
  0
LINE
  5
D0
330
1F
100
AcDbEntity
  8
0
  6
Continuous
 62
     7
370
    15
100
AcDbLine
 10
200.3473196357
 20
107.7927129424
 30
0.0
 11
200.3473196357
 21
61.6927129424
 31
0.0
  0
LINE
  5
D1
330
1F
100
AcDbEntity
  8
0
  6
Continuous
 62
     7
370
    15
100
AcDbLine
 10
200.3473196357
 20
153.8927129424
 30
0.0
 11
200.3473196357
 21
107.7927129424
 31
0.0
  0
LINE
  5
D2
330
1F
100
AcDbEntity
  8
0
  6
Continuous
 62
     7
370
    15
100
AcDbLine
 10
120.6973196357
 20
77.6057952461
 30
0.0
 11
116.7392524672
 21
77.6057952461
 31
0.0
  0
LINE
  5
D3
330
1F
100
AcDbEntity
  8
0
  6
Continuous
 62
     7
370
    15
100
AcDbLine
 10
116.7392524672
 20
77.6057952461
 30
0.0
 11
116.7392524672
 21
127.6427129424
 31
0.0
  0
LINE
  5
D4
330
1F
100
AcDbEntity
  8
0
  6
Continuous
 62
     7
370
    15
100
AcDbLine
 10
116.7392524672
 20
127.6427129424
 30
0.0
 11
120.6973196357
 21
127.6427129424
 31
0.0
  0
LINE
  5
D5
330
1F
100
AcDbEntity
  8
0
  6
Continuous
 62
     7
370
    15
100
AcDbLine
 10
111.4373196357
 20
80.2948757833
 30
0.0
 11
111.4373196357
 21
127.6427129424
 31
0.0
  0
SPLINE
  5
D6
330
1F
100
AcDbEntity
  8
0
  6
Continuous
 62
     7
370
    15
100
AcDbSpline
210
0.0
220
0.0
230
1.0
 70
     8
 71
     3
 72
     8
 73
     4
 74
     0
 42
0.000000001
 43
0.00000001
 40
0.0
 40
0.0
 40
0.0
 40
0.0
 40
1.0
 40
1.0
 40
1.0
 40
1.0
 10
111.4373196357389
 20
80.294875783322
 30
0.0
 10
110.9449805129577
 20
79.3976057491153
 30
0.0
 10
110.4508664649156
 20
78.50132133406304
 30
0.0
 10
109.9553868042498
 20
77.60579524612969
 30
0.0
  0
LINE
  5
D7
330
1F
100
AcDbEntity
  8
0
  6
Continuous
 62
     7
370
    15
100
AcDbLine
 10
109.9553868042
 20
77.6057952461
 30
0.0
 11
109.9553868042
 21
127.6427129424
 31
0.0
  0
SPLINE
  5
D8
330
1F
100
AcDbEntity
  8
0
  6
Continuous
 62
     7
370
    15
100
AcDbSpline
210
0.0
220
0.0
230
1.0
 70
    24
 71
     3
 72
     8
 73
     4
 74
     0
 42
0.000000001
 43
0.00000001
 40
0.0
 40
0.0
 40
0.0
 40
0.0
 40
1.0
 40
1.0
 40
1.0
 40
1.0
 10
109.9553868042498
 20
127.6427129423769
 30
0.0
 10
110.4620669124004
 20
127.6427129423769
 30
0.0
 10
110.957367641374
 20
127.6427129423769
 30
0.0
 10
111.4373196357389
 20
127.6427129423769
 30
0.0
  0
SPLINE
  5
D9
330
1F
100
AcDbEntity
  8
0
  6
Continuous
 62
     7
370
    15
100
AcDbSpline
210
0.0
220
0.0
230
1.0
 70
     8
 71
     3
 72
     8
 73
     4
 74
     0
 42
0.000000001
 43
0.00000001
 40
0.0
 40
0.0
 40
0.0
 40
0.0
 40
1.0
 40
1.0
 40
1.0
 40
1.0
 10
116.739252467228
 20
77.60579524612969
 30
0.0
 10
116.2437728065622
 20
78.50132133406304
 30
0.0
 10
115.7496587585201
 20
79.39760574911529
 30
0.0
 10
115.2573196357389
 20
80.29487578332198
 30
0.0
  0
LINE
  5
DA
330
1F
100
AcDbEntity
  8
0
  6
Continuous
 62
     7
370
    15
100
AcDbLine
 10
115.2573196357
 20
80.2948757833
 30
0.0
 11
115.2573196357
 21
127.6427129424
 31
0.0
  0
SPLINE
  5
DB
330
1F
100
AcDbEntity
  8
0
  6
Continuous
 62
     7
370
    15
100
AcDbSpline
210
0.0
220
0.0
230
1.0
 70
    24
 71
     3
 72
     8
 73
     4
 74
     0
 42
0.000000001
 43
0.00000001
 40
0.0
 40
0.0
 40
0.0
 40
0.0
 40
1.0
 40
1.0
 40
1.0
 40
1.0
 10
115.2573196357389
 20
127.6427129423769
 30
0.0
 10
115.7372716301038
 20
127.6427129423769
 30
0.0
 10
116.2325723590774
 20
127.6427129423769
 30
0.0
 10
116.739252467228
 20
127.6427129423769
 30
0.0
  0
LINE
  5
DC
330
1F
100
AcDbEntity
  8
0
  6
Continuous
 62
     7
370
    15
100
AcDbLine
 10
100.2973196357
 20
127.6427129424
 30
0.0
 11
109.9553868042
 21
127.6427129424
 31
0.0
  0
LINE
  5
DD
330
1F
100
AcDbEntity
  8
0
  6
Continuous
 62
     7
370
    15
100
AcDbLine
 10
109.9553868042
 20
77.6057952461
 30
0.0
 11
108.2973196357
 21
77.6057952461
 31
0.0
  0
SPLINE
  5
DE
330
1F
100
AcDbEntity
  8
0
  6
Continuous
 62
     7
370
    15
100
AcDbSpline
210
0.0
220
0.0
230
1.0
 70
     8
 71
     3
 72
    28
 73
    24
 74
     0
 42
0.000000001
 43
0.00000001
 40
0.0
 40
0.0
 40
0.0
 40
0.0
 40
0.1249999999999999
 40
0.1249999999999999
 40
0.1874999999999998
 40
0.1874999999999998
 40
0.2499999999999997
 40
0.2499999999999997
 40
0.3749999999999993
 40
0.3749999999999993
 40
0.4374999999999993
 40
0.4374999999999993
 40
0.4999999999999992
 40
0.4999999999999992
 40
0.6249999999999992
 40
0.6249999999999992
 40
0.7499999999999992
 40
0.7499999999999992
 40
0.8124999999999993
 40
0.8124999999999993
 40
0.8749999999999996
 40
0.8749999999999996
 40
1.0
 40
1.0
 40
1.0
 40
1.0
 10
108.2973196357389
 20
77.60579524612969
 30
0.0
 10
107.765611878246
 20
77.60579524612969
 30
0.0
 10
107.2433733129356
 20
77.59001053217948
 30
0.0
 10
106.4735028266606
 20
77.54501511810327
 30
0.0
 10
106.2191432544693
 20
77.52646012302755
 30
0.0
 10
105.7150216737708
 20
77.48260740058105
 30
0.0
 10
105.4652988563428
 20
77.45726279362884
 30
0.0
 10
104.7397089048964
 20
77.37386071587873
 30
0.0
 10
104.2813486433149
 20
77.30799515672764
 30
0.0
 10
103.630850699921
 20
77.19902481623586
 30
0.0
 10
103.4191686491286
 20
77.1607851804692
 30
0.0
 10
103.0150971599906
 20
77.08302644304986
 30
0.0
 10
102.8225906461697
 20
77.04352548087451
 30
0.0
 10
102.2727556751484
 20
76.9246177385085
 30
0.0
 10
101.9428268968396
 20
76.84480005708389
 30
0.0
 10
101.3583556282709
 20
76.69145689528783
 30
0.0
 10
101.1120784902575
 20
76.62012314201857
 30
0.0
 10
100.8122356975594
 20
76.52617963494396
 30
0.0
 10
100.7237788404872
 20
76.49698584158403
 30
0.0
 10
100.5704174871821
 20
76.44351926732062
 30
0.0
 10
100.5053292729559
 20
76.41915993304544
 30
0.0
 10
100.3497352570151
 20
76.3555697876007
 30
0.0
 10
100.2973196357389
 20
76.32546685251145
 30
0.0
 10
100.2973196357389
 20
76.30858995951453
 30
0.0
  0
LINE
  5
DF
330
1F
100
AcDbEntity
  8
0
  6
Continuous
 62
     7
370
    15
100
AcDbLine
 10
100.2973196357
 20
76.3085899595
 30
0.0
 11
100.2973196357
 21
76.2927129424
 31
0.0
  0
SPLINE
  5
E0
330
1F
100
AcDbEntity
  8
0
  6
Continuous
 62
     7
370
    15
100
AcDbSpline
210
0.0
220
0.0
230
1.0
 70
     8
 71
     3
 72
    17
 73
    13
 74
     0
 42
0.000000001
 43
0.00000001
 40
0.0
 40
0.0
 40
0.0
 40
0.0
 40
0.1034796923964057
 40
0.210023918880785
 40
0.3134862136955584
 40
0.4198361274354883
 40
0.5254127712915682
 40
0.6339610695419791
 40
0.7409508756305032
 40
0.8511696089308174
 40
0.9558996534551938
 40
0.9999999999999999
 40
0.9999999999999999
 40
0.9999999999999999
 40
0.9999999999999999
 10
108.2973196357389
 20
138.2599084155411
 30
0.0
 10
107.8620712866289
 20
138.2653566120744
 30
0.0
 10
106.9786847800639
 20
138.2764143525862
 30
0.0
 10
105.6978571948352
 20
138.3627727454878
 30
0.0
 10
104.4804406589612
 20
138.4906429220256
 30
0.0
 10
103.3726348067146
 20
138.6495882206187
 30
0.0
 10
102.3843960027664
 20
138.8240819083343
 30
0.0
 10
101.5596724452349
 20
138.9932477589742
 30
0.0
 10
100.9107189445756
 20
139.1411315415025
 30
0.0
 10
100.4936841291138
 20
139.2429221257333
 30
0.0
 10
100.2950874161493
 20
139.2932736483365
 30
0.0
 10
100.3184001375826
 20
139.2873679641141
 30
0.0
 10
100.3253079948202
 20
139.2856180344195
 30
0.0
  0
LINE
  5
E1
330
1F
100
AcDbEntity
  8
0
  6
Continuous
 62
     7
370
    15
100
AcDbLine
 10
109.9553868042
 20
138.2599084155
 30
0.0
 11
108.2973196357
 21
138.2599084155
 31
0.0
  0
LINE
  5
E2
330
1F
100
AcDbEntity
  8
0
  6
Continuous
 62
     7
370
    15
100
AcDbLine
 10
109.9553868042
 20
132.2514026047
 30
0.0
 11
109.9553868042
 21
138.2599084155
 31
0.0
  0
LINE
  5
E3
330
1F
100
AcDbEntity
  8
0
  6
Continuous
 62
     7
370
    15
100
AcDbLine
 10
107.5429399814
 20
132.2514026047
 30
0.0
 11
109.9553868042
 21
132.2514026047
 31
0.0
  0
SPLINE
  5
E4
330
1F
100
AcDbEntity
  8
0
  6
Continuous
 62
     7
370
    15
100
AcDbSpline
210
0.0
220
0.0
230
1.0
 70
     8
 71
     3
 72
    20
 73
    16
 74
     0
 42
0.000000001
 43
0.00000001
 40
0.0
 40
0.0
 40
0.0
 40
0.0
 40
0.2500000000000005
 40
0.2500000000000005
 40
0.3750000000000004
 40
0.3750000000000004
 40
0.5000000000000003
 40
0.5000000000000003
 40
0.6250000000000002
 40
0.6250000000000002
 40
0.7500000000000001
 40
0.7500000000000001
 40
0.8750000000000001
 40
0.8750000000000001
 40
1.0
 40
1.0
 40
1.0
 40
1.0
 10
100.2973196357389
 20
127.6427129423769
 30
0.0
 10
100.5456933700269
 20
128.2965753706743
 30
0.0
 10
100.8652634623722
 20
128.9003611526714
 30
0.0
 10
101.4875696955769
 20
129.72719988884
 30
0.0
 10
101.7189939560077
 20
129.9896285267929
 30
0.0
 10
102.2402082956574
 20
130.4862911808979
 30
0.0
 10
102.5268287782924
 20
130.7168780599195
 30
0.0
 10
103.1463135196
 20
131.133432284502
 30
0.0
 10
103.480613899087
 20
131.3209300864696
 30
0.0
 10
104.2058743717118
 20
131.652327064106
 30
0.0
 10
104.5877894291023
 20
131.7918310516012
 30
0.0
 10
105.382577605274
 20
132.0172845590722
 30
0.0
 10
105.7967357994803
 20
132.1039106706158
 30
0.0
 10
106.6622821400617
 20
132.22189145947
 30
0.0
 10
107.1001697550736
 20
132.2514026047443
 30
0.0
 10
107.5429399814282
 20
132.2514026047443
 30
0.0
  0
LINE
  5
E5
330
1F
100
AcDbEntity
  8
0
  6
Continuous
 62
     7
370
    15
100
AcDbLine
 10
121.2973196357
 20
78.2324355418
 30
0.0
 11
121.2973196357
 21
127.6427129424
 31
0.0
  0
SPLINE
  5
E6
330
1F
100
AcDbEntity
  8
0
  6
Continuous
 62
     7
370
    15
100
AcDbSpline
210
0.0
220
0.0
230
1.0
 70
     8
 71
     3
 72
    10
 73
     6
 74
     0
 42
0.000000001
 43
0.00000001
 40
0.0
 40
0.0
 40
0.0
 40
0.0
 40
0.5
 40
0.5
 40
1.0
 40
1.0
 40
1.0
 40
1.0
 10
121.2973196357389
 20
78.23243554178401
 30
0.0
 10
121.2973196357389
 20
78.07254827359036
 30
0.0
 10
121.2360099845031
 20
77.91142101807574
 30
0.0
 10
121.016910346968
 20
77.67732201972092
 30
0.0
 10
120.8588621406545
 20
77.60579524612969
 30
0.0
 10
120.6973196357389
 20
77.60579524612969
 30
0.0
  0
SPLINE
  5
E7
330
1F
100
AcDbEntity
  8
0
  6
Continuous
 62
     7
370
    15
100
AcDbSpline
210
0.0
220
0.0
230
1.0
 70
    24
 71
     3
 72
    12
 73
     8
 74
     0
 42
0.000000001
 43
0.00000001
 40
0.0
 40
0.0
 40
0.0
 40
0.0
 40
0.250000000000002
 40
0.250000000000002
 40
0.500000000000004
 40
0.500000000000004
 40
1.0
 40
1.0
 40
1.0
 40
1.0
 10
120.6973196357389
 20
127.6427129423769
 30
0.0
 10
120.7875587034259
 20
127.6427129423769
 30
0.0
 10
120.8784568175324
 20
127.6427129423769
 30
0.0
 10
121.033053854021
 20
127.6427129423769
 30
0.0
 10
121.0980322701291
 20
127.6427129423769
 30
0.0
 10
121.2498672980653
 20
127.6427129423769
 30
0.0
 10
121.2973196357389
 20
127.6427129423769
 30
0.0
 10
121.2973196357389
 20
127.6427129423769
 30
0.0
  0
LINE
  5
E8
330
1F
100
AcDbEntity
  8
0
  6
Continuous
 62
     7
370
    15
100
AcDbLine
 10
95.3473196357
 20
76.5927129424
 30
0.0
 11
95.3473196357
 21
138.9927129378
 31
0.0
  0
SPLINE
  5
E9
330
1F
100
AcDbEntity
  8
0
  6
Continuous
 62
     7
370
    15
100
AcDbSpline
210
0.0
220
0.0
230
1.0
 70
    24
 71
     3
 72
    14
 73
    10
 74
     0
 42
0.000000001
 43
0.00000001
 40
0.0
 40
0.0
 40
0.0
 40
0.0
 40
0.4999999999999954
 40
0.4999999999999954
 40
0.7499999999999947
 40
0.7499999999999947
 40
0.8749999999999973
 40
0.8749999999999973
 40
1.0
 40
1.0
 40
1.0
 40
1.0
 10
115.1596448334066
 20
81.39271294237685
 30
0.0
 10
115.1124346741768
 20
81.39271294237686
 30
0.0
 10
115.0492002006331
 20
81.39271294237685
 30
0.0
 10
114.9053882699052
 20
81.39271294237686
 30
0.0
 10
114.8500631954288
 20
81.39271294237685
 30
0.0
 10
114.7381520221938
 20
81.39271294237685
 30
0.0
 10
114.6953649357528
 20
81.39271294237685
 30
0.0
 10
114.5909996027192
 20
81.39271294237685
 30
0.0
 10
114.5267758084175
 20
81.39271294237685
 30
0.0
 10
114.4573196357944
 20
81.39271294237685
 30
0.0
  0
SPLINE
  5
EA
330
1F
100
AcDbEntity
  8
0
  6
Continuous
 62
     7
370
    15
100
AcDbSpline
210
0.0
220
0.0
230
1.0
 70
    24
 71
     3
 72
    12
 73
     8
 74
     0
 42
0.000000001
 43
0.00000001
 40
0.0
 40
0.0
 40
0.0
 40
0.0
 40
0.5
 40
0.5
 40
0.75
 40
0.75
 40
1.0
 40
1.0
 40
1.0
 40
1.0
 10
114.8630221040482
 20
134.1927129423769
 30
0.0
 10
114.8195839162452
 20
134.1927129423769
 30
0.0
 10
114.7703896679472
 20
134.1927129423768
 30
0.0
 10
114.6736709105661
 20
134.1927129423769
 30
0.0
 10
114.6374834290644
 20
134.1927129423769
 30
0.0
 10
114.5546055705397
 20
134.1927129423769
 30
0.0
 10
114.506652123233
 20
134.1927129423769
 30
0.0
 10
114.4573196357389
 20
134.1927129423769
 30
0.0
  0
SPLINE
  5
EB
330
1F
100
AcDbEntity
  8
0
  6
Continuous
 62
     7
370
    15
100
AcDbSpline
210
0.0
220
0.0
230
1.0
 70
     8
 71
     3
 72
    10
 73
     6
 74
     0
 42
0.000000001
 43
0.00000001
 40
0.0
 40
0.0
 40
0.0
 40
0.0
 40
0.5
 40
0.5
 40
1.0
 40
1.0
 40
1.0
 40
1.0
 10
115.2573196357389
 20
134.9123667934126
 30
0.0
 10
115.2573196357389
 20
134.7685967355949
 30
0.0
 10
115.2212705770201
 20
134.6261773730999
 30
0.0
 10
115.0857617162465
 20
134.3762830797429
 30
0.0
 10
114.9858857231507
 20
134.2682527434948
 30
0.0
 10
114.863022104049
 20
134.1927129423775
 30
0.0
  0
SPLINE
  5
EC
330
1F
100
AcDbEntity
  8
0
  6
Continuous
 62
     7
370
    15
100
AcDbSpline
210
0.0
220
0.0
230
1.0
 70
     8
 71
     3
 72
     9
 73
     5
 74
     0
 42
0.000000001
 43
0.00000001
 40
0.0
 40
0.0
 40
0.0
 40
0.0
 40
0.5
 40
1.0
 40
1.0
 40
1.0
 40
1.0
 10
115.2311720125788
 20
127.6427129423769
 30
0.0
 10
115.2399105824611
 20
127.6898557427122
 30
0.0
 10
115.2529298687975
 20
127.7846518243827
 30
0.0
 10
115.2573196357389
 20
127.8804360959431
 30
0.0
 10
115.2573196357389
 20
127.9285795738382
 30
0.0
  0
SPLINE
  5
ED
330
1F
100
AcDbEntity
  8
0
  6
Continuous
 62
     7
370
    15
100
AcDbSpline
210
0.0
220
0.0
230
1.0
 70
     8
 71
     3
 72
    10
 73
     6
 74
     0
 42
0.000000001
 43
0.00000001
 40
0.0
 40
0.0
 40
0.0
 40
0.0
 40
0.5
 40
0.5
 40
1.0
 40
1.0
 40
1.0
 40
1.0
 10
111.8316171674298
 20
134.1927129423769
 30
0.0
 10
111.7100769037613
 20
134.2674391095886
 30
0.0
 10
111.6087425434124
 20
134.3763841255054
 30
0.0
 10
111.473103600524
 20
134.626814606267
 30
0.0
 10
111.4373196357389
 20
134.7692339683659
 30
0.0
 10
111.4373196357389
 20
134.9123667934126
 30
0.0
  0
SPLINE
  5
EE
330
1F
100
AcDbEntity
  8
0
  6
Continuous
 62
     7
370
    15
100
AcDbSpline
210
0.0
220
0.0
230
1.0
 70
    24
 71
     3
 72
    12
 73
     8
 74
     0
 42
0.000000001
 43
0.00000001
 40
0.0
 40
0.0
 40
0.0
 40
0.0
 40
0.2500000000000008
 40
0.2500000000000008
 40
0.5000000000000017
 40
0.5000000000000017
 40
1.0
 40
1.0
 40
1.0
 40
1.0
 10
112.2373196357389
 20
134.1927129423769
 30
0.0
 10
112.1874429534215
 20
134.1927129423769
 30
0.0
 10
112.1394397600178
 20
134.1927129423769
 30
0.0
 10
112.0563916573059
 20
134.1927129423769
 30
0.0
 10
112.020262077838
 20
134.1927129423769
 30
0.0
 10
111.9243500468938
 20
134.1927129423769
 30
0.0
 10
111.874591378925
 20
134.1927129423769
 30
0.0
 10
111.8316171674298
 20
134.1927129423769
 30
0.0
  0
SPLINE
  5
EF
330
1F
100
AcDbEntity
  8
0
  6
Continuous
 62
     7
370
    15
100
AcDbSpline
210
0.0
220
0.0
230
1.0
 70
    24
 71
     3
 72
    14
 73
    10
 74
     0
 42
0.000000001
 43
0.00000001
 40
0.0
 40
0.0
 40
0.0
 40
0.0
 40
0.1250000000000006
 40
0.1250000000000006
 40
0.2500000000000012
 40
0.2500000000000012
 40
0.4999999999999998
 40
0.4999999999999998
 40
1.0
 40
1.0
 40
1.0
 40
1.0
 10
112.2373196357389
 20
81.39271294237685
 30
0.0
 10
112.1688817878524
 20
81.39271294237686
 30
0.0
 10
112.1033317490874
 20
81.39271294237685
 30
0.0
 10
111.9989051096794
 20
81.39271294237686
 30
0.0
 10
111.956360499918
 20
81.39271294237685
 30
0.0
 10
111.8437510393778
 20
81.39271294237686
 30
0.0
 10
111.7882119923583
 20
81.39271294237685
 30
0.0
 10
111.6456002968945
 20
81.39271294237686
 30
0.0
 10
111.5821949418987
 20
81.39271294237685
 30
0.0
 10
111.5349944380712
 20
81.39271294237685
 30
0.0
  0
SPLINE
  5
F0
330
1F
100
AcDbEntity
  8
0
  6
Continuous
 62
     7
370
    15
100
AcDbSpline
210
0.0
220
0.0
230
1.0
 70
     8
 71
     3
 72
    10
 73
     6
 74
     0
 42
0.000000001
 43
0.00000001
 40
0.0
 40
0.0
 40
0.0
 40
0.0
 40
0.5
 40
0.5
 40
1.0
 40
1.0
 40
1.0
 40
1.0
 10
111.4373196357389
 20
127.9285795738382
 30
0.0
 10
111.4373196357389
 20
127.8808080658449
 30
0.0
 10
111.439480879336
 20
127.8330983437833
 30
0.0
 10
111.4481522531962
 20
127.737803226235
 30
0.0
 10
111.4546814361522
 20
127.6901106622684
 30
0.0
 10
111.463467258899
 20
127.6427129423769
 30
0.0
  0
LINE
  5
F1
330
1F
100
AcDbEntity
  8
0
  6
Continuous
 62
     7
370
    15
100
AcDbLine
 10
114.4573196357
 20
134.1927129424
 30
0.0
 11
112.2373196357
 21
134.1927129424
 31
0.0
  0
LINE
  5
F2
330
1F
100
AcDbEntity
  8
0
  6
Continuous
 62
     7
370
    15
100
AcDbLine
 10
114.4573196357
 20
81.3927129424
 30
0.0
 11
112.2373196357
 21
81.3927129424
 31
0.0
  0
LINE
  5
F3
330
1F
100
AcDbEntity
  8
0
  6
Continuous
 62
     7
370
    15
100
AcDbLine
 10
73.5473196357
 20
84.5642660486
 30
0.0
 11
73.5473196357
 21
85.8289754112
 31
0.0
  0
SPLINE
  5
F4
330
1F
100
AcDbEntity
  8
0
  6
Continuous
 62
     7
370
    15
100
AcDbSpline
210
0.0
220
0.0
230
1.0
 70
     8
 71
     3
 72
    14
 73
    10
 74
     0
 42
0.000000001
 43
0.00000001
 40
0.0
 40
0.0
 40
0.0
 40
0.0
 40
0.25
 40
0.25
 40
0.5
 40
0.5
 40
0.75
 40
0.75
 40
1.0
 40
1.0
 40
1.0
 40
1.0
 10
72.76903251782316
 20
86.95956161881692
 30
0.0
 10
72.82565919302523
 20
86.85186416498006
 30
0.0
 10
72.92018185331496
 20
86.74907458326072
 30
0.0
 10
73.10322682887723
 20
86.55071727104058
 30
0.0
 10
73.19485340583192
 20
86.45465776236233
 30
0.0
 10
73.35370672352514
 20
86.26712871965309
 30
0.0
 10
73.42159733114684
 20
86.17571974686953
 30
0.0
 10
73.51851435685441
 20
85.99734352595938
 30
0.0
 10
73.54731963573946
 20
85.91012161971321
 30
0.0
 10
73.54731963573946
 20
85.82897541117896
 30
0.0
  0
SPLINE
  5
F5
330
1F
100
AcDbEntity
  8
0
  6
Continuous
 62
     7
370
    15
100
AcDbSpline
210
0.0
220
0.0
230
1.0
 70
     8
 71
     3
 72
    14
 73
    10
 74
     0
 42
0.000000001
 43
0.00000001
 40
0.0
 40
0.0
 40
0.0
 40
0.0
 40
0.1250000000000006
 40
0.1250000000000006
 40
0.2500000000000012
 40
0.2500000000000012
 40
0.4999999999999997
 40
0.4999999999999997
 40
1.0
 40
1.0
 40
1.0
 40
1.0
 10
72.1473196357389
 20
87.40624348109621
 30
0.0
 10
72.19586404439606
 20
87.4119917943765
 30
0.0
 10
72.24877939918095
 20
87.40889090572026
 30
0.0
 10
72.34407474416399
 20
87.38669606155794
 30
0.0
 10
72.38432574144896
 20
87.36946383446208
 30
0.0
 10
72.48859575496192
 20
87.31313591801002
 30
0.0
 10
72.53891773011524
 20
87.26894957206423
 30
0.0
 10
72.6666006776406
 20
87.1379416732136
 30
0.0
 10
72.72268612470289
 20
87.04770715298332
 30
0.0
 10
72.76903251782463
 20
86.95956161881745
 30
0.0
  0
SPLINE
  5
F6
330
1F
100
AcDbEntity
  8
0
  6
Continuous
 62
     7
370
    15
100
AcDbSpline
210
0.0
220
0.0
230
1.0
 70
     8
 71
     3
 72
     8
 73
     4
 74
     0
 42
0.000000001
 43
0.00000001
 40
0.0
 40
0.0
 40
0.0
 40
0.0
 40
1.0
 40
1.0
 40
1.0
 40
1.0
 10
69.87879454279278
 20
87.09639819451343
 30
0.0
 10
70.6133715692757
 20
87.21502320558238
 30
0.0
 10
71.37684663867132
 20
87.31500907771867
 30
0.0
 10
72.1473196357389
 20
87.40624348109621
 30
0.0
  0
SPLINE
  5
F7
330
1F
100
AcDbEntity
  8
0
  6
Continuous
 62
     7
370
    15
100
AcDbSpline
210
0.0
220
0.0
230
1.0
 70
     8
 71
     3
 72
    14
 73
    10
 74
     0
 42
0.000000001
 43
0.00000001
 40
0.0
 40
0.0
 40
0.0
 40
0.0
 40
0.5
 40
0.5
 40
0.75
 40
0.75
 40
0.875
 40
0.875
 40
1.0
 40
1.0
 40
1.0
 40
1.0
 10
64.59731963573888
 20
86.92277517698179
 30
0.0
 10
65.48946576629248
 20
86.92205295078115
 30
0.0
 10
66.3794422020861
 20
86.9266391572386
 30
0.0
 10
67.70603736916172
 20
86.95436416163014
 30
0.0
 10
68.14688429766048
 20
86.96697069925432
 30
0.0
 10
68.80332453508291
 20
86.99798684726176
 30
0.0
 10
69.0213381916748
 20
87.01033001988853
 30
0.0
 10
69.45404704535758
 20
87.0433540750518
 30
0.0
 10
69.66932351052236
 20
87.06257124019024
 30
0.0
 10
69.87879454279278
 20
87.09639819451343
 30
0.0
  0
SPLINE
  5
F8
330
1F
100
AcDbEntity
  8
0
  6
Continuous
 62
     7
370
    15
100
AcDbSpline
210
0.0
220
0.0
230
1.0
 70
     8
 71
     3
 72
     8
 73
     4
 74
     0
 42
0.000000001
 43
0.00000001
 40
0.0000005163856998
 40
0.0000005163856998
 40
0.0000005163856998
 40
0.0000005163856998
 40
0.000026289209185
 40
0.000026289209185
 40
0.000026289209185
 40
0.000026289209185
 10
64.58727470533128
 20
86.93275905007854
 30
0.0
 10
64.59060244353911
 20
86.92942480320944
 30
0.0
 10
64.59395089651471
 20
86.92609684593414
 30
0.0
 10
64.59731963573887
 20
86.92277517698177
 30
0.0
  0
SPLINE
  5
F9
330
1F
100
AcDbEntity
  8
0
  6
Continuous
 62
     7
370
    15
100
AcDbSpline
210
0.0
220
0.0
230
1.0
 70
     8
 71
     3
 72
     8
 73
     4
 74
     0
 42
0.000000001
 43
0.00000001
 40
0.0000005099763573
 40
0.0000005099763573
 40
0.0000005099763573
 40
0.0000005099763573
 40
0.0000262827998699
 40
0.0000262827998699
 40
0.0000262827998699
 40
0.0000262827998699
 10
64.59731963573887
 20
128.6626507077719
 30
0.0
 10
64.59395089651113
 20
128.6593290388161
 30
0.0
 10
64.59060244353198
 20
128.6560010815372
 30
0.0
 10
64.58727470532065
 20
128.6526668346645
 30
0.0
  0
SPLINE
  5
FA
330
1F
100
AcDbEntity
  8
0
  6
Continuous
 62
     7
370
    15
100
AcDbSpline
210
0.0
220
0.0
230
1.0
 70
     8
 71
     3
 72
    10
 73
     6
 74
     0
 42
0.000000001
 43
0.00000001
 40
0.0
 40
0.0
 40
0.0
 40
0.0
 40
0.5
 40
0.5
 40
1.0
 40
1.0
 40
1.0
 40
1.0
 10
68.1473196357389
 20
128.6158003342046
 30
0.0
 10
67.5597340886483
 20
128.636865854441
 30
0.0
 10
66.96898769518792
 20
128.6476243403132
 30
0.0
 10
65.78496852988904
 20
128.6609891208489
 30
0.0
 10
65.1915545416836
 20
128.6631317635135
 30
0.0
 10
64.59731963573888
 20
128.6626507077719
 30
0.0
  0
SPLINE
  5
FB
330
1F
100
AcDbEntity
  8
0
  6
Continuous
 62
     7
370
    15
100
AcDbSpline
210
0.0
220
0.0
230
1.0
 70
     8
 71
     3
 72
    18
 73
    14
 74
     0
 42
0.000000001
 43
0.00000001
 40
0.0
 40
0.0
 40
0.0
 40
0.0
 40
0.2500000000000001
 40
0.2500000000000001
 40
0.5000000000000002
 40
0.5000000000000002
 40
0.7500000000000003
 40
0.7500000000000003
 40
0.8750000000000002
 40
0.8750000000000002
 40
0.9375000000000002
 40
0.9375000000000002
 40
1.0
 40
1.0
 40
1.0
 40
1.0
 10
69.5473196357389
 20
129.6368206147399
 30
0.0
 10
69.5473196357389
 20
129.5536137058826
 30
0.0
 10
69.51147053580064
 20
129.4648770505691
 30
0.0
 10
69.38659879976672
 20
129.2827518600088
 30
0.0
 10
69.29619838211886
 20
129.1876218113822
 30
0.0
 10
69.07395572737668
 20
128.9984403022579
 30
0.0
 10
68.9441909409309
 20
128.9034951341632
 30
0.0
 10
68.70355348361939
 20
128.7652164265833
 30
0.0
 10
68.61578618548195
 20
128.7195059932808
 30
0.0
 10
68.46126209827513
 20
128.6616826880594
 30
0.0
 10
68.40465121222036
 20
128.6439679240216
 30
0.0
 10
68.28060718131378
 20
128.6194286207886
 30
0.0
 10
68.21289250629547
 20
128.6134494822504
 30
0.0
 10
68.1473196357389
 20
128.6158003342046
 30
0.0
  0
LINE
  5
FC
330
1F
100
AcDbEntity
  8
0
  6
Continuous
 62
     7
370
    15
100
AcDbLine
 10
69.5473196357
 20
129.6368206147
 30
0.0
 11
69.5473196357
 21
130.8207590346
 31
0.0
  0
LINE
  5
FD
330
1F
100
AcDbEntity
  8
0
  6
Continuous
 62
     7
370
    15
100
AcDbLine
 10
93.3315673024
 20
83.5730712757
 30
0.0
 11
93.3315673024
 21
132.012354609
 31
0.0
  0
SPLINE
  5
FE
330
1F
100
AcDbEntity
  8
0
  6
Continuous
 62
     7
370
    15
100
AcDbSpline
210
0.0
220
0.0
230
1.0
 70
     8
 71
     3
 72
    18
 73
    14
 74
     0
 42
0.000000001
 43
0.00000001
 40
0.0
 40
0.0
 40
0.0
 40
0.0
 40
0.0010655908135292
 40
0.1270932442222494
 40
0.2524038213230003
 40
0.376645375419902
 40
0.4391400916978163
 40
0.5008262944158762
 40
0.5624240613472016
 40
0.6253147316538586
 40
0.7499969917139827
 40
0.875274361859203
 40
1.0
 40
1.0
 40
1.0
 40
1.0
 10
82.11761739989825
 20
84.13537338383397
 30
0.0
 10
82.11670687117198
 20
84.13525876959777
 30
0.0
 10
82.00810791525818
 20
84.12158870513416
 30
0.0
 10
82.3957448622439
 20
84.17250757671933
 30
0.0
 10
83.26170142867527
 20
84.27209026877148
 30
0.0
 10
84.46210176689502
 20
84.34121484702696
 30
0.0
 10
85.5196759331994
 20
84.34516795874504
 30
0.0
 10
86.34680951862114
 20
84.31767976911105
 30
0.0
 10
87.17208168513177
 20
84.25914030045425
 30
0.0
 10
88.22644827589116
 20
84.1456198910704
 30
0.0
 10
89.38828827545272
 20
83.9624693469012
 30
0.0
 10
90.34053214778329
 20
83.75786466905359
 30
0.0
 10
90.46624258693392
 20
83.72857806666539
 30
0.0
 10
90.52895909123328
 20
83.7139670817941
 30
0.0
  0
SPLINE
  5
FF
330
1F
100
AcDbEntity
  8
0
  6
Continuous
 62
     7
370
    15
100
AcDbSpline
210
0.0
220
0.0
230
1.0
 70
     8
 71
     3
 72
    18
 73
    14
 74
     0
 42
0.000000001
 43
0.00000001
 40
0.0
 40
0.0
 40
0.0
 40
0.0
 40
0.1248923132163087
 40
0.2505399251702286
 40
0.3748736960321593
 40
0.4374922746932932
 40
0.4990791346244216
 40
0.5607946627363165
 40
0.623391648031894
 40
0.747820629863259
 40
0.8731956351447466
 40
0.9991630028880233
 40
0.9999999999999999
 40
0.9999999999999999
 40
0.9999999999999999
 40
0.9999999999999999
 10
90.52874035170214
 20
131.8713936236916
 30
0.0
 10
90.46499651378663
 20
131.8567316153469
 30
0.0
 10
90.33712334072949
 20
131.8273189286977
 30
0.0
 10
89.38511501355502
 20
131.6223643568074
 30
0.0
 10
88.2245675992016
 20
131.4391008619456
 30
0.0
 10
87.17230178641805
 20
131.3260740195642
 30
0.0
 10
86.34807437257078
 20
131.2678110790737
 30
0.0
 10
85.52047109770434
 20
131.2403654404225
 30
0.0
 10
84.46165565269057
 20
131.2443511311477
 30
0.0
 10
83.25944054833532
 20
131.3134413033474
 30
0.0
 10
82.39426472894127
 20
131.4130670335158
 30
0.0
 10
82.00812842863039
 20
131.4638824807357
 30
0.0
 10
82.11619996594943
 20
131.4502103225719
 30
0.0
 10
82.1169133133545
 20
131.450120076807
 30
0.0
  0
SPLINE
  5
100
330
1F
100
AcDbEntity
  8
0
  6
Continuous
 62
     7
370
    15
100
AcDbSpline
210
0.0
220
0.0
230
1.0
 70
     8
 71
     3
 72
     9
 73
     5
 74
     0
 42
0.000000001
 43
0.00000001
 40
0.0
 40
0.0
 40
0.0
 40
0.0
 40
0.7009329310329676
 40
1.0
 40
1.0
 40
1.0
 40
1.0
 10
63.46810431997435
 20
88.09143263827423
 30
0.0
 10
63.47724359664964
 20
88.0736033527327
 30
0.0
 10
63.49028232870324
 20
88.04816684554041
 30
0.0
 10
63.50544758246856
 20
88.1020467057322
 30
0.0
 10
63.50998301046229
 20
88.11816039759613
 30
0.0
  0
LINE
  5
101
330
1F
100
AcDbEntity
  8
0
  6
Continuous
 62
     7
370
    15
100
AcDbLine
 10
63.4473196357
 20
88.1020351959
 30
0.0
 11
63.4473196357
 21
127.4833906889
 31
0.0
  0
SPLINE
  5
102
330
1F
100
AcDbEntity
  8
0
  6
Continuous
 62
     7
370
    15
100
AcDbSpline
210
0.0
220
0.0
230
1.0
 70
     8
 71
     3
 72
    10
 73
     6
 74
     0
 42
0.000000001
 43
0.00000001
 40
0.0
 40
0.0
 40
0.0
 40
0.0
 40
0.5
 40
0.5
 40
1.0
 40
1.0
 40
1.0
 40
1.0
 10
63.50998301046229
 20
127.4672654871576
 30
0.0
 10
63.50107872135355
 20
127.5130070063708
 30
0.0
 10
63.48456334116057
 20
127.5301978458398
 30
0.0
 10
63.45745539509895
 20
127.529874568904
 30
0.0
 10
63.44731963573891
 20
127.5119970266076
 30
0.0
 10
63.44731963573889
 20
127.483390688855
 30
0.0
  0
SPLINE
  5
103
330
1F
100
AcDbEntity
  8
0
  6
Continuous
 62
     7
370
    15
100
AcDbSpline
210
0.0
220
0.0
230
1.0
 70
     8
 71
     3
 72
    26
 73
    22
 74
     0
 42
0.000000001
 43
0.00000001
 40
0.0
 40
0.0
 40
0.0
 40
0.0
 40
0.2500000000000115
 40
0.2500000000000115
 40
0.3750000000000181
 40
0.3750000000000181
 40
0.4375000000000201
 40
0.4375000000000201
 40
0.4687500000000187
 40
0.4687500000000187
 40
0.5000000000000172
 40
0.5000000000000172
 40
0.5312500000000158
 40
0.5312500000000158
 40
0.5625000000000143
 40
0.5625000000000143
 40
0.625000000000013
 40
0.625000000000013
 40
0.7500000000000084
 40
0.7500000000000084
 40
1.0
 40
1.0
 40
1.0
 40
1.0
 10
64.27147328184338
 20
128.1828322759747
 30
0.0
 10
64.23287275897492
 20
128.0650575796193
 30
0.0
 10
64.18657575642067
 20
127.9406678934573
 30
0.0
 10
64.09263640798675
 20
127.7354485611038
 30
0.0
 10
64.05732494107328
 20
127.6638756946574
 30
0.0
 10
63.99114496532759
 20
127.5479224620569
 30
0.0
 10
63.96660659865935
 20
127.5073379272467
 30
0.0
 10
63.92323385310556
 20
127.443196245375
 30
0.0
 10
63.90772545168038
 20
127.4213298200899
 30
0.0
 10
63.87268280709338
 20
127.3757355517467
 30
0.0
 10
63.85313251637359
 20
127.3520652607793
 30
0.0
 10
63.81120523600295
 20
127.3074487014393
 30
0.0
 10
63.78855312577132
 20
127.2865686889214
 30
0.0
 10
63.74757941168467
 20
127.2556952751706
 30
0.0
 10
63.72998011178928
 20
127.2458564053383
 30
0.0
 10
63.68535312593315
 20
127.2268667896421
 30
0.0
 10
63.66479390327982
 20
127.2265424649887
 30
0.0
 10
63.61366846378315
 20
127.2357659058649
 30
0.0
 10
63.59275705079462
 20
127.2570128020818
 30
0.0
 10
63.54130714323369
 20
127.3309816809126
 30
0.0
 10
63.52364184392911
 20
127.3970997742273
 30
0.0
 10
63.50998301046229
 20
127.4672654871576
 30
0.0
  0
SPLINE
  5
104
330
1F
100
AcDbEntity
  8
0
  6
Continuous
 62
     7
370
    15
100
AcDbSpline
210
0.0
220
0.0
230
1.0
 70
     8
 71
     3
 72
    10
 73
     6
 74
     0
 42
0.000000001
 43
0.00000001
 40
0.0
 40
0.0
 40
0.0
 40
0.0
 40
0.5
 40
0.5
 40
1.0
 40
1.0
 40
1.0
 40
1.0
 10
64.58727470532068
 20
128.6526668346645
 30
0.0
 10
64.51971545040243
 20
128.5849754418547
 30
0.0
 10
64.45607879506593
 20
128.5102682771011
 30
0.0
 10
64.34585804049408
 20
128.3513021446745
 30
0.0
 10
64.29904174727147
 20
128.2669468786665
 30
0.0
 10
64.27147328184338
 20
128.1828322759747
 30
0.0
  0
SPLINE
  5
105
330
1F
100
AcDbEntity
  8
0
  6
Continuous
 62
     7
370
    15
100
AcDbSpline
210
0.0
220
0.0
230
1.0
 70
     8
 71
     3
 72
    10
 73
     6
 74
     0
 42
0.000000001
 43
0.00000001
 40
0.0
 40
0.0
 40
0.0
 40
0.0
 40
0.5
 40
0.5
 40
1.0
 40
1.0
 40
1.0
 40
1.0
 10
64.27147328184341
 20
87.4025936087789
 30
0.0
 10
64.2989506965974
 20
87.31875681231101
 30
0.0
 10
64.34565932688682
 20
87.23444632472187
 30
0.0
 10
64.4559377896328
 20
87.07532509423513
 30
0.0
 10
64.51982532824668
 20
87.00034035014549
 30
0.0
 10
64.5872747053313
 20
86.93275905007854
 30
0.0
  0
SPLINE
  5
106
330
1F
100
AcDbEntity
  8
0
  6
Continuous
 62
     7
370
    15
100
AcDbSpline
210
0.0
220
0.0
230
1.0
 70
     8
 71
     3
 72
    24
 73
    20
 74
     0
 42
0.000000001
 43
0.00000001
 40
0.0
 40
0.0
 40
0.0
 40
0.0
 40
0.24999999999998
 40
0.24999999999998
 40
0.3749999999999705
 40
0.3749999999999705
 40
0.4374999999999656
 40
0.4374999999999656
 40
0.4687499999999649
 40
0.4687499999999649
 40
0.4999999999999643
 40
0.4999999999999643
 40
0.5624999999999676
 40
0.5624999999999676
 40
0.6249999999999709
 40
0.6249999999999709
 40
0.7499999999999798
 40
0.7499999999999798
 40
1.0
 40
1.0
 40
1.0
 40
1.0
 10
63.50998301046231
 20
88.11816039759611
 30
0.0
 10
63.52373612913251
 20
88.18881045558638
 30
0.0
 10
63.54150869653838
 20
88.25540856835129
 30
0.0
 10
63.59375978809376
 20
88.32950658858451
 30
0.0
 10
63.6147948636753
 20
88.35076439574605
 30
0.0
 10
63.66769527130373
 20
88.35891032189231
 30
0.0
 10
63.68880094418164
 20
88.35797051849653
 30
0.0
 10
63.73485311285959
 20
88.33695452691923
 30
0.0
 10
63.75322358484298
 20
88.32604572081159
 30
0.0
 10
63.79477521990867
 20
88.29341080986424
 30
0.0
 10
63.81734189266558
 20
88.27191882949289
 30
0.0
 10
63.88012290912562
 20
88.20345288590659
 30
0.0
 10
63.91325267009351
 20
88.15737842770147
 30
0.0
 10
63.97017035657854
 20
88.07237053936682
 30
0.0
 10
63.99435638208229
 20
88.03209023818542
 30
0.0
 10
64.05956433246207
 20
87.91715401171948
 30
0.0
 10
64.09428039265332
 20
87.84657102657246
 30
0.0
 10
64.1874956629842
 20
87.64236526749384
 30
0.0
 10
64.23316819834488
 20
87.51946688516648
 30
0.0
 10
64.27147328184343
 20
87.40259360877891
 30
0.0
  0
LINE
  5
107
330
1F
100
AcDbEntity
  8
0
  6
Continuous
 62
     7
370
    15
100
AcDbLine
 10
115.2573196357
 20
127.9285795738
 30
0.0
 11
115.2573196357
 21
128.84285661
 31
0.0
  0
SPLINE
  5
108
330
1F
100
AcDbEntity
  8
0
  6
Continuous
 62
     7
370
    15
100
AcDbSpline
210
0.0
220
0.0
230
1.0
 70
     8
 71
     3
 72
     8
 73
     4
 74
     0
 42
0.000000001
 43
0.00000001
 40
0.0
 40
0.0
 40
0.0
 40
0.0
 40
1.0
 40
1.0
 40
1.0
 40
1.0
 10
115.2573196357389
 20
128.8428566099602
 30
0.0
 10
115.7365977863287
 20
129.9838678398128
 30
0.0
 10
116.2321656254687
 20
131.1202522505806
 30
0.0
 10
116.739252467228
 20
132.2514026047443
 30
0.0
  0
LINE
  5
109
330
1F
100
AcDbEntity
  8
0
  6
Continuous
 62
     7
370
    15
100
AcDbLine
 10
116.7392524672
 20
132.2514026047
 30
0.0
 11
120.6973196357
 21
132.2514026047
 31
0.0
  0
SPLINE
  5
10A
330
1F
100
AcDbEntity
  8
0
  6
Continuous
 62
     7
370
    15
100
AcDbSpline
210
0.0
220
0.0
230
1.0
 70
     8
 71
     3
 72
    12
 73
     8
 74
     0
 42
0.000000001
 43
0.00000001
 40
0.0
 40
0.0
 40
0.0
 40
0.0
 40
0.250000000000002
 40
0.250000000000002
 40
0.500000000000004
 40
0.500000000000004
 40
1.0
 40
1.0
 40
1.0
 40
1.0
 10
120.6973196357389
 20
132.2514026047443
 30
0.0
 10
120.7885193575646
 20
132.2514026047443
 30
0.0
 10
120.8791143667006
 20
132.2231829061564
 30
0.0
 10
121.0325270931472
 20
132.1287398989083
 30
0.0
 10
121.0977359604709
 20
132.062452922203
 30
0.0
 10
121.2505204898108
 20
131.8368280989147
 30
0.0
 10
121.2973196357389
 20
131.6544018358821
 30
0.0
 10
121.2973196357389
 20
131.4736652036352
 30
0.0
  0
LINE
  5
10B
330
1F
100
AcDbEntity
  8
0
  6
Continuous
 62
     7
370
    15
100
AcDbLine
 10
121.2973196357
 20
131.4736652036
 30
0.0
 11
121.2973196357
 21
127.6427129424
 31
0.0
  0
SPLINE
  5
10C
330
1F
100
AcDbEntity
  8
0
  6
Continuous
 62
     7
370
    15
100
AcDbSpline
210
0.0
220
0.0
230
1.0
 70
     8
 71
     3
 72
     8
 73
     4
 74
     0
 42
0.000000001
 43
0.00000001
 40
0.0
 40
0.0
 40
0.0
 40
0.0
 40
1.0
 40
1.0
 40
1.0
 40
1.0
 10
116.7392524672279
 20
138.2599084155411
 30
0.0
 10
116.2441124378636
 20
137.3732287673608
 30
0.0
 10
115.7500297325847
 20
136.4859661316748
 30
0.0
 10
115.2573196357389
 20
135.5979471335485
 30
0.0
  0
LINE
  5
10D
330
1F
100
AcDbEntity
  8
0
  6
Continuous
 62
     7
370
    15
100
AcDbLine
 10
116.7392524672
 20
132.2514026047
 30
0.0
 11
116.7392524672
 21
138.2599084155
 31
0.0
  0
LINE
  5
10E
330
1F
100
AcDbEntity
  8
0
  6
Continuous
 62
     7
370
    15
100
AcDbLine
 10
115.2573196357
 20
128.84285661
 30
0.0
 11
115.2573196357
 21
135.5979471335
 31
0.0
  0
SPLINE
  5
10F
330
1F
100
AcDbEntity
  8
0
  6
Continuous
 62
     7
370
    15
100
AcDbSpline
210
0.0
220
0.0
230
1.0
 70
     8
 71
     3
 72
    10
 73
     6
 74
     0
 42
0.000000001
 43
0.00000001
 40
0.0
 40
0.0
 40
0.0
 40
0.0
 40
0.5
 40
0.5
 40
1.0
 40
1.0
 40
1.0
 40
1.0
 10
121.2973196357389
 20
137.6391532661408
 30
0.0
 10
121.2973196357389
 20
137.7995585324916
 30
0.0
 10
121.235081804632
 20
137.9586203454801
 30
0.0
 10
121.0159468808895
 20
138.1895328111105
 30
0.0
 10
120.8583581858976
 20
138.2599084155411
 30
0.0
 10
120.6973196357389
 20
138.2599084155411
 30
0.0
  0
LINE
  5
110
330
1F
100
AcDbEntity
  8
0
  6
Continuous
 62
     7
370
    15
100
AcDbLine
 10
121.2973196357
 20
131.4736652036
 30
0.0
 11
121.2973196357
 21
137.6391532661
 31
0.0
  0
SPLINE
  5
111
330
1F
100
AcDbEntity
  8
0
  6
Continuous
 62
     7
370
    15
100
AcDbSpline
210
0.0
220
0.0
230
1.0
 70
     8
 71
     3
 72
     8
 73
     4
 74
     0
 42
0.000000001
 43
0.00000001
 40
0.0
 40
0.0
 40
0.0
 40
0.0
 40
1.0
 40
1.0
 40
1.0
 40
1.0
 10
109.9553868042498
 20
132.2514026047443
 30
0.0
 10
110.4624736460091
 20
131.1202522505806
 30
0.0
 10
110.958041485149
 20
129.9838678398128
 30
0.0
 10
111.4373196357389
 20
128.8428566099602
 30
0.0
  0
LINE
  5
112
330
1F
100
AcDbEntity
  8
0
  6
Continuous
 62
     7
370
    15
100
AcDbLine
 10
111.4373196357
 20
128.84285661
 30
0.0
 11
111.4373196357
 21
127.9285795738
 31
0.0
  0
SPLINE
  5
113
330
1F
100
AcDbEntity
  8
0
  6
Continuous
 62
     7
370
    15
100
AcDbSpline
210
0.0
220
0.0
230
1.0
 70
     8
 71
     3
 72
     8
 73
     4
 74
     0
 42
0.000000001
 43
0.00000001
 40
0.0
 40
0.0
 40
0.0
 40
0.0
 40
1.0
 40
1.0
 40
1.0
 40
1.0
 10
111.4373196357389
 20
135.5979471335485
 30
0.0
 10
110.9446095388931
 20
136.4859661316748
 30
0.0
 10
110.4505268336142
 20
137.3732287673608
 30
0.0
 10
109.9553868042498
 20
138.2599084155411
 30
0.0
  0
LINE
  5
114
330
1F
100
AcDbEntity
  8
0
  6
Continuous
 62
     7
370
    15
100
AcDbLine
 10
111.4373196357
 20
128.84285661
 30
0.0
 11
111.4373196357
 21
135.5979471335
 31
0.0
  0
LINE
  5
115
330
1F
100
AcDbEntity
  8
0
  6
Continuous
 62
     7
370
    15
100
AcDbLine
 10
120.6973196357
 20
138.2599084155
 30
0.0
 11
116.7392524672
 21
138.2599084155
 31
0.0
  0
LINE
  5
116
330
1F
100
AcDbEntity
  8
0
  6
Continuous
 62
     7
370
    15
100
AcDbLine
 10
122.2973196357
 20
81.7927129424
 30
0.0
 11
122.2973196357
 21
133.7927129424
 31
0.0
  0
LINE
  5
117
330
1F
100
AcDbEntity
  8
0
  6
Continuous
 62
     7
370
    15
100
AcDbLine
 10
150.0490255579
 20
154.7927129424
 30
0.0
 11
150.0490255579
 21
107.7927129424
 31
0.0
  0
LINE
  5
118
330
1F
100
AcDbEntity
  8
0
  6
Continuous
 62
     7
370
    15
100
AcDbLine
 10
150.0490255579
 20
107.7927129424
 30
0.0
 11
150.0490255579
 21
60.7927129424
 31
0.0
  0
LINE
  5
119
330
1F
100
AcDbEntity
  8
0
  6
Continuous
 62
     7
370
    15
100
AcDbLine
 10
150.0490255579
 20
60.7927129424
 30
0.0
 11
150.0490255579
 21
154.7927129424
 31
0.0
  0
LINE
  5
11A
330
1F
100
AcDbEntity
  8
0
  6
Continuous
 62
     7
370
    15
100
AcDbLine
 10
149.1830001541
 20
154.2927129424
 30
0.0
 11
149.1830001541
 21
107.7927129424
 31
0.0
  0
LINE
  5
11B
330
1F
100
AcDbEntity
  8
0
  6
Continuous
 62
     7
370
    15
100
AcDbLine
 10
149.1830001541
 20
107.7927129424
 30
0.0
 11
149.1830001541
 21
61.2927129424
 31
0.0
  0
LINE
  5
11C
330
1F
100
AcDbEntity
  8
0
  6
Continuous
 62
     7
370
    15
100
AcDbLine
 10
149.1830001541
 20
61.2927129424
 30
0.0
 11
149.1830001541
 21
154.2927129424
 31
0.0
  0
LINE
  5
11D
330
1F
100
AcDbEntity
  8
0
  6
Continuous
 62
     7
370
    15
100
AcDbLine
 10
137.6359947703
 20
134.2927129424
 30
0.0
 11
137.6359947703
 21
81.2927129424
 31
0.0
  0
LINE
  5
11E
330
1F
100
AcDbEntity
  8
0
  6
Continuous
 62
     7
370
    15
100
AcDbLine
 10
137.6359947703
 20
107.7927129424
 30
0.0
 11
137.6359947703
 21
134.2927129424
 31
0.0
  0
LINE
  5
11F
330
1F
100
AcDbEntity
  8
0
  6
Continuous
 62
     7
370
    15
100
AcDbLine
 10
136.7699693665
 20
81.7927129424
 30
0.0
 11
136.7699693665
 21
107.7927129424
 31
0.0
  0
LINE
  5
120
330
1F
100
AcDbEntity
  8
0
  6
Continuous
 62
     7
370
    15
100
AcDbLine
 10
136.7699693665
 20
107.7927129424
 30
0.0
 11
136.7699693665
 21
133.7927129424
 31
0.0
  0
LINE
  5
121
330
1F
100
AcDbEntity
  8
0
  6
Continuous
 62
     7
370
    15
100
AcDbLine
 10
136.7699693665
 20
133.7927129424
 30
0.0
 11
136.7699693665
 21
81.7927129424
 31
0.0
  0
CIRCLE
  5
122
330
1F
100
AcDbEntity
  8
0
  6
HIDDEN
 62
     7
370
     0
100
AcDbCircle
 10
175.7973196357
 20
107.7927129424
 30
0.0
 40
8.980667620239323
  0
CIRCLE
  5
123
330
1F
100
AcDbEntity
  8
0
  6
HIDDEN
 62
     7
370
     0
100
AcDbCircle
 10
175.7973196357
 20
107.7927129424
 30
0.0
 40
6.375755334184827
  0
CIRCLE
  5
124
330
1F
100
AcDbEntity
  8
0
  6
HIDDEN
 62
     7
370
     0
100
AcDbCircle
 10
175.7973196357
 20
107.7927129424
 30
0.0
 40
5.975755334184862
  0
CIRCLE
  5
125
330
1F
100
AcDbEntity
  8
0
  6
HIDDEN
 62
     7
370
     0
100
AcDbCircle
 10
175.7973196357
 20
107.7927129424
 30
0.0
 40
9.249999999999986
  0
LINE
  5
126
330
1F
100
AcDbEntity
  8
0
  6
HIDDEN
 62
     7
370
     0
100
AcDbLine
 10
199.5973196357
 20
135.1267033636
 30
0.0
 11
199.5973196357
 21
80.4587225212
 31
0.0
  0
SPLINE
  5
127
330
1F
100
AcDbEntity
  8
0
  6
HIDDEN
 62
     7
370
     0
100
AcDbSpline
210
0.0
220
0.0
230
1.0
 70
     8
 71
     3
 72
    22
 73
    18
 74
     0
 42
0.000000001
 43
0.00000001
 40
0.0
 40
0.0
 40
0.0
 40
0.0
 40
0.125
 40
0.125
 40
0.25
 40
0.25
 40
0.375
 40
0.375
 40
0.5
 40
0.5
 40
0.625
 40
0.625
 40
0.75
 40
0.75
 40
0.875
 40
0.875
 40
1.0
 40
1.0
 40
1.0
 40
1.0
 10
199.5973196357389
 20
80.45872252118151
 30
0.0
 10
199.6727099903157
 20
80.17483498674265
 30
0.0
 10
199.7393145044881
 20
79.89773767281221
 30
0.0
 10
199.8555265048169
 20
79.35721126685148
 30
0.0
 10
199.9053479505329
 20
79.0924436345363
 30
0.0
 10
199.9860972618198
 20
78.58361458551687
 30
0.0
 10
200.0163292635509
 20
78.34446758349888
 30
0.0
 10
200.0571008527174
 20
77.89627354084783
 30
0.0
 10
200.067623915033
 20
77.68556103671564
 30
0.0
 10
200.0677037167885
 20
77.30446861313402
 30
0.0
 10
200.0574621216238
 20
77.13584005693741
 30
0.0
 10
200.0169381048811
 20
76.84109509094085
 30
0.0
 10
199.9861728401574
 20
76.71409281983318
 30
0.0
 10
199.9059574713432
 20
76.51085583331755
 30
0.0
 10
199.85673864215
 20
76.43389268291703
 30
0.0
 10
199.7403276434528
 20
76.32744719510049
 30
0.0
 10
199.6727268704985
 20
76.29817319652915
 30
0.0
 10
199.5973196357389
 20
76.2934143851266
 30
0.0
  0
LINE
  5
128
330
1F
100
AcDbEntity
  8
0
  6
HIDDEN
 62
     7
370
     0
100
AcDbLine
 10
199.5973196357
 20
76.2934143851
 30
0.0
 11
199.5973196357
 21
69.4010931328
 31
0.0
  0
LINE
  5
129
330
1F
100
AcDbEntity
  8
0
  6
HIDDEN
 62
     7
370
     0
100
AcDbLine
 10
199.5973196357
 20
146.184332752
 30
0.0
 11
199.5973196357
 21
139.2920114996
 31
0.0
  0
SPLINE
  5
12A
330
1F
100
AcDbEntity
  8
0
  6
HIDDEN
 62
     7
370
     0
100
AcDbSpline
210
0.0
220
0.0
230
1.0
 70
     8
 71
     3
 72
    22
 73
    18
 74
     0
 42
0.000000001
 43
0.00000001
 40
0.0
 40
0.0
 40
0.0
 40
0.0
 40
0.125
 40
0.125
 40
0.25
 40
0.25
 40
0.375
 40
0.375
 40
0.5
 40
0.5
 40
0.625
 40
0.625
 40
0.75
 40
0.75
 40
0.875
 40
0.875
 40
1.0
 40
1.0
 40
1.0
 40
1.0
 10
199.5973196357389
 20
139.2920114996271
 30
0.0
 10
199.6727099903157
 20
139.2872537535017
 30
0.0
 10
199.7393145044882
 20
139.2584928235208
 30
0.0
 10
199.8555265048169
 20
139.1530460195734
 30
0.0
 10
199.9053479505329
 20
139.0758380663566
 30
0.0
 10
199.9860972618198
 20
138.8717985097973
 30
0.0
 10
200.0163292635509
 20
138.7472351965445
 30
0.0
 10
200.0571008527174
 20
138.4537013949855
 30
0.0
 10
200.067623915033
 20
138.2830051680401
 30
0.0
 10
200.0677037167885
 20
137.9022159699268
 30
0.0
 10
200.0574621216238
 20
137.6946403815178
 30
0.0
 10
200.0169381048811
 20
137.2461702340058
 30
0.0
 10
199.9861728401574
 20
137.0025648692225
 30
0.0
 10
199.9059574713432
 20
136.4965480813562
 30
0.0
 10
199.85673864215
 20
136.2342790104181
 30
0.0
 10
199.7403276434528
 20
135.6919821144105
 30
0.0
 10
199.6727268704985
 20
135.4106544614934
 30
0.0
 10
199.5973196357389
 20
135.1267033635722
 30
0.0
  0
LINE
  5
12B
330
1F
100
AcDbEntity
  8
0
  6
HIDDEN
 62
     7
370
     0
100
AcDbLine
 10
109.9553868042
 20
132.2514026047
 30
0.0
 11
109.9553868042
 21
127.6427129424
 31
0.0
  0
LINE
  5
12C
330
1F
100
AcDbEntity
  8
0
  6
HIDDEN
 62
     7
370
     0
100
AcDbLine
 10
194.7973196357
 20
120.7395694624
 30
0.0
 11
194.7973196357
 21
94.8458564224
 31
0.0
  0
LINE
  5
12D
330
1F
100
AcDbEntity
  8
0
  6
HIDDEN
 62
     7
370
     0
100
AcDbLine
 10
199.5973196357
 20
120.7395694624
 30
0.0
 11
194.7973196357
 21
120.7395694624
 31
0.0
  0
LINE
  5
12E
330
1F
100
AcDbEntity
  8
0
  6
HIDDEN
 62
     7
370
     0
100
AcDbLine
 10
194.7973196357
 20
120.7395694624
 30
0.0
 11
194.7973196357
 21
134.0927129424
 31
0.0
  0
LINE
  5
12F
330
1F
100
AcDbEntity
  8
0
  6
HIDDEN
 62
     7
370
     0
100
AcDbLine
 10
194.7973196357
 20
139.1427734354
 30
0.0
 11
199.5973196357
 21
139.1427734354
 31
0.0
  0
LINE
  5
130
330
1F
100
AcDbEntity
  8
0
  6
HIDDEN
 62
     7
370
     0
100
AcDbLine
 10
199.5973196357
 20
139.1427734354
 30
0.0
 11
199.5973196357
 21
139.2920705782
 31
0.0
  0
LINE
  5
131
330
1F
100
AcDbEntity
  8
0
  6
HIDDEN
 62
     7
370
     0
100
AcDbLine
 10
194.7973196357
 20
134.0927129424
 30
0.0
 11
194.7973196357
 21
139.2927129424
 31
0.0
  0
LINE
  5
132
330
1F
100
AcDbEntity
  8
0
  6
HIDDEN
 62
     7
370
     0
100
AcDbLine
 10
194.7973196357
 20
94.8458564224
 30
0.0
 11
199.5973196357
 21
94.8458564224
 31
0.0
  0
LINE
  5
133
330
1F
100
AcDbEntity
  8
0
  6
HIDDEN
 62
     7
370
     0
100
AcDbLine
 10
194.7973196357
 20
81.4927129424
 30
0.0
 11
194.7973196357
 21
94.8458564224
 31
0.0
  0
LINE
  5
134
330
1F
100
AcDbEntity
  8
0
  6
HIDDEN
 62
     7
370
     0
100
AcDbLine
 10
194.7973196357
 20
76.4426524494
 30
0.0
 11
199.5973196357
 21
76.4426524494
 31
0.0
  0
LINE
  5
135
330
1F
100
AcDbEntity
  8
0
  6
HIDDEN
 62
     7
370
     0
100
AcDbLine
 10
199.5973196357
 20
76.4426524494
 30
0.0
 11
199.5973196357
 21
76.2933553066
 31
0.0
  0
LINE
  5
136
330
1F
100
AcDbEntity
  8
0
  6
HIDDEN
 62
     7
370
     0
100
AcDbLine
 10
194.7973196357
 20
76.2927129424
 30
0.0
 11
194.7973196357
 21
81.4927129424
 31
0.0
  0
LINE
  5
137
330
1F
100
AcDbEntity
  8
0
  6
HIDDEN
 62
     7
370
     0
100
AcDbLine
 10
193.2973196357
 20
107.7927129424
 30
0.0
 11
193.2973196357
 21
82.7927129424
 31
0.0
  0
LINE
  5
138
330
1F
100
AcDbEntity
  8
0
  6
HIDDEN
 62
     7
370
     0
100
AcDbLine
 10
193.2973196357
 20
132.7927129424
 30
0.0
 11
193.2973196357
 21
107.7927129424
 31
0.0
  0
LINE
  5
139
330
1F
100
AcDbEntity
  8
0
  6
HIDDEN
 62
     7
370
     0
100
AcDbLine
 10
149.3473196357
 20
107.7927129424
 30
0.0
 11
149.3473196357
 21
83.0927129424
 31
0.0
  0
LINE
  5
13A
330
1F
100
AcDbEntity
  8
0
  6
HIDDEN
 62
     7
370
     0
100
AcDbLine
 10
149.3473196357
 20
132.4927129424
 30
0.0
 11
149.3473196357
 21
107.7927129424
 31
0.0
  0
LINE
  5
13B
330
1F
100
AcDbEntity
  8
0
  6
HIDDEN
 62
     7
370
     0
100
AcDbLine
 10
151.8473196357
 20
107.7927129424
 30
0.0
 11
151.8473196357
 21
82.7927129424
 31
0.0
  0
LINE
  5
13C
330
1F
100
AcDbEntity
  8
0
  6
HIDDEN
 62
     7
370
     0
100
AcDbLine
 10
151.8473196357
 20
132.7927129424
 30
0.0
 11
151.8473196357
 21
107.7927129424
 31
0.0
  0
LINE
  5
13D
330
1F
100
AcDbEntity
  8
0
  6
HIDDEN
 62
     7
370
     0
100
AcDbLine
 10
83.3424843466
 20
84.2681143394
 30
0.0
 11
82.8084111744
 21
84.2135074013
 31
0.0
  0
LINE
  5
13E
330
1F
100
AcDbEntity
  8
0
  6
HIDDEN
 62
     7
370
     0
100
AcDbLine
 10
82.570294901
 20
131.3960845428
 30
0.0
 11
83.3423916269
 21
131.3172949524
 31
0.0
  0
LINE
  5
13F
330
1F
100
AcDbEntity
  8
0
  6
HIDDEN
 62
     7
370
     0
100
AcDbLine
 10
194.7973196357
 20
139.2927129424
 30
0.0
 11
194.7973196357
 21
145.3177129424
 31
0.0
  0
LINE
  5
140
330
1F
100
AcDbEntity
  8
0
  6
HIDDEN
 62
     7
370
     0
100
AcDbLine
 10
194.7973196357
 20
70.2677129424
 30
0.0
 11
194.7973196357
 21
76.2927129424
 31
0.0
  0
SPLINE
  5
141
330
1F
100
AcDbEntity
  8
0
  6
HIDDEN
 62
     7
370
     0
100
AcDbSpline
210
0.0
220
0.0
230
1.0
 70
     8
 71
     3
 72
    15
 73
    11
 74
     0
 42
0.000000001
 43
0.00000001
 40
0.0
 40
0.0
 40
0.0
 40
0.0
 40
0.1409172169897704
 40
0.2818898291171902
 40
0.4212989265166053
 40
0.5593768372264383
 40
0.6988856205980563
 40
0.8403671979046401
 40
0.9813164454670257
 40
1.0
 40
1.0
 40
1.0
 40
1.0
 10
89.1023216373405
 20
87.9551844665604
 30
0.0
 10
88.78627995106793
 20
87.99553828388201
 30
0.0
 10
88.15407234123592
 20
88.07626178177684
 30
0.0
 10
86.91990921955869
 20
88.15281687937913
 30
0.0
 10
85.64918721870018
 20
88.14814082824007
 30
0.0
 10
84.46062781367272
 20
88.06734481650786
 30
0.0
 10
83.46750514089167
 20
87.94294801999611
 30
0.0
 10
82.82809613459507
 20
87.83654448133403
 30
0.0
 10
82.54707602801149
 20
87.78346382065679
 30
0.0
 10
82.61363676570471
 20
87.7957198606711
 30
0.0
 10
82.62142708922295
 20
87.79715431768092
 30
0.0
  0
SPLINE
  5
142
330
1F
100
AcDbEntity
  8
0
  6
HIDDEN
 62
     7
370
     0
100
AcDbSpline
210
0.0
220
0.0
230
1.0
 70
     8
 71
     3
 72
    15
 73
    11
 74
     0
 42
0.000000001
 43
0.00000001
 40
0.0
 40
0.0
 40
0.0
 40
0.0
 40
0.1201202395113815
 40
0.2584739316900678
 40
0.3987301965958622
 40
0.5404022890432683
 40
0.6807395403003625
 40
0.8190356063860856
 40
0.9577823106998823
 40
1.0
 40
1.0
 40
1.0
 40
1.0
 10
82.62142708922295
 20
127.7882715670728
 30
0.0
 10
82.64213622569342
 20
127.7842469732192
 30
0.0
 10
82.68669800768119
 20
127.7755868789583
 30
0.0
 10
83.2491376135539
 20
127.6762957523496
 30
0.0
 10
84.14259982587522
 20
127.5523781623684
 30
0.0
 10
85.30157898006742
 20
127.4526677255469
 30
0.0
 10
86.57461586019276
 20
127.4255292364713
 30
0.0
 10
87.80890113483636
 20
127.4808680706352
 30
0.0
 10
88.63686393160239
 20
127.5673466696194
 30
0.0
 10
89.01427447626637
 20
127.6183440879093
 30
0.0
 10
89.10232163734051
 20
127.6302414181933
 30
0.0
  0
SPLINE
  5
143
330
1F
100
AcDbEntity
  8
0
  6
HIDDEN
 62
     7
370
     0
100
AcDbSpline
210
0.0
220
0.0
230
1.0
 70
     8
 71
     3
 72
    10
 73
     6
 74
     0
 42
0.000000001
 43
0.00000001
 40
0.0
 40
0.0
 40
0.0
 40
0.0
 40
0.4474608139381157
 40
0.8949048734216963
 40
1.0
 40
1.0
 40
1.0
 40
1.0
 10
89.1023216373405
 20
127.6302414181933
 30
0.0
 10
89.34903351806453
 20
127.6597542328191
 30
0.0
 10
89.84244804178083
 20
127.7187787570106
 30
0.0
 10
90.1314674319537
 20
127.7327167038518
 30
0.0
 10
90.0710433567741
 20
127.7288227538536
 30
0.0
 10
90.05955045999943
 20
127.7280821092473
 30
0.0
  0
SPLINE
  5
144
330
1F
100
AcDbEntity
  8
0
  6
HIDDEN
 62
     7
370
     0
100
AcDbSpline
210
0.0
220
0.0
230
1.0
 70
     8
 71
     3
 72
    10
 73
     6
 74
     0
 42
0.000000001
 43
0.00000001
 40
0.0
 40
0.0
 40
0.0
 40
0.0
 40
0.3453718262507138
 40
0.796665041458402
 40
1.0
 40
1.0
 40
1.0
 40
1.0
 10
90.05955761207159
 20
87.85734328932614
 30
0.0
 10
90.04999738725652
 20
87.85789897642998
 30
0.0
 10
90.0279449315559
 20
87.859180773195
 30
0.0
 10
89.61104689826672
 20
87.88913505750922
 30
0.0
 10
89.22288815814576
 20
87.93953093397182
 30
0.0
 10
89.1023216373405
 20
87.9551844665604
 30
0.0
  0
LINE
  5
145
330
1F
100
AcDbEntity
  8
0
  6
HIDDEN
 62
     7
370
     0
100
AcDbLine
 10
76.351294232
 20
90.7927129424
 30
0.0
 11
76.351294232
 21
124.7927129424
 31
0.0
  0
LINE
  5
146
330
1F
100
AcDbEntity
  8
0
  6
HIDDEN
 62
     7
370
     0
100
AcDbLine
 10
103.0071456043
 20
90.7927129424
 30
0.0
 11
103.0071456043
 21
124.7927129424
 31
0.0
  0
LINE
  5
147
330
1F
100
AcDbEntity
  8
0
  6
HIDDEN
 62
     7
370
     0
100
AcDbLine
 10
105.2973196357
 20
92.0677129424
 30
0.0
 11
105.2973196357
 21
123.5177128858
 31
0.0
  0
SPLINE
  5
148
330
1F
100
AcDbEntity
  8
0
  6
HIDDEN
 62
     7
370
     0
100
AcDbSpline
210
0.0
220
0.0
230
1.0
 70
     8
 71
     3
 72
    18
 73
    14
 74
     0
 42
0.000000001
 43
0.00000001
 40
0.0
 40
0.0
 40
0.0
 40
0.0
 40
0.2500000000000033
 40
0.2500000000000033
 40
0.3750000000000029
 40
0.3750000000000029
 40
0.5000000000000026
 40
0.5000000000000026
 40
0.6250000000000022
 40
0.6250000000000022
 40
0.7500000000000018
 40
0.7500000000000018
 40
1.0
 40
1.0
 40
1.0
 40
1.0
 10
69.5473196357389
 20
124.080226564781
 30
0.0
 10
69.54731963573889
 20
124.0257520442288
 30
0.0
 10
69.5124089443467
 20
123.9693709848763
 30
0.0
 10
69.41039964301366
 20
123.8852941440228
 30
0.0
 10
69.36876328833554
 20
123.8579604400319
 30
0.0
 10
69.27035749284681
 20
123.8050065244329
 30
0.0
 10
69.21281428114254
 20
123.7791191707158
 30
0.0
 10
69.08551610756957
 20
123.7313416258825
 30
0.0
 10
69.01592880281211
 20
123.7093937077046
 30
0.0
 10
68.86449455765715
 20
123.6699611427919
 30
0.0
 10
68.7818106545632
 20
123.652404893566
 30
0.0
 10
68.52569919252515
 20
123.6099661281455
 30
0.0
 10
68.33778418863717
 20
123.5942033784085
 30
0.0
 10
68.1473196357389
 20
123.5942033784085
 30
0.0
  0
LINE
  5
149
330
1F
100
AcDbEntity
  8
0
  6
HIDDEN
 62
     7
370
     0
100
AcDbLine
 10
68.1473196357
 20
123.5942033784
 30
0.0
 11
64.5973196357
 21
123.5942033784
 31
0.0
  0
LINE
  5
14A
330
1F
100
AcDbEntity
  8
0
  6
HIDDEN
 62
     7
370
     0
100
AcDbLine
 10
64.5973196357
 20
91.9912225063
 30
0.0
 11
72.1473196357
 21
91.9912225063
 31
0.0
  0
SPLINE
  5
14B
330
1F
100
AcDbEntity
  8
0
  6
HIDDEN
 62
     7
370
     0
100
AcDbSpline
210
0.0
220
0.0
230
1.0
 70
     8
 71
     3
 72
    16
 73
    12
 74
     0
 42
0.000000001
 43
0.00000001
 40
0.0
 40
0.0
 40
0.0
 40
0.0
 40
0.124999999999998
 40
0.124999999999998
 40
0.249999999999996
 40
0.249999999999996
 40
0.4999999999999973
 40
0.4999999999999973
 40
0.7499999999999987
 40
0.7499999999999987
 40
1.0
 40
1.0
 40
1.0
 40
1.0
 10
72.1473196357389
 20
91.9912225063452
 30
0.0
 10
72.24244139040472
 20
91.9912225063452
 30
0.0
 10
72.3357714591328
 20
91.98740667295239
 30
0.0
 10
72.51903321987079
 20
91.97263612022257
 30
0.0
 10
72.6099109354278
 20
91.961478072247
 30
0.0
 10
72.86671263294754
 20
91.91900680210529
 30
0.0
 10
73.02177999781954
 20
91.87796060490248
 30
0.0
 10
73.27552645937416
 20
91.7828144883206
 30
0.0
 10
73.37639691104202
 20
91.728051754239
 30
0.0
 10
73.51164332573686
 20
91.61679063033515
 30
0.0
 10
73.54731963573889
 20
91.55962089300645
 30
0.0
 10
73.54731963573889
 20
91.50519931997272
 30
0.0
  0
LINE
  5
14C
330
1F
100
AcDbEntity
  8
0
  6
HIDDEN
 62
     7
370
     0
100
AcDbLine
 10
64.5973196357
 20
91.9912225063
 30
0.0
 11
64.5973196357
 21
123.5942033784
 31
0.0
  0
LINE
  5
14D
330
1F
100
AcDbEntity
  8
0
  6
HIDDEN
 62
     7
370
     0
100
AcDbLine
 10
64.5973196357
 20
89.8027129424
 30
0.0
 11
64.5973196357
 21
86.922775177
 31
0.0
  0
LINE
  5
14E
330
1F
100
AcDbEntity
  8
0
  6
HIDDEN
 62
     7
370
     0
100
AcDbLine
 10
73.5473196357
 20
89.8027129424
 30
0.0
 11
73.5473196357
 21
85.8289754112
 31
0.0
  0
LINE
  5
14F
330
1F
100
AcDbEntity
  8
0
  6
HIDDEN
 62
     7
370
     0
100
AcDbLine
 10
64.5973196357
 20
125.7827129424
 30
0.0
 11
64.5973196357
 21
128.6626507078
 31
0.0
  0
LINE
  5
150
330
1F
100
AcDbEntity
  8
0
  6
HIDDEN
 62
     7
370
     0
100
AcDbLine
 10
69.5473196357
 20
125.7827129424
 30
0.0
 11
69.5473196357
 21
129.6368206147
 31
0.0
  0
LINE
  5
151
330
1F
100
AcDbEntity
  8
0
  6
HIDDEN
 62
     7
370
     0
100
AcDbLine
 10
114.6473196357
 20
98.2927129424
 30
0.0
 11
114.6473196357
 21
117.2927129424
 31
0.0
  0
LINE
  5
152
330
1F
100
AcDbEntity
  8
0
  6
HIDDEN
 62
     7
370
     0
100
AcDbLine
 10
117.1473196357
 20
98.2927129424
 30
0.0
 11
117.1473196357
 21
117.2927129424
 31
0.0
  0
LINE
  5
153
330
1F
100
AcDbEntity
  8
0
  6
HIDDEN
 62
     7
370
     0
100
AcDbLine
 10
105.7973196357
 20
99.2927129424
 30
0.0
 11
105.7973196357
 21
116.2927129424
 31
0.0
  0
LINE
  5
154
330
1F
100
AcDbEntity
  8
0
  6
HIDDEN
 62
     7
370
     0
100
AcDbLine
 10
121.2973196357
 20
81.3927129424
 30
0.0
 11
115.1596448334
 21
81.3927129424
 31
0.0
  0
LINE
  5
155
330
1F
100
AcDbEntity
  8
0
  6
HIDDEN
 62
     7
370
     0
100
AcDbLine
 10
100.2973196357
 20
76.3085899595
 30
0.0
 11
100.2973196357
 21
81.3927129424
 31
0.0
  0
LINE
  5
156
330
1F
100
AcDbEntity
  8
0
  6
HIDDEN
 62
     7
370
     0
100
AcDbLine
 10
108.2973196357
 20
81.3927129424
 30
0.0
 11
100.2973196357
 21
81.3927129424
 31
0.0
  0
LINE
  5
157
330
1F
100
AcDbEntity
  8
0
  6
HIDDEN
 62
     7
370
     0
100
AcDbLine
 10
111.5349944381
 20
81.3927129424
 30
0.0
 11
108.2973196357
 21
81.3927129424
 31
0.0
  0
LINE
  5
158
330
1F
100
AcDbEntity
  8
0
  6
HIDDEN
 62
     7
370
     0
100
AcDbLine
 10
111.8316171674
 20
134.1927129424
 30
0.0
 11
108.2973196357
 21
134.1927129424
 31
0.0
  0
LINE
  5
159
330
1F
100
AcDbEntity
  8
0
  6
HIDDEN
 62
     7
370
     0
100
AcDbLine
 10
121.2973196357
 20
134.1927129424
 30
0.0
 11
114.863022104
 21
134.1927129424
 31
0.0
  0
LINE
  5
15A
330
1F
100
AcDbEntity
  8
0
  6
HIDDEN
 62
     7
370
     0
100
AcDbLine
 10
108.2973196357
 20
134.1927129424
 30
0.0
 11
100.2973196357
 21
134.1927129424
 31
0.0
  0
ELLIPSE
  5
15B
330
1F
100
AcDbEntity
  8
0
  6
HIDDEN
 62
     7
370
     0
100
AcDbEllipse
 10
59.2798877714
 20
107.7927129424
 30
0.0
 11
20.07002071827082
 21
-1.421085471520200E-14
 31
0.0
210
0.0
220
0.0
230
1.0
 40
0.8164965809
 41
4.921555463185718
 42
4.980534842098417
  0
ELLIPSE
  5
15C
330
1F
100
AcDbEntity
  8
0
  6
HIDDEN
 62
     7
370
     0
100
AcDbEllipse
 10
59.2798877714
 20
107.7927129424
 30
0.0
 11
20.07002071827081
 21
-1.421085471520200E-14
 31
0.0
210
0.0
220
0.0
230
1.0
 40
0.8164965809
 41
1.302650465081183
 42
1.361629843993882
  0
LINE
  5
15D
330
1F
100
AcDbEntity
  8
0
  6
HIDDEN
 62
     7
370
     0
100
AcDbLine
 10
64.5973196357
 20
89.8027129424
 30
0.0
 11
64.5973196357
 21
91.9912225063
 31
0.0
  0
LINE
  5
15E
330
1F
100
AcDbEntity
  8
0
  6
HIDDEN
 62
     7
370
     0
100
AcDbLine
 10
73.5473196357
 20
89.8027129424
 30
0.0
 11
73.5473196357
 21
91.50519932
 31
0.0
  0
LINE
  5
15F
330
1F
100
AcDbEntity
  8
0
  6
HIDDEN
 62
     7
370
     0
100
AcDbLine
 10
64.5973196357
 20
125.7827129424
 30
0.0
 11
64.5973196357
 21
123.5942033784
 31
0.0
  0
LINE
  5
160
330
1F
100
AcDbEntity
  8
0
  6
HIDDEN
 62
     7
370
     0
100
AcDbLine
 10
69.5473196357
 20
125.7827129424
 30
0.0
 11
69.5473196357
 21
124.0802265648
 31
0.0
  0
LWPOLYLINE
  5
161
330
1F
100
AcDbEntity
  8
0
  6
HIDDEN
 62
     7
370
     0
100
AcDbPolyline
 90
       17
 70
   128
 43
0.0
 10
90.0961601216
 20
84.1927188109
 10
89.86728967
 20
84.2538290322
 10
89.5301741072
 20
84.3315132442
 10
89.0114784586
 20
84.4405149635
 10
88.2697030474
 20
84.5706194064
 10
87.5394938996
 20
84.6711977626
 10
86.3680672975
 20
84.7837762149
 10
85.046490627
 20
84.8098581276
 10
84.3579485909
 20
84.7886930217
 10
83.7078231472
 20
84.7447238742
 10
83.1271830676
 20
84.6877484826
 10
82.7912087687
 20
84.6469856524
 10
82.5973393894
 20
84.6140976764
 10
82.786342287
 20
84.6461477224
 10
83.1183329054
 20
84.686563967
 10
83.6911892585
 20
84.743241026
 10
83.6911892585
 20
84.743241026
  0
LINE
  5
162
330
1F
100
AcDbEntity
  8
0
  6
HIDDEN
 62
     7
370
     0
100
AcDbLine
 10
83.6911865586
 20
130.8421154278
 30
0.0
 11
83.5171547049
 21
130.859320744
 31
0.0
  0
SPLINE
  5
163
330
1F
100
AcDbEntity
  8
0
  6
HIDDEN
 62
     7
370
     0
100
AcDbSpline
210
0.0
220
0.0
230
1.0
 70
     8
 71
     3
 72
    20
 73
    16
 74
     0
 42
0.000000001
 43
0.00000001
 40
0.0
 40
0.0
 40
0.0
 40
0.0
 40
0.0004882113656794
 40
0.1018316989658882
 40
0.1702470787743257
 40
0.2503682639312577
 40
0.320955981631693
 40
0.3861807837257596
 40
0.5002543658354571
 40
0.6012236396792968
 40
0.6697671745537416
 40
0.7502388871499514
 40
0.8220479532321149
 40
0.8877196203542832
 40
1.0
 40
1.0
 40
1.0
 40
1.0
 10
82.59823724218691
 20
130.971115070981
 30
0.0
 10
82.59793406592308
 20
130.9711665791061
 30
0.0
 10
82.53469720541057
 20
130.9819102042266
 30
0.0
 10
82.72789906893787
 20
130.943054655361
 30
0.0
 10
83.11484314369771
 20
130.8980314059019
 30
0.0
 10
83.65584627911801
 20
130.8417685291327
 30
0.0
 10
84.3233435636165
 20
130.7938371370311
 30
0.0
 10
85.20916962719022
 20
130.7667630946879
 30
0.0
 10
86.31997652662488
 20
130.7785880911904
 30
0.0
 10
87.43204859502612
 20
130.8960361597912
 30
0.0
 10
88.32315023692938
 20
131.0177402318884
 30
0.0
 10
89.00863601892321
 20
131.1405611560464
 30
0.0
 10
89.53662728660153
 20
131.2539996715902
 30
0.0
 10
89.98401699949338
 20
131.3577409513834
 30
0.0
 10
90.05282855190497
 20
131.3791644194347
 30
0.0
 10
90.09624579474716
 20
131.3926817414876
 30
0.0
  0
LINE
  5
164
330
1F
100
AcDbEntity
  8
0
  6
HIDDEN
 62
     7
370
     0
100
AcDbLine
 10
111.4373196357
 20
127.9285795738
 30
0.0
 11
111.4373196357
 21
127.6427129424
 31
0.0
  0
LINE
  5
165
330
1F
100
AcDbEntity
  8
0
  6
HIDDEN
 62
     7
370
     0
100
AcDbLine
 10
115.2573196357
 20
127.9285795738
 30
0.0
 11
115.2573196357
 21
127.6427129424
 31
0.0
  0
LINE
  5
166
330
1F
100
AcDbEntity
  8
0
  6
HIDDEN
 62
     7
370
     0
100
AcDbLine
 10
116.7392524672
 20
132.2514026047
 30
0.0
 11
116.7392524672
 21
127.6427129424
 31
0.0
  0
SPLINE
  5
167
330
1F
100
AcDbEntity
  8
0
  6
HIDDEN
 62
     7
370
     0
100
AcDbSpline
210
0.0
220
0.0
230
1.0
 70
     8
 71
     3
 72
    24
 73
    20
 74
     0
 42
0.000000001
 43
0.00000001
 40
0.0
 40
0.0
 40
0.0
 40
0.0
 40
0.24999999999998
 40
0.24999999999998
 40
0.3749999999999705
 40
0.3749999999999705
 40
0.4374999999999656
 40
0.4374999999999656
 40
0.4687499999999649
 40
0.4687499999999649
 40
0.4999999999999643
 40
0.4999999999999643
 40
0.5624999999999676
 40
0.5624999999999676
 40
0.6249999999999709
 40
0.6249999999999709
 40
0.7499999999999798
 40
0.7499999999999798
 40
1.0
 40
1.0
 40
1.0
 40
1.0
 10
63.50998301046231
 20
88.11816039759611
 30
0.0
 10
63.52373612913251
 20
88.18881045558638
 30
0.0
 10
63.54150869653838
 20
88.25540856835129
 30
0.0
 10
63.59375978809376
 20
88.32950658858451
 30
0.0
 10
63.6147948636753
 20
88.35076439574605
 30
0.0
 10
63.66769527130373
 20
88.35891032189231
 30
0.0
 10
63.68880094418164
 20
88.35797051849653
 30
0.0
 10
63.73485311285959
 20
88.33695452691923
 30
0.0
 10
63.75322358484298
 20
88.32604572081159
 30
0.0
 10
63.79477521990867
 20
88.29341080986424
 30
0.0
 10
63.81734189266558
 20
88.27191882949289
 30
0.0
 10
63.88012290912562
 20
88.20345288590659
 30
0.0
 10
63.91325267009351
 20
88.15737842770147
 30
0.0
 10
63.97017035657854
 20
88.07237053936682
 30
0.0
 10
63.99435638208229
 20
88.03209023818542
 30
0.0
 10
64.05956433246207
 20
87.91715401171948
 30
0.0
 10
64.09428039265332
 20
87.84657102657246
 30
0.0
 10
64.1874956629842
 20
87.64236526749384
 30
0.0
 10
64.23316819834488
 20
87.51946688516648
 30
0.0
 10
64.27147328184343
 20
87.40259360877891
 30
0.0
  0
CIRCLE
  5
168
330
1F
100
AcDbEntity
  8
0
  6
HIDDEN
 62
     7
370
     0
100
AcDbCircle
 10
102.3473196357
 20
107.7927129424
 30
0.0
 40
5.0
  0
LINE
  5
169
330
1F
100
AcDbEntity
  8
0
  6
HIDDEN
 62
     7
370
     0
100
AcDbLine
 10
200.3473196357
 20
147.7927129424
 30
0.0
 11
199.5973196357
 21
146.184332752
 31
0.0
  0
LINE
  5
16A
330
1F
100
AcDbEntity
  8
0
  6
HIDDEN
 62
     7
370
     0
100
AcDbLine
 10
199.5973196357
 20
69.4010931328
 30
0.0
 11
200.3473196357
 21
67.7927129424
 31
0.0
  0
LINE
  5
16B
330
1F
100
AcDbEntity
  8
0
  6
HIDDEN
 62
     7
370
     0
100
AcDbLine
 10
199.5973196357
 20
139.2927129424
 30
0.0
 11
194.7973196357
 21
139.2927129424
 31
0.0
  0
LINE
  5
16C
330
1F
100
AcDbEntity
  8
0
  6
HIDDEN
 62
     7
370
     0
100
AcDbLine
 10
194.7973196357
 20
76.2927129424
 30
0.0
 11
199.6093182214
 21
76.2927129424
 31
0.0
  0
LINE
  5
16D
330
1F
100
AcDbEntity
  8
0
  6
HIDDEN
 62
     7
370
     0
100
AcDbLine
 10
194.7973196357
 20
133.6587383462
 30
0.0
 11
193.2973196357
 21
132.7927129424
 31
0.0
  0
LINE
  5
16E
330
1F
100
AcDbEntity
  8
0
  6
HIDDEN
 62
     7
370
     0
100
AcDbLine
 10
193.2973196357
 20
82.7927129424
 30
0.0
 11
194.7973196357
 21
81.9266875386
 31
0.0
  0
LINE
  5
16F
330
1F
100
AcDbEntity
  8
0
  6
HIDDEN
 62
     7
370
     0
100
AcDbLine
 10
95.3473196357
 20
82.4737918164
 30
0.0
 11
95.4414804113
 21
83.1437805477
 31
0.0
  0
LINE
  5
170
330
1F
100
AcDbEntity
  8
0
  6
HIDDEN
 62
     7
370
     0
100
AcDbLine
 10
95.4414804113
 20
132.4416453371
 30
0.0
 11
95.3473196357
 21
133.1116340683
 31
0.0
  0
LINE
  5
171
330
1F
100
AcDbEntity
  8
0
  6
HIDDEN
 62
     7
370
     0
100
AcDbLine
 10
150.6487128949
 20
133.0927129424
 30
0.0
 11
149.9473196357
 21
133.0927129424
 31
0.0
  0
LINE
  5
172
330
1F
100
AcDbEntity
  8
0
  6
HIDDEN
 62
     7
370
     0
100
AcDbLine
 10
149.9473196357
 20
82.4927129424
 30
0.0
 11
150.6487128949
 21
82.4927129424
 31
0.0
  0
ARC
  5
173
330
1F
100
AcDbEntity
  8
0
  6
HIDDEN
 62
     7
370
     0
100
AcDbCircle
 10
149.9473196357
 20
132.4927129424
 30
0.0
 40
0.5999999999999943
100
AcDbArc
 50
90.0
 51
180.0
  0
ARC
  5
174
330
1F
100
AcDbEntity
  8
0
  6
HIDDEN
 62
     7
370
     0
100
AcDbCircle
 10
149.9473196357
 20
83.0927129424
 30
0.0
 40
0.6000000000000085
100
AcDbArc
 50
180.0
 51
270.0
  0
ARC
  5
175
330
1F
100
AcDbEntity
  8
0
  6
HIDDEN
 62
     7
370
     0
100
AcDbCircle
 10
150.6487128949
 20
132.4927129424
 30
0.0
 40
0.5999999999999659
100
AcDbArc
 50
75.0
 51
90.0
  0
ARC
  5
176
330
1F
100
AcDbEntity
  8
0
  6
HIDDEN
 62
     7
370
     0
100
AcDbCircle
 10
150.6487128949
 20
83.0927129424
 30
0.0
 40
0.5999999999999943
100
AcDbArc
 50
270.0
 51
285.0
  0
LINE
  5
177
330
1F
100
AcDbEntity
  8
0
  6
HIDDEN
 62
     7
370
     0
100
AcDbLine
 10
150.804004322
 20
82.5131574466
 30
0.0
 11
151.8473196357
 21
82.7927129424
 31
0.0
  0
LINE
  5
178
330
1F
100
AcDbEntity
  8
0
  6
HIDDEN
 62
     7
370
     0
100
AcDbLine
 10
151.8473196357
 20
132.7927129424
 30
0.0
 11
150.804004322
 21
133.0722684382
 31
0.0
  0
LINE
  5
179
330
1F
100
AcDbEntity
  8
0
  6
HIDDEN
 62
     7
370
     0
100
AcDbLine
 10
193.2973196357
 20
132.7927129424
 30
0.0
 11
151.8473196357
 21
132.7927129424
 31
0.0
  0
LINE
  5
17A
330
1F
100
AcDbEntity
  8
0
  6
HIDDEN
 62
     7
370
     0
100
AcDbLine
 10
151.8473196357
 20
82.7927129424
 30
0.0
 11
193.2973196357
 21
82.7927129424
 31
0.0
  0
ARC
  5
17B
330
1F
100
AcDbEntity
  8
0
  6
HIDDEN
 62
     7
370
     0
100
AcDbCircle
 10
94.8473128831
 20
83.227285348
 30
0.0
 40
0.60000675266771
100
AcDbArc
 50
352.0
 51
0.0
  0
ARC
  5
17C
330
1F
100
AcDbEntity
  8
0
  6
HIDDEN
 62
     7
370
     0
100
AcDbCircle
 10
94.8473128831
 20
83.227285348
 30
0.0
 40
0.6000067526677164
100
AcDbArc
 50
0.0
 51
33.5571153394
  0
ARC
  5
17D
330
1F
100
AcDbEntity
  8
0
  6
HIDDEN
 62
     7
370
     0
100
AcDbCircle
 10
94.8473128831
 20
132.3581405367
 30
0.0
 40
0.6000067526677121
100
AcDbArc
 50
348.75
 51
8.0
  0
LWPOLYLINE
  5
17E
330
1F
100
AcDbEntity
  8
0
  6
HIDDEN
 62
     7
370
     0
100
AcDbPolyline
 90
        3
 70
   128
 43
0.0
 10
95.4357906742
 20
132.2410850261
 10
95.4016468412
 20
132.1285278932
 10
95.3473196357
 20
132.0264760217
  0
LINE
  5
17F
330
1F
100
AcDbEntity
  8
0
  6
HIDDEN
 62
     7
370
     0
100
AcDbLine
 10
95.4473196357
 20
83.227285348
 30
0.0
 11
95.4473196357
 21
132.3581405367
 31
0.0
  0
LINE
  5
180
330
1F
100
AcDbEntity
  8
0
  6
HIDDEN
 62
     7
370
     0
100
AcDbLine
 10
199.5973196357
 20
145.3177129424
 30
0.0
 11
194.7973196357
 21
145.3177129424
 31
0.0
  0
LINE
  5
181
330
1F
100
AcDbEntity
  8
0
  6
HIDDEN
 62
     7
370
     0
100
AcDbLine
 10
194.7973196357
 20
70.2677129424
 30
0.0
 11
199.5973196357
 21
70.2677129424
 31
0.0
  0
ARC
  5
182
330
1F
100
AcDbEntity
  8
0
  6
HIDDEN
 62
     7
370
     0
100
AcDbCircle
 10
78.429755201
 20
88.3927129424
 30
0.0
 40
0.6000000000000085
100
AcDbArc
 50
210.0
 51
270.0
  0
ARC
  5
183
330
1F
100
AcDbEntity
  8
0
  6
HIDDEN
 62
     7
370
     0
100
AcDbCircle
 10
78.429755201
 20
127.1927129424
 30
0.0
 40
0.6000000000000227
100
AcDbArc
 50
90.0
 51
150.0
  0
LINE
  5
184
330
1F
100
AcDbEntity
  8
0
  6
HIDDEN
 62
     7
370
     0
100
AcDbLine
 10
78.429755201
 20
87.7927129424
 30
0.0
 11
82.6214270892
 21
87.7927129424
 31
0.0
  0
LINE
  5
185
330
1F
100
AcDbEntity
  8
0
  6
HIDDEN
 62
     7
370
     0
100
AcDbLine
 10
82.6214270892
 20
127.7927129424
 30
0.0
 11
78.429755201
 21
127.7927129424
 31
0.0
  0
ARC
  5
186
330
1F
100
AcDbEntity
  8
0
  6
HIDDEN
 62
     7
370
     0
100
AcDbCircle
 10
89.1023216373
 20
95.7927129424
 30
0.0
 40
8.000000000000004
100
AcDbArc
 50
276.876359357
 51
321.3178125465
  0
ARC
  5
187
330
1F
100
AcDbEntity
  8
0
  6
HIDDEN
 62
     7
370
     0
100
AcDbCircle
 10
89.1023216373
 20
119.7927129424
 30
0.0
 40
8.0
100
AcDbArc
 50
38.6821874535
 51
83.1302412344
  0
LINE
  5
188
330
1F
100
AcDbEntity
  8
0
  6
HIDDEN
 62
     7
370
     0
100
AcDbLine
 10
77.9101399588
 20
127.4927129424
 30
0.0
 11
76.351294232
 21
124.7927129424
 31
0.0
  0
LINE
  5
189
330
1F
100
AcDbEntity
  8
0
  6
HIDDEN
 62
     7
370
     0
100
AcDbLine
 10
76.351294232
 20
90.7927129424
 30
0.0
 11
77.9101399588
 21
88.0927129424
 31
0.0
  0
ARC
  5
18A
330
1F
100
AcDbEntity
  8
0
  6
HIDDEN
 62
     7
370
     0
100
AcDbCircle
 10
103.7973196357
 20
92.0677129424
 30
0.0
 40
1.500000000000009
100
AcDbArc
 50
238.2116693829
 51
0.0
  0
ARC
  5
18B
330
1F
100
AcDbEntity
  8
0
  6
HIDDEN
 62
     7
370
     0
100
AcDbCircle
 10
103.7973196357
 20
123.5177129424
 30
0.0
 40
1.5
100
AcDbArc
 50
0.0
 51
121.7883306171
  0
LINE
  5
18C
330
1F
100
AcDbEntity
  8
0
  6
HIDDEN
 62
     7
370
     0
100
AcDbLine
 10
95.3473196357
 20
90.7927129424
 30
0.0
 11
103.0071456043
 21
90.7927129424
 31
0.0
  0
LINE
  5
18D
330
1F
100
AcDbEntity
  8
0
  6
HIDDEN
 62
     7
370
     0
100
AcDbLine
 10
103.0071456043
 20
124.7927129424
 30
0.0
 11
95.3473196357
 21
124.7927129424
 31
0.0
  0
LINE
  5
18E
330
1F
100
AcDbEntity
  8
0
  6
HIDDEN
 62
     7
370
     0
100
AcDbLine
 10
73.5473196357
 20
90.7927129424
 30
0.0
 11
76.351294232
 21
90.7927129424
 31
0.0
  0
LINE
  5
18F
330
1F
100
AcDbEntity
  8
0
  6
HIDDEN
 62
     7
370
     0
100
AcDbLine
 10
76.351294232
 20
124.7927129424
 30
0.0
 11
69.5473196357
 21
124.7927129424
 31
0.0
  0
LINE
  5
190
330
1F
100
AcDbEntity
  8
0
  6
HIDDEN
 62
     7
370
     0
100
AcDbLine
 10
114.6473196357
 20
98.2927129424
 30
0.0
 11
117.1473196357
 21
98.2927129424
 31
0.0
  0
LINE
  5
191
330
1F
100
AcDbEntity
  8
0
  6
HIDDEN
 62
     7
370
     0
100
AcDbLine
 10
117.1473196357
 20
117.2927129424
 30
0.0
 11
114.6473196357
 21
117.2927129424
 31
0.0
  0
LINE
  5
192
330
1F
100
AcDbEntity
  8
0
  6
HIDDEN
 62
     7
370
     0
100
AcDbLine
 10
105.2973196357
 20
98.7927129424
 30
0.0
 11
105.7973196357
 21
99.2927129424
 31
0.0
  0
LINE
  5
193
330
1F
100
AcDbEntity
  8
0
  6
HIDDEN
 62
     7
370
     0
100
AcDbLine
 10
105.7973196357
 20
116.2927129424
 30
0.0
 11
105.2973196357
 21
116.7927129424
 31
0.0
  0
LINE
  5
194
330
1F
100
AcDbEntity
  8
0
  6
HIDDEN
 62
     7
370
     0
100
AcDbLine
 10
105.7973196357
 20
99.2927129424
 30
0.0
 11
114.6473196357
 21
99.2927129424
 31
0.0
  0
LINE
  5
195
330
1F
100
AcDbEntity
  8
0
  6
HIDDEN
 62
     7
370
     0
100
AcDbLine
 10
114.6473196357
 20
116.2927129424
 30
0.0
 11
105.7973196357
 21
116.2927129424
 31
0.0
  0
LINE
  5
196
330
1F
100
AcDbEntity
  8
0
  6
HIDDEN
 62
     7
370
     0
100
AcDbLine
 10
100.2973196357
 20
139.2927129424
 30
0.0
 11
100.2973196357
 21
134.1927129424
 31
0.0
  0
LINE
  5
197
330
1F
100
AcDbEntity
  8
0
  6
HIDDEN
 62
     7
370
     0
100
AcDbLine
 10
90.5317566553
 20
83.7133416505
 30
0.0
 11
90.0973253065
 21
84.1924072787
 31
0.0
  0
LINE
  5
198
330
1F
100
AcDbEntity
  8
0
  6
HIDDEN
 62
     7
370
     0
100
AcDbLine
 10
82.5973219849
 20
84.6140951531
 30
0.0
 11
82.1148890793
 21
84.1350295685
 31
0.0
  0
LINE
  5
199
330
1F
100
AcDbEntity
  8
0
  6
HIDDEN
 62
     7
370
     0
100
AcDbLine
 10
82.1147671671
 20
131.4503910243
 30
0.0
 11
82.5973170783
 21
130.9712711574
 31
0.0
  0
LINE
  5
19A
330
1F
100
AcDbEntity
  8
0
  6
HIDDEN
 62
     7
370
     0
100
AcDbLine
 10
90.0973195191
 20
131.3929688541
 30
0.0
 11
90.5318611099
 21
131.8720887136
 31
0.0
  0
LINE
  5
19B
330
1F
100
AcDbEntity
  8
0
  6
HIDDEN
 62
     7
370
     0
100
AcDbLine
 10
117.1473196357
 20
103.5927129424
 30
0.0
 11
149.3473196357
 21
103.5927129424
 31
0.0
  0
LINE
  5
19C
330
1F
100
AcDbEntity
  8
0
  6
HIDDEN
 62
     7
370
     0
100
AcDbLine
 10
149.3473196357
 20
111.9927129424
 30
0.0
 11
117.1473196357
 21
111.9927129424
 31
0.0
  0
LINE
  5
19D
330
1F
100
AcDbEntity
  8
0
  6
HIDDEN
 62
     7
370
     0
100
AcDbLine
 10
90.0973196357
 20
84.0923484601
 30
0.0
 11
90.0973196357
 21
87.8573126041
 31
0.0
  0
LINE
  5
19E
330
1F
100
AcDbEntity
  8
0
  6
HIDDEN
 62
     7
370
     0
100
AcDbLine
 10
82.5973196357
 20
87.7970907104
 30
0.0
 11
82.5973196357
 21
84.6144179281
 31
0.0
  0
LINE
  5
19F
330
1F
100
AcDbEntity
  8
0
  6
HIDDEN
 62
     7
370
     0
100
AcDbLine
 10
90.0973196357
 20
127.7281132806
 30
0.0
 11
90.0973196357
 21
131.4929999462
 31
0.0
  0
LINE
  5
1A0
330
1F
100
AcDbEntity
  8
0
  6
HIDDEN
 62
     7
370
     0
100
AcDbLine
 10
82.5973196357
 20
130.9710164316
 30
0.0
 11
82.5973196357
 21
127.7883351743
 31
0.0
  0
DIMENSION
  5
1A1
330
1F
100
AcDbEntity
  8
VERMASSUNG
100
AcDbDimension
  2
_D
 10
57.8690390301
 20
76.2927129424
 30
0.0
 11
57.8690390301
 21
107.1252891992
 31
0.0
 70
   160
  1
HSK A %%c<>
 71
     2
 42
-1.0
  3
SLDDIMSTYLE0
100
AcDbAlignedDimension
 13
95.6473196357
 23
139.2927129424
 33
0.0
 14
95.6473196357
 24
76.2927129424
 34
0.0
 50
90.0
100
AcDbRotatedDimension
  0
DIMENSION
  5
1AE
330
1F
100
AcDbEntity
  8
VERMASSUNG
100
AcDbDimension
  2
_D_1
 10
95.3473196357
 20
167.7820571001
 30
0.0
 11
144.0132275304
 21
167.7820571001
 31
0.0
 70
   160
  1
<>
 71
     2
 42
-1.0
  3
SLDDIMSTYLE0
100
AcDbAlignedDimension
 13
200.3473196357
 23
153.8927129424
 33
0.0
 14
95.3473196357
 24
138.9927129424
 34
0.0
100
AcDbRotatedDimension
  0
DIMENSION
  5
1B8
330
1F
100
AcDbEntity
  8
VERMASSUNG
100
AcDbDimension
  2
_D_2
 10
121.2973196357
 20
161.7820571001
 30
0.0
 11
164.6496902077
 21
161.7820571001
 31
0.0
 70
   160
  1
<>
 71
     2
 42
-1.0
  3
SLDDIMSTYLE0
100
AcDbAlignedDimension
 13
200.3473196357
 23
153.8927129424
 33
0.0
 14
121.2973196357
 24
137.6391532661
 34
0.0
100
AcDbRotatedDimension
  0
DIMENSION
  5
1C2
330
1F
100
AcDbEntity
  8
VERMASSUNG
100
AcDbDimension
  2
_D_3
 10
63.4473196357
 20
173.7820571001
 30
0.0
 11
141.7373928399
 21
173.7820571001
 31
0.0
 70
   160
  1
<>
 71
     2
 42
-1.0
  3
SLDDIMSTYLE0
100
AcDbAlignedDimension
 13
200.3473196357
 23
153.8927129424
 33
0.0
 14
63.4473196357
 24
127.4833906889
 34
0.0
100
AcDbRotatedDimension
  0
DIMENSION
  5
1CC
330
1F
100
AcDbEntity
  8
VERMASSUNG
100
AcDbDimension
  2
_D_4
 10
212.152094517
 20
60.7927129424
 30
0.0
 11
212.152094517
 21
107.1252891992
 31
0.0
 70
   160
  1
MBM %%c<>
 71
     2
 42
-1.0
  3
SLDDIMSTYLE0
100
AcDbAlignedDimension
 13
199.4473196357
 23
154.7927129424
 33
0.0
 14
199.4473196357
 24
60.7927129424
 34
0.0
 50
90.0
100
AcDbRotatedDimension
  0
INSERT
  5
1DD
330
1F
100
AcDbEntity
  8
VERMASSUNG
100
AcDbBlockReference
  2
SW_NOTE_0
 10
94.8579823702
 20
54.0858829264
 30
0.0
  0
LEADER
  5
1E7
330
1F
100
AcDbEntity
  8
VERMASSUNG
100
AcDbLeader
  3
SLDDIMSTYLE1
 76
     2
 10
98.9211289445
 20
83.3006964135
 30
0.0
 10
94.8579823702
 20
54.0858829264
 30
0.0
  0
INSERT
  5
1ED
330
1F
100
AcDbEntity
  8
VERMASSUNG
100
AcDbBlockReference
  2
SW_NOTE_1
 10
178.0117531832
 20
59.1789289597
 30
0.0
  0
LEADER
  5
1EE
330
1F
100
AcDbEntity
  8
VERMASSUNG
100
AcDbLeader
  3
SLDDIMSTYLE1
 76
     2
 10
181.0824661769
 20
108.1608641998
 30
0.0
 10
178.0117531832
 20
59.1789289597
 30
0.0
  0
LINE
  5
1EF
330
1F
100
AcDbEntity
  8
VERMASSUNG
  6
CENTERX2
 62
     7
370
     0
100
AcDbLine
 10
108.2973196357
 20
145.0545759222
 30
0.0
 11
108.2973196357
 21
129.7689869827
 31
0.0
  0
LINE
  5
1F0
330
1F
100
AcDbEntity
  8
VERMASSUNG
  6
CENTERX2
 62
     7
370
     0
100
AcDbLine
 10
108.2973196357
 20
71.6881037331
 30
0.0
 11
108.2973196357
 21
83.501931361
 31
0.0
  0
LINE
  5
1F1
330
1F
100
AcDbEntity
  8
VERMASSUNG
  6
CENTERX2
 62
     7
370
     0
100
AcDbLine
 10
107.5429399814
 20
134.1490282285
 30
0.0
 11
107.5429399814
 21
123.5431168637
 31
0.0
  0
LINE
  5
1F2
330
1F
100
AcDbEntity
  8
VERMASSUNG
  6
CENTERX2
 62
     7
370
     0
100
AcDbLine
 10
61.3020157934
 20
107.7927129424
 30
0.0
 11
206.2025001408
 21
107.7927129424
 31
0.0
  0
LINE
  5
1F3
330
1F
100
AcDbEntity
  8
0
  6
Continuous
 62
     7
370
    15
100
AcDbLine
 10
269.464362325
 20
82.7870907857
 30
0.0
 11
269.110751486
 21
82.9912923333
 31
0.0
  0
LINE
  5
1F4
330
1F
100
AcDbEntity
  8
0
  6
Continuous
 62
     7
370
    15
100
AcDbLine
 10
262.7457563848
 20
82.9912923333
 30
0.0
 11
262.3921455458
 21
82.7870907857
 31
0.0
  0
LINE
  5
1F5
330
1F
100
AcDbEntity
  8
0
  6
Continuous
 62
     7
370
    15
100
AcDbLine
 10
270.9282539354
 20
80.236064195
 30
0.0
 11
270.9282539354
 21
80.7464022024
 31
0.0
  0
LINE
  5
1F6
330
1F
100
AcDbEntity
  8
0
  6
Continuous
 62
     7
370
    15
100
AcDbLine
 10
260.9282539354
 20
80.7464022024
 30
0.0
 11
260.9282539354
 21
80.236064195
 31
0.0
  0
LINE
  5
1F7
330
1F
100
AcDbEntity
  8
0
  6
Continuous
 62
     7
370
    15
100
AcDbLine
 10
274.2924923543
 20
37.951800841
 30
0.0
 11
274.6106386897
 21
38.1355225213
 31
0.0
  0
LINE
  5
1F8
330
1F
100
AcDbEntity
  8
0
  6
Continuous
 62
     7
370
    15
100
AcDbLine
 10
290.9068009808
 20
66.3643622315
 30
0.0
 11
290.9068009808
 21
66.7317458818
 31
0.0
  0
LINE
  5
1F9
330
1F
100
AcDbEntity
  8
0
  6
Continuous
 62
     7
370
    15
100
AcDbLine
 10
286.0388367314
 20
77.4910988338
 30
0.0
 11
268.5739023707
 21
87.5733908327
 31
0.0
  0
LINE
  5
1FA
330
1F
100
AcDbEntity
  8
0
  6
Continuous
 62
     7
370
    15
100
AcDbLine
 10
245.0758121537
 20
46.8690943008
 30
0.0
 11
262.5407465145
 21
36.7868023019
 31
0.0
  0
SPLINE
  5
1FB
330
1F
100
AcDbEntity
  8
0
  6
Continuous
 62
     7
370
    15
100
AcDbSpline
210
0.0
220
0.0
230
1.0
 70
     8
 71
     3
 72
    15
 73
    11
 74
     0
 42
0.000000001
 43
0.00000001
 40
0.0
 40
0.0
 40
0.0
 40
0.0
 40
0.0905038477602044
 40
0.2243602766178383
 40
0.3587816659834013
 40
0.4937158424028764
 40
0.6290542915657948
 40
0.7646728618436843
 40
0.9004595752627654
 40
1.0
 40
1.0
 40
1.0
 40
1.0
 10
265.5868036038913
 20
88.59300515138436
 30
0.0
 10
265.3403221018368
 20
88.63050287433211
 30
0.0
 10
264.7292910865737
 20
88.72346024245843
 30
0.0
 10
263.7015633382525
 20
88.7281171744547
 30
0.0
 10
262.5173653670328
 20
88.62584252968291
 30
0.0
 10
261.2976277119844
 20
88.39339360476056
 30
0.0
 10
260.0519070479402
 20
88.03857954011562
 30
0.0
 10
258.7872854154009
 20
87.55948471030864
 30
0.0
 10
257.6251803212769
 20
87.02090141637606
 30
0.0
 10
256.8870833363395
 20
86.60895417997821
 30
0.0
 10
256.5748775790539
 20
86.43470567127824
 30
0.0
  0
SPLINE
  5
1FC
330
1F
100
AcDbEntity
  8
0
  6
Continuous
 62
     7
370
    15
100
AcDbSpline
210
0.0
220
0.0
230
1.0
 70
     8
 71
     3
 72
    15
 73
    11
 74
     0
 42
0.000000001
 43
0.00000001
 40
0.0
 40
0.0
 40
0.0
 40
0.0
 40
0.0557910984293089
 40
0.2070437381394315
 40
0.3582744902762909
 40
0.5094008498241458
 40
0.660308904298311
 40
0.8108563507771492
 40
0.9608924454643327
 40
0.9999999999999999
 40
0.9999999999999999
 40
0.9999999999999999
 40
0.9999999999999999
 10
240.0987218375611
 20
56.7833435470875
 30
0.0
 10
240.1044836881453
 20
56.60489399814096
 30
0.0
 10
240.1258662225842
 20
55.94265821638805
 30
0.0
 10
240.2649330111481
 20
54.85996702190788
 30
0.0
 10
240.5148619113384
 20
53.54501284484195
 30
0.0
 10
240.8688191972467
 20
52.31342911190512
 30
0.0
 10
241.3144723431701
 20
51.16521619439905
 30
0.0
 10
241.8599812839121
 20
50.11982428557202
 30
0.0
 10
242.3198446162042
 20
49.38328903116949
 30
0.0
 10
242.6240385192943
 20
49.03161672374258
 30
0.0
 10
242.6869339942595
 20
48.95890456027376
 30
0.0
  0
LINE
  5
1FD
330
1F
100
AcDbEntity
  8
0
  6
Continuous
 62
     7
370
    15
100
AcDbLine
 10
229.7165896599
 20
64.6844714872
 30
0.0
 11
234.7752553201
 21
61.764165962
 31
0.0
  0
LINE
  5
1FE
330
1F
100
AcDbEntity
  8
0
  6
Continuous
 62
     7
370
    15
100
AcDbLine
 10
247.6586102036
 20
90.6988452219
 30
0.0
 11
245.4653096989
 21
91.9650106522
 31
0.0
  0
LINE
  5
1FF
330
1F
100
AcDbEntity
  8
0
  6
Continuous
 62
     7
370
    15
100
AcDbLine
 10
237.1737140266
 20
60.3795652228
 30
0.0
 11
238.5731020942
 21
59.5717156869
 31
0.0
  0
LINE
  5
200
330
1F
100
AcDbEntity
  8
0
  6
Continuous
 62
     7
370
    15
100
AcDbLine
 10
238.2890162372
 20
91.5543330139
 30
0.0
 11
232.0986334522
 21
94.6385524528
 31
0.0
  0
LINE
  5
201
330
1F
100
AcDbEntity
  8
0
  6
Continuous
 62
     7
370
    15
100
AcDbLine
 10
220.716935639
 20
74.9227373144
 30
0.0
 11
230.5070529655
 21
68.4401282402
 31
0.0
  0
SPLINE
  5
202
330
1F
100
AcDbEntity
  8
0
  6
Continuous
 62
     7
370
    15
100
AcDbSpline
210
0.0
220
0.0
230
1.0
 70
     8
 71
     3
 72
     9
 73
     5
 74
     0
 42
0.000000001
 43
0.00000001
 40
0.0
 40
0.0
 40
0.0
 40
0.0
 40
0.9042128269667088
 40
1.0
 40
1.0
 40
1.0
 40
1.0
 10
255.6285646651566
 20
85.78565668480122
 30
0.0
 10
255.482384582883
 20
85.94680382064172
 30
0.0
 10
255.320719012661
 20
86.12502196910691
 30
0.0
 10
255.138629903276
 20
86.27446257209202
 30
0.0
 10
255.1211881022478
 20
86.28877706498835
 30
0.0
  0
SPLINE
  5
203
330
1F
100
AcDbEntity
  8
0
  6
Continuous
 62
     7
370
    15
100
AcDbSpline
210
0.0
220
0.0
230
1.0
 70
     8
 71
     3
 72
    24
 73
    20
 74
     0
 42
0.000000001
 43
0.00000001
 40
0.0
 40
0.0
 40
0.0
 40
0.0
 40
0.0206721349185847
 40
0.080034184901068
 40
0.139719002440164
 40
0.2000972648867585
 40
0.2612740335544441
 40
0.3231201875779114
 40
0.3853975287125483
 40
0.4478803753837839
 40
0.5103997120148555
 40
0.5728693955011736
 40
0.635267610285751
 40
0.6975965380372343
 40
0.7598704884423746
 40
0.8221094314419195
 40
0.88433584255961
 40
0.9465725618945476
 40
1.0
 40
1.0
 40
1.0
 40
1.0
 10
231.9193977455169
 20
94.70578194729201
 30
0.0
 10
231.8408452149068
 20
94.74517533149421
 30
0.0
 10
231.5367214374618
 20
94.89769065744066
 30
0.0
 10
230.9451821953296
 20
95.03795015006295
 30
0.0
 10
230.1579897466822
 20
95.12356770733683
 30
0.0
 10
229.3260712547687
 20
95.07593186509426
 30
0.0
 10
228.4621942573611
 20
94.90518270641904
 30
0.0
 10
227.5743623934977
 20
94.6091382260495
 30
0.0
 10
226.6742162685167
 20
94.19160304508227
 30
0.0
 10
225.7735903191537
 20
93.6578576244125
 30
0.0
 10
224.8841672187354
 20
93.01541250385915
 30
0.0
 10
224.0168231780742
 20
92.27300420868198
 30
0.0
 10
223.1816550581506
 20
91.44022365201367
 30
0.0
 10
222.3880578516177
 20
90.52736270246734
 30
0.0
 10
221.6451934773353
 20
89.54539619970001
 30
0.0
 10
220.9607174290459
 20
88.5060369543169
 30
0.0
 10
220.3453559445879
 20
87.42117638686388
 30
0.0
 10
219.8215623331867
 20
86.35740106151428
 30
0.0
 10
219.5456751535965
 20
85.65287796244115
 30
0.0
 10
219.4182377041927
 20
85.32744556313465
 30
0.0
  0
LINE
  5
204
330
1F
100
AcDbEntity
  8
0
  6
Continuous
 62
     7
370
    15
100
AcDbLine
 10
219.5327499172
 20
83.4788774073
 30
0.0
 11
222.0863098158
 21
82.0047386558
 31
0.0
  0
LINE
  5
205
330
1F
100
AcDbEntity
  8
0
  6
Continuous
 62
     7
370
    15
100
AcDbLine
 10
219.2344576398
 20
84.6030528581
 30
0.0
 11
219.2344576398
 21
84.1417810409
 31
0.0
  0
LINE
  5
206
330
1F
100
AcDbEntity
  8
0
  6
Continuous
 62
     7
370
    15
100
AcDbLine
 10
219.2344576398
 20
77.1315428658
 30
0.0
 11
219.2344576398
 21
76.6704326121
 31
0.0
  0
SPLINE
  5
207
330
1F
100
AcDbEntity
  8
0
  6
Continuous
 62
     7
370
    15
100
AcDbSpline
210
0.0
220
0.0
230
1.0
 70
     8
 71
     3
 72
    10
 73
     6
 74
     0
 42
0.000000001
 43
0.00000001
 40
0.0
 40
0.0
 40
0.0
 40
0.0
 40
0.3718401004807242
 40
0.8192910044561494
 40
1.0
 40
1.0
 40
1.0
 40
1.0
 10
219.3495718953316
 20
76.38439917974168
 30
0.0
 10
219.4714432554589
 20
76.19419299478575
 30
0.0
 10
219.7399675725619
 20
75.77510367084021
 30
0.0
 10
220.1441999208782
 20
75.34129625998443
 30
0.0
 10
220.4431077303253
 20
75.13486433083837
 30
0.0
 10
220.5290975078433
 20
75.07547800803631
 30
0.0
  0
LWPOLYLINE
  5
208
330
1F
100
AcDbEntity
  8
0
  6
Continuous
 62
     7
370
    15
100
AcDbPolyline
 90
       35
 70
   128
 43
0.0
 10
270.1091076201
 20
80.1937941684
 10
269.732074966
 20
79.7666652981
 10
269.225507749
 20
79.3868033521
 10
268.606656508
 20
79.0671440732
 10
267.8965954797
 20
78.818573075
 10
267.1195049409
 20
78.6495551444
 10
266.3018477779
 20
78.5658459846
 10
265.4714683246
 20
78.5702962105
 10
264.6566441575
 20
78.662754275
 10
263.8851231362
 20
78.8400716296
 10
263.1831784838
 20
79.0962099444
 10
262.5747140836
 20
79.4224467365
 10
262.0804504609
 20
79.807672403
 10
261.7172191706
 20
80.238768546
 10
261.4973896186
 20
80.7010547033
 10
261.4284478367
 20
81.1787882743
 10
261.5127415546
 20
81.6557006153
 10
261.7474002508
 20
82.1155510483
 10
262.1244329048
 20
82.5426799186
 10
262.6310001218
 20
82.9225418646
 10
263.2498513629
 20
83.2422011435
 10
263.9599123911
 20
83.4907721417
 10
264.7370029299
 20
83.6597900723
 10
265.554660093
 20
83.7434992321
 10
266.3850395462
 20
83.7390490062
 10
267.1998637133
 20
83.6465909417
 10
267.9713847346
 20
83.4692735871
 10
268.673329387
 20
83.2131352723
 10
269.2817937872
 20
82.8868984802
 10
269.7760574099
 20
82.5016728137
 10
270.1392887002
 20
82.0705766707
 10
270.3591182522
 20
81.6082905134
 10
270.4280600341
 20
81.1305569424
 10
270.3437663162
 20
80.6536446014
 10
270.1091076201
 20
80.1937941684
  0
LWPOLYLINE
  5
209
330
1F
100
AcDbEntity
  8
0
  6
Continuous
 62
     7
370
    15
100
AcDbPolyline
 90
       22
 70
   128
 43
0.0
 10
270.5736469184
 20
79.6787594913
 10
270.1819259707
 20
79.2293021531
 10
269.6609593507
 20
78.8259411321
 10
269.0265763654
 20
78.480932349
 10
268.298052421
 20
78.204758721
 10
267.4975233488
 20
78.005811644
 10
266.6493128195
 20
77.8901360244
 10
265.7791932809
 20
77.8612466072
 10
264.9136028748
 20
77.9200211828
 10
264.0788421278
 20
78.0646739155
 10
263.3002748228
 20
78.2908096052
 10
262.6015573332
 20
78.5915572334
 10
262.0039198365
 20
78.9577787355
 10
261.5255212456
 20
79.3783466566
 10
261.1808974596
 20
79.8404822531
 10
260.9805196978
 20
80.330143769
 10
260.9304763372
 20
80.8324530866
 10
261.0322879199
 20
81.3321477917
 10
261.2828609525
 20
81.8140449135
 10
261.6745819002
 20
82.2635022518
 10
262.1955485202
 20
82.6668632727
 10
262.3921455458
 20
82.7870907857
  0
LWPOLYLINE
  5
20A
330
1F
100
AcDbEntity
  8
0
  6
Continuous
 62
     7
370
    15
100
AcDbPolyline
 90
        8
 70
   128
 43
0.0
 10
269.464362325
 20
82.7870907857
 10
269.8525880343
 20
82.5350256693
 10
270.3309866252
 20
82.1144577482
 10
270.6756104112
 20
81.6523221517
 10
270.875988173
 20
81.1626606359
 10
270.9260315336
 20
80.6603513182
 10
270.824219951
 20
80.1606566131
 10
270.5736469184
 20
79.6787594913
  0
LWPOLYLINE
  5
20B
330
1F
100
AcDbEntity
  8
0
  6
Continuous
 62
     7
370
    15
100
AcDbPolyline
 90
       28
 70
   128
 43
0.0
 10
268.7154897252
 20
80.5140869817
 10
268.3844571951
 20
80.1602845878
 10
267.9210101116
 20
79.8600899094
 10
267.3501330268
 20
79.6296865195
 10
266.7026020721
 20
79.4814955243
 10
266.0133258089
 20
79.4235059388
 10
265.3194632991
 20
79.4588439966
 10
264.65842085
 20
79.5856046138
 10
264.0658354312
 20
79.7969540927
 10
263.5736534761
 20
80.0814985282
 10
263.2084086412
 20
80.4238980561
 10
262.9897913701
 20
80.8056938294
 10
262.9295873765
 20
81.2063031389
 10
263.0310422733
 20
81.6041290331
 10
263.2886866006
 20
81.9777246152
 10
263.6886306863
 20
82.3069492505
 10
264.209313441
 20
82.5740543538
 10
264.8226647227
 20
82.7646402198
 10
265.495618605
 20
82.8684323152
 10
266.19189597
 20
82.8798351811
 10
266.8739603246
 20
82.7982340862
 10
267.505041403
 20
82.6280281667
 10
268.0511174609
 20
82.3783932676
 10
268.4827493967
 20
82.062787271
 10
268.7766678209
 20
81.6982245779
 10
268.9170275153
 20
81.3043588574
 10
268.8962616524
 20
80.9024235125
 10
268.7154897252
 20
80.5140869817
  0
SPLINE
  5
20C
330
1F
100
AcDbEntity
  8
0
  6
Continuous
 62
     7
370
    15
100
AcDbSpline
210
0.0
220
0.0
230
1.0
 70
     8
 71
     3
 72
    11
 73
     7
 74
     0
 42
0.000000001
 43
0.00000001
 40
0.0
 40
0.0
 40
0.0
 40
0.0
 40
0.1482999169818774
 40
0.5538958756146444
 40
0.9402480329404758
 40
1.0
 40
1.0
 40
1.0
 40
1.0
 10
268.7848296293677
 20
81.30252737902913
 30
0.0
 10
268.7418123224164
 20
81.19508027511075
 30
0.0
 10
268.5811439324045
 20
80.79376846780613
 30
0.0
 10
268.2809682422567
 20
80.20158384601402
 30
0.0
 10
268.001682857656
 20
79.89357641517239
 30
0.0
 10
267.8706536079377
 20
79.83137526601553
 30
0.0
 10
267.8531033209418
 20
79.82304393525142
 30
0.0
  0
SPLINE
  5
20D
330
1F
100
AcDbEntity
  8
0
  6
Continuous
 62
     7
370
    15
100
AcDbSpline
210
0.0
220
0.0
230
1.0
 70
     8
 71
     3
 72
    11
 73
     7
 74
     0
 42
0.000000001
 43
0.00000001
 40
0.0
 40
0.0
 40
0.0
 40
0.0
 40
0.2164575325957925
 40
0.4403158827730676
 40
0.7519042103606942
 40
1.0
 40
1.0
 40
1.0
 40
1.0
 10
266.9960123403687
 20
82.61049700873596
 30
0.0
 10
267.1185493012548
 20
82.44696169317461
 30
0.0
 10
267.367812837884
 20
82.11429968796536
 30
0.0
 10
267.8303772557281
 20
81.65071829983145
 30
0.0
 10
268.3265557504552
 20
81.36350117126247
 30
0.0
 10
268.6440786415139
 20
81.32125443698496
 30
0.0
 10
268.7848296293677
 20
81.30252737902913
 30
0.0
  0
SPLINE
  5
20E
330
1F
100
AcDbEntity
  8
0
  6
Continuous
 62
     7
370
    15
100
AcDbSpline
210
0.0
220
0.0
230
1.0
 70
     8
 71
     3
 72
    11
 73
     7
 74
     0
 42
0.000000001
 43
0.00000001
 40
0.0
 40
0.0
 40
0.0
 40
0.0
 40
0.2164575325957936
 40
0.4403158827730679
 40
0.7519042103606939
 40
0.9999999999999999
 40
0.9999999999999999
 40
0.9999999999999999
 40
0.9999999999999999
 10
264.1394366464227
 20
82.37017009012928
 30
0.0
 10
264.3351168347962
 20
82.31269566449082
 30
0.0
 10
264.7331676388113
 20
82.19578172687736
 30
0.0
 10
265.4718402137153
 20
82.1325692841495
 30
0.0
 10
266.2641913591414
 20
82.27481549734156
 30
0.0
 10
266.7712460362444
 20
82.5073981708857
 30
0.0
 10
266.9960123403687
 20
82.61049700873596
 30
0.0
  0
SPLINE
  5
20F
330
1F
100
AcDbEntity
  8
0
  6
Continuous
 62
     7
370
    15
100
AcDbSpline
210
0.0
220
0.0
230
1.0
 70
     8
 71
     3
 72
    13
 73
     9
 74
     0
 42
0.000000001
 43
0.00000001
 40
0.0
 40
0.0
 40
0.0
 40
0.0
 40
0.1844095697098911
 40
0.3495005370884449
 40
0.5197705331556587
 40
0.6927076360809672
 40
0.8718061725834124
 40
1.0
 40
1.0
 40
1.0
 40
1.0
 10
263.0716782414756
 20
80.82187354181575
 30
0.0
 10
263.1339100248124
 20
80.8483627631206
 30
0.0
 10
263.2518542385231
 20
80.89856621561857
 30
0.0
 10
263.4393381173035
 20
81.05932695744498
 30
0.0
 10
263.6287945139521
 20
81.2993925347013
 30
0.0
 10
263.8224305855438
 20
81.63684952920407
 30
0.0
 10
263.9931861353203
 20
82.00508886252352
 30
0.0
 10
264.0963849649851
 20
82.26270133264424
 30
0.0
 10
264.1394366464227
 20
82.37017009012928
 30
0.0
  0
SPLINE
  5
210
330
1F
100
AcDbEntity
  8
0
  6
Continuous
 62
     7
370
    15
100
AcDbSpline
210
0.0
220
0.0
230
1.0
 70
     8
 71
     3
 72
     9
 73
     5
 74
     0
 42
0.000000001
 43
0.00000001
 40
0.0
 40
0.0
 40
0.0
 40
0.0
 40
0.5005379503531059
 40
1.0
 40
1.0
 40
1.0
 40
1.0
 10
263.9617786741197
 20
79.87768984889271
 30
0.0
 10
263.8057294432439
 20
80.00103749163308
 30
0.0
 10
263.4939664075626
 20
80.2474676427402
 30
0.0
 10
263.2123399628077
 20
80.63054229221919
 30
0.0
 10
263.0716782414756
 20
80.82187354181575
 30
0.0
  0
LINE
  5
211
330
1F
100
AcDbEntity
  8
0
  6
Continuous
 62
     7
370
    15
100
AcDbLine
 10
264.1394366464
 20
79.7643637863
 30
0.0
 11
264.1394366464
 21
82.3701700901
 31
0.0
  0
LINE
  5
212
330
1F
100
AcDbEntity
  8
0
  6
Continuous
 62
     7
370
    15
100
AcDbLine
 10
266.9960123404
 20
79.5362177063
 30
0.0
 11
266.9960123404
 21
82.6104970087
 31
0.0
  0
LWPOLYLINE
  5
213
330
1F
100
AcDbEntity
  8
0
  6
Continuous
 62
     7
370
    15
100
AcDbPolyline
 90
       78
 70
   128
 43
0.0
 10
274.6079896745
 20
75.7765244567
 10
273.2794852422
 20
74.9469689635
 10
271.9598217878
 20
73.9976816072
 10
270.6577814537
 20
72.9349797385
 10
269.3820291036
 20
71.7659354631
 10
268.1410546589
 20
70.4983285777
 10
266.9431165997
 20
69.140594797
 10
265.7961870063
 20
67.7017696153
 10
264.7078985057
 20
66.1914281767
 10
263.6854934785
 20
64.6196215545
 10
262.7357758614
 20
62.9968098623
 10
261.8650658684
 20
61.3337926441
 10
261.0791579309
 20
59.6416370053
 10
260.3832821366
 20
57.9316039623
 10
259.782069424
 20
56.215073503
 10
259.2795207646
 20
54.5034688544
 10
258.8789805367
 20
52.8081804629
 10
258.5831142696
 20
51.1404901931
 10
258.3938909044
 20
49.5114962487
 10
258.3125696913
 20
47.9320393156
 10
258.3396918097
 20
46.412630419
 10
258.4750767663
 20
44.9633809745
 10
258.7178235965
 20
43.593935498
 10
259.0663168603
 20
42.3134074233
 10
259.5182373925
 20
41.1303184533
 10
260.0705777365
 20
40.0525418501
 10
260.7196621585
 20
39.087250039
 10
261.4611711086
 20
38.2408668778
 10
262.2901699672
 20
37.5190249068
 10
263.2011418837
 20
36.9265278653
 10
264.1880244902
 20
36.4673187232
 10
265.2442502459
 20
36.1444534417
 10
266.3627901425
 20
35.9600806359
 10
267.5362004817
 20
35.9154272765
 10
268.7566724112
 20
36.0107905241
 10
270.0160838917
 20
36.2455357522
 10
271.3060537475
 20
36.6181007698
 10
272.6179974422
 20
37.1260062184
 10
273.9431842068
 20
37.765872071
 10
275.2727951422
 20
38.5334401258
 10
276.5979819068
 20
39.4236023442
 10
277.9099256015
 20
40.4304348433
 10
279.1998954573
 20
41.5472373191
 10
280.4593069378
 20
42.7665776353
 10
281.6797788673
 20
44.0803412834
 10
282.8531892064
 20
45.4797853829
 10
283.9717291031
 20
46.9555968643
 10
285.0279548587
 20
48.4979544456
 10
286.0148374653
 20
50.0965939917
 10
286.9258093817
 20
51.7408768202
 10
287.7548082404
 20
53.4198605
 10
288.4963171905
 20
55.1223716718
 10
289.1454016124
 20
56.8370804047
 10
289.6977419564
 20
58.5525755949
 10
290.1496624886
 20
60.257440905
 10
290.4981557524
 20
61.9403307376
 10
290.7409025827
 20
63.5900457386
 10
290.8762875393
 20
65.1956073268
 10
290.9034096577
 20
66.7463307547
 10
290.8220884446
 20
68.2318962138
 10
290.6328650794
 20
69.642417511
 10
290.3369988122
 20
70.9685078599
 10
289.9364585844
 20
72.2013423479
 10
289.433909925
 20
73.332716665
 10
288.8326972124
 20
74.3551017016
 10
288.1368214181
 20
75.2616936542
 10
287.3509134806
 20
76.0464593028
 10
286.4802034876
 20
76.7041761614
 10
285.5304858705
 20
77.230467233
 10
284.5080808433
 20
77.6218301373
 10
283.4197923427
 20
77.8756604186
 10
282.2728627492
 20
77.9902688785
 10
281.0749246901
 20
77.9648928164
 10
279.8339502453
 20
77.7997011059
 10
278.5581978952
 20
77.4957930706
 10
277.2561575612
 20
77.0551911682
 10
275.9364941067
 20
76.4808275319
 10
274.6079896745
 20
75.7765244567
  0
LWPOLYLINE
  5
214
330
1F
100
AcDbEntity
  8
0
  6
Continuous
 62
     7
370
    15
100
AcDbPolyline
 90
       41
 70
   128
 43
0.0
 10
274.289791623
 20
76.3276596472
 10
272.9526778976
 20
75.493537253
 10
271.6242358678
 20
74.540378321
 10
270.31308099
 20
73.4743644525
 10
269.0277166066
 20
72.3024091565
 10
267.7764787989
 20
71.0321130129
 10
266.5674823243
 20
69.6717143796
 10
265.4085679887
 20
68.2300359638
 10
264.3072517964
 20
66.7164276031
 10
263.2706762055
 20
65.1407056288
 10
262.3055638065
 20
63.5130892023
 10
261.4181737236
 20
61.8441340408
 10
260.614261022
 20
60.1446639589
 10
259.8990393841
 20
58.4257006724
 10
259.2771472966
 20
56.6983923176
 10
258.7526179685
 20
54.9739411522
 10
258.3288531736
 20
53.2635309036
 10
258.0086011892
 20
51.5782542386
 10
257.7939389724
 20
49.9290408232
 10
257.68625869
 20
48.3265864391
 10
257.68625869
 20
46.7812836179
 10
257.7939389724
 20
45.3031542415
 10
258.0086011892
 20
43.9017845461
 10
258.3288531736
 20
42.5862629518
 10
258.7526179685
 20
41.365121121
 10
259.2771472966
 20
40.2462786272
 10
259.8990393841
 20
39.2369915931
 10
260.614261022
 20
38.3438056325
 10
261.4181737236
 20
37.5725133991
 10
262.3055638065
 20
36.928117019
 10
263.2706762055
 20
36.41479565
 10
264.3072517964
 20
36.0358783781
 10
265.4085679887
 20
35.7938226273
 10
266.5674823243
 20
35.690198222
 10
267.7764787989
 20
35.7256772063
 10
269.0277166066
 20
35.9000294852
 10
270.31308099
 20
36.2121243174
 10
271.6242358678
 20
36.6599376481
 10
272.9526778976
 20
37.2405652361
 10
274.289791623
 20
37.9502414886
 10
274.2924923543
 20
37.951800841
  0
LWPOLYLINE
  5
215
330
1F
100
AcDbEntity
  8
0
  6
Continuous
 62
     7
370
    15
100
AcDbPolyline
 90
       21
 70
   128
 43
0.0
 10
290.9068009808
 20
66.7317458818
 10
290.8933245559
 20
67.4966175178
 10
290.7856442735
 20
68.9747468942
 10
290.5709820567
 20
70.3761165897
 10
290.2507300723
 20
71.6916381839
 10
289.8269652774
 20
72.9127800147
 10
289.3024359493
 20
74.0316225086
 10
288.6805438618
 20
75.0409095427
 10
287.9653222239
 20
75.9340955033
 10
287.1614095223
 20
76.7053877367
 10
286.2740194394
 20
77.3497841168
 10
285.3089070404
 20
77.8631054858
 10
284.2723314495
 20
78.2420227576
 10
283.1710152572
 20
78.4840785084
 10
282.0121009216
 20
78.5877029137
 10
280.803104447
 20
78.5522239295
 10
279.5518666393
 20
78.3778716505
 10
278.2665022559
 20
78.0657768183
 10
276.9553473781
 20
77.6179634876
 10
275.6269053483
 20
77.0373358997
 10
274.289791623
 20
76.3276596472
  0
ARC
  5
216
330
1F
100
AcDbEntity
  8
0
  6
Continuous
 62
     7
370
    15
100
AcDbCircle
 10
249.1845772294
 20
53.9311766082
 30
0.0
 40
8.170370674856104
100
AcDbArc
 50
218.2773718403
 51
239.8088789936
  0
ARC
  5
217
330
1F
100
AcDbEntity
  8
0
  6
Continuous
 62
     7
370
    15
100
AcDbCircle
 10
264.4902528497
 20
80.4171930923
 30
0.0
 40
8.23937858753023
100
AcDbArc
 50
60.2889678921
 51
81.5176246944
  0
SPLINE
  5
218
330
1F
100
AcDbEntity
  8
0
  6
Continuous
 62
     7
370
    15
100
AcDbSpline
210
0.0
220
0.0
230
1.0
 70
     8
 71
     3
 72
    52
 73
    48
 74
     0
 42
0.000000001
 43
0.00000001
 40
0.0
 40
0.0
 40
0.0
 40
0.0
 40
0.0312499999999995
 40
0.0312499999999995
 40
0.062499999999999
 40
0.062499999999999
 40
0.124999999999998
 40
0.124999999999998
 40
0.1562499999999978
 40
0.1562499999999978
 40
0.1874999999999975
 40
0.1874999999999975
 40
0.2499999999999979
 40
0.2499999999999979
 40
0.3124999999999982
 40
0.3124999999999982
 40
0.3749999999999984
 40
0.3749999999999984
 40
0.4062499999999981
 40
0.4062499999999981
 40
0.4374999999999977
 40
0.4374999999999977
 40
0.499999999999998
 40
0.499999999999998
 40
0.5312499999999981
 40
0.5312499999999981
 40
0.5624999999999983
 40
0.5624999999999983
 40
0.6249999999999987
 40
0.6249999999999987
 40
0.687499999999999
 40
0.687499999999999
 40
0.7187499999999991
 40
0.7187499999999991
 40
0.7499999999999992
 40
0.7499999999999992
 40
0.8124999999999994
 40
0.8124999999999994
 40
0.8437499999999997
 40
0.8437499999999997
 40
0.8749999999999998
 40
0.8749999999999998
 40
0.9374999999999998
 40
0.9374999999999998
 40
0.96875
 40
0.96875
 40
1.0
 40
1.0
 40
1.0
 40
1.0
 10
270.2592829701892
 20
78.65442276588986
 30
0.0
 10
270.394987411727
 20
78.732763272465
 30
0.0
 10
270.522743870427
 20
78.81394321101959
 30
0.0
 10
270.7582598933383
 20
78.97895693729
 30
0.0
 10
270.8667822681888
 20
79.0632247024018
 30
0.0
 10
271.1652015289989
 20
79.32145628680678
 30
0.0
 10
271.3287503763589
 20
79.50260328019797
 30
0.0
 10
271.5107275882971
 20
79.7745928047434
 30
0.0
 10
271.561391026281
 20
79.86570203175822
 30
0.0
 10
271.6433953722769
 20
80.0492114526154
 30
0.0
 10
271.6748005689159
 20
80.14191574979577
 30
0.0
 10
271.7396369584872
 20
80.42065087726031
 30
0.0
 10
271.7435876092335
 20
80.60419964812195
 30
0.0
 10
271.6799454441809
 20
80.97114823567395
 30
0.0
 10
271.6110979322686
 20
81.15572412059782
 30
0.0
 10
271.4088871711772
 20
81.51578351174281
 30
0.0
 10
271.2756628812049
 20
81.69271579075155
 30
0.0
 10
271.0285848408206
 20
81.95593480354177
 30
0.0
 10
270.9379836464184
 20
82.04351191919993
 30
0.0
 10
270.7442521067916
 20
82.21506557552247
 30
0.0
 10
270.6408084613676
 20
82.29942116505023
 30
0.0
 10
270.3112504274804
 20
82.54864905912802
 30
0.0
 10
270.0660700198309
 20
82.70975430763315
 30
0.0
 10
269.6591202871315
 20
82.94417740973023
 30
0.0
 10
269.5174363235265
 20
83.02073673457102
 30
0.0
 10
269.2262113370374
 20
83.1685424138415
 30
0.0
 10
269.0761080729596
 20
83.24011800802921
 30
0.0
 10
268.6124535163318
 20
83.44774354914705
 30
0.0
 10
268.2856855391013
 20
83.57680534376016
 30
0.0
 10
267.594613540356
 20
83.81307602512814
 30
0.0
 10
267.2385306114618
 20
83.91736003385728
 30
0.0
 10
266.6927504786056
 20
84.04951408125379
 30
0.0
 10
266.5086330577608
 20
84.0895696336872
 30
0.0
 10
266.1357924906247
 20
84.1609315582623
 30
0.0
 10
265.9460961180145
 20
84.19236344848629
 30
0.0
 10
265.377420811612
 20
84.27083644398095
 30
0.0
 10
264.9999215727696
 20
84.30232878917653
 30
0.0
 10
264.4358354223412
 20
84.31365370478352
 30
0.0
 10
264.2471501686488
 20
84.31133982333574
 30
0.0
 10
263.8756566848356
 20
84.29351992973112
 30
0.0
 10
263.6936375137737
 20
84.27813004356436
 30
0.0
 10
263.1587088275138
 20
84.21189933903402
 30
0.0
 10
262.8167885944532
 20
84.14122269890306
 30
0.0
 10
262.3280337698635
 20
83.98943840667103
 30
0.0
 10
262.1704804931811
 20
83.93143265078902
 30
0.0
 10
261.8725307212358
 20
83.80297217461552
 30
0.0
 10
261.7311124169278
 20
83.73221406875044
 30
0.0
 10
261.5972249006541
 20
83.65492245080397
 30
0.0
  0
SPLINE
  5
219
330
1F
100
AcDbEntity
  8
0
  6
Continuous
 62
     7
370
    15
100
AcDbSpline
210
0.0
220
0.0
230
1.0
 70
     8
 71
     3
 72
    52
 73
    48
 74
     0
 42
0.000000001
 43
0.00000001
 40
0.0
 40
0.0
 40
0.0
 40
0.0
 40
0.0312500000000003
 40
0.0312500000000003
 40
0.0625000000000007
 40
0.0625000000000007
 40
0.1250000000000014
 40
0.1250000000000014
 40
0.1875000000000021
 40
0.1875000000000021
 40
0.2500000000000028
 40
0.2500000000000028
 40
0.3125000000000035
 40
0.3125000000000035
 40
0.3437500000000038
 40
0.3437500000000038
 40
0.3750000000000042
 40
0.3750000000000042
 40
0.4062500000000046
 40
0.4062500000000046
 40
0.4375000000000049
 40
0.4375000000000049
 40
0.5000000000000043
 40
0.5000000000000043
 40
0.5312500000000047
 40
0.5312500000000047
 40
0.562500000000005
 40
0.562500000000005
 40
0.6250000000000046
 40
0.6250000000000046
 40
0.6562500000000038
 40
0.6562500000000038
 40
0.687500000000003
 40
0.687500000000003
 40
0.7500000000000016
 40
0.7500000000000016
 40
0.7812500000000014
 40
0.7812500000000014
 40
0.8125000000000012
 40
0.8125000000000012
 40
0.8750000000000008
 40
0.8750000000000008
 40
0.9062500000000006
 40
0.9062500000000006
 40
0.9375000000000003
 40
0.9375000000000003
 40
1.0
 40
1.0
 40
1.0
 40
1.0
 10
261.5972249006541
 20
83.65492245080397
 30
0.0
 10
261.4631727509252
 20
83.57753579198683
 30
0.0
 10
261.3366688754623
 20
83.49360027968974
 30
0.0
 10
261.0991935254874
 20
83.31231139516557
 30
0.0
 10
260.9889914945782
 20
83.2153665018811
 30
0.0
 10
260.6900472671934
 20
82.91264734540324
 30
0.0
 10
260.5296190694615
 20
82.69285228335393
 30
0.0
 10
260.2842397349432
 20
82.22065639837149
 30
0.0
 10
260.2032945659432
 20
81.97588402607208
 30
0.0
 10
260.117297998805
 20
81.47559318923723
 30
0.0
 10
260.1129767711558
 20
81.21801851754032
 30
0.0
 10
260.1768212144796
 20
80.71432032142755
 30
0.0
 10
260.2442008340267
 20
80.46603474521486
 30
0.0
 10
260.3968781146664
 20
80.10130635925545
 30
0.0
 10
260.4562436635376
 20
79.98166481655613
 30
0.0
 10
260.5898076292509
 20
79.74942658844734
 30
0.0
 10
260.6641938450684
 20
79.63636824217714
 30
0.0
 10
260.8277874175924
 20
79.41653834347159
 30
0.0
 10
260.9169958730762
 20
79.30976677134613
 30
0.0
 10
261.1102562304787
 20
79.10278293588223
 30
0.0
 10
261.2147882625209
 20
79.0021678349624
 30
0.0
 10
261.5476865563591
 20
78.71376919262124
 30
0.0
 10
261.7933082290875
 20
78.5406034917007
 30
0.0
 10
262.1959836051339
 20
78.30895961615329
 30
0.0
 10
262.3359530726001
 20
78.23644856070975
 30
0.0
 10
262.6276078499307
 20
78.10097480773786
 30
0.0
 10
262.7800664190053
 20
78.03775841664502
 30
0.0
 10
263.2479743641983
 20
77.86559524871073
 30
0.0
 10
263.5745808334908
 20
77.77335921774817
 30
0.0
 10
264.0864605465422
 20
77.66708926798263
 30
0.0
 10
264.2607727040429
 20
77.6370399313442
 30
0.0
 10
264.6170761277655
 20
77.58773676881518
 30
0.0
 10
264.7998544581315
 20
77.56846736972142
 30
0.0
 10
265.3494000028505
 20
77.52787102687896
 30
0.0
 10
265.7200093882598
 20
77.52304460210885
 30
0.0
 10
266.2828508922354
 20
77.5473927068679
 30
0.0
 10
266.4716274681912
 20
77.56080882494044
 30
0.0
 10
266.8517197336996
 20
77.59841671503425
 30
0.0
 10
267.0432963486535
 20
77.62272631372785
 30
0.0
 10
267.6077231237427
 20
77.70992862895898
 30
0.0
 10
267.9750914256686
 20
77.78728628411625
 30
0.0
 10
268.5122440762642
 20
77.93132025242882
 30
0.0
 10
268.6890277000402
 20
77.98406068859703
 30
0.0
 10
269.0373047758482
 20
78.0992964303213
 30
0.0
 10
269.2050472348249
 20
78.16054805049626
 30
0.0
 10
269.6894646244701
 20
78.35460432783911
 30
0.0
 10
269.9875403518754
 20
78.49754909148731
 30
0.0
 10
270.2592829701892
 20
78.65442276588986
 30
0.0
  0
LWPOLYLINE
  5
21A
330
1F
100
AcDbEntity
  8
0
  6
Continuous
 62
     7
370
    15
100
AcDbPolyline
 90
       73
 70
   128
 43
0.0
 10
274.6079896745
 20
73.2860749804
 10
273.3754213402
 20
72.5123847405
 10
272.1522335951
 20
71.6202953781
 10
270.9477356366
 20
70.616596232
 10
269.7710944215
 20
69.5089260585
 10
268.6312648999
 20
68.3057148967
 10
267.5369218626
 20
67.01611991
 10
266.496393921
 20
65.6499556949
 10
265.517600121
 20
64.2176195859
 10
264.6079896745
 20
62.7300125259
 10
263.7744852661
 20
61.1984561026
 10
263.0234303677
 20
59.6346063853
 10
262.3605409606
 20
58.0503652146
 10
261.7908620334
 20
56.4577896225
 10
261.3187291867
 20
54.8690000707
 10
260.9477356366
 20
53.2960882071
 10
260.6807048681
 20
51.7510248408
 10
260.5196691464
 20
50.2455688368
 10
260.4658540508
 20
48.7911776245
 10
260.5196691464
 20
47.3989199991
 10
260.6807048681
 20
46.0793918818
 10
260.9477356366
 20
44.8426356783
 10
261.3187291867
 20
43.6980638502
 10
261.7908620334
 20
42.6543872801
 10
262.3605409606
 20
41.7195489769
 10
263.0234303677
 20
40.9006636247
 10
263.7744852661
 20
40.2039634353
 10
264.6079896745
 20
39.6347507179
 10
265.517600121
 20
39.1973575249
 10
266.496393921
 20
38.8951126828
 10
267.5369218626
 20
38.7303164572
 10
268.6312648999
 20
38.7042230469
 10
269.7710944215
 20
38.8170310385
 10
270.9477356366
 20
39.0678818952
 10
272.1522335951
 20
39.4548664903
 10
273.3754213402
 20
39.9750396375
 10
274.6079896745
 20
40.624442505
 10
275.8405580088
 20
41.3981327449
 10
277.0637457539
 20
42.2902221073
 10
278.2682437123
 20
43.2939212535
 10
279.4448849274
 20
44.4015914269
 10
280.5847144491
 20
45.6048025887
 10
281.6790574864
 20
46.8943975754
 10
282.7195854279
 20
48.2605617906
 10
283.6983792279
 20
49.6928978995
 10
284.6079896745
 20
51.1805049596
 10
285.4414940829
 20
52.7120613828
 10
286.1925489813
 20
54.2759111001
 10
286.8554383884
 20
55.8601522708
 10
287.4251173156
 20
57.452727863
 10
287.8972501623
 20
59.0415174148
 10
288.2682437123
 20
60.6144292783
 10
288.5352744809
 20
62.1594926447
 10
288.6963102025
 20
63.6649486486
 10
288.7501252982
 20
65.1193398609
 10
288.6963102025
 20
66.5115974864
 10
288.5352744809
 20
67.8311256037
 10
288.2682437123
 20
69.0678818071
 10
287.8972501623
 20
70.2124536353
 10
287.4251173156
 20
71.2561302054
 10
286.8554383884
 20
72.1909685085
 10
286.1925489813
 20
73.0098538608
 10
285.4414940829
 20
73.7065540502
 10
284.6079896745
 20
74.2757667676
 10
283.6983792279
 20
74.7131599605
 10
282.7195854279
 20
75.0154048026
 10
281.6790574864
 20
75.1802010282
 10
280.5847144491
 20
75.2062944385
 10
279.4448849274
 20
75.0934864469
 10
278.2682437123
 20
74.8426355903
 10
277.0637457539
 20
74.4556509951
 10
275.8405580088
 20
73.935477848
 10
274.6079896745
 20
73.2860749804
  0
LWPOLYLINE
  5
21B
330
1F
100
AcDbEntity
  8
0
  6
Continuous
 62
     7
370
    15
100
AcDbPolyline
 90
       18
 70
   128
 43
0.0
 10
284.0068496234
 20
73.6936818861
 10
283.0777380176
 20
74.1482565862
 10
282.0727865073
 20
74.454884083
 10
281.000720471
 20
74.6109021175
 10
279.8708480017
 20
74.6149560808
 10
278.6929790903
 20
74.4670107747
 10
277.4773404513
 20
74.1683507178
 10
276.2344867307
 20
73.7215689925
 10
274.9752088663
 20
73.1305447309
 10
273.7104403968
 20
72.4004094349
 10
272.4511625324
 20
71.537502422
 10
271.2083088118
 20
70.5493157857
 10
269.9926701728
 20
69.4444293453
 10
268.8148012614
 20
68.2324361533
 10
267.6849287921
 20
66.9238592046
 10
266.6128627558
 20
65.5300600715
 10
265.6079112455
 20
64.0631402584
 10
264.6787996397
 20
62.535836132
  0
SPLINE
  5
21C
330
1F
100
AcDbEntity
  8
0
  6
Continuous
 62
     7
370
    15
100
AcDbSpline
210
0.0
220
0.0
230
1.0
 70
     8
 71
     3
 72
    22
 73
    18
 74
     0
 42
0.000000001
 43
0.00000001
 40
0.0
 40
0.0
 40
0.0
 40
0.0
 40
0.125
 40
0.125
 40
0.25
 40
0.25
 40
0.375
 40
0.375
 40
0.5
 40
0.5
 40
0.625
 40
0.625
 40
0.75
 40
0.75
 40
0.875
 40
0.875
 40
1.0
 40
1.0
 40
1.0
 40
1.0
 10
264.6787996396839
 20
62.53583613197332
 30
0.0
 10
264.6050847548145
 20
62.43899056475084
 30
0.0
 10
264.5306643117646
 20
62.33587172841645
 30
0.0
 10
264.3806465149759
 20
62.11702861865366
 30
0.0
 10
264.3046515619086
 20
62.00066911317639
 30
0.0
 10
264.153302519189
 20
61.75699683827968
 30
0.0
 10
264.0794399124918
 20
61.63214396208227
 30
0.0
 10
263.9353943226585
 20
61.37644424127409
 30
0.0
 10
263.8646166667432
 20
61.24441784210008
 30
0.0
 10
263.7299083624378
 20
60.97957664035187
 30
0.0
 10
263.6666682139481
 20
60.84825639420541
 30
0.0
 10
263.5481327283399
 20
60.58777269897136
 30
0.0
 10
263.4923534811211
 20
60.45733408365983
 30
0.0
 10
263.3921379398226
 20
60.20667488359217
 30
0.0
 10
263.3475258731055
 20
60.08626226204526
 30
0.0
 10
263.2687342066828
 20
59.85502451732008
 30
0.0
 10
263.234483802747
 20
59.7438013530917
 30
0.0
 10
263.2061408253159
 20
59.63994582453215
 30
0.0
  0
LWPOLYLINE
  5
21D
330
1F
100
AcDbEntity
  8
0
  6
Continuous
 62
     7
370
    15
100
AcDbPolyline
 90
       14
 70
   128
 43
0.0
 10
263.2061408253
 20
59.6399458245
 10
262.529473625
 20
58.0077985022
 10
261.9562808371
 20
56.3677726846
 10
261.4915831189
 20
54.7342335343
 10
261.1394508077
 20
53.1214893964
 10
260.9029682683
 20
51.5436664705
 10
260.7842068767
 20
50.0145850771
 10
260.7842068767
 20
48.5476386048
 10
260.9029682683
 20
47.1556761956
 10
261.1394508077
 20
45.8508901978
 10
261.4915831189
 20
44.6447093726
 10
261.9562808371
 20
43.5476987874
 10
262.529473625
 20
42.569467276
 10
263.2061408253
 20
41.7185832734
  0
SPLINE
  5
21E
330
1F
100
AcDbEntity
  8
0
  6
Continuous
 62
     7
370
    15
100
AcDbSpline
210
0.0
220
0.0
230
1.0
 70
     8
 71
     3
 72
    22
 73
    18
 74
     0
 42
0.000000001
 43
0.00000001
 40
0.0
 40
0.0
 40
0.0
 40
0.0
 40
0.125
 40
0.125
 40
0.25
 40
0.25
 40
0.375
 40
0.375
 40
0.5
 40
0.5
 40
0.625
 40
0.625
 40
0.75
 40
0.75
 40
0.875
 40
0.875
 40
1.0
 40
1.0
 40
1.0
 40
1.0
 10
263.2061408253159
 20
41.71858327340859
 30
0.0
 10
263.2344774580688
 20
41.58591847603599
 30
0.0
 10
263.2681942341946
 20
41.4609444137185
 30
0.0
 10
263.3465624560013
 20
41.22628648284055
 30
0.0
 10
263.391474130699
 20
41.11607004425014
 30
0.0
 10
263.4921622005292
 20
40.91445487486836
 30
0.0
 10
263.5468906089898
 20
40.82494808630081
 30
0.0
 10
263.6650854133744
 20
40.66814723762298
 30
0.0
 10
263.7291561075335
 20
40.60038623063003
 30
0.0
 10
263.863813633809
 20
40.49094370291488
 30
0.0
 10
263.9335817361999
 20
40.44962550377304
 30
0.0
 10
264.0778124739127
 20
40.39300546077189
 30
0.0
 10
264.153062812943
 20
40.3777818955067
 30
0.0
 10
264.3036063483683
 20
40.37464159370872
 30
0.0
 10
264.378930983704
 20
40.38635690944559
 30
0.0
 10
264.5295043867039
 20
40.43545000317833
 30
0.0
 10
264.6050682497756
 20
40.47316436360747
 30
0.0
 10
264.6787996396838
 20
40.52298864122555
 30
0.0
  0
LWPOLYLINE
  5
21F
330
1F
100
AcDbEntity
  8
0
  6
Continuous
 62
     7
370
    15
100
AcDbPolyline
 90
       18
 70
   128
 43
0.0
 10
264.6787996397
 20
40.5229886412
 10
265.6079112455
 20
40.0684139411
 10
266.6128627558
 20
39.7617864444
 10
267.6849287921
 20
39.6057684099
 10
268.8148012614
 20
39.6017144466
 10
269.9926701728
 20
39.7496597527
 10
271.2083088118
 20
40.0483198096
 10
272.4511625324
 20
40.4951015349
 10
273.7104403968
 20
41.0861257964
 10
274.9752088663
 20
41.8162610925
 10
276.2344867307
 20
42.6791681053
 10
277.4773404513
 20
43.6673547417
 10
278.6929790903
 20
44.7722411821
 10
279.8708480017
 20
45.984234374
 10
281.000720471
 20
47.2928113228
 10
282.0727865073
 20
48.6866104559
 10
283.0777380176
 20
50.153530269
 10
284.0068496234
 20
51.6808343954
  0
SPLINE
  5
220
330
1F
100
AcDbEntity
  8
0
  6
Continuous
 62
     7
370
    15
100
AcDbSpline
210
0.0
220
0.0
230
1.0
 70
     8
 71
     3
 72
    22
 73
    18
 74
     0
 42
0.000000001
 43
0.00000001
 40
0.0
 40
0.0
 40
0.0
 40
0.0
 40
0.1250000000000001
 40
0.1250000000000001
 40
0.2500000000000002
 40
0.2500000000000002
 40
0.3750000000000003
 40
0.3750000000000003
 40
0.5000000000000004
 40
0.5000000000000004
 40
0.6250000000000006
 40
0.6250000000000006
 40
0.7500000000000007
 40
0.7500000000000007
 40
0.8750000000000003
 40
0.8750000000000003
 40
1.0
 40
1.0
 40
1.0
 40
1.0
 10
284.0068496233993
 20
51.68083439539961
 30
0.0
 10
284.133873539226
 20
51.74690531410724
 30
0.0
 10
284.2553904859048
 20
51.82283591761443
 30
0.0
 10
284.4875825761814
 20
51.99424081749743
 30
0.0
 10
284.5988066113628
 20
52.0902630067621
 30
0.0
 10
284.8072540396695
 20
52.30097308527948
 30
0.0
 10
284.9024938997997
 20
52.41348513575186
 30
0.0
 10
285.0753693568124
 20
52.65254172849636
 30
0.0
 10
285.1535879414498
 20
52.78027257095255
 30
0.0
 10
285.2883526741177
 20
53.04508119730048
 30
0.0
 10
285.3443509212163
 20
53.18058210413216
 30
0.0
 10
285.4342315997849
 20
53.45760786736241
 30
0.0
 10
285.4682565196925
 20
53.60060498851535
 30
0.0
 10
285.5117512297471
 20
53.88400842747939
 30
0.0
 10
285.5215603285797
 20
54.02451237473014
 30
0.0
 10
285.5180369884188
 20
54.30326956127621
 30
0.0
 10
285.5044864273852
 20
54.4420876352073
 30
0.0
 10
285.4795084377672
 20
54.57672470284079
 30
0.0
  0
LWPOLYLINE
  5
221
330
1F
100
AcDbEntity
  8
0
  6
Continuous
 62
     7
370
    15
100
AcDbPolyline
 90
       14
 70
   128
 43
0.0
 10
285.4795084378
 20
54.5767247028
 10
286.1561756381
 20
56.2088720252
 10
286.7293684259
 20
57.8488978428
 10
287.1940661441
 20
59.4824369931
 10
287.5461984553
 20
61.0951811309
 10
287.7826809948
 20
62.6730040569
 10
287.9014423864
 20
64.2020854503
 10
287.9014423864
 20
65.6690319225
 10
287.7826809948
 20
67.0609943318
 10
287.5461984553
 20
68.3657803295
 10
287.1940661441
 20
69.5719611548
 10
286.7293684259
 20
70.66897174
 10
286.1561756381
 20
71.6472032514
 10
285.4795084378
 20
72.498087254
  0
SPLINE
  5
222
330
1F
100
AcDbEntity
  8
0
  6
Continuous
 62
     7
370
    15
100
AcDbSpline
210
0.0
220
0.0
230
1.0
 70
     8
 71
     3
 72
    22
 73
    18
 74
     0
 42
0.000000001
 43
0.00000001
 40
0.0
 40
0.0
 40
0.0
 40
0.0
 40
0.125
 40
0.125
 40
0.25
 40
0.25
 40
0.375
 40
0.375
 40
0.5
 40
0.5
 40
0.625
 40
0.625
 40
0.75
 40
0.75
 40
0.875
 40
0.875
 40
1.0
 40
1.0
 40
1.0
 40
1.0
 10
285.4795084377672
 20
72.49808725396436
 30
0.0
 10
285.5044808359717
 20
72.5999774028221
 30
0.0
 10
285.5178605634748
 20
72.69776323231238
 30
0.0
 10
285.5216666351558
 20
72.88498295331057
 30
0.0
 10
285.5119840425724
 20
72.97486207568836
 30
0.0
 10
285.4683943583292
 20
73.14351504869077
 30
0.0
 10
285.4350432033017
 20
73.22068101153333
 30
0.0
 10
285.3456782660964
 20
73.36083873214747
 30
0.0
 10
285.2890485006595
 20
73.42430418242257
 30
0.0
 10
285.1544474027465
 20
73.53371413473744
 30
0.0
 10
285.0774373989645
 20
73.57921299456454
 30
0.0
 10
284.904551854212
 20
73.65237510556186
 30
0.0
 10
284.8075471878706
 20
73.68015717666847
 30
0.0
 10
284.6002828212013
 20
73.71604171736281
 30
0.0
 10
284.4901552179812
 20
73.7244177273298
 30
0.0
 10
284.2572668083977
 20
73.72284407541794
 30
0.0
 10
284.1339019803565
 20
73.71272462469152
 30
0.0
 10
284.0068496233993
 20
73.69368188614735
 30
0.0
  0
LINE
  5
223
330
1F
100
AcDbEntity
  8
0
  6
Continuous
 62
     7
370
    15
100
AcDbLine
 10
283.6412788041
 20
73.5250364597
 30
0.0
 11
278.9202296517
 21
70.7996327959
 31
0.0
  0
LWPOLYLINE
  5
224
330
1F
100
AcDbEntity
  8
0
  6
Continuous
 62
     7
370
    15
100
AcDbPolyline
 90
        9
 70
   128
 43
0.0
 10
278.9202296517
 20
70.7996327959
 10
277.8266185361
 20
70.6880679203
 10
276.689697551
 20
70.407682367
 10
275.523600684
 20
69.9619618363
 10
274.3428246315
 20
69.356447442
 10
273.1620485791
 20
68.5986668248
 10
271.9959517121
 20
67.6980405706
 10
270.859030727
 20
66.6657650953
 10
269.7654196114
 20
65.5146734531
  0
LINE
  5
225
330
1F
100
AcDbEntity
  8
0
  6
Continuous
 62
     7
370
    15
100
AcDbLine
 10
269.7654196114
 20
65.5146734531
 30
0.0
 11
265.0443704589
 21
62.7892697893
 31
0.0
  0
ARC
  5
226
330
1F
100
AcDbEntity
  8
0
  6
Continuous
 62
     7
370
    15
100
AcDbCircle
 10
266.4638893914
 20
60.3512746669
 30
0.0
 40
2.821144132520589
100
AcDbArc
 50
120.2100382904
 51
129.2535885358
  0
ARC
  5
227
330
1F
100
AcDbEntity
  8
0
  6
Continuous
 62
     7
370
    15
100
AcDbCircle
 10
284.6967273218
 20
71.717697038
 30
0.0
 40
2.09295182907608
100
AcDbArc
 50
109.2456812522
 51
120.2840370279
  0
LWPOLYLINE
  5
228
330
1F
100
AcDbEntity
  8
0
  6
Continuous
 62
     7
370
    15
100
AcDbPolyline
 90
       53
 70
   128
 43
0.0
 10
267.9901584256
 20
64.4898369849
 10
267.9310175151
 20
64.4149541211
 10
267.1114374606
 20
63.3001314044
 10
266.3567423757
 20
62.1242015055
 10
265.6757803703
 20
60.9009511273
 10
265.0765351014
 20
59.6447217622
 10
264.5660321718
 20
58.3702415508
 10
264.1502567615
 20
57.0924526084
 10
263.8340834572
 20
55.826335842
 10
263.6212191018
 20
54.586735313
 10
263.5141593351
 20
53.3881842044
 10
263.5141593351
 20
52.2447344319
 10
263.6212191018
 20
51.1697918988
 10
263.8340834572
 20
50.1759593233
 10
264.1502567615
 20
49.2748884838
 10
264.5660321718
 20
48.477143612
 10
265.0765351014
 20
47.7920775372
 10
265.6757803703
 20
47.2277220326
 10
266.3567423757
 20
46.7906936507
 10
267.1114374606
 20
46.4861161495
 10
267.9310175151
 20
46.3175604219
 10
268.8058737125
 20
46.2870026295
 10
269.7257491638
 20
46.3948010347
 10
270.6798591703
 20
46.6396917996
 10
271.6570176646
 20
47.018803804
 10
272.6457683567
 20
47.5276923061
 10
273.6345190488
 20
48.1603910537
 10
274.6116775431
 20
48.9094822324
 10
275.5657875496
 20
49.7661834329
 10
276.4856630009
 20
50.7204506171
 10
277.3605191983
 20
51.7610958746
 10
278.1800992528
 20
52.8759185914
 10
278.9347943377
 20
54.0518484903
 10
279.615756343
 20
55.2750988684
 10
280.215001612
 20
56.5313282335
 10
280.7255045416
 20
57.8058084449
 10
281.1412799518
 20
59.0835973873
 10
281.4574532561
 20
60.3497141538
 10
281.6703176116
 20
61.5893146827
 10
281.7773773783
 20
62.7878657914
 10
281.7773773783
 20
63.9313155638
 10
281.6703176116
 20
65.006258097
 10
281.4574532561
 20
66.0000906724
 10
281.1412799518
 20
66.9011615119
 10
280.7255045416
 20
67.6989063837
 10
280.215001612
 20
68.3839724586
 10
279.615756343
 20
68.9483279631
 10
278.9347943377
 20
69.3853563451
 10
278.1800992528
 20
69.6899338463
 10
277.3605191983
 20
69.8584895739
 10
276.4856630009
 20
69.8890473662
 10
275.5657875496
 20
69.7812489611
 10
274.7380664033
 20
69.5761089202
  0
LWPOLYLINE
  5
229
330
1F
100
AcDbEntity
  8
0
  6
Continuous
 62
     7
370
    15
100
AcDbPolyline
 90
        3
 70
   128
 43
0.0
 10
283.7776157996
 20
73.5978965156
 10
283.782512596
 20
73.4126173252
 10
283.7296885393
 20
72.9063094268
  0
LWPOLYLINE
  5
22A
330
1F
100
AcDbEntity
  8
0
  6
Continuous
 62
     7
370
    15
100
AcDbPolyline
 90
       13
 70
   128
 43
0.0
 10
283.7296885393
 20
72.9063094268
 10
284.3835789087
 20
72.0049543848
 10
284.9271697401
 20
70.9728227491
 10
285.3553529413
 20
69.8196134018
 10
285.6641048991
 20
68.5561629858
 10
285.8505242891
 20
67.1943440725
 10
285.9128593387
 20
65.7469535969
 10
285.8505242891
 20
64.227592605
 10
285.6641048991
 20
62.6505384455
 10
285.3553529413
 20
61.0306106067
 10
284.9271697401
 20
59.3830314583
 10
284.3835789087
 20
57.7232832079
 10
283.7296885393
 20
56.0669624153
  0
ARC
  5
22B
330
1F
100
AcDbEntity
  8
0
  6
Continuous
 62
     7
370
    15
100
AcDbCircle
 10
279.9637437613
 20
55.6387208309
 30
0.0
 40
3.790215155514488
100
AcDbArc
 50
301.5017160265
 51
6.4874792992
  0
LINE
  5
22C
330
1F
100
AcDbEntity
  8
0
  6
Continuous
 62
     7
370
    15
100
AcDbLine
 10
281.9442225293
 20
52.4070904723
 30
0.0
 11
277.2231733769
 21
49.6816868084
 31
0.0
  0
LWPOLYLINE
  5
22D
330
1F
100
AcDbEntity
  8
0
  6
Continuous
 62
     7
370
    15
100
AcDbPolyline
 90
        9
 70
   128
 43
0.0
 10
268.0683633365
 20
44.3967274657
 10
269.1619744522
 20
44.5082923412
 10
270.2988954373
 20
44.7886778946
 10
271.4649923043
 20
45.2343984252
 10
272.6457683567
 20
45.8399128196
 10
273.8265444091
 20
46.5976934368
 10
274.9926412761
 20
47.498319691
 10
276.1295622612
 20
48.5305951663
 10
277.2231733769
 20
49.6816868084
  0
LINE
  5
22E
330
1F
100
AcDbEntity
  8
0
  6
Continuous
 62
     7
370
    15
100
AcDbLine
 10
268.0683633365
 20
44.3967274657
 30
0.0
 11
263.3473141841
 21
41.6713238018
 31
0.0
  0
ARC
  5
22F
330
1F
100
AcDbEntity
  8
0
  6
Continuous
 62
     7
370
    15
100
AcDbCircle
 10
265.257266589
 20
59.5939231347
 30
0.0
 40
2.051642022017897
100
AcDbArc
 50
178.7146261105
 51
193.0861783431
  0
LWPOLYLINE
  5
230
330
1F
100
AcDbEntity
  8
0
  6
Continuous
 62
     7
370
    15
100
AcDbPolyline
 90
       13
 70
   128
 43
0.0
 10
263.2589044489
 20
59.1293978463
 10
262.6050140795
 20
57.4730770537
 10
262.0614232482
 20
55.8133288033
 10
261.633240047
 20
54.1657496549
 10
261.3244880891
 20
52.5458218161
 10
261.1380686991
 20
50.9687676566
 10
261.0757336495
 20
49.4494066646
 10
261.1380686991
 20
48.0020161891
 10
261.3244880891
 20
46.6401972758
 10
261.633240047
 20
45.3767468597
 10
262.0614232482
 20
44.2235375125
 10
262.6050140795
 20
43.1914058768
 10
263.2589044489
 20
42.2900508348
  0
ARC
  5
231
330
1F
100
AcDbEntity
  8
0
  6
Continuous
 62
     7
370
    15
100
AcDbCircle
 10
266.0703500095
 20
41.7423003352
 30
0.0
 40
2.864307376949086
100
AcDbArc
 50
168.9752422931
 51
180.4744264118
  0
LWPOLYLINE
  5
232
330
1F
100
AcDbEntity
  8
0
  6
Continuous
 62
     7
370
    15
100
AcDbPolyline
 90
       38
 70
   128
 43
0.0
 10
263.9857853419
 20
49.6951923814
 10
264.0210691545
 20
49.6213893596
 10
264.4607828246
 20
48.8718594362
 10
264.9934136426
 20
48.2379175613
 10
265.6124961918
 20
47.7272589306
 10
266.3105156488
 20
47.3460822481
 10
267.0789990028
 20
47.0990144823
 10
267.908617907
 20
46.9890547013
 10
268.7893019117
 20
47.0175376678
 10
269.7103607061
 20
47.1841176373
 10
270.6606138841
 20
47.4867725545
 10
271.6285266595
 20
47.9218285987
 10
272.6023498822
 20
48.4840047789
 10
273.5702626575
 20
49.1664770378
 10
274.5205158355
 20
49.9609610867
 10
275.4415746299
 20
50.8578129655
 10
276.3222586346
 20
51.8461461073
 10
277.1518775388
 20
52.9139634865
 10
277.9203608928
 20
54.0483032467
 10
278.6183803498
 20
55.2353960398
 10
279.237462899
 20
56.4608321674
 10
279.770093717
 20
57.7097364949
 10
280.2098073871
 20
58.9669490155
 10
280.5512663811
 20
60.2172088725
 10
280.7903258494
 20
61.4453396047
 10
280.9240839337
 20
62.6364333686
 10
280.9509169922
 20
63.7760318996
 10
280.8704993078
 20
64.8503020152
 10
280.6838070424
 20
65.8462035315
 10
280.3931063872
 20
66.751647553
 10
280.0019260542
 20
67.555643216
 10
279.5150144428
 20
68.2484311022
 10
278.9382820005
 20
68.8216017052
 10
278.2787294777
 20
69.2681975102
 10
277.5443629487
 20
69.5827974491
 10
276.7440966284
 20
69.761582705
 10
275.8876446657
 20
69.8023830669
 10
275.5830855436
 20
69.7844822773
  0
LWPOLYLINE
  5
233
330
1F
100
AcDbEntity
  8
0
  6
Continuous
 62
     7
370
    15
100
AcDbPolyline
 90
       21
 70
   128
 43
0.0
 10
256.5186710444
 20
86.3825739842
 10
255.1786394587
 20
85.5458206126
 10
253.8475255621
 20
84.5882964896
 10
252.534187698
 20
83.5163737804
 10
251.2473659132
 20
82.3371859538
 10
249.9956237944
 20
81.0585803102
 10
248.7872914787
 20
79.6890657591
 10
247.6304102185
 20
78.2377561941
 10
246.5326788676
 20
76.7143098407
 10
245.5014026471
 20
75.1288649831
 10
244.54344453
 20
73.4919724953
 10
243.6651795697
 20
71.8145256267
 10
242.8724524744
 20
70.1076875094
 10
242.1705387122
 20
68.3828168695
 10
241.5641094034
 20
66.6513924366
 10
241.057200235
 20
64.9249365546
 10
240.6531846039
 20
63.2149385024
 10
240.3547511674
 20
61.5327780351
 10
240.1638859509
 20
59.889649653
 10
240.0818591308
 20
58.2964881044
 10
240.1036805991
 20
56.8702077859
  0
ARC
  5
234
330
1F
100
AcDbEntity
  8
0
  6
Continuous
 62
     7
370
    15
100
AcDbCircle
 10
263.9889219413
 20
42.4989734894
 30
0.0
 40
2.092951829079996
100
AcDbArc
 50
289.2456812522
 51
300.2840370279
  0
LINE
  5
235
330
1F
100
AcDbEntity
  8
0
  6
Continuous
 62
     7
370
    15
100
AcDbLine
 10
283.7296885393
 20
72.9063094268
 30
0.0
 11
285.4267448141
 21
71.9266196926
 31
0.0
  0
ARC
  5
236
330
1F
100
AcDbEntity
  8
0
  6
Continuous
 62
     7
370
    15
100
AcDbCircle
 10
282.6152992536
 20
72.4743701922
 30
0.0
 40
2.864307376952778
100
AcDbArc
 50
348.9752422931
 51
0.4744264118
  0
LINE
  5
237
330
1F
100
AcDbEntity
  8
0
  6
Continuous
 62
     7
370
    15
100
AcDbLine
 10
265.0443704589
 20
40.6916340676
 30
0.0
 11
269.7654196114
 21
43.4170377315
 31
0.0
  0
LWPOLYLINE
  5
238
330
1F
100
AcDbEntity
  8
0
  6
Continuous
 62
     7
370
    15
100
AcDbPolyline
 90
        9
 70
   128
 43
0.0
 10
269.7654196114
 20
43.4170377315
 10
270.859030727
 20
43.5286026071
 10
271.9959517121
 20
43.8089881604
 10
273.1620485791
 20
44.254708691
 10
274.3428246315
 20
44.8602230854
 10
275.523600684
 20
45.6180037026
 10
276.689697551
 20
46.5186299568
 10
277.8266185361
 20
47.5509054321
 10
278.9202296517
 20
48.7019970742
  0
LINE
  5
239
330
1F
100
AcDbEntity
  8
0
  6
Continuous
 62
     7
370
    15
100
AcDbLine
 10
278.9202296517
 20
48.7019970742
 30
0.0
 11
283.6412788041
 21
51.4274007381
 31
0.0
  0
ARC
  5
23A
330
1F
100
AcDbEntity
  8
0
  6
Continuous
 62
     7
370
    15
100
AcDbCircle
 10
282.2217598717
 20
53.8653958605
 30
0.0
 40
2.821144132523159
100
AcDbArc
 50
300.2100382904
 51
309.2535885358
  0
LINE
  5
23B
330
1F
100
AcDbEntity
  8
0
  6
Continuous
 62
     7
370
    15
100
AcDbLine
 10
269.7654196114
 20
43.4170377315
 30
0.0
 11
268.0683633365
 21
44.3967274657
 31
0.0
  0
ARC
  5
23C
330
1F
100
AcDbEntity
  8
0
  6
Continuous
 62
     7
370
    15
100
AcDbCircle
 10
283.4283826741
 20
54.6227473926
 30
0.0
 40
2.05164202202407
100
AcDbArc
 50
358.7146261105
 51
13.0861783431
  0
LWPOLYLINE
  5
23D
330
1F
100
AcDbEntity
  8
0
  6
Continuous
 62
     7
370
    15
100
AcDbPolyline
 90
       13
 70
   128
 43
0.0
 10
285.4267448141
 20
55.0872726811
 10
286.0806351835
 20
56.7435934737
 10
286.6242260149
 20
58.4033417241
 10
287.0524092161
 20
60.0509208725
 10
287.361161174
 20
61.6708487113
 10
287.5475805639
 20
63.2479028708
 10
287.6099156136
 20
64.7672638627
 10
287.5475805639
 20
66.2146543383
 10
287.361161174
 20
67.5764732516
 10
287.0524092161
 20
68.8399236677
 10
286.6242260149
 20
69.9931330149
 10
286.0806351835
 20
71.0252646506
 10
285.4267448141
 20
71.9266196926
  0
LINE
  5
23E
330
1F
100
AcDbEntity
  8
0
  6
Continuous
 62
     7
370
    15
100
AcDbLine
 10
283.7296885393
 20
56.0669624153
 30
0.0
 11
285.4267448141
 21
55.0872726811
 31
0.0
  0
LINE
  5
23F
330
1F
100
AcDbEntity
  8
0
  6
Continuous
 62
     7
370
    15
100
AcDbLine
 10
277.2231733769
 20
49.6816868084
 30
0.0
 11
278.9202296517
 21
48.7019970742
 31
0.0
  0
ARC
  5
240
330
1F
100
AcDbEntity
  8
0
  6
Continuous
 62
     7
370
    15
100
AcDbCircle
 10
260.607048038
 20
65.0001025495
 30
0.0
 40
25.06493064200353
100
AcDbArc
 50
129.517740455
 51
165.0270153662
  0
SPLINE
  5
241
330
1F
100
AcDbEntity
  8
0
  6
Continuous
 62
     7
370
    15
100
AcDbSpline
210
0.0
220
0.0
230
1.0
 70
     8
 71
     3
 72
    10
 73
     6
 74
     0
 42
0.000000001
 43
0.00000001
 40
0.0
 40
0.0
 40
0.0
 40
0.0
 40
0.5
 40
0.5
 40
1.0
 40
1.0
 40
1.0
 40
1.0
 10
236.2084578462309
 20
70.73064514170852
 30
0.0
 10
236.1519291604484
 20
70.6980118260259
 30
0.0
 10
236.0732858378736
 20
70.67763885056692
 30
0.0
 10
235.9130559235425
 20
70.67457745060557
 30
0.0
 10
235.8318889110018
 20
70.69223665048582
 30
0.0
 10
235.774775010664
 20
70.72520780334013
 30
0.0
  0
SPLINE
  5
242
330
1F
100
AcDbEntity
  8
0
  6
Continuous
 62
     7
370
    15
100
AcDbSpline
210
0.0
220
0.0
230
1.0
 70
     8
 71
     3
 72
    12
 73
     8
 74
     0
 42
0.000000001
 43
0.00000001
 40
0.0
 40
0.0
 40
0.0
 40
0.0
 40
0.250000000000002
 40
0.250000000000002
 40
0.500000000000004
 40
0.500000000000004
 40
1.0
 40
1.0
 40
1.0
 40
1.0
 10
253.4654969170088
 20
87.24916968159523
 30
0.0
 10
253.4974012453535
 20
87.23075170487948
 30
0.0
 10
253.5295385817944
 20
87.20083716424742
 30
0.0
 10
253.5841968882206
 20
87.13043974430451
 30
0.0
 10
253.607170227551
 20
87.09005904762867
 30
0.0
 10
253.6608520164887
 20
86.96753521759331
 30
0.0
 10
253.6776289513648
 20
86.88273389598763
 30
0.0
 10
253.6776289513648
 20
86.809181300354
 30
0.0
  0
LINE
  5
243
330
1F
100
AcDbEntity
  8
0
  6
Continuous
 62
     7
370
    15
100
AcDbLine
 10
235.7747750107
 20
70.7252078033
 30
0.0
 11
234.375386943
 21
71.5330573392
 31
0.0
  0
LWPOLYLINE
  5
244
330
1F
100
AcDbEntity
  8
0
  6
Continuous
 62
     7
370
    15
100
AcDbPolyline
 90
       21
 70
   128
 43
0.0
 10
234.375386943
 20
71.5330573392
 10
234.738521479
 20
72.9325893459
 10
235.2008726094
 20
74.3425847351
 10
235.7579907807
 20
75.7494740584
 10
236.404514425
 20
77.1397177596
 10
237.134221558
 20
78.4999364758
 10
237.9400896579
 20
79.8170397971
 10
238.8143632487
 20
81.0783522455
 10
239.7486285367
 20
82.2717352608
 10
240.7338943828
 20
83.3857040188
 10
241.7606788314
 20
84.4095379585
 10
242.8191003617
 20
85.3333839544
 10
243.8989729857
 20
86.1483511401
 10
244.9899042752
 20
86.8465964721
 10
246.0813953763
 20
87.4214002094
 10
247.1629420474
 20
87.8672305824
 10
248.2241357499
 20
88.1797970295
 10
249.2547638168
 20
88.3560914881
 10
250.2449077377
 20
88.3944173438
 10
251.1850386112
 20
88.2944057579
 10
252.0661088494
 20
88.0570192175
  0
LINE
  5
245
330
1F
100
AcDbEntity
  8
0
  6
Continuous
 62
     7
370
    15
100
AcDbLine
 10
252.0661088494
 20
88.0570192175
 30
0.0
 11
253.465496917
 21
87.2491696816
 31
0.0
  0
LINE
  5
246
330
1F
100
AcDbEntity
  8
0
  6
Continuous
 62
     7
370
    15
100
AcDbLine
 10
237.3257846364
 20
70.0121996985
 30
0.0
 11
237.3257846364
 21
71.3756641681
 31
0.0
  0
LINE
  5
247
330
1F
100
AcDbEntity
  8
0
  6
Continuous
 62
     7
370
    15
100
AcDbLine
 10
237.3257846364
 20
71.3756641681
 30
0.0
 11
236.2084578462
 21
70.7306451417
 31
0.0
  0
LINE
  5
248
330
1F
100
AcDbEntity
  8
0
  6
Continuous
 62
     7
370
    15
100
AcDbLine
 10
253.6776289514
 20
86.8091813004
 30
0.0
 11
253.6776289514
 21
85.2451168655
 31
0.0
  0
LINE
  5
249
330
1F
100
AcDbEntity
  8
0
  6
Continuous
 62
     7
370
    15
100
AcDbLine
 10
255.0320751125
 20
86.027021991
 30
0.0
 11
253.6776289514
 21
85.2451168655
 31
0.0
  0
SPLINE
  5
24A
330
1F
100
AcDbEntity
  8
0
  6
Continuous
 62
     7
370
    15
100
AcDbSpline
210
0.0
220
0.0
230
1.0
 70
     8
 71
     3
 72
    20
 73
    16
 74
     0
 42
0.000000001
 43
0.00000001
 40
0.0
 40
0.0
 40
0.0
 40
0.0
 40
0.25
 40
0.25
 40
0.3750000000000001
 40
0.3750000000000001
 40
0.4375000000000001
 40
0.4375000000000001
 40
0.4687500000000001
 40
0.4687500000000001
 40
0.5000000000000001
 40
0.5000000000000001
 40
0.7500000000000001
 40
0.7500000000000001
 40
1.0
 40
1.0
 40
1.0
 40
1.0
 10
237.3257846364259
 20
65.39026133072085
 30
0.0
 10
237.3257846364259
 20
65.78264350724139
 30
0.0
 10
237.3462304157358
 20
66.16282014170741
 30
0.0
 10
237.3734039914553
 20
66.73517156352561
 30
0.0
 10
237.3819843712492
 20
66.92624041189322
 30
0.0
 10
237.390840748993
 20
67.21524004155492
 30
0.0
 10
237.3931325559155
 20
67.31196744288408
 30
0.0
 10
237.3953267896031
 20
67.45780086469254
 30
0.0
 10
237.3958525314316
 20
67.50653478401075
 30
0.0
 10
237.3964722639301
 20
67.60426036566803
 30
0.0
 10
237.3965613719783
 20
67.65350541867844
 30
0.0
 10
237.3955227660613
 20
68.08016811056113
 30
0.0
 10
237.3800095257893
 20
68.4674244569438
 30
0.0
 10
237.344872046867
 20
69.2441067196454
 30
0.0
 10
237.3257846364259
 20
69.63326057626317
 30
0.0
 10
237.3257846364259
 20
70.01219969845144
 30
0.0
  0
LWPOLYLINE
  5
24B
330
1F
100
AcDbEntity
  8
0
  6
Continuous
 62
     7
370
    15
100
AcDbPolyline
 90
       19
 70
   128
 43
0.0
 10
233.4516041553
 20
73.1640393732
 10
233.8420685296
 20
74.554656993
 10
234.3369251726
 20
75.9513974567
 10
234.9306380752
 20
77.3386352942
 10
235.6165653141
 20
78.700851342
 10
236.3870333551
 20
80.0228063581
 10
237.233422898
 20
81.2897115042
 10
238.1462653014
 20
82.4873937905
 10
239.1153485095
 20
83.6024546298
 10
240.129831295
 20
84.6224197291
 10
241.1783645413
 20
85.5358786405
 10
242.2492182058
 20
86.3326124112
 10
243.3304125455
 20
87.0037079037
 10
244.4098521351
 20
87.5416575081
 10
245.4754611799
 20
87.9404431303
 10
246.515318609
 20
88.1956035171
 10
247.5177914369
 20
88.3042841648
 10
248.4716649036
 20
88.2652692524
 10
248.566670203
 20
88.2528708794
  0
SPLINE
  5
24C
330
1F
100
AcDbEntity
  8
0
  6
Continuous
 62
     7
370
    15
100
AcDbSpline
210
0.0
220
0.0
230
1.0
 70
     8
 71
     3
 72
     8
 73
     4
 74
     0
 42
0.000000001
 43
0.00000001
 40
0.0
 40
0.0
 40
0.0
 40
0.0
 40
1.0
 40
1.0
 40
1.0
 40
1.0
 10
233.451604155273
 20
73.1640393731868
 30
0.0
 10
232.9603031262205
 20
73.08139215298291
 30
0.0
 10
232.4687230353178
 20
72.99930836549247
 30
0.0
 10
231.9769282365658
 20
72.91765807841072
 30
0.0
  0
LWPOLYLINE
  5
24D
330
1F
100
AcDbEntity
  8
0
  6
Continuous
 62
     7
370
    15
100
AcDbPolyline
 90
       21
 70
   128
 43
0.0
 10
231.9769282366
 20
72.9176580784
 10
232.3400627725
 20
74.3171900851
 10
232.8024139029
 20
75.7271854743
 10
233.3595320743
 20
77.1340747976
 10
234.0060557186
 20
78.5243184988
 10
234.7357628515
 20
79.884537215
 10
235.5416309514
 20
81.2016405363
 10
236.4159045422
 20
82.4629529847
 10
237.3501698302
 20
83.656336
 10
238.3354356763
 20
84.770304758
 10
239.3622201249
 20
85.7941386977
 10
240.4206416552
 20
86.7179846936
 10
241.5005142792
 20
87.5329518792
 10
242.5914455687
 20
88.2311972113
 10
243.6829366698
 20
88.8060009486
 10
244.764483341
 20
89.2518313216
 10
245.8256770434
 20
89.5643977687
 10
246.8563051104
 20
89.7406922273
 10
247.8464490312
 20
89.779018083
 10
248.7865799047
 20
89.6790064971
 10
249.6676501429
 20
89.4416199567
  0
LINE
  5
24E
330
1F
100
AcDbEntity
  8
0
  6
Continuous
 62
     7
370
    15
100
AcDbLine
 10
249.6676501429
 20
89.4416199567
 30
0.0
 11
249.9989842018
 21
88.3711235216
 31
0.0
  0
LINE
  5
24F
330
1F
100
AcDbEntity
  8
0
  6
Continuous
 62
     7
370
    15
100
AcDbLine
 10
246.2530077489
 20
91.4128510519
 30
0.0
 11
249.6676501429
 21
89.4416199567
 31
0.0
  0
LINE
  5
250
330
1F
100
AcDbEntity
  8
0
  6
Continuous
 62
     7
370
    15
100
AcDbLine
 10
231.9769282366
 20
72.9176580784
 30
0.0
 11
231.3907129673
 21
73.25607295
 31
0.0
  0
SPLINE
  5
251
330
1F
100
AcDbEntity
  8
0
  6
Continuous
 62
     7
370
    15
100
AcDbSpline
210
0.0
220
0.0
230
1.0
 70
     8
 71
     3
 72
    28
 73
    24
 74
     0
 42
0.000000001
 43
0.00000001
 40
0.0
 40
0.0
 40
0.0
 40
0.0
 40
0.1249999999999999
 40
0.1249999999999999
 40
0.1874999999999998
 40
0.1874999999999998
 40
0.2499999999999997
 40
0.2499999999999997
 40
0.3749999999999993
 40
0.3749999999999993
 40
0.4374999999999993
 40
0.4374999999999993
 40
0.4999999999999992
 40
0.4999999999999992
 40
0.6249999999999992
 40
0.6249999999999992
 40
0.7499999999999992
 40
0.7499999999999992
 40
0.8124999999999993
 40
0.8124999999999993
 40
0.8749999999999996
 40
0.8749999999999996
 40
1.0
 40
1.0
 40
1.0
 40
1.0
 10
231.3907129673074
 20
73.25607294999054
 30
0.0
 10
231.2027258868411
 20
73.36459558157462
 30
0.0
 10
231.0125059322404
 20
73.44653930212253
 30
0.0
 10
230.7244073302924
 20
73.53169703216099
 30
0.0
 10
230.6279174596928
 20
73.55374696256479
 30
0.0
 10
230.4341792868579
 20
73.58502078602375
 30
0.0
 10
230.3369282663265
 20
73.59414803734718
 30
0.0
 10
230.0509063914412
 20
73.60193087945558
 30
0.0
 10
229.8655645750846
 20
73.5816243358185
 30
0.0
 10
229.5970519882688
 20
73.51440368268537
 30
0.0
 10
229.508691328603
 20
73.48561732507979
 30
0.0
 10
229.3383386183133
 20
73.41660543498463
 30
0.0
 10
229.2563115885319
 20
73.3764655450745
 30
0.0
 10
229.0198753347793
 20
73.23984577731129
 30
0.0
 10
228.8750080846569
 20
73.12733128762223
 30
0.0
 10
228.6141512911728
 20
72.85907432262276
 30
0.0
 10
228.5018588836705
 20
72.70692093624547
 30
0.0
 10
228.3626344022167
 20
72.45500454854715
 30
0.0
 10
228.3210386158509
 20
72.36696226287079
 30
0.0
 10
228.2479139007897
 20
72.18262120781895
 30
0.0
 10
228.2162894167367
 20
72.08583244513719
 30
0.0
 10
228.1387961133145
 20
71.78781736624038
 30
0.0
 10
228.1096213979247
 20
71.57834448910384
 30
0.0
 10
228.1036545151829
 20
71.35796369641997
 30
0.0
  0
ARC
  5
252
330
1F
100
AcDbEntity
  8
0
  6
Continuous
 62
     7
370
    15
100
AcDbCircle
 10
242.9470209774
 20
70.9496932905
 30
0.0
 40
14.84898018911998
100
AcDbArc
 50
178.4244628824
 51
181.5755371176
  0
SPLINE
  5
253
330
1F
100
AcDbEntity
  8
0
  6
Continuous
 62
     7
370
    15
100
AcDbSpline
210
0.0
220
0.0
230
1.0
 70
     8
 71
     3
 72
    30
 73
    26
 74
     0
 42
0.000000001
 43
0.00000001
 40
0.0
 40
0.0
 40
0.0
 40
0.0
 40
0.1250000000000001
 40
0.1250000000000001
 40
0.1875000000000002
 40
0.1875000000000002
 40
0.2500000000000003
 40
0.2500000000000003
 40
0.3750000000000004
 40
0.3750000000000004
 40
0.4375000000000004
 40
0.4375000000000004
 40
0.5000000000000004
 40
0.5000000000000004
 40
0.6250000000000007
 40
0.6250000000000007
 40
0.6875000000000006
 40
0.6875000000000006
 40
0.7500000000000004
 40
0.7500000000000004
 40
0.8125000000000004
 40
0.8125000000000004
 40
0.8750000000000003
 40
0.8750000000000003
 40
1.0
 40
1.0
 40
1.0
 40
1.0
 10
228.1036545151829
 20
70.54142288453423
 30
0.0
 10
228.1096221138744
 20
70.32790569175953
 30
0.0
 10
228.1387673338738
 20
70.1103557937404
 30
0.0
 10
228.2152019951327
 20
69.77805676420479
 30
0.0
 10
228.2461679787101
 20
69.66628246290523
 30
0.0
 10
228.3191379195257
 20
69.44058058937023
 30
0.0
 10
228.3612741180843
 20
69.32649281679771
 30
0.0
 10
228.5011659074487
 20
68.98833008943653
 30
0.0
 10
228.613009831991
 20
68.76581987016375
 30
0.0
 10
228.8067964291356
 20
68.43520961421419
 30
0.0
 10
228.8761370667388
 20
68.32498297450803
 30
0.0
 10
229.0216294511855
 20
68.1082529740545
 30
0.0
 10
229.0975167419046
 20
68.00205603842379
 30
0.0
 10
229.333904690376
 20
67.68941786517416
 30
0.0
 10
229.5030501926269
 20
67.48887531733901
 30
0.0
 10
229.7729161899609
 20
67.19877047791667
 30
0.0
 10
229.8651076960118
 20
67.10442706154421
 30
0.0
 10
230.0507062910465
 20
66.92312203348382
 30
0.0
 10
230.1445351713333
 20
66.83570269998965
 30
0.0
 10
230.3339852217987
 20
66.66709514966502
 30
0.0
 10
230.4296066370044
 20
66.58590696389567
 30
0.0
 10
230.6224683264308
 20
66.42974428434754
 30
0.0
 10
230.7202032353292
 20
66.35441730465084
 30
0.0
 10
231.0114591904495
 20
66.141127071207
 30
0.0
 10
231.2027165814227
 20
66.01573364650655
 30
0.0
 10
231.3907129673074
 20
65.90720564301878
 30
0.0
  0
LINE
  5
254
330
1F
100
AcDbEntity
  8
0
  6
Continuous
 62
     7
370
    15
100
AcDbLine
 10
231.3907129673
 20
65.907205643
 30
0.0
 11
231.9769282366
 21
65.5687907714
 31
0.0
  0
ARC
  5
255
330
1F
100
AcDbEntity
  8
0
  6
Continuous
 62
     7
370
    15
100
AcDbCircle
 10
237.8533004016
 20
67.0120532067
 30
0.0
 40
6.051012830888014
100
AcDbArc
 50
193.7989608496
 51
252.8232105071
  0
LINE
  5
256
330
1F
100
AcDbEntity
  8
0
  6
Continuous
 62
     7
370
    15
100
AcDbLine
 10
251.2970679992
 20
88.5006712637
 30
0.0
 11
251.631380403
 21
88.1933431535
 31
0.0
  0
LINE
  5
257
330
1F
100
AcDbEntity
  8
0
  6
Continuous
 62
     7
370
    15
100
AcDbLine
 10
250.4441392454
 20
88.9930565525
 30
0.0
 11
251.2970679992
 21
88.5006712637
 31
0.0
  0
SPLINE
  5
258
330
1F
100
AcDbEntity
  8
0
  6
Continuous
 62
     7
370
    15
100
AcDbSpline
210
0.0
220
0.0
230
1.0
 70
     8
 71
     3
 72
    20
 73
    16
 74
     0
 42
0.000000001
 43
0.00000001
 40
0.0
 40
0.0
 40
0.0
 40
0.0
 40
0.2500000000000005
 40
0.2500000000000005
 40
0.3750000000000004
 40
0.3750000000000004
 40
0.5000000000000003
 40
0.5000000000000003
 40
0.6250000000000002
 40
0.6250000000000002
 40
0.7500000000000001
 40
0.7500000000000001
 40
0.8750000000000001
 40
0.8750000000000001
 40
1.0
 40
1.0
 40
1.0
 40
1.0
 10
246.253007748906
 20
91.41285105189098
 30
0.0
 10
246.571996403304
 20
91.27896066263119
 30
0.0
 10
246.898452003402
 20
91.11906431556918
 30
0.0
 10
247.4108021207851
 20
90.84114538809968
 30
0.0
 10
247.5854054874629
 20
90.74214637528938
 30
0.0
 10
247.9452793498118
 20
90.53120567039068
 30
0.0
 10
248.1281397661653
 20
90.42064985318065
 30
0.0
 10
248.4944348553425
 20
90.19523198416981
 30
0.0
 10
248.6789183716012
 20
90.07975138279033
 30
0.0
 10
249.0525031958367
 20
89.84491903849458
 30
0.0
 10
249.2368526670759
 20
89.72858911321931
 30
0.0
 10
249.5975625735524
 20
89.50289442641993
 30
0.0
 10
249.7746165628062
 20
89.39308445232325
 30
0.0
 10
250.1223459141586
 20
89.18168968878734
 30
0.0
 10
250.2875963306168
 20
89.08342685364433
 30
0.0
 10
250.4441392453983
 20
88.99305655252695
 30
0.0
  0
LINE
  5
259
330
1F
100
AcDbEntity
  8
0
  6
Continuous
 62
     7
370
    15
100
AcDbLine
 10
234.5862187101
 20
72.3897806048
 30
0.0
 11
234.1225909177
 21
72.6574272324
 31
0.0
  0
LINE
  5
25A
330
1F
100
AcDbEntity
  8
0
  6
Continuous
 62
     7
370
    15
100
AcDbLine
 10
233.6967727596
 20
73.3055721959
 30
0.0
 11
233.4516041553
 21
73.1640393732
 31
0.0
  0
SPLINE
  5
25B
330
1F
100
AcDbEntity
  8
0
  6
Continuous
 62
     7
370
    15
100
AcDbSpline
210
0.0
220
0.0
230
1.0
 70
     8
 71
     3
 72
    14
 73
    10
 74
     0
 42
0.000000001
 43
0.00000001
 40
0.0
 40
0.0
 40
0.0
 40
0.0
 40
0.1250000000000006
 40
0.1250000000000006
 40
0.2500000000000012
 40
0.2500000000000012
 40
0.4999999999999998
 40
0.4999999999999998
 40
1.0
 40
1.0
 40
1.0
 40
1.0
 10
234.1225909176508
 20
72.65742723236481
 30
0.0
 10
234.0983944844856
 20
72.67139553590735
 30
0.0
 10
234.0752190460267
 20
72.69876071190491
 30
0.0
 10
234.0382986535958
 20
72.75656248103041
 30
0.0
 10
234.0232568625632
 20
72.78753296014679
 30
0.0
 10
233.9834434059763
 20
72.88055943307599
 30
0.0
 10
233.9638073875922
 20
72.94317048736079
 30
0.0
 10
233.9133865391227
 20
73.12750123827578
 30
0.0
 10
233.8909693608822
 20
73.24904547317644
 30
0.0
 10
233.8742814627163
 20
73.36817453847881
 30
0.0
  0
SPLINE
  5
25C
330
1F
100
AcDbEntity
  8
0
  6
Continuous
 62
     7
370
    15
100
AcDbSpline
210
0.0
220
0.0
230
1.0
 70
     8
 71
     3
 72
    10
 73
     6
 74
     0
 42
0.000000001
 43
0.00000001
 40
0.0
 40
0.0
 40
0.0
 40
0.0
 40
0.5
 40
0.5
 40
1.0
 40
1.0
 40
1.0
 40
1.0
 10
233.8742814627163
 20
73.36817453847881
 30
0.0
 10
233.8408914445285
 20
73.36202476927856
 30
0.0
 10
233.8086520931004
 20
73.3534781614305
 30
0.0
 10
233.7486641988381
 20
73.3322421876616
 30
0.0
 10
233.7214023255891
 20
73.31979054165343
 30
0.0
 10
233.6967727596392
 20
73.30557219587658
 30
0.0
  0
LWPOLYLINE
  5
25D
330
1F
100
AcDbEntity
  8
0
  6
Continuous
 62
     7
370
    15
100
AcDbPolyline
 90
       21
 70
   128
 43
0.0
 10
226.4540178757
 20
72.0179884058
 10
226.5088327257
 20
73.3179312258
 10
226.6727325011
 20
74.6682425087
 10
226.9440882923
 20
76.0555022544
 10
227.3202032436
 20
77.4659232522
 10
227.7973393555
 20
78.8854881046
 10
228.3707546351
 20
80.3000885383
 10
229.0347502236
 20
81.6956656188
 10
229.7827270347
 20
83.0583494739
 10
230.6072513386
 20
84.3745971393
 10
231.5001286425
 20
85.6313271544
 10
232.4524851306
 20
86.8160495716
 10
233.4548558561
 20
87.9169900874
 10
234.4972788086
 20
88.9232070602
 10
235.5693939203
 20
89.8247002537
 10
236.6605460296
 20
90.6125102236
 10
237.7598907767
 20
91.2788073604
 10
238.8565023796
 20
91.8169697038
 10
239.9394822194
 20
92.2216487547
 10
240.9980671559
 20
92.4888226309
 10
241.8142576135
 20
92.6012195135
  0
LINE
  5
25E
330
1F
100
AcDbEntity
  8
0
  6
Continuous
 62
     7
370
    15
100
AcDbLine
 10
235.1557888997
 20
65.2795087352
 30
0.0
 11
237.3257846364
 21
64.0267968611
 31
0.0
  0
SPLINE
  5
25F
330
1F
100
AcDbEntity
  8
0
  6
Continuous
 62
     7
370
    15
100
AcDbSpline
210
0.0
220
0.0
230
1.0
 70
     8
 71
     3
 72
    14
 73
    10
 74
     0
 42
0.000000001
 43
0.00000001
 40
0.0
 40
0.0
 40
0.0
 40
0.0
 40
0.1249999999999999
 40
0.1249999999999999
 40
0.2499999999999998
 40
0.2499999999999998
 40
0.4999999999999996
 40
0.4999999999999996
 40
1.0
 40
1.0
 40
1.0
 40
1.0
 10
234.9074794447678
 20
65.9902560413029
 30
0.0
 10
234.9317080227205
 20
65.9762691809695
 30
0.0
 10
234.9547938640864
 20
65.94897041115276
 30
0.0
 10
234.9915362381496
 20
65.89153120284534
 30
0.0
 10
235.0066945378333
 20
65.86038072784295
 30
0.0
 10
235.046257464721
 20
65.7680811876372
 30
0.0
 10
235.0658673379639
 20
65.70584340688166
 30
0.0
 10
235.1166901869188
 20
65.52038764068509
 30
0.0
 10
235.1391218710429
 20
65.39848882038737
 30
0.0
 10
235.1557888997023
 20
65.27950873518878
 30
0.0
  0
LINE
  5
260
330
1F
100
AcDbEntity
  8
0
  6
Continuous
 62
     7
370
    15
100
AcDbLine
 10
234.1225909177
 20
66.4433625434
 30
0.0
 11
234.9074794448
 21
65.9902560413
 31
0.0
  0
SPLINE
  5
261
330
1F
100
AcDbEntity
  8
0
  6
Continuous
 62
     7
370
    15
100
AcDbSpline
210
0.0
220
0.0
230
1.0
 70
     8
 71
     3
 72
    14
 73
    10
 74
     0
 42
0.000000001
 43
0.00000001
 40
0.0
 40
0.0
 40
0.0
 40
0.0
 40
0.5
 40
0.5
 40
0.75
 40
0.75
 40
0.875
 40
0.875
 40
1.0
 40
1.0
 40
1.0
 40
1.0
 10
233.8742814627162
 20
66.01930723150682
 30
0.0
 10
233.89090554417
 20
66.11878697573692
 30
0.0
 10
233.9133229457743
 20
66.21462210913293
 30
0.0
 10
233.963754003623
 20
66.34083805870657
 30
0.0
 10
233.9832886975542
 20
66.38067160740083
 30
0.0
 10
234.0232318548896
 20
66.42793193887267
 30
0.0
 10
234.0382488220553
 20
66.44153455247793
 30
0.0
 10
234.075310189577
 20
66.45675495405365
 30
0.0
 10
234.0982938519253
 20
66.45738894084752
 30
0.0
 10
234.1225909176508
 20
66.44336254336449
 30
0.0
  0
LINE
  5
262
330
1F
100
AcDbEntity
  8
0
  6
Continuous
 62
     7
370
    15
100
AcDbLine
 10
232.7295905587
 20
66.6801232245
 30
0.0
 11
233.8742814627
 21
66.0193072315
 31
0.0
  0
ARC
  5
263
330
1F
100
AcDbEntity
  8
0
  6
Continuous
 62
     7
370
    15
100
AcDbCircle
 10
236.0420278394
 20
71.8585461048
 30
0.0
 40
6.147219230288227
100
AcDbArc
 50
182.6054784857
 51
237.39452166
  0
LINE
  5
264
330
1F
100
AcDbEntity
  8
0
  6
Continuous
 62
     7
370
    15
100
AcDbLine
 10
229.901163434
 20
72.3956435076
 30
0.0
 11
229.901163434
 21
71.5791026957
 31
0.0
  0
ARC
  5
265
330
1F
100
AcDbEntity
  8
0
  6
Continuous
 62
     7
370
    15
100
AcDbCircle
 10
232.4392545424
 20
72.4905655466
 30
0.0
 40
2.539865482349838
100
AcDbArc
 50
153.8439310582
 51
182.1418059751
  0
LINE
  5
266
330
1F
100
AcDbEntity
  8
0
  6
Continuous
 62
     7
370
    15
100
AcDbLine
 10
237.3257846364
 20
64.0267968611
 30
0.0
 11
237.3257846364
 21
65.3902613307
 31
0.0
  0
LINE
  5
267
330
1F
100
AcDbEntity
  8
0
  6
Continuous
 62
     7
370
    15
100
AcDbLine
 10
236.2084578462
 20
63.3817778347
 30
0.0
 11
237.3257846364
 21
64.0267968611
 31
0.0
  0
ARC
  5
268
330
1F
100
AcDbEntity
  8
0
  6
Continuous
 62
     7
370
    15
100
AcDbCircle
 10
241.5327616399
 20
64.6596213748
 30
0.0
 40
5.857028686419388
100
AcDbArc
 50
200.3475411023
 51
255.88047844
  0
SPLINE
  5
269
330
1F
100
AcDbEntity
  8
0
  6
Continuous
 62
     7
370
    15
100
AcDbSpline
210
0.0
220
0.0
230
1.0
 70
     8
 71
     3
 72
    12
 73
     8
 74
     0
 42
0.000000001
 43
0.00000001
 40
0.0
 40
0.0
 40
0.0
 40
0.0
 40
0.2499999999999999
 40
0.2499999999999999
 40
0.4999999999999998
 40
0.4999999999999998
 40
1.0
 40
1.0
 40
1.0
 40
1.0
 10
235.774775010664
 20
63.37634049636839
 30
0.0
 10
235.8030172107364
 20
63.36003662130437
 30
0.0
 10
235.8375633426418
 20
63.34708082789437
 30
0.0
 10
235.9122874023395
 20
63.33036908970183
 30
0.0
 10
235.9525777936412
 20
63.32648218091437
 30
0.0
 10
236.0736908110774
 20
63.32874557880366
 30
0.0
 10
236.1518083734954
 20
63.3490747902304
 30
0.0
 10
236.2084578462309
 20
63.38177783473675
 30
0.0
  0
ARC
  5
26A
330
1F
100
AcDbEntity
  8
0
  6
Continuous
 62
     7
370
    15
100
AcDbCircle
 10
240.5795638768
 20
65.815997228
 30
0.0
 40
6.415185589603828
100
AcDbArc
 50
194.736040306
 51
237.9334224024
  0
LINE
  5
26B
330
1F
100
AcDbEntity
  8
0
  6
Continuous
 62
     7
370
    15
100
AcDbLine
 10
234.375386943
 20
64.1841900322
 30
0.0
 11
235.7747750107
 21
63.3763404964
 31
0.0
  0
SPLINE
  5
26C
330
1F
100
AcDbEntity
  8
0
  6
Continuous
 62
     7
370
    15
100
AcDbSpline
210
0.0
220
0.0
230
1.0
 70
     8
 71
     3
 72
     8
 73
     4
 74
     0
 42
0.000000001
 43
0.00000001
 40
0.0
 40
0.0
 40
0.0
 40
0.0
 40
1.0
 40
1.0
 40
1.0
 40
1.0
 10
234.8021781073393
 20
65.03550231942435
 30
0.0
 10
234.6590134106488
 20
64.75188027241735
 30
0.0
 10
234.5168247137962
 20
64.46809712643334
 30
0.0
 10
234.3753869430411
 20
64.18419003224626
 30
0.0
  0
LINE
  5
26D
330
1F
100
AcDbEntity
  8
0
  6
Continuous
 62
     7
370
    15
100
AcDbLine
 10
235.0473467117
 20
65.1770351421
 30
0.0
 11
234.8021781073
 21
65.0355023194
 31
0.0
  0
SPLINE
  5
26E
330
1F
100
AcDbEntity
  8
0
  6
Continuous
 62
     7
370
    15
100
AcDbSpline
210
0.0
220
0.0
230
1.0
 70
     8
 71
     3
 72
    10
 73
     6
 74
     0
 42
0.000000001
 43
0.00000001
 40
0.0
 40
0.0
 40
0.0
 40
0.0
 40
0.5
 40
0.5
 40
1.0
 40
1.0
 40
1.0
 40
1.0
 10
235.1557888997024
 20
65.27950873518888
 30
0.0
 10
235.1451360327325
 20
65.26023308798273
 30
0.0
 10
235.1303312695803
 20
65.24162170655767
 30
0.0
 10
235.0935454982494
 20
65.20699143232606
 30
0.0
 10
235.0719762776554
 20
65.19125348789096
 30
0.0
 10
235.0473467117055
 20
65.17703514211408
 30
0.0
  0
SPLINE
  5
26F
330
1F
100
AcDbEntity
  8
0
  6
Continuous
 62
     7
370
    15
100
AcDbSpline
210
0.0
220
0.0
230
1.0
 70
     8
 71
     3
 72
    14
 73
    10
 74
     0
 42
0.000000001
 43
0.00000001
 40
0.0
 40
0.0
 40
0.0
 40
0.0
 40
0.5
 40
0.5
 40
0.75
 40
0.75
 40
0.875
 40
0.875
 40
1.0
 40
1.0
 40
1.0
 40
1.0
 10
219.2344796430236
 20
76.67456808232556
 30
0.0
 10
219.5496455868635
 20
76.4474800914297
 30
0.0
 10
219.8659212421294
 20
76.21763371638156
 30
0.0
 10
220.3447457307005
 20
75.86232511439243
 30
0.0
 10
220.5050657411246
 20
75.74218680019689
 30
0.0
 10
220.7481182770783
 20
75.55591796595309
 30
0.0
 10
220.8295617150949
 20
75.49282472472606
 30
0.0
 10
220.9942231641282
 20
75.36247948231392
 30
0.0
 10
221.0771291821945
 20
75.29595504033668
 30
0.0
 10
221.1631480102792
 20
75.22216156901311
 30
0.0
  0
SPLINE
  5
270
330
1F
100
AcDbEntity
  8
0
  6
Continuous
 62
     7
370
    15
100
AcDbSpline
210
0.0
220
0.0
230
1.0
 70
     8
 71
     3
 72
     8
 73
     4
 74
     0
 42
0.000000001
 43
0.00000001
 40
0.0
 40
0.0
 40
0.0
 40
0.0
 40
1.0
 40
1.0
 40
1.0
 40
1.0
 10
221.1631480102792
 20
75.22216156901311
 30
0.0
 10
221.4648004835167
 20
74.9633812109313
 30
0.0
 10
221.7700800270401
 20
74.71580619552665
 30
0.0
 10
222.0747396001667
 20
74.47483333896012
 30
0.0
  0
SPLINE
  5
271
330
1F
100
AcDbEntity
  8
0
  6
Continuous
 62
     7
370
    15
100
AcDbSpline
210
0.0
220
0.0
230
1.0
 70
     8
 71
     3
 72
    14
 73
    10
 74
     0
 42
0.000000001
 43
0.00000001
 40
0.0
 40
0.0
 40
0.0
 40
0.0
 40
0.1250000000000009
 40
0.1250000000000009
 40
0.2500000000000018
 40
0.2500000000000018
 40
0.5000000000000037
 40
0.5000000000000037
 40
1.0
 40
1.0
 40
1.0
 40
1.0
 10
222.0747396001668
 20
74.47483333896008
 30
0.0
 10
222.0939349760923
 20
74.45965060722388
 30
0.0
 10
222.1115470494927
 20
74.4482827887271
 30
0.0
 10
222.137391979412
 20
74.43701431951465
 30
0.0
 10
222.1455303436596
 20
74.43663084927759
 30
0.0
 10
222.1624804346277
 20
74.44240664197198
 30
0.0
 10
222.1646497071374
 20
74.45507206759001
 30
0.0
 10
222.1634741593229
 20
74.49950889463379
 30
0.0
 10
222.1514006387187
 20
74.53999216540723
 30
0.0
 10
222.1366224106786
 20
74.58399583528973
 30
0.0
  0
SPLINE
  5
272
330
1F
100
AcDbEntity
  8
0
  6
Continuous
 62
     7
370
    15
100
AcDbSpline
210
0.0
220
0.0
230
1.0
 70
     8
 71
     3
 72
    14
 73
    10
 74
     0
 42
0.000000001
 43
0.00000001
 40
0.0
 40
0.0
 40
0.0
 40
0.0
 40
0.25
 40
0.25
 40
0.5
 40
0.5
 40
0.75
 40
0.75
 40
1.0
 40
1.0
 40
1.0
 40
1.0
 10
222.1366224106779
 20
74.58399583529042
 30
0.0
 10
222.1185661637314
 20
74.63776013827719
 30
0.0
 10
222.1156433656302
 20
74.68231074737425
 30
0.0
 10
222.1102296370869
 20
74.77457209721895
 30
0.0
 10
222.1086623590457
 20
74.82186650013921
 30
0.0
 10
222.0985239592386
 20
74.92662755496698
 30
0.0
 10
222.0902089614944
 20
74.983888762002
 30
0.0
 10
222.0614087868355
 20
75.11351011937641
 30
0.0
 10
222.040755390165
 20
75.18630431898947
 30
0.0
 10
222.0120658730039
 20
75.26599101794923
 30
0.0
  0
ARC
  5
273
330
1F
100
AcDbEntity
  8
0
  6
Continuous
 62
     7
370
    15
100
AcDbCircle
 10
232.3670331504
 20
78.3525525159
 30
0.0
 40
10.80519362138085
100
AcDbArc
 50
163.4019732888
 51
196.5980267112
  0
SPLINE
  5
274
330
1F
100
AcDbEntity
  8
0
  6
Continuous
 62
     7
370
    15
100
AcDbSpline
210
0.0
220
0.0
230
1.0
 70
     8
 71
     3
 72
    14
 73
    10
 74
     0
 42
0.000000001
 43
0.00000001
 40
0.0
 40
0.0
 40
0.0
 40
0.0
 40
0.25
 40
0.25
 40
0.5
 40
0.5
 40
0.75
 40
0.75
 40
1.0
 40
1.0
 40
1.0
 40
1.0
 10
222.1366224106779
 20
82.90031903021341
 30
0.0
 10
222.1185661637314
 20
82.77947695126885
 30
0.0
 10
222.1156433656302
 20
82.65438268470274
 30
0.0
 10
222.1102296370869
 20
82.40643137405138
 30
0.0
 10
222.1086623590457
 20
82.28252274973762
 30
0.0
 10
222.0985239592386
 20
82.03636701049741
 30
0.0
 10
222.0902089614944
 20
81.91407906863601
 30
0.0
 10
222.0614087868355
 20
81.67208189142721
 30
0.0
 10
222.040755390165
 20
81.55192492424763
 30
0.0
 10
222.0120658730039
 20
81.43911401384236
 30
0.0
  0
SPLINE
  5
275
330
1F
100
AcDbEntity
  8
0
  6
Continuous
 62
     7
370
    15
100
AcDbSpline
210
0.0
220
0.0
230
1.0
 70
     8
 71
     3
 72
    14
 73
    10
 74
     0
 42
0.000000001
 43
0.00000001
 40
0.0
 40
0.0
 40
0.0
 40
0.0
 40
0.1250000000000006
 40
0.1250000000000006
 40
0.2500000000000012
 40
0.2500000000000012
 40
0.4999999999999997
 40
0.4999999999999997
 40
1.0
 40
1.0
 40
1.0
 40
1.0
 10
222.0747396001669
 20
83.44560459450742
 30
0.0
 10
222.0939349760924
 20
83.44331778653358
 30
0.0
 10
222.1115470494928
 20
83.43181954726076
 30
0.0
 10
222.137391979412
 20
83.39512804473425
 30
0.0
 10
222.1455303436597
 20
83.37204662963217
 30
0.0
 10
222.1624804346277
 20
83.30071411055508
 30
0.0
 10
222.1646497071374
 20
83.24947000494701
 30
0.0
 10
222.1634741593229
 20
83.09943452518542
 30
0.0
 10
222.1514006387187
 20
82.99922285030236
 30
0.0
 10
222.1366224106786
 20
82.90031903021374
 30
0.0
  0
SPLINE
  5
276
330
1F
100
AcDbEntity
  8
0
  6
Continuous
 62
     7
370
    15
100
AcDbSpline
210
0.0
220
0.0
230
1.0
 70
     8
 71
     3
 72
     8
 73
     4
 74
     0
 42
0.000000001
 43
0.00000001
 40
0.0
 40
0.0
 40
0.0
 40
0.0
 40
1.0
 40
1.0
 40
1.0
 40
1.0
 10
221.1631480102792
 20
83.49781740564349
 30
0.0
 10
221.4648004835167
 20
83.50516365278659
 30
0.0
 10
221.7700800270402
 20
83.48189968681666
 30
0.0
 10
222.0747396001669
 20
83.44560459450742
 30
0.0
  0
SPLINE
  5
277
330
1F
100
AcDbEntity
  8
0
  6
Continuous
 62
     7
370
    15
100
AcDbSpline
210
0.0
220
0.0
230
1.0
 70
     8
 71
     3
 72
    14
 73
    10
 74
     0
 42
0.000000001
 43
0.00000001
 40
0.0
 40
0.0
 40
0.0
 40
0.0
 40
0.5
 40
0.5
 40
0.75
 40
0.75
 40
0.875
 40
0.875
 40
1.0
 40
1.0
 40
1.0
 40
1.0
 10
219.2344796430236
 20
84.1304567506285
 30
0.0
 10
219.5496455868635
 20
83.99307225690237
 30
0.0
 10
219.8659212421294
 20
83.8614987492712
 30
0.0
 10
220.3447457307005
 20
83.68660328275044
 30
0.0
 10
220.5050657411246
 20
83.63193213248591
 30
0.0
 10
220.7481182770783
 20
83.56290031676586
 30
0.0
 10
220.8295617150949
 20
83.54203803225707
 30
0.0
 10
220.9942231641282
 20
83.50923031882743
 30
0.0
 10
221.0771291821945
 20
83.4957225593348
 30
0.0
 10
221.1631480102792
 20
83.49781740564347
 30
0.0
  0
SPLINE
  5
278
330
1F
100
AcDbEntity
  8
0
  6
Continuous
 62
     7
370
    15
100
AcDbSpline
210
0.0
220
0.0
230
1.0
 70
     8
 71
     3
 72
     8
 73
     4
 74
     0
 42
0.000000001
 43
0.00000001
 40
0.0000005163856998
 40
0.0000005163856998
 40
0.0000005163856998
 40
0.0000005163856998
 40
0.000026289209185
 40
0.000026289209185
 40
0.000026289209185
 40
0.000026289209185
 10
219.2344580560044
 20
84.14333586181966
 30
0.0
 10
219.2344557548451
 20
84.13904302679315
 30
0.0
 10
219.2344630011694
 20
84.13474995911761
 30
0.0
 10
219.2344796430236
 20
84.1304567506285
 30
0.0
  0
LINE
  5
279
330
1F
100
AcDbEntity
  8
0
  6
Continuous
 62
     7
370
    15
100
AcDbLine
 10
231.9427852481
 20
94.7118621191
 30
0.0
 11
232.0986334522
 21
94.6385524528
 31
0.0
  0
LINE
  5
27A
330
1F
100
AcDbEntity
  8
0
  6
Continuous
 62
     7
370
    15
100
AcDbLine
 10
220.716935639
 20
74.9227373144
 30
0.0
 11
220.5383769077
 21
75.0484531783
 31
0.0
  0
SPLINE
  5
27B
330
1F
100
AcDbEntity
  8
0
  6
Continuous
 62
     7
370
    15
100
AcDbSpline
210
0.0
220
0.0
230
1.0
 70
     8
 71
     3
 72
     8
 73
     4
 74
     0
 42
0.000000001
 43
0.00000001
 40
0.0000005163857002
 40
0.0000005163857002
 40
0.0000005163857002
 40
0.0000005163857002
 40
0.0000262892091854
 40
0.0000262892091854
 40
0.0000262892091854
 40
0.0000262892091854
 10
219.2344580560044
 20
76.66986480995992
 30
0.0
 10
219.2344557548451
 20
76.67143819565763
 30
0.0
 10
219.2344630011694
 20
76.6730059255898
 30
0.0
 10
219.2344796430236
 20
76.67456808232558
 30
0.0
  0
SPLINE
  5
27C
330
1F
100
AcDbEntity
  8
0
  6
Continuous
 62
     7
370
    15
100
AcDbSpline
210
0.0
220
0.0
230
1.0
 70
     8
 71
     3
 72
    18
 73
    14
 74
     0
 42
0.000000001
 43
0.00000001
 40
0.0
 40
0.0
 40
0.0
 40
0.0
 40
0.1235492807640924
 40
0.2477732828371928
 40
0.3719746132098429
 40
0.4954692587476999
 40
0.6179103729717076
 40
0.6794994503927206
 40
0.740291730785128
 40
0.8009968569533003
 40
0.8629761504563089
 40
0.9858515841765138
 40
1.0
 40
1.0
 40
1.0
 40
1.0
 10
224.9233318437773
 20
74.79688539023267
 30
0.0
 10
224.790284342412
 20
75.04181985889085
 30
0.0
 10
224.523462747153
 20
75.53302642038672
 30
0.0
 10
224.398764959289
 20
76.2850481324061
 30
0.0
 10
224.5345877653735
 20
76.9097371491915
 30
0.0
 10
224.9016610225293
 20
77.32660520554488
 30
0.0
 10
225.3443000134982
 20
77.42059161421354
 30
0.0
 10
225.7205242445242
 20
77.3386504216155
 30
0.0
 10
226.0027502823912
 20
77.19637795441393
 30
0.0
 10
226.2751193125805
 20
76.97968771286642
 30
0.0
 10
226.6014366019472
 20
76.60191710822998
 30
0.0
 10
226.8556688430465
 20
76.22098423484368
 30
0.0
 10
226.9469609041492
 20
75.92791735060669
 30
0.0
 10
226.95638727807
 20
75.89765669046551
 30
0.0
  0
SPLINE
  5
27D
330
1F
100
AcDbEntity
  8
0
  6
Continuous
 62
     7
370
    15
100
AcDbSpline
210
0.0
220
0.0
230
1.0
 70
     8
 71
     3
 72
    13
 73
     9
 74
     0
 42
0.000000001
 43
0.00000001
 40
0.0
 40
0.0
 40
0.0
 40
0.0
 40
0.047389494365545
 40
0.2074786318889325
 40
0.3649289357984159
 40
0.5224966335290978
 40
0.682338901805423
 40
1.0
 40
1.0
 40
1.0
 40
1.0
 10
226.5723041117874
 20
73.46903702588381
 30
0.0
 10
226.5524726103838
 20
73.46511860930957
 30
0.0
 10
226.4656471898002
 20
73.44796316756283
 30
0.0
 10
226.2624071220124
 20
73.53395735396141
 30
0.0
 10
225.995016608482
 20
73.67054816439848
 30
0.0
 10
225.7119919996913
 20
73.88160565895667
 30
0.0
 10
225.332329327588
 20
74.22960150958242
 30
0.0
 10
225.0867226838355
 20
74.57026054905438
 30
0.0
 10
224.9233318437773
 20
74.79688539023269
 30
0.0
  0
ARC
  5
27E
330
1F
100
AcDbEntity
  8
0
  6
Continuous
 62
     7
370
    15
100
AcDbCircle
 10
239.642367271
 20
67.8192122047
 30
0.0
 40
6.507051930970099
100
AcDbArc
 50
197.9375221261
 51
217.5315090976
  0
SPLINE
  5
27F
330
1F
100
AcDbEntity
  8
0
  6
Continuous
 62
     7
370
    15
100
AcDbSpline
210
0.0
220
0.0
230
1.0
 70
     8
 71
     3
 72
     8
 73
     4
 74
     0
 42
0.000000001
 43
0.00000001
 40
0.0
 40
0.0
 40
0.0
 40
0.0
 40
1.0
 40
1.0
 40
1.0
 40
1.0
 10
231.9769282365658
 20
65.56879077143898
 30
0.0
 10
232.4687230353178
 20
65.65044105852073
 30
0.0
 10
232.9603031262205
 20
65.73252484601116
 30
0.0
 10
233.451604155273
 20
65.81517206621506
 30
0.0
  0
LINE
  5
280
330
1F
100
AcDbEntity
  8
0
  6
Continuous
 62
     7
370
    15
100
AcDbLine
 10
233.4516041553
 20
65.8151720662
 30
0.0
 11
233.6967727596
 21
65.9567048889
 31
0.0
  0
SPLINE
  5
281
330
1F
100
AcDbEntity
  8
0
  6
Continuous
 62
     7
370
    15
100
AcDbSpline
210
0.0
220
0.0
230
1.0
 70
     8
 71
     3
 72
    10
 73
     6
 74
     0
 42
0.000000001
 43
0.00000001
 40
0.0
 40
0.0
 40
0.0
 40
0.0
 40
0.5
 40
0.5
 40
1.0
 40
1.0
 40
1.0
 40
1.0
 10
233.6967727596392
 20
65.95670488890481
 30
0.0
 10
233.7216050629911
 20
65.97104027249266
 30
0.0
 10
233.7492800604846
 20
65.98363571262875
 30
0.0
 10
233.8094050699391
 20
66.00483361076903
 30
0.0
 10
233.8410994701338
 20
66.0131957764357
 30
0.0
 10
233.8742814627155
 20
66.01930723150693
 30
0.0
  0
SPLINE
  5
282
330
1F
100
AcDbEntity
  8
0
  6
Continuous
 62
     7
370
    15
100
AcDbSpline
210
0.0
220
0.0
230
1.0
 70
     8
 71
     3
 72
    16
 73
    12
 74
     0
 42
0.000000001
 43
0.00000001
 40
0.0
 40
0.0
 40
0.0
 40
0.0
 40
0.093388281139889
 40
0.2188777942877654
 40
0.3480348289749201
 40
0.473158463775889
 40
0.6018170985792333
 40
0.728655231553267
 40
0.8590961075103746
 40
0.987163561653947
 40
1.0
 40
1.0
 40
1.0
 40
1.0
 10
225.9324707095976
 20
77.14893409834364
 30
0.0
 10
225.9222015765136
 20
77.09139920935527
 30
0.0
 10
225.8981334046697
 20
76.95655242298494
 30
0.0
 10
225.9113576404868
 20
76.71754304181434
 30
0.0
 10
225.9631749303552
 20
76.44802609611631
 30
0.0
 10
226.0580551448717
 20
76.17087994047365
 30
0.0
 10
226.1889574078901
 20
75.89818116665393
 30
0.0
 10
226.3539176001873
 20
75.62992399239336
 30
0.0
 10
226.5460533763084
 20
75.38039761258989
 30
0.0
 10
226.6924332124389
 20
75.21167601689787
 30
0.0
 10
226.7736880446141
 20
75.13793779097333
 30
0.0
 10
226.7810904138823
 20
75.13122018953518
 30
0.0
  0
LINE
  5
283
330
1F
100
AcDbEntity
  8
0
  6
Continuous
 62
     7
370
    15
100
AcDbLine
 10
253.6955267057
 20
87.1160705245
 30
0.0
 11
255.0949147733
 21
86.3082209886
 31
0.0
  0
SPLINE
  5
284
330
1F
100
AcDbEntity
  8
0
  6
Continuous
 62
     7
370
    15
100
AcDbSpline
210
0.0
220
0.0
230
1.0
 70
     8
 71
     3
 72
    12
 73
     8
 74
     0
 42
0.000000001
 43
0.00000001
 40
0.0
 40
0.0
 40
0.0
 40
0.0
 40
0.250000000000002
 40
0.250000000000002
 40
0.500000000000004
 40
0.500000000000004
 40
1.0
 40
1.0
 40
1.0
 40
1.0
 10
255.094914773331
 20
86.30822098858323
 30
0.0
 10
255.1271587442036
 20
86.28960694040961
 30
0.0
 10
255.1492117467372
 20
86.26535661761221
 30
0.0
 10
255.1700606909022
 20
86.21476875972466
 30
0.0
 10
255.1696795216749
 20
86.1879301912906
 30
0.0
 10
255.1439265887776
 20
86.11069607502179
 30
0.0
 10
255.0959751616689
 20
86.06391070419396
 30
0.0
 10
255.0320751125337
 20
86.02702199102649
 30
0.0
  0
SPLINE
  5
285
330
1F
100
AcDbEntity
  8
0
  6
Continuous
 62
     7
370
    15
100
AcDbSpline
210
0.0
220
0.0
230
1.0
 70
     8
 71
     3
 72
    12
 73
     8
 74
     0
 42
0.000000001
 43
0.00000001
 40
0.0
 40
0.0
 40
0.0
 40
0.0
 40
0.1920436536048728
 40
0.3691797943745673
 40
0.6779499358158856
 40
0.9542164327749222
 40
1.0
 40
1.0
 40
1.0
 40
1.0
 10
225.2146002986868
 20
74.97980929295449
 30
0.0
 10
225.2941567141452
 20
74.86540284120315
 30
0.0
 10
225.4470939268508
 20
74.64547081252189
 30
0.0
 10
225.7719103324411
 20
74.29164554002257
 30
0.0
 10
226.1566950004984
 20
73.98741517052684
 30
0.0
 10
226.4541131408834
 20
73.82081711376199
 30
0.0
 10
226.5813566141704
 20
73.80433574641968
 30
0.0
 10
226.5994459138199
 20
73.8019927076391
 30
0.0
  0
SPLINE
  5
286
330
1F
100
AcDbEntity
  8
0
  6
Continuous
 62
     7
370
    15
100
AcDbSpline
210
0.0
220
0.0
230
1.0
 70
     8
 71
     3
 72
    17
 73
    13
 74
     0
 42
0.000000001
 43
0.00000001
 40
0.0
 40
0.0
 40
0.0
 40
0.0
 40
0.028932352013647
 40
0.1765440568850326
 40
0.2609495148009982
 40
0.3522983217303419
 40
0.45610589750856
 40
0.5447565721167829
 40
0.6761078894429817
 40
0.8084243056507009
 40
0.8968645972692273
 40
1.0
 40
1.0
 40
1.0
 40
1.0
 10
226.2579163794905
 20
76.97816275018289
 30
0.0
 10
226.2306479861361
 20
77.00421467723609
 30
0.0
 10
226.0642573385574
 20
77.16318249601123
 30
0.0
 10
225.776475432954
 20
77.24167048187272
 30
0.0
 10
225.4562010190603
 20
77.24531316310441
 30
0.0
 10
225.202257630508
 20
77.15426051286187
 30
0.0
 10
224.9937796764654
 20
76.97345940903584
 30
0.0
 10
224.8306857495163
 20
76.6813322586694
 30
0.0
 10
224.7536832854131
 20
76.27154397063786
 30
0.0
 10
224.8290777176176
 20
75.80694722328629
 30
0.0
 10
224.9878225610033
 20
75.36500738475307
 30
0.0
 10
225.1352384642052
 20
75.11461100460492
 30
0.0
 10
225.2146002986868
 20
74.97980929295449
 30
0.0
  0
SPLINE
  5
287
330
1F
100
AcDbEntity
  8
0
  6
Continuous
 62
     7
370
    15
100
AcDbSpline
210
0.0
220
0.0
230
1.0
 70
     8
 71
     3
 72
     9
 73
     5
 74
     0
 42
0.000000001
 43
0.00000001
 40
0.0
 40
0.0
 40
0.0
 40
0.0
 40
0.8783942013000126
 40
1.0
 40
1.0
 40
1.0
 40
1.0
 10
251.2970679992328
 20
88.50067126365383
 30
0.0
 10
251.2455768009527
 20
88.42202281044575
 30
0.0
 10
251.1869571081042
 20
88.33248618430267
 30
0.0
 10
251.125657890324
 20
88.24355347687825
 30
0.0
 10
251.1182035499862
 20
88.23273874396135
 30
0.0
  0
LINE
  5
288
330
1F
100
AcDbEntity
  8
0
  6
Continuous
 62
     7
370
    15
100
AcDbLine
 10
221.0264463814
 20
78.8771373497
 30
0.0
 11
221.5746183236
 21
78.5606844234
 31
0.0
  0
SPLINE
  5
289
330
1F
100
AcDbEntity
  8
0
  6
Continuous
 62
     7
370
    15
100
AcDbSpline
210
0.0
220
0.0
230
1.0
 70
     8
 71
     3
 72
    10
 73
     6
 74
     0
 42
0.000000001
 43
0.00000001
 40
0.0
 40
0.0
 40
0.0
 40
0.0
 40
0.0840381716605291
 40
0.7011125076932428
 40
1.0
 40
1.0
 40
1.0
 40
1.0
 10
219.2361451694946
 20
84.60312823011121
 30
0.0
 10
219.2356038546813
 20
84.60957420357504
 30
0.0
 10
219.2310877808697
 20
84.66335158271663
 30
0.0
 10
219.2454265073284
 20
84.74615158495767
 30
0.0
 10
219.2659753105438
 20
84.82778016934617
 30
0.0
 10
219.2726805902541
 20
84.8544163916576
 30
0.0
  0
SPLINE
  5
28A
330
1F
100
AcDbEntity
  8
0
  6
Continuous
 62
     7
370
    15
100
AcDbSpline
210
0.0
220
0.0
230
1.0
 70
     8
 71
     3
 72
    10
 73
     6
 74
     0
 42
0.000000001
 43
0.00000001
 40
0.0
 40
0.0
 40
0.0
 40
0.0
 40
0.5
 40
0.5
 40
1.0
 40
1.0
 40
1.0
 40
1.0
 10
219.2889169932224
 20
84.65927804094135
 30
0.0
 10
219.2689909427258
 20
84.57531756692333
 30
0.0
 10
219.2556966785848
 20
84.48987170440955
 30
0.0
 10
219.2384281524441
 20
84.31745823347227
 30
0.0
 10
219.2345046978221
 20
84.23034662720596
 30
0.0
 10
219.2344580560044
 20
84.14333586181966
 30
0.0
  0
SPLINE
  5
28B
330
1F
100
AcDbEntity
  8
0
  6
Continuous
 62
     7
370
    15
100
AcDbSpline
210
0.0
220
0.0
230
1.0
 70
     8
 71
     3
 72
    24
 73
    20
 74
     0
 42
0.000000001
 43
0.00000001
 40
0.0
 40
0.0
 40
0.0
 40
0.0
 40
0.24999999999998
 40
0.24999999999998
 40
0.3749999999999705
 40
0.3749999999999705
 40
0.4374999999999656
 40
0.4374999999999656
 40
0.4687499999999649
 40
0.4687499999999649
 40
0.4999999999999643
 40
0.4999999999999643
 40
0.5624999999999676
 40
0.5624999999999676
 40
0.6249999999999709
 40
0.6249999999999709
 40
0.7499999999999798
 40
0.7499999999999798
 40
1.0
 40
1.0
 40
1.0
 40
1.0
 10
219.2726805902541
 20
84.85441639165758
 30
0.0
 10
219.3025216195393
 20
84.96169544821383
 30
0.0
 10
219.3323511595803
 20
85.0675800215845
 30
0.0
 10
219.3770223164516
 20
85.21752806483477
 30
0.0
 10
219.3919751085434
 20
85.26652832759771
 30
0.0
 10
219.4135582468327
 20
85.32967860950045
 30
0.0
 10
219.4206879583624
 20
85.34931879372897
 30
0.0
 10
219.4295395836639
 20
85.36702872321698
 30
0.0
 10
219.4321776809337
 20
85.37074508970265
 30
0.0
 10
219.4353302189787
 20
85.36859674132047
 30
0.0
 10
219.4357101801155
 20
85.3624343322539
 30
0.0
 10
219.4337002548547
 20
85.33378924890116
 30
0.0
 10
219.4291236132563
 20
85.30548824391296
 30
0.0
 10
219.4191922271499
 20
85.24910923376368
 30
0.0
 10
219.4135020414149
 20
85.21963948580763
 30
0.0
 10
219.3959204407963
 20
85.1317850652413
 30
0.0
 10
219.383239567868
 20
85.07256007219196
 30
0.0
 10
219.3439985042477
 20
84.89406676506218
 30
0.0
 10
219.3166950442112
 20
84.77632373088846
 30
0.0
 10
219.2889169932224
 20
84.65927804094136
 30
0.0
  0
ARC
  5
28C
330
1F
100
AcDbEntity
  8
0
  6
Continuous
 62
     7
370
    15
100
AcDbCircle
 10
219.9515950302
 20
84.0646686071
 30
0.0
 40
0.7201267655272071
100
AcDbArc
 50
174.7583590299
 51
234.4349468916
  0
ARC
  5
28D
330
1F
100
AcDbEntity
  8
0
  6
Continuous
 62
     7
370
    15
100
AcDbCircle
 10
221.4469289753
 20
76.5647722297
 30
0.0
 40
2.215172042338939
100
AcDbArc
 50
122.6235698332
 51
177.1589486026
  0
LINE
  5
28E
330
1F
100
AcDbEntity
  8
0
  6
Continuous
 62
     7
370
    15
100
AcDbLine
 10
220.2526914047
 20
78.4304581095
 30
0.0
 11
221.0264463814
 21
78.8771373497
 31
0.0
  0
SPLINE
  5
28F
330
1F
100
AcDbEntity
  8
0
  6
Continuous
 62
     7
370
    15
100
AcDbSpline
210
0.0
220
0.0
230
1.0
 70
     8
 71
     3
 72
    10
 73
     6
 74
     0
 42
0.000000001
 43
0.00000001
 40
0.0
 40
0.0
 40
0.0
 40
0.0
 40
0.5
 40
0.5
 40
1.0
 40
1.0
 40
1.0
 40
1.0
 10
219.2889169932224
 20
76.47462242523738
 30
0.0
 10
219.2689909427258
 20
76.51314398675405
 30
0.0
 10
219.2556966785848
 20
76.54510731394785
 30
0.0
 10
219.2384281524441
 20
76.60755073744629
 30
0.0
 10
219.2345046978221
 20
76.63797411465934
 30
0.0
 10
219.2344580560044
 20
76.6698648099599
 30
0.0
  0
SPLINE
  5
290
330
1F
100
AcDbEntity
  8
0
  6
Continuous
 62
     7
370
    15
100
AcDbSpline
210
0.0
220
0.0
230
1.0
 70
     8
 71
     3
 72
     9
 73
     5
 74
     0
 42
0.000000001
 43
0.00000001
 40
0.0
 40
0.0
 40
0.0
 40
0.0
 40
0.5797035953941574
 40
1.0
 40
1.0
 40
1.0
 40
1.0
 10
219.2448246219205
 20
77.27173498642945
 30
0.0
 10
219.2413024417048
 20
77.24448925441583
 30
0.0
 10
219.2352266121882
 20
77.19748983569548
 30
0.0
 10
219.2351831708894
 20
77.15105119136649
 30
0.0
 10
219.2351649126677
 20
77.13153319612024
 30
0.0
  0
ARC
  5
291
330
1F
100
AcDbEntity
  8
0
  6
Continuous
 62
     7
370
    15
100
AcDbCircle
 10
220.5815502206
 20
77.0594298446
 30
0.0
 40
1.353480254557401
100
AcDbArc
 50
122.9135798094
 51
170.9753897871
  0
LINE
  5
292
330
1F
100
AcDbEntity
  8
0
  6
Continuous
 62
     7
370
    15
100
AcDbLine
 10
220.2526914047
 20
78.4304581095
 30
0.0
 11
219.8461050055
 21
78.1956644748
 31
0.0
  0
LINE
  5
293
330
1F
100
AcDbEntity
  8
0
  6
Continuous
 62
     7
370
    15
100
AcDbLine
 10
219.3436989329
 20
76.3795536689
 30
0.0
 11
219.2889169932
 21
76.4746224252
 31
0.0
  0
LWPOLYLINE
  5
294
330
1F
100
AcDbEntity
  8
0
  6
Continuous
 62
     7
370
     0
100
AcDbPolyline
 90
       28
 70
   128
 43
0.0
 10
256.8248572622
 20
86.409951646
 10
255.4877435369
 20
85.5758292519
 10
254.1593015071
 20
84.6226703198
 10
252.8481466293
 20
83.5566564513
 10
251.5627822459
 20
82.3847011554
 10
250.3115444382
 20
81.1144050118
 10
249.1025479635
 20
79.7540063785
 10
247.943633628
 20
78.3123279626
 10
246.8423174357
 20
76.798719602
 10
245.8057418448
 20
75.2229976276
 10
244.8406294458
 20
73.5953812011
 10
243.9532393629
 20
71.9264260396
 10
243.1493266613
 20
70.2269559578
 10
242.4341050234
 20
68.5079926712
 10
241.8122129359
 20
66.7806843165
 10
241.2876836077
 20
65.056233151
 10
240.8639188128
 20
63.3458229024
 10
240.5436668285
 20
61.6605462374
 10
240.3290046117
 20
60.011332822
 10
240.2213243293
 20
58.4088784379
 10
240.2213243293
 20
56.8635756168
 10
240.3290046117
 20
55.3854462404
 10
240.5436668285
 20
53.9840765449
 10
240.8639188128
 20
52.6685549506
 10
241.2876836077
 20
51.4474131199
 10
241.8122129359
 20
50.328570626
 10
242.4341050234
 20
49.3192835919
 10
242.7706639994
 20
48.8698848717
  0
LWPOLYLINE
  5
295
330
1F
100
AcDbEntity
  8
0
  6
Continuous
 62
     7
370
     0
100
AcDbPolyline
 90
        8
 70
   128
 43
0.0
 10
265.705603822
 20
88.566443458
 10
264.5471665609
 20
88.6699949126
 10
263.3381700862
 20
88.6345159283
 10
262.0869322786
 20
88.4601636494
 10
260.8015678952
 20
88.1480688172
 10
259.4904130173
 20
87.7002554864
 10
258.1619709876
 20
87.1196278985
 10
256.8248572622
 20
86.409951646
  0
LINE
  5
296
330
1F
100
AcDbEntity
  8
0
  6
Continuous
 62
     7
370
     0
100
AcDbLine
 10
263.3473141841
 20
41.6713238018
 30
0.0
 11
265.0443704589
 21
40.6916340676
 31
0.0
  0
LWPOLYLINE
  5
297
330
1F
100
AcDbEntity
  8
0
  6
Continuous
 62
     7
370
     0
100
AcDbPolyline
 90
       23
 70
   128
 43
0.0
 10
237.8207593833
 20
67.5787692978
 10
237.8746455565
 20
68.7575638076
 10
238.03567231
 20
69.9847536808
 10
238.3019517524
 20
71.2459512382
 10
238.6703620007
 20
72.5263700916
 10
239.1365837816
 20
73.8109985007
 10
239.6951510709
 20
75.0847753718
 10
240.3395151778
 20
76.3327668358
 10
241.0621215225
 20
77.5403413339
 10
241.8544982061
 20
78.6933411591
 10
242.7073553365
 20
79.7782484426
 10
243.6106939437
 20
80.7823436386
 10
244.5539232083
 20
81.6938546489
 10
245.5259846298
 20
82.5020948403
 10
246.5154816767
 20
83.1975883355
 10
247.5108134007
 20
83.7721811093
 10
248.5003104476
 20
84.2191365866
 10
249.472371869
 20
84.5332146232
 10
250.4156011337
 20
84.7107329413
 10
251.3189397409
 20
84.7496103009
 10
252.1717968713
 20
84.6493909004
 10
252.9641735549
 20
84.4112497208
 10
253.3770629792
 20
84.2191145027
  0
LWPOLYLINE
  5
298
330
1F
100
AcDbEntity
  8
0
  6
Continuous
 62
     7
370
     0
100
AcDbPolyline
 90
        9
 70
   128
 43
0.0
 10
240.3808886218
 20
61.7066409382
 10
240.3395151778
 20
61.7328652997
 10
239.6951510709
 20
62.2368898016
 10
239.1365837816
 20
62.8657586078
 10
238.6703620007
 20
63.6120988065
 10
238.3019517524
 20
64.4671602412
 10
238.03567231
 20
65.4209180984
 10
237.8746455565
 20
66.4621904394
 10
237.8207593833
 20
67.5787692978
  0
LINE
  5
299
330
1F
100
AcDbEntity
  8
0
  6
Continuous
 62
     7
370
     0
100
AcDbLine
 10
236.2084578462
 20
70.7306451417
 30
0.0
 11
236.393128089
 21
71.4759676492
 31
0.0
  0
LWPOLYLINE
  5
29A
330
1F
100
AcDbEntity
  8
0
  6
Continuous
 62
     7
370
     0
100
AcDbPolyline
 90
       10
 70
   128
 43
0.0
 10
244.6578038747
 20
84.3358817867
 10
245.210195413
 20
84.756840492
 10
246.3403340731
 20
85.5153866308
 10
247.4739118258
 20
86.1400804775
 10
248.5987176896
 20
86.6241927845
 10
249.702635174
 20
86.9625086592
 10
250.7737727999
 20
87.1513837383
 10
251.8005921953
 20
87.1887834459
 10
252.7720323872
 20
87.0743049095
 10
253.6776289514
 20
86.8091813004
  0
LWPOLYLINE
  5
29B
330
1F
100
AcDbEntity
  8
0
  6
Continuous
 62
     7
370
     0
100
AcDbPolyline
 90
       21
 70
   128
 43
0.0
 10
235.7747750107
 20
70.7252078033
 10
236.1379095466
 20
72.12473981
 10
236.600260677
 20
73.5347351992
 10
237.1573788484
 20
74.9416245225
 10
237.8039024927
 20
76.3318682238
 10
238.5336096256
 20
77.69208694
 10
239.3394777255
 20
79.0091902612
 10
240.2137513163
 20
80.2705027097
 10
241.1480166043
 20
81.463885725
 10
242.1332824504
 20
82.5778544829
 10
243.160066899
 20
83.6016884227
 10
244.2184884293
 20
84.5255344185
 10
245.2983610533
 20
85.3405016042
 10
246.3892923428
 20
86.0387469362
 10
247.4807834439
 20
86.6135506735
 10
248.5623301151
 20
87.0593810466
 10
249.6235238175
 20
87.3719474936
 10
250.6541518845
 20
87.5482419522
 10
251.6442958053
 20
87.5865678079
 10
252.5844266788
 20
87.4865562221
 10
253.465496917
 20
87.2491696816
  0
LWPOLYLINE
  5
29C
330
1F
100
AcDbEntity
  8
0
  6
Continuous
 62
     7
370
     0
100
AcDbPolyline
 90
       22
 70
   128
 43
0.0
 10
237.3257846364
 20
70.0121996985
 10
237.598181421
 20
71.3258105275
 10
237.9776711126
 20
72.6602659219
 10
238.4597686872
 20
73.9997945319
 10
239.0387764427
 20
75.3285650498
 10
239.7078513375
 20
76.6308733134
 10
240.4590858655
 20
77.8913279058
 10
241.2836015118
 20
79.0950320611
 10
242.1716536835
 20
80.2277597219
 10
243.1127468771
 20
81.2761236711
 10
244.0957587203
 20
82.22773375
 10
245.1090714225
 20
83.0713432917
 10
246.1407090804
 20
83.796982041
 10
247.1784792158
 20
84.3960739881
 10
248.2101168736
 20
84.8615387253
 10
249.2234295758
 20
85.1878751265
 10
250.2064414191
 20
85.3712263635
 10
251.1475346127
 20
85.4094254874
 10
252.0355867844
 20
85.3020210395
 10
252.8601024306
 20
85.0502823862
 10
253.6113369587
 20
84.6571847177
 10
253.7838832643
 20
84.5393069459
  0
LWPOLYLINE
  5
29D
330
1F
100
AcDbEntity
  8
0
  6
Continuous
 62
     7
370
     0
100
AcDbPolyline
 90
        3
 70
   128
 43
0.0
 10
255.0320751125
 20
86.027021991
 10
255.4017215463
 20
85.7020566675
 10
255.4067505614
 20
85.6972049246
  0
ARC
  5
29E
330
1F
100
AcDbEntity
  8
0
  6
Continuous
 62
     7
370
     0
100
AcDbCircle
 10
242.87527263
 20
66.1760386287
 30
0.0
 40
5.604842812461349
100
AcDbArc
 50
188.0591958732
 51
242.7280439339
  0
LWPOLYLINE
  5
29F
330
1F
100
AcDbEntity
  8
0
  6
Continuous
 62
     7
370
     0
100
AcDbPolyline
 90
       25
 70
   128
 43
0.0
 10
226.4540178757
 20
71.8955271891
 10
226.5076452464
 20
73.1870367879
 10
226.6680108975
 20
74.5280252874
 10
226.9335704201
 20
75.9055782355
 10
227.301766331
 20
77.3064290441
 10
227.7690527021
 20
78.7170867541
 10
228.3309293103
 20
80.1239659608
 10
228.9819849767
 20
81.5135176481
 10
229.7159496794
 20
82.8723596739
 10
230.5257549369
 20
84.1874056465
 10
231.4036018821
 20
85.4459909544
 10
232.3410363689
 20
86.6359947331
 10
233.3290303907
 20
87.7459565955
 10
234.3580690251
 20
88.7651870023
 10
235.4182420675
 20
89.6838702075
 10
236.4993394719
 20
90.4931587895
 10
237.5909496794
 20
91.1852588569
 10
238.6825598868
 20
91.7535051077
 10
239.7636572912
 20
92.19242502
 10
240.8238303336
 20
92.497791555
 10
241.852868968
 20
92.666663866
 10
242.8408629899
 20
92.6974156204
 10
243.7782974767
 20
92.589750662
 10
244.6561444218
 20
92.3447058631
 10
245.4653096989
 20
91.9650106522
  0
LWPOLYLINE
  5
2A0
330
1F
100
AcDbEntity
  8
0
  6
Continuous
 62
     7
370
     0
100
AcDbPolyline
 90
       10
 70
   128
 43
0.0
 10
229.7165896599
 20
64.6844714872
 10
229.7159496794
 20
64.6848410001
 10
228.9819849767
 20
65.196265418
 10
228.3309293103
 20
65.8341242332
 10
227.7690527021
 20
66.5922745166
 10
227.301766331
 20
67.4634148665
 10
226.9335704201
 20
68.4391557251
 10
226.6680108975
 20
69.5101001746
 10
226.5076452464
 20
70.6659344345
 10
226.4540178757
 20
71.8955271891
  0
LWPOLYLINE
  5
2A1
330
1F
100
AcDbEntity
  8
0
  6
Continuous
 62
     7
370
     0
100
AcDbPolyline
 90
       15
 70
   128
 43
0.0
 10
234.1225909177
 20
72.6574272324
 10
234.4651986685
 20
73.9938360898
 10
234.9116332899
 20
75.3411557314
 10
235.4567395301
 20
76.6838278384
 10
236.094222716
 20
78.0063477601
 10
236.8167214418
 20
79.2934435552
 10
237.6158925758
 20
80.5302523466
 10
238.4825076031
 20
81.7024919515
 10
239.4065591935
 20
82.7966258067
 10
240.3773767617
 20
83.8000192838
 10
241.3837496872
 20
84.7010855886
 10
242.4140567705
 20
85.4894195609
 10
243.4564004293
 20
86.1559178292
 10
244.4987440882
 20
86.692883933
 10
245.2686540716
 20
87.0051679918
  0
LWPOLYLINE
  5
2A2
330
1F
100
AcDbEntity
  8
0
  6
Continuous
 62
     7
370
     0
100
AcDbPolyline
 90
       17
 70
   128
 43
0.0
 10
233.6967727596
 20
73.3055721959
 10
234.0890595765
 20
74.6753780617
 10
234.5844511266
 20
76.0500255436
 10
235.1773249515
 20
77.4139130466
 10
235.8609522152
 20
78.7515610961
 10
236.6275740735
 20
80.047788023
 10
237.4684897328
 20
81.2878822681
 10
238.3741552004
 20
82.4577693516
 10
239.3342916039
 20
83.5441716114
 10
240.3380018519
 20
84.5347588987
 10
241.3738943103
 20
85.4182885187
 10
242.4302120924
 20
86.1847328307
 10
243.4949664938
 20
86.825393056
 10
244.5560730585
 20
87.3329980059
 10
245.6014887316
 20
87.7017866057
 10
246.6193485424
 20
87.92757328
 10
247.5880502275
 20
88.007713763
  0
LINE
  5
2A3
330
1F
100
AcDbEntity
  8
0
  6
Continuous
 62
     7
370
     0
100
AcDbLine
 10
281.9442225293
 20
52.4070904723
 30
0.0
 11
283.6412788041
 21
51.4274007381
 31
0.0
  0
LINE
  5
2A4
330
1F
100
AcDbEntity
  8
0
  6
Continuous
 62
     7
370
     0
100
AcDbLine
 10
228.1036545152
 20
71.3579636964
 30
0.0
 11
229.901163434
 21
72.3956435076
 31
0.0
  0
ARC
  5
2A5
330
1F
100
AcDbEntity
  8
0
  6
Continuous
 62
     7
370
     0
100
AcDbCircle
 10
241.9498528182
 20
64.8433095211
 30
0.0
 40
5.92449922729702
100
AcDbArc
 50
194.2818988664
 51
251.9676706076
  0
LINE
  5
2A6
330
1F
100
AcDbEntity
  8
0
  6
Continuous
 62
     7
370
     0
100
AcDbLine
 10
236.0412071955
 20
62.6230520001
 30
0.0
 11
235.7747750107
 21
63.3763404964
 31
0.0
  0
LWPOLYLINE
  5
2A7
330
1F
100
AcDbEntity
  8
0
  6
Continuous
 62
     7
370
     0
100
AcDbPolyline
 90
       18
 70
   128
 43
0.0
 10
219.234458056
 20
84.1433358618
 10
219.6574613397
 20
85.3459709631
 10
220.1734773534
 20
86.5394840534
 10
220.7756022798
 20
87.7079070301
 10
221.4557802435
 20
88.8356074736
 10
222.2049110919
 20
89.9074977937
 10
223.0129721464
 20
90.9092370883
 10
223.8691522967
 20
91.8274230113
 10
224.7619966434
 20
92.6497710834
 10
225.6795597541
 20
93.365279047
 10
226.6095654822
 20
93.9643740669
 10
227.5395712103
 20
94.439040805
 10
228.4571343211
 20
94.7829286591
 10
229.3499786678
 20
94.9914367275
 10
230.2061588181
 20
95.0617753647
 10
231.0142198726
 20
94.9930035048
 10
231.763350721
 20
94.7860412517
 10
231.9427852481
 20
94.7118621191
  0
ARC
  5
2A8
330
1F
100
AcDbEntity
  8
0
  6
Continuous
 62
     7
370
     0
100
AcDbCircle
 10
223.1844009806
 20
78.5113558655
 30
0.0
 40
4.358111794704792
100
AcDbArc
 50
204.9952627754
 51
232.6163444935
  0
LINE
  5
2A9
330
1F
100
AcDbEntity
  8
0
  6
Continuous
 62
     7
370
     0
100
AcDbLine
 10
228.1036545152
 20
70.5414228845
 30
0.0
 11
229.901163434
 21
71.5791026957
 31
0.0
  0
LINE
  5
2AA
330
1F
100
AcDbEntity
  8
0
  6
Continuous
 62
     7
370
     0
100
AcDbLine
 10
231.3907129673
 20
65.907205643
 30
0.0
 11
232.7295905587
 21
66.6801232245
 31
0.0
  0
LINE
  5
2AB
330
1F
100
AcDbEntity
  8
0
  6
Continuous
 62
     7
370
     0
100
AcDbLine
 10
235.1351316783
 20
65.323397977
 30
0.0
 11
234.9074794448
 21
65.9902560413
 31
0.0
  0
LWPOLYLINE
  5
2AC
330
1F
100
AcDbEntity
  8
0
  6
Continuous
 62
     7
370
     0
100
AcDbPolyline
 90
        3
 70
   128
 43
0.0
 10
234.7406491118
 20
64.9544657481
 10
234.4651986685
 20
65.5025201752
 10
234.1225909177
 20
66.4433625434
  0
LWPOLYLINE
  5
2AD
330
1F
100
AcDbEntity
  8
0
  6
Continuous
 62
     7
370
     0
100
AcDbPolyline
 90
        3
 70
   128
 43
0.0
 10
234.468038039
 20
64.4017590375
 10
234.0843320188
 20
65.0489995077
 10
233.6967727596
 20
65.9567048889
  0
LINE
  5
2AE
330
1F
100
AcDbEntity
  8
0
  6
Continuous
 62
     7
370
     0
100
AcDbLine
 10
250.4441392454
 20
88.9930565525
 30
0.0
 11
249.9031502675
 21
88.6807502632
 31
0.0
  0
ARC
  5
2AF
330
1F
100
AcDbEntity
  8
0
  6
Continuous
 62
     7
370
     0
100
AcDbCircle
 10
222.9968957851
 20
82.6472452504
 30
0.0
 40
1.102095792745696
100
AcDbArc
 50
159.4111972489
 51
213.1915491986
  0
ARC
  5
2B0
330
1F
100
AcDbEntity
  8
0
  6
Continuous
 62
     7
370
     0
100
AcDbCircle
 10
221.6650849762
 20
82.4757604277
 30
0.0
 40
0.634505759733595
100
AcDbArc
 50
41.9989524423
 51
61.7721687695
  0
LINE
  5
2B1
330
1F
100
AcDbEntity
  8
0
  6
Continuous
 62
     7
370
     0
100
AcDbLine
 10
221.9651927485
 20
83.0348068337
 30
0.0
 11
222.0747396002
 21
83.4456045945
 31
0.0
  0
LINE
  5
2B2
330
1F
100
AcDbEntity
  8
0
  6
Continuous
 62
     7
370
     0
100
AcDbLine
 10
221.9651927485
 20
83.0348068337
 30
0.0
 11
221.1631480103
 21
83.4978174056
 31
0.0
  0
LINE
  5
2B3
330
1F
100
AcDbEntity
  8
0
  6
Continuous
 62
     7
370
     0
100
AcDbLine
 10
219.2889169932
 20
84.6592780409
 30
0.0
 11
219.2726805903
 21
84.8544163917
 31
0.0
  0
ARC
  5
2B4
330
1F
100
AcDbEntity
  8
0
  6
Continuous
 62
     7
370
     0
100
AcDbCircle
 10
221.7552327671
 20
74.3821875214
 30
0.0
 40
0.431491200144588
100
AcDbArc
 50
27.8850837496
 51
60.8831993912
  0
ARC
  5
2B5
330
1F
100
AcDbEntity
  8
0
  6
Continuous
 62
     7
370
     0
100
AcDbCircle
 10
223.2049314438
 20
75.1542457171
 30
0.0
 40
1.301173266866331
100
AcDbArc
 50
165.9701785416
 51
197.6766607319
  0
LINE
  5
2B6
330
1F
100
AcDbEntity
  8
0
  6
Continuous
 62
     7
370
     0
100
AcDbLine
 10
221.5734215828
 20
77.6680168067
 30
0.0
 11
220.2526914047
 21
78.4304581095
 31
0.0
  0
LINE
  5
2B7
330
1F
100
AcDbEntity
  8
0
  6
Continuous
 62
     7
370
     0
100
AcDbLine
 10
221.9651927485
 20
74.7591509971
 30
0.0
 11
221.1631480103
 21
75.222161569
 31
0.0
  0
LINE
  5
2B8
330
1F
100
AcDbEntity
  8
0
  6
Continuous
 62
     7
370
     0
100
AcDbLine
 10
221.9651927485
 20
74.7591509971
 30
0.0
 11
222.0747396002
 21
74.474833339
 31
0.0
  0
OLE2FRAME
  5
2B9
330
1F
100
AcDbEntity
  8
0
100
AcDbOle2Frame
 70
     2
  3
Paintbrush-Bild
 10
13.8511154363
 20
38.264191557
 30
0.0
 11
51.6290888628
 21
31.9806341108
 31
0.0
 71
     2
 72
     0
 73
     1
 90
    12928
310
80552BED0767C5B32B40DDAF6807D121434000000000000000006FFBDDFB85D0
310
4940DDAF6807D121434000000000000000006FFBDDFB85D04940416F4BD60AFB
310
3F4000000000000000002BED0767C5B32B40416F4BD60AFB3F40000000000000
310
0000000000000100000000010000010000000100000000000100000000320000
310
D0CF11E0A1B11AE1000000000000000000000000000000003E000300FEFF0900
310
0600000000000000000000000100000001000000000000000010000002000000
310
01000000FEFFFFFF0000000000000000FFFFFFFFFFFFFFFFFFFFFFFFFFFFFFFF
310
FFFFFFFFFFFFFFFFFFFFFFFFFFFFFFFFFFFFFFFFFFFFFFFFFFFFFFFFFFFFFFFF
310
FFFFFFFFFFFFFFFFFFFFFFFFFFFFFFFFFFFFFFFFFFFFFFFFFFFFFFFFFFFFFFFF
310
FFFFFFFFFFFFFFFFFFFFFFFFFFFFFFFFFFFFFFFFFFFFFFFFFFFFFFFFFFFFFFFF
310
FFFFFFFFFFFFFFFFFFFFFFFFFFFFFFFFFFFFFFFFFFFFFFFFFFFFFFFFFFFFFFFF
310
FFFFFFFFFFFFFFFFFFFFFFFFFFFFFFFFFFFFFFFFFFFFFFFFFFFFFFFFFFFFFFFF
310
FFFFFFFFFFFFFFFFFFFFFFFFFFFFFFFFFFFFFFFFFFFFFFFFFFFFFFFFFFFFFFFF
310
FFFFFFFFFFFFFFFFFFFFFFFFFFFFFFFFFFFFFFFFFFFFFFFFFFFFFFFFFFFFFFFF
310
FFFFFFFFFFFFFFFFFFFFFFFFFFFFFFFFFFFFFFFFFFFFFFFFFFFFFFFFFFFFFFFF
310
FFFFFFFFFFFFFFFFFFFFFFFFFFFFFFFFFFFFFFFFFFFFFFFFFFFFFFFFFFFFFFFF
310
FFFFFFFFFFFFFFFFFFFFFFFFFFFFFFFFFFFFFFFFFFFFFFFFFFFFFFFFFFFFFFFF
310
FFFFFFFFFFFFFFFFFFFFFFFFFFFFFFFFFFFFFFFFFFFFFFFFFFFFFFFFFFFFFFFF
310
FFFFFFFFFFFFFFFFFFFFFFFFFFFFFFFFFFFFFFFFFFFFFFFFFFFFFFFFFFFFFFFF
310
FFFFFFFFFFFFFFFFFFFFFFFFFFFFFFFFFFFFFFFFFFFFFFFFFFFFFFFFFFFFFFFF
310
FDFFFFFFFEFFFFFFFEFFFFFFFEFFFFFF05000000060000000700000008000000
310
090000000A0000000B0000000C0000000D0000000E0000000F00000010000000
310
11000000120000001300000014000000150000001600000017000000FEFFFFFF
310
FFFFFFFFFFFFFFFFFFFFFFFFFFFFFFFFFFFFFFFFFFFFFFFFFFFFFFFFFFFFFFFF
310
FFFFFFFFFFFFFFFFFFFFFFFFFFFFFFFFFFFFFFFFFFFFFFFFFFFFFFFFFFFFFFFF
310
FFFFFFFFFFFFFFFFFFFFFFFFFFFFFFFFFFFFFFFFFFFFFFFFFFFFFFFFFFFFFFFF
310
FFFFFFFFFFFFFFFFFFFFFFFFFFFFFFFFFFFFFFFFFFFFFFFFFFFFFFFFFFFFFFFF
310
FFFFFFFFFFFFFFFFFFFFFFFFFFFFFFFFFFFFFFFFFFFFFFFFFFFFFFFFFFFFFFFF
310
FFFFFFFFFFFFFFFFFFFFFFFFFFFFFFFFFFFFFFFFFFFFFFFFFFFFFFFFFFFFFFFF
310
FFFFFFFFFFFFFFFFFFFFFFFFFFFFFFFFFFFFFFFFFFFFFFFFFFFFFFFFFFFFFFFF
310
FFFFFFFFFFFFFFFFFFFFFFFFFFFFFFFFFFFFFFFFFFFFFFFFFFFFFFFFFFFFFFFF
310
FFFFFFFFFFFFFFFFFFFFFFFFFFFFFFFFFFFFFFFFFFFFFFFFFFFFFFFFFFFFFFFF
310
FFFFFFFFFFFFFFFFFFFFFFFFFFFFFFFFFFFFFFFFFFFFFFFFFFFFFFFFFFFFFFFF
310
FFFFFFFFFFFFFFFFFFFFFFFFFFFFFFFFFFFFFFFFFFFFFFFFFFFFFFFFFFFFFFFF
310
FFFFFFFFFFFFFFFFFFFFFFFFFFFFFFFFFFFFFFFFFFFFFFFFFFFFFFFFFFFFFFFF
310
FFFFFFFFFFFFFFFFFFFFFFFFFFFFFFFFFFFFFFFFFFFFFFFFFFFFFFFFFFFFFFFF
310
52006F006F007400200045006E00740072007900000000000000000000000000
310
0000000000000000000000000000000000000000000000000000000000000000
310
16000500FFFFFFFFFFFFFFFF020000000A00030000000000C000000000000046
310
000000000000000000000000D02613C38D03D20103000000C000000000000000
310
01004F006C006500000000000000000000000000000000000000000000000000
310
0000000000000000000000000000000000000000000000000000000000000000
310
0A000200FFFFFFFFFFFFFFFFFFFFFFFF00000000000000000000000000000000
310
0000000000000000000000000000000000000000000000001400000000000000
310
010043006F006D0070004F0062006A0000000000000000000000000000000000
310
0000000000000000000000000000000000000000000000000000000000000000
310
120002010100000003000000FFFFFFFF00000000000000000000000000000000
310
0000000000000000000000000000000000000000010000004D00000000000000
310
01004F006C006500310030004E00610074006900760065000000000000000000
310
0000000000000000000000000000000000000000000000000000000000000000
310
1A000200FFFFFFFFFFFFFFFFFFFFFFFF00000000000000000000000000000000
310
0000000000000000000000000000000000000000040000002426000000000000
310
FEFFFFFF02000000FEFFFFFFFFFFFFFFFFFFFFFFFFFFFFFFFFFFFFFFFFFFFFFF
310
FFFFFFFFFFFFFFFFFFFFFFFFFFFFFFFFFFFFFFFFFFFFFFFFFFFFFFFFFFFFFFFF
310
FFFFFFFFFFFFFFFFFFFFFFFFFFFFFFFFFFFFFFFFFFFFFFFFFFFFFFFFFFFFFFFF
310
FFFFFFFFFFFFFFFFFFFFFFFFFFFFFFFFFFFFFFFFFFFFFFFFFFFFFFFFFFFFFFFF
310
FFFFFFFFFFFFFFFFFFFFFFFFFFFFFFFFFFFFFFFFFFFFFFFFFFFFFFFFFFFFFFFF
310
FFFFFFFFFFFFFFFFFFFFFFFFFFFFFFFFFFFFFFFFFFFFFFFFFFFFFFFFFFFFFFFF
310
FFFFFFFFFFFFFFFFFFFFFFFFFFFFFFFFFFFFFFFFFFFFFFFFFFFFFFFFFFFFFFFF
310
FFFFFFFFFFFFFFFFFFFFFFFFFFFFFFFFFFFFFFFFFFFFFFFFFFFFFFFFFFFFFFFF
310
FFFFFFFFFFFFFFFFFFFFFFFFFFFFFFFFFFFFFFFFFFFFFFFFFFFFFFFFFFFFFFFF
310
FFFFFFFFFFFFFFFFFFFFFFFFFFFFFFFFFFFFFFFFFFFFFFFFFFFFFFFFFFFFFFFF
310
FFFFFFFFFFFFFFFFFFFFFFFFFFFFFFFFFFFFFFFFFFFFFFFFFFFFFFFFFFFFFFFF
310
FFFFFFFFFFFFFFFFFFFFFFFFFFFFFFFFFFFFFFFFFFFFFFFFFFFFFFFFFFFFFFFF
310
FFFFFFFFFFFFFFFFFFFFFFFFFFFFFFFFFFFFFFFFFFFFFFFFFFFFFFFFFFFFFFFF
310
FFFFFFFFFFFFFFFFFFFFFFFFFFFFFFFFFFFFFFFFFFFFFFFFFFFFFFFFFFFFFFFF
310
FFFFFFFFFFFFFFFFFFFFFFFFFFFFFFFFFFFFFFFFFFFFFFFFFFFFFFFFFFFFFFFF
310
FFFFFFFFFFFFFFFFFFFFFFFFFFFFFFFFFFFFFFFFFFFFFFFFFFFFFFFFFFFFFFFF
310
0100000200000000000000000000000000000000000000000000000000000000
310
0000000000000000000000000000000000000000000000000000000000000000
310
0100FEFF030A0000FFFFFFFF0A00030000000000C00000000000004607000000
310
5042727573680007000000504272757368000700000050427275736800F439B2
310
7100000000000000000000000000000000000000000000000000000000000000
310
0000000000000000000000000000000000000000000000000000000000000000
310
0000000000000000000000000000000000000000000000000000000000000000
310
0000000000000000000000000000000000000000000000000000000000000000
310
0000000000000000000000000000000000000000000000000000000000000000
310
0000000000000000000000000000000000000000000000000000000000000000
310
0000000000000000000000000000000000000000000000000000000000000000
310
0000000000000000000000000000000000000000000000000000000000000000
310
0000000000000000000000000000000000000000000000000000000000000000
310
0000000000000000000000000000000000000000000000000000000000000000
310
0000000000000000000000000000000000000000000000000000000000000000
310
0000000000000000000000000000000000000000000000000000000000000000
310
20260000424D0E260000000000003E00000028000000B40200006E0000000100
310
01000000000000000000130B0000130B00000200000002000000000000FFFFFF
310
FFFFFFFFFFFFFFFFFFFFFFFFFFFFFFFFFFFFFFFFFFFFFFFFFFFFFFFFFFFFFFFF
310
FFFFFFFFFFFFFFFFFFFFFFFFFFFFFFFFFFFFFFFFFFFFFFFFFFFFFFFFFFFFFFFF
310
FFFFFFFFFFFFFFFFFFFFFFFFFFFFFFFFFFFFFFFFFFFFFFFFF000FFFFFFFFFFFF
310
FFFFFFFFFFFFFFFFFFFFFFFFFFFFFFFFFFFFFFFFFFFFFFFFFFFFFFFFFFFFFFFF
310
FFFFFFFFFFFFFFFFFFFFFFFFFFFFFFFFFFFFFFFFFFFFFFFFFFFFFFFFFFFFFFFF
310
FFFFFFFFFFFFFFFFFFFFFFFFFFFFFFFFF000FFFFFFFFFFFFFFFFFFFFFFFFFFFF
310
FFFFFFFFFFFFFFFFFFFFFFFFFFFFFFFFFFFFFFFFFFFFFFFFFFFFFFFFFFFFFFFF
310
FFFFFFFFFFFFFFFFFFFFFFFFFFFFFFFFFFFFFFFFFFFFFFFFFFFFFFFFFFFFFFFF
310
FFFFFFFFFFFFFFFFF000FFFFFFFFFFFFFFFFFFFFFFFFFFFFFFFFFFFFFFFFFFFF
310
FFFFFFFFFFFFFFFFFFFFFFFFFFFFFFFFFFFFFFFFFFFFFFFFFFFFFFFFFFFFFFFF
310
FFFFFFFFFFFFFFFFFFFFFFFFFFFFFFFFFFFFFFFFFFFFFFFFFFFFFFFFFFFFFFFF
310
F000FFFFFFFFFFFFFFFFFFFFFFFFFFFFFFFFFFFFFFFFFFFFFFFFFFFFFFFFFFFF
310
FFFFFFFFFFFFFFFFFFFFFFFFFFFFFFFFFFFFFFFFFFFFFFFFFFFFFFFFFFFFFFFF
310
FFFFFFFFFFFFFFFFFFFFFFFFFFFFFFFFFFFFFFFFFFFFFFFFF000FFFFFFFFFFFF
310
FFFFFFFFFFFFFFFFFFFFFFFFFFFFFFFFFFFFFFFFFFFFFFFFFFFFFFFFFFFFFFFF
310
FFFFFFFFFFFFFFFFFFFFFFFFFFFFFFFFFFFFFFFFFFFFFFFFFFFFFFFFFFFFFFFF
310
FFFFFFFFFFFFFFFFFFFFFFFFFFFFFFFFF000FFFFFFFFFFFFFFFFFFFFFFFFFFFF
310
FFFFFFFFFFFFFFFFFFFFFFFFFFFFFFFFFFFFFFFFFFFFFFFFFFFFFFFFFFFFFFFF
310
FFFFFFFFFFFFFFFFFFFFFFFFFFFFFFFFFFFFFFFFFFFFFFFFFFFFFFFFFFFFFFFF
310
FFFFFFFFFFFFFFFFF000FFFFFFFFFFFFFFFFFFFFFFFFFFFFFFFFFFFFFFFFFFFF
310
FFFFFFFFFFFFFFFFFFFFFFFFFFFFFFFFFFFFFFFFFFFFFFFFFFFFFFFFFFFFFFFF
310
FFFFFFFFFFFFFFFFFFFFFFFFFFFFFFFFFFFFFFFFFFFFFFFFFFFFFFFFFFFFFFFF
310
F000FFFFFFFFFFFFFFFFFFFFFFFFFFFFFFFFFFFFFFFFFFFFFFFFFFFFFFFFFFFF
310
FFFFFFFFFFFFFFFFFFFFFFFFFFFFFFFFFFFFFFFFFFFFFFFFFFFFFFFFFFFFFFFF
310
FFFFFFFFFFFFFFFFFFFFFFFFFFFFFFFFFFFFFFFFFFFFFFFFF000FFFFFFFFFFFF
310
FFFFFFFFFFFFFFFFFFFFFFFFFFFFFFFFFFFFFFFFFFFFFFFFFFFFFFFFFFFFFFFF
310
FFFFFFFFFFFFFFFFFFFFFFFFFFFFFFFFFFFFFFFFFFFFFFFFFFFFFFFFFFFFFFFF
310
FFFFFFFFFFFFFFFFFFFFFFFFFFFFFFFFF000FFFFFFFFFFFFFFFFFFFFFFFFFFFF
310
FFFFFFFFFFFFFFFFFFFFFFFFFFFFFFFFFFFFFFFFFFFFFFFFFFFFFFFFFFFFFFFF
310
FFFFFFFFFFFFFFFFFFFFFFFFFFFFFFFFFFFFFFFFFFFFFFFFFFFFFFFFFFFFFFFF
310
FFFFFFFFFFFFFFFFF000FFFFFFFFFFFFFFFFFFFFFFFFFFFFFFFFFFFFFFFFFFFF
310
FFFFFFFFFFFFFFFFFFFFFFFFFFFFFFFFFFFFFFFFFFFFFFFFFFFFFFFFFFFFFFFF
310
FFFFFFFFFFFFFFFFFFFFFFFFFFFFFFFFFFFFFFFFFFFFFFFFFFFFFFFFFFFFFFFF
310
F000FFFFFFFFFFFFFFFFFFFFFFFFFFFFFFFFFFFFFFFFFFFFFFFFFFFFFFFFFFFF
310
FFFFFFFFFFFFFFFFFFFFFFFFFFFFFFFFFFFFFFFFFFFFFFFFFFFFFFFFFFFFFFFF
310
FFFFFFFFFFFFFFFFFFFFFFFFFFFFFFFFFFFFFFFFFFFFFFFFF000FFFFFFFFFFFF
310
FFFFFFFFFFFFFFFFFFFFFFFFFFFFFFFFFFFFFFFFFFFFFFFFFFFFFFFFFFFFFFFF
310
FFFFFFFFFFFFFFFFFFFFFFFFFFFFFFFFFFFFFFFFFFFFFFFFFFFFFFFFFFFFFFFF
310
FFFFFFFFFFFFFFFFFFFFFFFFFFFFFFFFF000FFFFFFFFFFFFFFFFFFFFFFFFFFFF
310
FFFFFFFFFFFFFFFFFFFFFFFFFFFFFFFFFFFFFFFFFFFFFFFFFFFFFFFFFFFFFFFF
310
FFFFFFFFFFFFFFFFFFFFFFFFFFFFFFFFFFFFFFFFFFFFFFFFFFFFFFFFFFFFFFFF
310
FFFFFFFFFFFFFFFFF000FFFFFFFFFFFFFFFFFFFFFFFFFFFFFFFFFFFFFFFFFFFF
310
FFFFFFFFFFFFFFFFFFFFFFFFFFFFFFFFFFFFFFFFFFFFFFFFFFFFFFFFFFFFFFFF
310
FFFFFFFFFFFFFFFFFFFFFFFFFFFFFFFFFFFFFFFFFFFFFFFFFFFFFFFFFFFFFFFF
310
F000FFFFFFFFFFFFFFFFFFFFFFFFFFFFFFFFFFFFFFFFFFFFFFFFFFFFFFFFFFFF
310
FFFFFFFFFFFFFFFFFFFFFFFFFFFFFFFFFFFFFFFFFFFFFFFFFFFFFFFFFFFFFFFF
310
FFFFFFFFFFFFFFFFFFFFFFFFFFFFFFFFFFFFFFFFFFFFFFFFF000FFFFFFFFFFFF
310
FFFFFFFFFFFFFFFFFFFFFFFFFFFFFFFFFFFFFFFFFFFFFFFFFFFFFFFFFFFFFFFF
310
FFFFFFFFFFFFFFFFFFFFFFFFFFFFFFFFFFFFFFFFFFFFFFFFFFFFFFFFFFFFFFFF
310
FFFFFFFFFFFFFFFFFFFFFFFFFFFFFFFFF000FFFFFFFFFFFFFFFFFFFFFFFFFFFF
310
FFFFFFFFFFFFFFFFFFFFFFFFFFFFFFFFFFFFFFFFFFFFFFFFFFFFFFFFFFFFFFFF
310
FFFFFFFFFFFFFFFFFFFFFFFFFFFFFFFFFFFFFFFFFFFFFFFFFFFFFFFFFFFFFFFF
310
FFFFFFFFFFFFFFFFF000FFFFF80003FFFFFFFFFFFFFFFFFFFFFFFFFFFFFFFFFF
310
FFFFF00007FFFFFFFFFF00007FFFFFF800000000000000007FFFFFFFFFFFFFFF
310
FFFFFFFC001FFFFFFFFFFFFFFC001FFFFFFFFFFFFFFFFFFFFFFFFFFE0007FFFF
310
F000FFFF8000007FFFFFFFF8000FFFFFC0007FFFFF80007FFFFF0000007FFFFF
310
FFF8000007FFFFF800000000000000007FFFFFF0001FFFFFFFFFFFC00001FFFF
310
FFFFFFFFC00001FFFFFFFF000000000003FFFFE000007FFFF000FFFE0000000F
310
FFFFFFF0000FFFFF80007FFFFF80007FFFFC0000001FFFFFFFC0000001FFFFF8
310
00000000000000007FFFFFF0001FFFFFFFFFFE0000003FFFFFFFFFFE0000003F
310
FFFFFF000000000003FFFF0000000FFFF000FFF800000003FFFFFFF00007FFFF
310
80007FFFFF80007FFFF000000007FFFFFF000000003FFFF80000000000000000
310
7FFFFFF0001FFFFFFFFFF80000000FFFFFFFFFF80000000FFFFFFF0000000000
310
03FFFC00000003FFF000FFE000000000FFFFFFF00007FFFF80003FFFFF80007F
310
FFC000000001FFFFFC000000001FFFF800000000000000007FFFFFF0001FFFFF
310
FFFFE000000003FFFFFFFFE000000003FFFFFF000000000003FFF000000000FF
310
F000FF80000000007FFFFFF00007FFFF80003FFFFF80007FFF8000000000FFFF
310
F80000000007FFF800000000000000007FFFFFF0001FFFFFFFFFC000000001FF
310
FFFFFFC000000001FFFFFF000000000003FFC0000000007FF000FF0000000000
310
3FFFFFE00007FFFF00003FFFFF80007FFE00000000003FFFF00000000003FFF8
310
00000000000000007FFFFFF0001FFFFFFFFF8000000000FFFFFFFF8000000000
310
FFFFFF000000000003FF80000000003FF000FE00000000001FFFFFE00003FFFF
310
00003FFFFF80007FFC00000000001FFFE00000000001FFF8000001FFFE000000
310
7FFFFFF0001FFFFFFFFE00000000003FFFFFFE00000000003FFFFF0000000000
310
03FF00000000001FF000FC00000000000FFFFFE00003FFFF00001FFFFF80007F
310
F800000000001FFFC00000000000FFF8000001FFFE0000007FFFFFF0001FFFFF
310
FFFC00000000001FFFFFFC00000000001FFFFF000000000003FE00000000000F
310
F000F8000000000007FFFFE00003FFFF00001FFFFF80007FF800000000000FFF
310
800000000000FFF8000001FFFE0000007FFFFFF0001FFFFFFFF800000000000F
310
FFFFF800000000000FFFFF000000000003FC000000000007F000F80000000000
310
03FFFFC00003FFFE00001FFFFF80007FF0000000000007FF0000000000007FF8
310
000001FFFE0000007FFFFFF0001FFFFFFFF0000000000007FFFFF00000000000
310
07FFFF000000000003F8000000000003F000F0000000000003FFFFC00001FFFE
310
00001FFFFF80007FE0000000000007FE0000000000003FF8000001FFFE000000
310
7FFFFFF0001FFFFFFFF0000000000007FFFFF0000000000007FFFF0000000000
310
03F800001F800003F000E00001FFF00001FFFFC00001FFFE00000FFFFF80007F
310
E00001FFE00003FE00001FFF00003FF8000001FFFE0000007FFFFFF0001FFFFF
310
FFE000003E000003FFFFE000003E000003FFFF000000000003F00001FFF80001
310
F000E00007FFFC0001FFFFC00001FFFE00000FFFFF80007FC0000FFFFC0003FC
310
0000FFFFC0001FF8000001FFFE0000007FFFFFF0001FFFFFFFC00003FFE00001
310
FFFFC00003FFE00001FFFF0001FFFFFFFFF00007FFFE0001F000E0000FFFFF00
310
00FFFF800001FFFC00000FFFFF80007FC0001FFFFE0001FC0001FFFFE0001FF8
310
000001FFFE0000007FFFFFF0001FFFFFFF80000FFFF80000FFFF80000FFFF800
310
00FFFF0003FFFFFFFFE0000FFFFF8000F000C0003FFFFF8000FFFF800000FFFC
310
000007FFFF80007F80003FFFFF0001FC0003FFFFF0001FF8000001FFFE000000
310
7FFFFFF0001FFFFFFF80003FFFFE0000FFFF80003FFFFE0000FFFF0003FFFFFF
310
FFE0003FFFFF8000F000C0003FFFFF8000FFFF800000FFFC000007FFFF80007F
310
80007FFFFF8001F80007FFFFF8000FF8000001FFFE0000007FFFFFF0001FFFFF
310
FF00007FFFFF00007FFF00007FFFFF00007FFF0003FFFFFFFFE0003FFFFFC000
310
F000C0007FFFFFC000FFFF000000FFFC000007FFFF80007F8000FFFFFF8000F8
310
000FFFFFF8000FF8000001FFFE0000007FFFFFF0001FFFFFFF0000FFFFFF8000
310
7FFF0000FFFFFF80007FFF0003FFFFFFFFC0007FFFFFC00070008000FFFFFFC0
310
00FFFF000000FFF8000007FFFF80007F8000FFFFFF8000F8000FFFFFF8000FF8
310
000001FFFE0000007FFFFFF0001FFFFFFE0001FFFFFFC0003FFE0001FFFFFFC0
310
003FFF0003FFFFFFFFC0007FFFFFE00070008000FFFFFFC0007FFF0000007FF8
310
000003FFFF80007F0001FFFFFF8000F8000FFFFFF8000FF8000001FFFE000000
310
7FFFFFF0001FFFFFFE0001FFFFFFC0003FFE0001FFFFFFC0003FFF0003FFFFFF
310
FFC000FFFFFFE00070008000FFFFFFC0007FFF0000007FF8000003FFFF80007F
310
0001FFFFFF8000F8001FFFFFF8000FF8000001FFFE0000007FFFFFF0001FFFFF
310
FE0003FFFFFFE0003FFE0003FFFFFFE0003FFF0003FFFFFFFFC000FFFFFFE000
310
70008000FFFFFFC0007FFE0000007FF8000003FFFF80007F0001FFFFFF8000F0
310
001FFFFFF8000FF8000001FFFE0000007FFFFFF0001FFFFFFC0003FFFFFFE000
310
1FFC0003FFFFFFE0001FFF0003FFFFFFFFC000FFFFFFC00070008000FFFFFF80
310
007FFE0000007FF0000003FFFF80007F0001FFFFFF0000F0001FFFFFF8000FF8
310
000001FFFE0000007FFFFFF0001FFFFFFC0007FFFFFFF0001FFC0007FFFFFFF0
310
001FFF0003FFFFFFFFC000FFFFFFC00070008001FFFFFF0000FFFE0000003FF0
310
000001FFFF80007F0001FFFFFF0000F8001FFFFFF0000FF8000001FFFE000000
310
7FFFFFF0001FFFFFFC0007FFFFFFF0001FFC0007FFFFFFF0001FFF0003FFFFFF
310
FFC001FFFFFF80007000FFFFFFFFFE0000FFFE0008003FF0008001FFFF80007F
310
FFFFFFFFFC0000FFFFFFFFFFE0000FF8000001FFFE0000007FFFFFF0001FFFFF
310
F8000FFFFFFFF8000FF8000FFFFFFFF8000FFF0003FFFFFFFFFFFFFFFFFF0000
310
7000FFFFFFFFFC0000FFFC0008003FF0008001FFFF80007FFFFFFFFFF80001FF
310
FFFFFFFF80000FF8000001FFFE0000007FFFFFF0001FFFFFF8000FFFFFFFF800
310
0FF8000FFFFFFFF8000FFF0003FFFFFFFFFFFFFFFFFE0000F000FFFFFFFFE000
310
00FFFC000C003FE000C001FFFF80007FFFFFFFFFC00001FFFFFFFFFE00001FF8
310
000001FFFE0000007FFFFFF0001FFFFFF8000FFFFFFFF8000FF8000FFFFFFFF8
310
000FFF0003FFFFFFFFFFFFFFFFF00000F000FFFFFFFE000001FFFC000C001FE0
310
00C000FFFF80007FFFFFFFFE000001FFFFFFFFE000001FF80FFFFFFFFFFFFFC0
310
7FFFFFF0001FFFFFF8000FFFFFFFF8000FF8000FFFFFFFF8000FFF0003FFFFFF
310
FFFFFFFFFF800000F000FFFFFFC0000001FFFC001C001FE001C000FFFF80007F
310
FFFFFF80000003FFFFFFF80000001FF80FFFFFFFFFFFFFC07FFFFFF0001FFFFF
310
F8001FFFFFFFFC000FF8001FFFFFFFFC000FFF0003FFFFFFFFFFFFFFF0000001
310
F000FFFFF800000001FFF8001C001FE001C000FFFF80007FFFFFF800000003FF
310
FFFF800000003FF80FFFFFFFFFFFFFC07FFFFFF0001FFFFFF8001FFFFFFFFC00
310
0FF8001FFFFFFFFC000FFF0003FFFFFFFFFFFFFE00000001F000FFFFC0000000
310
03FFF8001E001FC001E000FFFF80007FFFFF8000000007FFFFFC000000003FF8
310
0FFFFFFFFFFFFFC07FFFFFF0001FFFFFF8001FFFFFFFFC000FF8001FFFFFFFFC
310
000FFF0003FFFFFFFFFFFFE000000003F000FFFE0000000007FFF8001E000FC0
310
01E0007FFF80007FFFFE0000000007FFFFE0000000007FF80FFFFFFFFFFFFFC0
310
7FFFFFF0001FFFFFF0001FFFFFFFFC0007F0001FFFFFFFFC0007FF0003FFFFFF
310
FFFFFF0000000003F000FFF80000000007FFF8001E000FC003E0007FFF80007F
310
FFF0000000000FFFFF8000000000FFF80FFFFFFFFFFFFFC07FFFFFF0001FFFFF
310
F0001FFFFFFFFC0007F0001FFFFFFFFC0007FF0003FFFFFFFFFFFC0000000007
310
F000FFE0000000000FFFF0003E000FC003E0007FFF80007FFFC0000000001FFF
310
FE0000000001FFF80FFFFFFFFFFFFFC07FFFFFF0001FFFFFF0001FFFFFFFFC00
310
07F0001FFFFFFFFC0007FF0003FFFFFFFFFFF0000000000FF000FFC000000000
310
1FFFF0003F000F8003F0003FFF80007FFF80000000003FFFF80000000003FFF8
310
0FFFFFFFFFFFFFC07FFFFFF0001FFFFFF0001FFFFFFFFC0007F0001FFFFFFFFC
310
0007FF0003FFFFFFFFFFE0000000001FF000FF00000000007FFFF0003F000780
310
03F0003FFF80007FFF00000000007FFFF00000000007FFF80FFFFFFFFFFFFFC0
310
7FFFFFF0001FFFFFF0001FFFFFFFFC0007F0001FFFFFFFFC0007FF0003FFFFFF
310
FFFF80000000007FF000FE0000000000FFFFE0003F00078007F0003FFF80007F
310
FE0000000001FFFFE0000000001FFFF80FFFFFFFFFFFFFC07FFFFFF0001FFFFF
310
F0001FFFFFFFFC0007F0001FFFFFFFFC0007FF0003FFFFFFFFFF0000000000FF
310
F000FC0000000003FFFFE0007F00078007F0003FFF80007FFC0000000007FFFF
310
C0000000007FFFF80FFFFFFFFFFFFFC07FFFFFF0001FFFFFF8001FFFFFFFFC00
310
0FF8001FFFFFFFFC000FFF0003FFFFFFFFFE0000000003FFF000FC000000000F
310
FFFFE0007F80070007F8001FFF80007FF8000000001FFFFF8000000001FFFFF8
310
0FFFFFFFFFFFFFC07FFFFFF0001FFFFFF8001FFFFFFFFC000FF8001FFFFFFFFC
310
000FFF0003FFFFFFFFFC000000000FFFF000F8000000007FFFFFE0007F800700
310
07F8001FFF80007FF000000000FFFFFF800000000FFFFFF80FFFFFFFFFFFFFC0
310
7FFFFFF0001FFFFFF8000FFFFFFFF8000FF8000FFFFFFFF8000FFF0003FFFFFF
310
FFFC000000007FFFF000F800000007FFFFFFC0007F8003000FF8001FFF80007F
310
F000000007FFFFFF000000007FFFFFF80FFFFFFFFFFFFFC07FFFFFF0001FFFFF
310
F8000FFFFFFFF8000FF8000FFFFFFFF8000FFF0003FFFFFFFFF80000000FFFFF
310
F000F0000000FFFFFFFFC000FF8003000FF8001FFF80007FE0000000FFFFFFFF
310
0000000FFFFFFFF8000001FFFE0000007FFFFFF0001FFFFFF8000FFFFFFFF800
310
0FF8000FFFFFFFF8000FFF0003FFFFFFFFF8000000FFFFFFF000F000000FFFFF
310
FFFFC000FFC002000FF8000FFF80007FE000001FFFFFFFFE000001FFFFFFFFF8
310
000001FFFE0000007FFFFFF0001FFFFFF8000FFFFFFFF8000FF8000FFFFFFFF8
310
000FFF0003FFFFFFFFF000001FFFFFFFF000E00000FFFFFFFFFFC000FFC00200
310
0FFC000FFF80007FE00001FFFFFFFFFE00001FFFFFFFFFF8000001FFFE000000
310
7FFFFFF0001FFFFFFC000FFFFFFFF8001FFC000FFFFFFFF8001FFF0003FFFFFF
310
FFF00001FFFFFFFFF000E00007FFFFFFFFFF8000FFC000001FFC000FFF80007F
310
C0000FFFFFFFFFFE0000FFFFFFFFFFF8000001FFFE0000007FFFFFF0001FFFFF
310
FC0007FFFFFFF0001FFC0007FFFFFFF0001FFF0003FFFFFFFFF00007FFFFFFFF
310
F000E0001FFFFFFFFFFF8000FFC000001FFC000FFF80007FC0003FFFFFFFFFFE
310
0001FFFFFFFFFFF8000001FFFE0000007FFFFFF0001FFFFFFC0007FFFFFFF000
310
1FFC0007FFFFFFF0001FFF0003FFFFFFFFF0001FFFFFFFFFF000E0003FFFFF00
310
03FF8001FFE000001FFC0007FF80007FC0007FFFFF0007FC0003FFFFF0003FF8
310
000001FFFE0000007FFFFFF0001FFFFFFC0003FFFFFFE0001FFC0003FFFFFFE0
310
001FFF0003FFFFFFFFF0003FFFFFFFFFF000E0003FFFFF0001FF8001FFE00000
310
1FFE0007FF80007FC0007FFFFE0003FC0007FFFFE0003FF8000001FFFE000000
310
7FFFFFF0001FFFFFFE0003FFFFFFE0003FFE0003FFFFFFE0003FFF0003FFFFFF
310
FFF0003FFFFF8001F000E0003FFFFF0001FF0001FFE000001FFE0007FF80007F
310
C0007FFFFE0003FC0007FFFFE0003FF8000001FFFE0000007FFFFFF0001FFFFF
310
FE0001FFFFFFC0003FFE0001FFFFFFC0003FFF0003FFFFFFFFF0003FFFFF0001
310
F000E0003FFFFF0003FF0001FFE000003FFE0007FF80007FC0007FFFFE0003FC
310
0007FFFFE0003FF8000001FFFE0000007FFFFFF0001FFFFFFF0001FFFFFFC000
310
7FFF0001FFFFFFC0007FFF0003FFFFFFFFF0003FFFFF0001F000E0003FFFFE00
310
03FF0003FFF000003FFE0003FF80007FC0007FFFFC0003FE0007FFFFE0003FF8
310
000001FFFE0000007FFFFFF0001FFFFFFF0000FFFFFF80007FFF0000FFFFFF80
310
007FFF0003FFFFFFFFF0003FFFFF0001F000E0003FFFFE0003FF0003FFF00000
310
3FFF0003FF80007FC0007FFFFC0007FE0007FFFFC0003FF8000001FFFE000000
310
7FFFFFF0001FFFFFFF80007FFFFF0000FFFF80007FFFFF0000FFFF0003FFFFFF
310
FFF0003FFFFF0003F000E0003FFFFC0003FE0003FFF000003FFF0003FF80007F
310
E0003FFFF80007FE0003FFFFC0007FF8000001FFFE0000007FFFFFF0001FFFFF
310
FF80003FFFFE0000FFFF80003FFFFE0000FFFF0003FFFFFFFFF0001FFFFE0003
310
F000F0001FFFF80003FE0003FFF000007FFF0001FF80007FE0003FFFF00007FE
310
0001FFFF80007FF8000001FFFE0000007FFFFFF0001FFFFFFFC0000FFFF80001
310
FFFFC0000FFFF80001FFFF0003FFFFFFFFF0001FFFFC0003F000F0000FFFF000
310
07FE0007FFF800007FFF0001FF80007FE0001FFFE00007FF0000FFFE00007FF8
310
000001FFFE0000007FFFFFF0001FFFFFFFC00003FFE00001FFFFC00003FFE000
310
01FFFF0003FFFFFFFFF8000FFFF80003F000F00003FFC00007FC0007FFF80000
310
7FFF8001FF80007FF00007FF80000FFF00007FF80000FFF8000001FFFE000000
310
7F80000000000001FFE000003E000003FFFFE000003E000003FFFF0003FFFFFF
310
FFF80003FFE00007F000F800000000000FFC0007FFF800007FFF8001FF80007F
310
F000000000000FFF000000000000FFF8000001FFFE0000007F80000000000001
310
FFF0000000000007FFFFF0000000000007FFFF0003FFFFFFFFFC00007E000007
310
F000F800000000000FFC0007FFF80000FFFF8000FF80007FF800000000001FFF
310
800000000001FFF8000001FFFE0000007F80000000000001FFF800000000000F
310
FFFFF800000000000FFFFF0003FFFFFFFFFC00000000000FF000FC0000000000
310
1FFC0007FFFC0000FFFF8000FF80007FF800000000003FFFC00000000001FFF8
310
000001FFFE0000007F80000000000001FFF800000000000FFFFFF80000000000
310
0FFFFF0003FFFFFFFFFE00000000001FF000FE00000000003FF8000FFFFC0000
310
FFFF8000FF80007FFC00000000003FFFC00000000003FFF8000001FFFE000000
310
7F80000000000001FFFC00000000001FFFFFFC00000000001FFFFF0003FFFFFF
310
FFFF00000000001FF000FF00000000003FF8000FFFFC0000FFFFC000FF80007F
310
FE00000000007FFFE00000000007FFF8000001FFFE0000007F80000000000001
310
FFFE00000000003FFFFFFE00000000003FFFFF0003FFFFFFFFFF80000000003F
310
F000FF80000000007FF8000FFFFC0001FFFFC0007F80007FFF0000000000FFFF
310
F0000000000FFFF800000000000000007F80000000000001FFFF8000000000FF
310
FFFFFF8000000000FFFFFF0003FFFFFFFFFFC0000000007FF000FFC000000000
310
FFF8000FFFFE0001FFFFC0007F80007FFF8000000001FFFFF8000000001FFFF8
310
00000000000000007F80000000000001FFFFC000000001FFFFFFFFC000000001
310
FFFFFF0003FFFFFFFFFFE000000000FFF000FFE000000003FFF0001FFFFE0001
310
FFFFC0007F80007FFFC000000007FFFFFE000000003FFFF80000000000000000
310
7F80000000000001FFFFE000000003FFFFFFFFE000000003FFFFFF0003FFFFFF
310
FFFFF000000003FFF000FFF80000000FFFF0001FFFFE0001FFFFE0007F80007F
310
FFF00000000FFFFFFF00000000FFFFF800000000000000007F80000000000001
310
FFFFF80000000FFFFFFFFFF80000000FFFFFFF0003FFFFFFFFFFFC0000000FFF
310
F000FFFE0000003FFFF0001FFFFE0003FFFFE0003F80007FFFFC0000003FFFFF
310
FFC0000003FFFFF800000000000000007F80000000000001FFFFFE0000003FFF
310
FFFFFFFE0000003FFFFFFF0003FFFFFFFFFFFF0000003FFFF000FFFF800000FF
310
FFF0001FFFFF0003FFFFE0003F80007FFFFF000001FFFFFFFFF800001FFFFFF8
310
00000000000000007F80000000000001FFFFFFC00001FFFFFFFFFFFFC00001FF
310
FFFFFF0003FFFFFFFFFFFFC00000FFFFF000FFFFF8000FFFFFFFFFFFFFFFFFFF
310
FFFFFFFFFFFFFFFFFFFFF0001FFFFFFFFFFF0000FFFFFFF80000000000000000
310
7FFFFFFFFFFFFFFFFFFFFFFC001FFFFFFFFFFFFFFC001FFFFFFFFFFFFFFFFFFF
310
FFFFFFFC001FFFFFF000FFFFFFFFFFFFFFFFFFFFFFFFFFFFFFFFFFFFFFFFFFFF
310
FFFFFFFFFFFFFFFFFFFFFFFFFFFFFFFFFFFFFFFFFFFFFFFFFFFFFFFFFFFFFFFF
310
FFFFFFFFFFFFFFFFFFFFFFFFFFFFFFFFFFFFFFFFFFFFFFFFFFFFFFFFFFFFFFFF
310
F000FFFFFFFFFFFFFFFFFFFFFFFFFFFFFFFFFFFFFFFFFFFFFFFFFFFFFFFFFFFF
310
FFFFFFFFFFFFFFFFFFFFFFFFFFFFFFFFFFFFFFFFFFFFFFFFFFFFFFFFFFFFFFFF
310
FFFFFFFFFFFFFFFFFFFFFFFFFFFFFFFFFFFFFFFFFFFFFFFFF000FFFFFFFFFFFF
310
FFFFFFFFFFFFFFFFFFFFFFFFFFFFFFFFFFFFFFFFFFFFFFFFFFFFFFFFFFFFFFFF
310
FFFFFFFFFFFFFFFFFFFFFFFFFFFFFFFFFFFFFFFFFFFFFFFFFFFFFFFFFFFFFFFF
310
FFFFFFFFFFFFFFFFFFFFFFFFFFFFFFFFF000FFFFFFFFFFFFFFFFFFFFFFFFFFFF
310
FFFFFFFFFFFFFFFFFFFFFFFFFFFFFFFFFFFFFFFFFFFFFFFFFFFFFFFFFFFFFFFF
310
FFFFFFFFFFFFFFFFFFFFFFFFFFFFFFFFFFFFFFFFFFFFFFFFFFFFFFFFFFFFFFFF
310
FFFFFFFFFFFFFFFFF000FFFFFFFFFFFFFFFFFFFFFFFFFFFFFFFFFFFFFFFFFFFF
310
FFFFFFFFFFFFFFFFFFFFFFFFFFFFFFFFFFFFFFFFFFFFFFFFFFFFFFFFFFFFFFFF
310
FFFFFFFFFFFFFFFFFFFFFFFFFFFFFFFFFFFFFFFFFFFFFFFFFFFFFFFFFFFFFFFF
310
F000FFFFFFFFFFFFFFFFFFFFFFFFFFFFFFFFFFFFFFFFFFFFFFFFFFFFFFFFFFFF
310
FFFFFFFFFFFFFFFFFFFFFFFFFFFFFFFFFFFFFFFFFFFFFFFFFFFFFFFFFFFFFFFF
310
FFFFFFFFFFFFFFFFFFFFFFFFFFFFFFFFFFFFFFFFFFFFFFFFF000FFFFFFFFFFFF
310
FFFFFFFFFFFFFFFFFFFFFFFFFFFFFFFFFFFFFFFFFFFFFFFFFFFFFFFFFFFFFFFF
310
FFFFFFFFFFFFFFFFFFFFFFFFFFFFFFFFFFFFFFFFFFFFFFFFFFFFFFFFFFFFFFFF
310
FFFFFFFFFFFFFFFFFFFFFFFFFFFFFFFFF000FFFFFFFFFFFFFFFFFFFFFFFFFFFF
310
FFFFFFFFFFFFFFFFFFFFFFFFFFFFFFFFFFFFFFFFFFFFFFFFFFFFFFFFFFFFFFFF
310
FFFFFFFFFFFFFFFFFFFFFFFFFFFFFFFFFFFFFFFFFFFFFFFFFFFFFFFFFFFFFFFF
310
FFFFFFFFFFFFFFFFF000FFFFFFFFFFFFFFFFFFFFFFFFFFFFFFFFFFFFFFFFFFFF
310
FFFFFFFFFFFFFFFFFFFFFFFFFFFFFFFFFFFFFFFFFFFFFFFFFFFFFFFFFFFFFFFF
310
FFFFFFFFFFFFFFFFFFFFFFFFFFFFFFFFFFFFFFFFFFFFFFFFFFFFFFFFFFFFFFFF
310
F000FFFFFFFFFFFFFFFFFFFFFFFFFFFFFFFFFFFFFFFFFFFFFFFFFFFFFFFFFFFF
310
FFFFFFFFFFFFFFFFFFFFFFFFFFFFFFFFFFFFFFFFFFFFFFFFFFFFFFFFFFFFFFFF
310
FFFFFFFFFFFFFFFFFFFFFFFFFFFFFFFFFFFFFFFFFFFFFFFFF000FFFFFFFFFFFF
310
FFFFFFFFFFFFFFFFFFFFFFFFFFFFFFFFFFFFFFFFFFFFFFFFFFFFFFFFFFFFFFFF
310
FFFFFFFFFFFFFFFFFFFFFFFFFFFFFFFFFFFFFFFFFFFFFFFFFFFFFFFFFFFFFFFF
310
FFFFFFFFFFFFFFFFFFFFFFFFFFFFFFFFF000FFFFFFFFFFFFFFFFFFFFFFFFFFFF
310
FFFFFFFFFFFFFFFFFFFFFFFFFFFFFFFFFFFFFFFFFFFFFFFFFFFFFFFFFFFFFFFF
310
FFFFFFFFFFFFFFFFFFFFFFFFFFFFFFFFFFFFFFFFFFFFFFFFFFFFFFFFFFFFFFFF
310
FFFFFFFFFFFFFFFFF000FFFFFFFFFFFFFFFFFFFFFFFFFFFFFFFFFFFFFFFFFFFF
310
FFFFFFFFFFFFFFFFFFFFFFFFFFFFFFFFFFFFFFFFFFFFFFFFFFFFFFFFFFFFFFFF
310
FFFFFFFFFFFFFFFFFFFFFFFFFFFFFFFFFFFFFFFFFFFFFFFFFFFFFFFFFFFFFFFF
310
F000FFFFFFFFFFFFFFFFFFFFFFFFFFFFFFFFFFFFFFFFFFFFFFFFFFFFFFFFFFFF
310
FFFFFFFFFFFFFFFFFFFFFFFFFFFFFFFFFFFFFFFFFFFFFFFFFFFFFFFFFFFFFFFF
310
FFFFFFFFFFFFFFFFFFFFFFFFFFFFFFFFFFFFFFFFFFFFFFFFF000FFFFFFFFFFFF
310
FFFFFFFFFFFFFFFFFFFFFFFFFFFFFFFFFFFFFFFFFFFFFFFFFFFFFFFFFFFFFFFF
310
FFFFFFFFFFFFFFFFFFFFFFFFFFFFFFFFFFFFFFFFFFFFFFFFFFFFFFFFFFFFFFFF
310
FFFFFFFFFFFFFFFFFFFFFFFFFFFFFFFFF000FFFFFFFFFFFFFFFFFFFFFFFFFFFF
310
FFFFFFFFFFFFFFFFFFFFFFFFFFFFFFFFFFFFFFFFFFFFFFFFFFFFFFFFFFFFFFFF
310
FFFFFFFFFFFFFFFFFFFFFFFFFFFFFFFFFFFFFFFFFFFFFFFFFFFFFFFFFFFFFFFF
310
FFFFFFFFFFFFFFFFF000FFFFFFFFFFFFFFFFFFFFFFFFFFFFFFFFFFFFFFFFFFFF
310
FFFFFFFFFFFFFFFFFFFFFFFFFFFFFFFFFFFFFFFFFFFFFFFFFFFFFFFFFFFFFFFF
310
FFFFFFFFFFFFFFFFFFFFFFFFFFFFFFFFFFFFFFFFFFFFFFFFFFFFFFFFFFFFFFFF
310
F000FFFFFFFFFFFFFFFFFFFFFFFFFFFFFFFFFFFFFFFFFFFFFFFFFFFFFFFFFFFF
310
FFFFFFFFFFFFFFFFFFFFFFFFFFFFFFFFFFFFFFFFFFFFFFFFFFFFFFFFFFFFFFFF
310
FFFFFFFFFFFFFFFFFFFFFFFFFFFFFFFFFFFFFFFFFFFFFFFFF000FFFFFFFFFFFF
310
FFFFFFFFFFFFFFFFFFFFFFFFFFFFFFFFFFFFFFFFFFFFFFFFFFFFFFFFFFFFFFFF
310
FFFFFFFFFFFFFFFFFFFFFFFFFFFFFFFFFFFFFFFFFFFFFFFFFFFFFFFFFFFFFFFF
310
FFFFFFFFFFFFFFFFFFFFFFFFFFFFFFFFF000FFFFFFFFFFFFFFFFFFFFFFFFFFFF
310
FFFFFFFFFFFFFFFFFFFFFFFFFFFFFFFFFFFFFFFFFFFFFFFFFFFFFFFFFFFFFFFF
310
FFFFFFFFFFFFFFFFFFFFFFFFFFFFFFFFFFFFFFFFFFFFFFFFFFFFFFFFFFFFFFFF
310
FFFFFFFFFFFFFFFFF000FFFFFFFFFFFFFFFFFFFFFFFFFFFFFFFFFFFFFFFFFFFF
310
FFFFFFFFFFFFFFFFFFFFFFFFFFFFFFFFFFFFFFFFFFFFFFFFFFFFFFFFFFFFFFFF
310
FFFFFFFFFFFFFFFFFFFFFFFFFFFFFFFFFFFFFFFFFFFFFFFFFFFFFFFFFFFFFFFF
310
F000FFFFFFFFFFFFFFFFFFFFFFFFFFFFFFFFFFFFFFFFFFFFFFFFFFFFFFFFFFFF
310
FFFFFFFFFFFFFFFFFFFFFFFFFFFFFFFFFFFFFFFFFFFFFFFFFFFFFFFFFFFFFFFF
310
FFFFFFFFFFFFFFFFFFFFFFFFFFFFFFFFFFFFFFFFFFFFFFFFF000FFFFFFFFFFFF
310
FFFFFFFFFFFFFFFFFFFFFFFFFFFFFFFFFFFFFFFFFFFFFFFFFFFFFFFFFFFFFFFF
310
FFFFFFFFFFFFFFFFFFFFFFFFFFFFFFFFFFFFFFFFFFFFFFFFFFFFFFFFFFFFFFFF
310
FFFFFFFFFFFFFFFFFFFFFFFFFFFFFFFFF0000000000000000000000000000000
310
0000000000000000000000000000000000000000000000000000000000000000
310
0000000000000000000000000000000000000000000000000000000000000000
310
0000000000000000000000000000000000000000000000000000000000000000
310
0000000000000000000000000000000000000000000000000000000000000000
310
0000000000000000000000000000000000000000000000000000000000000000
310
0000000000000000000000000000000000000000000000000000000000000000
310
0000000000000000000000000000000000000000000000000000000000000000
310
0000000000000000000000000000000000000000000000000000000000000000
310
0000000000000000000000000000000000000000000000000000000000000000
310
0000000000000000000000000000000000000000000000000000000000000000
310
0000000000000000000000000000000000000000000000000000000000000000
310
0000000000000000000000000000000000000000000000000000000000000000
310
0000000000000000000000000000000000000000000000000000000000000000
310
0000000000000000000000000000000000000000000000000000000000000000
310
0000000000000000000000000000000000000000000000000000000000000000
  1
OLE
  0
ENDSEC
  0
SECTION
  2
OBJECTS
  0
DICTIONARY
  5
C
330
0
100
AcDbDictionary
281
     1
  3
ACAD_GROUP
350
D
  3
ACAD_LAYOUT
350
1A
  3
ACAD_MLINESTYLE
350
17
  3
ACAD_PLOTSETTINGS
350
19
  3
ACAD_PLOTSTYLENAME
350
E
  3
ACAD_SCALELIST
350
47
  0
DICTIONARY
  5
D
102
{ACAD_REACTORS
330
C
102
}
330
C
100
AcDbDictionary
281
     1
  0
DICTIONARY
  5
1A
102
{ACAD_REACTORS
330
C
102
}
330
C
100
AcDbDictionary
281
     1
  3
Layout1
350
1E
  3
Layout2
350
26
  3
Model
350
22
  0
DICTIONARY
  5
17
102
{ACAD_REACTORS
330
C
102
}
330
C
100
AcDbDictionary
281
     1
  3
Standard
350
18
  0
DICTIONARY
  5
19
102
{ACAD_REACTORS
330
C
102
}
330
C
100
AcDbDictionary
281
     1
  0
ACDBDICTIONARYWDFLT
  5
E
102
{ACAD_REACTORS
330
C
102
}
330
C
100
AcDbDictionary
281
     1
  3
Normal
350
F
100
AcDbDictionaryWithDefault
340
F
  0
DICTIONARY
  5
47
102
{ACAD_REACTORS
330
C
102
}
330
C
100
AcDbDictionary
281
     1
  3
A0
350
48
  3
A1
350
49
  3
A2
350
4A
  3
A3
350
4B
  3
A4
350
4C
  3
A5
350
4D
  3
A6
350
4E
  3
A7
350
4F
  3
A8
350
50
  3
A9
350
51
  3
B0
350
52
  3
B1
350
53
  3
B2
350
54
  3
B3
350
55
  3
B4
350
56
  3
B5
350
57
  3
B6
350
58
  3
B7
350
59
  3
B8
350
5A
  3
B9
350
5B
  3
C0
350
5C
  3
C1
350
5D
  3
C2
350
5E
  3
C3
350
5F
  3
C4
350
60
  3
C5
350
61
  3
C6
350
62
  3
C7
350
63
  3
C8
350
64
  3
C9
350
65
  3
D0
350
66
  3
D1
350
67
  3
D2
350
68
  0
LAYOUT
  5
1E
102
{ACAD_REACTORS
330
1A
102
}
330
1A
100
AcDbPlotSettings
  1

  2
none_device
  4

  6

 40
0.0
 41
0.0
 42
0.0
 43
0.0
 44
0.0
 45
0.0
 46
0.0
 47
0.0
 48
0.0
 49
0.0
140
0.0
141
0.0
142
1.0
143
1.0
 70
   688
 72
     1
 73
     0
 74
     5
  7

 75
    16
147
1.0
148
0.0
149
0.0
100
AcDbLayout
  1
Layout1
 70
     1
 71
     1
 10
0.0
 20
0.0
 11
420.0
 21
297.0
 12
0.0
 22
0.0
 32
0.0
 14
1.0000000000E+20
 24
1.0000000000E+20
 34
1.0000000000E+20
 15
-1.0000000000E+20
 25
-1.0000000000E+20
 35
-1.0000000000E+20
146
0.0
 13
0.0
 23
0.0
 33
0.0
 16
1.0
 26
0.0
 36
0.0
 17
0.0
 27
1.0
 37
0.0
 76
     0
330
1B
  0
LAYOUT
  5
26
102
{ACAD_REACTORS
330
1A
102
}
330
1A
100
AcDbPlotSettings
  1

  2
none_device
  4

  6

 40
0.0
 41
0.0
 42
0.0
 43
0.0
 44
0.0
 45
0.0
 46
0.0
 47
0.0
 48
0.0
 49
0.0
140
0.0
141
0.0
142
1.0
143
1.0
 70
   688
 72
     1
 73
     0
 74
     5
  7

 75
    16
147
1.0
148
0.0
149
0.0
100
AcDbLayout
  1
Layout2
 70
     1
 71
     2
 10
0.0
 20
0.0
 11
0.0
 21
0.0
 12
0.0
 22
0.0
 32
0.0
 14
0.0
 24
0.0
 34
0.0
 15
0.0
 25
0.0
 35
0.0
146
0.0
 13
0.0
 23
0.0
 33
0.0
 16
1.0
 26
0.0
 36
0.0
 17
0.0
 27
1.0
 37
0.0
 76
     0
330
23
  0
LAYOUT
  5
22
102
{ACAD_REACTORS
330
1A
102
}
330
1A
100
AcDbPlotSettings
  1

  2
none_device
  4
Letter_(8.50_x_11.00_Inches)
  6

 40
6.35
 41
6.35
 42
6.35000508
 43
6.35000508
 44
215.9
 45
279.4
 46
0.0
 47
0.0
 48
0.0
 49
0.0
140
0.0
141
0.0
142
1.0
143
1.0
 70
  1712
 72
     1
 73
     0
 74
     0
  7

 75
     0
147
1.0
148
0.0
149
0.0
100
AcDbLayout
  1
Model
 70
     1
 71
     0
 10
0.0
 20
0.0
 11
297.0
 21
210.0
 12
0.0
 22
0.0
 32
0.0
 14
0.0
 24
0.0
 34
0.0
 15
297.0
 25
210.0
 35
0.0
146
0.0
 13
0.0
 23
0.0
 33
0.0
 16
1.0
 26
0.0
 36
0.0
 17
0.0
 27
1.0
 37
0.0
 76
     0
330
1F
331
29
  0
MLINESTYLE
  5
18
102
{ACAD_REACTORS
330
17
102
}
330
17
100
AcDbMlineStyle
  2
Standard
 70
     0
  3

 62
   256
 51
90.0
 52
90.0
 71
     2
 49
0.5
 62
   256
  6
BYLAYER
 49
-0.5
 62
   256
  6
BYLAYER
  0
ACDBPLACEHOLDER
  5
F
102
{ACAD_REACTORS
330
E
102
}
330
E
  0
SCALE
  5
48
102
{ACAD_REACTORS
330
47
102
}
330
47
100
AcDbScale
 70
     0
300
1:1
140
1.0
141
1.0
290
     1
  0
SCALE
  5
49
102
{ACAD_REACTORS
330
47
102
}
330
47
100
AcDbScale
 70
     0
300
1:2
140
1.0
141
2.0
290
     0
  0
SCALE
  5
4A
102
{ACAD_REACTORS
330
47
102
}
330
47
100
AcDbScale
 70
     0
300
1:4
140
1.0
141
4.0
290
     0
  0
SCALE
  5
4B
102
{ACAD_REACTORS
330
47
102
}
330
47
100
AcDbScale
 70
     0
300
1:5
140
1.0
141
5.0
290
     0
  0
SCALE
  5
4C
102
{ACAD_REACTORS
330
47
102
}
330
47
100
AcDbScale
 70
     0
300
1:8
140
1.0
141
8.0
290
     0
  0
SCALE
  5
4D
102
{ACAD_REACTORS
330
47
102
}
330
47
100
AcDbScale
 70
     0
300
1:10
140
1.0
141
10.0
290
     0
  0
SCALE
  5
4E
102
{ACAD_REACTORS
330
47
102
}
330
47
100
AcDbScale
 70
     0
300
1:16
140
1.0
141
16.0
290
     0
  0
SCALE
  5
4F
102
{ACAD_REACTORS
330
47
102
}
330
47
100
AcDbScale
 70
     0
300
1:20
140
1.0
141
20.0
290
     0
  0
SCALE
  5
50
102
{ACAD_REACTORS
330
47
102
}
330
47
100
AcDbScale
 70
     0
300
1:30
140
1.0
141
30.0
290
     0
  0
SCALE
  5
51
102
{ACAD_REACTORS
330
47
102
}
330
47
100
AcDbScale
 70
     0
300
1:40
140
1.0
141
40.0
290
     0
  0
SCALE
  5
52
102
{ACAD_REACTORS
330
47
102
}
330
47
100
AcDbScale
 70
     0
300
1:50
140
1.0
141
50.0
290
     0
  0
SCALE
  5
53
102
{ACAD_REACTORS
330
47
102
}
330
47
100
AcDbScale
 70
     0
300
1:100
140
1.0
141
100.0
290
     0
  0
SCALE
  5
54
102
{ACAD_REACTORS
330
47
102
}
330
47
100
AcDbScale
 70
     0
300
2:1
140
2.0
141
1.0
290
     0
  0
SCALE
  5
55
102
{ACAD_REACTORS
330
47
102
}
330
47
100
AcDbScale
 70
     0
300
4:1
140
4.0
141
1.0
290
     0
  0
SCALE
  5
56
102
{ACAD_REACTORS
330
47
102
}
330
47
100
AcDbScale
 70
     0
300
8:1
140
8.0
141
1.0
290
     0
  0
SCALE
  5
57
102
{ACAD_REACTORS
330
47
102
}
330
47
100
AcDbScale
 70
     0
300
10:1
140
10.0
141
1.0
290
     0
  0
SCALE
  5
58
102
{ACAD_REACTORS
330
47
102
}
330
47
100
AcDbScale
 70
     0
300
100:1
140
100.0
141
1.0
290
     0
  0
SCALE
  5
59
102
{ACAD_REACTORS
330
47
102
}
330
47
100
AcDbScale
 70
     0
300
1/128" = 1'-0"
140
0.0078125
141
12.0
290
     0
  0
SCALE
  5
5A
102
{ACAD_REACTORS
330
47
102
}
330
47
100
AcDbScale
 70
     0
300
1/64" = 1'-0"
140
0.015625
141
12.0
290
     0
  0
SCALE
  5
5B
102
{ACAD_REACTORS
330
47
102
}
330
47
100
AcDbScale
 70
     0
300
1/32" = 1'-0"
140
0.03125
141
12.0
290
     0
  0
SCALE
  5
5C
102
{ACAD_REACTORS
330
47
102
}
330
47
100
AcDbScale
 70
     0
300
1/16" = 1'-0"
140
0.0625
141
12.0
290
     0
  0
SCALE
  5
5D
102
{ACAD_REACTORS
330
47
102
}
330
47
100
AcDbScale
 70
     0
300
3/32" = 1'-0"
140
0.09375
141
12.0
290
     0
  0
SCALE
  5
5E
102
{ACAD_REACTORS
330
47
102
}
330
47
100
AcDbScale
 70
     0
300
1/8" = 1'-0"
140
0.125
141
12.0
290
     0
  0
SCALE
  5
5F
102
{ACAD_REACTORS
330
47
102
}
330
47
100
AcDbScale
 70
     0
300
3/16" = 1'-0"
140
0.1875
141
12.0
290
     0
  0
SCALE
  5
60
102
{ACAD_REACTORS
330
47
102
}
330
47
100
AcDbScale
 70
     0
300
1/4" = 1'-0"
140
0.25
141
12.0
290
     0
  0
SCALE
  5
61
102
{ACAD_REACTORS
330
47
102
}
330
47
100
AcDbScale
 70
     0
300
3/8" = 1'-0"
140
0.375
141
12.0
290
     0
  0
SCALE
  5
62
102
{ACAD_REACTORS
330
47
102
}
330
47
100
AcDbScale
 70
     0
300
1/2" = 1'-0"
140
0.5
141
12.0
290
     0
  0
SCALE
  5
63
102
{ACAD_REACTORS
330
47
102
}
330
47
100
AcDbScale
 70
     0
300
3/4" = 1'-0"
140
0.75
141
12.0
290
     0
  0
SCALE
  5
64
102
{ACAD_REACTORS
330
47
102
}
330
47
100
AcDbScale
 70
     0
300
1" = 1'-0"
140
1.0
141
12.0
290
     0
  0
SCALE
  5
65
102
{ACAD_REACTORS
330
47
102
}
330
47
100
AcDbScale
 70
     0
300
1-1/2" = 1'-0"
140
1.5
141
12.0
290
     0
  0
SCALE
  5
66
102
{ACAD_REACTORS
330
47
102
}
330
47
100
AcDbScale
 70
     0
300
3" = 1'-0"
140
3.0
141
12.0
290
     0
  0
SCALE
  5
67
102
{ACAD_REACTORS
330
47
102
}
330
47
100
AcDbScale
 70
     0
300
6" = 1'-0"
140
6.0
141
12.0
290
     0
  0
SCALE
  5
68
102
{ACAD_REACTORS
330
47
102
}
330
47
100
AcDbScale
 70
     0
300
1'-0" = 1'-0"
140
12.0
141
12.0
290
     0
  0
ENDSEC
  0
EOF
