  0
SECTION
  2
HEADER
  9
$ACADVER
  1
AC1015
  9
$ACADMAINTVER
 70
     6
  9
$DWGCODEPAGE
  3
ANSI_1252
  9
$INSBASE
 10
0.0
 20
0.0
 30
0.0
  9
$EXTMIN
 10
0.0
 20
0.0
 30
0.0
  9
$EXTMAX
 10
297.0
 20
210.0
 30
0.0
  9
$LIMMIN
 10
0.0
 20
0.0
  9
$LIMMAX
 10
297.0
 20
210.0
  9
$ORTHOMODE
 70
     0
  9
$REGENMODE
 70
     1
  9
$FILLMODE
 70
     1
  9
$QTEXTMODE
 70
     0
  9
$MIRRTEXT
 70
     1
  9
$LTSCALE
 40
1.0
  9
$ATTMODE
 70
     1
  9
$TEXTSIZE
 40
2.0
  9
$TRACEWID
 40
1.0
  9
$TEXTSTYLE
  7
Standard
  9
$CLAYER
  8
0
  9
$CELTYPE
  6
ByLayer
  9
$CECOLOR
 62
   256
  9
$CELTSCALE
 40
1.0
  9
$DISPSILH
 70
     0
  9
$DIMSCALE
 40
1.0
  9
$DIMASZ
 40
3.0
  9
$DIMEXO
 40
0.0
  9
$DIMDLI
 40
3.75
  9
$DIMRND
 40
0.0
  9
$DIMDLE
 40
0.0
  9
$DIMEXE
 40
1.0
  9
$DIMTP
 40
0.0
  9
$DIMTM
 40
0.0
  9
$DIMTXT
 40
2.0
  9
$DIMCEN
 40
2.5
  9
$DIMTSZ
 40
0.0
  9
$DIMTOL
 70
     0
  9
$DIMLIM
 70
     0
  9
$DIMTIH
 70
     1
  9
$DIMTOH
 70
     1
  9
$DIMSE1
 70
     0
  9
$DIMSE2
 70
     0
  9
$DIMTAD
 70
     1
  9
$DIMZIN
 70
     0
  9
$DIMBLK
  1

  9
$DIMASO
 70
     1
  9
$DIMSHO
 70
     1
  9
$DIMPOST
  1

  9
$DIMAPOST
  1

  9
$DIMALT
 70
     0
  9
$DIMALTD
 70
     3
  9
$DIMALTF
 40
0.0393700787
  9
$DIMLFAC
 40
1.0
  9
$DIMTOFL
 70
     1
  9
$DIMTVP
 40
0.0
  9
$DIMTIX
 70
     0
  9
$DIMSOXD
 70
     0
  9
$DIMSAH
 70
     0
  9
$DIMBLK1
  1

  9
$DIMBLK2
  1

  9
$DIMSTYLE
  2
ISO-25
  9
$DIMCLRD
 70
     0
  9
$DIMCLRE
 70
     0
  9
$DIMCLRT
 70
     0
  9
$DIMTFAC
 40
1.0
  9
$DIMGAP
 40
1.524
  9
$DIMJUST
 70
     0
  9
$DIMSD1
 70
     0
  9
$DIMSD2
 70
     0
  9
$DIMTOLJ
 70
     0
  9
$DIMTZIN
 70
     0
  9
$DIMALTZ
 70
     0
  9
$DIMALTTZ
 70
     0
  9
$DIMUPT
 70
     0
  9
$DIMDEC
 70
     2
  9
$DIMTDEC
 70
     3
  9
$DIMALTU
 70
     2
  9
$DIMALTTD
 70
     3
  9
$DIMTXSTY
  7
Standard
  9
$DIMAUNIT
 70
     0
  9
$DIMADEC
 70
     2
  9
$DIMALTRND
 40
0.0
  9
$DIMAZIN
 70
     0
  9
$DIMDSEP
 70
    44
  9
$DIMATFIT
 70
     3
  9
$DIMFRAC
 70
     0
  9
$DIMLDRBLK
  1

  9
$DIMLUNIT
 70
     2
  9
$DIMLWD
 70
    -2
  9
$DIMLWE
 70
    -2
  9
$DIMTMOVE
 70
     0
  9
$LUNITS
 70
     2
  9
$LUPREC
 70
     2
  9
$SKETCHINC
 40
1.0
  9
$FILLETRAD
 40
10.0
  9
$AUNITS
 70
     0
  9
$AUPREC
 70
     2
  9
$MENU
  1
.
  9
$ELEVATION
 40
0.0
  9
$PELEVATION
 40
0.0
  9
$THICKNESS
 40
0.0
  9
$LIMCHECK
 70
     0
  9
$CHAMFERA
 40
0.0
  9
$CHAMFERB
 40
0.0
  9
$CHAMFERC
 40
0.0
  9
$CHAMFERD
 40
0.0
  9
$SKPOLY
 70
     0
  9
$TDCREATE
 40
2457632.65719787
  9
$TDUCREATE
 40
2457632.573864537
  9
$TDUPDATE
 40
2457632.657199676
  9
$TDUUPDATE
 40
2457632.573866343
  9
$TDINDWG
 40
0.0000000116
  9
$TDUSRTIMER
 40
0.0000000116
  9
$USRTIMER
 70
     1
  9
$ANGBASE
 50
0.0
  9
$ANGDIR
 70
     0
  9
$PDMODE
 70
     0
  9
$PDSIZE
 40
-1.0
  9
$PLINEWID
 40
0.0
  9
$SPLFRAME
 70
     0
  9
$SPLINETYPE
 70
     6
  9
$SPLINESEGS
 70
     8
  9
$HANDSEED
  5
2A6
  9
$SURFTAB1
 70
     6
  9
$SURFTAB2
 70
     6
  9
$SURFTYPE
 70
     6
  9
$SURFU
 70
     6
  9
$SURFV
 70
     6
  9
$UCSBASE
  2

  9
$UCSNAME
  2

  9
$UCSORG
 10
0.0
 20
0.0
 30
0.0
  9
$UCSXDIR
 10
1.0
 20
0.0
 30
0.0
  9
$UCSYDIR
 10
0.0
 20
1.0
 30
0.0
  9
$UCSORTHOREF
  2

  9
$UCSORTHOVIEW
 70
     0
  9
$UCSORGTOP
 10
0.0
 20
0.0
 30
0.0
  9
$UCSORGBOTTOM
 10
0.0
 20
0.0
 30
0.0
  9
$UCSORGLEFT
 10
0.0
 20
0.0
 30
0.0
  9
$UCSORGRIGHT
 10
0.0
 20
0.0
 30
0.0
  9
$UCSORGFRONT
 10
0.0
 20
0.0
 30
0.0
  9
$UCSORGBACK
 10
0.0
 20
0.0
 30
0.0
  9
$PUCSBASE
  2

  9
$PUCSNAME
  2

  9
$PUCSORG
 10
0.0
 20
0.0
 30
0.0
  9
$PUCSXDIR
 10
1.0
 20
0.0
 30
0.0
  9
$PUCSYDIR
 10
0.0
 20
1.0
 30
0.0
  9
$PUCSORTHOREF
  2

  9
$PUCSORTHOVIEW
 70
     0
  9
$PUCSORGTOP
 10
0.0
 20
0.0
 30
0.0
  9
$PUCSORGBOTTOM
 10
0.0
 20
0.0
 30
0.0
  9
$PUCSORGLEFT
 10
0.0
 20
0.0
 30
0.0
  9
$PUCSORGRIGHT
 10
0.0
 20
0.0
 30
0.0
  9
$PUCSORGFRONT
 10
0.0
 20
0.0
 30
0.0
  9
$PUCSORGBACK
 10
0.0
 20
0.0
 30
0.0
  9
$USERI1
 70
     0
  9
$USERI2
 70
     0
  9
$USERI3
 70
     0
  9
$USERI4
 70
     0
  9
$USERI5
 70
     0
  9
$USERR1
 40
0.0
  9
$USERR2
 40
0.0
  9
$USERR3
 40
0.0
  9
$USERR4
 40
0.0
  9
$USERR5
 40
0.0
  9
$WORLDVIEW
 70
     1
  9
$SHADEDGE
 70
     3
  9
$SHADEDIF
 70
    70
  9
$TILEMODE
 70
     1
  9
$MAXACTVP
 70
    64
  9
$PINSBASE
 10
0.0
 20
0.0
 30
0.0
  9
$PLIMCHECK
 70
     0
  9
$PEXTMIN
 10
1.0000000000E+20
 20
1.0000000000E+20
 30
1.0000000000E+20
  9
$PEXTMAX
 10
-1.0000000000E+20
 20
-1.0000000000E+20
 30
-1.0000000000E+20
  9
$PLIMMIN
 10
0.0
 20
0.0
  9
$PLIMMAX
 10
420.0
 20
297.0
  9
$UNITMODE
 70
     0
  9
$VISRETAIN
 70
     1
  9
$PLINEGEN
 70
     0
  9
$PSLTSCALE
 70
     1
  9
$TREEDEPTH
 70
  3020
  9
$CMLSTYLE
  2
Standard
  9
$CMLJUST
 70
     0
  9
$CMLSCALE
 40
20.0
  9
$PROXYGRAPHICS
 70
     1
  9
$MEASUREMENT
 70
     1
  9
$CELWEIGHT
370
    -1
  9
$ENDCAPS
280
     0
  9
$JOINSTYLE
280
     0
  9
$LWDISPLAY
290
     1
  9
$INSUNITS
 70
     4
  9
$HYPERLINKBASE
  1

  9
$STYLESHEET
  1

  9
$XEDIT
290
     1
  9
$CEPSNTYPE
380
     0
  9
$PSTYLEMODE
290
     1
  9
$FINGERPRINTGUID
  2
{6CEAEC9E-AAE8-47E2-9A01-58B1E3D0B7DF}
  9
$VERSIONGUID
  2
{FAEB1C32-E019-11D5-929B-00C0DF256EC4}
  9
$EXTNAMES
290
     1
  9
$PSVPSCALE
 40
0.0
  9
$OLESTARTUP
290
     0
  0
ENDSEC
  0
SECTION
  2
CLASSES
  0
CLASS
  1
ACDBDICTIONARYWDFLT
  2
AcDbDictionaryWithDefault
  3
ObjectDBX Classes
 90
        0
280
     0
281
     0
  0
CLASS
  1
VISUALSTYLE
  2
AcDbVisualStyle
  3
ObjectDBX Classes
 90
     4095
280
     0
281
     0
  0
CLASS
  1
MATERIAL
  2
AcDbMaterial
  3
ObjectDBX Classes
 90
     1153
280
     0
281
     0
  0
CLASS
  1
SCALE
  2
AcDbScale
  3
ObjectDBX Classes
 90
     1153
280
     0
281
     0
  0
CLASS
  1
TABLESTYLE
  2
AcDbTableStyle
  3
ObjectDBX Classes
 90
     4095
280
     0
281
     0
  0
CLASS
  1
MLEADERSTYLE
  2
AcDbMLeaderStyle
  3
ACDB_MLEADERSTYLE_CLASS
 90
     4095
280
     0
281
     0
  0
CLASS
  1
SUN
  2
AcDbSun
  3
SCENEOE
 90
     1153
280
     0
281
     0
  0
CLASS
  1
ACDBPLACEHOLDER
  2
AcDbPlaceHolder
  3
ObjectDBX Classes
 90
        0
280
     0
281
     0
  0
CLASS
  1
LAYOUT
  2
AcDbLayout
  3
ObjectDBX Classes
 90
        0
280
     0
281
     0
  0
ENDSEC
  0
SECTION
  2
TABLES
  0
TABLE
  2
VPORT
  5
8
330
0
100
AcDbSymbolTable
 70
     1
  0
VPORT
  5
29
330
8
100
AcDbSymbolTableRecord
100
AcDbViewportTableRecord
  2
*Active
 70
     0
 10
0.0
 20
0.0
 11
1.0
 21
1.0
 12
148.5
 22
105.0
 13
0.0
 23
0.0
 14
10.0
 24
10.0
 15
10.0
 25
10.0
 16
0.0
 26
0.0
 36
1.0
 17
0.0
 27
0.0
 37
0.0
 40
210.0
 41
1.4142857143
 42
50.0
 43
0.0
 44
0.0
 50
0.0
 51
0.0
 71
     0
 72
  2000
 73
     1
 74
     3
 75
     0
 76
     0
 77
     0
 78
     0
281
     0
 65
     1
110
0.0
120
0.0
130
0.0
111
1.0
121
0.0
131
0.0
112
0.0
122
1.0
132
0.0
 79
     0
146
0.0
  0
ENDTAB
  0
TABLE
  2
LTYPE
  5
5
330
0
100
AcDbSymbolTable
 70
     6
  0
LTYPE
  5
14
330
5
100
AcDbSymbolTableRecord
100
AcDbLinetypeTableRecord
  2
ByBlock
 70
     0
  3

 72
    65
 73
     0
 40
0.0
  0
LTYPE
  5
15
330
5
100
AcDbSymbolTableRecord
100
AcDbLinetypeTableRecord
  2
ByLayer
 70
     0
  3

 72
    65
 73
     0
 40
0.0
  0
LTYPE
  5
16
330
5
100
AcDbSymbolTableRecord
100
AcDbLinetypeTableRecord
  2
Continuous
 70
     0
  3
Solid line
 72
    65
 73
     0
 40
0.0
  0
LTYPE
  5
6E
330
5
100
AcDbSymbolTableRecord
100
AcDbLinetypeTableRecord
  2
HIDDEN
 70
     0
  3
Hidden __ __ __ __ __ __ __ __ __ __ __ __ __ __
 72
    65
 73
     2
 40
1.905
 49
1.27
 74
     0
 49
-0.635
 74
     0
  0
LTYPE
  5
6F
330
5
100
AcDbSymbolTableRecord
100
AcDbLinetypeTableRecord
  2
PHANTOM
 70
     0
  3
Phantom ______  __  __  ______  __  __  ______
 72
    65
 73
     6
 40
12.7
 49
6.35
 74
     0
 49
-1.27
 74
     0
 49
1.27
 74
     0
 49
-1.27
 74
     0
 49
1.27
 74
     0
 49
-1.27
 74
     0
  0
LTYPE
  5
70
330
5
100
AcDbSymbolTableRecord
100
AcDbLinetypeTableRecord
  2
CENTER
 70
     0
  3
Center ____ _ ____ _ ____ _ ____ _ ____ _ ____
 72
    65
 73
     4
 40
10.16
 49
6.35
 74
     0
 49
-1.27
 74
     0
 49
1.27
 74
     0
 49
-1.27
 74
     0
  0
LTYPE
  5
71
330
5
100
AcDbSymbolTableRecord
100
AcDbLinetypeTableRecord
  2
CENTERX2
 70
     0
  3
Center (2x) ________  __  ________  __  _____
 72
    65
 73
     4
 40
20.32
 49
12.7
 74
     0
 49
-2.54
 74
     0
 49
2.54
 74
     0
 49
-2.54
 74
     0
  0
LTYPE
  5
72
330
5
100
AcDbSymbolTableRecord
100
AcDbLinetypeTableRecord
  2
DOT2
 70
     0
  3
Dot (.5x) ........................................
 72
    65
 73
     2
 40
0.635
 49
0.0
 74
     0
 49
-0.635
 74
     0
  0
ENDTAB
  0
TABLE
  2
LAYER
  5
2
330
0
100
AcDbSymbolTable
 70
     5
  0
LAYER
  5
10
330
2
100
AcDbSymbolTableRecord
100
AcDbLayerTableRecord
  2
0
 70
     0
 62
     7
  6
Continuous
370
    -3
390
F
  0
LAYER
  5
73
330
2
100
AcDbSymbolTableRecord
100
AcDbLayerTableRecord
  2
FORMAT
 70
     0
 62
     7
  6
Continuous
370
    -3
390
F
  0
LAYER
  5
74
330
2
100
AcDbSymbolTableRecord
100
AcDbLayerTableRecord
  2
VERMASSUNG
 70
     0
 62
     7
  6
Continuous
370
    -3
390
F
  0
LAYER
  5
75
330
2
100
AcDbSymbolTableRecord
100
AcDbLayerTableRecord
  2
KOPF_DÜNN
 70
     0
 62
     7
  6
Continuous
370
    -3
390
F
  0
LAYER
  5
76
330
2
100
AcDbSymbolTableRecord
100
AcDbLayerTableRecord
  2
KOPF_DICK
 70
     0
 62
     7
  6
Continuous
370
    15
390
F
  0
ENDTAB
  0
TABLE
  2
STYLE
  5
3
330
0
100
AcDbSymbolTable
 70
     2
  0
STYLE
  5
11
330
3
100
AcDbSymbolTableRecord
100
AcDbTextStyleTableRecord
  2
Standard
 70
     0
 40
0.0
 41
1.0
 50
0.0
 71
     0
 42
2.0
  3
txt
  4

  0
STYLE
  5
77
330
3
100
AcDbSymbolTableRecord
100
AcDbTextStyleTableRecord
  2
SLDTEXTSTYLE0
 70
     0
 40
0.0
 41
0.7
 50
0.0
 71
     0
 42
2.0
  3
TXT
  4

  0
ENDTAB
  0
TABLE
  2
VIEW
  5
6
330
0
100
AcDbSymbolTable
 70
     0
  0
ENDTAB
  0
TABLE
  2
UCS
  5
7
330
0
100
AcDbSymbolTable
 70
     0
  0
ENDTAB
  0
TABLE
  2
APPID
  5
9
330
0
100
AcDbSymbolTable
 70
     1
  0
APPID
  5
12
330
9
100
AcDbSymbolTableRecord
100
AcDbRegAppTableRecord
  2
ACAD
 70
     0
  0
ENDTAB
  0
TABLE
  2
DIMSTYLE
  5
A
330
0
100
AcDbSymbolTable
 70
     3
100
AcDbDimStyleTable
  0
DIMSTYLE
105
27
330
A
100
AcDbSymbolTableRecord
100
AcDbDimStyleTableRecord
  2
ISO-25
 70
     0
 41
2.5
 42
0.625
 43
3.75
 44
1.25
 73
     0
 74
     0
 77
     1
 78
     8
140
2.5
141
2.5
143
0.0393700787
147
0.625
171
     3
172
     1
178
     0
271
     2
272
     2
274
     3
278
    44
283
     0
284
     8
340
11
  0
DIMSTYLE
105
191
102
{ACAD_REACTORS
330
190
330
19D
330
1A7
330
1B1
330
1BB
102
}
330
A
100
AcDbSymbolTableRecord
100
AcDbDimStyleTableRecord
  2
SLDDIMSTYLE0
 70
     0
 41
3.0
 44
0.0
 45
0.000000001
 73
     0
 74
     0
 77
     1
 78
    12
 79
     3
140
2.0
147
0.5
173
     1
178
     0
271
     2
272
     3
276
     2
284
    12
340
77
  0
DIMSTYLE
105
1CD
330
A
100
AcDbSymbolTableRecord
100
AcDbDimStyleTableRecord
  2
SLDDIMSTYLE1
 70
     0
 41
0.9
 44
0.0
 45
0.000000001
146
0.9
147
0.0
173
     1
178
     0
271
     0
272
     0
276
     2
340
11
341
1CE
343
1CE
344
1CE
  0
ENDTAB
  0
TABLE
  2
BLOCK_RECORD
  5
1
330
0
100
AcDbSymbolTable
 70
    10
  0
BLOCK_RECORD
  5
1F
330
1
100
AcDbSymbolTableRecord
100
AcDbBlockTableRecord
  2
*Model_Space
340
22
  0
BLOCK_RECORD
  5
1B
330
1
100
AcDbSymbolTableRecord
100
AcDbBlockTableRecord
  2
*Paper_Space
340
1E
  0
BLOCK_RECORD
  5
23
330
1
100
AcDbSymbolTableRecord
100
AcDbBlockTableRecord
  2
*Paper_Space0
340
26
  0
BLOCK_RECORD
  5
7D
330
1
100
AcDbSymbolTableRecord
100
AcDbBlockTableRecord
  2
SW_TABLEANNOTATION_0
340
0
102
{BLKREFS
331
98
102
}
  0
BLOCK_RECORD
  5
192
330
1
100
AcDbSymbolTableRecord
100
AcDbBlockTableRecord
  2
_D
340
0
  0
BLOCK_RECORD
  5
19E
330
1
100
AcDbSymbolTableRecord
100
AcDbBlockTableRecord
  2
_D_1
340
0
  0
BLOCK_RECORD
  5
1A8
330
1
100
AcDbSymbolTableRecord
100
AcDbBlockTableRecord
  2
_D_2
340
0
  0
BLOCK_RECORD
  5
1B2
330
1
100
AcDbSymbolTableRecord
100
AcDbBlockTableRecord
  2
_D_3
340
0
  0
BLOCK_RECORD
  5
1BC
330
1
100
AcDbSymbolTableRecord
100
AcDbBlockTableRecord
  2
_D_4
340
0
  0
BLOCK_RECORD
  5
1C7
330
1
100
AcDbSymbolTableRecord
100
AcDbBlockTableRecord
  2
SW_NOTE_0
340
0
102
{BLKREFS
331
1CC
102
}
  0
BLOCK_RECORD
  5
1CE
330
1
100
AcDbSymbolTableRecord
100
AcDbBlockTableRecord
  2
_DOT
340
0
  0
BLOCK_RECORD
  5
1D7
330
1
100
AcDbSymbolTableRecord
100
AcDbBlockTableRecord
  2
SW_NOTE_1
340
0
102
{BLKREFS
331
1DC
102
}
  0
ENDTAB
  0
ENDSEC
  0
SECTION
  2
BLOCKS
  0
BLOCK
  5
20
330
1F
100
AcDbEntity
  8
0
100
AcDbBlockBegin
  2
*Model_Space
 70
     0
 10
0.0
 20
0.0
 30
0.0
  3
*Model_Space
  1

  0
ENDBLK
  5
21
330
1F
100
AcDbEntity
  8
0
100
AcDbBlockEnd
  0
BLOCK
  5
1C
330
1B
100
AcDbEntity
 67
     1
  8
0
100
AcDbBlockBegin
  2
*Paper_Space
 70
     0
 10
0.0
 20
0.0
 30
0.0
  3
*Paper_Space
  1

  0
ENDBLK
  5
1D
330
1B
100
AcDbEntity
 67
     1
  8
0
100
AcDbBlockEnd
  0
BLOCK
  5
24
330
23
100
AcDbEntity
  8
0
100
AcDbBlockBegin
  2
*Paper_Space0
 70
     0
 10
0.0
 20
0.0
 30
0.0
  3
*Paper_Space0
  1

  0
ENDBLK
  5
25
330
23
100
AcDbEntity
  8
0
100
AcDbBlockEnd
  0
BLOCK
  5
7E
330
7D
100
AcDbEntity
  8
0
100
AcDbBlockBegin
  2
SW_TABLEANNOTATION_0
 70
     0
 10
0.0
 20
0.0
 30
0.0
  3
SW_TABLEANNOTATION_0
  1

  0
LINE
  5
80
330
7D
100
AcDbEntity
  8
0
  6
Continuous
 62
     0
370
     0
100
AcDbLine
 10
0.0
 20
0.0
 30
0.0
 11
0.0
 21
-10.9613963039
 31
0.0
  0
LINE
  5
81
330
7D
100
AcDbEntity
  8
0
  6
Continuous
 62
     0
370
     0
100
AcDbLine
 10
0.0
 20
-10.9613963039
 30
0.0
 11
125.0044361962
 21
-10.9613963039
 31
0.0
  0
LINE
  5
82
330
7D
100
AcDbEntity
  8
0
  6
Continuous
 62
     0
370
     0
100
AcDbLine
 10
125.0044361962
 20
-10.9613963039
 30
0.0
 11
125.0044361962
 21
0.0
 31
0.0
  0
LINE
  5
83
330
7D
100
AcDbEntity
  8
0
  6
Continuous
 62
     0
370
     0
100
AcDbLine
 10
125.0044361962
 20
0.0
 30
0.0
 11
0.0
 21
0.0
 31
0.0
  0
LINE
  5
84
330
7D
100
AcDbEntity
  8
0
  6
Continuous
 62
     0
370
     0
100
AcDbLine
 10
15.9651052694
 20
-7.3075975359
 30
0.0
 11
15.9651052694
 21
-10.9613963039
 31
0.0
  0
LINE
  5
85
330
7D
100
AcDbEntity
  8
0
  6
Continuous
 62
     0
370
     0
100
AcDbLine
 10
34.1012448998
 20
-7.3075975359
 30
0.0
 11
34.1012448998
 21
-10.9613963039
 31
0.0
  0
LINE
  5
86
330
7D
100
AcDbEntity
  8
0
  6
Continuous
 62
     0
370
     0
100
AcDbLine
 10
92.6586456418
 20
-7.3075975359
 30
0.0
 11
92.6586456418
 21
-10.9613963039
 31
0.0
  0
LINE
  5
87
330
7D
100
AcDbEntity
  8
0
  6
Continuous
 62
     0
370
     0
100
AcDbLine
 10
15.9651052694
 20
0.0
 30
0.0
 11
15.9651052694
 21
-7.3075975359
 31
0.0
  0
LINE
  5
88
330
7D
100
AcDbEntity
  8
0
  6
Continuous
 62
     0
370
     0
100
AcDbLine
 10
34.1012448998
 20
0.0
 30
0.0
 11
34.1012448998
 21
-7.3075975359
 31
0.0
  0
LINE
  5
89
330
7D
100
AcDbEntity
  8
0
  6
Continuous
 62
     0
370
     0
100
AcDbLine
 10
92.6586456418
 20
0.0
 30
0.0
 11
92.6586456418
 21
-7.3075975359
 31
0.0
  0
LINE
  5
8A
330
7D
100
AcDbEntity
  8
0
  6
Continuous
 62
     0
370
     0
100
AcDbLine
 10
0.0
 20
-3.653798768
 30
0.0
 11
125.0044361962
 21
-3.653798768
 31
0.0
  0
LINE
  5
8B
330
7D
100
AcDbEntity
  8
0
  6
Continuous
 62
     0
370
     0
100
AcDbLine
 10
0.0
 20
-7.3075975359
 30
0.0
 11
125.0044361962
 21
-7.3075975359
 31
0.0
  0
MTEXT
  5
8C
330
7D
100
AcDbEntity
  8
0
  6
Continuous
 62
     0
370
     0
100
AcDbMText
 10
5.2825527975
 20
-7.9563615651
 30
0.0
 40
2.0
 41
0.0
 71
     1
 72
     1
  1
POS.
  7
SLDTEXTSTYLE0
 73
     1
 44
1.0
  0
MTEXT
  5
8D
330
7D
100
AcDbEntity
  8
0
  6
Continuous
 62
     0
370
     0
100
AcDbMText
 10
21.1331751904
 20
-7.9563615651
 30
0.0
 40
2.0
 41
0.0
 71
     1
 72
     1
  1
MENGE
  7
SLDTEXTSTYLE0
 73
     1
 44
1.0
  0
MTEXT
  5
8E
330
7D
100
AcDbEntity
  8
0
  6
Continuous
 62
     0
370
     0
100
AcDbMText
 10
56.0799464956
 20
-7.9563615651
 30
0.0
 40
2.0
 41
0.0
 71
     1
 72
     1
  1
Bezeichnung
  7
SLDTEXTSTYLE0
 73
     1
 44
1.0
  0
MTEXT
  5
8F
330
7D
100
AcDbEntity
  8
0
  6
Continuous
 62
     0
370
     0
100
AcDbMText
 10
97.7315420798
 20
-7.9563615651
 30
0.0
 40
2.0
 41
0.0
 71
     1
 72
     1
  1
Zeichnungsnummer
  7
SLDTEXTSTYLE0
 73
     1
 44
1.0
  0
MTEXT
  5
90
330
7D
100
AcDbEntity
  8
0
  6
Continuous
 62
     0
370
     0
100
AcDbMText
 10
7.2825526596
 20
-0.9171773494
 30
0.0
 40
2.0
 41
0.0
 71
     1
 72
     1
  1
2
  7
SLDTEXTSTYLE0
 73
     1
 44
1.0
  0
MTEXT
  5
91
330
7D
100
AcDbEntity
  8
0
  6
Continuous
 62
     0
370
     0
100
AcDbMText
 10
24.5331750608
 20
-0.9171773494
 30
0.0
 40
2.0
 41
0.0
 71
     1
 72
     1
  1
1
  7
SLDTEXTSTYLE0
 73
     1
 44
1.0
  0
MTEXT
  5
92
330
7D
100
AcDbEntity
  8
0
  6
Continuous
 62
     0
370
     0
100
AcDbMText
 10
54.2799467594
 20
-0.9171773494
 30
0.0
 40
2.0
 41
0.0
 71
     1
 72
     1
  1
Klemmschraube
  7
SLDTEXTSTYLE0
 73
     1
 44
1.0
  0
MTEXT
  5
93
330
7D
100
AcDbEntity
  8
0
  6
Continuous
 62
     0
370
     0
100
AcDbMText
 10
99.1315415642
 20
-0.9171773494
 30
0.0
 40
2.0
 41
0.0
 71
     1
 72
     1
  1
MB7-ER1.001.022
  7
SLDTEXTSTYLE0
 73
     1
 44
1.0
  0
MTEXT
  5
94
330
7D
100
AcDbEntity
  8
0
  6
Continuous
 62
     0
370
     0
100
AcDbMText
 10
7.4825526109
 20
-4.5709761174
 30
0.0
 40
2.0
 41
0.0
 71
     1
 72
     1
  1
1
  7
SLDTEXTSTYLE0
 73
     1
 44
1.0
  0
MTEXT
  5
95
330
7D
100
AcDbEntity
  8
0
  6
Continuous
 62
     0
370
     0
100
AcDbMText
 10
24.5331750608
 20
-4.5709761174
 30
0.0
 40
2.0
 41
0.0
 71
     1
 72
     1
  1
1
  7
SLDTEXTSTYLE0
 73
     1
 44
1.0
  0
MTEXT
  5
96
330
7D
100
AcDbEntity
  8
0
  6
Continuous
 62
     0
370
     0
100
AcDbMText
 10
54.2799448967
 20
-4.5709761174
 30
0.0
 40
2.0
 41
0.0
 71
     1
 72
     1
  1
Aufnahme MBM
  7
SLDTEXTSTYLE0
 73
     1
 44
1.0
  0
MTEXT
  5
97
330
7D
100
AcDbEntity
  8
0
  6
Continuous
 62
     0
370
     0
100
AcDbMText
 10
98.6315414822
 20
-4.5709761174
 30
0.0
 40
2.0
 41
0.0
 71
     1
 72
     1
  1
HA6-MB7.K01.076
  7
SLDTEXTSTYLE0
 73
     1
 44
1.0
  0
ENDBLK
  5
7F
330
7D
100
AcDbEntity
  8
0
100
AcDbBlockEnd
  0
BLOCK
  5
193
330
192
100
AcDbEntity
  8
0
100
AcDbBlockBegin
  2
_D
 70
     0
 10
0.0
 20
0.0
 30
0.0
  3
_D
  1

  0
SOLID
  5
195
330
192
100
AcDbEntity
  8
VERMASSUNG
100
AcDbTrace
 10
95.5009622936
 20
146.3606461712
 30
0.0
 11
95.0509622936
 21
143.3606461712
 31
0.0
 12
95.9509622936
 22
143.3606461712
 32
0.0
 13
95.9509622936
 23
143.3606461712
 33
0.0
  0
SOLID
  5
196
330
192
100
AcDbEntity
  8
VERMASSUNG
100
AcDbTrace
 10
95.5009622936
 20
83.3606461712
 30
0.0
 11
95.9509622936
 21
86.3606461712
 31
0.0
 12
95.0509622936
 22
86.3606461712
 32
0.0
 13
95.0509622936
 23
86.3606461712
 33
0.0
  0
LINE
  5
197
330
192
100
AcDbEntity
  8
VERMASSUNG
100
AcDbLine
 10
133.2792428993
 20
146.3606461712
 30
0.0
 11
94.5009622936
 21
146.3606461712
 31
0.0
  0
LINE
  5
198
330
192
100
AcDbEntity
  8
VERMASSUNG
100
AcDbLine
 10
133.2792428993
 20
83.3606461712
 30
0.0
 11
94.5009622936
 21
83.3606461712
 31
0.0
  0
LINE
  5
199
330
192
100
AcDbEntity
  8
VERMASSUNG
100
AcDbLine
 10
95.5009622936
 20
146.3606461712
 30
0.0
 11
95.5009622936
 21
83.3606461712
 31
0.0
  0
MTEXT
  5
19A
330
192
100
AcDbEntity
  8
VERMASSUNG
100
AcDbMText
 10
92.7228270374
 20
106.4888609451
 30
0.0
 40
2.0
 41
0.0
 71
     1
 72
     1
  1
HSK A
  7
SLDTEXTSTYLE0
 11
-7.044195017643634E-15
 21
1.0
 31
0.0
 73
     1
 44
1.0
  0
MTEXT
  5
19B
330
192
100
AcDbEntity
  8
VERMASSUNG
100
AcDbMText
 10
92.9228269887
 20
115.4888605577
 30
0.0
 40
2.0
 41
0.0
 71
     1
 72
     1
  1
%%c
  7
SLDTEXTSTYLE0
 11
-7.044195017643634E-15
 21
1.0
 31
0.0
 73
     1
 44
1.0
  0
MTEXT
  5
19C
330
192
100
AcDbEntity
  8
VERMASSUNG
100
AcDbMText
 10
92.9228266977
 20
119.0982038905
 30
0.0
 40
2.0
 41
0.0
 71
     1
 72
     1
  1
63
  7
SLDTEXTSTYLE0
 11
-7.044195017643634E-15
 21
1.0
 31
0.0
 73
     1
 44
1.0
  0
ENDBLK
  5
194
330
192
100
AcDbEntity
  8
0
100
AcDbBlockEnd
  0
BLOCK
  5
19F
330
19E
100
AcDbEntity
  8
0
100
AcDbBlockBegin
  2
_D_1
 70
     0
 10
0.0
 20
0.0
 30
0.0
  3
_D_1
  1

  0
SOLID
  5
1A1
330
19E
100
AcDbEntity
  8
VERMASSUNG
100
AcDbTrace
 10
208.9792428993
 20
162.4212600012
 30
0.0
 11
205.9792428993
 21
162.8712600012
 31
0.0
 12
205.9792428993
 22
161.9712600012
 32
0.0
 13
205.9792428993
 23
161.9712600012
 33
0.0
  0
SOLID
  5
1A2
330
19E
100
AcDbEntity
  8
VERMASSUNG
100
AcDbTrace
 10
132.9792428993
 20
162.4212600012
 30
0.0
 11
135.9792428993
 21
161.9712600012
 31
0.0
 12
135.9792428993
 22
162.8712600012
 32
0.0
 13
135.9792428993
 23
162.8712600012
 33
0.0
  0
LINE
  5
1A3
330
19E
100
AcDbEntity
  8
VERMASSUNG
100
AcDbLine
 10
208.9792428993
 20
150.1606461712
 30
0.0
 11
208.9792428993
 21
163.4212600012
 31
0.0
  0
LINE
  5
1A4
330
19E
100
AcDbEntity
  8
VERMASSUNG
100
AcDbLine
 10
132.9792428993
 20
146.0606461712
 30
0.0
 11
132.9792428993
 21
163.4212600012
 31
0.0
  0
LINE
  5
1A5
330
19E
100
AcDbEntity
  8
VERMASSUNG
100
AcDbLine
 10
208.9792428993
 20
162.4212600012
 30
0.0
 11
132.9792428993
 21
162.4212600012
 31
0.0
  0
MTEXT
  5
1A6
330
19E
100
AcDbEntity
  8
VERMASSUNG
100
AcDbMText
 10
166.804400508
 20
164.9993955971
 30
0.0
 40
2.0
 41
0.0
 71
     1
 72
     1
  1
76
  7
SLDTEXTSTYLE0
 73
     1
 44
1.0
  0
ENDBLK
  5
1A0
330
19E
100
AcDbEntity
  8
0
100
AcDbBlockEnd
  0
BLOCK
  5
1A9
330
1A8
100
AcDbEntity
  8
0
100
AcDbBlockBegin
  2
_D_2
 70
     0
 10
0.0
 20
0.0
 30
0.0
  3
_D_2
  1

  0
SOLID
  5
1AB
330
1A8
100
AcDbEntity
  8
VERMASSUNG
100
AcDbTrace
 10
208.9792428993
 20
156.4212600012
 30
0.0
 11
205.9792428993
 21
156.8712600012
 31
0.0
 12
205.9792428993
 22
155.9712600012
 32
0.0
 13
205.9792428993
 23
155.9712600012
 33
0.0
  0
SOLID
  5
1AC
330
1A8
100
AcDbEntity
  8
VERMASSUNG
100
AcDbTrace
 10
158.9292428993
 20
156.4212600012
 30
0.0
 11
161.9292428993
 21
155.9712600012
 31
0.0
 12
161.9292428993
 22
156.8712600012
 32
0.0
 13
161.9292428993
 23
156.8712600012
 33
0.0
  0
LINE
  5
1AD
330
1A8
100
AcDbEntity
  8
VERMASSUNG
100
AcDbLine
 10
208.9792428993
 20
150.1606461712
 30
0.0
 11
208.9792428993
 21
157.4212600012
 31
0.0
  0
LINE
  5
1AE
330
1A8
100
AcDbEntity
  8
VERMASSUNG
100
AcDbLine
 10
158.9292428993
 20
144.707086495
 30
0.0
 11
158.9292428993
 21
157.4212600012
 31
0.0
  0
LINE
  5
1AF
330
1A8
100
AcDbEntity
  8
VERMASSUNG
100
AcDbLine
 10
208.9792428993
 20
156.4212600012
 30
0.0
 11
158.9292428993
 21
156.4212600012
 31
0.0
  0
MTEXT
  5
1B0
330
1A8
100
AcDbEntity
  8
VERMASSUNG
100
AcDbMText
 10
183.5128962219
 20
158.9993955971
 30
0.0
 40
2.0
 41
0.0
 71
     1
 72
     1
  1
50.05
  7
SLDTEXTSTYLE0
 73
     1
 44
1.0
  0
ENDBLK
  5
1AA
330
1A8
100
AcDbEntity
  8
0
100
AcDbBlockEnd
  0
BLOCK
  5
1B3
330
1B2
100
AcDbEntity
  8
0
100
AcDbBlockBegin
  2
_D_3
 70
     0
 10
0.0
 20
0.0
 30
0.0
  3
_D_3
  1

  0
SOLID
  5
1B5
330
1B2
100
AcDbEntity
  8
VERMASSUNG
100
AcDbTrace
 10
208.9792428993
 20
168.4212600012
 30
0.0
 11
205.9792428993
 21
168.8712600012
 31
0.0
 12
205.9792428993
 22
167.9712600012
 32
0.0
 13
205.9792428993
 23
167.9712600012
 33
0.0
  0
SOLID
  5
1B6
330
1B2
100
AcDbEntity
  8
VERMASSUNG
100
AcDbTrace
 10
101.0792428993
 20
168.4212600012
 30
0.0
 11
104.0792428993
 21
167.9712600012
 31
0.0
 12
104.0792428993
 22
168.8712600012
 32
0.0
 13
104.0792428993
 23
168.8712600012
 33
0.0
  0
LINE
  5
1B7
330
1B2
100
AcDbEntity
  8
VERMASSUNG
100
AcDbLine
 10
208.9792428993
 20
150.1606461712
 30
0.0
 11
208.9792428993
 21
169.4212600012
 31
0.0
  0
LINE
  5
1B8
330
1B2
100
AcDbEntity
  8
VERMASSUNG
100
AcDbLine
 10
101.0792428993
 20
134.5513239177
 30
0.0
 11
101.0792428993
 21
169.4212600012
 31
0.0
  0
LINE
  5
1B9
330
1B2
100
AcDbEntity
  8
VERMASSUNG
100
AcDbLine
 10
208.9792428993
 20
168.4212600012
 30
0.0
 11
101.0792428993
 21
168.4212600012
 31
0.0
  0
MTEXT
  5
1BA
330
1B2
100
AcDbEntity
  8
VERMASSUNG
100
AcDbMText
 10
155.0861028945
 20
170.9993955971
 30
0.0
 40
2.0
 41
0.0
 71
     1
 72
     1
  1
107.9
  7
SLDTEXTSTYLE0
 73
     1
 44
1.0
  0
ENDBLK
  5
1B4
330
1B2
100
AcDbEntity
  8
0
100
AcDbBlockEnd
  0
BLOCK
  5
1BD
330
1BC
100
AcDbEntity
  8
0
100
AcDbBlockBegin
  2
_D_4
 70
     0
 10
0.0
 20
0.0
 30
0.0
  3
_D_4
  1

  0
SOLID
  5
1BF
330
1BC
100
AcDbEntity
  8
VERMASSUNG
100
AcDbTrace
 10
219.2382286594
 20
150.8606461712
 30
0.0
 11
218.7882286594
 21
147.8606461712
 31
0.0
 12
219.6882286594
 22
147.8606461712
 32
0.0
 13
219.6882286594
 23
147.8606461712
 33
0.0
  0
SOLID
  5
1C0
330
1BC
100
AcDbEntity
  8
VERMASSUNG
100
AcDbTrace
 10
219.2382286594
 20
78.8606461712
 30
0.0
 11
219.6882286594
 21
81.8606461712
 31
0.0
 12
218.7882286594
 22
81.8606461712
 32
0.0
 13
218.7882286594
 23
81.8606461712
 33
0.0
  0
LINE
  5
1C1
330
1BC
100
AcDbEntity
  8
VERMASSUNG
100
AcDbLine
 10
208.2792428993
 20
150.8606461712
 30
0.0
 11
220.2382286594
 21
150.8606461712
 31
0.0
  0
LINE
  5
1C2
330
1BC
100
AcDbEntity
  8
VERMASSUNG
100
AcDbLine
 10
208.2792428993
 20
78.8606461712
 30
0.0
 11
220.2382286594
 21
78.8606461712
 31
0.0
  0
LINE
  5
1C3
330
1BC
100
AcDbEntity
  8
VERMASSUNG
100
AcDbLine
 10
219.2382286594
 20
150.8606461712
 30
0.0
 11
219.2382286594
 21
78.8606461712
 31
0.0
  0
MTEXT
  5
1C4
330
1BC
100
AcDbEntity
  8
VERMASSUNG
100
AcDbMText
 10
216.4600934032
 20
108.4549709412
 30
0.0
 40
2.0
 41
0.0
 71
     1
 72
     1
  1
MBM
  7
SLDTEXTSTYLE0
 11
-7.044195017643634E-15
 21
1.0
 31
0.0
 73
     1
 44
1.0
  0
MTEXT
  5
1C5
330
1BC
100
AcDbEntity
  8
VERMASSUNG
100
AcDbMText
 10
216.6600933545
 20
114.8549707796
 30
0.0
 40
2.0
 41
0.0
 71
     1
 72
     1
  1
%%c
  7
SLDTEXTSTYLE0
 11
-7.044195017643634E-15
 21
1.0
 31
0.0
 73
     1
 44
1.0
  0
MTEXT
  5
1C6
330
1BC
100
AcDbEntity
  8
VERMASSUNG
100
AcDbMText
 10
216.4600934032
 20
118.4649712595
 30
0.0
 40
2.0
 41
0.0
 71
     1
 72
     1
  1
72
  7
SLDTEXTSTYLE0
 11
-7.044195017643634E-15
 21
1.0
 31
0.0
 73
     1
 44
1.0
  0
ENDBLK
  5
1BE
330
1BC
100
AcDbEntity
  8
0
100
AcDbBlockEnd
  0
BLOCK
  5
1C8
330
1C7
100
AcDbEntity
  8
0
100
AcDbBlockBegin
  2
SW_NOTE_0
 70
     0
 10
0.0
 20
0.0
 30
0.0
  3
SW_NOTE_0
  1

  0
CIRCLE
  5
1CA
330
1C7
100
AcDbEntity
  8
VERMASSUNG
 62
     0
100
AcDbCircle
 10
0.0
 20
-2.5028270988
 30
0.0
 40
2.502827098762102
  0
MTEXT
  5
1CB
330
1C7
100
AcDbEntity
  8
VERMASSUNG
 62
     0
100
AcDbMText
 10
-0.0000000237
 20
-1.8101961014
 30
0.0
 40
2.0
 41
0.0
 71
     2
 72
     1
  1
1
  7
SLDTEXTSTYLE0
 73
     1
 44
1.0
  0
ENDBLK
  5
1C9
330
1C7
100
AcDbEntity
  8
0
100
AcDbBlockEnd
  0
BLOCK
  5
1CF
330
1CE
100
AcDbEntity
  8
0
100
AcDbBlockBegin
  2
_DOT
 70
     0
 10
0.0
 20
0.0
 30
0.0
  3
_DOT
  1

  0
POLYLINE
  5
1D1
330
1CE
100
AcDbEntity
  8
0
  6
ByBlock
 62
     0
100
AcDb2dPolyline
 66
     1
 10
0.0
 20
0.0
 30
0.0
 70
     1
 40
0.5
 41
0.5
  0
VERTEX
  5
1D3
330
1D1
100
AcDbEntity
  8
0
  6
ByBlock
 62
     0
100
AcDbVertex
100
AcDb2dVertex
 10
-0.25
 20
0.0
 30
0.0
 42
1.0
  0
VERTEX
  5
1D4
330
1D1
100
AcDbEntity
  8
0
  6
ByBlock
 62
     0
100
AcDbVertex
100
AcDb2dVertex
 10
0.25
 20
0.0
 30
0.0
 42
1.0
  0
SEQEND
  5
1D5
330
1D1
100
AcDbEntity
  8
0
  6
ByBlock
 62
     0
  0
LINE
  5
1D2
330
1CE
100
AcDbEntity
  8
0
  6
ByBlock
 62
     0
370
    -2
100
AcDbLine
 10
-0.5
 20
0.0
 30
0.0
 11
-1.0
 21
0.0
 31
0.0
  0
ENDBLK
  5
1D0
330
1CE
100
AcDbEntity
  8
0
100
AcDbBlockEnd
  0
BLOCK
  5
1D8
330
1D7
100
AcDbEntity
  8
0
100
AcDbBlockBegin
  2
SW_NOTE_1
 70
     0
 10
0.0
 20
0.0
 30
0.0
  3
SW_NOTE_1
  1

  0
CIRCLE
  5
1DA
330
1D7
100
AcDbEntity
  8
VERMASSUNG
 62
     0
100
AcDbCircle
 10
0.0
 20
-2.5028270988
 30
0.0
 40
2.502827098762102
  0
MTEXT
  5
1DB
330
1D7
100
AcDbEntity
  8
VERMASSUNG
 62
     0
100
AcDbMText
 10
-0.012499975
 20
-1.8101961014
 30
0.0
 40
2.0
 41
0.0
 71
     2
 72
     1
  1
2
  7
SLDTEXTSTYLE0
 73
     1
 44
1.0
  0
ENDBLK
  5
1D9
330
1D7
100
AcDbEntity
  8
0
100
AcDbBlockEnd
  0
ENDSEC
  0
SECTION
  2
ENTITIES
  0
MTEXT
  5
78
330
1F
100
AcDbEntity
  8
KOPF_DÜNN
100
AcDbMText
 10
13.8892156294
 20
23.8442973028
 30
0.0
 40
3.0
 41
0.0
 71
     1
 72
     1
  1
102.063.721
  7
SLDTEXTSTYLE0
 73
     1
 44
1.0
  0
MTEXT
  5
79
330
1F
100
AcDbEntity
  8
VERMASSUNG
100
AcDbMText
 10
13.9329988022
 20
28.8834360957
 30
0.0
 40
3.0
 41
0.0
 71
     1
 72
     1
  1
Aufnahme
  7
SLDTEXTSTYLE0
 73
     1
 44
1.0
  0
MTEXT
  5
7A
330
1F
100
AcDbEntity
  8
VERMASSUNG
100
AcDbMText
 10
98.8601118557
 20
13.8365368761
 30
0.0
 40
2.0
 41
0.0
 71
     1
 72
     1
  1
Datum: 08.12.2006
  7
SLDTEXTSTYLE0
 73
     1
 44
1.0
  0
MTEXT
  5
7B
330
1F
100
AcDbEntity
  8
VERMASSUNG
100
AcDbMText
 10
13.933048693
 20
18.0482802738
 30
0.0
 40
2.0
 41
0.0
 71
     1
 72
     1
  1
HSK-A63 / MBM ø72
  7
SLDTEXTSTYLE0
 73
     1
 44
1.0
  0
MTEXT
  5
7C
330
1F
100
AcDbEntity
  8
VERMASSUNG
100
AcDbMText
 10
13.9808475933
 20
13.9090974274
 30
0.0
 40
2.0
 41
0.0
 71
     1
 72
     1
  1
Gewicht: 1543g
  7
SLDTEXTSTYLE0
 73
     1
 44
1.0
  0
INSERT
  5
98
330
1F
100
AcDbEntity
  8
0
  6
Continuous
 62
     7
370
     0
100
AcDbBlockReference
  2
SW_TABLEANNOTATION_0
 10
155.4069348624
 20
22.9491325334
 30
0.0
  0
ARC
  5
99
330
1F
100
AcDbEntity
  8
0
  6
Continuous
 62
     7
370
    15
100
AcDbCircle
 10
175.9792428993
 20
79.8606461712
 30
0.0
 40
1.000000000000028
100
AcDbArc
 50
180.0
 51
270.0
  0
ARC
  5
9A
330
1F
100
AcDbEntity
  8
0
  6
Continuous
 62
     7
370
    15
100
AcDbCircle
 10
175.9792428993
 20
149.8606461712
 30
0.0
 40
1.000000000000028
100
AcDbArc
 50
90.0
 51
180.0
  0
LINE
  5
9B
330
1F
100
AcDbEntity
  8
0
  6
Continuous
 62
     7
370
    15
100
AcDbLine
 10
208.2792428993
 20
78.8606461712
 30
0.0
 11
208.9792428993
 21
79.5606461712
 31
0.0
  0
LINE
  5
9C
330
1F
100
AcDbEntity
  8
0
  6
Continuous
 62
     7
370
    15
100
AcDbLine
 10
208.9792428993
 20
150.1606461712
 30
0.0
 11
208.2792428993
 21
150.8606461712
 31
0.0
  0
LINE
  5
9D
330
1F
100
AcDbEntity
  8
0
  6
Continuous
 62
     7
370
    15
100
AcDbLine
 10
175.9792428993
 20
78.8606461712
 30
0.0
 11
208.2792428993
 21
78.8606461712
 31
0.0
  0
LINE
  5
9E
330
1F
100
AcDbEntity
  8
0
  6
Continuous
 62
     7
370
    15
100
AcDbLine
 10
208.2792428993
 20
150.8606461712
 30
0.0
 11
175.9792428993
 21
150.8606461712
 31
0.0
  0
LINE
  5
9F
330
1F
100
AcDbEntity
  8
0
  6
Continuous
 62
     7
370
    15
100
AcDbLine
 10
133.2792428993
 20
83.3606461712
 30
0.0
 11
137.9292428993
 21
83.3606461712
 31
0.0
  0
LINE
  5
A0
330
1F
100
AcDbEntity
  8
0
  6
Continuous
 62
     7
370
    15
100
AcDbLine
 10
137.9572312584
 20
146.3606461712
 30
0.0
 11
133.2792428993
 21
146.3606461712
 31
0.0
  0
ARC
  5
A1
330
1F
100
AcDbEntity
  8
0
  6
Continuous
 62
     7
370
    15
100
AcDbCircle
 10
133.2792428993
 20
83.6606461712
 30
0.0
 40
0.3000000000000114
100
AcDbArc
 50
180.0
 51
270.0
  0
ARC
  5
A2
330
1F
100
AcDbEntity
  8
0
  6
Continuous
 62
     7
370
    15
100
AcDbCircle
 10
133.2792428993
 20
146.0606461712
 30
0.0
 40
0.2999999999999829
100
AcDbArc
 50
90.0
 51
180.0
  0
ARC
  5
A3
330
1F
100
AcDbEntity
  8
0
  6
Continuous
 62
     7
370
    15
100
AcDbCircle
 10
173.9792428993
 20
87.8606461712
 30
0.0
 40
1.0
100
AcDbArc
 50
0.0
 51
90.0
  0
ARC
  5
A4
330
1F
100
AcDbEntity
  8
0
  6
Continuous
 62
     7
370
    15
100
AcDbCircle
 10
173.9792428993
 20
141.8606461712
 30
0.0
 40
1.0
100
AcDbArc
 50
270.0
 51
0.0
  0
ARC
  5
A5
330
1F
100
AcDbEntity
  8
0
  6
Continuous
 62
     7
370
    15
100
AcDbCircle
 10
159.9292428993
 20
87.8606461712
 30
0.0
 40
1.0
100
AcDbArc
 50
90.0
 51
143.1139143113
  0
ARC
  5
A6
330
1F
100
AcDbEntity
  8
0
  6
Continuous
 62
     7
370
    15
100
AcDbCircle
 10
159.9292428993
 20
141.8606461712
 30
0.0
 40
1.000000000000002
100
AcDbArc
 50
216.8998573924
 51
270.0
  0
LINE
  5
A7
330
1F
100
AcDbEntity
  8
0
  6
Continuous
 62
     7
370
    15
100
AcDbLine
 10
159.9292428993
 20
88.8606461712
 30
0.0
 11
173.9792428993
 21
88.8606461712
 31
0.0
  0
LINE
  5
A8
330
1F
100
AcDbEntity
  8
0
  6
Continuous
 62
     7
370
    15
100
AcDbLine
 10
173.9792428993
 20
140.8606461712
 30
0.0
 11
159.9292428993
 21
140.8606461712
 31
0.0
  0
ARC
  5
A9
330
1F
100
AcDbEntity
  8
0
  6
Continuous
 62
     7
370
    15
100
AcDbCircle
 10
132.4792361466
 20
90.2952185769
 30
0.0
 40
0.60000675266771
100
AcDbArc
 50
33.5571153394
 51
90.0
  0
ARC
  5
AA
330
1F
100
AcDbEntity
  8
0
  6
Continuous
 62
     7
370
    15
100
AcDbCircle
 10
132.4792361466
 20
139.4260737656
 30
0.0
 40
0.6000067526676958
100
AcDbArc
 50
270.0
 51
326.4428846606
  0
LINE
  5
AB
330
1F
100
AcDbEntity
  8
0
  6
Continuous
 62
     7
370
    15
100
AcDbLine
 10
130.963490566
 20
90.6410045046
 30
0.0
 11
131.8359556727
 21
90.8747808253
 31
0.0
  0
LINE
  5
AC
330
1F
100
AcDbEntity
  8
0
  6
Continuous
 62
     7
370
    15
100
AcDbLine
 10
131.8359556727
 20
138.8465115171
 30
0.0
 11
130.963490566
 21
139.0802878379
 31
0.0
  0
LINE
  5
AD
330
1F
100
AcDbEntity
  8
0
  6
Continuous
 62
     7
370
    15
100
AcDbLine
 10
119.7477330639
 20
138.5183761394
 30
0.0
 11
107.1792428993
 21
137.8886922634
 31
0.0
  0
LINE
  5
AE
330
1F
100
AcDbEntity
  8
0
  6
Continuous
 62
     7
370
    15
100
AcDbLine
 10
130.963490566
 20
139.0802878379
 30
0.0
 11
128.1622423483
 21
138.9399447408
 31
0.0
  0
LINE
  5
AF
330
1F
100
AcDbEntity
  8
0
  6
Continuous
 62
     7
370
    15
100
AcDbLine
 10
128.1622984285
 20
90.781344792
 30
0.0
 11
130.963490566
 21
90.6410045046
 31
0.0
  0
LINE
  5
B0
330
1F
100
AcDbEntity
  8
0
  6
Continuous
 62
     7
370
    15
100
AcDbLine
 10
111.1792428993
 20
91.6321992774
 30
0.0
 11
119.7481355718
 21
91.2028960373
 31
0.0
  0
ARC
  5
B1
330
1F
100
AcDbEntity
  8
0
  6
Continuous
 62
     7
370
    15
100
AcDbCircle
 10
131.9912470997
 20
90.2952253295
 30
0.0
 40
0.6000000000000145
100
AcDbArc
 50
90.0
 51
105.0
  0
ARC
  5
B2
330
1F
100
AcDbEntity
  8
0
  6
Continuous
 62
     7
370
    15
100
AcDbCircle
 10
131.9912470997
 20
139.4260670129
 30
0.0
 40
0.6000000000000008
100
AcDbArc
 50
255.0
 51
270.0
  0
LINE
  5
B3
330
1F
100
AcDbEntity
  8
0
  6
Continuous
 62
     7
370
    15
100
AcDbLine
 10
131.9912470997
 20
90.8952253295
 30
0.0
 11
132.4792361466
 21
90.8952253295
 31
0.0
  0
LINE
  5
B4
330
1F
100
AcDbEntity
  8
0
  6
Continuous
 62
     7
370
    15
100
AcDbLine
 10
132.4792361466
 20
138.8260670129
 30
0.0
 11
131.9912470997
 21
138.8260670129
 31
0.0
  0
LINE
  5
B5
330
1F
100
AcDbEntity
  8
0
  6
Continuous
 62
     7
370
    15
100
AcDbLine
 10
102.3625795393
 20
93.9906461712
 30
0.0
 11
109.7792428993
 21
93.9906461712
 31
0.0
  0
ARC
  5
B6
330
1F
100
AcDbEntity
  8
0
  6
Continuous
 62
     7
370
    15
100
AcDbCircle
 10
109.7792428993
 20
92.5906461712
 30
0.0
 40
1.399999999999991
100
AcDbArc
 50
42.2465410162
 51
90.0
  0
LINE
  5
B7
330
1F
100
AcDbEntity
  8
0
  6
Continuous
 62
     7
370
    15
100
AcDbLine
 10
101.0802753935
 20
95.1396136771
 30
0.0
 11
102.2204063575
 21
93.999482713
 31
0.0
  0
LINE
  5
B8
330
1F
100
AcDbEntity
  8
0
  6
Continuous
 62
     7
370
    15
100
AcDbLine
 10
102.2204063575
 20
135.7218096294
 30
0.0
 11
101.0891436727
 21
134.5905469446
 31
0.0
  0
ARC
  5
B9
330
1F
100
AcDbEntity
  8
0
  6
Continuous
 62
     7
370
    15
100
AcDbCircle
 10
105.7792428993
 20
137.1306461712
 30
0.0
 40
1.400000000000015
100
AcDbArc
 50
270.0
 51
301.7485287426
  0
LINE
  5
BA
330
1F
100
AcDbEntity
  8
0
  6
Continuous
 62
     7
370
    15
100
AcDbLine
 10
105.7792428993
 20
135.7306461712
 30
0.0
 11
102.3535086332
 21
135.7306461712
 31
0.0
  0
SPLINE
  5
BB
330
1F
100
AcDbEntity
  8
0
  6
Continuous
 62
     7
370
    15
100
AcDbSpline
210
0.0
220
0.0
230
1.0
 70
    24
 71
     3
 72
    13
 73
     9
 74
     0
 42
0.000000001
 43
0.00000001
 40
0.0
 40
0.0
 40
0.0
 40
0.0
 40
0.1301201910016562
 40
0.3058399681546553
 40
0.4811172548045938
 40
0.6482794157520979
 40
0.8157704970829804
 40
1.0
 40
1.0
 40
1.0
 40
1.0
 10
192.3279270408324
 20
111.2646812686027
 30
0.0
 10
192.1411787321389
 20
111.2355305446681
 30
0.0
 10
191.7022376550924
 20
111.1670134574182
 30
0.0
 10
190.9705527416585
 20
111.0528001343214
 30
0.0
 10
190.1498404491939
 20
110.9246899648922
 30
0.0
 10
189.3380246631851
 20
110.7979685073903
 30
0.0
 10
188.5371399545147
 20
110.6729533508451
 30
0.0
 10
188.0300166779973
 20
110.5937932731021
 30
0.0
 10
187.7643880132713
 20
110.552329615794
 30
0.0
  0
SPLINE
  5
BC
330
1F
100
AcDbEntity
  8
0
  6
Continuous
 62
     7
370
    15
100
AcDbSpline
210
0.0
220
0.0
230
1.0
 70
    24
 71
     3
 72
    12
 73
     8
 74
     0
 42
0.000000001
 43
0.00000001
 40
0.0
 40
0.0
 40
0.0
 40
0.0
 40
0.2161870935880693
 40
0.4397656795331923
 40
0.5934211595336294
 40
0.7522118885200083
 40
1.0
 40
1.0
 40
1.0
 40
1.0
 10
193.9927819268529
 20
115.5729978240367
 30
0.0
 10
193.8787883124736
 20
115.2780048008202
 30
0.0
 10
193.6469036127076
 20
114.6779328670184
 30
0.0
 10
193.3059932184526
 20
113.7957239082549
 30
0.0
 10
192.9943110076941
 20
112.9891517319525
 30
0.0
 10
192.6741975763908
 20
112.1607612173909
 30
0.0
 10
192.4590487636089
 20
111.603998463007
 30
0.0
 10
192.3279270408324
 20
111.2646812686027
 30
0.0
  0
SPLINE
  5
BD
330
1F
100
AcDbEntity
  8
0
  6
Continuous
 62
     7
370
    15
100
AcDbSpline
210
0.0
220
0.0
230
1.0
 70
    24
 71
     3
 72
    12
 73
     8
 74
     0
 42
0.000000001
 43
0.00000001
 40
0.0
 40
0.0
 40
0.0
 40
0.0
 40
0.2161870935880692
 40
0.4397656795331923
 40
0.5934211595336295
 40
0.7522118885200079
 40
1.0
 40
1.0
 40
1.0
 40
1.0
 10
191.0940977853121
 20
119.1689627266621
 30
0.0
 10
191.2925724301672
 20
118.9227448491322
 30
0.0
 10
191.6963076190546
 20
118.4218908414851
 30
0.0
 10
192.2898677916625
 20
117.6855493002642
 30
0.0
 10
192.8325386809468
 20
117.0123384996885
 30
0.0
 10
193.3898891951596
 20
116.3209168788064
 30
0.0
 10
193.7644854779461
 20
115.8562111641512
 30
0.0
 10
193.9927819268529
 20
115.5729978240367
 30
0.0
  0
SPLINE
  5
BE
330
1F
100
AcDbEntity
  8
0
  6
Continuous
 62
     7
370
    15
100
AcDbSpline
210
0.0
220
0.0
230
1.0
 70
    24
 71
     3
 72
    13
 73
     9
 74
     0
 42
0.000000001
 43
0.00000001
 40
0.0
 40
0.0
 40
0.0
 40
0.0
 40
0.1842295029170182
 40
0.3517205842479021
 40
0.5188827451954063
 40
0.6941600318453448
 40
0.8698798089983438
 40
1.0
 40
1.0
 40
1.0
 40
1.0
 10
186.530558757751
 20
118.4566110738535
 30
0.0
 10
186.7961874224771
 20
118.4980747311616
 30
0.0
 10
187.3033106989944
 20
118.5772348089046
 30
0.0
 10
188.1041954076648
 20
118.7022499654497
 30
0.0
 10
188.9160111936736
 20
118.8289714229517
 30
0.0
 10
189.7367234861382
 20
118.9570815923808
 30
0.0
 10
190.4684083995722
 20
119.0712949154777
 30
0.0
 10
190.9073494766186
 20
119.1398120027276
 30
0.0
 10
191.0940977853121
 20
119.1689627266621
 30
0.0
  0
SPLINE
  5
BF
330
1F
100
AcDbEntity
  8
0
  6
Continuous
 62
     7
370
    15
100
AcDbSpline
210
0.0
220
0.0
230
1.0
 70
    24
 71
     3
 72
    12
 73
     8
 74
     0
 42
0.000000001
 43
0.00000001
 40
0.0
 40
0.0
 40
0.0
 40
0.0
 40
0.2161870935880697
 40
0.4397656795331915
 40
0.5934211595336287
 40
0.7522118885200068
 40
1.0
 40
1.0
 40
1.0
 40
1.0
 10
187.7643880132713
 20
110.552329615794
 30
0.0
 10
187.5659133684162
 20
110.798547493324
 30
0.0
 10
187.1621781795288
 20
111.2994015009711
 30
0.0
 10
186.5686180069209
 20
112.0357430421919
 30
0.0
 10
186.0259471176365
 20
112.7089538427676
 30
0.0
 10
185.4685966034238
 20
113.4003754636497
 30
0.0
 10
185.0940003206373
 20
113.8650811783049
 30
0.0
 10
184.8657038717305
 20
114.1482945184194
 30
0.0
  0
CIRCLE
  5
C0
330
1F
100
AcDbEntity
  8
0
  6
Continuous
 62
     7
370
    15
100
AcDbCircle
 10
189.4292428993
 20
114.8606461712
 30
0.0
 40
4.749999999999997
  0
SPLINE
  5
C1
330
1F
100
AcDbEntity
  8
0
  6
Continuous
 62
     7
370
    15
100
AcDbSpline
210
0.0
220
0.0
230
1.0
 70
    24
 71
     3
 72
    12
 73
     8
 74
     0
 42
0.000000001
 43
0.00000001
 40
0.0
 40
0.0
 40
0.0
 40
0.0
 40
0.2161870935880697
 40
0.4397656795331927
 40
0.5934211595336297
 40
0.7522118885200085
 40
1.0
 40
1.0
 40
1.0
 40
1.0
 10
184.8657038717305
 20
114.1482945184194
 30
0.0
 10
184.9796974861098
 20
114.4432875416359
 30
0.0
 10
185.2115821858758
 20
115.0433594754377
 30
0.0
 10
185.5524925801308
 20
115.9255684342013
 30
0.0
 10
185.8641747908893
 20
116.7321406105036
 30
0.0
 10
186.1842882221926
 20
117.5605311250652
 30
0.0
 10
186.3994370349745
 20
118.1172938794492
 30
0.0
 10
186.530558757751
 20
118.4566110738535
 30
0.0
  0
CIRCLE
  5
C2
330
1F
100
AcDbEntity
  8
0
  6
Continuous
 62
     7
370
    15
100
AcDbCircle
 10
189.4292428993
 20
114.8606461712
 30
0.0
 40
7.200000000000001
  0
CIRCLE
  5
C3
330
1F
100
AcDbEntity
  8
0
  6
Continuous
 62
     7
370
    15
100
AcDbCircle
 10
189.4292428993
 20
114.8606461712
 30
0.0
 40
7.999999999999993
  0
ARC
  5
C4
330
1F
100
AcDbEntity
  8
0
  6
Continuous
 62
     7
370
    15
100
AcDbCircle
 10
189.4292428993
 20
114.8606461712
 30
0.0
 40
4.000000000000017
100
AcDbArc
 50
158.8720636358
 51
218.8720636358
  0
ARC
  5
C5
330
1F
100
AcDbEntity
  8
0
  6
Continuous
 62
     7
370
    15
100
AcDbCircle
 10
189.4292428993
 20
114.8606461712
 30
0.0
 40
4.000000000000011
100
AcDbArc
 50
98.8720636358
 51
158.8720636358
  0
ARC
  5
C6
330
1F
100
AcDbEntity
  8
0
  6
Continuous
 62
     7
370
    15
100
AcDbCircle
 10
189.4292428993
 20
114.8606461712
 30
0.0
 40
4.000000000000017
100
AcDbArc
 50
218.8720636358
 51
278.8720636358
  0
ARC
  5
C7
330
1F
100
AcDbEntity
  8
0
  6
Continuous
 62
     7
370
    15
100
AcDbCircle
 10
189.4292428993
 20
114.8606461712
 30
0.0
 40
4.000000000000011
100
AcDbArc
 50
278.8720636358
 51
338.8720636358
  0
ARC
  5
C8
330
1F
100
AcDbEntity
  8
0
  6
Continuous
 62
     7
370
    15
100
AcDbCircle
 10
189.4292428993
 20
114.8606461712
 30
0.0
 40
4.000000000000017
100
AcDbArc
 50
338.8720636358
 51
38.8720636358
  0
ARC
  5
C9
330
1F
100
AcDbEntity
  8
0
  6
Continuous
 62
     7
370
    15
100
AcDbCircle
 10
189.4292428993
 20
114.8606461712
 30
0.0
 40
4.000000000000017
100
AcDbArc
 50
38.8720636358
 51
98.8720636358
  0
SPLINE
  5
CA
330
1F
100
AcDbEntity
  8
0
  6
Continuous
 62
     7
370
    15
100
AcDbSpline
210
0.0
220
0.0
230
1.0
 70
     8
 71
     3
 72
    52
 73
    48
 74
     0
 42
0.000000001
 43
0.00000001
 40
0.0
 40
0.0
 40
0.0
 40
0.0
 40
0.0312499999999995
 40
0.0312499999999995
 40
0.062499999999999
 40
0.062499999999999
 40
0.1249999999999983
 40
0.1249999999999983
 40
0.1562499999999979
 40
0.1562499999999979
 40
0.1874999999999976
 40
0.1874999999999976
 40
0.2187499999999974
 40
0.2187499999999974
 40
0.2499999999999971
 40
0.2499999999999971
 40
0.3124999999999964
 40
0.3124999999999964
 40
0.3437499999999962
 40
0.3437499999999962
 40
0.3749999999999959
 40
0.3749999999999959
 40
0.4374999999999959
 40
0.4374999999999959
 40
0.4687499999999962
 40
0.4687499999999962
 40
0.4999999999999966
 40
0.4999999999999966
 40
0.5624999999999966
 40
0.5624999999999966
 40
0.5937499999999968
 40
0.5937499999999968
 40
0.624999999999997
 40
0.624999999999997
 40
0.6874999999999976
 40
0.6874999999999976
 40
0.749999999999998
 40
0.749999999999998
 40
0.8124999999999986
 40
0.8124999999999986
 40
0.8749999999999991
 40
0.8749999999999991
 40
0.9062499999999993
 40
0.9062499999999993
 40
0.9374999999999996
 40
0.9374999999999996
 40
1.0
 40
1.0
 40
1.0
 40
1.0
 10
199.4292428992917
 20
114.8606461712281
 30
0.0
 10
199.4292428992917
 20
114.5518574127991
 30
0.0
 10
199.4110159741494
 20
114.2434762350056
 30
0.0
 10
199.3378163499144
 20
113.6275350223198
 30
0.0
 10
199.2822530927913
 20
113.3178907289504
 30
0.0
 10
199.0633719809299
 20
112.4094671409852
 30
0.0
 10
198.8496328246484
 20
111.8300843915281
 30
0.0
 10
198.4336624708044
 20
110.9976070808558
 30
0.0
 10
198.2783376126885
 20
110.7256210166893
 30
0.0
 10
197.943214251218
 20
110.2053551018324
 30
0.0
 10
197.762760670221
 20
109.9555416192665
 30
0.0
 10
197.3773054197559
 20
109.4754324550254
 30
0.0
 10
197.1722994427406
 20
109.2451404534913
 30
0.0
 10
196.7381226016012
 20
108.8036287017591
 30
0.0
 10
196.5086747442795
 20
108.5924148459696
 30
0.0
 10
195.7981990284869
 20
107.9984744810307
 30
0.0
 10
195.2911123220279
 20
107.650545385649
 30
0.0
 10
194.4825335922254
 20
107.1964301290908
 30
0.0
 10
194.2036258669186
 20
107.0559061072694
 30
0.0
 10
193.6378694789793
 20
106.8015647328974
 30
0.0
 10
193.350828445564
 20
106.6874658253464
 30
0.0
 10
192.477612500607
 20
106.3828950820033
 30
0.0
 10
191.8794426387559
 20
106.2298296200765
 30
0.0
 10
190.9578161310077
 20
106.0755355908791
 30
0.0
 10
190.6469727901518
 20
106.0369670349157
 30
0.0
 10
190.0286925052936
 20
105.9863793331136
 30
0.0
 10
189.7198247780803
 20
105.9740933952717
 30
0.0
 10
188.7940254547742
 20
105.9755895145732
 30
0.0
 10
188.1778912101213
 20
106.0273929116967
 30
0.0
 10
187.2553492359289
 20
106.1845039295429
 30
0.0
 10
186.9502336077434
 20
106.2499344821968
 30
0.0
 10
186.3515671518384
 20
106.4050541759091
 30
0.0
 10
186.0569425061347
 20
106.4949183168899
 30
0.0
 10
185.1870963940752
 20
106.8013642347062
 30
0.0
 10
184.6257614141568
 20
107.0544071115758
 30
0.0
 10
183.5427700064137
 20
107.6661600025036
 30
0.0
 10
183.0361297994143
 20
108.0166859729416
 30
0.0
 10
182.0994020917646
 20
108.8038152182707
 30
0.0
 10
181.6670857602454
 20
109.242135927273
 30
0.0
 10
180.8897825302776
 20
110.2138411517279
 30
0.0
 10
180.5578595744495
 20
110.73058914206
 30
0.0
 10
180.1471249519741
 20
111.5537535079308
 30
0.0
 10
180.0248480321501
 20
111.8362073394377
 30
0.0
 10
179.8114250999492
 20
112.4183508213222
 30
0.0
 10
179.7200075871565
 20
112.7199807603212
 30
0.0
 10
179.5024377200754
 20
113.626605777283
 30
0.0
 10
179.4292428992917
 20
114.2393652871991
 30
0.0
 10
179.4292428992917
 20
114.8606461712281
 30
0.0
  0
SPLINE
  5
CB
330
1F
100
AcDbEntity
  8
0
  6
Continuous
 62
     7
370
    15
100
AcDbSpline
210
0.0
220
0.0
230
1.0
 70
     8
 71
     3
 72
    54
 73
    50
 74
     0
 42
0.000000001
 43
0.00000001
 40
0.0
 40
0.0
 40
0.0
 40
0.0
 40
0.03125
 40
0.03125
 40
0.0624999999999999
 40
0.0624999999999999
 40
0.0937499999999999
 40
0.0937499999999999
 40
0.1249999999999999
 40
0.1249999999999999
 40
0.1874999999999997
 40
0.1874999999999997
 40
0.2187499999999995
 40
0.2187499999999995
 40
0.2499999999999993
 40
0.2499999999999993
 40
0.3124999999999988
 40
0.3124999999999988
 40
0.3749999999999984
 40
0.3749999999999984
 40
0.437499999999998
 40
0.437499999999998
 40
0.4687499999999978
 40
0.4687499999999978
 40
0.4999999999999976
 40
0.4999999999999976
 40
0.5624999999999971
 40
0.5624999999999971
 40
0.593749999999997
 40
0.593749999999997
 40
0.6249999999999968
 40
0.6249999999999968
 40
0.6874999999999964
 40
0.6874999999999964
 40
0.7187499999999963
 40
0.7187499999999963
 40
0.7499999999999968
 40
0.7499999999999968
 40
0.8124999999999976
 40
0.8124999999999976
 40
0.8437499999999979
 40
0.8437499999999979
 40
0.8749999999999983
 40
0.8749999999999983
 40
0.9374999999999992
 40
0.9374999999999992
 40
0.9687499999999996
 40
0.9687499999999996
 40
1.0
 40
1.0
 40
1.0
 40
1.0
 10
179.4292428992917
 20
114.8606461712281
 30
0.0
 10
179.4292428992917
 20
115.171358992224
 30
0.0
 10
179.4480836880111
 20
115.4864348926722
 30
0.0
 10
179.5225362690067
 20
116.1058946734329
 30
0.0
 10
179.5778494572879
 20
116.4110633196131
 30
0.0
 10
179.7232613993095
 20
117.0126459580204
 30
0.0
 10
179.8133639608439
 20
117.3090589651558
 30
0.0
 10
180.0281393329651
 20
117.8932131588439
 30
0.0
 10
180.153325589571
 20
118.1814679245451
 30
0.0
 10
180.5706715968973
 20
119.0132349617795
 30
0.0
 10
180.9063713938118
 20
119.531224265037
 30
0.0
 10
181.4909530193095
 20
120.2573497699923
 30
0.0
 10
181.6989882628832
 20
120.4900604962048
 30
0.0
 10
182.1349096495537
 20
120.9315076697135
 30
0.0
 10
182.363540776312
 20
121.1411944823999
 30
0.0
 10
183.0807307362975
 20
121.7381428883097
 30
0.0
 10
183.5905091971887
 20
122.0852340062404
 30
0.0
 10
184.6612484224129
 20
122.6835418806435
 30
0.0
 10
185.2245272973035
 20
122.9359698683829
 30
0.0
 10
186.4009378196597
 20
123.3444771386314
 30
0.0
 10
186.9993638464821
 20
123.4956626059749
 30
0.0
 10
187.911633912097
 20
123.6471793597083
 30
0.0
 10
188.2181785707808
 20
123.6850526896753
 30
0.0
 10
188.8362435303282
 20
123.7352548582704
 30
0.0
 10
189.1492677851963
 20
123.7475419094386
 30
0.0
 10
190.0827919146981
 20
123.7449296206807
 30
0.0
 10
190.6974687550875
 20
123.6915404748171
 30
0.0
 10
191.6082609800933
 20
123.5356525451018
 30
0.0
 10
191.9099768628427
 20
123.4709766907832
 30
0.0
 10
192.5095560498696
 20
123.3154886045887
 30
0.0
 10
192.8087892030062
 20
123.2241215401652
 30
0.0
 10
193.6851841928226
 20
122.9144529628245
 30
0.0
 10
194.2441011214799
 20
122.6607286423991
 30
0.0
 10
195.0444511954028
 20
122.2082262332474
 30
0.0
 10
195.3048557631469
 20
122.0453262070938
 30
0.0
 10
195.8123476400425
 20
121.6941353403218
 30
0.0
 10
196.0604006053669
 20
121.5048763956193
 30
0.0
 10
196.7680355868006
 20
120.9093479587577
 30
0.0
 10
197.1960945710352
 20
120.4730341803033
 30
0.0
 10
197.7698435978581
 20
119.7561713507195
 30
0.0
 10
197.9496202811017
 20
119.5067433383381
 30
0.0
 10
198.2845459682382
 20
118.9852530846886
 30
0.0
 10
198.4391986372286
 20
118.7134022632474
 30
0.0
 10
198.851791628052
 20
117.8852557190049
 30
0.0
 10
199.063788704127
 20
117.3094222507129
 30
0.0
 10
199.2813299211773
 20
116.4075681114265
 30
0.0
 10
199.3371866786121
 20
116.0981469545159
 30
0.0
 10
199.411009049714
 20
115.4787753196506
 30
0.0
 10
199.4292428992917
 20
115.1695068771976
 30
0.0
 10
199.4292428992917
 20
114.8606461712281
 30
0.0
  0
LINE
  5
CC
330
1F
100
AcDbEntity
  8
0
  6
Continuous
 62
     7
370
    15
100
AcDbLine
 10
174.9792428993
 20
79.8606461712
 30
0.0
 11
174.9792428993
 21
149.8606461681
 31
0.0
  0
LINE
  5
CD
330
1F
100
AcDbEntity
  8
0
  6
Continuous
 62
     7
370
    15
100
AcDbLine
 10
208.9792428993
 20
79.5606461712
 30
0.0
 11
208.9792428993
 21
150.1606461712
 31
0.0
  0
LINE
  5
CE
330
1F
100
AcDbEntity
  8
0
  6
Continuous
 62
     7
370
    15
100
AcDbLine
 10
208.2792428993
 20
78.8606461712
 30
0.0
 11
208.2792428993
 21
150.8606461712
 31
0.0
  0
LINE
  5
CF
330
1F
100
AcDbEntity
  8
0
  6
Continuous
 62
     7
370
    15
100
AcDbLine
 10
158.9292428993
 20
85.3003687706
 30
0.0
 11
158.9292428993
 21
134.7106461712
 31
0.0
  0
SPLINE
  5
D0
330
1F
100
AcDbEntity
  8
0
  6
Continuous
 62
     7
370
    15
100
AcDbSpline
210
0.0
220
0.0
230
1.0
 70
     8
 71
     3
 72
    10
 73
     6
 74
     0
 42
0.000000001
 43
0.00000001
 40
0.0
 40
0.0
 40
0.0
 40
0.0
 40
0.5
 40
0.5
 40
1.0
 40
1.0
 40
1.0
 40
1.0
 10
158.9292428992917
 20
85.30036877063522
 30
0.0
 10
158.9292428992917
 20
85.14048150244156
 30
0.0
 10
158.8679332480559
 20
84.97935424692696
 30
0.0
 10
158.6488336105208
 20
84.74525524857212
 30
0.0
 10
158.4907854042073
 20
84.6737284749809
 30
0.0
 10
158.3292428992917
 20
84.6737284749809
 30
0.0
  0
SPLINE
  5
D1
330
1F
100
AcDbEntity
  8
0
  6
Continuous
 62
     7
370
    15
100
AcDbSpline
210
0.0
220
0.0
230
1.0
 70
    24
 71
     3
 72
    12
 73
     8
 74
     0
 42
0.000000001
 43
0.00000001
 40
0.0
 40
0.0
 40
0.0
 40
0.0
 40
0.250000000000002
 40
0.250000000000002
 40
0.500000000000004
 40
0.500000000000004
 40
1.0
 40
1.0
 40
1.0
 40
1.0
 10
158.3292428992917
 20
134.7106461712281
 30
0.0
 10
158.4194819669788
 20
134.7106461712281
 30
0.0
 10
158.5103800810853
 20
134.7106461712281
 30
0.0
 10
158.6649771175738
 20
134.7106461712281
 30
0.0
 10
158.7299555336819
 20
134.7106461712281
 30
0.0
 10
158.8817905616181
 20
134.7106461712281
 30
0.0
 10
158.9292428992917
 20
134.7106461712281
 30
0.0
 10
158.9292428992917
 20
134.7106461712281
 30
0.0
  0
LINE
  5
D2
330
1F
100
AcDbEntity
  8
0
  6
Continuous
 62
     7
370
    15
100
AcDbLine
 10
154.3711757308
 20
84.673728475
 30
0.0
 11
154.3711757308
 21
134.7106461712
 31
0.0
  0
SPLINE
  5
D3
330
1F
100
AcDbEntity
  8
0
  6
Continuous
 62
     7
370
    15
100
AcDbSpline
210
0.0
220
0.0
230
1.0
 70
     8
 71
     3
 72
     8
 73
     4
 74
     0
 42
0.000000001
 43
0.00000001
 40
0.0
 40
0.0
 40
0.0
 40
0.0
 40
1.0
 40
1.0
 40
1.0
 40
1.0
 10
154.3711757307808
 20
84.6737284749809
 30
0.0
 10
153.875696070115
 20
85.56925456291425
 30
0.0
 10
153.3815820220729
 20
86.46553897796649
 30
0.0
 10
152.8892428992917
 20
87.36280901217319
 30
0.0
  0
LINE
  5
D4
330
1F
100
AcDbEntity
  8
0
  6
Continuous
 62
     7
370
    15
100
AcDbLine
 10
152.8892428993
 20
87.3628090122
 30
0.0
 11
152.8892428993
 21
134.7106461712
 31
0.0
  0
SPLINE
  5
D5
330
1F
100
AcDbEntity
  8
0
  6
Continuous
 62
     7
370
    15
100
AcDbSpline
210
0.0
220
0.0
230
1.0
 70
    24
 71
     3
 72
     8
 73
     4
 74
     0
 42
0.000000001
 43
0.00000001
 40
0.0
 40
0.0
 40
0.0
 40
0.0
 40
1.0
 40
1.0
 40
1.0
 40
1.0
 10
152.8892428992917
 20
134.7106461712281
 30
0.0
 10
153.3691948936566
 20
134.7106461712281
 30
0.0
 10
153.8644956226302
 20
134.7106461712281
 30
0.0
 10
154.3711757307808
 20
134.7106461712281
 30
0.0
  0
LINE
  5
D6
330
1F
100
AcDbEntity
  8
0
  6
Continuous
 62
     7
370
    15
100
AcDbLine
 10
158.3292428993
 20
84.673728475
 30
0.0
 11
154.3711757308
 21
84.673728475
 31
0.0
  0
LINE
  5
D7
330
1F
100
AcDbEntity
  8
0
  6
Continuous
 62
     7
370
    15
100
AcDbLine
 10
154.3711757308
 20
134.7106461712
 30
0.0
 11
158.3292428993
 21
134.7106461712
 31
0.0
  0
LINE
  5
D8
330
1F
100
AcDbEntity
  8
0
  6
Continuous
 62
     7
370
    15
100
AcDbLine
 10
149.0692428993
 20
87.3628090122
 30
0.0
 11
149.0692428993
 21
134.7106461712
 31
0.0
  0
SPLINE
  5
D9
330
1F
100
AcDbEntity
  8
0
  6
Continuous
 62
     7
370
    15
100
AcDbSpline
210
0.0
220
0.0
230
1.0
 70
     8
 71
     3
 72
     8
 73
     4
 74
     0
 42
0.000000001
 43
0.00000001
 40
0.0
 40
0.0
 40
0.0
 40
0.0
 40
1.0
 40
1.0
 40
1.0
 40
1.0
 10
149.0692428992917
 20
87.3628090121732
 30
0.0
 10
148.5769037765105
 20
86.4655389779665
 30
0.0
 10
148.0827897284684
 20
85.56925456291425
 30
0.0
 10
147.5873100678027
 20
84.6737284749809
 30
0.0
  0
LINE
  5
DA
330
1F
100
AcDbEntity
  8
0
  6
Continuous
 62
     7
370
    15
100
AcDbLine
 10
147.5873100678
 20
84.673728475
 30
0.0
 11
147.5873100678
 21
134.7106461712
 31
0.0
  0
SPLINE
  5
DB
330
1F
100
AcDbEntity
  8
0
  6
Continuous
 62
     7
370
    15
100
AcDbSpline
210
0.0
220
0.0
230
1.0
 70
    24
 71
     3
 72
     8
 73
     4
 74
     0
 42
0.000000001
 43
0.00000001
 40
0.0
 40
0.0
 40
0.0
 40
0.0
 40
1.0
 40
1.0
 40
1.0
 40
1.0
 10
147.5873100678027
 20
134.7106461712281
 30
0.0
 10
148.0939901759532
 20
134.7106461712281
 30
0.0
 10
148.5892909049268
 20
134.7106461712281
 30
0.0
 10
149.0692428992917
 20
134.7106461712281
 30
0.0
  0
LINE
  5
DC
330
1F
100
AcDbEntity
  8
0
  6
Continuous
 62
     7
370
    15
100
AcDbLine
 10
137.9292428993
 20
134.7106461712
 30
0.0
 11
147.5873100678
 21
134.7106461712
 31
0.0
  0
LINE
  5
DD
330
1F
100
AcDbEntity
  8
0
  6
Continuous
 62
     7
370
    15
100
AcDbLine
 10
147.5873100678
 20
84.673728475
 30
0.0
 11
145.9292428993
 21
84.673728475
 31
0.0
  0
SPLINE
  5
DE
330
1F
100
AcDbEntity
  8
0
  6
Continuous
 62
     7
370
    15
100
AcDbSpline
210
0.0
220
0.0
230
1.0
 70
     8
 71
     3
 72
    28
 73
    24
 74
     0
 42
0.000000001
 43
0.00000001
 40
0.0
 40
0.0
 40
0.0
 40
0.0
 40
0.1249999999999999
 40
0.1249999999999999
 40
0.1874999999999998
 40
0.1874999999999998
 40
0.2499999999999997
 40
0.2499999999999997
 40
0.3749999999999993
 40
0.3749999999999993
 40
0.4374999999999993
 40
0.4374999999999993
 40
0.4999999999999992
 40
0.4999999999999992
 40
0.6249999999999992
 40
0.6249999999999992
 40
0.7499999999999992
 40
0.7499999999999992
 40
0.8124999999999993
 40
0.8124999999999993
 40
0.8749999999999996
 40
0.8749999999999996
 40
1.0
 40
1.0
 40
1.0
 40
1.0
 10
145.9292428992917
 20
84.6737284749809
 30
0.0
 10
145.3975351417988
 20
84.6737284749809
 30
0.0
 10
144.8752965764884
 20
84.6579437610307
 30
0.0
 10
144.1054260902134
 20
84.61294834695448
 30
0.0
 10
143.8510665180221
 20
84.59439335187876
 30
0.0
 10
143.3469449373236
 20
84.55054062943226
 30
0.0
 10
143.0972221198957
 20
84.52519602248006
 30
0.0
 10
142.3716321684493
 20
84.44179394472995
 30
0.0
 10
141.9132719068677
 20
84.37592838557886
 30
0.0
 10
141.2627739634738
 20
84.26695804508708
 30
0.0
 10
141.0510919126814
 20
84.22871840932042
 30
0.0
 10
140.6470204235434
 20
84.15095967190108
 30
0.0
 10
140.4545139097225
 20
84.11145870972572
 30
0.0
 10
139.9046789387012
 20
83.99255096735972
 30
0.0
 10
139.5747501603924
 20
83.9127332859351
 30
0.0
 10
138.9902788918237
 20
83.75939012413905
 30
0.0
 10
138.7440017538103
 20
83.68805637086979
 30
0.0
 10
138.4441589611122
 20
83.59411286379517
 30
0.0
 10
138.3557021040401
 20
83.56491907043525
 30
0.0
 10
138.2023407507349
 20
83.51145249617184
 30
0.0
 10
138.1372525365087
 20
83.48709316189665
 30
0.0
 10
137.9816585205679
 20
83.42350301645192
 30
0.0
 10
137.9292428992917
 20
83.39340008136267
 30
0.0
 10
137.9292428992917
 20
83.37652318836575
 30
0.0
  0
LINE
  5
DF
330
1F
100
AcDbEntity
  8
0
  6
Continuous
 62
     7
370
    15
100
AcDbLine
 10
137.9292428993
 20
83.3765231884
 30
0.0
 11
137.9292428993
 21
83.3606461712
 31
0.0
  0
SPLINE
  5
E0
330
1F
100
AcDbEntity
  8
0
  6
Continuous
 62
     7
370
    15
100
AcDbSpline
210
0.0
220
0.0
230
1.0
 70
     8
 71
     3
 72
    17
 73
    13
 74
     0
 42
0.000000001
 43
0.00000001
 40
0.0
 40
0.0
 40
0.0
 40
0.0
 40
0.1034796923964057
 40
0.210023918880785
 40
0.3134862136955584
 40
0.4198361274354883
 40
0.5254127712915682
 40
0.6339610695419791
 40
0.7409508756305032
 40
0.8511696089308174
 40
0.9558996534551938
 40
0.9999999999999999
 40
0.9999999999999999
 40
0.9999999999999999
 40
0.9999999999999999
 10
145.9292428992917
 20
145.3278416443923
 30
0.0
 10
145.4939945501817
 20
145.3332898409256
 30
0.0
 10
144.6106080436167
 20
145.3443475814375
 30
0.0
 10
143.329780458388
 20
145.430705974339
 30
0.0
 10
142.112363922514
 20
145.5585761508768
 30
0.0
 10
141.0045580702674
 20
145.71752144947
 30
0.0
 10
140.0163192663192
 20
145.8920151371855
 30
0.0
 10
139.1915957087877
 20
146.0611809878254
 30
0.0
 10
138.5426422081284
 20
146.2090647703538
 30
0.0
 10
138.1256073926667
 20
146.3108553545845
 30
0.0
 10
137.9270106797021
 20
146.3612068771877
 30
0.0
 10
137.9503234011354
 20
146.3553011929654
 30
0.0
 10
137.957231258373
 20
146.3535512632708
 30
0.0
  0
LINE
  5
E1
330
1F
100
AcDbEntity
  8
0
  6
Continuous
 62
     7
370
    15
100
AcDbLine
 10
147.5873100678
 20
145.3278416444
 30
0.0
 11
145.9292428993
 21
145.3278416444
 31
0.0
  0
LINE
  5
E2
330
1F
100
AcDbEntity
  8
0
  6
Continuous
 62
     7
370
    15
100
AcDbLine
 10
147.5873100678
 20
139.3193358336
 30
0.0
 11
147.5873100678
 21
145.3278416444
 31
0.0
  0
LINE
  5
E3
330
1F
100
AcDbEntity
  8
0
  6
Continuous
 62
     7
370
    15
100
AcDbLine
 10
145.174863245
 20
139.3193358336
 30
0.0
 11
147.5873100678
 21
139.3193358336
 31
0.0
  0
SPLINE
  5
E4
330
1F
100
AcDbEntity
  8
0
  6
Continuous
 62
     7
370
    15
100
AcDbSpline
210
0.0
220
0.0
230
1.0
 70
     8
 71
     3
 72
    20
 73
    16
 74
     0
 42
0.000000001
 43
0.00000001
 40
0.0
 40
0.0
 40
0.0
 40
0.0
 40
0.2500000000000005
 40
0.2500000000000005
 40
0.3750000000000004
 40
0.3750000000000004
 40
0.5000000000000003
 40
0.5000000000000003
 40
0.6250000000000002
 40
0.6250000000000002
 40
0.7500000000000001
 40
0.7500000000000001
 40
0.8750000000000001
 40
0.8750000000000001
 40
1.0
 40
1.0
 40
1.0
 40
1.0
 10
137.9292428992917
 20
134.7106461712281
 30
0.0
 10
138.1776166335798
 20
135.3645085995255
 30
0.0
 10
138.497186725925
 20
135.9682943815226
 30
0.0
 10
139.1194929591297
 20
136.7951331176912
 30
0.0
 10
139.3509172195605
 20
137.0575617556441
 30
0.0
 10
139.8721315592102
 20
137.5542244097491
 30
0.0
 10
140.1587520418452
 20
137.7848112887706
 30
0.0
 10
140.7782367831529
 20
138.2013655133533
 30
0.0
 10
141.1125371626398
 20
138.3888633153208
 30
0.0
 10
141.8377976352646
 20
138.7202602929572
 30
0.0
 10
142.2197126926551
 20
138.8597642804525
 30
0.0
 10
143.0145008688268
 20
139.0852177879234
 30
0.0
 10
143.4286590630331
 20
139.1718438994671
 30
0.0
 10
144.2942054036145
 20
139.2898246883212
 30
0.0
 10
144.7320930186264
 20
139.3193358335955
 30
0.0
 10
145.174863244981
 20
139.3193358335955
 30
0.0
  0
LINE
  5
E5
330
1F
100
AcDbEntity
  8
0
  6
Continuous
 62
     7
370
    15
100
AcDbLine
 10
132.9792428993
 20
83.6606461712
 30
0.0
 11
132.9792428993
 21
146.0606461646
 31
0.0
  0
SPLINE
  5
E6
330
1F
100
AcDbEntity
  8
0
  6
Continuous
 62
     7
370
    15
100
AcDbSpline
210
0.0
220
0.0
230
1.0
 70
    24
 71
     3
 72
    14
 73
    10
 74
     0
 42
0.000000001
 43
0.00000001
 40
0.0
 40
0.0
 40
0.0
 40
0.0
 40
0.4999999999999954
 40
0.4999999999999954
 40
0.7499999999999947
 40
0.7499999999999947
 40
0.8749999999999973
 40
0.8749999999999973
 40
1.0
 40
1.0
 40
1.0
 40
1.0
 10
152.7915680969594
 20
88.46064617122806
 30
0.0
 10
152.7443579377296
 20
88.46064617122808
 30
0.0
 10
152.6811234641859
 20
88.46064617122806
 30
0.0
 10
152.537311533458
 20
88.46064617122808
 30
0.0
 10
152.4819864589816
 20
88.46064617122806
 30
0.0
 10
152.3700752857466
 20
88.46064617122806
 30
0.0
 10
152.3272881993056
 20
88.46064617122806
 30
0.0
 10
152.222922866272
 20
88.46064617122806
 30
0.0
 10
152.1586990719703
 20
88.46064617122806
 30
0.0
 10
152.0892428993472
 20
88.46064617122806
 30
0.0
  0
SPLINE
  5
E7
330
1F
100
AcDbEntity
  8
0
  6
Continuous
 62
     7
370
    15
100
AcDbSpline
210
0.0
220
0.0
230
1.0
 70
    24
 71
     3
 72
    12
 73
     8
 74
     0
 42
0.000000001
 43
0.00000001
 40
0.0
 40
0.0
 40
0.0
 40
0.0
 40
0.5
 40
0.5
 40
0.75
 40
0.75
 40
1.0
 40
1.0
 40
1.0
 40
1.0
 10
152.494945367601
 20
141.2606461712281
 30
0.0
 10
152.451507179798
 20
141.2606461712281
 30
0.0
 10
152.4023129315
 20
141.2606461712281
 30
0.0
 10
152.3055941741189
 20
141.2606461712281
 30
0.0
 10
152.2694066926172
 20
141.2606461712281
 30
0.0
 10
152.1865288340926
 20
141.2606461712281
 30
0.0
 10
152.1385753867858
 20
141.2606461712281
 30
0.0
 10
152.0892428992917
 20
141.2606461712281
 30
0.0
  0
SPLINE
  5
E8
330
1F
100
AcDbEntity
  8
0
  6
Continuous
 62
     7
370
    15
100
AcDbSpline
210
0.0
220
0.0
230
1.0
 70
     8
 71
     3
 72
    10
 73
     6
 74
     0
 42
0.000000001
 43
0.00000001
 40
0.0
 40
0.0
 40
0.0
 40
0.0
 40
0.5
 40
0.5
 40
1.0
 40
1.0
 40
1.0
 40
1.0
 10
152.8892428992917
 20
141.9803000222639
 30
0.0
 10
152.8892428992917
 20
141.8365299644461
 30
0.0
 10
152.8531938405729
 20
141.6941106019511
 30
0.0
 10
152.7176849797993
 20
141.4442163085941
 30
0.0
 10
152.6178089867035
 20
141.336185972346
 30
0.0
 10
152.4949453676018
 20
141.2606461712287
 30
0.0
  0
SPLINE
  5
E9
330
1F
100
AcDbEntity
  8
0
  6
Continuous
 62
     7
370
    15
100
AcDbSpline
210
0.0
220
0.0
230
1.0
 70
     8
 71
     3
 72
     9
 73
     5
 74
     0
 42
0.000000001
 43
0.00000001
 40
0.0
 40
0.0
 40
0.0
 40
0.0
 40
0.5
 40
1.0
 40
1.0
 40
1.0
 40
1.0
 10
152.8630952761316
 20
134.7106461712281
 30
0.0
 10
152.8718338460139
 20
134.7577889715634
 30
0.0
 10
152.8848531323503
 20
134.852585053234
 30
0.0
 10
152.8892428992917
 20
134.9483693247944
 30
0.0
 10
152.8892428992917
 20
134.9965128026895
 30
0.0
  0
SPLINE
  5
EA
330
1F
100
AcDbEntity
  8
0
  6
Continuous
 62
     7
370
    15
100
AcDbSpline
210
0.0
220
0.0
230
1.0
 70
     8
 71
     3
 72
    10
 73
     6
 74
     0
 42
0.000000001
 43
0.00000001
 40
0.0
 40
0.0
 40
0.0
 40
0.0
 40
0.5
 40
0.5
 40
1.0
 40
1.0
 40
1.0
 40
1.0
 10
149.4635404309826
 20
141.2606461712281
 30
0.0
 10
149.3420001673141
 20
141.3353723384398
 30
0.0
 10
149.2406658069652
 20
141.4443173543566
 30
0.0
 10
149.1050268640768
 20
141.6947478351182
 30
0.0
 10
149.0692428992917
 20
141.8371671972172
 30
0.0
 10
149.0692428992917
 20
141.9803000222639
 30
0.0
  0
SPLINE
  5
EB
330
1F
100
AcDbEntity
  8
0
  6
Continuous
 62
     7
370
    15
100
AcDbSpline
210
0.0
220
0.0
230
1.0
 70
    24
 71
     3
 72
    12
 73
     8
 74
     0
 42
0.000000001
 43
0.00000001
 40
0.0
 40
0.0
 40
0.0
 40
0.0
 40
0.2500000000000008
 40
0.2500000000000008
 40
0.5000000000000017
 40
0.5000000000000017
 40
1.0
 40
1.0
 40
1.0
 40
1.0
 10
149.8692428992917
 20
141.2606461712281
 30
0.0
 10
149.8193662169743
 20
141.2606461712281
 30
0.0
 10
149.7713630235707
 20
141.2606461712281
 30
0.0
 10
149.6883149208587
 20
141.2606461712281
 30
0.0
 10
149.6521853413908
 20
141.2606461712281
 30
0.0
 10
149.5562733104466
 20
141.2606461712281
 30
0.0
 10
149.5065146424778
 20
141.2606461712281
 30
0.0
 10
149.4635404309826
 20
141.2606461712281
 30
0.0
  0
SPLINE
  5
EC
330
1F
100
AcDbEntity
  8
0
  6
Continuous
 62
     7
370
    15
100
AcDbSpline
210
0.0
220
0.0
230
1.0
 70
    24
 71
     3
 72
    14
 73
    10
 74
     0
 42
0.000000001
 43
0.00000001
 40
0.0
 40
0.0
 40
0.0
 40
0.0
 40
0.1250000000000006
 40
0.1250000000000006
 40
0.2500000000000012
 40
0.2500000000000012
 40
0.4999999999999998
 40
0.4999999999999998
 40
1.0
 40
1.0
 40
1.0
 40
1.0
 10
149.8692428992917
 20
88.46064617122806
 30
0.0
 10
149.8008050514053
 20
88.46064617122808
 30
0.0
 10
149.7352550126402
 20
88.46064617122806
 30
0.0
 10
149.6308283732323
 20
88.46064617122808
 30
0.0
 10
149.5882837634708
 20
88.46064617122806
 30
0.0
 10
149.4756743029306
 20
88.46064617122808
 30
0.0
 10
149.4201352559111
 20
88.46064617122806
 30
0.0
 10
149.2775235604473
 20
88.46064617122808
 30
0.0
 10
149.2141182054515
 20
88.46064617122806
 30
0.0
 10
149.166917701624
 20
88.46064617122806
 30
0.0
  0
SPLINE
  5
ED
330
1F
100
AcDbEntity
  8
0
  6
Continuous
 62
     7
370
    15
100
AcDbSpline
210
0.0
220
0.0
230
1.0
 70
     8
 71
     3
 72
    10
 73
     6
 74
     0
 42
0.000000001
 43
0.00000001
 40
0.0
 40
0.0
 40
0.0
 40
0.0
 40
0.5
 40
0.5
 40
1.0
 40
1.0
 40
1.0
 40
1.0
 10
149.0692428992917
 20
134.9965128026895
 30
0.0
 10
149.0692428992917
 20
134.9487412946961
 30
0.0
 10
149.0714041428889
 20
134.9010315726345
 30
0.0
 10
149.080075516749
 20
134.8057364550862
 30
0.0
 10
149.086604699705
 20
134.7580438911196
 30
0.0
 10
149.0953905224518
 20
134.7106461712281
 30
0.0
  0
LINE
  5
EE
330
1F
100
AcDbEntity
  8
0
  6
Continuous
 62
     7
370
    15
100
AcDbLine
 10
152.0892428993
 20
141.2606461712
 30
0.0
 11
149.8692428993
 21
141.2606461712
 31
0.0
  0
LINE
  5
EF
330
1F
100
AcDbEntity
  8
0
  6
Continuous
 62
     7
370
    15
100
AcDbLine
 10
152.0892428993
 20
88.4606461712
 30
0.0
 11
149.8692428993
 21
88.4606461712
 31
0.0
  0
LINE
  5
F0
330
1F
100
AcDbEntity
  8
0
  6
Continuous
 62
     7
370
    15
100
AcDbLine
 10
159.1292418194
 20
141.2606461712
 30
0.0
 11
159.0907631901
 21
141.2606461712
 31
0.0
  0
LINE
  5
F1
330
1F
100
AcDbEntity
  8
0
  6
Continuous
 62
     7
370
    15
100
AcDbLine
 10
159.1292417856
 20
88.4606461712
 30
0.0
 11
159.0870007846
 21
88.4606461712
 31
0.0
  0
LINE
  5
F2
330
1F
100
AcDbEntity
  8
0
  6
Continuous
 62
     7
370
    15
100
AcDbLine
 10
130.963490566
 20
90.6410045046
 30
0.0
 11
130.963490566
 21
139.0802878379
 31
0.0
  0
LINE
  5
F3
330
1F
100
AcDbEntity
  8
0
  6
Continuous
 62
     7
370
    15
100
AcDbLine
 10
111.1792428993
 20
91.6321992774
 30
0.0
 11
111.1792428993
 21
92.89690864
 31
0.0
  0
SPLINE
  5
F4
330
1F
100
AcDbEntity
  8
0
  6
Continuous
 62
     7
370
    15
100
AcDbSpline
210
0.0
220
0.0
230
1.0
 70
     8
 71
     3
 72
    14
 73
    10
 74
     0
 42
0.000000001
 43
0.00000001
 40
0.0
 40
0.0
 40
0.0
 40
0.0
 40
0.25
 40
0.25
 40
0.5
 40
0.5
 40
0.75
 40
0.75
 40
1.0
 40
1.0
 40
1.0
 40
1.0
 10
110.400955781376
 20
94.02749484766814
 30
0.0
 10
110.4575824565781
 20
93.91979739383127
 30
0.0
 10
110.5521051168678
 20
93.81700781211194
 30
0.0
 10
110.73515009243
 20
93.61865049989179
 30
0.0
 10
110.8267766693847
 20
93.52259099121355
 30
0.0
 10
110.9856299870779
 20
93.3350619485043
 30
0.0
 10
111.0535205946996
 20
93.24365297572075
 30
0.0
 10
111.1504376204072
 20
93.0652767548106
 30
0.0
 10
111.1792428992923
 20
92.97805484856441
 30
0.0
 10
111.1792428992923
 20
92.89690864003016
 30
0.0
  0
SPLINE
  5
F5
330
1F
100
AcDbEntity
  8
0
  6
Continuous
 62
     7
370
    15
100
AcDbSpline
210
0.0
220
0.0
230
1.0
 70
     8
 71
     3
 72
    14
 73
    10
 74
     0
 42
0.000000001
 43
0.00000001
 40
0.0
 40
0.0
 40
0.0
 40
0.0
 40
0.1250000000000006
 40
0.1250000000000006
 40
0.2500000000000012
 40
0.2500000000000012
 40
0.4999999999999997
 40
0.4999999999999997
 40
1.0
 40
1.0
 40
1.0
 40
1.0
 10
109.7792428992917
 20
94.47417670994743
 30
0.0
 10
109.8277873079489
 20
94.47992502322772
 30
0.0
 10
109.8807026627338
 20
94.47682413457147
 30
0.0
 10
109.9759980077168
 20
94.45462929040916
 30
0.0
 10
110.0162490050018
 20
94.4373970633133
 30
0.0
 10
110.1205190185147
 20
94.38106914686124
 30
0.0
 10
110.1708409936681
 20
94.33688280091545
 30
0.0
 10
110.2985239411934
 20
94.20587490206482
 30
0.0
 10
110.3546093882557
 20
94.11564038183454
 30
0.0
 10
110.4009557813774
 20
94.02749484766866
 30
0.0
  0
SPLINE
  5
F6
330
1F
100
AcDbEntity
  8
0
  6
Continuous
 62
     7
370
    15
100
AcDbSpline
210
0.0
220
0.0
230
1.0
 70
     8
 71
     3
 72
     8
 73
     4
 74
     0
 42
0.000000001
 43
0.00000001
 40
0.0
 40
0.0
 40
0.0
 40
0.0
 40
1.0
 40
1.0
 40
1.0
 40
1.0
 10
107.5107178063456
 20
94.16433142336464
 30
0.0
 10
108.2452948328285
 20
94.2829564344336
 30
0.0
 10
109.0087699022241
 20
94.38294230656987
 30
0.0
 10
109.7792428992917
 20
94.47417670994743
 30
0.0
  0
SPLINE
  5
F7
330
1F
100
AcDbEntity
  8
0
  6
Continuous
 62
     7
370
    15
100
AcDbSpline
210
0.0
220
0.0
230
1.0
 70
     8
 71
     3
 72
    14
 73
    10
 74
     0
 42
0.000000001
 43
0.00000001
 40
0.0
 40
0.0
 40
0.0
 40
0.0
 40
0.5
 40
0.5
 40
0.75
 40
0.75
 40
0.875
 40
0.875
 40
1.0
 40
1.0
 40
1.0
 40
1.0
 10
102.2292428992917
 20
93.990708405833
 30
0.0
 10
103.1213890298453
 20
93.98998617963237
 30
0.0
 10
104.0113654656389
 20
93.99457238608981
 30
0.0
 10
105.3379606327145
 20
94.02229739048134
 30
0.0
 10
105.7788075612133
 20
94.03490392810552
 30
0.0
 10
106.4352477986357
 20
94.06592007611297
 30
0.0
 10
106.6532614552276
 20
94.07826324873974
 30
0.0
 10
107.0859703089104
 20
94.11128730390301
 30
0.0
 10
107.3012467740752
 20
94.13050446904145
 30
0.0
 10
107.5107178063456
 20
94.16433142336464
 30
0.0
  0
SPLINE
  5
F8
330
1F
100
AcDbEntity
  8
0
  6
Continuous
 62
     7
370
    15
100
AcDbSpline
210
0.0
220
0.0
230
1.0
 70
     8
 71
     3
 72
     8
 73
     4
 74
     0
 42
0.000000001
 43
0.00000001
 40
0.0000005163856998
 40
0.0000005163856998
 40
0.0000005163856998
 40
0.0000005163856998
 40
0.000026289209185
 40
0.000026289209185
 40
0.000026289209185
 40
0.000026289209185
 10
102.2191979688841
 20
94.00069227892976
 30
0.0
 10
102.2225257070919
 20
93.99735803206066
 30
0.0
 10
102.2258741600675
 20
93.99403007478536
 30
0.0
 10
102.2292428992917
 20
93.99070840583299
 30
0.0
  0
SPLINE
  5
F9
330
1F
100
AcDbEntity
  8
0
  6
Continuous
 62
     7
370
    15
100
AcDbSpline
210
0.0
220
0.0
230
1.0
 70
     8
 71
     3
 72
     8
 73
     4
 74
     0
 42
0.000000001
 43
0.00000001
 40
0.0000005099763573
 40
0.0000005099763573
 40
0.0000005099763573
 40
0.0000005099763573
 40
0.0000262827998699
 40
0.0000262827998699
 40
0.0000262827998699
 40
0.0000262827998699
 10
102.2292428992917
 20
135.7305839366232
 30
0.0
 10
102.2258741600639
 20
135.7272622676673
 30
0.0
 10
102.2225257070848
 20
135.7239343103884
 30
0.0
 10
102.2191979688735
 20
135.7206000635157
 30
0.0
  0
SPLINE
  5
FA
330
1F
100
AcDbEntity
  8
0
  6
Continuous
 62
     7
370
    15
100
AcDbSpline
210
0.0
220
0.0
230
1.0
 70
     8
 71
     3
 72
    10
 73
     6
 74
     0
 42
0.000000001
 43
0.00000001
 40
0.0
 40
0.0
 40
0.0
 40
0.0
 40
0.5
 40
0.5
 40
1.0
 40
1.0
 40
1.0
 40
1.0
 10
105.7792428992917
 20
135.6837335630558
 30
0.0
 10
105.1916573522011
 20
135.7047990832922
 30
0.0
 10
104.6009109587407
 20
135.7155575691644
 30
0.0
 10
103.4168917934419
 20
135.7289223497001
 30
0.0
 10
102.8234778052364
 20
135.7310649923647
 30
0.0
 10
102.2292428992917
 20
135.7305839366231
 30
0.0
  0
SPLINE
  5
FB
330
1F
100
AcDbEntity
  8
0
  6
Continuous
 62
     7
370
    15
100
AcDbSpline
210
0.0
220
0.0
230
1.0
 70
     8
 71
     3
 72
    18
 73
    14
 74
     0
 42
0.000000001
 43
0.00000001
 40
0.0
 40
0.0
 40
0.0
 40
0.0
 40
0.2500000000000001
 40
0.2500000000000001
 40
0.5000000000000002
 40
0.5000000000000002
 40
0.7500000000000003
 40
0.7500000000000003
 40
0.8750000000000002
 40
0.8750000000000002
 40
0.9375000000000002
 40
0.9375000000000002
 40
1.0
 40
1.0
 40
1.0
 40
1.0
 10
107.1792428992917
 20
136.704753843591
 30
0.0
 10
107.1792428992917
 20
136.6215469347339
 30
0.0
 10
107.1433937993534
 20
136.5328102794203
 30
0.0
 10
107.0185220633195
 20
136.35068508886
 30
0.0
 10
106.9281216456717
 20
136.2555550402334
 30
0.0
 10
106.7058789909295
 20
136.0663735311091
 30
0.0
 10
106.5761142044837
 20
135.9714283630144
 30
0.0
 10
106.3354767471722
 20
135.8331496554345
 30
0.0
 10
106.2477094490348
 20
135.7874392221321
 30
0.0
 10
106.0931853618279
 20
135.7296159169106
 30
0.0
 10
106.0365744757732
 20
135.7119011528728
 30
0.0
 10
105.9125304448666
 20
135.6873618496398
 30
0.0
 10
105.8448157698483
 20
135.6813827111016
 30
0.0
 10
105.7792428992917
 20
135.6837335630558
 30
0.0
  0
LINE
  5
FC
330
1F
100
AcDbEntity
  8
0
  6
Continuous
 62
     7
370
    15
100
AcDbLine
 10
107.1792428993
 20
136.7047538436
 30
0.0
 11
107.1792428993
 21
137.8886922634
 31
0.0
  0
SPLINE
  5
FD
330
1F
100
AcDbEntity
  8
0
  6
Continuous
 62
     7
370
    15
100
AcDbSpline
210
0.0
220
0.0
230
1.0
 70
     8
 71
     3
 72
    24
 73
    20
 74
     0
 42
0.000000001
 43
0.00000001
 40
0.0
 40
0.0
 40
0.0
 40
0.0
 40
0.0010474631756071
 40
0.0637827998981074
 40
0.1272205495732247
 40
0.1903773877398719
 40
0.2526733668453194
 40
0.3146339239779662
 40
0.3770877128481475
 40
0.4393525473057938
 40
0.5008118422561124
 40
0.5621830267236717
 40
0.6248423587248042
 40
0.6874289851536017
 40
0.7496728210883014
 40
0.8119833405171992
 40
0.8750945456918685
 40
0.9384397421848834
 40
1.0
 40
1.0
 40
1.0
 40
1.0
 10
119.7481476666921
 20
91.20313745199334
 30
0.0
 10
119.7477018389081
 20
91.20307924873624
 30
0.0
 10
119.7205542073767
 20
91.19953509865235
 30
0.0
 10
119.8161639132164
 20
91.21236855000548
 30
0.0
 10
120.0497197324399
 20
91.24161471391372
 30
0.0
 10
120.4452707081649
 20
91.28822880294359
 30
0.0
 10
120.9723078734486
 20
91.33841192274838
 30
0.0
 10
121.615835705336
 20
91.3827886317943
 30
0.0
 10
122.3545075898581
 20
91.40973390424273
 30
0.0
 10
123.1520207915976
 20
91.41320642083902
 30
0.0
 10
123.9785991680182
 20
91.385579924586
 30
0.0
 10
124.8041224779094
 20
91.32710174554472
 30
0.0
 10
125.596250094414
 20
91.24165727169331
 30
0.0
 10
126.3288240898894
 20
91.13992336040289
 30
0.0
 10
126.9644666655551
 20
91.03208027117881
 30
0.0
 10
127.4863805854546
 20
90.93044985911585
 30
0.0
 10
127.8680128500873
 20
90.84796412018945
 30
0.0
 10
128.1188323844598
 20
90.79181383222243
 30
0.0
 10
128.147956590448
 20
90.78496375644485
 30
0.0
 10
128.1623105963578
 20
90.78158766343708
 30
0.0
  0
SPLINE
  5
FE
330
1F
100
AcDbEntity
  8
0
  6
Continuous
 62
     7
370
    15
100
AcDbSpline
210
0.0
220
0.0
230
1.0
 70
     8
 71
     3
 72
    24
 73
    20
 74
     0
 42
0.000000001
 43
0.00000001
 40
0.0
 40
0.0
 40
0.0
 40
0.0
 40
0.0614395534382597
 40
0.1250751703317842
 40
0.1884268397120056
 40
0.2508638761272328
 40
0.3129680449658968
 40
0.3753466222196946
 40
0.4377343724680258
 40
0.4990942071706781
 40
0.560582235749624
 40
0.6229484722311761
 40
0.6854701164843754
 40
0.7475492776569196
 40
0.8098240089256987
 40
0.8730699162748239
 40
0.9364056957899927
 40
0.9991772321979605
 40
1.0
 40
1.0
 40
1.0
 40
1.0
 10
128.1622558354698
 20
138.9396755373385
 30
0.0
 10
128.1476532947642
 20
138.9363071536425
 30
0.0
 10
128.1179262677299
 20
138.9294499884949
 30
0.0
 10
127.8651857350172
 20
138.8731104502221
 30
0.0
 10
127.482185036262
 20
138.790252599375
 30
0.0
 10
126.959826772294
 20
138.6883453210447
 30
0.0
 10
126.325039923297
 20
138.5805062145629
 30
0.0
 10
125.5948146170771
 20
138.4790395912623
 30
0.0
 10
124.8043449687954
 20
138.3939804326462
 30
0.0
 10
123.9798611623623
 20
138.3357768480034
 30
0.0
 10
123.1528252026166
 20
138.308194157485
 30
0.0
 10
122.3545022363445
 20
138.3116878023849
 30
0.0
 10
121.6146802453783
 20
138.3386442150588
 30
0.0
 10
120.970428594307
 20
138.3829984027199
 30
0.0
 10
120.4430244894259
 20
138.4332038304757
 30
0.0
 10
120.0483631964636
 20
138.4798134440709
 30
0.0
 10
119.8158384568504
 20
138.5090085367094
 30
0.0
 10
119.7204602551614
 20
138.5217862589453
 30
0.0
 10
119.7473941235266
 20
138.5182320330695
 30
0.0
 10
119.7477425874331
 20
138.5181860493505
 30
0.0
  0
SPLINE
  5
FF
330
1F
100
AcDbEntity
  8
0
  6
Continuous
 62
     7
370
    15
100
AcDbSpline
210
0.0
220
0.0
230
1.0
 70
     8
 71
     3
 72
     9
 73
     5
 74
     0
 42
0.000000001
 43
0.00000001
 40
0.0
 40
0.0
 40
0.0
 40
0.0
 40
0.7009329310329676
 40
1.0
 40
1.0
 40
1.0
 40
1.0
 10
101.1000275835272
 20
95.15936586712543
 30
0.0
 10
101.1091668602024
 20
95.14153658158392
 30
0.0
 10
101.1222055922561
 20
95.11610007439162
 30
0.0
 10
101.1373708460214
 20
95.16997993458342
 30
0.0
 10
101.1419062740151
 20
95.18609362644733
 30
0.0
  0
LINE
  5
100
330
1F
100
AcDbEntity
  8
0
  6
Continuous
 62
     7
370
    15
100
AcDbLine
 10
101.0792428993
 20
95.1699684247
 30
0.0
 11
101.0792428993
 21
134.5513239177
 31
0.0
  0
SPLINE
  5
101
330
1F
100
AcDbEntity
  8
0
  6
Continuous
 62
     7
370
    15
100
AcDbSpline
210
0.0
220
0.0
230
1.0
 70
     8
 71
     3
 72
    10
 73
     6
 74
     0
 42
0.000000001
 43
0.00000001
 40
0.0
 40
0.0
 40
0.0
 40
0.0
 40
0.5
 40
0.5
 40
1.0
 40
1.0
 40
1.0
 40
1.0
 10
101.1419062740151
 20
134.5351987160088
 30
0.0
 10
101.1330019849064
 20
134.580940235222
 30
0.0
 10
101.1164866047134
 20
134.598131074691
 30
0.0
 10
101.0893786586518
 20
134.5978077977553
 30
0.0
 10
101.0792428992917
 20
134.5799302554588
 30
0.0
 10
101.0792428992917
 20
134.5513239177062
 30
0.0
  0
SPLINE
  5
102
330
1F
100
AcDbEntity
  8
0
  6
Continuous
 62
     7
370
    15
100
AcDbSpline
210
0.0
220
0.0
230
1.0
 70
     8
 71
     3
 72
    26
 73
    22
 74
     0
 42
0.000000001
 43
0.00000001
 40
0.0
 40
0.0
 40
0.0
 40
0.0
 40
0.2500000000000115
 40
0.2500000000000115
 40
0.3750000000000181
 40
0.3750000000000181
 40
0.4375000000000201
 40
0.4375000000000201
 40
0.4687500000000187
 40
0.4687500000000187
 40
0.5000000000000172
 40
0.5000000000000172
 40
0.5312500000000158
 40
0.5312500000000158
 40
0.5625000000000143
 40
0.5625000000000143
 40
0.625000000000013
 40
0.625000000000013
 40
0.7500000000000084
 40
0.7500000000000084
 40
1.0
 40
1.0
 40
1.0
 40
1.0
 10
101.9033965453962
 20
135.2507655048259
 30
0.0
 10
101.8647960225277
 20
135.1329908084705
 30
0.0
 10
101.8184990199735
 20
135.0086011223085
 30
0.0
 10
101.7245596715396
 20
134.803381789955
 30
0.0
 10
101.6892482046261
 20
134.7318089235086
 30
0.0
 10
101.6230682288804
 20
134.6158556909081
 30
0.0
 10
101.5985298622122
 20
134.5752711560978
 30
0.0
 10
101.5551571166584
 20
134.5111294742262
 30
0.0
 10
101.5396487152332
 20
134.4892630489411
 30
0.0
 10
101.5046060706462
 20
134.443668780598
 30
0.0
 10
101.4850557799264
 20
134.4199984896305
 30
0.0
 10
101.4431284995558
 20
134.3753819302906
 30
0.0
 10
101.4204763893241
 20
134.3545019177726
 30
0.0
 10
101.3795026752375
 20
134.3236285040218
 30
0.0
 10
101.3619033753421
 20
134.3137896341895
 30
0.0
 10
101.317276389486
 20
134.2948000184933
 30
0.0
 10
101.2967171668326
 20
134.2944756938398
 30
0.0
 10
101.245591727336
 20
134.3036991347161
 30
0.0
 10
101.2246803143475
 20
134.324946030933
 30
0.0
 10
101.1732304067865
 20
134.3989149097638
 30
0.0
 10
101.1555651074819
 20
134.4650330030786
 30
0.0
 10
101.1419062740151
 20
134.5351987160088
 30
0.0
  0
SPLINE
  5
103
330
1F
100
AcDbEntity
  8
0
  6
Continuous
 62
     7
370
    15
100
AcDbSpline
210
0.0
220
0.0
230
1.0
 70
     8
 71
     3
 72
    10
 73
     6
 74
     0
 42
0.000000001
 43
0.00000001
 40
0.0
 40
0.0
 40
0.0
 40
0.0
 40
0.5
 40
0.5
 40
1.0
 40
1.0
 40
1.0
 40
1.0
 10
102.2191979688735
 20
135.7206000635157
 30
0.0
 10
102.1516387139553
 20
135.652908670706
 30
0.0
 10
102.0880020586188
 20
135.5782015059523
 30
0.0
 10
101.9777813040469
 20
135.4192353735257
 30
0.0
 10
101.9309650108243
 20
135.3348801075177
 30
0.0
 10
101.9033965453962
 20
135.2507655048259
 30
0.0
  0
SPLINE
  5
104
330
1F
100
AcDbEntity
  8
0
  6
Continuous
 62
     7
370
    15
100
AcDbSpline
210
0.0
220
0.0
230
1.0
 70
     8
 71
     3
 72
    10
 73
     6
 74
     0
 42
0.000000001
 43
0.00000001
 40
0.0
 40
0.0
 40
0.0
 40
0.0
 40
0.5
 40
0.5
 40
1.0
 40
1.0
 40
1.0
 40
1.0
 10
101.9033965453962
 20
94.47052683763012
 30
0.0
 10
101.9308739601502
 20
94.38669004116223
 30
0.0
 10
101.9775825904396
 20
94.30237955357308
 30
0.0
 10
102.0878610531856
 20
94.14325832308634
 30
0.0
 10
102.1517485917995
 20
94.06827357899671
 30
0.0
 10
102.2191979688841
 20
94.00069227892976
 30
0.0
  0
SPLINE
  5
105
330
1F
100
AcDbEntity
  8
0
  6
Continuous
 62
     7
370
    15
100
AcDbSpline
210
0.0
220
0.0
230
1.0
 70
     8
 71
     3
 72
    24
 73
    20
 74
     0
 42
0.000000001
 43
0.00000001
 40
0.0
 40
0.0
 40
0.0
 40
0.0
 40
0.24999999999998
 40
0.24999999999998
 40
0.3749999999999705
 40
0.3749999999999705
 40
0.4374999999999656
 40
0.4374999999999656
 40
0.4687499999999649
 40
0.4687499999999649
 40
0.4999999999999643
 40
0.4999999999999643
 40
0.5624999999999676
 40
0.5624999999999676
 40
0.6249999999999709
 40
0.6249999999999709
 40
0.7499999999999798
 40
0.7499999999999798
 40
1.0
 40
1.0
 40
1.0
 40
1.0
 10
101.1419062740151
 20
95.18609362644733
 30
0.0
 10
101.1556593926853
 20
95.2567436844376
 30
0.0
 10
101.1734319600912
 20
95.3233417972025
 30
0.0
 10
101.2256830516466
 20
95.39743981743571
 30
0.0
 10
101.2467181272281
 20
95.41869762459727
 30
0.0
 10
101.2996185348565
 20
95.42684355074351
 30
0.0
 10
101.3207242077344
 20
95.42590374734775
 30
0.0
 10
101.3667763764124
 20
95.40488775577045
 30
0.0
 10
101.3851468483958
 20
95.39397894966281
 30
0.0
 10
101.4266984834615
 20
95.36134403871546
 30
0.0
 10
101.4492651562184
 20
95.3398520583441
 30
0.0
 10
101.5120461726785
 20
95.2713861147578
 30
0.0
 10
101.5451759336463
 20
95.22531165655269
 30
0.0
 10
101.6020936201313
 20
95.14030376821803
 30
0.0
 10
101.6262796456351
 20
95.10002346703664
 30
0.0
 10
101.6914875960149
 20
94.98508724057068
 30
0.0
 10
101.7262036562061
 20
94.91450425542368
 30
0.0
 10
101.819418926537
 20
94.71029849634506
 30
0.0
 10
101.8650914618977
 20
94.5874001140177
 30
0.0
 10
101.9033965453962
 20
94.47052683763013
 30
0.0
  0
LINE
  5
106
330
1F
100
AcDbEntity
  8
0
  6
Continuous
 62
     7
370
    15
100
AcDbLine
 10
152.8892428993
 20
134.9965128027
 30
0.0
 11
152.8892428993
 21
135.9107898388
 31
0.0
  0
SPLINE
  5
107
330
1F
100
AcDbEntity
  8
0
  6
Continuous
 62
     7
370
    15
100
AcDbSpline
210
0.0
220
0.0
230
1.0
 70
     8
 71
     3
 72
     8
 73
     4
 74
     0
 42
0.000000001
 43
0.00000001
 40
0.0
 40
0.0
 40
0.0
 40
0.0
 40
1.0
 40
1.0
 40
1.0
 40
1.0
 10
152.8892428992917
 20
135.9107898388114
 30
0.0
 10
153.3685210498816
 20
137.051801068664
 30
0.0
 10
153.8640888890215
 20
138.1881854794318
 30
0.0
 10
154.3711757307808
 20
139.3193358335955
 30
0.0
  0
LINE
  5
108
330
1F
100
AcDbEntity
  8
0
  6
Continuous
 62
     7
370
    15
100
AcDbLine
 10
154.3711757308
 20
139.3193358336
 30
0.0
 11
158.3292428993
 21
139.3193358336
 31
0.0
  0
SPLINE
  5
109
330
1F
100
AcDbEntity
  8
0
  6
Continuous
 62
     7
370
    15
100
AcDbSpline
210
0.0
220
0.0
230
1.0
 70
     8
 71
     3
 72
    12
 73
     8
 74
     0
 42
0.000000001
 43
0.00000001
 40
0.0
 40
0.0
 40
0.0
 40
0.0
 40
0.250000000000002
 40
0.250000000000002
 40
0.500000000000004
 40
0.500000000000004
 40
1.0
 40
1.0
 40
1.0
 40
1.0
 10
158.3292428992917
 20
139.3193358335955
 30
0.0
 10
158.4204426211174
 20
139.3193358335955
 30
0.0
 10
158.5110376302534
 20
139.2911161350076
 30
0.0
 10
158.6644503567
 20
139.1966731277595
 30
0.0
 10
158.7296592240237
 20
139.1303861510542
 30
0.0
 10
158.8824437533637
 20
138.9047613277659
 30
0.0
 10
158.9292428992917
 20
138.7223350647334
 30
0.0
 10
158.9292428992917
 20
138.5415984324865
 30
0.0
  0
LINE
  5
10A
330
1F
100
AcDbEntity
  8
0
  6
Continuous
 62
     7
370
    15
100
AcDbLine
 10
158.9292428993
 20
138.5415984325
 30
0.0
 11
158.9292428993
 21
134.7106461712
 31
0.0
  0
SPLINE
  5
10B
330
1F
100
AcDbEntity
  8
0
  6
Continuous
 62
     7
370
    15
100
AcDbSpline
210
0.0
220
0.0
230
1.0
 70
     8
 71
     3
 72
     8
 73
     4
 74
     0
 42
0.000000001
 43
0.00000001
 40
0.0
 40
0.0
 40
0.0
 40
0.0
 40
1.0
 40
1.0
 40
1.0
 40
1.0
 10
154.3711757307808
 20
145.3278416443923
 30
0.0
 10
153.8760357014164
 20
144.4411619962121
 30
0.0
 10
153.3819529961375
 20
143.5538993605261
 30
0.0
 10
152.8892428992917
 20
142.6658803623997
 30
0.0
  0
LINE
  5
10C
330
1F
100
AcDbEntity
  8
0
  6
Continuous
 62
     7
370
    15
100
AcDbLine
 10
154.3711757308
 20
139.3193358336
 30
0.0
 11
154.3711757308
 21
145.3278416444
 31
0.0
  0
LINE
  5
10D
330
1F
100
AcDbEntity
  8
0
  6
Continuous
 62
     7
370
    15
100
AcDbLine
 10
152.8892428993
 20
135.9107898388
 30
0.0
 11
152.8892428993
 21
142.6658803624
 31
0.0
  0
SPLINE
  5
10E
330
1F
100
AcDbEntity
  8
0
  6
Continuous
 62
     7
370
    15
100
AcDbSpline
210
0.0
220
0.0
230
1.0
 70
     8
 71
     3
 72
     8
 73
     4
 74
     0
 42
0.000000001
 43
0.00000001
 40
0.0
 40
0.0
 40
0.0
 40
0.0
 40
1.0
 40
1.0
 40
1.0
 40
1.0
 10
147.5873100678027
 20
139.3193358335955
 30
0.0
 10
148.0943969095619
 20
138.1881854794318
 30
0.0
 10
148.5899647487018
 20
137.051801068664
 30
0.0
 10
149.0692428992917
 20
135.9107898388114
 30
0.0
  0
LINE
  5
10F
330
1F
100
AcDbEntity
  8
0
  6
Continuous
 62
     7
370
    15
100
AcDbLine
 10
149.0692428993
 20
135.9107898388
 30
0.0
 11
149.0692428993
 21
134.9965128027
 31
0.0
  0
LINE
  5
110
330
1F
100
AcDbEntity
  8
0
  6
Continuous
 62
     7
370
    15
100
AcDbLine
 10
158.3292428993
 20
145.3278416444
 30
0.0
 11
154.3711757308
 21
145.3278416444
 31
0.0
  0
SPLINE
  5
111
330
1F
100
AcDbEntity
  8
0
  6
Continuous
 62
     7
370
    15
100
AcDbSpline
210
0.0
220
0.0
230
1.0
 70
     8
 71
     3
 72
     8
 73
     4
 74
     0
 42
0.000000001
 43
0.00000001
 40
0.0
 40
0.0
 40
0.0
 40
0.0
 40
1.0
 40
1.0
 40
1.0
 40
1.0
 10
149.0692428992917
 20
142.6658803623997
 30
0.0
 10
148.576532802446
 20
143.5538993605261
 30
0.0
 10
148.082450097167
 20
144.441161996212
 30
0.0
 10
147.5873100678027
 20
145.3278416443923
 30
0.0
  0
LINE
  5
112
330
1F
100
AcDbEntity
  8
0
  6
Continuous
 62
     7
370
    15
100
AcDbLine
 10
149.0692428993
 20
135.9107898388
 30
0.0
 11
149.0692428993
 21
142.6658803624
 31
0.0
  0
SPLINE
  5
113
330
1F
100
AcDbEntity
  8
0
  6
Continuous
 62
     7
370
    15
100
AcDbSpline
210
0.0
220
0.0
230
1.0
 70
     8
 71
     3
 72
    10
 73
     6
 74
     0
 42
0.000000001
 43
0.00000001
 40
0.0
 40
0.0
 40
0.0
 40
0.0
 40
0.5
 40
0.5
 40
1.0
 40
1.0
 40
1.0
 40
1.0
 10
158.9292428992917
 20
144.707086494992
 30
0.0
 10
158.9292428992917
 20
144.8674917613428
 30
0.0
 10
158.8670050681849
 20
145.0265535743314
 30
0.0
 10
158.6478701444423
 20
145.2574660399617
 30
0.0
 10
158.4902814494504
 20
145.3278416443923
 30
0.0
 10
158.3292428992917
 20
145.3278416443923
 30
0.0
  0
LINE
  5
114
330
1F
100
AcDbEntity
  8
0
  6
Continuous
 62
     7
370
    15
100
AcDbLine
 10
158.9292428993
 20
138.5415984325
 30
0.0
 11
158.9292428993
 21
144.707086495
 31
0.0
  0
LINE
  5
115
330
1F
100
AcDbEntity
  8
0
  6
Continuous
 62
     7
370
    15
100
AcDbLine
 10
159.9292428993
 20
88.8606461712
 30
0.0
 11
159.9292428993
 21
140.8606461712
 31
0.0
  0
CIRCLE
  5
116
330
1F
100
AcDbEntity
  8
0
  6
HIDDEN
 62
     7
370
     0
100
AcDbCircle
 10
189.4292428993
 20
114.8606461712
 30
0.0
 40
7.012850235103737
  0
CIRCLE
  5
117
330
1F
100
AcDbEntity
  8
0
  6
HIDDEN
 62
     7
370
     0
100
AcDbCircle
 10
189.4292428993
 20
114.8606461712
 30
0.0
 40
5.294716599621009
  0
CIRCLE
  5
118
330
1F
100
AcDbEntity
  8
0
  6
HIDDEN
 62
     7
370
     0
100
AcDbCircle
 10
189.4292428993
 20
114.8606461712
 30
0.0
 40
4.89471659962101
  0
CIRCLE
  5
119
330
1F
100
AcDbEntity
  8
0
  6
HIDDEN
 62
     7
370
     0
100
AcDbCircle
 10
189.4292428993
 20
114.8606461712
 30
0.0
 40
7.249999999999986
  0
LINE
  5
11A
330
1F
100
AcDbEntity
  8
0
  6
HIDDEN
 62
     7
370
     0
100
AcDbLine
 10
147.5873100678
 20
139.3193358336
 30
0.0
 11
147.5873100678
 21
134.7106461712
 31
0.0
  0
LINE
  5
11B
330
1F
100
AcDbEntity
  8
0
  6
HIDDEN
 62
     7
370
     0
100
AcDbLine
 10
208.2292428993
 20
138.8549438575
 30
0.0
 11
208.2292428993
 21
143.7522659808
 31
0.0
  0
SPLINE
  5
11C
330
1F
100
AcDbEntity
  8
0
  6
HIDDEN
 62
     7
370
     0
100
AcDbSpline
210
0.0
220
0.0
230
1.0
 70
     8
 71
     3
 72
    16
 73
    12
 74
     0
 42
0.000000001
 43
0.00000001
 40
0.0
 40
0.0
 40
0.0
 40
0.0
 40
0.2499999999999994
 40
0.2499999999999994
 40
0.4999999999999988
 40
0.4999999999999988
 40
0.6249999999999989
 40
0.6249999999999989
 40
0.749999999999999
 40
0.749999999999999
 40
1.0
 40
1.0
 40
1.0
 40
1.0
 10
208.2292428992917
 20
134.778689783098
 30
0.0
 10
208.3647474459841
 20
135.3270471493906
 30
0.0
 10
208.4685552226643
 20
135.8491926251742
 30
0.0
 10
208.6121550320998
 20
136.8311465158289
 30
0.0
 10
208.6481774132546
 20
137.2654353271968
 30
0.0
 10
208.6480782072188
 20
137.8231757360712
 30
0.0
 10
208.6388758766572
 20
137.9882088043153
 30
0.0
 10
208.6028141456732
 20
138.2783001796725
 30
0.0
 10
208.5757026726261
 20
138.4040298029541
 30
0.0
 10
208.4680853907158
 20
138.7143434380034
 30
0.0
 10
208.3647356399348
 20
138.8286579194808
 30
0.0
 10
208.2292428992917
 20
138.8549438575234
 30
0.0
  0
LINE
  5
11D
330
1F
100
AcDbEntity
  8
0
  6
HIDDEN
 62
     7
370
     0
100
AcDbLine
 10
208.2292428993
 20
94.9426025594
 30
0.0
 11
208.2292428993
 21
134.7786897831
 31
0.0
  0
SPLINE
  5
11E
330
1F
100
AcDbEntity
  8
0
  6
HIDDEN
 62
     7
370
     0
100
AcDbSpline
210
0.0
220
0.0
230
1.0
 70
     8
 71
     3
 72
    16
 73
    12
 74
     0
 42
0.000000001
 43
0.00000001
 40
0.0
 40
0.0
 40
0.0
 40
0.0
 40
0.2499999999999986
 40
0.2499999999999986
 40
0.4999999999999972
 40
0.4999999999999972
 40
0.6249999999999977
 40
0.6249999999999977
 40
0.749999999999998
 40
0.749999999999998
 40
1.0
 40
1.0
 40
1.0
 40
1.0
 10
208.2292428992917
 20
90.86634848493273
 30
0.0
 10
208.3647474459841
 20
90.89263671337912
 30
0.0
 10
208.4685552226643
 20
91.00738187168793
 30
0.0
 10
208.6121550320998
 20
91.42330119294984
 30
0.0
 10
208.6481774132546
 20
91.71393645061255
 30
0.0
 10
208.6480782072188
 20
92.27207096199422
 30
0.0
 10
208.6388758766572
 20
92.47369518545429
 30
0.0
 10
208.6028141456732
 20
92.9067629695552
 30
0.0
 10
208.5757026726262
 20
93.13987591843812
 30
0.0
 10
208.4680853907158
 20
93.87437383610454
 30
0.0
 10
208.3647356399348
 20
94.39429296957381
 30
0.0
 10
208.2292428992917
 20
94.94260255935808
 30
0.0
  0
LINE
  5
11F
330
1F
100
AcDbEntity
  8
0
  6
HIDDEN
 62
     7
370
     0
100
AcDbLine
 10
208.2292428993
 20
85.9690263616
 30
0.0
 11
208.2292428993
 21
90.8663484849
 31
0.0
  0
LINE
  5
120
330
1F
100
AcDbEntity
  8
0
  6
HIDDEN
 62
     7
370
     0
100
AcDbLine
 10
120.9744076101
 20
91.3360475683
 30
0.0
 11
120.7227909519
 21
91.3125299197
 31
0.0
  0
LINE
  5
121
330
1F
100
AcDbEntity
  8
0
  6
HIDDEN
 62
     7
370
     0
100
AcDbLine
 10
203.9292428993
 20
103.8624645033
 30
0.0
 11
203.9292428993
 21
125.8588278391
 31
0.0
  0
LINE
  5
122
330
1F
100
AcDbEntity
  8
0
  6
HIDDEN
 62
     7
370
     0
100
AcDbLine
 10
203.9292428993
 20
133.6606461712
 30
0.0
 11
203.9292428993
 21
125.8588278391
 31
0.0
  0
LINE
  5
123
330
1F
100
AcDbEntity
  8
0
  6
HIDDEN
 62
     7
370
     0
100
AcDbLine
 10
203.9292428993
 20
125.8588278391
 30
0.0
 11
208.2292428993
 21
125.8588278391
 31
0.0
  0
LINE
  5
124
330
1F
100
AcDbEntity
  8
0
  6
HIDDEN
 62
     7
370
     0
100
AcDbLine
 10
208.2292428993
 20
138.8549438575
 30
0.0
 11
208.2292428993
 21
138.7289117887
 31
0.0
  0
LINE
  5
125
330
1F
100
AcDbEntity
  8
0
  6
HIDDEN
 62
     7
370
     0
100
AcDbLine
 10
203.9292428993
 20
138.7289117887
 30
0.0
 11
208.2292428993
 21
138.7289117887
 31
0.0
  0
LINE
  5
126
330
1F
100
AcDbEntity
  8
0
  6
HIDDEN
 62
     7
370
     0
100
AcDbLine
 10
203.9292428993
 20
138.8606461712
 30
0.0
 11
203.9292428993
 21
133.6606461712
 31
0.0
  0
LINE
  5
127
330
1F
100
AcDbEntity
  8
0
  6
HIDDEN
 62
     7
370
     0
100
AcDbLine
 10
203.9292428993
 20
103.8624645033
 30
0.0
 11
203.9292428993
 21
96.0606461712
 31
0.0
  0
LINE
  5
128
330
1F
100
AcDbEntity
  8
0
  6
HIDDEN
 62
     7
370
     0
100
AcDbLine
 10
208.2292428993
 20
103.8624645033
 30
0.0
 11
203.9292428993
 21
103.8624645033
 31
0.0
  0
LINE
  5
129
330
1F
100
AcDbEntity
  8
0
  6
HIDDEN
 62
     7
370
     0
100
AcDbLine
 10
203.9292428993
 20
90.9923805538
 30
0.0
 11
208.2292428993
 21
90.9923805538
 31
0.0
  0
LINE
  5
12A
330
1F
100
AcDbEntity
  8
0
  6
HIDDEN
 62
     7
370
     0
100
AcDbLine
 10
208.2292428993
 20
90.9923805538
 30
0.0
 11
208.2292428993
 21
90.8663484849
 31
0.0
  0
LINE
  5
12B
330
1F
100
AcDbEntity
  8
0
  6
HIDDEN
 62
     7
370
     0
100
AcDbLine
 10
203.9292428993
 20
96.0606461712
 30
0.0
 11
203.9292428993
 21
90.8606461712
 31
0.0
  0
LINE
  5
12C
330
1F
100
AcDbEntity
  8
0
  6
HIDDEN
 62
     7
370
     0
100
AcDbLine
 10
202.4292428993
 20
94.8606461712
 30
0.0
 11
202.4292428993
 21
134.8606461712
 31
0.0
  0
LINE
  5
12D
330
1F
100
AcDbEntity
  8
0
  6
HIDDEN
 62
     7
370
     0
100
AcDbLine
 10
167.9792428993
 20
95.1606461712
 30
0.0
 11
167.9792428993
 21
134.5606461642
 31
0.0
  0
LINE
  5
12E
330
1F
100
AcDbEntity
  8
0
  6
HIDDEN
 62
     7
370
     0
100
AcDbLine
 10
170.4778496401
 20
94.8606461712
 30
0.0
 11
170.4778496401
 21
134.8606461712
 31
0.0
  0
SPLINE
  5
12F
330
1F
100
AcDbEntity
  8
0
  6
HIDDEN
 62
     7
370
     0
100
AcDbSpline
210
0.0
220
0.0
230
1.0
 70
     8
 71
     3
 72
    15
 73
    11
 74
     0
 42
0.000000001
 43
0.00000001
 40
0.0
 40
0.0
 40
0.0
 40
0.0
 40
0.1409172169897704
 40
0.2818898291171902
 40
0.4212989265166053
 40
0.5593768372264383
 40
0.6988856205980563
 40
0.8403671979046401
 40
0.9813164454670257
 40
1.0
 40
1.0
 40
1.0
 40
1.0
 10
126.7342449008933
 20
95.02311769541161
 30
0.0
 10
126.4182032146207
 20
95.06347151273323
 30
0.0
 10
125.7859956047887
 20
95.14419501062805
 30
0.0
 10
124.5518324831115
 20
95.22075010823035
 30
0.0
 10
123.281110482253
 20
95.21607405709129
 30
0.0
 10
122.0925510772255
 20
95.13527804535907
 30
0.0
 10
121.0994284044445
 20
95.01088124884733
 30
0.0
 10
120.4600193981479
 20
94.90447771018525
 30
0.0
 10
120.1789992915643
 20
94.85139704950801
 30
0.0
 10
120.2455600292575
 20
94.86365308952232
 30
0.0
 10
120.2533503527758
 20
94.86508754653214
 30
0.0
  0
SPLINE
  5
130
330
1F
100
AcDbEntity
  8
0
  6
HIDDEN
 62
     7
370
     0
100
AcDbSpline
210
0.0
220
0.0
230
1.0
 70
     8
 71
     3
 72
    15
 73
    11
 74
     0
 42
0.000000001
 43
0.00000001
 40
0.0
 40
0.0
 40
0.0
 40
0.0
 40
0.1201202395113815
 40
0.2584739316900678
 40
0.3987301965958622
 40
0.5404022890432683
 40
0.6807395403003625
 40
0.8190356063860856
 40
0.9577823106998823
 40
1.0
 40
1.0
 40
1.0
 40
1.0
 10
120.2533503527758
 20
134.856204795924
 30
0.0
 10
120.2740594892462
 20
134.8521802020704
 30
0.0
 10
120.318621271234
 20
134.8435201078095
 30
0.0
 10
120.8810608771067
 20
134.7442289812009
 30
0.0
 10
121.774523089428
 20
134.6203113912196
 30
0.0
 10
122.9335022436202
 20
134.5206009543981
 30
0.0
 10
124.2065391237456
 20
134.4934624653226
 30
0.0
 10
125.4408243983892
 20
134.5488012994864
 30
0.0
 10
126.2687871951552
 20
134.6352798984706
 30
0.0
 10
126.6461977398192
 20
134.6862773167605
 30
0.0
 10
126.7342449008933
 20
134.6981746470445
 30
0.0
  0
SPLINE
  5
131
330
1F
100
AcDbEntity
  8
0
  6
HIDDEN
 62
     7
370
     0
100
AcDbSpline
210
0.0
220
0.0
230
1.0
 70
     8
 71
     3
 72
    10
 73
     6
 74
     0
 42
0.000000001
 43
0.00000001
 40
0.0
 40
0.0
 40
0.0
 40
0.0
 40
0.4476125704307463
 40
0.8952083807246783
 40
1.0
 40
1.0
 40
1.0
 40
1.0
 10
126.7342449008933
 20
134.6981746470445
 30
0.0
 10
126.9809485634
 20
134.7276870287584
 30
0.0
 10
127.4743466509894
 20
134.7867106871423
 30
0.0
 10
127.7633598518688
 20
134.8006487442061
 30
0.0
 10
127.7030083486739
 20
134.7967590533468
 30
0.0
 10
127.6915592616619
 20
134.7960211527687
 30
0.0
  0
SPLINE
  5
132
330
1F
100
AcDbEntity
  8
0
  6
HIDDEN
 62
     7
370
     0
100
AcDbSpline
210
0.0
220
0.0
230
1.0
 70
     8
 71
     3
 72
    10
 73
     6
 74
     0
 42
0.000000001
 43
0.00000001
 40
0.0
 40
0.0
 40
0.0
 40
0.0
 40
0.3455153224335645
 40
0.7967096130053668
 40
1.0
 40
1.0
 40
1.0
 40
1.0
 10
127.6915360779041
 20
94.92527276566226
 30
0.0
 10
127.6819761933533
 20
94.9258283387606
 30
0.0
 10
127.6599324476022
 20
94.92710941198492
 30
0.0
 10
127.2429731476016
 20
94.95706806891629
 30
0.0
 10
126.8548121293209
 20
95.00746411128935
 30
0.0
 10
126.7342449008933
 20
95.02311769541161
 30
0.0
  0
LINE
  5
133
330
1F
100
AcDbEntity
  8
0
  6
HIDDEN
 62
     7
370
     0
100
AcDbLine
 10
113.9832174955
 20
97.8606461712
 30
0.0
 11
113.9832174955
 21
131.8606461712
 31
0.0
  0
LINE
  5
134
330
1F
100
AcDbEntity
  8
0
  6
HIDDEN
 62
     7
370
     0
100
AcDbLine
 10
140.6390688678
 20
97.8606461712
 30
0.0
 11
140.6390688678
 21
131.8606461712
 31
0.0
  0
LINE
  5
135
330
1F
100
AcDbEntity
  8
0
  6
HIDDEN
 62
     7
370
     0
100
AcDbLine
 10
142.9292428993
 20
99.1356461712
 30
0.0
 11
142.9292428993
 21
130.5856461475
 31
0.0
  0
SPLINE
  5
136
330
1F
100
AcDbEntity
  8
0
  6
HIDDEN
 62
     7
370
     0
100
AcDbSpline
210
0.0
220
0.0
230
1.0
 70
     8
 71
     3
 72
    18
 73
    14
 74
     0
 42
0.000000001
 43
0.00000001
 40
0.0
 40
0.0
 40
0.0
 40
0.0
 40
0.2500000000000033
 40
0.2500000000000033
 40
0.3750000000000029
 40
0.3750000000000029
 40
0.5000000000000026
 40
0.5000000000000026
 40
0.6250000000000022
 40
0.6250000000000022
 40
0.7500000000000018
 40
0.7500000000000018
 40
1.0
 40
1.0
 40
1.0
 40
1.0
 10
107.1792428992917
 20
131.1481597936322
 30
0.0
 10
107.1792428992917
 20
131.09368527308
 30
0.0
 10
107.1443322078995
 20
131.0373042137275
 30
0.0
 10
107.0423229065665
 20
130.953227372874
 30
0.0
 10
107.0006865518884
 20
130.9258936688831
 30
0.0
 10
106.9022807563996
 20
130.8729397532842
 30
0.0
 10
106.8447375446953
 20
130.847052399567
 30
0.0
 10
106.7174393711224
 20
130.7992748547337
 30
0.0
 10
106.6478520663649
 20
130.7773269365558
 30
0.0
 10
106.49641782121
 20
130.7378943716431
 30
0.0
 10
106.413733918116
 20
130.7203381224172
 30
0.0
 10
106.157622456078
 20
130.6778993569967
 30
0.0
 10
105.96970745219
 20
130.6621366072597
 30
0.0
 10
105.7792428992917
 20
130.6621366072597
 30
0.0
  0
LINE
  5
137
330
1F
100
AcDbEntity
  8
0
  6
HIDDEN
 62
     7
370
     0
100
AcDbLine
 10
105.7792428993
 20
130.6621366073
 30
0.0
 11
102.2292428993
 21
130.6621366073
 31
0.0
  0
LINE
  5
138
330
1F
100
AcDbEntity
  8
0
  6
HIDDEN
 62
     7
370
     0
100
AcDbLine
 10
102.2292428993
 20
99.0591557352
 30
0.0
 11
109.7792428993
 21
99.0591557352
 31
0.0
  0
SPLINE
  5
139
330
1F
100
AcDbEntity
  8
0
  6
HIDDEN
 62
     7
370
     0
100
AcDbSpline
210
0.0
220
0.0
230
1.0
 70
     8
 71
     3
 72
    16
 73
    12
 74
     0
 42
0.000000001
 43
0.00000001
 40
0.0
 40
0.0
 40
0.0
 40
0.0
 40
0.124999999999998
 40
0.124999999999998
 40
0.249999999999996
 40
0.249999999999996
 40
0.4999999999999973
 40
0.4999999999999973
 40
0.7499999999999987
 40
0.7499999999999987
 40
1.0
 40
1.0
 40
1.0
 40
1.0
 10
109.7792428992917
 20
99.05915573519641
 30
0.0
 10
109.8743646539575
 20
99.05915573519641
 30
0.0
 10
109.9676947226856
 20
99.0553399018036
 30
0.0
 10
110.1509564834236
 20
99.04056934907379
 30
0.0
 10
110.2418341989806
 20
99.02941130109821
 30
0.0
 10
110.4986358965004
 20
98.9869400309565
 30
0.0
 10
110.6537032613724
 20
98.9458938337537
 30
0.0
 10
110.907449722927
 20
98.85074771717181
 30
0.0
 10
111.0083201745948
 20
98.79598498309022
 30
0.0
 10
111.1435665892897
 20
98.68472385918636
 30
0.0
 10
111.1792428992917
 20
98.62755412185767
 30
0.0
 10
111.1792428992917
 20
98.57313254882393
 30
0.0
  0
LINE
  5
13A
330
1F
100
AcDbEntity
  8
0
  6
HIDDEN
 62
     7
370
     0
100
AcDbLine
 10
102.2292428993
 20
99.0591557352
 30
0.0
 11
102.2292428993
 21
130.6621366073
 31
0.0
  0
LINE
  5
13B
330
1F
100
AcDbEntity
  8
0
  6
HIDDEN
 62
     7
370
     0
100
AcDbLine
 10
203.9292428993
 20
142.8856461712
 30
0.0
 11
203.9292428993
 21
138.8606461712
 31
0.0
  0
LINE
  5
13C
330
1F
100
AcDbEntity
  8
0
  6
HIDDEN
 62
     7
370
     0
100
AcDbLine
 10
203.9292428993
 20
90.8606461712
 30
0.0
 11
203.9292428993
 21
86.8356461712
 31
0.0
  0
LINE
  5
13D
330
1F
100
AcDbEntity
  8
0
  6
HIDDEN
 62
     7
370
     0
100
AcDbLine
 10
102.2292428993
 20
96.8706461712
 30
0.0
 11
102.2292428993
 21
93.9907084058
 31
0.0
  0
LINE
  5
13E
330
1F
100
AcDbEntity
  8
0
  6
HIDDEN
 62
     7
370
     0
100
AcDbLine
 10
111.1792428993
 20
96.8706461712
 30
0.0
 11
111.1792428993
 21
92.89690864
 31
0.0
  0
LINE
  5
13F
330
1F
100
AcDbEntity
  8
0
  6
HIDDEN
 62
     7
370
     0
100
AcDbLine
 10
102.2292428993
 20
132.8506461712
 30
0.0
 11
102.2292428993
 21
135.7305839366
 31
0.0
  0
LINE
  5
140
330
1F
100
AcDbEntity
  8
0
  6
HIDDEN
 62
     7
370
     0
100
AcDbLine
 10
107.1792428993
 20
132.8506461712
 30
0.0
 11
107.1792428993
 21
136.7047538436
 31
0.0
  0
LINE
  5
141
330
1F
100
AcDbEntity
  8
0
  6
HIDDEN
 62
     7
370
     0
100
AcDbLine
 10
152.2792428993
 20
105.3606461712
 30
0.0
 11
152.2792428993
 21
124.3606461712
 31
0.0
  0
LINE
  5
142
330
1F
100
AcDbEntity
  8
0
  6
HIDDEN
 62
     7
370
     0
100
AcDbLine
 10
154.7792428993
 20
105.3606461712
 30
0.0
 11
154.7792428993
 21
124.3606461712
 31
0.0
  0
LINE
  5
143
330
1F
100
AcDbEntity
  8
0
  6
HIDDEN
 62
     7
370
     0
100
AcDbLine
 10
143.4292428993
 20
106.3606461712
 30
0.0
 11
143.4292428993
 21
123.3606461712
 31
0.0
  0
LINE
  5
144
330
1F
100
AcDbEntity
  8
0
  6
HIDDEN
 62
     7
370
     0
100
AcDbLine
 10
158.9292428993
 20
88.4606461712
 30
0.0
 11
152.791568097
 21
88.4606461712
 31
0.0
  0
LINE
  5
145
330
1F
100
AcDbEntity
  8
0
  6
HIDDEN
 62
     7
370
     0
100
AcDbLine
 10
137.9292428993
 20
83.3765231884
 30
0.0
 11
137.9292428993
 21
88.4606461712
 31
0.0
  0
LINE
  5
146
330
1F
100
AcDbEntity
  8
0
  6
HIDDEN
 62
     7
370
     0
100
AcDbLine
 10
145.9292428993
 20
88.4606461712
 30
0.0
 11
137.9292428993
 21
88.4606461712
 31
0.0
  0
LINE
  5
147
330
1F
100
AcDbEntity
  8
0
  6
HIDDEN
 62
     7
370
     0
100
AcDbLine
 10
149.1669177016
 20
88.4606461712
 30
0.0
 11
145.9292428993
 21
88.4606461712
 31
0.0
  0
LINE
  5
148
330
1F
100
AcDbEntity
  8
0
  6
HIDDEN
 62
     7
370
     0
100
AcDbLine
 10
145.9292428993
 20
141.2606461712
 30
0.0
 11
137.9292428993
 21
141.2606461712
 31
0.0
  0
LINE
  5
149
330
1F
100
AcDbEntity
  8
0
  6
HIDDEN
 62
     7
370
     0
100
AcDbLine
 10
149.463540431
 20
141.2606461712
 30
0.0
 11
145.9292428993
 21
141.2606461712
 31
0.0
  0
LINE
  5
14A
330
1F
100
AcDbEntity
  8
0
  6
HIDDEN
 62
     7
370
     0
100
AcDbLine
 10
158.9292428993
 20
141.2606461712
 30
0.0
 11
152.4949453676
 21
141.2606461712
 31
0.0
  0
ELLIPSE
  5
14B
330
1F
100
AcDbEntity
  8
0
  6
HIDDEN
 62
     7
370
     0
100
AcDbEllipse
 10
96.911811035
 20
114.8606461712
 30
0.0
 11
20.07002071827083
 21
-1.421085471520200E-14
 31
0.0
210
0.0
220
0.0
230
1.0
 40
0.8164965809
 41
4.921555463185717
 42
4.980534842098416
  0
ELLIPSE
  5
14C
330
1F
100
AcDbEntity
  8
0
  6
HIDDEN
 62
     7
370
     0
100
AcDbEllipse
 10
96.911811035
 20
114.8606461712
 30
0.0
 11
20.07002071827083
 21
-1.421085471520200E-14
 31
0.0
210
0.0
220
0.0
230
1.0
 40
0.8164965809
 41
1.302650465081183
 42
1.361629843993882
  0
LINE
  5
14D
330
1F
100
AcDbEntity
  8
0
  6
HIDDEN
 62
     7
370
     0
100
AcDbLine
 10
111.1792428993
 20
96.8706461712
 30
0.0
 11
111.1792428993
 21
98.5731325488
 31
0.0
  0
LINE
  5
14E
330
1F
100
AcDbEntity
  8
0
  6
HIDDEN
 62
     7
370
     0
100
AcDbLine
 10
102.2292428993
 20
96.8706461712
 30
0.0
 11
102.2292428993
 21
99.0591557352
 31
0.0
  0
LINE
  5
14F
330
1F
100
AcDbEntity
  8
0
  6
HIDDEN
 62
     7
370
     0
100
AcDbLine
 10
102.2292428993
 20
132.8506461712
 30
0.0
 11
102.2292428993
 21
130.6621366073
 31
0.0
  0
LINE
  5
150
330
1F
100
AcDbEntity
  8
0
  6
HIDDEN
 62
     7
370
     0
100
AcDbLine
 10
107.1792428993
 20
132.8506461712
 30
0.0
 11
107.1792428993
 21
131.1481597936
 31
0.0
  0
LWPOLYLINE
  5
151
330
1F
100
AcDbEntity
  8
0
  6
HIDDEN
 62
     7
370
     0
100
AcDbPolyline
 90
       17
 70
   128
 43
0.0
 10
127.7278945069
 20
91.2607024718
 10
127.4992129336
 20
91.3217622611
 10
127.1620973707
 20
91.399446473
 10
126.6434017222
 20
91.5084481924
 10
125.901626311
 20
91.6385526353
 10
125.1714171632
 20
91.7391309915
 10
123.9999905611
 20
91.8517094438
 10
122.6784138906
 20
91.8777913565
 10
121.9898718545
 20
91.8566262505
 10
121.3397464107
 20
91.812657103
 10
120.7591063311
 20
91.7556817115
 10
120.4231320322
 20
91.7149188813
 10
120.2292626529
 20
91.6820309052
 10
120.4182655506
 20
91.7140809513
 10
120.750256169
 20
91.7544971959
 10
121.323112522
 20
91.8111742548
 10
121.323112522
 20
91.8111742548
  0
SPLINE
  5
152
330
1F
100
AcDbEntity
  8
0
  6
HIDDEN
 62
     7
370
     0
100
AcDbSpline
210
0.0
220
0.0
230
1.0
 70
     8
 71
     3
 72
    31
 73
    27
 74
     0
 42
0.000000001
 43
0.00000001
 40
0.0
 40
0.0
 40
0.0
 40
0.0
 40
0.000668884419751
 40
0.0381829352523683
 40
0.0854751493167432
 40
0.1425432463044009
 40
0.174798805692893
 40
0.2095079149557287
 40
0.2683880487961761
 40
0.3227947529952503
 40
0.3566280276174356
 40
0.388498844493769
 40
0.4184247228677356
 40
0.455695727392723
 40
0.5029148711984532
 40
0.5600898676253427
 40
0.592467184947044
 40
0.6273447372141728
 40
0.6872436482374605
 40
0.7420231010324717
 40
0.7917328193472027
 40
0.8365037623554928
 40
0.884339948724699
 40
0.9365464359375051
 40
0.9738581223302766
 40
1.0
 40
1.0
 40
1.0
 40
1.0
 10
120.2299046151348
 20
138.0390622015851
 30
0.0
 10
120.2296845781747
 20
138.0391096330573
 30
0.0
 10
120.2171238774716
 20
138.0418172351161
 30
0.0
 10
120.2662014777453
 20
138.0299849300268
 30
0.0
 10
120.4113011032952
 20
138.0065417805745
 30
0.0
 10
120.6843520604715
 20
137.9726375951819
 30
0.0
 10
121.0128754076669
 20
137.9390689752606
 30
0.0
 10
121.4056006160059
 20
137.9008856441101
 30
0.0
 10
121.9553265404663
 20
137.8619167799679
 30
0.0
 10
122.5813485585741
 20
137.8424552450239
 30
0.0
 10
123.1245392474941
 20
137.8402691246031
 30
0.0
 10
123.569607067714
 20
137.8487835776333
 30
0.0
 10
124.0360554006548
 20
137.8685665444966
 30
0.0
 10
124.5732982146241
 20
137.9127286362217
 30
0.0
 10
125.2215112109977
 20
137.9851431834355
 30
0.0
 10
125.8070597131616
 20
138.0660479368426
 30
0.0
 10
126.2880061576516
 20
138.144206565174
 30
0.0
 10
126.7335201778594
 20
138.2290089387672
 30
0.0
 10
127.1714010490976
 20
138.3225999002356
 30
0.0
 10
127.5126936310945
 20
138.401204067034
 30
0.0
 10
127.6936403947386
 20
138.4493822450995
 30
0.0
 10
127.7481811709065
 20
138.4668078121715
 30
0.0
 10
127.6847029119492
 20
138.4475039624506
 30
0.0
 10
127.5021316920854
 20
138.4011841212571
 30
0.0
 10
127.2698964150639
 20
138.3470103194779
 30
0.0
 10
127.1023175707017
 20
138.3099247721343
 30
0.0
 10
127.0332777032951
 20
138.2946461056592
 30
0.0
  0
LINE
  5
153
330
1F
100
AcDbEntity
  8
0
  6
HIDDEN
 62
     7
370
     0
100
AcDbLine
 10
149.0692428993
 20
134.9965128027
 30
0.0
 11
149.0692428993
 21
134.7106461712
 31
0.0
  0
LINE
  5
154
330
1F
100
AcDbEntity
  8
0
  6
HIDDEN
 62
     7
370
     0
100
AcDbLine
 10
152.8892428993
 20
134.9965128027
 30
0.0
 11
152.8892428993
 21
134.7106461712
 31
0.0
  0
LINE
  5
155
330
1F
100
AcDbEntity
  8
0
  6
HIDDEN
 62
     7
370
     0
100
AcDbLine
 10
154.3711757308
 20
139.3193358336
 30
0.0
 11
154.3711757308
 21
134.7106461712
 31
0.0
  0
SPLINE
  5
156
330
1F
100
AcDbEntity
  8
0
  6
HIDDEN
 62
     7
370
     0
100
AcDbSpline
210
0.0
220
0.0
230
1.0
 70
     8
 71
     3
 72
    24
 73
    20
 74
     0
 42
0.000000001
 43
0.00000001
 40
0.0
 40
0.0
 40
0.0
 40
0.0
 40
0.24999999999998
 40
0.24999999999998
 40
0.3749999999999705
 40
0.3749999999999705
 40
0.4374999999999656
 40
0.4374999999999656
 40
0.4687499999999649
 40
0.4687499999999649
 40
0.4999999999999643
 40
0.4999999999999643
 40
0.5624999999999676
 40
0.5624999999999676
 40
0.6249999999999709
 40
0.6249999999999709
 40
0.7499999999999798
 40
0.7499999999999798
 40
1.0
 40
1.0
 40
1.0
 40
1.0
 10
101.1419062740151
 20
95.18609362644733
 30
0.0
 10
101.1556593926853
 20
95.2567436844376
 30
0.0
 10
101.1734319600912
 20
95.3233417972025
 30
0.0
 10
101.2256830516466
 20
95.39743981743571
 30
0.0
 10
101.2467181272281
 20
95.41869762459727
 30
0.0
 10
101.2996185348565
 20
95.42684355074351
 30
0.0
 10
101.3207242077344
 20
95.42590374734775
 30
0.0
 10
101.3667763764124
 20
95.40488775577045
 30
0.0
 10
101.3851468483958
 20
95.39397894966281
 30
0.0
 10
101.4266984834615
 20
95.36134403871546
 30
0.0
 10
101.4492651562184
 20
95.3398520583441
 30
0.0
 10
101.5120461726785
 20
95.2713861147578
 30
0.0
 10
101.5451759336463
 20
95.22531165655269
 30
0.0
 10
101.6020936201313
 20
95.14030376821803
 30
0.0
 10
101.6262796456351
 20
95.10002346703664
 30
0.0
 10
101.6914875960149
 20
94.98508724057068
 30
0.0
 10
101.7262036562061
 20
94.91450425542368
 30
0.0
 10
101.819418926537
 20
94.71029849634506
 30
0.0
 10
101.8650914618977
 20
94.5874001140177
 30
0.0
 10
101.9033965453962
 20
94.47052683763013
 30
0.0
  0
CIRCLE
  5
157
330
1F
100
AcDbEntity
  8
0
  6
HIDDEN
 62
     7
370
     0
100
AcDbCircle
 10
139.9792428993
 20
114.8606461712
 30
0.0
 40
5.0
  0
LINE
  5
158
330
1F
100
AcDbEntity
  8
0
  6
HIDDEN
 62
     7
370
     0
100
AcDbLine
 10
208.9792428993
 20
145.3606461712
 30
0.0
 11
208.2292428993
 21
143.7522659808
 31
0.0
  0
LINE
  5
159
330
1F
100
AcDbEntity
  8
0
  6
HIDDEN
 62
     7
370
     0
100
AcDbLine
 10
208.2292428993
 20
85.9690263616
 30
0.0
 11
208.9792428993
 21
84.3606461712
 31
0.0
  0
LINE
  5
15A
330
1F
100
AcDbEntity
  8
0
  6
HIDDEN
 62
     7
370
     0
100
AcDbLine
 10
132.9792428993
 20
89.5417250453
 30
0.0
 11
133.0734036748
 21
90.2117137765
 31
0.0
  0
LINE
  5
15B
330
1F
100
AcDbEntity
  8
0
  6
HIDDEN
 62
     7
370
     0
100
AcDbLine
 10
133.0734036748
 20
139.5095785659
 30
0.0
 11
132.9792428993
 21
140.1795672972
 31
0.0
  0
ARC
  5
15C
330
1F
100
AcDbEntity
  8
0
  6
HIDDEN
 62
     7
370
     0
100
AcDbCircle
 10
132.4792361466
 20
90.2952185769
 30
0.0
 40
0.6000067526677081
100
AcDbArc
 50
352.0
 51
0.0
  0
ARC
  5
15D
330
1F
100
AcDbEntity
  8
0
  6
HIDDEN
 62
     7
370
     0
100
AcDbCircle
 10
132.4792361466
 20
90.2952185769
 30
0.0
 40
0.6000067526677045
100
AcDbArc
 50
0.0
 51
33.5571153394
  0
ARC
  5
15E
330
1F
100
AcDbEntity
  8
0
  6
HIDDEN
 62
     7
370
     0
100
AcDbCircle
 10
132.4792361466
 20
139.4260737656
 30
0.0
 40
0.6000067526677121
100
AcDbArc
 50
348.75
 51
8.0
  0
LWPOLYLINE
  5
15F
330
1F
100
AcDbEntity
  8
0
  6
HIDDEN
 62
     7
370
     0
100
AcDbPolyline
 90
        3
 70
   128
 43
0.0
 10
133.0677139378
 20
139.309018255
 10
133.0335701048
 20
139.196461122
 10
132.9792428993
 20
139.0944092505
  0
LINE
  5
160
330
1F
100
AcDbEntity
  8
0
  6
HIDDEN
 62
     7
370
     0
100
AcDbLine
 10
133.0792428993
 20
90.2952185769
 30
0.0
 11
133.0792428993
 21
139.4260737656
 31
0.0
  0
LINE
  5
161
330
1F
100
AcDbEntity
  8
0
  6
HIDDEN
 62
     7
370
     0
100
AcDbLine
 10
208.2292428993
 20
138.8606461712
 30
0.0
 11
203.9292428993
 21
138.8606461712
 31
0.0
  0
LINE
  5
162
330
1F
100
AcDbEntity
  8
0
  6
HIDDEN
 62
     7
370
     0
100
AcDbLine
 10
203.9292428993
 20
90.8606461712
 30
0.0
 11
208.2292428993
 21
90.8606461712
 31
0.0
  0
LINE
  5
163
330
1F
100
AcDbEntity
  8
0
  6
HIDDEN
 62
     7
370
     0
100
AcDbLine
 10
203.9292428993
 20
135.726671575
 30
0.0
 11
202.4292428993
 21
134.8606461712
 31
0.0
  0
LINE
  5
164
330
1F
100
AcDbEntity
  8
0
  6
HIDDEN
 62
     7
370
     0
100
AcDbLine
 10
202.4292428993
 20
94.8606461712
 30
0.0
 11
203.9292428993
 21
93.9946207674
 31
0.0
  0
ARC
  5
165
330
1F
100
AcDbEntity
  8
0
  6
HIDDEN
 62
     7
370
     0
100
AcDbCircle
 10
169.2792428993
 20
95.1606461712
 30
0.0
 40
0.6000000000000356
100
AcDbArc
 50
270.0
 51
285.0
  0
ARC
  5
166
330
1F
100
AcDbEntity
  8
0
  6
HIDDEN
 62
     7
370
     0
100
AcDbCircle
 10
169.2792428993
 20
134.5606461712
 30
0.0
 40
0.6000000000000356
100
AcDbArc
 50
75.0
 51
90.0
  0
LINE
  5
167
330
1F
100
AcDbEntity
  8
0
  6
HIDDEN
 62
     7
370
     0
100
AcDbLine
 10
168.5792428993
 20
94.5606461712
 30
0.0
 11
169.2792428993
 21
94.5606461712
 31
0.0
  0
LINE
  5
168
330
1F
100
AcDbEntity
  8
0
  6
HIDDEN
 62
     7
370
     0
100
AcDbLine
 10
169.2792428993
 20
135.1606461712
 30
0.0
 11
168.5792428993
 21
135.1606461712
 31
0.0
  0
ARC
  5
169
330
1F
100
AcDbEntity
  8
0
  6
HIDDEN
 62
     7
370
     0
100
AcDbCircle
 10
168.5792428993
 20
95.1606461712
 30
0.0
 40
0.6000000000000227
100
AcDbArc
 50
180.0
 51
270.0
  0
ARC
  5
16A
330
1F
100
AcDbEntity
  8
0
  6
HIDDEN
 62
     7
370
     0
100
AcDbCircle
 10
168.5792428993
 20
134.5606461712
 30
0.0
 40
0.6000000000000227
100
AcDbArc
 50
90.0
 51
180.0
  0
LINE
  5
16B
330
1F
100
AcDbEntity
  8
0
  6
HIDDEN
 62
     7
370
     0
100
AcDbLine
 10
169.4345343264
 20
94.5810906755
 30
0.0
 11
170.4778496401
 21
94.8606461712
 31
0.0
  0
LINE
  5
16C
330
1F
100
AcDbEntity
  8
0
  6
HIDDEN
 62
     7
370
     0
100
AcDbLine
 10
170.4778496401
 20
134.8606461712
 30
0.0
 11
169.4345343264
 21
135.140201667
 31
0.0
  0
LINE
  5
16D
330
1F
100
AcDbEntity
  8
0
  6
HIDDEN
 62
     7
370
     0
100
AcDbLine
 10
116.0616784646
 20
94.8606461712
 30
0.0
 11
120.2533503528
 21
94.8606461712
 31
0.0
  0
LINE
  5
16E
330
1F
100
AcDbEntity
  8
0
  6
HIDDEN
 62
     7
370
     0
100
AcDbLine
 10
120.2533503528
 20
134.8606461712
 30
0.0
 11
116.0616784646
 21
134.8606461712
 31
0.0
  0
ARC
  5
16F
330
1F
100
AcDbEntity
  8
0
  6
HIDDEN
 62
     7
370
     0
100
AcDbCircle
 10
116.0616784646
 20
95.4606461712
 30
0.0
 40
0.6000000000000013
100
AcDbArc
 50
210.0
 51
270.0
  0
ARC
  5
170
330
1F
100
AcDbEntity
  8
0
  6
HIDDEN
 62
     7
370
     0
100
AcDbCircle
 10
116.0616784646
 20
134.2606461712
 30
0.0
 40
0.6000000000000227
100
AcDbArc
 50
90.0
 51
150.0
  0
ARC
  5
171
330
1F
100
AcDbEntity
  8
0
  6
HIDDEN
 62
     7
370
     0
100
AcDbCircle
 10
126.7342449009
 20
102.8606461712
 30
0.0
 40
7.999999999999996
100
AcDbArc
 50
276.8735714801
 51
321.3178125465
  0
ARC
  5
172
330
1F
100
AcDbEntity
  8
0
  6
HIDDEN
 62
     7
370
     0
100
AcDbCircle
 10
126.7342449009
 20
126.8606461712
 30
0.0
 40
7.999999999999996
100
AcDbArc
 50
38.6821874535
 51
83.1160000249
  0
LINE
  5
173
330
1F
100
AcDbEntity
  8
0
  6
HIDDEN
 62
     7
370
     0
100
AcDbLine
 10
170.4778496401
 20
94.8606461712
 30
0.0
 11
202.4292428993
 21
94.8606461712
 31
0.0
  0
LINE
  5
174
330
1F
100
AcDbEntity
  8
0
  6
HIDDEN
 62
     7
370
     0
100
AcDbLine
 10
202.4292428993
 20
134.8606461712
 30
0.0
 11
170.4778496401
 21
134.8606461712
 31
0.0
  0
LINE
  5
175
330
1F
100
AcDbEntity
  8
0
  6
HIDDEN
 62
     7
370
     0
100
AcDbLine
 10
115.5420632223
 20
134.5606461712
 30
0.0
 11
113.9832174955
 21
131.8606461712
 31
0.0
  0
LINE
  5
176
330
1F
100
AcDbEntity
  8
0
  6
HIDDEN
 62
     7
370
     0
100
AcDbLine
 10
113.9832174955
 20
97.8606461712
 30
0.0
 11
115.5420632223
 21
95.1606461712
 31
0.0
  0
ARC
  5
177
330
1F
100
AcDbEntity
  8
0
  6
HIDDEN
 62
     7
370
     0
100
AcDbCircle
 10
141.4292428993
 20
99.1356461712
 30
0.0
 40
1.500000000000028
100
AcDbArc
 50
238.211669383
 51
0.0
  0
ARC
  5
178
330
1F
100
AcDbEntity
  8
0
  6
HIDDEN
 62
     7
370
     0
100
AcDbCircle
 10
141.4292428993
 20
130.5856461712
 30
0.0
 40
1.500000000000028
100
AcDbArc
 50
0.0
 51
121.7883306171
  0
LINE
  5
179
330
1F
100
AcDbEntity
  8
0
  6
HIDDEN
 62
     7
370
     0
100
AcDbLine
 10
132.9792428993
 20
97.8606461712
 30
0.0
 11
140.6390688678
 21
97.8606461712
 31
0.0
  0
LINE
  5
17A
330
1F
100
AcDbEntity
  8
0
  6
HIDDEN
 62
     7
370
     0
100
AcDbLine
 10
140.6390688678
 20
131.8606461712
 30
0.0
 11
132.9792428993
 21
131.8606461712
 31
0.0
  0
LINE
  5
17B
330
1F
100
AcDbEntity
  8
0
  6
HIDDEN
 62
     7
370
     0
100
AcDbLine
 10
111.1792428993
 20
97.8606461712
 30
0.0
 11
113.9832174955
 21
97.8606461712
 31
0.0
  0
LINE
  5
17C
330
1F
100
AcDbEntity
  8
0
  6
HIDDEN
 62
     7
370
     0
100
AcDbLine
 10
113.9832174955
 20
131.8606461712
 30
0.0
 11
107.1792428993
 21
131.8606461712
 31
0.0
  0
LINE
  5
17D
330
1F
100
AcDbEntity
  8
0
  6
HIDDEN
 62
     7
370
     0
100
AcDbLine
 10
208.2292428993
 20
142.8856461712
 30
0.0
 11
203.9292428993
 21
142.8856461712
 31
0.0
  0
LINE
  5
17E
330
1F
100
AcDbEntity
  8
0
  6
HIDDEN
 62
     7
370
     0
100
AcDbLine
 10
203.9292428993
 20
86.8356461712
 30
0.0
 11
208.2292428993
 21
86.8356461712
 31
0.0
  0
LINE
  5
17F
330
1F
100
AcDbEntity
  8
0
  6
HIDDEN
 62
     7
370
     0
100
AcDbLine
 10
152.2792428993
 20
105.3606461712
 30
0.0
 11
154.7792428993
 21
105.3606461712
 31
0.0
  0
LINE
  5
180
330
1F
100
AcDbEntity
  8
0
  6
HIDDEN
 62
     7
370
     0
100
AcDbLine
 10
154.7792428993
 20
124.3606461712
 30
0.0
 11
152.2792428993
 21
124.3606461712
 31
0.0
  0
LINE
  5
181
330
1F
100
AcDbEntity
  8
0
  6
HIDDEN
 62
     7
370
     0
100
AcDbLine
 10
142.9292428993
 20
105.8606461712
 30
0.0
 11
143.4292428993
 21
106.3606461712
 31
0.0
  0
LINE
  5
182
330
1F
100
AcDbEntity
  8
0
  6
HIDDEN
 62
     7
370
     0
100
AcDbLine
 10
143.4292428993
 20
123.3606461712
 30
0.0
 11
142.9292428993
 21
123.8606461712
 31
0.0
  0
LINE
  5
183
330
1F
100
AcDbEntity
  8
0
  6
HIDDEN
 62
     7
370
     0
100
AcDbLine
 10
143.4292428993
 20
106.3606461712
 30
0.0
 11
152.2792428993
 21
106.3606461712
 31
0.0
  0
LINE
  5
184
330
1F
100
AcDbEntity
  8
0
  6
HIDDEN
 62
     7
370
     0
100
AcDbLine
 10
152.2792428993
 20
123.3606461712
 30
0.0
 11
143.4292428993
 21
123.3606461712
 31
0.0
  0
LINE
  5
185
330
1F
100
AcDbEntity
  8
0
  6
HIDDEN
 62
     7
370
     0
100
AcDbLine
 10
137.9292428993
 20
146.3606461712
 30
0.0
 11
137.9292428993
 21
141.2606461712
 31
0.0
  0
LINE
  5
186
330
1F
100
AcDbEntity
  8
0
  6
HIDDEN
 62
     7
370
     0
100
AcDbLine
 10
128.1636799188
 20
90.7812748794
 30
0.0
 11
127.72924857
 21
91.2603405076
 31
0.0
  0
LINE
  5
187
330
1F
100
AcDbEntity
  8
0
  6
HIDDEN
 62
     7
370
     0
100
AcDbLine
 10
120.2292452485
 20
91.682028382
 30
0.0
 11
119.7468123429
 21
91.2029627974
 31
0.0
  0
LINE
  5
188
330
1F
100
AcDbEntity
  8
0
  6
HIDDEN
 62
     7
370
     0
100
AcDbLine
 10
119.7466904306
 20
138.5183242531
 30
0.0
 11
120.2292403418
 21
138.0392043863
 31
0.0
  0
LINE
  5
189
330
1F
100
AcDbEntity
  8
0
  6
HIDDEN
 62
     7
370
     0
100
AcDbLine
 10
127.7292427826
 20
138.4609020829
 30
0.0
 11
128.1637843734
 21
138.9400219424
 31
0.0
  0
LINE
  5
18A
330
1F
100
AcDbEntity
  8
0
  6
HIDDEN
 62
     7
370
     0
100
AcDbLine
 10
154.7792428993
 20
110.6606461712
 30
0.0
 11
167.9792428993
 21
110.6606461712
 31
0.0
  0
LINE
  5
18B
330
1F
100
AcDbEntity
  8
0
  6
HIDDEN
 62
     7
370
     0
100
AcDbLine
 10
167.9792428993
 20
119.0606461712
 30
0.0
 11
154.7792428993
 21
119.0606461712
 31
0.0
  0
LINE
  5
18C
330
1F
100
AcDbEntity
  8
0
  6
HIDDEN
 62
     7
370
     0
100
AcDbLine
 10
127.7292428993
 20
91.260824398
 30
0.0
 11
127.7292428993
 21
94.925245833
 31
0.0
  0
LINE
  5
18D
330
1F
100
AcDbEntity
  8
0
  6
HIDDEN
 62
     7
370
     0
100
AcDbLine
 10
120.2292428993
 20
94.8650239393
 30
0.0
 11
120.2292428993
 21
91.6823511569
 31
0.0
  0
LINE
  5
18E
330
1F
100
AcDbEntity
  8
0
  6
HIDDEN
 62
     7
370
     0
100
AcDbLine
 10
127.7292428993
 20
134.7960465095
 30
0.0
 11
127.7292428993
 21
138.4606107856
 31
0.0
  0
LINE
  5
18F
330
1F
100
AcDbEntity
  8
0
  6
HIDDEN
 62
     7
370
     0
100
AcDbLine
 10
120.2292428993
 20
138.039060867
 30
0.0
 11
120.2292428993
 21
134.8562684032
 31
0.0
  0
DIMENSION
  5
190
330
1F
100
AcDbEntity
  8
VERMASSUNG
100
AcDbDimension
  2
_D
 10
95.5009622936
 20
83.3606461712
 30
0.0
 11
95.5009622936
 21
114.1932224281
 31
0.0
 70
   160
  1
HSK A %%c<>
 71
     2
 42
-1.0
  3
SLDDIMSTYLE0
100
AcDbAlignedDimension
 13
133.2792428993
 23
146.3606461712
 33
0.0
 14
133.2792428993
 24
83.3606461712
 34
0.0
 50
90.0
100
AcDbRotatedDimension
  0
DIMENSION
  5
19D
330
1F
100
AcDbEntity
  8
VERMASSUNG
100
AcDbDimension
  2
_D_1
 10
132.9792428993
 20
162.4212600012
 30
0.0
 11
168.2040905183
 21
162.4212600012
 31
0.0
 70
   160
  1
<>
 71
     2
 42
-1.0
  3
SLDDIMSTYLE0
100
AcDbAlignedDimension
 13
208.9792428993
 23
150.1606461712
 33
0.0
 14
132.9792428993
 24
146.0606461712
 34
0.0
100
AcDbRotatedDimension
  0
DIMENSION
  5
1A7
330
1F
100
AcDbEntity
  8
VERMASSUNG
100
AcDbDimension
  2
_D_2
 10
158.9292428993
 20
156.4212600012
 30
0.0
 11
186.6122886009
 21
156.4212600012
 31
0.0
 70
   160
  1
<>
 71
     2
 42
-1.0
  3
SLDDIMSTYLE0
100
AcDbAlignedDimension
 13
208.9792428993
 23
150.1606461712
 33
0.0
 14
158.9292428993
 24
144.707086495
 34
0.0
100
AcDbRotatedDimension
  0
DIMENSION
  5
1B1
330
1F
100
AcDbEntity
  8
VERMASSUNG
100
AcDbDimension
  2
_D_3
 10
101.0792428993
 20
168.4212600012
 30
0.0
 11
157.9858546968
 21
168.4212600012
 31
0.0
 70
   160
  1
<>
 71
     2
 42
-1.0
  3
SLDDIMSTYLE0
100
AcDbAlignedDimension
 13
208.9792428993
 23
150.1606461712
 33
0.0
 14
101.0792428993
 24
134.5513239177
 34
0.0
100
AcDbRotatedDimension
  0
DIMENSION
  5
1BB
330
1F
100
AcDbEntity
  8
VERMASSUNG
100
AcDbDimension
  2
_D_4
 10
219.2382286594
 20
78.8606461712
 30
0.0
 11
219.2382286594
 21
114.8599705848
 31
0.0
 70
   160
  1
MBM %%c<>
 71
     2
 42
-1.0
  3
SLDDIMSTYLE0
100
AcDbAlignedDimension
 13
208.2792428993
 23
150.8606461712
 33
0.0
 14
208.2792428993
 24
78.8606461712
 34
0.0
 50
90.0
100
AcDbRotatedDimension
  0
INSERT
  5
1CC
330
1F
100
AcDbEntity
  8
VERMASSUNG
100
AcDbBlockReference
  2
SW_NOTE_0
 10
135.3085210578
 20
70.2465097628
 30
0.0
  0
LEADER
  5
1D6
330
1F
100
AcDbEntity
  8
VERMASSUNG
100
AcDbLeader
  3
SLDDIMSTYLE1
 76
     2
 10
136.553052208
 20
90.3686296423
 30
0.0
 10
135.3085210578
 20
70.2465097628
 30
0.0
  0
INSERT
  5
1DC
330
1F
100
AcDbEntity
  8
VERMASSUNG
100
AcDbBlockReference
  2
SW_NOTE_1
 10
185.5533790402
 20
70.3444529558
 30
0.0
  0
LEADER
  5
1DD
330
1F
100
AcDbEntity
  8
VERMASSUNG
100
AcDbLeader
  3
SLDDIMSTYLE1
 76
     2
 10
188.6615969387
 20
110.6923806282
 30
0.0
 10
185.5533790402
 20
70.3444529558
 30
0.0
  0
LINE
  5
1DE
330
1F
100
AcDbEntity
  8
VERMASSUNG
  6
CENTERX2
 62
     7
370
     0
100
AcDbLine
 10
98.933939057
 20
114.8606461712
 30
0.0
 11
212.3546179164
 21
114.8606461712
 31
0.0
  0
LINE
  5
1DF
330
1F
100
AcDbEntity
  8
0
  6
Continuous
 62
     7
370
    15
100
AcDbLine
 10
274.0360681775
 20
70.1118262452
 30
0.0
 11
273.7531795064
 21
70.2751874833
 31
0.0
  0
LINE
  5
1E0
330
1F
100
AcDbEntity
  8
0
  6
Continuous
 62
     7
370
    15
100
AcDbLine
 10
268.6611834254
 20
70.2751874833
 30
0.0
 11
268.3782947542
 21
70.1118262452
 31
0.0
  0
LINE
  5
1E1
330
1F
100
AcDbEntity
  8
0
  6
Continuous
 62
     7
370
    15
100
AcDbLine
 10
275.2071814659
 20
67.9893508914
 30
0.0
 11
275.2071814659
 21
68.4792753786
 31
0.0
  0
LINE
  5
1E2
330
1F
100
AcDbEntity
  8
0
  6
Continuous
 62
     7
370
    15
100
AcDbLine
 10
267.2071814659
 20
68.4792753786
 30
0.0
 11
267.2071814659
 21
67.9893508914
 31
0.0
  0
LINE
  5
1E3
330
1F
100
AcDbEntity
  8
0
  6
Continuous
 62
     7
370
    15
100
AcDbLine
 10
277.8737315238
 20
35.5642936461
 30
0.0
 11
278.1211786736
 21
35.7071882863
 31
0.0
  0
LINE
  5
1E4
330
1F
100
AcDbEntity
  8
0
  6
Continuous
 62
     7
370
    15
100
AcDbLine
 10
290.5995849399
 20
57.3227640297
 30
0.0
 11
290.5995849399
 21
57.6085068688
 31
0.0
  0
LINE
  5
1E5
330
1F
100
AcDbEntity
  8
0
  6
Continuous
 62
     7
370
    15
100
AcDbLine
 10
257.4526197687
 20
41.2644498425
 30
0.0
 11
268.8723942848
 21
34.6719543396
 31
0.0
  0
LINE
  5
1E6
330
1F
100
AcDbEntity
  8
0
  6
Continuous
 62
     7
370
    15
100
AcDbLine
 10
286.8709314723
 20
65.8497133853
 30
0.0
 11
275.4511569561
 21
72.4422088882
 31
0.0
  0
SPLINE
  5
1E7
330
1F
100
AcDbEntity
  8
0
  6
Continuous
 62
     7
370
    15
100
AcDbSpline
210
0.0
220
0.0
230
1.0
 70
     8
 71
     3
 72
    37
 73
    33
 74
     0
 42
0.000000001
 43
0.00000001
 40
0.0
 40
0.0
 40
0.0
 40
0.0
 40
0.0083665918947317
 40
0.0428609198255085
 40
0.0775187537737251
 40
0.1123643792162649
 40
0.1473879312783326
 40
0.182556981344994
 40
0.2178303256249227
 40
0.2531686729955925
 40
0.2885403113214751
 40
0.3239213833356638
 40
0.3592951687988087
 40
0.3946550536903444
 40
0.4299983005326466
 40
0.4653246975169886
 40
0.500635603918511
 40
0.5359333161977093
 40
0.5712206674530037
 40
0.6065007862446574
 40
0.6417769593253942
 40
0.6770525587979769
 40
0.7123304574052557
 40
0.7476135144665522
 40
0.7829051941294195
 40
0.8182089374193906
 40
0.8535280891101379
 40
0.888865759305154
 40
0.9242245782983657
 40
0.9596062862072553
 40
0.993142440273965
 40
1.0
 40
1.0
 40
1.0
 40
1.0
 10
273.7749525269699
 20
73.10624838076131
 30
0.0
 10
273.7102880024006
 20
73.12535597884617
 30
0.0
 10
273.3790203801727
 20
73.22324162211376
 30
0.0
 10
272.740267708129
 20
73.30452081431945
 30
0.0
 10
271.862784164068
 20
73.34546896905111
 30
0.0
 10
270.9496909236548
 20
73.2811179354418
 30
0.0
 10
270.0103578476172
 20
73.12140258184236
 30
0.0
 10
269.0492822592632
 20
72.86423516326069
 30
0.0
 10
268.0727857391416
 20
72.51177434248527
 30
0.0
 10
267.0869331281286
 20
72.06604297814626
 30
0.0
 10
266.0978767462787
 20
71.53001466090149
 30
0.0
 10
265.1116383681151
 20
70.90719733367642
 30
0.0
 10
264.1340755818492
 20
70.20161112457524
 30
0.0
 10
263.170862640531
 20
69.41768877006628
 30
0.0
 10
262.2274953980949
 20
68.56022725827066
 30
0.0
 10
261.3093304651921
 20
67.63438938400091
 30
0.0
 10
260.4215752511086
 20
66.64568359230961
 30
0.0
 10
259.5692708281873
 20
65.59994183861058
 30
0.0
 10
258.7572701772091
 20
64.50329436377115
 30
0.0
 10
257.9902138667105
 20
63.36214065987961
 30
0.0
 10
257.2725049105841
 20
62.18311682386032
 30
0.0
 10
256.6082875953007
 20
60.9730660544529
 30
0.0
 10
256.0014228281935
 20
59.73900148476434
 30
0.0
 10
255.4554623518937
 20
58.48805923143094
 30
0.0
 10
254.9736267192553
 20
57.22744866031196
 30
0.0
 10
254.5587972746729
 20
55.96441288007048
 30
0.0
 10
254.2134882921664
 20
54.70618282507299
 30
0.0
 10
253.9399138106548
 20
53.45998386694509
 30
0.0
 10
253.7397052918884
 20
52.23283215071087
 30
0.0
 10
253.6171454015952
 20
51.05327415784488
 30
0.0
 10
253.5796163208945
 20
50.21878565707232
 30
0.0
 10
253.5778239746481
 20
49.78363332504572
 30
0.0
 10
253.5775196916228
 20
49.7097583869277
 30
0.0
  0
SPLINE
  5
1E8
330
1F
100
AcDbEntity
  8
0
  6
Continuous
 62
     7
370
    15
100
AcDbSpline
210
0.0
220
0.0
230
1.0
 70
     8
 71
     3
 72
    16
 73
    12
 74
     0
 42
0.000000001
 43
0.00000001
 40
0.0
 40
0.0
 40
0.0
 40
0.0
 40
0.0664433245387795
 40
0.1924911859742139
 40
0.3185928251614531
 40
0.4446310470678325
 40
0.5704994589162827
 40
0.6960569024806823
 40
0.821140842431862
 40
0.9456006678993191
 40
1.0
 40
1.0
 40
1.0
 40
1.0
 10
253.5775196916228
 20
49.7097583869277
 30
0.0
 10
253.5796653976523
 20
49.51017925638853
 30
0.0
 10
253.585881665445
 20
48.93198387258035
 30
0.0
 10
253.6550188759021
 20
48.00852083052963
 30
0.0
 10
253.8102071035918
 20
46.96126442292975
 30
0.0
 10
254.0429383552354
 20
45.97172934061892
 30
0.0
 10
254.3512014893826
 20
45.04619662537002
 30
0.0
 10
254.7323317580598
 20
44.18933337837746
 30
0.0
 10
255.1886129993459
 20
43.41327578207048
 30
0.0
 10
255.603916039443
 20
42.83245818634332
 30
0.0
 10
255.8897490387946
 20
42.54276934501826
 30
0.0
 10
255.9766840577697
 20
42.45466158638087
 30
0.0
  0
LINE
  5
1E9
330
1F
100
AcDbEntity
  8
0
  6
Continuous
 62
     7
370
    15
100
AcDbLine
 10
243.4807985645
 20
51.9282163766
 30
0.0
 11
248.5394642248
 21
49.0079108514
 31
0.0
  0
LINE
  5
1EA
330
1F
100
AcDbEntity
  8
0
  6
Continuous
 62
     7
370
    15
100
AcDbLine
 10
261.4228191083
 20
77.9425901113
 30
0.0
 11
259.2295186036
 21
79.2087555416
 31
0.0
  0
LINE
  5
1EB
330
1F
100
AcDbEntity
  8
0
  6
Continuous
 62
     7
370
    15
100
AcDbLine
 10
250.9379229313
 20
47.6233101122
 30
0.0
 11
252.3373109989
 21
46.8154605763
 31
0.0
  0
LINE
  5
1EC
330
1F
100
AcDbEntity
  8
0
  6
Continuous
 62
     7
370
    15
100
AcDbLine
 10
252.0532251419
 20
78.7980779033
 30
0.0
 11
245.8628423569
 21
81.8822973422
 31
0.0
  0
LINE
  5
1ED
330
1F
100
AcDbEntity
  8
0
  6
Continuous
 62
     7
370
    15
100
AcDbLine
 10
234.4811445437
 20
62.1664822038
 30
0.0
 11
244.2712618702
 21
55.6838731296
 31
0.0
  0
SPLINE
  5
1EE
330
1F
100
AcDbEntity
  8
0
  6
Continuous
 62
     7
370
    15
100
AcDbSpline
210
0.0
220
0.0
230
1.0
 70
     8
 71
     3
 72
     9
 73
     5
 74
     0
 42
0.000000001
 43
0.00000001
 40
0.0
 40
0.0
 40
0.0
 40
0.0
 40
0.3257158103406601
 40
1.0
 40
1.0
 40
1.0
 40
1.0
 10
269.4591584126051
 20
72.95867574720428
 30
0.0
 10
269.4021690299122
 20
73.02805968067592
 30
0.0
 10
269.2272024459032
 20
73.24107953193545
 30
0.0
 10
269.0205082588892
 20
73.41158262968396
 30
0.0
 10
268.8811376364912
 20
73.52655017278373
 30
0.0
  0
SPLINE
  5
1EF
330
1F
100
AcDbEntity
  8
0
  6
Continuous
 62
     7
370
    15
100
AcDbSpline
210
0.0
220
0.0
230
1.0
 70
     8
 71
     3
 72
    27
 73
    23
 74
     0
 42
0.000000001
 43
0.00000001
 40
0.0
 40
0.0
 40
0.0
 40
0.0
 40
0.0116252837394864
 40
0.0627171675292106
 40
0.1138630388214788
 40
0.1653799533098881
 40
0.2174660060139701
 40
0.2701572475910354
 40
0.3233566859989401
 40
0.3769034150480606
 40
0.4306391215794491
 40
0.4844432727951718
 40
0.5382267701057482
 40
0.5919611137588313
 40
0.6456382914655826
 40
0.6992621215924799
 40
0.7528427628657978
 40
0.8063935673176519
 40
0.8599294214526503
 40
0.913465948731439
 40
0.9670155646184561
 40
1.0
 40
1.0
 40
1.0
 40
1.0
 10
245.9568253184751
 20
81.82341550726873
 30
0.0
 10
245.9135989771484
 20
81.84963420883936
 30
0.0
 10
245.6803974698635
 20
81.99108131117706
 30
0.0
 10
245.2066851055131
 20
82.15613946859173
 30
0.0
 10
244.543333954842
 20
82.31127089984719
 30
0.0
 10
243.8394876984232
 20
82.36199090250776
 30
0.0
 10
243.1052845613947
 20
82.31756061762042
 30
0.0
 10
242.3446389675468
 20
82.17486034047847
 30
0.0
 10
241.5647213694619
 20
81.93507096502853
 30
0.0
 10
240.7731904147936
 20
81.59989616976279
 30
0.0
 10
239.9782434036316
 20
81.17280164277363
 30
0.0
 10
239.1879677743449
 20
80.65846406615195
 30
0.0
 10
238.4100077291335
 20
80.06246437592564
 30
0.0
 10
237.6515239357266
 20
79.39099542639197
 30
0.0
 10
236.9191980985649
 20
78.65066097409124
 30
0.0
 10
236.2194426445985
 20
77.84851974689015
 30
0.0
 10
235.5582969906129
 20
76.99206715735318
 30
0.0
 10
234.9418229991856
 20
76.08915985519023
 30
0.0
 10
234.3745203162887
 20
75.14811473970025
 30
0.0
 10
233.8650762233565
 20
74.17711982066977
 30
0.0
 10
233.4637435031459
 20
73.31321576246744
 30
0.0
 10
233.2608836070392
 20
72.77286343452747
 30
0.0
 10
233.1835589118869
 20
72.56689576997321
 30
0.0
  0
LINE
  5
1F0
330
1F
100
AcDbEntity
  8
0
  6
Continuous
 62
     7
370
    15
100
AcDbLine
 10
233.2969588219
 20
70.7226222967
 30
0.0
 11
235.8505187205
 21
69.2484835452
 31
0.0
  0
LINE
  5
1F1
330
1F
100
AcDbEntity
  8
0
  6
Continuous
 62
     7
370
    15
100
AcDbLine
 10
232.9986665445
 20
71.850932014
 30
0.0
 11
232.9986665445
 21
71.3855259303
 31
0.0
  0
LINE
  5
1F2
330
1F
100
AcDbEntity
  8
0
  6
Continuous
 62
     7
370
    15
100
AcDbLine
 10
232.9986665445
 20
64.3795835853
 30
0.0
 11
232.9986665445
 21
63.9141775015
 31
0.0
  0
SPLINE
  5
1F3
330
1F
100
AcDbEntity
  8
0
  6
Continuous
 62
     7
370
    15
100
AcDbSpline
210
0.0
220
0.0
230
1.0
 70
     8
 71
     3
 72
    11
 73
     7
 74
     0
 42
0.000000001
 43
0.00000001
 40
0.0
 40
0.0
 40
0.0
 40
0.0
 40
0.2636865944177447
 40
0.6249994980430277
 40
0.9817626625886209
 40
1.0
 40
1.0
 40
1.0
 40
1.0
 10
233.1148642107278
 20
63.62748657340403
 30
0.0
 10
233.2067342686394
 20
63.47714065609425
 30
0.0
 10
233.4244880008936
 20
63.12078532806203
 30
0.0
 10
233.8566296055449
 20
62.65954126289505
 30
0.0
 10
234.2030093133111
 20
62.33791154378369
 30
0.0
 10
234.4073418203524
 20
62.21858176259968
 30
0.0
 10
234.4172790893843
 20
62.21277841708061
 30
0.0
  0
LWPOLYLINE
  5
1F4
330
1F
100
AcDbEntity
  8
0
  6
Continuous
 62
     7
370
    15
100
AcDbPolyline
 90
       35
 70
   128
 43
0.0
 10
269.0846565722
 20
67.1272954678
 10
268.5865027859
 20
67.3810264282
 10
268.1775930689
 20
67.6832794666
 10
267.8718523512
 20
68.0237617183
 10
267.6796922662
 20
68.3908784685
 10
267.6076565951
 20
68.7721279967
 10
267.6581984264
 20
69.1545273075
 10
267.8295966185
 20
69.5250542509
 10
268.1160144116
 20
69.8710909762
 10
268.5076981914
 20
70.1808536179
 10
268.9913096363
 20
70.4437935807
 10
269.5503799388
 20
70.6509567595
 10
270.1658706302
 20
70.7952884607
 10
270.8168219131
 20
70.8718736414
 10
271.4810664225
 20
70.878104285
 10
272.1359841081
 20
70.8137682145
 10
272.7592725337
 20
70.6810563176
 10
273.3297063596
 20
70.4844879388
 10
273.8278601458
 20
70.2307569784
 10
274.2367698628
 20
69.9285039401
 10
274.5425105805
 20
69.5880216884
 10
274.7346706655
 20
69.2209049381
 10
274.8067063366
 20
68.8396554099
 10
274.7561645054
 20
68.4572560992
 10
274.5847663132
 20
68.0867291558
 10
274.2983485201
 20
67.7406924304
 10
273.9066647404
 20
67.4309297887
 10
273.4230532954
 20
67.1679898259
 10
272.8639829929
 20
66.9608266471
 10
272.2484923016
 20
66.8164949459
 10
271.5975410186
 20
66.7399097652
 10
270.9332965093
 20
66.7336791216
 10
270.2783788236
 20
66.7980151921
 10
269.655090398
 20
66.930727089
 10
269.0846565722
 20
67.1272954678
  0
LWPOLYLINE
  5
1F5
330
1F
100
AcDbEntity
  8
0
  6
Continuous
 62
     7
370
    15
100
AcDbPolyline
 90
       11
 70
   128
 43
0.0
 10
268.8488204729
 20
66.6141684502
 10
268.3236250021
 20
66.8789174169
 10
267.8860449353
 20
67.1922924503
 10
267.5493759214
 20
67.5447718088
 10
267.3238474781
 20
67.9256455854
 10
267.2163121729
 20
68.3233411231
 10
267.2300374117
 20
68.7257746442
 10
267.3646061601
 20
69.1207184099
 10
267.6159296146
 20
69.4961722537
 10
267.9763714395
 20
69.8407282005
 10
268.3782947542
 20
70.1118262452
  0
LWPOLYLINE
  5
1F6
330
1F
100
AcDbEntity
  8
0
  6
Continuous
 62
     7
370
    15
100
AcDbPolyline
 90
       19
 70
   128
 43
0.0
 10
274.0360681775
 20
70.1118262452
 10
274.0907379296
 20
70.0796333403
 10
274.5283179964
 20
69.7662583068
 10
274.8649870103
 20
69.4137789483
 10
275.0905154536
 20
69.0329051717
 10
275.1980507588
 20
68.635209634
 10
275.18432552
 20
68.2327761129
 10
275.0497567717
 20
67.8378323472
 10
274.7984333171
 20
67.4623785034
 10
274.4379914923
 20
67.1178225566
 10
273.9793831397
 20
66.8146336649
 10
273.436542842
 20
66.5620240693
 10
272.825964527
 20
66.3676691846
 10
272.1662003079
 20
66.2374743855
 10
271.4772967865
 20
66.1753955752
 10
270.7801859478
 20
66.1833189869
 10
270.0960491519
 20
66.2610038718
 10
269.445673549
 20
66.4060898138
 10
268.8488204729
 20
66.6141684502
  0
LWPOLYLINE
  5
1F7
330
1F
100
AcDbEntity
  8
0
  6
Continuous
 62
     7
370
    15
100
AcDbPolyline
 90
       29
 70
   128
 43
0.0
 10
269.8069046263
 20
67.6984844646
 10
269.4151520394
 20
67.9061270798
 10
269.1132592908
 20
68.1588876503
 10
268.9163645435
 20
68.4440917056
 10
268.8343409223
 20
68.7474379236
 10
268.8713014341
 20
69.0537152582
 10
269.0253927245
 20
69.3475656849
 10
269.2888880127
 20
69.6142543163
 10
269.6485745448
 20
69.8404082709
 10
270.086416136
 20
70.0146872451
 10
270.5804575808
 20
70.1283521633
 10
271.1059255782
 20
70.1757033919
 10
271.6364709686
 20
70.1543665426
 10
272.1454899908
 20
70.0654115341
 10
272.6074583055
 20
69.913298942
 10
272.9992108924
 20
69.7056563268
 10
273.301103641
 20
69.4528957564
 10
273.4979983883
 20
69.167691701
 10
273.5800220094
 20
68.864345483
 10
273.5430614976
 20
68.5580681485
 10
273.3889702073
 20
68.2642177217
 10
273.125474919
 20
67.9975290903
 10
272.765788387
 20
67.7713751357
 10
272.3279467957
 20
67.5970961616
 10
271.8339053509
 20
67.4834312434
 10
271.3084373535
 20
67.4360800148
 10
270.7778919631
 20
67.4574168641
 10
270.268872941
 20
67.5463718725
 10
269.8069046263
 20
67.6984844646
  0
SPLINE
  5
1F8
330
1F
100
AcDbEntity
  8
0
  6
Continuous
 62
     7
370
    15
100
AcDbSpline
210
0.0
220
0.0
230
1.0
 70
     8
 71
     3
 72
     9
 73
     5
 74
     0
 42
0.000000001
 43
0.00000001
 40
0.0
 40
0.0
 40
0.0
 40
0.0
 40
0.3828116935891429
 40
1.0
 40
1.0
 40
1.0
 40
1.0
 10
269.644391507908
 20
67.8012496079278
 30
0.0
 10
269.5703421167914
 20
67.84173409279714
 30
0.0
 10
269.37690656517
 20
67.94748970462231
 30
0.0
 10
269.2028018465618
 20
68.1115410473442
 30
0.0
 10
269.0953464501458
 20
68.21279161772316
 30
0.0
  0
LINE
  5
1F9
330
1F
100
AcDbEntity
  8
0
  6
Continuous
 62
     7
370
    15
100
AcDbLine
 10
273.0724905043
 20
67.966292352
 30
0.0
 11
272.7234496736
 21
67.7482073434
 31
0.0
  0
SPLINE
  5
1FA
330
1F
100
AcDbEntity
  8
0
  6
Continuous
 62
     7
370
    15
100
AcDbSpline
210
0.0
220
0.0
230
1.0
 70
     8
 71
     3
 72
    12
 73
     8
 74
     0
 42
0.000000001
 43
0.00000001
 40
0.0
 40
0.0
 40
0.0
 40
0.0
 40
0.2161870935880691
 40
0.4397656795331923
 40
0.5934211595336295
 40
0.7522118885200079
 40
0.9999999999999999
 40
0.9999999999999999
 40
0.9999999999999999
 40
0.9999999999999999
 10
273.3190164815881
 20
69.291863392824
 30
0.0
 10
273.302136699798
 20
69.14193262534121
 30
0.0
 10
273.2678000121351
 20
68.8369449188566
 30
0.0
 10
273.2173191751484
 20
68.48652158171922
 30
0.0
 10
273.1711663469036
 20
68.24577265909384
 30
0.0
 10
273.12376505256
 20
68.064229822917
 30
0.0
 10
273.0919065573984
 20
68.00337818115061
 30
0.0
 10
273.0724905043111
 20
67.9662923520493
 30
0.0
  0
SPLINE
  5
1FB
330
1F
100
AcDbEntity
  8
0
  6
Continuous
 62
     7
370
    15
100
AcDbSpline
210
0.0
220
0.0
230
1.0
 70
     8
 71
     3
 72
    11
 73
     7
 74
     0
 42
0.000000001
 43
0.00000001
 40
0.0
 40
0.0
 40
0.0
 40
0.0
 40
0.1847276211383797
 40
0.5189555278332386
 40
0.869527991091449
 40
1.0
 40
1.0
 40
1.0
 40
1.0
 10
271.4537074431439
 20
70.07789854604829
 30
0.0
 10
271.5621597834386
 20
69.98129467158482
 30
0.0
 10
271.8668350732276
 20
69.7099052910797
 30
0.0
 10
272.4351519241318
 20
69.36448938241186
 30
0.0
 10
272.9616153926801
 20
69.27135208117312
 30
0.0
 10
273.2427620559118
 20
69.28748713785906
 30
0.0
 10
273.3190164815881
 20
69.291863392824
 30
0.0
  0
SPLINE
  5
1FC
330
1F
100
AcDbEntity
  8
0
  6
Continuous
 62
     7
370
    15
100
AcDbSpline
210
0.0
220
0.0
230
1.0
 70
     8
 71
     3
 72
    12
 73
     8
 74
     0
 42
0.000000001
 43
0.00000001
 40
0.0
 40
0.0
 40
0.0
 40
0.0
 40
0.2161870935880705
 40
0.4397656795331937
 40
0.5934211595336301
 40
0.7522118885200098
 40
1.0
 40
1.0
 40
1.0
 40
1.0
 10
269.3418724274227
 20
69.53836265849787
 30
0.0
 10
269.486471039852
 20
69.51613688305305
 30
0.0
 10
269.7806121284765
 20
69.47092542718202
 30
0.0
 10
270.2130501228365
 20
69.50241786156452
 30
0.0
 10
270.6084127529276
 20
69.61084090317617
 30
0.0
 10
271.0144702170979
 20
69.78791537568313
 30
0.0
 10
271.2873821689076
 20
69.96809107192075
 30
0.0
 10
271.4537074431439
 20
70.07789854604829
 30
0.0
  0
SPLINE
  5
1FD
330
1F
100
AcDbEntity
  8
0
  6
Continuous
 62
     7
370
    15
100
AcDbSpline
210
0.0
220
0.0
230
1.0
 70
     8
 71
     3
 72
    12
 73
     8
 74
     0
 42
0.000000001
 43
0.00000001
 40
0.0
 40
0.0
 40
0.0
 40
0.0
 40
0.2161870935880697
 40
0.4397656795331915
 40
0.5934211595336287
 40
0.7522118885200061
 40
1.0
 40
1.0
 40
1.0
 40
1.0
 10
269.0953464501458
 20
68.21279161772317
 30
0.0
 10
269.1122262319358
 20
68.24438614151138
 30
0.0
 10
269.1465629195988
 20
68.30865541398578
 30
0.0
 10
269.1970437565854
 20
68.50110335039675
 30
0.0
 10
269.2431965848302
 20
68.75668226508057
 30
0.0
 10
269.2905978791737
 20
69.08489327935852
 30
0.0
 10
269.3224563743353
 20
69.36664811708235
 30
0.0
 10
269.3418724274227
 20
69.53836265849787
 30
0.0
  0
LINE
  5
1FE
330
1F
100
AcDbEntity
  8
0
  6
Continuous
 62
     7
370
    15
100
AcDbLine
 10
269.3418724274
 20
68.0022910006
 30
0.0
 11
269.3418724274
 21
69.5383626585
 31
0.0
  0
LINE
  5
1FF
330
1F
100
AcDbEntity
  8
0
  6
Continuous
 62
     7
370
    15
100
AcDbLine
 10
271.4537074431
 20
67.4422396422
 30
0.0
 11
271.4537074431
 21
70.077898546
 31
0.0
  0
LWPOLYLINE
  5
200
330
1F
100
AcDbEntity
  8
0
  6
Continuous
 62
     7
370
    15
100
AcDbPolyline
 90
       78
 70
   128
 43
0.0
 10
265.638715564
 20
42.913160856
 10
265.6802431809
 20
44.1118415773
 10
265.804549672
 20
45.350492042
 10
266.0108077983
 20
46.6208692356
 10
266.2976449458
 20
47.9145190076
 10
266.6631522607
 20
49.222832332
 10
267.1048973522
 20
50.5371025997
 10
267.6199404795
 20
51.8485835588
 10
268.2048541155
 20
53.1485475199
 10
268.8557457566
 20
54.4283434373
 10
269.5682838263
 20
55.6794544803
 10
270.3377265013
 20
56.8935547115
 10
271.1589532674
 20
58.0625644939
 10
272.0264989962
 20
59.1787042605
 10
272.9345903138
 20
60.2345462852
 10
273.8771840224
 20
61.2230641136
 10
274.8480073164
 20
62.1376793225
 10
275.840599527
 20
62.9723052988
 10
276.8483551167
 20
63.7213877441
 10
277.8645676383
 20
64.3799416385
 10
278.8824743653
 20
64.9435844144
 10
279.8953012962
 20
65.4085651221
 10
280.8963082349
 20
65.7717893918
 10
281.8788336455
 20
66.0308400258
 10
282.8363389834
 20
66.1839930849
 10
283.7624522085
 20
66.2302293608
 10
284.6510101903
 20
66.1692411588
 10
285.4960997218
 20
66.0014343451
 10
286.2920968717
 20
65.7279256465
 10
287.0337044103
 20
65.3505352183
 10
287.7159870617
 20
64.8717745314
 10
288.3344043476
 20
64.2948296593
 10
288.8848408028
 20
63.6235400749
 10
289.3636333637
 20
62.8623730996
 10
289.7675957446
 20
62.0163941741
 10
290.0940396427
 20
61.0912331485
 10
290.3407926276
 20
60.0930468168
 10
290.5062125989
 20
59.0284779444
 10
290.589198714
 20
57.9046110615
 10
290.589198714
 20
56.7289253167
 10
290.5062125989
 20
55.5092447047
 10
290.3407926276
 20
54.2536859987
 10
290.0940396427
 20
52.9706047349
 10
289.7675957446
 20
51.6685396072
 10
289.3636333637
 20
50.3561556443
 10
288.8848408028
 20
49.042186545
 10
288.3344043476
 20
47.7353765568
 10
287.7159870617
 20
46.4444222846
 10
287.0337044103
 20
45.177914816
 10
286.2920968717
 20
43.9442825493
 10
285.4960997218
 20
42.7517351038
 10
284.6510101903
 20
41.6082086858
 10
283.7624522085
 20
40.5213132751
 10
282.8363389834
 20
39.4982819812
 10
281.8788336455
 20
38.5459229087
 10
280.8963082349
 20
37.6705738501
 10
279.8953012962
 20
36.8780601088
 10
278.8824743653
 20
36.1736557332
 10
277.8645676383
 20
35.5620484181
 10
276.8483551167
 20
35.0473083092
 10
275.840599527
 20
34.6328609171
 10
274.8480073164
 20
34.3214643208
 10
273.8771840224
 20
34.1151908133
 10
272.9345903138
 20
34.0154131107
 10
272.0264989962
 20
34.0227952172
 10
271.1589532674
 20
34.137288006
 10
270.3377265013
 20
34.3581295466
 10
269.5682838263
 20
34.6838501749
 10
268.8557457566
 20
35.1122822739
 10
268.2048541155
 20
35.6405746987
 10
267.6199404795
 20
36.2652117503
 10
267.1048973522
 20
36.9820365723
 10
266.6631522607
 20
37.7862788136
 10
266.2976449458
 20
38.6725863749
 10
266.0108077983
 20
39.6350610256
 10
265.804549672
 20
40.6672976556
 10
265.6802431809
 20
41.7624269006
 10
265.638715564
 20
42.913160856
  0
LWPOLYLINE
  5
201
330
1F
100
AcDbEntity
  8
0
  6
Continuous
 62
     7
370
    15
100
AcDbPolyline
 90
       40
 70
   128
 43
0.0
 10
265.1437408172
 20
42.913160856
 10
265.1860919279
 20
44.1356114499
 10
265.3128634203
 20
45.3988243884
 10
265.523211651
 20
46.6943931978
 10
265.8157367873
 20
48.0136960814
 10
266.1884921226
 20
49.3479532961
 10
266.6389970317
 20
50.6882855805
 10
267.1642534788
 20
52.0257732441
 10
267.7607659689
 20
53.3515155274
 10
268.4245648097
 20
54.6566898341
 10
269.1512325295
 20
55.9326104446
 10
269.9359332744
 20
57.1707863177
 10
270.7734449906
 20
58.3629775972
 10
271.6581941758
 20
59.501250447
 10
272.5842929699
 20
60.578029849
 10
273.5455783385
 20
61.5861500139
 10
274.535653086
 20
62.5189020683
 10
275.5479284282
 20
63.3700787013
 10
276.5756678397
 20
64.1340154728
 10
277.6120318845
 20
64.8056285095
 10
278.6501237306
 20
65.3804483376
 10
279.6830350483
 20
65.854649626
 10
280.703891983
 20
66.2250766432
 10
281.7059009003
 20
66.4892642586
 10
282.6823935961
 20
66.6454543472
 10
283.6268716728
 20
66.6926074898
 10
284.5330497845
 20
66.63040989
 10
285.3948974653
 20
66.4592754625
 10
286.2066792612
 20
66.1803430786
 10
286.9629928983
 20
65.7954689875
 10
287.6588052341
 20
65.3072144627
 10
288.2894857523
 20
64.7188287574
 10
288.850837378
 20
64.0342274815
 10
289.3391244089
 20
63.2579665436
 10
289.7510973753
 20
62.395211832
 10
290.0840146651
 20
61.451704837
 10
290.3356607687
 20
60.4337244421
 10
290.5043610227
 20
59.3480451388
 10
290.5889927548
 20
58.2018919437
 10
290.5995849399
 20
57.6085068688
  0
LWPOLYLINE
  5
202
330
1F
100
AcDbEntity
  8
0
  6
Continuous
 62
     7
370
    15
100
AcDbPolyline
 90
       21
 70
   128
 43
0.0
 10
277.8737315238
 20
35.5642936461
 10
277.6120318845
 20
35.4162756502
 10
276.5756678397
 20
34.8913282304
 10
275.5479284282
 20
34.4686623348
 10
274.535653086
 20
34.1510907351
 10
273.5455783385
 20
33.9407268181
 10
272.5842929699
 20
33.8389705208
 10
271.6581941758
 20
33.8464990147
 10
270.7734449906
 20
33.9632621988
 10
269.9359332744
 20
34.1884830334
 10
269.1512325295
 20
34.520662711
 10
268.4245648097
 20
34.9575906307
 10
267.7607659689
 20
35.4963591092
 10
267.1642534788
 20
36.1333827313
 10
266.6389970317
 20
36.8644222097
 10
266.1884921226
 20
37.6846125975
 10
265.8157367873
 20
38.5884956628
 10
265.523211651
 20
39.5700562131
 10
265.3128634203
 20
40.6227621247
 10
265.1860919279
 20
41.7396078136
 10
265.1437408172
 20
42.913160856
  0
ARC
  5
203
330
1F
100
AcDbEntity
  8
0
  6
Continuous
 62
     7
370
    15
100
AcDbCircle
 10
272.374380238
 20
67.0849161659
 30
0.0
 40
6.177955995833619
100
AcDbArc
 50
60.1305771925
 51
76.0536519593
  0
ARC
  5
204
330
1F
100
AcDbEntity
  8
0
  6
Continuous
 62
     7
370
    15
100
AcDbCircle
 10
260.5456532502
 20
46.5992415602
 30
0.0
 40
6.166592153626061
100
AcDbArc
 50
223.1039960112
 51
239.8954752803
  0
SPLINE
  5
205
330
1F
100
AcDbEntity
  8
0
  6
Continuous
 62
     7
370
    15
100
AcDbSpline
210
0.0
220
0.0
230
1.0
 70
     8
 71
     3
 72
    52
 73
    48
 74
     0
 42
0.000000001
 43
0.00000001
 40
0.0
 40
0.0
 40
0.0
 40
0.0
 40
0.0312499999999995
 40
0.0312499999999995
 40
0.062499999999999
 40
0.062499999999999
 40
0.1249999999999983
 40
0.1249999999999983
 40
0.1562499999999979
 40
0.1562499999999979
 40
0.1874999999999976
 40
0.1874999999999976
 40
0.2187499999999974
 40
0.2187499999999974
 40
0.2499999999999971
 40
0.2499999999999971
 40
0.3124999999999964
 40
0.3124999999999964
 40
0.3437499999999962
 40
0.3437499999999962
 40
0.3749999999999959
 40
0.3749999999999959
 40
0.4374999999999959
 40
0.4374999999999959
 40
0.4687499999999962
 40
0.4687499999999962
 40
0.4999999999999966
 40
0.4999999999999966
 40
0.5624999999999966
 40
0.5624999999999966
 40
0.5937499999999968
 40
0.5937499999999968
 40
0.624999999999997
 40
0.624999999999997
 40
0.6874999999999976
 40
0.6874999999999976
 40
0.749999999999998
 40
0.749999999999998
 40
0.8124999999999986
 40
0.8124999999999986
 40
0.8749999999999991
 40
0.8749999999999991
 40
0.9062499999999993
 40
0.9062499999999993
 40
0.9374999999999996
 40
0.9374999999999996
 40
1.0
 40
1.0
 40
1.0
 40
1.0
 10
274.7427153717996
 20
66.76487142375926
 30
0.0
 10
274.63354205928
 20
66.70184701195399
 30
0.0
 10
274.5180686570918
 20
66.64100416612399
 30
0.0
 10
274.2744205776021
 20
66.52376499401986
 30
0.0
 10
274.1453002098553
 20
66.46701226067327
 30
0.0
 10
273.7467378109998
 20
66.30723667845326
 30
0.0
 10
273.4663268720721
 20
66.21422594206145
 30
0.0
 10
273.0249339673042
 20
66.09519573765041
 30
0.0
 10
272.8738567418937
 20
66.05892136387915
 30
0.0
 10
272.571430962971
 20
65.99500538465729
 30
0.0
 10
272.4193085837878
 20
65.96712895644585
 30
0.0
 10
272.1132853501915
 20
65.91950473644181
 30
0.0
 10
271.9593842739569
 20
65.89975768115133
 30
0.0
 10
271.6497816028433
 20
65.8686460090407
 30
0.0
 10
271.4939841600682
 20
65.85733010665584
 30
0.0
 10
271.0328034319812
 20
65.83684013318769
 30
0.0
 10
270.7305096962297
 20
65.84063374572969
 30
0.0
 10
270.2840799560701
 20
65.87341783439362
 30
0.0
 10
270.1357884397504
 20
65.88900104039024
 30
0.0
 10
269.8458400952673
 20
65.92910589154575
 30
0.0
 10
269.7040157090363
 20
65.95358856820006
 30
0.0
 10
269.2876052319921
 20
66.04028232559848
 30
0.0
 10
269.022003436137
 20
66.11565354254188
 30
0.0
 10
268.641608082291
 20
66.25651464280492
 30
0.0
 10
268.5180723214569
 20
66.30810237498478
 30
0.0
 10
268.2815917769138
 20
66.4187321752805
 30
0.0
 10
268.1680468097321
 20
66.47798434806934
 30
0.0
 10
267.8412562780201
 20
66.66740281459349
 30
0.0
 10
267.6417351934597
 20
66.8091682529523
 30
0.0
 10
267.3711144835784
 20
67.0455581578231
 30
0.0
 10
267.2863730124497
 20
67.12781459242574
 30
0.0
 10
267.1295555507897
 20
67.29711564234879
 30
0.0
 10
267.0571617800854
 20
67.38443319031141
 30
0.0
 10
266.8579697311498
 20
67.6540235348948
 30
0.0
 10
266.7489720128237
 20
67.84389010013521
 30
0.0
 10
266.5823640374256
 20
68.24299433393463
 30
0.0
 10
266.5271693197694
 20
68.44675156773256
 30
0.0
 10
266.4742782761884
 20
68.85712225532508
 30
0.0
 10
266.476401144206
 20
69.06469210708407
 30
0.0
 10
266.545132628495
 20
69.47881373910029
 30
0.0
 10
266.6104781461104
 20
69.67829925873912
 30
0.0
 10
266.7562940802694
 20
69.96373982579752
 30
0.0
 10
266.8129251704896
 20
70.05657806837432
 30
0.0
 10
266.9432875710116
 20
70.23705271469998
 30
0.0
 10
267.0176088870417
 20
70.3251648856888
 30
0.0
 10
267.2612266715878
 20
70.57354285831711
 30
0.0
 10
267.451991596875
 20
70.7201072945124
 30
0.0
 10
267.6716475599342
 20
70.84691198287281
 30
0.0
  0
SPLINE
  5
206
330
1F
100
AcDbEntity
  8
0
  6
Continuous
 62
     7
370
    15
100
AcDbSpline
210
0.0
220
0.0
230
1.0
 70
     8
 71
     3
 72
    54
 73
    50
 74
     0
 42
0.000000001
 43
0.00000001
 40
0.0
 40
0.0
 40
0.0
 40
0.0
 40
0.03125
 40
0.03125
 40
0.0624999999999999
 40
0.0624999999999999
 40
0.0937499999999999
 40
0.0937499999999999
 40
0.1249999999999999
 40
0.1249999999999999
 40
0.1874999999999997
 40
0.1874999999999997
 40
0.2187499999999995
 40
0.2187499999999995
 40
0.2499999999999993
 40
0.2499999999999993
 40
0.3124999999999988
 40
0.3124999999999988
 40
0.3749999999999984
 40
0.3749999999999984
 40
0.437499999999998
 40
0.437499999999998
 40
0.4687499999999978
 40
0.4687499999999978
 40
0.4999999999999976
 40
0.4999999999999976
 40
0.5624999999999971
 40
0.5624999999999971
 40
0.593749999999997
 40
0.593749999999997
 40
0.6249999999999968
 40
0.6249999999999968
 40
0.6874999999999964
 40
0.6874999999999964
 40
0.7187499999999963
 40
0.7187499999999963
 40
0.7499999999999968
 40
0.7499999999999968
 40
0.8124999999999976
 40
0.8124999999999976
 40
0.8437499999999979
 40
0.8437499999999979
 40
0.8749999999999983
 40
0.8749999999999983
 40
0.9374999999999992
 40
0.9374999999999992
 40
0.9687499999999996
 40
0.9687499999999996
 40
1.0
 40
1.0
 40
1.0
 40
1.0
 10
267.6716475599342
 20
70.84691198287281
 30
0.0
 10
267.7815011312981
 20
70.9103290997499
 30
0.0
 10
267.899558508929
 20
70.96911493446987
 30
0.0
 10
268.1448935772025
 20
71.07377758629443
 30
0.0
 10
268.2723431520236
 20
71.11990238027883
 30
0.0
 10
268.536445618689
 20
71.20036122616149
 30
0.0
 10
268.6730995085094
 20
71.23469376723092
 30
0.0
 10
268.9555637653465
 20
71.29187669686102
 30
0.0
 10
269.1017372405934
 20
71.31468765709789
 30
0.0
 10
269.5433653927321
 20
71.36516057683956
 30
0.0
 10
269.8451900686105
 20
71.37584839047149
 30
0.0
 10
270.308595018657
 20
71.36184783937935
 30
0.0
 10
270.4644222506652
 20
71.35210494882838
 30
0.0
 10
270.7746188799165
 20
71.32355019403717
 30
0.0
 10
270.929587673565
 20
71.3047243616068
 30
0.0
 10
271.394205748536
 20
71.23558877913372
 30
0.0
 10
271.6971548934247
 20
71.1736764862779
 30
0.0
 10
272.2872521545578
 20
71.02504851236941
 30
0.0
 10
272.5756480815709
 20
70.93798355374341
 30
0.0
 10
273.1360011409578
 20
70.74183860800743
 30
0.0
 10
273.4010288263479
 20
70.63525316257703
 30
0.0
 10
273.777134263197
 20
70.4645079868858
 30
0.0
 10
273.8989044108657
 20
70.40575913087018
 30
0.0
 10
274.1351725198425
 20
70.28465935699947
 30
0.0
 10
274.25018743509
 20
70.22199740747038
 30
0.0
 10
274.5793144727284
 20
70.03120172527602
 30
0.0
 10
274.7777596402263
 20
69.90044837548507
 30
0.0
 10
275.0446586133996
 20
69.69863954841082
 30
0.0
 10
275.1284649191577
 20
69.6304090848805
 30
0.0
 10
275.2854748335893
 20
69.49178570031829
 30
0.0
 10
275.3589665940432
 20
69.42105293157478
 30
0.0
 10
275.5593346387128
 20
69.2087793374356
 30
0.0
 10
275.6672365201371
 20
69.06659186705167
 30
0.0
 10
275.7902192414269
 20
68.8502250915399
 30
0.0
 10
275.8246923027045
 20
68.77758120254816
 30
0.0
 10
275.8799530547868
 20
68.63078273627202
 30
0.0
 10
275.9007398801243
 20
68.5563005980729
 30
0.0
 10
275.9403755290655
 20
68.33457041401697
 30
0.0
 10
275.9374570185804
 20
68.1877888686865
 30
0.0
 10
275.8868586483736
 20
67.96654596206137
 30
0.0
 10
275.8622331847976
 20
67.89262092379914
 30
0.0
 10
275.7962726497424
 20
67.74395487630628
 30
0.0
 10
275.7548368455721
 20
67.66932310630868
 30
0.0
 10
275.6079164777877
 20
67.4498446920219
 30
0.0
 10
275.4792808876982
 20
67.30727920610086
 30
0.0
 10
275.2373397338148
 20
67.09772952417914
 30
0.0
 10
275.1476911806464
 20
67.0280949033752
 30
0.0
 10
274.9548103887072
 20
66.89313192204342
 30
0.0
 10
274.8519141216162
 20
66.82791052020347
 30
0.0
 10
274.7427153717996
 20
66.76487142375926
 30
0.0
  0
LWPOLYLINE
  5
207
330
1F
100
AcDbEntity
  8
0
  6
Continuous
 62
     7
370
    15
100
AcDbPolyline
 90
       72
 70
   128
 43
0.0
 10
267.3357718389
 20
43.8928505902
 10
267.3779691172
 20
45.0177414865
 10
267.5042307014
 20
46.1825485269
 10
267.7135684233
 20
47.3781555171
 10
268.0043439314
 20
48.5952052112
 10
268.3742815132
 20
49.8241725453
 10
268.8204859054
 20
51.0554391836
 10
269.3394649537
 20
52.2793687954
 10
269.9271569434
 20
53.486382472
 10
270.5789623878
 20
54.6670336947
 10
271.2897800257
 20
55.812082267
 10
272.0540467452
 20
56.9125666314
 10
272.865781123
 20
57.9598740055
 10
273.718630237
 20
58.9458077891
 10
274.6059193865
 20
59.8626517137
 10
275.520704331
 20
60.7032302324
 10
276.455825638
 20
61.4609646787
 10
277.4039647153
 20
62.129924753
 10
278.357701089
 20
62.7048749358
 10
279.3095704791
 20
63.1813154624
 10
280.2521232168
 20
63.5555175396
 10
281.1779825491
 20
63.824552529
 10
282.0799023713
 20
63.9863148668
 10
282.950823938
 20
64.0395385435
 10
283.7839311071
 20
63.9838070116
 10
284.5727036855
 20
63.819556446
 10
285.3109684581
 20
63.54807233
 10
285.9929475023
 20
63.1714793949
 10
286.6133034073
 20
62.692724991
 10
287.167181047
 20
62.1155560208
 10
287.650245578
 20
61.4444896138
 10
288.0587163654
 20
60.6847777746
 10
288.3893965713
 20
59.8423662785
 10
288.6396981749
 20
58.9238481375
 10
288.8076622267
 20
57.9364120015
 10
288.8919741802
 20
56.887785897
 10
288.8919741802
 20
55.7861767452
 10
288.8076622267
 20
54.6402061312
 10
288.6396981749
 20
53.4588428288
 10
288.3893965713
 20
52.2513326077
 10
288.0587163654
 20
51.0271258725
 10
287.650245578
 20
49.7958037008
 10
287.167181047
 20
48.567002858
 10
286.6133034073
 20
47.3503403769
 10
285.9929475023
 20
46.1553382909
 10
285.3109684581
 20
44.9913491116
 10
284.5727036855
 20
43.8674826326
 10
283.7839311071
 20
42.7925346328
 10
282.950823938
 20
41.7749180378
 10
282.0799023713
 20
40.8225970771
 10
281.1779825491
 20
39.9430249536
 10
280.2521232168
 20
39.1430855116
 10
279.3095704791
 20
38.4290393619
 10
278.357701089
 20
37.8064748838
 10
277.4039647153
 20
37.2802644883
 10
276.455825638
 20
36.8545264853
 10
275.520704331
 20
36.5325928519
 10
274.6059193865
 20
36.3169831553
 10
273.718630237
 20
36.2093848336
 10
272.865781123
 20
36.2106399897
 10
272.0540467452
 20
36.3207388003
 10
271.2897800257
 20
36.5388195928
 10
270.5789623878
 20
36.8631755894
 10
269.9271569434
 20
37.2912682646
 10
269.3394649537
 20
37.8197472129
 10
268.8204859054
 20
38.4444763698
 10
268.3742815132
 20
39.1605663828
 10
268.0043439314
 20
39.9624128765
 10
267.7135684233
 20
40.843740315
 10
267.5042307014
 20
41.7976511161
 10
267.3779691172
 20
42.8166796344
 10
267.3357718389
 20
43.8928505902
  0
SPLINE
  5
208
330
1F
100
AcDbEntity
  8
0
  6
Continuous
 62
     7
370
    15
100
AcDbSpline
210
0.0
220
0.0
230
1.0
 70
     8
 71
     3
 72
    16
 73
    12
 74
     0
 42
0.000000001
 43
0.00000001
 40
0.0
 40
0.0
 40
0.0
 40
0.0
 40
0.2500000000000003
 40
0.2500000000000003
 40
0.5000000000000007
 40
0.5000000000000007
 40
0.6250000000000003
 40
0.6250000000000003
 40
0.7500000000000001
 40
0.7500000000000001
 40
1.0
 40
1.0
 40
1.0
 40
1.0
 10
270.8118933560591
 20
37.66128626218167
 30
0.0
 10
270.6659278418735
 20
37.57099707215939
 30
0.0
 10
270.5180231299425
 20
37.52733336323699
 30
0.0
 10
270.2216202020097
 20
37.53865451823032
 30
0.0
 10
270.0808117552484
 20
37.59346480261942
 30
0.0
 10
269.8835856679896
 20
37.74990240764708
 30
0.0
 10
269.8219841519805
 20
37.81317279625727
 30
0.0
 10
269.7066716153811
 20
37.9610292243099
 30
0.0
 10
269.6526341275521
 20
38.04626821884124
 30
0.0
 10
269.5048732348272
 20
38.33088000749582
 30
0.0
 10
269.4279173075014
 20
38.5520142403759
 30
0.0
 10
269.3707199071263
 20
38.80327172695274
 30
0.0
  0
LWPOLYLINE
  5
209
330
1F
100
AcDbEntity
  8
0
  6
Continuous
 62
     7
370
    15
100
AcDbPolyline
 90
       17
 70
   128
 43
0.0
 10
284.896077062
 20
45.7919124504
 10
284.1617758018
 20
44.6345552543
 10
283.3704895485
 20
43.5281184209
 10
282.5293668339
 20
42.4825975731
 10
281.6460064157
 20
41.5074380146
 10
280.7283886297
 20
40.6114494007
 10
279.7848032951
 20
39.8027261511
 10
278.8237748235
 20
39.0885743247
 10
277.853985209
 20
38.4754456158
 10
276.8841955946
 20
37.9688790692
 10
275.923167123
 20
37.5734510404
 10
274.9795817883
 20
37.292733852
 10
274.0619640024
 20
37.1292635214
 10
273.1786035842
 20
37.0845168504
 10
272.3374808696
 20
37.1588980832
 10
271.5461946163
 20
37.3517352551
 10
270.8118933561
 20
37.6612862622
  0
SPLINE
  5
20A
330
1F
100
AcDbEntity
  8
0
  6
Continuous
 62
     7
370
    15
100
AcDbSpline
210
0.0
220
0.0
230
1.0
 70
     8
 71
     3
 72
    16
 73
    12
 74
     0
 42
0.000000001
 43
0.00000001
 40
0.0
 40
0.0
 40
0.0
 40
0.0
 40
0.2500000000000006
 40
0.2500000000000006
 40
0.5000000000000011
 40
0.5000000000000011
 40
0.6250000000000008
 40
0.6250000000000008
 40
0.7500000000000006
 40
0.7500000000000006
 40
1.0
 40
1.0
 40
1.0
 40
1.0
 10
286.3372505109145
 20
48.59784136124291
 30
0.0
 10
286.3758643105385
 20
48.33583102007566
 30
0.0
 10
286.3719973621795
 20
48.06689938522005
 30
0.0
 10
286.2757178754486
 20
47.51681855777029
 30
0.0
 10
286.1856986296705
 20
47.24989880322026
 30
0.0
 10
285.988333206134
 20
46.86588501305256
 30
0.0
 10
285.9137947631326
 20
46.74413047703577
 30
0.0
 10
285.7479324324469
 20
46.51260978048913
 30
0.0
 10
285.6559292057585
 20
46.40215936251462
 30
0.0
 10
285.3581965216779
 20
46.09423629961039
 30
0.0
 10
285.1378376943999
 20
45.92545332537834
 30
0.0
 10
284.8960770619818
 20
45.79191245036622
 30
0.0
  0
LWPOLYLINE
  5
20B
330
1F
100
AcDbEntity
  8
0
  6
Continuous
 62
     7
370
    15
100
AcDbPolyline
 90
       14
 70
   128
 43
0.0
 10
286.3372505109
 20
61.7388062007
 10
286.8186914707
 20
61.1004381543
 10
287.2261213814
 20
60.3726644797
 10
287.5561765727
 20
59.5614935493
 10
287.8061321668
 20
58.6736222484
 10
287.9739245739
 20
57.7163806875
 10
288.0581685291
 20
56.6976716858
 10
288.0581685291
 20
55.6259055269
 10
287.9739245739
 20
54.5099305248
 10
287.8061321668
 20
53.3589599744
 10
287.5561765727
 20
52.1824960875
 10
287.2261213814
 20
50.9902515445
 10
286.8186914707
 20
49.7920693079
 10
286.3372505109
 20
48.5978413612
  0
SPLINE
  5
20C
330
1F
100
AcDbEntity
  8
0
  6
Continuous
 62
     7
370
    15
100
AcDbSpline
210
0.0
220
0.0
230
1.0
 70
     8
 71
     3
 72
    16
 73
    12
 74
     0
 42
0.000000001
 43
0.00000001
 40
0.0
 40
0.0
 40
0.0
 40
0.0
 40
0.2499999999999994
 40
0.2499999999999994
 40
0.4999999999999988
 40
0.4999999999999988
 40
0.6249999999999989
 40
0.6249999999999989
 40
0.749999999999999
 40
0.749999999999999
 40
1.0
 40
1.0
 40
1.0
 40
1.0
 10
284.8960770619818
 20
62.88079166542992
 30
0.0
 10
285.1378587600152
 20
62.91576734989794
 30
0.0
 10
285.3591666547767
 20
62.91705630334432
 30
0.0
 10
285.7571099817384
 20
62.84711712371134
 30
0.0
 10
285.9233900984887
 20
62.77760235723126
 30
0.0
 10
286.1205460364869
 20
62.62120524850977
 30
0.0
 10
286.1756405221532
 20
62.56169128855865
 30
0.0
 10
286.2654535642325
 20
62.4285554053569
 30
0.0
 10
286.3003203456219
 20
62.35438342408509
 30
0.0
 10
286.3719843285351
 20
62.11370144639245
 30
0.0
 10
286.3758609462498
 20
61.93475500095862
 30
0.0
 10
286.3372505109145
 20
61.73880620065884
 30
0.0
  0
LWPOLYLINE
  5
20D
330
1F
100
AcDbEntity
  8
0
  6
Continuous
 62
     7
370
    15
100
AcDbPolyline
 90
       17
 70
   128
 43
0.0
 10
270.8118933561
 20
54.7501654772
 10
271.5461946163
 20
55.9075226734
 10
272.3374808696
 20
57.0139595067
 10
273.1786035842
 20
58.0594803545
 10
274.0619640024
 20
59.034639913
 10
274.9795817883
 20
59.930628527
 10
275.923167123
 20
60.7393517765
 10
276.8841955946
 20
61.4535036029
 10
277.853985209
 20
62.0666323118
 10
278.8237748235
 20
62.5731988584
 10
279.7848032951
 20
62.9686268872
 10
280.7283886297
 20
63.2493440756
 10
281.6460064157
 20
63.4128144062
 10
282.5293668339
 20
63.4575610772
 10
283.3704895485
 20
63.3831798444
 10
284.1617758018
 20
63.1903426726
 10
284.896077062
 20
62.8807916654
  0
SPLINE
  5
20E
330
1F
100
AcDbEntity
  8
0
  6
Continuous
 62
     7
370
    15
100
AcDbSpline
210
0.0
220
0.0
230
1.0
 70
     8
 71
     3
 72
    16
 73
    12
 74
     0
 42
0.000000001
 43
0.00000001
 40
0.0
 40
0.0
 40
0.0
 40
0.0
 40
0.2499999999999986
 40
0.2499999999999986
 40
0.4999999999999972
 40
0.4999999999999972
 40
0.6249999999999977
 40
0.6249999999999977
 40
0.749999999999998
 40
0.749999999999998
 40
1.0
 40
1.0
 40
1.0
 40
1.0
 10
269.3707199071263
 20
51.94423656636868
 30
0.0
 10
269.4279222913502
 20
52.15093340198164
 30
0.0
 10
269.5051924225397
 20
52.37749028136127
 30
0.0
 10
269.7030123082995
 20
52.86895308417135
 30
0.0
 10
269.8185032240667
 20
53.12116835663043
 30
0.0
 10
270.0157984983425
 20
53.50522264310429
 30
0.0
 10
270.0838299110011
 20
53.63073360778014
 30
0.0
 10
270.2241927471666
 20
53.87697484917766
 30
0.0
 10
270.2970252674156
 20
53.99849228041172
 30
0.0
 10
270.5186610416844
 20
54.3503451542779
 30
0.0
 10
270.6659405593512
 20
54.56131591595618
 30
0.0
 10
270.8118933560591
 20
54.75016547724537
 30
0.0
  0
LWPOLYLINE
  5
20F
330
1F
100
AcDbEntity
  8
0
  6
Continuous
 62
     7
370
    15
100
AcDbPolyline
 90
       14
 70
   128
 43
0.0
 10
269.3707199071
 20
38.803271727
 10
268.8892789473
 20
39.4416397733
 10
268.4818490367
 20
40.1694134479
 10
268.1517938453
 20
40.9805843784
 10
267.9018382512
 20
41.8684556792
 10
267.7340458442
 20
42.8256972401
 10
267.6498018889
 20
43.8444062418
 10
267.6498018889
 20
44.9161724007
 10
267.7340458442
 20
46.0321474028
 10
267.9018382512
 20
47.1831179532
 10
268.1517938453
 20
48.3595818401
 10
268.4818490367
 20
49.5518263832
 10
268.8892789473
 20
50.7500086197
 10
269.3707199071
 20
51.9442365664
  0
ARC
  5
210
330
1F
100
AcDbEntity
  8
0
  6
Continuous
 62
     7
370
    15
100
AcDbCircle
 10
285.5436141764
 20
60.9203132144
 30
0.0
 40
2.064650108739588
100
AcDbArc
 50
108.2781542706
 51
120.3370408027
  0
LINE
  5
211
330
1F
100
AcDbEntity
  8
0
  6
Continuous
 62
     7
370
    15
100
AcDbLine
 10
281.7424296281
 20
61.1098821911
 30
0.0
 11
284.5007889522
 21
62.7022491345
 31
0.0
  0
LWPOLYLINE
  5
212
330
1F
100
AcDbEntity
  8
0
  6
Continuous
 62
     7
370
    15
100
AcDbPolyline
 90
       10
 70
   128
 43
0.0
 10
273.96554079
 20
56.6203798267
 10
274.7825317862
 20
57.5223825659
 10
275.6346497401
 20
58.3414546516
 10
276.5121493269
 20
59.068228691
 10
277.4049949422
 20
59.6943928665
 10
278.3029754758
 20
60.2127859942
 10
279.1958210912
 20
60.6174794238
 10
280.0733206779
 20
60.903844842
 10
280.9254386318
 20
61.0686072043
 10
281.7424296281
 20
61.1098821911
  0
LINE
  5
213
330
1F
100
AcDbEntity
  8
0
  6
Continuous
 62
     7
370
    15
100
AcDbLine
 10
271.2071814659
 20
55.0280128833
 30
0.0
 11
273.96554079
 21
56.6203798267
 31
0.0
  0
ARC
  5
214
330
1F
100
AcDbEntity
  8
0
  6
Continuous
 62
     7
370
    15
100
AcDbCircle
 10
272.6434087435
 20
52.5646121596
 30
0.0
 40
2.851506955787649
100
AcDbArc
 50
120.2433076991
 51
129.9633418827
  0
ARC
  5
215
330
1F
100
AcDbEntity
  8
0
  6
Continuous
 62
     7
370
    15
100
AcDbCircle
 10
284.6781498313
 20
46.2159067467
 30
0.0
 40
15.73613785747608
100
AcDbArc
 50
144.0779829264
 51
177.5452925516
  0
LWPOLYLINE
  5
216
330
1F
100
AcDbEntity
  8
0
  6
Continuous
 62
     7
370
    15
100
AcDbPolyline
 90
       43
 70
   128
 43
0.0
 10
279.3121315983
 20
60.6619122653
 10
279.5598328215
 20
60.6723039157
 10
280.2467554113
 20
60.6294664376
 10
280.8893415835
 20
60.4792078346
 10
281.48031058
 20
60.2232305967
 10
282.0129664859
 20
59.8644350483
 10
282.481274097
 20
59.4068864863
 10
282.879927301
 20
58.8557691188
 10
283.2044091976
 20
58.2173273257
 10
283.4510432774
 20
57.4987949077
 10
283.6170350777
 20
56.7083131242
 10
283.7005038452
 20
55.8548384496
 10
283.7005038452
 20
54.9480410931
 10
283.6170350777
 20
53.998195431
 10
283.4510432774
 20
53.0160635942
 10
283.2044091976
 20
52.0127735288
 10
282.879927301
 20
50.9996929123
 10
282.481274097
 20
49.9883003528
 10
282.0129664859
 20
48.9900553321
 10
281.48031058
 20
48.0162683652
 10
280.8893415835
 20
47.0779728475
 10
280.2467554113
 20
46.1858000421
 10
279.5598328215
 20
45.3498586236
 10
278.8363569216
 20
44.5796201421
 10
278.0845249825
 20
43.8838117073
 10
277.3128555605
 20
43.270317107
 10
276.5300919785
 20
42.7460874801
 10
275.7451032608
 20
42.3170625577
 10
274.966783643
 20
41.9881033636
 10
274.2039517976
 20
41.7629371369
 10
273.4652509141
 20
41.644115101
 10
272.7590507687
 20
41.632983557
 10
272.0933528912
 20
41.7296686297
 10
271.4756999046
 20
41.9330748386
 10
270.9130900641
 20
42.2408975102
 10
270.4118979638
 20
42.6496488905
 10
269.9778023107
 20
43.154697663
 10
269.6157215818
 20
43.7503214235
 10
269.3297582966
 20
44.4297715165
 10
269.1231525333
 20
45.1853495013
 10
268.9982452177
 20
46.0084943771
 10
268.9564515998
 20
46.8898795837
 10
268.9564515998
 20
46.8898795837
  0
LINE
  5
217
330
1F
100
AcDbEntity
  8
0
  6
Continuous
 62
     7
370
    15
100
AcDbLine
 10
269.6869018863
 20
38.7174675134
 30
0.0
 11
272.4452612104
 21
40.3098344567
 31
0.0
  0
LINE
  5
218
330
1F
100
AcDbEntity
  8
0
  6
Continuous
 62
     7
370
    15
100
AcDbLine
 10
269.429538717
 20
38.589799467
 30
0.0
 11
269.6869018863
 21
38.7174675134
 31
0.0
  0
LWPOLYLINE
  5
219
330
1F
100
AcDbEntity
  8
0
  6
Continuous
 62
     7
370
    15
100
AcDbPolyline
 90
        3
 70
   128
 43
0.0
 10
284.7724118661
 20
62.0164864323
 10
284.8189860371
 20
62.516034728
 10
284.7952109759
 20
62.8448149568
  0
LWPOLYLINE
  5
21A
330
1F
100
AcDbEntity
  8
0
  6
Continuous
 62
     7
370
    15
100
AcDbPolyline
 90
       13
 70
   128
 43
0.0
 10
284.7724118661
 20
50.0239917683
 10
285.2134922118
 20
51.1985764764
 10
285.5795708471
 20
52.3727397223
 10
285.8675557467
 20
53.536564122
 10
286.0750144919
 20
54.6802196173
 10
286.2001948152
 20
55.7940465033
 10
286.2420394008
 20
56.8686370175
 10
286.2001948152
 20
57.8949148014
 10
286.0750144919
 20
58.8642115625
 10
285.8675557467
 20
59.7683402891
 10
285.5795708471
 20
60.5996644012
 10
285.2134922118
 20
61.3511622515
 10
284.7724118661
 20
62.0164864323
  0
ARC
  5
21B
330
1F
100
AcDbEntity
  8
0
  6
Continuous
 62
     7
370
    15
100
AcDbCircle
 10
280.9860284024
 20
49.633773434
 30
0.0
 40
3.806437978297181
100
AcDbArc
 50
301.5993128453
 51
5.8840342133
  0
LINE
  5
21C
330
1F
100
AcDbEntity
  8
0
  6
Continuous
 62
     7
370
    15
100
AcDbLine
 10
280.2221500485
 20
44.7993368212
 30
0.0
 11
282.9805093726
 21
46.3917037645
 31
0.0
  0
LWPOLYLINE
  5
21D
330
1F
100
AcDbEntity
  8
0
  6
Continuous
 62
     7
370
    15
100
AcDbPolyline
 90
       10
 70
   128
 43
0.0
 10
280.2221500485
 20
44.7993368212
 10
279.4051590523
 20
43.8973340819
 10
278.5530410984
 20
43.0782619962
 10
277.6755415116
 20
42.3514879568
 10
276.7826958963
 20
41.7253237813
 10
275.8847153627
 20
41.2069306536
 10
274.9918697473
 20
40.802237224
 10
274.1143701606
 20
40.5158718059
 10
273.2622522067
 20
40.3511094435
 10
272.4452612104
 20
40.3098344567
  0
ARC
  5
21E
330
1F
100
AcDbEntity
  8
0
  6
Continuous
 62
     7
370
    15
100
AcDbCircle
 10
272.1469311845
 20
38.8987157798
 30
0.0
 40
2.777851440164136
100
AcDbArc
 50
169.5358433675
 51
181.9690102461
  0
LWPOLYLINE
  5
21F
330
1F
100
AcDbEntity
  8
0
  6
Continuous
 62
     7
370
    15
100
AcDbPolyline
 90
       13
 70
   128
 43
0.0
 10
269.4152789724
 20
39.4032302155
 10
268.9741986267
 20
40.0685543964
 10
268.6081199914
 20
40.8200522466
 10
268.3201350918
 20
41.6513763587
 10
268.1126763466
 20
42.5555050853
 10
267.9874960233
 20
43.5248018464
 10
267.9456514376
 20
44.5510796303
 10
267.9874960233
 20
45.6256701446
 10
268.1126763466
 20
46.7394970305
 10
268.3201350918
 20
47.8831525258
 10
268.6081199914
 20
49.0469769256
 10
268.9741986267
 20
50.2211401714
 10
269.4152789724
 20
51.3957248795
  0
ARC
  5
220
330
1F
100
AcDbEntity
  8
0
  6
Continuous
 62
     7
370
    15
100
AcDbCircle
 10
271.4968206714
 20
51.840887396
 30
0.0
 40
2.128611169438368
100
AcDbArc
 50
177.2170585604
 51
192.0715397823
  0
LWPOLYLINE
  5
221
330
1F
100
AcDbEntity
  8
0
  6
Continuous
 62
     7
370
    15
100
AcDbPolyline
 90
       37
 70
   128
 43
0.0
 10
279.1051039274
 20
60.5814804982
 10
279.3389094495
 20
60.5673018687
 10
279.9911111758
 20
60.4517599835
 10
280.5924794643
 20
60.2270075647
 10
281.1357145187
 20
59.8957728022
 10
281.6142222013
 20
59.4620764373
 10
282.0221940771
 20
58.9311829563
 10
282.3546779201
 20
58.309536687
 10
282.607637827
 20
57.604683573
 10
282.7780032069
 20
56.8251795762
 10
282.8637060552
 20
55.9804868192
 10
282.8637060552
 20
55.0808587279
 10
282.7780032069
 20
54.1372155686
 10
282.607637827
 20
53.1610118909
 10
282.3546779201
 20
52.1640974852
 10
282.0221940771
 20
51.1585735418
 10
281.6142222013
 20
50.1566457593
 10
281.1357145187
 20
49.1704761837
 10
280.5924794643
 20
48.2120355778
 10
279.9911111758
 20
47.2929581122
 10
279.3389094495
 20
46.4244001423
 10
278.643791131
 20
45.6169047853
 10
277.914194015
 20
44.8802739409
 10
277.1589744222
 20
44.2234493098
 10
276.3872996953
 20
43.6544038532
 10
275.6085369202
 20
43.1800450121
 10
274.832139222
 20
42.8061308602
 10
274.0675310172
 20
42.5372002088
 10
273.3239936134
 20
42.3765175118
 10
272.6105525476
 20
42.3260332394
 10
271.9358680279
 20
42.3863602023
 10
271.3081298104
 20
42.5567661129
 10
270.7349577866
 20
42.8351824742
 10
270.2233094885
 20
43.2182296889
 10
269.7793956334
 20
43.7012580825
 10
269.4086047341
 20
44.2784043447
 10
269.3263301479
 20
44.4397887493
  0
SPLINE
  5
222
330
1F
100
AcDbEntity
  8
0
  6
Continuous
 62
     7
370
    15
100
AcDbSpline
210
0.0
220
0.0
230
1.0
 70
     8
 71
     3
 72
    10
 73
     6
 74
     0
 42
0.000000001
 43
0.00000001
 40
0.0
 40
0.0
 40
0.0
 40
0.0
 40
0.5
 40
0.5
 40
1.0
 40
1.0
 40
1.0
 40
1.0
 10
249.9726667509147
 20
57.97439003111321
 30
0.0
 10
249.9161380651322
 20
57.94175671543059
 30
0.0
 10
249.8374947425575
 20
57.92138373997162
 30
0.0
 10
249.6772648282264
 20
57.91832234001026
 30
0.0
 10
249.5960978156857
 20
57.93598153989051
 30
0.0
 10
249.5389839153478
 20
57.96895269274482
 30
0.0
  0
SPLINE
  5
223
330
1F
100
AcDbEntity
  8
0
  6
Continuous
 62
     7
370
    15
100
AcDbSpline
210
0.0
220
0.0
230
1.0
 70
     8
 71
     3
 72
    12
 73
     8
 74
     0
 42
0.000000001
 43
0.00000001
 40
0.0
 40
0.0
 40
0.0
 40
0.0
 40
0.250000000000002
 40
0.250000000000002
 40
0.500000000000004
 40
0.500000000000004
 40
1.0
 40
1.0
 40
1.0
 40
1.0
 10
267.2297058216926
 20
74.49291457099993
 30
0.0
 10
267.2616101500374
 20
74.47449659428416
 30
0.0
 10
267.2937474864782
 20
74.44458205365211
 30
0.0
 10
267.3484057929044
 20
74.37418463370919
 30
0.0
 10
267.3713791322348
 20
74.33380393703337
 30
0.0
 10
267.4250609211725
 20
74.21128010699799
 30
0.0
 10
267.4418378560486
 20
74.12647878539231
 30
0.0
 10
267.4418378560486
 20
74.0529261897587
 30
0.0
  0
LINE
  5
224
330
1F
100
AcDbEntity
  8
0
  6
Continuous
 62
     7
370
    15
100
AcDbLine
 10
249.5389839153
 20
57.9689526927
 30
0.0
 11
248.1395958477
 21
58.7768022286
 31
0.0
  0
LWPOLYLINE
  5
225
330
1F
100
AcDbEntity
  8
0
  6
Continuous
 62
     7
370
    15
100
AcDbPolyline
 90
       23
 70
   128
 43
0.0
 10
248.1395958477
 20
58.7768022286
 10
248.465558819
 20
60.0484681831
 10
248.8738260861
 20
61.3297998924
 10
249.3611500365
 20
62.6106048448
 10
249.9236541917
 20
63.8806947193
 10
250.5568640429
 20
65.1299664288
 10
251.255742644
 20
66.3484824872
 10
252.0147306788
 20
67.526550058
 10
252.8277906832
 20
68.654798057
 10
253.688455071
 20
69.7242516962
 10
254.5898775809
 20
70.7264038742
 10
255.524887736
 20
71.653282848
 10
256.4860478827
 20
72.4975156439
 10
257.4657123537
 20
73.2523867081
 10
258.456088287
 20
73.9118913252
 10
259.4492976147
 20
74.4707833844
 10
260.4374397305
 20
74.9246171096
 10
261.4126543359
 20
75.2697824244
 10
262.3671839658
 20
75.5035336687
 10
263.2934356962
 20
75.6240114393
 10
264.1840415433
 20
75.6302573809
 10
265.0319170728
 20
75.5222218093
 10
265.8303177541
 20
75.3007641069
  0
LINE
  5
226
330
1F
100
AcDbEntity
  8
0
  6
Continuous
 62
     7
370
    15
100
AcDbLine
 10
265.8303177541
 20
75.3007641069
 30
0.0
 11
267.2297058217
 21
74.492914571
 31
0.0
  0
LINE
  5
227
330
1F
100
AcDbEntity
  8
0
  6
Continuous
 62
     7
370
    15
100
AcDbLine
 10
251.0899935411
 20
57.2559445879
 30
0.0
 11
251.0899935411
 21
58.6194090575
 31
0.0
  0
LINE
  5
228
330
1F
100
AcDbEntity
  8
0
  6
Continuous
 62
     7
370
    15
100
AcDbLine
 10
251.0899935411
 20
58.6194090575
 30
0.0
 11
249.9726667509
 21
57.9743900311
 31
0.0
  0
LINE
  5
229
330
1F
100
AcDbEntity
  8
0
  6
Continuous
 62
     7
370
    15
100
AcDbLine
 10
267.441837856
 20
74.0529261898
 30
0.0
 11
267.441837856
 21
72.4888617549
 31
0.0
  0
LINE
  5
22A
330
1F
100
AcDbEntity
  8
0
  6
Continuous
 62
     7
370
    15
100
AcDbLine
 10
268.7962840172
 20
73.2707668804
 30
0.0
 11
267.441837856
 21
72.4888617549
 31
0.0
  0
ARC
  5
22B
330
1F
100
AcDbEntity
  8
0
  6
Continuous
 62
     7
370
    15
100
AcDbCircle
 10
270.1643562417
 20
39.6217647132
 30
0.0
 40
2.064650108737728
100
AcDbArc
 50
288.2781542706
 51
300.3370408027
  0
SPLINE
  5
22C
330
1F
100
AcDbEntity
  8
0
  6
Continuous
 62
     7
370
    15
100
AcDbSpline
210
0.0
220
0.0
230
1.0
 70
     8
 71
     3
 72
    20
 73
    16
 74
     0
 42
0.000000001
 43
0.00000001
 40
0.0
 40
0.0
 40
0.0
 40
0.0
 40
0.25
 40
0.25
 40
0.3750000000000001
 40
0.3750000000000001
 40
0.4375000000000001
 40
0.4375000000000001
 40
0.4687500000000001
 40
0.4687500000000001
 40
0.5000000000000001
 40
0.5000000000000001
 40
0.7500000000000001
 40
0.7500000000000001
 40
1.0
 40
1.0
 40
1.0
 40
1.0
 10
251.0899935411096
 20
52.63400622012553
 30
0.0
 10
251.0899935411096
 20
53.02638839664607
 30
0.0
 10
251.1104393204197
 20
53.4065650311121
 30
0.0
 10
251.1376128961391
 20
53.9789164529303
 30
0.0
 10
251.1461932759331
 20
54.1699853012979
 30
0.0
 10
251.1550496536769
 20
54.4589849309596
 30
0.0
 10
251.1573414605994
 20
54.55571233228876
 30
0.0
 10
251.1595356942869
 20
54.70154575409723
 30
0.0
 10
251.1600614361154
 20
54.75027967341544
 30
0.0
 10
251.160681168614
 20
54.84800525507272
 30
0.0
 10
251.160770276662
 20
54.89725030808312
 30
0.0
 10
251.1597316707451
 20
55.32391299996582
 30
0.0
 10
251.1442184304731
 20
55.7111693463485
 30
0.0
 10
251.1090809515508
 20
56.48785160905009
 30
0.0
 10
251.0899935411096
 20
56.87700546566785
 30
0.0
 10
251.0899935411096
 20
57.25594458785613
 30
0.0
  0
ARC
  5
22D
330
1F
100
AcDbEntity
  8
0
  6
Continuous
 62
     7
370
    15
100
AcDbCircle
 10
283.5610392336
 20
61.6433621478
 30
0.0
 40
2.777851440169981
100
AcDbArc
 50
349.5358433675
 51
1.9690102461
  0
LINE
  5
22E
330
1F
100
AcDbEntity
  8
0
  6
Continuous
 62
     7
370
    15
100
AcDbLine
 10
284.7724118661
 20
62.0164864323
 30
0.0
 11
286.2926914457
 21
61.1388477121
 31
0.0
  0
LWPOLYLINE
  5
22F
330
1F
100
AcDbEntity
  8
0
  6
Continuous
 62
     7
370
    15
100
AcDbPolyline
 90
       21
 70
   128
 43
0.0
 10
247.21581306
 20
60.4077842626
 10
247.5467754151
 20
61.6080631866
 10
247.9561156764
 20
62.8144986066
 10
248.4404174598
 20
64.0170215235
 10
248.9956387468
 20
65.2055955922
 10
249.6171456196
 20
66.3703008857
 10
250.2997509359
 20
67.5014166877
 10
251.0377576214
 20
68.5895026222
 10
251.8250062176
 20
69.6254774435
 10
252.6549262898
 20
70.6006948293
 10
253.5205912637
 20
71.5070155434
 10
254.4147762355
 20
72.336875366
 10
255.3300182713
 20
73.0833482258
 10
256.2586786937
 20
73.7402040052
 10
257.193006834
 20
74.3019605374
 10
258.1252047206
 20
74.7639293608
 10
259.0474921612
 20
75.1222548496
 10
259.9521716767
 20
75.3739463927
 10
260.8316927449
 20
75.5169033539
 10
261.6787148181
 20
75.5499326039
 10
262.3308791077
 20
75.4966157688
  0
SPLINE
  5
230
330
1F
100
AcDbEntity
  8
0
  6
Continuous
 62
     7
370
    15
100
AcDbSpline
210
0.0
220
0.0
230
1.0
 70
     8
 71
     3
 72
     8
 73
     4
 74
     0
 42
0.000000001
 43
0.00000001
 40
0.0
 40
0.0
 40
0.0
 40
0.0
 40
1.0
 40
1.0
 40
1.0
 40
1.0
 10
247.2158130599568
 20
60.40778426259148
 30
0.0
 10
246.7245120309043
 20
60.3251370423876
 30
0.0
 10
246.2329319400016
 20
60.24305325489716
 30
0.0
 10
245.7411371412497
 20
60.16140296781541
 30
0.0
  0
LWPOLYLINE
  5
231
330
1F
100
AcDbEntity
  8
0
  6
Continuous
 62
     7
370
    15
100
AcDbPolyline
 90
       23
 70
   128
 43
0.0
 10
245.7411371412
 20
60.1614029678
 10
246.0671001125
 20
61.4330689223
 10
246.4753673796
 20
62.7144006315
 10
246.9626913301
 20
63.995205584
 10
247.5251954853
 20
65.2652954584
 10
248.1584053364
 20
66.514567168
 10
248.8572839375
 20
67.7330832264
 10
249.6162719723
 20
68.9111507972
 10
250.4293319768
 20
70.0393987962
 10
251.2899963645
 20
71.1088524353
 10
252.1914188744
 20
72.1110046134
 10
253.1264290296
 20
73.0378835871
 10
254.0875891762
 20
73.8821163831
 10
255.0672536473
 20
74.6369874473
 10
256.0576295805
 20
75.2964920644
 10
257.0508389082
 20
75.8553841236
 10
258.0389810241
 20
76.3092178488
 10
259.0141956295
 20
76.6543831636
 10
259.9687252593
 20
76.8881344079
 10
260.8949769897
 20
77.0086121785
 10
261.7855828368
 20
77.0148581201
 10
262.6334583663
 20
76.9068225485
 10
263.4318590476
 20
76.6853648461
  0
LINE
  5
232
330
1F
100
AcDbEntity
  8
0
  6
Continuous
 62
     7
370
    15
100
AcDbLine
 10
263.4318590476
 20
76.6853648461
 30
0.0
 11
263.76043228
 21
75.6237882756
 31
0.0
  0
LINE
  5
233
330
1F
100
AcDbEntity
  8
0
  6
Continuous
 62
     7
370
    15
100
AcDbLine
 10
260.0172166536
 20
78.6565959413
 30
0.0
 11
263.4318590476
 21
76.6853648461
 31
0.0
  0
LINE
  5
234
330
1F
100
AcDbEntity
  8
0
  6
Continuous
 62
     7
370
    15
100
AcDbLine
 10
245.7411371412
 20
60.1614029678
 30
0.0
 11
245.154921872
 21
60.4998178394
 31
0.0
  0
SPLINE
  5
235
330
1F
100
AcDbEntity
  8
0
  6
Continuous
 62
     7
370
    15
100
AcDbSpline
210
0.0
220
0.0
230
1.0
 70
     8
 71
     3
 72
    28
 73
    24
 74
     0
 42
0.000000001
 43
0.00000001
 40
0.0
 40
0.0
 40
0.0
 40
0.0
 40
0.1249999999999999
 40
0.1249999999999999
 40
0.1874999999999998
 40
0.1874999999999998
 40
0.2499999999999997
 40
0.2499999999999997
 40
0.3749999999999993
 40
0.3749999999999993
 40
0.4374999999999993
 40
0.4374999999999993
 40
0.4999999999999992
 40
0.4999999999999992
 40
0.6249999999999992
 40
0.6249999999999992
 40
0.7499999999999992
 40
0.7499999999999992
 40
0.8124999999999993
 40
0.8124999999999993
 40
0.8749999999999996
 40
0.8749999999999996
 40
1.0
 40
1.0
 40
1.0
 40
1.0
 10
245.1549218719912
 20
60.49981783939523
 30
0.0
 10
244.9669347915249
 20
60.6083404709793
 30
0.0
 10
244.7767148369242
 20
60.6902841915272
 30
0.0
 10
244.4886162349762
 20
60.77544192156567
 30
0.0
 10
244.3921263643766
 20
60.79749185196948
 30
0.0
 10
244.1983881915417
 20
60.82876567542844
 30
0.0
 10
244.1011371710104
 20
60.83789292675187
 30
0.0
 10
243.815115296125
 20
60.84567576886027
 30
0.0
 10
243.6297734797684
 20
60.8253692252232
 30
0.0
 10
243.3612608929526
 20
60.75814857209006
 30
0.0
 10
243.2729002332868
 20
60.72936221448447
 30
0.0
 10
243.1025475229972
 20
60.66035032438931
 30
0.0
 10
243.0205204932157
 20
60.62021043447919
 30
0.0
 10
242.7840842394631
 20
60.48359066671597
 30
0.0
 10
242.6392169893408
 20
60.3710761770269
 30
0.0
 10
242.3783601958567
 20
60.10281921202744
 30
0.0
 10
242.2660677883543
 20
59.95066582565016
 30
0.0
 10
242.1268433069005
 20
59.69874943795185
 30
0.0
 10
242.0852475205347
 20
59.61070715227547
 30
0.0
 10
242.0121228054735
 20
59.42636609722365
 30
0.0
 10
241.9804983214206
 20
59.32957733454187
 30
0.0
 10
241.9030050179983
 20
59.03156225564506
 30
0.0
 10
241.8738303026085
 20
58.82208937850854
 30
0.0
 10
241.8678634198668
 20
58.60170858582467
 30
0.0
  0
ARC
  5
236
330
1F
100
AcDbEntity
  8
0
  6
Continuous
 62
     7
370
    15
100
AcDbCircle
 10
256.7112298822
 20
58.1934381799
 30
0.0
 40
14.84898018918658
100
AcDbArc
 50
178.4244628824
 51
181.5755371176
  0
SPLINE
  5
237
330
1F
100
AcDbEntity
  8
0
  6
Continuous
 62
     7
370
    15
100
AcDbSpline
210
0.0
220
0.0
230
1.0
 70
     8
 71
     3
 72
    30
 73
    26
 74
     0
 42
0.000000001
 43
0.00000001
 40
0.0
 40
0.0
 40
0.0
 40
0.0
 40
0.1250000000000001
 40
0.1250000000000001
 40
0.1875000000000002
 40
0.1875000000000002
 40
0.2500000000000003
 40
0.2500000000000003
 40
0.3750000000000004
 40
0.3750000000000004
 40
0.4375000000000004
 40
0.4375000000000004
 40
0.5000000000000004
 40
0.5000000000000004
 40
0.6250000000000007
 40
0.6250000000000007
 40
0.6875000000000006
 40
0.6875000000000006
 40
0.7500000000000004
 40
0.7500000000000004
 40
0.8125000000000004
 40
0.8125000000000004
 40
0.8750000000000003
 40
0.8750000000000003
 40
1.0
 40
1.0
 40
1.0
 40
1.0
 10
241.8678634198668
 20
57.78516777393892
 30
0.0
 10
241.8738310185582
 20
57.5716505811642
 30
0.0
 10
241.9029762385577
 20
57.35410068314507
 30
0.0
 10
241.9794108998165
 20
57.02180165360949
 30
0.0
 10
242.0103768833939
 20
56.91002735230991
 30
0.0
 10
242.0833468242095
 20
56.68432547877492
 30
0.0
 10
242.1254830227681
 20
56.5702377062024
 30
0.0
 10
242.2653748121325
 20
56.23207497884122
 30
0.0
 10
242.3772187366748
 20
56.00956475956844
 30
0.0
 10
242.5710053338194
 20
55.67895450361887
 30
0.0
 10
242.6403459714226
 20
55.56872786391273
 30
0.0
 10
242.7858383558693
 20
55.35199786345919
 30
0.0
 10
242.8617256465884
 20
55.24580092782846
 30
0.0
 10
243.0981135950598
 20
54.93316275457886
 30
0.0
 10
243.2672590973106
 20
54.73262020674369
 30
0.0
 10
243.5371250946447
 20
54.44251536732135
 30
0.0
 10
243.6293166006956
 20
54.3481719509489
 30
0.0
 10
243.8149151957303
 20
54.1668669228885
 30
0.0
 10
243.9087440760171
 20
54.07944758939436
 30
0.0
 10
244.0981941264825
 20
53.9108400390697
 30
0.0
 10
244.1938155416881
 20
53.82965185330036
 30
0.0
 10
244.3866772311146
 20
53.67348917375222
 30
0.0
 10
244.4844121400129
 20
53.59816219405551
 30
0.0
 10
244.7756680951333
 20
53.38487196061168
 30
0.0
 10
244.9669254861065
 20
53.25947853591124
 30
0.0
 10
245.1549218719912
 20
53.15095053242347
 30
0.0
  0
LINE
  5
238
330
1F
100
AcDbEntity
  8
0
  6
Continuous
 62
     7
370
    15
100
AcDbLine
 10
245.154921872
 20
53.1509505324
 30
0.0
 11
245.7411371412
 21
52.8125356608
 31
0.0
  0
ARC
  5
239
330
1F
100
AcDbEntity
  8
0
  6
Continuous
 62
     7
370
    15
100
AcDbCircle
 10
251.5442754301
 20
54.1867592252
 30
0.0
 40
5.96363181332224
100
AcDbArc
 50
193.3226247866
 51
253.29954657
  0
LINE
  5
23A
330
1F
100
AcDbEntity
  8
0
  6
Continuous
 62
     7
370
    15
100
AcDbLine
 10
265.0612769039
 20
75.7444161531
 30
0.0
 11
265.3955893077
 21
75.4370880429
 31
0.0
  0
LINE
  5
23B
330
1F
100
AcDbEntity
  8
0
  6
Continuous
 62
     7
370
    15
100
AcDbLine
 10
264.2083481501
 20
76.2368014419
 30
0.0
 11
265.0612769039
 21
75.7444161531
 31
0.0
  0
SPLINE
  5
23C
330
1F
100
AcDbEntity
  8
0
  6
Continuous
 62
     7
370
    15
100
AcDbSpline
210
0.0
220
0.0
230
1.0
 70
     8
 71
     3
 72
    20
 73
    16
 74
     0
 42
0.000000001
 43
0.00000001
 40
0.0
 40
0.0
 40
0.0
 40
0.0
 40
0.2500000000000005
 40
0.2500000000000005
 40
0.3750000000000004
 40
0.3750000000000004
 40
0.5000000000000003
 40
0.5000000000000003
 40
0.6250000000000002
 40
0.6250000000000002
 40
0.7500000000000001
 40
0.7500000000000001
 40
0.8750000000000001
 40
0.8750000000000001
 40
1.0
 40
1.0
 40
1.0
 40
1.0
 10
260.0172166535899
 20
78.65659594129568
 30
0.0
 10
260.3362053079878
 20
78.52270555203587
 30
0.0
 10
260.6626609080857
 20
78.36280920497387
 30
0.0
 10
261.1750110254688
 20
78.08489027750437
 30
0.0
 10
261.3496143921467
 20
77.98589126469408
 30
0.0
 10
261.7094882544956
 20
77.77495055979536
 30
0.0
 10
261.8923486708491
 20
77.66439474258533
 30
0.0
 10
262.2586437600264
 20
77.4389768735745
 30
0.0
 10
262.443127276285
 20
77.32349627219503
 30
0.0
 10
262.8167121005205
 20
77.08866392789926
 30
0.0
 10
263.0010615717597
 20
76.972334002624
 30
0.0
 10
263.3617714782362
 20
76.74663931582462
 30
0.0
 10
263.53882546749
 20
76.63682934172795
 30
0.0
 10
263.8865548188424
 20
76.42543457819204
 30
0.0
 10
264.0518052353007
 20
76.327171743049
 30
0.0
 10
264.2083481500821
 20
76.23680144193163
 30
0.0
  0
LWPOLYLINE
  5
23D
330
1F
100
AcDbEntity
  8
0
  6
Continuous
 62
     7
370
    15
100
AcDbPolyline
 90
       10
 70
   128
 43
0.0
 10
281.7424296281
 20
43.921698101
 10
280.9254386318
 20
43.0196953617
 10
280.0733206779
 20
42.200623276
 10
279.1958210912
 20
41.4738492366
 10
278.3029754758
 20
40.8476850611
 10
277.4049949422
 20
40.3292919334
 10
276.5121493269
 20
39.9245985038
 10
275.6346497401
 20
39.6382330856
 10
274.7825317862
 20
39.4734707233
 10
273.96554079
 20
39.4321957365
  0
LINE
  5
23E
330
1F
100
AcDbEntity
  8
0
  6
Continuous
 62
     7
370
    15
100
AcDbLine
 10
284.5007889522
 20
45.5140650443
 30
0.0
 11
281.7424296281
 21
43.921698101
 31
0.0
  0
ARC
  5
23F
330
1F
100
AcDbEntity
  8
0
  6
Continuous
 62
     7
370
    15
100
AcDbCircle
 10
283.0645616745
 20
47.977465768
 30
0.0
 40
2.851506955781642
100
AcDbArc
 50
300.2433076991
 51
309.9633418827
  0
LINE
  5
240
330
1F
100
AcDbEntity
  8
0
  6
Continuous
 62
     7
370
    15
100
AcDbLine
 10
273.96554079
 20
39.4321957365
 30
0.0
 11
271.2071814659
 21
37.8398287931
 31
0.0
  0
LINE
  5
241
330
1F
100
AcDbEntity
  8
0
  6
Continuous
 62
     7
370
    15
100
AcDbLine
 10
272.4452612104
 20
40.3098344567
 30
0.0
 11
273.96554079
 21
39.4321957365
 31
0.0
  0
LINE
  5
242
330
1F
100
AcDbEntity
  8
0
  6
Continuous
 62
     7
370
    15
100
AcDbLine
 10
248.3504276148
 20
59.6335254942
 30
0.0
 11
247.8867998223
 21
59.9011721218
 31
0.0
  0
LINE
  5
243
330
1F
100
AcDbEntity
  8
0
  6
Continuous
 62
     7
370
    15
100
AcDbLine
 10
247.4609816643
 20
60.5493170853
 30
0.0
 11
247.21581306
 21
60.4077842626
 31
0.0
  0
SPLINE
  5
244
330
1F
100
AcDbEntity
  8
0
  6
Continuous
 62
     7
370
    15
100
AcDbSpline
210
0.0
220
0.0
230
1.0
 70
     8
 71
     3
 72
    14
 73
    10
 74
     0
 42
0.000000001
 43
0.00000001
 40
0.0
 40
0.0
 40
0.0
 40
0.0
 40
0.1250000000000006
 40
0.1250000000000006
 40
0.2500000000000012
 40
0.2500000000000012
 40
0.4999999999999998
 40
0.4999999999999998
 40
1.0
 40
1.0
 40
1.0
 40
1.0
 10
247.8867998223346
 20
59.90117212176949
 30
0.0
 10
247.8626033891694
 20
59.91514042531204
 30
0.0
 10
247.8394279507105
 20
59.9425056013096
 30
0.0
 10
247.8025075582796
 20
60.00030737043512
 30
0.0
 10
247.7874657672469
 20
60.03127784955149
 30
0.0
 10
247.7476523106601
 20
60.12430432248068
 30
0.0
 10
247.728016292276
 20
60.18691537676548
 30
0.0
 10
247.6775954438065
 20
60.37124612768046
 30
0.0
 10
247.655178265566
 20
60.49279036258113
 30
0.0
 10
247.6384903674001
 20
60.61191942788349
 30
0.0
  0
SPLINE
  5
245
330
1F
100
AcDbEntity
  8
0
  6
Continuous
 62
     7
370
    15
100
AcDbSpline
210
0.0
220
0.0
230
1.0
 70
     8
 71
     3
 72
    10
 73
     6
 74
     0
 42
0.000000001
 43
0.00000001
 40
0.0
 40
0.0
 40
0.0
 40
0.0
 40
0.5
 40
0.5
 40
1.0
 40
1.0
 40
1.0
 40
1.0
 10
247.6384903674001
 20
60.61191942788349
 30
0.0
 10
247.6051003492123
 20
60.60576965868326
 30
0.0
 10
247.5728609977842
 20
60.5972230508352
 30
0.0
 10
247.5128731035219
 20
60.57598707706629
 30
0.0
 10
247.4856112302729
 20
60.56353543105811
 30
0.0
 10
247.460981664323
 20
60.54931708528126
 30
0.0
  0
ARC
  5
246
330
1F
100
AcDbEntity
  8
0
  6
Continuous
 62
     7
370
    15
100
AcDbCircle
 10
284.2111497467
 20
48.7011905316
 30
0.0
 40
2.128611169442505
100
AcDbArc
 50
357.2170585605
 51
12.0715397822
  0
LWPOLYLINE
  5
247
330
1F
100
AcDbEntity
  8
0
  6
Continuous
 62
     7
370
    15
100
AcDbPolyline
 90
       13
 70
   128
 43
0.0
 10
286.2926914457
 20
61.1388477121
 10
286.7337717914
 20
60.4735235313
 10
287.0998504266
 20
59.722025681
 10
287.3878353263
 20
58.8907015689
 10
287.5952940714
 20
57.9865728423
 10
287.7204743947
 20
57.0172760812
 10
287.7623189804
 20
55.9909982973
 10
287.7204743947
 20
54.9164077831
 10
287.5952940714
 20
53.8025808971
 10
287.3878353263
 20
52.6589254018
 10
287.0998504266
 20
51.495101002
 10
286.7337717914
 20
50.3209377562
 10
286.2926914457
 20
49.1463530481
  0
LINE
  5
248
330
1F
100
AcDbEntity
  8
0
  6
Continuous
 62
     7
370
    15
100
AcDbLine
 10
284.7724118661
 20
50.0239917683
 30
0.0
 11
286.2926914457
 21
49.1463530481
 31
0.0
  0
LINE
  5
249
330
1F
100
AcDbEntity
  8
0
  6
Continuous
 62
     7
370
    15
100
AcDbLine
 10
281.7424296281
 20
43.921698101
 30
0.0
 11
280.2221500485
 21
44.7993368212
 31
0.0
  0
LWPOLYLINE
  5
24A
330
1F
100
AcDbEntity
  8
0
  6
Continuous
 62
     7
370
    15
100
AcDbPolyline
 90
       21
 70
   128
 43
0.0
 10
240.2182267804
 20
59.2617332953
 10
240.260202555
 20
60.3961584409
 10
240.3858104179
 20
61.5704141239
 10
240.5940944174
 20
62.7755635497
 10
240.8834693864
 20
64.0024348033
 10
241.2517330068
 20
65.2416906537
 10
241.69608257
 20
66.4838996156
 10
242.2131363076
 20
67.7196077287
 10
242.7989591283
 20
68.9394105082
 10
243.4490925669
 20
70.1340245183
 10
244.1585887152
 20
71.2943580252
 10
244.9220478792
 20
72.4115801902
 10
245.7336596736
 20
73.477188278
 10
246.5872472427
 20
74.4830723676
 10
247.4763142696
 20
75.4215770738
 10
248.3940944174
 20
76.2855598091
 10
249.333602825
 20
77.0684451431
 10
250.2876892661
 20
77.7642748458
 10
251.2490925669
 20
78.3677532329
 10
252.2104958676
 20
78.8742874696
 10
253.0479589778
 20
79.2356996916
  0
LINE
  5
24B
330
1F
100
AcDbEntity
  8
0
  6
Continuous
 62
     7
370
    15
100
AcDbLine
 10
248.9199978044
 20
52.5232536246
 30
0.0
 11
251.0899935411
 21
51.2705417505
 31
0.0
  0
SPLINE
  5
24C
330
1F
100
AcDbEntity
  8
0
  6
Continuous
 62
     7
370
    15
100
AcDbSpline
210
0.0
220
0.0
230
1.0
 70
     8
 71
     3
 72
    14
 73
    10
 74
     0
 42
0.000000001
 43
0.00000001
 40
0.0
 40
0.0
 40
0.0
 40
0.0
 40
0.1249999999999999
 40
0.1249999999999999
 40
0.2499999999999998
 40
0.2499999999999998
 40
0.4999999999999996
 40
0.4999999999999996
 40
1.0
 40
1.0
 40
1.0
 40
1.0
 10
248.6716883494516
 20
53.23400093070759
 30
0.0
 10
248.6959169274043
 20
53.22001407037419
 30
0.0
 10
248.7190027687702
 20
53.19271530055745
 30
0.0
 10
248.7557451428334
 20
53.13527609225004
 30
0.0
 10
248.7709034425172
 20
53.10412561724764
 30
0.0
 10
248.8104663694048
 20
53.01182607704188
 30
0.0
 10
248.8300762426477
 20
52.94958829628634
 30
0.0
 10
248.8808990916026
 20
52.76413253008977
 30
0.0
 10
248.9033307757267
 20
52.64223370979207
 30
0.0
 10
248.9199978043862
 20
52.52325362459348
 30
0.0
  0
LINE
  5
24D
330
1F
100
AcDbEntity
  8
0
  6
Continuous
 62
     7
370
    15
100
AcDbLine
 10
247.8867998223
 20
53.6871074328
 30
0.0
 11
248.6716883495
 21
53.2340009307
 31
0.0
  0
SPLINE
  5
24E
330
1F
100
AcDbEntity
  8
0
  6
Continuous
 62
     7
370
    15
100
AcDbSpline
210
0.0
220
0.0
230
1.0
 70
     8
 71
     3
 72
    14
 73
    10
 74
     0
 42
0.000000001
 43
0.00000001
 40
0.0
 40
0.0
 40
0.0
 40
0.0
 40
0.5
 40
0.5
 40
0.75
 40
0.75
 40
0.875
 40
0.875
 40
1.0
 40
1.0
 40
1.0
 40
1.0
 10
247.6384903674
 20
53.2630521209115
 30
0.0
 10
247.6551144488538
 20
53.36253186514162
 30
0.0
 10
247.6775318504581
 20
53.45836699853762
 30
0.0
 10
247.7279629083068
 20
53.58458294811125
 30
0.0
 10
247.747497602238
 20
53.62441649680552
 30
0.0
 10
247.7874407595735
 20
53.67167682827736
 30
0.0
 10
247.8024577267391
 20
53.68527944188262
 30
0.0
 10
247.8395190942608
 20
53.70049984345833
 30
0.0
 10
247.8625027566092
 20
53.7011338302522
 30
0.0
 10
247.8867998223346
 20
53.68710743276917
 30
0.0
  0
LINE
  5
24F
330
1F
100
AcDbEntity
  8
0
  6
Continuous
 62
     7
370
    15
100
AcDbLine
 10
246.4937994634
 20
53.9238681139
 30
0.0
 11
247.6384903674
 21
53.2630521209
 31
0.0
  0
ARC
  5
250
330
1F
100
AcDbEntity
  8
0
  6
Continuous
 62
     7
370
    15
100
AcDbCircle
 10
249.7802642533
 20
59.0872957695
 30
0.0
 40
6.12060748370943
100
AcDbArc
 50
182.476303705
 51
237.5236964406
  0
LINE
  5
251
330
1F
100
AcDbEntity
  8
0
  6
Continuous
 62
     7
370
    15
100
AcDbLine
 10
243.6653723387
 20
59.639388397
 30
0.0
 11
243.6653723387
 21
58.8228475851
 31
0.0
  0
ARC
  5
252
330
1F
100
AcDbEntity
  8
0
  6
Continuous
 62
     7
370
    15
100
AcDbCircle
 10
246.2438359939
 20
59.725179799
 30
0.0
 40
2.579890498855926
100
AcDbArc
 50
153.8280245822
 51
181.9056590381
  0
LINE
  5
253
330
1F
100
AcDbEntity
  8
0
  6
Continuous
 62
     7
370
    15
100
AcDbLine
 10
251.0899935411
 20
51.2705417505
 30
0.0
 11
251.0899935411
 21
52.6340062201
 31
0.0
  0
LINE
  5
254
330
1F
100
AcDbEntity
  8
0
  6
Continuous
 62
     7
370
    15
100
AcDbLine
 10
249.9726667509
 20
50.6255227241
 30
0.0
 11
251.0899935411
 21
51.2705417505
 31
0.0
  0
ARC
  5
255
330
1F
100
AcDbEntity
  8
0
  6
Continuous
 62
     7
370
    15
100
AcDbCircle
 10
255.0894036995
 20
51.5967395291
 30
0.0
 40
5.510008530865616
100
AcDbArc
 50
210.4564991614
 51
258.5949273007
  0
SPLINE
  5
256
330
1F
100
AcDbEntity
  8
0
  6
Continuous
 62
     7
370
    15
100
AcDbSpline
210
0.0
220
0.0
230
1.0
 70
     8
 71
     3
 72
    12
 73
     8
 74
     0
 42
0.000000001
 43
0.00000001
 40
0.0
 40
0.0
 40
0.0
 40
0.0
 40
0.2499999999999999
 40
0.2499999999999999
 40
0.4999999999999998
 40
0.4999999999999998
 40
1.0
 40
1.0
 40
1.0
 40
1.0
 10
249.5389839153478
 20
50.62008538577307
 30
0.0
 10
249.5672261154201
 20
50.60378151070906
 30
0.0
 10
249.6017722473256
 20
50.59082571729905
 30
0.0
 10
249.6764963070233
 20
50.57411397910651
 30
0.0
 10
249.7167866983249
 20
50.57022707031906
 30
0.0
 10
249.8378997157613
 20
50.57249046820836
 30
0.0
 10
249.9160172781792
 20
50.5928196796351
 30
0.0
 10
249.9726667509147
 20
50.62552272414145
 30
0.0
  0
ARC
  5
257
330
1F
100
AcDbEntity
  8
0
  6
Continuous
 62
     7
370
    15
100
AcDbCircle
 10
254.2958899736
 20
53.0245239908
 30
0.0
 40
6.359957076860566
100
AcDbArc
 50
194.5389270881
 51
238.1305356203
  0
LINE
  5
258
330
1F
100
AcDbEntity
  8
0
  6
Continuous
 62
     7
370
    15
100
AcDbLine
 10
248.1395958477
 20
51.4279349217
 30
0.0
 11
249.5389839153
 21
50.6200853858
 31
0.0
  0
SPLINE
  5
259
330
1F
100
AcDbEntity
  8
0
  6
Continuous
 62
     7
370
    15
100
AcDbSpline
210
0.0
220
0.0
230
1.0
 70
     8
 71
     3
 72
     8
 73
     4
 74
     0
 42
0.000000001
 43
0.00000001
 40
0.0
 40
0.0
 40
0.0
 40
0.0
 40
1.0
 40
1.0
 40
1.0
 40
1.0
 10
248.5663870120231
 20
52.27924720882906
 30
0.0
 10
248.4232223153326
 20
51.99562516182205
 30
0.0
 10
248.2810336184801
 20
51.71184201583802
 30
0.0
 10
248.1395958477248
 20
51.42793492165094
 30
0.0
  0
LINE
  5
25A
330
1F
100
AcDbEntity
  8
0
  6
Continuous
 62
     7
370
    15
100
AcDbLine
 10
248.8115556164
 20
52.4207800315
 30
0.0
 11
248.566387012
 21
52.2792472088
 31
0.0
  0
SPLINE
  5
25B
330
1F
100
AcDbEntity
  8
0
  6
Continuous
 62
     7
370
    15
100
AcDbSpline
210
0.0
220
0.0
230
1.0
 70
     8
 71
     3
 72
    10
 73
     6
 74
     0
 42
0.000000001
 43
0.00000001
 40
0.0
 40
0.0
 40
0.0
 40
0.0
 40
0.5
 40
0.5
 40
1.0
 40
1.0
 40
1.0
 40
1.0
 10
248.9199978043862
 20
52.52325362459358
 30
0.0
 10
248.9093449374163
 20
52.50397797738742
 30
0.0
 10
248.8945401742641
 20
52.48536659596234
 30
0.0
 10
248.8577544029332
 20
52.45073632173077
 30
0.0
 10
248.8361851823392
 20
52.43499837729564
 30
0.0
 10
248.8115556163893
 20
52.42078003151877
 30
0.0
  0
SPLINE
  5
25C
330
1F
100
AcDbEntity
  8
0
  6
Continuous
 62
     7
370
    15
100
AcDbSpline
210
0.0
220
0.0
230
1.0
 70
     8
 71
     3
 72
    14
 73
    10
 74
     0
 42
0.000000001
 43
0.00000001
 40
0.0
 40
0.0
 40
0.0
 40
0.0
 40
0.5
 40
0.5
 40
0.75
 40
0.75
 40
0.875
 40
0.875
 40
1.0
 40
1.0
 40
1.0
 40
1.0
 10
232.9986885477074
 20
63.91831297173026
 30
0.0
 10
233.3138544915473
 20
63.69122498083439
 30
0.0
 10
233.6301301468133
 20
63.46137860578624
 30
0.0
 10
234.1089546353844
 20
63.10607000379711
 30
0.0
 10
234.2692746458084
 20
62.98593168960158
 30
0.0
 10
234.5123271817621
 20
62.79966285535777
 30
0.0
 10
234.5937706197787
 20
62.73656961413075
 30
0.0
 10
234.7584320688121
 20
62.6062243717186
 30
0.0
 10
234.8413380868783
 20
62.53969992974136
 30
0.0
 10
234.927356914963
 20
62.46590645841781
 30
0.0
  0
SPLINE
  5
25D
330
1F
100
AcDbEntity
  8
0
  6
Continuous
 62
     7
370
    15
100
AcDbSpline
210
0.0
220
0.0
230
1.0
 70
     8
 71
     3
 72
     8
 73
     4
 74
     0
 42
0.000000001
 43
0.00000001
 40
0.0
 40
0.0
 40
0.0
 40
0.0
 40
1.0
 40
1.0
 40
1.0
 40
1.0
 10
234.927356914963
 20
62.4659064584178
 30
0.0
 10
235.2290093882005
 20
62.20712610033598
 30
0.0
 10
235.5342889317239
 20
61.95955108493133
 30
0.0
 10
235.8389485048505
 20
61.71857822836483
 30
0.0
  0
SPLINE
  5
25E
330
1F
100
AcDbEntity
  8
0
  6
Continuous
 62
     7
370
    15
100
AcDbSpline
210
0.0
220
0.0
230
1.0
 70
     8
 71
     3
 72
    14
 73
    10
 74
     0
 42
0.000000001
 43
0.00000001
 40
0.0
 40
0.0
 40
0.0
 40
0.0
 40
0.1250000000000009
 40
0.1250000000000009
 40
0.2500000000000018
 40
0.2500000000000018
 40
0.5000000000000037
 40
0.5000000000000037
 40
1.0
 40
1.0
 40
1.0
 40
1.0
 10
235.8389485048506
 20
61.71857822836477
 30
0.0
 10
235.8581438807761
 20
61.70339549662857
 30
0.0
 10
235.8757559541765
 20
61.69202767813179
 30
0.0
 10
235.9016008840958
 20
61.68075920891934
 30
0.0
 10
235.9097392483434
 20
61.68037573868229
 30
0.0
 10
235.9266893393115
 20
61.68615153137667
 30
0.0
 10
235.9288586118213
 20
61.69881695699471
 30
0.0
 10
235.9276830640067
 20
61.74325378403847
 30
0.0
 10
235.9156095434025
 20
61.78373705481192
 30
0.0
 10
235.9008313153624
 20
61.82774072469441
 30
0.0
  0
SPLINE
  5
25F
330
1F
100
AcDbEntity
  8
0
  6
Continuous
 62
     7
370
    15
100
AcDbSpline
210
0.0
220
0.0
230
1.0
 70
     8
 71
     3
 72
    14
 73
    10
 74
     0
 42
0.000000001
 43
0.00000001
 40
0.0
 40
0.0
 40
0.0
 40
0.0
 40
0.25
 40
0.25
 40
0.5
 40
0.5
 40
0.75
 40
0.75
 40
1.0
 40
1.0
 40
1.0
 40
1.0
 10
235.9008313153617
 20
61.82774072469512
 30
0.0
 10
235.8827750684152
 20
61.88150502768188
 30
0.0
 10
235.879852270314
 20
61.92605563677893
 30
0.0
 10
235.8744385417707
 20
62.01831698662365
 30
0.0
 10
235.8728712637295
 20
62.0656113895439
 30
0.0
 10
235.8627328639224
 20
62.17037244437167
 30
0.0
 10
235.8544178661782
 20
62.22763365140669
 30
0.0
 10
235.8256176915193
 20
62.35725500878111
 30
0.0
 10
235.8049642948488
 20
62.43004920839416
 30
0.0
 10
235.7762747776877
 20
62.50973590735393
 30
0.0
  0
ARC
  5
260
330
1F
100
AcDbEntity
  8
0
  6
Continuous
 62
     7
370
    15
100
AcDbCircle
 10
246.131242055
 20
65.5962974053
 30
0.0
 40
10.80519362138012
100
AcDbArc
 50
163.4019732888
 51
196.5980267112
  0
SPLINE
  5
261
330
1F
100
AcDbEntity
  8
0
  6
Continuous
 62
     7
370
    15
100
AcDbSpline
210
0.0
220
0.0
230
1.0
 70
     8
 71
     3
 72
    14
 73
    10
 74
     0
 42
0.000000001
 43
0.00000001
 40
0.0
 40
0.0
 40
0.0
 40
0.0
 40
0.25
 40
0.25
 40
0.5
 40
0.5
 40
0.75
 40
0.75
 40
1.0
 40
1.0
 40
1.0
 40
1.0
 10
235.9008313153617
 20
70.14406391961809
 30
0.0
 10
235.8827750684152
 20
70.02322184067354
 30
0.0
 10
235.879852270314
 20
69.89812757410743
 30
0.0
 10
235.8744385417707
 20
69.65017626345607
 30
0.0
 10
235.8728712637295
 20
69.5262676391423
 30
0.0
 10
235.8627328639224
 20
69.2801118999021
 30
0.0
 10
235.8544178661782
 20
69.1578239580407
 30
0.0
 10
235.8256176915193
 20
68.9158267808319
 30
0.0
 10
235.8049642948488
 20
68.79566981365231
 30
0.0
 10
235.7762747776877
 20
68.68285890324705
 30
0.0
  0
SPLINE
  5
262
330
1F
100
AcDbEntity
  8
0
  6
Continuous
 62
     7
370
    15
100
AcDbSpline
210
0.0
220
0.0
230
1.0
 70
     8
 71
     3
 72
    14
 73
    10
 74
     0
 42
0.000000001
 43
0.00000001
 40
0.0
 40
0.0
 40
0.0
 40
0.0
 40
0.1250000000000006
 40
0.1250000000000006
 40
0.2500000000000012
 40
0.2500000000000012
 40
0.4999999999999997
 40
0.4999999999999997
 40
1.0
 40
1.0
 40
1.0
 40
1.0
 10
235.8389485048507
 20
70.6893494839121
 30
0.0
 10
235.8581438807762
 20
70.68706267593828
 30
0.0
 10
235.8757559541766
 20
70.67556443666545
 30
0.0
 10
235.9016008840958
 20
70.63887293413893
 30
0.0
 10
235.9097392483435
 20
70.61579151903686
 30
0.0
 10
235.9266893393115
 20
70.54445899995977
 30
0.0
 10
235.9288586118213
 20
70.49321489435171
 30
0.0
 10
235.9276830640067
 20
70.34317941459011
 30
0.0
 10
235.9156095434025
 20
70.24296773970704
 30
0.0
 10
235.9008313153624
 20
70.14406391961842
 30
0.0
  0
SPLINE
  5
263
330
1F
100
AcDbEntity
  8
0
  6
Continuous
 62
     7
370
    15
100
AcDbSpline
210
0.0
220
0.0
230
1.0
 70
     8
 71
     3
 72
     8
 73
     4
 74
     0
 42
0.000000001
 43
0.00000001
 40
0.0
 40
0.0
 40
0.0
 40
0.0
 40
1.0
 40
1.0
 40
1.0
 40
1.0
 10
234.927356914963
 20
70.74156229504817
 30
0.0
 10
235.2290093882006
 20
70.74890854219127
 30
0.0
 10
235.534288931724
 20
70.72564457622134
 30
0.0
 10
235.8389485048507
 20
70.6893494839121
 30
0.0
  0
SPLINE
  5
264
330
1F
100
AcDbEntity
  8
0
  6
Continuous
 62
     7
370
    15
100
AcDbSpline
210
0.0
220
0.0
230
1.0
 70
     8
 71
     3
 72
    14
 73
    10
 74
     0
 42
0.000000001
 43
0.00000001
 40
0.0
 40
0.0
 40
0.0
 40
0.0
 40
0.5
 40
0.5
 40
0.75
 40
0.75
 40
0.875
 40
0.875
 40
1.0
 40
1.0
 40
1.0
 40
1.0
 10
232.9986885477074
 20
71.37420164003318
 30
0.0
 10
233.3138544915473
 20
71.23681714630706
 30
0.0
 10
233.6301301468133
 20
71.1052436386759
 30
0.0
 10
234.1089546353844
 20
70.93034817215512
 30
0.0
 10
234.2692746458084
 20
70.8756770218906
 30
0.0
 10
234.5123271817621
 20
70.80664520617056
 30
0.0
 10
234.5937706197787
 20
70.78578292166176
 30
0.0
 10
234.7584320688121
 20
70.75297520823212
 30
0.0
 10
234.8413380868783
 20
70.73946744873948
 30
0.0
 10
234.927356914963
 20
70.74156229504815
 30
0.0
  0
SPLINE
  5
265
330
1F
100
AcDbEntity
  8
0
  6
Continuous
 62
     7
370
    15
100
AcDbSpline
210
0.0
220
0.0
230
1.0
 70
     8
 71
     3
 72
     8
 73
     4
 74
     0
 42
0.000000001
 43
0.00000001
 40
0.0000005163856998
 40
0.0000005163856998
 40
0.0000005163856998
 40
0.0000005163856998
 40
0.000026289209185
 40
0.000026289209185
 40
0.000026289209185
 40
0.000026289209185
 10
232.9986669606882
 20
71.38708075122435
 30
0.0
 10
232.9986646595289
 20
71.38278791619783
 30
0.0
 10
232.9986719058533
 20
71.37849484852231
 30
0.0
 10
232.9986885477074
 20
71.37420164003318
 30
0.0
  0
LINE
  5
266
330
1F
100
AcDbEntity
  8
0
  6
Continuous
 62
     7
370
    15
100
AcDbLine
 10
234.4811445437
 20
62.1664822038
 30
0.0
 11
234.4218023674
 21
62.2065825511
 31
0.0
  0
SPLINE
  5
267
330
1F
100
AcDbEntity
  8
0
  6
Continuous
 62
     7
370
    15
100
AcDbSpline
210
0.0
220
0.0
230
1.0
 70
     8
 71
     3
 72
     8
 73
     4
 74
     0
 42
0.000000001
 43
0.00000001
 40
0.0000005163857002
 40
0.0000005163857002
 40
0.0000005163857002
 40
0.0000005163857002
 40
0.0000262892091854
 40
0.0000262892091854
 40
0.0000262892091854
 40
0.0000262892091854
 10
232.9986669606882
 20
63.91360969936462
 30
0.0
 10
232.9986646595289
 20
63.91518308506232
 30
0.0
 10
232.9986719058533
 20
63.91675081499449
 30
0.0
 10
232.9986885477074
 20
63.91831297173026
 30
0.0
  0
SPLINE
  5
268
330
1F
100
AcDbEntity
  8
0
  6
Continuous
 62
     7
370
    15
100
AcDbSpline
210
0.0
220
0.0
230
1.0
 70
     8
 71
     3
 72
    18
 73
    14
 74
     0
 42
0.000000001
 43
0.00000001
 40
0.0
 40
0.0
 40
0.0
 40
0.0
 40
0.1240736993958644
 40
0.248824984030203
 40
0.373553500731543
 40
0.4975723329958918
 40
0.6205331621158251
 40
0.6823836612101453
 40
0.7434339811824556
 40
0.8043967769947551
 40
0.866639148486531
 40
0.990036140619957
 40
1.0
 40
1.0
 40
1.0
 40
1.0
 10
238.6875407484611
 20
62.04063027963737
 30
0.0
 10
238.5544932421575
 20
62.2855647464811
 30
0.0
 10
238.287671636995
 20
62.7767713043382
 30
0.0
 10
238.1629739237142
 20
63.52879304376101
 30
0.0
 10
238.2987964466516
 20
64.15348195651228
 30
0.0
 10
238.6658707529869
 20
64.57035039835598
 30
0.0
 10
239.108506505726
 20
64.66433561723194
 30
0.0
 10
239.4847373345959
 20
64.5823968488184
 30
0.0
 10
239.7669434567848
 20
64.44011706418412
 30
0.0
 10
240.0393874689
 20
64.22345437254945
 30
0.0
 10
240.3653249774692
 20
63.84554422858098
 30
0.0
 10
240.6159778194607
 20
63.47337088380717
 30
0.0
 10
240.7052141908347
 20
63.18962337057167
 30
0.0
 10
240.7118813547427
 20
63.16842359350644
 30
0.0
  0
SPLINE
  5
269
330
1F
100
AcDbEntity
  8
0
  6
Continuous
 62
     7
370
    15
100
AcDbSpline
210
0.0
220
0.0
230
1.0
 70
     8
 71
     3
 72
    13
 73
     9
 74
     0
 42
0.000000001
 43
0.00000001
 40
0.0
 40
0.0
 40
0.0
 40
0.0
 40
0.0371289980376836
 40
0.1989424436575844
 40
0.35808863298459
 40
0.5173534805728399
 40
0.6789173979355291
 40
1.0
 40
1.0
 40
1.0
 40
1.0
 10
240.3227979156551
 20
60.71091339215555
 30
0.0
 10
240.3073569718812
 20
60.70803430453927
 30
0.0
 10
240.2246222025877
 20
60.6926077442721
 30
0.0
 10
240.0263424919275
 20
60.77833116167997
 30
0.0
 10
239.7592981801178
 20
60.91412597604124
 30
0.0
 10
239.4761816279648
 20
61.12539486918946
 30
0.0
 10
239.0965489237887
 20
61.47332181677104
 30
0.0
 10
238.8509358596848
 20
61.81399561808341
 30
0.0
 10
238.6875407484611
 20
62.04063027963737
 30
0.0
  0
ARC
  5
26A
330
1F
100
AcDbEntity
  8
0
  6
Continuous
 62
     7
370
    15
100
AcDbCircle
 10
253.4721167394
 20
55.0974170404
 30
0.0
 40
6.580031787581795
100
AcDbArc
 50
198.0472350988
 51
217.4217961249
  0
SPLINE
  5
26B
330
1F
100
AcDbEntity
  8
0
  6
Continuous
 62
     7
370
    15
100
AcDbSpline
210
0.0
220
0.0
230
1.0
 70
     8
 71
     3
 72
     8
 73
     4
 74
     0
 42
0.000000001
 43
0.00000001
 40
0.0
 40
0.0
 40
0.0
 40
0.0
 40
1.0
 40
1.0
 40
1.0
 40
1.0
 10
245.7411371412497
 20
52.81253566084366
 30
0.0
 10
246.2329319400016
 20
52.89418594792541
 30
0.0
 10
246.7245120309043
 20
52.97626973541585
 30
0.0
 10
247.2158130599568
 20
53.05891695561974
 30
0.0
  0
LINE
  5
26C
330
1F
100
AcDbEntity
  8
0
  6
Continuous
 62
     7
370
    15
100
AcDbLine
 10
247.21581306
 20
53.0589169556
 30
0.0
 11
247.4609816643
 21
53.2004497783
 31
0.0
  0
SPLINE
  5
26D
330
1F
100
AcDbEntity
  8
0
  6
Continuous
 62
     7
370
    15
100
AcDbSpline
210
0.0
220
0.0
230
1.0
 70
     8
 71
     3
 72
    10
 73
     6
 74
     0
 42
0.000000001
 43
0.00000001
 40
0.0
 40
0.0
 40
0.0
 40
0.0
 40
0.5
 40
0.5
 40
1.0
 40
1.0
 40
1.0
 40
1.0
 10
247.460981664323
 20
53.20044977830951
 30
0.0
 10
247.4858139676749
 20
53.21478516189735
 30
0.0
 10
247.5134889651684
 20
53.22738060203345
 30
0.0
 10
247.5736139746229
 20
53.24857850017371
 30
0.0
 10
247.6053083748176
 20
53.25694066584038
 30
0.0
 10
247.6384903673993
 20
53.26305212091162
 30
0.0
  0
SPLINE
  5
26E
330
1F
100
AcDbEntity
  8
0
  6
Continuous
 62
     7
370
    15
100
AcDbSpline
210
0.0
220
0.0
230
1.0
 70
     8
 71
     3
 72
    12
 73
     8
 74
     0
 42
0.000000001
 43
0.00000001
 40
0.0
 40
0.0
 40
0.0
 40
0.0
 40
0.082600526018633
 40
0.3399693984942121
 40
0.5964964943676859
 40
0.8565512261769092
 40
1.0
 40
1.0
 40
1.0
 40
1.0
 10
239.7070637007558
 20
64.36231844631125
 30
0.0
 10
239.6933085630246
 20
64.31500278995478
 30
0.0
 10
239.6366948085352
 20
64.12025977794003
 30
0.0
 10
239.7147886173491
 20
63.68605933278862
 30
0.0
 10
239.9382375820128
 20
63.13793980583053
 30
0.0
 10
240.2426998085893
 20
62.6786278089787
 30
0.0
 10
240.471313436261
 20
62.46239468059791
 30
0.0
 10
240.5525874378768
 20
62.38552204704408
 30
0.0
  0
LINE
  5
26F
330
1F
100
AcDbEntity
  8
0
  6
Continuous
 62
     7
370
    15
100
AcDbLine
 10
267.3647272951
 20
74.3387668925
 30
0.0
 11
267.4597356104
 21
74.3598154139
 31
0.0
  0
LINE
  5
270
330
1F
100
AcDbEntity
  8
0
  6
Continuous
 62
     7
370
    15
100
AcDbLine
 10
267.4597356104
 20
74.3598154139
 30
0.0
 11
268.859123678
 21
73.551965878
 31
0.0
  0
SPLINE
  5
271
330
1F
100
AcDbEntity
  8
0
  6
Continuous
 62
     7
370
    15
100
AcDbSpline
210
0.0
220
0.0
230
1.0
 70
     8
 71
     3
 72
    12
 73
     8
 74
     0
 42
0.000000001
 43
0.00000001
 40
0.0
 40
0.0
 40
0.0
 40
0.0
 40
0.250000000000002
 40
0.250000000000002
 40
0.500000000000004
 40
0.500000000000004
 40
1.0
 40
1.0
 40
1.0
 40
1.0
 10
268.8591236780148
 20
73.55196587798791
 30
0.0
 10
268.8913676488874
 20
73.53335182981431
 30
0.0
 10
268.9134206514211
 20
73.5091015070169
 30
0.0
 10
268.934269595586
 20
73.45851364912936
 30
0.0
 10
268.9338884263587
 20
73.4316750806953
 30
0.0
 10
268.9081354934614
 20
73.35444096442647
 30
0.0
 10
268.8601840663528
 20
73.30765559359864
 30
0.0
 10
268.7962840172174
 20
73.27076688043117
 30
0.0
  0
SPLINE
  5
272
330
1F
100
AcDbEntity
  8
0
  6
Continuous
 62
     7
370
    15
100
AcDbSpline
210
0.0
220
0.0
230
1.0
 70
     8
 71
     3
 72
    12
 73
     8
 74
     0
 42
0.000000001
 43
0.00000001
 40
0.0
 40
0.0
 40
0.0
 40
0.0
 40
0.1947319512057551
 40
0.3743477087361288
 40
0.6874401280287558
 40
0.9675739048850349
 40
1.0
 40
1.0
 40
1.0
 40
1.0
 10
238.9788092033706
 20
62.22355418235918
 30
0.0
 10
239.0583625719287
 20
62.10915622500224
 30
0.0
 10
239.2112939273513
 20
61.88924052572694
 30
0.0
 10
239.5361616087209
 20
61.53527230247394
 30
0.0
 10
239.920621321487
 20
61.23194786955221
 30
0.0
 10
240.2123899791361
 20
61.066599992082
 30
0.0
 10
240.3344758947102
 20
61.04999737577276
 30
0.0
 10
240.347141530531
 20
61.04827496012099
 30
0.0
  0
SPLINE
  5
273
330
1F
100
AcDbEntity
  8
0
  6
Continuous
 62
     7
370
    15
100
AcDbSpline
210
0.0
220
0.0
230
1.0
 70
     8
 71
     3
 72
    16
 73
    12
 74
     0
 42
0.000000001
 43
0.00000001
 40
0.0
 40
0.0
 40
0.0
 40
0.0
 40
0.1460149097440288
 40
0.2335496506116393
 40
0.328285161093515
 40
0.4359413419875039
 40
0.5278786884716087
 40
0.6640997790107459
 40
0.8013217489075855
 40
0.8930409125757831
 40
1.0
 40
1.0
 40
1.0
 40
1.0
 10
239.9184082608179
 20
64.30553330464744
 30
0.0
 10
239.7715470910609
 20
64.37900355149232
 30
0.0
 10
239.5366438544992
 20
64.4965186087632
 30
0.0
 10
239.219792489993
 20
64.48654679576853
 30
0.0
 10
238.9666643025699
 20
64.39880977141604
 30
0.0
 10
238.757942396927
 20
64.21701645571416
 30
0.0
 10
238.5949125718066
 20
63.92515002343911
 30
0.0
 10
238.5178865069958
 20
63.51526574545589
 30
0.0
 10
238.5932875855499
 20
63.05069603046232
 30
0.0
 10
238.7520312263887
 20
62.60875130087168
 30
0.0
 10
238.8994472851455
 20
62.35835555340401
 30
0.0
 10
238.9788092033706
 20
62.22355418235918
 30
0.0
  0
SPLINE
  5
274
330
1F
100
AcDbEntity
  8
0
  6
Continuous
 62
     7
370
    15
100
AcDbSpline
210
0.0
220
0.0
230
1.0
 70
     8
 71
     3
 72
     9
 73
     5
 74
     0
 42
0.000000001
 43
0.00000001
 40
0.0
 40
0.0
 40
0.0
 40
0.0
 40
0.9936162604906068
 40
1.0
 40
1.0
 40
1.0
 40
1.0
 10
265.0612769039166
 20
75.74441615305851
 30
0.0
 10
265.0098761042233
 20
75.6657473255678
 30
0.0
 10
264.9581450670641
 20
75.58657307025533
 30
0.0
 10
264.9040452289339
 20
75.50793270183797
 30
0.0
 10
264.9036998696597
 20
75.50743068221108
 30
0.0
  0
LINE
  5
275
330
1F
100
AcDbEntity
  8
0
  6
Continuous
 62
     7
370
    15
100
AcDbLine
 10
234.790655286
 20
66.1208822391
 30
0.0
 11
235.3388272283
 21
65.8044293128
 31
0.0
  0
SPLINE
  5
276
330
1F
100
AcDbEntity
  8
0
  6
Continuous
 62
     7
370
    15
100
AcDbSpline
210
0.0
220
0.0
230
1.0
 70
     8
 71
     3
 72
     9
 73
     5
 74
     0
 42
0.000000001
 43
0.00000001
 40
0.0
 40
0.0
 40
0.0
 40
0.0
 40
0.7009329310329511
 40
1.0
 40
1.0
 40
1.0
 40
1.0
 10
233.0126334519911
 20
71.85067260571384
 30
0.0
 10
233.0095610698922
 20
71.90467678053886
 30
0.0
 10
233.0051777944561
 20
71.981722917814
 30
0.0
 10
233.0295889285995
 20
72.07135521319722
 30
0.0
 10
233.036889494938
 20
72.09816128106227
 30
0.0
  0
SPLINE
  5
277
330
1F
100
AcDbEntity
  8
0
  6
Continuous
 62
     7
370
    15
100
AcDbSpline
210
0.0
220
0.0
230
1.0
 70
     8
 71
     3
 72
    10
 73
     6
 74
     0
 42
0.000000001
 43
0.00000001
 40
0.0
 40
0.0
 40
0.0
 40
0.0
 40
0.5
 40
0.5
 40
1.0
 40
1.0
 40
1.0
 40
1.0
 10
233.0531258979063
 20
71.90302293034604
 30
0.0
 10
233.0331998474095
 20
71.81906245632803
 30
0.0
 10
233.0199055832687
 20
71.73361659381425
 30
0.0
 10
233.0026370571279
 20
71.56120312287695
 30
0.0
 10
232.9987136025059
 20
71.47409151661064
 30
0.0
 10
232.9986669606882
 20
71.38708075122435
 30
0.0
  0
SPLINE
  5
278
330
1F
100
AcDbEntity
  8
0
  6
Continuous
 62
     7
370
    15
100
AcDbSpline
210
0.0
220
0.0
230
1.0
 70
     8
 71
     3
 72
    24
 73
    20
 74
     0
 42
0.000000001
 43
0.00000001
 40
0.0
 40
0.0
 40
0.0
 40
0.0
 40
0.24999999999998
 40
0.24999999999998
 40
0.3749999999999705
 40
0.3749999999999705
 40
0.4374999999999656
 40
0.4374999999999656
 40
0.4687499999999649
 40
0.4687499999999649
 40
0.4999999999999643
 40
0.4999999999999643
 40
0.5624999999999676
 40
0.5624999999999676
 40
0.6249999999999709
 40
0.6249999999999709
 40
0.7499999999999798
 40
0.7499999999999798
 40
1.0
 40
1.0
 40
1.0
 40
1.0
 10
233.036889494938
 20
72.09816128106227
 30
0.0
 10
233.0667305242231
 20
72.20544033761851
 30
0.0
 10
233.0965600642641
 20
72.31132491098919
 30
0.0
 10
233.1412312211355
 20
72.46127295423946
 30
0.0
 10
233.1561840132272
 20
72.51027321700239
 30
0.0
 10
233.1777671515165
 20
72.57342349890514
 30
0.0
 10
233.1848968630462
 20
72.59306368313366
 30
0.0
 10
233.1937484883476
 20
72.61077361262166
 30
0.0
 10
233.1963865856175
 20
72.61448997910735
 30
0.0
 10
233.1995391236625
 20
72.61234163072515
 30
0.0
 10
233.1999190847993
 20
72.60617922165858
 30
0.0
 10
233.1979091595385
 20
72.57753413830584
 30
0.0
 10
233.1933325179401
 20
72.54923313331766
 30
0.0
 10
233.1834011318337
 20
72.49285412316836
 30
0.0
 10
233.1777109460987
 20
72.46338437521233
 30
0.0
 10
233.1601293454801
 20
72.37552995464598
 30
0.0
 10
233.1474484725518
 20
72.31630496159666
 30
0.0
 10
233.1082074089315
 20
72.13781165446687
 30
0.0
 10
233.080903948895
 20
72.02006862029316
 30
0.0
 10
233.0531258979063
 20
71.90302293034604
 30
0.0
  0
ARC
  5
279
330
1F
100
AcDbEntity
  8
0
  6
Continuous
 62
     7
370
    15
100
AcDbCircle
 10
233.7158039349
 20
71.3084134965
 30
0.0
 40
0.72012676552713
100
AcDbArc
 50
174.7583590299
 51
234.4349468916
  0
ARC
  5
27A
330
1F
100
AcDbEntity
  8
0
  6
Continuous
 62
     7
370
    15
100
AcDbCircle
 10
235.21113788
 20
63.8085171191
 30
0.0
 40
2.215172042338734
100
AcDbArc
 50
122.6235698331
 51
177.1589486026
  0
LINE
  5
27B
330
1F
100
AcDbEntity
  8
0
  6
Continuous
 62
     7
370
    15
100
AcDbLine
 10
234.0169003094
 20
65.6742029989
 30
0.0
 11
234.790655286
 21
66.1208822391
 31
0.0
  0
SPLINE
  5
27C
330
1F
100
AcDbEntity
  8
0
  6
Continuous
 62
     7
370
    15
100
AcDbSpline
210
0.0
220
0.0
230
1.0
 70
     8
 71
     3
 72
    10
 73
     6
 74
     0
 42
0.000000001
 43
0.00000001
 40
0.0
 40
0.0
 40
0.0
 40
0.0
 40
0.5
 40
0.5
 40
1.0
 40
1.0
 40
1.0
 40
1.0
 10
233.0531258979063
 20
63.71836731464206
 30
0.0
 10
233.0331998474095
 20
63.75688887615874
 30
0.0
 10
233.0199055832687
 20
63.78885220335255
 30
0.0
 10
233.0026370571279
 20
63.85129562685098
 30
0.0
 10
232.9987136025059
 20
63.88171900406403
 30
0.0
 10
232.9986669606882
 20
63.91360969936461
 30
0.0
  0
LINE
  5
27D
330
1F
100
AcDbEntity
  8
0
  6
Continuous
 62
     7
370
    15
100
AcDbLine
 10
233.0090335266
 20
64.5154798758
 30
0.0
 11
233.012633452
 21
64.3798429936
 31
0.0
  0
ARC
  5
27E
330
1F
100
AcDbEntity
  8
0
  6
Continuous
 62
     7
370
    15
100
AcDbCircle
 10
234.3457591253
 20
64.303174734
 30
0.0
 40
1.35348025455734
100
AcDbArc
 50
122.9135798094
 51
170.9753897871
  0
LINE
  5
27F
330
1F
100
AcDbEntity
  8
0
  6
Continuous
 62
     7
370
    15
100
AcDbLine
 10
234.0169003094
 20
65.6742029989
 30
0.0
 11
233.6103139102
 21
65.4394093642
 31
0.0
  0
LINE
  5
280
330
1F
100
AcDbEntity
  8
0
  6
Continuous
 62
     7
370
    15
100
AcDbLine
 10
233.1083197908
 20
63.6225836532
 30
0.0
 11
233.0531258979
 21
63.7183673146
 31
0.0
  0
LWPOLYLINE
  5
281
330
1F
100
AcDbEntity
  8
0
  6
Continuous
 62
     7
370
     0
100
AcDbPolyline
 90
       28
 70
   128
 43
0.0
 10
253.723966301
 20
49.505656359
 10
253.7663174117
 20
50.7281069529
 10
253.8930889041
 20
51.9913198914
 10
254.1034371348
 20
53.2868887008
 10
254.3959622711
 20
54.6061915844
 10
254.7687176064
 20
55.9404487991
 10
255.2192225156
 20
57.2807810834
 10
255.7444789627
 20
58.6182687471
 10
256.3409914527
 20
59.9440110303
 10
257.0047902935
 20
61.249185337
 10
257.7314580133
 20
62.5251059475
 10
258.5161587583
 20
63.7632818206
 10
259.3536704745
 20
64.9554731002
 10
260.2384196596
 20
66.09374595
 10
261.1645184538
 20
67.170525352
 10
262.1258038224
 20
68.1786455169
 10
263.1158785698
 20
69.1113975713
 10
264.128153912
 20
69.9625742043
 10
265.1558933236
 20
70.7265109758
 10
266.1922573683
 20
71.3981240125
 10
267.2303492145
 20
71.9729438406
 10
268.2632605321
 20
72.4471451289
 10
269.2841174668
 20
72.8175721461
 10
270.2861263841
 20
73.0817597616
 10
271.26261908
 20
73.2379498502
 10
272.2070971566
 20
73.2851029928
 10
273.1132752683
 20
73.2229053929
 10
273.8633491913
 20
73.0807573698
  0
LWPOLYLINE
  5
282
330
1F
100
AcDbEntity
  8
0
  6
Continuous
 62
     7
370
     0
100
AcDbPolyline
 90
        9
 70
   128
 43
0.0
 10
256.0433341577
 20
42.3854568507
 10
255.7444789627
 20
42.7258782342
 10
255.2192225156
 20
43.4569177127
 10
254.7687176064
 20
44.2771081004
 10
254.3959622711
 20
45.1809911658
 10
254.1034371348
 20
46.162551716
 10
253.8930889041
 20
47.2152576277
 10
253.7663174117
 20
48.3321033166
 10
253.723966301
 20
49.505656359
  0
LWPOLYLINE
  5
283
330
1F
100
AcDbEntity
  8
0
  6
Continuous
 62
     7
370
     0
100
AcDbPolyline
 90
       25
 70
   128
 43
0.0
 10
251.5849682879
 20
54.8225141872
 10
251.6265921332
 20
55.8555659257
 10
251.7510867172
 20
56.9273200565
 10
251.9573245975
 20
58.0280706083
 10
252.243438052
 20
59.1478490136
 10
252.606835993
 20
60.2765143858
 10
253.0442274325
 20
61.4038453564
 10
253.5516512857
 20
62.5196326417
 10
254.1245122438
 20
63.6137714992
 10
254.7576223892
 20
64.6763532379
 10
255.4452481784
 20
65.6977549531
 10
256.1811623657
 20
66.6687266728
 10
256.9587003983
 20
67.5804751266
 10
257.7708207713
 20
68.4247433794
 10
258.6101687971
 20
69.1938856071
 10
259.4691432097
 20
69.8809363386
 10
260.3399650039
 20
70.479673536
 10
261.2147478828
 20
70.9846749428
 10
262.085569677
 20
71.3913671877
 10
262.9445440897
 20
71.6960672031
 10
263.7838921154
 20
71.8960155782
 10
264.5960124885
 20
71.9894015496
 10
265.3735505211
 20
71.9753793996
 10
266.1094647084
 20
71.854076115
 10
266.4774931776
 20
71.7475767218
  0
LWPOLYLINE
  5
284
330
1F
100
AcDbEntity
  8
0
  6
Continuous
 62
     7
370
     0
100
AcDbPolyline
 90
        8
 70
   128
 43
0.0
 10
253.550299762
 20
49.3972844353
 10
253.0442274325
 20
49.9260077638
 10
252.606835993
 20
50.5483373277
 10
252.243438052
 20
51.257432368
 10
251.9573245975
 20
52.0468712102
 10
251.7510867172
 20
52.9095045738
 10
251.6265921332
 20
53.8375203176
 10
251.5849682879
 20
54.8225141872
  0
LWPOLYLINE
  5
285
330
1F
100
AcDbEntity
  8
0
  6
Continuous
 62
     7
370
     0
100
AcDbPolyline
 90
       23
 70
   128
 43
0.0
 10
249.9726667509
 20
57.9743900311
 10
250.29962601
 20
59.2291862378
 10
250.7079469696
 20
60.4928552691
 10
251.1943482087
 20
61.7552418044
 10
251.7549208236
 20
63.0062008303
 10
252.3851598417
 20
64.2356791685
 10
253.0800004247
 20
65.4337962682
 10
253.8338585722
 20
66.5909236088
 10
254.6406759959
 20
67.6977620794
 10
255.4939688071
 20
68.7454167088
 10
256.3868796234
 20
69.72546815
 10
257.3122326771
 20
70.6300403402
 10
258.2625914824
 20
71.4518637968
 10
259.2303185981
 20
72.1843340366
 10
260.2076370044
 20
72.8215646531
 10
261.1866926025
 20
73.3584346209
 10
262.1596173329
 20
73.7906294508
 10
263.1185924057
 20
74.1146758621
 10
264.0559111363
 20
74.3279696961
 10
264.964040878
 20
74.4287968429
 10
265.8356835583
 20
74.4163470178
 10
266.6638343281
 20
74.2907202721
 10
267.441837856
 20
74.0529261898
  0
LWPOLYLINE
  5
286
330
1F
100
AcDbEntity
  8
0
  6
Continuous
 62
     7
370
     0
100
AcDbPolyline
 90
       23
 70
   128
 43
0.0
 10
249.5389839153
 20
57.9689526927
 10
249.8649468866
 20
59.2406186473
 10
250.2732141537
 20
60.5219503565
 10
250.7605381042
 20
61.8027553089
 10
251.3230422594
 20
63.0728451834
 10
251.9562521105
 20
64.3221168929
 10
252.6551307116
 20
65.5406329514
 10
253.4141187464
 20
66.7187005221
 10
254.2271787509
 20
67.8469485212
 10
255.0878431386
 20
68.9164021603
 10
255.9892656485
 20
69.9185543384
 10
256.9242758037
 20
70.8454333121
 10
257.8854359503
 20
71.6896661081
 10
258.8651004214
 20
72.4445371722
 10
259.8554763546
 20
73.1040417894
 10
260.8486856823
 20
73.6629338485
 10
261.8368277982
 20
74.1167675737
 10
262.8120424036
 20
74.4619328886
 10
263.7665720334
 20
74.6956841329
 10
264.6928237638
 20
74.8161619034
 10
265.5834296109
 20
74.822407845
 10
266.4313051404
 20
74.7143722734
 10
267.2297058217
 20
74.492914571
  0
LWPOLYLINE
  5
287
330
1F
100
AcDbEntity
  8
0
  6
Continuous
 62
     7
370
     0
100
AcDbPolyline
 90
       24
 70
   128
 43
0.0
 10
251.0899935411
 20
57.2559445879
 10
251.3183652671
 20
58.3867749191
 10
251.6267314018
 20
59.5347058711
 10
252.0123828424
 20
60.6896524748
 10
252.4719315081
 20
61.8414681264
 10
253.0013401055
 20
62.9800337285
 10
253.5959575977
 20
64.0953465898
 10
254.2505600651
 20
65.1776083026
 10
254.9593965995
 20
66.2173108247
 10
255.7162398275
 20
67.2053200113
 10
256.5144406207
 20
68.1329558611
 10
257.3469865101
 20
68.9920687736
 10
258.206563293
 20
69.7751111457
 10
259.0856192913
 20
70.4752036804
 10
259.9764316951
 20
71.0861958236
 10
260.8711744104
 20
71.6027197986
 10
261.7619868142
 20
72.0202377644
 10
262.6410428125
 20
72.3350816818
 10
263.5006195954
 20
72.5444855384
 10
264.3331654848
 20
72.6466096493
 10
265.131366278
 20
72.6405568189
 10
265.8882095061
 20
72.5263802234
 10
266.5970460404
 20
72.3050829436
 10
267.0758693837
 20
72.0795486506
  0
LWPOLYLINE
  5
288
330
1F
100
AcDbEntity
  8
0
  6
Continuous
 62
     7
370
     0
100
AcDbPolyline
 90
        3
 70
   128
 43
0.0
 10
268.7962840172
 20
73.2707668804
 10
269.165930451
 20
72.9458015569
 10
269.1913246759
 20
72.9211749702
  0
LINE
  5
289
330
1F
100
AcDbEntity
  8
0
  6
Continuous
 62
     7
370
     0
100
AcDbLine
 10
269.6869018863
 20
38.7174675134
 30
0.0
 11
271.2071814659
 21
37.8398287931
 31
0.0
  0
ARC
  5
28A
330
1F
100
AcDbEntity
  8
0
  6
Continuous
 62
     7
370
     0
100
AcDbCircle
 10
256.8517375965
 20
53.5234337897
 30
0.0
 40
5.829989362062427
100
AcDbArc
 50
188.7753552484
 51
235.9333742707
  0
LWPOLYLINE
  5
28B
330
1F
100
AcDbEntity
  8
0
  6
Continuous
 62
     7
370
     0
100
AcDbPolyline
 90
       28
 70
   128
 43
0.0
 10
240.2182267804
 20
59.1392720785
 10
240.2606061682
 20
60.2846051582
 10
240.387421799
 20
61.4701517613
 10
240.5977085293
 20
62.6868891623
 10
240.8898659499
 20
63.9255572548
 10
241.2616705667
 20
65.1767290269
 10
241.7102927218
 20
66.4308823057
 10
242.23231813
 20
67.6784722276
 10
242.8237738624
 20
68.91000388
 10
243.4801585841
 20
70.1161045633
 10
244.1964768107
 20
71.2875951231
 10
244.9672769282
 20
72.4155598089
 10
245.7866926822
 20
73.4914141283
 10
246.6484878241
 20
74.5069701804
 10
247.5461035723
 20
75.4544989703
 10
248.4727085293
 20
76.3267892319
 10
249.4212506715
 20
77.1172023095
 10
250.3845110208
 20
77.8197226824
 10
251.3551585841
 20
78.4290037463
 10
252.3258061473
 20
78.9404085045
 10
253.2890664966
 20
79.3500448579
 10
254.2376086389
 20
79.6547952265
 10
255.1642135958
 20
79.8523402761
 10
256.0618293441
 20
79.9411765695
 10
256.9236244859
 20
79.9206280089
 10
257.7430402399
 20
79.7908509813
 10
258.5138403574
 20
79.5528331681
 10
259.2295186036
 20
79.2087555416
  0
LWPOLYLINE
  5
28C
330
1F
100
AcDbEntity
  8
0
  6
Continuous
 62
     7
370
     0
100
AcDbPolyline
 90
       11
 70
   128
 43
0.0
 10
243.4807985645
 20
51.9282163766
 10
243.4801585841
 20
51.9285858895
 10
242.8237738624
 20
52.3768409045
 10
242.23231813
 20
52.9254923036
 10
241.7102927218
 20
53.5703645185
 10
241.2616705667
 20
54.3065496823
 10
240.8898659499
 20
55.1284449812
 10
240.5977085293
 20
56.0297952959
 10
240.387421799
 20
57.0037408061
 10
240.2606061682
 20
58.0428691985
 10
240.2182267804
 20
59.1392720785
  0
LWPOLYLINE
  5
28D
330
1F
100
AcDbEntity
  8
0
  6
Continuous
 62
     7
370
     0
100
AcDbPolyline
 90
       17
 70
   128
 43
0.0
 10
247.8867998223
 20
59.9011721218
 10
248.1861298855
 20
61.0882683042
 10
248.5679075305
 20
62.285349706
 10
249.0286487
 20
63.481491905
 10
249.5641487251
 20
64.6657790504
 10
250.1695206963
 20
65.8274034788
 10
250.8392400614
 20
66.9557643443
 10
251.5671950413
 20
68.0405643602
 10
252.3467424056
 20
69.0719037709
 10
253.1707680982
 20
70.0403706961
 10
254.0317521588
 20
70.9371270221
 10
254.9218373495
 20
71.7539890576
 10
255.8329008592
 20
72.4835022172
 10
256.756628431
 20
73.1190090507
 10
257.684590237
 20
73.6547099987
 10
258.6083178087
 20
74.0857163181
 10
259.0328629763
 20
74.2489128812
  0
LWPOLYLINE
  5
28E
330
1F
100
AcDbEntity
  8
0
  6
Continuous
 62
     7
370
     0
100
AcDbPolyline
 90
       20
 70
   128
 43
0.0
 10
247.4609816643
 20
60.5493170853
 10
247.7935918545
 20
61.7316980266
 10
248.2036283477
 20
62.919278022
 10
248.6876192494
 20
64.1020014973
 10
249.2414664722
 20
65.2698539996
 10
249.8604804359
 20
66.4129469931
 10
250.5394197749
 20
67.5216015872
 10
251.2725357185
 20
68.5864304915
 10
252.0536207677
 20
69.5984174996
 10
252.8760612552
 20
70.5489938327
 10
253.732893346
 20
71.4301106931
 10
254.6168620014
 20
72.2343074163
 10
255.5204824098
 20
72.9547746421
 10
256.4361033627
 20
73.5854119716
 10
257.3559720398
 20
74.120879621
 10
258.2722996537
 20
74.5566436349
 10
259.1773274007
 20
74.8890142766
 10
260.0633921559
 20
75.1151772704
 10
260.9229913594
 20
75.2332176304
 10
261.3522591322
 20
75.2514586524
  0
LINE
  5
28F
330
1F
100
AcDbEntity
  8
0
  6
Continuous
 62
     7
370
     0
100
AcDbLine
 10
241.8678634199
 20
58.6017085858
 30
0.0
 11
243.6653723387
 21
59.639388397
 31
0.0
  0
ARC
  5
290
330
1F
100
AcDbEntity
  8
0
  6
Continuous
 62
     7
370
     0
100
AcDbCircle
 10
255.6268255919
 20
52.0071141481
 30
0.0
 40
5.820507457404818
100
AcDbArc
 50
193.7311401484
 51
253.0194701507
  0
ARC
  5
291
330
1F
100
AcDbEntity
  8
0
  6
Continuous
 62
     7
370
     0
100
AcDbCircle
 10
256.908931834
 20
52.7845131899
 30
0.0
 40
7.681203033547161
100
AcDbArc
 50
196.3666125854
 51
211.2142888388
  0
LWPOLYLINE
  5
292
330
1F
100
AcDbEntity
  8
0
  6
Continuous
 62
     7
370
     0
100
AcDbPolyline
 90
       20
 70
   128
 43
0.0
 10
232.9986669607
 20
71.3870807512
 10
233.3792776829
 20
72.4805207862
 10
233.8372421543
 20
73.5676281217
 10
234.3674956406
 20
74.6363801873
 10
234.9641739463
 20
75.6749574079
 10
235.6206782687
 20
76.6718739189
 10
236.3297481753
 20
77.6161045911
 10
237.0835418988
 20
78.4972069602
 10
237.8737230609
 20
79.3054367121
 10
238.6915528661
 20
80.031855448
 10
239.5279867464
 20
80.6684295359
 10
240.3737743869
 20
81.2081189563
 10
241.2195620275
 20
81.6449551597
 10
242.0559959078
 20
81.974107074
 10
242.873825713
 20
82.1919345323
 10
243.664006875
 20
82.2960285308
 10
244.4178005985
 20
82.2852378698
 10
245.1268705051
 20
82.1596818857
 10
245.7833748275
 20
81.9207491312
 10
245.8628423569
 20
81.8822973422
  0
ARC
  5
293
330
1F
100
AcDbEntity
  8
0
  6
Continuous
 62
     7
370
     0
100
AcDbCircle
 10
236.8862721947
 20
65.7079341914
 30
0.0
 40
4.281714007076646
100
AcDbArc
 50
204.775689175
 51
234.8597255408
  0
LINE
  5
294
330
1F
100
AcDbEntity
  8
0
  6
Continuous
 62
     7
370
     0
100
AcDbLine
 10
241.8678634199
 20
57.7851677739
 30
0.0
 11
243.6653723387
 21
58.8228475851
 31
0.0
  0
LINE
  5
295
330
1F
100
AcDbEntity
  8
0
  6
Continuous
 62
     7
370
     0
100
AcDbLine
 10
245.154921872
 20
53.1509505324
 30
0.0
 11
246.4937994634
 21
53.9238681139
 31
0.0
  0
LINE
  5
296
330
1F
100
AcDbEntity
  8
0
  6
Continuous
 62
     7
370
     0
100
AcDbLine
 10
282.9805093726
 20
46.3917037645
 30
0.0
 11
284.5007889522
 21
45.5140650443
 31
0.0
  0
LINE
  5
297
330
1F
100
AcDbEntity
  8
0
  6
Continuous
 62
     7
370
     0
100
AcDbLine
 10
248.8530662063
 20
52.6874437804
 30
0.0
 11
248.6716883495
 21
53.2340009307
 31
0.0
  0
LWPOLYLINE
  5
298
330
1F
100
AcDbEntity
  8
0
  6
Continuous
 62
     7
370
     0
100
AcDbPolyline
 90
        3
 70
   128
 43
0.0
 10
248.475557537
 20
52.2506547076
 10
248.1861298855
 20
52.845610385
 10
247.8867998223
 20
53.6871074328
  0
ARC
  5
299
330
1F
100
AcDbEntity
  8
0
  6
Continuous
 62
     7
370
     0
100
AcDbCircle
 10
253.6131343639
 20
55.2833612624
 30
0.0
 40
6.495190766211472
100
AcDbArc
 50
198.7043673174
 51
214.1498074183
  0
LINE
  5
29A
330
1F
100
AcDbEntity
  8
0
  6
Continuous
 62
     7
370
     0
100
AcDbLine
 10
264.2083481501
 20
76.2368014419
 30
0.0
 11
263.6673591722
 21
75.9244951526
 31
0.0
  0
ARC
  5
29B
330
1F
100
AcDbEntity
  8
0
  6
Continuous
 62
     7
370
     0
100
AcDbCircle
 10
236.7611046897
 20
69.8909901398
 30
0.0
 40
1.102095792745589
100
AcDbArc
 50
159.4111972489
 51
213.1915491986
  0
ARC
  5
29C
330
1F
100
AcDbEntity
  8
0
  6
Continuous
 62
     7
370
     0
100
AcDbCircle
 10
235.4292938809
 20
69.7195053171
 30
0.0
 40
0.6345057597355941
100
AcDbArc
 50
41.9989524423
 51
61.7721687694
  0
LINE
  5
29D
330
1F
100
AcDbEntity
  8
0
  6
Continuous
 62
     7
370
     0
100
AcDbLine
 10
235.7294016532
 20
70.2785517231
 30
0.0
 11
235.8389485049
 21
70.6893494839
 31
0.0
  0
LINE
  5
29E
330
1F
100
AcDbEntity
  8
0
  6
Continuous
 62
     7
370
     0
100
AcDbLine
 10
235.7294016532
 20
70.2785517231
 30
0.0
 11
234.927356915
 21
70.741562295
 31
0.0
  0
LINE
  5
29F
330
1F
100
AcDbEntity
  8
0
  6
Continuous
 62
     7
370
     0
100
AcDbLine
 10
233.0531258979
 20
71.9030229303
 30
0.0
 11
233.0368894949
 21
72.0981612811
 31
0.0
  0
ARC
  5
2A0
330
1F
100
AcDbEntity
  8
0
  6
Continuous
 62
     7
370
     0
100
AcDbCircle
 10
235.5194416718
 20
61.6259324108
 30
0.0
 40
0.4314912001455269
100
AcDbArc
 50
27.8850837497
 51
60.8831993912
  0
ARC
  5
2A1
330
1F
100
AcDbEntity
  8
0
  6
Continuous
 62
     7
370
     0
100
AcDbCircle
 10
236.9691403485
 20
62.3979906065
 30
0.0
 40
1.301173266866269
100
AcDbArc
 50
165.9701785416
 51
197.6766607319
  0
LINE
  5
2A2
330
1F
100
AcDbEntity
  8
0
  6
Continuous
 62
     7
370
     0
100
AcDbLine
 10
235.3376304875
 20
64.9117616961
 30
0.0
 11
234.0169003094
 21
65.6742029989
 31
0.0
  0
LINE
  5
2A3
330
1F
100
AcDbEntity
  8
0
  6
Continuous
 62
     7
370
     0
100
AcDbLine
 10
235.7294016532
 20
62.0028958865
 30
0.0
 11
234.927356915
 21
62.4659064584
 31
0.0
  0
LINE
  5
2A4
330
1F
100
AcDbEntity
  8
0
  6
Continuous
 62
     7
370
     0
100
AcDbLine
 10
235.7294016532
 20
62.0028958865
 30
0.0
 11
235.8389485049
 21
61.7185782284
 31
0.0
  0
OLE2FRAME
  5
2A5
330
1F
100
AcDbEntity
  8
0
100
AcDbOle2Frame
 70
     2
  3
Paintbrush-Bild
 10
13.8511154363
 20
38.264191557
 30
0.0
 11
51.6290888628
 21
31.9806341108
 31
0.0
 71
     2
 72
     0
 73
     1
 90
    12928
310
80552BED0767C5B32B40DDAF6807D121434000000000000000006FFBDDFB85D0
310
4940DDAF6807D121434000000000000000006FFBDDFB85D04940416F4BD60AFB
310
3F4000000000000000002BED0767C5B32B40416F4BD60AFB3F40000000000000
310
0000000000000100000000010000010000000100000000000100000000320000
310
D0CF11E0A1B11AE1000000000000000000000000000000003E000300FEFF0900
310
0600000000000000000000000100000001000000000000000010000002000000
310
01000000FEFFFFFF0000000000000000FFFFFFFFFFFFFFFFFFFFFFFFFFFFFFFF
310
FFFFFFFFFFFFFFFFFFFFFFFFFFFFFFFFFFFFFFFFFFFFFFFFFFFFFFFFFFFFFFFF
310
FFFFFFFFFFFFFFFFFFFFFFFFFFFFFFFFFFFFFFFFFFFFFFFFFFFFFFFFFFFFFFFF
310
FFFFFFFFFFFFFFFFFFFFFFFFFFFFFFFFFFFFFFFFFFFFFFFFFFFFFFFFFFFFFFFF
310
FFFFFFFFFFFFFFFFFFFFFFFFFFFFFFFFFFFFFFFFFFFFFFFFFFFFFFFFFFFFFFFF
310
FFFFFFFFFFFFFFFFFFFFFFFFFFFFFFFFFFFFFFFFFFFFFFFFFFFFFFFFFFFFFFFF
310
FFFFFFFFFFFFFFFFFFFFFFFFFFFFFFFFFFFFFFFFFFFFFFFFFFFFFFFFFFFFFFFF
310
FFFFFFFFFFFFFFFFFFFFFFFFFFFFFFFFFFFFFFFFFFFFFFFFFFFFFFFFFFFFFFFF
310
FFFFFFFFFFFFFFFFFFFFFFFFFFFFFFFFFFFFFFFFFFFFFFFFFFFFFFFFFFFFFFFF
310
FFFFFFFFFFFFFFFFFFFFFFFFFFFFFFFFFFFFFFFFFFFFFFFFFFFFFFFFFFFFFFFF
310
FFFFFFFFFFFFFFFFFFFFFFFFFFFFFFFFFFFFFFFFFFFFFFFFFFFFFFFFFFFFFFFF
310
FFFFFFFFFFFFFFFFFFFFFFFFFFFFFFFFFFFFFFFFFFFFFFFFFFFFFFFFFFFFFFFF
310
FFFFFFFFFFFFFFFFFFFFFFFFFFFFFFFFFFFFFFFFFFFFFFFFFFFFFFFFFFFFFFFF
310
FFFFFFFFFFFFFFFFFFFFFFFFFFFFFFFFFFFFFFFFFFFFFFFFFFFFFFFFFFFFFFFF
310
FDFFFFFFFEFFFFFFFEFFFFFFFEFFFFFF05000000060000000700000008000000
310
090000000A0000000B0000000C0000000D0000000E0000000F00000010000000
310
11000000120000001300000014000000150000001600000017000000FEFFFFFF
310
FFFFFFFFFFFFFFFFFFFFFFFFFFFFFFFFFFFFFFFFFFFFFFFFFFFFFFFFFFFFFFFF
310
FFFFFFFFFFFFFFFFFFFFFFFFFFFFFFFFFFFFFFFFFFFFFFFFFFFFFFFFFFFFFFFF
310
FFFFFFFFFFFFFFFFFFFFFFFFFFFFFFFFFFFFFFFFFFFFFFFFFFFFFFFFFFFFFFFF
310
FFFFFFFFFFFFFFFFFFFFFFFFFFFFFFFFFFFFFFFFFFFFFFFFFFFFFFFFFFFFFFFF
310
FFFFFFFFFFFFFFFFFFFFFFFFFFFFFFFFFFFFFFFFFFFFFFFFFFFFFFFFFFFFFFFF
310
FFFFFFFFFFFFFFFFFFFFFFFFFFFFFFFFFFFFFFFFFFFFFFFFFFFFFFFFFFFFFFFF
310
FFFFFFFFFFFFFFFFFFFFFFFFFFFFFFFFFFFFFFFFFFFFFFFFFFFFFFFFFFFFFFFF
310
FFFFFFFFFFFFFFFFFFFFFFFFFFFFFFFFFFFFFFFFFFFFFFFFFFFFFFFFFFFFFFFF
310
FFFFFFFFFFFFFFFFFFFFFFFFFFFFFFFFFFFFFFFFFFFFFFFFFFFFFFFFFFFFFFFF
310
FFFFFFFFFFFFFFFFFFFFFFFFFFFFFFFFFFFFFFFFFFFFFFFFFFFFFFFFFFFFFFFF
310
FFFFFFFFFFFFFFFFFFFFFFFFFFFFFFFFFFFFFFFFFFFFFFFFFFFFFFFFFFFFFFFF
310
FFFFFFFFFFFFFFFFFFFFFFFFFFFFFFFFFFFFFFFFFFFFFFFFFFFFFFFFFFFFFFFF
310
FFFFFFFFFFFFFFFFFFFFFFFFFFFFFFFFFFFFFFFFFFFFFFFFFFFFFFFFFFFFFFFF
310
52006F006F007400200045006E00740072007900000000000000000000000000
310
0000000000000000000000000000000000000000000000000000000000000000
310
16000500FFFFFFFFFFFFFFFF020000000A00030000000000C000000000000046
310
00000000000000000000000020EC150F8E03D20103000000C000000000000000
310
01004F006C006500000000000000000000000000000000000000000000000000
310
0000000000000000000000000000000000000000000000000000000000000000
310
0A000200FFFFFFFFFFFFFFFFFFFFFFFF00000000000000000000000000000000
310
0000000000000000000000000000000000000000000000001400000000000000
310
010043006F006D0070004F0062006A0000000000000000000000000000000000
310
0000000000000000000000000000000000000000000000000000000000000000
310
120002010100000003000000FFFFFFFF00000000000000000000000000000000
310
0000000000000000000000000000000000000000010000004D00000000000000
310
01004F006C006500310030004E00610074006900760065000000000000000000
310
0000000000000000000000000000000000000000000000000000000000000000
310
1A000200FFFFFFFFFFFFFFFFFFFFFFFF00000000000000000000000000000000
310
0000000000000000000000000000000000000000040000002426000000000000
310
FEFFFFFF02000000FEFFFFFFFFFFFFFFFFFFFFFFFFFFFFFFFFFFFFFFFFFFFFFF
310
FFFFFFFFFFFFFFFFFFFFFFFFFFFFFFFFFFFFFFFFFFFFFFFFFFFFFFFFFFFFFFFF
310
FFFFFFFFFFFFFFFFFFFFFFFFFFFFFFFFFFFFFFFFFFFFFFFFFFFFFFFFFFFFFFFF
310
FFFFFFFFFFFFFFFFFFFFFFFFFFFFFFFFFFFFFFFFFFFFFFFFFFFFFFFFFFFFFFFF
310
FFFFFFFFFFFFFFFFFFFFFFFFFFFFFFFFFFFFFFFFFFFFFFFFFFFFFFFFFFFFFFFF
310
FFFFFFFFFFFFFFFFFFFFFFFFFFFFFFFFFFFFFFFFFFFFFFFFFFFFFFFFFFFFFFFF
310
FFFFFFFFFFFFFFFFFFFFFFFFFFFFFFFFFFFFFFFFFFFFFFFFFFFFFFFFFFFFFFFF
310
FFFFFFFFFFFFFFFFFFFFFFFFFFFFFFFFFFFFFFFFFFFFFFFFFFFFFFFFFFFFFFFF
310
FFFFFFFFFFFFFFFFFFFFFFFFFFFFFFFFFFFFFFFFFFFFFFFFFFFFFFFFFFFFFFFF
310
FFFFFFFFFFFFFFFFFFFFFFFFFFFFFFFFFFFFFFFFFFFFFFFFFFFFFFFFFFFFFFFF
310
FFFFFFFFFFFFFFFFFFFFFFFFFFFFFFFFFFFFFFFFFFFFFFFFFFFFFFFFFFFFFFFF
310
FFFFFFFFFFFFFFFFFFFFFFFFFFFFFFFFFFFFFFFFFFFFFFFFFFFFFFFFFFFFFFFF
310
FFFFFFFFFFFFFFFFFFFFFFFFFFFFFFFFFFFFFFFFFFFFFFFFFFFFFFFFFFFFFFFF
310
FFFFFFFFFFFFFFFFFFFFFFFFFFFFFFFFFFFFFFFFFFFFFFFFFFFFFFFFFFFFFFFF
310
FFFFFFFFFFFFFFFFFFFFFFFFFFFFFFFFFFFFFFFFFFFFFFFFFFFFFFFFFFFFFFFF
310
FFFFFFFFFFFFFFFFFFFFFFFFFFFFFFFFFFFFFFFFFFFFFFFFFFFFFFFFFFFFFFFF
310
0100000200000000000000000000000000000000000000000000000000000000
310
0000000000000000000000000000000000000000000000000000000000000000
310
0100FEFF030A0000FFFFFFFF0A00030000000000C00000000000004607000000
310
5042727573680007000000504272757368000700000050427275736800F439B2
310
7100000000000000000000000000000000000000000000000000000000000000
310
0000000000000000000000000000000000000000000000000000000000000000
310
0000000000000000000000000000000000000000000000000000000000000000
310
0000000000000000000000000000000000000000000000000000000000000000
310
0000000000000000000000000000000000000000000000000000000000000000
310
0000000000000000000000000000000000000000000000000000000000000000
310
0000000000000000000000000000000000000000000000000000000000000000
310
0000000000000000000000000000000000000000000000000000000000000000
310
0000000000000000000000000000000000000000000000000000000000000000
310
0000000000000000000000000000000000000000000000000000000000000000
310
0000000000000000000000000000000000000000000000000000000000000000
310
0000000000000000000000000000000000000000000000000000000000000000
310
20260000424D0E260000000000003E00000028000000B40200006E0000000100
310
01000000000000000000130B0000130B00000200000002000000000000FFFFFF
310
FFFFFFFFFFFFFFFFFFFFFFFFFFFFFFFFFFFFFFFFFFFFFFFFFFFFFFFFFFFFFFFF
310
FFFFFFFFFFFFFFFFFFFFFFFFFFFFFFFFFFFFFFFFFFFFFFFFFFFFFFFFFFFFFFFF
310
FFFFFFFFFFFFFFFFFFFFFFFFFFFFFFFFFFFFFFFFFFFFFFFFF000FFFFFFFFFFFF
310
FFFFFFFFFFFFFFFFFFFFFFFFFFFFFFFFFFFFFFFFFFFFFFFFFFFFFFFFFFFFFFFF
310
FFFFFFFFFFFFFFFFFFFFFFFFFFFFFFFFFFFFFFFFFFFFFFFFFFFFFFFFFFFFFFFF
310
FFFFFFFFFFFFFFFFFFFFFFFFFFFFFFFFF000FFFFFFFFFFFFFFFFFFFFFFFFFFFF
310
FFFFFFFFFFFFFFFFFFFFFFFFFFFFFFFFFFFFFFFFFFFFFFFFFFFFFFFFFFFFFFFF
310
FFFFFFFFFFFFFFFFFFFFFFFFFFFFFFFFFFFFFFFFFFFFFFFFFFFFFFFFFFFFFFFF
310
FFFFFFFFFFFFFFFFF000FFFFFFFFFFFFFFFFFFFFFFFFFFFFFFFFFFFFFFFFFFFF
310
FFFFFFFFFFFFFFFFFFFFFFFFFFFFFFFFFFFFFFFFFFFFFFFFFFFFFFFFFFFFFFFF
310
FFFFFFFFFFFFFFFFFFFFFFFFFFFFFFFFFFFFFFFFFFFFFFFFFFFFFFFFFFFFFFFF
310
F000FFFFFFFFFFFFFFFFFFFFFFFFFFFFFFFFFFFFFFFFFFFFFFFFFFFFFFFFFFFF
310
FFFFFFFFFFFFFFFFFFFFFFFFFFFFFFFFFFFFFFFFFFFFFFFFFFFFFFFFFFFFFFFF
310
FFFFFFFFFFFFFFFFFFFFFFFFFFFFFFFFFFFFFFFFFFFFFFFFF000FFFFFFFFFFFF
310
FFFFFFFFFFFFFFFFFFFFFFFFFFFFFFFFFFFFFFFFFFFFFFFFFFFFFFFFFFFFFFFF
310
FFFFFFFFFFFFFFFFFFFFFFFFFFFFFFFFFFFFFFFFFFFFFFFFFFFFFFFFFFFFFFFF
310
FFFFFFFFFFFFFFFFFFFFFFFFFFFFFFFFF000FFFFFFFFFFFFFFFFFFFFFFFFFFFF
310
FFFFFFFFFFFFFFFFFFFFFFFFFFFFFFFFFFFFFFFFFFFFFFFFFFFFFFFFFFFFFFFF
310
FFFFFFFFFFFFFFFFFFFFFFFFFFFFFFFFFFFFFFFFFFFFFFFFFFFFFFFFFFFFFFFF
310
FFFFFFFFFFFFFFFFF000FFFFFFFFFFFFFFFFFFFFFFFFFFFFFFFFFFFFFFFFFFFF
310
FFFFFFFFFFFFFFFFFFFFFFFFFFFFFFFFFFFFFFFFFFFFFFFFFFFFFFFFFFFFFFFF
310
FFFFFFFFFFFFFFFFFFFFFFFFFFFFFFFFFFFFFFFFFFFFFFFFFFFFFFFFFFFFFFFF
310
F000FFFFFFFFFFFFFFFFFFFFFFFFFFFFFFFFFFFFFFFFFFFFFFFFFFFFFFFFFFFF
310
FFFFFFFFFFFFFFFFFFFFFFFFFFFFFFFFFFFFFFFFFFFFFFFFFFFFFFFFFFFFFFFF
310
FFFFFFFFFFFFFFFFFFFFFFFFFFFFFFFFFFFFFFFFFFFFFFFFF000FFFFFFFFFFFF
310
FFFFFFFFFFFFFFFFFFFFFFFFFFFFFFFFFFFFFFFFFFFFFFFFFFFFFFFFFFFFFFFF
310
FFFFFFFFFFFFFFFFFFFFFFFFFFFFFFFFFFFFFFFFFFFFFFFFFFFFFFFFFFFFFFFF
310
FFFFFFFFFFFFFFFFFFFFFFFFFFFFFFFFF000FFFFFFFFFFFFFFFFFFFFFFFFFFFF
310
FFFFFFFFFFFFFFFFFFFFFFFFFFFFFFFFFFFFFFFFFFFFFFFFFFFFFFFFFFFFFFFF
310
FFFFFFFFFFFFFFFFFFFFFFFFFFFFFFFFFFFFFFFFFFFFFFFFFFFFFFFFFFFFFFFF
310
FFFFFFFFFFFFFFFFF000FFFFFFFFFFFFFFFFFFFFFFFFFFFFFFFFFFFFFFFFFFFF
310
FFFFFFFFFFFFFFFFFFFFFFFFFFFFFFFFFFFFFFFFFFFFFFFFFFFFFFFFFFFFFFFF
310
FFFFFFFFFFFFFFFFFFFFFFFFFFFFFFFFFFFFFFFFFFFFFFFFFFFFFFFFFFFFFFFF
310
F000FFFFFFFFFFFFFFFFFFFFFFFFFFFFFFFFFFFFFFFFFFFFFFFFFFFFFFFFFFFF
310
FFFFFFFFFFFFFFFFFFFFFFFFFFFFFFFFFFFFFFFFFFFFFFFFFFFFFFFFFFFFFFFF
310
FFFFFFFFFFFFFFFFFFFFFFFFFFFFFFFFFFFFFFFFFFFFFFFFF000FFFFFFFFFFFF
310
FFFFFFFFFFFFFFFFFFFFFFFFFFFFFFFFFFFFFFFFFFFFFFFFFFFFFFFFFFFFFFFF
310
FFFFFFFFFFFFFFFFFFFFFFFFFFFFFFFFFFFFFFFFFFFFFFFFFFFFFFFFFFFFFFFF
310
FFFFFFFFFFFFFFFFFFFFFFFFFFFFFFFFF000FFFFFFFFFFFFFFFFFFFFFFFFFFFF
310
FFFFFFFFFFFFFFFFFFFFFFFFFFFFFFFFFFFFFFFFFFFFFFFFFFFFFFFFFFFFFFFF
310
FFFFFFFFFFFFFFFFFFFFFFFFFFFFFFFFFFFFFFFFFFFFFFFFFFFFFFFFFFFFFFFF
310
FFFFFFFFFFFFFFFFF000FFFFFFFFFFFFFFFFFFFFFFFFFFFFFFFFFFFFFFFFFFFF
310
FFFFFFFFFFFFFFFFFFFFFFFFFFFFFFFFFFFFFFFFFFFFFFFFFFFFFFFFFFFFFFFF
310
FFFFFFFFFFFFFFFFFFFFFFFFFFFFFFFFFFFFFFFFFFFFFFFFFFFFFFFFFFFFFFFF
310
F000FFFFFFFFFFFFFFFFFFFFFFFFFFFFFFFFFFFFFFFFFFFFFFFFFFFFFFFFFFFF
310
FFFFFFFFFFFFFFFFFFFFFFFFFFFFFFFFFFFFFFFFFFFFFFFFFFFFFFFFFFFFFFFF
310
FFFFFFFFFFFFFFFFFFFFFFFFFFFFFFFFFFFFFFFFFFFFFFFFF000FFFFFFFFFFFF
310
FFFFFFFFFFFFFFFFFFFFFFFFFFFFFFFFFFFFFFFFFFFFFFFFFFFFFFFFFFFFFFFF
310
FFFFFFFFFFFFFFFFFFFFFFFFFFFFFFFFFFFFFFFFFFFFFFFFFFFFFFFFFFFFFFFF
310
FFFFFFFFFFFFFFFFFFFFFFFFFFFFFFFFF000FFFFFFFFFFFFFFFFFFFFFFFFFFFF
310
FFFFFFFFFFFFFFFFFFFFFFFFFFFFFFFFFFFFFFFFFFFFFFFFFFFFFFFFFFFFFFFF
310
FFFFFFFFFFFFFFFFFFFFFFFFFFFFFFFFFFFFFFFFFFFFFFFFFFFFFFFFFFFFFFFF
310
FFFFFFFFFFFFFFFFF000FFFFF80003FFFFFFFFFFFFFFFFFFFFFFFFFFFFFFFFFF
310
FFFFF00007FFFFFFFFFF00007FFFFFF800000000000000007FFFFFFFFFFFFFFF
310
FFFFFFFC001FFFFFFFFFFFFFFC001FFFFFFFFFFFFFFFFFFFFFFFFFFE0007FFFF
310
F000FFFF8000007FFFFFFFF8000FFFFFC0007FFFFF80007FFFFF0000007FFFFF
310
FFF8000007FFFFF800000000000000007FFFFFF0001FFFFFFFFFFFC00001FFFF
310
FFFFFFFFC00001FFFFFFFF000000000003FFFFE000007FFFF000FFFE0000000F
310
FFFFFFF0000FFFFF80007FFFFF80007FFFFC0000001FFFFFFFC0000001FFFFF8
310
00000000000000007FFFFFF0001FFFFFFFFFFE0000003FFFFFFFFFFE0000003F
310
FFFFFF000000000003FFFF0000000FFFF000FFF800000003FFFFFFF00007FFFF
310
80007FFFFF80007FFFF000000007FFFFFF000000003FFFF80000000000000000
310
7FFFFFF0001FFFFFFFFFF80000000FFFFFFFFFF80000000FFFFFFF0000000000
310
03FFFC00000003FFF000FFE000000000FFFFFFF00007FFFF80003FFFFF80007F
310
FFC000000001FFFFFC000000001FFFF800000000000000007FFFFFF0001FFFFF
310
FFFFE000000003FFFFFFFFE000000003FFFFFF000000000003FFF000000000FF
310
F000FF80000000007FFFFFF00007FFFF80003FFFFF80007FFF8000000000FFFF
310
F80000000007FFF800000000000000007FFFFFF0001FFFFFFFFFC000000001FF
310
FFFFFFC000000001FFFFFF000000000003FFC0000000007FF000FF0000000000
310
3FFFFFE00007FFFF00003FFFFF80007FFE00000000003FFFF00000000003FFF8
310
00000000000000007FFFFFF0001FFFFFFFFF8000000000FFFFFFFF8000000000
310
FFFFFF000000000003FF80000000003FF000FE00000000001FFFFFE00003FFFF
310
00003FFFFF80007FFC00000000001FFFE00000000001FFF8000001FFFE000000
310
7FFFFFF0001FFFFFFFFE00000000003FFFFFFE00000000003FFFFF0000000000
310
03FF00000000001FF000FC00000000000FFFFFE00003FFFF00001FFFFF80007F
310
F800000000001FFFC00000000000FFF8000001FFFE0000007FFFFFF0001FFFFF
310
FFFC00000000001FFFFFFC00000000001FFFFF000000000003FE00000000000F
310
F000F8000000000007FFFFE00003FFFF00001FFFFF80007FF800000000000FFF
310
800000000000FFF8000001FFFE0000007FFFFFF0001FFFFFFFF800000000000F
310
FFFFF800000000000FFFFF000000000003FC000000000007F000F80000000000
310
03FFFFC00003FFFE00001FFFFF80007FF0000000000007FF0000000000007FF8
310
000001FFFE0000007FFFFFF0001FFFFFFFF0000000000007FFFFF00000000000
310
07FFFF000000000003F8000000000003F000F0000000000003FFFFC00001FFFE
310
00001FFFFF80007FE0000000000007FE0000000000003FF8000001FFFE000000
310
7FFFFFF0001FFFFFFFF0000000000007FFFFF0000000000007FFFF0000000000
310
03F800001F800003F000E00001FFF00001FFFFC00001FFFE00000FFFFF80007F
310
E00001FFE00003FE00001FFF00003FF8000001FFFE0000007FFFFFF0001FFFFF
310
FFE000003E000003FFFFE000003E000003FFFF000000000003F00001FFF80001
310
F000E00007FFFC0001FFFFC00001FFFE00000FFFFF80007FC0000FFFFC0003FC
310
0000FFFFC0001FF8000001FFFE0000007FFFFFF0001FFFFFFFC00003FFE00001
310
FFFFC00003FFE00001FFFF0001FFFFFFFFF00007FFFE0001F000E0000FFFFF00
310
00FFFF800001FFFC00000FFFFF80007FC0001FFFFE0001FC0001FFFFE0001FF8
310
000001FFFE0000007FFFFFF0001FFFFFFF80000FFFF80000FFFF80000FFFF800
310
00FFFF0003FFFFFFFFE0000FFFFF8000F000C0003FFFFF8000FFFF800000FFFC
310
000007FFFF80007F80003FFFFF0001FC0003FFFFF0001FF8000001FFFE000000
310
7FFFFFF0001FFFFFFF80003FFFFE0000FFFF80003FFFFE0000FFFF0003FFFFFF
310
FFE0003FFFFF8000F000C0003FFFFF8000FFFF800000FFFC000007FFFF80007F
310
80007FFFFF8001F80007FFFFF8000FF8000001FFFE0000007FFFFFF0001FFFFF
310
FF00007FFFFF00007FFF00007FFFFF00007FFF0003FFFFFFFFE0003FFFFFC000
310
F000C0007FFFFFC000FFFF000000FFFC000007FFFF80007F8000FFFFFF8000F8
310
000FFFFFF8000FF8000001FFFE0000007FFFFFF0001FFFFFFF0000FFFFFF8000
310
7FFF0000FFFFFF80007FFF0003FFFFFFFFC0007FFFFFC00070008000FFFFFFC0
310
00FFFF000000FFF8000007FFFF80007F8000FFFFFF8000F8000FFFFFF8000FF8
310
000001FFFE0000007FFFFFF0001FFFFFFE0001FFFFFFC0003FFE0001FFFFFFC0
310
003FFF0003FFFFFFFFC0007FFFFFE00070008000FFFFFFC0007FFF0000007FF8
310
000003FFFF80007F0001FFFFFF8000F8000FFFFFF8000FF8000001FFFE000000
310
7FFFFFF0001FFFFFFE0001FFFFFFC0003FFE0001FFFFFFC0003FFF0003FFFFFF
310
FFC000FFFFFFE00070008000FFFFFFC0007FFF0000007FF8000003FFFF80007F
310
0001FFFFFF8000F8001FFFFFF8000FF8000001FFFE0000007FFFFFF0001FFFFF
310
FE0003FFFFFFE0003FFE0003FFFFFFE0003FFF0003FFFFFFFFC000FFFFFFE000
310
70008000FFFFFFC0007FFE0000007FF8000003FFFF80007F0001FFFFFF8000F0
310
001FFFFFF8000FF8000001FFFE0000007FFFFFF0001FFFFFFC0003FFFFFFE000
310
1FFC0003FFFFFFE0001FFF0003FFFFFFFFC000FFFFFFC00070008000FFFFFF80
310
007FFE0000007FF0000003FFFF80007F0001FFFFFF0000F0001FFFFFF8000FF8
310
000001FFFE0000007FFFFFF0001FFFFFFC0007FFFFFFF0001FFC0007FFFFFFF0
310
001FFF0003FFFFFFFFC000FFFFFFC00070008001FFFFFF0000FFFE0000003FF0
310
000001FFFF80007F0001FFFFFF0000F8001FFFFFF0000FF8000001FFFE000000
310
7FFFFFF0001FFFFFFC0007FFFFFFF0001FFC0007FFFFFFF0001FFF0003FFFFFF
310
FFC001FFFFFF80007000FFFFFFFFFE0000FFFE0008003FF0008001FFFF80007F
310
FFFFFFFFFC0000FFFFFFFFFFE0000FF8000001FFFE0000007FFFFFF0001FFFFF
310
F8000FFFFFFFF8000FF8000FFFFFFFF8000FFF0003FFFFFFFFFFFFFFFFFF0000
310
7000FFFFFFFFFC0000FFFC0008003FF0008001FFFF80007FFFFFFFFFF80001FF
310
FFFFFFFF80000FF8000001FFFE0000007FFFFFF0001FFFFFF8000FFFFFFFF800
310
0FF8000FFFFFFFF8000FFF0003FFFFFFFFFFFFFFFFFE0000F000FFFFFFFFE000
310
00FFFC000C003FE000C001FFFF80007FFFFFFFFFC00001FFFFFFFFFE00001FF8
310
000001FFFE0000007FFFFFF0001FFFFFF8000FFFFFFFF8000FF8000FFFFFFFF8
310
000FFF0003FFFFFFFFFFFFFFFFF00000F000FFFFFFFE000001FFFC000C001FE0
310
00C000FFFF80007FFFFFFFFE000001FFFFFFFFE000001FF80FFFFFFFFFFFFFC0
310
7FFFFFF0001FFFFFF8000FFFFFFFF8000FF8000FFFFFFFF8000FFF0003FFFFFF
310
FFFFFFFFFF800000F000FFFFFFC0000001FFFC001C001FE001C000FFFF80007F
310
FFFFFF80000003FFFFFFF80000001FF80FFFFFFFFFFFFFC07FFFFFF0001FFFFF
310
F8001FFFFFFFFC000FF8001FFFFFFFFC000FFF0003FFFFFFFFFFFFFFF0000001
310
F000FFFFF800000001FFF8001C001FE001C000FFFF80007FFFFFF800000003FF
310
FFFF800000003FF80FFFFFFFFFFFFFC07FFFFFF0001FFFFFF8001FFFFFFFFC00
310
0FF8001FFFFFFFFC000FFF0003FFFFFFFFFFFFFE00000001F000FFFFC0000000
310
03FFF8001E001FC001E000FFFF80007FFFFF8000000007FFFFFC000000003FF8
310
0FFFFFFFFFFFFFC07FFFFFF0001FFFFFF8001FFFFFFFFC000FF8001FFFFFFFFC
310
000FFF0003FFFFFFFFFFFFE000000003F000FFFE0000000007FFF8001E000FC0
310
01E0007FFF80007FFFFE0000000007FFFFE0000000007FF80FFFFFFFFFFFFFC0
310
7FFFFFF0001FFFFFF0001FFFFFFFFC0007F0001FFFFFFFFC0007FF0003FFFFFF
310
FFFFFF0000000003F000FFF80000000007FFF8001E000FC003E0007FFF80007F
310
FFF0000000000FFFFF8000000000FFF80FFFFFFFFFFFFFC07FFFFFF0001FFFFF
310
F0001FFFFFFFFC0007F0001FFFFFFFFC0007FF0003FFFFFFFFFFFC0000000007
310
F000FFE0000000000FFFF0003E000FC003E0007FFF80007FFFC0000000001FFF
310
FE0000000001FFF80FFFFFFFFFFFFFC07FFFFFF0001FFFFFF0001FFFFFFFFC00
310
07F0001FFFFFFFFC0007FF0003FFFFFFFFFFF0000000000FF000FFC000000000
310
1FFFF0003F000F8003F0003FFF80007FFF80000000003FFFF80000000003FFF8
310
0FFFFFFFFFFFFFC07FFFFFF0001FFFFFF0001FFFFFFFFC0007F0001FFFFFFFFC
310
0007FF0003FFFFFFFFFFE0000000001FF000FF00000000007FFFF0003F000780
310
03F0003FFF80007FFF00000000007FFFF00000000007FFF80FFFFFFFFFFFFFC0
310
7FFFFFF0001FFFFFF0001FFFFFFFFC0007F0001FFFFFFFFC0007FF0003FFFFFF
310
FFFF80000000007FF000FE0000000000FFFFE0003F00078007F0003FFF80007F
310
FE0000000001FFFFE0000000001FFFF80FFFFFFFFFFFFFC07FFFFFF0001FFFFF
310
F0001FFFFFFFFC0007F0001FFFFFFFFC0007FF0003FFFFFFFFFF0000000000FF
310
F000FC0000000003FFFFE0007F00078007F0003FFF80007FFC0000000007FFFF
310
C0000000007FFFF80FFFFFFFFFFFFFC07FFFFFF0001FFFFFF8001FFFFFFFFC00
310
0FF8001FFFFFFFFC000FFF0003FFFFFFFFFE0000000003FFF000FC000000000F
310
FFFFE0007F80070007F8001FFF80007FF8000000001FFFFF8000000001FFFFF8
310
0FFFFFFFFFFFFFC07FFFFFF0001FFFFFF8001FFFFFFFFC000FF8001FFFFFFFFC
310
000FFF0003FFFFFFFFFC000000000FFFF000F8000000007FFFFFE0007F800700
310
07F8001FFF80007FF000000000FFFFFF800000000FFFFFF80FFFFFFFFFFFFFC0
310
7FFFFFF0001FFFFFF8000FFFFFFFF8000FF8000FFFFFFFF8000FFF0003FFFFFF
310
FFFC000000007FFFF000F800000007FFFFFFC0007F8003000FF8001FFF80007F
310
F000000007FFFFFF000000007FFFFFF80FFFFFFFFFFFFFC07FFFFFF0001FFFFF
310
F8000FFFFFFFF8000FF8000FFFFFFFF8000FFF0003FFFFFFFFF80000000FFFFF
310
F000F0000000FFFFFFFFC000FF8003000FF8001FFF80007FE0000000FFFFFFFF
310
0000000FFFFFFFF8000001FFFE0000007FFFFFF0001FFFFFF8000FFFFFFFF800
310
0FF8000FFFFFFFF8000FFF0003FFFFFFFFF8000000FFFFFFF000F000000FFFFF
310
FFFFC000FFC002000FF8000FFF80007FE000001FFFFFFFFE000001FFFFFFFFF8
310
000001FFFE0000007FFFFFF0001FFFFFF8000FFFFFFFF8000FF8000FFFFFFFF8
310
000FFF0003FFFFFFFFF000001FFFFFFFF000E00000FFFFFFFFFFC000FFC00200
310
0FFC000FFF80007FE00001FFFFFFFFFE00001FFFFFFFFFF8000001FFFE000000
310
7FFFFFF0001FFFFFFC000FFFFFFFF8001FFC000FFFFFFFF8001FFF0003FFFFFF
310
FFF00001FFFFFFFFF000E00007FFFFFFFFFF8000FFC000001FFC000FFF80007F
310
C0000FFFFFFFFFFE0000FFFFFFFFFFF8000001FFFE0000007FFFFFF0001FFFFF
310
FC0007FFFFFFF0001FFC0007FFFFFFF0001FFF0003FFFFFFFFF00007FFFFFFFF
310
F000E0001FFFFFFFFFFF8000FFC000001FFC000FFF80007FC0003FFFFFFFFFFE
310
0001FFFFFFFFFFF8000001FFFE0000007FFFFFF0001FFFFFFC0007FFFFFFF000
310
1FFC0007FFFFFFF0001FFF0003FFFFFFFFF0001FFFFFFFFFF000E0003FFFFF00
310
03FF8001FFE000001FFC0007FF80007FC0007FFFFF0007FC0003FFFFF0003FF8
310
000001FFFE0000007FFFFFF0001FFFFFFC0003FFFFFFE0001FFC0003FFFFFFE0
310
001FFF0003FFFFFFFFF0003FFFFFFFFFF000E0003FFFFF0001FF8001FFE00000
310
1FFE0007FF80007FC0007FFFFE0003FC0007FFFFE0003FF8000001FFFE000000
310
7FFFFFF0001FFFFFFE0003FFFFFFE0003FFE0003FFFFFFE0003FFF0003FFFFFF
310
FFF0003FFFFF8001F000E0003FFFFF0001FF0001FFE000001FFE0007FF80007F
310
C0007FFFFE0003FC0007FFFFE0003FF8000001FFFE0000007FFFFFF0001FFFFF
310
FE0001FFFFFFC0003FFE0001FFFFFFC0003FFF0003FFFFFFFFF0003FFFFF0001
310
F000E0003FFFFF0003FF0001FFE000003FFE0007FF80007FC0007FFFFE0003FC
310
0007FFFFE0003FF8000001FFFE0000007FFFFFF0001FFFFFFF0001FFFFFFC000
310
7FFF0001FFFFFFC0007FFF0003FFFFFFFFF0003FFFFF0001F000E0003FFFFE00
310
03FF0003FFF000003FFE0003FF80007FC0007FFFFC0003FE0007FFFFE0003FF8
310
000001FFFE0000007FFFFFF0001FFFFFFF0000FFFFFF80007FFF0000FFFFFF80
310
007FFF0003FFFFFFFFF0003FFFFF0001F000E0003FFFFE0003FF0003FFF00000
310
3FFF0003FF80007FC0007FFFFC0007FE0007FFFFC0003FF8000001FFFE000000
310
7FFFFFF0001FFFFFFF80007FFFFF0000FFFF80007FFFFF0000FFFF0003FFFFFF
310
FFF0003FFFFF0003F000E0003FFFFC0003FE0003FFF000003FFF0003FF80007F
310
E0003FFFF80007FE0003FFFFC0007FF8000001FFFE0000007FFFFFF0001FFFFF
310
FF80003FFFFE0000FFFF80003FFFFE0000FFFF0003FFFFFFFFF0001FFFFE0003
310
F000F0001FFFF80003FE0003FFF000007FFF0001FF80007FE0003FFFF00007FE
310
0001FFFF80007FF8000001FFFE0000007FFFFFF0001FFFFFFFC0000FFFF80001
310
FFFFC0000FFFF80001FFFF0003FFFFFFFFF0001FFFFC0003F000F0000FFFF000
310
07FE0007FFF800007FFF0001FF80007FE0001FFFE00007FF0000FFFE00007FF8
310
000001FFFE0000007FFFFFF0001FFFFFFFC00003FFE00001FFFFC00003FFE000
310
01FFFF0003FFFFFFFFF8000FFFF80003F000F00003FFC00007FC0007FFF80000
310
7FFF8001FF80007FF00007FF80000FFF00007FF80000FFF8000001FFFE000000
310
7F80000000000001FFE000003E000003FFFFE000003E000003FFFF0003FFFFFF
310
FFF80003FFE00007F000F800000000000FFC0007FFF800007FFF8001FF80007F
310
F000000000000FFF000000000000FFF8000001FFFE0000007F80000000000001
310
FFF0000000000007FFFFF0000000000007FFFF0003FFFFFFFFFC00007E000007
310
F000F800000000000FFC0007FFF80000FFFF8000FF80007FF800000000001FFF
310
800000000001FFF8000001FFFE0000007F80000000000001FFF800000000000F
310
FFFFF800000000000FFFFF0003FFFFFFFFFC00000000000FF000FC0000000000
310
1FFC0007FFFC0000FFFF8000FF80007FF800000000003FFFC00000000001FFF8
310
000001FFFE0000007F80000000000001FFF800000000000FFFFFF80000000000
310
0FFFFF0003FFFFFFFFFE00000000001FF000FE00000000003FF8000FFFFC0000
310
FFFF8000FF80007FFC00000000003FFFC00000000003FFF8000001FFFE000000
310
7F80000000000001FFFC00000000001FFFFFFC00000000001FFFFF0003FFFFFF
310
FFFF00000000001FF000FF00000000003FF8000FFFFC0000FFFFC000FF80007F
310
FE00000000007FFFE00000000007FFF8000001FFFE0000007F80000000000001
310
FFFE00000000003FFFFFFE00000000003FFFFF0003FFFFFFFFFF80000000003F
310
F000FF80000000007FF8000FFFFC0001FFFFC0007F80007FFF0000000000FFFF
310
F0000000000FFFF800000000000000007F80000000000001FFFF8000000000FF
310
FFFFFF8000000000FFFFFF0003FFFFFFFFFFC0000000007FF000FFC000000000
310
FFF8000FFFFE0001FFFFC0007F80007FFF8000000001FFFFF8000000001FFFF8
310
00000000000000007F80000000000001FFFFC000000001FFFFFFFFC000000001
310
FFFFFF0003FFFFFFFFFFE000000000FFF000FFE000000003FFF0001FFFFE0001
310
FFFFC0007F80007FFFC000000007FFFFFE000000003FFFF80000000000000000
310
7F80000000000001FFFFE000000003FFFFFFFFE000000003FFFFFF0003FFFFFF
310
FFFFF000000003FFF000FFF80000000FFFF0001FFFFE0001FFFFE0007F80007F
310
FFF00000000FFFFFFF00000000FFFFF800000000000000007F80000000000001
310
FFFFF80000000FFFFFFFFFF80000000FFFFFFF0003FFFFFFFFFFFC0000000FFF
310
F000FFFE0000003FFFF0001FFFFE0003FFFFE0003F80007FFFFC0000003FFFFF
310
FFC0000003FFFFF800000000000000007F80000000000001FFFFFE0000003FFF
310
FFFFFFFE0000003FFFFFFF0003FFFFFFFFFFFF0000003FFFF000FFFF800000FF
310
FFF0001FFFFF0003FFFFE0003F80007FFFFF000001FFFFFFFFF800001FFFFFF8
310
00000000000000007F80000000000001FFFFFFC00001FFFFFFFFFFFFC00001FF
310
FFFFFF0003FFFFFFFFFFFFC00000FFFFF000FFFFF8000FFFFFFFFFFFFFFFFFFF
310
FFFFFFFFFFFFFFFFFFFFF0001FFFFFFFFFFF0000FFFFFFF80000000000000000
310
7FFFFFFFFFFFFFFFFFFFFFFC001FFFFFFFFFFFFFFC001FFFFFFFFFFFFFFFFFFF
310
FFFFFFFC001FFFFFF000FFFFFFFFFFFFFFFFFFFFFFFFFFFFFFFFFFFFFFFFFFFF
310
FFFFFFFFFFFFFFFFFFFFFFFFFFFFFFFFFFFFFFFFFFFFFFFFFFFFFFFFFFFFFFFF
310
FFFFFFFFFFFFFFFFFFFFFFFFFFFFFFFFFFFFFFFFFFFFFFFFFFFFFFFFFFFFFFFF
310
F000FFFFFFFFFFFFFFFFFFFFFFFFFFFFFFFFFFFFFFFFFFFFFFFFFFFFFFFFFFFF
310
FFFFFFFFFFFFFFFFFFFFFFFFFFFFFFFFFFFFFFFFFFFFFFFFFFFFFFFFFFFFFFFF
310
FFFFFFFFFFFFFFFFFFFFFFFFFFFFFFFFFFFFFFFFFFFFFFFFF000FFFFFFFFFFFF
310
FFFFFFFFFFFFFFFFFFFFFFFFFFFFFFFFFFFFFFFFFFFFFFFFFFFFFFFFFFFFFFFF
310
FFFFFFFFFFFFFFFFFFFFFFFFFFFFFFFFFFFFFFFFFFFFFFFFFFFFFFFFFFFFFFFF
310
FFFFFFFFFFFFFFFFFFFFFFFFFFFFFFFFF000FFFFFFFFFFFFFFFFFFFFFFFFFFFF
310
FFFFFFFFFFFFFFFFFFFFFFFFFFFFFFFFFFFFFFFFFFFFFFFFFFFFFFFFFFFFFFFF
310
FFFFFFFFFFFFFFFFFFFFFFFFFFFFFFFFFFFFFFFFFFFFFFFFFFFFFFFFFFFFFFFF
310
FFFFFFFFFFFFFFFFF000FFFFFFFFFFFFFFFFFFFFFFFFFFFFFFFFFFFFFFFFFFFF
310
FFFFFFFFFFFFFFFFFFFFFFFFFFFFFFFFFFFFFFFFFFFFFFFFFFFFFFFFFFFFFFFF
310
FFFFFFFFFFFFFFFFFFFFFFFFFFFFFFFFFFFFFFFFFFFFFFFFFFFFFFFFFFFFFFFF
310
F000FFFFFFFFFFFFFFFFFFFFFFFFFFFFFFFFFFFFFFFFFFFFFFFFFFFFFFFFFFFF
310
FFFFFFFFFFFFFFFFFFFFFFFFFFFFFFFFFFFFFFFFFFFFFFFFFFFFFFFFFFFFFFFF
310
FFFFFFFFFFFFFFFFFFFFFFFFFFFFFFFFFFFFFFFFFFFFFFFFF000FFFFFFFFFFFF
310
FFFFFFFFFFFFFFFFFFFFFFFFFFFFFFFFFFFFFFFFFFFFFFFFFFFFFFFFFFFFFFFF
310
FFFFFFFFFFFFFFFFFFFFFFFFFFFFFFFFFFFFFFFFFFFFFFFFFFFFFFFFFFFFFFFF
310
FFFFFFFFFFFFFFFFFFFFFFFFFFFFFFFFF000FFFFFFFFFFFFFFFFFFFFFFFFFFFF
310
FFFFFFFFFFFFFFFFFFFFFFFFFFFFFFFFFFFFFFFFFFFFFFFFFFFFFFFFFFFFFFFF
310
FFFFFFFFFFFFFFFFFFFFFFFFFFFFFFFFFFFFFFFFFFFFFFFFFFFFFFFFFFFFFFFF
310
FFFFFFFFFFFFFFFFF000FFFFFFFFFFFFFFFFFFFFFFFFFFFFFFFFFFFFFFFFFFFF
310
FFFFFFFFFFFFFFFFFFFFFFFFFFFFFFFFFFFFFFFFFFFFFFFFFFFFFFFFFFFFFFFF
310
FFFFFFFFFFFFFFFFFFFFFFFFFFFFFFFFFFFFFFFFFFFFFFFFFFFFFFFFFFFFFFFF
310
F000FFFFFFFFFFFFFFFFFFFFFFFFFFFFFFFFFFFFFFFFFFFFFFFFFFFFFFFFFFFF
310
FFFFFFFFFFFFFFFFFFFFFFFFFFFFFFFFFFFFFFFFFFFFFFFFFFFFFFFFFFFFFFFF
310
FFFFFFFFFFFFFFFFFFFFFFFFFFFFFFFFFFFFFFFFFFFFFFFFF000FFFFFFFFFFFF
310
FFFFFFFFFFFFFFFFFFFFFFFFFFFFFFFFFFFFFFFFFFFFFFFFFFFFFFFFFFFFFFFF
310
FFFFFFFFFFFFFFFFFFFFFFFFFFFFFFFFFFFFFFFFFFFFFFFFFFFFFFFFFFFFFFFF
310
FFFFFFFFFFFFFFFFFFFFFFFFFFFFFFFFF000FFFFFFFFFFFFFFFFFFFFFFFFFFFF
310
FFFFFFFFFFFFFFFFFFFFFFFFFFFFFFFFFFFFFFFFFFFFFFFFFFFFFFFFFFFFFFFF
310
FFFFFFFFFFFFFFFFFFFFFFFFFFFFFFFFFFFFFFFFFFFFFFFFFFFFFFFFFFFFFFFF
310
FFFFFFFFFFFFFFFFF000FFFFFFFFFFFFFFFFFFFFFFFFFFFFFFFFFFFFFFFFFFFF
310
FFFFFFFFFFFFFFFFFFFFFFFFFFFFFFFFFFFFFFFFFFFFFFFFFFFFFFFFFFFFFFFF
310
FFFFFFFFFFFFFFFFFFFFFFFFFFFFFFFFFFFFFFFFFFFFFFFFFFFFFFFFFFFFFFFF
310
F000FFFFFFFFFFFFFFFFFFFFFFFFFFFFFFFFFFFFFFFFFFFFFFFFFFFFFFFFFFFF
310
FFFFFFFFFFFFFFFFFFFFFFFFFFFFFFFFFFFFFFFFFFFFFFFFFFFFFFFFFFFFFFFF
310
FFFFFFFFFFFFFFFFFFFFFFFFFFFFFFFFFFFFFFFFFFFFFFFFF000FFFFFFFFFFFF
310
FFFFFFFFFFFFFFFFFFFFFFFFFFFFFFFFFFFFFFFFFFFFFFFFFFFFFFFFFFFFFFFF
310
FFFFFFFFFFFFFFFFFFFFFFFFFFFFFFFFFFFFFFFFFFFFFFFFFFFFFFFFFFFFFFFF
310
FFFFFFFFFFFFFFFFFFFFFFFFFFFFFFFFF000FFFFFFFFFFFFFFFFFFFFFFFFFFFF
310
FFFFFFFFFFFFFFFFFFFFFFFFFFFFFFFFFFFFFFFFFFFFFFFFFFFFFFFFFFFFFFFF
310
FFFFFFFFFFFFFFFFFFFFFFFFFFFFFFFFFFFFFFFFFFFFFFFFFFFFFFFFFFFFFFFF
310
FFFFFFFFFFFFFFFFF000FFFFFFFFFFFFFFFFFFFFFFFFFFFFFFFFFFFFFFFFFFFF
310
FFFFFFFFFFFFFFFFFFFFFFFFFFFFFFFFFFFFFFFFFFFFFFFFFFFFFFFFFFFFFFFF
310
FFFFFFFFFFFFFFFFFFFFFFFFFFFFFFFFFFFFFFFFFFFFFFFFFFFFFFFFFFFFFFFF
310
F000FFFFFFFFFFFFFFFFFFFFFFFFFFFFFFFFFFFFFFFFFFFFFFFFFFFFFFFFFFFF
310
FFFFFFFFFFFFFFFFFFFFFFFFFFFFFFFFFFFFFFFFFFFFFFFFFFFFFFFFFFFFFFFF
310
FFFFFFFFFFFFFFFFFFFFFFFFFFFFFFFFFFFFFFFFFFFFFFFFF000FFFFFFFFFFFF
310
FFFFFFFFFFFFFFFFFFFFFFFFFFFFFFFFFFFFFFFFFFFFFFFFFFFFFFFFFFFFFFFF
310
FFFFFFFFFFFFFFFFFFFFFFFFFFFFFFFFFFFFFFFFFFFFFFFFFFFFFFFFFFFFFFFF
310
FFFFFFFFFFFFFFFFFFFFFFFFFFFFFFFFF000FFFFFFFFFFFFFFFFFFFFFFFFFFFF
310
FFFFFFFFFFFFFFFFFFFFFFFFFFFFFFFFFFFFFFFFFFFFFFFFFFFFFFFFFFFFFFFF
310
FFFFFFFFFFFFFFFFFFFFFFFFFFFFFFFFFFFFFFFFFFFFFFFFFFFFFFFFFFFFFFFF
310
FFFFFFFFFFFFFFFFF000FFFFFFFFFFFFFFFFFFFFFFFFFFFFFFFFFFFFFFFFFFFF
310
FFFFFFFFFFFFFFFFFFFFFFFFFFFFFFFFFFFFFFFFFFFFFFFFFFFFFFFFFFFFFFFF
310
FFFFFFFFFFFFFFFFFFFFFFFFFFFFFFFFFFFFFFFFFFFFFFFFFFFFFFFFFFFFFFFF
310
F000FFFFFFFFFFFFFFFFFFFFFFFFFFFFFFFFFFFFFFFFFFFFFFFFFFFFFFFFFFFF
310
FFFFFFFFFFFFFFFFFFFFFFFFFFFFFFFFFFFFFFFFFFFFFFFFFFFFFFFFFFFFFFFF
310
FFFFFFFFFFFFFFFFFFFFFFFFFFFFFFFFFFFFFFFFFFFFFFFFF000FFFFFFFFFFFF
310
FFFFFFFFFFFFFFFFFFFFFFFFFFFFFFFFFFFFFFFFFFFFFFFFFFFFFFFFFFFFFFFF
310
FFFFFFFFFFFFFFFFFFFFFFFFFFFFFFFFFFFFFFFFFFFFFFFFFFFFFFFFFFFFFFFF
310
FFFFFFFFFFFFFFFFFFFFFFFFFFFFFFFFF0000000000000000000000000000000
310
0000000000000000000000000000000000000000000000000000000000000000
310
0000000000000000000000000000000000000000000000000000000000000000
310
0000000000000000000000000000000000000000000000000000000000000000
310
0000000000000000000000000000000000000000000000000000000000000000
310
0000000000000000000000000000000000000000000000000000000000000000
310
0000000000000000000000000000000000000000000000000000000000000000
310
0000000000000000000000000000000000000000000000000000000000000000
310
0000000000000000000000000000000000000000000000000000000000000000
310
0000000000000000000000000000000000000000000000000000000000000000
310
0000000000000000000000000000000000000000000000000000000000000000
310
0000000000000000000000000000000000000000000000000000000000000000
310
0000000000000000000000000000000000000000000000000000000000000000
310
0000000000000000000000000000000000000000000000000000000000000000
310
0000000000000000000000000000000000000000000000000000000000000000
310
0000000000000000000000000000000000000000000000000000000000000000
  1
OLE
  0
ENDSEC
  0
SECTION
  2
OBJECTS
  0
DICTIONARY
  5
C
330
0
100
AcDbDictionary
281
     1
  3
ACAD_GROUP
350
D
  3
ACAD_LAYOUT
350
1A
  3
ACAD_MLINESTYLE
350
17
  3
ACAD_PLOTSETTINGS
350
19
  3
ACAD_PLOTSTYLENAME
350
E
  3
ACAD_SCALELIST
350
47
  0
DICTIONARY
  5
D
102
{ACAD_REACTORS
330
C
102
}
330
C
100
AcDbDictionary
281
     1
  0
DICTIONARY
  5
1A
102
{ACAD_REACTORS
330
C
102
}
330
C
100
AcDbDictionary
281
     1
  3
Layout1
350
1E
  3
Layout2
350
26
  3
Model
350
22
  0
DICTIONARY
  5
17
102
{ACAD_REACTORS
330
C
102
}
330
C
100
AcDbDictionary
281
     1
  3
Standard
350
18
  0
DICTIONARY
  5
19
102
{ACAD_REACTORS
330
C
102
}
330
C
100
AcDbDictionary
281
     1
  0
ACDBDICTIONARYWDFLT
  5
E
102
{ACAD_REACTORS
330
C
102
}
330
C
100
AcDbDictionary
281
     1
  3
Normal
350
F
100
AcDbDictionaryWithDefault
340
F
  0
DICTIONARY
  5
47
102
{ACAD_REACTORS
330
C
102
}
330
C
100
AcDbDictionary
281
     1
  3
A0
350
48
  3
A1
350
49
  3
A2
350
4A
  3
A3
350
4B
  3
A4
350
4C
  3
A5
350
4D
  3
A6
350
4E
  3
A7
350
4F
  3
A8
350
50
  3
A9
350
51
  3
B0
350
52
  3
B1
350
53
  3
B2
350
54
  3
B3
350
55
  3
B4
350
56
  3
B5
350
57
  3
B6
350
58
  3
B7
350
59
  3
B8
350
5A
  3
B9
350
5B
  3
C0
350
5C
  3
C1
350
5D
  3
C2
350
5E
  3
C3
350
5F
  3
C4
350
60
  3
C5
350
61
  3
C6
350
62
  3
C7
350
63
  3
C8
350
64
  3
C9
350
65
  3
D0
350
66
  3
D1
350
67
  3
D2
350
68
  0
LAYOUT
  5
1E
102
{ACAD_REACTORS
330
1A
102
}
330
1A
100
AcDbPlotSettings
  1

  2
none_device
  4

  6

 40
0.0
 41
0.0
 42
0.0
 43
0.0
 44
0.0
 45
0.0
 46
0.0
 47
0.0
 48
0.0
 49
0.0
140
0.0
141
0.0
142
1.0
143
1.0
 70
   688
 72
     1
 73
     0
 74
     5
  7

 75
    16
147
1.0
148
0.0
149
0.0
100
AcDbLayout
  1
Layout1
 70
     1
 71
     1
 10
0.0
 20
0.0
 11
420.0
 21
297.0
 12
0.0
 22
0.0
 32
0.0
 14
1.0000000000E+20
 24
1.0000000000E+20
 34
1.0000000000E+20
 15
-1.0000000000E+20
 25
-1.0000000000E+20
 35
-1.0000000000E+20
146
0.0
 13
0.0
 23
0.0
 33
0.0
 16
1.0
 26
0.0
 36
0.0
 17
0.0
 27
1.0
 37
0.0
 76
     0
330
1B
  0
LAYOUT
  5
26
102
{ACAD_REACTORS
330
1A
102
}
330
1A
100
AcDbPlotSettings
  1

  2
none_device
  4

  6

 40
0.0
 41
0.0
 42
0.0
 43
0.0
 44
0.0
 45
0.0
 46
0.0
 47
0.0
 48
0.0
 49
0.0
140
0.0
141
0.0
142
1.0
143
1.0
 70
   688
 72
     1
 73
     0
 74
     5
  7

 75
    16
147
1.0
148
0.0
149
0.0
100
AcDbLayout
  1
Layout2
 70
     1
 71
     2
 10
0.0
 20
0.0
 11
0.0
 21
0.0
 12
0.0
 22
0.0
 32
0.0
 14
0.0
 24
0.0
 34
0.0
 15
0.0
 25
0.0
 35
0.0
146
0.0
 13
0.0
 23
0.0
 33
0.0
 16
1.0
 26
0.0
 36
0.0
 17
0.0
 27
1.0
 37
0.0
 76
     0
330
23
  0
LAYOUT
  5
22
102
{ACAD_REACTORS
330
1A
102
}
330
1A
100
AcDbPlotSettings
  1

  2
none_device
  4
Letter_(8.50_x_11.00_Inches)
  6

 40
6.35
 41
6.35
 42
6.35000508
 43
6.35000508
 44
215.9
 45
279.4
 46
0.0
 47
0.0
 48
0.0
 49
0.0
140
0.0
141
0.0
142
1.0
143
1.0
 70
  1712
 72
     1
 73
     0
 74
     0
  7

 75
     0
147
1.0
148
0.0
149
0.0
100
AcDbLayout
  1
Model
 70
     1
 71
     0
 10
0.0
 20
0.0
 11
297.0
 21
210.0
 12
0.0
 22
0.0
 32
0.0
 14
0.0
 24
0.0
 34
0.0
 15
297.0
 25
210.0
 35
0.0
146
0.0
 13
0.0
 23
0.0
 33
0.0
 16
1.0
 26
0.0
 36
0.0
 17
0.0
 27
1.0
 37
0.0
 76
     0
330
1F
331
29
  0
MLINESTYLE
  5
18
102
{ACAD_REACTORS
330
17
102
}
330
17
100
AcDbMlineStyle
  2
Standard
 70
     0
  3

 62
   256
 51
90.0
 52
90.0
 71
     2
 49
0.5
 62
   256
  6
BYLAYER
 49
-0.5
 62
   256
  6
BYLAYER
  0
ACDBPLACEHOLDER
  5
F
102
{ACAD_REACTORS
330
E
102
}
330
E
  0
SCALE
  5
48
102
{ACAD_REACTORS
330
47
102
}
330
47
100
AcDbScale
 70
     0
300
1:1
140
1.0
141
1.0
290
     1
  0
SCALE
  5
49
102
{ACAD_REACTORS
330
47
102
}
330
47
100
AcDbScale
 70
     0
300
1:2
140
1.0
141
2.0
290
     0
  0
SCALE
  5
4A
102
{ACAD_REACTORS
330
47
102
}
330
47
100
AcDbScale
 70
     0
300
1:4
140
1.0
141
4.0
290
     0
  0
SCALE
  5
4B
102
{ACAD_REACTORS
330
47
102
}
330
47
100
AcDbScale
 70
     0
300
1:5
140
1.0
141
5.0
290
     0
  0
SCALE
  5
4C
102
{ACAD_REACTORS
330
47
102
}
330
47
100
AcDbScale
 70
     0
300
1:8
140
1.0
141
8.0
290
     0
  0
SCALE
  5
4D
102
{ACAD_REACTORS
330
47
102
}
330
47
100
AcDbScale
 70
     0
300
1:10
140
1.0
141
10.0
290
     0
  0
SCALE
  5
4E
102
{ACAD_REACTORS
330
47
102
}
330
47
100
AcDbScale
 70
     0
300
1:16
140
1.0
141
16.0
290
     0
  0
SCALE
  5
4F
102
{ACAD_REACTORS
330
47
102
}
330
47
100
AcDbScale
 70
     0
300
1:20
140
1.0
141
20.0
290
     0
  0
SCALE
  5
50
102
{ACAD_REACTORS
330
47
102
}
330
47
100
AcDbScale
 70
     0
300
1:30
140
1.0
141
30.0
290
     0
  0
SCALE
  5
51
102
{ACAD_REACTORS
330
47
102
}
330
47
100
AcDbScale
 70
     0
300
1:40
140
1.0
141
40.0
290
     0
  0
SCALE
  5
52
102
{ACAD_REACTORS
330
47
102
}
330
47
100
AcDbScale
 70
     0
300
1:50
140
1.0
141
50.0
290
     0
  0
SCALE
  5
53
102
{ACAD_REACTORS
330
47
102
}
330
47
100
AcDbScale
 70
     0
300
1:100
140
1.0
141
100.0
290
     0
  0
SCALE
  5
54
102
{ACAD_REACTORS
330
47
102
}
330
47
100
AcDbScale
 70
     0
300
2:1
140
2.0
141
1.0
290
     0
  0
SCALE
  5
55
102
{ACAD_REACTORS
330
47
102
}
330
47
100
AcDbScale
 70
     0
300
4:1
140
4.0
141
1.0
290
     0
  0
SCALE
  5
56
102
{ACAD_REACTORS
330
47
102
}
330
47
100
AcDbScale
 70
     0
300
8:1
140
8.0
141
1.0
290
     0
  0
SCALE
  5
57
102
{ACAD_REACTORS
330
47
102
}
330
47
100
AcDbScale
 70
     0
300
10:1
140
10.0
141
1.0
290
     0
  0
SCALE
  5
58
102
{ACAD_REACTORS
330
47
102
}
330
47
100
AcDbScale
 70
     0
300
100:1
140
100.0
141
1.0
290
     0
  0
SCALE
  5
59
102
{ACAD_REACTORS
330
47
102
}
330
47
100
AcDbScale
 70
     0
300
1/128" = 1'-0"
140
0.0078125
141
12.0
290
     0
  0
SCALE
  5
5A
102
{ACAD_REACTORS
330
47
102
}
330
47
100
AcDbScale
 70
     0
300
1/64" = 1'-0"
140
0.015625
141
12.0
290
     0
  0
SCALE
  5
5B
102
{ACAD_REACTORS
330
47
102
}
330
47
100
AcDbScale
 70
     0
300
1/32" = 1'-0"
140
0.03125
141
12.0
290
     0
  0
SCALE
  5
5C
102
{ACAD_REACTORS
330
47
102
}
330
47
100
AcDbScale
 70
     0
300
1/16" = 1'-0"
140
0.0625
141
12.0
290
     0
  0
SCALE
  5
5D
102
{ACAD_REACTORS
330
47
102
}
330
47
100
AcDbScale
 70
     0
300
3/32" = 1'-0"
140
0.09375
141
12.0
290
     0
  0
SCALE
  5
5E
102
{ACAD_REACTORS
330
47
102
}
330
47
100
AcDbScale
 70
     0
300
1/8" = 1'-0"
140
0.125
141
12.0
290
     0
  0
SCALE
  5
5F
102
{ACAD_REACTORS
330
47
102
}
330
47
100
AcDbScale
 70
     0
300
3/16" = 1'-0"
140
0.1875
141
12.0
290
     0
  0
SCALE
  5
60
102
{ACAD_REACTORS
330
47
102
}
330
47
100
AcDbScale
 70
     0
300
1/4" = 1'-0"
140
0.25
141
12.0
290
     0
  0
SCALE
  5
61
102
{ACAD_REACTORS
330
47
102
}
330
47
100
AcDbScale
 70
     0
300
3/8" = 1'-0"
140
0.375
141
12.0
290
     0
  0
SCALE
  5
62
102
{ACAD_REACTORS
330
47
102
}
330
47
100
AcDbScale
 70
     0
300
1/2" = 1'-0"
140
0.5
141
12.0
290
     0
  0
SCALE
  5
63
102
{ACAD_REACTORS
330
47
102
}
330
47
100
AcDbScale
 70
     0
300
3/4" = 1'-0"
140
0.75
141
12.0
290
     0
  0
SCALE
  5
64
102
{ACAD_REACTORS
330
47
102
}
330
47
100
AcDbScale
 70
     0
300
1" = 1'-0"
140
1.0
141
12.0
290
     0
  0
SCALE
  5
65
102
{ACAD_REACTORS
330
47
102
}
330
47
100
AcDbScale
 70
     0
300
1-1/2" = 1'-0"
140
1.5
141
12.0
290
     0
  0
SCALE
  5
66
102
{ACAD_REACTORS
330
47
102
}
330
47
100
AcDbScale
 70
     0
300
3" = 1'-0"
140
3.0
141
12.0
290
     0
  0
SCALE
  5
67
102
{ACAD_REACTORS
330
47
102
}
330
47
100
AcDbScale
 70
     0
300
6" = 1'-0"
140
6.0
141
12.0
290
     0
  0
SCALE
  5
68
102
{ACAD_REACTORS
330
47
102
}
330
47
100
AcDbScale
 70
     0
300
1'-0" = 1'-0"
140
12.0
141
12.0
290
     0
  0
ENDSEC
  0
EOF
