  0
SECTION
  2
HEADER
  9
$ACADVER
  1
AC1015
  9
$ACADMAINTVER
 70
     6
  9
$DWGCODEPAGE
  3
ANSI_1252
  9
$INSBASE
 10
0.0
 20
0.0
 30
0.0
  9
$EXTMIN
 10
0.0
 20
0.0
 30
0.0
  9
$EXTMAX
 10
297.0
 20
210.0
 30
0.0
  9
$LIMMIN
 10
0.0
 20
0.0
  9
$LIMMAX
 10
297.0
 20
210.0
  9
$ORTHOMODE
 70
     0
  9
$REGENMODE
 70
     1
  9
$FILLMODE
 70
     1
  9
$QTEXTMODE
 70
     0
  9
$MIRRTEXT
 70
     1
  9
$LTSCALE
 40
1.0
  9
$ATTMODE
 70
     1
  9
$TEXTSIZE
 40
2.0
  9
$TRACEWID
 40
1.0
  9
$TEXTSTYLE
  7
Standard
  9
$CLAYER
  8
0
  9
$CELTYPE
  6
ByLayer
  9
$CECOLOR
 62
   256
  9
$CELTSCALE
 40
1.0
  9
$DISPSILH
 70
     0
  9
$DIMSCALE
 40
1.0
  9
$DIMASZ
 40
3.0
  9
$DIMEXO
 40
0.0
  9
$DIMDLI
 40
3.75
  9
$DIMRND
 40
0.0
  9
$DIMDLE
 40
0.0
  9
$DIMEXE
 40
1.0
  9
$DIMTP
 40
0.0
  9
$DIMTM
 40
0.0
  9
$DIMTXT
 40
2.0
  9
$DIMCEN
 40
2.5
  9
$DIMTSZ
 40
0.0
  9
$DIMTOL
 70
     0
  9
$DIMLIM
 70
     0
  9
$DIMTIH
 70
     1
  9
$DIMTOH
 70
     1
  9
$DIMSE1
 70
     0
  9
$DIMSE2
 70
     0
  9
$DIMTAD
 70
     1
  9
$DIMZIN
 70
     0
  9
$DIMBLK
  1

  9
$DIMASO
 70
     1
  9
$DIMSHO
 70
     1
  9
$DIMPOST
  1

  9
$DIMAPOST
  1

  9
$DIMALT
 70
     0
  9
$DIMALTD
 70
     3
  9
$DIMALTF
 40
0.0393700787
  9
$DIMLFAC
 40
1.0
  9
$DIMTOFL
 70
     1
  9
$DIMTVP
 40
0.0
  9
$DIMTIX
 70
     0
  9
$DIMSOXD
 70
     0
  9
$DIMSAH
 70
     0
  9
$DIMBLK1
  1

  9
$DIMBLK2
  1

  9
$DIMSTYLE
  2
ISO-25
  9
$DIMCLRD
 70
     0
  9
$DIMCLRE
 70
     0
  9
$DIMCLRT
 70
     0
  9
$DIMTFAC
 40
1.0
  9
$DIMGAP
 40
1.524
  9
$DIMJUST
 70
     0
  9
$DIMSD1
 70
     0
  9
$DIMSD2
 70
     0
  9
$DIMTOLJ
 70
     0
  9
$DIMTZIN
 70
     0
  9
$DIMALTZ
 70
     0
  9
$DIMALTTZ
 70
     0
  9
$DIMUPT
 70
     0
  9
$DIMDEC
 70
     2
  9
$DIMTDEC
 70
     3
  9
$DIMALTU
 70
     2
  9
$DIMALTTD
 70
     3
  9
$DIMTXSTY
  7
Standard
  9
$DIMAUNIT
 70
     0
  9
$DIMADEC
 70
     2
  9
$DIMALTRND
 40
0.0
  9
$DIMAZIN
 70
     0
  9
$DIMDSEP
 70
    44
  9
$DIMATFIT
 70
     3
  9
$DIMFRAC
 70
     0
  9
$DIMLDRBLK
  1

  9
$DIMLUNIT
 70
     2
  9
$DIMLWD
 70
    -2
  9
$DIMLWE
 70
    -2
  9
$DIMTMOVE
 70
     0
  9
$LUNITS
 70
     2
  9
$LUPREC
 70
     2
  9
$SKETCHINC
 40
1.0
  9
$FILLETRAD
 40
10.0
  9
$AUNITS
 70
     0
  9
$AUPREC
 70
     2
  9
$MENU
  1
.
  9
$ELEVATION
 40
0.0
  9
$PELEVATION
 40
0.0
  9
$THICKNESS
 40
0.0
  9
$LIMCHECK
 70
     0
  9
$CHAMFERA
 40
0.0
  9
$CHAMFERB
 40
0.0
  9
$CHAMFERC
 40
0.0
  9
$CHAMFERD
 40
0.0
  9
$SKPOLY
 70
     0
  9
$TDCREATE
 40
2457632.661481424
  9
$TDUCREATE
 40
2457632.57814809
  9
$TDUPDATE
 40
2457632.661483229
  9
$TDUUPDATE
 40
2457632.578149896
  9
$TDINDWG
 40
0.0000000116
  9
$TDUSRTIMER
 40
0.0000000116
  9
$USRTIMER
 70
     1
  9
$ANGBASE
 50
0.0
  9
$ANGDIR
 70
     0
  9
$PDMODE
 70
     0
  9
$PDSIZE
 40
-1.0
  9
$PLINEWID
 40
0.0
  9
$SPLFRAME
 70
     0
  9
$SPLINETYPE
 70
     6
  9
$SPLINESEGS
 70
     8
  9
$HANDSEED
  5
2BF
  9
$SURFTAB1
 70
     6
  9
$SURFTAB2
 70
     6
  9
$SURFTYPE
 70
     6
  9
$SURFU
 70
     6
  9
$SURFV
 70
     6
  9
$UCSBASE
  2

  9
$UCSNAME
  2

  9
$UCSORG
 10
0.0
 20
0.0
 30
0.0
  9
$UCSXDIR
 10
1.0
 20
0.0
 30
0.0
  9
$UCSYDIR
 10
0.0
 20
1.0
 30
0.0
  9
$UCSORTHOREF
  2

  9
$UCSORTHOVIEW
 70
     0
  9
$UCSORGTOP
 10
0.0
 20
0.0
 30
0.0
  9
$UCSORGBOTTOM
 10
0.0
 20
0.0
 30
0.0
  9
$UCSORGLEFT
 10
0.0
 20
0.0
 30
0.0
  9
$UCSORGRIGHT
 10
0.0
 20
0.0
 30
0.0
  9
$UCSORGFRONT
 10
0.0
 20
0.0
 30
0.0
  9
$UCSORGBACK
 10
0.0
 20
0.0
 30
0.0
  9
$PUCSBASE
  2

  9
$PUCSNAME
  2

  9
$PUCSORG
 10
0.0
 20
0.0
 30
0.0
  9
$PUCSXDIR
 10
1.0
 20
0.0
 30
0.0
  9
$PUCSYDIR
 10
0.0
 20
1.0
 30
0.0
  9
$PUCSORTHOREF
  2

  9
$PUCSORTHOVIEW
 70
     0
  9
$PUCSORGTOP
 10
0.0
 20
0.0
 30
0.0
  9
$PUCSORGBOTTOM
 10
0.0
 20
0.0
 30
0.0
  9
$PUCSORGLEFT
 10
0.0
 20
0.0
 30
0.0
  9
$PUCSORGRIGHT
 10
0.0
 20
0.0
 30
0.0
  9
$PUCSORGFRONT
 10
0.0
 20
0.0
 30
0.0
  9
$PUCSORGBACK
 10
0.0
 20
0.0
 30
0.0
  9
$USERI1
 70
     0
  9
$USERI2
 70
     0
  9
$USERI3
 70
     0
  9
$USERI4
 70
     0
  9
$USERI5
 70
     0
  9
$USERR1
 40
0.0
  9
$USERR2
 40
0.0
  9
$USERR3
 40
0.0
  9
$USERR4
 40
0.0
  9
$USERR5
 40
0.0
  9
$WORLDVIEW
 70
     1
  9
$SHADEDGE
 70
     3
  9
$SHADEDIF
 70
    70
  9
$TILEMODE
 70
     1
  9
$MAXACTVP
 70
    64
  9
$PINSBASE
 10
0.0
 20
0.0
 30
0.0
  9
$PLIMCHECK
 70
     0
  9
$PEXTMIN
 10
1.0000000000E+20
 20
1.0000000000E+20
 30
1.0000000000E+20
  9
$PEXTMAX
 10
-1.0000000000E+20
 20
-1.0000000000E+20
 30
-1.0000000000E+20
  9
$PLIMMIN
 10
0.0
 20
0.0
  9
$PLIMMAX
 10
420.0
 20
297.0
  9
$UNITMODE
 70
     0
  9
$VISRETAIN
 70
     1
  9
$PLINEGEN
 70
     0
  9
$PSLTSCALE
 70
     1
  9
$TREEDEPTH
 70
  3020
  9
$CMLSTYLE
  2
Standard
  9
$CMLJUST
 70
     0
  9
$CMLSCALE
 40
20.0
  9
$PROXYGRAPHICS
 70
     1
  9
$MEASUREMENT
 70
     1
  9
$CELWEIGHT
370
    -1
  9
$ENDCAPS
280
     0
  9
$JOINSTYLE
280
     0
  9
$LWDISPLAY
290
     1
  9
$INSUNITS
 70
     4
  9
$HYPERLINKBASE
  1

  9
$STYLESHEET
  1

  9
$XEDIT
290
     1
  9
$CEPSNTYPE
380
     0
  9
$PSTYLEMODE
290
     1
  9
$FINGERPRINTGUID
  2
{1C62484B-2AC5-4A6D-8903-D586983BD298}
  9
$VERSIONGUID
  2
{FAEB1C32-E019-11D5-929B-00C0DF256EC4}
  9
$EXTNAMES
290
     1
  9
$PSVPSCALE
 40
0.0
  9
$OLESTARTUP
290
     0
  0
ENDSEC
  0
SECTION
  2
CLASSES
  0
CLASS
  1
ACDBDICTIONARYWDFLT
  2
AcDbDictionaryWithDefault
  3
ObjectDBX Classes
 90
        0
280
     0
281
     0
  0
CLASS
  1
VISUALSTYLE
  2
AcDbVisualStyle
  3
ObjectDBX Classes
 90
     4095
280
     0
281
     0
  0
CLASS
  1
MATERIAL
  2
AcDbMaterial
  3
ObjectDBX Classes
 90
     1153
280
     0
281
     0
  0
CLASS
  1
SCALE
  2
AcDbScale
  3
ObjectDBX Classes
 90
     1153
280
     0
281
     0
  0
CLASS
  1
TABLESTYLE
  2
AcDbTableStyle
  3
ObjectDBX Classes
 90
     4095
280
     0
281
     0
  0
CLASS
  1
MLEADERSTYLE
  2
AcDbMLeaderStyle
  3
ACDB_MLEADERSTYLE_CLASS
 90
     4095
280
     0
281
     0
  0
CLASS
  1
SUN
  2
AcDbSun
  3
SCENEOE
 90
     1153
280
     0
281
     0
  0
CLASS
  1
ACDBPLACEHOLDER
  2
AcDbPlaceHolder
  3
ObjectDBX Classes
 90
        0
280
     0
281
     0
  0
CLASS
  1
LAYOUT
  2
AcDbLayout
  3
ObjectDBX Classes
 90
        0
280
     0
281
     0
  0
ENDSEC
  0
SECTION
  2
TABLES
  0
TABLE
  2
VPORT
  5
8
330
0
100
AcDbSymbolTable
 70
     1
  0
VPORT
  5
29
330
8
100
AcDbSymbolTableRecord
100
AcDbViewportTableRecord
  2
*Active
 70
     0
 10
0.0
 20
0.0
 11
1.0
 21
1.0
 12
148.5
 22
105.0
 13
0.0
 23
0.0
 14
10.0
 24
10.0
 15
10.0
 25
10.0
 16
0.0
 26
0.0
 36
1.0
 17
0.0
 27
0.0
 37
0.0
 40
210.0
 41
1.4142857143
 42
50.0
 43
0.0
 44
0.0
 50
0.0
 51
0.0
 71
     0
 72
  2000
 73
     1
 74
     3
 75
     0
 76
     0
 77
     0
 78
     0
281
     0
 65
     1
110
0.0
120
0.0
130
0.0
111
1.0
121
0.0
131
0.0
112
0.0
122
1.0
132
0.0
 79
     0
146
0.0
  0
ENDTAB
  0
TABLE
  2
LTYPE
  5
5
330
0
100
AcDbSymbolTable
 70
     6
  0
LTYPE
  5
14
330
5
100
AcDbSymbolTableRecord
100
AcDbLinetypeTableRecord
  2
ByBlock
 70
     0
  3

 72
    65
 73
     0
 40
0.0
  0
LTYPE
  5
15
330
5
100
AcDbSymbolTableRecord
100
AcDbLinetypeTableRecord
  2
ByLayer
 70
     0
  3

 72
    65
 73
     0
 40
0.0
  0
LTYPE
  5
16
330
5
100
AcDbSymbolTableRecord
100
AcDbLinetypeTableRecord
  2
Continuous
 70
     0
  3
Solid line
 72
    65
 73
     0
 40
0.0
  0
LTYPE
  5
6E
330
5
100
AcDbSymbolTableRecord
100
AcDbLinetypeTableRecord
  2
HIDDEN
 70
     0
  3
Hidden __ __ __ __ __ __ __ __ __ __ __ __ __ __
 72
    65
 73
     2
 40
1.905
 49
1.27
 74
     0
 49
-0.635
 74
     0
  0
LTYPE
  5
6F
330
5
100
AcDbSymbolTableRecord
100
AcDbLinetypeTableRecord
  2
PHANTOM
 70
     0
  3
Phantom ______  __  __  ______  __  __  ______
 72
    65
 73
     6
 40
12.7
 49
6.35
 74
     0
 49
-1.27
 74
     0
 49
1.27
 74
     0
 49
-1.27
 74
     0
 49
1.27
 74
     0
 49
-1.27
 74
     0
  0
LTYPE
  5
70
330
5
100
AcDbSymbolTableRecord
100
AcDbLinetypeTableRecord
  2
CENTER
 70
     0
  3
Center ____ _ ____ _ ____ _ ____ _ ____ _ ____
 72
    65
 73
     4
 40
10.16
 49
6.35
 74
     0
 49
-1.27
 74
     0
 49
1.27
 74
     0
 49
-1.27
 74
     0
  0
LTYPE
  5
71
330
5
100
AcDbSymbolTableRecord
100
AcDbLinetypeTableRecord
  2
CENTERX2
 70
     0
  3
Center (2x) ________  __  ________  __  _____
 72
    65
 73
     4
 40
20.32
 49
12.7
 74
     0
 49
-2.54
 74
     0
 49
2.54
 74
     0
 49
-2.54
 74
     0
  0
LTYPE
  5
72
330
5
100
AcDbSymbolTableRecord
100
AcDbLinetypeTableRecord
  2
DOT2
 70
     0
  3
Dot (.5x) ........................................
 72
    65
 73
     2
 40
0.635
 49
0.0
 74
     0
 49
-0.635
 74
     0
  0
ENDTAB
  0
TABLE
  2
LAYER
  5
2
330
0
100
AcDbSymbolTable
 70
     5
  0
LAYER
  5
10
330
2
100
AcDbSymbolTableRecord
100
AcDbLayerTableRecord
  2
0
 70
     0
 62
     7
  6
Continuous
370
    -3
390
F
  0
LAYER
  5
73
330
2
100
AcDbSymbolTableRecord
100
AcDbLayerTableRecord
  2
FORMAT
 70
     0
 62
     7
  6
Continuous
370
    -3
390
F
  0
LAYER
  5
74
330
2
100
AcDbSymbolTableRecord
100
AcDbLayerTableRecord
  2
VERMASSUNG
 70
     0
 62
     7
  6
Continuous
370
    -3
390
F
  0
LAYER
  5
75
330
2
100
AcDbSymbolTableRecord
100
AcDbLayerTableRecord
  2
KOPF_DÜNN
 70
     0
 62
     7
  6
Continuous
370
    -3
390
F
  0
LAYER
  5
76
330
2
100
AcDbSymbolTableRecord
100
AcDbLayerTableRecord
  2
KOPF_DICK
 70
     0
 62
     7
  6
Continuous
370
    15
390
F
  0
ENDTAB
  0
TABLE
  2
STYLE
  5
3
330
0
100
AcDbSymbolTable
 70
     2
  0
STYLE
  5
11
330
3
100
AcDbSymbolTableRecord
100
AcDbTextStyleTableRecord
  2
Standard
 70
     0
 40
0.0
 41
1.0
 50
0.0
 71
     0
 42
2.0
  3
txt
  4

  0
STYLE
  5
77
330
3
100
AcDbSymbolTableRecord
100
AcDbTextStyleTableRecord
  2
SLDTEXTSTYLE0
 70
     0
 40
0.0
 41
0.7
 50
0.0
 71
     0
 42
2.0
  3
TXT
  4

  0
ENDTAB
  0
TABLE
  2
VIEW
  5
6
330
0
100
AcDbSymbolTable
 70
     0
  0
ENDTAB
  0
TABLE
  2
UCS
  5
7
330
0
100
AcDbSymbolTable
 70
     0
  0
ENDTAB
  0
TABLE
  2
APPID
  5
9
330
0
100
AcDbSymbolTable
 70
     1
  0
APPID
  5
12
330
9
100
AcDbSymbolTableRecord
100
AcDbRegAppTableRecord
  2
ACAD
 70
     0
  0
ENDTAB
  0
TABLE
  2
DIMSTYLE
  5
A
330
0
100
AcDbSymbolTable
 70
     3
100
AcDbDimStyleTable
  0
DIMSTYLE
105
27
330
A
100
AcDbSymbolTableRecord
100
AcDbDimStyleTableRecord
  2
ISO-25
 70
     0
 41
2.5
 42
0.625
 43
3.75
 44
1.25
 73
     0
 74
     0
 77
     1
 78
     8
140
2.5
141
2.5
143
0.0393700787
147
0.625
171
     3
172
     1
178
     0
271
     2
272
     2
274
     3
278
    44
283
     0
284
     8
340
11
  0
DIMSTYLE
105
1A1
102
{ACAD_REACTORS
330
1A0
330
1AD
330
1B7
330
1C1
330
1CB
102
}
330
A
100
AcDbSymbolTableRecord
100
AcDbDimStyleTableRecord
  2
SLDDIMSTYLE0
 70
     0
 41
3.0
 44
0.0
 45
0.000000001
 73
     0
 74
     0
 77
     1
 78
    12
 79
     3
140
2.0
147
0.5
173
     1
178
     0
271
     2
272
     3
276
     2
284
    12
340
77
  0
DIMSTYLE
105
1DD
330
A
100
AcDbSymbolTableRecord
100
AcDbDimStyleTableRecord
  2
SLDDIMSTYLE1
 70
     0
 41
0.9
 44
0.0
 45
0.000000001
146
0.9
147
0.0
173
     1
178
     0
271
     0
272
     0
276
     2
340
11
341
1DE
343
1DE
344
1DE
  0
ENDTAB
  0
TABLE
  2
BLOCK_RECORD
  5
1
330
0
100
AcDbSymbolTable
 70
    10
  0
BLOCK_RECORD
  5
1F
330
1
100
AcDbSymbolTableRecord
100
AcDbBlockTableRecord
  2
*Model_Space
340
22
  0
BLOCK_RECORD
  5
1B
330
1
100
AcDbSymbolTableRecord
100
AcDbBlockTableRecord
  2
*Paper_Space
340
1E
  0
BLOCK_RECORD
  5
23
330
1
100
AcDbSymbolTableRecord
100
AcDbBlockTableRecord
  2
*Paper_Space0
340
26
  0
BLOCK_RECORD
  5
7D
330
1
100
AcDbSymbolTableRecord
100
AcDbBlockTableRecord
  2
SW_TABLEANNOTATION_0
340
0
102
{BLKREFS
331
98
102
}
  0
BLOCK_RECORD
  5
1A2
330
1
100
AcDbSymbolTableRecord
100
AcDbBlockTableRecord
  2
_D
340
0
  0
BLOCK_RECORD
  5
1AE
330
1
100
AcDbSymbolTableRecord
100
AcDbBlockTableRecord
  2
_D_1
340
0
  0
BLOCK_RECORD
  5
1B8
330
1
100
AcDbSymbolTableRecord
100
AcDbBlockTableRecord
  2
_D_2
340
0
  0
BLOCK_RECORD
  5
1C2
330
1
100
AcDbSymbolTableRecord
100
AcDbBlockTableRecord
  2
_D_3
340
0
  0
BLOCK_RECORD
  5
1CC
330
1
100
AcDbSymbolTableRecord
100
AcDbBlockTableRecord
  2
_D_4
340
0
  0
BLOCK_RECORD
  5
1D7
330
1
100
AcDbSymbolTableRecord
100
AcDbBlockTableRecord
  2
SW_NOTE_0
340
0
102
{BLKREFS
331
1DC
102
}
  0
BLOCK_RECORD
  5
1DE
330
1
100
AcDbSymbolTableRecord
100
AcDbBlockTableRecord
  2
_DOT
340
0
  0
BLOCK_RECORD
  5
1E7
330
1
100
AcDbSymbolTableRecord
100
AcDbBlockTableRecord
  2
SW_NOTE_1
340
0
102
{BLKREFS
331
1EC
102
}
  0
ENDTAB
  0
ENDSEC
  0
SECTION
  2
BLOCKS
  0
BLOCK
  5
20
330
1F
100
AcDbEntity
  8
0
100
AcDbBlockBegin
  2
*Model_Space
 70
     0
 10
0.0
 20
0.0
 30
0.0
  3
*Model_Space
  1

  0
ENDBLK
  5
21
330
1F
100
AcDbEntity
  8
0
100
AcDbBlockEnd
  0
BLOCK
  5
1C
330
1B
100
AcDbEntity
 67
     1
  8
0
100
AcDbBlockBegin
  2
*Paper_Space
 70
     0
 10
0.0
 20
0.0
 30
0.0
  3
*Paper_Space
  1

  0
ENDBLK
  5
1D
330
1B
100
AcDbEntity
 67
     1
  8
0
100
AcDbBlockEnd
  0
BLOCK
  5
24
330
23
100
AcDbEntity
  8
0
100
AcDbBlockBegin
  2
*Paper_Space0
 70
     0
 10
0.0
 20
0.0
 30
0.0
  3
*Paper_Space0
  1

  0
ENDBLK
  5
25
330
23
100
AcDbEntity
  8
0
100
AcDbBlockEnd
  0
BLOCK
  5
7E
330
7D
100
AcDbEntity
  8
0
100
AcDbBlockBegin
  2
SW_TABLEANNOTATION_0
 70
     0
 10
0.0
 20
0.0
 30
0.0
  3
SW_TABLEANNOTATION_0
  1

  0
LINE
  5
80
330
7D
100
AcDbEntity
  8
0
  6
Continuous
 62
     0
370
     0
100
AcDbLine
 10
0.0
 20
0.0
 30
0.0
 11
0.0
 21
-10.9613963039
 31
0.0
  0
LINE
  5
81
330
7D
100
AcDbEntity
  8
0
  6
Continuous
 62
     0
370
     0
100
AcDbLine
 10
0.0
 20
-10.9613963039
 30
0.0
 11
125.0044361962
 21
-10.9613963039
 31
0.0
  0
LINE
  5
82
330
7D
100
AcDbEntity
  8
0
  6
Continuous
 62
     0
370
     0
100
AcDbLine
 10
125.0044361962
 20
-10.9613963039
 30
0.0
 11
125.0044361962
 21
0.0
 31
0.0
  0
LINE
  5
83
330
7D
100
AcDbEntity
  8
0
  6
Continuous
 62
     0
370
     0
100
AcDbLine
 10
125.0044361962
 20
0.0
 30
0.0
 11
0.0
 21
0.0
 31
0.0
  0
LINE
  5
84
330
7D
100
AcDbEntity
  8
0
  6
Continuous
 62
     0
370
     0
100
AcDbLine
 10
15.9651052694
 20
-7.3075975359
 30
0.0
 11
15.9651052694
 21
-10.9613963039
 31
0.0
  0
LINE
  5
85
330
7D
100
AcDbEntity
  8
0
  6
Continuous
 62
     0
370
     0
100
AcDbLine
 10
34.1012448998
 20
-7.3075975359
 30
0.0
 11
34.1012448998
 21
-10.9613963039
 31
0.0
  0
LINE
  5
86
330
7D
100
AcDbEntity
  8
0
  6
Continuous
 62
     0
370
     0
100
AcDbLine
 10
92.6586456418
 20
-7.3075975359
 30
0.0
 11
92.6586456418
 21
-10.9613963039
 31
0.0
  0
LINE
  5
87
330
7D
100
AcDbEntity
  8
0
  6
Continuous
 62
     0
370
     0
100
AcDbLine
 10
15.9651052694
 20
0.0
 30
0.0
 11
15.9651052694
 21
-7.3075975359
 31
0.0
  0
LINE
  5
88
330
7D
100
AcDbEntity
  8
0
  6
Continuous
 62
     0
370
     0
100
AcDbLine
 10
34.1012448998
 20
0.0
 30
0.0
 11
34.1012448998
 21
-7.3075975359
 31
0.0
  0
LINE
  5
89
330
7D
100
AcDbEntity
  8
0
  6
Continuous
 62
     0
370
     0
100
AcDbLine
 10
92.6586456418
 20
0.0
 30
0.0
 11
92.6586456418
 21
-7.3075975359
 31
0.0
  0
LINE
  5
8A
330
7D
100
AcDbEntity
  8
0
  6
Continuous
 62
     0
370
     0
100
AcDbLine
 10
0.0
 20
-3.653798768
 30
0.0
 11
125.0044361962
 21
-3.653798768
 31
0.0
  0
LINE
  5
8B
330
7D
100
AcDbEntity
  8
0
  6
Continuous
 62
     0
370
     0
100
AcDbLine
 10
0.0
 20
-7.3075975359
 30
0.0
 11
125.0044361962
 21
-7.3075975359
 31
0.0
  0
MTEXT
  5
8C
330
7D
100
AcDbEntity
  8
0
  6
Continuous
 62
     0
370
     0
100
AcDbMText
 10
5.2825527975
 20
-7.9563615651
 30
0.0
 40
2.0
 41
0.0
 71
     1
 72
     1
  1
POS.
  7
SLDTEXTSTYLE0
 73
     1
 44
1.0
  0
MTEXT
  5
8D
330
7D
100
AcDbEntity
  8
0
  6
Continuous
 62
     0
370
     0
100
AcDbMText
 10
21.1331751904
 20
-7.9563615651
 30
0.0
 40
2.0
 41
0.0
 71
     1
 72
     1
  1
MENGE
  7
SLDTEXTSTYLE0
 73
     1
 44
1.0
  0
MTEXT
  5
8E
330
7D
100
AcDbEntity
  8
0
  6
Continuous
 62
     0
370
     0
100
AcDbMText
 10
56.0799464956
 20
-7.9563615651
 30
0.0
 40
2.0
 41
0.0
 71
     1
 72
     1
  1
Bezeichnung
  7
SLDTEXTSTYLE0
 73
     1
 44
1.0
  0
MTEXT
  5
8F
330
7D
100
AcDbEntity
  8
0
  6
Continuous
 62
     0
370
     0
100
AcDbMText
 10
97.7315420798
 20
-7.9563615651
 30
0.0
 40
2.0
 41
0.0
 71
     1
 72
     1
  1
Zeichnungsnummer
  7
SLDTEXTSTYLE0
 73
     1
 44
1.0
  0
MTEXT
  5
90
330
7D
100
AcDbEntity
  8
0
  6
Continuous
 62
     0
370
     0
100
AcDbMText
 10
7.2825526596
 20
-0.9171773494
 30
0.0
 40
2.0
 41
0.0
 71
     1
 72
     1
  1
2
  7
SLDTEXTSTYLE0
 73
     1
 44
1.0
  0
MTEXT
  5
91
330
7D
100
AcDbEntity
  8
0
  6
Continuous
 62
     0
370
     0
100
AcDbMText
 10
24.5331750608
 20
-0.9171773494
 30
0.0
 40
2.0
 41
0.0
 71
     1
 72
     1
  1
1
  7
SLDTEXTSTYLE0
 73
     1
 44
1.0
  0
MTEXT
  5
92
330
7D
100
AcDbEntity
  8
0
  6
Continuous
 62
     0
370
     0
100
AcDbMText
 10
54.2799467594
 20
-0.9171773494
 30
0.0
 40
2.0
 41
0.0
 71
     1
 72
     1
  1
Klemmschraube
  7
SLDTEXTSTYLE0
 73
     1
 44
1.0
  0
MTEXT
  5
93
330
7D
100
AcDbEntity
  8
0
  6
Continuous
 62
     0
370
     0
100
AcDbMText
 10
99.5315408847
 20
-0.9171773494
 30
0.0
 40
2.0
 41
0.0
 71
     1
 72
     1
  1
MB3-ER1.001.011
  7
SLDTEXTSTYLE0
 73
     1
 44
1.0
  0
MTEXT
  5
94
330
7D
100
AcDbEntity
  8
0
  6
Continuous
 62
     0
370
     0
100
AcDbMText
 10
7.4825526109
 20
-4.5709761174
 30
0.0
 40
2.0
 41
0.0
 71
     1
 72
     1
  1
1
  7
SLDTEXTSTYLE0
 73
     1
 44
1.0
  0
MTEXT
  5
95
330
7D
100
AcDbEntity
  8
0
  6
Continuous
 62
     0
370
     0
100
AcDbMText
 10
24.5331750608
 20
-4.5709761174
 30
0.0
 40
2.0
 41
0.0
 71
     1
 72
     1
  1
1
  7
SLDTEXTSTYLE0
 73
     1
 44
1.0
  0
MTEXT
  5
96
330
7D
100
AcDbEntity
  8
0
  6
Continuous
 62
     0
370
     0
100
AcDbMText
 10
54.2799448967
 20
-4.5709761174
 30
0.0
 40
2.0
 41
0.0
 71
     1
 72
     1
  1
Aufnahme MBM
  7
SLDTEXTSTYLE0
 73
     1
 44
1.0
  0
MTEXT
  5
97
330
7D
100
AcDbEntity
  8
0
  6
Continuous
 62
     0
370
     0
100
AcDbMText
 10
98.6315414822
 20
-4.5709761174
 30
0.0
 40
2.0
 41
0.0
 71
     1
 72
     1
  1
HA6-MB3.K01.050
  7
SLDTEXTSTYLE0
 73
     1
 44
1.0
  0
ENDBLK
  5
7F
330
7D
100
AcDbEntity
  8
0
100
AcDbBlockEnd
  0
BLOCK
  5
1A3
330
1A2
100
AcDbEntity
  8
0
100
AcDbBlockBegin
  2
_D
 70
     0
 10
0.0
 20
0.0
 30
0.0
  3
_D
  1

  0
SOLID
  5
1A5
330
1A2
100
AcDbEntity
  8
VERMASSUNG
100
AcDbTrace
 10
103.1489109738
 20
142.3916730355
 30
0.0
 11
102.6989109738
 21
139.3916730355
 31
0.0
 12
103.5989109738
 22
139.3916730355
 32
0.0
 13
103.5989109738
 23
139.3916730355
 33
0.0
  0
SOLID
  5
1A6
330
1A2
100
AcDbEntity
  8
VERMASSUNG
100
AcDbTrace
 10
103.1489109738
 20
79.3916730355
 30
0.0
 11
103.5989109738
 21
82.3916730355
 31
0.0
 12
102.6989109738
 22
82.3916730355
 32
0.0
 13
102.6989109738
 23
82.3916730355
 33
0.0
  0
LINE
  5
1A7
330
1A2
100
AcDbEntity
  8
VERMASSUNG
100
AcDbLine
 10
140.9271915795
 20
142.3916730355
 30
0.0
 11
102.1489109738
 21
142.3916730355
 31
0.0
  0
LINE
  5
1A8
330
1A2
100
AcDbEntity
  8
VERMASSUNG
100
AcDbLine
 10
140.9271915795
 20
79.3916730355
 30
0.0
 11
102.1489109738
 21
79.3916730355
 31
0.0
  0
LINE
  5
1A9
330
1A2
100
AcDbEntity
  8
VERMASSUNG
100
AcDbLine
 10
103.1489109738
 20
142.3916730355
 30
0.0
 11
103.1489109738
 21
79.3916730355
 31
0.0
  0
MTEXT
  5
1AA
330
1A2
100
AcDbEntity
  8
VERMASSUNG
100
AcDbMText
 10
100.3707757176
 20
102.5198878093
 30
0.0
 40
2.0
 41
0.0
 71
     1
 72
     1
  1
HSK A
  7
SLDTEXTSTYLE0
 11
-7.044195017643634E-15
 21
1.0
 31
0.0
 73
     1
 44
1.0
  0
MTEXT
  5
1AB
330
1A2
100
AcDbEntity
  8
VERMASSUNG
100
AcDbMText
 10
100.5707756689
 20
111.5198874219
 30
0.0
 40
2.0
 41
0.0
 71
     1
 72
     1
  1
%%c
  7
SLDTEXTSTYLE0
 11
-7.044195017643634E-15
 21
1.0
 31
0.0
 73
     1
 44
1.0
  0
MTEXT
  5
1AC
330
1A2
100
AcDbEntity
  8
VERMASSUNG
100
AcDbMText
 10
100.5707753778
 20
115.1292307548
 30
0.0
 40
2.0
 41
0.0
 71
     1
 72
     1
  1
63
  7
SLDTEXTSTYLE0
 11
-7.044195017643634E-15
 21
1.0
 31
0.0
 73
     1
 44
1.0
  0
ENDBLK
  5
1A4
330
1A2
100
AcDbEntity
  8
0
100
AcDbBlockEnd
  0
BLOCK
  5
1AF
330
1AE
100
AcDbEntity
  8
0
100
AcDbBlockBegin
  2
_D_1
 70
     0
 10
0.0
 20
0.0
 30
0.0
  3
_D_1
  1

  0
SOLID
  5
1B1
330
1AE
100
AcDbEntity
  8
VERMASSUNG
100
AcDbTrace
 10
190.6271915795
 20
152.3444241882
 30
0.0
 11
187.6271915795
 21
152.7944241882
 31
0.0
 12
187.6271915795
 22
151.8944241882
 32
0.0
 13
187.6271915795
 23
151.8944241882
 33
0.0
  0
SOLID
  5
1B2
330
1AE
100
AcDbEntity
  8
VERMASSUNG
100
AcDbTrace
 10
140.6271915795
 20
152.3444241882
 30
0.0
 11
143.6271915795
 21
151.8944241882
 31
0.0
 12
143.6271915795
 22
152.7944241882
 32
0.0
 13
143.6271915795
 23
152.7944241882
 33
0.0
  0
LINE
  5
1B3
330
1AE
100
AcDbEntity
  8
VERMASSUNG
100
AcDbLine
 10
190.6271915795
 20
126.5916730355
 30
0.0
 11
190.6271915795
 21
153.3444241882
 31
0.0
  0
LINE
  5
1B4
330
1AE
100
AcDbEntity
  8
VERMASSUNG
100
AcDbLine
 10
140.6271915795
 20
142.0916730355
 30
0.0
 11
140.6271915795
 21
153.3444241882
 31
0.0
  0
LINE
  5
1B5
330
1AE
100
AcDbEntity
  8
VERMASSUNG
100
AcDbLine
 10
190.6271915795
 20
152.3444241882
 30
0.0
 11
140.6271915795
 21
152.3444241882
 31
0.0
  0
MTEXT
  5
1B6
330
1AE
100
AcDbEntity
  8
VERMASSUNG
100
AcDbMText
 10
164.2275015692
 20
154.9225597841
 30
0.0
 40
2.0
 41
0.0
 71
     1
 72
     1
  1
50
  7
SLDTEXTSTYLE0
 73
     1
 44
1.0
  0
ENDBLK
  5
1B0
330
1AE
100
AcDbEntity
  8
0
100
AcDbBlockEnd
  0
BLOCK
  5
1B9
330
1B8
100
AcDbEntity
  8
0
100
AcDbBlockBegin
  2
_D_2
 70
     0
 10
0.0
 20
0.0
 30
0.0
  3
_D_2
  1

  0
SOLID
  5
1BB
330
1B8
100
AcDbEntity
  8
VERMASSUNG
100
AcDbTrace
 10
190.6271915795
 20
146.3444241882
 30
0.0
 11
187.6271915795
 21
146.7944241882
 31
0.0
 12
187.6271915795
 22
145.8944241882
 32
0.0
 13
187.6271915795
 23
145.8944241882
 33
0.0
  0
SOLID
  5
1BC
330
1B8
100
AcDbEntity
  8
VERMASSUNG
100
AcDbTrace
 10
166.5771915795
 20
146.3444241882
 30
0.0
 11
169.5771915795
 21
145.8944241882
 31
0.0
 12
169.5771915795
 22
146.7944241882
 32
0.0
 13
169.5771915795
 23
146.7944241882
 33
0.0
  0
LINE
  5
1BD
330
1B8
100
AcDbEntity
  8
VERMASSUNG
100
AcDbLine
 10
190.6271915795
 20
126.5916730355
 30
0.0
 11
190.6271915795
 21
147.3444241882
 31
0.0
  0
LINE
  5
1BE
330
1B8
100
AcDbEntity
  8
VERMASSUNG
100
AcDbLine
 10
166.5771915795
 20
140.7381133592
 30
0.0
 11
166.5771915795
 21
147.3444241882
 31
0.0
  0
LINE
  5
1BF
330
1B8
100
AcDbEntity
  8
VERMASSUNG
100
AcDbLine
 10
190.6271915795
 20
146.3444241882
 30
0.0
 11
166.5771915795
 21
146.3444241882
 31
0.0
  0
MTEXT
  5
1C0
330
1B8
100
AcDbEntity
  8
VERMASSUNG
100
AcDbMText
 10
175.4024274188
 20
148.9225597841
 30
0.0
 40
2.0
 41
0.0
 71
     1
 72
     1
  1
24.05
  7
SLDTEXTSTYLE0
 73
     1
 44
1.0
  0
ENDBLK
  5
1BA
330
1B8
100
AcDbEntity
  8
0
100
AcDbBlockEnd
  0
BLOCK
  5
1C3
330
1C2
100
AcDbEntity
  8
0
100
AcDbBlockBegin
  2
_D_3
 70
     0
 10
0.0
 20
0.0
 30
0.0
  3
_D_3
  1

  0
SOLID
  5
1C5
330
1C2
100
AcDbEntity
  8
VERMASSUNG
100
AcDbTrace
 10
190.6271915795
 20
158.3444241882
 30
0.0
 11
187.6271915795
 21
158.7944241882
 31
0.0
 12
187.6271915795
 22
157.8944241882
 32
0.0
 13
187.6271915795
 23
157.8944241882
 33
0.0
  0
SOLID
  5
1C6
330
1C2
100
AcDbEntity
  8
VERMASSUNG
100
AcDbTrace
 10
108.7271915795
 20
158.3444241882
 30
0.0
 11
111.7271915795
 21
157.8944241882
 31
0.0
 12
111.7271915795
 22
158.7944241882
 32
0.0
 13
111.7271915795
 23
158.7944241882
 33
0.0
  0
LINE
  5
1C7
330
1C2
100
AcDbEntity
  8
VERMASSUNG
100
AcDbLine
 10
190.6271915795
 20
126.5916730355
 30
0.0
 11
190.6271915795
 21
159.3444241882
 31
0.0
  0
LINE
  5
1C8
330
1C2
100
AcDbEntity
  8
VERMASSUNG
100
AcDbLine
 10
108.7271915795
 20
130.582350782
 30
0.0
 11
108.7271915795
 21
159.3444241882
 31
0.0
  0
LINE
  5
1C9
330
1C2
100
AcDbEntity
  8
VERMASSUNG
100
AcDbLine
 10
190.6271915795
 20
158.3444241882
 30
0.0
 11
108.7271915795
 21
158.3444241882
 31
0.0
  0
MTEXT
  5
1CA
330
1C2
100
AcDbEntity
  8
VERMASSUNG
100
AcDbMText
 10
147.4778362757
 20
160.9225597841
 30
0.0
 40
2.0
 41
0.0
 71
     1
 72
     1
  1
81.9
  7
SLDTEXTSTYLE0
 73
     1
 44
1.0
  0
ENDBLK
  5
1C4
330
1C2
100
AcDbEntity
  8
0
100
AcDbBlockEnd
  0
BLOCK
  5
1CD
330
1CC
100
AcDbEntity
  8
0
100
AcDbBlockBegin
  2
_D_4
 70
     0
 10
0.0
 20
0.0
 30
0.0
  3
_D_4
  1

  0
SOLID
  5
1CF
330
1CC
100
AcDbEntity
  8
VERMASSUNG
100
AcDbTrace
 10
198.5714557989
 20
126.8916730355
 30
0.0
 11
198.1214557989
 21
123.8916730355
 31
0.0
 12
199.0214557989
 22
123.8916730355
 32
0.0
 13
199.0214557989
 23
123.8916730355
 33
0.0
  0
SOLID
  5
1D0
330
1CC
100
AcDbEntity
  8
VERMASSUNG
100
AcDbTrace
 10
198.5714557989
 20
94.8916730355
 30
0.0
 11
199.0214557989
 21
97.8916730355
 31
0.0
 12
198.1214557989
 22
97.8916730355
 32
0.0
 13
198.1214557989
 23
97.8916730355
 33
0.0
  0
LINE
  5
1D1
330
1CC
100
AcDbEntity
  8
VERMASSUNG
100
AcDbLine
 10
190.3271915795
 20
126.8916730355
 30
0.0
 11
199.5714557989
 21
126.8916730355
 31
0.0
  0
LINE
  5
1D2
330
1CC
100
AcDbEntity
  8
VERMASSUNG
100
AcDbLine
 10
190.3271915795
 20
94.8916730355
 30
0.0
 11
199.5714557989
 21
94.8916730355
 31
0.0
  0
LINE
  5
1D3
330
1CC
100
AcDbEntity
  8
VERMASSUNG
100
AcDbLine
 10
198.5714557989
 20
126.8916730355
 30
0.0
 11
198.5714557989
 21
94.8916730355
 31
0.0
  0
MTEXT
  5
1D4
330
1CC
100
AcDbEntity
  8
VERMASSUNG
100
AcDbMText
 10
195.7933205426
 20
104.4866733919
 30
0.0
 40
2.0
 41
0.0
 71
     1
 72
     1
  1
MBM
  7
SLDTEXTSTYLE0
 11
-7.044195017643634E-15
 21
1.0
 31
0.0
 73
     1
 44
1.0
  0
MTEXT
  5
1D5
330
1CC
100
AcDbEntity
  8
VERMASSUNG
100
AcDbMText
 10
195.9933204939
 20
110.8866732302
 30
0.0
 40
2.0
 41
0.0
 71
     1
 72
     1
  1
%%c
  7
SLDTEXTSTYLE0
 11
-7.044195017643634E-15
 21
1.0
 31
0.0
 73
     1
 44
1.0
  0
MTEXT
  5
1D6
330
1CC
100
AcDbEntity
  8
VERMASSUNG
100
AcDbMText
 10
195.7933205426
 20
114.4966737102
 30
0.0
 40
2.0
 41
0.0
 71
     1
 72
     1
  1
32
  7
SLDTEXTSTYLE0
 11
-7.044195017643634E-15
 21
1.0
 31
0.0
 73
     1
 44
1.0
  0
ENDBLK
  5
1CE
330
1CC
100
AcDbEntity
  8
0
100
AcDbBlockEnd
  0
BLOCK
  5
1D8
330
1D7
100
AcDbEntity
  8
0
100
AcDbBlockBegin
  2
SW_NOTE_0
 70
     0
 10
0.0
 20
0.0
 30
0.0
  3
SW_NOTE_0
  1

  0
CIRCLE
  5
1DA
330
1D7
100
AcDbEntity
  8
VERMASSUNG
 62
     0
100
AcDbCircle
 10
0.0
 20
-2.5028270988
 30
0.0
 40
2.50282709876212
  0
MTEXT
  5
1DB
330
1D7
100
AcDbEntity
  8
VERMASSUNG
 62
     0
100
AcDbMText
 10
-0.0000000237
 20
-1.8101961014
 30
0.0
 40
2.0
 41
0.0
 71
     2
 72
     1
  1
1
  7
SLDTEXTSTYLE0
 73
     1
 44
1.0
  0
ENDBLK
  5
1D9
330
1D7
100
AcDbEntity
  8
0
100
AcDbBlockEnd
  0
BLOCK
  5
1DF
330
1DE
100
AcDbEntity
  8
0
100
AcDbBlockBegin
  2
_DOT
 70
     0
 10
0.0
 20
0.0
 30
0.0
  3
_DOT
  1

  0
POLYLINE
  5
1E1
330
1DE
100
AcDbEntity
  8
0
  6
ByBlock
 62
     0
100
AcDb2dPolyline
 66
     1
 10
0.0
 20
0.0
 30
0.0
 70
     1
 40
0.5
 41
0.5
  0
VERTEX
  5
1E3
330
1E1
100
AcDbEntity
  8
0
  6
ByBlock
 62
     0
100
AcDbVertex
100
AcDb2dVertex
 10
-0.25
 20
0.0
 30
0.0
 42
1.0
  0
VERTEX
  5
1E4
330
1E1
100
AcDbEntity
  8
0
  6
ByBlock
 62
     0
100
AcDbVertex
100
AcDb2dVertex
 10
0.25
 20
0.0
 30
0.0
 42
1.0
  0
SEQEND
  5
1E5
330
1E1
100
AcDbEntity
  8
0
  6
ByBlock
 62
     0
  0
LINE
  5
1E2
330
1DE
100
AcDbEntity
  8
0
  6
ByBlock
 62
     0
370
    -2
100
AcDbLine
 10
-0.5
 20
0.0
 30
0.0
 11
-1.0
 21
0.0
 31
0.0
  0
ENDBLK
  5
1E0
330
1DE
100
AcDbEntity
  8
0
100
AcDbBlockEnd
  0
BLOCK
  5
1E8
330
1E7
100
AcDbEntity
  8
0
100
AcDbBlockBegin
  2
SW_NOTE_1
 70
     0
 10
0.0
 20
0.0
 30
0.0
  3
SW_NOTE_1
  1

  0
CIRCLE
  5
1EA
330
1E7
100
AcDbEntity
  8
VERMASSUNG
 62
     0
100
AcDbCircle
 10
0.0
 20
-2.5028270988
 30
0.0
 40
2.502827098762119
  0
MTEXT
  5
1EB
330
1E7
100
AcDbEntity
  8
VERMASSUNG
 62
     0
100
AcDbMText
 10
-0.012499975
 20
-1.8101961014
 30
0.0
 40
2.0
 41
0.0
 71
     2
 72
     1
  1
2
  7
SLDTEXTSTYLE0
 73
     1
 44
1.0
  0
ENDBLK
  5
1E9
330
1E7
100
AcDbEntity
  8
0
100
AcDbBlockEnd
  0
ENDSEC
  0
SECTION
  2
ENTITIES
  0
MTEXT
  5
78
330
1F
100
AcDbEntity
  8
KOPF_DÜNN
100
AcDbMText
 10
13.8892156294
 20
23.8442973028
 30
0.0
 40
3.0
 41
0.0
 71
     1
 72
     1
  1
102.063.321
  7
SLDTEXTSTYLE0
 73
     1
 44
1.0
  0
MTEXT
  5
79
330
1F
100
AcDbEntity
  8
VERMASSUNG
100
AcDbMText
 10
13.9329988022
 20
28.8834360957
 30
0.0
 40
3.0
 41
0.0
 71
     1
 72
     1
  1
Aufnahme
  7
SLDTEXTSTYLE0
 73
     1
 44
1.0
  0
MTEXT
  5
7A
330
1F
100
AcDbEntity
  8
VERMASSUNG
100
AcDbMText
 10
98.8601118557
 20
13.8365368761
 30
0.0
 40
2.0
 41
0.0
 71
     1
 72
     1
  1
Datum: 08.12.2006
  7
SLDTEXTSTYLE0
 73
     1
 44
1.0
  0
MTEXT
  5
7B
330
1F
100
AcDbEntity
  8
VERMASSUNG
100
AcDbMText
 10
13.933048693
 20
18.0482802738
 30
0.0
 40
2.0
 41
0.0
 71
     1
 72
     1
  1
HSK-A63 / MBM ø32
  7
SLDTEXTSTYLE0
 73
     1
 44
1.0
  0
MTEXT
  5
7C
330
1F
100
AcDbEntity
  8
VERMASSUNG
100
AcDbMText
 10
13.9808475933
 20
13.9090974274
 30
0.0
 40
2.0
 41
0.0
 71
     1
 72
     1
  1
Gewicht: 747g
  7
SLDTEXTSTYLE0
 73
     1
 44
1.0
  0
INSERT
  5
98
330
1F
100
AcDbEntity
  8
0
  6
Continuous
 62
     7
370
     0
100
AcDbBlockReference
  2
SW_TABLEANNOTATION_0
 10
155.4069348624
 20
22.9491325334
 30
0.0
  0
LINE
  5
99
330
1F
100
AcDbEntity
  8
0
  6
Continuous
 62
     7
370
    15
100
AcDbLine
 10
140.9271915795
 20
79.3916730355
 30
0.0
 11
145.5771915795
 21
79.3916730355
 31
0.0
  0
LINE
  5
9A
330
1F
100
AcDbEntity
  8
0
  6
Continuous
 62
     7
370
    15
100
AcDbLine
 10
145.6051799386
 20
142.3916730355
 30
0.0
 11
140.9271915795
 21
142.3916730355
 31
0.0
  0
ARC
  5
9B
330
1F
100
AcDbEntity
  8
0
  6
Continuous
 62
     7
370
    15
100
AcDbCircle
 10
140.9271915795
 20
79.6916730355
 30
0.0
 40
0.3000000000000114
100
AcDbArc
 50
180.0
 51
270.0
  0
ARC
  5
9C
330
1F
100
AcDbEntity
  8
0
  6
Continuous
 62
     7
370
    15
100
AcDbCircle
 10
140.9271915795
 20
142.0916730355
 30
0.0
 40
0.3000000000000114
100
AcDbArc
 50
90.0
 51
180.0
  0
ARC
  5
9D
330
1F
100
AcDbEntity
  8
0
  6
Continuous
 62
     7
370
    15
100
AcDbCircle
 10
140.1271848268
 20
86.3212354211
 30
0.0
 40
0.60000675266771
100
AcDbArc
 50
33.5571153394
 51
90.0
  0
ARC
  5
9E
330
1F
100
AcDbEntity
  8
0
  6
Continuous
 62
     7
370
    15
100
AcDbCircle
 10
140.1271848268
 20
135.4621106499
 30
0.0
 40
0.6000067526677242
100
AcDbArc
 50
270.0
 51
326.4428846606
  0
LINE
  5
9F
330
1F
100
AcDbEntity
  8
0
  6
Continuous
 62
     7
370
    15
100
AcDbLine
 10
138.6271915795
 20
86.6712421738
 30
0.0
 11
139.4839043529
 21
86.9007976695
 31
0.0
  0
LINE
  5
A0
330
1F
100
AcDbEntity
  8
0
  6
Continuous
 62
     7
370
    15
100
AcDbLine
 10
139.4839043529
 20
134.8825484014
 30
0.0
 11
138.6271915795
 21
135.1121038972
 31
0.0
  0
LINE
  5
A1
330
1F
100
AcDbEntity
  8
0
  6
Continuous
 62
     7
370
    15
100
AcDbLine
 10
127.3956827806
 20
134.5494030556
 30
0.0
 11
114.8271915795
 21
133.9197191277
 31
0.0
  0
LINE
  5
A2
330
1F
100
AcDbEntity
  8
0
  6
Continuous
 62
     7
370
    15
100
AcDbLine
 10
138.6271915795
 20
135.1121038972
 30
0.0
 11
135.8101899221
 21
134.9709715496
 31
0.0
  0
LINE
  5
A3
330
1F
100
AcDbEntity
  8
0
  6
Continuous
 62
     7
370
    15
100
AcDbLine
 10
135.8102460122
 20
86.8123717112
 30
0.0
 11
138.6271915795
 21
86.6712421738
 31
0.0
  0
LINE
  5
A4
330
1F
100
AcDbEntity
  8
0
  6
Continuous
 62
     7
370
    15
100
AcDbLine
 10
118.8271915795
 20
87.6632261417
 30
0.0
 11
127.3960852993
 21
87.2339228491
 31
0.0
  0
ARC
  5
A5
330
1F
100
AcDbEntity
  8
0
  6
Continuous
 62
     7
370
    15
100
AcDbCircle
 10
139.6391957799
 20
86.3212421738
 30
0.0
 40
0.6000000000000085
100
AcDbArc
 50
90.0
 51
105.0
  0
ARC
  5
A6
330
1F
100
AcDbEntity
  8
0
  6
Continuous
 62
     7
370
    15
100
AcDbCircle
 10
139.6391957799
 20
135.4621038972
 30
0.0
 40
0.5999999999999943
100
AcDbArc
 50
255.0
 51
270.0
  0
LINE
  5
A7
330
1F
100
AcDbEntity
  8
0
  6
Continuous
 62
     7
370
    15
100
AcDbLine
 10
139.6391957799
 20
86.9212421738
 30
0.0
 11
140.1271848268
 21
86.9212421738
 31
0.0
  0
LINE
  5
A8
330
1F
100
AcDbEntity
  8
0
  6
Continuous
 62
     7
370
    15
100
AcDbLine
 10
140.1271848268
 20
134.8621038972
 30
0.0
 11
139.6391957799
 21
134.8621038972
 31
0.0
  0
ARC
  5
A9
330
1F
100
AcDbEntity
  8
0
  6
Continuous
 62
     7
370
    15
100
AcDbCircle
 10
170.5771915795
 20
90.8916730355
 30
0.0
 40
4.0
100
AcDbArc
 50
90.0
 51
180.0
  0
ARC
  5
AA
330
1F
100
AcDbEntity
  8
0
  6
Continuous
 62
     7
370
    15
100
AcDbCircle
 10
170.5771915795
 20
130.8916730355
 30
0.0
 40
4.0
100
AcDbArc
 50
180.0
 51
270.0
  0
LINE
  5
AB
330
1F
100
AcDbEntity
  8
0
  6
Continuous
 62
     7
370
    15
100
AcDbLine
 10
190.3271915795
 20
94.8916730355
 30
0.0
 11
190.6271915795
 21
95.1916730355
 31
0.0
  0
LINE
  5
AC
330
1F
100
AcDbEntity
  8
0
  6
Continuous
 62
     7
370
    15
100
AcDbLine
 10
190.6271915795
 20
126.5916730355
 30
0.0
 11
190.3271915795
 21
126.8916730355
 31
0.0
  0
LINE
  5
AD
330
1F
100
AcDbEntity
  8
0
  6
Continuous
 62
     7
370
    15
100
AcDbLine
 10
170.5771915795
 20
94.8916730355
 30
0.0
 11
190.3271915795
 21
94.8916730355
 31
0.0
  0
LINE
  5
AE
330
1F
100
AcDbEntity
  8
0
  6
Continuous
 62
     7
370
    15
100
AcDbLine
 10
190.3271915795
 20
126.8916730355
 30
0.0
 11
170.5771915795
 21
126.8916730355
 31
0.0
  0
LINE
  5
AF
330
1F
100
AcDbEntity
  8
0
  6
Continuous
 62
     7
370
    15
100
AcDbLine
 10
110.0105282195
 20
90.0216730355
 30
0.0
 11
117.4271915795
 21
90.0216730355
 31
0.0
  0
ARC
  5
B0
330
1F
100
AcDbEntity
  8
0
  6
Continuous
 62
     7
370
    15
100
AcDbCircle
 10
117.4271915795
 20
88.6216730355
 30
0.0
 40
1.399999999999991
100
AcDbArc
 50
42.2465410162
 51
90.0
  0
LINE
  5
B1
330
1F
100
AcDbEntity
  8
0
  6
Continuous
 62
     7
370
    15
100
AcDbLine
 10
108.7282240736
 20
91.1706405413
 30
0.0
 11
109.8683550377
 21
90.0305095773
 31
0.0
  0
LINE
  5
B2
330
1F
100
AcDbEntity
  8
0
  6
Continuous
 62
     7
370
    15
100
AcDbLine
 10
109.8683550377
 20
131.7528364937
 30
0.0
 11
108.7370923529
 21
130.6215738089
 31
0.0
  0
ARC
  5
B3
330
1F
100
AcDbEntity
  8
0
  6
Continuous
 62
     7
370
    15
100
AcDbCircle
 10
113.4271915795
 20
133.1616730355
 30
0.0
 40
1.400000000000008
100
AcDbArc
 50
270.0
 51
301.7485287426
  0
LINE
  5
B4
330
1F
100
AcDbEntity
  8
0
  6
Continuous
 62
     7
370
    15
100
AcDbLine
 10
113.4271915795
 20
131.7616730355
 30
0.0
 11
110.0014573134
 21
131.7616730355
 31
0.0
  0
SPLINE
  5
B5
330
1F
100
AcDbEntity
  8
0
  6
Continuous
 62
     7
370
    15
100
AcDbSpline
210
0.0
220
0.0
230
1.0
 70
    24
 71
     3
 72
    11
 73
     7
 74
     0
 42
0.000000001
 43
0.00000001
 40
0.0
 40
0.0
 40
0.0
 40
0.0
 40
0.1323877169514958
 40
0.4819434960836145
 40
0.8154866441480849
 40
1.0
 40
1.0
 40
1.0
 40
1.0
 10
182.4818921178544
 20
108.8916730354828
 30
0.0
 10
182.3860799741706
 20
108.8916730354828
 30
0.0
 10
182.0372859881608
 20
108.8916730354828
 30
0.0
 10
181.385077880243
 20
108.8916730354828
 30
0.0
 10
180.6831733187826
 20
108.8916730354828
 30
0.0
 10
180.3066096622123
 20
108.8916730354828
 30
0.0
 10
180.1724910410959
 20
108.8916730354828
 30
0.0
  0
SPLINE
  5
B6
330
1F
100
AcDbEntity
  8
0
  6
Continuous
 62
     7
370
    15
100
AcDbSpline
210
0.0
220
0.0
230
1.0
 70
    24
 71
     3
 72
    11
 73
     7
 74
     0
 42
0.000000001
 43
0.00000001
 40
0.0
 40
0.0
 40
0.0
 40
0.0
 40
0.2164526859271188
 40
0.4403055508634021
 40
0.7518960204221908
 40
1.0
 40
1.0
 40
1.0
 40
1.0
 10
183.6365926562337
 20
110.8916730354828
 30
0.0
 10
183.557495553345
 20
110.7546728345481
 30
0.0
 10
183.3965971412512
 20
110.4759886099445
 30
0.0
 10
183.098010941725
 20
109.9588221419261
 30
0.0
 10
182.7777197977017
 20
109.4040616072635
 30
0.0
 10
182.572751448636
 20
109.0490460127381
 30
0.0
 10
182.4818921178544
 20
108.8916730354828
 30
0.0
  0
SPLINE
  5
B7
330
1F
100
AcDbEntity
  8
0
  6
Continuous
 62
     7
370
    15
100
AcDbSpline
210
0.0
220
0.0
230
1.0
 70
    24
 71
     3
 72
    11
 73
     7
 74
     0
 42
0.000000001
 43
0.00000001
 40
0.0
 40
0.0
 40
0.0
 40
0.0
 40
0.2164526859271178
 40
0.4403055508633988
 40
0.7518960204221906
 40
1.0
 40
1.0
 40
1.0
 40
1.0
 10
182.4818921178544
 20
112.8916730354828
 30
0.0
 10
182.5609892207431
 20
112.7546728345481
 30
0.0
 10
182.7218876328369
 20
112.4759886099445
 30
0.0
 10
183.0204738323631
 20
111.9588221419261
 30
0.0
 10
183.3407649763864
 20
111.4040616072635
 30
0.0
 10
183.5457333254521
 20
111.0490460127381
 30
0.0
 10
183.6365926562337
 20
110.8916730354828
 30
0.0
  0
SPLINE
  5
B8
330
1F
100
AcDbEntity
  8
0
  6
Continuous
 62
     7
370
    15
100
AcDbSpline
210
0.0
220
0.0
230
1.0
 70
    24
 71
     3
 72
    11
 73
     7
 74
     0
 42
0.000000001
 43
0.00000001
 40
0.0
 40
0.0
 40
0.0
 40
0.0
 40
0.1845133558519151
 40
0.5180565039163911
 40
0.8676122830485041
 40
1.0
 40
1.0
 40
1.0
 40
1.0
 10
180.1724910410959
 20
112.8916730354828
 30
0.0
 10
180.3066096622123
 20
112.8916730354828
 30
0.0
 10
180.6831733187826
 20
112.8916730354828
 30
0.0
 10
181.385077880243
 20
112.8916730354828
 30
0.0
 10
182.0372859881608
 20
112.8916730354828
 30
0.0
 10
182.3860799741706
 20
112.8916730354828
 30
0.0
 10
182.4818921178544
 20
112.8916730354828
 30
0.0
  0
SPLINE
  5
B9
330
1F
100
AcDbEntity
  8
0
  6
Continuous
 62
     7
370
    15
100
AcDbSpline
210
0.0
220
0.0
230
1.0
 70
    24
 71
     3
 72
    11
 73
     7
 74
     0
 42
0.000000001
 43
0.00000001
 40
0.0
 40
0.0
 40
0.0
 40
0.0
 40
0.2164526859271194
 40
0.4403055508634033
 40
0.7518960204221927
 40
1.0
 40
1.0
 40
1.0
 40
1.0
 10
179.0177905027167
 20
110.8916730354828
 30
0.0
 10
179.0968876056053
 20
111.0286732364175
 30
0.0
 10
179.2577860176991
 20
111.3073574610211
 30
0.0
 10
179.5563722172254
 20
111.8245239290394
 30
0.0
 10
179.8766633612486
 20
112.3792844637021
 30
0.0
 10
180.0816317103144
 20
112.7343000582274
 30
0.0
 10
180.1724910410959
 20
112.8916730354828
 30
0.0
  0
SPLINE
  5
BA
330
1F
100
AcDbEntity
  8
0
  6
Continuous
 62
     7
370
    15
100
AcDbSpline
210
0.0
220
0.0
230
1.0
 70
    24
 71
     3
 72
    11
 73
     7
 74
     0
 42
0.000000001
 43
0.00000001
 40
0.0
 40
0.0
 40
0.0
 40
0.0
 40
0.2164526859271175
 40
0.4403055508633985
 40
0.7518960204221936
 40
1.0
 40
1.0
 40
1.0
 40
1.0
 10
180.1724910410959
 20
108.8916730354828
 30
0.0
 10
180.0933939382072
 20
109.0286732364175
 30
0.0
 10
179.9324955261135
 20
109.307357461021
 30
0.0
 10
179.6339093265872
 20
109.8245239290394
 30
0.0
 10
179.3136181825639
 20
110.3792844637021
 30
0.0
 10
179.1086498334982
 20
110.7343000582274
 30
0.0
 10
179.0177905027167
 20
110.8916730354828
 30
0.0
  0
CIRCLE
  5
BB
330
1F
100
AcDbEntity
  8
0
  6
Continuous
 62
     7
370
    15
100
AcDbCircle
 10
181.3271915795
 20
110.8916730355
 30
0.0
 40
2.350000000000009
  0
CIRCLE
  5
BC
330
1F
100
AcDbEntity
  8
0
  6
Continuous
 62
     7
370
    15
100
AcDbCircle
 10
181.3271915795
 20
110.8916730355
 30
0.0
 40
3.5
  0
CIRCLE
  5
BD
330
1F
100
AcDbEntity
  8
0
  6
Continuous
 62
     7
370
    15
100
AcDbCircle
 10
181.3271915795
 20
110.8916730355
 30
0.0
 40
4.0
  0
ARC
  5
BE
330
1F
100
AcDbEntity
  8
0
  6
Continuous
 62
     7
370
    15
100
AcDbCircle
 10
181.3271915795
 20
110.8916730355
 30
0.0
 40
2.0
100
AcDbArc
 50
30.0
 51
90.0
  0
ARC
  5
BF
330
1F
100
AcDbEntity
  8
0
  6
Continuous
 62
     7
370
    15
100
AcDbCircle
 10
181.3271915795
 20
110.8916730355
 30
0.0
 40
2.000000000000016
100
AcDbArc
 50
90.0
 51
150.0
  0
ARC
  5
C0
330
1F
100
AcDbEntity
  8
0
  6
Continuous
 62
     7
370
    15
100
AcDbCircle
 10
181.3271915795
 20
110.8916730355
 30
0.0
 40
2.0
100
AcDbArc
 50
270.0
 51
330.0
  0
ARC
  5
C1
330
1F
100
AcDbEntity
  8
0
  6
Continuous
 62
     7
370
    15
100
AcDbCircle
 10
181.3271915795
 20
110.8916730355
 30
0.0
 40
2.000000000000016
100
AcDbArc
 50
150.0
 51
210.0
  0
ARC
  5
C2
330
1F
100
AcDbEntity
  8
0
  6
Continuous
 62
     7
370
    15
100
AcDbCircle
 10
181.3271915795
 20
110.8916730355
 30
0.0
 40
2.000000000000016
100
AcDbArc
 50
210.0
 51
270.0
  0
ARC
  5
C3
330
1F
100
AcDbEntity
  8
0
  6
Continuous
 62
     7
370
    15
100
AcDbCircle
 10
181.3271915795
 20
110.8916730355
 30
0.0
 40
1.999999999999967
100
AcDbArc
 50
330.0
 51
30.0
  0
LINE
  5
C4
330
1F
100
AcDbEntity
  8
0
  6
Continuous
 62
     7
370
    15
100
AcDbLine
 10
145.5771915795
 20
130.7416730355
 30
0.0
 11
155.235258748
 21
130.7416730355
 31
0.0
  0
LINE
  5
C5
330
1F
100
AcDbEntity
  8
0
  6
Continuous
 62
     7
370
    15
100
AcDbLine
 10
155.235258748
 20
80.7047553392
 30
0.0
 11
155.235258748
 21
130.7416730355
 31
0.0
  0
LINE
  5
C6
330
1F
100
AcDbEntity
  8
0
  6
Continuous
 62
     7
370
    15
100
AcDbLine
 10
155.235258748
 20
80.7047553392
 30
0.0
 11
153.5771915795
 21
80.7047553392
 31
0.0
  0
SPLINE
  5
C7
330
1F
100
AcDbEntity
  8
0
  6
Continuous
 62
     7
370
    15
100
AcDbSpline
210
0.0
220
0.0
230
1.0
 70
     8
 71
     3
 72
    28
 73
    24
 74
     0
 42
0.000000001
 43
0.00000001
 40
0.0
 40
0.0
 40
0.0
 40
0.0
 40
0.1249999999999999
 40
0.1249999999999999
 40
0.1874999999999998
 40
0.1874999999999998
 40
0.2499999999999997
 40
0.2499999999999997
 40
0.3749999999999993
 40
0.3749999999999993
 40
0.4374999999999993
 40
0.4374999999999993
 40
0.4999999999999992
 40
0.4999999999999992
 40
0.6249999999999992
 40
0.6249999999999992
 40
0.7499999999999992
 40
0.7499999999999992
 40
0.8124999999999993
 40
0.8124999999999993
 40
0.8749999999999996
 40
0.8749999999999996
 40
1.0
 40
1.0
 40
1.0
 40
1.0
 10
153.5771915794751
 20
80.70475533923562
 30
0.0
 10
153.0454838219822
 20
80.70475533923562
 30
0.0
 10
152.5232452566719
 20
80.6889706252854
 30
0.0
 10
151.7533747703968
 20
80.6439752112092
 30
0.0
 10
151.4990151982055
 20
80.62542021613348
 30
0.0
 10
150.994893617507
 20
80.58156749368698
 30
0.0
 10
150.7451708000791
 20
80.55622288673477
 30
0.0
 10
150.0195808486327
 20
80.47282080898466
 30
0.0
 10
149.5612205870511
 20
80.40695524983357
 30
0.0
 10
148.9107226436573
 20
80.29798490934178
 30
0.0
 10
148.6990405928648
 20
80.25974527357513
 30
0.0
 10
148.2949691037268
 20
80.18198653615579
 30
0.0
 10
148.1024625899059
 20
80.14248557398044
 30
0.0
 10
147.5526276188847
 20
80.02357783161443
 30
0.0
 10
147.2226988405758
 20
79.9437601501898
 30
0.0
 10
146.6382275720072
 20
79.79041698839376
 30
0.0
 10
146.3919504339937
 20
79.7190832351245
 30
0.0
 10
146.0921076412957
 20
79.62513972804989
 30
0.0
 10
146.0036507842235
 20
79.59594593468996
 30
0.0
 10
145.8502894309183
 20
79.54247936042655
 30
0.0
 10
145.7852012166921
 20
79.51812002615135
 30
0.0
 10
145.6296072007513
 20
79.45452988070663
 30
0.0
 10
145.5771915794751
 20
79.42442694561738
 30
0.0
 10
145.5771915794751
 20
79.40755005262045
 30
0.0
  0
LINE
  5
C8
330
1F
100
AcDbEntity
  8
0
  6
Continuous
 62
     7
370
    15
100
AcDbLine
 10
145.5771915795
 20
79.4075500526
 30
0.0
 11
145.5771915795
 21
79.3916730355
 31
0.0
  0
SPLINE
  5
C9
330
1F
100
AcDbEntity
  8
0
  6
Continuous
 62
     7
370
    15
100
AcDbSpline
210
0.0
220
0.0
230
1.0
 70
     8
 71
     3
 72
    17
 73
    13
 74
     0
 42
0.000000001
 43
0.00000001
 40
0.0
 40
0.0
 40
0.0
 40
0.0
 40
0.1034796923964057
 40
0.210023918880785
 40
0.3134862136955584
 40
0.4198361274354883
 40
0.5254127712915682
 40
0.6339610695419793
 40
0.7409508756305033
 40
0.8511696089308177
 40
0.955899653455194
 40
1.0
 40
1.0
 40
1.0
 40
1.0
 10
153.5771915794751
 20
141.358868508647
 30
0.0
 10
153.1419432303651
 20
141.3643167051804
 30
0.0
 10
152.2585567238001
 20
141.3753744456922
 30
0.0
 10
150.9777291385715
 20
141.4617328385937
 30
0.0
 10
149.7603126026974
 20
141.5896030151315
 30
0.0
 10
148.6525067504509
 20
141.7485483137247
 30
0.0
 10
147.6642679465026
 20
141.9230420014402
 30
0.0
 10
146.8395443889711
 20
142.0922078520801
 30
0.0
 10
146.1905908883118
 20
142.2400916346085
 30
0.0
 10
145.7735560728501
 20
142.3418822188392
 30
0.0
 10
145.5749593598856
 20
142.3922337414424
 30
0.0
 10
145.5982720813189
 20
142.3863280572201
 30
0.0
 10
145.6051799385564
 20
142.3845781275255
 30
0.0
  0
LINE
  5
CA
330
1F
100
AcDbEntity
  8
0
  6
Continuous
 62
     7
370
    15
100
AcDbLine
 10
155.235258748
 20
141.3588685086
 30
0.0
 11
153.5771915795
 21
141.3588685086
 31
0.0
  0
LINE
  5
CB
330
1F
100
AcDbEntity
  8
0
  6
Continuous
 62
     7
370
    15
100
AcDbLine
 10
155.235258748
 20
135.3503626979
 30
0.0
 11
155.235258748
 21
141.3588685086
 31
0.0
  0
LINE
  5
CC
330
1F
100
AcDbEntity
  8
0
  6
Continuous
 62
     7
370
    15
100
AcDbLine
 10
152.8228119252
 20
135.3503626979
 30
0.0
 11
155.235258748
 21
135.3503626979
 31
0.0
  0
SPLINE
  5
CD
330
1F
100
AcDbEntity
  8
0
  6
Continuous
 62
     7
370
    15
100
AcDbSpline
210
0.0
220
0.0
230
1.0
 70
     8
 71
     3
 72
    20
 73
    16
 74
     0
 42
0.000000001
 43
0.00000001
 40
0.0
 40
0.0
 40
0.0
 40
0.0
 40
0.2499999999999995
 40
0.2499999999999995
 40
0.3749999999999996
 40
0.3749999999999996
 40
0.4999999999999997
 40
0.4999999999999997
 40
0.6249999999999998
 40
0.6249999999999998
 40
0.7499999999999998
 40
0.7499999999999998
 40
0.8749999999999999
 40
0.8749999999999999
 40
1.0
 40
1.0
 40
1.0
 40
1.0
 10
145.5771915794751
 20
130.7416730354828
 30
0.0
 10
145.8255653137632
 20
131.3955354637802
 30
0.0
 10
146.1451354061085
 20
131.9993212457773
 30
0.0
 10
146.7674416393131
 20
132.8261599819459
 30
0.0
 10
146.9988658997439
 20
133.0885886198989
 30
0.0
 10
147.5200802393936
 20
133.5852512740038
 30
0.0
 10
147.8067007220287
 20
133.8158381530254
 30
0.0
 10
148.4261854633363
 20
134.232392377608
 30
0.0
 10
148.7604858428232
 20
134.4198901795755
 30
0.0
 10
149.485746315448
 20
134.7512871572119
 30
0.0
 10
149.8676613728385
 20
134.8907911447072
 30
0.0
 10
150.6624495490102
 20
135.1162446521781
 30
0.0
 10
151.0766077432166
 20
135.2028707637218
 30
0.0
 10
151.942154083798
 20
135.3208515525759
 30
0.0
 10
152.3800416988098
 20
135.3503626978502
 30
0.0
 10
152.8228119251644
 20
135.3503626978502
 30
0.0
  0
LINE
  5
CE
330
1F
100
AcDbEntity
  8
0
  6
Continuous
 62
     7
370
    15
100
AcDbLine
 10
162.019124411
 20
80.7047553392
 30
0.0
 11
162.019124411
 21
130.7416730355
 31
0.0
  0
SPLINE
  5
CF
330
1F
100
AcDbEntity
  8
0
  6
Continuous
 62
     7
370
    15
100
AcDbSpline
210
0.0
220
0.0
230
1.0
 70
     8
 71
     3
 72
     8
 73
     4
 74
     0
 42
0.000000001
 43
0.00000001
 40
0.0
 40
0.0
 40
0.0
 40
0.0
 40
1.0
 40
1.0
 40
1.0
 40
1.0
 10
162.0191244109642
 20
80.70475533923562
 30
0.0
 10
161.5236447502984
 20
81.60028142716898
 30
0.0
 10
161.0295307022563
 20
82.49656584222123
 30
0.0
 10
160.5371915794751
 20
83.39383587642793
 30
0.0
  0
LINE
  5
D0
330
1F
100
AcDbEntity
  8
0
  6
Continuous
 62
     7
370
    15
100
AcDbLine
 10
160.5371915795
 20
83.3938358764
 30
0.0
 11
160.5371915795
 21
130.7416730355
 31
0.0
  0
SPLINE
  5
D1
330
1F
100
AcDbEntity
  8
0
  6
Continuous
 62
     7
370
    15
100
AcDbSpline
210
0.0
220
0.0
230
1.0
 70
    24
 71
     3
 72
     8
 73
     4
 74
     0
 42
0.000000001
 43
0.00000001
 40
0.0
 40
0.0
 40
0.0
 40
0.0
 40
1.0
 40
1.0
 40
1.0
 40
1.0
 10
160.5371915794751
 20
130.7416730354828
 30
0.0
 10
161.01714357384
 20
130.7416730354828
 30
0.0
 10
161.5124443028137
 20
130.7416730354828
 30
0.0
 10
162.0191244109642
 20
130.7416730354828
 30
0.0
  0
LINE
  5
D2
330
1F
100
AcDbEntity
  8
0
  6
Continuous
 62
     7
370
    15
100
AcDbLine
 10
140.6271915795
 20
79.6916730355
 30
0.0
 11
140.6271915795
 21
142.0916730317
 31
0.0
  0
LINE
  5
D3
330
1F
100
AcDbEntity
  8
0
  6
Continuous
 62
     7
370
    15
100
AcDbLine
 10
166.5771915795
 20
81.3313956349
 30
0.0
 11
166.5771915795
 21
130.7416730355
 31
0.0
  0
SPLINE
  5
D4
330
1F
100
AcDbEntity
  8
0
  6
Continuous
 62
     7
370
    15
100
AcDbSpline
210
0.0
220
0.0
230
1.0
 70
     8
 71
     3
 72
    10
 73
     6
 74
     0
 42
0.000000001
 43
0.00000001
 40
0.0
 40
0.0
 40
0.0
 40
0.0
 40
0.5
 40
0.5
 40
1.0
 40
1.0
 40
1.0
 40
1.0
 10
166.5771915794751
 20
81.33139563488993
 30
0.0
 10
166.5771915794751
 20
81.17150836669627
 30
0.0
 10
166.5158819282393
 20
81.01038111118167
 30
0.0
 10
166.2967822907042
 20
80.77628211282683
 30
0.0
 10
166.1387340843907
 20
80.70475533923562
 30
0.0
 10
165.9771915794751
 20
80.70475533923562
 30
0.0
  0
SPLINE
  5
D5
330
1F
100
AcDbEntity
  8
0
  6
Continuous
 62
     7
370
    15
100
AcDbSpline
210
0.0
220
0.0
230
1.0
 70
    24
 71
     3
 72
    12
 73
     8
 74
     0
 42
0.000000001
 43
0.00000001
 40
0.0
 40
0.0
 40
0.0
 40
0.0
 40
0.2500000000000033
 40
0.2500000000000033
 40
0.5000000000000067
 40
0.5000000000000067
 40
1.0
 40
1.0
 40
1.0
 40
1.0
 10
165.9771915794751
 20
130.7416730354828
 30
0.0
 10
166.0674306471622
 20
130.7416730354828
 30
0.0
 10
166.1583287612686
 20
130.7416730354828
 30
0.0
 10
166.3129257977572
 20
130.7416730354828
 30
0.0
 10
166.3779042138653
 20
130.7416730354828
 30
0.0
 10
166.5297392418015
 20
130.7416730354828
 30
0.0
 10
166.5771915794751
 20
130.7416730354828
 30
0.0
 10
166.5771915794751
 20
130.7416730354828
 30
0.0
  0
LINE
  5
D6
330
1F
100
AcDbEntity
  8
0
  6
Continuous
 62
     7
370
    15
100
AcDbLine
 10
165.9771915795
 20
80.7047553392
 30
0.0
 11
162.019124411
 21
80.7047553392
 31
0.0
  0
LINE
  5
D7
330
1F
100
AcDbEntity
  8
0
  6
Continuous
 62
     7
370
    15
100
AcDbLine
 10
162.019124411
 20
130.7416730355
 30
0.0
 11
165.9771915795
 21
130.7416730355
 31
0.0
  0
LINE
  5
D8
330
1F
100
AcDbEntity
  8
0
  6
Continuous
 62
     7
370
    15
100
AcDbLine
 10
156.7171915795
 20
83.3938358764
 30
0.0
 11
156.7171915795
 21
130.7416730355
 31
0.0
  0
SPLINE
  5
D9
330
1F
100
AcDbEntity
  8
0
  6
Continuous
 62
     7
370
    15
100
AcDbSpline
210
0.0
220
0.0
230
1.0
 70
     8
 71
     3
 72
     8
 73
     4
 74
     0
 42
0.000000001
 43
0.00000001
 40
0.0
 40
0.0
 40
0.0
 40
0.0
 40
1.0
 40
1.0
 40
1.0
 40
1.0
 10
156.7171915794751
 20
83.39383587642791
 30
0.0
 10
156.224852456694
 20
82.49656584222122
 30
0.0
 10
155.7307384086518
 20
81.60028142716897
 30
0.0
 10
155.2352587479861
 20
80.70475533923562
 30
0.0
  0
SPLINE
  5
DA
330
1F
100
AcDbEntity
  8
0
  6
Continuous
 62
     7
370
    15
100
AcDbSpline
210
0.0
220
0.0
230
1.0
 70
    24
 71
     3
 72
     8
 73
     4
 74
     0
 42
0.000000001
 43
0.00000001
 40
0.0
 40
0.0
 40
0.0
 40
0.0
 40
1.0
 40
1.0
 40
1.0
 40
1.0
 10
155.2352587479861
 20
130.7416730354828
 30
0.0
 10
155.7419388561366
 20
130.7416730354828
 30
0.0
 10
156.2372395851102
 20
130.7416730354828
 30
0.0
 10
156.7171915794751
 20
130.7416730354828
 30
0.0
  0
SPLINE
  5
DB
330
1F
100
AcDbEntity
  8
0
  6
Continuous
 62
     7
370
    15
100
AcDbSpline
210
0.0
220
0.0
230
1.0
 70
     8
 71
     3
 72
    10
 73
     6
 74
     0
 42
0.000000001
 43
0.00000001
 40
0.0
 40
0.0
 40
0.0
 40
0.0
 40
0.5
 40
0.5
 40
1.0
 40
1.0
 40
1.0
 40
1.0
 10
157.1114891111661
 20
137.2916730354828
 30
0.0
 10
156.9899488474976
 20
137.3663992026946
 30
0.0
 10
156.8886144871486
 20
137.4753442186113
 30
0.0
 10
156.7529755442602
 20
137.7257746993729
 30
0.0
 10
156.7171915794751
 20
137.8681940614719
 30
0.0
 10
156.7171915794751
 20
138.0113268865186
 30
0.0
  0
SPLINE
  5
DC
330
1F
100
AcDbEntity
  8
0
  6
Continuous
 62
     7
370
    15
100
AcDbSpline
210
0.0
220
0.0
230
1.0
 70
    24
 71
     3
 72
    12
 73
     8
 74
     0
 42
0.000000001
 43
0.00000001
 40
0.0
 40
0.0
 40
0.0
 40
0.0
 40
0.2499999999999971
 40
0.2499999999999971
 40
0.4999999999999942
 40
0.4999999999999942
 40
1.0
 40
1.0
 40
1.0
 40
1.0
 10
157.5171915794751
 20
137.2916730354828
 30
0.0
 10
157.4673148971577
 20
137.2916730354828
 30
0.0
 10
157.4193117037541
 20
137.2916730354828
 30
0.0
 10
157.3362636010421
 20
137.2916730354828
 30
0.0
 10
157.3001340215743
 20
137.2916730354828
 30
0.0
 10
157.2042219906301
 20
137.2916730354828
 30
0.0
 10
157.1544633226613
 20
137.2916730354828
 30
0.0
 10
157.1114891111661
 20
137.2916730354828
 30
0.0
  0
SPLINE
  5
DD
330
1F
100
AcDbEntity
  8
0
  6
Continuous
 62
     7
370
    15
100
AcDbSpline
210
0.0
220
0.0
230
1.0
 70
    24
 71
     3
 72
    14
 73
    10
 74
     0
 42
0.000000001
 43
0.00000001
 40
0.0
 40
0.0
 40
0.0
 40
0.0
 40
0.1250000000000017
 40
0.1250000000000017
 40
0.2500000000000034
 40
0.2500000000000034
 40
0.5000000000000032
 40
0.5000000000000032
 40
1.0
 40
1.0
 40
1.0
 40
1.0
 10
157.5171915794751
 20
84.49167303548278
 30
0.0
 10
157.4487537315887
 20
84.49167303548278
 30
0.0
 10
157.3832036928236
 20
84.49167303548278
 30
0.0
 10
157.2787770534157
 20
84.49167303548279
 30
0.0
 10
157.2362324436542
 20
84.49167303548278
 30
0.0
 10
157.123622983114
 20
84.49167303548278
 30
0.0
 10
157.0680839360945
 20
84.49167303548278
 30
0.0
 10
156.9254722406307
 20
84.49167303548278
 30
0.0
 10
156.862066885635
 20
84.49167303548278
 30
0.0
 10
156.8148663818074
 20
84.49167303548278
 30
0.0
  0
SPLINE
  5
DE
330
1F
100
AcDbEntity
  8
0
  6
Continuous
 62
     7
370
    15
100
AcDbSpline
210
0.0
220
0.0
230
1.0
 70
     8
 71
     3
 72
    10
 73
     6
 74
     0
 42
0.000000001
 43
0.00000001
 40
0.0
 40
0.0
 40
0.0
 40
0.0
 40
0.5
 40
0.5
 40
1.0
 40
1.0
 40
1.0
 40
1.0
 10
156.7171915794751
 20
131.0275396669442
 30
0.0
 10
156.7171915794751
 20
130.9797681589509
 30
0.0
 10
156.7193528230723
 20
130.9320584368892
 30
0.0
 10
156.7280241969325
 20
130.8367633193409
 30
0.0
 10
156.7345533798884
 20
130.7890707553743
 30
0.0
 10
156.7433392026352
 20
130.7416730354828
 30
0.0
  0
SPLINE
  5
DF
330
1F
100
AcDbEntity
  8
0
  6
Continuous
 62
     7
370
    15
100
AcDbSpline
210
0.0
220
0.0
230
1.0
 70
    24
 71
     3
 72
    14
 73
    10
 74
     0
 42
0.000000001
 43
0.00000001
 40
0.0
 40
0.0
 40
0.0
 40
0.0
 40
0.4999999999999984
 40
0.4999999999999984
 40
0.7499999999999992
 40
0.7499999999999992
 40
0.8749999999999996
 40
0.8749999999999996
 40
1.0
 40
1.0
 40
1.0
 40
1.0
 10
160.4395167771428
 20
84.49167303548278
 30
0.0
 10
160.3927320720946
 20
84.49167303548279
 30
0.0
 10
160.330680875315
 20
84.49167303548279
 30
0.0
 10
160.1872892367644
 20
84.49167303548278
 30
0.0
 10
160.1311455832133
 20
84.49167303548278
 30
0.0
 10
160.0181945610771
 20
84.49167303548279
 30
0.0
 10
159.9751937990389
 20
84.49167303548279
 30
0.0
 10
159.8711310887325
 20
84.49167303548278
 30
0.0
 10
159.8057988503755
 20
84.4916730354828
 30
0.0
 10
159.7371915794751
 20
84.49167303548278
 30
0.0
  0
SPLINE
  5
E0
330
1F
100
AcDbEntity
  8
0
  6
Continuous
 62
     7
370
    15
100
AcDbSpline
210
0.0
220
0.0
230
1.0
 70
    24
 71
     3
 72
    12
 73
     8
 74
     0
 42
0.000000001
 43
0.00000001
 40
0.0
 40
0.0
 40
0.0
 40
0.0
 40
0.5000000000000074
 40
0.5000000000000074
 40
0.7500000000000037
 40
0.7500000000000037
 40
1.0
 40
1.0
 40
1.0
 40
1.0
 10
160.1428940477842
 20
137.2916730354828
 30
0.0
 10
160.0998084981732
 20
137.2916730354828
 30
0.0
 10
160.0506562964239
 20
137.2916730354828
 30
0.0
 10
159.954183702136
 20
137.2916730354828
 30
0.0
 10
159.9180821170014
 20
137.2916730354828
 30
0.0
 10
159.8349763591401
 20
137.2916730354828
 30
0.0
 10
159.7869797621739
 20
137.2916730354828
 30
0.0
 10
159.7371915794751
 20
137.2916730354828
 30
0.0
  0
SPLINE
  5
E1
330
1F
100
AcDbEntity
  8
0
  6
Continuous
 62
     7
370
    15
100
AcDbSpline
210
0.0
220
0.0
230
1.0
 70
     8
 71
     3
 72
    10
 73
     6
 74
     0
 42
0.000000001
 43
0.00000001
 40
0.0
 40
0.0
 40
0.0
 40
0.0
 40
0.5
 40
0.5
 40
1.0
 40
1.0
 40
1.0
 40
1.0
 10
160.5371915794751
 20
138.0113268865186
 30
0.0
 10
160.5371915794751
 20
137.8675568287005
 30
0.0
 10
160.5011425207562
 20
137.7251374662054
 30
0.0
 10
160.3656336599822
 20
137.4752431728481
 30
0.0
 10
160.2657576668861
 20
137.3672128366
 30
0.0
 10
160.1428940477842
 20
137.2916730354827
 30
0.0
  0
SPLINE
  5
E2
330
1F
100
AcDbEntity
  8
0
  6
Continuous
 62
     7
370
    15
100
AcDbSpline
210
0.0
220
0.0
230
1.0
 70
     8
 71
     3
 72
    10
 73
     6
 74
     0
 42
0.000000001
 43
0.00000001
 40
0.0
 40
0.0
 40
0.0
 40
0.0
 40
0.5
 40
0.5
 40
1.0
 40
1.0
 40
1.0
 40
1.0
 10
160.511043956315
 20
130.7416730354828
 30
0.0
 10
160.5197335992267
 20
130.7885518848009
 30
0.0
 10
160.5262726639772
 20
130.8359743502022
 30
0.0
 10
160.5350312983702
 20
130.9319111487889
 30
0.0
 10
160.5371915794751
 20
130.9798264367994
 30
0.0
 10
160.5371915794751
 20
131.027539666944
 30
0.0
  0
LINE
  5
E3
330
1F
100
AcDbEntity
  8
0
  6
Continuous
 62
     7
370
    15
100
AcDbLine
 10
159.7371915795
 20
137.2916730355
 30
0.0
 11
157.5171915795
 21
137.2916730355
 31
0.0
  0
LINE
  5
E4
330
1F
100
AcDbEntity
  8
0
  6
Continuous
 62
     7
370
    15
100
AcDbLine
 10
159.7371915795
 20
84.4916730355
 30
0.0
 11
157.5171915795
 21
84.4916730355
 31
0.0
  0
LINE
  5
E5
330
1F
100
AcDbEntity
  8
0
  6
Continuous
 62
     7
370
    15
100
AcDbLine
 10
138.6271915795
 20
86.6712421738
 30
0.0
 11
138.6271915795
 21
135.1121038972
 31
0.0
  0
LINE
  5
E6
330
1F
100
AcDbEntity
  8
0
  6
Continuous
 62
     7
370
    15
100
AcDbLine
 10
118.8271915795
 20
87.6632261417
 30
0.0
 11
118.8271915795
 21
88.9279355043
 31
0.0
  0
SPLINE
  5
E7
330
1F
100
AcDbEntity
  8
0
  6
Continuous
 62
     7
370
    15
100
AcDbSpline
210
0.0
220
0.0
230
1.0
 70
     8
 71
     3
 72
    14
 73
    10
 74
     0
 42
0.000000001
 43
0.00000001
 40
0.0
 40
0.0
 40
0.0
 40
0.0
 40
0.25
 40
0.25
 40
0.5
 40
0.5
 40
0.75
 40
0.75
 40
1.0
 40
1.0
 40
1.0
 40
1.0
 10
118.0489044615594
 20
90.05852171192282
 30
0.0
 10
118.1055311367615
 20
89.95082425808597
 30
0.0
 10
118.2000537970512
 20
89.84803467636665
 30
0.0
 10
118.3830987726135
 20
89.6496773641465
 30
0.0
 10
118.4747253495682
 20
89.55361785546826
 30
0.0
 10
118.6335786672614
 20
89.366088812759
 30
0.0
 10
118.7014692748831
 20
89.27467983997545
 30
0.0
 10
118.7983863005906
 20
89.0963036190653
 30
0.0
 10
118.8271915794757
 20
89.00908171281912
 30
0.0
 10
118.8271915794757
 20
88.92793550428487
 30
0.0
  0
SPLINE
  5
E8
330
1F
100
AcDbEntity
  8
0
  6
Continuous
 62
     7
370
    15
100
AcDbSpline
210
0.0
220
0.0
230
1.0
 70
     8
 71
     3
 72
    14
 73
    10
 74
     0
 42
0.000000001
 43
0.00000001
 40
0.0
 40
0.0
 40
0.0
 40
0.0
 40
0.125
 40
0.125
 40
0.25
 40
0.25
 40
0.5
 40
0.5
 40
1.0
 40
1.0
 40
1.0
 40
1.0
 10
117.4271915794751
 20
90.50520357420216
 30
0.0
 10
117.4757359881323
 20
90.51095188748243
 30
0.0
 10
117.5286513429172
 20
90.5078509988262
 30
0.0
 10
117.6239466879002
 20
90.48565615466387
 30
0.0
 10
117.6641976851852
 20
90.46842392756801
 30
0.0
 10
117.7684676986982
 20
90.41209601111595
 30
0.0
 10
117.8187896738515
 20
90.36790966517015
 30
0.0
 10
117.9464726213769
 20
90.23690176631953
 30
0.0
 10
118.0025580684391
 20
90.14666724608925
 30
0.0
 10
118.0489044615609
 20
90.05852171192336
 30
0.0
  0
SPLINE
  5
E9
330
1F
100
AcDbEntity
  8
0
  6
Continuous
 62
     7
370
    15
100
AcDbSpline
210
0.0
220
0.0
230
1.0
 70
     8
 71
     3
 72
     8
 73
     4
 74
     0
 42
0.000000001
 43
0.00000001
 40
0.0
 40
0.0
 40
0.0
 40
0.0
 40
1.0
 40
1.0
 40
1.0
 40
1.0
 10
115.1586664865289
 20
90.19535828761934
 30
0.0
 10
115.8932435130118
 20
90.31398329868831
 30
0.0
 10
116.6567185824075
 20
90.4139691708246
 30
0.0
 10
117.4271915794751
 20
90.50520357420216
 30
0.0
  0
SPLINE
  5
EA
330
1F
100
AcDbEntity
  8
0
  6
Continuous
 62
     7
370
    15
100
AcDbSpline
210
0.0
220
0.0
230
1.0
 70
     8
 71
     3
 72
    14
 73
    10
 74
     0
 42
0.000000001
 43
0.00000001
 40
0.0
 40
0.0
 40
0.0
 40
0.0
 40
0.5000000000000002
 40
0.5000000000000002
 40
0.7500000000000002
 40
0.7500000000000002
 40
0.8750000000000001
 40
0.8750000000000001
 40
1.0
 40
1.0
 40
1.0
 40
1.0
 10
109.8771915794751
 20
90.0217352700877
 30
0.0
 10
110.7693377100287
 20
90.02101304388705
 30
0.0
 10
111.6593141458223
 20
90.02559925034453
 30
0.0
 10
112.9859093128979
 20
90.05332425473605
 30
0.0
 10
113.4267562413966
 20
90.06593079236022
 30
0.0
 10
114.083196478819
 20
90.09694694036767
 30
0.0
 10
114.3012101354109
 20
90.10929011299446
 30
0.0
 10
114.7339189890937
 20
90.14231416815771
 30
0.0
 10
114.9491954542585
 20
90.16153133329617
 30
0.0
 10
115.1586664865289
 20
90.19535828761934
 30
0.0
  0
SPLINE
  5
EB
330
1F
100
AcDbEntity
  8
0
  6
Continuous
 62
     7
370
    15
100
AcDbSpline
210
0.0
220
0.0
230
1.0
 70
     8
 71
     3
 72
     8
 73
     4
 74
     0
 42
0.000000001
 43
0.00000001
 40
0.0000005163856998
 40
0.0000005163856998
 40
0.0000005163856998
 40
0.0000005163856998
 40
0.000026289209185
 40
0.000026289209185
 40
0.000026289209185
 40
0.000026289209185
 10
109.8671466490675
 20
90.03171914318449
 30
0.0
 10
109.8704743872754
 20
90.02838489631537
 30
0.0
 10
109.873822840251
 20
90.02505693904006
 30
0.0
 10
109.8771915794751
 20
90.02173527008769
 30
0.0
  0
SPLINE
  5
EC
330
1F
100
AcDbEntity
  8
0
  6
Continuous
 62
     7
370
    15
100
AcDbSpline
210
0.0
220
0.0
230
1.0
 70
     8
 71
     3
 72
     8
 73
     4
 74
     0
 42
0.000000001
 43
0.00000001
 40
0.0000005099763573
 40
0.0000005099763573
 40
0.0000005099763573
 40
0.0000005099763573
 40
0.0000262827998699
 40
0.0000262827998699
 40
0.0000262827998699
 40
0.0000262827998699
 10
109.8771915794751
 20
131.7616108008779
 30
0.0
 10
109.8738228402474
 20
131.758289131922
 30
0.0
 10
109.8704743872682
 20
131.7549611746431
 30
0.0
 10
109.8671466490569
 20
131.7516269277704
 30
0.0
  0
SPLINE
  5
ED
330
1F
100
AcDbEntity
  8
0
  6
Continuous
 62
     7
370
    15
100
AcDbSpline
210
0.0
220
0.0
230
1.0
 70
     8
 71
     3
 72
    10
 73
     6
 74
     0
 42
0.000000001
 43
0.00000001
 40
0.0
 40
0.0
 40
0.0
 40
0.0
 40
0.5
 40
0.5
 40
1.0
 40
1.0
 40
1.0
 40
1.0
 10
113.4271915794751
 20
131.7147604273105
 30
0.0
 10
112.8396060323846
 20
131.7358259475469
 30
0.0
 10
112.2488596389242
 20
131.7465844334192
 30
0.0
 10
111.0648404736253
 20
131.7599492139548
 30
0.0
 10
110.4714264854198
 20
131.7620918566194
 30
0.0
 10
109.8771915794751
 20
131.7616108008778
 30
0.0
  0
SPLINE
  5
EE
330
1F
100
AcDbEntity
  8
0
  6
Continuous
 62
     7
370
    15
100
AcDbSpline
210
0.0
220
0.0
230
1.0
 70
     8
 71
     3
 72
    18
 73
    14
 74
     0
 42
0.000000001
 43
0.00000001
 40
0.0
 40
0.0
 40
0.0
 40
0.0
 40
0.2500000000000008
 40
0.2500000000000008
 40
0.5000000000000009
 40
0.5000000000000009
 40
0.7500000000000009
 40
0.7500000000000009
 40
0.875000000000001
 40
0.875000000000001
 40
0.9375000000000006
 40
0.9375000000000006
 40
1.0
 40
1.0
 40
1.0
 40
1.0
 10
114.8271915794751
 20
132.7357807078458
 30
0.0
 10
114.8271915794752
 20
132.6525737989886
 30
0.0
 10
114.7913424795369
 20
132.563837143675
 30
0.0
 10
114.666470743503
 20
132.3817119531148
 30
0.0
 10
114.5760703258551
 20
132.2865819044881
 30
0.0
 10
114.3538276711129
 20
132.0974003953638
 30
0.0
 10
114.2240628846671
 20
132.0024552272691
 30
0.0
 10
113.9834254273556
 20
131.8641765196892
 30
0.0
 10
113.8956581292182
 20
131.8184660863868
 30
0.0
 10
113.7411340420114
 20
131.7606427811653
 30
0.0
 10
113.6845231559566
 20
131.7429280171274
 30
0.0
 10
113.56047912505
 20
131.7183887138945
 30
0.0
 10
113.4927644500317
 20
131.7124095753563
 30
0.0
 10
113.4271915794751
 20
131.7147604273105
 30
0.0
  0
LINE
  5
EF
330
1F
100
AcDbEntity
  8
0
  6
Continuous
 62
     7
370
    15
100
AcDbLine
 10
114.8271915795
 20
132.7357807078
 30
0.0
 11
114.8271915795
 21
133.9197191277
 31
0.0
  0
SPLINE
  5
F0
330
1F
100
AcDbEntity
  8
0
  6
Continuous
 62
     7
370
    15
100
AcDbSpline
210
0.0
220
0.0
230
1.0
 70
     8
 71
     3
 72
    24
 73
    20
 74
     0
 42
0.000000001
 43
0.00000001
 40
0.0
 40
0.0
 40
0.0
 40
0.0
 40
0.0010489762969674
 40
0.063784312564273
 40
0.1272220590447891
 40
0.1903788924481314
 40
0.2526748653693291
 40
0.3146354154417449
 40
0.3770891997149608
 40
0.4393540298504058
 40
0.5008133242537801
 40
0.5621845104587826
 40
0.6248438451115548
 40
0.6874304766616359
 40
0.7496743174679346
 40
0.811984842697577
 40
0.8750960525413127
 40
0.9384412526964334
 40
1.0
 40
1.0
 40
1.0
 40
1.0
 10
127.3960974114508
 20
87.23416460690264
 30
0.0
 10
127.3956509513466
 20
87.23410632108373
 30
0.0
 10
127.3685033876529
 20
87.23056217914126
 30
0.0
 10
127.464115165267
 20
87.24339592382395
 30
0.0
 10
127.6976754231599
 20
87.27264260902422
 30
0.0
 10
128.0932297304799
 20
87.31925693208646
 30
0.0
 10
128.6202700343114
 20
87.36944007374598
 30
0.0
 10
129.2638004463011
 20
87.41381653619632
 30
0.0
 10
130.0024743015418
 20
87.440761317134
 30
0.0
 10
130.7999888069778
 20
87.444233167841
 30
0.0
 10
131.626567689421
 20
87.41660592381066
 30
0.0
 10
132.4520907070319
 20
87.35812703483742
 30
0.0
 10
133.2442172550329
 20
87.27268200547726
 30
0.0
 10
133.9767895290379
 20
87.1709477656409
 30
0.0
 10
134.612429765766
 20
87.06310464366814
 30
0.0
 10
135.1343408727756
 20
86.961474486929
 30
0.0
 10
135.5159696498911
 20
86.87898933025077
 30
0.0
 10
135.7667841201255
 20
86.82284012390107
 30
0.0
 10
135.7959056761097
 20
86.81599066528733
 30
0.0
 10
135.8102581969258
 20
86.81261491855915
 30
0.0
  0
SPLINE
  5
F1
330
1F
100
AcDbEntity
  8
0
  6
Continuous
 62
     7
370
    15
100
AcDbSpline
210
0.0
220
0.0
230
1.0
 70
     8
 71
     3
 72
    24
 73
    20
 74
     0
 42
0.000000001
 43
0.00000001
 40
0.0
 40
0.0
 40
0.0
 40
0.0
 40
0.061438427625136
 40
0.1250736755369642
 40
0.188425349073017
 40
0.2508623904037474
 40
0.3129665632511812
 40
0.3753451453465141
 40
0.437732897232486
 40
0.4990927322917273
 40
0.5605807588448529
 40
0.6229469893028879
 40
0.6854686282027366
 40
0.7475477813740222
 40
0.8098225060807238
 40
0.8730684085990467
 40
0.936404184453311
 40
0.9991757196257862
 40
1.0
 40
1.0
 40
1.0
 40
1.0
 10
135.8102034261229
 20
134.9707020099402
 30
0.0
 10
135.7956027018191
 20
134.9673339530875
 30
0.0
 10
135.7658791830906
 20
134.9604774096137
 30
0.0
 10
135.5131413674425
 20
134.9041387890877
 30
0.0
 10
135.1301454509935
 20
134.8212817069578
 30
0.0
 10
134.6077898665556
 20
134.7193746770065
 30
0.0
 10
133.9730053885555
 20
134.6115355379628
 30
0.0
 10
133.2427817843834
 20
134.5100685859876
 30
0.0
 10
132.4523131991496
 20
134.4250088722969
 30
0.0
 10
131.627829684321
 20
134.3668045784106
 30
0.0
 10
130.8007932254374
 20
134.3392211395839
 30
0.0
 10
130.0024689577853
 20
134.3427141170768
 30
0.0
 10
129.2626449934964
 20
134.3696700369299
 30
0.0
 10
128.6183907605208
 20
134.4140239789292
 30
0.0
 10
128.0909835053053
 20
134.464229428687
 30
0.0
 10
127.6963189031554
 20
134.5108392838853
 30
0.0
 10
127.4637896239705
 20
134.5400348764328
 30
0.0
 10
127.3684095914183
 20
134.5528129453742
 30
0.0
 10
127.3953432283197
 20
134.5492586868662
 30
0.0
 10
127.3956923215441
 20
134.5492126192829
 30
0.0
  0
SPLINE
  5
F2
330
1F
100
AcDbEntity
  8
0
  6
Continuous
 62
     7
370
    15
100
AcDbSpline
210
0.0
220
0.0
230
1.0
 70
     8
 71
     3
 72
     9
 73
     5
 74
     0
 42
0.000000001
 43
0.00000001
 40
0.0
 40
0.0
 40
0.0
 40
0.0
 40
0.7009329310330167
 40
1.0
 40
1.0
 40
1.0
 40
1.0
 10
108.7479762637106
 20
91.19039273138016
 30
0.0
 10
108.7571155403859
 20
91.17256344583863
 30
0.0
 10
108.7701542724395
 20
91.14712693864635
 30
0.0
 10
108.7853195262048
 20
91.20100679883815
 30
0.0
 10
108.7898549541985
 20
91.21712049070204
 30
0.0
  0
LINE
  5
F3
330
1F
100
AcDbEntity
  8
0
  6
Continuous
 62
     7
370
    15
100
AcDbLine
 10
108.7271915795
 20
91.200995289
 30
0.0
 11
108.7271915795
 21
130.582350782
 31
0.0
  0
SPLINE
  5
F4
330
1F
100
AcDbEntity
  8
0
  6
Continuous
 62
     7
370
    15
100
AcDbSpline
210
0.0
220
0.0
230
1.0
 70
     8
 71
     3
 72
     9
 73
     5
 74
     0
 42
0.000000001
 43
0.00000001
 40
0.0
 40
0.0
 40
0.0
 40
0.0
 40
0.8063521891319351
 40
1.0
 40
1.0
 40
1.0
 40
1.0
 10
108.7898549541985
 20
130.5662255802635
 30
0.0
 10
108.7736700941014
 20
130.6025540117837
 30
0.0
 10
108.7535983930318
 20
130.6476068212258
 30
0.0
 10
108.7443631598883
 20
130.6212041952319
 30
0.0
 10
108.7425747772072
 20
130.616091384507
 30
0.0
  0
SPLINE
  5
F5
330
1F
100
AcDbEntity
  8
0
  6
Continuous
 62
     7
370
    15
100
AcDbSpline
210
0.0
220
0.0
230
1.0
 70
     8
 71
     3
 72
    26
 73
    22
 74
     0
 42
0.000000001
 43
0.00000001
 40
0.0
 40
0.0
 40
0.0
 40
0.0
 40
0.2500000000000165
 40
0.2500000000000165
 40
0.3750000000000256
 40
0.3750000000000256
 40
0.4375000000000291
 40
0.4375000000000291
 40
0.4687500000000291
 40
0.4687500000000291
 40
0.5000000000000292
 40
0.5000000000000292
 40
0.5312500000000293
 40
0.5312500000000293
 40
0.5625000000000293
 40
0.5625000000000293
 40
0.625000000000026
 40
0.625000000000026
 40
0.7500000000000173
 40
0.7500000000000173
 40
1.0
 40
1.0
 40
1.0
 40
1.0
 10
109.5513452255797
 20
131.2817923690806
 30
0.0
 10
109.5127447027112
 20
131.1640176727252
 30
0.0
 10
109.4664477001569
 20
131.0396279865632
 30
0.0
 10
109.372508351723
 20
130.8344086542098
 30
0.0
 10
109.3371968848095
 20
130.7628357877633
 30
0.0
 10
109.2710169090638
 20
130.6468825551629
 30
0.0
 10
109.2464785423956
 20
130.6062980203526
 30
0.0
 10
109.2031057968418
 20
130.5421563384809
 30
0.0
 10
109.1875973954166
 20
130.5202899131958
 30
0.0
 10
109.1525547508296
 20
130.4746956448527
 30
0.0
 10
109.1330044601098
 20
130.4510253538852
 30
0.0
 10
109.0910771797392
 20
130.4064087945453
 30
0.0
 10
109.0684250695076
 20
130.3855287820274
 30
0.0
 10
109.027451355421
 20
130.3546553682765
 30
0.0
 10
109.0098520555255
 20
130.3448164984441
 30
0.0
 10
108.9652250696694
 20
130.325826882748
 30
0.0
 10
108.9446658470161
 20
130.3255025580945
 30
0.0
 10
108.8935404075194
 20
130.3347259989708
 30
0.0
 10
108.8726289945308
 20
130.3559728951877
 30
0.0
 10
108.8211790869699
 20
130.4299417740185
 30
0.0
 10
108.8035137876654
 20
130.4960598673332
 30
0.0
 10
108.7898549541985
 20
130.5662255802635
 30
0.0
  0
SPLINE
  5
F6
330
1F
100
AcDbEntity
  8
0
  6
Continuous
 62
     7
370
    15
100
AcDbSpline
210
0.0
220
0.0
230
1.0
 70
     8
 71
     3
 72
    10
 73
     6
 74
     0
 42
0.000000001
 43
0.00000001
 40
0.0
 40
0.0
 40
0.0
 40
0.0
 40
0.5
 40
0.5
 40
1.0
 40
1.0
 40
1.0
 40
1.0
 10
109.8671466490569
 20
131.7516269277704
 30
0.0
 10
109.7995873941387
 20
131.6839355349607
 30
0.0
 10
109.7359507388022
 20
131.609228370207
 30
0.0
 10
109.6257299842303
 20
131.4502622377804
 30
0.0
 10
109.5789136910077
 20
131.3659069717724
 30
0.0
 10
109.5513452255796
 20
131.2817923690806
 30
0.0
  0
SPLINE
  5
F7
330
1F
100
AcDbEntity
  8
0
  6
Continuous
 62
     7
370
    15
100
AcDbSpline
210
0.0
220
0.0
230
1.0
 70
     8
 71
     3
 72
    10
 73
     6
 74
     0
 42
0.000000001
 43
0.00000001
 40
0.0
 40
0.0
 40
0.0
 40
0.0
 40
0.5
 40
0.5
 40
1.0
 40
1.0
 40
1.0
 40
1.0
 10
109.5513452255797
 20
90.50155370188482
 30
0.0
 10
109.5788226403337
 20
90.41771690541692
 30
0.0
 10
109.6255312706231
 20
90.33340641782777
 30
0.0
 10
109.735809733369
 20
90.17428518734108
 30
0.0
 10
109.7996972719829
 20
90.09930044325142
 30
0.0
 10
109.8671466490675
 20
90.03171914318449
 30
0.0
  0
SPLINE
  5
F8
330
1F
100
AcDbEntity
  8
0
  6
Continuous
 62
     7
370
    15
100
AcDbSpline
210
0.0
220
0.0
230
1.0
 70
     8
 71
     3
 72
    24
 73
    20
 74
     0
 42
0.000000001
 43
0.00000001
 40
0.0
 40
0.0
 40
0.0
 40
0.0
 40
0.2499999999999952
 40
0.2499999999999952
 40
0.3749999999999937
 40
0.3749999999999937
 40
0.4374999999999931
 40
0.4374999999999931
 40
0.468749999999992
 40
0.468749999999992
 40
0.4999999999999909
 40
0.4999999999999909
 40
0.5624999999999933
 40
0.5624999999999933
 40
0.6249999999999958
 40
0.6249999999999958
 40
0.7499999999999981
 40
0.7499999999999981
 40
1.0
 40
1.0
 40
1.0
 40
1.0
 10
108.7898549541985
 20
91.21712049070204
 30
0.0
 10
108.8036080728688
 20
91.28777054869234
 30
0.0
 10
108.8213806402746
 20
91.35436866145724
 30
0.0
 10
108.87363173183
 20
91.42846668169044
 30
0.0
 10
108.8946668074115
 20
91.449724488852
 30
0.0
 10
108.94756721504
 20
91.45787041499825
 30
0.0
 10
108.9686728879179
 20
91.45693061160249
 30
0.0
 10
109.0147250565959
 20
91.43591462002514
 30
0.0
 10
109.0330955285792
 20
91.42500581391754
 30
0.0
 10
109.0746471636449
 20
91.39237090297017
 30
0.0
 10
109.0972138364019
 20
91.3708789225988
 30
0.0
 10
109.1599948528619
 20
91.30241297901249
 30
0.0
 10
109.1931246138298
 20
91.25633852080739
 30
0.0
 10
109.2500423003148
 20
91.17133063247272
 30
0.0
 10
109.2742283258186
 20
91.13105033129133
 30
0.0
 10
109.3394362761983
 20
91.01611410482538
 30
0.0
 10
109.3741523363896
 20
90.94553111967839
 30
0.0
 10
109.4673676067205
 20
90.74132536059979
 30
0.0
 10
109.5130401420811
 20
90.61842697827241
 30
0.0
 10
109.5513452255797
 20
90.50155370188484
 30
0.0
  0
SPLINE
  5
F9
330
1F
100
AcDbEntity
  8
0
  6
Continuous
 62
     7
370
    15
100
AcDbSpline
210
0.0
220
0.0
230
1.0
 70
     8
 71
     3
 72
     8
 73
     4
 74
     0
 42
0.000000001
 43
0.00000001
 40
0.0
 40
0.0
 40
0.0
 40
0.0
 40
1.0
 40
1.0
 40
1.0
 40
1.0
 10
162.0191244109642
 20
141.358868508647
 30
0.0
 10
161.5239843815999
 20
140.4721888604668
 30
0.0
 10
161.0299016763209
 20
139.5849262247808
 30
0.0
 10
160.5371915794751
 20
138.6969072266544
 30
0.0
  0
LINE
  5
FA
330
1F
100
AcDbEntity
  8
0
  6
Continuous
 62
     7
370
    15
100
AcDbLine
 10
162.019124411
 20
135.3503626979
 30
0.0
 11
162.019124411
 21
141.3588685086
 31
0.0
  0
SPLINE
  5
FB
330
1F
100
AcDbEntity
  8
0
  6
Continuous
 62
     7
370
    15
100
AcDbSpline
210
0.0
220
0.0
230
1.0
 70
     8
 71
     3
 72
     8
 73
     4
 74
     0
 42
0.000000001
 43
0.00000001
 40
0.0
 40
0.0
 40
0.0
 40
0.0
 40
1.0
 40
1.0
 40
1.0
 40
1.0
 10
160.5371915794751
 20
131.9418167030661
 30
0.0
 10
161.016469730065
 20
133.0828279329187
 30
0.0
 10
161.5120375692049
 20
134.2192123436866
 30
0.0
 10
162.0191244109642
 20
135.3503626978502
 30
0.0
  0
LINE
  5
FC
330
1F
100
AcDbEntity
  8
0
  6
Continuous
 62
     7
370
    15
100
AcDbLine
 10
160.5371915795
 20
131.9418167031
 30
0.0
 11
160.5371915795
 21
138.6969072267
 31
0.0
  0
SPLINE
  5
FD
330
1F
100
AcDbEntity
  8
0
  6
Continuous
 62
     7
370
    15
100
AcDbSpline
210
0.0
220
0.0
230
1.0
 70
     8
 71
     3
 72
    10
 73
     6
 74
     0
 42
0.000000001
 43
0.00000001
 40
0.0
 40
0.0
 40
0.0
 40
0.0
 40
0.5
 40
0.5
 40
1.0
 40
1.0
 40
1.0
 40
1.0
 10
166.5771915794751
 20
140.7381133592467
 30
0.0
 10
166.5771915794751
 20
140.8985186255975
 30
0.0
 10
166.5149537483683
 20
141.0575804385861
 30
0.0
 10
166.2958188246257
 20
141.2884929042164
 30
0.0
 10
166.1382301296338
 20
141.358868508647
 30
0.0
 10
165.9771915794751
 20
141.358868508647
 30
0.0
  0
SPLINE
  5
FE
330
1F
100
AcDbEntity
  8
0
  6
Continuous
 62
     7
370
    15
100
AcDbSpline
210
0.0
220
0.0
230
1.0
 70
     8
 71
     3
 72
    12
 73
     8
 74
     0
 42
0.000000001
 43
0.00000001
 40
0.0
 40
0.0
 40
0.0
 40
0.0
 40
0.250000000000002
 40
0.250000000000002
 40
0.500000000000004
 40
0.500000000000004
 40
1.0
 40
1.0
 40
1.0
 40
1.0
 10
165.9771915794751
 20
135.3503626978502
 30
0.0
 10
166.0683913013008
 20
135.3503626978502
 30
0.0
 10
166.1589863104368
 20
135.3221429992624
 30
0.0
 10
166.3123990368835
 20
135.2276999920142
 30
0.0
 10
166.3776079042071
 20
135.1614130153089
 30
0.0
 10
166.5303924335471
 20
134.9357881920206
 30
0.0
 10
166.5771915794751
 20
134.7533619289881
 30
0.0
 10
166.5771915794751
 20
134.5726252967412
 30
0.0
  0
LINE
  5
FF
330
1F
100
AcDbEntity
  8
0
  6
Continuous
 62
     7
370
    15
100
AcDbLine
 10
166.5771915795
 20
134.5726252967
 30
0.0
 11
166.5771915795
 21
140.7381133592
 31
0.0
  0
LINE
  5
100
330
1F
100
AcDbEntity
  8
0
  6
Continuous
 62
     7
370
    15
100
AcDbLine
 10
165.9771915795
 20
141.3588685086
 30
0.0
 11
162.019124411
 21
141.3588685086
 31
0.0
  0
LINE
  5
101
330
1F
100
AcDbEntity
  8
0
  6
Continuous
 62
     7
370
    15
100
AcDbLine
 10
162.019124411
 20
135.3503626979
 30
0.0
 11
165.9771915795
 21
135.3503626979
 31
0.0
  0
SPLINE
  5
102
330
1F
100
AcDbEntity
  8
0
  6
Continuous
 62
     7
370
    15
100
AcDbSpline
210
0.0
220
0.0
230
1.0
 70
     8
 71
     3
 72
     8
 73
     4
 74
     0
 42
0.000000001
 43
0.00000001
 40
0.0
 40
0.0
 40
0.0
 40
0.0
 40
1.0
 40
1.0
 40
1.0
 40
1.0
 10
156.7171915794751
 20
138.6969072266544
 30
0.0
 10
156.2244814826294
 20
139.5849262247808
 30
0.0
 10
155.7303987773504
 20
140.4721888604668
 30
0.0
 10
155.2352587479861
 20
141.358868508647
 30
0.0
  0
SPLINE
  5
103
330
1F
100
AcDbEntity
  8
0
  6
Continuous
 62
     7
370
    15
100
AcDbSpline
210
0.0
220
0.0
230
1.0
 70
     8
 71
     3
 72
     8
 73
     4
 74
     0
 42
0.000000001
 43
0.00000001
 40
0.0
 40
0.0
 40
0.0
 40
0.0
 40
1.0
 40
1.0
 40
1.0
 40
1.0
 10
155.2352587479861
 20
135.3503626978502
 30
0.0
 10
155.7423455897453
 20
134.2192123436866
 30
0.0
 10
156.2379134288853
 20
133.0828279329187
 30
0.0
 10
156.7171915794751
 20
131.9418167030661
 30
0.0
  0
LINE
  5
104
330
1F
100
AcDbEntity
  8
0
  6
Continuous
 62
     7
370
    15
100
AcDbLine
 10
156.7171915795
 20
131.9418167031
 30
0.0
 11
156.7171915795
 21
138.6969072267
 31
0.0
  0
LINE
  5
105
330
1F
100
AcDbEntity
  8
0
  6
Continuous
 62
     7
370
    15
100
AcDbLine
 10
160.5371915795
 20
131.0275396669
 30
0.0
 11
160.5371915795
 21
131.9418167031
 31
0.0
  0
LINE
  5
106
330
1F
100
AcDbEntity
  8
0
  6
Continuous
 62
     7
370
    15
100
AcDbLine
 10
166.5771915795
 20
134.5726252967
 30
0.0
 11
166.5771915795
 21
130.7416730355
 31
0.0
  0
LINE
  5
107
330
1F
100
AcDbEntity
  8
0
  6
Continuous
 62
     7
370
    15
100
AcDbLine
 10
156.7171915795
 20
131.9418167031
 30
0.0
 11
156.7171915795
 21
131.0275396669
 31
0.0
  0
SPLINE
  5
108
330
1F
100
AcDbEntity
  8
0
  6
Continuous
 62
     7
370
    15
100
AcDbSpline
210
0.0
220
0.0
230
1.0
 70
     8
 71
     3
 72
    42
 73
    38
 74
     0
 42
0.000000001
 43
0.00000001
 40
0.0
 40
0.0
 40
0.0
 40
0.0
 40
0.0312500000000003
 40
0.0312500000000003
 40
0.0625000000000006
 40
0.0625000000000006
 40
0.1250000000000008
 40
0.1250000000000008
 40
0.187500000000001
 40
0.187500000000001
 40
0.2500000000000012
 40
0.2500000000000012
 40
0.3125000000000014
 40
0.3125000000000014
 40
0.3750000000000017
 40
0.3750000000000017
 40
0.4375000000000019
 40
0.4375000000000019
 40
0.5000000000000021
 40
0.5000000000000021
 40
0.5625000000000023
 40
0.5625000000000023
 40
0.6250000000000026
 40
0.6250000000000026
 40
0.6875000000000028
 40
0.6875000000000028
 40
0.750000000000003
 40
0.750000000000003
 40
0.7812500000000026
 40
0.7812500000000026
 40
0.8125000000000022
 40
0.8125000000000022
 40
0.8750000000000014
 40
0.8750000000000014
 40
0.9375000000000008
 40
0.9375000000000008
 40
1.0
 40
1.0
 40
1.0
 40
1.0
 10
186.5771915794752
 20
110.8916730354828
 30
0.0
 10
186.5771915794752
 20
110.7307402644755
 30
0.0
 10
186.5673909257199
 20
110.5696688845955
 30
0.0
 10
186.5277623827211
 20
110.2472431225026
 30
0.0
 10
186.4977747799971
 20
110.0860735224238
 30
0.0
 10
186.3807155274407
 20
109.6156805114401
 30
0.0
 10
186.2663484133375
 20
109.3146106843345
 30
0.0
 10
185.9685673068266
 20
108.7369841659845
 30
0.0
 10
185.7902998695868
 20
108.4702099579371
 30
0.0
 10
185.3813589909424
 20
107.9753375910281
 30
0.0
 10
185.1493391989224
 20
107.7470818199321
 30
0.0
 10
184.6527750294268
 20
107.3431795329293
 30
0.0
 10
184.3862421318497
 20
107.1649022673911
 30
0.0
 10
183.8180304077761
 20
106.854246450564
 30
0.0
 10
183.5237831997215
 20
106.7259090621611
 30
0.0
 10
182.9161790349539
 20
106.5191392196321
 30
0.0
 10
182.6003413833137
 20
106.4403902722237
 30
0.0
 10
181.9605420312295
 20
106.3361994335123
 30
0.0
 10
181.639671788303
 20
106.3108061826548
 30
0.0
 10
180.996040313505
 20
106.3118162297275
 30
0.0
 10
180.670416328864
 20
106.3387729339309
 30
0.0
 10
180.0318274964629
 20
106.4453410179166
 30
0.0
 10
179.720734274494
 20
106.5240713264045
 30
0.0
 10
179.1147283481043
 20
106.7323804412031
 30
0.0
 10
178.8170465351672
 20
106.8635518675356
 30
0.0
 10
178.2538622163705
 20
107.1740353680025
 30
0.0
 10
177.9895654160453
 20
107.3519238840504
 30
0.0
 10
177.6197341561168
 20
107.6543527115191
 30
0.0
 10
177.5009238424426
 20
107.7611369403622
 30
0.0
 10
177.2727966061637
 20
107.9875388824969
 30
0.0
 10
177.1632049931226
 20
108.1076446115758
 30
0.0
 10
176.8575687683598
 20
108.4793355344401
 30
0.0
 10
176.6815848316402
 20
108.7446249922675
 30
0.0
 10
176.3890391755009
 20
109.3132349741185
 30
0.0
 10
176.2718127360743
 20
109.6215022351382
 30
0.0
 10
176.1170370848131
 20
110.2467450540728
 30
0.0
 10
176.0771915794752
 20
110.565789158609
 30
0.0
 10
176.0771915794752
 20
110.8916730354828
 30
0.0
  0
SPLINE
  5
109
330
1F
100
AcDbEntity
  8
0
  6
Continuous
 62
     7
370
    15
100
AcDbSpline
210
0.0
220
0.0
230
1.0
 70
     8
 71
     3
 72
    42
 73
    38
 74
     0
 42
0.000000001
 43
0.00000001
 40
0.0
 40
0.0
 40
0.0
 40
0.0
 40
0.0312500000000003
 40
0.0312500000000003
 40
0.0625000000000006
 40
0.0625000000000006
 40
0.1250000000000009
 40
0.1250000000000009
 40
0.1875000000000012
 40
0.1875000000000012
 40
0.2500000000000014
 40
0.2500000000000014
 40
0.3125000000000018
 40
0.3125000000000018
 40
0.3750000000000021
 40
0.3750000000000021
 40
0.5000000000000029
 40
0.5000000000000029
 40
0.5625000000000026
 40
0.5625000000000026
 40
0.6250000000000022
 40
0.6250000000000022
 40
0.6875000000000019
 40
0.6875000000000019
 40
0.7500000000000016
 40
0.7500000000000016
 40
0.8125000000000012
 40
0.8125000000000012
 40
0.843750000000001
 40
0.843750000000001
 40
0.8750000000000009
 40
0.8750000000000009
 40
0.9375000000000006
 40
0.9375000000000006
 40
0.9687500000000002
 40
0.9687500000000002
 40
1.0
 40
1.0
 40
1.0
 40
1.0
 10
176.0771915794752
 20
110.8916730354828
 30
0.0
 10
176.0771915794752
 20
111.0546174658356
 30
0.0
 10
176.0874084848131
 20
111.2184534936461
 30
0.0
 10
176.1272388293068
 20
111.5397052316573
 30
0.0
 10
176.1568292617072
 20
111.6983088954445
 30
0.0
 10
176.2738809917059
 20
112.1682241817997
 30
0.0
 10
176.391316524662
 20
112.4759012658344
 30
0.0
 10
176.6870792794849
 20
113.0480002717695
 30
0.0
 10
176.8672935700843
 20
113.3178602791344
 30
0.0
 10
177.2798363745507
 20
113.8153921798382
 30
0.0
 10
177.5093029077195
 20
114.0404582532965
 30
0.0
 10
178.0114053208774
 20
114.4473849759659
 30
0.0
 10
178.2791622068447
 20
114.6249969316384
 30
0.0
 10
178.8394039208059
 20
114.9302267772772
 30
0.0
 10
179.1328750886947
 20
115.0585549936676
 30
0.0
 10
180.0539346823782
 20
115.3709542642148
 30
0.0
 10
180.6910604249994
 20
115.4735472332401
 30
0.0
 10
181.6661405339786
 20
115.4712652312981
 30
0.0
 10
181.9867527060627
 20
115.4440992950116
 30
0.0
 10
182.6194505537501
 20
115.3385321643187
 30
0.0
 10
182.9329520674805
 20
115.2596553248778
 30
0.0
 10
183.5448301233428
 20
115.0490445705577
 30
0.0
 10
183.8372527468333
 20
114.9196409450491
 30
0.0
 10
184.3953961601813
 20
114.6123336416668
 30
0.0
 10
184.6626601499349
 20
114.4332343685207
 30
0.0
 10
185.1609901501433
 20
114.0256302193569
 30
0.0
 10
185.3869972950739
 20
113.8017242075039
 30
0.0
 10
185.6901233917432
 20
113.4340868955264
 30
0.0
 10
185.7851399864391
 20
113.3062058860315
 30
0.0
 10
185.9622902823434
 20
113.0389363468859
 30
0.0
 10
186.0449003094288
 20
112.8985319671042
 30
0.0
 10
186.2666220152316
 20
112.4677211874761
 30
0.0
 10
186.3808116859188
 20
112.1675398312304
 30
0.0
 10
186.4980121737632
 20
111.6961877862172
 30
0.0
 10
186.5279667407223
 20
111.5347180240118
 30
0.0
 10
186.567390077355
 20
111.2134048792813
 30
0.0
 10
186.5771915794751
 20
111.0526082676792
 30
0.0
 10
186.5771915794752
 20
110.8916730354828
 30
0.0
  0
LINE
  5
10A
330
1F
100
AcDbEntity
  8
0
  6
Continuous
 62
     7
370
    15
100
AcDbLine
 10
190.6271915795
 20
95.1916730355
 30
0.0
 11
190.6271915795
 21
126.5916730355
 31
0.0
  0
LINE
  5
10B
330
1F
100
AcDbEntity
  8
0
  6
Continuous
 62
     7
370
    15
100
AcDbLine
 10
190.3271915795
 20
94.8916730355
 30
0.0
 11
190.3271915795
 21
126.8916730355
 31
0.0
  0
CIRCLE
  5
10C
330
1F
100
AcDbEntity
  8
0
  6
HIDDEN
 62
     7
370
     0
100
AcDbCircle
 10
181.3271915795
 20
110.8916730355
 30
0.0
 40
3.50827075990334
  0
CIRCLE
  5
10D
330
1F
100
AcDbEntity
  8
0
  6
HIDDEN
 62
     7
370
     0
100
AcDbCircle
 10
181.3271915795
 20
110.8916730355
 30
0.0
 40
2.49956004487801
  0
CIRCLE
  5
10E
330
1F
100
AcDbEntity
  8
0
  6
HIDDEN
 62
     7
370
     0
100
AcDbCircle
 10
181.3271915795
 20
110.8916730355
 30
0.0
 40
2.199560044877998
  0
LINE
  5
10F
330
1F
100
AcDbEntity
  8
0
  6
HIDDEN
 62
     7
370
     0
100
AcDbLine
 10
155.235258748
 20
135.3503626979
 30
0.0
 11
155.235258748
 21
130.7416730355
 31
0.0
  0
LINE
  5
110
330
1F
100
AcDbEntity
  8
0
  6
HIDDEN
 62
     7
370
     0
100
AcDbLine
 10
128.622341784
 20
87.3670734127
 30
0.0
 11
128.3706841895
 21
87.3435517912
 31
0.0
  0
SPLINE
  5
111
330
1F
100
AcDbEntity
  8
0
  6
HIDDEN
 62
     7
370
     0
100
AcDbSpline
210
0.0
220
0.0
230
1.0
 70
     8
 71
     3
 72
    15
 73
    11
 74
     0
 42
0.000000001
 43
0.00000001
 40
0.0
 40
0.0
 40
0.0
 40
0.0
 40
0.1409172169897705
 40
0.2818898291171906
 40
0.4212989265166057
 40
0.5593768372264388
 40
0.6988856205980569
 40
0.8403671979046411
 40
0.981316445467027
 40
1.0
 40
1.0
 40
1.0
 40
1.0
 10
134.3821935810767
 20
91.05414455966631
 30
0.0
 10
134.0661518948042
 20
91.09449837698794
 30
0.0
 10
133.4339442849721
 20
91.17522187488278
 30
0.0
 10
132.1997811632949
 20
91.25177697248505
 30
0.0
 10
130.9290591624364
 20
91.247100921346
 30
0.0
 10
129.7404997574089
 20
91.16630490961377
 30
0.0
 10
128.7473770846279
 20
91.04190811310204
 30
0.0
 10
128.1079680783313
 20
90.93550457443993
 30
0.0
 10
127.8269479717478
 20
90.88242391376278
 30
0.0
 10
127.8935087094409
 20
90.89467995377701
 30
0.0
 10
127.9012990329592
 20
90.89611441078685
 30
0.0
  0
SPLINE
  5
112
330
1F
100
AcDbEntity
  8
0
  6
HIDDEN
 62
     7
370
     0
100
AcDbSpline
210
0.0
220
0.0
230
1.0
 70
     8
 71
     3
 72
    15
 73
    11
 74
     0
 42
0.000000001
 43
0.00000001
 40
0.0
 40
0.0
 40
0.0
 40
0.0
 40
0.1201202395113831
 40
0.2584739316900695
 40
0.3987301965958642
 40
0.5404022890432704
 40
0.680739540300365
 40
0.819035606386088
 40
0.9577823106998845
 40
1.0
 40
1.0
 40
1.0
 40
1.0
 10
127.9012990329592
 20
130.8872316601787
 30
0.0
 10
127.9220081694297
 20
130.8832070663251
 30
0.0
 10
127.9665699514174
 20
130.8745469720643
 30
0.0
 10
128.5290095572902
 20
130.7752558454555
 30
0.0
 10
129.4224717696115
 20
130.6513382554743
 30
0.0
 10
130.5814509238037
 20
130.5516278186529
 30
0.0
 10
131.854487803929
 20
130.5244893295772
 30
0.0
 10
133.0887730785726
 20
130.5798281637411
 30
0.0
 10
133.9167358753386
 20
130.6663067627253
 30
0.0
 10
134.2941464200026
 20
130.7173041810152
 30
0.0
 10
134.3821935810768
 20
130.7292015112992
 30
0.0
  0
SPLINE
  5
113
330
1F
100
AcDbEntity
  8
0
  6
HIDDEN
 62
     7
370
     0
100
AcDbSpline
210
0.0
220
0.0
230
1.0
 70
     8
 71
     3
 72
    10
 73
     6
 74
     0
 42
0.000000001
 43
0.00000001
 40
0.0
 40
0.0
 40
0.0
 40
0.0
 40
0.4476611055955096
 40
0.8953054492368829
 40
1.0
 40
1.0
 40
1.0
 40
1.0
 10
134.3821935810767
 20
130.7292015112992
 30
0.0
 10
134.6288946140183
 20
130.7587137544952
 30
0.0
 10
135.1222874425756
 20
130.8177371358485
 30
0.0
 10
135.4112986781902
 20
130.8316752288502
 30
0.0
 10
135.3509703758121
 20
130.8277868996051
 30
0.0
 10
135.3395352866308
 20
130.8270498758546
 30
0.0
  0
SPLINE
  5
114
330
1F
100
AcDbEntity
  8
0
  6
HIDDEN
 62
     7
370
     0
100
AcDbSpline
210
0.0
220
0.0
230
1.0
 70
     8
 71
     3
 72
    10
 73
     6
 74
     0
 42
0.000000001
 43
0.00000001
 40
0.0
 40
0.0
 40
0.0
 40
0.0
 40
0.3457013790201567
 40
0.7967674042979431
 40
1.0
 40
1.0
 40
1.0
 40
1.0
 10
135.3395563691968
 20
90.95629476197004
 30
0.0
 10
135.3299969323452
 20
90.95685018671661
 30
0.0
 10
135.3079644842583
 20
90.9581303214238
 30
0.0
 10
134.8909256983763
 20
90.98809465128923
 30
0.0
 10
134.5027617268241
 20
91.03849090873884
 30
0.0
 10
134.3821935810767
 20
91.05414455966631
 30
0.0
  0
LINE
  5
115
330
1F
100
AcDbEntity
  8
0
  6
HIDDEN
 62
     7
370
     0
100
AcDbLine
 10
121.6311661757
 20
93.8916730355
 30
0.0
 11
121.6311661757
 21
127.8916730355
 31
0.0
  0
SPLINE
  5
116
330
1F
100
AcDbEntity
  8
0
  6
HIDDEN
 62
     7
370
     0
100
AcDbSpline
210
0.0
220
0.0
230
1.0
 70
     8
 71
     3
 72
     8
 73
     4
 74
     0
 42
0.000000001
 43
0.00000001
 40
0.0
 40
0.0
 40
0.0
 40
0.0
 40
0.0011559732291307
 40
0.0011559732291307
 40
0.0011559732291307
 40
0.0011559732291307
 10
108.7271915794751
 20
112.8915136541094
 30
0.0
 10
109.0605261545424
 20
112.8875463743099
 30
0.0
 10
109.3938573455692
 20
112.883366491739
 30
0.0
 10
109.7271915794751
 20
112.8788013383309
 30
0.0
  0
SPLINE
  5
117
330
1F
100
AcDbEntity
  8
0
  6
HIDDEN
 62
     7
370
     0
100
AcDbSpline
210
0.0
220
0.0
230
1.0
 70
     8
 71
     3
 72
     8
 73
     4
 74
     0
 42
0.000000001
 43
0.00000001
 40
0.0
 40
0.0
 40
0.0
 40
0.0
 40
0.0011564765856723
 40
0.0011564765856723
 40
0.0011564765856723
 40
0.0011564765856723
 10
109.7271915794751
 20
108.8949727332656
 30
0.0
 10
109.3938836489063
 20
108.8940975776826
 30
0.0
 10
109.0605484165141
 20
108.8930427264314
 30
0.0
 10
108.7271915794751
 20
108.8918716393941
 30
0.0
  0
LINE
  5
118
330
1F
100
AcDbEntity
  8
0
  6
HIDDEN
 62
     7
370
     0
100
AcDbLine
 10
148.287017548
 20
93.8916730355
 30
0.0
 11
148.287017548
 21
127.8916730355
 31
0.0
  0
LINE
  5
119
330
1F
100
AcDbEntity
  8
0
  6
HIDDEN
 62
     7
370
     0
100
AcDbLine
 10
150.5771915795
 20
95.1666730355
 30
0.0
 11
150.5771915795
 21
126.6166730264
 31
0.0
  0
SPLINE
  5
11A
330
1F
100
AcDbEntity
  8
0
  6
HIDDEN
 62
     7
370
     0
100
AcDbSpline
210
0.0
220
0.0
230
1.0
 70
     8
 71
     3
 72
    16
 73
    12
 74
     0
 42
0.000000001
 43
0.00000001
 40
0.0
 40
0.0
 40
0.0
 40
0.0
 40
0.124999999999998
 40
0.124999999999998
 40
0.249999999999996
 40
0.249999999999996
 40
0.4999999999999973
 40
0.4999999999999973
 40
0.7499999999999987
 40
0.7499999999999987
 40
1.0
 40
1.0
 40
1.0
 40
1.0
 10
117.4271915794751
 20
95.09018259945113
 30
0.0
 10
117.522313334141
 20
95.09018259945113
 30
0.0
 10
117.615643402869
 20
95.08636676605832
 30
0.0
 10
117.798905163607
 20
95.0715962133285
 30
0.0
 10
117.889782879164
 20
95.06043816535292
 30
0.0
 10
118.1465845766838
 20
95.0179668952112
 30
0.0
 10
118.3016519415558
 20
94.97692069800841
 30
0.0
 10
118.5553984031104
 20
94.88177458142653
 30
0.0
 10
118.6562688547783
 20
94.82701184734493
 30
0.0
 10
118.7915152694731
 20
94.71575072344108
 30
0.0
 10
118.8271915794751
 20
94.65858098611238
 30
0.0
 10
118.8271915794751
 20
94.60415941307865
 30
0.0
  0
SPLINE
  5
11B
330
1F
100
AcDbEntity
  8
0
  6
HIDDEN
 62
     7
370
     0
100
AcDbSpline
210
0.0
220
0.0
230
1.0
 70
     8
 71
     3
 72
     8
 73
     4
 74
     0
 42
0.000000001
 43
0.00000001
 40
0.0
 40
0.0
 40
0.0
 40
0.0
 40
1.0
 40
1.0
 40
1.0
 40
1.0
 10
110.0271915795678
 20
97.23498554553336
 30
0.0
 10
110.0271915795697
 20
96.35108840321644
 30
0.0
 10
110.0137109536592
 20
95.63650515815449
 30
0.0
 10
110.012359585468
 20
95.09018259945113
 30
0.0
  0
SPLINE
  5
11C
330
1F
100
AcDbEntity
  8
0
  6
HIDDEN
 62
     7
370
     0
100
AcDbSpline
210
0.0
220
0.0
230
1.0
 70
     8
 71
     3
 72
    10
 73
     6
 74
     0
 42
0.000000001
 43
0.00000001
 40
0.0
 40
0.0
 40
0.0
 40
0.0
 40
0.5
 40
0.5
 40
1.0
 40
1.0
 40
1.0
 40
1.0
 10
109.7271915794751
 20
98.25989580496316
 30
0.0
 10
109.8185826941426
 20
98.08525701839504
 30
0.0
 10
109.8912345272027
 20
97.91165519222564
 30
0.0
 10
109.9987334190561
 20
97.56804177533877
 30
0.0
 10
110.0271915795621
 20
97.3997159498319
 30
0.0
 10
110.0271915795677
 20
97.23498554559283
 30
0.0
  0
LINE
  5
11D
330
1F
100
AcDbEntity
  8
0
  6
HIDDEN
 62
     7
370
     0
100
AcDbLine
 10
109.7271915795
 20
101.2908462505
 30
0.0
 11
109.7271915795
 21
98.259895805
 31
0.0
  0
SPLINE
  5
11E
330
1F
100
AcDbEntity
  8
0
  6
HIDDEN
 62
     7
370
     0
100
AcDbSpline
210
0.0
220
0.0
230
1.0
 70
     8
 71
     3
 72
    10
 73
     6
 74
     0
 42
0.000000001
 43
0.00000001
 40
0.0
 40
0.0
 40
0.0
 40
0.0
 40
0.5
 40
0.5
 40
1.0
 40
1.0
 40
1.0
 40
1.0
 10
110.0271915795617
 20
102.65868665984
 30
0.0
 10
110.0271915795617
 20
102.4167026936256
 30
0.0
 10
109.9990415508032
 20
102.182360265967
 30
0.0
 10
109.895451637788
 20
101.7269852461585
 30
0.0
 10
109.8188229289944
 20
101.505380684241
 30
0.0
 10
109.7271915794751
 20
101.2908462505016
 30
0.0
  0
LINE
  5
11F
330
1F
100
AcDbEntity
  8
0
  6
HIDDEN
 62
     7
370
     0
100
AcDbLine
 10
110.0271915796
 20
114.496306657
 30
0.0
 11
110.0271915796
 21
102.6586866598
 31
0.0
  0
SPLINE
  5
120
330
1F
100
AcDbEntity
  8
0
  6
HIDDEN
 62
     7
370
     0
100
AcDbSpline
210
0.0
220
0.0
230
1.0
 70
     8
 71
     3
 72
     8
 73
     4
 74
     0
 42
0.000000001
 43
0.00000001
 40
0.0
 40
0.0
 40
0.0
 40
0.0
 40
1.0
 40
1.0
 40
1.0
 40
1.0
 10
109.7271915794751
 20
120.4986123489883
 30
0.0
 10
109.908223044214
 20
120.0665048655138
 30
0.0
 10
110.0271915795673
 20
119.612359461865
 30
0.0
 10
110.0271915795616
 20
119.1246594110947
 30
0.0
  0
LINE
  5
121
330
1F
100
AcDbEntity
  8
0
  6
HIDDEN
 62
     7
370
     0
100
AcDbLine
 10
109.7271915795
 20
123.531815349
 30
0.0
 11
109.7271915795
 21
120.498612349
 31
0.0
  0
SPLINE
  5
122
330
1F
100
AcDbEntity
  8
0
  6
HIDDEN
 62
     7
370
     0
100
AcDbSpline
210
0.0
220
0.0
230
1.0
 70
     8
 71
     3
 72
    10
 73
     6
 74
     0
 42
0.000000001
 43
0.00000001
 40
0.0
 40
0.0
 40
0.0
 40
0.0
 40
0.5
 40
0.5
 40
1.0
 40
1.0
 40
1.0
 40
1.0
 10
110.0271915795807
 20
124.5483605254026
 30
0.0
 10
110.0271915795789
 20
124.3837241798093
 30
0.0
 10
110.0000329091539
 20
124.2165689570228
 30
0.0
 10
109.8942679150942
 20
123.8779459513604
 30
0.0
 10
109.8178531275734
 20
123.7056741752037
 30
0.0
 10
109.7271915794752
 20
123.5318153489531
 30
0.0
  0
SPLINE
  5
123
330
1F
100
AcDbEntity
  8
0
  6
HIDDEN
 62
     7
370
     0
100
AcDbSpline
210
0.0
220
0.0
230
1.0
 70
     8
 71
     3
 72
    18
 73
    14
 74
     0
 42
0.000000001
 43
0.00000001
 40
0.0
 40
0.0
 40
0.0
 40
0.0
 40
0.2500000000000033
 40
0.2500000000000033
 40
0.3750000000000029
 40
0.3750000000000029
 40
0.5000000000000026
 40
0.5000000000000026
 40
0.6250000000000022
 40
0.6250000000000022
 40
0.7500000000000018
 40
0.7500000000000018
 40
1.0
 40
1.0
 40
1.0
 40
1.0
 10
114.8271915794751
 20
127.1791866578869
 30
0.0
 10
114.8271915794751
 20
127.1247121373347
 30
0.0
 10
114.792280888083
 20
127.0683310779822
 30
0.0
 10
114.6902715867499
 20
126.9842542371287
 30
0.0
 10
114.6486352320718
 20
126.9569205331378
 30
0.0
 10
114.5502294365831
 20
126.9039666175389
 30
0.0
 10
114.4926862248788
 20
126.8780792638217
 30
0.0
 10
114.3653880513058
 20
126.8303017189884
 30
0.0
 10
114.2958007465484
 20
126.8083538008105
 30
0.0
 10
114.1443665013934
 20
126.7689212358978
 30
0.0
 10
114.0616825982995
 20
126.7513649866719
 30
0.0
 10
113.8055711362614
 20
126.7089262212514
 30
0.0
 10
113.6176561323734
 20
126.6931634715144
 30
0.0
 10
113.4271915794751
 20
126.6931634715144
 30
0.0
  0
LINE
  5
124
330
1F
100
AcDbEntity
  8
0
  6
HIDDEN
 62
     7
370
     0
100
AcDbLine
 10
113.4271915795
 20
126.6931634715
 30
0.0
 11
110.0271915796
 21
126.6931634715
 31
0.0
  0
LINE
  5
125
330
1F
100
AcDbEntity
  8
0
  6
HIDDEN
 62
     7
370
     0
100
AcDbLine
 10
109.9582225928
 20
95.0901825995
 30
0.0
 11
117.4271915795
 21
95.0901825995
 31
0.0
  0
SPLINE
  5
126
330
1F
100
AcDbEntity
  8
0
  6
HIDDEN
 62
     7
370
     0
100
AcDbSpline
210
0.0
220
0.0
230
1.0
 70
     8
 71
     3
 72
    22
 73
    18
 74
     0
 42
0.000000001
 43
0.00000001
 40
0.0
 40
0.0
 40
0.0
 40
0.0
 40
0.1249999999999998
 40
0.1249999999999998
 40
0.2499999999999996
 40
0.2499999999999996
 40
0.4999999999999992
 40
0.4999999999999992
 40
0.5624999999999992
 40
0.5624999999999992
 40
0.6249999999999992
 40
0.6249999999999992
 40
0.7499999999999994
 40
0.7499999999999994
 40
0.8749999999999998
 40
0.8749999999999998
 40
1.0
 40
1.0
 40
1.0
 40
1.0
 10
109.9582225928331
 20
95.09018259945113
 30
0.0
 10
109.9451402001047
 20
95.34528830959879
 30
0.0
 10
109.9319206366649
 20
95.6384465687027
 30
0.0
 10
109.9094734588707
 20
96.3007470343275
 30
0.0
 10
109.8999949918463
 20
96.67102095493887
 30
0.0
 10
109.8807970309097
 20
97.89357775805267
 30
0.0
 10
109.8819108039066
 20
98.83071668418452
 30
0.0
 10
109.9008215968597
 20
100.1505879136995
 30
0.0
 10
109.9054511247187
 20
100.4220898226758
 30
0.0
 10
109.9159323444647
 20
100.9804746574781
 30
0.0
 10
109.9217276057491
 20
101.2675975134178
 30
0.0
 10
109.940036826654
 20
102.1401867677894
 30
0.0
 10
109.9540717609344
 20
102.7406424441453
 30
0.0
 10
109.9835289330712
 20
103.9781169366414
 30
0.0
 10
109.9990846240528
 20
104.6151330932848
 30
0.0
 10
110.0228791740496
 20
105.9266216909694
 30
0.0
 10
110.030898226195
 20
106.6027443026299
 30
0.0
 10
110.0271915794751
 20
107.2870394139147
 30
0.0
  0
LINE
  5
127
330
1F
100
AcDbEntity
  8
0
  6
HIDDEN
 62
     7
370
     0
100
AcDbLine
 10
110.0271915796
 20
114.496306657
 30
0.0
 11
110.0271915796
 21
126.6931634715
 31
0.0
  0
SPLINE
  5
128
330
1F
100
AcDbEntity
  8
0
  6
HIDDEN
 62
     7
370
     0
100
AcDbSpline
210
0.0
220
0.0
230
1.0
 70
     8
 71
     3
 72
    10
 73
     6
 74
     0
 42
0.000000001
 43
0.00000001
 40
0.0
 40
0.0
 40
0.0
 40
0.0
 40
0.5
 40
0.5
 40
1.0
 40
1.0
 40
1.0
 40
1.0
 10
110.0271915794751
 20
107.2870394138996
 30
0.0
 10
110.0271915794749
 20
107.5609545619738
 30
0.0
 10
110.0014323496071
 20
107.8318961407037
 30
0.0
 10
109.898226416874
 20
108.3675872223063
 30
0.0
 10
109.8208882529988
 20
108.6333340258282
 30
0.0
 10
109.7271915794751
 20
108.8949727332656
 30
0.0
  0
SPLINE
  5
129
330
1F
100
AcDbEntity
  8
0
  6
HIDDEN
 62
     7
370
     0
100
AcDbSpline
210
0.0
220
0.0
230
1.0
 70
     8
 71
     3
 72
    10
 73
     6
 74
     0
 42
0.000000001
 43
0.00000001
 40
0.0
 40
0.0
 40
0.0
 40
0.0
 40
0.5
 40
0.5
 40
1.0
 40
1.0
 40
1.0
 40
1.0
 10
109.7271915794751
 20
112.8788013383309
 30
0.0
 10
109.8204221598264
 20
113.1426951449293
 30
0.0
 10
109.8954517713552
 20
113.4088754540279
 30
0.0
 10
110.0005188693349
 20
113.9471980258468
 30
0.0
 10
110.0271915795795
 20
114.2199461404626
 30
0.0
 10
110.0271915795807
 20
114.4963066570499
 30
0.0
  0
LINE
  5
12A
330
1F
100
AcDbEntity
  8
0
  6
HIDDEN
 62
     7
370
     0
100
AcDbLine
 10
109.7271915795
 20
108.8949727333
 30
0.0
 11
109.7271915795
 21
112.8788013383
 31
0.0
  0
LINE
  5
12B
330
1F
100
AcDbEntity
  8
0
  6
HIDDEN
 62
     7
370
     0
100
AcDbLine
 10
190.1771915795
 20
121.6916471659
 30
0.0
 11
190.1771915795
 21
123.4266449213
 31
0.0
  0
LINE
  5
12C
330
1F
100
AcDbEntity
  8
0
  6
HIDDEN
 62
     7
370
     0
100
AcDbLine
 10
190.1771915795
 20
119.073239479
 30
0.0
 11
190.3271915795
 21
119.8426217513
 31
0.0
  0
SPLINE
  5
12D
330
1F
100
AcDbEntity
  8
0
  6
HIDDEN
 62
     7
370
     0
100
AcDbSpline
210
0.0
220
0.0
230
1.0
 70
     8
 71
     3
 72
     9
 73
     5
 74
     0
 42
0.000000001
 43
0.00000001
 40
0.0
 40
0.0
 40
0.0
 40
0.0
 40
0.6262737817585771
 40
1.0
 40
1.0
 40
1.0
 40
1.0
 10
190.3271915794751
 20
121.5378790247952
 30
0.0
 10
190.3038230670423
 20
121.5949511867555
 30
0.0
 10
190.2665094941074
 20
121.6860809188674
 30
0.0
 10
190.2014907782627
 20
121.6901328521752
 30
0.0
 10
190.1771915794751
 20
121.6916471658869
 30
0.0
  0
LINE
  5
12E
330
1F
100
AcDbEntity
  8
0
  6
HIDDEN
 62
     7
370
     0
100
AcDbLine
 10
190.1771915795
 20
102.7101065919
 30
0.0
 11
190.1771915795
 21
119.073239479
 31
0.0
  0
SPLINE
  5
12F
330
1F
100
AcDbEntity
  8
0
  6
HIDDEN
 62
     7
370
     0
100
AcDbSpline
210
0.0
220
0.0
230
1.0
 70
     8
 71
     3
 72
     9
 73
     5
 74
     0
 42
0.000000001
 43
0.00000001
 40
0.0
 40
0.0
 40
0.0
 40
0.0
 40
0.6465687876945815
 40
0.9999999999999999
 40
0.9999999999999999
 40
0.9999999999999999
 40
0.9999999999999999
 10
190.1771915794751
 20
100.0916989050787
 30
0.0
 10
190.2154164488975
 20
100.0969130554415
 30
0.0
 10
190.2745360200086
 20
100.1049773951715
 30
0.0
 10
190.3134412550791
 20
100.1760823234398
 30
0.0
 10
190.3271915794751
 20
100.2012130244386
 30
0.0
  0
SPLINE
  5
130
330
1F
100
AcDbEntity
  8
0
  6
HIDDEN
 62
     7
370
     0
100
AcDbSpline
210
0.0
220
0.0
230
1.0
 70
     8
 71
     3
 72
    10
 73
     6
 74
     0
 42
0.000000001
 43
0.00000001
 40
0.0
 40
0.0
 40
0.0
 40
0.0
 40
0.5897162302053995
 40
0.7945980080597971
 40
1.0
 40
1.0
 40
1.0
 40
1.0
 10
190.3271915794751
 20
101.9778132623419
 30
0.0
 10
190.3018838124108
 20
102.1185563900784
 30
0.0
 10
190.2677835108288
 20
102.3081971074596
 30
0.0
 10
190.2133326962338
 20
102.5562299321831
 30
0.0
 10
190.1892487973524
 20
102.6587710334491
 30
0.0
 10
190.1771915794751
 20
102.7101065919244
 30
0.0
  0
LINE
  5
131
330
1F
100
AcDbEntity
  8
0
  6
HIDDEN
 62
     7
370
     0
100
AcDbLine
 10
190.1771915795
 20
98.3567011497
 30
0.0
 11
190.1771915795
 21
100.0916989051
 31
0.0
  0
LINE
  5
132
330
1F
100
AcDbEntity
  8
0
  6
HIDDEN
 62
     7
370
     0
100
AcDbLine
 10
109.8771915795
 20
92.9016730355
 30
0.0
 11
109.8771915795
 21
90.0217352701
 31
0.0
  0
LINE
  5
133
330
1F
100
AcDbEntity
  8
0
  6
HIDDEN
 62
     7
370
     0
100
AcDbLine
 10
187.2771915795
 20
106.5273288694
 30
0.0
 11
187.2771915795
 21
115.2560172016
 31
0.0
  0
LINE
  5
134
330
1F
100
AcDbEntity
  8
0
  6
HIDDEN
 62
     7
370
     0
100
AcDbLine
 10
188.4451407719
 20
106.5273288694
 30
0.0
 11
188.4451407719
 21
115.2560172016
 31
0.0
  0
LINE
  5
135
330
1F
100
AcDbEntity
  8
0
  6
HIDDEN
 62
     7
370
     0
100
AcDbLine
 10
118.8271915795
 20
92.9016730355
 30
0.0
 11
118.8271915795
 21
88.9279355043
 31
0.0
  0
LINE
  5
136
330
1F
100
AcDbEntity
  8
0
  6
HIDDEN
 62
     7
370
     0
100
AcDbLine
 10
109.8771915795
 20
128.8816730355
 30
0.0
 11
109.8771915795
 21
131.7616108009
 31
0.0
  0
LINE
  5
137
330
1F
100
AcDbEntity
  8
0
  6
HIDDEN
 62
     7
370
     0
100
AcDbLine
 10
114.8271915795
 20
128.8816730355
 30
0.0
 11
114.8271915795
 21
132.7357807078
 31
0.0
  0
LINE
  5
138
330
1F
100
AcDbEntity
  8
0
  6
HIDDEN
 62
     7
370
     0
100
AcDbLine
 10
190.1771915795
 20
121.6916471659
 30
0.0
 11
190.1771915795
 21
121.6318363622
 31
0.0
  0
LINE
  5
139
330
1F
100
AcDbEntity
  8
0
  6
HIDDEN
 62
     7
370
     0
100
AcDbLine
 10
187.2771915795
 20
121.6318363622
 30
0.0
 11
190.1771915795
 21
121.6318363622
 31
0.0
  0
LINE
  5
13A
330
1F
100
AcDbEntity
  8
0
  6
HIDDEN
 62
     7
370
     0
100
AcDbLine
 10
187.2771915795
 20
121.6916730355
 30
0.0
 11
187.2771915795
 21
118.4916730355
 31
0.0
  0
LINE
  5
13B
330
1F
100
AcDbEntity
  8
0
  6
HIDDEN
 62
     7
370
     0
100
AcDbLine
 10
187.2771915795
 20
115.2560172016
 30
0.0
 11
188.4451407719
 21
115.2560172016
 31
0.0
  0
LINE
  5
13C
330
1F
100
AcDbEntity
  8
0
  6
HIDDEN
 62
     7
370
     0
100
AcDbLine
 10
187.2771915795
 20
118.4916730355
 30
0.0
 11
187.2771915795
 21
115.2560172016
 31
0.0
  0
SPLINE
  5
13D
330
1F
100
AcDbEntity
  8
0
  6
HIDDEN
 62
     7
370
     0
100
AcDbSpline
210
0.0
220
0.0
230
1.0
 70
     8
 71
     3
 72
     8
 73
     4
 74
     0
 42
0.000000001
 43
0.00000001
 40
0.0
 40
0.0
 40
0.0
 40
0.0
 40
1.0
 40
1.0
 40
1.0
 40
1.0
 10
188.4451407719062
 20
115.2560172015632
 30
0.0
 10
188.9718876653633
 20
115.9876811620974
 30
0.0
 10
189.5594129604264
 20
116.6582890207435
 30
0.0
 10
190.1771915794751
 20
117.2985053260925
 30
0.0
  0
LINE
  5
13E
330
1F
100
AcDbEntity
  8
0
  6
HIDDEN
 62
     7
370
     0
100
AcDbLine
 10
188.4451407719
 20
106.5273288694
 30
0.0
 11
187.2771915795
 21
106.5273288694
 31
0.0
  0
LINE
  5
13F
330
1F
100
AcDbEntity
  8
0
  6
HIDDEN
 62
     7
370
     0
100
AcDbLine
 10
187.2771915795
 20
106.5273288694
 30
0.0
 11
187.2771915795
 21
103.2916730355
 31
0.0
  0
SPLINE
  5
140
330
1F
100
AcDbEntity
  8
0
  6
HIDDEN
 62
     7
370
     0
100
AcDbSpline
210
0.0
220
0.0
230
1.0
 70
     8
 71
     3
 72
     8
 73
     4
 74
     0
 42
0.000000001
 43
0.00000001
 40
0.0
 40
0.0
 40
0.0
 40
0.0
 40
1.0
 40
1.0
 40
1.0
 40
1.0
 10
190.1771915794751
 20
104.484840744873
 30
0.0
 10
189.5540494906407
 20
105.1306153209426
 30
0.0
 10
188.9662733033636
 20
105.8034633911898
 30
0.0
 10
188.4451407719062
 20
106.5273288694024
 30
0.0
  0
LINE
  5
141
330
1F
100
AcDbEntity
  8
0
  6
HIDDEN
 62
     7
370
     0
100
AcDbLine
 10
187.2771915795
 20
100.1515097088
 30
0.0
 11
190.1771915795
 21
100.1515097088
 31
0.0
  0
LINE
  5
142
330
1F
100
AcDbEntity
  8
0
  6
HIDDEN
 62
     7
370
     0
100
AcDbLine
 10
190.1771915795
 20
100.1515097088
 30
0.0
 11
190.1771915795
 21
100.0916989051
 31
0.0
  0
LINE
  5
143
330
1F
100
AcDbEntity
  8
0
  6
HIDDEN
 62
     7
370
     0
100
AcDbLine
 10
187.2771915795
 20
103.2916730355
 30
0.0
 11
187.2771915795
 21
100.0916730355
 31
0.0
  0
LINE
  5
144
330
1F
100
AcDbEntity
  8
0
  6
HIDDEN
 62
     7
370
     0
100
AcDbLine
 10
159.4271915795
 20
101.3916730355
 30
0.0
 11
159.4271915795
 21
120.3916730355
 31
0.0
  0
LINE
  5
145
330
1F
100
AcDbEntity
  8
0
  6
HIDDEN
 62
     7
370
     0
100
AcDbLine
 10
162.4271915795
 20
101.3916730355
 30
0.0
 11
162.4271915795
 21
120.3916730355
 31
0.0
  0
LINE
  5
146
330
1F
100
AcDbEntity
  8
0
  6
HIDDEN
 62
     7
370
     0
100
AcDbLine
 10
186.4771915795
 20
101.8916730355
 30
0.0
 11
186.4771915795
 21
119.8916730355
 31
0.0
  0
LINE
  5
147
330
1F
100
AcDbEntity
  8
0
  6
HIDDEN
 62
     7
370
     0
100
AcDbLine
 10
171.6271915795
 20
102.2916730355
 30
0.0
 11
171.6271915795
 21
119.4916729863
 31
0.0
  0
LINE
  5
148
330
1F
100
AcDbEntity
  8
0
  6
HIDDEN
 62
     7
370
     0
100
AcDbLine
 10
173.6271915795
 20
101.8916730355
 30
0.0
 11
173.6271915795
 21
119.8916730355
 31
0.0
  0
LINE
  5
149
330
1F
100
AcDbEntity
  8
0
  6
HIDDEN
 62
     7
370
     0
100
AcDbLine
 10
151.0771915795
 20
102.3916730355
 30
0.0
 11
151.0771915795
 21
119.3916730355
 31
0.0
  0
LINE
  5
14A
330
1F
100
AcDbEntity
  8
0
  6
HIDDEN
 62
     7
370
     0
100
AcDbLine
 10
166.5771915795
 20
84.4916730355
 30
0.0
 11
160.4395167771
 21
84.4916730355
 31
0.0
  0
LINE
  5
14B
330
1F
100
AcDbEntity
  8
0
  6
HIDDEN
 62
     7
370
     0
100
AcDbLine
 10
145.5771915795
 20
79.4075500526
 30
0.0
 11
145.5771915795
 21
84.4916730355
 31
0.0
  0
LINE
  5
14C
330
1F
100
AcDbEntity
  8
0
  6
HIDDEN
 62
     7
370
     0
100
AcDbLine
 10
153.5771915795
 20
84.4916730355
 30
0.0
 11
145.5771915795
 21
84.4916730355
 31
0.0
  0
LINE
  5
14D
330
1F
100
AcDbEntity
  8
0
  6
HIDDEN
 62
     7
370
     0
100
AcDbLine
 10
156.8148663818
 20
84.4916730355
 30
0.0
 11
153.5771915795
 21
84.4916730355
 31
0.0
  0
LINE
  5
14E
330
1F
100
AcDbEntity
  8
0
  6
HIDDEN
 62
     7
370
     0
100
AcDbLine
 10
153.5771915795
 20
137.2916730355
 30
0.0
 11
145.5771915795
 21
137.2916730355
 31
0.0
  0
LINE
  5
14F
330
1F
100
AcDbEntity
  8
0
  6
HIDDEN
 62
     7
370
     0
100
AcDbLine
 10
157.1114891112
 20
137.2916730355
 30
0.0
 11
153.5771915795
 21
137.2916730355
 31
0.0
  0
LINE
  5
150
330
1F
100
AcDbEntity
  8
0
  6
HIDDEN
 62
     7
370
     0
100
AcDbLine
 10
166.5771915795
 20
137.2916730355
 30
0.0
 11
160.1428940478
 21
137.2916730355
 31
0.0
  0
SPLINE
  5
151
330
1F
100
AcDbEntity
  8
0
  6
HIDDEN
 62
     7
370
     0
100
AcDbSpline
210
0.0
220
0.0
230
1.0
 70
     8
 71
     3
 72
    11
 73
     7
 74
     0
 42
0.000000001
 43
0.00000001
 40
0.0
 40
0.0
 40
0.0
 40
0.0
 40
0.0008203708524183
 40
0.0008203708524183
 40
0.0008203708524183
 40
0.0016409967870154
 40
0.0016409967870154
 40
0.0016409967870154
 40
0.0016409967870154
 10
109.8771915794751
 20
95.03964028484005
 30
0.0
 10
109.6860332791765
 20
94.9984612562209
 30
0.0
 10
109.4946062091043
 20
94.95970728399092
 30
0.0
 10
109.3029605855837
 20
94.92333952471238
 30
0.0
 10
109.1112551805032
 20
94.88696042094635
 30
0.0
 10
108.9193162284442
 20
94.85296617017879
 30
0.0
 10
108.7271915813734
 20
94.82131804478757
 30
0.0
  0
ELLIPSE
  5
152
330
1F
100
AcDbEntity
  8
0
  6
HIDDEN
 62
     7
370
     0
100
AcDbEllipse
 10
104.4847597167
 20
110.8916730355
 30
0.0
 11
20.19992452771986
 21
-1.421085471520200E-14
 31
0.0
210
0.0
220
0.0
230
1.0
 40
0.816496581
 41
1.300566354937426
 42
1.359198697443033
  0
LINE
  5
153
330
1F
100
AcDbEntity
  8
0
  6
HIDDEN
 62
     7
370
     0
100
AcDbLine
 10
109.8771915795
 20
92.9016730355
 30
0.0
 11
109.8771915795
 21
95.0396402848
 31
0.0
  0
LINE
  5
154
330
1F
100
AcDbEntity
  8
0
  6
HIDDEN
 62
     7
370
     0
100
AcDbLine
 10
109.9582225928
 20
95.0901825995
 30
0.0
 11
109.8771915795
 21
95.0396402848
 31
0.0
  0
LINE
  5
155
330
1F
100
AcDbEntity
  8
0
  6
HIDDEN
 62
     7
370
     0
100
AcDbLine
 10
118.8271915795
 20
92.9016730355
 30
0.0
 11
118.8271915795
 21
94.6041594131
 31
0.0
  0
LINE
  5
156
330
1F
100
AcDbEntity
  8
0
  6
HIDDEN
 62
     7
370
     0
100
AcDbLine
 10
109.8771915795
 20
128.8816730355
 30
0.0
 11
109.8771915795
 21
126.7862974845
 31
0.0
  0
SPLINE
  5
157
330
1F
100
AcDbEntity
  8
0
  6
HIDDEN
 62
     7
370
     0
100
AcDbSpline
210
0.0
220
0.0
230
1.0
 70
     8
 71
     3
 72
     8
 73
     4
 74
     0
 42
0.000000001
 43
0.00000001
 40
0.0
 40
0.0
 40
0.0
 40
0.0
 40
1.0
 40
1.0
 40
1.0
 40
1.0
 10
109.8771915794751
 20
126.7862974844815
 30
0.0
 10
109.9271970773227
 20
126.7552617109486
 30
0.0
 10
109.9771971468912
 20
126.7242170666077
 30
0.0
 10
110.0271915795807
 20
126.6931634715144
 30
0.0
  0
LINE
  5
158
330
1F
100
AcDbEntity
  8
0
  6
HIDDEN
 62
     7
370
     0
100
AcDbLine
 10
114.8271915795
 20
128.8816730355
 30
0.0
 11
114.8271915795
 21
127.1791866579
 31
0.0
  0
LINE
  5
159
330
1F
100
AcDbEntity
  8
0
  6
HIDDEN
 62
     7
370
     0
100
AcDbLine
 10
187.2771915795
 20
123.0666730355
 30
0.0
 11
187.2771915795
 21
121.6916730355
 31
0.0
  0
LINE
  5
15A
330
1F
100
AcDbEntity
  8
0
  6
HIDDEN
 62
     7
370
     0
100
AcDbLine
 10
187.2771915795
 20
100.0916730355
 30
0.0
 11
187.2771915795
 21
98.7166730355
 31
0.0
  0
SPLINE
  5
15B
330
1F
100
AcDbEntity
  8
0
  6
HIDDEN
 62
     7
370
     0
100
AcDbSpline
210
0.0
220
0.0
230
1.0
 70
     8
 71
     3
 72
    27
 73
    23
 74
     0
 42
0.000000001
 43
0.00000001
 40
0.0
 40
0.0
 40
0.0
 40
0.0
 40
0.0524647734462249
 40
0.1118318037670487
 40
0.1772303941926944
 40
0.2122632073155674
 40
0.2488314951751917
 40
0.3294313046872583
 40
0.398077110842528
 40
0.4372258842340605
 40
0.4710490866412959
 40
0.4995558792903954
 40
0.554049799521334
 40
0.6137899240636229
 40
0.6788358989234845
 40
0.7134145965890297
 40
0.7493416484764482
 40
0.8293400806799033
 40
0.8976577653789224
 40
0.9542808761580407
 40
0.9992067181082763
 40
0.9999999999999999
 40
0.9999999999999999
 40
0.9999999999999999
 40
0.9999999999999999
 10
135.3762662339256
 20
87.29164136604642
 30
0.0
 10
135.3666327168395
 20
87.29475008921176
 30
0.0
 10
135.3460982987607
 20
87.30137651864541
 30
0.0
 10
135.1597073696371
 20
87.35115400846212
 30
0.0
 10
134.8848173398288
 20
87.41486269381932
 30
0.0
 10
134.5766754717429
 20
87.480750614805
 30
0.0
 10
134.1835565251561
 20
87.56323346813184
 30
0.0
 10
133.6071930235215
 20
87.66558886633705
 30
0.0
 10
132.9339796227133
 20
87.75813138706131
 30
0.0
 10
132.3981240431627
 20
87.81971431624979
 30
0.0
 10
132.0043909715048
 20
87.85792779870175
 30
0.0
 10
131.5462143473619
 20
87.89175163985094
 30
0.0
 10
130.9838046001087
 20
87.91132997927954
 30
0.0
 10
130.2984591383374
 20
87.91225861059577
 30
0.0
 10
129.7317867617465
 20
87.89407108858056
 30
0.0
 10
129.2956974353877
 20
87.86921857203814
 30
0.0
 10
128.8522488687661
 20
87.83323528963352
 30
0.0
 10
128.4021534137279
 20
87.7877536242361
 30
0.0
 10
128.060339696097
 20
87.74590096144404
 30
0.0
 10
127.9145748302812
 20
87.72227921626016
 30
0.0
 10
127.8651542196312
 20
87.71045795928401
 30
0.0
 10
127.8776340670388
 20
87.71314920335597
 30
0.0
 10
127.8778506074299
 20
87.71319589968364
 30
0.0
  0
SPLINE
  5
15C
330
1F
100
AcDbEntity
  8
0
  6
HIDDEN
 62
     7
370
     0
100
AcDbSpline
210
0.0
220
0.0
230
1.0
 70
     8
 71
     3
 72
    27
 73
    23
 74
     0
 42
0.000000001
 43
0.00000001
 40
0.0
 40
0.0
 40
0.0
 40
0.0
 40
0.0008362832777976
 40
0.0457190780575001
 40
0.1023011008974746
 40
0.1705796221690961
 40
0.2091715379643473
 40
0.250699039194253
 40
0.3211452612971578
 40
0.3862394066795318
 40
0.4267188120560942
 40
0.4648503056956664
 40
0.5006548485131035
 40
0.54524689437734
 40
0.6017415072334008
 40
0.6701479139323585
 40
0.7088854886240268
 40
0.7506144976336848
 40
0.8222795355401789
 40
0.887819374092227
 40
0.9472935047015372
 40
1.0
 40
1.0
 40
1.0
 40
1.0
 10
127.877882522999
 20
134.0700823416138
 30
0.0
 10
127.877652437282
 20
134.0701319423503
 30
0.0
 10
127.8650737966072
 20
134.0728435832557
 30
0.0
 10
127.9141422894441
 20
134.0610133179076
 30
0.0
 10
128.059257545512
 20
134.037566620567
 30
0.0
 10
128.3323063777794
 20
134.0036632459039
 30
0.0
 10
128.6608333969356
 20
133.9700943237055
 30
0.0
 10
129.0535610182121
 20
133.931911018608
 30
0.0
 10
129.6032890556774
 20
133.8929423315956
 30
0.0
 10
130.2293116842135
 20
133.8734812310704
 30
0.0
 10
130.7725031973013
 20
133.8712955526213
 30
0.0
 10
131.2175720935617
 20
133.8798104339178
 30
0.0
 10
131.6840198903232
 20
133.8995938308467
 30
0.0
 10
132.2212605387352
 20
133.9437562161922
 30
0.0
 10
132.8694739732578
 20
134.0161718371522
 30
0.0
 10
133.4550125885583
 20
134.0970739265671
 30
0.0
 10
133.9359822381422
 20
134.1752399240495
 30
0.0
 10
134.3813969845107
 20
134.260012024451
 30
0.0
 10
134.8198976618651
 20
134.3537953125039
 30
0.0
 10
135.1589194336317
 20
134.4316981846515
 30
0.0
 10
135.3462357664158
 20
134.4818830965407
 30
0.0
 10
135.3667242409396
 20
134.488548771201
 30
0.0
 10
135.3763504636267
 20
134.4916805450461
 30
0.0
  0
SPLINE
  5
15D
330
1F
100
AcDbEntity
  8
0
  6
HIDDEN
 62
     7
370
     0
100
AcDbSpline
210
0.0
220
0.0
230
1.0
 70
     8
 71
     3
 72
     8
 73
     4
 74
     0
 42
0.000000001
 43
0.00000001
 40
0.0
 40
0.0
 40
0.0
 40
0.0
 40
0.0001590976915385
 40
0.0001590976915385
 40
0.0001590976915385
 40
0.0001590976915385
 10
110.012359585468
 20
95.09018259945113
 30
0.0
 10
109.9673081160385
 20
95.06220371580046
 30
0.0
 10
109.9222520786987
 20
95.03423218609815
 30
0.0
 10
109.8771915794752
 20
95.00626784741806
 30
0.0
  0
SPLINE
  5
15E
330
1F
100
AcDbEntity
  8
0
  6
HIDDEN
 62
     7
370
     0
100
AcDbSpline
210
0.0
220
0.0
230
1.0
 70
     8
 71
     3
 72
    11
 73
     7
 74
     0
 42
0.000000001
 43
0.00000001
 40
0.0
 40
0.0
 40
0.0
 40
0.0
 40
0.000821290931132
 40
0.000821290931132
 40
0.000821290931132
 40
0.0016428257242788
 40
0.0016428257242788
 40
0.0016428257242788
 40
0.0016428257242788
 10
109.8771915794751
 20
95.00626784741806
 30
0.0
 10
109.6860465579927
 20
94.96298165859643
 30
0.0
 10
109.4946282223161
 20
94.92204514899065
 30
0.0
 10
109.302982147655
 20
94.88344337763618
 30
0.0
 10
109.1112790661134
 20
94.84483012383123
 30
0.0
 10
108.919333942828
 20
94.80854991457798
 30
0.0
 10
108.7271915794751
 20
94.77458300825987
 30
0.0
  0
LINE
  5
15F
330
1F
100
AcDbEntity
  8
0
  6
HIDDEN
 62
     7
370
     0
100
AcDbLine
 10
156.7171915795
 20
131.0275396669
 30
0.0
 11
156.7171915795
 21
130.7416730355
 31
0.0
  0
LINE
  5
160
330
1F
100
AcDbEntity
  8
0
  6
HIDDEN
 62
     7
370
     0
100
AcDbLine
 10
160.5371915795
 20
131.0275396669
 30
0.0
 11
160.5371915795
 21
130.7416730355
 31
0.0
  0
LINE
  5
161
330
1F
100
AcDbEntity
  8
0
  6
HIDDEN
 62
     7
370
     0
100
AcDbLine
 10
162.019124411
 20
135.3503626979
 30
0.0
 11
162.019124411
 21
130.7416730355
 31
0.0
  0
SPLINE
  5
162
330
1F
100
AcDbEntity
  8
0
  6
HIDDEN
 62
     7
370
     0
100
AcDbSpline
210
0.0
220
0.0
230
1.0
 70
     8
 71
     3
 72
     8
 73
     4
 74
     0
 42
0.000000001
 43
0.00000001
 40
0.0000000000000004
 40
0.0000000000000004
 40
0.0000000000000004
 40
0.0000000000000004
 40
0.0011563724678169
 40
0.0011563724678169
 40
0.0011563724678169
 40
0.0011563724678169
 10
109.7271915794754
 20
123.5318153489579
 30
0.0
 10
109.3938704642782
 20
123.6608743745848
 30
0.0
 10
109.0605377834701
 20
123.7898347107537
 30
0.0
 10
108.7271915794751
 20
123.9187462405268
 30
0.0
  0
SPLINE
  5
163
330
1F
100
AcDbEntity
  8
0
  6
HIDDEN
 62
     7
370
     0
100
AcDbSpline
210
0.0
220
0.0
230
1.0
 70
     8
 71
     3
 72
     8
 73
     4
 74
     0
 42
0.000000001
 43
0.00000001
 40
0.0
 40
0.0
 40
0.0
 40
0.0
 40
0.0011557494192775
 40
0.0011557494192775
 40
0.0011557494192775
 40
0.0011557494192775
 10
108.7271915794751
 20
97.86445117303194
 30
0.0
 10
109.0605253894893
 20
97.99607544922684
 30
0.0
 10
109.3938590011519
 20
98.12789236280025
 30
0.0
 10
109.7271915794751
 20
98.25989580496316
 30
0.0
  0
SPLINE
  5
164
330
1F
100
AcDbEntity
  8
0
  6
HIDDEN
 62
     7
370
     0
100
AcDbSpline
210
0.0
220
0.0
230
1.0
 70
     8
 71
     3
 72
     8
 73
     4
 74
     0
 42
0.000000001
 43
0.00000001
 40
0.0000000000000006
 40
0.0000000000000006
 40
0.0000000000000006
 40
0.0000000000000006
 40
0.0011560973009451
 40
0.0011560973009451
 40
0.0011560973009451
 40
0.0011560973009451
 10
108.7271915794751
 20
120.8724875287699
 30
0.0
 10
109.0605313170618
 20
120.7477437964966
 30
0.0
 10
109.3938619502705
 20
120.6230625723196
 30
0.0
 10
109.7271915794751
 20
120.4986123489884
 30
0.0
  0
SPLINE
  5
165
330
1F
100
AcDbEntity
  8
0
  6
HIDDEN
 62
     7
370
     0
100
AcDbSpline
210
0.0
220
0.0
230
1.0
 70
     8
 71
     3
 72
     8
 73
     4
 74
     0
 42
0.000000001
 43
0.00000001
 40
0.0
 40
0.0
 40
0.0
 40
0.0
 40
0.0011564805411644
 40
0.0011564805411644
 40
0.0011564805411644
 40
0.0011564805411644
 10
109.7271915794751
 20
101.2908462505016
 30
0.0
 10
109.3938896140737
 20
101.1639953100674
 30
0.0
 10
109.060552797167
 20
101.0374302412052
 30
0.0
 10
108.7271915794751
 20
100.9110302675444
 30
0.0
  0
CIRCLE
  5
166
330
1F
100
AcDbEntity
  8
0
  6
HIDDEN
 62
     7
370
     0
100
AcDbCircle
 10
147.6271915795
 20
110.8916730355
 30
0.0
 40
5.0
  0
LINE
  5
167
330
1F
100
AcDbEntity
  8
0
  6
HIDDEN
 62
     7
370
     0
100
AcDbLine
 10
140.6271915795
 20
85.5677418895
 30
0.0
 11
140.721352355
 21
86.2377306207
 31
0.0
  0
LINE
  5
168
330
1F
100
AcDbEntity
  8
0
  6
HIDDEN
 62
     7
370
     0
100
AcDbLine
 10
140.721352355
 20
135.5456154502
 30
0.0
 11
140.6271915795
 21
136.2156041815
 31
0.0
  0
ARC
  5
169
330
1F
100
AcDbEntity
  8
0
  6
HIDDEN
 62
     7
370
     0
100
AcDbCircle
 10
140.1271848268
 20
86.3212354211
 30
0.0
 40
0.6000067526677242
100
AcDbArc
 50
352.0
 51
0.0
  0
ARC
  5
16A
330
1F
100
AcDbEntity
  8
0
  6
HIDDEN
 62
     7
370
     0
100
AcDbCircle
 10
140.1271848268
 20
86.3212354211
 30
0.0
 40
0.6000067526677242
100
AcDbArc
 50
0.0
 51
33.5571153394
  0
ARC
  5
16B
330
1F
100
AcDbEntity
  8
0
  6
HIDDEN
 62
     7
370
     0
100
AcDbCircle
 10
140.1271848268
 20
135.4621106499
 30
0.0
 40
0.6000067526677121
100
AcDbArc
 50
348.75
 51
8.0
  0
LWPOLYLINE
  5
16C
330
1F
100
AcDbEntity
  8
0
  6
HIDDEN
 62
     7
370
     0
100
AcDbPolyline
 90
        3
 70
   128
 43
0.0
 10
140.715662618
 20
135.3450551393
 10
140.681518785
 20
135.2324980063
 10
140.6271915795
 20
135.1304461348
  0
LINE
  5
16D
330
1F
100
AcDbEntity
  8
0
  6
HIDDEN
 62
     7
370
     0
100
AcDbLine
 10
140.7271915795
 20
86.3212354211
 30
0.0
 11
140.7271915795
 21
135.4621106499
 31
0.0
  0
LINE
  5
16E
330
1F
100
AcDbEntity
  8
0
  6
HIDDEN
 62
     7
370
     0
100
AcDbLine
 10
123.7096271448
 20
90.8916730355
 30
0.0
 11
127.901299033
 21
90.8916730355
 31
0.0
  0
LINE
  5
16F
330
1F
100
AcDbEntity
  8
0
  6
HIDDEN
 62
     7
370
     0
100
AcDbLine
 10
127.901299033
 20
130.8916730355
 30
0.0
 11
123.7096271448
 21
130.8916730355
 31
0.0
  0
ARC
  5
170
330
1F
100
AcDbEntity
  8
0
  6
HIDDEN
 62
     7
370
     0
100
AcDbCircle
 10
134.3821935811
 20
98.8916730355
 30
0.0
 40
7.999999999999993
100
AcDbArc
 50
276.8806615008
 51
321.3178125465
  0
ARC
  5
171
330
1F
100
AcDbEntity
  8
0
  6
HIDDEN
 62
     7
370
     0
100
AcDbCircle
 10
134.3821935811
 20
122.8916730355
 30
0.0
 40
8.000000000000016
100
AcDbArc
 50
38.6821874535
 51
83.1214646111
  0
ARC
  5
172
330
1F
100
AcDbEntity
  8
0
  6
HIDDEN
 62
     7
370
     0
100
AcDbCircle
 10
123.7096271448
 20
91.4916730355
 30
0.0
 40
0.5999999999999962
100
AcDbArc
 50
210.0
 51
270.0
  0
ARC
  5
173
330
1F
100
AcDbEntity
  8
0
  6
HIDDEN
 62
     7
370
     0
100
AcDbCircle
 10
123.7096271448
 20
130.2916730355
 30
0.0
 40
0.6000000000000032
100
AcDbArc
 50
90.0
 51
150.0
  0
LINE
  5
174
330
1F
100
AcDbEntity
  8
0
  6
HIDDEN
 62
     7
370
     0
100
AcDbLine
 10
123.1900119025
 20
130.5916730355
 30
0.0
 11
121.6311661757
 21
127.8916730355
 31
0.0
  0
LINE
  5
175
330
1F
100
AcDbEntity
  8
0
  6
HIDDEN
 62
     7
370
     0
100
AcDbLine
 10
121.6311661757
 20
93.8916730355
 30
0.0
 11
123.1900119025
 21
91.1916730355
 31
0.0
  0
ARC
  5
176
330
1F
100
AcDbEntity
  8
0
  6
HIDDEN
 62
     7
370
     0
100
AcDbCircle
 10
149.0771915795
 20
95.1666730355
 30
0.0
 40
1.5
100
AcDbArc
 50
238.2116693829
 51
0.0
  0
ARC
  5
177
330
1F
100
AcDbEntity
  8
0
  6
HIDDEN
 62
     7
370
     0
100
AcDbCircle
 10
149.0771915795
 20
126.6166730355
 30
0.0
 40
1.500000000000001
100
AcDbArc
 50
0.0
 51
121.7883306171
  0
LINE
  5
178
330
1F
100
AcDbEntity
  8
0
  6
HIDDEN
 62
     7
370
     0
100
AcDbLine
 10
118.8271915795
 20
93.8916730355
 30
0.0
 11
121.6311661757
 21
93.8916730355
 31
0.0
  0
LINE
  5
179
330
1F
100
AcDbEntity
  8
0
  6
HIDDEN
 62
     7
370
     0
100
AcDbLine
 10
121.6311661757
 20
127.8916730355
 30
0.0
 11
114.8271915795
 21
127.8916730355
 31
0.0
  0
LINE
  5
17A
330
1F
100
AcDbEntity
  8
0
  6
HIDDEN
 62
     7
370
     0
100
AcDbLine
 10
140.6271915795
 20
93.8916730355
 30
0.0
 11
148.287017548
 21
93.8916730355
 31
0.0
  0
LINE
  5
17B
330
1F
100
AcDbEntity
  8
0
  6
HIDDEN
 62
     7
370
     0
100
AcDbLine
 10
148.287017548
 20
127.8916730355
 30
0.0
 11
140.6271915795
 21
127.8916730355
 31
0.0
  0
LINE
  5
17C
330
1F
100
AcDbEntity
  8
0
  6
HIDDEN
 62
     7
370
     0
100
AcDbLine
 10
190.6271915795
 20
124.3916730355
 30
0.0
 11
190.1771915795
 21
123.4266449213
 31
0.0
  0
LINE
  5
17D
330
1F
100
AcDbEntity
  8
0
  6
HIDDEN
 62
     7
370
     0
100
AcDbLine
 10
190.1771915795
 20
98.3567011497
 30
0.0
 11
190.6271915795
 21
97.3916730355
 31
0.0
  0
LINE
  5
17E
330
1F
100
AcDbEntity
  8
0
  6
HIDDEN
 62
     7
370
     0
100
AcDbLine
 10
190.1743700193
 20
121.6916730355
 30
0.0
 11
187.2771915795
 21
121.6916730355
 31
0.0
  0
LINE
  5
17F
330
1F
100
AcDbEntity
  8
0
  6
HIDDEN
 62
     7
370
     0
100
AcDbLine
 10
187.2771915795
 20
100.0916730355
 30
0.0
 11
190.1771915795
 21
100.0916730355
 31
0.0
  0
LINE
  5
180
330
1F
100
AcDbEntity
  8
0
  6
HIDDEN
 62
     7
370
     0
100
AcDbLine
 10
159.4271915795
 20
101.3916730355
 30
0.0
 11
162.4271915795
 21
101.3916730355
 31
0.0
  0
LINE
  5
181
330
1F
100
AcDbEntity
  8
0
  6
HIDDEN
 62
     7
370
     0
100
AcDbLine
 10
162.4271915795
 20
120.3916730355
 30
0.0
 11
159.4271915795
 21
120.3916730355
 31
0.0
  0
LINE
  5
182
330
1F
100
AcDbEntity
  8
0
  6
HIDDEN
 62
     7
370
     0
100
AcDbLine
 10
187.2771915795
 20
120.3535532508
 30
0.0
 11
186.4771915795
 21
119.8916730355
 31
0.0
  0
LINE
  5
183
330
1F
100
AcDbEntity
  8
0
  6
HIDDEN
 62
     7
370
     0
100
AcDbLine
 10
186.4771915795
 20
101.8916730355
 30
0.0
 11
187.2771915795
 21
101.4297928201
 31
0.0
  0
LINE
  5
184
330
1F
100
AcDbEntity
  8
0
  6
HIDDEN
 62
     7
370
     0
100
AcDbLine
 10
172.2271915795
 20
101.6916730355
 30
0.0
 11
172.8017899194
 21
101.6916730355
 31
0.0
  0
LINE
  5
185
330
1F
100
AcDbEntity
  8
0
  6
HIDDEN
 62
     7
370
     0
100
AcDbLine
 10
172.8017899194
 20
120.0916730355
 30
0.0
 11
172.2271915795
 21
120.0916730355
 31
0.0
  0
ARC
  5
186
330
1F
100
AcDbEntity
  8
0
  6
HIDDEN
 62
     7
370
     0
100
AcDbCircle
 10
172.2271915795
 20
102.2916730355
 30
0.0
 40
0.6000000000000227
100
AcDbArc
 50
180.0
 51
270.0
  0
ARC
  5
187
330
1F
100
AcDbEntity
  8
0
  6
HIDDEN
 62
     7
370
     0
100
AcDbCircle
 10
172.2271915795
 20
119.4916730355
 30
0.0
 40
0.6000000000000227
100
AcDbArc
 50
90.0
 51
180.0
  0
ARC
  5
188
330
1F
100
AcDbEntity
  8
0
  6
HIDDEN
 62
     7
370
     0
100
AcDbCircle
 10
172.8017899194
 20
102.2916730355
 30
0.0
 40
0.6000000000000145
100
AcDbArc
 50
270.0
 51
285.0
  0
ARC
  5
189
330
1F
100
AcDbEntity
  8
0
  6
HIDDEN
 62
     7
370
     0
100
AcDbCircle
 10
172.8017899194
 20
119.4916730355
 30
0.0
 40
0.6000000000000145
100
AcDbArc
 50
75.0
 51
90.0
  0
LINE
  5
18A
330
1F
100
AcDbEntity
  8
0
  6
HIDDEN
 62
     7
370
     0
100
AcDbLine
 10
172.9570813465
 20
101.7121175397
 30
0.0
 11
173.6271915795
 21
101.8916730355
 31
0.0
  0
LINE
  5
18B
330
1F
100
AcDbEntity
  8
0
  6
HIDDEN
 62
     7
370
     0
100
AcDbLine
 10
173.6271915795
 20
119.8916730355
 30
0.0
 11
172.9570813465
 21
120.0712285313
 31
0.0
  0
LINE
  5
18C
330
1F
100
AcDbEntity
  8
0
  6
HIDDEN
 62
     7
370
     0
100
AcDbLine
 10
150.5771915795
 20
101.8916730355
 30
0.0
 11
151.0771915795
 21
102.3916730355
 31
0.0
  0
LINE
  5
18D
330
1F
100
AcDbEntity
  8
0
  6
HIDDEN
 62
     7
370
     0
100
AcDbLine
 10
151.0771915795
 20
119.3916730355
 30
0.0
 11
150.5771915795
 21
119.8916730355
 31
0.0
  0
LINE
  5
18E
330
1F
100
AcDbEntity
  8
0
  6
HIDDEN
 62
     7
370
     0
100
AcDbLine
 10
173.6271915795
 20
101.8916730355
 30
0.0
 11
186.4771915795
 21
101.8916730355
 31
0.0
  0
LINE
  5
18F
330
1F
100
AcDbEntity
  8
0
  6
HIDDEN
 62
     7
370
     0
100
AcDbLine
 10
186.4771915795
 20
119.8916730355
 30
0.0
 11
173.6271915795
 21
119.8916730355
 31
0.0
  0
LINE
  5
190
330
1F
100
AcDbEntity
  8
0
  6
HIDDEN
 62
     7
370
     0
100
AcDbLine
 10
151.0771915795
 20
102.3916730355
 30
0.0
 11
159.4271915795
 21
102.3916730355
 31
0.0
  0
LINE
  5
191
330
1F
100
AcDbEntity
  8
0
  6
HIDDEN
 62
     7
370
     0
100
AcDbLine
 10
159.4271915795
 20
119.3916730355
 30
0.0
 11
151.0771915795
 21
119.3916730355
 31
0.0
  0
LINE
  5
192
330
1F
100
AcDbEntity
  8
0
  6
HIDDEN
 62
     7
370
     0
100
AcDbLine
 10
145.5771915795
 20
142.3916730355
 30
0.0
 11
145.5771915795
 21
137.2916730355
 31
0.0
  0
LINE
  5
193
330
1F
100
AcDbEntity
  8
0
  6
HIDDEN
 62
     7
370
     0
100
AcDbLine
 10
190.1771915795
 20
123.0666730355
 30
0.0
 11
187.2771915795
 21
123.0666730355
 31
0.0
  0
LINE
  5
194
330
1F
100
AcDbEntity
  8
0
  6
HIDDEN
 62
     7
370
     0
100
AcDbLine
 10
187.2771915795
 20
98.7166730355
 30
0.0
 11
190.1771915795
 21
98.7166730355
 31
0.0
  0
LINE
  5
195
330
1F
100
AcDbEntity
  8
0
  6
HIDDEN
 62
     7
370
     0
100
AcDbLine
 10
135.8116294099
 20
86.8123017019
 30
0.0
 11
135.3771972605
 21
87.291367721
 31
0.0
  0
LINE
  5
196
330
1F
100
AcDbEntity
  8
0
  6
HIDDEN
 62
     7
370
     0
100
AcDbLine
 10
127.8771939354
 20
87.7130556802
 30
0.0
 11
127.394760192
 21
87.2339897047
 31
0.0
  0
LINE
  5
197
330
1F
100
AcDbEntity
  8
0
  6
HIDDEN
 62
     7
370
     0
100
AcDbLine
 10
127.3946382638
 20
134.5493510758
 30
0.0
 11
127.8771890148
 21
134.0702308179
 31
0.0
  0
LINE
  5
198
330
1F
100
AcDbEntity
  8
0
  6
HIDDEN
 62
     7
370
     0
100
AcDbLine
 10
135.3771914615
 20
134.4919285956
 30
0.0
 11
135.8117338518
 21
134.9710488461
 31
0.0
  0
LINE
  5
199
330
1F
100
AcDbEntity
  8
0
  6
HIDDEN
 62
     7
370
     0
100
AcDbLine
 10
162.4271915795
 20
106.6916730355
 30
0.0
 11
171.6271915795
 21
106.6916730355
 31
0.0
  0
LINE
  5
19A
330
1F
100
AcDbEntity
  8
0
  6
HIDDEN
 62
     7
370
     0
100
AcDbLine
 10
171.6271915795
 20
115.0916730355
 30
0.0
 11
162.4271915795
 21
115.0916730355
 31
0.0
  0
LINE
  5
19B
330
1F
100
AcDbEntity
  8
0
  6
HIDDEN
 62
     7
370
     0
100
AcDbLine
 10
135.3771915795
 20
87.2916226871
 30
0.0
 11
135.3771915795
 21
90.9562726972
 31
0.0
  0
LINE
  5
19C
330
1F
100
AcDbEntity
  8
0
  6
HIDDEN
 62
     7
370
     0
100
AcDbLine
 10
127.8771915795
 20
90.8960508035
 30
0.0
 11
127.8771915795
 21
87.7132371053
 31
0.0
  0
LINE
  5
19D
330
1F
100
AcDbEntity
  8
0
  6
HIDDEN
 62
     7
370
     0
100
AcDbLine
 10
135.3771915795
 20
130.8270733737
 30
0.0
 11
135.3771915795
 21
134.4916372895
 31
0.0
  0
LINE
  5
19E
330
1F
100
AcDbEntity
  8
0
  6
HIDDEN
 62
     7
370
     0
100
AcDbLine
 10
127.8771915795
 20
134.0700870387
 30
0.0
 11
127.8771915795
 21
130.8872952674
 31
0.0
  0
LINE
  5
19F
330
1F
100
AcDbEntity
  8
0
  6
HIDDEN
 62
     7
370
     0
100
AcDbLine
 10
190.174498049
 20
121.6916730355
 30
0.0
 11
190.1743700193
 21
121.6916730355
 31
0.0
  0
DIMENSION
  5
1A0
330
1F
100
AcDbEntity
  8
VERMASSUNG
100
AcDbDimension
  2
_D
 10
103.1489109738
 20
79.3916730355
 30
0.0
 11
103.1489109738
 21
110.2242492924
 31
0.0
 70
   160
  1
HSK A %%c<>
 71
     2
 42
-1.0
  3
SLDDIMSTYLE0
100
AcDbAlignedDimension
 13
140.9271915795
 23
142.3916730355
 33
0.0
 14
140.9271915795
 24
79.3916730355
 34
0.0
 50
90.0
100
AcDbRotatedDimension
  0
DIMENSION
  5
1AD
330
1F
100
AcDbEntity
  8
VERMASSUNG
100
AcDbDimension
  2
_D_1
 10
140.6271915795
 20
152.3444241882
 30
0.0
 11
165.6271915795
 21
152.3444241882
 31
0.0
 70
   160
  1
<>
 71
     2
 42
-1.0
  3
SLDDIMSTYLE0
100
AcDbAlignedDimension
 13
190.6271915795
 23
126.5916730355
 33
0.0
 14
140.6271915795
 24
142.0916730355
 34
0.0
100
AcDbRotatedDimension
  0
DIMENSION
  5
1B7
330
1F
100
AcDbEntity
  8
VERMASSUNG
100
AcDbDimension
  2
_D_2
 10
166.5771915795
 20
146.3444241882
 30
0.0
 11
178.6021915795
 21
146.3444241882
 31
0.0
 70
   160
  1
<>
 71
     2
 42
-1.0
  3
SLDDIMSTYLE0
100
AcDbAlignedDimension
 13
190.6271915795
 23
126.5916730355
 33
0.0
 14
166.5771915795
 24
140.7381133592
 34
0.0
100
AcDbRotatedDimension
  0
DIMENSION
  5
1C1
330
1F
100
AcDbEntity
  8
VERMASSUNG
100
AcDbDimension
  2
_D_3
 10
108.7271915795
 20
158.3444241882
 30
0.0
 11
149.6771915795
 21
158.3444241882
 31
0.0
 70
   160
  1
<>
 71
     2
 42
-1.0
  3
SLDDIMSTYLE0
100
AcDbAlignedDimension
 13
190.6271915795
 23
126.5916730355
 33
0.0
 14
108.7271915795
 24
130.582350782
 34
0.0
100
AcDbRotatedDimension
  0
DIMENSION
  5
1CB
330
1F
100
AcDbEntity
  8
VERMASSUNG
100
AcDbDimension
  2
_D_4
 10
198.5714557989
 20
94.8916730355
 30
0.0
 11
198.5714557989
 21
110.8916730355
 31
0.0
 70
   160
  1
MBM %%c<>
 71
     2
 42
-1.0
  3
SLDDIMSTYLE0
100
AcDbAlignedDimension
 13
190.3271915795
 23
126.8916730355
 33
0.0
 14
190.3271915795
 24
94.8916730355
 34
0.0
 50
90.0
100
AcDbRotatedDimension
  0
INSERT
  5
1DC
330
1F
100
AcDbEntity
  8
VERMASSUNG
100
AcDbBlockReference
  2
SW_NOTE_0
 10
142.8501469148
 20
69.0711914474
 30
0.0
  0
LEADER
  5
1E6
330
1F
100
AcDbEntity
  8
VERMASSUNG
100
AcDbLeader
  3
SLDDIMSTYLE1
 76
     2
 10
144.2010008882
 20
86.3996565066
 30
0.0
 10
142.8501469148
 20
69.0711914474
 30
0.0
  0
INSERT
  5
1EC
330
1F
100
AcDbEntity
  8
VERMASSUNG
100
AcDbBlockReference
  2
SW_NOTE_1
 10
180.264446621
 20
87.4845117217
 30
0.0
  0
LEADER
  5
1ED
330
1F
100
AcDbEntity
  8
VERMASSUNG
100
AcDbLeader
  3
SLDDIMSTYLE1
 76
     2
 10
181.7434159153
 20
108.8916730355
 30
0.0
 10
180.264446621
 20
87.4845117217
 30
0.0
  0
LINE
  5
1EE
330
1F
100
AcDbEntity
  8
VERMASSUNG
  6
CENTERX2
 62
     7
370
     0
100
AcDbLine
 10
153.5771915795
 20
148.1535360153
 30
0.0
 11
153.5771915795
 21
132.8679470759
 31
0.0
  0
LINE
  5
1EF
330
1F
100
AcDbEntity
  8
VERMASSUNG
  6
CENTERX2
 62
     7
370
     0
100
AcDbLine
 10
153.5771915795
 20
74.7870638262
 30
0.0
 11
153.5771915795
 21
86.6008914541
 31
0.0
  0
LINE
  5
1F0
330
1F
100
AcDbEntity
  8
VERMASSUNG
  6
CENTERX2
 62
     7
370
     0
100
AcDbLine
 10
152.8228119252
 20
137.2479883216
 30
0.0
 11
152.8228119252
 21
126.6420769568
 31
0.0
  0
LINE
  5
1F1
330
1F
100
AcDbEntity
  8
VERMASSUNG
  6
CENTERX2
 62
     7
370
     0
100
AcDbLine
 10
106.5818877371
 20
110.8916730355
 30
0.0
 11
192.3271915795
 21
110.8916730355
 31
0.0
  0
LINE
  5
1F2
330
1F
100
AcDbEntity
  8
0
  6
Continuous
 62
     7
370
    15
100
AcDbLine
 10
269.2227824517
 20
61.4400460054
 30
0.0
 11
269.0459770323
 21
61.5421467792
 31
0.0
  0
LINE
  5
1F3
330
1F
100
AcDbEntity
  8
0
  6
Continuous
 62
     7
370
    15
100
AcDbLine
 10
266.5707011596
 20
61.5421467792
 30
0.0
 11
266.3938957401
 21
61.4400460054
 31
0.0
  0
LINE
  5
1F4
330
1F
100
AcDbEntity
  8
0
  6
Continuous
 62
     7
370
    15
100
AcDbLine
 10
269.8083390959
 20
60.3175677676
 30
0.0
 11
269.8083390959
 21
60.6237705721
 31
0.0
  0
LINE
  5
1F5
330
1F
100
AcDbEntity
  8
0
  6
Continuous
 62
     7
370
    15
100
AcDbLine
 10
265.8083390959
 20
60.6237705721
 30
0.0
 11
265.8083390959
 21
60.3175677676
 31
0.0
  0
LINE
  5
1F6
330
1F
100
AcDbEntity
  8
0
  6
Continuous
 62
     7
370
    15
100
AcDbLine
 10
270.9912390092
 20
45.9268653767
 30
0.0
 11
271.0972877876
 21
45.9881059368
 31
0.0
  0
LINE
  5
1F7
330
1F
100
AcDbEntity
  8
0
  6
Continuous
 62
     7
370
    15
100
AcDbLine
 10
276.6471738607
 20
55.6018322589
 30
0.0
 11
276.6471738607
 21
55.7242934757
 31
0.0
  0
LINE
  5
1F8
330
1F
100
AcDbEntity
  8
0
  6
Continuous
 62
     7
370
    15
100
AcDbLine
 10
260.0079652165
 20
49.5612851814
 30
0.0
 11
266.9906446807
 21
45.5302701293
 31
0.0
  0
LINE
  5
1F9
330
1F
100
AcDbEntity
  8
0
  6
Continuous
 62
     7
370
    15
100
AcDbLine
 10
274.9899945418
 20
59.3870519274
 30
0.0
 11
268.0073150776
 21
63.4180669795
 31
0.0
  0
LINE
  5
1FA
330
1F
100
AcDbEntity
  8
0
  6
Continuous
 62
     7
370
    15
100
AcDbLine
 10
245.6504220964
 20
48.9010316269
 30
0.0
 11
250.7090877567
 21
45.9807261017
 31
0.0
  0
LINE
  5
1FB
330
1F
100
AcDbEntity
  8
0
  6
Continuous
 62
     7
370
    15
100
AcDbLine
 10
263.5924426402
 20
74.9154053616
 30
0.0
 11
261.3991421354
 21
76.1815707919
 31
0.0
  0
SPLINE
  5
1FC
330
1F
100
AcDbEntity
  8
0
  6
Continuous
 62
     7
370
    15
100
AcDbSpline
210
0.0
220
0.0
230
1.0
 70
     8
 71
     3
 72
    12
 73
     8
 74
     0
 42
0.000000001
 43
0.00000001
 40
0.0
 40
0.0
 40
0.0
 40
0.0
 40
0.0595697308867755
 40
0.3012144638159295
 40
0.5429085261523838
 40
0.784654803646521
 40
1.0
 40
1.0
 40
1.0
 40
1.0
 10
242.8753076062105
 20
60.38198280564091
 30
0.0
 10
242.8529579792419
 20
60.29476287922855
 30
0.0
 10
242.7399470456083
 20
59.85373514622942
 30
0.0
 10
242.5945362318158
 20
59.0707681641661
 30
0.0
 10
242.4442517427474
 20
58.04154116475269
 30
0.0
 10
242.3590098214972
 20
57.07206688958128
 30
0.0
 10
242.3487499608425
 20
56.46113875093576
 30
0.0
 10
242.3439163294281
 20
56.17331793715627
 30
0.0
  0
SPLINE
  5
1FD
330
1F
100
AcDbEntity
  8
0
  6
Continuous
 62
     7
370
    15
100
AcDbSpline
210
0.0
220
0.0
230
1.0
 70
     8
 71
     3
 72
    14
 73
    10
 74
     0
 42
0.000000001
 43
0.00000001
 40
0.0
 40
0.0
 40
0.0
 40
0.0
 40
0.0761812431955168
 40
0.2312367739064201
 40
0.3863324057978173
 40
0.5414356259054085
 40
0.6965259699999499
 40
0.8515949412762447
 40
1.0
 40
1.0
 40
1.0
 40
1.0
 10
255.3844437629333
 20
76.3217819376972
 30
0.0
 10
255.2502571949034
 20
76.27341164924957
 30
0.0
 10
254.8429539298045
 20
76.12659087048061
 30
0.0
 10
254.1533701194078
 20
75.79936523707154
 30
0.0
 10
253.3218107010438
 20
75.34702678605082
 30
0.0
 10
252.4909804448409
 20
74.82006268351769
 30
0.0
 10
251.666639466425
 20
74.22509358576451
 30
0.0
 10
250.8628735456719
 20
73.57923750368039
 30
0.0
 10
250.3439838531422
 20
73.1020793798805
 30
0.0
 10
250.0902360932729
 20
72.86873921768266
 30
0.0
  0
SPLINE
  5
1FE
330
1F
100
AcDbEntity
  8
0
  6
Continuous
 62
     7
370
    15
100
AcDbSpline
210
0.0
220
0.0
230
1.0
 70
     8
 71
     3
 72
    10
 73
     6
 74
     0
 42
0.000000001
 43
0.00000001
 40
0.0
 40
0.0
 40
0.0
 40
0.0
 40
0.2100748270651765
 40
0.6091968420356066
 40
1.0
 40
1.0
 40
1.0
 40
1.0
 10
242.3439163294281
 20
56.17331793715627
 30
0.0
 10
242.3457358322995
 20
56.0058745024788
 30
0.0
 10
242.3510122160473
 20
55.52030460793134
 30
0.0
 10
242.403022308594
 20
54.74843094848212
 30
0.0
 10
242.4940960876606
 20
54.17447483595207
 30
0.0
 10
242.5391534192742
 20
53.89051900191231
 30
0.0
  0
SPLINE
  5
1FF
330
1F
100
AcDbEntity
  8
0
  6
Continuous
 62
     7
370
    15
100
AcDbSpline
210
0.0
220
0.0
230
1.0
 70
     8
 71
     3
 72
    19
 73
    15
 74
     0
 42
0.000000001
 43
0.00000001
 40
0.0
 40
0.0
 40
0.0
 40
0.0
 40
0.0264662192094845
 40
0.1198000427849608
 40
0.2134813718746282
 40
0.3074833014715405
 40
0.4017430620854052
 40
0.4961861459773225
 40
0.5907434942377893
 40
0.6853599312691512
 40
0.7799942415045557
 40
0.8746164227139024
 40
0.9692143785752249
 40
1.0
 40
1.0
 40
1.0
 40
1.0
 10
256.7122771254221
 20
43.07804278554005
 30
0.0
 10
256.7796290032363
 20
43.06761358204027
 30
0.0
 10
257.0844990634414
 20
43.02040551595434
 30
0.0
 10
257.6568436034646
 20
43.01671697633874
 30
0.0
 10
258.4256085728939
 20
43.06922707499376
 30
0.0
 10
259.2189067452383
 20
43.20772774327857
 30
0.0
 10
260.0293719136674
 20
43.42388701536892
 30
0.0
 10
260.8530764801865
 20
43.71864708725918
 30
0.0
 10
261.6850606482706
 20
44.08962480634863
 30
0.0
 10
262.5204976874801
 20
44.53513649282531
 30
0.0
 10
263.3550365777313
 20
45.05103484054425
 30
0.0
 10
264.1825666850393
 20
45.63965632546936
 30
0.0
 10
264.8194159896061
 20
46.13417109763919
 30
0.0
 10
265.1733554951311
 20
46.45132849338763
 30
0.0
 10
265.260258803046
 20
46.52920063365445
 30
0.0
  0
LINE
  5
200
330
1F
100
AcDbEntity
  8
0
  6
Continuous
 62
     7
370
    15
100
AcDbLine
 10
253.1075464632
 20
44.5961253625
 30
0.0
 11
254.5069345308
 21
43.7882758266
 31
0.0
  0
LINE
  5
201
330
1F
100
AcDbEntity
  8
0
  6
Continuous
 62
     7
370
    15
100
AcDbLine
 10
254.1698077841
 20
75.7973195877
 30
0.0
 11
248.0324658887
 21
78.8551125925
 31
0.0
  0
LINE
  5
202
330
1F
100
AcDbEntity
  8
0
  6
Continuous
 62
     7
370
    15
100
AcDbLine
 10
236.6507680756
 20
59.1392974541
 30
0.0
 11
242.3748943156
 21
55.3490188019
 31
0.0
  0
SPLINE
  5
203
330
1F
100
AcDbEntity
  8
0
  6
Continuous
 62
     7
370
    15
100
AcDbSpline
210
0.0
220
0.0
230
1.0
 70
     8
 71
     3
 72
    10
 73
     6
 74
     0
 42
0.000000001
 43
0.00000001
 40
0.0
 40
0.0
 40
0.0
 40
0.0
 40
0.0494404820606454
 40
0.8153734188331337
 40
0.9999999999999999
 40
0.9999999999999999
 40
0.9999999999999999
 40
0.9999999999999999
 10
271.7091206912095
 20
69.8535841718166
 30
0.0
 10
271.6995978080348
 20
69.86594649563068
 30
0.0
 10
271.5425462282817
 20
70.0698261871884
 30
0.0
 10
271.3192449687537
 20
70.28216270973161
 30
0.0
 10
271.0972462193993
 20
70.46796187711101
 30
0.0
 10
271.0541275410387
 20
70.50404953328564
 30
0.0
  0
SPLINE
  5
204
330
1F
100
AcDbEntity
  8
0
  6
Continuous
 62
     7
370
    15
100
AcDbSpline
210
0.0
220
0.0
230
1.0
 70
     8
 71
     3
 72
    12
 73
     8
 74
     0
 42
0.000000001
 43
0.00000001
 40
0.0
 40
0.0
 40
0.0
 40
0.0
 40
0.1187811644102336
 40
0.3433855547955867
 40
0.5677004106479668
 40
0.7914075978788058
 40
1.0
 40
1.0
 40
1.0
 40
1.0
 10
273.2456518330238
 20
66.77948024239791
 30
0.0
 10
273.206645824512
 20
66.92222687322963
 30
0.0
 10
273.0938829976806
 20
67.33489441413755
 30
0.0
 10
272.8608438619488
 20
67.97730780764105
 30
0.0
 10
272.5267218999128
 20
68.68214376573866
 30
0.0
 10
272.1471638443747
 20
69.31533566897684
 30
0.0
 10
271.8516914750033
 20
69.67839935184813
 30
0.0
 10
271.7091206912095
 20
69.8535841718166
 30
0.0
  0
SPLINE
  5
205
330
1F
100
AcDbEntity
  8
0
  6
Continuous
 62
     7
370
    15
100
AcDbSpline
210
0.0
220
0.0
230
1.0
 70
     8
 71
     3
 72
    28
 73
    24
 74
     0
 42
0.000000001
 43
0.00000001
 40
0.0
 40
0.0
 40
0.0
 40
0.0
 40
0.0187004872112615
 40
0.0658884131939052
 40
0.1132631245202154
 40
0.1610346012859739
 40
0.2093095267312589
 40
0.2580833715511407
 40
0.3072681143617735
 40
0.3567383239769439
 40
0.4063724439250007
 40
0.4560756959074636
 40
0.5057741617919417
 40
0.5554363060507846
 40
0.6050507572844115
 40
0.6546166921977238
 40
0.7041394488338065
 40
0.7536277667311151
 40
0.8030921715917706
 40
0.85254409284434
 40
0.901995418440293
 40
0.9514559237314452
 40
1.0
 40
1.0
 40
1.0
 40
1.0
 10
247.9183449873248
 20
78.89840706967354
 30
0.0
 10
247.8469761132242
 20
78.93431578181384
 30
0.0
 10
247.5955183938181
 20
79.06083484177378
 30
0.0
 10
247.1232559020264
 20
79.19690004056581
 30
0.0
 10
246.5088983248179
 20
79.30617805950445
 30
0.0
 10
245.8629819603768
 20
79.33089478246703
 30
0.0
 10
245.1923231255744
 20
79.27667714609865
 30
0.0
 10
244.5004586468391
 20
79.14153528080553
 30
0.0
 10
243.792914376774
 20
78.92637706352927
 30
0.0
 10
243.0755293438357
 20
78.63255572905237
 30
0.0
 10
242.3544358979638
 20
78.26260732056365
 30
0.0
 10
241.6356843285527
 20
77.8198972679362
 30
0.0
 10
240.9250344583345
 20
77.30843172389227
 30
0.0
 10
240.227912178163
 20
76.7326620417045
 30
0.0
 10
239.5494061219141
 20
76.09733679554975
 30
0.0
 10
238.8943858119768
 20
75.40751371142618
 30
0.0
 10
238.2675441243268
 20
74.66855247399116
 30
0.0
 10
237.6733501789465
 20
73.88610101674026
 30
0.0
 10
237.1161934776644
 20
73.06605720902779
 30
0.0
 10
236.5997593973914
 20
72.21459291202788
 30
0.0
 10
236.1292511989362
 20
71.33792436420364
 30
0.0
 10
235.7056849208009
 20
70.44867968578882
 30
0.0
 10
235.4680265759798
 20
69.84913536761734
 30
0.0
 10
235.3503085608294
 20
69.55216634183802
 30
0.0
  0
LINE
  5
206
330
1F
100
AcDbEntity
  8
0
  6
Continuous
 62
     7
370
    15
100
AcDbLine
 10
235.4665823537
 20
67.695437547
 30
0.0
 11
238.0201422524
 21
66.2212987955
 31
0.0
  0
LINE
  5
207
330
1F
100
AcDbEntity
  8
0
  6
Continuous
 62
     7
370
    15
100
AcDbLine
 10
235.1682900763
 20
68.8237472643
 30
0.0
 11
235.1682900763
 21
68.3583411806
 31
0.0
  0
LINE
  5
208
330
1F
100
AcDbEntity
  8
0
  6
Continuous
 62
     7
370
    15
100
AcDbLine
 10
235.1682900763
 20
61.3523988356
 30
0.0
 11
235.1682900763
 21
60.8869927518
 31
0.0
  0
SPLINE
  5
209
330
1F
100
AcDbEntity
  8
0
  6
Continuous
 62
     7
370
    15
100
AcDbSpline
210
0.0
220
0.0
230
1.0
 70
     8
 71
     3
 72
    11
 73
     7
 74
     0
 42
0.000000001
 43
0.00000001
 40
0.0
 40
0.0
 40
0.0
 40
0.0
 40
0.2143122309256804
 40
0.5473394050623328
 40
0.8765306730675072
 40
0.9999999999999999
 40
0.9999999999999999
 40
0.9999999999999999
 40
0.9999999999999999
 10
235.284295644743
 20
60.5995639977567
 30
0.0
 10
235.3569156397263
 20
60.47838034286178
 30
0.0
 10
235.5423823519066
 20
60.16888522311536
 30
0.0
 10
235.9100747763552
 20
59.74804512151177
 30
0.0
 10
236.2670862608539
 20
59.40312547366913
 30
0.0
 10
236.5034541633907
 20
59.24995785165695
 30
0.0
 10
236.5679267200061
 20
59.20817930187994
 30
0.0
  0
LWPOLYLINE
  5
20A
330
1F
100
AcDbEntity
  8
0
  6
Continuous
 62
     7
370
    15
100
AcDbPolyline
 90
       27
 70
   128
 43
0.0
 10
266.5709022288
 20
60.1135486772
 10
266.3107218694
 20
60.3052634396
 10
266.1375775795
 20
60.5273522748
 10
266.061531876
 20
60.7669081869
 10
266.0870042587
 20
61.0100090572
 10
266.2125143654
 20
61.2425267466
 10
266.4307680048
 20
61.4509481723
 10
266.7290810688
 20
61.6231606384
 10
267.0901166864
 20
61.7491557826
 10
267.4928927797
 20
61.8216112249
 10
267.9140014664
 20
61.8363161185
 10
268.3289694402
 20
61.7924158683
 10
268.7136802707
 20
61.6924617973
 10
269.045775963
 20
61.5422628729
 10
269.3059563224
 20
61.3505481105
 10
269.4791006123
 20
61.1284592753
 10
269.5551463158
 20
60.8889033632
 10
269.5296739331
 20
60.6458024929
 10
269.4041638264
 20
60.4132848035
 10
269.185910187
 20
60.2048633778
 10
268.887597123
 20
60.0326509117
 10
268.5265615054
 20
59.9066557675
 10
268.1237854121
 20
59.8342003252
 10
267.7026767254
 20
59.8194954316
 10
267.2877087517
 20
59.8633956818
 10
266.9029979211
 20
59.9633497528
 10
266.5709022288
 20
60.1135486772
  0
LWPOLYLINE
  5
20B
330
1F
100
AcDbEntity
  8
0
  6
Continuous
 62
     7
370
    15
100
AcDbPolyline
 90
        8
 70
   128
 43
0.0
 10
266.3941255335
 20
59.8073624603
 10
266.1148906974
 20
60.0094994117
 10
265.9205724353
 20
60.242438484
 10
265.8209146761
 20
60.4944991396
 10
265.8209146761
 20
60.7530420046
 10
265.9205724353
 20
61.0051026601
 10
266.1148906974
 20
61.2380417325
 10
266.3938957401
 20
61.4400460054
  0
LWPOLYLINE
  5
20C
330
1F
100
AcDbEntity
  8
0
  6
Continuous
 62
     7
370
    15
100
AcDbPolyline
 90
       15
 70
   128
 43
0.0
 10
269.2227824517
 20
61.4400460054
 10
269.5017874944
 20
61.2380417325
 10
269.6961057565
 20
61.0051026601
 10
269.7957635157
 20
60.7530420046
 10
269.7957635157
 20
60.4944991396
 10
269.6961057565
 20
60.242438484
 10
269.5017874944
 20
60.0094994117
 10
269.2225526583
 20
59.8073624603
 10
268.8724032489
 20
59.6461636206
 10
268.4688972198
 20
59.5339860756
 10
268.0322680481
 20
59.4764548758
 10
267.5844101437
 20
59.4764548758
 10
267.147780972
 20
59.5339860756
 10
266.7442749429
 20
59.6461636206
 10
266.3941255335
 20
59.8073624603
  0
LWPOLYLINE
  5
20D
330
1F
100
AcDbEntity
  8
0
  6
Continuous
 62
     7
370
    15
100
AcDbPolyline
 90
       22
 70
   128
 43
0.0
 10
266.977488628
 20
60.3482660094
 10
266.7695035085
 20
60.5109513612
 10
266.6538234899
 20
60.7017995036
 10
266.6407272493
 20
60.9038527416
 10
266.7313784453
 20
61.0991577584
 10
266.9177223212
 20
61.2703608461
 10
267.183201406
 20
61.402249859
 10
267.5042267179
 20
61.4831058797
 10
267.8522737492
 20
61.5057444957
 10
268.1964169937
 20
61.4681541667
 10
268.506077814
 20
61.3736749585
 10
268.7537414871
 20
61.2307017632
 10
268.917402009
 20
61.0519383768
 10
268.982517424
 20
60.8532687105
 10
268.9433019418
 20
60.6523454361
 10
268.80324003
 20
60.4670214683
 10
268.5747768042
 20
60.3137636548
 10
268.2782122245
 20
60.206189625
 10
267.9398973553
 20
60.1538578035
 10
267.5898929575
 20
60.1614181023
 10
267.2592984577
 20
60.2281987556
 10
266.977488628
 20
60.3482660094
  0
SPLINE
  5
20E
330
1F
100
AcDbEntity
  8
0
  6
Continuous
 62
     7
370
    15
100
AcDbSpline
210
0.0
220
0.0
230
1.0
 70
     8
 71
     3
 72
     9
 73
     5
 74
     0
 42
0.000000001
 43
0.00000001
 40
0.0
 40
0.0
 40
0.0
 40
0.0
 40
0.6308787452298976
 40
1.0
 40
1.0
 40
1.0
 40
1.0
 10
267.1013518231458
 20
60.27992345792257
 30
0.0
 10
267.0114105494017
 20
60.34180295365771
 30
0.0
 10
266.8688454773903
 20
60.43988756374009
 30
0.0
 10
266.7403970638392
 20
60.58517457714201
 30
0.0
 10
266.6929840242561
 20
60.63880310183073
 30
0.0
  0
SPLINE
  5
20F
330
1F
100
AcDbEntity
  8
0
  6
Continuous
 62
     7
370
    15
100
AcDbSpline
210
0.0
220
0.0
230
1.0
 70
     8
 71
     3
 72
    11
 73
     7
 74
     0
 42
0.000000001
 43
0.00000001
 40
0.0
 40
0.0
 40
0.0
 40
0.0
 40
0.2164526859271178
 40
0.4403055508633989
 40
0.7518960204221907
 40
1.0
 40
1.0
 40
1.0
 40
1.0
 10
268.9236941675568
 20
60.983857770524
 30
0.0
 10
268.9032223309168
 20
60.91017760922053
 30
0.0
 10
268.8615787575403
 20
60.76029827706316
 30
0.0
 10
268.784298962498
 20
60.543656962243
 30
0.0
 10
268.7014015144472
 20
60.39528823662581
 30
0.0
 10
268.6483518020657
 20
60.35696506724969
 30
0.0
 10
268.6248356768342
 20
60.33997699304793
 30
0.0
  0
SPLINE
  5
210
330
1F
100
AcDbEntity
  8
0
  6
Continuous
 62
     7
370
    15
100
AcDbSpline
210
0.0
220
0.0
230
1.0
 70
     8
 71
     3
 72
    11
 73
     7
 74
     0
 42
0.000000001
 43
0.00000001
 40
0.0
 40
0.0
 40
0.0
 40
0.0
 40
0.1845133558519151
 40
0.5180565039163911
 40
0.8676122830485041
 40
1.0
 40
1.0
 40
1.0
 40
1.0
 10
268.1071975866291
 20
61.45521121365343
 30
0.0
 10
268.1546156798665
 20
61.40241399326353
 30
0.0
 10
268.2877510374211
 20
61.25417570836859
 30
0.0
 10
268.5359117749984
 20
61.05789740948131
 30
0.0
 10
268.7665021629251
 20
60.98869675370041
 30
0.0
 10
268.8898194592975
 20
60.98490056620408
 30
0.0
 10
268.9236941675568
 20
60.983857770524
 30
0.0
  0
SPLINE
  5
211
330
1F
100
AcDbEntity
  8
0
  6
Continuous
 62
     7
370
    15
100
AcDbSpline
210
0.0
220
0.0
230
1.0
 70
     8
 71
     3
 72
    11
 73
     7
 74
     0
 42
0.000000001
 43
0.00000001
 40
0.0
 40
0.0
 40
0.0
 40
0.0
 40
0.2164526859271194
 40
0.4403055508634033
 40
0.7518960204221927
 40
1.0
 40
1.0
 40
1.0
 40
1.0
 10
266.9918425149787
 20
61.2826838793068
 30
0.0
 10
267.0682444494436
 20
61.26492775568556
 30
0.0
 10
267.2236603810939
 20
61.22880845432987
 30
0.0
 10
267.5120725025897
 20
61.22327658933615
 30
0.0
 10
267.8214499905335
 20
61.30136336402781
 30
0.0
 10
268.0194342124679
 20
61.40795900024872
 30
0.0
 10
268.1071975866291
 20
61.45521121365343
 30
0.0
  0
SPLINE
  5
212
330
1F
100
AcDbEntity
  8
0
  6
Continuous
 62
     7
370
    15
100
AcDbSpline
210
0.0
220
0.0
230
1.0
 70
     8
 71
     3
 72
    11
 73
     7
 74
     0
 42
0.000000001
 43
0.00000001
 40
0.0
 40
0.0
 40
0.0
 40
0.0
 40
0.2164526859271175
 40
0.4403055508633986
 40
0.7518960204221936
 40
1.0
 40
1.0
 40
1.0
 40
1.0
 10
266.6929840242561
 20
60.63880310183073
 30
0.0
 10
266.7134558608961
 20
60.65333473641948
 30
0.0
 10
266.7550994342727
 20
60.68289481947016
 30
0.0
 10
266.8323792293149
 20
60.79924705216222
 30
0.0
 10
266.9152766773657
 20
61.00807797091666
 30
0.0
 10
266.9683263897472
 20
61.19834251855966
 30
0.0
 10
266.9918425149787
 20
61.2826838793068
 30
0.0
  0
LINE
  5
213
330
1F
100
AcDbEntity
  8
0
  6
Continuous
 62
     7
370
    15
100
AcDbLine
 10
266.991842515
 20
60.3646548704
 30
0.0
 11
266.991842515
 21
61.2826838793
 31
0.0
  0
LINE
  5
214
330
1F
100
AcDbEntity
  8
0
  6
Continuous
 62
     7
370
    15
100
AcDbLine
 10
268.1071975866
 20
60.1719004941
 30
0.0
 11
268.1071975866
 21
61.4552112137
 31
0.0
  0
SPLINE
  5
215
330
1F
100
AcDbEntity
  8
0
  6
Continuous
 62
     7
370
    15
100
AcDbSpline
210
0.0
220
0.0
230
1.0
 70
     8
 71
     3
 72
    10
 73
     6
 74
     0
 42
0.000000001
 43
0.00000001
 40
0.0
 40
0.0
 40
0.0
 40
0.0
 40
0.5
 40
0.5
 40
1.0
 40
1.0
 40
1.0
 40
1.0
 10
252.1422902827983
 20
54.94720528140277
 30
0.0
 10
252.0857615970158
 20
54.91457196572015
 30
0.0
 10
252.0071182744411
 20
54.89419899026118
 30
0.0
 10
251.8468883601099
 20
54.89113759029983
 30
0.0
 10
251.7657213475692
 20
54.90879679018007
 30
0.0
 10
251.7086074472314
 20
54.94176794303439
 30
0.0
  0
SPLINE
  5
216
330
1F
100
AcDbEntity
  8
0
  6
Continuous
 62
     7
370
    15
100
AcDbSpline
210
0.0
220
0.0
230
1.0
 70
     8
 71
     3
 72
    12
 73
     8
 74
     0
 42
0.000000001
 43
0.00000001
 40
0.0
 40
0.0
 40
0.0
 40
0.0
 40
0.2500000000000033
 40
0.2500000000000033
 40
0.5000000000000067
 40
0.5000000000000067
 40
1.0
 40
1.0
 40
1.0
 40
1.0
 10
269.3993293535762
 20
71.46572982128949
 30
0.0
 10
269.431233681921
 20
71.44731184457373
 30
0.0
 10
269.4633710183618
 20
71.41739730394167
 30
0.0
 10
269.518029324788
 20
71.34699988399876
 30
0.0
 10
269.5410026641184
 20
71.30661918732292
 30
0.0
 10
269.5946844530561
 20
71.18409535728755
 30
0.0
 10
269.6114613879322
 20
71.09929403568188
 30
0.0
 10
269.6114613879322
 20
71.02574144004826
 30
0.0
  0
LINE
  5
217
330
1F
100
AcDbEntity
  8
0
  6
Continuous
 62
     7
370
    15
100
AcDbLine
 10
251.7086074472
 20
54.941767943
 30
0.0
 11
250.3092193796
 21
55.7496174789
 31
0.0
  0
LWPOLYLINE
  5
218
330
1F
100
AcDbEntity
  8
0
  6
Continuous
 62
     7
370
    15
100
AcDbPolyline
 90
       26
 70
   128
 43
0.0
 10
250.3092193796
 20
55.7496174789
 10
250.5916638595
 20
56.8679727377
 10
250.9381224424
 20
57.9947588219
 10
251.3464606032
 20
59.1230336219
 10
251.8141625775
 20
60.2458458566
 10
252.3383468616
 20
61.3562778993
 10
252.9157839654
 20
62.4474883978
 10
253.5429163089
 20
63.5127544231
 10
254.2158801408
 20
64.54551289
 10
254.9305293427
 20
65.5394009915
 10
255.6824609732
 20
66.4882954005
 10
256.4670423949
 20
67.3863499952
 10
257.2794398152
 20
68.2280318768
 10
258.1146480679
 20
69.0081554581
 10
258.9675214496
 20
69.7219144112
 10
259.8328054222
 20
70.3649112797
 10
260.7051689864
 20
70.9331845713
 10
261.5792375254
 20
71.4232331641
 10
262.4496259183
 20
71.8320378772
 10
263.3109717175
 20
72.157080072
 10
264.1579681865
 20
72.3963571692
 10
264.9853969948
 20
72.5483949868
 10
265.7881603682
 20
72.6122568225
 10
266.5613124954
 20
72.5875492246
 10
267.3000899997
 20
72.4744244161
 10
267.999941286
 20
72.2735793572
  0
LINE
  5
219
330
1F
100
AcDbEntity
  8
0
  6
Continuous
 62
     7
370
    15
100
AcDbLine
 10
267.999941286
 20
72.2735793572
 30
0.0
 11
269.3993293536
 21
71.4657298213
 31
0.0
  0
LINE
  5
21A
330
1F
100
AcDbEntity
  8
0
  6
Continuous
 62
     7
370
    15
100
AcDbLine
 10
271.9272360963
 20
65.9605409779
 30
0.0
 11
273.1457367583
 21
66.6639664372
 31
0.0
  0
LINE
  5
21B
330
1F
100
AcDbEntity
  8
0
  6
Continuous
 62
     7
370
    15
100
AcDbLine
 10
271.9272360963
 20
61.1551447431
 30
0.0
 11
271.9272360963
 21
65.9605409779
 31
0.0
  0
LINE
  5
21C
330
1F
100
AcDbEntity
  8
0
  6
Continuous
 62
     7
370
    15
100
AcDbLine
 10
252.1422902828
 20
47.5983379744
 30
0.0
 11
253.259617073
 21
48.2433570008
 31
0.0
  0
LINE
  5
21D
330
1F
100
AcDbEntity
  8
0
  6
Continuous
 62
     7
370
    15
100
AcDbLine
 10
253.259617073
 20
48.2433570008
 30
0.0
 11
253.259617073
 21
55.5922243078
 31
0.0
  0
LINE
  5
21E
330
1F
100
AcDbEntity
  8
0
  6
Continuous
 62
     7
370
    15
100
AcDbLine
 10
253.259617073
 20
55.5922243078
 30
0.0
 11
252.1422902828
 21
54.9472052814
 31
0.0
  0
LINE
  5
21F
330
1F
100
AcDbEntity
  8
0
  6
Continuous
 62
     7
370
    15
100
AcDbLine
 10
269.6114613879
 20
71.02574144
 30
0.0
 11
269.6114613879
 21
69.4616770052
 31
0.0
  0
LINE
  5
220
330
1F
100
AcDbEntity
  8
0
  6
Continuous
 62
     7
370
    15
100
AcDbLine
 10
270.9659075491
 20
70.2435821307
 30
0.0
 11
269.6114613879
 21
69.4616770052
 31
0.0
  0
LWPOLYLINE
  5
221
330
1F
100
AcDbEntity
  8
0
  6
Continuous
 62
     7
370
    15
100
AcDbPolyline
 90
       57
 70
   128
 43
0.0
 10
265.5455973961
 20
49.1930285811
 10
265.5804995874
 20
49.9308521664
 10
265.6847672461
 20
50.6996944044
 10
265.8570891459
 20
51.4898866578
 10
266.0952982388
 20
52.2914918006
 10
266.3963989073
 20
53.094429183
 10
266.7566046359
 20
53.8886014016
 10
267.1713856284
 20
54.6640212799
 10
267.6355257733
 20
55.410937463
 10
268.1431882389
 20
56.1199570465
 10
268.6879888751
 20
56.7821636979
 10
269.2630764979
 20
57.3892297842
 10
269.8612190468
 20
57.9335210972
 10
270.474894532
 20
58.4081928578
 10
271.0963856284
 20
58.8072757933
 10
271.7178767248
 20
59.1257512041
 10
272.3315522101
 20
59.3596140771
 10
272.9296947589
 20
59.5059234512
 10
273.5047823817
 20
59.5628394009
 10
274.049583018
 20
59.5296461752
 10
274.5572454835
 20
59.4067611982
 10
275.0213856284
 20
59.1957298197
 10
275.436166621
 20
58.8992058819
 10
275.7963723495
 20
58.5209183451
 10
276.0974730181
 20
58.0656243948
 10
276.335682111
 20
57.5390496165
 10
276.5080040107
 20
56.9478159936
 10
276.6122716694
 20
56.2993586318
 10
276.6471738607
 20
55.6018322589
 10
276.6122716694
 20
54.8640086736
 10
276.5080040107
 20
54.0951664356
 10
276.335682111
 20
53.3049741822
 10
276.0974730181
 20
52.5033690393
 10
275.7963723495
 20
51.7004316569
 10
275.436166621
 20
50.9062594384
 10
275.0213856284
 20
50.1308395601
 10
274.5572454835
 20
49.383923377
 10
274.049583018
 20
48.6749037934
 10
273.5047823817
 20
48.0126971421
 10
272.9296947589
 20
47.4056310557
 10
272.3315522101
 20
46.8613397427
 10
271.7178767248
 20
46.3866679821
 10
271.0963856284
 20
45.9875850467
 10
270.474894532
 20
45.6691096359
 10
269.8612190468
 20
45.4352467628
 10
269.2630764979
 20
45.2889373888
 10
268.6879888751
 20
45.2320214391
 10
268.1431882389
 20
45.2652146647
 10
267.6355257733
 20
45.3880996418
 10
267.1713856284
 20
45.5991310202
 10
266.7566046359
 20
45.8956549581
 10
266.3963989073
 20
46.2739424948
 10
266.0952982388
 20
46.7292364451
 10
265.8570891459
 20
47.2558112235
 10
265.6847672461
 20
47.8470448464
 10
265.5804995874
 20
48.4955022081
 10
265.5455973961
 20
49.1930285811
  0
LWPOLYLINE
  5
222
330
1F
100
AcDbEntity
  8
0
  6
Continuous
 62
     7
370
    15
100
AcDbPolyline
 90
       30
 70
   128
 43
0.0
 10
265.3334653618
 20
49.1930285811
 10
265.3677986356
 20
49.9314583748
 10
265.4703816975
 20
50.7005649854
 10
265.6399693283
 20
51.4910125003
 10
265.8745029637
 20
52.2932059575
 10
266.1711356831
 20
53.0974078152
 10
266.5262667672
 20
53.8938561521
 10
266.9355854057
 20
54.6728831644
 10
267.3941230247
 20
55.4250325195
 10
267.8963135987
 20
56.141174143
 10
268.4360612145
 20
56.8126150457
 10
269.0068140671
 20
57.4312048447
 10
269.6016439901
 20
57.9894346978
 10
270.213330554
 20
58.4805284506
 10
270.8344487125
 20
58.8985248905
 10
271.4574589326
 20
59.2383501067
 10
272.0747987141
 20
59.4958790815
 10
272.6789743884
 20
59.667985762
 10
273.2626520812
 20
59.7525810062
 10
273.818746736
 20
59.7486379426
 10
274.340508117
 20
59.6562044344
 10
274.8216027478
 20
59.4764024994
 10
275.2561907913
 20
59.2114146894
 10
275.6389969374
 20
58.8644575974
 10
275.9653744381
 20
58.4397428126
 10
276.2313615125
 20
57.9424257972
 10
276.4337294379
 20
57.378543306
 10
276.5700217419
 20
56.7549401085
 10
276.6385840205
 20
56.079185903
 10
276.6471738607
 20
55.7242934757
  0
LWPOLYLINE
  5
223
330
1F
100
AcDbEntity
  8
0
  6
Continuous
 62
     7
370
    15
100
AcDbPolyline
 90
       16
 70
   128
 43
0.0
 10
270.9912390092
 20
45.9268653767
 10
270.8344487125
 20
45.8388324573
 10
270.213330554
 20
45.5397011358
 10
269.6016439901
 20
45.3245566147
 10
269.0068140671
 20
45.1960104571
 10
268.4360612145
 20
45.1556230391
 10
267.8963135987
 20
45.2038846095
 10
267.3941230247
 20
45.3402093379
 10
266.9355854057
 20
45.562942427
 10
266.5262667672
 20
45.8693801987
 10
266.1711356831
 20
46.2558029136
 10
265.8745029637
 20
46.7175199234
 10
265.6399693283
 20
47.248926609
 10
265.4703816975
 20
47.8435724132
 10
265.3677986356
 20
48.4942391415
 10
265.3334653618
 20
49.1930285811
  0
SPLINE
  5
224
330
1F
100
AcDbEntity
  8
0
  6
Continuous
 62
     7
370
    15
100
AcDbSpline
210
0.0
220
0.0
230
1.0
 70
     8
 71
     3
 72
    42
 73
    38
 74
     0
 42
0.000000001
 43
0.00000001
 40
0.0
 40
0.0
 40
0.0
 40
0.0
 40
0.0312500000000003
 40
0.0312500000000003
 40
0.0625000000000006
 40
0.0625000000000006
 40
0.1250000000000008
 40
0.1250000000000008
 40
0.187500000000001
 40
0.187500000000001
 40
0.2500000000000012
 40
0.2500000000000012
 40
0.3125000000000014
 40
0.3125000000000014
 40
0.3750000000000017
 40
0.3750000000000017
 40
0.4375000000000019
 40
0.4375000000000019
 40
0.5000000000000021
 40
0.5000000000000021
 40
0.5625000000000023
 40
0.5625000000000023
 40
0.6250000000000026
 40
0.6250000000000026
 40
0.6875000000000028
 40
0.6875000000000028
 40
0.750000000000003
 40
0.750000000000003
 40
0.7812500000000026
 40
0.7812500000000026
 40
0.8125000000000022
 40
0.8125000000000022
 40
0.8750000000000014
 40
0.8750000000000014
 40
0.9375000000000008
 40
0.9375000000000008
 40
1.0
 40
1.0
 40
1.0
 40
1.0
 10
269.6644943965211
 20
59.7563701282827
 30
0.0
 10
269.6075960696739
 20
59.7235234233556
 30
0.0
 10
269.5471836828247
 20
59.69165769459324
 30
0.0
 10
269.4191781556806
 20
59.62996081995585
 30
0.0
 10
269.3515938784934
 20
59.60018459959115
 30
0.0
 10
269.143898138907
 20
59.5164958831196
 30
0.0
 10
268.997018999765
 20
59.46720699123305
 30
0.0
 10
268.6875156658442
 20
59.38239945562936
 30
0.0
 10
268.5301696831977
 20
59.34832129849181
 30
0.0
 10
268.2106234457691
 20
59.29660180965746
 30
0.0
 10
268.0478914598223
 20
59.2791314381728
 30
0.0
 10
267.7295284910118
 20
59.26277320222827
 30
0.0
 10
267.572264349672
 20
59.26357146687464
 30
0.0
 10
267.2615377507042
 20
59.28441798386948
 30
0.0
 10
267.1121315338141
 20
59.30419830255031
 30
0.0
 10
266.8242068423234
 20
59.36263750800232
 30
0.0
 10
266.6846994123471
 20
59.40169129962175
 30
0.0
 10
266.4216591578232
 20
59.49853285800308
 30
0.0
 10
266.2992365255571
 20
59.55571254895421
 30
0.0
 10
266.072035540917
 20
59.68740839822538
 30
0.0
 10
265.966440711259
 20
59.76268915699678
 30
0.0
 10
265.7783429717908
 20
59.92752752647317
 30
0.0
 10
265.6961902758814
 20
60.01641487237168
 30
0.0
 10
265.5555832197152
 20
60.20613025299192
 30
0.0
 10
265.4967129079622
 20
60.30801717101637
 30
0.0
 10
265.407369676836
 20
60.51795813357842
 30
0.0
 10
265.3768197349544
 20
60.62534144576446
 30
0.0
 10
265.352989376424
 20
60.78889123784169
 30
0.0
 10
265.3487375133564
 20
60.84382265884142
 30
0.0
 10
265.3481275297619
 20
60.95434284231498
 30
0.0
 10
265.3518448311362
 20
61.01011413771358
 30
0.0
 10
265.3751986936147
 20
61.17394383093482
 30
0.0
 10
265.406772963401
 20
61.27984027829959
 30
0.0
 10
265.5043764417782
 20
61.48281577878276
 30
0.0
 10
265.5719195719942
 20
61.58111347430415
 30
0.0
 10
265.738254834288
 20
61.7556212487132
 30
0.0
 10
265.8369664456834
 20
61.83292786166933
 30
0.0
 10
265.9521837952918
 20
61.89944142181731
 30
0.0
  0
SPLINE
  5
225
330
1F
100
AcDbEntity
  8
0
  6
Continuous
 62
     7
370
    15
100
AcDbSpline
210
0.0
220
0.0
230
1.0
 70
     8
 71
     3
 72
    42
 73
    38
 74
     0
 42
0.000000001
 43
0.00000001
 40
0.0
 40
0.0
 40
0.0
 40
0.0
 40
0.0312500000000003
 40
0.0312500000000003
 40
0.0625000000000006
 40
0.0625000000000006
 40
0.1250000000000009
 40
0.1250000000000009
 40
0.1875000000000012
 40
0.1875000000000012
 40
0.2500000000000014
 40
0.2500000000000014
 40
0.3125000000000018
 40
0.3125000000000018
 40
0.3750000000000021
 40
0.3750000000000021
 40
0.5000000000000029
 40
0.5000000000000029
 40
0.5625000000000026
 40
0.5625000000000026
 40
0.6250000000000022
 40
0.6250000000000022
 40
0.6875000000000019
 40
0.6875000000000019
 40
0.7500000000000016
 40
0.7500000000000016
 40
0.8125000000000012
 40
0.8125000000000012
 40
0.843750000000001
 40
0.843750000000001
 40
0.8750000000000009
 40
0.8750000000000009
 40
0.9375000000000006
 40
0.9375000000000006
 40
0.9687500000000002
 40
0.9687500000000002
 40
1.0
 40
1.0
 40
1.0
 40
1.0
 10
265.9521837952918
 20
61.89944142181731
 30
0.0
 10
266.0097933511213
 20
61.93269871049642
 30
0.0
 10
266.0713303557787
 20
61.96301966848965
 30
0.0
 10
266.1989921503307
 20
62.01646105089521
 30
0.0
 10
266.2655288111275
 20
62.03983107887311
 30
0.0
 10
266.4730529899259
 20
62.10027984487036
 30
0.0
 10
266.6233529970469
 20
62.12763587087024
 30
0.0
 10
266.9301884651292
 20
62.15654552114478
 30
0.0
 10
267.0893137591933
 20
62.15865355057058
 30
0.0
 10
267.4110737568994
 20
62.1415554179681
 30
0.0
 10
267.5717753011077
 20
62.12263423167506
 30
0.0
 10
267.8931656342274
 20
62.06761048758418
 30
0.0
 10
268.0506272982538
 20
62.03200634697006
 30
0.0
 10
268.3566177026124
 20
61.94875802735673
 30
0.0
 10
268.5057463050745
 20
61.90098060605124
 30
0.0
 10
268.9418398686806
 20
61.74142363714639
 30
0.0
 10
269.2033699272685
 20
61.61933720465742
 30
0.0
 10
269.5473059963742
 20
61.42013397786629
 30
0.0
 10
269.6510549079973
 20
61.35249446062979
 30
0.0
 10
269.8374237602765
 20
61.21444373526175
 30
0.0
 10
269.9203761093885
 20
61.14370446256774
 30
0.0
 10
270.0622455243829
 20
60.99960002300216
 30
0.0
 10
270.1198814438505
 20
60.92765644243631
 30
0.0
 10
270.2085654010122
 20
60.78232859895793
 30
0.0
 10
270.2397363354994
 20
60.70850333454748
 30
0.0
 10
270.2718127677506
 20
60.55909664254061
 30
0.0
 10
270.2725556304744
 20
60.48508789282506
 30
0.0
 10
270.2497474715708
 20
60.37353777551147
 30
0.0
 10
270.2381281462888
 20
60.33626603904592
 30
0.0
 10
270.2062661822831
 20
60.26127503570277
 30
0.0
 10
270.1858327929302
 20
60.22329652967652
 30
0.0
 10
270.1119086419433
 20
60.11073632536345
 30
0.0
 10
270.0461506508919
 20
60.03732517294632
 30
0.0
 10
269.920939167071
 20
59.92878732922482
 30
0.0
 10
269.8744415238771
 20
59.89271582535131
 30
0.0
 10
269.7747784264504
 20
59.82304563857095
 30
0.0
 10
269.7213935935301
 20
59.78921733554352
 30
0.0
 10
269.6644943965211
 20
59.7563701282827
 30
0.0
  0
LWPOLYLINE
  5
226
330
1F
100
AcDbEntity
  8
0
  6
Continuous
 62
     7
370
    15
100
AcDbPolyline
 90
       53
 70
   128
 43
0.0
 10
266.3234148554
 20
49.6420530426
 10
266.3582151862
 20
50.3264988976
 10
266.4621087116
 20
51.0411435975
 10
266.6335804298
 20
51.7755660133
 10
266.8701298972
 20
52.5190566126
 10
267.1683076899
 20
53.260773628
 10
267.5237657041
 20
53.9899011555
 10
267.9313205617
 20
54.6958068736
 10
268.3850291951
 20
55.3681970876
 10
268.8782755107
 20
55.997266834
 10
269.4038668666
 20
56.5738428593
 10
269.9541389573
 20
57.0895173868
 10
270.5210675765
 20
57.5367707207
 10
271.0963856284
 20
57.9090809002
 10
271.6717036804
 20
58.2010188045
 10
272.2386322996
 20
58.4083273217
 10
272.7889043902
 20
58.5279834267
 10
273.3144957461
 20
58.558242264
 10
273.8077420617
 20
58.4986625917
 10
274.2614506951
 20
58.3501132155
 10
274.6690055527
 20
58.11476032
 10
275.024463567
 20
57.7960358801
 10
275.3226413597
 20
57.3985876161
 10
275.5591908271
 20
56.9282112185
 10
275.7306625453
 20
56.3917658345
 10
275.8345560706
 20
55.7970740456
 10
275.8693564014
 20
55.1528077974
 10
275.8345560706
 20
54.4683619424
 10
275.7306625453
 20
53.7537172425
 10
275.5591908271
 20
53.0192948266
 10
275.3226413597
 20
52.2758042274
 10
275.024463567
 20
51.5340872119
 10
274.6690055527
 20
50.8049596845
 10
274.2614506951
 20
50.0990539663
 10
273.8077420617
 20
49.4266637523
 10
273.3144957461
 20
48.797594006
 10
272.7889043902
 20
48.2210179806
 10
272.2386322996
 20
47.7053434531
 10
271.6717036804
 20
47.2580901192
 10
271.0963856284
 20
46.8857799397
 10
270.5210675765
 20
46.5938420354
 10
269.9541389573
 20
46.3865335182
 10
269.4038668666
 20
46.2668774133
 10
268.8782755107
 20
46.236618576
 10
268.3850291951
 20
46.2961982483
 10
267.9313205617
 20
46.4447476244
 10
267.5237657041
 20
46.68010052
 10
267.1683076899
 20
46.9988249598
 10
266.8701298972
 20
47.3962732238
 10
266.6335804298
 20
47.8666496214
 10
266.4621087116
 20
48.4030950055
 10
266.3582151862
 20
48.9977867943
 10
266.3234148554
 20
49.6420530426
  0
LWPOLYLINE
  5
227
330
1F
100
AcDbEntity
  8
0
  6
Continuous
 62
     7
370
    15
100
AcDbPolyline
 90
       23
 70
   128
 43
0.0
 10
249.3854365918
 20
57.3805995129
 10
249.6857826581
 20
58.4804813111
 10
250.0522099962
 20
59.5862410167
 10
250.4821485582
 20
60.690123052
 10
250.9725828408
 20
61.7843850091
 10
251.5200730361
 20
62.8613519534
 10
252.1207791572
 20
63.9134702538
 10
252.7704879714
 20
64.933360563
 10
253.464642551
 20
65.9138695742
 10
254.1983742345
 20
66.8481201931
 10
254.9665367745
 20
67.7295597726
 10
255.7637424325
 20
68.5520060716
 10
256.5843997673
 20
69.3096906163
 10
257.4227528525
 20
69.9972991586
 10
258.272921647
 20
70.6100089496
 10
259.1289432368
 20
71.1435225654
 10
259.9848136575
 20
71.5940980481
 10
260.8345300052
 20
71.9585751512
 10
261.6721325392
 20
72.2343975053
 10
262.4917464826
 20
72.4196305475
 10
263.2876232272
 20
72.5129750902
 10
264.0541806525
 20
72.5137764334
 10
264.5005026396
 20
72.4694310191
  0
SPLINE
  5
228
330
1F
100
AcDbEntity
  8
0
  6
Continuous
 62
     7
370
    15
100
AcDbSpline
210
0.0
220
0.0
230
1.0
 70
     8
 71
     3
 72
     8
 73
     4
 74
     0
 42
0.000000001
 43
0.00000001
 40
0.0
 40
0.0
 40
0.0
 40
0.0
 40
1.0
 40
1.0
 40
1.0
 40
1.0
 10
249.3854365918404
 20
57.38059951288105
 30
0.0
 10
248.8941355627879
 20
57.29795229267716
 30
0.0
 10
248.4025554718852
 20
57.21586850518672
 30
0.0
 10
247.9107606731332
 20
57.13421821810498
 30
0.0
  0
LWPOLYLINE
  5
229
330
1F
100
AcDbEntity
  8
0
  6
Continuous
 62
     7
370
    15
100
AcDbPolyline
 90
       26
 70
   128
 43
0.0
 10
247.9107606731
 20
57.1342182181
 10
248.193205153
 20
58.2525734769
 10
248.539663736
 20
59.3793595611
 10
248.9480018967
 20
60.5076343611
 10
249.415703871
 20
61.6304465958
 10
249.9398881551
 20
62.7408786385
 10
250.5173252589
 20
63.832089137
 10
251.1444576025
 20
64.8973551623
 10
251.8174214343
 20
65.9301136291
 10
252.5320706362
 20
66.9240017307
 10
253.2840022668
 20
67.8728961397
 10
254.0685836884
 20
68.7709507344
 10
254.8809811087
 20
69.612632616
 10
255.7161893615
 20
70.3927561972
 10
256.5690627431
 20
71.1065151504
 10
257.4343467157
 20
71.7495120189
 10
258.3067102799
 20
72.3177853105
 10
259.1807788189
 20
72.8078339033
 10
260.0511672119
 20
73.2166386164
 10
260.912513011
 20
73.5416808112
 10
261.75950948
 20
73.7809579084
 10
262.5869382883
 20
73.932995726
 10
263.3897016617
 20
73.9968575617
 10
264.1628537889
 20
73.9721499638
 10
264.9016312933
 20
73.8590251553
 10
265.6014825795
 20
73.6581800964
  0
LINE
  5
22A
330
1F
100
AcDbEntity
  8
0
  6
Continuous
 62
     7
370
    15
100
AcDbLine
 10
265.6014825795
 20
73.6581800964
 30
0.0
 11
265.9307340761
 21
72.5944121442
 31
0.0
  0
LINE
  5
22B
330
1F
100
AcDbEntity
  8
0
  6
Continuous
 62
     7
370
    15
100
AcDbLine
 10
262.1868401855
 20
75.6294111916
 30
0.0
 11
265.6014825795
 21
73.6581800964
 31
0.0
  0
LINE
  5
22C
330
1F
100
AcDbEntity
  8
0
  6
Continuous
 62
     7
370
    15
100
AcDbLine
 10
247.9107606731
 20
57.1342182181
 30
0.0
 11
247.3245454039
 21
57.4726330897
 31
0.0
  0
SPLINE
  5
22D
330
1F
100
AcDbEntity
  8
0
  6
Continuous
 62
     7
370
    15
100
AcDbSpline
210
0.0
220
0.0
230
1.0
 70
     8
 71
     3
 72
    28
 73
    24
 74
     0
 42
0.000000001
 43
0.00000001
 40
0.0
 40
0.0
 40
0.0
 40
0.0
 40
0.1249999999999999
 40
0.1249999999999999
 40
0.1874999999999998
 40
0.1874999999999998
 40
0.2499999999999997
 40
0.2499999999999997
 40
0.3749999999999993
 40
0.3749999999999993
 40
0.4374999999999993
 40
0.4374999999999993
 40
0.4999999999999992
 40
0.4999999999999992
 40
0.6249999999999992
 40
0.6249999999999992
 40
0.7499999999999992
 40
0.7499999999999992
 40
0.8124999999999993
 40
0.8124999999999993
 40
0.8749999999999996
 40
0.8749999999999996
 40
1.0
 40
1.0
 40
1.0
 40
1.0
 10
247.3245454038748
 20
57.47263308968479
 30
0.0
 10
247.1365583234085
 20
57.58115572126886
 30
0.0
 10
246.9463383688078
 20
57.66309944181678
 30
0.0
 10
246.6582397668597
 20
57.74825717185524
 30
0.0
 10
246.5617498962602
 20
57.77030710225904
 30
0.0
 10
246.3680117234253
 20
57.801580925718
 30
0.0
 10
246.2707607028939
 20
57.81070817704143
 30
0.0
 10
245.9847388280086
 20
57.81849101914982
 30
0.0
 10
245.799397011652
 20
57.79818447551276
 30
0.0
 10
245.5308844248362
 20
57.73096382237963
 30
0.0
 10
245.4425237651704
 20
57.70217746477403
 30
0.0
 10
245.2721710548807
 20
57.63316557467888
 30
0.0
 10
245.1901440250993
 20
57.59302568476875
 30
0.0
 10
244.9537077713467
 20
57.45640591700553
 30
0.0
 10
244.8088405212243
 20
57.34389142731647
 30
0.0
 10
244.5479837277402
 20
57.07563446231701
 30
0.0
 10
244.4356913202379
 20
56.92348107593972
 30
0.0
 10
244.2964668387841
 20
56.67156468824142
 30
0.0
 10
244.2548710524183
 20
56.58352240256504
 30
0.0
 10
244.1817463373571
 20
56.39918134751321
 30
0.0
 10
244.1501218533041
 20
56.30239258483143
 30
0.0
 10
244.0726285498819
 20
56.00437750593462
 30
0.0
 10
244.0434538344921
 20
55.79490462879809
 30
0.0
 10
244.0374869517503
 20
55.57452383611423
 30
0.0
  0
ARC
  5
22E
330
1F
100
AcDbEntity
  8
0
  6
Continuous
 62
     7
370
    15
100
AcDbCircle
 10
258.8808534141
 20
55.1662534302
 30
0.0
 40
14.84898018918669
100
AcDbArc
 50
178.4244628824
 51
181.5755371176
  0
SPLINE
  5
22F
330
1F
100
AcDbEntity
  8
0
  6
Continuous
 62
     7
370
    15
100
AcDbSpline
210
0.0
220
0.0
230
1.0
 70
     8
 71
     3
 72
    30
 73
    26
 74
     0
 42
0.000000001
 43
0.00000001
 40
0.0
 40
0.0
 40
0.0
 40
0.0
 40
0.1250000000000001
 40
0.1250000000000001
 40
0.1875000000000002
 40
0.1875000000000002
 40
0.2500000000000003
 40
0.2500000000000003
 40
0.3750000000000004
 40
0.3750000000000004
 40
0.4375000000000004
 40
0.4375000000000004
 40
0.5000000000000004
 40
0.5000000000000004
 40
0.6250000000000007
 40
0.6250000000000007
 40
0.6875000000000006
 40
0.6875000000000006
 40
0.7500000000000004
 40
0.7500000000000004
 40
0.8125000000000004
 40
0.8125000000000004
 40
0.8750000000000003
 40
0.8750000000000003
 40
1.0
 40
1.0
 40
1.0
 40
1.0
 10
244.0374869517503
 20
54.75798302422848
 30
0.0
 10
244.0434545504418
 20
54.54446583145377
 30
0.0
 10
244.0725997704412
 20
54.32691593343464
 30
0.0
 10
244.1490344317001
 20
53.99461690389905
 30
0.0
 10
244.1800004152775
 20
53.88284260259947
 30
0.0
 10
244.2529703560931
 20
53.65714072906448
 30
0.0
 10
244.2951065546517
 20
53.54305295649196
 30
0.0
 10
244.4349983440161
 20
53.20489022913078
 30
0.0
 10
244.5468422685584
 20
52.98238000985801
 30
0.0
 10
244.740628865703
 20
52.65176975390844
 30
0.0
 10
244.8099695033062
 20
52.54154311420229
 30
0.0
 10
244.9554618877529
 20
52.32481311374875
 30
0.0
 10
245.031349178472
 20
52.21861617811803
 30
0.0
 10
245.2677371269434
 20
51.90597800486842
 30
0.0
 10
245.4368826291943
 20
51.70543545703325
 30
0.0
 10
245.7067486265283
 20
51.41533061761091
 30
0.0
 10
245.7989401325792
 20
51.32098720123847
 30
0.0
 10
245.9845387276139
 20
51.13968217317807
 30
0.0
 10
246.0783676079007
 20
51.05226283968392
 30
0.0
 10
246.2678176583661
 20
50.88365528935928
 30
0.0
 10
246.3634390735718
 20
50.80246710358993
 30
0.0
 10
246.5563007629982
 20
50.64630442404179
 30
0.0
 10
246.6540356718966
 20
50.57097744434508
 30
0.0
 10
246.9452916270169
 20
50.35768721090124
 30
0.0
 10
247.1365490179901
 20
50.23229378620081
 30
0.0
 10
247.3245454038748
 20
50.12376578271304
 30
0.0
  0
LINE
  5
230
330
1F
100
AcDbEntity
  8
0
  6
Continuous
 62
     7
370
    15
100
AcDbLine
 10
247.3245454039
 20
50.1237657827
 30
0.0
 11
247.9107606731
 21
49.7853509111
 31
0.0
  0
ARC
  5
231
330
1F
100
AcDbEntity
  8
0
  6
Continuous
 62
     7
370
    15
100
AcDbCircle
 10
253.7319901993
 20
51.176629405
 30
0.0
 40
5.985179115443981
100
AcDbArc
 50
193.4415888918
 51
253.1805824648
  0
LINE
  5
232
330
1F
100
AcDbEntity
  8
0
  6
Continuous
 62
     7
370
    15
100
AcDbLine
 10
267.2309004358
 20
72.7172314033
 30
0.0
 11
267.5652128396
 21
72.4099032932
 31
0.0
  0
LINE
  5
233
330
1F
100
AcDbEntity
  8
0
  6
Continuous
 62
     7
370
    15
100
AcDbLine
 10
266.377971682
 20
73.2096166922
 30
0.0
 11
267.2309004358
 21
72.7172314033
 31
0.0
  0
SPLINE
  5
234
330
1F
100
AcDbEntity
  8
0
  6
Continuous
 62
     7
370
    15
100
AcDbSpline
210
0.0
220
0.0
230
1.0
 70
     8
 71
     3
 72
    20
 73
    16
 74
     0
 42
0.000000001
 43
0.00000001
 40
0.0
 40
0.0
 40
0.0
 40
0.0
 40
0.2499999999999995
 40
0.2499999999999995
 40
0.3749999999999996
 40
0.3749999999999996
 40
0.4999999999999997
 40
0.4999999999999997
 40
0.6249999999999998
 40
0.6249999999999998
 40
0.7499999999999998
 40
0.7499999999999998
 40
0.8749999999999999
 40
0.8749999999999999
 40
1.0
 40
1.0
 40
1.0
 40
1.0
 10
262.1868401854734
 20
75.62941119158523
 30
0.0
 10
262.5058288398714
 20
75.49552080232544
 30
0.0
 10
262.8322844399694
 20
75.33562445526344
 30
0.0
 10
263.3446345573525
 20
75.05770552779394
 30
0.0
 10
263.5192379240303
 20
74.95870651498363
 30
0.0
 10
263.8791117863792
 20
74.74776581008494
 30
0.0
 10
264.0619722027327
 20
74.63720999287489
 30
0.0
 10
264.4282672919099
 20
74.41179212386406
 30
0.0
 10
264.6127508081685
 20
74.2963115224846
 30
0.0
 10
264.986335632404
 20
74.06147917818882
 30
0.0
 10
265.1706851036433
 20
73.94514925291357
 30
0.0
 10
265.5313950101198
 20
73.71945456611418
 30
0.0
 10
265.7084489993736
 20
73.60964459201749
 30
0.0
 10
266.056178350726
 20
73.39824982848158
 30
0.0
 10
266.2214287671842
 20
73.29998699333858
 30
0.0
 10
266.3779716819656
 20
73.2096166922212
 30
0.0
  0
ARC
  5
235
330
1F
100
AcDbEntity
  8
0
  6
Continuous
 62
     7
370
    15
100
AcDbCircle
 10
258.2796399283
 20
69.9781684236
 30
0.0
 40
6.943593807468247
100
AcDbArc
 50
63.3035690035
 51
113.9767780366
  0
ARC
  5
236
330
1F
100
AcDbEntity
  8
0
  6
Continuous
 62
     7
370
    15
100
AcDbCircle
 10
249.3786753279
 20
54.640921146
 30
0.0
 40
6.844428672243199
100
AcDbArc
 50
186.7852637878
 51
236.994907271
  0
SPLINE
  5
237
330
1F
100
AcDbEntity
  8
0
  6
Continuous
 62
     7
370
    15
100
AcDbSpline
210
0.0
220
0.0
230
1.0
 70
     8
 71
     3
 72
    22
 73
    18
 74
     0
 42
0.000000001
 43
0.00000001
 40
0.0
 40
0.0
 40
0.0
 40
0.0
 40
0.1250000000000002
 40
0.1250000000000002
 40
0.2500000000000003
 40
0.2500000000000003
 40
0.3750000000000005
 40
0.3750000000000005
 40
0.5000000000000007
 40
0.5000000000000007
 40
0.6250000000000009
 40
0.6250000000000009
 40
0.7500000000000006
 40
0.7500000000000006
 40
0.8750000000000002
 40
0.8750000000000002
 40
1.0
 40
1.0
 40
1.0
 40
1.0
 10
268.0446660461727
 20
46.94217660022726
 30
0.0
 10
267.9962887441738
 20
46.91026914818279
 30
0.0
 10
267.947596939649
 20
46.88645453234758
 30
0.0
 10
267.8498214582607
 20
46.854776096957
 30
0.0
 10
267.8004314256839
 20
46.84691630111683
 30
0.0
 10
267.7027689759605
 20
46.84831973478332
 30
0.0
 10
267.6553436992113
 20
46.85746171391551
 30
0.0
 10
267.5633639792648
 20
46.89230059509276
 30
0.0
 10
267.5183932288413
 20
46.91836005847542
 30
0.0
 10
267.4337074333232
 20
46.98644587510885
 30
0.0
 10
267.3942389633683
 20
47.02804697304138
 30
0.0
 10
267.3208811117811
 20
47.1260224751109
 30
0.0
 10
267.2867181885375
 20
47.18309325597411
 30
0.0
 10
267.2262567262087
 20
47.30839774191185
 30
0.0
 10
267.1997430501083
 20
47.376680831797
 30
0.0
 10
267.1538065918037
 20
47.52427374316151
 30
0.0
 10
267.1343810371118
 20
47.60391075605569
 30
0.0
 10
267.1189191305328
 20
47.68720933741654
 30
0.0
  0
LWPOLYLINE
  5
238
330
1F
100
AcDbEntity
  8
0
  6
Continuous
 62
     7
370
    15
100
AcDbPolyline
 90
       12
 70
   128
 43
0.0
 10
273.8299071591
 20
50.2819252062
 10
273.3728380327
 20
49.61973733
 10
272.8751078011
 20
49.0054559056
 10
272.3450259837
 20
48.4493362537
 10
271.7914422035
 20
47.9606626948
 10
271.223598445
 20
47.5475935483
 10
270.6509747603
 20
47.2170249315
 10
270.0831310018
 20
46.9744756296
 10
269.5295472216
 20
46.8239949607
 10
268.9994654042
 20
46.7680951734
 10
268.5017351726
 20
46.8077095046
 10
268.0446660462
 20
46.9421766002
  0
SPLINE
  5
239
330
1F
100
AcDbEntity
  8
0
  6
Continuous
 62
     7
370
    15
100
AcDbSpline
210
0.0
220
0.0
230
1.0
 70
     8
 71
     3
 72
    22
 73
    18
 74
     0
 42
0.000000001
 43
0.00000001
 40
0.0
 40
0.0
 40
0.0
 40
0.0
 40
0.1250000000000003
 40
0.1250000000000003
 40
0.2500000000000007
 40
0.2500000000000007
 40
0.375000000000001
 40
0.375000000000001
 40
0.5000000000000008
 40
0.5000000000000008
 40
0.6250000000000007
 40
0.6250000000000007
 40
0.7500000000000004
 40
0.7500000000000004
 40
0.8750000000000002
 40
0.8750000000000002
 40
1.0
 40
1.0
 40
1.0
 40
1.0
 10
274.7556540747809
 20
52.0958025811852
 30
0.0
 10
274.7705930070864
 20
52.01222020122698
 30
0.0
 10
274.7781769979234
 20
51.92719288205014
 30
0.0
 10
274.7789537484355
 20
51.75420144211223
 30
0.0
 10
274.7720563550079
 20
51.66568236375223
 30
0.0
 10
274.7432789928065
 20
51.48788573467379
 30
0.0
 10
274.7217463201367
 20
51.40016538945165
 30
0.0
 10
274.6647204022789
 20
51.2269959875623
 30
0.0
 10
274.6287862427463
 20
51.14072699439499
 30
0.0
 10
274.5441615817505
 20
50.97480893042383
 30
0.0
 10
274.4959199529428
 20
50.89568408380325
 30
0.0
 10
274.3878294119513
 20
50.74494027798119
 30
0.0
 10
274.327282038879
 20
50.67270106699677
 30
0.0
 10
274.1984252962341
 20
50.54077012954252
 30
0.0
 10
274.1300113290364
 20
50.48067731676404
 30
0.0
 10
273.9852942194595
 20
50.37203459854245
 30
0.0
 10
273.9086977344259
 20
50.32342942549775
 30
0.0
 10
273.8299071591411
 20
50.28192520619601
 30
0.0
  0
LWPOLYLINE
  5
23A
330
1F
100
AcDbEntity
  8
0
  6
Continuous
 62
     7
370
    15
100
AcDbPolyline
 90
        9
 70
   128
 43
0.0
 10
274.7556540748
 20
57.2913433277
 10
275.0204251489
 20
56.8360589532
 10
275.2129655858
 20
56.3038800833
 10
275.3298693492
 20
55.7042209512
 10
275.3690684139
 20
55.0476895148
 10
275.3298693492
 20
54.3458998017
 10
275.2129655858
 20
53.6112664574
 10
275.0204251489
 20
52.8567851308
 10
274.7556540748
 20
52.0958025812
  0
SPLINE
  5
23B
330
1F
100
AcDbEntity
  8
0
  6
Continuous
 62
     7
370
    15
100
AcDbSpline
210
0.0
220
0.0
230
1.0
 70
     8
 71
     3
 72
    22
 73
    18
 74
     0
 42
0.000000001
 43
0.00000001
 40
0.0
 40
0.0
 40
0.0
 40
0.0
 40
0.1250000000000002
 40
0.1250000000000002
 40
0.2500000000000003
 40
0.2500000000000003
 40
0.3750000000000005
 40
0.3750000000000005
 40
0.5000000000000007
 40
0.5000000000000007
 40
0.6250000000000009
 40
0.6250000000000009
 40
0.7500000000000006
 40
0.7500000000000006
 40
0.8750000000000002
 40
0.8750000000000002
 40
1.0
 40
1.0
 40
1.0
 40
1.0
 10
273.8299071591411
 20
58.03637606488529
 30
0.0
 10
273.9086822641236
 20
58.05073523879295
 30
0.0
 10
273.9840627062378
 20
58.05914283209545
 30
0.0
 10
274.1282509736542
 20
58.06402773642834
 30
0.0
 10
274.1974634023711
 20
58.06044430655281
 30
0.0
 10
274.3271188296725
 20
58.04057172005754
 30
0.0
 10
274.3864858986814
 20
58.02453589099348
 30
0.0
 10
274.4945639580503
 20
57.98040363628274
 30
0.0
 10
274.5436793495204
 20
57.95195152255283
 30
0.0
 10
274.6283932216286
 20
57.88384949764893
 30
0.0
 10
274.6638380798138
 20
57.84457118134927
 30
0.0
 10
274.7212001717383
 20
57.7558298347785
 30
0.0
 10
274.7431941015055
 20
57.70578406431773
 30
0.0
 10
274.7718911037387
 20
57.59881681087418
 30
0.0
 10
274.7788616877556
 20
57.54181570790495
 30
0.0
 10
274.7782830988506
 20
57.42107536172158
 30
0.0
 10
274.7705959408786
 20
57.3570901846896
 30
0.0
 10
274.7556540747809
 20
57.291343327696
 30
0.0
  0
LWPOLYLINE
  5
23C
330
1F
100
AcDbEntity
  8
0
  6
Continuous
 62
     7
370
    15
100
AcDbPolyline
 90
       12
 70
   128
 43
0.0
 10
268.0446660462
 20
54.6966274589
 10
268.5017351726
 20
55.3588153351
 10
268.9994654042
 20
55.9730967595
 10
269.5295472216
 20
56.5292164114
 10
270.0831310018
 20
57.0178899703
 10
270.6509747603
 20
57.4309591168
 10
271.223598445
 20
57.7615277336
 10
271.7914422035
 20
58.0040770355
 10
272.3450259837
 20
58.1545577044
 10
272.8751078011
 20
58.2104574918
 10
273.3728380327
 20
58.1708431605
 10
273.8299071591
 20
58.0363760649
  0
SPLINE
  5
23D
330
1F
100
AcDbEntity
  8
0
  6
Continuous
 62
     7
370
    15
100
AcDbSpline
210
0.0
220
0.0
230
1.0
 70
     8
 71
     3
 72
    22
 73
    18
 74
     0
 42
0.000000001
 43
0.00000001
 40
0.0
 40
0.0
 40
0.0
 40
0.0
 40
0.1250000000000003
 40
0.1250000000000003
 40
0.2500000000000007
 40
0.2500000000000007
 40
0.375000000000001
 40
0.375000000000001
 40
0.5000000000000008
 40
0.5000000000000008
 40
0.6250000000000007
 40
0.6250000000000007
 40
0.7500000000000004
 40
0.7500000000000004
 40
0.8750000000000002
 40
0.8750000000000002
 40
1.0
 40
1.0
 40
1.0
 40
1.0
 10
267.1189191305328
 20
52.88275008392735
 30
0.0
 10
267.134378001211
 20
52.94878418574876
 30
0.0
 10
267.1534826479635
 20
53.0184044823929
 30
0.0
 10
267.1991186834795
 20
53.16460239127311
 30
0.0
 10
267.225838473047
 20
53.24167824391742
 30
0.0
 10
267.2866088128264
 20
53.40100572016706
 30
0.0
 10
267.320083277756
 20
53.48183221545734
 30
0.0
 10
267.3932075350361
 20
53.64570824381317
 30
0.0
 10
267.4332863356154
 20
53.72958458663327
 30
0.0
 10
267.5179390732013
 20
53.89548644233395
 30
0.0
 10
267.5621570902393
 20
53.9769340705874
 30
0.0
 10
267.6542518715681
 20
54.1369120319082
 30
0.0
 10
267.7026302511638
 20
54.21617625329506
 30
0.0
 10
267.7997225337132
 20
54.36644442324351
 30
0.0
 10
267.8485934088274
 20
54.4378192229379
 30
0.0
 10
267.9467954711948
 20
54.57331450634064
 30
0.0
 10
267.9962792435646
 20
54.63757151524752
 30
0.0
 10
268.0446660461727
 20
54.69662745891653
 30
0.0
  0
LWPOLYLINE
  5
23E
330
1F
100
AcDbEntity
  8
0
  6
Continuous
 62
     7
370
    15
100
AcDbPolyline
 90
        9
 70
   128
 43
0.0
 10
267.1189191305
 20
47.6872093374
 10
266.8541480565
 20
48.1424937119
 10
266.6616076195
 20
48.6746725818
 10
266.5447038561
 20
49.2743317139
 10
266.5055047915
 20
49.9308631503
 10
266.5447038561
 20
50.6326528635
 10
266.6616076195
 20
51.3672862077
 10
266.8541480565
 20
52.1217675343
 10
267.1189191305
 20
52.8827500839
  0
LINE
  5
23F
330
1F
100
AcDbEntity
  8
0
  6
Continuous
 62
     7
370
    15
100
AcDbLine
 10
250.5200511467
 20
56.6063407445
 30
0.0
 11
250.0564233542
 21
56.8739873721
 31
0.0
  0
LINE
  5
240
330
1F
100
AcDbEntity
  8
0
  6
Continuous
 62
     7
370
    15
100
AcDbLine
 10
249.6306051962
 20
57.5221323356
 30
0.0
 11
249.3854365918
 21
57.3805995129
 31
0.0
  0
SPLINE
  5
241
330
1F
100
AcDbEntity
  8
0
  6
Continuous
 62
     7
370
    15
100
AcDbSpline
210
0.0
220
0.0
230
1.0
 70
     8
 71
     3
 72
    14
 73
    10
 74
     0
 42
0.000000001
 43
0.00000001
 40
0.0
 40
0.0
 40
0.0
 40
0.0
 40
0.1250000000000017
 40
0.1250000000000017
 40
0.2500000000000034
 40
0.2500000000000034
 40
0.5000000000000032
 40
0.5000000000000032
 40
1.0
 40
1.0
 40
1.0
 40
1.0
 10
250.0564233542182
 20
56.87398737205906
 30
0.0
 10
250.032226921053
 20
56.88795567560161
 30
0.0
 10
250.0090514825941
 20
56.91532085159916
 30
0.0
 10
249.9721310901632
 20
56.97312262072468
 30
0.0
 10
249.9570892991306
 20
57.00409309984105
 30
0.0
 10
249.9172758425437
 20
57.09711957277025
 30
0.0
 10
249.8976398241596
 20
57.15973062705503
 30
0.0
 10
249.8472189756901
 20
57.34406137797001
 30
0.0
 10
249.8248017974496
 20
57.4656056128707
 30
0.0
 10
249.8081138992837
 20
57.58473467817306
 30
0.0
  0
SPLINE
  5
242
330
1F
100
AcDbEntity
  8
0
  6
Continuous
 62
     7
370
    15
100
AcDbSpline
210
0.0
220
0.0
230
1.0
 70
     8
 71
     3
 72
    10
 73
     6
 74
     0
 42
0.000000001
 43
0.00000001
 40
0.0
 40
0.0
 40
0.0
 40
0.0
 40
0.5
 40
0.5
 40
1.0
 40
1.0
 40
1.0
 40
1.0
 10
249.8081138992837
 20
57.58473467817306
 30
0.0
 10
249.7747238810959
 20
57.57858490897283
 30
0.0
 10
249.7424845296678
 20
57.57003830112475
 30
0.0
 10
249.6824966354055
 20
57.54880232735586
 30
0.0
 10
249.6552347621565
 20
57.53635068134767
 30
0.0
 10
249.6306051962066
 20
57.52213233557082
 30
0.0
  0
ARC
  5
243
330
1F
100
AcDbEntity
  8
0
  6
Continuous
 62
     7
370
    15
100
AcDbCircle
 10
274.2821449962
 20
56.8106488527
 30
0.0
 40
1.30649388055685
100
AcDbArc
 50
110.2517772116
 51
120.2335023561
  0
LINE
  5
244
330
1F
100
AcDbEntity
  8
0
  6
Continuous
 62
     7
370
    15
100
AcDbLine
 10
273.202443882
 20
57.6959061726
 30
0.0
 11
273.6242923712
 21
57.9394341218
 31
0.0
  0
LWPOLYLINE
  5
245
330
1F
100
AcDbEntity
  8
0
  6
Continuous
 62
     7
370
    15
100
AcDbPolyline
 90
       10
 70
   128
 43
0.0
 10
268.6721293233
 20
55.080611246
 10
269.1337273065
 20
55.6560109572
 10
269.6263796077
 20
56.1768847182
 10
270.1416035664
 20
56.6342639417
 10
270.6705278754
 20
57.0202733112
 10
271.2040453299
 20
57.3282663819
 10
271.7329696389
 20
57.5529400207
 10
272.2481935976
 20
57.6904257179
 10
272.7408458988
 20
57.7383561965
 10
273.202443882
 20
57.6959061726
  0
LINE
  5
246
330
1F
100
AcDbEntity
  8
0
  6
Continuous
 62
     7
370
    15
100
AcDbLine
 10
268.2502808341
 20
54.8370832968
 30
0.0
 11
268.6721293233
 21
55.080611246
 31
0.0
  0
ARC
  5
247
330
1F
100
AcDbEntity
  8
0
  6
Continuous
 62
     7
370
    15
100
AcDbCircle
 10
269.1130372779
 20
53.3533562546
 30
0.0
 40
1.716331732792622
100
AcDbArc
 50
120.1771113865
 51
128.4969973883
  0
LWPOLYLINE
  5
248
330
1F
100
AcDbEntity
  8
0
  6
Continuous
 62
     7
370
    15
100
AcDbPolyline
 90
       30
 70
   128
 43
0.0
 10
271.3518856724
 20
57.3992552242
 10
271.4415852922
 20
57.3997273009
 10
271.8584626649
 20
57.3465946012
 10
272.2338541768
 20
57.2025518288
 10
272.5597590094
 20
56.9706690052
 10
272.8292310671
 20
56.6558883102
 10
273.0365270208
 20
56.2649187479
 10
273.1772287172
 20
55.8060931557
 10
273.2483373438
 20
55.2891906045
 10
273.2483373438
 20
54.7252279747
 10
273.1772287172
 20
54.1262251507
 10
273.0365270208
 20
53.5049488377
 10
272.8292310671
 20
52.8746404617
 10
272.5597590094
 20
52.2487339514
 10
272.2338541768
 20
51.6405694175
 10
271.8584626649
 20
51.063108831
 10
271.4415852922
 20
50.5286597619
 10
270.992107076
 20
50.0486130642
 10
270.5196078642
 20
49.6332000997
 10
270.0341581571
 20
49.2912746747
 10
269.5461044724
 20
49.0301243358
 10
269.0658488271
 20
48.8553150493
 10
268.6036270365
 20
48.7705725715
 10
268.1692905555
 20
48.7777030412
 10
267.7720965121
 20
48.8765544848
 10
267.4205104079
 20
49.0650200555
 10
267.1220256902
 20
49.3390829368
 10
266.8830040426
 20
49.6929019542
 10
266.7085397964
 20
50.1189360697
 10
266.6439721274
 20
50.3691083278
  0
LINE
  5
249
330
1F
100
AcDbEntity
  8
0
  6
Continuous
 62
     7
370
    15
100
AcDbLine
 10
267.2249760014
 20
47.6310144244
 30
0.0
 11
268.3689530923
 21
48.2914183419
 31
0.0
  0
LINE
  5
24A
330
1F
100
AcDbEntity
  8
0
  6
Continuous
 62
     7
370
    15
100
AcDbLine
 10
267.1392104929
 20
47.5852623636
 30
0.0
 11
267.2249760014
 21
47.6310144244
 31
0.0
  0
LWPOLYLINE
  5
24B
330
1F
100
AcDbEntity
  8
0
  6
Continuous
 62
     7
370
    15
100
AcDbPolyline
 90
        3
 70
   128
 43
0.0
 10
273.7092029296
 20
57.6143109188
 10
273.7299499136
 20
57.9128591598
 10
273.7257807342
 20
57.9927550654
  0
ARC
  5
24C
330
1F
100
AcDbEntity
  8
0
  6
Continuous
 62
     7
370
    15
100
AcDbCircle
 10
268.6456471672
 20
55.2732613292
 30
0.0
 40
5.578540144217434
100
AcDbArc
 50
335.1873353003
 51
24.8126646997
  0
ARC
  5
24D
330
1F
100
AcDbEntity
  8
0
  6
Continuous
 62
     7
370
    15
100
AcDbCircle
 10
271.354304826
 20
52.7415172396
 30
0.0
 40
2.362606499360713
100
AcDbArc
 50
301.7912553701
 51
4.6295852366
  0
LINE
  5
24E
330
1F
100
AcDbEntity
  8
0
  6
Continuous
 62
     7
370
    15
100
AcDbLine
 10
271.4550104476
 20
50.0729613319
 30
0.0
 11
272.5989875384
 21
50.7333652493
 31
0.0
  0
ARC
  5
24F
330
1F
100
AcDbEntity
  8
0
  6
Continuous
 62
     7
370
    15
100
AcDbCircle
 10
267.661528044
 20
53.0805124217
 30
0.0
 40
4.841061072136531
100
AcDbArc
 50
278.4027299562
 51
321.5918935111
  0
ARC
  5
250
330
1F
100
AcDbEntity
  8
0
  6
Continuous
 62
     7
370
    15
100
AcDbCircle
 10
268.8432687731
 20
47.686916172
 30
0.0
 40
1.724349667514593
100
AcDbArc
 50
171.0177039065
 51
179.9902588545
  0
ARC
  5
251
330
1F
100
AcDbEntity
  8
0
  6
Continuous
 62
     7
370
    15
100
AcDbCircle
 10
272.2036212054
 20
50.297187217
 30
0.0
 40
5.578540144217277
100
AcDbArc
 50
155.1873353003
 51
204.8126646997
  0
ARC
  5
252
330
1F
100
AcDbEntity
  8
0
  6
Continuous
 62
     7
370
    15
100
AcDbCircle
 10
268.4182569133
 20
52.871950049
 30
0.0
 40
1.299382666707908
100
AcDbArc
 50
179.5237711274
 51
190.3618866345
  0
SPLINE
  5
253
330
1F
100
AcDbEntity
  8
0
  6
Continuous
 62
     7
370
    15
100
AcDbSpline
210
0.0
220
0.0
230
1.0
 70
     8
 71
     3
 72
     9
 73
     5
 74
     0
 42
0.000000001
 43
0.00000001
 40
0.0
 40
0.0
 40
0.0
 40
0.0
 40
0.2424693241232141
 40
1.0
 40
1.0
 40
1.0
 40
1.0
 10
272.3178095393341
 20
57.6632521047681
 30
0.0
 10
272.3889411672567
 20
57.66846604886732
 30
0.0
 10
272.6823045779886
 20
57.68996956943879
 30
0.0
 10
272.9782534971825
 20
57.69334737856542
 30
0.0
 10
273.2024438819645
 20
57.6959061725961
 30
0.0
  0
LWPOLYLINE
  5
254
330
1F
100
AcDbEntity
  8
0
  6
Continuous
 62
     7
370
    15
100
AcDbPolyline
 90
       27
 70
   128
 43
0.0
 10
271.2350430264
 20
57.3436700081
 10
271.6130714585
 20
57.2625415432
 10
271.9616958304
 20
57.0902597966
 10
272.2582147384
 20
56.8320690997
 10
272.4960044401
 20
56.4937370063
 10
272.6697531065
 20
56.0828212961
 10
272.7755794795
 20
55.6085011471
 10
272.8111195728
 20
55.0813720876
 10
272.7755794795
 20
54.5132093098
 10
272.6697531065
 20
53.9167046313
 10
272.4960044401
 20
53.3051829809
 10
272.2582147384
 20
52.6923047417
 10
271.9616958304
 20
52.0917606009
 10
271.6130714585
 20
51.5169657222
 10
271.2201293151
 20
50.9807600734
 10
270.7916470784
 20
50.4951216025
 10
270.3371963336
 20
50.0708986707
 10
269.8669287592
 20
49.7175677171
 10
269.3913493558
 20
49.4430215714
 10
268.9210817814
 20
49.2533931408
 10
268.4666310365
 20
49.1529184111
 10
268.0381487998
 20
49.1438418218
 10
267.6452066564
 20
49.2263661287
 10
267.2965822846
 20
49.3986478754
 10
267.0000633766
 20
49.6568385722
 10
266.7622736749
 20
49.9951706657
 10
266.7257780246
 20
50.064748731
  0
ARC
  5
255
330
1F
100
AcDbEntity
  8
0
  6
Continuous
 62
     7
370
    15
100
AcDbCircle
 10
267.9547560206
 20
54.2116601293
 30
0.0
 40
25.80017984728164
100
AcDbArc
 50
134.0175354919
 51
166.0669804906
  0
LINE
  5
256
330
1F
100
AcDbEntity
  8
0
  6
Continuous
 62
     7
370
    15
100
AcDbLine
 10
251.0896213363
 20
49.4960688749
 30
0.0
 11
253.259617073
 21
48.2433570008
 31
0.0
  0
SPLINE
  5
257
330
1F
100
AcDbEntity
  8
0
  6
Continuous
 62
     7
370
    15
100
AcDbSpline
210
0.0
220
0.0
230
1.0
 70
     8
 71
     3
 72
    14
 73
    10
 74
     0
 42
0.000000001
 43
0.00000001
 40
0.0
 40
0.0
 40
0.0
 40
0.0
 40
0.1249999999999983
 40
0.1249999999999983
 40
0.2499999999999966
 40
0.2499999999999966
 40
0.4999999999999968
 40
0.4999999999999968
 40
1.0
 40
1.0
 40
1.0
 40
1.0
 10
250.8413118813352
 20
50.20681618099717
 30
0.0
 10
250.865741229979
 20
50.19271341821086
 30
0.0
 10
250.8887197840451
 20
50.16543128835119
 30
0.0
 10
250.9256028975369
 20
50.10767788484468
 30
0.0
 10
250.9407280438538
 20
50.07653030317407
 30
0.0
 10
250.980445404313
 20
49.9836932016181
 30
0.0
 10
250.999907522202
 20
49.92174273180133
 30
0.0
 10
251.0507756433961
 20
49.73582802630383
 30
0.0
 10
251.0730598708112
 20
49.61429538133055
 30
0.0
 10
251.0896213362698
 20
49.496068874883
 30
0.0
  0
LINE
  5
258
330
1F
100
AcDbEntity
  8
0
  6
Continuous
 62
     7
370
    15
100
AcDbLine
 10
250.0564233542
 20
50.6599226831
 30
0.0
 11
250.8413118813
 21
50.206816181
 31
0.0
  0
SPLINE
  5
259
330
1F
100
AcDbEntity
  8
0
  6
Continuous
 62
     7
370
    15
100
AcDbSpline
210
0.0
220
0.0
230
1.0
 70
     8
 71
     3
 72
    14
 73
    10
 74
     0
 42
0.000000001
 43
0.00000001
 40
0.0
 40
0.0
 40
0.0
 40
0.0
 40
0.4999999999999998
 40
0.4999999999999998
 40
0.7499999999999981
 40
0.7499999999999981
 40
0.8749999999999991
 40
0.8749999999999991
 40
1.0
 40
1.0
 40
1.0
 40
1.0
 10
249.8081138992836
 20
50.23586737120107
 30
0.0
 10
249.8247379807374
 20
50.33534711543118
 30
0.0
 10
249.8471553823417
 20
50.43118224882718
 30
0.0
 10
249.8975864401904
 20
50.55739819840082
 30
0.0
 10
249.9171211341216
 20
50.59723174709507
 30
0.0
 10
249.9570642914571
 20
50.64449207856691
 30
0.0
 10
249.9720812586227
 20
50.65809469217218
 30
0.0
 10
250.0091426261444
 20
50.6733150937479
 30
0.0
 10
250.0321262884927
 20
50.67394908054176
 30
0.0
 10
250.0564233542182
 20
50.65992268305873
 30
0.0
  0
LINE
  5
25A
330
1F
100
AcDbEntity
  8
0
  6
Continuous
 62
     7
370
    15
100
AcDbLine
 10
248.6634229953
 20
50.8966833642
 30
0.0
 11
249.8081138993
 21
50.2358673712
 31
0.0
  0
ARC
  5
25B
330
1F
100
AcDbEntity
  8
0
  6
Continuous
 62
     7
370
    15
100
AcDbCircle
 10
251.9320343475
 20
56.0498033328
 30
0.0
 40
6.102332798379016
100
AcDbArc
 50
182.3868561234
 51
237.6131440222
  0
LINE
  5
25C
330
1F
100
AcDbEntity
  8
0
  6
Continuous
 62
     7
370
    15
100
AcDbLine
 10
245.8349958705
 20
56.6122036473
 30
0.0
 11
245.8349958705
 21
55.7956628354
 31
0.0
  0
ARC
  5
25D
330
1F
100
AcDbEntity
  8
0
  6
Continuous
 62
     7
370
    15
100
AcDbCircle
 10
248.4534887087
 20
56.6896444402
 30
0.0
 40
2.619637726843879
100
AcDbArc
 50
154.1396198639
 51
181.6940041175
  0
ARC
  5
25E
330
1F
100
AcDbEntity
  8
0
  6
Continuous
 62
     7
370
    15
100
AcDbCircle
 10
267.5924282091
 20
48.1679038124
 30
0.0
 40
1.306493880558474
100
AcDbArc
 50
290.2517772116
 51
300.2335023561
  0
ARC
  5
25F
330
1F
100
AcDbEntity
  8
0
  6
Continuous
 62
     7
370
    15
100
AcDbCircle
 10
273.0313044322
 20
57.2916364931
 30
0.0
 40
1.724349667469458
100
AcDbArc
 50
351.0177039064
 51
359.9902588546
  0
LINE
  5
260
330
1F
100
AcDbEntity
  8
0
  6
Continuous
 62
     7
370
    15
100
AcDbLine
 10
273.7092029296
 20
57.6143109188
 30
0.0
 11
274.7345077623
 21
57.0224150378
 31
0.0
  0
LWPOLYLINE
  5
261
330
1F
100
AcDbEntity
  8
0
  6
Continuous
 62
     7
370
    15
100
AcDbPolyline
 90
       10
 70
   128
 43
0.0
 10
273.202443882
 20
49.8979414191
 10
272.7408458988
 20
49.322541708
 10
272.2481935976
 20
48.8016679469
 10
271.7329696389
 20
48.3442887234
 10
271.2040453299
 20
47.9582793539
 10
270.6705278754
 20
47.6502862832
 10
270.1416035664
 20
47.4256126444
 10
269.6263796077
 20
47.2881269472
 10
269.1337273065
 20
47.2401964686
 10
268.6721293233
 20
47.2826464925
  0
LINE
  5
262
330
1F
100
AcDbEntity
  8
0
  6
Continuous
 62
     7
370
    15
100
AcDbLine
 10
273.6242923712
 20
50.1414693683
 30
0.0
 11
273.202443882
 21
49.8979414191
 31
0.0
  0
ARC
  5
263
330
1F
100
AcDbEntity
  8
0
  6
Continuous
 62
     7
370
    15
100
AcDbCircle
 10
272.7615359274
 20
51.6251964105
 30
0.0
 40
1.716331732792751
100
AcDbArc
 50
300.1771113865
 51
308.4969973883
  0
LINE
  5
264
330
1F
100
AcDbEntity
  8
0
  6
Continuous
 62
     7
370
    15
100
AcDbLine
 10
268.6721293233
 20
47.2826464925
 30
0.0
 11
268.2502808341
 21
47.0391185433
 31
0.0
  0
ARC
  5
265
330
1F
100
AcDbEntity
  8
0
  6
Continuous
 62
     7
370
    15
100
AcDbCircle
 10
257.2310023232
 20
48.506574919
 30
0.0
 40
5.444445033957502
100
AcDbArc
 50
216.5135746511
 51
263.7219426546
  0
SPLINE
  5
266
330
1F
100
AcDbEntity
  8
0
  6
Continuous
 62
     7
370
    15
100
AcDbSpline
210
0.0
220
0.0
230
1.0
 70
     8
 71
     3
 72
    12
 73
     8
 74
     0
 42
0.000000001
 43
0.00000001
 40
0.0
 40
0.0
 40
0.0
 40
0.0
 40
0.2499999999999962
 40
0.2499999999999962
 40
0.4999999999999925
 40
0.4999999999999925
 40
1.0
 40
1.0
 40
1.0
 40
1.0
 10
251.7086074472314
 20
47.59290063606264
 30
0.0
 10
251.7368496473038
 20
47.57659676099862
 30
0.0
 10
251.7713957792092
 20
47.56364096758862
 30
0.0
 10
251.8461198389069
 20
47.54692922939607
 30
0.0
 10
251.8864102302085
 20
47.54304232060862
 30
0.0
 10
252.0075232476449
 20
47.54530571849791
 30
0.0
 10
252.0856408100627
 20
47.56563492992466
 30
0.0
 10
252.1422902827983
 20
47.59833797443101
 30
0.0
  0
LINE
  5
267
330
1F
100
AcDbEntity
  8
0
  6
Continuous
 62
     7
370
    15
100
AcDbLine
 10
268.3689530923
 20
48.2914183419
 30
0.0
 11
268.7818854893
 21
48.0530375432
 31
0.0
  0
SPLINE
  5
268
330
1F
100
AcDbEntity
  8
0
  6
Continuous
 62
     7
370
    15
100
AcDbSpline
210
0.0
220
0.0
230
1.0
 70
     8
 71
     3
 72
     8
 73
     4
 74
     0
 42
0.000000001
 43
0.00000001
 40
0.0
 40
0.0
 40
0.0
 40
0.0
 40
1.0
 40
1.0
 40
1.0
 40
1.0
 10
268.7818854893274
 20
48.05303754315536
 30
0.0
 10
268.7094363654718
 20
47.79619333585431
 30
0.0
 10
268.6800622434179
 20
47.53940580774399
 30
0.0
 10
268.6721293233494
 20
47.28264649251645
 30
0.0
  0
ARC
  5
269
330
1F
100
AcDbEntity
  8
0
  6
Continuous
 62
     7
370
    15
100
AcDbCircle
 10
256.5085160735
 20
50.0289679185
 30
0.0
 40
6.40955322380006
100
AcDbArc
 50
194.716105919
 51
237.9533567894
  0
LINE
  5
26A
330
1F
100
AcDbEntity
  8
0
  6
Continuous
 62
     7
370
    15
100
AcDbLine
 10
250.3092193796
 20
48.4007501719
 30
0.0
 11
251.7086074472
 21
47.5929006361
 31
0.0
  0
SPLINE
  5
26B
330
1F
100
AcDbEntity
  8
0
  6
Continuous
 62
     7
370
    15
100
AcDbSpline
210
0.0
220
0.0
230
1.0
 70
     8
 71
     3
 72
     8
 73
     4
 74
     0
 42
0.000000001
 43
0.00000001
 40
0.0
 40
0.0
 40
0.0
 40
0.0
 40
1.0
 40
1.0
 40
1.0
 40
1.0
 10
250.7360105439067
 20
49.25206245911862
 30
0.0
 10
250.5928458472162
 20
48.96844041211161
 30
0.0
 10
250.4506571503636
 20
48.68465726612759
 30
0.0
 10
250.3092193796084
 20
48.40075017194051
 30
0.0
  0
LINE
  5
26C
330
1F
100
AcDbEntity
  8
0
  6
Continuous
 62
     7
370
    15
100
AcDbLine
 10
250.9811791483
 20
49.3935952818
 30
0.0
 11
250.7360105439
 21
49.2520624591
 31
0.0
  0
SPLINE
  5
26D
330
1F
100
AcDbEntity
  8
0
  6
Continuous
 62
     7
370
    15
100
AcDbSpline
210
0.0
220
0.0
230
1.0
 70
     8
 71
     3
 72
    10
 73
     6
 74
     0
 42
0.000000001
 43
0.00000001
 40
0.0
 40
0.0
 40
0.0
 40
0.0
 40
0.5
 40
0.5
 40
1.0
 40
1.0
 40
1.0
 40
1.0
 10
251.0896213362698
 20
49.496068874883
 30
0.0
 10
251.0789684692998
 20
49.47679322767688
 30
0.0
 10
251.0641637061476
 20
49.45818184625183
 30
0.0
 10
251.0273779348167
 20
49.42355157202029
 30
0.0
 10
251.0058087142227
 20
49.40781362758519
 30
0.0
 10
250.9811791482728
 20
49.39359528180834
 30
0.0
  0
SPLINE
  5
26E
330
1F
100
AcDbEntity
  8
0
  6
Continuous
 62
     7
370
    15
100
AcDbSpline
210
0.0
220
0.0
230
1.0
 70
     8
 71
     3
 72
    14
 73
    10
 74
     0
 42
0.000000001
 43
0.00000001
 40
0.0
 40
0.0
 40
0.0
 40
0.0
 40
0.5000000000000002
 40
0.5000000000000002
 40
0.7500000000000002
 40
0.7500000000000002
 40
0.8750000000000001
 40
0.8750000000000001
 40
1.0
 40
1.0
 40
1.0
 40
1.0
 10
235.168312079591
 20
60.89112822201981
 30
0.0
 10
235.4834780234309
 20
60.66404023112395
 30
0.0
 10
235.7997536786968
 20
60.43419385607582
 30
0.0
 10
236.2785781672679
 20
60.07888525408671
 30
0.0
 10
236.4388981776919
 20
59.95874693989116
 30
0.0
 10
236.6819507136456
 20
59.77247810564735
 30
0.0
 10
236.7633941516622
 20
59.70938486442034
 30
0.0
 10
236.9280556006956
 20
59.57903962200821
 30
0.0
 10
237.0109616187618
 20
59.51251518003095
 30
0.0
 10
237.0969804468465
 20
59.4387217087074
 30
0.0
  0
SPLINE
  5
26F
330
1F
100
AcDbEntity
  8
0
  6
Continuous
 62
     7
370
    15
100
AcDbSpline
210
0.0
220
0.0
230
1.0
 70
     8
 71
     3
 72
     8
 73
     4
 74
     0
 42
0.000000001
 43
0.00000001
 40
0.0
 40
0.0
 40
0.0
 40
0.0
 40
1.0
 40
1.0
 40
1.0
 40
1.0
 10
237.0969804468465
 20
59.4387217087074
 30
0.0
 10
237.398632920084
 20
59.17994135062556
 30
0.0
 10
237.7039124636075
 20
58.9323663352209
 30
0.0
 10
238.0085720367341
 20
58.69139347865437
 30
0.0
  0
SPLINE
  5
270
330
1F
100
AcDbEntity
  8
0
  6
Continuous
 62
     7
370
    15
100
AcDbSpline
210
0.0
220
0.0
230
1.0
 70
     8
 71
     3
 72
    14
 73
    10
 74
     0
 42
0.000000001
 43
0.00000001
 40
0.0
 40
0.0
 40
0.0
 40
0.0
 40
0.1250000000000022
 40
0.1250000000000022
 40
0.2500000000000044
 40
0.2500000000000044
 40
0.500000000000003
 40
0.500000000000003
 40
1.0
 40
1.0
 40
1.0
 40
1.0
 10
238.0085720367342
 20
58.69139347865432
 30
0.0
 10
238.0277674126597
 20
58.67621074691812
 30
0.0
 10
238.0453794860601
 20
58.66484292842134
 30
0.0
 10
238.0712244159794
 20
58.65357445920889
 30
0.0
 10
238.079362780227
 20
58.65319098897184
 30
0.0
 10
238.0963128711951
 20
58.65896678166622
 30
0.0
 10
238.0984821437048
 20
58.67163220728426
 30
0.0
 10
238.0973065958902
 20
58.71606903432803
 30
0.0
 10
238.0852330752861
 20
58.75655230510147
 30
0.0
 10
238.070454847246
 20
58.80055597498396
 30
0.0
  0
SPLINE
  5
271
330
1F
100
AcDbEntity
  8
0
  6
Continuous
 62
     7
370
    15
100
AcDbSpline
210
0.0
220
0.0
230
1.0
 70
     8
 71
     3
 72
    14
 73
    10
 74
     0
 42
0.000000001
 43
0.00000001
 40
0.0
 40
0.0
 40
0.0
 40
0.0
 40
0.25
 40
0.25
 40
0.5
 40
0.5
 40
0.75
 40
0.75
 40
1.0
 40
1.0
 40
1.0
 40
1.0
 10
238.0704548472453
 20
58.80055597498467
 30
0.0
 10
238.0523986002987
 20
58.85432027797144
 30
0.0
 10
238.0494758021976
 20
58.89887088706849
 30
0.0
 10
238.0440620736543
 20
58.99113223691321
 30
0.0
 10
238.0424947956131
 20
59.03842663983345
 30
0.0
 10
238.032356395806
 20
59.14318769466124
 30
0.0
 10
238.0240413980618
 20
59.20044890169625
 30
0.0
 10
237.9952412234029
 20
59.33007025907067
 30
0.0
 10
237.9745878267324
 20
59.40286445868372
 30
0.0
 10
237.9458983095713
 20
59.48255115764348
 30
0.0
  0
ARC
  5
272
330
1F
100
AcDbEntity
  8
0
  6
Continuous
 62
     7
370
    15
100
AcDbCircle
 10
248.3008655869
 20
62.5691126556
 30
0.0
 40
10.80519362138124
100
AcDbArc
 50
163.4019732888
 51
196.5980267112
  0
SPLINE
  5
273
330
1F
100
AcDbEntity
  8
0
  6
Continuous
 62
     7
370
    15
100
AcDbSpline
210
0.0
220
0.0
230
1.0
 70
     8
 71
     3
 72
    14
 73
    10
 74
     0
 42
0.000000001
 43
0.00000001
 40
0.0
 40
0.0
 40
0.0
 40
0.0
 40
0.25
 40
0.25
 40
0.5
 40
0.5
 40
0.75
 40
0.75
 40
1.0
 40
1.0
 40
1.0
 40
1.0
 10
238.0704548472453
 20
67.11687916990766
 30
0.0
 10
238.0523986002987
 20
66.9960370909631
 30
0.0
 10
238.0494758021976
 20
66.87094282439699
 30
0.0
 10
238.0440620736543
 20
66.62299151374563
 30
0.0
 10
238.0424947956131
 20
66.49908288943188
 30
0.0
 10
238.032356395806
 20
66.25292715019167
 30
0.0
 10
238.0240413980618
 20
66.13063920833027
 30
0.0
 10
237.9952412234029
 20
65.88864203112148
 30
0.0
 10
237.9745878267324
 20
65.76848506394188
 30
0.0
 10
237.9458983095713
 20
65.65567415353661
 30
0.0
  0
SPLINE
  5
274
330
1F
100
AcDbEntity
  8
0
  6
Continuous
 62
     7
370
    15
100
AcDbSpline
210
0.0
220
0.0
230
1.0
 70
     8
 71
     3
 72
    14
 73
    10
 74
     0
 42
0.000000001
 43
0.00000001
 40
0.0
 40
0.0
 40
0.0
 40
0.0
 40
0.125
 40
0.125
 40
0.25
 40
0.25
 40
0.5
 40
0.5
 40
1.0
 40
1.0
 40
1.0
 40
1.0
 10
238.0085720367343
 20
67.66216473420168
 30
0.0
 10
238.0277674126598
 20
67.65987792622785
 30
0.0
 10
238.0453794860602
 20
67.64837968695502
 30
0.0
 10
238.0712244159794
 20
67.61168818442852
 30
0.0
 10
238.0793627802271
 20
67.58860676932645
 30
0.0
 10
238.0963128711951
 20
67.51727425024934
 30
0.0
 10
238.0984821437048
 20
67.46603014464127
 30
0.0
 10
238.0973065958902
 20
67.31599466487968
 30
0.0
 10
238.0852330752861
 20
67.2157829899966
 30
0.0
 10
238.070454847246
 20
67.11687916990797
 30
0.0
  0
SPLINE
  5
275
330
1F
100
AcDbEntity
  8
0
  6
Continuous
 62
     7
370
    15
100
AcDbSpline
210
0.0
220
0.0
230
1.0
 70
     8
 71
     3
 72
     8
 73
     4
 74
     0
 42
0.000000001
 43
0.00000001
 40
0.0
 40
0.0
 40
0.0
 40
0.0
 40
1.0
 40
1.0
 40
1.0
 40
1.0
 10
237.0969804468465
 20
67.71437754533777
 30
0.0
 10
237.3986329200841
 20
67.72172379248087
 30
0.0
 10
237.7039124636076
 20
67.69845982651093
 30
0.0
 10
238.0085720367343
 20
67.66216473420168
 30
0.0
  0
SPLINE
  5
276
330
1F
100
AcDbEntity
  8
0
  6
Continuous
 62
     7
370
    15
100
AcDbSpline
210
0.0
220
0.0
230
1.0
 70
     8
 71
     3
 72
    14
 73
    10
 74
     0
 42
0.000000001
 43
0.00000001
 40
0.0
 40
0.0
 40
0.0
 40
0.0
 40
0.5000000000000002
 40
0.5000000000000002
 40
0.7500000000000002
 40
0.7500000000000002
 40
0.8750000000000001
 40
0.8750000000000001
 40
1.0
 40
1.0
 40
1.0
 40
1.0
 10
235.168312079591
 20
68.34701689032275
 30
0.0
 10
235.4834780234309
 20
68.20963239659663
 30
0.0
 10
235.7997536786968
 20
68.07805888896549
 30
0.0
 10
236.2785781672679
 20
67.9031634224447
 30
0.0
 10
236.4388981776919
 20
67.84849227218021
 30
0.0
 10
236.6819507136456
 20
67.77946045646014
 30
0.0
 10
236.7633941516622
 20
67.75859817195136
 30
0.0
 10
236.9280556006956
 20
67.72579045852171
 30
0.0
 10
237.0109616187618
 20
67.71228269902907
 30
0.0
 10
237.0969804468465
 20
67.71437754533777
 30
0.0
  0
SPLINE
  5
277
330
1F
100
AcDbEntity
  8
0
  6
Continuous
 62
     7
370
    15
100
AcDbSpline
210
0.0
220
0.0
230
1.0
 70
     8
 71
     3
 72
     8
 73
     4
 74
     0
 42
0.000000001
 43
0.00000001
 40
0.0000005163856998
 40
0.0000005163856998
 40
0.0000005163856998
 40
0.0000005163856998
 40
0.000026289209185
 40
0.000026289209185
 40
0.000026289209185
 40
0.000026289209185
 10
235.1682904925718
 20
68.35989600151393
 30
0.0
 10
235.1682881914125
 20
68.35560316648741
 30
0.0
 10
235.1682954377368
 20
68.35131009881188
 30
0.0
 10
235.168312079591
 20
68.34701689032276
 30
0.0
  0
LINE
  5
278
330
1F
100
AcDbEntity
  8
0
  6
Continuous
 62
     7
370
    15
100
AcDbLine
 10
247.9334233839
 20
78.9026910739
 30
0.0
 11
248.0324658887
 21
78.8551125925
 31
0.0
  0
LINE
  5
279
330
1F
100
AcDbEntity
  8
0
  6
Continuous
 62
     7
370
    15
100
AcDbLine
 10
236.6507680756
 20
59.1392974541
 30
0.0
 11
236.5707752685
 21
59.1937367953
 31
0.0
  0
SPLINE
  5
27A
330
1F
100
AcDbEntity
  8
0
  6
Continuous
 62
     7
370
    15
100
AcDbSpline
210
0.0
220
0.0
230
1.0
 70
     8
 71
     3
 72
     8
 73
     4
 74
     0
 42
0.000000001
 43
0.00000001
 40
0.000000516385691
 40
0.000000516385691
 40
0.000000516385691
 40
0.000000516385691
 40
0.0000262892091854
 40
0.0000262892091854
 40
0.0000262892091854
 40
0.0000262892091854
 10
235.1682904925718
 20
60.88642494965249
 30
0.0
 10
235.1682881914125
 20
60.88799833535076
 30
0.0
 10
235.1682954377368
 20
60.88956606528349
 30
0.0
 10
235.168312079591
 20
60.89112822201982
 30
0.0
  0
SPLINE
  5
27B
330
1F
100
AcDbEntity
  8
0
  6
Continuous
 62
     7
370
    15
100
AcDbSpline
210
0.0
220
0.0
230
1.0
 70
     8
 71
     3
 72
    17
 73
    13
 74
     0
 42
0.000000001
 43
0.00000001
 40
0.0
 40
0.0
 40
0.0
 40
0.0
 40
0.1261401830437124
 40
0.2529692308662134
 40
0.379775122219605
 40
0.5058595017132658
 40
0.6308682557773793
 40
0.693748882888787
 40
0.7558160075481191
 40
0.8177941526221022
 40
0.881073185886612
 40
1.0
 40
1.0
 40
1.0
 40
1.0
 10
240.8571587910257
 20
59.01345383439791
 30
0.0
 10
240.7241121244282
 20
59.25838866022089
 30
0.0
 10
240.4572922094228
 20
59.74959592665809
 30
0.0
 10
240.3325954997501
 20
60.50161617770873
 30
0.0
 10
240.4684292024008
 20
61.12630652004125
 30
0.0
 10
240.8354760825848
 20
61.54315967990726
 30
0.0
 10
241.2782053599584
 20
61.63717965834044
 30
0.0
 10
241.6542482680112
 20
61.55516104394917
 30
0.0
 10
241.9370224204069
 20
61.4131126518527
 30
0.0
 10
242.2073271424824
 20
61.1955700425742
 30
0.0
 10
242.5353321625132
 20
60.8318265075701
 30
0.0
 10
242.7195813130571
 20
60.4743697578406
 30
0.0
 10
242.8398418030065
 20
60.24105566259926
 30
0.0
  0
SPLINE
  5
27C
330
1F
100
AcDbEntity
  8
0
  6
Continuous
 62
     7
370
    15
100
AcDbSpline
210
0.0
220
0.0
230
1.0
 70
     8
 71
     3
 72
    12
 73
     8
 74
     0
 42
0.000000001
 43
0.00000001
 40
0.0
 40
0.0
 40
0.0
 40
0.0
 40
0.1558560238103798
 40
0.3235621828492302
 40
0.4913933894974845
 40
0.6616473361400689
 40
0.9999999999999999
 40
0.9999999999999999
 40
0.9999999999999999
 40
0.9999999999999999
 10
242.4235703298498
 20
57.68399784626052
 30
0.0
 10
242.3486302085424
 20
57.70345188718956
 30
0.0
 10
242.1930520753371
 20
57.74383910992464
 30
0.0
 10
241.9275834794296
 20
57.89004586042418
 30
0.0
 10
241.64615160733
 20
58.09739294468137
 30
0.0
 10
241.2659698544462
 20
58.44660029561971
 30
0.0
 10
241.0204751587788
 20
58.78700090960007
 30
0.0
 10
240.8571587910257
 20
59.01345383439791
 30
0.0
  0
ARC
  5
27D
330
1F
100
AcDbEntity
  8
0
  6
Continuous
 62
     7
370
    15
100
AcDbCircle
 10
268.074460441
 20
52.842131623
 30
0.0
 40
4.841061072136519
100
AcDbArc
 50
278.4027299562
 51
321.5918935111
  0
SPLINE
  5
27E
330
1F
100
AcDbEntity
  8
0
  6
Continuous
 62
     7
370
    15
100
AcDbSpline
210
0.0
220
0.0
230
1.0
 70
     8
 71
     3
 72
     8
 73
     4
 74
     0
 42
0.000000001
 43
0.00000001
 40
0.0
 40
0.0
 40
0.0
 40
0.0
 40
1.0
 40
1.0
 40
1.0
 40
1.0
 10
273.2024438819645
 20
49.89794141908718
 30
0.0
 10
272.7538140927074
 20
49.89332208254481
 30
0.0
 10
272.3081161121955
 20
49.8759587387086
 30
0.0
 10
271.8679428445948
 20
49.83458053314244
 30
0.0
  0
ARC
  5
27F
330
1F
100
AcDbEntity
  8
0
  6
Continuous
 62
     7
370
    15
100
AcDbCircle
 10
273.456316292
 20
52.1066026161
 30
0.0
 40
1.299382666677178
100
AcDbArc
 50
359.5237711272
 51
10.3618866346
  0
ARC
  5
280
330
1F
100
AcDbEntity
  8
0
  6
Continuous
 62
     7
370
    15
100
AcDbCircle
 10
269.6709519999
 20
54.6813654481
 30
0.0
 40
5.578540144216915
100
AcDbArc
 50
335.1873353003
 51
24.8126646997
  0
LINE
  5
281
330
1F
100
AcDbEntity
  8
0
  6
Continuous
 62
     7
370
    15
100
AcDbLine
 10
273.7092029296
 20
52.9322117395
 30
0.0
 11
274.7345077623
 21
52.3403158585
 31
0.0
  0
LINE
  5
282
330
1F
100
AcDbEntity
  8
0
  6
Continuous
 62
     7
370
    15
100
AcDbLine
 10
271.8679428446
 20
49.8345805331
 30
0.0
 11
271.4550104476
 21
50.0729613319
 31
0.0
  0
ARC
  5
283
330
1F
100
AcDbEntity
  8
0
  6
Continuous
 62
     7
370
    15
100
AcDbCircle
 10
255.680788387
 20
52.0907630261
 30
0.0
 40
6.623523393471294
100
AcDbArc
 50
198.1114510494
 51
217.3575801744
  0
SPLINE
  5
284
330
1F
100
AcDbEntity
  8
0
  6
Continuous
 62
     7
370
    15
100
AcDbSpline
210
0.0
220
0.0
230
1.0
 70
     8
 71
     3
 72
     8
 73
     4
 74
     0
 42
0.000000001
 43
0.00000001
 40
0.0
 40
0.0
 40
0.0
 40
0.0
 40
1.0
 40
1.0
 40
1.0
 40
1.0
 10
247.9107606731332
 20
49.78535091113323
 30
0.0
 10
248.4025554718852
 20
49.86700119821497
 30
0.0
 10
248.8941355627879
 20
49.94908498570541
 30
0.0
 10
249.3854365918404
 20
50.0317322059093
 30
0.0
  0
LINE
  5
285
330
1F
100
AcDbEntity
  8
0
  6
Continuous
 62
     7
370
    15
100
AcDbLine
 10
249.3854365918
 20
50.0317322059
 30
0.0
 11
249.6306051962
 21
50.1732650286
 31
0.0
  0
SPLINE
  5
286
330
1F
100
AcDbEntity
  8
0
  6
Continuous
 62
     7
370
    15
100
AcDbSpline
210
0.0
220
0.0
230
1.0
 70
     8
 71
     3
 72
    10
 73
     6
 74
     0
 42
0.000000001
 43
0.00000001
 40
0.0
 40
0.0
 40
0.0
 40
0.0
 40
0.5
 40
0.5
 40
1.0
 40
1.0
 40
1.0
 40
1.0
 10
249.6306051962066
 20
50.17326502859908
 30
0.0
 10
249.6554374995585
 20
50.18760041218692
 30
0.0
 10
249.683112497052
 20
50.20019585232301
 30
0.0
 10
249.7432375065065
 20
50.22139375046328
 30
0.0
 10
249.7749319067012
 20
50.22975591612994
 30
0.0
 10
249.8081138992829
 20
50.23586737120118
 30
0.0
  0
SPLINE
  5
287
330
1F
100
AcDbEntity
  8
0
  6
Continuous
 62
     7
370
    15
100
AcDbSpline
210
0.0
220
0.0
230
1.0
 70
     8
 71
     3
 72
    12
 73
     8
 74
     0
 42
0.000000001
 43
0.00000001
 40
0.0
 40
0.0
 40
0.0
 40
0.0
 40
0.0858964539461528
 40
0.3516255812735433
 40
0.6164855881057844
 40
0.8849878210150128
 40
1.0
 40
1.0
 40
1.0
 40
1.0
 10
241.8769408366455
 20
61.33617595995504
 30
0.0
 10
241.863077997509
 20
61.28852825820466
 30
0.0
 10
241.8063291022342
 20
61.09347770542131
 30
0.0
 10
241.884259580929
 20
60.65870404686216
 30
0.0
 10
242.1083142568087
 20
60.11142667386095
 30
0.0
 10
242.3962612106374
 20
59.67181303434428
 30
0.0
 10
242.6060213498925
 20
59.4717049898652
 30
0.0
 10
242.6689263410264
 20
59.41169456649077
 30
0.0
  0
LINE
  5
288
330
1F
100
AcDbEntity
  8
0
  6
Continuous
 62
     7
370
    15
100
AcDbLine
 10
269.5343508269
 20
71.3115821428
 30
0.0
 11
269.6293591423
 21
71.3326306642
 31
0.0
  0
LINE
  5
289
330
1F
100
AcDbEntity
  8
0
  6
Continuous
 62
     7
370
    15
100
AcDbLine
 10
269.6293591423
 20
71.3326306642
 30
0.0
 11
271.0287472099
 21
70.5247811283
 31
0.0
  0
SPLINE
  5
28A
330
1F
100
AcDbEntity
  8
0
  6
Continuous
 62
     7
370
    15
100
AcDbSpline
210
0.0
220
0.0
230
1.0
 70
     8
 71
     3
 72
    12
 73
     8
 74
     0
 42
0.000000001
 43
0.00000001
 40
0.0
 40
0.0
 40
0.0
 40
0.0
 40
0.250000000000002
 40
0.250000000000002
 40
0.500000000000004
 40
0.500000000000004
 40
1.0
 40
1.0
 40
1.0
 40
1.0
 10
271.0287472098984
 20
70.52478112827748
 30
0.0
 10
271.0609911807711
 20
70.50616708010388
 30
0.0
 10
271.0830441833046
 20
70.48191675730646
 30
0.0
 10
271.1038931274696
 20
70.43132889941892
 30
0.0
 10
271.1035119582423
 20
70.40449033098487
 30
0.0
 10
271.077759025345
 20
70.32725621471604
 30
0.0
 10
271.0298075982363
 20
70.28047084388821
 30
0.0
 10
270.9659075491011
 20
70.24358213072074
 30
0.0
  0
SPLINE
  5
28B
330
1F
100
AcDbEntity
  8
0
  6
Continuous
 62
     7
370
    15
100
AcDbSpline
210
0.0
220
0.0
230
1.0
 70
     8
 71
     3
 72
    11
 73
     7
 74
     0
 42
0.000000001
 43
0.00000001
 40
0.0
 40
0.0
 40
0.0
 40
0.0
 40
0.2051164296510469
 40
0.3943103000078613
 40
0.7240976905325477
 40
1.0
 40
1.0
 40
1.0
 40
1.0
 10
241.1484281408748
 20
59.19637691958629
 30
0.0
 10
241.2280486444127
 20
59.0817886394526
 30
0.0
 10
241.3811089560134
 20
58.86150721590321
 30
0.0
 10
241.7048448879875
 20
58.51073328821097
 30
0.0
 10
242.0872520421396
 20
58.19477724016996
 30
0.0
 10
242.339233358824
 20
58.08779068098157
 30
0.0
 10
242.4540152796934
 20
58.03905642190067
 30
0.0
  0
SPLINE
  5
28C
330
1F
100
AcDbEntity
  8
0
  6
Continuous
 62
     7
370
    15
100
AcDbSpline
210
0.0
220
0.0
230
1.0
 70
     8
 71
     3
 72
    16
 73
    12
 74
     0
 42
0.000000001
 43
0.00000001
 40
0.0
 40
0.0
 40
0.0
 40
0.0
 40
0.1460145430677092
 40
0.2335492809463408
 40
0.3282846594088671
 40
0.4359414638263237
 40
0.5278790608181073
 40
0.6640995322706239
 40
0.8013223014688365
 40
0.8930413578083857
 40
1.0
 40
1.0
 40
1.0
 40
1.0
 10
242.0880356128206
 20
61.27834583704416
 30
0.0
 10
241.9411750068927
 20
61.35181673698148
 30
0.0
 10
241.706272454084
 20
61.46933294797207
 30
0.0
 10
241.3894213644442
 20
61.45936301443074
 30
0.0
 10
241.1362922053572
 20
61.37162767214643
 30
0.0
 10
240.9275689298074
 20
61.18983545722951
 30
0.0
 10
240.7645380133983
 20
60.8979700825893
 30
0.0
 10
240.6875102069213
 20
60.48808670881346
 30
0.0
 10
240.7629095469583
 20
60.02351754662134
 30
0.0
 10
240.9216520840442
 20
59.5815728801191
 30
0.0
 10
241.0690669658823
 20
59.33117776433811
 30
0.0
 10
241.1484281408748
 20
59.19637691958629
 30
0.0
  0
SPLINE
  5
28D
330
1F
100
AcDbEntity
  8
0
  6
Continuous
 62
     7
370
    15
100
AcDbSpline
210
0.0
220
0.0
230
1.0
 70
     8
 71
     3
 72
    10
 73
     6
 74
     0
 42
0.000000001
 43
0.00000001
 40
0.0
 40
0.0
 40
0.0
 40
0.0
 40
0.3337923556773334
 40
0.703674594371194
 40
1.0
 40
1.0
 40
1.0
 40
1.0
 10
273.1457367582622
 20
66.66396643719156
 30
0.0
 10
273.1664996444176
 20
66.67839508010874
 30
0.0
 10
273.2102703157494
 20
66.7088124017741
 30
0.0
 10
273.2422539649339
 20
66.76413911684152
 30
0.0
 10
273.2357070234426
 20
66.80149805141691
 30
0.0
 10
273.232794980764
 20
66.81811509497119
 30
0.0
  0
LINE
  5
28E
330
1F
100
AcDbEntity
  8
0
  6
Continuous
 62
     7
370
    15
100
AcDbLine
 10
267.2309004358
 20
72.7172314033
 30
0.0
 11
267.0859714613
 21
72.4992196685
 31
0.0
  0
LINE
  5
28F
330
1F
100
AcDbEntity
  8
0
  6
Continuous
 62
     7
370
    15
100
AcDbLine
 10
237.0080679247
 20
63.0661094253
 30
0.0
 11
237.5084507602
 21
62.7772445631
 31
0.0
  0
SPLINE
  5
290
330
1F
100
AcDbEntity
  8
0
  6
Continuous
 62
     7
370
    15
100
AcDbSpline
210
0.0
220
0.0
230
1.0
 70
     8
 71
     3
 72
     9
 73
     5
 74
     0
 42
0.000000001
 43
0.00000001
 40
0.0
 40
0.0
 40
0.0
 40
0.0
 40
0.7009329310329975
 40
1.0
 40
1.0
 40
1.0
 40
1.0
 10
235.1822569838747
 20
68.82348785600341
 30
0.0
 10
235.1791846017757
 20
68.87749203082844
 30
0.0
 10
235.1748013263397
 20
68.95453816810357
 30
0.0
 10
235.1992124604831
 20
69.04417046348681
 30
0.0
 10
235.2065130268215
 20
69.07097653135185
 30
0.0
  0
SPLINE
  5
291
330
1F
100
AcDbEntity
  8
0
  6
Continuous
 62
     7
370
    15
100
AcDbSpline
210
0.0
220
0.0
230
1.0
 70
     8
 71
     3
 72
    10
 73
     6
 74
     0
 42
0.000000001
 43
0.00000001
 40
0.0
 40
0.0
 40
0.0
 40
0.0
 40
0.5
 40
0.5
 40
1.0
 40
1.0
 40
1.0
 40
1.0
 10
235.2227494297898
 20
68.8758381806356
 30
0.0
 10
235.2028233792932
 20
68.79187770661757
 30
0.0
 10
235.1895291151522
 20
68.70643184410382
 30
0.0
 10
235.1722605890115
 20
68.53401837316653
 30
0.0
 10
235.1683371343895
 20
68.44690676690023
 30
0.0
 10
235.1682904925718
 20
68.35989600151393
 30
0.0
  0
SPLINE
  5
292
330
1F
100
AcDbEntity
  8
0
  6
Continuous
 62
     7
370
    15
100
AcDbSpline
210
0.0
220
0.0
230
1.0
 70
     8
 71
     3
 72
    24
 73
    20
 74
     0
 42
0.000000001
 43
0.00000001
 40
0.0
 40
0.0
 40
0.0
 40
0.0
 40
0.2499999999999952
 40
0.2499999999999952
 40
0.3749999999999937
 40
0.3749999999999937
 40
0.4374999999999931
 40
0.4374999999999931
 40
0.468749999999992
 40
0.468749999999992
 40
0.4999999999999909
 40
0.4999999999999909
 40
0.5624999999999933
 40
0.5624999999999933
 40
0.6249999999999958
 40
0.6249999999999958
 40
0.7499999999999981
 40
0.7499999999999981
 40
1.0
 40
1.0
 40
1.0
 40
1.0
 10
235.2065130268215
 20
69.07097653135185
 30
0.0
 10
235.2363540561067
 20
69.1782555879081
 30
0.0
 10
235.2661835961477
 20
69.28414016127876
 30
0.0
 10
235.310854753019
 20
69.43408820452905
 30
0.0
 10
235.3258075451108
 20
69.48308846729198
 30
0.0
 10
235.3473906834002
 20
69.54623874919473
 30
0.0
 10
235.3545203949298
 20
69.56587893342325
 30
0.0
 10
235.3633720202313
 20
69.58358886291124
 30
0.0
 10
235.3660101175011
 20
69.58730522939692
 30
0.0
 10
235.3691626555461
 20
69.58515688101473
 30
0.0
 10
235.3695426166829
 20
69.57899447194815
 30
0.0
 10
235.3675326914221
 20
69.55034938859541
 30
0.0
 10
235.3629560498237
 20
69.52204838360721
 30
0.0
 10
235.3530246637173
 20
69.46566937345793
 30
0.0
 10
235.3473344779823
 20
69.43619962550189
 30
0.0
 10
235.3297528773637
 20
69.34834520493554
 30
0.0
 10
235.3170720044354
 20
69.28912021188623
 30
0.0
 10
235.2778309408151
 20
69.11062690475643
 30
0.0
 10
235.2505274807786
 20
68.99288387058272
 30
0.0
 10
235.2227494297898
 20
68.87583818063561
 30
0.0
  0
ARC
  5
293
330
1F
100
AcDbEntity
  8
0
  6
Continuous
 62
     7
370
    15
100
AcDbCircle
 10
235.8854274668
 20
68.2812287468
 30
0.0
 40
0.720126765527076
100
AcDbArc
 50
174.7583590299
 51
234.4349468916
  0
ARC
  5
294
330
1F
100
AcDbEntity
  8
0
  6
Continuous
 62
     7
370
    15
100
AcDbCircle
 10
237.3807614119
 20
60.7813323694
 30
0.0
 40
2.215172042338859
100
AcDbArc
 50
122.6235698332
 51
177.1589486026
  0
LINE
  5
295
330
1F
100
AcDbEntity
  8
0
  6
Continuous
 62
     7
370
    15
100
AcDbLine
 10
236.1865238412
 20
62.6470182492
 30
0.0
 11
236.9306104728
 21
63.0765703184
 31
0.0
  0
SPLINE
  5
296
330
1F
100
AcDbEntity
  8
0
  6
Continuous
 62
     7
370
    15
100
AcDbSpline
210
0.0
220
0.0
230
1.0
 70
     8
 71
     3
 72
     8
 73
     4
 74
     0
 42
0.000000001
 43
0.00000001
 40
0.0
 40
0.0
 40
0.0
 40
0.0
 40
0.0001590976915385
 40
0.0001590976915385
 40
0.0001590976915385
 40
0.0001590976915385
 10
237.0080679247494
 20
63.06610942528118
 30
0.0
 10
236.9822477958017
 20
63.0695939746611
 30
0.0
 10
236.9564286518672
 20
63.07308095731652
 30
0.0
 10
236.9306104728288
 20
63.07657031835372
 30
0.0
  0
SPLINE
  5
297
330
1F
100
AcDbEntity
  8
0
  6
Continuous
 62
     7
370
    15
100
AcDbSpline
210
0.0
220
0.0
230
1.0
 70
     8
 71
     3
 72
    10
 73
     6
 74
     0
 42
0.000000001
 43
0.00000001
 40
0.0
 40
0.0
 40
0.0
 40
0.0
 40
0.5
 40
0.5
 40
1.0
 40
1.0
 40
1.0
 40
1.0
 10
235.2227494297898
 20
60.69118256493162
 30
0.0
 10
235.2028233792933
 20
60.72970412644796
 30
0.0
 10
235.1895291151525
 20
60.76166745364154
 30
0.0
 10
235.1722605890118
 20
60.82411087713947
 30
0.0
 10
235.1683371343896
 20
60.85453425435225
 30
0.0
 10
235.1682904925718
 20
60.88642494965249
 30
0.0
  0
LINE
  5
298
330
1F
100
AcDbEntity
  8
0
  6
Continuous
 62
     7
370
    15
100
AcDbLine
 10
235.1786570585
 20
61.4882951261
 30
0.0
 11
235.1822569839
 21
61.3526582439
 31
0.0
  0
ARC
  5
299
330
1F
100
AcDbEntity
  8
0
  6
Continuous
 62
     7
370
    15
100
AcDbCircle
 10
236.5153826572
 20
61.2759899843
 30
0.0
 40
1.353480254557394
100
AcDbArc
 50
122.9135798094
 51
170.9753897871
  0
LINE
  5
29A
330
1F
100
AcDbEntity
  8
0
  6
Continuous
 62
     7
370
    15
100
AcDbLine
 10
236.1865238412
 20
62.6470182492
 30
0.0
 11
235.7799374421
 21
62.4122246145
 31
0.0
  0
LINE
  5
29B
330
1F
100
AcDbEntity
  8
0
  6
Continuous
 62
     7
370
    15
100
AcDbLine
 10
235.278061254
 20
60.5951942452
 30
0.0
 11
235.2227494298
 21
60.6911825649
 31
0.0
  0
LWPOLYLINE
  5
29C
330
1F
100
AcDbEntity
  8
0
  6
Continuous
 62
     7
370
     0
100
AcDbPolyline
 90
       25
 70
   128
 43
0.0
 10
252.1422902828
 20
54.9472052814
 10
252.4388547449
 20
56.0969564662
 10
252.8039982266
 20
57.2548735093
 10
253.2352547271
 20
58.4131364043
 10
253.7297117506
 20
59.5639228093
 10
254.2840299757
 20
60.6994608748
 10
254.894465808
 20
61.8120817312
 10
255.5568966618
 20
62.8942712805
 10
256.2668488026
 20
63.9387209431
 10
257.0195275605
 20
64.9383770159
 10
257.8098497105
 20
65.88648831
 10
258.6324778028
 20
66.7766517446
 10
259.481856209
 20
67.6028555905
 10
260.352248642
 20
68.3595200706
 10
261.2377768965
 20
69.0415350422
 10
262.132460547
 20
69.6442945095
 10
263.0302573371
 20
70.1637277292
 10
263.9251039855
 20
70.5963267031
 10
264.810957135
 20
70.9391698688
 10
265.6818341661
 20
71.1899418312
 10
266.5318536005
 20
71.3469489988
 10
267.355274822
 20
71.4091310219
 10
268.1465368458
 20
71.3760679535
 10
268.9002958746
 20
71.2479830853
 10
269.6114613879
 20
71.02574144
  0
LWPOLYLINE
  5
29D
330
1F
100
AcDbEntity
  8
0
  6
Continuous
 62
     7
370
     0
100
AcDbPolyline
 90
       26
 70
   128
 43
0.0
 10
251.7086074472
 20
54.941767943
 10
251.9910519271
 20
56.0601232019
 10
252.33751051
 20
57.186909286
 10
252.7458486708
 20
58.315184086
 10
253.2135506451
 20
59.4379963207
 10
253.7377349292
 20
60.5484283635
 10
254.315172033
 20
61.6396388619
 10
254.9423043766
 20
62.7049048872
 10
255.6152682084
 20
63.7376633541
 10
256.3299174103
 20
64.7315514556
 10
257.0818490409
 20
65.6804458647
 10
257.8664304625
 20
66.5785004593
 10
258.6788278828
 20
67.4201823409
 10
259.5140361356
 20
68.2003059222
 10
260.3669095172
 20
68.9140648753
 10
261.2321934898
 20
69.5570617439
 10
262.104557054
 20
70.1253350354
 10
262.978625593
 20
70.6153836282
 10
263.8490139859
 20
71.0241883413
 10
264.7103597851
 20
71.3492305361
 10
265.5573562541
 20
71.5885076333
 10
266.3847850624
 20
71.7405454509
 10
267.1875484358
 20
71.8044072866
 10
267.960700563
 20
71.7796996887
 10
268.6994780674
 20
71.6665748803
 10
269.3993293536
 20
71.4657298213
  0
LWPOLYLINE
  5
29E
330
1F
100
AcDbEntity
  8
0
  6
Continuous
 62
     7
370
     0
100
AcDbPolyline
 90
       20
 70
   128
 43
0.0
 10
265.2030423511
 20
46.5622309883
 10
264.5314629559
 20
46.0094258714
 10
263.6578498147
 20
45.3650293779
 10
262.7772989265
 20
44.7984628446
 10
261.8955495866
 20
44.3134190651
 10
261.0183489017
 20
43.9130594803
 10
260.1514143311
 20
43.5999935724
 10
259.3003964211
 20
43.3762618568
 10
258.4708419756
 20
43.2433225825
 10
257.6681579031
 20
43.2020422273
 10
256.897575975
 20
43.2526898502
 10
256.1641187258
 20
43.3949353377
 10
255.4725667172
 20
43.6278515557
 10
254.8274273789
 20
43.949920392
 10
254.23290563
 20
44.3590426514
 10
253.6928764719
 20
44.8525517379
 10
253.2108597316
 20
45.4272310351
 10
252.7899971201
 20
46.0793348718
 10
252.4330317554
 20
46.8046129352
 10
252.1422902828
 20
47.5983379744
  0
ARC
  5
29F
330
1F
100
AcDbEntity
  8
0
  6
Continuous
 62
     7
370
     0
100
AcDbCircle
 10
266.6192849001
 20
65.1431611577
 30
0.0
 40
6.701300064528033
100
AcDbArc
 50
13.1170908933
 51
49.5620782406
  0
LWPOLYLINE
  5
2A0
330
1F
100
AcDbEntity
  8
0
  6
Continuous
 62
     7
370
     0
100
AcDbPolyline
 90
       32
 70
   128
 43
0.0
 10
255.5223587728
 20
53.2240436332
 10
255.5574964972
 20
54.0573403127
 10
255.6625604558
 20
54.9229244684
 10
255.8365064758
 20
55.8121935361
 10
256.0776058035
 20
56.7163095603
 10
256.3834622855
 20
57.6262870298
 10
256.7510361827
 20
58.5330821797
 10
257.1766743805
 20
59.4276828723
 10
257.6561466952
 20
60.301198164
 10
258.1846879157
 20
61.1449466675
 10
258.7570451618
 20
61.950542831
 10
259.36753009
 20
62.7099802779
 10
260.0100754269
 20
63.4157113777
 10
260.6782952682
 20
64.0607222578
 10
261.365548545
 20
64.63860251
 10
262.0650050253
 20
65.143608901
 10
262.7697131965
 20
65.5707224502
 10
263.4726693522
 20
65.9156983114
 10
264.1668871982
 20
66.1751079594
 10
264.8454672858
 20
66.3463732647
 10
265.501665581
 20
66.4277921156
 10
266.1289604906
 20
66.4185553351
 10
266.7211176758
 20
66.3187547224
 10
267.2722520125
 20
66.1293821409
 10
267.77688608
 20
65.8523196603
 10
268.2300045983
 20
65.4903208521
 10
268.6271042719
 20
65.046983423
 10
268.964238546
 20
64.5267134596
 10
269.2380568285
 20
63.9346816386
 10
269.4458377905
 20
63.2767718381
 10
269.5855164114
 20
62.5595226614
 10
269.5933452975
 20
62.5024712226
  0
LWPOLYLINE
  5
2A1
330
1F
100
AcDbEntity
  8
0
  6
Continuous
 62
     7
370
     0
100
AcDbPolyline
 90
       16
 70
   128
 43
0.0
 10
261.5939954364
 20
48.6456894245
 10
261.365548545
 20
48.5558880661
 10
260.6782952682
 20
48.3402825748
 10
260.0100754269
 20
48.2137832481
 10
259.36753009
 20
48.1776472931
 10
258.7570451618
 20
48.2322338451
 10
258.1846879157
 20
48.3770003984
 10
257.6561466952
 20
48.6105081981
 10
257.1766743805
 20
48.9304365386
 10
256.7510361827
 20
49.3336058284
 10
256.3834622855
 20
49.81600919
 10
256.0776058035
 20
50.372852282
 10
255.8365064758
 20
50.9986009477
 10
255.6625604558
 20
51.6870362156
 10
255.5574964972
 20
52.4313161067
 10
255.5223587728
 20
53.2240436332
  0
LWPOLYLINE
  5
2A2
330
1F
100
AcDbEntity
  8
0
  6
Continuous
 62
     7
370
     0
100
AcDbPolyline
 90
       23
 70
   128
 43
0.0
 10
258.3507858975
 20
53.2240436332
 10
258.3851191713
 20
53.962473427
 10
258.4877022333
 20
54.7315800375
 10
258.6572898641
 20
55.5220275524
 10
258.8918234995
 20
56.3242210096
 10
259.1884562189
 20
57.1284228673
 10
259.543587303
 20
57.9248712043
 10
259.9529059415
 20
58.7038982166
 10
260.4114435605
 20
59.4560475716
 10
260.9136341345
 20
60.1721891951
 10
261.4533817503
 20
60.8436300978
 10
262.0241346029
 20
61.4622198968
 10
262.6189645259
 20
62.0204497499
 10
263.2306510898
 20
62.5115435028
 10
263.8517692483
 20
62.9295399426
 10
264.4747794684
 20
63.2693651588
 10
265.0921192499
 20
63.5268941336
 10
265.6962949242
 20
63.6990008141
 10
266.279972617
 20
63.7835960584
 10
266.8360672718
 20
63.7796529947
 10
267.3578286528
 20
63.6872194865
 10
267.8389232836
 20
63.5074175515
 10
268.0073150776
 20
63.4180669795
  0
LWPOLYLINE
  5
2A3
330
1F
100
AcDbEntity
  8
0
  6
Continuous
 62
     7
370
     0
100
AcDbPolyline
 90
        9
 70
   128
 43
0.0
 10
260.0079652165
 20
49.5612851814
 10
259.9529059414
 20
49.5939574791
 10
259.543587303
 20
49.9003952508
 10
259.1884562189
 20
50.2868179657
 10
258.8918234995
 20
50.7485349755
 10
258.6572898641
 20
51.2799416612
 10
258.4877022333
 20
51.8745874654
 10
258.3851191713
 20
52.5252541936
 10
258.3507858975
 20
53.2240436332
  0
LWPOLYLINE
  5
2A4
330
1F
100
AcDbEntity
  8
0
  6
Continuous
 62
     7
370
     0
100
AcDbPolyline
 90
       24
 70
   128
 43
0.0
 10
242.3878503123
 20
56.1120873288
 10
242.4221817562
 20
57.1409310457
 10
242.5249644234
 20
58.2030698405
 10
242.6955646245
 20
59.2919552743
 10
242.9329305525
 20
60.4008740063
 10
243.2355987675
 20
61.5229891837
 10
243.6017032194
 20
62.6513825935
 10
244.0289867524
 20
63.7790973149
 10
244.5148150216
 20
64.8991806117
 10
245.0561927339
 20
66.0047267979
 10
245.6497821159
 20
67.0889198136
 10
246.2919234916
 20
68.1450752484
 10
246.9786578459
 20
69.1666815528
 10
247.7057512332
 20
70.1474401843
 10
248.4687208808
 20
71.0813044396
 10
249.2628628273
 20
71.9625167352
 10
250.0832809234
 20
72.7856441042
 10
250.9249170188
 20
73.5456116927
 10
251.782582147
 20
74.2377340478
 10
252.6509885174
 20
74.8577440049
 10
253.5247821159
 20
75.4018189966
 10
254.3985757144
 20
75.8666046195
 10
255.2669820848
 20
76.2492353158
 10
255.4579970572
 20
76.3226011382
  0
ARC
  5
2A5
330
1F
100
AcDbEntity
  8
0
  6
Continuous
 62
     7
370
     0
100
AcDbCircle
 10
255.0390400104
 20
56.0422951289
 30
0.0
 40
12.65138220629222
100
AcDbArc
 50
179.6839223799
 51
190.0604508419
  0
LWPOLYLINE
  5
2A6
330
1F
100
AcDbEntity
  8
0
  6
Continuous
 62
     7
370
     0
100
AcDbPolyline
 90
       19
 70
   128
 43
0.0
 10
250.0564233542
 20
56.8739873721
 10
250.3220592075
 20
57.9417448104
 10
250.6547363635
 20
59.0184737214
 10
251.051995329
 20
60.0962138132
 10
251.5108991556
 20
61.1669973185
 10
252.0280551525
 20
62.2229078997
 10
252.5996399686
 20
63.2561391759
 10
253.2214278586
 20
64.2590524344
 10
253.8888219246
 20
65.224233105
 10
254.5968881005
 20
66.1445455757
 10
255.3403916301
 20
67.0131859464
 10
256.1138357675
 20
67.8237323306
 10
256.9115024152
 20
68.5701923326
 10
257.7274943977
 20
69.2470473493
 10
258.5557790597
 20
69.8492933695
 10
259.3902328659
 20
70.3724779689
 10
260.224686672
 20
70.8127332267
 10
261.0529713341
 20
71.1668043214
 10
261.2024865082
 20
71.2217281315
  0
LWPOLYLINE
  5
2A7
330
1F
100
AcDbEntity
  8
0
  6
Continuous
 62
     7
370
     0
100
AcDbPolyline
 90
       22
 70
   128
 43
0.0
 10
249.6306051962
 20
57.5221323356
 10
249.9324973663
 20
58.6056443478
 10
250.2996750563
 20
59.6942290212
 10
250.7295255506
 20
60.7801403453
 10
251.2189901744
 20
61.8556513321
 10
251.7645860584
 20
62.9131089992
 10
252.3624309217
 20
63.9449888256
 10
253.0082706968
 20
64.9439482936
 10
253.6975098003
 20
65.9028791363
 10
254.4252438334
 20
66.8149579172
 10
255.18629448
 20
67.6736945834
 10
255.975246354
 20
68.4729786474
 10
256.7864855332
 20
69.2071226665
 10
257.6142395066
 20
69.8709027134
 10
258.4526182489
 20
70.4595955475
 10
259.2956561327
 20
70.9690122242
 10
260.1373543778
 20
71.3955279019
 10
260.9717237362
 20
71.7361076353
 10
261.7928271098
 20
71.9883279711
 10
262.5948217972
 20
72.1503941922
 10
263.3720010678
 20
72.2211530888
 10
263.521882664
 20
72.2242739027
  0
LINE
  5
2A8
330
1F
100
AcDbEntity
  8
0
  6
Continuous
 62
     7
370
     0
100
AcDbLine
 10
267.2249760014
 20
47.6310144244
 30
0.0
 11
268.2502808341
 21
47.0391185433
 31
0.0
  0
LINE
  5
2A9
330
1F
100
AcDbEntity
  8
0
  6
Continuous
 62
     7
370
     0
100
AcDbLine
 10
244.0374869518
 20
55.5745238361
 30
0.0
 11
245.8349958705
 21
56.6122036473
 31
0.0
  0
ARC
  5
2AA
330
1F
100
AcDbEntity
  8
0
  6
Continuous
 62
     7
370
     0
100
AcDbCircle
 10
258.7549151898
 20
49.6210796243
 30
0.0
 40
7.332391343282955
100
AcDbArc
 50
196.0577079662
 51
216.4275953754
  0
LWPOLYLINE
  5
2AB
330
1F
100
AcDbEntity
  8
0
  6
Continuous
 62
     7
370
     0
100
AcDbPolyline
 90
       22
 70
   128
 43
0.0
 10
235.1682904926
 20
68.3598960015
 10
235.4990525503
 20
69.3222193532
 10
235.8901568272
 20
70.2807607936
 10
236.338253104
 20
71.2273094083
 10
236.8395029656
 20
72.1537570139
 10
237.3896126801
 20
73.0521676133
 10
237.9838699798
 20
73.9148453758
 10
238.6171844268
 20
74.7344005601
 10
239.2841310173
 20
75.5038128149
 10
239.9789966531
 20
76.2164913159
 10
240.69582908
 20
76.8663312231
 10
241.4284878751
 20
77.4477659747
 10
242.170697046
 20
77.9558149714
 10
242.9160987916
 20
78.3861262396
 10
243.6583079625
 20
78.7350137114
 10
244.3909667576
 20
78.9994887988
 10
245.1077991845
 20
79.1772859951
 10
245.8026648203
 20
79.2668822802
 10
246.4696114108
 20
79.2675101681
 10
247.1029258578
 20
79.17916428
 10
247.6971831576
 20
79.0026013914
 10
247.9334233839
 20
78.9026910739
  0
ARC
  5
2AC
330
1F
100
AcDbEntity
  8
0
  6
Continuous
 62
     7
370
     0
100
AcDbCircle
 10
239.0863492845
 20
62.7053893181
 30
0.0
 40
4.319700923715811
100
AcDbArc
 50
204.903152445
 51
234.3840628426
  0
LINE
  5
2AD
330
1F
100
AcDbEntity
  8
0
  6
Continuous
 62
     7
370
     0
100
AcDbLine
 10
244.0374869518
 20
54.7579830242
 30
0.0
 11
245.8349958705
 21
55.7956628354
 31
0.0
  0
LINE
  5
2AE
330
1F
100
AcDbEntity
  8
0
  6
Continuous
 62
     7
370
     0
100
AcDbLine
 10
247.3245454039
 20
50.1237657827
 30
0.0
 11
248.6634229953
 21
50.8966833642
 31
0.0
  0
LINE
  5
2AF
330
1F
100
AcDbEntity
  8
0
  6
Continuous
 62
     7
370
     0
100
AcDbLine
 10
251.0758027168
 20
49.5227080774
 30
0.0
 11
250.8413118813
 21
50.206816181
 31
0.0
  0
ARC
  5
2B0
330
1F
100
AcDbEntity
  8
0
  6
Continuous
 62
     7
370
     0
100
AcDbCircle
 10
256.6507047274
 20
52.5246926348
 30
0.0
 40
6.852876315971893
100
AcDbArc
 50
195.7901562857
 51
209.3796230762
  0
LINE
  5
2B1
330
1F
100
AcDbEntity
  8
0
  6
Continuous
 62
     7
370
     0
100
AcDbLine
 10
272.5989875384
 20
50.7333652493
 30
0.0
 11
273.6242923712
 21
50.1414693683
 31
0.0
  0
ARC
  5
2B2
330
1F
100
AcDbEntity
  8
0
  6
Continuous
 62
     7
370
     0
100
AcDbCircle
 10
255.8245221292
 20
52.2769311469
 30
0.0
 40
6.541407960819875
100
AcDbArc
 50
198.759244907
 51
214.0940098194
  0
LINE
  5
2B3
330
1F
100
AcDbEntity
  8
0
  6
Continuous
 62
     7
370
     0
100
AcDbLine
 10
266.377971682
 20
73.2096166922
 30
0.0
 11
265.8369827041
 21
72.8973104029
 31
0.0
  0
ARC
  5
2B4
330
1F
100
AcDbEntity
  8
0
  6
Continuous
 62
     7
370
     0
100
AcDbCircle
 10
238.9307282216
 20
66.8638053901
 30
0.0
 40
1.102095792745937
100
AcDbArc
 50
159.4111972489
 51
213.1915491986
  0
ARC
  5
2B5
330
1F
100
AcDbEntity
  8
0
  6
Continuous
 62
     7
370
     0
100
AcDbCircle
 10
237.5989174127
 20
66.6923205674
 30
0.0
 40
0.6345057597327404
100
AcDbArc
 50
41.9989524423
 51
61.7721687695
  0
LINE
  5
2B6
330
1F
100
AcDbEntity
  8
0
  6
Continuous
 62
     7
370
     0
100
AcDbLine
 10
237.8990251851
 20
67.2513669734
 30
0.0
 11
238.0085720367
 21
67.6621647342
 31
0.0
  0
LINE
  5
2B7
330
1F
100
AcDbEntity
  8
0
  6
Continuous
 62
     7
370
     0
100
AcDbLine
 10
237.8990251851
 20
67.2513669734
 30
0.0
 11
237.0969804468
 21
67.7143775453
 31
0.0
  0
LINE
  5
2B8
330
1F
100
AcDbEntity
  8
0
  6
Continuous
 62
     7
370
     0
100
AcDbLine
 10
235.2227494298
 20
68.8758381806
 30
0.0
 11
235.2065130268
 21
69.0709765314
 31
0.0
  0
ARC
  5
2B9
330
1F
100
AcDbEntity
  8
0
  6
Continuous
 62
     7
370
     0
100
AcDbCircle
 10
237.6890652036
 20
58.5987476611
 30
0.0
 40
0.431491200144789
100
AcDbArc
 50
27.8850837496
 51
60.8831993912
  0
ARC
  5
2BA
330
1F
100
AcDbEntity
  8
0
  6
Continuous
 62
     7
370
     0
100
AcDbCircle
 10
239.1387638804
 20
59.3708058568
 30
0.0
 40
1.301173266867298
100
AcDbArc
 50
165.9701785416
 51
197.6766607319
  0
LINE
  5
2BB
330
1F
100
AcDbEntity
  8
0
  6
Continuous
 62
     7
370
     0
100
AcDbLine
 10
237.5072540194
 20
61.8845769464
 30
0.0
 11
236.1865238412
 21
62.6470182492
 31
0.0
  0
LINE
  5
2BC
330
1F
100
AcDbEntity
  8
0
  6
Continuous
 62
     7
370
     0
100
AcDbLine
 10
237.8990251851
 20
58.9757111368
 30
0.0
 11
237.0969804468
 21
59.4387217087
 31
0.0
  0
LINE
  5
2BD
330
1F
100
AcDbEntity
  8
0
  6
Continuous
 62
     7
370
     0
100
AcDbLine
 10
237.8990251851
 20
58.9757111368
 30
0.0
 11
238.0085720367
 21
58.6913934787
 31
0.0
  0
OLE2FRAME
  5
2BE
330
1F
100
AcDbEntity
  8
0
100
AcDbOle2Frame
 70
     2
  3
Paintbrush-Bild
 10
13.8511154363
 20
38.264191557
 30
0.0
 11
51.6290888628
 21
31.9806341108
 31
0.0
 71
     2
 72
     0
 73
     1
 90
    12928
310
80552BED0767C5B32B40DDAF6807D121434000000000000000006FFBDDFB85D0
310
4940DDAF6807D121434000000000000000006FFBDDFB85D04940416F4BD60AFB
310
3F4000000000000000002BED0767C5B32B40416F4BD60AFB3F40000000000000
310
0000000000000100000000010000010000000100000000000100000000320000
310
D0CF11E0A1B11AE1000000000000000000000000000000003E000300FEFF0900
310
0600000000000000000000000100000001000000000000000010000002000000
310
01000000FEFFFFFF0000000000000000FFFFFFFFFFFFFFFFFFFFFFFFFFFFFFFF
310
FFFFFFFFFFFFFFFFFFFFFFFFFFFFFFFFFFFFFFFFFFFFFFFFFFFFFFFFFFFFFFFF
310
FFFFFFFFFFFFFFFFFFFFFFFFFFFFFFFFFFFFFFFFFFFFFFFFFFFFFFFFFFFFFFFF
310
FFFFFFFFFFFFFFFFFFFFFFFFFFFFFFFFFFFFFFFFFFFFFFFFFFFFFFFFFFFFFFFF
310
FFFFFFFFFFFFFFFFFFFFFFFFFFFFFFFFFFFFFFFFFFFFFFFFFFFFFFFFFFFFFFFF
310
FFFFFFFFFFFFFFFFFFFFFFFFFFFFFFFFFFFFFFFFFFFFFFFFFFFFFFFFFFFFFFFF
310
FFFFFFFFFFFFFFFFFFFFFFFFFFFFFFFFFFFFFFFFFFFFFFFFFFFFFFFFFFFFFFFF
310
FFFFFFFFFFFFFFFFFFFFFFFFFFFFFFFFFFFFFFFFFFFFFFFFFFFFFFFFFFFFFFFF
310
FFFFFFFFFFFFFFFFFFFFFFFFFFFFFFFFFFFFFFFFFFFFFFFFFFFFFFFFFFFFFFFF
310
FFFFFFFFFFFFFFFFFFFFFFFFFFFFFFFFFFFFFFFFFFFFFFFFFFFFFFFFFFFFFFFF
310
FFFFFFFFFFFFFFFFFFFFFFFFFFFFFFFFFFFFFFFFFFFFFFFFFFFFFFFFFFFFFFFF
310
FFFFFFFFFFFFFFFFFFFFFFFFFFFFFFFFFFFFFFFFFFFFFFFFFFFFFFFFFFFFFFFF
310
FFFFFFFFFFFFFFFFFFFFFFFFFFFFFFFFFFFFFFFFFFFFFFFFFFFFFFFFFFFFFFFF
310
FFFFFFFFFFFFFFFFFFFFFFFFFFFFFFFFFFFFFFFFFFFFFFFFFFFFFFFFFFFFFFFF
310
FDFFFFFFFEFFFFFFFEFFFFFFFEFFFFFF05000000060000000700000008000000
310
090000000A0000000B0000000C0000000D0000000E0000000F00000010000000
310
11000000120000001300000014000000150000001600000017000000FEFFFFFF
310
FFFFFFFFFFFFFFFFFFFFFFFFFFFFFFFFFFFFFFFFFFFFFFFFFFFFFFFFFFFFFFFF
310
FFFFFFFFFFFFFFFFFFFFFFFFFFFFFFFFFFFFFFFFFFFFFFFFFFFFFFFFFFFFFFFF
310
FFFFFFFFFFFFFFFFFFFFFFFFFFFFFFFFFFFFFFFFFFFFFFFFFFFFFFFFFFFFFFFF
310
FFFFFFFFFFFFFFFFFFFFFFFFFFFFFFFFFFFFFFFFFFFFFFFFFFFFFFFFFFFFFFFF
310
FFFFFFFFFFFFFFFFFFFFFFFFFFFFFFFFFFFFFFFFFFFFFFFFFFFFFFFFFFFFFFFF
310
FFFFFFFFFFFFFFFFFFFFFFFFFFFFFFFFFFFFFFFFFFFFFFFFFFFFFFFFFFFFFFFF
310
FFFFFFFFFFFFFFFFFFFFFFFFFFFFFFFFFFFFFFFFFFFFFFFFFFFFFFFFFFFFFFFF
310
FFFFFFFFFFFFFFFFFFFFFFFFFFFFFFFFFFFFFFFFFFFFFFFFFFFFFFFFFFFFFFFF
310
FFFFFFFFFFFFFFFFFFFFFFFFFFFFFFFFFFFFFFFFFFFFFFFFFFFFFFFFFFFFFFFF
310
FFFFFFFFFFFFFFFFFFFFFFFFFFFFFFFFFFFFFFFFFFFFFFFFFFFFFFFFFFFFFFFF
310
FFFFFFFFFFFFFFFFFFFFFFFFFFFFFFFFFFFFFFFFFFFFFFFFFFFFFFFFFFFFFFFF
310
FFFFFFFFFFFFFFFFFFFFFFFFFFFFFFFFFFFFFFFFFFFFFFFFFFFFFFFFFFFFFFFF
310
FFFFFFFFFFFFFFFFFFFFFFFFFFFFFFFFFFFFFFFFFFFFFFFFFFFFFFFFFFFFFFFF
310
52006F006F007400200045006E00740072007900000000000000000000000000
310
0000000000000000000000000000000000000000000000000000000000000000
310
16000500FFFFFFFFFFFFFFFF020000000A00030000000000C000000000000046
310
000000000000000000000000508CAEEB8E03D20103000000C000000000000000
310
01004F006C006500000000000000000000000000000000000000000000000000
310
0000000000000000000000000000000000000000000000000000000000000000
310
0A000200FFFFFFFFFFFFFFFFFFFFFFFF00000000000000000000000000000000
310
0000000000000000000000000000000000000000000000001400000000000000
310
010043006F006D0070004F0062006A0000000000000000000000000000000000
310
0000000000000000000000000000000000000000000000000000000000000000
310
120002010100000003000000FFFFFFFF00000000000000000000000000000000
310
0000000000000000000000000000000000000000010000004D00000000000000
310
01004F006C006500310030004E00610074006900760065000000000000000000
310
0000000000000000000000000000000000000000000000000000000000000000
310
1A000200FFFFFFFFFFFFFFFFFFFFFFFF00000000000000000000000000000000
310
0000000000000000000000000000000000000000040000002426000000000000
310
FEFFFFFF02000000FEFFFFFFFFFFFFFFFFFFFFFFFFFFFFFFFFFFFFFFFFFFFFFF
310
FFFFFFFFFFFFFFFFFFFFFFFFFFFFFFFFFFFFFFFFFFFFFFFFFFFFFFFFFFFFFFFF
310
FFFFFFFFFFFFFFFFFFFFFFFFFFFFFFFFFFFFFFFFFFFFFFFFFFFFFFFFFFFFFFFF
310
FFFFFFFFFFFFFFFFFFFFFFFFFFFFFFFFFFFFFFFFFFFFFFFFFFFFFFFFFFFFFFFF
310
FFFFFFFFFFFFFFFFFFFFFFFFFFFFFFFFFFFFFFFFFFFFFFFFFFFFFFFFFFFFFFFF
310
FFFFFFFFFFFFFFFFFFFFFFFFFFFFFFFFFFFFFFFFFFFFFFFFFFFFFFFFFFFFFFFF
310
FFFFFFFFFFFFFFFFFFFFFFFFFFFFFFFFFFFFFFFFFFFFFFFFFFFFFFFFFFFFFFFF
310
FFFFFFFFFFFFFFFFFFFFFFFFFFFFFFFFFFFFFFFFFFFFFFFFFFFFFFFFFFFFFFFF
310
FFFFFFFFFFFFFFFFFFFFFFFFFFFFFFFFFFFFFFFFFFFFFFFFFFFFFFFFFFFFFFFF
310
FFFFFFFFFFFFFFFFFFFFFFFFFFFFFFFFFFFFFFFFFFFFFFFFFFFFFFFFFFFFFFFF
310
FFFFFFFFFFFFFFFFFFFFFFFFFFFFFFFFFFFFFFFFFFFFFFFFFFFFFFFFFFFFFFFF
310
FFFFFFFFFFFFFFFFFFFFFFFFFFFFFFFFFFFFFFFFFFFFFFFFFFFFFFFFFFFFFFFF
310
FFFFFFFFFFFFFFFFFFFFFFFFFFFFFFFFFFFFFFFFFFFFFFFFFFFFFFFFFFFFFFFF
310
FFFFFFFFFFFFFFFFFFFFFFFFFFFFFFFFFFFFFFFFFFFFFFFFFFFFFFFFFFFFFFFF
310
FFFFFFFFFFFFFFFFFFFFFFFFFFFFFFFFFFFFFFFFFFFFFFFFFFFFFFFFFFFFFFFF
310
FFFFFFFFFFFFFFFFFFFFFFFFFFFFFFFFFFFFFFFFFFFFFFFFFFFFFFFFFFFFFFFF
310
0100000200000000000000000000000000000000000000000000000000000000
310
0000000000000000000000000000000000000000000000000000000000000000
310
0100FEFF030A0000FFFFFFFF0A00030000000000C00000000000004607000000
310
5042727573680007000000504272757368000700000050427275736800F439B2
310
7100000000000000000000000000000000000000000000000000000000000000
310
0000000000000000000000000000000000000000000000000000000000000000
310
0000000000000000000000000000000000000000000000000000000000000000
310
0000000000000000000000000000000000000000000000000000000000000000
310
0000000000000000000000000000000000000000000000000000000000000000
310
0000000000000000000000000000000000000000000000000000000000000000
310
0000000000000000000000000000000000000000000000000000000000000000
310
0000000000000000000000000000000000000000000000000000000000000000
310
0000000000000000000000000000000000000000000000000000000000000000
310
0000000000000000000000000000000000000000000000000000000000000000
310
0000000000000000000000000000000000000000000000000000000000000000
310
0000000000000000000000000000000000000000000000000000000000000000
310
20260000424D0E260000000000003E00000028000000B40200006E0000000100
310
01000000000000000000130B0000130B00000200000002000000000000FFFFFF
310
FFFFFFFFFFFFFFFFFFFFFFFFFFFFFFFFFFFFFFFFFFFFFFFFFFFFFFFFFFFFFFFF
310
FFFFFFFFFFFFFFFFFFFFFFFFFFFFFFFFFFFFFFFFFFFFFFFFFFFFFFFFFFFFFFFF
310
FFFFFFFFFFFFFFFFFFFFFFFFFFFFFFFFFFFFFFFFFFFFFFFFF000FFFFFFFFFFFF
310
FFFFFFFFFFFFFFFFFFFFFFFFFFFFFFFFFFFFFFFFFFFFFFFFFFFFFFFFFFFFFFFF
310
FFFFFFFFFFFFFFFFFFFFFFFFFFFFFFFFFFFFFFFFFFFFFFFFFFFFFFFFFFFFFFFF
310
FFFFFFFFFFFFFFFFFFFFFFFFFFFFFFFFF000FFFFFFFFFFFFFFFFFFFFFFFFFFFF
310
FFFFFFFFFFFFFFFFFFFFFFFFFFFFFFFFFFFFFFFFFFFFFFFFFFFFFFFFFFFFFFFF
310
FFFFFFFFFFFFFFFFFFFFFFFFFFFFFFFFFFFFFFFFFFFFFFFFFFFFFFFFFFFFFFFF
310
FFFFFFFFFFFFFFFFF000FFFFFFFFFFFFFFFFFFFFFFFFFFFFFFFFFFFFFFFFFFFF
310
FFFFFFFFFFFFFFFFFFFFFFFFFFFFFFFFFFFFFFFFFFFFFFFFFFFFFFFFFFFFFFFF
310
FFFFFFFFFFFFFFFFFFFFFFFFFFFFFFFFFFFFFFFFFFFFFFFFFFFFFFFFFFFFFFFF
310
F000FFFFFFFFFFFFFFFFFFFFFFFFFFFFFFFFFFFFFFFFFFFFFFFFFFFFFFFFFFFF
310
FFFFFFFFFFFFFFFFFFFFFFFFFFFFFFFFFFFFFFFFFFFFFFFFFFFFFFFFFFFFFFFF
310
FFFFFFFFFFFFFFFFFFFFFFFFFFFFFFFFFFFFFFFFFFFFFFFFF000FFFFFFFFFFFF
310
FFFFFFFFFFFFFFFFFFFFFFFFFFFFFFFFFFFFFFFFFFFFFFFFFFFFFFFFFFFFFFFF
310
FFFFFFFFFFFFFFFFFFFFFFFFFFFFFFFFFFFFFFFFFFFFFFFFFFFFFFFFFFFFFFFF
310
FFFFFFFFFFFFFFFFFFFFFFFFFFFFFFFFF000FFFFFFFFFFFFFFFFFFFFFFFFFFFF
310
FFFFFFFFFFFFFFFFFFFFFFFFFFFFFFFFFFFFFFFFFFFFFFFFFFFFFFFFFFFFFFFF
310
FFFFFFFFFFFFFFFFFFFFFFFFFFFFFFFFFFFFFFFFFFFFFFFFFFFFFFFFFFFFFFFF
310
FFFFFFFFFFFFFFFFF000FFFFFFFFFFFFFFFFFFFFFFFFFFFFFFFFFFFFFFFFFFFF
310
FFFFFFFFFFFFFFFFFFFFFFFFFFFFFFFFFFFFFFFFFFFFFFFFFFFFFFFFFFFFFFFF
310
FFFFFFFFFFFFFFFFFFFFFFFFFFFFFFFFFFFFFFFFFFFFFFFFFFFFFFFFFFFFFFFF
310
F000FFFFFFFFFFFFFFFFFFFFFFFFFFFFFFFFFFFFFFFFFFFFFFFFFFFFFFFFFFFF
310
FFFFFFFFFFFFFFFFFFFFFFFFFFFFFFFFFFFFFFFFFFFFFFFFFFFFFFFFFFFFFFFF
310
FFFFFFFFFFFFFFFFFFFFFFFFFFFFFFFFFFFFFFFFFFFFFFFFF000FFFFFFFFFFFF
310
FFFFFFFFFFFFFFFFFFFFFFFFFFFFFFFFFFFFFFFFFFFFFFFFFFFFFFFFFFFFFFFF
310
FFFFFFFFFFFFFFFFFFFFFFFFFFFFFFFFFFFFFFFFFFFFFFFFFFFFFFFFFFFFFFFF
310
FFFFFFFFFFFFFFFFFFFFFFFFFFFFFFFFF000FFFFFFFFFFFFFFFFFFFFFFFFFFFF
310
FFFFFFFFFFFFFFFFFFFFFFFFFFFFFFFFFFFFFFFFFFFFFFFFFFFFFFFFFFFFFFFF
310
FFFFFFFFFFFFFFFFFFFFFFFFFFFFFFFFFFFFFFFFFFFFFFFFFFFFFFFFFFFFFFFF
310
FFFFFFFFFFFFFFFFF000FFFFFFFFFFFFFFFFFFFFFFFFFFFFFFFFFFFFFFFFFFFF
310
FFFFFFFFFFFFFFFFFFFFFFFFFFFFFFFFFFFFFFFFFFFFFFFFFFFFFFFFFFFFFFFF
310
FFFFFFFFFFFFFFFFFFFFFFFFFFFFFFFFFFFFFFFFFFFFFFFFFFFFFFFFFFFFFFFF
310
F000FFFFFFFFFFFFFFFFFFFFFFFFFFFFFFFFFFFFFFFFFFFFFFFFFFFFFFFFFFFF
310
FFFFFFFFFFFFFFFFFFFFFFFFFFFFFFFFFFFFFFFFFFFFFFFFFFFFFFFFFFFFFFFF
310
FFFFFFFFFFFFFFFFFFFFFFFFFFFFFFFFFFFFFFFFFFFFFFFFF000FFFFFFFFFFFF
310
FFFFFFFFFFFFFFFFFFFFFFFFFFFFFFFFFFFFFFFFFFFFFFFFFFFFFFFFFFFFFFFF
310
FFFFFFFFFFFFFFFFFFFFFFFFFFFFFFFFFFFFFFFFFFFFFFFFFFFFFFFFFFFFFFFF
310
FFFFFFFFFFFFFFFFFFFFFFFFFFFFFFFFF000FFFFFFFFFFFFFFFFFFFFFFFFFFFF
310
FFFFFFFFFFFFFFFFFFFFFFFFFFFFFFFFFFFFFFFFFFFFFFFFFFFFFFFFFFFFFFFF
310
FFFFFFFFFFFFFFFFFFFFFFFFFFFFFFFFFFFFFFFFFFFFFFFFFFFFFFFFFFFFFFFF
310
FFFFFFFFFFFFFFFFF000FFFFFFFFFFFFFFFFFFFFFFFFFFFFFFFFFFFFFFFFFFFF
310
FFFFFFFFFFFFFFFFFFFFFFFFFFFFFFFFFFFFFFFFFFFFFFFFFFFFFFFFFFFFFFFF
310
FFFFFFFFFFFFFFFFFFFFFFFFFFFFFFFFFFFFFFFFFFFFFFFFFFFFFFFFFFFFFFFF
310
F000FFFFFFFFFFFFFFFFFFFFFFFFFFFFFFFFFFFFFFFFFFFFFFFFFFFFFFFFFFFF
310
FFFFFFFFFFFFFFFFFFFFFFFFFFFFFFFFFFFFFFFFFFFFFFFFFFFFFFFFFFFFFFFF
310
FFFFFFFFFFFFFFFFFFFFFFFFFFFFFFFFFFFFFFFFFFFFFFFFF000FFFFFFFFFFFF
310
FFFFFFFFFFFFFFFFFFFFFFFFFFFFFFFFFFFFFFFFFFFFFFFFFFFFFFFFFFFFFFFF
310
FFFFFFFFFFFFFFFFFFFFFFFFFFFFFFFFFFFFFFFFFFFFFFFFFFFFFFFFFFFFFFFF
310
FFFFFFFFFFFFFFFFFFFFFFFFFFFFFFFFF000FFFFFFFFFFFFFFFFFFFFFFFFFFFF
310
FFFFFFFFFFFFFFFFFFFFFFFFFFFFFFFFFFFFFFFFFFFFFFFFFFFFFFFFFFFFFFFF
310
FFFFFFFFFFFFFFFFFFFFFFFFFFFFFFFFFFFFFFFFFFFFFFFFFFFFFFFFFFFFFFFF
310
FFFFFFFFFFFFFFFFF000FFFFF80003FFFFFFFFFFFFFFFFFFFFFFFFFFFFFFFFFF
310
FFFFF00007FFFFFFFFFF00007FFFFFF800000000000000007FFFFFFFFFFFFFFF
310
FFFFFFFC001FFFFFFFFFFFFFFC001FFFFFFFFFFFFFFFFFFFFFFFFFFE0007FFFF
310
F000FFFF8000007FFFFFFFF8000FFFFFC0007FFFFF80007FFFFF0000007FFFFF
310
FFF8000007FFFFF800000000000000007FFFFFF0001FFFFFFFFFFFC00001FFFF
310
FFFFFFFFC00001FFFFFFFF000000000003FFFFE000007FFFF000FFFE0000000F
310
FFFFFFF0000FFFFF80007FFFFF80007FFFFC0000001FFFFFFFC0000001FFFFF8
310
00000000000000007FFFFFF0001FFFFFFFFFFE0000003FFFFFFFFFFE0000003F
310
FFFFFF000000000003FFFF0000000FFFF000FFF800000003FFFFFFF00007FFFF
310
80007FFFFF80007FFFF000000007FFFFFF000000003FFFF80000000000000000
310
7FFFFFF0001FFFFFFFFFF80000000FFFFFFFFFF80000000FFFFFFF0000000000
310
03FFFC00000003FFF000FFE000000000FFFFFFF00007FFFF80003FFFFF80007F
310
FFC000000001FFFFFC000000001FFFF800000000000000007FFFFFF0001FFFFF
310
FFFFE000000003FFFFFFFFE000000003FFFFFF000000000003FFF000000000FF
310
F000FF80000000007FFFFFF00007FFFF80003FFFFF80007FFF8000000000FFFF
310
F80000000007FFF800000000000000007FFFFFF0001FFFFFFFFFC000000001FF
310
FFFFFFC000000001FFFFFF000000000003FFC0000000007FF000FF0000000000
310
3FFFFFE00007FFFF00003FFFFF80007FFE00000000003FFFF00000000003FFF8
310
00000000000000007FFFFFF0001FFFFFFFFF8000000000FFFFFFFF8000000000
310
FFFFFF000000000003FF80000000003FF000FE00000000001FFFFFE00003FFFF
310
00003FFFFF80007FFC00000000001FFFE00000000001FFF8000001FFFE000000
310
7FFFFFF0001FFFFFFFFE00000000003FFFFFFE00000000003FFFFF0000000000
310
03FF00000000001FF000FC00000000000FFFFFE00003FFFF00001FFFFF80007F
310
F800000000001FFFC00000000000FFF8000001FFFE0000007FFFFFF0001FFFFF
310
FFFC00000000001FFFFFFC00000000001FFFFF000000000003FE00000000000F
310
F000F8000000000007FFFFE00003FFFF00001FFFFF80007FF800000000000FFF
310
800000000000FFF8000001FFFE0000007FFFFFF0001FFFFFFFF800000000000F
310
FFFFF800000000000FFFFF000000000003FC000000000007F000F80000000000
310
03FFFFC00003FFFE00001FFFFF80007FF0000000000007FF0000000000007FF8
310
000001FFFE0000007FFFFFF0001FFFFFFFF0000000000007FFFFF00000000000
310
07FFFF000000000003F8000000000003F000F0000000000003FFFFC00001FFFE
310
00001FFFFF80007FE0000000000007FE0000000000003FF8000001FFFE000000
310
7FFFFFF0001FFFFFFFF0000000000007FFFFF0000000000007FFFF0000000000
310
03F800001F800003F000E00001FFF00001FFFFC00001FFFE00000FFFFF80007F
310
E00001FFE00003FE00001FFF00003FF8000001FFFE0000007FFFFFF0001FFFFF
310
FFE000003E000003FFFFE000003E000003FFFF000000000003F00001FFF80001
310
F000E00007FFFC0001FFFFC00001FFFE00000FFFFF80007FC0000FFFFC0003FC
310
0000FFFFC0001FF8000001FFFE0000007FFFFFF0001FFFFFFFC00003FFE00001
310
FFFFC00003FFE00001FFFF0001FFFFFFFFF00007FFFE0001F000E0000FFFFF00
310
00FFFF800001FFFC00000FFFFF80007FC0001FFFFE0001FC0001FFFFE0001FF8
310
000001FFFE0000007FFFFFF0001FFFFFFF80000FFFF80000FFFF80000FFFF800
310
00FFFF0003FFFFFFFFE0000FFFFF8000F000C0003FFFFF8000FFFF800000FFFC
310
000007FFFF80007F80003FFFFF0001FC0003FFFFF0001FF8000001FFFE000000
310
7FFFFFF0001FFFFFFF80003FFFFE0000FFFF80003FFFFE0000FFFF0003FFFFFF
310
FFE0003FFFFF8000F000C0003FFFFF8000FFFF800000FFFC000007FFFF80007F
310
80007FFFFF8001F80007FFFFF8000FF8000001FFFE0000007FFFFFF0001FFFFF
310
FF00007FFFFF00007FFF00007FFFFF00007FFF0003FFFFFFFFE0003FFFFFC000
310
F000C0007FFFFFC000FFFF000000FFFC000007FFFF80007F8000FFFFFF8000F8
310
000FFFFFF8000FF8000001FFFE0000007FFFFFF0001FFFFFFF0000FFFFFF8000
310
7FFF0000FFFFFF80007FFF0003FFFFFFFFC0007FFFFFC00070008000FFFFFFC0
310
00FFFF000000FFF8000007FFFF80007F8000FFFFFF8000F8000FFFFFF8000FF8
310
000001FFFE0000007FFFFFF0001FFFFFFE0001FFFFFFC0003FFE0001FFFFFFC0
310
003FFF0003FFFFFFFFC0007FFFFFE00070008000FFFFFFC0007FFF0000007FF8
310
000003FFFF80007F0001FFFFFF8000F8000FFFFFF8000FF8000001FFFE000000
310
7FFFFFF0001FFFFFFE0001FFFFFFC0003FFE0001FFFFFFC0003FFF0003FFFFFF
310
FFC000FFFFFFE00070008000FFFFFFC0007FFF0000007FF8000003FFFF80007F
310
0001FFFFFF8000F8001FFFFFF8000FF8000001FFFE0000007FFFFFF0001FFFFF
310
FE0003FFFFFFE0003FFE0003FFFFFFE0003FFF0003FFFFFFFFC000FFFFFFE000
310
70008000FFFFFFC0007FFE0000007FF8000003FFFF80007F0001FFFFFF8000F0
310
001FFFFFF8000FF8000001FFFE0000007FFFFFF0001FFFFFFC0003FFFFFFE000
310
1FFC0003FFFFFFE0001FFF0003FFFFFFFFC000FFFFFFC00070008000FFFFFF80
310
007FFE0000007FF0000003FFFF80007F0001FFFFFF0000F0001FFFFFF8000FF8
310
000001FFFE0000007FFFFFF0001FFFFFFC0007FFFFFFF0001FFC0007FFFFFFF0
310
001FFF0003FFFFFFFFC000FFFFFFC00070008001FFFFFF0000FFFE0000003FF0
310
000001FFFF80007F0001FFFFFF0000F8001FFFFFF0000FF8000001FFFE000000
310
7FFFFFF0001FFFFFFC0007FFFFFFF0001FFC0007FFFFFFF0001FFF0003FFFFFF
310
FFC001FFFFFF80007000FFFFFFFFFE0000FFFE0008003FF0008001FFFF80007F
310
FFFFFFFFFC0000FFFFFFFFFFE0000FF8000001FFFE0000007FFFFFF0001FFFFF
310
F8000FFFFFFFF8000FF8000FFFFFFFF8000FFF0003FFFFFFFFFFFFFFFFFF0000
310
7000FFFFFFFFFC0000FFFC0008003FF0008001FFFF80007FFFFFFFFFF80001FF
310
FFFFFFFF80000FF8000001FFFE0000007FFFFFF0001FFFFFF8000FFFFFFFF800
310
0FF8000FFFFFFFF8000FFF0003FFFFFFFFFFFFFFFFFE0000F000FFFFFFFFE000
310
00FFFC000C003FE000C001FFFF80007FFFFFFFFFC00001FFFFFFFFFE00001FF8
310
000001FFFE0000007FFFFFF0001FFFFFF8000FFFFFFFF8000FF8000FFFFFFFF8
310
000FFF0003FFFFFFFFFFFFFFFFF00000F000FFFFFFFE000001FFFC000C001FE0
310
00C000FFFF80007FFFFFFFFE000001FFFFFFFFE000001FF80FFFFFFFFFFFFFC0
310
7FFFFFF0001FFFFFF8000FFFFFFFF8000FF8000FFFFFFFF8000FFF0003FFFFFF
310
FFFFFFFFFF800000F000FFFFFFC0000001FFFC001C001FE001C000FFFF80007F
310
FFFFFF80000003FFFFFFF80000001FF80FFFFFFFFFFFFFC07FFFFFF0001FFFFF
310
F8001FFFFFFFFC000FF8001FFFFFFFFC000FFF0003FFFFFFFFFFFFFFF0000001
310
F000FFFFF800000001FFF8001C001FE001C000FFFF80007FFFFFF800000003FF
310
FFFF800000003FF80FFFFFFFFFFFFFC07FFFFFF0001FFFFFF8001FFFFFFFFC00
310
0FF8001FFFFFFFFC000FFF0003FFFFFFFFFFFFFE00000001F000FFFFC0000000
310
03FFF8001E001FC001E000FFFF80007FFFFF8000000007FFFFFC000000003FF8
310
0FFFFFFFFFFFFFC07FFFFFF0001FFFFFF8001FFFFFFFFC000FF8001FFFFFFFFC
310
000FFF0003FFFFFFFFFFFFE000000003F000FFFE0000000007FFF8001E000FC0
310
01E0007FFF80007FFFFE0000000007FFFFE0000000007FF80FFFFFFFFFFFFFC0
310
7FFFFFF0001FFFFFF0001FFFFFFFFC0007F0001FFFFFFFFC0007FF0003FFFFFF
310
FFFFFF0000000003F000FFF80000000007FFF8001E000FC003E0007FFF80007F
310
FFF0000000000FFFFF8000000000FFF80FFFFFFFFFFFFFC07FFFFFF0001FFFFF
310
F0001FFFFFFFFC0007F0001FFFFFFFFC0007FF0003FFFFFFFFFFFC0000000007
310
F000FFE0000000000FFFF0003E000FC003E0007FFF80007FFFC0000000001FFF
310
FE0000000001FFF80FFFFFFFFFFFFFC07FFFFFF0001FFFFFF0001FFFFFFFFC00
310
07F0001FFFFFFFFC0007FF0003FFFFFFFFFFF0000000000FF000FFC000000000
310
1FFFF0003F000F8003F0003FFF80007FFF80000000003FFFF80000000003FFF8
310
0FFFFFFFFFFFFFC07FFFFFF0001FFFFFF0001FFFFFFFFC0007F0001FFFFFFFFC
310
0007FF0003FFFFFFFFFFE0000000001FF000FF00000000007FFFF0003F000780
310
03F0003FFF80007FFF00000000007FFFF00000000007FFF80FFFFFFFFFFFFFC0
310
7FFFFFF0001FFFFFF0001FFFFFFFFC0007F0001FFFFFFFFC0007FF0003FFFFFF
310
FFFF80000000007FF000FE0000000000FFFFE0003F00078007F0003FFF80007F
310
FE0000000001FFFFE0000000001FFFF80FFFFFFFFFFFFFC07FFFFFF0001FFFFF
310
F0001FFFFFFFFC0007F0001FFFFFFFFC0007FF0003FFFFFFFFFF0000000000FF
310
F000FC0000000003FFFFE0007F00078007F0003FFF80007FFC0000000007FFFF
310
C0000000007FFFF80FFFFFFFFFFFFFC07FFFFFF0001FFFFFF8001FFFFFFFFC00
310
0FF8001FFFFFFFFC000FFF0003FFFFFFFFFE0000000003FFF000FC000000000F
310
FFFFE0007F80070007F8001FFF80007FF8000000001FFFFF8000000001FFFFF8
310
0FFFFFFFFFFFFFC07FFFFFF0001FFFFFF8001FFFFFFFFC000FF8001FFFFFFFFC
310
000FFF0003FFFFFFFFFC000000000FFFF000F8000000007FFFFFE0007F800700
310
07F8001FFF80007FF000000000FFFFFF800000000FFFFFF80FFFFFFFFFFFFFC0
310
7FFFFFF0001FFFFFF8000FFFFFFFF8000FF8000FFFFFFFF8000FFF0003FFFFFF
310
FFFC000000007FFFF000F800000007FFFFFFC0007F8003000FF8001FFF80007F
310
F000000007FFFFFF000000007FFFFFF80FFFFFFFFFFFFFC07FFFFFF0001FFFFF
310
F8000FFFFFFFF8000FF8000FFFFFFFF8000FFF0003FFFFFFFFF80000000FFFFF
310
F000F0000000FFFFFFFFC000FF8003000FF8001FFF80007FE0000000FFFFFFFF
310
0000000FFFFFFFF8000001FFFE0000007FFFFFF0001FFFFFF8000FFFFFFFF800
310
0FF8000FFFFFFFF8000FFF0003FFFFFFFFF8000000FFFFFFF000F000000FFFFF
310
FFFFC000FFC002000FF8000FFF80007FE000001FFFFFFFFE000001FFFFFFFFF8
310
000001FFFE0000007FFFFFF0001FFFFFF8000FFFFFFFF8000FF8000FFFFFFFF8
310
000FFF0003FFFFFFFFF000001FFFFFFFF000E00000FFFFFFFFFFC000FFC00200
310
0FFC000FFF80007FE00001FFFFFFFFFE00001FFFFFFFFFF8000001FFFE000000
310
7FFFFFF0001FFFFFFC000FFFFFFFF8001FFC000FFFFFFFF8001FFF0003FFFFFF
310
FFF00001FFFFFFFFF000E00007FFFFFFFFFF8000FFC000001FFC000FFF80007F
310
C0000FFFFFFFFFFE0000FFFFFFFFFFF8000001FFFE0000007FFFFFF0001FFFFF
310
FC0007FFFFFFF0001FFC0007FFFFFFF0001FFF0003FFFFFFFFF00007FFFFFFFF
310
F000E0001FFFFFFFFFFF8000FFC000001FFC000FFF80007FC0003FFFFFFFFFFE
310
0001FFFFFFFFFFF8000001FFFE0000007FFFFFF0001FFFFFFC0007FFFFFFF000
310
1FFC0007FFFFFFF0001FFF0003FFFFFFFFF0001FFFFFFFFFF000E0003FFFFF00
310
03FF8001FFE000001FFC0007FF80007FC0007FFFFF0007FC0003FFFFF0003FF8
310
000001FFFE0000007FFFFFF0001FFFFFFC0003FFFFFFE0001FFC0003FFFFFFE0
310
001FFF0003FFFFFFFFF0003FFFFFFFFFF000E0003FFFFF0001FF8001FFE00000
310
1FFE0007FF80007FC0007FFFFE0003FC0007FFFFE0003FF8000001FFFE000000
310
7FFFFFF0001FFFFFFE0003FFFFFFE0003FFE0003FFFFFFE0003FFF0003FFFFFF
310
FFF0003FFFFF8001F000E0003FFFFF0001FF0001FFE000001FFE0007FF80007F
310
C0007FFFFE0003FC0007FFFFE0003FF8000001FFFE0000007FFFFFF0001FFFFF
310
FE0001FFFFFFC0003FFE0001FFFFFFC0003FFF0003FFFFFFFFF0003FFFFF0001
310
F000E0003FFFFF0003FF0001FFE000003FFE0007FF80007FC0007FFFFE0003FC
310
0007FFFFE0003FF8000001FFFE0000007FFFFFF0001FFFFFFF0001FFFFFFC000
310
7FFF0001FFFFFFC0007FFF0003FFFFFFFFF0003FFFFF0001F000E0003FFFFE00
310
03FF0003FFF000003FFE0003FF80007FC0007FFFFC0003FE0007FFFFE0003FF8
310
000001FFFE0000007FFFFFF0001FFFFFFF0000FFFFFF80007FFF0000FFFFFF80
310
007FFF0003FFFFFFFFF0003FFFFF0001F000E0003FFFFE0003FF0003FFF00000
310
3FFF0003FF80007FC0007FFFFC0007FE0007FFFFC0003FF8000001FFFE000000
310
7FFFFFF0001FFFFFFF80007FFFFF0000FFFF80007FFFFF0000FFFF0003FFFFFF
310
FFF0003FFFFF0003F000E0003FFFFC0003FE0003FFF000003FFF0003FF80007F
310
E0003FFFF80007FE0003FFFFC0007FF8000001FFFE0000007FFFFFF0001FFFFF
310
FF80003FFFFE0000FFFF80003FFFFE0000FFFF0003FFFFFFFFF0001FFFFE0003
310
F000F0001FFFF80003FE0003FFF000007FFF0001FF80007FE0003FFFF00007FE
310
0001FFFF80007FF8000001FFFE0000007FFFFFF0001FFFFFFFC0000FFFF80001
310
FFFFC0000FFFF80001FFFF0003FFFFFFFFF0001FFFFC0003F000F0000FFFF000
310
07FE0007FFF800007FFF0001FF80007FE0001FFFE00007FF0000FFFE00007FF8
310
000001FFFE0000007FFFFFF0001FFFFFFFC00003FFE00001FFFFC00003FFE000
310
01FFFF0003FFFFFFFFF8000FFFF80003F000F00003FFC00007FC0007FFF80000
310
7FFF8001FF80007FF00007FF80000FFF00007FF80000FFF8000001FFFE000000
310
7F80000000000001FFE000003E000003FFFFE000003E000003FFFF0003FFFFFF
310
FFF80003FFE00007F000F800000000000FFC0007FFF800007FFF8001FF80007F
310
F000000000000FFF000000000000FFF8000001FFFE0000007F80000000000001
310
FFF0000000000007FFFFF0000000000007FFFF0003FFFFFFFFFC00007E000007
310
F000F800000000000FFC0007FFF80000FFFF8000FF80007FF800000000001FFF
310
800000000001FFF8000001FFFE0000007F80000000000001FFF800000000000F
310
FFFFF800000000000FFFFF0003FFFFFFFFFC00000000000FF000FC0000000000
310
1FFC0007FFFC0000FFFF8000FF80007FF800000000003FFFC00000000001FFF8
310
000001FFFE0000007F80000000000001FFF800000000000FFFFFF80000000000
310
0FFFFF0003FFFFFFFFFE00000000001FF000FE00000000003FF8000FFFFC0000
310
FFFF8000FF80007FFC00000000003FFFC00000000003FFF8000001FFFE000000
310
7F80000000000001FFFC00000000001FFFFFFC00000000001FFFFF0003FFFFFF
310
FFFF00000000001FF000FF00000000003FF8000FFFFC0000FFFFC000FF80007F
310
FE00000000007FFFE00000000007FFF8000001FFFE0000007F80000000000001
310
FFFE00000000003FFFFFFE00000000003FFFFF0003FFFFFFFFFF80000000003F
310
F000FF80000000007FF8000FFFFC0001FFFFC0007F80007FFF0000000000FFFF
310
F0000000000FFFF800000000000000007F80000000000001FFFF8000000000FF
310
FFFFFF8000000000FFFFFF0003FFFFFFFFFFC0000000007FF000FFC000000000
310
FFF8000FFFFE0001FFFFC0007F80007FFF8000000001FFFFF8000000001FFFF8
310
00000000000000007F80000000000001FFFFC000000001FFFFFFFFC000000001
310
FFFFFF0003FFFFFFFFFFE000000000FFF000FFE000000003FFF0001FFFFE0001
310
FFFFC0007F80007FFFC000000007FFFFFE000000003FFFF80000000000000000
310
7F80000000000001FFFFE000000003FFFFFFFFE000000003FFFFFF0003FFFFFF
310
FFFFF000000003FFF000FFF80000000FFFF0001FFFFE0001FFFFE0007F80007F
310
FFF00000000FFFFFFF00000000FFFFF800000000000000007F80000000000001
310
FFFFF80000000FFFFFFFFFF80000000FFFFFFF0003FFFFFFFFFFFC0000000FFF
310
F000FFFE0000003FFFF0001FFFFE0003FFFFE0003F80007FFFFC0000003FFFFF
310
FFC0000003FFFFF800000000000000007F80000000000001FFFFFE0000003FFF
310
FFFFFFFE0000003FFFFFFF0003FFFFFFFFFFFF0000003FFFF000FFFF800000FF
310
FFF0001FFFFF0003FFFFE0003F80007FFFFF000001FFFFFFFFF800001FFFFFF8
310
00000000000000007F80000000000001FFFFFFC00001FFFFFFFFFFFFC00001FF
310
FFFFFF0003FFFFFFFFFFFFC00000FFFFF000FFFFF8000FFFFFFFFFFFFFFFFFFF
310
FFFFFFFFFFFFFFFFFFFFF0001FFFFFFFFFFF0000FFFFFFF80000000000000000
310
7FFFFFFFFFFFFFFFFFFFFFFC001FFFFFFFFFFFFFFC001FFFFFFFFFFFFFFFFFFF
310
FFFFFFFC001FFFFFF000FFFFFFFFFFFFFFFFFFFFFFFFFFFFFFFFFFFFFFFFFFFF
310
FFFFFFFFFFFFFFFFFFFFFFFFFFFFFFFFFFFFFFFFFFFFFFFFFFFFFFFFFFFFFFFF
310
FFFFFFFFFFFFFFFFFFFFFFFFFFFFFFFFFFFFFFFFFFFFFFFFFFFFFFFFFFFFFFFF
310
F000FFFFFFFFFFFFFFFFFFFFFFFFFFFFFFFFFFFFFFFFFFFFFFFFFFFFFFFFFFFF
310
FFFFFFFFFFFFFFFFFFFFFFFFFFFFFFFFFFFFFFFFFFFFFFFFFFFFFFFFFFFFFFFF
310
FFFFFFFFFFFFFFFFFFFFFFFFFFFFFFFFFFFFFFFFFFFFFFFFF000FFFFFFFFFFFF
310
FFFFFFFFFFFFFFFFFFFFFFFFFFFFFFFFFFFFFFFFFFFFFFFFFFFFFFFFFFFFFFFF
310
FFFFFFFFFFFFFFFFFFFFFFFFFFFFFFFFFFFFFFFFFFFFFFFFFFFFFFFFFFFFFFFF
310
FFFFFFFFFFFFFFFFFFFFFFFFFFFFFFFFF000FFFFFFFFFFFFFFFFFFFFFFFFFFFF
310
FFFFFFFFFFFFFFFFFFFFFFFFFFFFFFFFFFFFFFFFFFFFFFFFFFFFFFFFFFFFFFFF
310
FFFFFFFFFFFFFFFFFFFFFFFFFFFFFFFFFFFFFFFFFFFFFFFFFFFFFFFFFFFFFFFF
310
FFFFFFFFFFFFFFFFF000FFFFFFFFFFFFFFFFFFFFFFFFFFFFFFFFFFFFFFFFFFFF
310
FFFFFFFFFFFFFFFFFFFFFFFFFFFFFFFFFFFFFFFFFFFFFFFFFFFFFFFFFFFFFFFF
310
FFFFFFFFFFFFFFFFFFFFFFFFFFFFFFFFFFFFFFFFFFFFFFFFFFFFFFFFFFFFFFFF
310
F000FFFFFFFFFFFFFFFFFFFFFFFFFFFFFFFFFFFFFFFFFFFFFFFFFFFFFFFFFFFF
310
FFFFFFFFFFFFFFFFFFFFFFFFFFFFFFFFFFFFFFFFFFFFFFFFFFFFFFFFFFFFFFFF
310
FFFFFFFFFFFFFFFFFFFFFFFFFFFFFFFFFFFFFFFFFFFFFFFFF000FFFFFFFFFFFF
310
FFFFFFFFFFFFFFFFFFFFFFFFFFFFFFFFFFFFFFFFFFFFFFFFFFFFFFFFFFFFFFFF
310
FFFFFFFFFFFFFFFFFFFFFFFFFFFFFFFFFFFFFFFFFFFFFFFFFFFFFFFFFFFFFFFF
310
FFFFFFFFFFFFFFFFFFFFFFFFFFFFFFFFF000FFFFFFFFFFFFFFFFFFFFFFFFFFFF
310
FFFFFFFFFFFFFFFFFFFFFFFFFFFFFFFFFFFFFFFFFFFFFFFFFFFFFFFFFFFFFFFF
310
FFFFFFFFFFFFFFFFFFFFFFFFFFFFFFFFFFFFFFFFFFFFFFFFFFFFFFFFFFFFFFFF
310
FFFFFFFFFFFFFFFFF000FFFFFFFFFFFFFFFFFFFFFFFFFFFFFFFFFFFFFFFFFFFF
310
FFFFFFFFFFFFFFFFFFFFFFFFFFFFFFFFFFFFFFFFFFFFFFFFFFFFFFFFFFFFFFFF
310
FFFFFFFFFFFFFFFFFFFFFFFFFFFFFFFFFFFFFFFFFFFFFFFFFFFFFFFFFFFFFFFF
310
F000FFFFFFFFFFFFFFFFFFFFFFFFFFFFFFFFFFFFFFFFFFFFFFFFFFFFFFFFFFFF
310
FFFFFFFFFFFFFFFFFFFFFFFFFFFFFFFFFFFFFFFFFFFFFFFFFFFFFFFFFFFFFFFF
310
FFFFFFFFFFFFFFFFFFFFFFFFFFFFFFFFFFFFFFFFFFFFFFFFF000FFFFFFFFFFFF
310
FFFFFFFFFFFFFFFFFFFFFFFFFFFFFFFFFFFFFFFFFFFFFFFFFFFFFFFFFFFFFFFF
310
FFFFFFFFFFFFFFFFFFFFFFFFFFFFFFFFFFFFFFFFFFFFFFFFFFFFFFFFFFFFFFFF
310
FFFFFFFFFFFFFFFFFFFFFFFFFFFFFFFFF000FFFFFFFFFFFFFFFFFFFFFFFFFFFF
310
FFFFFFFFFFFFFFFFFFFFFFFFFFFFFFFFFFFFFFFFFFFFFFFFFFFFFFFFFFFFFFFF
310
FFFFFFFFFFFFFFFFFFFFFFFFFFFFFFFFFFFFFFFFFFFFFFFFFFFFFFFFFFFFFFFF
310
FFFFFFFFFFFFFFFFF000FFFFFFFFFFFFFFFFFFFFFFFFFFFFFFFFFFFFFFFFFFFF
310
FFFFFFFFFFFFFFFFFFFFFFFFFFFFFFFFFFFFFFFFFFFFFFFFFFFFFFFFFFFFFFFF
310
FFFFFFFFFFFFFFFFFFFFFFFFFFFFFFFFFFFFFFFFFFFFFFFFFFFFFFFFFFFFFFFF
310
F000FFFFFFFFFFFFFFFFFFFFFFFFFFFFFFFFFFFFFFFFFFFFFFFFFFFFFFFFFFFF
310
FFFFFFFFFFFFFFFFFFFFFFFFFFFFFFFFFFFFFFFFFFFFFFFFFFFFFFFFFFFFFFFF
310
FFFFFFFFFFFFFFFFFFFFFFFFFFFFFFFFFFFFFFFFFFFFFFFFF000FFFFFFFFFFFF
310
FFFFFFFFFFFFFFFFFFFFFFFFFFFFFFFFFFFFFFFFFFFFFFFFFFFFFFFFFFFFFFFF
310
FFFFFFFFFFFFFFFFFFFFFFFFFFFFFFFFFFFFFFFFFFFFFFFFFFFFFFFFFFFFFFFF
310
FFFFFFFFFFFFFFFFFFFFFFFFFFFFFFFFF000FFFFFFFFFFFFFFFFFFFFFFFFFFFF
310
FFFFFFFFFFFFFFFFFFFFFFFFFFFFFFFFFFFFFFFFFFFFFFFFFFFFFFFFFFFFFFFF
310
FFFFFFFFFFFFFFFFFFFFFFFFFFFFFFFFFFFFFFFFFFFFFFFFFFFFFFFFFFFFFFFF
310
FFFFFFFFFFFFFFFFF000FFFFFFFFFFFFFFFFFFFFFFFFFFFFFFFFFFFFFFFFFFFF
310
FFFFFFFFFFFFFFFFFFFFFFFFFFFFFFFFFFFFFFFFFFFFFFFFFFFFFFFFFFFFFFFF
310
FFFFFFFFFFFFFFFFFFFFFFFFFFFFFFFFFFFFFFFFFFFFFFFFFFFFFFFFFFFFFFFF
310
F000FFFFFFFFFFFFFFFFFFFFFFFFFFFFFFFFFFFFFFFFFFFFFFFFFFFFFFFFFFFF
310
FFFFFFFFFFFFFFFFFFFFFFFFFFFFFFFFFFFFFFFFFFFFFFFFFFFFFFFFFFFFFFFF
310
FFFFFFFFFFFFFFFFFFFFFFFFFFFFFFFFFFFFFFFFFFFFFFFFF000FFFFFFFFFFFF
310
FFFFFFFFFFFFFFFFFFFFFFFFFFFFFFFFFFFFFFFFFFFFFFFFFFFFFFFFFFFFFFFF
310
FFFFFFFFFFFFFFFFFFFFFFFFFFFFFFFFFFFFFFFFFFFFFFFFFFFFFFFFFFFFFFFF
310
FFFFFFFFFFFFFFFFFFFFFFFFFFFFFFFFF000FFFFFFFFFFFFFFFFFFFFFFFFFFFF
310
FFFFFFFFFFFFFFFFFFFFFFFFFFFFFFFFFFFFFFFFFFFFFFFFFFFFFFFFFFFFFFFF
310
FFFFFFFFFFFFFFFFFFFFFFFFFFFFFFFFFFFFFFFFFFFFFFFFFFFFFFFFFFFFFFFF
310
FFFFFFFFFFFFFFFFF000FFFFFFFFFFFFFFFFFFFFFFFFFFFFFFFFFFFFFFFFFFFF
310
FFFFFFFFFFFFFFFFFFFFFFFFFFFFFFFFFFFFFFFFFFFFFFFFFFFFFFFFFFFFFFFF
310
FFFFFFFFFFFFFFFFFFFFFFFFFFFFFFFFFFFFFFFFFFFFFFFFFFFFFFFFFFFFFFFF
310
F000FFFFFFFFFFFFFFFFFFFFFFFFFFFFFFFFFFFFFFFFFFFFFFFFFFFFFFFFFFFF
310
FFFFFFFFFFFFFFFFFFFFFFFFFFFFFFFFFFFFFFFFFFFFFFFFFFFFFFFFFFFFFFFF
310
FFFFFFFFFFFFFFFFFFFFFFFFFFFFFFFFFFFFFFFFFFFFFFFFF000FFFFFFFFFFFF
310
FFFFFFFFFFFFFFFFFFFFFFFFFFFFFFFFFFFFFFFFFFFFFFFFFFFFFFFFFFFFFFFF
310
FFFFFFFFFFFFFFFFFFFFFFFFFFFFFFFFFFFFFFFFFFFFFFFFFFFFFFFFFFFFFFFF
310
FFFFFFFFFFFFFFFFFFFFFFFFFFFFFFFFF0000000000000000000000000000000
310
0000000000000000000000000000000000000000000000000000000000000000
310
0000000000000000000000000000000000000000000000000000000000000000
310
0000000000000000000000000000000000000000000000000000000000000000
310
0000000000000000000000000000000000000000000000000000000000000000
310
0000000000000000000000000000000000000000000000000000000000000000
310
0000000000000000000000000000000000000000000000000000000000000000
310
0000000000000000000000000000000000000000000000000000000000000000
310
0000000000000000000000000000000000000000000000000000000000000000
310
0000000000000000000000000000000000000000000000000000000000000000
310
0000000000000000000000000000000000000000000000000000000000000000
310
0000000000000000000000000000000000000000000000000000000000000000
310
0000000000000000000000000000000000000000000000000000000000000000
310
0000000000000000000000000000000000000000000000000000000000000000
310
0000000000000000000000000000000000000000000000000000000000000000
310
0000000000000000000000000000000000000000000000000000000000000000
  1
OLE
  0
ENDSEC
  0
SECTION
  2
OBJECTS
  0
DICTIONARY
  5
C
330
0
100
AcDbDictionary
281
     1
  3
ACAD_GROUP
350
D
  3
ACAD_LAYOUT
350
1A
  3
ACAD_MLINESTYLE
350
17
  3
ACAD_PLOTSETTINGS
350
19
  3
ACAD_PLOTSTYLENAME
350
E
  3
ACAD_SCALELIST
350
47
  0
DICTIONARY
  5
D
102
{ACAD_REACTORS
330
C
102
}
330
C
100
AcDbDictionary
281
     1
  0
DICTIONARY
  5
1A
102
{ACAD_REACTORS
330
C
102
}
330
C
100
AcDbDictionary
281
     1
  3
Layout1
350
1E
  3
Layout2
350
26
  3
Model
350
22
  0
DICTIONARY
  5
17
102
{ACAD_REACTORS
330
C
102
}
330
C
100
AcDbDictionary
281
     1
  3
Standard
350
18
  0
DICTIONARY
  5
19
102
{ACAD_REACTORS
330
C
102
}
330
C
100
AcDbDictionary
281
     1
  0
ACDBDICTIONARYWDFLT
  5
E
102
{ACAD_REACTORS
330
C
102
}
330
C
100
AcDbDictionary
281
     1
  3
Normal
350
F
100
AcDbDictionaryWithDefault
340
F
  0
DICTIONARY
  5
47
102
{ACAD_REACTORS
330
C
102
}
330
C
100
AcDbDictionary
281
     1
  3
A0
350
48
  3
A1
350
49
  3
A2
350
4A
  3
A3
350
4B
  3
A4
350
4C
  3
A5
350
4D
  3
A6
350
4E
  3
A7
350
4F
  3
A8
350
50
  3
A9
350
51
  3
B0
350
52
  3
B1
350
53
  3
B2
350
54
  3
B3
350
55
  3
B4
350
56
  3
B5
350
57
  3
B6
350
58
  3
B7
350
59
  3
B8
350
5A
  3
B9
350
5B
  3
C0
350
5C
  3
C1
350
5D
  3
C2
350
5E
  3
C3
350
5F
  3
C4
350
60
  3
C5
350
61
  3
C6
350
62
  3
C7
350
63
  3
C8
350
64
  3
C9
350
65
  3
D0
350
66
  3
D1
350
67
  3
D2
350
68
  0
LAYOUT
  5
1E
102
{ACAD_REACTORS
330
1A
102
}
330
1A
100
AcDbPlotSettings
  1

  2
none_device
  4

  6

 40
0.0
 41
0.0
 42
0.0
 43
0.0
 44
0.0
 45
0.0
 46
0.0
 47
0.0
 48
0.0
 49
0.0
140
0.0
141
0.0
142
1.0
143
1.0
 70
   688
 72
     1
 73
     0
 74
     5
  7

 75
    16
147
1.0
148
0.0
149
0.0
100
AcDbLayout
  1
Layout1
 70
     1
 71
     1
 10
0.0
 20
0.0
 11
420.0
 21
297.0
 12
0.0
 22
0.0
 32
0.0
 14
1.0000000000E+20
 24
1.0000000000E+20
 34
1.0000000000E+20
 15
-1.0000000000E+20
 25
-1.0000000000E+20
 35
-1.0000000000E+20
146
0.0
 13
0.0
 23
0.0
 33
0.0
 16
1.0
 26
0.0
 36
0.0
 17
0.0
 27
1.0
 37
0.0
 76
     0
330
1B
  0
LAYOUT
  5
26
102
{ACAD_REACTORS
330
1A
102
}
330
1A
100
AcDbPlotSettings
  1

  2
none_device
  4

  6

 40
0.0
 41
0.0
 42
0.0
 43
0.0
 44
0.0
 45
0.0
 46
0.0
 47
0.0
 48
0.0
 49
0.0
140
0.0
141
0.0
142
1.0
143
1.0
 70
   688
 72
     1
 73
     0
 74
     5
  7

 75
    16
147
1.0
148
0.0
149
0.0
100
AcDbLayout
  1
Layout2
 70
     1
 71
     2
 10
0.0
 20
0.0
 11
0.0
 21
0.0
 12
0.0
 22
0.0
 32
0.0
 14
0.0
 24
0.0
 34
0.0
 15
0.0
 25
0.0
 35
0.0
146
0.0
 13
0.0
 23
0.0
 33
0.0
 16
1.0
 26
0.0
 36
0.0
 17
0.0
 27
1.0
 37
0.0
 76
     0
330
23
  0
LAYOUT
  5
22
102
{ACAD_REACTORS
330
1A
102
}
330
1A
100
AcDbPlotSettings
  1

  2
none_device
  4
Letter_(8.50_x_11.00_Inches)
  6

 40
6.35
 41
6.35
 42
6.35000508
 43
6.35000508
 44
215.9
 45
279.4
 46
0.0
 47
0.0
 48
0.0
 49
0.0
140
0.0
141
0.0
142
1.0
143
1.0
 70
  1712
 72
     1
 73
     0
 74
     0
  7

 75
     0
147
1.0
148
0.0
149
0.0
100
AcDbLayout
  1
Model
 70
     1
 71
     0
 10
0.0
 20
0.0
 11
297.0
 21
210.0
 12
0.0
 22
0.0
 32
0.0
 14
0.0
 24
0.0
 34
0.0
 15
297.0
 25
210.0
 35
0.0
146
0.0
 13
0.0
 23
0.0
 33
0.0
 16
1.0
 26
0.0
 36
0.0
 17
0.0
 27
1.0
 37
0.0
 76
     0
330
1F
331
29
  0
MLINESTYLE
  5
18
102
{ACAD_REACTORS
330
17
102
}
330
17
100
AcDbMlineStyle
  2
Standard
 70
     0
  3

 62
   256
 51
90.0
 52
90.0
 71
     2
 49
0.5
 62
   256
  6
BYLAYER
 49
-0.5
 62
   256
  6
BYLAYER
  0
ACDBPLACEHOLDER
  5
F
102
{ACAD_REACTORS
330
E
102
}
330
E
  0
SCALE
  5
48
102
{ACAD_REACTORS
330
47
102
}
330
47
100
AcDbScale
 70
     0
300
1:1
140
1.0
141
1.0
290
     1
  0
SCALE
  5
49
102
{ACAD_REACTORS
330
47
102
}
330
47
100
AcDbScale
 70
     0
300
1:2
140
1.0
141
2.0
290
     0
  0
SCALE
  5
4A
102
{ACAD_REACTORS
330
47
102
}
330
47
100
AcDbScale
 70
     0
300
1:4
140
1.0
141
4.0
290
     0
  0
SCALE
  5
4B
102
{ACAD_REACTORS
330
47
102
}
330
47
100
AcDbScale
 70
     0
300
1:5
140
1.0
141
5.0
290
     0
  0
SCALE
  5
4C
102
{ACAD_REACTORS
330
47
102
}
330
47
100
AcDbScale
 70
     0
300
1:8
140
1.0
141
8.0
290
     0
  0
SCALE
  5
4D
102
{ACAD_REACTORS
330
47
102
}
330
47
100
AcDbScale
 70
     0
300
1:10
140
1.0
141
10.0
290
     0
  0
SCALE
  5
4E
102
{ACAD_REACTORS
330
47
102
}
330
47
100
AcDbScale
 70
     0
300
1:16
140
1.0
141
16.0
290
     0
  0
SCALE
  5
4F
102
{ACAD_REACTORS
330
47
102
}
330
47
100
AcDbScale
 70
     0
300
1:20
140
1.0
141
20.0
290
     0
  0
SCALE
  5
50
102
{ACAD_REACTORS
330
47
102
}
330
47
100
AcDbScale
 70
     0
300
1:30
140
1.0
141
30.0
290
     0
  0
SCALE
  5
51
102
{ACAD_REACTORS
330
47
102
}
330
47
100
AcDbScale
 70
     0
300
1:40
140
1.0
141
40.0
290
     0
  0
SCALE
  5
52
102
{ACAD_REACTORS
330
47
102
}
330
47
100
AcDbScale
 70
     0
300
1:50
140
1.0
141
50.0
290
     0
  0
SCALE
  5
53
102
{ACAD_REACTORS
330
47
102
}
330
47
100
AcDbScale
 70
     0
300
1:100
140
1.0
141
100.0
290
     0
  0
SCALE
  5
54
102
{ACAD_REACTORS
330
47
102
}
330
47
100
AcDbScale
 70
     0
300
2:1
140
2.0
141
1.0
290
     0
  0
SCALE
  5
55
102
{ACAD_REACTORS
330
47
102
}
330
47
100
AcDbScale
 70
     0
300
4:1
140
4.0
141
1.0
290
     0
  0
SCALE
  5
56
102
{ACAD_REACTORS
330
47
102
}
330
47
100
AcDbScale
 70
     0
300
8:1
140
8.0
141
1.0
290
     0
  0
SCALE
  5
57
102
{ACAD_REACTORS
330
47
102
}
330
47
100
AcDbScale
 70
     0
300
10:1
140
10.0
141
1.0
290
     0
  0
SCALE
  5
58
102
{ACAD_REACTORS
330
47
102
}
330
47
100
AcDbScale
 70
     0
300
100:1
140
100.0
141
1.0
290
     0
  0
SCALE
  5
59
102
{ACAD_REACTORS
330
47
102
}
330
47
100
AcDbScale
 70
     0
300
1/128" = 1'-0"
140
0.0078125
141
12.0
290
     0
  0
SCALE
  5
5A
102
{ACAD_REACTORS
330
47
102
}
330
47
100
AcDbScale
 70
     0
300
1/64" = 1'-0"
140
0.015625
141
12.0
290
     0
  0
SCALE
  5
5B
102
{ACAD_REACTORS
330
47
102
}
330
47
100
AcDbScale
 70
     0
300
1/32" = 1'-0"
140
0.03125
141
12.0
290
     0
  0
SCALE
  5
5C
102
{ACAD_REACTORS
330
47
102
}
330
47
100
AcDbScale
 70
     0
300
1/16" = 1'-0"
140
0.0625
141
12.0
290
     0
  0
SCALE
  5
5D
102
{ACAD_REACTORS
330
47
102
}
330
47
100
AcDbScale
 70
     0
300
3/32" = 1'-0"
140
0.09375
141
12.0
290
     0
  0
SCALE
  5
5E
102
{ACAD_REACTORS
330
47
102
}
330
47
100
AcDbScale
 70
     0
300
1/8" = 1'-0"
140
0.125
141
12.0
290
     0
  0
SCALE
  5
5F
102
{ACAD_REACTORS
330
47
102
}
330
47
100
AcDbScale
 70
     0
300
3/16" = 1'-0"
140
0.1875
141
12.0
290
     0
  0
SCALE
  5
60
102
{ACAD_REACTORS
330
47
102
}
330
47
100
AcDbScale
 70
     0
300
1/4" = 1'-0"
140
0.25
141
12.0
290
     0
  0
SCALE
  5
61
102
{ACAD_REACTORS
330
47
102
}
330
47
100
AcDbScale
 70
     0
300
3/8" = 1'-0"
140
0.375
141
12.0
290
     0
  0
SCALE
  5
62
102
{ACAD_REACTORS
330
47
102
}
330
47
100
AcDbScale
 70
     0
300
1/2" = 1'-0"
140
0.5
141
12.0
290
     0
  0
SCALE
  5
63
102
{ACAD_REACTORS
330
47
102
}
330
47
100
AcDbScale
 70
     0
300
3/4" = 1'-0"
140
0.75
141
12.0
290
     0
  0
SCALE
  5
64
102
{ACAD_REACTORS
330
47
102
}
330
47
100
AcDbScale
 70
     0
300
1" = 1'-0"
140
1.0
141
12.0
290
     0
  0
SCALE
  5
65
102
{ACAD_REACTORS
330
47
102
}
330
47
100
AcDbScale
 70
     0
300
1-1/2" = 1'-0"
140
1.5
141
12.0
290
     0
  0
SCALE
  5
66
102
{ACAD_REACTORS
330
47
102
}
330
47
100
AcDbScale
 70
     0
300
3" = 1'-0"
140
3.0
141
12.0
290
     0
  0
SCALE
  5
67
102
{ACAD_REACTORS
330
47
102
}
330
47
100
AcDbScale
 70
     0
300
6" = 1'-0"
140
6.0
141
12.0
290
     0
  0
SCALE
  5
68
102
{ACAD_REACTORS
330
47
102
}
330
47
100
AcDbScale
 70
     0
300
1'-0" = 1'-0"
140
12.0
141
12.0
290
     0
  0
ENDSEC
  0
EOF
