  0
SECTION
  2
HEADER
  9
$ACADVER
  1
AC1015
  9
$ACADMAINTVER
 70
     6
  9
$DWGCODEPAGE
  3
ANSI_1252
  9
$INSBASE
 10
0.0
 20
0.0
 30
0.0
  9
$EXTMIN
 10
0.0
 20
0.0
 30
0.0
  9
$EXTMAX
 10
297.0
 20
210.0
 30
0.0
  9
$LIMMIN
 10
0.0
 20
0.0
  9
$LIMMAX
 10
297.0
 20
210.0
  9
$ORTHOMODE
 70
     0
  9
$REGENMODE
 70
     1
  9
$FILLMODE
 70
     1
  9
$QTEXTMODE
 70
     0
  9
$MIRRTEXT
 70
     1
  9
$LTSCALE
 40
1.0
  9
$ATTMODE
 70
     1
  9
$TEXTSIZE
 40
2.0
  9
$TRACEWID
 40
1.0
  9
$TEXTSTYLE
  7
Standard
  9
$CLAYER
  8
0
  9
$CELTYPE
  6
ByLayer
  9
$CECOLOR
 62
   256
  9
$CELTSCALE
 40
1.0
  9
$DISPSILH
 70
     0
  9
$DIMSCALE
 40
1.0
  9
$DIMASZ
 40
3.0
  9
$DIMEXO
 40
0.0
  9
$DIMDLI
 40
3.75
  9
$DIMRND
 40
0.0
  9
$DIMDLE
 40
0.0
  9
$DIMEXE
 40
1.0
  9
$DIMTP
 40
0.0
  9
$DIMTM
 40
0.0
  9
$DIMTXT
 40
2.0
  9
$DIMCEN
 40
2.5
  9
$DIMTSZ
 40
0.0
  9
$DIMTOL
 70
     0
  9
$DIMLIM
 70
     0
  9
$DIMTIH
 70
     1
  9
$DIMTOH
 70
     1
  9
$DIMSE1
 70
     0
  9
$DIMSE2
 70
     0
  9
$DIMTAD
 70
     1
  9
$DIMZIN
 70
     0
  9
$DIMBLK
  1

  9
$DIMASO
 70
     1
  9
$DIMSHO
 70
     1
  9
$DIMPOST
  1

  9
$DIMAPOST
  1

  9
$DIMALT
 70
     0
  9
$DIMALTD
 70
     3
  9
$DIMALTF
 40
0.0393700787
  9
$DIMLFAC
 40
1.0
  9
$DIMTOFL
 70
     1
  9
$DIMTVP
 40
0.0
  9
$DIMTIX
 70
     0
  9
$DIMSOXD
 70
     0
  9
$DIMSAH
 70
     0
  9
$DIMBLK1
  1

  9
$DIMBLK2
  1

  9
$DIMSTYLE
  2
ISO-25
  9
$DIMCLRD
 70
     0
  9
$DIMCLRE
 70
     0
  9
$DIMCLRT
 70
     0
  9
$DIMTFAC
 40
1.0
  9
$DIMGAP
 40
1.524
  9
$DIMJUST
 70
     0
  9
$DIMSD1
 70
     0
  9
$DIMSD2
 70
     0
  9
$DIMTOLJ
 70
     0
  9
$DIMTZIN
 70
     0
  9
$DIMALTZ
 70
     0
  9
$DIMALTTZ
 70
     0
  9
$DIMUPT
 70
     0
  9
$DIMDEC
 70
     2
  9
$DIMTDEC
 70
     3
  9
$DIMALTU
 70
     2
  9
$DIMALTTD
 70
     3
  9
$DIMTXSTY
  7
Standard
  9
$DIMAUNIT
 70
     0
  9
$DIMADEC
 70
     2
  9
$DIMALTRND
 40
0.0
  9
$DIMAZIN
 70
     0
  9
$DIMDSEP
 70
    44
  9
$DIMATFIT
 70
     3
  9
$DIMFRAC
 70
     0
  9
$DIMLDRBLK
  1

  9
$DIMLUNIT
 70
     2
  9
$DIMLWD
 70
    -2
  9
$DIMLWE
 70
    -2
  9
$DIMTMOVE
 70
     0
  9
$LUNITS
 70
     2
  9
$LUPREC
 70
     2
  9
$SKETCHINC
 40
1.0
  9
$FILLETRAD
 40
10.0
  9
$AUNITS
 70
     0
  9
$AUPREC
 70
     2
  9
$MENU
  1
.
  9
$ELEVATION
 40
0.0
  9
$PELEVATION
 40
0.0
  9
$THICKNESS
 40
0.0
  9
$LIMCHECK
 70
     0
  9
$CHAMFERA
 40
0.0
  9
$CHAMFERB
 40
0.0
  9
$CHAMFERC
 40
0.0
  9
$CHAMFERD
 40
0.0
  9
$SKPOLY
 70
     0
  9
$TDCREATE
 40
2457632.662860775
  9
$TDUCREATE
 40
2457632.579527442
  9
$TDUPDATE
 40
2457632.662862489
  9
$TDUUPDATE
 40
2457632.579529155
  9
$TDINDWG
 40
0.0000000116
  9
$TDUSRTIMER
 40
0.0000000116
  9
$USRTIMER
 70
     1
  9
$ANGBASE
 50
0.0
  9
$ANGDIR
 70
     0
  9
$PDMODE
 70
     0
  9
$PDSIZE
 40
-1.0
  9
$PLINEWID
 40
0.0
  9
$SPLFRAME
 70
     0
  9
$SPLINETYPE
 70
     6
  9
$SPLINESEGS
 70
     8
  9
$HANDSEED
  5
2C2
  9
$SURFTAB1
 70
     6
  9
$SURFTAB2
 70
     6
  9
$SURFTYPE
 70
     6
  9
$SURFU
 70
     6
  9
$SURFV
 70
     6
  9
$UCSBASE
  2

  9
$UCSNAME
  2

  9
$UCSORG
 10
0.0
 20
0.0
 30
0.0
  9
$UCSXDIR
 10
1.0
 20
0.0
 30
0.0
  9
$UCSYDIR
 10
0.0
 20
1.0
 30
0.0
  9
$UCSORTHOREF
  2

  9
$UCSORTHOVIEW
 70
     0
  9
$UCSORGTOP
 10
0.0
 20
0.0
 30
0.0
  9
$UCSORGBOTTOM
 10
0.0
 20
0.0
 30
0.0
  9
$UCSORGLEFT
 10
0.0
 20
0.0
 30
0.0
  9
$UCSORGRIGHT
 10
0.0
 20
0.0
 30
0.0
  9
$UCSORGFRONT
 10
0.0
 20
0.0
 30
0.0
  9
$UCSORGBACK
 10
0.0
 20
0.0
 30
0.0
  9
$PUCSBASE
  2

  9
$PUCSNAME
  2

  9
$PUCSORG
 10
0.0
 20
0.0
 30
0.0
  9
$PUCSXDIR
 10
1.0
 20
0.0
 30
0.0
  9
$PUCSYDIR
 10
0.0
 20
1.0
 30
0.0
  9
$PUCSORTHOREF
  2

  9
$PUCSORTHOVIEW
 70
     0
  9
$PUCSORGTOP
 10
0.0
 20
0.0
 30
0.0
  9
$PUCSORGBOTTOM
 10
0.0
 20
0.0
 30
0.0
  9
$PUCSORGLEFT
 10
0.0
 20
0.0
 30
0.0
  9
$PUCSORGRIGHT
 10
0.0
 20
0.0
 30
0.0
  9
$PUCSORGFRONT
 10
0.0
 20
0.0
 30
0.0
  9
$PUCSORGBACK
 10
0.0
 20
0.0
 30
0.0
  9
$USERI1
 70
     0
  9
$USERI2
 70
     0
  9
$USERI3
 70
     0
  9
$USERI4
 70
     0
  9
$USERI5
 70
     0
  9
$USERR1
 40
0.0
  9
$USERR2
 40
0.0
  9
$USERR3
 40
0.0
  9
$USERR4
 40
0.0
  9
$USERR5
 40
0.0
  9
$WORLDVIEW
 70
     1
  9
$SHADEDGE
 70
     3
  9
$SHADEDIF
 70
    70
  9
$TILEMODE
 70
     1
  9
$MAXACTVP
 70
    64
  9
$PINSBASE
 10
0.0
 20
0.0
 30
0.0
  9
$PLIMCHECK
 70
     0
  9
$PEXTMIN
 10
1.0000000000E+20
 20
1.0000000000E+20
 30
1.0000000000E+20
  9
$PEXTMAX
 10
-1.0000000000E+20
 20
-1.0000000000E+20
 30
-1.0000000000E+20
  9
$PLIMMIN
 10
0.0
 20
0.0
  9
$PLIMMAX
 10
420.0
 20
297.0
  9
$UNITMODE
 70
     0
  9
$VISRETAIN
 70
     1
  9
$PLINEGEN
 70
     0
  9
$PSLTSCALE
 70
     1
  9
$TREEDEPTH
 70
  3020
  9
$CMLSTYLE
  2
Standard
  9
$CMLJUST
 70
     0
  9
$CMLSCALE
 40
20.0
  9
$PROXYGRAPHICS
 70
     1
  9
$MEASUREMENT
 70
     1
  9
$CELWEIGHT
370
    -1
  9
$ENDCAPS
280
     0
  9
$JOINSTYLE
280
     0
  9
$LWDISPLAY
290
     1
  9
$INSUNITS
 70
     4
  9
$HYPERLINKBASE
  1

  9
$STYLESHEET
  1

  9
$XEDIT
290
     1
  9
$CEPSNTYPE
380
     0
  9
$PSTYLEMODE
290
     1
  9
$FINGERPRINTGUID
  2
{8797B9E7-0CF5-4B0A-81E9-BCBBF36EB250}
  9
$VERSIONGUID
  2
{FAEB1C32-E019-11D5-929B-00C0DF256EC4}
  9
$EXTNAMES
290
     1
  9
$PSVPSCALE
 40
0.0
  9
$OLESTARTUP
290
     0
  0
ENDSEC
  0
SECTION
  2
CLASSES
  0
CLASS
  1
ACDBDICTIONARYWDFLT
  2
AcDbDictionaryWithDefault
  3
ObjectDBX Classes
 90
        0
280
     0
281
     0
  0
CLASS
  1
VISUALSTYLE
  2
AcDbVisualStyle
  3
ObjectDBX Classes
 90
     4095
280
     0
281
     0
  0
CLASS
  1
MATERIAL
  2
AcDbMaterial
  3
ObjectDBX Classes
 90
     1153
280
     0
281
     0
  0
CLASS
  1
SCALE
  2
AcDbScale
  3
ObjectDBX Classes
 90
     1153
280
     0
281
     0
  0
CLASS
  1
TABLESTYLE
  2
AcDbTableStyle
  3
ObjectDBX Classes
 90
     4095
280
     0
281
     0
  0
CLASS
  1
MLEADERSTYLE
  2
AcDbMLeaderStyle
  3
ACDB_MLEADERSTYLE_CLASS
 90
     4095
280
     0
281
     0
  0
CLASS
  1
SUN
  2
AcDbSun
  3
SCENEOE
 90
     1153
280
     0
281
     0
  0
CLASS
  1
ACDBPLACEHOLDER
  2
AcDbPlaceHolder
  3
ObjectDBX Classes
 90
        0
280
     0
281
     0
  0
CLASS
  1
LAYOUT
  2
AcDbLayout
  3
ObjectDBX Classes
 90
        0
280
     0
281
     0
  0
ENDSEC
  0
SECTION
  2
TABLES
  0
TABLE
  2
VPORT
  5
8
330
0
100
AcDbSymbolTable
 70
     1
  0
VPORT
  5
29
330
8
100
AcDbSymbolTableRecord
100
AcDbViewportTableRecord
  2
*Active
 70
     0
 10
0.0
 20
0.0
 11
1.0
 21
1.0
 12
148.5
 22
105.0
 13
0.0
 23
0.0
 14
10.0
 24
10.0
 15
10.0
 25
10.0
 16
0.0
 26
0.0
 36
1.0
 17
0.0
 27
0.0
 37
0.0
 40
210.0
 41
1.4142857143
 42
50.0
 43
0.0
 44
0.0
 50
0.0
 51
0.0
 71
     0
 72
  2000
 73
     1
 74
     3
 75
     0
 76
     0
 77
     0
 78
     0
281
     0
 65
     1
110
0.0
120
0.0
130
0.0
111
1.0
121
0.0
131
0.0
112
0.0
122
1.0
132
0.0
 79
     0
146
0.0
  0
ENDTAB
  0
TABLE
  2
LTYPE
  5
5
330
0
100
AcDbSymbolTable
 70
     6
  0
LTYPE
  5
14
330
5
100
AcDbSymbolTableRecord
100
AcDbLinetypeTableRecord
  2
ByBlock
 70
     0
  3

 72
    65
 73
     0
 40
0.0
  0
LTYPE
  5
15
330
5
100
AcDbSymbolTableRecord
100
AcDbLinetypeTableRecord
  2
ByLayer
 70
     0
  3

 72
    65
 73
     0
 40
0.0
  0
LTYPE
  5
16
330
5
100
AcDbSymbolTableRecord
100
AcDbLinetypeTableRecord
  2
Continuous
 70
     0
  3
Solid line
 72
    65
 73
     0
 40
0.0
  0
LTYPE
  5
6E
330
5
100
AcDbSymbolTableRecord
100
AcDbLinetypeTableRecord
  2
HIDDEN
 70
     0
  3
Hidden __ __ __ __ __ __ __ __ __ __ __ __ __ __
 72
    65
 73
     2
 40
1.905
 49
1.27
 74
     0
 49
-0.635
 74
     0
  0
LTYPE
  5
6F
330
5
100
AcDbSymbolTableRecord
100
AcDbLinetypeTableRecord
  2
PHANTOM
 70
     0
  3
Phantom ______  __  __  ______  __  __  ______
 72
    65
 73
     6
 40
12.7
 49
6.35
 74
     0
 49
-1.27
 74
     0
 49
1.27
 74
     0
 49
-1.27
 74
     0
 49
1.27
 74
     0
 49
-1.27
 74
     0
  0
LTYPE
  5
70
330
5
100
AcDbSymbolTableRecord
100
AcDbLinetypeTableRecord
  2
CENTER
 70
     0
  3
Center ____ _ ____ _ ____ _ ____ _ ____ _ ____
 72
    65
 73
     4
 40
10.16
 49
6.35
 74
     0
 49
-1.27
 74
     0
 49
1.27
 74
     0
 49
-1.27
 74
     0
  0
LTYPE
  5
71
330
5
100
AcDbSymbolTableRecord
100
AcDbLinetypeTableRecord
  2
CENTERX2
 70
     0
  3
Center (2x) ________  __  ________  __  _____
 72
    65
 73
     4
 40
20.32
 49
12.7
 74
     0
 49
-2.54
 74
     0
 49
2.54
 74
     0
 49
-2.54
 74
     0
  0
LTYPE
  5
72
330
5
100
AcDbSymbolTableRecord
100
AcDbLinetypeTableRecord
  2
DOT2
 70
     0
  3
Dot (.5x) ........................................
 72
    65
 73
     2
 40
0.635
 49
0.0
 74
     0
 49
-0.635
 74
     0
  0
ENDTAB
  0
TABLE
  2
LAYER
  5
2
330
0
100
AcDbSymbolTable
 70
     5
  0
LAYER
  5
10
330
2
100
AcDbSymbolTableRecord
100
AcDbLayerTableRecord
  2
0
 70
     0
 62
     7
  6
Continuous
370
    -3
390
F
  0
LAYER
  5
73
330
2
100
AcDbSymbolTableRecord
100
AcDbLayerTableRecord
  2
FORMAT
 70
     0
 62
     7
  6
Continuous
370
    -3
390
F
  0
LAYER
  5
74
330
2
100
AcDbSymbolTableRecord
100
AcDbLayerTableRecord
  2
VERMASSUNG
 70
     0
 62
     7
  6
Continuous
370
    -3
390
F
  0
LAYER
  5
75
330
2
100
AcDbSymbolTableRecord
100
AcDbLayerTableRecord
  2
KOPF_DÜNN
 70
     0
 62
     7
  6
Continuous
370
    -3
390
F
  0
LAYER
  5
76
330
2
100
AcDbSymbolTableRecord
100
AcDbLayerTableRecord
  2
KOPF_DICK
 70
     0
 62
     7
  6
Continuous
370
    15
390
F
  0
ENDTAB
  0
TABLE
  2
STYLE
  5
3
330
0
100
AcDbSymbolTable
 70
     2
  0
STYLE
  5
11
330
3
100
AcDbSymbolTableRecord
100
AcDbTextStyleTableRecord
  2
Standard
 70
     0
 40
0.0
 41
1.0
 50
0.0
 71
     0
 42
2.0
  3
txt
  4

  0
STYLE
  5
77
330
3
100
AcDbSymbolTableRecord
100
AcDbTextStyleTableRecord
  2
SLDTEXTSTYLE0
 70
     0
 40
0.0
 41
0.7
 50
0.0
 71
     0
 42
2.0
  3
TXT
  4

  0
ENDTAB
  0
TABLE
  2
VIEW
  5
6
330
0
100
AcDbSymbolTable
 70
     0
  0
ENDTAB
  0
TABLE
  2
UCS
  5
7
330
0
100
AcDbSymbolTable
 70
     0
  0
ENDTAB
  0
TABLE
  2
APPID
  5
9
330
0
100
AcDbSymbolTable
 70
     1
  0
APPID
  5
12
330
9
100
AcDbSymbolTableRecord
100
AcDbRegAppTableRecord
  2
ACAD
 70
     0
  0
ENDTAB
  0
TABLE
  2
DIMSTYLE
  5
A
330
0
100
AcDbSymbolTable
 70
     3
100
AcDbDimStyleTable
  0
DIMSTYLE
105
27
330
A
100
AcDbSymbolTableRecord
100
AcDbDimStyleTableRecord
  2
ISO-25
 70
     0
 41
2.5
 42
0.625
 43
3.75
 44
1.25
 73
     0
 74
     0
 77
     1
 78
     8
140
2.5
141
2.5
143
0.0393700787
147
0.625
171
     3
172
     1
178
     0
271
     2
272
     2
274
     3
278
    44
283
     0
284
     8
340
11
  0
DIMSTYLE
105
1A9
102
{ACAD_REACTORS
330
1A8
330
1B5
330
1BF
330
1C9
330
1D3
102
}
330
A
100
AcDbSymbolTableRecord
100
AcDbDimStyleTableRecord
  2
SLDDIMSTYLE0
 70
     0
 41
3.0
 44
0.0
 45
0.000000001
 73
     0
 74
     0
 77
     1
 78
    12
 79
     3
140
2.0
147
0.5
173
     1
178
     0
271
     2
272
     3
276
     2
284
    12
340
77
  0
DIMSTYLE
105
1E5
330
A
100
AcDbSymbolTableRecord
100
AcDbDimStyleTableRecord
  2
SLDDIMSTYLE1
 70
     0
 41
0.9
 44
0.0
 45
0.000000001
146
0.9
147
0.0
173
     1
178
     0
271
     0
272
     0
276
     2
340
11
341
1E6
343
1E6
344
1E6
  0
ENDTAB
  0
TABLE
  2
BLOCK_RECORD
  5
1
330
0
100
AcDbSymbolTable
 70
    10
  0
BLOCK_RECORD
  5
1F
330
1
100
AcDbSymbolTableRecord
100
AcDbBlockTableRecord
  2
*Model_Space
340
22
  0
BLOCK_RECORD
  5
1B
330
1
100
AcDbSymbolTableRecord
100
AcDbBlockTableRecord
  2
*Paper_Space
340
1E
  0
BLOCK_RECORD
  5
23
330
1
100
AcDbSymbolTableRecord
100
AcDbBlockTableRecord
  2
*Paper_Space0
340
26
  0
BLOCK_RECORD
  5
7D
330
1
100
AcDbSymbolTableRecord
100
AcDbBlockTableRecord
  2
SW_TABLEANNOTATION_0
340
0
102
{BLKREFS
331
98
102
}
  0
BLOCK_RECORD
  5
1AA
330
1
100
AcDbSymbolTableRecord
100
AcDbBlockTableRecord
  2
_D
340
0
  0
BLOCK_RECORD
  5
1B6
330
1
100
AcDbSymbolTableRecord
100
AcDbBlockTableRecord
  2
_D_1
340
0
  0
BLOCK_RECORD
  5
1C0
330
1
100
AcDbSymbolTableRecord
100
AcDbBlockTableRecord
  2
_D_2
340
0
  0
BLOCK_RECORD
  5
1CA
330
1
100
AcDbSymbolTableRecord
100
AcDbBlockTableRecord
  2
_D_3
340
0
  0
BLOCK_RECORD
  5
1D4
330
1
100
AcDbSymbolTableRecord
100
AcDbBlockTableRecord
  2
_D_4
340
0
  0
BLOCK_RECORD
  5
1DF
330
1
100
AcDbSymbolTableRecord
100
AcDbBlockTableRecord
  2
SW_NOTE_0
340
0
102
{BLKREFS
331
1E4
102
}
  0
BLOCK_RECORD
  5
1E6
330
1
100
AcDbSymbolTableRecord
100
AcDbBlockTableRecord
  2
_DOT
340
0
  0
BLOCK_RECORD
  5
1EF
330
1
100
AcDbSymbolTableRecord
100
AcDbBlockTableRecord
  2
SW_NOTE_1
340
0
102
{BLKREFS
331
1F4
102
}
  0
ENDTAB
  0
ENDSEC
  0
SECTION
  2
BLOCKS
  0
BLOCK
  5
20
330
1F
100
AcDbEntity
  8
0
100
AcDbBlockBegin
  2
*Model_Space
 70
     0
 10
0.0
 20
0.0
 30
0.0
  3
*Model_Space
  1

  0
ENDBLK
  5
21
330
1F
100
AcDbEntity
  8
0
100
AcDbBlockEnd
  0
BLOCK
  5
1C
330
1B
100
AcDbEntity
 67
     1
  8
0
100
AcDbBlockBegin
  2
*Paper_Space
 70
     0
 10
0.0
 20
0.0
 30
0.0
  3
*Paper_Space
  1

  0
ENDBLK
  5
1D
330
1B
100
AcDbEntity
 67
     1
  8
0
100
AcDbBlockEnd
  0
BLOCK
  5
24
330
23
100
AcDbEntity
  8
0
100
AcDbBlockBegin
  2
*Paper_Space0
 70
     0
 10
0.0
 20
0.0
 30
0.0
  3
*Paper_Space0
  1

  0
ENDBLK
  5
25
330
23
100
AcDbEntity
  8
0
100
AcDbBlockEnd
  0
BLOCK
  5
7E
330
7D
100
AcDbEntity
  8
0
100
AcDbBlockBegin
  2
SW_TABLEANNOTATION_0
 70
     0
 10
0.0
 20
0.0
 30
0.0
  3
SW_TABLEANNOTATION_0
  1

  0
LINE
  5
80
330
7D
100
AcDbEntity
  8
0
  6
Continuous
 62
     0
370
     0
100
AcDbLine
 10
0.0
 20
0.0
 30
0.0
 11
0.0
 21
-10.9613963039
 31
0.0
  0
LINE
  5
81
330
7D
100
AcDbEntity
  8
0
  6
Continuous
 62
     0
370
     0
100
AcDbLine
 10
0.0
 20
-10.9613963039
 30
0.0
 11
125.0044361962
 21
-10.9613963039
 31
0.0
  0
LINE
  5
82
330
7D
100
AcDbEntity
  8
0
  6
Continuous
 62
     0
370
     0
100
AcDbLine
 10
125.0044361962
 20
-10.9613963039
 30
0.0
 11
125.0044361962
 21
0.0
 31
0.0
  0
LINE
  5
83
330
7D
100
AcDbEntity
  8
0
  6
Continuous
 62
     0
370
     0
100
AcDbLine
 10
125.0044361962
 20
0.0
 30
0.0
 11
0.0
 21
0.0
 31
0.0
  0
LINE
  5
84
330
7D
100
AcDbEntity
  8
0
  6
Continuous
 62
     0
370
     0
100
AcDbLine
 10
15.9651052694
 20
-7.3075975359
 30
0.0
 11
15.9651052694
 21
-10.9613963039
 31
0.0
  0
LINE
  5
85
330
7D
100
AcDbEntity
  8
0
  6
Continuous
 62
     0
370
     0
100
AcDbLine
 10
34.1012448998
 20
-7.3075975359
 30
0.0
 11
34.1012448998
 21
-10.9613963039
 31
0.0
  0
LINE
  5
86
330
7D
100
AcDbEntity
  8
0
  6
Continuous
 62
     0
370
     0
100
AcDbLine
 10
92.6586456418
 20
-7.3075975359
 30
0.0
 11
92.6586456418
 21
-10.9613963039
 31
0.0
  0
LINE
  5
87
330
7D
100
AcDbEntity
  8
0
  6
Continuous
 62
     0
370
     0
100
AcDbLine
 10
15.9651052694
 20
0.0
 30
0.0
 11
15.9651052694
 21
-7.3075975359
 31
0.0
  0
LINE
  5
88
330
7D
100
AcDbEntity
  8
0
  6
Continuous
 62
     0
370
     0
100
AcDbLine
 10
34.1012448998
 20
0.0
 30
0.0
 11
34.1012448998
 21
-7.3075975359
 31
0.0
  0
LINE
  5
89
330
7D
100
AcDbEntity
  8
0
  6
Continuous
 62
     0
370
     0
100
AcDbLine
 10
92.6586456418
 20
0.0
 30
0.0
 11
92.6586456418
 21
-7.3075975359
 31
0.0
  0
LINE
  5
8A
330
7D
100
AcDbEntity
  8
0
  6
Continuous
 62
     0
370
     0
100
AcDbLine
 10
0.0
 20
-3.653798768
 30
0.0
 11
125.0044361962
 21
-3.653798768
 31
0.0
  0
LINE
  5
8B
330
7D
100
AcDbEntity
  8
0
  6
Continuous
 62
     0
370
     0
100
AcDbLine
 10
0.0
 20
-7.3075975359
 30
0.0
 11
125.0044361962
 21
-7.3075975359
 31
0.0
  0
MTEXT
  5
8C
330
7D
100
AcDbEntity
  8
0
  6
Continuous
 62
     0
370
     0
100
AcDbMText
 10
5.2825527975
 20
-7.9563615651
 30
0.0
 40
2.0
 41
0.0
 71
     1
 72
     1
  1
POS.
  7
SLDTEXTSTYLE0
 73
     1
 44
1.0
  0
MTEXT
  5
8D
330
7D
100
AcDbEntity
  8
0
  6
Continuous
 62
     0
370
     0
100
AcDbMText
 10
21.1331751904
 20
-7.9563615651
 30
0.0
 40
2.0
 41
0.0
 71
     1
 72
     1
  1
MENGE
  7
SLDTEXTSTYLE0
 73
     1
 44
1.0
  0
MTEXT
  5
8E
330
7D
100
AcDbEntity
  8
0
  6
Continuous
 62
     0
370
     0
100
AcDbMText
 10
56.0799464956
 20
-7.9563615651
 30
0.0
 40
2.0
 41
0.0
 71
     1
 72
     1
  1
Bezeichnung
  7
SLDTEXTSTYLE0
 73
     1
 44
1.0
  0
MTEXT
  5
8F
330
7D
100
AcDbEntity
  8
0
  6
Continuous
 62
     0
370
     0
100
AcDbMText
 10
97.7315420798
 20
-7.9563615651
 30
0.0
 40
2.0
 41
0.0
 71
     1
 72
     1
  1
Zeichnungsnummer
  7
SLDTEXTSTYLE0
 73
     1
 44
1.0
  0
MTEXT
  5
90
330
7D
100
AcDbEntity
  8
0
  6
Continuous
 62
     0
370
     0
100
AcDbMText
 10
7.2825526596
 20
-0.9171773494
 30
0.0
 40
2.0
 41
0.0
 71
     1
 72
     1
  1
2
  7
SLDTEXTSTYLE0
 73
     1
 44
1.0
  0
MTEXT
  5
91
330
7D
100
AcDbEntity
  8
0
  6
Continuous
 62
     0
370
     0
100
AcDbMText
 10
24.5331750608
 20
-0.9171773494
 30
0.0
 40
2.0
 41
0.0
 71
     1
 72
     1
  1
1
  7
SLDTEXTSTYLE0
 73
     1
 44
1.0
  0
MTEXT
  5
92
330
7D
100
AcDbEntity
  8
0
  6
Continuous
 62
     0
370
     0
100
AcDbMText
 10
54.2799467594
 20
-0.9171773494
 30
0.0
 40
2.0
 41
0.0
 71
     1
 72
     1
  1
Klemmschraube
  7
SLDTEXTSTYLE0
 73
     1
 44
1.0
  0
MTEXT
  5
93
330
7D
100
AcDbEntity
  8
0
  6
Continuous
 62
     0
370
     0
100
AcDbMText
 10
99.1315415642
 20
-0.9171773494
 30
0.0
 40
2.0
 41
0.0
 71
     1
 72
     1
  1
MB2-ER1.001.008
  7
SLDTEXTSTYLE0
 73
     1
 44
1.0
  0
MTEXT
  5
94
330
7D
100
AcDbEntity
  8
0
  6
Continuous
 62
     0
370
     0
100
AcDbMText
 10
7.4825526109
 20
-4.5709761174
 30
0.0
 40
2.0
 41
0.0
 71
     1
 72
     1
  1
1
  7
SLDTEXTSTYLE0
 73
     1
 44
1.0
  0
MTEXT
  5
95
330
7D
100
AcDbEntity
  8
0
  6
Continuous
 62
     0
370
     0
100
AcDbMText
 10
24.5331750608
 20
-4.5709761174
 30
0.0
 40
2.0
 41
0.0
 71
     1
 72
     1
  1
1
  7
SLDTEXTSTYLE0
 73
     1
 44
1.0
  0
MTEXT
  5
96
330
7D
100
AcDbEntity
  8
0
  6
Continuous
 62
     0
370
     0
100
AcDbMText
 10
54.2799448967
 20
-4.5709761174
 30
0.0
 40
2.0
 41
0.0
 71
     1
 72
     1
  1
Aufnahme MBM
  7
SLDTEXTSTYLE0
 73
     1
 44
1.0
  0
MTEXT
  5
97
330
7D
100
AcDbEntity
  8
0
  6
Continuous
 62
     0
370
     0
100
AcDbMText
 10
98.6315414822
 20
-4.5709761174
 30
0.0
 40
2.0
 41
0.0
 71
     1
 72
     1
  1
HA6-MB2.K01.050
  7
SLDTEXTSTYLE0
 73
     1
 44
1.0
  0
ENDBLK
  5
7F
330
7D
100
AcDbEntity
  8
0
100
AcDbBlockEnd
  0
BLOCK
  5
1AB
330
1AA
100
AcDbEntity
  8
0
100
AcDbBlockBegin
  2
_D
 70
     0
 10
0.0
 20
0.0
 30
0.0
  3
_D
  1

  0
SOLID
  5
1AD
330
1AA
100
AcDbEntity
  8
VERMASSUNG
100
AcDbTrace
 10
99.3273010606
 20
144.3660640479
 30
0.0
 11
98.8773010606
 21
141.3660640479
 31
0.0
 12
99.7773010606
 22
141.3660640479
 32
0.0
 13
99.7773010606
 23
141.3660640479
 33
0.0
  0
SOLID
  5
1AE
330
1AA
100
AcDbEntity
  8
VERMASSUNG
100
AcDbTrace
 10
99.3273010606
 20
81.3660640479
 30
0.0
 11
99.7773010606
 21
84.3660640479
 31
0.0
 12
98.8773010606
 22
84.3660640479
 32
0.0
 13
98.8773010606
 23
84.3660640479
 33
0.0
  0
LINE
  5
1AF
330
1AA
100
AcDbEntity
  8
VERMASSUNG
100
AcDbLine
 10
137.1055816662
 20
144.3660640479
 30
0.0
 11
98.3273010606
 21
144.3660640479
 31
0.0
  0
LINE
  5
1B0
330
1AA
100
AcDbEntity
  8
VERMASSUNG
100
AcDbLine
 10
137.1055816662
 20
81.3660640479
 30
0.0
 11
98.3273010606
 21
81.3660640479
 31
0.0
  0
LINE
  5
1B1
330
1AA
100
AcDbEntity
  8
VERMASSUNG
100
AcDbLine
 10
99.3273010606
 20
144.3660640479
 30
0.0
 11
99.3273010606
 21
81.3660640479
 31
0.0
  0
MTEXT
  5
1B2
330
1AA
100
AcDbEntity
  8
VERMASSUNG
100
AcDbMText
 10
96.5491658043
 20
104.4942788218
 30
0.0
 40
2.0
 41
0.0
 71
     1
 72
     1
  1
HSK A
  7
SLDTEXTSTYLE0
 11
-7.044195017643634E-15
 21
1.0
 31
0.0
 73
     1
 44
1.0
  0
MTEXT
  5
1B3
330
1AA
100
AcDbEntity
  8
VERMASSUNG
100
AcDbMText
 10
96.7491657556
 20
113.4942784344
 30
0.0
 40
2.0
 41
0.0
 71
     1
 72
     1
  1
%%c
  7
SLDTEXTSTYLE0
 11
-7.044195017643634E-15
 21
1.0
 31
0.0
 73
     1
 44
1.0
  0
MTEXT
  5
1B4
330
1AA
100
AcDbEntity
  8
VERMASSUNG
100
AcDbMText
 10
96.7491654646
 20
117.1036217672
 30
0.0
 40
2.0
 41
0.0
 71
     1
 72
     1
  1
63
  7
SLDTEXTSTYLE0
 11
-7.044195017643634E-15
 21
1.0
 31
0.0
 73
     1
 44
1.0
  0
ENDBLK
  5
1AC
330
1AA
100
AcDbEntity
  8
0
100
AcDbBlockEnd
  0
BLOCK
  5
1B7
330
1B6
100
AcDbEntity
  8
0
100
AcDbBlockBegin
  2
_D_1
 70
     0
 10
0.0
 20
0.0
 30
0.0
  3
_D_1
  1

  0
SOLID
  5
1B9
330
1B6
100
AcDbEntity
  8
VERMASSUNG
100
AcDbTrace
 10
186.8055816662
 20
158.1258869218
 30
0.0
 11
183.8055816662
 21
158.5758869218
 31
0.0
 12
183.8055816662
 22
157.6758869218
 32
0.0
 13
183.8055816662
 23
157.6758869218
 33
0.0
  0
SOLID
  5
1BA
330
1B6
100
AcDbEntity
  8
VERMASSUNG
100
AcDbTrace
 10
136.8055816662
 20
158.1258869218
 30
0.0
 11
139.8055816662
 21
157.6758869218
 31
0.0
 12
139.8055816662
 22
158.5758869218
 32
0.0
 13
139.8055816662
 23
158.5758869218
 33
0.0
  0
LINE
  5
1BB
330
1B6
100
AcDbEntity
  8
VERMASSUNG
100
AcDbLine
 10
186.8055816662
 20
125.1660640479
 30
0.0
 11
186.8055816662
 21
159.1258869218
 31
0.0
  0
LINE
  5
1BC
330
1B6
100
AcDbEntity
  8
VERMASSUNG
100
AcDbLine
 10
136.8055816662
 20
144.0660640479
 30
0.0
 11
136.8055816662
 21
159.1258869218
 31
0.0
  0
LINE
  5
1BD
330
1B6
100
AcDbEntity
  8
VERMASSUNG
100
AcDbLine
 10
186.8055816662
 20
158.1258869218
 30
0.0
 11
136.8055816662
 21
158.1258869218
 31
0.0
  0
MTEXT
  5
1BE
330
1B6
100
AcDbEntity
  8
VERMASSUNG
100
AcDbMText
 10
154.7729231139
 20
160.7040225177
 30
0.0
 40
2.0
 41
0.0
 71
     1
 72
     1
  1
50
  7
SLDTEXTSTYLE0
 73
     1
 44
1.0
  0
ENDBLK
  5
1B8
330
1B6
100
AcDbEntity
  8
0
100
AcDbBlockEnd
  0
BLOCK
  5
1C1
330
1C0
100
AcDbEntity
  8
0
100
AcDbBlockBegin
  2
_D_2
 70
     0
 10
0.0
 20
0.0
 30
0.0
  3
_D_2
  1

  0
SOLID
  5
1C3
330
1C0
100
AcDbEntity
  8
VERMASSUNG
100
AcDbTrace
 10
186.8055816662
 20
152.1258869218
 30
0.0
 11
183.8055816662
 21
152.5758869218
 31
0.0
 12
183.8055816662
 22
151.6758869218
 32
0.0
 13
183.8055816662
 23
151.6758869218
 33
0.0
  0
SOLID
  5
1C4
330
1C0
100
AcDbEntity
  8
VERMASSUNG
100
AcDbTrace
 10
162.7555816662
 20
152.1258869218
 30
0.0
 11
165.7555816662
 21
151.6758869218
 31
0.0
 12
165.7555816662
 22
152.5758869218
 32
0.0
 13
165.7555816662
 23
152.5758869218
 33
0.0
  0
LINE
  5
1C5
330
1C0
100
AcDbEntity
  8
VERMASSUNG
100
AcDbLine
 10
186.8055816662
 20
125.1660640479
 30
0.0
 11
186.8055816662
 21
153.1258869218
 31
0.0
  0
LINE
  5
1C6
330
1C0
100
AcDbEntity
  8
VERMASSUNG
100
AcDbLine
 10
162.7555816662
 20
142.7125043717
 30
0.0
 11
162.7555816662
 21
153.1258869218
 31
0.0
  0
LINE
  5
1C7
330
1C0
100
AcDbEntity
  8
VERMASSUNG
100
AcDbLine
 10
186.8055816662
 20
152.1258869218
 30
0.0
 11
162.7555816662
 21
152.1258869218
 31
0.0
  0
MTEXT
  5
1C8
330
1C0
100
AcDbEntity
  8
VERMASSUNG
100
AcDbMText
 10
169.7950891395
 20
154.7040225177
 30
0.0
 40
2.0
 41
0.0
 71
     1
 72
     1
  1
24.05
  7
SLDTEXTSTYLE0
 73
     1
 44
1.0
  0
ENDBLK
  5
1C2
330
1C0
100
AcDbEntity
  8
0
100
AcDbBlockEnd
  0
BLOCK
  5
1CB
330
1CA
100
AcDbEntity
  8
0
100
AcDbBlockBegin
  2
_D_3
 70
     0
 10
0.0
 20
0.0
 30
0.0
  3
_D_3
  1

  0
SOLID
  5
1CD
330
1CA
100
AcDbEntity
  8
VERMASSUNG
100
AcDbTrace
 10
186.8055816662
 20
164.1258869218
 30
0.0
 11
183.8055816662
 21
164.5758869218
 31
0.0
 12
183.8055816662
 22
163.6758869218
 32
0.0
 13
183.8055816662
 23
163.6758869218
 33
0.0
  0
SOLID
  5
1CE
330
1CA
100
AcDbEntity
  8
VERMASSUNG
100
AcDbTrace
 10
104.9055816662
 20
164.1258869218
 30
0.0
 11
107.9055816662
 21
163.6758869218
 31
0.0
 12
107.9055816662
 22
164.5758869218
 32
0.0
 13
107.9055816662
 23
164.5758869218
 33
0.0
  0
LINE
  5
1CF
330
1CA
100
AcDbEntity
  8
VERMASSUNG
100
AcDbLine
 10
186.8055816662
 20
125.1660640479
 30
0.0
 11
186.8055816662
 21
165.1258869218
 31
0.0
  0
LINE
  5
1D0
330
1CA
100
AcDbEntity
  8
VERMASSUNG
100
AcDbLine
 10
104.9055816662
 20
132.5567417944
 30
0.0
 11
104.9055816662
 21
165.1258869218
 31
0.0
  0
LINE
  5
1D1
330
1CA
100
AcDbEntity
  8
VERMASSUNG
100
AcDbLine
 10
186.8055816662
 20
164.1258869218
 30
0.0
 11
104.9055816662
 21
164.1258869218
 31
0.0
  0
MTEXT
  5
1D2
330
1CA
100
AcDbEntity
  8
VERMASSUNG
100
AcDbMText
 10
145.9004015822
 20
166.7040225177
 30
0.0
 40
2.0
 41
0.0
 71
     1
 72
     1
  1
81.9
  7
SLDTEXTSTYLE0
 73
     1
 44
1.0
  0
ENDBLK
  5
1CC
330
1CA
100
AcDbEntity
  8
0
100
AcDbBlockEnd
  0
BLOCK
  5
1D5
330
1D4
100
AcDbEntity
  8
0
100
AcDbBlockBegin
  2
_D_4
 70
     0
 10
0.0
 20
0.0
 30
0.0
  3
_D_4
  1

  0
SOLID
  5
1D7
330
1D4
100
AcDbEntity
  8
VERMASSUNG
100
AcDbTrace
 10
194.0549673016
 20
125.3660640479
 30
0.0
 11
193.6049673016
 21
122.3660640479
 31
0.0
 12
194.5049673016
 22
122.3660640479
 32
0.0
 13
194.5049673016
 23
122.3660640479
 33
0.0
  0
SOLID
  5
1D8
330
1D4
100
AcDbEntity
  8
VERMASSUNG
100
AcDbTrace
 10
194.0549673016
 20
100.3660640479
 30
0.0
 11
194.5049673016
 21
103.3660640479
 31
0.0
 12
193.6049673016
 22
103.3660640479
 32
0.0
 13
193.6049673016
 23
103.3660640479
 33
0.0
  0
LINE
  5
1D9
330
1D4
100
AcDbEntity
  8
VERMASSUNG
100
AcDbLine
 10
186.6055816662
 20
125.3660640479
 30
0.0
 11
195.0549673016
 21
125.3660640479
 31
0.0
  0
LINE
  5
1DA
330
1D4
100
AcDbEntity
  8
VERMASSUNG
100
AcDbLine
 10
186.6055816662
 20
100.3660640479
 30
0.0
 11
195.0549673016
 21
100.3660640479
 31
0.0
  0
LINE
  5
1DB
330
1D4
100
AcDbEntity
  8
VERMASSUNG
100
AcDbLine
 10
194.0549673016
 20
125.3660640479
 30
0.0
 11
194.0549673016
 21
100.3660640479
 31
0.0
  0
MTEXT
  5
1DC
330
1D4
100
AcDbEntity
  8
VERMASSUNG
100
AcDbMText
 10
191.2768320454
 20
106.205028892
 30
0.0
 40
2.0
 41
0.0
 71
     1
 72
     1
  1
MBM
  7
SLDTEXTSTYLE0
 11
-7.044195017643634E-15
 21
1.0
 31
0.0
 73
     1
 44
1.0
  0
MTEXT
  5
1DD
330
1D4
100
AcDbEntity
  8
VERMASSUNG
100
AcDbMText
 10
191.4768319967
 20
112.6050287304
 30
0.0
 40
2.0
 41
0.0
 71
     1
 72
     1
  1
%%c
  7
SLDTEXTSTYLE0
 11
-7.044195017643634E-15
 21
1.0
 31
0.0
 73
     1
 44
1.0
  0
MTEXT
  5
1DE
330
1D4
100
AcDbEntity
  8
VERMASSUNG
100
AcDbMText
 10
191.2768320454
 20
116.2150292103
 30
0.0
 40
2.0
 41
0.0
 71
     1
 72
     1
  1
25
  7
SLDTEXTSTYLE0
 11
-7.044195017643634E-15
 21
1.0
 31
0.0
 73
     1
 44
1.0
  0
ENDBLK
  5
1D6
330
1D4
100
AcDbEntity
  8
0
100
AcDbBlockEnd
  0
BLOCK
  5
1E0
330
1DF
100
AcDbEntity
  8
0
100
AcDbBlockBegin
  2
SW_NOTE_0
 70
     0
 10
0.0
 20
0.0
 30
0.0
  3
SW_NOTE_0
  1

  0
CIRCLE
  5
1E2
330
1DF
100
AcDbEntity
  8
VERMASSUNG
 62
     0
100
AcDbCircle
 10
0.0
 20
-2.5028270988
 30
0.0
 40
2.502827098762113
  0
MTEXT
  5
1E3
330
1DF
100
AcDbEntity
  8
VERMASSUNG
 62
     0
100
AcDbMText
 10
-0.0000000237
 20
-1.8101961014
 30
0.0
 40
2.0
 41
0.0
 71
     2
 72
     1
  1
1
  7
SLDTEXTSTYLE0
 73
     1
 44
1.0
  0
ENDBLK
  5
1E1
330
1DF
100
AcDbEntity
  8
0
100
AcDbBlockEnd
  0
BLOCK
  5
1E7
330
1E6
100
AcDbEntity
  8
0
100
AcDbBlockBegin
  2
_DOT
 70
     0
 10
0.0
 20
0.0
 30
0.0
  3
_DOT
  1

  0
POLYLINE
  5
1E9
330
1E6
100
AcDbEntity
  8
0
  6
ByBlock
 62
     0
100
AcDb2dPolyline
 66
     1
 10
0.0
 20
0.0
 30
0.0
 70
     1
 40
0.5
 41
0.5
  0
VERTEX
  5
1EB
330
1E9
100
AcDbEntity
  8
0
  6
ByBlock
 62
     0
100
AcDbVertex
100
AcDb2dVertex
 10
-0.25
 20
0.0
 30
0.0
 42
1.0
  0
VERTEX
  5
1EC
330
1E9
100
AcDbEntity
  8
0
  6
ByBlock
 62
     0
100
AcDbVertex
100
AcDb2dVertex
 10
0.25
 20
0.0
 30
0.0
 42
1.0
  0
SEQEND
  5
1ED
330
1E9
100
AcDbEntity
  8
0
  6
ByBlock
 62
     0
  0
LINE
  5
1EA
330
1E6
100
AcDbEntity
  8
0
  6
ByBlock
 62
     0
370
    -2
100
AcDbLine
 10
-0.5
 20
0.0
 30
0.0
 11
-1.0
 21
0.0
 31
0.0
  0
ENDBLK
  5
1E8
330
1E6
100
AcDbEntity
  8
0
100
AcDbBlockEnd
  0
BLOCK
  5
1F0
330
1EF
100
AcDbEntity
  8
0
100
AcDbBlockBegin
  2
SW_NOTE_1
 70
     0
 10
0.0
 20
0.0
 30
0.0
  3
SW_NOTE_1
  1

  0
CIRCLE
  5
1F2
330
1EF
100
AcDbEntity
  8
VERMASSUNG
 62
     0
100
AcDbCircle
 10
0.0
 20
-2.5028270988
 30
0.0
 40
2.50282709876212
  0
MTEXT
  5
1F3
330
1EF
100
AcDbEntity
  8
VERMASSUNG
 62
     0
100
AcDbMText
 10
-0.012499975
 20
-1.8101961014
 30
0.0
 40
2.0
 41
0.0
 71
     2
 72
     1
  1
2
  7
SLDTEXTSTYLE0
 73
     1
 44
1.0
  0
ENDBLK
  5
1F1
330
1EF
100
AcDbEntity
  8
0
100
AcDbBlockEnd
  0
ENDSEC
  0
SECTION
  2
ENTITIES
  0
MTEXT
  5
78
330
1F
100
AcDbEntity
  8
KOPF_DÜNN
100
AcDbMText
 10
13.8892156294
 20
23.8442973028
 30
0.0
 40
3.0
 41
0.0
 71
     1
 72
     1
  1
102.063.251
  7
SLDTEXTSTYLE0
 73
     1
 44
1.0
  0
MTEXT
  5
79
330
1F
100
AcDbEntity
  8
VERMASSUNG
100
AcDbMText
 10
13.9329988022
 20
28.8834360957
 30
0.0
 40
3.0
 41
0.0
 71
     1
 72
     1
  1
Aufnahme
  7
SLDTEXTSTYLE0
 73
     1
 44
1.0
  0
MTEXT
  5
7A
330
1F
100
AcDbEntity
  8
VERMASSUNG
100
AcDbMText
 10
98.8601118557
 20
13.8365368761
 30
0.0
 40
2.0
 41
0.0
 71
     1
 72
     1
  1
Datum: 08.12.2006
  7
SLDTEXTSTYLE0
 73
     1
 44
1.0
  0
MTEXT
  5
7B
330
1F
100
AcDbEntity
  8
VERMASSUNG
100
AcDbMText
 10
13.933048693
 20
18.0482802738
 30
0.0
 40
2.0
 41
0.0
 71
     1
 72
     1
  1
HSK-A63 / MBM ø25
  7
SLDTEXTSTYLE0
 73
     1
 44
1.0
  0
MTEXT
  5
7C
330
1F
100
AcDbEntity
  8
VERMASSUNG
100
AcDbMText
 10
13.9808475933
 20
13.9090974274
 30
0.0
 40
2.0
 41
0.0
 71
     1
 72
     1
  1
Gewicht: 708g
  7
SLDTEXTSTYLE0
 73
     1
 44
1.0
  0
INSERT
  5
98
330
1F
100
AcDbEntity
  8
0
  6
Continuous
 62
     7
370
     0
100
AcDbBlockReference
  2
SW_TABLEANNOTATION_0
 10
155.4069348624
 20
22.9491325334
 30
0.0
  0
ARC
  5
99
330
1F
100
AcDbEntity
  8
0
  6
Continuous
 62
     7
370
    15
100
AcDbCircle
 10
137.1055816662
 20
81.6660640479
 30
0.0
 40
0.2999999999999972
100
AcDbArc
 50
180.0
 51
270.0
  0
ARC
  5
9A
330
1F
100
AcDbEntity
  8
0
  6
Continuous
 62
     7
370
    15
100
AcDbCircle
 10
137.1055816662
 20
144.0660640479
 30
0.0
 40
0.3000000000000114
100
AcDbArc
 50
90.0
 51
180.0
  0
LINE
  5
9B
330
1F
100
AcDbEntity
  8
0
  6
Continuous
 62
     7
370
    15
100
AcDbLine
 10
137.1055816662
 20
81.3660640479
 30
0.0
 11
141.7555816662
 21
81.3660640479
 31
0.0
  0
LINE
  5
9C
330
1F
100
AcDbEntity
  8
0
  6
Continuous
 62
     7
370
    15
100
AcDbLine
 10
141.7665591307
 20
144.3660640479
 30
0.0
 11
137.1055816662
 21
144.3660640479
 31
0.0
  0
ARC
  5
9D
330
1F
100
AcDbEntity
  8
0
  6
Continuous
 62
     7
370
    15
100
AcDbCircle
 10
136.3055749136
 20
88.2956264335
 30
0.0
 40
0.6000067526677597
100
AcDbArc
 50
33.5571153394
 51
90.0
  0
ARC
  5
9E
330
1F
100
AcDbEntity
  8
0
  6
Continuous
 62
     7
370
    15
100
AcDbCircle
 10
136.3055749136
 20
137.4365016623
 30
0.0
 40
0.6000067526677519
100
AcDbArc
 50
270.0
 51
326.4428846606
  0
LINE
  5
9F
330
1F
100
AcDbEntity
  8
0
  6
Continuous
 62
     7
370
    15
100
AcDbLine
 10
134.8055816662
 20
88.6456331862
 30
0.0
 11
135.6622944396
 21
88.875188682
 31
0.0
  0
LINE
  5
A0
330
1F
100
AcDbEntity
  8
0
  6
Continuous
 62
     7
370
    15
100
AcDbLine
 10
135.6622944396
 20
136.8569394139
 30
0.0
 11
134.8055816662
 21
137.0864949096
 31
0.0
  0
LINE
  5
A1
330
1F
100
AcDbEntity
  8
0
  6
Continuous
 62
     7
370
    15
100
AcDbLine
 10
123.5740728674
 20
136.523794068
 30
0.0
 11
111.0055816662
 21
135.8941101401
 31
0.0
  0
LINE
  5
A2
330
1F
100
AcDbEntity
  8
0
  6
Continuous
 62
     7
370
    15
100
AcDbLine
 10
134.8055816662
 20
137.0864949096
 30
0.0
 11
131.9885800089
 21
136.9453625621
 31
0.0
  0
LINE
  5
A3
330
1F
100
AcDbEntity
  8
0
  6
Continuous
 62
     7
370
    15
100
AcDbLine
 10
131.9886360989
 20
88.7867627236
 30
0.0
 11
134.8055816662
 21
88.6456331862
 31
0.0
  0
LINE
  5
A4
330
1F
100
AcDbEntity
  8
0
  6
Continuous
 62
     7
370
    15
100
AcDbLine
 10
115.0055816662
 20
89.6376171541
 30
0.0
 11
123.5744753861
 21
89.2083138616
 31
0.0
  0
ARC
  5
A5
330
1F
100
AcDbEntity
  8
0
  6
Continuous
 62
     7
370
    15
100
AcDbCircle
 10
135.8175858667
 20
88.2956331862
 30
0.0
 40
0.6000000000000145
100
AcDbArc
 50
90.0
 51
105.0
  0
ARC
  5
A6
330
1F
100
AcDbEntity
  8
0
  6
Continuous
 62
     7
370
    15
100
AcDbCircle
 10
135.8175858667
 20
137.4364949096
 30
0.0
 40
0.6000000000000282
100
AcDbArc
 50
255.0
 51
270.0
  0
LINE
  5
A7
330
1F
100
AcDbEntity
  8
0
  6
Continuous
 62
     7
370
    15
100
AcDbLine
 10
135.8175858667
 20
88.8956331862
 30
0.0
 11
136.3055749136
 21
88.8956331862
 31
0.0
  0
LINE
  5
A8
330
1F
100
AcDbEntity
  8
0
  6
Continuous
 62
     7
370
    15
100
AcDbLine
 10
136.3055749136
 20
136.8364949096
 30
0.0
 11
135.8175858667
 21
136.8364949096
 31
0.0
  0
ARC
  5
A9
330
1F
100
AcDbEntity
  8
0
  6
Continuous
 62
     7
370
    15
100
AcDbCircle
 10
166.7555816662
 20
96.3660640479
 30
0.0
 40
4.0
100
AcDbArc
 50
90.0
 51
180.0
  0
ARC
  5
AA
330
1F
100
AcDbEntity
  8
0
  6
Continuous
 62
     7
370
    15
100
AcDbCircle
 10
166.7555816662
 20
129.3660640479
 30
0.0
 40
4.0
100
AcDbArc
 50
180.0
 51
270.0
  0
LINE
  5
AB
330
1F
100
AcDbEntity
  8
0
  6
Continuous
 62
     7
370
    15
100
AcDbLine
 10
166.7555816662
 20
100.3660640479
 30
0.0
 11
186.6055816662
 21
100.3660640479
 31
0.0
  0
LINE
  5
AC
330
1F
100
AcDbEntity
  8
0
  6
Continuous
 62
     7
370
    15
100
AcDbLine
 10
186.6055816662
 20
125.3660640479
 30
0.0
 11
166.7555816662
 21
125.3660640479
 31
0.0
  0
LINE
  5
AD
330
1F
100
AcDbEntity
  8
0
  6
Continuous
 62
     7
370
    15
100
AcDbLine
 10
186.6055816662
 20
100.3660640479
 30
0.0
 11
186.8055816662
 21
100.5660640479
 31
0.0
  0
LINE
  5
AE
330
1F
100
AcDbEntity
  8
0
  6
Continuous
 62
     7
370
    15
100
AcDbLine
 10
186.8055816662
 20
125.1660640479
 30
0.0
 11
186.6055816662
 21
125.3660640479
 31
0.0
  0
LINE
  5
AF
330
1F
100
AcDbEntity
  8
0
  6
Continuous
 62
     7
370
    15
100
AcDbLine
 10
106.1889183062
 20
91.9960640479
 30
0.0
 11
113.6055816662
 21
91.9960640479
 31
0.0
  0
ARC
  5
B0
330
1F
100
AcDbEntity
  8
0
  6
Continuous
 62
     7
370
    15
100
AcDbCircle
 10
113.6055816662
 20
90.5960640479
 30
0.0
 40
1.399999999999997
100
AcDbArc
 50
42.2465410162
 51
90.0
  0
LINE
  5
B1
330
1F
100
AcDbEntity
  8
0
  6
Continuous
 62
     7
370
    15
100
AcDbLine
 10
104.9066141604
 20
93.1450315538
 30
0.0
 11
106.0467451244
 21
92.0049005897
 31
0.0
  0
LINE
  5
B2
330
1F
100
AcDbEntity
  8
0
  6
Continuous
 62
     7
370
    15
100
AcDbLine
 10
106.0467451244
 20
133.7272275061
 30
0.0
 11
104.9154824396
 21
132.5959648213
 31
0.0
  0
ARC
  5
B3
330
1F
100
AcDbEntity
  8
0
  6
Continuous
 62
     7
370
    15
100
AcDbCircle
 10
109.6055816662
 20
135.1360640479
 30
0.0
 40
1.399999999999984
100
AcDbArc
 50
270.0
 51
301.7485287426
  0
LINE
  5
B4
330
1F
100
AcDbEntity
  8
0
  6
Continuous
 62
     7
370
    15
100
AcDbLine
 10
109.6055816662
 20
133.7360640479
 30
0.0
 11
106.1798474001
 21
133.7360640479
 31
0.0
  0
SPLINE
  5
B5
330
1F
100
AcDbEntity
  8
0
  6
Continuous
 62
     7
370
    15
100
AcDbSpline
210
0.0
220
0.0
230
1.0
 70
    24
 71
     3
 72
    11
 73
     7
 74
     0
 42
0.000000001
 43
0.00000001
 40
0.0
 40
0.0
 40
0.0
 40
0.0
 40
0.1336647920874121
 40
0.4825473608259734
 40
0.8156356561503733
 40
1.0
 40
1.0
 40
1.0
 40
1.0
 10
180.421607070012
 20
111.366064047926
 30
0.0
 10
180.3490462308981
 20
111.366064047926
 30
0.0
 10
180.0870921226624
 20
111.366064047926
 30
0.0
 10
179.5977301454776
 20
111.366064047926
 30
0.0
 10
179.0721605711194
 20
111.366064047926
 30
0.0
 10
178.7900647910616
 20
111.366064047926
 30
0.0
 10
178.6895562624431
 20
111.366064047926
 30
0.0
  0
SPLINE
  5
B6
330
1F
100
AcDbEntity
  8
0
  6
Continuous
 62
     7
370
    15
100
AcDbSpline
210
0.0
220
0.0
230
1.0
 70
    24
 71
     3
 72
    10
 73
     6
 74
     0
 42
0.000000001
 43
0.00000001
 40
0.0
 40
0.0
 40
0.0
 40
0.0
 40
0.4391165375904073
 40
0.7513669429073321
 40
1.0
 40
1.0
 40
1.0
 40
1.0
 10
181.2876324737965
 20
112.866064047926
 30
0.0
 10
181.1636542608676
 20
112.6513274841017
 30
0.0
 10
180.9515166553322
 20
112.2838943731183
 30
0.0
 10
180.6431371779079
 20
111.7497654502079
 30
0.0
 10
180.4896473219862
 20
111.4839132213051
 30
0.0
 10
180.421607070012
 20
111.366064047926
 30
0.0
  0
SPLINE
  5
B7
330
1F
100
AcDbEntity
  8
0
  6
Continuous
 62
     7
370
    15
100
AcDbSpline
210
0.0
220
0.0
230
1.0
 70
    24
 71
     3
 72
    10
 73
     6
 74
     0
 42
0.000000001
 43
0.00000001
 40
0.0
 40
0.0
 40
0.0
 40
0.0
 40
0.4391165375904043
 40
0.751366942907332
 40
1.0
 40
1.0
 40
1.0
 40
1.0
 10
180.421607070012
 20
114.366064047926
 30
0.0
 10
180.5455852829409
 20
114.1513274841017
 30
0.0
 10
180.7577228884763
 20
113.7838943731183
 30
0.0
 10
181.0661023659006
 20
113.2497654502079
 30
0.0
 10
181.2195922218223
 20
112.9839132213051
 30
0.0
 10
181.2876324737965
 20
112.866064047926
 30
0.0
  0
SPLINE
  5
B8
330
1F
100
AcDbEntity
  8
0
  6
Continuous
 62
     7
370
    15
100
AcDbSpline
210
0.0
220
0.0
230
1.0
 70
    24
 71
     3
 72
    11
 73
     7
 74
     0
 42
0.000000001
 43
0.00000001
 40
0.0
 40
0.0
 40
0.0
 40
0.0
 40
0.1843643438496321
 40
0.5174526391740295
 40
0.8663352079125959
 40
0.9999999999999999
 40
0.9999999999999999
 40
0.9999999999999999
 40
0.9999999999999999
 10
178.6895562624431
 20
114.366064047926
 30
0.0
 10
178.7900647910616
 20
114.366064047926
 30
0.0
 10
179.0721605711194
 20
114.366064047926
 30
0.0
 10
179.5977301454776
 20
114.366064047926
 30
0.0
 10
180.0870921226624
 20
114.366064047926
 30
0.0
 10
180.3490462308981
 20
114.366064047926
 30
0.0
 10
180.421607070012
 20
114.366064047926
 30
0.0
  0
SPLINE
  5
B9
330
1F
100
AcDbEntity
  8
0
  6
Continuous
 62
     7
370
    15
100
AcDbSpline
210
0.0
220
0.0
230
1.0
 70
    24
 71
     3
 72
    10
 73
     6
 74
     0
 42
0.000000001
 43
0.00000001
 40
0.0
 40
0.0
 40
0.0
 40
0.0
 40
0.4391165375904082
 40
0.7513669429073353
 40
1.0
 40
1.0
 40
1.0
 40
1.0
 10
177.8235308586587
 20
112.866064047926
 30
0.0
 10
177.9475090715875
 20
113.0808006117503
 30
0.0
 10
178.159646677123
 20
113.4482337227338
 30
0.0
 10
178.4680261545473
 20
113.9823626456442
 30
0.0
 10
178.621516010469
 20
114.2482148745469
 30
0.0
 10
178.6895562624431
 20
114.366064047926
 30
0.0
  0
CIRCLE
  5
BA
330
1F
100
AcDbEntity
  8
0
  6
Continuous
 62
     7
370
    15
100
AcDbCircle
 10
179.5555816662
 20
112.8660640479
 30
0.0
 40
1.75
  0
SPLINE
  5
BB
330
1F
100
AcDbEntity
  8
0
  6
Continuous
 62
     7
370
    15
100
AcDbSpline
210
0.0
220
0.0
230
1.0
 70
    24
 71
     3
 72
    10
 73
     6
 74
     0
 42
0.000000001
 43
0.00000001
 40
0.0
 40
0.0
 40
0.0
 40
0.0
 40
0.4391165375904061
 40
0.75136694290734
 40
1.0
 40
1.0
 40
1.0
 40
1.0
 10
178.6895562624431
 20
111.366064047926
 30
0.0
 10
178.5655780495143
 20
111.5808006117503
 30
0.0
 10
178.3534404439789
 20
111.9482337227338
 30
0.0
 10
178.0450609665546
 20
112.4823626456442
 30
0.0
 10
177.8915711106329
 20
112.7482148745469
 30
0.0
 10
177.8235308586587
 20
112.866064047926
 30
0.0
  0
CIRCLE
  5
BC
330
1F
100
AcDbEntity
  8
0
  6
Continuous
 62
     7
370
    15
100
AcDbCircle
 10
179.5555816662
 20
112.8660640479
 30
0.0
 40
2.600000000000009
  0
CIRCLE
  5
BD
330
1F
100
AcDbEntity
  8
0
  6
Continuous
 62
     7
370
    15
100
AcDbCircle
 10
179.5555816662
 20
112.8660640479
 30
0.0
 40
3.000000000000014
  0
ARC
  5
BE
330
1F
100
AcDbEntity
  8
0
  6
Continuous
 62
     7
370
    15
100
AcDbCircle
 10
179.5555816662
 20
112.8660640479
 30
0.0
 40
1.5
100
AcDbArc
 50
210.0
 51
270.0
  0
ARC
  5
BF
330
1F
100
AcDbEntity
  8
0
  6
Continuous
 62
     7
370
    15
100
AcDbCircle
 10
179.5555816662
 20
112.8660640479
 30
0.0
 40
1.5
100
AcDbArc
 50
330.0
 51
30.0
  0
ARC
  5
C0
330
1F
100
AcDbEntity
  8
0
  6
Continuous
 62
     7
370
    15
100
AcDbCircle
 10
179.5555816662
 20
112.8660640479
 30
0.0
 40
1.5
100
AcDbArc
 50
270.0
 51
330.0
  0
ARC
  5
C1
330
1F
100
AcDbEntity
  8
0
  6
Continuous
 62
     7
370
    15
100
AcDbCircle
 10
179.5555816662
 20
112.8660640479
 30
0.0
 40
1.5
100
AcDbArc
 50
90.0
 51
150.0
  0
ARC
  5
C2
330
1F
100
AcDbEntity
  8
0
  6
Continuous
 62
     7
370
    15
100
AcDbCircle
 10
179.5555816662
 20
112.8660640479
 30
0.0
 40
1.5
100
AcDbArc
 50
30.0
 51
90.0
  0
ARC
  5
C3
330
1F
100
AcDbEntity
  8
0
  6
Continuous
 62
     7
370
    15
100
AcDbCircle
 10
179.5555816662
 20
112.8660640479
 30
0.0
 40
1.5
100
AcDbArc
 50
150.0
 51
210.0
  0
LINE
  5
C4
330
1F
100
AcDbEntity
  8
0
  6
Continuous
 62
     7
370
    15
100
AcDbLine
 10
162.1555816662
 20
82.6791463517
 30
0.0
 11
158.1975144977
 21
82.6791463517
 31
0.0
  0
LINE
  5
C5
330
1F
100
AcDbEntity
  8
0
  6
Continuous
 62
     7
370
    15
100
AcDbLine
 10
158.1975144977
 20
82.6791463517
 30
0.0
 11
158.1975144977
 21
132.7160640479
 31
0.0
  0
LINE
  5
C6
330
1F
100
AcDbEntity
  8
0
  6
Continuous
 62
     7
370
    15
100
AcDbLine
 10
158.1975144977
 20
132.7160640479
 30
0.0
 11
162.1555816662
 21
132.7160640479
 31
0.0
  0
LINE
  5
C7
330
1F
100
AcDbEntity
  8
0
  6
Continuous
 62
     7
370
    15
100
AcDbLine
 10
136.8055816662
 20
81.6660640479
 30
0.0
 11
136.8055816662
 21
144.0660640442
 31
0.0
  0
LINE
  5
C8
330
1F
100
AcDbEntity
  8
0
  6
Continuous
 62
     7
370
    15
100
AcDbLine
 10
141.7555816662
 20
132.7160640479
 30
0.0
 11
151.4136488347
 21
132.7160640479
 31
0.0
  0
LINE
  5
C9
330
1F
100
AcDbEntity
  8
0
  6
Continuous
 62
     7
370
    15
100
AcDbLine
 10
151.4136488347
 20
82.6791463517
 30
0.0
 11
151.4136488347
 21
132.7160640479
 31
0.0
  0
LINE
  5
CA
330
1F
100
AcDbEntity
  8
0
  6
Continuous
 62
     7
370
    15
100
AcDbLine
 10
151.4136488347
 20
82.6791463517
 30
0.0
 11
149.7555816662
 21
82.6791463517
 31
0.0
  0
SPLINE
  5
CB
330
1F
100
AcDbEntity
  8
0
  6
Continuous
 62
     7
370
    15
100
AcDbSpline
210
0.0
220
0.0
230
1.0
 70
     8
 71
     3
 72
    28
 73
    24
 74
     0
 42
0.000000001
 43
0.00000001
 40
0.0
 40
0.0
 40
0.0
 40
0.0
 40
0.1249999999999999
 40
0.1249999999999999
 40
0.1874999999999998
 40
0.1874999999999998
 40
0.2499999999999997
 40
0.2499999999999997
 40
0.3749999999999993
 40
0.3749999999999993
 40
0.4374999999999993
 40
0.4374999999999993
 40
0.4999999999999992
 40
0.4999999999999992
 40
0.6249999999999992
 40
0.6249999999999992
 40
0.7499999999999992
 40
0.7499999999999992
 40
0.8124999999999993
 40
0.8124999999999993
 40
0.8749999999999996
 40
0.8749999999999996
 40
1.0
 40
1.0
 40
1.0
 40
1.0
 10
149.7555816662276
 20
82.67914635167887
 30
0.0
 10
149.2238739087346
 20
82.67914635167887
 30
0.0
 10
148.7016353434243
 20
82.66336163772864
 30
0.0
 10
147.9317648571493
 20
82.61836622365244
 30
0.0
 10
147.677405284958
 20
82.59981122857671
 30
0.0
 10
147.1732837042594
 20
82.55595850613022
 30
0.0
 10
146.9235608868315
 20
82.53061389917801
 30
0.0
 10
146.1979709353851
 20
82.4472118214279
 30
0.0
 10
145.7396106738036
 20
82.38134626227682
 30
0.0
 10
145.0891127304097
 20
82.27237592178504
 30
0.0
 10
144.8774306796172
 20
82.23413628601838
 30
0.0
 10
144.4733591904792
 20
82.15637754859902
 30
0.0
 10
144.2808526766584
 20
82.11687658642369
 30
0.0
 10
143.7310177056371
 20
81.99796884405768
 30
0.0
 10
143.4010889273283
 20
81.91815116263305
 30
0.0
 10
142.8166176587596
 20
81.76480800083701
 30
0.0
 10
142.5703405207462
 20
81.69347424756775
 30
0.0
 10
142.2704977280481
 20
81.59953074049312
 30
0.0
 10
142.1820408709759
 20
81.5703369471332
 30
0.0
 10
142.0286795176708
 20
81.51687037286979
 30
0.0
 10
141.9635913034446
 20
81.49251103859461
 30
0.0
 10
141.8079972875038
 20
81.42892089314988
 30
0.0
 10
141.7555816662276
 20
81.39881795806062
 30
0.0
 10
141.7555816662276
 20
81.38194106506369
 30
0.0
  0
LINE
  5
CC
330
1F
100
AcDbEntity
  8
0
  6
Continuous
 62
     7
370
    15
100
AcDbLine
 10
141.7555816662
 20
81.3819410651
 30
0.0
 11
141.7555816662
 21
81.3660640479
 31
0.0
  0
SPLINE
  5
CD
330
1F
100
AcDbEntity
  8
0
  6
Continuous
 62
     7
370
    15
100
AcDbSpline
210
0.0
220
0.0
230
1.0
 70
     8
 71
     3
 72
    24
 73
    20
 74
     0
 42
0.000000001
 43
0.00000001
 40
0.0
 40
0.0
 40
0.0
 40
0.0
 40
0.0776730652921225
 40
0.1299452607659675
 40
0.21000827510742
 40
0.2876609549382297
 40
0.3398934658353377
 40
0.4197973415808871
 40
0.499038815212901
 40
0.5523404472670251
 40
0.606667188156935
 40
0.6339372430220945
 40
0.7140465442667739
 40
0.7683472140292388
 40
0.8234708299341458
 40
0.8511744123694222
 40
0.9297900052376832
 40
0.9827056921957914
 40
1.0
 40
1.0
 40
1.0
 40
1.0
 10
149.7555816662276
 20
143.3332595210903
 30
0.0
 10
149.4287680916792
 20
143.3362380382511
 30
0.0
 10
148.8820164602503
 20
143.3412210293008
 30
0.0
 10
148.010810714437
 20
143.3797956579692
 30
0.0
 10
147.1589037833171
 20
143.4388240214674
 30
0.0
 10
146.3445589642656
 20
143.5207200376074
 30
0.0
 10
145.5718088282176
 20
143.6163992205059
 30
0.0
 10
144.8404142377202
 20
143.7239144061532
 30
0.0
 10
144.1738714511883
 20
143.8385405680779
 30
0.0
 10
143.6449572052894
 20
143.939024293575
 30
0.0
 10
143.298998766602
 20
144.0094253562444
 30
0.0
 10
142.9193750226286
 20
144.0900342725278
 30
0.0
 10
142.586689318118
 20
144.1646455422188
 30
0.0
 10
142.2718035565553
 20
144.2386344867793
 30
0.0
 10
142.0901125766893
 20
144.2826666720998
 30
0.0
 10
141.9174629888931
 20
144.3252058587661
 30
0.0
 10
141.8091622647928
 20
144.3524618654002
 30
0.0
 10
141.7486653192252
 20
144.3678158367604
 30
0.0
 10
141.7630226065135
 20
144.3641776028341
 30
0.0
 10
141.766559130714
 20
144.3632814236278
 30
0.0
  0
LINE
  5
CE
330
1F
100
AcDbEntity
  8
0
  6
Continuous
 62
     7
370
    15
100
AcDbLine
 10
151.4136488347
 20
143.3332595211
 30
0.0
 11
149.7555816662
 21
143.3332595211
 31
0.0
  0
LINE
  5
CF
330
1F
100
AcDbEntity
  8
0
  6
Continuous
 62
     7
370
    15
100
AcDbLine
 10
151.4136488347
 20
137.3247537103
 30
0.0
 11
151.4136488347
 21
143.3332595211
 31
0.0
  0
LINE
  5
D0
330
1F
100
AcDbEntity
  8
0
  6
Continuous
 62
     7
370
    15
100
AcDbLine
 10
149.0012020119
 20
137.3247537103
 30
0.0
 11
151.4136488347
 21
137.3247537103
 31
0.0
  0
SPLINE
  5
D1
330
1F
100
AcDbEntity
  8
0
  6
Continuous
 62
     7
370
    15
100
AcDbSpline
210
0.0
220
0.0
230
1.0
 70
     8
 71
     3
 72
    20
 73
    16
 74
     0
 42
0.000000001
 43
0.00000001
 40
0.0
 40
0.0
 40
0.0
 40
0.0
 40
0.2499999999999995
 40
0.2499999999999995
 40
0.3749999999999996
 40
0.3749999999999996
 40
0.4999999999999997
 40
0.4999999999999997
 40
0.6249999999999998
 40
0.6249999999999998
 40
0.7499999999999998
 40
0.7499999999999998
 40
0.8749999999999999
 40
0.8749999999999999
 40
1.0
 40
1.0
 40
1.0
 40
1.0
 10
141.7555816662276
 20
132.716064047926
 30
0.0
 10
142.0039554005156
 20
133.3699264762234
 30
0.0
 10
142.3235254928609
 20
133.9737122582206
 30
0.0
 10
142.9458317260656
 20
134.8005509943892
 30
0.0
 10
143.1772559864963
 20
135.0629796323421
 30
0.0
 10
143.698470326146
 20
135.5596422864471
 30
0.0
 10
143.9850908087811
 20
135.7902291654686
 30
0.0
 10
144.6045755500887
 20
136.2067833900512
 30
0.0
 10
144.9388759295757
 20
136.3942811920188
 30
0.0
 10
145.6641364022005
 20
136.7256781696551
 30
0.0
 10
146.046051459591
 20
136.8651821571504
 30
0.0
 10
146.8408396357626
 20
137.0906356646214
 30
0.0
 10
147.254997829969
 20
137.177261776165
 30
0.0
 10
148.1205441705504
 20
137.2952425650191
 30
0.0
 10
148.5584317855622
 20
137.3247537102935
 30
0.0
 10
149.0012020119169
 20
137.3247537102935
 30
0.0
  0
SPLINE
  5
D2
330
1F
100
AcDbEntity
  8
0
  6
Continuous
 62
     7
370
    15
100
AcDbSpline
210
0.0
220
0.0
230
1.0
 70
     8
 71
     3
 72
     8
 73
     4
 74
     0
 42
0.000000001
 43
0.00000001
 40
0.0
 40
0.0
 40
0.0
 40
0.0
 40
1.0
 40
1.0
 40
1.0
 40
1.0
 10
158.1975144977166
 20
82.67914635167887
 30
0.0
 10
157.7020348370509
 20
83.57467243961223
 30
0.0
 10
157.2079207890087
 20
84.47095685466446
 30
0.0
 10
156.7155816662276
 20
85.36822688887116
 30
0.0
  0
LINE
  5
D3
330
1F
100
AcDbEntity
  8
0
  6
Continuous
 62
     7
370
    15
100
AcDbLine
 10
156.7155816662
 20
85.3682268889
 30
0.0
 11
156.7155816662
 21
132.7160640479
 31
0.0
  0
SPLINE
  5
D4
330
1F
100
AcDbEntity
  8
0
  6
Continuous
 62
     7
370
    15
100
AcDbSpline
210
0.0
220
0.0
230
1.0
 70
    24
 71
     3
 72
     8
 73
     4
 74
     0
 42
0.000000001
 43
0.00000001
 40
0.0
 40
0.0
 40
0.0
 40
0.0
 40
1.0
 40
1.0
 40
1.0
 40
1.0
 10
156.7155816662276
 20
132.716064047926
 30
0.0
 10
157.1955336605925
 20
132.716064047926
 30
0.0
 10
157.6908343895661
 20
132.716064047926
 30
0.0
 10
158.1975144977167
 20
132.716064047926
 30
0.0
  0
LINE
  5
D5
330
1F
100
AcDbEntity
  8
0
  6
Continuous
 62
     7
370
    15
100
AcDbLine
 10
152.8955816662
 20
85.3682268889
 30
0.0
 11
152.8955816662
 21
132.7160640479
 31
0.0
  0
SPLINE
  5
D6
330
1F
100
AcDbEntity
  8
0
  6
Continuous
 62
     7
370
    15
100
AcDbSpline
210
0.0
220
0.0
230
1.0
 70
     8
 71
     3
 72
     8
 73
     4
 74
     0
 42
0.000000001
 43
0.00000001
 40
0.0
 40
0.0
 40
0.0
 40
0.0
 40
1.0
 40
1.0
 40
1.0
 40
1.0
 10
152.8955816662276
 20
85.36822688887116
 30
0.0
 10
152.4032425434464
 20
84.47095685466446
 30
0.0
 10
151.9091284954042
 20
83.57467243961223
 30
0.0
 10
151.4136488347385
 20
82.67914635167887
 30
0.0
  0
SPLINE
  5
D7
330
1F
100
AcDbEntity
  8
0
  6
Continuous
 62
     7
370
    15
100
AcDbSpline
210
0.0
220
0.0
230
1.0
 70
    24
 71
     3
 72
     8
 73
     4
 74
     0
 42
0.000000001
 43
0.00000001
 40
0.0
 40
0.0
 40
0.0
 40
0.0
 40
1.0
 40
1.0
 40
1.0
 40
1.0
 10
151.4136488347385
 20
132.716064047926
 30
0.0
 10
151.920328942889
 20
132.716064047926
 30
0.0
 10
152.4156296718627
 20
132.716064047926
 30
0.0
 10
152.8955816662276
 20
132.716064047926
 30
0.0
  0
LINE
  5
D8
330
1F
100
AcDbEntity
  8
0
  6
Continuous
 62
     7
370
    15
100
AcDbLine
 10
162.7555816662
 20
83.3057866473
 30
0.0
 11
162.7555816662
 21
132.7160640479
 31
0.0
  0
SPLINE
  5
D9
330
1F
100
AcDbEntity
  8
0
  6
Continuous
 62
     7
370
    15
100
AcDbSpline
210
0.0
220
0.0
230
1.0
 70
     8
 71
     3
 72
    10
 73
     6
 74
     0
 42
0.000000001
 43
0.00000001
 40
0.0
 40
0.0
 40
0.0
 40
0.0
 40
0.5
 40
0.5
 40
1.0
 40
1.0
 40
1.0
 40
1.0
 10
162.7555816662276
 20
83.30578664733318
 30
0.0
 10
162.7555816662276
 20
83.14589937913952
 30
0.0
 10
162.6942720149917
 20
82.98477212362491
 30
0.0
 10
162.4751723774567
 20
82.75067312527008
 30
0.0
 10
162.3171241711431
 20
82.67914635167887
 30
0.0
 10
162.1555816662276
 20
82.67914635167887
 30
0.0
  0
SPLINE
  5
DA
330
1F
100
AcDbEntity
  8
0
  6
Continuous
 62
     7
370
    15
100
AcDbSpline
210
0.0
220
0.0
230
1.0
 70
    24
 71
     3
 72
    12
 73
     8
 74
     0
 42
0.000000001
 43
0.00000001
 40
0.0
 40
0.0
 40
0.0
 40
0.0
 40
0.250000000000002
 40
0.250000000000002
 40
0.500000000000004
 40
0.500000000000004
 40
1.0
 40
1.0
 40
1.0
 40
1.0
 10
162.1555816662276
 20
132.716064047926
 30
0.0
 10
162.2458207339146
 20
132.716064047926
 30
0.0
 10
162.3367188480211
 20
132.716064047926
 30
0.0
 10
162.4913158845096
 20
132.716064047926
 30
0.0
 10
162.5562943006177
 20
132.716064047926
 30
0.0
 10
162.708129328554
 20
132.716064047926
 30
0.0
 10
162.7555816662276
 20
132.716064047926
 30
0.0
 10
162.7555816662276
 20
132.716064047926
 30
0.0
  0
SPLINE
  5
DB
330
1F
100
AcDbEntity
  8
0
  6
Continuous
 62
     7
370
    15
100
AcDbSpline
210
0.0
220
0.0
230
1.0
 70
    24
 71
     3
 72
    14
 73
    10
 74
     0
 42
0.000000001
 43
0.00000001
 40
0.0
 40
0.0
 40
0.0
 40
0.0
 40
0.4999999999999984
 40
0.4999999999999984
 40
0.7499999999999992
 40
0.7499999999999992
 40
0.8749999999999996
 40
0.8749999999999996
 40
1.0
 40
1.0
 40
1.0
 40
1.0
 10
156.6179068638953
 20
86.46606404792604
 30
0.0
 10
156.5711221588471
 20
86.46606404792604
 30
0.0
 10
156.5090709620674
 20
86.46606404792604
 30
0.0
 10
156.3656793235168
 20
86.46606404792603
 30
0.0
 10
156.3095356699657
 20
86.46606404792604
 30
0.0
 10
156.1965846478295
 20
86.46606404792604
 30
0.0
 10
156.1535838857914
 20
86.46606404792604
 30
0.0
 10
156.0495211754849
 20
86.46606404792604
 30
0.0
 10
155.984188937128
 20
86.46606404792604
 30
0.0
 10
155.9155816662276
 20
86.46606404792604
 30
0.0
  0
SPLINE
  5
DC
330
1F
100
AcDbEntity
  8
0
  6
Continuous
 62
     7
370
    15
100
AcDbSpline
210
0.0
220
0.0
230
1.0
 70
    24
 71
     3
 72
    12
 73
     8
 74
     0
 42
0.000000001
 43
0.00000001
 40
0.0
 40
0.0
 40
0.0
 40
0.0
 40
0.5000000000000017
 40
0.5000000000000017
 40
0.7500000000000008
 40
0.7500000000000008
 40
1.0
 40
1.0
 40
1.0
 40
1.0
 10
156.3212841345366
 20
139.266064047926
 30
0.0
 10
156.2781985849256
 20
139.266064047926
 30
0.0
 10
156.2290463831763
 20
139.266064047926
 30
0.0
 10
156.1325737888884
 20
139.266064047926
 30
0.0
 10
156.0964722037538
 20
139.266064047926
 30
0.0
 10
156.0133664458926
 20
139.266064047926
 30
0.0
 10
155.9653698489263
 20
139.266064047926
 30
0.0
 10
155.9155816662276
 20
139.266064047926
 30
0.0
  0
SPLINE
  5
DD
330
1F
100
AcDbEntity
  8
0
  6
Continuous
 62
     7
370
    15
100
AcDbSpline
210
0.0
220
0.0
230
1.0
 70
     8
 71
     3
 72
    10
 73
     6
 74
     0
 42
0.000000001
 43
0.00000001
 40
0.0
 40
0.0
 40
0.0
 40
0.0
 40
0.5
 40
0.5
 40
1.0
 40
1.0
 40
1.0
 40
1.0
 10
156.7155816662276
 20
139.9857178989618
 30
0.0
 10
156.7155816662276
 20
139.8419478411438
 30
0.0
 10
156.6795326075087
 20
139.6995284786486
 30
0.0
 10
156.5440237467346
 20
139.4496341852914
 30
0.0
 10
156.4441477536385
 20
139.3416038490432
 30
0.0
 10
156.3212841345366
 20
139.266064047926
 30
0.0
  0
SPLINE
  5
DE
330
1F
100
AcDbEntity
  8
0
  6
Continuous
 62
     7
370
    15
100
AcDbSpline
210
0.0
220
0.0
230
1.0
 70
     8
 71
     3
 72
    10
 73
     6
 74
     0
 42
0.000000001
 43
0.00000001
 40
0.0
 40
0.0
 40
0.0
 40
0.0
 40
0.5
 40
0.5
 40
1.0
 40
1.0
 40
1.0
 40
1.0
 10
156.6894340430674
 20
132.716064047926
 30
0.0
 10
156.6981236859791
 20
132.7629428972442
 30
0.0
 10
156.7046627507296
 20
132.8103653626454
 30
0.0
 10
156.7134213851226
 20
132.9063021612322
 30
0.0
 10
156.7155816662276
 20
132.9542174492427
 30
0.0
 10
156.7155816662276
 20
133.0019306793872
 30
0.0
  0
SPLINE
  5
DF
330
1F
100
AcDbEntity
  8
0
  6
Continuous
 62
     7
370
    15
100
AcDbSpline
210
0.0
220
0.0
230
1.0
 70
     8
 71
     3
 72
    10
 73
     6
 74
     0
 42
0.000000001
 43
0.00000001
 40
0.0
 40
0.0
 40
0.0
 40
0.0
 40
0.5
 40
0.5
 40
1.0
 40
1.0
 40
1.0
 40
1.0
 10
153.2898791979185
 20
139.266064047926
 30
0.0
 10
153.16833893425
 20
139.3407902151378
 30
0.0
 10
153.0670045739011
 20
139.4497352310546
 30
0.0
 10
152.9313656310127
 20
139.7001657118162
 30
0.0
 10
152.8955816662276
 20
139.8425850739151
 30
0.0
 10
152.8955816662276
 20
139.9857178989618
 30
0.0
  0
SPLINE
  5
E0
330
1F
100
AcDbEntity
  8
0
  6
Continuous
 62
     7
370
    15
100
AcDbSpline
210
0.0
220
0.0
230
1.0
 70
    24
 71
     3
 72
    12
 73
     8
 74
     0
 42
0.000000001
 43
0.00000001
 40
0.0
 40
0.0
 40
0.0
 40
0.0
 40
0.2499999999999992
 40
0.2499999999999992
 40
0.4999999999999983
 40
0.4999999999999983
 40
1.0
 40
1.0
 40
1.0
 40
1.0
 10
153.6955816662276
 20
139.266064047926
 30
0.0
 10
153.6457049839103
 20
139.266064047926
 30
0.0
 10
153.5977017905065
 20
139.266064047926
 30
0.0
 10
153.5146536877945
 20
139.266064047926
 30
0.0
 10
153.4785241083267
 20
139.266064047926
 30
0.0
 10
153.3826120773825
 20
139.266064047926
 30
0.0
 10
153.3328534094137
 20
139.266064047926
 30
0.0
 10
153.2898791979185
 20
139.266064047926
 30
0.0
  0
SPLINE
  5
E1
330
1F
100
AcDbEntity
  8
0
  6
Continuous
 62
     7
370
    15
100
AcDbSpline
210
0.0
220
0.0
230
1.0
 70
    24
 71
     3
 72
    14
 73
    10
 74
     0
 42
0.000000001
 43
0.00000001
 40
0.0
 40
0.0
 40
0.0
 40
0.0
 40
0.1250000000000012
 40
0.1250000000000012
 40
0.2500000000000024
 40
0.2500000000000024
 40
0.5000000000000013
 40
0.5000000000000013
 40
1.0
 40
1.0
 40
1.0
 40
1.0
 10
153.6955816662276
 20
86.46606404792604
 30
0.0
 10
153.6271438183411
 20
86.46606404792604
 30
0.0
 10
153.5615937795761
 20
86.46606404792604
 30
0.0
 10
153.4571671401681
 20
86.46606404792604
 30
0.0
 10
153.4146225304067
 20
86.46606404792603
 30
0.0
 10
153.3020130698664
 20
86.46606404792603
 30
0.0
 10
153.246474022847
 20
86.46606404792603
 30
0.0
 10
153.1038623273832
 20
86.46606404792604
 30
0.0
 10
153.0404569723874
 20
86.46606404792603
 30
0.0
 10
152.9932564685598
 20
86.46606404792604
 30
0.0
  0
SPLINE
  5
E2
330
1F
100
AcDbEntity
  8
0
  6
Continuous
 62
     7
370
    15
100
AcDbSpline
210
0.0
220
0.0
230
1.0
 70
     8
 71
     3
 72
    10
 73
     6
 74
     0
 42
0.000000001
 43
0.00000001
 40
0.0
 40
0.0
 40
0.0
 40
0.0
 40
0.5
 40
0.5
 40
1.0
 40
1.0
 40
1.0
 40
1.0
 10
152.8955816662276
 20
133.0019306793874
 30
0.0
 10
152.8955816662276
 20
132.9541591713941
 30
0.0
 10
152.8977429098247
 20
132.9064494493325
 30
0.0
 10
152.9064142836849
 20
132.8111543317842
 30
0.0
 10
152.9129434666409
 20
132.7634617678175
 30
0.0
 10
152.9217292893877
 20
132.716064047926
 30
0.0
  0
LINE
  5
E3
330
1F
100
AcDbEntity
  8
0
  6
Continuous
 62
     7
370
    15
100
AcDbLine
 10
155.9155816662
 20
139.2660640479
 30
0.0
 11
153.6955816662
 21
139.2660640479
 31
0.0
  0
LINE
  5
E4
330
1F
100
AcDbEntity
  8
0
  6
Continuous
 62
     7
370
    15
100
AcDbLine
 10
155.9155816662
 20
86.4660640479
 30
0.0
 11
153.6955816662
 21
86.4660640479
 31
0.0
  0
LINE
  5
E5
330
1F
100
AcDbEntity
  8
0
  6
Continuous
 62
     7
370
    15
100
AcDbLine
 10
134.8055816662
 20
88.6456331862
 30
0.0
 11
134.8055816662
 21
137.0864949096
 31
0.0
  0
LINE
  5
E6
330
1F
100
AcDbEntity
  8
0
  6
Continuous
 62
     7
370
    15
100
AcDbLine
 10
115.0055816662
 20
89.6376171541
 30
0.0
 11
115.0055816662
 21
90.9023265167
 31
0.0
  0
SPLINE
  5
E7
330
1F
100
AcDbEntity
  8
0
  6
Continuous
 62
     7
370
    15
100
AcDbSpline
210
0.0
220
0.0
230
1.0
 70
     8
 71
     3
 72
    14
 73
    10
 74
     0
 42
0.000000001
 43
0.00000001
 40
0.0
 40
0.0
 40
0.0
 40
0.0
 40
0.25
 40
0.25
 40
0.5
 40
0.5
 40
0.75
 40
0.75
 40
1.0
 40
1.0
 40
1.0
 40
1.0
 10
114.2272945483118
 20
92.03291272436607
 30
0.0
 10
114.2839212235139
 20
91.92521527052921
 30
0.0
 10
114.3784438838037
 20
91.8224256888099
 30
0.0
 10
114.5614888593659
 20
91.62406837658975
 30
0.0
 10
114.6531154363206
 20
91.5280088679115
 30
0.0
 10
114.8119687540138
 20
91.34047982520225
 30
0.0
 10
114.8798593616355
 20
91.24907085241871
 30
0.0
 10
114.9767763873431
 20
91.07069463150854
 30
0.0
 10
115.0055816662282
 20
90.98347272526237
 30
0.0
 10
115.0055816662281
 20
90.90232651672811
 30
0.0
  0
SPLINE
  5
E8
330
1F
100
AcDbEntity
  8
0
  6
Continuous
 62
     7
370
    15
100
AcDbSpline
210
0.0
220
0.0
230
1.0
 70
     8
 71
     3
 72
    14
 73
    10
 74
     0
 42
0.000000001
 43
0.00000001
 40
0.0
 40
0.0
 40
0.0
 40
0.0
 40
0.125
 40
0.125
 40
0.25
 40
0.25
 40
0.5
 40
0.5
 40
1.0
 40
1.0
 40
1.0
 40
1.0
 10
113.6055816662276
 20
92.47959458664539
 30
0.0
 10
113.6541260748847
 20
92.48534289992568
 30
0.0
 10
113.7070414296696
 20
92.48224201126945
 30
0.0
 10
113.8023367746527
 20
92.46004716710712
 30
0.0
 10
113.8425877719376
 20
92.44281494001126
 30
0.0
 10
113.9468577854506
 20
92.3864870235592
 30
0.0
 10
113.9971797606039
 20
92.3423006776134
 30
0.0
 10
114.1248627081293
 20
92.21129277876278
 30
0.0
 10
114.1809481551916
 20
92.12105825853249
 30
0.0
 10
114.2272945483133
 20
92.0329127243666
 30
0.0
  0
SPLINE
  5
E9
330
1F
100
AcDbEntity
  8
0
  6
Continuous
 62
     7
370
    15
100
AcDbSpline
210
0.0
220
0.0
230
1.0
 70
     8
 71
     3
 72
     8
 73
     4
 74
     0
 42
0.000000001
 43
0.00000001
 40
0.0
 40
0.0
 40
0.0
 40
0.0
 40
1.0
 40
1.0
 40
1.0
 40
1.0
 10
111.3370565732813
 20
92.16974930006259
 30
0.0
 10
112.0716335997643
 20
92.28837431113156
 30
0.0
 10
112.8351086691599
 20
92.38836018326785
 30
0.0
 10
113.6055816662276
 20
92.47959458664539
 30
0.0
  0
SPLINE
  5
EA
330
1F
100
AcDbEntity
  8
0
  6
Continuous
 62
     7
370
    15
100
AcDbSpline
210
0.0
220
0.0
230
1.0
 70
     8
 71
     3
 72
    14
 73
    10
 74
     0
 42
0.000000001
 43
0.00000001
 40
0.0
 40
0.0
 40
0.0
 40
0.0
 40
0.5000000000000002
 40
0.5000000000000002
 40
0.7500000000000002
 40
0.7500000000000002
 40
0.8750000000000001
 40
0.8750000000000001
 40
1.0
 40
1.0
 40
1.0
 40
1.0
 10
106.0555816662276
 20
91.99612628253095
 30
0.0
 10
106.9477277967811
 20
91.9954040563303
 30
0.0
 10
107.8377042325747
 20
91.99999026278776
 30
0.0
 10
109.1642993996503
 20
92.0277152671793
 30
0.0
 10
109.605146328149
 20
92.04032180480348
 30
0.0
 10
110.2615865655715
 20
92.07133795281092
 30
0.0
 10
110.4796002221633
 20
92.0836811254377
 30
0.0
 10
110.9123090758461
 20
92.11670518060097
 30
0.0
 10
111.1275855410109
 20
92.13592234573942
 30
0.0
 10
111.3370565732813
 20
92.16974930006259
 30
0.0
  0
SPLINE
  5
EB
330
1F
100
AcDbEntity
  8
0
  6
Continuous
 62
     7
370
    15
100
AcDbSpline
210
0.0
220
0.0
230
1.0
 70
     8
 71
     3
 72
     8
 73
     4
 74
     0
 42
0.000000001
 43
0.00000001
 40
0.0000005163856998
 40
0.0000005163856998
 40
0.0000005163856998
 40
0.0000005163856998
 40
0.000026289209185
 40
0.000026289209185
 40
0.000026289209185
 40
0.000026289209185
 10
106.04553673582
 20
92.00611015562774
 30
0.0
 10
106.0488644740278
 20
92.00277590875862
 30
0.0
 10
106.0522129270034
 20
91.9994479514833
 30
0.0
 10
106.0555816662275
 20
91.99612628253094
 30
0.0
  0
SPLINE
  5
EC
330
1F
100
AcDbEntity
  8
0
  6
Continuous
 62
     7
370
    15
100
AcDbSpline
210
0.0
220
0.0
230
1.0
 70
     8
 71
     3
 72
     8
 73
     4
 74
     0
 42
0.000000001
 43
0.00000001
 40
0.0000005099763573
 40
0.0000005099763573
 40
0.0000005099763573
 40
0.0000005099763573
 40
0.0000262827998699
 40
0.0000262827998699
 40
0.0000262827998699
 40
0.0000262827998699
 10
106.0555816662276
 20
133.7360018133211
 30
0.0
 10
106.0522129269998
 20
133.7326801443652
 30
0.0
 10
106.0488644740207
 20
133.7293521870863
 30
0.0
 10
106.0455367358093
 20
133.7260179402137
 30
0.0
  0
SPLINE
  5
ED
330
1F
100
AcDbEntity
  8
0
  6
Continuous
 62
     7
370
    15
100
AcDbSpline
210
0.0
220
0.0
230
1.0
 70
     8
 71
     3
 72
    10
 73
     6
 74
     0
 42
0.000000001
 43
0.00000001
 40
0.0
 40
0.0
 40
0.0
 40
0.0
 40
0.5
 40
0.5
 40
1.0
 40
1.0
 40
1.0
 40
1.0
 10
109.6055816662276
 20
133.6891514397538
 30
0.0
 10
109.017996119137
 20
133.7102169599902
 30
0.0
 10
108.4272497256766
 20
133.7209754458624
 30
0.0
 10
107.2432305603777
 20
133.7343402263981
 30
0.0
 10
106.6498165721723
 20
133.7364828690627
 30
0.0
 10
106.0555816662276
 20
133.7360018133211
 30
0.0
  0
SPLINE
  5
EE
330
1F
100
AcDbEntity
  8
0
  6
Continuous
 62
     7
370
    15
100
AcDbSpline
210
0.0
220
0.0
230
1.0
 70
     8
 71
     3
 72
    18
 73
    14
 74
     0
 42
0.000000001
 43
0.00000001
 40
0.0
 40
0.0
 40
0.0
 40
0.0
 40
0.2500000000000008
 40
0.2500000000000008
 40
0.5000000000000009
 40
0.5000000000000009
 40
0.7500000000000009
 40
0.7500000000000009
 40
0.875000000000001
 40
0.875000000000001
 40
0.9375000000000006
 40
0.9375000000000006
 40
1.0
 40
1.0
 40
1.0
 40
1.0
 10
111.0055816662276
 20
134.710171720289
 30
0.0
 10
111.0055816662276
 20
134.6269648114318
 30
0.0
 10
110.9697325662893
 20
134.5382281561182
 30
0.0
 10
110.8448608302554
 20
134.356102965558
 30
0.0
 10
110.7544604126075
 20
134.2609729169314
 30
0.0
 10
110.5322177578653
 20
134.0717914078071
 30
0.0
 10
110.4024529714196
 20
133.9768462397123
 30
0.0
 10
110.1618155141081
 20
133.8385675321324
 30
0.0
 10
110.0740482159706
 20
133.79285709883
 30
0.0
 10
109.9195241287638
 20
133.7350337936086
 30
0.0
 10
109.8629132427091
 20
133.7173190295707
 30
0.0
 10
109.7388692118025
 20
133.6927797263378
 30
0.0
 10
109.6711545367842
 20
133.6868005877995
 30
0.0
 10
109.6055816662276
 20
133.6891514397538
 30
0.0
  0
LINE
  5
EF
330
1F
100
AcDbEntity
  8
0
  6
Continuous
 62
     7
370
    15
100
AcDbLine
 10
111.0055816662
 20
134.7101717203
 30
0.0
 11
111.0055816662
 21
135.8941101401
 31
0.0
  0
SPLINE
  5
F0
330
1F
100
AcDbEntity
  8
0
  6
Continuous
 62
     7
370
    15
100
AcDbSpline
210
0.0
220
0.0
230
1.0
 70
     8
 71
     3
 72
    24
 73
    20
 74
     0
 42
0.000000001
 43
0.00000001
 40
0.0
 40
0.0
 40
0.0
 40
0.0
 40
0.0010489762969682
 40
0.0637843125639767
 40
0.1272220590447889
 40
0.19037889244876
 40
0.2526748653693632
 40
0.3146354154433589
 40
0.3770891997149993
 40
0.4393540298512636
 40
0.5008133242537819
 40
0.5621845104587263
 40
0.6248438451115537
 40
0.6874304766616293
 40
0.7496743174679374
 40
0.8119848426977089
 40
0.875096052541316
 40
0.9384412526965075
 40
0.9999999999999999
 40
0.9999999999999999
 40
0.9999999999999999
 40
0.9999999999999999
 10
123.5744874982033
 20
89.20855561934587
 30
0.0
 10
123.5740410380991
 20
89.20849733352698
 30
0.0
 10
123.5468934744053
 20
89.2049531915844
 30
0.0
 10
123.642505252019
 20
89.21778693626725
 30
0.0
 10
123.8760655099134
 20
89.24703362146738
 30
0.0
 10
124.2716198172305
 20
89.29364794453028
 30
0.0
 10
124.7986601210712
 20
89.34383108618968
 30
0.0
 10
125.4421905330591
 20
89.38820754863995
 30
0.0
 10
126.180864388304
 20
89.41515232957757
 30
0.0
 10
126.9783788937347
 20
89.41862418028346
 30
0.0
 10
127.8049577761769
 20
89.39099693625386
 30
0.0
 10
128.630480793784
 20
89.3325180472806
 30
0.0
 10
129.4226073417851
 20
89.24707301792056
 30
0.0
 10
130.1551796157906
 20
89.1453387780842
 30
0.0
 10
130.7908198525187
 20
89.0374956561113
 30
0.0
 10
131.3127309595284
 20
88.93586549937218
 30
0.0
 10
131.6943597366439
 20
88.85338034269395
 30
0.0
 10
131.9451742068778
 20
88.79723113634432
 30
0.0
 10
131.9742957628621
 20
88.79038167773057
 30
0.0
 10
131.9886482836782
 20
88.7870059310024
 30
0.0
  0
SPLINE
  5
F1
330
1F
100
AcDbEntity
  8
0
  6
Continuous
 62
     7
370
    15
100
AcDbSpline
210
0.0
220
0.0
230
1.0
 70
     8
 71
     3
 72
    24
 73
    20
 74
     0
 42
0.000000001
 43
0.00000001
 40
0.0
 40
0.0
 40
0.0
 40
0.0
 40
0.061438427625136
 40
0.1250736755369643
 40
0.1884253490730172
 40
0.2508623904037476
 40
0.3129665632512369
 40
0.3753451453465166
 40
0.4377328972325402
 40
0.4990927322917273
 40
0.5605807588448041
 40
0.6229469893028856
 40
0.6854686282026866
 40
0.7475477813740222
 40
0.8098225060807238
 40
0.8730684085990468
 40
0.9364041844533111
 40
0.9991757196257863
 40
1.0
 40
1.0
 40
1.0
 40
1.0
 10
131.9885935128753
 20
136.9450930223834
 30
0.0
 10
131.9739927885716
 20
136.9417249655308
 30
0.0
 10
131.9442692698431
 20
136.934868422057
 30
0.0
 10
131.6915314541949
 20
136.878529801531
 30
0.0
 10
131.3085355377459
 20
136.795672719401
 30
0.0
 10
130.7861799533079
 20
136.6937656894497
 30
0.0
 10
130.1513954753079
 20
136.585926550406
 30
0.0
 10
129.4211718711354
 20
136.4844595984308
 30
0.0
 10
128.6307032859017
 20
136.3993998847401
 30
0.0
 10
127.8062197710734
 20
136.3411955908538
 30
0.0
 10
126.9791833121901
 20
136.3136121520272
 30
0.0
 10
126.1808590445381
 20
136.31710512952
 30
0.0
 10
125.4410350802489
 20
136.3440610493731
 30
0.0
 10
124.7967808472734
 20
136.3884149913724
 30
0.0
 10
124.2693735920577
 20
136.4386204411302
 30
0.0
 10
123.8747089899078
 20
136.4852302963286
 30
0.0
 10
123.642179710723
 20
136.5144258888759
 30
0.0
 10
123.5467996781707
 20
136.5272039578177
 30
0.0
 10
123.5737333150722
 20
136.5236496993094
 30
0.0
 10
123.5740824082965
 20
136.5236036317261
 30
0.0
  0
SPLINE
  5
F2
330
1F
100
AcDbEntity
  8
0
  6
Continuous
 62
     7
370
    15
100
AcDbSpline
210
0.0
220
0.0
230
1.0
 70
     8
 71
     3
 72
     9
 73
     5
 74
     0
 42
0.000000001
 43
0.00000001
 40
0.0
 40
0.0
 40
0.0
 40
0.0
 40
0.7009329310330167
 40
1.0
 40
1.0
 40
1.0
 40
1.0
 10
104.926366350463
 20
93.1647837438234
 30
0.0
 10
104.9355056271383
 20
93.14695445828187
 30
0.0
 10
104.9485443591919
 20
93.1215179510896
 30
0.0
 10
104.9637096129572
 20
93.1753978112814
 30
0.0
 10
104.9682450409509
 20
93.1915115031453
 30
0.0
  0
LINE
  5
F3
330
1F
100
AcDbEntity
  8
0
  6
Continuous
 62
     7
370
    15
100
AcDbLine
 10
104.9055816662
 20
93.1753863014
 30
0.0
 11
104.9055816662
 21
132.5567417944
 31
0.0
  0
SPLINE
  5
F4
330
1F
100
AcDbEntity
  8
0
  6
Continuous
 62
     7
370
    15
100
AcDbSpline
210
0.0
220
0.0
230
1.0
 70
     8
 71
     3
 72
     9
 73
     5
 74
     0
 42
0.000000001
 43
0.00000001
 40
0.0
 40
0.0
 40
0.0
 40
0.0
 40
0.8063521891319351
 40
1.0
 40
1.0
 40
1.0
 40
1.0
 10
104.968245040951
 20
132.5406165927068
 30
0.0
 10
104.9520601808539
 20
132.5769450242269
 30
0.0
 10
104.9319884797843
 20
132.621997833669
 30
0.0
 10
104.9227532466407
 20
132.5955952076751
 30
0.0
 10
104.9209648639596
 20
132.5904823969502
 30
0.0
  0
SPLINE
  5
F5
330
1F
100
AcDbEntity
  8
0
  6
Continuous
 62
     7
370
    15
100
AcDbSpline
210
0.0
220
0.0
230
1.0
 70
     8
 71
     3
 72
    26
 73
    22
 74
     0
 42
0.000000001
 43
0.00000001
 40
0.0
 40
0.0
 40
0.0
 40
0.0
 40
0.2500000000000165
 40
0.2500000000000165
 40
0.3750000000000256
 40
0.3750000000000256
 40
0.4375000000000291
 40
0.4375000000000291
 40
0.4687500000000291
 40
0.4687500000000291
 40
0.5000000000000292
 40
0.5000000000000292
 40
0.5312500000000293
 40
0.5312500000000293
 40
0.5625000000000293
 40
0.5625000000000293
 40
0.625000000000026
 40
0.625000000000026
 40
0.7500000000000173
 40
0.7500000000000173
 40
1.0
 40
1.0
 40
1.0
 40
1.0
 10
105.7297353123321
 20
133.2561833815239
 30
0.0
 10
105.6911347894636
 20
133.1384086851684
 30
0.0
 10
105.6448377869093
 20
133.0140189990065
 30
0.0
 10
105.5508984384754
 20
132.808799666653
 30
0.0
 10
105.515586971562
 20
132.7372268002066
 30
0.0
 10
105.4494069958163
 20
132.6212735676061
 30
0.0
 10
105.4248686291481
 20
132.5806890327959
 30
0.0
 10
105.3814958835943
 20
132.5165473509241
 30
0.0
 10
105.3659874821691
 20
132.4946809256391
 30
0.0
 10
105.330944837582
 20
132.4490866572959
 30
0.0
 10
105.3113945468623
 20
132.4254163663284
 30
0.0
 10
105.2694672664917
 20
132.3807998069885
 30
0.0
 10
105.24681515626
 20
132.3599197944706
 30
0.0
 10
105.2058414421734
 20
132.3290463807198
 30
0.0
 10
105.188242142278
 20
132.3192075108874
 30
0.0
 10
105.1436151564218
 20
132.3002178951912
 30
0.0
 10
105.1230559337685
 20
132.2998935705378
 30
0.0
 10
105.0719304942718
 20
132.309117011414
 30
0.0
 10
105.0510190812833
 20
132.330363907631
 30
0.0
 10
104.9995691737224
 20
132.4043327864617
 30
0.0
 10
104.9819038744178
 20
132.4704508797765
 30
0.0
 10
104.968245040951
 20
132.5406165927068
 30
0.0
  0
SPLINE
  5
F6
330
1F
100
AcDbEntity
  8
0
  6
Continuous
 62
     7
370
    15
100
AcDbSpline
210
0.0
220
0.0
230
1.0
 70
     8
 71
     3
 72
    10
 73
     6
 74
     0
 42
0.000000001
 43
0.00000001
 40
0.0
 40
0.0
 40
0.0
 40
0.0
 40
0.5
 40
0.5
 40
1.0
 40
1.0
 40
1.0
 40
1.0
 10
106.0455367358093
 20
133.7260179402137
 30
0.0
 10
105.9779774808911
 20
133.6583265474039
 30
0.0
 10
105.9143408255546
 20
133.5836193826503
 30
0.0
 10
105.8041200709828
 20
133.4246532502237
 30
0.0
 10
105.7573037777601
 20
133.3402979842157
 30
0.0
 10
105.7297353123321
 20
133.2561833815239
 30
0.0
  0
SPLINE
  5
F7
330
1F
100
AcDbEntity
  8
0
  6
Continuous
 62
     7
370
    15
100
AcDbSpline
210
0.0
220
0.0
230
1.0
 70
     8
 71
     3
 72
    10
 73
     6
 74
     0
 42
0.000000001
 43
0.00000001
 40
0.0
 40
0.0
 40
0.0
 40
0.0
 40
0.5
 40
0.5
 40
1.0
 40
1.0
 40
1.0
 40
1.0
 10
105.7297353123321
 20
92.47594471432807
 30
0.0
 10
105.7572127270861
 20
92.39210791786017
 30
0.0
 10
105.8039213573755
 20
92.30779743027104
 30
0.0
 10
105.9141998201215
 20
92.14867619978433
 30
0.0
 10
105.9780873587354
 20
92.07369145569467
 30
0.0
 10
106.04553673582
 20
92.00611015562774
 30
0.0
  0
SPLINE
  5
F8
330
1F
100
AcDbEntity
  8
0
  6
Continuous
 62
     7
370
    15
100
AcDbSpline
210
0.0
220
0.0
230
1.0
 70
     8
 71
     3
 72
    24
 73
    20
 74
     0
 42
0.000000001
 43
0.00000001
 40
0.0
 40
0.0
 40
0.0
 40
0.0
 40
0.249999999999999
 40
0.249999999999999
 40
0.3749999999999983
 40
0.3749999999999983
 40
0.4374999999999987
 40
0.4374999999999987
 40
0.4687499999999975
 40
0.4687499999999975
 40
0.4999999999999963
 40
0.4999999999999963
 40
0.5624999999999984
 40
0.5624999999999984
 40
0.6250000000000006
 40
0.6250000000000006
 40
0.7500000000000001
 40
0.7500000000000001
 40
1.0
 40
1.0
 40
1.0
 40
1.0
 10
104.968245040951
 20
93.19151150314528
 30
0.0
 10
104.9819981596212
 20
93.26216156113557
 30
0.0
 10
104.9997707270271
 20
93.3287596739005
 30
0.0
 10
105.0520218185824
 20
93.4028576941337
 30
0.0
 10
105.073056894164
 20
93.42411550129526
 30
0.0
 10
105.1259573017924
 20
93.4322614274415
 30
0.0
 10
105.1470629746703
 20
93.43132162404572
 30
0.0
 10
105.1931151433483
 20
93.41030563246836
 30
0.0
 10
105.2114856153317
 20
93.39939682636077
 30
0.0
 10
105.2530372503974
 20
93.36676191541339
 30
0.0
 10
105.2756039231543
 20
93.34526993504201
 30
0.0
 10
105.3383849396143
 20
93.2768039914557
 30
0.0
 10
105.3715147005822
 20
93.23072953325061
 30
0.0
 10
105.4284323870673
 20
93.14572164491594
 30
0.0
 10
105.452618412571
 20
93.10544134373457
 30
0.0
 10
105.5178263629508
 20
92.99050511726863
 30
0.0
 10
105.552542423142
 20
92.91992213212161
 30
0.0
 10
105.6457576934729
 20
92.71571637304302
 30
0.0
 10
105.6914302288336
 20
92.59281799071566
 30
0.0
 10
105.7297353123321
 20
92.47594471432808
 30
0.0
  0
SPLINE
  5
F9
330
1F
100
AcDbEntity
  8
0
  6
Continuous
 62
     7
370
    15
100
AcDbSpline
210
0.0
220
0.0
230
1.0
 70
     8
 71
     3
 72
     8
 73
     4
 74
     0
 42
0.000000001
 43
0.00000001
 40
0.0
 40
0.0
 40
0.0
 40
0.0
 40
1.0
 40
1.0
 40
1.0
 40
1.0
 10
151.4136488347385
 20
137.3247537102935
 30
0.0
 10
151.9207356764978
 20
136.1936033561298
 30
0.0
 10
152.4163035156377
 20
135.057218945362
 30
0.0
 10
152.8955816662275
 20
133.9162077155094
 30
0.0
  0
LINE
  5
FA
330
1F
100
AcDbEntity
  8
0
  6
Continuous
 62
     7
370
    15
100
AcDbLine
 10
152.8955816662
 20
133.9162077155
 30
0.0
 11
152.8955816662
 21
133.0019306794
 31
0.0
  0
SPLINE
  5
FB
330
1F
100
AcDbEntity
  8
0
  6
Continuous
 62
     7
370
    15
100
AcDbSpline
210
0.0
220
0.0
230
1.0
 70
     8
 71
     3
 72
     8
 73
     4
 74
     0
 42
0.000000001
 43
0.00000001
 40
0.0
 40
0.0
 40
0.0
 40
0.0
 40
1.0
 40
1.0
 40
1.0
 40
1.0
 10
158.1975144977166
 20
143.3332595210903
 30
0.0
 10
157.7023744683523
 20
142.44657987291
 30
0.0
 10
157.2082917630733
 20
141.559317237224
 30
0.0
 10
156.7155816662276
 20
140.6712982390976
 30
0.0
  0
LINE
  5
FC
330
1F
100
AcDbEntity
  8
0
  6
Continuous
 62
     7
370
    15
100
AcDbLine
 10
158.1975144977
 20
137.3247537103
 30
0.0
 11
158.1975144977
 21
143.3332595211
 31
0.0
  0
SPLINE
  5
FD
330
1F
100
AcDbEntity
  8
0
  6
Continuous
 62
     7
370
    15
100
AcDbSpline
210
0.0
220
0.0
230
1.0
 70
     8
 71
     3
 72
     8
 73
     4
 74
     0
 42
0.000000001
 43
0.00000001
 40
0.0
 40
0.0
 40
0.0
 40
0.0
 40
1.0
 40
1.0
 40
1.0
 40
1.0
 10
156.7155816662276
 20
133.9162077155093
 30
0.0
 10
157.1948598168174
 20
135.0572189453619
 30
0.0
 10
157.6904276559573
 20
136.1936033561298
 30
0.0
 10
158.1975144977166
 20
137.3247537102935
 30
0.0
  0
LINE
  5
FE
330
1F
100
AcDbEntity
  8
0
  6
Continuous
 62
     7
370
    15
100
AcDbLine
 10
156.7155816662
 20
133.9162077155
 30
0.0
 11
156.7155816662
 21
140.6712982391
 31
0.0
  0
SPLINE
  5
FF
330
1F
100
AcDbEntity
  8
0
  6
Continuous
 62
     7
370
    15
100
AcDbSpline
210
0.0
220
0.0
230
1.0
 70
     8
 71
     3
 72
     8
 73
     4
 74
     0
 42
0.000000001
 43
0.00000001
 40
0.0
 40
0.0
 40
0.0
 40
0.0
 40
1.0
 40
1.0
 40
1.0
 40
1.0
 10
152.8955816662276
 20
140.6712982390976
 30
0.0
 10
152.4028715693818
 20
141.559317237224
 30
0.0
 10
151.9087888641028
 20
142.44657987291
 30
0.0
 10
151.4136488347385
 20
143.3332595210903
 30
0.0
  0
LINE
  5
100
330
1F
100
AcDbEntity
  8
0
  6
Continuous
 62
     7
370
    15
100
AcDbLine
 10
152.8955816662
 20
133.9162077155
 30
0.0
 11
152.8955816662
 21
140.6712982391
 31
0.0
  0
LINE
  5
101
330
1F
100
AcDbEntity
  8
0
  6
Continuous
 62
     7
370
    15
100
AcDbLine
 10
162.1555816662
 20
143.3332595211
 30
0.0
 11
158.1975144977
 21
143.3332595211
 31
0.0
  0
LINE
  5
102
330
1F
100
AcDbEntity
  8
0
  6
Continuous
 62
     7
370
    15
100
AcDbLine
 10
158.1975144977
 20
137.3247537103
 30
0.0
 11
162.1555816662
 21
137.3247537103
 31
0.0
  0
SPLINE
  5
103
330
1F
100
AcDbEntity
  8
0
  6
Continuous
 62
     7
370
    15
100
AcDbSpline
210
0.0
220
0.0
230
1.0
 70
     8
 71
     3
 72
    12
 73
     8
 74
     0
 42
0.000000001
 43
0.00000001
 40
0.0
 40
0.0
 40
0.0
 40
0.0
 40
0.250000000000002
 40
0.250000000000002
 40
0.500000000000004
 40
0.500000000000004
 40
1.0
 40
1.0
 40
1.0
 40
1.0
 10
162.1555816662276
 20
137.3247537102935
 30
0.0
 10
162.2467813880532
 20
137.3247537102935
 30
0.0
 10
162.3373763971892
 20
137.2965340117056
 30
0.0
 10
162.4907891236359
 20
137.2020910044575
 30
0.0
 10
162.5559979909596
 20
137.1358040277522
 30
0.0
 10
162.7087825202995
 20
136.9101792044638
 30
0.0
 10
162.7555816662276
 20
136.7277529414313
 30
0.0
 10
162.7555816662276
 20
136.5470163091844
 30
0.0
  0
LINE
  5
104
330
1F
100
AcDbEntity
  8
0
  6
Continuous
 62
     7
370
    15
100
AcDbLine
 10
156.7155816662
 20
133.0019306794
 30
0.0
 11
156.7155816662
 21
133.9162077155
 31
0.0
  0
LINE
  5
105
330
1F
100
AcDbEntity
  8
0
  6
Continuous
 62
     7
370
    15
100
AcDbLine
 10
162.7555816662
 20
136.5470163092
 30
0.0
 11
162.7555816662
 21
132.7160640479
 31
0.0
  0
SPLINE
  5
106
330
1F
100
AcDbEntity
  8
0
  6
Continuous
 62
     7
370
    15
100
AcDbSpline
210
0.0
220
0.0
230
1.0
 70
     8
 71
     3
 72
    10
 73
     6
 74
     0
 42
0.000000001
 43
0.00000001
 40
0.0
 40
0.0
 40
0.0
 40
0.0
 40
0.5
 40
0.5
 40
1.0
 40
1.0
 40
1.0
 40
1.0
 10
162.7555816662276
 20
142.7125043716899
 30
0.0
 10
162.7555816662276
 20
142.8729096380407
 30
0.0
 10
162.6933438351207
 20
143.0319714510293
 30
0.0
 10
162.4742089113782
 20
143.2628839166596
 30
0.0
 10
162.3166202163863
 20
143.3332595210903
 30
0.0
 10
162.1555816662276
 20
143.3332595210903
 30
0.0
  0
LINE
  5
107
330
1F
100
AcDbEntity
  8
0
  6
Continuous
 62
     7
370
    15
100
AcDbLine
 10
162.7555816662
 20
136.5470163092
 30
0.0
 11
162.7555816662
 21
142.7125043717
 31
0.0
  0
LINE
  5
108
330
1F
100
AcDbEntity
  8
0
  6
Continuous
 62
     7
370
    15
100
AcDbLine
 10
186.6055816662
 20
100.3660640479
 30
0.0
 11
186.6055816662
 21
125.3660640479
 31
0.0
  0
SPLINE
  5
109
330
1F
100
AcDbEntity
  8
0
  6
Continuous
 62
     7
370
    15
100
AcDbSpline
210
0.0
220
0.0
230
1.0
 70
     8
 71
     3
 72
    38
 73
    34
 74
     0
 42
0.000000001
 43
0.00000001
 40
0.0
 40
0.0
 40
0.0
 40
0.0
 40
0.0625
 40
0.0625
 40
0.125
 40
0.125
 40
0.1875
 40
0.1875
 40
0.25
 40
0.25
 40
0.3125
 40
0.3125
 40
0.375
 40
0.375
 40
0.4375
 40
0.4375
 40
0.5
 40
0.5
 40
0.5625
 40
0.5625
 40
0.625
 40
0.625
 40
0.6875
 40
0.6875
 40
0.75
 40
0.75
 40
0.8125
 40
0.8125
 40
0.875
 40
0.875
 40
0.9375
 40
0.9375
 40
1.0
 40
1.0
 40
1.0
 40
1.0
 10
183.5555816662276
 20
112.866064047926
 30
0.0
 10
183.5555816662276
 20
112.6203398972579
 30
0.0
 10
183.5256294502298
 20
112.3746313872183
 30
0.0
 10
183.4066118977977
 20
111.8927615400081
 30
0.0
 10
183.3196376426917
 20
111.6633300008173
 30
0.0
 10
183.095324626286
 20
111.2253556589911
 30
0.0
 10
182.9580321381798
 20
111.0183983223722
 30
0.0
 10
182.6477450919547
 20
110.6409224907348
 30
0.0
 10
182.4716693507852
 20
110.4665902025517
 30
0.0
 10
182.092318194376
 20
110.1564243283769
 30
0.0
 10
181.8897156517025
 20
110.0204322654968
 30
0.0
 10
181.4599097427386
 20
109.7840359067411
 30
0.0
 10
181.2323715827313
 20
109.684061833069
 30
0.0
 10
180.7689971473823
 20
109.5255814759532
 30
0.0
 10
180.5312125107363
 20
109.4658954587542
 30
0.0
 10
180.0433027227195
 20
109.3856225185032
 30
0.0
 10
179.795494864033
 20
109.3657748274418
 30
0.0
 10
179.3048896239791
 20
109.3663596933064
 30
0.0
 10
179.0602112203561
 20
109.3864494249311
 30
0.0
 10
178.5721414644153
 20
109.4676257771129
 30
0.0
 10
178.3320842884369
 20
109.5284600876337
 30
0.0
 10
177.8703294714122
 20
109.6875489114296
 30
0.0
 10
177.6469341502416
 20
109.7860373515015
 30
0.0
 10
177.2159739869244
 20
110.023825713853
 30
0.0
 10
177.0121014601332
 20
110.1614545407982
 30
0.0
 10
176.6368619596678
 20
110.4692379952598
 30
0.0
 10
176.4639665397727
 20
110.6401383678528
 30
0.0
 10
176.1512079922617
 20
111.0208555818056
 30
0.0
 10
176.0153734880027
 20
111.2262997805038
 30
0.0
 10
175.7921913710091
 20
111.6619945044257
 30
0.0
 10
175.7034051297641
 20
111.8968049446663
 30
0.0
 10
175.5858104929215
 20
112.3741135701573
 30
0.0
 10
175.5555816662276
 20
112.617550338121
 30
0.0
 10
175.5555816662276
 20
112.866064047926
 30
0.0
  0
SPLINE
  5
10A
330
1F
100
AcDbEntity
  8
0
  6
Continuous
 62
     7
370
    15
100
AcDbSpline
210
0.0
220
0.0
230
1.0
 70
     8
 71
     3
 72
    34
 73
    30
 74
     0
 42
0.000000001
 43
0.00000001
 40
0.0
 40
0.0
 40
0.0
 40
0.0
 40
0.0625000000000001
 40
0.0625000000000001
 40
0.1250000000000002
 40
0.1250000000000002
 40
0.1875000000000002
 40
0.1875000000000002
 40
0.2500000000000003
 40
0.2500000000000003
 40
0.3749999999999992
 40
0.3749999999999992
 40
0.4999999999999981
 40
0.4999999999999981
 40
0.5624999999999984
 40
0.5624999999999984
 40
0.6249999999999987
 40
0.6249999999999987
 40
0.687499999999999
 40
0.687499999999999
 40
0.7499999999999993
 40
0.7499999999999993
 40
0.8124999999999996
 40
0.8124999999999996
 40
0.8749999999999997
 40
0.8749999999999997
 40
0.9374999999999999
 40
0.9374999999999999
 40
1.0
 40
1.0
 40
1.0
 40
1.0
 10
175.5555816662276
 20
112.866064047926
 30
0.0
 10
175.5555816662276
 20
113.1148520017917
 30
0.0
 10
175.5863882215822
 20
113.361781416673
 30
0.0
 10
175.7049012878739
 20
113.8399488506096
 30
0.0
 10
175.7941017769282
 20
114.0748213977843
 30
0.0
 10
176.0188933074693
 20
114.5117178838291
 30
0.0
 10
176.1559570998123
 20
114.7179499532345
 30
0.0
 10
176.4699054463437
 20
115.0982915840301
 30
0.0
 10
176.6446160357642
 20
115.2704210243285
 30
0.0
 10
177.218322343256
 20
115.7373731525241
 30
0.0
 10
177.6481480098218
 20
115.9699581864232
 30
0.0
 10
178.5851091034478
 20
116.2888509360501
 30
0.0
 10
179.071410368659
 20
116.3673393543627
 30
0.0
 10
179.8153146357613
 20
116.365403432232
 30
0.0
 10
180.0599294642051
 20
116.3445357050571
 30
0.0
 10
180.5426767600413
 20
116.2635349916609
 30
0.0
 10
180.7820091063796
 20
116.2029933165356
 30
0.0
 10
181.2485745914977
 20
116.0415697140104
 30
0.0
 10
181.4715415249074
 20
115.942403991753
 30
0.0
 10
181.8970680222967
 20
115.7069102657304
 30
0.0
 10
182.1009441368006
 20
115.5695435136743
 30
0.0
 10
182.4803066113757
 20
115.257541869908
 30
0.0
 10
182.652318827449
 20
115.0861700015026
 30
0.0
 10
182.959808041474
 20
114.7110297861386
 30
0.0
 10
183.0967196005869
 20
114.5044813253408
 30
0.0
 10
183.3206659809959
 20
114.0663529517488
 30
0.0
 10
183.4067378032068
 20
113.8381899701199
 30
0.0
 10
183.5245350727004
 20
113.362588908614
 30
0.0
 10
183.5555816662276
 20
113.1120593642733
 30
0.0
 10
183.5555816662276
 20
112.866064047926
 30
0.0
  0
LINE
  5
10B
330
1F
100
AcDbEntity
  8
0
  6
Continuous
 62
     7
370
    15
100
AcDbLine
 10
186.8055816662
 20
100.5660640479
 30
0.0
 11
186.8055816662
 21
125.1660640479
 31
0.0
  0
CIRCLE
  5
10C
330
1F
100
AcDbEntity
  8
0
  6
HIDDEN
 62
     7
370
     0
100
AcDbCircle
 10
179.5555816662
 20
112.8660640479
 30
0.0
 40
2.477364010367808
  0
CIRCLE
  5
10D
330
1F
100
AcDbEntity
  8
0
  6
HIDDEN
 62
     7
370
     0
100
AcDbCircle
 10
179.5555816662
 20
112.8660640479
 30
0.0
 40
1.84553422183545
  0
ARC
  5
10E
330
1F
100
AcDbEntity
  8
0
  6
HIDDEN
 62
     7
370
     0
100
AcDbCircle
 10
179.5555816662
 20
112.8660640479
 30
0.0
 40
1.545534221835442
100
AcDbArc
 50
223.3142371015
 51
270.0
  0
ARC
  5
10F
330
1F
100
AcDbEntity
  8
0
  6
HIDDEN
 62
     7
370
     0
100
AcDbCircle
 10
179.5555816662
 20
112.8660640479
 30
0.0
 40
1.545534221835473
100
AcDbArc
 50
160.3004640295
 51
198.2266647022
  0
ARC
  5
110
330
1F
100
AcDbEntity
  8
0
  6
HIDDEN
 62
     7
370
     0
100
AcDbCircle
 10
179.5555816662
 20
112.8660640479
 30
0.0
 40
1.545534221835434
100
AcDbArc
 50
97.9675884445
 51
141.8264383524
  0
ARC
  5
111
330
1F
100
AcDbEntity
  8
0
  6
HIDDEN
 62
     7
370
     0
100
AcDbCircle
 10
179.5555816662
 20
112.8660640479
 30
0.0
 40
1.545534221835444
100
AcDbArc
 50
42.4315240859
 51
80.2855745786
  0
ARC
  5
112
330
1F
100
AcDbEntity
  8
0
  6
HIDDEN
 62
     7
370
     0
100
AcDbCircle
 10
179.5555816662
 20
112.8660640479
 30
0.0
 40
1.545534221835435
100
AcDbArc
 50
338.9988521981
 51
16.672622324
  0
ARC
  5
113
330
1F
100
AcDbEntity
  8
0
  6
HIDDEN
 62
     7
370
     0
100
AcDbCircle
 10
179.5555816662
 20
112.8660640479
 30
0.0
 40
1.545534221835439
100
AcDbArc
 50
270.0
 51
321.8186002493
  0
LINE
  5
114
330
1F
100
AcDbEntity
  8
0
  6
HIDDEN
 62
     7
370
     0
100
AcDbLine
 10
151.4136488347
 20
137.3247537103
 30
0.0
 11
151.4136488347
 21
132.7160640479
 31
0.0
  0
LINE
  5
115
330
1F
100
AcDbEntity
  8
0
  6
HIDDEN
 62
     7
370
     0
100
AcDbLine
 10
124.8007318708
 20
89.3414644251
 30
0.0
 11
124.5490742766
 21
89.3179428036
 31
0.0
  0
SPLINE
  5
116
330
1F
100
AcDbEntity
  8
0
  6
HIDDEN
 62
     7
370
     0
100
AcDbSpline
210
0.0
220
0.0
230
1.0
 70
     8
 71
     3
 72
    22
 73
    18
 74
     0
 42
0.000000001
 43
0.00000001
 40
0.0
 40
0.0
 40
0.0
 40
0.0
 40
0.0694705033055671
 40
0.1409377255045836
 40
0.2104135489148412
 40
0.281946622355993
 40
0.3506518733998515
 40
0.4213897814436845
 40
0.4894670043894701
 40
0.5594810940348496
 40
0.6282706827033768
 40
0.6989997382187428
 40
0.7687375408512301
 40
0.8405098102584778
 40
0.9099666189318144
 40
0.9814998892127906
 40
1.0
 40
1.0
 40
1.0
 40
1.0
 10
130.5605836678291
 20
93.02853557210956
 30
0.0
 10
130.4124098133698
 20
93.04826191191889
 30
0.0
 10
130.1118032964587
 20
93.08828156533966
 30
0.0
 10
129.5769084337779
 20
93.14365522886952
 30
0.0
 10
128.9912698811092
 20
93.18811161399734
 30
0.0
 10
128.3770372215358
 20
93.21579658944951
 30
0.0
 10
127.7431205761676
 20
93.22404984291936
 30
0.0
 10
127.1209718755958
 20
93.21206978803889
 30
0.0
 10
126.5149744057351
 20
93.18131903427792
 30
0.0
 10
125.9504854846086
 20
93.13585306352772
 30
0.0
 10
125.4311092470269
 20
93.07977191172813
 30
0.0
 10
124.9782437493455
 20
93.01978174940973
 30
0.0
 10
124.5995286056798
 20
92.9618018350508
 30
0.0
 10
124.3114434846047
 20
92.91288302690431
 30
0.0
 10
124.1289855880521
 20
92.87984766437854
 30
0.0
 10
124.0483276367181
 20
92.8647078681229
 30
0.0
 10
124.0626175154169
 20
92.86737982149592
 30
0.0
 10
124.065553807889
 20
92.8679288560077
 30
0.0
  0
SPLINE
  5
117
330
1F
100
AcDbEntity
  8
0
  6
HIDDEN
 62
     7
370
     0
100
AcDbSpline
210
0.0
220
0.0
230
1.0
 70
     8
 71
     3
 72
    30
 73
    26
 74
     0
 42
0.000000001
 43
0.00000001
 40
0.0
 40
0.0
 40
0.0
 40
0.0
 40
0.0156161600804338
 40
0.0849748372628083
 40
0.1203204532886746
 40
0.15431851909124
 40
0.2234436946574014
 40
0.2586467089786606
 40
0.2931107206687012
 40
0.3631864361325605
 40
0.3988795186727329
 40
0.4336750628309725
 40
0.468714571210481
 40
0.5045294144990545
 40
0.5406151111978533
 40
0.575076786372292
 40
0.6452033649630279
 40
0.6809575734718862
 40
0.7149323277721686
 40
0.7840330582955269
 40
0.8192378401372485
 40
0.8533347063218408
 40
0.9226550151093995
 40
0.9579547149334489
 40
1.0
 40
1.0
 40
1.0
 40
1.0
 10
124.0586990474132
 20
132.8654797800339
 30
0.0
 10
124.0581013083281
 20
132.8655920329156
 30
0.0
 10
124.0548487301514
 20
132.8662028533929
 30
0.0
 10
124.1051696325997
 20
132.8567437189358
 30
0.0
 10
124.205474661641
 20
132.8384388828396
 30
0.0
 10
124.3400916497107
 20
132.8144555774658
 30
0.0
 10
124.5221502947408
 20
132.7833567833194
 30
0.0
 10
124.7490728684061
 20
132.7474376392771
 30
0.0
 10
125.0056592737834
 20
132.709118618138
 30
0.0
 10
125.3036959322561
 20
132.6688734828298
 30
0.0
 10
125.6362451862559
 20
132.6302124594274
 30
0.0
 10
125.9014428916601
 20
132.6028098006962
 30
0.0
 10
126.1805007169191
 20
132.577764964084
 30
0.0
 10
126.4749517328133
 20
132.5555972667884
 30
0.0
 10
126.7778166661295
 20
132.5374351795185
 30
0.0
 10
127.1882026529983
 20
132.519177074524
 30
0.0
 10
127.6090434919531
 20
132.5103298405197
 30
0.0
 10
128.028947409182
 20
132.5117952349608
 30
0.0
 10
128.4435619300357
 20
132.5198386281281
 30
0.0
 10
128.8497830495116
 20
132.5373454137274
 30
0.0
 10
129.2393135492335
 20
132.5629107267552
 30
0.0
 10
129.6161342504719
 20
132.5930949624694
 30
0.0
 10
129.9692714101758
 20
132.6289925373169
 30
0.0
 10
130.3110228979974
 20
132.6698108151755
 30
0.0
 10
130.472696659007
 20
132.691695728742
 30
0.0
 10
130.5605836678291
 20
132.7035925237425
 30
0.0
  0
SPLINE
  5
118
330
1F
100
AcDbEntity
  8
0
  6
HIDDEN
 62
     7
370
     0
100
AcDbSpline
210
0.0
220
0.0
230
1.0
 70
     8
 71
     3
 72
    15
 73
    11
 74
     0
 42
0.000000001
 43
0.00000001
 40
0.0
 40
0.0
 40
0.0
 40
0.0
 40
0.1100582357221789
 40
0.2208905665231284
 40
0.3341505874970377
 40
0.4482450626328223
 40
0.5583262588643473
 40
0.7821951609453103
 40
0.8962434834360676
 40
1.0
 40
1.0
 40
1.0
 40
1.0
 10
130.5605836678291
 20
132.7035925237425
 30
0.0
 10
130.6281776539251
 20
132.7126607778104
 30
0.0
 10
130.7638410487117
 20
132.7308610675504
 30
0.0
 10
130.9442864788983
 20
132.7515821232345
 30
0.0
 10
131.1064352318469
 20
132.768321807188
 30
0.0
 10
131.2444864591019
 20
132.7809039242717
 30
0.0
 10
131.3961267810977
 20
132.7932826986514
 30
0.0
 10
131.4975748868682
 20
132.800240142157
 30
0.0
 10
131.5489980948464
 20
132.8035373898907
 30
0.0
 10
131.5529531416394
 20
132.8037827042627
 30
0.0
 10
131.5548372222681
 20
132.8038995655998
 30
0.0
  0
SPLINE
  5
119
330
1F
100
AcDbEntity
  8
0
  6
HIDDEN
 62
     7
370
     0
100
AcDbSpline
210
0.0
220
0.0
230
1.0
 70
     8
 71
     3
 72
    12
 73
     8
 74
     0
 42
0.000000001
 43
0.00000001
 40
0.0
 40
0.0
 40
0.0
 40
0.0
 40
0.1181199370517726
 40
0.3465070982512953
 40
0.5687647066777097
 40
0.7975202671891114
 40
1.0
 40
1.0
 40
1.0
 40
1.0
 10
131.5427773617547
 20
92.92899124913635
 30
0.0
 10
131.544900749018
 20
92.92885717959504
 30
0.0
 10
131.5511297462344
 20
92.92846388402717
 30
0.0
 10
131.446463219696
 20
92.9350872515417
 30
0.0
 10
131.2364888819085
 20
92.95149167645764
 30
0.0
 10
130.9410305983668
 20
92.97909337625487
 30
0.0
 10
130.6821411339888
 20
93.01273818338844
 30
0.0
 10
130.5605836678291
 20
93.02853557210956
 30
0.0
  0
LINE
  5
11A
330
1F
100
AcDbEntity
  8
0
  6
HIDDEN
 62
     7
370
     0
100
AcDbLine
 10
117.8095562624
 20
95.8660640479
 30
0.0
 11
117.8095562624
 21
129.8660640479
 31
0.0
  0
SPLINE
  5
11B
330
1F
100
AcDbEntity
  8
0
  6
HIDDEN
 62
     7
370
     0
100
AcDbSpline
210
0.0
220
0.0
230
1.0
 70
     8
 71
     3
 72
    11
 73
     7
 74
     0
 42
0.000000001
 43
0.00000001
 40
0.0
 40
0.0
 40
0.0
 40
0.0
 40
0.0005779865010846
 40
0.0005779865010846
 40
0.0005779865010846
 40
0.0011559733324422
 40
0.0011559733324422
 40
0.0011559733324422
 40
0.0011559733324422
 10
104.9055816662276
 20
114.865904656086
 30
0.0
 10
105.0722489210335
 20
114.8639210167453
 30
0.0
 10
105.2389153507112
 20
114.861883409737
 30
0.0
 10
105.405581689163
 20
114.8597719463309
 30
0.0
 10
105.5722481179894
 20
114.8576604817799
 30
0.0
 10
105.7389144916271
 20
114.8554749186238
 30
0.0
 10
105.9055816662276
 20
114.8531923412925
 30
0.0
  0
SPLINE
  5
11C
330
1F
100
AcDbEntity
  8
0
  6
HIDDEN
 62
     7
370
     0
100
AcDbSpline
210
0.0
220
0.0
230
1.0
 70
     8
 71
     3
 72
    11
 73
     7
 74
     0
 42
0.000000001
 43
0.00000001
 40
0.0
 40
0.0
 40
0.0
 40
0.0
 40
0.0005782382535738
 40
0.0005782382535738
 40
0.0005782382535738
 40
0.0011564766069467
 40
0.0011564766069467
 40
0.0011564766069467
 40
0.0011564766069467
 10
105.9055816662276
 20
110.8693637457078
 30
0.0
 10
105.7389277122589
 20
110.8689261679462
 30
0.0
 10
105.572267040057
 20
110.8684461032737
 30
0.0
 10
105.4056001513916
 20
110.8679265639044
 30
0.0
 10
105.2389332329955
 20
110.8674070244424
 30
0.0
 10
105.0722601031623
 20
110.8668481954204
 30
0.0
 10
104.9055816662276
 20
110.8662626518373
 30
0.0
  0
LINE
  5
11D
330
1F
100
AcDbEntity
  8
0
  6
HIDDEN
 62
     7
370
     0
100
AcDbLine
 10
144.4654076348
 20
95.8660640479
 30
0.0
 11
144.4654076348
 21
129.8660640479
 31
0.0
  0
LINE
  5
11E
330
1F
100
AcDbEntity
  8
0
  6
HIDDEN
 62
     7
370
     0
100
AcDbLine
 10
146.7555816662
 20
97.1410640479
 30
0.0
 11
146.7555816662
 21
128.5910640388
 31
0.0
  0
SPLINE
  5
11F
330
1F
100
AcDbEntity
  8
0
  6
HIDDEN
 62
     7
370
     0
100
AcDbSpline
210
0.0
220
0.0
230
1.0
 70
     8
 71
     3
 72
    16
 73
    12
 74
     0
 42
0.000000001
 43
0.00000001
 40
0.0
 40
0.0
 40
0.0
 40
0.0
 40
0.124999999999998
 40
0.124999999999998
 40
0.249999999999996
 40
0.249999999999996
 40
0.4999999999999973
 40
0.4999999999999973
 40
0.7499999999999987
 40
0.7499999999999987
 40
1.0
 40
1.0
 40
1.0
 40
1.0
 10
113.6055816662276
 20
97.06457361189437
 30
0.0
 10
113.7007034208934
 20
97.06457361189437
 30
0.0
 10
113.7940334896215
 20
97.06075777850157
 30
0.0
 10
113.9772952503595
 20
97.04598722577177
 30
0.0
 10
114.0681729659165
 20
97.03482917779618
 30
0.0
 10
114.3249746634362
 20
96.99235790765445
 30
0.0
 10
114.4800420283082
 20
96.95131171045165
 30
0.0
 10
114.7337884898628
 20
96.85616559386976
 30
0.0
 10
114.8346589415307
 20
96.8014028597882
 30
0.0
 10
114.9699053562255
 20
96.69014173588431
 30
0.0
 10
115.0055816662276
 20
96.63297199855562
 30
0.0
 10
115.0055816662276
 20
96.57855042552191
 30
0.0
  0
SPLINE
  5
120
330
1F
100
AcDbEntity
  8
0
  6
HIDDEN
 62
     7
370
     0
100
AcDbSpline
210
0.0
220
0.0
230
1.0
 70
     8
 71
     3
 72
     8
 73
     4
 74
     0
 42
0.000000001
 43
0.00000001
 40
0.0
 40
0.0
 40
0.0
 40
0.0
 40
1.0
 40
1.0
 40
1.0
 40
1.0
 10
106.2055816695084
 20
99.2093765579766
 30
0.0
 10
106.2055816695103
 20
98.32547941565967
 30
0.0
 10
106.1921010436009
 20
97.6108961705977
 30
0.0
 10
106.1907496754116
 20
97.06457361189436
 30
0.0
  0
SPLINE
  5
121
330
1F
100
AcDbEntity
  8
0
  6
HIDDEN
 62
     7
370
     0
100
AcDbSpline
210
0.0
220
0.0
230
1.0
 70
     8
 71
     3
 72
    10
 73
     6
 74
     0
 42
0.000000001
 43
0.00000001
 40
0.0
 40
0.0
 40
0.0
 40
0.0
 40
0.5
 40
0.5
 40
1.0
 40
1.0
 40
1.0
 40
1.0
 10
105.9055816662276
 20
100.2342868236294
 30
0.0
 10
105.9969727819098
 20
100.0596480360201
 30
0.0
 10
106.0696246156353
 20
99.8860462087731
 30
0.0
 10
106.1771235086309
 20
99.5424327897835
 30
0.0
 10
106.2055816695028
 20
99.37410696326045
 30
0.0
 10
106.2055816695084
 20
99.20937655803608
 30
0.0
  0
LINE
  5
122
330
1F
100
AcDbEntity
  8
0
  6
HIDDEN
 62
     7
370
     0
100
AcDbLine
 10
105.9055816662
 20
103.2652372557
 30
0.0
 11
105.9055816662
 21
100.2342868236
 31
0.0
  0
SPLINE
  5
123
330
1F
100
AcDbEntity
  8
0
  6
HIDDEN
 62
     7
370
     0
100
AcDbSpline
210
0.0
220
0.0
230
1.0
 70
     8
 71
     3
 72
    10
 73
     6
 74
     0
 42
0.000000001
 43
0.00000001
 40
0.0
 40
0.0
 40
0.0
 40
0.0
 40
0.5
 40
0.5
 40
1.0
 40
1.0
 40
1.0
 40
1.0
 10
106.2055816693128
 20
104.6330776722832
 30
0.0
 10
106.2055816693128
 20
104.3910937047119
 30
0.0
 10
106.1774316402525
 20
104.1567512757798
 30
0.0
 10
106.0738417261471
 20
103.7013762535637
 30
0.0
 10
105.9972130165821
 20
103.4797716904861
 30
0.0
 10
105.9055816662276
 20
103.2652372557133
 30
0.0
  0
LINE
  5
124
330
1F
100
AcDbEntity
  8
0
  6
HIDDEN
 62
     7
370
     0
100
AcDbLine
 10
106.2055816693
 20
116.4706976695
 30
0.0
 11
106.2055816693
 21
104.6330776722
 31
0.0
  0
SPLINE
  5
125
330
1F
100
AcDbEntity
  8
0
  6
HIDDEN
 62
     7
370
     0
100
AcDbSpline
210
0.0
220
0.0
230
1.0
 70
     8
 71
     3
 72
     8
 73
     4
 74
     0
 42
0.000000001
 43
0.00000001
 40
0.0
 40
0.0
 40
0.0
 40
0.0
 40
1.0
 40
1.0
 40
1.0
 40
1.0
 10
105.9055816662276
 20
122.4730033688066
 30
0.0
 10
106.0866131327269
 20
122.0408958831963
 30
0.0
 10
106.2055816693185
 20
121.5867504771567
 30
0.0
 10
106.2055816693128
 20
121.0990504235379
 30
0.0
  0
LINE
  5
126
330
1F
100
AcDbEntity
  8
0
  6
HIDDEN
 62
     7
370
     0
100
AcDbLine
 10
105.9055816662
 20
125.506206355
 30
0.0
 11
105.9055816662
 21
122.4730033688
 31
0.0
  0
SPLINE
  5
127
330
1F
100
AcDbEntity
  8
0
  6
HIDDEN
 62
     7
370
     0
100
AcDbSpline
210
0.0
220
0.0
230
1.0
 70
     8
 71
     3
 72
    10
 73
     6
 74
     0
 42
0.000000001
 43
0.00000001
 40
0.0
 40
0.0
 40
0.0
 40
0.0
 40
0.5
 40
0.5
 40
1.0
 40
1.0
 40
1.0
 40
1.0
 10
106.2055816696199
 20
126.5227515378459
 30
0.0
 10
106.2055816696182
 20
126.3581151912401
 30
0.0
 10
106.178422998863
 20
126.1909599674098
 30
0.0
 10
106.0726580035448
 20
125.8523369596086
 30
0.0
 10
105.9962432152477
 20
125.6800651823178
 30
0.0
 10
105.9055816662276
 20
125.5062063549741
 30
0.0
  0
SPLINE
  5
128
330
1F
100
AcDbEntity
  8
0
  6
HIDDEN
 62
     7
370
     0
100
AcDbSpline
210
0.0
220
0.0
230
1.0
 70
     8
 71
     3
 72
    18
 73
    14
 74
     0
 42
0.000000001
 43
0.00000001
 40
0.0
 40
0.0
 40
0.0
 40
0.0
 40
0.2500000000000033
 40
0.2500000000000033
 40
0.3750000000000029
 40
0.3750000000000029
 40
0.5000000000000026
 40
0.5000000000000026
 40
0.6250000000000022
 40
0.6250000000000022
 40
0.7500000000000018
 40
0.7500000000000018
 40
1.0
 40
1.0
 40
1.0
 40
1.0
 10
111.0055816662276
 20
129.1535776703302
 30
0.0
 10
111.0055816662276
 20
129.099103149778
 30
0.0
 10
110.9706709748354
 20
129.0427220904255
 30
0.0
 10
110.8686616735023
 20
128.958645249572
 30
0.0
 10
110.8270253188242
 20
128.9313115455811
 30
0.0
 10
110.7286195233355
 20
128.8783576299821
 30
0.0
 10
110.6710763116312
 20
128.8524702762649
 30
0.0
 10
110.5437781380583
 20
128.8046927314317
 30
0.0
 10
110.4741908333008
 20
128.7827448132538
 30
0.0
 10
110.3227565881458
 20
128.7433122483411
 30
0.0
 10
110.2400726850519
 20
128.7257559991152
 30
0.0
 10
109.9839612230138
 20
128.6833172336947
 30
0.0
 10
109.7960462191259
 20
128.6675544839577
 30
0.0
 10
109.6055816662276
 20
128.6675544839577
 30
0.0
  0
LINE
  5
129
330
1F
100
AcDbEntity
  8
0
  6
HIDDEN
 62
     7
370
     0
100
AcDbLine
 10
109.6055816662
 20
128.667554484
 30
0.0
 11
106.2055816696
 21
128.667554484
 31
0.0
  0
LINE
  5
12A
330
1F
100
AcDbEntity
  8
0
  6
HIDDEN
 62
     7
370
     0
100
AcDbLine
 10
106.1366126796
 20
97.0645736119
 30
0.0
 11
113.6055816662
 21
97.0645736119
 31
0.0
  0
SPLINE
  5
12B
330
1F
100
AcDbEntity
  8
0
  6
HIDDEN
 62
     7
370
     0
100
AcDbSpline
210
0.0
220
0.0
230
1.0
 70
     8
 71
     3
 72
    22
 73
    18
 74
     0
 42
0.000000001
 43
0.00000001
 40
0.0
 40
0.0
 40
0.0
 40
0.0
 40
0.125
 40
0.125
 40
0.25
 40
0.25
 40
0.5000000000000001
 40
0.5000000000000001
 40
0.5625000000000001
 40
0.5625000000000001
 40
0.6250000000000001
 40
0.6250000000000001
 40
0.75
 40
0.75
 40
0.875
 40
0.875
 40
1.0
 40
1.0
 40
1.0
 40
1.0
 10
106.1366126795855
 20
97.06457361189437
 30
0.0
 10
106.1235302868571
 20
97.31967932204203
 30
0.0
 10
106.1103107234173
 20
97.61283758114594
 30
0.0
 10
106.0878635456232
 20
98.27513804677075
 30
0.0
 10
106.0783850785987
 20
98.64541196738213
 30
0.0
 10
106.0591871176622
 20
99.86796877049592
 30
0.0
 10
106.0603008906591
 20
100.8051076966278
 30
0.0
 10
106.0792116836121
 20
102.1249789261428
 30
0.0
 10
106.0838412114711
 20
102.3964808351191
 30
0.0
 10
106.0943224312171
 20
102.9548656699214
 30
0.0
 10
106.1001176925015
 20
103.241988525861
 30
0.0
 10
106.1184269134064
 20
104.1145777802327
 30
0.0
 10
106.1324618476868
 20
104.7150334565885
 30
0.0
 10
106.1619190198236
 20
105.9525079490846
 30
0.0
 10
106.1774747108052
 20
106.5895241057281
 30
0.0
 10
106.2012692608021
 20
107.9010127034126
 30
0.0
 10
106.2092883129475
 20
108.5771353150731
 30
0.0
 10
106.2055816662276
 20
109.2614304263579
 30
0.0
  0
LINE
  5
12C
330
1F
100
AcDbEntity
  8
0
  6
HIDDEN
 62
     7
370
     0
100
AcDbLine
 10
106.2055816696
 20
116.4706976695
 30
0.0
 11
106.2055816696
 21
128.667554484
 31
0.0
  0
SPLINE
  5
12D
330
1F
100
AcDbEntity
  8
0
  6
HIDDEN
 62
     7
370
     0
100
AcDbSpline
210
0.0
220
0.0
230
1.0
 70
     8
 71
     3
 72
    10
 73
     6
 74
     0
 42
0.000000001
 43
0.00000001
 40
0.0
 40
0.0
 40
0.0
 40
0.0
 40
0.5
 40
0.5
 40
1.0
 40
1.0
 40
1.0
 40
1.0
 10
106.2055816662276
 20
109.2614304263429
 30
0.0
 10
106.2055816662274
 20
109.535345574417
 30
0.0
 10
106.1798224363585
 20
109.8062871531466
 30
0.0
 10
106.0766165036251
 20
110.3419782347487
 30
0.0
 10
105.9992783397507
 20
110.6077250382704
 30
0.0
 10
105.9055816662276
 20
110.8693637457078
 30
0.0
  0
SPLINE
  5
12E
330
1F
100
AcDbEntity
  8
0
  6
HIDDEN
 62
     7
370
     0
100
AcDbSpline
210
0.0
220
0.0
230
1.0
 70
     8
 71
     3
 72
    10
 73
     6
 74
     0
 42
0.000000001
 43
0.00000001
 40
0.0
 40
0.0
 40
0.0
 40
0.0
 40
0.5
 40
0.5
 40
1.0
 40
1.0
 40
1.0
 40
1.0
 10
105.9055816662276
 20
114.8531923412925
 30
0.0
 10
105.9988122476183
 20
115.1170861493623
 30
0.0
 10
106.0738418598549
 20
115.3832664600002
 30
0.0
 10
106.1789089590327
 20
115.9215890349578
 30
0.0
 10
106.2055816696188
 20
116.194337151203
 30
0.0
 10
106.20558166962
 20
116.4706976694931
 30
0.0
  0
LINE
  5
12F
330
1F
100
AcDbEntity
  8
0
  6
HIDDEN
 62
     7
370
     0
100
AcDbLine
 10
105.9055816662
 20
110.8693637457
 30
0.0
 11
105.9055816662
 21
114.8531923413
 31
0.0
  0
CIRCLE
  5
130
330
1F
100
AcDbEntity
  8
0
  6
HIDDEN
 62
     7
370
     0
100
AcDbCircle
 10
179.5555816662
 20
112.8660640479
 30
0.0
 40
2.625
  0
LINE
  5
131
330
1F
100
AcDbEntity
  8
0
  6
HIDDEN
 62
     7
370
     0
100
AcDbLine
 10
106.0555816662
 20
94.8760640479
 30
0.0
 11
106.0555816662
 21
91.9961262825
 31
0.0
  0
LINE
  5
132
330
1F
100
AcDbEntity
  8
0
  6
HIDDEN
 62
     7
370
     0
100
AcDbLine
 10
186.4675086141
 20
103.3410640479
 30
0.0
 11
186.4675086141
 21
104.6729156623
 31
0.0
  0
LINE
  5
133
330
1F
100
AcDbEntity
  8
0
  6
HIDDEN
 62
     7
370
     0
100
AcDbLine
 10
186.4675086141
 20
121.0592124335
 30
0.0
 11
186.5140178374
 21
121.0575401821
 31
0.0
  0
LINE
  5
134
330
1F
100
AcDbEntity
  8
0
  6
HIDDEN
 62
     7
370
     0
100
AcDbLine
 10
186.4675086141
 20
121.0592124335
 30
0.0
 11
186.4675086141
 21
122.3910640479
 31
0.0
  0
SPLINE
  5
135
330
1F
100
AcDbEntity
  8
0
  6
HIDDEN
 62
     7
370
     0
100
AcDbSpline
210
0.0
220
0.0
230
1.0
 70
     8
 71
     3
 72
     9
 73
     5
 74
     0
 42
0.000000001
 43
0.00000001
 40
0.0
 40
0.0
 40
0.0
 40
0.0
 40
0.6708912068471603
 40
1.0
 40
1.0
 40
1.0
 40
1.0
 10
186.4573845639079
 20
118.366064047926
 30
0.0
 10
186.495167909741
 20
118.5102916677835
 30
0.0
 10
186.5514860511139
 20
118.7252708154986
 30
0.0
 10
186.5921867186532
 20
118.9351530160037
 30
0.0
 10
186.6055816662276
 20
119.0042270937162
 30
0.0
  0
SPLINE
  5
136
330
1F
100
AcDbEntity
  8
0
  6
HIDDEN
 62
     7
370
     0
100
AcDbSpline
210
0.0
220
0.0
230
1.0
 70
     8
 71
     3
 72
     9
 73
     5
 74
     0
 42
0.000000001
 43
0.00000001
 40
0.0
 40
0.0
 40
0.0
 40
0.0
 40
0.2331599277511765
 40
1.0
 40
1.0
 40
1.0
 40
1.0
 10
186.6055816662276
 20
121.0261474401091
 30
0.0
 10
186.5969763025415
 20
121.0358288661734
 30
0.0
 10
186.5600687439869
 20
121.0773515504427
 30
0.0
 10
186.5076813596528
 20
121.0670851334723
 30
0.0
 10
186.4675086140652
 20
121.0592124335409
 30
0.0
  0
SPLINE
  5
137
330
1F
100
AcDbEntity
  8
0
  6
HIDDEN
 62
     7
370
     0
100
AcDbSpline
210
0.0
220
0.0
230
1.0
 70
     8
 71
     3
 72
     8
 73
     4
 74
     0
 42
0.000000001
 43
0.00000001
 40
0.0
 40
0.0
 40
0.0
 40
0.0
 40
1.0
 40
1.0
 40
1.0
 40
1.0
 10
186.3555816662276
 20
117.9795954030222
 30
0.0
 10
186.3887316121627
 20
118.1086786693564
 30
0.0
 10
186.4226869803213
 20
118.2374945566587
 30
0.0
 10
186.4573845639079
 20
118.366064047926
 30
0.0
  0
LINE
  5
138
330
1F
100
AcDbEntity
  8
0
  6
HIDDEN
 62
     7
370
     0
100
AcDbLine
 10
186.3555816662
 20
107.7525326928
 30
0.0
 11
186.3555816662
 21
117.979595403
 31
0.0
  0
SPLINE
  5
139
330
1F
100
AcDbEntity
  8
0
  6
HIDDEN
 62
     7
370
     0
100
AcDbSpline
210
0.0
220
0.0
230
1.0
 70
     8
 71
     3
 72
     8
 73
     4
 74
     0
 42
0.000000001
 43
0.00000001
 40
0.0
 40
0.0
 40
0.0
 40
0.0
 40
1.0
 40
1.0
 40
1.0
 40
1.0
 10
186.4573845639079
 20
107.366064047926
 30
0.0
 10
186.4226823053227
 20
107.494650862077
 30
0.0
 10
186.3887270236513
 20
107.6234672937961
 30
0.0
 10
186.3555816662276
 20
107.7525326928298
 30
0.0
  0
LINE
  5
13A
330
1F
100
AcDbEntity
  8
0
  6
HIDDEN
 62
     7
370
     0
100
AcDbLine
 10
186.4675086141
 20
104.6729156623
 30
0.0
 11
186.6055816662
 21
104.7312624558
 31
0.0
  0
LINE
  5
13B
330
1F
100
AcDbEntity
  8
0
  6
HIDDEN
 62
     7
370
     0
100
AcDbLine
 10
186.6055816662
 20
106.698628142
 30
0.0
 11
186.4573845639
 21
107.3660640479
 31
0.0
  0
LINE
  5
13C
330
1F
100
AcDbEntity
  8
0
  6
HIDDEN
 62
     7
370
     0
100
AcDbLine
 10
115.0055816662
 20
94.8760640479
 30
0.0
 11
115.0055816662
 21
90.9023265167
 31
0.0
  0
LINE
  5
13D
330
1F
100
AcDbEntity
  8
0
  6
HIDDEN
 62
     7
370
     0
100
AcDbLine
 10
106.0555816662
 20
130.8560640479
 30
0.0
 11
106.0555816662
 21
133.7360018133
 31
0.0
  0
LINE
  5
13E
330
1F
100
AcDbEntity
  8
0
  6
HIDDEN
 62
     7
370
     0
100
AcDbLine
 10
111.0055816662
 20
130.8560640479
 30
0.0
 11
111.0055816662
 21
134.7101717203
 31
0.0
  0
LINE
  5
13F
330
1F
100
AcDbEntity
  8
0
  6
HIDDEN
 62
     7
370
     0
100
AcDbLine
 10
158.6055816662
 20
103.3660640479
 30
0.0
 11
158.6055816662
 21
122.3660640479
 31
0.0
  0
LINE
  5
140
330
1F
100
AcDbEntity
  8
0
  6
HIDDEN
 62
     7
370
     0
100
AcDbLine
 10
155.6055816662
 20
103.3660640479
 30
0.0
 11
155.6055816662
 21
122.3660640479
 31
0.0
  0
LINE
  5
141
330
1F
100
AcDbEntity
  8
0
  6
HIDDEN
 62
     7
370
     0
100
AcDbLine
 10
147.2555816662
 20
104.3660640479
 30
0.0
 11
147.2555816662
 21
121.3660640479
 31
0.0
  0
LINE
  5
142
330
1F
100
AcDbEntity
  8
0
  6
HIDDEN
 62
     7
370
     0
100
AcDbLine
 10
141.7555816662
 20
81.3819410651
 30
0.0
 11
141.7555816662
 21
86.4660640479
 31
0.0
  0
LINE
  5
143
330
1F
100
AcDbEntity
  8
0
  6
HIDDEN
 62
     7
370
     0
100
AcDbLine
 10
149.7555816662
 20
86.4660640479
 30
0.0
 11
141.7555816662
 21
86.4660640479
 31
0.0
  0
LINE
  5
144
330
1F
100
AcDbEntity
  8
0
  6
HIDDEN
 62
     7
370
     0
100
AcDbLine
 10
162.7555816662
 20
86.4660640479
 30
0.0
 11
156.6179068639
 21
86.4660640479
 31
0.0
  0
LINE
  5
145
330
1F
100
AcDbEntity
  8
0
  6
HIDDEN
 62
     7
370
     0
100
AcDbLine
 10
152.9932564686
 20
86.4660640479
 30
0.0
 11
149.7555816662
 21
86.4660640479
 31
0.0
  0
LINE
  5
146
330
1F
100
AcDbEntity
  8
0
  6
HIDDEN
 62
     7
370
     0
100
AcDbLine
 10
149.7555816662
 20
139.2660640479
 30
0.0
 11
141.7555816662
 21
139.2660640479
 31
0.0
  0
LINE
  5
147
330
1F
100
AcDbEntity
  8
0
  6
HIDDEN
 62
     7
370
     0
100
AcDbLine
 10
162.7555816662
 20
139.2660640479
 30
0.0
 11
156.3212841345
 21
139.2660640479
 31
0.0
  0
LINE
  5
148
330
1F
100
AcDbEntity
  8
0
  6
HIDDEN
 62
     7
370
     0
100
AcDbLine
 10
153.2898791979
 20
139.2660640479
 30
0.0
 11
149.7555816662
 21
139.2660640479
 31
0.0
  0
LINE
  5
149
330
1F
100
AcDbEntity
  8
0
  6
HIDDEN
 62
     7
370
     0
100
AcDbLine
 10
183.9555816662
 20
110.8817505646
 30
0.0
 11
183.9555816662
 21
114.8503775312
 31
0.0
  0
LINE
  5
14A
330
1F
100
AcDbEntity
  8
0
  6
HIDDEN
 62
     7
370
     0
100
AcDbLine
 10
184.6235308587
 20
110.8817505646
 30
0.0
 11
184.6235308587
 21
114.8503775312
 31
0.0
  0
LINE
  5
14B
330
1F
100
AcDbEntity
  8
0
  6
HIDDEN
 62
     7
370
     0
100
AcDbLine
 10
183.9555816662
 20
114.8503775312
 30
0.0
 11
184.6235308587
 21
114.8503775312
 31
0.0
  0
LINE
  5
14C
330
1F
100
AcDbEntity
  8
0
  6
HIDDEN
 62
     7
370
     0
100
AcDbLine
 10
183.9555816662
 20
118.3660640479
 30
0.0
 11
183.9555816662
 21
114.8503775312
 31
0.0
  0
SPLINE
  5
14D
330
1F
100
AcDbEntity
  8
0
  6
HIDDEN
 62
     7
370
     0
100
AcDbSpline
210
0.0
220
0.0
230
1.0
 70
     8
 71
     3
 72
    10
 73
     6
 74
     0
 42
0.000000001
 43
0.00000001
 40
0.0
 40
0.0
 40
0.0
 40
0.0
 40
0.5
 40
0.5
 40
1.0
 40
1.0
 40
1.0
 40
1.0
 10
184.6235308586587
 20
114.8503775312245
 30
0.0
 10
184.8294971589117
 20
115.329796533901
 30
0.0
 10
185.0919458873932
 20
115.7808411236519
 30
0.0
 10
185.687292260581
 20
116.6475397099755
 30
0.0
 10
186.0131868533323
 20
117.0529970975655
 30
0.0
 10
186.3555816662276
 20
117.4418153523568
 30
0.0
  0
LINE
  5
14E
330
1F
100
AcDbEntity
  8
0
  6
HIDDEN
 62
     7
370
     0
100
AcDbLine
 10
183.9555816662
 20
121.0592124335
 30
0.0
 11
186.4675086141
 21
121.0592124335
 31
0.0
  0
LINE
  5
14F
330
1F
100
AcDbEntity
  8
0
  6
HIDDEN
 62
     7
370
     0
100
AcDbLine
 10
183.9555816662
 20
121.0660640479
 30
0.0
 11
183.9555816662
 21
118.3660640479
 31
0.0
  0
LINE
  5
150
330
1F
100
AcDbEntity
  8
0
  6
HIDDEN
 62
     7
370
     0
100
AcDbLine
 10
184.6235308587
 20
110.8817505646
 30
0.0
 11
183.9555816662
 21
110.8817505646
 31
0.0
  0
LINE
  5
151
330
1F
100
AcDbEntity
  8
0
  6
HIDDEN
 62
     7
370
     0
100
AcDbLine
 10
183.9555816662
 20
110.8817505646
 30
0.0
 11
183.9555816662
 21
107.3660640479
 31
0.0
  0
SPLINE
  5
152
330
1F
100
AcDbEntity
  8
0
  6
HIDDEN
 62
     7
370
     0
100
AcDbSpline
210
0.0
220
0.0
230
1.0
 70
     8
 71
     3
 72
    10
 73
     6
 74
     0
 42
0.000000001
 43
0.00000001
 40
0.0
 40
0.0
 40
0.0
 40
0.0
 40
0.5
 40
0.5
 40
1.0
 40
1.0
 40
1.0
 40
1.0
 10
186.3555816662276
 20
108.2903127434952
 30
0.0
 10
186.0123335873028
 20
108.6800999539949
 30
0.0
 10
185.684381902833
 20
109.0886858738541
 30
0.0
 10
185.0930870581773
 20
109.9497654643736
 30
0.0
 10
184.8306499395524
 20
110.3996482834516
 30
0.0
 10
184.6235308586587
 20
110.8817505646276
 30
0.0
  0
LINE
  5
153
330
1F
100
AcDbEntity
  8
0
  6
HIDDEN
 62
     7
370
     0
100
AcDbLine
 10
183.9555816662
 20
104.6729156623
 30
0.0
 11
186.4675086141
 21
104.6729156623
 31
0.0
  0
LINE
  5
154
330
1F
100
AcDbEntity
  8
0
  6
HIDDEN
 62
     7
370
     0
100
AcDbLine
 10
183.9555816662
 20
107.3660640479
 30
0.0
 11
183.9555816662
 21
104.6660640479
 31
0.0
  0
SPLINE
  5
155
330
1F
100
AcDbEntity
  8
0
  6
HIDDEN
 62
     7
370
     0
100
AcDbSpline
210
0.0
220
0.0
230
1.0
 70
     8
 71
     3
 72
    11
 73
     7
 74
     0
 42
0.000000001
 43
0.00000001
 40
0.0
 40
0.0
 40
0.0
 40
0.0
 40
0.0008203708524183
 40
0.0008203708524183
 40
0.0008203708524183
 40
0.0016409967870154
 40
0.0016409967870154
 40
0.0016409967870154
 40
0.0016409967870154
 10
106.0555816662276
 20
97.01403129728331
 30
0.0
 10
105.8644233659289
 20
96.97285226866417
 30
0.0
 10
105.6729962958567
 20
96.93409829643417
 30
0.0
 10
105.4813506723361
 20
96.89773053715562
 30
0.0
 10
105.2896452672556
 20
96.86135143338959
 30
0.0
 10
105.0977063151967
 20
96.82735718262204
 30
0.0
 10
104.9055816681259
 20
96.79570905723082
 30
0.0
  0
ELLIPSE
  5
156
330
1F
100
AcDbEntity
  8
0
  6
HIDDEN
 62
     7
370
     0
100
AcDbEllipse
 10
100.6631497976
 20
112.8660640479
 30
0.0
 11
20.19992453367504
 21
-1.421085471520200E-14
 31
0.0
210
0.0
220
0.0
230
1.0
 40
0.8164965809
 41
1.300566354717478
 42
1.359198697209065
  0
LINE
  5
157
330
1F
100
AcDbEntity
  8
0
  6
HIDDEN
 62
     7
370
     0
100
AcDbLine
 10
183.3555816662
 20
105.8660640479
 30
0.0
 11
183.3555816662
 21
119.8660640479
 31
0.0
  0
LINE
  5
158
330
1F
100
AcDbEntity
  8
0
  6
HIDDEN
 62
     7
370
     0
100
AcDbLine
 10
171.8055816662
 20
106.2660640479
 30
0.0
 11
171.8055816662
 21
119.4660640479
 31
0.0
  0
LINE
  5
159
330
1F
100
AcDbEntity
  8
0
  6
HIDDEN
 62
     7
370
     0
100
AcDbLine
 10
173.8055816662
 20
105.8660640479
 30
0.0
 11
173.8055816662
 21
119.8660640479
 31
0.0
  0
LINE
  5
15A
330
1F
100
AcDbEntity
  8
0
  6
HIDDEN
 62
     7
370
     0
100
AcDbLine
 10
106.0555816662
 20
94.8760640479
 30
0.0
 11
106.0555816662
 21
97.0140312973
 31
0.0
  0
LINE
  5
15B
330
1F
100
AcDbEntity
  8
0
  6
HIDDEN
 62
     7
370
     0
100
AcDbLine
 10
106.1366126796
 20
97.0645736119
 30
0.0
 11
106.0555816662
 21
97.0140312973
 31
0.0
  0
LINE
  5
15C
330
1F
100
AcDbEntity
  8
0
  6
HIDDEN
 62
     7
370
     0
100
AcDbLine
 10
115.0055816662
 20
94.8760640479
 30
0.0
 11
115.0055816662
 21
96.5785504255
 31
0.0
  0
LINE
  5
15D
330
1F
100
AcDbEntity
  8
0
  6
HIDDEN
 62
     7
370
     0
100
AcDbLine
 10
111.0055816662
 20
130.8560640479
 30
0.0
 11
111.0055816662
 21
129.1535776703
 31
0.0
  0
LINE
  5
15E
330
1F
100
AcDbEntity
  8
0
  6
HIDDEN
 62
     7
370
     0
100
AcDbLine
 10
106.0555816662
 20
130.8560640479
 30
0.0
 11
106.0555816662
 21
128.760688499
 31
0.0
  0
SPLINE
  5
15F
330
1F
100
AcDbEntity
  8
0
  6
HIDDEN
 62
     7
370
     0
100
AcDbSpline
210
0.0
220
0.0
230
1.0
 70
     8
 71
     3
 72
     8
 73
     4
 74
     0
 42
0.000000001
 43
0.00000001
 40
0.0
 40
0.0
 40
0.0
 40
0.0
 40
1.0
 40
1.0
 40
1.0
 40
1.0
 10
106.0555816662276
 20
128.7606884989842
 30
0.0
 10
106.105587165171
 20
128.7296527247652
 30
0.0
 10
106.1555872358352
 20
128.6986080797379
 30
0.0
 10
106.20558166962
 20
128.6675544839577
 30
0.0
  0
LINE
  5
160
330
1F
100
AcDbEntity
  8
0
  6
HIDDEN
 62
     7
370
     0
100
AcDbLine
 10
183.9555816662
 20
122.3910640479
 30
0.0
 11
183.9555816662
 21
121.0592124335
 31
0.0
  0
LINE
  5
161
330
1F
100
AcDbEntity
  8
0
  6
HIDDEN
 62
     7
370
     0
100
AcDbLine
 10
183.9555816662
 20
104.6729156623
 30
0.0
 11
183.9555816662
 21
103.3410640479
 31
0.0
  0
SPLINE
  5
162
330
1F
100
AcDbEntity
  8
0
  6
HIDDEN
 62
     7
370
     0
100
AcDbSpline
210
0.0
220
0.0
230
1.0
 70
     8
 71
     3
 72
    27
 73
    23
 74
     0
 42
0.000000001
 43
0.00000001
 40
0.0
 40
0.0
 40
0.0
 40
0.0
 40
0.0524647737014976
 40
0.1118318042193104
 40
0.1772303947798592
 40
0.212263207947123
 40
0.2488314958356123
 40
0.3294313051488927
 40
0.3980771112373769
 40
0.4372258846582693
 40
0.4710490871543096
 40
0.4995558799518658
 40
0.5540498001580324
 40
0.6137899246923358
 40
0.678835899560656
 40
0.7134145972365364
 40
0.7493416491383078
 40
0.8293400810909133
 40
0.897657765706231
 40
0.9542808765697511
 40
0.9992067187733356
 40
0.9999999999999999
 40
0.9999999999999999
 40
0.9999999999999999
 40
0.9999999999999999
 10
131.5546563206788
 20
89.2660323784866
 30
0.0
 10
131.5450228034971
 20
89.2691411017626
 30
0.0
 10
131.5244883852312
 20
89.27576753142662
 30
0.0
 10
131.3380974547092
 20
89.32554502150535
 30
0.0
 10
131.0632074233326
 20
89.38925370708905
 30
0.0
 10
130.7550655539456
 20
89.45514162823706
 30
0.0
 10
130.3619466067906
 20
89.53762448158548
 30
0.0
 10
129.7855831051459
 20
89.63997987972076
 30
0.0
 10
129.11236970477
 20
89.73252240024013
 30
0.0
 10
128.5765141248234
 20
89.79410532929296
 30
0.0
 10
128.1827810520255
 20
89.83231881167501
 30
0.0
 10
127.7246044269843
 20
89.86614265266
 30
0.0
 10
127.1621946793657
 20
89.88572099187111
 30
0.0
 10
126.476849218052
 20
89.88664962292344
 30
0.0
 10
125.9101768419815
 20
89.86846210073072
 30
0.0
 10
125.474087516141
 20
89.84360958406462
 30
0.0
 10
125.0306389509924
 20
89.80762630160439
 30
0.0
 10
124.5805434977624
 20
89.76214463622497
 30
0.0
 10
124.2387297813206
 20
89.72029197353054
 30
0.0
 10
124.0929649162526
 20
89.69667022853695
 30
0.0
 10
124.0435443059553
 20
89.68484897165438
 30
0.0
 10
124.0560241534262
 20
89.68754021572184
 30
0.0
 10
124.0562406936389
 20
89.68758691201072
 30
0.0
  0
SPLINE
  5
163
330
1F
100
AcDbEntity
  8
0
  6
HIDDEN
 62
     7
370
     0
100
AcDbSpline
210
0.0
220
0.0
230
1.0
 70
     8
 71
     3
 72
    27
 73
    23
 74
     0
 42
0.000000001
 43
0.00000001
 40
0.0
 40
0.0
 40
0.0
 40
0.0
 40
0.0008362827934227
 40
0.0457190777533746
 40
0.1023011006532881
 40
0.1705796218651419
 40
0.2091715375854272
 40
0.2506990387104453
 40
0.32114526083593
 40
0.3862394062262217
 40
0.4267188115997889
 40
0.4648503052296578
 40
0.5006548480306122
 40
0.5452468940437799
 40
0.6017415069492902
 40
0.6701479135988849
 40
0.7088854882287082
 40
0.7506144971518689
 40
0.8222795351122922
 40
0.8878193737630728
 40
0.9472935045159963
 40
1.0
 40
1.0
 40
1.0
 40
1.0
 10
124.0562726093574
 20
136.044473354142
 30
0.0
 10
124.0560425237714
 20
136.04452295485
 30
0.0
 10
124.0434638830515
 20
136.0472345957522
 30
0.0
 10
124.0925323756252
 20
136.0354043304714
 30
0.0
 10
124.2376476311322
 20
136.0119576332704
 30
0.0
 10
124.510696462815
 20
135.9780542586491
 30
0.0
 10
124.8392234809141
 20
135.9444853364886
 30
0.0
 10
125.2319511011725
 20
135.9063020313792
 30
0.0
 10
125.7816791377569
 20
135.8673333442829
 30
0.0
 10
126.407701765943
 20
135.8478722436111
 30
0.0
 10
126.9508932787771
 20
135.8456865650181
 30
0.0
 10
127.3959621748156
 20
135.8542014461774
 30
0.0
 10
127.8624099720269
 20
135.8739848429851
 30
0.0
 10
128.3996506212329
 20
135.9181472281926
 30
0.0
 10
129.0478640564952
 20
135.9905628490557
 30
0.0
 10
129.633402671829
 20
136.0714649383865
 30
0.0
 10
130.1143723211398
 20
136.1496309357729
 30
0.0
 10
130.5597870677563
 20
136.2344030361744
 30
0.0
 10
130.9982877460585
 20
136.3281863243277
 30
0.0
 10
131.3373095191592
 20
136.4060891966576
 30
0.0
 10
131.5246258529629
 20
136.4562741087389
 30
0.0
 10
131.545114327625
 20
136.4629397835674
 30
0.0
 10
131.5547405503827
 20
136.4660715574933
 30
0.0
  0
SPLINE
  5
164
330
1F
100
AcDbEntity
  8
0
  6
HIDDEN
 62
     7
370
     0
100
AcDbSpline
210
0.0
220
0.0
230
1.0
 70
     8
 71
     3
 72
     8
 73
     4
 74
     0
 42
0.000000001
 43
0.00000001
 40
0.0
 40
0.0
 40
0.0
 40
0.0
 40
0.0001590976953043
 40
0.0001590976953043
 40
0.0001590976953043
 40
0.0001590976953043
 10
106.1907496754116
 20
97.06457361189437
 30
0.0
 10
106.1456982049186
 20
97.03659472757688
 30
0.0
 10
106.1006421665151
 20
97.00862319720808
 30
0.0
 10
106.0555816662276
 20
96.98065885786185
 30
0.0
  0
SPLINE
  5
165
330
1F
100
AcDbEntity
  8
0
  6
HIDDEN
 62
     7
370
     0
100
AcDbSpline
210
0.0
220
0.0
230
1.0
 70
     8
 71
     3
 72
    11
 73
     7
 74
     0
 42
0.000000001
 43
0.00000001
 40
0.0
 40
0.0
 40
0.0
 40
0.0
 40
0.000821290931147
 40
0.000821290931147
 40
0.000821290931147
 40
0.0016428257243086
 40
0.0016428257243086
 40
0.0016428257243086
 40
0.0016428257243086
 10
106.0555816662276
 20
96.98065885786184
 30
0.0
 10
105.8644366447454
 20
96.93737266900624
 30
0.0
 10
105.673018309069
 20
96.89643615936586
 30
0.0
 10
105.4813722344078
 20
96.85783438797614
 30
0.0
 10
105.2896691528662
 20
96.8192211341359
 30
0.0
 10
105.0977240295807
 20
96.7829409248467
 30
0.0
 10
104.9055816662275
 20
96.74897401849196
 30
0.0
  0
LINE
  5
166
330
1F
100
AcDbEntity
  8
0
  6
HIDDEN
 62
     7
370
     0
100
AcDbLine
 10
152.8955816662
 20
133.0019306794
 30
0.0
 11
152.8955816662
 21
132.7160640479
 31
0.0
  0
LINE
  5
167
330
1F
100
AcDbEntity
  8
0
  6
HIDDEN
 62
     7
370
     0
100
AcDbLine
 10
156.7155816662
 20
133.0019306794
 30
0.0
 11
156.7155816662
 21
132.7160640479
 31
0.0
  0
LINE
  5
168
330
1F
100
AcDbEntity
  8
0
  6
HIDDEN
 62
     7
370
     0
100
AcDbLine
 10
158.1975144977
 20
137.3247537103
 30
0.0
 11
158.1975144977
 21
132.7160640479
 31
0.0
  0
SPLINE
  5
169
330
1F
100
AcDbEntity
  8
0
  6
HIDDEN
 62
     7
370
     0
100
AcDbSpline
210
0.0
220
0.0
230
1.0
 70
     8
 71
     3
 72
    11
 73
     7
 74
     0
 42
0.000000001
 43
0.00000001
 40
0.0000000000000004
 40
0.0000000000000004
 40
0.0000000000000004
 40
0.0000000000000004
 40
0.0005781862223981
 40
0.0005781862223981
 40
0.0005781862223981
 40
0.0011563724723932
 40
0.0011563724723932
 40
0.0011563724723932
 40
0.0011563724723932
 10
105.9055816662278
 20
125.5062063549788
 30
0.0
 10
105.7389211119522
 20
125.5707358663922
 30
0.0
 10
105.5722578150457
 20
125.6352385702309
 30
0.0
 10
105.4055912312154
 20
125.6997250186644
 30
0.0
 10
105.2389246389563
 20
125.7642114703591
 30
0.0
 10
105.0722547733303
 20
125.828681479087
 30
0.0
 10
104.9055816662275
 20
125.8931372458194
 30
0.0
  0
SPLINE
  5
16A
330
1F
100
AcDbEntity
  8
0
  6
HIDDEN
 62
     7
370
     0
100
AcDbSpline
210
0.0
220
0.0
230
1.0
 70
     8
 71
     3
 72
    11
 73
     7
 74
     0
 42
0.000000001
 43
0.00000001
 40
0.0000000000000001
 40
0.0000000000000001
 40
0.0000000000000001
 40
0.0000000000000001
 40
0.0005778746105124
 40
0.0005778746105124
 40
0.0005778746105124
 40
0.0011557494857259
 40
0.0011557494857259
 40
0.0011557494857259
 40
0.0011557494857259
 10
104.9055816662275
 20
99.83884219243615
 30
0.0
 10
105.0722485426408
 20
99.9046543191212
 30
0.0
 10
105.2389152622023
 20
99.97051279925022
 30
0.0
 10
105.405581910251
 20
100.0364203721724
 30
0.0
 10
105.5722486347696
 20
100.1023279753343
 30
0.0
 10
105.7389153291902
 20
100.1682850837146
 30
0.0
 10
105.9055816662276
 20
100.2342868236294
 30
0.0
  0
SPLINE
  5
16B
330
1F
100
AcDbEntity
  8
0
  6
HIDDEN
 62
     7
370
     0
100
AcDbSpline
210
0.0
220
0.0
230
1.0
 70
     8
 71
     3
 72
    11
 73
     7
 74
     0
 42
0.000000001
 43
0.00000001
 40
0.0000000000000006
 40
0.0000000000000006
 40
0.0000000000000006
 40
0.0000000000000006
 40
0.0005780486062825
 40
0.0005780486062825
 40
0.0005780486062825
 40
0.0011560973514241
 40
0.0011560973514241
 40
0.0011560973514241
 40
0.0011560973514241
 10
104.9055816662275
 20
122.8468785496178
 30
0.0
 10
105.0722515222724
 20
122.7845066880708
 30
0.0
 10
105.2389192263567
 20
122.7221528277413
 30
0.0
 10
105.4055855308103
 20
122.659833267524
 30
0.0
 10
105.5722518715041
 20
122.5975136937558
 30
0.0
 10
105.7389168281329
 20
122.5352284894055
 30
0.0
 10
105.9055816662276
 20
122.4730033688066
 30
0.0
  0
SPLINE
  5
16C
330
1F
100
AcDbEntity
  8
0
  6
HIDDEN
 62
     7
370
     0
100
AcDbSpline
210
0.0
220
0.0
230
1.0
 70
     8
 71
     3
 72
    11
 73
     7
 74
     0
 42
0.000000001
 43
0.00000001
 40
0.0
 40
0.0
 40
0.0
 40
0.0
 40
0.0005782401583596
 40
0.0005782401583596
 40
0.0005782401583596
 40
0.0011564805961119
 40
0.0011564805961119
 40
0.0011564805961119
 40
0.0011564805961119
 10
105.9055816662276
 20
103.2652372557133
 30
0.0
 10
105.7389307158786
 20
103.2018117976233
 30
0.0
 10
105.572271123296
 20
103.1384562739382
 30
0.0
 10
105.4056040708674
 20
103.0751586895574
 30
0.0
 10
105.2389369343036
 20
103.0118610732233
 30
0.0
 10
105.0722623268575
 20
102.9486212782509
 30
0.0
 10
104.9055816662275
 20
102.8854212715795
 30
0.0
  0
CIRCLE
  5
16D
330
1F
100
AcDbEntity
  8
0
  6
HIDDEN
 62
     7
370
     0
100
AcDbCircle
 10
143.8055816662
 20
112.8660640479
 30
0.0
 40
5.000000000000014
  0
LINE
  5
16E
330
1F
100
AcDbEntity
  8
0
  6
HIDDEN
 62
     7
370
     0
100
AcDbLine
 10
136.8055816662
 20
87.5421329019
 30
0.0
 11
136.8997424418
 21
88.2121216332
 31
0.0
  0
LINE
  5
16F
330
1F
100
AcDbEntity
  8
0
  6
HIDDEN
 62
     7
370
     0
100
AcDbLine
 10
136.8997424418
 20
137.5200064627
 30
0.0
 11
136.8055816662
 21
138.1899951939
 31
0.0
  0
ARC
  5
170
330
1F
100
AcDbEntity
  8
0
  6
HIDDEN
 62
     7
370
     0
100
AcDbCircle
 10
136.3055749136
 20
88.2956264335
 30
0.0
 40
0.6000067526677343
100
AcDbArc
 50
352.0
 51
0.0
  0
ARC
  5
171
330
1F
100
AcDbEntity
  8
0
  6
HIDDEN
 62
     7
370
     0
100
AcDbCircle
 10
136.3055749136
 20
88.2956264335
 30
0.0
 40
0.6000067526677597
100
AcDbArc
 50
0.0
 51
33.5571153394
  0
ARC
  5
172
330
1F
100
AcDbEntity
  8
0
  6
HIDDEN
 62
     7
370
     0
100
AcDbCircle
 10
136.3055749136
 20
137.4365016623
 30
0.0
 40
0.6000067526677323
100
AcDbArc
 50
348.75
 51
8.0
  0
LWPOLYLINE
  5
173
330
1F
100
AcDbEntity
  8
0
  6
HIDDEN
 62
     7
370
     0
100
AcDbPolyline
 90
        3
 70
   128
 43
0.0
 10
136.8940527047
 20
137.3194461517
 10
136.8599088717
 20
137.2068890188
 10
136.8055816662
 20
137.1048371473
  0
LINE
  5
174
330
1F
100
AcDbEntity
  8
0
  6
HIDDEN
 62
     7
370
     0
100
AcDbLine
 10
136.9055816662
 20
88.2956264335
 30
0.0
 11
136.9055816662
 21
137.4365016623
 31
0.0
  0
ARC
  5
175
330
1F
100
AcDbEntity
  8
0
  6
HIDDEN
 62
     7
370
     0
100
AcDbCircle
 10
119.8880172315
 20
93.4660640479
 30
0.0
 40
0.6000000000000085
100
AcDbArc
 50
210.0
 51
270.0
  0
ARC
  5
176
330
1F
100
AcDbEntity
  8
0
  6
HIDDEN
 62
     7
370
     0
100
AcDbCircle
 10
119.8880172315
 20
132.2660640479
 30
0.0
 40
0.599999999999989
100
AcDbArc
 50
90.0
 51
150.0
  0
LINE
  5
177
330
1F
100
AcDbEntity
  8
0
  6
HIDDEN
 62
     7
370
     0
100
AcDbLine
 10
119.8880172315
 20
92.8660640479
 30
0.0
 11
124.0655538079
 21
92.8660640479
 31
0.0
  0
LINE
  5
178
330
1F
100
AcDbEntity
  8
0
  6
HIDDEN
 62
     7
370
     0
100
AcDbLine
 10
124.0586990474
 20
132.8660640479
 30
0.0
 11
119.8880172315
 21
132.8660640479
 31
0.0
  0
ARC
  5
179
330
1F
100
AcDbEntity
  8
0
  6
HIDDEN
 62
     7
370
     0
100
AcDbCircle
 10
130.5605836678
 20
100.8660640479
 30
0.0
 40
8.000000000000037
100
AcDbArc
 50
277.0585085591
 51
321.3178125465
  0
ARC
  5
17A
330
1F
100
AcDbEntity
  8
0
  6
HIDDEN
 62
     7
370
     0
100
AcDbCircle
 10
130.5605836678
 20
124.8660640479
 30
0.0
 40
8.000000000000037
100
AcDbArc
 50
38.6821874535
 51
82.8664104606
  0
LINE
  5
17B
330
1F
100
AcDbEntity
  8
0
  6
HIDDEN
 62
     7
370
     0
100
AcDbLine
 10
119.3684019893
 20
132.5660640479
 30
0.0
 11
117.8095562624
 21
129.8660640479
 31
0.0
  0
LINE
  5
17C
330
1F
100
AcDbEntity
  8
0
  6
HIDDEN
 62
     7
370
     0
100
AcDbLine
 10
117.8095562624
 20
95.8660640479
 30
0.0
 11
119.3684019893
 21
93.1660640479
 31
0.0
  0
ARC
  5
17D
330
1F
100
AcDbEntity
  8
0
  6
HIDDEN
 62
     7
370
     0
100
AcDbCircle
 10
145.2555816662
 20
97.1410640479
 30
0.0
 40
1.5
100
AcDbArc
 50
238.2116693829
 51
0.0
  0
ARC
  5
17E
330
1F
100
AcDbEntity
  8
0
  6
HIDDEN
 62
     7
370
     0
100
AcDbCircle
 10
145.2555816662
 20
128.5910640479
 30
0.0
 40
1.5
100
AcDbArc
 50
0.0
 51
121.7883306171
  0
LINE
  5
17F
330
1F
100
AcDbEntity
  8
0
  6
HIDDEN
 62
     7
370
     0
100
AcDbLine
 10
136.8055816662
 20
95.8660640479
 30
0.0
 11
144.4654076348
 21
95.8660640479
 31
0.0
  0
LINE
  5
180
330
1F
100
AcDbEntity
  8
0
  6
HIDDEN
 62
     7
370
     0
100
AcDbLine
 10
144.4654076348
 20
129.8660640479
 30
0.0
 11
136.8055816662
 21
129.8660640479
 31
0.0
  0
LINE
  5
181
330
1F
100
AcDbEntity
  8
0
  6
HIDDEN
 62
     7
370
     0
100
AcDbLine
 10
115.0055816662
 20
95.8660640479
 30
0.0
 11
117.8095562624
 21
95.8660640479
 31
0.0
  0
LINE
  5
182
330
1F
100
AcDbEntity
  8
0
  6
HIDDEN
 62
     7
370
     0
100
AcDbLine
 10
117.8095562624
 20
129.8660640479
 30
0.0
 11
111.0055816662
 21
129.8660640479
 31
0.0
  0
LINE
  5
183
330
1F
100
AcDbEntity
  8
0
  6
HIDDEN
 62
     7
370
     0
100
AcDbLine
 10
186.8055816662
 20
123.1160640479
 30
0.0
 11
186.4675086141
 21
122.3910640479
 31
0.0
  0
LINE
  5
184
330
1F
100
AcDbEntity
  8
0
  6
HIDDEN
 62
     7
370
     0
100
AcDbLine
 10
186.4675086141
 20
103.3410640479
 30
0.0
 11
186.8055816662
 21
102.6160640479
 31
0.0
  0
LINE
  5
185
330
1F
100
AcDbEntity
  8
0
  6
HIDDEN
 62
     7
370
     0
100
AcDbLine
 10
155.6055816662
 20
103.3660640479
 30
0.0
 11
158.6055816662
 21
103.3660640479
 31
0.0
  0
LINE
  5
186
330
1F
100
AcDbEntity
  8
0
  6
HIDDEN
 62
     7
370
     0
100
AcDbLine
 10
158.6055816662
 20
122.3660640479
 30
0.0
 11
155.6055816662
 21
122.3660640479
 31
0.0
  0
LINE
  5
187
330
1F
100
AcDbEntity
  8
0
  6
HIDDEN
 62
     7
370
     0
100
AcDbLine
 10
146.7555816662
 20
103.8660640479
 30
0.0
 11
147.2555816662
 21
104.3660640479
 31
0.0
  0
LINE
  5
188
330
1F
100
AcDbEntity
  8
0
  6
HIDDEN
 62
     7
370
     0
100
AcDbLine
 10
147.2555816662
 20
121.3660640479
 30
0.0
 11
146.7555816662
 21
121.8660640479
 31
0.0
  0
LINE
  5
189
330
1F
100
AcDbEntity
  8
0
  6
HIDDEN
 62
     7
370
     0
100
AcDbLine
 10
147.2555816662
 20
104.3660640479
 30
0.0
 11
155.6055816662
 21
104.3660640479
 31
0.0
  0
LINE
  5
18A
330
1F
100
AcDbEntity
  8
0
  6
HIDDEN
 62
     7
370
     0
100
AcDbLine
 10
155.6055816662
 20
121.3660640479
 30
0.0
 11
147.2555816662
 21
121.3660640479
 31
0.0
  0
LINE
  5
18B
330
1F
100
AcDbEntity
  8
0
  6
HIDDEN
 62
     7
370
     0
100
AcDbLine
 10
141.7555816662
 20
144.3660640479
 30
0.0
 11
141.7555816662
 21
139.2660640479
 31
0.0
  0
LINE
  5
18C
330
1F
100
AcDbEntity
  8
0
  6
HIDDEN
 62
     7
370
     0
100
AcDbLine
 10
186.5136565069
 20
121.0660640479
 30
0.0
 11
183.9555816662
 21
121.0660640479
 31
0.0
  0
LINE
  5
18D
330
1F
100
AcDbEntity
  8
0
  6
HIDDEN
 62
     7
370
     0
100
AcDbLine
 10
183.9555816662
 20
104.6660640479
 30
0.0
 11
186.5088858489
 21
104.6660640479
 31
0.0
  0
LINE
  5
18E
330
1F
100
AcDbEntity
  8
0
  6
HIDDEN
 62
     7
370
     0
100
AcDbLine
 10
183.9555816662
 20
120.2124742094
 30
0.0
 11
183.3555816662
 21
119.8660640479
 31
0.0
  0
LINE
  5
18F
330
1F
100
AcDbEntity
  8
0
  6
HIDDEN
 62
     7
370
     0
100
AcDbLine
 10
183.3555816662
 20
105.8660640479
 30
0.0
 11
183.9555816662
 21
105.5196538864
 31
0.0
  0
LINE
  5
190
330
1F
100
AcDbEntity
  8
0
  6
HIDDEN
 62
     7
370
     0
100
AcDbLine
 10
172.4055816662
 20
105.6660640479
 30
0.0
 11
172.9801800062
 21
105.6660640479
 31
0.0
  0
LINE
  5
191
330
1F
100
AcDbEntity
  8
0
  6
HIDDEN
 62
     7
370
     0
100
AcDbLine
 10
172.9801800062
 20
120.0660640479
 30
0.0
 11
172.4055816662
 21
120.0660640479
 31
0.0
  0
ARC
  5
192
330
1F
100
AcDbEntity
  8
0
  6
HIDDEN
 62
     7
370
     0
100
AcDbCircle
 10
172.4055816662
 20
106.2660640479
 30
0.0
 40
0.6000000000000227
100
AcDbArc
 50
180.0
 51
270.0
  0
ARC
  5
193
330
1F
100
AcDbEntity
  8
0
  6
HIDDEN
 62
     7
370
     0
100
AcDbCircle
 10
172.4055816662
 20
119.4660640479
 30
0.0
 40
0.6000000000000085
100
AcDbArc
 50
90.0
 51
180.0
  0
ARC
  5
194
330
1F
100
AcDbEntity
  8
0
  6
HIDDEN
 62
     7
370
     0
100
AcDbCircle
 10
172.9801800062
 20
106.2660640479
 30
0.0
 40
0.6000000000000085
100
AcDbArc
 50
270.0
 51
285.0
  0
ARC
  5
195
330
1F
100
AcDbEntity
  8
0
  6
HIDDEN
 62
     7
370
     0
100
AcDbCircle
 10
172.9801800062
 20
119.4660640479
 30
0.0
 40
0.5999999999999998
100
AcDbArc
 50
75.0
 51
90.0
  0
LINE
  5
196
330
1F
100
AcDbEntity
  8
0
  6
HIDDEN
 62
     7
370
     0
100
AcDbLine
 10
173.1354714332
 20
105.6865085522
 30
0.0
 11
173.8055816662
 21
105.8660640479
 31
0.0
  0
LINE
  5
197
330
1F
100
AcDbEntity
  8
0
  6
HIDDEN
 62
     7
370
     0
100
AcDbLine
 10
173.8055816662
 20
119.8660640479
 30
0.0
 11
173.1354714332
 21
120.0456195437
 31
0.0
  0
LINE
  5
198
330
1F
100
AcDbEntity
  8
0
  6
HIDDEN
 62
     7
370
     0
100
AcDbLine
 10
173.8055816662
 20
105.8660640479
 30
0.0
 11
183.3555816662
 21
105.8660640479
 31
0.0
  0
LINE
  5
199
330
1F
100
AcDbEntity
  8
0
  6
HIDDEN
 62
     7
370
     0
100
AcDbLine
 10
183.3555816662
 20
119.8660640479
 30
0.0
 11
173.8055816662
 21
119.8660640479
 31
0.0
  0
LINE
  5
19A
330
1F
100
AcDbEntity
  8
0
  6
HIDDEN
 62
     7
370
     0
100
AcDbLine
 10
186.4675086141
 20
122.3910640479
 30
0.0
 11
183.9555816662
 21
122.3910640479
 31
0.0
  0
LINE
  5
19B
330
1F
100
AcDbEntity
  8
0
  6
HIDDEN
 62
     7
370
     0
100
AcDbLine
 10
183.9555816662
 20
103.3410640479
 30
0.0
 11
186.4675086141
 21
103.3410640479
 31
0.0
  0
LINE
  5
19C
330
1F
100
AcDbEntity
  8
0
  6
HIDDEN
 62
     7
370
     0
100
AcDbLine
 10
131.9900194967
 20
88.7866927144
 30
0.0
 11
131.5555873472
 21
89.2657587335
 31
0.0
  0
LINE
  5
19D
330
1F
100
AcDbEntity
  8
0
  6
HIDDEN
 62
     7
370
     0
100
AcDbLine
 10
124.0555840221
 20
89.6874466926
 30
0.0
 11
123.5731502788
 21
89.2083807172
 31
0.0
  0
LINE
  5
19E
330
1F
100
AcDbEntity
  8
0
  6
HIDDEN
 62
     7
370
     0
100
AcDbLine
 10
123.5730283505
 20
136.5237420883
 30
0.0
 11
124.0555791015
 21
136.0446218303
 31
0.0
  0
LINE
  5
19F
330
1F
100
AcDbEntity
  8
0
  6
HIDDEN
 62
     7
370
     0
100
AcDbLine
 10
131.5555815482
 20
136.466319608
 30
0.0
 11
131.9901239386
 21
136.9454398586
 31
0.0
  0
LINE
  5
1A0
330
1F
100
AcDbEntity
  8
0
  6
HIDDEN
 62
     7
370
     0
100
AcDbLine
 10
158.6055816662
 20
108.6660640479
 30
0.0
 11
171.8055816662
 21
108.6660640479
 31
0.0
  0
LINE
  5
1A1
330
1F
100
AcDbEntity
  8
0
  6
HIDDEN
 62
     7
370
     0
100
AcDbLine
 10
171.8055816662
 20
117.0660640479
 30
0.0
 11
158.6055816662
 21
117.0660640479
 31
0.0
  0
LINE
  5
1A2
330
1F
100
AcDbEntity
  8
0
  6
HIDDEN
 62
     7
370
     0
100
AcDbLine
 10
131.5555816662
 20
132.8039002386
 30
0.0
 11
131.5555816662
 21
136.4660283019
 31
0.0
  0
LINE
  5
1A3
330
1F
100
AcDbEntity
  8
0
  6
HIDDEN
 62
     7
370
     0
100
AcDbLine
 10
124.0555816662
 20
136.0444780512
 30
0.0
 11
124.0555816662
 21
132.8654797867
 31
0.0
  0
LINE
  5
1A4
330
1F
100
AcDbEntity
  8
0
  6
HIDDEN
 62
     7
370
     0
100
AcDbLine
 10
131.5555816662
 20
89.2660136996
 30
0.0
 11
131.5555816662
 21
92.9289912219
 31
0.0
  0
LINE
  5
1A5
330
1F
100
AcDbEntity
  8
0
  6
HIDDEN
 62
     7
370
     0
100
AcDbLine
 10
124.0555816662
 20
92.8679262935
 30
0.0
 11
124.0555816662
 21
89.6876281176
 31
0.0
  0
LINE
  5
1A6
330
1F
100
AcDbEntity
  8
0
  6
HIDDEN
 62
     7
370
     0
100
AcDbLine
 10
186.5140178374
 20
121.0660640479
 30
0.0
 11
186.5136565069
 21
121.0660640479
 31
0.0
  0
LINE
  5
1A7
330
1F
100
AcDbEntity
  8
0
  6
HIDDEN
 62
     7
370
     0
100
AcDbLine
 10
186.5088858489
 20
104.6660640479
 30
0.0
 11
186.5136565069
 21
104.6660640479
 31
0.0
  0
DIMENSION
  5
1A8
330
1F
100
AcDbEntity
  8
VERMASSUNG
100
AcDbDimension
  2
_D
 10
99.3273010606
 20
81.3660640479
 30
0.0
 11
99.3273010606
 21
112.1986403048
 31
0.0
 70
   160
  1
HSK A %%c<>
 71
     2
 42
-1.0
  3
SLDDIMSTYLE0
100
AcDbAlignedDimension
 13
137.1055816662
 23
144.3660640479
 33
0.0
 14
137.1055816662
 24
81.3660640479
 34
0.0
 50
90.0
100
AcDbRotatedDimension
  0
DIMENSION
  5
1B5
330
1F
100
AcDbEntity
  8
VERMASSUNG
100
AcDbDimension
  2
_D_1
 10
136.8055816662
 20
158.1258869218
 30
0.0
 11
156.1726131242
 21
158.1258869218
 31
0.0
 70
   160
  1
<>
 71
     2
 42
-1.0
  3
SLDDIMSTYLE0
100
AcDbAlignedDimension
 13
186.8055816662
 23
125.1660640479
 33
0.0
 14
136.8055816662
 24
144.0660640479
 34
0.0
100
AcDbRotatedDimension
  0
DIMENSION
  5
1BF
330
1F
100
AcDbEntity
  8
VERMASSUNG
100
AcDbDimension
  2
_D_2
 10
162.7555816662
 20
152.1258869218
 30
0.0
 11
172.9948533002
 21
152.1258869218
 31
0.0
 70
   160
  1
<>
 71
     2
 42
-1.0
  3
SLDDIMSTYLE0
100
AcDbAlignedDimension
 13
186.8055816662
 23
125.1660640479
 33
0.0
 14
162.7555816662
 24
142.7125043717
 34
0.0
100
AcDbRotatedDimension
  0
DIMENSION
  5
1C9
330
1F
100
AcDbEntity
  8
VERMASSUNG
100
AcDbDimension
  2
_D_3
 10
104.9055816662
 20
164.1258869218
 30
0.0
 11
148.099756886
 21
164.1258869218
 31
0.0
 70
   160
  1
<>
 71
     2
 42
-1.0
  3
SLDDIMSTYLE0
100
AcDbAlignedDimension
 13
186.8055816662
 23
125.1660640479
 33
0.0
 14
104.9055816662
 24
132.5567417944
 34
0.0
100
AcDbRotatedDimension
  0
DIMENSION
  5
1D3
330
1F
100
AcDbEntity
  8
VERMASSUNG
100
AcDbDimension
  2
_D_4
 10
194.0549673016
 20
100.3660640479
 30
0.0
 11
194.0549673016
 21
112.6100285356
 31
0.0
 70
   160
  1
MBM %%c<>
 71
     2
 42
-1.0
  3
SLDDIMSTYLE0
100
AcDbAlignedDimension
 13
186.6055816662
 23
125.3660640479
 33
0.0
 14
186.6055816662
 24
100.3660640479
 34
0.0
 50
90.0
100
AcDbRotatedDimension
  0
INSERT
  5
1E4
330
1F
100
AcDbEntity
  8
VERMASSUNG
100
AcDbBlockReference
  2
SW_NOTE_0
 10
139.0303623898
 20
71.0300553064
 30
0.0
  0
LEADER
  5
1EE
330
1F
100
AcDbEntity
  8
VERMASSUNG
100
AcDbLeader
  3
SLDDIMSTYLE1
 76
     2
 10
140.3793909749
 20
88.374047519
 30
0.0
 10
139.0303623898
 20
71.0300553064
 30
0.0
  0
INSERT
  5
1F4
330
1F
100
AcDbEntity
  8
VERMASSUNG
100
AcDbBlockReference
  2
SW_NOTE_1
 10
178.4035259549
 20
89.9330915454
 30
0.0
  0
LEADER
  5
1F5
330
1F
100
AcDbEntity
  8
VERMASSUNG
100
AcDbLeader
  3
SLDDIMSTYLE1
 76
     2
 10
179.8677499181
 20
111.3660640479
 30
0.0
 10
178.4035259549
 20
89.9330915454
 30
0.0
  0
LINE
  5
1F6
330
1F
100
AcDbEntity
  8
VERMASSUNG
  6
CENTERX2
 62
     7
370
     0
100
AcDbLine
 10
102.7602778239
 20
112.8660640479
 30
0.0
 11
188.6055816662
 21
112.8660640479
 31
0.0
  0
LINE
  5
1F7
330
1F
100
AcDbEntity
  8
0
  6
Continuous
 62
     7
370
    15
100
AcDbLine
 10
274.4958424982
 20
59.296051573
 30
0.0
 11
274.3543981626
 21
59.3777321921
 31
0.0
  0
LINE
  5
1F8
330
1F
100
AcDbEntity
  8
0
  6
Continuous
 62
     7
370
    15
100
AcDbLine
 10
272.5156218
 20
59.3777321921
 30
0.0
 11
272.3741774645
 21
59.296051573
 31
0.0
  0
LINE
  5
1F9
330
1F
100
AcDbEntity
  8
0
  6
Continuous
 62
     7
370
    15
100
AcDbLine
 10
274.9350099813
 20
58.4388827545
 30
0.0
 11
274.9350099813
 21
58.6838449981
 31
0.0
  0
LINE
  5
1FA
330
1F
100
AcDbEntity
  8
0
  6
Continuous
 62
     7
370
    15
100
AcDbLine
 10
271.9350099813
 20
58.6838449981
 30
0.0
 11
271.9350099813
 21
58.4388827545
 31
0.0
  0
LINE
  5
1FB
330
1F
100
AcDbEntity
  8
0
  6
Continuous
 62
     7
370
    15
100
AcDbLine
 10
250.5523085311
 20
48.7676345904
 30
0.0
 11
255.6109741914
 21
45.8473290651
 31
0.0
  0
LINE
  5
1FC
330
1F
100
AcDbEntity
  8
0
  6
Continuous
 62
     7
370
    15
100
AcDbLine
 10
268.4943290749
 20
74.7820083251
 30
0.0
 11
266.3010285701
 21
76.0481737554
 31
0.0
  0
LINE
  5
1FD
330
1F
100
AcDbEntity
  8
0
  6
Continuous
 62
     7
370
    15
100
AcDbLine
 10
275.9282796646
 20
47.2018884362
 30
0.0
 11
275.9989788503
 21
47.2427154762
 31
0.0
  0
LINE
  5
1FE
330
1F
100
AcDbEntity
  8
0
  6
Continuous
 62
     7
370
    15
100
AcDbLine
 10
280.3469787674
 20
54.7744883273
 30
0.0
 11
280.3469787674
 21
54.8561291385
 31
0.0
  0
LINE
  5
1FF
330
1F
100
AcDbEntity
  8
0
  6
Continuous
 62
     7
370
    15
100
AcDbLine
 10
265.7847805422
 20
50.9434736541
 30
0.0
 11
272.8028153455
 21
46.8920483992
 31
0.0
  0
LINE
  5
200
330
1F
100
AcDbEntity
  8
0
  6
Continuous
 62
     7
370
    15
100
AcDbLine
 10
279.0523074245
 20
57.7176591789
 30
0.0
 11
272.0342726212
 21
61.7690844339
 31
0.0
  0
SPLINE
  5
201
330
1F
100
AcDbEntity
  8
0
  6
Continuous
 62
     7
370
    15
100
AcDbSpline
210
0.0
220
0.0
230
1.0
 70
     8
 71
     3
 72
    12
 73
     8
 74
     0
 42
0.000000001
 43
0.00000001
 40
0.0
 40
0.0
 40
0.0
 40
0.0
 40
0.0595697308868014
 40
0.3012144638159538
 40
0.5429085261524073
 40
0.7846548036465443
 40
1.0
 40
1.0
 40
1.0
 40
1.0
 10
247.7771940409119
 20
60.24858576912901
 30
0.0
 10
247.7548444139433
 20
60.16136584271662
 30
0.0
 10
247.6418334803096
 20
59.72033810971745
 30
0.0
 10
247.4964226665171
 20
58.9373711276541
 30
0.0
 10
247.3461381774488
 20
57.90814412824069
 30
0.0
 10
247.2608962561986
 20
56.93866985306932
 30
0.0
 10
247.2506363955439
 20
56.32774171442382
 30
0.0
 10
247.2458027641295
 20
56.03992090064437
 30
0.0
  0
SPLINE
  5
202
330
1F
100
AcDbEntity
  8
0
  6
Continuous
 62
     7
370
    15
100
AcDbSpline
210
0.0
220
0.0
230
1.0
 70
     8
 71
     3
 72
    14
 73
    10
 74
     0
 42
0.000000001
 43
0.00000001
 40
0.0
 40
0.0
 40
0.0
 40
0.0
 40
0.0761812431955134
 40
0.2312367739064176
 40
0.3863324057978157
 40
0.5414356259054073
 40
0.6965259699999558
 40
0.851594941276251
 40
1.0
 40
1.0
 40
1.0
 40
1.0
 10
260.2863301976347
 20
76.18838490118529
 30
0.0
 10
260.1521436296048
 20
76.14001461273766
 30
0.0
 10
259.7448403645059
 20
75.99319383396872
 30
0.0
 10
259.0552565541092
 20
75.66596820055962
 30
0.0
 10
258.2236971357452
 20
75.21362974953894
 30
0.0
 10
257.3928668795423
 20
74.68666564700578
 30
0.0
 10
256.5685259011265
 20
74.09169654925259
 30
0.0
 10
255.7647599803734
 20
73.44584046716848
 30
0.0
 10
255.2458702878436
 20
72.96868234336857
 30
0.0
 10
254.9921225279743
 20
72.73534218117075
 30
0.0
  0
SPLINE
  5
203
330
1F
100
AcDbEntity
  8
0
  6
Continuous
 62
     7
370
    15
100
AcDbSpline
210
0.0
220
0.0
230
1.0
 70
     8
 71
     3
 72
    10
 73
     6
 74
     0
 42
0.000000001
 43
0.00000001
 40
0.0
 40
0.0
 40
0.0
 40
0.0
 40
0.2100748270651785
 40
0.6091968420356124
 40
1.0
 40
1.0
 40
1.0
 40
1.0
 10
247.2458027641295
 20
56.03992090064437
 30
0.0
 10
247.2476222670009
 20
55.8724774659669
 30
0.0
 10
247.2528986507487
 20
55.38690757141944
 30
0.0
 10
247.3049087432954
 20
54.61503391197023
 30
0.0
 10
247.3959825223619
 20
54.04107779944019
 30
0.0
 10
247.4410398539756
 20
53.75712196540043
 30
0.0
  0
SPLINE
  5
204
330
1F
100
AcDbEntity
  8
0
  6
Continuous
 62
     7
370
    15
100
AcDbSpline
210
0.0
220
0.0
230
1.0
 70
     8
 71
     3
 72
    21
 73
    17
 74
     0
 42
0.000000001
 43
0.00000001
 40
0.0
 40
0.0
 40
0.0
 40
0.0
 40
0.0228370245472369
 40
0.1033723969481902
 40
0.1842076229812421
 40
0.2653194870031151
 40
0.3466538268239143
 40
0.4281463516188432
 40
0.5097374722188165
 40
0.591379579009931
 40
0.6730371081322907
 40
0.7546841714278687
 40
0.8363103312894081
 40
0.917910952877289
 40
0.9994852477460947
 40
1.0
 40
1.0
 40
1.0
 40
1.0
 10
261.6141635601235
 20
42.94464574902814
 30
0.0
 10
261.6815154377721
 20
42.93421654619123
 30
0.0
 10
261.9863854972272
 20
42.88700848310572
 30
0.0
 10
262.5587300540614
 20
42.88331987623095
 30
0.0
 10
263.3274949498882
 20
42.93583026936088
 30
0.0
 10
264.120793395826
 20
43.0743298430331
 30
0.0
 10
264.9312575397858
 20
43.29049321389579
 30
0.0
 10
265.7549659403008
 20
43.58523794645104
 30
0.0
 10
266.586935774606
 20
43.95627301318503
 30
0.0
 10
267.4224263563872
 20
44.40157048257433
 30
0.0
 10
268.2567653714219
 20
44.91826850586858
 30
0.0
 10
269.0850412916898
 20
45.50390608704343
 30
0.0
 10
269.9037397396033
 20
46.15291942785096
 30
0.0
 10
270.7046061945355
 20
46.86968689895506
 30
0.0
 10
271.2350063634985
 20
47.37159455819824
 30
0.0
 10
271.4900004144924
 20
47.64726859813377
 30
0.0
 10
271.4915993947107
 20
47.64899725546839
 30
0.0
  0
SPLINE
  5
205
330
1F
100
AcDbEntity
  8
0
  6
Continuous
 62
     7
370
    15
100
AcDbSpline
210
0.0
220
0.0
230
1.0
 70
     8
 71
     3
 72
    10
 73
     6
 74
     0
 42
0.000000001
 43
0.00000001
 40
0.0
 40
0.0
 40
0.0
 40
0.0
 40
0.010287972554254
 40
0.6602440310714877
 40
1.0
 40
1.0
 40
1.0
 40
1.0
 10
277.7408684596326
 20
58.47473677849958
 30
0.0
 10
277.7426157334107
 20
58.48037779583859
 30
0.0
 10
277.8547493026417
 20
58.84239742678268
 30
0.0
 10
277.9872937611702
 20
59.38779840944832
 30
0.0
 10
278.0970677282859
 20
59.92089799376385
 30
0.0
 10
278.13475178135
 20
60.10390452574666
 30
0.0
  0
LINE
  5
206
330
1F
100
AcDbEntity
  8
0
  6
Continuous
 62
     7
370
    15
100
AcDbLine
 10
258.0094328979
 20
44.462728326
 30
0.0
 11
259.4088209655
 21
43.6548787901
 31
0.0
  0
LINE
  5
207
330
1F
100
AcDbEntity
  8
0
  6
Continuous
 62
     7
370
    15
100
AcDbLine
 10
259.0716942188
 20
75.6639225512
 30
0.0
 11
252.9343523234
 21
78.721715556
 31
0.0
  0
LINE
  5
208
330
1F
100
AcDbEntity
  8
0
  6
Continuous
 62
     7
370
    15
100
AcDbLine
 10
241.5526545103
 20
59.0059004176
 30
0.0
 11
247.2767807503
 21
55.2156217654
 31
0.0
  0
SPLINE
  5
209
330
1F
100
AcDbEntity
  8
0
  6
Continuous
 62
     7
370
    15
100
AcDbSpline
210
0.0
220
0.0
230
1.0
 70
     8
 71
     3
 72
    10
 73
     6
 74
     0
 42
0.000000001
 43
0.00000001
 40
0.0
 40
0.0
 40
0.0
 40
0.0
 40
0.0494986609286819
 40
0.8163329058882263
 40
1.0
 40
1.0
 40
1.0
 40
1.0
 10
276.611007125911
 20
69.72018713530471
 30
0.0
 10
276.6014842364368
 20
69.73254944874272
 30
0.0
 10
276.4444325527939
 20
69.93642896917812
 30
0.0
 10
276.2213999224389
 20
70.14852608104837
 30
0.0
 10
275.9996787264218
 20
70.33410053721789
 30
0.0
 10
275.9568351384104
 20
70.36995942526462
 30
0.0
  0
SPLINE
  5
20A
330
1F
100
AcDbEntity
  8
0
  6
Continuous
 62
     7
370
    15
100
AcDbSpline
210
0.0
220
0.0
230
1.0
 70
     8
 71
     3
 72
    12
 73
     8
 74
     0
 42
0.000000001
 43
0.00000001
 40
0.0
 40
0.0
 40
0.0
 40
0.0
 40
0.1187811644102336
 40
0.3433855547955867
 40
0.5677004106479668
 40
0.7914075978788058
 40
1.0
 40
1.0
 40
1.0
 40
1.0
 10
278.1475382677253
 20
66.64608320588601
 30
0.0
 10
278.1085322592133
 20
66.78882983671772
 30
0.0
 10
277.995769432382
 20
67.20149737762566
 30
0.0
 10
277.7627302966501
 20
67.84391077112916
 30
0.0
 10
277.4286083346142
 20
68.54874672922675
 30
0.0
 10
277.0490502790762
 20
69.18193863246493
 30
0.0
 10
276.7535779097047
 20
69.54500231533622
 30
0.0
 10
276.611007125911
 20
69.72018713530471
 30
0.0
  0
SPLINE
  5
20B
330
1F
100
AcDbEntity
  8
0
  6
Continuous
 62
     7
370
    15
100
AcDbSpline
210
0.0
220
0.0
230
1.0
 70
     8
 71
     3
 72
    28
 73
    24
 74
     0
 42
0.000000001
 43
0.00000001
 40
0.0
 40
0.0
 40
0.0
 40
0.0
 40
0.0187004872112615
 40
0.0658884131939052
 40
0.1132631245202153
 40
0.1610346012859739
 40
0.2093095267312589
 40
0.2580833715511406
 40
0.3072681143617735
 40
0.3567383239769438
 40
0.4063724439250006
 40
0.4560756959074635
 40
0.5057741617919417
 40
0.5554363060507845
 40
0.6050507572844114
 40
0.6546166921977237
 40
0.7041394488338064
 40
0.753627766731115
 40
0.8030921715917705
 40
0.8525440928443399
 40
0.9019954184402929
 40
0.951455923731445
 40
1.0
 40
1.0
 40
1.0
 40
1.0
 10
252.8202314220262
 20
78.76501003316163
 30
0.0
 10
252.7488625479256
 20
78.80091874530194
 30
0.0
 10
252.4974048285195
 20
78.92743780526187
 30
0.0
 10
252.0251423367278
 20
79.0635030040539
 30
0.0
 10
251.4107847595193
 20
79.17278102299255
 30
0.0
 10
250.7648683950782
 20
79.19749774595513
 30
0.0
 10
250.0942095602758
 20
79.14328010958675
 30
0.0
 10
249.4023450815405
 20
79.00813824429363
 30
0.0
 10
248.6948008114754
 20
78.79298002701739
 30
0.0
 10
247.9774157785371
 20
78.49915869254046
 30
0.0
 10
247.2563223326652
 20
78.12921028405175
 30
0.0
 10
246.5375707632541
 20
77.68650023142432
 30
0.0
 10
245.8269208930359
 20
77.17503468738037
 30
0.0
 10
245.1297986128644
 20
76.59926500519259
 30
0.0
 10
244.4512925566155
 20
75.96393975903784
 30
0.0
 10
243.7962722466782
 20
75.27411667491428
 30
0.0
 10
243.1694305590282
 20
74.53515543747923
 30
0.0
 10
242.5752366136479
 20
73.75270398022836
 30
0.0
 10
242.0180799123657
 20
72.93266017251588
 30
0.0
 10
241.5016458320928
 20
72.08119587551597
 30
0.0
 10
241.0311376336376
 20
71.20452732769175
 30
0.0
 10
240.6075713555023
 20
70.31528264927692
 30
0.0
 10
240.3699130106812
 20
69.71573833110543
 30
0.0
 10
240.2521949955309
 20
69.41876930532612
 30
0.0
  0
LINE
  5
20C
330
1F
100
AcDbEntity
  8
0
  6
Continuous
 62
     7
370
    15
100
AcDbLine
 10
240.3684687884
 20
67.5620405105
 30
0.0
 11
242.9220286871
 21
66.087901759
 31
0.0
  0
LINE
  5
20D
330
1F
100
AcDbEntity
  8
0
  6
Continuous
 62
     7
370
    15
100
AcDbLine
 10
240.070176511
 20
68.6903502278
 30
0.0
 11
240.070176511
 21
68.224944144
 31
0.0
  0
LINE
  5
20E
330
1F
100
AcDbEntity
  8
0
  6
Continuous
 62
     7
370
    15
100
AcDbLine
 10
240.070176511
 20
61.2148675325
 30
0.0
 11
240.070176511
 21
60.7535957153
 31
0.0
  0
SPLINE
  5
20F
330
1F
100
AcDbEntity
  8
0
  6
Continuous
 62
     7
370
    15
100
AcDbSpline
210
0.0
220
0.0
230
1.0
 70
     8
 71
     3
 72
    11
 73
     7
 74
     0
 42
0.000000001
 43
0.00000001
 40
0.0
 40
0.0
 40
0.0
 40
0.0
 40
0.214312230925675
 40
0.5473394050623296
 40
0.8765306730675063
 40
1.0
 40
1.0
 40
1.0
 40
1.0
 10
240.1861820794444
 20
60.4661669612448
 30
0.0
 10
240.2588020744277
 20
60.34498330634987
 30
0.0
 10
240.4442687866079
 20
60.03548818660345
 30
0.0
 10
240.8119612110566
 20
59.61464808499987
 30
0.0
 10
241.1689726955553
 20
59.26972843715723
 30
0.0
 10
241.4053405980921
 20
59.11656081514506
 30
0.0
 10
241.4698131547075
 20
59.07478226536804
 30
0.0
  0
LWPOLYLINE
  5
210
330
1F
100
AcDbEntity
  8
0
  6
Continuous
 62
     7
370
    15
100
AcDbPolyline
 90
       23
 70
   128
 43
0.0
 10
272.5157711658
 20
58.3164878877
 10
272.2940272949
 20
58.487489244
 10
272.1647190556
 20
58.6876284319
 10
272.1383222323
 20
58.9006913644
 10
272.2169753388
 20
59.1094169501
 10
272.3943063681
 20
59.2968954833
 10
272.6559490149
 20
59.4479385683
 10
272.9807065478
 20
59.5503095924
 10
273.3422690432
 20
59.5957150643
 10
273.7113448577
 20
59.5804765026
 10
274.0580336641
 20
59.505828445
 10
274.3542487969
 20
59.3778184331
 10
274.5759926678
 20
59.2068170768
 10
274.7053009071
 20
59.006677889
 10
274.7316977303
 20
58.7936149564
 10
274.6530446238
 20
58.5848893707
 10
274.4757135945
 20
58.3974108375
 10
274.2140709478
 20
58.2463677526
 10
273.8893134148
 20
58.1439967284
 10
273.5277509195
 20
58.0985912565
 10
273.1586751049
 20
58.1138298182
 10
272.8119862986
 20
58.1884778758
 10
272.5157711658
 20
58.3164878877
  0
LWPOLYLINE
  5
211
330
1F
100
AcDbEntity
  8
0
  6
Continuous
 62
     7
370
    15
100
AcDbPolyline
 90
        7
 70
   128
 43
0.0
 10
272.3743498095
 20
58.0715389142
 10
272.1359718756
 20
58.250879214
 10
271.9861212419
 20
58.4597254165
 10
271.9350099813
 20
58.6838449981
 10
271.9861212419
 20
58.9079645796
 10
272.1359718756
 20
59.1168107821
 10
272.3741774645
 20
59.296051573
  0
LWPOLYLINE
  5
212
330
1F
100
AcDbEntity
  8
0
  6
Continuous
 62
     7
370
    15
100
AcDbPolyline
 90
       13
 70
   128
 43
0.0
 10
274.4958424982
 20
59.296051573
 10
274.734048087
 20
59.1168107821
 10
274.8838987208
 20
58.9079645796
 10
274.9350099813
 20
58.6838449981
 10
274.8838987208
 20
58.4597254165
 10
274.734048087
 20
58.250879214
 10
274.4956701531
 20
58.0715389142
 10
274.1850099813
 20
57.9339262621
 10
273.823238549
 20
57.8474193326
 10
273.4350099813
 20
57.8179134299
 10
273.0467814137
 20
57.8474193326
 10
272.6850099813
 20
57.9339262621
 10
272.3743498095
 20
58.0715389142
  0
LWPOLYLINE
  5
213
330
1F
100
AcDbEntity
  8
0
  6
Continuous
 62
     7
370
    15
100
AcDbPolyline
 90
       19
 70
   128
 43
0.0
 10
272.8162915478
 20
58.4899746115
 10
272.6419906677
 20
58.6336773722
 10
272.5633396205
 20
58.8031284635
 10
272.5898248833
 20
58.977889583
 10
272.7182519426
 20
59.1368819605
 10
272.9331305995
 20
59.2609287687
 10
273.2085433169
 20
59.3350681319
 10
273.5112712562
 20
59.3503577487
 10
273.8048009603
 20
59.3049534656
 10
274.0537284149
 20
59.2043317094
 10
274.228029295
 20
59.0606289487
 10
274.3066803422
 20
58.8911778573
 10
274.2801950793
 20
58.7164167378
 10
274.1517680201
 20
58.5574243604
 10
273.9368893631
 20
58.4333775521
 10
273.6614766458
 20
58.3592381889
 10
273.3587487064
 20
58.3439485721
 10
273.0652190023
 20
58.3893528552
 10
272.8162915478
 20
58.4899746115
  0
SPLINE
  5
214
330
1F
100
AcDbEntity
  8
0
  6
Continuous
 62
     7
370
    15
100
AcDbSpline
210
0.0
220
0.0
230
1.0
 70
     8
 71
     3
 72
     9
 73
     5
 74
     0
 42
0.000000001
 43
0.00000001
 40
0.0
 40
0.0
 40
0.0
 40
0.0
 40
0.6311775999676631
 40
1.0
 40
1.0
 40
1.0
 40
1.0
 10
272.9047641545218
 20
58.44119407036953
 30
0.0
 10
272.8372802324456
 20
58.48766153595741
 30
0.0
 10
272.7303627466544
 20
58.56128180636985
 30
0.0
 10
272.6340251435694
 20
58.6702424204096
 30
0.0
 10
272.5984936775862
 20
58.71042953558874
 30
0.0
  0
SPLINE
  5
215
330
1F
100
AcDbEntity
  8
0
  6
Continuous
 62
     7
370
    15
100
AcDbSpline
210
0.0
220
0.0
230
1.0
 70
     8
 71
     3
 72
    10
 73
     6
 74
     0
 42
0.000000001
 43
0.00000001
 40
0.0
 40
0.0
 40
0.0
 40
0.0
 40
0.4391165375904043
 40
0.751366942907332
 40
1.0
 40
1.0
 40
1.0
 40
1.0
 10
274.2715262850619
 20
58.96922053710869
 30
0.0
 10
274.2394383623781
 20
58.85814469206296
 30
0.0
 10
274.1845331098831
 20
58.66808417058768
 30
0.0
 10
274.1047186280069
 20
58.52802728899503
 30
0.0
 10
274.0649925300644
 20
58.49912292110396
 30
0.0
 10
274.0473824170199
 20
58.48630995400163
 30
0.0
  0
SPLINE
  5
216
330
1F
100
AcDbEntity
  8
0
  6
Continuous
 62
     7
370
    15
100
AcDbSpline
210
0.0
220
0.0
230
1.0
 70
     8
 71
     3
 72
    11
 73
     7
 74
     0
 42
0.000000001
 43
0.00000001
 40
0.0
 40
0.0
 40
0.0
 40
0.0
 40
0.1843643438496321
 40
0.5174526391740295
 40
0.8663352079125959
 40
0.9999999999999999
 40
0.9999999999999999
 40
0.9999999999999999
 40
0.9999999999999999
 10
273.6591538493661
 20
59.32273561945577
 30
0.0
 10
273.6946889804427
 20
59.28316866317419
 30
0.0
 10
273.7944248999542
 20
59.17211668032069
 30
0.0
 10
273.9802418049612
 20
59.02505545144595
 30
0.0
 10
274.1532573912223
 20
58.97289255605574
 30
0.0
 10
274.2458721543688
 20
58.97001704793175
 30
0.0
 10
274.2715262850619
 20
58.96922053710869
 30
0.0
  0
SPLINE
  5
217
330
1F
100
AcDbEntity
  8
0
  6
Continuous
 62
     7
370
    15
100
AcDbSpline
210
0.0
220
0.0
230
1.0
 70
     8
 71
     3
 72
    10
 73
     6
 74
     0
 42
0.000000001
 43
0.00000001
 40
0.0
 40
0.0
 40
0.0
 40
0.0
 40
0.4391165375904081
 40
0.7513669429073352
 40
1.0
 40
1.0
 40
1.0
 40
1.0
 10
272.8226375456283
 20
59.19334011869579
 30
0.0
 10
272.9423913033934
 20
59.16992060995562
 30
0.0
 10
273.1473004953072
 20
59.1298477746599
 30
0.0
 10
273.4451721968489
 20
59.20782448577884
 30
0.0
 10
273.593432012757
 20
59.28744207599893
 30
0.0
 10
273.6591538493661
 20
59.32273561945577
 30
0.0
  0
SPLINE
  5
218
330
1F
100
AcDbEntity
  8
0
  6
Continuous
 62
     7
370
    15
100
AcDbSpline
210
0.0
220
0.0
230
1.0
 70
     8
 71
     3
 72
    10
 73
     6
 74
     0
 42
0.000000001
 43
0.00000001
 40
0.0
 40
0.0
 40
0.0
 40
0.0
 40
0.439116537590406
 40
0.75136694290734
 40
1.0
 40
1.0
 40
1.0
 40
1.0
 10
272.5984936775862
 20
58.71042953558874
 30
0.0
 10
272.63058160027
 20
58.73761843621076
 30
0.0
 10
272.6854868527651
 20
58.78414103190593
 30
0.0
 10
272.7653013346412
 20
58.98799949646929
 30
0.0
 10
272.8050274325838
 20
59.13027226841785
 30
0.0
 10
272.8226375456283
 20
59.19334011869579
 30
0.0
  0
LINE
  5
219
330
1F
100
AcDbEntity
  8
0
  6
Continuous
 62
     7
370
    15
100
AcDbLine
 10
272.8226375456
 20
58.5047791668
 30
0.0
 11
272.8226375456
 21
59.1933401187
 31
0.0
  0
LINE
  5
21A
330
1F
100
AcDbEntity
  8
0
  6
Continuous
 62
     7
370
    15
100
AcDbLine
 10
273.6591538494
 20
58.3588808634
 30
0.0
 11
273.6591538494
 21
59.3227356195
 31
0.0
  0
SPLINE
  5
21B
330
1F
100
AcDbEntity
  8
0
  6
Continuous
 62
     7
370
    15
100
AcDbSpline
210
0.0
220
0.0
230
1.0
 70
     8
 71
     3
 72
    10
 73
     6
 74
     0
 42
0.000000001
 43
0.00000001
 40
0.0
 40
0.0
 40
0.0
 40
0.0
 40
0.5
 40
0.5
 40
1.0
 40
1.0
 40
1.0
 40
1.0
 10
257.0441767174997
 20
54.81380824489088
 30
0.0
 10
256.9876480317171
 20
54.78117492920826
 30
0.0
 10
256.9090047091424
 20
54.76080195374929
 30
0.0
 10
256.7487747948114
 20
54.75774055378793
 30
0.0
 10
256.6676077822706
 20
54.77539975366818
 30
0.0
 10
256.6104938819328
 20
54.80837090652249
 30
0.0
  0
SPLINE
  5
21C
330
1F
100
AcDbEntity
  8
0
  6
Continuous
 62
     7
370
    15
100
AcDbSpline
210
0.0
220
0.0
230
1.0
 70
     8
 71
     3
 72
    12
 73
     8
 74
     0
 42
0.000000001
 43
0.00000001
 40
0.0
 40
0.0
 40
0.0
 40
0.0
 40
0.250000000000002
 40
0.250000000000002
 40
0.500000000000004
 40
0.500000000000004
 40
1.0
 40
1.0
 40
1.0
 40
1.0
 10
274.3012157882776
 20
71.3323327847776
 30
0.0
 10
274.3331201166224
 20
71.31391480806184
 30
0.0
 10
274.3652574530632
 20
71.28400026742978
 30
0.0
 10
274.4199157594894
 20
71.21360284748685
 30
0.0
 10
274.4428890988198
 20
71.17322215081104
 30
0.0
 10
274.4965708877575
 20
71.05069832077565
 30
0.0
 10
274.5133478226336
 20
70.96589699916998
 30
0.0
 10
274.5133478226336
 20
70.89234440353637
 30
0.0
  0
LINE
  5
21D
330
1F
100
AcDbEntity
  8
0
  6
Continuous
 62
     7
370
    15
100
AcDbLine
 10
256.6104938819
 20
54.8083709065
 30
0.0
 11
255.2111058143
 21
55.6162204424
 31
0.0
  0
LWPOLYLINE
  5
21E
330
1F
100
AcDbEntity
  8
0
  6
Continuous
 62
     7
370
    15
100
AcDbPolyline
 90
       26
 70
   128
 43
0.0
 10
255.2111058143
 20
55.6162204424
 10
255.4935502942
 20
56.7345757012
 10
255.8400088771
 20
57.8613617854
 10
256.2483470379
 20
58.9896365854
 10
256.7160490122
 20
60.1124488201
 10
257.2402332963
 20
61.2228808628
 10
257.8176704001
 20
62.3140913613
 10
258.4448027436
 20
63.3793573866
 10
259.1177665755
 20
64.4121158534
 10
259.8324157774
 20
65.406003955
 10
260.5843474079
 20
66.354898364
 10
261.3689288296
 20
67.2529529587
 10
262.1813262499
 20
68.0946348403
 10
263.0165345026
 20
68.8747584215
 10
263.8694078843
 20
69.5885173747
 10
264.7346918569
 20
70.2315142432
 10
265.6070554211
 20
70.7997875348
 10
266.4811239601
 20
71.2898361275
 10
267.351512353
 20
71.6986408407
 10
268.2128581522
 20
72.0236830355
 10
269.0598546212
 20
72.2629601327
 10
269.8872834295
 20
72.4149979503
 10
270.6900468029
 20
72.478859786
 10
271.4631989301
 20
72.4541521881
 10
272.2019764344
 20
72.3410273796
 10
272.9018277207
 20
72.1401823207
  0
LINE
  5
21F
330
1F
100
AcDbEntity
  8
0
  6
Continuous
 62
     7
370
    15
100
AcDbLine
 10
272.9018277207
 20
72.1401823207
 30
0.0
 11
274.3012157883
 21
71.3323327848
 31
0.0
  0
LINE
  5
220
330
1F
100
AcDbEntity
  8
0
  6
Continuous
 62
     7
370
    15
100
AcDbLine
 10
276.829122531
 20
65.8271439414
 30
0.0
 11
278.047623193
 21
66.5305694007
 31
0.0
  0
LINE
  5
221
330
1F
100
AcDbEntity
  8
0
  6
Continuous
 62
     7
370
    15
100
AcDbLine
 10
276.829122531
 20
59.2948174463
 30
0.0
 11
276.829122531
 21
65.8271439414
 31
0.0
  0
LINE
  5
222
330
1F
100
AcDbEntity
  8
0
  6
Continuous
 62
     7
370
    15
100
AcDbLine
 10
278.047623193
 20
59.9982429056
 30
0.0
 11
276.829122531
 21
59.2948174463
 31
0.0
  0
LINE
  5
223
330
1F
100
AcDbEntity
  8
0
  6
Continuous
 62
     7
370
    15
100
AcDbLine
 10
257.0441767175
 20
47.4649409379
 30
0.0
 11
258.1615035077
 21
48.1099599643
 31
0.0
  0
LINE
  5
224
330
1F
100
AcDbEntity
  8
0
  6
Continuous
 62
     7
370
    15
100
AcDbLine
 10
258.1615035077
 20
48.1099599643
 30
0.0
 11
258.1615035077
 21
55.4588272713
 31
0.0
  0
LINE
  5
225
330
1F
100
AcDbEntity
  8
0
  6
Continuous
 62
     7
370
    15
100
AcDbLine
 10
258.1615035077
 20
55.4588272713
 30
0.0
 11
257.0441767175
 21
54.8138082449
 31
0.0
  0
LINE
  5
226
330
1F
100
AcDbEntity
  8
0
  6
Continuous
 62
     7
370
    15
100
AcDbLine
 10
274.5133478226
 20
70.8923444035
 30
0.0
 11
274.5133478226
 21
69.3282799687
 31
0.0
  0
LINE
  5
227
330
1F
100
AcDbEntity
  8
0
  6
Continuous
 62
     7
370
    15
100
AcDbLine
 10
275.8677939838
 20
70.1101850942
 30
0.0
 11
274.5133478226
 21
69.3282799687
 31
0.0
  0
LWPOLYLINE
  5
228
330
1F
100
AcDbEntity
  8
0
  6
Continuous
 62
     7
370
    15
100
AcDbPolyline
 90
       23
 70
   128
 43
0.0
 10
254.2873230265
 20
57.2472024764
 10
254.5876690928
 20
58.3470842746
 10
254.9540964309
 20
59.4528439802
 10
255.3840349929
 20
60.5567260155
 10
255.8744692755
 20
61.6509879726
 10
256.4219594708
 20
62.7279549168
 10
257.0226655919
 20
63.7800732173
 10
257.6723744061
 20
64.7999635265
 10
258.3665289857
 20
65.7804725377
 10
259.1002606692
 20
66.7147231566
 10
259.8684232092
 20
67.596162736
 10
260.6656288672
 20
68.4186090351
 10
261.486286202
 20
69.1762935798
 10
262.3246392872
 20
69.8639021221
 10
263.1748080817
 20
70.4766119131
 10
264.0308296715
 20
71.0101255289
 10
264.8867000922
 20
71.4607010116
 10
265.7364164399
 20
71.8251781147
 10
266.5740189739
 20
72.1010004688
 10
267.3936329173
 20
72.286233511
 10
268.1895096619
 20
72.3795780536
 10
268.9560670872
 20
72.3803793969
 10
269.4023890743
 20
72.3360339826
  0
SPLINE
  5
229
330
1F
100
AcDbEntity
  8
0
  6
Continuous
 62
     7
370
    15
100
AcDbSpline
210
0.0
220
0.0
230
1.0
 70
     8
 71
     3
 72
     8
 73
     4
 74
     0
 42
0.000000001
 43
0.00000001
 40
0.0
 40
0.0
 40
0.0
 40
0.0
 40
1.0
 40
1.0
 40
1.0
 40
1.0
 10
254.2873230265418
 20
57.24720247636915
 30
0.0
 10
253.7960219974893
 20
57.16455525616526
 30
0.0
 10
253.3044419065866
 20
57.08247146867483
 30
0.0
 10
252.8126471078347
 20
57.00082118159308
 30
0.0
  0
LWPOLYLINE
  5
22A
330
1F
100
AcDbEntity
  8
0
  6
Continuous
 62
     7
370
    15
100
AcDbPolyline
 90
       26
 70
   128
 43
0.0
 10
252.8126471078
 20
57.0008211816
 10
253.0950915877
 20
58.1191764404
 10
253.4415501707
 20
59.2459625246
 10
253.8498883314
 20
60.3742373246
 10
254.3175903057
 20
61.4970495593
 10
254.8417745898
 20
62.607481602
 10
255.4192116936
 20
63.6986921005
 10
256.0463440372
 20
64.7639581258
 10
256.719307869
 20
65.7967165926
 10
257.4339570709
 20
66.7906046942
 10
258.1858887015
 20
67.7394991032
 10
258.9704701231
 20
68.6375536979
 10
259.7828675434
 20
69.4792355795
 10
260.6180757962
 20
70.2593591607
 10
261.4709491778
 20
70.9731181139
 10
262.3362331504
 20
71.6161149824
 10
263.2085967146
 20
72.184388274
 10
264.0826652536
 20
72.6744368667
 10
264.9530536466
 20
73.0832415799
 10
265.8143994457
 20
73.4082837747
 10
266.6613959147
 20
73.6475608719
 10
267.488824723
 20
73.7995986895
 10
268.2915880964
 20
73.8634605252
 10
269.0647402236
 20
73.8387529272
 10
269.803517728
 20
73.7256281188
 10
270.5033690142
 20
73.5247830598
  0
LINE
  5
22B
330
1F
100
AcDbEntity
  8
0
  6
Continuous
 62
     7
370
    15
100
AcDbLine
 10
270.5033690142
 20
73.5247830598
 30
0.0
 11
270.8326205108
 21
72.4610151077
 31
0.0
  0
LINE
  5
22C
330
1F
100
AcDbEntity
  8
0
  6
Continuous
 62
     7
370
    15
100
AcDbLine
 10
267.0887266202
 20
75.4960141551
 30
0.0
 11
270.5033690142
 21
73.5247830598
 31
0.0
  0
LINE
  5
22D
330
1F
100
AcDbEntity
  8
0
  6
Continuous
 62
     7
370
    15
100
AcDbLine
 10
252.8126471078
 20
57.0008211816
 30
0.0
 11
252.2264318386
 21
57.3392360532
 31
0.0
  0
SPLINE
  5
22E
330
1F
100
AcDbEntity
  8
0
  6
Continuous
 62
     7
370
    15
100
AcDbSpline
210
0.0
220
0.0
230
1.0
 70
     8
 71
     3
 72
    28
 73
    24
 74
     0
 42
0.000000001
 43
0.00000001
 40
0.0
 40
0.0
 40
0.0
 40
0.0
 40
0.1249999999999999
 40
0.1249999999999999
 40
0.1874999999999998
 40
0.1874999999999998
 40
0.2499999999999997
 40
0.2499999999999997
 40
0.3749999999999993
 40
0.3749999999999993
 40
0.4374999999999993
 40
0.4374999999999993
 40
0.4999999999999992
 40
0.4999999999999992
 40
0.6249999999999992
 40
0.6249999999999992
 40
0.7499999999999992
 40
0.7499999999999992
 40
0.8124999999999993
 40
0.8124999999999993
 40
0.8749999999999996
 40
0.8749999999999996
 40
1.0
 40
1.0
 40
1.0
 40
1.0
 10
252.2264318385762
 20
57.33923605317289
 30
0.0
 10
252.0384447581099
 20
57.44775868475697
 30
0.0
 10
251.8482248035092
 20
57.52970240530487
 30
0.0
 10
251.5601262015612
 20
57.61486013534333
 30
0.0
 10
251.4636363309616
 20
57.63691006574714
 30
0.0
 10
251.2698981581267
 20
57.66818388920611
 30
0.0
 10
251.1726471375954
 20
57.67731114052953
 30
0.0
 10
250.88662526271
 20
57.68509398263793
 30
0.0
 10
250.7012834463534
 20
57.66478743900087
 30
0.0
 10
250.4327708595376
 20
57.59756678586773
 30
0.0
 10
250.3444101998718
 20
57.56878042826214
 30
0.0
 10
250.1740574895822
 20
57.49976853816698
 30
0.0
 10
250.0920304598007
 20
57.45962864825686
 30
0.0
 10
249.8555942060481
 20
57.32300888049364
 30
0.0
 10
249.7107269559257
 20
57.21049439080457
 30
0.0
 10
249.4498701624416
 20
56.9422374258051
 30
0.0
 10
249.3375777549393
 20
56.79008403942782
 30
0.0
 10
249.1983532734855
 20
56.53816765172952
 30
0.0
 10
249.1567574871197
 20
56.45012536605314
 30
0.0
 10
249.0836327720585
 20
56.26578431100131
 30
0.0
 10
249.0520082880055
 20
56.16899554831954
 30
0.0
 10
248.9745149845834
 20
55.87098046942273
 30
0.0
 10
248.9453402691935
 20
55.6615075922862
 30
0.0
 10
248.9393733864517
 20
55.44112679960234
 30
0.0
  0
ARC
  5
22F
330
1F
100
AcDbEntity
  8
0
  6
Continuous
 62
     7
370
    15
100
AcDbCircle
 10
263.7827398488
 20
55.0328563937
 30
0.0
 40
14.84898018918681
100
AcDbArc
 50
178.4244628824
 51
181.5755371176
  0
SPLINE
  5
230
330
1F
100
AcDbEntity
  8
0
  6
Continuous
 62
     7
370
    15
100
AcDbSpline
210
0.0
220
0.0
230
1.0
 70
     8
 71
     3
 72
    30
 73
    26
 74
     0
 42
0.000000001
 43
0.00000001
 40
0.0
 40
0.0
 40
0.0
 40
0.0
 40
0.1250000000000001
 40
0.1250000000000001
 40
0.1875000000000002
 40
0.1875000000000002
 40
0.2500000000000003
 40
0.2500000000000003
 40
0.3750000000000004
 40
0.3750000000000004
 40
0.4375000000000004
 40
0.4375000000000004
 40
0.5000000000000004
 40
0.5000000000000004
 40
0.6250000000000007
 40
0.6250000000000007
 40
0.6875000000000006
 40
0.6875000000000006
 40
0.7500000000000004
 40
0.7500000000000004
 40
0.8125000000000004
 40
0.8125000000000004
 40
0.8750000000000003
 40
0.8750000000000003
 40
1.0
 40
1.0
 40
1.0
 40
1.0
 10
248.9393733864517
 20
54.62458598771659
 30
0.0
 10
248.9453409851432
 20
54.41106879494187
 30
0.0
 10
248.9744862051427
 20
54.19351889692274
 30
0.0
 10
249.0509208664015
 20
53.86121986738715
 30
0.0
 10
249.0818868499789
 20
53.74944556608758
 30
0.0
 10
249.1548567907945
 20
53.52374369255259
 30
0.0
 10
249.1969929893531
 20
53.40965591998007
 30
0.0
 10
249.3368847787175
 20
53.07149319261888
 30
0.0
 10
249.4487287032598
 20
52.84898297334611
 30
0.0
 10
249.6425153004044
 20
52.51837271739654
 30
0.0
 10
249.7118559380076
 20
52.40814607769039
 30
0.0
 10
249.8573483224543
 20
52.19141607723685
 30
0.0
 10
249.9332356131734
 20
52.08521914160613
 30
0.0
 10
250.1696235616448
 20
51.77258096835652
 30
0.0
 10
250.3387690638956
 20
51.57203842052135
 30
0.0
 10
250.6086350612297
 20
51.28193358109902
 30
0.0
 10
250.7008265672806
 20
51.18759016472657
 30
0.0
 10
250.8864251623153
 20
51.00628513666618
 30
0.0
 10
250.9802540426022
 20
50.91886580317203
 30
0.0
 10
251.1697040930675
 20
50.75025825284737
 30
0.0
 10
251.2653255082731
 20
50.66907006707802
 30
0.0
 10
251.4581871976996
 20
50.51290738752989
 30
0.0
 10
251.5559221065979
 20
50.43758040783318
 30
0.0
 10
251.8471780617184
 20
50.22429017438934
 30
0.0
 10
252.0384354526914
 20
50.09889674968891
 30
0.0
 10
252.2264318385762
 20
49.99036874620114
 30
0.0
  0
LINE
  5
231
330
1F
100
AcDbEntity
  8
0
  6
Continuous
 62
     7
370
    15
100
AcDbLine
 10
252.2264318386
 20
49.9903687462
 30
0.0
 11
252.8126471078
 21
49.6519538746
 31
0.0
  0
ARC
  5
232
330
1F
100
AcDbEntity
  8
0
  6
Continuous
 62
     7
370
    15
100
AcDbCircle
 10
258.633876634
 20
51.0432323685
 30
0.0
 40
5.985179115443843
100
AcDbArc
 50
193.4415888918
 51
253.1805824648
  0
LINE
  5
233
330
1F
100
AcDbEntity
  8
0
  6
Continuous
 62
     7
370
    15
100
AcDbLine
 10
272.1327868705
 20
72.5838343668
 30
0.0
 11
272.4670992743
 21
72.2765062566
 31
0.0
  0
LINE
  5
234
330
1F
100
AcDbEntity
  8
0
  6
Continuous
 62
     7
370
    15
100
AcDbLine
 10
271.2798581167
 20
73.0762196557
 30
0.0
 11
272.1327868705
 21
72.5838343668
 31
0.0
  0
SPLINE
  5
235
330
1F
100
AcDbEntity
  8
0
  6
Continuous
 62
     7
370
    15
100
AcDbSpline
210
0.0
220
0.0
230
1.0
 70
     8
 71
     3
 72
    20
 73
    16
 74
     0
 42
0.000000001
 43
0.00000001
 40
0.0
 40
0.0
 40
0.0
 40
0.0
 40
0.2499999999999995
 40
0.2499999999999995
 40
0.3749999999999996
 40
0.3749999999999996
 40
0.4999999999999997
 40
0.4999999999999997
 40
0.6249999999999998
 40
0.6249999999999998
 40
0.7499999999999998
 40
0.7499999999999998
 40
0.8749999999999999
 40
0.8749999999999999
 40
1.0
 40
1.0
 40
1.0
 40
1.0
 10
267.0887266201748
 20
75.49601415507334
 30
0.0
 10
267.4077152745728
 20
75.36212376581354
 30
0.0
 10
267.7341708746708
 20
75.20222741875155
 30
0.0
 10
268.2465209920539
 20
74.92430849128203
 30
0.0
 10
268.4211243587317
 20
74.82530947847174
 30
0.0
 10
268.7809982210806
 20
74.61436877357302
 30
0.0
 10
268.9638586374341
 20
74.50381295636299
 30
0.0
 10
269.3301537266113
 20
74.27839508735217
 30
0.0
 10
269.5146372428699
 20
74.1629144859727
 30
0.0
 10
269.8882220671055
 20
73.92808214167692
 30
0.0
 10
270.0725715383447
 20
73.81175221640167
 30
0.0
 10
270.4332814448211
 20
73.58605752960229
 30
0.0
 10
270.610335434075
 20
73.4762475555056
 30
0.0
 10
270.9580647854274
 20
73.2648527919697
 30
0.0
 10
271.1233152018856
 20
73.16658995682668
 30
0.0
 10
271.2798581166671
 20
73.07621965570931
 30
0.0
  0
ARC
  5
236
330
1F
100
AcDbEntity
  8
0
  6
Continuous
 62
     7
370
    15
100
AcDbCircle
 10
263.181526363
 20
69.8447713871
 30
0.0
 40
6.943593807468358
100
AcDbArc
 50
63.3035690035
 51
113.9767780366
  0
ARC
  5
237
330
1F
100
AcDbEntity
  8
0
  6
Continuous
 62
     7
370
    15
100
AcDbCircle
 10
254.2805617626
 20
54.5075241095
 30
0.0
 40
6.844428672243156
100
AcDbArc
 50
186.7852637878
 51
236.994907271
  0
LWPOLYLINE
  5
238
330
1F
100
AcDbEntity
  8
0
  6
Continuous
 62
     7
370
    15
100
AcDbPolyline
 90
       51
 70
   128
 43
0.0
 10
271.6495653588
 20
49.7535784396
 10
271.6838562101
 20
50.4027632835
 10
271.7861879767
 20
51.0813014687
 10
271.9549468254
 20
51.7784920427
 10
272.1874713286
 20
52.4833398937
 10
272.4800944358
 20
53.1847291501
 10
272.8282013058
 20
53.8715984842
 10
273.2263020854
 20
54.5331155563
 10
273.6681184875
 20
55.1588478472
 10
274.1466828033
 20
55.7389271846
 10
274.6544477879
 20
56.264205371
 10
275.1834056841
 20
56.7263984555
 10
275.7252145099
 20
57.1182173772
 10
276.2713296164
 20
57.4334829176
 10
276.8131384421
 20
57.6672231507
 10
277.3420963383
 20
57.8157518535
 10
277.8498613229
 20
57.8767266396
 10
278.3284256388
 20
57.8491859002
 10
278.7702420408
 20
57.7335639691
 10
279.1683428204
 20
57.5316842734
 10
279.5164496905
 20
57.2467305765
 10
279.8090727977
 20
56.8831967682
 10
280.0415973008
 20
56.4468159941
 10
280.2103561496
 20
55.9444702395
 10
280.3126879162
 20
55.384081797
 10
280.3469787674
 20
54.7744883273
 10
280.3126879162
 20
54.1253034835
 10
280.2103561496
 20
53.4467652983
 10
280.0415973008
 20
52.7495747242
 10
279.8090727977
 20
52.0447268732
 10
279.5164496905
 20
51.3433376169
 10
279.1683428204
 20
50.6564682827
 10
278.7702420408
 20
49.9949512106
 10
278.3284256388
 20
49.3692189198
 10
277.8498613229
 20
48.7891395823
 10
277.3420963383
 20
48.2638613959
 10
276.8131384421
 20
47.8016683114
 10
276.2713296164
 20
47.4098493897
 10
275.7252145099
 20
47.0945838493
 10
275.1834056841
 20
46.8608436162
 10
274.6544477879
 20
46.7123149134
 10
274.1466828033
 20
46.6513401273
 10
273.6681184875
 20
46.6788808668
 10
273.2263020854
 20
46.7945027978
 10
272.8282013058
 20
46.9963824935
 10
272.4800944358
 20
47.2813361905
 10
272.1874713286
 20
47.6448699987
 10
271.9549468254
 20
48.0812507729
 10
271.7861879767
 20
48.5835965275
 10
271.6838562101
 20
49.1439849699
 10
271.6495653588
 20
49.7535784396
  0
LWPOLYLINE
  5
239
330
1F
100
AcDbEntity
  8
0
  6
Continuous
 62
     7
370
    15
100
AcDbPolyline
 90
       26
 70
   128
 43
0.0
 10
271.5081440026
 20
49.7535784396
 10
271.5429924287
 20
50.4133191346
 10
271.6469881264
 20
51.102890461
 10
271.8184910215
 20
51.8114174671
 10
272.0547964109
 20
52.5277262588
 10
272.3521776174
 20
53.2405202185
 10
272.7059447617
 20
53.9385581597
 10
273.1105187247
 20
54.610831607
 10
273.5595191333
 20
55.2467384066
 10
274.0458649828
 20
55.8362499284
 10
274.5618863086
 20
56.3700692235
 10
275.0994451462
 20
56.8397776428
 10
275.6500638715
 20
57.2379676039
 10
276.2050588985
 20
57.5583594132
 10
276.7556776238
 20
57.7959003005
 10
277.2932364614
 20
57.9468441041
 10
277.8092577872
 20
58.0088103502
 10
278.2956036367
 20
57.9808217938
 10
278.7446040453
 20
57.8633198314
 10
279.1491780083
 20
57.658157539
 10
279.5029451526
 20
57.3685704486
 10
279.8003263591
 20
56.9991255215
 10
280.0366317485
 20
56.555649125
 10
280.2081346436
 20
56.0451351468
 10
280.3121303413
 20
55.4756346972
 10
280.3469787674
 20
54.8561291385
  0
LWPOLYLINE
  5
23A
330
1F
100
AcDbEntity
  8
0
  6
Continuous
 62
     7
370
    15
100
AcDbPolyline
 90
       14
 70
   128
 43
0.0
 10
275.9282796646
 20
47.2018884362
 10
275.6500638715
 20
47.0513481649
 10
275.0994451462
 20
46.8138072776
 10
274.5618863086
 20
46.662863474
 10
274.0458649828
 20
46.600897228
 10
273.5595191333
 20
46.6288857843
 10
273.1105187247
 20
46.7463877467
 10
272.7059447617
 20
46.9515500391
 10
272.3521776174
 20
47.2411371295
 10
272.0547964109
 20
47.6105820566
 10
271.8184910215
 20
48.0540584531
 10
271.6469881264
 20
48.5645724313
 10
271.5429924287
 20
49.134072881
 10
271.5081440026
 20
49.7535784396
  0
SPLINE
  5
23B
330
1F
100
AcDbEntity
  8
0
  6
Continuous
 62
     7
370
    15
100
AcDbSpline
210
0.0
220
0.0
230
1.0
 70
     8
 71
     3
 72
    38
 73
    34
 74
     0
 42
0.000000001
 43
0.00000001
 40
0.0
 40
0.0
 40
0.0
 40
0.0
 40
0.0625
 40
0.0625
 40
0.125
 40
0.125
 40
0.1875
 40
0.1875
 40
0.25
 40
0.25
 40
0.3125
 40
0.3125
 40
0.375
 40
0.375
 40
0.4375
 40
0.4375
 40
0.5
 40
0.5
 40
0.5625
 40
0.5625
 40
0.625
 40
0.625
 40
0.6875
 40
0.6875
 40
0.75
 40
0.75
 40
0.8125
 40
0.8125
 40
0.875
 40
0.875
 40
0.9375
 40
0.9375
 40
1.0
 40
1.0
 40
1.0
 40
1.0
 10
274.8492235436972
 20
58.03074504860621
 30
0.0
 10
274.7623469370778
 20
57.98059225113715
 30
0.0
 10
274.6648861527339
 20
57.93356234825973
 30
0.0
 10
274.4524403752255
 20
57.84795714301839
 30
0.0
 10
274.3405740338486
 20
57.81053970705456
 30
0.0
 10
274.1064200927986
 20
57.7464604994887
 30
0.0
 10
273.984709400056
 20
57.72013883735401
 30
0.0
 10
273.7415485026634
 20
57.68097874243001
 30
0.0
 10
273.6176605557947
 20
57.66774716410787
 30
0.0
 10
273.3738794717599
 20
57.65543106646756
 30
0.0
 10
273.2541682009298
 20
57.65620074724342
 30
0.0
 10
273.0186301303567
 20
57.67212030551319
 30
0.0
 10
272.9028370696786
 20
57.68745663108672
 30
0.0
 10
272.6829781993459
 20
57.73219956963633
 30
0.0
 10
272.577806441077
 20
57.76164228946384
 30
0.0
 10
272.3769235110215
 20
57.83545950521869
 30
0.0
 10
272.2822929838969
 20
57.87960061890633
 30
0.0
 10
272.1090446191425
 20
57.97992316073204
 30
0.0
 10
272.0296405326687
 20
58.03637777400245
 30
0.0
 10
271.8857819901597
 20
58.16204612623825
 30
0.0
 10
271.8224171384053
 20
58.23049258631279
 30
0.0
 10
271.7154085502819
 20
58.37474335010697
 30
0.0
 10
271.6712472989611
 20
58.45097558363005
 30
0.0
 10
271.6029507537627
 20
58.61114009576823
 30
0.0
 10
271.5795300690767
 20
58.69378934332645
 30
0.0
 10
271.5556807552961
 20
58.85938846361475
 30
0.0
 10
271.554975399558
 20
58.9428929877822
 30
0.0
 10
271.5790024164987
 20
59.11008720474446
 30
0.0
 10
271.6036131599858
 20
59.19172828861422
 30
0.0
 10
271.6787477127091
 20
59.34657317829182
 30
0.0
 10
271.7303750633727
 20
59.42113317976815
 30
0.0
 10
271.8575531637031
 20
59.55396354128165
 30
0.0
 10
271.9329335542405
 20
59.61283912010563
 30
0.0
 10
272.020796418951
 20
59.66356127225162
 30
0.0
  0
SPLINE
  5
23C
330
1F
100
AcDbEntity
  8
0
  6
Continuous
 62
     7
370
    15
100
AcDbSpline
210
0.0
220
0.0
230
1.0
 70
     8
 71
     3
 72
    34
 73
    30
 74
     0
 42
0.000000001
 43
0.00000001
 40
0.0
 40
0.0
 40
0.0
 40
0.0
 40
0.0625000000000001
 40
0.0625000000000001
 40
0.1250000000000002
 40
0.1250000000000002
 40
0.1875000000000002
 40
0.1875000000000002
 40
0.2500000000000003
 40
0.2500000000000003
 40
0.3749999999999992
 40
0.3749999999999992
 40
0.4999999999999981
 40
0.4999999999999981
 40
0.5624999999999984
 40
0.5624999999999984
 40
0.6249999999999987
 40
0.6249999999999987
 40
0.687499999999999
 40
0.687499999999999
 40
0.7499999999999993
 40
0.7499999999999993
 40
0.8124999999999996
 40
0.8124999999999996
 40
0.8749999999999997
 40
0.8749999999999997
 40
0.9374999999999999
 40
0.9374999999999999
 40
1.0
 40
1.0
 40
1.0
 40
1.0
 10
272.020796418951
 20
59.66356127225162
 30
0.0
 10
272.108756243579
 20
59.71433939816655
 30
0.0
 10
272.2069507375456
 20
59.75537324267522
 30
0.0
 10
272.4179091515022
 20
59.81728362479795
 30
0.0
 10
272.5324862722608
 20
59.8384650040903
 30
0.0
 10
272.7664283140397
 20
59.86125612556925
 30
0.0
 10
272.8878017299375
 20
59.86329366233566
 30
0.0
 10
273.1332703054763
 20
59.85113162142171
 30
0.0
 10
273.2558967739769
 20
59.83714499168195
 30
0.0
 10
273.6238250923637
 20
59.77546699378874
 30
0.0
 10
273.8580226414783
 20
59.71059855596955
 30
0.0
 10
274.30203402585
 20
59.54923896023389
 30
0.0
 10
274.501717333432
 20
59.45630383032179
 30
0.0
 10
274.7640427575095
 20
59.30430686149106
 30
0.0
 10
274.8431493037986
 20
59.25262785965831
 30
0.0
 10
274.9851881701795
 20
59.14702615327589
 30
0.0
 10
275.0484002181933
 20
59.09282343176711
 30
0.0
 10
275.1562841653961
 20
58.98243145805183
 30
0.0
 10
275.2000545033585
 20
58.92726992507858
 30
0.0
 10
275.267241233999
 20
58.81577621193097
 30
0.0
 10
275.2907558445987
 20
58.75906173504028
 30
0.0
 10
275.3145714947242
 20
58.64446945966771
 30
0.0
 10
275.3147978918134
 20
58.58769314473434
 30
0.0
 10
275.290879650913
 20
58.4736070325067
 30
0.0
 10
275.2662592882119
 20
58.41557624933696
 30
0.0
 10
275.190534518318
 20
58.30088859132148
 30
0.0
 10
275.1402977071324
 20
58.24501017807209
 30
0.0
 10
275.0137949632993
 20
58.13532305204489
 30
0.0
 10
274.9361960218618
 20
58.08095319154027
 30
0.0
 10
274.8492235436972
 20
58.03074504860621
 30
0.0
  0
LWPOLYLINE
  5
23D
330
1F
100
AcDbEntity
  8
0
  6
Continuous
 62
     7
370
    15
100
AcDbPolyline
 90
       46
 70
   128
 43
0.0
 10
272.3743498095
 20
50.1719875969
 10
272.4096175718
 20
50.7747548916
 10
272.5147344117
 20
51.406509298
 10
272.6876543495
 20
52.0549544354
 10
272.9250116954
 20
52.7074690566
 10
273.2221865585
 20
53.3513527069
 10
273.5733947682
 20
53.9740729234
 10
273.9718004562
 20
54.5635091654
 10
274.4096491089
 20
55.1081887268
 10
274.8784185005
 20
55.5975100397
 10
275.3689845678
 20
56.0219490213
 10
275.8717990004
 20
56.3732444495
 10
276.3770750873
 20
56.6445587585
 10
276.8749782042
 20
56.8306111239
 10
277.3558172333
 20
56.9277802479
 10
277.8102331899
 20
56.9341748441
 10
278.2293813842
 20
56.849670449
 10
278.6051035735
 20
56.6759118446
 10
278.9300867526
 20
56.4162810443
 10
279.1980054936
 20
56.0758314664
 10
279.4036450631
 20
55.6611895747
 10
279.5430029207
 20
55.1804259019
 10
279.6133666242
 20
54.6428979661
 10
279.6133666242
 20
54.0590681371
 10
279.5430029207
 20
53.4402999985
 10
279.4036450631
 20
52.7986371682
 10
279.1980054936
 20
52.1465688833
 10
278.9300867526
 20
51.4967869113
 10
278.6051035735
 20
50.8619385191
 10
278.2293813842
 20
50.2543803087
 10
277.8102331899
 20
49.6859377093
 10
277.3558172333
 20
49.1676748098
 10
276.8749782042
 20
48.7096790078
 10
276.3770750873
 20
48.3208646707
 10
275.8717990004
 20
48.0087996273
 10
275.3689845678
 20
47.7795578688
 10
274.8784185005
 20
47.6376013251
 10
274.4096491089
 20
47.5856930189
 10
273.9718004562
 20
47.6248432864
 10
273.5733947682
 20
47.7542901122
 10
273.2221865585
 20
47.9715139609
 10
272.9250116954
 20
48.2722868176
 10
272.6876543495
 20
48.6507544806
 10
272.5147344117
 20
49.0995505074
 10
272.4096175718
 20
49.6099395938
 10
272.3743498095
 20
50.1719875969
  0
LINE
  5
23E
330
1F
100
AcDbEntity
  8
0
  6
Continuous
 62
     7
370
    15
100
AcDbLine
 10
255.4219375814
 20
56.472943708
 30
0.0
 11
254.9583097889
 21
56.7405903355
 31
0.0
  0
LINE
  5
23F
330
1F
100
AcDbEntity
  8
0
  6
Continuous
 62
     7
370
    15
100
AcDbLine
 10
254.5324916309
 20
57.3887352991
 30
0.0
 11
254.2873230265
 21
57.2472024764
 31
0.0
  0
SPLINE
  5
240
330
1F
100
AcDbEntity
  8
0
  6
Continuous
 62
     7
370
    15
100
AcDbSpline
210
0.0
220
0.0
230
1.0
 70
     8
 71
     3
 72
    14
 73
    10
 74
     0
 42
0.000000001
 43
0.00000001
 40
0.0
 40
0.0
 40
0.0
 40
0.0
 40
0.1250000000000012
 40
0.1250000000000012
 40
0.2500000000000024
 40
0.2500000000000024
 40
0.5000000000000013
 40
0.5000000000000013
 40
1.0
 40
1.0
 40
1.0
 40
1.0
 10
254.9583097889196
 20
56.74059033554717
 30
0.0
 10
254.9341133557544
 20
56.75455863908972
 30
0.0
 10
254.9109379172955
 20
56.78192381508725
 30
0.0
 10
254.8740175248645
 20
56.8397255842128
 30
0.0
 10
254.858975733832
 20
56.87069606332914
 30
0.0
 10
254.8191622772451
 20
56.96372253625837
 30
0.0
 10
254.7995262588611
 20
57.02633359054309
 30
0.0
 10
254.7491054103915
 20
57.21066434145807
 30
0.0
 10
254.726688232151
 20
57.3322085763588
 30
0.0
 10
254.7100003339851
 20
57.45133764166116
 30
0.0
  0
SPLINE
  5
241
330
1F
100
AcDbEntity
  8
0
  6
Continuous
 62
     7
370
    15
100
AcDbSpline
210
0.0
220
0.0
230
1.0
 70
     8
 71
     3
 72
    10
 73
     6
 74
     0
 42
0.000000001
 43
0.00000001
 40
0.0
 40
0.0
 40
0.0
 40
0.0
 40
0.5
 40
0.5
 40
1.0
 40
1.0
 40
1.0
 40
1.0
 10
254.7100003339851
 20
57.45133764166116
 30
0.0
 10
254.6766103157973
 20
57.44518787246093
 30
0.0
 10
254.6443709643692
 20
57.43664126461286
 30
0.0
 10
254.5843830701069
 20
57.41540529084396
 30
0.0
 10
254.5571211968578
 20
57.40295364483578
 30
0.0
 10
254.532491630908
 20
57.38873529905893
 30
0.0
  0
ARC
  5
242
330
1F
100
AcDbEntity
  8
0
  6
Continuous
 62
     7
370
    15
100
AcDbCircle
 10
276.8447778116
 20
50.6607965782
 30
0.0
 40
4.342146830488041
100
AcDbArc
 50
152.8222804837
 51
207.1777195163
  0
SPLINE
  5
243
330
1F
100
AcDbEntity
  8
0
  6
Continuous
 62
     7
370
    15
100
AcDbSpline
210
0.0
220
0.0
230
1.0
 70
     8
 71
     3
 72
    22
 73
    18
 74
     0
 42
0.000000001
 43
0.00000001
 40
0.0
 40
0.0
 40
0.0
 40
0.0
 40
0.1250000000000001
 40
0.1250000000000001
 40
0.2500000000000003
 40
0.2500000000000003
 40
0.3750000000000004
 40
0.3750000000000004
 40
0.5000000000000006
 40
0.5000000000000006
 40
0.6250000000000007
 40
0.6250000000000007
 40
0.7500000000000004
 40
0.7500000000000004
 40
0.8750000000000003
 40
0.8750000000000003
 40
1.0
 40
1.0
 40
1.0
 40
1.0
 10
273.9306221487424
 20
48.04844431836255
 30
0.0
 10
273.8835844749585
 20
48.0012161484165
 30
0.0
 10
273.8351037097774
 20
47.96297623021621
 30
0.0
 10
273.7356471256119
 20
47.90437020521878
 30
0.0
 10
273.6840463923746
 20
47.88397030770302
 30
0.0
 10
273.5826070626563
 20
47.8636764388641
 30
0.0
 10
273.5325749414393
 20
47.86340386477005
 30
0.0
 10
273.4341258524395
 20
47.88318732905606
 30
0.0
 10
273.3862350523075
 20
47.90340927961246
 30
0.0
 10
273.2968510479668
 20
47.96262866544891
 30
0.0
 10
273.2543659156996
 20
48.00226924025671
 30
0.0
 10
273.1770126762485
 20
48.09901042889742
 30
0.0
 10
273.1424572909554
 20
48.15538963358453
 30
0.0
 10
273.0811987448112
 20
48.28379031256578
 30
0.0
 10
273.0546600346915
 20
48.35597451594825
 30
0.0
 10
273.0115533430052
 20
48.50903771322871
 30
0.0
 10
272.9945780671881
 20
48.59068491422528
 30
0.0
 10
272.9820297978971
 20
48.67751221129271
 30
0.0
  0
SPLINE
  5
244
330
1F
100
AcDbEntity
  8
0
  6
Continuous
 62
     7
370
    15
100
AcDbSpline
210
0.0
220
0.0
230
1.0
 70
     8
 71
     3
 72
     8
 73
     4
 74
     0
 42
0.000000001
 43
0.00000001
 40
0.0
 40
0.0
 40
0.0
 40
0.0
 40
1.0
 40
1.0
 40
1.0
 40
1.0
 10
274.031266688859
 20
48.14810153039701
 30
0.0
 10
273.9973491381611
 20
48.11498940277109
 30
0.0
 10
273.9638108799844
 20
48.08176745943861
 30
0.0
 10
273.9306221487424
 20
48.04844431836255
 30
0.0
  0
LWPOLYLINE
  5
245
330
1F
100
AcDbEntity
  8
0
  6
Continuous
 62
     7
370
    15
100
AcDbPolyline
 90
        9
 70
   128
 43
0.0
 10
277.6470793859
 20
50.2354657696
 10
277.2297832552
 20
49.7248105599
 10
276.7829742216
 20
49.2699944887
 10
276.3161349073
 20
48.8806701116
 10
275.8391730374
 20
48.5651000551
 10
275.3622111674
 20
48.3299816583
 10
274.8953718532
 20
48.1803048361
 10
274.4485628195
 20
48.1192461778
 10
274.0312666889
 20
48.1481015304
  0
SPLINE
  5
246
330
1F
100
AcDbEntity
  8
0
  6
Continuous
 62
     7
370
    15
100
AcDbSpline
210
0.0
220
0.0
230
1.0
 70
     8
 71
     3
 72
     8
 73
     4
 74
     0
 42
0.000000001
 43
0.00000001
 40
0.0
 40
0.0
 40
0.0
 40
0.0
 40
1.0
 40
1.0
 40
1.0
 40
1.0
 10
277.8197094452685
 20
50.29356662587499
 30
0.0
 10
277.7619780399557
 20
50.27440459769031
 30
0.0
 10
277.7044295487938
 20
50.25504324459136
 30
0.0
 10
277.6470793858576
 20
50.23546576957717
 30
0.0
  0
SPLINE
  5
247
330
1F
100
AcDbEntity
  8
0
  6
Continuous
 62
     7
370
    15
100
AcDbSpline
210
0.0
220
0.0
230
1.0
 70
     8
 71
     3
 72
    22
 73
    18
 74
     0
 42
0.000000001
 43
0.00000001
 40
0.0
 40
0.0
 40
0.0
 40
0.0
 40
0.1250000000000002
 40
0.1250000000000002
 40
0.2500000000000004
 40
0.2500000000000004
 40
0.3750000000000006
 40
0.3750000000000006
 40
0.5000000000000004
 40
0.5000000000000004
 40
0.6250000000000004
 40
0.6250000000000004
 40
0.7500000000000002
 40
0.7500000000000002
 40
0.8750000000000001
 40
0.8750000000000001
 40
1.0
 40
1.0
 40
1.0
 40
1.0
 10
278.7754605806331
 20
52.02198861298428
 30
0.0
 10
278.7971922345963
 20
51.94046059856595
 30
0.0
 10
278.8103635741831
 20
51.85654313489168
 30
0.0
 10
278.8198679914157
 20
51.68381251480658
 30
0.0
 10
278.8159640408581
 20
51.59390551007032
 30
0.0
 10
278.7908290058822
 20
51.41599150962529
 30
0.0
 10
278.7698484593472
 20
51.32764388566339
 30
0.0
 10
278.7106590117971
 20
51.15213611581941
 30
0.0
 10
278.6725521798796
 20
51.06594880741155
 30
0.0
 10
278.5825098713703
 20
50.90314594428931
 30
0.0
 10
278.5295772047569
 20
50.82472800619283
 30
0.0
 10
278.4116574777892
 20
50.68001287869764
 30
0.0
 10
278.3473892637725
 20
50.61426136691554
 30
0.0
 10
278.2083806321456
 20
50.49571782726444
 30
0.0
 10
278.1336155636555
 20
50.4432494314437
 30
0.0
 10
277.980607835124
 20
50.35614178813285
 30
0.0
 10
277.9015180607079
 20
50.3207202866305
 30
0.0
 10
277.8197094452685
 20
50.29356662587499
 30
0.0
  0
ARC
  5
248
330
1F
100
AcDbEntity
  8
0
  6
Continuous
 62
     7
370
    15
100
AcDbCircle
 10
274.9127125669
 20
54.0052729799
 30
0.0
 40
4.342146830487712
100
AcDbArc
 50
332.8222804837
 51
27.1777195163
  0
SPLINE
  5
249
330
1F
100
AcDbEntity
  8
0
  6
Continuous
 62
     7
370
    15
100
AcDbSpline
210
0.0
220
0.0
230
1.0
 70
     8
 71
     3
 72
    22
 73
    18
 74
     0
 42
0.000000001
 43
0.00000001
 40
0.0
 40
0.0
 40
0.0
 40
0.0
 40
0.1250000000000001
 40
0.1250000000000001
 40
0.2500000000000003
 40
0.2500000000000003
 40
0.3750000000000004
 40
0.3750000000000004
 40
0.5000000000000006
 40
0.5000000000000006
 40
0.6250000000000007
 40
0.6250000000000007
 40
0.7500000000000004
 40
0.7500000000000004
 40
0.8750000000000003
 40
0.8750000000000003
 40
1.0
 40
1.0
 40
1.0
 40
1.0
 10
277.8197094452685
 20
56.62175791798956
 30
0.0
 10
277.9015198994966
 20
56.64891218907008
 30
0.0
 10
277.9806786769662
 20
56.66944206774501
 30
0.0
 10
278.1339324638395
 20
56.69699162867465
 30
0.0
 10
278.2088371970565
 20
56.70393841335969
 30
0.0
 10
278.3475142095336
 20
56.70273542551536
 30
0.0
 10
278.4117011704217
 20
56.69483658460082
 30
0.0
 10
278.5295737548404
 20
56.66384017508372
 30
0.0
 10
278.5825183821398
 20
56.64070071220456
 30
0.0
 10
278.6725558581914
 20
56.58110408517921
 30
0.0
 10
278.7106537037107
 20
56.54399623710036
 30
0.0
 10
278.7698646549474
 20
56.45772836851498
 30
0.0
 10
278.7908735524632
 20
56.40916938476364
 30
0.0
 10
278.8160160094324
 20
56.30161808027171
 30
0.0
 10
278.819862745566
 20
56.24253367463438
 30
0.0
 10
278.8103462735525
 20
56.11984918312879
 30
0.0
 10
278.797191732738
 20
56.05559555504109
 30
0.0
 10
278.7754605806331
 20
55.98855734672294
 30
0.0
  0
SPLINE
  5
24A
330
1F
100
AcDbEntity
  8
0
  6
Continuous
 62
     7
370
    15
100
AcDbSpline
210
0.0
220
0.0
230
1.0
 70
     8
 71
     3
 72
     8
 73
     4
 74
     0
 42
0.000000001
 43
0.00000001
 40
0.0
 40
0.0
 40
0.0
 40
0.0
 40
1.0
 40
1.0
 40
1.0
 40
1.0
 10
277.6470793858576
 20
56.56365706169174
 30
0.0
 10
277.7044374881222
 20
56.58323724693369
 30
0.0
 10
277.7619858173816
 20
56.60259847126385
 30
0.0
 10
277.8197094452685
 20
56.62175791798956
 30
0.0
  0
LWPOLYLINE
  5
24B
330
1F
100
AcDbEntity
  8
0
  6
Continuous
 62
     7
370
    15
100
AcDbPolyline
 90
        9
 70
   128
 43
0.0
 10
274.0312666889
 20
54.4762928225
 10
274.4485628195
 20
54.9869480322
 10
274.8953718532
 20
55.4417641034
 10
275.3622111674
 20
55.8310884805
 10
275.8391730374
 20
56.146658537
 10
276.3161349073
 20
56.3817769338
 10
276.7829742216
 20
56.531453756
 10
277.2297832552
 20
56.5925124143
 10
277.6470793859
 20
56.5636570617
  0
SPLINE
  5
24C
330
1F
100
AcDbEntity
  8
0
  6
Continuous
 62
     7
370
    15
100
AcDbSpline
210
0.0
220
0.0
230
1.0
 70
     8
 71
     3
 72
     8
 73
     4
 74
     0
 42
0.000000001
 43
0.00000001
 40
0.0
 40
0.0
 40
0.0
 40
0.0
 40
1.0
 40
1.0
 40
1.0
 40
1.0
 10
273.9306221487424
 20
54.37663561047712
 30
0.0
 10
273.963815351687
 20
54.40996324136557
 30
0.0
 10
273.997353832922
 20
54.4431852781624
 30
0.0
 10
274.031266688859
 20
54.47629282251157
 30
0.0
  0
SPLINE
  5
24D
330
1F
100
AcDbEntity
  8
0
  6
Continuous
 62
     7
370
    15
100
AcDbSpline
210
0.0
220
0.0
230
1.0
 70
     8
 71
     3
 72
    22
 73
    18
 74
     0
 42
0.000000001
 43
0.00000001
 40
0.0
 40
0.0
 40
0.0
 40
0.0
 40
0.1250000000000002
 40
0.1250000000000002
 40
0.2500000000000004
 40
0.2500000000000004
 40
0.3750000000000007
 40
0.3750000000000007
 40
0.5000000000000006
 40
0.5000000000000006
 40
0.6250000000000004
 40
0.6250000000000004
 40
0.7500000000000003
 40
0.7500000000000003
 40
0.8750000000000002
 40
0.8750000000000002
 40
1.0
 40
1.0
 40
1.0
 40
1.0
 10
272.9820297978971
 20
52.64408094503137
 30
0.0
 10
272.9945783569773
 20
52.70581941369207
 30
0.0
 10
273.0115635983317
 20
52.77232785375044
 30
0.0
 10
273.0547520695237
 20
52.91463951683375
 30
0.0
 10
273.081368210635
 20
52.99143505304879
 30
0.0
 10
273.1425228152885
 20
53.14855539852427
 30
0.0
 10
273.1770347158555
 20
53.22909153807569
 30
0.0
 10
273.2543580993882
 20
53.39413080950514
 30
0.0
 10
273.2968551153891
 20
53.47778371858788
 30
0.0
 10
273.3862430854447
 20
53.64096432325899
 30
0.0
 10
273.4341237960584
 20
53.72229869347604
 30
0.0
 10
273.532610608906
 20
53.87823220350282
 30
0.0
 10
273.582707181072
 20
53.95216482998543
 30
0.0
 10
273.6843716002634
 20
54.092266724593
 30
0.0
 10
273.7358577020064
 20
54.1581737818669
 30
0.0
 10
273.8351447525142
 20
54.2762937124858
 30
0.0
 10
273.883585532187
 20
54.32940850204119
 30
0.0
 10
273.9306221487424
 20
54.37663561047711
 30
0.0
  0
LWPOLYLINE
  5
24E
330
1F
100
AcDbEntity
  8
0
  6
Continuous
 62
     7
370
    15
100
AcDbPolyline
 90
       26
 70
   128
 43
0.0
 10
276.1645978521
 20
56.1989100196
 10
276.4112597256
 20
56.1767593633
 10
276.7497809853
 20
56.0679246165
 10
277.0403175984
 20
55.8711966409
 10
277.2749444833
 20
55.5919416629
 10
277.4472616303
 20
55.2377770304
 10
277.5525686769
 20
54.8183634313
 10
277.5879931212
 20
54.3451413753
 10
277.5525686769
 20
53.8310191264
 10
277.4472616303
 20
53.2900205994
 10
277.2749444833
 20
52.7369028237
 10
277.0403175984
 20
52.1867534106
 10
276.7497809853
 20
51.6545790017
 10
276.4112597256
 20
51.1548959278
 10
276.0339877967
 20
50.7013342405
 10
275.6282561933
 20
50.3062659203
 10
275.205132216
 20
49.980467401
 10
274.7761575839
 20
49.7328256171
 10
274.3530336066
 20
49.5700955908
 10
273.9473020032
 20
49.496716173
 10
273.5700300743
 20
49.5146889629
 10
273.2315088146
 20
49.6235237098
 10
272.9409722015
 20
49.8202516854
 10
272.7063453166
 20
50.0995066633
 10
272.5340281695
 20
50.4536712958
 10
272.5183199038
 20
50.4991369412
  0
LINE
  5
24F
330
1F
100
AcDbEntity
  8
0
  6
Continuous
 62
     7
370
    15
100
AcDbLine
 10
273.0461012517
 20
48.5590673633
 30
0.0
 11
274.2890841399
 21
49.276626111
 31
0.0
  0
LINE
  5
250
330
1F
100
AcDbEntity
  8
0
  6
Continuous
 62
     7
370
    15
100
AcDbLine
 10
277.8873602913
 20
56.5012467309
 30
0.0
 11
277.8891215992
 21
56.6217629188
 31
0.0
  0
ARC
  5
251
330
1F
100
AcDbEntity
  8
0
  6
Continuous
 62
     7
370
    15
100
AcDbCircle
 10
274.0246122776
 20
54.517962364
 30
0.0
 40
4.34214683048799
100
AcDbArc
 50
332.8222804837
 51
27.1777195163
  0
ARC
  5
252
330
1F
100
AcDbEntity
  8
0
  6
Continuous
 62
     7
370
    15
100
AcDbCircle
 10
275.8378908518
 20
52.5351613582
 30
0.0
 40
2.049469496522319
100
AcDbArc
 50
302.3714306933
 51
359.986486965
  0
LINE
  5
253
330
1F
100
AcDbEntity
  8
0
  6
Continuous
 62
     7
370
    15
100
AcDbLine
 10
275.69220566
 20
50.0866309231
 30
0.0
 11
276.9351885482
 21
50.8041896708
 31
0.0
  0
ARC
  5
254
330
1F
100
AcDbEntity
  8
0
  6
Continuous
 62
     7
370
    15
100
AcDbCircle
 10
273.1643521746
 20
52.8452030867
 30
0.0
 40
3.741625799717161
100
AcDbArc
 50
287.4936320258
 51
312.5009914415
  0
LINE
  5
255
330
1F
100
AcDbEntity
  8
0
  6
Continuous
 62
     7
370
    15
100
AcDbLine
 10
277.4569454256
 20
56.4538950628
 30
0.0
 11
277.6470793859
 21
56.5636570617
 31
0.0
  0
ARC
  5
256
330
1F
100
AcDbEntity
  8
0
  6
Continuous
 62
     7
370
    15
100
AcDbCircle
 10
277.665449873
 20
52.3564278972
 30
0.0
 40
4.102768733146642
100
AcDbArc
 50
92.9130506693
 51
147.081572798
  0
LINE
  5
257
330
1F
100
AcDbEntity
  8
0
  6
Continuous
 62
     7
370
    15
100
AcDbLine
 10
274.0312666889
 20
54.4762928225
 30
0.0
 11
274.2214006492
 21
54.5860548214
 31
0.0
  0
ARC
  5
258
330
1F
100
AcDbEntity
  8
0
  6
Continuous
 62
     7
370
    15
100
AcDbCircle
 10
272.8566424553
 20
54.0782630928
 30
0.0
 40
25.80017984728127
100
AcDbArc
 50
134.0175354919
 51
166.0669804906
  0
LINE
  5
259
330
1F
100
AcDbEntity
  8
0
  6
Continuous
 62
     7
370
    15
100
AcDbLine
 10
276.8501253898
 20
56.4122074724
 30
0.0
 11
277.4569454256
 21
56.4538950628
 31
0.0
  0
LWPOLYLINE
  5
25A
330
1F
100
AcDbEntity
  8
0
  6
Continuous
 62
     7
370
    15
100
AcDbPolyline
 90
       24
 70
   128
 43
0.0
 10
276.0664077338
 20
56.152111309
 10
276.2501548951
 20
56.1154838837
 10
276.5652630397
 20
55.9771414405
 10
276.828969635
 20
55.7522368098
 10
277.0336883223
 20
55.4472400884
 10
277.1735297176
 20
55.0709254767
 10
277.2444708387
 20
54.6341188608
 10
277.2444708387
 20
54.1493863719
 10
277.1735297176
 20
53.630672881
 10
277.0336883223
 20
53.0929008308
 10
276.828969635
 20
52.5515409443
 10
276.5652630397
 20
52.0221671595
 10
276.2501548951
 20
51.5200085966
 10
275.8927102886
 20
51.059511443
 10
275.503212251
 20
50.6539233635
 10
275.0928659314
 20
50.3149123886
 10
274.6734762465
 20
50.0522312469
 10
274.2571082739
 20
49.8734367965
 10
273.8557401621
 20
49.7836726282
 10
273.4809185409
 20
49.7855210938
 10
273.1434263458
 20
49.8789290163
 10
272.852972613
 20
50.0612092197
 10
272.6179131674
 20
50.3271178346
 10
272.5127667356
 20
50.5104142974
  0
LINE
  5
25B
330
1F
100
AcDbEntity
  8
0
  6
Continuous
 62
     7
370
    15
100
AcDbLine
 10
255.991507771
 20
49.3626718384
 30
0.0
 11
258.1615035077
 21
48.1099599643
 31
0.0
  0
SPLINE
  5
25C
330
1F
100
AcDbEntity
  8
0
  6
Continuous
 62
     7
370
    15
100
AcDbSpline
210
0.0
220
0.0
230
1.0
 70
     8
 71
     3
 72
    14
 73
    10
 74
     0
 42
0.000000001
 43
0.00000001
 40
0.0
 40
0.0
 40
0.0
 40
0.0
 40
0.1249999999999983
 40
0.1249999999999983
 40
0.2499999999999966
 40
0.2499999999999966
 40
0.4999999999999968
 40
0.4999999999999968
 40
1.0
 40
1.0
 40
1.0
 40
1.0
 10
255.7431983160367
 20
50.07341914448527
 30
0.0
 10
255.7676276646804
 20
50.05931638169896
 30
0.0
 10
255.7906062187465
 20
50.03203425183929
 30
0.0
 10
255.8274893322383
 20
49.97428084833278
 30
0.0
 10
255.8426144785552
 20
49.94313326666218
 30
0.0
 10
255.8823318390144
 20
49.85029616510619
 30
0.0
 10
255.9017939569034
 20
49.78834569528944
 30
0.0
 10
255.9526620780975
 20
49.60243098979193
 30
0.0
 10
255.9749463055126
 20
49.48089834481865
 30
0.0
 10
255.9915077709712
 20
49.36267183837111
 30
0.0
  0
LINE
  5
25D
330
1F
100
AcDbEntity
  8
0
  6
Continuous
 62
     7
370
    15
100
AcDbLine
 10
254.9583097889
 20
50.5265256465
 30
0.0
 11
255.743198316
 21
50.0734191445
 31
0.0
  0
SPLINE
  5
25E
330
1F
100
AcDbEntity
  8
0
  6
Continuous
 62
     7
370
    15
100
AcDbSpline
210
0.0
220
0.0
230
1.0
 70
     8
 71
     3
 72
    14
 73
    10
 74
     0
 42
0.000000001
 43
0.00000001
 40
0.0
 40
0.0
 40
0.0
 40
0.0
 40
0.5
 40
0.5
 40
0.75
 40
0.75
 40
0.875
 40
0.875
 40
1.0
 40
1.0
 40
1.0
 40
1.0
 10
254.710000333985
 20
50.10247033468917
 30
0.0
 10
254.7266244154388
 20
50.20195007891928
 30
0.0
 10
254.7490418170431
 20
50.29778521231528
 30
0.0
 10
254.7994728748918
 20
50.42400116188892
 30
0.0
 10
254.819007568823
 20
50.46383471058317
 30
0.0
 10
254.8589507261584
 20
50.51109504205503
 30
0.0
 10
254.8739676933241
 20
50.52469765566028
 30
0.0
 10
254.9110290608458
 20
50.53991805723599
 30
0.0
 10
254.9340127231942
 20
50.54055204402987
 30
0.0
 10
254.9583097889196
 20
50.52652564654683
 30
0.0
  0
LINE
  5
25F
330
1F
100
AcDbEntity
  8
0
  6
Continuous
 62
     7
370
    15
100
AcDbLine
 10
253.56530943
 20
50.7632863277
 30
0.0
 11
254.710000334
 21
50.1024703347
 31
0.0
  0
ARC
  5
260
330
1F
100
AcDbEntity
  8
0
  6
Continuous
 62
     7
370
    15
100
AcDbCircle
 10
256.8339207822
 20
55.9164062963
 30
0.0
 40
6.102332798378944
100
AcDbArc
 50
182.3868561234
 51
237.6131440222
  0
LINE
  5
261
330
1F
100
AcDbEntity
  8
0
  6
Continuous
 62
     7
370
    15
100
AcDbLine
 10
250.7368823052
 20
56.4788066108
 30
0.0
 11
250.7368823052
 21
55.6622657989
 31
0.0
  0
ARC
  5
262
330
1F
100
AcDbEntity
  8
0
  6
Continuous
 62
     7
370
    15
100
AcDbCircle
 10
253.355054397
 20
56.5562820446
 30
0.0
 40
2.619318145028547
100
AcDbArc
 50
154.1252241446
 51
181.6949689412
  0
LINE
  5
263
330
1F
100
AcDbEntity
  8
0
  6
Continuous
 62
     7
370
    15
100
AcDbLine
 10
277.8873602913
 20
56.5012467309
 30
0.0
 11
278.7754605806
 21
55.9885573467
 31
0.0
  0
SPLINE
  5
264
330
1F
100
AcDbEntity
  8
0
  6
Continuous
 62
     7
370
    15
100
AcDbSpline
210
0.0
220
0.0
230
1.0
 70
     8
 71
     3
 72
    12
 73
     8
 74
     0
 42
0.000000001
 43
0.00000001
 40
0.0
 40
0.0
 40
0.0
 40
0.0
 40
0.250000000000002
 40
0.250000000000002
 40
0.500000000000004
 40
0.500000000000004
 40
1.0
 40
1.0
 40
1.0
 40
1.0
 10
278.0549612464064
 20
60.24740150722361
 30
0.0
 10
278.0830662480707
 20
60.23117683511469
 30
0.0
 10
278.1057222149981
 20
60.21115723230646
 30
0.0
 10
278.1348443568787
 20
60.16819560494345
 30
0.0
 10
278.1416997550842
 20
60.14498772962317
 30
0.0
 10
278.1385417600839
 20
60.07610086501346
 30
0.0
 10
278.1039096421954
 20
60.03073638109206
 30
0.0
 10
278.0476231929634
 20
59.99824290559354
 30
0.0
  0
ARC
  5
265
330
1F
100
AcDbEntity
  8
0
  6
Continuous
 62
     7
370
    15
100
AcDbCircle
 10
262.1328887579
 20
48.3731778825
 30
0.0
 40
5.444445033957821
100
AcDbArc
 50
216.5135746511
 51
263.7219426546
  0
SPLINE
  5
266
330
1F
100
AcDbEntity
  8
0
  6
Continuous
 62
     7
370
    15
100
AcDbSpline
210
0.0
220
0.0
230
1.0
 70
     8
 71
     3
 72
    12
 73
     8
 74
     0
 42
0.000000001
 43
0.00000001
 40
0.0
 40
0.0
 40
0.0
 40
0.0
 40
0.2499999999999999
 40
0.2499999999999999
 40
0.4999999999999998
 40
0.4999999999999998
 40
1.0
 40
1.0
 40
1.0
 40
1.0
 10
256.6104938819328
 20
47.45950359955074
 30
0.0
 10
256.6387360820052
 20
47.44319972448672
 30
0.0
 10
256.6732822139106
 20
47.43024393107672
 30
0.0
 10
256.7480062736083
 20
47.41353219288418
 30
0.0
 10
256.7882966649099
 20
47.40964528409673
 30
0.0
 10
256.9094096823463
 20
47.41190868198603
 30
0.0
 10
256.9875272447641
 20
47.43223789341276
 30
0.0
 10
257.0441767174997
 20
47.46494093791912
 30
0.0
  0
LINE
  5
267
330
1F
100
AcDbEntity
  8
0
  6
Continuous
 62
     7
370
    15
100
AcDbLine
 10
276.829122531
 20
60.9550631346
 30
0.0
 11
278.0549612464
 21
60.2474015072
 31
0.0
  0
ARC
  5
268
330
1F
100
AcDbEntity
  8
0
  6
Continuous
 62
     7
370
    15
100
AcDbCircle
 10
261.4104025082
 20
49.895570882
 30
0.0
 40
6.409553223800329
100
AcDbArc
 50
194.716105919
 51
237.9533567894
  0
LINE
  5
269
330
1F
100
AcDbEntity
  8
0
  6
Continuous
 62
     7
370
    15
100
AcDbLine
 10
255.2111058143
 20
48.2673531354
 30
0.0
 11
256.6104938819
 21
47.4595035996
 31
0.0
  0
LINE
  5
26A
330
1F
100
AcDbEntity
  8
0
  6
Continuous
 62
     7
370
    15
100
AcDbLine
 10
274.2890841399
 20
49.276626111
 30
0.0
 11
274.5252398416
 21
49.1402963263
 31
0.0
  0
SPLINE
  5
26B
330
1F
100
AcDbEntity
  8
0
  6
Continuous
 62
     7
370
    15
100
AcDbSpline
210
0.0
220
0.0
230
1.0
 70
     8
 71
     3
 72
    10
 73
     6
 74
     0
 42
0.000000001
 43
0.00000001
 40
0.0
 40
0.0
 40
0.0
 40
0.0
 40
0.5
 40
0.5
 40
1.0
 40
1.0
 40
1.0
 40
1.0
 10
274.5252398416424
 20
49.14029632629316
 30
0.0
 10
274.4285597115337
 20
49.00040779603422
 30
0.0
 10
274.36188100533
 20
48.85478236285018
 30
0.0
 10
274.2659435103309
 20
48.55637602165151
 30
0.0
 10
274.2378138144505
 20
48.40710559931446
 30
0.0
 10
274.2214006491652
 20
48.25786352933194
 30
0.0
  0
LINE
  5
26C
330
1F
100
AcDbEntity
  8
0
  6
Continuous
 62
     7
370
    15
100
AcDbLine
 10
274.2214006492
 20
48.2578635293
 30
0.0
 11
274.0312666889
 21
48.1481015304
 31
0.0
  0
SPLINE
  5
26D
330
1F
100
AcDbEntity
  8
0
  6
Continuous
 62
     7
370
    15
100
AcDbSpline
210
0.0
220
0.0
230
1.0
 70
     8
 71
     3
 72
     8
 73
     4
 74
     0
 42
0.000000001
 43
0.00000001
 40
0.0
 40
0.0
 40
0.0
 40
0.0
 40
1.0
 40
1.0
 40
1.0
 40
1.0
 10
255.6378969786081
 20
49.11866542260672
 30
0.0
 10
255.4947322819176
 20
48.83504337559971
 30
0.0
 10
255.352543585065
 20
48.55126022961569
 30
0.0
 10
255.2111058143098
 20
48.26735313542861
 30
0.0
  0
LINE
  5
26E
330
1F
100
AcDbEntity
  8
0
  6
Continuous
 62
     7
370
    15
100
AcDbLine
 10
255.883065583
 20
49.2601982453
 30
0.0
 11
255.6378969786
 21
49.1186654226
 31
0.0
  0
SPLINE
  5
26F
330
1F
100
AcDbEntity
  8
0
  6
Continuous
 62
     7
370
    15
100
AcDbSpline
210
0.0
220
0.0
230
1.0
 70
     8
 71
     3
 72
    10
 73
     6
 74
     0
 42
0.000000001
 43
0.00000001
 40
0.0
 40
0.0
 40
0.0
 40
0.0
 40
0.5
 40
0.5
 40
1.0
 40
1.0
 40
1.0
 40
1.0
 10
255.9915077709712
 20
49.36267183837111
 30
0.0
 10
255.9808549040012
 20
49.34339619116498
 30
0.0
 10
255.9660501408491
 20
49.32478480973992
 30
0.0
 10
255.9292643695181
 20
49.29015453550839
 30
0.0
 10
255.9076951489241
 20
49.2744165910733
 30
0.0
 10
255.8830655829742
 20
49.26019824529644
 30
0.0
  0
ARC
  5
270
330
1F
100
AcDbEntity
  8
0
  6
Continuous
 62
     7
370
    15
100
AcDbCircle
 10
274.0128962017
 20
52.3553306949
 30
0.0
 40
4.102768733146661
100
AcDbArc
 50
272.9130506693
 51
327.081572798
  0
LINE
  5
271
330
1F
100
AcDbEntity
  8
0
  6
Continuous
 62
     7
370
    15
100
AcDbLine
 10
277.6470793859
 20
50.2354657696
 30
0.0
 11
277.4569454256
 21
50.1257037706
 31
0.0
  0
SPLINE
  5
272
330
1F
100
AcDbEntity
  8
0
  6
Continuous
 62
     7
370
    15
100
AcDbSpline
210
0.0
220
0.0
230
1.0
 70
     8
 71
     3
 72
    14
 73
    10
 74
     0
 42
0.000000001
 43
0.00000001
 40
0.0
 40
0.0
 40
0.0
 40
0.0
 40
0.5000000000000002
 40
0.5000000000000002
 40
0.7500000000000002
 40
0.7500000000000002
 40
0.8750000000000001
 40
0.8750000000000001
 40
1.0
 40
1.0
 40
1.0
 40
1.0
 10
240.0701985142925
 20
60.75773118550791
 30
0.0
 10
240.3853644581323
 20
60.53064319461205
 30
0.0
 10
240.7016401133982
 20
60.30079681956392
 30
0.0
 10
241.1804646019693
 20
59.94548821757481
 30
0.0
 10
241.3407846123933
 20
59.82534990337926
 30
0.0
 10
241.583837148347
 20
59.63908106913545
 30
0.0
 10
241.6652805863636
 20
59.57598782790845
 30
0.0
 10
241.829942035397
 20
59.44564258549631
 30
0.0
 10
241.9128480534633
 20
59.37911814351905
 30
0.0
 10
241.9988668815479
 20
59.3053246721955
 30
0.0
  0
SPLINE
  5
273
330
1F
100
AcDbEntity
  8
0
  6
Continuous
 62
     7
370
    15
100
AcDbSpline
210
0.0
220
0.0
230
1.0
 70
     8
 71
     3
 72
     8
 73
     4
 74
     0
 42
0.000000001
 43
0.00000001
 40
0.0
 40
0.0
 40
0.0
 40
0.0
 40
1.0
 40
1.0
 40
1.0
 40
1.0
 10
241.9988668815479
 20
59.3053246721955
 30
0.0
 10
242.3005193547855
 20
59.04654431411367
 30
0.0
 10
242.6057988983089
 20
58.798969298709
 30
0.0
 10
242.9104584714356
 20
58.55799644214247
 30
0.0
  0
SPLINE
  5
274
330
1F
100
AcDbEntity
  8
0
  6
Continuous
 62
     7
370
    15
100
AcDbSpline
210
0.0
220
0.0
230
1.0
 70
     8
 71
     3
 72
    14
 73
    10
 74
     0
 42
0.000000001
 43
0.00000001
 40
0.0
 40
0.0
 40
0.0
 40
0.0
 40
0.1250000000000022
 40
0.1250000000000022
 40
0.2500000000000044
 40
0.2500000000000044
 40
0.500000000000003
 40
0.500000000000003
 40
1.0
 40
1.0
 40
1.0
 40
1.0
 10
242.9104584714356
 20
58.55799644214242
 30
0.0
 10
242.9296538473612
 20
58.54281371040622
 30
0.0
 10
242.9472659207615
 20
58.53144589190943
 30
0.0
 10
242.9731108506808
 20
58.520177422697
 30
0.0
 10
242.9812492149285
 20
58.51979395245993
 30
0.0
 10
242.9981993058965
 20
58.52556974515433
 30
0.0
 10
243.0003685784063
 20
58.53823517077236
 30
0.0
 10
242.9991930305916
 20
58.58267199781613
 30
0.0
 10
242.9871195099875
 20
58.62315526858957
 30
0.0
 10
242.9723412819475
 20
58.66715893847207
 30
0.0
  0
SPLINE
  5
275
330
1F
100
AcDbEntity
  8
0
  6
Continuous
 62
     7
370
    15
100
AcDbSpline
210
0.0
220
0.0
230
1.0
 70
     8
 71
     3
 72
    14
 73
    10
 74
     0
 42
0.000000001
 43
0.00000001
 40
0.0
 40
0.0
 40
0.0
 40
0.0
 40
0.25
 40
0.25
 40
0.5
 40
0.5
 40
0.75
 40
0.75
 40
1.0
 40
1.0
 40
1.0
 40
1.0
 10
242.9723412819467
 20
58.66715893847277
 30
0.0
 10
242.9542850350002
 20
58.72092324145954
 30
0.0
 10
242.951362236899
 20
58.76547385055659
 30
0.0
 10
242.9459485083557
 20
58.85773520040131
 30
0.0
 10
242.9443812303145
 20
58.90502960332156
 30
0.0
 10
242.9342428305074
 20
59.00979065814934
 30
0.0
 10
242.9259278327632
 20
59.06705186518435
 30
0.0
 10
242.8971276581044
 20
59.19667322255876
 30
0.0
 10
242.8764742614338
 20
59.26946742217181
 30
0.0
 10
242.8477847442727
 20
59.34915412113158
 30
0.0
  0
ARC
  5
276
330
1F
100
AcDbEntity
  8
0
  6
Continuous
 62
     7
370
    15
100
AcDbCircle
 10
253.2027520216
 20
62.4357156191
 30
0.0
 40
10.80519362138121
100
AcDbArc
 50
163.4019732888
 51
196.5980267112
  0
SPLINE
  5
277
330
1F
100
AcDbEntity
  8
0
  6
Continuous
 62
     7
370
    15
100
AcDbSpline
210
0.0
220
0.0
230
1.0
 70
     8
 71
     3
 72
    14
 73
    10
 74
     0
 42
0.000000001
 43
0.00000001
 40
0.0
 40
0.0
 40
0.0
 40
0.0
 40
0.25
 40
0.25
 40
0.5
 40
0.5
 40
0.75
 40
0.75
 40
1.0
 40
1.0
 40
1.0
 40
1.0
 10
242.9723412819467
 20
66.98348213339577
 30
0.0
 10
242.9542850350002
 20
66.86264005445119
 30
0.0
 10
242.951362236899
 20
66.7375457878851
 30
0.0
 10
242.9459485083557
 20
66.48959447723374
 30
0.0
 10
242.9443812303145
 20
66.36568585291998
 30
0.0
 10
242.9342428305074
 20
66.11953011367977
 30
0.0
 10
242.9259278327632
 20
65.99724217181836
 30
0.0
 10
242.8971276581044
 20
65.75524499460958
 30
0.0
 10
242.8764742614338
 20
65.63508802742999
 30
0.0
 10
242.8477847442727
 20
65.52227711702471
 30
0.0
  0
SPLINE
  5
278
330
1F
100
AcDbEntity
  8
0
  6
Continuous
 62
     7
370
    15
100
AcDbSpline
210
0.0
220
0.0
230
1.0
 70
     8
 71
     3
 72
    14
 73
    10
 74
     0
 42
0.000000001
 43
0.00000001
 40
0.0
 40
0.0
 40
0.0
 40
0.0
 40
0.125
 40
0.125
 40
0.25
 40
0.25
 40
0.5
 40
0.5
 40
1.0
 40
1.0
 40
1.0
 40
1.0
 10
242.9104584714357
 20
67.52876769768979
 30
0.0
 10
242.9296538473612
 20
67.52648088971596
 30
0.0
 10
242.9472659207616
 20
67.51498265044313
 30
0.0
 10
242.9731108506808
 20
67.47829114791662
 30
0.0
 10
242.9812492149285
 20
67.45520973281455
 30
0.0
 10
242.9981993058965
 20
67.38387721373745
 30
0.0
 10
243.0003685784063
 20
67.33263310812937
 30
0.0
 10
242.9991930305916
 20
67.18259762836779
 30
0.0
 10
242.9871195099875
 20
67.0823859534847
 30
0.0
 10
242.9723412819475
 20
66.98348213339608
 30
0.0
  0
SPLINE
  5
279
330
1F
100
AcDbEntity
  8
0
  6
Continuous
 62
     7
370
    15
100
AcDbSpline
210
0.0
220
0.0
230
1.0
 70
     8
 71
     3
 72
     8
 73
     4
 74
     0
 42
0.000000001
 43
0.00000001
 40
0.0
 40
0.0
 40
0.0
 40
0.0
 40
1.0
 40
1.0
 40
1.0
 40
1.0
 10
241.9988668815479
 20
67.58098050882587
 30
0.0
 10
242.3005193547855
 20
67.58832675596898
 30
0.0
 10
242.605798898309
 20
67.56506278999903
 30
0.0
 10
242.9104584714357
 20
67.52876769768979
 30
0.0
  0
SPLINE
  5
27A
330
1F
100
AcDbEntity
  8
0
  6
Continuous
 62
     7
370
    15
100
AcDbSpline
210
0.0
220
0.0
230
1.0
 70
     8
 71
     3
 72
    14
 73
    10
 74
     0
 42
0.000000001
 43
0.00000001
 40
0.0
 40
0.0
 40
0.0
 40
0.0
 40
0.5000000000000002
 40
0.5000000000000002
 40
0.7500000000000002
 40
0.7500000000000002
 40
0.8750000000000001
 40
0.8750000000000001
 40
1.0
 40
1.0
 40
1.0
 40
1.0
 10
240.0701985142925
 20
68.21361985381084
 30
0.0
 10
240.3853644581323
 20
68.07623536008474
 30
0.0
 10
240.7016401133982
 20
67.94466185245358
 30
0.0
 10
241.1804646019693
 20
67.76976638593281
 30
0.0
 10
241.3407846123933
 20
67.7150952356683
 30
0.0
 10
241.583837148347
 20
67.64606341994825
 30
0.0
 10
241.6652805863636
 20
67.62520113543945
 30
0.0
 10
241.829942035397
 20
67.59239342200982
 30
0.0
 10
241.9128480534633
 20
67.57888566251717
 30
0.0
 10
241.9988668815479
 20
67.58098050882587
 30
0.0
  0
SPLINE
  5
27B
330
1F
100
AcDbEntity
  8
0
  6
Continuous
 62
     7
370
    15
100
AcDbSpline
210
0.0
220
0.0
230
1.0
 70
     8
 71
     3
 72
     8
 73
     4
 74
     0
 42
0.000000001
 43
0.00000001
 40
0.0000005163856998
 40
0.0000005163856998
 40
0.0000005163856998
 40
0.0000005163856998
 40
0.000026289209185
 40
0.000026289209185
 40
0.000026289209185
 40
0.000026289209185
 10
240.0701769272732
 20
68.22649896500204
 30
0.0
 10
240.0701746261139
 20
68.2222061299755
 30
0.0
 10
240.0701818724382
 20
68.21791306229997
 30
0.0
 10
240.0701985142924
 20
68.21361985381085
 30
0.0
  0
LINE
  5
27C
330
1F
100
AcDbEntity
  8
0
  6
Continuous
 62
     7
370
    15
100
AcDbLine
 10
252.8353098186
 20
78.7692940374
 30
0.0
 11
252.9343523234
 21
78.721715556
 31
0.0
  0
LINE
  5
27D
330
1F
100
AcDbEntity
  8
0
  6
Continuous
 62
     7
370
    15
100
AcDbLine
 10
241.5526545103
 20
59.0059004176
 30
0.0
 11
241.4726617032
 21
59.0603397588
 31
0.0
  0
SPLINE
  5
27E
330
1F
100
AcDbEntity
  8
0
  6
Continuous
 62
     7
370
    15
100
AcDbSpline
210
0.0
220
0.0
230
1.0
 70
     8
 71
     3
 72
     8
 73
     4
 74
     0
 42
0.000000001
 43
0.00000001
 40
0.000000516385691
 40
0.000000516385691
 40
0.000000516385691
 40
0.000000516385691
 40
0.0000262892091854
 40
0.0000262892091854
 40
0.0000262892091854
 40
0.0000262892091854
 10
240.0701769272732
 20
60.75302791314059
 30
0.0
 10
240.0701746261139
 20
60.75460129883886
 30
0.0
 10
240.0701818724382
 20
60.75616902877159
 30
0.0
 10
240.0701985142924
 20
60.75773118550791
 30
0.0
  0
SPLINE
  5
27F
330
1F
100
AcDbEntity
  8
0
  6
Continuous
 62
     7
370
    15
100
AcDbSpline
210
0.0
220
0.0
230
1.0
 70
     8
 71
     3
 72
    17
 73
    13
 74
     0
 42
0.000000001
 43
0.00000001
 40
0.0
 40
0.0
 40
0.0
 40
0.0
 40
0.1261401830437173
 40
0.2529692308662239
 40
0.3797751222196195
 40
0.5058595017132854
 40
0.6308682557774037
 40
0.6937488828896414
 40
0.7558160075481117
 40
0.8177941526220389
 40
0.8810731858866072
 40
1.0
 40
1.0
 40
1.0
 40
1.0
 10
245.759045225727
 20
58.88005679788601
 30
0.0
 10
245.6259985591296
 20
59.12499162370899
 30
0.0
 10
245.3591786441242
 20
59.61619889014619
 30
0.0
 10
245.2344819344515
 20
60.3682191411968
 30
0.0
 10
245.3703156371021
 20
60.99290948352945
 30
0.0
 10
245.7373625172862
 20
61.40976264339498
 30
0.0
 10
246.1800917946609
 20
61.50378262182988
 30
0.0
 10
246.556134702714
 20
61.42176400743494
 30
0.0
 10
246.8389088551095
 20
61.27971561534036
 30
0.0
 10
247.1092135771837
 20
61.06217300606213
 30
0.0
 10
247.4372185972146
 20
60.69842947105844
 30
0.0
 10
247.6214677477586
 20
60.34097272132875
 30
0.0
 10
247.7417282377079
 20
60.10765862608736
 30
0.0
  0
SPLINE
  5
280
330
1F
100
AcDbEntity
  8
0
  6
Continuous
 62
     7
370
    15
100
AcDbSpline
210
0.0
220
0.0
230
1.0
 70
     8
 71
     3
 72
    12
 73
     8
 74
     0
 42
0.000000001
 43
0.00000001
 40
0.0
 40
0.0
 40
0.0
 40
0.0
 40
0.1558560238078
 40
0.3235621828492652
 40
0.4913933894979852
 40
0.6616473361400965
 40
1.0
 40
1.0
 40
1.0
 40
1.0
 10
247.3254567645512
 20
57.55060080974851
 30
0.0
 10
247.2505166432453
 20
57.57005485067662
 30
0.0
 10
247.0949385100404
 20
57.61044207341047
 30
0.0
 10
246.8294699141321
 20
57.75664882391185
 30
0.0
 10
246.5480380420312
 20
57.96399590816932
 30
0.0
 10
246.1678562891473
 20
58.31320325910832
 30
0.0
 10
245.9223615934802
 20
58.65360387308824
 30
0.0
 10
245.759045225727
 20
58.88005679788601
 30
0.0
  0
ARC
  5
281
330
1F
100
AcDbEntity
  8
0
  6
Continuous
 62
     7
370
    15
100
AcDbCircle
 10
273.4005078763
 20
52.708873302
 30
0.0
 40
3.741625799717347
100
AcDbArc
 50
287.4936320258
 51
312.5009914415
  0
SPLINE
  5
282
330
1F
100
AcDbEntity
  8
0
  6
Continuous
 62
     7
370
    15
100
AcDbSpline
210
0.0
220
0.0
230
1.0
 70
     8
 71
     3
 72
    10
 73
     6
 74
     0
 42
0.000000001
 43
0.00000001
 40
0.0
 40
0.0
 40
0.0
 40
0.0
 40
0.5
 40
0.5
 40
1.0
 40
1.0
 40
1.0
 40
1.0
 10
277.4569454255515
 20
50.12570377064225
 30
0.0
 10
277.1977783135509
 20
50.11620503950851
 30
0.0
 10
276.9373729462409
 20
50.09974742854289
 30
0.0
 10
276.4238810402738
 20
50.04468381480059
 30
0.0
 10
276.1720379111117
 20
50.00642576720652
 30
0.0
 10
275.9283613616826
 20
49.95030113837517
 30
0.0
  0
LINE
  5
283
330
1F
100
AcDbEntity
  8
0
  6
Continuous
 62
     7
370
    15
100
AcDbLine
 10
277.8873602913
 20
52.5346779971
 30
0.0
 11
278.7754605806
 21
52.021988613
 31
0.0
  0
LINE
  5
284
330
1F
100
AcDbEntity
  8
0
  6
Continuous
 62
     7
370
    15
100
AcDbLine
 10
275.9283613617
 20
49.9503011384
 30
0.0
 11
275.69220566
 21
50.0866309231
 31
0.0
  0
ARC
  5
285
330
1F
100
AcDbEntity
  8
0
  6
Continuous
 62
     7
370
    15
100
AcDbCircle
 10
260.5826748217
 20
51.9573659896
 30
0.0
 40
6.623523393471149
100
AcDbArc
 50
198.1114510494
 51
217.3575801744
  0
SPLINE
  5
286
330
1F
100
AcDbEntity
  8
0
  6
Continuous
 62
     7
370
    15
100
AcDbSpline
210
0.0
220
0.0
230
1.0
 70
     8
 71
     3
 72
     8
 73
     4
 74
     0
 42
0.000000001
 43
0.00000001
 40
0.0
 40
0.0
 40
0.0
 40
0.0
 40
1.0
 40
1.0
 40
1.0
 40
1.0
 10
252.8126471078347
 20
49.65195387462133
 30
0.0
 10
253.3044419065866
 20
49.73360416170308
 30
0.0
 10
253.7960219974893
 20
49.81568794919351
 30
0.0
 10
254.2873230265418
 20
49.8983351693974
 30
0.0
  0
LINE
  5
287
330
1F
100
AcDbEntity
  8
0
  6
Continuous
 62
     7
370
    15
100
AcDbLine
 10
254.2873230265
 20
49.8983351694
 30
0.0
 11
254.5324916309
 21
50.0398679921
 31
0.0
  0
SPLINE
  5
288
330
1F
100
AcDbEntity
  8
0
  6
Continuous
 62
     7
370
    15
100
AcDbSpline
210
0.0
220
0.0
230
1.0
 70
     8
 71
     3
 72
    10
 73
     6
 74
     0
 42
0.000000001
 43
0.00000001
 40
0.0
 40
0.0
 40
0.0
 40
0.0
 40
0.5
 40
0.5
 40
1.0
 40
1.0
 40
1.0
 40
1.0
 10
254.532491630908
 20
50.03986799208718
 30
0.0
 10
254.55732393426
 20
50.05420337567502
 30
0.0
 10
254.5849989317533
 20
50.06679881581111
 30
0.0
 10
254.6451239412079
 20
50.08799671395138
 30
0.0
 10
254.6768183414026
 20
50.09635887961804
 30
0.0
 10
254.7100003339843
 20
50.10247033468929
 30
0.0
  0
SPLINE
  5
289
330
1F
100
AcDbEntity
  8
0
  6
Continuous
 62
     7
370
    15
100
AcDbSpline
210
0.0
220
0.0
230
1.0
 70
     8
 71
     3
 72
    15
 73
    11
 74
     0
 42
0.000000001
 43
0.00000001
 40
0.0
 40
0.0
 40
0.0
 40
0.0
 40
0.0961963096673532
 40
0.22545897026867
 40
0.3584994253652218
 40
0.4873852065971692
 40
0.6199122762050961
 40
0.7505641061680265
 40
0.8849270043451268
 40
1.0
 40
1.0
 40
1.0
 40
1.0
 10
246.7681896022825
 20
61.23209735233001
 30
0.0
 10
246.7579203571359
 20
61.17456217085726
 30
0.0
 10
246.7338519345093
 20
61.03971476544304
 30
0.0
 10
246.7470784683792
 20
60.80071080364635
 30
0.0
 10
246.7988863952795
 20
60.53117157684149
 30
0.0
 10
246.8938009817252
 20
60.25410720189919
 30
0.0
 10
247.0245729925711
 20
59.98109852463256
 30
0.0
 10
247.1900200982914
 20
59.71399984169484
 30
0.0
 10
247.3722305664901
 20
59.47084827739336
 30
0.0
 10
247.5061678777861
 20
59.32923330123622
 30
0.0
 10
247.5679575721401
 20
59.26390164713607
 30
0.0
  0
LINE
  5
28A
330
1F
100
AcDbEntity
  8
0
  6
Continuous
 62
     7
370
    15
100
AcDbLine
 10
274.4362372616
 20
71.1781851063
 30
0.0
 11
274.531245577
 21
71.1992336276
 31
0.0
  0
LINE
  5
28B
330
1F
100
AcDbEntity
  8
0
  6
Continuous
 62
     7
370
    15
100
AcDbLine
 10
274.531245577
 20
71.1992336276
 30
0.0
 11
275.9306336446
 21
70.3913840918
 31
0.0
  0
SPLINE
  5
28C
330
1F
100
AcDbEntity
  8
0
  6
Continuous
 62
     7
370
    15
100
AcDbSpline
210
0.0
220
0.0
230
1.0
 70
     8
 71
     3
 72
    12
 73
     8
 74
     0
 42
0.000000001
 43
0.00000001
 40
0.0
 40
0.0
 40
0.0
 40
0.0
 40
0.250000000000002
 40
0.250000000000002
 40
0.500000000000004
 40
0.500000000000004
 40
1.0
 40
1.0
 40
1.0
 40
1.0
 10
275.9306336445998
 20
70.39138409176559
 30
0.0
 10
275.9628776154725
 20
70.37277004359198
 30
0.0
 10
275.984930618006
 20
70.34851972079456
 30
0.0
 10
276.005779562171
 20
70.29793186290703
 30
0.0
 10
276.0053983929437
 20
70.27109329447296
 30
0.0
 10
275.9796454600464
 20
70.19385917820415
 30
0.0
 10
275.9316940329377
 20
70.14707380737632
 30
0.0
 10
275.8677939838025
 20
70.11018509420884
 30
0.0
  0
SPLINE
  5
28D
330
1F
100
AcDbEntity
  8
0
  6
Continuous
 62
     7
370
    15
100
AcDbSpline
210
0.0
220
0.0
230
1.0
 70
     8
 71
     3
 72
    11
 73
     7
 74
     0
 42
0.000000001
 43
0.00000001
 40
0.0
 40
0.0
 40
0.0
 40
0.0
 40
0.2051164297761327
 40
0.3943103003912212
 40
0.7240976918328434
 40
1.0
 40
1.0
 40
1.0
 40
1.0
 10
246.0503145776959
 20
59.06297987980485
 30
0.0
 10
246.1299350812624
 20
58.94839159989844
 30
0.0
 10
246.2829953929734
 20
58.72811017670614
 30
0.0
 10
246.6067313251156
 20
58.37733624946437
 30
0.0
 10
246.9891384785317
 20
58.06138020256556
 30
0.0
 10
247.2411197943927
 20
57.95439364418302
 30
0.0
 10
247.3559017144187
 20
57.90565938566803
 30
0.0
  0
SPLINE
  5
28E
330
1F
100
AcDbEntity
  8
0
  6
Continuous
 62
     7
370
    15
100
AcDbSpline
210
0.0
220
0.0
230
1.0
 70
     8
 71
     3
 72
    16
 73
    12
 74
     0
 42
0.000000001
 43
0.00000001
 40
0.0
 40
0.0
 40
0.0
 40
0.0
 40
0.1460145433272634
 40
0.2335492811860072
 40
0.328284659647779
 40
0.4359414636891987
 40
0.5278790605354984
 40
0.6640995323892502
 40
0.8013223013367583
 40
0.893041357694521
 40
1.0
 40
1.0
 40
1.0
 40
1.0
 10
246.989922045992
 20
61.14494880175415
 30
0.0
 10
246.8430614397125
 20
61.21841970144634
 30
0.0
 10
246.6081588865179
 20
61.33593591195657
 30
0.0
 10
246.291307796752
 20
61.3259659775122
 30
0.0
 10
246.0381786382393
 20
61.23823063449598
 30
0.0
 10
245.8294553633815
 20
61.05643841923867
 30
0.0
 10
245.6664244473595
 20
60.76457304421965
 30
0.0
 10
245.5893966415778
 20
60.35468966985886
 30
0.0
 10
245.6647959824678
 20
59.89012050711418
 30
0.0
 10
245.8235385201251
 20
59.44817584059171
 30
0.0
 10
245.9709534024238
 20
59.1977807246806
 30
0.0
 10
246.0503145776959
 20
59.06297987980485
 30
0.0
  0
SPLINE
  5
28F
330
1F
100
AcDbEntity
  8
0
  6
Continuous
 62
     7
370
    15
100
AcDbSpline
210
0.0
220
0.0
230
1.0
 70
     8
 71
     3
 72
    13
 73
     9
 74
     0
 42
0.000000001
 43
0.00000001
 40
0.0
 40
0.0
 40
0.0
 40
0.0
 40
0.1648427221234588
 40
0.3335563179732795
 40
0.5157717779120012
 40
0.7034795850952733
 40
0.8819585200463516
 40
1.0
 40
1.0
 40
1.0
 40
1.0
 10
278.0476231929636
 20
66.53056940067967
 30
0.0
 10
278.058490703714
 20
66.5374119491475
 30
0.0
 10
278.0804809185366
 20
66.55125772433904
 30
0.0
 10
278.1068730453566
 20
66.57611351121264
 30
0.0
 10
278.1274283839574
 20
66.60411928412886
 30
0.0
 10
278.1390695314282
 20
66.6343135809887
 30
0.0
 10
278.1425105986817
 20
66.6616997819207
 30
0.0
 10
278.1380919669807
 20
66.67820446046066
 30
0.0
 10
278.1363329588343
 20
66.68477478946023
 30
0.0
  0
LINE
  5
290
330
1F
100
AcDbEntity
  8
0
  6
Continuous
 62
     7
370
    15
100
AcDbLine
 10
272.1327868705
 20
72.5838343668
 30
0.0
 11
271.987857896
 21
72.365822632
 31
0.0
  0
LINE
  5
291
330
1F
100
AcDbEntity
  8
0
  6
Continuous
 62
     7
370
    15
100
AcDbLine
 10
241.9099543606
 20
62.9327123881
 30
0.0
 11
242.4103371949
 21
62.6438475266
 31
0.0
  0
SPLINE
  5
292
330
1F
100
AcDbEntity
  8
0
  6
Continuous
 62
     7
370
    15
100
AcDbSpline
210
0.0
220
0.0
230
1.0
 70
     8
 71
     3
 72
     9
 73
     5
 74
     0
 42
0.000000001
 43
0.00000001
 40
0.0
 40
0.0
 40
0.0
 40
0.0
 40
0.7009329310329975
 40
1.0
 40
1.0
 40
1.0
 40
1.0
 10
240.0841434185761
 20
68.69009081949152
 30
0.0
 10
240.0810710364772
 20
68.74409499431655
 30
0.0
 10
240.0766877610411
 20
68.82114113159167
 30
0.0
 10
240.1010988951845
 20
68.91077342697491
 30
0.0
 10
240.1083994615229
 20
68.93757949483995
 30
0.0
  0
SPLINE
  5
293
330
1F
100
AcDbEntity
  8
0
  6
Continuous
 62
     7
370
    15
100
AcDbSpline
210
0.0
220
0.0
230
1.0
 70
     8
 71
     3
 72
    10
 73
     6
 74
     0
 42
0.000000001
 43
0.00000001
 40
0.0
 40
0.0
 40
0.0
 40
0.0
 40
0.5
 40
0.5
 40
1.0
 40
1.0
 40
1.0
 40
1.0
 10
240.1246358644913
 20
68.7424411441237
 30
0.0
 10
240.1047098139946
 20
68.65848067010567
 30
0.0
 10
240.0914155498537
 20
68.57303480759191
 30
0.0
 10
240.0741470237129
 20
68.40062133665462
 30
0.0
 10
240.0702235690909
 20
68.31350973038833
 30
0.0
 10
240.0701769272732
 20
68.22649896500204
 30
0.0
  0
SPLINE
  5
294
330
1F
100
AcDbEntity
  8
0
  6
Continuous
 62
     7
370
    15
100
AcDbSpline
210
0.0
220
0.0
230
1.0
 70
     8
 71
     3
 72
    24
 73
    20
 74
     0
 42
0.000000001
 43
0.00000001
 40
0.0
 40
0.0
 40
0.0
 40
0.0
 40
0.249999999999999
 40
0.249999999999999
 40
0.3749999999999983
 40
0.3749999999999983
 40
0.4374999999999987
 40
0.4374999999999987
 40
0.4687499999999975
 40
0.4687499999999975
 40
0.4999999999999963
 40
0.4999999999999963
 40
0.5624999999999984
 40
0.5624999999999984
 40
0.6250000000000006
 40
0.6250000000000006
 40
0.7500000000000001
 40
0.7500000000000001
 40
1.0
 40
1.0
 40
1.0
 40
1.0
 10
240.1083994615229
 20
68.93757949483995
 30
0.0
 10
240.1382404908081
 20
69.04485855139619
 30
0.0
 10
240.1680700308492
 20
69.15074312476686
 30
0.0
 10
240.2127411877205
 20
69.30069116801715
 30
0.0
 10
240.2276939798122
 20
69.3496914307801
 30
0.0
 10
240.2492771181016
 20
69.41284171268285
 30
0.0
 10
240.2564068296312
 20
69.43248189691136
 30
0.0
 10
240.2652584549326
 20
69.45019182639935
 30
0.0
 10
240.2678965522025
 20
69.45390819288502
 30
0.0
 10
240.2710490902475
 20
69.45175984450283
 30
0.0
 10
240.2714290513843
 20
69.44559743543623
 30
0.0
 10
240.2694191261235
 20
69.41695235208348
 30
0.0
 10
240.2648424845251
 20
69.3886513470953
 30
0.0
 10
240.2549110984187
 20
69.33227233694602
 30
0.0
 10
240.2492209126837
 20
69.30280258898996
 30
0.0
 10
240.2316393120651
 20
69.21494816842363
 30
0.0
 10
240.2189584391369
 20
69.15572317537432
 30
0.0
 10
240.1797173755165
 20
68.97722986824454
 30
0.0
 10
240.15241391548
 20
68.85948683407081
 30
0.0
 10
240.1246358644913
 20
68.74244114412372
 30
0.0
  0
ARC
  5
295
330
1F
100
AcDbEntity
  8
0
  6
Continuous
 62
     7
370
    15
100
AcDbCircle
 10
240.7873139015
 20
68.1478317102
 30
0.0
 40
0.7201267655269625
100
AcDbArc
 50
174.7583590299
 51
234.4349468916
  0
ARC
  5
296
330
1F
100
AcDbEntity
  8
0
  6
Continuous
 62
     7
370
    15
100
AcDbCircle
 10
242.2826478466
 20
60.6479353329
 30
0.0
 40
2.215172042338792
100
AcDbArc
 50
122.6235698332
 51
177.1589486026
  0
LINE
  5
297
330
1F
100
AcDbEntity
  8
0
  6
Continuous
 62
     7
370
    15
100
AcDbLine
 10
241.0884102759
 20
62.5136212127
 30
0.0
 11
241.8324969068
 21
62.9431732814
 31
0.0
  0
SPLINE
  5
298
330
1F
100
AcDbEntity
  8
0
  6
Continuous
 62
     7
370
    15
100
AcDbSpline
210
0.0
220
0.0
230
1.0
 70
     8
 71
     3
 72
     8
 73
     4
 74
     0
 42
0.000000001
 43
0.00000001
 40
0.0
 40
0.0
 40
0.0
 40
0.0
 40
0.0001590976953043
 40
0.0001590976953043
 40
0.0001590976953043
 40
0.0001590976953043
 10
241.9099543605791
 20
62.93271238811796
 30
0.0
 10
241.8841342310196
 20
62.93619693757883
 30
0.0
 10
241.8583150864734
 20
62.93968392031535
 30
0.0
 10
241.8324969068233
 20
62.94317328143373
 30
0.0
  0
SPLINE
  5
299
330
1F
100
AcDbEntity
  8
0
  6
Continuous
 62
     7
370
    15
100
AcDbSpline
210
0.0
220
0.0
230
1.0
 70
     8
 71
     3
 72
    10
 73
     6
 74
     0
 42
0.000000001
 43
0.00000001
 40
0.0
 40
0.0
 40
0.0
 40
0.0
 40
0.5
 40
0.5
 40
1.0
 40
1.0
 40
1.0
 40
1.0
 10
240.1246358644913
 20
60.55778552841972
 30
0.0
 10
240.1047098139947
 20
60.59630708993606
 30
0.0
 10
240.0914155498538
 20
60.62827041712964
 30
0.0
 10
240.0741470237132
 20
60.69071384062757
 30
0.0
 10
240.070223569091
 20
60.72113721784034
 30
0.0
 10
240.0701769272732
 20
60.75302791314058
 30
0.0
  0
LINE
  5
29A
330
1F
100
AcDbEntity
  8
0
  6
Continuous
 62
     7
370
    15
100
AcDbLine
 10
240.0805434932
 20
61.3548980896
 30
0.0
 11
240.0718640408
 21
61.2147921604
 31
0.0
  0
ARC
  5
29B
330
1F
100
AcDbEntity
  8
0
  6
Continuous
 62
     7
370
    15
100
AcDbCircle
 10
241.4172690919
 20
61.1425929477
 30
0.0
 40
1.353480254557066
100
AcDbArc
 50
122.9135798094
 51
170.9753897871
  0
LINE
  5
29C
330
1F
100
AcDbEntity
  8
0
  6
Continuous
 62
     7
370
    15
100
AcDbLine
 10
241.0884102759
 20
62.5136212127
 30
0.0
 11
240.6818238768
 21
62.278827578
 31
0.0
  0
LINE
  5
29D
330
1F
100
AcDbEntity
  8
0
  6
Continuous
 62
     7
370
    15
100
AcDbLine
 10
240.1799476887
 20
60.4617972087
 30
0.0
 11
240.1246358645
 21
60.5577855284
 31
0.0
  0
LWPOLYLINE
  5
29E
330
1F
100
AcDbEntity
  8
0
  6
Continuous
 62
     7
370
     0
100
AcDbPolyline
 90
       25
 70
   128
 43
0.0
 10
257.0441767175
 20
54.8138082449
 10
257.3407411796
 20
55.9635594297
 10
257.7058846613
 20
57.1214764728
 10
258.1371411618
 20
58.2797393678
 10
258.6315981853
 20
59.4305257728
 10
259.1859164104
 20
60.5660638382
 10
259.7963522427
 20
61.6786846946
 10
260.4587830965
 20
62.760874244
 10
261.1687352373
 20
63.8053239066
 10
261.9214139952
 20
64.8049799794
 10
262.7117361452
 20
65.7530912735
 10
263.5343642375
 20
66.6432547081
 10
264.3837426437
 20
67.469458554
 10
265.2541350767
 20
68.226123034
 10
266.1396633312
 20
68.9081380057
 10
267.0343469817
 20
69.510897473
 10
267.9321437718
 20
70.0303306927
 10
268.8269904202
 20
70.4629296665
 10
269.7128435697
 20
70.8057728323
 10
270.5837206008
 20
71.0565447947
 10
271.4337400352
 20
71.2135519623
 10
272.2571612567
 20
71.2757339854
 10
273.0484232805
 20
71.242670917
 10
273.8021823093
 20
71.1145860488
 10
274.5133478226
 20
70.8923444035
  0
LWPOLYLINE
  5
29F
330
1F
100
AcDbEntity
  8
0
  6
Continuous
 62
     7
370
     0
100
AcDbPolyline
 90
       26
 70
   128
 43
0.0
 10
256.6104938819
 20
54.8083709065
 10
256.8929383618
 20
55.9267261654
 10
257.2393969448
 20
57.0535122495
 10
257.6477351055
 20
58.1817870495
 10
258.1154370798
 20
59.3045992842
 10
258.6396213639
 20
60.4150313269
 10
259.2170584677
 20
61.5062418254
 10
259.8441908113
 20
62.5715078507
 10
260.5171546431
 20
63.6042663176
 10
261.231803845
 20
64.5981544191
 10
261.9837354756
 20
65.5470488281
 10
262.7683168972
 20
66.4451034228
 10
263.5807143175
 20
67.2867853044
 10
264.4159225703
 20
68.0669088857
 10
265.2687959519
 20
68.7806678388
 10
266.1340799245
 20
69.4236647074
 10
267.0064434887
 20
69.9919379989
 10
267.8805120277
 20
70.4819865917
 10
268.7509004207
 20
70.8907913048
 10
269.6122462198
 20
71.2158334996
 10
270.4592426888
 20
71.4551105968
 10
271.2866714971
 20
71.6071484144
 10
272.0894348705
 20
71.6710102501
 10
272.8625869977
 20
71.6463026522
 10
273.6013645021
 20
71.5331778438
 10
274.3012157883
 20
71.3323327848
  0
LWPOLYLINE
  5
2A0
330
1F
100
AcDbEntity
  8
0
  6
Continuous
 62
     7
370
     0
100
AcDbPolyline
 90
        3
 70
   128
 43
0.0
 10
278.047623193
 20
59.9982429056
 10
277.7850722272
 20
58.8743538994
 10
277.6853341263
 20
58.5067960667
  0
LWPOLYLINE
  5
2A1
330
1F
100
AcDbEntity
  8
0
  6
Continuous
 62
     7
370
     0
100
AcDbPolyline
 90
       22
 70
   128
 43
0.0
 10
271.4358420473
 20
47.681185287
 10
271.1370684594
 20
47.3810314851
 10
270.2943307086
 20
46.5940552113
 10
269.4333493906
 20
45.8760288349
 10
268.5597362494
 20
45.2316323414
 10
267.6791853612
 20
44.6650658081
 10
266.7974360213
 20
44.1800220286
 10
265.9202353364
 20
43.7796624438
 10
265.0533007658
 20
43.4665965359
 10
264.2022828558
 20
43.2428648203
 10
263.3727284103
 20
43.109925546
 10
262.5700443378
 20
43.0686451908
 10
261.7994624097
 20
43.1192928137
 10
261.0660051605
 20
43.2615383012
 10
260.3744531519
 20
43.4944545192
 10
259.7293138136
 20
43.8165233554
 10
259.1347920647
 20
44.2256456148
 10
258.5947629066
 20
44.7191547014
 10
258.1127461663
 20
45.2938339986
 10
257.6918835549
 20
45.9459378352
 10
257.3349181901
 20
46.6712158987
 10
257.0441767175
 20
47.4649409379
  0
ARC
  5
2A2
330
1F
100
AcDbEntity
  8
0
  6
Continuous
 62
     7
370
     0
100
AcDbCircle
 10
271.5211713348
 20
65.0097641212
 30
0.0
 40
6.701300064528154
100
AcDbArc
 50
13.1170908933
 51
49.5620782406
  0
LWPOLYLINE
  5
2A3
330
1F
100
AcDbEntity
  8
0
  6
Continuous
 62
     7
370
     0
100
AcDbPolyline
 90
       30
 70
   128
 43
0.0
 10
261.6616820746
 20
53.8050036945
 10
261.6958790691
 20
54.5530848257
 10
261.7980691242
 20
55.3318783991
 10
261.967054155
 20
56.1322537721
 10
262.2008529664
 20
56.9448272752
 10
262.4967244812
 20
57.7600722271
 10
262.8511998763
 20
58.5684306261
 10
263.2601232519
 20
59.360425209
 10
263.7187003552
 20
60.1267705636
 10
264.221554789
 20
60.8584819911
 10
264.7627910449
 20
61.5469808441
 10
265.3360636225
 20
62.1841951031
 10
265.9346514251
 20
62.7626540135
 10
266.551536558
 20
63.2755756734
 10
267.1794866069
 20
63.7169465454
 10
267.8111394318
 20
64.0815919595
 10
268.4390894808
 20
64.3652367816
 10
269.0559746136
 20
64.5645555357
 10
269.6545624162
 20
64.6772113914
 10
270.2278349938
 20
64.7018835618
 10
270.7690712497
 20
64.6382827885
 10
271.2719256835
 20
64.4871547322
 10
271.7305027868
 20
64.2502712312
 10
272.1394261624
 20
63.9304095281
 10
272.4939015575
 20
63.5313197088
 10
272.7897730723
 20
63.0576807366
 10
273.0235718837
 20
62.5150455953
 10
273.1925569145
 20
61.9097761859
 10
273.2947469696
 20
61.2489687388
 10
273.3128602637
 20
61.030971499
  0
LWPOLYLINE
  5
2A4
330
1F
100
AcDbEntity
  8
0
  6
Continuous
 62
     7
370
     0
100
AcDbPolyline
 90
       15
 70
   128
 43
0.0
 10
267.0633681847
 20
50.2053607193
 10
266.551536558
 20
49.9801375299
 10
265.9346514251
 20
49.7808187759
 10
265.3360636225
 20
49.6681629202
 10
264.7627910449
 20
49.6434907498
 10
264.221554789
 20
49.7070915231
 10
263.7187003552
 20
49.8582195794
 10
263.2601232519
 20
50.0951030804
 10
262.8511998763
 20
50.4149647835
 10
262.4967244812
 20
50.8140546028
 10
262.2008529664
 20
51.287693575
 10
261.967054155
 20
51.8303287163
 10
261.7980691242
 20
52.4355981257
 10
261.6958790691
 20
53.0964055728
 10
261.6616820746
 20
53.8050036945
  0
LWPOLYLINE
  5
2A5
330
1F
100
AcDbEntity
  8
0
  6
Continuous
 62
     7
370
     0
100
AcDbPolyline
 90
       24
 70
   128
 43
0.0
 10
247.289736747
 20
55.9786902923
 10
247.3240681909
 20
57.0075340092
 10
247.4268508581
 20
58.069672804
 10
247.5974510592
 20
59.1585582378
 10
247.8348169872
 20
60.2674769698
 10
248.1374852022
 20
61.3895921472
 10
248.5035896541
 20
62.517985557
 10
248.9308731871
 20
63.6457002784
 10
249.4167014563
 20
64.7657835751
 10
249.9580791686
 20
65.8713297613
 10
250.5516685506
 20
66.9555227771
 10
251.1938099263
 20
68.0116782119
 10
251.8805442806
 20
69.0332845163
 10
252.6076376679
 20
70.0140431478
 10
253.3706073155
 20
70.9479074031
 10
254.164749262
 20
71.8291196987
 10
254.9851673581
 20
72.6522470677
 10
255.8268034535
 20
73.4122146562
 10
256.6844685817
 20
74.1043370113
 10
257.5528749521
 20
74.7243469684
 10
258.4266685506
 20
75.2684219601
 10
259.3004621491
 20
75.733207583
 10
260.1688685195
 20
76.1158382793
 10
260.3598834919
 20
76.1892041017
  0
ARC
  5
2A6
330
1F
100
AcDbEntity
  8
0
  6
Continuous
 62
     7
370
     0
100
AcDbCircle
 10
259.9409264451
 20
55.9088980924
 30
0.0
 40
12.65138220630151
100
AcDbArc
 50
179.6839223799
 51
190.0604508419
  0
LWPOLYLINE
  5
2A7
330
1F
100
AcDbEntity
  8
0
  6
Continuous
 62
     7
370
     0
100
AcDbPolyline
 90
       20
 70
   128
 43
0.0
 10
264.4901091993
 20
53.8050036945
 10
264.5249576254
 20
54.4647443895
 10
264.6289533231
 20
55.1543157159
 10
264.8004562182
 20
55.8628427221
 10
265.0367616076
 20
56.5791515137
 10
265.3341428141
 20
57.2919454735
 10
265.6879099585
 20
57.9899834146
 10
266.0924839215
 20
58.6622568619
 10
266.54148433
 20
59.2981636615
 10
267.0278301795
 20
59.8876751833
 10
267.5438515053
 20
60.4214944784
 10
268.0814103429
 20
60.8912028977
 10
268.6320290683
 20
61.2893928588
 10
269.1870240952
 20
61.6097846681
 10
269.7376428206
 20
61.8473255554
 10
270.2752016581
 20
61.9982693591
 10
270.7912229839
 20
62.0602356051
 10
271.2775688334
 20
62.0322470487
 10
271.726569242
 20
61.9147450863
 10
272.0342726212
 20
61.7690844339
  0
ARC
  5
2A8
330
1F
100
AcDbEntity
  8
0
  6
Continuous
 62
     7
370
     0
100
AcDbCircle
 10
267.6551812433
 20
53.513363927
 30
0.0
 40
3.178479950750384
100
AcDbArc
 50
174.7354510462
 51
233.9523685604
  0
LWPOLYLINE
  5
2A9
330
1F
100
AcDbEntity
  8
0
  6
Continuous
 62
     7
370
     0
100
AcDbPolyline
 90
       19
 70
   128
 43
0.0
 10
254.9583097889
 20
56.7405903355
 10
255.2239456422
 20
57.8083477738
 10
255.5566227982
 20
58.8850766849
 10
255.9538817637
 20
59.9628167767
 10
256.4127855903
 20
61.0336002819
 10
256.9299415872
 20
62.0895108632
 10
257.5015264033
 20
63.1227421394
 10
258.1233142933
 20
64.1256553979
 10
258.7907083593
 20
65.0908360685
 10
259.4987745352
 20
66.0111485392
 10
260.2422780648
 20
66.8797889099
 10
261.0157222022
 20
67.6903352941
 10
261.8133888499
 20
68.4367952961
 10
262.6293808324
 20
69.1136503127
 10
263.4576654944
 20
69.715896333
 10
264.2921193006
 20
70.2390809324
 10
265.1265731067
 20
70.6793361902
 10
265.9548577688
 20
71.0334072849
 10
266.1043729429
 20
71.088331095
  0
LWPOLYLINE
  5
2AA
330
1F
100
AcDbEntity
  8
0
  6
Continuous
 62
     7
370
     0
100
AcDbPolyline
 90
       22
 70
   128
 43
0.0
 10
254.5324916309
 20
57.3887352991
 10
254.834383801
 20
58.4722473113
 10
255.201561491
 20
59.5608319847
 10
255.6314119853
 20
60.6467433088
 10
256.1208766091
 20
61.7222542956
 10
256.6664724931
 20
62.7797119627
 10
257.2643173564
 20
63.811591789
 10
257.9101571315
 20
64.8105512571
 10
258.599396235
 20
65.7694820998
 10
259.3271302681
 20
66.6815608806
 10
260.0881809147
 20
67.5402975469
 10
260.8771327887
 20
68.3395816109
 10
261.6883719679
 20
69.07372563
 10
262.5161259413
 20
69.7375056769
 10
263.3545046836
 20
70.326198511
 10
264.1975425674
 20
70.8356151877
 10
265.0392408125
 20
71.2621308654
 10
265.8736101709
 20
71.6027105988
 10
266.6947135445
 20
71.8549309346
 10
267.4967082319
 20
72.0169971557
 10
268.2738875025
 20
72.0877560523
 10
268.4237690987
 20
72.0908768662
  0
LINE
  5
2AB
330
1F
100
AcDbEntity
  8
0
  6
Continuous
 62
     7
370
     0
100
AcDbLine
 10
248.9393733865
 20
55.4411267996
 30
0.0
 11
250.7368823052
 21
56.4788066108
 31
0.0
  0
LINE
  5
2AC
330
1F
100
AcDbEntity
  8
0
  6
Continuous
 62
     7
370
     0
100
AcDbLine
 10
273.0461012517
 20
48.5590673633
 30
0.0
 11
273.9306221487
 21
48.0484443184
 31
0.0
  0
ARC
  5
2AD
330
1F
100
AcDbEntity
  8
0
  6
Continuous
 62
     7
370
     0
100
AcDbCircle
 10
263.6568016245
 20
49.4876825878
 30
0.0
 40
7.332391343285625
100
AcDbArc
 50
196.0577079662
 51
216.4275953753
  0
LWPOLYLINE
  5
2AE
330
1F
100
AcDbEntity
  8
0
  6
Continuous
 62
     7
370
     0
100
AcDbPolyline
 90
       22
 70
   128
 43
0.0
 10
240.0701769273
 20
68.226498965
 10
240.400938985
 20
69.1888223167
 10
240.7920432619
 20
70.1473637571
 10
241.2401395387
 20
71.0939123718
 10
241.7413894003
 20
72.0203599774
 10
242.2914991148
 20
72.9187705768
 10
242.8857564145
 20
73.7814483393
 10
243.5190708615
 20
74.6010035236
 10
244.186017452
 20
75.3704157784
 10
244.8808830878
 20
76.0830942794
 10
245.5977155147
 20
76.7329341865
 10
246.3303743098
 20
77.3143689382
 10
247.0725834807
 20
77.8224179349
 10
247.8179852263
 20
78.2527292031
 10
248.5601943972
 20
78.6016166749
 10
249.2928531923
 20
78.8660917623
 10
250.0096856192
 20
79.0438889585
 10
250.704551255
 20
79.1334852437
 10
251.3714978455
 20
79.1341131315
 10
252.0048122925
 20
79.0457672435
 10
252.5990695923
 20
78.8692043549
 10
252.8353098186
 20
78.7692940374
  0
ARC
  5
2AF
330
1F
100
AcDbEntity
  8
0
  6
Continuous
 62
     7
370
     0
100
AcDbCircle
 10
243.9882357192
 20
62.5719922815
 30
0.0
 40
4.319700923715847
100
AcDbArc
 50
204.903152445
 51
234.3840628426
  0
LINE
  5
2B0
330
1F
100
AcDbEntity
  8
0
  6
Continuous
 62
     7
370
     0
100
AcDbLine
 10
248.9393733865
 20
54.6245859877
 30
0.0
 11
250.7368823052
 21
55.6622657989
 31
0.0
  0
LINE
  5
2B1
330
1F
100
AcDbEntity
  8
0
  6
Continuous
 62
     7
370
     0
100
AcDbLine
 10
252.2264318386
 20
49.9903687462
 30
0.0
 11
253.56530943
 21
50.7632863277
 31
0.0
  0
LINE
  5
2B2
330
1F
100
AcDbEntity
  8
0
  6
Continuous
 62
     7
370
     0
100
AcDbLine
 10
276.9351885482
 20
50.8041896708
 30
0.0
 11
277.8197094453
 21
50.2935666259
 31
0.0
  0
LINE
  5
2B3
330
1F
100
AcDbEntity
  8
0
  6
Continuous
 62
     7
370
     0
100
AcDbLine
 10
255.9776891516
 20
49.3893110409
 30
0.0
 11
255.743198316
 21
50.0734191445
 31
0.0
  0
ARC
  5
2B4
330
1F
100
AcDbEntity
  8
0
  6
Continuous
 62
     7
370
     0
100
AcDbCircle
 10
261.5525911621
 20
52.3912955983
 30
0.0
 40
6.852876315955608
100
AcDbArc
 50
195.7901562857
 51
209.3796230762
  0
ARC
  5
2B5
330
1F
100
AcDbEntity
  8
0
  6
Continuous
 62
     7
370
     0
100
AcDbCircle
 10
260.7264085639
 20
52.1435341104
 30
0.0
 40
6.54140796082217
100
AcDbArc
 50
198.759244907
 51
214.0940098194
  0
LINE
  5
2B6
330
1F
100
AcDbEntity
  8
0
  6
Continuous
 62
     7
370
     0
100
AcDbLine
 10
271.2798581167
 20
73.0762196557
 30
0.0
 11
270.7388691388
 21
72.7639133664
 31
0.0
  0
ARC
  5
2B7
330
1F
100
AcDbEntity
  8
0
  6
Continuous
 62
     7
370
     0
100
AcDbCircle
 10
243.8326146563
 20
66.7304083536
 30
0.0
 40
1.102095792745897
100
AcDbArc
 50
159.4111972489
 51
213.1915491986
  0
ARC
  5
2B8
330
1F
100
AcDbEntity
  8
0
  6
Continuous
 62
     7
370
     0
100
AcDbCircle
 10
242.5008038474
 20
66.5589235309
 30
0.0
 40
0.6345057597342582
100
AcDbArc
 50
41.9989524423
 51
61.7721687694
  0
LINE
  5
2B9
330
1F
100
AcDbEntity
  8
0
  6
Continuous
 62
     7
370
     0
100
AcDbLine
 10
242.8009116198
 20
67.1179699369
 30
0.0
 11
242.9104584714
 21
67.5287676977
 31
0.0
  0
LINE
  5
2BA
330
1F
100
AcDbEntity
  8
0
  6
Continuous
 62
     7
370
     0
100
AcDbLine
 10
242.8009116198
 20
67.1179699369
 30
0.0
 11
241.9988668815
 21
67.5809805088
 31
0.0
  0
LINE
  5
2BB
330
1F
100
AcDbEntity
  8
0
  6
Continuous
 62
     7
370
     0
100
AcDbLine
 10
240.1246358645
 20
68.7424411441
 30
0.0
 11
240.1083994615
 21
68.9375794948
 31
0.0
  0
ARC
  5
2BC
330
1F
100
AcDbEntity
  8
0
  6
Continuous
 62
     7
370
     0
100
AcDbCircle
 10
242.5909516383
 20
58.4653506246
 30
0.0
 40
0.4314912001451176
100
AcDbArc
 50
27.8850837497
 51
60.8831993912
  0
ARC
  5
2BD
330
1F
100
AcDbEntity
  8
0
  6
Continuous
 62
     7
370
     0
100
AcDbCircle
 10
244.0406503151
 20
59.2374088202
 30
0.0
 40
1.301173266867204
100
AcDbArc
 50
165.9701785416
 51
197.6766607319
  0
LINE
  5
2BE
330
1F
100
AcDbEntity
  8
0
  6
Continuous
 62
     7
370
     0
100
AcDbLine
 10
242.4091404541
 20
61.7511799099
 30
0.0
 11
241.0884102759
 21
62.5136212127
 31
0.0
  0
LINE
  5
2BF
330
1F
100
AcDbEntity
  8
0
  6
Continuous
 62
     7
370
     0
100
AcDbLine
 10
242.8009116198
 20
58.8423141003
 30
0.0
 11
241.9988668815
 21
59.3053246722
 31
0.0
  0
LINE
  5
2C0
330
1F
100
AcDbEntity
  8
0
  6
Continuous
 62
     7
370
     0
100
AcDbLine
 10
242.8009116198
 20
58.8423141003
 30
0.0
 11
242.9104584714
 21
58.5579964421
 31
0.0
  0
OLE2FRAME
  5
2C1
330
1F
100
AcDbEntity
  8
0
100
AcDbOle2Frame
 70
     2
  3
Paintbrush-Bild
 10
13.8511154363
 20
38.264191557
 30
0.0
 11
51.6290888628
 21
31.9806341108
 31
0.0
 71
     2
 72
     0
 73
     1
 90
    12928
310
80552BED0767C5B32B40DDAF6807D121434000000000000000006FFBDDFB85D0
310
4940DDAF6807D121434000000000000000006FFBDDFB85D04940416F4BD60AFB
310
3F4000000000000000002BED0767C5B32B40416F4BD60AFB3F40000000000000
310
0000000000000100000000010000010000000100000000000100000000320000
310
D0CF11E0A1B11AE1000000000000000000000000000000003E000300FEFF0900
310
0600000000000000000000000100000001000000000000000010000002000000
310
01000000FEFFFFFF0000000000000000FFFFFFFFFFFFFFFFFFFFFFFFFFFFFFFF
310
FFFFFFFFFFFFFFFFFFFFFFFFFFFFFFFFFFFFFFFFFFFFFFFFFFFFFFFFFFFFFFFF
310
FFFFFFFFFFFFFFFFFFFFFFFFFFFFFFFFFFFFFFFFFFFFFFFFFFFFFFFFFFFFFFFF
310
FFFFFFFFFFFFFFFFFFFFFFFFFFFFFFFFFFFFFFFFFFFFFFFFFFFFFFFFFFFFFFFF
310
FFFFFFFFFFFFFFFFFFFFFFFFFFFFFFFFFFFFFFFFFFFFFFFFFFFFFFFFFFFFFFFF
310
FFFFFFFFFFFFFFFFFFFFFFFFFFFFFFFFFFFFFFFFFFFFFFFFFFFFFFFFFFFFFFFF
310
FFFFFFFFFFFFFFFFFFFFFFFFFFFFFFFFFFFFFFFFFFFFFFFFFFFFFFFFFFFFFFFF
310
FFFFFFFFFFFFFFFFFFFFFFFFFFFFFFFFFFFFFFFFFFFFFFFFFFFFFFFFFFFFFFFF
310
FFFFFFFFFFFFFFFFFFFFFFFFFFFFFFFFFFFFFFFFFFFFFFFFFFFFFFFFFFFFFFFF
310
FFFFFFFFFFFFFFFFFFFFFFFFFFFFFFFFFFFFFFFFFFFFFFFFFFFFFFFFFFFFFFFF
310
FFFFFFFFFFFFFFFFFFFFFFFFFFFFFFFFFFFFFFFFFFFFFFFFFFFFFFFFFFFFFFFF
310
FFFFFFFFFFFFFFFFFFFFFFFFFFFFFFFFFFFFFFFFFFFFFFFFFFFFFFFFFFFFFFFF
310
FFFFFFFFFFFFFFFFFFFFFFFFFFFFFFFFFFFFFFFFFFFFFFFFFFFFFFFFFFFFFFFF
310
FFFFFFFFFFFFFFFFFFFFFFFFFFFFFFFFFFFFFFFFFFFFFFFFFFFFFFFFFFFFFFFF
310
FDFFFFFFFEFFFFFFFEFFFFFFFEFFFFFF05000000060000000700000008000000
310
090000000A0000000B0000000C0000000D0000000E0000000F00000010000000
310
11000000120000001300000014000000150000001600000017000000FEFFFFFF
310
FFFFFFFFFFFFFFFFFFFFFFFFFFFFFFFFFFFFFFFFFFFFFFFFFFFFFFFFFFFFFFFF
310
FFFFFFFFFFFFFFFFFFFFFFFFFFFFFFFFFFFFFFFFFFFFFFFFFFFFFFFFFFFFFFFF
310
FFFFFFFFFFFFFFFFFFFFFFFFFFFFFFFFFFFFFFFFFFFFFFFFFFFFFFFFFFFFFFFF
310
FFFFFFFFFFFFFFFFFFFFFFFFFFFFFFFFFFFFFFFFFFFFFFFFFFFFFFFFFFFFFFFF
310
FFFFFFFFFFFFFFFFFFFFFFFFFFFFFFFFFFFFFFFFFFFFFFFFFFFFFFFFFFFFFFFF
310
FFFFFFFFFFFFFFFFFFFFFFFFFFFFFFFFFFFFFFFFFFFFFFFFFFFFFFFFFFFFFFFF
310
FFFFFFFFFFFFFFFFFFFFFFFFFFFFFFFFFFFFFFFFFFFFFFFFFFFFFFFFFFFFFFFF
310
FFFFFFFFFFFFFFFFFFFFFFFFFFFFFFFFFFFFFFFFFFFFFFFFFFFFFFFFFFFFFFFF
310
FFFFFFFFFFFFFFFFFFFFFFFFFFFFFFFFFFFFFFFFFFFFFFFFFFFFFFFFFFFFFFFF
310
FFFFFFFFFFFFFFFFFFFFFFFFFFFFFFFFFFFFFFFFFFFFFFFFFFFFFFFFFFFFFFFF
310
FFFFFFFFFFFFFFFFFFFFFFFFFFFFFFFFFFFFFFFFFFFFFFFFFFFFFFFFFFFFFFFF
310
FFFFFFFFFFFFFFFFFFFFFFFFFFFFFFFFFFFFFFFFFFFFFFFFFFFFFFFFFFFFFFFF
310
FFFFFFFFFFFFFFFFFFFFFFFFFFFFFFFFFFFFFFFFFFFFFFFFFFFFFFFFFFFFFFFF
310
52006F006F007400200045006E00740072007900000000000000000000000000
310
0000000000000000000000000000000000000000000000000000000000000000
310
16000500FFFFFFFFFFFFFFFF020000000A00030000000000C000000000000046
310
0000000000000000000000005024B6328F03D20103000000C000000000000000
310
01004F006C006500000000000000000000000000000000000000000000000000
310
0000000000000000000000000000000000000000000000000000000000000000
310
0A000200FFFFFFFFFFFFFFFFFFFFFFFF00000000000000000000000000000000
310
0000000000000000000000000000000000000000000000001400000000000000
310
010043006F006D0070004F0062006A0000000000000000000000000000000000
310
0000000000000000000000000000000000000000000000000000000000000000
310
120002010100000003000000FFFFFFFF00000000000000000000000000000000
310
0000000000000000000000000000000000000000010000004D00000000000000
310
01004F006C006500310030004E00610074006900760065000000000000000000
310
0000000000000000000000000000000000000000000000000000000000000000
310
1A000200FFFFFFFFFFFFFFFFFFFFFFFF00000000000000000000000000000000
310
0000000000000000000000000000000000000000040000002426000000000000
310
FEFFFFFF02000000FEFFFFFFFFFFFFFFFFFFFFFFFFFFFFFFFFFFFFFFFFFFFFFF
310
FFFFFFFFFFFFFFFFFFFFFFFFFFFFFFFFFFFFFFFFFFFFFFFFFFFFFFFFFFFFFFFF
310
FFFFFFFFFFFFFFFFFFFFFFFFFFFFFFFFFFFFFFFFFFFFFFFFFFFFFFFFFFFFFFFF
310
FFFFFFFFFFFFFFFFFFFFFFFFFFFFFFFFFFFFFFFFFFFFFFFFFFFFFFFFFFFFFFFF
310
FFFFFFFFFFFFFFFFFFFFFFFFFFFFFFFFFFFFFFFFFFFFFFFFFFFFFFFFFFFFFFFF
310
FFFFFFFFFFFFFFFFFFFFFFFFFFFFFFFFFFFFFFFFFFFFFFFFFFFFFFFFFFFFFFFF
310
FFFFFFFFFFFFFFFFFFFFFFFFFFFFFFFFFFFFFFFFFFFFFFFFFFFFFFFFFFFFFFFF
310
FFFFFFFFFFFFFFFFFFFFFFFFFFFFFFFFFFFFFFFFFFFFFFFFFFFFFFFFFFFFFFFF
310
FFFFFFFFFFFFFFFFFFFFFFFFFFFFFFFFFFFFFFFFFFFFFFFFFFFFFFFFFFFFFFFF
310
FFFFFFFFFFFFFFFFFFFFFFFFFFFFFFFFFFFFFFFFFFFFFFFFFFFFFFFFFFFFFFFF
310
FFFFFFFFFFFFFFFFFFFFFFFFFFFFFFFFFFFFFFFFFFFFFFFFFFFFFFFFFFFFFFFF
310
FFFFFFFFFFFFFFFFFFFFFFFFFFFFFFFFFFFFFFFFFFFFFFFFFFFFFFFFFFFFFFFF
310
FFFFFFFFFFFFFFFFFFFFFFFFFFFFFFFFFFFFFFFFFFFFFFFFFFFFFFFFFFFFFFFF
310
FFFFFFFFFFFFFFFFFFFFFFFFFFFFFFFFFFFFFFFFFFFFFFFFFFFFFFFFFFFFFFFF
310
FFFFFFFFFFFFFFFFFFFFFFFFFFFFFFFFFFFFFFFFFFFFFFFFFFFFFFFFFFFFFFFF
310
FFFFFFFFFFFFFFFFFFFFFFFFFFFFFFFFFFFFFFFFFFFFFFFFFFFFFFFFFFFFFFFF
310
0100000200000000000000000000000000000000000000000000000000000000
310
0000000000000000000000000000000000000000000000000000000000000000
310
0100FEFF030A0000FFFFFFFF0A00030000000000C00000000000004607000000
310
5042727573680007000000504272757368000700000050427275736800F439B2
310
7100000000000000000000000000000000000000000000000000000000000000
310
0000000000000000000000000000000000000000000000000000000000000000
310
0000000000000000000000000000000000000000000000000000000000000000
310
0000000000000000000000000000000000000000000000000000000000000000
310
0000000000000000000000000000000000000000000000000000000000000000
310
0000000000000000000000000000000000000000000000000000000000000000
310
0000000000000000000000000000000000000000000000000000000000000000
310
0000000000000000000000000000000000000000000000000000000000000000
310
0000000000000000000000000000000000000000000000000000000000000000
310
0000000000000000000000000000000000000000000000000000000000000000
310
0000000000000000000000000000000000000000000000000000000000000000
310
0000000000000000000000000000000000000000000000000000000000000000
310
20260000424D0E260000000000003E00000028000000B40200006E0000000100
310
01000000000000000000130B0000130B00000200000002000000000000FFFFFF
310
FFFFFFFFFFFFFFFFFFFFFFFFFFFFFFFFFFFFFFFFFFFFFFFFFFFFFFFFFFFFFFFF
310
FFFFFFFFFFFFFFFFFFFFFFFFFFFFFFFFFFFFFFFFFFFFFFFFFFFFFFFFFFFFFFFF
310
FFFFFFFFFFFFFFFFFFFFFFFFFFFFFFFFFFFFFFFFFFFFFFFFF000FFFFFFFFFFFF
310
FFFFFFFFFFFFFFFFFFFFFFFFFFFFFFFFFFFFFFFFFFFFFFFFFFFFFFFFFFFFFFFF
310
FFFFFFFFFFFFFFFFFFFFFFFFFFFFFFFFFFFFFFFFFFFFFFFFFFFFFFFFFFFFFFFF
310
FFFFFFFFFFFFFFFFFFFFFFFFFFFFFFFFF000FFFFFFFFFFFFFFFFFFFFFFFFFFFF
310
FFFFFFFFFFFFFFFFFFFFFFFFFFFFFFFFFFFFFFFFFFFFFFFFFFFFFFFFFFFFFFFF
310
FFFFFFFFFFFFFFFFFFFFFFFFFFFFFFFFFFFFFFFFFFFFFFFFFFFFFFFFFFFFFFFF
310
FFFFFFFFFFFFFFFFF000FFFFFFFFFFFFFFFFFFFFFFFFFFFFFFFFFFFFFFFFFFFF
310
FFFFFFFFFFFFFFFFFFFFFFFFFFFFFFFFFFFFFFFFFFFFFFFFFFFFFFFFFFFFFFFF
310
FFFFFFFFFFFFFFFFFFFFFFFFFFFFFFFFFFFFFFFFFFFFFFFFFFFFFFFFFFFFFFFF
310
F000FFFFFFFFFFFFFFFFFFFFFFFFFFFFFFFFFFFFFFFFFFFFFFFFFFFFFFFFFFFF
310
FFFFFFFFFFFFFFFFFFFFFFFFFFFFFFFFFFFFFFFFFFFFFFFFFFFFFFFFFFFFFFFF
310
FFFFFFFFFFFFFFFFFFFFFFFFFFFFFFFFFFFFFFFFFFFFFFFFF000FFFFFFFFFFFF
310
FFFFFFFFFFFFFFFFFFFFFFFFFFFFFFFFFFFFFFFFFFFFFFFFFFFFFFFFFFFFFFFF
310
FFFFFFFFFFFFFFFFFFFFFFFFFFFFFFFFFFFFFFFFFFFFFFFFFFFFFFFFFFFFFFFF
310
FFFFFFFFFFFFFFFFFFFFFFFFFFFFFFFFF000FFFFFFFFFFFFFFFFFFFFFFFFFFFF
310
FFFFFFFFFFFFFFFFFFFFFFFFFFFFFFFFFFFFFFFFFFFFFFFFFFFFFFFFFFFFFFFF
310
FFFFFFFFFFFFFFFFFFFFFFFFFFFFFFFFFFFFFFFFFFFFFFFFFFFFFFFFFFFFFFFF
310
FFFFFFFFFFFFFFFFF000FFFFFFFFFFFFFFFFFFFFFFFFFFFFFFFFFFFFFFFFFFFF
310
FFFFFFFFFFFFFFFFFFFFFFFFFFFFFFFFFFFFFFFFFFFFFFFFFFFFFFFFFFFFFFFF
310
FFFFFFFFFFFFFFFFFFFFFFFFFFFFFFFFFFFFFFFFFFFFFFFFFFFFFFFFFFFFFFFF
310
F000FFFFFFFFFFFFFFFFFFFFFFFFFFFFFFFFFFFFFFFFFFFFFFFFFFFFFFFFFFFF
310
FFFFFFFFFFFFFFFFFFFFFFFFFFFFFFFFFFFFFFFFFFFFFFFFFFFFFFFFFFFFFFFF
310
FFFFFFFFFFFFFFFFFFFFFFFFFFFFFFFFFFFFFFFFFFFFFFFFF000FFFFFFFFFFFF
310
FFFFFFFFFFFFFFFFFFFFFFFFFFFFFFFFFFFFFFFFFFFFFFFFFFFFFFFFFFFFFFFF
310
FFFFFFFFFFFFFFFFFFFFFFFFFFFFFFFFFFFFFFFFFFFFFFFFFFFFFFFFFFFFFFFF
310
FFFFFFFFFFFFFFFFFFFFFFFFFFFFFFFFF000FFFFFFFFFFFFFFFFFFFFFFFFFFFF
310
FFFFFFFFFFFFFFFFFFFFFFFFFFFFFFFFFFFFFFFFFFFFFFFFFFFFFFFFFFFFFFFF
310
FFFFFFFFFFFFFFFFFFFFFFFFFFFFFFFFFFFFFFFFFFFFFFFFFFFFFFFFFFFFFFFF
310
FFFFFFFFFFFFFFFFF000FFFFFFFFFFFFFFFFFFFFFFFFFFFFFFFFFFFFFFFFFFFF
310
FFFFFFFFFFFFFFFFFFFFFFFFFFFFFFFFFFFFFFFFFFFFFFFFFFFFFFFFFFFFFFFF
310
FFFFFFFFFFFFFFFFFFFFFFFFFFFFFFFFFFFFFFFFFFFFFFFFFFFFFFFFFFFFFFFF
310
F000FFFFFFFFFFFFFFFFFFFFFFFFFFFFFFFFFFFFFFFFFFFFFFFFFFFFFFFFFFFF
310
FFFFFFFFFFFFFFFFFFFFFFFFFFFFFFFFFFFFFFFFFFFFFFFFFFFFFFFFFFFFFFFF
310
FFFFFFFFFFFFFFFFFFFFFFFFFFFFFFFFFFFFFFFFFFFFFFFFF000FFFFFFFFFFFF
310
FFFFFFFFFFFFFFFFFFFFFFFFFFFFFFFFFFFFFFFFFFFFFFFFFFFFFFFFFFFFFFFF
310
FFFFFFFFFFFFFFFFFFFFFFFFFFFFFFFFFFFFFFFFFFFFFFFFFFFFFFFFFFFFFFFF
310
FFFFFFFFFFFFFFFFFFFFFFFFFFFFFFFFF000FFFFFFFFFFFFFFFFFFFFFFFFFFFF
310
FFFFFFFFFFFFFFFFFFFFFFFFFFFFFFFFFFFFFFFFFFFFFFFFFFFFFFFFFFFFFFFF
310
FFFFFFFFFFFFFFFFFFFFFFFFFFFFFFFFFFFFFFFFFFFFFFFFFFFFFFFFFFFFFFFF
310
FFFFFFFFFFFFFFFFF000FFFFFFFFFFFFFFFFFFFFFFFFFFFFFFFFFFFFFFFFFFFF
310
FFFFFFFFFFFFFFFFFFFFFFFFFFFFFFFFFFFFFFFFFFFFFFFFFFFFFFFFFFFFFFFF
310
FFFFFFFFFFFFFFFFFFFFFFFFFFFFFFFFFFFFFFFFFFFFFFFFFFFFFFFFFFFFFFFF
310
F000FFFFFFFFFFFFFFFFFFFFFFFFFFFFFFFFFFFFFFFFFFFFFFFFFFFFFFFFFFFF
310
FFFFFFFFFFFFFFFFFFFFFFFFFFFFFFFFFFFFFFFFFFFFFFFFFFFFFFFFFFFFFFFF
310
FFFFFFFFFFFFFFFFFFFFFFFFFFFFFFFFFFFFFFFFFFFFFFFFF000FFFFFFFFFFFF
310
FFFFFFFFFFFFFFFFFFFFFFFFFFFFFFFFFFFFFFFFFFFFFFFFFFFFFFFFFFFFFFFF
310
FFFFFFFFFFFFFFFFFFFFFFFFFFFFFFFFFFFFFFFFFFFFFFFFFFFFFFFFFFFFFFFF
310
FFFFFFFFFFFFFFFFFFFFFFFFFFFFFFFFF000FFFFFFFFFFFFFFFFFFFFFFFFFFFF
310
FFFFFFFFFFFFFFFFFFFFFFFFFFFFFFFFFFFFFFFFFFFFFFFFFFFFFFFFFFFFFFFF
310
FFFFFFFFFFFFFFFFFFFFFFFFFFFFFFFFFFFFFFFFFFFFFFFFFFFFFFFFFFFFFFFF
310
FFFFFFFFFFFFFFFFF000FFFFF80003FFFFFFFFFFFFFFFFFFFFFFFFFFFFFFFFFF
310
FFFFF00007FFFFFFFFFF00007FFFFFF800000000000000007FFFFFFFFFFFFFFF
310
FFFFFFFC001FFFFFFFFFFFFFFC001FFFFFFFFFFFFFFFFFFFFFFFFFFE0007FFFF
310
F000FFFF8000007FFFFFFFF8000FFFFFC0007FFFFF80007FFFFF0000007FFFFF
310
FFF8000007FFFFF800000000000000007FFFFFF0001FFFFFFFFFFFC00001FFFF
310
FFFFFFFFC00001FFFFFFFF000000000003FFFFE000007FFFF000FFFE0000000F
310
FFFFFFF0000FFFFF80007FFFFF80007FFFFC0000001FFFFFFFC0000001FFFFF8
310
00000000000000007FFFFFF0001FFFFFFFFFFE0000003FFFFFFFFFFE0000003F
310
FFFFFF000000000003FFFF0000000FFFF000FFF800000003FFFFFFF00007FFFF
310
80007FFFFF80007FFFF000000007FFFFFF000000003FFFF80000000000000000
310
7FFFFFF0001FFFFFFFFFF80000000FFFFFFFFFF80000000FFFFFFF0000000000
310
03FFFC00000003FFF000FFE000000000FFFFFFF00007FFFF80003FFFFF80007F
310
FFC000000001FFFFFC000000001FFFF800000000000000007FFFFFF0001FFFFF
310
FFFFE000000003FFFFFFFFE000000003FFFFFF000000000003FFF000000000FF
310
F000FF80000000007FFFFFF00007FFFF80003FFFFF80007FFF8000000000FFFF
310
F80000000007FFF800000000000000007FFFFFF0001FFFFFFFFFC000000001FF
310
FFFFFFC000000001FFFFFF000000000003FFC0000000007FF000FF0000000000
310
3FFFFFE00007FFFF00003FFFFF80007FFE00000000003FFFF00000000003FFF8
310
00000000000000007FFFFFF0001FFFFFFFFF8000000000FFFFFFFF8000000000
310
FFFFFF000000000003FF80000000003FF000FE00000000001FFFFFE00003FFFF
310
00003FFFFF80007FFC00000000001FFFE00000000001FFF8000001FFFE000000
310
7FFFFFF0001FFFFFFFFE00000000003FFFFFFE00000000003FFFFF0000000000
310
03FF00000000001FF000FC00000000000FFFFFE00003FFFF00001FFFFF80007F
310
F800000000001FFFC00000000000FFF8000001FFFE0000007FFFFFF0001FFFFF
310
FFFC00000000001FFFFFFC00000000001FFFFF000000000003FE00000000000F
310
F000F8000000000007FFFFE00003FFFF00001FFFFF80007FF800000000000FFF
310
800000000000FFF8000001FFFE0000007FFFFFF0001FFFFFFFF800000000000F
310
FFFFF800000000000FFFFF000000000003FC000000000007F000F80000000000
310
03FFFFC00003FFFE00001FFFFF80007FF0000000000007FF0000000000007FF8
310
000001FFFE0000007FFFFFF0001FFFFFFFF0000000000007FFFFF00000000000
310
07FFFF000000000003F8000000000003F000F0000000000003FFFFC00001FFFE
310
00001FFFFF80007FE0000000000007FE0000000000003FF8000001FFFE000000
310
7FFFFFF0001FFFFFFFF0000000000007FFFFF0000000000007FFFF0000000000
310
03F800001F800003F000E00001FFF00001FFFFC00001FFFE00000FFFFF80007F
310
E00001FFE00003FE00001FFF00003FF8000001FFFE0000007FFFFFF0001FFFFF
310
FFE000003E000003FFFFE000003E000003FFFF000000000003F00001FFF80001
310
F000E00007FFFC0001FFFFC00001FFFE00000FFFFF80007FC0000FFFFC0003FC
310
0000FFFFC0001FF8000001FFFE0000007FFFFFF0001FFFFFFFC00003FFE00001
310
FFFFC00003FFE00001FFFF0001FFFFFFFFF00007FFFE0001F000E0000FFFFF00
310
00FFFF800001FFFC00000FFFFF80007FC0001FFFFE0001FC0001FFFFE0001FF8
310
000001FFFE0000007FFFFFF0001FFFFFFF80000FFFF80000FFFF80000FFFF800
310
00FFFF0003FFFFFFFFE0000FFFFF8000F000C0003FFFFF8000FFFF800000FFFC
310
000007FFFF80007F80003FFFFF0001FC0003FFFFF0001FF8000001FFFE000000
310
7FFFFFF0001FFFFFFF80003FFFFE0000FFFF80003FFFFE0000FFFF0003FFFFFF
310
FFE0003FFFFF8000F000C0003FFFFF8000FFFF800000FFFC000007FFFF80007F
310
80007FFFFF8001F80007FFFFF8000FF8000001FFFE0000007FFFFFF0001FFFFF
310
FF00007FFFFF00007FFF00007FFFFF00007FFF0003FFFFFFFFE0003FFFFFC000
310
F000C0007FFFFFC000FFFF000000FFFC000007FFFF80007F8000FFFFFF8000F8
310
000FFFFFF8000FF8000001FFFE0000007FFFFFF0001FFFFFFF0000FFFFFF8000
310
7FFF0000FFFFFF80007FFF0003FFFFFFFFC0007FFFFFC00070008000FFFFFFC0
310
00FFFF000000FFF8000007FFFF80007F8000FFFFFF8000F8000FFFFFF8000FF8
310
000001FFFE0000007FFFFFF0001FFFFFFE0001FFFFFFC0003FFE0001FFFFFFC0
310
003FFF0003FFFFFFFFC0007FFFFFE00070008000FFFFFFC0007FFF0000007FF8
310
000003FFFF80007F0001FFFFFF8000F8000FFFFFF8000FF8000001FFFE000000
310
7FFFFFF0001FFFFFFE0001FFFFFFC0003FFE0001FFFFFFC0003FFF0003FFFFFF
310
FFC000FFFFFFE00070008000FFFFFFC0007FFF0000007FF8000003FFFF80007F
310
0001FFFFFF8000F8001FFFFFF8000FF8000001FFFE0000007FFFFFF0001FFFFF
310
FE0003FFFFFFE0003FFE0003FFFFFFE0003FFF0003FFFFFFFFC000FFFFFFE000
310
70008000FFFFFFC0007FFE0000007FF8000003FFFF80007F0001FFFFFF8000F0
310
001FFFFFF8000FF8000001FFFE0000007FFFFFF0001FFFFFFC0003FFFFFFE000
310
1FFC0003FFFFFFE0001FFF0003FFFFFFFFC000FFFFFFC00070008000FFFFFF80
310
007FFE0000007FF0000003FFFF80007F0001FFFFFF0000F0001FFFFFF8000FF8
310
000001FFFE0000007FFFFFF0001FFFFFFC0007FFFFFFF0001FFC0007FFFFFFF0
310
001FFF0003FFFFFFFFC000FFFFFFC00070008001FFFFFF0000FFFE0000003FF0
310
000001FFFF80007F0001FFFFFF0000F8001FFFFFF0000FF8000001FFFE000000
310
7FFFFFF0001FFFFFFC0007FFFFFFF0001FFC0007FFFFFFF0001FFF0003FFFFFF
310
FFC001FFFFFF80007000FFFFFFFFFE0000FFFE0008003FF0008001FFFF80007F
310
FFFFFFFFFC0000FFFFFFFFFFE0000FF8000001FFFE0000007FFFFFF0001FFFFF
310
F8000FFFFFFFF8000FF8000FFFFFFFF8000FFF0003FFFFFFFFFFFFFFFFFF0000
310
7000FFFFFFFFFC0000FFFC0008003FF0008001FFFF80007FFFFFFFFFF80001FF
310
FFFFFFFF80000FF8000001FFFE0000007FFFFFF0001FFFFFF8000FFFFFFFF800
310
0FF8000FFFFFFFF8000FFF0003FFFFFFFFFFFFFFFFFE0000F000FFFFFFFFE000
310
00FFFC000C003FE000C001FFFF80007FFFFFFFFFC00001FFFFFFFFFE00001FF8
310
000001FFFE0000007FFFFFF0001FFFFFF8000FFFFFFFF8000FF8000FFFFFFFF8
310
000FFF0003FFFFFFFFFFFFFFFFF00000F000FFFFFFFE000001FFFC000C001FE0
310
00C000FFFF80007FFFFFFFFE000001FFFFFFFFE000001FF80FFFFFFFFFFFFFC0
310
7FFFFFF0001FFFFFF8000FFFFFFFF8000FF8000FFFFFFFF8000FFF0003FFFFFF
310
FFFFFFFFFF800000F000FFFFFFC0000001FFFC001C001FE001C000FFFF80007F
310
FFFFFF80000003FFFFFFF80000001FF80FFFFFFFFFFFFFC07FFFFFF0001FFFFF
310
F8001FFFFFFFFC000FF8001FFFFFFFFC000FFF0003FFFFFFFFFFFFFFF0000001
310
F000FFFFF800000001FFF8001C001FE001C000FFFF80007FFFFFF800000003FF
310
FFFF800000003FF80FFFFFFFFFFFFFC07FFFFFF0001FFFFFF8001FFFFFFFFC00
310
0FF8001FFFFFFFFC000FFF0003FFFFFFFFFFFFFE00000001F000FFFFC0000000
310
03FFF8001E001FC001E000FFFF80007FFFFF8000000007FFFFFC000000003FF8
310
0FFFFFFFFFFFFFC07FFFFFF0001FFFFFF8001FFFFFFFFC000FF8001FFFFFFFFC
310
000FFF0003FFFFFFFFFFFFE000000003F000FFFE0000000007FFF8001E000FC0
310
01E0007FFF80007FFFFE0000000007FFFFE0000000007FF80FFFFFFFFFFFFFC0
310
7FFFFFF0001FFFFFF0001FFFFFFFFC0007F0001FFFFFFFFC0007FF0003FFFFFF
310
FFFFFF0000000003F000FFF80000000007FFF8001E000FC003E0007FFF80007F
310
FFF0000000000FFFFF8000000000FFF80FFFFFFFFFFFFFC07FFFFFF0001FFFFF
310
F0001FFFFFFFFC0007F0001FFFFFFFFC0007FF0003FFFFFFFFFFFC0000000007
310
F000FFE0000000000FFFF0003E000FC003E0007FFF80007FFFC0000000001FFF
310
FE0000000001FFF80FFFFFFFFFFFFFC07FFFFFF0001FFFFFF0001FFFFFFFFC00
310
07F0001FFFFFFFFC0007FF0003FFFFFFFFFFF0000000000FF000FFC000000000
310
1FFFF0003F000F8003F0003FFF80007FFF80000000003FFFF80000000003FFF8
310
0FFFFFFFFFFFFFC07FFFFFF0001FFFFFF0001FFFFFFFFC0007F0001FFFFFFFFC
310
0007FF0003FFFFFFFFFFE0000000001FF000FF00000000007FFFF0003F000780
310
03F0003FFF80007FFF00000000007FFFF00000000007FFF80FFFFFFFFFFFFFC0
310
7FFFFFF0001FFFFFF0001FFFFFFFFC0007F0001FFFFFFFFC0007FF0003FFFFFF
310
FFFF80000000007FF000FE0000000000FFFFE0003F00078007F0003FFF80007F
310
FE0000000001FFFFE0000000001FFFF80FFFFFFFFFFFFFC07FFFFFF0001FFFFF
310
F0001FFFFFFFFC0007F0001FFFFFFFFC0007FF0003FFFFFFFFFF0000000000FF
310
F000FC0000000003FFFFE0007F00078007F0003FFF80007FFC0000000007FFFF
310
C0000000007FFFF80FFFFFFFFFFFFFC07FFFFFF0001FFFFFF8001FFFFFFFFC00
310
0FF8001FFFFFFFFC000FFF0003FFFFFFFFFE0000000003FFF000FC000000000F
310
FFFFE0007F80070007F8001FFF80007FF8000000001FFFFF8000000001FFFFF8
310
0FFFFFFFFFFFFFC07FFFFFF0001FFFFFF8001FFFFFFFFC000FF8001FFFFFFFFC
310
000FFF0003FFFFFFFFFC000000000FFFF000F8000000007FFFFFE0007F800700
310
07F8001FFF80007FF000000000FFFFFF800000000FFFFFF80FFFFFFFFFFFFFC0
310
7FFFFFF0001FFFFFF8000FFFFFFFF8000FF8000FFFFFFFF8000FFF0003FFFFFF
310
FFFC000000007FFFF000F800000007FFFFFFC0007F8003000FF8001FFF80007F
310
F000000007FFFFFF000000007FFFFFF80FFFFFFFFFFFFFC07FFFFFF0001FFFFF
310
F8000FFFFFFFF8000FF8000FFFFFFFF8000FFF0003FFFFFFFFF80000000FFFFF
310
F000F0000000FFFFFFFFC000FF8003000FF8001FFF80007FE0000000FFFFFFFF
310
0000000FFFFFFFF8000001FFFE0000007FFFFFF0001FFFFFF8000FFFFFFFF800
310
0FF8000FFFFFFFF8000FFF0003FFFFFFFFF8000000FFFFFFF000F000000FFFFF
310
FFFFC000FFC002000FF8000FFF80007FE000001FFFFFFFFE000001FFFFFFFFF8
310
000001FFFE0000007FFFFFF0001FFFFFF8000FFFFFFFF8000FF8000FFFFFFFF8
310
000FFF0003FFFFFFFFF000001FFFFFFFF000E00000FFFFFFFFFFC000FFC00200
310
0FFC000FFF80007FE00001FFFFFFFFFE00001FFFFFFFFFF8000001FFFE000000
310
7FFFFFF0001FFFFFFC000FFFFFFFF8001FFC000FFFFFFFF8001FFF0003FFFFFF
310
FFF00001FFFFFFFFF000E00007FFFFFFFFFF8000FFC000001FFC000FFF80007F
310
C0000FFFFFFFFFFE0000FFFFFFFFFFF8000001FFFE0000007FFFFFF0001FFFFF
310
FC0007FFFFFFF0001FFC0007FFFFFFF0001FFF0003FFFFFFFFF00007FFFFFFFF
310
F000E0001FFFFFFFFFFF8000FFC000001FFC000FFF80007FC0003FFFFFFFFFFE
310
0001FFFFFFFFFFF8000001FFFE0000007FFFFFF0001FFFFFFC0007FFFFFFF000
310
1FFC0007FFFFFFF0001FFF0003FFFFFFFFF0001FFFFFFFFFF000E0003FFFFF00
310
03FF8001FFE000001FFC0007FF80007FC0007FFFFF0007FC0003FFFFF0003FF8
310
000001FFFE0000007FFFFFF0001FFFFFFC0003FFFFFFE0001FFC0003FFFFFFE0
310
001FFF0003FFFFFFFFF0003FFFFFFFFFF000E0003FFFFF0001FF8001FFE00000
310
1FFE0007FF80007FC0007FFFFE0003FC0007FFFFE0003FF8000001FFFE000000
310
7FFFFFF0001FFFFFFE0003FFFFFFE0003FFE0003FFFFFFE0003FFF0003FFFFFF
310
FFF0003FFFFF8001F000E0003FFFFF0001FF0001FFE000001FFE0007FF80007F
310
C0007FFFFE0003FC0007FFFFE0003FF8000001FFFE0000007FFFFFF0001FFFFF
310
FE0001FFFFFFC0003FFE0001FFFFFFC0003FFF0003FFFFFFFFF0003FFFFF0001
310
F000E0003FFFFF0003FF0001FFE000003FFE0007FF80007FC0007FFFFE0003FC
310
0007FFFFE0003FF8000001FFFE0000007FFFFFF0001FFFFFFF0001FFFFFFC000
310
7FFF0001FFFFFFC0007FFF0003FFFFFFFFF0003FFFFF0001F000E0003FFFFE00
310
03FF0003FFF000003FFE0003FF80007FC0007FFFFC0003FE0007FFFFE0003FF8
310
000001FFFE0000007FFFFFF0001FFFFFFF0000FFFFFF80007FFF0000FFFFFF80
310
007FFF0003FFFFFFFFF0003FFFFF0001F000E0003FFFFE0003FF0003FFF00000
310
3FFF0003FF80007FC0007FFFFC0007FE0007FFFFC0003FF8000001FFFE000000
310
7FFFFFF0001FFFFFFF80007FFFFF0000FFFF80007FFFFF0000FFFF0003FFFFFF
310
FFF0003FFFFF0003F000E0003FFFFC0003FE0003FFF000003FFF0003FF80007F
310
E0003FFFF80007FE0003FFFFC0007FF8000001FFFE0000007FFFFFF0001FFFFF
310
FF80003FFFFE0000FFFF80003FFFFE0000FFFF0003FFFFFFFFF0001FFFFE0003
310
F000F0001FFFF80003FE0003FFF000007FFF0001FF80007FE0003FFFF00007FE
310
0001FFFF80007FF8000001FFFE0000007FFFFFF0001FFFFFFFC0000FFFF80001
310
FFFFC0000FFFF80001FFFF0003FFFFFFFFF0001FFFFC0003F000F0000FFFF000
310
07FE0007FFF800007FFF0001FF80007FE0001FFFE00007FF0000FFFE00007FF8
310
000001FFFE0000007FFFFFF0001FFFFFFFC00003FFE00001FFFFC00003FFE000
310
01FFFF0003FFFFFFFFF8000FFFF80003F000F00003FFC00007FC0007FFF80000
310
7FFF8001FF80007FF00007FF80000FFF00007FF80000FFF8000001FFFE000000
310
7F80000000000001FFE000003E000003FFFFE000003E000003FFFF0003FFFFFF
310
FFF80003FFE00007F000F800000000000FFC0007FFF800007FFF8001FF80007F
310
F000000000000FFF000000000000FFF8000001FFFE0000007F80000000000001
310
FFF0000000000007FFFFF0000000000007FFFF0003FFFFFFFFFC00007E000007
310
F000F800000000000FFC0007FFF80000FFFF8000FF80007FF800000000001FFF
310
800000000001FFF8000001FFFE0000007F80000000000001FFF800000000000F
310
FFFFF800000000000FFFFF0003FFFFFFFFFC00000000000FF000FC0000000000
310
1FFC0007FFFC0000FFFF8000FF80007FF800000000003FFFC00000000001FFF8
310
000001FFFE0000007F80000000000001FFF800000000000FFFFFF80000000000
310
0FFFFF0003FFFFFFFFFE00000000001FF000FE00000000003FF8000FFFFC0000
310
FFFF8000FF80007FFC00000000003FFFC00000000003FFF8000001FFFE000000
310
7F80000000000001FFFC00000000001FFFFFFC00000000001FFFFF0003FFFFFF
310
FFFF00000000001FF000FF00000000003FF8000FFFFC0000FFFFC000FF80007F
310
FE00000000007FFFE00000000007FFF8000001FFFE0000007F80000000000001
310
FFFE00000000003FFFFFFE00000000003FFFFF0003FFFFFFFFFF80000000003F
310
F000FF80000000007FF8000FFFFC0001FFFFC0007F80007FFF0000000000FFFF
310
F0000000000FFFF800000000000000007F80000000000001FFFF8000000000FF
310
FFFFFF8000000000FFFFFF0003FFFFFFFFFFC0000000007FF000FFC000000000
310
FFF8000FFFFE0001FFFFC0007F80007FFF8000000001FFFFF8000000001FFFF8
310
00000000000000007F80000000000001FFFFC000000001FFFFFFFFC000000001
310
FFFFFF0003FFFFFFFFFFE000000000FFF000FFE000000003FFF0001FFFFE0001
310
FFFFC0007F80007FFFC000000007FFFFFE000000003FFFF80000000000000000
310
7F80000000000001FFFFE000000003FFFFFFFFE000000003FFFFFF0003FFFFFF
310
FFFFF000000003FFF000FFF80000000FFFF0001FFFFE0001FFFFE0007F80007F
310
FFF00000000FFFFFFF00000000FFFFF800000000000000007F80000000000001
310
FFFFF80000000FFFFFFFFFF80000000FFFFFFF0003FFFFFFFFFFFC0000000FFF
310
F000FFFE0000003FFFF0001FFFFE0003FFFFE0003F80007FFFFC0000003FFFFF
310
FFC0000003FFFFF800000000000000007F80000000000001FFFFFE0000003FFF
310
FFFFFFFE0000003FFFFFFF0003FFFFFFFFFFFF0000003FFFF000FFFF800000FF
310
FFF0001FFFFF0003FFFFE0003F80007FFFFF000001FFFFFFFFF800001FFFFFF8
310
00000000000000007F80000000000001FFFFFFC00001FFFFFFFFFFFFC00001FF
310
FFFFFF0003FFFFFFFFFFFFC00000FFFFF000FFFFF8000FFFFFFFFFFFFFFFFFFF
310
FFFFFFFFFFFFFFFFFFFFF0001FFFFFFFFFFF0000FFFFFFF80000000000000000
310
7FFFFFFFFFFFFFFFFFFFFFFC001FFFFFFFFFFFFFFC001FFFFFFFFFFFFFFFFFFF
310
FFFFFFFC001FFFFFF000FFFFFFFFFFFFFFFFFFFFFFFFFFFFFFFFFFFFFFFFFFFF
310
FFFFFFFFFFFFFFFFFFFFFFFFFFFFFFFFFFFFFFFFFFFFFFFFFFFFFFFFFFFFFFFF
310
FFFFFFFFFFFFFFFFFFFFFFFFFFFFFFFFFFFFFFFFFFFFFFFFFFFFFFFFFFFFFFFF
310
F000FFFFFFFFFFFFFFFFFFFFFFFFFFFFFFFFFFFFFFFFFFFFFFFFFFFFFFFFFFFF
310
FFFFFFFFFFFFFFFFFFFFFFFFFFFFFFFFFFFFFFFFFFFFFFFFFFFFFFFFFFFFFFFF
310
FFFFFFFFFFFFFFFFFFFFFFFFFFFFFFFFFFFFFFFFFFFFFFFFF000FFFFFFFFFFFF
310
FFFFFFFFFFFFFFFFFFFFFFFFFFFFFFFFFFFFFFFFFFFFFFFFFFFFFFFFFFFFFFFF
310
FFFFFFFFFFFFFFFFFFFFFFFFFFFFFFFFFFFFFFFFFFFFFFFFFFFFFFFFFFFFFFFF
310
FFFFFFFFFFFFFFFFFFFFFFFFFFFFFFFFF000FFFFFFFFFFFFFFFFFFFFFFFFFFFF
310
FFFFFFFFFFFFFFFFFFFFFFFFFFFFFFFFFFFFFFFFFFFFFFFFFFFFFFFFFFFFFFFF
310
FFFFFFFFFFFFFFFFFFFFFFFFFFFFFFFFFFFFFFFFFFFFFFFFFFFFFFFFFFFFFFFF
310
FFFFFFFFFFFFFFFFF000FFFFFFFFFFFFFFFFFFFFFFFFFFFFFFFFFFFFFFFFFFFF
310
FFFFFFFFFFFFFFFFFFFFFFFFFFFFFFFFFFFFFFFFFFFFFFFFFFFFFFFFFFFFFFFF
310
FFFFFFFFFFFFFFFFFFFFFFFFFFFFFFFFFFFFFFFFFFFFFFFFFFFFFFFFFFFFFFFF
310
F000FFFFFFFFFFFFFFFFFFFFFFFFFFFFFFFFFFFFFFFFFFFFFFFFFFFFFFFFFFFF
310
FFFFFFFFFFFFFFFFFFFFFFFFFFFFFFFFFFFFFFFFFFFFFFFFFFFFFFFFFFFFFFFF
310
FFFFFFFFFFFFFFFFFFFFFFFFFFFFFFFFFFFFFFFFFFFFFFFFF000FFFFFFFFFFFF
310
FFFFFFFFFFFFFFFFFFFFFFFFFFFFFFFFFFFFFFFFFFFFFFFFFFFFFFFFFFFFFFFF
310
FFFFFFFFFFFFFFFFFFFFFFFFFFFFFFFFFFFFFFFFFFFFFFFFFFFFFFFFFFFFFFFF
310
FFFFFFFFFFFFFFFFFFFFFFFFFFFFFFFFF000FFFFFFFFFFFFFFFFFFFFFFFFFFFF
310
FFFFFFFFFFFFFFFFFFFFFFFFFFFFFFFFFFFFFFFFFFFFFFFFFFFFFFFFFFFFFFFF
310
FFFFFFFFFFFFFFFFFFFFFFFFFFFFFFFFFFFFFFFFFFFFFFFFFFFFFFFFFFFFFFFF
310
FFFFFFFFFFFFFFFFF000FFFFFFFFFFFFFFFFFFFFFFFFFFFFFFFFFFFFFFFFFFFF
310
FFFFFFFFFFFFFFFFFFFFFFFFFFFFFFFFFFFFFFFFFFFFFFFFFFFFFFFFFFFFFFFF
310
FFFFFFFFFFFFFFFFFFFFFFFFFFFFFFFFFFFFFFFFFFFFFFFFFFFFFFFFFFFFFFFF
310
F000FFFFFFFFFFFFFFFFFFFFFFFFFFFFFFFFFFFFFFFFFFFFFFFFFFFFFFFFFFFF
310
FFFFFFFFFFFFFFFFFFFFFFFFFFFFFFFFFFFFFFFFFFFFFFFFFFFFFFFFFFFFFFFF
310
FFFFFFFFFFFFFFFFFFFFFFFFFFFFFFFFFFFFFFFFFFFFFFFFF000FFFFFFFFFFFF
310
FFFFFFFFFFFFFFFFFFFFFFFFFFFFFFFFFFFFFFFFFFFFFFFFFFFFFFFFFFFFFFFF
310
FFFFFFFFFFFFFFFFFFFFFFFFFFFFFFFFFFFFFFFFFFFFFFFFFFFFFFFFFFFFFFFF
310
FFFFFFFFFFFFFFFFFFFFFFFFFFFFFFFFF000FFFFFFFFFFFFFFFFFFFFFFFFFFFF
310
FFFFFFFFFFFFFFFFFFFFFFFFFFFFFFFFFFFFFFFFFFFFFFFFFFFFFFFFFFFFFFFF
310
FFFFFFFFFFFFFFFFFFFFFFFFFFFFFFFFFFFFFFFFFFFFFFFFFFFFFFFFFFFFFFFF
310
FFFFFFFFFFFFFFFFF000FFFFFFFFFFFFFFFFFFFFFFFFFFFFFFFFFFFFFFFFFFFF
310
FFFFFFFFFFFFFFFFFFFFFFFFFFFFFFFFFFFFFFFFFFFFFFFFFFFFFFFFFFFFFFFF
310
FFFFFFFFFFFFFFFFFFFFFFFFFFFFFFFFFFFFFFFFFFFFFFFFFFFFFFFFFFFFFFFF
310
F000FFFFFFFFFFFFFFFFFFFFFFFFFFFFFFFFFFFFFFFFFFFFFFFFFFFFFFFFFFFF
310
FFFFFFFFFFFFFFFFFFFFFFFFFFFFFFFFFFFFFFFFFFFFFFFFFFFFFFFFFFFFFFFF
310
FFFFFFFFFFFFFFFFFFFFFFFFFFFFFFFFFFFFFFFFFFFFFFFFF000FFFFFFFFFFFF
310
FFFFFFFFFFFFFFFFFFFFFFFFFFFFFFFFFFFFFFFFFFFFFFFFFFFFFFFFFFFFFFFF
310
FFFFFFFFFFFFFFFFFFFFFFFFFFFFFFFFFFFFFFFFFFFFFFFFFFFFFFFFFFFFFFFF
310
FFFFFFFFFFFFFFFFFFFFFFFFFFFFFFFFF000FFFFFFFFFFFFFFFFFFFFFFFFFFFF
310
FFFFFFFFFFFFFFFFFFFFFFFFFFFFFFFFFFFFFFFFFFFFFFFFFFFFFFFFFFFFFFFF
310
FFFFFFFFFFFFFFFFFFFFFFFFFFFFFFFFFFFFFFFFFFFFFFFFFFFFFFFFFFFFFFFF
310
FFFFFFFFFFFFFFFFF000FFFFFFFFFFFFFFFFFFFFFFFFFFFFFFFFFFFFFFFFFFFF
310
FFFFFFFFFFFFFFFFFFFFFFFFFFFFFFFFFFFFFFFFFFFFFFFFFFFFFFFFFFFFFFFF
310
FFFFFFFFFFFFFFFFFFFFFFFFFFFFFFFFFFFFFFFFFFFFFFFFFFFFFFFFFFFFFFFF
310
F000FFFFFFFFFFFFFFFFFFFFFFFFFFFFFFFFFFFFFFFFFFFFFFFFFFFFFFFFFFFF
310
FFFFFFFFFFFFFFFFFFFFFFFFFFFFFFFFFFFFFFFFFFFFFFFFFFFFFFFFFFFFFFFF
310
FFFFFFFFFFFFFFFFFFFFFFFFFFFFFFFFFFFFFFFFFFFFFFFFF000FFFFFFFFFFFF
310
FFFFFFFFFFFFFFFFFFFFFFFFFFFFFFFFFFFFFFFFFFFFFFFFFFFFFFFFFFFFFFFF
310
FFFFFFFFFFFFFFFFFFFFFFFFFFFFFFFFFFFFFFFFFFFFFFFFFFFFFFFFFFFFFFFF
310
FFFFFFFFFFFFFFFFFFFFFFFFFFFFFFFFF000FFFFFFFFFFFFFFFFFFFFFFFFFFFF
310
FFFFFFFFFFFFFFFFFFFFFFFFFFFFFFFFFFFFFFFFFFFFFFFFFFFFFFFFFFFFFFFF
310
FFFFFFFFFFFFFFFFFFFFFFFFFFFFFFFFFFFFFFFFFFFFFFFFFFFFFFFFFFFFFFFF
310
FFFFFFFFFFFFFFFFF000FFFFFFFFFFFFFFFFFFFFFFFFFFFFFFFFFFFFFFFFFFFF
310
FFFFFFFFFFFFFFFFFFFFFFFFFFFFFFFFFFFFFFFFFFFFFFFFFFFFFFFFFFFFFFFF
310
FFFFFFFFFFFFFFFFFFFFFFFFFFFFFFFFFFFFFFFFFFFFFFFFFFFFFFFFFFFFFFFF
310
F000FFFFFFFFFFFFFFFFFFFFFFFFFFFFFFFFFFFFFFFFFFFFFFFFFFFFFFFFFFFF
310
FFFFFFFFFFFFFFFFFFFFFFFFFFFFFFFFFFFFFFFFFFFFFFFFFFFFFFFFFFFFFFFF
310
FFFFFFFFFFFFFFFFFFFFFFFFFFFFFFFFFFFFFFFFFFFFFFFFF000FFFFFFFFFFFF
310
FFFFFFFFFFFFFFFFFFFFFFFFFFFFFFFFFFFFFFFFFFFFFFFFFFFFFFFFFFFFFFFF
310
FFFFFFFFFFFFFFFFFFFFFFFFFFFFFFFFFFFFFFFFFFFFFFFFFFFFFFFFFFFFFFFF
310
FFFFFFFFFFFFFFFFFFFFFFFFFFFFFFFFF0000000000000000000000000000000
310
0000000000000000000000000000000000000000000000000000000000000000
310
0000000000000000000000000000000000000000000000000000000000000000
310
0000000000000000000000000000000000000000000000000000000000000000
310
0000000000000000000000000000000000000000000000000000000000000000
310
0000000000000000000000000000000000000000000000000000000000000000
310
0000000000000000000000000000000000000000000000000000000000000000
310
0000000000000000000000000000000000000000000000000000000000000000
310
0000000000000000000000000000000000000000000000000000000000000000
310
0000000000000000000000000000000000000000000000000000000000000000
310
0000000000000000000000000000000000000000000000000000000000000000
310
0000000000000000000000000000000000000000000000000000000000000000
310
0000000000000000000000000000000000000000000000000000000000000000
310
0000000000000000000000000000000000000000000000000000000000000000
310
0000000000000000000000000000000000000000000000000000000000000000
310
0000000000000000000000000000000000000000000000000000000000000000
  1
OLE
  0
ENDSEC
  0
SECTION
  2
OBJECTS
  0
DICTIONARY
  5
C
330
0
100
AcDbDictionary
281
     1
  3
ACAD_GROUP
350
D
  3
ACAD_LAYOUT
350
1A
  3
ACAD_MLINESTYLE
350
17
  3
ACAD_PLOTSETTINGS
350
19
  3
ACAD_PLOTSTYLENAME
350
E
  3
ACAD_SCALELIST
350
47
  0
DICTIONARY
  5
D
102
{ACAD_REACTORS
330
C
102
}
330
C
100
AcDbDictionary
281
     1
  0
DICTIONARY
  5
1A
102
{ACAD_REACTORS
330
C
102
}
330
C
100
AcDbDictionary
281
     1
  3
Layout1
350
1E
  3
Layout2
350
26
  3
Model
350
22
  0
DICTIONARY
  5
17
102
{ACAD_REACTORS
330
C
102
}
330
C
100
AcDbDictionary
281
     1
  3
Standard
350
18
  0
DICTIONARY
  5
19
102
{ACAD_REACTORS
330
C
102
}
330
C
100
AcDbDictionary
281
     1
  0
ACDBDICTIONARYWDFLT
  5
E
102
{ACAD_REACTORS
330
C
102
}
330
C
100
AcDbDictionary
281
     1
  3
Normal
350
F
100
AcDbDictionaryWithDefault
340
F
  0
DICTIONARY
  5
47
102
{ACAD_REACTORS
330
C
102
}
330
C
100
AcDbDictionary
281
     1
  3
A0
350
48
  3
A1
350
49
  3
A2
350
4A
  3
A3
350
4B
  3
A4
350
4C
  3
A5
350
4D
  3
A6
350
4E
  3
A7
350
4F
  3
A8
350
50
  3
A9
350
51
  3
B0
350
52
  3
B1
350
53
  3
B2
350
54
  3
B3
350
55
  3
B4
350
56
  3
B5
350
57
  3
B6
350
58
  3
B7
350
59
  3
B8
350
5A
  3
B9
350
5B
  3
C0
350
5C
  3
C1
350
5D
  3
C2
350
5E
  3
C3
350
5F
  3
C4
350
60
  3
C5
350
61
  3
C6
350
62
  3
C7
350
63
  3
C8
350
64
  3
C9
350
65
  3
D0
350
66
  3
D1
350
67
  3
D2
350
68
  0
LAYOUT
  5
1E
102
{ACAD_REACTORS
330
1A
102
}
330
1A
100
AcDbPlotSettings
  1

  2
none_device
  4

  6

 40
0.0
 41
0.0
 42
0.0
 43
0.0
 44
0.0
 45
0.0
 46
0.0
 47
0.0
 48
0.0
 49
0.0
140
0.0
141
0.0
142
1.0
143
1.0
 70
   688
 72
     1
 73
     0
 74
     5
  7

 75
    16
147
1.0
148
0.0
149
0.0
100
AcDbLayout
  1
Layout1
 70
     1
 71
     1
 10
0.0
 20
0.0
 11
420.0
 21
297.0
 12
0.0
 22
0.0
 32
0.0
 14
1.0000000000E+20
 24
1.0000000000E+20
 34
1.0000000000E+20
 15
-1.0000000000E+20
 25
-1.0000000000E+20
 35
-1.0000000000E+20
146
0.0
 13
0.0
 23
0.0
 33
0.0
 16
1.0
 26
0.0
 36
0.0
 17
0.0
 27
1.0
 37
0.0
 76
     0
330
1B
  0
LAYOUT
  5
26
102
{ACAD_REACTORS
330
1A
102
}
330
1A
100
AcDbPlotSettings
  1

  2
none_device
  4

  6

 40
0.0
 41
0.0
 42
0.0
 43
0.0
 44
0.0
 45
0.0
 46
0.0
 47
0.0
 48
0.0
 49
0.0
140
0.0
141
0.0
142
1.0
143
1.0
 70
   688
 72
     1
 73
     0
 74
     5
  7

 75
    16
147
1.0
148
0.0
149
0.0
100
AcDbLayout
  1
Layout2
 70
     1
 71
     2
 10
0.0
 20
0.0
 11
0.0
 21
0.0
 12
0.0
 22
0.0
 32
0.0
 14
0.0
 24
0.0
 34
0.0
 15
0.0
 25
0.0
 35
0.0
146
0.0
 13
0.0
 23
0.0
 33
0.0
 16
1.0
 26
0.0
 36
0.0
 17
0.0
 27
1.0
 37
0.0
 76
     0
330
23
  0
LAYOUT
  5
22
102
{ACAD_REACTORS
330
1A
102
}
330
1A
100
AcDbPlotSettings
  1

  2
none_device
  4
Letter_(8.50_x_11.00_Inches)
  6

 40
6.35
 41
6.35
 42
6.35000508
 43
6.35000508
 44
215.9
 45
279.4
 46
0.0
 47
0.0
 48
0.0
 49
0.0
140
0.0
141
0.0
142
1.0
143
1.0
 70
  1712
 72
     1
 73
     0
 74
     0
  7

 75
     0
147
1.0
148
0.0
149
0.0
100
AcDbLayout
  1
Model
 70
     1
 71
     0
 10
0.0
 20
0.0
 11
297.0
 21
210.0
 12
0.0
 22
0.0
 32
0.0
 14
0.0
 24
0.0
 34
0.0
 15
297.0
 25
210.0
 35
0.0
146
0.0
 13
0.0
 23
0.0
 33
0.0
 16
1.0
 26
0.0
 36
0.0
 17
0.0
 27
1.0
 37
0.0
 76
     0
330
1F
331
29
  0
MLINESTYLE
  5
18
102
{ACAD_REACTORS
330
17
102
}
330
17
100
AcDbMlineStyle
  2
Standard
 70
     0
  3

 62
   256
 51
90.0
 52
90.0
 71
     2
 49
0.5
 62
   256
  6
BYLAYER
 49
-0.5
 62
   256
  6
BYLAYER
  0
ACDBPLACEHOLDER
  5
F
102
{ACAD_REACTORS
330
E
102
}
330
E
  0
SCALE
  5
48
102
{ACAD_REACTORS
330
47
102
}
330
47
100
AcDbScale
 70
     0
300
1:1
140
1.0
141
1.0
290
     1
  0
SCALE
  5
49
102
{ACAD_REACTORS
330
47
102
}
330
47
100
AcDbScale
 70
     0
300
1:2
140
1.0
141
2.0
290
     0
  0
SCALE
  5
4A
102
{ACAD_REACTORS
330
47
102
}
330
47
100
AcDbScale
 70
     0
300
1:4
140
1.0
141
4.0
290
     0
  0
SCALE
  5
4B
102
{ACAD_REACTORS
330
47
102
}
330
47
100
AcDbScale
 70
     0
300
1:5
140
1.0
141
5.0
290
     0
  0
SCALE
  5
4C
102
{ACAD_REACTORS
330
47
102
}
330
47
100
AcDbScale
 70
     0
300
1:8
140
1.0
141
8.0
290
     0
  0
SCALE
  5
4D
102
{ACAD_REACTORS
330
47
102
}
330
47
100
AcDbScale
 70
     0
300
1:10
140
1.0
141
10.0
290
     0
  0
SCALE
  5
4E
102
{ACAD_REACTORS
330
47
102
}
330
47
100
AcDbScale
 70
     0
300
1:16
140
1.0
141
16.0
290
     0
  0
SCALE
  5
4F
102
{ACAD_REACTORS
330
47
102
}
330
47
100
AcDbScale
 70
     0
300
1:20
140
1.0
141
20.0
290
     0
  0
SCALE
  5
50
102
{ACAD_REACTORS
330
47
102
}
330
47
100
AcDbScale
 70
     0
300
1:30
140
1.0
141
30.0
290
     0
  0
SCALE
  5
51
102
{ACAD_REACTORS
330
47
102
}
330
47
100
AcDbScale
 70
     0
300
1:40
140
1.0
141
40.0
290
     0
  0
SCALE
  5
52
102
{ACAD_REACTORS
330
47
102
}
330
47
100
AcDbScale
 70
     0
300
1:50
140
1.0
141
50.0
290
     0
  0
SCALE
  5
53
102
{ACAD_REACTORS
330
47
102
}
330
47
100
AcDbScale
 70
     0
300
1:100
140
1.0
141
100.0
290
     0
  0
SCALE
  5
54
102
{ACAD_REACTORS
330
47
102
}
330
47
100
AcDbScale
 70
     0
300
2:1
140
2.0
141
1.0
290
     0
  0
SCALE
  5
55
102
{ACAD_REACTORS
330
47
102
}
330
47
100
AcDbScale
 70
     0
300
4:1
140
4.0
141
1.0
290
     0
  0
SCALE
  5
56
102
{ACAD_REACTORS
330
47
102
}
330
47
100
AcDbScale
 70
     0
300
8:1
140
8.0
141
1.0
290
     0
  0
SCALE
  5
57
102
{ACAD_REACTORS
330
47
102
}
330
47
100
AcDbScale
 70
     0
300
10:1
140
10.0
141
1.0
290
     0
  0
SCALE
  5
58
102
{ACAD_REACTORS
330
47
102
}
330
47
100
AcDbScale
 70
     0
300
100:1
140
100.0
141
1.0
290
     0
  0
SCALE
  5
59
102
{ACAD_REACTORS
330
47
102
}
330
47
100
AcDbScale
 70
     0
300
1/128" = 1'-0"
140
0.0078125
141
12.0
290
     0
  0
SCALE
  5
5A
102
{ACAD_REACTORS
330
47
102
}
330
47
100
AcDbScale
 70
     0
300
1/64" = 1'-0"
140
0.015625
141
12.0
290
     0
  0
SCALE
  5
5B
102
{ACAD_REACTORS
330
47
102
}
330
47
100
AcDbScale
 70
     0
300
1/32" = 1'-0"
140
0.03125
141
12.0
290
     0
  0
SCALE
  5
5C
102
{ACAD_REACTORS
330
47
102
}
330
47
100
AcDbScale
 70
     0
300
1/16" = 1'-0"
140
0.0625
141
12.0
290
     0
  0
SCALE
  5
5D
102
{ACAD_REACTORS
330
47
102
}
330
47
100
AcDbScale
 70
     0
300
3/32" = 1'-0"
140
0.09375
141
12.0
290
     0
  0
SCALE
  5
5E
102
{ACAD_REACTORS
330
47
102
}
330
47
100
AcDbScale
 70
     0
300
1/8" = 1'-0"
140
0.125
141
12.0
290
     0
  0
SCALE
  5
5F
102
{ACAD_REACTORS
330
47
102
}
330
47
100
AcDbScale
 70
     0
300
3/16" = 1'-0"
140
0.1875
141
12.0
290
     0
  0
SCALE
  5
60
102
{ACAD_REACTORS
330
47
102
}
330
47
100
AcDbScale
 70
     0
300
1/4" = 1'-0"
140
0.25
141
12.0
290
     0
  0
SCALE
  5
61
102
{ACAD_REACTORS
330
47
102
}
330
47
100
AcDbScale
 70
     0
300
3/8" = 1'-0"
140
0.375
141
12.0
290
     0
  0
SCALE
  5
62
102
{ACAD_REACTORS
330
47
102
}
330
47
100
AcDbScale
 70
     0
300
1/2" = 1'-0"
140
0.5
141
12.0
290
     0
  0
SCALE
  5
63
102
{ACAD_REACTORS
330
47
102
}
330
47
100
AcDbScale
 70
     0
300
3/4" = 1'-0"
140
0.75
141
12.0
290
     0
  0
SCALE
  5
64
102
{ACAD_REACTORS
330
47
102
}
330
47
100
AcDbScale
 70
     0
300
1" = 1'-0"
140
1.0
141
12.0
290
     0
  0
SCALE
  5
65
102
{ACAD_REACTORS
330
47
102
}
330
47
100
AcDbScale
 70
     0
300
1-1/2" = 1'-0"
140
1.5
141
12.0
290
     0
  0
SCALE
  5
66
102
{ACAD_REACTORS
330
47
102
}
330
47
100
AcDbScale
 70
     0
300
3" = 1'-0"
140
3.0
141
12.0
290
     0
  0
SCALE
  5
67
102
{ACAD_REACTORS
330
47
102
}
330
47
100
AcDbScale
 70
     0
300
6" = 1'-0"
140
6.0
141
12.0
290
     0
  0
SCALE
  5
68
102
{ACAD_REACTORS
330
47
102
}
330
47
100
AcDbScale
 70
     0
300
1'-0" = 1'-0"
140
12.0
141
12.0
290
     0
  0
ENDSEC
  0
EOF
