  0
SECTION
  2
HEADER
  9
$ACADVER
  1
AC1015
  9
$ACADMAINTVER
 70
     6
  9
$DWGCODEPAGE
  3
ANSI_1252
  9
$INSBASE
 10
0.0
 20
0.0
 30
0.0
  9
$EXTMIN
 10
0.0
 20
0.0
 30
0.0
  9
$EXTMAX
 10
297.0
 20
210.0
 30
0.0
  9
$LIMMIN
 10
0.0
 20
0.0
  9
$LIMMAX
 10
297.0
 20
210.0
  9
$ORTHOMODE
 70
     0
  9
$REGENMODE
 70
     1
  9
$FILLMODE
 70
     1
  9
$QTEXTMODE
 70
     0
  9
$MIRRTEXT
 70
     1
  9
$LTSCALE
 40
1.0
  9
$ATTMODE
 70
     1
  9
$TEXTSIZE
 40
2.0
  9
$TRACEWID
 40
1.0
  9
$TEXTSTYLE
  7
Standard
  9
$CLAYER
  8
0
  9
$CELTYPE
  6
ByLayer
  9
$CECOLOR
 62
   256
  9
$CELTSCALE
 40
1.0
  9
$DISPSILH
 70
     0
  9
$DIMSCALE
 40
1.0
  9
$DIMASZ
 40
3.0
  9
$DIMEXO
 40
0.0
  9
$DIMDLI
 40
3.75
  9
$DIMRND
 40
0.0
  9
$DIMDLE
 40
0.0
  9
$DIMEXE
 40
1.0
  9
$DIMTP
 40
0.0
  9
$DIMTM
 40
0.0
  9
$DIMTXT
 40
2.0
  9
$DIMCEN
 40
2.5
  9
$DIMTSZ
 40
0.0
  9
$DIMTOL
 70
     0
  9
$DIMLIM
 70
     0
  9
$DIMTIH
 70
     1
  9
$DIMTOH
 70
     1
  9
$DIMSE1
 70
     0
  9
$DIMSE2
 70
     0
  9
$DIMTAD
 70
     1
  9
$DIMZIN
 70
     0
  9
$DIMBLK
  1

  9
$DIMASO
 70
     1
  9
$DIMSHO
 70
     1
  9
$DIMPOST
  1

  9
$DIMAPOST
  1

  9
$DIMALT
 70
     0
  9
$DIMALTD
 70
     3
  9
$DIMALTF
 40
0.0393700787
  9
$DIMLFAC
 40
1.0
  9
$DIMTOFL
 70
     1
  9
$DIMTVP
 40
0.0
  9
$DIMTIX
 70
     0
  9
$DIMSOXD
 70
     0
  9
$DIMSAH
 70
     0
  9
$DIMBLK1
  1

  9
$DIMBLK2
  1

  9
$DIMSTYLE
  2
ISO-25
  9
$DIMCLRD
 70
     0
  9
$DIMCLRE
 70
     0
  9
$DIMCLRT
 70
     0
  9
$DIMTFAC
 40
1.0
  9
$DIMGAP
 40
1.524
  9
$DIMJUST
 70
     0
  9
$DIMSD1
 70
     0
  9
$DIMSD2
 70
     0
  9
$DIMTOLJ
 70
     0
  9
$DIMTZIN
 70
     0
  9
$DIMALTZ
 70
     0
  9
$DIMALTTZ
 70
     0
  9
$DIMUPT
 70
     0
  9
$DIMDEC
 70
     2
  9
$DIMTDEC
 70
     3
  9
$DIMALTU
 70
     2
  9
$DIMALTTD
 70
     3
  9
$DIMTXSTY
  7
Standard
  9
$DIMAUNIT
 70
     0
  9
$DIMADEC
 70
     2
  9
$DIMALTRND
 40
0.0
  9
$DIMAZIN
 70
     0
  9
$DIMDSEP
 70
    44
  9
$DIMATFIT
 70
     3
  9
$DIMFRAC
 70
     0
  9
$DIMLDRBLK
  1

  9
$DIMLUNIT
 70
     2
  9
$DIMLWD
 70
    -2
  9
$DIMLWE
 70
    -2
  9
$DIMTMOVE
 70
     0
  9
$LUNITS
 70
     2
  9
$LUPREC
 70
     2
  9
$SKETCHINC
 40
1.0
  9
$FILLETRAD
 40
10.0
  9
$AUNITS
 70
     0
  9
$AUPREC
 70
     2
  9
$MENU
  1
.
  9
$ELEVATION
 40
0.0
  9
$PELEVATION
 40
0.0
  9
$THICKNESS
 40
0.0
  9
$LIMCHECK
 70
     0
  9
$CHAMFERA
 40
0.0
  9
$CHAMFERB
 40
0.0
  9
$CHAMFERC
 40
0.0
  9
$CHAMFERD
 40
0.0
  9
$SKPOLY
 70
     0
  9
$TDCREATE
 40
2457632.664098206
  9
$TDUCREATE
 40
2457632.580764872
  9
$TDUPDATE
 40
2457632.664099699
  9
$TDUUPDATE
 40
2457632.580766366
  9
$TDINDWG
 40
0.0000000116
  9
$TDUSRTIMER
 40
0.0000000116
  9
$USRTIMER
 70
     1
  9
$ANGBASE
 50
0.0
  9
$ANGDIR
 70
     0
  9
$PDMODE
 70
     0
  9
$PDSIZE
 40
-1.0
  9
$PLINEWID
 40
0.0
  9
$SPLFRAME
 70
     0
  9
$SPLINETYPE
 70
     6
  9
$SPLINESEGS
 70
     8
  9
$HANDSEED
  5
2C7
  9
$SURFTAB1
 70
     6
  9
$SURFTAB2
 70
     6
  9
$SURFTYPE
 70
     6
  9
$SURFU
 70
     6
  9
$SURFV
 70
     6
  9
$UCSBASE
  2

  9
$UCSNAME
  2

  9
$UCSORG
 10
0.0
 20
0.0
 30
0.0
  9
$UCSXDIR
 10
1.0
 20
0.0
 30
0.0
  9
$UCSYDIR
 10
0.0
 20
1.0
 30
0.0
  9
$UCSORTHOREF
  2

  9
$UCSORTHOVIEW
 70
     0
  9
$UCSORGTOP
 10
0.0
 20
0.0
 30
0.0
  9
$UCSORGBOTTOM
 10
0.0
 20
0.0
 30
0.0
  9
$UCSORGLEFT
 10
0.0
 20
0.0
 30
0.0
  9
$UCSORGRIGHT
 10
0.0
 20
0.0
 30
0.0
  9
$UCSORGFRONT
 10
0.0
 20
0.0
 30
0.0
  9
$UCSORGBACK
 10
0.0
 20
0.0
 30
0.0
  9
$PUCSBASE
  2

  9
$PUCSNAME
  2

  9
$PUCSORG
 10
0.0
 20
0.0
 30
0.0
  9
$PUCSXDIR
 10
1.0
 20
0.0
 30
0.0
  9
$PUCSYDIR
 10
0.0
 20
1.0
 30
0.0
  9
$PUCSORTHOREF
  2

  9
$PUCSORTHOVIEW
 70
     0
  9
$PUCSORGTOP
 10
0.0
 20
0.0
 30
0.0
  9
$PUCSORGBOTTOM
 10
0.0
 20
0.0
 30
0.0
  9
$PUCSORGLEFT
 10
0.0
 20
0.0
 30
0.0
  9
$PUCSORGRIGHT
 10
0.0
 20
0.0
 30
0.0
  9
$PUCSORGFRONT
 10
0.0
 20
0.0
 30
0.0
  9
$PUCSORGBACK
 10
0.0
 20
0.0
 30
0.0
  9
$USERI1
 70
     0
  9
$USERI2
 70
     0
  9
$USERI3
 70
     0
  9
$USERI4
 70
     0
  9
$USERI5
 70
     0
  9
$USERR1
 40
0.0
  9
$USERR2
 40
0.0
  9
$USERR3
 40
0.0
  9
$USERR4
 40
0.0
  9
$USERR5
 40
0.0
  9
$WORLDVIEW
 70
     1
  9
$SHADEDGE
 70
     3
  9
$SHADEDIF
 70
    70
  9
$TILEMODE
 70
     1
  9
$MAXACTVP
 70
    64
  9
$PINSBASE
 10
0.0
 20
0.0
 30
0.0
  9
$PLIMCHECK
 70
     0
  9
$PEXTMIN
 10
1.0000000000E+20
 20
1.0000000000E+20
 30
1.0000000000E+20
  9
$PEXTMAX
 10
-1.0000000000E+20
 20
-1.0000000000E+20
 30
-1.0000000000E+20
  9
$PLIMMIN
 10
0.0
 20
0.0
  9
$PLIMMAX
 10
420.0
 20
297.0
  9
$UNITMODE
 70
     0
  9
$VISRETAIN
 70
     1
  9
$PLINEGEN
 70
     0
  9
$PSLTSCALE
 70
     1
  9
$TREEDEPTH
 70
  3020
  9
$CMLSTYLE
  2
Standard
  9
$CMLJUST
 70
     0
  9
$CMLSCALE
 40
20.0
  9
$PROXYGRAPHICS
 70
     1
  9
$MEASUREMENT
 70
     1
  9
$CELWEIGHT
370
    -1
  9
$ENDCAPS
280
     0
  9
$JOINSTYLE
280
     0
  9
$LWDISPLAY
290
     1
  9
$INSUNITS
 70
     4
  9
$HYPERLINKBASE
  1

  9
$STYLESHEET
  1

  9
$XEDIT
290
     1
  9
$CEPSNTYPE
380
     0
  9
$PSTYLEMODE
290
     1
  9
$FINGERPRINTGUID
  2
{C3DA8CBF-0C5E-47FE-A5DA-62F7C1506E13}
  9
$VERSIONGUID
  2
{FAEB1C32-E019-11D5-929B-00C0DF256EC4}
  9
$EXTNAMES
290
     1
  9
$PSVPSCALE
 40
0.0
  9
$OLESTARTUP
290
     0
  0
ENDSEC
  0
SECTION
  2
CLASSES
  0
CLASS
  1
ACDBDICTIONARYWDFLT
  2
AcDbDictionaryWithDefault
  3
ObjectDBX Classes
 90
        0
280
     0
281
     0
  0
CLASS
  1
VISUALSTYLE
  2
AcDbVisualStyle
  3
ObjectDBX Classes
 90
     4095
280
     0
281
     0
  0
CLASS
  1
MATERIAL
  2
AcDbMaterial
  3
ObjectDBX Classes
 90
     1153
280
     0
281
     0
  0
CLASS
  1
SCALE
  2
AcDbScale
  3
ObjectDBX Classes
 90
     1153
280
     0
281
     0
  0
CLASS
  1
TABLESTYLE
  2
AcDbTableStyle
  3
ObjectDBX Classes
 90
     4095
280
     0
281
     0
  0
CLASS
  1
MLEADERSTYLE
  2
AcDbMLeaderStyle
  3
ACDB_MLEADERSTYLE_CLASS
 90
     4095
280
     0
281
     0
  0
CLASS
  1
SUN
  2
AcDbSun
  3
SCENEOE
 90
     1153
280
     0
281
     0
  0
CLASS
  1
ACDBPLACEHOLDER
  2
AcDbPlaceHolder
  3
ObjectDBX Classes
 90
        0
280
     0
281
     0
  0
CLASS
  1
LAYOUT
  2
AcDbLayout
  3
ObjectDBX Classes
 90
        0
280
     0
281
     0
  0
ENDSEC
  0
SECTION
  2
TABLES
  0
TABLE
  2
VPORT
  5
8
330
0
100
AcDbSymbolTable
 70
     1
  0
VPORT
  5
29
330
8
100
AcDbSymbolTableRecord
100
AcDbViewportTableRecord
  2
*Active
 70
     0
 10
0.0
 20
0.0
 11
1.0
 21
1.0
 12
148.5
 22
105.0
 13
0.0
 23
0.0
 14
10.0
 24
10.0
 15
10.0
 25
10.0
 16
0.0
 26
0.0
 36
1.0
 17
0.0
 27
0.0
 37
0.0
 40
210.0
 41
1.4142857143
 42
50.0
 43
0.0
 44
0.0
 50
0.0
 51
0.0
 71
     0
 72
  2000
 73
     1
 74
     3
 75
     0
 76
     0
 77
     0
 78
     0
281
     0
 65
     1
110
0.0
120
0.0
130
0.0
111
1.0
121
0.0
131
0.0
112
0.0
122
1.0
132
0.0
 79
     0
146
0.0
  0
ENDTAB
  0
TABLE
  2
LTYPE
  5
5
330
0
100
AcDbSymbolTable
 70
     6
  0
LTYPE
  5
14
330
5
100
AcDbSymbolTableRecord
100
AcDbLinetypeTableRecord
  2
ByBlock
 70
     0
  3

 72
    65
 73
     0
 40
0.0
  0
LTYPE
  5
15
330
5
100
AcDbSymbolTableRecord
100
AcDbLinetypeTableRecord
  2
ByLayer
 70
     0
  3

 72
    65
 73
     0
 40
0.0
  0
LTYPE
  5
16
330
5
100
AcDbSymbolTableRecord
100
AcDbLinetypeTableRecord
  2
Continuous
 70
     0
  3
Solid line
 72
    65
 73
     0
 40
0.0
  0
LTYPE
  5
6E
330
5
100
AcDbSymbolTableRecord
100
AcDbLinetypeTableRecord
  2
HIDDEN
 70
     0
  3
Hidden __ __ __ __ __ __ __ __ __ __ __ __ __ __
 72
    65
 73
     2
 40
1.905
 49
1.27
 74
     0
 49
-0.635
 74
     0
  0
LTYPE
  5
6F
330
5
100
AcDbSymbolTableRecord
100
AcDbLinetypeTableRecord
  2
PHANTOM
 70
     0
  3
Phantom ______  __  __  ______  __  __  ______
 72
    65
 73
     6
 40
12.7
 49
6.35
 74
     0
 49
-1.27
 74
     0
 49
1.27
 74
     0
 49
-1.27
 74
     0
 49
1.27
 74
     0
 49
-1.27
 74
     0
  0
LTYPE
  5
70
330
5
100
AcDbSymbolTableRecord
100
AcDbLinetypeTableRecord
  2
CENTER
 70
     0
  3
Center ____ _ ____ _ ____ _ ____ _ ____ _ ____
 72
    65
 73
     4
 40
10.16
 49
6.35
 74
     0
 49
-1.27
 74
     0
 49
1.27
 74
     0
 49
-1.27
 74
     0
  0
LTYPE
  5
71
330
5
100
AcDbSymbolTableRecord
100
AcDbLinetypeTableRecord
  2
CENTERX2
 70
     0
  3
Center (2x) ________  __  ________  __  _____
 72
    65
 73
     4
 40
20.32
 49
12.7
 74
     0
 49
-2.54
 74
     0
 49
2.54
 74
     0
 49
-2.54
 74
     0
  0
LTYPE
  5
72
330
5
100
AcDbSymbolTableRecord
100
AcDbLinetypeTableRecord
  2
DOT2
 70
     0
  3
Dot (.5x) ........................................
 72
    65
 73
     2
 40
0.635
 49
0.0
 74
     0
 49
-0.635
 74
     0
  0
ENDTAB
  0
TABLE
  2
LAYER
  5
2
330
0
100
AcDbSymbolTable
 70
     5
  0
LAYER
  5
10
330
2
100
AcDbSymbolTableRecord
100
AcDbLayerTableRecord
  2
0
 70
     0
 62
     7
  6
Continuous
370
    -3
390
F
  0
LAYER
  5
73
330
2
100
AcDbSymbolTableRecord
100
AcDbLayerTableRecord
  2
FORMAT
 70
     0
 62
     7
  6
Continuous
370
    -3
390
F
  0
LAYER
  5
74
330
2
100
AcDbSymbolTableRecord
100
AcDbLayerTableRecord
  2
VERMASSUNG
 70
     0
 62
     7
  6
Continuous
370
    -3
390
F
  0
LAYER
  5
75
330
2
100
AcDbSymbolTableRecord
100
AcDbLayerTableRecord
  2
KOPF_DÜNN
 70
     0
 62
     7
  6
Continuous
370
    -3
390
F
  0
LAYER
  5
76
330
2
100
AcDbSymbolTableRecord
100
AcDbLayerTableRecord
  2
KOPF_DICK
 70
     0
 62
     7
  6
Continuous
370
    15
390
F
  0
ENDTAB
  0
TABLE
  2
STYLE
  5
3
330
0
100
AcDbSymbolTable
 70
     2
  0
STYLE
  5
11
330
3
100
AcDbSymbolTableRecord
100
AcDbTextStyleTableRecord
  2
Standard
 70
     0
 40
0.0
 41
1.0
 50
0.0
 71
     0
 42
2.0
  3
txt
  4

  0
STYLE
  5
77
330
3
100
AcDbSymbolTableRecord
100
AcDbTextStyleTableRecord
  2
SLDTEXTSTYLE0
 70
     0
 40
0.0
 41
0.7
 50
0.0
 71
     0
 42
2.0
  3
TXT
  4

  0
ENDTAB
  0
TABLE
  2
VIEW
  5
6
330
0
100
AcDbSymbolTable
 70
     0
  0
ENDTAB
  0
TABLE
  2
UCS
  5
7
330
0
100
AcDbSymbolTable
 70
     0
  0
ENDTAB
  0
TABLE
  2
APPID
  5
9
330
0
100
AcDbSymbolTable
 70
     1
  0
APPID
  5
12
330
9
100
AcDbSymbolTableRecord
100
AcDbRegAppTableRecord
  2
ACAD
 70
     0
  0
ENDTAB
  0
TABLE
  2
DIMSTYLE
  5
A
330
0
100
AcDbSymbolTable
 70
     3
100
AcDbDimStyleTable
  0
DIMSTYLE
105
27
330
A
100
AcDbSymbolTableRecord
100
AcDbDimStyleTableRecord
  2
ISO-25
 70
     0
 41
2.5
 42
0.625
 43
3.75
 44
1.25
 73
     0
 74
     0
 77
     1
 78
     8
140
2.5
141
2.5
143
0.0393700787
147
0.625
171
     3
172
     1
178
     0
271
     2
272
     2
274
     3
278
    44
283
     0
284
     8
340
11
  0
DIMSTYLE
105
1A3
102
{ACAD_REACTORS
330
1A2
330
1AF
330
1B9
330
1C3
330
1CD
102
}
330
A
100
AcDbSymbolTableRecord
100
AcDbDimStyleTableRecord
  2
SLDDIMSTYLE0
 70
     0
 41
3.0
 44
0.0
 45
0.000000001
 73
     0
 74
     0
 77
     1
 78
    12
 79
     3
140
2.0
147
0.5
173
     1
178
     0
271
     2
272
     3
276
     2
284
    12
340
77
  0
DIMSTYLE
105
1DF
330
A
100
AcDbSymbolTableRecord
100
AcDbDimStyleTableRecord
  2
SLDDIMSTYLE1
 70
     0
 41
0.9
 44
0.0
 45
0.000000001
146
0.9
147
0.0
173
     1
178
     0
271
     0
272
     0
276
     2
340
11
341
1E0
343
1E0
344
1E0
  0
ENDTAB
  0
TABLE
  2
BLOCK_RECORD
  5
1
330
0
100
AcDbSymbolTable
 70
    10
  0
BLOCK_RECORD
  5
1F
330
1
100
AcDbSymbolTableRecord
100
AcDbBlockTableRecord
  2
*Model_Space
340
22
  0
BLOCK_RECORD
  5
1B
330
1
100
AcDbSymbolTableRecord
100
AcDbBlockTableRecord
  2
*Paper_Space
340
1E
  0
BLOCK_RECORD
  5
23
330
1
100
AcDbSymbolTableRecord
100
AcDbBlockTableRecord
  2
*Paper_Space0
340
26
  0
BLOCK_RECORD
  5
7D
330
1
100
AcDbSymbolTableRecord
100
AcDbBlockTableRecord
  2
SW_TABLEANNOTATION_0
340
0
102
{BLKREFS
331
98
102
}
  0
BLOCK_RECORD
  5
1A4
330
1
100
AcDbSymbolTableRecord
100
AcDbBlockTableRecord
  2
_D
340
0
  0
BLOCK_RECORD
  5
1B0
330
1
100
AcDbSymbolTableRecord
100
AcDbBlockTableRecord
  2
_D_1
340
0
  0
BLOCK_RECORD
  5
1BA
330
1
100
AcDbSymbolTableRecord
100
AcDbBlockTableRecord
  2
_D_2
340
0
  0
BLOCK_RECORD
  5
1C4
330
1
100
AcDbSymbolTableRecord
100
AcDbBlockTableRecord
  2
_D_3
340
0
  0
BLOCK_RECORD
  5
1CE
330
1
100
AcDbSymbolTableRecord
100
AcDbBlockTableRecord
  2
_D_4
340
0
  0
BLOCK_RECORD
  5
1D9
330
1
100
AcDbSymbolTableRecord
100
AcDbBlockTableRecord
  2
SW_NOTE_0
340
0
102
{BLKREFS
331
1DE
102
}
  0
BLOCK_RECORD
  5
1E0
330
1
100
AcDbSymbolTableRecord
100
AcDbBlockTableRecord
  2
_DOT
340
0
  0
BLOCK_RECORD
  5
1E9
330
1
100
AcDbSymbolTableRecord
100
AcDbBlockTableRecord
  2
SW_NOTE_1
340
0
102
{BLKREFS
331
1EE
102
}
  0
ENDTAB
  0
ENDSEC
  0
SECTION
  2
BLOCKS
  0
BLOCK
  5
20
330
1F
100
AcDbEntity
  8
0
100
AcDbBlockBegin
  2
*Model_Space
 70
     0
 10
0.0
 20
0.0
 30
0.0
  3
*Model_Space
  1

  0
ENDBLK
  5
21
330
1F
100
AcDbEntity
  8
0
100
AcDbBlockEnd
  0
BLOCK
  5
1C
330
1B
100
AcDbEntity
 67
     1
  8
0
100
AcDbBlockBegin
  2
*Paper_Space
 70
     0
 10
0.0
 20
0.0
 30
0.0
  3
*Paper_Space
  1

  0
ENDBLK
  5
1D
330
1B
100
AcDbEntity
 67
     1
  8
0
100
AcDbBlockEnd
  0
BLOCK
  5
24
330
23
100
AcDbEntity
  8
0
100
AcDbBlockBegin
  2
*Paper_Space0
 70
     0
 10
0.0
 20
0.0
 30
0.0
  3
*Paper_Space0
  1

  0
ENDBLK
  5
25
330
23
100
AcDbEntity
  8
0
100
AcDbBlockEnd
  0
BLOCK
  5
7E
330
7D
100
AcDbEntity
  8
0
100
AcDbBlockBegin
  2
SW_TABLEANNOTATION_0
 70
     0
 10
0.0
 20
0.0
 30
0.0
  3
SW_TABLEANNOTATION_0
  1

  0
LINE
  5
80
330
7D
100
AcDbEntity
  8
0
  6
Continuous
 62
     0
370
     0
100
AcDbLine
 10
0.0
 20
0.0
 30
0.0
 11
0.0
 21
-10.9613963039
 31
0.0
  0
LINE
  5
81
330
7D
100
AcDbEntity
  8
0
  6
Continuous
 62
     0
370
     0
100
AcDbLine
 10
0.0
 20
-10.9613963039
 30
0.0
 11
125.0044361962
 21
-10.9613963039
 31
0.0
  0
LINE
  5
82
330
7D
100
AcDbEntity
  8
0
  6
Continuous
 62
     0
370
     0
100
AcDbLine
 10
125.0044361962
 20
-10.9613963039
 30
0.0
 11
125.0044361962
 21
0.0
 31
0.0
  0
LINE
  5
83
330
7D
100
AcDbEntity
  8
0
  6
Continuous
 62
     0
370
     0
100
AcDbLine
 10
125.0044361962
 20
0.0
 30
0.0
 11
0.0
 21
0.0
 31
0.0
  0
LINE
  5
84
330
7D
100
AcDbEntity
  8
0
  6
Continuous
 62
     0
370
     0
100
AcDbLine
 10
15.9651052694
 20
-7.3075975359
 30
0.0
 11
15.9651052694
 21
-10.9613963039
 31
0.0
  0
LINE
  5
85
330
7D
100
AcDbEntity
  8
0
  6
Continuous
 62
     0
370
     0
100
AcDbLine
 10
34.1012448998
 20
-7.3075975359
 30
0.0
 11
34.1012448998
 21
-10.9613963039
 31
0.0
  0
LINE
  5
86
330
7D
100
AcDbEntity
  8
0
  6
Continuous
 62
     0
370
     0
100
AcDbLine
 10
92.6586456418
 20
-7.3075975359
 30
0.0
 11
92.6586456418
 21
-10.9613963039
 31
0.0
  0
LINE
  5
87
330
7D
100
AcDbEntity
  8
0
  6
Continuous
 62
     0
370
     0
100
AcDbLine
 10
15.9651052694
 20
0.0
 30
0.0
 11
15.9651052694
 21
-7.3075975359
 31
0.0
  0
LINE
  5
88
330
7D
100
AcDbEntity
  8
0
  6
Continuous
 62
     0
370
     0
100
AcDbLine
 10
34.1012448998
 20
0.0
 30
0.0
 11
34.1012448998
 21
-7.3075975359
 31
0.0
  0
LINE
  5
89
330
7D
100
AcDbEntity
  8
0
  6
Continuous
 62
     0
370
     0
100
AcDbLine
 10
92.6586456418
 20
0.0
 30
0.0
 11
92.6586456418
 21
-7.3075975359
 31
0.0
  0
LINE
  5
8A
330
7D
100
AcDbEntity
  8
0
  6
Continuous
 62
     0
370
     0
100
AcDbLine
 10
0.0
 20
-3.653798768
 30
0.0
 11
125.0044361962
 21
-3.653798768
 31
0.0
  0
LINE
  5
8B
330
7D
100
AcDbEntity
  8
0
  6
Continuous
 62
     0
370
     0
100
AcDbLine
 10
0.0
 20
-7.3075975359
 30
0.0
 11
125.0044361962
 21
-7.3075975359
 31
0.0
  0
MTEXT
  5
8C
330
7D
100
AcDbEntity
  8
0
  6
Continuous
 62
     0
370
     0
100
AcDbMText
 10
5.2825527975
 20
-7.9563615651
 30
0.0
 40
2.0
 41
0.0
 71
     1
 72
     1
  1
POS.
  7
SLDTEXTSTYLE0
 73
     1
 44
1.0
  0
MTEXT
  5
8D
330
7D
100
AcDbEntity
  8
0
  6
Continuous
 62
     0
370
     0
100
AcDbMText
 10
21.1331751904
 20
-7.9563615651
 30
0.0
 40
2.0
 41
0.0
 71
     1
 72
     1
  1
MENGE
  7
SLDTEXTSTYLE0
 73
     1
 44
1.0
  0
MTEXT
  5
8E
330
7D
100
AcDbEntity
  8
0
  6
Continuous
 62
     0
370
     0
100
AcDbMText
 10
56.0799464956
 20
-7.9563615651
 30
0.0
 40
2.0
 41
0.0
 71
     1
 72
     1
  1
Bezeichnung
  7
SLDTEXTSTYLE0
 73
     1
 44
1.0
  0
MTEXT
  5
8F
330
7D
100
AcDbEntity
  8
0
  6
Continuous
 62
     0
370
     0
100
AcDbMText
 10
97.7315420798
 20
-7.9563615651
 30
0.0
 40
2.0
 41
0.0
 71
     1
 72
     1
  1
Zeichnungsnummer
  7
SLDTEXTSTYLE0
 73
     1
 44
1.0
  0
MTEXT
  5
90
330
7D
100
AcDbEntity
  8
0
  6
Continuous
 62
     0
370
     0
100
AcDbMText
 10
7.2825526596
 20
-0.9171773494
 30
0.0
 40
2.0
 41
0.0
 71
     1
 72
     1
  1
2
  7
SLDTEXTSTYLE0
 73
     1
 44
1.0
  0
MTEXT
  5
91
330
7D
100
AcDbEntity
  8
0
  6
Continuous
 62
     0
370
     0
100
AcDbMText
 10
24.5331750608
 20
-0.9171773494
 30
0.0
 40
2.0
 41
0.0
 71
     1
 72
     1
  1
1
  7
SLDTEXTSTYLE0
 73
     1
 44
1.0
  0
MTEXT
  5
92
330
7D
100
AcDbEntity
  8
0
  6
Continuous
 62
     0
370
     0
100
AcDbMText
 10
54.2799467594
 20
-0.9171773494
 30
0.0
 40
2.0
 41
0.0
 71
     1
 72
     1
  1
Klemmschraube
  7
SLDTEXTSTYLE0
 73
     1
 44
1.0
  0
MTEXT
  5
93
330
7D
100
AcDbEntity
  8
0
  6
Continuous
 62
     0
370
     0
100
AcDbMText
 10
99.3315412244
 20
-0.9171773494
 30
0.0
 40
2.0
 41
0.0
 71
     1
 72
     1
  1
MB1-ER1.001.006
  7
SLDTEXTSTYLE0
 73
     1
 44
1.0
  0
MTEXT
  5
94
330
7D
100
AcDbEntity
  8
0
  6
Continuous
 62
     0
370
     0
100
AcDbMText
 10
7.4825526109
 20
-4.5709761174
 30
0.0
 40
2.0
 41
0.0
 71
     1
 72
     1
  1
1
  7
SLDTEXTSTYLE0
 73
     1
 44
1.0
  0
MTEXT
  5
95
330
7D
100
AcDbEntity
  8
0
  6
Continuous
 62
     0
370
     0
100
AcDbMText
 10
24.5331750608
 20
-4.5709761174
 30
0.0
 40
2.0
 41
0.0
 71
     1
 72
     1
  1
1
  7
SLDTEXTSTYLE0
 73
     1
 44
1.0
  0
MTEXT
  5
96
330
7D
100
AcDbEntity
  8
0
  6
Continuous
 62
     0
370
     0
100
AcDbMText
 10
54.2799448967
 20
-4.5709761174
 30
0.0
 40
2.0
 41
0.0
 71
     1
 72
     1
  1
Aufnahme MBM
  7
SLDTEXTSTYLE0
 73
     1
 44
1.0
  0
MTEXT
  5
97
330
7D
100
AcDbEntity
  8
0
  6
Continuous
 62
     0
370
     0
100
AcDbMText
 10
98.8315411425
 20
-4.5709761174
 30
0.0
 40
2.0
 41
0.0
 71
     1
 72
     1
  1
HA6-MB1.K01.050
  7
SLDTEXTSTYLE0
 73
     1
 44
1.0
  0
ENDBLK
  5
7F
330
7D
100
AcDbEntity
  8
0
100
AcDbBlockEnd
  0
BLOCK
  5
1A5
330
1A4
100
AcDbEntity
  8
0
100
AcDbBlockBegin
  2
_D
 70
     0
 10
0.0
 20
0.0
 30
0.0
  3
_D
  1

  0
SOLID
  5
1A7
330
1A4
100
AcDbEntity
  8
VERMASSUNG
100
AcDbTrace
 10
103.0359543082
 20
142.4848872477
 30
0.0
 11
102.5859543082
 21
139.4848872477
 31
0.0
 12
103.4859543082
 22
139.4848872477
 32
0.0
 13
103.4859543082
 23
139.4848872477
 33
0.0
  0
SOLID
  5
1A8
330
1A4
100
AcDbEntity
  8
VERMASSUNG
100
AcDbTrace
 10
103.0359543082
 20
79.4848872477
 30
0.0
 11
103.4859543082
 21
82.4848872477
 31
0.0
 12
102.5859543082
 22
82.4848872477
 32
0.0
 13
102.5859543082
 23
82.4848872477
 33
0.0
  0
LINE
  5
1A9
330
1A4
100
AcDbEntity
  8
VERMASSUNG
100
AcDbLine
 10
140.8142349139
 20
142.4848872477
 30
0.0
 11
102.0359543082
 21
142.4848872477
 31
0.0
  0
LINE
  5
1AA
330
1A4
100
AcDbEntity
  8
VERMASSUNG
100
AcDbLine
 10
140.8142349139
 20
79.4848872477
 30
0.0
 11
102.0359543082
 21
79.4848872477
 31
0.0
  0
LINE
  5
1AB
330
1A4
100
AcDbEntity
  8
VERMASSUNG
100
AcDbLine
 10
103.0359543082
 20
142.4848872477
 30
0.0
 11
103.0359543082
 21
79.4848872477
 31
0.0
  0
MTEXT
  5
1AC
330
1A4
100
AcDbEntity
  8
VERMASSUNG
100
AcDbMText
 10
100.257819052
 20
102.6131020215
 30
0.0
 40
2.0
 41
0.0
 71
     1
 72
     1
  1
HSK A
  7
SLDTEXTSTYLE0
 11
-7.044195017643634E-15
 21
1.0
 31
0.0
 73
     1
 44
1.0
  0
MTEXT
  5
1AD
330
1A4
100
AcDbEntity
  8
VERMASSUNG
100
AcDbMText
 10
100.4578190033
 20
111.6131016341
 30
0.0
 40
2.0
 41
0.0
 71
     1
 72
     1
  1
%%c
  7
SLDTEXTSTYLE0
 11
-7.044195017643634E-15
 21
1.0
 31
0.0
 73
     1
 44
1.0
  0
MTEXT
  5
1AE
330
1A4
100
AcDbEntity
  8
VERMASSUNG
100
AcDbMText
 10
100.4578187123
 20
115.2224449669
 30
0.0
 40
2.0
 41
0.0
 71
     1
 72
     1
  1
63
  7
SLDTEXTSTYLE0
 11
-7.044195017643634E-15
 21
1.0
 31
0.0
 73
     1
 44
1.0
  0
ENDBLK
  5
1A6
330
1A4
100
AcDbEntity
  8
0
100
AcDbBlockEnd
  0
BLOCK
  5
1B1
330
1B0
100
AcDbEntity
  8
0
100
AcDbBlockBegin
  2
_D_1
 70
     0
 10
0.0
 20
0.0
 30
0.0
  3
_D_1
  1

  0
SOLID
  5
1B3
330
1B0
100
AcDbEntity
  8
VERMASSUNG
100
AcDbTrace
 10
190.5142349139
 20
152.4848872477
 30
0.0
 11
187.5142349139
 21
152.9348872477
 31
0.0
 12
187.5142349139
 22
152.0348872477
 32
0.0
 13
187.5142349139
 23
152.0348872477
 33
0.0
  0
SOLID
  5
1B4
330
1B0
100
AcDbEntity
  8
VERMASSUNG
100
AcDbTrace
 10
140.5142349139
 20
152.4848872477
 30
0.0
 11
143.5142349139
 21
152.0348872477
 31
0.0
 12
143.5142349139
 22
152.9348872477
 32
0.0
 13
143.5142349139
 23
152.9348872477
 33
0.0
  0
LINE
  5
1B5
330
1B0
100
AcDbEntity
  8
VERMASSUNG
100
AcDbLine
 10
190.5142349139
 20
120.7848872477
 30
0.0
 11
190.5142349139
 21
153.4848872477
 31
0.0
  0
LINE
  5
1B6
330
1B0
100
AcDbEntity
  8
VERMASSUNG
100
AcDbLine
 10
140.5142349139
 20
142.1848872477
 30
0.0
 11
140.5142349139
 21
153.4848872477
 31
0.0
  0
LINE
  5
1B7
330
1B0
100
AcDbEntity
  8
VERMASSUNG
100
AcDbLine
 10
190.5142349139
 20
152.4848872477
 30
0.0
 11
140.5142349139
 21
152.4848872477
 31
0.0
  0
MTEXT
  5
1B8
330
1B0
100
AcDbEntity
  8
VERMASSUNG
100
AcDbMText
 10
164.1145449036
 20
155.0630228436
 30
0.0
 40
2.0
 41
0.0
 71
     1
 72
     1
  1
50
  7
SLDTEXTSTYLE0
 73
     1
 44
1.0
  0
ENDBLK
  5
1B2
330
1B0
100
AcDbEntity
  8
0
100
AcDbBlockEnd
  0
BLOCK
  5
1BB
330
1BA
100
AcDbEntity
  8
0
100
AcDbBlockBegin
  2
_D_2
 70
     0
 10
0.0
 20
0.0
 30
0.0
  3
_D_2
  1

  0
SOLID
  5
1BD
330
1BA
100
AcDbEntity
  8
VERMASSUNG
100
AcDbTrace
 10
190.5142349139
 20
146.9711733652
 30
0.0
 11
187.5142349139
 21
147.4211733652
 31
0.0
 12
187.5142349139
 22
146.5211733652
 32
0.0
 13
187.5142349139
 23
146.5211733652
 33
0.0
  0
SOLID
  5
1BE
330
1BA
100
AcDbEntity
  8
VERMASSUNG
100
AcDbTrace
 10
166.4642349139
 20
146.9711733652
 30
0.0
 11
169.4642349139
 21
146.5211733652
 31
0.0
 12
169.4642349139
 22
147.4211733652
 32
0.0
 13
169.4642349139
 23
147.4211733652
 33
0.0
  0
LINE
  5
1BF
330
1BA
100
AcDbEntity
  8
VERMASSUNG
100
AcDbLine
 10
190.5142349139
 20
120.7848872477
 30
0.0
 11
190.5142349139
 21
147.9711733652
 31
0.0
  0
LINE
  5
1C0
330
1BA
100
AcDbEntity
  8
VERMASSUNG
100
AcDbLine
 10
166.4642349139
 20
140.8313275714
 30
0.0
 11
166.4642349139
 21
147.9711733652
 31
0.0
  0
LINE
  5
1C1
330
1BA
100
AcDbEntity
  8
VERMASSUNG
100
AcDbLine
 10
190.5142349139
 20
146.9711733652
 30
0.0
 11
166.4642349139
 21
146.9711733652
 31
0.0
  0
MTEXT
  5
1C2
330
1BA
100
AcDbEntity
  8
VERMASSUNG
100
AcDbMText
 10
175.2894707532
 20
149.5493089612
 30
0.0
 40
2.0
 41
0.0
 71
     1
 72
     1
  1
24.05
  7
SLDTEXTSTYLE0
 73
     1
 44
1.0
  0
ENDBLK
  5
1BC
330
1BA
100
AcDbEntity
  8
0
100
AcDbBlockEnd
  0
BLOCK
  5
1C5
330
1C4
100
AcDbEntity
  8
0
100
AcDbBlockBegin
  2
_D_3
 70
     0
 10
0.0
 20
0.0
 30
0.0
  3
_D_3
  1

  0
SOLID
  5
1C7
330
1C4
100
AcDbEntity
  8
VERMASSUNG
100
AcDbTrace
 10
190.5142349139
 20
158.4848872477
 30
0.0
 11
187.5142349139
 21
158.9348872477
 31
0.0
 12
187.5142349139
 22
158.0348872477
 32
0.0
 13
187.5142349139
 23
158.0348872477
 33
0.0
  0
SOLID
  5
1C8
330
1C4
100
AcDbEntity
  8
VERMASSUNG
100
AcDbTrace
 10
108.6142349139
 20
158.4848872477
 30
0.0
 11
111.6142349139
 21
158.0348872477
 31
0.0
 12
111.6142349139
 22
158.9348872477
 32
0.0
 13
111.6142349139
 23
158.9348872477
 33
0.0
  0
LINE
  5
1C9
330
1C4
100
AcDbEntity
  8
VERMASSUNG
100
AcDbLine
 10
190.5142349139
 20
120.7848872477
 30
0.0
 11
190.5142349139
 21
159.4848872477
 31
0.0
  0
LINE
  5
1CA
330
1C4
100
AcDbEntity
  8
VERMASSUNG
100
AcDbLine
 10
108.6142349139
 20
130.6755649941
 30
0.0
 11
108.6142349139
 21
159.4848872477
 31
0.0
  0
LINE
  5
1CB
330
1C4
100
AcDbEntity
  8
VERMASSUNG
100
AcDbLine
 10
190.5142349139
 20
158.4848872477
 30
0.0
 11
108.6142349139
 21
158.4848872477
 31
0.0
  0
MTEXT
  5
1CC
330
1C4
100
AcDbEntity
  8
VERMASSUNG
100
AcDbMText
 10
147.3648796101
 20
161.0630228436
 30
0.0
 40
2.0
 41
0.0
 71
     1
 72
     1
  1
81.9
  7
SLDTEXTSTYLE0
 73
     1
 44
1.0
  0
ENDBLK
  5
1C6
330
1C4
100
AcDbEntity
  8
0
100
AcDbBlockEnd
  0
BLOCK
  5
1CF
330
1CE
100
AcDbEntity
  8
0
100
AcDbBlockBegin
  2
_D_4
 70
     0
 10
0.0
 20
0.0
 30
0.0
  3
_D_4
  1

  0
SOLID
  5
1D1
330
1CE
100
AcDbEntity
  8
VERMASSUNG
100
AcDbTrace
 10
197.6136088948
 20
120.9848872477
 30
0.0
 11
197.1636088948
 21
117.9848872477
 31
0.0
 12
198.0636088948
 22
117.9848872477
 32
0.0
 13
198.0636088948
 23
117.9848872477
 33
0.0
  0
SOLID
  5
1D2
330
1CE
100
AcDbEntity
  8
VERMASSUNG
100
AcDbTrace
 10
197.6136088948
 20
100.9848872477
 30
0.0
 11
198.0636088948
 21
103.9848872477
 31
0.0
 12
197.1636088948
 22
103.9848872477
 32
0.0
 13
197.1636088948
 23
103.9848872477
 33
0.0
  0
LINE
  5
1D3
330
1CE
100
AcDbEntity
  8
VERMASSUNG
100
AcDbLine
 10
190.3142349139
 20
120.9848872477
 30
0.0
 11
198.6136088948
 21
120.9848872477
 31
0.0
  0
LINE
  5
1D4
330
1CE
100
AcDbEntity
  8
VERMASSUNG
100
AcDbLine
 10
190.3142349139
 20
100.9848872477
 30
0.0
 11
198.6136088948
 21
100.9848872477
 31
0.0
  0
LINE
  5
1D5
330
1CE
100
AcDbEntity
  8
VERMASSUNG
100
AcDbLine
 10
197.6136088948
 20
120.9848872477
 30
0.0
 11
197.6136088948
 21
100.9848872477
 31
0.0
  0
MTEXT
  5
1D6
330
1CE
100
AcDbEntity
  8
VERMASSUNG
100
AcDbMText
 10
194.8354736385
 20
104.5798876041
 30
0.0
 40
2.0
 41
0.0
 71
     1
 72
     1
  1
MBM
  7
SLDTEXTSTYLE0
 11
-7.044195017643634E-15
 21
1.0
 31
0.0
 73
     1
 44
1.0
  0
MTEXT
  5
1D7
330
1CE
100
AcDbEntity
  8
VERMASSUNG
100
AcDbMText
 10
195.0354735898
 20
110.9798874424
 30
0.0
 40
2.0
 41
0.0
 71
     1
 72
     1
  1
%%c
  7
SLDTEXTSTYLE0
 11
-7.044195017643634E-15
 21
1.0
 31
0.0
 73
     1
 44
1.0
  0
MTEXT
  5
1D8
330
1CE
100
AcDbEntity
  8
VERMASSUNG
100
AcDbMText
 10
194.8354736385
 20
114.5898879224
 30
0.0
 40
2.0
 41
0.0
 71
     1
 72
     1
  1
20
  7
SLDTEXTSTYLE0
 11
-7.044195017643634E-15
 21
1.0
 31
0.0
 73
     1
 44
1.0
  0
ENDBLK
  5
1D0
330
1CE
100
AcDbEntity
  8
0
100
AcDbBlockEnd
  0
BLOCK
  5
1DA
330
1D9
100
AcDbEntity
  8
0
100
AcDbBlockBegin
  2
SW_NOTE_0
 70
     0
 10
0.0
 20
0.0
 30
0.0
  3
SW_NOTE_0
  1

  0
CIRCLE
  5
1DC
330
1D9
100
AcDbEntity
  8
VERMASSUNG
 62
     0
100
AcDbCircle
 10
0.0
 20
-2.5028270988
 30
0.0
 40
2.50282709876212
  0
MTEXT
  5
1DD
330
1D9
100
AcDbEntity
  8
VERMASSUNG
 62
     0
100
AcDbMText
 10
-0.0000000237
 20
-1.8101961014
 30
0.0
 40
2.0
 41
0.0
 71
     2
 72
     1
  1
1
  7
SLDTEXTSTYLE0
 73
     1
 44
1.0
  0
ENDBLK
  5
1DB
330
1D9
100
AcDbEntity
  8
0
100
AcDbBlockEnd
  0
BLOCK
  5
1E1
330
1E0
100
AcDbEntity
  8
0
100
AcDbBlockBegin
  2
_DOT
 70
     0
 10
0.0
 20
0.0
 30
0.0
  3
_DOT
  1

  0
POLYLINE
  5
1E3
330
1E0
100
AcDbEntity
  8
0
  6
ByBlock
 62
     0
100
AcDb2dPolyline
 66
     1
 10
0.0
 20
0.0
 30
0.0
 70
     1
 40
0.5
 41
0.5
  0
VERTEX
  5
1E5
330
1E3
100
AcDbEntity
  8
0
  6
ByBlock
 62
     0
100
AcDbVertex
100
AcDb2dVertex
 10
-0.25
 20
0.0
 30
0.0
 42
1.0
  0
VERTEX
  5
1E6
330
1E3
100
AcDbEntity
  8
0
  6
ByBlock
 62
     0
100
AcDbVertex
100
AcDb2dVertex
 10
0.25
 20
0.0
 30
0.0
 42
1.0
  0
SEQEND
  5
1E7
330
1E3
100
AcDbEntity
  8
0
  6
ByBlock
 62
     0
  0
LINE
  5
1E4
330
1E0
100
AcDbEntity
  8
0
  6
ByBlock
 62
     0
370
    -2
100
AcDbLine
 10
-0.5
 20
0.0
 30
0.0
 11
-1.0
 21
0.0
 31
0.0
  0
ENDBLK
  5
1E2
330
1E0
100
AcDbEntity
  8
0
100
AcDbBlockEnd
  0
BLOCK
  5
1EA
330
1E9
100
AcDbEntity
  8
0
100
AcDbBlockBegin
  2
SW_NOTE_1
 70
     0
 10
0.0
 20
0.0
 30
0.0
  3
SW_NOTE_1
  1

  0
CIRCLE
  5
1EC
330
1E9
100
AcDbEntity
  8
VERMASSUNG
 62
     0
100
AcDbCircle
 10
0.0
 20
-2.5028270988
 30
0.0
 40
2.502827098762119
  0
MTEXT
  5
1ED
330
1E9
100
AcDbEntity
  8
VERMASSUNG
 62
     0
100
AcDbMText
 10
-0.012499975
 20
-1.8101961014
 30
0.0
 40
2.0
 41
0.0
 71
     2
 72
     1
  1
2
  7
SLDTEXTSTYLE0
 73
     1
 44
1.0
  0
ENDBLK
  5
1EB
330
1E9
100
AcDbEntity
  8
0
100
AcDbBlockEnd
  0
ENDSEC
  0
SECTION
  2
ENTITIES
  0
MTEXT
  5
78
330
1F
100
AcDbEntity
  8
KOPF_DÜNN
100
AcDbMText
 10
13.8892156294
 20
23.8442973028
 30
0.0
 40
3.0
 41
0.0
 71
     1
 72
     1
  1
102.063.201
  7
SLDTEXTSTYLE0
 73
     1
 44
1.0
  0
MTEXT
  5
79
330
1F
100
AcDbEntity
  8
VERMASSUNG
100
AcDbMText
 10
13.9329988022
 20
28.8834360957
 30
0.0
 40
3.0
 41
0.0
 71
     1
 72
     1
  1
Aufnahme
  7
SLDTEXTSTYLE0
 73
     1
 44
1.0
  0
MTEXT
  5
7A
330
1F
100
AcDbEntity
  8
VERMASSUNG
100
AcDbMText
 10
98.8601118557
 20
13.8365368761
 30
0.0
 40
2.0
 41
0.0
 71
     1
 72
     1
  1
Datum: 08.12.2006
  7
SLDTEXTSTYLE0
 73
     1
 44
1.0
  0
MTEXT
  5
7B
330
1F
100
AcDbEntity
  8
VERMASSUNG
100
AcDbMText
 10
13.933048693
 20
18.0482802738
 30
0.0
 40
2.0
 41
0.0
 71
     1
 72
     1
  1
HSK-A63 / MBM ø20
  7
SLDTEXTSTYLE0
 73
     1
 44
1.0
  0
MTEXT
  5
7C
330
1F
100
AcDbEntity
  8
VERMASSUNG
100
AcDbMText
 10
13.9808475933
 20
13.9090974274
 30
0.0
 40
2.0
 41
0.0
 71
     1
 72
     1
  1
Gewicht: 683g
  7
SLDTEXTSTYLE0
 73
     1
 44
1.0
  0
INSERT
  5
98
330
1F
100
AcDbEntity
  8
0
  6
Continuous
 62
     7
370
     0
100
AcDbBlockReference
  2
SW_TABLEANNOTATION_0
 10
155.4069348624
 20
22.9491325334
 30
0.0
  0
LINE
  5
99
330
1F
100
AcDbEntity
  8
0
  6
Continuous
 62
     7
370
    15
100
AcDbLine
 10
140.8142349139
 20
79.4848872477
 30
0.0
 11
145.4642349139
 21
79.4848872477
 31
0.0
  0
LINE
  5
9A
330
1F
100
AcDbEntity
  8
0
  6
Continuous
 62
     7
370
    15
100
AcDbLine
 10
145.492223273
 20
142.4848872477
 30
0.0
 11
140.8142349139
 21
142.4848872477
 31
0.0
  0
ARC
  5
9B
330
1F
100
AcDbEntity
  8
0
  6
Continuous
 62
     7
370
    15
100
AcDbCircle
 10
140.8142349139
 20
79.7848872477
 30
0.0
 40
0.3000000000000114
100
AcDbArc
 50
180.0
 51
270.0
  0
ARC
  5
9C
330
1F
100
AcDbEntity
  8
0
  6
Continuous
 62
     7
370
    15
100
AcDbCircle
 10
140.8142349139
 20
142.1848872477
 30
0.0
 40
0.3000000000000114
100
AcDbArc
 50
90.0
 51
180.0
  0
ARC
  5
9D
330
1F
100
AcDbEntity
  8
0
  6
Continuous
 62
     7
370
    15
100
AcDbCircle
 10
140.0142281612
 20
86.4144496333
 30
0.0
 40
0.6000067526677282
100
AcDbArc
 50
33.5571153394
 51
90.0
  0
ARC
  5
9E
330
1F
100
AcDbEntity
  8
0
  6
Continuous
 62
     7
370
    15
100
AcDbCircle
 10
140.0142281612
 20
135.555324862
 30
0.0
 40
0.600006752667744
100
AcDbArc
 50
270.0
 51
326.4428846606
  0
LINE
  5
9F
330
1F
100
AcDbEntity
  8
0
  6
Continuous
 62
     7
370
    15
100
AcDbLine
 10
127.2827261151
 20
134.6426172678
 30
0.0
 11
114.7142349139
 21
134.0129333398
 31
0.0
  0
LINE
  5
A0
330
1F
100
AcDbEntity
  8
0
  6
Continuous
 62
     7
370
    15
100
AcDbLine
 10
138.5142349139
 20
135.2053181094
 30
0.0
 11
135.6972332566
 21
135.0641857618
 31
0.0
  0
LINE
  5
A1
330
1F
100
AcDbEntity
  8
0
  6
Continuous
 62
     7
370
    15
100
AcDbLine
 10
135.6972893466
 20
86.9055859234
 30
0.0
 11
138.5142349139
 21
86.7644563859
 31
0.0
  0
LINE
  5
A2
330
1F
100
AcDbEntity
  8
0
  6
Continuous
 62
     7
370
    15
100
AcDbLine
 10
118.7142349139
 20
87.7564403539
 30
0.0
 11
127.2831286338
 21
87.3271370613
 31
0.0
  0
LINE
  5
A3
330
1F
100
AcDbEntity
  8
0
  6
Continuous
 62
     7
370
    15
100
AcDbLine
 10
138.5142349139
 20
86.7644563859
 30
0.0
 11
139.3709476873
 21
86.9940118817
 31
0.0
  0
LINE
  5
A4
330
1F
100
AcDbEntity
  8
0
  6
Continuous
 62
     7
370
    15
100
AcDbLine
 10
139.3709476873
 20
134.9757626136
 30
0.0
 11
138.5142349139
 21
135.2053181094
 31
0.0
  0
ARC
  5
A5
330
1F
100
AcDbEntity
  8
0
  6
Continuous
 62
     7
370
    15
100
AcDbCircle
 10
139.5262391143
 20
86.4144563859
 30
0.0
 40
0.6000000000000008
100
AcDbArc
 50
90.0
 51
105.0
  0
ARC
  5
A6
330
1F
100
AcDbEntity
  8
0
  6
Continuous
 62
     7
370
    15
100
AcDbCircle
 10
139.5262391143
 20
135.5553181094
 30
0.0
 40
0.6000000000000008
100
AcDbArc
 50
255.0
 51
270.0
  0
LINE
  5
A7
330
1F
100
AcDbEntity
  8
0
  6
Continuous
 62
     7
370
    15
100
AcDbLine
 10
139.5262391143
 20
87.0144563859
 30
0.0
 11
140.0142281612
 21
87.0144563859
 31
0.0
  0
LINE
  5
A8
330
1F
100
AcDbEntity
  8
0
  6
Continuous
 62
     7
370
    15
100
AcDbLine
 10
140.0142281612
 20
134.9553181094
 30
0.0
 11
139.5262391143
 21
134.9553181094
 31
0.0
  0
ARC
  5
A9
330
1F
100
AcDbEntity
  8
0
  6
Continuous
 62
     7
370
    15
100
AcDbCircle
 10
170.4642349139
 20
96.9848872477
 30
0.0
 40
4.0
100
AcDbArc
 50
90.0
 51
180.0
  0
ARC
  5
AA
330
1F
100
AcDbEntity
  8
0
  6
Continuous
 62
     7
370
    15
100
AcDbCircle
 10
170.4642349139
 20
124.9848872477
 30
0.0
 40
4.0
100
AcDbArc
 50
180.0
 51
270.0
  0
LINE
  5
AB
330
1F
100
AcDbEntity
  8
0
  6
Continuous
 62
     7
370
    15
100
AcDbLine
 10
109.8975715539
 20
90.1148872477
 30
0.0
 11
117.3142349139
 21
90.1148872477
 31
0.0
  0
ARC
  5
AC
330
1F
100
AcDbEntity
  8
0
  6
Continuous
 62
     7
370
    15
100
AcDbCircle
 10
117.3142349139
 20
88.7148872477
 30
0.0
 40
1.400000000000006
100
AcDbArc
 50
42.2465410162
 51
90.0
  0
LINE
  5
AD
330
1F
100
AcDbEntity
  8
0
  6
Continuous
 62
     7
370
    15
100
AcDbLine
 10
108.625395349
 20
91.2537268125
 30
0.0
 11
109.7553983721
 21
90.1237237895
 31
0.0
  0
LINE
  5
AE
330
1F
100
AcDbEntity
  8
0
  6
Continuous
 62
     7
370
    15
100
AcDbLine
 10
109.7553983721
 20
131.8460507058
 30
0.0
 11
108.6241356873
 21
130.714788021
 31
0.0
  0
LINE
  5
AF
330
1F
100
AcDbEntity
  8
0
  6
Continuous
 62
     7
370
    15
100
AcDbLine
 10
190.3142349139
 20
100.9848872477
 30
0.0
 11
190.5142349139
 21
101.1848872477
 31
0.0
  0
LINE
  5
B0
330
1F
100
AcDbEntity
  8
0
  6
Continuous
 62
     7
370
    15
100
AcDbLine
 10
190.5142349139
 20
120.7848872477
 30
0.0
 11
190.3142349139
 21
120.9848872477
 31
0.0
  0
LINE
  5
B1
330
1F
100
AcDbEntity
  8
0
  6
Continuous
 62
     7
370
    15
100
AcDbLine
 10
170.4642349139
 20
100.9848872477
 30
0.0
 11
190.3142349139
 21
100.9848872477
 31
0.0
  0
LINE
  5
B2
330
1F
100
AcDbEntity
  8
0
  6
Continuous
 62
     7
370
    15
100
AcDbLine
 10
190.3142349139
 20
120.9848872477
 30
0.0
 11
170.4642349139
 21
120.9848872477
 31
0.0
  0
ARC
  5
B3
330
1F
100
AcDbEntity
  8
0
  6
Continuous
 62
     7
370
    15
100
AcDbCircle
 10
113.3142349139
 20
133.2548872477
 30
0.0
 40
1.400000000000008
100
AcDbArc
 50
270.0
 51
301.7485287426
  0
LINE
  5
B4
330
1F
100
AcDbEntity
  8
0
  6
Continuous
 62
     7
370
    15
100
AcDbLine
 10
113.3142349139
 20
131.8548872477
 30
0.0
 11
109.8885006478
 21
131.8548872477
 31
0.0
  0
SPLINE
  5
B5
330
1F
100
AcDbEntity
  8
0
  6
Continuous
 62
     7
370
    15
100
AcDbSpline
210
0.0
220
0.0
230
1.0
 70
    24
 71
     3
 72
    11
 73
     7
 74
     0
 42
0.000000001
 43
0.00000001
 40
0.0
 40
0.0
 40
0.0
 40
0.0
 40
0.1285561766306859
 40
0.4801535797842827
 40
0.815069183175483
 40
1.0
 40
1.0
 40
1.0
 40
1.0
 10
185.535922750383
 20
109.7348872476536
 30
0.0
 10
185.4777937583913
 20
109.7348872476536
 30
0.0
 10
185.2606836643797
 20
109.7348872476536
 30
0.0
 10
184.8535536120851
 20
109.7348872476536
 30
0.0
 10
184.4127176450921
 20
109.7348872476536
 30
0.0
 10
184.1765585940882
 20
109.7348872476536
 30
0.0
 10
184.0925470774089
 20
109.7348872476536
 30
0.0
  0
SPLINE
  5
B6
330
1F
100
AcDbEntity
  8
0
  6
Continuous
 62
     7
370
    15
100
AcDbSpline
210
0.0
220
0.0
230
1.0
 70
    24
 71
     3
 72
    10
 73
     6
 74
     0
 42
0.000000001
 43
0.00000001
 40
0.0
 40
0.0
 40
0.0
 40
0.0
 40
0.4391119879276897
 40
0.751363323073468
 40
0.9999999999999999
 40
0.9999999999999999
 40
0.9999999999999999
 40
0.9999999999999999
 10
186.25761058687
 20
110.9848872476536
 30
0.0
 10
186.1542965726416
 20
110.8059421258763
 30
0.0
 10
185.9775162451061
 20
110.4997496168061
 30
0.0
 10
185.720533123206
 20
110.0546417929875
 30
0.0
 10
185.5926238124366
 20
109.8330963679737
 30
0.0
 10
185.535922750383
 20
109.7348872476536
 30
0.0
  0
SPLINE
  5
B7
330
1F
100
AcDbEntity
  8
0
  6
Continuous
 62
     7
370
    15
100
AcDbSpline
210
0.0
220
0.0
230
1.0
 70
    24
 71
     3
 72
    10
 73
     6
 74
     0
 42
0.000000001
 43
0.00000001
 40
0.0
 40
0.0
 40
0.0
 40
0.0
 40
0.4391119879276903
 40
0.7513633230734653
 40
1.0
 40
1.0
 40
1.0
 40
1.0
 10
185.535922750383
 20
112.2348872476537
 30
0.0
 10
185.6392367646112
 20
112.0559421258763
 30
0.0
 10
185.8160170921468
 20
111.7497496168061
 30
0.0
 10
186.0730002140469
 20
111.3046417929875
 30
0.0
 10
186.2009095248163
 20
111.0830963679737
 30
0.0
 10
186.25761058687
 20
110.9848872476536
 30
0.0
  0
SPLINE
  5
B8
330
1F
100
AcDbEntity
  8
0
  6
Continuous
 62
     7
370
    15
100
AcDbSpline
210
0.0
220
0.0
230
1.0
 70
    24
 71
     3
 72
    11
 73
     7
 74
     0
 42
0.000000001
 43
0.00000001
 40
0.0
 40
0.0
 40
0.0
 40
0.0
 40
0.1849308168245189
 40
0.519846420215722
 40
0.8714438233693219
 40
1.0
 40
1.0
 40
1.0
 40
1.0
 10
184.0925470774089
 20
112.2348872476537
 30
0.0
 10
184.1765585940882
 20
112.2348872476537
 30
0.0
 10
184.4127176450921
 20
112.2348872476537
 30
0.0
 10
184.8535536120851
 20
112.2348872476537
 30
0.0
 10
185.2606836643797
 20
112.2348872476536
 30
0.0
 10
185.4777937583913
 20
112.2348872476537
 30
0.0
 10
185.535922750383
 20
112.2348872476537
 30
0.0
  0
SPLINE
  5
B9
330
1F
100
AcDbEntity
  8
0
  6
Continuous
 62
     7
370
    15
100
AcDbSpline
210
0.0
220
0.0
230
1.0
 70
    24
 71
     3
 72
    10
 73
     6
 74
     0
 42
0.000000001
 43
0.00000001
 40
0.0
 40
0.0
 40
0.0
 40
0.0
 40
0.4391119879276855
 40
0.7513633230734631
 40
1.0
 40
1.0
 40
1.0
 40
1.0
 10
184.0925470774089
 20
109.7348872476536
 30
0.0
 10
183.9892330631806
 20
109.913832369431
 30
0.0
 10
183.812452735645
 20
110.2200248785012
 30
0.0
 10
183.5554696137449
 20
110.6651327023198
 30
0.0
 10
183.4275603029755
 20
110.8866781273336
 30
0.0
 10
183.3708592409219
 20
110.9848872476536
 30
0.0
  0
CIRCLE
  5
BA
330
1F
100
AcDbEntity
  8
0
  6
Continuous
 62
     7
370
    15
100
AcDbCircle
 10
184.8142349139
 20
110.9848872477
 30
0.0
 40
1.5
  0
SPLINE
  5
BB
330
1F
100
AcDbEntity
  8
0
  6
Continuous
 62
     7
370
    15
100
AcDbSpline
210
0.0
220
0.0
230
1.0
 70
    24
 71
     3
 72
    10
 73
     6
 74
     0
 42
0.000000001
 43
0.00000001
 40
0.0
 40
0.0
 40
0.0
 40
0.0
 40
0.4391119879276896
 40
0.7513633230734684
 40
1.0
 40
1.0
 40
1.0
 40
1.0
 10
183.3708592409219
 20
110.9848872476536
 30
0.0
 10
183.4741732551502
 20
111.163832369431
 30
0.0
 10
183.6509535826857
 20
111.4700248785012
 30
0.0
 10
183.9079367045858
 20
111.9151327023198
 30
0.0
 10
184.0358460153552
 20
112.1366781273336
 30
0.0
 10
184.0925470774089
 20
112.2348872476537
 30
0.0
  0
CIRCLE
  5
BC
330
1F
100
AcDbEntity
  8
0
  6
Continuous
 62
     7
370
    15
100
AcDbCircle
 10
184.8142349139
 20
110.9848872477
 30
0.0
 40
2.200000000000003
  0
CIRCLE
  5
BD
330
1F
100
AcDbEntity
  8
0
  6
Continuous
 62
     7
370
    15
100
AcDbCircle
 10
184.8142349139
 20
110.9848872477
 30
0.0
 40
2.5
  0
ARC
  5
BE
330
1F
100
AcDbEntity
  8
0
  6
Continuous
 62
     7
370
    15
100
AcDbCircle
 10
184.8142349139
 20
110.9848872477
 30
0.0
 40
1.24999999999998
100
AcDbArc
 50
330.0
 51
30.0
  0
ARC
  5
BF
330
1F
100
AcDbEntity
  8
0
  6
Continuous
 62
     7
370
    15
100
AcDbCircle
 10
184.8142349139
 20
110.9848872477
 30
0.0
 40
1.250000000000014
100
AcDbArc
 50
30.0
 51
90.0
  0
ARC
  5
C0
330
1F
100
AcDbEntity
  8
0
  6
Continuous
 62
     7
370
    15
100
AcDbCircle
 10
184.8142349139
 20
110.9848872477
 30
0.0
 40
1.25
100
AcDbArc
 50
270.0
 51
330.0
  0
ARC
  5
C1
330
1F
100
AcDbEntity
  8
0
  6
Continuous
 62
     7
370
    15
100
AcDbCircle
 10
184.8142349139
 20
110.9848872477
 30
0.0
 40
1.250000000000004
100
AcDbArc
 50
210.0
 51
270.0
  0
ARC
  5
C2
330
1F
100
AcDbEntity
  8
0
  6
Continuous
 62
     7
370
    15
100
AcDbCircle
 10
184.8142349139
 20
110.9848872477
 30
0.0
 40
1.250000000000014
100
AcDbArc
 50
90.0
 51
150.0
  0
ARC
  5
C3
330
1F
100
AcDbEntity
  8
0
  6
Continuous
 62
     7
370
    15
100
AcDbCircle
 10
184.8142349139
 20
110.9848872477
 30
0.0
 40
1.250000000000004
100
AcDbArc
 50
150.0
 51
210.0
  0
LINE
  5
C4
330
1F
100
AcDbEntity
  8
0
  6
Continuous
 62
     7
370
    15
100
AcDbLine
 10
165.8642349139
 20
80.7979695514
 30
0.0
 11
161.9061677454
 21
80.7979695514
 31
0.0
  0
LINE
  5
C5
330
1F
100
AcDbEntity
  8
0
  6
Continuous
 62
     7
370
    15
100
AcDbLine
 10
161.9061677454
 20
80.7979695514
 30
0.0
 11
161.9061677454
 21
130.8348872477
 31
0.0
  0
LINE
  5
C6
330
1F
100
AcDbEntity
  8
0
  6
Continuous
 62
     7
370
    15
100
AcDbLine
 10
161.9061677454
 20
130.8348872477
 30
0.0
 11
165.8642349139
 21
130.8348872477
 31
0.0
  0
LINE
  5
C7
330
1F
100
AcDbEntity
  8
0
  6
Continuous
 62
     7
370
    15
100
AcDbLine
 10
145.4642349139
 20
130.8348872477
 30
0.0
 11
155.1223020824
 21
130.8348872477
 31
0.0
  0
LINE
  5
C8
330
1F
100
AcDbEntity
  8
0
  6
Continuous
 62
     7
370
    15
100
AcDbLine
 10
155.1223020824
 20
80.7979695514
 30
0.0
 11
155.1223020824
 21
130.8348872477
 31
0.0
  0
LINE
  5
C9
330
1F
100
AcDbEntity
  8
0
  6
Continuous
 62
     7
370
    15
100
AcDbLine
 10
155.1223020824
 20
80.7979695514
 30
0.0
 11
153.4642349139
 21
80.7979695514
 31
0.0
  0
SPLINE
  5
CA
330
1F
100
AcDbEntity
  8
0
  6
Continuous
 62
     7
370
    15
100
AcDbSpline
210
0.0
220
0.0
230
1.0
 70
     8
 71
     3
 72
    28
 73
    24
 74
     0
 42
0.000000001
 43
0.00000001
 40
0.0
 40
0.0
 40
0.0
 40
0.0
 40
0.1249999999999999
 40
0.1249999999999999
 40
0.1874999999999998
 40
0.1874999999999998
 40
0.2499999999999997
 40
0.2499999999999997
 40
0.3749999999999993
 40
0.3749999999999993
 40
0.4374999999999993
 40
0.4374999999999993
 40
0.4999999999999992
 40
0.4999999999999992
 40
0.6249999999999992
 40
0.6249999999999992
 40
0.7499999999999992
 40
0.7499999999999992
 40
0.8124999999999993
 40
0.8124999999999993
 40
0.8749999999999996
 40
0.8749999999999996
 40
1.0
 40
1.0
 40
1.0
 40
1.0
 10
153.4642349138959
 20
80.79796955140648
 30
0.0
 10
152.932527156403
 20
80.79796955140648
 30
0.0
 10
152.4102885910926
 20
80.78218483745628
 30
0.0
 10
151.6404181048176
 20
80.73718942338007
 30
0.0
 10
151.3860585326263
 20
80.71863442830434
 30
0.0
 10
150.8819369519278
 20
80.67478170585784
 30
0.0
 10
150.6322141344999
 20
80.64943709890564
 30
0.0
 10
149.9066241830535
 20
80.56603502115553
 30
0.0
 10
149.4482639214719
 20
80.50016946200445
 30
0.0
 10
148.797765978078
 20
80.39119912151266
 30
0.0
 10
148.5860839272856
 20
80.352959485746
 30
0.0
 10
148.1820124381476
 20
80.27520074832665
 30
0.0
 10
147.9895059243267
 20
80.2356997861513
 30
0.0
 10
147.4396709533054
 20
80.1167920437853
 30
0.0
 10
147.1097421749966
 20
80.03697436236068
 30
0.0
 10
146.5252709064279
 20
79.88363120056464
 30
0.0
 10
146.2789937684145
 20
79.81229744729538
 30
0.0
 10
145.9791509757164
 20
79.71835394022075
 30
0.0
 10
145.8906941186443
 20
79.68916014686084
 30
0.0
 10
145.7373327653391
 20
79.63569357259742
 30
0.0
 10
145.6722445511129
 20
79.61133423832223
 30
0.0
 10
145.5166505351721
 20
79.5477440928775
 30
0.0
 10
145.4642349138959
 20
79.51764115778826
 30
0.0
 10
145.4642349138959
 20
79.50076426479133
 30
0.0
  0
LINE
  5
CB
330
1F
100
AcDbEntity
  8
0
  6
Continuous
 62
     7
370
    15
100
AcDbLine
 10
145.4642349139
 20
79.5007642648
 30
0.0
 11
145.4642349139
 21
79.4848872477
 31
0.0
  0
SPLINE
  5
CC
330
1F
100
AcDbEntity
  8
0
  6
Continuous
 62
     7
370
    15
100
AcDbSpline
210
0.0
220
0.0
230
1.0
 70
     8
 71
     3
 72
    17
 73
    13
 74
     0
 42
0.000000001
 43
0.00000001
 40
0.0
 40
0.0
 40
0.0
 40
0.0
 40
0.1034796923964057
 40
0.210023918880785
 40
0.3134862136955584
 40
0.4198361274354883
 40
0.5254127712915682
 40
0.6339610695419791
 40
0.7409508756305032
 40
0.8511696089308174
 40
0.9558996534551938
 40
0.9999999999999999
 40
0.9999999999999999
 40
0.9999999999999999
 40
0.9999999999999999
 10
153.4642349138959
 20
141.4520827208179
 30
0.0
 10
153.0289865647859
 20
141.4575309173512
 30
0.0
 10
152.1456000582209
 20
141.4685886578631
 30
0.0
 10
150.8647724729922
 20
141.5549470507646
 30
0.0
 10
149.6473559371182
 20
141.6828172273024
 30
0.0
 10
148.5395500848716
 20
141.8417625258955
 30
0.0
 10
147.5513112809234
 20
142.0162562136111
 30
0.0
 10
146.7265877233919
 20
142.185422064251
 30
0.0
 10
146.0776342227326
 20
142.3333058467793
 30
0.0
 10
145.6605994072709
 20
142.4350964310101
 30
0.0
 10
145.4620026943063
 20
142.4854479536133
 30
0.0
 10
145.4853154157396
 20
142.4795422693909
 30
0.0
 10
145.4922232729772
 20
142.4777923396964
 30
0.0
  0
LINE
  5
CD
330
1F
100
AcDbEntity
  8
0
  6
Continuous
 62
     7
370
    15
100
AcDbLine
 10
155.1223020824
 20
141.4520827208
 30
0.0
 11
153.4642349139
 21
141.4520827208
 31
0.0
  0
LINE
  5
CE
330
1F
100
AcDbEntity
  8
0
  6
Continuous
 62
     7
370
    15
100
AcDbLine
 10
155.1223020824
 20
135.44357691
 30
0.0
 11
155.1223020824
 21
141.4520827208
 31
0.0
  0
LINE
  5
CF
330
1F
100
AcDbEntity
  8
0
  6
Continuous
 62
     7
370
    15
100
AcDbLine
 10
152.7098552596
 20
135.44357691
 30
0.0
 11
155.1223020824
 21
135.44357691
 31
0.0
  0
SPLINE
  5
D0
330
1F
100
AcDbEntity
  8
0
  6
Continuous
 62
     7
370
    15
100
AcDbSpline
210
0.0
220
0.0
230
1.0
 70
     8
 71
     3
 72
    20
 73
    16
 74
     0
 42
0.000000001
 43
0.00000001
 40
0.0
 40
0.0
 40
0.0
 40
0.0
 40
0.2499999999999995
 40
0.2499999999999995
 40
0.3749999999999996
 40
0.3749999999999996
 40
0.4999999999999997
 40
0.4999999999999997
 40
0.6249999999999998
 40
0.6249999999999998
 40
0.7499999999999998
 40
0.7499999999999998
 40
0.8749999999999999
 40
0.8749999999999999
 40
1.0
 40
1.0
 40
1.0
 40
1.0
 10
145.4642349138959
 20
130.8348872476537
 30
0.0
 10
145.712608648184
 20
131.4887496759511
 30
0.0
 10
146.0321787405292
 20
132.0925354579482
 30
0.0
 10
146.6544849737339
 20
132.9193741941168
 30
0.0
 10
146.8859092341647
 20
133.1818028320697
 30
0.0
 10
147.4071235738144
 20
133.6784654861747
 30
0.0
 10
147.6937440564494
 20
133.9090523651962
 30
0.0
 10
148.3132287977571
 20
134.3256065897789
 30
0.0
 10
148.647529177244
 20
134.5131043917464
 30
0.0
 10
149.3727896498688
 20
134.8445013693828
 30
0.0
 10
149.7547047072593
 20
134.984005356878
 30
0.0
 10
150.549492883431
 20
135.209458864349
 30
0.0
 10
150.9636510776373
 20
135.2960849758926
 30
0.0
 10
151.8291974182187
 20
135.4140657647468
 30
0.0
 10
152.2670850332306
 20
135.4435769100211
 30
0.0
 10
152.7098552595852
 20
135.4435769100211
 30
0.0
  0
SPLINE
  5
D1
330
1F
100
AcDbEntity
  8
0
  6
Continuous
 62
     7
370
    15
100
AcDbSpline
210
0.0
220
0.0
230
1.0
 70
     8
 71
     3
 72
     8
 73
     4
 74
     0
 42
0.000000001
 43
0.00000001
 40
0.0
 40
0.0
 40
0.0
 40
0.0
 40
1.0
 40
1.0
 40
1.0
 40
1.0
 10
161.906167745385
 20
80.79796955140648
 30
0.0
 10
161.4106880847192
 20
81.69349563933984
 30
0.0
 10
160.9165740366771
 20
82.58978005439211
 30
0.0
 10
160.4242349138959
 20
83.4870500885988
 30
0.0
  0
LINE
  5
D2
330
1F
100
AcDbEntity
  8
0
  6
Continuous
 62
     7
370
    15
100
AcDbLine
 10
160.4242349139
 20
83.4870500886
 30
0.0
 11
160.4242349139
 21
130.8348872477
 31
0.0
  0
SPLINE
  5
D3
330
1F
100
AcDbEntity
  8
0
  6
Continuous
 62
     7
370
    15
100
AcDbSpline
210
0.0
220
0.0
230
1.0
 70
    24
 71
     3
 72
     8
 73
     4
 74
     0
 42
0.000000001
 43
0.00000001
 40
0.0
 40
0.0
 40
0.0
 40
0.0
 40
1.0
 40
1.0
 40
1.0
 40
1.0
 10
160.4242349138959
 20
130.8348872476537
 30
0.0
 10
160.9041869082608
 20
130.8348872476537
 30
0.0
 10
161.3994876372344
 20
130.8348872476537
 30
0.0
 10
161.906167745385
 20
130.8348872476537
 30
0.0
  0
LINE
  5
D4
330
1F
100
AcDbEntity
  8
0
  6
Continuous
 62
     7
370
    15
100
AcDbLine
 10
140.5142349139
 20
79.7848872477
 30
0.0
 11
140.5142349139
 21
142.1848872439
 31
0.0
  0
LINE
  5
D5
330
1F
100
AcDbEntity
  8
0
  6
Continuous
 62
     7
370
    15
100
AcDbLine
 10
166.4642349139
 20
81.4246098471
 30
0.0
 11
166.4642349139
 21
130.8348872477
 31
0.0
  0
SPLINE
  5
D6
330
1F
100
AcDbEntity
  8
0
  6
Continuous
 62
     7
370
    15
100
AcDbSpline
210
0.0
220
0.0
230
1.0
 70
     8
 71
     3
 72
    10
 73
     6
 74
     0
 42
0.000000001
 43
0.00000001
 40
0.0
 40
0.0
 40
0.0
 40
0.0
 40
0.5
 40
0.5
 40
1.0
 40
1.0
 40
1.0
 40
1.0
 10
166.4642349138959
 20
81.42460984706081
 30
0.0
 10
166.4642349138959
 20
81.26472257886715
 30
0.0
 10
166.40292526266
 20
81.10359532335254
 30
0.0
 10
166.183825625125
 20
80.86949632499771
 30
0.0
 10
166.0257774188115
 20
80.79796955140648
 30
0.0
 10
165.8642349138959
 20
80.79796955140648
 30
0.0
  0
SPLINE
  5
D7
330
1F
100
AcDbEntity
  8
0
  6
Continuous
 62
     7
370
    15
100
AcDbSpline
210
0.0
220
0.0
230
1.0
 70
    24
 71
     3
 72
    12
 73
     8
 74
     0
 42
0.000000001
 43
0.00000001
 40
0.0
 40
0.0
 40
0.0
 40
0.0
 40
0.250000000000002
 40
0.250000000000002
 40
0.500000000000004
 40
0.500000000000004
 40
1.0
 40
1.0
 40
1.0
 40
1.0
 10
165.8642349138959
 20
130.8348872476537
 30
0.0
 10
165.9544739815829
 20
130.8348872476537
 30
0.0
 10
166.0453720956894
 20
130.8348872476537
 30
0.0
 10
166.199969132178
 20
130.8348872476537
 30
0.0
 10
166.2649475482861
 20
130.8348872476537
 30
0.0
 10
166.4167825762223
 20
130.8348872476537
 30
0.0
 10
166.4642349138959
 20
130.8348872476537
 30
0.0
 10
166.4642349138959
 20
130.8348872476537
 30
0.0
  0
LINE
  5
D8
330
1F
100
AcDbEntity
  8
0
  6
Continuous
 62
     7
370
    15
100
AcDbLine
 10
156.6042349139
 20
83.4870500886
 30
0.0
 11
156.6042349139
 21
130.8348872477
 31
0.0
  0
SPLINE
  5
D9
330
1F
100
AcDbEntity
  8
0
  6
Continuous
 62
     7
370
    15
100
AcDbSpline
210
0.0
220
0.0
230
1.0
 70
     8
 71
     3
 72
     8
 73
     4
 74
     0
 42
0.000000001
 43
0.00000001
 40
0.0
 40
0.0
 40
0.0
 40
0.0
 40
1.0
 40
1.0
 40
1.0
 40
1.0
 10
156.6042349138959
 20
83.48705008859879
 30
0.0
 10
156.1118957911147
 20
82.5897800543921
 30
0.0
 10
155.6177817430726
 20
81.69349563933983
 30
0.0
 10
155.1223020824069
 20
80.79796955140648
 30
0.0
  0
SPLINE
  5
DA
330
1F
100
AcDbEntity
  8
0
  6
Continuous
 62
     7
370
    15
100
AcDbSpline
210
0.0
220
0.0
230
1.0
 70
    24
 71
     3
 72
     8
 73
     4
 74
     0
 42
0.000000001
 43
0.00000001
 40
0.0
 40
0.0
 40
0.0
 40
0.0
 40
1.0
 40
1.0
 40
1.0
 40
1.0
 10
155.1223020824069
 20
130.8348872476537
 30
0.0
 10
155.6289821905574
 20
130.8348872476537
 30
0.0
 10
156.124282919531
 20
130.8348872476537
 30
0.0
 10
156.6042349138959
 20
130.8348872476537
 30
0.0
  0
SPLINE
  5
DB
330
1F
100
AcDbEntity
  8
0
  6
Continuous
 62
     7
370
    15
100
AcDbSpline
210
0.0
220
0.0
230
1.0
 70
     8
 71
     3
 72
    10
 73
     6
 74
     0
 42
0.000000001
 43
0.00000001
 40
0.0
 40
0.0
 40
0.0
 40
0.0
 40
0.5
 40
0.5
 40
1.0
 40
1.0
 40
1.0
 40
1.0
 10
156.9985324455868
 20
137.3848872476537
 30
0.0
 10
156.8769921819183
 20
137.4596134148654
 30
0.0
 10
156.7756578215694
 20
137.5685584307822
 30
0.0
 10
156.640018878681
 20
137.8189889115438
 30
0.0
 10
156.6042349138959
 20
137.9614082736427
 30
0.0
 10
156.6042349138959
 20
138.1045410986895
 30
0.0
  0
SPLINE
  5
DC
330
1F
100
AcDbEntity
  8
0
  6
Continuous
 62
     7
370
    15
100
AcDbSpline
210
0.0
220
0.0
230
1.0
 70
    24
 71
     3
 72
    12
 73
     8
 74
     0
 42
0.000000001
 43
0.00000001
 40
0.0
 40
0.0
 40
0.0
 40
0.0
 40
0.2499999999999992
 40
0.2499999999999992
 40
0.4999999999999983
 40
0.4999999999999983
 40
1.0
 40
1.0
 40
1.0
 40
1.0
 10
157.4042349138959
 20
137.3848872476537
 30
0.0
 10
157.3543582315786
 20
137.3848872476537
 30
0.0
 10
157.3063550381748
 20
137.3848872476536
 30
0.0
 10
157.2233069354629
 20
137.3848872476537
 30
0.0
 10
157.187177355995
 20
137.3848872476537
 30
0.0
 10
157.0912653250508
 20
137.3848872476537
 30
0.0
 10
157.041506657082
 20
137.3848872476537
 30
0.0
 10
156.9985324455868
 20
137.3848872476537
 30
0.0
  0
SPLINE
  5
DD
330
1F
100
AcDbEntity
  8
0
  6
Continuous
 62
     7
370
    15
100
AcDbSpline
210
0.0
220
0.0
230
1.0
 70
    24
 71
     3
 72
    14
 73
    10
 74
     0
 42
0.000000001
 43
0.00000001
 40
0.0
 40
0.0
 40
0.0
 40
0.0
 40
0.1250000000000012
 40
0.1250000000000012
 40
0.2500000000000024
 40
0.2500000000000024
 40
0.5000000000000013
 40
0.5000000000000013
 40
1.0
 40
1.0
 40
1.0
 40
1.0
 10
157.4042349138959
 20
84.58488724765364
 30
0.0
 10
157.3357970660094
 20
84.58488724765364
 30
0.0
 10
157.2702470272444
 20
84.58488724765364
 30
0.0
 10
157.1658203878364
 20
84.58488724765365
 30
0.0
 10
157.1232757780751
 20
84.58488724765364
 30
0.0
 10
157.0106663175348
 20
84.58488724765364
 30
0.0
 10
156.9551272705153
 20
84.58488724765364
 30
0.0
 10
156.8125155750515
 20
84.58488724765364
 30
0.0
 10
156.7491102200557
 20
84.58488724765364
 30
0.0
 10
156.7019097162282
 20
84.58488724765364
 30
0.0
  0
SPLINE
  5
DE
330
1F
100
AcDbEntity
  8
0
  6
Continuous
 62
     7
370
    15
100
AcDbSpline
210
0.0
220
0.0
230
1.0
 70
     8
 71
     3
 72
    10
 73
     6
 74
     0
 42
0.000000001
 43
0.00000001
 40
0.0
 40
0.0
 40
0.0
 40
0.0
 40
0.5
 40
0.5
 40
1.0
 40
1.0
 40
1.0
 40
1.0
 10
156.6042349138959
 20
131.120753879115
 30
0.0
 10
156.6042349138959
 20
131.0729823711217
 30
0.0
 10
156.6063961574931
 20
131.02527264906
 30
0.0
 10
156.6150675313532
 20
130.9299775315118
 30
0.0
 10
156.6215967143092
 20
130.8822849675451
 30
0.0
 10
156.630382537056
 20
130.8348872476537
 30
0.0
  0
SPLINE
  5
DF
330
1F
100
AcDbEntity
  8
0
  6
Continuous
 62
     7
370
    15
100
AcDbSpline
210
0.0
220
0.0
230
1.0
 70
    24
 71
     3
 72
    14
 73
    10
 74
     0
 42
0.000000001
 43
0.00000001
 40
0.0
 40
0.0
 40
0.0
 40
0.0
 40
0.4999999999999984
 40
0.4999999999999984
 40
0.7499999999999992
 40
0.7499999999999992
 40
0.8749999999999996
 40
0.8749999999999996
 40
1.0
 40
1.0
 40
1.0
 40
1.0
 10
160.3265601115636
 20
84.58488724765364
 30
0.0
 10
160.2797754065154
 20
84.58488724765365
 30
0.0
 10
160.2177242097358
 20
84.58488724765365
 30
0.0
 10
160.0743325711852
 20
84.58488724765364
 30
0.0
 10
160.018188917634
 20
84.58488724765364
 30
0.0
 10
159.9052378954979
 20
84.58488724765365
 30
0.0
 10
159.8622371334597
 20
84.58488724765365
 30
0.0
 10
159.7581744231532
 20
84.58488724765364
 30
0.0
 10
159.6928421847963
 20
84.58488724765367
 30
0.0
 10
159.6242349138959
 20
84.58488724765364
 30
0.0
  0
SPLINE
  5
E0
330
1F
100
AcDbEntity
  8
0
  6
Continuous
 62
     7
370
    15
100
AcDbSpline
210
0.0
220
0.0
230
1.0
 70
    24
 71
     3
 72
    12
 73
     8
 74
     0
 42
0.000000001
 43
0.00000001
 40
0.0
 40
0.0
 40
0.0
 40
0.0
 40
0.5000000000000017
 40
0.5000000000000017
 40
0.7500000000000008
 40
0.7500000000000008
 40
1.0
 40
1.0
 40
1.0
 40
1.0
 10
160.0299373822049
 20
137.3848872476537
 30
0.0
 10
159.986851832594
 20
137.3848872476537
 30
0.0
 10
159.9376996308446
 20
137.3848872476537
 30
0.0
 10
159.8412270365567
 20
137.3848872476537
 30
0.0
 10
159.8051254514222
 20
137.3848872476537
 30
0.0
 10
159.7220196935609
 20
137.3848872476537
 30
0.0
 10
159.6740230965946
 20
137.3848872476537
 30
0.0
 10
159.6242349138959
 20
137.3848872476537
 30
0.0
  0
SPLINE
  5
E1
330
1F
100
AcDbEntity
  8
0
  6
Continuous
 62
     7
370
    15
100
AcDbSpline
210
0.0
220
0.0
230
1.0
 70
     8
 71
     3
 72
    10
 73
     6
 74
     0
 42
0.000000001
 43
0.00000001
 40
0.0
 40
0.0
 40
0.0
 40
0.0
 40
0.5
 40
0.5
 40
1.0
 40
1.0
 40
1.0
 40
1.0
 10
160.4242349138959
 20
138.1045410986895
 30
0.0
 10
160.4242349138959
 20
137.9607710408714
 30
0.0
 10
160.388185855177
 20
137.8183516783762
 30
0.0
 10
160.252676994403
 20
137.568457385019
 30
0.0
 10
160.1528010013068
 20
137.4604270487708
 30
0.0
 10
160.0299373822049
 20
137.3848872476536
 30
0.0
  0
SPLINE
  5
E2
330
1F
100
AcDbEntity
  8
0
  6
Continuous
 62
     7
370
    15
100
AcDbSpline
210
0.0
220
0.0
230
1.0
 70
     8
 71
     3
 72
    10
 73
     6
 74
     0
 42
0.000000001
 43
0.00000001
 40
0.0
 40
0.0
 40
0.0
 40
0.0
 40
0.5
 40
0.5
 40
1.0
 40
1.0
 40
1.0
 40
1.0
 10
160.3980872907358
 20
130.8348872476537
 30
0.0
 10
160.4067769336474
 20
130.8817660969718
 30
0.0
 10
160.4133159983979
 20
130.9291885623731
 30
0.0
 10
160.422074632791
 20
131.0251253609598
 30
0.0
 10
160.4242349138959
 20
131.0730406489703
 30
0.0
 10
160.4242349138959
 20
131.1207538791148
 30
0.0
  0
LINE
  5
E3
330
1F
100
AcDbEntity
  8
0
  6
Continuous
 62
     7
370
    15
100
AcDbLine
 10
159.6242349139
 20
137.3848872477
 30
0.0
 11
157.4042349139
 21
137.3848872477
 31
0.0
  0
LINE
  5
E4
330
1F
100
AcDbEntity
  8
0
  6
Continuous
 62
     7
370
    15
100
AcDbLine
 10
159.6242349139
 20
84.5848872477
 30
0.0
 11
157.4042349139
 21
84.5848872477
 31
0.0
  0
LINE
  5
E5
330
1F
100
AcDbEntity
  8
0
  6
Continuous
 62
     7
370
    15
100
AcDbLine
 10
118.7142349139
 20
87.7564403539
 30
0.0
 11
118.7142349139
 21
89.0211497165
 31
0.0
  0
SPLINE
  5
E6
330
1F
100
AcDbEntity
  8
0
  6
Continuous
 62
     7
370
    15
100
AcDbSpline
210
0.0
220
0.0
230
1.0
 70
     8
 71
     3
 72
    14
 73
    10
 74
     0
 42
0.000000001
 43
0.00000001
 40
0.0
 40
0.0
 40
0.0
 40
0.0
 40
0.25
 40
0.25
 40
0.5
 40
0.5
 40
0.75
 40
0.75
 40
1.0
 40
1.0
 40
1.0
 40
1.0
 10
117.9359477959802
 20
90.1517359240937
 30
0.0
 10
117.9925744711823
 20
90.04403847025684
 30
0.0
 10
118.087097131472
 20
89.94124888853753
 30
0.0
 10
118.2701421070342
 20
89.74289157631738
 30
0.0
 10
118.361768683989
 20
89.64683206763912
 30
0.0
 10
118.5206220016821
 20
89.45930302492988
 30
0.0
 10
118.5885126093038
 20
89.36789405214631
 30
0.0
 10
118.6854296350114
 20
89.18951783123617
 30
0.0
 10
118.7142349138965
 20
89.10229592499
 30
0.0
 10
118.7142349138965
 20
89.02114971645575
 30
0.0
  0
SPLINE
  5
E7
330
1F
100
AcDbEntity
  8
0
  6
Continuous
 62
     7
370
    15
100
AcDbSpline
210
0.0
220
0.0
230
1.0
 70
     8
 71
     3
 72
    14
 73
    10
 74
     0
 42
0.000000001
 43
0.00000001
 40
0.0
 40
0.0
 40
0.0
 40
0.0
 40
0.125
 40
0.125
 40
0.25
 40
0.25
 40
0.5
 40
0.5
 40
1.0
 40
1.0
 40
1.0
 40
1.0
 10
117.3142349138959
 20
90.59841778637302
 30
0.0
 10
117.3627793225531
 20
90.60416609965331
 30
0.0
 10
117.415694677338
 20
90.60106521099708
 30
0.0
 10
117.510990022321
 20
90.57887036683475
 30
0.0
 10
117.551241019606
 20
90.56163813973889
 30
0.0
 10
117.6555110331189
 20
90.50531022328683
 30
0.0
 10
117.7058330082723
 20
90.46112387734102
 30
0.0
 10
117.8335159557976
 20
90.3301159784904
 30
0.0
 10
117.8896014028599
 20
90.23988145826011
 30
0.0
 10
117.9359477959817
 20
90.15173592409423
 30
0.0
  0
SPLINE
  5
E8
330
1F
100
AcDbEntity
  8
0
  6
Continuous
 62
     7
370
    15
100
AcDbSpline
210
0.0
220
0.0
230
1.0
 70
     8
 71
     3
 72
     8
 73
     4
 74
     0
 42
0.000000001
 43
0.00000001
 40
0.0
 40
0.0
 40
0.0
 40
0.0
 40
1.0
 40
1.0
 40
1.0
 40
1.0
 10
115.0457098209496
 20
90.28857249979022
 30
0.0
 10
115.7802868474326
 20
90.40719751085918
 30
0.0
 10
116.5437619168283
 20
90.50718338299548
 30
0.0
 10
117.3142349138959
 20
90.59841778637302
 30
0.0
  0
SPLINE
  5
E9
330
1F
100
AcDbEntity
  8
0
  6
Continuous
 62
     7
370
    15
100
AcDbSpline
210
0.0
220
0.0
230
1.0
 70
     8
 71
     3
 72
    14
 73
    10
 74
     0
 42
0.000000001
 43
0.00000001
 40
0.0
 40
0.0
 40
0.0
 40
0.0
 40
0.5000000000000002
 40
0.5000000000000002
 40
0.7500000000000002
 40
0.7500000000000002
 40
0.8750000000000001
 40
0.8750000000000001
 40
1.0
 40
1.0
 40
1.0
 40
1.0
 10
109.7642349138959
 20
90.11494948225858
 30
0.0
 10
110.6563810444495
 20
90.11422725605793
 30
0.0
 10
111.546357480243
 20
90.11881346251539
 30
0.0
 10
112.8729526473186
 20
90.14653846690693
 30
0.0
 10
113.3137995758174
 20
90.1591450045311
 30
0.0
 10
113.9702398132398
 20
90.19016115253854
 30
0.0
 10
114.1882534698317
 20
90.20250432516532
 30
0.0
 10
114.6209623235144
 20
90.23552838032859
 30
0.0
 10
114.8362387886792
 20
90.25474554546705
 30
0.0
 10
115.0457098209496
 20
90.28857249979022
 30
0.0
  0
SPLINE
  5
EA
330
1F
100
AcDbEntity
  8
0
  6
Continuous
 62
     7
370
    15
100
AcDbSpline
210
0.0
220
0.0
230
1.0
 70
     8
 71
     3
 72
     8
 73
     4
 74
     0
 42
0.000000001
 43
0.00000001
 40
0.0000005163856998
 40
0.0000005163856998
 40
0.0000005163856998
 40
0.0000005163856998
 40
0.000026289209185
 40
0.000026289209185
 40
0.000026289209185
 40
0.000026289209185
 10
109.7541899834883
 20
90.12493335535537
 30
0.0
 10
109.7575177216961
 20
90.12159910848625
 30
0.0
 10
109.7608661746717
 20
90.11827115121093
 30
0.0
 10
109.7642349138959
 20
90.11494948225857
 30
0.0
  0
SPLINE
  5
EB
330
1F
100
AcDbEntity
  8
0
  6
Continuous
 62
     7
370
    15
100
AcDbSpline
210
0.0
220
0.0
230
1.0
 70
     8
 71
     3
 72
     8
 73
     4
 74
     0
 42
0.000000001
 43
0.00000001
 40
0.0000005099763573
 40
0.0000005099763573
 40
0.0000005099763573
 40
0.0000005099763573
 40
0.0000262827998699
 40
0.0000262827998699
 40
0.0000262827998699
 40
0.0000262827998699
 10
109.7642349138959
 20
131.8548250130487
 30
0.0
 10
109.7608661746681
 20
131.8515033440928
 30
0.0
 10
109.757517721689
 20
131.848175386814
 30
0.0
 10
109.7541899834777
 20
131.8448411399413
 30
0.0
  0
SPLINE
  5
EC
330
1F
100
AcDbEntity
  8
0
  6
Continuous
 62
     7
370
    15
100
AcDbSpline
210
0.0
220
0.0
230
1.0
 70
     8
 71
     3
 72
    10
 73
     6
 74
     0
 42
0.000000001
 43
0.00000001
 40
0.0
 40
0.0
 40
0.0
 40
0.0
 40
0.5
 40
0.5
 40
1.0
 40
1.0
 40
1.0
 40
1.0
 10
113.3142349138959
 20
131.8079746394814
 30
0.0
 10
112.7266493668053
 20
131.8290401597178
 30
0.0
 10
112.1359029733449
 20
131.83979864559
 30
0.0
 10
110.9518838080461
 20
131.8531634261257
 30
0.0
 10
110.3584698198406
 20
131.8553060687903
 30
0.0
 10
109.7642349138959
 20
131.8548250130487
 30
0.0
  0
SPLINE
  5
ED
330
1F
100
AcDbEntity
  8
0
  6
Continuous
 62
     7
370
    15
100
AcDbSpline
210
0.0
220
0.0
230
1.0
 70
     8
 71
     3
 72
    18
 73
    14
 74
     0
 42
0.000000001
 43
0.00000001
 40
0.0
 40
0.0
 40
0.0
 40
0.0
 40
0.2500000000000008
 40
0.2500000000000008
 40
0.5000000000000009
 40
0.5000000000000009
 40
0.7500000000000009
 40
0.7500000000000009
 40
0.875000000000001
 40
0.875000000000001
 40
0.9375000000000006
 40
0.9375000000000006
 40
1.0
 40
1.0
 40
1.0
 40
1.0
 10
114.7142349138959
 20
132.8289949200166
 30
0.0
 10
114.7142349138959
 20
132.7457880111594
 30
0.0
 10
114.6783858139577
 20
132.6570513558459
 30
0.0
 10
114.5535140779237
 20
132.4749261652856
 30
0.0
 10
114.4631136602759
 20
132.379796116659
 30
0.0
 10
114.2408710055337
 20
132.1906146075347
 30
0.0
 10
114.1111062190879
 20
132.09566943944
 30
0.0
 10
113.8704687617764
 20
131.95739073186
 30
0.0
 10
113.782701463639
 20
131.9116802985577
 30
0.0
 10
113.6281773764321
 20
131.8538569933362
 30
0.0
 10
113.5715664903774
 20
131.8361422292984
 30
0.0
 10
113.4475224594708
 20
131.8116029260654
 30
0.0
 10
113.3798077844525
 20
131.8056237875271
 30
0.0
 10
113.3142349138959
 20
131.8079746394814
 30
0.0
  0
LINE
  5
EE
330
1F
100
AcDbEntity
  8
0
  6
Continuous
 62
     7
370
    15
100
AcDbLine
 10
114.7142349139
 20
132.82899492
 30
0.0
 11
114.7142349139
 21
134.0129333398
 31
0.0
  0
LINE
  5
EF
330
1F
100
AcDbEntity
  8
0
  6
Continuous
 62
     7
370
    15
100
AcDbLine
 10
138.5142349139
 20
86.7644563859
 30
0.0
 11
138.5142349139
 21
135.2053181094
 31
0.0
  0
SPLINE
  5
F0
330
1F
100
AcDbEntity
  8
0
  6
Continuous
 62
     7
370
    15
100
AcDbSpline
210
0.0
220
0.0
230
1.0
 70
     8
 71
     3
 72
    24
 73
    20
 74
     0
 42
0.000000001
 43
0.00000001
 40
0.0
 40
0.0
 40
0.0
 40
0.0
 40
0.0010489762969682
 40
0.0637843125639767
 40
0.1272220590447889
 40
0.19037889244876
 40
0.2526748653693632
 40
0.3146354154433589
 40
0.3770891997149993
 40
0.4393540298512636
 40
0.5008133242537819
 40
0.5621845104587263
 40
0.6248438451115537
 40
0.6874304766616293
 40
0.7496743174679374
 40
0.8119848426977089
 40
0.875096052541316
 40
0.9384412526965075
 40
0.9999999999999999
 40
0.9999999999999999
 40
0.9999999999999999
 40
0.9999999999999999
 10
127.2831407458716
 20
87.32737881907352
 30
0.0
 10
127.2826942857674
 20
87.3273205332546
 30
0.0
 10
127.2555467220736
 20
87.32377639131202
 30
0.0
 10
127.3511584996873
 20
87.33661013599487
 30
0.0
 10
127.5847187575818
 20
87.365856821195
 30
0.0
 10
127.9802730648988
 20
87.4124711442579
 30
0.0
 10
128.5073133687395
 20
87.46265428591731
 30
0.0
 10
129.1508437807275
 20
87.50703074836757
 30
0.0
 10
129.8895176359724
 20
87.5339755293052
 30
0.0
 10
130.6870321414031
 20
87.53744738001109
 30
0.0
 10
131.5136110238452
 20
87.50982013598149
 30
0.0
 10
132.3391340414524
 20
87.4513412470082
 30
0.0
 10
133.1312605894534
 20
87.36589621764817
 30
0.0
 10
133.863832863459
 20
87.26416197781181
 30
0.0
 10
134.4994731001871
 20
87.15631885583893
 30
0.0
 10
135.0213842071968
 20
87.05468869909983
 30
0.0
 10
135.4030129843122
 20
86.97220354242158
 30
0.0
 10
135.6538274545461
 20
86.91605433607195
 30
0.0
 10
135.6829490105304
 20
86.90920487745821
 30
0.0
 10
135.6973015313466
 20
86.90582913073003
 30
0.0
  0
SPLINE
  5
F1
330
1F
100
AcDbEntity
  8
0
  6
Continuous
 62
     7
370
    15
100
AcDbSpline
210
0.0
220
0.0
230
1.0
 70
     8
 71
     3
 72
    24
 73
    20
 74
     0
 42
0.000000001
 43
0.00000001
 40
0.0
 40
0.0
 40
0.0
 40
0.0
 40
0.061438427625136
 40
0.1250736755369643
 40
0.1884253490730172
 40
0.2508623904037476
 40
0.3129665632512369
 40
0.3753451453465166
 40
0.4377328972325402
 40
0.4990927322917273
 40
0.5605807588448041
 40
0.6229469893028856
 40
0.6854686282026866
 40
0.7475477813740222
 40
0.8098225060807238
 40
0.8730684085990468
 40
0.9364041844533111
 40
0.9991757196257863
 40
1.0
 40
1.0
 40
1.0
 40
1.0
 10
135.6972467605436
 20
135.0639162221111
 30
0.0
 10
135.6826460362399
 20
135.0605481652584
 30
0.0
 10
135.6529225175114
 20
135.0536916217846
 30
0.0
 10
135.4001847018633
 20
134.9973530012586
 30
0.0
 10
135.0171887854143
 20
134.9144959191287
 30
0.0
 10
134.4948332009762
 20
134.8125888891774
 30
0.0
 10
133.8600487229762
 20
134.7047497501336
 30
0.0
 10
133.1298251188037
 20
134.6032827981584
 30
0.0
 10
132.3393565335701
 20
134.5182230844678
 30
0.0
 10
131.5148730187417
 20
134.4600187905814
 30
0.0
 10
130.6878365598584
 20
134.4324353517548
 30
0.0
 10
129.8895122922064
 20
134.4359283292476
 30
0.0
 10
129.1496883279172
 20
134.4628842491007
 30
0.0
 10
128.5054340949418
 20
134.5072381911001
 30
0.0
 10
127.9780268397261
 20
134.5574436408578
 30
0.0
 10
127.5833622375762
 20
134.6040534960562
 30
0.0
 10
127.3508329583913
 20
134.6332490886035
 30
0.0
 10
127.2554529258391
 20
134.6460271575454
 30
0.0
 10
127.2823865627405
 20
134.642472899037
 30
0.0
 10
127.2827356559648
 20
134.6424268314537
 30
0.0
  0
SPLINE
  5
F2
330
1F
100
AcDbEntity
  8
0
  6
Continuous
 62
     7
370
    15
100
AcDbSpline
210
0.0
220
0.0
230
1.0
 70
     8
 71
     3
 72
    10
 73
     6
 74
     0
 42
0.000000001
 43
0.00000001
 40
0.0
 40
0.0
 40
0.0
 40
0.0
 40
0.0840381716606348
 40
0.7011125076933074
 40
1.0
 40
1.0
 40
1.0
 40
1.0
 10
108.6277818764316
 20
91.25611333997031
 30
0.0
 10
108.6284564337665
 20
91.25390771313442
 30
0.0
 10
108.6340841214627
 20
91.2355066397722
 30
0.0
 10
108.6604056015895
 20
91.24974120249537
 30
0.0
 10
108.6728406184342
 20
91.29542697804636
 30
0.0
 10
108.6768982886193
 20
91.31033470287292
 30
0.0
  0
LINE
  5
F3
330
1F
100
AcDbEntity
  8
0
  6
Continuous
 62
     7
370
    15
100
AcDbLine
 10
108.6142349139
 20
91.2942095012
 30
0.0
 11
108.6142349139
 21
130.6755649941
 31
0.0
  0
SPLINE
  5
F4
330
1F
100
AcDbEntity
  8
0
  6
Continuous
 62
     7
370
    15
100
AcDbSpline
210
0.0
220
0.0
230
1.0
 70
     8
 71
     3
 72
    10
 73
     6
 74
     0
 42
0.000000001
 43
0.00000001
 40
0.0
 40
0.0
 40
0.0
 40
0.0
 40
0.3981552638809415
 40
0.8068145697130351
 40
1.0
 40
1.0
 40
1.0
 40
1.0
 10
108.6768982886193
 20
130.6594397924344
 30
0.0
 10
108.6712347838948
 20
130.6782815769853
 30
0.0
 10
108.6597583611476
 20
130.7164622257776
 30
0.0
 10
108.6362441331733
 20
130.7300455096452
 30
0.0
 10
108.6312281773555
 20
130.714345215525
 30
0.0
 10
108.6296181116279
 20
130.7093055966778
 30
0.0
  0
SPLINE
  5
F5
330
1F
100
AcDbEntity
  8
0
  6
Continuous
 62
     7
370
    15
100
AcDbSpline
210
0.0
220
0.0
230
1.0
 70
     8
 71
     3
 72
    26
 73
    22
 74
     0
 42
0.000000001
 43
0.00000001
 40
0.0
 40
0.0
 40
0.0
 40
0.0
 40
0.2500000000000165
 40
0.2500000000000165
 40
0.3750000000000256
 40
0.3750000000000256
 40
0.4375000000000291
 40
0.4375000000000291
 40
0.4687500000000291
 40
0.4687500000000291
 40
0.5000000000000292
 40
0.5000000000000292
 40
0.5312500000000293
 40
0.5312500000000293
 40
0.5625000000000293
 40
0.5625000000000293
 40
0.625000000000026
 40
0.625000000000026
 40
0.7500000000000173
 40
0.7500000000000173
 40
1.0
 40
1.0
 40
1.0
 40
1.0
 10
109.4383885600004
 20
131.3750065812515
 30
0.0
 10
109.3997880371319
 20
131.257231884896
 30
0.0
 10
109.3534910345777
 20
131.1328421987341
 30
0.0
 10
109.2595516861438
 20
130.9276228663806
 30
0.0
 10
109.2242402192303
 20
130.8560499999342
 30
0.0
 10
109.1580602434846
 20
130.7400967673337
 30
0.0
 10
109.1335218768164
 20
130.6995122325235
 30
0.0
 10
109.0901491312626
 20
130.6353705506518
 30
0.0
 10
109.0746407298374
 20
130.6135041253667
 30
0.0
 10
109.0395980852504
 20
130.5679098570235
 30
0.0
 10
109.0200477945306
 20
130.5442395660561
 30
0.0
 10
108.97812051416
 20
130.4996230067162
 30
0.0
 10
108.9554684039284
 20
130.4787429941982
 30
0.0
 10
108.9144946898417
 20
130.4478695804474
 30
0.0
 10
108.8968953899463
 20
130.438030710615
 30
0.0
 10
108.8522684040902
 20
130.4190410949188
 30
0.0
 10
108.8317091814368
 20
130.4187167702654
 30
0.0
 10
108.7805837419402
 20
130.4279402111416
 30
0.0
 10
108.7596723289516
 20
130.4491871073586
 30
0.0
 10
108.7082224213907
 20
130.5231559861894
 30
0.0
 10
108.6905571220861
 20
130.5892740795041
 30
0.0
 10
108.6768982886193
 20
130.6594397924344
 30
0.0
  0
SPLINE
  5
F6
330
1F
100
AcDbEntity
  8
0
  6
Continuous
 62
     7
370
    15
100
AcDbSpline
210
0.0
220
0.0
230
1.0
 70
     8
 71
     3
 72
    10
 73
     6
 74
     0
 42
0.000000001
 43
0.00000001
 40
0.0
 40
0.0
 40
0.0
 40
0.0
 40
0.5
 40
0.5
 40
1.0
 40
1.0
 40
1.0
 40
1.0
 10
109.7541899834777
 20
131.8448411399413
 30
0.0
 10
109.6866307285594
 20
131.7771497471315
 30
0.0
 10
109.622994073223
 20
131.7024425823779
 30
0.0
 10
109.5127733186511
 20
131.5434764499513
 30
0.0
 10
109.4659570254285
 20
131.4591211839433
 30
0.0
 10
109.4383885600004
 20
131.3750065812515
 30
0.0
  0
SPLINE
  5
F7
330
1F
100
AcDbEntity
  8
0
  6
Continuous
 62
     7
370
    15
100
AcDbSpline
210
0.0
220
0.0
230
1.0
 70
     8
 71
     3
 72
    10
 73
     6
 74
     0
 42
0.000000001
 43
0.00000001
 40
0.0
 40
0.0
 40
0.0
 40
0.0
 40
0.5
 40
0.5
 40
1.0
 40
1.0
 40
1.0
 40
1.0
 10
109.4383885600005
 20
90.59476791405568
 30
0.0
 10
109.4658659747544
 20
90.51093111758779
 30
0.0
 10
109.5125746050439
 20
90.42662062999865
 30
0.0
 10
109.6228530677898
 20
90.26749939951195
 30
0.0
 10
109.6867406064037
 20
90.1925146554223
 30
0.0
 10
109.7541899834883
 20
90.12493335535537
 30
0.0
  0
SPLINE
  5
F8
330
1F
100
AcDbEntity
  8
0
  6
Continuous
 62
     7
370
    15
100
AcDbSpline
210
0.0
220
0.0
230
1.0
 70
     8
 71
     3
 72
    24
 73
    20
 74
     0
 42
0.000000001
 43
0.00000001
 40
0.0
 40
0.0
 40
0.0
 40
0.0
 40
0.249999999999999
 40
0.249999999999999
 40
0.3749999999999983
 40
0.3749999999999983
 40
0.4374999999999987
 40
0.4374999999999987
 40
0.4687499999999975
 40
0.4687499999999975
 40
0.4999999999999963
 40
0.4999999999999963
 40
0.5624999999999984
 40
0.5624999999999984
 40
0.6250000000000006
 40
0.6250000000000006
 40
0.7500000000000001
 40
0.7500000000000001
 40
1.0
 40
1.0
 40
1.0
 40
1.0
 10
108.6768982886193
 20
91.31033470287292
 30
0.0
 10
108.6906514072895
 20
91.3809847608632
 30
0.0
 10
108.7084239746954
 20
91.44758287362811
 30
0.0
 10
108.7606750662508
 20
91.52168089386133
 30
0.0
 10
108.7817101418323
 20
91.54293870102288
 30
0.0
 10
108.8346105494607
 20
91.55108462716913
 30
0.0
 10
108.8557162223387
 20
91.55014482377334
 30
0.0
 10
108.9017683910166
 20
91.529128832196
 30
0.0
 10
108.920138863
 20
91.51822002608839
 30
0.0
 10
108.9616904980657
 20
91.48558511514102
 30
0.0
 10
108.9842571708227
 20
91.46409313476964
 30
0.0
 10
109.0470381872827
 20
91.39562719118332
 30
0.0
 10
109.0801679482506
 20
91.34955273297824
 30
0.0
 10
109.1370856347356
 20
91.26454484464357
 30
0.0
 10
109.1612716602393
 20
91.2242645434622
 30
0.0
 10
109.2264796106191
 20
91.10932831699625
 30
0.0
 10
109.2611956708104
 20
91.03874533184923
 30
0.0
 10
109.3544109411412
 20
90.83453957277064
 30
0.0
 10
109.4000834765019
 20
90.71164119044329
 30
0.0
 10
109.4383885600004
 20
90.59476791405571
 30
0.0
  0
SPLINE
  5
F9
330
1F
100
AcDbEntity
  8
0
  6
Continuous
 62
     7
370
    15
100
AcDbSpline
210
0.0
220
0.0
230
1.0
 70
     8
 71
     3
 72
     8
 73
     4
 74
     0
 42
0.000000001
 43
0.00000001
 40
0.0
 40
0.0
 40
0.0
 40
0.0
 40
1.0
 40
1.0
 40
1.0
 40
1.0
 10
161.906167745385
 20
141.4520827208179
 30
0.0
 10
161.4110277160206
 20
140.5654030726377
 30
0.0
 10
160.9169450107417
 20
139.6781404369517
 30
0.0
 10
160.4242349138959
 20
138.7901214388253
 30
0.0
  0
LINE
  5
FA
330
1F
100
AcDbEntity
  8
0
  6
Continuous
 62
     7
370
    15
100
AcDbLine
 10
161.9061677454
 20
135.44357691
 30
0.0
 11
161.9061677454
 21
141.4520827208
 31
0.0
  0
SPLINE
  5
FB
330
1F
100
AcDbEntity
  8
0
  6
Continuous
 62
     7
370
    15
100
AcDbSpline
210
0.0
220
0.0
230
1.0
 70
     8
 71
     3
 72
     8
 73
     4
 74
     0
 42
0.000000001
 43
0.00000001
 40
0.0
 40
0.0
 40
0.0
 40
0.0
 40
1.0
 40
1.0
 40
1.0
 40
1.0
 10
160.4242349138959
 20
132.035030915237
 30
0.0
 10
160.9035130644857
 20
133.1760421450896
 30
0.0
 10
161.3990809036257
 20
134.3124265558574
 30
0.0
 10
161.906167745385
 20
135.4435769100211
 30
0.0
  0
LINE
  5
FC
330
1F
100
AcDbEntity
  8
0
  6
Continuous
 62
     7
370
    15
100
AcDbLine
 10
160.4242349139
 20
132.0350309152
 30
0.0
 11
160.4242349139
 21
138.7901214388
 31
0.0
  0
LINE
  5
FD
330
1F
100
AcDbEntity
  8
0
  6
Continuous
 62
     7
370
    15
100
AcDbLine
 10
165.8642349139
 20
141.4520827208
 30
0.0
 11
161.9061677454
 21
141.4520827208
 31
0.0
  0
LINE
  5
FE
330
1F
100
AcDbEntity
  8
0
  6
Continuous
 62
     7
370
    15
100
AcDbLine
 10
161.9061677454
 20
135.44357691
 30
0.0
 11
165.8642349139
 21
135.44357691
 31
0.0
  0
LINE
  5
FF
330
1F
100
AcDbEntity
  8
0
  6
Continuous
 62
     7
370
    15
100
AcDbLine
 10
160.4242349139
 20
131.1207538791
 30
0.0
 11
160.4242349139
 21
132.0350309152
 31
0.0
  0
SPLINE
  5
100
330
1F
100
AcDbEntity
  8
0
  6
Continuous
 62
     7
370
    15
100
AcDbSpline
210
0.0
220
0.0
230
1.0
 70
     8
 71
     3
 72
    12
 73
     8
 74
     0
 42
0.000000001
 43
0.00000001
 40
0.0
 40
0.0
 40
0.0
 40
0.0
 40
0.250000000000002
 40
0.250000000000002
 40
0.500000000000004
 40
0.500000000000004
 40
1.0
 40
1.0
 40
1.0
 40
1.0
 10
165.8642349138959
 20
135.4435769100211
 30
0.0
 10
165.9554346357216
 20
135.4435769100211
 30
0.0
 10
166.0460296448576
 20
135.4153572114332
 30
0.0
 10
166.1994423713042
 20
135.3209142041851
 30
0.0
 10
166.2646512386279
 20
135.2546272274798
 30
0.0
 10
166.4174357679678
 20
135.0290024041915
 30
0.0
 10
166.4642349138959
 20
134.8465761411589
 30
0.0
 10
166.4642349138959
 20
134.665839508912
 30
0.0
  0
LINE
  5
101
330
1F
100
AcDbEntity
  8
0
  6
Continuous
 62
     7
370
    15
100
AcDbLine
 10
166.4642349139
 20
134.6658395089
 30
0.0
 11
166.4642349139
 21
130.8348872477
 31
0.0
  0
SPLINE
  5
102
330
1F
100
AcDbEntity
  8
0
  6
Continuous
 62
     7
370
    15
100
AcDbSpline
210
0.0
220
0.0
230
1.0
 70
     8
 71
     3
 72
    10
 73
     6
 74
     0
 42
0.000000001
 43
0.00000001
 40
0.0
 40
0.0
 40
0.0
 40
0.0
 40
0.5
 40
0.5
 40
1.0
 40
1.0
 40
1.0
 40
1.0
 10
166.4642349138959
 20
140.8313275714175
 30
0.0
 10
166.4642349138959
 20
140.9917328377684
 30
0.0
 10
166.4019970827891
 20
141.1507946507569
 30
0.0
 10
166.1828621590465
 20
141.3817071163873
 30
0.0
 10
166.0252734640546
 20
141.4520827208179
 30
0.0
 10
165.8642349138959
 20
141.4520827208179
 30
0.0
  0
LINE
  5
103
330
1F
100
AcDbEntity
  8
0
  6
Continuous
 62
     7
370
    15
100
AcDbLine
 10
166.4642349139
 20
134.6658395089
 30
0.0
 11
166.4642349139
 21
140.8313275714
 31
0.0
  0
SPLINE
  5
104
330
1F
100
AcDbEntity
  8
0
  6
Continuous
 62
     7
370
    15
100
AcDbSpline
210
0.0
220
0.0
230
1.0
 70
     8
 71
     3
 72
     8
 73
     4
 74
     0
 42
0.000000001
 43
0.00000001
 40
0.0
 40
0.0
 40
0.0
 40
0.0
 40
1.0
 40
1.0
 40
1.0
 40
1.0
 10
156.6042349138959
 20
138.7901214388253
 30
0.0
 10
156.1115248170501
 20
139.6781404369517
 30
0.0
 10
155.6174421117712
 20
140.5654030726377
 30
0.0
 10
155.1223020824069
 20
141.4520827208179
 30
0.0
  0
SPLINE
  5
105
330
1F
100
AcDbEntity
  8
0
  6
Continuous
 62
     7
370
    15
100
AcDbSpline
210
0.0
220
0.0
230
1.0
 70
     8
 71
     3
 72
     8
 73
     4
 74
     0
 42
0.000000001
 43
0.00000001
 40
0.0
 40
0.0
 40
0.0
 40
0.0
 40
1.0
 40
1.0
 40
1.0
 40
1.0
 10
155.1223020824069
 20
135.4435769100211
 30
0.0
 10
155.6293889241661
 20
134.3124265558574
 30
0.0
 10
156.1249567633061
 20
133.1760421450896
 30
0.0
 10
156.6042349138959
 20
132.035030915237
 30
0.0
  0
LINE
  5
106
330
1F
100
AcDbEntity
  8
0
  6
Continuous
 62
     7
370
    15
100
AcDbLine
 10
156.6042349139
 20
132.0350309152
 30
0.0
 11
156.6042349139
 21
138.7901214388
 31
0.0
  0
LINE
  5
107
330
1F
100
AcDbEntity
  8
0
  6
Continuous
 62
     7
370
    15
100
AcDbLine
 10
156.6042349139
 20
132.0350309152
 30
0.0
 11
156.6042349139
 21
131.1207538791
 31
0.0
  0
LINE
  5
108
330
1F
100
AcDbEntity
  8
0
  6
Continuous
 62
     7
370
    15
100
AcDbLine
 10
190.5142349139
 20
101.1848872477
 30
0.0
 11
190.5142349139
 21
120.7848872477
 31
0.0
  0
LINE
  5
109
330
1F
100
AcDbEntity
  8
0
  6
Continuous
 62
     7
370
    15
100
AcDbLine
 10
190.3142349139
 20
100.9848872477
 30
0.0
 11
190.3142349139
 21
120.9848872477
 31
0.0
  0
SPLINE
  5
10A
330
1F
100
AcDbEntity
  8
0
  6
Continuous
 62
     7
370
    15
100
AcDbSpline
210
0.0
220
0.0
230
1.0
 70
     8
 71
     3
 72
    38
 73
    34
 74
     0
 42
0.000000001
 43
0.00000001
 40
0.0
 40
0.0
 40
0.0
 40
0.0
 40
0.0625
 40
0.0625
 40
0.1249999999999999
 40
0.1249999999999999
 40
0.1874999999999999
 40
0.1874999999999999
 40
0.2499999999999999
 40
0.2499999999999999
 40
0.3124999999999999
 40
0.3124999999999999
 40
0.3749999999999999
 40
0.3749999999999999
 40
0.4375
 40
0.4375
 40
0.5000000000000001
 40
0.5000000000000001
 40
0.5625000000000001
 40
0.5625000000000001
 40
0.6250000000000001
 40
0.6250000000000001
 40
0.6875000000000001
 40
0.6875000000000001
 40
0.75
 40
0.75
 40
0.8125
 40
0.8125
 40
0.875
 40
0.875
 40
0.9375
 40
0.9375
 40
1.0
 40
1.0
 40
1.0
 40
1.0
 10
188.0642349138959
 20
110.9848872476536
 30
0.0
 10
188.0642349138959
 20
110.7853344028864
 30
0.0
 10
188.0398661580451
 20
110.5860152590979
 30
0.0
 10
187.9429335774714
 20
110.1947097600595
 30
0.0
 10
187.8721176011364
 20
110.0085066854785
 30
0.0
 10
187.6896142982541
 20
109.6532091296826
 30
0.0
 10
187.5779169826633
 20
109.4853248751629
 30
0.0
 10
187.3256114682056
 20
109.1792446403723
 30
0.0
 10
187.1825029656248
 20
109.0379453195995
 30
0.0
 10
186.8742201928549
 20
108.7865533933387
 30
0.0
 10
186.7096188945535
 20
108.6763592959817
 30
0.0
 10
186.3605213497839
 20
108.4848361049231
 30
0.0
 10
186.1757193288808
 20
108.4038387475253
 30
0.0
 10
185.7994234863255
 20
108.2754518763386
 30
0.0
 10
185.606352313236
 20
108.2271073296029
 30
0.0
 10
185.2102480972046
 20
108.1620903021945
 30
0.0
 10
185.0089895217728
 20
108.1460064456352
 30
0.0
 10
184.6106438060265
 20
108.1464848340768
 30
0.0
 10
184.4119998213145
 20
108.1627624181957
 30
0.0
 10
184.0158013293372
 20
108.2285044566724
 30
0.0
 10
183.8207836022883
 20
108.277805006586
 30
0.0
 10
183.445798738374
 20
108.4066958809756
 30
0.0
 10
183.2643947940666
 20
108.4864827766336
 30
0.0
 10
182.9144526267615
 20
108.6790822352286
 30
0.0
 10
182.7487093551898
 20
108.790674231827
 30
0.0
 10
182.4437848273259
 20
109.0401318873175
 30
0.0
 10
182.3032837400126
 20
109.1786409734082
 30
0.0
 10
182.049094994442
 20
109.4871814228052
 30
0.0
 10
181.9384788332306
 20
109.6539701640984
 30
0.0
 10
181.7568845309137
 20
110.0074427371083
 30
0.0
 10
181.6846095369511
 20
110.1979803720756
 30
0.0
 10
181.5888440640256
 20
110.5855186165511
 30
0.0
 10
181.5642349138959
 20
110.7831527201412
 30
0.0
 10
181.5642349138959
 20
110.9848872476536
 30
0.0
  0
SPLINE
  5
10B
330
1F
100
AcDbEntity
  8
0
  6
Continuous
 62
     7
370
    15
100
AcDbSpline
210
0.0
220
0.0
230
1.0
 70
     8
 71
     3
 72
    32
 73
    28
 74
     0
 42
0.000000001
 43
0.00000001
 40
0.0
 40
0.0
 40
0.0
 40
0.0
 40
0.062500000000001
 40
0.062500000000001
 40
0.125000000000002
 40
0.125000000000002
 40
0.187500000000003
 40
0.187500000000003
 40
0.250000000000004
 40
0.250000000000004
 40
0.3750000000000043
 40
0.3750000000000043
 40
0.5000000000000047
 40
0.5000000000000047
 40
0.625000000000005
 40
0.625000000000005
 40
0.6875000000000041
 40
0.6875000000000041
 40
0.7500000000000032
 40
0.7500000000000032
 40
0.8125000000000024
 40
0.8125000000000024
 40
0.8750000000000017
 40
0.8750000000000017
 40
0.9375000000000009
 40
0.9375000000000009
 40
1.0
 40
1.0
 40
1.0
 40
1.0
 10
181.5642349138959
 20
110.9848872476536
 30
0.0
 10
181.5642349138959
 20
111.1868512597163
 30
0.0
 10
181.5893371880442
 20
111.3874365318552
 30
0.0
 10
181.6858506251026
 20
111.7756098293373
 30
0.0
 10
181.7584773586817
 20
111.9662297792088
 30
0.0
 10
181.9414210220629
 20
112.3207136433991
 30
0.0
 10
182.0529547547551
 20
112.4880142170442
 30
0.0
 10
182.3082315065267
 20
112.7963772826101
 30
0.0
 10
182.4502445390688
 20
112.9358909540425
 30
0.0
 10
182.9164289564898
 20
113.3142934444821
 30
0.0
 10
183.2656188342031
 20
113.5027255045496
 30
0.0
 10
184.0263050753782
 20
113.7609795436627
 30
0.0
 10
184.4210799785959
 20
113.8245723145779
 30
0.0
 10
185.2266332747861
 20
113.8224655386052
 30
0.0
 10
185.6204926828322
 20
113.7568567950201
 30
0.0
 10
186.1890073760417
 20
113.5606237004358
 30
0.0
 10
186.3701098138618
 20
113.4802621263536
 30
0.0
 10
186.7157157468351
 20
113.2894590219403
 30
0.0
 10
186.8811773926966
 20
113.1782725788228
 30
0.0
 10
187.1896009692488
 20
112.9252825062524
 30
0.0
 10
187.3294339964403
 20
112.7863327334172
 30
0.0
 10
187.5794011302589
 20
112.4821996018327
 30
0.0
 10
187.6906564375486
 20
112.3148794699804
 30
0.0
 10
187.8730012407522
 20
111.959200959636
 30
0.0
 10
187.9430565647856
 20
111.7740113746628
 30
0.0
 10
188.0389318050953
 20
111.3880832857977
 30
0.0
 10
188.0642349138959
 20
111.1846670951823
 30
0.0
 10
188.0642349138959
 20
110.9848872476536
 30
0.0
  0
CIRCLE
  5
10C
330
1F
100
AcDbEntity
  8
0
  6
HIDDEN
 62
     7
370
     0
100
AcDbCircle
 10
184.8142349139
 20
110.9848872477
 30
0.0
 40
2.105669347724856
  0
CIRCLE
  5
10D
330
1F
100
AcDbEntity
  8
0
  6
HIDDEN
 62
     7
370
     0
100
AcDbCircle
 10
184.8142349139
 20
110.9848872477
 30
0.0
 40
1.69553422183543
  0
ARC
  5
10E
330
1F
100
AcDbEntity
  8
0
  6
HIDDEN
 62
     7
370
     0
100
AcDbCircle
 10
184.8142349139
 20
110.9848872477
 30
0.0
 40
1.395534221835433
100
AcDbArc
 50
234.0064780494
 51
270.0
  0
ARC
  5
10F
330
1F
100
AcDbEntity
  8
0
  6
HIDDEN
 62
     7
370
     0
100
AcDbCircle
 10
184.8142349139
 20
110.9848872477
 30
0.0
 40
1.395534221835441
100
AcDbArc
 50
53.9969038093
 51
185.814928099
  0
ARC
  5
110
330
1F
100
AcDbEntity
  8
0
  6
HIDDEN
 62
     7
370
     0
100
AcDbCircle
 10
184.8142349139
 20
110.9848872477
 30
0.0
 40
1.395534221835442
100
AcDbArc
 50
270.0
 51
6.0623377213
  0
LINE
  5
111
330
1F
100
AcDbEntity
  8
0
  6
HIDDEN
 62
     7
370
     0
100
AcDbLine
 10
155.1223020824
 20
135.44357691
 30
0.0
 11
155.1223020824
 21
130.8348872477
 31
0.0
  0
LINE
  5
112
330
1F
100
AcDbEntity
  8
0
  6
HIDDEN
 62
     7
370
     0
100
AcDbLine
 10
128.5093851185
 20
87.4602876248
 30
0.0
 11
128.2577275243
 21
87.4367660034
 31
0.0
  0
SPLINE
  5
113
330
1F
100
AcDbEntity
  8
0
  6
HIDDEN
 62
     7
370
     0
100
AcDbSpline
210
0.0
220
0.0
230
1.0
 70
     8
 71
     3
 72
    12
 73
     8
 74
     0
 42
0.000000001
 43
0.00000001
 40
0.0
 40
0.0
 40
0.0
 40
0.0
 40
0.2208206222957633
 40
0.4480937282858181
 40
0.6689487283412094
 40
0.8961444393255292
 40
1.0
 40
1.0
 40
1.0
 40
1.0
 10
134.2692369154975
 20
130.8224157234701
 30
0.0
 10
134.4012801261003
 20
130.839472811015
 30
0.0
 10
134.6692249127723
 20
130.874085402322
 30
0.0
 10
134.9643809669713
 20
130.9010573442794
 30
0.0
 10
135.1654734059473
 20
130.9165670849239
 30
0.0
 10
135.2628047528866
 20
130.9226763036109
 30
0.0
 10
135.2541466568106
 20
130.9221310824084
 30
0.0
 10
135.2514304871434
 20
130.9219600386502
 30
0.0
  0
SPLINE
  5
114
330
1F
100
AcDbEntity
  8
0
  6
HIDDEN
 62
     7
370
     0
100
AcDbSpline
210
0.0
220
0.0
230
1.0
 70
     8
 71
     3
 72
    12
 73
     8
 74
     0
 42
0.000000001
 43
0.00000001
 40
0.0
 40
0.0
 40
0.0
 40
0.0
 40
0.1181199370517726
 40
0.3465070982512953
 40
0.5687647066777097
 40
0.7975202671891114
 40
1.0
 40
1.0
 40
1.0
 40
1.0
 10
135.251430609423
 20
91.04781444886396
 30
0.0
 10
135.2535539966864
 20
91.04768037932266
 30
0.0
 10
135.2597829939027
 20
91.04728708375478
 30
0.0
 10
135.1551164673643
 20
91.05391045126933
 30
0.0
 10
134.9451421295768
 20
91.07031487618526
 30
0.0
 10
134.6496838460352
 20
91.0979165759825
 30
0.0
 10
134.3907943816571
 20
91.13156138311606
 30
0.0
 10
134.2692369154975
 20
91.14735877183719
 30
0.0
  0
SPLINE
  5
115
330
1F
100
AcDbEntity
  8
0
  6
HIDDEN
 62
     7
370
     0
100
AcDbSpline
210
0.0
220
0.0
230
1.0
 70
     8
 71
     3
 72
    22
 73
    18
 74
     0
 42
0.000000001
 43
0.00000001
 40
0.0
 40
0.0
 40
0.0
 40
0.0
 40
0.0694705033055671
 40
0.1409377255045836
 40
0.2104135489148412
 40
0.281946622355993
 40
0.3506518733998515
 40
0.4213897814436845
 40
0.4894670043894701
 40
0.5594810940348496
 40
0.6282706827033768
 40
0.6989997382187428
 40
0.7687375408512301
 40
0.8405098102584778
 40
0.9099666189318144
 40
0.9814998892127906
 40
1.0
 40
1.0
 40
1.0
 40
1.0
 10
134.2692369154975
 20
91.14735877183719
 30
0.0
 10
134.1210630610382
 20
91.1670851116465
 30
0.0
 10
133.820456544127
 20
91.20710476506729
 30
0.0
 10
133.2855616814463
 20
91.26247842859715
 30
0.0
 10
132.6999231287775
 20
91.30693481372495
 30
0.0
 10
132.0856904692042
 20
91.33461978917711
 30
0.0
 10
131.4517738238359
 20
91.34287304264699
 30
0.0
 10
130.8296251232641
 20
91.33089298776652
 30
0.0
 10
130.2236276534034
 20
91.30014223400553
 30
0.0
 10
129.659138732277
 20
91.25467626325533
 30
0.0
 10
129.1397624946953
 20
91.19859511145576
 30
0.0
 10
128.6868969970139
 20
91.13860494913735
 30
0.0
 10
128.3081818533482
 20
91.08062503477842
 30
0.0
 10
128.0200967322731
 20
91.03170622663193
 30
0.0
 10
127.8376388357204
 20
90.99867086410617
 30
0.0
 10
127.7569808843864
 20
90.98353106785054
 30
0.0
 10
127.7712707630853
 20
90.98620302122355
 30
0.0
 10
127.7742070555573
 20
90.98675205573532
 30
0.0
  0
SPLINE
  5
116
330
1F
100
AcDbEntity
  8
0
  6
HIDDEN
 62
     7
370
     0
100
AcDbSpline
210
0.0
220
0.0
230
1.0
 70
     8
 71
     3
 72
    22
 73
    18
 74
     0
 42
0.000000001
 43
0.00000001
 40
0.0
 40
0.0
 40
0.0
 40
0.0
 40
0.0499040281125887
 40
0.1203075863893546
 40
0.1885125365560134
 40
0.2586444168297192
 40
0.327783940729316
 40
0.3988873214655101
 40
0.4686969488930339
 40
0.5405663748364756
 40
0.6097087891223016
 40
0.6809159691092502
 40
0.7490773369981714
 40
0.8192056085539695
 40
0.8876078379088252
 40
0.9579332867310425
 40
1.0
 40
1.0
 40
1.0
 40
1.0
 10
127.7742070555573
 20
130.983022439572
 30
0.0
 10
127.7754579895828
 20
130.9827834091762
 30
0.0
 10
127.7784737151471
 20
130.9822071597016
 30
0.0
 10
127.9033670422006
 20
130.9590091248781
 30
0.0
 10
128.1278488700782
 20
130.9193290885604
 30
0.0
 10
128.4468770322557
 20
130.8671176671612
 30
0.0
 10
128.8544122632524
 20
130.807787855489
 30
0.0
 10
129.3361988170853
 20
130.748313078973
 30
0.0
 10
129.8866184988806
 20
130.694706722611
 30
0.0
 10
130.4795133848288
 20
130.6542328041367
 30
0.0
 10
131.106465955146
 20
130.6310335557704
 30
0.0
 10
131.734676928974
 20
130.6280554525555
 30
0.0
 10
132.3589370214511
 20
130.6451897782547
 30
0.0
 10
132.9515553112793
 20
130.6798756339448
 30
0.0
 10
133.5083813948075
 20
130.7288319976086
 30
0.0
 10
133.9461882394404
 20
130.7787321622318
 30
0.0
 10
134.1812549462133
 20
130.8105185512235
 30
0.0
 10
134.2692369154975
 20
130.8224157234701
 30
0.0
  0
LINE
  5
117
330
1F
100
AcDbEntity
  8
0
  6
HIDDEN
 62
     7
370
     0
100
AcDbLine
 10
121.5182095101
 20
93.9848872477
 30
0.0
 11
121.5182095101
 21
127.9848872477
 31
0.0
  0
SPLINE
  5
118
330
1F
100
AcDbEntity
  8
0
  6
HIDDEN
 62
     7
370
     0
100
AcDbSpline
210
0.0
220
0.0
230
1.0
 70
     8
 71
     3
 72
    11
 73
     7
 74
     0
 42
0.000000001
 43
0.00000001
 40
0.0
 40
0.0
 40
0.0
 40
0.0
 40
0.0005779865010846
 40
0.0005779865010846
 40
0.0005779865010846
 40
0.0011559733324422
 40
0.0011559733324422
 40
0.0011559733324422
 40
0.0011559733324422
 10
108.6142349138959
 20
112.9847278558136
 30
0.0
 10
108.7809021687019
 20
112.9827442164729
 30
0.0
 10
108.9475685983795
 20
112.9807066094646
 30
0.0
 10
109.1142349368314
 20
112.9785951460585
 30
0.0
 10
109.2809013656578
 20
112.9764836815075
 30
0.0
 10
109.4475677392955
 20
112.9742981183514
 30
0.0
 10
109.6142349138959
 20
112.9720155410201
 30
0.0
  0
SPLINE
  5
119
330
1F
100
AcDbEntity
  8
0
  6
HIDDEN
 62
     7
370
     0
100
AcDbSpline
210
0.0
220
0.0
230
1.0
 70
     8
 71
     3
 72
    11
 73
     7
 74
     0
 42
0.000000001
 43
0.00000001
 40
0.0
 40
0.0
 40
0.0
 40
0.0
 40
0.0005782382535738
 40
0.0005782382535738
 40
0.0005782382535738
 40
0.0011564766069467
 40
0.0011564766069467
 40
0.0011564766069467
 40
0.0011564766069467
 10
109.6142349138959
 20
108.9881869454354
 30
0.0
 10
109.4475809599273
 20
108.9877493676738
 30
0.0
 10
109.2809202877253
 20
108.9872693030014
 30
0.0
 10
109.1142533990599
 20
108.986749763632
 30
0.0
 10
108.9475864806639
 20
108.98623022417
 30
0.0
 10
108.7809133508306
 20
108.9856713951481
 30
0.0
 10
108.6142349138959
 20
108.9850858515649
 30
0.0
  0
LINE
  5
11A
330
1F
100
AcDbEntity
  8
0
  6
HIDDEN
 62
     7
370
     0
100
AcDbLine
 10
148.1740608824
 20
93.9848872477
 30
0.0
 11
148.1740608824
 21
127.9848872477
 31
0.0
  0
LINE
  5
11B
330
1F
100
AcDbEntity
  8
0
  6
HIDDEN
 62
     7
370
     0
100
AcDbLine
 10
150.4642349139
 20
95.2598872477
 30
0.0
 11
150.4642349139
 21
126.7098872386
 31
0.0
  0
SPLINE
  5
11C
330
1F
100
AcDbEntity
  8
0
  6
HIDDEN
 62
     7
370
     0
100
AcDbSpline
210
0.0
220
0.0
230
1.0
 70
     8
 71
     3
 72
    16
 73
    12
 74
     0
 42
0.000000001
 43
0.00000001
 40
0.0
 40
0.0
 40
0.0
 40
0.0
 40
0.124999999999998
 40
0.124999999999998
 40
0.249999999999996
 40
0.249999999999996
 40
0.4999999999999973
 40
0.4999999999999973
 40
0.7499999999999987
 40
0.7499999999999987
 40
1.0
 40
1.0
 40
1.0
 40
1.0
 10
117.3142349138959
 20
95.18339681162199
 30
0.0
 10
117.4093566685617
 20
95.18339681162199
 30
0.0
 10
117.5026867372898
 20
95.1795809782292
 30
0.0
 10
117.6859484980278
 20
95.16481042549937
 30
0.0
 10
117.7768262135848
 20
95.1536523775238
 30
0.0
 10
118.0336279111046
 20
95.11118110738208
 30
0.0
 10
118.1886952759766
 20
95.07013491017928
 30
0.0
 10
118.4424417375312
 20
94.97498879359739
 30
0.0
 10
118.543312189199
 20
94.92022605951581
 30
0.0
 10
118.6785586038939
 20
94.80896493561194
 30
0.0
 10
118.7142349138959
 20
94.75179519828325
 30
0.0
 10
118.7142349138959
 20
94.69737362524953
 30
0.0
  0
SPLINE
  5
11D
330
1F
100
AcDbEntity
  8
0
  6
HIDDEN
 62
     7
370
     0
100
AcDbSpline
210
0.0
220
0.0
230
1.0
 70
     8
 71
     3
 72
     8
 73
     4
 74
     0
 42
0.000000001
 43
0.00000001
 40
0.0
 40
0.0
 40
0.0
 40
0.0
 40
1.0
 40
1.0
 40
1.0
 40
1.0
 10
109.9142349171767
 20
97.32819975770423
 30
0.0
 10
109.9142349171787
 20
96.44430261538729
 30
0.0
 10
109.9007542912693
 20
95.72971937032533
 30
0.0
 10
109.8994029230799
 20
95.18339681162198
 30
0.0
  0
SPLINE
  5
11E
330
1F
100
AcDbEntity
  8
0
  6
HIDDEN
 62
     7
370
     0
100
AcDbSpline
210
0.0
220
0.0
230
1.0
 70
     8
 71
     3
 72
    10
 73
     6
 74
     0
 42
0.000000001
 43
0.00000001
 40
0.0
 40
0.0
 40
0.0
 40
0.0
 40
0.5
 40
0.5
 40
1.0
 40
1.0
 40
1.0
 40
1.0
 10
109.6142349138959
 20
98.353110023357
 30
0.0
 10
109.7056260295781
 20
98.17847123574772
 30
0.0
 10
109.7782778633036
 20
98.00486940850072
 30
0.0
 10
109.8857767562993
 20
97.66125598951113
 30
0.0
 10
109.9142349171711
 20
97.49293016298807
 30
0.0
 10
109.9142349171768
 20
97.32819975776371
 30
0.0
  0
LINE
  5
11F
330
1F
100
AcDbEntity
  8
0
  6
HIDDEN
 62
     7
370
     0
100
AcDbLine
 10
109.6142349139
 20
101.3840604554
 30
0.0
 11
109.6142349139
 21
98.3531100234
 31
0.0
  0
SPLINE
  5
120
330
1F
100
AcDbEntity
  8
0
  6
HIDDEN
 62
     7
370
     0
100
AcDbSpline
210
0.0
220
0.0
230
1.0
 70
     8
 71
     3
 72
    10
 73
     6
 74
     0
 42
0.000000001
 43
0.00000001
 40
0.0
 40
0.0
 40
0.0
 40
0.0
 40
0.5
 40
0.5
 40
1.0
 40
1.0
 40
1.0
 40
1.0
 10
109.9142349169811
 20
102.7519008720108
 30
0.0
 10
109.9142349169811
 20
102.5099169044395
 30
0.0
 10
109.8860848879208
 20
102.2755744755074
 30
0.0
 10
109.7824949738155
 20
101.8201994532914
 30
0.0
 10
109.7058662642504
 20
101.5985948902137
 30
0.0
 10
109.6142349138959
 20
101.3840604554409
 30
0.0
  0
LINE
  5
121
330
1F
100
AcDbEntity
  8
0
  6
HIDDEN
 62
     7
370
     0
100
AcDbLine
 10
109.914234917
 20
114.5895208692
 30
0.0
 11
109.914234917
 21
102.751900872
 31
0.0
  0
SPLINE
  5
122
330
1F
100
AcDbEntity
  8
0
  6
HIDDEN
 62
     7
370
     0
100
AcDbSpline
210
0.0
220
0.0
230
1.0
 70
     8
 71
     3
 72
     8
 73
     4
 74
     0
 42
0.000000001
 43
0.00000001
 40
0.0
 40
0.0
 40
0.0
 40
0.0
 40
1.0
 40
1.0
 40
1.0
 40
1.0
 10
109.6142349138959
 20
120.5918265685342
 30
0.0
 10
109.7952663803952
 20
120.1597190829239
 30
0.0
 10
109.9142349169868
 20
119.7055736768843
 30
0.0
 10
109.9142349169811
 20
119.2178736232656
 30
0.0
  0
LINE
  5
123
330
1F
100
AcDbEntity
  8
0
  6
HIDDEN
 62
     7
370
     0
100
AcDbLine
 10
109.6142349139
 20
123.6250295547
 30
0.0
 11
109.6142349139
 21
120.5918265685
 31
0.0
  0
SPLINE
  5
124
330
1F
100
AcDbEntity
  8
0
  6
HIDDEN
 62
     7
370
     0
100
AcDbSpline
210
0.0
220
0.0
230
1.0
 70
     8
 71
     3
 72
    10
 73
     6
 74
     0
 42
0.000000001
 43
0.00000001
 40
0.0
 40
0.0
 40
0.0
 40
0.0
 40
0.5
 40
0.5
 40
1.0
 40
1.0
 40
1.0
 40
1.0
 10
109.9142349172883
 20
124.6415747375735
 30
0.0
 10
109.9142349172865
 20
124.4769383909677
 30
0.0
 10
109.8870762465313
 20
124.3097831671374
 30
0.0
 10
109.7813112512132
 20
123.9711601593362
 30
0.0
 10
109.7048964629161
 20
123.7988883820454
 30
0.0
 10
109.6142349138959
 20
123.6250295547017
 30
0.0
  0
SPLINE
  5
125
330
1F
100
AcDbEntity
  8
0
  6
HIDDEN
 62
     7
370
     0
100
AcDbSpline
210
0.0
220
0.0
230
1.0
 70
     8
 71
     3
 72
    18
 73
    14
 74
     0
 42
0.000000001
 43
0.00000001
 40
0.0
 40
0.0
 40
0.0
 40
0.0
 40
0.2500000000000033
 40
0.2500000000000033
 40
0.3750000000000029
 40
0.3750000000000029
 40
0.5000000000000026
 40
0.5000000000000026
 40
0.6250000000000022
 40
0.6250000000000022
 40
0.7500000000000018
 40
0.7500000000000018
 40
1.0
 40
1.0
 40
1.0
 40
1.0
 10
114.7142349138959
 20
127.2724008700578
 30
0.0
 10
114.7142349138959
 20
127.2179263495056
 30
0.0
 10
114.6793242225037
 20
127.1615452901531
 30
0.0
 10
114.5773149211707
 20
127.0774684492996
 30
0.0
 10
114.5356785664926
 20
127.0501347453087
 30
0.0
 10
114.4372727710038
 20
126.9971808297097
 30
0.0
 10
114.3797295592995
 20
126.9712934759926
 30
0.0
 10
114.2524313857266
 20
126.9235159311593
 30
0.0
 10
114.1828440809691
 20
126.9015680129814
 30
0.0
 10
114.0314098358142
 20
126.8621354480687
 30
0.0
 10
113.9487259327202
 20
126.8445791988428
 30
0.0
 10
113.6926144706822
 20
126.8021404334223
 30
0.0
 10
113.5046994667942
 20
126.7863776836853
 30
0.0
 10
113.3142349138959
 20
126.7863776836853
 30
0.0
  0
LINE
  5
126
330
1F
100
AcDbEntity
  8
0
  6
HIDDEN
 62
     7
370
     0
100
AcDbLine
 10
113.3142349139
 20
126.7863776837
 30
0.0
 11
109.9142349173
 21
126.7863776837
 31
0.0
  0
LINE
  5
127
330
1F
100
AcDbEntity
  8
0
  6
HIDDEN
 62
     7
370
     0
100
AcDbLine
 10
109.8452659273
 20
95.1833968116
 30
0.0
 11
117.3142349139
 21
95.1833968116
 31
0.0
  0
SPLINE
  5
128
330
1F
100
AcDbEntity
  8
0
  6
HIDDEN
 62
     7
370
     0
100
AcDbSpline
210
0.0
220
0.0
230
1.0
 70
     8
 71
     3
 72
    22
 73
    18
 74
     0
 42
0.000000001
 43
0.00000001
 40
0.0
 40
0.0
 40
0.0
 40
0.0
 40
0.125
 40
0.125
 40
0.25
 40
0.25
 40
0.5000000000000001
 40
0.5000000000000001
 40
0.5625000000000001
 40
0.5625000000000001
 40
0.6250000000000001
 40
0.6250000000000001
 40
0.75
 40
0.75
 40
0.875
 40
0.875
 40
1.0
 40
1.0
 40
1.0
 40
1.0
 10
109.8452659272538
 20
95.18339681162199
 30
0.0
 10
109.8321835345254
 20
95.43850252176966
 30
0.0
 10
109.8189639710856
 20
95.73166078087357
 30
0.0
 10
109.7965167932915
 20
96.39396124649838
 30
0.0
 10
109.787038326267
 20
96.76423516710976
 30
0.0
 10
109.7678403653305
 20
97.98679197022355
 30
0.0
 10
109.7689541383274
 20
98.92393089635542
 30
0.0
 10
109.7878649312805
 20
100.2438021258704
 30
0.0
 10
109.7924944591394
 20
100.5153040348467
 30
0.0
 10
109.8029756788854
 20
101.073688869649
 30
0.0
 10
109.8087709401698
 20
101.3608117255886
 30
0.0
 10
109.8270801610748
 20
102.2334009799603
 30
0.0
 10
109.8411150953551
 20
102.8338566563162
 30
0.0
 10
109.870572267492
 20
104.0713311488122
 30
0.0
 10
109.8861279584735
 20
104.7083473054557
 30
0.0
 10
109.9099225084704
 20
106.0198359031402
 30
0.0
 10
109.9179415606158
 20
106.6959585148008
 30
0.0
 10
109.9142349138959
 20
107.3802536260855
 30
0.0
  0
LINE
  5
129
330
1F
100
AcDbEntity
  8
0
  6
HIDDEN
 62
     7
370
     0
100
AcDbLine
 10
109.9142349173
 20
114.5895208692
 30
0.0
 11
109.9142349173
 21
126.7863776837
 31
0.0
  0
SPLINE
  5
12A
330
1F
100
AcDbEntity
  8
0
  6
HIDDEN
 62
     7
370
     0
100
AcDbSpline
210
0.0
220
0.0
230
1.0
 70
     8
 71
     3
 72
    10
 73
     6
 74
     0
 42
0.000000001
 43
0.00000001
 40
0.0
 40
0.0
 40
0.0
 40
0.0
 40
0.5
 40
0.5
 40
1.0
 40
1.0
 40
1.0
 40
1.0
 10
109.9142349138959
 20
107.3802536260705
 30
0.0
 10
109.9142349138957
 20
107.6541687741446
 30
0.0
 10
109.8884756840269
 20
107.9251103528742
 30
0.0
 10
109.7852697512935
 20
108.4608014344763
 30
0.0
 10
109.7079315874191
 20
108.7265482379981
 30
0.0
 10
109.6142349138959
 20
108.9881869454354
 30
0.0
  0
SPLINE
  5
12B
330
1F
100
AcDbEntity
  8
0
  6
HIDDEN
 62
     7
370
     0
100
AcDbSpline
210
0.0
220
0.0
230
1.0
 70
     8
 71
     3
 72
    10
 73
     6
 74
     0
 42
0.000000001
 43
0.00000001
 40
0.0
 40
0.0
 40
0.0
 40
0.0
 40
0.5
 40
0.5
 40
1.0
 40
1.0
 40
1.0
 40
1.0
 10
109.6142349138959
 20
112.9720155410201
 30
0.0
 10
109.7074654952867
 20
113.2359093490899
 30
0.0
 10
109.7824951075232
 20
113.5020896597279
 30
0.0
 10
109.887562206701
 20
114.0404122346854
 30
0.0
 10
109.9142349172871
 20
114.3131603509307
 30
0.0
 10
109.9142349172883
 20
114.5895208692208
 30
0.0
  0
LINE
  5
12C
330
1F
100
AcDbEntity
  8
0
  6
HIDDEN
 62
     7
370
     0
100
AcDbLine
 10
109.6142349139
 20
108.9881869454
 30
0.0
 11
109.6142349139
 21
112.972015541
 31
0.0
  0
LINE
  5
12D
330
1F
100
AcDbEntity
  8
0
  6
HIDDEN
 62
     7
370
     0
100
AcDbLine
 10
109.7642349139
 20
92.9948872477
 30
0.0
 11
109.7642349139
 21
90.1149494823
 31
0.0
  0
LINE
  5
12E
330
1F
100
AcDbEntity
  8
0
  6
HIDDEN
 62
     7
370
     0
100
AcDbLine
 10
118.7142349139
 20
92.9948872477
 30
0.0
 11
118.7142349139
 21
89.0211497165
 31
0.0
  0
LINE
  5
12F
330
1F
100
AcDbEntity
  8
0
  6
HIDDEN
 62
     7
370
     0
100
AcDbLine
 10
109.7642349139
 20
128.9748872477
 30
0.0
 11
109.7642349139
 21
131.854825013
 31
0.0
  0
CIRCLE
  5
130
330
1F
100
AcDbEntity
  8
0
  6
HIDDEN
 62
     7
370
     0
100
AcDbCircle
 10
184.8142349139
 20
110.9848872477
 30
0.0
 40
2.09999999999998
  0
LINE
  5
131
330
1F
100
AcDbEntity
  8
0
  6
HIDDEN
 62
     7
370
     0
100
AcDbLine
 10
114.7142349139
 20
128.9748872477
 30
0.0
 11
114.7142349139
 21
132.82899492
 31
0.0
  0
LINE
  5
132
330
1F
100
AcDbEntity
  8
0
  6
HIDDEN
 62
     7
370
     0
100
AcDbLine
 10
159.3142349139
 20
101.4848872477
 30
0.0
 11
159.3142349139
 21
120.4848872477
 31
0.0
  0
LINE
  5
133
330
1F
100
AcDbEntity
  8
0
  6
HIDDEN
 62
     7
370
     0
100
AcDbLine
 10
162.3142349139
 20
101.4848872477
 30
0.0
 11
162.3142349139
 21
120.4848872477
 31
0.0
  0
LINE
  5
134
330
1F
100
AcDbEntity
  8
0
  6
HIDDEN
 62
     7
370
     0
100
AcDbLine
 10
150.9642349139
 20
102.4848872477
 30
0.0
 11
150.9642349139
 21
119.4848872477
 31
0.0
  0
LINE
  5
135
330
1F
100
AcDbEntity
  8
0
  6
HIDDEN
 62
     7
370
     0
100
AcDbLine
 10
145.4642349139
 20
79.5007642648
 30
0.0
 11
145.4642349139
 21
84.5848872477
 31
0.0
  0
LINE
  5
136
330
1F
100
AcDbEntity
  8
0
  6
HIDDEN
 62
     7
370
     0
100
AcDbLine
 10
153.4642349139
 20
84.5848872477
 30
0.0
 11
145.4642349139
 21
84.5848872477
 31
0.0
  0
LINE
  5
137
330
1F
100
AcDbEntity
  8
0
  6
HIDDEN
 62
     7
370
     0
100
AcDbLine
 10
166.4642349139
 20
84.5848872477
 30
0.0
 11
160.3265601116
 21
84.5848872477
 31
0.0
  0
LINE
  5
138
330
1F
100
AcDbEntity
  8
0
  6
HIDDEN
 62
     7
370
     0
100
AcDbLine
 10
156.7019097162
 20
84.5848872477
 30
0.0
 11
153.4642349139
 21
84.5848872477
 31
0.0
  0
LINE
  5
139
330
1F
100
AcDbEntity
  8
0
  6
HIDDEN
 62
     7
370
     0
100
AcDbLine
 10
156.9985324456
 20
137.3848872477
 30
0.0
 11
153.4642349139
 21
137.3848872477
 31
0.0
  0
LINE
  5
13A
330
1F
100
AcDbEntity
  8
0
  6
HIDDEN
 62
     7
370
     0
100
AcDbLine
 10
153.4642349139
 20
137.3848872477
 30
0.0
 11
145.4642349139
 21
137.3848872477
 31
0.0
  0
LINE
  5
13B
330
1F
100
AcDbEntity
  8
0
  6
HIDDEN
 62
     7
370
     0
100
AcDbLine
 10
166.4642349139
 20
137.3848872477
 30
0.0
 11
160.0299373822
 21
137.3848872477
 31
0.0
  0
LINE
  5
13C
330
1F
100
AcDbEntity
  8
0
  6
HIDDEN
 62
     7
370
     0
100
AcDbLine
 10
190.1642349139
 20
106.8780984777
 30
0.0
 11
190.1642349139
 21
115.0916760176
 31
0.0
  0
SPLINE
  5
13D
330
1F
100
AcDbEntity
  8
0
  6
HIDDEN
 62
     7
370
     0
100
AcDbSpline
210
0.0
220
0.0
230
1.0
 70
     8
 71
     3
 72
    11
 73
     7
 74
     0
 42
0.000000001
 43
0.00000001
 40
0.0
 40
0.0
 40
0.0
 40
0.0
 40
0.0008203708524183
 40
0.0008203708524183
 40
0.0008203708524183
 40
0.0016409967870154
 40
0.0016409967870154
 40
0.0016409967870154
 40
0.0016409967870154
 10
109.7642349138959
 20
95.13285449701092
 30
0.0
 10
109.5730766135973
 20
95.09167546839178
 30
0.0
 10
109.3816495435251
 20
95.05292149616179
 30
0.0
 10
109.1900039200044
 20
95.01655373688325
 30
0.0
 10
108.998298514924
 20
94.98017463311723
 30
0.0
 10
108.806359562865
 20
94.94618038234965
 30
0.0
 10
108.6142349157942
 20
94.91453225695845
 30
0.0
  0
ELLIPSE
  5
13E
330
1F
100
AcDbEntity
  8
0
  6
HIDDEN
 62
     7
370
     0
100
AcDbEllipse
 10
104.3718030453
 20
110.9848872477
 30
0.0
 11
20.19992453367504
 21
-1.421085471520200E-14
 31
0.0
210
0.0
220
0.0
230
1.0
 40
0.8164965809
 41
1.300566354717479
 42
1.359198697209065
  0
LINE
  5
13F
330
1F
100
AcDbEntity
  8
0
  6
HIDDEN
 62
     7
370
     0
100
AcDbLine
 10
188.1642349139
 20
109.2894890643
 30
0.0
 11
188.1642349139
 21
112.680285431
 31
0.0
  0
LINE
  5
140
330
1F
100
AcDbEntity
  8
0
  6
HIDDEN
 62
     7
370
     0
100
AcDbLine
 10
188.8651968082
 20
109.2894890643
 30
0.0
 11
188.8651968082
 21
112.680285431
 31
0.0
  0
SPLINE
  5
141
330
1F
100
AcDbEntity
  8
0
  6
HIDDEN
 62
     7
370
     0
100
AcDbSpline
210
0.0
220
0.0
230
1.0
 70
     8
 71
     3
 72
     9
 73
     5
 74
     0
 42
0.000000001
 43
0.00000001
 40
0.0
 40
0.0
 40
0.0
 40
0.0
 40
0.2733875688635753
 40
0.9999999999999999
 40
0.9999999999999999
 40
0.9999999999999999
 40
0.9999999999999999
 10
190.4837613080421
 20
118.0824087929469
 30
0.0
 10
190.4776404313483
 20
118.0830905908262
 30
0.0
 10
190.4552514225163
 20
118.0855844784674
 30
0.0
 10
190.4286468812325
 20
118.0735406605722
 30
0.0
 10
190.409315690811
 20
118.0647894727712
 30
0.0
  0
LINE
  5
142
330
1F
100
AcDbEntity
  8
0
  6
HIDDEN
 62
     7
370
     0
100
AcDbLine
 10
188.1642349139
 20
118.0647894728
 30
0.0
 11
190.4093156908
 21
118.0647894728
 31
0.0
  0
LINE
  5
143
330
1F
100
AcDbEntity
  8
0
  6
HIDDEN
 62
     7
370
     0
100
AcDbLine
 10
188.1642349139
 20
118.0848872477
 30
0.0
 11
188.1642349139
 21
115.8848872477
 31
0.0
  0
SPLINE
  5
144
330
1F
100
AcDbEntity
  8
0
  6
HIDDEN
 62
     7
370
     0
100
AcDbSpline
210
0.0
220
0.0
230
1.0
 70
     8
 71
     3
 72
     8
 73
     4
 74
     0
 42
0.000000001
 43
0.00000001
 40
0.0
 40
0.0
 40
0.0
 40
0.0
 40
1.0
 40
1.0
 40
1.0
 40
1.0
 10
190.3797093349729
 20
115.8848872476537
 30
0.0
 10
190.4308537093881
 20
116.063094195186
 30
0.0
 10
190.4755828675163
 20
116.2403054501054
 30
0.0
 10
190.5142349138959
 20
116.4162964040319
 30
0.0
  0
LINE
  5
145
330
1F
100
AcDbEntity
  8
0
  6
HIDDEN
 62
     7
370
     0
100
AcDbLine
 10
188.1642349139
 20
112.680285431
 30
0.0
 11
188.8651968082
 21
112.680285431
 31
0.0
  0
LINE
  5
146
330
1F
100
AcDbEntity
  8
0
  6
HIDDEN
 62
     7
370
     0
100
AcDbLine
 10
188.1642349139
 20
115.8848872477
 30
0.0
 11
188.1642349139
 21
112.680285431
 31
0.0
  0
SPLINE
  5
147
330
1F
100
AcDbEntity
  8
0
  6
HIDDEN
 62
     7
370
     0
100
AcDbSpline
210
0.0
220
0.0
230
1.0
 70
     8
 71
     3
 72
    10
 73
     6
 74
     0
 42
0.000000001
 43
0.00000001
 40
0.0
 40
0.0
 40
0.0
 40
0.0
 40
0.5
 40
0.5
 40
1.0
 40
1.0
 40
1.0
 40
1.0
 10
188.8651968082193
 20
112.6802854309722
 30
0.0
 10
189.0258513252317
 20
113.0358954240204
 30
0.0
 10
189.2234536507108
 20
113.3709976180291
 30
0.0
 10
189.665567846353
 20
114.0151649674416
 30
0.0
 10
189.9098436900016
 20
114.3230308474214
 30
0.0
 10
190.1642349138959
 20
114.6162609546687
 30
0.0
  0
SPLINE
  5
148
330
1F
100
AcDbEntity
  8
0
  6
HIDDEN
 62
     7
370
     0
100
AcDbSpline
210
0.0
220
0.0
230
1.0
 70
     8
 71
     3
 72
     8
 73
     4
 74
     0
 42
0.000000001
 43
0.00000001
 40
0.0
 40
0.0
 40
0.0
 40
0.0
 40
1.0
 40
1.0
 40
1.0
 40
1.0
 10
190.1642349138959
 20
115.0916760175737
 30
0.0
 10
190.2320916336776
 20
115.3574091910906
 30
0.0
 10
190.3041828923274
 20
115.6217236650361
 30
0.0
 10
190.3797093349729
 20
115.8848872476537
 30
0.0
  0
LINE
  5
149
330
1F
100
AcDbEntity
  8
0
  6
HIDDEN
 62
     7
370
     0
100
AcDbLine
 10
188.8651968082
 20
109.2894890643
 30
0.0
 11
188.1642349139
 21
109.2894890643
 31
0.0
  0
LINE
  5
14A
330
1F
100
AcDbEntity
  8
0
  6
HIDDEN
 62
     7
370
     0
100
AcDbLine
 10
188.1642349139
 20
109.2894890643
 30
0.0
 11
188.1642349139
 21
106.0848872477
 31
0.0
  0
SPLINE
  5
14B
330
1F
100
AcDbEntity
  8
0
  6
HIDDEN
 62
     7
370
     0
100
AcDbSpline
210
0.0
220
0.0
230
1.0
 70
     8
 71
     3
 72
    10
 73
     6
 74
     0
 42
0.000000001
 43
0.00000001
 40
0.0
 40
0.0
 40
0.0
 40
0.0
 40
0.5
 40
0.5
 40
1.0
 40
1.0
 40
1.0
 40
1.0
 10
190.1642349138956
 20
107.3535135406384
 30
0.0
 10
189.9079340487649
 20
107.6489448413701
 30
0.0
 10
189.6635076426298
 20
107.9574233773508
 30
0.0
 10
189.2229273271449
 20
108.5997327447789
 30
0.0
 10
189.025742650585
 20
108.9341196234421
 30
0.0
 10
188.8651968082191
 20
109.289489064335
 30
0.0
  0
SPLINE
  5
14C
330
1F
100
AcDbEntity
  8
0
  6
HIDDEN
 62
     7
370
     0
100
AcDbSpline
210
0.0
220
0.0
230
1.0
 70
     8
 71
     3
 72
     8
 73
     4
 74
     0
 42
0.000000001
 43
0.00000001
 40
0.0
 40
0.0
 40
0.0
 40
0.0
 40
1.0
 40
1.0
 40
1.0
 40
1.0
 10
190.3797093349729
 20
106.0848872476537
 30
0.0
 10
190.30417432589
 20
106.3480806790803
 30
0.0
 10
190.2320833850902
 20
106.6123976064454
 30
0.0
 10
190.1642349138959
 20
106.8780984777336
 30
0.0
  0
LINE
  5
14D
330
1F
100
AcDbEntity
  8
0
  6
HIDDEN
 62
     7
370
     0
100
AcDbLine
 10
190.4093156908
 20
103.9049850225
 30
0.0
 11
190.4817893659
 21
103.8938949666
 31
0.0
  0
LINE
  5
14E
330
1F
100
AcDbEntity
  8
0
  6
HIDDEN
 62
     7
370
     0
100
AcDbLine
 10
188.1642349139
 20
103.9049850225
 30
0.0
 11
190.4093156908
 21
103.9049850225
 31
0.0
  0
LINE
  5
14F
330
1F
100
AcDbEntity
  8
0
  6
HIDDEN
 62
     7
370
     0
100
AcDbLine
 10
188.1642349139
 20
106.0848872477
 30
0.0
 11
188.1642349139
 21
103.8848872477
 31
0.0
  0
SPLINE
  5
150
330
1F
100
AcDbEntity
  8
0
  6
HIDDEN
 62
     7
370
     0
100
AcDbSpline
210
0.0
220
0.0
230
1.0
 70
     8
 71
     3
 72
     8
 73
     4
 74
     0
 42
0.000000001
 43
0.00000001
 40
0.0
 40
0.0
 40
0.0
 40
0.0
 40
1.0
 40
1.0
 40
1.0
 40
1.0
 10
190.5142349138959
 20
105.5534780912754
 30
0.0
 10
190.4755828675163
 20
105.7294690452019
 30
0.0
 10
190.4308537093881
 20
105.9066803001213
 30
0.0
 10
190.3797093349729
 20
106.0848872476537
 30
0.0
  0
LINE
  5
151
330
1F
100
AcDbEntity
  8
0
  6
HIDDEN
 62
     7
370
     0
100
AcDbLine
 10
118.7142349139
 20
92.9948872477
 30
0.0
 11
118.7142349139
 21
94.6973736252
 31
0.0
  0
LINE
  5
152
330
1F
100
AcDbEntity
  8
0
  6
HIDDEN
 62
     7
370
     0
100
AcDbLine
 10
109.7642349139
 20
92.9948872477
 30
0.0
 11
109.7642349139
 21
95.132854497
 31
0.0
  0
LINE
  5
153
330
1F
100
AcDbEntity
  8
0
  6
HIDDEN
 62
     7
370
     0
100
AcDbLine
 10
109.8452659273
 20
95.1833968116
 30
0.0
 11
109.7642349139
 21
95.132854497
 31
0.0
  0
LINE
  5
154
330
1F
100
AcDbEntity
  8
0
  6
HIDDEN
 62
     7
370
     0
100
AcDbLine
 10
109.7642349139
 20
128.9748872477
 30
0.0
 11
109.7642349139
 21
126.8795116987
 31
0.0
  0
SPLINE
  5
155
330
1F
100
AcDbEntity
  8
0
  6
HIDDEN
 62
     7
370
     0
100
AcDbSpline
210
0.0
220
0.0
230
1.0
 70
     8
 71
     3
 72
     8
 73
     4
 74
     0
 42
0.000000001
 43
0.00000001
 40
0.0
 40
0.0
 40
0.0
 40
0.0
 40
1.0
 40
1.0
 40
1.0
 40
1.0
 10
109.7642349138959
 20
126.8795116987118
 30
0.0
 10
109.8142404128394
 20
126.8484759244929
 30
0.0
 10
109.8642404835035
 20
126.8174312794655
 30
0.0
 10
109.9142349172883
 20
126.7863776836853
 30
0.0
  0
LINE
  5
156
330
1F
100
AcDbEntity
  8
0
  6
HIDDEN
 62
     7
370
     0
100
AcDbLine
 10
114.7142349139
 20
128.9748872477
 30
0.0
 11
114.7142349139
 21
127.2724008701
 31
0.0
  0
LINE
  5
157
330
1F
100
AcDbEntity
  8
0
  6
HIDDEN
 62
     7
370
     0
100
AcDbLine
 10
187.6642349139
 20
105.4848872477
 30
0.0
 11
187.6642349139
 21
116.4848872477
 31
0.0
  0
LINE
  5
158
330
1F
100
AcDbEntity
  8
0
  6
HIDDEN
 62
     7
370
     0
100
AcDbLine
 10
178.5142349139
 20
105.8848872477
 30
0.0
 11
178.5142349139
 21
116.0848871098
 31
0.0
  0
LINE
  5
159
330
1F
100
AcDbEntity
  8
0
  6
HIDDEN
 62
     7
370
     0
100
AcDbLine
 10
180.5142349139
 20
105.4848872477
 30
0.0
 11
180.5142349139
 21
116.4848872477
 31
0.0
  0
SPLINE
  5
15A
330
1F
100
AcDbEntity
  8
0
  6
HIDDEN
 62
     7
370
     0
100
AcDbSpline
210
0.0
220
0.0
230
1.0
 70
     8
 71
     3
 72
    27
 73
    23
 74
     0
 42
0.000000001
 43
0.00000001
 40
0.0
 40
0.0
 40
0.0
 40
0.0
 40
0.0524647737014976
 40
0.1118318042193104
 40
0.1772303947798592
 40
0.212263207947123
 40
0.2488314958356123
 40
0.3294313051488927
 40
0.3980771112373769
 40
0.4372258846582693
 40
0.4710490871543096
 40
0.4995558799518658
 40
0.5540498001580324
 40
0.6137899246923358
 40
0.678835899560656
 40
0.7134145972365364
 40
0.7493416491383078
 40
0.8293400810909133
 40
0.897657765706231
 40
0.9542808765697511
 40
0.9992067187733356
 40
0.9999999999999999
 40
0.9999999999999999
 40
0.9999999999999999
 40
0.9999999999999999
 10
135.2633095683472
 20
87.38485557821424
 30
0.0
 10
135.2536760511654
 20
87.38796430149021
 30
0.0
 10
135.2331416328995
 20
87.39459073115425
 30
0.0
 10
135.0467507023775
 20
87.44436822123298
 30
0.0
 10
134.771860671001
 20
87.50807690681668
 30
0.0
 10
134.4637188016139
 20
87.57396482796469
 30
0.0
 10
134.0705998544589
 20
87.6564476813131
 30
0.0
 10
133.4942363528143
 20
87.75880307944837
 30
0.0
 10
132.8210229524383
 20
87.85134559996776
 30
0.0
 10
132.2851673724917
 20
87.91292852902058
 30
0.0
 10
131.8914342996938
 20
87.95114201140264
 30
0.0
 10
131.4332576746526
 20
87.98496585238763
 30
0.0
 10
130.870847927034
 20
88.00454419159873
 30
0.0
 10
130.1855024657203
 20
88.00547282265107
 30
0.0
 10
129.6188300896499
 20
87.98728530045835
 30
0.0
 10
129.1827407638094
 20
87.96243278379225
 30
0.0
 10
128.7392921986607
 20
87.926449501332
 30
0.0
 10
128.2891967454307
 20
87.8809678359526
 30
0.0
 10
127.9473830289889
 20
87.83911517325818
 30
0.0
 10
127.8016181639209
 20
87.81549342826456
 30
0.0
 10
127.7521975536236
 20
87.803672171382
 30
0.0
 10
127.7646774010945
 20
87.80636341544945
 30
0.0
 10
127.7648939413072
 20
87.80641011173834
 30
0.0
  0
SPLINE
  5
15B
330
1F
100
AcDbEntity
  8
0
  6
HIDDEN
 62
     7
370
     0
100
AcDbSpline
210
0.0
220
0.0
230
1.0
 70
     8
 71
     3
 72
    27
 73
    23
 74
     0
 42
0.000000001
 43
0.00000001
 40
0.0
 40
0.0
 40
0.0
 40
0.0
 40
0.0008362827934227
 40
0.0457190777533746
 40
0.1023011006532881
 40
0.1705796218651419
 40
0.2091715375854272
 40
0.2506990387104453
 40
0.32114526083593
 40
0.3862394062262217
 40
0.4267188115997889
 40
0.4648503052296578
 40
0.5006548480306122
 40
0.5452468940437799
 40
0.6017415069492902
 40
0.6701479135988849
 40
0.7088854882287082
 40
0.7506144971518689
 40
0.8222795351122922
 40
0.8878193737630728
 40
0.9472935045159963
 40
1.0
 40
1.0
 40
1.0
 40
1.0
 10
127.7649258570258
 20
134.1632965538696
 30
0.0
 10
127.7646957714397
 20
134.1633461545777
 30
0.0
 10
127.7521171307198
 20
134.1660577954798
 30
0.0
 10
127.8011856232935
 20
134.154227530199
 30
0.0
 10
127.9463008788006
 20
134.1307808329981
 30
0.0
 10
128.2193497104833
 20
134.0968774583768
 30
0.0
 10
128.5478767285825
 20
134.0633085362163
 30
0.0
 10
128.9406043488408
 20
134.0251252311068
 30
0.0
 10
129.4903323854252
 20
133.9861565440106
 30
0.0
 10
130.1163550136113
 20
133.9666954433387
 30
0.0
 10
130.6595465264454
 20
133.9645097647457
 30
0.0
 10
131.104615422484
 20
133.973024645905
 30
0.0
 10
131.5710632196952
 20
133.9928080427127
 30
0.0
 10
132.1083038689012
 20
134.0369704279202
 30
0.0
 10
132.7565173041635
 20
134.1093860487834
 30
0.0
 10
133.3420559194973
 20
134.1902881381141
 30
0.0
 10
133.8230255688081
 20
134.2684541355005
 30
0.0
 10
134.2684403154246
 20
134.353226235902
 30
0.0
 10
134.7069409937268
 20
134.4470095240554
 30
0.0
 10
135.0459627668276
 20
134.5249123963853
 30
0.0
 10
135.2332791006313
 20
134.5750973084665
 30
0.0
 10
135.2537675752933
 20
134.581762983295
 30
0.0
 10
135.263393798051
 20
134.5848947572209
 30
0.0
  0
LINE
  5
15C
330
1F
100
AcDbEntity
  8
0
  6
HIDDEN
 62
     7
370
     0
100
AcDbLine
 10
190.4093156908
 20
102.9598872477
 30
0.0
 11
190.4093156908
 21
103.9049850225
 31
0.0
  0
LINE
  5
15D
330
1F
100
AcDbEntity
  8
0
  6
HIDDEN
 62
     7
370
     0
100
AcDbLine
 10
190.4093156908
 20
118.0647894728
 30
0.0
 11
190.4093156908
 21
119.0098872477
 31
0.0
  0
LINE
  5
15E
330
1F
100
AcDbEntity
  8
0
  6
HIDDEN
 62
     7
370
     0
100
AcDbLine
 10
188.1642349139
 20
119.0098872477
 30
0.0
 11
188.1642349139
 21
118.0647894728
 31
0.0
  0
LINE
  5
15F
330
1F
100
AcDbEntity
  8
0
  6
HIDDEN
 62
     7
370
     0
100
AcDbLine
 10
188.1642349139
 20
103.9049850225
 30
0.0
 11
188.1642349139
 21
102.9598872477
 31
0.0
  0
SPLINE
  5
160
330
1F
100
AcDbEntity
  8
0
  6
HIDDEN
 62
     7
370
     0
100
AcDbSpline
210
0.0
220
0.0
230
1.0
 70
     8
 71
     3
 72
     8
 73
     4
 74
     0
 42
0.000000001
 43
0.00000001
 40
0.0
 40
0.0
 40
0.0
 40
0.0
 40
0.0001590976953043
 40
0.0001590976953043
 40
0.0001590976953043
 40
0.0001590976953043
 10
109.89940292308
 20
95.18339681162199
 30
0.0
 10
109.854351452587
 20
95.1554179273045
 30
0.0
 10
109.8092954141835
 20
95.12744639693571
 30
0.0
 10
109.7642349138959
 20
95.09948205758947
 30
0.0
  0
SPLINE
  5
161
330
1F
100
AcDbEntity
  8
0
  6
HIDDEN
 62
     7
370
     0
100
AcDbSpline
210
0.0
220
0.0
230
1.0
 70
     8
 71
     3
 72
    11
 73
     7
 74
     0
 42
0.000000001
 43
0.00000001
 40
0.0
 40
0.0
 40
0.0
 40
0.0
 40
0.000821290931147
 40
0.000821290931147
 40
0.000821290931147
 40
0.0016428257243086
 40
0.0016428257243086
 40
0.0016428257243086
 40
0.0016428257243086
 10
109.7642349138959
 20
95.09948205758947
 30
0.0
 10
109.5730898924137
 20
95.05619586873385
 30
0.0
 10
109.3816715567373
 20
95.01525935909349
 30
0.0
 10
109.1900254820762
 20
94.97665758770377
 30
0.0
 10
108.9983224005345
 20
94.93804433386353
 30
0.0
 10
108.806377277249
 20
94.90176412457433
 30
0.0
 10
108.6142349138958
 20
94.86779721821958
 30
0.0
  0
LINE
  5
162
330
1F
100
AcDbEntity
  8
0
  6
HIDDEN
 62
     7
370
     0
100
AcDbLine
 10
156.6042349139
 20
131.1207538791
 30
0.0
 11
156.6042349139
 21
130.8348872477
 31
0.0
  0
LINE
  5
163
330
1F
100
AcDbEntity
  8
0
  6
HIDDEN
 62
     7
370
     0
100
AcDbLine
 10
160.4242349139
 20
131.1207538791
 30
0.0
 11
160.4242349139
 21
130.8348872477
 31
0.0
  0
LINE
  5
164
330
1F
100
AcDbEntity
  8
0
  6
HIDDEN
 62
     7
370
     0
100
AcDbLine
 10
161.9061677454
 20
135.44357691
 30
0.0
 11
161.9061677454
 21
130.8348872477
 31
0.0
  0
SPLINE
  5
165
330
1F
100
AcDbEntity
  8
0
  6
HIDDEN
 62
     7
370
     0
100
AcDbSpline
210
0.0
220
0.0
230
1.0
 70
     8
 71
     3
 72
    11
 73
     7
 74
     0
 42
0.000000001
 43
0.00000001
 40
0.0000000000000004
 40
0.0000000000000004
 40
0.0000000000000004
 40
0.0000000000000004
 40
0.0005781862223981
 40
0.0005781862223981
 40
0.0005781862223981
 40
0.0011563724723932
 40
0.0011563724723932
 40
0.0011563724723932
 40
0.0011563724723932
 10
109.6142349138962
 20
123.6250295547064
 30
0.0
 10
109.4475743596205
 20
123.6895590661199
 30
0.0
 10
109.280911062714
 20
123.7540617699585
 30
0.0
 10
109.1142444788837
 20
123.818548218392
 30
0.0
 10
108.9475778866246
 20
123.8830346700867
 30
0.0
 10
108.7809080209987
 20
123.9475046788146
 30
0.0
 10
108.6142349138959
 20
124.011960445547
 30
0.0
  0
SPLINE
  5
166
330
1F
100
AcDbEntity
  8
0
  6
HIDDEN
 62
     7
370
     0
100
AcDbSpline
210
0.0
220
0.0
230
1.0
 70
     8
 71
     3
 72
    11
 73
     7
 74
     0
 42
0.000000001
 43
0.00000001
 40
0.0000000000000001
 40
0.0000000000000001
 40
0.0000000000000001
 40
0.0000000000000001
 40
0.0005778746105124
 40
0.0005778746105124
 40
0.0005778746105124
 40
0.0011557494857259
 40
0.0011557494857259
 40
0.0011557494857259
 40
0.0011557494857259
 10
108.6142349138959
 20
97.95766539216378
 30
0.0
 10
108.7809017903092
 20
98.02347751884885
 30
0.0
 10
108.9475685098706
 20
98.08933599897784
 30
0.0
 10
109.1142351579193
 20
98.15524357190003
 30
0.0
 10
109.280901882438
 20
98.22115117506196
 30
0.0
 10
109.4475685768586
 20
98.28710828344225
 30
0.0
 10
109.6142349138959
 20
98.353110023357
 30
0.0
  0
SPLINE
  5
167
330
1F
100
AcDbEntity
  8
0
  6
HIDDEN
 62
     7
370
     0
100
AcDbSpline
210
0.0
220
0.0
230
1.0
 70
     8
 71
     3
 72
    11
 73
     7
 74
     0
 42
0.000000001
 43
0.00000001
 40
0.0000000000000006
 40
0.0000000000000006
 40
0.0000000000000006
 40
0.0000000000000006
 40
0.0005780486062825
 40
0.0005780486062825
 40
0.0005780486062825
 40
0.0011560973514241
 40
0.0011560973514241
 40
0.0011560973514241
 40
0.0011560973514241
 10
108.6142349138959
 20
120.9657017493454
 30
0.0
 10
108.7809047699408
 20
120.9033298877984
 30
0.0
 10
108.947572474025
 20
120.8409760274689
 30
0.0
 10
109.1142387784787
 20
120.7786564672516
 30
0.0
 10
109.2809051191724
 20
120.7163368934834
 30
0.0
 10
109.4475700758012
 20
120.6540516891331
 30
0.0
 10
109.6142349138959
 20
120.5918265685342
 30
0.0
  0
SPLINE
  5
168
330
1F
100
AcDbEntity
  8
0
  6
HIDDEN
 62
     7
370
     0
100
AcDbSpline
210
0.0
220
0.0
230
1.0
 70
     8
 71
     3
 72
    11
 73
     7
 74
     0
 42
0.000000001
 43
0.00000001
 40
0.0
 40
0.0
 40
0.0
 40
0.0
 40
0.0005782401583596
 40
0.0005782401583596
 40
0.0005782401583596
 40
0.0011564805961119
 40
0.0011564805961119
 40
0.0011564805961119
 40
0.0011564805961119
 10
109.6142349138959
 20
101.3840604554409
 30
0.0
 10
109.447583963547
 20
101.320634997351
 30
0.0
 10
109.2809243709643
 20
101.2572794736658
 30
0.0
 10
109.1142573185357
 20
101.193981889285
 30
0.0
 10
108.9475901819719
 20
101.130684272951
 30
0.0
 10
108.7809155745259
 20
101.0674444779786
 30
0.0
 10
108.6142349138958
 20
101.0042444713071
 30
0.0
  0
CIRCLE
  5
169
330
1F
100
AcDbEntity
  8
0
  6
HIDDEN
 62
     7
370
     0
100
AcDbCircle
 10
147.5142349139
 20
110.9848872477
 30
0.0
 40
5.0
  0
LINE
  5
16A
330
1F
100
AcDbEntity
  8
0
  6
HIDDEN
 62
     7
370
     0
100
AcDbLine
 10
140.5142349139
 20
85.6609561017
 30
0.0
 11
140.6083956894
 21
86.3309448329
 31
0.0
  0
LINE
  5
16B
330
1F
100
AcDbEntity
  8
0
  6
HIDDEN
 62
     7
370
     0
100
AcDbLine
 10
140.6083956894
 20
135.6388296624
 30
0.0
 11
140.5142349139
 21
136.3088183936
 31
0.0
  0
ARC
  5
16C
330
1F
100
AcDbEntity
  8
0
  6
HIDDEN
 62
     7
370
     0
100
AcDbCircle
 10
140.0142281612
 20
86.4144496333
 30
0.0
 40
0.6000067526677383
100
AcDbArc
 50
352.0
 51
0.0
  0
ARC
  5
16D
330
1F
100
AcDbEntity
  8
0
  6
HIDDEN
 62
     7
370
     0
100
AcDbCircle
 10
140.0142281612
 20
86.4144496333
 30
0.0
 40
0.6000067526677282
100
AcDbArc
 50
0.0
 51
33.5571153394
  0
ARC
  5
16E
330
1F
100
AcDbEntity
  8
0
  6
HIDDEN
 62
     7
370
     0
100
AcDbCircle
 10
140.0142281612
 20
135.555324862
 30
0.0
 40
0.6000067526677363
100
AcDbArc
 50
348.75
 51
8.0
  0
LWPOLYLINE
  5
16F
330
1F
100
AcDbEntity
  8
0
  6
HIDDEN
 62
     7
370
     0
100
AcDbPolyline
 90
        3
 70
   128
 43
0.0
 10
140.6027059524
 20
135.4382693515
 10
140.5685621194
 20
135.3257122185
 10
140.5142349139
 20
135.223660347
  0
LINE
  5
170
330
1F
100
AcDbEntity
  8
0
  6
HIDDEN
 62
     7
370
     0
100
AcDbLine
 10
140.6142349139
 20
86.4144496333
 30
0.0
 11
140.6142349139
 21
135.555324862
 31
0.0
  0
ARC
  5
171
330
1F
100
AcDbEntity
  8
0
  6
HIDDEN
 62
     7
370
     0
100
AcDbCircle
 10
134.2692369155
 20
98.9848872477
 30
0.0
 40
8.000000000000016
100
AcDbArc
 50
277.0585085591
 51
321.3178125465
  0
ARC
  5
172
330
1F
100
AcDbEntity
  8
0
  6
HIDDEN
 62
     7
370
     0
100
AcDbCircle
 10
134.2692369155
 20
122.9848872477
 30
0.0
 40
8.000000000000016
100
AcDbArc
 50
38.6821874535
 51
82.9498053266
  0
LINE
  5
173
330
1F
100
AcDbEntity
  8
0
  6
HIDDEN
 62
     7
370
     0
100
AcDbLine
 10
123.5966704792
 20
90.9848872477
 30
0.0
 11
127.7742070556
 21
90.9848872477
 31
0.0
  0
LINE
  5
174
330
1F
100
AcDbEntity
  8
0
  6
HIDDEN
 62
     7
370
     0
100
AcDbLine
 10
127.7742070556
 20
130.9848872477
 30
0.0
 11
123.5966704792
 21
130.9848872477
 31
0.0
  0
ARC
  5
175
330
1F
100
AcDbEntity
  8
0
  6
HIDDEN
 62
     7
370
     0
100
AcDbCircle
 10
123.5966704792
 20
91.5848872477
 30
0.0
 40
0.6000000000000085
100
AcDbArc
 50
210.0
 51
270.0
  0
ARC
  5
176
330
1F
100
AcDbEntity
  8
0
  6
HIDDEN
 62
     7
370
     0
100
AcDbCircle
 10
123.5966704792
 20
130.3848872477
 30
0.0
 40
0.5999999999999943
100
AcDbArc
 50
90.0
 51
150.0
  0
LINE
  5
177
330
1F
100
AcDbEntity
  8
0
  6
HIDDEN
 62
     7
370
     0
100
AcDbLine
 10
123.0770552369
 20
130.6848872477
 30
0.0
 11
121.5182095101
 21
127.9848872477
 31
0.0
  0
LINE
  5
178
330
1F
100
AcDbEntity
  8
0
  6
HIDDEN
 62
     7
370
     0
100
AcDbLine
 10
121.5182095101
 20
93.9848872477
 30
0.0
 11
123.0770552369
 21
91.2848872477
 31
0.0
  0
ARC
  5
179
330
1F
100
AcDbEntity
  8
0
  6
HIDDEN
 62
     7
370
     0
100
AcDbCircle
 10
148.9642349139
 20
95.2598872477
 30
0.0
 40
1.500000000000001
100
AcDbArc
 50
238.2116693829
 51
0.0
  0
ARC
  5
17A
330
1F
100
AcDbEntity
  8
0
  6
HIDDEN
 62
     7
370
     0
100
AcDbCircle
 10
148.9642349139
 20
126.7098872477
 30
0.0
 40
1.500000000000013
100
AcDbArc
 50
0.0
 51
121.7883306171
  0
LINE
  5
17B
330
1F
100
AcDbEntity
  8
0
  6
HIDDEN
 62
     7
370
     0
100
AcDbLine
 10
140.5142349139
 20
93.9848872477
 30
0.0
 11
148.1740608824
 21
93.9848872477
 31
0.0
  0
LINE
  5
17C
330
1F
100
AcDbEntity
  8
0
  6
HIDDEN
 62
     7
370
     0
100
AcDbLine
 10
148.1740608824
 20
127.9848872477
 30
0.0
 11
140.5142349139
 21
127.9848872477
 31
0.0
  0
LINE
  5
17D
330
1F
100
AcDbEntity
  8
0
  6
HIDDEN
 62
     7
370
     0
100
AcDbLine
 10
118.7142349139
 20
93.9848872477
 30
0.0
 11
121.5182095101
 21
93.9848872477
 31
0.0
  0
LINE
  5
17E
330
1F
100
AcDbEntity
  8
0
  6
HIDDEN
 62
     7
370
     0
100
AcDbLine
 10
121.5182095101
 20
127.9848872477
 30
0.0
 11
114.7142349139
 21
127.9848872477
 31
0.0
  0
LINE
  5
17F
330
1F
100
AcDbEntity
  8
0
  6
HIDDEN
 62
     7
370
     0
100
AcDbLine
 10
159.3142349139
 20
101.4848872477
 30
0.0
 11
162.3142349139
 21
101.4848872477
 31
0.0
  0
LINE
  5
180
330
1F
100
AcDbEntity
  8
0
  6
HIDDEN
 62
     7
370
     0
100
AcDbLine
 10
162.3142349139
 20
120.4848872477
 30
0.0
 11
159.3142349139
 21
120.4848872477
 31
0.0
  0
LINE
  5
181
330
1F
100
AcDbEntity
  8
0
  6
HIDDEN
 62
     7
370
     0
100
AcDbLine
 10
150.4642349139
 20
101.9848872477
 30
0.0
 11
150.9642349139
 21
102.4848872477
 31
0.0
  0
LINE
  5
182
330
1F
100
AcDbEntity
  8
0
  6
HIDDEN
 62
     7
370
     0
100
AcDbLine
 10
150.9642349139
 20
119.4848872477
 30
0.0
 11
150.4642349139
 21
119.9848872477
 31
0.0
  0
LINE
  5
183
330
1F
100
AcDbEntity
  8
0
  6
HIDDEN
 62
     7
370
     0
100
AcDbLine
 10
150.9642349139
 20
102.4848872477
 30
0.0
 11
159.3142349139
 21
102.4848872477
 31
0.0
  0
LINE
  5
184
330
1F
100
AcDbEntity
  8
0
  6
HIDDEN
 62
     7
370
     0
100
AcDbLine
 10
159.3142349139
 20
119.4848872477
 30
0.0
 11
150.9642349139
 21
119.4848872477
 31
0.0
  0
LINE
  5
185
330
1F
100
AcDbEntity
  8
0
  6
HIDDEN
 62
     7
370
     0
100
AcDbLine
 10
145.4642349139
 20
142.4848872477
 30
0.0
 11
145.4642349139
 21
137.3848872477
 31
0.0
  0
LINE
  5
186
330
1F
100
AcDbEntity
  8
0
  6
HIDDEN
 62
     7
370
     0
100
AcDbLine
 10
190.5142349139
 20
118.0848872477
 30
0.0
 11
188.1642349139
 21
118.0848872477
 31
0.0
  0
LINE
  5
187
330
1F
100
AcDbEntity
  8
0
  6
HIDDEN
 62
     7
370
     0
100
AcDbLine
 10
188.1642349139
 20
103.8848872477
 30
0.0
 11
190.5142349139
 21
103.8848872477
 31
0.0
  0
LINE
  5
188
330
1F
100
AcDbEntity
  8
0
  6
HIDDEN
 62
     7
370
     0
100
AcDbLine
 10
188.1642349139
 20
116.7735623822
 30
0.0
 11
187.6642349139
 21
116.4848872477
 31
0.0
  0
LINE
  5
189
330
1F
100
AcDbEntity
  8
0
  6
HIDDEN
 62
     7
370
     0
100
AcDbLine
 10
187.6642349139
 20
105.4848872477
 30
0.0
 11
188.1642349139
 21
105.1962121131
 31
0.0
  0
ARC
  5
18A
330
1F
100
AcDbEntity
  8
0
  6
HIDDEN
 62
     7
370
     0
100
AcDbCircle
 10
179.6888332538
 20
105.8848872477
 30
0.0
 40
0.6000000000000208
100
AcDbArc
 50
270.0
 51
285.0
  0
ARC
  5
18B
330
1F
100
AcDbEntity
  8
0
  6
HIDDEN
 62
     7
370
     0
100
AcDbCircle
 10
179.6888332538
 20
116.0848872477
 30
0.0
 40
0.6000000000000208
100
AcDbArc
 50
75.0
 51
90.0
  0
LINE
  5
18C
330
1F
100
AcDbEntity
  8
0
  6
HIDDEN
 62
     7
370
     0
100
AcDbLine
 10
179.1142349139
 20
105.2848872477
 30
0.0
 11
179.6888332538
 21
105.2848872477
 31
0.0
  0
LINE
  5
18D
330
1F
100
AcDbEntity
  8
0
  6
HIDDEN
 62
     7
370
     0
100
AcDbLine
 10
179.6888332538
 20
116.6848872477
 30
0.0
 11
179.1142349139
 21
116.6848872477
 31
0.0
  0
ARC
  5
18E
330
1F
100
AcDbEntity
  8
0
  6
HIDDEN
 62
     7
370
     0
100
AcDbCircle
 10
179.1142349139
 20
105.8848872477
 30
0.0
 40
0.6000000000000227
100
AcDbArc
 50
180.0
 51
270.0
  0
ARC
  5
18F
330
1F
100
AcDbEntity
  8
0
  6
HIDDEN
 62
     7
370
     0
100
AcDbCircle
 10
179.1142349139
 20
116.0848872477
 30
0.0
 40
0.6000000000000227
100
AcDbArc
 50
90.0
 51
180.0
  0
LINE
  5
190
330
1F
100
AcDbEntity
  8
0
  6
HIDDEN
 62
     7
370
     0
100
AcDbLine
 10
179.8441246809
 20
105.3053317519
 30
0.0
 11
180.5142349139
 21
105.4848872477
 31
0.0
  0
LINE
  5
191
330
1F
100
AcDbEntity
  8
0
  6
HIDDEN
 62
     7
370
     0
100
AcDbLine
 10
180.5142349139
 20
116.4848872477
 30
0.0
 11
179.8441246809
 21
116.6644427434
 31
0.0
  0
LINE
  5
192
330
1F
100
AcDbEntity
  8
0
  6
HIDDEN
 62
     7
370
     0
100
AcDbLine
 10
180.5142349139
 20
105.4848872477
 30
0.0
 11
187.6642349139
 21
105.4848872477
 31
0.0
  0
LINE
  5
193
330
1F
100
AcDbEntity
  8
0
  6
HIDDEN
 62
     7
370
     0
100
AcDbLine
 10
187.6642349139
 20
116.4848872477
 30
0.0
 11
180.5142349139
 21
116.4848872477
 31
0.0
  0
LINE
  5
194
330
1F
100
AcDbEntity
  8
0
  6
HIDDEN
 62
     7
370
     0
100
AcDbLine
 10
135.6986727444
 20
86.9055159141
 30
0.0
 11
135.2642405949
 21
87.3845819332
 31
0.0
  0
LINE
  5
195
330
1F
100
AcDbEntity
  8
0
  6
HIDDEN
 62
     7
370
     0
100
AcDbLine
 10
127.7642372698
 20
87.8062698923
 30
0.0
 11
127.2818035265
 21
87.3272039169
 31
0.0
  0
LINE
  5
196
330
1F
100
AcDbEntity
  8
0
  6
HIDDEN
 62
     7
370
     0
100
AcDbLine
 10
127.2816815982
 20
134.642565288
 30
0.0
 11
127.7642323492
 21
134.1634450301
 31
0.0
  0
LINE
  5
197
330
1F
100
AcDbEntity
  8
0
  6
HIDDEN
 62
     7
370
     0
100
AcDbLine
 10
135.2642347959
 20
134.5851428077
 30
0.0
 11
135.6987771862
 21
135.0642630583
 31
0.0
  0
LINE
  5
198
330
1F
100
AcDbEntity
  8
0
  6
HIDDEN
 62
     7
370
     0
100
AcDbLine
 10
190.4093156908
 20
102.9598872477
 30
0.0
 11
190.5142349139
 21
102.7348872477
 31
0.0
  0
LINE
  5
199
330
1F
100
AcDbEntity
  8
0
  6
HIDDEN
 62
     7
370
     0
100
AcDbLine
 10
190.5142349139
 20
119.2348872477
 30
0.0
 11
190.4093156908
 21
119.0098872477
 31
0.0
  0
LINE
  5
19A
330
1F
100
AcDbEntity
  8
0
  6
HIDDEN
 62
     7
370
     0
100
AcDbLine
 10
162.3142349139
 20
106.7848872477
 30
0.0
 11
178.5142349139
 21
106.7848872477
 31
0.0
  0
LINE
  5
19B
330
1F
100
AcDbEntity
  8
0
  6
HIDDEN
 62
     7
370
     0
100
AcDbLine
 10
178.5142349139
 20
115.1848872477
 30
0.0
 11
162.3142349139
 21
115.1848872477
 31
0.0
  0
LINE
  5
19C
330
1F
100
AcDbEntity
  8
0
  6
HIDDEN
 62
     7
370
     0
100
AcDbLine
 10
135.2642349139
 20
87.3848368993
 30
0.0
 11
135.2642349139
 21
91.0478144216
 31
0.0
  0
LINE
  5
19D
330
1F
100
AcDbEntity
  8
0
  6
HIDDEN
 62
     7
370
     0
100
AcDbLine
 10
127.7642349139
 20
90.9867494932
 30
0.0
 11
127.7642349139
 21
87.8064513173
 31
0.0
  0
LINE
  5
19E
330
1F
100
AcDbEntity
  8
0
  6
HIDDEN
 62
     7
370
     0
100
AcDbLine
 10
135.2642349139
 20
130.9219600737
 30
0.0
 11
135.2642349139
 21
134.5848515017
 31
0.0
  0
LINE
  5
19F
330
1F
100
AcDbEntity
  8
0
  6
HIDDEN
 62
     7
370
     0
100
AcDbLine
 10
127.7642349139
 20
134.1633012509
 30
0.0
 11
127.7642349139
 21
130.9830250021
 31
0.0
  0
LINE
  5
1A0
330
1F
100
AcDbEntity
  8
0
  6
HIDDEN
 62
     7
370
     0
100
AcDbLine
 10
190.4093156908
 20
119.0098872477
 30
0.0
 11
188.1642349139
 21
119.0098872477
 31
0.0
  0
LINE
  5
1A1
330
1F
100
AcDbEntity
  8
0
  6
HIDDEN
 62
     7
370
     0
100
AcDbLine
 10
188.1642349139
 20
102.9598872477
 30
0.0
 11
190.4093156908
 21
102.9598872477
 31
0.0
  0
DIMENSION
  5
1A2
330
1F
100
AcDbEntity
  8
VERMASSUNG
100
AcDbDimension
  2
_D
 10
103.0359543082
 20
79.4848872477
 30
0.0
 11
103.0359543082
 21
110.3174635045
 31
0.0
 70
   160
  1
HSK A %%c<>
 71
     2
 42
-1.0
  3
SLDDIMSTYLE0
100
AcDbAlignedDimension
 13
140.8142349139
 23
142.4848872477
 33
0.0
 14
140.8142349139
 24
79.4848872477
 34
0.0
 50
90.0
100
AcDbRotatedDimension
  0
DIMENSION
  5
1AF
330
1F
100
AcDbEntity
  8
VERMASSUNG
100
AcDbDimension
  2
_D_1
 10
140.5142349139
 20
152.4848872477
 30
0.0
 11
165.5142349139
 21
152.4848872477
 31
0.0
 70
   160
  1
<>
 71
     2
 42
-1.0
  3
SLDDIMSTYLE0
100
AcDbAlignedDimension
 13
190.5142349139
 23
120.7848872477
 33
0.0
 14
140.5142349139
 24
142.1848872477
 34
0.0
100
AcDbRotatedDimension
  0
DIMENSION
  5
1B9
330
1F
100
AcDbEntity
  8
VERMASSUNG
100
AcDbDimension
  2
_D_2
 10
166.4642349139
 20
146.9711733652
 30
0.0
 11
178.4892349139
 21
146.9711733652
 31
0.0
 70
   160
  1
<>
 71
     2
 42
-1.0
  3
SLDDIMSTYLE0
100
AcDbAlignedDimension
 13
190.5142349139
 23
120.7848872477
 33
0.0
 14
166.4642349139
 24
140.8313275714
 34
0.0
100
AcDbRotatedDimension
  0
DIMENSION
  5
1C3
330
1F
100
AcDbEntity
  8
VERMASSUNG
100
AcDbDimension
  2
_D_3
 10
108.6142349139
 20
158.4848872477
 30
0.0
 11
149.5642349139
 21
158.4848872477
 31
0.0
 70
   160
  1
<>
 71
     2
 42
-1.0
  3
SLDDIMSTYLE0
100
AcDbAlignedDimension
 13
190.5142349139
 23
120.7848872477
 33
0.0
 14
108.6142349139
 24
130.6755649941
 34
0.0
100
AcDbRotatedDimension
  0
DIMENSION
  5
1CD
330
1F
100
AcDbEntity
  8
VERMASSUNG
100
AcDbDimension
  2
_D_4
 10
197.6136088948
 20
100.9848872477
 30
0.0
 11
197.6136088948
 21
110.9848872477
 31
0.0
 70
   160
  1
MBM %%c<>
 71
     2
 42
-1.0
  3
SLDDIMSTYLE0
100
AcDbAlignedDimension
 13
190.3142349139
 23
120.9848872477
 33
0.0
 14
190.3142349139
 24
100.9848872477
 34
0.0
 50
90.0
100
AcDbRotatedDimension
  0
INSERT
  5
1DE
330
1F
100
AcDbEntity
  8
VERMASSUNG
100
AcDbBlockReference
  2
SW_NOTE_0
 10
142.7522037218
 20
69.1691346404
 30
0.0
  0
LEADER
  5
1E8
330
1F
100
AcDbEntity
  8
VERMASSUNG
100
AcDbLeader
  3
SLDDIMSTYLE1
 76
     2
 10
144.0880442226
 20
86.4928707187
 30
0.0
 10
142.7522037218
 20
69.1691346404
 30
0.0
  0
INSERT
  5
1EE
330
1F
100
AcDbEntity
  8
VERMASSUNG
100
AcDbBlockReference
  2
SW_NOTE_1
 10
183.5945151812
 20
88.3660004582
 30
0.0
  0
LEADER
  5
1EF
330
1F
100
AcDbEntity
  8
VERMASSUNG
100
AcDbLeader
  3
SLDDIMSTYLE1
 76
     2
 10
185.0743751238
 20
109.7348872477
 30
0.0
 10
183.5945151812
 20
88.3660004582
 30
0.0
  0
LINE
  5
1F0
330
1F
100
AcDbEntity
  8
VERMASSUNG
  6
CENTERX2
 62
     7
370
     0
100
AcDbLine
 10
106.4689310716
 20
110.9848872477
 30
0.0
 11
192.5142349139
 21
110.9848872477
 31
0.0
  0
LINE
  5
1F1
330
1F
100
AcDbEntity
  8
0
  6
Continuous
 62
     7
370
    15
100
AcDbLine
 10
271.9505343006
 20
58.4724017075
 30
0.0
 11
271.8444510489
 21
58.5336621718
 31
0.0
  0
LINE
  5
1F2
330
1F
100
AcDbEntity
  8
0
  6
Continuous
 62
     7
370
    15
100
AcDbLine
 10
270.2885633575
 20
58.5336621718
 30
0.0
 11
270.1824801058
 21
58.4724017075
 31
0.0
  0
LINE
  5
1F3
330
1F
100
AcDbEntity
  8
0
  6
Continuous
 62
     7
370
    15
100
AcDbLine
 10
272.3165072032
 20
57.778507879
 30
0.0
 11
272.3165072032
 21
57.9622295617
 31
0.0
  0
LINE
  5
1F4
330
1F
100
AcDbEntity
  8
0
  6
Continuous
 62
     7
370
    15
100
AcDbLine
 10
269.8165072032
 20
57.9622295617
 30
0.0
 11
269.8165072032
 21
57.778507879
 31
0.0
  0
LINE
  5
1F5
330
1F
100
AcDbEntity
  8
0
  6
Continuous
 62
     7
370
    15
100
AcDbLine
 10
247.6357979976
 20
49.3422262716
 30
0.0
 11
252.6944636578
 21
46.4219207464
 31
0.0
  0
LINE
  5
1F6
330
1F
100
AcDbEntity
  8
0
  6
Continuous
 62
     7
370
    15
100
AcDbLine
 10
265.5778185413
 20
75.3566000063
 30
0.0
 11
263.3845180366
 21
76.6227654366
 31
0.0
  0
LINE
  5
1F7
330
1F
100
AcDbEntity
  8
0
  6
Continuous
 62
     7
370
    15
100
AcDbLine
 10
273.0116254751
 20
48.797073188
 30
0.0
 11
273.0823246608
 21
48.837900228
 31
0.0
  0
LINE
  5
1F8
330
1F
100
AcDbEntity
  8
0
  6
Continuous
 62
     7
370
    15
100
AcDbLine
 10
276.5465847574
 20
54.8388249386
 30
0.0
 11
276.5465847574
 21
54.9204657498
 31
0.0
  0
LINE
  5
1F9
330
1F
100
AcDbEntity
  8
0
  6
Continuous
 62
     7
370
    15
100
AcDbLine
 10
263.4932192166
 20
52.6006264133
 30
0.0
 11
270.5112540198
 21
48.5492011584
 31
0.0
  0
LINE
  5
1FA
330
1F
100
AcDbEntity
  8
0
  6
Continuous
 62
     7
370
    15
100
AcDbLine
 10
275.510847683
 20
57.2096897822
 30
0.0
 11
268.4928128798
 21
61.2611150371
 31
0.0
  0
SPLINE
  5
1FB
330
1F
100
AcDbEntity
  8
0
  6
Continuous
 62
     7
370
    15
100
AcDbSpline
210
0.0
220
0.0
230
1.0
 70
     8
 71
     3
 72
    12
 73
     8
 74
     0
 42
0.000000001
 43
0.00000001
 40
0.0
 40
0.0
 40
0.0
 40
0.0
 40
0.0595697308868014
 40
0.3012144638159538
 40
0.5429085261524073
 40
0.7846548036465443
 40
1.0
 40
1.0
 40
1.0
 40
1.0
 10
244.8606835073435
 20
60.82317745033708
 30
0.0
 10
244.8383338803749
 20
60.7359575239247
 30
0.0
 10
244.7253229467412
 20
60.29492979092552
 30
0.0
 10
244.5799121329487
 20
59.51196280886217
 30
0.0
 10
244.4296276438803
 20
58.48273580944877
 30
0.0
 10
244.3443857226302
 20
57.5132615342774
 30
0.0
 10
244.3341258619755
 20
56.9023333956319
 30
0.0
 10
244.329292230561
 20
56.61451258185244
 30
0.0
  0
SPLINE
  5
1FC
330
1F
100
AcDbEntity
  8
0
  6
Continuous
 62
     7
370
    15
100
AcDbSpline
210
0.0
220
0.0
230
1.0
 70
     8
 71
     3
 72
    14
 73
    10
 74
     0
 42
0.000000001
 43
0.00000001
 40
0.0
 40
0.0
 40
0.0
 40
0.0
 40
0.0761812431955134
 40
0.2312367739064176
 40
0.3863324057978157
 40
0.5414356259054073
 40
0.6965259699999558
 40
0.851594941276251
 40
1.0
 40
1.0
 40
1.0
 40
1.0
 10
257.3698196640663
 20
76.76297658239336
 30
0.0
 10
257.2356330960363
 20
76.71460629394574
 30
0.0
 10
256.8283298309375
 20
76.5677855151768
 30
0.0
 10
256.1387460205407
 20
76.2405598817677
 30
0.0
 10
255.3071866021768
 20
75.78822143074702
 30
0.0
 10
254.4763563459739
 20
75.26125732821386
 30
0.0
 10
253.652015367558
 20
74.66628823046067
 30
0.0
 10
252.8482494468049
 20
74.02043214837656
 30
0.0
 10
252.3293597542752
 20
73.54327402457665
 30
0.0
 10
252.0756119944059
 20
73.30993386237883
 30
0.0
  0
SPLINE
  5
1FD
330
1F
100
AcDbEntity
  8
0
  6
Continuous
 62
     7
370
    15
100
AcDbSpline
210
0.0
220
0.0
230
1.0
 70
     8
 71
     3
 72
    10
 73
     6
 74
     0
 42
0.000000001
 43
0.00000001
 40
0.0
 40
0.0
 40
0.0
 40
0.0
 40
0.2100748270651785
 40
0.6091968420356124
 40
1.0
 40
1.0
 40
1.0
 40
1.0
 10
244.329292230561
 20
56.61451258185244
 30
0.0
 10
244.3311117334324
 20
56.44706914717498
 30
0.0
 10
244.3363881171802
 20
55.96149925262751
 30
0.0
 10
244.388398209727
 20
55.18962559317831
 30
0.0
 10
244.4794719887935
 20
54.61566948064826
 30
0.0
 10
244.5245293204072
 20
54.33171364660851
 30
0.0
  0
SPLINE
  5
1FE
330
1F
100
AcDbEntity
  8
0
  6
Continuous
 62
     7
370
    15
100
AcDbSpline
210
0.0
220
0.0
230
1.0
 70
     8
 71
     3
 72
    22
 73
    18
 74
     0
 42
0.000000001
 43
0.00000001
 40
0.0
 40
0.0
 40
0.0
 40
0.0
 40
0.0208922468642534
 40
0.0945693092164445
 40
0.1685206899717177
 40
0.242725150507263
 40
0.3171331410299515
 40
0.3916858456559549
 40
0.4663287497689583
 40
0.5410182981411464
 40
0.6157219554946044
 40
0.6904160382803989
 40
0.7650909977472452
 40
0.839742593753731
 40
0.9143701049976459
 40
0.9889750451275167
 40
1.0
 40
1.0
 40
1.0
 40
1.0
 10
258.6976530265551
 20
43.51923743023622
 30
0.0
 10
258.7650049041564
 20
43.50880822749468
 30
0.0
 10
259.0698749633974
 20
43.46160016484095
 30
0.0
 10
259.6422195250299
 20
43.45791154828731
 30
0.0
 10
260.410984399849
 20
43.51042198379346
 30
0.0
 10
261.2042829238756
 20
43.64892139994614
 30
0.0
 10
262.0147467754321
 20
43.86508536064009
 30
0.0
 10
262.8384562702441
 20
44.15982788579796
 30
0.0
 10
263.6704220134101
 20
44.53087120510872
 30
0.0
 10
264.5059278772821
 20
44.97613784772263
 30
0.0
 10
265.3402098440439
 20
45.49295094782824
 30
0.0
 10
266.1686986338317
 20
46.07815913220813
 30
0.0
 10
266.9866029444285
 20
46.72877439337917
 30
0.0
 10
267.7904317890184
 20
47.43956618217058
 30
0.0
 10
268.5723570059745
 20
48.21223508513747
 30
0.0
 10
269.122854998277
 20
48.79147136584622
 30
0.0
 10
269.4025855667673
 20
49.12543252488909
 30
0.0
 10
269.4386012233786
 20
49.16843043709614
 30
0.0
  0
SPLINE
  5
1FF
330
1F
100
AcDbEntity
  8
0
  6
Continuous
 62
     7
370
    15
100
AcDbSpline
210
0.0
220
0.0
230
1.0
 70
     8
 71
     3
 72
    11
 73
     7
 74
     0
 42
0.000000001
 43
0.00000001
 40
0.0
 40
0.0
 40
0.0
 40
0.0
 40
0.0587553879874924
 40
0.4317903172639557
 40
0.8049406029643001
 40
1.0
 40
1.0
 40
1.0
 40
1.0
 10
274.438038966104
 20
57.82900907186566
 30
0.0
 10
274.4585120982847
 20
57.8851642148442
 30
0.0
 10
274.6089680912158
 20
58.29784546558962
 30
0.0
 10
274.8347238034355
 20
59.06723249465604
 30
0.0
 10
275.0729786945449
 20
59.96250603712294
 30
0.0
 10
275.1811182635062
 20
60.49551930600042
 30
0.0
 10
275.2182412477815
 20
60.67849620695473
 30
0.0
  0
LINE
  5
200
330
1F
100
AcDbEntity
  8
0
  6
Continuous
 62
     7
370
    15
100
AcDbLine
 10
255.0929223643
 20
45.0373200072
 30
0.0
 11
256.4923104319
 21
44.2294704713
 31
0.0
  0
LINE
  5
201
330
1F
100
AcDbEntity
  8
0
  6
Continuous
 62
     7
370
    15
100
AcDbLine
 10
256.1551836852
 20
76.2385142324
 30
0.0
 11
250.0178417899
 21
79.2963072372
 31
0.0
  0
LINE
  5
202
330
1F
100
AcDbEntity
  8
0
  6
Continuous
 62
     7
370
    15
100
AcDbLine
 10
238.6361439767
 20
59.5804920988
 30
0.0
 11
244.3602702167
 21
55.7902134466
 31
0.0
  0
SPLINE
  5
203
330
1F
100
AcDbEntity
  8
0
  6
Continuous
 62
     7
370
    15
100
AcDbSpline
210
0.0
220
0.0
230
1.0
 70
     8
 71
     3
 72
    10
 73
     6
 74
     0
 42
0.000000001
 43
0.00000001
 40
0.0
 40
0.0
 40
0.0
 40
0.0
 40
0.0494404820606454
 40
0.8153734188331337
 40
0.9999999999999999
 40
0.9999999999999999
 40
0.9999999999999999
 40
0.9999999999999999
 10
273.6944965923425
 20
70.29477881651279
 30
0.0
 10
273.6849737091677
 20
70.30714114032685
 30
0.0
 10
273.5279221294146
 20
70.51102083188457
 30
0.0
 10
273.3046208698867
 20
70.72335735442778
 30
0.0
 10
273.0826221205322
 20
70.90915652180718
 30
0.0
 10
273.0395034421716
 20
70.94524417798182
 30
0.0
  0
SPLINE
  5
204
330
1F
100
AcDbEntity
  8
0
  6
Continuous
 62
     7
370
    15
100
AcDbSpline
210
0.0
220
0.0
230
1.0
 70
     8
 71
     3
 72
    12
 73
     8
 74
     0
 42
0.000000001
 43
0.00000001
 40
0.0
 40
0.0
 40
0.0
 40
0.0
 40
0.1187811644102336
 40
0.3433855547955867
 40
0.5677004106479668
 40
0.7914075978788058
 40
1.0
 40
1.0
 40
1.0
 40
1.0
 10
275.2310277341568
 20
67.22067488709409
 30
0.0
 10
275.1920217256449
 20
67.3634215179258
 30
0.0
 10
275.0792588988135
 20
67.77608905883373
 30
0.0
 10
274.8462197630817
 20
68.41850245233724
 30
0.0
 10
274.5120978010458
 20
69.12333841043483
 30
0.0
 10
274.1325397455077
 20
69.75653031367301
 30
0.0
 10
273.8370673761363
 20
70.1195939965443
 30
0.0
 10
273.6944965923425
 20
70.29477881651279
 30
0.0
  0
SPLINE
  5
205
330
1F
100
AcDbEntity
  8
0
  6
Continuous
 62
     7
370
    15
100
AcDbSpline
210
0.0
220
0.0
230
1.0
 70
     8
 71
     3
 72
    28
 73
    24
 74
     0
 42
0.000000001
 43
0.00000001
 40
0.0
 40
0.0
 40
0.0
 40
0.0
 40
0.0187004872112615
 40
0.0658884131939052
 40
0.1132631245202153
 40
0.1610346012859739
 40
0.2093095267312589
 40
0.2580833715511406
 40
0.3072681143617735
 40
0.3567383239769438
 40
0.4063724439250006
 40
0.4560756959074635
 40
0.5057741617919417
 40
0.5554363060507845
 40
0.6050507572844114
 40
0.6546166921977237
 40
0.7041394488338064
 40
0.753627766731115
 40
0.8030921715917705
 40
0.8525440928443399
 40
0.9019954184402929
 40
0.951455923731445
 40
1.0
 40
1.0
 40
1.0
 40
1.0
 10
249.9037208884578
 20
79.3396017143697
 30
0.0
 10
249.8323520143571
 20
79.37551042651002
 30
0.0
 10
249.5808942949511
 20
79.50202948646995
 30
0.0
 10
249.1086318031593
 20
79.63809468526198
 30
0.0
 10
248.4942742259508
 20
79.74737270420063
 30
0.0
 10
247.8483578615098
 20
79.77208942716321
 30
0.0
 10
247.1776990267074
 20
79.71787179079483
 30
0.0
 10
246.4858345479721
 20
79.58272992550171
 30
0.0
 10
245.778290277907
 20
79.36757170822547
 30
0.0
 10
245.0609052449687
 20
79.07375037374852
 30
0.0
 10
244.3398117990968
 20
78.70380196525981
 30
0.0
 10
243.6210602296856
 20
78.2610919126324
 30
0.0
 10
242.9104103594674
 20
77.74962636858845
 30
0.0
 10
242.213288079296
 20
77.17385668640067
 30
0.0
 10
241.5347820230471
 20
76.53853144024592
 30
0.0
 10
240.8797617131098
 20
75.84870835612236
 30
0.0
 10
240.2529200254598
 20
75.10974711868731
 30
0.0
 10
239.6587260800795
 20
74.32729566143644
 30
0.0
 10
239.1015693787973
 20
73.50725185372396
 30
0.0
 10
238.5851352985243
 20
72.65578755672405
 30
0.0
 10
238.1146271000691
 20
71.77911900889983
 30
0.0
 10
237.6910608219339
 20
70.88987433048499
 30
0.0
 10
237.4534024771128
 20
70.2903300123135
 30
0.0
 10
237.3356844619624
 20
69.99336098653419
 30
0.0
  0
LINE
  5
206
330
1F
100
AcDbEntity
  8
0
  6
Continuous
 62
     7
370
    15
100
AcDbLine
 10
237.4519582549
 20
68.1366321917
 30
0.0
 11
240.0055181535
 21
66.6624934402
 31
0.0
  0
LINE
  5
207
330
1F
100
AcDbEntity
  8
0
  6
Continuous
 62
     7
370
    15
100
AcDbLine
 10
237.1536659775
 20
69.2608076425
 30
0.0
 11
237.1536659775
 21
68.7995358252
 31
0.0
  0
LINE
  5
208
330
1F
100
AcDbEntity
  8
0
  6
Continuous
 62
     7
370
    15
100
AcDbLine
 10
237.1536659775
 20
61.7892976502
 30
0.0
 11
237.1536659775
 21
61.3281873965
 31
0.0
  0
SPLINE
  5
209
330
1F
100
AcDbEntity
  8
0
  6
Continuous
 62
     7
370
    15
100
AcDbSpline
210
0.0
220
0.0
230
1.0
 70
     8
 71
     3
 72
    11
 73
     7
 74
     0
 42
0.000000001
 43
0.00000001
 40
0.0
 40
0.0
 40
0.0
 40
0.0
 40
0.214312230925675
 40
0.5473394050623296
 40
0.8765306730675063
 40
1.0
 40
1.0
 40
1.0
 40
1.0
 10
237.269671545876
 20
61.04075864245287
 30
0.0
 10
237.3422915408593
 20
60.91957498755795
 30
0.0
 10
237.5277582530395
 20
60.61007986781153
 30
0.0
 10
237.8954506774882
 20
60.18923976620794
 30
0.0
 10
238.2524621619868
 20
59.8443201183653
 30
0.0
 10
238.4888300645237
 20
59.69115249635313
 30
0.0
 10
238.553302621139
 20
59.64937394657612
 30
0.0
  0
LWPOLYLINE
  5
20A
330
1F
100
AcDbEntity
  8
0
  6
Continuous
 62
     7
370
    15
100
AcDbPolyline
 90
       22
 70
   128
 43
0.0
 10
270.2886897439
 20
57.6356862219
 10
270.0939802703
 20
57.7879874024
 10
269.9856840826
 20
57.9666537485
 10
269.9734237723
 20
58.1558099713
 10
270.0582887217
 20
58.3386487104
 10
270.2327383077
 20
58.4989239415
 10
270.481271919
 20
58.6223945068
 10
270.7818062536
 20
58.6980895048
 10
271.1076375169
 20
58.7192831028
 10
271.4298141713
 20
58.6840921565
 10
271.7197094073
 20
58.595643536
 10
271.9515647609
 20
58.4617962894
 10
272.1047788665
 20
58.2944433319
 10
272.1657379784
 20
58.1084547081
 10
272.1290256121
 20
57.9203563236
 10
271.9979038223
 20
57.7468615452
 10
271.7840233556
 20
57.6033861454
 10
271.5063884299
 20
57.502678543
 10
271.1896681269
 20
57.4536870505
 10
270.8620044353
 20
57.460764777
 10
270.5525117121
 20
57.5232828354
 10
270.2886897439
 20
57.6356862219
  0
LWPOLYLINE
  5
20B
330
1F
100
AcDbEntity
  8
0
  6
Continuous
 62
     7
370
    15
100
AcDbPolyline
 90
        7
 70
   128
 43
0.0
 10
270.1826237267
 20
57.4519744918
 10
269.9694084662
 20
57.6163988728
 10
269.8450736207
 20
57.8088403996
 10
269.8196920599
 20
58.013708604
 10
269.8953200469
 20
58.2144062825
 10
270.065830652
 20
58.3946741029
 10
270.1824801058
 20
58.4724017075
  0
LWPOLYLINE
  5
20C
330
1F
100
AcDbEntity
  8
0
  6
Continuous
 62
     7
370
    15
100
AcDbPolyline
 90
       12
 70
   128
 43
0.0
 10
271.9505343006
 20
58.4724017075
 10
272.1636059401
 20
58.3080602505
 10
272.2879407856
 20
58.1156187238
 10
272.3133223464
 20
57.9107505194
 10
272.2376943594
 20
57.7100528408
 10
272.0671837543
 20
57.5297850204
 10
271.8156042863
 20
57.3845512849
 10
271.5033374277
 20
57.2861176078
 10
271.1556811822
 20
57.2424585002
 10
270.8008005912
 20
57.2571109634
 10
270.4674459698
 20
57.3288879419
 10
270.1826237267
 20
57.4519744918
  0
LWPOLYLINE
  5
20D
330
1F
100
AcDbEntity
  8
0
  6
Continuous
 62
     7
370
    15
100
AcDbPolyline
 90
       18
 70
   128
 43
0.0
 10
270.5361771173
 20
57.7785576415
 10
270.3804118018
 20
57.9098267089
 10
270.3173074721
 20
58.0647148261
 10
270.3553867175
 20
58.2223034946
 10
270.4895067249
 20
58.3613094916
 10
270.7015538443
 20
58.4629592868
 10
270.962889937
 20
58.5135245122
 10
271.2382201156
 20
58.5061760539
 10
271.490359514
 20
58.4419063619
 10
271.6852553091
 20
58.3293954142
 10
271.7965857439
 20
58.1838384378
 10
271.8093150263
 20
58.0248937089
 10
271.7217239962
 20
57.8740275939
 10
271.5456423074
 20
57.7516153975
 10
271.3048507679
 20
57.6741895652
 10
271.0318696092
 20
57.6522068848
 10
270.7635664495
 20
57.6886362389
 10
270.5361771173
 20
57.7785576415
  0
SPLINE
  5
20E
330
1F
100
AcDbEntity
  8
0
  6
Continuous
 62
     7
370
    15
100
AcDbSpline
210
0.0
220
0.0
230
1.0
 70
     8
 71
     3
 72
     9
 73
     5
 74
     0
 42
0.000000001
 43
0.00000001
 40
0.0
 40
0.0
 40
0.0
 40
0.0
 40
0.6300416123972431
 40
1.0
 40
1.0
 40
1.0
 40
1.0
 10
270.6246532875772
 20
57.72965031702473
 30
0.0
 10
270.5685048448915
 20
57.76818570024921
 30
0.0
 10
270.4793862191042
 20
57.82934893528991
 30
0.0
 10
270.3991093751462
 20
57.92016492527669
 30
0.0
 10
270.3694102833937
 20
57.95376306250073
 30
0.0
  0
SPLINE
  5
20F
330
1F
100
AcDbEntity
  8
0
  6
Continuous
 62
     7
370
    15
100
AcDbSpline
210
0.0
220
0.0
230
1.0
 70
     8
 71
     3
 72
    10
 73
     6
 74
     0
 42
0.000000001
 43
0.00000001
 40
0.0
 40
0.0
 40
0.0
 40
0.0
 40
0.4391119879276902
 40
0.7513633230734653
 40
1.0
 40
1.0
 40
1.0
 40
1.0
 10
271.7636041229567
 20
58.16942223043402
 30
0.0
 10
271.7368644884484
 20
58.07685996818487
 30
0.0
 10
271.6911103728827
 20
57.91847693409158
 30
0.0
 10
271.6245982466651
 20
57.80176164204286
 30
0.0
 10
271.5914928809921
 20
57.77767440352962
 30
0.0
 10
271.576817566255
 20
57.76699674451148
 30
0.0
  0
SPLINE
  5
210
330
1F
100
AcDbEntity
  8
0
  6
Continuous
 62
     7
370
    15
100
AcDbSpline
210
0.0
220
0.0
230
1.0
 70
     8
 71
     3
 72
    11
 73
     7
 74
     0
 42
0.000000001
 43
0.00000001
 40
0.0
 40
0.0
 40
0.0
 40
0.0
 40
0.1849308168245189
 40
0.519846420215722
 40
0.8714438233693219
 40
1.0
 40
1.0
 40
1.0
 40
1.0
 10
271.2532937598769
 20
58.46401813238992
 30
0.0
 10
271.2829963164477
 20
58.4309476989472
 30
0.0
 10
271.3664911496494
 20
58.3379856565176
 30
0.0
 10
271.5223502004753
 20
58.21493935466347
 30
0.0
 10
271.6662924108765
 20
58.1723404529753
 30
0.0
 10
271.7430524207463
 20
58.17003854309948
 30
0.0
 10
271.7636041229567
 20
58.16942223043402
 30
0.0
  0
SPLINE
  5
211
330
1F
100
AcDbEntity
  8
0
  6
Continuous
 62
     7
370
    15
100
AcDbSpline
210
0.0
220
0.0
230
1.0
 70
     8
 71
     3
 72
    10
 73
     6
 74
     0
 42
0.000000001
 43
0.00000001
 40
0.0
 40
0.0
 40
0.0
 40
0.0
 40
0.4391119879276896
 40
0.7513633230734684
 40
1.0
 40
1.0
 40
1.0
 40
1.0
 10
270.5561968400954
 20
58.35618854842328
 30
0.0
 10
270.6559905146561
 20
58.33667241066917
 30
0.0
 10
270.8267471986025
 20
58.30327840066803
 30
0.0
 10
271.0749738329662
 20
58.36825792761994
 30
0.0
 10
271.1985247396612
 20
58.43460643016592
 30
0.0
 10
271.2532937598769
 20
58.46401813238992
 30
0.0
  0
SPLINE
  5
212
330
1F
100
AcDbEntity
  8
0
  6
Continuous
 62
     7
370
    15
100
AcDbSpline
210
0.0
220
0.0
230
1.0
 70
     8
 71
     3
 72
    10
 73
     6
 74
     0
 42
0.000000001
 43
0.00000001
 40
0.0
 40
0.0
 40
0.0
 40
0.0
 40
0.4391119879276855
 40
0.7513633230734631
 40
1.0
 40
1.0
 40
1.0
 40
1.0
 10
270.3694102833937
 20
57.95376306250073
 30
0.0
 10
270.3961499179019
 20
57.97642012438711
 30
0.0
 10
270.4419040334676
 20
58.0151885610913
 30
0.0
 10
270.5084161596853
 20
58.18506964070361
 30
0.0
 10
270.5415215253583
 20
58.30363124269449
 30
0.0
 10
270.5561968400954
 20
58.35618854842328
 30
0.0
  0
LINE
  5
213
330
1F
100
AcDbEntity
  8
0
  6
Continuous
 62
     7
370
    15
100
AcDbLine
 10
270.5561968401
 20
57.7674211867
 30
0.0
 11
270.5561968401
 21
58.3561885484
 31
0.0
  0
LINE
  5
214
330
1F
100
AcDbEntity
  8
0
  6
Continuous
 62
     7
370
    15
100
AcDbLine
 10
271.2532937599
 20
57.6653872391
 30
0.0
 11
271.2532937599
 21
58.4640181324
 31
0.0
  0
SPLINE
  5
215
330
1F
100
AcDbEntity
  8
0
  6
Continuous
 62
     7
370
    15
100
AcDbSpline
210
0.0
220
0.0
230
1.0
 70
     8
 71
     3
 72
    10
 73
     6
 74
     0
 42
0.000000001
 43
0.00000001
 40
0.0
 40
0.0
 40
0.0
 40
0.0
 40
0.5
 40
0.5
 40
1.0
 40
1.0
 40
1.0
 40
1.0
 10
254.1276661839313
 20
55.38839992609896
 30
0.0
 10
254.0711374981487
 20
55.35576661041633
 30
0.0
 10
253.992494175574
 20
55.33539363495736
 30
0.0
 10
253.8322642612429
 20
55.33233223499601
 30
0.0
 10
253.7510972487022
 20
55.34999143487624
 30
0.0
 10
253.6939833483644
 20
55.38296258773057
 30
0.0
  0
SPLINE
  5
216
330
1F
100
AcDbEntity
  8
0
  6
Continuous
 62
     7
370
    15
100
AcDbSpline
210
0.0
220
0.0
230
1.0
 70
     8
 71
     3
 72
    12
 73
     8
 74
     0
 42
0.000000001
 43
0.00000001
 40
0.0
 40
0.0
 40
0.0
 40
0.0
 40
0.250000000000002
 40
0.250000000000002
 40
0.500000000000004
 40
0.500000000000004
 40
1.0
 40
1.0
 40
1.0
 40
1.0
 10
271.3847052547092
 20
71.90692446598568
 30
0.0
 10
271.4166095830539
 20
71.8885064892699
 30
0.0
 10
271.4487469194948
 20
71.85859194863785
 30
0.0
 10
271.503405225921
 20
71.78819452869493
 30
0.0
 10
271.5263785652514
 20
71.74781383201912
 30
0.0
 10
271.5800603541891
 20
71.62529000198373
 30
0.0
 10
271.5968372890651
 20
71.54048868037806
 30
0.0
 10
271.5968372890651
 20
71.46693608474445
 30
0.0
  0
LINE
  5
217
330
1F
100
AcDbEntity
  8
0
  6
Continuous
 62
     7
370
    15
100
AcDbLine
 10
253.6939833484
 20
55.3829625877
 30
0.0
 11
252.2945952807
 21
56.1908121236
 31
0.0
  0
LWPOLYLINE
  5
218
330
1F
100
AcDbEntity
  8
0
  6
Continuous
 62
     7
370
    15
100
AcDbPolyline
 90
       26
 70
   128
 43
0.0
 10
252.2945952807
 20
56.1908121236
 10
252.5770397606
 20
57.3091673824
 10
252.9234983436
 20
58.4359534666
 10
253.3318365043
 20
59.5642282666
 10
253.7995384786
 20
60.6870405013
 10
254.3237227627
 20
61.797472544
 10
254.9011598665
 20
62.8886830425
 10
255.5282922101
 20
63.9539490678
 10
256.201256042
 20
64.9867075347
 10
256.9159052438
 20
65.9805956362
 10
257.6678368744
 20
66.9294900452
 10
258.452418296
 20
67.8275446399
 10
259.2648157164
 20
68.6692265215
 10
260.1000239691
 20
69.4493501027
 10
260.9528973507
 20
70.1631090559
 10
261.8181813234
 20
70.8061059244
 10
262.6905448875
 20
71.374379216
 10
263.5646134265
 20
71.8644278088
 10
264.4350018195
 20
72.2732325219
 10
265.2963476186
 20
72.5982747167
 10
266.1433440876
 20
72.8375518139
 10
266.9707728959
 20
72.9895896315
 10
267.7735362693
 20
73.0534514672
 10
268.5466883965
 20
73.0287438693
 10
269.2854659009
 20
72.9156190608
 10
269.9853171871
 20
72.7147740019
  0
LINE
  5
219
330
1F
100
AcDbEntity
  8
0
  6
Continuous
 62
     7
370
    15
100
AcDbLine
 10
269.9853171871
 20
72.7147740019
 30
0.0
 11
271.3847052547
 21
71.906924466
 31
0.0
  0
LINE
  5
21A
330
1F
100
AcDbEntity
  8
0
  6
Continuous
 62
     7
370
    15
100
AcDbLine
 10
273.9126119975
 20
66.4017356226
 30
0.0
 11
275.1311126594
 21
67.1051610819
 31
0.0
  0
LINE
  5
21B
330
1F
100
AcDbEntity
  8
0
  6
Continuous
 62
     7
370
    15
100
AcDbLine
 10
273.9126119975
 20
59.8694091275
 30
0.0
 11
273.9126119975
 21
66.4017356226
 31
0.0
  0
LINE
  5
21C
330
1F
100
AcDbEntity
  8
0
  6
Continuous
 62
     7
370
    15
100
AcDbLine
 10
275.1311126594
 20
60.5728345868
 30
0.0
 11
273.9126119975
 21
59.8694091275
 31
0.0
  0
LINE
  5
21D
330
1F
100
AcDbEntity
  8
0
  6
Continuous
 62
     7
370
    15
100
AcDbLine
 10
254.1276661839
 20
48.0395326191
 30
0.0
 11
255.2449929741
 21
48.6845516455
 31
0.0
  0
LINE
  5
21E
330
1F
100
AcDbEntity
  8
0
  6
Continuous
 62
     7
370
    15
100
AcDbLine
 10
255.2449929741
 20
48.6845516455
 30
0.0
 11
255.2449929741
 21
56.0334189525
 31
0.0
  0
LINE
  5
21F
330
1F
100
AcDbEntity
  8
0
  6
Continuous
 62
     7
370
    15
100
AcDbLine
 10
255.2449929741
 20
56.0334189525
 30
0.0
 11
254.1276661839
 21
55.3883999261
 31
0.0
  0
LINE
  5
220
330
1F
100
AcDbEntity
  8
0
  6
Continuous
 62
     7
370
    15
100
AcDbLine
 10
271.5968372891
 20
71.4669360847
 30
0.0
 11
271.5968372891
 21
69.9028716499
 31
0.0
  0
LINE
  5
221
330
1F
100
AcDbEntity
  8
0
  6
Continuous
 62
     7
370
    15
100
AcDbLine
 10
272.9512834502
 20
70.6847767754
 30
0.0
 11
271.5968372891
 21
69.9028716499
 31
0.0
  0
LWPOLYLINE
  5
222
330
1F
100
AcDbEntity
  8
0
  6
Continuous
 62
     7
370
    15
100
AcDbPolyline
 90
       23
 70
   128
 43
0.0
 10
251.370812493
 20
57.8217941576
 10
251.6711585592
 20
58.9216759558
 10
252.0375858974
 20
60.0274356614
 10
252.4675244593
 20
61.1313176967
 10
252.957958742
 20
62.2255796538
 10
253.5054489372
 20
63.3025465981
 10
254.1061550583
 20
64.3546648985
 10
254.7558638725
 20
65.3745552077
 10
255.4500184521
 20
66.3550642189
 10
256.1837501356
 20
67.2893148378
 10
256.9519126756
 20
68.1707544173
 10
257.7491183336
 20
68.9932007163
 10
258.5697756685
 20
69.750885261
 10
259.4081287536
 20
70.4384938033
 10
260.2582975481
 20
71.0512035943
 10
261.1143191379
 20
71.5847172101
 10
261.9701895587
 20
72.0352926928
 10
262.8199059064
 20
72.3997697959
 10
263.6575084403
 20
72.67559215
 10
264.4771223838
 20
72.8608251922
 10
265.2729991284
 20
72.9541697348
 10
266.0395565537
 20
72.9549710781
 10
266.4858785407
 20
72.9106256638
  0
SPLINE
  5
223
330
1F
100
AcDbEntity
  8
0
  6
Continuous
 62
     7
370
    15
100
AcDbSpline
210
0.0
220
0.0
230
1.0
 70
     8
 71
     3
 72
     8
 73
     4
 74
     0
 42
0.000000001
 43
0.00000001
 40
0.0
 40
0.0
 40
0.0
 40
0.0
 40
1.0
 40
1.0
 40
1.0
 40
1.0
 10
251.3708124929734
 20
57.82179415757722
 30
0.0
 10
250.8795114639208
 20
57.73914693737333
 30
0.0
 10
250.3879313730182
 20
57.6570631498829
 30
0.0
 10
249.8961365742662
 20
57.57541286280116
 30
0.0
  0
LWPOLYLINE
  5
224
330
1F
100
AcDbEntity
  8
0
  6
Continuous
 62
     7
370
    15
100
AcDbPolyline
 90
       26
 70
   128
 43
0.0
 10
249.8961365743
 20
57.5754128628
 10
250.1785810541
 20
58.6937681216
 10
250.5250396371
 20
59.8205542058
 10
250.9333777978
 20
60.9488290058
 10
251.4010797721
 20
62.0716412405
 10
251.9252640563
 20
63.1820732832
 10
252.5027011601
 20
64.2732837817
 10
253.1298335036
 20
65.338549807
 10
253.8027973355
 20
66.3713082738
 10
254.5174465373
 20
67.3651963754
 10
255.2693781679
 20
68.3140907844
 10
256.0539595895
 20
69.2121453791
 10
256.8663570099
 20
70.0538272607
 10
257.7015652626
 20
70.8339508419
 10
258.5544386443
 20
71.5477097951
 10
259.4197226169
 20
72.1907066636
 10
260.292086181
 20
72.7589799552
 10
261.1661547201
 20
73.2490285479
 10
262.036543113
 20
73.6578332611
 10
262.8978889121
 20
73.9828754559
 10
263.7448853811
 20
74.2221525531
 10
264.5723141895
 20
74.3741903707
 10
265.3750775628
 20
74.4380522064
 10
266.14822969
 20
74.4133446085
 10
266.8870071944
 20
74.3002198
 10
267.5868584806
 20
74.0993747411
  0
LINE
  5
225
330
1F
100
AcDbEntity
  8
0
  6
Continuous
 62
     7
370
    15
100
AcDbLine
 10
267.5868584806
 20
74.0993747411
 30
0.0
 11
267.9161099772
 21
73.0356067889
 31
0.0
  0
LINE
  5
226
330
1F
100
AcDbEntity
  8
0
  6
Continuous
 62
     7
370
    15
100
AcDbLine
 10
264.1722160866
 20
76.0706058363
 30
0.0
 11
267.5868584806
 21
74.0993747411
 31
0.0
  0
LINE
  5
227
330
1F
100
AcDbEntity
  8
0
  6
Continuous
 62
     7
370
    15
100
AcDbLine
 10
249.8961365743
 20
57.5754128628
 30
0.0
 11
249.309921305
 21
57.9138277344
 31
0.0
  0
SPLINE
  5
228
330
1F
100
AcDbEntity
  8
0
  6
Continuous
 62
     7
370
    15
100
AcDbSpline
210
0.0
220
0.0
230
1.0
 70
     8
 71
     3
 72
    28
 73
    24
 74
     0
 42
0.000000001
 43
0.00000001
 40
0.0
 40
0.0
 40
0.0
 40
0.0
 40
0.1249999999999999
 40
0.1249999999999999
 40
0.1874999999999998
 40
0.1874999999999998
 40
0.2499999999999997
 40
0.2499999999999997
 40
0.3749999999999993
 40
0.3749999999999993
 40
0.4374999999999993
 40
0.4374999999999993
 40
0.4999999999999992
 40
0.4999999999999992
 40
0.6249999999999992
 40
0.6249999999999992
 40
0.7499999999999992
 40
0.7499999999999992
 40
0.8124999999999993
 40
0.8124999999999993
 40
0.8749999999999996
 40
0.8749999999999996
 40
1.0
 40
1.0
 40
1.0
 40
1.0
 10
249.3099213050078
 20
57.91382773438097
 30
0.0
 10
249.1219342245414
 20
58.02235036596505
 30
0.0
 10
248.9317142699407
 20
58.10429408651295
 30
0.0
 10
248.6436156679927
 20
58.18945181655141
 30
0.0
 10
248.5471257973932
 20
58.21150174695522
 30
0.0
 10
248.3533876245583
 20
58.24277557041417
 30
0.0
 10
248.2561366040269
 20
58.2519028217376
 30
0.0
 10
247.9701147291416
 20
58.25968566384601
 30
0.0
 10
247.784772912785
 20
58.23937912020894
 30
0.0
 10
247.5162603259691
 20
58.1721584670758
 30
0.0
 10
247.4278996663034
 20
58.14337210947021
 30
0.0
 10
247.2575469560137
 20
58.07436021937506
 30
0.0
 10
247.1755199262322
 20
58.03422032946493
 30
0.0
 10
246.9390836724796
 20
57.89760056170172
 30
0.0
 10
246.7942164223573
 20
57.78508607201265
 30
0.0
 10
246.5333596288732
 20
57.51682910701318
 30
0.0
 10
246.4210672213708
 20
57.36467572063589
 30
0.0
 10
246.281842739917
 20
57.11275933293759
 30
0.0
 10
246.2402469535513
 20
57.02471704726122
 30
0.0
 10
246.16712223849
 20
56.84037599220939
 30
0.0
 10
246.1354977544371
 20
56.74358722952761
 30
0.0
 10
246.0580044510149
 20
56.4455721506308
 30
0.0
 10
246.028829735625
 20
56.23609927349428
 30
0.0
 10
246.0228628528833
 20
56.01571848081041
 30
0.0
  0
ARC
  5
229
330
1F
100
AcDbEntity
  8
0
  6
Continuous
 62
     7
370
    15
100
AcDbCircle
 10
260.8662293152
 20
55.6074480749
 30
0.0
 40
14.84898018921192
100
AcDbArc
 50
178.4244628824
 51
181.5755371176
  0
SPLINE
  5
22A
330
1F
100
AcDbEntity
  8
0
  6
Continuous
 62
     7
370
    15
100
AcDbSpline
210
0.0
220
0.0
230
1.0
 70
     8
 71
     3
 72
    30
 73
    26
 74
     0
 42
0.000000001
 43
0.00000001
 40
0.0
 40
0.0
 40
0.0
 40
0.0
 40
0.1250000000000001
 40
0.1250000000000001
 40
0.1875000000000002
 40
0.1875000000000002
 40
0.2500000000000003
 40
0.2500000000000003
 40
0.3750000000000004
 40
0.3750000000000004
 40
0.4375000000000004
 40
0.4375000000000004
 40
0.5000000000000004
 40
0.5000000000000004
 40
0.6250000000000007
 40
0.6250000000000007
 40
0.6875000000000006
 40
0.6875000000000006
 40
0.7500000000000004
 40
0.7500000000000004
 40
0.8125000000000004
 40
0.8125000000000004
 40
0.8750000000000003
 40
0.8750000000000003
 40
1.0
 40
1.0
 40
1.0
 40
1.0
 10
246.0228628528833
 20
55.19917766892466
 30
0.0
 10
246.0288304515747
 20
54.98566047614995
 30
0.0
 10
246.0579756715742
 20
54.76811057813082
 30
0.0
 10
246.1344103328331
 20
54.43581154859523
 30
0.0
 10
246.1653763164105
 20
54.32403724729566
 30
0.0
 10
246.2383462572261
 20
54.09833537376066
 30
0.0
 10
246.2804824557847
 20
53.98424760118814
 30
0.0
 10
246.4203742451491
 20
53.64608487382696
 30
0.0
 10
246.5322181696913
 20
53.42357465455418
 30
0.0
 10
246.7260047668359
 20
53.09296439860461
 30
0.0
 10
246.7953454044392
 20
52.98273775889847
 30
0.0
 10
246.9408377888859
 20
52.76600775844493
 30
0.0
 10
247.0167250796049
 20
52.65981082281421
 30
0.0
 10
247.2531130280763
 20
52.34717264956459
 30
0.0
 10
247.4222585303272
 20
52.14663010172943
 30
0.0
 10
247.6921245276613
 20
51.85652526230709
 30
0.0
 10
247.7843160337121
 20
51.76218184593465
 30
0.0
 10
247.9699146287468
 20
51.58087681787426
 30
0.0
 10
248.0637435090337
 20
51.49345748438009
 30
0.0
 10
248.2531935594991
 20
51.32484993405545
 30
0.0
 10
248.3488149747047
 20
51.2436617482861
 30
0.0
 10
248.5416766641311
 20
51.08749906873796
 30
0.0
 10
248.6394115730295
 20
51.01217208904126
 30
0.0
 10
248.9306675281499
 20
50.79888185559741
 30
0.0
 10
249.121924919123
 20
50.67348843089699
 30
0.0
 10
249.3099213050078
 20
50.56496042740922
 30
0.0
  0
LINE
  5
22B
330
1F
100
AcDbEntity
  8
0
  6
Continuous
 62
     7
370
    15
100
AcDbLine
 10
249.309921305
 20
50.5649604274
 30
0.0
 11
249.8961365743
 21
50.2265455558
 31
0.0
  0
ARC
  5
22C
330
1F
100
AcDbEntity
  8
0
  6
Continuous
 62
     7
370
    15
100
AcDbCircle
 10
255.7173661004
 20
51.6178240497
 30
0.0
 40
5.985179115443977
100
AcDbArc
 50
193.4415888918
 51
253.1805824648
  0
LINE
  5
22D
330
1F
100
AcDbEntity
  8
0
  6
Continuous
 62
     7
370
    15
100
AcDbLine
 10
269.2162763369
 20
73.158426048
 30
0.0
 11
269.5505887407
 21
72.8510979379
 31
0.0
  0
LINE
  5
22E
330
1F
100
AcDbEntity
  8
0
  6
Continuous
 62
     7
370
    15
100
AcDbLine
 10
268.3633475831
 20
73.6508113369
 30
0.0
 11
269.2162763369
 21
73.158426048
 31
0.0
  0
SPLINE
  5
22F
330
1F
100
AcDbEntity
  8
0
  6
Continuous
 62
     7
370
    15
100
AcDbSpline
210
0.0
220
0.0
230
1.0
 70
     8
 71
     3
 72
    20
 73
    16
 74
     0
 42
0.000000001
 43
0.00000001
 40
0.0
 40
0.0
 40
0.0
 40
0.0
 40
0.2499999999999995
 40
0.2499999999999995
 40
0.3749999999999996
 40
0.3749999999999996
 40
0.4999999999999997
 40
0.4999999999999997
 40
0.6249999999999998
 40
0.6249999999999998
 40
0.7499999999999998
 40
0.7499999999999998
 40
0.8749999999999999
 40
0.8749999999999999
 40
1.0
 40
1.0
 40
1.0
 40
1.0
 10
264.1722160866064
 20
76.07060583628142
 30
0.0
 10
264.4912047410044
 20
75.93671544702161
 30
0.0
 10
264.8176603411023
 20
75.77681909995962
 30
0.0
 10
265.3300104584854
 20
75.49890017249011
 30
0.0
 10
265.5046138251633
 20
75.39990115967981
 30
0.0
 10
265.8644876875122
 20
75.1889604547811
 30
0.0
 10
266.0473481038657
 20
75.07840463757107
 30
0.0
 10
266.4136431930429
 20
74.85298676856024
 30
0.0
 10
266.5981267093015
 20
74.73750616718078
 30
0.0
 10
266.971711533537
 20
74.502673822885
 30
0.0
 10
267.1560610047763
 20
74.38634389760975
 30
0.0
 10
267.5167709112527
 20
74.16064921081036
 30
0.0
 10
267.6938249005065
 20
74.05083923671367
 30
0.0
 10
268.0415542518589
 20
73.83944447317778
 30
0.0
 10
268.2068046683172
 20
73.74118163803475
 30
0.0
 10
268.3633475830986
 20
73.65081133691739
 30
0.0
  0
ARC
  5
230
330
1F
100
AcDbEntity
  8
0
  6
Continuous
 62
     7
370
    15
100
AcDbCircle
 10
260.2650158294
 20
70.4193630683
 30
0.0
 40
6.943593807468272
100
AcDbArc
 50
63.3035690035
 51
113.9767780366
  0
ARC
  5
231
330
1F
100
AcDbEntity
  8
0
  6
Continuous
 62
     7
370
    15
100
AcDbCircle
 10
251.364051229
 20
55.0821157907
 30
0.0
 40
6.844428672243443
100
AcDbArc
 50
186.7852637878
 51
236.994907271
  0
LINE
  5
232
330
1F
100
AcDbEntity
  8
0
  6
Continuous
 62
     7
370
    15
100
AcDbLine
 10
252.5054270478
 20
57.0475353892
 30
0.0
 11
252.0417992554
 21
57.3151820168
 31
0.0
  0
LINE
  5
233
330
1F
100
AcDbEntity
  8
0
  6
Continuous
 62
     7
370
    15
100
AcDbLine
 10
251.6159810973
 20
57.9633269803
 30
0.0
 11
251.370812493
 21
57.8217941576
 31
0.0
  0
SPLINE
  5
234
330
1F
100
AcDbEntity
  8
0
  6
Continuous
 62
     7
370
    15
100
AcDbSpline
210
0.0
220
0.0
230
1.0
 70
     8
 71
     3
 72
    14
 73
    10
 74
     0
 42
0.000000001
 43
0.00000001
 40
0.0
 40
0.0
 40
0.0
 40
0.0
 40
0.1250000000000012
 40
0.1250000000000012
 40
0.2500000000000024
 40
0.2500000000000024
 40
0.5000000000000013
 40
0.5000000000000013
 40
1.0
 40
1.0
 40
1.0
 40
1.0
 10
252.0417992553512
 20
57.31518201675524
 30
0.0
 10
252.0176028221859
 20
57.32915032029779
 30
0.0
 10
251.9944273837271
 20
57.35651549629533
 30
0.0
 10
251.9575069912961
 20
57.41431726542087
 30
0.0
 10
251.9424652002635
 20
57.44528774453721
 30
0.0
 10
251.9026517436766
 20
57.53831421746644
 30
0.0
 10
251.8830157252926
 20
57.60092527175117
 30
0.0
 10
251.8325948768231
 20
57.78525602266615
 30
0.0
 10
251.8101776985825
 20
57.90680025756688
 30
0.0
 10
251.7934898004166
 20
58.02592932286924
 30
0.0
  0
SPLINE
  5
235
330
1F
100
AcDbEntity
  8
0
  6
Continuous
 62
     7
370
    15
100
AcDbSpline
210
0.0
220
0.0
230
1.0
 70
     8
 71
     3
 72
    10
 73
     6
 74
     0
 42
0.000000001
 43
0.00000001
 40
0.0
 40
0.0
 40
0.0
 40
0.0
 40
0.5
 40
0.5
 40
1.0
 40
1.0
 40
1.0
 40
1.0
 10
251.7934898004166
 20
58.02592932286924
 30
0.0
 10
251.7600997822288
 20
58.019779553669
 30
0.0
 10
251.7278604308007
 20
58.01123294582093
 30
0.0
 10
251.6678725365384
 20
57.98999697205204
 30
0.0
 10
251.6406106632894
 20
57.97754532604386
 30
0.0
 10
251.6159810973396
 20
57.963326980267
 30
0.0
  0
LWPOLYLINE
  5
236
330
1F
100
AcDbEntity
  8
0
  6
Continuous
 62
     7
370
    15
100
AcDbPolyline
 90
       45
 70
   128
 43
0.0
 10
269.6169383017
 20
50.8384251907
 10
269.6522052063
 20
51.428193122
 10
269.7572879877
 20
52.0466733802
 10
269.9300474633
 20
52.6812754909
 10
270.1669667485
 20
53.3190807852
 10
270.4632228499
 20
53.9471053866
 10
270.8127848476
 20
54.5525645252
 10
271.2085366673
 20
55.123132799
 10
271.6424219433
 20
55.6471950832
 10
272.1056080226
 20
56.1140829812
 10
272.5886657722
 20
56.5142920016
 10
273.0817615296
 20
56.8396750429
 10
273.5748572869
 20
57.0836082447
 10
274.0579150365
 20
57.2411258306
 10
274.5211011158
 20
57.3090211965
 10
274.9549863918
 20
57.2859121888
 10
275.3507382115
 20
57.1722692402
 10
275.7003002092
 20
56.9704057933
 10
275.9965563106
 20
56.6844312059
 10
276.2334755958
 20
56.3201670959
 10
276.4062350715
 20
55.88502883
 10
276.5113178528
 20
55.3878745685
 10
276.5465847574
 20
54.8388249386
 10
276.5113178528
 20
54.2490570074
 10
276.4062350715
 20
53.6305767491
 10
276.2334755958
 20
52.9959746384
 10
275.9965563106
 20
52.3581693441
 10
275.7003002092
 20
51.7301447427
 10
275.3507382115
 20
51.1246856041
 10
274.9549863918
 20
50.5541173304
 10
274.5211011158
 20
50.0300550461
 10
274.0579150365
 20
49.5631671482
 10
273.5748572869
 20
49.1629581278
 10
273.0817615296
 20
48.8375750864
 10
272.5886657722
 20
48.5936418846
 10
272.1056080226
 20
48.4361242988
 10
271.6424219433
 20
48.3682289328
 10
271.2085366673
 20
48.3913379405
 10
270.8127848476
 20
48.5049808891
 10
270.4632228499
 20
48.706844336
 10
270.1669667485
 20
48.9928189234
 10
269.9300474633
 20
49.3570830335
 10
269.7572879877
 20
49.7922212994
 10
269.6522052063
 20
50.2893755608
 10
269.6169383017
 20
50.8384251907
  0
LWPOLYLINE
  5
237
330
1F
100
AcDbEntity
  8
0
  6
Continuous
 62
     7
370
    15
100
AcDbPolyline
 90
       24
 70
   128
 43
0.0
 10
269.4755169455
 20
50.8384251907
 10
269.5099245184
 20
51.426490844
 10
269.612477533
 20
52.0428366064
 10
269.7811799113
 20
52.6754660087
 10
270.0127480536
 20
53.3120656392
 10
270.3026747493
 20
53.9402448102
 10
270.6453169052
 20
54.5477767287
 10
271.0340053813
 20
55.122836477
 10
271.4611747986
 20
55.6542311711
 10
271.9185107903
 20
56.1316178178
 10
272.3971118316
 20
56.5457046291
 10
272.8876624975
 20
56.8884318762
 10
273.3806147775
 20
57.153128763
 10
273.8663739159
 20
57.3346432658
 10
274.3354851638
 20
57.4294424112
 10
274.7788178044
 20
57.4356810416
 10
275.187742872
 20
57.3532377294
 10
275.5543011054
 20
57.1837171396
 10
275.8713578655
 20
56.9304187979
 10
276.1327420032
 20
56.5982728682
 10
276.3333659734
 20
56.1937441934
 10
276.4693248588
 20
55.7247064639
 10
276.5379723745
 20
55.2002889655
 10
276.5465847574
 20
54.9204657498
  0
LWPOLYLINE
  5
238
330
1F
100
AcDbEntity
  8
0
  6
Continuous
 62
     7
370
    15
100
AcDbPolyline
 90
       13
 70
   128
 43
0.0
 10
273.0116254751
 20
48.797073188
 10
272.8876624975
 20
48.7279979033
 10
272.3971118316
 20
48.5043474072
 10
271.9185107903
 20
48.3658532182
 10
271.4611747986
 20
48.3152109683
 10
271.0340053813
 20
48.3534063512
 10
270.6453169052
 20
48.4796959373
 10
270.3026747493
 20
48.6916216434
 10
270.0127480536
 20
48.9850585767
 10
269.7811799113
 20
49.3542953211
 10
269.612477533
 20
49.7921451034
 10
269.5099245184
 20
50.2900856755
 10
269.4755169455
 20
50.8384251907
  0
SPLINE
  5
239
330
1F
100
AcDbEntity
  8
0
  6
Continuous
 62
     7
370
    15
100
AcDbSpline
210
0.0
220
0.0
230
1.0
 70
     8
 71
     3
 72
    38
 73
    34
 74
     0
 42
0.000000001
 43
0.00000001
 40
0.0
 40
0.0
 40
0.0
 40
0.0
 40
0.0625
 40
0.0625
 40
0.1249999999999999
 40
0.1249999999999999
 40
0.1874999999999999
 40
0.1874999999999999
 40
0.2499999999999999
 40
0.2499999999999999
 40
0.3124999999999999
 40
0.3124999999999999
 40
0.3749999999999999
 40
0.3749999999999999
 40
0.4375
 40
0.4375
 40
0.5000000000000001
 40
0.5000000000000001
 40
0.5625000000000001
 40
0.5625000000000001
 40
0.6250000000000001
 40
0.6250000000000001
 40
0.6875000000000001
 40
0.6875000000000001
 40
0.75
 40
0.75
 40
0.8125
 40
0.8125
 40
0.875
 40
0.875
 40
0.9375
 40
0.9375
 40
1.0
 40
1.0
 40
1.0
 40
1.0
 10
272.2155557226033
 20
57.42137909259255
 30
0.0
 10
272.1450031377334
 20
57.38064995229124
 30
0.0
 10
272.0659175223811
 20
57.34247791308108
 30
0.0
 10
271.8932992939176
 20
57.2728809375975
 30
0.0
 10
271.8024293370191
 20
57.24245818272954
 30
0.0
 10
271.6122880199695
 20
57.19033787020603
 30
0.0
 10
271.5134410079095
 20
57.16890634910067
 30
0.0
 10
271.3160218330038
 20
57.1369914031124
 30
0.0
 10
271.2154684827459
 20
57.1261844787343
 30
0.0
 10
271.0175935952743
 20
57.11605112541562
 30
0.0
 10
270.9204387514199
 20
57.11660873279376
 30
0.0
 10
270.7293004572428
 20
57.12940192828501
 30
0.0
 10
270.635326185827
 20
57.14179071665078
 30
0.0
 10
270.4568939012096
 20
57.17801184870225
 30
0.0
 10
270.3715405549229
 20
57.20187206140178
 30
0.0
 10
270.2085095758301
 20
57.26173459849687
 30
0.0
 10
270.1316674220799
 20
57.29756657999219
 30
0.0
 10
269.9910000795051
 20
57.37902520896225
 30
0.0
 10
269.9265238202451
 20
57.42487714764177
 30
0.0
 10
269.8096898206666
 20
57.5269560491158
 30
0.0
 10
269.7581710186226
 20
57.58260754605819
 30
0.0
 10
269.6711636542216
 20
57.69986835638719
 30
0.0
 10
269.6352366021295
 20
57.76183953316988
 30
0.0
 10
269.57960755398
 20
57.892031484802
 30
0.0
 10
269.5604621871082
 20
57.95929070375206
 30
0.0
 10
269.540851686315
 20
58.09398450919117
 30
0.0
 10
269.5401474075287
 20
58.16189827455265
 30
0.0
 10
269.559363636701
 20
58.29785194231223
 30
0.0
 10
269.5792236428472
 20
58.36434659256819
 30
0.0
 10
269.6399917882201
 20
58.49032314860324
 30
0.0
 10
269.6818039459278
 20
58.55097562290758
 30
0.0
 10
269.7849611985922
 20
58.65902009265811
 30
0.0
 10
269.8461347575453
 20
58.70686784813049
 30
0.0
 10
269.917458683747
 20
58.74804227430445
 30
0.0
  0
SPLINE
  5
23A
330
1F
100
AcDbEntity
  8
0
  6
Continuous
 62
     7
370
    15
100
AcDbSpline
210
0.0
220
0.0
230
1.0
 70
     8
 71
     3
 72
    32
 73
    28
 74
     0
 42
0.000000001
 43
0.00000001
 40
0.0
 40
0.0
 40
0.0
 40
0.0
 40
0.062500000000001
 40
0.062500000000001
 40
0.125000000000002
 40
0.125000000000002
 40
0.187500000000003
 40
0.187500000000003
 40
0.250000000000004
 40
0.250000000000004
 40
0.3750000000000043
 40
0.3750000000000043
 40
0.5000000000000047
 40
0.5000000000000047
 40
0.625000000000005
 40
0.625000000000005
 40
0.6875000000000041
 40
0.6875000000000041
 40
0.7500000000000032
 40
0.7500000000000032
 40
0.8125000000000024
 40
0.8125000000000024
 40
0.8750000000000017
 40
0.8750000000000017
 40
0.9375000000000009
 40
0.9375000000000009
 40
1.0
 40
1.0
 40
1.0
 40
1.0
 10
269.917458683747
 20
58.74804227430445
 30
0.0
 10
269.9888637449897
 20
58.78926353874051
 30
0.0
 10
270.0686563421941
 20
58.82254297526494
 30
0.0
 10
270.2400189805665
 20
58.87259900310276
 30
0.0
 10
270.3330907380629
 20
58.88963765153221
 30
0.0
 10
270.5231000626339
 20
58.90776802599173
 30
0.0
 10
270.6216828770533
 20
58.90920388072463
 30
0.0
 10
270.8209596455463
 20
58.89888154986819
 30
0.0
 10
270.9204943662791
 20
58.88729960687056
 30
0.0
 10
271.2191009312039
 20
58.83657782733167
 30
0.0
 10
271.4091789901636
 20
58.78353001099472
 30
0.0
 10
271.7694287810715
 20
58.6520413622221
 30
0.0
 10
271.9314862263995
 20
58.57646971259534
 30
0.0
 10
272.2155474677828
 20
58.41187928886795
 30
0.0
 10
272.3316016031675
 20
58.32631886413917
 30
0.0
 10
272.463223024617
 20
58.19217117257121
 30
0.0
 10
272.4988402985628
 20
58.14751234185866
 30
0.0
 10
272.5535713634735
 20
58.05728864115279
 30
0.0
 10
272.5727605454288
 20
58.01144895368838
 30
0.0
 10
272.592359248714
 20
57.91868302047332
 30
0.0
 10
272.5926715262865
 20
57.87273298291079
 30
0.0
 10
272.5735209541215
 20
57.78040448651857
 30
0.0
 10
272.5536990453044
 20
57.73347127458991
 30
0.0
 10
272.4924163254406
 20
57.64050254994304
 30
0.0
 10
272.451710217112
 20
57.5952071039534
 30
0.0
 10
272.3491610490539
 20
57.50628008234851
 30
0.0
 10
272.2861885650693
 20
57.46215456461782
 30
0.0
 10
272.2155557226033
 20
57.42137909259255
 30
0.0
  0
ARC
  5
23B
330
1F
100
AcDbEntity
  8
0
  6
Continuous
 62
     7
370
    15
100
AcDbCircle
 10
271.0213820909
 20
49.623513599
 30
0.0
 40
0.4510551675024787
100
AcDbArc
 50
173.8039352909
 51
288.0938669718
  0
LWPOLYLINE
  5
23C
330
1F
100
AcDbEntity
  8
0
  6
Continuous
 62
     7
370
    15
100
AcDbPolyline
 90
       10
 70
   128
 43
0.0
 10
275.0020546525
 20
51.4118868159
 10
274.6284957609
 20
50.8758774172
 10
274.2155749871
 20
50.3898167686
 10
273.7738004964
 20
49.9660743268
 10
273.3144147343
 20
49.6154336508
 10
272.8491083248
 20
49.3468179782
 10
272.3897225627
 20
49.1670631431
 10
271.947948072
 20
49.0807436149
 10
271.5350272982
 20
49.090056086
 10
271.1614684066
 20
49.1947635689
  0
ARC
  5
23D
330
1F
100
AcDbEntity
  8
0
  6
Continuous
 62
     7
370
    15
100
AcDbCircle
 10
273.8495833967
 20
52.726273932
 30
0.0
 40
1.748085663338333
100
AcDbArc
 50
311.2446942589
 51
354.8314148769
  0
ARC
  5
23E
330
1F
100
AcDbEntity
  8
0
  6
Continuous
 62
     7
370
    15
100
AcDbCircle
 10
272.2450958277
 20
54.2869243111
 30
0.0
 40
3.760865234061745
100
AcDbArc
 50
332.8163458041
 51
27.1836541959
  0
ARC
  5
23F
330
1F
100
AcDbEntity
  8
0
  6
Continuous
 62
     7
370
    15
100
AcDbCircle
 10
275.1421409682
 20
56.0537365304
 30
0.0
 40
0.4510551675024517
100
AcDbArc
 50
353.8039352909
 51
108.0938669718
  0
LWPOLYLINE
  5
240
330
1F
100
AcDbEntity
  8
0
  6
Continuous
 62
     7
370
    15
100
AcDbPolyline
 90
       10
 70
   128
 43
0.0
 10
271.1614684066
 20
54.2653633135
 10
271.5350272982
 20
54.8013727122
 10
271.947948072
 20
55.2874333607
 10
272.3897225627
 20
55.7111758026
 10
272.8491083248
 20
56.0618164785
 10
273.3144147343
 20
56.3304321511
 10
273.7738004964
 20
56.5101869862
 10
274.2155749871
 20
56.5965065144
 10
274.6284957609
 20
56.5871940434
 10
275.0020546525
 20
56.4824865604
  0
ARC
  5
241
330
1F
100
AcDbEntity
  8
0
  6
Continuous
 62
     7
370
    15
100
AcDbCircle
 10
272.3139396624
 20
52.9509761974
 30
0.0
 40
1.748085663338334
100
AcDbArc
 50
131.2446942589
 51
174.8314148769
  0
ARC
  5
242
330
1F
100
AcDbEntity
  8
0
  6
Continuous
 62
     7
370
    15
100
AcDbCircle
 10
273.9184272314
 20
51.3903258182
 30
0.0
 40
3.760865234062207
100
AcDbArc
 50
152.8163458041
 51
207.1836541959
  0
SPLINE
  5
243
330
1F
100
AcDbEntity
  8
0
  6
Continuous
 62
     7
370
    15
100
AcDbSpline
210
0.0
220
0.0
230
1.0
 70
     8
 71
     3
 72
     8
 73
     4
 74
     0
 42
0.000000001
 43
0.00000001
 40
0.0
 40
0.0
 40
0.0
 40
0.0
 40
1.0
 40
1.0
 40
1.0
 40
1.0
 10
274.7666111689142
 20
56.42807874241684
 30
0.0
 10
274.8476991064258
 20
56.4540124712673
 30
0.0
 10
274.9261668919684
 20
56.47234082378603
 30
0.0
 10
275.0020546524937
 20
56.48248656043535
 30
0.0
  0
SPLINE
  5
244
330
1F
100
AcDbEntity
  8
0
  6
Continuous
 62
     7
370
    15
100
AcDbSpline
210
0.0
220
0.0
230
1.0
 70
     8
 71
     3
 72
     8
 73
     4
 74
     0
 42
0.000000001
 43
0.00000001
 40
0.0
 40
0.0
 40
0.0
 40
0.0
 40
1.0
 40
1.0
 40
1.0
 40
1.0
 10
274.4099869369048
 20
56.3101614880747
 30
0.0
 10
274.5279287747481
 20
56.35054847356673
 30
0.0
 10
274.6468661621223
 20
56.38978162162876
 30
0.0
 10
274.7666111689142
 20
56.42807874241684
 30
0.0
  0
ARC
  5
245
330
1F
100
AcDbEntity
  8
0
  6
Continuous
 62
     7
370
    15
100
AcDbCircle
 10
274.4367095949
 20
52.9105107904
 30
0.0
 40
3.399755721593117
100
AcDbArc
 50
90.4503592053
 51
149.544264262
  0
SPLINE
  5
246
330
1F
100
AcDbEntity
  8
0
  6
Continuous
 62
     7
370
    15
100
AcDbSpline
210
0.0
220
0.0
230
1.0
 70
     8
 71
     3
 72
     8
 73
     4
 74
     0
 42
0.000000001
 43
0.00000001
 40
0.0
 40
0.0
 40
0.0
 40
0.0
 40
1.0
 40
1.0
 40
1.0
 40
1.0
 10
271.3017879411
 20
54.4278788684512
 30
0.0
 10
271.3681352125931
 20
54.49701403008548
 30
0.0
 10
271.4360973619034
 20
54.56567555819818
 30
0.0
 10
271.5060487487936
 20
54.63375365542214
 30
0.0
  0
SPLINE
  5
247
330
1F
100
AcDbEntity
  8
0
  6
Continuous
 62
     7
370
    15
100
AcDbSpline
210
0.0
220
0.0
230
1.0
 70
     8
 71
     3
 72
     8
 73
     4
 74
     0
 42
0.000000001
 43
0.00000001
 40
0.0
 40
0.0
 40
0.0
 40
0.0
 40
1.0
 40
1.0
 40
1.0
 40
1.0
 10
271.16146840662
 20
54.26536331348769
 30
0.0
 10
271.2100250430435
 20
54.32705779803486
 30
0.0
 10
271.256864537557
 20
54.3810677985274
 30
0.0
 10
271.3017879411
 20
54.4278788684512
 30
0.0
  0
ARC
  5
248
330
1F
100
AcDbEntity
  8
0
  6
Continuous
 62
     7
370
    15
100
AcDbCircle
 10
269.9401319217
 20
54.652854774
 30
0.0
 40
25.80017984728125
100
AcDbArc
 50
134.0175354919
 51
166.0669804906
  0
SPLINE
  5
249
330
1F
100
AcDbEntity
  8
0
  6
Continuous
 62
     7
370
    15
100
AcDbSpline
210
0.0
220
0.0
230
1.0
 70
     8
 71
     3
 72
     8
 73
     4
 74
     0
 42
0.000000001
 43
0.00000001
 40
0.0
 40
0.0
 40
0.0
 40
0.0
 40
1.0
 40
1.0
 40
1.0
 40
1.0
 10
270.5729618165142
 20
49.67219646735518
 30
0.0
 10
270.5589185268053
 20
49.73585096829026
 30
0.0
 10
270.5485346754651
 20
49.8026316684593
 30
0.0
 10
270.5415435457376
 20
49.87244564856116
 30
0.0
  0
ARC
  5
24A
330
1F
100
AcDbEntity
  8
0
  6
Continuous
 62
     7
370
    15
100
AcDbCircle
 10
273.8794331444
 20
51.415016889
 30
0.0
 40
3.677095729574624
100
AcDbArc
 50
155.1964677926
 51
204.8035322074
  0
SPLINE
  5
24B
330
1F
100
AcDbEntity
  8
0
  6
Continuous
 62
     7
370
    15
100
AcDbSpline
210
0.0
220
0.0
230
1.0
 70
     8
 71
     3
 72
     8
 73
     4
 74
     0
 42
0.000000001
 43
0.00000001
 40
0.0
 40
0.0
 40
0.0
 40
0.0
 40
1.0
 40
1.0
 40
1.0
 40
1.0
 10
270.5415435457376
 20
52.95758812944114
 30
0.0
 10
270.5485346754651
 20
53.00357234819249
 30
0.0
 10
270.5589185268053
 20
53.05383569105582
 30
0.0
 10
270.5729618165142
 20
53.10845516914307
 30
0.0
  0
LWPOLYLINE
  5
24C
330
1F
100
AcDbEntity
  8
0
  6
Continuous
 62
     7
370
    15
100
AcDbPolyline
 90
       25
 70
   128
 43
0.0
 10
273.1243418688
 20
55.9598001437
 10
273.1631617306
 20
55.9604753943
 10
273.4842665561
 20
55.9162556241
 10
273.7633709394
 20
55.7835643934
 10
273.9909703156
 20
55.5669203428
 10
274.1593140609
 20
55.2737010258
 10
274.2626694309
 20
54.9138916743
 10
274.2975167825
 20
54.4997451645
 10
274.2626694309
 20
54.0453647589
 10
274.1593140609
 20
53.5662238373
 10
273.9909703156
 20
53.0786389692
 10
273.7633709394
 20
52.5992142723
 10
273.4842665561
 20
52.1442759798
 10
273.1631617306
 20
51.7293164695
 10
272.8109913027
 20
51.3684666899
 10
272.439748014
 20
51.0740149475
 10
272.0620741093
 20
50.8559884432
 10
271.6908308206
 20
50.721811808
 10
271.3386603927
 20
50.6760542664
 10
271.0175555672
 20
50.7202740366
 10
270.7384511839
 20
50.8529652674
 10
270.5108518077
 20
51.0696093179
 10
270.3425080624
 20
51.362828635
 10
270.2391526924
 20
51.7226379864
 10
270.2386770623
 20
51.7253119432
  0
LINE
  5
24D
330
1F
100
AcDbEntity
  8
0
  6
Continuous
 62
     7
370
    15
100
AcDbLine
 10
270.5184994478
 20
49.7562680961
 30
0.0
 11
271.6514972855
 21
50.4103338257
 31
0.0
  0
LINE
  5
24E
330
1F
100
AcDbEntity
  8
0
  6
Continuous
 62
     7
370
    15
100
AcDbLine
 10
274.7540344984
 20
56.3058584727
 30
0.0
 11
274.7610685955
 21
56.4432315781
 31
0.0
  0
ARC
  5
24F
330
1F
100
AcDbEntity
  8
0
  6
Continuous
 62
     7
370
    15
100
AcDbCircle
 10
271.4161448998
 20
54.7632872322
 30
0.0
 40
3.677095729574882
100
AcDbArc
 50
335.1964677926
 51
24.8035322074
  0
ARC
  5
250
330
1F
100
AcDbEntity
  8
0
  6
Continuous
 62
     7
370
    15
100
AcDbCircle
 10
273.1078236117
 20
53.1522471964
 30
0.0
 40
1.647634140084856
100
AcDbArc
 50
302.0978909557
 51
2.3816591776
  0
LINE
  5
251
330
1F
100
AcDbEntity
  8
0
  6
Continuous
 62
     7
370
    15
100
AcDbLine
 10
272.8503248378
 20
51.1024022405
 30
0.0
 11
273.9833226756
 21
51.7564679701
 31
0.0
  0
ARC
  5
252
330
1F
100
AcDbEntity
  8
0
  6
Continuous
 62
     7
370
    15
100
AcDbCircle
 10
270.7722034406
 20
53.3178423034
 30
0.0
 40
3.037558758883316
100
AcDbArc
 50
286.8264591401
 51
313.1681643272
  0
LINE
  5
253
330
1F
100
AcDbEntity
  8
0
  6
Continuous
 62
     7
370
    15
100
AcDbLine
 10
253.0749972374
 20
49.9372635196
 30
0.0
 11
255.2449929741
 21
48.6845516455
 31
0.0
  0
SPLINE
  5
254
330
1F
100
AcDbEntity
  8
0
  6
Continuous
 62
     7
370
    15
100
AcDbSpline
210
0.0
220
0.0
230
1.0
 70
     8
 71
     3
 72
    14
 73
    10
 74
     0
 42
0.000000001
 43
0.00000001
 40
0.0
 40
0.0
 40
0.0
 40
0.0
 40
0.1249999999999983
 40
0.1249999999999983
 40
0.2499999999999966
 40
0.2499999999999966
 40
0.4999999999999968
 40
0.4999999999999968
 40
1.0
 40
1.0
 40
1.0
 40
1.0
 10
252.8266877824682
 20
50.64801082569335
 30
0.0
 10
252.851117131112
 20
50.63390806290703
 30
0.0
 10
252.874095685178
 20
50.60662593304736
 30
0.0
 10
252.9109787986698
 20
50.54887252954086
 30
0.0
 10
252.9261039449867
 20
50.51772494787026
 30
0.0
 10
252.9658213054459
 20
50.42488784631427
 30
0.0
 10
252.985283423335
 20
50.36293737649751
 30
0.0
 10
253.036151544529
 20
50.17702267100001
 30
0.0
 10
253.0584357719442
 20
50.05549002602672
 30
0.0
 10
253.0749972374027
 20
49.93726351957918
 30
0.0
  0
LINE
  5
255
330
1F
100
AcDbEntity
  8
0
  6
Continuous
 62
     7
370
    15
100
AcDbLine
 10
252.0417992554
 20
51.1011173278
 30
0.0
 11
252.8266877825
 21
50.6480108257
 31
0.0
  0
SPLINE
  5
256
330
1F
100
AcDbEntity
  8
0
  6
Continuous
 62
     7
370
    15
100
AcDbSpline
210
0.0
220
0.0
230
1.0
 70
     8
 71
     3
 72
    14
 73
    10
 74
     0
 42
0.000000001
 43
0.00000001
 40
0.0
 40
0.0
 40
0.0
 40
0.0
 40
0.5
 40
0.5
 40
0.75
 40
0.75
 40
0.875
 40
0.875
 40
1.0
 40
1.0
 40
1.0
 40
1.0
 10
251.7934898004166
 20
50.67706201589724
 30
0.0
 10
251.8101138818704
 20
50.77654176012736
 30
0.0
 10
251.8325312834747
 20
50.87237689352336
 30
0.0
 10
251.8829623413233
 20
50.998592843097
 30
0.0
 10
251.9024970352546
 20
51.03842639179125
 30
0.0
 10
251.94244019259
 20
51.0856867232631
 30
0.0
 10
251.9574571597556
 20
51.09928933686836
 30
0.0
 10
251.9945185272773
 20
51.11450973844407
 30
0.0
 10
252.0175021896257
 20
51.11514372523794
 30
0.0
 10
252.0417992553512
 20
51.10111732775491
 30
0.0
  0
LINE
  5
257
330
1F
100
AcDbEntity
  8
0
  6
Continuous
 62
     7
370
    15
100
AcDbLine
 10
250.6487988964
 20
51.3378780089
 30
0.0
 11
251.7934898004
 21
50.6770620159
 31
0.0
  0
ARC
  5
258
330
1F
100
AcDbEntity
  8
0
  6
Continuous
 62
     7
370
    15
100
AcDbCircle
 10
253.9174102486
 20
56.4909979775
 30
0.0
 40
6.102332798379134
100
AcDbArc
 50
182.3868561234
 51
237.6131440222
  0
LINE
  5
259
330
1F
100
AcDbEntity
  8
0
  6
Continuous
 62
     7
370
    15
100
AcDbLine
 10
247.8203717717
 20
57.053398292
 30
0.0
 11
247.8203717717
 21
56.2368574801
 31
0.0
  0
ARC
  5
25A
330
1F
100
AcDbEntity
  8
0
  6
Continuous
 62
     7
370
    15
100
AcDbCircle
 10
250.4384784194
 20
57.1308807938
 30
0.0
 40
2.619252938722437
100
AcDbArc
 50
154.122286443
 51
181.6951658291
  0
LINE
  5
25B
330
1F
100
AcDbEntity
  8
0
  6
Continuous
 62
     7
370
    15
100
AcDbLine
 10
274.2419023295
 20
56.2131283096
 30
0.0
 11
274.4099869369
 21
56.3101614881
 31
0.0
  0
ARC
  5
25C
330
1F
100
AcDbEntity
  8
0
  6
Continuous
 62
     7
370
    15
100
AcDbCircle
 10
274.4367135462
 20
52.9105039458
 30
0.0
 40
3.308365018965799
100
AcDbArc
 50
93.3757825808
 51
146.6188408865
  0
LINE
  5
25D
330
1F
100
AcDbEntity
  8
0
  6
Continuous
 62
     7
370
    15
100
AcDbLine
 10
271.5060487488
 20
54.6337536554
 30
0.0
 11
271.6741333562
 21
54.7307868339
 31
0.0
  0
SPLINE
  5
25E
330
1F
100
AcDbEntity
  8
0
  6
Continuous
 62
     7
370
    15
100
AcDbSpline
210
0.0
220
0.0
230
1.0
 70
     8
 71
     3
 72
     9
 73
     5
 74
     0
 42
0.000000001
 43
0.00000001
 40
0.0
 40
0.0
 40
0.0
 40
0.0
 40
0.4600451708082651
 40
1.0
 40
1.0
 40
1.0
 40
1.0
 10
273.4795369863641
 20
56.14892642397636
 30
0.0
 10
273.5953221202698
 20
56.16311173132304
 30
0.0
 10
273.8470042185781
 20
56.19394632811223
 30
0.0
 10
274.1034390849857
 20
56.20640252561832
 30
0.0
 10
274.2419023294756
 20
56.21312830961511
 30
0.0
  0
LWPOLYLINE
  5
25F
330
1F
100
AcDbEntity
  8
0
  6
Continuous
 62
     7
370
    15
100
AcDbPolyline
 90
       21
 70
   128
 43
0.0
 10
273.0574620765
 20
55.9252007544
 10
273.3475396471
 20
55.8524630857
 10
273.6026489189
 20
55.6907766246
 10
273.8025136924
 20
55.4470297953
 10
273.9399103338
 20
55.1300322432
 10
274.0098729704
 20
54.7512410859
 10
274.0098729704
 20
54.3243468227
 10
273.9399103338
 20
53.8647785244
 10
273.8025136924
 20
53.3891461869
 10
273.6026489189
 20
52.914640402
 10
273.3475396471
 20
52.4584110451
 10
273.0464061905
 20
52.0369474338
 10
272.710132297
 20
51.6654823613
 10
272.3508717812
 20
51.357441543
 10
271.9816092542
 20
51.1239583767
 10
271.6156908258
 20
50.9734715524
 10
271.2663417414
 20
50.9114200561
 10
270.9461883872
 20
50.9400465903
 10
270.6668019395
 20
51.0583165177
 10
270.4382801525
 20
51.2619552549
 10
270.3008728839
 20
51.4751402758
  0
SPLINE
  5
260
330
1F
100
AcDbEntity
  8
0
  6
Continuous
 62
     7
370
    15
100
AcDbSpline
210
0.0
220
0.0
230
1.0
 70
     8
 71
     3
 72
     8
 73
     4
 74
     0
 42
0.000000001
 43
0.00000001
 40
0.0
 40
0.0
 40
0.0
 40
0.0
 40
1.0
 40
1.0
 40
1.0
 40
1.0
 10
271.3017879411
 20
49.30408527386812
 30
0.0
 10
271.256864537557
 20
49.25727420394432
 30
0.0
 10
271.2100250430435
 20
49.22068722766018
 30
0.0
 10
271.16146840662
 20
49.19476356890943
 30
0.0
  0
SPLINE
  5
261
330
1F
100
AcDbEntity
  8
0
  6
Continuous
 62
     7
370
    15
100
AcDbSpline
210
0.0
220
0.0
230
1.0
 70
     8
 71
     3
 72
     8
 73
     4
 74
     0
 42
0.000000001
 43
0.00000001
 40
0.0
 40
0.0
 40
0.0
 40
0.0
 40
1.0
 40
1.0
 40
1.0
 40
1.0
 10
275.5905612425995
 20
56.00505366198959
 30
0.0
 10
275.5827358353903
 20
55.95402369106461
 30
0.0
 10
275.5684298342752
 20
55.90149613933129
 30
0.0
 10
275.547790419256
 20
55.84763293318993
 30
0.0
  0
LINE
  5
262
330
1F
100
AcDbEntity
  8
0
  6
Continuous
 62
     7
370
    15
100
AcDbLine
 10
274.7540344984
 20
56.3058584727
 30
0.0
 11
275.5477904193
 21
55.8476329332
 31
0.0
  0
ARC
  5
263
330
1F
100
AcDbEntity
  8
0
  6
Continuous
 62
     7
370
    15
100
AcDbCircle
 10
271.4793260908
 20
52.9096107585
 30
0.0
 40
3.399755721593126
100
AcDbArc
 50
270.4503592053
 51
329.544264262
  0
SPLINE
  5
264
330
1F
100
AcDbEntity
  8
0
  6
Continuous
 62
     7
370
    15
100
AcDbSpline
210
0.0
220
0.0
230
1.0
 70
     8
 71
     3
 72
     8
 73
     4
 74
     0
 42
0.000000001
 43
0.00000001
 40
0.0
 40
0.0
 40
0.0
 40
0.0
 40
1.0
 40
1.0
 40
1.0
 40
1.0
 10
274.7666111689142
 20
51.30428514783376
 30
0.0
 10
274.6468525802816
 20
51.26598368327046
 30
0.0
 10
274.5279144378697
 20
51.22674996958667
 30
0.0
 10
274.4099869369048
 20
51.18636789349161
 30
0.0
  0
SPLINE
  5
265
330
1F
100
AcDbEntity
  8
0
  6
Continuous
 62
     7
370
    15
100
AcDbSpline
210
0.0
220
0.0
230
1.0
 70
     8
 71
     3
 72
     8
 73
     4
 74
     0
 42
0.000000001
 43
0.00000001
 40
0.0
 40
0.0
 40
0.0
 40
0.0
 40
1.0
 40
1.0
 40
1.0
 40
1.0
 10
275.0020546524937
 20
51.41188681585709
 30
0.0
 10
274.9261668919684
 20
51.36597025341135
 30
0.0
 10
274.8476991064258
 20
51.33021887668423
 30
0.0
 10
274.7666111689142
 20
51.30428514783377
 30
0.0
  0
SPLINE
  5
266
330
1F
100
AcDbEntity
  8
0
  6
Continuous
 62
     7
370
    15
100
AcDbSpline
210
0.0
220
0.0
230
1.0
 70
     8
 71
     3
 72
     8
 73
     4
 74
     0
 42
0.000000001
 43
0.00000001
 40
0.0
 40
0.0
 40
0.0
 40
0.0
 40
1.0
 40
1.0
 40
1.0
 40
1.0
 10
271.5060487487936
 20
49.50996006083906
 30
0.0
 10
271.4360888576569
 20
49.44187368711133
 30
0.0
 10
271.3681276881384
 20
49.37321259487267
 30
0.0
 10
271.3017879411
 20
49.30408527386812
 30
0.0
  0
LINE
  5
267
330
1F
100
AcDbEntity
  8
0
  6
Continuous
 62
     7
370
    15
100
AcDbLine
 10
271.6514972855
 20
50.4103338257
 30
0.0
 11
271.89932474
 21
50.2672660815
 31
0.0
  0
SPLINE
  5
268
330
1F
100
AcDbEntity
  8
0
  6
Continuous
 62
     7
370
    15
100
AcDbSpline
210
0.0
220
0.0
230
1.0
 70
     8
 71
     3
 72
    10
 73
     6
 74
     0
 42
0.000000001
 43
0.00000001
 40
0.0
 40
0.0
 40
0.0
 40
0.0
 40
0.5
 40
0.5
 40
1.0
 40
1.0
 40
1.0
 40
1.0
 10
271.8993247399594
 20
50.26726608151795
 30
0.0
 10
271.8303975703922
 20
50.16189544805304
 30
0.0
 10
271.7817840256674
 20
50.05316937532443
 30
0.0
 10
271.710347448072
 20
49.83145710904794
 30
0.0
 10
271.6878649751191
 20
49.71876386353643
 30
0.0
 10
271.6741333562227
 20
49.60699323929865
 30
0.0
  0
LINE
  5
269
330
1F
100
AcDbEntity
  8
0
  6
Continuous
 62
     7
370
    15
100
AcDbLine
 10
271.6741333562
 20
49.6069932393
 30
0.0
 11
271.5060487488
 21
49.5099600608
 31
0.0
  0
SPLINE
  5
26A
330
1F
100
AcDbEntity
  8
0
  6
Continuous
 62
     7
370
    15
100
AcDbSpline
210
0.0
220
0.0
230
1.0
 70
     8
 71
     3
 72
    12
 73
     8
 74
     0
 42
0.000000001
 43
0.00000001
 40
0.0
 40
0.0
 40
0.0
 40
0.0
 40
0.250000000000002
 40
0.250000000000002
 40
0.500000000000004
 40
0.500000000000004
 40
1.0
 40
1.0
 40
1.0
 40
1.0
 10
275.1384507128379
 20
60.82199318843169
 30
0.0
 10
275.1665557145022
 20
60.80576851632276
 30
0.0
 10
275.1892116814296
 20
60.78574891351453
 30
0.0
 10
275.2183338233103
 20
60.74278728615153
 30
0.0
 10
275.2251892215157
 20
60.71957941083124
 30
0.0
 10
275.2220312265155
 20
60.65069254622153
 30
0.0
 10
275.187399108627
 20
60.60532806230014
 30
0.0
 10
275.131112659395
 20
60.57283458680162
 30
0.0
  0
ARC
  5
26B
330
1F
100
AcDbEntity
  8
0
  6
Continuous
 62
     7
370
    15
100
AcDbCircle
 10
259.2163782243
 20
48.9477695637
 30
0.0
 40
5.444445033957567
100
AcDbArc
 50
216.5135746511
 51
263.7219426546
  0
SPLINE
  5
26C
330
1F
100
AcDbEntity
  8
0
  6
Continuous
 62
     7
370
    15
100
AcDbSpline
210
0.0
220
0.0
230
1.0
 70
     8
 71
     3
 72
    12
 73
     8
 74
     0
 42
0.000000001
 43
0.00000001
 40
0.0
 40
0.0
 40
0.0
 40
0.0
 40
0.2499999999999999
 40
0.2499999999999999
 40
0.4999999999999998
 40
0.4999999999999998
 40
1.0
 40
1.0
 40
1.0
 40
1.0
 10
253.6939833483644
 20
48.03409528075882
 30
0.0
 10
253.7222255484367
 20
48.01779140569479
 30
0.0
 10
253.7567716803422
 20
48.00483561228479
 30
0.0
 10
253.8314957400398
 20
47.98812387409226
 30
0.0
 10
253.8717861313415
 20
47.98423696530481
 30
0.0
 10
253.9928991487778
 20
47.9865003631941
 30
0.0
 10
254.0710167111957
 20
48.00682957462084
 30
0.0
 10
254.1276661839313
 20
48.03953261912719
 30
0.0
  0
LINE
  5
26D
330
1F
100
AcDbEntity
  8
0
  6
Continuous
 62
     7
370
    15
100
AcDbLine
 10
273.9126119975
 20
61.5296548158
 30
0.0
 11
275.1384507128
 21
60.8219931884
 31
0.0
  0
ARC
  5
26E
330
1F
100
AcDbEntity
  8
0
  6
Continuous
 62
     7
370
    15
100
AcDbCircle
 10
258.4938919746
 20
50.4701625632
 30
0.0
 40
6.409553223800082
100
AcDbArc
 50
194.716105919
 51
237.9533567894
  0
LINE
  5
26F
330
1F
100
AcDbEntity
  8
0
  6
Continuous
 62
     7
370
    15
100
AcDbLine
 10
252.2945952807
 20
48.8419448166
 30
0.0
 11
253.6939833484
 21
48.0340952808
 31
0.0
  0
ARC
  5
270
330
1F
100
AcDbEntity
  8
0
  6
Continuous
 62
     7
370
    15
100
AcDbCircle
 10
271.4793221395
 20
52.9096176031
 30
0.0
 40
3.308365018965649
100
AcDbArc
 50
273.3757825808
 51
326.6188408865
  0
LINE
  5
271
330
1F
100
AcDbEntity
  8
0
  6
Continuous
 62
     7
370
    15
100
AcDbLine
 10
274.4099869369
 20
51.1863678935
 30
0.0
 11
274.2419023295
 21
51.089334715
 31
0.0
  0
SPLINE
  5
272
330
1F
100
AcDbEntity
  8
0
  6
Continuous
 62
     7
370
    15
100
AcDbSpline
210
0.0
220
0.0
230
1.0
 70
     8
 71
     3
 72
     8
 73
     4
 74
     0
 42
0.000000001
 43
0.00000001
 40
0.0
 40
0.0
 40
0.0
 40
0.0
 40
1.0
 40
1.0
 40
1.0
 40
1.0
 10
252.7213864450397
 20
49.69325710381479
 30
0.0
 10
252.5782217483492
 20
49.40963505680779
 30
0.0
 10
252.4360330514966
 20
49.12585191082377
 30
0.0
 10
252.2945952807414
 20
48.84194481663669
 30
0.0
  0
LINE
  5
273
330
1F
100
AcDbEntity
  8
0
  6
Continuous
 62
     7
370
    15
100
AcDbLine
 10
252.9665550494
 20
49.8347899265
 30
0.0
 11
252.721386445
 21
49.6932571038
 31
0.0
  0
SPLINE
  5
274
330
1F
100
AcDbEntity
  8
0
  6
Continuous
 62
     7
370
    15
100
AcDbSpline
210
0.0
220
0.0
230
1.0
 70
     8
 71
     3
 72
    10
 73
     6
 74
     0
 42
0.000000001
 43
0.00000001
 40
0.0
 40
0.0
 40
0.0
 40
0.0
 40
0.5
 40
0.5
 40
1.0
 40
1.0
 40
1.0
 40
1.0
 10
253.0749972374027
 20
49.93726351957918
 30
0.0
 10
253.0643443704327
 20
49.91798787237305
 30
0.0
 10
253.0495396072806
 20
49.899376490948
 30
0.0
 10
253.0127538359497
 20
49.86474621671647
 30
0.0
 10
252.9911846153557
 20
49.84900827228137
 30
0.0
 10
252.9665550494058
 20
49.83478992650451
 30
0.0
  0
SPLINE
  5
275
330
1F
100
AcDbEntity
  8
0
  6
Continuous
 62
     7
370
    15
100
AcDbSpline
210
0.0
220
0.0
230
1.0
 70
     8
 71
     3
 72
     8
 73
     4
 74
     0
 42
0.000000001
 43
0.00000001
 40
0.0
 40
0.0
 40
0.0
 40
0.0
 40
1.0
 40
1.0
 40
1.0
 40
1.0
 10
275.547790419256
 20
52.76249045230995
 30
0.0
 10
275.5684298342752
 20
52.7005554595981
 30
0.0
 10
275.5827358353903
 20
52.63603896829908
 30
0.0
 10
275.5905612425995
 20
52.56879496020171
 30
0.0
  0
ARC
  5
276
330
1F
100
AcDbEntity
  8
0
  6
Continuous
 62
     7
370
    15
100
AcDbCircle
 10
272.2099008206
 20
54.3050616927
 30
0.0
 40
3.677095729574985
100
AcDbArc
 50
335.1964677926
 51
24.8035322074
  0
ARC
  5
277
330
1F
100
AcDbEntity
  8
0
  6
Continuous
 62
     7
370
    15
100
AcDbCircle
 10
271.020030895
 20
53.1747745592
 30
0.0
 40
3.03755875888409
100
AcDbArc
 50
286.8264591401
 51
313.1681643272
  0
SPLINE
  5
278
330
1F
100
AcDbEntity
  8
0
  6
Continuous
 62
     7
370
    15
100
AcDbSpline
210
0.0
220
0.0
230
1.0
 70
     8
 71
     3
 72
    10
 73
     6
 74
     0
 42
0.000000001
 43
0.00000001
 40
0.0
 40
0.0
 40
0.0
 40
0.0
 40
0.5
 40
0.5
 40
1.0
 40
1.0
 40
1.0
 40
1.0
 10
274.2419023294756
 20
51.08933471503214
 30
0.0
 10
274.0468355515356
 20
51.08134811377118
 30
0.0
 10
273.8513541345748
 20
51.0682749441748
 30
0.0
 10
273.4684948155424
 20
51.02710163557563
 30
0.0
 10
273.2805558898503
 20
50.99909838788638
 30
0.0
 10
273.0981522921953
 20
50.95933449633338
 30
0.0
  0
LINE
  5
279
330
1F
100
AcDbEntity
  8
0
  6
Continuous
 62
     7
370
    15
100
AcDbLine
 10
274.7540344984
 20
53.2207159918
 30
0.0
 11
275.5477904193
 21
52.7624904523
 31
0.0
  0
SPLINE
  5
27A
330
1F
100
AcDbEntity
  8
0
  6
Continuous
 62
     7
370
    15
100
AcDbSpline
210
0.0
220
0.0
230
1.0
 70
     8
 71
     3
 72
    14
 73
    10
 74
     0
 42
0.000000001
 43
0.00000001
 40
0.0
 40
0.0
 40
0.0
 40
0.0
 40
0.5000000000000002
 40
0.5000000000000002
 40
0.7500000000000002
 40
0.7500000000000002
 40
0.8750000000000001
 40
0.8750000000000001
 40
1.0
 40
1.0
 40
1.0
 40
1.0
 10
237.153687980724
 20
61.33232286671598
 30
0.0
 10
237.4688539245639
 20
61.10523487582012
 30
0.0
 10
237.7851295798298
 20
60.875388500772
 30
0.0
 10
238.2639540684008
 20
60.52007989878289
 30
0.0
 10
238.4242740788249
 20
60.39994158458734
 30
0.0
 10
238.6673266147786
 20
60.21367275034353
 30
0.0
 10
238.7487700527952
 20
60.15057950911653
 30
0.0
 10
238.9134315018286
 20
60.02023426670439
 30
0.0
 10
238.9963375198948
 20
59.95370982472713
 30
0.0
 10
239.0823563479795
 20
59.87991635340357
 30
0.0
  0
SPLINE
  5
27B
330
1F
100
AcDbEntity
  8
0
  6
Continuous
 62
     7
370
    15
100
AcDbSpline
210
0.0
220
0.0
230
1.0
 70
     8
 71
     3
 72
     8
 73
     4
 74
     0
 42
0.000000001
 43
0.00000001
 40
0.0
 40
0.0
 40
0.0
 40
0.0
 40
1.0
 40
1.0
 40
1.0
 40
1.0
 10
239.0823563479795
 20
59.87991635340357
 30
0.0
 10
239.384008821217
 20
59.62113599532174
 30
0.0
 10
239.6892883647404
 20
59.37356097991708
 30
0.0
 10
239.9939479378671
 20
59.13258812335054
 30
0.0
  0
SPLINE
  5
27C
330
1F
100
AcDbEntity
  8
0
  6
Continuous
 62
     7
370
    15
100
AcDbSpline
210
0.0
220
0.0
230
1.0
 70
     8
 71
     3
 72
    14
 73
    10
 74
     0
 42
0.000000001
 43
0.00000001
 40
0.0
 40
0.0
 40
0.0
 40
0.0
 40
0.1250000000000022
 40
0.1250000000000022
 40
0.2500000000000044
 40
0.2500000000000044
 40
0.500000000000003
 40
0.500000000000003
 40
1.0
 40
1.0
 40
1.0
 40
1.0
 10
239.9939479378671
 20
59.13258812335049
 30
0.0
 10
240.0131433137927
 20
59.11740539161429
 30
0.0
 10
240.0307553871931
 20
59.10603757311751
 30
0.0
 10
240.0566003171124
 20
59.09476910390507
 30
0.0
 10
240.06473868136
 20
59.09438563366801
 30
0.0
 10
240.0816887723281
 20
59.1001614263624
 30
0.0
 10
240.0838580448378
 20
59.11282685198044
 30
0.0
 10
240.0826824970232
 20
59.1572636790242
 30
0.0
 10
240.070608976419
 20
59.19774694979765
 30
0.0
 10
240.055830748379
 20
59.24175061968014
 30
0.0
  0
SPLINE
  5
27D
330
1F
100
AcDbEntity
  8
0
  6
Continuous
 62
     7
370
    15
100
AcDbSpline
210
0.0
220
0.0
230
1.0
 70
     8
 71
     3
 72
    14
 73
    10
 74
     0
 42
0.000000001
 43
0.00000001
 40
0.0
 40
0.0
 40
0.0
 40
0.0
 40
0.25
 40
0.25
 40
0.5
 40
0.5
 40
0.75
 40
0.75
 40
1.0
 40
1.0
 40
1.0
 40
1.0
 10
240.0558307483783
 20
59.24175061968084
 30
0.0
 10
240.0377745014317
 20
59.29551492266761
 30
0.0
 10
240.0348517033305
 20
59.34006553176467
 30
0.0
 10
240.0294379747872
 20
59.43232688160938
 30
0.0
 10
240.0278706967461
 20
59.47962128452964
 30
0.0
 10
240.0177322969389
 20
59.58438233935742
 30
0.0
 10
240.0094172991948
 20
59.64164354639242
 30
0.0
 10
239.9806171245359
 20
59.77126490376684
 30
0.0
 10
239.9599637278654
 20
59.84405910337989
 30
0.0
 10
239.9312742107043
 20
59.92374580233966
 30
0.0
  0
ARC
  5
27E
330
1F
100
AcDbEntity
  8
0
  6
Continuous
 62
     7
370
    15
100
AcDbCircle
 10
250.2862414881
 20
63.0103073003
 30
0.0
 40
10.80519362138118
100
AcDbArc
 50
163.4019732888
 51
196.5980267112
  0
SPLINE
  5
27F
330
1F
100
AcDbEntity
  8
0
  6
Continuous
 62
     7
370
    15
100
AcDbSpline
210
0.0
220
0.0
230
1.0
 70
     8
 71
     3
 72
    14
 73
    10
 74
     0
 42
0.000000001
 43
0.00000001
 40
0.0
 40
0.0
 40
0.0
 40
0.0
 40
0.25
 40
0.25
 40
0.5
 40
0.5
 40
0.75
 40
0.75
 40
1.0
 40
1.0
 40
1.0
 40
1.0
 10
240.0558307483783
 20
67.55807381460384
 30
0.0
 10
240.0377745014317
 20
67.43723173565927
 30
0.0
 10
240.0348517033305
 20
67.31213746909317
 30
0.0
 10
240.0294379747872
 20
67.06418615844181
 30
0.0
 10
240.0278706967461
 20
66.94027753412806
 30
0.0
 10
240.0177322969389
 20
66.69412179488785
 30
0.0
 10
240.0094172991948
 20
66.57183385302643
 30
0.0
 10
239.9806171245359
 20
66.32983667581766
 30
0.0
 10
239.9599637278654
 20
66.20967970863806
 30
0.0
 10
239.9312742107043
 20
66.09686879823279
 30
0.0
  0
SPLINE
  5
280
330
1F
100
AcDbEntity
  8
0
  6
Continuous
 62
     7
370
    15
100
AcDbSpline
210
0.0
220
0.0
230
1.0
 70
     8
 71
     3
 72
    14
 73
    10
 74
     0
 42
0.000000001
 43
0.00000001
 40
0.0
 40
0.0
 40
0.0
 40
0.0
 40
0.125
 40
0.125
 40
0.25
 40
0.25
 40
0.5
 40
0.5
 40
1.0
 40
1.0
 40
1.0
 40
1.0
 10
239.9939479378672
 20
68.10335937889786
 30
0.0
 10
240.0131433137928
 20
68.10107257092403
 30
0.0
 10
240.0307553871932
 20
68.0895743316512
 30
0.0
 10
240.0566003171124
 20
68.0528828291247
 30
0.0
 10
240.06473868136
 20
68.02980141402263
 30
0.0
 10
240.0816887723281
 20
67.95846889494553
 30
0.0
 10
240.0838580448378
 20
67.90722478933745
 30
0.0
 10
240.0826824970232
 20
67.75718930957586
 30
0.0
 10
240.070608976419
 20
67.65697763469278
 30
0.0
 10
240.055830748379
 20
67.55807381460416
 30
0.0
  0
SPLINE
  5
281
330
1F
100
AcDbEntity
  8
0
  6
Continuous
 62
     7
370
    15
100
AcDbSpline
210
0.0
220
0.0
230
1.0
 70
     8
 71
     3
 72
     8
 73
     4
 74
     0
 42
0.000000001
 43
0.00000001
 40
0.0
 40
0.0
 40
0.0
 40
0.0
 40
1.0
 40
1.0
 40
1.0
 40
1.0
 10
239.0823563479795
 20
68.15557219003395
 30
0.0
 10
239.384008821217
 20
68.16291843717704
 30
0.0
 10
239.6892883647405
 20
68.13965447120711
 30
0.0
 10
239.9939479378672
 20
68.10335937889786
 30
0.0
  0
SPLINE
  5
282
330
1F
100
AcDbEntity
  8
0
  6
Continuous
 62
     7
370
    15
100
AcDbSpline
210
0.0
220
0.0
230
1.0
 70
     8
 71
     3
 72
    14
 73
    10
 74
     0
 42
0.000000001
 43
0.00000001
 40
0.0
 40
0.0
 40
0.0
 40
0.0
 40
0.5000000000000002
 40
0.5000000000000002
 40
0.7500000000000002
 40
0.7500000000000002
 40
0.8750000000000001
 40
0.8750000000000001
 40
1.0
 40
1.0
 40
1.0
 40
1.0
 10
237.153687980724
 20
68.78821153501892
 30
0.0
 10
237.4688539245639
 20
68.65082704129281
 30
0.0
 10
237.7851295798298
 20
68.51925353366165
 30
0.0
 10
238.2639540684008
 20
68.34435806714089
 30
0.0
 10
238.4242740788249
 20
68.28968691687638
 30
0.0
 10
238.6673266147786
 20
68.22065510115632
 30
0.0
 10
238.7487700527952
 20
68.19979281664753
 30
0.0
 10
238.9134315018286
 20
68.1669851032179
 30
0.0
 10
238.9963375198948
 20
68.15347734372524
 30
0.0
 10
239.0823563479795
 20
68.15557219003395
 30
0.0
  0
SPLINE
  5
283
330
1F
100
AcDbEntity
  8
0
  6
Continuous
 62
     7
370
    15
100
AcDbSpline
210
0.0
220
0.0
230
1.0
 70
     8
 71
     3
 72
     8
 73
     4
 74
     0
 42
0.000000001
 43
0.00000001
 40
0.0000005163856998
 40
0.0000005163856998
 40
0.0000005163856998
 40
0.0000005163856998
 40
0.000026289209185
 40
0.000026289209185
 40
0.000026289209185
 40
0.000026289209185
 10
237.1536663937047
 20
68.80109064621011
 30
0.0
 10
237.1536640925455
 20
68.79679781118358
 30
0.0
 10
237.1536713388698
 20
68.79250474350805
 30
0.0
 10
237.153687980724
 20
68.78821153501893
 30
0.0
  0
LINE
  5
284
330
1F
100
AcDbEntity
  8
0
  6
Continuous
 62
     7
370
    15
100
AcDbLine
 10
249.9187992851
 20
79.3438857186
 30
0.0
 11
250.0178417899
 21
79.2963072372
 31
0.0
  0
LINE
  5
285
330
1F
100
AcDbEntity
  8
0
  6
Continuous
 62
     7
370
    15
100
AcDbLine
 10
238.6361439767
 20
59.5804920988
 30
0.0
 11
238.5561511696
 21
59.63493144
 31
0.0
  0
SPLINE
  5
286
330
1F
100
AcDbEntity
  8
0
  6
Continuous
 62
     7
370
    15
100
AcDbSpline
210
0.0
220
0.0
230
1.0
 70
     8
 71
     3
 72
     8
 73
     4
 74
     0
 42
0.000000001
 43
0.00000001
 40
0.000000516385691
 40
0.000000516385691
 40
0.000000516385691
 40
0.000000516385691
 40
0.0000262892091854
 40
0.0000262892091854
 40
0.0000262892091854
 40
0.0000262892091854
 10
237.1536663937047
 20
61.32761959434867
 30
0.0
 10
237.1536640925455
 20
61.32919298004694
 30
0.0
 10
237.1536713388698
 20
61.33076070997966
 30
0.0
 10
237.153687980724
 20
61.33232286671599
 30
0.0
  0
SPLINE
  5
287
330
1F
100
AcDbEntity
  8
0
  6
Continuous
 62
     7
370
    15
100
AcDbSpline
210
0.0
220
0.0
230
1.0
 70
     8
 71
     3
 72
    17
 73
    13
 74
     0
 42
0.000000001
 43
0.00000001
 40
0.0
 40
0.0
 40
0.0
 40
0.0
 40
0.1261401830437173
 40
0.2529692308662239
 40
0.3797751222196195
 40
0.5058595017132854
 40
0.6308682557774037
 40
0.6937488828896414
 40
0.7558160075481117
 40
0.8177941526220389
 40
0.8810731858866072
 40
1.0
 40
1.0
 40
1.0
 40
1.0
 10
242.8425346921586
 20
59.45464847909408
 30
0.0
 10
242.7094880255611
 20
59.69958330491706
 30
0.0
 10
242.4426681105558
 20
60.19079057135427
 30
0.0
 10
242.317971400883
 20
60.94281082240488
 30
0.0
 10
242.4538051035337
 20
61.56750116473753
 30
0.0
 10
242.8208519837177
 20
61.98435432460306
 30
0.0
 10
243.2635812610924
 20
62.07837430303796
 30
0.0
 10
243.6396241691455
 20
61.99635568864301
 30
0.0
 10
243.9223983215411
 20
61.85430729654843
 30
0.0
 10
244.1927030436153
 20
61.63676468727021
 30
0.0
 10
244.5207080636461
 20
61.27302115226652
 30
0.0
 10
244.7049572141901
 20
60.91556440253682
 30
0.0
 10
244.8252177041394
 20
60.68225030729543
 30
0.0
  0
SPLINE
  5
288
330
1F
100
AcDbEntity
  8
0
  6
Continuous
 62
     7
370
    15
100
AcDbSpline
210
0.0
220
0.0
230
1.0
 70
     8
 71
     3
 72
    12
 73
     8
 74
     0
 42
0.000000001
 43
0.00000001
 40
0.0
 40
0.0
 40
0.0
 40
0.0
 40
0.1558560238078
 40
0.3235621828492652
 40
0.4913933894979852
 40
0.6616473361400965
 40
1.0
 40
1.0
 40
1.0
 40
1.0
 10
244.4089462309827
 20
58.12519249095659
 30
0.0
 10
244.3340061096768
 20
58.1446465318847
 30
0.0
 10
244.178427976472
 20
58.18503375461855
 30
0.0
 10
243.9129593805637
 20
58.33124050511993
 30
0.0
 10
243.6315275084627
 20
58.5385875893774
 30
0.0
 10
243.2513457555789
 20
58.8877949403164
 30
0.0
 10
243.0058510599118
 20
59.22819555429632
 30
0.0
 10
242.8425346921586
 20
59.45464847909408
 30
0.0
  0
LINE
  5
289
330
1F
100
AcDbEntity
  8
0
  6
Continuous
 62
     7
370
    15
100
AcDbLine
 10
273.0981522922
 20
50.9593344963
 30
0.0
 11
272.8503248378
 21
51.1024022405
 31
0.0
  0
ARC
  5
28A
330
1F
100
AcDbEntity
  8
0
  6
Continuous
 62
     7
370
    15
100
AcDbCircle
 10
257.6661642882
 20
52.5319576708
 30
0.0
 40
6.623523393471199
100
AcDbArc
 50
198.1114510494
 51
217.3575801744
  0
SPLINE
  5
28B
330
1F
100
AcDbEntity
  8
0
  6
Continuous
 62
     7
370
    15
100
AcDbSpline
210
0.0
220
0.0
230
1.0
 70
     8
 71
     3
 72
     8
 73
     4
 74
     0
 42
0.000000001
 43
0.00000001
 40
0.0
 40
0.0
 40
0.0
 40
0.0
 40
1.0
 40
1.0
 40
1.0
 40
1.0
 10
249.8961365742662
 20
50.22654555582941
 30
0.0
 10
250.3879313730182
 20
50.30819584291115
 30
0.0
 10
250.8795114639208
 20
50.39027963040159
 30
0.0
 10
251.3708124929734
 20
50.47292685060548
 30
0.0
  0
LINE
  5
28C
330
1F
100
AcDbEntity
  8
0
  6
Continuous
 62
     7
370
    15
100
AcDbLine
 10
251.370812493
 20
50.4729268506
 30
0.0
 11
251.6159810973
 21
50.6144596733
 31
0.0
  0
SPLINE
  5
28D
330
1F
100
AcDbEntity
  8
0
  6
Continuous
 62
     7
370
    15
100
AcDbSpline
210
0.0
220
0.0
230
1.0
 70
     8
 71
     3
 72
    10
 73
     6
 74
     0
 42
0.000000001
 43
0.00000001
 40
0.0
 40
0.0
 40
0.0
 40
0.0
 40
0.5
 40
0.5
 40
1.0
 40
1.0
 40
1.0
 40
1.0
 10
251.6159810973396
 20
50.61445967329525
 30
0.0
 10
251.6408134006915
 20
50.6287950568831
 30
0.0
 10
251.6684883981849
 20
50.64139049701918
 30
0.0
 10
251.7286134076394
 20
50.66258839515945
 30
0.0
 10
251.7603078078342
 20
50.67095056082611
 30
0.0
 10
251.7934898004158
 20
50.67706201589736
 30
0.0
  0
SPLINE
  5
28E
330
1F
100
AcDbEntity
  8
0
  6
Continuous
 62
     7
370
    15
100
AcDbSpline
210
0.0
220
0.0
230
1.0
 70
     8
 71
     3
 72
    15
 73
    11
 74
     0
 42
0.000000001
 43
0.00000001
 40
0.0
 40
0.0
 40
0.0
 40
0.0
 40
0.0961963096673532
 40
0.22545897026867
 40
0.3584994253652218
 40
0.4873852065971692
 40
0.6199122762050961
 40
0.7505641061680265
 40
0.8849270043451268
 40
1.0
 40
1.0
 40
1.0
 40
1.0
 10
243.851679068714
 20
61.80668903353808
 30
0.0
 10
243.8414098235674
 20
61.74915385206534
 30
0.0
 10
243.8173414009408
 20
61.61430644665112
 30
0.0
 10
243.8305679348108
 20
61.37530248485443
 30
0.0
 10
243.882375861711
 20
61.10576325804956
 30
0.0
 10
243.9772904481567
 20
60.82869888310726
 30
0.0
 10
244.1080624590027
 20
60.55569020584063
 30
0.0
 10
244.2735095647229
 20
60.28859152290291
 30
0.0
 10
244.4557200329216
 20
60.04543995860143
 30
0.0
 10
244.5896573442176
 20
59.9038249824443
 30
0.0
 10
244.6514470385717
 20
59.83849332834414
 30
0.0
  0
LINE
  5
28F
330
1F
100
AcDbEntity
  8
0
  6
Continuous
 62
     7
370
    15
100
AcDbLine
 10
271.5197267281
 20
71.7527767875
 30
0.0
 11
271.6147350434
 21
71.7738253089
 31
0.0
  0
LINE
  5
290
330
1F
100
AcDbEntity
  8
0
  6
Continuous
 62
     7
370
    15
100
AcDbLine
 10
271.6147350434
 20
71.7738253089
 30
0.0
 11
273.014123111
 21
70.965975773
 31
0.0
  0
SPLINE
  5
291
330
1F
100
AcDbEntity
  8
0
  6
Continuous
 62
     7
370
    15
100
AcDbSpline
210
0.0
220
0.0
230
1.0
 70
     8
 71
     3
 72
    12
 73
     8
 74
     0
 42
0.000000001
 43
0.00000001
 40
0.0
 40
0.0
 40
0.0
 40
0.0
 40
0.250000000000002
 40
0.250000000000002
 40
0.500000000000004
 40
0.500000000000004
 40
1.0
 40
1.0
 40
1.0
 40
1.0
 10
273.0141231110313
 20
70.96597577297366
 30
0.0
 10
273.046367081904
 20
70.94736172480006
 30
0.0
 10
273.0684200844375
 20
70.92311140200263
 30
0.0
 10
273.0892690286025
 20
70.87252354411511
 30
0.0
 10
273.0888878593752
 20
70.84568497568104
 30
0.0
 10
273.063134926478
 20
70.76845085941221
 30
0.0
 10
273.0151834993693
 20
70.72166548858438
 30
0.0
 10
272.951283450234
 20
70.68477677541692
 30
0.0
  0
SPLINE
  5
292
330
1F
100
AcDbEntity
  8
0
  6
Continuous
 62
     7
370
    15
100
AcDbSpline
210
0.0
220
0.0
230
1.0
 70
     8
 71
     3
 72
    11
 73
     7
 74
     0
 42
0.000000001
 43
0.00000001
 40
0.0
 40
0.0
 40
0.0
 40
0.0
 40
0.2051164297761327
 40
0.3943103003912212
 40
0.7240976918328434
 40
1.0
 40
1.0
 40
1.0
 40
1.0
 10
243.1338040441275
 20
59.63757156101293
 30
0.0
 10
243.2134245476939
 20
59.52298328110651
 30
0.0
 10
243.3664848594049
 20
59.30270185791421
 30
0.0
 10
243.6902207915471
 20
58.95192793067244
 30
0.0
 10
244.0726279449633
 20
58.63597188377364
 30
0.0
 10
244.3246092608243
 20
58.5289853253911
 30
0.0
 10
244.4393911808503
 20
58.48025106687611
 30
0.0
  0
SPLINE
  5
293
330
1F
100
AcDbEntity
  8
0
  6
Continuous
 62
     7
370
    15
100
AcDbSpline
210
0.0
220
0.0
230
1.0
 70
     8
 71
     3
 72
    16
 73
    12
 74
     0
 42
0.000000001
 43
0.00000001
 40
0.0
 40
0.0
 40
0.0
 40
0.0
 40
0.1460145433272634
 40
0.2335492811860072
 40
0.328284659647779
 40
0.4359414636891987
 40
0.5278790605354984
 40
0.6640995323892502
 40
0.8013223013367583
 40
0.893041357694521
 40
1.0
 40
1.0
 40
1.0
 40
1.0
 10
244.0734115124236
 20
61.71954048296222
 30
0.0
 10
243.9265509061441
 20
61.79301138265442
 30
0.0
 10
243.6916483529494
 20
61.91052759316464
 30
0.0
 10
243.3747972631835
 20
61.90055765872028
 30
0.0
 10
243.1216681046708
 20
61.81282231570405
 30
0.0
 10
242.912944829813
 20
61.63103010044674
 30
0.0
 10
242.7499139137911
 20
61.33916472542773
 30
0.0
 10
242.6728861080093
 20
60.92928135106693
 30
0.0
 10
242.7482854488994
 20
60.46471218832226
 30
0.0
 10
242.9070279865566
 20
60.02276752179978
 30
0.0
 10
243.0544428688553
 20
59.77237240588867
 30
0.0
 10
243.1338040441275
 20
59.63757156101293
 30
0.0
  0
SPLINE
  5
294
330
1F
100
AcDbEntity
  8
0
  6
Continuous
 62
     7
370
    15
100
AcDbSpline
210
0.0
220
0.0
230
1.0
 70
     8
 71
     3
 72
    10
 73
     6
 74
     0
 42
0.000000001
 43
0.00000001
 40
0.0
 40
0.0
 40
0.0
 40
0.0
 40
0.3337923556773256
 40
0.7036745943711787
 40
1.0
 40
1.0
 40
1.0
 40
1.0
 10
275.1311126593952
 20
67.10516108188774
 30
0.0
 10
275.1518755455506
 20
67.11958972480491
 30
0.0
 10
275.1956462168823
 20
67.15000704647026
 30
0.0
 10
275.2276298660669
 20
67.2053337615377
 30
0.0
 10
275.2210829245756
 20
67.2426926961131
 30
0.0
 10
275.218170881897
 20
67.25930973966737
 30
0.0
  0
LINE
  5
295
330
1F
100
AcDbEntity
  8
0
  6
Continuous
 62
     7
370
    15
100
AcDbLine
 10
269.2162763369
 20
73.158426048
 30
0.0
 11
269.0713473625
 21
72.9404143132
 31
0.0
  0
LINE
  5
296
330
1F
100
AcDbEntity
  8
0
  6
Continuous
 62
     7
370
    15
100
AcDbLine
 10
238.993443827
 20
63.5073040693
 30
0.0
 11
239.4938266613
 21
63.2184392078
 31
0.0
  0
SPLINE
  5
297
330
1F
100
AcDbEntity
  8
0
  6
Continuous
 62
     7
370
    15
100
AcDbSpline
210
0.0
220
0.0
230
1.0
 70
     8
 71
     3
 72
    10
 73
     6
 74
     0
 42
0.000000001
 43
0.00000001
 40
0.0
 40
0.0
 40
0.0
 40
0.0
 40
0.0840381716605808
 40
0.7011125076932897
 40
1.0
 40
1.0
 40
1.0
 40
1.0
 10
237.1553535071949
 20
69.26088301450163
 30
0.0
 10
237.1548121923816
 20
69.26732898796547
 30
0.0
 10
237.1502961185701
 20
69.32110636710706
 30
0.0
 10
237.1646348450287
 20
69.4039063693481
 30
0.0
 10
237.1851836482442
 20
69.4855349537366
 30
0.0
 10
237.1918889279545
 20
69.51217117604801
 30
0.0
  0
SPLINE
  5
298
330
1F
100
AcDbEntity
  8
0
  6
Continuous
 62
     7
370
    15
100
AcDbSpline
210
0.0
220
0.0
230
1.0
 70
     8
 71
     3
 72
    10
 73
     6
 74
     0
 42
0.000000001
 43
0.00000001
 40
0.0
 40
0.0
 40
0.0
 40
0.0
 40
0.5
 40
0.5
 40
1.0
 40
1.0
 40
1.0
 40
1.0
 10
237.2081253309228
 20
69.31703282533178
 30
0.0
 10
237.1881992804261
 20
69.23307235131375
 30
0.0
 10
237.1749050162852
 20
69.14762648879999
 30
0.0
 10
237.1576364901445
 20
68.9752130178627
 30
0.0
 10
237.1537130355224
 20
68.88810141159641
 30
0.0
 10
237.1536663937047
 20
68.80109064621011
 30
0.0
  0
SPLINE
  5
299
330
1F
100
AcDbEntity
  8
0
  6
Continuous
 62
     7
370
    15
100
AcDbSpline
210
0.0
220
0.0
230
1.0
 70
     8
 71
     3
 72
    24
 73
    20
 74
     0
 42
0.000000001
 43
0.00000001
 40
0.0
 40
0.0
 40
0.0
 40
0.0
 40
0.249999999999999
 40
0.249999999999999
 40
0.3749999999999983
 40
0.3749999999999983
 40
0.4374999999999987
 40
0.4374999999999987
 40
0.4687499999999975
 40
0.4687499999999975
 40
0.4999999999999963
 40
0.4999999999999963
 40
0.5624999999999984
 40
0.5624999999999984
 40
0.6250000000000006
 40
0.6250000000000006
 40
0.7500000000000001
 40
0.7500000000000001
 40
1.0
 40
1.0
 40
1.0
 40
1.0
 10
237.1918889279545
 20
69.51217117604801
 30
0.0
 10
237.2217299572397
 20
69.61945023260427
 30
0.0
 10
237.2515594972807
 20
69.72533480597494
 30
0.0
 10
237.296230654152
 20
69.87528284922523
 30
0.0
 10
237.3111834462438
 20
69.92428311198817
 30
0.0
 10
237.3327665845331
 20
69.98743339389092
 30
0.0
 10
237.3398962960628
 20
70.00707357811943
 30
0.0
 10
237.3487479213642
 20
70.02478350760742
 30
0.0
 10
237.3513860186341
 20
70.0284998740931
 30
0.0
 10
237.3545385566791
 20
70.02635152571091
 30
0.0
 10
237.3549185178158
 20
70.0201891166443
 30
0.0
 10
237.3529085925551
 20
69.99154403329155
 30
0.0
 10
237.3483319509566
 20
69.96324302830338
 30
0.0
 10
237.3384005648502
 20
69.90686401815408
 30
0.0
 10
237.3327103791153
 20
69.87739427019804
 30
0.0
 10
237.3151287784966
 20
69.78953984963171
 30
0.0
 10
237.3024479055684
 20
69.7303148565824
 30
0.0
 10
237.263206841948
 20
69.55182154945261
 30
0.0
 10
237.2359033819115
 20
69.43407851527888
 30
0.0
 10
237.2081253309228
 20
69.3170328253318
 30
0.0
  0
ARC
  5
29A
330
1F
100
AcDbEntity
  8
0
  6
Continuous
 62
     7
370
    15
100
AcDbCircle
 10
237.8708033679
 20
68.7224233915
 30
0.0
 40
0.7201267655269956
100
AcDbArc
 50
174.7583590299
 51
234.4349468916
  0
ARC
  5
29B
330
1F
100
AcDbEntity
  8
0
  6
Continuous
 62
     7
370
    15
100
AcDbCircle
 10
239.366137313
 20
61.2225270141
 30
0.0
 40
2.215172042338821
100
AcDbArc
 50
122.6235698332
 51
177.1589486026
  0
LINE
  5
29C
330
1F
100
AcDbEntity
  8
0
  6
Continuous
 62
     7
370
    15
100
AcDbLine
 10
238.1718997424
 20
63.0882128939
 30
0.0
 11
238.9159863733
 21
63.5177649626
 31
0.0
  0
SPLINE
  5
29D
330
1F
100
AcDbEntity
  8
0
  6
Continuous
 62
     7
370
    15
100
AcDbSpline
210
0.0
220
0.0
230
1.0
 70
     8
 71
     3
 72
     8
 73
     4
 74
     0
 42
0.000000001
 43
0.00000001
 40
0.0
 40
0.0
 40
0.0
 40
0.0
 40
0.0001590976953043
 40
0.0001590976953043
 40
0.0001590976953043
 40
0.0001590976953043
 10
238.9934438270106
 20
63.50730406932603
 30
0.0
 10
238.9676236974511
 20
63.51078861878691
 30
0.0
 10
238.9418045529049
 20
63.51427560152342
 30
0.0
 10
238.9159863732548
 20
63.51776496264181
 30
0.0
  0
SPLINE
  5
29E
330
1F
100
AcDbEntity
  8
0
  6
Continuous
 62
     7
370
    15
100
AcDbSpline
210
0.0
220
0.0
230
1.0
 70
     8
 71
     3
 72
    10
 73
     6
 74
     0
 42
0.000000001
 43
0.00000001
 40
0.0
 40
0.0
 40
0.0
 40
0.0
 40
0.5
 40
0.5
 40
1.0
 40
1.0
 40
1.0
 40
1.0
 10
237.2081253309228
 20
61.1323772096278
 30
0.0
 10
237.1881992804263
 20
61.17089877114414
 30
0.0
 10
237.1749050162854
 20
61.20286209833772
 30
0.0
 10
237.1576364901447
 20
61.26530552183564
 30
0.0
 10
237.1537130355226
 20
61.29572889904842
 30
0.0
 10
237.1536663937047
 20
61.32761959434866
 30
0.0
  0
SPLINE
  5
29F
330
1F
100
AcDbEntity
  8
0
  6
Continuous
 62
     7
370
    15
100
AcDbSpline
210
0.0
220
0.0
230
1.0
 70
     8
 71
     3
 72
     9
 73
     5
 74
     0
 42
0.000000001
 43
0.00000001
 40
0.0
 40
0.0
 40
0.0
 40
0.0
 40
0.5797035953942357
 40
1.0
 40
1.0
 40
1.0
 40
1.0
 10
237.1640329596209
 20
61.92948977081985
 30
0.0
 10
237.1605107794051
 20
61.90224403880624
 30
0.0
 10
237.1544349498886
 20
61.85524462008591
 30
0.0
 10
237.1543915085898
 20
61.80880597575691
 30
0.0
 10
237.154373250368
 20
61.78928798051068
 30
0.0
  0
ARC
  5
2A0
330
1F
100
AcDbEntity
  8
0
  6
Continuous
 62
     7
370
    15
100
AcDbCircle
 10
238.5007585583
 20
61.717184629
 30
0.0
 40
1.353480254557397
100
AcDbArc
 50
122.9135798094
 51
170.9753897871
  0
LINE
  5
2A1
330
1F
100
AcDbEntity
  8
0
  6
Continuous
 62
     7
370
    15
100
AcDbLine
 10
238.1718997424
 20
63.0882128939
 30
0.0
 11
237.7653133432
 21
62.8534192592
 31
0.0
  0
LINE
  5
2A2
330
1F
100
AcDbEntity
  8
0
  6
Continuous
 62
     7
370
    15
100
AcDbLine
 10
237.2634371551
 20
61.0363888899
 30
0.0
 11
237.2081253309
 21
61.1323772096
 31
0.0
  0
LWPOLYLINE
  5
2A3
330
1F
100
AcDbEntity
  8
0
  6
Continuous
 62
     7
370
     0
100
AcDbPolyline
 90
       25
 70
   128
 43
0.0
 10
254.1276661839
 20
55.3883999261
 10
254.4242306461
 20
56.5381511109
 10
254.7893741278
 20
57.696068154
 10
255.2206306283
 20
58.854331049
 10
255.7150876517
 20
60.005117454
 10
256.2694058769
 20
61.1406555194
 10
256.8798417091
 20
62.2532763759
 10
257.5422725629
 20
63.3354659252
 10
258.2522247038
 20
64.3799155878
 10
259.0049034616
 20
65.3795716606
 10
259.7952256116
 20
66.3276829547
 10
260.6178537039
 20
67.2178463893
 10
261.4672321101
 20
68.0440502352
 10
262.3376245432
 20
68.8007147153
 10
263.2231527977
 20
69.4827296869
 10
264.1178364482
 20
70.0854891542
 10
265.0156332382
 20
70.6049223739
 10
265.9104798866
 20
71.0375213478
 10
266.7963330362
 20
71.3803645135
 10
267.6672100672
 20
71.6311364759
 10
268.5172295016
 20
71.7881436435
 10
269.3406507231
 20
71.8503256666
 10
270.1319127469
 20
71.8172625982
 10
270.8856717757
 20
71.68917773
 10
271.5968372891
 20
71.4669360847
  0
LWPOLYLINE
  5
2A4
330
1F
100
AcDbEntity
  8
0
  6
Continuous
 62
     7
370
     0
100
AcDbPolyline
 90
       26
 70
   128
 43
0.0
 10
253.6939833484
 20
55.3829625877
 10
253.9764278282
 20
56.5013178466
 10
254.3228864112
 20
57.6281039307
 10
254.7312245719
 20
58.7563787307
 10
255.1989265462
 20
59.8791909654
 10
255.7231108304
 20
60.9896230082
 10
256.3005479341
 20
62.0808335066
 10
256.9276802777
 20
63.1460995319
 10
257.6006441096
 20
64.1788579988
 10
258.3152933114
 20
65.1727461003
 10
259.067224942
 20
66.1216405094
 10
259.8518063636
 20
67.019695104
 10
260.664203784
 20
67.8613769856
 10
261.4994120367
 20
68.6415005669
 10
262.3522854184
 20
69.35525952
 10
263.217569391
 20
69.9982563886
 10
264.0899329551
 20
70.5665296801
 10
264.9640014942
 20
71.0565782729
 10
265.8343898871
 20
71.465382986
 10
266.6957356862
 20
71.7904251808
 10
267.5427321552
 20
72.029702278
 10
268.3701609636
 20
72.1817400956
 10
269.1729243369
 20
72.2456019313
 10
269.9460764641
 20
72.2208943334
 10
270.6848539685
 20
72.107769525
 10
271.3847052547
 20
71.906924466
  0
ARC
  5
2A5
330
1F
100
AcDbEntity
  8
0
  6
Continuous
 62
     7
370
     0
100
AcDbCircle
 10
253.1719346827
 20
65.1197054476
 30
0.0
 40
22.42497563072426
100
AcDbArc
 50
341.1047408063
 51
348.3016419605
  0
LWPOLYLINE
  5
2A6
330
1F
100
AcDbEntity
  8
0
  6
Continuous
 62
     7
370
     0
100
AcDbPolyline
 90
       23
 70
   128
 43
0.0
 10
269.3888830927
 20
49.197132103
 10
269.0395592743
 20
48.806419947
 10
268.2205579258
 20
47.9556231663
 10
267.377820175
 20
47.1686468925
 10
266.516838857
 20
46.4506205161
 10
265.6432257158
 20
45.8062240226
 10
264.7626748276
 20
45.2396574893
 10
263.8809254877
 20
44.7546137098
 10
263.0037248028
 20
44.354254125
 10
262.1367902322
 20
44.0411882171
 10
261.2857723222
 20
43.8174565015
 10
260.4562178767
 20
43.6845172272
 10
259.6535338042
 20
43.643236872
 10
258.8829518761
 20
43.6938844949
 10
258.1494946269
 20
43.8361299824
 10
257.4579426183
 20
44.0690462004
 10
256.81280328
 20
44.3911150367
 10
256.2182815311
 20
44.8002372961
 10
255.678252373
 20
45.2937463826
 10
255.1962356327
 20
45.8684256798
 10
254.7753730213
 20
46.5205295164
 10
254.4184076566
 20
47.2458075799
 10
254.1276661839
 20
48.0395326191
  0
ARC
  5
2A7
330
1F
100
AcDbEntity
  8
0
  6
Continuous
 62
     7
370
     0
100
AcDbCircle
 10
268.6046608013
 20
65.5843558024
 30
0.0
 40
6.701300064528457
100
AcDbArc
 50
13.1170908933
 51
49.5620782406
  0
LWPOLYLINE
  5
2A8
330
1F
100
AcDbEntity
  8
0
  6
Continuous
 62
     7
370
     0
100
AcDbPolyline
 90
       28
 70
   128
 43
0.0
 10
259.6290550175
 20
54.8898504456
 10
259.6637968197
 20
55.5859305582
 10
259.7675345277
 20
56.3123512629
 10
259.9388118913
 20
57.0589152053
 10
260.175224552
 20
57.8151422642
 10
260.473453794
 20
58.5704166694
 10
260.8293131327
 20
59.3141360237
 10
261.2378070829
 20
60.0358601377
 10
261.693201285
 20
60.7254575869
 10
262.1891030026
 20
61.3732479347
 10
262.7185508627
 20
61.9701376245
 10
263.2741125779
 20
62.5077476337
 10
263.8479892794
 20
62.9785310959
 10
264.4321249964
 20
63.3758792436
 10
265.0183197439
 20
63.6942141795
 10
265.5983446324
 20
63.9290671791
 10
266.1640573841
 20
64.077141421
 10
266.707516632
 20
64.1363582675
 10
267.2210933994
 20
64.1058864438
 10
267.6975781944
 20
63.9861537075
 10
268.1302822148
 20
63.7788408438
 10
268.5131312448
 20
63.4868580709
 10
268.8407509232
 20
63.1143041869
 10
269.1085421879
 20
62.6664090316
 10
269.3127458364
 20
62.1494600713
 10
269.4504952972
 20
61.5707141361
 10
269.5198568698
 20
60.9382955504
 10
269.5282881076
 20
60.6633479119
  0
LWPOLYLINE
  5
2A9
330
1F
100
AcDbEntity
  8
0
  6
Continuous
 62
     7
370
     0
100
AcDbPolyline
 90
       15
 70
   128
 43
0.0
 10
264.5286944444
 20
52.0028592881
 10
264.4321249964
 20
51.949328206
 10
263.8479892794
 20
51.6722476103
 10
263.2741125779
 20
51.4804471365
 10
262.7185508627
 20
51.3766192427
 10
262.1891030026
 20
51.3622214449
 10
261.693201285
 20
51.4374558567
 10
261.2378070829
 20
51.6012663518
 10
260.8293131327
 20
51.85135339
 10
260.473453794
 20
52.1842062975
 10
260.175224552
 20
52.595152549
 10
259.9388118913
 20
53.07842336
 10
259.7675345277
 20
53.6272346676
 10
259.6637968197
 20
54.2338823641
 10
259.6290550175
 20
54.8898504456
  0
LWPOLYLINE
  5
2AA
330
1F
100
AcDbEntity
  8
0
  6
Continuous
 62
     7
370
     0
100
AcDbPolyline
 90
       24
 70
   128
 43
0.0
 10
244.3732262134
 20
56.5532819735
 10
244.4075576574
 20
57.5821256904
 10
244.5103403246
 20
58.6442644852
 10
244.6809405256
 20
59.733149919
 10
244.9183064536
 20
60.842068651
 10
245.2209746687
 20
61.9641838284
 10
245.5870791205
 20
63.0925772382
 10
246.0143626536
 20
64.2202919596
 10
246.5001909227
 20
65.3403752564
 10
247.0415686351
 20
66.4459214426
 10
247.6351580171
 20
67.5301144583
 10
248.2772993928
 20
68.5862698931
 10
248.9640337471
 20
69.6078761975
 10
249.6911271343
 20
70.588634829
 10
250.4540967819
 20
71.5224990843
 10
251.2482387284
 20
72.4037113799
 10
252.0686568245
 20
73.2268387489
 10
252.9102929199
 20
73.9868063374
 10
253.7679580482
 20
74.6789286925
 10
254.6363644186
 20
75.2989386496
 10
255.5101580171
 20
75.8430136413
 10
256.3839516156
 20
76.3077992642
 10
257.252357986
 20
76.6904299605
 10
257.4433729583
 20
76.7637957829
  0
ARC
  5
2AB
330
1F
100
AcDbEntity
  8
0
  6
Continuous
 62
     7
370
     0
100
AcDbCircle
 10
257.0244159115
 20
56.4834897736
 30
0.0
 40
12.65138220629818
100
AcDbArc
 50
179.6839223799
 51
190.0604508419
  0
LWPOLYLINE
  5
2AC
330
1F
100
AcDbEntity
  8
0
  6
Continuous
 62
     7
370
     0
100
AcDbPolyline
 90
       19
 70
   128
 43
0.0
 10
252.0417992554
 20
57.3151820168
 10
252.3074351087
 20
58.3829394551
 10
252.6401122646
 20
59.4596683661
 10
253.0373712301
 20
60.5374084579
 10
253.4962750568
 20
61.6081919631
 10
254.0134310537
 20
62.6641025444
 10
254.5850158697
 20
63.6973338206
 10
255.2068037598
 20
64.7002470791
 10
255.8741978257
 20
65.6654277497
 10
256.5822640016
 20
66.5857402204
 10
257.3257675312
 20
67.4543805911
 10
258.0992116686
 20
68.2649269753
 10
258.8968783163
 20
69.0113869773
 10
259.7128702988
 20
69.6882419939
 10
260.5411549609
 20
70.2904880142
 10
261.375608767
 20
70.8136726136
 10
262.2100625732
 20
71.2539278714
 10
263.0383472352
 20
71.6079989661
 10
263.1878624093
 20
71.6629227762
  0
LWPOLYLINE
  5
2AD
330
1F
100
AcDbEntity
  8
0
  6
Continuous
 62
     7
370
     0
100
AcDbPolyline
 90
       22
 70
   128
 43
0.0
 10
251.6159810973
 20
57.9633269803
 10
251.9178732674
 20
59.0468389925
 10
252.2850509575
 20
60.1354236659
 10
252.7149014518
 20
61.22133499
 10
253.2043660756
 20
62.2968459768
 10
253.7499619595
 20
63.3543036439
 10
254.3478068228
 20
64.3861834703
 10
254.9936465979
 20
65.3851429383
 10
255.6828857014
 20
66.344073781
 10
256.4106197345
 20
67.2561525618
 10
257.1716703811
 20
68.1148892281
 10
257.9606222551
 20
68.9141732921
 10
258.7718614344
 20
69.6483173112
 10
259.5996154077
 20
70.3120973581
 10
260.43799415
 20
70.9007901922
 10
261.2810320339
 20
71.4102068689
 10
262.1227302789
 20
71.8367225466
 10
262.9570996373
 20
72.17730228
 10
263.7782030109
 20
72.4295226158
 10
264.5801976983
 20
72.5915888369
 10
265.3573769689
 20
72.6623477335
 10
265.5072585652
 20
72.6654685474
  0
LWPOLYLINE
  5
2AE
330
1F
100
AcDbEntity
  8
0
  6
Continuous
 62
     7
370
     0
100
AcDbPolyline
 90
       18
 70
   128
 43
0.0
 10
262.4574821422
 20
54.8898504456
 10
262.4918897152
 20
55.4779160989
 10
262.5944427297
 20
56.0942618613
 10
262.7631451081
 20
56.7268912636
 10
262.9947132503
 20
57.3634908941
 10
263.2846399461
 20
57.9916700652
 10
263.6272821019
 20
58.5992019837
 10
264.015970578
 20
59.1742617319
 10
264.4431399953
 20
59.705656426
 10
264.900475987
 20
60.1830430728
 10
265.3790770283
 20
60.597129884
 10
265.8696276943
 20
60.9398571311
 10
266.3625799742
 20
61.2045540179
 10
266.8483391126
 20
61.3860685207
 10
267.3174503606
 20
61.4808676661
 10
267.7607830011
 20
61.4871062966
 10
268.1697080688
 20
61.4046629843
 10
268.4928128798
 20
61.2611150371
  0
ARC
  5
2AF
330
1F
100
AcDbEntity
  8
0
  6
Continuous
 62
     7
370
     0
100
AcDbCircle
 10
264.9458454373
 20
54.6367695538
 30
0.0
 40
2.501200077151969
100
AcDbArc
 50
174.1926578304
 51
234.4951617762
  0
LINE
  5
2B0
330
1F
100
AcDbEntity
  8
0
  6
Continuous
 62
     7
370
     0
100
AcDbLine
 10
246.0228628529
 20
56.0157184808
 30
0.0
 11
247.8203717717
 21
57.053398292
 31
0.0
  0
LINE
  5
2B1
330
1F
100
AcDbEntity
  8
0
  6
Continuous
 62
     7
370
     0
100
AcDbLine
 10
270.5618809128
 20
49.7312245094
 30
0.0
 11
271.3017879411
 21
49.3040852739
 31
0.0
  0
ARC
  5
2B2
330
1F
100
AcDbEntity
  8
0
  6
Continuous
 62
     7
370
     0
100
AcDbCircle
 10
260.7402910909
 20
50.062274269
 30
0.0
 40
7.332391343285558
100
AcDbArc
 50
196.0577079662
 51
216.4275953754
  0
LWPOLYLINE
  5
2B3
330
1F
100
AcDbEntity
  8
0
  6
Continuous
 62
     7
370
     0
100
AcDbPolyline
 90
       22
 70
   128
 43
0.0
 10
237.1536663937
 20
68.8010906462
 10
237.4844284515
 20
69.7634139979
 10
237.8755327283
 20
70.7219554383
 10
238.3236290052
 20
71.668504053
 10
238.8248788667
 20
72.5949516586
 10
239.3749885812
 20
73.493362258
 10
239.969245881
 20
74.3560400205
 10
240.6025603279
 20
75.1755952048
 10
241.2695069184
 20
75.9450074596
 10
241.9643725542
 20
76.6576859606
 10
242.6812049811
 20
77.3075258678
 10
243.4138637762
 20
77.8889606194
 10
244.1560729472
 20
78.3970096161
 10
244.9014746927
 20
78.8273208843
 10
245.6436838637
 20
79.1762083561
 10
246.3763426588
 20
79.4406834435
 10
247.0931750857
 20
79.6184806398
 10
247.7880407215
 20
79.7080769249
 10
248.454987312
 20
79.7087048127
 10
249.0883017589
 20
79.6203589247
 10
249.6825590587
 20
79.4437960361
 10
249.9187992851
 20
79.3438857186
  0
ARC
  5
2B4
330
1F
100
AcDbEntity
  8
0
  6
Continuous
 62
     7
370
     0
100
AcDbCircle
 10
241.0717251856
 20
63.1465839628
 30
0.0
 40
4.3197009237152
100
AcDbArc
 50
204.903152445
 51
234.3840628426
  0
LINE
  5
2B5
330
1F
100
AcDbEntity
  8
0
  6
Continuous
 62
     7
370
     0
100
AcDbLine
 10
246.0228628529
 20
55.1991776689
 30
0.0
 11
247.8203717717
 21
56.2368574801
 31
0.0
  0
LINE
  5
2B6
330
1F
100
AcDbEntity
  8
0
  6
Continuous
 62
     7
370
     0
100
AcDbLine
 10
249.309921305
 20
50.5649604274
 30
0.0
 11
250.6487988964
 21
51.3378780089
 31
0.0
  0
LINE
  5
2B7
330
1F
100
AcDbEntity
  8
0
  6
Continuous
 62
     7
370
     0
100
AcDbLine
 10
273.9833226756
 20
51.7564679701
 30
0.0
 11
274.7666111689
 21
51.3042851478
 31
0.0
  0
LINE
  5
2B8
330
1F
100
AcDbEntity
  8
0
  6
Continuous
 62
     7
370
     0
100
AcDbLine
 10
253.061178618
 20
49.9639027221
 30
0.0
 11
252.8266877825
 21
50.6480108257
 31
0.0
  0
ARC
  5
2B9
330
1F
100
AcDbEntity
  8
0
  6
Continuous
 62
     7
370
     0
100
AcDbCircle
 10
258.6360806285
 20
52.9658872795
 30
0.0
 40
6.852876315957753
100
AcDbArc
 50
195.7901562857
 51
209.3796230762
  0
ARC
  5
2BA
330
1F
100
AcDbEntity
  8
0
  6
Continuous
 62
     7
370
     0
100
AcDbCircle
 10
257.8098980303
 20
52.7181257916
 30
0.0
 40
6.541407960818896
100
AcDbArc
 50
198.759244907
 51
214.0940098194
  0
LINE
  5
2BB
330
1F
100
AcDbEntity
  8
0
  6
Continuous
 62
     7
370
     0
100
AcDbLine
 10
268.3633475831
 20
73.6508113369
 30
0.0
 11
267.8223586052
 21
73.3385050476
 31
0.0
  0
ARC
  5
2BC
330
1F
100
AcDbEntity
  8
0
  6
Continuous
 62
     7
370
     0
100
AcDbCircle
 10
240.9161041228
 20
67.3050000348
 30
0.0
 40
1.102095792745905
100
AcDbArc
 50
159.4111972489
 51
213.1915491986
  0
ARC
  5
2BD
330
1F
100
AcDbEntity
  8
0
  6
Continuous
 62
     7
370
     0
100
AcDbCircle
 10
239.5842933139
 20
67.1335152121
 30
0.0
 40
0.6345057597345166
100
AcDbArc
 50
41.9989524423
 51
61.7721687694
  0
LINE
  5
2BE
330
1F
100
AcDbEntity
  8
0
  6
Continuous
 62
     7
370
     0
100
AcDbLine
 10
239.8844010862
 20
67.6925616181
 30
0.0
 11
239.9939479379
 21
68.1033593789
 31
0.0
  0
LINE
  5
2BF
330
1F
100
AcDbEntity
  8
0
  6
Continuous
 62
     7
370
     0
100
AcDbLine
 10
239.8844010862
 20
67.6925616181
 30
0.0
 11
239.082356348
 21
68.15557219
 31
0.0
  0
LINE
  5
2C0
330
1F
100
AcDbEntity
  8
0
  6
Continuous
 62
     7
370
     0
100
AcDbLine
 10
237.2081253309
 20
69.3170328253
 30
0.0
 11
237.191888928
 21
69.512171176
 31
0.0
  0
ARC
  5
2C1
330
1F
100
AcDbEntity
  8
0
  6
Continuous
 62
     7
370
     0
100
AcDbCircle
 10
239.6744411048
 20
59.0399423058
 30
0.0
 40
0.4314912001451461
100
AcDbArc
 50
27.8850837497
 51
60.8831993912
  0
ARC
  5
2C2
330
1F
100
AcDbEntity
  8
0
  6
Continuous
 62
     7
370
     0
100
AcDbCircle
 10
241.1241397815
 20
59.8120005014
 30
0.0
 40
1.301173266867332
100
AcDbArc
 50
165.9701785416
 51
197.6766607319
  0
LINE
  5
2C3
330
1F
100
AcDbEntity
  8
0
  6
Continuous
 62
     7
370
     0
100
AcDbLine
 10
239.4926299205
 20
62.3257715911
 30
0.0
 11
238.1718997424
 21
63.0882128939
 31
0.0
  0
LINE
  5
2C4
330
1F
100
AcDbEntity
  8
0
  6
Continuous
 62
     7
370
     0
100
AcDbLine
 10
239.8844010862
 20
59.4169057815
 30
0.0
 11
239.082356348
 21
59.8799163534
 31
0.0
  0
LINE
  5
2C5
330
1F
100
AcDbEntity
  8
0
  6
Continuous
 62
     7
370
     0
100
AcDbLine
 10
239.8844010862
 20
59.4169057815
 30
0.0
 11
239.9939479379
 21
59.1325881234
 31
0.0
  0
OLE2FRAME
  5
2C6
330
1F
100
AcDbEntity
  8
0
100
AcDbOle2Frame
 70
     2
  3
Paintbrush-Bild
 10
13.8511154363
 20
38.264191557
 30
0.0
 11
51.6290888628
 21
31.9806341108
 31
0.0
 71
     2
 72
     0
 73
     1
 90
    12928
310
80552BED0767C5B32B40DDAF6807D121434000000000000000006FFBDDFB85D0
310
4940DDAF6807D121434000000000000000006FFBDDFB85D04940416F4BD60AFB
310
3F4000000000000000002BED0767C5B32B40416F4BD60AFB3F40000000000000
310
0000000000000100000000010000010000000100000000000100000000320000
310
D0CF11E0A1B11AE1000000000000000000000000000000003E000300FEFF0900
310
0600000000000000000000000100000001000000000000000010000002000000
310
01000000FEFFFFFF0000000000000000FFFFFFFFFFFFFFFFFFFFFFFFFFFFFFFF
310
FFFFFFFFFFFFFFFFFFFFFFFFFFFFFFFFFFFFFFFFFFFFFFFFFFFFFFFFFFFFFFFF
310
FFFFFFFFFFFFFFFFFFFFFFFFFFFFFFFFFFFFFFFFFFFFFFFFFFFFFFFFFFFFFFFF
310
FFFFFFFFFFFFFFFFFFFFFFFFFFFFFFFFFFFFFFFFFFFFFFFFFFFFFFFFFFFFFFFF
310
FFFFFFFFFFFFFFFFFFFFFFFFFFFFFFFFFFFFFFFFFFFFFFFFFFFFFFFFFFFFFFFF
310
FFFFFFFFFFFFFFFFFFFFFFFFFFFFFFFFFFFFFFFFFFFFFFFFFFFFFFFFFFFFFFFF
310
FFFFFFFFFFFFFFFFFFFFFFFFFFFFFFFFFFFFFFFFFFFFFFFFFFFFFFFFFFFFFFFF
310
FFFFFFFFFFFFFFFFFFFFFFFFFFFFFFFFFFFFFFFFFFFFFFFFFFFFFFFFFFFFFFFF
310
FFFFFFFFFFFFFFFFFFFFFFFFFFFFFFFFFFFFFFFFFFFFFFFFFFFFFFFFFFFFFFFF
310
FFFFFFFFFFFFFFFFFFFFFFFFFFFFFFFFFFFFFFFFFFFFFFFFFFFFFFFFFFFFFFFF
310
FFFFFFFFFFFFFFFFFFFFFFFFFFFFFFFFFFFFFFFFFFFFFFFFFFFFFFFFFFFFFFFF
310
FFFFFFFFFFFFFFFFFFFFFFFFFFFFFFFFFFFFFFFFFFFFFFFFFFFFFFFFFFFFFFFF
310
FFFFFFFFFFFFFFFFFFFFFFFFFFFFFFFFFFFFFFFFFFFFFFFFFFFFFFFFFFFFFFFF
310
FFFFFFFFFFFFFFFFFFFFFFFFFFFFFFFFFFFFFFFFFFFFFFFFFFFFFFFFFFFFFFFF
310
FDFFFFFFFEFFFFFFFEFFFFFFFEFFFFFF05000000060000000700000008000000
310
090000000A0000000B0000000C0000000D0000000E0000000F00000010000000
310
11000000120000001300000014000000150000001600000017000000FEFFFFFF
310
FFFFFFFFFFFFFFFFFFFFFFFFFFFFFFFFFFFFFFFFFFFFFFFFFFFFFFFFFFFFFFFF
310
FFFFFFFFFFFFFFFFFFFFFFFFFFFFFFFFFFFFFFFFFFFFFFFFFFFFFFFFFFFFFFFF
310
FFFFFFFFFFFFFFFFFFFFFFFFFFFFFFFFFFFFFFFFFFFFFFFFFFFFFFFFFFFFFFFF
310
FFFFFFFFFFFFFFFFFFFFFFFFFFFFFFFFFFFFFFFFFFFFFFFFFFFFFFFFFFFFFFFF
310
FFFFFFFFFFFFFFFFFFFFFFFFFFFFFFFFFFFFFFFFFFFFFFFFFFFFFFFFFFFFFFFF
310
FFFFFFFFFFFFFFFFFFFFFFFFFFFFFFFFFFFFFFFFFFFFFFFFFFFFFFFFFFFFFFFF
310
FFFFFFFFFFFFFFFFFFFFFFFFFFFFFFFFFFFFFFFFFFFFFFFFFFFFFFFFFFFFFFFF
310
FFFFFFFFFFFFFFFFFFFFFFFFFFFFFFFFFFFFFFFFFFFFFFFFFFFFFFFFFFFFFFFF
310
FFFFFFFFFFFFFFFFFFFFFFFFFFFFFFFFFFFFFFFFFFFFFFFFFFFFFFFFFFFFFFFF
310
FFFFFFFFFFFFFFFFFFFFFFFFFFFFFFFFFFFFFFFFFFFFFFFFFFFFFFFFFFFFFFFF
310
FFFFFFFFFFFFFFFFFFFFFFFFFFFFFFFFFFFFFFFFFFFFFFFFFFFFFFFFFFFFFFFF
310
FFFFFFFFFFFFFFFFFFFFFFFFFFFFFFFFFFFFFFFFFFFFFFFFFFFFFFFFFFFFFFFF
310
FFFFFFFFFFFFFFFFFFFFFFFFFFFFFFFFFFFFFFFFFFFFFFFFFFFFFFFFFFFFFFFF
310
52006F006F007400200045006E00740072007900000000000000000000000000
310
0000000000000000000000000000000000000000000000000000000000000000
310
16000500FFFFFFFFFFFFFFFF020000000A00030000000000C000000000000046
310
000000000000000000000000502D6D728F03D20103000000C000000000000000
310
01004F006C006500000000000000000000000000000000000000000000000000
310
0000000000000000000000000000000000000000000000000000000000000000
310
0A000200FFFFFFFFFFFFFFFFFFFFFFFF00000000000000000000000000000000
310
0000000000000000000000000000000000000000000000001400000000000000
310
010043006F006D0070004F0062006A0000000000000000000000000000000000
310
0000000000000000000000000000000000000000000000000000000000000000
310
120002010100000003000000FFFFFFFF00000000000000000000000000000000
310
0000000000000000000000000000000000000000010000004D00000000000000
310
01004F006C006500310030004E00610074006900760065000000000000000000
310
0000000000000000000000000000000000000000000000000000000000000000
310
1A000200FFFFFFFFFFFFFFFFFFFFFFFF00000000000000000000000000000000
310
0000000000000000000000000000000000000000040000002426000000000000
310
FEFFFFFF02000000FEFFFFFFFFFFFFFFFFFFFFFFFFFFFFFFFFFFFFFFFFFFFFFF
310
FFFFFFFFFFFFFFFFFFFFFFFFFFFFFFFFFFFFFFFFFFFFFFFFFFFFFFFFFFFFFFFF
310
FFFFFFFFFFFFFFFFFFFFFFFFFFFFFFFFFFFFFFFFFFFFFFFFFFFFFFFFFFFFFFFF
310
FFFFFFFFFFFFFFFFFFFFFFFFFFFFFFFFFFFFFFFFFFFFFFFFFFFFFFFFFFFFFFFF
310
FFFFFFFFFFFFFFFFFFFFFFFFFFFFFFFFFFFFFFFFFFFFFFFFFFFFFFFFFFFFFFFF
310
FFFFFFFFFFFFFFFFFFFFFFFFFFFFFFFFFFFFFFFFFFFFFFFFFFFFFFFFFFFFFFFF
310
FFFFFFFFFFFFFFFFFFFFFFFFFFFFFFFFFFFFFFFFFFFFFFFFFFFFFFFFFFFFFFFF
310
FFFFFFFFFFFFFFFFFFFFFFFFFFFFFFFFFFFFFFFFFFFFFFFFFFFFFFFFFFFFFFFF
310
FFFFFFFFFFFFFFFFFFFFFFFFFFFFFFFFFFFFFFFFFFFFFFFFFFFFFFFFFFFFFFFF
310
FFFFFFFFFFFFFFFFFFFFFFFFFFFFFFFFFFFFFFFFFFFFFFFFFFFFFFFFFFFFFFFF
310
FFFFFFFFFFFFFFFFFFFFFFFFFFFFFFFFFFFFFFFFFFFFFFFFFFFFFFFFFFFFFFFF
310
FFFFFFFFFFFFFFFFFFFFFFFFFFFFFFFFFFFFFFFFFFFFFFFFFFFFFFFFFFFFFFFF
310
FFFFFFFFFFFFFFFFFFFFFFFFFFFFFFFFFFFFFFFFFFFFFFFFFFFFFFFFFFFFFFFF
310
FFFFFFFFFFFFFFFFFFFFFFFFFFFFFFFFFFFFFFFFFFFFFFFFFFFFFFFFFFFFFFFF
310
FFFFFFFFFFFFFFFFFFFFFFFFFFFFFFFFFFFFFFFFFFFFFFFFFFFFFFFFFFFFFFFF
310
FFFFFFFFFFFFFFFFFFFFFFFFFFFFFFFFFFFFFFFFFFFFFFFFFFFFFFFFFFFFFFFF
310
0100000200000000000000000000000000000000000000000000000000000000
310
0000000000000000000000000000000000000000000000000000000000000000
310
0100FEFF030A0000FFFFFFFF0A00030000000000C00000000000004607000000
310
5042727573680007000000504272757368000700000050427275736800F439B2
310
7100000000000000000000000000000000000000000000000000000000000000
310
0000000000000000000000000000000000000000000000000000000000000000
310
0000000000000000000000000000000000000000000000000000000000000000
310
0000000000000000000000000000000000000000000000000000000000000000
310
0000000000000000000000000000000000000000000000000000000000000000
310
0000000000000000000000000000000000000000000000000000000000000000
310
0000000000000000000000000000000000000000000000000000000000000000
310
0000000000000000000000000000000000000000000000000000000000000000
310
0000000000000000000000000000000000000000000000000000000000000000
310
0000000000000000000000000000000000000000000000000000000000000000
310
0000000000000000000000000000000000000000000000000000000000000000
310
0000000000000000000000000000000000000000000000000000000000000000
310
20260000424D0E260000000000003E00000028000000B40200006E0000000100
310
01000000000000000000130B0000130B00000200000002000000000000FFFFFF
310
FFFFFFFFFFFFFFFFFFFFFFFFFFFFFFFFFFFFFFFFFFFFFFFFFFFFFFFFFFFFFFFF
310
FFFFFFFFFFFFFFFFFFFFFFFFFFFFFFFFFFFFFFFFFFFFFFFFFFFFFFFFFFFFFFFF
310
FFFFFFFFFFFFFFFFFFFFFFFFFFFFFFFFFFFFFFFFFFFFFFFFF000FFFFFFFFFFFF
310
FFFFFFFFFFFFFFFFFFFFFFFFFFFFFFFFFFFFFFFFFFFFFFFFFFFFFFFFFFFFFFFF
310
FFFFFFFFFFFFFFFFFFFFFFFFFFFFFFFFFFFFFFFFFFFFFFFFFFFFFFFFFFFFFFFF
310
FFFFFFFFFFFFFFFFFFFFFFFFFFFFFFFFF000FFFFFFFFFFFFFFFFFFFFFFFFFFFF
310
FFFFFFFFFFFFFFFFFFFFFFFFFFFFFFFFFFFFFFFFFFFFFFFFFFFFFFFFFFFFFFFF
310
FFFFFFFFFFFFFFFFFFFFFFFFFFFFFFFFFFFFFFFFFFFFFFFFFFFFFFFFFFFFFFFF
310
FFFFFFFFFFFFFFFFF000FFFFFFFFFFFFFFFFFFFFFFFFFFFFFFFFFFFFFFFFFFFF
310
FFFFFFFFFFFFFFFFFFFFFFFFFFFFFFFFFFFFFFFFFFFFFFFFFFFFFFFFFFFFFFFF
310
FFFFFFFFFFFFFFFFFFFFFFFFFFFFFFFFFFFFFFFFFFFFFFFFFFFFFFFFFFFFFFFF
310
F000FFFFFFFFFFFFFFFFFFFFFFFFFFFFFFFFFFFFFFFFFFFFFFFFFFFFFFFFFFFF
310
FFFFFFFFFFFFFFFFFFFFFFFFFFFFFFFFFFFFFFFFFFFFFFFFFFFFFFFFFFFFFFFF
310
FFFFFFFFFFFFFFFFFFFFFFFFFFFFFFFFFFFFFFFFFFFFFFFFF000FFFFFFFFFFFF
310
FFFFFFFFFFFFFFFFFFFFFFFFFFFFFFFFFFFFFFFFFFFFFFFFFFFFFFFFFFFFFFFF
310
FFFFFFFFFFFFFFFFFFFFFFFFFFFFFFFFFFFFFFFFFFFFFFFFFFFFFFFFFFFFFFFF
310
FFFFFFFFFFFFFFFFFFFFFFFFFFFFFFFFF000FFFFFFFFFFFFFFFFFFFFFFFFFFFF
310
FFFFFFFFFFFFFFFFFFFFFFFFFFFFFFFFFFFFFFFFFFFFFFFFFFFFFFFFFFFFFFFF
310
FFFFFFFFFFFFFFFFFFFFFFFFFFFFFFFFFFFFFFFFFFFFFFFFFFFFFFFFFFFFFFFF
310
FFFFFFFFFFFFFFFFF000FFFFFFFFFFFFFFFFFFFFFFFFFFFFFFFFFFFFFFFFFFFF
310
FFFFFFFFFFFFFFFFFFFFFFFFFFFFFFFFFFFFFFFFFFFFFFFFFFFFFFFFFFFFFFFF
310
FFFFFFFFFFFFFFFFFFFFFFFFFFFFFFFFFFFFFFFFFFFFFFFFFFFFFFFFFFFFFFFF
310
F000FFFFFFFFFFFFFFFFFFFFFFFFFFFFFFFFFFFFFFFFFFFFFFFFFFFFFFFFFFFF
310
FFFFFFFFFFFFFFFFFFFFFFFFFFFFFFFFFFFFFFFFFFFFFFFFFFFFFFFFFFFFFFFF
310
FFFFFFFFFFFFFFFFFFFFFFFFFFFFFFFFFFFFFFFFFFFFFFFFF000FFFFFFFFFFFF
310
FFFFFFFFFFFFFFFFFFFFFFFFFFFFFFFFFFFFFFFFFFFFFFFFFFFFFFFFFFFFFFFF
310
FFFFFFFFFFFFFFFFFFFFFFFFFFFFFFFFFFFFFFFFFFFFFFFFFFFFFFFFFFFFFFFF
310
FFFFFFFFFFFFFFFFFFFFFFFFFFFFFFFFF000FFFFFFFFFFFFFFFFFFFFFFFFFFFF
310
FFFFFFFFFFFFFFFFFFFFFFFFFFFFFFFFFFFFFFFFFFFFFFFFFFFFFFFFFFFFFFFF
310
FFFFFFFFFFFFFFFFFFFFFFFFFFFFFFFFFFFFFFFFFFFFFFFFFFFFFFFFFFFFFFFF
310
FFFFFFFFFFFFFFFFF000FFFFFFFFFFFFFFFFFFFFFFFFFFFFFFFFFFFFFFFFFFFF
310
FFFFFFFFFFFFFFFFFFFFFFFFFFFFFFFFFFFFFFFFFFFFFFFFFFFFFFFFFFFFFFFF
310
FFFFFFFFFFFFFFFFFFFFFFFFFFFFFFFFFFFFFFFFFFFFFFFFFFFFFFFFFFFFFFFF
310
F000FFFFFFFFFFFFFFFFFFFFFFFFFFFFFFFFFFFFFFFFFFFFFFFFFFFFFFFFFFFF
310
FFFFFFFFFFFFFFFFFFFFFFFFFFFFFFFFFFFFFFFFFFFFFFFFFFFFFFFFFFFFFFFF
310
FFFFFFFFFFFFFFFFFFFFFFFFFFFFFFFFFFFFFFFFFFFFFFFFF000FFFFFFFFFFFF
310
FFFFFFFFFFFFFFFFFFFFFFFFFFFFFFFFFFFFFFFFFFFFFFFFFFFFFFFFFFFFFFFF
310
FFFFFFFFFFFFFFFFFFFFFFFFFFFFFFFFFFFFFFFFFFFFFFFFFFFFFFFFFFFFFFFF
310
FFFFFFFFFFFFFFFFFFFFFFFFFFFFFFFFF000FFFFFFFFFFFFFFFFFFFFFFFFFFFF
310
FFFFFFFFFFFFFFFFFFFFFFFFFFFFFFFFFFFFFFFFFFFFFFFFFFFFFFFFFFFFFFFF
310
FFFFFFFFFFFFFFFFFFFFFFFFFFFFFFFFFFFFFFFFFFFFFFFFFFFFFFFFFFFFFFFF
310
FFFFFFFFFFFFFFFFF000FFFFFFFFFFFFFFFFFFFFFFFFFFFFFFFFFFFFFFFFFFFF
310
FFFFFFFFFFFFFFFFFFFFFFFFFFFFFFFFFFFFFFFFFFFFFFFFFFFFFFFFFFFFFFFF
310
FFFFFFFFFFFFFFFFFFFFFFFFFFFFFFFFFFFFFFFFFFFFFFFFFFFFFFFFFFFFFFFF
310
F000FFFFFFFFFFFFFFFFFFFFFFFFFFFFFFFFFFFFFFFFFFFFFFFFFFFFFFFFFFFF
310
FFFFFFFFFFFFFFFFFFFFFFFFFFFFFFFFFFFFFFFFFFFFFFFFFFFFFFFFFFFFFFFF
310
FFFFFFFFFFFFFFFFFFFFFFFFFFFFFFFFFFFFFFFFFFFFFFFFF000FFFFFFFFFFFF
310
FFFFFFFFFFFFFFFFFFFFFFFFFFFFFFFFFFFFFFFFFFFFFFFFFFFFFFFFFFFFFFFF
310
FFFFFFFFFFFFFFFFFFFFFFFFFFFFFFFFFFFFFFFFFFFFFFFFFFFFFFFFFFFFFFFF
310
FFFFFFFFFFFFFFFFFFFFFFFFFFFFFFFFF000FFFFFFFFFFFFFFFFFFFFFFFFFFFF
310
FFFFFFFFFFFFFFFFFFFFFFFFFFFFFFFFFFFFFFFFFFFFFFFFFFFFFFFFFFFFFFFF
310
FFFFFFFFFFFFFFFFFFFFFFFFFFFFFFFFFFFFFFFFFFFFFFFFFFFFFFFFFFFFFFFF
310
FFFFFFFFFFFFFFFFF000FFFFF80003FFFFFFFFFFFFFFFFFFFFFFFFFFFFFFFFFF
310
FFFFF00007FFFFFFFFFF00007FFFFFF800000000000000007FFFFFFFFFFFFFFF
310
FFFFFFFC001FFFFFFFFFFFFFFC001FFFFFFFFFFFFFFFFFFFFFFFFFFE0007FFFF
310
F000FFFF8000007FFFFFFFF8000FFFFFC0007FFFFF80007FFFFF0000007FFFFF
310
FFF8000007FFFFF800000000000000007FFFFFF0001FFFFFFFFFFFC00001FFFF
310
FFFFFFFFC00001FFFFFFFF000000000003FFFFE000007FFFF000FFFE0000000F
310
FFFFFFF0000FFFFF80007FFFFF80007FFFFC0000001FFFFFFFC0000001FFFFF8
310
00000000000000007FFFFFF0001FFFFFFFFFFE0000003FFFFFFFFFFE0000003F
310
FFFFFF000000000003FFFF0000000FFFF000FFF800000003FFFFFFF00007FFFF
310
80007FFFFF80007FFFF000000007FFFFFF000000003FFFF80000000000000000
310
7FFFFFF0001FFFFFFFFFF80000000FFFFFFFFFF80000000FFFFFFF0000000000
310
03FFFC00000003FFF000FFE000000000FFFFFFF00007FFFF80003FFFFF80007F
310
FFC000000001FFFFFC000000001FFFF800000000000000007FFFFFF0001FFFFF
310
FFFFE000000003FFFFFFFFE000000003FFFFFF000000000003FFF000000000FF
310
F000FF80000000007FFFFFF00007FFFF80003FFFFF80007FFF8000000000FFFF
310
F80000000007FFF800000000000000007FFFFFF0001FFFFFFFFFC000000001FF
310
FFFFFFC000000001FFFFFF000000000003FFC0000000007FF000FF0000000000
310
3FFFFFE00007FFFF00003FFFFF80007FFE00000000003FFFF00000000003FFF8
310
00000000000000007FFFFFF0001FFFFFFFFF8000000000FFFFFFFF8000000000
310
FFFFFF000000000003FF80000000003FF000FE00000000001FFFFFE00003FFFF
310
00003FFFFF80007FFC00000000001FFFE00000000001FFF8000001FFFE000000
310
7FFFFFF0001FFFFFFFFE00000000003FFFFFFE00000000003FFFFF0000000000
310
03FF00000000001FF000FC00000000000FFFFFE00003FFFF00001FFFFF80007F
310
F800000000001FFFC00000000000FFF8000001FFFE0000007FFFFFF0001FFFFF
310
FFFC00000000001FFFFFFC00000000001FFFFF000000000003FE00000000000F
310
F000F8000000000007FFFFE00003FFFF00001FFFFF80007FF800000000000FFF
310
800000000000FFF8000001FFFE0000007FFFFFF0001FFFFFFFF800000000000F
310
FFFFF800000000000FFFFF000000000003FC000000000007F000F80000000000
310
03FFFFC00003FFFE00001FFFFF80007FF0000000000007FF0000000000007FF8
310
000001FFFE0000007FFFFFF0001FFFFFFFF0000000000007FFFFF00000000000
310
07FFFF000000000003F8000000000003F000F0000000000003FFFFC00001FFFE
310
00001FFFFF80007FE0000000000007FE0000000000003FF8000001FFFE000000
310
7FFFFFF0001FFFFFFFF0000000000007FFFFF0000000000007FFFF0000000000
310
03F800001F800003F000E00001FFF00001FFFFC00001FFFE00000FFFFF80007F
310
E00001FFE00003FE00001FFF00003FF8000001FFFE0000007FFFFFF0001FFFFF
310
FFE000003E000003FFFFE000003E000003FFFF000000000003F00001FFF80001
310
F000E00007FFFC0001FFFFC00001FFFE00000FFFFF80007FC0000FFFFC0003FC
310
0000FFFFC0001FF8000001FFFE0000007FFFFFF0001FFFFFFFC00003FFE00001
310
FFFFC00003FFE00001FFFF0001FFFFFFFFF00007FFFE0001F000E0000FFFFF00
310
00FFFF800001FFFC00000FFFFF80007FC0001FFFFE0001FC0001FFFFE0001FF8
310
000001FFFE0000007FFFFFF0001FFFFFFF80000FFFF80000FFFF80000FFFF800
310
00FFFF0003FFFFFFFFE0000FFFFF8000F000C0003FFFFF8000FFFF800000FFFC
310
000007FFFF80007F80003FFFFF0001FC0003FFFFF0001FF8000001FFFE000000
310
7FFFFFF0001FFFFFFF80003FFFFE0000FFFF80003FFFFE0000FFFF0003FFFFFF
310
FFE0003FFFFF8000F000C0003FFFFF8000FFFF800000FFFC000007FFFF80007F
310
80007FFFFF8001F80007FFFFF8000FF8000001FFFE0000007FFFFFF0001FFFFF
310
FF00007FFFFF00007FFF00007FFFFF00007FFF0003FFFFFFFFE0003FFFFFC000
310
F000C0007FFFFFC000FFFF000000FFFC000007FFFF80007F8000FFFFFF8000F8
310
000FFFFFF8000FF8000001FFFE0000007FFFFFF0001FFFFFFF0000FFFFFF8000
310
7FFF0000FFFFFF80007FFF0003FFFFFFFFC0007FFFFFC00070008000FFFFFFC0
310
00FFFF000000FFF8000007FFFF80007F8000FFFFFF8000F8000FFFFFF8000FF8
310
000001FFFE0000007FFFFFF0001FFFFFFE0001FFFFFFC0003FFE0001FFFFFFC0
310
003FFF0003FFFFFFFFC0007FFFFFE00070008000FFFFFFC0007FFF0000007FF8
310
000003FFFF80007F0001FFFFFF8000F8000FFFFFF8000FF8000001FFFE000000
310
7FFFFFF0001FFFFFFE0001FFFFFFC0003FFE0001FFFFFFC0003FFF0003FFFFFF
310
FFC000FFFFFFE00070008000FFFFFFC0007FFF0000007FF8000003FFFF80007F
310
0001FFFFFF8000F8001FFFFFF8000FF8000001FFFE0000007FFFFFF0001FFFFF
310
FE0003FFFFFFE0003FFE0003FFFFFFE0003FFF0003FFFFFFFFC000FFFFFFE000
310
70008000FFFFFFC0007FFE0000007FF8000003FFFF80007F0001FFFFFF8000F0
310
001FFFFFF8000FF8000001FFFE0000007FFFFFF0001FFFFFFC0003FFFFFFE000
310
1FFC0003FFFFFFE0001FFF0003FFFFFFFFC000FFFFFFC00070008000FFFFFF80
310
007FFE0000007FF0000003FFFF80007F0001FFFFFF0000F0001FFFFFF8000FF8
310
000001FFFE0000007FFFFFF0001FFFFFFC0007FFFFFFF0001FFC0007FFFFFFF0
310
001FFF0003FFFFFFFFC000FFFFFFC00070008001FFFFFF0000FFFE0000003FF0
310
000001FFFF80007F0001FFFFFF0000F8001FFFFFF0000FF8000001FFFE000000
310
7FFFFFF0001FFFFFFC0007FFFFFFF0001FFC0007FFFFFFF0001FFF0003FFFFFF
310
FFC001FFFFFF80007000FFFFFFFFFE0000FFFE0008003FF0008001FFFF80007F
310
FFFFFFFFFC0000FFFFFFFFFFE0000FF8000001FFFE0000007FFFFFF0001FFFFF
310
F8000FFFFFFFF8000FF8000FFFFFFFF8000FFF0003FFFFFFFFFFFFFFFFFF0000
310
7000FFFFFFFFFC0000FFFC0008003FF0008001FFFF80007FFFFFFFFFF80001FF
310
FFFFFFFF80000FF8000001FFFE0000007FFFFFF0001FFFFFF8000FFFFFFFF800
310
0FF8000FFFFFFFF8000FFF0003FFFFFFFFFFFFFFFFFE0000F000FFFFFFFFE000
310
00FFFC000C003FE000C001FFFF80007FFFFFFFFFC00001FFFFFFFFFE00001FF8
310
000001FFFE0000007FFFFFF0001FFFFFF8000FFFFFFFF8000FF8000FFFFFFFF8
310
000FFF0003FFFFFFFFFFFFFFFFF00000F000FFFFFFFE000001FFFC000C001FE0
310
00C000FFFF80007FFFFFFFFE000001FFFFFFFFE000001FF80FFFFFFFFFFFFFC0
310
7FFFFFF0001FFFFFF8000FFFFFFFF8000FF8000FFFFFFFF8000FFF0003FFFFFF
310
FFFFFFFFFF800000F000FFFFFFC0000001FFFC001C001FE001C000FFFF80007F
310
FFFFFF80000003FFFFFFF80000001FF80FFFFFFFFFFFFFC07FFFFFF0001FFFFF
310
F8001FFFFFFFFC000FF8001FFFFFFFFC000FFF0003FFFFFFFFFFFFFFF0000001
310
F000FFFFF800000001FFF8001C001FE001C000FFFF80007FFFFFF800000003FF
310
FFFF800000003FF80FFFFFFFFFFFFFC07FFFFFF0001FFFFFF8001FFFFFFFFC00
310
0FF8001FFFFFFFFC000FFF0003FFFFFFFFFFFFFE00000001F000FFFFC0000000
310
03FFF8001E001FC001E000FFFF80007FFFFF8000000007FFFFFC000000003FF8
310
0FFFFFFFFFFFFFC07FFFFFF0001FFFFFF8001FFFFFFFFC000FF8001FFFFFFFFC
310
000FFF0003FFFFFFFFFFFFE000000003F000FFFE0000000007FFF8001E000FC0
310
01E0007FFF80007FFFFE0000000007FFFFE0000000007FF80FFFFFFFFFFFFFC0
310
7FFFFFF0001FFFFFF0001FFFFFFFFC0007F0001FFFFFFFFC0007FF0003FFFFFF
310
FFFFFF0000000003F000FFF80000000007FFF8001E000FC003E0007FFF80007F
310
FFF0000000000FFFFF8000000000FFF80FFFFFFFFFFFFFC07FFFFFF0001FFFFF
310
F0001FFFFFFFFC0007F0001FFFFFFFFC0007FF0003FFFFFFFFFFFC0000000007
310
F000FFE0000000000FFFF0003E000FC003E0007FFF80007FFFC0000000001FFF
310
FE0000000001FFF80FFFFFFFFFFFFFC07FFFFFF0001FFFFFF0001FFFFFFFFC00
310
07F0001FFFFFFFFC0007FF0003FFFFFFFFFFF0000000000FF000FFC000000000
310
1FFFF0003F000F8003F0003FFF80007FFF80000000003FFFF80000000003FFF8
310
0FFFFFFFFFFFFFC07FFFFFF0001FFFFFF0001FFFFFFFFC0007F0001FFFFFFFFC
310
0007FF0003FFFFFFFFFFE0000000001FF000FF00000000007FFFF0003F000780
310
03F0003FFF80007FFF00000000007FFFF00000000007FFF80FFFFFFFFFFFFFC0
310
7FFFFFF0001FFFFFF0001FFFFFFFFC0007F0001FFFFFFFFC0007FF0003FFFFFF
310
FFFF80000000007FF000FE0000000000FFFFE0003F00078007F0003FFF80007F
310
FE0000000001FFFFE0000000001FFFF80FFFFFFFFFFFFFC07FFFFFF0001FFFFF
310
F0001FFFFFFFFC0007F0001FFFFFFFFC0007FF0003FFFFFFFFFF0000000000FF
310
F000FC0000000003FFFFE0007F00078007F0003FFF80007FFC0000000007FFFF
310
C0000000007FFFF80FFFFFFFFFFFFFC07FFFFFF0001FFFFFF8001FFFFFFFFC00
310
0FF8001FFFFFFFFC000FFF0003FFFFFFFFFE0000000003FFF000FC000000000F
310
FFFFE0007F80070007F8001FFF80007FF8000000001FFFFF8000000001FFFFF8
310
0FFFFFFFFFFFFFC07FFFFFF0001FFFFFF8001FFFFFFFFC000FF8001FFFFFFFFC
310
000FFF0003FFFFFFFFFC000000000FFFF000F8000000007FFFFFE0007F800700
310
07F8001FFF80007FF000000000FFFFFF800000000FFFFFF80FFFFFFFFFFFFFC0
310
7FFFFFF0001FFFFFF8000FFFFFFFF8000FF8000FFFFFFFF8000FFF0003FFFFFF
310
FFFC000000007FFFF000F800000007FFFFFFC0007F8003000FF8001FFF80007F
310
F000000007FFFFFF000000007FFFFFF80FFFFFFFFFFFFFC07FFFFFF0001FFFFF
310
F8000FFFFFFFF8000FF8000FFFFFFFF8000FFF0003FFFFFFFFF80000000FFFFF
310
F000F0000000FFFFFFFFC000FF8003000FF8001FFF80007FE0000000FFFFFFFF
310
0000000FFFFFFFF8000001FFFE0000007FFFFFF0001FFFFFF8000FFFFFFFF800
310
0FF8000FFFFFFFF8000FFF0003FFFFFFFFF8000000FFFFFFF000F000000FFFFF
310
FFFFC000FFC002000FF8000FFF80007FE000001FFFFFFFFE000001FFFFFFFFF8
310
000001FFFE0000007FFFFFF0001FFFFFF8000FFFFFFFF8000FF8000FFFFFFFF8
310
000FFF0003FFFFFFFFF000001FFFFFFFF000E00000FFFFFFFFFFC000FFC00200
310
0FFC000FFF80007FE00001FFFFFFFFFE00001FFFFFFFFFF8000001FFFE000000
310
7FFFFFF0001FFFFFFC000FFFFFFFF8001FFC000FFFFFFFF8001FFF0003FFFFFF
310
FFF00001FFFFFFFFF000E00007FFFFFFFFFF8000FFC000001FFC000FFF80007F
310
C0000FFFFFFFFFFE0000FFFFFFFFFFF8000001FFFE0000007FFFFFF0001FFFFF
310
FC0007FFFFFFF0001FFC0007FFFFFFF0001FFF0003FFFFFFFFF00007FFFFFFFF
310
F000E0001FFFFFFFFFFF8000FFC000001FFC000FFF80007FC0003FFFFFFFFFFE
310
0001FFFFFFFFFFF8000001FFFE0000007FFFFFF0001FFFFFFC0007FFFFFFF000
310
1FFC0007FFFFFFF0001FFF0003FFFFFFFFF0001FFFFFFFFFF000E0003FFFFF00
310
03FF8001FFE000001FFC0007FF80007FC0007FFFFF0007FC0003FFFFF0003FF8
310
000001FFFE0000007FFFFFF0001FFFFFFC0003FFFFFFE0001FFC0003FFFFFFE0
310
001FFF0003FFFFFFFFF0003FFFFFFFFFF000E0003FFFFF0001FF8001FFE00000
310
1FFE0007FF80007FC0007FFFFE0003FC0007FFFFE0003FF8000001FFFE000000
310
7FFFFFF0001FFFFFFE0003FFFFFFE0003FFE0003FFFFFFE0003FFF0003FFFFFF
310
FFF0003FFFFF8001F000E0003FFFFF0001FF0001FFE000001FFE0007FF80007F
310
C0007FFFFE0003FC0007FFFFE0003FF8000001FFFE0000007FFFFFF0001FFFFF
310
FE0001FFFFFFC0003FFE0001FFFFFFC0003FFF0003FFFFFFFFF0003FFFFF0001
310
F000E0003FFFFF0003FF0001FFE000003FFE0007FF80007FC0007FFFFE0003FC
310
0007FFFFE0003FF8000001FFFE0000007FFFFFF0001FFFFFFF0001FFFFFFC000
310
7FFF0001FFFFFFC0007FFF0003FFFFFFFFF0003FFFFF0001F000E0003FFFFE00
310
03FF0003FFF000003FFE0003FF80007FC0007FFFFC0003FE0007FFFFE0003FF8
310
000001FFFE0000007FFFFFF0001FFFFFFF0000FFFFFF80007FFF0000FFFFFF80
310
007FFF0003FFFFFFFFF0003FFFFF0001F000E0003FFFFE0003FF0003FFF00000
310
3FFF0003FF80007FC0007FFFFC0007FE0007FFFFC0003FF8000001FFFE000000
310
7FFFFFF0001FFFFFFF80007FFFFF0000FFFF80007FFFFF0000FFFF0003FFFFFF
310
FFF0003FFFFF0003F000E0003FFFFC0003FE0003FFF000003FFF0003FF80007F
310
E0003FFFF80007FE0003FFFFC0007FF8000001FFFE0000007FFFFFF0001FFFFF
310
FF80003FFFFE0000FFFF80003FFFFE0000FFFF0003FFFFFFFFF0001FFFFE0003
310
F000F0001FFFF80003FE0003FFF000007FFF0001FF80007FE0003FFFF00007FE
310
0001FFFF80007FF8000001FFFE0000007FFFFFF0001FFFFFFFC0000FFFF80001
310
FFFFC0000FFFF80001FFFF0003FFFFFFFFF0001FFFFC0003F000F0000FFFF000
310
07FE0007FFF800007FFF0001FF80007FE0001FFFE00007FF0000FFFE00007FF8
310
000001FFFE0000007FFFFFF0001FFFFFFFC00003FFE00001FFFFC00003FFE000
310
01FFFF0003FFFFFFFFF8000FFFF80003F000F00003FFC00007FC0007FFF80000
310
7FFF8001FF80007FF00007FF80000FFF00007FF80000FFF8000001FFFE000000
310
7F80000000000001FFE000003E000003FFFFE000003E000003FFFF0003FFFFFF
310
FFF80003FFE00007F000F800000000000FFC0007FFF800007FFF8001FF80007F
310
F000000000000FFF000000000000FFF8000001FFFE0000007F80000000000001
310
FFF0000000000007FFFFF0000000000007FFFF0003FFFFFFFFFC00007E000007
310
F000F800000000000FFC0007FFF80000FFFF8000FF80007FF800000000001FFF
310
800000000001FFF8000001FFFE0000007F80000000000001FFF800000000000F
310
FFFFF800000000000FFFFF0003FFFFFFFFFC00000000000FF000FC0000000000
310
1FFC0007FFFC0000FFFF8000FF80007FF800000000003FFFC00000000001FFF8
310
000001FFFE0000007F80000000000001FFF800000000000FFFFFF80000000000
310
0FFFFF0003FFFFFFFFFE00000000001FF000FE00000000003FF8000FFFFC0000
310
FFFF8000FF80007FFC00000000003FFFC00000000003FFF8000001FFFE000000
310
7F80000000000001FFFC00000000001FFFFFFC00000000001FFFFF0003FFFFFF
310
FFFF00000000001FF000FF00000000003FF8000FFFFC0000FFFFC000FF80007F
310
FE00000000007FFFE00000000007FFF8000001FFFE0000007F80000000000001
310
FFFE00000000003FFFFFFE00000000003FFFFF0003FFFFFFFFFF80000000003F
310
F000FF80000000007FF8000FFFFC0001FFFFC0007F80007FFF0000000000FFFF
310
F0000000000FFFF800000000000000007F80000000000001FFFF8000000000FF
310
FFFFFF8000000000FFFFFF0003FFFFFFFFFFC0000000007FF000FFC000000000
310
FFF8000FFFFE0001FFFFC0007F80007FFF8000000001FFFFF8000000001FFFF8
310
00000000000000007F80000000000001FFFFC000000001FFFFFFFFC000000001
310
FFFFFF0003FFFFFFFFFFE000000000FFF000FFE000000003FFF0001FFFFE0001
310
FFFFC0007F80007FFFC000000007FFFFFE000000003FFFF80000000000000000
310
7F80000000000001FFFFE000000003FFFFFFFFE000000003FFFFFF0003FFFFFF
310
FFFFF000000003FFF000FFF80000000FFFF0001FFFFE0001FFFFE0007F80007F
310
FFF00000000FFFFFFF00000000FFFFF800000000000000007F80000000000001
310
FFFFF80000000FFFFFFFFFF80000000FFFFFFF0003FFFFFFFFFFFC0000000FFF
310
F000FFFE0000003FFFF0001FFFFE0003FFFFE0003F80007FFFFC0000003FFFFF
310
FFC0000003FFFFF800000000000000007F80000000000001FFFFFE0000003FFF
310
FFFFFFFE0000003FFFFFFF0003FFFFFFFFFFFF0000003FFFF000FFFF800000FF
310
FFF0001FFFFF0003FFFFE0003F80007FFFFF000001FFFFFFFFF800001FFFFFF8
310
00000000000000007F80000000000001FFFFFFC00001FFFFFFFFFFFFC00001FF
310
FFFFFF0003FFFFFFFFFFFFC00000FFFFF000FFFFF8000FFFFFFFFFFFFFFFFFFF
310
FFFFFFFFFFFFFFFFFFFFF0001FFFFFFFFFFF0000FFFFFFF80000000000000000
310
7FFFFFFFFFFFFFFFFFFFFFFC001FFFFFFFFFFFFFFC001FFFFFFFFFFFFFFFFFFF
310
FFFFFFFC001FFFFFF000FFFFFFFFFFFFFFFFFFFFFFFFFFFFFFFFFFFFFFFFFFFF
310
FFFFFFFFFFFFFFFFFFFFFFFFFFFFFFFFFFFFFFFFFFFFFFFFFFFFFFFFFFFFFFFF
310
FFFFFFFFFFFFFFFFFFFFFFFFFFFFFFFFFFFFFFFFFFFFFFFFFFFFFFFFFFFFFFFF
310
F000FFFFFFFFFFFFFFFFFFFFFFFFFFFFFFFFFFFFFFFFFFFFFFFFFFFFFFFFFFFF
310
FFFFFFFFFFFFFFFFFFFFFFFFFFFFFFFFFFFFFFFFFFFFFFFFFFFFFFFFFFFFFFFF
310
FFFFFFFFFFFFFFFFFFFFFFFFFFFFFFFFFFFFFFFFFFFFFFFFF000FFFFFFFFFFFF
310
FFFFFFFFFFFFFFFFFFFFFFFFFFFFFFFFFFFFFFFFFFFFFFFFFFFFFFFFFFFFFFFF
310
FFFFFFFFFFFFFFFFFFFFFFFFFFFFFFFFFFFFFFFFFFFFFFFFFFFFFFFFFFFFFFFF
310
FFFFFFFFFFFFFFFFFFFFFFFFFFFFFFFFF000FFFFFFFFFFFFFFFFFFFFFFFFFFFF
310
FFFFFFFFFFFFFFFFFFFFFFFFFFFFFFFFFFFFFFFFFFFFFFFFFFFFFFFFFFFFFFFF
310
FFFFFFFFFFFFFFFFFFFFFFFFFFFFFFFFFFFFFFFFFFFFFFFFFFFFFFFFFFFFFFFF
310
FFFFFFFFFFFFFFFFF000FFFFFFFFFFFFFFFFFFFFFFFFFFFFFFFFFFFFFFFFFFFF
310
FFFFFFFFFFFFFFFFFFFFFFFFFFFFFFFFFFFFFFFFFFFFFFFFFFFFFFFFFFFFFFFF
310
FFFFFFFFFFFFFFFFFFFFFFFFFFFFFFFFFFFFFFFFFFFFFFFFFFFFFFFFFFFFFFFF
310
F000FFFFFFFFFFFFFFFFFFFFFFFFFFFFFFFFFFFFFFFFFFFFFFFFFFFFFFFFFFFF
310
FFFFFFFFFFFFFFFFFFFFFFFFFFFFFFFFFFFFFFFFFFFFFFFFFFFFFFFFFFFFFFFF
310
FFFFFFFFFFFFFFFFFFFFFFFFFFFFFFFFFFFFFFFFFFFFFFFFF000FFFFFFFFFFFF
310
FFFFFFFFFFFFFFFFFFFFFFFFFFFFFFFFFFFFFFFFFFFFFFFFFFFFFFFFFFFFFFFF
310
FFFFFFFFFFFFFFFFFFFFFFFFFFFFFFFFFFFFFFFFFFFFFFFFFFFFFFFFFFFFFFFF
310
FFFFFFFFFFFFFFFFFFFFFFFFFFFFFFFFF000FFFFFFFFFFFFFFFFFFFFFFFFFFFF
310
FFFFFFFFFFFFFFFFFFFFFFFFFFFFFFFFFFFFFFFFFFFFFFFFFFFFFFFFFFFFFFFF
310
FFFFFFFFFFFFFFFFFFFFFFFFFFFFFFFFFFFFFFFFFFFFFFFFFFFFFFFFFFFFFFFF
310
FFFFFFFFFFFFFFFFF000FFFFFFFFFFFFFFFFFFFFFFFFFFFFFFFFFFFFFFFFFFFF
310
FFFFFFFFFFFFFFFFFFFFFFFFFFFFFFFFFFFFFFFFFFFFFFFFFFFFFFFFFFFFFFFF
310
FFFFFFFFFFFFFFFFFFFFFFFFFFFFFFFFFFFFFFFFFFFFFFFFFFFFFFFFFFFFFFFF
310
F000FFFFFFFFFFFFFFFFFFFFFFFFFFFFFFFFFFFFFFFFFFFFFFFFFFFFFFFFFFFF
310
FFFFFFFFFFFFFFFFFFFFFFFFFFFFFFFFFFFFFFFFFFFFFFFFFFFFFFFFFFFFFFFF
310
FFFFFFFFFFFFFFFFFFFFFFFFFFFFFFFFFFFFFFFFFFFFFFFFF000FFFFFFFFFFFF
310
FFFFFFFFFFFFFFFFFFFFFFFFFFFFFFFFFFFFFFFFFFFFFFFFFFFFFFFFFFFFFFFF
310
FFFFFFFFFFFFFFFFFFFFFFFFFFFFFFFFFFFFFFFFFFFFFFFFFFFFFFFFFFFFFFFF
310
FFFFFFFFFFFFFFFFFFFFFFFFFFFFFFFFF000FFFFFFFFFFFFFFFFFFFFFFFFFFFF
310
FFFFFFFFFFFFFFFFFFFFFFFFFFFFFFFFFFFFFFFFFFFFFFFFFFFFFFFFFFFFFFFF
310
FFFFFFFFFFFFFFFFFFFFFFFFFFFFFFFFFFFFFFFFFFFFFFFFFFFFFFFFFFFFFFFF
310
FFFFFFFFFFFFFFFFF000FFFFFFFFFFFFFFFFFFFFFFFFFFFFFFFFFFFFFFFFFFFF
310
FFFFFFFFFFFFFFFFFFFFFFFFFFFFFFFFFFFFFFFFFFFFFFFFFFFFFFFFFFFFFFFF
310
FFFFFFFFFFFFFFFFFFFFFFFFFFFFFFFFFFFFFFFFFFFFFFFFFFFFFFFFFFFFFFFF
310
F000FFFFFFFFFFFFFFFFFFFFFFFFFFFFFFFFFFFFFFFFFFFFFFFFFFFFFFFFFFFF
310
FFFFFFFFFFFFFFFFFFFFFFFFFFFFFFFFFFFFFFFFFFFFFFFFFFFFFFFFFFFFFFFF
310
FFFFFFFFFFFFFFFFFFFFFFFFFFFFFFFFFFFFFFFFFFFFFFFFF000FFFFFFFFFFFF
310
FFFFFFFFFFFFFFFFFFFFFFFFFFFFFFFFFFFFFFFFFFFFFFFFFFFFFFFFFFFFFFFF
310
FFFFFFFFFFFFFFFFFFFFFFFFFFFFFFFFFFFFFFFFFFFFFFFFFFFFFFFFFFFFFFFF
310
FFFFFFFFFFFFFFFFFFFFFFFFFFFFFFFFF000FFFFFFFFFFFFFFFFFFFFFFFFFFFF
310
FFFFFFFFFFFFFFFFFFFFFFFFFFFFFFFFFFFFFFFFFFFFFFFFFFFFFFFFFFFFFFFF
310
FFFFFFFFFFFFFFFFFFFFFFFFFFFFFFFFFFFFFFFFFFFFFFFFFFFFFFFFFFFFFFFF
310
FFFFFFFFFFFFFFFFF000FFFFFFFFFFFFFFFFFFFFFFFFFFFFFFFFFFFFFFFFFFFF
310
FFFFFFFFFFFFFFFFFFFFFFFFFFFFFFFFFFFFFFFFFFFFFFFFFFFFFFFFFFFFFFFF
310
FFFFFFFFFFFFFFFFFFFFFFFFFFFFFFFFFFFFFFFFFFFFFFFFFFFFFFFFFFFFFFFF
310
F000FFFFFFFFFFFFFFFFFFFFFFFFFFFFFFFFFFFFFFFFFFFFFFFFFFFFFFFFFFFF
310
FFFFFFFFFFFFFFFFFFFFFFFFFFFFFFFFFFFFFFFFFFFFFFFFFFFFFFFFFFFFFFFF
310
FFFFFFFFFFFFFFFFFFFFFFFFFFFFFFFFFFFFFFFFFFFFFFFFF000FFFFFFFFFFFF
310
FFFFFFFFFFFFFFFFFFFFFFFFFFFFFFFFFFFFFFFFFFFFFFFFFFFFFFFFFFFFFFFF
310
FFFFFFFFFFFFFFFFFFFFFFFFFFFFFFFFFFFFFFFFFFFFFFFFFFFFFFFFFFFFFFFF
310
FFFFFFFFFFFFFFFFFFFFFFFFFFFFFFFFF000FFFFFFFFFFFFFFFFFFFFFFFFFFFF
310
FFFFFFFFFFFFFFFFFFFFFFFFFFFFFFFFFFFFFFFFFFFFFFFFFFFFFFFFFFFFFFFF
310
FFFFFFFFFFFFFFFFFFFFFFFFFFFFFFFFFFFFFFFFFFFFFFFFFFFFFFFFFFFFFFFF
310
FFFFFFFFFFFFFFFFF000FFFFFFFFFFFFFFFFFFFFFFFFFFFFFFFFFFFFFFFFFFFF
310
FFFFFFFFFFFFFFFFFFFFFFFFFFFFFFFFFFFFFFFFFFFFFFFFFFFFFFFFFFFFFFFF
310
FFFFFFFFFFFFFFFFFFFFFFFFFFFFFFFFFFFFFFFFFFFFFFFFFFFFFFFFFFFFFFFF
310
F000FFFFFFFFFFFFFFFFFFFFFFFFFFFFFFFFFFFFFFFFFFFFFFFFFFFFFFFFFFFF
310
FFFFFFFFFFFFFFFFFFFFFFFFFFFFFFFFFFFFFFFFFFFFFFFFFFFFFFFFFFFFFFFF
310
FFFFFFFFFFFFFFFFFFFFFFFFFFFFFFFFFFFFFFFFFFFFFFFFF000FFFFFFFFFFFF
310
FFFFFFFFFFFFFFFFFFFFFFFFFFFFFFFFFFFFFFFFFFFFFFFFFFFFFFFFFFFFFFFF
310
FFFFFFFFFFFFFFFFFFFFFFFFFFFFFFFFFFFFFFFFFFFFFFFFFFFFFFFFFFFFFFFF
310
FFFFFFFFFFFFFFFFFFFFFFFFFFFFFFFFF0000000000000000000000000000000
310
0000000000000000000000000000000000000000000000000000000000000000
310
0000000000000000000000000000000000000000000000000000000000000000
310
0000000000000000000000000000000000000000000000000000000000000000
310
0000000000000000000000000000000000000000000000000000000000000000
310
0000000000000000000000000000000000000000000000000000000000000000
310
0000000000000000000000000000000000000000000000000000000000000000
310
0000000000000000000000000000000000000000000000000000000000000000
310
0000000000000000000000000000000000000000000000000000000000000000
310
0000000000000000000000000000000000000000000000000000000000000000
310
0000000000000000000000000000000000000000000000000000000000000000
310
0000000000000000000000000000000000000000000000000000000000000000
310
0000000000000000000000000000000000000000000000000000000000000000
310
0000000000000000000000000000000000000000000000000000000000000000
310
0000000000000000000000000000000000000000000000000000000000000000
310
0000000000000000000000000000000000000000000000000000000000000000
  1
OLE
  0
ENDSEC
  0
SECTION
  2
OBJECTS
  0
DICTIONARY
  5
C
330
0
100
AcDbDictionary
281
     1
  3
ACAD_GROUP
350
D
  3
ACAD_LAYOUT
350
1A
  3
ACAD_MLINESTYLE
350
17
  3
ACAD_PLOTSETTINGS
350
19
  3
ACAD_PLOTSTYLENAME
350
E
  3
ACAD_SCALELIST
350
47
  0
DICTIONARY
  5
D
102
{ACAD_REACTORS
330
C
102
}
330
C
100
AcDbDictionary
281
     1
  0
DICTIONARY
  5
1A
102
{ACAD_REACTORS
330
C
102
}
330
C
100
AcDbDictionary
281
     1
  3
Layout1
350
1E
  3
Layout2
350
26
  3
Model
350
22
  0
DICTIONARY
  5
17
102
{ACAD_REACTORS
330
C
102
}
330
C
100
AcDbDictionary
281
     1
  3
Standard
350
18
  0
DICTIONARY
  5
19
102
{ACAD_REACTORS
330
C
102
}
330
C
100
AcDbDictionary
281
     1
  0
ACDBDICTIONARYWDFLT
  5
E
102
{ACAD_REACTORS
330
C
102
}
330
C
100
AcDbDictionary
281
     1
  3
Normal
350
F
100
AcDbDictionaryWithDefault
340
F
  0
DICTIONARY
  5
47
102
{ACAD_REACTORS
330
C
102
}
330
C
100
AcDbDictionary
281
     1
  3
A0
350
48
  3
A1
350
49
  3
A2
350
4A
  3
A3
350
4B
  3
A4
350
4C
  3
A5
350
4D
  3
A6
350
4E
  3
A7
350
4F
  3
A8
350
50
  3
A9
350
51
  3
B0
350
52
  3
B1
350
53
  3
B2
350
54
  3
B3
350
55
  3
B4
350
56
  3
B5
350
57
  3
B6
350
58
  3
B7
350
59
  3
B8
350
5A
  3
B9
350
5B
  3
C0
350
5C
  3
C1
350
5D
  3
C2
350
5E
  3
C3
350
5F
  3
C4
350
60
  3
C5
350
61
  3
C6
350
62
  3
C7
350
63
  3
C8
350
64
  3
C9
350
65
  3
D0
350
66
  3
D1
350
67
  3
D2
350
68
  0
LAYOUT
  5
1E
102
{ACAD_REACTORS
330
1A
102
}
330
1A
100
AcDbPlotSettings
  1

  2
none_device
  4

  6

 40
0.0
 41
0.0
 42
0.0
 43
0.0
 44
0.0
 45
0.0
 46
0.0
 47
0.0
 48
0.0
 49
0.0
140
0.0
141
0.0
142
1.0
143
1.0
 70
   688
 72
     1
 73
     0
 74
     5
  7

 75
    16
147
1.0
148
0.0
149
0.0
100
AcDbLayout
  1
Layout1
 70
     1
 71
     1
 10
0.0
 20
0.0
 11
420.0
 21
297.0
 12
0.0
 22
0.0
 32
0.0
 14
1.0000000000E+20
 24
1.0000000000E+20
 34
1.0000000000E+20
 15
-1.0000000000E+20
 25
-1.0000000000E+20
 35
-1.0000000000E+20
146
0.0
 13
0.0
 23
0.0
 33
0.0
 16
1.0
 26
0.0
 36
0.0
 17
0.0
 27
1.0
 37
0.0
 76
     0
330
1B
  0
LAYOUT
  5
26
102
{ACAD_REACTORS
330
1A
102
}
330
1A
100
AcDbPlotSettings
  1

  2
none_device
  4

  6

 40
0.0
 41
0.0
 42
0.0
 43
0.0
 44
0.0
 45
0.0
 46
0.0
 47
0.0
 48
0.0
 49
0.0
140
0.0
141
0.0
142
1.0
143
1.0
 70
   688
 72
     1
 73
     0
 74
     5
  7

 75
    16
147
1.0
148
0.0
149
0.0
100
AcDbLayout
  1
Layout2
 70
     1
 71
     2
 10
0.0
 20
0.0
 11
0.0
 21
0.0
 12
0.0
 22
0.0
 32
0.0
 14
0.0
 24
0.0
 34
0.0
 15
0.0
 25
0.0
 35
0.0
146
0.0
 13
0.0
 23
0.0
 33
0.0
 16
1.0
 26
0.0
 36
0.0
 17
0.0
 27
1.0
 37
0.0
 76
     0
330
23
  0
LAYOUT
  5
22
102
{ACAD_REACTORS
330
1A
102
}
330
1A
100
AcDbPlotSettings
  1

  2
none_device
  4
Letter_(8.50_x_11.00_Inches)
  6

 40
6.35
 41
6.35
 42
6.35000508
 43
6.35000508
 44
215.9
 45
279.4
 46
0.0
 47
0.0
 48
0.0
 49
0.0
140
0.0
141
0.0
142
1.0
143
1.0
 70
  1712
 72
     1
 73
     0
 74
     0
  7

 75
     0
147
1.0
148
0.0
149
0.0
100
AcDbLayout
  1
Model
 70
     1
 71
     0
 10
0.0
 20
0.0
 11
297.0
 21
210.0
 12
0.0
 22
0.0
 32
0.0
 14
0.0
 24
0.0
 34
0.0
 15
297.0
 25
210.0
 35
0.0
146
0.0
 13
0.0
 23
0.0
 33
0.0
 16
1.0
 26
0.0
 36
0.0
 17
0.0
 27
1.0
 37
0.0
 76
     0
330
1F
331
29
  0
MLINESTYLE
  5
18
102
{ACAD_REACTORS
330
17
102
}
330
17
100
AcDbMlineStyle
  2
Standard
 70
     0
  3

 62
   256
 51
90.0
 52
90.0
 71
     2
 49
0.5
 62
   256
  6
BYLAYER
 49
-0.5
 62
   256
  6
BYLAYER
  0
ACDBPLACEHOLDER
  5
F
102
{ACAD_REACTORS
330
E
102
}
330
E
  0
SCALE
  5
48
102
{ACAD_REACTORS
330
47
102
}
330
47
100
AcDbScale
 70
     0
300
1:1
140
1.0
141
1.0
290
     1
  0
SCALE
  5
49
102
{ACAD_REACTORS
330
47
102
}
330
47
100
AcDbScale
 70
     0
300
1:2
140
1.0
141
2.0
290
     0
  0
SCALE
  5
4A
102
{ACAD_REACTORS
330
47
102
}
330
47
100
AcDbScale
 70
     0
300
1:4
140
1.0
141
4.0
290
     0
  0
SCALE
  5
4B
102
{ACAD_REACTORS
330
47
102
}
330
47
100
AcDbScale
 70
     0
300
1:5
140
1.0
141
5.0
290
     0
  0
SCALE
  5
4C
102
{ACAD_REACTORS
330
47
102
}
330
47
100
AcDbScale
 70
     0
300
1:8
140
1.0
141
8.0
290
     0
  0
SCALE
  5
4D
102
{ACAD_REACTORS
330
47
102
}
330
47
100
AcDbScale
 70
     0
300
1:10
140
1.0
141
10.0
290
     0
  0
SCALE
  5
4E
102
{ACAD_REACTORS
330
47
102
}
330
47
100
AcDbScale
 70
     0
300
1:16
140
1.0
141
16.0
290
     0
  0
SCALE
  5
4F
102
{ACAD_REACTORS
330
47
102
}
330
47
100
AcDbScale
 70
     0
300
1:20
140
1.0
141
20.0
290
     0
  0
SCALE
  5
50
102
{ACAD_REACTORS
330
47
102
}
330
47
100
AcDbScale
 70
     0
300
1:30
140
1.0
141
30.0
290
     0
  0
SCALE
  5
51
102
{ACAD_REACTORS
330
47
102
}
330
47
100
AcDbScale
 70
     0
300
1:40
140
1.0
141
40.0
290
     0
  0
SCALE
  5
52
102
{ACAD_REACTORS
330
47
102
}
330
47
100
AcDbScale
 70
     0
300
1:50
140
1.0
141
50.0
290
     0
  0
SCALE
  5
53
102
{ACAD_REACTORS
330
47
102
}
330
47
100
AcDbScale
 70
     0
300
1:100
140
1.0
141
100.0
290
     0
  0
SCALE
  5
54
102
{ACAD_REACTORS
330
47
102
}
330
47
100
AcDbScale
 70
     0
300
2:1
140
2.0
141
1.0
290
     0
  0
SCALE
  5
55
102
{ACAD_REACTORS
330
47
102
}
330
47
100
AcDbScale
 70
     0
300
4:1
140
4.0
141
1.0
290
     0
  0
SCALE
  5
56
102
{ACAD_REACTORS
330
47
102
}
330
47
100
AcDbScale
 70
     0
300
8:1
140
8.0
141
1.0
290
     0
  0
SCALE
  5
57
102
{ACAD_REACTORS
330
47
102
}
330
47
100
AcDbScale
 70
     0
300
10:1
140
10.0
141
1.0
290
     0
  0
SCALE
  5
58
102
{ACAD_REACTORS
330
47
102
}
330
47
100
AcDbScale
 70
     0
300
100:1
140
100.0
141
1.0
290
     0
  0
SCALE
  5
59
102
{ACAD_REACTORS
330
47
102
}
330
47
100
AcDbScale
 70
     0
300
1/128" = 1'-0"
140
0.0078125
141
12.0
290
     0
  0
SCALE
  5
5A
102
{ACAD_REACTORS
330
47
102
}
330
47
100
AcDbScale
 70
     0
300
1/64" = 1'-0"
140
0.015625
141
12.0
290
     0
  0
SCALE
  5
5B
102
{ACAD_REACTORS
330
47
102
}
330
47
100
AcDbScale
 70
     0
300
1/32" = 1'-0"
140
0.03125
141
12.0
290
     0
  0
SCALE
  5
5C
102
{ACAD_REACTORS
330
47
102
}
330
47
100
AcDbScale
 70
     0
300
1/16" = 1'-0"
140
0.0625
141
12.0
290
     0
  0
SCALE
  5
5D
102
{ACAD_REACTORS
330
47
102
}
330
47
100
AcDbScale
 70
     0
300
3/32" = 1'-0"
140
0.09375
141
12.0
290
     0
  0
SCALE
  5
5E
102
{ACAD_REACTORS
330
47
102
}
330
47
100
AcDbScale
 70
     0
300
1/8" = 1'-0"
140
0.125
141
12.0
290
     0
  0
SCALE
  5
5F
102
{ACAD_REACTORS
330
47
102
}
330
47
100
AcDbScale
 70
     0
300
3/16" = 1'-0"
140
0.1875
141
12.0
290
     0
  0
SCALE
  5
60
102
{ACAD_REACTORS
330
47
102
}
330
47
100
AcDbScale
 70
     0
300
1/4" = 1'-0"
140
0.25
141
12.0
290
     0
  0
SCALE
  5
61
102
{ACAD_REACTORS
330
47
102
}
330
47
100
AcDbScale
 70
     0
300
3/8" = 1'-0"
140
0.375
141
12.0
290
     0
  0
SCALE
  5
62
102
{ACAD_REACTORS
330
47
102
}
330
47
100
AcDbScale
 70
     0
300
1/2" = 1'-0"
140
0.5
141
12.0
290
     0
  0
SCALE
  5
63
102
{ACAD_REACTORS
330
47
102
}
330
47
100
AcDbScale
 70
     0
300
3/4" = 1'-0"
140
0.75
141
12.0
290
     0
  0
SCALE
  5
64
102
{ACAD_REACTORS
330
47
102
}
330
47
100
AcDbScale
 70
     0
300
1" = 1'-0"
140
1.0
141
12.0
290
     0
  0
SCALE
  5
65
102
{ACAD_REACTORS
330
47
102
}
330
47
100
AcDbScale
 70
     0
300
1-1/2" = 1'-0"
140
1.5
141
12.0
290
     0
  0
SCALE
  5
66
102
{ACAD_REACTORS
330
47
102
}
330
47
100
AcDbScale
 70
     0
300
3" = 1'-0"
140
3.0
141
12.0
290
     0
  0
SCALE
  5
67
102
{ACAD_REACTORS
330
47
102
}
330
47
100
AcDbScale
 70
     0
300
6" = 1'-0"
140
6.0
141
12.0
290
     0
  0
SCALE
  5
68
102
{ACAD_REACTORS
330
47
102
}
330
47
100
AcDbScale
 70
     0
300
1'-0" = 1'-0"
140
12.0
141
12.0
290
     0
  0
ENDSEC
  0
EOF
