  0
SECTION
  2
HEADER
  9
$ACADVER
  1
AC1015
  9
$ACADMAINTVER
 70
     6
  9
$DWGCODEPAGE
  3
ANSI_1252
  9
$INSBASE
 10
0.0
 20
0.0
 30
0.0
  9
$EXTMIN
 10
0.0
 20
0.0
 30
0.0
  9
$EXTMAX
 10
297.0
 20
210.0
 30
0.0
  9
$LIMMIN
 10
0.0
 20
0.0
  9
$LIMMAX
 10
297.0
 20
210.0
  9
$ORTHOMODE
 70
     0
  9
$REGENMODE
 70
     1
  9
$FILLMODE
 70
     1
  9
$QTEXTMODE
 70
     0
  9
$MIRRTEXT
 70
     1
  9
$LTSCALE
 40
1.0
  9
$ATTMODE
 70
     1
  9
$TEXTSIZE
 40
2.0
  9
$TRACEWID
 40
1.0
  9
$TEXTSTYLE
  7
STANDARD
  9
$CLAYER
  8
0
  9
$CELTYPE
  6
ByLayer
  9
$CECOLOR
 62
   256
  9
$CELTSCALE
 40
1.0
  9
$DISPSILH
 70
     0
  9
$DIMSCALE
 40
1.0
  9
$DIMASZ
 40
3.0
  9
$DIMEXO
 40
0.0
  9
$DIMDLI
 40
3.75
  9
$DIMRND
 40
0.0
  9
$DIMDLE
 40
0.0
  9
$DIMEXE
 40
1.0
  9
$DIMTP
 40
0.0
  9
$DIMTM
 40
0.0
  9
$DIMTXT
 40
2.0
  9
$DIMCEN
 40
2.5
  9
$DIMTSZ
 40
0.0
  9
$DIMTOL
 70
     0
  9
$DIMLIM
 70
     0
  9
$DIMTIH
 70
     1
  9
$DIMTOH
 70
     1
  9
$DIMSE1
 70
     0
  9
$DIMSE2
 70
     0
  9
$DIMTAD
 70
     1
  9
$DIMZIN
 70
     0
  9
$DIMBLK
  1

  9
$DIMASO
 70
     1
  9
$DIMSHO
 70
     1
  9
$DIMPOST
  1

  9
$DIMAPOST
  1

  9
$DIMALT
 70
     0
  9
$DIMALTD
 70
     3
  9
$DIMALTF
 40
0.0393700787
  9
$DIMLFAC
 40
1.0
  9
$DIMTOFL
 70
     1
  9
$DIMTVP
 40
0.0
  9
$DIMTIX
 70
     0
  9
$DIMSOXD
 70
     0
  9
$DIMSAH
 70
     0
  9
$DIMBLK1
  1

  9
$DIMBLK2
  1

  9
$DIMSTYLE
  2
ISO-25
  9
$DIMCLRD
 70
     0
  9
$DIMCLRE
 70
     0
  9
$DIMCLRT
 70
     0
  9
$DIMTFAC
 40
1.0
  9
$DIMGAP
 40
1.524
  9
$DIMJUST
 70
     0
  9
$DIMSD1
 70
     0
  9
$DIMSD2
 70
     0
  9
$DIMTOLJ
 70
     0
  9
$DIMTZIN
 70
     0
  9
$DIMALTZ
 70
     0
  9
$DIMALTTZ
 70
     0
  9
$DIMUPT
 70
     0
  9
$DIMDEC
 70
     2
  9
$DIMTDEC
 70
     3
  9
$DIMALTU
 70
     2
  9
$DIMALTTD
 70
     3
  9
$DIMTXSTY
  7
STANDARD
  9
$DIMAUNIT
 70
     0
  9
$DIMADEC
 70
     2
  9
$DIMALTRND
 40
0.0
  9
$DIMAZIN
 70
     0
  9
$DIMDSEP
 70
    44
  9
$DIMATFIT
 70
     3
  9
$DIMFRAC
 70
     0
  9
$DIMLDRBLK
  1

  9
$DIMLUNIT
 70
     2
  9
$DIMLWD
 70
    -2
  9
$DIMLWE
 70
    -2
  9
$DIMTMOVE
 70
     0
  9
$LUNITS
 70
     2
  9
$LUPREC
 70
     2
  9
$SKETCHINC
 40
1.0
  9
$FILLETRAD
 40
10.0
  9
$AUNITS
 70
     0
  9
$AUPREC
 70
     2
  9
$MENU
  1
.
  9
$ELEVATION
 40
0.0
  9
$PELEVATION
 40
0.0
  9
$THICKNESS
 40
0.0
  9
$LIMCHECK
 70
     0
  9
$CHAMFERA
 40
10.0
  9
$CHAMFERB
 40
10.0
  9
$CHAMFERC
 40
20.0
  9
$CHAMFERD
 40
0.0
  9
$SKPOLY
 70
     0
  9
$TDCREATE
 40
2457150.454153345
  9
$TDUCREATE
 40
2457150.370820011
  9
$TDUPDATE
 40
2457150.454154201
  9
$TDUUPDATE
 40
2457150.370820868
  9
$TDINDWG
 40
0.0000000116
  9
$TDUSRTIMER
 40
0.0000000116
  9
$USRTIMER
 70
     1
  9
$ANGBASE
 50
0.0
  9
$ANGDIR
 70
     0
  9
$PDMODE
 70
     0
  9
$PDSIZE
 40
-1.0
  9
$PLINEWID
 40
0.0
  9
$SPLFRAME
 70
     0
  9
$SPLINETYPE
 70
     6
  9
$SPLINESEGS
 70
     8
  9
$HANDSEED
  5
425
  9
$SURFTAB1
 70
     6
  9
$SURFTAB2
 70
     6
  9
$SURFTYPE
 70
     6
  9
$SURFU
 70
     6
  9
$SURFV
 70
     6
  9
$UCSBASE
  2

  9
$UCSNAME
  2

  9
$UCSORG
 10
0.0
 20
0.0
 30
0.0
  9
$UCSXDIR
 10
1.0
 20
0.0
 30
0.0
  9
$UCSYDIR
 10
0.0
 20
1.0
 30
0.0
  9
$UCSORTHOREF
  2

  9
$UCSORTHOVIEW
 70
     0
  9
$UCSORGTOP
 10
0.0
 20
0.0
 30
0.0
  9
$UCSORGBOTTOM
 10
0.0
 20
0.0
 30
0.0
  9
$UCSORGLEFT
 10
0.0
 20
0.0
 30
0.0
  9
$UCSORGRIGHT
 10
0.0
 20
0.0
 30
0.0
  9
$UCSORGFRONT
 10
0.0
 20
0.0
 30
0.0
  9
$UCSORGBACK
 10
0.0
 20
0.0
 30
0.0
  9
$PUCSBASE
  2

  9
$PUCSNAME
  2

  9
$PUCSORG
 10
0.0
 20
0.0
 30
0.0
  9
$PUCSXDIR
 10
1.0
 20
0.0
 30
0.0
  9
$PUCSYDIR
 10
0.0
 20
1.0
 30
0.0
  9
$PUCSORTHOREF
  2

  9
$PUCSORTHOVIEW
 70
     0
  9
$PUCSORGTOP
 10
0.0
 20
0.0
 30
0.0
  9
$PUCSORGBOTTOM
 10
0.0
 20
0.0
 30
0.0
  9
$PUCSORGLEFT
 10
0.0
 20
0.0
 30
0.0
  9
$PUCSORGRIGHT
 10
0.0
 20
0.0
 30
0.0
  9
$PUCSORGFRONT
 10
0.0
 20
0.0
 30
0.0
  9
$PUCSORGBACK
 10
0.0
 20
0.0
 30
0.0
  9
$USERI1
 70
     0
  9
$USERI2
 70
     0
  9
$USERI3
 70
     0
  9
$USERI4
 70
     0
  9
$USERI5
 70
     0
  9
$USERR1
 40
0.0
  9
$USERR2
 40
0.0
  9
$USERR3
 40
0.0
  9
$USERR4
 40
0.0
  9
$USERR5
 40
0.0
  9
$WORLDVIEW
 70
     1
  9
$SHADEDGE
 70
     3
  9
$SHADEDIF
 70
    70
  9
$TILEMODE
 70
     1
  9
$MAXACTVP
 70
    64
  9
$PINSBASE
 10
0.0
 20
0.0
 30
0.0
  9
$PLIMCHECK
 70
     0
  9
$PEXTMIN
 10
1.0000000000E+20
 20
1.0000000000E+20
 30
1.0000000000E+20
  9
$PEXTMAX
 10
-1.0000000000E+20
 20
-1.0000000000E+20
 30
-1.0000000000E+20
  9
$PLIMMIN
 10
0.0
 20
0.0
  9
$PLIMMAX
 10
420.0
 20
297.0
  9
$UNITMODE
 70
     0
  9
$VISRETAIN
 70
     1
  9
$PLINEGEN
 70
     0
  9
$PSLTSCALE
 70
     1
  9
$TREEDEPTH
 70
  3020
  9
$CMLSTYLE
  2
Standard
  9
$CMLJUST
 70
     0
  9
$CMLSCALE
 40
20.0
  9
$PROXYGRAPHICS
 70
     1
  9
$MEASUREMENT
 70
     1
  9
$CELWEIGHT
370
    -1
  9
$ENDCAPS
280
     0
  9
$JOINSTYLE
280
     0
  9
$LWDISPLAY
290
     1
  9
$INSUNITS
 70
     4
  9
$HYPERLINKBASE
  1

  9
$STYLESHEET
  1

  9
$XEDIT
290
     1
  9
$CEPSNTYPE
380
     0
  9
$PSTYLEMODE
290
     1
  9
$FINGERPRINTGUID
  2
{D27A5707-B59D-4E44-BE77-CBC2F0879BCA}
  9
$VERSIONGUID
  2
{FAEB1C32-E019-11D5-929B-00C0DF256EC4}
  9
$EXTNAMES
290
     1
  9
$PSVPSCALE
 40
0.0
  9
$OLESTARTUP
290
     0
  0
ENDSEC
  0
SECTION
  2
CLASSES
  0
CLASS
  1
ACDBDICTIONARYWDFLT
  2
AcDbDictionaryWithDefault
  3
ObjectDBX Classes
 90
        0
280
     0
281
     0
  0
CLASS
  1
VISUALSTYLE
  2
AcDbVisualStyle
  3
ObjectDBX Classes
 90
     4095
280
     0
281
     0
  0
CLASS
  1
MATERIAL
  2
AcDbMaterial
  3
ObjectDBX Classes
 90
     1153
280
     0
281
     0
  0
CLASS
  1
ACDBPLACEHOLDER
  2
AcDbPlaceHolder
  3
ObjectDBX Classes
 90
        0
280
     0
281
     0
  0
CLASS
  1
LAYOUT
  2
AcDbLayout
  3
ObjectDBX Classes
 90
        0
280
     0
281
     0
  0
ENDSEC
  0
SECTION
  2
TABLES
  0
TABLE
  2
VPORT
  5
8
330
0
100
AcDbSymbolTable
 70
     1
  0
VPORT
  5
29
330
8
100
AcDbSymbolTableRecord
100
AcDbViewportTableRecord
  2
*Active
 70
     0
 10
0.0
 20
0.0
 11
1.0
 21
1.0
 12
148.5
 22
105.0
 13
0.0
 23
0.0
 14
10.0
 24
10.0
 15
10.0
 25
10.0
 16
0.0
 26
0.0
 36
1.0
 17
0.0
 27
0.0
 37
0.0
 40
210.0
 41
1.4142857143
 42
50.0
 43
0.0
 44
0.0
 50
0.0
 51
0.0
 71
     0
 72
  2000
 73
     1
 74
     3
 75
     0
 76
     0
 77
     0
 78
     0
281
     0
 65
     1
110
0.0
120
0.0
130
0.0
111
1.0
121
0.0
131
0.0
112
0.0
122
1.0
132
0.0
 79
     0
146
0.0
  0
ENDTAB
  0
TABLE
  2
LTYPE
  5
5
330
0
100
AcDbSymbolTable
 70
     8
  0
LTYPE
  5
14
330
5
100
AcDbSymbolTableRecord
100
AcDbLinetypeTableRecord
  2
ByBlock
 70
     0
  3

 72
    65
 73
     0
 40
0.0
  0
LTYPE
  5
15
330
5
100
AcDbSymbolTableRecord
100
AcDbLinetypeTableRecord
  2
ByLayer
 70
     0
  3

 72
    65
 73
     0
 40
0.0
  0
LTYPE
  5
16
330
5
100
AcDbSymbolTableRecord
100
AcDbLinetypeTableRecord
  2
Continuous
 70
     0
  3
Solid line
 72
    65
 73
     0
 40
0.0
  0
LTYPE
  5
3F
330
5
100
AcDbSymbolTableRecord
100
AcDbLinetypeTableRecord
  2
SLD-Durchgehend
 70
     0
  3
SolidWorks Line Style
 72
    65
 73
     0
 40
0.0
  0
LTYPE
  5
40
330
5
100
AcDbSymbolTableRecord
100
AcDbLinetypeTableRecord
  2
SLD-Gestrichelt
 70
     0
  3
SolidWorks Line Style
 72
    65
 73
     2
 40
1.905
 49
1.27
 74
     0
 49
-0.635
 74
     0
  0
LTYPE
  5
41
330
5
100
AcDbSymbolTableRecord
100
AcDbLinetypeTableRecord
  2
SLD-Phantom
 70
     0
  3
SolidWorks Line Style
 72
    65
 73
     6
 40
12.7
 49
6.35
 74
     0
 49
-1.27
 74
     0
 49
1.27
 74
     0
 49
-1.27
 74
     0
 49
1.27
 74
     0
 49
-1.27
 74
     0
  0
LTYPE
  5
42
330
5
100
AcDbSymbolTableRecord
100
AcDbLinetypeTableRecord
  2
SLD-Kette
 70
     0
  3
SolidWorks Line Style
 72
    65
 73
     4
 40
10.16
 49
6.35
 74
     0
 49
-1.27
 74
     0
 49
1.27
 74
     0
 49
-1.27
 74
     0
  0
LTYPE
  5
43
330
5
100
AcDbSymbolTableRecord
100
AcDbLinetypeTableRecord
  2
SLD-Punktstrich
 70
     0
  3
SolidWorks Line Style
 72
    65
 73
     4
 40
19.05
 49
15.24
 74
     0
 49
-1.27
 74
     0
 49
1.27
 74
     0
 49
-1.27
 74
     0
  0
LTYPE
  5
44
330
5
100
AcDbSymbolTableRecord
100
AcDbLinetypeTableRecord
  2
SLD-Naht
 70
     0
  3
SolidWorks Line Style
 72
    65
 73
     2
 40
0.635
 49
0.0
 74
     0
 49
-0.635
 74
     0
  0
LTYPE
  5
45
330
5
100
AcDbSymbolTableRecord
100
AcDbLinetypeTableRecord
  2
SLD-Dicke-Dünne-Kette
 70
     0
  3
SolidWorks Line Style
 72
    65
 73
     4
 40
10.16
 49
6.35
 74
     0
 49
-1.27
 74
     0
 49
1.27
 74
     0
 49
-1.27
 74
     0
  0
ENDTAB
  0
TABLE
  2
LAYER
  5
2
330
0
100
AcDbSymbolTable
 70
     5
  0
LAYER
  5
10
330
2
100
AcDbSymbolTableRecord
100
AcDbLayerTableRecord
  2
0
 70
     0
 62
     7
  6
Continuous
370
    -3
390
F
  0
LAYER
  5
46
330
2
100
AcDbSymbolTableRecord
100
AcDbLayerTableRecord
  2
FORMAT
 70
     0
 62
     7
  6
SLD-Durchgehend
370
    -3
390
F
  0
LAYER
  5
47
330
2
100
AcDbSymbolTableRecord
100
AcDbLayerTableRecord
  2
VERMASSUNG
 70
     0
 62
     7
  6
SLD-Durchgehend
370
    -3
390
F
  0
LAYER
  5
48
330
2
100
AcDbSymbolTableRecord
100
AcDbLayerTableRecord
  2
KOPF_DÜNN
 70
     0
 62
     7
  6
SLD-Durchgehend
370
    -3
390
F
  0
LAYER
  5
49
330
2
100
AcDbSymbolTableRecord
100
AcDbLayerTableRecord
  2
KOPF_DICK
 70
     0
 62
     7
  6
SLD-Durchgehend
370
    15
390
F
  0
ENDTAB
  0
TABLE
  2
STYLE
  5
3
330
0
100
AcDbSymbolTable
 70
     2
  0
STYLE
  5
11
330
3
100
AcDbSymbolTableRecord
100
AcDbTextStyleTableRecord
  2
STANDARD
 70
     0
 40
0.0
 41
1.0
 50
0.0
 71
     0
 42
2.0
  3
ISOCPEUR.TTF
  4

1001
ACAD
1000
ISOCPEUR
1071
       34
  0
STYLE
  5
4A
330
3
100
AcDbSymbolTableRecord
100
AcDbTextStyleTableRecord
  2
SLDTEXTSTYLE0
 70
     0
 40
0.0
 41
1.0
 50
0.0
 71
     0
 42
0.2
  3
ISOCPEUR.TTF
  4

1001
ACAD
1000
ISOCPEUR
1071
      290
  0
ENDTAB
  0
TABLE
  2
VIEW
  5
6
330
0
100
AcDbSymbolTable
 70
     0
  0
ENDTAB
  0
TABLE
  2
UCS
  5
7
330
0
100
AcDbSymbolTable
 70
     0
  0
ENDTAB
  0
TABLE
  2
APPID
  5
9
330
0
100
AcDbSymbolTable
 70
     1
  0
APPID
  5
12
330
9
100
AcDbSymbolTableRecord
100
AcDbRegAppTableRecord
  2
ACAD
 70
     0
  0
ENDTAB
  0
TABLE
  2
DIMSTYLE
  5
A
330
0
100
AcDbSymbolTable
 70
     4
100
AcDbDimStyleTable
  0
DIMSTYLE
105
27
330
A
100
AcDbSymbolTableRecord
100
AcDbDimStyleTableRecord
  2
ISO-25
 70
     0
 41
2.5
 42
0.625
 43
3.75
 44
1.25
 73
     0
 74
     0
 77
     1
 78
     8
140
2.5
141
2.5
143
0.0393700787
147
0.625
171
     3
172
     1
178
     0
271
     2
272
     2
274
     3
278
    44
283
     0
284
     8
340
11
  0
DIMSTYLE
105
265
102
{ACAD_REACTORS
330
264
330
26F
330
279
102
}
330
A
100
AcDbSymbolTableRecord
100
AcDbDimStyleTableRecord
  2
SLDDIMSTYLE0
 70
     0
 41
3.0
 44
0.0
 45
0.000000001
 73
     0
 74
     0
 77
     1
 78
    12
 79
     3
140
2.0
147
0.5
173
     1
178
     0
271
     2
272
     3
276
     2
284
    12
340
4A
  0
DIMSTYLE
105
286
102
{ACAD_REACTORS
330
285
102
}
330
A
100
AcDbSymbolTableRecord
100
AcDbDimStyleTableRecord
  2
SLDDIMSTYLE1
 70
     0
 41
3.0
 44
0.0
 45
0.000000001
 73
     0
 74
     0
 77
     1
 78
    12
 79
     3
140
2.0
141
0.0
147
0.5
173
     1
178
     0
271
     2
272
     3
276
     2
279
     1
284
    12
340
4A
  0
DIMSTYLE
105
28E
102
{ACAD_REACTORS
330
28D
330
299
102
}
330
A
100
AcDbSymbolTableRecord
100
AcDbDimStyleTableRecord
  2
SLDDIMSTYLE2
 70
     0
 41
3.0
 44
0.0
 45
0.000000001
 73
     0
 74
     0
 77
     1
 78
    12
 79
     3
140
2.0
147
0.5
172
     1
173
     1
178
     0
271
     2
272
     3
276
     2
284
    12
289
     0
340
4A
  0
ENDTAB
  0
TABLE
  2
BLOCK_RECORD
  5
1
330
0
100
AcDbSymbolTable
 70
     8
  0
BLOCK_RECORD
  5
1F
330
1
100
AcDbSymbolTableRecord
100
AcDbBlockTableRecord
  2
*Model_Space
340
22
  0
BLOCK_RECORD
  5
1B
330
1
100
AcDbSymbolTableRecord
100
AcDbBlockTableRecord
  2
*Paper_Space
340
1E
  0
BLOCK_RECORD
  5
23
330
1
100
AcDbSymbolTableRecord
100
AcDbBlockTableRecord
  2
*Paper_Space0
340
26
  0
BLOCK_RECORD
  5
266
330
1
100
AcDbSymbolTableRecord
100
AcDbBlockTableRecord
  2
_D
340
0
  0
BLOCK_RECORD
  5
270
330
1
100
AcDbSymbolTableRecord
100
AcDbBlockTableRecord
  2
_D_1
340
0
  0
BLOCK_RECORD
  5
27A
330
1
100
AcDbSymbolTableRecord
100
AcDbBlockTableRecord
  2
_D_2
340
0
  0
BLOCK_RECORD
  5
287
330
1
100
AcDbSymbolTableRecord
100
AcDbBlockTableRecord
  2
_D_3
340
0
  0
BLOCK_RECORD
  5
28F
330
1
100
AcDbSymbolTableRecord
100
AcDbBlockTableRecord
  2
_D_4
340
0
  0
BLOCK_RECORD
  5
29A
330
1
100
AcDbSymbolTableRecord
100
AcDbBlockTableRecord
  2
_D_5
340
0
  0
BLOCK_RECORD
  5
418
330
1
100
AcDbSymbolTableRecord
100
AcDbBlockTableRecord
  2
SW_CENTERMARKSYMBOL_0
340
0
102
{BLKREFS
331
423
102
}
  0
ENDTAB
  0
ENDSEC
  0
SECTION
  2
BLOCKS
  0
BLOCK
  5
20
330
1F
100
AcDbEntity
  8
0
100
AcDbBlockBegin
  2
*Model_Space
 70
     0
 10
0.0
 20
0.0
 30
0.0
  3
*Model_Space
  1

  0
ENDBLK
  5
21
330
1F
100
AcDbEntity
  8
0
100
AcDbBlockEnd
  0
BLOCK
  5
1C
330
1B
100
AcDbEntity
 67
     1
  8
0
100
AcDbBlockBegin
  2
*Paper_Space
 70
     0
 10
0.0
 20
0.0
 30
0.0
  3
*Paper_Space
  1

  0
ENDBLK
  5
1D
330
1B
100
AcDbEntity
 67
     1
  8
0
100
AcDbBlockEnd
  0
BLOCK
  5
24
330
23
100
AcDbEntity
  8
0
100
AcDbBlockBegin
  2
*Paper_Space0
 70
     0
 10
0.0
 20
0.0
 30
0.0
  3
*Paper_Space0
  1

  0
ENDBLK
  5
25
330
23
100
AcDbEntity
  8
0
100
AcDbBlockEnd
  0
BLOCK
  5
267
330
266
100
AcDbEntity
  8
0
100
AcDbBlockBegin
  2
_D
 70
     0
 10
0.0
 20
0.0
 30
0.0
  3
_D
  1

  0
SOLID
  5
269
330
266
100
AcDbEntity
  8
VERMASSUNG
100
AcDbTrace
 10
88.5590886118
 20
193.9896567035
 30
0.0
 11
91.5590886118
 21
193.5396567035
 31
0.0
 12
91.5590886118
 22
194.4396567035
 32
0.0
 13
91.5590886118
 23
194.4396567035
 33
0.0
  0
SOLID
  5
26A
330
266
100
AcDbEntity
  8
VERMASSUNG
100
AcDbTrace
 10
273.5590886118
 20
193.9896567035
 30
0.0
 11
270.5590886118
 21
194.4396567035
 31
0.0
 12
270.5590886118
 22
193.5396567035
 32
0.0
 13
270.5590886118
 23
193.5396567035
 33
0.0
  0
LINE
  5
26B
330
266
100
AcDbEntity
  8
VERMASSUNG
100
AcDbLine
 10
88.5590886118
 20
180.4882892685
 30
0.0
 11
88.5590886118
 21
194.9896567035
 31
0.0
  0
LINE
  5
26C
330
266
100
AcDbEntity
  8
VERMASSUNG
100
AcDbLine
 10
273.5590886118
 20
172.4337379929
 30
0.0
 11
273.5590886118
 21
194.9896567035
 31
0.0
  0
LINE
  5
26D
330
266
100
AcDbEntity
  8
VERMASSUNG
100
AcDbLine
 10
88.5590886118
 20
193.9896567035
 30
0.0
 11
273.5590886118
 21
193.9896567035
 31
0.0
  0
MTEXT
  5
26E
330
266
100
AcDbEntity
  8
VERMASSUNG
100
AcDbMText
 10
178.2590884788
 20
196.5896565871
 30
0.1
 40
2.0
 41
0.0
 71
     1
 72
     1
  1
185
  7
SLDTEXTSTYLE0
 73
     1
 44
1.0
  0
ENDBLK
  5
268
330
266
100
AcDbEntity
  8
0
100
AcDbBlockEnd
  0
BLOCK
  5
271
330
270
100
AcDbEntity
  8
0
100
AcDbBlockBegin
  2
_D_1
 70
     0
 10
0.0
 20
0.0
 30
0.0
  3
_D_1
  1

  0
SOLID
  5
273
330
270
100
AcDbEntity
  8
VERMASSUNG
100
AcDbTrace
 10
88.5590886118
 20
187.7033162657
 30
0.0
 11
91.5590886118
 21
187.2533162657
 31
0.0
 12
91.5590886118
 22
188.1533162657
 32
0.0
 13
91.5590886118
 23
188.1533162657
 33
0.0
  0
SOLID
  5
274
330
270
100
AcDbEntity
  8
VERMASSUNG
100
AcDbTrace
 10
238.5590886118
 20
187.7033162657
 30
0.0
 11
235.5590886118
 21
188.1533162657
 31
0.0
 12
235.5590886118
 22
187.2533162657
 32
0.0
 13
235.5590886118
 23
187.2533162657
 33
0.0
  0
LINE
  5
275
330
270
100
AcDbEntity
  8
VERMASSUNG
100
AcDbLine
 10
88.5590886118
 20
180.4882892685
 30
0.0
 11
88.5590886118
 21
188.7033162657
 31
0.0
  0
LINE
  5
276
330
270
100
AcDbEntity
  8
VERMASSUNG
100
AcDbLine
 10
238.5590886118
 20
166.7592040261
 30
0.0
 11
238.5590886118
 21
188.7033162657
 31
0.0
  0
LINE
  5
277
330
270
100
AcDbEntity
  8
VERMASSUNG
100
AcDbLine
 10
88.5590886118
 20
187.7033162657
 30
0.0
 11
238.5590886118
 21
187.7033162657
 31
0.0
  0
MTEXT
  5
278
330
270
100
AcDbEntity
  8
VERMASSUNG
100
AcDbMText
 10
160.7590884788
 20
190.3033161492
 30
0.1
 40
2.0
 41
0.0
 71
     1
 72
     1
  1
150
  7
SLDTEXTSTYLE0
 73
     1
 44
1.0
  0
ENDBLK
  5
272
330
270
100
AcDbEntity
  8
0
100
AcDbBlockEnd
  0
BLOCK
  5
27B
330
27A
100
AcDbEntity
  8
0
100
AcDbBlockBegin
  2
_D_2
 70
     0
 10
0.0
 20
0.0
 30
0.0
  3
_D_2
  1

  0
SOLID
  5
27D
330
27A
100
AcDbEntity
  8
VERMASSUNG
100
AcDbTrace
 10
43.7757404572
 20
180.9882892685
 30
0.0
 11
43.3257404572
 21
177.9882892685
 31
0.0
 12
44.2257404572
 22
177.9882892685
 32
0.0
 13
44.2257404572
 23
177.9882892685
 33
0.0
  0
SOLID
  5
27E
330
27A
100
AcDbEntity
  8
VERMASSUNG
100
AcDbTrace
 10
43.7757404572
 20
117.9882892685
 30
0.0
 11
44.2257404572
 21
120.9882892685
 31
0.0
 12
43.3257404572
 22
120.9882892685
 32
0.0
 13
43.3257404572
 23
120.9882892685
 33
0.0
  0
LINE
  5
27F
330
27A
100
AcDbEntity
  8
VERMASSUNG
100
AcDbLine
 10
89.0590886118
 20
180.9882892685
 30
0.0
 11
42.7757404572
 21
180.9882892685
 31
0.0
  0
LINE
  5
280
330
27A
100
AcDbEntity
  8
VERMASSUNG
100
AcDbLine
 10
89.0590886118
 20
117.9882892685
 30
0.0
 11
42.7757404572
 21
117.9882892685
 31
0.0
  0
LINE
  5
281
330
27A
100
AcDbEntity
  8
VERMASSUNG
100
AcDbLine
 10
43.7757404572
 20
180.9882892685
 30
0.0
 11
43.7757404572
 21
117.9882892685
 31
0.0
  0
MTEXT
  5
282
330
27A
100
AcDbEntity
  8
VERMASSUNG
100
AcDbMText
 10
40.9757404477
 20
143.0832891593
 30
0.1
 40
2.0
 41
0.0
 71
     1
 72
     1
  1
PSC
  7
SLDTEXTSTYLE0
 11
-7.044195017643634E-15
 21
1.0
 31
0.0
 73
     1
 44
1.0
  0
MTEXT
  5
283
330
27A
100
AcDbEntity
  8
VERMASSUNG
100
AcDbMText
 10
41.1757404572
 20
147.6832892613
 30
0.1
 40
2.0
 41
0.0
 71
     1
 72
     1
  1
%%c
  7
SLDTEXTSTYLE0
 11
-7.044195017643634E-15
 21
1.0
 31
0.0
 73
     1
 44
1.0
  0
MTEXT
  5
284
330
27A
100
AcDbEntity
  8
VERMASSUNG
100
AcDbMText
 10
40.9757404477
 20
151.2932897413
 30
0.1
 40
2.0
 41
0.0
 71
     1
 72
     1
  1
63
  7
SLDTEXTSTYLE0
 11
-7.044195017643634E-15
 21
1.0
 31
0.0
 73
     1
 44
1.0
  0
ENDBLK
  5
27C
330
27A
100
AcDbEntity
  8
0
100
AcDbBlockEnd
  0
BLOCK
  5
288
330
287
100
AcDbEntity
  8
0
100
AcDbBlockBegin
  2
_D_3
 70
     0
 10
0.0
 20
0.0
 30
0.0
  3
_D_3
  1

  0
SOLID
  5
28A
330
287
100
AcDbEntity
  8
VERMASSUNG
100
AcDbTrace
 10
112.3838972348
 20
166.1314242916
 30
0.0
 11
114.3929380774
 21
168.4043639943
 31
0.0
 12
113.6376434576
 22
168.8937820542
 32
0.0
 13
113.6376434576
 23
168.8937820542
 33
0.0
  0
LINE
  5
28B
330
287
100
AcDbEntity
  8
VERMASSUNG
100
AcDbLine
 10
112.3838972348
 20
166.1314242916
 30
0.0
 11
117.0061790072
 21
173.264762516
 31
0.0
  0
MTEXT
  5
28C
330
287
100
AcDbEntity
  8
VERMASSUNG
100
AcDbMText
 10
112.1052274561
 20
170.4825553296
 30
0.1
 40
2.0
 41
0.0
 71
     1
 72
     1
  1
R4
  7
SLDTEXTSTYLE0
 11
0.5437978442544023
 21
0.8392162442328347
 31
0.0
 73
     1
 44
1.0
  0
ENDBLK
  5
289
330
287
100
AcDbEntity
  8
0
100
AcDbBlockEnd
  0
BLOCK
  5
290
330
28F
100
AcDbEntity
  8
0
100
AcDbBlockBegin
  2
_D_4
 70
     0
 10
0.0
 20
0.0
 30
0.0
  3
_D_4
  1

  0
SOLID
  5
292
330
28F
100
AcDbEntity
  8
VERMASSUNG
100
AcDbTrace
 10
150.3722473003
 20
165.4882892685
 30
0.0
 11
150.8222473003
 21
168.4882892685
 31
0.0
 12
149.9222473003
 22
168.4882892685
 32
0.0
 13
149.9222473003
 23
168.4882892685
 33
0.0
  0
SOLID
  5
293
330
28F
100
AcDbEntity
  8
VERMASSUNG
100
AcDbTrace
 10
150.3722473003
 20
133.4882892685
 30
0.0
 11
149.9222473003
 21
130.4882892685
 31
0.0
 12
150.8222473003
 22
130.4882892685
 32
0.0
 13
150.8222473003
 23
130.4882892685
 33
0.0
  0
LINE
  5
294
330
28F
100
AcDbEntity
  8
VERMASSUNG
100
AcDbLine
 10
150.3722473003
 20
165.4882892685
 30
0.0
 11
150.3722473003
 21
178.6727491801
 31
0.0
  0
LINE
  5
295
330
28F
100
AcDbEntity
  8
VERMASSUNG
100
AcDbLine
 10
150.3722473003
 20
165.4882892685
 30
0.0
 11
150.3722473003
 21
133.4882892685
 31
0.0
  0
LINE
  5
296
330
28F
100
AcDbEntity
  8
VERMASSUNG
100
AcDbLine
 10
150.3722473003
 20
133.4882892685
 30
0.0
 11
150.3722473003
 21
127.4882892685
 31
0.0
  0
MTEXT
  5
297
330
28F
100
AcDbEntity
  8
VERMASSUNG
100
AcDbMText
 10
147.7722473003
 20
170.4627495294
 30
0.1
 40
2.0
 41
0.0
 71
     1
 72
     1
  1
%%c
  7
SLDTEXTSTYLE0
 11
-7.044195017643634E-15
 21
1.0
 31
0.0
 73
     1
 44
1.0
  0
MTEXT
  5
298
330
28F
100
AcDbEntity
  8
VERMASSUNG
100
AcDbMText
 10
147.5722472908
 20
174.0727495437
 30
0.1
 40
2.0
 41
0.0
 71
     1
 72
     1
  1
32
  7
SLDTEXTSTYLE0
 11
-7.044195017643634E-15
 21
1.0
 31
0.0
 73
     1
 44
1.0
  0
ENDBLK
  5
291
330
28F
100
AcDbEntity
  8
0
100
AcDbBlockEnd
  0
BLOCK
  5
29B
330
29A
100
AcDbEntity
  8
0
100
AcDbBlockBegin
  2
_D_5
 70
     0
 10
0.0
 20
0.0
 30
0.0
  3
_D_5
  1

  0
SOLID
  5
29D
330
29A
100
AcDbEntity
  8
VERMASSUNG
100
AcDbTrace
 10
242.3833738061
 20
159.7664638615
 30
0.0
 11
242.8333738061
 21
162.7664638615
 31
0.0
 12
241.9333738061
 22
162.7664638615
 32
0.0
 13
241.9333738061
 23
162.7664638615
 33
0.0
  0
SOLID
  5
29E
330
29A
100
AcDbEntity
  8
VERMASSUNG
100
AcDbTrace
 10
242.3833738061
 20
154.7664638615
 30
0.0
 11
241.9333738061
 21
151.7664638615
 31
0.0
 12
242.8333738061
 22
151.7664638615
 32
0.0
 13
242.8333738061
 23
151.7664638615
 33
0.0
  0
LINE
  5
29F
330
29A
100
AcDbEntity
  8
VERMASSUNG
100
AcDbLine
 10
242.3833738061
 20
159.7664638615
 30
0.0
 11
242.3833738061
 21
174.7394017401
 31
0.0
  0
LINE
  5
2A0
330
29A
100
AcDbEntity
  8
VERMASSUNG
100
AcDbLine
 10
242.3833738061
 20
159.7664638615
 30
0.0
 11
242.3833738061
 21
154.7664638615
 31
0.0
  0
LINE
  5
2A1
330
29A
100
AcDbEntity
  8
VERMASSUNG
100
AcDbLine
 10
242.3833738061
 20
154.7664638615
 30
0.0
 11
242.3833738061
 21
148.7664638615
 31
0.0
  0
MTEXT
  5
2A2
330
29A
100
AcDbEntity
  8
VERMASSUNG
100
AcDbMText
 10
239.7833739225
 20
169.7394013862
 30
0.1
 40
2.0
 41
0.0
 71
     1
 72
     1
  1
M
  7
SLDTEXTSTYLE0
 11
-7.044195017643634E-15
 21
1.0
 31
0.0
 73
     1
 44
1.0
  0
MTEXT
  5
2A3
330
29A
100
AcDbEntity
  8
VERMASSUNG
100
AcDbMText
 10
239.7833739225
 20
171.5394014717
 30
0.1
 40
2.0
 41
0.0
 71
     1
 72
     1
  1
5
  7
SLDTEXTSTYLE0
 11
-7.044195017643634E-15
 21
1.0
 31
0.0
 73
     1
 44
1.0
  0
ENDBLK
  5
29C
330
29A
100
AcDbEntity
  8
0
100
AcDbBlockEnd
  0
BLOCK
  5
419
330
418
100
AcDbEntity
  8
0
100
AcDbBlockBegin
  2
SW_CENTERMARKSYMBOL_0
 70
     0
 10
0.0
 20
0.0
 30
0.0
  3
SW_CENTERMARKSYMBOL_0
  1

  0
LINE
  5
41B
330
418
100
AcDbEntity
  8
VERMASSUNG
 62
     0
100
AcDbLine
 10
0.0
 20
0.0
 30
0.0
 11
0.0
 21
2.5
 31
0.0
  0
LINE
  5
41C
330
418
100
AcDbEntity
  8
VERMASSUNG
 62
     0
100
AcDbLine
 10
0.0
 20
0.0
 30
0.0
 11
-2.5
 21
0.0
 31
0.0
  0
LINE
  5
41D
330
418
100
AcDbEntity
  8
VERMASSUNG
 62
     0
100
AcDbLine
 10
0.0
 20
0.0
 30
0.0
 11
0.0
 21
-2.5
 31
0.0
  0
LINE
  5
41E
330
418
100
AcDbEntity
  8
VERMASSUNG
 62
     0
100
AcDbLine
 10
0.0
 20
0.0
 30
0.0
 11
2.5
 21
0.0
 31
0.0
  0
LINE
  5
41F
330
418
100
AcDbEntity
  8
VERMASSUNG
 62
     0
100
AcDbLine
 10
0.0
 20
5.0
 30
0.0
 11
0.0
 21
34.0
 31
0.0
  0
LINE
  5
420
330
418
100
AcDbEntity
  8
VERMASSUNG
 62
     0
100
AcDbLine
 10
-5.0
 20
0.0
 30
0.0
 11
-34.0
 21
0.0
 31
0.0
  0
LINE
  5
421
330
418
100
AcDbEntity
  8
VERMASSUNG
 62
     0
100
AcDbLine
 10
0.0
 20
-5.0
 30
0.0
 11
0.0
 21
-34.0
 31
0.0
  0
LINE
  5
422
330
418
100
AcDbEntity
  8
VERMASSUNG
 62
     0
100
AcDbLine
 10
5.0
 20
0.0
 30
0.0
 11
34.0
 21
0.0
 31
0.0
  0
ENDBLK
  5
41A
330
418
100
AcDbEntity
  8
0
100
AcDbBlockEnd
  0
ENDSEC
  0
SECTION
  2
ENTITIES
  0
MTEXT
  5
4B
330
1F
100
AcDbEntity
  8
KOPF_DÜNN
100
AcDbMText
 10
13.8892156294
 20
23.8770940835
 30
0.0
 40
3.0
 41
0.0
 71
     1
 72
     1
  1
PS6.WK2.032.185
  7
SLDTEXTSTYLE0
 73
     1
 44
1.0
  0
MTEXT
  5
4C
330
1F
100
AcDbEntity
  8
VERMASSUNG
100
AcDbMText
 10
13.9329988022
 20
28.9162328764
 30
0.0
 40
3.0
 41
0.0
 71
     1
 72
     1
  1
Grundkörper ø32
  7
SLDTEXTSTYLE0
 73
     1
 44
1.0
  0
MTEXT
  5
4D
330
1F
100
AcDbEntity
  8
VERMASSUNG
100
AcDbMText
 10
98.8601118557
 20
13.8584013384
 30
0.0
 40
2.0
 41
0.0
 71
     1
 72
     1
  1
Datum: 07.05.2015
  7
SLDTEXTSTYLE0
 73
     1
 44
1.0
  0
MTEXT
  5
4E
330
1F
100
AcDbEntity
  8
VERMASSUNG
100
AcDbMText
 10
13.933048693
 20
18.0701447943
 30
0.0
 40
2.0
 41
0.0
 71
     1
 72
     1
  1
PSC ø63 / Wechselkopf-Bohrstange
  7
SLDTEXTSTYLE0
 73
     1
 44
1.0
  0
MTEXT
  5
4F
330
1F
100
AcDbEntity
  8
VERMASSUNG
100
AcDbMText
 10
13.9808475933
 20
13.9309618897
 30
0.0
 40
2.0
 41
0.0
 71
     1
 72
     1
  1
Gewicht: 1679g
  7
SLDTEXTSTYLE0
 73
     1
 44
1.0
  0
ARC
  5
50
330
1F
100
AcDbEntity
  8
0
  6
SLD-Durchgehend
 62
     7
370
    15
100
AcDbCircle
 10
89.0590886118
 20
118.4882892685
 30
0.0
 40
0.5
100
AcDbArc
 50
180.0
 51
270.0
  0
ARC
  5
51
330
1F
100
AcDbEntity
  8
0
  6
SLD-Durchgehend
 62
     7
370
    15
100
AcDbCircle
 10
89.0590886118
 20
180.4882892685
 30
0.0
 40
0.5
100
AcDbArc
 50
90.0
 51
180.0
  0
ARC
  5
52
330
1F
100
AcDbEntity
  8
0
  6
SLD-Durchgehend
 62
     7
370
    15
100
AcDbCircle
 10
109.5590886118
 20
118.9882892685
 30
0.0
 40
1.0
100
AcDbArc
 50
270.0
 51
0.0
  0
ARC
  5
53
330
1F
100
AcDbEntity
  8
0
  6
SLD-Durchgehend
 62
     7
370
    15
100
AcDbCircle
 10
109.5590886118
 20
179.9882892685
 30
0.0
 40
1.0
100
AcDbArc
 50
0.0
 51
90.0
  0
LINE
  5
54
330
1F
100
AcDbEntity
  8
0
  6
SLD-Durchgehend
 62
     7
370
    15
100
AcDbLine
 10
102.534470463
 20
117.9882887618
 30
0.0
 11
109.5590883287
 21
117.9882887618
 31
0.0
  0
LINE
  5
55
330
1F
100
AcDbEntity
  8
0
  6
SLD-Durchgehend
 62
     7
370
    15
100
AcDbLine
 10
89.0590886355
 20
117.9882887618
 30
0.0
 11
98.5590883883
 21
117.9882887618
 31
0.0
  0
LINE
  5
56
330
1F
100
AcDbEntity
  8
0
  6
SLD-Durchgehend
 62
     7
370
    15
100
AcDbLine
 10
109.5590883287
 20
180.9882897751
 30
0.0
 11
89.0590886355
 21
180.9882897751
 31
0.0
  0
LWPOLYLINE
  5
57
330
1F
100
AcDbEntity
  8
0
  6
SLD-Durchgehend
 62
     7
370
    15
100
AcDbPolyline
 90
        3
 70
   128
 43
0.0
 10
88.3590886168
 20
126.9484687464
 10
88.484543552
 20
126.8801674114
 10
88.5590886118
 20
126.8274284767
  0
ARC
  5
58
330
1F
100
AcDbEntity
  8
0
  6
SLD-Durchgehend
 62
     7
370
    15
100
AcDbCircle
 10
87.9448750494
 20
172.9382892685
 30
0.0
 40
0.999999999999998
100
AcDbArc
 50
225.0
 51
307.8947985336
  0
ARC
  5
59
330
1F
100
AcDbEntity
  8
0
  6
SLD-Durchgehend
 62
     7
370
    15
100
AcDbCircle
 10
114.5590886118
 20
129.4882892685
 30
0.0
 40
4.0
100
AcDbArc
 50
90.0
 51
180.0
  0
ARC
  5
5A
330
1F
100
AcDbEntity
  8
0
  6
SLD-Durchgehend
 62
     7
370
    15
100
AcDbCircle
 10
114.5590886118
 20
169.4882892685
 30
0.0
 40
4.0
100
AcDbArc
 50
180.0
 51
270.0
  0
LINE
  5
5B
330
1F
100
AcDbEntity
  8
0
  6
SLD-Durchgehend
 62
     7
370
    15
100
AcDbLine
 10
237.8590827228
 20
165.4882900284
 30
0.0
 11
114.5590891482
 21
165.4882900284
 31
0.0
  0
LINE
  5
5C
330
1F
100
AcDbEntity
  8
0
  6
SLD-Durchgehend
 62
     7
370
    15
100
AcDbLine
 10
114.5590891482
 20
133.4882885085
 30
0.0
 11
237.8590827228
 21
133.4882885085
 31
0.0
  0
LINE
  5
5D
330
1F
100
AcDbEntity
  8
0
  6
SLD-Durchgehend
 62
     7
370
    15
100
AcDbLine
 10
237.8590827228
 20
133.4882885085
 30
0.0
 11
238.4998773577
 21
134.1290719675
 31
0.0
  0
LINE
  5
5E
330
1F
100
AcDbEntity
  8
0
  6
SLD-Durchgehend
 62
     7
370
    15
100
AcDbLine
 10
238.4998773577
 20
164.8475065695
 30
0.0
 11
237.8590827228
 21
165.4882900284
 31
0.0
  0
ARC
  5
5F
330
1F
100
AcDbEntity
  8
0
  6
SLD-Durchgehend
 62
     7
370
    15
100
AcDbCircle
 10
86.5590255227
 20
128.8631673728
 30
0.0
 40
0.2000000000000059
100
AcDbArc
 50
88.5608333333
 51
178.5608333333
  0
LINE
  5
60
330
1F
100
AcDbEntity
  8
0
  6
SLD-Durchgehend
 62
     7
370
    15
100
AcDbLine
 10
77.4794298576
 20
129.0912780778
 30
0.0
 11
86.3590886237
 21
128.868190931
 31
0.0
  0
LINE
  5
61
330
1F
100
AcDbEntity
  8
0
  6
SLD-Durchgehend
 62
     7
370
    15
100
AcDbLine
 10
58.9010951461
 20
129.5580308752
 30
0.0
 11
68.8837723227
 21
129.3072312938
 31
0.0
  0
ARC
  5
62
330
1F
100
AcDbEntity
  8
0
  6
SLD-Durchgehend
 62
     7
370
    15
100
AcDbCircle
 10
88.1590886118
 20
128.8229682186
 30
0.0
 40
0.2000000000000059
100
AcDbArc
 50
0.0
 51
88.5608333333
  0
LINE
  5
63
330
1F
100
AcDbEntity
  8
0
  6
SLD-Durchgehend
 62
     7
370
    15
100
AcDbLine
 10
86.5640487408
 20
129.0631037073
 30
0.0
 11
88.1641117102
 21
129.0229059623
 31
0.0
  0
LINE
  5
64
330
1F
100
AcDbEntity
  8
0
  6
SLD-Durchgehend
 62
     7
370
    15
100
AcDbLine
 10
86.3590886237
 20
172.9083884375
 30
0.0
 11
52.0590891482
 21
172.046652423
 31
0.0
  0
ARC
  5
65
330
1F
100
AcDbEntity
  8
0
  6
SLD-Durchgehend
 62
     7
370
    15
100
AcDbCircle
 10
86.5590255227
 20
172.9134111642
 30
0.0
 40
0.2000000000000059
100
AcDbArc
 50
181.4391666667
 51
271.4391666667
  0
LINE
  5
66
330
1F
100
AcDbEntity
  8
0
  6
SLD-Durchgehend
 62
     7
370
    15
100
AcDbLine
 10
86.7648278017
 20
172.7185178416
 30
0.0
 11
86.5640487408
 21
172.7134737985
 31
0.0
  0
LINE
  5
67
330
1F
100
AcDbEntity
  8
0
  6
SLD-Durchgehend
 62
     7
370
    15
100
AcDbLine
 10
52.0590891482
 20
172.046652423
 30
0.0
 11
50.5590898337
 21
171.1806267367
 31
0.0
  0
LINE
  5
68
330
1F
100
AcDbEntity
  8
0
  6
SLD-Durchgehend
 62
     7
370
    15
100
AcDbLine
 10
87.2377683062
 20
172.2311828153
 30
0.0
 11
86.7750232227
 21
172.6939272003
 31
0.0
  0
LINE
  5
69
330
1F
100
AcDbEntity
  8
0
  6
SLD-Durchgehend
 62
     7
370
    15
100
AcDbLine
 10
248.7090950252
 20
145.9601147899
 30
0.0
 11
243.9590816738
 21
145.9601147899
 31
0.0
  0
LINE
  5
6A
330
1F
100
AcDbEntity
  8
0
  6
SLD-Durchgehend
 62
     7
370
    15
100
AcDbLine
 10
243.9590816738
 20
137.4601147936
 30
0.0
 11
248.7090950252
 21
137.4601147936
 31
0.0
  0
ARC
  5
6B
330
1F
100
AcDbEntity
  8
0
  6
SLD-Durchgehend
 62
     7
370
    15
100
AcDbCircle
 10
248.7090886118
 20
145.7101146754
 30
0.0
 40
0.2500000000000284
100
AcDbArc
 50
0.0
 51
90.0
  0
ARC
  5
6C
330
1F
100
AcDbEntity
  8
0
  6
SLD-Durchgehend
 62
     7
370
    15
100
AcDbCircle
 10
248.7090886118
 20
137.7101146754
 30
0.0
 40
0.2500000000000284
100
AcDbArc
 50
270.0
 51
0.0
  0
ARC
  5
6D
330
1F
100
AcDbEntity
  8
0
  6
SLD-Durchgehend
 62
     7
370
    15
100
AcDbCircle
 10
243.7590886118
 20
139.0101146754
 30
0.0
 40
0.2000000000000171
100
AcDbArc
 50
0.0
 51
90.0
  0
ARC
  5
6E
330
1F
100
AcDbEntity
  8
0
  6
SLD-Durchgehend
 62
     7
370
    15
100
AcDbCircle
 10
243.7590886118
 20
144.4101146754
 30
0.0
 40
0.2000000000000171
100
AcDbArc
 50
270.0
 51
0.0
  0
LINE
  5
6F
330
1F
100
AcDbEntity
  8
0
  6
SLD-Durchgehend
 62
     7
370
    15
100
AcDbLine
 10
243.7590931894
 20
144.2101145031
 30
0.0
 11
238.9590864422
 21
144.2101145031
 31
0.0
  0
LINE
  5
70
330
1F
100
AcDbEntity
  8
0
  6
SLD-Durchgehend
 62
     7
370
    15
100
AcDbLine
 10
238.29330256
 20
139.2101146148
 30
0.0
 11
243.7590931894
 21
139.2101146148
 31
0.0
  0
LINE
  5
71
330
1F
100
AcDbEntity
  8
0
  6
SLD-Durchgehend
 62
     7
370
    15
100
AcDbLine
 10
248.7090950252
 20
161.5164637433
 30
0.0
 11
243.9590816738
 21
161.5164637433
 31
0.0
  0
LINE
  5
72
330
1F
100
AcDbEntity
  8
0
  6
SLD-Durchgehend
 62
     7
370
    15
100
AcDbLine
 10
243.9590816738
 20
153.016463747
 30
0.0
 11
248.7090950252
 21
153.016463747
 31
0.0
  0
ARC
  5
73
330
1F
100
AcDbEntity
  8
0
  6
SLD-Durchgehend
 62
     7
370
    15
100
AcDbCircle
 10
248.7090886118
 20
161.2664638615
 30
0.0
 40
0.2500000000000284
100
AcDbArc
 50
0.0
 51
90.0
  0
ARC
  5
74
330
1F
100
AcDbEntity
  8
0
  6
SLD-Durchgehend
 62
     7
370
    15
100
AcDbCircle
 10
248.7090886118
 20
153.2664638615
 30
0.0
 40
0.2500000000000284
100
AcDbArc
 50
270.0
 51
0.0
  0
ARC
  5
75
330
1F
100
AcDbEntity
  8
0
  6
SLD-Durchgehend
 62
     7
370
    15
100
AcDbCircle
 10
243.7590886118
 20
154.5664638615
 30
0.0
 40
0.1999999999999886
100
AcDbArc
 50
0.0
 51
90.0
  0
ARC
  5
76
330
1F
100
AcDbEntity
  8
0
  6
SLD-Durchgehend
 62
     7
370
    15
100
AcDbCircle
 10
243.7590886118
 20
159.9664638615
 30
0.0
 40
0.1999999999999886
100
AcDbArc
 50
270.0
 51
0.0
  0
LINE
  5
77
330
1F
100
AcDbEntity
  8
0
  6
SLD-Durchgehend
 62
     7
370
    15
100
AcDbLine
 10
243.7590931894
 20
159.7664639221
 30
0.0
 11
238.29330256
 21
159.7664639221
 31
0.0
  0
LINE
  5
78
330
1F
100
AcDbEntity
  8
0
  6
SLD-Durchgehend
 62
     7
370
    15
100
AcDbLine
 10
238.9590864422
 20
154.7664640339
 30
0.0
 11
243.7590931894
 21
154.7664640339
 31
0.0
  0
LINE
  5
79
330
1F
100
AcDbEntity
  8
0
  6
SLD-Durchgehend
 62
     7
370
    15
100
AcDbLine
 10
88.5590886118
 20
149.4882892685
 30
0.0
 11
88.5590886118
 21
180.4882887618
 31
0.0
  0
LINE
  5
7A
330
1F
100
AcDbEntity
  8
0
  6
SLD-Durchgehend
 62
     7
370
    15
100
AcDbLine
 10
88.5590886118
 20
118.4882897751
 30
0.0
 11
88.5590886118
 21
149.4882892685
 31
0.0
  0
LINE
  5
7B
330
1F
100
AcDbEntity
  8
0
  6
SLD-Durchgehend
 62
     7
370
    15
100
AcDbLine
 10
110.5590884926
 20
149.4882892685
 30
0.0
 11
110.5590884926
 21
179.9882896112
 31
0.0
  0
LINE
  5
7C
330
1F
100
AcDbEntity
  8
0
  6
SLD-Durchgehend
 62
     7
370
    15
100
AcDbLine
 10
110.5590884926
 20
118.9882889258
 30
0.0
 11
110.5590884926
 21
149.4882892685
 31
0.0
  0
ARC
  5
7D
330
1F
100
AcDbEntity
  8
0
  6
SLD-Durchgehend
 62
     7
370
    15
100
AcDbCircle
 10
100.5590448263
 20
86.5255540079
 30
0.0
 40
31.52623516927189
100
AcDbArc
 50
86.4075080127
 51
93.6371631425
  0
ARC
  5
7E
330
1F
100
AcDbEntity
  8
0
  6
SLD-Durchgehend
 62
     7
370
    15
100
AcDbCircle
 10
99.0515030858
 20
119.971310281
 30
0.0
 40
0.552644792827039
100
AcDbArc
 50
223.9804562779
 51
273.6666593763
  0
LINE
  5
7F
330
1F
100
AcDbEntity
  8
0
  6
SLD-Durchgehend
 62
     7
370
    15
100
AcDbLine
 10
102.0313318239
 20
119.4197967516
 30
0.0
 11
99.0868456082
 21
119.4197967516
 31
0.0
  0
ARC
  5
80
330
1F
100
AcDbEntity
  8
0
  6
SLD-Durchgehend
 62
     7
370
    15
100
AcDbCircle
 10
102.0593894311
 20
119.9901148425
 30
0.0
 40
0.5710078407187053
100
AcDbArc
 50
267.1835236459
 51
315.1693606999
  0
ELLIPSE
  5
81
330
1F
100
AcDbEntity
  8
0
  6
SLD-Durchgehend
 62
     7
370
    15
100
AcDbEllipse
 10
86.2119344224
 20
149.4882892685
 30
0.0
 11
-14.75368316065621
 21
31.09325491558116
 31
0.0
210
0.0
220
0.0
230
1.0
 40
0.3419987131
 41
3.300734856217121
 42
4.23149622336077
  0
ARC
  5
82
330
1F
100
AcDbEntity
  8
0
  6
SLD-Durchgehend
 62
     7
370
    15
100
AcDbCircle
 10
101.8524595137
 20
139.5111551793
 30
0.0
 40
0.6156261375997998
100
AcDbArc
 50
6.3196381307
 51
73.1089056582
  0
LINE
  5
83
330
1F
100
AcDbEntity
  8
0
  6
SLD-Durchgehend
 62
     7
370
    15
100
AcDbLine
 10
99.0868456082
 20
140.1002224402
 30
0.0
 11
102.0313318239
 21
140.1002224402
 31
0.0
  0
LWPOLYLINE
  5
84
330
1F
100
AcDbEntity
  8
0
  6
SLD-Durchgehend
 62
     7
370
    15
100
AcDbPolyline
 90
        6
 70
   128
 43
0.0
 10
98.6538327651
 20
139.578920217
 10
98.6992691996
 20
139.7177524732
 10
98.8264953138
 20
139.9492457377
 10
98.9071478488
 20
140.0314051525
 10
99.0103765743
 20
140.0881236287
 10
99.0868456082
 20
140.1002224402
  0
ELLIPSE
  5
85
330
1F
100
AcDbEntity
  8
0
  6
SLD-Durchgehend
 62
     7
370
    15
100
AcDbEllipse
 10
114.9062428011
 20
149.4882892685
 30
0.0
 11
14.75368316065619
 21
31.09325491558115
 31
0.0
210
0.0
220
0.0
230
1.0
 40
0.3419987131
 41
2.051689083818829
 42
2.982450450962503
  0
ARC
  5
86
330
1F
100
AcDbEntity
  8
0
  6
SLD-Durchgehend
 62
     7
370
    15
100
AcDbCircle
 10
99.2657179185
 20
159.4654233577
 30
0.0
 40
0.6156261375998453
100
AcDbArc
 50
186.3196381308
 51
253.1089056582
  0
LINE
  5
87
330
1F
100
AcDbEntity
  8
0
  6
SLD-Durchgehend
 62
     7
370
    15
100
AcDbLine
 10
102.0313318239
 20
158.8763560967
 30
0.0
 11
99.0868456082
 21
158.8763560967
 31
0.0
  0
LWPOLYLINE
  5
88
330
1F
100
AcDbEntity
  8
0
  6
SLD-Durchgehend
 62
     7
370
    15
100
AcDbPolyline
 90
        6
 70
   128
 43
0.0
 10
102.4643446671
 20
159.3976583199
 10
102.338629158
 20
159.0947139876
 10
102.2590038719
 20
158.9894624295
 10
102.1524344923
 20
158.9069928841
 10
102.0712939443
 20
158.8796445967
 10
102.0313318239
 20
158.8763560967
  0
ELLIPSE
  5
89
330
1F
100
AcDbEntity
  8
0
  6
SLD-Durchgehend
 62
     7
370
    15
100
AcDbEllipse
 10
86.2119344224
 20
149.4882892685
 30
0.0
 11
14.75368316065615
 21
31.09325491558116
 31
0.0
210
0.0
220
0.0
230
1.0
 40
0.3419987131
 41
5.193281737408627
 42
6.124043104552332
  0
ARC
  5
8A
330
1F
100
AcDbEntity
  8
0
  6
SLD-Durchgehend
 62
     7
370
    15
100
AcDbCircle
 10
102.0666743463
 20
179.0052682559
 30
0.0
 40
0.5526447928270523
100
AcDbArc
 50
43.9804562779
 51
93.6666593763
  0
LINE
  5
8B
330
1F
100
AcDbEntity
  8
0
  6
SLD-Durchgehend
 62
     7
370
    15
100
AcDbLine
 10
99.0868456082
 20
179.5567817854
 30
0.0
 11
102.0313318239
 21
179.5567817854
 31
0.0
  0
ARC
  5
8C
330
1F
100
AcDbEntity
  8
0
  6
SLD-Durchgehend
 62
     7
370
    15
100
AcDbCircle
 10
99.0679155652
 20
178.9629027007
 30
0.0
 40
0.5941807079841848
100
AcDbArc
 50
88.1743009826
 51
134.1785833632
  0
ELLIPSE
  5
8D
330
1F
100
AcDbEntity
  8
0
  6
SLD-Durchgehend
 62
     7
370
    15
100
AcDbEllipse
 10
114.9062428011
 20
149.4882892685
 30
0.0
 11
-14.75368316065617
 21
31.09325491558116
 31
0.0
210
0.0
220
0.0
230
1.0
 40
0.3419987131
 41
0.1591422026272959
 42
1.089903569770971
  0
LINE
  5
8E
330
1F
100
AcDbEntity
  8
0
  6
SLD-Durchgehend
 62
     7
370
    15
100
AcDbLine
 10
88.3590886168
 20
132.698087381
 30
0.0
 11
88.3590886168
 21
126.9484687464
 31
0.0
  0
LWPOLYLINE
  5
8F
330
1F
100
AcDbEntity
  8
0
  6
SLD-Durchgehend
 62
     7
370
    15
100
AcDbPolyline
 90
        9
 70
   128
 43
0.0
 10
88.3590886168
 20
132.698087381
 10
88.3223811633
 20
133.0071728544
 10
88.3016696261
 20
133.0630130933
 10
88.2678641591
 20
133.1184081601
 10
88.2452219611
 20
133.1399291621
 10
88.2270123929
 20
133.1505220251
 10
88.2064915148
 20
133.156359555
 10
88.1887161758
 20
133.1567022817
 10
88.1641117102
 20
133.1504456566
  0
ARC
  5
90
330
1F
100
AcDbEntity
  8
0
  6
SLD-Durchgehend
 62
     7
370
    15
100
AcDbCircle
 10
87.9780819907
 20
133.6064331608
 30
0.0
 40
0.4924750353977172
100
AcDbArc
 50
241.4315514587
 51
292.1940395248
  0
LWPOLYLINE
  5
91
330
1F
100
AcDbEntity
  8
0
  6
SLD-Durchgehend
 62
     7
370
    15
100
AcDbPolyline
 90
        3
 70
   128
 43
0.0
 10
87.742576341
 20
133.1739187108
 10
87.5404723573
 20
133.334707828
 10
87.2377683062
 20
133.9250881092
  0
ARC
  5
92
330
1F
100
AcDbEntity
  8
0
  6
SLD-Durchgehend
 62
     7
370
    15
100
AcDbCircle
 10
89.7119335124
 20
142.7582643402
 30
0.0
 40
2.478680307343534
100
AcDbArc
 50
142.6097932206
 51
176.5411871548
  0
ARC
  5
93
330
1F
100
AcDbEntity
  8
0
  6
SLD-Durchgehend
 62
     7
370
    15
100
AcDbCircle
 10
87.9664489892
 20
144.0847328896
 30
0.0
 40
0.2864392312086058
100
AcDbArc
 50
46.3644601353
 51
141.4046572264
  0
LWPOLYLINE
  5
94
330
1F
100
AcDbEntity
  8
0
  6
SLD-Durchgehend
 62
     7
370
    15
100
AcDbPolyline
 90
        9
 70
   128
 43
0.0
 10
88.1641117102
 20
144.292041553
 10
88.1857105359
 20
144.2772437686
 10
88.2057614453
 20
144.2705442997
 10
88.2264668998
 20
144.2712572271
 10
88.2428083222
 20
144.2779129239
 10
88.2652542149
 20
144.2973701151
 10
88.2953860218
 20
144.3482939021
 10
88.3429048935
 20
144.5515299083
 10
88.3590886168
 20
144.8603536801
  0
LINE
  5
95
330
1F
100
AcDbEntity
  8
0
  6
SLD-Durchgehend
 62
     7
370
    15
100
AcDbLine
 10
88.3590886168
 20
170.9064267443
 30
0.0
 11
88.3590886168
 21
144.8603536801
 31
0.0
  0
LWPOLYLINE
  5
96
330
1F
100
AcDbEntity
  8
0
  6
SLD-Durchgehend
 62
     7
370
    15
100
AcDbPolyline
 90
        9
 70
   128
 43
0.0
 10
88.3590886168
 20
170.9064267443
 10
88.3223811633
 20
171.0246097164
 10
88.3016696261
 20
171.038065465
 10
88.2678641591
 20
171.0459314154
 10
88.2452219611
 20
171.0455402599
 10
88.2270123929
 20
171.0429567711
 10
88.2064915148
 20
171.0380747782
 10
88.1887161758
 20
171.0323657708
 10
88.1641117102
 20
171.0223801302
  0
ARC
  5
97
330
1F
100
AcDbEntity
  8
0
  6
SLD-Durchgehend
 62
     7
370
    15
100
AcDbCircle
 10
87.9587155661
 20
171.4644477656
 30
0.0
 40
0.4874539673626734
100
AcDbArc
 50
243.6787033
 51
294.9208090432
  0
ARC
  5
98
330
1F
100
AcDbEntity
  8
0
  6
SLD-Durchgehend
 62
     7
370
    15
100
AcDbCircle
 10
88.2983888514
 20
172.0047467125
 30
0.0
 40
1.124222281050642
100
AcDbArc
 50
199.364891809
 51
240.3699815947
  0
ARC
  5
99
330
1F
100
AcDbEntity
  8
0
  6
SLD-Durchgehend
 62
     7
370
    15
100
AcDbCircle
 10
107.2721837764
 20
138.4164468719
 30
0.0
 40
20.53168543411515
100
AcDbArc
 50
167.3642245526
 51
192.6357754474
  0
LINE
  5
9A
330
1F
100
AcDbEntity
  8
0
  6
SLD-Durchgehend
 62
     7
370
    15
100
AcDbLine
 10
86.3590886237
 20
144.263418285
 30
0.0
 11
86.3590886237
 21
171.1706895249
 31
0.0
  0
LINE
  5
9B
330
1F
100
AcDbEntity
  8
0
  6
SLD-Durchgehend
 62
     7
370
    15
100
AcDbLine
 10
52.0590891482
 20
144.263418285
 30
0.0
 11
52.0590891482
 21
170.4244058447
 31
0.0
  0
LINE
  5
9C
330
1F
100
AcDbEntity
  8
0
  6
SLD-Durchgehend
 62
     7
370
    15
100
AcDbLine
 10
52.0590891482
 20
133.7770450728
 30
0.0
 11
52.0590891482
 21
144.263418285
 31
0.0
  0
LINE
  5
9D
330
1F
100
AcDbEntity
  8
0
  6
SLD-Durchgehend
 62
     7
370
    15
100
AcDbLine
 10
86.3590886237
 20
133.0307595299
 30
0.0
 11
86.3590886237
 21
144.263418285
 31
0.0
  0
LINE
  5
9E
330
1F
100
AcDbEntity
  8
0
  6
SLD-Durchgehend
 62
     7
370
    15
100
AcDbLine
 10
50.5590898337
 20
134.5270447301
 30
0.0
 11
50.5590898337
 21
144.263418285
 31
0.0
  0
LINE
  5
9F
330
1F
100
AcDbEntity
  8
0
  6
SLD-Durchgehend
 62
     7
370
    15
100
AcDbLine
 10
50.5590898337
 20
144.263418285
 30
0.0
 11
50.5590898337
 21
169.6744043248
 31
0.0
  0
LINE
  5
A0
330
1F
100
AcDbEntity
  8
0
  6
SLD-Durchgehend
 62
     7
370
    15
100
AcDbLine
 10
237.8590827228
 20
165.4882900284
 30
0.0
 11
237.8590827228
 21
133.4882885085
 31
0.0
  0
LWPOLYLINE
  5
A1
330
1F
100
AcDbEntity
  8
0
  6
SLD-Durchgehend
 62
     7
370
    15
100
AcDbPolyline
 90
        3
 70
   128
 43
0.0
 10
238.4569769146
 20
164.8046145083
 10
238.356900716
 20
164.7468296679
 10
238.0890821459
 20
164.5922124253
  0
ARC
  5
A2
330
1F
100
AcDbEntity
  8
0
  6
SLD-Durchgehend
 62
     7
370
    15
100
AcDbCircle
 10
238.1491079697
 20
164.4882893989
 30
0.0
 40
0.1200128949834357
100
AcDbArc
 50
120.0106821838
 51
239.9893178162
  0
LINE
  5
A3
330
1F
100
AcDbEntity
  8
0
  6
SLD-Durchgehend
 62
     7
370
    15
100
AcDbLine
 10
238.0890821459
 20
164.3843663724
 30
0.0
 11
238.9590864422
 21
163.8820715116
 31
0.0
  0
LINE
  5
A4
330
1F
100
AcDbEntity
  8
0
  6
SLD-Durchgehend
 62
     7
370
    15
100
AcDbLine
 10
238.9590864422
 20
163.8820715116
 30
0.0
 11
238.9590864422
 21
163.5945070403
 31
0.0
  0
LINE
  5
A5
330
1F
100
AcDbEntity
  8
0
  6
SLD-Durchgehend
 62
     7
370
    15
100
AcDbLine
 10
238.9590864422
 20
163.5945070403
 30
0.0
 11
238.0890821459
 21
163.0922121795
 31
0.0
  0
LWPOLYLINE
  5
A6
330
1F
100
AcDbEntity
  8
0
  6
SLD-Durchgehend
 62
     7
370
    15
100
AcDbPolyline
 90
       10
 70
   128
 43
0.0
 10
238.0890821459
 20
163.0922121795
 10
238.036495948
 20
163.0297930779
 10
238.0292688848
 20
162.9947436841
 10
238.0329643728
 20
162.9580411928
 10
238.038254285
 20
162.9423027726
 10
238.0473737957
 20
162.9246281327
 10
238.0563889982
 20
162.912086943
 10
238.0671178343
 20
162.9006521644
 10
238.0808716061
 20
162.8895666318
 10
238.0890821459
 20
162.8843661265
  0
LINE
  5
A7
330
1F
100
AcDbEntity
  8
0
  6
SLD-Durchgehend
 62
     7
370
    15
100
AcDbLine
 10
238.0890821459
 20
162.8843661265
 30
0.0
 11
238.9590864422
 21
162.3820712657
 31
0.0
  0
LINE
  5
A8
330
1F
100
AcDbEntity
  8
0
  6
SLD-Durchgehend
 62
     7
370
    15
100
AcDbLine
 10
238.9590864422
 20
162.3820712657
 30
0.0
 11
238.9590864422
 21
162.0945067944
 31
0.0
  0
LINE
  5
A9
330
1F
100
AcDbEntity
  8
0
  6
SLD-Durchgehend
 62
     7
370
    15
100
AcDbLine
 10
238.9590864422
 20
162.0945067944
 30
0.0
 11
238.0890821459
 21
161.5922119336
 31
0.0
  0
LWPOLYLINE
  5
AA
330
1F
100
AcDbEntity
  8
0
  6
SLD-Durchgehend
 62
     7
370
    15
100
AcDbPolyline
 90
        8
 70
   128
 43
0.0
 10
238.0890821459
 20
161.5922119336
 10
238.036585355
 20
161.5300256626
 10
238.0300139429
 20
161.4734394343
 10
238.0358551981
 20
161.4485805722
 10
238.0443041565
 20
161.4298023151
 10
238.0570595505
 20
161.4112820344
 10
238.070053363
 20
161.3979911299
 10
238.0890821459
 20
161.3843658807
  0
LINE
  5
AB
330
1F
100
AcDbEntity
  8
0
  6
SLD-Durchgehend
 62
     7
370
    15
100
AcDbLine
 10
238.0890821459
 20
161.3843658807
 30
0.0
 11
238.9590864422
 21
160.8820719512
 31
0.0
  0
LINE
  5
AC
330
1F
100
AcDbEntity
  8
0
  6
SLD-Durchgehend
 62
     7
370
    15
100
AcDbLine
 10
238.9590864422
 20
160.8820719512
 30
0.0
 11
238.9590864422
 21
160.5945074798
 31
0.0
  0
LINE
  5
AD
330
1F
100
AcDbEntity
  8
0
  6
SLD-Durchgehend
 62
     7
370
    15
100
AcDbLine
 10
238.9590864422
 20
160.5945074798
 30
0.0
 11
238.0890821459
 21
160.0922126191
 31
0.0
  0
ARC
  5
AE
330
1F
100
AcDbEntity
  8
0
  6
SLD-Durchgehend
 62
     7
370
    15
100
AcDbCircle
 10
238.1490985121
 20
159.9882895926
 30
0.0
 40
0.1200081649197261
100
AcDbArc
 50
120.0067721713
 51
239.9932278287
  0
LINE
  5
AF
330
1F
100
AcDbEntity
  8
0
  6
SLD-Durchgehend
 62
     7
370
    15
100
AcDbLine
 10
238.0890821459
 20
159.8843665661
 30
0.0
 11
238.9590864422
 21
159.3820717053
 31
0.0
  0
LINE
  5
B0
330
1F
100
AcDbEntity
  8
0
  6
SLD-Durchgehend
 62
     7
370
    15
100
AcDbLine
 10
238.9590864422
 20
159.3820717053
 30
0.0
 11
238.9590864422
 21
159.094507234
 31
0.0
  0
LINE
  5
B1
330
1F
100
AcDbEntity
  8
0
  6
SLD-Durchgehend
 62
     7
370
    15
100
AcDbLine
 10
238.9590864422
 20
159.094507234
 30
0.0
 11
238.0890821459
 21
158.5922123732
 31
0.0
  0
ARC
  5
B2
330
1F
100
AcDbEntity
  8
0
  6
SLD-Durchgehend
 62
     7
370
    15
100
AcDbCircle
 10
238.1491057025
 20
158.4882893467
 30
0.0
 40
0.1200117610270861
100
AcDbArc
 50
120.0097448916
 51
239.9902551084
  0
LINE
  5
B3
330
1F
100
AcDbEntity
  8
0
  6
SLD-Durchgehend
 62
     7
370
    15
100
AcDbLine
 10
238.0890821459
 20
158.3843663202
 30
0.0
 11
238.9590864422
 21
157.8820714595
 31
0.0
  0
LINE
  5
B4
330
1F
100
AcDbEntity
  8
0
  6
SLD-Durchgehend
 62
     7
370
    15
100
AcDbLine
 10
238.9590864422
 20
157.8820714595
 30
0.0
 11
238.9590864422
 21
157.5945069881
 31
0.0
  0
LINE
  5
B5
330
1F
100
AcDbEntity
  8
0
  6
SLD-Durchgehend
 62
     7
370
    15
100
AcDbLine
 10
238.9590864422
 20
157.5945069881
 30
0.0
 11
238.0890821459
 21
157.0922121273
 31
0.0
  0
ARC
  5
B6
330
1F
100
AcDbEntity
  8
0
  6
SLD-Durchgehend
 62
     7
370
    15
100
AcDbCircle
 10
238.1491025333
 20
156.9882891008
 30
0.0
 40
0.1200101759649887
100
AcDbArc
 50
120.0084346557
 51
239.9915653443
  0
LINE
  5
B7
330
1F
100
AcDbEntity
  8
0
  6
SLD-Durchgehend
 62
     7
370
    15
100
AcDbLine
 10
238.0890821459
 20
156.8843660744
 30
0.0
 11
238.9590864422
 21
156.3820716793
 31
0.0
  0
LINE
  5
B8
330
1F
100
AcDbEntity
  8
0
  6
SLD-Durchgehend
 62
     7
370
    15
100
AcDbLine
 10
238.9590864422
 20
156.3820716793
 30
0.0
 11
238.9590864422
 21
156.0945072079
 31
0.0
  0
LINE
  5
B9
330
1F
100
AcDbEntity
  8
0
  6
SLD-Durchgehend
 62
     7
370
    15
100
AcDbLine
 10
238.9590864422
 20
156.0945072079
 30
0.0
 11
238.0890821459
 21
155.5922123471
 31
0.0
  0
ARC
  5
BA
330
1F
100
AcDbEntity
  8
0
  6
SLD-Durchgehend
 62
     7
370
    15
100
AcDbCircle
 10
238.1491007696
 20
155.4882893206
 30
0.0
 40
0.1200092939091596
100
AcDbArc
 50
120.0077054978
 51
239.9922945022
  0
LINE
  5
BB
330
1F
100
AcDbEntity
  8
0
  6
SLD-Durchgehend
 62
     7
370
    15
100
AcDbLine
 10
238.0890821459
 20
155.3843662942
 30
0.0
 11
238.9590864422
 21
154.8820714334
 31
0.0
  0
LINE
  5
BC
330
1F
100
AcDbEntity
  8
0
  6
SLD-Durchgehend
 62
     7
370
    15
100
AcDbLine
 10
238.9590864422
 20
154.8820714334
 30
0.0
 11
238.9590864422
 21
154.594506962
 31
0.0
  0
LINE
  5
BD
330
1F
100
AcDbEntity
  8
0
  6
SLD-Durchgehend
 62
     7
370
    15
100
AcDbLine
 10
238.9590864422
 20
154.594506962
 30
0.0
 11
238.0890821459
 21
154.0922121012
 31
0.0
  0
ARC
  5
BE
330
1F
100
AcDbEntity
  8
0
  6
SLD-Durchgehend
 62
     7
370
    15
100
AcDbCircle
 10
238.1490884706
 20
153.9882890748
 30
0.0
 40
0.120003143476977
100
AcDbArc
 50
120.0026204532
 51
239.9973795468
  0
LINE
  5
BF
330
1F
100
AcDbEntity
  8
0
  6
SLD-Durchgehend
 62
     7
370
    15
100
AcDbLine
 10
238.0890821459
 20
153.8843660483
 30
0.0
 11
238.9590864422
 21
153.3820714203
 31
0.0
  0
LINE
  5
C0
330
1F
100
AcDbEntity
  8
0
  6
SLD-Durchgehend
 62
     7
370
    15
100
AcDbLine
 10
238.9590864422
 20
153.3820714203
 30
0.0
 11
238.9590864422
 21
153.094506949
 31
0.0
  0
LINE
  5
C1
330
1F
100
AcDbEntity
  8
0
  6
SLD-Durchgehend
 62
     7
370
    15
100
AcDbLine
 10
238.9590864422
 20
153.094506949
 30
0.0
 11
238.0890821459
 21
152.592212321
 31
0.0
  0
ARC
  5
C2
330
1F
100
AcDbEntity
  8
0
  6
SLD-Durchgehend
 62
     7
370
    15
100
AcDbCircle
 10
238.1491011685
 20
152.4882892946
 30
0.0
 40
0.1200094934217922
100
AcDbArc
 50
120.0078704287
 51
239.9921295713
  0
LINE
  5
C3
330
1F
100
AcDbEntity
  8
0
  6
SLD-Durchgehend
 62
     7
370
    15
100
AcDbLine
 10
238.0890821459
 20
152.3843662681
 30
0.0
 11
238.9590864422
 21
151.8820714073
 31
0.0
  0
LINE
  5
C4
330
1F
100
AcDbEntity
  8
0
  6
SLD-Durchgehend
 62
     7
370
    15
100
AcDbLine
 10
238.9590864422
 20
151.8820714073
 30
0.0
 11
238.9590864422
 21
151.5945069359
 31
0.0
  0
LINE
  5
C5
330
1F
100
AcDbEntity
  8
0
  6
SLD-Durchgehend
 62
     7
370
    15
100
AcDbLine
 10
238.9590864422
 20
151.5945069359
 30
0.0
 11
238.0890821459
 21
151.092212308
 31
0.0
  0
ARC
  5
C6
330
1F
100
AcDbEntity
  8
0
  6
SLD-Durchgehend
 62
     7
370
    15
100
AcDbCircle
 10
238.1490969093
 20
150.9882892815
 30
0.0
 40
0.1200073633845955
100
AcDbArc
 50
120.006109522
 51
239.993890478
  0
LINE
  5
C7
330
1F
100
AcDbEntity
  8
0
  6
SLD-Durchgehend
 62
     7
370
    15
100
AcDbLine
 10
238.0890821459
 20
150.884366255
 30
0.0
 11
238.9590864422
 21
150.3820715107
 31
0.0
  0
LINE
  5
C8
330
1F
100
AcDbEntity
  8
0
  6
SLD-Durchgehend
 62
     7
370
    15
100
AcDbLine
 10
238.9590864422
 20
150.3820715107
 30
0.0
 11
238.9590864422
 21
150.0945070393
 31
0.0
  0
LINE
  5
C9
330
1F
100
AcDbEntity
  8
0
  6
SLD-Durchgehend
 62
     7
370
    15
100
AcDbLine
 10
238.9590864422
 20
150.0945070393
 30
0.0
 11
238.0890821459
 21
149.5922123168
 31
0.0
  0
ARC
  5
CA
330
1F
100
AcDbEntity
  8
0
  6
SLD-Durchgehend
 62
     7
370
    15
100
AcDbCircle
 10
238.149092032
 20
149.4882892685
 30
0.0
 40
0.1200049432196229
100
AcDbArc
 50
120.0040877358
 51
239.9959122642
  0
LINE
  5
CB
330
1F
100
AcDbEntity
  8
0
  6
SLD-Durchgehend
 62
     7
370
    15
100
AcDbLine
 10
238.0890821459
 20
149.3843662202
 30
0.0
 11
238.9590864422
 21
148.8820714976
 31
0.0
  0
LINE
  5
CC
330
1F
100
AcDbEntity
  8
0
  6
SLD-Durchgehend
 62
     7
370
    15
100
AcDbLine
 10
238.9590864422
 20
148.8820714976
 30
0.0
 11
238.9590864422
 21
148.5945070263
 31
0.0
  0
LINE
  5
CD
330
1F
100
AcDbEntity
  8
0
  6
SLD-Durchgehend
 62
     7
370
    15
100
AcDbLine
 10
238.9590864422
 20
148.5945070263
 30
0.0
 11
238.0890821459
 21
148.0922122819
 31
0.0
  0
ARC
  5
CE
330
1F
100
AcDbEntity
  8
0
  6
SLD-Durchgehend
 62
     7
370
    15
100
AcDbCircle
 10
238.1491004335
 20
147.9882892554
 30
0.0
 40
0.1200091258195511
100
AcDbArc
 50
120.0075665423
 51
239.9924334577
  0
LINE
  5
CF
330
1F
100
AcDbEntity
  8
0
  6
SLD-Durchgehend
 62
     7
370
    15
100
AcDbLine
 10
238.0890821459
 20
147.884366229
 30
0.0
 11
238.9590864422
 21
147.382071601
 31
0.0
  0
LINE
  5
D0
330
1F
100
AcDbEntity
  8
0
  6
SLD-Durchgehend
 62
     7
370
    15
100
AcDbLine
 10
238.9590864422
 20
147.382071601
 30
0.0
 11
238.9590864422
 21
147.0945071297
 31
0.0
  0
LINE
  5
D1
330
1F
100
AcDbEntity
  8
0
  6
SLD-Durchgehend
 62
     7
370
    15
100
AcDbLine
 10
238.9590864422
 20
147.0945071297
 30
0.0
 11
238.0890821459
 21
146.5922122689
 31
0.0
  0
ARC
  5
D2
330
1F
100
AcDbEntity
  8
0
  6
SLD-Durchgehend
 62
     7
370
    15
100
AcDbCircle
 10
238.1490942626
 20
146.4882892424
 30
0.0
 40
0.1200060397921613
100
AcDbArc
 50
120.0050152264
 51
239.9949847736
  0
LINE
  5
D3
330
1F
100
AcDbEntity
  8
0
  6
SLD-Durchgehend
 62
     7
370
    15
100
AcDbLine
 10
238.0890821459
 20
146.3843662159
 30
0.0
 11
238.9590864422
 21
145.882071588
 31
0.0
  0
LINE
  5
D4
330
1F
100
AcDbEntity
  8
0
  6
SLD-Durchgehend
 62
     7
370
    15
100
AcDbLine
 10
238.9590864422
 20
145.882071588
 30
0.0
 11
238.9590864422
 21
145.5945071166
 31
0.0
  0
LINE
  5
D5
330
1F
100
AcDbEntity
  8
0
  6
SLD-Durchgehend
 62
     7
370
    15
100
AcDbLine
 10
238.9590864422
 20
145.5945071166
 30
0.0
 11
238.0890821459
 21
145.0922124887
 31
0.0
  0
ARC
  5
D6
330
1F
100
AcDbEntity
  8
0
  6
SLD-Durchgehend
 62
     7
370
    15
100
AcDbCircle
 10
238.1490907088
 20
144.9882894622
 30
0.0
 40
0.1200042626651121
100
AcDbArc
 50
120.0035458707
 51
239.9964541293
  0
LINE
  5
D7
330
1F
100
AcDbEntity
  8
0
  6
SLD-Durchgehend
 62
     7
370
    15
100
AcDbLine
 10
238.0890821459
 20
144.8843664357
 30
0.0
 11
238.9590864422
 21
144.3820715749
 31
0.0
  0
LINE
  5
D8
330
1F
100
AcDbEntity
  8
0
  6
SLD-Durchgehend
 62
     7
370
    15
100
AcDbLine
 10
238.9590864422
 20
144.3820715749
 30
0.0
 11
238.9590864422
 21
144.0945071036
 31
0.0
  0
LINE
  5
D9
330
1F
100
AcDbEntity
  8
0
  6
SLD-Durchgehend
 62
     7
370
    15
100
AcDbLine
 10
238.9590864422
 20
144.0945071036
 30
0.0
 11
238.0890821459
 21
143.5922122428
 31
0.0
  0
ARC
  5
DA
330
1F
100
AcDbEntity
  8
0
  6
SLD-Durchgehend
 62
     7
370
    15
100
AcDbCircle
 10
238.1491028672
 20
143.4882892163
 30
0.0
 40
0.1200103429697612
100
AcDbArc
 50
120.0085727084
 51
239.9914272916
  0
LINE
  5
DB
330
1F
100
AcDbEntity
  8
0
  6
SLD-Durchgehend
 62
     7
370
    15
100
AcDbLine
 10
238.0890821459
 20
143.3843661899
 30
0.0
 11
238.9590864422
 21
142.8820713291
 31
0.0
  0
LINE
  5
DC
330
1F
100
AcDbEntity
  8
0
  6
SLD-Durchgehend
 62
     7
370
    15
100
AcDbLine
 10
238.9590864422
 20
142.8820713291
 30
0.0
 11
238.9590864422
 21
142.5945068577
 31
0.0
  0
LINE
  5
DD
330
1F
100
AcDbEntity
  8
0
  6
SLD-Durchgehend
 62
     7
370
    15
100
AcDbLine
 10
238.9590864422
 20
142.5945068577
 30
0.0
 11
238.0890821459
 21
142.0922124626
 31
0.0
  0
ARC
  5
DE
330
1F
100
AcDbEntity
  8
0
  6
SLD-Durchgehend
 62
     7
370
    15
100
AcDbCircle
 10
238.1491021155
 20
141.9882894361
 30
0.0
 40
0.1200099670280157
100
AcDbArc
 50
120.0082619389
 51
239.9917380611
  0
LINE
  5
DF
330
1F
100
AcDbEntity
  8
0
  6
SLD-Durchgehend
 62
     7
370
    15
100
AcDbLine
 10
238.0890821459
 20
141.8843664096
 30
0.0
 11
238.9590864422
 21
141.3820715489
 31
0.0
  0
LINE
  5
E0
330
1F
100
AcDbEntity
  8
0
  6
SLD-Durchgehend
 62
     7
370
    15
100
AcDbLine
 10
238.9590864422
 20
141.3820715489
 30
0.0
 11
238.9590864422
 21
141.0945070775
 31
0.0
  0
LINE
  5
E1
330
1F
100
AcDbEntity
  8
0
  6
SLD-Durchgehend
 62
     7
370
    15
100
AcDbLine
 10
238.9590864422
 20
141.0945070775
 30
0.0
 11
238.0890821459
 21
140.5922122167
 31
0.0
  0
ARC
  5
E2
330
1F
100
AcDbEntity
  8
0
  6
SLD-Durchgehend
 62
     7
370
    15
100
AcDbCircle
 10
238.1491019536
 20
140.4882891903
 30
0.0
 40
0.1200098860579493
100
AcDbArc
 50
120.0081950049
 51
239.9918049951
  0
LINE
  5
E3
330
1F
100
AcDbEntity
  8
0
  6
SLD-Durchgehend
 62
     7
370
    15
100
AcDbLine
 10
238.0890821459
 20
140.3843661638
 30
0.0
 11
238.9590864422
 21
139.882071303
 31
0.0
  0
LINE
  5
E4
330
1F
100
AcDbEntity
  8
0
  6
SLD-Durchgehend
 62
     7
370
    15
100
AcDbLine
 10
238.9590864422
 20
139.882071303
 30
0.0
 11
238.9590864422
 21
139.5945068316
 31
0.0
  0
LINE
  5
E5
330
1F
100
AcDbEntity
  8
0
  6
SLD-Durchgehend
 62
     7
370
    15
100
AcDbLine
 10
238.9590864422
 20
139.5945068316
 30
0.0
 11
238.0890821459
 21
139.0922119709
 31
0.0
  0
ARC
  5
E6
330
1F
100
AcDbEntity
  8
0
  6
SLD-Durchgehend
 62
     7
370
    15
100
AcDbCircle
 10
238.1491013434
 20
138.9882889444
 30
0.0
 40
0.1200095808891301
100
AcDbArc
 50
120.0079427348
 51
239.9920572652
  0
LINE
  5
E7
330
1F
100
AcDbEntity
  8
0
  6
SLD-Durchgehend
 62
     7
370
    15
100
AcDbLine
 10
238.0890821459
 20
138.8843659179
 30
0.0
 11
238.9590864422
 21
138.3820710571
 31
0.0
  0
LINE
  5
E8
330
1F
100
AcDbEntity
  8
0
  6
SLD-Durchgehend
 62
     7
370
    15
100
AcDbLine
 10
238.9590864422
 20
138.3820710571
 30
0.0
 11
238.9590864422
 21
138.0945065858
 31
0.0
  0
LINE
  5
E9
330
1F
100
AcDbEntity
  8
0
  6
SLD-Durchgehend
 62
     7
370
    15
100
AcDbLine
 10
238.9590864422
 20
138.0945065858
 30
0.0
 11
238.0890821459
 21
137.5922126563
 31
0.0
  0
ARC
  5
EA
330
1F
100
AcDbEntity
  8
0
  6
SLD-Durchgehend
 62
     7
370
    15
100
AcDbCircle
 10
238.1491007783
 20
137.4882896298
 30
0.0
 40
0.1200092982650054
100
AcDbArc
 50
120.0077090987
 51
239.9922909013
  0
LINE
  5
EB
330
1F
100
AcDbEntity
  8
0
  6
SLD-Durchgehend
 62
     7
370
    15
100
AcDbLine
 10
238.0890821459
 20
137.3843666034
 30
0.0
 11
238.9590864422
 21
136.8820717426
 31
0.0
  0
LINE
  5
EC
330
1F
100
AcDbEntity
  8
0
  6
SLD-Durchgehend
 62
     7
370
    15
100
AcDbLine
 10
238.9590864422
 20
136.8820717426
 30
0.0
 11
238.9590864422
 21
136.5945072712
 31
0.0
  0
LINE
  5
ED
330
1F
100
AcDbEntity
  8
0
  6
SLD-Durchgehend
 62
     7
370
    15
100
AcDbLine
 10
238.9590864422
 20
136.5945072712
 30
0.0
 11
238.0890821459
 21
136.0922124104
 31
0.0
  0
LWPOLYLINE
  5
EE
330
1F
100
AcDbEntity
  8
0
  6
SLD-Durchgehend
 62
     7
370
    15
100
AcDbPolyline
 90
        9
 70
   128
 43
0.0
 10
238.0890821459
 20
136.0922124104
 10
238.0813633444
 20
136.0873499753
 10
238.0665068867
 20
136.0753591971
 10
238.0560760738
 20
136.0641153397
 10
238.0472843887
 20
136.0518274696
 10
238.038716221
 20
136.0353812443
 10
238.031220937
 20
136.0108064355
 10
238.0321746113
 20
135.9612684564
 10
238.0890821459
 20
135.8843663575
  0
LINE
  5
EF
330
1F
100
AcDbEntity
  8
0
  6
SLD-Durchgehend
 62
     7
370
    15
100
AcDbLine
 10
238.0890821459
 20
135.8843663575
 30
0.0
 11
238.9590864422
 21
135.3820714967
 31
0.0
  0
LINE
  5
F0
330
1F
100
AcDbEntity
  8
0
  6
SLD-Durchgehend
 62
     7
370
    15
100
AcDbLine
 10
238.9590864422
 20
135.3820714967
 30
0.0
 11
238.9590864422
 21
135.0945070253
 31
0.0
  0
LINE
  5
F1
330
1F
100
AcDbEntity
  8
0
  6
SLD-Durchgehend
 62
     7
370
    15
100
AcDbLine
 10
238.9590864422
 20
135.0945070253
 30
0.0
 11
238.0890821459
 21
134.5922121646
 31
0.0
  0
LWPOLYLINE
  5
F2
330
1F
100
AcDbEntity
  8
0
  6
SLD-Durchgehend
 62
     7
370
    15
100
AcDbPolyline
 90
       10
 70
   128
 43
0.0
 10
238.0890821459
 20
134.5922121646
 10
238.0778317692
 20
134.584845403
 10
238.0701725723
 20
134.5786902921
 10
238.0620961429
 20
134.5709444823
 10
238.0554800274
 20
134.5633784177
 10
238.0487745048
 20
134.554146217
 10
238.0409066917
 20
134.5402182879
 10
238.0308037044
 20
134.508523518
 10
238.0431120636
 20
134.4320060553
 10
238.0890821459
 20
134.3843661116
  0
LWPOLYLINE
  5
F3
330
1F
100
AcDbEntity
  8
0
  6
SLD-Durchgehend
 62
     7
370
    15
100
AcDbPolyline
 90
        3
 70
   128
 43
0.0
 10
238.0890821459
 20
134.3843661116
 10
238.492143655
 20
134.1516667845
 10
238.4569769146
 20
134.1719640286
  0
LINE
  5
F4
330
1F
100
AcDbEntity
  8
0
  6
SLD-Durchgehend
 62
     7
370
    15
100
AcDbLine
 10
86.3590886237
 20
128.868190931
 30
0.0
 11
86.3590886237
 21
133.0307595299
 31
0.0
  0
LINE
  5
F5
330
1F
100
AcDbEntity
  8
0
  6
SLD-Durchgehend
 62
     7
370
    15
100
AcDbLine
 10
52.0590891482
 20
129.9912989007
 30
0.0
 11
57.0090872588
 21
129.882026823
 31
0.0
  0
LINE
  5
F6
330
1F
100
AcDbEntity
  8
0
  6
SLD-Durchgehend
 62
     7
370
    15
100
AcDbLine
 10
52.0590891482
 20
129.9912989007
 30
0.0
 11
52.0590891482
 21
133.7770450728
 31
0.0
  0
LWPOLYLINE
  5
F7
330
1F
100
AcDbEntity
  8
0
  6
SLD-Durchgehend
 62
     7
370
    15
100
AcDbPolyline
 90
        5
 70
   128
 43
0.0
 10
57.0090872588
 20
129.882026823
 10
57.8801663013
 20
129.7220498191
 10
58.5994341763
 20
129.6065471934
 10
58.9315121414
 20
129.5582841949
 10
58.9012106301
 20
129.5626148449
  0
ARC
  5
F8
330
1F
100
AcDbEntity
  8
0
  6
SLD-Durchgehend
 62
     7
370
    15
100
AcDbCircle
 10
72.2908491615
 20
94.299278943
 30
0.0
 40
35.18031587467558
100
AcDbArc
 50
81.5186266954
 51
95.5572947612
  0
LINE
  5
F9
330
1F
100
AcDbEntity
  8
0
  6
SLD-Durchgehend
 62
     7
370
    15
100
AcDbLine
 10
50.5590898337
 20
130.7398103045
 30
0.0
 11
52.0590891482
 21
129.9912989007
 31
0.0
  0
LINE
  5
FA
330
1F
100
AcDbEntity
  8
0
  6
SLD-Durchgehend
 62
     7
370
    15
100
AcDbLine
 10
50.5590898337
 20
130.7398103045
 30
0.0
 11
50.5590898337
 21
134.5270447301
 31
0.0
  0
LINE
  5
FB
330
1F
100
AcDbEntity
  8
0
  6
SLD-Durchgehend
 62
     7
370
    15
100
AcDbLine
 10
86.3590886237
 20
172.9083884375
 30
0.0
 11
86.3590886237
 21
171.1706895249
 31
0.0
  0
LINE
  5
FC
330
1F
100
AcDbEntity
  8
0
  6
SLD-Durchgehend
 62
     7
370
    15
100
AcDbLine
 10
52.0590891482
 20
172.046652423
 30
0.0
 11
52.0590891482
 21
170.4244058447
 31
0.0
  0
LWPOLYLINE
  5
FD
330
1F
100
AcDbEntity
  8
0
  6
SLD-Durchgehend
 62
     7
370
    15
100
AcDbPolyline
 90
        4
 70
   128
 43
0.0
 10
86.7656796126
 20
172.6846139746
 10
86.7580171561
 20
172.7018695192
 10
86.8749923192
 20
172.4389739202
 10
87.2377683062
 20
171.6319735961
  0
LINE
  5
FE
330
1F
100
AcDbEntity
  8
0
  6
SLD-Durchgehend
 62
     7
370
    15
100
AcDbLine
 10
50.5590898337
 20
171.1806267367
 30
0.0
 11
50.5590898337
 21
169.6744043248
 31
0.0
  0
LINE
  5
FF
330
1F
100
AcDbEntity
  8
0
  6
SLD-Durchgehend
 62
     7
370
    15
100
AcDbLine
 10
243.9590816738
 20
145.9601147899
 30
0.0
 11
243.9590816738
 21
137.4601147936
 31
0.0
  0
LINE
  5
100
330
1F
100
AcDbEntity
  8
0
  6
SLD-Durchgehend
 62
     7
370
    15
100
AcDbLine
 10
248.9590918066
 20
145.7101147489
 30
0.0
 11
248.9590918066
 21
137.710114369
 31
0.0
  0
LINE
  5
101
330
1F
100
AcDbEntity
  8
0
  6
SLD-Durchgehend
 62
     7
370
    15
100
AcDbLine
 10
243.9590816738
 20
153.5939549895
 30
0.0
 11
243.9590816738
 21
153.016463747
 31
0.0
  0
LINE
  5
102
330
1F
100
AcDbEntity
  8
0
  6
SLD-Durchgehend
 62
     7
370
    15
100
AcDbLine
 10
243.9590816738
 20
161.5164637433
 30
0.0
 11
243.9590816738
 21
153.5939549895
 31
0.0
  0
LINE
  5
103
330
1F
100
AcDbEntity
  8
0
  6
SLD-Durchgehend
 62
     7
370
    15
100
AcDbLine
 10
248.9590918066
 20
153.8099850396
 30
0.0
 11
248.9590918066
 21
153.266463788
 31
0.0
  0
LINE
  5
104
330
1F
100
AcDbEntity
  8
0
  6
SLD-Durchgehend
 62
     7
370
    15
100
AcDbLine
 10
248.9590918066
 20
161.266464168
 30
0.0
 11
248.9590918066
 21
153.8099850396
 31
0.0
  0
LINE
  5
105
330
1F
100
AcDbEntity
  8
0
  6
SLD-Gestrichelt
 62
     7
370
     0
100
AcDbLine
 10
88.5590886118
 20
180.4882887618
 30
0.0
 11
88.5590886118
 21
118.4882897751
 31
0.0
  0
LINE
  5
106
330
1F
100
AcDbEntity
  8
0
  6
SLD-Gestrichelt
 62
     7
370
     0
100
AcDbLine
 10
110.5590884926
 20
179.9882896112
 30
0.0
 11
110.5590884926
 21
118.9882889258
 31
0.0
  0
LWPOLYLINE
  5
107
330
1F
100
AcDbEntity
  8
0
  6
SLD-Gestrichelt
 62
     7
370
     0
100
AcDbPolyline
 90
       11
 70
   128
 43
0.0
 10
98.5590883883
 20
117.9882887618
 10
98.6715660782
 20
117.9952289777
 10
98.9962018447
 20
118.0130209641
 10
99.4971565323
 20
118.0339161174
 10
100.118453929
 20
118.048757674
 10
100.7887295799
 20
118.0510077493
 10
101.4321747588
 20
118.039723845
 10
101.9777994024
 20
118.0198494213
 10
102.3644975739
 20
118.000045778
 10
102.5476002486
 20
117.9890151935
 10
102.534470463
 20
117.9898384826
  0
ARC
  5
108
330
1F
100
AcDbEntity
  8
0
  6
SLD-Gestrichelt
 62
     7
370
     0
100
AcDbCircle
 10
99.2657179185
 20
139.5111551793
 30
0.0
 40
0.6156261375998421
100
AcDbArc
 50
106.8910943418
 51
173.6803618693
  0
LINE
  5
109
330
1F
100
AcDbEntity
  8
0
  6
SLD-Gestrichelt
 62
     7
370
     0
100
AcDbLine
 10
102.0313318239
 20
140.1002224402
 30
0.0
 11
99.0868456082
 21
140.1002224402
 31
0.0
  0
LWPOLYLINE
  5
10A
330
1F
100
AcDbEntity
  8
0
  6
SLD-Gestrichelt
 62
     7
370
     0
100
AcDbPolyline
 90
        6
 70
   128
 43
0.0
 10
102.4643446671
 20
139.578920217
 10
102.4189073013
 20
139.7177524732
 10
102.2916821184
 20
139.9492457377
 10
102.2110295834
 20
140.0314051525
 10
102.1078008579
 20
140.0881236287
 10
102.0313318239
 20
140.1002224402
  0
ELLIPSE
  5
10B
330
1F
100
AcDbEntity
  8
0
  6
SLD-Gestrichelt
 62
     7
370
     0
100
AcDbEllipse
 10
86.2119344224
 20
149.4882892685
 30
0.0
 11
-14.75368316065608
 21
31.09325491558116
 31
0.0
210
0.0
220
0.0
230
1.0
 40
0.3419987131
 41
3.300734856217133
 42
4.231496223360782
  0
ARC
  5
10C
330
1F
100
AcDbEntity
  8
0
  6
SLD-Gestrichelt
 62
     7
370
     0
100
AcDbCircle
 10
102.0666743463
 20
119.971310281
 30
0.0
 40
0.5526447928270382
100
AcDbArc
 50
266.3333406237
 51
316.0195437221
  0
LINE
  5
10D
330
1F
100
AcDbEntity
  8
0
  6
SLD-Gestrichelt
 62
     7
370
     0
100
AcDbLine
 10
99.0868456082
 20
119.4197967516
 30
0.0
 11
102.0313318239
 21
119.4197967516
 31
0.0
  0
ARC
  5
10E
330
1F
100
AcDbEntity
  8
0
  6
SLD-Gestrichelt
 62
     7
370
     0
100
AcDbCircle
 10
99.0587865812
 20
119.9901111776
 30
0.0
 40
0.571004249930185
100
AcDbArc
 50
224.8304789342
 51
272.8166367201
  0
ELLIPSE
  5
10F
330
1F
100
AcDbEntity
  8
0
  6
SLD-Gestrichelt
 62
     7
370
     0
100
AcDbEllipse
 10
114.9062428011
 20
149.4882892685
 30
0.0
 11
14.75368316065611
 21
31.09325491558118
 31
0.0
210
0.0
220
0.0
230
1.0
 40
0.3419987131
 41
2.051689083818816
 42
2.982450450962496
  0
ARC
  5
110
330
1F
100
AcDbEntity
  8
0
  6
SLD-Gestrichelt
 62
     7
370
     0
100
AcDbCircle
 10
99.0515030858
 20
179.0052682559
 30
0.0
 40
0.5526447928270531
100
AcDbArc
 50
86.3333406237
 51
136.0195437221
  0
LINE
  5
111
330
1F
100
AcDbEntity
  8
0
  6
SLD-Gestrichelt
 62
     7
370
     0
100
AcDbLine
 10
102.0313318239
 20
179.5567817854
 30
0.0
 11
99.0868456082
 21
179.5567817854
 31
0.0
  0
ARC
  5
112
330
1F
100
AcDbEntity
  8
0
  6
SLD-Gestrichelt
 62
     7
370
     0
100
AcDbCircle
 10
102.0593894311
 20
178.9864636944
 30
0.0
 40
0.5710078407187152
100
AcDbArc
 50
44.8306393001
 51
92.8164763541
  0
ELLIPSE
  5
113
330
1F
100
AcDbEntity
  8
0
  6
SLD-Gestrichelt
 62
     7
370
     0
100
AcDbEllipse
 10
86.2119344224
 20
149.4882892685
 30
0.0
 11
14.75368316065628
 21
31.09325491558119
 31
0.0
210
0.0
220
0.0
230
1.0
 40
0.3419987131
 41
5.19328173740864
 42
6.124043104552345
  0
ARC
  5
114
330
1F
100
AcDbEntity
  8
0
  6
SLD-Gestrichelt
 62
     7
370
     0
100
AcDbCircle
 10
101.8524595137
 20
159.4654233577
 30
0.0
 40
0.6156261375998215
100
AcDbArc
 50
286.8910943418
 51
353.6803618692
  0
LINE
  5
115
330
1F
100
AcDbEntity
  8
0
  6
SLD-Gestrichelt
 62
     7
370
     0
100
AcDbLine
 10
99.0868456082
 20
158.8763560967
 30
0.0
 11
102.0313318239
 21
158.8763560967
 31
0.0
  0
LWPOLYLINE
  5
116
330
1F
100
AcDbEntity
  8
0
  6
SLD-Gestrichelt
 62
     7
370
     0
100
AcDbPolyline
 90
        6
 70
   128
 43
0.0
 10
98.6538327651
 20
159.3976583199
 10
98.6992691996
 20
159.2588260637
 10
98.8264953138
 20
159.0273327993
 10
98.9071478488
 20
158.9451733844
 10
99.0103765743
 20
158.8884549083
 10
99.0868456082
 20
158.8763560967
  0
ELLIPSE
  5
117
330
1F
100
AcDbEntity
  8
0
  6
SLD-Gestrichelt
 62
     7
370
     0
100
AcDbEllipse
 10
114.9062428011
 20
149.4882892685
 30
0.0
 11
-14.75368316065631
 21
31.09325491558118
 31
0.0
210
0.0
220
0.0
230
1.0
 40
0.3419987131
 41
0.1591422026272797
 42
1.089903569770958
  0
LINE
  5
118
330
1F
100
AcDbEntity
  8
0
  6
SLD-Gestrichelt
 62
     7
370
     0
100
AcDbLine
 10
88.5590886118
 20
125.2657569812
 30
0.0
 11
88.5590886118
 21
173.7108215557
 31
0.0
  0
ARC
  5
119
330
1F
100
AcDbEntity
  8
0
  6
SLD-Gestrichelt
 62
     7
370
     0
100
AcDbCircle
 10
87.9779063656
 20
133.6032792388
 30
0.0
 40
0.4896230013938617
100
AcDbArc
 50
241.2731071316
 51
292.3524838518
  0
LWPOLYLINE
  5
11A
330
1F
100
AcDbEntity
  8
0
  6
SLD-Gestrichelt
 62
     7
370
     0
100
AcDbPolyline
 90
        9
 70
   128
 43
0.0
 10
88.1641117102
 20
133.1504456566
 10
88.1857105359
 20
133.1563502418
 10
88.2057614453
 20
133.1564564125
 10
88.2264668998
 20
133.150758581
 10
88.2428083222
 20
133.1416521089
 10
88.2652542149
 20
133.1214237826
 10
88.2953860218
 20
133.0760162191
 10
88.3429048935
 20
132.916953774
 10
88.3590886168
 20
132.698087381
  0
LINE
  5
11B
330
1F
100
AcDbEntity
  8
0
  6
SLD-Gestrichelt
 62
     7
370
     0
100
AcDbLine
 10
88.3590886168
 20
126.9484687464
 30
0.0
 11
88.3590886168
 21
132.698087381
 31
0.0
  0
LWPOLYLINE
  5
11C
330
1F
100
AcDbEntity
  8
0
  6
SLD-Gestrichelt
 62
     7
370
     0
100
AcDbPolyline
 90
        3
 70
   128
 43
0.0
 10
87.742576341
 20
171.0275322066
 10
87.5248108877
 20
171.188939722
 10
87.2377683062
 20
171.6319735961
  0
ARC
  5
11D
330
1F
100
AcDbEntity
  8
0
  6
SLD-Gestrichelt
 62
     7
370
     0
100
AcDbCircle
 10
87.9586919186
 20
171.4625129581
 30
0.0
 40
0.4857099927023024
100
AcDbArc
 50
243.5800029126
 51
295.0195094306
  0
LWPOLYLINE
  5
11E
330
1F
100
AcDbEntity
  8
0
  6
SLD-Gestrichelt
 62
     7
370
     0
100
AcDbPolyline
 90
        9
 70
   128
 43
0.0
 10
88.1641117102
 20
171.0223801302
 10
88.1857105359
 20
171.0312742607
 10
88.2057614453
 20
171.0378661619
 10
88.2264668998
 20
171.042852463
 10
88.2428083222
 20
171.045303704
 10
88.2652542149
 20
171.0460729765
 10
88.2953860218
 20
171.0405576842
 10
88.3429048935
 20
170.9963850545
 10
88.3590886168
 20
170.9064267443
  0
LINE
  5
11F
330
1F
100
AcDbEntity
  8
0
  6
SLD-Gestrichelt
 62
     7
370
     0
100
AcDbLine
 10
88.3590886168
 20
144.8603536801
 30
0.0
 11
88.3590886168
 21
170.9064267443
 31
0.0
  0
LWPOLYLINE
  5
120
330
1F
100
AcDbEntity
  8
0
  6
SLD-Gestrichelt
 62
     7
370
     0
100
AcDbPolyline
 90
       12
 70
   128
 43
0.0
 10
88.3590886168
 20
144.8603536801
 10
88.3373769847
 20
144.5278868878
 10
88.3355526547
 20
144.4999514015
 10
88.3140303721
 20
144.4011636877
 10
88.3003331782
 20
144.3694526197
 10
88.2743417696
 20
144.3092784712
 10
88.2527081648
 20
144.2848936522
 10
88.2335153819
 20
144.2734248804
 10
88.2154803202
 20
144.2698667625
 10
88.1967803524
 20
144.2726835476
 10
88.1743427252
 20
144.2840726914
 10
88.1641117102
 20
144.292041553
  0
ARC
  5
121
330
1F
100
AcDbEntity
  8
0
  6
SLD-Gestrichelt
 62
     7
370
     0
100
AcDbCircle
 10
87.9667515289
 20
144.0802773831
 30
0.0
 40
0.2894738413577856
100
AcDbArc
 50
47.0163723267
 51
140.752745035
  0
LWPOLYLINE
  5
122
330
1F
100
AcDbEntity
  8
0
  6
SLD-Gestrichelt
 62
     7
370
     0
100
AcDbPolyline
 90
        3
 70
   128
 43
0.0
 10
87.742576341
 20
144.263418285
 10
87.5167344583
 20
143.9052763263
 10
87.2377683062
 20
142.9078056345
  0
ARC
  5
123
330
1F
100
AcDbEntity
  8
0
  6
SLD-Gestrichelt
 62
     7
370
     0
100
AcDbCircle
 10
88.3493493463
 20
134.1268957602
 30
0.0
 40
1.129751626093998
100
AcDbArc
 50
190.2899774279
 51
237.5145569944
  0
LINE
  5
124
330
1F
100
AcDbEntity
  8
0
  6
SLD-Gestrichelt
 62
     7
370
     0
100
AcDbLine
 10
88.3590886168
 20
144.8603536801
 30
0.0
 11
88.3590886168
 21
170.9064267443
 31
0.0
  0
LINE
  5
125
330
1F
100
AcDbEntity
  8
0
  6
SLD-Gestrichelt
 62
     7
370
     0
100
AcDbLine
 10
110.5590884926
 20
129.4882897155
 30
0.0
 11
110.5590884926
 21
169.4882888214
 31
0.0
  0
LINE
  5
126
330
1F
100
AcDbEntity
  8
0
  6
SLD-Gestrichelt
 62
     7
370
     0
100
AcDbLine
 10
52.0893161537
 20
134.1753382103
 30
0.0
 11
52.0893161537
 21
164.8012403266
 31
0.0
  0
LINE
  5
127
330
1F
100
AcDbEntity
  8
0
  6
SLD-Gestrichelt
 62
     7
370
     0
100
AcDbLine
 10
50.5590898337
 20
133.3192627745
 30
0.0
 11
50.5590898337
 21
165.6573157625
 31
0.0
  0
LINE
  5
128
330
1F
100
AcDbEntity
  8
0
  6
SLD-Gestrichelt
 62
     7
370
     0
100
AcDbLine
 10
237.8590827228
 20
149.4882892685
 30
0.0
 11
237.8590827228
 21
165.4882900284
 31
0.0
  0
LINE
  5
129
330
1F
100
AcDbEntity
  8
0
  6
SLD-Gestrichelt
 62
     7
370
     0
100
AcDbLine
 10
237.8590827228
 20
133.4882885085
 30
0.0
 11
237.8590827228
 21
149.4882892685
 31
0.0
  0
LINE
  5
12A
330
1F
100
AcDbEntity
  8
0
  6
SLD-Gestrichelt
 62
     7
370
     0
100
AcDbLine
 10
238.9590864422
 20
150.3820715107
 30
0.0
 11
238.0890821459
 21
150.884366255
 31
0.0
  0
ARC
  5
12B
330
1F
100
AcDbEntity
  8
0
  6
SLD-Gestrichelt
 62
     7
370
     0
100
AcDbCircle
 10
238.1491004335
 20
150.9882892815
 30
0.0
 40
0.1200091258195511
100
AcDbArc
 50
120.0075665423
 51
239.9924334577
  0
LINE
  5
12C
330
1F
100
AcDbEntity
  8
0
  6
SLD-Gestrichelt
 62
     7
370
     0
100
AcDbLine
 10
238.0890821459
 20
151.092212308
 30
0.0
 11
238.9590864422
 21
151.5945069359
 31
0.0
  0
LINE
  5
12D
330
1F
100
AcDbEntity
  8
0
  6
SLD-Gestrichelt
 62
     7
370
     0
100
AcDbLine
 10
238.9590864422
 20
151.5945069359
 30
0.0
 11
238.9590864422
 21
151.8820714073
 31
0.0
  0
LINE
  5
12E
330
1F
100
AcDbEntity
  8
0
  6
SLD-Gestrichelt
 62
     7
370
     0
100
AcDbLine
 10
238.9590864422
 20
151.8820714073
 30
0.0
 11
238.0890821459
 21
152.3843662681
 31
0.0
  0
ARC
  5
12F
330
1F
100
AcDbEntity
  8
0
  6
SLD-Gestrichelt
 62
     7
370
     0
100
AcDbCircle
 10
238.1490942626
 20
152.4882892946
 30
0.0
 40
0.1200060397921613
100
AcDbArc
 50
120.0050152264
 51
239.9949847736
  0
LINE
  5
130
330
1F
100
AcDbEntity
  8
0
  6
SLD-Gestrichelt
 62
     7
370
     0
100
AcDbLine
 10
238.0890821459
 20
152.592212321
 30
0.0
 11
238.9590864422
 21
153.094506949
 31
0.0
  0
LINE
  5
131
330
1F
100
AcDbEntity
  8
0
  6
SLD-Gestrichelt
 62
     7
370
     0
100
AcDbLine
 10
238.9590864422
 20
153.094506949
 30
0.0
 11
238.9590864422
 21
153.3820714203
 31
0.0
  0
LINE
  5
132
330
1F
100
AcDbEntity
  8
0
  6
SLD-Gestrichelt
 62
     7
370
     0
100
AcDbLine
 10
238.9590864422
 20
153.3820714203
 30
0.0
 11
238.0890821459
 21
153.8843660483
 31
0.0
  0
ARC
  5
133
330
1F
100
AcDbEntity
  8
0
  6
SLD-Gestrichelt
 62
     7
370
     0
100
AcDbCircle
 10
238.1490907088
 20
153.9882890748
 30
0.0
 40
0.1200042626651121
100
AcDbArc
 50
120.0035458707
 51
239.9964541293
  0
LINE
  5
134
330
1F
100
AcDbEntity
  8
0
  6
SLD-Gestrichelt
 62
     7
370
     0
100
AcDbLine
 10
238.0890821459
 20
154.0922121012
 30
0.0
 11
238.9590864422
 21
154.594506962
 31
0.0
  0
LINE
  5
135
330
1F
100
AcDbEntity
  8
0
  6
SLD-Gestrichelt
 62
     7
370
     0
100
AcDbLine
 10
238.9590864422
 20
154.594506962
 30
0.0
 11
238.9590864422
 21
154.8820714334
 31
0.0
  0
LINE
  5
136
330
1F
100
AcDbEntity
  8
0
  6
SLD-Gestrichelt
 62
     7
370
     0
100
AcDbLine
 10
238.9590864422
 20
154.8820714334
 30
0.0
 11
238.0890821459
 21
155.3843662942
 31
0.0
  0
ARC
  5
137
330
1F
100
AcDbEntity
  8
0
  6
SLD-Gestrichelt
 62
     7
370
     0
100
AcDbCircle
 10
238.1491028672
 20
155.4882893206
 30
0.0
 40
0.1200103429697612
100
AcDbArc
 50
120.0085727084
 51
239.9914272916
  0
LINE
  5
138
330
1F
100
AcDbEntity
  8
0
  6
SLD-Gestrichelt
 62
     7
370
     0
100
AcDbLine
 10
238.0890821459
 20
155.5922123471
 30
0.0
 11
238.9590864422
 21
156.0945072079
 31
0.0
  0
LINE
  5
139
330
1F
100
AcDbEntity
  8
0
  6
SLD-Gestrichelt
 62
     7
370
     0
100
AcDbLine
 10
238.9590864422
 20
156.0945072079
 30
0.0
 11
238.9590864422
 21
156.3820716793
 31
0.0
  0
LINE
  5
13A
330
1F
100
AcDbEntity
  8
0
  6
SLD-Gestrichelt
 62
     7
370
     0
100
AcDbLine
 10
238.9590864422
 20
156.3820716793
 30
0.0
 11
238.0890821459
 21
156.8843660744
 31
0.0
  0
ARC
  5
13B
330
1F
100
AcDbEntity
  8
0
  6
SLD-Gestrichelt
 62
     7
370
     0
100
AcDbCircle
 10
238.1491021155
 20
156.9882891008
 30
0.0
 40
0.1200099670280157
100
AcDbArc
 50
120.0082619389
 51
239.9917380611
  0
LINE
  5
13C
330
1F
100
AcDbEntity
  8
0
  6
SLD-Gestrichelt
 62
     7
370
     0
100
AcDbLine
 10
238.0890821459
 20
157.0922121273
 30
0.0
 11
238.9590864422
 21
157.5945069881
 31
0.0
  0
LINE
  5
13D
330
1F
100
AcDbEntity
  8
0
  6
SLD-Gestrichelt
 62
     7
370
     0
100
AcDbLine
 10
238.9590864422
 20
157.5945069881
 30
0.0
 11
238.9590864422
 21
157.8820714595
 31
0.0
  0
LINE
  5
13E
330
1F
100
AcDbEntity
  8
0
  6
SLD-Gestrichelt
 62
     7
370
     0
100
AcDbLine
 10
238.9590864422
 20
157.8820714595
 30
0.0
 11
238.0890821459
 21
158.3843663202
 31
0.0
  0
ARC
  5
13F
330
1F
100
AcDbEntity
  8
0
  6
SLD-Gestrichelt
 62
     7
370
     0
100
AcDbCircle
 10
238.1491019536
 20
158.4882893467
 30
0.0
 40
0.1200098860579493
100
AcDbArc
 50
120.0081950049
 51
239.9918049951
  0
LINE
  5
140
330
1F
100
AcDbEntity
  8
0
  6
SLD-Gestrichelt
 62
     7
370
     0
100
AcDbLine
 10
238.0890821459
 20
158.5922123732
 30
0.0
 11
238.9590864422
 21
159.094507234
 31
0.0
  0
LINE
  5
141
330
1F
100
AcDbEntity
  8
0
  6
SLD-Gestrichelt
 62
     7
370
     0
100
AcDbLine
 10
238.9590864422
 20
159.094507234
 30
0.0
 11
238.9590864422
 21
159.3820717053
 31
0.0
  0
LINE
  5
142
330
1F
100
AcDbEntity
  8
0
  6
SLD-Gestrichelt
 62
     7
370
     0
100
AcDbLine
 10
238.9590864422
 20
159.3820717053
 30
0.0
 11
238.0890821459
 21
159.8843665661
 31
0.0
  0
ARC
  5
143
330
1F
100
AcDbEntity
  8
0
  6
SLD-Gestrichelt
 62
     7
370
     0
100
AcDbCircle
 10
238.1491013434
 20
159.9882895926
 30
0.0
 40
0.1200095808891301
100
AcDbArc
 50
120.0079427348
 51
239.9920572652
  0
LINE
  5
144
330
1F
100
AcDbEntity
  8
0
  6
SLD-Gestrichelt
 62
     7
370
     0
100
AcDbLine
 10
238.0890821459
 20
160.0922126191
 30
0.0
 11
238.9590864422
 21
160.5945074798
 31
0.0
  0
LINE
  5
145
330
1F
100
AcDbEntity
  8
0
  6
SLD-Gestrichelt
 62
     7
370
     0
100
AcDbLine
 10
238.9590864422
 20
160.5945074798
 30
0.0
 11
238.9590864422
 21
160.8820719512
 31
0.0
  0
LINE
  5
146
330
1F
100
AcDbEntity
  8
0
  6
SLD-Gestrichelt
 62
     7
370
     0
100
AcDbLine
 10
238.9590864422
 20
160.8820719512
 30
0.0
 11
238.0890821459
 21
161.3843658807
 31
0.0
  0
ARC
  5
147
330
1F
100
AcDbEntity
  8
0
  6
SLD-Gestrichelt
 62
     7
370
     0
100
AcDbCircle
 10
238.1491007783
 20
161.4882889071
 30
0.0
 40
0.1200092982650054
100
AcDbArc
 50
120.0077090987
 51
239.9922909013
  0
LINE
  5
148
330
1F
100
AcDbEntity
  8
0
  6
SLD-Gestrichelt
 62
     7
370
     0
100
AcDbLine
 10
238.0890821459
 20
161.5922119336
 30
0.0
 11
238.9590864422
 21
162.0945067944
 31
0.0
  0
LINE
  5
149
330
1F
100
AcDbEntity
  8
0
  6
SLD-Gestrichelt
 62
     7
370
     0
100
AcDbLine
 10
238.9590864422
 20
162.0945067944
 30
0.0
 11
238.9590864422
 21
162.3820712657
 31
0.0
  0
LINE
  5
14A
330
1F
100
AcDbEntity
  8
0
  6
SLD-Gestrichelt
 62
     7
370
     0
100
AcDbLine
 10
238.9590864422
 20
162.3820712657
 30
0.0
 11
238.0890821459
 21
162.8843661265
 31
0.0
  0
LWPOLYLINE
  5
14B
330
1F
100
AcDbEntity
  8
0
  6
SLD-Gestrichelt
 62
     7
370
     0
100
AcDbPolyline
 90
        9
 70
   128
 43
0.0
 10
238.0890821459
 20
162.8843661265
 10
238.0813633444
 20
162.8892285617
 10
238.0665068867
 20
162.9012193398
 10
238.0560760738
 20
162.9124631973
 10
238.0472843887
 20
162.9247510673
 10
238.038716221
 20
162.9411972927
 10
238.031220937
 20
162.9657721015
 10
238.0321746113
 20
163.0153100805
 10
238.0890821459
 20
163.0922121795
  0
LINE
  5
14C
330
1F
100
AcDbEntity
  8
0
  6
SLD-Gestrichelt
 62
     7
370
     0
100
AcDbLine
 10
238.0890821459
 20
163.0922121795
 30
0.0
 11
238.9590864422
 21
163.5945070403
 31
0.0
  0
LINE
  5
14D
330
1F
100
AcDbEntity
  8
0
  6
SLD-Gestrichelt
 62
     7
370
     0
100
AcDbLine
 10
238.9590864422
 20
163.5945070403
 30
0.0
 11
238.9590864422
 21
163.8820715116
 31
0.0
  0
LINE
  5
14E
330
1F
100
AcDbEntity
  8
0
  6
SLD-Gestrichelt
 62
     7
370
     0
100
AcDbLine
 10
238.9590864422
 20
163.8820715116
 30
0.0
 11
238.0890821459
 21
164.3843663724
 31
0.0
  0
LWPOLYLINE
  5
14F
330
1F
100
AcDbEntity
  8
0
  6
SLD-Gestrichelt
 62
     7
370
     0
100
AcDbPolyline
 90
       10
 70
   128
 43
0.0
 10
238.0890821459
 20
164.3843663724
 10
238.0778317692
 20
164.391733134
 10
238.0701725723
 20
164.3978882449
 10
238.0620961429
 20
164.4056340547
 10
238.0554800274
 20
164.4132001193
 10
238.0487745048
 20
164.42243232
 10
238.0409066917
 20
164.4363602491
 10
238.0308037044
 20
164.4680550189
 10
238.0431120636
 20
164.5445724817
 10
238.0890821459
 20
164.5922124253
  0
LWPOLYLINE
  5
150
330
1F
100
AcDbEntity
  8
0
  6
SLD-Gestrichelt
 62
     7
370
     0
100
AcDbPolyline
 90
        3
 70
   128
 43
0.0
 10
238.0890821459
 20
164.5922124253
 10
238.492143655
 20
164.8249117525
 10
238.4569769146
 20
164.8046145083
  0
LWPOLYLINE
  5
151
330
1F
100
AcDbEntity
  8
0
  6
SLD-Gestrichelt
 62
     7
370
     0
100
AcDbPolyline
 90
        3
 70
   128
 43
0.0
 10
238.4569769146
 20
134.1719640286
 10
238.356900716
 20
134.2297488691
 10
238.0890821459
 20
134.3843661116
  0
ARC
  5
152
330
1F
100
AcDbEntity
  8
0
  6
SLD-Gestrichelt
 62
     7
370
     0
100
AcDbCircle
 10
238.1491079697
 20
134.4882891381
 30
0.0
 40
0.1200128949834357
100
AcDbArc
 50
120.0106821838
 51
239.9893178162
  0
LINE
  5
153
330
1F
100
AcDbEntity
  8
0
  6
SLD-Gestrichelt
 62
     7
370
     0
100
AcDbLine
 10
238.0890821459
 20
134.5922121646
 30
0.0
 11
238.9590864422
 21
135.0945070253
 31
0.0
  0
LINE
  5
154
330
1F
100
AcDbEntity
  8
0
  6
SLD-Gestrichelt
 62
     7
370
     0
100
AcDbLine
 10
238.9590864422
 20
135.0945070253
 30
0.0
 11
238.9590864422
 21
135.3820714967
 31
0.0
  0
LINE
  5
155
330
1F
100
AcDbEntity
  8
0
  6
SLD-Gestrichelt
 62
     7
370
     0
100
AcDbLine
 10
238.9590864422
 20
135.3820714967
 30
0.0
 11
238.0890821459
 21
135.8843663575
 31
0.0
  0
LWPOLYLINE
  5
156
330
1F
100
AcDbEntity
  8
0
  6
SLD-Gestrichelt
 62
     7
370
     0
100
AcDbPolyline
 90
       10
 70
   128
 43
0.0
 10
238.0890821459
 20
135.8843663575
 10
238.036495948
 20
135.9467854591
 10
238.0292688848
 20
135.9818348529
 10
238.0329643728
 20
136.0185373442
 10
238.038254285
 20
136.0342757644
 10
238.0473737957
 20
136.0519504042
 10
238.0563889982
 20
136.064491594
 10
238.0671178343
 20
136.0759263726
 10
238.0808716061
 20
136.0870119052
 10
238.0890821459
 20
136.0922124104
  0
LINE
  5
157
330
1F
100
AcDbEntity
  8
0
  6
SLD-Gestrichelt
 62
     7
370
     0
100
AcDbLine
 10
238.0890821459
 20
136.0922124104
 30
0.0
 11
238.9590864422
 21
136.5945072712
 31
0.0
  0
LINE
  5
158
330
1F
100
AcDbEntity
  8
0
  6
SLD-Gestrichelt
 62
     7
370
     0
100
AcDbLine
 10
238.9590864422
 20
136.5945072712
 30
0.0
 11
238.9590864422
 21
136.8820717426
 31
0.0
  0
LINE
  5
159
330
1F
100
AcDbEntity
  8
0
  6
SLD-Gestrichelt
 62
     7
370
     0
100
AcDbLine
 10
238.9590864422
 20
136.8820717426
 30
0.0
 11
238.0890821459
 21
137.3843666034
 31
0.0
  0
LWPOLYLINE
  5
15A
330
1F
100
AcDbEntity
  8
0
  6
SLD-Gestrichelt
 62
     7
370
     0
100
AcDbPolyline
 90
        8
 70
   128
 43
0.0
 10
238.0890821459
 20
137.3843666034
 10
238.036585355
 20
137.4465528743
 10
238.0300139429
 20
137.5031391026
 10
238.0358551981
 20
137.5279979648
 10
238.0443041565
 20
137.5467762219
 10
238.0570595505
 20
137.5652965026
 10
238.070053363
 20
137.578587407
 10
238.0890821459
 20
137.5922126563
  0
LINE
  5
15B
330
1F
100
AcDbEntity
  8
0
  6
SLD-Gestrichelt
 62
     7
370
     0
100
AcDbLine
 10
238.0890821459
 20
137.5922126563
 30
0.0
 11
238.9590864422
 21
138.0945065858
 31
0.0
  0
LINE
  5
15C
330
1F
100
AcDbEntity
  8
0
  6
SLD-Gestrichelt
 62
     7
370
     0
100
AcDbLine
 10
238.9590864422
 20
138.0945065858
 30
0.0
 11
238.9590864422
 21
138.3820710571
 31
0.0
  0
LINE
  5
15D
330
1F
100
AcDbEntity
  8
0
  6
SLD-Gestrichelt
 62
     7
370
     0
100
AcDbLine
 10
238.9590864422
 20
138.3820710571
 30
0.0
 11
238.0890821459
 21
138.8843659179
 31
0.0
  0
ARC
  5
15E
330
1F
100
AcDbEntity
  8
0
  6
SLD-Gestrichelt
 62
     7
370
     0
100
AcDbCircle
 10
238.1490985121
 20
138.9882889444
 30
0.0
 40
0.1200081649197261
100
AcDbArc
 50
120.0067721713
 51
239.9932278287
  0
LINE
  5
15F
330
1F
100
AcDbEntity
  8
0
  6
SLD-Gestrichelt
 62
     7
370
     0
100
AcDbLine
 10
238.0890821459
 20
139.0922119709
 30
0.0
 11
238.9590864422
 21
139.5945068316
 31
0.0
  0
LINE
  5
160
330
1F
100
AcDbEntity
  8
0
  6
SLD-Gestrichelt
 62
     7
370
     0
100
AcDbLine
 10
238.9590864422
 20
139.5945068316
 30
0.0
 11
238.9590864422
 21
139.882071303
 31
0.0
  0
LINE
  5
161
330
1F
100
AcDbEntity
  8
0
  6
SLD-Gestrichelt
 62
     7
370
     0
100
AcDbLine
 10
238.9590864422
 20
139.882071303
 30
0.0
 11
238.0890821459
 21
140.3843661638
 31
0.0
  0
ARC
  5
162
330
1F
100
AcDbEntity
  8
0
  6
SLD-Gestrichelt
 62
     7
370
     0
100
AcDbCircle
 10
238.1491057025
 20
140.4882891903
 30
0.0
 40
0.1200117610270861
100
AcDbArc
 50
120.0097448916
 51
239.9902551084
  0
LINE
  5
163
330
1F
100
AcDbEntity
  8
0
  6
SLD-Gestrichelt
 62
     7
370
     0
100
AcDbLine
 10
238.0890821459
 20
140.5922122167
 30
0.0
 11
238.9590864422
 21
141.0945070775
 31
0.0
  0
LINE
  5
164
330
1F
100
AcDbEntity
  8
0
  6
SLD-Gestrichelt
 62
     7
370
     0
100
AcDbLine
 10
238.9590864422
 20
141.0945070775
 30
0.0
 11
238.9590864422
 21
141.3820715489
 31
0.0
  0
LINE
  5
165
330
1F
100
AcDbEntity
  8
0
  6
SLD-Gestrichelt
 62
     7
370
     0
100
AcDbLine
 10
238.9590864422
 20
141.3820715489
 30
0.0
 11
238.0890821459
 21
141.8843664096
 31
0.0
  0
ARC
  5
166
330
1F
100
AcDbEntity
  8
0
  6
SLD-Gestrichelt
 62
     7
370
     0
100
AcDbCircle
 10
238.1491025333
 20
141.9882894361
 30
0.0
 40
0.1200101759649887
100
AcDbArc
 50
120.0084346557
 51
239.9915653443
  0
LINE
  5
167
330
1F
100
AcDbEntity
  8
0
  6
SLD-Gestrichelt
 62
     7
370
     0
100
AcDbLine
 10
238.0890821459
 20
142.0922124626
 30
0.0
 11
238.9590864422
 21
142.5945068577
 31
0.0
  0
LINE
  5
168
330
1F
100
AcDbEntity
  8
0
  6
SLD-Gestrichelt
 62
     7
370
     0
100
AcDbLine
 10
238.9590864422
 20
142.5945068577
 30
0.0
 11
238.9590864422
 21
142.8820713291
 31
0.0
  0
LINE
  5
169
330
1F
100
AcDbEntity
  8
0
  6
SLD-Gestrichelt
 62
     7
370
     0
100
AcDbLine
 10
238.9590864422
 20
142.8820713291
 30
0.0
 11
238.0890821459
 21
143.3843661899
 31
0.0
  0
ARC
  5
16A
330
1F
100
AcDbEntity
  8
0
  6
SLD-Gestrichelt
 62
     7
370
     0
100
AcDbCircle
 10
238.1491007696
 20
143.4882892163
 30
0.0
 40
0.1200092939091596
100
AcDbArc
 50
120.0077054978
 51
239.9922945022
  0
LINE
  5
16B
330
1F
100
AcDbEntity
  8
0
  6
SLD-Gestrichelt
 62
     7
370
     0
100
AcDbLine
 10
238.0890821459
 20
143.5922122428
 30
0.0
 11
238.9590864422
 21
144.0945071036
 31
0.0
  0
LINE
  5
16C
330
1F
100
AcDbEntity
  8
0
  6
SLD-Gestrichelt
 62
     7
370
     0
100
AcDbLine
 10
238.9590864422
 20
144.0945071036
 30
0.0
 11
238.9590864422
 21
144.3820715749
 31
0.0
  0
LINE
  5
16D
330
1F
100
AcDbEntity
  8
0
  6
SLD-Gestrichelt
 62
     7
370
     0
100
AcDbLine
 10
238.9590864422
 20
144.3820715749
 30
0.0
 11
238.0890821459
 21
144.8843664357
 31
0.0
  0
ARC
  5
16E
330
1F
100
AcDbEntity
  8
0
  6
SLD-Gestrichelt
 62
     7
370
     0
100
AcDbCircle
 10
238.1490884706
 20
144.9882894622
 30
0.0
 40
0.120003143476977
100
AcDbArc
 50
120.0026204532
 51
239.9973795468
  0
LINE
  5
16F
330
1F
100
AcDbEntity
  8
0
  6
SLD-Gestrichelt
 62
     7
370
     0
100
AcDbLine
 10
238.0890821459
 20
145.0922124887
 30
0.0
 11
238.9590864422
 21
145.5945071166
 31
0.0
  0
LINE
  5
170
330
1F
100
AcDbEntity
  8
0
  6
SLD-Gestrichelt
 62
     7
370
     0
100
AcDbLine
 10
238.9590864422
 20
145.5945071166
 30
0.0
 11
238.9590864422
 21
145.882071588
 31
0.0
  0
LINE
  5
171
330
1F
100
AcDbEntity
  8
0
  6
SLD-Gestrichelt
 62
     7
370
     0
100
AcDbLine
 10
238.9590864422
 20
145.882071588
 30
0.0
 11
238.0890821459
 21
146.3843662159
 31
0.0
  0
ARC
  5
172
330
1F
100
AcDbEntity
  8
0
  6
SLD-Gestrichelt
 62
     7
370
     0
100
AcDbCircle
 10
238.1491011685
 20
146.4882892424
 30
0.0
 40
0.1200094934217922
100
AcDbArc
 50
120.0078704287
 51
239.9921295713
  0
LINE
  5
173
330
1F
100
AcDbEntity
  8
0
  6
SLD-Gestrichelt
 62
     7
370
     0
100
AcDbLine
 10
238.0890821459
 20
146.5922122689
 30
0.0
 11
238.9590864422
 21
147.0945071297
 31
0.0
  0
LINE
  5
174
330
1F
100
AcDbEntity
  8
0
  6
SLD-Gestrichelt
 62
     7
370
     0
100
AcDbLine
 10
238.9590864422
 20
147.0945071297
 30
0.0
 11
238.9590864422
 21
147.382071601
 31
0.0
  0
LINE
  5
175
330
1F
100
AcDbEntity
  8
0
  6
SLD-Gestrichelt
 62
     7
370
     0
100
AcDbLine
 10
238.9590864422
 20
147.382071601
 30
0.0
 11
238.0890821459
 21
147.884366229
 31
0.0
  0
ARC
  5
176
330
1F
100
AcDbEntity
  8
0
  6
SLD-Gestrichelt
 62
     7
370
     0
100
AcDbCircle
 10
238.1490969093
 20
147.9882892554
 30
0.0
 40
0.1200073633845955
100
AcDbArc
 50
120.006109522
 51
239.993890478
  0
LINE
  5
177
330
1F
100
AcDbEntity
  8
0
  6
SLD-Gestrichelt
 62
     7
370
     0
100
AcDbLine
 10
238.0890821459
 20
148.0922122819
 30
0.0
 11
238.9590864422
 21
148.5945070263
 31
0.0
  0
LINE
  5
178
330
1F
100
AcDbEntity
  8
0
  6
SLD-Gestrichelt
 62
     7
370
     0
100
AcDbLine
 10
238.9590864422
 20
148.5945070263
 30
0.0
 11
238.9590864422
 21
148.8820714976
 31
0.0
  0
LINE
  5
179
330
1F
100
AcDbEntity
  8
0
  6
SLD-Gestrichelt
 62
     7
370
     0
100
AcDbLine
 10
238.9590864422
 20
148.8820714976
 30
0.0
 11
238.0890821459
 21
149.3843662202
 31
0.0
  0
ARC
  5
17A
330
1F
100
AcDbEntity
  8
0
  6
SLD-Gestrichelt
 62
     7
370
     0
100
AcDbCircle
 10
238.149092032
 20
149.4882892685
 30
0.0
 40
0.1200049432196229
100
AcDbArc
 50
120.0040877358
 51
239.9959122642
  0
LINE
  5
17B
330
1F
100
AcDbEntity
  8
0
  6
SLD-Gestrichelt
 62
     7
370
     0
100
AcDbLine
 10
238.0890821459
 20
149.5922123168
 30
0.0
 11
238.9590864422
 21
150.0945070393
 31
0.0
  0
LINE
  5
17C
330
1F
100
AcDbEntity
  8
0
  6
SLD-Gestrichelt
 62
     7
370
     0
100
AcDbLine
 10
238.9590864422
 20
150.0945070393
 30
0.0
 11
238.9590864422
 21
150.3820715107
 31
0.0
  0
LINE
  5
17D
330
1F
100
AcDbEntity
  8
0
  6
SLD-Gestrichelt
 62
     7
370
     0
100
AcDbLine
 10
58.5893162878
 20
135.1418787481
 30
0.0
 11
58.5893162878
 21
163.8346997889
 31
0.0
  0
LINE
  5
17E
330
1F
100
AcDbEntity
  8
0
  6
SLD-Gestrichelt
 62
     7
370
     0
100
AcDbLine
 10
86.3590886237
 20
133.0307595299
 30
0.0
 11
86.3590886237
 21
128.868190931
 31
0.0
  0
LINE
  5
17F
330
1F
100
AcDbEntity
  8
0
  6
SLD-Gestrichelt
 62
     7
370
     0
100
AcDbLine
 10
52.0590891482
 20
133.7770450728
 30
0.0
 11
52.0590891482
 21
129.9912989007
 31
0.0
  0
LINE
  5
180
330
1F
100
AcDbEntity
  8
0
  6
SLD-Gestrichelt
 62
     7
370
     0
100
AcDbLine
 10
57.0090872588
 20
129.882026823
 30
0.0
 11
52.0590891482
 21
129.9912989007
 31
0.0
  0
ARC
  5
181
330
1F
100
AcDbEntity
  8
0
  6
SLD-Gestrichelt
 62
     7
370
     0
100
AcDbCircle
 10
63.875718692
 20
164.7944194348
 30
0.0
 40
35.5812560925074
100
AcDbArc
 50
258.8729914676
 51
261.9633226629
  0
LWPOLYLINE
  5
182
330
1F
100
AcDbEntity
  8
0
  6
SLD-Gestrichelt
 62
     7
370
     0
100
AcDbPolyline
 90
       10
 70
   128
 43
0.0
 10
69.8702496828
 20
129.3968543278
 10
70.1068521829
 20
129.410138713
 10
70.8184701743
 20
129.4500887262
 10
72.1491531821
 20
129.4810607897
 10
73.6439342963
 20
129.4546838717
 10
75.1179897578
 20
129.3655861037
 10
76.3616313579
 20
129.2423795776
 10
77.1856720911
 20
129.1369855271
 10
77.5034104826
 20
129.0913730727
 10
77.4795192646
 20
129.0948580818
  0
LWPOLYLINE
  5
183
330
1F
100
AcDbEntity
  8
0
  6
SLD-Gestrichelt
 62
     7
370
     0
100
AcDbPolyline
 90
        5
 70
   128
 43
0.0
 10
68.883949274
 20
129.3142422901
 10
68.8832749965
 20
129.3141770975
 10
69.304769242
 20
129.3528660999
 10
69.4285382869
 20
129.3624941127
 10
69.8702496828
 20
129.3968543278
  0
LINE
  5
184
330
1F
100
AcDbEntity
  8
0
  6
SLD-Gestrichelt
 62
     7
370
     0
100
AcDbLine
 10
88.3590886168
 20
132.698087381
 30
0.0
 11
88.3590886168
 21
128.8229677694
 31
0.0
  0
LINE
  5
185
330
1F
100
AcDbEntity
  8
0
  6
SLD-Gestrichelt
 62
     7
370
     0
100
AcDbLine
 10
64.389317611
 20
135.4882888363
 30
0.0
 11
64.389317611
 21
163.4882897006
 31
0.0
  0
LINE
  5
186
330
1F
100
AcDbEntity
  8
0
  6
SLD-Gestrichelt
 62
     7
370
     0
100
AcDbLine
 10
56.9893171431
 20
135.4882888363
 30
0.0
 11
56.9893171431
 21
163.4882897006
 31
0.0
  0
LINE
  5
187
330
1F
100
AcDbEntity
  8
0
  6
SLD-Gestrichelt
 62
     7
370
     0
100
AcDbLine
 10
57.9893173071
 20
135.4882888363
 30
0.0
 11
57.9893173071
 21
163.4882897006
 31
0.0
  0
LINE
  5
188
330
1F
100
AcDbEntity
  8
0
  6
SLD-Gestrichelt
 62
     7
370
     0
100
AcDbLine
 10
77.0590885894
 20
163.4739072861
 30
0.0
 11
77.0993058922
 21
163.483841704
 31
0.0
  0
LINE
  5
189
330
1F
100
AcDbEntity
  8
0
  6
SLD-Gestrichelt
 62
     7
370
     0
100
AcDbLine
 10
77.0590885894
 20
135.5026712509
 30
0.0
 11
77.1090531142
 21
135.490802476
 31
0.0
  0
LINE
  5
18A
330
1F
100
AcDbEntity
  8
0
  6
SLD-Gestrichelt
 62
     7
370
     0
100
AcDbLine
 10
77.5590886714
 20
135.9882889183
 30
0.0
 11
77.5590886714
 21
162.9882896187
 31
0.0
  0
ARC
  5
18B
330
1F
100
AcDbEntity
  8
0
  6
SLD-Gestrichelt
 62
     7
370
     0
100
AcDbCircle
 10
72.970134016
 20
121.2983398483
 30
0.0
 40
14.78115625039614
100
AcDbArc
 50
73.9406501629
 51
105.5928935473
  0
ARC
  5
18C
330
1F
100
AcDbEntity
  8
0
  6
SLD-Gestrichelt
 62
     7
370
     0
100
AcDbCircle
 10
72.970134016
 20
177.6782386887
 30
0.0
 40
14.78115625039612
100
AcDbArc
 50
254.4071064527
 51
286.0593498371
  0
LINE
  5
18D
330
1F
100
AcDbEntity
  8
0
  6
SLD-Gestrichelt
 62
     7
370
     0
100
AcDbLine
 10
237.7590959312
 20
139.6101148667
 30
0.0
 11
237.7590959312
 21
143.8101147169
 31
0.0
  0
ARC
  5
18E
330
1F
100
AcDbEntity
  8
0
  6
SLD-Gestrichelt
 62
     7
370
     0
100
AcDbCircle
 10
238.1490882679
 20
143.4882892163
 30
0.0
 40
0.1200030421038734
100
AcDbArc
 50
120.0025366292
 51
239.9974633708
  0
LINE
  5
18F
330
1F
100
AcDbEntity
  8
0
  6
SLD-Gestrichelt
 62
     7
370
     0
100
AcDbLine
 10
238.9590864422
 20
142.5945068577
 30
0.0
 11
238.9590864422
 21
142.8820713291
 31
0.0
  0
ARC
  5
190
330
1F
100
AcDbEntity
  8
0
  6
SLD-Gestrichelt
 62
     7
370
     0
100
AcDbCircle
 10
238.1491039653
 20
141.9882894361
 30
0.0
 40
0.1200108921483404
100
AcDbArc
 50
120.0090266743
 51
239.9909733257
  0
LINE
  5
191
330
1F
100
AcDbEntity
  8
0
  6
SLD-Gestrichelt
 62
     7
370
     0
100
AcDbLine
 10
238.9590864422
 20
141.0945070775
 30
0.0
 11
238.9590864422
 21
141.3820715489
 31
0.0
  0
ARC
  5
192
330
1F
100
AcDbEntity
  8
0
  6
SLD-Gestrichelt
 62
     7
370
     0
100
AcDbCircle
 10
238.1491052854
 20
140.4882891903
 30
0.0
 40
0.1200115524095096
100
AcDbArc
 50
120.0095724502
 51
239.9904275498
  0
LINE
  5
193
330
1F
100
AcDbEntity
  8
0
  6
SLD-Gestrichelt
 62
     7
370
     0
100
AcDbLine
 10
238.9590864422
 20
139.5945068316
 30
0.0
 11
238.9590864422
 21
139.882071303
 31
0.0
  0
LINE
  5
194
330
1F
100
AcDbEntity
  8
0
  6
SLD-Gestrichelt
 62
     7
370
     0
100
AcDbLine
 10
238.9590864422
 20
144.0945071036
 30
0.0
 11
238.9590864422
 21
144.3820715749
 31
0.0
  0
LINE
  5
195
330
1F
100
AcDbEntity
  8
0
  6
SLD-Gestrichelt
 62
     7
370
     0
100
AcDbLine
 10
238.9590864422
 20
139.882071303
 30
0.0
 11
238.9590864422
 21
139.5945068316
 31
0.0
  0
LWPOLYLINE
  5
196
330
1F
100
AcDbEntity
  8
0
  6
SLD-Gestrichelt
 62
     7
370
     0
100
AcDbPolyline
 90
        6
 70
   128
 43
0.0
 10
238.9590864422
 20
139.5945068316
 10
238.546130562
 20
139.3560835959
 10
238.2760917189
 20
139.2001764716
 10
238.2383619787
 20
139.1783965619
 10
238.546130562
 20
139.3560854586
 10
238.9590864422
 20
139.5945068316
  0
LINE
  5
197
330
1F
100
AcDbEntity
  8
0
  6
SLD-Gestrichelt
 62
     7
370
     0
100
AcDbLine
 10
238.9590864422
 20
141.3820715489
 30
0.0
 11
238.9590864422
 21
141.0945070775
 31
0.0
  0
ARC
  5
198
330
1F
100
AcDbEntity
  8
0
  6
SLD-Gestrichelt
 62
     7
370
     0
100
AcDbCircle
 10
238.1490967906
 20
140.4882891903
 30
0.0
 40
0.120007304007901
100
AcDbArc
 50
120.0060604329
 51
239.9939395671
  0
LINE
  5
199
330
1F
100
AcDbEntity
  8
0
  6
SLD-Gestrichelt
 62
     7
370
     0
100
AcDbLine
 10
238.9590864422
 20
142.8820713291
 30
0.0
 11
238.9590864422
 21
142.5945068577
 31
0.0
  0
ARC
  5
19A
330
1F
100
AcDbEntity
  8
0
  6
SLD-Gestrichelt
 62
     7
370
     0
100
AcDbCircle
 10
238.1490980805
 20
141.9882894361
 30
0.0
 40
0.1200079490769689
100
AcDbArc
 50
120.0065937308
 51
239.9934062692
  0
LINE
  5
19B
330
1F
100
AcDbEntity
  8
0
  6
SLD-Gestrichelt
 62
     7
370
     0
100
AcDbLine
 10
238.9590864422
 20
144.3820715749
 30
0.0
 11
238.9590864422
 21
144.0945071036
 31
0.0
  0
ARC
  5
19C
330
1F
100
AcDbEntity
  8
0
  6
SLD-Gestrichelt
 62
     7
370
     0
100
AcDbCircle
 10
238.1490955512
 20
143.4882892163
 30
0.0
 40
0.1200066841941786
100
AcDbArc
 50
120.0055480009
 51
239.9944519991
  0
LWPOLYLINE
  5
19D
330
1F
100
AcDbEntity
  8
0
  6
SLD-Gestrichelt
 62
     7
370
     0
100
AcDbPolyline
 90
        4
 70
   128
 43
0.0
 10
238.9590864422
 20
144.3820715749
 10
238.5661279203
 20
144.6089454794
 10
238.7623613121
 20
144.4956542792
 10
238.9590864422
 20
144.3820715749
  0
LINE
  5
19E
330
1F
100
AcDbEntity
  8
0
  6
SLD-Gestrichelt
 62
     7
370
     0
100
AcDbLine
 10
237.7590959312
 20
155.1664638201
 30
0.0
 11
237.7590959312
 21
159.3664636703
 31
0.0
  0
LINE
  5
19F
330
1F
100
AcDbEntity
  8
0
  6
SLD-Gestrichelt
 62
     7
370
     0
100
AcDbLine
 10
238.9590864422
 20
159.094507234
 30
0.0
 11
238.9590864422
 21
159.3820717053
 31
0.0
  0
ARC
  5
1A0
330
1F
100
AcDbEntity
  8
0
  6
SLD-Gestrichelt
 62
     7
370
     0
100
AcDbCircle
 10
238.1490967906
 20
158.4882893467
 30
0.0
 40
0.120007304007901
100
AcDbArc
 50
120.0060604329
 51
239.9939395671
  0
LINE
  5
1A1
330
1F
100
AcDbEntity
  8
0
  6
SLD-Gestrichelt
 62
     7
370
     0
100
AcDbLine
 10
238.9590864422
 20
157.5945069881
 30
0.0
 11
238.9590864422
 21
157.8820714595
 31
0.0
  0
ARC
  5
1A2
330
1F
100
AcDbEntity
  8
0
  6
SLD-Gestrichelt
 62
     7
370
     0
100
AcDbCircle
 10
238.1490980805
 20
156.9882891008
 30
0.0
 40
0.1200079490769689
100
AcDbArc
 50
120.0065937308
 51
239.9934062692
  0
LINE
  5
1A3
330
1F
100
AcDbEntity
  8
0
  6
SLD-Gestrichelt
 62
     7
370
     0
100
AcDbLine
 10
238.9590864422
 20
156.0945072079
 30
0.0
 11
238.9590864422
 21
156.3820716793
 31
0.0
  0
ARC
  5
1A4
330
1F
100
AcDbEntity
  8
0
  6
SLD-Gestrichelt
 62
     7
370
     0
100
AcDbCircle
 10
238.1490955512
 20
155.4882893206
 30
0.0
 40
0.1200066841941786
100
AcDbArc
 50
120.0055480009
 51
239.9944519991
  0
LINE
  5
1A5
330
1F
100
AcDbEntity
  8
0
  6
SLD-Gestrichelt
 62
     7
370
     0
100
AcDbLine
 10
238.9590864422
 20
154.594506962
 30
0.0
 11
238.9590864422
 21
154.8820714334
 31
0.0
  0
LINE
  5
1A6
330
1F
100
AcDbEntity
  8
0
  6
SLD-Gestrichelt
 62
     7
370
     0
100
AcDbLine
 10
238.9590864422
 20
159.3820717053
 30
0.0
 11
238.9590864422
 21
159.094507234
 31
0.0
  0
LWPOLYLINE
  5
1A7
330
1F
100
AcDbEntity
  8
0
  6
SLD-Gestrichelt
 62
     7
370
     0
100
AcDbPolyline
 90
        6
 70
   128
 43
0.0
 10
238.9590864422
 20
159.3820717053
 10
238.546130562
 20
159.620494941
 10
238.2760917189
 20
159.7764020653
 10
238.2383619787
 20
159.7981819751
 10
238.546130562
 20
159.6204930784
 10
238.9590864422
 20
159.3820717053
  0
LINE
  5
1A8
330
1F
100
AcDbEntity
  8
0
  6
SLD-Gestrichelt
 62
     7
370
     0
100
AcDbLine
 10
238.9590864422
 20
157.8820714595
 30
0.0
 11
238.9590864422
 21
157.5945069881
 31
0.0
  0
ARC
  5
1A9
330
1F
100
AcDbEntity
  8
0
  6
SLD-Gestrichelt
 62
     7
370
     0
100
AcDbCircle
 10
238.1491052854
 20
158.4882893467
 30
0.0
 40
0.1200115524095096
100
AcDbArc
 50
120.0095724502
 51
239.9904275498
  0
LINE
  5
1AA
330
1F
100
AcDbEntity
  8
0
  6
SLD-Gestrichelt
 62
     7
370
     0
100
AcDbLine
 10
238.9590864422
 20
156.3820716793
 30
0.0
 11
238.9590864422
 21
156.0945072079
 31
0.0
  0
ARC
  5
1AB
330
1F
100
AcDbEntity
  8
0
  6
SLD-Gestrichelt
 62
     7
370
     0
100
AcDbCircle
 10
238.1491039653
 20
156.9882891008
 30
0.0
 40
0.1200108921483404
100
AcDbArc
 50
120.0090266743
 51
239.9909733257
  0
LINE
  5
1AC
330
1F
100
AcDbEntity
  8
0
  6
SLD-Gestrichelt
 62
     7
370
     0
100
AcDbLine
 10
238.9590864422
 20
154.8820714334
 30
0.0
 11
238.9590864422
 21
154.594506962
 31
0.0
  0
ARC
  5
1AD
330
1F
100
AcDbEntity
  8
0
  6
SLD-Gestrichelt
 62
     7
370
     0
100
AcDbCircle
 10
238.1490882679
 20
155.4882893206
 30
0.0
 40
0.1200030421038734
100
AcDbArc
 50
120.0025366292
 51
239.9974633708
  0
LWPOLYLINE
  5
1AE
330
1F
100
AcDbEntity
  8
0
  6
SLD-Gestrichelt
 62
     7
370
     0
100
AcDbPolyline
 90
        4
 70
   128
 43
0.0
 10
238.9590864422
 20
154.594506962
 10
238.5661279203
 20
154.3676330576
 10
238.7623613121
 20
154.4809242578
 10
238.9590864422
 20
154.594506962
  0
LINE
  5
1AF
330
1F
100
AcDbEntity
  8
0
  6
SLD-Gestrichelt
 62
     7
370
     0
100
AcDbLine
 10
78.8090884106
 20
140.4882896559
 30
0.0
 11
78.8090884106
 21
158.4882888811
 31
0.0
  0
LINE
  5
1B0
330
1F
100
AcDbEntity
  8
0
  6
SLD-Gestrichelt
 62
     7
370
     0
100
AcDbLine
 10
77.5590886714
 20
139.245127687
 30
0.0
 11
77.5590886714
 21
159.7314508499
 31
0.0
  0
LINE
  5
1B1
330
1F
100
AcDbEntity
  8
0
  6
SLD-Gestrichelt
 62
     7
370
     0
100
AcDbLine
 10
225.1590912582
 20
139.6101148667
 30
0.0
 11
225.1590912582
 21
143.8101147169
 31
0.0
  0
LINE
  5
1B2
330
1F
100
AcDbEntity
  8
0
  6
SLD-Gestrichelt
 62
     7
370
     0
100
AcDbLine
 10
225.1590912582
 20
155.1664638201
 30
0.0
 11
225.1590912582
 21
159.3664636703
 31
0.0
  0
LINE
  5
1B3
330
1F
100
AcDbEntity
  8
0
  6
SLD-Gestrichelt
 62
     7
370
     0
100
AcDbLine
 10
104.5590893717
 20
140.4882896559
 30
0.0
 11
104.5590893717
 21
158.4882888811
 31
0.0
  0
LINE
  5
1B4
330
1F
100
AcDbEntity
  8
0
  6
SLD-Gestrichelt
 62
     7
370
     0
100
AcDbLine
 10
105.0097340139
 20
141.2382893132
 30
0.0
 11
105.0097340139
 21
157.7382892238
 31
0.0
  0
LINE
  5
1B5
330
1F
100
AcDbEntity
  8
0
  6
SLD-Gestrichelt
 62
     7
370
     0
100
AcDbLine
 10
219.159094
 20
141.2382893132
 30
0.0
 11
219.159094
 21
157.7382892238
 31
0.0
  0
LINE
  5
1B6
330
1F
100
AcDbEntity
  8
0
  6
SLD-Gestrichelt
 62
     7
370
     0
100
AcDbLine
 10
221.0699295046
 20
146.4882892424
 30
0.0
 11
221.0699295046
 21
152.4882892946
 31
0.0
  0
LINE
  5
1B7
330
1F
100
AcDbEntity
  8
0
  6
SLD-Gestrichelt
 62
     7
370
     0
100
AcDbLine
 10
237.9590844156
 20
143.4882892163
 30
0.0
 11
237.9590844156
 21
155.4882893206
 31
0.0
  0
LINE
  5
1B8
330
1F
100
AcDbEntity
  8
0
  6
SLD-Gestrichelt
 62
     7
370
     0
100
AcDbLine
 10
238.9590864422
 20
154.594506962
 30
0.0
 11
238.9590864422
 21
154.8820714334
 31
0.0
  0
LWPOLYLINE
  5
1B9
330
1F
100
AcDbEntity
  8
0
  6
SLD-Gestrichelt
 62
     7
370
     0
100
AcDbPolyline
 90
        3
 70
   128
 43
0.0
 10
238.9590864422
 20
154.8820714334
 10
238.4460841658
 20
155.1782506386
 10
238.0890821459
 20
155.3843662942
  0
LWPOLYLINE
  5
1BA
330
1F
100
AcDbEntity
  8
0
  6
SLD-Gestrichelt
 62
     7
370
     0
100
AcDbPolyline
 90
       16
 70
   128
 43
0.0
 10
238.0890821459
 20
155.3843662942
 10
238.0598758699
 20
155.4080251472
 10
238.0416368486
 20
155.5417183654
 10
238.0459432842
 20
155.5496113242
 10
238.0493705513
 20
155.5550414005
 10
238.0522613766
 20
155.5591825263
 10
238.0547796728
 20
155.5624873245
 10
238.0580132248
 20
155.5664230937
 10
238.0599950792
 20
155.5686708407
 10
238.0620812418
 20
155.5709367486
 10
238.063765073
 20
155.5726676116
 10
238.06552341
 20
155.5744091848
 10
238.0675201656
 20
155.5763095485
 10
238.0704109909
 20
155.5788949
 10
238.0769973041
 20
155.5842215994
 10
238.0890821459
 20
155.5922123471
  0
LWPOLYLINE
  5
1BB
330
1F
100
AcDbEntity
  8
0
  6
SLD-Gestrichelt
 62
     7
370
     0
100
AcDbPolyline
 90
        4
 70
   128
 43
0.0
 10
238.0890821459
 20
155.5922123471
 10
238.3225386383
 20
155.7269947471
 10
238.6807029488
 20
155.9337818863
 10
238.9590864422
 20
156.0945072079
  0
LINE
  5
1BC
330
1F
100
AcDbEntity
  8
0
  6
SLD-Gestrichelt
 62
     7
370
     0
100
AcDbLine
 10
238.9590864422
 20
156.0945072079
 30
0.0
 11
238.9590864422
 21
156.3820716793
 31
0.0
  0
LINE
  5
1BD
330
1F
100
AcDbEntity
  8
0
  6
SLD-Gestrichelt
 62
     7
370
     0
100
AcDbLine
 10
238.9590864422
 20
156.3820716793
 30
0.0
 11
238.9590864422
 21
156.0945072079
 31
0.0
  0
LWPOLYLINE
  5
1BE
330
1F
100
AcDbEntity
  8
0
  6
SLD-Gestrichelt
 62
     7
370
     0
100
AcDbPolyline
 90
        3
 70
   128
 43
0.0
 10
238.9590864422
 20
156.0945072079
 10
238.2377212288
 20
155.6780258061
 10
238.0890821459
 20
155.5922123471
  0
LWPOLYLINE
  5
1BF
330
1F
100
AcDbEntity
  8
0
  6
SLD-Gestrichelt
 62
     7
370
     0
100
AcDbPolyline
 90
       16
 70
   128
 43
0.0
 10
238.0890821459
 20
155.5922123471
 10
238.0873685123
 20
155.5911958085
 10
238.0819593908
 20
155.5877555029
 10
238.0778466703
 20
155.5848516391
 10
238.0745684149
 20
155.5823407935
 10
238.0706494095
 20
155.5790988596
 10
238.0684142353
 20
155.5771221274
 10
238.0661492588
 20
155.5750182697
 10
238.0644356253
 20
155.5733353698
 10
238.0626921894
 20
155.5715723762
 10
238.0607997419
 20
155.5695597881
 10
238.058221841
 20
155.5666615123
 10
238.0528872253
 20
155.560023045
 10
238.0413239242
 20
155.5410901883
 10
238.0290900709
 20
155.4879526475
 10
238.0890821459
 20
155.3843662942
  0
LWPOLYLINE
  5
1C0
330
1F
100
AcDbEntity
  8
0
  6
SLD-Gestrichelt
 62
     7
370
     0
100
AcDbPolyline
 90
        3
 70
   128
 43
0.0
 10
238.0890821459
 20
155.3843662942
 10
238.4379332306
 20
155.1829570772
 10
238.9590864422
 20
154.8820714334
  0
LINE
  5
1C1
330
1F
100
AcDbEntity
  8
0
  6
SLD-Gestrichelt
 62
     7
370
     0
100
AcDbLine
 10
238.9590864422
 20
154.8820714334
 30
0.0
 11
238.9590864422
 21
154.594506962
 31
0.0
  0
ARC
  5
1C2
330
1F
100
AcDbEntity
  8
0
  6
SLD-Gestrichelt
 62
     7
370
     0
100
AcDbCircle
 10
238.149099295
 20
153.9882890748
 30
0.0
 40
0.1200085564309123
100
AcDbArc
 50
120.0070958354
 51
239.9929041646
  0
LINE
  5
1C3
330
1F
100
AcDbEntity
  8
0
  6
SLD-Gestrichelt
 62
     7
370
     0
100
AcDbLine
 10
238.9590864422
 20
153.3820714203
 30
0.0
 11
238.9590864422
 21
153.094506949
 31
0.0
  0
ARC
  5
1C4
330
1F
100
AcDbEntity
  8
0
  6
SLD-Gestrichelt
 62
     7
370
     0
100
AcDbCircle
 10
238.1490886332
 20
152.4882892946
 30
0.0
 40
0.1200032247800904
100
AcDbArc
 50
120.0026876813
 51
239.9973123187
  0
LINE
  5
1C5
330
1F
100
AcDbEntity
  8
0
  6
SLD-Gestrichelt
 62
     7
370
     0
100
AcDbLine
 10
238.9590864422
 20
151.8820714073
 30
0.0
 11
238.9590864422
 21
151.5945069359
 31
0.0
  0
ARC
  5
1C6
330
1F
100
AcDbEntity
  8
0
  6
SLD-Gestrichelt
 62
     7
370
     0
100
AcDbCircle
 10
238.1490921029
 20
150.9882892815
 30
0.0
 40
0.1200049597962692
100
AcDbArc
 50
120.0041222823
 51
239.9958777177
  0
LINE
  5
1C7
330
1F
100
AcDbEntity
  8
0
  6
SLD-Gestrichelt
 62
     7
370
     0
100
AcDbLine
 10
238.9590864422
 20
150.3820715107
 30
0.0
 11
238.9590864422
 21
150.0945070393
 31
0.0
  0
ARC
  5
1C8
330
1F
100
AcDbEntity
  8
0
  6
SLD-Gestrichelt
 62
     7
370
     0
100
AcDbCircle
 10
238.1490967498
 20
149.4882892685
 30
0.0
 40
0.1200073025104672
100
AcDbArc
 50
120.0060383559
 51
239.9939616441
  0
LINE
  5
1C9
330
1F
100
AcDbEntity
  8
0
  6
SLD-Gestrichelt
 62
     7
370
     0
100
AcDbLine
 10
238.9590864422
 20
148.8820714976
 30
0.0
 11
238.9590864422
 21
148.5945070263
 31
0.0
  0
ARC
  5
1CA
330
1F
100
AcDbEntity
  8
0
  6
SLD-Gestrichelt
 62
     7
370
     0
100
AcDbCircle
 10
238.1490949582
 20
147.9882892554
 30
0.0
 40
0.1200063876247379
100
AcDbArc
 50
120.0053028069
 51
239.9946971931
  0
LINE
  5
1CB
330
1F
100
AcDbEntity
  8
0
  6
SLD-Gestrichelt
 62
     7
370
     0
100
AcDbLine
 10
238.9590864422
 20
147.382071601
 30
0.0
 11
238.9590864422
 21
147.0945071297
 31
0.0
  0
ARC
  5
1CC
330
1F
100
AcDbEntity
  8
0
  6
SLD-Gestrichelt
 62
     7
370
     0
100
AcDbCircle
 10
238.1490974815
 20
146.4882892424
 30
0.0
 40
0.1200076495190026
100
AcDbArc
 50
120.0063460791
 51
239.9936539209
  0
LINE
  5
1CD
330
1F
100
AcDbEntity
  8
0
  6
SLD-Gestrichelt
 62
     7
370
     0
100
AcDbLine
 10
238.9590864422
 20
145.882071588
 30
0.0
 11
238.9590864422
 21
145.5945071166
 31
0.0
  0
ARC
  5
1CE
330
1F
100
AcDbEntity
  8
0
  6
SLD-Gestrichelt
 62
     7
370
     0
100
AcDbCircle
 10
238.1490968391
 20
144.9882894622
 30
0.0
 40
0.1200073282444556
100
AcDbArc
 50
120.0060804703
 51
239.9939195297
  0
LINE
  5
1CF
330
1F
100
AcDbEntity
  8
0
  6
SLD-Gestrichelt
 62
     7
370
     0
100
AcDbLine
 10
238.9590864422
 20
144.3820715749
 30
0.0
 11
238.9590864422
 21
144.0945071036
 31
0.0
  0
LWPOLYLINE
  5
1D0
330
1F
100
AcDbEntity
  8
0
  6
SLD-Gestrichelt
 62
     7
370
     0
100
AcDbPolyline
 90
        3
 70
   128
 43
0.0
 10
238.9590864422
 20
144.0945071036
 10
238.4460841658
 20
143.7983278984
 10
238.0890821459
 20
143.5922122428
  0
LWPOLYLINE
  5
1D1
330
1F
100
AcDbEntity
  8
0
  6
SLD-Gestrichelt
 62
     7
370
     0
100
AcDbPolyline
 90
       16
 70
   128
 43
0.0
 10
238.0890821459
 20
143.5922122428
 10
238.0598758699
 20
143.5685533898
 10
238.0416368486
 20
143.4348601715
 10
238.0459432842
 20
143.4269672127
 10
238.0493705513
 20
143.4215371365
 10
238.0522613766
 20
143.4173960106
 10
238.0547796728
 20
143.4140912125
 10
238.0580132248
 20
143.4101554433
 10
238.0599950792
 20
143.4079076962
 10
238.0620812418
 20
143.4056417884
 10
238.063765073
 20
143.4039109254
 10
238.06552341
 20
143.4021693522
 10
238.0675201656
 20
143.4002689885
 10
238.0704109909
 20
143.397683637
 10
238.0769973041
 20
143.3923569375
 10
238.0890821459
 20
143.3843661899
  0
LWPOLYLINE
  5
1D2
330
1F
100
AcDbEntity
  8
0
  6
SLD-Gestrichelt
 62
     7
370
     0
100
AcDbPolyline
 90
        4
 70
   128
 43
0.0
 10
238.0890821459
 20
143.3843661899
 10
238.3225386383
 20
143.2495837899
 10
238.6807029488
 20
143.0427966507
 10
238.9590864422
 20
142.8820713291
  0
LINE
  5
1D3
330
1F
100
AcDbEntity
  8
0
  6
SLD-Gestrichelt
 62
     7
370
     0
100
AcDbLine
 10
238.9590864422
 20
142.8820713291
 30
0.0
 11
238.9590864422
 21
142.5945068577
 31
0.0
  0
LINE
  5
1D4
330
1F
100
AcDbEntity
  8
0
  6
SLD-Gestrichelt
 62
     7
370
     0
100
AcDbLine
 10
238.9590864422
 20
142.5945068577
 30
0.0
 11
238.9590864422
 21
142.8820713291
 31
0.0
  0
LWPOLYLINE
  5
1D5
330
1F
100
AcDbEntity
  8
0
  6
SLD-Gestrichelt
 62
     7
370
     0
100
AcDbPolyline
 90
        3
 70
   128
 43
0.0
 10
238.9590864422
 20
142.8820713291
 10
238.2377212288
 20
143.2985527308
 10
238.0890821459
 20
143.3843661899
  0
LWPOLYLINE
  5
1D6
330
1F
100
AcDbEntity
  8
0
  6
SLD-Gestrichelt
 62
     7
370
     0
100
AcDbPolyline
 90
       16
 70
   128
 43
0.0
 10
238.0890821459
 20
143.3843661899
 10
238.0873685123
 20
143.3853827284
 10
238.0819593908
 20
143.388823034
 10
238.0778466703
 20
143.3917268978
 10
238.0745684149
 20
143.3942377435
 10
238.0706494095
 20
143.3974796774
 10
238.0684142353
 20
143.3994564095
 10
238.0661492588
 20
143.4015602672
 10
238.0644356253
 20
143.4032431671
 10
238.0626921894
 20
143.4050061608
 10
238.0607997419
 20
143.4070187488
 10
238.058221841
 20
143.4099170247
 10
238.0528872253
 20
143.416555492
 10
238.0413239242
 20
143.4354883486
 10
238.0290900709
 20
143.4886258894
 10
238.0890821459
 20
143.5922122428
  0
LWPOLYLINE
  5
1D7
330
1F
100
AcDbEntity
  8
0
  6
SLD-Gestrichelt
 62
     7
370
     0
100
AcDbPolyline
 90
        3
 70
   128
 43
0.0
 10
238.0890821459
 20
143.5922122428
 10
238.4379332306
 20
143.7936214598
 10
238.9590864422
 20
144.0945071036
  0
LINE
  5
1D8
330
1F
100
AcDbEntity
  8
0
  6
SLD-Gestrichelt
 62
     7
370
     0
100
AcDbLine
 10
238.9590864422
 20
144.0945071036
 30
0.0
 11
238.9590864422
 21
144.3820715749
 31
0.0
  0
LINE
  5
1D9
330
1F
100
AcDbEntity
  8
0
  6
SLD-Gestrichelt
 62
     7
370
     0
100
AcDbLine
 10
238.9590864422
 20
145.5945071166
 30
0.0
 11
238.9590864422
 21
145.882071588
 31
0.0
  0
LINE
  5
1DA
330
1F
100
AcDbEntity
  8
0
  6
SLD-Gestrichelt
 62
     7
370
     0
100
AcDbLine
 10
238.9590864422
 20
153.094506949
 30
0.0
 11
238.9590864422
 21
153.3820714203
 31
0.0
  0
LINE
  5
1DB
330
1F
100
AcDbEntity
  8
0
  6
SLD-Gestrichelt
 62
     7
370
     0
100
AcDbLine
 10
238.9590864422
 20
151.5945069359
 30
0.0
 11
238.9590864422
 21
151.8820714073
 31
0.0
  0
LINE
  5
1DC
330
1F
100
AcDbEntity
  8
0
  6
SLD-Gestrichelt
 62
     7
370
     0
100
AcDbLine
 10
238.9590864422
 20
147.0945071297
 30
0.0
 11
238.9590864422
 21
147.382071601
 31
0.0
  0
LINE
  5
1DD
330
1F
100
AcDbEntity
  8
0
  6
SLD-Gestrichelt
 62
     7
370
     0
100
AcDbLine
 10
238.9590864422
 20
148.5945070263
 30
0.0
 11
238.9590864422
 21
148.8820714976
 31
0.0
  0
LINE
  5
1DE
330
1F
100
AcDbEntity
  8
0
  6
SLD-Gestrichelt
 62
     7
370
     0
100
AcDbLine
 10
238.9590864422
 20
150.0945070393
 30
0.0
 11
238.9590864422
 21
150.3820715107
 31
0.0
  0
ARC
  5
1DF
330
1F
100
AcDbEntity
  8
0
  6
SLD-Gestrichelt
 62
     7
370
     0
100
AcDbCircle
 10
238.1490968391
 20
153.9882890748
 30
0.0
 40
0.1200073282444556
100
AcDbArc
 50
120.0060804703
 51
239.9939195297
  0
ARC
  5
1E0
330
1F
100
AcDbEntity
  8
0
  6
SLD-Gestrichelt
 62
     7
370
     0
100
AcDbCircle
 10
238.149099295
 20
144.9882894622
 30
0.0
 40
0.1200085564309123
100
AcDbArc
 50
120.0070958354
 51
239.9929041646
  0
ARC
  5
1E1
330
1F
100
AcDbEntity
  8
0
  6
SLD-Gestrichelt
 62
     7
370
     0
100
AcDbCircle
 10
238.1490974815
 20
152.4882892946
 30
0.0
 40
0.1200076495190026
100
AcDbArc
 50
120.0063460791
 51
239.9936539209
  0
ARC
  5
1E2
330
1F
100
AcDbEntity
  8
0
  6
SLD-Gestrichelt
 62
     7
370
     0
100
AcDbCircle
 10
238.1490886332
 20
146.4882892424
 30
0.0
 40
0.1200032247800904
100
AcDbArc
 50
120.0026876813
 51
239.9973123187
  0
ARC
  5
1E3
330
1F
100
AcDbEntity
  8
0
  6
SLD-Gestrichelt
 62
     7
370
     0
100
AcDbCircle
 10
238.1490949582
 20
150.9882892815
 30
0.0
 40
0.1200063876247379
100
AcDbArc
 50
120.0053028069
 51
239.9946971931
  0
ARC
  5
1E4
330
1F
100
AcDbEntity
  8
0
  6
SLD-Gestrichelt
 62
     7
370
     0
100
AcDbCircle
 10
238.1490921029
 20
147.9882892554
 30
0.0
 40
0.1200049597962692
100
AcDbArc
 50
120.0041222823
 51
239.9958777177
  0
ARC
  5
1E5
330
1F
100
AcDbEntity
  8
0
  6
SLD-Gestrichelt
 62
     7
370
     0
100
AcDbCircle
 10
238.1490967498
 20
149.4882892685
 30
0.0
 40
0.1200073025104672
100
AcDbArc
 50
120.0060383559
 51
239.9939616441
  0
LINE
  5
1E6
330
1F
100
AcDbEntity
  8
0
  6
SLD-Gestrichelt
 62
     7
370
     0
100
AcDbLine
 10
86.3590886237
 20
171.1706895249
 30
0.0
 11
86.3590886237
 21
172.9083884375
 31
0.0
  0
LINE
  5
1E7
330
1F
100
AcDbEntity
  8
0
  6
SLD-Gestrichelt
 62
     7
370
     0
100
AcDbLine
 10
52.0590891482
 20
170.4244058447
 30
0.0
 11
52.0590891482
 21
172.046652423
 31
0.0
  0
LWPOLYLINE
  5
1E8
330
1F
100
AcDbEntity
  8
0
  6
SLD-Gestrichelt
 62
     7
370
     0
100
AcDbPolyline
 90
        4
 70
   128
 43
0.0
 10
87.2377683062
 20
171.6319735961
 10
86.9457624739
 20
172.2805559503
 10
86.7814776374
 20
172.6490374522
 10
86.7656796126
 20
172.6846139746
  0
LINE
  5
1E9
330
1F
100
AcDbEntity
  8
0
  6
SLD-Gestrichelt
 62
     7
370
     0
100
AcDbLine
 10
50.5590898337
 20
169.6744043248
 30
0.0
 11
50.5590898337
 21
171.1806267367
 31
0.0
  0
LINE
  5
1EA
330
1F
100
AcDbEntity
  8
0
  6
SLD-Gestrichelt
 62
     7
370
     0
100
AcDbLine
 10
69.0090892257
 20
129.4905342029
 30
0.0
 11
77.1090885045
 21
129.4905342029
 31
0.0
  0
LINE
  5
1EB
330
1F
100
AcDbEntity
  8
0
  6
SLD-Gestrichelt
 62
     7
370
     0
100
AcDbLine
 10
52.0590891482
 20
129.9912989007
 30
0.0
 11
50.5590898337
 21
130.7398103045
 31
0.0
  0
LINE
  5
1EC
330
1F
100
AcDbEntity
  8
0
  6
SLD-Gestrichelt
 62
     7
370
     0
100
AcDbLine
 10
57.0090872588
 20
129.882026823
 30
0.0
 11
57.0090872588
 21
131.4882900433
 31
0.0
  0
LINE
  5
1ED
330
1F
100
AcDbEntity
  8
0
  6
SLD-Gestrichelt
 62
     7
370
     0
100
AcDbLine
 10
50.5590898337
 20
130.7398103045
 30
0.0
 11
50.5590898337
 21
131.4882900433
 31
0.0
  0
LINE
  5
1EE
330
1F
100
AcDbEntity
  8
0
  6
SLD-Gestrichelt
 62
     7
370
     0
100
AcDbLine
 10
69.0090892257
 20
166.988289343
 30
0.0
 11
77.1090885045
 21
166.988289343
 31
0.0
  0
LINE
  5
1EF
330
1F
100
AcDbEntity
  8
0
  6
SLD-Gestrichelt
 62
     7
370
     0
100
AcDbLine
 10
235.0090866329
 20
145.7882892674
 30
0.0
 11
235.0090866329
 21
153.1882892696
 31
0.0
  0
LINE
  5
1F0
330
1F
100
AcDbEntity
  8
0
  6
SLD-Gestrichelt
 62
     7
370
     0
100
AcDbLine
 10
236.5090822222
 20
145.7882892674
 30
0.0
 11
236.5090822222
 21
153.1882892696
 31
0.0
  0
LINE
  5
1F1
330
1F
100
AcDbEntity
  8
0
  6
SLD-Gestrichelt
 62
     7
370
     0
100
AcDbLine
 10
237.5260715725
 20
146.4882892424
 30
0.0
 11
237.5260715725
 21
152.4882892946
 31
0.0
  0
LINE
  5
1F2
330
1F
100
AcDbEntity
  8
0
  6
SLD-Gestrichelt
 62
     7
370
     0
100
AcDbLine
 10
237.9590844156
 20
152.7382893355
 30
0.0
 11
237.9590844156
 21
146.2382892014
 31
0.0
  0
LINE
  5
1F3
330
1F
100
AcDbEntity
  8
0
  6
SLD-Gestrichelt
 62
     7
370
     0
100
AcDbLine
 10
236.5090822222
 20
146.4952830093
 30
0.0
 11
236.5090822222
 21
152.4812955277
 31
0.0
  0
LINE
  5
1F4
330
1F
100
AcDbEntity
  8
0
  6
SLD-Gestrichelt
 62
     7
370
     0
100
AcDbLine
 10
235.0090866329
 20
146.4952830093
 30
0.0
 11
235.0090866329
 21
152.4812955277
 31
0.0
  0
LINE
  5
1F5
330
1F
100
AcDbEntity
  8
0
  6
SLD-Gestrichelt
 62
     7
370
     0
100
AcDbLine
 10
98.5590883883
 20
118.4882897751
 30
0.0
 11
102.5590890439
 21
118.4882897751
 31
0.0
  0
LINE
  5
1F6
330
1F
100
AcDbEntity
  8
0
  6
SLD-Gestrichelt
 62
     7
370
     0
100
AcDbLine
 10
50.5590898337
 20
134.5270447301
 30
0.0
 11
50.5590898337
 21
130.7398103045
 31
0.0
  0
LINE
  5
1F7
330
1F
100
AcDbEntity
  8
0
  6
SLD-Gestrichelt
 62
     7
370
     0
100
AcDbLine
 10
237.7590959312
 20
155.1736364009
 30
0.0
 11
237.7590959312
 21
159.3592915552
 31
0.0
  0
LINE
  5
1F8
330
1F
100
AcDbEntity
  8
0
  6
SLD-Gestrichelt
 62
     7
370
     0
100
AcDbLine
 10
238.9590864422
 20
159.094507234
 30
0.0
 11
238.9590864422
 21
159.3820717053
 31
0.0
  0
LINE
  5
1F9
330
1F
100
AcDbEntity
  8
0
  6
SLD-Gestrichelt
 62
     7
370
     0
100
AcDbLine
 10
238.9590864422
 20
157.5945069881
 30
0.0
 11
238.9590864422
 21
157.8820714595
 31
0.0
  0
LINE
  5
1FA
330
1F
100
AcDbEntity
  8
0
  6
SLD-Gestrichelt
 62
     7
370
     0
100
AcDbLine
 10
238.9590864422
 20
156.0945072079
 30
0.0
 11
238.9590864422
 21
156.3820716793
 31
0.0
  0
LINE
  5
1FB
330
1F
100
AcDbEntity
  8
0
  6
SLD-Gestrichelt
 62
     7
370
     0
100
AcDbLine
 10
238.9590864422
 20
154.594506962
 30
0.0
 11
238.9590864422
 21
154.8820714334
 31
0.0
  0
LINE
  5
1FC
330
1F
100
AcDbEntity
  8
0
  6
SLD-Gestrichelt
 62
     7
370
     0
100
AcDbLine
 10
238.9590864422
 20
154.8820714334
 30
0.0
 11
238.9590864422
 21
154.594506962
 31
0.0
  0
LWPOLYLINE
  5
1FD
330
1F
100
AcDbEntity
  8
0
  6
SLD-Gestrichelt
 62
     7
370
     0
100
AcDbPolyline
 90
        4
 70
   128
 43
0.0
 10
238.9590864422
 20
154.594506962
 10
238.5661279203
 20
154.3676330576
 10
238.7623613121
 20
154.4809242578
 10
238.9590864422
 20
154.594506962
  0
LINE
  5
1FE
330
1F
100
AcDbEntity
  8
0
  6
SLD-Gestrichelt
 62
     7
370
     0
100
AcDbLine
 10
238.9590864422
 20
156.3820716793
 30
0.0
 11
238.9590864422
 21
156.0945072079
 31
0.0
  0
LINE
  5
1FF
330
1F
100
AcDbEntity
  8
0
  6
SLD-Gestrichelt
 62
     7
370
     0
100
AcDbLine
 10
238.9590864422
 20
157.8820714595
 30
0.0
 11
238.9590864422
 21
157.5945069881
 31
0.0
  0
LINE
  5
200
330
1F
100
AcDbEntity
  8
0
  6
SLD-Gestrichelt
 62
     7
370
     0
100
AcDbLine
 10
238.9590864422
 20
159.3820717053
 30
0.0
 11
238.9590864422
 21
159.094507234
 31
0.0
  0
LWPOLYLINE
  5
201
330
1F
100
AcDbEntity
  8
0
  6
SLD-Gestrichelt
 62
     7
370
     0
100
AcDbPolyline
 90
        6
 70
   128
 43
0.0
 10
238.9590864422
 20
159.3820717053
 10
238.546130562
 20
159.620494941
 10
238.2760917189
 20
159.7764020653
 10
238.2383619787
 20
159.7981819751
 10
238.546130562
 20
159.6204930784
 10
238.9590864422
 20
159.3820717053
  0
LINE
  5
202
330
1F
100
AcDbEntity
  8
0
  6
SLD-Gestrichelt
 62
     7
370
     0
100
AcDbLine
 10
237.7590959312
 20
139.6172869818
 30
0.0
 11
237.7590959312
 21
143.8029421361
 31
0.0
  0
LINE
  5
203
330
1F
100
AcDbEntity
  8
0
  6
SLD-Gestrichelt
 62
     7
370
     0
100
AcDbLine
 10
238.9590864422
 20
142.5945068577
 30
0.0
 11
238.9590864422
 21
142.8820713291
 31
0.0
  0
LINE
  5
204
330
1F
100
AcDbEntity
  8
0
  6
SLD-Gestrichelt
 62
     7
370
     0
100
AcDbLine
 10
238.9590864422
 20
141.0945070775
 30
0.0
 11
238.9590864422
 21
141.3820715489
 31
0.0
  0
LINE
  5
205
330
1F
100
AcDbEntity
  8
0
  6
SLD-Gestrichelt
 62
     7
370
     0
100
AcDbLine
 10
238.9590864422
 20
139.5945068316
 30
0.0
 11
238.9590864422
 21
139.882071303
 31
0.0
  0
LINE
  5
206
330
1F
100
AcDbEntity
  8
0
  6
SLD-Gestrichelt
 62
     7
370
     0
100
AcDbLine
 10
238.9590864422
 20
144.0945071036
 30
0.0
 11
238.9590864422
 21
144.3820715749
 31
0.0
  0
LINE
  5
207
330
1F
100
AcDbEntity
  8
0
  6
SLD-Gestrichelt
 62
     7
370
     0
100
AcDbLine
 10
238.9590864422
 20
144.3820715749
 30
0.0
 11
238.9590864422
 21
144.0945071036
 31
0.0
  0
LWPOLYLINE
  5
208
330
1F
100
AcDbEntity
  8
0
  6
SLD-Gestrichelt
 62
     7
370
     0
100
AcDbPolyline
 90
        4
 70
   128
 43
0.0
 10
238.9590864422
 20
144.3820715749
 10
238.5661279203
 20
144.6089454794
 10
238.7623613121
 20
144.4956542792
 10
238.9590864422
 20
144.3820715749
  0
LINE
  5
209
330
1F
100
AcDbEntity
  8
0
  6
SLD-Gestrichelt
 62
     7
370
     0
100
AcDbLine
 10
238.9590864422
 20
142.8820713291
 30
0.0
 11
238.9590864422
 21
142.5945068577
 31
0.0
  0
LINE
  5
20A
330
1F
100
AcDbEntity
  8
0
  6
SLD-Gestrichelt
 62
     7
370
     0
100
AcDbLine
 10
238.9590864422
 20
141.3820715489
 30
0.0
 11
238.9590864422
 21
141.0945070775
 31
0.0
  0
LINE
  5
20B
330
1F
100
AcDbEntity
  8
0
  6
SLD-Gestrichelt
 62
     7
370
     0
100
AcDbLine
 10
238.9590864422
 20
139.882071303
 30
0.0
 11
238.9590864422
 21
139.5945068316
 31
0.0
  0
LWPOLYLINE
  5
20C
330
1F
100
AcDbEntity
  8
0
  6
SLD-Gestrichelt
 62
     7
370
     0
100
AcDbPolyline
 90
        6
 70
   128
 43
0.0
 10
238.9590864422
 20
139.5945068316
 10
238.546130562
 20
139.3560835959
 10
238.2760917189
 20
139.2001764716
 10
238.2383619787
 20
139.1783965619
 10
238.546130562
 20
139.3560854586
 10
238.9590864422
 20
139.5945068316
  0
LINE
  5
20D
330
1F
100
AcDbEntity
  8
0
  6
SLD-Gestrichelt
 62
     7
370
     0
100
AcDbLine
 10
50.5590898337
 20
169.6744043248
 30
0.0
 11
50.5590898337
 21
144.263418285
 31
0.0
  0
LINE
  5
20E
330
1F
100
AcDbEntity
  8
0
  6
SLD-Gestrichelt
 62
     7
370
     0
100
AcDbLine
 10
225.1590912582
 20
139.6172869818
 30
0.0
 11
225.1590912582
 21
143.8029421361
 31
0.0
  0
LINE
  5
20F
330
1F
100
AcDbEntity
  8
0
  6
SLD-Gestrichelt
 62
     7
370
     0
100
AcDbLine
 10
225.1590912582
 20
155.1736364009
 30
0.0
 11
225.1590912582
 21
159.3592915552
 31
0.0
  0
LINE
  5
210
330
1F
100
AcDbEntity
  8
0
  6
SLD-Gestrichelt
 62
     7
370
     0
100
AcDbLine
 10
52.0590891482
 20
170.4244058447
 30
0.0
 11
52.0590891482
 21
144.263418285
 31
0.0
  0
LINE
  5
211
330
1F
100
AcDbEntity
  8
0
  6
SLD-Gestrichelt
 62
     7
370
     0
100
AcDbLine
 10
88.3590886168
 20
170.9064267443
 30
0.0
 11
88.3590886168
 21
144.8603536801
 31
0.0
  0
LINE
  5
212
330
1F
100
AcDbEntity
  8
0
  6
SLD-Gestrichelt
 62
     7
370
     0
100
AcDbLine
 10
86.3590886237
 20
171.1706895249
 30
0.0
 11
86.3590886237
 21
144.263418285
 31
0.0
  0
LINE
  5
213
330
1F
100
AcDbEntity
  8
0
  6
SLD-Gestrichelt
 62
     7
370
     0
100
AcDbLine
 10
50.5590898337
 20
144.263418285
 30
0.0
 11
50.5590898337
 21
134.5270447301
 31
0.0
  0
LINE
  5
214
330
1F
100
AcDbEntity
  8
0
  6
SLD-Gestrichelt
 62
     7
370
     0
100
AcDbLine
 10
52.0590891482
 20
144.263418285
 30
0.0
 11
52.0590891482
 21
133.7770450728
 31
0.0
  0
LINE
  5
215
330
1F
100
AcDbEntity
  8
0
  6
SLD-Gestrichelt
 62
     7
370
     0
100
AcDbLine
 10
86.3590886237
 20
144.263418285
 30
0.0
 11
86.3590886237
 21
133.0307595299
 31
0.0
  0
ARC
  5
216
330
1F
100
AcDbEntity
  8
0
  6
SLD-Gestrichelt
 62
     7
370
     0
100
AcDbCircle
 10
107.276885345
 20
138.4164468719
 30
0.0
 40
20.53627315817424
100
AcDbArc
 50
167.3670939911
 51
192.6329060089
  0
LINE
  5
217
330
1F
100
AcDbEntity
  8
0
  6
SLD-Gestrichelt
 62
     7
370
     0
100
AcDbLine
 10
88.5590886118
 20
125.2382885532
 30
0.0
 11
88.6519818322
 21
125.3311823921
 31
0.0
  0
LINE
  5
218
330
1F
100
AcDbEntity
  8
0
  6
SLD-Gestrichelt
 62
     7
370
     0
100
AcDbLine
 10
88.6519818322
 20
173.6453961449
 30
0.0
 11
88.5590886118
 21
173.7382899837
 31
0.0
  0
ARC
  5
219
330
1F
100
AcDbEntity
  8
0
  6
SLD-Gestrichelt
 62
     7
370
     0
100
AcDbCircle
 10
87.9448750494
 20
126.0382892685
 30
0.0
 40
1.000000000000008
100
AcDbArc
 50
315.0
 51
0.0
  0
ARC
  5
21A
330
1F
100
AcDbEntity
  8
0
  6
SLD-Gestrichelt
 62
     7
370
     0
100
AcDbCircle
 10
87.9448750494
 20
126.0382892685
 30
0.0
 40
0.9999999999999901
100
AcDbArc
 50
0.0
 51
52.1052014664
  0
ARC
  5
21B
330
1F
100
AcDbEntity
  8
0
  6
SLD-Gestrichelt
 62
     7
370
     0
100
AcDbCircle
 10
87.9448750494
 20
172.9382892685
 30
0.0
 40
1.000000000000008
100
AcDbArc
 50
343.125
 51
45.0
  0
ARC
  5
21C
330
1F
100
AcDbEntity
  8
0
  6
SLD-Gestrichelt
 62
     7
370
     0
100
AcDbCircle
 10
87.9448750494
 20
172.9382892685
 30
0.0
 40
0.9999999999999944
100
AcDbArc
 50
307.8947985336
 51
343.125
  0
LINE
  5
21D
330
1F
100
AcDbEntity
  8
0
  6
SLD-Gestrichelt
 62
     7
370
     0
100
AcDbLine
 10
88.9448750476
 20
126.0382890569
 30
0.0
 11
88.9448750476
 21
172.9382894801
 31
0.0
  0
LINE
  5
21E
330
1F
100
AcDbEntity
  8
0
  6
SLD-Gestrichelt
 62
     7
370
     0
100
AcDbLine
 10
88.9448750476
 20
126.0382890569
 30
0.0
 11
88.9448750476
 21
172.9382894801
 31
0.0
  0
LINE
  5
21F
330
1F
100
AcDbEntity
  8
0
  6
SLD-Gestrichelt
 62
     7
370
     0
100
AcDbLine
 10
50.5590898337
 20
133.291859539
 30
0.0
 11
52.0893161537
 21
134.1753382103
 31
0.0
  0
LINE
  5
220
330
1F
100
AcDbEntity
  8
0
  6
SLD-Gestrichelt
 62
     7
370
     0
100
AcDbLine
 10
52.0893161537
 20
164.8012403266
 30
0.0
 11
50.5590898337
 21
165.6847189979
 31
0.0
  0
LINE
  5
221
330
1F
100
AcDbEntity
  8
0
  6
SLD-Gestrichelt
 62
     7
370
     0
100
AcDbLine
 10
60.5590877475
 20
133.4882885085
 30
0.0
 11
61.5608890893
 21
133.4882885085
 31
0.0
  0
LINE
  5
222
330
1F
100
AcDbEntity
  8
0
  6
SLD-Gestrichelt
 62
     7
370
     0
100
AcDbLine
 10
61.5608890893
 20
165.4882900284
 30
0.0
 11
60.5590877475
 21
165.4882900284
 31
0.0
  0
ARC
  5
223
330
1F
100
AcDbEntity
  8
0
  6
SLD-Gestrichelt
 62
     7
370
     0
100
AcDbCircle
 10
61.5608899267
 20
135.4882892685
 30
0.0
 40
2.000000000000006
100
AcDbArc
 50
270.0
 51
315.0
  0
ARC
  5
224
330
1F
100
AcDbEntity
  8
0
  6
SLD-Gestrichelt
 62
     7
370
     0
100
AcDbCircle
 10
61.5608899267
 20
163.4882892685
 30
0.0
 40
2.000000000000026
100
AcDbArc
 50
45.0
 51
90.0
  0
ARC
  5
225
330
1F
100
AcDbEntity
  8
0
  6
SLD-Gestrichelt
 62
     7
370
     0
100
AcDbCircle
 10
60.5590886118
 20
135.4882892685
 30
0.0
 40
2.0
100
AcDbArc
 50
189.9742217944
 51
270.0
  0
ARC
  5
226
330
1F
100
AcDbEntity
  8
0
  6
SLD-Gestrichelt
 62
     7
370
     0
100
AcDbCircle
 10
60.5590886118
 20
163.4882892685
 30
0.0
 40
2.0
100
AcDbArc
 50
90.0
 51
170.0257782056
  0
LINE
  5
227
330
1F
100
AcDbEntity
  8
0
  6
SLD-Gestrichelt
 62
     7
370
     0
100
AcDbLine
 10
62.9751042815
 20
134.0740755068
 30
0.0
 11
64.389317611
 21
135.4882888363
 31
0.0
  0
LINE
  5
228
330
1F
100
AcDbEntity
  8
0
  6
SLD-Gestrichelt
 62
     7
370
     0
100
AcDbLine
 10
64.389317611
 20
163.4882897006
 30
0.0
 11
62.9751042815
 21
164.9025030302
 31
0.0
  0
LINE
  5
229
330
1F
100
AcDbEntity
  8
0
  6
SLD-Gestrichelt
 62
     7
370
     0
100
AcDbLine
 10
52.0893161537
 20
134.1753382103
 30
0.0
 11
56.9893171431
 21
135.4882888363
 31
0.0
  0
LINE
  5
22A
330
1F
100
AcDbEntity
  8
0
  6
SLD-Gestrichelt
 62
     7
370
     0
100
AcDbLine
 10
56.9893171431
 20
163.4882897006
 30
0.0
 11
52.0893161537
 21
164.8012403266
 31
0.0
  0
LINE
  5
22B
330
1F
100
AcDbEntity
  8
0
  6
SLD-Gestrichelt
 62
     7
370
     0
100
AcDbLine
 10
58.5893162878
 20
163.8346997889
 30
0.0
 11
57.9893173071
 21
163.4882897006
 31
0.0
  0
LINE
  5
22C
330
1F
100
AcDbEntity
  8
0
  6
SLD-Gestrichelt
 62
     7
370
     0
100
AcDbLine
 10
57.9893173071
 20
135.4882888363
 30
0.0
 11
58.5893162878
 21
135.1418787481
 31
0.0
  0
ARC
  5
22D
330
1F
100
AcDbEntity
  8
0
  6
SLD-Gestrichelt
 62
     7
370
     0
100
AcDbCircle
 10
77.0590886118
 20
135.9882892685
 30
0.0
 40
0.5
100
AcDbArc
 50
275.5682401931
 51
0.0
  0
ARC
  5
22E
330
1F
100
AcDbEntity
  8
0
  6
SLD-Gestrichelt
 62
     7
370
     0
100
AcDbCircle
 10
77.0590886118
 20
162.9882892685
 30
0.0
 40
0.5
100
AcDbArc
 50
0.0
 51
86.7052363418
  0
LINE
  5
22F
330
1F
100
AcDbEntity
  8
0
  6
SLD-Gestrichelt
 62
     7
370
     0
100
AcDbLine
 10
64.389317611
 20
135.4882888363
 30
0.0
 11
69.0230814161
 21
135.4882888363
 31
0.0
  0
LINE
  5
230
330
1F
100
AcDbEntity
  8
0
  6
SLD-Gestrichelt
 62
     7
370
     0
100
AcDbLine
 10
69.0230814161
 20
163.4882897006
 30
0.0
 11
64.389317611
 21
163.4882897006
 31
0.0
  0
LINE
  5
231
330
1F
100
AcDbEntity
  8
0
  6
SLD-Gestrichelt
 62
     7
370
     0
100
AcDbLine
 10
56.9893171431
 20
135.4882888363
 30
0.0
 11
57.9893173071
 21
135.4882888363
 31
0.0
  0
LINE
  5
232
330
1F
100
AcDbEntity
  8
0
  6
SLD-Gestrichelt
 62
     7
370
     0
100
AcDbLine
 10
57.9893173071
 20
163.4882897006
 30
0.0
 11
56.9893171431
 21
163.4882897006
 31
0.0
  0
LINE
  5
233
330
1F
100
AcDbEntity
  8
0
  6
SLD-Gestrichelt
 62
     7
370
     0
100
AcDbLine
 10
238.5676031353
 20
144.6186326312
 30
0.0
 11
237.7590959312
 21
143.8101147169
 31
0.0
  0
LINE
  5
234
330
1F
100
AcDbEntity
  8
0
  6
SLD-Gestrichelt
 62
     7
370
     0
100
AcDbLine
 10
237.7590959312
 20
139.6101148667
 30
0.0
 11
238.2177536728
 21
139.1514431553
 31
0.0
  0
LINE
  5
235
330
1F
100
AcDbEntity
  8
0
  6
SLD-Gestrichelt
 62
     7
370
     0
100
AcDbLine
 10
238.2177536728
 20
159.8251353817
 30
0.0
 11
237.7590959312
 21
159.3664636703
 31
0.0
  0
LINE
  5
236
330
1F
100
AcDbEntity
  8
0
  6
SLD-Gestrichelt
 62
     7
370
     0
100
AcDbLine
 10
237.7590959312
 20
155.1664638201
 30
0.0
 11
238.5676031353
 21
154.3579459058
 31
0.0
  0
LINE
  5
237
330
1F
100
AcDbEntity
  8
0
  6
SLD-Gestrichelt
 62
     7
370
     0
100
AcDbLine
 10
77.5590886714
 20
139.2382889854
 30
0.0
 11
78.8090884106
 21
140.4882896559
 31
0.0
  0
LINE
  5
238
330
1F
100
AcDbEntity
  8
0
  6
SLD-Gestrichelt
 62
     7
370
     0
100
AcDbLine
 10
78.8090884106
 20
158.4882888811
 30
0.0
 11
77.5590886714
 21
159.7382895516
 31
0.0
  0
LINE
  5
239
330
1F
100
AcDbEntity
  8
0
  6
SLD-Gestrichelt
 62
     7
370
     0
100
AcDbLine
 10
237.7590959312
 20
143.8101147169
 30
0.0
 11
225.1590912582
 21
143.8101147169
 31
0.0
  0
LINE
  5
23A
330
1F
100
AcDbEntity
  8
0
  6
SLD-Gestrichelt
 62
     7
370
     0
100
AcDbLine
 10
225.1590912582
 20
139.6101148667
 30
0.0
 11
237.7590959312
 21
139.6101148667
 31
0.0
  0
LINE
  5
23B
330
1F
100
AcDbEntity
  8
0
  6
SLD-Gestrichelt
 62
     7
370
     0
100
AcDbLine
 10
237.7590959312
 20
159.3664636703
 30
0.0
 11
225.1590912582
 21
159.3664636703
 31
0.0
  0
LINE
  5
23C
330
1F
100
AcDbEntity
  8
0
  6
SLD-Gestrichelt
 62
     7
370
     0
100
AcDbLine
 10
225.1590912582
 20
155.1664638201
 30
0.0
 11
237.7590959312
 21
155.1664638201
 31
0.0
  0
LINE
  5
23D
330
1F
100
AcDbEntity
  8
0
  6
SLD-Gestrichelt
 62
     7
370
     0
100
AcDbLine
 10
225.1590912582
 20
143.8101147169
 30
0.0
 11
223.8972758295
 21
141.710114559
 31
0.0
  0
LINE
  5
23E
330
1F
100
AcDbEntity
  8
0
  6
SLD-Gestrichelt
 62
     7
370
     0
100
AcDbLine
 10
223.8972758295
 20
141.710114559
 30
0.0
 11
225.1590912582
 21
139.6101148667
 31
0.0
  0
LINE
  5
23F
330
1F
100
AcDbEntity
  8
0
  6
SLD-Gestrichelt
 62
     7
370
     0
100
AcDbLine
 10
225.1590912582
 20
159.3664636703
 30
0.0
 11
223.8972758295
 21
157.266463978
 31
0.0
  0
LINE
  5
240
330
1F
100
AcDbEntity
  8
0
  6
SLD-Gestrichelt
 62
     7
370
     0
100
AcDbLine
 10
223.8972758295
 20
157.266463978
 30
0.0
 11
225.1590912582
 21
155.1664638201
 31
0.0
  0
LINE
  5
241
330
1F
100
AcDbEntity
  8
0
  6
SLD-Gestrichelt
 62
     7
370
     0
100
AcDbLine
 10
104.5590893717
 20
140.4882896559
 30
0.0
 11
105.0097340139
 21
141.2382893132
 31
0.0
  0
LINE
  5
242
330
1F
100
AcDbEntity
  8
0
  6
SLD-Gestrichelt
 62
     7
370
     0
100
AcDbLine
 10
105.0097340139
 20
157.7382892238
 30
0.0
 11
104.5590893717
 21
158.4882888811
 31
0.0
  0
LINE
  5
243
330
1F
100
AcDbEntity
  8
0
  6
SLD-Gestrichelt
 62
     7
370
     0
100
AcDbLine
 10
78.8090884106
 20
140.4882896559
 30
0.0
 11
104.5590893717
 21
140.4882896559
 31
0.0
  0
LINE
  5
244
330
1F
100
AcDbEntity
  8
0
  6
SLD-Gestrichelt
 62
     7
370
     0
100
AcDbLine
 10
104.5590893717
 20
158.4882888811
 30
0.0
 11
78.8090884106
 21
158.4882888811
 31
0.0
  0
LINE
  5
245
330
1F
100
AcDbEntity
  8
0
  6
SLD-Gestrichelt
 62
     7
370
     0
100
AcDbLine
 10
219.159094
 20
141.2382893132
 30
0.0
 11
221.0699295046
 21
146.4882892424
 31
0.0
  0
LINE
  5
246
330
1F
100
AcDbEntity
  8
0
  6
SLD-Gestrichelt
 62
     7
370
     0
100
AcDbLine
 10
221.0699295046
 20
152.4882892946
 30
0.0
 11
219.159094
 21
157.7382892238
 31
0.0
  0
LINE
  5
247
330
1F
100
AcDbEntity
  8
0
  6
SLD-Gestrichelt
 62
     7
370
     0
100
AcDbLine
 10
219.159094
 20
157.7382892238
 30
0.0
 11
105.0097340139
 21
157.7382892238
 31
0.0
  0
LINE
  5
248
330
1F
100
AcDbEntity
  8
0
  6
SLD-Gestrichelt
 62
     7
370
     0
100
AcDbLine
 10
105.0097340139
 20
141.2382893132
 30
0.0
 11
219.159094
 21
141.2382893132
 31
0.0
  0
LINE
  5
249
330
1F
100
AcDbEntity
  8
0
  6
SLD-Gestrichelt
 62
     7
370
     0
100
AcDbLine
 10
238.9059787037
 20
156.4351803491
 30
0.0
 11
237.9590844156
 21
155.4882893206
 31
0.0
  0
LINE
  5
24A
330
1F
100
AcDbEntity
  8
0
  6
SLD-Gestrichelt
 62
     7
370
     0
100
AcDbLine
 10
237.9590844156
 20
143.4882892163
 30
0.0
 11
238.9059787037
 21
142.5413981879
 31
0.0
  0
LINE
  5
24B
330
1F
100
AcDbEntity
  8
0
  6
SLD-Gestrichelt
 62
     7
370
     0
100
AcDbLine
 10
77.4922197105
 20
129.1074029969
 30
0.0
 11
77.1090885045
 21
129.4905342029
 31
0.0
  0
LINE
  5
24C
330
1F
100
AcDbEntity
  8
0
  6
SLD-Gestrichelt
 62
     7
370
     0
100
AcDbLine
 10
69.0090892257
 20
129.4905342029
 30
0.0
 11
68.8583732935
 21
129.3398182707
 31
0.0
  0
LINE
  5
24D
330
1F
100
AcDbEntity
  8
0
  6
SLD-Gestrichelt
 62
     7
370
     0
100
AcDbLine
 10
57.0090872588
 20
131.4882900433
 30
0.0
 11
50.5590898337
 21
131.4882900433
 31
0.0
  0
LINE
  5
24E
330
1F
100
AcDbEntity
  8
0
  6
SLD-Gestrichelt
 62
     7
370
     0
100
AcDbLine
 10
58.9181048216
 20
129.5792743431
 30
0.0
 11
57.0090872588
 21
131.4882900433
 31
0.0
  0
LINE
  5
24F
330
1F
100
AcDbEntity
  8
0
  6
SLD-Gestrichelt
 62
     7
370
     0
100
AcDbLine
 10
77.1090885045
 20
129.4905342029
 30
0.0
 11
77.1090885045
 21
135.4911070185
 31
0.0
  0
LINE
  5
250
330
1F
100
AcDbEntity
  8
0
  6
SLD-Gestrichelt
 62
     7
370
     0
100
AcDbLine
 10
69.0090892257
 20
135.4921733828
 30
0.0
 11
69.0090892257
 21
129.4905342029
 31
0.0
  0
LINE
  5
251
330
1F
100
AcDbEntity
  8
0
  6
SLD-Gestrichelt
 62
     7
370
     0
100
AcDbLine
 10
77.1090885045
 20
163.4808000045
 30
0.0
 11
77.1090885045
 21
166.988289343
 31
0.0
  0
LINE
  5
252
330
1F
100
AcDbEntity
  8
0
  6
SLD-Gestrichelt
 62
     7
370
     0
100
AcDbLine
 10
69.0090892257
 20
166.988289343
 30
0.0
 11
69.0090892257
 21
163.4844051542
 31
0.0
  0
LINE
  5
253
330
1F
100
AcDbEntity
  8
0
  6
SLD-Gestrichelt
 62
     7
370
     0
100
AcDbLine
 10
77.1090885045
 20
166.988289343
 30
0.0
 11
73.0590888651
 21
169.4217756258
 31
0.0
  0
LINE
  5
254
330
1F
100
AcDbEntity
  8
0
  6
SLD-Gestrichelt
 62
     7
370
     0
100
AcDbLine
 10
73.0590888651
 20
169.4217756258
 30
0.0
 11
69.0090892257
 21
166.988289343
 31
0.0
  0
LINE
  5
255
330
1F
100
AcDbEntity
  8
0
  6
SLD-Gestrichelt
 62
     7
370
     0
100
AcDbLine
 10
236.5090822222
 20
153.1882892696
 30
0.0
 11
235.0090866329
 21
153.1882892696
 31
0.0
  0
LINE
  5
256
330
1F
100
AcDbEntity
  8
0
  6
SLD-Gestrichelt
 62
     7
370
     0
100
AcDbLine
 10
235.0090866329
 20
145.7882892674
 30
0.0
 11
236.5090822222
 21
145.7882892674
 31
0.0
  0
LINE
  5
257
330
1F
100
AcDbEntity
  8
0
  6
SLD-Gestrichelt
 62
     7
370
     0
100
AcDbLine
 10
237.9590844156
 20
152.7382893355
 30
0.0
 11
237.5260715725
 21
152.4882892946
 31
0.0
  0
LINE
  5
258
330
1F
100
AcDbEntity
  8
0
  6
SLD-Gestrichelt
 62
     7
370
     0
100
AcDbLine
 10
237.5260715725
 20
146.4882892424
 30
0.0
 11
237.9590844156
 21
146.2382892014
 31
0.0
  0
LINE
  5
259
330
1F
100
AcDbEntity
  8
0
  6
SLD-Gestrichelt
 62
     7
370
     0
100
AcDbLine
 10
237.5260715725
 20
152.4882892946
 30
0.0
 11
236.5090822222
 21
152.4882892946
 31
0.0
  0
LINE
  5
25A
330
1F
100
AcDbEntity
  8
0
  6
SLD-Gestrichelt
 62
     7
370
     0
100
AcDbLine
 10
236.5090822222
 20
146.4882892424
 30
0.0
 11
237.5260715725
 21
146.4882892424
 31
0.0
  0
LINE
  5
25B
330
1F
100
AcDbEntity
  8
0
  6
SLD-Gestrichelt
 62
     7
370
     0
100
AcDbLine
 10
235.0090866329
 20
152.4882892946
 30
0.0
 11
221.0699295046
 21
152.4882892946
 31
0.0
  0
LINE
  5
25C
330
1F
100
AcDbEntity
  8
0
  6
SLD-Gestrichelt
 62
     7
370
     0
100
AcDbLine
 10
221.0699295046
 20
146.4882892424
 30
0.0
 11
235.0090866329
 21
146.4882892424
 31
0.0
  0
LINE
  5
25D
330
1F
100
AcDbEntity
  8
0
  6
SLD-Gestrichelt
 62
     7
370
     0
100
AcDbLine
 10
98.5590883883
 20
118.4882897751
 30
0.0
 11
98.5590883883
 21
117.9882887618
 31
0.0
  0
LINE
  5
25E
330
1F
100
AcDbEntity
  8
0
  6
SLD-Gestrichelt
 62
     7
370
     0
100
AcDbLine
 10
102.5590890439
 20
117.9882887618
 30
0.0
 11
102.5590890439
 21
118.4882897751
 31
0.0
  0
LINE
  5
25F
330
1F
100
AcDbEntity
  8
0
  6
SLD-Gestrichelt
 62
     7
370
     0
100
AcDbLine
 10
102.5590890439
 20
118.4882897751
 30
0.0
 11
100.5590887161
 21
119.6900106834
 31
0.0
  0
LINE
  5
260
330
1F
100
AcDbEntity
  8
0
  6
SLD-Gestrichelt
 62
     7
370
     0
100
AcDbLine
 10
100.5590887161
 20
119.6900106834
 30
0.0
 11
98.5590883883
 21
118.4882897751
 31
0.0
  0
LINE
  5
261
330
1F
100
AcDbEntity
  8
VERMASSUNG
  6
SLD-Punktstrich
100
AcDbLine
 10
48.4903421602
 20
149.4882892685
 30
0.0
 11
273.5590886118
 21
149.4882892685
 31
0.0
  0
LINE
  5
262
330
1F
100
AcDbEntity
  8
VERMASSUNG
  6
SLD-Punktstrich
100
AcDbLine
 10
273.5590886118
 20
172.4337379929
 30
0.0
 11
273.5590886118
 21
149.4882892685
 31
0.0
  0
LINE
  5
263
330
1F
100
AcDbEntity
  8
VERMASSUNG
  6
SLD-Punktstrich
100
AcDbLine
 10
238.5590886118
 20
166.7592040261
 30
0.0
 11
238.5590886118
 21
131.4029723687
 31
0.0
  0
DIMENSION
  5
264
330
1F
100
AcDbEntity
  8
VERMASSUNG
100
AcDbDimension
  2
_D
 10
273.5590886118
 20
193.9896567035
 30
0.0
 11
181.0590886118
 21
193.9896567035
 31
0.0
 70
   160
  1
<>
 71
     2
 42
-1.0
  3
SLDDIMSTYLE0
100
AcDbAlignedDimension
 13
88.5590886118
 23
180.4882892685
 33
0.0
 14
273.5590886118
 24
172.4337379929
 34
0.0
100
AcDbRotatedDimension
  0
DIMENSION
  5
26F
330
1F
100
AcDbEntity
  8
VERMASSUNG
100
AcDbDimension
  2
_D_1
 10
238.5590886118
 20
187.7033162657
 30
0.0
 11
163.5590886118
 21
187.7033162657
 31
0.0
 70
   160
  1
<>
 71
     2
 42
-1.0
  3
SLDDIMSTYLE0
100
AcDbAlignedDimension
 13
88.5590886118
 23
180.4882892685
 33
0.0
 14
238.5590886118
 24
166.7592040261
 34
0.0
100
AcDbRotatedDimension
  0
DIMENSION
  5
279
330
1F
100
AcDbEntity
  8
VERMASSUNG
100
AcDbDimension
  2
_D_2
 10
43.7757404572
 20
117.9882892685
 30
0.0
 11
43.7757404572
 21
149.4882892685
 31
0.0
 70
   160
  1
PSC%%c<>
 71
     2
 42
-1.0
  3
SLDDIMSTYLE0
100
AcDbAlignedDimension
 13
89.0590886118
 23
180.9882892685
 33
0.0
 14
89.0590886118
 24
117.9882892685
 34
0.0
 50
90.0
100
AcDbRotatedDimension
  0
DIMENSION
  5
285
330
1F
100
AcDbEntity
  8
VERMASSUNG
100
AcDbDimension
  2
_D_3
 10
114.5590886118
 20
169.4882892685
 30
0.0
 11
115.6466943003
 21
171.1667317569
 31
0.0
 70
   164
  1
<>
 71
     1
 42
-1.0
  3
SLDDIMSTYLE1
100
AcDbRadialDimension
 15
112.3838972348
 25
166.1314242916
 35
0.0
 40
0.0
  0
DIMENSION
  5
28D
330
1F
100
AcDbEntity
  8
VERMASSUNG
100
AcDbDimension
  2
_D_4
 10
150.3722473003
 20
133.4882892685
 30
0.0
 11
150.3722473003
 21
174.5677493548
 31
0.0
 70
   160
  1
%%c<>
 71
     2
 42
-1.0
  3
SLDDIMSTYLE2
100
AcDbAlignedDimension
 13
114.5590886118
 23
165.4882892685
 33
0.0
 14
114.5590886118
 24
133.4882892685
 34
0.0
 50
90.0
100
AcDbRotatedDimension
  0
DIMENSION
  5
299
330
1F
100
AcDbEntity
  8
VERMASSUNG
100
AcDbDimension
  2
_D_5
 10
242.3833738061
 20
154.7664638615
 30
0.0
 11
242.3833738061
 21
172.2394015631
 31
0.0
 70
   160
  1
M<>
 71
     2
 42
-1.0
  3
SLDDIMSTYLE2
100
AcDbAlignedDimension
 13
243.7590886118
 23
159.7664638615
 33
0.0
 14
243.7590886118
 24
154.7664638615
 34
0.0
 50
90.0
100
AcDbRotatedDimension
  0
LINE
  5
2A4
330
1F
100
AcDbEntity
  8
VERMASSUNG
  6
SLD-Punktstrich
370
     0
100
AcDbLine
 10
168.7335587624
 20
157.2664638615
 30
0.0
 11
203.2391908457
 21
157.2664638615
 31
0.0
  0
LINE
  5
2A5
330
1F
100
AcDbEntity
  8
VERMASSUNG
  6
SLD-Punktstrich
370
     0
100
AcDbLine
 10
167.8603720493
 20
141.7101146754
 30
0.0
 11
201.7247248411
 21
141.7101146754
 31
0.0
  0
CIRCLE
  5
2A6
330
1F
100
AcDbEntity
  8
0
  6
SLD-Durchgehend
 62
     7
370
    15
100
AcDbCircle
 10
151.6594592599
 20
76.4604674256
 30
0.0
 40
15.99999999999997
  0
LINE
  5
2A7
330
1F
100
AcDbEntity
  8
0
  6
SLD-Durchgehend
 62
     7
370
    15
100
AcDbLine
 10
166.5326286224
 20
77.3542496678
 30
0.0
 11
167.3675425467
 21
77.8565444122
 31
0.0
  0
ARC
  5
2A8
330
1F
100
AcDbEntity
  8
0
  6
SLD-Durchgehend
 62
     7
370
    15
100
AcDbCircle
 10
167.2967755292
 20
77.9546540317
 30
0.0
 40
0.1209688729090101
100
AcDbArc
 50
305.8031224906
 51
65.1138868821
  0
LINE
  5
2A9
330
1F
100
AcDbEntity
  8
0
  6
SLD-Durchgehend
 62
     7
370
    15
100
AcDbLine
 10
167.3476811615
 20
78.0643904652
 30
0.0
 11
166.4098439855
 21
78.5666850931
 31
0.0
  0
ARC
  5
2AA
330
1F
100
AcDbEntity
  8
0
  6
SLD-Durchgehend
 62
     7
370
    15
100
AcDbCircle
 10
151.6594592599
 20
76.4604674256
 30
0.0
 40
14.89999999999997
100
AcDbArc
 50
8.1263717008
 51
9.2450053025
  0
LINE
  5
2AB
330
1F
100
AcDbEntity
  8
0
  6
SLD-Durchgehend
 62
     7
370
    15
100
AcDbLine
 10
166.3659134996
 20
78.8542495645
 30
0.0
 11
167.1612536651
 21
79.3565444252
 31
0.0
  0
LWPOLYLINE
  5
2AC
330
1F
100
AcDbEntity
  8
0
  6
SLD-Durchgehend
 62
     7
370
    15
100
AcDbPolyline
 90
        9
 70
   128
 43
0.0
 10
167.1612536651
 20
79.3565444252
 10
167.1838717652
 20
79.3767219945
 10
167.1984274057
 20
79.4023829582
 10
167.204372969
 20
79.4292164571
 10
167.2029489768
 20
79.4585226174
 10
167.1950858203
 20
79.4854073389
 10
167.1763755498
 20
79.5180348284
 10
167.1418924001
 20
79.5516537107
 10
167.1209776891
 20
79.5643904782
  0
LINE
  5
2AD
330
1F
100
AcDbEntity
  8
0
  6
SLD-Durchgehend
 62
     7
370
    15
100
AcDbLine
 10
167.1209776891
 20
79.5643904782
 30
0.0
 11
166.1164708552
 21
80.0666851061
 31
0.0
  0
ARC
  5
2AE
330
1F
100
AcDbEntity
  8
0
  6
SLD-Durchgehend
 62
     7
370
    15
100
AcDbCircle
 10
151.6594592599
 20
76.4604674256
 30
0.0
 40
14.89999999999996
100
AcDbArc
 50
14.0062678394
 51
15.1488557102
  0
LINE
  5
2AF
330
1F
100
AcDbEntity
  8
0
  6
SLD-Durchgehend
 62
     7
370
    15
100
AcDbLine
 10
166.0416865838
 20
80.3542495775
 30
0.0
 11
166.8043401209
 21
80.8565442055
 31
0.0
  0
LWPOLYLINE
  5
2B0
330
1F
100
AcDbEntity
  8
0
  6
SLD-Durchgehend
 62
     7
370
    15
100
AcDbPolyline
 90
        9
 70
   128
 43
0.0
 10
166.8043401209
 20
80.8565442055
 10
166.8239221094
 20
80.8746244363
 10
166.8367277948
 20
80.8987130946
 10
166.841293138
 20
80.9292730479
 10
166.837337811
 20
80.9570627823
 10
166.8273232994
 20
80.983259955
 10
166.8041594443
 20
81.0176569573
 10
166.7623393354
 20
81.0534667759
 10
166.7424555985
 20
81.0643902584
  0
LINE
  5
2B1
330
1F
100
AcDbEntity
  8
0
  6
SLD-Durchgehend
 62
     7
370
    15
100
AcDbLine
 10
166.7424555985
 20
81.0643902584
 30
0.0
 11
165.6571928528
 21
81.5666851192
 31
0.0
  0
ARC
  5
2B2
330
1F
100
AcDbEntity
  8
0
  6
SLD-Durchgehend
 62
     7
370
    15
100
AcDbCircle
 10
151.6594592599
 20
76.4604674256
 30
0.0
 40
14.89999999999997
100
AcDbArc
 50
20.0414082842
 51
21.2230004203
  0
LINE
  5
2B3
330
1F
100
AcDbEntity
  8
0
  6
SLD-Durchgehend
 62
     7
370
    15
100
AcDbLine
 10
165.5489200843
 20
81.8542495905
 30
0.0
 11
166.2857769174
 21
82.3565444513
 31
0.0
  0
LWPOLYLINE
  5
2B4
330
1F
100
AcDbEntity
  8
0
  6
SLD-Durchgehend
 62
     7
370
    15
100
AcDbPolyline
 90
        9
 70
   128
 43
0.0
 10
166.2857769174
 20
82.3565444513
 10
166.3026953233
 20
82.3725566803
 10
166.3139829529
 20
82.3949610419
 10
166.3171084714
 20
82.4233375094
 10
166.3122944651
 20
82.4493805482
 10
166.3014892605
 20
82.4748294032
 10
166.2761228276
 20
82.5102480664
 10
166.2295585615
 20
82.5489542983
 10
166.2002647412
 20
82.5643905043
  0
LINE
  5
2B5
330
1F
100
AcDbEntity
  8
0
  6
SLD-Durchgehend
 62
     7
370
    15
100
AcDbLine
 10
166.2002647412
 20
82.5643905043
 30
0.0
 11
165.0149034453
 21
83.066685365
 31
0.0
  0
ARC
  5
2B6
330
1F
100
AcDbEntity
  8
0
  6
SLD-Durchgehend
 62
     7
370
    15
100
AcDbCircle
 10
151.6594592599
 20
76.4604674256
 30
0.0
 40
14.89999999999997
100
AcDbArc
 50
26.3191194298
 51
27.5595289824
  0
LINE
  5
2B7
330
1F
100
AcDbEntity
  8
0
  6
SLD-Durchgehend
 62
     7
370
    15
100
AcDbLine
 10
164.8687649635
 20
83.3542498364
 30
0.0
 11
165.5875224737
 21
83.8565442315
 31
0.0
  0
LWPOLYLINE
  5
2B8
330
1F
100
AcDbEntity
  8
0
  6
SLD-Durchgehend
 62
     7
370
    15
100
AcDbPolyline
 90
        9
 70
   128
 43
0.0
 10
165.5875224737
 20
83.8565442315
 10
165.6020781142
 20
83.8704875275
 10
165.6120861066
 20
83.891073016
 10
165.6140558538
 20
83.9171160548
 10
165.6085964409
 20
83.9411804988
 10
165.5935956282
 20
83.9713353268
 10
165.5626198394
 20
84.0085244342
 10
165.5051060138
 20
84.0503547876
 10
165.4751481605
 20
84.0643902845
  0
LINE
  5
2B9
330
1F
100
AcDbEntity
  8
0
  6
SLD-Durchgehend
 62
     7
370
    15
100
AcDbLine
 10
165.4751481605
 20
84.0643902845
 30
0.0
 11
164.161428262
 21
84.5666851453
 31
0.0
  0
ARC
  5
2BA
330
1F
100
AcDbEntity
  8
0
  6
SLD-Durchgehend
 62
     7
370
    15
100
AcDbCircle
 10
151.6594592599
 20
76.4604674256
 30
0.0
 40
14.89999999999997
100
AcDbArc
 50
32.9591848067
 51
34.2871726543
  0
LINE
  5
2BB
330
1F
100
AcDbEntity
  8
0
  6
SLD-Durchgehend
 62
     7
370
    15
100
AcDbLine
 10
163.9702035231
 20
84.8542496166
 30
0.0
 11
164.680700202
 21
85.3565444774
 31
0.0
  0
LWPOLYLINE
  5
2BC
330
1F
100
AcDbEntity
  8
0
  6
SLD-Durchgehend
 62
     7
370
    15
100
AcDbPolyline
 90
        9
 70
   128
 43
0.0
 10
164.680700202
 20
85.3565444774
 10
164.6931342897
 20
85.3683853126
 10
164.7021290032
 20
85.386988481
 10
164.7032633541
 20
85.4105267278
 10
164.6974342061
 20
85.4323178134
 10
164.6815821645
 20
85.4611981264
 10
164.6479101968
 20
85.498749984
 10
164.5820312319
 20
85.544306559
 10
164.5362399635
 20
85.5643905303
  0
LINE
  5
2BD
330
1F
100
AcDbEntity
  8
0
  6
SLD-Durchgehend
 62
     7
370
    15
100
AcDbLine
 10
164.5362399635
 20
85.5643905303
 30
0.0
 11
163.2065357757
 21
86.0135981417
 31
0.0
  0
LINE
  5
2BE
330
1F
100
AcDbEntity
  8
0
  6
SLD-Durchgehend
 62
     7
370
    15
100
AcDbLine
 10
162.9944102955
 20
86.4900767407
 30
0.0
 11
163.5175574688
 21
86.8565447233
 31
0.0
  0
LWPOLYLINE
  5
2BF
330
1F
100
AcDbEntity
  8
0
  6
SLD-Durchgehend
 62
     7
370
    15
100
AcDbPolyline
 90
        9
 70
   128
 43
0.0
 10
163.5175574688
 20
86.8565447233
 10
163.5280544055
 20
86.866207195
 10
163.5370472563
 20
86.8858329556
 10
163.5363338632
 20
86.9071723497
 10
163.5295203072
 20
86.9262709818
 10
163.5112645221
 20
86.9542004145
 10
163.4711114806
 20
86.9929089746
 10
163.3875839529
 20
87.0431920118
 10
163.3320650203
 20
87.0643907762
  0
LINE
  5
2C0
330
1F
100
AcDbEntity
  8
0
  6
SLD-Durchgehend
 62
     7
370
    15
100
AcDbLine
 10
163.3320650203
 20
87.0643907762
 30
0.0
 11
162.1480681119
 21
87.4062327272
 31
0.0
  0
LINE
  5
2C1
330
1F
100
AcDbEntity
  8
0
  6
SLD-Durchgehend
 62
     7
370
    15
100
AcDbLine
 10
161.4083269728
 20
87.9527197755
 30
0.0
 11
162.0120559004
 21
88.3565440378
 31
0.0
  0
LWPOLYLINE
  5
2C2
330
1F
100
AcDbEntity
  8
0
  6
SLD-Durchgehend
 62
     7
370
    15
100
AcDbPolyline
 90
        9
 70
   128
 43
0.0
 10
162.0120559004
 20
88.3565440378
 10
162.0207199944
 20
88.3638996235
 10
162.0292574284
 20
88.3797637722
 10
162.0296932874
 20
88.3947683102
 10
162.0246948791
 20
88.4107758827
 10
162.0102817309
 20
88.4334219224
 10
161.9765222189
 20
88.4664019174
 10
161.8970198674
 20
88.5163506097
 10
161.7682645214
 20
88.5643900908
  0
LINE
  5
2C3
330
1F
100
AcDbEntity
  8
0
  6
SLD-Durchgehend
 62
     7
370
    15
100
AcDbLine
 10
161.7682645214
 20
88.5643900908
 30
0.0
 11
159.6025865642
 21
89.0666849515
 31
0.0
  0
ARC
  5
2C4
330
1F
100
AcDbEntity
  8
0
  6
SLD-Durchgehend
 62
     7
370
    15
100
AcDbCircle
 10
151.6594592599
 20
76.4604674256
 30
0.0
 40
14.89999999999996
100
AcDbArc
 50
57.7851348081
 51
59.923210481
  0
LINE
  5
2C5
330
1F
100
AcDbEntity
  8
0
  6
SLD-Durchgehend
 62
     7
370
    15
100
AcDbLine
 10
159.1267463868
 20
89.3542494229
 30
0.0
 11
159.9803980557
 21
89.8565442837
 31
0.0
  0
LWPOLYLINE
  5
2C6
330
1F
100
AcDbEntity
  8
0
  6
SLD-Durchgehend
 62
     7
370
    15
100
AcDbPolyline
 90
        9
 70
   128
 43
0.0
 10
159.9803980557
 20
89.8565442837
 10
159.9872144056
 20
89.8614067188
 10
159.9960517255
 20
89.873397497
 10
159.9977206556
 20
89.8846413544
 10
159.9945932743
 20
89.8969292245
 10
159.9843310309
 20
89.9133754498
 10
159.9587895093
 20
89.9379502586
 10
159.875970718
 20
89.9874882377
 10
159.6360610915
 20
90.0643903366
  0
LINE
  5
2C7
330
1F
100
AcDbEntity
  8
0
  6
SLD-Durchgehend
 62
     7
370
    15
100
AcDbLine
 10
159.6360610915
 20
90.0643903366
 30
0.0
 11
156.4578566817
 21
90.5666851974
 31
0.0
  0
ARC
  5
2C8
330
1F
100
AcDbEntity
  8
0
  6
SLD-Durchgehend
 62
     7
370
    15
100
AcDbCircle
 10
151.6594592599
 20
76.4604674256
 30
0.0
 40
14.89999999999999
100
AcDbArc
 50
71.2136529668
 51
75.0221147726
  0
LINE
  5
2C9
330
1F
100
AcDbEntity
  8
0
  6
SLD-Durchgehend
 62
     7
370
    15
100
AcDbLine
 10
155.5103076739
 20
90.8542496688
 30
0.0
 11
156.8363107858
 21
91.3565445296
 31
0.0
  0
LWPOLYLINE
  5
2CA
330
1F
100
AcDbEntity
  8
0
  6
SLD-Durchgehend
 62
     7
370
    15
100
AcDbPolyline
 90
       10
 70
   128
 43
0.0
 10
156.8363107858
 20
91.3565445296
 10
156.8493809668
 20
91.3639112911
 10
156.8550066208
 20
91.370066402
 10
156.8573312019
 20
91.3778122119
 10
156.8557004561
 20
91.3853782765
 10
156.8495844608
 20
91.3946104771
 10
156.8334385869
 20
91.4085384062
 10
156.7722977256
 20
91.4402331761
 10
156.50235574
 20
91.5167506388
 10
156.1942588655
 20
91.5643905825
  0
ARC
  5
2CB
330
1F
100
AcDbEntity
  8
0
  6
SLD-Durchgehend
 62
     7
370
    15
100
AcDbCircle
 10
151.6594592599
 20
49.4364820049
 30
0.0
 40
42.37127669290926
100
AcDbArc
 50
83.8561332853
 51
96.1438667147
  0
LWPOLYLINE
  5
2CC
330
1F
100
AcDbEntity
  8
0
  6
SLD-Durchgehend
 62
     7
370
    15
100
AcDbPolyline
 90
       11
 70
   128
 43
0.0
 10
147.1246596543
 20
91.5643905825
 10
146.9224732486
 20
91.5365701145
 10
146.6508534854
 20
91.47613473
 10
146.536039107
 20
91.4357032231
 10
146.4831153048
 20
91.4068387425
 10
146.4694365044
 20
91.3947268925
 10
146.4635198121
 20
91.3860478974
 10
146.461596631
 20
91.3786802045
 10
146.4629954775
 20
91.3717716536
 10
146.4687259053
 20
91.3645827747
 10
146.482607734
 20
91.3565445296
  0
LINE
  5
2CD
330
1F
100
AcDbEntity
  8
0
  6
SLD-Durchgehend
 62
     7
370
    15
100
AcDbLine
 10
146.482607734
 20
91.3565445296
 30
0.0
 11
147.8086108459
 21
90.8542496688
 31
0.0
  0
ARC
  5
2CE
330
1F
100
AcDbEntity
  8
0
  6
SLD-Durchgehend
 62
     7
370
    15
100
AcDbCircle
 10
151.6594592599
 20
76.4604674256
 30
0.0
 40
14.89999999999996
100
AcDbArc
 50
104.9778852274
 51
108.7863470332
  0
LINE
  5
2CF
330
1F
100
AcDbEntity
  8
0
  6
SLD-Durchgehend
 62
     7
370
    15
100
AcDbLine
 10
146.861061838
 20
90.5666851974
 30
0.0
 11
143.6828574282
 21
90.0643903366
 31
0.0
  0
LWPOLYLINE
  5
2D0
330
1F
100
AcDbEntity
  8
0
  6
SLD-Durchgehend
 62
     7
370
    15
100
AcDbPolyline
 90
       10
 70
   128
 43
0.0
 10
143.6828574282
 20
90.0643903366
 10
143.4751967085
 20
90.001971235
 10
143.4036078048
 20
89.9669218413
 10
143.3509079856
 20
89.9302193499
 10
143.3354899404
 20
89.9144809297
 10
143.32427216
 20
89.8968062899
 10
143.3211755124
 20
89.8842651001
 10
143.3230949683
 20
89.8728303215
 10
143.3313166839
 20
89.8617447889
 10
143.3385204641
 20
89.8565442837
  0
LINE
  5
2D1
330
1F
100
AcDbEntity
  8
0
  6
SLD-Durchgehend
 62
     7
370
    15
100
AcDbLine
 10
143.3385204641
 20
89.8565442837
 30
0.0
 11
144.1921721329
 21
89.3542494229
 31
0.0
  0
ARC
  5
2D2
330
1F
100
AcDbEntity
  8
0
  6
SLD-Durchgehend
 62
     7
370
    15
100
AcDbCircle
 10
151.6594592599
 20
76.4604674256
 30
0.0
 40
14.89999999999996
100
AcDbArc
 50
120.076789519
 51
122.2148651919
  0
LINE
  5
2D3
330
1F
100
AcDbEntity
  8
0
  6
SLD-Durchgehend
 62
     7
370
    15
100
AcDbLine
 10
143.7163319555
 20
89.0666849515
 30
0.0
 11
141.5506539983
 21
88.5643900908
 31
0.0
  0
LWPOLYLINE
  5
2D4
330
1F
100
AcDbEntity
  8
0
  6
SLD-Durchgehend
 62
     7
370
    15
100
AcDbPolyline
 90
        8
 70
   128
 43
0.0
 10
141.5506539983
 20
88.5643900908
 10
141.3955245284
 20
88.5022038198
 10
141.3194457186
 20
88.4456175915
 10
141.2996169296
 20
88.4207587293
 10
141.2908718107
 20
88.4019804723
 10
141.2889979896
 20
88.3834601915
 10
141.29352608
 20
88.3701692871
 10
141.3068626193
 20
88.3565440378
  0
LINE
  5
2D5
330
1F
100
AcDbEntity
  8
0
  6
SLD-Durchgehend
 62
     7
370
    15
100
AcDbLine
 10
141.3068626193
 20
88.3565440378
 30
0.0
 11
141.937222716
 21
87.9349063686
 31
0.0
  0
LINE
  5
2D6
330
1F
100
AcDbEntity
  8
0
  6
SLD-Durchgehend
 62
     7
370
    15
100
AcDbLine
 10
141.1360329134
 20
87.3961809627
 30
0.0
 11
139.9868534995
 21
87.0643907762
 31
0.0
  0
LWPOLYLINE
  5
2D7
330
1F
100
AcDbEntity
  8
0
  6
SLD-Durchgehend
 62
     7
370
    15
100
AcDbPolyline
 90
        9
 70
   128
 43
0.0
 10
139.9868534995
 20
87.0643907762
 10
139.8953650263
 20
87.0247536874
 10
139.8440547404
 20
86.989904528
 10
139.7995067877
 20
86.94339521
 10
139.7870447603
 20
86.9210611633
 10
139.7812416894
 20
86.8978106952
 10
139.7835699958
 20
86.8792829639
 10
139.7914536414
 20
86.8654956645
 10
139.801361051
 20
86.8565447233
  0
LINE
  5
2D8
330
1F
100
AcDbEntity
  8
0
  6
SLD-Durchgehend
 62
     7
370
    15
100
AcDbLine
 10
139.801361051
 20
86.8565447233
 30
0.0
 11
140.2950719116
 21
86.5106962225
 31
0.0
  0
LINE
  5
2D9
330
1F
100
AcDbEntity
  8
0
  6
SLD-Durchgehend
 62
     7
370
    15
100
AcDbLine
 10
140.0967523572
 20
86.0083175427
 30
0.0
 11
138.7826785562
 21
85.5643905303
 31
0.0
  0
LWPOLYLINE
  5
2DA
330
1F
100
AcDbEntity
  8
0
  6
SLD-Durchgehend
 62
     7
370
    15
100
AcDbPolyline
 90
        9
 70
   128
 43
0.0
 10
138.7826785562
 20
85.5643905303
 10
138.6965498445
 20
85.5193480453
 10
138.6578459409
 20
85.485989002
 10
138.6308096466
 20
85.4511072463
 10
138.6190777761
 20
85.4255834199
 10
138.6150721577
 20
85.3995296708
 10
138.6190619436
 20
85.3800855181
 10
138.6317242054
 20
85.361832527
 10
138.6382183177
 20
85.3565444774
  0
LINE
  5
2DB
330
1F
100
AcDbEntity
  8
0
  6
SLD-Durchgehend
 62
     7
370
    15
100
AcDbLine
 10
138.6382183177
 20
85.3565444774
 30
0.0
 11
139.3487149966
 21
84.8542496166
 31
0.0
  0
ARC
  5
2DC
330
1F
100
AcDbEntity
  8
0
  6
SLD-Durchgehend
 62
     7
370
    15
100
AcDbCircle
 10
151.6594592599
 20
76.4604674256
 30
0.0
 40
14.89999999999995
100
AcDbArc
 50
145.7128273457
 51
147.0408151933
  0
LINE
  5
2DD
330
1F
100
AcDbEntity
  8
0
  6
SLD-Durchgehend
 62
     7
370
    15
100
AcDbLine
 10
139.1574902577
 20
84.5666851453
 30
0.0
 11
137.8437703592
 21
84.0643902845
 31
0.0
  0
LWPOLYLINE
  5
2DE
330
1F
100
AcDbEntity
  8
0
  6
SLD-Durchgehend
 62
     7
370
    15
100
AcDbPolyline
 90
        9
 70
   128
 43
0.0
 10
137.8437703592
 20
84.0643902845
 10
137.7746243147
 20
84.0244980133
 10
137.7392405761
 20
83.990246763
 10
137.7170862747
 20
83.9569678134
 10
137.7070186776
 20
83.9299846045
 10
137.704762083
 20
83.9028877742
 10
137.7099234728
 20
83.8823008887
 10
137.7244446543
 20
83.8621154032
 10
137.731396046
 20
83.8565442315
  0
LINE
  5
2DF
330
1F
100
AcDbEntity
  8
0
  6
SLD-Durchgehend
 62
     7
370
    15
100
AcDbLine
 10
137.731396046
 20
83.8565442315
 30
0.0
 11
138.4501535562
 21
83.3542498364
 31
0.0
  0
ARC
  5
2E0
330
1F
100
AcDbEntity
  8
0
  6
SLD-Durchgehend
 62
     7
370
    15
100
AcDbCircle
 10
151.6594592599
 20
76.4604674256
 30
0.0
 40
14.89999999999995
100
AcDbArc
 50
152.4404710176
 51
153.6808805702
  0
LINE
  5
2E1
330
1F
100
AcDbEntity
  8
0
  6
SLD-Durchgehend
 62
     7
370
    15
100
AcDbLine
 10
138.3040150744
 20
83.066685365
 30
0.0
 11
137.1186537785
 21
82.5643905043
 31
0.0
  0
LWPOLYLINE
  5
2E2
330
1F
100
AcDbEntity
  8
0
  6
SLD-Durchgehend
 62
     7
370
    15
100
AcDbPolyline
 90
        9
 70
   128
 43
0.0
 10
137.1186537785
 20
82.5643905043
 10
137.061587919
 20
82.5285271346
 10
137.0301241172
 20
82.4947769358
 10
137.0113849757
 20
82.4623315199
 10
137.0030673338
 20
82.4344975478
 10
137.0024023694
 20
82.4068628787
 10
137.0086515439
 20
82.3851462989
 10
137.0248910156
 20
82.3630637093
 10
137.0331416023
 20
82.3565444513
  0
LINE
  5
2E3
330
1F
100
AcDbEntity
  8
0
  6
SLD-Durchgehend
 62
     7
370
    15
100
AcDbLine
 10
137.0331416023
 20
82.3565444513
 30
0.0
 11
137.7699984354
 21
81.8542495905
 31
0.0
  0
ARC
  5
2E4
330
1F
100
AcDbEntity
  8
0
  6
SLD-Durchgehend
 62
     7
370
    15
100
AcDbCircle
 10
151.6594592599
 20
76.4604674256
 30
0.0
 40
14.89999999999997
100
AcDbArc
 50
158.7769995797
 51
159.9585917158
  0
LINE
  5
2E5
330
1F
100
AcDbEntity
  8
0
  6
SLD-Durchgehend
 62
     7
370
    15
100
AcDbLine
 10
137.6617256669
 20
81.5666851192
 30
0.0
 11
136.5764629213
 21
81.0643902584
 31
0.0
  0
LWPOLYLINE
  5
2E6
330
1F
100
AcDbEntity
  8
0
  6
SLD-Durchgehend
 62
     7
370
    15
100
AcDbPolyline
 90
        9
 70
   128
 43
0.0
 10
136.5764629213
 20
81.0643902584
 10
136.5285044653
 20
81.0318763903
 10
136.5007799236
 20
80.9991967469
 10
136.4848310245
 20
80.9674712433
 10
136.4782214281
 20
80.9391147993
 10
136.47904658
 20
80.91118071
 10
136.4864049596
 20
80.8884094073
 10
136.5044139442
 20
80.8644404239
 10
136.5145783988
 20
80.8565442055
  0
LINE
  5
2E7
330
1F
100
AcDbEntity
  8
0
  6
SLD-Durchgehend
 62
     7
370
    15
100
AcDbLine
 10
136.5145783988
 20
80.8565442055
 30
0.0
 11
137.2772319359
 21
80.3542495775
 31
0.0
  0
ARC
  5
2E8
330
1F
100
AcDbEntity
  8
0
  6
SLD-Durchgehend
 62
     7
370
    15
100
AcDbCircle
 10
151.6594592599
 20
76.4604674256
 30
0.0
 40
14.89999999999996
100
AcDbArc
 50
164.8511442898
 51
165.9937321606
  0
LINE
  5
2E9
330
1F
100
AcDbEntity
  8
0
  6
SLD-Durchgehend
 62
     7
370
    15
100
AcDbLine
 10
137.2024476645
 20
80.0666851061
 30
0.0
 11
136.1979408306
 21
79.5643904782
 31
0.0
  0
LWPOLYLINE
  5
2EA
330
1F
100
AcDbEntity
  8
0
  6
SLD-Durchgehend
 62
     7
370
    15
100
AcDbPolyline
 90
        9
 70
   128
 43
0.0
 10
136.1979408306
 20
79.5643904782
 10
136.1636206624
 20
79.5409011259
 10
136.1362667871
 20
79.5090685203
 10
136.1209632946
 20
79.4777909829
 10
136.1146628973
 20
79.4488210301
 10
136.115759064
 20
79.4198254659
 10
136.123349343
 20
79.3955572951
 10
136.1415660126
 20
79.3694439414
 10
136.1576648546
 20
79.3565444252
  0
LINE
  5
2EB
330
1F
100
AcDbEntity
  8
0
  6
SLD-Durchgehend
 62
     7
370
    15
100
AcDbLine
 10
136.1576648546
 20
79.3565444252
 30
0.0
 11
136.9530050201
 21
78.8542495645
 31
0.0
  0
ARC
  5
2EC
330
1F
100
AcDbEntity
  8
0
  6
SLD-Durchgehend
 62
     7
370
    15
100
AcDbCircle
 10
151.6594592599
 20
76.4604674256
 30
0.0
 40
14.89999999999994
100
AcDbArc
 50
170.7549946975
 51
171.8736282992
  0
LINE
  5
2ED
330
1F
100
AcDbEntity
  8
0
  6
SLD-Durchgehend
 62
     7
370
    15
100
AcDbLine
 10
136.9090745342
 20
78.5666850931
 30
0.0
 11
135.9712373582
 21
78.0643904652
 31
0.0
  0
ARC
  5
2EE
330
1F
100
AcDbEntity
  8
0
  6
SLD-Durchgehend
 62
     7
370
    15
100
AcDbCircle
 10
136.0199465446
 20
77.9548639201
 30
0.0
 40
0.1198692993128821
100
AcDbArc
 50
113.9759079556
 51
235.1070826717
  0
LINE
  5
2EF
330
1F
100
AcDbEntity
  8
0
  6
SLD-Durchgehend
 62
     7
370
    15
100
AcDbLine
 10
135.951375973
 20
77.8565444122
 30
0.0
 11
136.7862898973
 21
77.3542496678
 31
0.0
  0
ARC
  5
2F0
330
1F
100
AcDbEntity
  8
0
  6
SLD-Durchgehend
 62
     7
370
    15
100
AcDbCircle
 10
151.6594592599
 20
76.4604674256
 30
0.0
 40
14.89999999999997
100
AcDbArc
 50
176.5610261951
 51
177.6682342154
  0
LINE
  5
2F1
330
1F
100
AcDbEntity
  8
0
  6
SLD-Durchgehend
 62
     7
370
    15
100
AcDbLine
 10
136.7717966554
 20
77.0666851965
 30
0.0
 11
135.8898025123
 21
76.5643904739
 31
0.0
  0
ARC
  5
2F2
330
1F
100
AcDbEntity
  8
0
  6
SLD-Durchgehend
 62
     7
370
    15
100
AcDbCircle
 10
135.9492080144
 20
76.4604674256
 30
0.0
 40
0.1197038581464562
100
AcDbArc
 50
119.7535682453
 51
240.2464317547
  0
LINE
  5
2F3
330
1F
100
AcDbEntity
  8
0
  6
SLD-Durchgehend
 62
     7
370
    15
100
AcDbLine
 10
135.8898025123
 20
76.3565443773
 30
0.0
 11
136.7717966554
 21
75.8542496548
 31
0.0
  0
ARC
  5
2F4
330
1F
100
AcDbEntity
  8
0
  6
SLD-Durchgehend
 62
     7
370
    15
100
AcDbCircle
 10
151.6594592599
 20
76.4604674256
 30
0.0
 40
14.89999999999995
100
AcDbArc
 50
182.3317657846
 51
183.4389738049
  0
LINE
  5
2F5
330
1F
100
AcDbEntity
  8
0
  6
SLD-Durchgehend
 62
     7
370
    15
100
AcDbLine
 10
136.7862898973
 20
75.5666851834
 30
0.0
 11
135.951375973
 21
75.0643904391
 31
0.0
  0
ARC
  5
2F6
330
1F
100
AcDbEntity
  8
0
  6
SLD-Durchgehend
 62
     7
370
    15
100
AcDbCircle
 10
136.0221429905
 20
74.9662808195
 30
0.0
 40
0.1209688729090101
100
AcDbArc
 50
125.8031224906
 51
245.1138868821
  0
LINE
  5
2F7
330
1F
100
AcDbEntity
  8
0
  6
SLD-Durchgehend
 62
     7
370
    15
100
AcDbLine
 10
135.9712373582
 20
74.8565443861
 30
0.0
 11
136.9090745342
 21
74.3542497582
 31
0.0
  0
ARC
  5
2F8
330
1F
100
AcDbEntity
  8
0
  6
SLD-Durchgehend
 62
     7
370
    15
100
AcDbCircle
 10
151.6594592599
 20
76.4604674256
 30
0.0
 40
14.89999999999994
100
AcDbArc
 50
188.1263717008
 51
189.2450053025
  0
LINE
  5
2F9
330
1F
100
AcDbEntity
  8
0
  6
SLD-Durchgehend
 62
     7
370
    15
100
AcDbLine
 10
136.9530050201
 20
74.0666852868
 30
0.0
 11
136.1576648546
 21
73.564390426
 31
0.0
  0
LWPOLYLINE
  5
2FA
330
1F
100
AcDbEntity
  8
0
  6
SLD-Durchgehend
 62
     7
370
    15
100
AcDbPolyline
 90
        9
 70
   128
 43
0.0
 10
136.1576648546
 20
73.564390426
 10
136.1350467545
 20
73.5442128568
 10
136.120491114
 20
73.5185518931
 10
136.1145455507
 20
73.4917183942
 10
136.1159695429
 20
73.4624122339
 10
136.1238326994
 20
73.4355275123
 10
136.1425429699
 20
73.4029000229
 10
136.1770261196
 20
73.3692811406
 10
136.1979408306
 20
73.3565443731
  0
LINE
  5
2FB
330
1F
100
AcDbEntity
  8
0
  6
SLD-Durchgehend
 62
     7
370
    15
100
AcDbLine
 10
136.1979408306
 20
73.3565443731
 30
0.0
 11
137.2024476645
 21
72.8542497451
 31
0.0
  0
ARC
  5
2FC
330
1F
100
AcDbEntity
  8
0
  6
SLD-Durchgehend
 62
     7
370
    15
100
AcDbCircle
 10
151.6594592599
 20
76.4604674256
 30
0.0
 40
14.89999999999996
100
AcDbArc
 50
194.0062678394
 51
195.1488557102
  0
LINE
  5
2FD
330
1F
100
AcDbEntity
  8
0
  6
SLD-Durchgehend
 62
     7
370
    15
100
AcDbLine
 10
137.2772319359
 20
72.5666852738
 30
0.0
 11
136.5145783988
 21
72.0643906458
 31
0.0
  0
LWPOLYLINE
  5
2FE
330
1F
100
AcDbEntity
  8
0
  6
SLD-Durchgehend
 62
     7
370
    15
100
AcDbPolyline
 90
        9
 70
   128
 43
0.0
 10
136.5145783988
 20
72.0643906458
 10
136.4949964104
 20
72.046310415
 10
136.482190725
 20
72.0222217566
 10
136.4776253817
 20
71.9916618033
 10
136.4815807087
 20
71.963872069
 10
136.4915952203
 20
71.9376748963
 10
136.5147590754
 20
71.903277894
 10
136.5565791843
 20
71.8674680754
 10
136.5764629213
 20
71.8565445929
  0
LINE
  5
2FF
330
1F
100
AcDbEntity
  8
0
  6
SLD-Durchgehend
 62
     7
370
    15
100
AcDbLine
 10
136.5764629213
 20
71.8565445929
 30
0.0
 11
137.6617256669
 21
71.3542497321
 31
0.0
  0
ARC
  5
300
330
1F
100
AcDbEntity
  8
0
  6
SLD-Durchgehend
 62
     7
370
    15
100
AcDbCircle
 10
151.6594592599
 20
76.4604674256
 30
0.0
 40
14.89999999999995
100
AcDbArc
 50
200.0414082842
 51
201.2230004203
  0
LINE
  5
301
330
1F
100
AcDbEntity
  8
0
  6
SLD-Durchgehend
 62
     7
370
    15
100
AcDbLine
 10
137.7699984354
 20
71.0666852607
 30
0.0
 11
137.0331416023
 21
70.5643904
 31
0.0
  0
LWPOLYLINE
  5
302
330
1F
100
AcDbEntity
  8
0
  6
SLD-Durchgehend
 62
     7
370
    15
100
AcDbPolyline
 90
        9
 70
   128
 43
0.0
 10
137.0331416023
 20
70.5643904
 10
137.0162231964
 20
70.5483781709
 10
137.0049355668
 20
70.5259738094
 10
137.0018100483
 20
70.4975973419
 10
137.0066240547
 20
70.4715543031
 10
137.0174292592
 20
70.4461054481
 10
137.0427956921
 20
70.4106867849
 10
137.0893599582
 20
70.371980553
 10
137.1186537785
 20
70.356544347
  0
LINE
  5
303
330
1F
100
AcDbEntity
  8
0
  6
SLD-Durchgehend
 62
     7
370
    15
100
AcDbLine
 10
137.1186537785
 20
70.356544347
 30
0.0
 11
138.3040150744
 21
69.8542494862
 31
0.0
  0
ARC
  5
304
330
1F
100
AcDbEntity
  8
0
  6
SLD-Durchgehend
 62
     7
370
    15
100
AcDbCircle
 10
151.6594592599
 20
76.4604674256
 30
0.0
 40
14.89999999999996
100
AcDbArc
 50
206.3191194298
 51
207.5595289824
  0
LINE
  5
305
330
1F
100
AcDbEntity
  8
0
  6
SLD-Durchgehend
 62
     7
370
    15
100
AcDbLine
 10
138.4501535562
 20
69.5666850149
 30
0.0
 11
137.731396046
 21
69.0643906197
 31
0.0
  0
LWPOLYLINE
  5
306
330
1F
100
AcDbEntity
  8
0
  6
SLD-Durchgehend
 62
     7
370
    15
100
AcDbPolyline
 90
        9
 70
   128
 43
0.0
 10
137.731396046
 20
69.0643906197
 10
137.7168404055
 20
69.0504473238
 10
137.7068324131
 20
69.0298618353
 10
137.7048626659
 20
69.0038187965
 10
137.7103220788
 20
68.9797543525
 10
137.7253228915
 20
68.9495995245
 10
137.7562986804
 20
68.9124104171
 10
137.813812506
 20
68.8705800637
 10
137.8437703592
 20
68.8565445668
  0
LINE
  5
307
330
1F
100
AcDbEntity
  8
0
  6
SLD-Durchgehend
 62
     7
370
    15
100
AcDbLine
 10
137.8437703592
 20
68.8565445668
 30
0.0
 11
139.1574902577
 21
68.354249706
 31
0.0
  0
ARC
  5
308
330
1F
100
AcDbEntity
  8
0
  6
SLD-Durchgehend
 62
     7
370
    15
100
AcDbCircle
 10
151.6594592599
 20
76.4604674256
 30
0.0
 40
14.89999999999996
100
AcDbArc
 50
212.9591848067
 51
214.2871726543
  0
LINE
  5
309
330
1F
100
AcDbEntity
  8
0
  6
SLD-Durchgehend
 62
     7
370
    15
100
AcDbLine
 10
139.3487149966
 20
68.0666852347
 30
0.0
 11
138.6382183177
 21
67.5643903739
 31
0.0
  0
LWPOLYLINE
  5
30A
330
1F
100
AcDbEntity
  8
0
  6
SLD-Durchgehend
 62
     7
370
    15
100
AcDbPolyline
 90
        9
 70
   128
 43
0.0
 10
138.6382183177
 20
67.5643903739
 10
138.62578423
 20
67.5525495387
 10
138.6167895166
 20
67.5339463702
 10
138.6156551657
 20
67.5104081235
 10
138.6214843137
 20
67.4886170379
 10
138.6373363552
 20
67.4597367248
 10
138.6710083229
 20
67.4221848673
 10
138.7368872878
 20
67.3766282923
 10
138.7826785562
 20
67.3565443209
  0
LINE
  5
30B
330
1F
100
AcDbEntity
  8
0
  6
SLD-Durchgehend
 62
     7
370
    15
100
AcDbLine
 10
138.7826785562
 20
67.3565443209
 30
0.0
 11
140.0998564554
 21
66.9115686393
 31
0.0
  0
LINE
  5
30C
330
1F
100
AcDbEntity
  8
0
  6
SLD-Durchgehend
 62
     7
370
    15
100
AcDbLine
 10
140.2931338293
 20
66.4088807604
 30
0.0
 11
139.801361051
 21
66.064390128
 31
0.0
  0
LWPOLYLINE
  5
30D
330
1F
100
AcDbEntity
  8
0
  6
SLD-Durchgehend
 62
     7
370
    15
100
AcDbPolyline
 90
        9
 70
   128
 43
0.0
 10
139.801361051
 20
66.064390128
 10
139.7908641142
 20
66.0547276563
 10
139.7818712634
 20
66.0351018957
 10
139.7825846565
 20
66.0137625015
 10
139.7893982125
 20
65.9946638695
 10
139.8076539976
 20
65.9667344368
 10
139.8478070391
 20
65.9280258766
 10
139.9313345668
 20
65.8777428395
 10
139.9868534995
 20
65.8565440751
  0
LINE
  5
30E
330
1F
100
AcDbEntity
  8
0
  6
SLD-Durchgehend
 62
     7
370
    15
100
AcDbLine
 10
139.9868534995
 20
65.8565440751
 30
0.0
 11
141.1420101417
 21
65.5230290792
 31
0.0
  0
LINE
  5
30F
330
1F
100
AcDbEntity
  8
0
  6
SLD-Durchgehend
 62
     7
370
    15
100
AcDbLine
 10
141.9346084935
 20
64.9842794589
 30
0.0
 11
141.3068626193
 21
64.5643908135
 31
0.0
  0
LWPOLYLINE
  5
310
330
1F
100
AcDbEntity
  8
0
  6
SLD-Durchgehend
 62
     7
370
    15
100
AcDbPolyline
 90
        9
 70
   128
 43
0.0
 10
141.3068626193
 20
64.5643908135
 10
141.2981985254
 20
64.5570352278
 10
141.2896610913
 20
64.541171079
 10
141.2892252324
 20
64.526166541
 10
141.2942236406
 20
64.5101589686
 10
141.3086367888
 20
64.4875129289
 10
141.3423963008
 20
64.4545329339
 10
141.4218986524
 20
64.4045842416
 10
141.5506539983
 20
64.3565447605
  0
LINE
  5
311
330
1F
100
AcDbEntity
  8
0
  6
SLD-Durchgehend
 62
     7
370
    15
100
AcDbLine
 10
141.5506539983
 20
64.3565447605
 30
0.0
 11
143.7163319555
 21
63.8542498997
 31
0.0
  0
ARC
  5
312
330
1F
100
AcDbEntity
  8
0
  6
SLD-Durchgehend
 62
     7
370
    15
100
AcDbCircle
 10
151.6594592599
 20
76.4604674256
 30
0.0
 40
14.89999999999996
100
AcDbArc
 50
237.7851348081
 51
239.923210481
  0
LINE
  5
313
330
1F
100
AcDbEntity
  8
0
  6
SLD-Durchgehend
 62
     7
370
    15
100
AcDbLine
 10
144.1921721329
 20
63.5666854284
 30
0.0
 11
143.3385204641
 21
63.0643905676
 31
0.0
  0
LWPOLYLINE
  5
314
330
1F
100
AcDbEntity
  8
0
  6
SLD-Durchgehend
 62
     7
370
    15
100
AcDbPolyline
 90
        9
 70
   128
 43
0.0
 10
143.3385204641
 20
63.0643905676
 10
143.3317041141
 20
63.0595281324
 10
143.3228667942
 20
63.0475373543
 10
143.3211978642
 20
63.0362934968
 10
143.3243252454
 20
63.0240056268
 10
143.3345874888
 20
63.0075594014
 10
143.3601290104
 20
62.9829845927
 10
143.4429478017
 20
62.9334466136
 10
143.6828574282
 20
62.8565445147
  0
LINE
  5
315
330
1F
100
AcDbEntity
  8
0
  6
SLD-Durchgehend
 62
     7
370
    15
100
AcDbLine
 10
143.6828574282
 20
62.8565445147
 30
0.0
 11
146.861061838
 21
62.3542496539
 31
0.0
  0
ARC
  5
316
330
1F
100
AcDbEntity
  8
0
  6
SLD-Durchgehend
 62
     7
370
    15
100
AcDbCircle
 10
151.6594592599
 20
76.4604674256
 30
0.0
 40
14.9
100
AcDbArc
 50
251.2136529668
 51
255.0221147726
  0
LINE
  5
317
330
1F
100
AcDbEntity
  8
0
  6
SLD-Durchgehend
 62
     7
370
    15
100
AcDbLine
 10
147.8086108459
 20
62.0666851825
 30
0.0
 11
146.482607734
 21
61.5643903217
 31
0.0
  0
LWPOLYLINE
  5
318
330
1F
100
AcDbEntity
  8
0
  6
SLD-Durchgehend
 62
     7
370
    15
100
AcDbPolyline
 90
       10
 70
   128
 43
0.0
 10
146.482607734
 20
61.5643903217
 10
146.4695375529
 20
61.5570235602
 10
146.4639118989
 20
61.5508684493
 10
146.4615873178
 20
61.5431226394
 10
146.4632180636
 20
61.5355565748
 10
146.469334059
 20
61.5263243741
 10
146.4854799328
 20
61.512396445
 10
146.5466207941
 20
61.4807016752
 10
146.8165627797
 20
61.4041842124
 10
147.1246596543
 20
61.3565442688
  0
ARC
  5
319
330
1F
100
AcDbEntity
  8
0
  6
SLD-Durchgehend
 62
     7
370
    15
100
AcDbCircle
 10
151.6594592599
 20
103.4844528464
 30
0.0
 40
42.37127669290924
100
AcDbArc
 50
263.8561332853
 51
276.1438667147
  0
LWPOLYLINE
  5
31A
330
1F
100
AcDbEntity
  8
0
  6
SLD-Durchgehend
 62
     7
370
    15
100
AcDbPolyline
 90
       11
 70
   128
 43
0.0
 10
156.1942588655
 20
61.3565442688
 10
156.3964452711
 20
61.3843647367
 10
156.6680650344
 20
61.4448001212
 10
156.7828794127
 20
61.4852316282
 10
156.835803215
 20
61.5140961087
 10
156.8494820153
 20
61.5262079588
 10
156.8553987076
 20
61.5348869539
 10
156.8573218887
 20
61.5422546468
 10
156.8559230422
 20
61.5491631976
 10
156.8501926144
 20
61.5563520766
 10
156.8363107858
 20
61.5643903217
  0
LINE
  5
31B
330
1F
100
AcDbEntity
  8
0
  6
SLD-Durchgehend
 62
     7
370
    15
100
AcDbLine
 10
156.8363107858
 20
61.5643903217
 30
0.0
 11
155.5103076739
 21
62.0666851825
 31
0.0
  0
ARC
  5
31C
330
1F
100
AcDbEntity
  8
0
  6
SLD-Durchgehend
 62
     7
370
    15
100
AcDbCircle
 10
151.6594592599
 20
76.4604674256
 30
0.0
 40
14.89999999999997
100
AcDbArc
 50
284.9778852274
 51
288.7863470332
  0
LINE
  5
31D
330
1F
100
AcDbEntity
  8
0
  6
SLD-Durchgehend
 62
     7
370
    15
100
AcDbLine
 10
156.4578566817
 20
62.3542496539
 30
0.0
 11
159.6360610915
 21
62.8565445147
 31
0.0
  0
LWPOLYLINE
  5
31E
330
1F
100
AcDbEntity
  8
0
  6
SLD-Durchgehend
 62
     7
370
    15
100
AcDbPolyline
 90
       10
 70
   128
 43
0.0
 10
159.6360610915
 20
62.8565445147
 10
159.8437218112
 20
62.9189636162
 10
159.9153107149
 20
62.95401301
 10
159.9680105341
 20
62.9907155014
 10
159.9834285793
 20
63.0064539216
 10
159.9946463597
 20
63.0241285614
 10
159.9977430073
 20
63.0366697512
 10
159.9958235515
 20
63.0481045297
 10
159.9876018358
 20
63.0591900623
 10
159.9803980557
 20
63.0643905676
  0
LINE
  5
31F
330
1F
100
AcDbEntity
  8
0
  6
SLD-Durchgehend
 62
     7
370
    15
100
AcDbLine
 10
159.9803980557
 20
63.0643905676
 30
0.0
 11
159.1267463868
 21
63.5666854284
 31
0.0
  0
ARC
  5
320
330
1F
100
AcDbEntity
  8
0
  6
SLD-Durchgehend
 62
     7
370
    15
100
AcDbCircle
 10
151.6594592599
 20
76.4604674256
 30
0.0
 40
14.89999999999996
100
AcDbArc
 50
300.076789519
 51
302.2148651919
  0
LINE
  5
321
330
1F
100
AcDbEntity
  8
0
  6
SLD-Durchgehend
 62
     7
370
    15
100
AcDbLine
 10
159.6025865642
 20
63.8542498997
 30
0.0
 11
161.7682645214
 21
64.3565447605
 31
0.0
  0
LWPOLYLINE
  5
322
330
1F
100
AcDbEntity
  8
0
  6
SLD-Durchgehend
 62
     7
370
    15
100
AcDbPolyline
 90
        8
 70
   128
 43
0.0
 10
161.7682645214
 20
64.3565447605
 10
161.9233939913
 20
64.4187310315
 10
161.9994728011
 20
64.4753172598
 10
162.0193015901
 20
64.5001761219
 10
162.0280467091
 20
64.518954379
 10
162.0299205301
 20
64.5374746597
 10
162.0253924397
 20
64.5507655642
 10
162.0120559004
 20
64.5643908135
  0
LINE
  5
323
330
1F
100
AcDbEntity
  8
0
  6
SLD-Durchgehend
 62
     7
370
    15
100
AcDbLine
 10
162.0120559004
 20
64.5643908135
 30
0.0
 11
161.4427952213
 21
64.9451601855
 31
0.0
  0
LINE
  5
324
330
1F
100
AcDbEntity
  8
0
  6
SLD-Durchgehend
 62
     7
370
    15
100
AcDbLine
 10
162.1389187989
 20
65.5120599619
 30
0.0
 11
163.3320650203
 21
65.8565440751
 31
0.0
  0
LWPOLYLINE
  5
325
330
1F
100
AcDbEntity
  8
0
  6
SLD-Durchgehend
 62
     7
370
    15
100
AcDbPolyline
 90
        9
 70
   128
 43
0.0
 10
163.3320650203
 20
65.8565440751
 10
163.4235534934
 20
65.8961811638
 10
163.4748637793
 20
65.9310303233
 10
163.519411732
 20
65.9775396413
 10
163.5318737594
 20
65.999873688
 10
163.5376768303
 20
66.0231241561
 10
163.5353485239
 20
66.0416518874
 10
163.5274648783
 20
66.0554391867
 10
163.5175574688
 20
66.064390128
  0
LINE
  5
326
330
1F
100
AcDbEntity
  8
0
  6
SLD-Durchgehend
 62
     7
370
    15
100
AcDbLine
 10
163.5175574688
 20
66.064390128
 30
0.0
 11
162.9741950077
 21
66.4450188703
 31
0.0
  0
LINE
  5
327
330
1F
100
AcDbEntity
  8
0
  6
SLD-Durchgehend
 62
     7
370
    15
100
AcDbLine
 10
163.2072454435
 20
66.9075760595
 30
0.0
 11
164.5362399635
 21
67.3565443209
 31
0.0
  0
LWPOLYLINE
  5
328
330
1F
100
AcDbEntity
  8
0
  6
SLD-Durchgehend
 62
     7
370
    15
100
AcDbPolyline
 90
        9
 70
   128
 43
0.0
 10
164.5362399635
 20
67.3565443209
 10
164.6223686752
 20
67.4015868059
 10
164.6610725788
 20
67.4349458492
 10
164.6881088731
 20
67.4698276049
 10
164.6998407436
 20
67.4953514314
 10
164.703846362
 20
67.5214051804
 10
164.6998565761
 20
67.5408493332
 10
164.6871943144
 20
67.5591023243
 10
164.680700202
 20
67.5643903739
  0
LINE
  5
329
330
1F
100
AcDbEntity
  8
0
  6
SLD-Durchgehend
 62
     7
370
    15
100
AcDbLine
 10
164.680700202
 20
67.5643903739
 30
0.0
 11
163.9702035231
 21
68.0666852347
 31
0.0
  0
ARC
  5
32A
330
1F
100
AcDbEntity
  8
0
  6
SLD-Durchgehend
 62
     7
370
    15
100
AcDbCircle
 10
151.6594592599
 20
76.4604674256
 30
0.0
 40
14.89999999999996
100
AcDbArc
 50
325.7128273457
 51
327.0408151933
  0
LINE
  5
32B
330
1F
100
AcDbEntity
  8
0
  6
SLD-Durchgehend
 62
     7
370
    15
100
AcDbLine
 10
164.161428262
 20
68.354249706
 30
0.0
 11
165.4751481605
 21
68.8565445668
 31
0.0
  0
LWPOLYLINE
  5
32C
330
1F
100
AcDbEntity
  8
0
  6
SLD-Durchgehend
 62
     7
370
    15
100
AcDbPolyline
 90
        9
 70
   128
 43
0.0
 10
165.4751481605
 20
68.8565445668
 10
165.5442942051
 20
68.896436838
 10
165.5796779436
 20
68.9306880883
 10
165.601832245
 20
68.9639670379
 10
165.6118998421
 20
68.9909502468
 10
165.6141564367
 20
69.0180470771
 10
165.608995047
 20
69.0386339626
 10
165.5944738654
 20
69.0588194481
 10
165.5875224737
 20
69.0643906197
  0
LINE
  5
32D
330
1F
100
AcDbEntity
  8
0
  6
SLD-Durchgehend
 62
     7
370
    15
100
AcDbLine
 10
165.5875224737
 20
69.0643906197
 30
0.0
 11
164.8687649635
 21
69.5666850149
 31
0.0
  0
ARC
  5
32E
330
1F
100
AcDbEntity
  8
0
  6
SLD-Durchgehend
 62
     7
370
    15
100
AcDbCircle
 10
151.6594592599
 20
76.4604674256
 30
0.0
 40
14.89999999999996
100
AcDbArc
 50
332.4404710176
 51
333.6808805702
  0
LINE
  5
32F
330
1F
100
AcDbEntity
  8
0
  6
SLD-Durchgehend
 62
     7
370
    15
100
AcDbLine
 10
165.0149034453
 20
69.8542494862
 30
0.0
 11
166.2002647412
 21
70.356544347
 31
0.0
  0
LWPOLYLINE
  5
330
330
1F
100
AcDbEntity
  8
0
  6
SLD-Durchgehend
 62
     7
370
    15
100
AcDbPolyline
 90
        9
 70
   128
 43
0.0
 10
166.2002647412
 20
70.356544347
 10
166.2573306007
 20
70.3924077167
 10
166.2887944025
 20
70.4261579155
 10
166.3075335441
 20
70.4586033314
 10
166.315851186
 20
70.4864373035
 10
166.3165161503
 20
70.5140719726
 10
166.3102669758
 20
70.5357885524
 10
166.2940275041
 20
70.5578711419
 10
166.2857769174
 20
70.5643904
  0
LINE
  5
331
330
1F
100
AcDbEntity
  8
0
  6
SLD-Durchgehend
 62
     7
370
    15
100
AcDbLine
 10
166.2857769174
 20
70.5643904
 30
0.0
 11
165.5489200843
 21
71.0666852607
 31
0.0
  0
ARC
  5
332
330
1F
100
AcDbEntity
  8
0
  6
SLD-Durchgehend
 62
     7
370
    15
100
AcDbCircle
 10
151.6594592599
 20
76.4604674256
 30
0.0
 40
14.89999999999997
100
AcDbArc
 50
338.7769995797
 51
339.9585917158
  0
LINE
  5
333
330
1F
100
AcDbEntity
  8
0
  6
SLD-Durchgehend
 62
     7
370
    15
100
AcDbLine
 10
165.6571928528
 20
71.3542497321
 30
0.0
 11
166.7424555985
 21
71.8565445929
 31
0.0
  0
LWPOLYLINE
  5
334
330
1F
100
AcDbEntity
  8
0
  6
SLD-Durchgehend
 62
     7
370
    15
100
AcDbPolyline
 90
        9
 70
   128
 43
0.0
 10
166.7424555985
 20
71.8565445929
 10
166.7904140544
 20
71.8890584609
 10
166.8181385962
 20
71.9217381044
 10
166.8340874953
 20
71.9534636079
 10
166.8406970916
 20
71.981820052
 10
166.8398719398
 20
72.0097541413
 10
166.8325135601
 20
72.0325254439
 10
166.8145045755
 20
72.0564944274
 10
166.8043401209
 20
72.0643906458
  0
LINE
  5
335
330
1F
100
AcDbEntity
  8
0
  6
SLD-Durchgehend
 62
     7
370
    15
100
AcDbLine
 10
166.8043401209
 20
72.0643906458
 30
0.0
 11
166.0416865838
 21
72.5666852738
 31
0.0
  0
ARC
  5
336
330
1F
100
AcDbEntity
  8
0
  6
SLD-Durchgehend
 62
     7
370
    15
100
AcDbCircle
 10
151.6594592599
 20
76.4604674256
 30
0.0
 40
14.89999999999994
100
AcDbArc
 50
344.8511442898
 51
345.9937321606
  0
LINE
  5
337
330
1F
100
AcDbEntity
  8
0
  6
SLD-Durchgehend
 62
     7
370
    15
100
AcDbLine
 10
166.1164708552
 20
72.8542497451
 30
0.0
 11
167.1209776891
 21
73.3565443731
 31
0.0
  0
LWPOLYLINE
  5
338
330
1F
100
AcDbEntity
  8
0
  6
SLD-Durchgehend
 62
     7
370
    15
100
AcDbPolyline
 90
        9
 70
   128
 43
0.0
 10
167.1209776891
 20
73.3565443731
 10
167.1552978573
 20
73.3800337254
 10
167.1826517326
 20
73.411866331
 10
167.1979552252
 20
73.4431438684
 10
167.2042556224
 20
73.4721138212
 10
167.2031594557
 20
73.5011093854
 10
167.1955691767
 20
73.5253775562
 10
167.1773525072
 20
73.5514909099
 10
167.1612536651
 20
73.564390426
  0
LINE
  5
339
330
1F
100
AcDbEntity
  8
0
  6
SLD-Durchgehend
 62
     7
370
    15
100
AcDbLine
 10
167.1612536651
 20
73.564390426
 30
0.0
 11
166.3659134996
 21
74.0666852868
 31
0.0
  0
ARC
  5
33A
330
1F
100
AcDbEntity
  8
0
  6
SLD-Durchgehend
 62
     7
370
    15
100
AcDbCircle
 10
151.6594592599
 20
76.4604674256
 30
0.0
 40
14.89999999999997
100
AcDbArc
 50
350.7549946975
 51
351.8736282992
  0
LINE
  5
33B
330
1F
100
AcDbEntity
  8
0
  6
SLD-Durchgehend
 62
     7
370
    15
100
AcDbLine
 10
166.4098439855
 20
74.3542497582
 30
0.0
 11
167.3476811615
 21
74.8565443861
 31
0.0
  0
ARC
  5
33C
330
1F
100
AcDbEntity
  8
0
  6
SLD-Durchgehend
 62
     7
370
    15
100
AcDbCircle
 10
167.2989719751
 20
74.9660709312
 30
0.0
 40
0.1198692993128821
100
AcDbArc
 50
293.9759079556
 51
55.1070826717
  0
LINE
  5
33D
330
1F
100
AcDbEntity
  8
0
  6
SLD-Durchgehend
 62
     7
370
    15
100
AcDbLine
 10
167.3675425467
 20
75.0643904391
 30
0.0
 11
166.5326286224
 21
75.5666851834
 31
0.0
  0
ARC
  5
33E
330
1F
100
AcDbEntity
  8
0
  6
SLD-Durchgehend
 62
     7
370
    15
100
AcDbCircle
 10
151.6594592599
 20
76.4604674256
 30
0.0
 40
14.89999999999997
100
AcDbArc
 50
356.5610261951
 51
357.6682342154
  0
LINE
  5
33F
330
1F
100
AcDbEntity
  8
0
  6
SLD-Durchgehend
 62
     7
370
    15
100
AcDbLine
 10
166.5471218643
 20
75.8542496548
 30
0.0
 11
167.4291160074
 21
76.3565443773
 31
0.0
  0
ARC
  5
340
330
1F
100
AcDbEntity
  8
0
  6
SLD-Durchgehend
 62
     7
370
    15
100
AcDbCircle
 10
167.3697105053
 20
76.4604674256
 30
0.0
 40
0.1197038581464562
100
AcDbArc
 50
299.7535682453
 51
60.2464317547
  0
LINE
  5
341
330
1F
100
AcDbEntity
  8
0
  6
SLD-Durchgehend
 62
     7
370
    15
100
AcDbLine
 10
167.4291160074
 20
76.5643904739
 30
0.0
 11
166.5471218643
 21
77.0666851965
 31
0.0
  0
ARC
  5
342
330
1F
100
AcDbEntity
  8
0
  6
SLD-Durchgehend
 62
     7
370
    15
100
AcDbCircle
 10
151.6594592599
 20
76.4604674256
 30
0.0
 40
14.89999999999997
100
AcDbArc
 50
2.3317657846
 51
3.4389738049
  0
LINE
  5
343
330
1F
100
AcDbEntity
  8
0
  6
SLD-Durchgehend
 62
     7
370
    15
100
AcDbLine
 10
155.7516189409
 20
86.3542498625
 30
0.0
 11
147.5672995788
 21
86.3542498625
 31
0.0
  0
LINE
  5
344
330
1F
100
AcDbEntity
  8
0
  6
SLD-Durchgehend
 62
     7
370
    15
100
AcDbLine
 10
155.7516189409
 20
66.5666849888
 30
0.0
 11
147.5672995788
 21
66.5666849888
 31
0.0
  0
LINE
  5
345
330
1F
100
AcDbEntity
  8
0
  6
SLD-Durchgehend
 62
     7
370
    15
100
AcDbLine
 10
165.6571928528
 20
71.3542497321
 30
0.0
 11
162.7426523832
 21
71.3542497321
 31
0.0
  0
LINE
  5
346
330
1F
100
AcDbEntity
  8
0
  6
SLD-Durchgehend
 62
     7
370
    15
100
AcDbLine
 10
155.7067785529
 20
71.8565445929
 30
0.0
 11
156.3070834731
 21
71.44953707
 31
0.0
  0
LINE
  5
347
330
1F
100
AcDbEntity
  8
0
  6
SLD-Durchgehend
 62
     7
370
    15
100
AcDbLine
 10
156.2728187186
 20
81.4481659397
 30
0.0
 11
155.7067785529
 21
81.0643902584
 31
0.0
  0
LINE
  5
348
330
1F
100
AcDbEntity
  8
0
  6
SLD-Durchgehend
 62
     7
370
    15
100
AcDbLine
 10
165.6571928528
 20
81.5666851192
 30
0.0
 11
162.7426523832
 21
81.5666851192
 31
0.0
  0
LINE
  5
349
330
1F
100
AcDbEntity
  8
0
  6
SLD-Durchgehend
 62
     7
370
    15
100
AcDbLine
 10
147.001471289
 20
71.4425111725
 30
0.0
 11
147.6121399668
 21
71.8565445929
 31
0.0
  0
LINE
  5
34A
330
1F
100
AcDbEntity
  8
0
  6
SLD-Durchgehend
 62
     7
370
    15
100
AcDbLine
 10
140.5762661365
 20
71.3542497321
 30
0.0
 11
137.6617256669
 21
71.3542497321
 31
0.0
  0
LINE
  5
34B
330
1F
100
AcDbEntity
  8
0
  6
SLD-Durchgehend
 62
     7
370
    15
100
AcDbLine
 10
140.5762661365
 20
81.5666851192
 30
0.0
 11
137.6617256669
 21
81.5666851192
 31
0.0
  0
LINE
  5
34C
330
1F
100
AcDbEntity
  8
0
  6
SLD-Durchgehend
 62
     7
370
    15
100
AcDbLine
 10
147.6121399668
 20
81.0643902584
 30
0.0
 11
147.0181149547
 21
81.4671393088
 31
0.0
  0
LINE
  5
34D
330
1F
100
AcDbEntity
  8
0
  6
SLD-Durchgehend
 62
     7
370
    15
100
AcDbLine
 10
155.3524145042
 20
69.8542494862
 30
0.0
 11
153.9741702495
 21
69.8542494862
 31
0.0
  0
ARC
  5
34E
330
1F
100
AcDbEntity
  8
0
  6
SLD-Durchgehend
 62
     7
370
    15
100
AcDbCircle
 10
151.219251367
 20
63.555963203
 30
0.0
 40
6.874444570629066
100
AcDbArc
 50
66.375061473
 51
81.5933459011
  0
CIRCLE
  5
34F
330
1F
100
AcDbEntity
  8
0
  6
SLD-Durchgehend
 62
     7
370
    15
100
AcDbCircle
 10
151.6594592599
 20
76.4604674256
 30
0.0
 40
6.0
  0
LINE
  5
350
330
1F
100
AcDbEntity
  8
0
  6
SLD-Durchgehend
 62
     7
370
    15
100
AcDbLine
 10
144.7167540086
 20
77.3542496678
 30
0.0
 11
145.6905509462
 21
77.8565444122
 31
0.0
  0
LWPOLYLINE
  5
351
330
1F
100
AcDbEntity
  8
0
  6
SLD-Durchgehend
 62
     7
370
    15
100
AcDbPolyline
 90
        9
 70
   128
 43
0.0
 10
145.6905509462
 20
77.8565444122
 10
145.7253689063
 20
77.8795281728
 10
145.7556317677
 20
77.9128504288
 10
145.7728016307
 20
77.9451053892
 10
145.7804631559
 20
77.9745051474
 10
145.7805241575
 20
78.00409897
 10
145.773753908
 20
78.0281472323
 10
145.7569891704
 20
78.0529370601
 10
145.7430132781
 20
78.0643904652
  0
LINE
  5
352
330
1F
100
AcDbEntity
  8
0
  6
SLD-Durchgehend
 62
     7
370
    15
100
AcDbLine
 10
145.7430132781
 20
78.0643904652
 30
0.0
 11
144.9838433531
 21
78.5666850931
 31
0.0
  0
ARC
  5
353
330
1F
100
AcDbEntity
  8
0
  6
SLD-Durchgehend
 62
     7
370
    15
100
AcDbCircle
 10
151.6594592599
 20
76.4604674256
 30
0.0
 40
7.000000000000033
100
AcDbArc
 50
160.0031251428
 51
162.4890384396
  0
LINE
  5
354
330
1F
100
AcDbEntity
  8
0
  6
SLD-Durchgehend
 62
     7
370
    15
100
AcDbLine
 10
145.0814804179
 20
78.8542495645
 30
0.0
 11
146.2567154435
 21
79.3565444252
 31
0.0
  0
LWPOLYLINE
  5
355
330
1F
100
AcDbEntity
  8
0
  6
SLD-Durchgehend
 62
     7
370
    15
100
AcDbPolyline
 90
        9
 70
   128
 43
0.0
 10
146.2567154435
 20
79.3565444252
 10
146.3252561284
 20
79.3961661472
 10
146.3625877281
 20
79.4319599005
 10
146.3854018716
 20
79.4655508432
 10
146.395981696
 20
79.4926357991
 10
146.3986415533
 20
79.5198534685
 10
146.3936398854
 20
79.540139304
 10
146.379418124
 20
79.5595953311
 10
146.373386879
 20
79.5643904782
  0
LINE
  5
356
330
1F
100
AcDbEntity
  8
0
  6
SLD-Durchgehend
 62
     7
370
    15
100
AcDbLine
 10
146.373386879
 20
79.5643904782
 30
0.0
 11
145.6598596764
 21
80.0666851061
 31
0.0
  0
ARC
  5
357
330
1F
100
AcDbEntity
  8
0
  6
SLD-Durchgehend
 62
     7
370
    15
100
AcDbCircle
 10
151.6594592599
 20
76.4604674256
 30
0.0
 40
7.000000000000024
100
AcDbArc
 50
146.2028277715
 51
148.9909159789
  0
LINE
  5
358
330
1F
100
AcDbEntity
  8
0
  6
SLD-Durchgehend
 62
     7
370
    15
100
AcDbLine
 10
145.842375618
 20
80.3542495775
 30
0.0
 11
147.3872926203
 21
80.8565442055
 31
0.0
  0
LWPOLYLINE
  5
359
330
1F
100
AcDbEntity
  8
0
  6
SLD-Durchgehend
 62
     7
370
    15
100
AcDbPolyline
 90
        9
 70
   128
 43
0.0
 10
147.3872926203
 20
80.8565442055
 10
147.5169285317
 20
80.91146942
 10
147.5803203998
 20
80.9556536912
 10
147.6066945237
 20
80.9819104685
 10
147.623381496
 20
81.0065243929
 10
147.6295915549
 20
81.0243275552
 10
147.6293689688
 20
81.0411365307
 10
147.6235663635
 20
81.0536502465
 10
147.6121399668
 20
81.0643902584
  0
LWPOLYLINE
  5
35A
330
1F
100
AcDbEntity
  8
0
  6
SLD-Durchgehend
 62
     7
370
    15
100
AcDbPolyline
 90
        3
 70
   128
 43
0.0
 10
147.3952507717
 20
81.8977032392
 10
148.5440865276
 20
82.1504287957
 10
149.9822065584
 20
82.3565444513
  0
LWPOLYLINE
  5
35B
330
1F
100
AcDbEntity
  8
0
  6
SLD-Durchgehend
 62
     7
370
    15
100
AcDbPolyline
 90
       16
 70
   128
 43
0.0
 10
149.9822065584
 20
82.3565444513
 10
150.1841904014
 20
82.3802033043
 10
151.0649667238
 20
82.5138965226
 10
151.1025599088
 20
82.5217894814
 10
151.1246475042
 20
82.5272195577
 10
151.1387908017
 20
82.5313606835
 10
151.1480519898
 20
82.5346654817
 10
151.1563237058
 20
82.5386012509
 10
151.1595181423
 20
82.5408489979
 10
151.1614822434
 20
82.5431149057
 10
151.1620647274
 20
82.5448457687
 10
151.1617903365
 20
82.5465873419
 10
151.1604417814
 20
82.5484877056
 10
151.1567173642
 20
82.5510730571
 10
151.1413574103
 20
82.5563997566
 10
151.0946376715
 20
82.5643905043
  0
ARC
  5
35C
330
1F
100
AcDbEntity
  8
0
  6
SLD-Durchgehend
 62
     7
370
    15
100
AcDbCircle
 10
152.0996671527
 20
89.3649716483
 30
0.0
 40
6.874444570629066
100
AcDbArc
 50
246.375061473
 51
261.5933459011
  0
ARC
  5
35D
330
1F
100
AcDbEntity
  8
0
  6
SLD-Durchgehend
 62
     7
370
    15
100
AcDbCircle
 10
151.6594592599
 20
76.4604674256
 30
0.0
 40
7.00000000000003
100
AcDbArc
 50
99.9939673009
 51
109.3096281731
  0
LINE
  5
35E
330
1F
100
AcDbEntity
  8
0
  6
SLD-Durchgehend
 62
     7
370
    15
100
AcDbLine
 10
150.4446479143
 20
83.3542498364
 30
0.0
 11
152.8742706054
 21
83.3542498364
 31
0.0
  0
ARC
  5
35F
330
1F
100
AcDbEntity
  8
0
  6
SLD-Durchgehend
 62
     7
370
    15
100
AcDbCircle
 10
151.6594592599
 20
76.4604674256
 30
0.0
 40
7.000000000000031
100
AcDbArc
 50
70.6903718269
 51
80.0060326991
  0
LWPOLYLINE
  5
360
330
1F
100
AcDbEntity
  8
0
  6
SLD-Durchgehend
 62
     7
370
    15
100
AcDbPolyline
 90
        3
 70
   128
 43
0.0
 10
153.9741702495
 20
83.066685365
 10
152.7122640168
 20
82.6502039633
 10
152.2242808482
 20
82.5643905043
  0
LWPOLYLINE
  5
361
330
1F
100
AcDbEntity
  8
0
  6
SLD-Durchgehend
 62
     7
370
    15
100
AcDbPolyline
 90
       16
 70
   128
 43
0.0
 10
152.2242808482
 20
82.5643905043
 10
152.2164690309
 20
82.5633739657
 10
152.1942919703
 20
82.5599336601
 10
152.180134703
 20
82.5570297963
 10
152.1708721179
 20
82.5545189506
 10
152.1625922528
 20
82.5512770168
 10
152.1594053833
 20
82.5493002846
 10
152.1574379062
 20
82.5471964269
 10
152.1568541415
 20
82.545513527
 10
152.1571264952
 20
82.5437505334
 10
152.1584735951
 20
82.5417379453
 10
152.1621998749
 20
82.5388396694
 10
152.1775888163
 20
82.5322012021
 10
152.2571667796
 20
82.5132683455
 10
152.5808424689
 20
82.4601308047
 10
153.3367119613
 20
82.3565444513
  0
LWPOLYLINE
  5
362
330
1F
100
AcDbEntity
  8
0
  6
SLD-Durchgehend
 62
     7
370
    15
100
AcDbPolyline
 90
        3
 70
   128
 43
0.0
 10
153.3367119613
 20
82.3565444513
 10
154.7491624137
 20
82.1551352344
 10
156.1211980065
 20
81.8542495905
  0
LWPOLYLINE
  5
363
330
1F
100
AcDbEntity
  8
0
  6
SLD-Durchgehend
 62
     7
370
    15
100
AcDbPolyline
 90
        9
 70
   128
 43
0.0
 10
155.7067785529
 20
81.0643902584
 10
155.6980269146
 20
81.0569266393
 10
155.6894899463
 20
81.0408813483
 10
155.68910531
 20
81.0256379261
 10
155.6941721705
 20
81.0093812249
 10
155.7088786853
 20
80.9860031656
 10
155.7432384347
 20
80.9517379454
 10
155.8216665057
 20
80.900641398
 10
155.9316258994
 20
80.8565442055
  0
LINE
  5
364
330
1F
100
AcDbEntity
  8
0
  6
SLD-Durchgehend
 62
     7
370
    15
100
AcDbLine
 10
155.9316258994
 20
80.8565442055
 30
0.0
 11
157.4765429017
 21
80.3542495775
 31
0.0
  0
ARC
  5
365
330
1F
100
AcDbEntity
  8
0
  6
SLD-Durchgehend
 62
     7
370
    15
100
AcDbCircle
 10
151.6594592599
 20
76.4604674256
 30
0.0
 40
7.000000000000036
100
AcDbArc
 50
31.0090840211
 51
33.7971722285
  0
LINE
  5
366
330
1F
100
AcDbEntity
  8
0
  6
SLD-Durchgehend
 62
     7
370
    15
100
AcDbLine
 10
157.6590588433
 20
80.0666851061
 30
0.0
 11
156.9455316407
 21
79.5643904782
 31
0.0
  0
LWPOLYLINE
  5
367
330
1F
100
AcDbEntity
  8
0
  6
SLD-Durchgehend
 62
     7
370
    15
100
AcDbPolyline
 90
        9
 70
   128
 43
0.0
 10
156.9455316407
 20
79.5643904782
 10
156.9317829912
 20
79.5512010879
 10
156.9221689483
 20
79.5312379557
 10
156.9205102628
 20
79.5059960871
 10
156.9260674646
 20
79.4824536494
 10
156.9413406891
 20
79.452145386
 10
156.9728100789
 20
79.4143264717
 10
157.0304873516
 20
79.3716861005
 10
157.0622030762
 20
79.3565444252
  0
LINE
  5
368
330
1F
100
AcDbEntity
  8
0
  6
SLD-Durchgehend
 62
     7
370
    15
100
AcDbLine
 10
157.0622030762
 20
79.3565444252
 30
0.0
 11
158.2374381018
 21
78.8542495645
 31
0.0
  0
ARC
  5
369
330
1F
100
AcDbEntity
  8
0
  6
SLD-Durchgehend
 62
     7
370
    15
100
AcDbCircle
 10
151.6594592599
 20
76.4604674256
 30
0.0
 40
7.000000000000033
100
AcDbArc
 50
17.5109615604
 51
19.9968748572
  0
LINE
  5
36A
330
1F
100
AcDbEntity
  8
0
  6
SLD-Durchgehend
 62
     7
370
    15
100
AcDbLine
 10
158.3350751666
 20
78.5666850931
 30
0.0
 11
157.5759052416
 21
78.0643904652
 31
0.0
  0
LWPOLYLINE
  5
36B
330
1F
100
AcDbEntity
  8
0
  6
SLD-Durchgehend
 62
     7
370
    15
100
AcDbPolyline
 90
        9
 70
   128
 43
0.0
 10
157.5759052416
 20
78.0643904652
 10
157.5556927477
 20
78.0458144215
 10
157.5424349052
 20
78.0211412418
 10
157.5374052977
 20
77.9898421676
 10
157.5409950805
 20
77.9612903786
 10
157.5506859576
 20
77.934517765
 10
157.5728430529
 20
77.900328564
 10
157.6121667517
 20
77.8657411062
 10
157.6283675735
 20
77.8565444122
  0
LINE
  5
36C
330
1F
100
AcDbEntity
  8
0
  6
SLD-Durchgehend
 62
     7
370
    15
100
AcDbLine
 10
157.6283675735
 20
77.8565444122
 30
0.0
 11
158.6021645111
 21
77.3542496678
 31
0.0
  0
ARC
  5
36D
330
1F
100
AcDbEntity
  8
0
  6
SLD-Durchgehend
 62
     7
370
    15
100
AcDbCircle
 10
151.6594592599
 20
76.4604674256
 30
0.0
 40
7.00000000000004
100
AcDbArc
 50
4.9681835361
 51
7.3357322291
  0
LINE
  5
36E
330
1F
100
AcDbEntity
  8
0
  6
SLD-Durchgehend
 62
     7
370
    15
100
AcDbLine
 10
158.6331598577
 20
77.0666851965
 30
0.0
 11
157.7885783394
 21
76.5643904739
 31
0.0
  0
ARC
  5
36F
330
1F
100
AcDbEntity
  8
0
  6
SLD-Durchgehend
 62
     7
370
    15
100
AcDbCircle
 10
157.8501180253
 20
76.4604674256
 30
0.0
 40
0.1207772036096392
100
AcDbArc
 50
120.6325710054
 51
239.3674289946
  0
LINE
  5
370
330
1F
100
AcDbEntity
  8
0
  6
SLD-Durchgehend
 62
     7
370
    15
100
AcDbLine
 10
157.7885783394
 20
76.3565443773
 30
0.0
 11
158.6331598577
 21
75.8542496548
 31
0.0
  0
ARC
  5
371
330
1F
100
AcDbEntity
  8
0
  6
SLD-Durchgehend
 62
     7
370
    15
100
AcDbCircle
 10
151.6594592599
 20
76.4604674256
 30
0.0
 40
7.000000000000042
100
AcDbArc
 50
352.6642677709
 51
355.0318164639
  0
LINE
  5
372
330
1F
100
AcDbEntity
  8
0
  6
SLD-Durchgehend
 62
     7
370
    15
100
AcDbLine
 10
158.6021645111
 20
75.5666851834
 30
0.0
 11
157.6283675735
 21
75.0643904391
 31
0.0
  0
LWPOLYLINE
  5
373
330
1F
100
AcDbEntity
  8
0
  6
SLD-Durchgehend
 62
     7
370
    15
100
AcDbPolyline
 90
        9
 70
   128
 43
0.0
 10
157.6283675735
 20
75.0643904391
 10
157.5935496134
 20
75.0414066785
 10
157.563286752
 20
75.0080844224
 10
157.546116889
 20
74.9758294621
 10
157.5384553639
 20
74.9464297038
 10
157.5383943622
 20
74.9168358813
 10
157.5451646117
 20
74.892787619
 10
157.5619293494
 20
74.8679977912
 10
157.5759052416
 20
74.8565443861
  0
LINE
  5
374
330
1F
100
AcDbEntity
  8
0
  6
SLD-Durchgehend
 62
     7
370
    15
100
AcDbLine
 10
157.5759052416
 20
74.8565443861
 30
0.0
 11
158.3350751666
 21
74.3542497582
 31
0.0
  0
ARC
  5
375
330
1F
100
AcDbEntity
  8
0
  6
SLD-Durchgehend
 62
     7
370
    15
100
AcDbCircle
 10
151.6594592599
 20
76.4604674256
 30
0.0
 40
7.000000000000016
100
AcDbArc
 50
340.0031251428
 51
342.4890384396
  0
LINE
  5
376
330
1F
100
AcDbEntity
  8
0
  6
SLD-Durchgehend
 62
     7
370
    15
100
AcDbLine
 10
158.2374381018
 20
74.0666852868
 30
0.0
 11
157.0622030762
 21
73.564390426
 31
0.0
  0
LWPOLYLINE
  5
377
330
1F
100
AcDbEntity
  8
0
  6
SLD-Durchgehend
 62
     7
370
    15
100
AcDbPolyline
 90
        9
 70
   128
 43
0.0
 10
157.0622030762
 20
73.564390426
 10
156.9936623914
 20
73.5247687041
 10
156.9563307916
 20
73.4889749507
 10
156.9335166482
 20
73.4553840081
 10
156.9229368237
 20
73.4282990522
 10
156.9202769664
 20
73.4010813828
 10
156.9252786343
 20
73.3807955473
 10
156.9395003957
 20
73.3613395202
 10
156.9455316407
 20
73.3565443731
  0
LINE
  5
378
330
1F
100
AcDbEntity
  8
0
  6
SLD-Durchgehend
 62
     7
370
    15
100
AcDbLine
 10
156.9455316407
 20
73.3565443731
 30
0.0
 11
157.6590588433
 21
72.8542497451
 31
0.0
  0
ARC
  5
379
330
1F
100
AcDbEntity
  8
0
  6
SLD-Durchgehend
 62
     7
370
    15
100
AcDbCircle
 10
151.6594592599
 20
76.4604674256
 30
0.0
 40
7.00000000000004
100
AcDbArc
 50
326.2028277715
 51
328.9909159789
  0
LINE
  5
37A
330
1F
100
AcDbEntity
  8
0
  6
SLD-Durchgehend
 62
     7
370
    15
100
AcDbLine
 10
157.4765429017
 20
72.5666852738
 30
0.0
 11
155.9316258994
 21
72.0643906458
 31
0.0
  0
LWPOLYLINE
  5
37B
330
1F
100
AcDbEntity
  8
0
  6
SLD-Durchgehend
 62
     7
370
    15
100
AcDbPolyline
 90
        9
 70
   128
 43
0.0
 10
155.9316258994
 20
72.0643906458
 10
155.801989988
 20
72.0094654313
 10
155.73859812
 20
71.9652811601
 10
155.712223996
 20
71.9390243827
 10
155.6955370237
 20
71.9144104584
 10
155.6893269648
 20
71.8966072961
 10
155.6895495509
 20
71.8797983206
 10
155.6953521562
 20
71.8672846048
 10
155.7067785529
 20
71.8565445929
  0
LWPOLYLINE
  5
37C
330
1F
100
AcDbEntity
  8
0
  6
SLD-Durchgehend
 62
     7
370
    15
100
AcDbPolyline
 90
        3
 70
   128
 43
0.0
 10
155.9062524815
 20
71.0194006166
 10
154.7748319921
 20
70.7705060556
 10
153.3367119613
 20
70.5643904
  0
LWPOLYLINE
  5
37D
330
1F
100
AcDbEntity
  8
0
  6
SLD-Durchgehend
 62
     7
370
    15
100
AcDbPolyline
 90
       16
 70
   128
 43
0.0
 10
153.3367119613
 20
70.5643904
 10
153.1347281183
 20
70.5407315469
 10
152.2539517959
 20
70.4070383287
 10
152.2163586109
 20
70.3991453699
 10
152.1942710155
 20
70.3937152936
 10
152.1801277181
 20
70.3895741678
 10
152.17086653
 20
70.3862693696
 10
152.1625948139
 20
70.3823336004
 10
152.1594003775
 20
70.3800858534
 10
152.1574362764
 20
70.3778199456
 10
152.1568537923
 20
70.3760890826
 10
152.1571281832
 20
70.3743475093
 10
152.1584767383
 20
70.3724471456
 10
152.1622011555
 20
70.3698617942
 10
152.1775611095
 20
70.3645350947
 10
152.2242808482
 20
70.356544347
  0
ARC
  5
37E
330
1F
100
AcDbEntity
  8
0
  6
SLD-Durchgehend
 62
     7
370
    15
100
AcDbCircle
 10
151.6594592599
 20
76.4604674256
 30
0.0
 40
7.000000000005964
100
AcDbArc
 50
279.9939673009
 51
289.3096281732
  0
LINE
  5
37F
330
1F
100
AcDbEntity
  8
0
  6
SLD-Durchgehend
 62
     7
370
    15
100
AcDbLine
 10
152.8742706054
 20
69.5666850149
 30
0.0
 11
150.4446479143
 21
69.5666850149
 31
0.0
  0
ARC
  5
380
330
1F
100
AcDbEntity
  8
0
  6
SLD-Durchgehend
 62
     7
370
    15
100
AcDbCircle
 10
151.6594592599
 20
76.4604674256
 30
0.0
 40
7.000000000000034
100
AcDbArc
 50
250.6903718269
 51
260.0060326991
  0
LWPOLYLINE
  5
381
330
1F
100
AcDbEntity
  8
0
  6
SLD-Durchgehend
 62
     7
370
    15
100
AcDbPolyline
 90
        3
 70
   128
 43
0.0
 10
149.3447482703
 20
69.8542494862
 10
150.606654503
 20
70.270730888
 10
151.0946376715
 20
70.356544347
  0
LWPOLYLINE
  5
382
330
1F
100
AcDbEntity
  8
0
  6
SLD-Durchgehend
 62
     7
370
    15
100
AcDbPolyline
 90
       16
 70
   128
 43
0.0
 10
151.0946376715
 20
70.356544347
 10
151.1024494889
 20
70.3575608856
 10
151.1246265495
 20
70.3610011912
 10
151.1387838167
 20
70.363905055
 10
151.1480464018
 20
70.3664159006
 10
151.156326267
 20
70.3696578345
 10
151.1595131364
 20
70.3716345667
 10
151.1614806136
 20
70.3737384244
 10
151.1620643782
 20
70.3754213243
 10
151.1617920245
 20
70.3771843179
 10
151.1604449246
 20
70.379196906
 10
151.1567186448
 20
70.3820951818
 10
151.1413297034
 20
70.3887336492
 10
151.0617517401
 20
70.4076665058
 10
150.7380760508
 20
70.4608040466
 10
149.9822065584
 20
70.5643904
  0
LWPOLYLINE
  5
383
330
1F
100
AcDbEntity
  8
0
  6
SLD-Durchgehend
 62
     7
370
    15
100
AcDbPolyline
 90
        3
 70
   128
 43
0.0
 10
149.9822065584
 20
70.5643904
 10
148.569756106
 20
70.7657996169
 10
147.1977205132
 20
71.0666852607
  0
LWPOLYLINE
  5
384
330
1F
100
AcDbEntity
  8
0
  6
SLD-Durchgehend
 62
     7
370
    15
100
AcDbPolyline
 90
        9
 70
   128
 43
0.0
 10
147.6121399668
 20
71.8565445929
 10
147.6208916051
 20
71.864008212
 10
147.6294285735
 20
71.880053503
 10
147.6298132097
 20
71.8952969252
 10
147.6247463492
 20
71.9115536264
 10
147.6100398344
 20
71.9349316857
 10
147.575680085
 20
71.9691969058
 10
147.497252014
 20
72.0202934532
 10
147.3872926203
 20
72.0643906458
  0
LINE
  5
385
330
1F
100
AcDbEntity
  8
0
  6
SLD-Durchgehend
 62
     7
370
    15
100
AcDbLine
 10
147.3872926203
 20
72.0643906458
 30
0.0
 11
145.842375618
 21
72.5666852738
 31
0.0
  0
ARC
  5
386
330
1F
100
AcDbEntity
  8
0
  6
SLD-Durchgehend
 62
     7
370
    15
100
AcDbCircle
 10
151.6594592599
 20
76.4604674256
 30
0.0
 40
7.000000000000017
100
AcDbArc
 50
211.0090840211
 51
213.7971722285
  0
LINE
  5
387
330
1F
100
AcDbEntity
  8
0
  6
SLD-Durchgehend
 62
     7
370
    15
100
AcDbLine
 10
145.6598596764
 20
72.8542497451
 30
0.0
 11
146.373386879
 21
73.3565443731
 31
0.0
  0
LWPOLYLINE
  5
388
330
1F
100
AcDbEntity
  8
0
  6
SLD-Durchgehend
 62
     7
370
    15
100
AcDbPolyline
 90
        9
 70
   128
 43
0.0
 10
146.373386879
 20
73.3565443731
 10
146.3871355285
 20
73.3697337634
 10
146.3967495715
 20
73.3896968956
 10
146.398408257
 20
73.4149387642
 10
146.3928510552
 20
73.4384812019
 10
146.3775778306
 20
73.4687894653
 10
146.3461084408
 20
73.5066083795
 10
146.2884311681
 20
73.5492487508
 10
146.2567154435
 20
73.564390426
  0
LINE
  5
389
330
1F
100
AcDbEntity
  8
0
  6
SLD-Durchgehend
 62
     7
370
    15
100
AcDbLine
 10
146.2567154435
 20
73.564390426
 30
0.0
 11
145.0814804179
 21
74.0666852868
 31
0.0
  0
ARC
  5
38A
330
1F
100
AcDbEntity
  8
0
  6
SLD-Durchgehend
 62
     7
370
    15
100
AcDbCircle
 10
151.6594592599
 20
76.4604674256
 30
0.0
 40
7.000000000000043
100
AcDbArc
 50
197.5109615604
 51
199.9968748572
  0
LINE
  5
38B
330
1F
100
AcDbEntity
  8
0
  6
SLD-Durchgehend
 62
     7
370
    15
100
AcDbLine
 10
144.9838433531
 20
74.3542497582
 30
0.0
 11
145.7430132781
 21
74.8565443861
 31
0.0
  0
LWPOLYLINE
  5
38C
330
1F
100
AcDbEntity
  8
0
  6
SLD-Durchgehend
 62
     7
370
    15
100
AcDbPolyline
 90
        9
 70
   128
 43
0.0
 10
145.7430132781
 20
74.8565443861
 10
145.763225772
 20
74.8751204298
 10
145.7764836145
 20
74.8997936095
 10
145.7815132221
 20
74.9310926837
 10
145.7779234392
 20
74.9596444727
 10
145.7682325621
 20
74.9864170863
 10
145.7460754668
 20
75.0206062873
 10
145.706751768
 20
75.0551937451
 10
145.6905509462
 20
75.0643904391
  0
LINE
  5
38D
330
1F
100
AcDbEntity
  8
0
  6
SLD-Durchgehend
 62
     7
370
    15
100
AcDbLine
 10
145.6905509462
 20
75.0643904391
 30
0.0
 11
144.7167540086
 21
75.5666851834
 31
0.0
  0
ARC
  5
38E
330
1F
100
AcDbEntity
  8
0
  6
SLD-Durchgehend
 62
     7
370
    15
100
AcDbCircle
 10
151.6594592599
 20
76.4604674256
 30
0.0
 40
7.000000000000018
100
AcDbArc
 50
184.9681835361
 51
187.3357322291
  0
LINE
  5
38F
330
1F
100
AcDbEntity
  8
0
  6
SLD-Durchgehend
 62
     7
370
    15
100
AcDbLine
 10
144.685758662
 20
75.8542496548
 30
0.0
 11
145.5303401803
 21
76.3565443773
 31
0.0
  0
ARC
  5
390
330
1F
100
AcDbEntity
  8
0
  6
SLD-Durchgehend
 62
     7
370
    15
100
AcDbCircle
 10
145.4688004944
 20
76.4604674256
 30
0.0
 40
0.1207772036096247
100
AcDbArc
 50
300.6325710054
 51
59.3674289946
  0
LINE
  5
391
330
1F
100
AcDbEntity
  8
0
  6
SLD-Durchgehend
 62
     7
370
    15
100
AcDbLine
 10
145.5303401803
 20
76.5643904739
 30
0.0
 11
144.685758662
 21
77.0666851965
 31
0.0
  0
ARC
  5
392
330
1F
100
AcDbEntity
  8
0
  6
SLD-Durchgehend
 62
     7
370
    15
100
AcDbCircle
 10
151.6594592599
 20
76.4604674256
 30
0.0
 40
7.000000000000014
100
AcDbArc
 50
172.6642677709
 51
175.0318164639
  0
LINE
  5
393
330
1F
100
AcDbEntity
  8
0
  6
SLD-Durchgehend
 62
     7
370
    15
100
AcDbLine
 10
149.3447482703
 20
83.066685365
 30
0.0
 11
147.9665040155
 21
83.066685365
 31
0.0
  0
LINE
  5
394
330
1F
100
AcDbEntity
  8
0
  6
SLD-Durchgehend
 62
     7
370
    15
100
AcDbLine
 10
150.4446479143
 20
83.3542498364
 30
0.0
 11
148.0382486829
 21
83.3542498364
 31
0.0
  0
LINE
  5
395
330
1F
100
AcDbEntity
  8
0
  6
SLD-Durchgehend
 62
     7
370
    15
100
AcDbLine
 10
155.2806698368
 20
83.3542498364
 30
0.0
 11
152.8742706054
 21
83.3542498364
 31
0.0
  0
LINE
  5
396
330
1F
100
AcDbEntity
  8
0
  6
SLD-Durchgehend
 62
     7
370
    15
100
AcDbLine
 10
155.2806698368
 20
69.5666850149
 30
0.0
 11
152.8742706054
 21
69.5666850149
 31
0.0
  0
LINE
  5
397
330
1F
100
AcDbEntity
  8
0
  6
SLD-Durchgehend
 62
     7
370
    15
100
AcDbLine
 10
150.4446479143
 20
69.5666850149
 30
0.0
 11
148.0382486829
 21
69.5666850149
 31
0.0
  0
LINE
  5
398
330
1F
100
AcDbEntity
  8
0
  6
SLD-Durchgehend
 62
     7
370
    15
100
AcDbLine
 10
155.3524145042
 20
83.066685365
 30
0.0
 11
153.9741702495
 21
83.066685365
 31
0.0
  0
LINE
  5
399
330
1F
100
AcDbEntity
  8
0
  6
SLD-Durchgehend
 62
     7
370
    15
100
AcDbLine
 10
149.3447482703
 20
69.8542494862
 30
0.0
 11
147.9665040155
 21
69.8542494862
 31
0.0
  0
LINE
  5
39A
330
1F
100
AcDbEntity
  8
0
  6
SLD-Durchgehend
 62
     7
370
    15
100
AcDbLine
 10
166.4098439855
 20
78.5666850931
 30
0.0
 11
158.3350751666
 21
78.5666850931
 31
0.0
  0
LINE
  5
39B
330
1F
100
AcDbEntity
  8
0
  6
SLD-Durchgehend
 62
     7
370
    15
100
AcDbLine
 10
166.5471218643
 20
75.8542496548
 30
0.0
 11
158.6331598577
 21
75.8542496548
 31
0.0
  0
LINE
  5
39C
330
1F
100
AcDbEntity
  8
0
  6
SLD-Durchgehend
 62
     7
370
    15
100
AcDbLine
 10
164.8687649635
 20
69.5666850149
 30
0.0
 11
163.5945983348
 21
69.5666850149
 31
0.0
  0
LINE
  5
39D
330
1F
100
AcDbEntity
  8
0
  6
SLD-Durchgehend
 62
     7
370
    15
100
AcDbLine
 10
165.0149034453
 20
83.066685365
 30
0.0
 11
163.5228529689
 21
83.066685365
 31
0.0
  0
LINE
  5
39E
330
1F
100
AcDbEntity
  8
0
  6
SLD-Durchgehend
 62
     7
370
    15
100
AcDbLine
 10
166.3659134996
 20
78.8542495645
 30
0.0
 11
158.2374381018
 21
78.8542495645
 31
0.0
  0
LINE
  5
39F
330
1F
100
AcDbEntity
  8
0
  6
SLD-Durchgehend
 62
     7
370
    15
100
AcDbLine
 10
166.1164708552
 20
80.0666851061
 30
0.0
 11
160.2483600495
 21
80.0666851061
 31
0.0
  0
LINE
  5
3A0
330
1F
100
AcDbEntity
  8
0
  6
SLD-Durchgehend
 62
     7
370
    15
100
AcDbLine
 10
158.6269078893
 20
80.0666851061
 30
0.0
 11
157.6590588433
 21
80.0666851061
 31
0.0
  0
LINE
  5
3A1
330
1F
100
AcDbEntity
  8
0
  6
SLD-Durchgehend
 62
     7
370
    15
100
AcDbLine
 10
166.0416865838
 20
80.3542495775
 30
0.0
 11
161.1621616525
 21
80.3542495775
 31
0.0
  0
LINE
  5
3A2
330
1F
100
AcDbEntity
  8
0
  6
SLD-Durchgehend
 62
     7
370
    15
100
AcDbLine
 10
157.7131062863
 20
80.3542495775
 30
0.0
 11
157.4765429017
 21
80.3542495775
 31
0.0
  0
LINE
  5
3A3
330
1F
100
AcDbEntity
  8
0
  6
SLD-Durchgehend
 62
     7
370
    15
100
AcDbLine
 10
164.161428262
 20
84.5666851453
 30
0.0
 11
163.6749547092
 21
84.5666851453
 31
0.0
  0
LINE
  5
3A4
330
1F
100
AcDbEntity
  8
0
  6
SLD-Durchgehend
 62
     7
370
    15
100
AcDbLine
 10
163.9702035231
 20
84.8542496166
 30
0.0
 11
163.6428129045
 21
84.8542496166
 31
0.0
  0
LINE
  5
3A5
330
1F
100
AcDbEntity
  8
0
  6
SLD-Durchgehend
 62
     7
370
    15
100
AcDbLine
 10
165.5489200843
 20
81.8542495905
 30
0.0
 11
162.9557548208
 21
81.8542495905
 31
0.0
  0
LINE
  5
3A6
330
1F
100
AcDbEntity
  8
0
  6
SLD-Durchgehend
 62
     7
370
    15
100
AcDbLine
 10
165.0149034453
 20
69.8542494862
 30
0.0
 11
163.5228529689
 21
69.8542494862
 31
0.0
  0
LINE
  5
3A7
330
1F
100
AcDbEntity
  8
0
  6
SLD-Durchgehend
 62
     7
370
    15
100
AcDbLine
 10
166.5326286224
 20
75.5666851834
 30
0.0
 11
158.6021645111
 21
75.5666851834
 31
0.0
  0
LINE
  5
3A8
330
1F
100
AcDbEntity
  8
0
  6
SLD-Durchgehend
 62
     7
370
    15
100
AcDbLine
 10
165.5489200843
 20
71.0666852607
 30
0.0
 11
162.9557548208
 21
71.0666852607
 31
0.0
  0
LINE
  5
3A9
330
1F
100
AcDbEntity
  8
0
  6
SLD-Durchgehend
 62
     7
370
    15
100
AcDbLine
 10
166.3659134996
 20
74.0666852868
 30
0.0
 11
158.2374381018
 21
74.0666852868
 31
0.0
  0
LINE
  5
3AA
330
1F
100
AcDbEntity
  8
0
  6
SLD-Durchgehend
 62
     7
370
    15
100
AcDbLine
 10
166.4098439855
 20
74.3542497582
 30
0.0
 11
158.3350751666
 21
74.3542497582
 31
0.0
  0
LINE
  5
3AB
330
1F
100
AcDbEntity
  8
0
  6
SLD-Durchgehend
 62
     7
370
    15
100
AcDbLine
 10
166.5471218643
 20
77.0666851965
 30
0.0
 11
158.6331598577
 21
77.0666851965
 31
0.0
  0
LINE
  5
3AC
330
1F
100
AcDbEntity
  8
0
  6
SLD-Durchgehend
 62
     7
370
    15
100
AcDbLine
 10
166.5326286224
 20
77.3542496678
 30
0.0
 11
158.6021645111
 21
77.3542496678
 31
0.0
  0
LINE
  5
3AD
330
1F
100
AcDbEntity
  8
0
  6
SLD-Durchgehend
 62
     7
370
    15
100
AcDbLine
 10
164.161428262
 20
68.354249706
 30
0.0
 11
163.6749547092
 21
68.354249706
 31
0.0
  0
LINE
  5
3AE
330
1F
100
AcDbEntity
  8
0
  6
SLD-Durchgehend
 62
     7
370
    15
100
AcDbLine
 10
164.8687649635
 20
83.3542498364
 30
0.0
 11
163.5945983348
 21
83.3542498364
 31
0.0
  0
LINE
  5
3AF
330
1F
100
AcDbEntity
  8
0
  6
SLD-Durchgehend
 62
     7
370
    15
100
AcDbLine
 10
166.0416865838
 20
72.5666852738
 30
0.0
 11
161.1621616525
 21
72.5666852738
 31
0.0
  0
LINE
  5
3B0
330
1F
100
AcDbEntity
  8
0
  6
SLD-Durchgehend
 62
     7
370
    15
100
AcDbLine
 10
157.7131062863
 20
72.5666852738
 30
0.0
 11
157.4765429017
 21
72.5666852738
 31
0.0
  0
LINE
  5
3B1
330
1F
100
AcDbEntity
  8
0
  6
SLD-Durchgehend
 62
     7
370
    15
100
AcDbLine
 10
166.1164708552
 20
72.8542497451
 30
0.0
 11
160.2483600495
 21
72.8542497451
 31
0.0
  0
LINE
  5
3B2
330
1F
100
AcDbEntity
  8
0
  6
SLD-Durchgehend
 62
     7
370
    15
100
AcDbLine
 10
158.6269078893
 20
72.8542497451
 30
0.0
 11
157.6590588433
 21
72.8542497451
 31
0.0
  0
LINE
  5
3B3
330
1F
100
AcDbEntity
  8
0
  6
SLD-Durchgehend
 62
     7
370
    15
100
AcDbLine
 10
163.9702035231
 20
68.0666852347
 30
0.0
 11
163.6428129045
 21
68.0666852347
 31
0.0
  0
LINE
  5
3B4
330
1F
100
AcDbEntity
  8
0
  6
SLD-Durchgehend
 62
     7
370
    15
100
AcDbLine
 10
156.4578566817
 20
62.3542496539
 30
0.0
 11
146.861061838
 21
62.3542496539
 31
0.0
  0
LINE
  5
3B5
330
1F
100
AcDbEntity
  8
0
  6
SLD-Durchgehend
 62
     7
370
    15
100
AcDbLine
 10
155.2003129968
 20
68.354249706
 30
0.0
 11
148.1186055229
 21
68.354249706
 31
0.0
  0
LINE
  5
3B6
330
1F
100
AcDbEntity
  8
0
  6
SLD-Durchgehend
 62
     7
370
    15
100
AcDbLine
 10
156.7944105831
 20
87.566685637
 30
0.0
 11
146.5245079366
 21
87.566685637
 31
0.0
  0
LINE
  5
3B7
330
1F
100
AcDbEntity
  8
0
  6
SLD-Durchgehend
 62
     7
370
    15
100
AcDbLine
 10
155.6008699467
 20
86.0666853911
 30
0.0
 11
147.718048573
 21
86.0666853911
 31
0.0
  0
LINE
  5
3B8
330
1F
100
AcDbEntity
  8
0
  6
SLD-Durchgehend
 62
     7
370
    15
100
AcDbLine
 10
155.2003129968
 20
84.5666851453
 30
0.0
 11
148.1186055229
 21
84.5666851453
 31
0.0
  0
LINE
  5
3B9
330
1F
100
AcDbEntity
  8
0
  6
SLD-Durchgehend
 62
     7
370
    15
100
AcDbLine
 10
155.2324552671
 20
84.8542496166
 30
0.0
 11
148.0864632526
 21
84.8542496166
 31
0.0
  0
LINE
  5
3BA
330
1F
100
AcDbEntity
  8
0
  6
SLD-Durchgehend
 62
     7
370
    15
100
AcDbLine
 10
157.2038297658
 20
87.8542501084
 30
0.0
 11
146.1150887539
 21
87.8542501084
 31
0.0
  0
LINE
  5
3BB
330
1F
100
AcDbEntity
  8
0
  6
SLD-Durchgehend
 62
     7
370
    15
100
AcDbLine
 10
155.2324552671
 20
68.0666852347
 30
0.0
 11
148.0864632526
 21
68.0666852347
 31
0.0
  0
LINE
  5
3BC
330
1F
100
AcDbEntity
  8
0
  6
SLD-Durchgehend
 62
     7
370
    15
100
AcDbLine
 10
159.6025865642
 20
89.0666849515
 30
0.0
 11
143.7163319555
 21
89.0666849515
 31
0.0
  0
LINE
  5
3BD
330
1F
100
AcDbEntity
  8
0
  6
SLD-Durchgehend
 62
     7
370
    15
100
AcDbLine
 10
159.1267463868
 20
89.3542494229
 30
0.0
 11
144.1921721329
 21
89.3542494229
 31
0.0
  0
LINE
  5
3BE
330
1F
100
AcDbEntity
  8
0
  6
SLD-Durchgehend
 62
     7
370
    15
100
AcDbLine
 10
155.5103076739
 20
62.0666851825
 30
0.0
 11
147.8086108459
 21
62.0666851825
 31
0.0
  0
LINE
  5
3BF
330
1F
100
AcDbEntity
  8
0
  6
SLD-Durchgehend
 62
     7
370
    15
100
AcDbLine
 10
159.1267463868
 20
63.5666854284
 30
0.0
 11
144.1921721329
 21
63.5666854284
 31
0.0
  0
LINE
  5
3C0
330
1F
100
AcDbEntity
  8
0
  6
SLD-Durchgehend
 62
     7
370
    15
100
AcDbLine
 10
157.2038297658
 20
65.0666847429
 30
0.0
 11
146.1150887539
 21
65.0666847429
 31
0.0
  0
LINE
  5
3C1
330
1F
100
AcDbEntity
  8
0
  6
SLD-Durchgehend
 62
     7
370
    15
100
AcDbLine
 10
155.6008699467
 20
66.8542494602
 30
0.0
 11
147.718048573
 21
66.8542494602
 31
0.0
  0
LINE
  5
3C2
330
1F
100
AcDbEntity
  8
0
  6
SLD-Durchgehend
 62
     7
370
    15
100
AcDbLine
 10
156.4578566817
 20
90.5666851974
 30
0.0
 11
146.861061838
 21
90.5666851974
 31
0.0
  0
LINE
  5
3C3
330
1F
100
AcDbEntity
  8
0
  6
SLD-Durchgehend
 62
     7
370
    15
100
AcDbLine
 10
156.7944105831
 20
65.3542492143
 30
0.0
 11
146.5245079366
 21
65.3542492143
 31
0.0
  0
LINE
  5
3C4
330
1F
100
AcDbEntity
  8
0
  6
SLD-Durchgehend
 62
     7
370
    15
100
AcDbLine
 10
155.5103076739
 20
90.8542496688
 30
0.0
 11
147.8086108459
 21
90.8542496688
 31
0.0
  0
LINE
  5
3C5
330
1F
100
AcDbEntity
  8
0
  6
SLD-Durchgehend
 62
     7
370
    15
100
AcDbLine
 10
159.6025865642
 20
63.8542498997
 30
0.0
 11
143.7163319555
 21
63.8542498997
 31
0.0
  0
LINE
  5
3C6
330
1F
100
AcDbEntity
  8
0
  6
SLD-Durchgehend
 62
     7
370
    15
100
AcDbLine
 10
140.363163699
 20
71.0666852607
 30
0.0
 11
137.7699984354
 21
71.0666852607
 31
0.0
  0
LINE
  5
3C7
330
1F
100
AcDbEntity
  8
0
  6
SLD-Durchgehend
 62
     7
370
    15
100
AcDbLine
 10
139.7243201849
 20
69.5666850149
 30
0.0
 11
138.4501535562
 21
69.5666850149
 31
0.0
  0
LINE
  5
3C8
330
1F
100
AcDbEntity
  8
0
  6
SLD-Durchgehend
 62
     7
370
    15
100
AcDbLine
 10
139.7960655508
 20
83.066685365
 30
0.0
 11
138.3040150744
 21
83.066685365
 31
0.0
  0
LINE
  5
3C9
330
1F
100
AcDbEntity
  8
0
  6
SLD-Durchgehend
 62
     7
370
    15
100
AcDbLine
 10
144.7167540086
 20
75.5666851834
 30
0.0
 11
136.7862898973
 21
75.5666851834
 31
0.0
  0
LINE
  5
3CA
330
1F
100
AcDbEntity
  8
0
  6
SLD-Durchgehend
 62
     7
370
    15
100
AcDbLine
 10
145.6598596764
 20
80.0666851061
 30
0.0
 11
144.6920106304
 21
80.0666851061
 31
0.0
  0
LINE
  5
3CB
330
1F
100
AcDbEntity
  8
0
  6
SLD-Durchgehend
 62
     7
370
    15
100
AcDbLine
 10
143.0705584702
 20
80.0666851061
 30
0.0
 11
137.2024476645
 21
80.0666851061
 31
0.0
  0
LINE
  5
3CC
330
1F
100
AcDbEntity
  8
0
  6
SLD-Durchgehend
 62
     7
370
    15
100
AcDbLine
 10
145.0814804179
 20
78.8542495645
 30
0.0
 11
136.9530050201
 21
78.8542495645
 31
0.0
  0
LINE
  5
3CD
330
1F
100
AcDbEntity
  8
0
  6
SLD-Durchgehend
 62
     7
370
    15
100
AcDbLine
 10
144.685758662
 20
77.0666851965
 30
0.0
 11
136.7717966554
 21
77.0666851965
 31
0.0
  0
LINE
  5
3CE
330
1F
100
AcDbEntity
  8
0
  6
SLD-Durchgehend
 62
     7
370
    15
100
AcDbLine
 10
145.6598596764
 20
72.8542497451
 30
0.0
 11
144.6920106304
 21
72.8542497451
 31
0.0
  0
LINE
  5
3CF
330
1F
100
AcDbEntity
  8
0
  6
SLD-Durchgehend
 62
     7
370
    15
100
AcDbLine
 10
143.0705584702
 20
72.8542497451
 30
0.0
 11
137.2024476645
 21
72.8542497451
 31
0.0
  0
LINE
  5
3D0
330
1F
100
AcDbEntity
  8
0
  6
SLD-Durchgehend
 62
     7
370
    15
100
AcDbLine
 10
145.842375618
 20
72.5666852738
 30
0.0
 11
145.6058122334
 21
72.5666852738
 31
0.0
  0
LINE
  5
3D1
330
1F
100
AcDbEntity
  8
0
  6
SLD-Durchgehend
 62
     7
370
    15
100
AcDbLine
 10
142.1567568672
 20
72.5666852738
 30
0.0
 11
137.2772319359
 21
72.5666852738
 31
0.0
  0
LINE
  5
3D2
330
1F
100
AcDbEntity
  8
0
  6
SLD-Durchgehend
 62
     7
370
    15
100
AcDbLine
 10
145.0814804179
 20
74.0666852868
 30
0.0
 11
136.9530050201
 21
74.0666852868
 31
0.0
  0
LINE
  5
3D3
330
1F
100
AcDbEntity
  8
0
  6
SLD-Durchgehend
 62
     7
370
    15
100
AcDbLine
 10
139.6761056153
 20
84.8542496166
 30
0.0
 11
139.3487149966
 21
84.8542496166
 31
0.0
  0
LINE
  5
3D4
330
1F
100
AcDbEntity
  8
0
  6
SLD-Durchgehend
 62
     7
370
    15
100
AcDbLine
 10
139.6439638106
 20
84.5666851453
 30
0.0
 11
139.1574902577
 21
84.5666851453
 31
0.0
  0
LINE
  5
3D5
330
1F
100
AcDbEntity
  8
0
  6
SLD-Durchgehend
 62
     7
370
    15
100
AcDbLine
 10
144.9838433531
 20
74.3542497582
 30
0.0
 11
136.9090745342
 21
74.3542497582
 31
0.0
  0
LINE
  5
3D6
330
1F
100
AcDbEntity
  8
0
  6
SLD-Durchgehend
 62
     7
370
    15
100
AcDbLine
 10
139.7243201849
 20
83.3542498364
 30
0.0
 11
138.4501535562
 21
83.3542498364
 31
0.0
  0
LINE
  5
3D7
330
1F
100
AcDbEntity
  8
0
  6
SLD-Durchgehend
 62
     7
370
    15
100
AcDbLine
 10
139.7960655508
 20
69.8542494862
 30
0.0
 11
138.3040150744
 21
69.8542494862
 31
0.0
  0
LINE
  5
3D8
330
1F
100
AcDbEntity
  8
0
  6
SLD-Durchgehend
 62
     7
370
    15
100
AcDbLine
 10
144.9838433531
 20
78.5666850931
 30
0.0
 11
136.9090745342
 21
78.5666850931
 31
0.0
  0
LINE
  5
3D9
330
1F
100
AcDbEntity
  8
0
  6
SLD-Durchgehend
 62
     7
370
    15
100
AcDbLine
 10
144.7167540086
 20
77.3542496678
 30
0.0
 11
136.7862898973
 21
77.3542496678
 31
0.0
  0
LINE
  5
3DA
330
1F
100
AcDbEntity
  8
0
  6
SLD-Durchgehend
 62
     7
370
    15
100
AcDbLine
 10
139.6439638106
 20
68.354249706
 30
0.0
 11
139.1574902577
 21
68.354249706
 31
0.0
  0
LINE
  5
3DB
330
1F
100
AcDbEntity
  8
0
  6
SLD-Durchgehend
 62
     7
370
    15
100
AcDbLine
 10
139.6761056153
 20
68.0666852347
 30
0.0
 11
139.3487149966
 21
68.0666852347
 31
0.0
  0
LINE
  5
3DC
330
1F
100
AcDbEntity
  8
0
  6
SLD-Durchgehend
 62
     7
370
    15
100
AcDbLine
 10
140.363163699
 20
81.8542495905
 30
0.0
 11
137.7699984354
 21
81.8542495905
 31
0.0
  0
LINE
  5
3DD
330
1F
100
AcDbEntity
  8
0
  6
SLD-Durchgehend
 62
     7
370
    15
100
AcDbLine
 10
144.685758662
 20
75.8542496548
 30
0.0
 11
136.7717966554
 21
75.8542496548
 31
0.0
  0
LINE
  5
3DE
330
1F
100
AcDbEntity
  8
0
  6
SLD-Durchgehend
 62
     7
370
    15
100
AcDbLine
 10
145.842375618
 20
80.3542495775
 30
0.0
 11
145.6058122334
 21
80.3542495775
 31
0.0
  0
LINE
  5
3DF
330
1F
100
AcDbEntity
  8
0
  6
SLD-Durchgehend
 62
     7
370
    15
100
AcDbLine
 10
142.1567568672
 20
80.3542495775
 30
0.0
 11
137.2772319359
 21
80.3542495775
 31
0.0
  0
CIRCLE
  5
3E0
330
1F
100
AcDbEntity
  8
0
  6
SLD-Durchgehend
 62
     7
370
    15
100
AcDbCircle
 10
151.6594592599
 20
76.4604674256
 30
0.0
 40
3.250000000000028
  0
CIRCLE
  5
3E1
330
1F
100
AcDbEntity
  8
0
  6
SLD-Durchgehend
 62
     7
370
    15
100
AcDbCircle
 10
151.6594592599
 20
76.4604674256
 30
0.0
 40
3.0
  0
CIRCLE
  5
3E2
330
1F
100
AcDbEntity
  8
0
  6
SLD-Durchgehend
 62
     7
370
    15
100
AcDbCircle
 10
151.6594592599
 20
76.4604674256
 30
0.0
 40
31.5
  0
CIRCLE
  5
3E3
330
1F
100
AcDbEntity
  8
0
  6
SLD-Durchgehend
 62
     7
370
    15
100
AcDbCircle
 10
151.6594592599
 20
76.4604674256
 30
0.0
 40
1.399999999999977
  0
LINE
  5
3E4
330
1F
100
AcDbEntity
  8
0
  6
SLD-Durchgehend
 62
     7
370
    15
100
AcDbLine
 10
143.3426061762
 20
70.9778342932
 30
0.0
 11
141.6239481536
 21
69.3635537825
 31
0.0
  0
LINE
  5
3E5
330
1F
100
AcDbEntity
  8
0
  6
SLD-Durchgehend
 62
     7
370
    15
100
AcDbLine
 10
141.6239481536
 20
69.3635537825
 30
0.0
 11
142.1626269934
 21
67.0680122054
 31
0.0
  0
LINE
  5
3E6
330
1F
100
AcDbEntity
  8
0
  6
SLD-Durchgehend
 62
     7
370
    15
100
AcDbLine
 10
144.4199633901
 20
66.3867516047
 30
0.0
 11
142.1626269934
 21
67.0680122054
 31
0.0
  0
LINE
  5
3E7
330
1F
100
AcDbEntity
  8
0
  6
SLD-Durchgehend
 62
     7
370
    15
100
AcDbLine
 10
146.1386214127
 20
68.0010316498
 30
0.0
 11
144.4199633901
 21
66.3867516047
 31
0.0
  0
LINE
  5
3E8
330
1F
100
AcDbEntity
  8
0
  6
SLD-Durchgehend
 62
     7
370
    15
100
AcDbLine
 10
146.1386214127
 20
68.0010316498
 30
0.0
 11
145.5999425729
 21
70.2965732268
 31
0.0
  0
LINE
  5
3E9
330
1F
100
AcDbEntity
  8
0
  6
SLD-Durchgehend
 62
     7
370
    15
100
AcDbLine
 10
143.3426061762
 20
70.9778342932
 30
0.0
 11
145.5999425729
 21
70.2965732268
 31
0.0
  0
CIRCLE
  5
3EA
330
1F
100
AcDbEntity
  8
0
  6
SLD-Durchgehend
 62
     7
370
    15
100
AcDbCircle
 10
143.8812846668
 20
68.6822928326
 30
0.0
 40
4.250000000000007
  0
ARC
  5
3EB
330
1F
100
AcDbEntity
  8
0
  6
SLD-Durchgehend
 62
     7
370
    15
100
AcDbCircle
 10
143.8812846668
 20
68.6822928326
 30
0.0
 40
2.041999999999998
100
AcDbArc
 50
313.2062589409
 51
13.2062589409
  0
ARC
  5
3EC
330
1F
100
AcDbEntity
  8
0
  6
SLD-Durchgehend
 62
     7
370
    15
100
AcDbCircle
 10
143.8812846668
 20
68.6822928326
 30
0.0
 40
2.042000000000007
100
AcDbArc
 50
73.2062589409
 51
133.2062589409
  0
ARC
  5
3ED
330
1F
100
AcDbEntity
  8
0
  6
SLD-Durchgehend
 62
     7
370
    15
100
AcDbCircle
 10
143.8812846668
 20
68.6822928326
 30
0.0
 40
2.04200000000001
100
AcDbArc
 50
253.2062589409
 51
313.2062589409
  0
ARC
  5
3EE
330
1F
100
AcDbEntity
  8
0
  6
SLD-Durchgehend
 62
     7
370
    15
100
AcDbCircle
 10
143.8812846668
 20
68.6822928326
 30
0.0
 40
2.04200000000001
100
AcDbArc
 50
193.2062589409
 51
253.2062589409
  0
ARC
  5
3EF
330
1F
100
AcDbEntity
  8
0
  6
SLD-Durchgehend
 62
     7
370
    15
100
AcDbCircle
 10
143.8812846668
 20
68.6822928326
 30
0.0
 40
2.042000000000007
100
AcDbArc
 50
133.2062589409
 51
193.2062589409
  0
ARC
  5
3F0
330
1F
100
AcDbEntity
  8
0
  6
SLD-Durchgehend
 62
     7
370
    15
100
AcDbCircle
 10
143.8812846668
 20
68.6822928326
 30
0.0
 40
2.041999999999998
100
AcDbArc
 50
13.2062589409
 51
73.2062589409
  0
LINE
  5
3F1
330
1F
100
AcDbEntity
  8
0
  6
SLD-Durchgehend
 62
     7
370
    15
100
AcDbLine
 10
145.9187911009
 20
83.0519439257
 30
0.0
 11
145.9277485614
 21
85.4098254419
 31
0.0
  0
LINE
  5
3F2
330
1F
100
AcDbEntity
  8
0
  6
SLD-Durchgehend
 62
     7
370
    15
100
AcDbLine
 10
145.9277485614
 20
85.4098254419
 30
0.0
 11
143.8902420109
 21
86.5965231857
 31
0.0
  0
LINE
  5
3F3
330
1F
100
AcDbEntity
  8
0
  6
SLD-Durchgehend
 62
     7
370
    15
100
AcDbLine
 10
141.8437784654
 20
85.4253403447
 30
0.0
 11
143.8902420109
 21
86.5965231857
 31
0.0
  0
LINE
  5
3F4
330
1F
100
AcDbEntity
  8
0
  6
SLD-Durchgehend
 62
     7
370
    15
100
AcDbLine
 10
141.8348210049
 20
83.0674583628
 30
0.0
 11
141.8437784654
 21
85.4253403447
 31
0.0
  0
LINE
  5
3F5
330
1F
100
AcDbEntity
  8
0
  6
SLD-Durchgehend
 62
     7
370
    15
100
AcDbLine
 10
141.8348210049
 20
83.0674583628
 30
0.0
 11
143.8723275555
 21
81.880760619
 31
0.0
  0
LINE
  5
3F6
330
1F
100
AcDbEntity
  8
0
  6
SLD-Durchgehend
 62
     7
370
    15
100
AcDbLine
 10
145.9187911009
 20
83.0519439257
 30
0.0
 11
143.8723275555
 21
81.880760619
 31
0.0
  0
CIRCLE
  5
3F7
330
1F
100
AcDbEntity
  8
0
  6
SLD-Durchgehend
 62
     7
370
    15
100
AcDbCircle
 10
143.8812846668
 20
84.2386420187
 30
0.0
 40
4.249999999999996
  0
ARC
  5
3F8
330
1F
100
AcDbEntity
  8
0
  6
SLD-Durchgehend
 62
     7
370
    15
100
AcDbCircle
 10
143.8812846668
 20
84.2386420187
 30
0.0
 40
2.041999999999998
100
AcDbArc
 50
359.7823417911
 51
59.7823417911
  0
ARC
  5
3F9
330
1F
100
AcDbEntity
  8
0
  6
SLD-Durchgehend
 62
     7
370
    15
100
AcDbCircle
 10
143.8812846668
 20
84.2386420187
 30
0.0
 40
2.041999999999997
100
AcDbArc
 50
179.7823417911
 51
239.7823417911
  0
ARC
  5
3FA
330
1F
100
AcDbEntity
  8
0
  6
SLD-Durchgehend
 62
     7
370
    15
100
AcDbCircle
 10
143.8812846668
 20
84.2386420187
 30
0.0
 40
2.04200000000002
100
AcDbArc
 50
119.7823417911
 51
179.7823417911
  0
ARC
  5
3FB
330
1F
100
AcDbEntity
  8
0
  6
SLD-Durchgehend
 62
     7
370
    15
100
AcDbCircle
 10
143.8812846668
 20
84.2386420187
 30
0.0
 40
2.04200000000002
100
AcDbArc
 50
59.7823417911
 51
119.7823417911
  0
ARC
  5
3FC
330
1F
100
AcDbEntity
  8
0
  6
SLD-Durchgehend
 62
     7
370
    15
100
AcDbCircle
 10
143.8812846668
 20
84.2386420187
 30
0.0
 40
2.041999999999997
100
AcDbArc
 50
299.7823417911
 51
359.7823417911
  0
ARC
  5
3FD
330
1F
100
AcDbEntity
  8
0
  6
SLD-Durchgehend
 62
     7
370
    15
100
AcDbCircle
 10
143.8812846668
 20
84.2386420187
 30
0.0
 40
2.041999999999994
100
AcDbArc
 50
239.7823417911
 51
299.7823417911
  0
LINE
  5
3FE
330
1F
100
AcDbEntity
  8
0
  6
SLD-Durchgehend
 62
     7
370
    15
100
AcDbLine
 10
159.5663711545
 20
86.5930232755
 30
0.0
 11
157.4630485033
 21
85.5273229606
 31
0.0
  0
LINE
  5
3FF
330
1F
100
AcDbEntity
  8
0
  6
SLD-Durchgehend
 62
     7
370
    15
100
AcDbLine
 10
157.4630485033
 20
85.5273229606
 30
0.0
 11
157.3343108525
 21
83.1729413546
 31
0.0
  0
LINE
  5
400
330
1F
100
AcDbEntity
  8
0
  6
SLD-Durchgehend
 62
     7
370
    15
100
AcDbLine
 10
159.3088963186
 20
81.8842605292
 30
0.0
 11
157.3343108525
 21
83.1729413546
 31
0.0
  0
LINE
  5
401
330
1F
100
AcDbEntity
  8
0
  6
SLD-Durchgehend
 62
     7
370
    15
100
AcDbLine
 10
161.4122189698
 20
82.9499613098
 30
0.0
 11
159.3088963186
 21
81.8842605292
 31
0.0
  0
LINE
  5
402
330
1F
100
AcDbEntity
  8
0
  6
SLD-Durchgehend
 62
     7
370
    15
100
AcDbLine
 10
161.4122189698
 20
82.9499613098
 30
0.0
 11
161.5409566206
 21
85.3043429158
 31
0.0
  0
LINE
  5
403
330
1F
100
AcDbEntity
  8
0
  6
SLD-Durchgehend
 62
     7
370
    15
100
AcDbLine
 10
159.5663711545
 20
86.5930232755
 30
0.0
 11
161.5409566206
 21
85.3043429158
 31
0.0
  0
CIRCLE
  5
404
330
1F
100
AcDbEntity
  8
0
  6
SLD-Durchgehend
 62
     7
370
    15
100
AcDbCircle
 10
159.4376338529
 20
84.2386420187
 30
0.0
 40
4.249999999999989
  0
ARC
  5
405
330
1F
100
AcDbEntity
  8
0
  6
SLD-Durchgehend
 62
     7
370
    15
100
AcDbCircle
 10
159.4376338529
 20
84.2386420187
 30
0.0
 40
2.041999999999991
100
AcDbArc
 50
296.8701833941
 51
356.8701833941
  0
ARC
  5
406
330
1F
100
AcDbEntity
  8
0
  6
SLD-Durchgehend
 62
     7
370
    15
100
AcDbCircle
 10
159.4376338529
 20
84.2386420187
 30
0.0
 40
2.042000000000012
100
AcDbArc
 50
236.8701833941
 51
296.8701833941
  0
ARC
  5
407
330
1F
100
AcDbEntity
  8
0
  6
SLD-Durchgehend
 62
     7
370
    15
100
AcDbCircle
 10
159.4376338529
 20
84.2386420187
 30
0.0
 40
2.042000000000029
100
AcDbArc
 50
176.8701833941
 51
236.8701833941
  0
ARC
  5
408
330
1F
100
AcDbEntity
  8
0
  6
SLD-Durchgehend
 62
     7
370
    15
100
AcDbCircle
 10
159.4376338529
 20
84.2386420187
 30
0.0
 40
2.042000000000029
100
AcDbArc
 50
116.8701833941
 51
176.8701833941
  0
ARC
  5
409
330
1F
100
AcDbEntity
  8
0
  6
SLD-Durchgehend
 62
     7
370
    15
100
AcDbCircle
 10
159.4376338529
 20
84.2386420187
 30
0.0
 40
2.042000000000004
100
AcDbArc
 50
56.8701833941
 51
116.8701833941
  0
ARC
  5
40A
330
1F
100
AcDbEntity
  8
0
  6
SLD-Durchgehend
 62
     7
370
    15
100
AcDbCircle
 10
159.4376338529
 20
84.2386420187
 30
0.0
 40
2.041999999999981
100
AcDbArc
 50
356.8701833941
 51
56.8701833941
  0
LINE
  5
40B
330
1F
100
AcDbEntity
  8
0
  6
SLD-Durchgehend
 62
     7
370
    15
100
AcDbLine
 10
160.7665339602
 20
66.7345484323
 30
0.0
 11
161.7888802779
 21
68.8592821895
 31
0.0
  0
LINE
  5
40C
330
1F
100
AcDbEntity
  8
0
  6
SLD-Durchgehend
 62
     7
370
    15
100
AcDbLine
 10
161.7888802779
 20
68.8592821895
 30
0.0
 11
160.4599798215
 21
70.8070264733
 31
0.0
  0
LINE
  5
40D
330
1F
100
AcDbEntity
  8
0
  6
SLD-Durchgehend
 62
     7
370
    15
100
AcDbLine
 10
158.108733513
 20
70.6300374656
 30
0.0
 11
160.4599798215
 21
70.8070264733
 31
0.0
  0
LINE
  5
40E
330
1F
100
AcDbEntity
  8
0
  6
SLD-Durchgehend
 62
     7
370
    15
100
AcDbLine
 10
157.0863871952
 20
68.5053037084
 30
0.0
 11
158.108733513
 21
70.6300374656
 31
0.0
  0
LINE
  5
40F
330
1F
100
AcDbEntity
  8
0
  6
SLD-Durchgehend
 62
     7
370
    15
100
AcDbLine
 10
157.0863871952
 20
68.5053037084
 30
0.0
 11
158.4152876516
 21
66.5575589589
 31
0.0
  0
LINE
  5
410
330
1F
100
AcDbEntity
  8
0
  6
SLD-Durchgehend
 62
     7
370
    15
100
AcDbLine
 10
160.7665339602
 20
66.7345484323
 30
0.0
 11
158.4152876516
 21
66.5575589589
 31
0.0
  0
CIRCLE
  5
411
330
1F
100
AcDbEntity
  8
0
  6
SLD-Durchgehend
 62
     7
370
    15
100
AcDbCircle
 10
159.4376338529
 20
68.6822928326
 30
0.0
 40
4.250000000000013
  0
ARC
  5
412
330
1F
100
AcDbEntity
  8
0
  6
SLD-Durchgehend
 62
     7
370
    15
100
AcDbCircle
 10
159.4376338529
 20
68.6822928326
 30
0.0
 40
2.042000000000029
100
AcDbArc
 50
154.3048024535
 51
214.3048024535
  0
ARC
  5
413
330
1F
100
AcDbEntity
  8
0
  6
SLD-Durchgehend
 62
     7
370
    15
100
AcDbCircle
 10
159.4376338529
 20
68.6822928326
 30
0.0
 40
2.042000000000007
100
AcDbArc
 50
94.3048024535
 51
154.3048024535
  0
ARC
  5
414
330
1F
100
AcDbEntity
  8
0
  6
SLD-Durchgehend
 62
     7
370
    15
100
AcDbCircle
 10
159.4376338529
 20
68.6822928326
 30
0.0
 40
2.042000000000001
100
AcDbArc
 50
34.3048024535
 51
94.3048024535
  0
ARC
  5
415
330
1F
100
AcDbEntity
  8
0
  6
SLD-Durchgehend
 62
     7
370
    15
100
AcDbCircle
 10
159.4376338529
 20
68.6822928326
 30
0.0
 40
2.041999999999987
100
AcDbArc
 50
334.3048024535
 51
34.3048024535
  0
ARC
  5
416
330
1F
100
AcDbEntity
  8
0
  6
SLD-Durchgehend
 62
     7
370
    15
100
AcDbCircle
 10
159.4376338529
 20
68.6822928326
 30
0.0
 40
2.041999999999999
100
AcDbArc
 50
274.3048024535
 51
334.3048024535
  0
ARC
  5
417
330
1F
100
AcDbEntity
  8
0
  6
SLD-Durchgehend
 62
     7
370
    15
100
AcDbCircle
 10
159.4376338529
 20
68.6822928326
 30
0.0
 40
2.042000000000029
100
AcDbArc
 50
214.3048024535
 51
274.3048024535
  0
INSERT
  5
423
330
1F
100
AcDbEntity
  8
VERMASSUNG
100
AcDbBlockReference
  2
SW_CENTERMARKSYMBOL_0
 10
151.6594592599
 20
76.4604674256
 30
0.0
  0
OLE2FRAME
  5
424
330
1F
100
AcDbEntity
  8
0
100
AcDbOle2Frame
 70
     2
  3
Paintbrush-Bild
 10
13.8511154363
 20
38.264191557
 30
0.0
 11
51.6290888628
 21
31.9806341108
 31
0.0
 71
     2
 72
     0
 73
     1
 90
    12928
310
80552BED0767C5B32B40DDAF6807D121434000000000000000006FFBDDFB85D0
310
4940DDAF6807D121434000000000000000006FFBDDFB85D04940416F4BD60AFB
310
3F4000000000000000002BED0767C5B32B40416F4BD60AFB3F40000000000000
310
0000000000000100000000010000010000000100000000000100000000320000
310
D0CF11E0A1B11AE1000000000000000000000000000000003E000300FEFF0900
310
0600000000000000000000000100000001000000000000000010000002000000
310
01000000FEFFFFFF0000000000000000FFFFFFFFFFFFFFFFFFFFFFFFFFFFFFFF
310
FFFFFFFFFFFFFFFFFFFFFFFFFFFFFFFFFFFFFFFFFFFFFFFFFFFFFFFFFFFFFFFF
310
FFFFFFFFFFFFFFFFFFFFFFFFFFFFFFFFFFFFFFFFFFFFFFFFFFFFFFFFFFFFFFFF
310
FFFFFFFFFFFFFFFFFFFFFFFFFFFFFFFFFFFFFFFFFFFFFFFFFFFFFFFFFFFFFFFF
310
FFFFFFFFFFFFFFFFFFFFFFFFFFFFFFFFFFFFFFFFFFFFFFFFFFFFFFFFFFFFFFFF
310
FFFFFFFFFFFFFFFFFFFFFFFFFFFFFFFFFFFFFFFFFFFFFFFFFFFFFFFFFFFFFFFF
310
FFFFFFFFFFFFFFFFFFFFFFFFFFFFFFFFFFFFFFFFFFFFFFFFFFFFFFFFFFFFFFFF
310
FFFFFFFFFFFFFFFFFFFFFFFFFFFFFFFFFFFFFFFFFFFFFFFFFFFFFFFFFFFFFFFF
310
FFFFFFFFFFFFFFFFFFFFFFFFFFFFFFFFFFFFFFFFFFFFFFFFFFFFFFFFFFFFFFFF
310
FFFFFFFFFFFFFFFFFFFFFFFFFFFFFFFFFFFFFFFFFFFFFFFFFFFFFFFFFFFFFFFF
310
FFFFFFFFFFFFFFFFFFFFFFFFFFFFFFFFFFFFFFFFFFFFFFFFFFFFFFFFFFFFFFFF
310
FFFFFFFFFFFFFFFFFFFFFFFFFFFFFFFFFFFFFFFFFFFFFFFFFFFFFFFFFFFFFFFF
310
FFFFFFFFFFFFFFFFFFFFFFFFFFFFFFFFFFFFFFFFFFFFFFFFFFFFFFFFFFFFFFFF
310
FFFFFFFFFFFFFFFFFFFFFFFFFFFFFFFFFFFFFFFFFFFFFFFFFFFFFFFFFFFFFFFF
310
FDFFFFFFFEFFFFFFFEFFFFFFFEFFFFFF05000000060000000700000008000000
310
090000000A0000000B0000000C0000000D0000000E0000000F00000010000000
310
11000000120000001300000014000000150000001600000017000000FEFFFFFF
310
FFFFFFFFFFFFFFFFFFFFFFFFFFFFFFFFFFFFFFFFFFFFFFFFFFFFFFFFFFFFFFFF
310
FFFFFFFFFFFFFFFFFFFFFFFFFFFFFFFFFFFFFFFFFFFFFFFFFFFFFFFFFFFFFFFF
310
FFFFFFFFFFFFFFFFFFFFFFFFFFFFFFFFFFFFFFFFFFFFFFFFFFFFFFFFFFFFFFFF
310
FFFFFFFFFFFFFFFFFFFFFFFFFFFFFFFFFFFFFFFFFFFFFFFFFFFFFFFFFFFFFFFF
310
FFFFFFFFFFFFFFFFFFFFFFFFFFFFFFFFFFFFFFFFFFFFFFFFFFFFFFFFFFFFFFFF
310
FFFFFFFFFFFFFFFFFFFFFFFFFFFFFFFFFFFFFFFFFFFFFFFFFFFFFFFFFFFFFFFF
310
FFFFFFFFFFFFFFFFFFFFFFFFFFFFFFFFFFFFFFFFFFFFFFFFFFFFFFFFFFFFFFFF
310
FFFFFFFFFFFFFFFFFFFFFFFFFFFFFFFFFFFFFFFFFFFFFFFFFFFFFFFFFFFFFFFF
310
FFFFFFFFFFFFFFFFFFFFFFFFFFFFFFFFFFFFFFFFFFFFFFFFFFFFFFFFFFFFFFFF
310
FFFFFFFFFFFFFFFFFFFFFFFFFFFFFFFFFFFFFFFFFFFFFFFFFFFFFFFFFFFFFFFF
310
FFFFFFFFFFFFFFFFFFFFFFFFFFFFFFFFFFFFFFFFFFFFFFFFFFFFFFFFFFFFFFFF
310
FFFFFFFFFFFFFFFFFFFFFFFFFFFFFFFFFFFFFFFFFFFFFFFFFFFFFFFFFFFFFFFF
310
FFFFFFFFFFFFFFFFFFFFFFFFFFFFFFFFFFFFFFFFFFFFFFFFFFFFFFFFFFFFFFFF
310
52006F006F007400200045006E00740072007900000000000000000000000000
310
0000000000000000000000000000000000000000000000000000000000000000
310
16000500FFFFFFFFFFFFFFFF020000000A00030000000000C000000000000046
310
000000000000000000000000905F755BA388D00103000000C000000000000000
310
01004F006C006500000000000000000000000000000000000000000000000000
310
0000000000000000000000000000000000000000000000000000000000000000
310
0A000200FFFFFFFFFFFFFFFFFFFFFFFF00000000000000000000000000000000
310
0000000000000000000000000000000000000000000000001400000000000000
310
010043006F006D0070004F0062006A0000000000000000000000000000000000
310
0000000000000000000000000000000000000000000000000000000000000000
310
120002010100000003000000FFFFFFFF00000000000000000000000000000000
310
0000000000000000000000000000000000000000010000004D00000000000000
310
01004F006C006500310030004E00610074006900760065000000000000000000
310
0000000000000000000000000000000000000000000000000000000000000000
310
1A000200FFFFFFFFFFFFFFFFFFFFFFFF00000000000000000000000000000000
310
0000000000000000000000000000000000000000040000002426000000000000
310
FEFFFFFF02000000FEFFFFFFFFFFFFFFFFFFFFFFFFFFFFFFFFFFFFFFFFFFFFFF
310
FFFFFFFFFFFFFFFFFFFFFFFFFFFFFFFFFFFFFFFFFFFFFFFFFFFFFFFFFFFFFFFF
310
FFFFFFFFFFFFFFFFFFFFFFFFFFFFFFFFFFFFFFFFFFFFFFFFFFFFFFFFFFFFFFFF
310
FFFFFFFFFFFFFFFFFFFFFFFFFFFFFFFFFFFFFFFFFFFFFFFFFFFFFFFFFFFFFFFF
310
FFFFFFFFFFFFFFFFFFFFFFFFFFFFFFFFFFFFFFFFFFFFFFFFFFFFFFFFFFFFFFFF
310
FFFFFFFFFFFFFFFFFFFFFFFFFFFFFFFFFFFFFFFFFFFFFFFFFFFFFFFFFFFFFFFF
310
FFFFFFFFFFFFFFFFFFFFFFFFFFFFFFFFFFFFFFFFFFFFFFFFFFFFFFFFFFFFFFFF
310
FFFFFFFFFFFFFFFFFFFFFFFFFFFFFFFFFFFFFFFFFFFFFFFFFFFFFFFFFFFFFFFF
310
FFFFFFFFFFFFFFFFFFFFFFFFFFFFFFFFFFFFFFFFFFFFFFFFFFFFFFFFFFFFFFFF
310
FFFFFFFFFFFFFFFFFFFFFFFFFFFFFFFFFFFFFFFFFFFFFFFFFFFFFFFFFFFFFFFF
310
FFFFFFFFFFFFFFFFFFFFFFFFFFFFFFFFFFFFFFFFFFFFFFFFFFFFFFFFFFFFFFFF
310
FFFFFFFFFFFFFFFFFFFFFFFFFFFFFFFFFFFFFFFFFFFFFFFFFFFFFFFFFFFFFFFF
310
FFFFFFFFFFFFFFFFFFFFFFFFFFFFFFFFFFFFFFFFFFFFFFFFFFFFFFFFFFFFFFFF
310
FFFFFFFFFFFFFFFFFFFFFFFFFFFFFFFFFFFFFFFFFFFFFFFFFFFFFFFFFFFFFFFF
310
FFFFFFFFFFFFFFFFFFFFFFFFFFFFFFFFFFFFFFFFFFFFFFFFFFFFFFFFFFFFFFFF
310
FFFFFFFFFFFFFFFFFFFFFFFFFFFFFFFFFFFFFFFFFFFFFFFFFFFFFFFFFFFFFFFF
310
0100000200000000000000000000000000000000000000000000000000000000
310
0000000000000000000000000000000000000000000000000000000000000000
310
0100FEFF030A0000FFFFFFFF0A00030000000000C00000000000004607000000
310
5042727573680007000000504272757368000700000050427275736800F439B2
310
7100000000000000000000000000000000000000000000000000000000000000
310
0000000000000000000000000000000000000000000000000000000000000000
310
0000000000000000000000000000000000000000000000000000000000000000
310
0000000000000000000000000000000000000000000000000000000000000000
310
0000000000000000000000000000000000000000000000000000000000000000
310
0000000000000000000000000000000000000000000000000000000000000000
310
0000000000000000000000000000000000000000000000000000000000000000
310
0000000000000000000000000000000000000000000000000000000000000000
310
0000000000000000000000000000000000000000000000000000000000000000
310
0000000000000000000000000000000000000000000000000000000000000000
310
0000000000000000000000000000000000000000000000000000000000000000
310
0000000000000000000000000000000000000000000000000000000000000000
310
20260000424D0E260000000000003E00000028000000B40200006E0000000100
310
01000000000000000000130B0000130B00000200000002000000000000FFFFFF
310
FFFFFFFFFFFFFFFFFFFFFFFFFFFFFFFFFFFFFFFFFFFFFFFFFFFFFFFFFFFFFFFF
310
FFFFFFFFFFFFFFFFFFFFFFFFFFFFFFFFFFFFFFFFFFFFFFFFFFFFFFFFFFFFFFFF
310
FFFFFFFFFFFFFFFFFFFFFFFFFFFFFFFFFFFFFFFFFFFFFFFFF000FFFFFFFFFFFF
310
FFFFFFFFFFFFFFFFFFFFFFFFFFFFFFFFFFFFFFFFFFFFFFFFFFFFFFFFFFFFFFFF
310
FFFFFFFFFFFFFFFFFFFFFFFFFFFFFFFFFFFFFFFFFFFFFFFFFFFFFFFFFFFFFFFF
310
FFFFFFFFFFFFFFFFFFFFFFFFFFFFFFFFF000FFFFFFFFFFFFFFFFFFFFFFFFFFFF
310
FFFFFFFFFFFFFFFFFFFFFFFFFFFFFFFFFFFFFFFFFFFFFFFFFFFFFFFFFFFFFFFF
310
FFFFFFFFFFFFFFFFFFFFFFFFFFFFFFFFFFFFFFFFFFFFFFFFFFFFFFFFFFFFFFFF
310
FFFFFFFFFFFFFFFFF000FFFFFFFFFFFFFFFFFFFFFFFFFFFFFFFFFFFFFFFFFFFF
310
FFFFFFFFFFFFFFFFFFFFFFFFFFFFFFFFFFFFFFFFFFFFFFFFFFFFFFFFFFFFFFFF
310
FFFFFFFFFFFFFFFFFFFFFFFFFFFFFFFFFFFFFFFFFFFFFFFFFFFFFFFFFFFFFFFF
310
F000FFFFFFFFFFFFFFFFFFFFFFFFFFFFFFFFFFFFFFFFFFFFFFFFFFFFFFFFFFFF
310
FFFFFFFFFFFFFFFFFFFFFFFFFFFFFFFFFFFFFFFFFFFFFFFFFFFFFFFFFFFFFFFF
310
FFFFFFFFFFFFFFFFFFFFFFFFFFFFFFFFFFFFFFFFFFFFFFFFF000FFFFFFFFFFFF
310
FFFFFFFFFFFFFFFFFFFFFFFFFFFFFFFFFFFFFFFFFFFFFFFFFFFFFFFFFFFFFFFF
310
FFFFFFFFFFFFFFFFFFFFFFFFFFFFFFFFFFFFFFFFFFFFFFFFFFFFFFFFFFFFFFFF
310
FFFFFFFFFFFFFFFFFFFFFFFFFFFFFFFFF000FFFFFFFFFFFFFFFFFFFFFFFFFFFF
310
FFFFFFFFFFFFFFFFFFFFFFFFFFFFFFFFFFFFFFFFFFFFFFFFFFFFFFFFFFFFFFFF
310
FFFFFFFFFFFFFFFFFFFFFFFFFFFFFFFFFFFFFFFFFFFFFFFFFFFFFFFFFFFFFFFF
310
FFFFFFFFFFFFFFFFF000FFFFFFFFFFFFFFFFFFFFFFFFFFFFFFFFFFFFFFFFFFFF
310
FFFFFFFFFFFFFFFFFFFFFFFFFFFFFFFFFFFFFFFFFFFFFFFFFFFFFFFFFFFFFFFF
310
FFFFFFFFFFFFFFFFFFFFFFFFFFFFFFFFFFFFFFFFFFFFFFFFFFFFFFFFFFFFFFFF
310
F000FFFFFFFFFFFFFFFFFFFFFFFFFFFFFFFFFFFFFFFFFFFFFFFFFFFFFFFFFFFF
310
FFFFFFFFFFFFFFFFFFFFFFFFFFFFFFFFFFFFFFFFFFFFFFFFFFFFFFFFFFFFFFFF
310
FFFFFFFFFFFFFFFFFFFFFFFFFFFFFFFFFFFFFFFFFFFFFFFFF000FFFFFFFFFFFF
310
FFFFFFFFFFFFFFFFFFFFFFFFFFFFFFFFFFFFFFFFFFFFFFFFFFFFFFFFFFFFFFFF
310
FFFFFFFFFFFFFFFFFFFFFFFFFFFFFFFFFFFFFFFFFFFFFFFFFFFFFFFFFFFFFFFF
310
FFFFFFFFFFFFFFFFFFFFFFFFFFFFFFFFF000FFFFFFFFFFFFFFFFFFFFFFFFFFFF
310
FFFFFFFFFFFFFFFFFFFFFFFFFFFFFFFFFFFFFFFFFFFFFFFFFFFFFFFFFFFFFFFF
310
FFFFFFFFFFFFFFFFFFFFFFFFFFFFFFFFFFFFFFFFFFFFFFFFFFFFFFFFFFFFFFFF
310
FFFFFFFFFFFFFFFFF000FFFFFFFFFFFFFFFFFFFFFFFFFFFFFFFFFFFFFFFFFFFF
310
FFFFFFFFFFFFFFFFFFFFFFFFFFFFFFFFFFFFFFFFFFFFFFFFFFFFFFFFFFFFFFFF
310
FFFFFFFFFFFFFFFFFFFFFFFFFFFFFFFFFFFFFFFFFFFFFFFFFFFFFFFFFFFFFFFF
310
F000FFFFFFFFFFFFFFFFFFFFFFFFFFFFFFFFFFFFFFFFFFFFFFFFFFFFFFFFFFFF
310
FFFFFFFFFFFFFFFFFFFFFFFFFFFFFFFFFFFFFFFFFFFFFFFFFFFFFFFFFFFFFFFF
310
FFFFFFFFFFFFFFFFFFFFFFFFFFFFFFFFFFFFFFFFFFFFFFFFF000FFFFFFFFFFFF
310
FFFFFFFFFFFFFFFFFFFFFFFFFFFFFFFFFFFFFFFFFFFFFFFFFFFFFFFFFFFFFFFF
310
FFFFFFFFFFFFFFFFFFFFFFFFFFFFFFFFFFFFFFFFFFFFFFFFFFFFFFFFFFFFFFFF
310
FFFFFFFFFFFFFFFFFFFFFFFFFFFFFFFFF000FFFFFFFFFFFFFFFFFFFFFFFFFFFF
310
FFFFFFFFFFFFFFFFFFFFFFFFFFFFFFFFFFFFFFFFFFFFFFFFFFFFFFFFFFFFFFFF
310
FFFFFFFFFFFFFFFFFFFFFFFFFFFFFFFFFFFFFFFFFFFFFFFFFFFFFFFFFFFFFFFF
310
FFFFFFFFFFFFFFFFF000FFFFFFFFFFFFFFFFFFFFFFFFFFFFFFFFFFFFFFFFFFFF
310
FFFFFFFFFFFFFFFFFFFFFFFFFFFFFFFFFFFFFFFFFFFFFFFFFFFFFFFFFFFFFFFF
310
FFFFFFFFFFFFFFFFFFFFFFFFFFFFFFFFFFFFFFFFFFFFFFFFFFFFFFFFFFFFFFFF
310
F000FFFFFFFFFFFFFFFFFFFFFFFFFFFFFFFFFFFFFFFFFFFFFFFFFFFFFFFFFFFF
310
FFFFFFFFFFFFFFFFFFFFFFFFFFFFFFFFFFFFFFFFFFFFFFFFFFFFFFFFFFFFFFFF
310
FFFFFFFFFFFFFFFFFFFFFFFFFFFFFFFFFFFFFFFFFFFFFFFFF000FFFFFFFFFFFF
310
FFFFFFFFFFFFFFFFFFFFFFFFFFFFFFFFFFFFFFFFFFFFFFFFFFFFFFFFFFFFFFFF
310
FFFFFFFFFFFFFFFFFFFFFFFFFFFFFFFFFFFFFFFFFFFFFFFFFFFFFFFFFFFFFFFF
310
FFFFFFFFFFFFFFFFFFFFFFFFFFFFFFFFF000FFFFFFFFFFFFFFFFFFFFFFFFFFFF
310
FFFFFFFFFFFFFFFFFFFFFFFFFFFFFFFFFFFFFFFFFFFFFFFFFFFFFFFFFFFFFFFF
310
FFFFFFFFFFFFFFFFFFFFFFFFFFFFFFFFFFFFFFFFFFFFFFFFFFFFFFFFFFFFFFFF
310
FFFFFFFFFFFFFFFFF000FFFFF80003FFFFFFFFFFFFFFFFFFFFFFFFFFFFFFFFFF
310
FFFFF00007FFFFFFFFFF00007FFFFFF800000000000000007FFFFFFFFFFFFFFF
310
FFFFFFFC001FFFFFFFFFFFFFFC001FFFFFFFFFFFFFFFFFFFFFFFFFFE0007FFFF
310
F000FFFF8000007FFFFFFFF8000FFFFFC0007FFFFF80007FFFFF0000007FFFFF
310
FFF8000007FFFFF800000000000000007FFFFFF0001FFFFFFFFFFFC00001FFFF
310
FFFFFFFFC00001FFFFFFFF000000000003FFFFE000007FFFF000FFFE0000000F
310
FFFFFFF0000FFFFF80007FFFFF80007FFFFC0000001FFFFFFFC0000001FFFFF8
310
00000000000000007FFFFFF0001FFFFFFFFFFE0000003FFFFFFFFFFE0000003F
310
FFFFFF000000000003FFFF0000000FFFF000FFF800000003FFFFFFF00007FFFF
310
80007FFFFF80007FFFF000000007FFFFFF000000003FFFF80000000000000000
310
7FFFFFF0001FFFFFFFFFF80000000FFFFFFFFFF80000000FFFFFFF0000000000
310
03FFFC00000003FFF000FFE000000000FFFFFFF00007FFFF80003FFFFF80007F
310
FFC000000001FFFFFC000000001FFFF800000000000000007FFFFFF0001FFFFF
310
FFFFE000000003FFFFFFFFE000000003FFFFFF000000000003FFF000000000FF
310
F000FF80000000007FFFFFF00007FFFF80003FFFFF80007FFF8000000000FFFF
310
F80000000007FFF800000000000000007FFFFFF0001FFFFFFFFFC000000001FF
310
FFFFFFC000000001FFFFFF000000000003FFC0000000007FF000FF0000000000
310
3FFFFFE00007FFFF00003FFFFF80007FFE00000000003FFFF00000000003FFF8
310
00000000000000007FFFFFF0001FFFFFFFFF8000000000FFFFFFFF8000000000
310
FFFFFF000000000003FF80000000003FF000FE00000000001FFFFFE00003FFFF
310
00003FFFFF80007FFC00000000001FFFE00000000001FFF8000001FFFE000000
310
7FFFFFF0001FFFFFFFFE00000000003FFFFFFE00000000003FFFFF0000000000
310
03FF00000000001FF000FC00000000000FFFFFE00003FFFF00001FFFFF80007F
310
F800000000001FFFC00000000000FFF8000001FFFE0000007FFFFFF0001FFFFF
310
FFFC00000000001FFFFFFC00000000001FFFFF000000000003FE00000000000F
310
F000F8000000000007FFFFE00003FFFF00001FFFFF80007FF800000000000FFF
310
800000000000FFF8000001FFFE0000007FFFFFF0001FFFFFFFF800000000000F
310
FFFFF800000000000FFFFF000000000003FC000000000007F000F80000000000
310
03FFFFC00003FFFE00001FFFFF80007FF0000000000007FF0000000000007FF8
310
000001FFFE0000007FFFFFF0001FFFFFFFF0000000000007FFFFF00000000000
310
07FFFF000000000003F8000000000003F000F0000000000003FFFFC00001FFFE
310
00001FFFFF80007FE0000000000007FE0000000000003FF8000001FFFE000000
310
7FFFFFF0001FFFFFFFF0000000000007FFFFF0000000000007FFFF0000000000
310
03F800001F800003F000E00001FFF00001FFFFC00001FFFE00000FFFFF80007F
310
E00001FFE00003FE00001FFF00003FF8000001FFFE0000007FFFFFF0001FFFFF
310
FFE000003E000003FFFFE000003E000003FFFF000000000003F00001FFF80001
310
F000E00007FFFC0001FFFFC00001FFFE00000FFFFF80007FC0000FFFFC0003FC
310
0000FFFFC0001FF8000001FFFE0000007FFFFFF0001FFFFFFFC00003FFE00001
310
FFFFC00003FFE00001FFFF0001FFFFFFFFF00007FFFE0001F000E0000FFFFF00
310
00FFFF800001FFFC00000FFFFF80007FC0001FFFFE0001FC0001FFFFE0001FF8
310
000001FFFE0000007FFFFFF0001FFFFFFF80000FFFF80000FFFF80000FFFF800
310
00FFFF0003FFFFFFFFE0000FFFFF8000F000C0003FFFFF8000FFFF800000FFFC
310
000007FFFF80007F80003FFFFF0001FC0003FFFFF0001FF8000001FFFE000000
310
7FFFFFF0001FFFFFFF80003FFFFE0000FFFF80003FFFFE0000FFFF0003FFFFFF
310
FFE0003FFFFF8000F000C0003FFFFF8000FFFF800000FFFC000007FFFF80007F
310
80007FFFFF8001F80007FFFFF8000FF8000001FFFE0000007FFFFFF0001FFFFF
310
FF00007FFFFF00007FFF00007FFFFF00007FFF0003FFFFFFFFE0003FFFFFC000
310
F000C0007FFFFFC000FFFF000000FFFC000007FFFF80007F8000FFFFFF8000F8
310
000FFFFFF8000FF8000001FFFE0000007FFFFFF0001FFFFFFF0000FFFFFF8000
310
7FFF0000FFFFFF80007FFF0003FFFFFFFFC0007FFFFFC00070008000FFFFFFC0
310
00FFFF000000FFF8000007FFFF80007F8000FFFFFF8000F8000FFFFFF8000FF8
310
000001FFFE0000007FFFFFF0001FFFFFFE0001FFFFFFC0003FFE0001FFFFFFC0
310
003FFF0003FFFFFFFFC0007FFFFFE00070008000FFFFFFC0007FFF0000007FF8
310
000003FFFF80007F0001FFFFFF8000F8000FFFFFF8000FF8000001FFFE000000
310
7FFFFFF0001FFFFFFE0001FFFFFFC0003FFE0001FFFFFFC0003FFF0003FFFFFF
310
FFC000FFFFFFE00070008000FFFFFFC0007FFF0000007FF8000003FFFF80007F
310
0001FFFFFF8000F8001FFFFFF8000FF8000001FFFE0000007FFFFFF0001FFFFF
310
FE0003FFFFFFE0003FFE0003FFFFFFE0003FFF0003FFFFFFFFC000FFFFFFE000
310
70008000FFFFFFC0007FFE0000007FF8000003FFFF80007F0001FFFFFF8000F0
310
001FFFFFF8000FF8000001FFFE0000007FFFFFF0001FFFFFFC0003FFFFFFE000
310
1FFC0003FFFFFFE0001FFF0003FFFFFFFFC000FFFFFFC00070008000FFFFFF80
310
007FFE0000007FF0000003FFFF80007F0001FFFFFF0000F0001FFFFFF8000FF8
310
000001FFFE0000007FFFFFF0001FFFFFFC0007FFFFFFF0001FFC0007FFFFFFF0
310
001FFF0003FFFFFFFFC000FFFFFFC00070008001FFFFFF0000FFFE0000003FF0
310
000001FFFF80007F0001FFFFFF0000F8001FFFFFF0000FF8000001FFFE000000
310
7FFFFFF0001FFFFFFC0007FFFFFFF0001FFC0007FFFFFFF0001FFF0003FFFFFF
310
FFC001FFFFFF80007000FFFFFFFFFE0000FFFE0008003FF0008001FFFF80007F
310
FFFFFFFFFC0000FFFFFFFFFFE0000FF8000001FFFE0000007FFFFFF0001FFFFF
310
F8000FFFFFFFF8000FF8000FFFFFFFF8000FFF0003FFFFFFFFFFFFFFFFFF0000
310
7000FFFFFFFFFC0000FFFC0008003FF0008001FFFF80007FFFFFFFFFF80001FF
310
FFFFFFFF80000FF8000001FFFE0000007FFFFFF0001FFFFFF8000FFFFFFFF800
310
0FF8000FFFFFFFF8000FFF0003FFFFFFFFFFFFFFFFFE0000F000FFFFFFFFE000
310
00FFFC000C003FE000C001FFFF80007FFFFFFFFFC00001FFFFFFFFFE00001FF8
310
000001FFFE0000007FFFFFF0001FFFFFF8000FFFFFFFF8000FF8000FFFFFFFF8
310
000FFF0003FFFFFFFFFFFFFFFFF00000F000FFFFFFFE000001FFFC000C001FE0
310
00C000FFFF80007FFFFFFFFE000001FFFFFFFFE000001FF80FFFFFFFFFFFFFC0
310
7FFFFFF0001FFFFFF8000FFFFFFFF8000FF8000FFFFFFFF8000FFF0003FFFFFF
310
FFFFFFFFFF800000F000FFFFFFC0000001FFFC001C001FE001C000FFFF80007F
310
FFFFFF80000003FFFFFFF80000001FF80FFFFFFFFFFFFFC07FFFFFF0001FFFFF
310
F8001FFFFFFFFC000FF8001FFFFFFFFC000FFF0003FFFFFFFFFFFFFFF0000001
310
F000FFFFF800000001FFF8001C001FE001C000FFFF80007FFFFFF800000003FF
310
FFFF800000003FF80FFFFFFFFFFFFFC07FFFFFF0001FFFFFF8001FFFFFFFFC00
310
0FF8001FFFFFFFFC000FFF0003FFFFFFFFFFFFFE00000001F000FFFFC0000000
310
03FFF8001E001FC001E000FFFF80007FFFFF8000000007FFFFFC000000003FF8
310
0FFFFFFFFFFFFFC07FFFFFF0001FFFFFF8001FFFFFFFFC000FF8001FFFFFFFFC
310
000FFF0003FFFFFFFFFFFFE000000003F000FFFE0000000007FFF8001E000FC0
310
01E0007FFF80007FFFFE0000000007FFFFE0000000007FF80FFFFFFFFFFFFFC0
310
7FFFFFF0001FFFFFF0001FFFFFFFFC0007F0001FFFFFFFFC0007FF0003FFFFFF
310
FFFFFF0000000003F000FFF80000000007FFF8001E000FC003E0007FFF80007F
310
FFF0000000000FFFFF8000000000FFF80FFFFFFFFFFFFFC07FFFFFF0001FFFFF
310
F0001FFFFFFFFC0007F0001FFFFFFFFC0007FF0003FFFFFFFFFFFC0000000007
310
F000FFE0000000000FFFF0003E000FC003E0007FFF80007FFFC0000000001FFF
310
FE0000000001FFF80FFFFFFFFFFFFFC07FFFFFF0001FFFFFF0001FFFFFFFFC00
310
07F0001FFFFFFFFC0007FF0003FFFFFFFFFFF0000000000FF000FFC000000000
310
1FFFF0003F000F8003F0003FFF80007FFF80000000003FFFF80000000003FFF8
310
0FFFFFFFFFFFFFC07FFFFFF0001FFFFFF0001FFFFFFFFC0007F0001FFFFFFFFC
310
0007FF0003FFFFFFFFFFE0000000001FF000FF00000000007FFFF0003F000780
310
03F0003FFF80007FFF00000000007FFFF00000000007FFF80FFFFFFFFFFFFFC0
310
7FFFFFF0001FFFFFF0001FFFFFFFFC0007F0001FFFFFFFFC0007FF0003FFFFFF
310
FFFF80000000007FF000FE0000000000FFFFE0003F00078007F0003FFF80007F
310
FE0000000001FFFFE0000000001FFFF80FFFFFFFFFFFFFC07FFFFFF0001FFFFF
310
F0001FFFFFFFFC0007F0001FFFFFFFFC0007FF0003FFFFFFFFFF0000000000FF
310
F000FC0000000003FFFFE0007F00078007F0003FFF80007FFC0000000007FFFF
310
C0000000007FFFF80FFFFFFFFFFFFFC07FFFFFF0001FFFFFF8001FFFFFFFFC00
310
0FF8001FFFFFFFFC000FFF0003FFFFFFFFFE0000000003FFF000FC000000000F
310
FFFFE0007F80070007F8001FFF80007FF8000000001FFFFF8000000001FFFFF8
310
0FFFFFFFFFFFFFC07FFFFFF0001FFFFFF8001FFFFFFFFC000FF8001FFFFFFFFC
310
000FFF0003FFFFFFFFFC000000000FFFF000F8000000007FFFFFE0007F800700
310
07F8001FFF80007FF000000000FFFFFF800000000FFFFFF80FFFFFFFFFFFFFC0
310
7FFFFFF0001FFFFFF8000FFFFFFFF8000FF8000FFFFFFFF8000FFF0003FFFFFF
310
FFFC000000007FFFF000F800000007FFFFFFC0007F8003000FF8001FFF80007F
310
F000000007FFFFFF000000007FFFFFF80FFFFFFFFFFFFFC07FFFFFF0001FFFFF
310
F8000FFFFFFFF8000FF8000FFFFFFFF8000FFF0003FFFFFFFFF80000000FFFFF
310
F000F0000000FFFFFFFFC000FF8003000FF8001FFF80007FE0000000FFFFFFFF
310
0000000FFFFFFFF8000001FFFE0000007FFFFFF0001FFFFFF8000FFFFFFFF800
310
0FF8000FFFFFFFF8000FFF0003FFFFFFFFF8000000FFFFFFF000F000000FFFFF
310
FFFFC000FFC002000FF8000FFF80007FE000001FFFFFFFFE000001FFFFFFFFF8
310
000001FFFE0000007FFFFFF0001FFFFFF8000FFFFFFFF8000FF8000FFFFFFFF8
310
000FFF0003FFFFFFFFF000001FFFFFFFF000E00000FFFFFFFFFFC000FFC00200
310
0FFC000FFF80007FE00001FFFFFFFFFE00001FFFFFFFFFF8000001FFFE000000
310
7FFFFFF0001FFFFFFC000FFFFFFFF8001FFC000FFFFFFFF8001FFF0003FFFFFF
310
FFF00001FFFFFFFFF000E00007FFFFFFFFFF8000FFC000001FFC000FFF80007F
310
C0000FFFFFFFFFFE0000FFFFFFFFFFF8000001FFFE0000007FFFFFF0001FFFFF
310
FC0007FFFFFFF0001FFC0007FFFFFFF0001FFF0003FFFFFFFFF00007FFFFFFFF
310
F000E0001FFFFFFFFFFF8000FFC000001FFC000FFF80007FC0003FFFFFFFFFFE
310
0001FFFFFFFFFFF8000001FFFE0000007FFFFFF0001FFFFFFC0007FFFFFFF000
310
1FFC0007FFFFFFF0001FFF0003FFFFFFFFF0001FFFFFFFFFF000E0003FFFFF00
310
03FF8001FFE000001FFC0007FF80007FC0007FFFFF0007FC0003FFFFF0003FF8
310
000001FFFE0000007FFFFFF0001FFFFFFC0003FFFFFFE0001FFC0003FFFFFFE0
310
001FFF0003FFFFFFFFF0003FFFFFFFFFF000E0003FFFFF0001FF8001FFE00000
310
1FFE0007FF80007FC0007FFFFE0003FC0007FFFFE0003FF8000001FFFE000000
310
7FFFFFF0001FFFFFFE0003FFFFFFE0003FFE0003FFFFFFE0003FFF0003FFFFFF
310
FFF0003FFFFF8001F000E0003FFFFF0001FF0001FFE000001FFE0007FF80007F
310
C0007FFFFE0003FC0007FFFFE0003FF8000001FFFE0000007FFFFFF0001FFFFF
310
FE0001FFFFFFC0003FFE0001FFFFFFC0003FFF0003FFFFFFFFF0003FFFFF0001
310
F000E0003FFFFF0003FF0001FFE000003FFE0007FF80007FC0007FFFFE0003FC
310
0007FFFFE0003FF8000001FFFE0000007FFFFFF0001FFFFFFF0001FFFFFFC000
310
7FFF0001FFFFFFC0007FFF0003FFFFFFFFF0003FFFFF0001F000E0003FFFFE00
310
03FF0003FFF000003FFE0003FF80007FC0007FFFFC0003FE0007FFFFE0003FF8
310
000001FFFE0000007FFFFFF0001FFFFFFF0000FFFFFF80007FFF0000FFFFFF80
310
007FFF0003FFFFFFFFF0003FFFFF0001F000E0003FFFFE0003FF0003FFF00000
310
3FFF0003FF80007FC0007FFFFC0007FE0007FFFFC0003FF8000001FFFE000000
310
7FFFFFF0001FFFFFFF80007FFFFF0000FFFF80007FFFFF0000FFFF0003FFFFFF
310
FFF0003FFFFF0003F000E0003FFFFC0003FE0003FFF000003FFF0003FF80007F
310
E0003FFFF80007FE0003FFFFC0007FF8000001FFFE0000007FFFFFF0001FFFFF
310
FF80003FFFFE0000FFFF80003FFFFE0000FFFF0003FFFFFFFFF0001FFFFE0003
310
F000F0001FFFF80003FE0003FFF000007FFF0001FF80007FE0003FFFF00007FE
310
0001FFFF80007FF8000001FFFE0000007FFFFFF0001FFFFFFFC0000FFFF80001
310
FFFFC0000FFFF80001FFFF0003FFFFFFFFF0001FFFFC0003F000F0000FFFF000
310
07FE0007FFF800007FFF0001FF80007FE0001FFFE00007FF0000FFFE00007FF8
310
000001FFFE0000007FFFFFF0001FFFFFFFC00003FFE00001FFFFC00003FFE000
310
01FFFF0003FFFFFFFFF8000FFFF80003F000F00003FFC00007FC0007FFF80000
310
7FFF8001FF80007FF00007FF80000FFF00007FF80000FFF8000001FFFE000000
310
7F80000000000001FFE000003E000003FFFFE000003E000003FFFF0003FFFFFF
310
FFF80003FFE00007F000F800000000000FFC0007FFF800007FFF8001FF80007F
310
F000000000000FFF000000000000FFF8000001FFFE0000007F80000000000001
310
FFF0000000000007FFFFF0000000000007FFFF0003FFFFFFFFFC00007E000007
310
F000F800000000000FFC0007FFF80000FFFF8000FF80007FF800000000001FFF
310
800000000001FFF8000001FFFE0000007F80000000000001FFF800000000000F
310
FFFFF800000000000FFFFF0003FFFFFFFFFC00000000000FF000FC0000000000
310
1FFC0007FFFC0000FFFF8000FF80007FF800000000003FFFC00000000001FFF8
310
000001FFFE0000007F80000000000001FFF800000000000FFFFFF80000000000
310
0FFFFF0003FFFFFFFFFE00000000001FF000FE00000000003FF8000FFFFC0000
310
FFFF8000FF80007FFC00000000003FFFC00000000003FFF8000001FFFE000000
310
7F80000000000001FFFC00000000001FFFFFFC00000000001FFFFF0003FFFFFF
310
FFFF00000000001FF000FF00000000003FF8000FFFFC0000FFFFC000FF80007F
310
FE00000000007FFFE00000000007FFF8000001FFFE0000007F80000000000001
310
FFFE00000000003FFFFFFE00000000003FFFFF0003FFFFFFFFFF80000000003F
310
F000FF80000000007FF8000FFFFC0001FFFFC0007F80007FFF0000000000FFFF
310
F0000000000FFFF800000000000000007F80000000000001FFFF8000000000FF
310
FFFFFF8000000000FFFFFF0003FFFFFFFFFFC0000000007FF000FFC000000000
310
FFF8000FFFFE0001FFFFC0007F80007FFF8000000001FFFFF8000000001FFFF8
310
00000000000000007F80000000000001FFFFC000000001FFFFFFFFC000000001
310
FFFFFF0003FFFFFFFFFFE000000000FFF000FFE000000003FFF0001FFFFE0001
310
FFFFC0007F80007FFFC000000007FFFFFE000000003FFFF80000000000000000
310
7F80000000000001FFFFE000000003FFFFFFFFE000000003FFFFFF0003FFFFFF
310
FFFFF000000003FFF000FFF80000000FFFF0001FFFFE0001FFFFE0007F80007F
310
FFF00000000FFFFFFF00000000FFFFF800000000000000007F80000000000001
310
FFFFF80000000FFFFFFFFFF80000000FFFFFFF0003FFFFFFFFFFFC0000000FFF
310
F000FFFE0000003FFFF0001FFFFE0003FFFFE0003F80007FFFFC0000003FFFFF
310
FFC0000003FFFFF800000000000000007F80000000000001FFFFFE0000003FFF
310
FFFFFFFE0000003FFFFFFF0003FFFFFFFFFFFF0000003FFFF000FFFF800000FF
310
FFF0001FFFFF0003FFFFE0003F80007FFFFF000001FFFFFFFFF800001FFFFFF8
310
00000000000000007F80000000000001FFFFFFC00001FFFFFFFFFFFFC00001FF
310
FFFFFF0003FFFFFFFFFFFFC00000FFFFF000FFFFF8000FFFFFFFFFFFFFFFFFFF
310
FFFFFFFFFFFFFFFFFFFFF0001FFFFFFFFFFF0000FFFFFFF80000000000000000
310
7FFFFFFFFFFFFFFFFFFFFFFC001FFFFFFFFFFFFFFC001FFFFFFFFFFFFFFFFFFF
310
FFFFFFFC001FFFFFF000FFFFFFFFFFFFFFFFFFFFFFFFFFFFFFFFFFFFFFFFFFFF
310
FFFFFFFFFFFFFFFFFFFFFFFFFFFFFFFFFFFFFFFFFFFFFFFFFFFFFFFFFFFFFFFF
310
FFFFFFFFFFFFFFFFFFFFFFFFFFFFFFFFFFFFFFFFFFFFFFFFFFFFFFFFFFFFFFFF
310
F000FFFFFFFFFFFFFFFFFFFFFFFFFFFFFFFFFFFFFFFFFFFFFFFFFFFFFFFFFFFF
310
FFFFFFFFFFFFFFFFFFFFFFFFFFFFFFFFFFFFFFFFFFFFFFFFFFFFFFFFFFFFFFFF
310
FFFFFFFFFFFFFFFFFFFFFFFFFFFFFFFFFFFFFFFFFFFFFFFFF000FFFFFFFFFFFF
310
FFFFFFFFFFFFFFFFFFFFFFFFFFFFFFFFFFFFFFFFFFFFFFFFFFFFFFFFFFFFFFFF
310
FFFFFFFFFFFFFFFFFFFFFFFFFFFFFFFFFFFFFFFFFFFFFFFFFFFFFFFFFFFFFFFF
310
FFFFFFFFFFFFFFFFFFFFFFFFFFFFFFFFF000FFFFFFFFFFFFFFFFFFFFFFFFFFFF
310
FFFFFFFFFFFFFFFFFFFFFFFFFFFFFFFFFFFFFFFFFFFFFFFFFFFFFFFFFFFFFFFF
310
FFFFFFFFFFFFFFFFFFFFFFFFFFFFFFFFFFFFFFFFFFFFFFFFFFFFFFFFFFFFFFFF
310
FFFFFFFFFFFFFFFFF000FFFFFFFFFFFFFFFFFFFFFFFFFFFFFFFFFFFFFFFFFFFF
310
FFFFFFFFFFFFFFFFFFFFFFFFFFFFFFFFFFFFFFFFFFFFFFFFFFFFFFFFFFFFFFFF
310
FFFFFFFFFFFFFFFFFFFFFFFFFFFFFFFFFFFFFFFFFFFFFFFFFFFFFFFFFFFFFFFF
310
F000FFFFFFFFFFFFFFFFFFFFFFFFFFFFFFFFFFFFFFFFFFFFFFFFFFFFFFFFFFFF
310
FFFFFFFFFFFFFFFFFFFFFFFFFFFFFFFFFFFFFFFFFFFFFFFFFFFFFFFFFFFFFFFF
310
FFFFFFFFFFFFFFFFFFFFFFFFFFFFFFFFFFFFFFFFFFFFFFFFF000FFFFFFFFFFFF
310
FFFFFFFFFFFFFFFFFFFFFFFFFFFFFFFFFFFFFFFFFFFFFFFFFFFFFFFFFFFFFFFF
310
FFFFFFFFFFFFFFFFFFFFFFFFFFFFFFFFFFFFFFFFFFFFFFFFFFFFFFFFFFFFFFFF
310
FFFFFFFFFFFFFFFFFFFFFFFFFFFFFFFFF000FFFFFFFFFFFFFFFFFFFFFFFFFFFF
310
FFFFFFFFFFFFFFFFFFFFFFFFFFFFFFFFFFFFFFFFFFFFFFFFFFFFFFFFFFFFFFFF
310
FFFFFFFFFFFFFFFFFFFFFFFFFFFFFFFFFFFFFFFFFFFFFFFFFFFFFFFFFFFFFFFF
310
FFFFFFFFFFFFFFFFF000FFFFFFFFFFFFFFFFFFFFFFFFFFFFFFFFFFFFFFFFFFFF
310
FFFFFFFFFFFFFFFFFFFFFFFFFFFFFFFFFFFFFFFFFFFFFFFFFFFFFFFFFFFFFFFF
310
FFFFFFFFFFFFFFFFFFFFFFFFFFFFFFFFFFFFFFFFFFFFFFFFFFFFFFFFFFFFFFFF
310
F000FFFFFFFFFFFFFFFFFFFFFFFFFFFFFFFFFFFFFFFFFFFFFFFFFFFFFFFFFFFF
310
FFFFFFFFFFFFFFFFFFFFFFFFFFFFFFFFFFFFFFFFFFFFFFFFFFFFFFFFFFFFFFFF
310
FFFFFFFFFFFFFFFFFFFFFFFFFFFFFFFFFFFFFFFFFFFFFFFFF000FFFFFFFFFFFF
310
FFFFFFFFFFFFFFFFFFFFFFFFFFFFFFFFFFFFFFFFFFFFFFFFFFFFFFFFFFFFFFFF
310
FFFFFFFFFFFFFFFFFFFFFFFFFFFFFFFFFFFFFFFFFFFFFFFFFFFFFFFFFFFFFFFF
310
FFFFFFFFFFFFFFFFFFFFFFFFFFFFFFFFF000FFFFFFFFFFFFFFFFFFFFFFFFFFFF
310
FFFFFFFFFFFFFFFFFFFFFFFFFFFFFFFFFFFFFFFFFFFFFFFFFFFFFFFFFFFFFFFF
310
FFFFFFFFFFFFFFFFFFFFFFFFFFFFFFFFFFFFFFFFFFFFFFFFFFFFFFFFFFFFFFFF
310
FFFFFFFFFFFFFFFFF000FFFFFFFFFFFFFFFFFFFFFFFFFFFFFFFFFFFFFFFFFFFF
310
FFFFFFFFFFFFFFFFFFFFFFFFFFFFFFFFFFFFFFFFFFFFFFFFFFFFFFFFFFFFFFFF
310
FFFFFFFFFFFFFFFFFFFFFFFFFFFFFFFFFFFFFFFFFFFFFFFFFFFFFFFFFFFFFFFF
310
F000FFFFFFFFFFFFFFFFFFFFFFFFFFFFFFFFFFFFFFFFFFFFFFFFFFFFFFFFFFFF
310
FFFFFFFFFFFFFFFFFFFFFFFFFFFFFFFFFFFFFFFFFFFFFFFFFFFFFFFFFFFFFFFF
310
FFFFFFFFFFFFFFFFFFFFFFFFFFFFFFFFFFFFFFFFFFFFFFFFF000FFFFFFFFFFFF
310
FFFFFFFFFFFFFFFFFFFFFFFFFFFFFFFFFFFFFFFFFFFFFFFFFFFFFFFFFFFFFFFF
310
FFFFFFFFFFFFFFFFFFFFFFFFFFFFFFFFFFFFFFFFFFFFFFFFFFFFFFFFFFFFFFFF
310
FFFFFFFFFFFFFFFFFFFFFFFFFFFFFFFFF000FFFFFFFFFFFFFFFFFFFFFFFFFFFF
310
FFFFFFFFFFFFFFFFFFFFFFFFFFFFFFFFFFFFFFFFFFFFFFFFFFFFFFFFFFFFFFFF
310
FFFFFFFFFFFFFFFFFFFFFFFFFFFFFFFFFFFFFFFFFFFFFFFFFFFFFFFFFFFFFFFF
310
FFFFFFFFFFFFFFFFF000FFFFFFFFFFFFFFFFFFFFFFFFFFFFFFFFFFFFFFFFFFFF
310
FFFFFFFFFFFFFFFFFFFFFFFFFFFFFFFFFFFFFFFFFFFFFFFFFFFFFFFFFFFFFFFF
310
FFFFFFFFFFFFFFFFFFFFFFFFFFFFFFFFFFFFFFFFFFFFFFFFFFFFFFFFFFFFFFFF
310
F000FFFFFFFFFFFFFFFFFFFFFFFFFFFFFFFFFFFFFFFFFFFFFFFFFFFFFFFFFFFF
310
FFFFFFFFFFFFFFFFFFFFFFFFFFFFFFFFFFFFFFFFFFFFFFFFFFFFFFFFFFFFFFFF
310
FFFFFFFFFFFFFFFFFFFFFFFFFFFFFFFFFFFFFFFFFFFFFFFFF000FFFFFFFFFFFF
310
FFFFFFFFFFFFFFFFFFFFFFFFFFFFFFFFFFFFFFFFFFFFFFFFFFFFFFFFFFFFFFFF
310
FFFFFFFFFFFFFFFFFFFFFFFFFFFFFFFFFFFFFFFFFFFFFFFFFFFFFFFFFFFFFFFF
310
FFFFFFFFFFFFFFFFFFFFFFFFFFFFFFFFF000FFFFFFFFFFFFFFFFFFFFFFFFFFFF
310
FFFFFFFFFFFFFFFFFFFFFFFFFFFFFFFFFFFFFFFFFFFFFFFFFFFFFFFFFFFFFFFF
310
FFFFFFFFFFFFFFFFFFFFFFFFFFFFFFFFFFFFFFFFFFFFFFFFFFFFFFFFFFFFFFFF
310
FFFFFFFFFFFFFFFFF000FFFFFFFFFFFFFFFFFFFFFFFFFFFFFFFFFFFFFFFFFFFF
310
FFFFFFFFFFFFFFFFFFFFFFFFFFFFFFFFFFFFFFFFFFFFFFFFFFFFFFFFFFFFFFFF
310
FFFFFFFFFFFFFFFFFFFFFFFFFFFFFFFFFFFFFFFFFFFFFFFFFFFFFFFFFFFFFFFF
310
F000FFFFFFFFFFFFFFFFFFFFFFFFFFFFFFFFFFFFFFFFFFFFFFFFFFFFFFFFFFFF
310
FFFFFFFFFFFFFFFFFFFFFFFFFFFFFFFFFFFFFFFFFFFFFFFFFFFFFFFFFFFFFFFF
310
FFFFFFFFFFFFFFFFFFFFFFFFFFFFFFFFFFFFFFFFFFFFFFFFF000FFFFFFFFFFFF
310
FFFFFFFFFFFFFFFFFFFFFFFFFFFFFFFFFFFFFFFFFFFFFFFFFFFFFFFFFFFFFFFF
310
FFFFFFFFFFFFFFFFFFFFFFFFFFFFFFFFFFFFFFFFFFFFFFFFFFFFFFFFFFFFFFFF
310
FFFFFFFFFFFFFFFFFFFFFFFFFFFFFFFFF0000000000000000000000000000000
310
0000000000000000000000000000000000000000000000000000000000000000
310
0000000000000000000000000000000000000000000000000000000000000000
310
0000000000000000000000000000000000000000000000000000000000000000
310
0000000000000000000000000000000000000000000000000000000000000000
310
0000000000000000000000000000000000000000000000000000000000000000
310
0000000000000000000000000000000000000000000000000000000000000000
310
0000000000000000000000000000000000000000000000000000000000000000
310
0000000000000000000000000000000000000000000000000000000000000000
310
0000000000000000000000000000000000000000000000000000000000000000
310
0000000000000000000000000000000000000000000000000000000000000000
310
0000000000000000000000000000000000000000000000000000000000000000
310
0000000000000000000000000000000000000000000000000000000000000000
310
0000000000000000000000000000000000000000000000000000000000000000
310
0000000000000000000000000000000000000000000000000000000000000000
310
0000000000000000000000000000000000000000000000000000000000000000
  1
OLE
  0
ENDSEC
  0
SECTION
  2
OBJECTS
  0
DICTIONARY
  5
C
330
0
100
AcDbDictionary
281
     1
  3
ACAD_GROUP
350
D
  3
ACAD_LAYOUT
350
1A
  3
ACAD_MLINESTYLE
350
17
  3
ACAD_PLOTSETTINGS
350
19
  3
ACAD_PLOTSTYLENAME
350
E
  0
DICTIONARY
  5
D
102
{ACAD_REACTORS
330
C
102
}
330
C
100
AcDbDictionary
281
     1
  0
DICTIONARY
  5
1A
102
{ACAD_REACTORS
330
C
102
}
330
C
100
AcDbDictionary
281
     1
  3
Layout1
350
1E
  3
Layout2
350
26
  3
Model
350
22
  0
DICTIONARY
  5
17
102
{ACAD_REACTORS
330
C
102
}
330
C
100
AcDbDictionary
281
     1
  3
Standard
350
18
  0
DICTIONARY
  5
19
102
{ACAD_REACTORS
330
C
102
}
330
C
100
AcDbDictionary
281
     1
  0
ACDBDICTIONARYWDFLT
  5
E
102
{ACAD_REACTORS
330
C
102
}
330
C
100
AcDbDictionary
281
     1
  3
Normal
350
F
100
AcDbDictionaryWithDefault
340
F
  0
LAYOUT
  5
1E
102
{ACAD_REACTORS
330
1A
102
}
330
1A
100
AcDbPlotSettings
  1

  2
none_device
  4

  6

 40
0.0
 41
0.0
 42
0.0
 43
0.0
 44
0.0
 45
0.0
 46
0.0
 47
0.0
 48
0.0
 49
0.0
140
0.0
141
0.0
142
1.0
143
1.0
 70
   688
 72
     0
 73
     0
 74
     5
  7

 75
    16
147
1.0
148
0.0
149
0.0
100
AcDbLayout
  1
Layout1
 70
     1
 71
     1
 10
0.0
 20
0.0
 11
420.0
 21
297.0
 12
0.0
 22
0.0
 32
0.0
 14
1.0000000000E+20
 24
1.0000000000E+20
 34
1.0000000000E+20
 15
-1.0000000000E+20
 25
-1.0000000000E+20
 35
-1.0000000000E+20
146
0.0
 13
0.0
 23
0.0
 33
0.0
 16
1.0
 26
0.0
 36
0.0
 17
0.0
 27
1.0
 37
0.0
 76
     0
330
1B
  0
LAYOUT
  5
26
102
{ACAD_REACTORS
330
1A
102
}
330
1A
100
AcDbPlotSettings
  1

  2
none_device
  4

  6

 40
0.0
 41
0.0
 42
0.0
 43
0.0
 44
0.0
 45
0.0
 46
0.0
 47
0.0
 48
0.0
 49
0.0
140
0.0
141
0.0
142
1.0
143
1.0
 70
   688
 72
     0
 73
     0
 74
     5
  7

 75
    16
147
1.0
148
0.0
149
0.0
100
AcDbLayout
  1
Layout2
 70
     1
 71
     2
 10
0.0
 20
0.0
 11
0.0
 21
0.0
 12
0.0
 22
0.0
 32
0.0
 14
0.0
 24
0.0
 34
0.0
 15
0.0
 25
0.0
 35
0.0
146
0.0
 13
0.0
 23
0.0
 33
0.0
 16
1.0
 26
0.0
 36
0.0
 17
0.0
 27
1.0
 37
0.0
 76
     0
330
23
  0
LAYOUT
  5
22
102
{ACAD_REACTORS
330
1A
102
}
330
1A
100
AcDbPlotSettings
  1

  2
none_device
  4

  6

 40
0.0
 41
0.0
 42
0.0
 43
0.0
 44
0.0
 45
0.0
 46
0.0
 47
0.0
 48
0.0
 49
0.0
140
0.0
141
0.0
142
1.0
143
1.0
 70
  1712
 72
     0
 73
     0
 74
     0
  7

 75
     0
147
1.0
148
0.0
149
0.0
100
AcDbLayout
  1
Model
 70
     1
 71
     0
 10
0.0
 20
0.0
 11
297.0
 21
210.0
 12
0.0
 22
0.0
 32
0.0
 14
0.0
 24
0.0
 34
0.0
 15
297.0
 25
210.0
 35
0.0
146
0.0
 13
0.0
 23
0.0
 33
0.0
 16
1.0
 26
0.0
 36
0.0
 17
0.0
 27
1.0
 37
0.0
 76
     0
330
1F
331
29
  0
MLINESTYLE
  5
18
102
{ACAD_REACTORS
330
17
102
}
330
17
100
AcDbMlineStyle
  2
Standard
 70
     0
  3

 62
   256
 51
90.0
 52
90.0
 71
     2
 49
0.5
 62
   256
  6
BYLAYER
 49
-0.5
 62
   256
  6
BYLAYER
  0
ACDBPLACEHOLDER
  5
F
102
{ACAD_REACTORS
330
E
102
}
330
E
  0
ENDSEC
  0
EOF
