  0
SECTION
  2
HEADER
  9
$ACADVER
  1
AC1015
  9
$ACADMAINTVER
 70
     6
  9
$DWGCODEPAGE
  3
ANSI_1252
  9
$INSBASE
 10
0.0
 20
0.0
 30
0.0
  9
$EXTMIN
 10
0.0
 20
0.0
 30
0.0
  9
$EXTMAX
 10
297.0
 20
210.0
 30
0.0
  9
$LIMMIN
 10
0.0
 20
0.0
  9
$LIMMAX
 10
297.0
 20
210.0
  9
$ORTHOMODE
 70
     0
  9
$REGENMODE
 70
     1
  9
$FILLMODE
 70
     1
  9
$QTEXTMODE
 70
     0
  9
$MIRRTEXT
 70
     1
  9
$LTSCALE
 40
1.0
  9
$ATTMODE
 70
     1
  9
$TEXTSIZE
 40
2.0
  9
$TRACEWID
 40
1.0
  9
$TEXTSTYLE
  7
STANDARD
  9
$CLAYER
  8
0
  9
$CELTYPE
  6
ByLayer
  9
$CECOLOR
 62
   256
  9
$CELTSCALE
 40
1.0
  9
$DISPSILH
 70
     0
  9
$DIMSCALE
 40
1.0
  9
$DIMASZ
 40
3.0
  9
$DIMEXO
 40
0.0
  9
$DIMDLI
 40
3.75
  9
$DIMRND
 40
0.0
  9
$DIMDLE
 40
0.0
  9
$DIMEXE
 40
1.0
  9
$DIMTP
 40
0.0
  9
$DIMTM
 40
0.0
  9
$DIMTXT
 40
2.0
  9
$DIMCEN
 40
2.5
  9
$DIMTSZ
 40
0.0
  9
$DIMTOL
 70
     0
  9
$DIMLIM
 70
     0
  9
$DIMTIH
 70
     1
  9
$DIMTOH
 70
     1
  9
$DIMSE1
 70
     0
  9
$DIMSE2
 70
     0
  9
$DIMTAD
 70
     1
  9
$DIMZIN
 70
     0
  9
$DIMBLK
  1

  9
$DIMASO
 70
     1
  9
$DIMSHO
 70
     1
  9
$DIMPOST
  1

  9
$DIMAPOST
  1

  9
$DIMALT
 70
     0
  9
$DIMALTD
 70
     3
  9
$DIMALTF
 40
0.0393700787
  9
$DIMLFAC
 40
1.0
  9
$DIMTOFL
 70
     1
  9
$DIMTVP
 40
0.0
  9
$DIMTIX
 70
     0
  9
$DIMSOXD
 70
     0
  9
$DIMSAH
 70
     0
  9
$DIMBLK1
  1

  9
$DIMBLK2
  1

  9
$DIMSTYLE
  2
ISO-25
  9
$DIMCLRD
 70
     0
  9
$DIMCLRE
 70
     0
  9
$DIMCLRT
 70
     0
  9
$DIMTFAC
 40
1.0
  9
$DIMGAP
 40
1.524
  9
$DIMJUST
 70
     0
  9
$DIMSD1
 70
     0
  9
$DIMSD2
 70
     0
  9
$DIMTOLJ
 70
     0
  9
$DIMTZIN
 70
     0
  9
$DIMALTZ
 70
     0
  9
$DIMALTTZ
 70
     0
  9
$DIMUPT
 70
     0
  9
$DIMDEC
 70
     2
  9
$DIMTDEC
 70
     3
  9
$DIMALTU
 70
     2
  9
$DIMALTTD
 70
     3
  9
$DIMTXSTY
  7
STANDARD
  9
$DIMAUNIT
 70
     0
  9
$DIMADEC
 70
     2
  9
$DIMALTRND
 40
0.0
  9
$DIMAZIN
 70
     0
  9
$DIMDSEP
 70
    44
  9
$DIMATFIT
 70
     3
  9
$DIMFRAC
 70
     0
  9
$DIMLDRBLK
  1

  9
$DIMLUNIT
 70
     2
  9
$DIMLWD
 70
    -2
  9
$DIMLWE
 70
    -2
  9
$DIMTMOVE
 70
     0
  9
$LUNITS
 70
     2
  9
$LUPREC
 70
     2
  9
$SKETCHINC
 40
1.0
  9
$FILLETRAD
 40
10.0
  9
$AUNITS
 70
     0
  9
$AUPREC
 70
     2
  9
$MENU
  1
.
  9
$ELEVATION
 40
0.0
  9
$PELEVATION
 40
0.0
  9
$THICKNESS
 40
0.0
  9
$LIMCHECK
 70
     0
  9
$CHAMFERA
 40
10.0
  9
$CHAMFERB
 40
10.0
  9
$CHAMFERC
 40
20.0
  9
$CHAMFERD
 40
0.0
  9
$SKPOLY
 70
     0
  9
$TDCREATE
 40
2457150.426825035
  9
$TDUCREATE
 40
2457150.343491701
  9
$TDUPDATE
 40
2457150.426825752
  9
$TDUUPDATE
 40
2457150.343492419
  9
$TDINDWG
 40
0.0000000116
  9
$TDUSRTIMER
 40
0.0000000116
  9
$USRTIMER
 70
     1
  9
$ANGBASE
 50
0.0
  9
$ANGDIR
 70
     0
  9
$PDMODE
 70
     0
  9
$PDSIZE
 40
-1.0
  9
$PLINEWID
 40
0.0
  9
$SPLFRAME
 70
     0
  9
$SPLINETYPE
 70
     6
  9
$SPLINESEGS
 70
     8
  9
$HANDSEED
  5
4BD
  9
$SURFTAB1
 70
     6
  9
$SURFTAB2
 70
     6
  9
$SURFTYPE
 70
     6
  9
$SURFU
 70
     6
  9
$SURFV
 70
     6
  9
$UCSBASE
  2

  9
$UCSNAME
  2

  9
$UCSORG
 10
0.0
 20
0.0
 30
0.0
  9
$UCSXDIR
 10
1.0
 20
0.0
 30
0.0
  9
$UCSYDIR
 10
0.0
 20
1.0
 30
0.0
  9
$UCSORTHOREF
  2

  9
$UCSORTHOVIEW
 70
     0
  9
$UCSORGTOP
 10
0.0
 20
0.0
 30
0.0
  9
$UCSORGBOTTOM
 10
0.0
 20
0.0
 30
0.0
  9
$UCSORGLEFT
 10
0.0
 20
0.0
 30
0.0
  9
$UCSORGRIGHT
 10
0.0
 20
0.0
 30
0.0
  9
$UCSORGFRONT
 10
0.0
 20
0.0
 30
0.0
  9
$UCSORGBACK
 10
0.0
 20
0.0
 30
0.0
  9
$PUCSBASE
  2

  9
$PUCSNAME
  2

  9
$PUCSORG
 10
0.0
 20
0.0
 30
0.0
  9
$PUCSXDIR
 10
1.0
 20
0.0
 30
0.0
  9
$PUCSYDIR
 10
0.0
 20
1.0
 30
0.0
  9
$PUCSORTHOREF
  2

  9
$PUCSORTHOVIEW
 70
     0
  9
$PUCSORGTOP
 10
0.0
 20
0.0
 30
0.0
  9
$PUCSORGBOTTOM
 10
0.0
 20
0.0
 30
0.0
  9
$PUCSORGLEFT
 10
0.0
 20
0.0
 30
0.0
  9
$PUCSORGRIGHT
 10
0.0
 20
0.0
 30
0.0
  9
$PUCSORGFRONT
 10
0.0
 20
0.0
 30
0.0
  9
$PUCSORGBACK
 10
0.0
 20
0.0
 30
0.0
  9
$USERI1
 70
     0
  9
$USERI2
 70
     0
  9
$USERI3
 70
     0
  9
$USERI4
 70
     0
  9
$USERI5
 70
     0
  9
$USERR1
 40
0.0
  9
$USERR2
 40
0.0
  9
$USERR3
 40
0.0
  9
$USERR4
 40
0.0
  9
$USERR5
 40
0.0
  9
$WORLDVIEW
 70
     1
  9
$SHADEDGE
 70
     3
  9
$SHADEDIF
 70
    70
  9
$TILEMODE
 70
     1
  9
$MAXACTVP
 70
    64
  9
$PINSBASE
 10
0.0
 20
0.0
 30
0.0
  9
$PLIMCHECK
 70
     0
  9
$PEXTMIN
 10
1.0000000000E+20
 20
1.0000000000E+20
 30
1.0000000000E+20
  9
$PEXTMAX
 10
-1.0000000000E+20
 20
-1.0000000000E+20
 30
-1.0000000000E+20
  9
$PLIMMIN
 10
0.0
 20
0.0
  9
$PLIMMAX
 10
420.0
 20
297.0
  9
$UNITMODE
 70
     0
  9
$VISRETAIN
 70
     1
  9
$PLINEGEN
 70
     0
  9
$PSLTSCALE
 70
     1
  9
$TREEDEPTH
 70
  3020
  9
$CMLSTYLE
  2
Standard
  9
$CMLJUST
 70
     0
  9
$CMLSCALE
 40
20.0
  9
$PROXYGRAPHICS
 70
     1
  9
$MEASUREMENT
 70
     1
  9
$CELWEIGHT
370
    -1
  9
$ENDCAPS
280
     0
  9
$JOINSTYLE
280
     0
  9
$LWDISPLAY
290
     1
  9
$INSUNITS
 70
     4
  9
$HYPERLINKBASE
  1

  9
$STYLESHEET
  1

  9
$XEDIT
290
     1
  9
$CEPSNTYPE
380
     0
  9
$PSTYLEMODE
290
     1
  9
$FINGERPRINTGUID
  2
{E03A4E4D-D05F-4A85-BE6D-480957DFAFDD}
  9
$VERSIONGUID
  2
{FAEB1C32-E019-11D5-929B-00C0DF256EC4}
  9
$EXTNAMES
290
     1
  9
$PSVPSCALE
 40
0.0
  9
$OLESTARTUP
290
     0
  0
ENDSEC
  0
SECTION
  2
CLASSES
  0
CLASS
  1
ACDBDICTIONARYWDFLT
  2
AcDbDictionaryWithDefault
  3
ObjectDBX Classes
 90
        0
280
     0
281
     0
  0
CLASS
  1
VISUALSTYLE
  2
AcDbVisualStyle
  3
ObjectDBX Classes
 90
     4095
280
     0
281
     0
  0
CLASS
  1
MATERIAL
  2
AcDbMaterial
  3
ObjectDBX Classes
 90
     1153
280
     0
281
     0
  0
CLASS
  1
ACDBPLACEHOLDER
  2
AcDbPlaceHolder
  3
ObjectDBX Classes
 90
        0
280
     0
281
     0
  0
CLASS
  1
LAYOUT
  2
AcDbLayout
  3
ObjectDBX Classes
 90
        0
280
     0
281
     0
  0
ENDSEC
  0
SECTION
  2
TABLES
  0
TABLE
  2
VPORT
  5
8
330
0
100
AcDbSymbolTable
 70
     1
  0
VPORT
  5
29
330
8
100
AcDbSymbolTableRecord
100
AcDbViewportTableRecord
  2
*Active
 70
     0
 10
0.0
 20
0.0
 11
1.0
 21
1.0
 12
148.5
 22
105.0
 13
0.0
 23
0.0
 14
10.0
 24
10.0
 15
10.0
 25
10.0
 16
0.0
 26
0.0
 36
1.0
 17
0.0
 27
0.0
 37
0.0
 40
210.0
 41
1.4142857143
 42
50.0
 43
0.0
 44
0.0
 50
0.0
 51
0.0
 71
     0
 72
  2000
 73
     1
 74
     3
 75
     0
 76
     0
 77
     0
 78
     0
281
     0
 65
     1
110
0.0
120
0.0
130
0.0
111
1.0
121
0.0
131
0.0
112
0.0
122
1.0
132
0.0
 79
     0
146
0.0
  0
ENDTAB
  0
TABLE
  2
LTYPE
  5
5
330
0
100
AcDbSymbolTable
 70
     8
  0
LTYPE
  5
14
330
5
100
AcDbSymbolTableRecord
100
AcDbLinetypeTableRecord
  2
ByBlock
 70
     0
  3

 72
    65
 73
     0
 40
0.0
  0
LTYPE
  5
15
330
5
100
AcDbSymbolTableRecord
100
AcDbLinetypeTableRecord
  2
ByLayer
 70
     0
  3

 72
    65
 73
     0
 40
0.0
  0
LTYPE
  5
16
330
5
100
AcDbSymbolTableRecord
100
AcDbLinetypeTableRecord
  2
Continuous
 70
     0
  3
Solid line
 72
    65
 73
     0
 40
0.0
  0
LTYPE
  5
3F
330
5
100
AcDbSymbolTableRecord
100
AcDbLinetypeTableRecord
  2
SLD-Durchgehend
 70
     0
  3
SolidWorks Line Style
 72
    65
 73
     0
 40
0.0
  0
LTYPE
  5
40
330
5
100
AcDbSymbolTableRecord
100
AcDbLinetypeTableRecord
  2
SLD-Gestrichelt
 70
     0
  3
SolidWorks Line Style
 72
    65
 73
     2
 40
1.905
 49
1.27
 74
     0
 49
-0.635
 74
     0
  0
LTYPE
  5
41
330
5
100
AcDbSymbolTableRecord
100
AcDbLinetypeTableRecord
  2
SLD-Phantom
 70
     0
  3
SolidWorks Line Style
 72
    65
 73
     6
 40
12.7
 49
6.35
 74
     0
 49
-1.27
 74
     0
 49
1.27
 74
     0
 49
-1.27
 74
     0
 49
1.27
 74
     0
 49
-1.27
 74
     0
  0
LTYPE
  5
42
330
5
100
AcDbSymbolTableRecord
100
AcDbLinetypeTableRecord
  2
SLD-Kette
 70
     0
  3
SolidWorks Line Style
 72
    65
 73
     4
 40
10.16
 49
6.35
 74
     0
 49
-1.27
 74
     0
 49
1.27
 74
     0
 49
-1.27
 74
     0
  0
LTYPE
  5
43
330
5
100
AcDbSymbolTableRecord
100
AcDbLinetypeTableRecord
  2
SLD-Punktstrich
 70
     0
  3
SolidWorks Line Style
 72
    65
 73
     4
 40
19.05
 49
15.24
 74
     0
 49
-1.27
 74
     0
 49
1.27
 74
     0
 49
-1.27
 74
     0
  0
LTYPE
  5
44
330
5
100
AcDbSymbolTableRecord
100
AcDbLinetypeTableRecord
  2
SLD-Naht
 70
     0
  3
SolidWorks Line Style
 72
    65
 73
     2
 40
0.635
 49
0.0
 74
     0
 49
-0.635
 74
     0
  0
LTYPE
  5
45
330
5
100
AcDbSymbolTableRecord
100
AcDbLinetypeTableRecord
  2
SLD-Dicke-Dünne-Kette
 70
     0
  3
SolidWorks Line Style
 72
    65
 73
     4
 40
10.16
 49
6.35
 74
     0
 49
-1.27
 74
     0
 49
1.27
 74
     0
 49
-1.27
 74
     0
  0
ENDTAB
  0
TABLE
  2
LAYER
  5
2
330
0
100
AcDbSymbolTable
 70
     5
  0
LAYER
  5
10
330
2
100
AcDbSymbolTableRecord
100
AcDbLayerTableRecord
  2
0
 70
     0
 62
     7
  6
Continuous
370
    -3
390
F
  0
LAYER
  5
46
330
2
100
AcDbSymbolTableRecord
100
AcDbLayerTableRecord
  2
FORMAT
 70
     0
 62
     7
  6
SLD-Durchgehend
370
    -3
390
F
  0
LAYER
  5
47
330
2
100
AcDbSymbolTableRecord
100
AcDbLayerTableRecord
  2
VERMASSUNG
 70
     0
 62
     7
  6
SLD-Durchgehend
370
    -3
390
F
  0
LAYER
  5
48
330
2
100
AcDbSymbolTableRecord
100
AcDbLayerTableRecord
  2
KOPF_DÜNN
 70
     0
 62
     7
  6
SLD-Durchgehend
370
    -3
390
F
  0
LAYER
  5
49
330
2
100
AcDbSymbolTableRecord
100
AcDbLayerTableRecord
  2
KOPF_DICK
 70
     0
 62
     7
  6
SLD-Durchgehend
370
    15
390
F
  0
ENDTAB
  0
TABLE
  2
STYLE
  5
3
330
0
100
AcDbSymbolTable
 70
     2
  0
STYLE
  5
11
330
3
100
AcDbSymbolTableRecord
100
AcDbTextStyleTableRecord
  2
STANDARD
 70
     0
 40
0.0
 41
1.0
 50
0.0
 71
     0
 42
2.0
  3
ISOCPEUR.TTF
  4

1001
ACAD
1000
ISOCPEUR
1071
       34
  0
STYLE
  5
4A
330
3
100
AcDbSymbolTableRecord
100
AcDbTextStyleTableRecord
  2
SLDTEXTSTYLE0
 70
     0
 40
0.0
 41
1.0
 50
0.0
 71
     0
 42
0.2
  3
ISOCPEUR.TTF
  4

1001
ACAD
1000
ISOCPEUR
1071
      290
  0
ENDTAB
  0
TABLE
  2
VIEW
  5
6
330
0
100
AcDbSymbolTable
 70
     0
  0
ENDTAB
  0
TABLE
  2
UCS
  5
7
330
0
100
AcDbSymbolTable
 70
     0
  0
ENDTAB
  0
TABLE
  2
APPID
  5
9
330
0
100
AcDbSymbolTable
 70
     1
  0
APPID
  5
12
330
9
100
AcDbSymbolTableRecord
100
AcDbRegAppTableRecord
  2
ACAD
 70
     0
  0
ENDTAB
  0
TABLE
  2
DIMSTYLE
  5
A
330
0
100
AcDbSymbolTable
 70
     4
100
AcDbDimStyleTable
  0
DIMSTYLE
105
27
330
A
100
AcDbSymbolTableRecord
100
AcDbDimStyleTableRecord
  2
ISO-25
 70
     0
 41
2.5
 42
0.625
 43
3.75
 44
1.25
 73
     0
 74
     0
 77
     1
 78
     8
140
2.5
141
2.5
143
0.0393700787
147
0.625
171
     3
172
     1
178
     0
271
     2
272
     2
274
     3
278
    44
283
     0
284
     8
340
11
  0
DIMSTYLE
105
2A6
102
{ACAD_REACTORS
330
2A5
330
2B0
330
2BA
330
2DC
102
}
330
A
100
AcDbSymbolTableRecord
100
AcDbDimStyleTableRecord
  2
SLDDIMSTYLE0
 70
     0
 41
3.0
 44
0.0
 45
0.000000001
 73
     0
 74
     0
 77
     1
 78
    12
 79
     3
140
2.0
147
0.5
173
     1
178
     0
271
     2
272
     3
276
     2
284
    12
340
4A
  0
DIMSTYLE
105
2C7
102
{ACAD_REACTORS
330
2C6
102
}
330
A
100
AcDbSymbolTableRecord
100
AcDbDimStyleTableRecord
  2
SLDDIMSTYLE1
 70
     0
 41
3.0
 44
0.0
 45
0.000000001
 73
     0
 74
     0
 77
     1
 78
    12
 79
     3
140
2.0
147
0.5
172
     1
173
     1
178
     0
271
     2
272
     3
276
     2
284
    12
289
     0
340
4A
  0
DIMSTYLE
105
2D5
102
{ACAD_REACTORS
330
2D4
102
}
330
A
100
AcDbSymbolTableRecord
100
AcDbDimStyleTableRecord
  2
SLDDIMSTYLE2
 70
     0
 41
3.0
 44
0.0
 45
0.000000001
 73
     0
 74
     0
 77
     1
 78
    12
 79
     3
140
2.0
141
0.0
147
0.5
173
     1
178
     0
271
     2
272
     3
276
     2
279
     1
284
    12
340
4A
  0
ENDTAB
  0
TABLE
  2
BLOCK_RECORD
  5
1
330
0
100
AcDbSymbolTable
 70
     8
  0
BLOCK_RECORD
  5
1F
330
1
100
AcDbSymbolTableRecord
100
AcDbBlockTableRecord
  2
*Model_Space
340
22
  0
BLOCK_RECORD
  5
1B
330
1
100
AcDbSymbolTableRecord
100
AcDbBlockTableRecord
  2
*Paper_Space
340
1E
  0
BLOCK_RECORD
  5
23
330
1
100
AcDbSymbolTableRecord
100
AcDbBlockTableRecord
  2
*Paper_Space0
340
26
  0
BLOCK_RECORD
  5
2A7
330
1
100
AcDbSymbolTableRecord
100
AcDbBlockTableRecord
  2
_D
340
0
  0
BLOCK_RECORD
  5
2B1
330
1
100
AcDbSymbolTableRecord
100
AcDbBlockTableRecord
  2
_D_1
340
0
  0
BLOCK_RECORD
  5
2BB
330
1
100
AcDbSymbolTableRecord
100
AcDbBlockTableRecord
  2
_D_2
340
0
  0
BLOCK_RECORD
  5
2C8
330
1
100
AcDbSymbolTableRecord
100
AcDbBlockTableRecord
  2
_D_3
340
0
  0
BLOCK_RECORD
  5
2D6
330
1
100
AcDbSymbolTableRecord
100
AcDbBlockTableRecord
  2
_D_4
340
0
  0
BLOCK_RECORD
  5
2DD
330
1
100
AcDbSymbolTableRecord
100
AcDbBlockTableRecord
  2
_D_5
340
0
  0
BLOCK_RECORD
  5
4B0
330
1
100
AcDbSymbolTableRecord
100
AcDbBlockTableRecord
  2
SW_CENTERMARKSYMBOL_0
340
0
102
{BLKREFS
331
4BB
102
}
  0
ENDTAB
  0
ENDSEC
  0
SECTION
  2
BLOCKS
  0
BLOCK
  5
20
330
1F
100
AcDbEntity
  8
0
100
AcDbBlockBegin
  2
*Model_Space
 70
     0
 10
0.0
 20
0.0
 30
0.0
  3
*Model_Space
  1

  0
ENDBLK
  5
21
330
1F
100
AcDbEntity
  8
0
100
AcDbBlockEnd
  0
BLOCK
  5
1C
330
1B
100
AcDbEntity
 67
     1
  8
0
100
AcDbBlockBegin
  2
*Paper_Space
 70
     0
 10
0.0
 20
0.0
 30
0.0
  3
*Paper_Space
  1

  0
ENDBLK
  5
1D
330
1B
100
AcDbEntity
 67
     1
  8
0
100
AcDbBlockEnd
  0
BLOCK
  5
24
330
23
100
AcDbEntity
  8
0
100
AcDbBlockBegin
  2
*Paper_Space0
 70
     0
 10
0.0
 20
0.0
 30
0.0
  3
*Paper_Space0
  1

  0
ENDBLK
  5
25
330
23
100
AcDbEntity
  8
0
100
AcDbBlockEnd
  0
BLOCK
  5
2A8
330
2A7
100
AcDbEntity
  8
0
100
AcDbBlockBegin
  2
_D
 70
     0
 10
0.0
 20
0.0
 30
0.0
  3
_D
  1

  0
SOLID
  5
2AA
330
2A7
100
AcDbEntity
  8
VERMASSUNG
100
AcDbTrace
 10
147.1334873816
 20
154.8132731108
 30
0.0
 11
150.1334873816
 21
154.3632731108
 31
0.0
 12
150.1334873816
 22
155.2632731108
 32
0.0
 13
150.1334873816
 23
155.2632731108
 33
0.0
  0
SOLID
  5
2AB
330
2A7
100
AcDbEntity
  8
VERMASSUNG
100
AcDbTrace
 10
287.1334873816
 20
154.8132731108
 30
0.0
 11
284.1334873816
 21
155.2632731108
 31
0.0
 12
284.1334873816
 22
154.3632731108
 32
0.0
 13
284.1334873816
 23
154.3632731108
 33
0.0
  0
LINE
  5
2AC
330
2A7
100
AcDbEntity
  8
VERMASSUNG
100
AcDbLine
 10
147.1334873816
 20
141.3119056757
 30
0.0
 11
147.1334873816
 21
155.8132731108
 31
0.0
  0
LINE
  5
2AD
330
2A7
100
AcDbEntity
  8
VERMASSUNG
100
AcDbLine
 10
287.1334873816
 20
133.2573544001
 30
0.0
 11
287.1334873816
 21
155.8132731108
 31
0.0
  0
LINE
  5
2AE
330
2A7
100
AcDbEntity
  8
VERMASSUNG
100
AcDbLine
 10
147.1334873816
 20
154.8132731108
 30
0.0
 11
287.1334873816
 21
154.8132731108
 31
0.0
  0
MTEXT
  5
2AF
330
2A7
100
AcDbEntity
  8
VERMASSUNG
100
AcDbMText
 10
214.2334871856
 20
157.4132729943
 30
0.1
 40
2.0
 41
0.0
 71
     1
 72
     1
  1
140
  7
SLDTEXTSTYLE0
 73
     1
 44
1.0
  0
ENDBLK
  5
2A9
330
2A7
100
AcDbEntity
  8
0
100
AcDbBlockEnd
  0
BLOCK
  5
2B2
330
2B1
100
AcDbEntity
  8
0
100
AcDbBlockBegin
  2
_D_1
 70
     0
 10
0.0
 20
0.0
 30
0.0
  3
_D_1
  1

  0
SOLID
  5
2B4
330
2B1
100
AcDbEntity
  8
VERMASSUNG
100
AcDbTrace
 10
147.1334873816
 20
148.5269326729
 30
0.0
 11
150.1334873816
 21
148.0769326729
 31
0.0
 12
150.1334873816
 22
148.9769326729
 32
0.0
 13
150.1334873816
 23
148.9769326729
 33
0.0
  0
SOLID
  5
2B5
330
2B1
100
AcDbEntity
  8
VERMASSUNG
100
AcDbTrace
 10
247.1334873816
 20
148.5269326729
 30
0.0
 11
244.1334873816
 21
148.9769326729
 31
0.0
 12
244.1334873816
 22
148.0769326729
 32
0.0
 13
244.1334873816
 23
148.0769326729
 33
0.0
  0
LINE
  5
2B6
330
2B1
100
AcDbEntity
  8
VERMASSUNG
100
AcDbLine
 10
147.1334873816
 20
141.3119056757
 30
0.0
 11
147.1334873816
 21
149.5269326729
 31
0.0
  0
LINE
  5
2B7
330
2B1
100
AcDbEntity
  8
VERMASSUNG
100
AcDbLine
 10
247.1334873816
 20
127.5828204333
 30
0.0
 11
247.1334873816
 21
149.5269326729
 31
0.0
  0
LINE
  5
2B8
330
2B1
100
AcDbEntity
  8
VERMASSUNG
100
AcDbLine
 10
147.1334873816
 20
148.5269326729
 30
0.0
 11
247.1334873816
 21
148.5269326729
 31
0.0
  0
MTEXT
  5
2B9
330
2B1
100
AcDbEntity
  8
VERMASSUNG
100
AcDbMText
 10
194.3334872486
 20
151.1269325565
 30
0.1
 40
2.0
 41
0.0
 71
     1
 72
     1
  1
100
  7
SLDTEXTSTYLE0
 73
     1
 44
1.0
  0
ENDBLK
  5
2B3
330
2B1
100
AcDbEntity
  8
0
100
AcDbBlockEnd
  0
BLOCK
  5
2BC
330
2BB
100
AcDbEntity
  8
0
100
AcDbBlockBegin
  2
_D_2
 70
     0
 10
0.0
 20
0.0
 30
0.0
  3
_D_2
  1

  0
SOLID
  5
2BE
330
2BB
100
AcDbEntity
  8
VERMASSUNG
100
AcDbTrace
 10
102.350139227
 20
141.8119056757
 30
0.0
 11
101.900139227
 21
138.8119056757
 31
0.0
 12
102.800139227
 22
138.8119056757
 32
0.0
 13
102.800139227
 23
138.8119056757
 33
0.0
  0
SOLID
  5
2BF
330
2BB
100
AcDbEntity
  8
VERMASSUNG
100
AcDbTrace
 10
102.350139227
 20
78.8119056757
 30
0.0
 11
102.800139227
 21
81.8119056757
 31
0.0
 12
101.900139227
 22
81.8119056757
 32
0.0
 13
101.900139227
 23
81.8119056757
 33
0.0
  0
LINE
  5
2C0
330
2BB
100
AcDbEntity
  8
VERMASSUNG
100
AcDbLine
 10
147.6334873816
 20
141.8119056757
 30
0.0
 11
101.350139227
 21
141.8119056757
 31
0.0
  0
LINE
  5
2C1
330
2BB
100
AcDbEntity
  8
VERMASSUNG
100
AcDbLine
 10
147.6334873816
 20
78.8119056757
 30
0.0
 11
101.350139227
 21
78.8119056757
 31
0.0
  0
LINE
  5
2C2
330
2BB
100
AcDbEntity
  8
VERMASSUNG
100
AcDbLine
 10
102.350139227
 20
141.8119056757
 30
0.0
 11
102.350139227
 21
78.8119056757
 31
0.0
  0
MTEXT
  5
2C3
330
2BB
100
AcDbEntity
  8
VERMASSUNG
100
AcDbMText
 10
99.5501392175
 20
103.9069055665
 30
0.1
 40
2.0
 41
0.0
 71
     1
 72
     1
  1
PSC
  7
SLDTEXTSTYLE0
 11
-7.044195017643634E-15
 21
1.0
 31
0.0
 73
     1
 44
1.0
  0
MTEXT
  5
2C4
330
2BB
100
AcDbEntity
  8
VERMASSUNG
100
AcDbMText
 10
99.750139227
 20
108.5069056686
 30
0.1
 40
2.0
 41
0.0
 71
     1
 72
     1
  1
%%c
  7
SLDTEXTSTYLE0
 11
-7.044195017643634E-15
 21
1.0
 31
0.0
 73
     1
 44
1.0
  0
MTEXT
  5
2C5
330
2BB
100
AcDbEntity
  8
VERMASSUNG
100
AcDbMText
 10
99.5501392175
 20
112.1169061485
 30
0.1
 40
2.0
 41
0.0
 71
     1
 72
     1
  1
63
  7
SLDTEXTSTYLE0
 11
-7.044195017643634E-15
 21
1.0
 31
0.0
 73
     1
 44
1.0
  0
ENDBLK
  5
2BD
330
2BB
100
AcDbEntity
  8
0
100
AcDbBlockEnd
  0
BLOCK
  5
2C9
330
2C8
100
AcDbEntity
  8
0
100
AcDbBlockBegin
  2
_D_3
 70
     0
 10
0.0
 20
0.0
 30
0.0
  3
_D_3
  1

  0
SOLID
  5
2CB
330
2C8
100
AcDbEntity
  8
VERMASSUNG
100
AcDbTrace
 10
224.2981707475
 20
123.2114006123
 30
0.0
 11
224.7481707475
 21
126.2114006123
 31
0.0
 12
223.8481707475
 22
126.2114006123
 32
0.0
 13
223.8481707475
 23
126.2114006123
 33
0.0
  0
SOLID
  5
2CC
330
2C8
100
AcDbEntity
  8
VERMASSUNG
100
AcDbTrace
 10
224.2981707475
 20
117.2114006123
 30
0.0
 11
223.8481707475
 21
114.2114006123
 31
0.0
 12
224.7481707475
 22
114.2114006123
 32
0.0
 13
224.7481707475
 23
114.2114006123
 33
0.0
  0
LINE
  5
2CD
330
2C8
100
AcDbEntity
  8
VERMASSUNG
100
AcDbLine
 10
237.0879873816
 20
123.2114006123
 30
0.0
 11
223.2981707475
 21
123.2114006123
 31
0.0
  0
LINE
  5
2CE
330
2C8
100
AcDbEntity
  8
VERMASSUNG
100
AcDbLine
 10
237.0879873816
 20
117.2114006123
 30
0.0
 11
223.2981707475
 21
117.2114006123
 31
0.0
  0
LINE
  5
2CF
330
2C8
100
AcDbEntity
  8
VERMASSUNG
100
AcDbLine
 10
224.2981707475
 20
123.2114006123
 30
0.0
 11
224.2981707475
 21
136.8305308696
 31
0.0
  0
LINE
  5
2D0
330
2C8
100
AcDbEntity
  8
VERMASSUNG
100
AcDbLine
 10
224.2981707475
 20
123.2114006123
 30
0.0
 11
224.2981707475
 21
117.2114006123
 31
0.0
  0
LINE
  5
2D1
330
2C8
100
AcDbEntity
  8
VERMASSUNG
100
AcDbLine
 10
224.2981707475
 20
117.2114006123
 30
0.0
 11
224.2981707475
 21
111.2114006123
 31
0.0
  0
MTEXT
  5
2D2
330
2C8
100
AcDbEntity
  8
VERMASSUNG
100
AcDbMText
 10
221.6981708639
 20
131.8305305157
 30
0.1
 40
2.0
 41
0.0
 71
     1
 72
     1
  1
M
  7
SLDTEXTSTYLE0
 11
-7.044195017643634E-15
 21
1.0
 31
0.0
 73
     1
 44
1.0
  0
MTEXT
  5
2D3
330
2C8
100
AcDbEntity
  8
VERMASSUNG
100
AcDbMText
 10
221.6981708639
 20
133.6305306012
 30
0.1
 40
2.0
 41
0.0
 71
     1
 72
     1
  1
6
  7
SLDTEXTSTYLE0
 11
-7.044195017643634E-15
 21
1.0
 31
0.0
 73
     1
 44
1.0
  0
ENDBLK
  5
2CA
330
2C8
100
AcDbEntity
  8
0
100
AcDbBlockEnd
  0
BLOCK
  5
2D7
330
2D6
100
AcDbEntity
  8
0
100
AcDbBlockBegin
  2
_D_4
 70
     0
 10
0.0
 20
0.0
 30
0.0
  3
_D_4
  1

  0
SOLID
  5
2D9
330
2D6
100
AcDbEntity
  8
VERMASSUNG
100
AcDbTrace
 10
170.9582960045
 20
130.9550406988
 30
0.0
 11
172.9673368472
 21
133.2279804016
 31
0.0
 12
172.2120422274
 22
133.7173984614
 32
0.0
 13
172.2120422274
 23
133.7173984614
 33
0.0
  0
LINE
  5
2DA
330
2D6
100
AcDbEntity
  8
VERMASSUNG
100
AcDbLine
 10
170.9582960045
 20
130.9550406988
 30
0.0
 11
175.5805777769
 21
138.0883789233
 31
0.0
  0
MTEXT
  5
2DB
330
2D6
100
AcDbEntity
  8
VERMASSUNG
100
AcDbMText
 10
170.6796262259
 20
135.3061717368
 30
0.1
 40
2.0
 41
0.0
 71
     1
 72
     1
  1
R4
  7
SLDTEXTSTYLE0
 11
0.5437978442544023
 21
0.8392162442328347
 31
0.0
 73
     1
 44
1.0
  0
ENDBLK
  5
2D8
330
2D6
100
AcDbEntity
  8
0
100
AcDbBlockEnd
  0
BLOCK
  5
2DE
330
2DD
100
AcDbEntity
  8
0
100
AcDbBlockBegin
  2
_D_5
 70
     0
 10
0.0
 20
0.0
 30
0.0
  3
_D_5
  1

  0
SOLID
  5
2E0
330
2DD
100
AcDbEntity
  8
VERMASSUNG
100
AcDbTrace
 10
198.5719768394
 20
130.3119056757
 30
0.0
 11
198.1219768394
 21
127.3119056757
 31
0.0
 12
199.0219768394
 22
127.3119056757
 32
0.0
 13
199.0219768394
 23
127.3119056757
 33
0.0
  0
SOLID
  5
2E1
330
2DD
100
AcDbEntity
  8
VERMASSUNG
100
AcDbTrace
 10
198.5719768394
 20
90.3119056757
 30
0.0
 11
199.0219768394
 21
93.3119056757
 31
0.0
 12
198.1219768394
 22
93.3119056757
 32
0.0
 13
198.1219768394
 23
93.3119056757
 33
0.0
  0
LINE
  5
2E2
330
2DD
100
AcDbEntity
  8
VERMASSUNG
100
AcDbLine
 10
198.5719768394
 20
130.3119056757
 30
0.0
 11
198.5719768394
 21
90.3119056757
 31
0.0
  0
MTEXT
  5
2E3
330
2DD
100
AcDbEntity
  8
VERMASSUNG
100
AcDbMText
 10
195.9719768394
 20
95.3091369125
 30
0.1
 40
2.0
 41
0.0
 71
     1
 72
     1
  1
%%c
  7
SLDTEXTSTYLE0
 11
-7.044195017643634E-15
 21
1.0
 31
0.0
 73
     1
 44
1.0
  0
MTEXT
  5
2E4
330
2DD
100
AcDbEntity
  8
VERMASSUNG
100
AcDbMText
 10
195.7719768299
 20
98.9191369268
 30
0.1
 40
2.0
 41
0.0
 71
     1
 72
     1
  1
40
  7
SLDTEXTSTYLE0
 11
-7.044195017643634E-15
 21
1.0
 31
0.0
 73
     1
 44
1.0
  0
ENDBLK
  5
2DF
330
2DD
100
AcDbEntity
  8
0
100
AcDbBlockEnd
  0
BLOCK
  5
4B1
330
4B0
100
AcDbEntity
  8
0
100
AcDbBlockBegin
  2
SW_CENTERMARKSYMBOL_0
 70
     0
 10
0.0
 20
0.0
 30
0.0
  3
SW_CENTERMARKSYMBOL_0
  1

  0
LINE
  5
4B3
330
4B0
100
AcDbEntity
  8
VERMASSUNG
 62
     0
100
AcDbLine
 10
0.0
 20
0.0
 30
0.0
 11
0.0
 21
2.5
 31
0.0
  0
LINE
  5
4B4
330
4B0
100
AcDbEntity
  8
VERMASSUNG
 62
     0
100
AcDbLine
 10
0.0
 20
0.0
 30
0.0
 11
-2.5
 21
0.0
 31
0.0
  0
LINE
  5
4B5
330
4B0
100
AcDbEntity
  8
VERMASSUNG
 62
     0
100
AcDbLine
 10
0.0
 20
0.0
 30
0.0
 11
0.0
 21
-2.5
 31
0.0
  0
LINE
  5
4B6
330
4B0
100
AcDbEntity
  8
VERMASSUNG
 62
     0
100
AcDbLine
 10
0.0
 20
0.0
 30
0.0
 11
2.5
 21
0.0
 31
0.0
  0
LINE
  5
4B7
330
4B0
100
AcDbEntity
  8
VERMASSUNG
 62
     0
100
AcDbLine
 10
0.0
 20
5.0
 30
0.0
 11
0.0
 21
34.0
 31
0.0
  0
LINE
  5
4B8
330
4B0
100
AcDbEntity
  8
VERMASSUNG
 62
     0
100
AcDbLine
 10
-5.0
 20
0.0
 30
0.0
 11
-34.0
 21
0.0
 31
0.0
  0
LINE
  5
4B9
330
4B0
100
AcDbEntity
  8
VERMASSUNG
 62
     0
100
AcDbLine
 10
0.0
 20
-5.0
 30
0.0
 11
0.0
 21
-34.0
 31
0.0
  0
LINE
  5
4BA
330
4B0
100
AcDbEntity
  8
VERMASSUNG
 62
     0
100
AcDbLine
 10
5.0
 20
0.0
 30
0.0
 11
34.0
 21
0.0
 31
0.0
  0
ENDBLK
  5
4B2
330
4B0
100
AcDbEntity
  8
0
100
AcDbBlockEnd
  0
ENDSEC
  0
SECTION
  2
ENTITIES
  0
MTEXT
  5
4B
330
1F
100
AcDbEntity
  8
KOPF_DÜNN
100
AcDbMText
 10
13.8892156294
 20
23.8770940835
 30
0.0
 40
3.0
 41
0.0
 71
     1
 72
     1
  1
PS6.WK1.040.140
  7
SLDTEXTSTYLE0
 73
     1
 44
1.0
  0
MTEXT
  5
4C
330
1F
100
AcDbEntity
  8
VERMASSUNG
100
AcDbMText
 10
13.9329988022
 20
28.9162328764
 30
0.0
 40
3.0
 41
0.0
 71
     1
 72
     1
  1
Grundkörper ø40
  7
SLDTEXTSTYLE0
 73
     1
 44
1.0
  0
MTEXT
  5
4D
330
1F
100
AcDbEntity
  8
VERMASSUNG
100
AcDbMText
 10
98.8601118557
 20
13.8584013384
 30
0.0
 40
2.0
 41
0.0
 71
     1
 72
     1
  1
Datum: 22.05.2014
  7
SLDTEXTSTYLE0
 73
     1
 44
1.0
  0
MTEXT
  5
4E
330
1F
100
AcDbEntity
  8
VERMASSUNG
100
AcDbMText
 10
13.933048693
 20
18.0701447943
 30
0.0
 40
2.0
 41
0.0
 71
     1
 72
     1
  1
PSC ø63 / Wechselkopf-Bohrstange
  7
SLDTEXTSTYLE0
 73
     1
 44
1.0
  0
MTEXT
  5
4F
330
1F
100
AcDbEntity
  8
VERMASSUNG
100
AcDbMText
 10
13.9808475933
 20
13.9309618897
 30
0.0
 40
2.0
 41
0.0
 71
     1
 72
     1
  1
Gewicht: 1504g
  7
SLDTEXTSTYLE0
 73
     1
 44
1.0
  0
ARC
  5
50
330
1F
100
AcDbEntity
  8
0
  6
SLD-Durchgehend
 62
     7
370
    15
100
AcDbCircle
 10
258.2334873816
 20
105.1124107391
 30
0.0
 40
0.3000000000000682
100
AcDbArc
 50
0.0
 51
90.0
  0
ARC
  5
51
330
1F
100
AcDbEntity
  8
0
  6
SLD-Durchgehend
 62
     7
370
    15
100
AcDbCircle
 10
258.2334873816
 20
95.7124107391
 30
0.0
 40
0.3000000000000682
100
AcDbArc
 50
270.0
 51
0.0
  0
LINE
  5
52
330
1F
100
AcDbEntity
  8
0
  6
SLD-Durchgehend
 62
     7
370
    15
100
AcDbLine
 10
258.2334905048
 20
105.4124108601
 30
0.0
 11
252.5334908744
 21
105.4124108601
 31
0.0
  0
LINE
  5
53
330
1F
100
AcDbEntity
  8
0
  6
SLD-Durchgehend
 62
     7
370
    15
100
AcDbLine
 10
252.5334908744
 20
95.4124106179
 30
0.0
 11
258.2334905048
 21
95.4124106179
 31
0.0
  0
ARC
  5
54
330
1F
100
AcDbEntity
  8
0
  6
SLD-Durchgehend
 62
     7
370
    15
100
AcDbCircle
 10
252.2834873816
 20
97.1624107391
 30
0.0
 40
0.2500000000000284
100
AcDbArc
 50
0.0
 51
90.0
  0
ARC
  5
55
330
1F
100
AcDbEntity
  8
0
  6
SLD-Durchgehend
 62
     7
370
    15
100
AcDbCircle
 10
252.2834873816
 20
103.6624107391
 30
0.0
 40
0.2500000000000284
100
AcDbArc
 50
270.0
 51
0.0
  0
LINE
  5
56
330
1F
100
AcDbEntity
  8
0
  6
SLD-Durchgehend
 62
     7
370
    15
100
AcDbLine
 10
252.2834866425
 20
103.4124105323
 30
0.0
 11
247.5235938212
 21
103.4124105323
 31
0.0
  0
LINE
  5
57
330
1F
100
AcDbEntity
  8
0
  6
SLD-Durchgehend
 62
     7
370
    15
100
AcDbLine
 10
247.5235938212
 20
97.4124109458
 30
0.0
 11
252.2834866425
 21
97.4124109458
 31
0.0
  0
ARC
  5
58
330
1F
100
AcDbEntity
  8
0
  6
SLD-Durchgehend
 62
     7
370
    15
100
AcDbCircle
 10
258.2334873816
 20
124.9114006123
 30
0.0
 40
0.3000000000000682
100
AcDbArc
 50
0.0
 51
90.0
  0
ARC
  5
59
330
1F
100
AcDbEntity
  8
0
  6
SLD-Durchgehend
 62
     7
370
    15
100
AcDbCircle
 10
258.2334873816
 20
115.5114006123
 30
0.0
 40
0.3000000000000682
100
AcDbArc
 50
270.0
 51
0.0
  0
LINE
  5
5A
330
1F
100
AcDbEntity
  8
0
  6
SLD-Durchgehend
 62
     7
370
    15
100
AcDbLine
 10
258.2334905048
 20
125.2114007335
 30
0.0
 11
252.5334908744
 21
125.2114007335
 31
0.0
  0
LINE
  5
5B
330
1F
100
AcDbEntity
  8
0
  6
SLD-Durchgehend
 62
     7
370
    15
100
AcDbLine
 10
252.5334908744
 20
115.2114004913
 30
0.0
 11
258.2334905048
 21
115.2114004913
 31
0.0
  0
ARC
  5
5C
330
1F
100
AcDbEntity
  8
0
  6
SLD-Durchgehend
 62
     7
370
    15
100
AcDbCircle
 10
252.2834873816
 20
116.9614006123
 30
0.0
 40
0.2500000000000284
100
AcDbArc
 50
0.0
 51
90.0
  0
ARC
  5
5D
330
1F
100
AcDbEntity
  8
0
  6
SLD-Durchgehend
 62
     7
370
    15
100
AcDbCircle
 10
252.2834873816
 20
123.4614006123
 30
0.0
 40
0.2500000000000284
100
AcDbArc
 50
270.0
 51
0.0
  0
LINE
  5
5E
330
1F
100
AcDbEntity
  8
0
  6
SLD-Durchgehend
 62
     7
370
    15
100
AcDbLine
 10
252.2834866425
 20
123.2114004056
 30
0.0
 11
247.5235938212
 21
123.2114004056
 31
0.0
  0
LINE
  5
5F
330
1F
100
AcDbEntity
  8
0
  6
SLD-Durchgehend
 62
     7
370
    15
100
AcDbLine
 10
247.5235938212
 20
117.2114008192
 30
0.0
 11
252.2834866425
 21
117.2114008192
 31
0.0
  0
ARC
  5
60
330
1F
100
AcDbEntity
  8
0
  6
SLD-Durchgehend
 62
     7
370
    15
100
AcDbCircle
 10
147.6334873816
 20
79.3119056757
 30
0.0
 40
0.5
100
AcDbArc
 50
180.0
 51
270.0
  0
ARC
  5
61
330
1F
100
AcDbEntity
  8
0
  6
SLD-Durchgehend
 62
     7
370
    15
100
AcDbCircle
 10
147.6334873816
 20
141.3119056757
 30
0.0
 40
0.5
100
AcDbArc
 50
90.0
 51
180.0
  0
ARC
  5
62
330
1F
100
AcDbEntity
  8
0
  6
SLD-Durchgehend
 62
     7
370
    15
100
AcDbCircle
 10
168.1334873816
 20
79.8119056757
 30
0.0
 40
1.000000000000014
100
AcDbArc
 50
270.0
 51
0.0
  0
ARC
  5
63
330
1F
100
AcDbEntity
  8
0
  6
SLD-Durchgehend
 62
     7
370
    15
100
AcDbCircle
 10
168.1334873816
 20
140.8119056757
 30
0.0
 40
1.0
100
AcDbArc
 50
0.0
 51
90.0
  0
LINE
  5
64
330
1F
100
AcDbEntity
  8
0
  6
SLD-Durchgehend
 62
     7
370
    15
100
AcDbLine
 10
161.1309611356
 20
78.8119051691
 30
0.0
 11
168.1334870984
 21
78.8119051691
 31
0.0
  0
LINE
  5
65
330
1F
100
AcDbEntity
  8
0
  6
SLD-Durchgehend
 62
     7
370
    15
100
AcDbLine
 10
147.6334874053
 20
78.8119051691
 30
0.0
 11
157.1590193664
 21
78.8119051691
 31
0.0
  0
LINE
  5
66
330
1F
100
AcDbEntity
  8
0
  6
SLD-Durchgehend
 62
     7
370
    15
100
AcDbLine
 10
168.1334870984
 20
141.8119061823
 30
0.0
 11
147.6334874053
 21
141.8119061823
 31
0.0
  0
LWPOLYLINE
  5
67
330
1F
100
AcDbEntity
  8
0
  6
SLD-Durchgehend
 62
     7
370
    15
100
AcDbPolyline
 90
        3
 70
   128
 43
0.0
 10
146.9334873866
 20
87.7720851536
 10
147.0589423218
 20
87.7037838187
 10
147.1334873816
 20
87.6510448839
  0
ARC
  5
68
330
1F
100
AcDbEntity
  8
0
  6
SLD-Durchgehend
 62
     7
370
    15
100
AcDbCircle
 10
146.5192738192
 20
133.7619056757
 30
0.0
 40
1.000000000000008
100
AcDbArc
 50
225.0
 51
307.8947985336
  0
ARC
  5
69
330
1F
100
AcDbEntity
  8
0
  6
SLD-Durchgehend
 62
     7
370
    15
100
AcDbCircle
 10
173.1334873816
 20
86.3119056757
 30
0.0
 40
4.0
100
AcDbArc
 50
90.0
 51
180.0
  0
ARC
  5
6A
330
1F
100
AcDbEntity
  8
0
  6
SLD-Durchgehend
 62
     7
370
    15
100
AcDbCircle
 10
173.1334873816
 20
134.3119056757
 30
0.0
 40
4.000000000000028
100
AcDbArc
 50
180.0
 51
270.0
  0
LINE
  5
6B
330
1F
100
AcDbEntity
  8
0
  6
SLD-Durchgehend
 62
     7
370
    15
100
AcDbLine
 10
246.4334844729
 20
130.3119052287
 30
0.0
 11
173.133487918
 21
130.3119052287
 31
0.0
  0
LINE
  5
6C
330
1F
100
AcDbEntity
  8
0
  6
SLD-Durchgehend
 62
     7
370
    15
100
AcDbLine
 10
173.133487918
 20
90.3119061227
 30
0.0
 11
246.4334844729
 21
90.3119061227
 31
0.0
  0
LINE
  5
6D
330
1F
100
AcDbEntity
  8
0
  6
SLD-Durchgehend
 62
     7
370
    15
100
AcDbLine
 10
246.4334844729
 20
90.3119061227
 30
0.0
 11
246.7686786433
 21
90.6470947053
 31
0.0
  0
LINE
  5
6E
330
1F
100
AcDbEntity
  8
0
  6
SLD-Durchgehend
 62
     7
370
    15
100
AcDbLine
 10
246.7686786433
 20
129.9767166461
 30
0.0
 11
246.4334844729
 21
130.3119052287
 31
0.0
  0
ARC
  5
6F
330
1F
100
AcDbEntity
  8
0
  6
SLD-Durchgehend
 62
     7
370
    15
100
AcDbCircle
 10
145.1334242925
 20
89.68678378
 30
0.0
 40
0.2000000000000066
100
AcDbArc
 50
88.5608333333
 51
178.5608333333
  0
LINE
  5
70
330
1F
100
AcDbEntity
  8
0
  6
SLD-Durchgehend
 62
     7
370
    15
100
AcDbLine
 10
136.0538286274
 20
89.9148944851
 30
0.0
 11
144.9334873935
 21
89.6918073382
 31
0.0
  0
LINE
  5
71
330
1F
100
AcDbEntity
  8
0
  6
SLD-Durchgehend
 62
     7
370
    15
100
AcDbLine
 10
117.4754939159
 20
90.3816472824
 30
0.0
 11
127.4581710925
 21
90.130847701
 31
0.0
  0
ARC
  5
72
330
1F
100
AcDbEntity
  8
0
  6
SLD-Durchgehend
 62
     7
370
    15
100
AcDbCircle
 10
146.7334873816
 20
89.6465846259
 30
0.0
 40
0.2000000000000171
100
AcDbArc
 50
0.0
 51
88.5608333333
  0
LINE
  5
73
330
1F
100
AcDbEntity
  8
0
  6
SLD-Durchgehend
 62
     7
370
    15
100
AcDbLine
 10
145.1384475106
 20
89.8867201145
 30
0.0
 11
146.73851048
 21
89.8465223696
 31
0.0
  0
LINE
  5
74
330
1F
100
AcDbEntity
  8
0
  6
SLD-Durchgehend
 62
     7
370
    15
100
AcDbLine
 10
144.9334873935
 20
133.7320048447
 30
0.0
 11
110.633487918
 21
132.8702688302
 31
0.0
  0
ARC
  5
75
330
1F
100
AcDbEntity
  8
0
  6
SLD-Durchgehend
 62
     7
370
    15
100
AcDbCircle
 10
145.1334242925
 20
133.7370275714
 30
0.0
 40
0.2000000000000066
100
AcDbArc
 50
181.4391666667
 51
271.4391666667
  0
LINE
  5
76
330
1F
100
AcDbEntity
  8
0
  6
SLD-Durchgehend
 62
     7
370
    15
100
AcDbLine
 10
145.3392265714
 20
133.5421342488
 30
0.0
 11
145.1384475106
 21
133.5370902057
 31
0.0
  0
LINE
  5
77
330
1F
100
AcDbEntity
  8
0
  6
SLD-Durchgehend
 62
     7
370
    15
100
AcDbLine
 10
110.633487918
 20
132.8702688302
 30
0.0
 11
109.1334886035
 21
132.004243144
 31
0.0
  0
LINE
  5
78
330
1F
100
AcDbEntity
  8
0
  6
SLD-Durchgehend
 62
     7
370
    15
100
AcDbLine
 10
145.812167076
 20
133.0547992225
 30
0.0
 11
145.3494219925
 21
133.5175436075
 31
0.0
  0
LINE
  5
79
330
1F
100
AcDbEntity
  8
0
  6
SLD-Durchgehend
 62
     7
370
    15
100
AcDbLine
 10
258.5334881326
 20
105.112410904
 30
0.0
 11
258.5334881326
 21
95.7124110396
 31
0.0
  0
LINE
  5
7A
330
1F
100
AcDbEntity
  8
0
  6
SLD-Durchgehend
 62
     7
370
    15
100
AcDbLine
 10
252.5334908744
 20
105.4124108601
 30
0.0
 11
252.5334908744
 21
95.4124106179
 31
0.0
  0
LINE
  5
7B
330
1F
100
AcDbEntity
  8
0
  6
SLD-Durchgehend
 62
     7
370
    15
100
AcDbLine
 10
258.5334881326
 20
118.4490759011
 30
0.0
 11
258.5334881326
 21
115.5114004474
 31
0.0
  0
LINE
  5
7C
330
1F
100
AcDbEntity
  8
0
  6
SLD-Durchgehend
 62
     7
370
    15
100
AcDbLine
 10
258.5334881326
 20
124.9114003118
 30
0.0
 11
258.5334881326
 21
118.4490759011
 31
0.0
  0
LINE
  5
7D
330
1F
100
AcDbEntity
  8
0
  6
SLD-Durchgehend
 62
     7
370
    15
100
AcDbLine
 10
252.5334908744
 20
118.3365870352
 30
0.0
 11
252.5334908744
 21
115.2114004913
 31
0.0
  0
LINE
  5
7E
330
1F
100
AcDbEntity
  8
0
  6
SLD-Durchgehend
 62
     7
370
    15
100
AcDbLine
 10
252.5334908744
 20
125.2114007335
 30
0.0
 11
252.5334908744
 21
118.3365870352
 31
0.0
  0
LINE
  5
7F
330
1F
100
AcDbEntity
  8
0
  6
SLD-Durchgehend
 62
     7
370
    15
100
AcDbLine
 10
147.1334873816
 20
110.3119056757
 30
0.0
 11
147.1334873816
 21
141.3119051691
 31
0.0
  0
LINE
  5
80
330
1F
100
AcDbEntity
  8
0
  6
SLD-Durchgehend
 62
     7
370
    15
100
AcDbLine
 10
147.1334873816
 20
79.3119061823
 30
0.0
 11
147.1334873816
 21
110.3119056757
 31
0.0
  0
LINE
  5
81
330
1F
100
AcDbEntity
  8
0
  6
SLD-Durchgehend
 62
     7
370
    15
100
AcDbLine
 10
169.1334872624
 20
110.3119056757
 30
0.0
 11
169.1334872624
 21
140.8119060184
 31
0.0
  0
LINE
  5
82
330
1F
100
AcDbEntity
  8
0
  6
SLD-Durchgehend
 62
     7
370
    15
100
AcDbLine
 10
169.1334872624
 20
79.811905333
 30
0.0
 11
169.1334872624
 21
110.3119056757
 31
0.0
  0
ARC
  5
83
330
1F
100
AcDbEntity
  8
0
  6
SLD-Durchgehend
 62
     7
370
    15
100
AcDbCircle
 10
159.1341407083
 20
47.3593812897
 30
0.0
 40
31.51608106390942
100
AcDbArc
 50
90.001187549
 51
93.5930966721
  0
LWPOLYLINE
  5
84
330
1F
100
AcDbEntity
  8
0
  6
SLD-Durchgehend
 62
     7
370
    15
100
AcDbPolyline
 90
        7
 70
   128
 43
0.0
 10
161.1309611356
 20
78.8120616313
 10
161.1334300717
 20
78.8119088944
 10
161.0160452431
 20
78.8191434081
 10
160.6872548466
 20
78.8370881315
 10
160.1830395987
 20
78.8579460319
 10
159.5598935267
 20
78.8725715216
 10
159.1334874859
 20
78.8754623468
  0
ARC
  5
85
330
1F
100
AcDbEntity
  8
0
  6
SLD-Durchgehend
 62
     7
370
    15
100
AcDbCircle
 10
157.6259018556
 20
80.7949266883
 30
0.0
 40
0.5526447928270382
100
AcDbArc
 50
223.9804562779
 51
273.6666593763
  0
LINE
  5
86
330
1F
100
AcDbEntity
  8
0
  6
SLD-Durchgehend
 62
     7
370
    15
100
AcDbLine
 10
160.6057305937
 20
80.2434131588
 30
0.0
 11
157.661244378
 21
80.2434131588
 31
0.0
  0
ARC
  5
87
330
1F
100
AcDbEntity
  8
0
  6
SLD-Durchgehend
 62
     7
370
    15
100
AcDbCircle
 10
160.6337882009
 20
80.8137312498
 30
0.0
 40
0.5710078407187016
100
AcDbArc
 50
267.1835236459
 51
315.1693606999
  0
ELLIPSE
  5
88
330
1F
100
AcDbEntity
  8
0
  6
SLD-Durchgehend
 62
     7
370
    15
100
AcDbEllipse
 10
144.7863331922
 20
110.3119056757
 30
0.0
 11
-14.75368316065621
 21
31.09325491558117
 31
0.0
210
0.0
220
0.0
230
1.0
 40
0.3419987131
 41
3.300734856217122
 42
4.231496223360772
  0
ARC
  5
89
330
1F
100
AcDbEntity
  8
0
  6
SLD-Durchgehend
 62
     7
370
    15
100
AcDbCircle
 10
160.4268582835
 20
100.3347715865
 30
0.0
 40
0.6156261375997998
100
AcDbArc
 50
6.3196381307
 51
73.1089056582
  0
LINE
  5
8A
330
1F
100
AcDbEntity
  8
0
  6
SLD-Durchgehend
 62
     7
370
    15
100
AcDbLine
 10
157.661244378
 20
100.9238388475
 30
0.0
 11
160.6057305937
 21
100.9238388475
 31
0.0
  0
LWPOLYLINE
  5
8B
330
1F
100
AcDbEntity
  8
0
  6
SLD-Durchgehend
 62
     7
370
    15
100
AcDbPolyline
 90
        6
 70
   128
 43
0.0
 10
157.2282315349
 20
100.4025366243
 10
157.2736679693
 20
100.5413688804
 10
157.4008940836
 20
100.7728621449
 10
157.4815466186
 20
100.8550215598
 10
157.5847753441
 20
100.9117400359
 10
157.661244378
 20
100.9238388475
  0
ELLIPSE
  5
8C
330
1F
100
AcDbEntity
  8
0
  6
SLD-Durchgehend
 62
     7
370
    15
100
AcDbEllipse
 10
173.4806415709
 20
110.3119056757
 30
0.0
 11
14.75368316065624
 21
31.09325491558117
 31
0.0
210
0.0
220
0.0
230
1.0
 40
0.3419987131
 41
2.051689083818829
 42
2.982450450962505
  0
ARC
  5
8D
330
1F
100
AcDbEntity
  8
0
  6
SLD-Durchgehend
 62
     7
370
    15
100
AcDbCircle
 10
157.8401166883
 20
120.2890397649
 30
0.0
 40
0.6156261375997998
100
AcDbArc
 50
186.3196381307
 51
253.1089056582
  0
LINE
  5
8E
330
1F
100
AcDbEntity
  8
0
  6
SLD-Durchgehend
 62
     7
370
    15
100
AcDbLine
 10
160.6057305937
 20
119.699972504
 30
0.0
 11
157.661244378
 21
119.699972504
 31
0.0
  0
LWPOLYLINE
  5
8F
330
1F
100
AcDbEntity
  8
0
  6
SLD-Durchgehend
 62
     7
370
    15
100
AcDbPolyline
 90
        6
 70
   128
 43
0.0
 10
161.0387434369
 20
120.2212747272
 10
160.9933060711
 20
120.082442471
 10
160.8660808881
 20
119.8509492065
 10
160.7854283532
 20
119.7687897916
 10
160.6821996277
 20
119.7120713155
 10
160.6057305937
 20
119.699972504
  0
ELLIPSE
  5
90
330
1F
100
AcDbEntity
  8
0
  6
SLD-Durchgehend
 62
     7
370
    15
100
AcDbEllipse
 10
144.7863331922
 20
110.3119056757
 30
0.0
 11
14.75368316065612
 21
31.09325491558117
 31
0.0
210
0.0
220
0.0
230
1.0
 40
0.3419987131
 41
5.193281737408627
 42
6.124043104552332
  0
ARC
  5
91
330
1F
100
AcDbEntity
  8
0
  6
SLD-Durchgehend
 62
     7
370
    15
100
AcDbCircle
 10
160.6410731161
 20
139.8288846631
 30
0.0
 40
0.5526447928270253
100
AcDbArc
 50
43.9804562779
 51
93.6666593763
  0
LINE
  5
92
330
1F
100
AcDbEntity
  8
0
  6
SLD-Durchgehend
 62
     7
370
    15
100
AcDbLine
 10
157.661244378
 20
140.3803981926
 30
0.0
 11
160.6057305937
 21
140.3803981926
 31
0.0
  0
ARC
  5
93
330
1F
100
AcDbEntity
  8
0
  6
SLD-Durchgehend
 62
     7
370
    15
100
AcDbCircle
 10
157.633185351
 20
139.8100837666
 30
0.0
 40
0.5710042499301823
100
AcDbArc
 50
87.1833632799
 51
135.1695210658
  0
ELLIPSE
  5
94
330
1F
100
AcDbEntity
  8
0
  6
SLD-Durchgehend
 62
     7
370
    15
100
AcDbEllipse
 10
173.4806415709
 20
110.3119056757
 30
0.0
 11
-14.75368316065612
 21
31.09325491558117
 31
0.0
210
0.0
220
0.0
230
1.0
 40
0.3419987131
 41
0.1591422026272988
 42
1.089903569770971
  0
LINE
  5
95
330
1F
100
AcDbEntity
  8
0
  6
SLD-Durchgehend
 62
     7
370
    15
100
AcDbLine
 10
146.9334873866
 20
93.5217037882
 30
0.0
 11
146.9334873866
 21
87.7720851536
 31
0.0
  0
LWPOLYLINE
  5
96
330
1F
100
AcDbEntity
  8
0
  6
SLD-Durchgehend
 62
     7
370
    15
100
AcDbPolyline
 90
        9
 70
   128
 43
0.0
 10
146.9334873866
 20
93.5217037882
 10
146.8967799331
 20
93.8307892616
 10
146.8760683959
 20
93.8866295006
 10
146.8422629289
 20
93.9420245673
 10
146.8196207309
 20
93.9635455694
 10
146.8014111627
 20
93.9741384323
 10
146.7808902846
 20
93.9799759622
 10
146.7631149456
 20
93.9803186889
 10
146.73851048
 20
93.9740620639
  0
ARC
  5
97
330
1F
100
AcDbEntity
  8
0
  6
SLD-Durchgehend
 62
     7
370
    15
100
AcDbCircle
 10
146.5524807604
 20
94.430049568
 30
0.0
 40
0.4924750353977307
100
AcDbArc
 50
241.4315514587
 51
292.1940395248
  0
LWPOLYLINE
  5
98
330
1F
100
AcDbEntity
  8
0
  6
SLD-Durchgehend
 62
     7
370
    15
100
AcDbPolyline
 90
        3
 70
   128
 43
0.0
 10
146.3169751107
 20
93.997535118
 10
146.1148711271
 20
94.1583242353
 10
145.812167076
 20
94.7487045165
  0
ARC
  5
99
330
1F
100
AcDbEntity
  8
0
  6
SLD-Durchgehend
 62
     7
370
    15
100
AcDbCircle
 10
148.2863322821
 20
103.5818807474
 30
0.0
 40
2.478680307343514
100
AcDbArc
 50
142.6097932206
 51
176.5411871548
  0
ARC
  5
9A
330
1F
100
AcDbEntity
  8
0
  6
SLD-Durchgehend
 62
     7
370
    15
100
AcDbCircle
 10
146.540847759
 20
104.9083492968
 30
0.0
 40
0.2864392312086183
100
AcDbArc
 50
46.3644601353
 51
141.4046572264
  0
LWPOLYLINE
  5
9B
330
1F
100
AcDbEntity
  8
0
  6
SLD-Durchgehend
 62
     7
370
    15
100
AcDbPolyline
 90
        9
 70
   128
 43
0.0
 10
146.73851048
 20
105.1156579602
 10
146.7601093057
 20
105.1008601758
 10
146.780160215
 20
105.0941607069
 10
146.8008656696
 20
105.0948736343
 10
146.817207092
 20
105.1015293311
 10
146.8396529847
 20
105.1209865223
 10
146.8697847915
 20
105.1719103094
 10
146.9173036633
 20
105.3751463156
 10
146.9334873866
 20
105.6839700873
  0
LINE
  5
9C
330
1F
100
AcDbEntity
  8
0
  6
SLD-Durchgehend
 62
     7
370
    15
100
AcDbLine
 10
146.9334873866
 20
131.7300431516
 30
0.0
 11
146.9334873866
 21
105.6839700873
 31
0.0
  0
LWPOLYLINE
  5
9D
330
1F
100
AcDbEntity
  8
0
  6
SLD-Durchgehend
 62
     7
370
    15
100
AcDbPolyline
 90
        9
 70
   128
 43
0.0
 10
146.9334873866
 20
131.7300431516
 10
146.8967799331
 20
131.8482261236
 10
146.8760683959
 20
131.8616818722
 10
146.8422629289
 20
131.8695478227
 10
146.8196207309
 20
131.8691566672
 10
146.8014111627
 20
131.8665731783
 10
146.7808902846
 20
131.8616911854
 10
146.7631149456
 20
131.855982178
 10
146.73851048
 20
131.8459965374
  0
ARC
  5
9E
330
1F
100
AcDbEntity
  8
0
  6
SLD-Durchgehend
 62
     7
370
    15
100
AcDbCircle
 10
146.5331143359
 20
132.2880641728
 30
0.0
 40
0.4874539673626991
100
AcDbArc
 50
243.6787033
 51
294.9208090432
  0
ARC
  5
9F
330
1F
100
AcDbEntity
  8
0
  6
SLD-Durchgehend
 62
     7
370
    15
100
AcDbCircle
 10
146.8727876212
 20
132.8283631197
 30
0.0
 40
1.124222281050635
100
AcDbArc
 50
199.364891809
 51
240.3699815947
  0
ARC
  5
A0
330
1F
100
AcDbEntity
  8
0
  6
SLD-Durchgehend
 62
     7
370
    15
100
AcDbCircle
 10
165.8465825461
 20
99.2400632791
 30
0.0
 40
20.53168543411515
100
AcDbArc
 50
167.3642245526
 51
192.6357754474
  0
LINE
  5
A1
330
1F
100
AcDbEntity
  8
0
  6
SLD-Durchgehend
 62
     7
370
    15
100
AcDbLine
 10
144.9334873935
 20
105.0870346922
 30
0.0
 11
144.9334873935
 21
131.9943059321
 31
0.0
  0
LINE
  5
A2
330
1F
100
AcDbEntity
  8
0
  6
SLD-Durchgehend
 62
     7
370
    15
100
AcDbLine
 10
110.633487918
 20
105.0870346922
 30
0.0
 11
110.633487918
 21
131.2480222519
 31
0.0
  0
LINE
  5
A3
330
1F
100
AcDbEntity
  8
0
  6
SLD-Durchgehend
 62
     7
370
    15
100
AcDbLine
 10
144.9334873935
 20
93.8543759372
 30
0.0
 11
144.9334873935
 21
105.0870346922
 31
0.0
  0
LINE
  5
A4
330
1F
100
AcDbEntity
  8
0
  6
SLD-Durchgehend
 62
     7
370
    15
100
AcDbLine
 10
110.633487918
 20
94.60066148
 30
0.0
 11
110.633487918
 21
105.0870346922
 31
0.0
  0
LINE
  5
A5
330
1F
100
AcDbEntity
  8
0
  6
SLD-Durchgehend
 62
     7
370
    15
100
AcDbLine
 10
109.1334886035
 20
95.3506611373
 30
0.0
 11
109.1334886035
 21
105.0870346922
 31
0.0
  0
LINE
  5
A6
330
1F
100
AcDbEntity
  8
0
  6
SLD-Durchgehend
 62
     7
370
    15
100
AcDbLine
 10
109.1334886035
 20
105.0870346922
 30
0.0
 11
109.1334886035
 21
130.498020732
 31
0.0
  0
LINE
  5
A7
330
1F
100
AcDbEntity
  8
0
  6
SLD-Durchgehend
 62
     7
370
    15
100
AcDbLine
 10
246.4334844729
 20
130.3119052287
 30
0.0
 11
246.4334844729
 21
90.3119061227
 31
0.0
  0
LINE
  5
A8
330
1F
100
AcDbEntity
  8
0
  6
SLD-Durchgehend
 62
     7
370
    15
100
AcDbLine
 10
246.7682986637
 20
129.9763422545
 30
0.0
 11
246.6634838959
 21
129.9158286388
 31
0.0
  0
LWPOLYLINE
  5
A9
330
1F
100
AcDbEntity
  8
0
  6
SLD-Durchgehend
 62
     7
370
    15
100
AcDbPolyline
 90
       12
 70
   128
 43
0.0
 10
246.6634838959
 20
129.9158286388
 10
246.6503038188
 20
129.9070071514
 10
246.60437844
 20
129.7973141159
 10
246.6177522322
 20
129.7551624562
 10
246.624025621
 20
129.7447670336
 10
246.6281755944
 20
129.7389946963
 10
246.632891812
 20
129.7332093205
 10
246.6367884656
 20
129.7289438631
 10
246.6410203954
 20
129.7247361477
 10
246.6458558222
 20
129.7203999098
 10
246.6528295656
 20
129.7149144198
 10
246.6634838959
 20
129.7079835172
  0
LWPOLYLINE
  5
AA
330
1F
100
AcDbEntity
  8
0
  6
SLD-Durchgehend
 62
     7
370
    15
100
AcDbPolyline
 90
        4
 70
   128
 43
0.0
 10
246.6634838959
 20
129.7079835172
 10
247.1609889647
 20
129.4207505967
 10
247.4757759949
 20
129.2390067216
 10
247.5334881922
 20
129.2056877251
  0
LINE
  5
AB
330
1F
100
AcDbEntity
  8
0
  6
SLD-Durchgehend
 62
     7
370
    15
100
AcDbLine
 10
247.5334881922
 20
129.2056877251
 30
0.0
 11
247.5334881922
 21
128.9181232538
 31
0.0
  0
LWPOLYLINE
  5
AC
330
1F
100
AcDbEntity
  8
0
  6
SLD-Durchgehend
 62
     7
370
    15
100
AcDbPolyline
 90
        3
 70
   128
 43
0.0
 10
247.5334881922
 20
128.9181232538
 10
247.1833705088
 20
128.7159834142
 10
246.6634838959
 20
128.4158293243
  0
ARC
  5
AD
330
1F
100
AcDbEntity
  8
0
  6
SLD-Durchgehend
 62
     7
370
    15
100
AcDbCircle
 10
246.7234983034
 20
128.3119058322
 30
0.0
 40
0.1200075886402461
100
AcDbArc
 50
120.0058511847
 51
239.9941488153
  0
LINE
  5
AE
330
1F
100
AcDbEntity
  8
0
  6
SLD-Durchgehend
 62
     7
370
    15
100
AcDbLine
 10
246.6634838959
 20
128.20798234
 30
0.0
 11
247.5334881922
 21
127.7056884106
 31
0.0
  0
LINE
  5
AF
330
1F
100
AcDbEntity
  8
0
  6
SLD-Durchgehend
 62
     7
370
    15
100
AcDbLine
 10
247.5334881922
 20
127.7056884106
 30
0.0
 11
247.5334881922
 21
127.4181239392
 31
0.0
  0
LINE
  5
B0
330
1F
100
AcDbEntity
  8
0
  6
SLD-Durchgehend
 62
     7
370
    15
100
AcDbLine
 10
247.5334881922
 20
127.4181239392
 30
0.0
 11
246.6634838959
 21
126.9158281471
 31
0.0
  0
LWPOLYLINE
  5
B1
330
1F
100
AcDbEntity
  8
0
  6
SLD-Durchgehend
 62
     7
370
    15
100
AcDbPolyline
 90
       10
 70
   128
 43
0.0
 10
246.6634838959
 20
126.9158281471
 10
246.6084837099
 20
126.8461726691
 10
246.6039016029
 20
126.8019031818
 10
246.6069861432
 20
126.7831556584
 10
246.6146080872
 20
126.7614539798
 10
246.6227888247
 20
126.7466385003
 10
246.6340317508
 20
126.7319180157
 10
246.6453938862
 20
126.7207961615
 10
246.6617553612
 20
126.709003755
 10
246.6634838959
 20
126.7079830255
  0
LINE
  5
B2
330
1F
100
AcDbEntity
  8
0
  6
SLD-Durchgehend
 62
     7
370
    15
100
AcDbLine
 10
246.6634838959
 20
126.7079830255
 30
0.0
 11
247.5334881922
 21
126.2056872334
 31
0.0
  0
LINE
  5
B3
330
1F
100
AcDbEntity
  8
0
  6
SLD-Durchgehend
 62
     7
370
    15
100
AcDbLine
 10
247.5334881922
 20
126.2056872334
 30
0.0
 11
247.5334881922
 21
125.9181236933
 31
0.0
  0
LINE
  5
B4
330
1F
100
AcDbEntity
  8
0
  6
SLD-Durchgehend
 62
     7
370
    15
100
AcDbLine
 10
247.5334881922
 20
125.9181236933
 30
0.0
 11
246.6634838959
 21
125.4158288326
 31
0.0
  0
LWPOLYLINE
  5
B5
330
1F
100
AcDbEntity
  8
0
  6
SLD-Durchgehend
 62
     7
370
    15
100
AcDbPolyline
 90
        9
 70
   128
 43
0.0
 10
246.6634838959
 20
125.4158288326
 10
246.6112106224
 20
125.3542674791
 10
246.6042219778
 20
125.2986246805
 10
246.6100185295
 20
125.272846603
 10
246.6183631798
 20
125.2540292304
 10
246.6310366174
 20
125.2354046415
 10
246.6440527817
 20
125.2219619315
 10
246.6630592128
 20
125.2082333054
 10
246.6634838959
 20
125.2079827796
  0
LINE
  5
B6
330
1F
100
AcDbEntity
  8
0
  6
SLD-Durchgehend
 62
     7
370
    15
100
AcDbLine
 10
246.6634838959
 20
125.2079827796
 30
0.0
 11
247.5334881922
 21
124.7056879188
 31
0.0
  0
LINE
  5
B7
330
1F
100
AcDbEntity
  8
0
  6
SLD-Durchgehend
 62
     7
370
    15
100
AcDbLine
 10
247.5334881922
 20
124.7056879188
 30
0.0
 11
247.5334881922
 21
124.4181234475
 31
0.0
  0
LINE
  5
B8
330
1F
100
AcDbEntity
  8
0
  6
SLD-Durchgehend
 62
     7
370
    15
100
AcDbLine
 10
247.5334881922
 20
124.4181234475
 30
0.0
 11
246.6634838959
 21
123.9158285867
 31
0.0
  0
ARC
  5
B9
330
1F
100
AcDbEntity
  8
0
  6
SLD-Durchgehend
 62
     7
370
    15
100
AcDbCircle
 10
246.7234921973
 20
123.8119055602
 30
0.0
 40
0.1200041318836633
100
AcDbArc
 50
120.0034377344
 51
239.9965622656
  0
LINE
  5
BA
330
1F
100
AcDbEntity
  8
0
  6
SLD-Durchgehend
 62
     7
370
    15
100
AcDbLine
 10
246.6634838959
 20
123.7079825338
 30
0.0
 11
247.5334881922
 21
123.205687673
 31
0.0
  0
LINE
  5
BB
330
1F
100
AcDbEntity
  8
0
  6
SLD-Durchgehend
 62
     7
370
    15
100
AcDbLine
 10
247.5334881922
 20
123.205687673
 30
0.0
 11
247.5334881922
 21
122.9181232016
 31
0.0
  0
LINE
  5
BC
330
1F
100
AcDbEntity
  8
0
  6
SLD-Durchgehend
 62
     7
370
    15
100
AcDbLine
 10
247.5334881922
 20
122.9181232016
 30
0.0
 11
246.6634838959
 21
122.4158283408
 31
0.0
  0
ARC
  5
BD
330
1F
100
AcDbEntity
  8
0
  6
SLD-Durchgehend
 62
     7
370
    15
100
AcDbCircle
 10
246.7234966474
 20
122.3119053144
 30
0.0
 40
0.1200063572134779
100
AcDbArc
 50
120.0052776637
 51
239.9947223363
  0
LINE
  5
BE
330
1F
100
AcDbEntity
  8
0
  6
SLD-Durchgehend
 62
     7
370
    15
100
AcDbLine
 10
246.6634838959
 20
122.2079822879
 30
0.0
 11
247.5334881922
 21
121.7056883584
 31
0.0
  0
LINE
  5
BF
330
1F
100
AcDbEntity
  8
0
  6
SLD-Durchgehend
 62
     7
370
    15
100
AcDbLine
 10
247.5334881922
 20
121.7056883584
 30
0.0
 11
247.5334881922
 21
121.4181238871
 31
0.0
  0
LINE
  5
C0
330
1F
100
AcDbEntity
  8
0
  6
SLD-Durchgehend
 62
     7
370
    15
100
AcDbLine
 10
247.5334881922
 20
121.4181238871
 30
0.0
 11
246.6634838959
 21
120.9158290263
 31
0.0
  0
ARC
  5
C1
330
1F
100
AcDbEntity
  8
0
  6
SLD-Durchgehend
 62
     7
370
    15
100
AcDbCircle
 10
246.723494207
 20
120.8119059998
 30
0.0
 40
0.1200051368591423
100
AcDbArc
 50
120.0042686812
 51
239.9957313188
  0
LINE
  5
C2
330
1F
100
AcDbEntity
  8
0
  6
SLD-Durchgehend
 62
     7
370
    15
100
AcDbLine
 10
246.6634838959
 20
120.7079829733
 30
0.0
 11
247.5334881922
 21
120.2056881126
 31
0.0
  0
LINE
  5
C3
330
1F
100
AcDbEntity
  8
0
  6
SLD-Durchgehend
 62
     7
370
    15
100
AcDbLine
 10
247.5334881922
 20
120.2056881126
 30
0.0
 11
247.5334881922
 21
119.9181236412
 31
0.0
  0
LINE
  5
C4
330
1F
100
AcDbEntity
  8
0
  6
SLD-Durchgehend
 62
     7
370
    15
100
AcDbLine
 10
247.5334881922
 20
119.9181236412
 30
0.0
 11
246.6634838959
 21
119.4158287804
 31
0.0
  0
ARC
  5
C5
330
1F
100
AcDbEntity
  8
0
  6
SLD-Durchgehend
 62
     7
370
    15
100
AcDbCircle
 10
246.7234911561
 20
119.3119057539
 30
0.0
 40
0.1200036112295133
100
AcDbArc
 50
120.0030072267
 51
239.9969927733
  0
LINE
  5
C6
330
1F
100
AcDbEntity
  8
0
  6
SLD-Durchgehend
 62
     7
370
    15
100
AcDbLine
 10
246.6634838959
 20
119.2079827275
 30
0.0
 11
247.5334881922
 21
118.7056878667
 31
0.0
  0
LINE
  5
C7
330
1F
100
AcDbEntity
  8
0
  6
SLD-Durchgehend
 62
     7
370
    15
100
AcDbLine
 10
247.5334881922
 20
118.7056878667
 30
0.0
 11
247.5334881922
 21
118.4181233953
 31
0.0
  0
LINE
  5
C8
330
1F
100
AcDbEntity
  8
0
  6
SLD-Durchgehend
 62
     7
370
    15
100
AcDbLine
 10
247.5334881922
 20
118.4181233953
 30
0.0
 11
246.6634838959
 21
117.9158285345
 31
0.0
  0
ARC
  5
C9
330
1F
100
AcDbEntity
  8
0
  6
SLD-Durchgehend
 62
     7
370
    15
100
AcDbCircle
 10
246.7234871362
 20
117.8119055081
 30
0.0
 40
0.1200016011567028
100
AcDbArc
 50
120.0013450917
 51
239.9986549083
  0
LINE
  5
CA
330
1F
100
AcDbEntity
  8
0
  6
SLD-Durchgehend
 62
     7
370
    15
100
AcDbLine
 10
246.6634838959
 20
117.7079824816
 30
0.0
 11
247.5334881922
 21
117.2056880865
 31
0.0
  0
LINE
  5
CB
330
1F
100
AcDbEntity
  8
0
  6
SLD-Durchgehend
 62
     7
370
    15
100
AcDbLine
 10
247.5334881922
 20
117.2056880865
 30
0.0
 11
247.5334881922
 21
116.9181236151
 31
0.0
  0
LINE
  5
CC
330
1F
100
AcDbEntity
  8
0
  6
SLD-Durchgehend
 62
     7
370
    15
100
AcDbLine
 10
247.5334881922
 20
116.9181236151
 30
0.0
 11
246.6634838959
 21
116.4158287543
 31
0.0
  0
ARC
  5
CD
330
1F
100
AcDbEntity
  8
0
  6
SLD-Durchgehend
 62
     7
370
    15
100
AcDbCircle
 10
246.7234899915
 20
116.3119057279
 30
0.0
 40
0.1200030288758809
100
AcDbArc
 50
120.0025256911
 51
239.9974743089
  0
LINE
  5
CE
330
1F
100
AcDbEntity
  8
0
  6
SLD-Durchgehend
 62
     7
370
    15
100
AcDbLine
 10
246.6634838959
 20
116.2079827014
 30
0.0
 11
247.5334881922
 21
115.7056878406
 31
0.0
  0
LINE
  5
CF
330
1F
100
AcDbEntity
  8
0
  6
SLD-Durchgehend
 62
     7
370
    15
100
AcDbLine
 10
247.5334881922
 20
115.7056878406
 30
0.0
 11
247.5334881922
 21
115.4181233692
 31
0.0
  0
LINE
  5
D0
330
1F
100
AcDbEntity
  8
0
  6
SLD-Durchgehend
 62
     7
370
    15
100
AcDbLine
 10
247.5334881922
 20
115.4181233692
 30
0.0
 11
246.6634838959
 21
114.9158285085
 31
0.0
  0
ARC
  5
D1
330
1F
100
AcDbEntity
  8
0
  6
SLD-Durchgehend
 62
     7
370
    15
100
AcDbCircle
 10
246.7234900968
 20
114.811905482
 30
0.0
 40
0.1200030815348615
100
AcDbArc
 50
120.0025692341
 51
239.9974307659
  0
LINE
  5
D2
330
1F
100
AcDbEntity
  8
0
  6
SLD-Durchgehend
 62
     7
370
    15
100
AcDbLine
 10
246.6634838959
 20
114.7079824555
 30
0.0
 11
247.5334881922
 21
114.2056878276
 31
0.0
  0
LINE
  5
D3
330
1F
100
AcDbEntity
  8
0
  6
SLD-Durchgehend
 62
     7
370
    15
100
AcDbLine
 10
247.5334881922
 20
114.2056878276
 30
0.0
 11
247.5334881922
 21
113.9181233562
 31
0.0
  0
LINE
  5
D4
330
1F
100
AcDbEntity
  8
0
  6
SLD-Durchgehend
 62
     7
370
    15
100
AcDbLine
 10
247.5334881922
 20
113.9181233562
 30
0.0
 11
246.6634838959
 21
113.4158287283
 31
0.0
  0
ARC
  5
D5
330
1F
100
AcDbEntity
  8
0
  6
SLD-Durchgehend
 62
     7
370
    15
100
AcDbCircle
 10
246.7234878564
 20
113.3119057018
 30
0.0
 40
0.1200019612808991
100
AcDbArc
 50
120.0016428897
 51
239.9983571103
  0
LINE
  5
D6
330
1F
100
AcDbEntity
  8
0
  6
SLD-Durchgehend
 62
     7
370
    15
100
AcDbLine
 10
246.6634838959
 20
113.2079826753
 30
0.0
 11
247.5334881922
 21
112.7056878145
 31
0.0
  0
LINE
  5
D7
330
1F
100
AcDbEntity
  8
0
  6
SLD-Durchgehend
 62
     7
370
    15
100
AcDbLine
 10
247.5334881922
 20
112.7056878145
 30
0.0
 11
247.5334881922
 21
112.4181233432
 31
0.0
  0
LINE
  5
D8
330
1F
100
AcDbEntity
  8
0
  6
SLD-Durchgehend
 62
     7
370
    15
100
AcDbLine
 10
247.5334881922
 20
112.4181233432
 30
0.0
 11
246.6634838959
 21
111.9158287152
 31
0.0
  0
ARC
  5
D9
330
1F
100
AcDbEntity
  8
0
  6
SLD-Durchgehend
 62
     7
370
    15
100
AcDbCircle
 10
246.7234925454
 20
111.8119056887
 30
0.0
 40
0.1200043059313803
100
AcDbArc
 50
120.0035816452
 51
239.9964183548
  0
LINE
  5
DA
330
1F
100
AcDbEntity
  8
0
  6
SLD-Durchgehend
 62
     7
370
    15
100
AcDbLine
 10
246.6634838959
 20
111.7079826623
 30
0.0
 11
247.5334881922
 21
111.2056879179
 31
0.0
  0
LINE
  5
DB
330
1F
100
AcDbEntity
  8
0
  6
SLD-Durchgehend
 62
     7
370
    15
100
AcDbLine
 10
247.5334881922
 20
111.2056879179
 30
0.0
 11
247.5334881922
 21
110.9181234465
 31
0.0
  0
LINE
  5
DC
330
1F
100
AcDbEntity
  8
0
  6
SLD-Durchgehend
 62
     7
370
    15
100
AcDbLine
 10
247.5334881922
 20
110.9181234465
 30
0.0
 11
246.6634838959
 21
110.415828724
 31
0.0
  0
ARC
  5
DD
330
1F
100
AcDbEntity
  8
0
  6
SLD-Durchgehend
 62
     7
370
    15
100
AcDbCircle
 10
246.7234912061
 20
110.3119056757
 30
0.0
 40
0.1200036551233032
100
AcDbArc
 50
120.0030226795
 51
239.9969773205
  0
LINE
  5
DE
330
1F
100
AcDbEntity
  8
0
  6
SLD-Durchgehend
 62
     7
370
    15
100
AcDbLine
 10
246.6634838959
 20
110.2079826274
 30
0.0
 11
247.5334881922
 21
109.7056879049
 31
0.0
  0
LINE
  5
DF
330
1F
100
AcDbEntity
  8
0
  6
SLD-Durchgehend
 62
     7
370
    15
100
AcDbLine
 10
247.5334881922
 20
109.7056879049
 30
0.0
 11
247.5334881922
 21
109.4181234335
 31
0.0
  0
LINE
  5
E0
330
1F
100
AcDbEntity
  8
0
  6
SLD-Durchgehend
 62
     7
370
    15
100
AcDbLine
 10
247.5334881922
 20
109.4181234335
 30
0.0
 11
246.6634838959
 21
108.9158286891
 31
0.0
  0
ARC
  5
E1
330
1F
100
AcDbEntity
  8
0
  6
SLD-Durchgehend
 62
     7
370
    15
100
AcDbCircle
 10
246.7234960234
 20
108.8119056627
 30
0.0
 40
0.1200060451705633
100
AcDbArc
 50
120.0050196731
 51
239.9949803269
  0
LINE
  5
E2
330
1F
100
AcDbEntity
  8
0
  6
SLD-Durchgehend
 62
     7
370
    15
100
AcDbLine
 10
246.6634838959
 20
108.7079826362
 30
0.0
 11
247.5334881922
 21
108.2056880082
 31
0.0
  0
LINE
  5
E3
330
1F
100
AcDbEntity
  8
0
  6
SLD-Durchgehend
 62
     7
370
    15
100
AcDbLine
 10
247.5334881922
 20
108.2056880082
 30
0.0
 11
247.5334881922
 21
107.9181235369
 31
0.0
  0
LINE
  5
E4
330
1F
100
AcDbEntity
  8
0
  6
SLD-Durchgehend
 62
     7
370
    15
100
AcDbLine
 10
247.5334881922
 20
107.9181235369
 30
0.0
 11
246.6634838959
 21
107.4158286761
 31
0.0
  0
ARC
  5
E5
330
1F
100
AcDbEntity
  8
0
  6
SLD-Durchgehend
 62
     7
370
    15
100
AcDbCircle
 10
246.7234915432
 20
107.3119056496
 30
0.0
 40
0.1200038048241473
100
AcDbArc
 50
120.0031673033
 51
239.9968326967
  0
LINE
  5
E6
330
1F
100
AcDbEntity
  8
0
  6
SLD-Durchgehend
 62
     7
370
    15
100
AcDbLine
 10
246.6634838959
 20
107.2079826232
 30
0.0
 11
247.5334881922
 21
106.7056879952
 31
0.0
  0
LINE
  5
E7
330
1F
100
AcDbEntity
  8
0
  6
SLD-Durchgehend
 62
     7
370
    15
100
AcDbLine
 10
247.5334881922
 20
106.7056879952
 30
0.0
 11
247.5334881922
 21
106.4181235238
 31
0.0
  0
LINE
  5
E8
330
1F
100
AcDbEntity
  8
0
  6
SLD-Durchgehend
 62
     7
370
    15
100
AcDbLine
 10
247.5334881922
 20
106.4181235238
 30
0.0
 11
246.6634838959
 21
105.9158288959
 31
0.0
  0
ARC
  5
E9
330
1F
100
AcDbEntity
  8
0
  6
SLD-Durchgehend
 62
     7
370
    15
100
AcDbCircle
 10
246.7234899445
 20
105.8119058694
 30
0.0
 40
0.1200030053918086
100
AcDbArc
 50
120.0025062724
 51
239.9974937276
  0
LINE
  5
EA
330
1F
100
AcDbEntity
  8
0
  6
SLD-Durchgehend
 62
     7
370
    15
100
AcDbLine
 10
246.6634838959
 20
105.7079828429
 30
0.0
 11
247.5334881922
 21
105.2056879822
 31
0.0
  0
LINE
  5
EB
330
1F
100
AcDbEntity
  8
0
  6
SLD-Durchgehend
 62
     7
370
    15
100
AcDbLine
 10
247.5334881922
 20
105.2056879822
 30
0.0
 11
247.5334881922
 21
104.9181235108
 31
0.0
  0
LINE
  5
EC
330
1F
100
AcDbEntity
  8
0
  6
SLD-Durchgehend
 62
     7
370
    15
100
AcDbLine
 10
247.5334881922
 20
104.9181235108
 30
0.0
 11
246.6634838959
 21
104.41582865
 31
0.0
  0
ARC
  5
ED
330
1F
100
AcDbEntity
  8
0
  6
SLD-Durchgehend
 62
     7
370
    15
100
AcDbCircle
 10
246.7234946735
 20
104.3119056236
 30
0.0
 40
0.1200053701277321
100
AcDbArc
 50
120.0044615504
 51
239.9955384496
  0
LINE
  5
EE
330
1F
100
AcDbEntity
  8
0
  6
SLD-Durchgehend
 62
     7
370
    15
100
AcDbLine
 10
246.6634838959
 20
104.2079825971
 30
0.0
 11
247.5334881922
 21
103.7056877363
 31
0.0
  0
LINE
  5
EF
330
1F
100
AcDbEntity
  8
0
  6
SLD-Durchgehend
 62
     7
370
    15
100
AcDbLine
 10
247.5334881922
 20
103.7056877363
 30
0.0
 11
247.5334881922
 21
103.4181232649
 31
0.0
  0
LINE
  5
F0
330
1F
100
AcDbEntity
  8
0
  6
SLD-Durchgehend
 62
     7
370
    15
100
AcDbLine
 10
247.5334881922
 20
103.4181232649
 30
0.0
 11
246.6634838959
 21
102.9158288698
 31
0.0
  0
ARC
  5
F1
330
1F
100
AcDbEntity
  8
0
  6
SLD-Durchgehend
 62
     7
370
    15
100
AcDbCircle
 10
246.7234897497
 20
102.8119058433
 30
0.0
 40
0.1200029079831505
100
AcDbArc
 50
120.0024257261
 51
239.9975742739
  0
LINE
  5
F2
330
1F
100
AcDbEntity
  8
0
  6
SLD-Durchgehend
 62
     7
370
    15
100
AcDbLine
 10
246.6634838959
 20
102.7079828169
 30
0.0
 11
247.5334881922
 21
102.2056879561
 31
0.0
  0
LINE
  5
F3
330
1F
100
AcDbEntity
  8
0
  6
SLD-Durchgehend
 62
     7
370
    15
100
AcDbLine
 10
247.5334881922
 20
102.2056879561
 30
0.0
 11
247.5334881922
 21
101.9181234847
 31
0.0
  0
LINE
  5
F4
330
1F
100
AcDbEntity
  8
0
  6
SLD-Durchgehend
 62
     7
370
    15
100
AcDbLine
 10
247.5334881922
 20
101.9181234847
 30
0.0
 11
246.6634838959
 21
101.4158286239
 31
0.0
  0
ARC
  5
F5
330
1F
100
AcDbEntity
  8
0
  6
SLD-Durchgehend
 62
     7
370
    15
100
AcDbCircle
 10
246.7234934745
 20
101.3119055975
 30
0.0
 40
0.1200047705601124
100
AcDbArc
 50
120.0039658171
 51
239.9960341829
  0
LINE
  5
F6
330
1F
100
AcDbEntity
  8
0
  6
SLD-Durchgehend
 62
     7
370
    15
100
AcDbLine
 10
246.6634838959
 20
101.207982571
 30
0.0
 11
247.5334881922
 21
100.7056877102
 31
0.0
  0
LINE
  5
F7
330
1F
100
AcDbEntity
  8
0
  6
SLD-Durchgehend
 62
     7
370
    15
100
AcDbLine
 10
247.5334881922
 20
100.7056877102
 30
0.0
 11
247.5334881922
 21
100.4181232389
 31
0.0
  0
LINE
  5
F8
330
1F
100
AcDbEntity
  8
0
  6
SLD-Durchgehend
 62
     7
370
    15
100
AcDbLine
 10
247.5334881922
 20
100.4181232389
 30
0.0
 11
246.6634838959
 21
99.9158283781
 31
0.0
  0
ARC
  5
F9
330
1F
100
AcDbEntity
  8
0
  6
SLD-Durchgehend
 62
     7
370
    15
100
AcDbCircle
 10
246.7234898515
 20
99.8119053516
 30
0.0
 40
0.1200029588950576
100
AcDbArc
 50
120.0024678247
 51
239.9975321753
  0
LINE
  5
FA
330
1F
100
AcDbEntity
  8
0
  6
SLD-Durchgehend
 62
     7
370
    15
100
AcDbLine
 10
246.6634838959
 20
99.7079823251
 30
0.0
 11
247.5334881922
 21
99.2056874644
 31
0.0
  0
LINE
  5
FB
330
1F
100
AcDbEntity
  8
0
  6
SLD-Durchgehend
 62
     7
370
    15
100
AcDbLine
 10
247.5334881922
 20
99.2056874644
 30
0.0
 11
247.5334881922
 21
98.918122993
 31
0.0
  0
LINE
  5
FC
330
1F
100
AcDbEntity
  8
0
  6
SLD-Durchgehend
 62
     7
370
    15
100
AcDbLine
 10
247.5334881922
 20
98.918122993
 30
0.0
 11
246.6634838959
 21
98.4158290635
 31
0.0
  0
ARC
  5
FD
330
1F
100
AcDbEntity
  8
0
  6
SLD-Durchgehend
 62
     7
370
    15
100
AcDbCircle
 10
246.7234942808
 20
98.3119060371
 30
0.0
 40
0.1200051737503242
100
AcDbArc
 50
120.0042991834
 51
239.9957008166
  0
LINE
  5
FE
330
1F
100
AcDbEntity
  8
0
  6
SLD-Durchgehend
 62
     7
370
    15
100
AcDbLine
 10
246.6634838959
 20
98.2079830106
 30
0.0
 11
247.5334881922
 21
97.7056881498
 31
0.0
  0
LINE
  5
FF
330
1F
100
AcDbEntity
  8
0
  6
SLD-Durchgehend
 62
     7
370
    15
100
AcDbLine
 10
247.5334881922
 20
97.7056881498
 30
0.0
 11
247.5334881922
 21
97.4181236784
 31
0.0
  0
LINE
  5
100
330
1F
100
AcDbEntity
  8
0
  6
SLD-Durchgehend
 62
     7
370
    15
100
AcDbLine
 10
247.5334881922
 20
97.4181236784
 30
0.0
 11
246.6634838959
 21
96.9158288177
 31
0.0
  0
ARC
  5
101
330
1F
100
AcDbEntity
  8
0
  6
SLD-Durchgehend
 62
     7
370
    15
100
AcDbCircle
 10
246.7234897954
 20
96.8119057912
 30
0.0
 40
0.1200029308130059
100
AcDbArc
 50
120.0024446039
 51
239.9975553961
  0
LINE
  5
102
330
1F
100
AcDbEntity
  8
0
  6
SLD-Durchgehend
 62
     7
370
    15
100
AcDbLine
 10
246.6634838959
 20
96.7079827647
 30
0.0
 11
247.5334881922
 21
96.2056879039
 31
0.0
  0
LINE
  5
103
330
1F
100
AcDbEntity
  8
0
  6
SLD-Durchgehend
 62
     7
370
    15
100
AcDbLine
 10
247.5334881922
 20
96.2056879039
 30
0.0
 11
247.5334881922
 21
95.9181234326
 31
0.0
  0
LINE
  5
104
330
1F
100
AcDbEntity
  8
0
  6
SLD-Durchgehend
 62
     7
370
    15
100
AcDbLine
 10
247.5334881922
 20
95.9181234326
 30
0.0
 11
246.6634838959
 21
95.4158285718
 31
0.0
  0
ARC
  5
105
330
1F
100
AcDbEntity
  8
0
  6
SLD-Durchgehend
 62
     7
370
    15
100
AcDbCircle
 10
246.7234890774
 20
95.3119055453
 30
0.0
 40
0.1200025718257361
100
AcDbArc
 50
120.0021477581
 51
239.9978522419
  0
LINE
  5
106
330
1F
100
AcDbEntity
  8
0
  6
SLD-Durchgehend
 62
     7
370
    15
100
AcDbLine
 10
246.6634838959
 20
95.2079825188
 30
0.0
 11
247.5334881922
 21
94.7056876581
 31
0.0
  0
LINE
  5
107
330
1F
100
AcDbEntity
  8
0
  6
SLD-Durchgehend
 62
     7
370
    15
100
AcDbLine
 10
247.5334881922
 20
94.7056876581
 30
0.0
 11
247.5334881922
 21
94.418124118
 31
0.0
  0
LINE
  5
108
330
1F
100
AcDbEntity
  8
0
  6
SLD-Durchgehend
 62
     7
370
    15
100
AcDbLine
 10
247.5334881922
 20
94.418124118
 30
0.0
 11
246.6634838959
 21
93.9158283259
 31
0.0
  0
LWPOLYLINE
  5
109
330
1F
100
AcDbEntity
  8
0
  6
SLD-Durchgehend
 62
     7
370
    15
100
AcDbPolyline
 90
       10
 70
   128
 43
0.0
 10
246.6634838959
 20
93.9158283259
 10
246.6549753328
 20
93.9104247923
 10
246.6394930264
 20
93.8976097937
 10
246.6287120362
 20
93.8855100508
 10
246.6198383947
 20
93.8723784025
 10
246.6112702271
 20
93.854418778
 10
246.6045125505
 20
93.8275780614
 10
246.6070680996
 20
93.7828242864
 10
246.6511308333
 20
93.7161713924
 10
246.6634838959
 20
93.7079832043
  0
LINE
  5
10A
330
1F
100
AcDbEntity
  8
0
  6
SLD-Durchgehend
 62
     7
370
    15
100
AcDbLine
 10
246.6634838959
 20
93.7079832043
 30
0.0
 11
247.5334881922
 21
93.2056874122
 31
0.0
  0
LINE
  5
10B
330
1F
100
AcDbEntity
  8
0
  6
SLD-Durchgehend
 62
     7
370
    15
100
AcDbLine
 10
247.5334881922
 20
93.2056874122
 30
0.0
 11
247.5334881922
 21
92.9181229408
 31
0.0
  0
LINE
  5
10C
330
1F
100
AcDbEntity
  8
0
  6
SLD-Durchgehend
 62
     7
370
    15
100
AcDbLine
 10
247.5334881922
 20
92.9181229408
 30
0.0
 11
246.6634838959
 21
92.4158290114
 31
0.0
  0
LWPOLYLINE
  5
10D
330
1F
100
AcDbEntity
  8
0
  6
SLD-Durchgehend
 62
     7
370
    15
100
AcDbPolyline
 90
        9
 70
   128
 43
0.0
 10
246.6634838959
 20
92.4158290114
 10
246.6501697084
 20
92.4069013532
 10
246.6406255146
 20
92.3987057145
 10
246.6313346406
 20
92.3887647774
 10
246.6241969844
 20
92.3792913641
 10
246.6161354562
 20
92.3655357297
 10
246.6077982565
 20
92.3437800344
 10
246.6047956725
 20
92.2942318107
 10
246.6634838959
 20
92.2079820271
  0
LWPOLYLINE
  5
10E
330
1F
100
AcDbEntity
  8
0
  6
SLD-Durchgehend
 62
     7
370
    15
100
AcDbPolyline
 90
        3
 70
   128
 43
0.0
 10
246.6634838959
 20
92.2079820271
 10
247.1803381225
 20
91.909576961
 10
247.5334881922
 20
91.7056880977
  0
LINE
  5
10F
330
1F
100
AcDbEntity
  8
0
  6
SLD-Durchgehend
 62
     7
370
    15
100
AcDbLine
 10
247.5334881922
 20
91.7056880977
 30
0.0
 11
247.5334881922
 21
91.4181236263
 31
0.0
  0
LWPOLYLINE
  5
110
330
1F
100
AcDbEntity
  8
0
  6
SLD-Durchgehend
 62
     7
370
    15
100
AcDbPolyline
 90
        4
 70
   128
 43
0.0
 10
247.5334881922
 20
91.4181236263
 10
247.3251103541
 20
91.2978153761
 10
246.8888565084
 20
91.045948499
 10
246.6634838959
 20
90.9158278342
  0
LWPOLYLINE
  5
111
330
1F
100
AcDbEntity
  8
0
  6
SLD-Durchgehend
 62
     7
370
    15
100
AcDbPolyline
 90
       12
 70
   128
 43
0.0
 10
246.6634838959
 20
90.9158278342
 10
246.6577916523
 20
90.9123260613
 10
246.6516449233
 20
90.908023351
 10
246.6440676828
 20
90.9018635835
 10
246.6398357531
 20
90.8979408528
 10
246.6355442186
 20
90.8935524608
 10
246.632020094
 20
90.8895868893
 10
246.6271623155
 20
90.8834681
 10
246.6192050954
 20
90.8712789502
 10
246.6071947595
 20
90.8415027048
 10
246.6091840645
 20
90.7753825273
 10
246.6634838959
 20
90.7079827126
  0
LWPOLYLINE
  5
112
330
1F
100
AcDbEntity
  8
0
  6
SLD-Durchgehend
 62
     7
370
    15
100
AcDbPolyline
 90
        3
 70
   128
 43
0.0
 10
246.6634838959
 20
90.7079827126
 10
246.7687755009
 20
90.6471952881
 10
246.7682986637
 20
90.647469097
  0
LINE
  5
113
330
1F
100
AcDbEntity
  8
0
  6
SLD-Durchgehend
 62
     7
370
    15
100
AcDbLine
 10
144.9334873935
 20
89.6918073382
 30
0.0
 11
144.9334873935
 21
93.8543759372
 31
0.0
  0
LINE
  5
114
330
1F
100
AcDbEntity
  8
0
  6
SLD-Durchgehend
 62
     7
370
    15
100
AcDbLine
 10
110.633487918
 20
90.8149153079
 30
0.0
 11
115.5834860285
 21
90.7056432303
 31
0.0
  0
LINE
  5
115
330
1F
100
AcDbEntity
  8
0
  6
SLD-Durchgehend
 62
     7
370
    15
100
AcDbLine
 10
110.633487918
 20
90.8149153079
 30
0.0
 11
110.633487918
 21
94.60066148
 31
0.0
  0
LWPOLYLINE
  5
116
330
1F
100
AcDbEntity
  8
0
  6
SLD-Durchgehend
 62
     7
370
    15
100
AcDbPolyline
 90
        5
 70
   128
 43
0.0
 10
115.5834860285
 20
90.7056432303
 10
116.4545650711
 20
90.5456662263
 10
117.173832946
 20
90.4301636006
 10
117.5059109112
 20
90.3819006022
 10
117.4756093999
 20
90.3862312521
  0
ARC
  5
117
330
1F
100
AcDbEntity
  8
0
  6
SLD-Durchgehend
 62
     7
370
    15
100
AcDbCircle
 10
130.8652479312
 20
55.1228953503
 30
0.0
 40
35.18031587467562
100
AcDbArc
 50
81.5186266954
 51
95.5572947612
  0
LINE
  5
118
330
1F
100
AcDbEntity
  8
0
  6
SLD-Durchgehend
 62
     7
370
    15
100
AcDbLine
 10
109.1334886035
 20
91.5634267117
 30
0.0
 11
110.633487918
 21
90.8149153079
 31
0.0
  0
LINE
  5
119
330
1F
100
AcDbEntity
  8
0
  6
SLD-Durchgehend
 62
     7
370
    15
100
AcDbLine
 10
109.1334886035
 20
91.5634267117
 30
0.0
 11
109.1334886035
 21
95.3506611373
 31
0.0
  0
LINE
  5
11A
330
1F
100
AcDbEntity
  8
0
  6
SLD-Durchgehend
 62
     7
370
    15
100
AcDbLine
 10
144.9334873935
 20
133.7320048447
 30
0.0
 11
144.9334873935
 21
131.9943059321
 31
0.0
  0
LINE
  5
11B
330
1F
100
AcDbEntity
  8
0
  6
SLD-Durchgehend
 62
     7
370
    15
100
AcDbLine
 10
110.633487918
 20
132.8702688302
 30
0.0
 11
110.633487918
 21
131.2480222519
 31
0.0
  0
LWPOLYLINE
  5
11C
330
1F
100
AcDbEntity
  8
0
  6
SLD-Durchgehend
 62
     7
370
    15
100
AcDbPolyline
 90
        4
 70
   128
 43
0.0
 10
145.3400783823
 20
133.5082303818
 10
145.3324159259
 20
133.5254859264
 10
145.449391089
 20
133.2625903274
 10
145.812167076
 20
132.4555900033
  0
LINE
  5
11D
330
1F
100
AcDbEntity
  8
0
  6
SLD-Durchgehend
 62
     7
370
    15
100
AcDbLine
 10
109.1334886035
 20
132.004243144
 30
0.0
 11
109.1334886035
 21
130.498020732
 31
0.0
  0
LINE
  5
11E
330
1F
100
AcDbEntity
  8
0
  6
SLD-Gestrichelt
 62
     7
370
     0
100
AcDbLine
 10
147.1334873816
 20
141.3119051691
 30
0.0
 11
147.1334873816
 21
79.3119061823
 31
0.0
  0
LINE
  5
11F
330
1F
100
AcDbEntity
  8
0
  6
SLD-Gestrichelt
 62
     7
370
     0
100
AcDbLine
 10
169.1334872624
 20
140.8119060184
 30
0.0
 11
169.1334872624
 21
79.811905333
 31
0.0
  0
LWPOLYLINE
  5
120
330
1F
100
AcDbEntity
  8
0
  6
SLD-Gestrichelt
 62
     7
370
     0
100
AcDbPolyline
 90
       13
 70
   128
 43
0.0
 10
157.1590193664
 20
78.8135107692
 10
157.1467147326
 20
78.8127433594
 10
157.3341219803
 20
78.8240086372
 10
157.7237882768
 20
78.8438718851
 10
158.2729668473
 20
78.8636867042
 10
158.91942858
 20
78.87473219
 10
159.0254689684
 20
78.8743261333
 10
159.5749837463
 20
78.872217619
 10
159.5889740741
 20
78.8721617396
 10
160.206677497
 20
78.8571488197
 10
160.704393976
 20
78.83623504
 10
161.0256974702
 20
78.8185659881
 10
161.1309611356
 20
78.8120616313
  0
ARC
  5
121
330
1F
100
AcDbEntity
  8
0
  6
SLD-Gestrichelt
 62
     7
370
     0
100
AcDbCircle
 10
157.8401166883
 20
100.3347715865
 30
0.0
 40
0.6156261375997998
100
AcDbArc
 50
106.8910943418
 51
173.6803618693
  0
LINE
  5
122
330
1F
100
AcDbEntity
  8
0
  6
SLD-Gestrichelt
 62
     7
370
     0
100
AcDbLine
 10
160.6057305937
 20
100.9238388475
 30
0.0
 11
157.661244378
 21
100.9238388475
 31
0.0
  0
LWPOLYLINE
  5
123
330
1F
100
AcDbEntity
  8
0
  6
SLD-Gestrichelt
 62
     7
370
     0
100
AcDbPolyline
 90
        6
 70
   128
 43
0.0
 10
161.0387434369
 20
100.4025366243
 10
160.9933060711
 20
100.5413688804
 10
160.8660808881
 20
100.7728621449
 10
160.7854283532
 20
100.8550215598
 10
160.6821996277
 20
100.9117400359
 10
160.6057305937
 20
100.9238388475
  0
ELLIPSE
  5
124
330
1F
100
AcDbEntity
  8
0
  6
SLD-Gestrichelt
 62
     7
370
     0
100
AcDbEllipse
 10
144.7863331922
 20
110.3119056757
 30
0.0
 11
-14.75368316065609
 21
31.09325491558116
 31
0.0
210
0.0
220
0.0
230
1.0
 40
0.3419987131
 41
3.300734856217133
 42
4.231496223360783
  0
ARC
  5
125
330
1F
100
AcDbEntity
  8
0
  6
SLD-Gestrichelt
 62
     7
370
     0
100
AcDbCircle
 10
160.6410731161
 20
80.7949266883
 30
0.0
 40
0.5526447928270382
100
AcDbArc
 50
266.3333406237
 51
316.0195437221
  0
LINE
  5
126
330
1F
100
AcDbEntity
  8
0
  6
SLD-Gestrichelt
 62
     7
370
     0
100
AcDbLine
 10
157.661244378
 20
80.2434131588
 30
0.0
 11
160.6057305937
 21
80.2434131588
 31
0.0
  0
ARC
  5
127
330
1F
100
AcDbEntity
  8
0
  6
SLD-Gestrichelt
 62
     7
370
     0
100
AcDbCircle
 10
157.633185351
 20
80.8137275848
 30
0.0
 40
0.5710042499301823
100
AcDbArc
 50
224.8304789342
 51
272.8166367201
  0
ELLIPSE
  5
128
330
1F
100
AcDbEntity
  8
0
  6
SLD-Gestrichelt
 62
     7
370
     0
100
AcDbEllipse
 10
173.4806415709
 20
110.3119056757
 30
0.0
 11
14.75368316065613
 21
31.0932549155812
 31
0.0
210
0.0
220
0.0
230
1.0
 40
0.3419987131
 41
2.051689083818816
 42
2.982450450962495
  0
ARC
  5
129
330
1F
100
AcDbEntity
  8
0
  6
SLD-Gestrichelt
 62
     7
370
     0
100
AcDbCircle
 10
157.6259018556
 20
139.8288846631
 30
0.0
 40
0.5526447928270253
100
AcDbArc
 50
86.3333406237
 51
136.0195437221
  0
LINE
  5
12A
330
1F
100
AcDbEntity
  8
0
  6
SLD-Gestrichelt
 62
     7
370
     0
100
AcDbLine
 10
160.6057305937
 20
140.3803981926
 30
0.0
 11
157.661244378
 21
140.3803981926
 31
0.0
  0
ARC
  5
12B
330
1F
100
AcDbEntity
  8
0
  6
SLD-Gestrichelt
 62
     7
370
     0
100
AcDbCircle
 10
160.6337882009
 20
139.8100801017
 30
0.0
 40
0.5710078407187158
100
AcDbArc
 50
44.8306393001
 51
92.8164763541
  0
ELLIPSE
  5
12C
330
1F
100
AcDbEntity
  8
0
  6
SLD-Gestrichelt
 62
     7
370
     0
100
AcDbEllipse
 10
144.7863331922
 20
110.3119056757
 30
0.0
 11
14.75368316065627
 21
31.0932549155812
 31
0.0
210
0.0
220
0.0
230
1.0
 40
0.3419987131
 41
5.193281737408641
 42
6.124043104552345
  0
ARC
  5
12D
330
1F
100
AcDbEntity
  8
0
  6
SLD-Gestrichelt
 62
     7
370
     0
100
AcDbCircle
 10
160.4268582835
 20
120.2890397649
 30
0.0
 40
0.6156261375997998
100
AcDbArc
 50
286.8910943418
 51
353.6803618693
  0
LINE
  5
12E
330
1F
100
AcDbEntity
  8
0
  6
SLD-Gestrichelt
 62
     7
370
     0
100
AcDbLine
 10
157.661244378
 20
119.699972504
 30
0.0
 11
160.6057305937
 21
119.699972504
 31
0.0
  0
LWPOLYLINE
  5
12F
330
1F
100
AcDbEntity
  8
0
  6
SLD-Gestrichelt
 62
     7
370
     0
100
AcDbPolyline
 90
        6
 70
   128
 43
0.0
 10
157.2282315349
 20
120.2212747272
 10
157.2736679693
 20
120.082442471
 10
157.4008940836
 20
119.8509492065
 10
157.4815466186
 20
119.7687897916
 10
157.5847753441
 20
119.7120713155
 10
157.661244378
 20
119.699972504
  0
ELLIPSE
  5
130
330
1F
100
AcDbEntity
  8
0
  6
SLD-Gestrichelt
 62
     7
370
     0
100
AcDbEllipse
 10
173.4806415709
 20
110.3119056757
 30
0.0
 11
-14.75368316065629
 21
31.0932549155812
 31
0.0
210
0.0
220
0.0
230
1.0
 40
0.3419987131
 41
0.1591422026272813
 42
1.089903569770959
  0
LINE
  5
131
330
1F
100
AcDbEntity
  8
0
  6
SLD-Gestrichelt
 62
     7
370
     0
100
AcDbLine
 10
147.1334873816
 20
86.0837556507
 30
0.0
 11
147.1334873816
 21
134.5400557007
 31
0.0
  0
ARC
  5
132
330
1F
100
AcDbEntity
  8
0
  6
SLD-Gestrichelt
 62
     7
370
     0
100
AcDbCircle
 10
146.5523051354
 20
94.426895646
 30
0.0
 40
0.4896230013938487
100
AcDbArc
 50
241.2731071316
 51
292.3524838518
  0
LWPOLYLINE
  5
133
330
1F
100
AcDbEntity
  8
0
  6
SLD-Gestrichelt
 62
     7
370
     0
100
AcDbPolyline
 90
       10
 70
   128
 43
0.0
 10
146.73851048
 20
93.9740620639
 10
146.7601093057
 20
93.979966649
 10
146.780160215
 20
93.9800728198
 10
146.8008656696
 20
93.9743749883
 10
146.817207092
 20
93.9652685161
 10
146.8396529847
 20
93.9450401898
 10
146.8697847915
 20
93.8996326264
 10
146.9010221365
 20
93.7950693156
 10
146.9173036633
 20
93.7405701812
 10
146.9334873866
 20
93.5217037882
  0
LINE
  5
134
330
1F
100
AcDbEntity
  8
0
  6
SLD-Gestrichelt
 62
     7
370
     0
100
AcDbLine
 10
146.9334873866
 20
87.7720851536
 30
0.0
 11
146.9334873866
 21
93.5217037882
 31
0.0
  0
LWPOLYLINE
  5
135
330
1F
100
AcDbEntity
  8
0
  6
SLD-Gestrichelt
 62
     7
370
     0
100
AcDbPolyline
 90
        3
 70
   128
 43
0.0
 10
146.3169751107
 20
131.8511486139
 10
146.0992096575
 20
132.0125561293
 10
145.812167076
 20
132.4555900033
  0
ARC
  5
136
330
1F
100
AcDbEntity
  8
0
  6
SLD-Gestrichelt
 62
     7
370
     0
100
AcDbCircle
 10
146.5330906883
 20
132.2861293653
 30
0.0
 40
0.4857099927022896
100
AcDbArc
 50
243.5800029126
 51
295.0195094306
  0
LWPOLYLINE
  5
137
330
1F
100
AcDbEntity
  8
0
  6
SLD-Gestrichelt
 62
     7
370
     0
100
AcDbPolyline
 90
       10
 70
   128
 43
0.0
 10
146.73851048
 20
131.8459965374
 10
146.7601093057
 20
131.854890668
 10
146.780160215
 20
131.8614825692
 10
146.8008656696
 20
131.8664688702
 10
146.817207092
 20
131.8689201112
 10
146.8396529847
 20
131.8696893837
 10
146.8697847915
 20
131.8641740914
 10
146.9007739827
 20
131.8353664215
 10
146.9173036633
 20
131.8200014617
 10
146.9334873866
 20
131.7300431516
  0
LINE
  5
138
330
1F
100
AcDbEntity
  8
0
  6
SLD-Gestrichelt
 62
     7
370
     0
100
AcDbLine
 10
146.9334873866
 20
105.6839700873
 30
0.0
 11
146.9334873866
 21
131.7300431516
 31
0.0
  0
LWPOLYLINE
  5
139
330
1F
100
AcDbEntity
  8
0
  6
SLD-Gestrichelt
 62
     7
370
     0
100
AcDbPolyline
 90
       10
 70
   128
 43
0.0
 10
146.9334873866
 20
105.6839700873
 10
146.9099514245
 20
105.3235678087
 10
146.8884291419
 20
105.2247800949
 10
146.8487405393
 20
105.1328948784
 10
146.8271069346
 20
105.1085100594
 10
146.8079141516
 20
105.0970412876
 10
146.78987909
 20
105.0934831697
 10
146.7711791222
 20
105.0962999548
 10
146.748741495
 20
105.1076890986
 10
146.73851048
 20
105.1156579602
  0
ARC
  5
13A
330
1F
100
AcDbEntity
  8
0
  6
SLD-Gestrichelt
 62
     7
370
     0
100
AcDbCircle
 10
146.5411502987
 20
104.9038937903
 30
0.0
 40
0.2894738413577961
100
AcDbArc
 50
47.0163723267
 51
140.752745035
  0
LWPOLYLINE
  5
13B
330
1F
100
AcDbEntity
  8
0
  6
SLD-Gestrichelt
 62
     7
370
     0
100
AcDbPolyline
 90
        3
 70
   128
 43
0.0
 10
146.3169751107
 20
105.0870346922
 10
146.0911332281
 20
104.7288927335
 10
145.812167076
 20
103.7314220417
  0
ARC
  5
13C
330
1F
100
AcDbEntity
  8
0
  6
SLD-Gestrichelt
 62
     7
370
     0
100
AcDbCircle
 10
146.9237481161
 20
94.9505121674
 30
0.0
 40
1.129751626093979
100
AcDbArc
 50
190.2899774279
 51
237.5145569944
  0
LINE
  5
13D
330
1F
100
AcDbEntity
  8
0
  6
SLD-Gestrichelt
 62
     7
370
     0
100
AcDbLine
 10
169.1334872624
 20
86.3174617376
 30
0.0
 11
169.1334872624
 21
134.3063496138
 31
0.0
  0
LINE
  5
13E
330
1F
100
AcDbEntity
  8
0
  6
SLD-Gestrichelt
 62
     7
370
     0
100
AcDbLine
 10
146.9334873866
 20
105.6839700873
 30
0.0
 11
146.9334873866
 21
131.7300431516
 31
0.0
  0
LINE
  5
13F
330
1F
100
AcDbEntity
  8
0
  6
SLD-Gestrichelt
 62
     7
370
     0
100
AcDbLine
 10
246.4334844729
 20
110.3119056757
 30
0.0
 11
246.4334844729
 21
130.3119052287
 31
0.0
  0
LINE
  5
140
330
1F
100
AcDbEntity
  8
0
  6
SLD-Gestrichelt
 62
     7
370
     0
100
AcDbLine
 10
246.4334844729
 20
90.3119061227
 30
0.0
 11
246.4334844729
 21
110.3119056757
 31
0.0
  0
LINE
  5
141
330
1F
100
AcDbEntity
  8
0
  6
SLD-Gestrichelt
 62
     7
370
     0
100
AcDbLine
 10
247.5334881922
 20
111.2056879179
 30
0.0
 11
246.6634838959
 21
111.7079826623
 31
0.0
  0
ARC
  5
142
330
1F
100
AcDbEntity
  8
0
  6
SLD-Gestrichelt
 62
     7
370
     0
100
AcDbCircle
 10
246.7234960234
 20
111.8119056887
 30
0.0
 40
0.1200060451705633
100
AcDbArc
 50
120.0050196731
 51
239.9949803269
  0
LINE
  5
143
330
1F
100
AcDbEntity
  8
0
  6
SLD-Gestrichelt
 62
     7
370
     0
100
AcDbLine
 10
246.6634838959
 20
111.9158287152
 30
0.0
 11
247.5334881922
 21
112.4181233432
 31
0.0
  0
LINE
  5
144
330
1F
100
AcDbEntity
  8
0
  6
SLD-Gestrichelt
 62
     7
370
     0
100
AcDbLine
 10
247.5334881922
 20
112.4181233432
 30
0.0
 11
247.5334881922
 21
112.7056878145
 31
0.0
  0
LINE
  5
145
330
1F
100
AcDbEntity
  8
0
  6
SLD-Gestrichelt
 62
     7
370
     0
100
AcDbLine
 10
247.5334881922
 20
112.7056878145
 30
0.0
 11
246.6634838959
 21
113.2079826753
 31
0.0
  0
ARC
  5
146
330
1F
100
AcDbEntity
  8
0
  6
SLD-Gestrichelt
 62
     7
370
     0
100
AcDbCircle
 10
246.7234915432
 20
113.3119057018
 30
0.0
 40
0.1200038048241473
100
AcDbArc
 50
120.0031673033
 51
239.9968326967
  0
LINE
  5
147
330
1F
100
AcDbEntity
  8
0
  6
SLD-Gestrichelt
 62
     7
370
     0
100
AcDbLine
 10
246.6634838959
 20
113.4158287283
 30
0.0
 11
247.5334881922
 21
113.9181233562
 31
0.0
  0
LINE
  5
148
330
1F
100
AcDbEntity
  8
0
  6
SLD-Gestrichelt
 62
     7
370
     0
100
AcDbLine
 10
247.5334881922
 20
113.9181233562
 30
0.0
 11
247.5334881922
 21
114.2056878276
 31
0.0
  0
LINE
  5
149
330
1F
100
AcDbEntity
  8
0
  6
SLD-Gestrichelt
 62
     7
370
     0
100
AcDbLine
 10
247.5334881922
 20
114.2056878276
 30
0.0
 11
246.6634838959
 21
114.7079824555
 31
0.0
  0
ARC
  5
14A
330
1F
100
AcDbEntity
  8
0
  6
SLD-Gestrichelt
 62
     7
370
     0
100
AcDbCircle
 10
246.7234899445
 20
114.811905482
 30
0.0
 40
0.1200030053918086
100
AcDbArc
 50
120.0025062724
 51
239.9974937276
  0
LINE
  5
14B
330
1F
100
AcDbEntity
  8
0
  6
SLD-Gestrichelt
 62
     7
370
     0
100
AcDbLine
 10
246.6634838959
 20
114.9158285085
 30
0.0
 11
247.5334881922
 21
115.4181233692
 31
0.0
  0
LINE
  5
14C
330
1F
100
AcDbEntity
  8
0
  6
SLD-Gestrichelt
 62
     7
370
     0
100
AcDbLine
 10
247.5334881922
 20
115.4181233692
 30
0.0
 11
247.5334881922
 21
115.7056878406
 31
0.0
  0
LINE
  5
14D
330
1F
100
AcDbEntity
  8
0
  6
SLD-Gestrichelt
 62
     7
370
     0
100
AcDbLine
 10
247.5334881922
 20
115.7056878406
 30
0.0
 11
246.6634838959
 21
116.2079827014
 31
0.0
  0
ARC
  5
14E
330
1F
100
AcDbEntity
  8
0
  6
SLD-Gestrichelt
 62
     7
370
     0
100
AcDbCircle
 10
246.7234946735
 20
116.3119057279
 30
0.0
 40
0.1200053701277321
100
AcDbArc
 50
120.0044615504
 51
239.9955384496
  0
LINE
  5
14F
330
1F
100
AcDbEntity
  8
0
  6
SLD-Gestrichelt
 62
     7
370
     0
100
AcDbLine
 10
246.6634838959
 20
116.4158287543
 30
0.0
 11
247.5334881922
 21
116.9181236151
 31
0.0
  0
LINE
  5
150
330
1F
100
AcDbEntity
  8
0
  6
SLD-Gestrichelt
 62
     7
370
     0
100
AcDbLine
 10
247.5334881922
 20
116.9181236151
 30
0.0
 11
247.5334881922
 21
117.2056880865
 31
0.0
  0
LINE
  5
151
330
1F
100
AcDbEntity
  8
0
  6
SLD-Gestrichelt
 62
     7
370
     0
100
AcDbLine
 10
247.5334881922
 20
117.2056880865
 30
0.0
 11
246.6634838959
 21
117.7079824816
 31
0.0
  0
ARC
  5
152
330
1F
100
AcDbEntity
  8
0
  6
SLD-Gestrichelt
 62
     7
370
     0
100
AcDbCircle
 10
246.7234897497
 20
117.8119055081
 30
0.0
 40
0.1200029079831505
100
AcDbArc
 50
120.0024257261
 51
239.9975742739
  0
LINE
  5
153
330
1F
100
AcDbEntity
  8
0
  6
SLD-Gestrichelt
 62
     7
370
     0
100
AcDbLine
 10
246.6634838959
 20
117.9158285345
 30
0.0
 11
247.5334881922
 21
118.4181233953
 31
0.0
  0
LINE
  5
154
330
1F
100
AcDbEntity
  8
0
  6
SLD-Gestrichelt
 62
     7
370
     0
100
AcDbLine
 10
247.5334881922
 20
118.4181233953
 30
0.0
 11
247.5334881922
 21
118.7056878667
 31
0.0
  0
LINE
  5
155
330
1F
100
AcDbEntity
  8
0
  6
SLD-Gestrichelt
 62
     7
370
     0
100
AcDbLine
 10
247.5334881922
 20
118.7056878667
 30
0.0
 11
246.6634838959
 21
119.2079827275
 31
0.0
  0
ARC
  5
156
330
1F
100
AcDbEntity
  8
0
  6
SLD-Gestrichelt
 62
     7
370
     0
100
AcDbCircle
 10
246.7234934745
 20
119.3119057539
 30
0.0
 40
0.1200047705601124
100
AcDbArc
 50
120.0039658171
 51
239.9960341829
  0
LINE
  5
157
330
1F
100
AcDbEntity
  8
0
  6
SLD-Gestrichelt
 62
     7
370
     0
100
AcDbLine
 10
246.6634838959
 20
119.4158287804
 30
0.0
 11
247.5334881922
 21
119.9181236412
 31
0.0
  0
LINE
  5
158
330
1F
100
AcDbEntity
  8
0
  6
SLD-Gestrichelt
 62
     7
370
     0
100
AcDbLine
 10
247.5334881922
 20
119.9181236412
 30
0.0
 11
247.5334881922
 21
120.2056881126
 31
0.0
  0
LINE
  5
159
330
1F
100
AcDbEntity
  8
0
  6
SLD-Gestrichelt
 62
     7
370
     0
100
AcDbLine
 10
247.5334881922
 20
120.2056881126
 30
0.0
 11
246.6634838959
 21
120.7079829733
 31
0.0
  0
ARC
  5
15A
330
1F
100
AcDbEntity
  8
0
  6
SLD-Gestrichelt
 62
     7
370
     0
100
AcDbCircle
 10
246.7234898515
 20
120.8119059998
 30
0.0
 40
0.1200029588950576
100
AcDbArc
 50
120.0024678247
 51
239.9975321753
  0
LINE
  5
15B
330
1F
100
AcDbEntity
  8
0
  6
SLD-Gestrichelt
 62
     7
370
     0
100
AcDbLine
 10
246.6634838959
 20
120.9158290263
 30
0.0
 11
247.5334881922
 21
121.4181238871
 31
0.0
  0
LINE
  5
15C
330
1F
100
AcDbEntity
  8
0
  6
SLD-Gestrichelt
 62
     7
370
     0
100
AcDbLine
 10
247.5334881922
 20
121.4181238871
 30
0.0
 11
247.5334881922
 21
121.7056883584
 31
0.0
  0
LINE
  5
15D
330
1F
100
AcDbEntity
  8
0
  6
SLD-Gestrichelt
 62
     7
370
     0
100
AcDbLine
 10
247.5334881922
 20
121.7056883584
 30
0.0
 11
246.6634838959
 21
122.2079822879
 31
0.0
  0
ARC
  5
15E
330
1F
100
AcDbEntity
  8
0
  6
SLD-Gestrichelt
 62
     7
370
     0
100
AcDbCircle
 10
246.7234942808
 20
122.3119053144
 30
0.0
 40
0.1200051737503242
100
AcDbArc
 50
120.0042991834
 51
239.9957008166
  0
LINE
  5
15F
330
1F
100
AcDbEntity
  8
0
  6
SLD-Gestrichelt
 62
     7
370
     0
100
AcDbLine
 10
246.6634838959
 20
122.4158283408
 30
0.0
 11
247.5334881922
 21
122.9181232016
 31
0.0
  0
LINE
  5
160
330
1F
100
AcDbEntity
  8
0
  6
SLD-Gestrichelt
 62
     7
370
     0
100
AcDbLine
 10
247.5334881922
 20
122.9181232016
 30
0.0
 11
247.5334881922
 21
123.205687673
 31
0.0
  0
LINE
  5
161
330
1F
100
AcDbEntity
  8
0
  6
SLD-Gestrichelt
 62
     7
370
     0
100
AcDbLine
 10
247.5334881922
 20
123.205687673
 30
0.0
 11
246.6634838959
 21
123.7079825338
 31
0.0
  0
ARC
  5
162
330
1F
100
AcDbEntity
  8
0
  6
SLD-Gestrichelt
 62
     7
370
     0
100
AcDbCircle
 10
246.7234897954
 20
123.8119055602
 30
0.0
 40
0.1200029308130059
100
AcDbArc
 50
120.0024446039
 51
239.9975553961
  0
LINE
  5
163
330
1F
100
AcDbEntity
  8
0
  6
SLD-Gestrichelt
 62
     7
370
     0
100
AcDbLine
 10
246.6634838959
 20
123.9158285867
 30
0.0
 11
247.5334881922
 21
124.4181234475
 31
0.0
  0
LINE
  5
164
330
1F
100
AcDbEntity
  8
0
  6
SLD-Gestrichelt
 62
     7
370
     0
100
AcDbLine
 10
247.5334881922
 20
124.4181234475
 30
0.0
 11
247.5334881922
 21
124.7056879188
 31
0.0
  0
LINE
  5
165
330
1F
100
AcDbEntity
  8
0
  6
SLD-Gestrichelt
 62
     7
370
     0
100
AcDbLine
 10
247.5334881922
 20
124.7056879188
 30
0.0
 11
246.6634838959
 21
125.2079827796
 31
0.0
  0
ARC
  5
166
330
1F
100
AcDbEntity
  8
0
  6
SLD-Gestrichelt
 62
     7
370
     0
100
AcDbCircle
 10
246.7234890774
 20
125.3119058061
 30
0.0
 40
0.1200025718257361
100
AcDbArc
 50
120.0021477581
 51
239.9978522419
  0
LINE
  5
167
330
1F
100
AcDbEntity
  8
0
  6
SLD-Gestrichelt
 62
     7
370
     0
100
AcDbLine
 10
246.6634838959
 20
125.4158288326
 30
0.0
 11
247.5334881922
 21
125.9181236933
 31
0.0
  0
LINE
  5
168
330
1F
100
AcDbEntity
  8
0
  6
SLD-Gestrichelt
 62
     7
370
     0
100
AcDbLine
 10
247.5334881922
 20
125.9181236933
 30
0.0
 11
247.5334881922
 21
126.2056872334
 31
0.0
  0
LINE
  5
169
330
1F
100
AcDbEntity
  8
0
  6
SLD-Gestrichelt
 62
     7
370
     0
100
AcDbLine
 10
247.5334881922
 20
126.2056872334
 30
0.0
 11
246.6634838959
 21
126.7079830255
 31
0.0
  0
LWPOLYLINE
  5
16A
330
1F
100
AcDbEntity
  8
0
  6
SLD-Gestrichelt
 62
     7
370
     0
100
AcDbPolyline
 90
       10
 70
   128
 43
0.0
 10
246.6634838959
 20
126.7079830255
 10
246.6549753328
 20
126.7133865591
 10
246.6394930264
 20
126.7262015577
 10
246.6287120362
 20
126.7383013006
 10
246.6198383947
 20
126.7514329489
 10
246.6112702271
 20
126.7693925734
 10
246.6045125505
 20
126.79623329
 10
246.6070680996
 20
126.840987065
 10
246.6511308333
 20
126.907639959
 10
246.6634838959
 20
126.9158281471
  0
LINE
  5
16B
330
1F
100
AcDbEntity
  8
0
  6
SLD-Gestrichelt
 62
     7
370
     0
100
AcDbLine
 10
246.6634838959
 20
126.9158281471
 30
0.0
 11
247.5334881922
 21
127.4181239392
 31
0.0
  0
LINE
  5
16C
330
1F
100
AcDbEntity
  8
0
  6
SLD-Gestrichelt
 62
     7
370
     0
100
AcDbLine
 10
247.5334881922
 20
127.4181239392
 30
0.0
 11
247.5334881922
 21
127.7056884106
 31
0.0
  0
LINE
  5
16D
330
1F
100
AcDbEntity
  8
0
  6
SLD-Gestrichelt
 62
     7
370
     0
100
AcDbLine
 10
247.5334881922
 20
127.7056884106
 30
0.0
 11
246.6634838959
 21
128.20798234
 31
0.0
  0
LWPOLYLINE
  5
16E
330
1F
100
AcDbEntity
  8
0
  6
SLD-Gestrichelt
 62
     7
370
     0
100
AcDbPolyline
 90
        9
 70
   128
 43
0.0
 10
246.6634838959
 20
128.20798234
 10
246.6501697084
 20
128.2169099982
 10
246.6406255146
 20
128.2251056369
 10
246.6313346406
 20
128.2350465741
 10
246.6241969844
 20
128.2445199873
 10
246.6161354562
 20
128.2582756217
 10
246.6077982565
 20
128.2800313171
 10
246.6047956725
 20
128.3295795407
 10
246.6634838959
 20
128.4158293243
  0
LWPOLYLINE
  5
16F
330
1F
100
AcDbEntity
  8
0
  6
SLD-Gestrichelt
 62
     7
370
     0
100
AcDbPolyline
 90
        3
 70
   128
 43
0.0
 10
246.6634838959
 20
128.4158293243
 10
247.1803381225
 20
128.7142343904
 10
247.5334881922
 20
128.9181232538
  0
LINE
  5
170
330
1F
100
AcDbEntity
  8
0
  6
SLD-Gestrichelt
 62
     7
370
     0
100
AcDbLine
 10
247.5334881922
 20
128.9181232538
 30
0.0
 11
247.5334881922
 21
129.2056877251
 31
0.0
  0
LWPOLYLINE
  5
171
330
1F
100
AcDbEntity
  8
0
  6
SLD-Gestrichelt
 62
     7
370
     0
100
AcDbPolyline
 90
        4
 70
   128
 43
0.0
 10
247.5334881922
 20
129.2056877251
 10
247.3251103541
 20
129.3259959753
 10
246.8888565084
 20
129.5778628524
 10
246.6634838959
 20
129.7079835172
  0
LWPOLYLINE
  5
172
330
1F
100
AcDbEntity
  8
0
  6
SLD-Gestrichelt
 62
     7
370
     0
100
AcDbPolyline
 90
       12
 70
   128
 43
0.0
 10
246.6634838959
 20
129.7079835172
 10
246.6577916523
 20
129.7114852901
 10
246.6516449233
 20
129.7157880004
 10
246.6440676828
 20
129.7219477679
 10
246.6398357531
 20
129.7258704986
 10
246.6355442186
 20
129.7302588906
 10
246.632020094
 20
129.7342244621
 10
246.6271623155
 20
129.7403432514
 10
246.6192050954
 20
129.7525324013
 10
246.6071947595
 20
129.7823086466
 10
246.6091840645
 20
129.8484288241
 10
246.6634838959
 20
129.9158286388
  0
LWPOLYLINE
  5
173
330
1F
100
AcDbEntity
  8
0
  6
SLD-Gestrichelt
 62
     7
370
     0
100
AcDbPolyline
 90
        3
 70
   128
 43
0.0
 10
246.6634838959
 20
129.9158286388
 10
246.7687755009
 20
129.9766160633
 10
246.7682986637
 20
129.9763422545
  0
LINE
  5
174
330
1F
100
AcDbEntity
  8
0
  6
SLD-Gestrichelt
 62
     7
370
     0
100
AcDbLine
 10
246.7682986637
 20
90.647469097
 30
0.0
 11
246.6634838959
 21
90.7079827126
 31
0.0
  0
LWPOLYLINE
  5
175
330
1F
100
AcDbEntity
  8
0
  6
SLD-Gestrichelt
 62
     7
370
     0
100
AcDbPolyline
 90
       12
 70
   128
 43
0.0
 10
246.6634838959
 20
90.7079827126
 10
246.6503038188
 20
90.7168042
 10
246.60437844
 20
90.8264972355
 10
246.6177522322
 20
90.8686488952
 10
246.624025621
 20
90.8790443178
 10
246.6281755944
 20
90.8848166551
 10
246.632891812
 20
90.8906020309
 10
246.6367884656
 20
90.8948674883
 10
246.6410203954
 20
90.8990752037
 10
246.6458558222
 20
90.9034114416
 10
246.6528295656
 20
90.9088969316
 10
246.6634838959
 20
90.9158278342
  0
LWPOLYLINE
  5
176
330
1F
100
AcDbEntity
  8
0
  6
SLD-Gestrichelt
 62
     7
370
     0
100
AcDbPolyline
 90
        4
 70
   128
 43
0.0
 10
246.6634838959
 20
90.9158278342
 10
247.1609889647
 20
91.2030607547
 10
247.4757759949
 20
91.3848046299
 10
247.5334881922
 20
91.4181236263
  0
LINE
  5
177
330
1F
100
AcDbEntity
  8
0
  6
SLD-Gestrichelt
 62
     7
370
     0
100
AcDbLine
 10
247.5334881922
 20
91.4181236263
 30
0.0
 11
247.5334881922
 21
91.7056880977
 31
0.0
  0
LWPOLYLINE
  5
178
330
1F
100
AcDbEntity
  8
0
  6
SLD-Gestrichelt
 62
     7
370
     0
100
AcDbPolyline
 90
        3
 70
   128
 43
0.0
 10
247.5334881922
 20
91.7056880977
 10
247.1833705088
 20
91.9078279372
 10
246.6634838959
 20
92.2079820271
  0
ARC
  5
179
330
1F
100
AcDbEntity
  8
0
  6
SLD-Gestrichelt
 62
     7
370
     0
100
AcDbCircle
 10
246.7234983034
 20
92.3119055192
 30
0.0
 40
0.1200075886402461
100
AcDbArc
 50
120.0058511847
 51
239.9941488153
  0
LINE
  5
17A
330
1F
100
AcDbEntity
  8
0
  6
SLD-Gestrichelt
 62
     7
370
     0
100
AcDbLine
 10
246.6634838959
 20
92.4158290114
 30
0.0
 11
247.5334881922
 21
92.9181229408
 31
0.0
  0
LINE
  5
17B
330
1F
100
AcDbEntity
  8
0
  6
SLD-Gestrichelt
 62
     7
370
     0
100
AcDbLine
 10
247.5334881922
 20
92.9181229408
 30
0.0
 11
247.5334881922
 21
93.2056874122
 31
0.0
  0
LINE
  5
17C
330
1F
100
AcDbEntity
  8
0
  6
SLD-Gestrichelt
 62
     7
370
     0
100
AcDbLine
 10
247.5334881922
 20
93.2056874122
 30
0.0
 11
246.6634838959
 21
93.7079832043
 31
0.0
  0
LWPOLYLINE
  5
17D
330
1F
100
AcDbEntity
  8
0
  6
SLD-Gestrichelt
 62
     7
370
     0
100
AcDbPolyline
 90
       10
 70
   128
 43
0.0
 10
246.6634838959
 20
93.7079832043
 10
246.6084837099
 20
93.7776386823
 10
246.6039016029
 20
93.8219081696
 10
246.6069861432
 20
93.840655693
 10
246.6146080872
 20
93.8623573716
 10
246.6227888247
 20
93.8771728511
 10
246.6340317508
 20
93.8918933358
 10
246.6453938862
 20
93.9030151899
 10
246.6617553612
 20
93.9148075964
 10
246.6634838959
 20
93.9158283259
  0
LINE
  5
17E
330
1F
100
AcDbEntity
  8
0
  6
SLD-Gestrichelt
 62
     7
370
     0
100
AcDbLine
 10
246.6634838959
 20
93.9158283259
 30
0.0
 11
247.5334881922
 21
94.418124118
 31
0.0
  0
LINE
  5
17F
330
1F
100
AcDbEntity
  8
0
  6
SLD-Gestrichelt
 62
     7
370
     0
100
AcDbLine
 10
247.5334881922
 20
94.418124118
 30
0.0
 11
247.5334881922
 21
94.7056876581
 31
0.0
  0
LINE
  5
180
330
1F
100
AcDbEntity
  8
0
  6
SLD-Gestrichelt
 62
     7
370
     0
100
AcDbLine
 10
247.5334881922
 20
94.7056876581
 30
0.0
 11
246.6634838959
 21
95.2079825188
 31
0.0
  0
LWPOLYLINE
  5
181
330
1F
100
AcDbEntity
  8
0
  6
SLD-Gestrichelt
 62
     7
370
     0
100
AcDbPolyline
 90
        9
 70
   128
 43
0.0
 10
246.6634838959
 20
95.2079825188
 10
246.6112106224
 20
95.2695438724
 10
246.6042219778
 20
95.3251866709
 10
246.6100185295
 20
95.3509647484
 10
246.6183631798
 20
95.3697821211
 10
246.6310366174
 20
95.3884067099
 10
246.6440527817
 20
95.4018494199
 10
246.6630592128
 20
95.415578046
 10
246.6634838959
 20
95.4158285718
  0
LINE
  5
182
330
1F
100
AcDbEntity
  8
0
  6
SLD-Gestrichelt
 62
     7
370
     0
100
AcDbLine
 10
246.6634838959
 20
95.4158285718
 30
0.0
 11
247.5334881922
 21
95.9181234326
 31
0.0
  0
LINE
  5
183
330
1F
100
AcDbEntity
  8
0
  6
SLD-Gestrichelt
 62
     7
370
     0
100
AcDbLine
 10
247.5334881922
 20
95.9181234326
 30
0.0
 11
247.5334881922
 21
96.2056879039
 31
0.0
  0
LINE
  5
184
330
1F
100
AcDbEntity
  8
0
  6
SLD-Gestrichelt
 62
     7
370
     0
100
AcDbLine
 10
247.5334881922
 20
96.2056879039
 30
0.0
 11
246.6634838959
 21
96.7079827647
 31
0.0
  0
ARC
  5
185
330
1F
100
AcDbEntity
  8
0
  6
SLD-Gestrichelt
 62
     7
370
     0
100
AcDbCircle
 10
246.7234921973
 20
96.8119057912
 30
0.0
 40
0.1200041318836633
100
AcDbArc
 50
120.0034377344
 51
239.9965622656
  0
LINE
  5
186
330
1F
100
AcDbEntity
  8
0
  6
SLD-Gestrichelt
 62
     7
370
     0
100
AcDbLine
 10
246.6634838959
 20
96.9158288177
 30
0.0
 11
247.5334881922
 21
97.4181236784
 31
0.0
  0
LINE
  5
187
330
1F
100
AcDbEntity
  8
0
  6
SLD-Gestrichelt
 62
     7
370
     0
100
AcDbLine
 10
247.5334881922
 20
97.4181236784
 30
0.0
 11
247.5334881922
 21
97.7056881498
 31
0.0
  0
LINE
  5
188
330
1F
100
AcDbEntity
  8
0
  6
SLD-Gestrichelt
 62
     7
370
     0
100
AcDbLine
 10
247.5334881922
 20
97.7056881498
 30
0.0
 11
246.6634838959
 21
98.2079830106
 31
0.0
  0
ARC
  5
189
330
1F
100
AcDbEntity
  8
0
  6
SLD-Gestrichelt
 62
     7
370
     0
100
AcDbCircle
 10
246.7234966474
 20
98.3119060371
 30
0.0
 40
0.1200063572134779
100
AcDbArc
 50
120.0052776637
 51
239.9947223363
  0
LINE
  5
18A
330
1F
100
AcDbEntity
  8
0
  6
SLD-Gestrichelt
 62
     7
370
     0
100
AcDbLine
 10
246.6634838959
 20
98.4158290635
 30
0.0
 11
247.5334881922
 21
98.918122993
 31
0.0
  0
LINE
  5
18B
330
1F
100
AcDbEntity
  8
0
  6
SLD-Gestrichelt
 62
     7
370
     0
100
AcDbLine
 10
247.5334881922
 20
98.918122993
 30
0.0
 11
247.5334881922
 21
99.2056874644
 31
0.0
  0
LINE
  5
18C
330
1F
100
AcDbEntity
  8
0
  6
SLD-Gestrichelt
 62
     7
370
     0
100
AcDbLine
 10
247.5334881922
 20
99.2056874644
 30
0.0
 11
246.6634838959
 21
99.7079823251
 31
0.0
  0
ARC
  5
18D
330
1F
100
AcDbEntity
  8
0
  6
SLD-Gestrichelt
 62
     7
370
     0
100
AcDbCircle
 10
246.723494207
 20
99.8119053516
 30
0.0
 40
0.1200051368591423
100
AcDbArc
 50
120.0042686812
 51
239.9957313188
  0
LINE
  5
18E
330
1F
100
AcDbEntity
  8
0
  6
SLD-Gestrichelt
 62
     7
370
     0
100
AcDbLine
 10
246.6634838959
 20
99.9158283781
 30
0.0
 11
247.5334881922
 21
100.4181232389
 31
0.0
  0
LINE
  5
18F
330
1F
100
AcDbEntity
  8
0
  6
SLD-Gestrichelt
 62
     7
370
     0
100
AcDbLine
 10
247.5334881922
 20
100.4181232389
 30
0.0
 11
247.5334881922
 21
100.7056877102
 31
0.0
  0
LINE
  5
190
330
1F
100
AcDbEntity
  8
0
  6
SLD-Gestrichelt
 62
     7
370
     0
100
AcDbLine
 10
247.5334881922
 20
100.7056877102
 30
0.0
 11
246.6634838959
 21
101.207982571
 31
0.0
  0
ARC
  5
191
330
1F
100
AcDbEntity
  8
0
  6
SLD-Gestrichelt
 62
     7
370
     0
100
AcDbCircle
 10
246.7234911561
 20
101.3119055975
 30
0.0
 40
0.1200036112295133
100
AcDbArc
 50
120.0030072267
 51
239.9969927733
  0
LINE
  5
192
330
1F
100
AcDbEntity
  8
0
  6
SLD-Gestrichelt
 62
     7
370
     0
100
AcDbLine
 10
246.6634838959
 20
101.4158286239
 30
0.0
 11
247.5334881922
 21
101.9181234847
 31
0.0
  0
LINE
  5
193
330
1F
100
AcDbEntity
  8
0
  6
SLD-Gestrichelt
 62
     7
370
     0
100
AcDbLine
 10
247.5334881922
 20
101.9181234847
 30
0.0
 11
247.5334881922
 21
102.2056879561
 31
0.0
  0
LINE
  5
194
330
1F
100
AcDbEntity
  8
0
  6
SLD-Gestrichelt
 62
     7
370
     0
100
AcDbLine
 10
247.5334881922
 20
102.2056879561
 30
0.0
 11
246.6634838959
 21
102.7079828169
 31
0.0
  0
ARC
  5
195
330
1F
100
AcDbEntity
  8
0
  6
SLD-Gestrichelt
 62
     7
370
     0
100
AcDbCircle
 10
246.7234871362
 20
102.8119058433
 30
0.0
 40
0.1200016011567028
100
AcDbArc
 50
120.0013450917
 51
239.9986549083
  0
LINE
  5
196
330
1F
100
AcDbEntity
  8
0
  6
SLD-Gestrichelt
 62
     7
370
     0
100
AcDbLine
 10
246.6634838959
 20
102.9158288698
 30
0.0
 11
247.5334881922
 21
103.4181232649
 31
0.0
  0
LINE
  5
197
330
1F
100
AcDbEntity
  8
0
  6
SLD-Gestrichelt
 62
     7
370
     0
100
AcDbLine
 10
247.5334881922
 20
103.4181232649
 30
0.0
 11
247.5334881922
 21
103.7056877363
 31
0.0
  0
LINE
  5
198
330
1F
100
AcDbEntity
  8
0
  6
SLD-Gestrichelt
 62
     7
370
     0
100
AcDbLine
 10
247.5334881922
 20
103.7056877363
 30
0.0
 11
246.6634838959
 21
104.2079825971
 31
0.0
  0
ARC
  5
199
330
1F
100
AcDbEntity
  8
0
  6
SLD-Gestrichelt
 62
     7
370
     0
100
AcDbCircle
 10
246.7234899915
 20
104.3119056236
 30
0.0
 40
0.1200030288758809
100
AcDbArc
 50
120.0025256911
 51
239.9974743089
  0
LINE
  5
19A
330
1F
100
AcDbEntity
  8
0
  6
SLD-Gestrichelt
 62
     7
370
     0
100
AcDbLine
 10
246.6634838959
 20
104.41582865
 30
0.0
 11
247.5334881922
 21
104.9181235108
 31
0.0
  0
LINE
  5
19B
330
1F
100
AcDbEntity
  8
0
  6
SLD-Gestrichelt
 62
     7
370
     0
100
AcDbLine
 10
247.5334881922
 20
104.9181235108
 30
0.0
 11
247.5334881922
 21
105.2056879822
 31
0.0
  0
LINE
  5
19C
330
1F
100
AcDbEntity
  8
0
  6
SLD-Gestrichelt
 62
     7
370
     0
100
AcDbLine
 10
247.5334881922
 20
105.2056879822
 30
0.0
 11
246.6634838959
 21
105.7079828429
 31
0.0
  0
ARC
  5
19D
330
1F
100
AcDbEntity
  8
0
  6
SLD-Gestrichelt
 62
     7
370
     0
100
AcDbCircle
 10
246.7234900968
 20
105.8119058694
 30
0.0
 40
0.1200030815348615
100
AcDbArc
 50
120.0025692341
 51
239.9974307659
  0
LINE
  5
19E
330
1F
100
AcDbEntity
  8
0
  6
SLD-Gestrichelt
 62
     7
370
     0
100
AcDbLine
 10
246.6634838959
 20
105.9158288959
 30
0.0
 11
247.5334881922
 21
106.4181235238
 31
0.0
  0
LINE
  5
19F
330
1F
100
AcDbEntity
  8
0
  6
SLD-Gestrichelt
 62
     7
370
     0
100
AcDbLine
 10
247.5334881922
 20
106.4181235238
 30
0.0
 11
247.5334881922
 21
106.7056879952
 31
0.0
  0
LINE
  5
1A0
330
1F
100
AcDbEntity
  8
0
  6
SLD-Gestrichelt
 62
     7
370
     0
100
AcDbLine
 10
247.5334881922
 20
106.7056879952
 30
0.0
 11
246.6634838959
 21
107.2079826232
 31
0.0
  0
ARC
  5
1A1
330
1F
100
AcDbEntity
  8
0
  6
SLD-Gestrichelt
 62
     7
370
     0
100
AcDbCircle
 10
246.7234878564
 20
107.3119056496
 30
0.0
 40
0.1200019612808991
100
AcDbArc
 50
120.0016428897
 51
239.9983571103
  0
LINE
  5
1A2
330
1F
100
AcDbEntity
  8
0
  6
SLD-Gestrichelt
 62
     7
370
     0
100
AcDbLine
 10
246.6634838959
 20
107.4158286761
 30
0.0
 11
247.5334881922
 21
107.9181235369
 31
0.0
  0
LINE
  5
1A3
330
1F
100
AcDbEntity
  8
0
  6
SLD-Gestrichelt
 62
     7
370
     0
100
AcDbLine
 10
247.5334881922
 20
107.9181235369
 30
0.0
 11
247.5334881922
 21
108.2056880082
 31
0.0
  0
LINE
  5
1A4
330
1F
100
AcDbEntity
  8
0
  6
SLD-Gestrichelt
 62
     7
370
     0
100
AcDbLine
 10
247.5334881922
 20
108.2056880082
 30
0.0
 11
246.6634838959
 21
108.7079826362
 31
0.0
  0
ARC
  5
1A5
330
1F
100
AcDbEntity
  8
0
  6
SLD-Gestrichelt
 62
     7
370
     0
100
AcDbCircle
 10
246.7234925454
 20
108.8119056627
 30
0.0
 40
0.1200043059313803
100
AcDbArc
 50
120.0035816452
 51
239.9964183548
  0
LINE
  5
1A6
330
1F
100
AcDbEntity
  8
0
  6
SLD-Gestrichelt
 62
     7
370
     0
100
AcDbLine
 10
246.6634838959
 20
108.9158286891
 30
0.0
 11
247.5334881922
 21
109.4181234335
 31
0.0
  0
LINE
  5
1A7
330
1F
100
AcDbEntity
  8
0
  6
SLD-Gestrichelt
 62
     7
370
     0
100
AcDbLine
 10
247.5334881922
 20
109.4181234335
 30
0.0
 11
247.5334881922
 21
109.7056879049
 31
0.0
  0
LINE
  5
1A8
330
1F
100
AcDbEntity
  8
0
  6
SLD-Gestrichelt
 62
     7
370
     0
100
AcDbLine
 10
247.5334881922
 20
109.7056879049
 30
0.0
 11
246.6634838959
 21
110.2079826274
 31
0.0
  0
ARC
  5
1A9
330
1F
100
AcDbEntity
  8
0
  6
SLD-Gestrichelt
 62
     7
370
     0
100
AcDbCircle
 10
246.7234912061
 20
110.3119056757
 30
0.0
 40
0.1200036551233032
100
AcDbArc
 50
120.0030226795
 51
239.9969773205
  0
LINE
  5
1AA
330
1F
100
AcDbEntity
  8
0
  6
SLD-Gestrichelt
 62
     7
370
     0
100
AcDbLine
 10
246.6634838959
 20
110.415828724
 30
0.0
 11
247.5334881922
 21
110.9181234465
 31
0.0
  0
LINE
  5
1AB
330
1F
100
AcDbEntity
  8
0
  6
SLD-Gestrichelt
 62
     7
370
     0
100
AcDbLine
 10
247.5334881922
 20
110.9181234465
 30
0.0
 11
247.5334881922
 21
111.2056879179
 31
0.0
  0
LINE
  5
1AC
330
1F
100
AcDbEntity
  8
0
  6
SLD-Gestrichelt
 62
     7
370
     0
100
AcDbLine
 10
110.6637149235
 20
94.9989546176
 30
0.0
 11
110.6637149235
 21
125.6248567339
 31
0.0
  0
LINE
  5
1AD
330
1F
100
AcDbEntity
  8
0
  6
SLD-Gestrichelt
 62
     7
370
     0
100
AcDbLine
 10
109.1334886035
 20
94.1154759462
 30
0.0
 11
109.1334886035
 21
126.5083354052
 31
0.0
  0
LINE
  5
1AE
330
1F
100
AcDbEntity
  8
0
  6
SLD-Gestrichelt
 62
     7
370
     0
100
AcDbLine
 10
117.1637150576
 20
95.9654951553
 30
0.0
 11
117.1637150576
 21
124.6583161961
 31
0.0
  0
LINE
  5
1AF
330
1F
100
AcDbEntity
  8
0
  6
SLD-Gestrichelt
 62
     7
370
     0
100
AcDbLine
 10
144.9334873935
 20
93.8543759372
 30
0.0
 11
144.9334873935
 21
89.6918073382
 31
0.0
  0
LINE
  5
1B0
330
1F
100
AcDbEntity
  8
0
  6
SLD-Gestrichelt
 62
     7
370
     0
100
AcDbLine
 10
110.633487918
 20
94.60066148
 30
0.0
 11
110.633487918
 21
90.8149153079
 31
0.0
  0
LINE
  5
1B1
330
1F
100
AcDbEntity
  8
0
  6
SLD-Gestrichelt
 62
     7
370
     0
100
AcDbLine
 10
115.5834860285
 20
90.7056432303
 30
0.0
 11
110.633487918
 21
90.8149153079
 31
0.0
  0
ARC
  5
1B2
330
1F
100
AcDbEntity
  8
0
  6
SLD-Gestrichelt
 62
     7
370
     0
100
AcDbCircle
 10
122.458590164
 20
125.6682261886
 30
0.0
 40
35.6321380777843
100
AcDbArc
 50
258.8751984673
 51
261.9611156632
  0
LWPOLYLINE
  5
1B3
330
1F
100
AcDbEntity
  8
0
  6
SLD-Gestrichelt
 62
     7
370
     0
100
AcDbPolyline
 90
       10
 70
   128
 43
0.0
 10
128.4446484526
 20
90.220470735
 10
128.6812509527
 20
90.2337551202
 10
129.392868944
 20
90.2737051334
 10
130.7235519519
 20
90.3046771969
 10
132.218333066
 20
90.278300279
 10
133.6923885276
 20
90.1892025109
 10
134.9360301276
 20
90.0659959849
 10
135.7600708609
 20
89.9606019344
 10
136.0778092524
 20
89.91498948
 10
136.0539180344
 20
89.918474489
  0
LWPOLYLINE
  5
1B4
330
1F
100
AcDbEntity
  8
0
  6
SLD-Gestrichelt
 62
     7
370
     0
100
AcDbPolyline
 90
        5
 70
   128
 43
0.0
 10
127.4583480438
 20
90.1378586974
 10
127.4576737662
 20
90.1377935048
 10
127.8791680118
 20
90.1764825072
 10
128.0029370566
 20
90.1861105199
 10
128.4446484526
 20
90.220470735
  0
LINE
  5
1B5
330
1F
100
AcDbEntity
  8
0
  6
SLD-Gestrichelt
 62
     7
370
     0
100
AcDbLine
 10
146.9334873866
 20
93.5217037882
 30
0.0
 11
146.9334873866
 21
89.6700032141
 31
0.0
  0
LINE
  5
1B6
330
1F
100
AcDbEntity
  8
0
  6
SLD-Gestrichelt
 62
     7
370
     0
100
AcDbLine
 10
122.9637163808
 20
96.3119052436
 30
0.0
 11
122.9637163808
 21
124.3119061078
 31
0.0
  0
LINE
  5
1B7
330
1F
100
AcDbEntity
  8
0
  6
SLD-Gestrichelt
 62
     7
370
     0
100
AcDbLine
 10
115.5637159129
 20
96.3119052436
 30
0.0
 11
115.5637159129
 21
124.3119061078
 31
0.0
  0
LINE
  5
1B8
330
1F
100
AcDbEntity
  8
0
  6
SLD-Gestrichelt
 62
     7
370
     0
100
AcDbLine
 10
116.5637160768
 20
96.3119052436
 30
0.0
 11
116.5637160768
 21
124.3119061078
 31
0.0
  0
ARC
  5
1B9
330
1F
100
AcDbEntity
  8
0
  6
SLD-Gestrichelt
 62
     7
370
     0
100
AcDbCircle
 10
131.5398746168
 20
82.0298854021
 30
0.0
 40
14.87093752090167
100
AcDbArc
 50
74.0215351831
 51
105.4598151865
  0
LWPOLYLINE
  5
1BA
330
1F
100
AcDbEntity
  8
0
  6
SLD-Gestrichelt
 62
     7
370
     0
100
AcDbPolyline
 90
       22
 70
   128
 43
0.0
 10
135.6334873592
 20
124.2975236933
 10
135.532543168
 20
124.2689879696
 10
134.9826493417
 20
124.1254637103
 10
134.0584774619
 20
123.9309392955
 10
132.8308993136
 20
123.7666931089
 10
131.6334876349
 20
123.7133050423
 10
130.3250800004
 20
123.7770242702
 10
129.1648178478
 20
123.9387847568
 10
128.2479643007
 20
124.1343243133
 10
127.6982362499
 20
124.2791421797
 10
127.6299479534
 20
124.2985984396
 10
127.6022187551
 20
124.3064979177
 10
127.9360755464
 20
124.2140045475
 10
128.6596181919
 20
124.039301471
 10
129.736795195
 20
123.8468585621
 10
131.0468568584
 20
123.7261386673
 10
132.3819468846
 20
123.7341890197
 10
133.6030914565
 20
123.8572679545
 10
134.6392790904
 20
124.0462528627
 10
135.3730895673
 20
124.2252847265
 10
135.6334873592
 20
124.2975236933
 10
135.6334873592
 20
124.2975236933
  0
LWPOLYLINE
  5
1BB
330
1F
100
AcDbEntity
  8
0
  6
SLD-Gestrichelt
 62
     7
370
     0
100
AcDbPolyline
 90
        4
 70
   128
 43
0.0
 10
135.6334873592
 20
124.2975236933
 10
135.6613488054
 20
124.3044061671
 10
135.673704662
 20
124.3074581112
 10
135.6334873592
 20
124.2975236933
  0
LWPOLYLINE
  5
1BC
330
1F
100
AcDbEntity
  8
0
  6
SLD-Gestrichelt
 62
     7
370
     0
100
AcDbPolyline
 90
        4
 70
   128
 43
0.0
 10
135.6334873592
 20
96.3262876581
 10
135.6821461698
 20
96.3147290136
 10
135.683451884
 20
96.3144188832
 10
135.6334873592
 20
96.3262876581
  0
LINE
  5
1BD
330
1F
100
AcDbEntity
  8
0
  6
SLD-Gestrichelt
 62
     7
370
     0
100
AcDbLine
 10
136.1334874412
 20
96.8119053255
 30
0.0
 11
136.1334874412
 21
123.8119060259
 31
0.0
  0
LINE
  5
1BE
330
1F
100
AcDbEntity
  8
0
  6
SLD-Gestrichelt
 62
     7
370
     0
100
AcDbLine
 10
246.2334885379
 20
97.9124110277
 30
0.0
 11
246.2334885379
 21
102.912410916
 31
0.0
  0
LWPOLYLINE
  5
1BF
330
1F
100
AcDbEntity
  8
0
  6
SLD-Gestrichelt
 62
     7
370
     0
100
AcDbPolyline
 90
       10
 70
   128
 43
0.0
 10
246.6634838959
 20
102.7079828169
 10
246.610063233
 20
102.7727195147
 10
246.603543975
 20
102.8082839299
 10
246.6084539076
 20
102.8460695493
 10
246.6142057558
 20
102.8614806097
 10
246.6236307403
 20
102.8784553606
 10
246.6328769108
 20
102.8905793178
 10
246.6435237905
 20
102.9013826597
 10
246.657814004
 20
102.9123410668
 10
246.6634838959
 20
102.9158288698
  0
LINE
  5
1C0
330
1F
100
AcDbEntity
  8
0
  6
SLD-Gestrichelt
 62
     7
370
     0
100
AcDbLine
 10
247.5334881922
 20
101.9181234847
 30
0.0
 11
247.5334881922
 21
102.2056879561
 31
0.0
  0
ARC
  5
1C1
330
1F
100
AcDbEntity
  8
0
  6
SLD-Gestrichelt
 62
     7
370
     0
100
AcDbCircle
 10
246.7234915052
 20
101.3119055975
 30
0.0
 40
0.1200037857824693
100
AcDbArc
 50
120.0031515584
 51
239.9968484416
  0
LINE
  5
1C2
330
1F
100
AcDbEntity
  8
0
  6
SLD-Gestrichelt
 62
     7
370
     0
100
AcDbLine
 10
247.5334881922
 20
100.4181232389
 30
0.0
 11
247.5334881922
 21
100.7056877102
 31
0.0
  0
ARC
  5
1C3
330
1F
100
AcDbEntity
  8
0
  6
SLD-Gestrichelt
 62
     7
370
     0
100
AcDbCircle
 10
246.7234899225
 20
99.8119053516
 30
0.0
 40
0.1200029944088579
100
AcDbArc
 50
120.0024971907
 51
239.9975028093
  0
LINE
  5
1C4
330
1F
100
AcDbEntity
  8
0
  6
SLD-Gestrichelt
 62
     7
370
     0
100
AcDbLine
 10
247.5334881922
 20
98.918122993
 30
0.0
 11
247.5334881922
 21
99.2056874644
 31
0.0
  0
ARC
  5
1C5
330
1F
100
AcDbEntity
  8
0
  6
SLD-Gestrichelt
 62
     7
370
     0
100
AcDbCircle
 10
246.7234941155
 20
98.3119060371
 30
0.0
 40
0.1200050910906874
100
AcDbArc
 50
120.0042308391
 51
239.9957691609
  0
LINE
  5
1C6
330
1F
100
AcDbEntity
  8
0
  6
SLD-Gestrichelt
 62
     7
370
     0
100
AcDbLine
 10
247.5334881922
 20
97.4181236784
 30
0.0
 11
247.5334881922
 21
97.7056881498
 31
0.0
  0
LINE
  5
1C7
330
1F
100
AcDbEntity
  8
0
  6
SLD-Gestrichelt
 62
     7
370
     0
100
AcDbLine
 10
247.5334881922
 20
103.4181232649
 30
0.0
 11
247.5334881922
 21
103.7056877363
 31
0.0
  0
LINE
  5
1C8
330
1F
100
AcDbEntity
  8
0
  6
SLD-Gestrichelt
 62
     7
370
     0
100
AcDbLine
 10
247.5334881922
 20
97.7056881498
 30
0.0
 11
247.5334881922
 21
97.4181236784
 31
0.0
  0
LWPOLYLINE
  5
1C9
330
1F
100
AcDbEntity
  8
0
  6
SLD-Gestrichelt
 62
     7
370
     0
100
AcDbPolyline
 90
        6
 70
   128
 43
0.0
 10
247.5334881922
 20
97.4181236784
 10
247.2022428294
 20
97.2268793817
 10
247.0322429319
 20
97.1287282269
 10
247.0577537199
 20
97.1434580247
 10
247.2468196531
 20
97.2526146184
 10
247.5334881922
 20
97.4181236784
  0
LINE
  5
1CA
330
1F
100
AcDbEntity
  8
0
  6
SLD-Gestrichelt
 62
     7
370
     0
100
AcDbLine
 10
247.5334881922
 20
99.2056874644
 30
0.0
 11
247.5334881922
 21
98.918122993
 31
0.0
  0
ARC
  5
1CB
330
1F
100
AcDbEntity
  8
0
  6
SLD-Gestrichelt
 62
     7
370
     0
100
AcDbCircle
 10
246.7234936028
 20
98.3119060371
 30
0.0
 40
0.1200048347176279
100
AcDbArc
 50
120.0040188643
 51
239.9959811357
  0
LINE
  5
1CC
330
1F
100
AcDbEntity
  8
0
  6
SLD-Gestrichelt
 62
     7
370
     0
100
AcDbLine
 10
247.5334881922
 20
100.7056877102
 30
0.0
 11
247.5334881922
 21
100.4181232389
 31
0.0
  0
ARC
  5
1CD
330
1F
100
AcDbEntity
  8
0
  6
SLD-Gestrichelt
 62
     7
370
     0
100
AcDbCircle
 10
246.7234939882
 20
99.8119053516
 30
0.0
 40
0.1200050274629211
100
AcDbArc
 50
120.0041782305
 51
239.9958217695
  0
LINE
  5
1CE
330
1F
100
AcDbEntity
  8
0
  6
SLD-Gestrichelt
 62
     7
370
     0
100
AcDbLine
 10
247.5334881922
 20
102.2056879561
 30
0.0
 11
247.5334881922
 21
101.9181234847
 31
0.0
  0
ARC
  5
1CF
330
1F
100
AcDbEntity
  8
0
  6
SLD-Gestrichelt
 62
     7
370
     0
100
AcDbCircle
 10
246.7234964089
 20
101.3119055975
 30
0.0
 40
0.1200062379700256
100
AcDbArc
 50
120.0051790761
 51
239.9948209239
  0
LINE
  5
1D0
330
1F
100
AcDbEntity
  8
0
  6
SLD-Gestrichelt
 62
     7
370
     0
100
AcDbLine
 10
247.5334881922
 20
103.7056877363
 30
0.0
 11
247.5334881922
 21
103.4181232649
 31
0.0
  0
LWPOLYLINE
  5
1D1
330
1F
100
AcDbEntity
  8
0
  6
SLD-Gestrichelt
 62
     7
370
     0
100
AcDbPolyline
 90
       10
 70
   128
 43
0.0
 10
246.6634838959
 20
102.9158288698
 10
246.655914106
 20
102.9110707428
 10
246.6411768576
 20
102.8992247853
 10
246.6308280011
 20
102.8881569478
 10
246.6220735689
 20
102.8760511513
 10
246.6133116861
 20
102.8594573114
 10
246.6055258294
 20
102.8339344162
 10
246.6056599399
 20
102.7891662057
 10
246.6455428978
 20
102.720667896
 10
246.6634838959
 20
102.7079828169
  0
LWPOLYLINE
  5
1D2
330
1F
100
AcDbEntity
  8
0
  6
SLD-Gestrichelt
 62
     7
370
     0
100
AcDbPolyline
 90
        5
 70
   128
 43
0.0
 10
247.5334881922
 20
103.7056877363
 10
247.3013653537
 20
103.8397055204
 10
247.2122936627
 20
103.8911308247
 10
247.2915901919
 20
103.84534561
 10
247.5334881922
 20
103.7056877363
  0
LINE
  5
1D3
330
1F
100
AcDbEntity
  8
0
  6
SLD-Gestrichelt
 62
     7
370
     0
100
AcDbLine
 10
246.2334885379
 20
117.7114004354
 30
0.0
 11
246.2334885379
 21
122.7114003237
 31
0.0
  0
LINE
  5
1D4
330
1F
100
AcDbEntity
  8
0
  6
SLD-Gestrichelt
 62
     7
370
     0
100
AcDbLine
 10
247.5334881922
 20
122.9181232016
 30
0.0
 11
247.5334881922
 21
123.205687673
 31
0.0
  0
ARC
  5
1D5
330
1F
100
AcDbEntity
  8
0
  6
SLD-Gestrichelt
 62
     7
370
     0
100
AcDbCircle
 10
246.7234936028
 20
122.3119053144
 30
0.0
 40
0.1200048347176279
100
AcDbArc
 50
120.0040188643
 51
239.9959811357
  0
LINE
  5
1D6
330
1F
100
AcDbEntity
  8
0
  6
SLD-Gestrichelt
 62
     7
370
     0
100
AcDbLine
 10
247.5334881922
 20
121.4181238871
 30
0.0
 11
247.5334881922
 21
121.7056883584
 31
0.0
  0
ARC
  5
1D7
330
1F
100
AcDbEntity
  8
0
  6
SLD-Gestrichelt
 62
     7
370
     0
100
AcDbCircle
 10
246.7234939882
 20
120.8119059998
 30
0.0
 40
0.1200050274629211
100
AcDbArc
 50
120.0041782305
 51
239.9958217695
  0
LINE
  5
1D8
330
1F
100
AcDbEntity
  8
0
  6
SLD-Gestrichelt
 62
     7
370
     0
100
AcDbLine
 10
247.5334881922
 20
119.9181236412
 30
0.0
 11
247.5334881922
 21
120.2056881126
 31
0.0
  0
ARC
  5
1D9
330
1F
100
AcDbEntity
  8
0
  6
SLD-Gestrichelt
 62
     7
370
     0
100
AcDbCircle
 10
246.7234964089
 20
119.3119057539
 30
0.0
 40
0.1200062379700256
100
AcDbArc
 50
120.0051790761
 51
239.9948209239
  0
LINE
  5
1DA
330
1F
100
AcDbEntity
  8
0
  6
SLD-Gestrichelt
 62
     7
370
     0
100
AcDbLine
 10
247.5334881922
 20
118.4181233953
 30
0.0
 11
247.5334881922
 21
118.7056878667
 31
0.0
  0
LWPOLYLINE
  5
1DB
330
1F
100
AcDbEntity
  8
0
  6
SLD-Gestrichelt
 62
     7
370
     0
100
AcDbPolyline
 90
       10
 70
   128
 43
0.0
 10
246.6634838959
 20
117.7079824816
 10
246.655914106
 20
117.7127406086
 10
246.6411768576
 20
117.7245865661
 10
246.6308280011
 20
117.7356544036
 10
246.6220735689
 20
117.7477602001
 10
246.6133116861
 20
117.7643540401
 10
246.6055258294
 20
117.7898769352
 10
246.6056599399
 20
117.8346451457
 10
246.6455428978
 20
117.9031434554
 10
246.6634838959
 20
117.9158285345
  0
LINE
  5
1DC
330
1F
100
AcDbEntity
  8
0
  6
SLD-Gestrichelt
 62
     7
370
     0
100
AcDbLine
 10
247.5334881922
 20
116.9181236151
 30
0.0
 11
247.5334881922
 21
117.2056880865
 31
0.0
  0
LINE
  5
1DD
330
1F
100
AcDbEntity
  8
0
  6
SLD-Gestrichelt
 62
     7
370
     0
100
AcDbLine
 10
247.5334881922
 20
123.205687673
 30
0.0
 11
247.5334881922
 21
122.9181232016
 31
0.0
  0
LWPOLYLINE
  5
1DE
330
1F
100
AcDbEntity
  8
0
  6
SLD-Gestrichelt
 62
     7
370
     0
100
AcDbPolyline
 90
        6
 70
   128
 43
0.0
 10
247.5334881922
 20
123.205687673
 10
247.2022428294
 20
123.3969319697
 10
247.0322429319
 20
123.4950831245
 10
247.0577537199
 20
123.4803533267
 10
247.2468196531
 20
123.371196733
 10
247.5334881922
 20
123.205687673
  0
LINE
  5
1DF
330
1F
100
AcDbEntity
  8
0
  6
SLD-Gestrichelt
 62
     7
370
     0
100
AcDbLine
 10
247.5334881922
 20
121.7056883584
 30
0.0
 11
247.5334881922
 21
121.4181238871
 31
0.0
  0
ARC
  5
1E0
330
1F
100
AcDbEntity
  8
0
  6
SLD-Gestrichelt
 62
     7
370
     0
100
AcDbCircle
 10
246.7234941155
 20
122.3119053144
 30
0.0
 40
0.1200050910906874
100
AcDbArc
 50
120.0042308391
 51
239.9957691609
  0
LINE
  5
1E1
330
1F
100
AcDbEntity
  8
0
  6
SLD-Gestrichelt
 62
     7
370
     0
100
AcDbLine
 10
247.5334881922
 20
120.2056881126
 30
0.0
 11
247.5334881922
 21
119.9181236412
 31
0.0
  0
ARC
  5
1E2
330
1F
100
AcDbEntity
  8
0
  6
SLD-Gestrichelt
 62
     7
370
     0
100
AcDbCircle
 10
246.7234899225
 20
120.8119059998
 30
0.0
 40
0.1200029944088579
100
AcDbArc
 50
120.0024971907
 51
239.9975028093
  0
LINE
  5
1E3
330
1F
100
AcDbEntity
  8
0
  6
SLD-Gestrichelt
 62
     7
370
     0
100
AcDbLine
 10
247.5334881922
 20
118.7056878667
 30
0.0
 11
247.5334881922
 21
118.4181233953
 31
0.0
  0
ARC
  5
1E4
330
1F
100
AcDbEntity
  8
0
  6
SLD-Gestrichelt
 62
     7
370
     0
100
AcDbCircle
 10
246.7234915052
 20
119.3119057539
 30
0.0
 40
0.1200037857824693
100
AcDbArc
 50
120.0031515584
 51
239.9968484416
  0
LINE
  5
1E5
330
1F
100
AcDbEntity
  8
0
  6
SLD-Gestrichelt
 62
     7
370
     0
100
AcDbLine
 10
247.5334881922
 20
117.2056880865
 30
0.0
 11
247.5334881922
 21
116.9181236151
 31
0.0
  0
LWPOLYLINE
  5
1E6
330
1F
100
AcDbEntity
  8
0
  6
SLD-Gestrichelt
 62
     7
370
     0
100
AcDbPolyline
 90
       10
 70
   128
 43
0.0
 10
246.6634838959
 20
117.9158285345
 10
246.610063233
 20
117.8510918367
 10
246.603543975
 20
117.8155274216
 10
246.6084539076
 20
117.7777418021
 10
246.6142057558
 20
117.7623307418
 10
246.6236307403
 20
117.7453559909
 10
246.6328769108
 20
117.7332320336
 10
246.6435237905
 20
117.7224286917
 10
246.657814004
 20
117.7114702846
 10
246.6634838959
 20
117.7079824816
  0
LWPOLYLINE
  5
1E7
330
1F
100
AcDbEntity
  8
0
  6
SLD-Gestrichelt
 62
     7
370
     0
100
AcDbPolyline
 90
        5
 70
   128
 43
0.0
 10
247.5334881922
 20
116.9181236151
 10
247.3013653537
 20
116.784105831
 10
247.2122936627
 20
116.7326805267
 10
247.2915901919
 20
116.7784657415
 10
247.5334881922
 20
116.9181236151
  0
LINE
  5
1E8
330
1F
100
AcDbEntity
  8
0
  6
SLD-Gestrichelt
 62
     7
370
     0
100
AcDbLine
 10
230.7334869286
 20
117.7114004354
 30
0.0
 11
230.7334869286
 21
122.7114003237
 31
0.0
  0
LINE
  5
1E9
330
1F
100
AcDbEntity
  8
0
  6
SLD-Gestrichelt
 62
     7
370
     0
100
AcDbLine
 10
230.7334869286
 20
97.9124110277
 30
0.0
 11
230.7334869286
 21
102.912410916
 31
0.0
  0
LINE
  5
1EA
330
1F
100
AcDbEntity
  8
0
  6
SLD-Gestrichelt
 62
     7
370
     0
100
AcDbLine
 10
137.3834871804
 20
101.3119060631
 30
0.0
 11
137.3834871804
 21
119.3119052883
 31
0.0
  0
LINE
  5
1EB
330
1F
100
AcDbEntity
  8
0
  6
SLD-Gestrichelt
 62
     7
370
     0
100
AcDbLine
 10
136.1334874412
 20
100.0619053926
 30
0.0
 11
136.1334874412
 21
120.5619059588
 31
0.0
  0
LINE
  5
1EC
330
1F
100
AcDbEntity
  8
0
  6
SLD-Gestrichelt
 62
     7
370
     0
100
AcDbLine
 10
163.1334881415
 20
101.3119060631
 30
0.0
 11
163.1334881415
 21
119.3119052883
 31
0.0
  0
LINE
  5
1ED
330
1F
100
AcDbEntity
  8
0
  6
SLD-Gestrichelt
 62
     7
370
     0
100
AcDbLine
 10
165.9875746002
 20
106.0619054447
 30
0.0
 11
165.9875746002
 21
114.5619059067
 31
0.0
  0
LINE
  5
1EE
330
1F
100
AcDbEntity
  8
0
  6
SLD-Gestrichelt
 62
     7
370
     0
100
AcDbLine
 10
246.5334861656
 20
104.3119056236
 30
0.0
 11
246.5334861656
 21
116.3119057279
 31
0.0
  0
LINE
  5
1EF
330
1F
100
AcDbEntity
  8
0
  6
SLD-Gestrichelt
 62
     7
370
     0
100
AcDbLine
 10
247.5334881922
 20
117.2056880865
 30
0.0
 11
247.5334881922
 21
116.9181236151
 31
0.0
  0
LWPOLYLINE
  5
1F0
330
1F
100
AcDbEntity
  8
0
  6
SLD-Gestrichelt
 62
     7
370
     0
100
AcDbPolyline
 90
        3
 70
   128
 43
0.0
 10
247.5334881922
 20
116.9181236151
 10
246.8121229788
 20
116.5016422133
 10
246.6634838959
 20
116.4158287543
  0
LWPOLYLINE
  5
1F1
330
1F
100
AcDbEntity
  8
0
  6
SLD-Gestrichelt
 62
     7
370
     0
100
AcDbPolyline
 90
       16
 70
   128
 43
0.0
 10
246.6634838959
 20
116.4158287543
 10
246.6617628118
 20
116.4148122157
 10
246.6563536903
 20
116.4113719102
 10
246.6522409698
 20
116.4084680464
 10
246.6489627143
 20
116.4059572007
 10
246.6450437089
 20
116.4027152668
 10
246.6428085347
 20
116.4007385347
 10
246.6405510088
 20
116.398634677
 10
246.6388299247
 20
116.3969517771
 10
246.6370939394
 20
116.3951887834
 10
246.6351940414
 20
116.3931761954
 10
246.6326161405
 20
116.3902779195
 10
246.6272889753
 20
116.3836394522
 10
246.6157256743
 20
116.3647065956
 10
246.6034843703
 20
116.3115690548
 10
246.6634838959
 20
116.2079827014
  0
LWPOLYLINE
  5
1F2
330
1F
100
AcDbEntity
  8
0
  6
SLD-Gestrichelt
 62
     7
370
     0
100
AcDbPolyline
 90
        3
 70
   128
 43
0.0
 10
246.6634838959
 20
116.2079827014
 10
247.0123349806
 20
116.0065734844
 10
247.5334881922
 20
115.7056878406
  0
LINE
  5
1F3
330
1F
100
AcDbEntity
  8
0
  6
SLD-Gestrichelt
 62
     7
370
     0
100
AcDbLine
 10
247.5334881922
 20
115.7056878406
 30
0.0
 11
247.5334881922
 21
115.4181233692
 31
0.0
  0
ARC
  5
1F4
330
1F
100
AcDbEntity
  8
0
  6
SLD-Gestrichelt
 62
     7
370
     0
100
AcDbCircle
 10
246.7234934314
 20
114.811905482
 30
0.0
 40
0.1200047490043146
100
AcDbArc
 50
120.0039479942
 51
239.9960520058
  0
LINE
  5
1F5
330
1F
100
AcDbEntity
  8
0
  6
SLD-Gestrichelt
 62
     7
370
     0
100
AcDbLine
 10
247.5334881922
 20
114.2056878276
 30
0.0
 11
247.5334881922
 21
113.9181233562
 31
0.0
  0
ARC
  5
1F6
330
1F
100
AcDbEntity
  8
0
  6
SLD-Gestrichelt
 62
     7
370
     0
100
AcDbCircle
 10
246.7234969049
 20
113.3119057018
 30
0.0
 40
0.1200064860218222
100
AcDbArc
 50
120.0053841587
 51
239.9946158413
  0
LINE
  5
1F7
330
1F
100
AcDbEntity
  8
0
  6
SLD-Gestrichelt
 62
     7
370
     0
100
AcDbLine
 10
247.5334881922
 20
112.7056878145
 30
0.0
 11
247.5334881922
 21
112.4181233432
 31
0.0
  0
ARC
  5
1F8
330
1F
100
AcDbEntity
  8
0
  6
SLD-Gestrichelt
 62
     7
370
     0
100
AcDbCircle
 10
246.7234938529
 20
111.8119056887
 30
0.0
 40
0.1200049597962408
100
AcDbArc
 50
120.0041222823
 51
239.9958777177
  0
LINE
  5
1F9
330
1F
100
AcDbEntity
  8
0
  6
SLD-Gestrichelt
 62
     7
370
     0
100
AcDbLine
 10
247.5334881922
 20
111.2056879179
 30
0.0
 11
247.5334881922
 21
110.9181234465
 31
0.0
  0
ARC
  5
1FA
330
1F
100
AcDbEntity
  8
0
  6
SLD-Gestrichelt
 62
     7
370
     0
100
AcDbCircle
 10
246.7234984998
 20
110.3119056757
 30
0.0
 40
0.1200073025104388
100
AcDbArc
 50
120.0060383559
 51
239.9939616441
  0
LINE
  5
1FB
330
1F
100
AcDbEntity
  8
0
  6
SLD-Gestrichelt
 62
     7
370
     0
100
AcDbLine
 10
247.5334881922
 20
109.7056879049
 30
0.0
 11
247.5334881922
 21
109.4181234335
 31
0.0
  0
ARC
  5
1FC
330
1F
100
AcDbEntity
  8
0
  6
SLD-Gestrichelt
 62
     7
370
     0
100
AcDbCircle
 10
246.723490412
 20
108.8119056627
 30
0.0
 40
0.1200032391562794
100
AcDbArc
 50
120.0026995687
 51
239.9973004313
  0
LINE
  5
1FD
330
1F
100
AcDbEntity
  8
0
  6
SLD-Gestrichelt
 62
     7
370
     0
100
AcDbLine
 10
247.5334881922
 20
108.2056880082
 30
0.0
 11
247.5334881922
 21
107.9181235369
 31
0.0
  0
ARC
  5
1FE
330
1F
100
AcDbEntity
  8
0
  6
SLD-Gestrichelt
 62
     7
370
     0
100
AcDbCircle
 10
246.7234865709
 20
107.3119056496
 30
0.0
 40
0.1200013184725257
100
AcDbArc
 50
120.0011113282
 51
239.9988886718
  0
LINE
  5
1FF
330
1F
100
AcDbEntity
  8
0
  6
SLD-Gestrichelt
 62
     7
370
     0
100
AcDbLine
 10
247.5334881922
 20
106.7056879952
 30
0.0
 11
247.5334881922
 21
106.4181235238
 31
0.0
  0
ARC
  5
200
330
1F
100
AcDbEntity
  8
0
  6
SLD-Gestrichelt
 62
     7
370
     0
100
AcDbCircle
 10
246.7234931716
 20
105.8119058694
 30
0.0
 40
0.1200046190680573
100
AcDbArc
 50
120.0038405588
 51
239.9961594412
  0
LINE
  5
201
330
1F
100
AcDbEntity
  8
0
  6
SLD-Gestrichelt
 62
     7
370
     0
100
AcDbLine
 10
247.5334881922
 20
105.2056879822
 30
0.0
 11
247.5334881922
 21
104.9181235108
 31
0.0
  0
LWPOLYLINE
  5
202
330
1F
100
AcDbEntity
  8
0
  6
SLD-Gestrichelt
 62
     7
370
     0
100
AcDbPolyline
 90
        3
 70
   128
 43
0.0
 10
247.5334881922
 20
104.9181235108
 10
247.0204933663
 20
104.6219443056
 10
246.6634838959
 20
104.41582865
  0
LWPOLYLINE
  5
203
330
1F
100
AcDbEntity
  8
0
  6
SLD-Gestrichelt
 62
     7
370
     0
100
AcDbPolyline
 90
       16
 70
   128
 43
0.0
 10
246.6634838959
 20
104.41582865
 10
246.6342850705
 20
104.392169797
 10
246.6160385986
 20
104.2584765788
 10
246.6203375836
 20
104.25058362
 10
246.6237648507
 20
104.2451535437
 10
246.6266705772
 20
104.2410124179
 10
246.6291739722
 20
104.2377076197
 10
246.6324075242
 20
104.2337718505
 10
246.6343893787
 20
104.2315241035
 10
246.6364829918
 20
104.2292581956
 10
246.6381593724
 20
104.2275273326
 10
246.6399177095
 20
104.2257857594
 10
246.6419219156
 20
104.2238853957
 10
246.6448052903
 20
104.2213000442
 10
246.6513990542
 20
104.2159733448
 10
246.6634838959
 20
104.2079825971
  0
LWPOLYLINE
  5
204
330
1F
100
AcDbEntity
  8
0
  6
SLD-Gestrichelt
 62
     7
370
     0
100
AcDbPolyline
 90
        4
 70
   128
 43
0.0
 10
246.6634838959
 20
104.2079825971
 10
246.8969403883
 20
104.0732001971
 10
247.2551046988
 20
103.8664130579
 10
247.5334881922
 20
103.7056877363
  0
LINE
  5
205
330
1F
100
AcDbEntity
  8
0
  6
SLD-Gestrichelt
 62
     7
370
     0
100
AcDbLine
 10
247.5334881922
 20
103.7056877363
 30
0.0
 11
247.5334881922
 21
103.4181232649
 31
0.0
  0
LINE
  5
206
330
1F
100
AcDbEntity
  8
0
  6
SLD-Gestrichelt
 62
     7
370
     0
100
AcDbLine
 10
247.5334881922
 20
103.4181232649
 30
0.0
 11
247.5334881922
 21
103.7056877363
 31
0.0
  0
LINE
  5
207
330
1F
100
AcDbEntity
  8
0
  6
SLD-Gestrichelt
 62
     7
370
     0
100
AcDbLine
 10
247.5334881922
 20
116.9181236151
 30
0.0
 11
247.5334881922
 21
117.2056880865
 31
0.0
  0
LINE
  5
208
330
1F
100
AcDbEntity
  8
0
  6
SLD-Gestrichelt
 62
     7
370
     0
100
AcDbLine
 10
247.5334881922
 20
104.9181235108
 30
0.0
 11
247.5334881922
 21
105.2056879822
 31
0.0
  0
LINE
  5
209
330
1F
100
AcDbEntity
  8
0
  6
SLD-Gestrichelt
 62
     7
370
     0
100
AcDbLine
 10
247.5334881922
 20
115.4181233692
 30
0.0
 11
247.5334881922
 21
115.7056878406
 31
0.0
  0
LINE
  5
20A
330
1F
100
AcDbEntity
  8
0
  6
SLD-Gestrichelt
 62
     7
370
     0
100
AcDbLine
 10
247.5334881922
 20
106.4181235238
 30
0.0
 11
247.5334881922
 21
106.7056879952
 31
0.0
  0
LINE
  5
20B
330
1F
100
AcDbEntity
  8
0
  6
SLD-Gestrichelt
 62
     7
370
     0
100
AcDbLine
 10
247.5334881922
 20
113.9181233562
 30
0.0
 11
247.5334881922
 21
114.2056878276
 31
0.0
  0
LINE
  5
20C
330
1F
100
AcDbEntity
  8
0
  6
SLD-Gestrichelt
 62
     7
370
     0
100
AcDbLine
 10
247.5334881922
 20
107.9181235369
 30
0.0
 11
247.5334881922
 21
108.2056880082
 31
0.0
  0
LINE
  5
20D
330
1F
100
AcDbEntity
  8
0
  6
SLD-Gestrichelt
 62
     7
370
     0
100
AcDbLine
 10
247.5334881922
 20
112.4181233432
 30
0.0
 11
247.5334881922
 21
112.7056878145
 31
0.0
  0
LWPOLYLINE
  5
20E
330
1F
100
AcDbEntity
  8
0
  6
SLD-Gestrichelt
 62
     7
370
     0
100
AcDbPolyline
 90
        4
 70
   128
 43
0.0
 10
246.6634838959
 20
116.4158287543
 10
246.8969403883
 20
116.5506111543
 10
247.2551046988
 20
116.7573982935
 10
247.5334881922
 20
116.9181236151
  0
LWPOLYLINE
  5
20F
330
1F
100
AcDbEntity
  8
0
  6
SLD-Gestrichelt
 62
     7
370
     0
100
AcDbPolyline
 90
        3
 70
   128
 43
0.0
 10
247.5334881922
 20
103.7056877363
 10
246.8121229788
 20
104.1221691381
 10
246.6634838959
 20
104.2079825971
  0
LWPOLYLINE
  5
210
330
1F
100
AcDbEntity
  8
0
  6
SLD-Gestrichelt
 62
     7
370
     0
100
AcDbPolyline
 90
        3
 70
   128
 43
0.0
 10
246.6634838959
 20
104.41582865
 10
247.0123349806
 20
104.617237867
 10
247.5334881922
 20
104.9181235108
  0
LWPOLYLINE
  5
211
330
1F
100
AcDbEntity
  8
0
  6
SLD-Gestrichelt
 62
     7
370
     0
100
AcDbPolyline
 90
        3
 70
   128
 43
0.0
 10
247.5334881922
 20
115.7056878406
 10
247.0204933663
 20
116.0018670458
 10
246.6634838959
 20
116.2079827014
  0
LINE
  5
212
330
1F
100
AcDbEntity
  8
0
  6
SLD-Gestrichelt
 62
     7
370
     0
100
AcDbLine
 10
247.5334881922
 20
109.4181234335
 30
0.0
 11
247.5334881922
 21
109.7056879049
 31
0.0
  0
LINE
  5
213
330
1F
100
AcDbEntity
  8
0
  6
SLD-Gestrichelt
 62
     7
370
     0
100
AcDbLine
 10
247.5334881922
 20
110.9181234465
 30
0.0
 11
247.5334881922
 21
111.2056879179
 31
0.0
  0
LWPOLYLINE
  5
214
330
1F
100
AcDbEntity
  8
0
  6
SLD-Gestrichelt
 62
     7
370
     0
100
AcDbPolyline
 90
       16
 70
   128
 43
0.0
 10
246.6634838959
 20
116.2079827014
 10
246.6342850705
 20
116.2316415544
 10
246.6160385986
 20
116.3653347726
 10
246.6203375836
 20
116.3732277315
 10
246.6237648507
 20
116.3786578077
 10
246.6266705772
 20
116.3827989336
 10
246.6291739722
 20
116.3861037317
 10
246.6324075242
 20
116.3900395009
 10
246.6343893787
 20
116.392287248
 10
246.6364829918
 20
116.3945531558
 10
246.6381593724
 20
116.3962840188
 10
246.6399177095
 20
116.398025592
 10
246.6419219156
 20
116.3999259557
 10
246.6448052903
 20
116.4025113072
 10
246.6513990542
 20
116.4078380066
 10
246.6634838959
 20
116.4158287543
  0
LWPOLYLINE
  5
215
330
1F
100
AcDbEntity
  8
0
  6
SLD-Gestrichelt
 62
     7
370
     0
100
AcDbPolyline
 90
       16
 70
   128
 43
0.0
 10
246.6634838959
 20
104.2079825971
 10
246.6617628118
 20
104.2089991357
 10
246.6563536903
 20
104.2124394413
 10
246.6522409698
 20
104.215343305
 10
246.6489627143
 20
104.2178541507
 10
246.6450437089
 20
104.2210960846
 10
246.6428085347
 20
104.2230728168
 10
246.6405510088
 20
104.2251766745
 10
246.6388299247
 20
104.2268595743
 10
246.6370939394
 20
104.228622568
 10
246.6351940414
 20
104.2306351561
 10
246.6326161405
 20
104.2335334319
 10
246.6272889753
 20
104.2401718992
 10
246.6157256743
 20
104.2591047558
 10
246.6034843703
 20
104.3122422967
 10
246.6634838959
 20
104.41582865
  0
ARC
  5
216
330
1F
100
AcDbEntity
  8
0
  6
SLD-Gestrichelt
 62
     7
370
     0
100
AcDbCircle
 10
246.7234931716
 20
114.811905482
 30
0.0
 40
0.1200046190680573
100
AcDbArc
 50
120.0038405588
 51
239.9961594412
  0
ARC
  5
217
330
1F
100
AcDbEntity
  8
0
  6
SLD-Gestrichelt
 62
     7
370
     0
100
AcDbCircle
 10
246.7234934314
 20
105.8119058694
 30
0.0
 40
0.1200047490043146
100
AcDbArc
 50
120.0039479942
 51
239.9960520058
  0
ARC
  5
218
330
1F
100
AcDbEntity
  8
0
  6
SLD-Gestrichelt
 62
     7
370
     0
100
AcDbCircle
 10
246.7234865709
 20
113.3119057018
 30
0.0
 40
0.1200013184725257
100
AcDbArc
 50
120.0011113282
 51
239.9988886718
  0
ARC
  5
219
330
1F
100
AcDbEntity
  8
0
  6
SLD-Gestrichelt
 62
     7
370
     0
100
AcDbCircle
 10
246.7234969049
 20
107.3119056496
 30
0.0
 40
0.1200064860218222
100
AcDbArc
 50
120.0053841587
 51
239.9946158413
  0
ARC
  5
21A
330
1F
100
AcDbEntity
  8
0
  6
SLD-Gestrichelt
 62
     7
370
     0
100
AcDbCircle
 10
246.723490412
 20
111.8119056887
 30
0.0
 40
0.1200032391562794
100
AcDbArc
 50
120.0026995687
 51
239.9973004313
  0
ARC
  5
21B
330
1F
100
AcDbEntity
  8
0
  6
SLD-Gestrichelt
 62
     7
370
     0
100
AcDbCircle
 10
246.7234938529
 20
108.8119056627
 30
0.0
 40
0.1200049597962408
100
AcDbArc
 50
120.0041222823
 51
239.9958777177
  0
ARC
  5
21C
330
1F
100
AcDbEntity
  8
0
  6
SLD-Gestrichelt
 62
     7
370
     0
100
AcDbCircle
 10
246.7234984998
 20
110.3119056757
 30
0.0
 40
0.1200073025104388
100
AcDbArc
 50
120.0060383559
 51
239.9939616441
  0
LINE
  5
21D
330
1F
100
AcDbEntity
  8
0
  6
SLD-Gestrichelt
 62
     7
370
     0
100
AcDbLine
 10
144.9334873935
 20
131.9943059321
 30
0.0
 11
144.9334873935
 21
133.7320048447
 31
0.0
  0
LINE
  5
21E
330
1F
100
AcDbEntity
  8
0
  6
SLD-Gestrichelt
 62
     7
370
     0
100
AcDbLine
 10
110.633487918
 20
131.2480222519
 30
0.0
 11
110.633487918
 21
132.8702688302
 31
0.0
  0
LWPOLYLINE
  5
21F
330
1F
100
AcDbEntity
  8
0
  6
SLD-Gestrichelt
 62
     7
370
     0
100
AcDbPolyline
 90
        4
 70
   128
 43
0.0
 10
145.812167076
 20
132.4555900033
 10
145.5201612437
 20
133.1041723575
 10
145.3558764072
 20
133.4726538594
 10
145.3400783823
 20
133.5082303818
  0
LINE
  5
220
330
1F
100
AcDbEntity
  8
0
  6
SLD-Gestrichelt
 62
     7
370
     0
100
AcDbLine
 10
109.1334886035
 20
130.498020732
 30
0.0
 11
109.1334886035
 21
132.004243144
 31
0.0
  0
LINE
  5
221
330
1F
100
AcDbEntity
  8
0
  6
SLD-Gestrichelt
 62
     7
370
     0
100
AcDbLine
 10
127.5834879955
 20
90.3141506101
 30
0.0
 11
135.6834872743
 21
90.3141506101
 31
0.0
  0
LINE
  5
222
330
1F
100
AcDbEntity
  8
0
  6
SLD-Gestrichelt
 62
     7
370
     0
100
AcDbLine
 10
241.2334858557
 20
106.0619054447
 30
0.0
 11
241.2334858557
 21
114.5619059067
 31
0.0
  0
LINE
  5
223
330
1F
100
AcDbEntity
  8
0
  6
SLD-Gestrichelt
 62
     7
370
     0
100
AcDbLine
 10
241.9845639845
 20
107.3119056496
 30
0.0
 11
241.9845639845
 21
113.3119057018
 31
0.0
  0
LINE
  5
224
330
1F
100
AcDbEntity
  8
0
  6
SLD-Gestrichelt
 62
     7
370
     0
100
AcDbLine
 10
110.633487918
 20
90.8149153079
 30
0.0
 11
109.1334886035
 21
91.5634267117
 31
0.0
  0
LINE
  5
225
330
1F
100
AcDbEntity
  8
0
  6
SLD-Gestrichelt
 62
     7
370
     0
100
AcDbLine
 10
115.5834860285
 20
90.7056432303
 30
0.0
 11
115.5834860285
 21
92.3119064506
 31
0.0
  0
LINE
  5
226
330
1F
100
AcDbEntity
  8
0
  6
SLD-Gestrichelt
 62
     7
370
     0
100
AcDbLine
 10
109.1334886035
 20
91.5634267117
 30
0.0
 11
109.1334886035
 21
92.3119064506
 31
0.0
  0
LINE
  5
227
330
1F
100
AcDbEntity
  8
0
  6
SLD-Gestrichelt
 62
     7
370
     0
100
AcDbLine
 10
127.5834879955
 20
127.8119057502
 30
0.0
 11
135.6834872743
 21
127.8119057502
 31
0.0
  0
LINE
  5
228
330
1F
100
AcDbEntity
  8
0
  6
SLD-Gestrichelt
 62
     7
370
     0
100
AcDbLine
 10
245.0834839722
 20
106.6119056746
 30
0.0
 11
245.0834839722
 21
114.0119056768
 31
0.0
  0
LINE
  5
229
330
1F
100
AcDbEntity
  8
0
  6
SLD-Gestrichelt
 62
     7
370
     0
100
AcDbLine
 10
243.5834883829
 20
106.6119056746
 30
0.0
 11
243.5834883829
 21
114.0119056768
 31
0.0
  0
LINE
  5
22A
330
1F
100
AcDbEntity
  8
0
  6
SLD-Gestrichelt
 62
     7
370
     0
100
AcDbLine
 10
246.1004733225
 20
107.3119056496
 30
0.0
 11
246.1004733225
 21
113.3119057018
 31
0.0
  0
LINE
  5
22B
330
1F
100
AcDbEntity
  8
0
  6
SLD-Gestrichelt
 62
     7
370
     0
100
AcDbLine
 10
246.5334861656
 20
113.5564072143
 30
0.0
 11
246.5334861656
 21
107.0674041371
 31
0.0
  0
LINE
  5
22C
330
1F
100
AcDbEntity
  8
0
  6
SLD-Gestrichelt
 62
     7
370
     0
100
AcDbLine
 10
245.0834839722
 20
107.3337791573
 30
0.0
 11
245.0834839722
 21
113.2900321941
 31
0.0
  0
LINE
  5
22D
330
1F
100
AcDbEntity
  8
0
  6
SLD-Gestrichelt
 62
     7
370
     0
100
AcDbLine
 10
243.5834883829
 20
107.3337791573
 30
0.0
 11
243.5834883829
 21
113.2900321941
 31
0.0
  0
LINE
  5
22E
330
1F
100
AcDbEntity
  8
0
  6
SLD-Gestrichelt
 62
     7
370
     0
100
AcDbLine
 10
157.133487158
 20
79.3119061823
 30
0.0
 11
161.1334878137
 21
79.3119061823
 31
0.0
  0
LINE
  5
22F
330
1F
100
AcDbEntity
  8
0
  6
SLD-Gestrichelt
 62
     7
370
     0
100
AcDbLine
 10
109.1334886035
 20
95.3506611373
 30
0.0
 11
109.1334886035
 21
91.5634267117
 31
0.0
  0
LINE
  5
230
330
1F
100
AcDbEntity
  8
0
  6
SLD-Gestrichelt
 62
     7
370
     0
100
AcDbLine
 10
109.1334886035
 20
130.498020732
 30
0.0
 11
109.1334886035
 21
105.0870346922
 31
0.0
  0
LINE
  5
231
330
1F
100
AcDbEntity
  8
0
  6
SLD-Gestrichelt
 62
     7
370
     0
100
AcDbLine
 10
110.633487918
 20
131.2480222519
 30
0.0
 11
110.633487918
 21
105.0870346922
 31
0.0
  0
LINE
  5
232
330
1F
100
AcDbEntity
  8
0
  6
SLD-Gestrichelt
 62
     7
370
     0
100
AcDbLine
 10
246.2334885379
 20
97.9182392444
 30
0.0
 11
246.2334885379
 21
102.9065826993
 31
0.0
  0
LWPOLYLINE
  5
233
330
1F
100
AcDbEntity
  8
0
  6
SLD-Gestrichelt
 62
     7
370
     0
100
AcDbPolyline
 90
       10
 70
   128
 43
0.0
 10
246.6634838959
 20
102.7079828169
 10
246.610063233
 20
102.7727195147
 10
246.603543975
 20
102.8082839299
 10
246.6084539076
 20
102.8460695493
 10
246.6142057558
 20
102.8614806097
 10
246.6236307403
 20
102.8784553606
 10
246.6328769108
 20
102.8905793178
 10
246.6435237905
 20
102.9013826597
 10
246.657814004
 20
102.9123410668
 10
246.6634838959
 20
102.9158288698
  0
LINE
  5
234
330
1F
100
AcDbEntity
  8
0
  6
SLD-Gestrichelt
 62
     7
370
     0
100
AcDbLine
 10
247.5334881922
 20
101.9181234847
 30
0.0
 11
247.5334881922
 21
102.2056879561
 31
0.0
  0
LINE
  5
235
330
1F
100
AcDbEntity
  8
0
  6
SLD-Gestrichelt
 62
     7
370
     0
100
AcDbLine
 10
247.5334881922
 20
100.4181232389
 30
0.0
 11
247.5334881922
 21
100.7056877102
 31
0.0
  0
LINE
  5
236
330
1F
100
AcDbEntity
  8
0
  6
SLD-Gestrichelt
 62
     7
370
     0
100
AcDbLine
 10
247.5334881922
 20
98.918122993
 30
0.0
 11
247.5334881922
 21
99.2056874644
 31
0.0
  0
LINE
  5
237
330
1F
100
AcDbEntity
  8
0
  6
SLD-Gestrichelt
 62
     7
370
     0
100
AcDbLine
 10
247.5334881922
 20
97.4181236784
 30
0.0
 11
247.5334881922
 21
97.7056881498
 31
0.0
  0
LINE
  5
238
330
1F
100
AcDbEntity
  8
0
  6
SLD-Gestrichelt
 62
     7
370
     0
100
AcDbLine
 10
247.5334881922
 20
103.4181232649
 30
0.0
 11
247.5334881922
 21
103.7056877363
 31
0.0
  0
LINE
  5
239
330
1F
100
AcDbEntity
  8
0
  6
SLD-Gestrichelt
 62
     7
370
     0
100
AcDbLine
 10
247.5334881922
 20
103.7056877363
 30
0.0
 11
247.5334881922
 21
103.4181232649
 31
0.0
  0
LWPOLYLINE
  5
23A
330
1F
100
AcDbEntity
  8
0
  6
SLD-Gestrichelt
 62
     7
370
     0
100
AcDbPolyline
 90
        5
 70
   128
 43
0.0
 10
247.5334881922
 20
103.7056877363
 10
247.3013653537
 20
103.8397055204
 10
247.2122936627
 20
103.8911308247
 10
247.2915901919
 20
103.84534561
 10
247.5334881922
 20
103.7056877363
  0
LINE
  5
23B
330
1F
100
AcDbEntity
  8
0
  6
SLD-Gestrichelt
 62
     7
370
     0
100
AcDbLine
 10
247.5334881922
 20
100.7056877102
 30
0.0
 11
247.5334881922
 21
100.4181232389
 31
0.0
  0
LINE
  5
23C
330
1F
100
AcDbEntity
  8
0
  6
SLD-Gestrichelt
 62
     7
370
     0
100
AcDbLine
 10
247.5334881922
 20
99.2056874644
 30
0.0
 11
247.5334881922
 21
98.918122993
 31
0.0
  0
LINE
  5
23D
330
1F
100
AcDbEntity
  8
0
  6
SLD-Gestrichelt
 62
     7
370
     0
100
AcDbLine
 10
247.5334881922
 20
102.2056879561
 30
0.0
 11
247.5334881922
 21
101.9181234847
 31
0.0
  0
LINE
  5
23E
330
1F
100
AcDbEntity
  8
0
  6
SLD-Gestrichelt
 62
     7
370
     0
100
AcDbLine
 10
247.5334881922
 20
97.7056881498
 30
0.0
 11
247.5334881922
 21
97.4181236784
 31
0.0
  0
LWPOLYLINE
  5
23F
330
1F
100
AcDbEntity
  8
0
  6
SLD-Gestrichelt
 62
     7
370
     0
100
AcDbPolyline
 90
       10
 70
   128
 43
0.0
 10
246.6634838959
 20
102.9158288698
 10
246.655914106
 20
102.9110707428
 10
246.6411768576
 20
102.8992247853
 10
246.6308280011
 20
102.8881569478
 10
246.6220735689
 20
102.8760511513
 10
246.6133116861
 20
102.8594573114
 10
246.6055258294
 20
102.8339344162
 10
246.6056599399
 20
102.7891662057
 10
246.6455428978
 20
102.720667896
 10
246.6634838959
 20
102.7079828169
  0
LWPOLYLINE
  5
240
330
1F
100
AcDbEntity
  8
0
  6
SLD-Gestrichelt
 62
     7
370
     0
100
AcDbPolyline
 90
        6
 70
   128
 43
0.0
 10
247.5334881922
 20
97.4181236784
 10
247.2022428294
 20
97.2268793817
 10
247.0322429319
 20
97.1287282269
 10
247.0577537199
 20
97.1434580247
 10
247.2468196531
 20
97.2526146184
 10
247.5334881922
 20
97.4181236784
  0
LINE
  5
241
330
1F
100
AcDbEntity
  8
0
  6
SLD-Gestrichelt
 62
     7
370
     0
100
AcDbLine
 10
246.2334885379
 20
117.7172286521
 30
0.0
 11
246.2334885379
 21
122.705572107
 31
0.0
  0
LINE
  5
242
330
1F
100
AcDbEntity
  8
0
  6
SLD-Gestrichelt
 62
     7
370
     0
100
AcDbLine
 10
247.5334881922
 20
122.9181232016
 30
0.0
 11
247.5334881922
 21
123.205687673
 31
0.0
  0
LINE
  5
243
330
1F
100
AcDbEntity
  8
0
  6
SLD-Gestrichelt
 62
     7
370
     0
100
AcDbLine
 10
247.5334881922
 20
121.4181238871
 30
0.0
 11
247.5334881922
 21
121.7056883584
 31
0.0
  0
LINE
  5
244
330
1F
100
AcDbEntity
  8
0
  6
SLD-Gestrichelt
 62
     7
370
     0
100
AcDbLine
 10
247.5334881922
 20
119.9181236412
 30
0.0
 11
247.5334881922
 21
120.2056881126
 31
0.0
  0
LINE
  5
245
330
1F
100
AcDbEntity
  8
0
  6
SLD-Gestrichelt
 62
     7
370
     0
100
AcDbLine
 10
247.5334881922
 20
118.4181233953
 30
0.0
 11
247.5334881922
 21
118.7056878667
 31
0.0
  0
LWPOLYLINE
  5
246
330
1F
100
AcDbEntity
  8
0
  6
SLD-Gestrichelt
 62
     7
370
     0
100
AcDbPolyline
 90
       10
 70
   128
 43
0.0
 10
246.6634838959
 20
117.7079824816
 10
246.655914106
 20
117.7127406086
 10
246.6411768576
 20
117.7245865661
 10
246.6308280011
 20
117.7356544036
 10
246.6220735689
 20
117.7477602001
 10
246.6133116861
 20
117.7643540401
 10
246.6055258294
 20
117.7898769352
 10
246.6056599399
 20
117.8346451457
 10
246.6455428978
 20
117.9031434554
 10
246.6634838959
 20
117.9158285345
  0
LINE
  5
247
330
1F
100
AcDbEntity
  8
0
  6
SLD-Gestrichelt
 62
     7
370
     0
100
AcDbLine
 10
247.5334881922
 20
116.9181236151
 30
0.0
 11
247.5334881922
 21
117.2056880865
 31
0.0
  0
LINE
  5
248
330
1F
100
AcDbEntity
  8
0
  6
SLD-Gestrichelt
 62
     7
370
     0
100
AcDbLine
 10
247.5334881922
 20
117.2056880865
 30
0.0
 11
247.5334881922
 21
116.9181236151
 31
0.0
  0
LWPOLYLINE
  5
249
330
1F
100
AcDbEntity
  8
0
  6
SLD-Gestrichelt
 62
     7
370
     0
100
AcDbPolyline
 90
        5
 70
   128
 43
0.0
 10
247.5334881922
 20
116.9181236151
 10
247.3013653537
 20
116.784105831
 10
247.2122936627
 20
116.7326805267
 10
247.2915901919
 20
116.7784657415
 10
247.5334881922
 20
116.9181236151
  0
LINE
  5
24A
330
1F
100
AcDbEntity
  8
0
  6
SLD-Gestrichelt
 62
     7
370
     0
100
AcDbLine
 10
247.5334881922
 20
120.2056881126
 30
0.0
 11
247.5334881922
 21
119.9181236412
 31
0.0
  0
LINE
  5
24B
330
1F
100
AcDbEntity
  8
0
  6
SLD-Gestrichelt
 62
     7
370
     0
100
AcDbLine
 10
247.5334881922
 20
121.7056883584
 30
0.0
 11
247.5334881922
 21
121.4181238871
 31
0.0
  0
LINE
  5
24C
330
1F
100
AcDbEntity
  8
0
  6
SLD-Gestrichelt
 62
     7
370
     0
100
AcDbLine
 10
247.5334881922
 20
118.7056878667
 30
0.0
 11
247.5334881922
 21
118.4181233953
 31
0.0
  0
LINE
  5
24D
330
1F
100
AcDbEntity
  8
0
  6
SLD-Gestrichelt
 62
     7
370
     0
100
AcDbLine
 10
247.5334881922
 20
123.205687673
 30
0.0
 11
247.5334881922
 21
122.9181232016
 31
0.0
  0
LWPOLYLINE
  5
24E
330
1F
100
AcDbEntity
  8
0
  6
SLD-Gestrichelt
 62
     7
370
     0
100
AcDbPolyline
 90
       10
 70
   128
 43
0.0
 10
246.6634838959
 20
117.9158285345
 10
246.610063233
 20
117.8510918367
 10
246.603543975
 20
117.8155274216
 10
246.6084539076
 20
117.7777418021
 10
246.6142057558
 20
117.7623307418
 10
246.6236307403
 20
117.7453559909
 10
246.6328769108
 20
117.7332320336
 10
246.6435237905
 20
117.7224286917
 10
246.657814004
 20
117.7114702846
 10
246.6634838959
 20
117.7079824816
  0
LWPOLYLINE
  5
24F
330
1F
100
AcDbEntity
  8
0
  6
SLD-Gestrichelt
 62
     7
370
     0
100
AcDbPolyline
 90
        6
 70
   128
 43
0.0
 10
247.5334881922
 20
123.205687673
 10
247.2022428294
 20
123.3969319697
 10
247.0322429319
 20
123.4950831245
 10
247.0577537199
 20
123.4803533267
 10
247.2468196531
 20
123.371196733
 10
247.5334881922
 20
123.205687673
  0
LINE
  5
250
330
1F
100
AcDbEntity
  8
0
  6
SLD-Gestrichelt
 62
     7
370
     0
100
AcDbLine
 10
146.9334873866
 20
131.7300431516
 30
0.0
 11
146.9334873866
 21
105.6839700873
 31
0.0
  0
LINE
  5
251
330
1F
100
AcDbEntity
  8
0
  6
SLD-Gestrichelt
 62
     7
370
     0
100
AcDbLine
 10
144.9334873935
 20
131.9943059321
 30
0.0
 11
144.9334873935
 21
105.0870346922
 31
0.0
  0
LINE
  5
252
330
1F
100
AcDbEntity
  8
0
  6
SLD-Gestrichelt
 62
     7
370
     0
100
AcDbLine
 10
230.7334869286
 20
117.7172286521
 30
0.0
 11
230.7334869286
 21
122.705572107
 31
0.0
  0
LINE
  5
253
330
1F
100
AcDbEntity
  8
0
  6
SLD-Gestrichelt
 62
     7
370
     0
100
AcDbLine
 10
230.7334869286
 20
97.9182392444
 30
0.0
 11
230.7334869286
 21
102.9065826993
 31
0.0
  0
LINE
  5
254
330
1F
100
AcDbEntity
  8
0
  6
SLD-Gestrichelt
 62
     7
370
     0
100
AcDbLine
 10
109.1334886035
 20
105.0870346922
 30
0.0
 11
109.1334886035
 21
95.3506611373
 31
0.0
  0
LINE
  5
255
330
1F
100
AcDbEntity
  8
0
  6
SLD-Gestrichelt
 62
     7
370
     0
100
AcDbLine
 10
110.633487918
 20
105.0870346922
 30
0.0
 11
110.633487918
 21
94.60066148
 31
0.0
  0
LINE
  5
256
330
1F
100
AcDbEntity
  8
0
  6
SLD-Gestrichelt
 62
     7
370
     0
100
AcDbLine
 10
144.9334873935
 20
105.0870346922
 30
0.0
 11
144.9334873935
 21
93.8543759372
 31
0.0
  0
ARC
  5
257
330
1F
100
AcDbEntity
  8
0
  6
SLD-Gestrichelt
 62
     7
370
     0
100
AcDbCircle
 10
165.8512841147
 20
99.2400632791
 30
0.0
 40
20.53627315817426
100
AcDbArc
 50
167.3670939911
 51
192.6329060089
  0
LINE
  5
258
330
1F
100
AcDbEntity
  8
0
  6
SLD-Gestrichelt
 62
     7
370
     0
100
AcDbLine
 10
147.1334873816
 20
86.0619049605
 30
0.0
 11
147.226380602
 21
86.1547987993
 31
0.0
  0
LINE
  5
259
330
1F
100
AcDbEntity
  8
0
  6
SLD-Gestrichelt
 62
     7
370
     0
100
AcDbLine
 10
147.226380602
 20
134.4690125521
 30
0.0
 11
147.1334873816
 21
134.561906391
 31
0.0
  0
ARC
  5
25A
330
1F
100
AcDbEntity
  8
0
  6
SLD-Gestrichelt
 62
     7
370
     0
100
AcDbCircle
 10
146.5192738192
 20
86.8619056757
 30
0.0
 40
1.000000000000008
100
AcDbArc
 50
315.0
 51
0.0
  0
ARC
  5
25B
330
1F
100
AcDbEntity
  8
0
  6
SLD-Gestrichelt
 62
     7
370
     0
100
AcDbCircle
 10
146.5192738192
 20
86.8619056757
 30
0.0
 40
1.0
100
AcDbArc
 50
0.0
 51
52.1052014664
  0
ARC
  5
25C
330
1F
100
AcDbEntity
  8
0
  6
SLD-Gestrichelt
 62
     7
370
     0
100
AcDbCircle
 10
146.5192738192
 20
133.7619056757
 30
0.0
 40
1.000000000000008
100
AcDbArc
 50
343.125
 51
45.0
  0
ARC
  5
25D
330
1F
100
AcDbEntity
  8
0
  6
SLD-Gestrichelt
 62
     7
370
     0
100
AcDbCircle
 10
146.5192738192
 20
133.7619056757
 30
0.0
 40
1.000000000000008
100
AcDbArc
 50
307.8947985336
 51
343.125
  0
LINE
  5
25E
330
1F
100
AcDbEntity
  8
0
  6
SLD-Gestrichelt
 62
     7
370
     0
100
AcDbLine
 10
147.5192738174
 20
86.8619054641
 30
0.0
 11
147.5192738174
 21
133.7619058873
 31
0.0
  0
LINE
  5
25F
330
1F
100
AcDbEntity
  8
0
  6
SLD-Gestrichelt
 62
     7
370
     0
100
AcDbLine
 10
147.5192738174
 20
86.8619054641
 30
0.0
 11
147.5192738174
 21
133.7619058873
 31
0.0
  0
LINE
  5
260
330
1F
100
AcDbEntity
  8
0
  6
SLD-Gestrichelt
 62
     7
370
     0
100
AcDbLine
 10
109.1334886035
 20
94.1154759462
 30
0.0
 11
110.6637149235
 21
94.9989546176
 31
0.0
  0
LINE
  5
261
330
1F
100
AcDbEntity
  8
0
  6
SLD-Gestrichelt
 62
     7
370
     0
100
AcDbLine
 10
110.6637149235
 20
125.6248567339
 30
0.0
 11
109.1334886035
 21
126.5083354052
 31
0.0
  0
LINE
  5
262
330
1F
100
AcDbEntity
  8
0
  6
SLD-Gestrichelt
 62
     7
370
     0
100
AcDbLine
 10
119.1334865173
 20
94.3119049157
 30
0.0
 11
120.1352878591
 21
94.3119049157
 31
0.0
  0
LINE
  5
263
330
1F
100
AcDbEntity
  8
0
  6
SLD-Gestrichelt
 62
     7
370
     0
100
AcDbLine
 10
120.1352878591
 20
126.3119064357
 30
0.0
 11
119.1334865173
 21
126.3119064357
 31
0.0
  0
ARC
  5
264
330
1F
100
AcDbEntity
  8
0
  6
SLD-Gestrichelt
 62
     7
370
     0
100
AcDbCircle
 10
120.1352886965
 20
96.3119056757
 30
0.0
 40
2.000000000000014
100
AcDbArc
 50
270.0
 51
315.0
  0
ARC
  5
265
330
1F
100
AcDbEntity
  8
0
  6
SLD-Gestrichelt
 62
     7
370
     0
100
AcDbCircle
 10
120.1352886965
 20
124.3119056757
 30
0.0
 40
2.000000000000006
100
AcDbArc
 50
45.0
 51
90.0
  0
ARC
  5
266
330
1F
100
AcDbEntity
  8
0
  6
SLD-Gestrichelt
 62
     7
370
     0
100
AcDbCircle
 10
119.1334873816
 20
96.3119056757
 30
0.0
 40
2.000000000000014
100
AcDbArc
 50
189.9742217944
 51
270.0
  0
ARC
  5
267
330
1F
100
AcDbEntity
  8
0
  6
SLD-Gestrichelt
 62
     7
370
     0
100
AcDbCircle
 10
119.1334873816
 20
124.3119056757
 30
0.0
 40
2.000000000000006
100
AcDbArc
 50
90.0
 51
170.0257782056
  0
LINE
  5
268
330
1F
100
AcDbEntity
  8
0
  6
SLD-Gestrichelt
 62
     7
370
     0
100
AcDbLine
 10
121.5495030513
 20
94.897691914
 30
0.0
 11
122.9637163808
 21
96.3119052436
 31
0.0
  0
LINE
  5
269
330
1F
100
AcDbEntity
  8
0
  6
SLD-Gestrichelt
 62
     7
370
     0
100
AcDbLine
 10
122.9637163808
 20
124.3119061078
 30
0.0
 11
121.5495030513
 21
125.7261194374
 31
0.0
  0
LINE
  5
26A
330
1F
100
AcDbEntity
  8
0
  6
SLD-Gestrichelt
 62
     7
370
     0
100
AcDbLine
 10
110.6637149235
 20
94.9989546176
 30
0.0
 11
115.5637159129
 21
96.3119052436
 31
0.0
  0
LINE
  5
26B
330
1F
100
AcDbEntity
  8
0
  6
SLD-Gestrichelt
 62
     7
370
     0
100
AcDbLine
 10
115.5637159129
 20
124.3119061078
 30
0.0
 11
110.6637149235
 21
125.6248567339
 31
0.0
  0
LINE
  5
26C
330
1F
100
AcDbEntity
  8
0
  6
SLD-Gestrichelt
 62
     7
370
     0
100
AcDbLine
 10
117.1637150576
 20
124.6583161961
 30
0.0
 11
116.5637160768
 21
124.3119061078
 31
0.0
  0
LINE
  5
26D
330
1F
100
AcDbEntity
  8
0
  6
SLD-Gestrichelt
 62
     7
370
     0
100
AcDbLine
 10
116.5637160768
 20
96.3119052436
 30
0.0
 11
117.1637150576
 21
95.9654951553
 31
0.0
  0
LINE
  5
26E
330
1F
100
AcDbEntity
  8
0
  6
SLD-Gestrichelt
 62
     7
370
     0
100
AcDbLine
 10
122.9637163808
 20
96.3119052436
 30
0.0
 11
127.6135883411
 21
96.3119052436
 31
0.0
  0
LINE
  5
26F
330
1F
100
AcDbEntity
  8
0
  6
SLD-Gestrichelt
 62
     7
370
     0
100
AcDbLine
 10
127.6299479534
 20
124.3119061078
 30
0.0
 11
122.9637163808
 21
124.3119061078
 31
0.0
  0
ARC
  5
270
330
1F
100
AcDbEntity
  8
0
  6
SLD-Gestrichelt
 62
     7
370
     0
100
AcDbCircle
 10
135.6334873816
 20
96.8119056757
 30
0.0
 40
0.5000000000000061
100
AcDbArc
 50
275.5682401931
 51
0.0
  0
ARC
  5
271
330
1F
100
AcDbEntity
  8
0
  6
SLD-Gestrichelt
 62
     7
370
     0
100
AcDbCircle
 10
135.6334873816
 20
123.8119056757
 30
0.0
 40
0.5000000000000132
100
AcDbArc
 50
0.0
 51
86.7052363418
  0
LINE
  5
272
330
1F
100
AcDbEntity
  8
0
  6
SLD-Gestrichelt
 62
     7
370
     0
100
AcDbLine
 10
115.5637159129
 20
96.3119052436
 30
0.0
 11
116.5637160768
 21
96.3119052436
 31
0.0
  0
LINE
  5
273
330
1F
100
AcDbEntity
  8
0
  6
SLD-Gestrichelt
 62
     7
370
     0
100
AcDbLine
 10
116.5637160768
 20
124.3119061078
 30
0.0
 11
115.5637159129
 21
124.3119061078
 31
0.0
  0
LINE
  5
274
330
1F
100
AcDbEntity
  8
0
  6
SLD-Gestrichelt
 62
     7
370
     0
100
AcDbLine
 10
247.2126661917
 20
103.8915881041
 30
0.0
 11
246.2334885379
 21
102.912410916
 31
0.0
  0
LINE
  5
275
330
1F
100
AcDbEntity
  8
0
  6
SLD-Gestrichelt
 62
     7
370
     0
100
AcDbLine
 10
246.2334885379
 20
97.9124110277
 30
0.0
 11
247.0265506884
 21
97.1193488772
 31
0.0
  0
LINE
  5
276
330
1F
100
AcDbEntity
  8
0
  6
SLD-Gestrichelt
 62
     7
370
     0
100
AcDbLine
 10
247.0265506884
 20
123.5044624742
 30
0.0
 11
246.2334885379
 21
122.7114003237
 31
0.0
  0
LINE
  5
277
330
1F
100
AcDbEntity
  8
0
  6
SLD-Gestrichelt
 62
     7
370
     0
100
AcDbLine
 10
246.2334885379
 20
117.7114004354
 30
0.0
 11
247.2126661917
 21
116.7322232473
 31
0.0
  0
LINE
  5
278
330
1F
100
AcDbEntity
  8
0
  6
SLD-Gestrichelt
 62
     7
370
     0
100
AcDbLine
 10
246.2334885379
 20
122.7114003237
 30
0.0
 11
230.7334869286
 21
122.7114003237
 31
0.0
  0
LINE
  5
279
330
1F
100
AcDbEntity
  8
0
  6
SLD-Gestrichelt
 62
     7
370
     0
100
AcDbLine
 10
230.7334869286
 20
117.7114004354
 30
0.0
 11
246.2334885379
 21
117.7114004354
 31
0.0
  0
LINE
  5
27A
330
1F
100
AcDbEntity
  8
0
  6
SLD-Gestrichelt
 62
     7
370
     0
100
AcDbLine
 10
230.7334869286
 20
122.7114003237
 30
0.0
 11
229.2313381215
 21
120.2114008452
 31
0.0
  0
LINE
  5
27B
330
1F
100
AcDbEntity
  8
0
  6
SLD-Gestrichelt
 62
     7
370
     0
100
AcDbLine
 10
229.2313381215
 20
120.2114008452
 30
0.0
 11
230.7334869286
 21
117.7114004354
 31
0.0
  0
LINE
  5
27C
330
1F
100
AcDbEntity
  8
0
  6
SLD-Gestrichelt
 62
     7
370
     0
100
AcDbLine
 10
246.2334885379
 20
102.912410916
 30
0.0
 11
230.7334869286
 21
102.912410916
 31
0.0
  0
LINE
  5
27D
330
1F
100
AcDbEntity
  8
0
  6
SLD-Gestrichelt
 62
     7
370
     0
100
AcDbLine
 10
230.7334869286
 20
97.9124110277
 30
0.0
 11
246.2334885379
 21
97.9124110277
 31
0.0
  0
LINE
  5
27E
330
1F
100
AcDbEntity
  8
0
  6
SLD-Gestrichelt
 62
     7
370
     0
100
AcDbLine
 10
230.7334869286
 20
102.912410916
 30
0.0
 11
229.2313381215
 21
100.4124105062
 31
0.0
  0
LINE
  5
27F
330
1F
100
AcDbEntity
  8
0
  6
SLD-Gestrichelt
 62
     7
370
     0
100
AcDbLine
 10
229.2313381215
 20
100.4124105062
 30
0.0
 11
230.7334869286
 21
97.9124110277
 31
0.0
  0
LINE
  5
280
330
1F
100
AcDbEntity
  8
0
  6
SLD-Gestrichelt
 62
     7
370
     0
100
AcDbLine
 10
136.1334874412
 20
100.0619053926
 30
0.0
 11
137.3834871804
 21
101.3119060631
 31
0.0
  0
LINE
  5
281
330
1F
100
AcDbEntity
  8
0
  6
SLD-Gestrichelt
 62
     7
370
     0
100
AcDbLine
 10
137.3834871804
 20
119.3119052883
 30
0.0
 11
136.1334874412
 21
120.5619059588
 31
0.0
  0
LINE
  5
282
330
1F
100
AcDbEntity
  8
0
  6
SLD-Gestrichelt
 62
     7
370
     0
100
AcDbLine
 10
137.3834871804
 20
101.3119060631
 30
0.0
 11
163.1334881415
 21
101.3119060631
 31
0.0
  0
LINE
  5
283
330
1F
100
AcDbEntity
  8
0
  6
SLD-Gestrichelt
 62
     7
370
     0
100
AcDbLine
 10
163.1334881415
 20
119.3119052883
 30
0.0
 11
137.3834871804
 21
119.3119052883
 31
0.0
  0
LINE
  5
284
330
1F
100
AcDbEntity
  8
0
  6
SLD-Gestrichelt
 62
     7
370
     0
100
AcDbLine
 10
163.1334881415
 20
101.3119060631
 30
0.0
 11
165.9875746002
 21
106.0619054447
 31
0.0
  0
LINE
  5
285
330
1F
100
AcDbEntity
  8
0
  6
SLD-Gestrichelt
 62
     7
370
     0
100
AcDbLine
 10
165.9875746002
 20
114.5619059067
 30
0.0
 11
163.1334881415
 21
119.3119052883
 31
0.0
  0
LINE
  5
286
330
1F
100
AcDbEntity
  8
0
  6
SLD-Gestrichelt
 62
     7
370
     0
100
AcDbLine
 10
247.4803804537
 20
117.2587967563
 30
0.0
 11
246.5334861656
 21
116.3119057279
 31
0.0
  0
LINE
  5
287
330
1F
100
AcDbEntity
  8
0
  6
SLD-Gestrichelt
 62
     7
370
     0
100
AcDbLine
 10
246.5334861656
 20
104.3119056236
 30
0.0
 11
247.4803804537
 21
103.3650145951
 31
0.0
  0
LINE
  5
288
330
1F
100
AcDbEntity
  8
0
  6
SLD-Gestrichelt
 62
     7
370
     0
100
AcDbLine
 10
136.0666184803
 20
89.9310194041
 30
0.0
 11
135.6834872743
 21
90.3141506101
 31
0.0
  0
LINE
  5
289
330
1F
100
AcDbEntity
  8
0
  6
SLD-Gestrichelt
 62
     7
370
     0
100
AcDbLine
 10
127.5834879955
 20
90.3141506101
 30
0.0
 11
127.4327720632
 21
90.1634346779
 31
0.0
  0
LINE
  5
28A
330
1F
100
AcDbEntity
  8
0
  6
SLD-Gestrichelt
 62
     7
370
     0
100
AcDbLine
 10
241.2334858557
 20
114.5619059067
 30
0.0
 11
165.9875746002
 21
114.5619059067
 31
0.0
  0
LINE
  5
28B
330
1F
100
AcDbEntity
  8
0
  6
SLD-Gestrichelt
 62
     7
370
     0
100
AcDbLine
 10
165.9875746002
 20
106.0619054447
 30
0.0
 11
241.2334858557
 21
106.0619054447
 31
0.0
  0
LINE
  5
28C
330
1F
100
AcDbEntity
  8
0
  6
SLD-Gestrichelt
 62
     7
370
     0
100
AcDbLine
 10
241.2334858557
 20
106.0619054447
 30
0.0
 11
241.9845639845
 21
107.3119056496
 31
0.0
  0
LINE
  5
28D
330
1F
100
AcDbEntity
  8
0
  6
SLD-Gestrichelt
 62
     7
370
     0
100
AcDbLine
 10
241.9845639845
 20
113.3119057018
 30
0.0
 11
241.2334858557
 21
114.5619059067
 31
0.0
  0
LINE
  5
28E
330
1F
100
AcDbEntity
  8
0
  6
SLD-Gestrichelt
 62
     7
370
     0
100
AcDbLine
 10
115.5834860285
 20
92.3119064506
 30
0.0
 11
109.1334886035
 21
92.3119064506
 31
0.0
  0
LINE
  5
28F
330
1F
100
AcDbEntity
  8
0
  6
SLD-Gestrichelt
 62
     7
370
     0
100
AcDbLine
 10
117.4925035914
 20
90.4028907503
 30
0.0
 11
115.5834860285
 21
92.3119064506
 31
0.0
  0
LINE
  5
290
330
1F
100
AcDbEntity
  8
0
  6
SLD-Gestrichelt
 62
     7
370
     0
100
AcDbLine
 10
135.6834872743
 20
90.3141506101
 30
0.0
 11
135.6834872743
 21
96.3147234257
 31
0.0
  0
LINE
  5
291
330
1F
100
AcDbEntity
  8
0
  6
SLD-Gestrichelt
 62
     7
370
     0
100
AcDbLine
 10
127.5834879955
 20
96.3203933175
 30
0.0
 11
127.5834879955
 21
90.3141506101
 31
0.0
  0
LINE
  5
292
330
1F
100
AcDbEntity
  8
0
  6
SLD-Gestrichelt
 62
     7
370
     0
100
AcDbLine
 10
135.6834872743
 20
124.3044164117
 30
0.0
 11
135.6834872743
 21
127.8119057502
 31
0.0
  0
LINE
  5
293
330
1F
100
AcDbEntity
  8
0
  6
SLD-Gestrichelt
 62
     7
370
     0
100
AcDbLine
 10
127.5834879955
 20
127.8119057502
 30
0.0
 11
127.5834879955
 21
124.2986599069
 31
0.0
  0
LINE
  5
294
330
1F
100
AcDbEntity
  8
0
  6
SLD-Gestrichelt
 62
     7
370
     0
100
AcDbLine
 10
135.6834872743
 20
127.8119057502
 30
0.0
 11
131.6334876349
 21
130.245392033
 31
0.0
  0
LINE
  5
295
330
1F
100
AcDbEntity
  8
0
  6
SLD-Gestrichelt
 62
     7
370
     0
100
AcDbLine
 10
131.6334876349
 20
130.245392033
 30
0.0
 11
127.5834879955
 21
127.8119057502
 31
0.0
  0
LINE
  5
296
330
1F
100
AcDbEntity
  8
0
  6
SLD-Gestrichelt
 62
     7
370
     0
100
AcDbLine
 10
245.0834839722
 20
114.0119056768
 30
0.0
 11
243.5834883829
 21
114.0119056768
 31
0.0
  0
LINE
  5
297
330
1F
100
AcDbEntity
  8
0
  6
SLD-Gestrichelt
 62
     7
370
     0
100
AcDbLine
 10
243.5834883829
 20
106.6119056746
 30
0.0
 11
245.0834839722
 21
106.6119056746
 31
0.0
  0
LINE
  5
298
330
1F
100
AcDbEntity
  8
0
  6
SLD-Gestrichelt
 62
     7
370
     0
100
AcDbLine
 10
246.5334861656
 20
113.5619057428
 30
0.0
 11
246.1004733225
 21
113.3119057018
 31
0.0
  0
LINE
  5
299
330
1F
100
AcDbEntity
  8
0
  6
SLD-Gestrichelt
 62
     7
370
     0
100
AcDbLine
 10
246.1004733225
 20
107.3119056496
 30
0.0
 11
246.5334861656
 21
107.0619056087
 31
0.0
  0
LINE
  5
29A
330
1F
100
AcDbEntity
  8
0
  6
SLD-Gestrichelt
 62
     7
370
     0
100
AcDbLine
 10
246.1004733225
 20
113.3119057018
 30
0.0
 11
245.0834839722
 21
113.3119057018
 31
0.0
  0
LINE
  5
29B
330
1F
100
AcDbEntity
  8
0
  6
SLD-Gestrichelt
 62
     7
370
     0
100
AcDbLine
 10
245.0834839722
 20
107.3119056496
 30
0.0
 11
246.1004733225
 21
107.3119056496
 31
0.0
  0
LINE
  5
29C
330
1F
100
AcDbEntity
  8
0
  6
SLD-Gestrichelt
 62
     7
370
     0
100
AcDbLine
 10
243.5834883829
 20
113.3119057018
 30
0.0
 11
241.9845639845
 21
113.3119057018
 31
0.0
  0
LINE
  5
29D
330
1F
100
AcDbEntity
  8
0
  6
SLD-Gestrichelt
 62
     7
370
     0
100
AcDbLine
 10
241.9845639845
 20
107.3119056496
 30
0.0
 11
243.5834883829
 21
107.3119056496
 31
0.0
  0
LINE
  5
29E
330
1F
100
AcDbEntity
  8
0
  6
SLD-Gestrichelt
 62
     7
370
     0
100
AcDbLine
 10
157.133487158
 20
79.3119061823
 30
0.0
 11
157.133487158
 21
78.8119051691
 31
0.0
  0
LINE
  5
29F
330
1F
100
AcDbEntity
  8
0
  6
SLD-Gestrichelt
 62
     7
370
     0
100
AcDbLine
 10
161.1334878137
 20
78.8119051691
 30
0.0
 11
161.1334878137
 21
79.3119061823
 31
0.0
  0
LINE
  5
2A0
330
1F
100
AcDbEntity
  8
0
  6
SLD-Gestrichelt
 62
     7
370
     0
100
AcDbLine
 10
161.1334878137
 20
79.3119061823
 30
0.0
 11
159.1334874859
 21
80.5136270906
 31
0.0
  0
LINE
  5
2A1
330
1F
100
AcDbEntity
  8
0
  6
SLD-Gestrichelt
 62
     7
370
     0
100
AcDbLine
 10
159.1334874859
 20
80.5136270906
 30
0.0
 11
157.133487158
 21
79.3119061823
 31
0.0
  0
LINE
  5
2A2
330
1F
100
AcDbEntity
  8
VERMASSUNG
  6
SLD-Punktstrich
100
AcDbLine
 10
107.06474093
 20
110.3119056757
 30
0.0
 11
287.1334873816
 21
110.3119056757
 31
0.0
  0
LINE
  5
2A3
330
1F
100
AcDbEntity
  8
VERMASSUNG
  6
SLD-Punktstrich
100
AcDbLine
 10
287.1334873816
 20
133.2573544001
 30
0.0
 11
287.1334873816
 21
110.3119056757
 31
0.0
  0
LINE
  5
2A4
330
1F
100
AcDbEntity
  8
VERMASSUNG
  6
SLD-Punktstrich
100
AcDbLine
 10
247.1334873816
 20
127.5828204333
 30
0.0
 11
247.1334873816
 21
92.2265887759
 31
0.0
  0
DIMENSION
  5
2A5
330
1F
100
AcDbEntity
  8
VERMASSUNG
100
AcDbDimension
  2
_D
 10
287.1334873816
 20
154.8132731108
 30
0.0
 11
217.1334873816
 21
154.8132731108
 31
0.0
 70
   160
  1
<>
 71
     2
 42
-1.0
  3
SLDDIMSTYLE0
100
AcDbAlignedDimension
 13
147.1334873816
 23
141.3119056757
 33
0.0
 14
287.1334873816
 24
133.2573544001
 34
0.0
100
AcDbRotatedDimension
  0
DIMENSION
  5
2B0
330
1F
100
AcDbEntity
  8
VERMASSUNG
100
AcDbDimension
  2
_D_1
 10
247.1334873816
 20
148.5269326729
 30
0.0
 11
197.1334873816
 21
148.5269326729
 31
0.0
 70
   160
  1
<>
 71
     2
 42
-1.0
  3
SLDDIMSTYLE0
100
AcDbAlignedDimension
 13
147.1334873816
 23
141.3119056757
 33
0.0
 14
247.1334873816
 24
127.5828204333
 34
0.0
100
AcDbRotatedDimension
  0
DIMENSION
  5
2BA
330
1F
100
AcDbEntity
  8
VERMASSUNG
100
AcDbDimension
  2
_D_2
 10
102.350139227
 20
78.8119056757
 30
0.0
 11
102.350139227
 21
110.3119056757
 31
0.0
 70
   160
  1
PSC%%c<>
 71
     2
 42
-1.0
  3
SLDDIMSTYLE0
100
AcDbAlignedDimension
 13
147.6334873816
 23
141.8119056757
 33
0.0
 14
147.6334873816
 24
78.8119056757
 34
0.0
 50
90.0
100
AcDbRotatedDimension
  0
DIMENSION
  5
2C6
330
1F
100
AcDbEntity
  8
VERMASSUNG
100
AcDbDimension
  2
_D_3
 10
224.2981707475
 20
117.2114006123
 30
0.0
 11
224.2981707475
 21
134.3305306926
 31
0.0
 70
   160
  1
M<>
 71
     2
 42
-1.0
  3
SLDDIMSTYLE1
100
AcDbAlignedDimension
 13
237.0879873816
 23
123.2114006123
 33
0.0
 14
237.0879873816
 24
117.2114006123
 34
0.0
 50
90.0
100
AcDbRotatedDimension
  0
DIMENSION
  5
2D4
330
1F
100
AcDbEntity
  8
VERMASSUNG
100
AcDbDimension
  2
_D_4
 10
173.1334873816
 20
134.3119056757
 30
0.0
 11
174.2210930701
 21
135.9903481642
 31
0.0
 70
   164
  1
<>
 71
     1
 42
-1.0
  3
SLDDIMSTYLE2
100
AcDbRadialDimension
 15
170.9582960045
 25
130.9550406988
 35
0.0
 40
0.0
  0
DIMENSION
  5
2DC
330
1F
100
AcDbEntity
  8
VERMASSUNG
100
AcDbDimension
  2
_D_5
 10
198.5719768394
 20
90.3119056757
 30
0.0
 11
198.5719768394
 21
99.5141370337
 31
0.0
 70
   160
  1
%%c<>
 71
     2
 42
-1.0
  3
SLDDIMSTYLE0
100
AcDbAlignedDimension
 13
173.1334873816
 23
130.3119056757
 33
0.0
 14
173.1334873816
 24
90.3119056757
 34
0.0
 50
90.0
100
AcDbRotatedDimension
  0
LINE
  5
2E5
330
1F
100
AcDbEntity
  8
VERMASSUNG
  6
SLD-Punktstrich
370
     0
100
AcDbLine
 10
227.3079575322
 20
120.2114006123
 30
0.0
 11
261.8135896155
 21
120.2114006123
 31
0.0
  0
LINE
  5
2E6
330
1F
100
AcDbEntity
  8
VERMASSUNG
  6
SLD-Punktstrich
370
     0
100
AcDbLine
 10
226.4347708191
 20
100.4124107391
 30
0.0
 11
260.2991236109
 21
100.4124107391
 31
0.0
  0
LINE
  5
2E7
330
1F
100
AcDbEntity
  8
0
  6
SLD-Durchgehend
 62
     7
370
    15
100
AcDbLine
 10
41.817190442
 20
103.2700336623
 30
0.0
 11
39.6777059321
 21
101.2604840185
 31
0.0
  0
LINE
  5
2E8
330
1F
100
AcDbEntity
  8
0
  6
SLD-Durchgehend
 62
     7
370
    15
100
AcDbLine
 10
39.6777059321
 20
101.2604840185
 30
0.0
 11
40.3482842629
 21
98.402861328
 31
0.0
  0
LINE
  5
2E9
330
1F
100
AcDbEntity
  8
0
  6
SLD-Durchgehend
 62
     7
370
    15
100
AcDbLine
 10
43.1583480348
 20
97.5547878157
 30
0.0
 11
40.3482842629
 21
98.402861328
 31
0.0
  0
LINE
  5
2EA
330
1F
100
AcDbEntity
  8
0
  6
SLD-Durchgehend
 62
     7
370
    15
100
AcDbLine
 10
45.2978325446
 20
99.5643379252
 30
0.0
 11
43.1583480348
 21
97.5547878157
 31
0.0
  0
LINE
  5
2EB
330
1F
100
AcDbEntity
  8
0
  6
SLD-Durchgehend
 62
     7
370
    15
100
AcDbLine
 10
45.2978325446
 20
99.5643379252
 30
0.0
 11
44.6272537482
 21
102.4219606157
 31
0.0
  0
LINE
  5
2EC
330
1F
100
AcDbEntity
  8
0
  6
SLD-Durchgehend
 62
     7
370
    15
100
AcDbLine
 10
41.817190442
 20
103.2700336623
 30
0.0
 11
44.6272537482
 21
102.4219606157
 31
0.0
  0
CIRCLE
  5
2ED
330
1F
100
AcDbEntity
  8
0
  6
SLD-Durchgehend
 62
     7
370
    15
100
AcDbCircle
 10
42.4877690056
 20
100.4124107391
 30
0.0
 40
5.000000000000001
  0
ARC
  5
2EE
330
1F
100
AcDbEntity
  8
0
  6
SLD-Durchgehend
 62
     7
370
    15
100
AcDbCircle
 10
42.4877690056
 20
100.4124107391
 30
0.0
 40
2.54200000000001
100
AcDbArc
 50
253.2062589409
 51
313.2062589409
  0
ARC
  5
2EF
330
1F
100
AcDbEntity
  8
0
  6
SLD-Durchgehend
 62
     7
370
    15
100
AcDbCircle
 10
42.4877690056
 20
100.4124107391
 30
0.0
 40
2.541999999999988
100
AcDbArc
 50
73.2062589409
 51
133.2062589409
  0
ARC
  5
2F0
330
1F
100
AcDbEntity
  8
0
  6
SLD-Durchgehend
 62
     7
370
    15
100
AcDbCircle
 10
42.4877690056
 20
100.4124107391
 30
0.0
 40
2.542000000000008
100
AcDbArc
 50
313.2062589409
 51
13.2062589409
  0
ARC
  5
2F1
330
1F
100
AcDbEntity
  8
0
  6
SLD-Durchgehend
 62
     7
370
    15
100
AcDbCircle
 10
42.4877690056
 20
100.4124107391
 30
0.0
 40
2.541999999999994
100
AcDbArc
 50
13.2062589409
 51
73.2062589409
  0
ARC
  5
2F2
330
1F
100
AcDbEntity
  8
0
  6
SLD-Durchgehend
 62
     7
370
    15
100
AcDbCircle
 10
42.4877690056
 20
100.4124107391
 30
0.0
 40
2.54200000000001
100
AcDbArc
 50
193.2062589409
 51
253.2062589409
  0
ARC
  5
2F3
330
1F
100
AcDbEntity
  8
0
  6
SLD-Durchgehend
 62
     7
370
    15
100
AcDbCircle
 10
42.4877690056
 20
100.4124107391
 30
0.0
 40
2.542000000000002
100
AcDbArc
 50
133.2062589409
 51
193.2062589409
  0
CIRCLE
  5
2F4
330
1F
100
AcDbEntity
  8
0
  6
SLD-Durchgehend
 62
     7
370
    15
100
AcDbCircle
 10
42.4877690056
 20
120.2114006123
 30
0.0
 40
4.999999999999993
  0
LINE
  5
2F5
330
1F
100
AcDbEntity
  8
0
  6
SLD-Durchgehend
 62
     7
370
    15
100
AcDbLine
 10
43.5883778517
 20
117.4903081815
 30
0.0
 11
45.3946090673
 21
119.8040096174
 31
0.0
  0
LINE
  5
2F6
330
1F
100
AcDbEntity
  8
0
  6
SLD-Durchgehend
 62
     7
370
    15
100
AcDbLine
 10
45.3946090673
 20
119.8040096174
 30
0.0
 11
44.2939999883
 21
122.5251022812
 31
0.0
  0
LINE
  5
2F7
330
1F
100
AcDbEntity
  8
0
  6
SLD-Durchgehend
 62
     7
370
    15
100
AcDbLine
 10
41.3871596937
 20
122.9324935089
 30
0.0
 11
44.2939999883
 21
122.5251022812
 31
0.0
  0
LINE
  5
2F8
330
1F
100
AcDbEntity
  8
0
  6
SLD-Durchgehend
 62
     7
370
    15
100
AcDbLine
 10
39.5809294094
 20
120.6187911417
 30
0.0
 11
41.3871596937
 21
122.9324935089
 31
0.0
  0
LINE
  5
2F9
330
1F
100
AcDbEntity
  8
0
  6
SLD-Durchgehend
 62
     7
370
    15
100
AcDbLine
 10
39.5809294094
 20
120.6187911417
 30
0.0
 11
40.6815384885
 21
117.8976989436
 31
0.0
  0
LINE
  5
2FA
330
1F
100
AcDbEntity
  8
0
  6
SLD-Durchgehend
 62
     7
370
    15
100
AcDbLine
 10
43.5883778517
 20
117.4903081815
 30
0.0
 11
40.6815384885
 21
117.8976989436
 31
0.0
  0
ARC
  5
2FB
330
1F
100
AcDbEntity
  8
0
  6
SLD-Durchgehend
 62
     7
370
    15
100
AcDbCircle
 10
42.4877690056
 20
120.2114006123
 30
0.0
 40
2.542000000000011
100
AcDbArc
 50
22.0220130834
 51
82.0220130834
  0
ARC
  5
2FC
330
1F
100
AcDbEntity
  8
0
  6
SLD-Durchgehend
 62
     7
370
    15
100
AcDbCircle
 10
42.4877690056
 20
120.2114006123
 30
0.0
 40
2.542000000000002
100
AcDbArc
 50
262.0220130834
 51
322.0220130834
  0
ARC
  5
2FD
330
1F
100
AcDbEntity
  8
0
  6
SLD-Durchgehend
 62
     7
370
    15
100
AcDbCircle
 10
42.4877690056
 20
120.2114006123
 30
0.0
 40
2.542000000000006
100
AcDbArc
 50
82.0220130834
 51
142.0220130834
  0
ARC
  5
2FE
330
1F
100
AcDbEntity
  8
0
  6
SLD-Durchgehend
 62
     7
370
    15
100
AcDbCircle
 10
42.4877690056
 20
120.2114006123
 30
0.0
 40
2.542000000000011
100
AcDbArc
 50
322.0220130834
 51
22.0220130834
  0
ARC
  5
2FF
330
1F
100
AcDbEntity
  8
0
  6
SLD-Durchgehend
 62
     7
370
    15
100
AcDbCircle
 10
42.4877690056
 20
120.2114006123
 30
0.0
 40
2.542
100
AcDbArc
 50
142.0220130834
 51
202.0220130834
  0
ARC
  5
300
330
1F
100
AcDbEntity
  8
0
  6
SLD-Durchgehend
 62
     7
370
    15
100
AcDbCircle
 10
42.4877690056
 20
120.2114006123
 30
0.0
 40
2.541999999999993
100
AcDbArc
 50
202.0220130834
 51
262.0220130834
  0
CIRCLE
  5
301
330
1F
100
AcDbEntity
  8
0
  6
SLD-Durchgehend
 62
     7
370
    15
100
AcDbCircle
 10
62.2867588789
 20
120.2114006123
 30
0.0
 40
5.000000000000001
  0
LINE
  5
302
330
1F
100
AcDbEntity
  8
0
  6
SLD-Durchgehend
 62
     7
370
    15
100
AcDbLine
 10
62.4470192378
 20
123.1422711249
 30
0.0
 11
59.828680325
 21
121.8156254004
 31
0.0
  0
LINE
  5
303
330
1F
100
AcDbEntity
  8
0
  6
SLD-Durchgehend
 62
     7
370
    15
100
AcDbLine
 10
59.828680325
 20
121.8156254004
 30
0.0
 11
59.6684206647
 21
118.8847541894
 31
0.0
  0
LINE
  5
304
330
1F
100
AcDbEntity
  8
0
  6
SLD-Durchgehend
 62
     7
370
    15
100
AcDbLine
 10
62.1264989858
 20
117.2805300999
 30
0.0
 11
59.6684206647
 21
118.8847541894
 31
0.0
  0
LINE
  5
305
330
1F
100
AcDbEntity
  8
0
  6
SLD-Durchgehend
 62
     7
370
    15
100
AcDbLine
 10
64.7448369672
 20
118.60717629
 30
0.0
 11
62.1264989858
 21
117.2805300999
 31
0.0
  0
LINE
  5
306
330
1F
100
AcDbEntity
  8
0
  6
SLD-Durchgehend
 62
     7
370
    15
100
AcDbLine
 10
64.7448369672
 20
118.60717629
 30
0.0
 11
64.9050970932
 21
121.5380465697
 31
0.0
  0
LINE
  5
307
330
1F
100
AcDbEntity
  8
0
  6
SLD-Durchgehend
 62
     7
370
    15
100
AcDbLine
 10
62.4470192378
 20
123.1422711249
 30
0.0
 11
64.9050970932
 21
121.5380465697
 31
0.0
  0
ARC
  5
308
330
1F
100
AcDbEntity
  8
0
  6
SLD-Durchgehend
 62
     7
370
    15
100
AcDbCircle
 10
62.2867588789
 20
120.2114006123
 30
0.0
 40
2.54200000000001
100
AcDbArc
 50
236.8701833941
 51
296.8701833941
  0
ARC
  5
309
330
1F
100
AcDbEntity
  8
0
  6
SLD-Durchgehend
 62
     7
370
    15
100
AcDbCircle
 10
62.2867588789
 20
120.2114006123
 30
0.0
 40
2.54200000000001
100
AcDbArc
 50
296.8701833941
 51
356.8701833941
  0
ARC
  5
30A
330
1F
100
AcDbEntity
  8
0
  6
SLD-Durchgehend
 62
     7
370
    15
100
AcDbCircle
 10
62.2867588789
 20
120.2114006123
 30
0.0
 40
2.542000000000002
100
AcDbArc
 50
176.8701833941
 51
236.8701833941
  0
ARC
  5
30B
330
1F
100
AcDbEntity
  8
0
  6
SLD-Durchgehend
 62
     7
370
    15
100
AcDbCircle
 10
62.2867588789
 20
120.2114006123
 30
0.0
 40
2.541999999999996
100
AcDbArc
 50
116.8701833941
 51
176.8701833941
  0
ARC
  5
30C
330
1F
100
AcDbEntity
  8
0
  6
SLD-Durchgehend
 62
     7
370
    15
100
AcDbCircle
 10
62.2867588789
 20
120.2114006123
 30
0.0
 40
2.541999999999994
100
AcDbArc
 50
56.8701833941
 51
116.8701833941
  0
ARC
  5
30D
330
1F
100
AcDbEntity
  8
0
  6
SLD-Durchgehend
 62
     7
370
    15
100
AcDbCircle
 10
62.2867588789
 20
120.2114006123
 30
0.0
 40
2.541999999999994
100
AcDbArc
 50
356.8701833941
 51
56.8701833941
  0
LINE
  5
30E
330
1F
100
AcDbEntity
  8
0
  6
SLD-Durchgehend
 62
     7
370
    15
100
AcDbLine
 10
63.9410515686
 20
97.9877457108
 30
0.0
 11
65.2137271498
 21
100.632737213
 31
0.0
  0
LINE
  5
30F
330
1F
100
AcDbEntity
  8
0
  6
SLD-Durchgehend
 62
     7
370
    15
100
AcDbLine
 10
65.2137271498
 20
100.632737213
 30
0.0
 11
63.559434693
 21
103.057402474
 31
0.0
  0
LINE
  5
310
330
1F
100
AcDbEntity
  8
0
  6
SLD-Durchgehend
 62
     7
370
    15
100
AcDbLine
 10
60.632466655
 20
102.8370762329
 30
0.0
 11
63.559434693
 21
103.057402474
 31
0.0
  0
LINE
  5
311
330
1F
100
AcDbEntity
  8
0
  6
SLD-Durchgehend
 62
     7
370
    15
100
AcDbLine
 10
59.3597910737
 20
100.1920837994
 30
0.0
 11
60.632466655
 21
102.8370762329
 31
0.0
  0
LINE
  5
312
330
1F
100
AcDbEntity
  8
0
  6
SLD-Durchgehend
 62
     7
370
    15
100
AcDbLine
 10
59.3597910737
 20
100.1920837994
 30
0.0
 11
61.0140835305
 21
97.767419004
 31
0.0
  0
LINE
  5
313
330
1F
100
AcDbEntity
  8
0
  6
SLD-Durchgehend
 62
     7
370
    15
100
AcDbLine
 10
63.9410515686
 20
97.9877457108
 30
0.0
 11
61.0140835305
 21
97.767419004
 31
0.0
  0
CIRCLE
  5
314
330
1F
100
AcDbEntity
  8
0
  6
SLD-Durchgehend
 62
     7
370
    15
100
AcDbCircle
 10
62.2867588789
 20
100.4124107391
 30
0.0
 40
4.999999999999998
  0
ARC
  5
315
330
1F
100
AcDbEntity
  8
0
  6
SLD-Durchgehend
 62
     7
370
    15
100
AcDbCircle
 10
62.2867588789
 20
100.4124107391
 30
0.0
 40
2.542000000000006
100
AcDbArc
 50
34.3048024535
 51
94.3048024535
  0
ARC
  5
316
330
1F
100
AcDbEntity
  8
0
  6
SLD-Durchgehend
 62
     7
370
    15
100
AcDbCircle
 10
62.2867588789
 20
100.4124107391
 30
0.0
 40
2.542000000000005
100
AcDbArc
 50
274.3048024535
 51
334.3048024535
  0
ARC
  5
317
330
1F
100
AcDbEntity
  8
0
  6
SLD-Durchgehend
 62
     7
370
    15
100
AcDbCircle
 10
62.2867588789
 20
100.4124107391
 30
0.0
 40
2.541999999999992
100
AcDbArc
 50
214.3048024535
 51
274.3048024535
  0
ARC
  5
318
330
1F
100
AcDbEntity
  8
0
  6
SLD-Durchgehend
 62
     7
370
    15
100
AcDbCircle
 10
62.2867588789
 20
100.4124107391
 30
0.0
 40
2.542000000000005
100
AcDbArc
 50
334.3048024535
 51
34.3048024535
  0
ARC
  5
319
330
1F
100
AcDbEntity
  8
0
  6
SLD-Durchgehend
 62
     7
370
    15
100
AcDbCircle
 10
62.2867588789
 20
100.4124107391
 30
0.0
 40
2.541999999999992
100
AcDbArc
 50
154.3048024535
 51
214.3048024535
  0
ARC
  5
31A
330
1F
100
AcDbEntity
  8
0
  6
SLD-Durchgehend
 62
     7
370
    15
100
AcDbCircle
 10
62.2867588789
 20
100.4124107391
 30
0.0
 40
2.542000000000006
100
AcDbArc
 50
94.3048024535
 51
154.3048024535
  0
CIRCLE
  5
31B
330
1F
100
AcDbEntity
  8
0
  6
SLD-Durchgehend
 62
     7
370
    15
100
AcDbCircle
 10
52.3872639422
 20
110.3119056757
 30
0.0
 40
19.99999999999998
  0
LINE
  5
31C
330
1F
100
AcDbEntity
  8
0
  6
SLD-Durchgehend
 62
     7
370
    15
100
AcDbLine
 10
71.2661187534
 20
111.2056879179
 30
0.0
 11
72.1079095637
 21
111.7079826623
 31
0.0
  0
ARC
  5
31D
330
1F
100
AcDbEntity
  8
0
  6
SLD-Durchgehend
 62
     7
370
    15
100
AcDbCircle
 10
72.0393362058
 20
111.8072894427
 30
0.0
 40
0.12068198724956
100
AcDbArc
 50
304.6258703726
 51
64.0770235497
  0
LINE
  5
31E
330
1F
100
AcDbEntity
  8
0
  6
SLD-Durchgehend
 62
     7
370
    15
100
AcDbLine
 10
72.0920938437
 20
111.9158287152
 30
0.0
 11
71.1695387398
 21
112.4181233432
 31
0.0
  0
ARC
  5
31F
330
1F
100
AcDbEntity
  8
0
  6
SLD-Durchgehend
 62
     7
370
    15
100
AcDbCircle
 10
52.3872639422
 20
110.3119056757
 30
0.0
 40
18.89999999999998
100
AcDbArc
 50
6.3983373518
 51
7.276348303
  0
LINE
  5
320
330
1F
100
AcDbEntity
  8
0
  6
SLD-Durchgehend
 62
     7
370
    15
100
AcDbLine
 10
71.1350593154
 20
112.7056878145
 30
0.0
 11
71.9439930652
 21
113.2079826753
 31
0.0
  0
ARC
  5
321
330
1F
100
AcDbEntity
  8
0
  6
SLD-Durchgehend
 62
     7
370
    15
100
AcDbCircle
 10
71.8676259692
 20
113.3026306294
 30
0.0
 40
0.1216148369770169
100
AcDbArc
 50
308.8984691223
 51
68.5585878788
  0
LINE
  5
322
330
1F
100
AcDbEntity
  8
0
  6
SLD-Durchgehend
 62
     7
370
    15
100
AcDbLine
 10
71.9120822285
 20
113.4158287283
 30
0.0
 11
70.9400310551
 21
113.9181233562
 31
0.0
  0
ARC
  5
323
330
1F
100
AcDbEntity
  8
0
  6
SLD-Durchgehend
 62
     7
370
    15
100
AcDbCircle
 10
52.3872639422
 20
110.3119056757
 30
0.0
 40
18.89999999999997
100
AcDbArc
 50
10.999776935
 51
11.8892284564
  0
LINE
  5
324
330
1F
100
AcDbEntity
  8
0
  6
SLD-Durchgehend
 62
     7
370
    15
100
AcDbLine
 10
70.8818159436
 20
114.2056878276
 30
0.0
 11
71.6623108273
 21
114.7079824555
 31
0.0
  0
LWPOLYLINE
  5
325
330
1F
100
AcDbEntity
  8
0
  6
SLD-Durchgehend
 62
     7
370
    15
100
AcDbPolyline
 90
        9
 70
   128
 43
0.0
 10
71.6623108273
 20
114.7079824555
 10
71.6836492901
 20
114.7273083303
 10
71.697475705
 20
114.7523590449
 10
71.7028233593
 20
114.7786898624
 10
71.7008862083
 20
114.8074062626
 10
71.6926197891
 20
114.8340853948
 10
71.6730880921
 20
114.8672013629
 10
71.6371576672
 20
114.9017715912
 10
71.6137255912
 20
114.9158285085
  0
LINE
  5
326
330
1F
100
AcDbEntity
  8
0
  6
SLD-Durchgehend
 62
     7
370
    15
100
AcDbLine
 10
71.6137255912
 20
114.9158285085
 30
0.0
 11
70.5844222938
 21
115.4181233692
 31
0.0
  0
ARC
  5
327
330
1F
100
AcDbEntity
  8
0
  6
SLD-Durchgehend
 62
     7
370
    15
100
AcDbCircle
 10
52.3872639422
 20
110.3119056757
 30
0.0
 40
18.89999999999998
100
AcDbArc
 50
15.6743981476
 51
16.5818813394
  0
LINE
  5
328
330
1F
100
AcDbEntity
  8
0
  6
SLD-Durchgehend
 62
     7
370
    15
100
AcDbLine
 10
70.5012663637
 20
115.7056878406
 30
0.0
 11
71.2575897013
 21
116.2079827014
 31
0.0
  0
LWPOLYLINE
  5
329
330
1F
100
AcDbEntity
  8
0
  6
SLD-Durchgehend
 62
     7
370
    15
100
AcDbPolyline
 90
        9
 70
   128
 43
0.0
 10
71.2575897013
 20
116.2079827014
 10
71.276603583
 20
116.2256443027
 10
71.2890870308
 20
116.2494125861
 10
71.2933450376
 20
116.2795553069
 10
71.2892081027
 20
116.3070283915
 10
71.279028747
 20
116.3331277754
 10
71.2554532473
 20
116.3677664559
 10
71.2128340637
 20
116.4041169073
 10
71.1913857048
 20
116.4158287543
  0
LINE
  5
32A
330
1F
100
AcDbEntity
  8
0
  6
SLD-Durchgehend
 62
     7
370
    15
100
AcDbLine
 10
71.1913857048
 20
116.4158287543
 30
0.0
 11
70.0951128637
 21
116.9181236151
 31
0.0
  0
ARC
  5
32B
330
1F
100
AcDbEntity
  8
0
  6
SLD-Durchgehend
 62
     7
370
    15
100
AcDbCircle
 10
52.3872639422
 20
110.3119056757
 30
0.0
 40
18.89999999999997
100
AcDbArc
 50
20.4588966099
 51
21.3922215885
  0
LINE
  5
32C
330
1F
100
AcDbEntity
  8
0
  6
SLD-Durchgehend
 62
     7
370
    15
100
AcDbLine
 10
69.9851553326
 20
117.2056880865
 30
0.0
 11
70.7216843401
 21
117.7079824816
 31
0.0
  0
LWPOLYLINE
  5
32D
330
1F
100
AcDbEntity
  8
0
  6
SLD-Durchgehend
 62
     7
370
    15
100
AcDbPolyline
 90
        9
 70
   128
 43
0.0
 10
70.7216843401
 20
117.7079824816
 10
70.7386008834
 20
117.7239951763
 10
70.749888513
 20
117.7464079197
 10
70.7530177568
 20
117.7747932348
 10
70.7482102697
 20
117.8008549001
 10
70.7374087905
 20
117.8263298321
 10
70.7120675032
 20
117.8617633964
 10
70.6656056826
 20
117.9004440169
 10
70.6364627366
 20
117.9158285345
  0
LINE
  5
32E
330
1F
100
AcDbEntity
  8
0
  6
SLD-Durchgehend
 62
     7
370
    15
100
AcDbLine
 10
70.6364627366
 20
117.9158285345
 30
0.0
 11
69.4606121068
 21
118.4181233953
 31
0.0
  0
ARC
  5
32F
330
1F
100
AcDbEntity
  8
0
  6
SLD-Durchgehend
 62
     7
370
    15
100
AcDbCircle
 10
52.3872639422
 20
110.3119056757
 30
0.0
 40
18.89999999999997
100
AcDbArc
 50
25.3977977343
 51
26.3667601109
  0
LINE
  5
330
330
1F
100
AcDbEntity
  8
0
  6
SLD-Durchgehend
 62
     7
370
    15
100
AcDbLine
 10
69.3210888093
 20
118.7056878667
 30
0.0
 11
70.042651463
 21
119.2079827275
 31
0.0
  0
LWPOLYLINE
  5
331
330
1F
100
AcDbEntity
  8
0
  6
SLD-Durchgehend
 62
     7
370
    15
100
AcDbPolyline
 90
        9
 70
   128
 43
0.0
 10
70.042651463
 20
119.2079827275
 10
70.0576625203
 20
119.2223455842
 10
70.0679089313
 20
119.2433161746
 10
70.0700900887
 20
119.2698504861
 10
70.0647461598
 20
119.2943526517
 10
70.0499716585
 20
119.3247025918
 10
70.0196049546
 20
119.3617468785
 10
69.9637498145
 20
119.4028228607
 10
69.9363801067
 20
119.4158287804
  0
LINE
  5
332
330
1F
100
AcDbEntity
  8
0
  6
SLD-Durchgehend
 62
     7
370
    15
100
AcDbLine
 10
69.9363801067
 20
119.4158287804
 30
0.0
 11
68.6639513259
 21
119.9181236412
 31
0.0
  0
ARC
  5
333
330
1F
100
AcDbEntity
  8
0
  6
SLD-Durchgehend
 62
     7
370
    15
100
AcDbCircle
 10
52.3872639422
 20
110.3119056757
 30
0.0
 40
18.89999999999998
100
AcDbArc
 50
30.5483638936
 51
31.5660102076
  0
LINE
  5
334
330
1F
100
AcDbEntity
  8
0
  6
SLD-Durchgehend
 62
     7
370
    15
100
AcDbLine
 10
68.4907756184
 20
120.2056881126
 30
0.0
 11
69.2031628822
 21
120.7079829733
 31
0.0
  0
LWPOLYLINE
  5
335
330
1F
100
AcDbEntity
  8
0
  6
SLD-Durchgehend
 62
     7
370
    15
100
AcDbPolyline
 90
        9
 70
   128
 43
0.0
 10
69.2031628822
 20
120.7079829733
 10
69.216428641
 20
120.7206787627
 10
69.2257977461
 20
120.7401080142
 10
69.2272301202
 20
120.7646837543
 10
69.2215155249
 20
120.7874471407
 10
69.2059531246
 20
120.816969135
 10
69.1733475213
 20
120.85450516
 10
69.1111687009
 20
120.898513877
 10
69.0728783046
 20
120.9158290263
  0
LINE
  5
336
330
1F
100
AcDbEntity
  8
0
  6
SLD-Durchgehend
 62
     7
370
    15
100
AcDbLine
 10
69.0728783046
 20
120.9158290263
 30
0.0
 11
67.6798087915
 21
121.4181238871
 31
0.0
  0
ARC
  5
337
330
1F
100
AcDbEntity
  8
0
  6
SLD-Durchgehend
 62
     7
370
    15
100
AcDbCircle
 10
52.3872639422
 20
110.3119056757
 30
0.0
 40
18.89999999999999
100
AcDbArc
 50
35.9890459682
 51
37.0739731725
  0
LINE
  5
338
330
1F
100
AcDbEntity
  8
0
  6
SLD-Durchgehend
 62
     7
370
    15
100
AcDbLine
 10
67.4667771344
 20
121.7056883584
 30
0.0
 11
68.177648205
 21
122.2079822879
 31
0.0
  0
LWPOLYLINE
  5
339
330
1F
100
AcDbEntity
  8
0
  6
SLD-Durchgehend
 62
     7
370
    15
100
AcDbPolyline
 90
        9
 70
   128
 43
0.0
 10
68.177648205
 20
122.2079822879
 10
68.1893009131
 20
122.2189765509
 10
68.1979771142
 20
122.2367489796
 10
68.1988842224
 20
122.2592515956
 10
68.1930075769
 20
122.2800610672
 10
68.1769739275
 20
122.3082251932
 10
68.1424199973
 20
122.3456755366
 10
68.0730625426
 20
122.3926952194
 10
68.0188968216
 20
122.4158283408
  0
LINE
  5
33A
330
1F
100
AcDbEntity
  8
0
  6
SLD-Durchgehend
 62
     7
370
    15
100
AcDbLine
 10
68.0188968216
 20
122.4158283408
 30
0.0
 11
66.4689283257
 21
122.9181232016
 31
0.0
  0
LINE
  5
33B
330
1F
100
AcDbEntity
  8
0
  6
SLD-Durchgehend
 62
     7
370
    15
100
AcDbLine
 10
66.2061053698
 20
123.205687673
 30
0.0
 11
66.926797237
 21
123.7079825338
 31
0.0
  0
LWPOLYLINE
  5
33C
330
1F
100
AcDbEntity
  8
0
  6
SLD-Durchgehend
 62
     7
370
    15
100
AcDbPolyline
 90
        9
 70
   128
 43
0.0
 10
66.926797237
 20
123.7079825338
 10
66.9369365459
 20
123.7172138031
 10
66.9457980802
 20
123.736124308
 10
66.9451424291
 20
123.7568918701
 10
66.9384508764
 20
123.7754456784
 10
66.9203850811
 20
123.8027725454
 10
66.8802264516
 20
123.8411234777
 10
66.795105431
 20
123.8921552982
 10
66.7325131034
 20
123.9158285867
  0
LINE
  5
33D
330
1F
100
AcDbEntity
  8
0
  6
SLD-Durchgehend
 62
     7
370
    15
100
AcDbLine
 10
66.7325131034
 20
123.9158285867
 30
0.0
 11
64.9660009329
 21
124.4181234475
 31
0.0
  0
ARC
  5
33E
330
1F
100
AcDbEntity
  8
0
  6
SLD-Durchgehend
 62
     7
370
    15
100
AcDbCircle
 10
52.3872639422
 20
110.3119056757
 30
0.0
 40
18.89999999999998
100
AcDbArc
 50
48.2761087723
 51
49.6033126775
  0
LINE
  5
33F
330
1F
100
AcDbEntity
  8
0
  6
SLD-Durchgehend
 62
     7
370
    15
100
AcDbLine
 10
64.635898303
 20
124.7056879188
 30
0.0
 11
65.3857172837
 21
125.2079827796
 31
0.0
  0
LWPOLYLINE
  5
340
330
1F
100
AcDbEntity
  8
0
  6
SLD-Durchgehend
 62
     7
370
    15
100
AcDbPolyline
 90
        9
 70
   128
 43
0.0
 10
65.3857172837
 20
125.2079827796
 10
65.394400004
 20
125.2153607171
 10
65.4029383694
 20
125.2312639813
 10
65.4033649151
 20
125.2463067036
 10
65.398352537
 20
125.2623524602
 10
65.383902136
 20
125.2850757997
 10
65.3500718435
 20
125.3181712787
 10
65.2705955689
 20
125.3682131033
 10
65.1436115985
 20
125.4158288326
  0
LINE
  5
341
330
1F
100
AcDbEntity
  8
0
  6
SLD-Durchgehend
 62
     7
370
    15
100
AcDbLine
 10
65.1436115985
 20
125.4158288326
 30
0.0
 11
63.0482196246
 21
125.9181236933
 31
0.0
  0
ARC
  5
342
330
1F
100
AcDbEntity
  8
0
  6
SLD-Durchgehend
 62
     7
370
    15
100
AcDbCircle
 10
52.3872639422
 20
110.3119056757
 30
0.0
 40
18.9
100
AcDbArc
 50
55.6621463087
 51
57.2396056671
  0
LINE
  5
343
330
1F
100
AcDbEntity
  8
0
  6
SLD-Durchgehend
 62
     7
370
    15
100
AcDbLine
 10
62.6145651003
 20
126.2056872334
 30
0.0
 11
63.433600906
 21
126.7079830255
 31
0.0
  0
LWPOLYLINE
  5
344
330
1F
100
AcDbEntity
  8
0
  6
SLD-Durchgehend
 62
     7
370
    15
100
AcDbPolyline
 90
       10
 70
   128
 43
0.0
 10
63.433600906
 20
126.7079830255
 10
63.4408149307
 20
126.7133865591
 10
63.4494985824
 20
126.7262015577
 10
63.4508378242
 20
126.7383013006
 10
63.447219636
 20
126.7514329489
 10
63.4358565693
 20
126.7693925734
 10
63.4079308619
 20
126.79623329
 10
63.3360783939
 20
126.840987065
 10
63.1540253197
 20
126.907639959
 10
63.118649963
 20
126.9158281471
  0
LINE
  5
345
330
1F
100
AcDbEntity
  8
0
  6
SLD-Durchgehend
 62
     7
370
    15
100
AcDbLine
 10
63.118649963
 20
126.9158281471
 30
0.0
 11
60.4238876512
 21
127.4181239392
 31
0.0
  0
ARC
  5
346
330
1F
100
AcDbEntity
  8
0
  6
SLD-Durchgehend
 62
     7
370
    15
100
AcDbCircle
 10
52.3872639422
 20
110.3119056757
 30
0.0
 40
18.90000000000718
100
AcDbArc
 50
64.8355269229
 51
66.970848949
  0
LINE
  5
347
330
1F
100
AcDbEntity
  8
0
  6
SLD-Durchgehend
 62
     7
370
    15
100
AcDbLine
 10
59.7809328136
 20
127.7056884106
 30
0.0
 11
60.7886522447
 21
128.20798234
 31
0.0
  0
LWPOLYLINE
  5
348
330
1F
100
AcDbEntity
  8
0
  6
SLD-Durchgehend
 62
     7
370
    15
100
AcDbPolyline
 90
        9
 70
   128
 43
0.0
 10
60.7886522447
 20
128.20798234
 10
60.8009764363
 20
128.2169099982
 10
60.805967394
 20
128.2251056369
 10
60.8066696112
 20
128.2350465741
 10
60.8032870476
 20
128.2445199873
 10
60.79292329
 20
128.2582756217
 10
60.7660723289
 20
128.2800313171
 10
60.6661777382
 20
128.3295795407
 10
60.3308699464
 20
128.4158293243
  0
LWPOLYLINE
  5
349
330
1F
100
AcDbEntity
  8
0
  6
SLD-Durchgehend
 62
     7
370
    15
100
AcDbPolyline
 90
        3
 70
   128
 43
0.0
 10
60.3308699464
 20
128.4158293243
 10
58.0474709531
 20
128.7142343904
 10
55.7067006265
 20
128.9181232538
  0
ARC
  5
34A
330
1F
100
AcDbEntity
  8
0
  6
SLD-Durchgehend
 62
     7
370
    15
100
AcDbCircle
 10
52.3872639422
 20
110.3119056757
 30
0.0
 40
18.9
100
AcDbArc
 50
79.8845863359
 51
88.5302739106
  0
ARC
  5
34B
330
1F
100
AcDbEntity
  8
0
  6
SLD-Durchgehend
 62
     7
370
    15
100
AcDbCircle
 10
52.2199707359
 20
144.9141985077
 30
0.0
 40
15.72203823001814
100
AcDbArc
 50
272.3769622176
 51
284.7173040006
  0
LWPOLYLINE
  5
34C
330
1F
100
AcDbEntity
  8
0
  6
SLD-Durchgehend
 62
     7
370
    15
100
AcDbPolyline
 90
       12
 70
   128
 43
0.0
 10
56.21415548
 20
129.7079835172
 10
56.2258067911
 20
129.7114852901
 10
56.235724678
 20
129.7157880004
 10
56.2436115832
 20
129.7219477679
 10
56.2455920407
 20
129.7258704986
 10
56.2455103171
 20
129.7302588906
 10
56.2436225263
 20
129.7342244621
 10
56.2377691639
 20
129.7403432514
 10
56.2171210439
 20
129.7525324013
 10
56.126959007
 20
129.7823086466
 10
55.7528823518
 20
129.8484288241
 10
54.9444305615
 20
129.9158286388
  0
LWPOLYLINE
  5
34D
330
1F
100
AcDbEntity
  8
0
  6
SLD-Durchgehend
 62
     7
370
    15
100
AcDbPolyline
 90
        3
 70
   128
 43
0.0
 10
54.9444305615
 20
129.9158286388
 10
52.398811037
 20
129.9766160633
 10
49.830097323
 20
129.9158286388
  0
LWPOLYLINE
  5
34E
330
1F
100
AcDbEntity
  8
0
  6
SLD-Durchgehend
 62
     7
370
    15
100
AcDbPolyline
 90
       12
 70
   128
 43
0.0
 10
49.830097323
 20
129.9158286388
 10
49.6658101582
 20
129.9070071514
 10
48.7113386297
 20
129.7973141159
 10
48.5632362214
 20
129.7551624562
 10
48.5429657527
 20
129.7447670336
 10
48.5351843198
 20
129.7389946963
 10
48.5302699634
 20
129.7332093205
 10
48.5287588925
 20
129.7289438631
 10
48.5292955672
 20
129.7247361477
 10
48.5323025749
 20
129.7203999098
 10
48.5404830796
 20
129.7149144198
 10
48.5603724045
 20
129.7079835172
  0
ARC
  5
34F
330
1F
100
AcDbEntity
  8
0
  6
SLD-Durchgehend
 62
     7
370
    15
100
AcDbCircle
 10
52.4973771588
 20
144.5337394729
 30
0.0
 40
15.33959080586803
100
AcDbArc
 50
255.1282408537
 51
267.7774929281
  0
ARC
  5
350
330
1F
100
AcDbEntity
  8
0
  6
SLD-Durchgehend
 62
     7
370
    15
100
AcDbCircle
 10
52.3872639422
 20
110.3119056757
 30
0.0
 40
18.90000000000077
100
AcDbArc
 50
91.4697260895
 51
100.1154136641
  0
LWPOLYLINE
  5
351
330
1F
100
AcDbEntity
  8
0
  6
SLD-Durchgehend
 62
     7
370
    15
100
AcDbPolyline
 90
        3
 70
   128
 43
0.0
 10
49.067827258
 20
128.9181232538
 10
46.7430686948
 20
128.7159834142
 10
44.4436579381
 20
128.4158293243
  0
LWPOLYLINE
  5
352
330
1F
100
AcDbEntity
  8
0
  6
SLD-Durchgehend
 62
     7
370
    15
100
AcDbPolyline
 90
       11
 70
   128
 43
0.0
 10
44.4436579381
 20
128.4158293243
 10
44.2360139822
 20
128.3716529693
 10
44.0546752324
 20
128.3061083491
 10
44.0076983904
 20
128.2795209523
 10
43.985111024
 20
128.2617662187
 10
43.9731146579
 20
128.2477088358
 10
43.9682857503
 20
128.2370787199
 10
43.968111593
 20
128.226653495
 10
43.9719281529
 20
128.2188471492
 10
43.9834150856
 20
128.209315994
 10
43.9858756398
 20
128.20798234
  0
LINE
  5
353
330
1F
100
AcDbEntity
  8
0
  6
SLD-Durchgehend
 62
     7
370
    15
100
AcDbLine
 10
43.9858756398
 20
128.20798234
 30
0.0
 11
44.9935950709
 21
127.7056884106
 31
0.0
  0
ARC
  5
354
330
1F
100
AcDbEntity
  8
0
  6
SLD-Durchgehend
 62
     7
370
    15
100
AcDbCircle
 10
52.3872639422
 20
110.3119056757
 30
0.0
 40
18.9
100
AcDbArc
 50
113.029151051
 51
115.1644730771
  0
LINE
  5
355
330
1F
100
AcDbEntity
  8
0
  6
SLD-Durchgehend
 62
     7
370
    15
100
AcDbLine
 10
44.3506402333
 20
127.4181239392
 30
0.0
 11
41.6558779215
 21
126.9158281471
 31
0.0
  0
LWPOLYLINE
  5
356
330
1F
100
AcDbEntity
  8
0
  6
SLD-Durchgehend
 62
     7
370
    15
100
AcDbPolyline
 90
       10
 70
   128
 43
0.0
 10
41.6558779215
 20
126.9158281471
 10
41.4488542264
 20
126.8461726691
 10
41.3739842733
 20
126.8019031818
 10
41.3514928331
 20
126.7831556584
 10
41.3328384419
 20
126.7614539798
 10
41.3254679551
 20
126.7466385003
 10
41.3237403517
 20
126.7319180157
 10
41.3275587742
 20
126.7207961615
 10
41.3393390735
 20
126.709003755
 10
41.3409269785
 20
126.7079830255
  0
LINE
  5
357
330
1F
100
AcDbEntity
  8
0
  6
SLD-Durchgehend
 62
     7
370
    15
100
AcDbLine
 10
41.3409269785
 20
126.7079830255
 30
0.0
 11
42.1599627842
 21
126.2056872334
 31
0.0
  0
ARC
  5
358
330
1F
100
AcDbEntity
  8
0
  6
SLD-Durchgehend
 62
     7
370
    15
100
AcDbCircle
 10
52.3872639422
 20
110.3119056757
 30
0.0
 40
18.9
100
AcDbArc
 50
122.7603943329
 51
124.3378536913
  0
LINE
  5
359
330
1F
100
AcDbEntity
  8
0
  6
SLD-Durchgehend
 62
     7
370
    15
100
AcDbLine
 10
41.7263082599
 20
125.9181236933
 30
0.0
 11
39.630916286
 21
125.4158288326
 31
0.0
  0
LWPOLYLINE
  5
35A
330
1F
100
AcDbEntity
  8
0
  6
SLD-Durchgehend
 62
     7
370
    15
100
AcDbPolyline
 90
        9
 70
   128
 43
0.0
 10
39.630916286
 20
125.4158288326
 10
39.4779689049
 20
125.3542674791
 10
39.4027375986
 20
125.2986246805
 10
39.3818796982
 20
125.272846603
 10
39.3729660099
 20
125.2540292304
 10
39.3708770533
 20
125.2354046415
 10
39.3752691706
 20
125.2219619315
 10
39.3884408658
 20
125.2082333054
 10
39.3888106008
 20
125.2079827796
  0
LINE
  5
35B
330
1F
100
AcDbEntity
  8
0
  6
SLD-Durchgehend
 62
     7
370
    15
100
AcDbLine
 10
39.3888106008
 20
125.2079827796
 30
0.0
 11
40.1386295815
 21
124.7056879188
 31
0.0
  0
ARC
  5
35C
330
1F
100
AcDbEntity
  8
0
  6
SLD-Durchgehend
 62
     7
370
    15
100
AcDbCircle
 10
52.3872639422
 20
110.3119056757
 30
0.0
 40
18.89999999999998
100
AcDbArc
 50
130.3966873225
 51
131.7238912277
  0
LINE
  5
35D
330
1F
100
AcDbEntity
  8
0
  6
SLD-Durchgehend
 62
     7
370
    15
100
AcDbLine
 10
39.8085269516
 20
124.4181234475
 30
0.0
 11
38.0420147811
 21
123.9158285867
 31
0.0
  0
LWPOLYLINE
  5
35E
330
1F
100
AcDbEntity
  8
0
  6
SLD-Durchgehend
 62
     7
370
    15
100
AcDbPolyline
 90
        9
 70
   128
 43
0.0
 10
38.0420147811
 20
123.9158285867
 10
37.950064372
 20
123.8774478521
 10
37.8955205341
 20
123.8420734267
 10
37.8477027078
 20
123.794470736
 10
37.8347489421
 20
123.7726312216
 10
37.8282278215
 20
123.7496927466
 10
37.8300001283
 20
123.7310541879
 10
37.8373771344
 20
123.7174745734
 10
37.8477306475
 20
123.7079825338
  0
LINE
  5
35F
330
1F
100
AcDbEntity
  8
0
  6
SLD-Durchgehend
 62
     7
370
    15
100
AcDbLine
 10
37.8477306475
 20
123.7079825338
 30
0.0
 11
38.5684225147
 21
123.205687673
 31
0.0
  0
LINE
  5
360
330
1F
100
AcDbEntity
  8
0
  6
SLD-Durchgehend
 62
     7
370
    15
100
AcDbLine
 10
38.3055995588
 20
122.9181232016
 30
0.0
 11
36.7556310629
 21
122.4158283408
 31
0.0
  0
LWPOLYLINE
  5
361
330
1F
100
AcDbEntity
  8
0
  6
SLD-Durchgehend
 62
     7
370
    15
100
AcDbPolyline
 90
        9
 70
   128
 43
0.0
 10
36.7556310629
 20
122.4158283408
 10
36.6659782265
 20
122.3716734062
 10
36.6237688248
 20
122.3380098205
 10
36.5931916421
 20
122.3018819551
 10
36.5802630221
 20
122.2768619742
 10
36.5751705502
 20
122.2550522621
 10
36.5770164316
 20
122.2350278954
 10
36.5847035681
 20
122.2196601416
 10
36.5968796794
 20
122.2079822879
  0
LINE
  5
362
330
1F
100
AcDbEntity
  8
0
  6
SLD-Durchgehend
 62
     7
370
    15
100
AcDbLine
 10
36.5968796794
 20
122.2079822879
 30
0.0
 11
37.3077507501
 21
121.7056883584
 31
0.0
  0
ARC
  5
363
330
1F
100
AcDbEntity
  8
0
  6
SLD-Durchgehend
 62
     7
370
    15
100
AcDbCircle
 10
52.3872639422
 20
110.3119056757
 30
0.0
 40
18.9
100
AcDbArc
 50
142.9260268275
 51
144.0109540318
  0
LINE
  5
364
330
1F
100
AcDbEntity
  8
0
  6
SLD-Durchgehend
 62
     7
370
    15
100
AcDbLine
 10
37.094719093
 20
121.4181238871
 30
0.0
 11
35.7016495799
 21
120.9158290263
 31
0.0
  0
LWPOLYLINE
  5
365
330
1F
100
AcDbEntity
  8
0
  6
SLD-Durchgehend
 62
     7
370
    15
100
AcDbPolyline
 90
        9
 70
   128
 43
0.0
 10
35.7016495799
 20
120.9158290263
 10
35.6235637699
 20
120.8731753837
 10
35.5859551017
 20
120.8390759389
 10
35.5612396632
 20
120.8050463434
 10
35.5501476114
 20
120.7787877034
 10
35.5468805318
 20
120.752184474
 10
35.5513825451
 20
120.732280248
 10
35.5648531948
 20
120.7132421519
 10
35.5713650023
 20
120.7079829733
  0
LINE
  5
366
330
1F
100
AcDbEntity
  8
0
  6
SLD-Durchgehend
 62
     7
370
    15
100
AcDbLine
 10
35.5713650023
 20
120.7079829733
 30
0.0
 11
36.2837522661
 21
120.2056881126
 31
0.0
  0
ARC
  5
367
330
1F
100
AcDbEntity
  8
0
  6
SLD-Durchgehend
 62
     7
370
    15
100
AcDbCircle
 10
52.3872639422
 20
110.3119056757
 30
0.0
 40
18.89999999999999
100
AcDbArc
 50
148.4339897924
 51
149.4516361064
  0
LINE
  5
368
330
1F
100
AcDbEntity
  8
0
  6
SLD-Durchgehend
 62
     7
370
    15
100
AcDbLine
 10
36.1105765586
 20
119.9181236412
 30
0.0
 11
34.8381477778
 21
119.4158287804
 31
0.0
  0
LWPOLYLINE
  5
369
330
1F
100
AcDbEntity
  8
0
  6
SLD-Durchgehend
 62
     7
370
    15
100
AcDbPolyline
 90
        9
 70
   128
 43
0.0
 10
34.8381477778
 20
119.4158287804
 10
34.772049952
 20
119.3769209172
 10
34.7374345546
 20
119.3426240321
 10
34.7160849159
 20
119.3095397289
 10
34.7063805347
 20
119.282322758
 10
34.7044675981
 20
119.2550694655
 10
34.7098636811
 20
119.2342422988
 10
34.7247518038
 20
119.2136721771
 10
34.7318764215
 20
119.2079827275
  0
LINE
  5
36A
330
1F
100
AcDbEntity
  8
0
  6
SLD-Durchgehend
 62
     7
370
    15
100
AcDbLine
 10
34.7318764215
 20
119.2079827275
 30
0.0
 11
35.4534390752
 21
118.7056878667
 31
0.0
  0
ARC
  5
36B
330
1F
100
AcDbEntity
  8
0
  6
SLD-Durchgehend
 62
     7
370
    15
100
AcDbCircle
 10
52.3872639422
 20
110.3119056757
 30
0.0
 40
18.89999999999999
100
AcDbArc
 50
153.6332398891
 51
154.6022022657
  0
LINE
  5
36C
330
1F
100
AcDbEntity
  8
0
  6
SLD-Durchgehend
 62
     7
370
    15
100
AcDbLine
 10
35.3139157777
 20
118.4181233953
 30
0.0
 11
34.1380651479
 21
117.9158285345
 31
0.0
  0
LWPOLYLINE
  5
36D
330
1F
100
AcDbEntity
  8
0
  6
SLD-Durchgehend
 62
     7
370
    15
100
AcDbPolyline
 90
        9
 70
   128
 43
0.0
 10
34.1380651479
 20
117.9158285345
 10
34.0812283938
 20
117.8800443273
 10
34.0497757678
 20
117.846250822
 10
34.0310673599
 20
117.8137951616
 10
34.0227599626
 20
117.7859365094
 10
34.0221080368
 20
117.7582832139
 10
34.0283702498
 20
117.7365549925
 10
34.0446274166
 20
117.7144728686
 10
34.0528435444
 20
117.7079824816
  0
LINE
  5
36E
330
1F
100
AcDbEntity
  8
0
  6
SLD-Durchgehend
 62
     7
370
    15
100
AcDbLine
 10
34.0528435444
 20
117.7079824816
 30
0.0
 11
34.7893725519
 21
117.2056880865
 31
0.0
  0
ARC
  5
36F
330
1F
100
AcDbEntity
  8
0
  6
SLD-Durchgehend
 62
     7
370
    15
100
AcDbCircle
 10
52.3872639422
 20
110.3119056757
 30
0.0
 40
18.89999999999999
100
AcDbArc
 50
158.6077784115
 51
159.5411033901
  0
LINE
  5
370
330
1F
100
AcDbEntity
  8
0
  6
SLD-Durchgehend
 62
     7
370
    15
100
AcDbLine
 10
34.6794150208
 20
116.9181236151
 30
0.0
 11
33.5831421797
 21
116.4158287543
 31
0.0
  0
LWPOLYLINE
  5
371
330
1F
100
AcDbEntity
  8
0
  6
SLD-Durchgehend
 62
     7
370
    15
100
AcDbPolyline
 90
        9
 70
   128
 43
0.0
 10
33.5831421797
 20
116.4158287543
 10
33.5337075775
 20
116.3827453825
 10
33.5052817498
 20
116.3497984495
 10
33.4888308679
 20
116.3179132241
 10
33.4818925147
 20
116.289617316
 10
33.4824364071
 20
116.2617107007
 10
33.4895796512
 20
116.2391321819
 10
33.5072393899
 20
116.2155427124
 10
33.5169381832
 20
116.2079827014
  0
LINE
  5
372
330
1F
100
AcDbEntity
  8
0
  6
SLD-Durchgehend
 62
     7
370
    15
100
AcDbLine
 10
33.5169381832
 20
116.2079827014
 30
0.0
 11
34.2732615207
 21
115.7056878406
 31
0.0
  0
ARC
  5
373
330
1F
100
AcDbEntity
  8
0
  6
SLD-Durchgehend
 62
     7
370
    15
100
AcDbCircle
 10
52.3872639422
 20
110.3119056757
 30
0.0
 40
18.89999999999998
100
AcDbArc
 50
163.4181186606
 51
164.3256018524
  0
LINE
  5
374
330
1F
100
AcDbEntity
  8
0
  6
SLD-Durchgehend
 62
     7
370
    15
100
AcDbLine
 10
34.1901055907
 20
115.4181233692
 30
0.0
 11
33.1608022933
 21
114.9158285085
 31
0.0
  0
LWPOLYLINE
  5
375
330
1F
100
AcDbEntity
  8
0
  6
SLD-Durchgehend
 62
     7
370
    15
100
AcDbPolyline
 90
        9
 70
   128
 43
0.0
 10
33.1608022933
 20
114.9158285085
 10
33.1259652411
 20
114.8928816515
 10
33.0963808482
 20
114.8602546278
 10
33.0796691959
 20
114.8285207424
 10
33.0723713522
 20
114.7994620811
 10
33.0726116334
 20
114.7701771084
 10
33.0795574372
 20
114.7460847247
 10
33.0966919099
 20
114.7206824358
 10
33.1122170572
 20
114.7079824555
  0
LINE
  5
376
330
1F
100
AcDbEntity
  8
0
  6
SLD-Durchgehend
 62
     7
370
    15
100
AcDbLine
 10
33.1122170572
 20
114.7079824555
 30
0.0
 11
33.8927119409
 21
114.2056878276
 31
0.0
  0
ARC
  5
377
330
1F
100
AcDbEntity
  8
0
  6
SLD-Durchgehend
 62
     7
370
    15
100
AcDbCircle
 10
52.3872639422
 20
110.3119056757
 30
0.0
 40
18.89999999999999
100
AcDbArc
 50
168.1107715436
 51
169.000223065
  0
LINE
  5
378
330
1F
100
AcDbEntity
  8
0
  6
SLD-Durchgehend
 62
     7
370
    15
100
AcDbLine
 10
33.8344968294
 20
113.9181233562
 30
0.0
 11
32.8624456559
 21
113.4158287283
 31
0.0
  0
LWPOLYLINE
  5
379
330
1F
100
AcDbEntity
  8
0
  6
SLD-Durchgehend
 62
     7
370
    15
100
AcDbPolyline
 90
        9
 70
   128
 43
0.0
 10
32.8624456559
 20
113.4158287283
 10
32.8287001138
 20
113.3917635858
 10
32.8035115634
 20
113.3606702175
 10
32.7896180933
 20
113.3298257451
 10
32.7843374943
 20
113.3009095761
 10
32.7863100355
 20
113.2721808359
 10
32.7946081196
 20
113.2477170873
 10
32.8140317832
 20
113.2209019821
 10
32.8305348193
 20
113.2079826753
  0
LINE
  5
37A
330
1F
100
AcDbEntity
  8
0
  6
SLD-Durchgehend
 62
     7
370
    15
100
AcDbLine
 10
32.8305348193
 20
113.2079826753
 30
0.0
 11
33.639468569
 21
112.7056878145
 31
0.0
  0
ARC
  5
37B
330
1F
100
AcDbEntity
  8
0
  6
SLD-Durchgehend
 62
     7
370
    15
100
AcDbCircle
 10
52.3872639422
 20
110.3119056757
 30
0.0
 40
18.89999999999998
100
AcDbArc
 50
172.723651697
 51
173.6016626482
  0
LINE
  5
37C
330
1F
100
AcDbEntity
  8
0
  6
SLD-Durchgehend
 62
     7
370
    15
100
AcDbLine
 10
33.6049891447
 20
112.4181233432
 30
0.0
 11
32.6824340408
 21
111.9158287152
 31
0.0
  0
ARC
  5
37D
330
1F
100
AcDbEntity
  8
0
  6
SLD-Durchgehend
 62
     7
370
    15
100
AcDbCircle
 10
32.7334275341
 20
111.8074236825
 30
0.0
 40
0.1197997807799055
100
AcDbArc
 50
115.1921919634
 51
236.1049141144
  0
LINE
  5
37E
330
1F
100
AcDbEntity
  8
0
  6
SLD-Durchgehend
 62
     7
370
    15
100
AcDbLine
 10
32.6666183208
 20
111.7079826623
 30
0.0
 11
33.5084091311
 21
111.2056879179
 31
0.0
  0
ARC
  5
37F
330
1F
100
AcDbEntity
  8
0
  6
SLD-Durchgehend
 62
     7
370
    15
100
AcDbCircle
 10
52.3872639422
 20
110.3119056757
 30
0.0
 40
18.89999999999998
100
AcDbArc
 50
177.2894679724
 51
178.1619217522
  0
LINE
  5
380
330
1F
100
AcDbEntity
  8
0
  6
SLD-Durchgehend
 62
     7
370
    15
100
AcDbLine
 10
33.4969892536
 20
110.9181234465
 30
0.0
 11
32.6175376211
 21
110.415828724
 31
0.0
  0
ARC
  5
381
330
1F
100
AcDbEntity
  8
0
  6
SLD-Durchgehend
 62
     7
370
    15
100
AcDbCircle
 10
32.6770623377
 20
110.3119056757
 30
0.0
 40
0.1197630654656289
100
AcDbArc
 50
119.8030827258
 51
240.1969172742
  0
LINE
  5
382
330
1F
100
AcDbEntity
  8
0
  6
SLD-Durchgehend
 62
     7
370
    15
100
AcDbLine
 10
32.6175376211
 20
110.2079826274
 30
0.0
 11
33.4969892536
 21
109.7056879049
 31
0.0
  0
ARC
  5
383
330
1F
100
AcDbEntity
  8
0
  6
SLD-Durchgehend
 62
     7
370
    15
100
AcDbCircle
 10
52.3872639422
 20
110.3119056757
 30
0.0
 40
18.89999999999998
100
AcDbArc
 50
181.8380782478
 51
182.7105320276
  0
LINE
  5
384
330
1F
100
AcDbEntity
  8
0
  6
SLD-Durchgehend
 62
     7
370
    15
100
AcDbLine
 10
33.5084091311
 20
109.4181234335
 30
0.0
 11
32.6666183208
 21
108.9158286891
 31
0.0
  0
ARC
  5
385
330
1F
100
AcDbEntity
  8
0
  6
SLD-Durchgehend
 62
     7
370
    15
100
AcDbCircle
 10
32.7351916787
 20
108.8165219087
 30
0.0
 40
0.1206819872495687
100
AcDbArc
 50
124.6258703726
 51
244.0770235497
  0
LINE
  5
386
330
1F
100
AcDbEntity
  8
0
  6
SLD-Durchgehend
 62
     7
370
    15
100
AcDbLine
 10
32.6824340408
 20
108.7079826362
 30
0.0
 11
33.6049891447
 21
108.2056880082
 31
0.0
  0
ARC
  5
387
330
1F
100
AcDbEntity
  8
0
  6
SLD-Durchgehend
 62
     7
370
    15
100
AcDbCircle
 10
52.3872639422
 20
110.3119056757
 30
0.0
 40
18.89999999999998
100
AcDbArc
 50
186.3983373518
 51
187.276348303
  0
LINE
  5
388
330
1F
100
AcDbEntity
  8
0
  6
SLD-Durchgehend
 62
     7
370
    15
100
AcDbLine
 10
33.639468569
 20
107.9181235369
 30
0.0
 11
32.8305348193
 21
107.4158286761
 31
0.0
  0
ARC
  5
389
330
1F
100
AcDbEntity
  8
0
  6
SLD-Durchgehend
 62
     7
370
    15
100
AcDbCircle
 10
32.9069019153
 20
107.321180722
 30
0.0
 40
0.1216148369770104
100
AcDbArc
 50
128.8984691223
 51
248.5585878788
  0
LINE
  5
38A
330
1F
100
AcDbEntity
  8
0
  6
SLD-Durchgehend
 62
     7
370
    15
100
AcDbLine
 10
32.8624456559
 20
107.2079826232
 30
0.0
 11
33.8344968294
 21
106.7056879952
 31
0.0
  0
ARC
  5
38B
330
1F
100
AcDbEntity
  8
0
  6
SLD-Durchgehend
 62
     7
370
    15
100
AcDbCircle
 10
52.3872639422
 20
110.3119056757
 30
0.0
 40
18.89999999999998
100
AcDbArc
 50
190.999776935
 51
191.8892284564
  0
LINE
  5
38C
330
1F
100
AcDbEntity
  8
0
  6
SLD-Durchgehend
 62
     7
370
    15
100
AcDbLine
 10
33.8927119409
 20
106.4181235238
 30
0.0
 11
33.1122170572
 21
105.9158288959
 31
0.0
  0
LWPOLYLINE
  5
38D
330
1F
100
AcDbEntity
  8
0
  6
SLD-Durchgehend
 62
     7
370
    15
100
AcDbPolyline
 90
        9
 70
   128
 43
0.0
 10
33.1122170572
 20
105.9158288959
 10
33.0908785944
 20
105.8965030211
 10
33.0770521795
 20
105.8714523065
 10
33.0717045252
 20
105.845121489
 10
33.0736416762
 20
105.8164050888
 10
33.0819080954
 20
105.7897259566
 10
33.1014397924
 20
105.7566099885
 10
33.1373702173
 20
105.7220397602
 10
33.1608022933
 20
105.7079828429
  0
LINE
  5
38E
330
1F
100
AcDbEntity
  8
0
  6
SLD-Durchgehend
 62
     7
370
    15
100
AcDbLine
 10
33.1608022933
 20
105.7079828429
 30
0.0
 11
34.1901055907
 21
105.2056879822
 31
0.0
  0
ARC
  5
38F
330
1F
100
AcDbEntity
  8
0
  6
SLD-Durchgehend
 62
     7
370
    15
100
AcDbCircle
 10
52.3872639422
 20
110.3119056757
 30
0.0
 40
18.89999999999998
100
AcDbArc
 50
195.6743981476
 51
196.5818813394
  0
LINE
  5
390
330
1F
100
AcDbEntity
  8
0
  6
SLD-Durchgehend
 62
     7
370
    15
100
AcDbLine
 10
34.2732615207
 20
104.9181235108
 30
0.0
 11
33.5169381832
 21
104.41582865
 31
0.0
  0
LWPOLYLINE
  5
391
330
1F
100
AcDbEntity
  8
0
  6
SLD-Durchgehend
 62
     7
370
    15
100
AcDbPolyline
 90
        9
 70
   128
 43
0.0
 10
33.5169381832
 20
104.41582865
 10
33.4979243015
 20
104.3981670487
 10
33.4854408537
 20
104.3743987653
 10
33.4811828469
 20
104.3442560445
 10
33.4853197818
 20
104.3167829599
 10
33.4954991375
 20
104.290683576
 10
33.5190746372
 20
104.2560448955
 10
33.5616938208
 20
104.2196944441
 10
33.5831421797
 20
104.2079825971
  0
LINE
  5
392
330
1F
100
AcDbEntity
  8
0
  6
SLD-Durchgehend
 62
     7
370
    15
100
AcDbLine
 10
33.5831421797
 20
104.2079825971
 30
0.0
 11
34.6794150208
 21
103.7056877363
 31
0.0
  0
ARC
  5
393
330
1F
100
AcDbEntity
  8
0
  6
SLD-Durchgehend
 62
     7
370
    15
100
AcDbCircle
 10
52.3872639422
 20
110.3119056757
 30
0.0
 40
18.89999999999998
100
AcDbArc
 50
200.4588966099
 51
201.3922215885
  0
LINE
  5
394
330
1F
100
AcDbEntity
  8
0
  6
SLD-Durchgehend
 62
     7
370
    15
100
AcDbLine
 10
34.7893725519
 20
103.4181232649
 30
0.0
 11
34.0528435444
 21
102.9158288698
 31
0.0
  0
LWPOLYLINE
  5
395
330
1F
100
AcDbEntity
  8
0
  6
SLD-Durchgehend
 62
     7
370
    15
100
AcDbPolyline
 90
        9
 70
   128
 43
0.0
 10
34.0528435444
 20
102.9158288698
 10
34.0359270011
 20
102.8998161751
 10
34.0246393715
 20
102.8774034317
 10
34.0215101277
 20
102.8490181166
 10
34.0263176148
 20
102.8229564514
 10
34.037119094
 20
102.7974815193
 10
34.0624603813
 20
102.762047955
 10
34.1089222019
 20
102.7233673345
 10
34.1380651479
 20
102.7079828169
  0
LINE
  5
396
330
1F
100
AcDbEntity
  8
0
  6
SLD-Durchgehend
 62
     7
370
    15
100
AcDbLine
 10
34.1380651479
 20
102.7079828169
 30
0.0
 11
35.3139157777
 21
102.2056879561
 31
0.0
  0
ARC
  5
397
330
1F
100
AcDbEntity
  8
0
  6
SLD-Durchgehend
 62
     7
370
    15
100
AcDbCircle
 10
52.3872639422
 20
110.3119056757
 30
0.0
 40
18.89999999999998
100
AcDbArc
 50
205.3977977343
 51
206.3667601109
  0
LINE
  5
398
330
1F
100
AcDbEntity
  8
0
  6
SLD-Durchgehend
 62
     7
370
    15
100
AcDbLine
 10
35.4534390752
 20
101.9181234847
 30
0.0
 11
34.7318764215
 21
101.4158286239
 31
0.0
  0
LWPOLYLINE
  5
399
330
1F
100
AcDbEntity
  8
0
  6
SLD-Durchgehend
 62
     7
370
    15
100
AcDbPolyline
 90
        9
 70
   128
 43
0.0
 10
34.7318764215
 20
101.4158286239
 10
34.7168653642
 20
101.4014657672
 10
34.7066189532
 20
101.3804951768
 10
34.7044377958
 20
101.3539608653
 10
34.7097817247
 20
101.3294586997
 10
34.724556226
 20
101.2991087596
 10
34.7549229299
 20
101.2620644729
 10
34.81077807
 20
101.2209884908
 10
34.8381477778
 20
101.207982571
  0
LINE
  5
39A
330
1F
100
AcDbEntity
  8
0
  6
SLD-Durchgehend
 62
     7
370
    15
100
AcDbLine
 10
34.8381477778
 20
101.207982571
 30
0.0
 11
36.1105765586
 21
100.7056877102
 31
0.0
  0
ARC
  5
39B
330
1F
100
AcDbEntity
  8
0
  6
SLD-Durchgehend
 62
     7
370
    15
100
AcDbCircle
 10
52.3872639422
 20
110.3119056757
 30
0.0
 40
18.89999999999998
100
AcDbArc
 50
210.5483638936
 51
211.5660102076
  0
LINE
  5
39C
330
1F
100
AcDbEntity
  8
0
  6
SLD-Durchgehend
 62
     7
370
    15
100
AcDbLine
 10
36.2837522661
 20
100.4181232389
 30
0.0
 11
35.5713650023
 21
99.9158283781
 31
0.0
  0
LWPOLYLINE
  5
39D
330
1F
100
AcDbEntity
  8
0
  6
SLD-Durchgehend
 62
     7
370
    15
100
AcDbPolyline
 90
        9
 70
   128
 43
0.0
 10
35.5713650023
 20
99.9158283781
 10
35.5580992435
 20
99.9031325887
 10
35.5487301384
 20
99.8837033372
 10
35.5472977643
 20
99.8591275971
 10
35.5530123596
 20
99.8363642107
 10
35.5685747598
 20
99.8068422164
 10
35.6011803632
 20
99.7693061914
 10
35.6633591836
 20
99.7252974744
 10
35.7016495799
 20
99.7079823251
  0
LINE
  5
39E
330
1F
100
AcDbEntity
  8
0
  6
SLD-Durchgehend
 62
     7
370
    15
100
AcDbLine
 10
35.7016495799
 20
99.7079823251
 30
0.0
 11
37.094719093
 21
99.2056874644
 31
0.0
  0
ARC
  5
39F
330
1F
100
AcDbEntity
  8
0
  6
SLD-Durchgehend
 62
     7
370
    15
100
AcDbCircle
 10
52.3872639422
 20
110.3119056757
 30
0.0
 40
18.89999999999998
100
AcDbArc
 50
215.9890459682
 51
217.0739731725
  0
LINE
  5
3A0
330
1F
100
AcDbEntity
  8
0
  6
SLD-Durchgehend
 62
     7
370
    15
100
AcDbLine
 10
37.3077507501
 20
98.918122993
 30
0.0
 11
36.5968796794
 21
98.4158290635
 31
0.0
  0
LWPOLYLINE
  5
3A1
330
1F
100
AcDbEntity
  8
0
  6
SLD-Durchgehend
 62
     7
370
    15
100
AcDbPolyline
 90
        9
 70
   128
 43
0.0
 10
36.5968796794
 20
98.4158290635
 10
36.5852269714
 20
98.4048348005
 10
36.5765507703
 20
98.3870623718
 10
36.5756436621
 20
98.3645597558
 10
36.5815203075
 20
98.3437502842
 10
36.597553957
 20
98.3155861582
 10
36.6321078872
 20
98.2781358148
 10
36.7014653419
 20
98.231116132
 10
36.7556310629
 20
98.2079830106
  0
LINE
  5
3A2
330
1F
100
AcDbEntity
  8
0
  6
SLD-Durchgehend
 62
     7
370
    15
100
AcDbLine
 10
36.7556310629
 20
98.2079830106
 30
0.0
 11
38.3055995588
 21
97.7056881498
 31
0.0
  0
LINE
  5
3A3
330
1F
100
AcDbEntity
  8
0
  6
SLD-Durchgehend
 62
     7
370
    15
100
AcDbLine
 10
38.5684225147
 20
97.4181236784
 30
0.0
 11
37.8477306475
 21
96.9158288177
 31
0.0
  0
LWPOLYLINE
  5
3A4
330
1F
100
AcDbEntity
  8
0
  6
SLD-Durchgehend
 62
     7
370
    15
100
AcDbPolyline
 90
        9
 70
   128
 43
0.0
 10
37.8477306475
 20
96.9158288177
 10
37.8375913386
 20
96.9065975483
 10
37.8287298043
 20
96.8876870434
 10
37.8293854554
 20
96.8669194813
 10
37.8360770081
 20
96.848365673
 10
37.8541428034
 20
96.821038806
 10
37.8943014329
 20
96.7826878737
 10
37.9794224535
 20
96.7316560532
 10
38.0420147811
 20
96.7079827647
  0
LINE
  5
3A5
330
1F
100
AcDbEntity
  8
0
  6
SLD-Durchgehend
 62
     7
370
    15
100
AcDbLine
 10
38.0420147811
 20
96.7079827647
 30
0.0
 11
39.8085269516
 21
96.2056879039
 31
0.0
  0
ARC
  5
3A6
330
1F
100
AcDbEntity
  8
0
  6
SLD-Durchgehend
 62
     7
370
    15
100
AcDbCircle
 10
52.3872639422
 20
110.3119056757
 30
0.0
 40
18.89999999999998
100
AcDbArc
 50
228.2761087723
 51
229.6033126775
  0
LINE
  5
3A7
330
1F
100
AcDbEntity
  8
0
  6
SLD-Durchgehend
 62
     7
370
    15
100
AcDbLine
 10
40.1386295815
 20
95.9181234326
 30
0.0
 11
39.3888106008
 21
95.4158285718
 31
0.0
  0
LWPOLYLINE
  5
3A8
330
1F
100
AcDbEntity
  8
0
  6
SLD-Durchgehend
 62
     7
370
    15
100
AcDbPolyline
 90
        9
 70
   128
 43
0.0
 10
39.3888106008
 20
95.4158285718
 10
39.3801278805
 20
95.4084506344
 10
39.3715895151
 20
95.3925473701
 10
39.3711629694
 20
95.3775046478
 10
39.3761753475
 20
95.3614588912
 10
39.3906257485
 20
95.3387355517
 10
39.424456041
 20
95.3056400727
 10
39.5039323156
 20
95.2555982481
 10
39.630916286
 20
95.2079825188
  0
LINE
  5
3A9
330
1F
100
AcDbEntity
  8
0
  6
SLD-Durchgehend
 62
     7
370
    15
100
AcDbLine
 10
39.630916286
 20
95.2079825188
 30
0.0
 11
41.7263082599
 21
94.7056876581
 31
0.0
  0
ARC
  5
3AA
330
1F
100
AcDbEntity
  8
0
  6
SLD-Durchgehend
 62
     7
370
    15
100
AcDbCircle
 10
52.3872639422
 20
110.3119056757
 30
0.0
 40
18.89999999999998
100
AcDbArc
 50
235.6621463087
 51
237.2396056671
  0
LINE
  5
3AB
330
1F
100
AcDbEntity
  8
0
  6
SLD-Durchgehend
 62
     7
370
    15
100
AcDbLine
 10
42.1599627842
 20
94.418124118
 30
0.0
 11
41.3409269785
 21
93.9158283259
 31
0.0
  0
LWPOLYLINE
  5
3AC
330
1F
100
AcDbEntity
  8
0
  6
SLD-Durchgehend
 62
     7
370
    15
100
AcDbPolyline
 90
       10
 70
   128
 43
0.0
 10
41.3409269785
 20
93.9158283259
 10
41.3337129538
 20
93.9104247923
 10
41.3250293021
 20
93.8976097937
 10
41.3236900603
 20
93.8855100508
 10
41.3273082485
 20
93.8723784025
 10
41.3386713152
 20
93.854418778
 10
41.3665970226
 20
93.8275780614
 10
41.4384494906
 20
93.7828242864
 10
41.6205025648
 20
93.7161713924
 10
41.6558779215
 20
93.7079832043
  0
LINE
  5
3AD
330
1F
100
AcDbEntity
  8
0
  6
SLD-Durchgehend
 62
     7
370
    15
100
AcDbLine
 10
41.6558779215
 20
93.7079832043
 30
0.0
 11
44.3506402333
 21
93.2056874122
 31
0.0
  0
ARC
  5
3AE
330
1F
100
AcDbEntity
  8
0
  6
SLD-Durchgehend
 62
     7
370
    15
100
AcDbCircle
 10
52.3872639422
 20
110.3119056757
 30
0.0
 40
18.90000000000705
100
AcDbArc
 50
244.8355269229
 51
246.970848949
  0
LINE
  5
3AF
330
1F
100
AcDbEntity
  8
0
  6
SLD-Durchgehend
 62
     7
370
    15
100
AcDbLine
 10
44.9935950709
 20
92.9181229408
 30
0.0
 11
43.9858756398
 21
92.4158290114
 31
0.0
  0
LWPOLYLINE
  5
3B0
330
1F
100
AcDbEntity
  8
0
  6
SLD-Durchgehend
 62
     7
370
    15
100
AcDbPolyline
 90
        9
 70
   128
 43
0.0
 10
43.9858756398
 20
92.4158290114
 10
43.9735514482
 20
92.4069013532
 10
43.9685604905
 20
92.3987057145
 10
43.9678582733
 20
92.3887647774
 10
43.9712408369
 20
92.3792913641
 10
43.9816045945
 20
92.3655357297
 10
44.0084555556
 20
92.3437800344
 10
44.1083501463
 20
92.2942318107
 10
44.4436579381
 20
92.2079820271
  0
LWPOLYLINE
  5
3B1
330
1F
100
AcDbEntity
  8
0
  6
SLD-Durchgehend
 62
     7
370
    15
100
AcDbPolyline
 90
        3
 70
   128
 43
0.0
 10
44.4436579381
 20
92.2079820271
 10
46.7270569314
 20
91.909576961
 10
49.067827258
 20
91.7056880977
  0
ARC
  5
3B2
330
1F
100
AcDbEntity
  8
0
  6
SLD-Durchgehend
 62
     7
370
    15
100
AcDbCircle
 10
52.3872639422
 20
110.3119056757
 30
0.0
 40
18.9
100
AcDbArc
 50
259.8845863359
 51
268.5302739106
  0
ARC
  5
3B3
330
1F
100
AcDbEntity
  8
0
  6
SLD-Durchgehend
 62
     7
370
    15
100
AcDbCircle
 10
52.5545571486
 20
75.7096128437
 30
0.0
 40
15.72203823001815
100
AcDbArc
 50
92.3769622176
 51
104.7173040006
  0
LWPOLYLINE
  5
3B4
330
1F
100
AcDbEntity
  8
0
  6
SLD-Durchgehend
 62
     7
370
    15
100
AcDbPolyline
 90
       12
 70
   128
 43
0.0
 10
48.5603724045
 20
90.9158278342
 10
48.5487210934
 20
90.9123260613
 10
48.5388032065
 20
90.908023351
 10
48.5309163013
 20
90.9018635835
 10
48.5289358438
 20
90.8979408528
 10
48.5290175674
 20
90.8935524608
 10
48.5309053582
 20
90.8895868893
 10
48.5367587206
 20
90.8834681
 10
48.5574068406
 20
90.8712789502
 10
48.6475688775
 20
90.8415027048
 10
49.0216455327
 20
90.7753825273
 10
49.830097323
 20
90.7079827126
  0
LWPOLYLINE
  5
3B5
330
1F
100
AcDbEntity
  8
0
  6
SLD-Durchgehend
 62
     7
370
    15
100
AcDbPolyline
 90
        3
 70
   128
 43
0.0
 10
49.830097323
 20
90.7079827126
 10
52.3757168474
 20
90.6471952881
 10
54.9444305615
 20
90.7079827126
  0
LWPOLYLINE
  5
3B6
330
1F
100
AcDbEntity
  8
0
  6
SLD-Durchgehend
 62
     7
370
    15
100
AcDbPolyline
 90
       12
 70
   128
 43
0.0
 10
54.9444305615
 20
90.7079827126
 10
55.1087177263
 20
90.7168042
 10
56.0631892548
 20
90.8264972355
 10
56.2112916631
 20
90.8686488952
 10
56.2315621318
 20
90.8790443178
 10
56.2393435647
 20
90.8848166551
 10
56.2442579211
 20
90.8906020309
 10
56.245768992
 20
90.8948674883
 10
56.2452323173
 20
90.8990752037
 10
56.2422253096
 20
90.9034114416
 10
56.2340448049
 20
90.9088969316
 10
56.21415548
 20
90.9158278342
  0
ARC
  5
3B7
330
1F
100
AcDbEntity
  8
0
  6
SLD-Durchgehend
 62
     7
370
    15
100
AcDbCircle
 10
52.2771507257
 20
76.0900718785
 30
0.0
 40
15.33959080586805
100
AcDbArc
 50
75.1282408537
 51
87.7774929281
  0
ARC
  5
3B8
330
1F
100
AcDbEntity
  8
0
  6
SLD-Durchgehend
 62
     7
370
    15
100
AcDbCircle
 10
52.3872639422
 20
110.3119056757
 30
0.0
 40
18.9000000000008
100
AcDbArc
 50
271.4697260895
 51
280.1154136641
  0
LWPOLYLINE
  5
3B9
330
1F
100
AcDbEntity
  8
0
  6
SLD-Durchgehend
 62
     7
370
    15
100
AcDbPolyline
 90
        3
 70
   128
 43
0.0
 10
55.7067006265
 20
91.7056880977
 10
58.0314591897
 20
91.9078279372
 10
60.3308699464
 20
92.2079820271
  0
LWPOLYLINE
  5
3BA
330
1F
100
AcDbEntity
  8
0
  6
SLD-Durchgehend
 62
     7
370
    15
100
AcDbPolyline
 90
       11
 70
   128
 43
0.0
 10
60.3308699464
 20
92.2079820271
 10
60.5385139023
 20
92.2521583821
 10
60.7198526521
 20
92.3177030023
 10
60.7668294941
 20
92.3442903991
 10
60.7894168605
 20
92.3620451327
 10
60.8014132266
 20
92.3761025156
 10
60.8062421342
 20
92.3867326315
 10
60.8064162915
 20
92.3971578564
 10
60.8025997316
 20
92.4049642022
 10
60.7911127989
 20
92.4144953575
 10
60.7886522447
 20
92.4158290114
  0
LINE
  5
3BB
330
1F
100
AcDbEntity
  8
0
  6
SLD-Durchgehend
 62
     7
370
    15
100
AcDbLine
 10
60.7886522447
 20
92.4158290114
 30
0.0
 11
59.7809328136
 21
92.9181229408
 31
0.0
  0
ARC
  5
3BC
330
1F
100
AcDbEntity
  8
0
  6
SLD-Durchgehend
 62
     7
370
    15
100
AcDbCircle
 10
52.3872639422
 20
110.3119056757
 30
0.0
 40
18.89999999999999
100
AcDbArc
 50
293.029151051
 51
295.1644730771
  0
LINE
  5
3BD
330
1F
100
AcDbEntity
  8
0
  6
SLD-Durchgehend
 62
     7
370
    15
100
AcDbLine
 10
60.4238876512
 20
93.2056874122
 30
0.0
 11
63.118649963
 21
93.7079832043
 31
0.0
  0
LWPOLYLINE
  5
3BE
330
1F
100
AcDbEntity
  8
0
  6
SLD-Durchgehend
 62
     7
370
    15
100
AcDbPolyline
 90
       10
 70
   128
 43
0.0
 10
63.118649963
 20
93.7079832043
 10
63.3256736581
 20
93.7776386823
 10
63.4005436112
 20
93.8219081696
 10
63.4230350514
 20
93.840655693
 10
63.4416894426
 20
93.8623573716
 10
63.4490599294
 20
93.8771728511
 10
63.4507875328
 20
93.8918933358
 10
63.4469691103
 20
93.9030151899
 10
63.435188811
 20
93.9148075964
 10
63.433600906
 20
93.9158283259
  0
LINE
  5
3BF
330
1F
100
AcDbEntity
  8
0
  6
SLD-Durchgehend
 62
     7
370
    15
100
AcDbLine
 10
63.433600906
 20
93.9158283259
 30
0.0
 11
62.6145651003
 21
94.418124118
 31
0.0
  0
ARC
  5
3C0
330
1F
100
AcDbEntity
  8
0
  6
SLD-Durchgehend
 62
     7
370
    15
100
AcDbCircle
 10
52.3872639422
 20
110.3119056757
 30
0.0
 40
18.89999999999997
100
AcDbArc
 50
302.7603943329
 51
304.3378536913
  0
LINE
  5
3C1
330
1F
100
AcDbEntity
  8
0
  6
SLD-Durchgehend
 62
     7
370
    15
100
AcDbLine
 10
63.0482196246
 20
94.7056876581
 30
0.0
 11
65.1436115985
 21
95.2079825188
 31
0.0
  0
LWPOLYLINE
  5
3C2
330
1F
100
AcDbEntity
  8
0
  6
SLD-Durchgehend
 62
     7
370
    15
100
AcDbPolyline
 90
        9
 70
   128
 43
0.0
 10
65.1436115985
 20
95.2079825188
 10
65.2965589796
 20
95.2695438724
 10
65.3717902859
 20
95.3251866709
 10
65.3926481863
 20
95.3509647484
 10
65.4015618746
 20
95.3697821211
 10
65.4036508312
 20
95.3884067099
 10
65.3992587139
 20
95.4018494199
 10
65.3860870187
 20
95.415578046
 10
65.3857172837
 20
95.4158285718
  0
LINE
  5
3C3
330
1F
100
AcDbEntity
  8
0
  6
SLD-Durchgehend
 62
     7
370
    15
100
AcDbLine
 10
65.3857172837
 20
95.4158285718
 30
0.0
 11
64.635898303
 21
95.9181234326
 31
0.0
  0
ARC
  5
3C4
330
1F
100
AcDbEntity
  8
0
  6
SLD-Durchgehend
 62
     7
370
    15
100
AcDbCircle
 10
52.3872639422
 20
110.3119056757
 30
0.0
 40
18.89999999999998
100
AcDbArc
 50
310.3966873225
 51
311.7238912277
  0
LINE
  5
3C5
330
1F
100
AcDbEntity
  8
0
  6
SLD-Durchgehend
 62
     7
370
    15
100
AcDbLine
 10
64.9660009329
 20
96.2056879039
 30
0.0
 11
66.7325131034
 21
96.7079827647
 31
0.0
  0
LWPOLYLINE
  5
3C6
330
1F
100
AcDbEntity
  8
0
  6
SLD-Durchgehend
 62
     7
370
    15
100
AcDbPolyline
 90
        9
 70
   128
 43
0.0
 10
66.7325131034
 20
96.7079827647
 10
66.8244635125
 20
96.7463634993
 10
66.8790073504
 20
96.7817379247
 10
66.9268251767
 20
96.8293406154
 10
66.9397789424
 20
96.8511801298
 10
66.946300063
 20
96.8741186048
 10
66.9445277562
 20
96.8927571635
 10
66.93715075
 20
96.906336778
 10
66.926797237
 20
96.9158288177
  0
LINE
  5
3C7
330
1F
100
AcDbEntity
  8
0
  6
SLD-Durchgehend
 62
     7
370
    15
100
AcDbLine
 10
66.926797237
 20
96.9158288177
 30
0.0
 11
66.2061053698
 21
97.4181236784
 31
0.0
  0
LINE
  5
3C8
330
1F
100
AcDbEntity
  8
0
  6
SLD-Durchgehend
 62
     7
370
    15
100
AcDbLine
 10
66.4689283257
 20
97.7056881498
 30
0.0
 11
68.0188968216
 21
98.2079830106
 31
0.0
  0
LWPOLYLINE
  5
3C9
330
1F
100
AcDbEntity
  8
0
  6
SLD-Durchgehend
 62
     7
370
    15
100
AcDbPolyline
 90
        9
 70
   128
 43
0.0
 10
68.0188968216
 20
98.2079830106
 10
68.1085496579
 20
98.2521379452
 10
68.1507590597
 20
98.285801531
 10
68.1813362424
 20
98.3219293963
 10
68.1942648624
 20
98.3469493772
 10
68.1993573343
 20
98.3687590893
 10
68.1975114529
 20
98.388783456
 10
68.1898243164
 20
98.4041512098
 10
68.177648205
 20
98.4158290635
  0
LINE
  5
3CA
330
1F
100
AcDbEntity
  8
0
  6
SLD-Durchgehend
 62
     7
370
    15
100
AcDbLine
 10
68.177648205
 20
98.4158290635
 30
0.0
 11
67.4667771344
 21
98.918122993
 31
0.0
  0
ARC
  5
3CB
330
1F
100
AcDbEntity
  8
0
  6
SLD-Durchgehend
 62
     7
370
    15
100
AcDbCircle
 10
52.3872639422
 20
110.3119056757
 30
0.0
 40
18.89999999999998
100
AcDbArc
 50
322.9260268275
 51
324.0109540318
  0
LINE
  5
3CC
330
1F
100
AcDbEntity
  8
0
  6
SLD-Durchgehend
 62
     7
370
    15
100
AcDbLine
 10
67.6798087915
 20
99.2056874644
 30
0.0
 11
69.0728783046
 21
99.7079823251
 31
0.0
  0
LWPOLYLINE
  5
3CD
330
1F
100
AcDbEntity
  8
0
  6
SLD-Durchgehend
 62
     7
370
    15
100
AcDbPolyline
 90
        9
 70
   128
 43
0.0
 10
69.0728783046
 20
99.7079823251
 10
69.1509641146
 20
99.7506359677
 10
69.1885727828
 20
99.7847354125
 10
69.2132882212
 20
99.818765008
 10
69.2243802731
 20
99.845023648
 10
69.2276473527
 20
99.8716268774
 10
69.2231453394
 20
99.8915311034
 10
69.2096746897
 20
99.9105691995
 10
69.2031628822
 20
99.9158283781
  0
LINE
  5
3CE
330
1F
100
AcDbEntity
  8
0
  6
SLD-Durchgehend
 62
     7
370
    15
100
AcDbLine
 10
69.2031628822
 20
99.9158283781
 30
0.0
 11
68.4907756184
 21
100.4181232389
 31
0.0
  0
ARC
  5
3CF
330
1F
100
AcDbEntity
  8
0
  6
SLD-Durchgehend
 62
     7
370
    15
100
AcDbCircle
 10
52.3872639422
 20
110.3119056757
 30
0.0
 40
18.89999999999997
100
AcDbArc
 50
328.4339897924
 51
329.4516361064
  0
LINE
  5
3D0
330
1F
100
AcDbEntity
  8
0
  6
SLD-Durchgehend
 62
     7
370
    15
100
AcDbLine
 10
68.6639513259
 20
100.7056877102
 30
0.0
 11
69.9363801067
 21
101.207982571
 31
0.0
  0
LWPOLYLINE
  5
3D1
330
1F
100
AcDbEntity
  8
0
  6
SLD-Durchgehend
 62
     7
370
    15
100
AcDbPolyline
 90
        9
 70
   128
 43
0.0
 10
69.9363801067
 20
101.207982571
 10
70.0024779325
 20
101.2468904342
 10
70.0370933299
 20
101.2811873193
 10
70.0584429686
 20
101.3142716225
 10
70.0681473498
 20
101.3414885934
 10
70.0700602864
 20
101.3687418859
 10
70.0646642034
 20
101.3895690526
 10
70.0497760807
 20
101.4101391743
 10
70.042651463
 20
101.4158286239
  0
LINE
  5
3D2
330
1F
100
AcDbEntity
  8
0
  6
SLD-Durchgehend
 62
     7
370
    15
100
AcDbLine
 10
70.042651463
 20
101.4158286239
 30
0.0
 11
69.3210888093
 21
101.9181234847
 31
0.0
  0
ARC
  5
3D3
330
1F
100
AcDbEntity
  8
0
  6
SLD-Durchgehend
 62
     7
370
    15
100
AcDbCircle
 10
52.3872639422
 20
110.3119056757
 30
0.0
 40
18.89999999999997
100
AcDbArc
 50
333.6332398891
 51
334.6022022657
  0
LINE
  5
3D4
330
1F
100
AcDbEntity
  8
0
  6
SLD-Durchgehend
 62
     7
370
    15
100
AcDbLine
 10
69.4606121068
 20
102.2056879561
 30
0.0
 11
70.6364627366
 21
102.7079828169
 31
0.0
  0
LWPOLYLINE
  5
3D5
330
1F
100
AcDbEntity
  8
0
  6
SLD-Durchgehend
 62
     7
370
    15
100
AcDbPolyline
 90
        9
 70
   128
 43
0.0
 10
70.6364627366
 20
102.7079828169
 10
70.6932994907
 20
102.7437670242
 10
70.7247521167
 20
102.7775605294
 10
70.7434605246
 20
102.8100161898
 10
70.7517679219
 20
102.837874842
 10
70.7524198477
 20
102.8655281376
 10
70.7461576347
 20
102.8872563589
 10
70.7299004679
 20
102.9093384828
 10
70.7216843401
 20
102.9158288698
  0
LINE
  5
3D6
330
1F
100
AcDbEntity
  8
0
  6
SLD-Durchgehend
 62
     7
370
    15
100
AcDbLine
 10
70.7216843401
 20
102.9158288698
 30
0.0
 11
69.9851553326
 21
103.4181232649
 31
0.0
  0
ARC
  5
3D7
330
1F
100
AcDbEntity
  8
0
  6
SLD-Durchgehend
 62
     7
370
    15
100
AcDbCircle
 10
52.3872639422
 20
110.3119056757
 30
0.0
 40
18.89999999999996
100
AcDbArc
 50
338.6077784115
 51
339.5411033901
  0
LINE
  5
3D8
330
1F
100
AcDbEntity
  8
0
  6
SLD-Durchgehend
 62
     7
370
    15
100
AcDbLine
 10
70.0951128637
 20
103.7056877363
 30
0.0
 11
71.1913857048
 21
104.2079825971
 31
0.0
  0
LWPOLYLINE
  5
3D9
330
1F
100
AcDbEntity
  8
0
  6
SLD-Durchgehend
 62
     7
370
    15
100
AcDbPolyline
 90
        9
 70
   128
 43
0.0
 10
71.1913857048
 20
104.2079825971
 10
71.240820307
 20
104.2410659689
 10
71.2692461346
 20
104.274012902
 10
71.2856970166
 20
104.3058981273
 10
71.2926353698
 20
104.3341940354
 10
71.2920914774
 20
104.3621006507
 10
71.2849482333
 20
104.3846791695
 10
71.2672884946
 20
104.408268639
 10
71.2575897013
 20
104.41582865
  0
LINE
  5
3DA
330
1F
100
AcDbEntity
  8
0
  6
SLD-Durchgehend
 62
     7
370
    15
100
AcDbLine
 10
71.2575897013
 20
104.41582865
 30
0.0
 11
70.5012663637
 21
104.9181235108
 31
0.0
  0
ARC
  5
3DB
330
1F
100
AcDbEntity
  8
0
  6
SLD-Durchgehend
 62
     7
370
    15
100
AcDbCircle
 10
52.3872639422
 20
110.3119056757
 30
0.0
 40
18.89999999999997
100
AcDbArc
 50
343.4181186606
 51
344.3256018524
  0
LINE
  5
3DC
330
1F
100
AcDbEntity
  8
0
  6
SLD-Durchgehend
 62
     7
370
    15
100
AcDbLine
 10
70.5844222938
 20
105.2056879822
 30
0.0
 11
71.6137255912
 21
105.7079828429
 31
0.0
  0
LWPOLYLINE
  5
3DD
330
1F
100
AcDbEntity
  8
0
  6
SLD-Durchgehend
 62
     7
370
    15
100
AcDbPolyline
 90
        9
 70
   128
 43
0.0
 10
71.6137255912
 20
105.7079828429
 10
71.6485626434
 20
105.7309296999
 10
71.6781470363
 20
105.7635567236
 10
71.6948586886
 20
105.795290609
 10
71.7021565323
 20
105.8243492703
 10
71.7019162511
 20
105.853634243
 10
71.6949704473
 20
105.8777266267
 10
71.6778359746
 20
105.9031289156
 10
71.6623108273
 20
105.9158288959
  0
LINE
  5
3DE
330
1F
100
AcDbEntity
  8
0
  6
SLD-Durchgehend
 62
     7
370
    15
100
AcDbLine
 10
71.6623108273
 20
105.9158288959
 30
0.0
 11
70.8818159436
 21
106.4181235238
 31
0.0
  0
ARC
  5
3DF
330
1F
100
AcDbEntity
  8
0
  6
SLD-Durchgehend
 62
     7
370
    15
100
AcDbCircle
 10
52.3872639422
 20
110.3119056757
 30
0.0
 40
18.89999999999997
100
AcDbArc
 50
348.1107715436
 51
349.000223065
  0
LINE
  5
3E0
330
1F
100
AcDbEntity
  8
0
  6
SLD-Durchgehend
 62
     7
370
    15
100
AcDbLine
 10
70.9400310551
 20
106.7056879952
 30
0.0
 11
71.9120822285
 21
107.2079826232
 31
0.0
  0
LWPOLYLINE
  5
3E1
330
1F
100
AcDbEntity
  8
0
  6
SLD-Durchgehend
 62
     7
370
    15
100
AcDbPolyline
 90
        9
 70
   128
 43
0.0
 10
71.9120822285
 20
107.2079826232
 10
71.9458277707
 20
107.2320477657
 10
71.9710163211
 20
107.263141134
 10
71.9849097912
 20
107.2939856063
 10
71.9901903902
 20
107.3229017753
 10
71.988217849
 20
107.3516305156
 10
71.9799197649
 20
107.3760942641
 10
71.9604961013
 20
107.4029093693
 10
71.9439930652
 20
107.4158286761
  0
LINE
  5
3E2
330
1F
100
AcDbEntity
  8
0
  6
SLD-Durchgehend
 62
     7
370
    15
100
AcDbLine
 10
71.9439930652
 20
107.4158286761
 30
0.0
 11
71.1350593154
 21
107.9181235369
 31
0.0
  0
ARC
  5
3E3
330
1F
100
AcDbEntity
  8
0
  6
SLD-Durchgehend
 62
     7
370
    15
100
AcDbCircle
 10
52.3872639422
 20
110.3119056757
 30
0.0
 40
18.89999999999997
100
AcDbArc
 50
352.723651697
 51
353.6016626482
  0
LINE
  5
3E4
330
1F
100
AcDbEntity
  8
0
  6
SLD-Durchgehend
 62
     7
370
    15
100
AcDbLine
 10
71.1695387398
 20
108.2056880082
 30
0.0
 11
72.0920938437
 21
108.7079826362
 31
0.0
  0
ARC
  5
3E5
330
1F
100
AcDbEntity
  8
0
  6
SLD-Durchgehend
 62
     7
370
    15
100
AcDbCircle
 10
72.0411003504
 20
108.8163876689
 30
0.0
 40
0.1197997807799025
100
AcDbArc
 50
295.1921919634
 51
56.1049141144
  0
LINE
  5
3E6
330
1F
100
AcDbEntity
  8
0
  6
SLD-Durchgehend
 62
     7
370
    15
100
AcDbLine
 10
72.1079095637
 20
108.9158286891
 30
0.0
 11
71.2661187534
 21
109.4181234335
 31
0.0
  0
ARC
  5
3E7
330
1F
100
AcDbEntity
  8
0
  6
SLD-Durchgehend
 62
     7
370
    15
100
AcDbCircle
 10
52.3872639422
 20
110.3119056757
 30
0.0
 40
18.89999999999997
100
AcDbArc
 50
357.2894679724
 51
358.1619217522
  0
LINE
  5
3E8
330
1F
100
AcDbEntity
  8
0
  6
SLD-Durchgehend
 62
     7
370
    15
100
AcDbLine
 10
71.2775386308
 20
109.7056879049
 30
0.0
 11
72.1569902633
 21
110.2079826274
 31
0.0
  0
ARC
  5
3E9
330
1F
100
AcDbEntity
  8
0
  6
SLD-Durchgehend
 62
     7
370
    15
100
AcDbCircle
 10
72.0974655468
 20
110.3119056757
 30
0.0
 40
0.1197630654656289
100
AcDbArc
 50
299.8030827258
 51
60.1969172742
  0
LINE
  5
3EA
330
1F
100
AcDbEntity
  8
0
  6
SLD-Durchgehend
 62
     7
370
    15
100
AcDbLine
 10
72.1569902633
 20
110.415828724
 30
0.0
 11
71.2775386308
 21
110.9181234465
 31
0.0
  0
ARC
  5
3EB
330
1F
100
AcDbEntity
  8
0
  6
SLD-Durchgehend
 62
     7
370
    15
100
AcDbCircle
 10
52.3872639422
 20
110.3119056757
 30
0.0
 40
18.89999999999997
100
AcDbArc
 50
1.8380782478
 51
2.7105320276
  0
LINE
  5
3EC
330
1F
100
AcDbEntity
  8
0
  6
SLD-Durchgehend
 62
     7
370
    15
100
AcDbLine
 10
52.8720252586
 20
129.2056877251
 30
0.0
 11
51.9025026259
 21
129.2056877251
 31
0.0
  0
LINE
  5
3ED
330
1F
100
AcDbEntity
  8
0
  6
SLD-Durchgehend
 62
     7
370
    15
100
AcDbLine
 10
52.8720252586
 20
91.4181236263
 30
0.0
 11
51.9025026259
 21
91.4181236263
 31
0.0
  0
LINE
  5
3EE
330
1F
100
AcDbEntity
  8
0
  6
SLD-Durchgehend
 62
     7
370
    15
100
AcDbLine
 10
58.2824808915
 20
97.4181236784
 30
0.0
 11
46.492046993
 21
97.4181236784
 31
0.0
  0
LINE
  5
3EF
330
1F
100
AcDbEntity
  8
0
  6
SLD-Durchgehend
 62
     7
370
    15
100
AcDbLine
 10
58.2824808915
 20
123.205687673
 30
0.0
 11
46.492046993
 21
123.205687673
 31
0.0
  0
LINE
  5
3F0
330
1F
100
AcDbEntity
  8
0
  6
SLD-Durchgehend
 62
     7
370
    15
100
AcDbLine
 10
70.0951128637
 20
103.7056877363
 30
0.0
 11
66.0489819382
 21
103.7056877363
 31
0.0
  0
LINE
  5
3F1
330
1F
100
AcDbEntity
  8
0
  6
SLD-Durchgehend
 62
     7
370
    15
100
AcDbLine
 10
58.524535354
 20
103.7056877363
 30
0.0
 11
54.7019749318
 21
103.7056877363
 31
0.0
  0
ARC
  5
3F2
330
1F
100
AcDbEntity
  8
0
  6
SLD-Durchgehend
 62
     7
370
    15
100
AcDbCircle
 10
51.9470560494
 20
97.407401453
 30
0.0
 40
6.874444570629077
100
AcDbArc
 50
66.375061473
 51
81.5933459011
  0
LWPOLYLINE
  5
3F3
330
1F
100
AcDbEntity
  8
0
  6
SLD-Durchgehend
 62
     7
370
    15
100
AcDbPolyline
 90
        3
 70
   128
 43
0.0
 10
54.7019749318
 20
116.9181236151
 10
53.4400686992
 20
116.5016422133
 10
52.9520855306
 20
116.4158287543
  0
LINE
  5
3F4
330
1F
100
AcDbEntity
  8
0
  6
SLD-Durchgehend
 62
     7
370
    15
100
AcDbLine
 10
58.524535354
 20
116.9181236151
 30
0.0
 11
54.7019749318
 21
116.9181236151
 31
0.0
  0
LINE
  5
3F5
330
1F
100
AcDbEntity
  8
0
  6
SLD-Durchgehend
 62
     7
370
    15
100
AcDbLine
 10
70.0951128637
 20
116.9181236151
 30
0.0
 11
66.0489819382
 21
116.9181236151
 31
0.0
  0
LINE
  5
3F6
330
1F
100
AcDbEntity
  8
0
  6
SLD-Durchgehend
 62
     7
370
    15
100
AcDbLine
 10
38.7255459462
 20
116.9181236151
 30
0.0
 11
34.6794150208
 21
116.9181236151
 31
0.0
  0
LINE
  5
3F7
330
1F
100
AcDbEntity
  8
0
  6
SLD-Durchgehend
 62
     7
370
    15
100
AcDbLine
 10
50.0725529527
 20
116.9181236151
 30
0.0
 11
46.2499925305
 21
116.9181236151
 31
0.0
  0
ARC
  5
3F8
330
1F
100
AcDbEntity
  8
0
  6
SLD-Durchgehend
 62
     7
370
    15
100
AcDbCircle
 10
52.8274718351
 20
123.2164098984
 30
0.0
 40
6.874444570629077
100
AcDbArc
 50
246.375061473
 51
261.5933459011
  0
LWPOLYLINE
  5
3F9
330
1F
100
AcDbEntity
  8
0
  6
SLD-Durchgehend
 62
     7
370
    15
100
AcDbPolyline
 90
        3
 70
   128
 43
0.0
 10
50.0725529527
 20
103.7056877363
 10
51.3344591853
 20
104.1221691381
 10
51.8224423539
 20
104.2079825971
  0
LINE
  5
3FA
330
1F
100
AcDbEntity
  8
0
  6
SLD-Durchgehend
 62
     7
370
    15
100
AcDbLine
 10
50.0725529527
 20
103.7056877363
 30
0.0
 11
46.2499925305
 21
103.7056877363
 31
0.0
  0
LINE
  5
3FB
330
1F
100
AcDbEntity
  8
0
  6
SLD-Durchgehend
 62
     7
370
    15
100
AcDbLine
 10
38.7255459462
 20
103.7056877363
 30
0.0
 11
34.6794150208
 21
103.7056877363
 31
0.0
  0
CIRCLE
  5
3FC
330
1F
100
AcDbEntity
  8
0
  6
SLD-Durchgehend
 62
     7
370
    15
100
AcDbCircle
 10
52.3872639422
 20
110.3119056757
 30
0.0
 40
5.999999999999993
  0
LINE
  5
3FD
330
1F
100
AcDbEntity
  8
0
  6
SLD-Durchgehend
 62
     7
370
    15
100
AcDbLine
 10
45.444558691
 20
111.2056879179
 30
0.0
 11
46.4183556286
 21
111.7079826623
 31
0.0
  0
LWPOLYLINE
  5
3FE
330
1F
100
AcDbEntity
  8
0
  6
SLD-Durchgehend
 62
     7
370
    15
100
AcDbPolyline
 90
        9
 70
   128
 43
0.0
 10
46.4183556286
 20
111.7079826623
 10
46.4531735887
 20
111.7309664228
 10
46.4834364501
 20
111.7642886789
 10
46.5006063131
 20
111.7965436393
 10
46.5082678382
 20
111.8259433975
 10
46.5083288399
 20
111.85553722
 10
46.5015585904
 20
111.8795854823
 10
46.4847938528
 20
111.9043753102
 10
46.4708179605
 20
111.9158287152
  0
LINE
  5
3FF
330
1F
100
AcDbEntity
  8
0
  6
SLD-Durchgehend
 62
     7
370
    15
100
AcDbLine
 10
46.4708179605
 20
111.9158287152
 30
0.0
 11
45.7116480355
 21
112.4181233432
 31
0.0
  0
ARC
  5
400
330
1F
100
AcDbEntity
  8
0
  6
SLD-Durchgehend
 62
     7
370
    15
100
AcDbCircle
 10
52.3872639422
 20
110.3119056757
 30
0.0
 40
7.000000000000019
100
AcDbArc
 50
160.0031251428
 51
162.4890384396
  0
LINE
  5
401
330
1F
100
AcDbEntity
  8
0
  6
SLD-Durchgehend
 62
     7
370
    15
100
AcDbLine
 10
45.8092851003
 20
112.7056878145
 30
0.0
 11
46.9845201259
 21
113.2079826753
 31
0.0
  0
LWPOLYLINE
  5
402
330
1F
100
AcDbEntity
  8
0
  6
SLD-Durchgehend
 62
     7
370
    15
100
AcDbPolyline
 90
        9
 70
   128
 43
0.0
 10
46.9845201259
 20
113.2079826753
 10
47.0530608108
 20
113.2476043973
 10
47.0903924105
 20
113.2833981506
 10
47.1132065539
 20
113.3169890932
 10
47.1237863784
 20
113.3440740492
 10
47.1264462357
 20
113.3712917186
 10
47.1214445678
 20
113.3915775541
 10
47.1072228064
 20
113.4110335812
 10
47.1011915614
 20
113.4158287283
  0
LINE
  5
403
330
1F
100
AcDbEntity
  8
0
  6
SLD-Durchgehend
 62
     7
370
    15
100
AcDbLine
 10
47.1011915614
 20
113.4158287283
 30
0.0
 11
46.3876643588
 21
113.9181233562
 31
0.0
  0
ARC
  5
404
330
1F
100
AcDbEntity
  8
0
  6
SLD-Durchgehend
 62
     7
370
    15
100
AcDbCircle
 10
52.3872639422
 20
110.3119056757
 30
0.0
 40
7.000000000000017
100
AcDbArc
 50
146.2028277715
 51
148.9909159789
  0
LINE
  5
405
330
1F
100
AcDbEntity
  8
0
  6
SLD-Durchgehend
 62
     7
370
    15
100
AcDbLine
 10
46.5701803004
 20
114.2056878276
 30
0.0
 11
48.1150973027
 21
114.7079824555
 31
0.0
  0
LWPOLYLINE
  5
406
330
1F
100
AcDbEntity
  8
0
  6
SLD-Durchgehend
 62
     7
370
    15
100
AcDbPolyline
 90
        9
 70
   128
 43
0.0
 10
48.1150973027
 20
114.7079824555
 10
48.2447332141
 20
114.76290767
 10
48.3081250821
 20
114.8070919413
 10
48.3344992061
 20
114.8333487186
 10
48.3511861784
 20
114.8579626429
 10
48.3573962373
 20
114.8757658053
 10
48.3571736512
 20
114.8925747808
 10
48.3513710459
 20
114.9050884965
 10
48.3399446492
 20
114.9158285085
  0
LINE
  5
407
330
1F
100
AcDbEntity
  8
0
  6
SLD-Durchgehend
 62
     7
370
    15
100
AcDbLine
 10
48.3399446492
 20
114.9158285085
 30
0.0
 11
47.5990970989
 21
115.4181233692
 31
0.0
  0
ARC
  5
408
330
1F
100
AcDbEntity
  8
0
  6
SLD-Durchgehend
 62
     7
370
    15
100
AcDbCircle
 10
52.3872639422
 20
110.3119056757
 30
0.0
 40
7.000000000000015
100
AcDbArc
 50
129.5975663528
 51
133.1588834979
  0
LWPOLYLINE
  5
409
330
1F
100
AcDbEntity
  8
0
  6
SLD-Durchgehend
 62
     7
370
    15
100
AcDbPolyline
 90
        3
 70
   128
 43
0.0
 10
47.9255251956
 20
115.7056878406
 10
49.27189121
 20
116.0018670458
 10
50.7100112408
 20
116.2079827014
  0
LWPOLYLINE
  5
40A
330
1F
100
AcDbEntity
  8
0
  6
SLD-Durchgehend
 62
     7
370
    15
100
AcDbPolyline
 90
       16
 70
   128
 43
0.0
 10
50.7100112408
 20
116.2079827014
 10
50.9119950838
 20
116.2316415544
 10
51.7927714062
 20
116.3653347726
 10
51.8303645912
 20
116.3732277315
 10
51.8524521866
 20
116.3786578077
 10
51.8665954841
 20
116.3827989336
 10
51.8758566722
 20
116.3861037317
 10
51.8841283882
 20
116.3900395009
 10
51.8873228247
 20
116.392287248
 10
51.8892869258
 20
116.3945531558
 10
51.8898694098
 20
116.3962840188
 10
51.8895950189
 20
116.398025592
 10
51.8882464638
 20
116.3999259557
 10
51.8845220466
 20
116.4025113072
 10
51.8691620927
 20
116.4078380066
 10
51.8224423539
 20
116.4158287543
  0
ARC
  5
40B
330
1F
100
AcDbEntity
  8
0
  6
SLD-Durchgehend
 62
     7
370
    15
100
AcDbCircle
 10
52.3872639422
 20
110.3119056757
 30
0.0
 40
7.000000000000012
100
AcDbArc
 50
99.9939673009
 51
109.3096281731
  0
LINE
  5
40C
330
1F
100
AcDbEntity
  8
0
  6
SLD-Durchgehend
 62
     7
370
    15
100
AcDbLine
 10
51.1724525967
 20
117.2056880865
 30
0.0
 11
53.6020752878
 21
117.2056880865
 31
0.0
  0
ARC
  5
40D
330
1F
100
AcDbEntity
  8
0
  6
SLD-Durchgehend
 62
     7
370
    15
100
AcDbCircle
 10
52.3872639422
 20
110.3119056757
 30
0.0
 40
7.000000000000012
100
AcDbArc
 50
70.6903718269
 51
80.0060326991
  0
LWPOLYLINE
  5
40E
330
1F
100
AcDbEntity
  8
0
  6
SLD-Durchgehend
 62
     7
370
    15
100
AcDbPolyline
 90
       16
 70
   128
 43
0.0
 10
52.9520855306
 20
116.4158287543
 10
52.9442737132
 20
116.4148122157
 10
52.9220966526
 20
116.4113719102
 10
52.9079393854
 20
116.4084680464
 10
52.8986768003
 20
116.4059572007
 10
52.8903969351
 20
116.4027152668
 10
52.8872100657
 20
116.4007385347
 10
52.8852425886
 20
116.398634677
 10
52.8846588239
 20
116.3969517771
 10
52.8849311776
 20
116.3951887834
 10
52.8862782775
 20
116.3931761954
 10
52.8900045573
 20
116.3902779195
 10
52.9053934987
 20
116.3836394522
 10
52.984971462
 20
116.3647065956
 10
53.3086471513
 20
116.3115690548
 10
54.0645166437
 20
116.2079827014
  0
LWPOLYLINE
  5
40F
330
1F
100
AcDbEntity
  8
0
  6
SLD-Durchgehend
 62
     7
370
    15
100
AcDbPolyline
 90
        3
 70
   128
 43
0.0
 10
54.0645166437
 20
116.2079827014
 10
55.4769670961
 20
116.0065734844
 10
56.8490026889
 20
115.7056878406
  0
ARC
  5
410
330
1F
100
AcDbEntity
  8
0
  6
SLD-Durchgehend
 62
     7
370
    15
100
AcDbCircle
 10
52.3872639422
 20
110.3119056757
 30
0.0
 40
7.00000000000001
100
AcDbArc
 50
46.8411165021
 51
50.4024336472
  0
LINE
  5
411
330
1F
100
AcDbEntity
  8
0
  6
SLD-Durchgehend
 62
     7
370
    15
100
AcDbLine
 10
57.1754307856
 20
115.4181233692
 30
0.0
 11
56.4345832353
 21
114.9158285085
 31
0.0
  0
LWPOLYLINE
  5
412
330
1F
100
AcDbEntity
  8
0
  6
SLD-Durchgehend
 62
     7
370
    15
100
AcDbPolyline
 90
        9
 70
   128
 43
0.0
 10
56.4345832353
 20
114.9158285085
 10
56.425831597
 20
114.9083648894
 10
56.4172946287
 20
114.8923195984
 10
56.4169099924
 20
114.8770761761
 10
56.4219768529
 20
114.8608194749
 10
56.4366833677
 20
114.8374414157
 10
56.4710431171
 20
114.8031761955
 10
56.5494711881
 20
114.7520796481
 10
56.6594305818
 20
114.7079824555
  0
LINE
  5
413
330
1F
100
AcDbEntity
  8
0
  6
SLD-Durchgehend
 62
     7
370
    15
100
AcDbLine
 10
56.6594305818
 20
114.7079824555
 30
0.0
 11
58.2043475841
 21
114.2056878276
 31
0.0
  0
ARC
  5
414
330
1F
100
AcDbEntity
  8
0
  6
SLD-Durchgehend
 62
     7
370
    15
100
AcDbCircle
 10
52.3872639422
 20
110.3119056757
 30
0.0
 40
7.000000000000006
100
AcDbArc
 50
31.0090840211
 51
33.7971722285
  0
LINE
  5
415
330
1F
100
AcDbEntity
  8
0
  6
SLD-Durchgehend
 62
     7
370
    15
100
AcDbLine
 10
58.3868635257
 20
113.9181233562
 30
0.0
 11
57.6733363231
 21
113.4158287283
 31
0.0
  0
LWPOLYLINE
  5
416
330
1F
100
AcDbEntity
  8
0
  6
SLD-Durchgehend
 62
     7
370
    15
100
AcDbPolyline
 90
        9
 70
   128
 43
0.0
 10
57.6733363231
 20
113.4158287283
 10
57.6595876736
 20
113.402639338
 10
57.6499736306
 20
113.3826762057
 10
57.6483149451
 20
113.3574343372
 10
57.6538721469
 20
113.3338918995
 10
57.6691453715
 20
113.3035836361
 10
57.7006147613
 20
113.2657647218
 10
57.758292034
 20
113.2231243506
 10
57.7900077586
 20
113.2079826753
  0
LINE
  5
417
330
1F
100
AcDbEntity
  8
0
  6
SLD-Durchgehend
 62
     7
370
    15
100
AcDbLine
 10
57.7900077586
 20
113.2079826753
 30
0.0
 11
58.9652427842
 21
112.7056878145
 31
0.0
  0
ARC
  5
418
330
1F
100
AcDbEntity
  8
0
  6
SLD-Durchgehend
 62
     7
370
    15
100
AcDbCircle
 10
52.3872639422
 20
110.3119056757
 30
0.0
 40
7.000000000000006
100
AcDbArc
 50
17.5109615604
 51
19.9968748572
  0
LINE
  5
419
330
1F
100
AcDbEntity
  8
0
  6
SLD-Durchgehend
 62
     7
370
    15
100
AcDbLine
 10
59.062879849
 20
112.4181233432
 30
0.0
 11
58.303709924
 21
111.9158287152
 31
0.0
  0
LWPOLYLINE
  5
41A
330
1F
100
AcDbEntity
  8
0
  6
SLD-Durchgehend
 62
     7
370
    15
100
AcDbPolyline
 90
        9
 70
   128
 43
0.0
 10
58.303709924
 20
111.9158287152
 10
58.2834974301
 20
111.8972526716
 10
58.2702395876
 20
111.8725794918
 10
58.26520998
 20
111.8412804177
 10
58.2687997629
 20
111.8127286287
 10
58.27849064
 20
111.785956015
 10
58.3006477353
 20
111.7517668141
 10
58.3399714341
 20
111.7171793563
 10
58.3561722559
 20
111.7079826623
  0
LINE
  5
41B
330
1F
100
AcDbEntity
  8
0
  6
SLD-Durchgehend
 62
     7
370
    15
100
AcDbLine
 10
58.3561722559
 20
111.7079826623
 30
0.0
 11
59.3299691935
 21
111.2056879179
 31
0.0
  0
ARC
  5
41C
330
1F
100
AcDbEntity
  8
0
  6
SLD-Durchgehend
 62
     7
370
    15
100
AcDbCircle
 10
52.3872639422
 20
110.3119056757
 30
0.0
 40
7.000000000000007
100
AcDbArc
 50
4.9681835361
 51
7.3357322291
  0
LINE
  5
41D
330
1F
100
AcDbEntity
  8
0
  6
SLD-Durchgehend
 62
     7
370
    15
100
AcDbLine
 10
59.3609645401
 20
110.9181234465
 30
0.0
 11
58.5163830218
 21
110.415828724
 31
0.0
  0
ARC
  5
41E
330
1F
100
AcDbEntity
  8
0
  6
SLD-Durchgehend
 62
     7
370
    15
100
AcDbCircle
 10
58.5779227077
 20
110.3119056757
 30
0.0
 40
0.1207772036096465
100
AcDbArc
 50
120.6325710054
 51
239.3674289946
  0
LINE
  5
41F
330
1F
100
AcDbEntity
  8
0
  6
SLD-Durchgehend
 62
     7
370
    15
100
AcDbLine
 10
58.5163830218
 20
110.2079826274
 30
0.0
 11
59.3609645401
 21
109.7056879049
 31
0.0
  0
ARC
  5
420
330
1F
100
AcDbEntity
  8
0
  6
SLD-Durchgehend
 62
     7
370
    15
100
AcDbCircle
 10
52.3872639422
 20
110.3119056757
 30
0.0
 40
7.000000000000009
100
AcDbArc
 50
352.6642677709
 51
355.0318164639
  0
LINE
  5
421
330
1F
100
AcDbEntity
  8
0
  6
SLD-Durchgehend
 62
     7
370
    15
100
AcDbLine
 10
59.3299691935
 20
109.4181234335
 30
0.0
 11
58.3561722559
 21
108.9158286891
 31
0.0
  0
LWPOLYLINE
  5
422
330
1F
100
AcDbEntity
  8
0
  6
SLD-Durchgehend
 62
     7
370
    15
100
AcDbPolyline
 90
        9
 70
   128
 43
0.0
 10
58.3561722559
 20
108.9158286891
 10
58.3213542958
 20
108.8928449286
 10
58.2910914344
 20
108.8595226725
 10
58.2739215714
 20
108.8272677121
 10
58.2662600462
 20
108.7978679539
 10
58.2661990446
 20
108.7682741314
 10
58.2729692941
 20
108.7442258691
 10
58.2897340317
 20
108.7194360412
 10
58.303709924
 20
108.7079826362
  0
LINE
  5
423
330
1F
100
AcDbEntity
  8
0
  6
SLD-Durchgehend
 62
     7
370
    15
100
AcDbLine
 10
58.303709924
 20
108.7079826362
 30
0.0
 11
59.062879849
 21
108.2056880082
 31
0.0
  0
ARC
  5
424
330
1F
100
AcDbEntity
  8
0
  6
SLD-Durchgehend
 62
     7
370
    15
100
AcDbCircle
 10
52.3872639422
 20
110.3119056757
 30
0.0
 40
7.000000000000009
100
AcDbArc
 50
340.0031251428
 51
342.4890384396
  0
LINE
  5
425
330
1F
100
AcDbEntity
  8
0
  6
SLD-Durchgehend
 62
     7
370
    15
100
AcDbLine
 10
58.9652427842
 20
107.9181235369
 30
0.0
 11
57.7900077586
 21
107.4158286761
 31
0.0
  0
LWPOLYLINE
  5
426
330
1F
100
AcDbEntity
  8
0
  6
SLD-Durchgehend
 62
     7
370
    15
100
AcDbPolyline
 90
        9
 70
   128
 43
0.0
 10
57.7900077586
 20
107.4158286761
 10
57.7214670737
 20
107.3762069541
 10
57.684135474
 20
107.3404132008
 10
57.6613213306
 20
107.3068222582
 10
57.6507415061
 20
107.2797373022
 10
57.6480816488
 20
107.2525196328
 10
57.6530833167
 20
107.2322337973
 10
57.6673050781
 20
107.2127777703
 10
57.6733363231
 20
107.2079826232
  0
LINE
  5
427
330
1F
100
AcDbEntity
  8
0
  6
SLD-Durchgehend
 62
     7
370
    15
100
AcDbLine
 10
57.6733363231
 20
107.2079826232
 30
0.0
 11
58.3868635257
 21
106.7056879952
 31
0.0
  0
ARC
  5
428
330
1F
100
AcDbEntity
  8
0
  6
SLD-Durchgehend
 62
     7
370
    15
100
AcDbCircle
 10
52.3872639422
 20
110.3119056757
 30
0.0
 40
7.000000000000006
100
AcDbArc
 50
326.2028277715
 51
328.9909159789
  0
LINE
  5
429
330
1F
100
AcDbEntity
  8
0
  6
SLD-Durchgehend
 62
     7
370
    15
100
AcDbLine
 10
58.2043475841
 20
106.4181235238
 30
0.0
 11
56.6594305818
 21
105.9158288959
 31
0.0
  0
LWPOLYLINE
  5
42A
330
1F
100
AcDbEntity
  8
0
  6
SLD-Durchgehend
 62
     7
370
    15
100
AcDbPolyline
 90
        9
 70
   128
 43
0.0
 10
56.6594305818
 20
105.9158288959
 10
56.5297946704
 20
105.8609036814
 10
56.4664028024
 20
105.8167194101
 10
56.4400286784
 20
105.7904626328
 10
56.4233417061
 20
105.7658487085
 10
56.4171316472
 20
105.7480455461
 10
56.4173542333
 20
105.7312365707
 10
56.4231568386
 20
105.7187228549
 10
56.4345832353
 20
105.7079828429
  0
LINE
  5
42B
330
1F
100
AcDbEntity
  8
0
  6
SLD-Durchgehend
 62
     7
370
    15
100
AcDbLine
 10
56.4345832353
 20
105.7079828429
 30
0.0
 11
57.1754307856
 21
105.2056879822
 31
0.0
  0
ARC
  5
42C
330
1F
100
AcDbEntity
  8
0
  6
SLD-Durchgehend
 62
     7
370
    15
100
AcDbCircle
 10
52.3872639422
 20
110.3119056757
 30
0.0
 40
6.999999999999994
100
AcDbArc
 50
309.5975663528
 51
313.1588834979
  0
LWPOLYLINE
  5
42D
330
1F
100
AcDbEntity
  8
0
  6
SLD-Durchgehend
 62
     7
370
    15
100
AcDbPolyline
 90
        3
 70
   128
 43
0.0
 10
56.8490026889
 20
104.9181235108
 10
55.5026366745
 20
104.6219443056
 10
54.0645166437
 20
104.41582865
  0
LWPOLYLINE
  5
42E
330
1F
100
AcDbEntity
  8
0
  6
SLD-Durchgehend
 62
     7
370
    15
100
AcDbPolyline
 90
       16
 70
   128
 43
0.0
 10
54.0645166437
 20
104.41582865
 10
53.8625328007
 20
104.392169797
 10
52.9817564783
 20
104.2584765788
 10
52.9441632933
 20
104.25058362
 10
52.9220756979
 20
104.2451535437
 10
52.9079324004
 20
104.2410124179
 10
52.8986712123
 20
104.2377076197
 10
52.8903994963
 20
104.2337718505
 10
52.8872050598
 20
104.2315241035
 10
52.8852409587
 20
104.2292581956
 10
52.8846584747
 20
104.2275273326
 10
52.8849328656
 20
104.2257857594
 10
52.8862814207
 20
104.2238853957
 10
52.8900058379
 20
104.2213000442
 10
52.9053657918
 20
104.2159733448
 10
52.9520855306
 20
104.2079825971
  0
ARC
  5
42F
330
1F
100
AcDbEntity
  8
0
  6
SLD-Durchgehend
 62
     7
370
    15
100
AcDbCircle
 10
52.3872639422
 20
110.3119056757
 30
0.0
 40
7.000000000005918
100
AcDbArc
 50
279.9939673009
 51
289.3096281732
  0
LINE
  5
430
330
1F
100
AcDbEntity
  8
0
  6
SLD-Durchgehend
 62
     7
370
    15
100
AcDbLine
 10
53.6020752878
 20
103.4181232649
 30
0.0
 11
51.1724525967
 21
103.4181232649
 31
0.0
  0
ARC
  5
431
330
1F
100
AcDbEntity
  8
0
  6
SLD-Durchgehend
 62
     7
370
    15
100
AcDbCircle
 10
52.3872639422
 20
110.3119056757
 30
0.0
 40
6.999999999999992
100
AcDbArc
 50
250.6903718269
 51
260.0060326991
  0
LWPOLYLINE
  5
432
330
1F
100
AcDbEntity
  8
0
  6
SLD-Durchgehend
 62
     7
370
    15
100
AcDbPolyline
 90
       16
 70
   128
 43
0.0
 10
51.8224423539
 20
104.2079825971
 10
51.8302541712
 20
104.2089991357
 10
51.8524312318
 20
104.2124394413
 10
51.8665884991
 20
104.215343305
 10
51.8758510842
 20
104.2178541507
 10
51.8841309494
 20
104.2210960846
 10
51.8873178188
 20
104.2230728168
 10
51.8892852959
 20
104.2251766745
 10
51.8898690606
 20
104.2268595743
 10
51.8895967069
 20
104.228622568
 10
51.888249607
 20
104.2306351561
 10
51.8845233272
 20
104.2335334319
 10
51.8691343858
 20
104.2401718992
 10
51.7895564225
 20
104.2591047558
 10
51.4658807332
 20
104.3122422967
 10
50.7100112408
 20
104.41582865
  0
LWPOLYLINE
  5
433
330
1F
100
AcDbEntity
  8
0
  6
SLD-Durchgehend
 62
     7
370
    15
100
AcDbPolyline
 90
        3
 70
   128
 43
0.0
 10
50.7100112408
 20
104.41582865
 10
49.2975607884
 20
104.617237867
 10
47.9255251956
 20
104.9181235108
  0
ARC
  5
434
330
1F
100
AcDbEntity
  8
0
  6
SLD-Durchgehend
 62
     7
370
    15
100
AcDbCircle
 10
52.3872639422
 20
110.3119056757
 30
0.0
 40
7.000000000000001
100
AcDbArc
 50
226.8411165021
 51
230.4024336472
  0
LINE
  5
435
330
1F
100
AcDbEntity
  8
0
  6
SLD-Durchgehend
 62
     7
370
    15
100
AcDbLine
 10
47.5990970989
 20
105.2056879822
 30
0.0
 11
48.3399446492
 21
105.7079828429
 31
0.0
  0
LWPOLYLINE
  5
436
330
1F
100
AcDbEntity
  8
0
  6
SLD-Durchgehend
 62
     7
370
    15
100
AcDbPolyline
 90
        9
 70
   128
 43
0.0
 10
48.3399446492
 20
105.7079828429
 10
48.3486962875
 20
105.7154464621
 10
48.3572332558
 20
105.731491753
 10
48.3576178921
 20
105.7467351753
 10
48.3525510316
 20
105.7629918765
 10
48.3378445168
 20
105.7863699357
 10
48.3034847674
 20
105.8206351559
 10
48.2250566964
 20
105.8717317033
 10
48.1150973027
 20
105.9158288959
  0
LINE
  5
437
330
1F
100
AcDbEntity
  8
0
  6
SLD-Durchgehend
 62
     7
370
    15
100
AcDbLine
 10
48.1150973027
 20
105.9158288959
 30
0.0
 11
46.5701803004
 21
106.4181235238
 31
0.0
  0
ARC
  5
438
330
1F
100
AcDbEntity
  8
0
  6
SLD-Durchgehend
 62
     7
370
    15
100
AcDbCircle
 10
52.3872639422
 20
110.3119056757
 30
0.0
 40
7.000000000000012
100
AcDbArc
 50
211.0090840211
 51
213.7971722285
  0
LINE
  5
439
330
1F
100
AcDbEntity
  8
0
  6
SLD-Durchgehend
 62
     7
370
    15
100
AcDbLine
 10
46.3876643588
 20
106.7056879952
 30
0.0
 11
47.1011915614
 21
107.2079826232
 31
0.0
  0
LWPOLYLINE
  5
43A
330
1F
100
AcDbEntity
  8
0
  6
SLD-Durchgehend
 62
     7
370
    15
100
AcDbPolyline
 90
        9
 70
   128
 43
0.0
 10
47.1011915614
 20
107.2079826232
 10
47.1149402109
 20
107.2211720135
 10
47.1245542539
 20
107.2411351457
 10
47.1262129394
 20
107.2663770142
 10
47.1206557376
 20
107.2899194519
 10
47.105382513
 20
107.3202277153
 10
47.0739131232
 20
107.3580466296
 10
47.0162358505
 20
107.4006870009
 10
46.9845201259
 20
107.4158286761
  0
LINE
  5
43B
330
1F
100
AcDbEntity
  8
0
  6
SLD-Durchgehend
 62
     7
370
    15
100
AcDbLine
 10
46.9845201259
 20
107.4158286761
 30
0.0
 11
45.8092851003
 21
107.9181235369
 31
0.0
  0
ARC
  5
43C
330
1F
100
AcDbEntity
  8
0
  6
SLD-Durchgehend
 62
     7
370
    15
100
AcDbCircle
 10
52.3872639422
 20
110.3119056757
 30
0.0
 40
7.000000000000016
100
AcDbArc
 50
197.5109615604
 51
199.9968748572
  0
LINE
  5
43D
330
1F
100
AcDbEntity
  8
0
  6
SLD-Durchgehend
 62
     7
370
    15
100
AcDbLine
 10
45.7116480355
 20
108.2056880082
 30
0.0
 11
46.4708179605
 21
108.7079826362
 31
0.0
  0
LWPOLYLINE
  5
43E
330
1F
100
AcDbEntity
  8
0
  6
SLD-Durchgehend
 62
     7
370
    15
100
AcDbPolyline
 90
        9
 70
   128
 43
0.0
 10
46.4708179605
 20
108.7079826362
 10
46.4910304544
 20
108.7265586799
 10
46.5042882969
 20
108.7512318596
 10
46.5093179044
 20
108.7825309338
 10
46.5057281216
 20
108.8110827228
 10
46.4960372445
 20
108.8378553364
 10
46.4738801492
 20
108.8720445374
 10
46.4345564504
 20
108.9066319951
 10
46.4183556286
 20
108.9158286891
  0
LINE
  5
43F
330
1F
100
AcDbEntity
  8
0
  6
SLD-Durchgehend
 62
     7
370
    15
100
AcDbLine
 10
46.4183556286
 20
108.9158286891
 30
0.0
 11
45.444558691
 21
109.4181234335
 31
0.0
  0
ARC
  5
440
330
1F
100
AcDbEntity
  8
0
  6
SLD-Durchgehend
 62
     7
370
    15
100
AcDbCircle
 10
52.3872639422
 20
110.3119056757
 30
0.0
 40
7.000000000000018
100
AcDbArc
 50
184.9681835361
 51
187.3357322291
  0
LINE
  5
441
330
1F
100
AcDbEntity
  8
0
  6
SLD-Durchgehend
 62
     7
370
    15
100
AcDbLine
 10
45.4135633444
 20
109.7056879049
 30
0.0
 11
46.2581448627
 21
110.2079826274
 31
0.0
  0
ARC
  5
442
330
1F
100
AcDbEntity
  8
0
  6
SLD-Durchgehend
 62
     7
370
    15
100
AcDbCircle
 10
46.1966051768
 20
110.3119056757
 30
0.0
 40
0.1207772036096428
100
AcDbArc
 50
300.6325710054
 51
59.3674289946
  0
LINE
  5
443
330
1F
100
AcDbEntity
  8
0
  6
SLD-Durchgehend
 62
     7
370
    15
100
AcDbLine
 10
46.2581448627
 20
110.415828724
 30
0.0
 11
45.4135633444
 21
110.9181234465
 31
0.0
  0
ARC
  5
444
330
1F
100
AcDbEntity
  8
0
  6
SLD-Durchgehend
 62
     7
370
    15
100
AcDbCircle
 10
52.3872639422
 20
110.3119056757
 30
0.0
 40
7.000000000000014
100
AcDbArc
 50
172.6642677709
 51
175.0318164639
  0
LINE
  5
445
330
1F
100
AcDbEntity
  8
0
  6
SLD-Durchgehend
 62
     7
370
    15
100
AcDbLine
 10
51.1724525967
 20
117.2056880865
 30
0.0
 11
46.483477894
 21
117.2056880865
 31
0.0
  0
LINE
  5
446
330
1F
100
AcDbEntity
  8
0
  6
SLD-Durchgehend
 62
     7
370
    15
100
AcDbLine
 10
58.2910499905
 20
117.2056880865
 30
0.0
 11
53.6020752878
 21
117.2056880865
 31
0.0
  0
LINE
  5
447
330
1F
100
AcDbEntity
  8
0
  6
SLD-Durchgehend
 62
     7
370
    15
100
AcDbLine
 10
58.2910499905
 20
103.4181232649
 30
0.0
 11
53.6020752878
 21
103.4181232649
 31
0.0
  0
LINE
  5
448
330
1F
100
AcDbEntity
  8
0
  6
SLD-Durchgehend
 62
     7
370
    15
100
AcDbLine
 10
51.1724525967
 20
103.4181232649
 30
0.0
 11
46.483477894
 21
103.4181232649
 31
0.0
  0
LINE
  5
449
330
1F
100
AcDbEntity
  8
0
  6
SLD-Durchgehend
 62
     7
370
    15
100
AcDbLine
 10
70.5012663637
 20
115.7056878406
 30
0.0
 11
64.4543732886
 21
115.7056878406
 31
0.0
  0
LINE
  5
44A
330
1F
100
AcDbEntity
  8
0
  6
SLD-Durchgehend
 62
     7
370
    15
100
AcDbLine
 10
60.1191444692
 20
115.7056878406
 30
0.0
 11
56.8490026889
 21
115.7056878406
 31
0.0
  0
LINE
  5
44B
330
1F
100
AcDbEntity
  8
0
  6
SLD-Durchgehend
 62
     7
370
    15
100
AcDbLine
 10
70.5012663637
 20
104.9181235108
 30
0.0
 11
64.4543732886
 21
104.9181235108
 31
0.0
  0
LINE
  5
44C
330
1F
100
AcDbEntity
  8
0
  6
SLD-Durchgehend
 62
     7
370
    15
100
AcDbLine
 10
60.1191444692
 20
104.9181235108
 30
0.0
 11
56.8490026889
 21
104.9181235108
 31
0.0
  0
LINE
  5
44D
330
1F
100
AcDbEntity
  8
0
  6
SLD-Durchgehend
 62
     7
370
    15
100
AcDbLine
 10
70.5844222938
 20
105.2056879822
 30
0.0
 11
63.7096058016
 21
105.2056879822
 31
0.0
  0
LINE
  5
44E
330
1F
100
AcDbEntity
  8
0
  6
SLD-Durchgehend
 62
     7
370
    15
100
AcDbLine
 10
60.8639114906
 20
105.2056879822
 30
0.0
 11
57.1754307856
 21
105.2056879822
 31
0.0
  0
LINE
  5
44F
330
1F
100
AcDbEntity
  8
0
  6
SLD-Durchgehend
 62
     7
370
    15
100
AcDbLine
 10
71.1350593154
 20
107.9181235369
 30
0.0
 11
58.9652427842
 21
107.9181235369
 31
0.0
  0
LINE
  5
450
330
1F
100
AcDbEntity
  8
0
  6
SLD-Durchgehend
 62
     7
370
    15
100
AcDbLine
 10
71.1695387398
 20
108.2056880082
 30
0.0
 11
59.062879849
 21
108.2056880082
 31
0.0
  0
LINE
  5
451
330
1F
100
AcDbEntity
  8
0
  6
SLD-Durchgehend
 62
     7
370
    15
100
AcDbLine
 10
71.2775386308
 20
109.7056879049
 30
0.0
 11
59.3609645401
 21
109.7056879049
 31
0.0
  0
LINE
  5
452
330
1F
100
AcDbEntity
  8
0
  6
SLD-Durchgehend
 62
     7
370
    15
100
AcDbLine
 10
70.9400310551
 20
113.9181233562
 30
0.0
 11
58.3868635257
 21
113.9181233562
 31
0.0
  0
LINE
  5
453
330
1F
100
AcDbEntity
  8
0
  6
SLD-Durchgehend
 62
     7
370
    15
100
AcDbLine
 10
69.9851553326
 20
103.4181232649
 30
0.0
 11
66.282468233
 21
103.4181232649
 31
0.0
  0
LINE
  5
454
330
1F
100
AcDbEntity
  8
0
  6
SLD-Durchgehend
 62
     7
370
    15
100
AcDbLine
 10
70.5844222938
 20
115.4181233692
 30
0.0
 11
63.7096058016
 21
115.4181233692
 31
0.0
  0
LINE
  5
455
330
1F
100
AcDbEntity
  8
0
  6
SLD-Durchgehend
 62
     7
370
    15
100
AcDbLine
 10
60.8639114906
 20
115.4181233692
 30
0.0
 11
57.1754307856
 21
115.4181233692
 31
0.0
  0
LINE
  5
456
330
1F
100
AcDbEntity
  8
0
  6
SLD-Durchgehend
 62
     7
370
    15
100
AcDbLine
 10
69.4606121068
 20
118.4181233953
 30
0.0
 11
66.9541092028
 21
118.4181233953
 31
0.0
  0
LINE
  5
457
330
1F
100
AcDbEntity
  8
0
  6
SLD-Durchgehend
 62
     7
370
    15
100
AcDbLine
 10
71.2661187534
 20
111.2056879179
 30
0.0
 11
59.3299691935
 21
111.2056879179
 31
0.0
  0
LINE
  5
458
330
1F
100
AcDbEntity
  8
0
  6
SLD-Durchgehend
 62
     7
370
    15
100
AcDbLine
 10
70.8818159436
 20
106.4181235238
 30
0.0
 11
58.2043475841
 21
106.4181235238
 31
0.0
  0
LINE
  5
459
330
1F
100
AcDbEntity
  8
0
  6
SLD-Durchgehend
 62
     7
370
    15
100
AcDbLine
 10
70.9400310551
 20
106.7056879952
 30
0.0
 11
58.3868635257
 21
106.7056879952
 31
0.0
  0
LINE
  5
45A
330
1F
100
AcDbEntity
  8
0
  6
SLD-Durchgehend
 62
     7
370
    15
100
AcDbLine
 10
71.2775386308
 20
110.9181234465
 30
0.0
 11
59.3609645401
 21
110.9181234465
 31
0.0
  0
LINE
  5
45B
330
1F
100
AcDbEntity
  8
0
  6
SLD-Durchgehend
 62
     7
370
    15
100
AcDbLine
 10
71.1350593154
 20
112.7056878145
 30
0.0
 11
58.9652427842
 21
112.7056878145
 31
0.0
  0
LINE
  5
45C
330
1F
100
AcDbEntity
  8
0
  6
SLD-Durchgehend
 62
     7
370
    15
100
AcDbLine
 10
71.2661187534
 20
109.4181234335
 30
0.0
 11
59.3299691935
 21
109.4181234335
 31
0.0
  0
LINE
  5
45D
330
1F
100
AcDbEntity
  8
0
  6
SLD-Durchgehend
 62
     7
370
    15
100
AcDbLine
 10
69.9851553326
 20
117.2056880865
 30
0.0
 11
66.282468233
 21
117.2056880865
 31
0.0
  0
LINE
  5
45E
330
1F
100
AcDbEntity
  8
0
  6
SLD-Durchgehend
 62
     7
370
    15
100
AcDbLine
 10
70.8818159436
 20
114.2056878276
 30
0.0
 11
58.2043475841
 21
114.2056878276
 31
0.0
  0
LINE
  5
45F
330
1F
100
AcDbEntity
  8
0
  6
SLD-Durchgehend
 62
     7
370
    15
100
AcDbLine
 10
71.1695387398
 20
112.4181233432
 30
0.0
 11
59.062879849
 21
112.4181233432
 31
0.0
  0
LINE
  5
460
330
1F
100
AcDbEntity
  8
0
  6
SLD-Durchgehend
 62
     7
370
    15
100
AcDbLine
 10
69.4606121068
 20
102.2056879561
 30
0.0
 11
66.9541092028
 21
102.2056879561
 31
0.0
  0
LINE
  5
461
330
1F
100
AcDbEntity
  8
0
  6
SLD-Durchgehend
 62
     7
370
    15
100
AcDbLine
 10
69.3210888093
 20
118.7056878667
 30
0.0
 11
67.054654788
 21
118.7056878667
 31
0.0
  0
LINE
  5
462
330
1F
100
AcDbEntity
  8
0
  6
SLD-Durchgehend
 62
     7
370
    15
100
AcDbLine
 10
67.4667771344
 20
98.918122993
 30
0.0
 11
67.0582478305
 21
98.918122993
 31
0.0
  0
LINE
  5
463
330
1F
100
AcDbEntity
  8
0
  6
SLD-Durchgehend
 62
     7
370
    15
100
AcDbLine
 10
67.6798087915
 20
99.2056874644
 30
0.0
 11
67.1389562448
 21
99.2056874644
 31
0.0
  0
LINE
  5
464
330
1F
100
AcDbEntity
  8
0
  6
SLD-Durchgehend
 62
     7
370
    15
100
AcDbLine
 10
69.3210888093
 20
101.9181234847
 30
0.0
 11
67.054654788
 21
101.9181234847
 31
0.0
  0
LINE
  5
465
330
1F
100
AcDbEntity
  8
0
  6
SLD-Durchgehend
 62
     7
370
    15
100
AcDbLine
 10
68.4907756184
 20
100.4181232389
 30
0.0
 11
67.2867552747
 21
100.4181232389
 31
0.0
  0
LINE
  5
466
330
1F
100
AcDbEntity
  8
0
  6
SLD-Durchgehend
 62
     7
370
    15
100
AcDbLine
 10
68.6639513259
 20
100.7056877102
 30
0.0
 11
67.2781498541
 21
100.7056877102
 31
0.0
  0
LINE
  5
467
330
1F
100
AcDbEntity
  8
0
  6
SLD-Durchgehend
 62
     7
370
    15
100
AcDbLine
 10
67.6798087915
 20
121.4181238871
 30
0.0
 11
67.1389562448
 21
121.4181238871
 31
0.0
  0
LINE
  5
468
330
1F
100
AcDbEntity
  8
0
  6
SLD-Durchgehend
 62
     7
370
    15
100
AcDbLine
 10
68.6639513259
 20
119.9181236412
 30
0.0
 11
67.2781498541
 21
119.9181236412
 31
0.0
  0
LINE
  5
469
330
1F
100
AcDbEntity
  8
0
  6
SLD-Durchgehend
 62
     7
370
    15
100
AcDbLine
 10
68.4907756184
 20
120.2056881126
 30
0.0
 11
67.2867552747
 21
120.2056881126
 31
0.0
  0
LINE
  5
46A
330
1F
100
AcDbEntity
  8
0
  6
SLD-Durchgehend
 62
     7
370
    15
100
AcDbLine
 10
59.5842630972
 20
124.4181234475
 30
0.0
 11
45.1902647873
 21
124.4181234475
 31
0.0
  0
LINE
  5
46B
330
1F
100
AcDbEntity
  8
0
  6
SLD-Durchgehend
 62
     7
370
    15
100
AcDbLine
 10
67.4667771344
 20
121.7056883584
 30
0.0
 11
67.0582478305
 21
121.7056883584
 31
0.0
  0
LINE
  5
46C
330
1F
100
AcDbEntity
  8
0
  6
SLD-Durchgehend
 62
     7
370
    15
100
AcDbLine
 10
59.5842630972
 20
96.2056879039
 30
0.0
 11
45.1902647873
 21
96.2056879039
 31
0.0
  0
LINE
  5
46D
330
1F
100
AcDbEntity
  8
0
  6
SLD-Durchgehend
 62
     7
370
    15
100
AcDbLine
 10
64.635898303
 20
124.7056879188
 30
0.0
 11
64.4779646208
 21
124.7056879188
 31
0.0
  0
LINE
  5
46E
330
1F
100
AcDbEntity
  8
0
  6
SLD-Durchgehend
 62
     7
370
    15
100
AcDbLine
 10
60.0955531371
 20
124.7056879188
 30
0.0
 11
44.6789747474
 21
124.7056879188
 31
0.0
  0
LINE
  5
46F
330
1F
100
AcDbEntity
  8
0
  6
SLD-Durchgehend
 62
     7
370
    15
100
AcDbLine
 10
40.2965632637
 20
124.7056879188
 30
0.0
 11
40.1386295815
 21
124.7056879188
 31
0.0
  0
LINE
  5
470
330
1F
100
AcDbEntity
  8
0
  6
SLD-Durchgehend
 62
     7
370
    15
100
AcDbLine
 10
63.0482196246
 20
94.7056876581
 30
0.0
 11
41.7263082599
 21
94.7056876581
 31
0.0
  0
LINE
  5
471
330
1F
100
AcDbEntity
  8
0
  6
SLD-Durchgehend
 62
     7
370
    15
100
AcDbLine
 10
63.0482196246
 20
125.9181236933
 30
0.0
 11
41.7263082599
 21
125.9181236933
 31
0.0
  0
LINE
  5
472
330
1F
100
AcDbEntity
  8
0
  6
SLD-Durchgehend
 62
     7
370
    15
100
AcDbLine
 10
62.6145651003
 20
126.2056872334
 30
0.0
 11
42.1599627842
 21
126.2056872334
 31
0.0
  0
LINE
  5
473
330
1F
100
AcDbEntity
  8
0
  6
SLD-Durchgehend
 62
     7
370
    15
100
AcDbLine
 10
64.635898303
 20
95.9181234326
 30
0.0
 11
64.4779646208
 21
95.9181234326
 31
0.0
  0
LINE
  5
474
330
1F
100
AcDbEntity
  8
0
  6
SLD-Durchgehend
 62
     7
370
    15
100
AcDbLine
 10
60.0955531371
 20
95.9181234326
 30
0.0
 11
44.6789747474
 21
95.9181234326
 31
0.0
  0
LINE
  5
475
330
1F
100
AcDbEntity
  8
0
  6
SLD-Durchgehend
 62
     7
370
    15
100
AcDbLine
 10
40.2965632637
 20
95.9181234326
 30
0.0
 11
40.1386295815
 21
95.9181234326
 31
0.0
  0
LINE
  5
476
330
1F
100
AcDbEntity
  8
0
  6
SLD-Durchgehend
 62
     7
370
    15
100
AcDbLine
 10
62.6145651003
 20
94.418124118
 30
0.0
 11
42.1599627842
 21
94.418124118
 31
0.0
  0
LINE
  5
477
330
1F
100
AcDbEntity
  8
0
  6
SLD-Durchgehend
 62
     7
370
    15
100
AcDbLine
 10
60.4238876512
 20
127.4181239392
 30
0.0
 11
44.3506402333
 21
127.4181239392
 31
0.0
  0
LINE
  5
478
330
1F
100
AcDbEntity
  8
0
  6
SLD-Durchgehend
 62
     7
370
    15
100
AcDbLine
 10
60.4238876512
 20
93.2056874122
 30
0.0
 11
44.3506402333
 21
93.2056874122
 31
0.0
  0
LINE
  5
479
330
1F
100
AcDbEntity
  8
0
  6
SLD-Durchgehend
 62
     7
370
    15
100
AcDbLine
 10
57.6194085551
 20
118.4181233953
 30
0.0
 11
47.1551193294
 21
118.4181233953
 31
0.0
  0
LINE
  5
47A
330
1F
100
AcDbEntity
  8
0
  6
SLD-Durchgehend
 62
     7
370
    15
100
AcDbLine
 10
57.5152699274
 20
121.7056883584
 30
0.0
 11
47.2592579571
 21
121.7056883584
 31
0.0
  0
LINE
  5
47B
330
1F
100
AcDbEntity
  8
0
  6
SLD-Durchgehend
 62
     7
370
    15
100
AcDbLine
 10
57.5152699274
 20
98.918122993
 30
0.0
 11
47.2592579571
 21
98.918122993
 31
0.0
  0
LINE
  5
47C
330
1F
100
AcDbEntity
  8
0
  6
SLD-Durchgehend
 62
     7
370
    15
100
AcDbLine
 10
57.5188629699
 20
101.9181234847
 30
0.0
 11
47.2556649146
 21
101.9181234847
 31
0.0
  0
LINE
  5
47D
330
1F
100
AcDbEntity
  8
0
  6
SLD-Durchgehend
 62
     7
370
    15
100
AcDbLine
 10
59.7809328136
 20
127.7056884106
 30
0.0
 11
44.9935950709
 21
127.7056884106
 31
0.0
  0
LINE
  5
47E
330
1F
100
AcDbEntity
  8
0
  6
SLD-Durchgehend
 62
     7
370
    15
100
AcDbLine
 10
55.7067006265
 20
128.9181232538
 30
0.0
 11
49.067827258
 21
128.9181232538
 31
0.0
  0
LINE
  5
47F
330
1F
100
AcDbEntity
  8
0
  6
SLD-Durchgehend
 62
     7
370
    15
100
AcDbLine
 10
57.2867620175
 20
120.2056881126
 30
0.0
 11
47.487765867
 21
120.2056881126
 31
0.0
  0
LINE
  5
480
330
1F
100
AcDbEntity
  8
0
  6
SLD-Durchgehend
 62
     7
370
    15
100
AcDbLine
 10
57.2953674381
 20
119.9181236412
 30
0.0
 11
47.4791604464
 21
119.9181236412
 31
0.0
  0
LINE
  5
481
330
1F
100
AcDbEntity
  8
0
  6
SLD-Durchgehend
 62
     7
370
    15
100
AcDbLine
 10
58.0827545745
 20
122.9181232016
 30
0.0
 11
46.69177331
 21
122.9181232016
 31
0.0
  0
LINE
  5
482
330
1F
100
AcDbEntity
  8
0
  6
SLD-Durchgehend
 62
     7
370
    15
100
AcDbLine
 10
57.5188629699
 20
118.7056878667
 30
0.0
 11
47.2556649146
 21
118.7056878667
 31
0.0
  0
LINE
  5
483
330
1F
100
AcDbEntity
  8
0
  6
SLD-Durchgehend
 62
     7
370
    15
100
AcDbLine
 10
58.0827545745
 20
97.7056881498
 30
0.0
 11
46.69177331
 21
97.7056881498
 31
0.0
  0
LINE
  5
484
330
1F
100
AcDbEntity
  8
0
  6
SLD-Durchgehend
 62
     7
370
    15
100
AcDbLine
 10
57.2867620175
 20
100.4181232389
 30
0.0
 11
47.487765867
 21
100.4181232389
 31
0.0
  0
LINE
  5
485
330
1F
100
AcDbEntity
  8
0
  6
SLD-Durchgehend
 62
     7
370
    15
100
AcDbLine
 10
57.4345615131
 20
121.4181238871
 30
0.0
 11
47.3399663714
 21
121.4181238871
 31
0.0
  0
LINE
  5
486
330
1F
100
AcDbEntity
  8
0
  6
SLD-Durchgehend
 62
     7
370
    15
100
AcDbLine
 10
57.6194085551
 20
102.2056879561
 30
0.0
 11
47.1551193294
 21
102.2056879561
 31
0.0
  0
LINE
  5
487
330
1F
100
AcDbEntity
  8
0
  6
SLD-Durchgehend
 62
     7
370
    15
100
AcDbLine
 10
59.7809328136
 20
92.9181229408
 30
0.0
 11
44.9935950709
 21
92.9181229408
 31
0.0
  0
LINE
  5
488
330
1F
100
AcDbEntity
  8
0
  6
SLD-Durchgehend
 62
     7
370
    15
100
AcDbLine
 10
57.4345615131
 20
99.2056874644
 30
0.0
 11
47.3399663714
 21
99.2056874644
 31
0.0
  0
LINE
  5
489
330
1F
100
AcDbEntity
  8
0
  6
SLD-Durchgehend
 62
     7
370
    15
100
AcDbLine
 10
57.2953674381
 20
100.7056877102
 30
0.0
 11
47.4791604464
 21
100.7056877102
 31
0.0
  0
LINE
  5
48A
330
1F
100
AcDbEntity
  8
0
  6
SLD-Durchgehend
 62
     7
370
    15
100
AcDbLine
 10
55.7067006265
 20
91.7056880977
 30
0.0
 11
49.067827258
 21
91.7056880977
 31
0.0
  0
LINE
  5
48B
330
1F
100
AcDbEntity
  8
0
  6
SLD-Durchgehend
 62
     7
370
    15
100
AcDbLine
 10
47.9255251956
 20
104.9181235108
 30
0.0
 11
44.6553834153
 21
104.9181235108
 31
0.0
  0
LINE
  5
48C
330
1F
100
AcDbEntity
  8
0
  6
SLD-Durchgehend
 62
     7
370
    15
100
AcDbLine
 10
40.3201545959
 20
104.9181235108
 30
0.0
 11
34.2732615207
 21
104.9181235108
 31
0.0
  0
LINE
  5
48D
330
1F
100
AcDbEntity
  8
0
  6
SLD-Durchgehend
 62
     7
370
    15
100
AcDbLine
 10
47.9255251956
 20
115.7056878406
 30
0.0
 11
44.6553834153
 21
115.7056878406
 31
0.0
  0
LINE
  5
48E
330
1F
100
AcDbEntity
  8
0
  6
SLD-Durchgehend
 62
     7
370
    15
100
AcDbLine
 10
40.3201545959
 20
115.7056878406
 30
0.0
 11
34.2732615207
 21
115.7056878406
 31
0.0
  0
LINE
  5
48F
330
1F
100
AcDbEntity
  8
0
  6
SLD-Durchgehend
 62
     7
370
    15
100
AcDbLine
 10
47.5990970989
 20
115.4181233692
 30
0.0
 11
43.9106163939
 21
115.4181233692
 31
0.0
  0
LINE
  5
490
330
1F
100
AcDbEntity
  8
0
  6
SLD-Durchgehend
 62
     7
370
    15
100
AcDbLine
 10
41.0649220829
 20
115.4181233692
 30
0.0
 11
34.1901055907
 21
115.4181233692
 31
0.0
  0
LINE
  5
491
330
1F
100
AcDbEntity
  8
0
  6
SLD-Durchgehend
 62
     7
370
    15
100
AcDbLine
 10
46.5701803004
 20
106.4181235238
 30
0.0
 11
33.8927119409
 21
106.4181235238
 31
0.0
  0
LINE
  5
492
330
1F
100
AcDbEntity
  8
0
  6
SLD-Durchgehend
 62
     7
370
    15
100
AcDbLine
 10
45.7116480355
 20
108.2056880082
 30
0.0
 11
33.6049891447
 21
108.2056880082
 31
0.0
  0
LINE
  5
493
330
1F
100
AcDbEntity
  8
0
  6
SLD-Durchgehend
 62
     7
370
    15
100
AcDbLine
 10
46.5701803004
 20
114.2056878276
 30
0.0
 11
33.8927119409
 21
114.2056878276
 31
0.0
  0
LINE
  5
494
330
1F
100
AcDbEntity
  8
0
  6
SLD-Durchgehend
 62
     7
370
    15
100
AcDbLine
 10
46.3876643588
 20
113.9181233562
 30
0.0
 11
33.8344968294
 21
113.9181233562
 31
0.0
  0
LINE
  5
495
330
1F
100
AcDbEntity
  8
0
  6
SLD-Durchgehend
 62
     7
370
    15
100
AcDbLine
 10
46.3876643588
 20
106.7056879952
 30
0.0
 11
33.8344968294
 21
106.7056879952
 31
0.0
  0
LINE
  5
496
330
1F
100
AcDbEntity
  8
0
  6
SLD-Durchgehend
 62
     7
370
    15
100
AcDbLine
 10
45.8092851003
 20
107.9181235369
 30
0.0
 11
33.639468569
 21
107.9181235369
 31
0.0
  0
LINE
  5
497
330
1F
100
AcDbEntity
  8
0
  6
SLD-Durchgehend
 62
     7
370
    15
100
AcDbLine
 10
45.7116480355
 20
112.4181233432
 30
0.0
 11
33.6049891447
 21
112.4181233432
 31
0.0
  0
LINE
  5
498
330
1F
100
AcDbEntity
  8
0
  6
SLD-Durchgehend
 62
     7
370
    15
100
AcDbLine
 10
45.8092851003
 20
112.7056878145
 30
0.0
 11
33.639468569
 21
112.7056878145
 31
0.0
  0
LINE
  5
499
330
1F
100
AcDbEntity
  8
0
  6
SLD-Durchgehend
 62
     7
370
    15
100
AcDbLine
 10
47.5990970989
 20
105.2056879822
 30
0.0
 11
43.9106163939
 21
105.2056879822
 31
0.0
  0
LINE
  5
49A
330
1F
100
AcDbEntity
  8
0
  6
SLD-Durchgehend
 62
     7
370
    15
100
AcDbLine
 10
41.0649220829
 20
105.2056879822
 30
0.0
 11
34.1901055907
 21
105.2056879822
 31
0.0
  0
LINE
  5
49B
330
1F
100
AcDbEntity
  8
0
  6
SLD-Durchgehend
 62
     7
370
    15
100
AcDbLine
 10
45.444558691
 20
109.4181234335
 30
0.0
 11
33.5084091311
 21
109.4181234335
 31
0.0
  0
LINE
  5
49C
330
1F
100
AcDbEntity
  8
0
  6
SLD-Durchgehend
 62
     7
370
    15
100
AcDbLine
 10
45.444558691
 20
111.2056879179
 30
0.0
 11
33.5084091311
 21
111.2056879179
 31
0.0
  0
LINE
  5
49D
330
1F
100
AcDbEntity
  8
0
  6
SLD-Durchgehend
 62
     7
370
    15
100
AcDbLine
 10
45.4135633444
 20
109.7056879049
 30
0.0
 11
33.4969892536
 21
109.7056879049
 31
0.0
  0
LINE
  5
49E
330
1F
100
AcDbEntity
  8
0
  6
SLD-Durchgehend
 62
     7
370
    15
100
AcDbLine
 10
45.4135633444
 20
110.9181234465
 30
0.0
 11
33.4969892536
 21
110.9181234465
 31
0.0
  0
LINE
  5
49F
330
1F
100
AcDbEntity
  8
0
  6
SLD-Durchgehend
 62
     7
370
    15
100
AcDbLine
 10
37.6355716397
 20
121.4181238871
 30
0.0
 11
37.094719093
 21
121.4181238871
 31
0.0
  0
LINE
  5
4A0
330
1F
100
AcDbEntity
  8
0
  6
SLD-Durchgehend
 62
     7
370
    15
100
AcDbLine
 10
37.716280054
 20
98.918122993
 30
0.0
 11
37.3077507501
 21
98.918122993
 31
0.0
  0
LINE
  5
4A1
330
1F
100
AcDbEntity
  8
0
  6
SLD-Durchgehend
 62
     7
370
    15
100
AcDbLine
 10
37.6355716397
 20
99.2056874644
 30
0.0
 11
37.094719093
 21
99.2056874644
 31
0.0
  0
LINE
  5
4A2
330
1F
100
AcDbEntity
  8
0
  6
SLD-Durchgehend
 62
     7
370
    15
100
AcDbLine
 10
38.4920596515
 20
117.2056880865
 30
0.0
 11
34.7893725519
 21
117.2056880865
 31
0.0
  0
LINE
  5
4A3
330
1F
100
AcDbEntity
  8
0
  6
SLD-Durchgehend
 62
     7
370
    15
100
AcDbLine
 10
37.7198730965
 20
118.7056878667
 30
0.0
 11
35.4534390752
 21
118.7056878667
 31
0.0
  0
LINE
  5
4A4
330
1F
100
AcDbEntity
  8
0
  6
SLD-Durchgehend
 62
     7
370
    15
100
AcDbLine
 10
37.7198730965
 20
101.9181234847
 30
0.0
 11
35.4534390752
 21
101.9181234847
 31
0.0
  0
LINE
  5
4A5
330
1F
100
AcDbEntity
  8
0
  6
SLD-Durchgehend
 62
     7
370
    15
100
AcDbLine
 10
37.716280054
 20
121.7056883584
 30
0.0
 11
37.3077507501
 21
121.7056883584
 31
0.0
  0
LINE
  5
4A6
330
1F
100
AcDbEntity
  8
0
  6
SLD-Durchgehend
 62
     7
370
    15
100
AcDbLine
 10
38.4920596515
 20
103.4181232649
 30
0.0
 11
34.7893725519
 21
103.4181232649
 31
0.0
  0
LINE
  5
4A7
330
1F
100
AcDbEntity
  8
0
  6
SLD-Durchgehend
 62
     7
370
    15
100
AcDbLine
 10
37.4877726098
 20
100.4181232389
 30
0.0
 11
36.2837522661
 21
100.4181232389
 31
0.0
  0
LINE
  5
4A8
330
1F
100
AcDbEntity
  8
0
  6
SLD-Durchgehend
 62
     7
370
    15
100
AcDbLine
 10
37.4963780304
 20
119.9181236412
 30
0.0
 11
36.1105765586
 21
119.9181236412
 31
0.0
  0
LINE
  5
4A9
330
1F
100
AcDbEntity
  8
0
  6
SLD-Durchgehend
 62
     7
370
    15
100
AcDbLine
 10
37.8204186817
 20
118.4181233953
 30
0.0
 11
35.3139157777
 21
118.4181233953
 31
0.0
  0
LINE
  5
4AA
330
1F
100
AcDbEntity
  8
0
  6
SLD-Durchgehend
 62
     7
370
    15
100
AcDbLine
 10
37.4877726098
 20
120.2056881126
 30
0.0
 11
36.2837522661
 21
120.2056881126
 31
0.0
  0
LINE
  5
4AB
330
1F
100
AcDbEntity
  8
0
  6
SLD-Durchgehend
 62
     7
370
    15
100
AcDbLine
 10
37.4963780304
 20
100.7056877102
 30
0.0
 11
36.1105765586
 21
100.7056877102
 31
0.0
  0
LINE
  5
4AC
330
1F
100
AcDbEntity
  8
0
  6
SLD-Durchgehend
 62
     7
370
    15
100
AcDbLine
 10
37.8204186817
 20
102.2056879561
 30
0.0
 11
35.3139157777
 21
102.2056879561
 31
0.0
  0
CIRCLE
  5
4AD
330
1F
100
AcDbEntity
  8
0
  6
SLD-Durchgehend
 62
     7
370
    15
100
AcDbCircle
 10
52.3872639422
 20
110.3119056757
 30
0.0
 40
3.249999999999972
  0
CIRCLE
  5
4AE
330
1F
100
AcDbEntity
  8
0
  6
SLD-Durchgehend
 62
     7
370
    15
100
AcDbCircle
 10
52.3872639422
 20
110.3119056757
 30
0.0
 40
2.999999999999986
  0
CIRCLE
  5
4AF
330
1F
100
AcDbEntity
  8
0
  6
SLD-Durchgehend
 62
     7
370
    15
100
AcDbCircle
 10
52.3872639422
 20
110.3119056757
 30
0.0
 40
31.5
  0
INSERT
  5
4BB
330
1F
100
AcDbEntity
  8
VERMASSUNG
100
AcDbBlockReference
  2
SW_CENTERMARKSYMBOL_0
 10
52.3872639422
 20
110.3119056757
 30
0.0
  0
OLE2FRAME
  5
4BC
330
1F
100
AcDbEntity
  8
0
100
AcDbOle2Frame
 70
     2
  3
Paintbrush-Bild
 10
13.8511154363
 20
38.264191557
 30
0.0
 11
51.6290888628
 21
31.9806341108
 31
0.0
 71
     2
 72
     0
 73
     1
 90
    12928
310
80552BED0767C5B32B40DDAF6807D121434000000000000000006FFBDDFB85D0
310
4940DDAF6807D121434000000000000000006FFBDDFB85D04940416F4BD60AFB
310
3F4000000000000000002BED0767C5B32B40416F4BD60AFB3F40000000000000
310
0000000000000100000000010000010000000100000000000100000000320000
310
D0CF11E0A1B11AE1000000000000000000000000000000003E000300FEFF0900
310
0600000000000000000000000100000001000000000000000010000002000000
310
01000000FEFFFFFF0000000000000000FFFFFFFFFFFFFFFFFFFFFFFFFFFFFFFF
310
FFFFFFFFFFFFFFFFFFFFFFFFFFFFFFFFFFFFFFFFFFFFFFFFFFFFFFFFFFFFFFFF
310
FFFFFFFFFFFFFFFFFFFFFFFFFFFFFFFFFFFFFFFFFFFFFFFFFFFFFFFFFFFFFFFF
310
FFFFFFFFFFFFFFFFFFFFFFFFFFFFFFFFFFFFFFFFFFFFFFFFFFFFFFFFFFFFFFFF
310
FFFFFFFFFFFFFFFFFFFFFFFFFFFFFFFFFFFFFFFFFFFFFFFFFFFFFFFFFFFFFFFF
310
FFFFFFFFFFFFFFFFFFFFFFFFFFFFFFFFFFFFFFFFFFFFFFFFFFFFFFFFFFFFFFFF
310
FFFFFFFFFFFFFFFFFFFFFFFFFFFFFFFFFFFFFFFFFFFFFFFFFFFFFFFFFFFFFFFF
310
FFFFFFFFFFFFFFFFFFFFFFFFFFFFFFFFFFFFFFFFFFFFFFFFFFFFFFFFFFFFFFFF
310
FFFFFFFFFFFFFFFFFFFFFFFFFFFFFFFFFFFFFFFFFFFFFFFFFFFFFFFFFFFFFFFF
310
FFFFFFFFFFFFFFFFFFFFFFFFFFFFFFFFFFFFFFFFFFFFFFFFFFFFFFFFFFFFFFFF
310
FFFFFFFFFFFFFFFFFFFFFFFFFFFFFFFFFFFFFFFFFFFFFFFFFFFFFFFFFFFFFFFF
310
FFFFFFFFFFFFFFFFFFFFFFFFFFFFFFFFFFFFFFFFFFFFFFFFFFFFFFFFFFFFFFFF
310
FFFFFFFFFFFFFFFFFFFFFFFFFFFFFFFFFFFFFFFFFFFFFFFFFFFFFFFFFFFFFFFF
310
FFFFFFFFFFFFFFFFFFFFFFFFFFFFFFFFFFFFFFFFFFFFFFFFFFFFFFFFFFFFFFFF
310
FDFFFFFFFEFFFFFFFEFFFFFFFEFFFFFF05000000060000000700000008000000
310
090000000A0000000B0000000C0000000D0000000E0000000F00000010000000
310
11000000120000001300000014000000150000001600000017000000FEFFFFFF
310
FFFFFFFFFFFFFFFFFFFFFFFFFFFFFFFFFFFFFFFFFFFFFFFFFFFFFFFFFFFFFFFF
310
FFFFFFFFFFFFFFFFFFFFFFFFFFFFFFFFFFFFFFFFFFFFFFFFFFFFFFFFFFFFFFFF
310
FFFFFFFFFFFFFFFFFFFFFFFFFFFFFFFFFFFFFFFFFFFFFFFFFFFFFFFFFFFFFFFF
310
FFFFFFFFFFFFFFFFFFFFFFFFFFFFFFFFFFFFFFFFFFFFFFFFFFFFFFFFFFFFFFFF
310
FFFFFFFFFFFFFFFFFFFFFFFFFFFFFFFFFFFFFFFFFFFFFFFFFFFFFFFFFFFFFFFF
310
FFFFFFFFFFFFFFFFFFFFFFFFFFFFFFFFFFFFFFFFFFFFFFFFFFFFFFFFFFFFFFFF
310
FFFFFFFFFFFFFFFFFFFFFFFFFFFFFFFFFFFFFFFFFFFFFFFFFFFFFFFFFFFFFFFF
310
FFFFFFFFFFFFFFFFFFFFFFFFFFFFFFFFFFFFFFFFFFFFFFFFFFFFFFFFFFFFFFFF
310
FFFFFFFFFFFFFFFFFFFFFFFFFFFFFFFFFFFFFFFFFFFFFFFFFFFFFFFFFFFFFFFF
310
FFFFFFFFFFFFFFFFFFFFFFFFFFFFFFFFFFFFFFFFFFFFFFFFFFFFFFFFFFFFFFFF
310
FFFFFFFFFFFFFFFFFFFFFFFFFFFFFFFFFFFFFFFFFFFFFFFFFFFFFFFFFFFFFFFF
310
FFFFFFFFFFFFFFFFFFFFFFFFFFFFFFFFFFFFFFFFFFFFFFFFFFFFFFFFFFFFFFFF
310
FFFFFFFFFFFFFFFFFFFFFFFFFFFFFFFFFFFFFFFFFFFFFFFFFFFFFFFFFFFFFFFF
310
52006F006F007400200045006E00740072007900000000000000000000000000
310
0000000000000000000000000000000000000000000000000000000000000000
310
16000500FFFFFFFFFFFFFFFF020000000A00030000000000C000000000000046
310
000000000000000000000000108216DC9D88D00103000000C000000000000000
310
01004F006C006500000000000000000000000000000000000000000000000000
310
0000000000000000000000000000000000000000000000000000000000000000
310
0A000200FFFFFFFFFFFFFFFFFFFFFFFF00000000000000000000000000000000
310
0000000000000000000000000000000000000000000000001400000000000000
310
010043006F006D0070004F0062006A0000000000000000000000000000000000
310
0000000000000000000000000000000000000000000000000000000000000000
310
120002010100000003000000FFFFFFFF00000000000000000000000000000000
310
0000000000000000000000000000000000000000010000004D00000000000000
310
01004F006C006500310030004E00610074006900760065000000000000000000
310
0000000000000000000000000000000000000000000000000000000000000000
310
1A000200FFFFFFFFFFFFFFFFFFFFFFFF00000000000000000000000000000000
310
0000000000000000000000000000000000000000040000002426000000000000
310
FEFFFFFF02000000FEFFFFFFFFFFFFFFFFFFFFFFFFFFFFFFFFFFFFFFFFFFFFFF
310
FFFFFFFFFFFFFFFFFFFFFFFFFFFFFFFFFFFFFFFFFFFFFFFFFFFFFFFFFFFFFFFF
310
FFFFFFFFFFFFFFFFFFFFFFFFFFFFFFFFFFFFFFFFFFFFFFFFFFFFFFFFFFFFFFFF
310
FFFFFFFFFFFFFFFFFFFFFFFFFFFFFFFFFFFFFFFFFFFFFFFFFFFFFFFFFFFFFFFF
310
FFFFFFFFFFFFFFFFFFFFFFFFFFFFFFFFFFFFFFFFFFFFFFFFFFFFFFFFFFFFFFFF
310
FFFFFFFFFFFFFFFFFFFFFFFFFFFFFFFFFFFFFFFFFFFFFFFFFFFFFFFFFFFFFFFF
310
FFFFFFFFFFFFFFFFFFFFFFFFFFFFFFFFFFFFFFFFFFFFFFFFFFFFFFFFFFFFFFFF
310
FFFFFFFFFFFFFFFFFFFFFFFFFFFFFFFFFFFFFFFFFFFFFFFFFFFFFFFFFFFFFFFF
310
FFFFFFFFFFFFFFFFFFFFFFFFFFFFFFFFFFFFFFFFFFFFFFFFFFFFFFFFFFFFFFFF
310
FFFFFFFFFFFFFFFFFFFFFFFFFFFFFFFFFFFFFFFFFFFFFFFFFFFFFFFFFFFFFFFF
310
FFFFFFFFFFFFFFFFFFFFFFFFFFFFFFFFFFFFFFFFFFFFFFFFFFFFFFFFFFFFFFFF
310
FFFFFFFFFFFFFFFFFFFFFFFFFFFFFFFFFFFFFFFFFFFFFFFFFFFFFFFFFFFFFFFF
310
FFFFFFFFFFFFFFFFFFFFFFFFFFFFFFFFFFFFFFFFFFFFFFFFFFFFFFFFFFFFFFFF
310
FFFFFFFFFFFFFFFFFFFFFFFFFFFFFFFFFFFFFFFFFFFFFFFFFFFFFFFFFFFFFFFF
310
FFFFFFFFFFFFFFFFFFFFFFFFFFFFFFFFFFFFFFFFFFFFFFFFFFFFFFFFFFFFFFFF
310
FFFFFFFFFFFFFFFFFFFFFFFFFFFFFFFFFFFFFFFFFFFFFFFFFFFFFFFFFFFFFFFF
310
0100000200000000000000000000000000000000000000000000000000000000
310
0000000000000000000000000000000000000000000000000000000000000000
310
0100FEFF030A0000FFFFFFFF0A00030000000000C00000000000004607000000
310
5042727573680007000000504272757368000700000050427275736800F439B2
310
7100000000000000000000000000000000000000000000000000000000000000
310
0000000000000000000000000000000000000000000000000000000000000000
310
0000000000000000000000000000000000000000000000000000000000000000
310
0000000000000000000000000000000000000000000000000000000000000000
310
0000000000000000000000000000000000000000000000000000000000000000
310
0000000000000000000000000000000000000000000000000000000000000000
310
0000000000000000000000000000000000000000000000000000000000000000
310
0000000000000000000000000000000000000000000000000000000000000000
310
0000000000000000000000000000000000000000000000000000000000000000
310
0000000000000000000000000000000000000000000000000000000000000000
310
0000000000000000000000000000000000000000000000000000000000000000
310
0000000000000000000000000000000000000000000000000000000000000000
310
20260000424D0E260000000000003E00000028000000B40200006E0000000100
310
01000000000000000000130B0000130B00000200000002000000000000FFFFFF
310
FFFFFFFFFFFFFFFFFFFFFFFFFFFFFFFFFFFFFFFFFFFFFFFFFFFFFFFFFFFFFFFF
310
FFFFFFFFFFFFFFFFFFFFFFFFFFFFFFFFFFFFFFFFFFFFFFFFFFFFFFFFFFFFFFFF
310
FFFFFFFFFFFFFFFFFFFFFFFFFFFFFFFFFFFFFFFFFFFFFFFFF000FFFFFFFFFFFF
310
FFFFFFFFFFFFFFFFFFFFFFFFFFFFFFFFFFFFFFFFFFFFFFFFFFFFFFFFFFFFFFFF
310
FFFFFFFFFFFFFFFFFFFFFFFFFFFFFFFFFFFFFFFFFFFFFFFFFFFFFFFFFFFFFFFF
310
FFFFFFFFFFFFFFFFFFFFFFFFFFFFFFFFF000FFFFFFFFFFFFFFFFFFFFFFFFFFFF
310
FFFFFFFFFFFFFFFFFFFFFFFFFFFFFFFFFFFFFFFFFFFFFFFFFFFFFFFFFFFFFFFF
310
FFFFFFFFFFFFFFFFFFFFFFFFFFFFFFFFFFFFFFFFFFFFFFFFFFFFFFFFFFFFFFFF
310
FFFFFFFFFFFFFFFFF000FFFFFFFFFFFFFFFFFFFFFFFFFFFFFFFFFFFFFFFFFFFF
310
FFFFFFFFFFFFFFFFFFFFFFFFFFFFFFFFFFFFFFFFFFFFFFFFFFFFFFFFFFFFFFFF
310
FFFFFFFFFFFFFFFFFFFFFFFFFFFFFFFFFFFFFFFFFFFFFFFFFFFFFFFFFFFFFFFF
310
F000FFFFFFFFFFFFFFFFFFFFFFFFFFFFFFFFFFFFFFFFFFFFFFFFFFFFFFFFFFFF
310
FFFFFFFFFFFFFFFFFFFFFFFFFFFFFFFFFFFFFFFFFFFFFFFFFFFFFFFFFFFFFFFF
310
FFFFFFFFFFFFFFFFFFFFFFFFFFFFFFFFFFFFFFFFFFFFFFFFF000FFFFFFFFFFFF
310
FFFFFFFFFFFFFFFFFFFFFFFFFFFFFFFFFFFFFFFFFFFFFFFFFFFFFFFFFFFFFFFF
310
FFFFFFFFFFFFFFFFFFFFFFFFFFFFFFFFFFFFFFFFFFFFFFFFFFFFFFFFFFFFFFFF
310
FFFFFFFFFFFFFFFFFFFFFFFFFFFFFFFFF000FFFFFFFFFFFFFFFFFFFFFFFFFFFF
310
FFFFFFFFFFFFFFFFFFFFFFFFFFFFFFFFFFFFFFFFFFFFFFFFFFFFFFFFFFFFFFFF
310
FFFFFFFFFFFFFFFFFFFFFFFFFFFFFFFFFFFFFFFFFFFFFFFFFFFFFFFFFFFFFFFF
310
FFFFFFFFFFFFFFFFF000FFFFFFFFFFFFFFFFFFFFFFFFFFFFFFFFFFFFFFFFFFFF
310
FFFFFFFFFFFFFFFFFFFFFFFFFFFFFFFFFFFFFFFFFFFFFFFFFFFFFFFFFFFFFFFF
310
FFFFFFFFFFFFFFFFFFFFFFFFFFFFFFFFFFFFFFFFFFFFFFFFFFFFFFFFFFFFFFFF
310
F000FFFFFFFFFFFFFFFFFFFFFFFFFFFFFFFFFFFFFFFFFFFFFFFFFFFFFFFFFFFF
310
FFFFFFFFFFFFFFFFFFFFFFFFFFFFFFFFFFFFFFFFFFFFFFFFFFFFFFFFFFFFFFFF
310
FFFFFFFFFFFFFFFFFFFFFFFFFFFFFFFFFFFFFFFFFFFFFFFFF000FFFFFFFFFFFF
310
FFFFFFFFFFFFFFFFFFFFFFFFFFFFFFFFFFFFFFFFFFFFFFFFFFFFFFFFFFFFFFFF
310
FFFFFFFFFFFFFFFFFFFFFFFFFFFFFFFFFFFFFFFFFFFFFFFFFFFFFFFFFFFFFFFF
310
FFFFFFFFFFFFFFFFFFFFFFFFFFFFFFFFF000FFFFFFFFFFFFFFFFFFFFFFFFFFFF
310
FFFFFFFFFFFFFFFFFFFFFFFFFFFFFFFFFFFFFFFFFFFFFFFFFFFFFFFFFFFFFFFF
310
FFFFFFFFFFFFFFFFFFFFFFFFFFFFFFFFFFFFFFFFFFFFFFFFFFFFFFFFFFFFFFFF
310
FFFFFFFFFFFFFFFFF000FFFFFFFFFFFFFFFFFFFFFFFFFFFFFFFFFFFFFFFFFFFF
310
FFFFFFFFFFFFFFFFFFFFFFFFFFFFFFFFFFFFFFFFFFFFFFFFFFFFFFFFFFFFFFFF
310
FFFFFFFFFFFFFFFFFFFFFFFFFFFFFFFFFFFFFFFFFFFFFFFFFFFFFFFFFFFFFFFF
310
F000FFFFFFFFFFFFFFFFFFFFFFFFFFFFFFFFFFFFFFFFFFFFFFFFFFFFFFFFFFFF
310
FFFFFFFFFFFFFFFFFFFFFFFFFFFFFFFFFFFFFFFFFFFFFFFFFFFFFFFFFFFFFFFF
310
FFFFFFFFFFFFFFFFFFFFFFFFFFFFFFFFFFFFFFFFFFFFFFFFF000FFFFFFFFFFFF
310
FFFFFFFFFFFFFFFFFFFFFFFFFFFFFFFFFFFFFFFFFFFFFFFFFFFFFFFFFFFFFFFF
310
FFFFFFFFFFFFFFFFFFFFFFFFFFFFFFFFFFFFFFFFFFFFFFFFFFFFFFFFFFFFFFFF
310
FFFFFFFFFFFFFFFFFFFFFFFFFFFFFFFFF000FFFFFFFFFFFFFFFFFFFFFFFFFFFF
310
FFFFFFFFFFFFFFFFFFFFFFFFFFFFFFFFFFFFFFFFFFFFFFFFFFFFFFFFFFFFFFFF
310
FFFFFFFFFFFFFFFFFFFFFFFFFFFFFFFFFFFFFFFFFFFFFFFFFFFFFFFFFFFFFFFF
310
FFFFFFFFFFFFFFFFF000FFFFFFFFFFFFFFFFFFFFFFFFFFFFFFFFFFFFFFFFFFFF
310
FFFFFFFFFFFFFFFFFFFFFFFFFFFFFFFFFFFFFFFFFFFFFFFFFFFFFFFFFFFFFFFF
310
FFFFFFFFFFFFFFFFFFFFFFFFFFFFFFFFFFFFFFFFFFFFFFFFFFFFFFFFFFFFFFFF
310
F000FFFFFFFFFFFFFFFFFFFFFFFFFFFFFFFFFFFFFFFFFFFFFFFFFFFFFFFFFFFF
310
FFFFFFFFFFFFFFFFFFFFFFFFFFFFFFFFFFFFFFFFFFFFFFFFFFFFFFFFFFFFFFFF
310
FFFFFFFFFFFFFFFFFFFFFFFFFFFFFFFFFFFFFFFFFFFFFFFFF000FFFFFFFFFFFF
310
FFFFFFFFFFFFFFFFFFFFFFFFFFFFFFFFFFFFFFFFFFFFFFFFFFFFFFFFFFFFFFFF
310
FFFFFFFFFFFFFFFFFFFFFFFFFFFFFFFFFFFFFFFFFFFFFFFFFFFFFFFFFFFFFFFF
310
FFFFFFFFFFFFFFFFFFFFFFFFFFFFFFFFF000FFFFFFFFFFFFFFFFFFFFFFFFFFFF
310
FFFFFFFFFFFFFFFFFFFFFFFFFFFFFFFFFFFFFFFFFFFFFFFFFFFFFFFFFFFFFFFF
310
FFFFFFFFFFFFFFFFFFFFFFFFFFFFFFFFFFFFFFFFFFFFFFFFFFFFFFFFFFFFFFFF
310
FFFFFFFFFFFFFFFFF000FFFFF80003FFFFFFFFFFFFFFFFFFFFFFFFFFFFFFFFFF
310
FFFFF00007FFFFFFFFFF00007FFFFFF800000000000000007FFFFFFFFFFFFFFF
310
FFFFFFFC001FFFFFFFFFFFFFFC001FFFFFFFFFFFFFFFFFFFFFFFFFFE0007FFFF
310
F000FFFF8000007FFFFFFFF8000FFFFFC0007FFFFF80007FFFFF0000007FFFFF
310
FFF8000007FFFFF800000000000000007FFFFFF0001FFFFFFFFFFFC00001FFFF
310
FFFFFFFFC00001FFFFFFFF000000000003FFFFE000007FFFF000FFFE0000000F
310
FFFFFFF0000FFFFF80007FFFFF80007FFFFC0000001FFFFFFFC0000001FFFFF8
310
00000000000000007FFFFFF0001FFFFFFFFFFE0000003FFFFFFFFFFE0000003F
310
FFFFFF000000000003FFFF0000000FFFF000FFF800000003FFFFFFF00007FFFF
310
80007FFFFF80007FFFF000000007FFFFFF000000003FFFF80000000000000000
310
7FFFFFF0001FFFFFFFFFF80000000FFFFFFFFFF80000000FFFFFFF0000000000
310
03FFFC00000003FFF000FFE000000000FFFFFFF00007FFFF80003FFFFF80007F
310
FFC000000001FFFFFC000000001FFFF800000000000000007FFFFFF0001FFFFF
310
FFFFE000000003FFFFFFFFE000000003FFFFFF000000000003FFF000000000FF
310
F000FF80000000007FFFFFF00007FFFF80003FFFFF80007FFF8000000000FFFF
310
F80000000007FFF800000000000000007FFFFFF0001FFFFFFFFFC000000001FF
310
FFFFFFC000000001FFFFFF000000000003FFC0000000007FF000FF0000000000
310
3FFFFFE00007FFFF00003FFFFF80007FFE00000000003FFFF00000000003FFF8
310
00000000000000007FFFFFF0001FFFFFFFFF8000000000FFFFFFFF8000000000
310
FFFFFF000000000003FF80000000003FF000FE00000000001FFFFFE00003FFFF
310
00003FFFFF80007FFC00000000001FFFE00000000001FFF8000001FFFE000000
310
7FFFFFF0001FFFFFFFFE00000000003FFFFFFE00000000003FFFFF0000000000
310
03FF00000000001FF000FC00000000000FFFFFE00003FFFF00001FFFFF80007F
310
F800000000001FFFC00000000000FFF8000001FFFE0000007FFFFFF0001FFFFF
310
FFFC00000000001FFFFFFC00000000001FFFFF000000000003FE00000000000F
310
F000F8000000000007FFFFE00003FFFF00001FFFFF80007FF800000000000FFF
310
800000000000FFF8000001FFFE0000007FFFFFF0001FFFFFFFF800000000000F
310
FFFFF800000000000FFFFF000000000003FC000000000007F000F80000000000
310
03FFFFC00003FFFE00001FFFFF80007FF0000000000007FF0000000000007FF8
310
000001FFFE0000007FFFFFF0001FFFFFFFF0000000000007FFFFF00000000000
310
07FFFF000000000003F8000000000003F000F0000000000003FFFFC00001FFFE
310
00001FFFFF80007FE0000000000007FE0000000000003FF8000001FFFE000000
310
7FFFFFF0001FFFFFFFF0000000000007FFFFF0000000000007FFFF0000000000
310
03F800001F800003F000E00001FFF00001FFFFC00001FFFE00000FFFFF80007F
310
E00001FFE00003FE00001FFF00003FF8000001FFFE0000007FFFFFF0001FFFFF
310
FFE000003E000003FFFFE000003E000003FFFF000000000003F00001FFF80001
310
F000E00007FFFC0001FFFFC00001FFFE00000FFFFF80007FC0000FFFFC0003FC
310
0000FFFFC0001FF8000001FFFE0000007FFFFFF0001FFFFFFFC00003FFE00001
310
FFFFC00003FFE00001FFFF0001FFFFFFFFF00007FFFE0001F000E0000FFFFF00
310
00FFFF800001FFFC00000FFFFF80007FC0001FFFFE0001FC0001FFFFE0001FF8
310
000001FFFE0000007FFFFFF0001FFFFFFF80000FFFF80000FFFF80000FFFF800
310
00FFFF0003FFFFFFFFE0000FFFFF8000F000C0003FFFFF8000FFFF800000FFFC
310
000007FFFF80007F80003FFFFF0001FC0003FFFFF0001FF8000001FFFE000000
310
7FFFFFF0001FFFFFFF80003FFFFE0000FFFF80003FFFFE0000FFFF0003FFFFFF
310
FFE0003FFFFF8000F000C0003FFFFF8000FFFF800000FFFC000007FFFF80007F
310
80007FFFFF8001F80007FFFFF8000FF8000001FFFE0000007FFFFFF0001FFFFF
310
FF00007FFFFF00007FFF00007FFFFF00007FFF0003FFFFFFFFE0003FFFFFC000
310
F000C0007FFFFFC000FFFF000000FFFC000007FFFF80007F8000FFFFFF8000F8
310
000FFFFFF8000FF8000001FFFE0000007FFFFFF0001FFFFFFF0000FFFFFF8000
310
7FFF0000FFFFFF80007FFF0003FFFFFFFFC0007FFFFFC00070008000FFFFFFC0
310
00FFFF000000FFF8000007FFFF80007F8000FFFFFF8000F8000FFFFFF8000FF8
310
000001FFFE0000007FFFFFF0001FFFFFFE0001FFFFFFC0003FFE0001FFFFFFC0
310
003FFF0003FFFFFFFFC0007FFFFFE00070008000FFFFFFC0007FFF0000007FF8
310
000003FFFF80007F0001FFFFFF8000F8000FFFFFF8000FF8000001FFFE000000
310
7FFFFFF0001FFFFFFE0001FFFFFFC0003FFE0001FFFFFFC0003FFF0003FFFFFF
310
FFC000FFFFFFE00070008000FFFFFFC0007FFF0000007FF8000003FFFF80007F
310
0001FFFFFF8000F8001FFFFFF8000FF8000001FFFE0000007FFFFFF0001FFFFF
310
FE0003FFFFFFE0003FFE0003FFFFFFE0003FFF0003FFFFFFFFC000FFFFFFE000
310
70008000FFFFFFC0007FFE0000007FF8000003FFFF80007F0001FFFFFF8000F0
310
001FFFFFF8000FF8000001FFFE0000007FFFFFF0001FFFFFFC0003FFFFFFE000
310
1FFC0003FFFFFFE0001FFF0003FFFFFFFFC000FFFFFFC00070008000FFFFFF80
310
007FFE0000007FF0000003FFFF80007F0001FFFFFF0000F0001FFFFFF8000FF8
310
000001FFFE0000007FFFFFF0001FFFFFFC0007FFFFFFF0001FFC0007FFFFFFF0
310
001FFF0003FFFFFFFFC000FFFFFFC00070008001FFFFFF0000FFFE0000003FF0
310
000001FFFF80007F0001FFFFFF0000F8001FFFFFF0000FF8000001FFFE000000
310
7FFFFFF0001FFFFFFC0007FFFFFFF0001FFC0007FFFFFFF0001FFF0003FFFFFF
310
FFC001FFFFFF80007000FFFFFFFFFE0000FFFE0008003FF0008001FFFF80007F
310
FFFFFFFFFC0000FFFFFFFFFFE0000FF8000001FFFE0000007FFFFFF0001FFFFF
310
F8000FFFFFFFF8000FF8000FFFFFFFF8000FFF0003FFFFFFFFFFFFFFFFFF0000
310
7000FFFFFFFFFC0000FFFC0008003FF0008001FFFF80007FFFFFFFFFF80001FF
310
FFFFFFFF80000FF8000001FFFE0000007FFFFFF0001FFFFFF8000FFFFFFFF800
310
0FF8000FFFFFFFF8000FFF0003FFFFFFFFFFFFFFFFFE0000F000FFFFFFFFE000
310
00FFFC000C003FE000C001FFFF80007FFFFFFFFFC00001FFFFFFFFFE00001FF8
310
000001FFFE0000007FFFFFF0001FFFFFF8000FFFFFFFF8000FF8000FFFFFFFF8
310
000FFF0003FFFFFFFFFFFFFFFFF00000F000FFFFFFFE000001FFFC000C001FE0
310
00C000FFFF80007FFFFFFFFE000001FFFFFFFFE000001FF80FFFFFFFFFFFFFC0
310
7FFFFFF0001FFFFFF8000FFFFFFFF8000FF8000FFFFFFFF8000FFF0003FFFFFF
310
FFFFFFFFFF800000F000FFFFFFC0000001FFFC001C001FE001C000FFFF80007F
310
FFFFFF80000003FFFFFFF80000001FF80FFFFFFFFFFFFFC07FFFFFF0001FFFFF
310
F8001FFFFFFFFC000FF8001FFFFFFFFC000FFF0003FFFFFFFFFFFFFFF0000001
310
F000FFFFF800000001FFF8001C001FE001C000FFFF80007FFFFFF800000003FF
310
FFFF800000003FF80FFFFFFFFFFFFFC07FFFFFF0001FFFFFF8001FFFFFFFFC00
310
0FF8001FFFFFFFFC000FFF0003FFFFFFFFFFFFFE00000001F000FFFFC0000000
310
03FFF8001E001FC001E000FFFF80007FFFFF8000000007FFFFFC000000003FF8
310
0FFFFFFFFFFFFFC07FFFFFF0001FFFFFF8001FFFFFFFFC000FF8001FFFFFFFFC
310
000FFF0003FFFFFFFFFFFFE000000003F000FFFE0000000007FFF8001E000FC0
310
01E0007FFF80007FFFFE0000000007FFFFE0000000007FF80FFFFFFFFFFFFFC0
310
7FFFFFF0001FFFFFF0001FFFFFFFFC0007F0001FFFFFFFFC0007FF0003FFFFFF
310
FFFFFF0000000003F000FFF80000000007FFF8001E000FC003E0007FFF80007F
310
FFF0000000000FFFFF8000000000FFF80FFFFFFFFFFFFFC07FFFFFF0001FFFFF
310
F0001FFFFFFFFC0007F0001FFFFFFFFC0007FF0003FFFFFFFFFFFC0000000007
310
F000FFE0000000000FFFF0003E000FC003E0007FFF80007FFFC0000000001FFF
310
FE0000000001FFF80FFFFFFFFFFFFFC07FFFFFF0001FFFFFF0001FFFFFFFFC00
310
07F0001FFFFFFFFC0007FF0003FFFFFFFFFFF0000000000FF000FFC000000000
310
1FFFF0003F000F8003F0003FFF80007FFF80000000003FFFF80000000003FFF8
310
0FFFFFFFFFFFFFC07FFFFFF0001FFFFFF0001FFFFFFFFC0007F0001FFFFFFFFC
310
0007FF0003FFFFFFFFFFE0000000001FF000FF00000000007FFFF0003F000780
310
03F0003FFF80007FFF00000000007FFFF00000000007FFF80FFFFFFFFFFFFFC0
310
7FFFFFF0001FFFFFF0001FFFFFFFFC0007F0001FFFFFFFFC0007FF0003FFFFFF
310
FFFF80000000007FF000FE0000000000FFFFE0003F00078007F0003FFF80007F
310
FE0000000001FFFFE0000000001FFFF80FFFFFFFFFFFFFC07FFFFFF0001FFFFF
310
F0001FFFFFFFFC0007F0001FFFFFFFFC0007FF0003FFFFFFFFFF0000000000FF
310
F000FC0000000003FFFFE0007F00078007F0003FFF80007FFC0000000007FFFF
310
C0000000007FFFF80FFFFFFFFFFFFFC07FFFFFF0001FFFFFF8001FFFFFFFFC00
310
0FF8001FFFFFFFFC000FFF0003FFFFFFFFFE0000000003FFF000FC000000000F
310
FFFFE0007F80070007F8001FFF80007FF8000000001FFFFF8000000001FFFFF8
310
0FFFFFFFFFFFFFC07FFFFFF0001FFFFFF8001FFFFFFFFC000FF8001FFFFFFFFC
310
000FFF0003FFFFFFFFFC000000000FFFF000F8000000007FFFFFE0007F800700
310
07F8001FFF80007FF000000000FFFFFF800000000FFFFFF80FFFFFFFFFFFFFC0
310
7FFFFFF0001FFFFFF8000FFFFFFFF8000FF8000FFFFFFFF8000FFF0003FFFFFF
310
FFFC000000007FFFF000F800000007FFFFFFC0007F8003000FF8001FFF80007F
310
F000000007FFFFFF000000007FFFFFF80FFFFFFFFFFFFFC07FFFFFF0001FFFFF
310
F8000FFFFFFFF8000FF8000FFFFFFFF8000FFF0003FFFFFFFFF80000000FFFFF
310
F000F0000000FFFFFFFFC000FF8003000FF8001FFF80007FE0000000FFFFFFFF
310
0000000FFFFFFFF8000001FFFE0000007FFFFFF0001FFFFFF8000FFFFFFFF800
310
0FF8000FFFFFFFF8000FFF0003FFFFFFFFF8000000FFFFFFF000F000000FFFFF
310
FFFFC000FFC002000FF8000FFF80007FE000001FFFFFFFFE000001FFFFFFFFF8
310
000001FFFE0000007FFFFFF0001FFFFFF8000FFFFFFFF8000FF8000FFFFFFFF8
310
000FFF0003FFFFFFFFF000001FFFFFFFF000E00000FFFFFFFFFFC000FFC00200
310
0FFC000FFF80007FE00001FFFFFFFFFE00001FFFFFFFFFF8000001FFFE000000
310
7FFFFFF0001FFFFFFC000FFFFFFFF8001FFC000FFFFFFFF8001FFF0003FFFFFF
310
FFF00001FFFFFFFFF000E00007FFFFFFFFFF8000FFC000001FFC000FFF80007F
310
C0000FFFFFFFFFFE0000FFFFFFFFFFF8000001FFFE0000007FFFFFF0001FFFFF
310
FC0007FFFFFFF0001FFC0007FFFFFFF0001FFF0003FFFFFFFFF00007FFFFFFFF
310
F000E0001FFFFFFFFFFF8000FFC000001FFC000FFF80007FC0003FFFFFFFFFFE
310
0001FFFFFFFFFFF8000001FFFE0000007FFFFFF0001FFFFFFC0007FFFFFFF000
310
1FFC0007FFFFFFF0001FFF0003FFFFFFFFF0001FFFFFFFFFF000E0003FFFFF00
310
03FF8001FFE000001FFC0007FF80007FC0007FFFFF0007FC0003FFFFF0003FF8
310
000001FFFE0000007FFFFFF0001FFFFFFC0003FFFFFFE0001FFC0003FFFFFFE0
310
001FFF0003FFFFFFFFF0003FFFFFFFFFF000E0003FFFFF0001FF8001FFE00000
310
1FFE0007FF80007FC0007FFFFE0003FC0007FFFFE0003FF8000001FFFE000000
310
7FFFFFF0001FFFFFFE0003FFFFFFE0003FFE0003FFFFFFE0003FFF0003FFFFFF
310
FFF0003FFFFF8001F000E0003FFFFF0001FF0001FFE000001FFE0007FF80007F
310
C0007FFFFE0003FC0007FFFFE0003FF8000001FFFE0000007FFFFFF0001FFFFF
310
FE0001FFFFFFC0003FFE0001FFFFFFC0003FFF0003FFFFFFFFF0003FFFFF0001
310
F000E0003FFFFF0003FF0001FFE000003FFE0007FF80007FC0007FFFFE0003FC
310
0007FFFFE0003FF8000001FFFE0000007FFFFFF0001FFFFFFF0001FFFFFFC000
310
7FFF0001FFFFFFC0007FFF0003FFFFFFFFF0003FFFFF0001F000E0003FFFFE00
310
03FF0003FFF000003FFE0003FF80007FC0007FFFFC0003FE0007FFFFE0003FF8
310
000001FFFE0000007FFFFFF0001FFFFFFF0000FFFFFF80007FFF0000FFFFFF80
310
007FFF0003FFFFFFFFF0003FFFFF0001F000E0003FFFFE0003FF0003FFF00000
310
3FFF0003FF80007FC0007FFFFC0007FE0007FFFFC0003FF8000001FFFE000000
310
7FFFFFF0001FFFFFFF80007FFFFF0000FFFF80007FFFFF0000FFFF0003FFFFFF
310
FFF0003FFFFF0003F000E0003FFFFC0003FE0003FFF000003FFF0003FF80007F
310
E0003FFFF80007FE0003FFFFC0007FF8000001FFFE0000007FFFFFF0001FFFFF
310
FF80003FFFFE0000FFFF80003FFFFE0000FFFF0003FFFFFFFFF0001FFFFE0003
310
F000F0001FFFF80003FE0003FFF000007FFF0001FF80007FE0003FFFF00007FE
310
0001FFFF80007FF8000001FFFE0000007FFFFFF0001FFFFFFFC0000FFFF80001
310
FFFFC0000FFFF80001FFFF0003FFFFFFFFF0001FFFFC0003F000F0000FFFF000
310
07FE0007FFF800007FFF0001FF80007FE0001FFFE00007FF0000FFFE00007FF8
310
000001FFFE0000007FFFFFF0001FFFFFFFC00003FFE00001FFFFC00003FFE000
310
01FFFF0003FFFFFFFFF8000FFFF80003F000F00003FFC00007FC0007FFF80000
310
7FFF8001FF80007FF00007FF80000FFF00007FF80000FFF8000001FFFE000000
310
7F80000000000001FFE000003E000003FFFFE000003E000003FFFF0003FFFFFF
310
FFF80003FFE00007F000F800000000000FFC0007FFF800007FFF8001FF80007F
310
F000000000000FFF000000000000FFF8000001FFFE0000007F80000000000001
310
FFF0000000000007FFFFF0000000000007FFFF0003FFFFFFFFFC00007E000007
310
F000F800000000000FFC0007FFF80000FFFF8000FF80007FF800000000001FFF
310
800000000001FFF8000001FFFE0000007F80000000000001FFF800000000000F
310
FFFFF800000000000FFFFF0003FFFFFFFFFC00000000000FF000FC0000000000
310
1FFC0007FFFC0000FFFF8000FF80007FF800000000003FFFC00000000001FFF8
310
000001FFFE0000007F80000000000001FFF800000000000FFFFFF80000000000
310
0FFFFF0003FFFFFFFFFE00000000001FF000FE00000000003FF8000FFFFC0000
310
FFFF8000FF80007FFC00000000003FFFC00000000003FFF8000001FFFE000000
310
7F80000000000001FFFC00000000001FFFFFFC00000000001FFFFF0003FFFFFF
310
FFFF00000000001FF000FF00000000003FF8000FFFFC0000FFFFC000FF80007F
310
FE00000000007FFFE00000000007FFF8000001FFFE0000007F80000000000001
310
FFFE00000000003FFFFFFE00000000003FFFFF0003FFFFFFFFFF80000000003F
310
F000FF80000000007FF8000FFFFC0001FFFFC0007F80007FFF0000000000FFFF
310
F0000000000FFFF800000000000000007F80000000000001FFFF8000000000FF
310
FFFFFF8000000000FFFFFF0003FFFFFFFFFFC0000000007FF000FFC000000000
310
FFF8000FFFFE0001FFFFC0007F80007FFF8000000001FFFFF8000000001FFFF8
310
00000000000000007F80000000000001FFFFC000000001FFFFFFFFC000000001
310
FFFFFF0003FFFFFFFFFFE000000000FFF000FFE000000003FFF0001FFFFE0001
310
FFFFC0007F80007FFFC000000007FFFFFE000000003FFFF80000000000000000
310
7F80000000000001FFFFE000000003FFFFFFFFE000000003FFFFFF0003FFFFFF
310
FFFFF000000003FFF000FFF80000000FFFF0001FFFFE0001FFFFE0007F80007F
310
FFF00000000FFFFFFF00000000FFFFF800000000000000007F80000000000001
310
FFFFF80000000FFFFFFFFFF80000000FFFFFFF0003FFFFFFFFFFFC0000000FFF
310
F000FFFE0000003FFFF0001FFFFE0003FFFFE0003F80007FFFFC0000003FFFFF
310
FFC0000003FFFFF800000000000000007F80000000000001FFFFFE0000003FFF
310
FFFFFFFE0000003FFFFFFF0003FFFFFFFFFFFF0000003FFFF000FFFF800000FF
310
FFF0001FFFFF0003FFFFE0003F80007FFFFF000001FFFFFFFFF800001FFFFFF8
310
00000000000000007F80000000000001FFFFFFC00001FFFFFFFFFFFFC00001FF
310
FFFFFF0003FFFFFFFFFFFFC00000FFFFF000FFFFF8000FFFFFFFFFFFFFFFFFFF
310
FFFFFFFFFFFFFFFFFFFFF0001FFFFFFFFFFF0000FFFFFFF80000000000000000
310
7FFFFFFFFFFFFFFFFFFFFFFC001FFFFFFFFFFFFFFC001FFFFFFFFFFFFFFFFFFF
310
FFFFFFFC001FFFFFF000FFFFFFFFFFFFFFFFFFFFFFFFFFFFFFFFFFFFFFFFFFFF
310
FFFFFFFFFFFFFFFFFFFFFFFFFFFFFFFFFFFFFFFFFFFFFFFFFFFFFFFFFFFFFFFF
310
FFFFFFFFFFFFFFFFFFFFFFFFFFFFFFFFFFFFFFFFFFFFFFFFFFFFFFFFFFFFFFFF
310
F000FFFFFFFFFFFFFFFFFFFFFFFFFFFFFFFFFFFFFFFFFFFFFFFFFFFFFFFFFFFF
310
FFFFFFFFFFFFFFFFFFFFFFFFFFFFFFFFFFFFFFFFFFFFFFFFFFFFFFFFFFFFFFFF
310
FFFFFFFFFFFFFFFFFFFFFFFFFFFFFFFFFFFFFFFFFFFFFFFFF000FFFFFFFFFFFF
310
FFFFFFFFFFFFFFFFFFFFFFFFFFFFFFFFFFFFFFFFFFFFFFFFFFFFFFFFFFFFFFFF
310
FFFFFFFFFFFFFFFFFFFFFFFFFFFFFFFFFFFFFFFFFFFFFFFFFFFFFFFFFFFFFFFF
310
FFFFFFFFFFFFFFFFFFFFFFFFFFFFFFFFF000FFFFFFFFFFFFFFFFFFFFFFFFFFFF
310
FFFFFFFFFFFFFFFFFFFFFFFFFFFFFFFFFFFFFFFFFFFFFFFFFFFFFFFFFFFFFFFF
310
FFFFFFFFFFFFFFFFFFFFFFFFFFFFFFFFFFFFFFFFFFFFFFFFFFFFFFFFFFFFFFFF
310
FFFFFFFFFFFFFFFFF000FFFFFFFFFFFFFFFFFFFFFFFFFFFFFFFFFFFFFFFFFFFF
310
FFFFFFFFFFFFFFFFFFFFFFFFFFFFFFFFFFFFFFFFFFFFFFFFFFFFFFFFFFFFFFFF
310
FFFFFFFFFFFFFFFFFFFFFFFFFFFFFFFFFFFFFFFFFFFFFFFFFFFFFFFFFFFFFFFF
310
F000FFFFFFFFFFFFFFFFFFFFFFFFFFFFFFFFFFFFFFFFFFFFFFFFFFFFFFFFFFFF
310
FFFFFFFFFFFFFFFFFFFFFFFFFFFFFFFFFFFFFFFFFFFFFFFFFFFFFFFFFFFFFFFF
310
FFFFFFFFFFFFFFFFFFFFFFFFFFFFFFFFFFFFFFFFFFFFFFFFF000FFFFFFFFFFFF
310
FFFFFFFFFFFFFFFFFFFFFFFFFFFFFFFFFFFFFFFFFFFFFFFFFFFFFFFFFFFFFFFF
310
FFFFFFFFFFFFFFFFFFFFFFFFFFFFFFFFFFFFFFFFFFFFFFFFFFFFFFFFFFFFFFFF
310
FFFFFFFFFFFFFFFFFFFFFFFFFFFFFFFFF000FFFFFFFFFFFFFFFFFFFFFFFFFFFF
310
FFFFFFFFFFFFFFFFFFFFFFFFFFFFFFFFFFFFFFFFFFFFFFFFFFFFFFFFFFFFFFFF
310
FFFFFFFFFFFFFFFFFFFFFFFFFFFFFFFFFFFFFFFFFFFFFFFFFFFFFFFFFFFFFFFF
310
FFFFFFFFFFFFFFFFF000FFFFFFFFFFFFFFFFFFFFFFFFFFFFFFFFFFFFFFFFFFFF
310
FFFFFFFFFFFFFFFFFFFFFFFFFFFFFFFFFFFFFFFFFFFFFFFFFFFFFFFFFFFFFFFF
310
FFFFFFFFFFFFFFFFFFFFFFFFFFFFFFFFFFFFFFFFFFFFFFFFFFFFFFFFFFFFFFFF
310
F000FFFFFFFFFFFFFFFFFFFFFFFFFFFFFFFFFFFFFFFFFFFFFFFFFFFFFFFFFFFF
310
FFFFFFFFFFFFFFFFFFFFFFFFFFFFFFFFFFFFFFFFFFFFFFFFFFFFFFFFFFFFFFFF
310
FFFFFFFFFFFFFFFFFFFFFFFFFFFFFFFFFFFFFFFFFFFFFFFFF000FFFFFFFFFFFF
310
FFFFFFFFFFFFFFFFFFFFFFFFFFFFFFFFFFFFFFFFFFFFFFFFFFFFFFFFFFFFFFFF
310
FFFFFFFFFFFFFFFFFFFFFFFFFFFFFFFFFFFFFFFFFFFFFFFFFFFFFFFFFFFFFFFF
310
FFFFFFFFFFFFFFFFFFFFFFFFFFFFFFFFF000FFFFFFFFFFFFFFFFFFFFFFFFFFFF
310
FFFFFFFFFFFFFFFFFFFFFFFFFFFFFFFFFFFFFFFFFFFFFFFFFFFFFFFFFFFFFFFF
310
FFFFFFFFFFFFFFFFFFFFFFFFFFFFFFFFFFFFFFFFFFFFFFFFFFFFFFFFFFFFFFFF
310
FFFFFFFFFFFFFFFFF000FFFFFFFFFFFFFFFFFFFFFFFFFFFFFFFFFFFFFFFFFFFF
310
FFFFFFFFFFFFFFFFFFFFFFFFFFFFFFFFFFFFFFFFFFFFFFFFFFFFFFFFFFFFFFFF
310
FFFFFFFFFFFFFFFFFFFFFFFFFFFFFFFFFFFFFFFFFFFFFFFFFFFFFFFFFFFFFFFF
310
F000FFFFFFFFFFFFFFFFFFFFFFFFFFFFFFFFFFFFFFFFFFFFFFFFFFFFFFFFFFFF
310
FFFFFFFFFFFFFFFFFFFFFFFFFFFFFFFFFFFFFFFFFFFFFFFFFFFFFFFFFFFFFFFF
310
FFFFFFFFFFFFFFFFFFFFFFFFFFFFFFFFFFFFFFFFFFFFFFFFF000FFFFFFFFFFFF
310
FFFFFFFFFFFFFFFFFFFFFFFFFFFFFFFFFFFFFFFFFFFFFFFFFFFFFFFFFFFFFFFF
310
FFFFFFFFFFFFFFFFFFFFFFFFFFFFFFFFFFFFFFFFFFFFFFFFFFFFFFFFFFFFFFFF
310
FFFFFFFFFFFFFFFFFFFFFFFFFFFFFFFFF000FFFFFFFFFFFFFFFFFFFFFFFFFFFF
310
FFFFFFFFFFFFFFFFFFFFFFFFFFFFFFFFFFFFFFFFFFFFFFFFFFFFFFFFFFFFFFFF
310
FFFFFFFFFFFFFFFFFFFFFFFFFFFFFFFFFFFFFFFFFFFFFFFFFFFFFFFFFFFFFFFF
310
FFFFFFFFFFFFFFFFF000FFFFFFFFFFFFFFFFFFFFFFFFFFFFFFFFFFFFFFFFFFFF
310
FFFFFFFFFFFFFFFFFFFFFFFFFFFFFFFFFFFFFFFFFFFFFFFFFFFFFFFFFFFFFFFF
310
FFFFFFFFFFFFFFFFFFFFFFFFFFFFFFFFFFFFFFFFFFFFFFFFFFFFFFFFFFFFFFFF
310
F000FFFFFFFFFFFFFFFFFFFFFFFFFFFFFFFFFFFFFFFFFFFFFFFFFFFFFFFFFFFF
310
FFFFFFFFFFFFFFFFFFFFFFFFFFFFFFFFFFFFFFFFFFFFFFFFFFFFFFFFFFFFFFFF
310
FFFFFFFFFFFFFFFFFFFFFFFFFFFFFFFFFFFFFFFFFFFFFFFFF000FFFFFFFFFFFF
310
FFFFFFFFFFFFFFFFFFFFFFFFFFFFFFFFFFFFFFFFFFFFFFFFFFFFFFFFFFFFFFFF
310
FFFFFFFFFFFFFFFFFFFFFFFFFFFFFFFFFFFFFFFFFFFFFFFFFFFFFFFFFFFFFFFF
310
FFFFFFFFFFFFFFFFFFFFFFFFFFFFFFFFF000FFFFFFFFFFFFFFFFFFFFFFFFFFFF
310
FFFFFFFFFFFFFFFFFFFFFFFFFFFFFFFFFFFFFFFFFFFFFFFFFFFFFFFFFFFFFFFF
310
FFFFFFFFFFFFFFFFFFFFFFFFFFFFFFFFFFFFFFFFFFFFFFFFFFFFFFFFFFFFFFFF
310
FFFFFFFFFFFFFFFFF000FFFFFFFFFFFFFFFFFFFFFFFFFFFFFFFFFFFFFFFFFFFF
310
FFFFFFFFFFFFFFFFFFFFFFFFFFFFFFFFFFFFFFFFFFFFFFFFFFFFFFFFFFFFFFFF
310
FFFFFFFFFFFFFFFFFFFFFFFFFFFFFFFFFFFFFFFFFFFFFFFFFFFFFFFFFFFFFFFF
310
F000FFFFFFFFFFFFFFFFFFFFFFFFFFFFFFFFFFFFFFFFFFFFFFFFFFFFFFFFFFFF
310
FFFFFFFFFFFFFFFFFFFFFFFFFFFFFFFFFFFFFFFFFFFFFFFFFFFFFFFFFFFFFFFF
310
FFFFFFFFFFFFFFFFFFFFFFFFFFFFFFFFFFFFFFFFFFFFFFFFF000FFFFFFFFFFFF
310
FFFFFFFFFFFFFFFFFFFFFFFFFFFFFFFFFFFFFFFFFFFFFFFFFFFFFFFFFFFFFFFF
310
FFFFFFFFFFFFFFFFFFFFFFFFFFFFFFFFFFFFFFFFFFFFFFFFFFFFFFFFFFFFFFFF
310
FFFFFFFFFFFFFFFFFFFFFFFFFFFFFFFFF0000000000000000000000000000000
310
0000000000000000000000000000000000000000000000000000000000000000
310
0000000000000000000000000000000000000000000000000000000000000000
310
0000000000000000000000000000000000000000000000000000000000000000
310
0000000000000000000000000000000000000000000000000000000000000000
310
0000000000000000000000000000000000000000000000000000000000000000
310
0000000000000000000000000000000000000000000000000000000000000000
310
0000000000000000000000000000000000000000000000000000000000000000
310
0000000000000000000000000000000000000000000000000000000000000000
310
0000000000000000000000000000000000000000000000000000000000000000
310
0000000000000000000000000000000000000000000000000000000000000000
310
0000000000000000000000000000000000000000000000000000000000000000
310
0000000000000000000000000000000000000000000000000000000000000000
310
0000000000000000000000000000000000000000000000000000000000000000
310
0000000000000000000000000000000000000000000000000000000000000000
310
0000000000000000000000000000000000000000000000000000000000000000
  1
OLE
  0
ENDSEC
  0
SECTION
  2
OBJECTS
  0
DICTIONARY
  5
C
330
0
100
AcDbDictionary
281
     1
  3
ACAD_GROUP
350
D
  3
ACAD_LAYOUT
350
1A
  3
ACAD_MLINESTYLE
350
17
  3
ACAD_PLOTSETTINGS
350
19
  3
ACAD_PLOTSTYLENAME
350
E
  0
DICTIONARY
  5
D
102
{ACAD_REACTORS
330
C
102
}
330
C
100
AcDbDictionary
281
     1
  0
DICTIONARY
  5
1A
102
{ACAD_REACTORS
330
C
102
}
330
C
100
AcDbDictionary
281
     1
  3
Layout1
350
1E
  3
Layout2
350
26
  3
Model
350
22
  0
DICTIONARY
  5
17
102
{ACAD_REACTORS
330
C
102
}
330
C
100
AcDbDictionary
281
     1
  3
Standard
350
18
  0
DICTIONARY
  5
19
102
{ACAD_REACTORS
330
C
102
}
330
C
100
AcDbDictionary
281
     1
  0
ACDBDICTIONARYWDFLT
  5
E
102
{ACAD_REACTORS
330
C
102
}
330
C
100
AcDbDictionary
281
     1
  3
Normal
350
F
100
AcDbDictionaryWithDefault
340
F
  0
LAYOUT
  5
1E
102
{ACAD_REACTORS
330
1A
102
}
330
1A
100
AcDbPlotSettings
  1

  2
none_device
  4

  6

 40
0.0
 41
0.0
 42
0.0
 43
0.0
 44
0.0
 45
0.0
 46
0.0
 47
0.0
 48
0.0
 49
0.0
140
0.0
141
0.0
142
1.0
143
1.0
 70
   688
 72
     0
 73
     0
 74
     5
  7

 75
    16
147
1.0
148
0.0
149
0.0
100
AcDbLayout
  1
Layout1
 70
     1
 71
     1
 10
0.0
 20
0.0
 11
420.0
 21
297.0
 12
0.0
 22
0.0
 32
0.0
 14
1.0000000000E+20
 24
1.0000000000E+20
 34
1.0000000000E+20
 15
-1.0000000000E+20
 25
-1.0000000000E+20
 35
-1.0000000000E+20
146
0.0
 13
0.0
 23
0.0
 33
0.0
 16
1.0
 26
0.0
 36
0.0
 17
0.0
 27
1.0
 37
0.0
 76
     0
330
1B
  0
LAYOUT
  5
26
102
{ACAD_REACTORS
330
1A
102
}
330
1A
100
AcDbPlotSettings
  1

  2
none_device
  4

  6

 40
0.0
 41
0.0
 42
0.0
 43
0.0
 44
0.0
 45
0.0
 46
0.0
 47
0.0
 48
0.0
 49
0.0
140
0.0
141
0.0
142
1.0
143
1.0
 70
   688
 72
     0
 73
     0
 74
     5
  7

 75
    16
147
1.0
148
0.0
149
0.0
100
AcDbLayout
  1
Layout2
 70
     1
 71
     2
 10
0.0
 20
0.0
 11
0.0
 21
0.0
 12
0.0
 22
0.0
 32
0.0
 14
0.0
 24
0.0
 34
0.0
 15
0.0
 25
0.0
 35
0.0
146
0.0
 13
0.0
 23
0.0
 33
0.0
 16
1.0
 26
0.0
 36
0.0
 17
0.0
 27
1.0
 37
0.0
 76
     0
330
23
  0
LAYOUT
  5
22
102
{ACAD_REACTORS
330
1A
102
}
330
1A
100
AcDbPlotSettings
  1

  2
none_device
  4

  6

 40
0.0
 41
0.0
 42
0.0
 43
0.0
 44
0.0
 45
0.0
 46
0.0
 47
0.0
 48
0.0
 49
0.0
140
0.0
141
0.0
142
1.0
143
1.0
 70
  1712
 72
     0
 73
     0
 74
     0
  7

 75
     0
147
1.0
148
0.0
149
0.0
100
AcDbLayout
  1
Model
 70
     1
 71
     0
 10
0.0
 20
0.0
 11
297.0
 21
210.0
 12
0.0
 22
0.0
 32
0.0
 14
0.0
 24
0.0
 34
0.0
 15
297.0
 25
210.0
 35
0.0
146
0.0
 13
0.0
 23
0.0
 33
0.0
 16
1.0
 26
0.0
 36
0.0
 17
0.0
 27
1.0
 37
0.0
 76
     0
330
1F
331
29
  0
MLINESTYLE
  5
18
102
{ACAD_REACTORS
330
17
102
}
330
17
100
AcDbMlineStyle
  2
Standard
 70
     0
  3

 62
   256
 51
90.0
 52
90.0
 71
     2
 49
0.5
 62
   256
  6
BYLAYER
 49
-0.5
 62
   256
  6
BYLAYER
  0
ACDBPLACEHOLDER
  5
F
102
{ACAD_REACTORS
330
E
102
}
330
E
  0
ENDSEC
  0
EOF
