  0
SECTION
  2
HEADER
  9
$ACADVER
  1
AC1015
  9
$ACADMAINTVER
 70
     6
  9
$DWGCODEPAGE
  3
ANSI_1252
  9
$INSBASE
 10
0.0
 20
0.0
 30
0.0
  9
$EXTMIN
 10
0.0
 20
0.0
 30
0.0
  9
$EXTMAX
 10
297.0
 20
210.0
 30
0.0
  9
$LIMMIN
 10
0.0
 20
0.0
  9
$LIMMAX
 10
297.0
 20
210.0
  9
$ORTHOMODE
 70
     0
  9
$REGENMODE
 70
     1
  9
$FILLMODE
 70
     1
  9
$QTEXTMODE
 70
     0
  9
$MIRRTEXT
 70
     1
  9
$LTSCALE
 40
1.0
  9
$ATTMODE
 70
     1
  9
$TEXTSIZE
 40
2.0
  9
$TRACEWID
 40
1.0
  9
$TEXTSTYLE
  7
Standard
  9
$CLAYER
  8
0
  9
$CELTYPE
  6
ByLayer
  9
$CECOLOR
 62
   256
  9
$CELTSCALE
 40
1.0
  9
$DISPSILH
 70
     0
  9
$DIMSCALE
 40
1.0
  9
$DIMASZ
 40
3.0
  9
$DIMEXO
 40
0.0
  9
$DIMDLI
 40
3.75
  9
$DIMRND
 40
0.0
  9
$DIMDLE
 40
0.0
  9
$DIMEXE
 40
1.0
  9
$DIMTP
 40
0.0
  9
$DIMTM
 40
0.0
  9
$DIMTXT
 40
2.0
  9
$DIMCEN
 40
2.5
  9
$DIMTSZ
 40
0.0
  9
$DIMTOL
 70
     0
  9
$DIMLIM
 70
     0
  9
$DIMTIH
 70
     1
  9
$DIMTOH
 70
     1
  9
$DIMSE1
 70
     0
  9
$DIMSE2
 70
     0
  9
$DIMTAD
 70
     1
  9
$DIMZIN
 70
     0
  9
$DIMBLK
  1

  9
$DIMASO
 70
     1
  9
$DIMSHO
 70
     1
  9
$DIMPOST
  1

  9
$DIMAPOST
  1

  9
$DIMALT
 70
     0
  9
$DIMALTD
 70
     3
  9
$DIMALTF
 40
0.0393700787
  9
$DIMLFAC
 40
2.0
  9
$DIMTOFL
 70
     1
  9
$DIMTVP
 40
0.0
  9
$DIMTIX
 70
     0
  9
$DIMSOXD
 70
     0
  9
$DIMSAH
 70
     0
  9
$DIMBLK1
  1

  9
$DIMBLK2
  1

  9
$DIMSTYLE
  2
ISO-25
  9
$DIMCLRD
 70
     0
  9
$DIMCLRE
 70
     0
  9
$DIMCLRT
 70
     0
  9
$DIMTFAC
 40
1.0
  9
$DIMGAP
 40
1.524
  9
$DIMJUST
 70
     0
  9
$DIMSD1
 70
     0
  9
$DIMSD2
 70
     0
  9
$DIMTOLJ
 70
     0
  9
$DIMTZIN
 70
     0
  9
$DIMALTZ
 70
     0
  9
$DIMALTTZ
 70
     0
  9
$DIMUPT
 70
     0
  9
$DIMDEC
 70
     2
  9
$DIMTDEC
 70
     3
  9
$DIMALTU
 70
     2
  9
$DIMALTTD
 70
     3
  9
$DIMTXSTY
  7
Standard
  9
$DIMAUNIT
 70
     0
  9
$DIMADEC
 70
     2
  9
$DIMALTRND
 40
0.0
  9
$DIMAZIN
 70
     0
  9
$DIMDSEP
 70
    44
  9
$DIMATFIT
 70
     3
  9
$DIMFRAC
 70
     0
  9
$DIMLDRBLK
  1

  9
$DIMLUNIT
 70
     2
  9
$DIMLWD
 70
    -2
  9
$DIMLWE
 70
    -2
  9
$DIMTMOVE
 70
     0
  9
$LUNITS
 70
     2
  9
$LUPREC
 70
     2
  9
$SKETCHINC
 40
1.0
  9
$FILLETRAD
 40
10.0
  9
$AUNITS
 70
     0
  9
$AUPREC
 70
     2
  9
$MENU
  1
.
  9
$ELEVATION
 40
0.0
  9
$PELEVATION
 40
0.0
  9
$THICKNESS
 40
0.0
  9
$LIMCHECK
 70
     0
  9
$CHAMFERA
 40
0.0
  9
$CHAMFERB
 40
0.0
  9
$CHAMFERC
 40
0.0
  9
$CHAMFERD
 40
0.0
  9
$SKPOLY
 70
     0
  9
$TDCREATE
 40
2458162.500216261
  9
$TDUCREATE
 40
2458162.458549595
  9
$TDUPDATE
 40
2458162.500218391
  9
$TDUUPDATE
 40
2458162.458551724
  9
$TDINDWG
 40
0.0000000116
  9
$TDUSRTIMER
 40
0.0000000116
  9
$USRTIMER
 70
     1
  9
$ANGBASE
 50
0.0
  9
$ANGDIR
 70
     0
  9
$PDMODE
 70
     0
  9
$PDSIZE
 40
-1.0
  9
$PLINEWID
 40
0.0
  9
$SPLFRAME
 70
     0
  9
$SPLINETYPE
 70
     6
  9
$SPLINESEGS
 70
     8
  9
$HANDSEED
  5
2ED
  9
$SURFTAB1
 70
     6
  9
$SURFTAB2
 70
     6
  9
$SURFTYPE
 70
     6
  9
$SURFU
 70
     6
  9
$SURFV
 70
     6
  9
$UCSBASE
  2

  9
$UCSNAME
  2

  9
$UCSORG
 10
0.0
 20
0.0
 30
0.0
  9
$UCSXDIR
 10
1.0
 20
0.0
 30
0.0
  9
$UCSYDIR
 10
0.0
 20
1.0
 30
0.0
  9
$UCSORTHOREF
  2

  9
$UCSORTHOVIEW
 70
     0
  9
$UCSORGTOP
 10
0.0
 20
0.0
 30
0.0
  9
$UCSORGBOTTOM
 10
0.0
 20
0.0
 30
0.0
  9
$UCSORGLEFT
 10
0.0
 20
0.0
 30
0.0
  9
$UCSORGRIGHT
 10
0.0
 20
0.0
 30
0.0
  9
$UCSORGFRONT
 10
0.0
 20
0.0
 30
0.0
  9
$UCSORGBACK
 10
0.0
 20
0.0
 30
0.0
  9
$PUCSBASE
  2

  9
$PUCSNAME
  2

  9
$PUCSORG
 10
0.0
 20
0.0
 30
0.0
  9
$PUCSXDIR
 10
1.0
 20
0.0
 30
0.0
  9
$PUCSYDIR
 10
0.0
 20
1.0
 30
0.0
  9
$PUCSORTHOREF
  2

  9
$PUCSORTHOVIEW
 70
     0
  9
$PUCSORGTOP
 10
0.0
 20
0.0
 30
0.0
  9
$PUCSORGBOTTOM
 10
0.0
 20
0.0
 30
0.0
  9
$PUCSORGLEFT
 10
0.0
 20
0.0
 30
0.0
  9
$PUCSORGRIGHT
 10
0.0
 20
0.0
 30
0.0
  9
$PUCSORGFRONT
 10
0.0
 20
0.0
 30
0.0
  9
$PUCSORGBACK
 10
0.0
 20
0.0
 30
0.0
  9
$USERI1
 70
     0
  9
$USERI2
 70
     0
  9
$USERI3
 70
     0
  9
$USERI4
 70
     0
  9
$USERI5
 70
     0
  9
$USERR1
 40
0.0
  9
$USERR2
 40
0.0
  9
$USERR3
 40
0.0
  9
$USERR4
 40
0.0
  9
$USERR5
 40
0.0
  9
$WORLDVIEW
 70
     1
  9
$SHADEDGE
 70
     3
  9
$SHADEDIF
 70
    70
  9
$TILEMODE
 70
     1
  9
$MAXACTVP
 70
    64
  9
$PINSBASE
 10
0.0
 20
0.0
 30
0.0
  9
$PLIMCHECK
 70
     0
  9
$PEXTMIN
 10
1.0000000000E+20
 20
1.0000000000E+20
 30
1.0000000000E+20
  9
$PEXTMAX
 10
-1.0000000000E+20
 20
-1.0000000000E+20
 30
-1.0000000000E+20
  9
$PLIMMIN
 10
0.0
 20
0.0
  9
$PLIMMAX
 10
420.0
 20
297.0
  9
$UNITMODE
 70
     0
  9
$VISRETAIN
 70
     1
  9
$PLINEGEN
 70
     0
  9
$PSLTSCALE
 70
     1
  9
$TREEDEPTH
 70
  3020
  9
$CMLSTYLE
  2
Standard
  9
$CMLJUST
 70
     0
  9
$CMLSCALE
 40
20.0
  9
$PROXYGRAPHICS
 70
     1
  9
$MEASUREMENT
 70
     1
  9
$CELWEIGHT
370
    -1
  9
$ENDCAPS
280
     0
  9
$JOINSTYLE
280
     0
  9
$LWDISPLAY
290
     1
  9
$INSUNITS
 70
     4
  9
$HYPERLINKBASE
  1

  9
$STYLESHEET
  1

  9
$XEDIT
290
     1
  9
$CEPSNTYPE
380
     0
  9
$PSTYLEMODE
290
     1
  9
$FINGERPRINTGUID
  2
{A1847737-A0DA-40D9-862B-D995AF62C9CA}
  9
$VERSIONGUID
  2
{FAEB1C32-E019-11D5-929B-00C0DF256EC4}
  9
$EXTNAMES
290
     1
  9
$PSVPSCALE
 40
0.0
  9
$OLESTARTUP
290
     0
  0
ENDSEC
  0
SECTION
  2
CLASSES
  0
CLASS
  1
ACDBDICTIONARYWDFLT
  2
AcDbDictionaryWithDefault
  3
ObjectDBX Classes
 90
        0
280
     0
281
     0
  0
CLASS
  1
VISUALSTYLE
  2
AcDbVisualStyle
  3
ObjectDBX Classes
 90
     4095
280
     0
281
     0
  0
CLASS
  1
MATERIAL
  2
AcDbMaterial
  3
ObjectDBX Classes
 90
     1153
280
     0
281
     0
  0
CLASS
  1
SCALE
  2
AcDbScale
  3
ObjectDBX Classes
 90
     1153
280
     0
281
     0
  0
CLASS
  1
TABLESTYLE
  2
AcDbTableStyle
  3
ObjectDBX Classes
 90
     4095
280
     0
281
     0
  0
CLASS
  1
MLEADERSTYLE
  2
AcDbMLeaderStyle
  3
ACDB_MLEADERSTYLE_CLASS
 90
     4095
280
     0
281
     0
  0
CLASS
  1
SUN
  2
AcDbSun
  3
SCENEOE
 90
     1153
280
     0
281
     0
  0
CLASS
  1
ACDBPLACEHOLDER
  2
AcDbPlaceHolder
  3
ObjectDBX Classes
 90
        0
280
     0
281
     0
  0
CLASS
  1
LAYOUT
  2
AcDbLayout
  3
ObjectDBX Classes
 90
        0
280
     0
281
     0
  0
ENDSEC
  0
SECTION
  2
TABLES
  0
TABLE
  2
VPORT
  5
8
330
0
100
AcDbSymbolTable
 70
     1
  0
VPORT
  5
29
330
8
100
AcDbSymbolTableRecord
100
AcDbViewportTableRecord
  2
*Active
 70
     0
 10
0.0
 20
0.0
 11
1.0
 21
1.0
 12
148.5
 22
105.0
 13
0.0
 23
0.0
 14
10.0
 24
10.0
 15
10.0
 25
10.0
 16
0.0
 26
0.0
 36
1.0
 17
0.0
 27
0.0
 37
0.0
 40
210.0
 41
1.4142857143
 42
50.0
 43
0.0
 44
0.0
 50
0.0
 51
0.0
 71
     0
 72
  2000
 73
     1
 74
     3
 75
     0
 76
     0
 77
     0
 78
     0
281
     0
 65
     1
110
0.0
120
0.0
130
0.0
111
1.0
121
0.0
131
0.0
112
0.0
122
1.0
132
0.0
 79
     0
146
0.0
  0
ENDTAB
  0
TABLE
  2
LTYPE
  5
5
330
0
100
AcDbSymbolTable
 70
     6
  0
LTYPE
  5
14
330
5
100
AcDbSymbolTableRecord
100
AcDbLinetypeTableRecord
  2
ByBlock
 70
     0
  3

 72
    65
 73
     0
 40
0.0
  0
LTYPE
  5
15
330
5
100
AcDbSymbolTableRecord
100
AcDbLinetypeTableRecord
  2
ByLayer
 70
     0
  3

 72
    65
 73
     0
 40
0.0
  0
LTYPE
  5
16
330
5
100
AcDbSymbolTableRecord
100
AcDbLinetypeTableRecord
  2
Continuous
 70
     0
  3
Solid line
 72
    65
 73
     0
 40
0.0
  0
LTYPE
  5
6E
330
5
100
AcDbSymbolTableRecord
100
AcDbLinetypeTableRecord
  2
HIDDEN
 70
     0
  3
Hidden __ __ __ __ __ __ __ __ __ __ __ __ __ __
 72
    65
 73
     2
 40
1.905
 49
1.27
 74
     0
 49
-0.635
 74
     0
  0
LTYPE
  5
6F
330
5
100
AcDbSymbolTableRecord
100
AcDbLinetypeTableRecord
  2
PHANTOM
 70
     0
  3
Phantom ______  __  __  ______  __  __  ______
 72
    65
 73
     6
 40
12.7
 49
6.35
 74
     0
 49
-1.27
 74
     0
 49
1.27
 74
     0
 49
-1.27
 74
     0
 49
1.27
 74
     0
 49
-1.27
 74
     0
  0
LTYPE
  5
70
330
5
100
AcDbSymbolTableRecord
100
AcDbLinetypeTableRecord
  2
CENTER
 70
     0
  3
Center ____ _ ____ _ ____ _ ____ _ ____ _ ____
 72
    65
 73
     4
 40
10.16
 49
6.35
 74
     0
 49
-1.27
 74
     0
 49
1.27
 74
     0
 49
-1.27
 74
     0
  0
LTYPE
  5
71
330
5
100
AcDbSymbolTableRecord
100
AcDbLinetypeTableRecord
  2
CENTERX2
 70
     0
  3
Center (2x) ________  __  ________  __  _____
 72
    65
 73
     4
 40
20.32
 49
12.7
 74
     0
 49
-2.54
 74
     0
 49
2.54
 74
     0
 49
-2.54
 74
     0
  0
LTYPE
  5
72
330
5
100
AcDbSymbolTableRecord
100
AcDbLinetypeTableRecord
  2
DOT2
 70
     0
  3
Dot (.5x) ........................................
 72
    65
 73
     2
 40
0.635
 49
0.0
 74
     0
 49
-0.635
 74
     0
  0
ENDTAB
  0
TABLE
  2
LAYER
  5
2
330
0
100
AcDbSymbolTable
 70
     5
  0
LAYER
  5
10
330
2
100
AcDbSymbolTableRecord
100
AcDbLayerTableRecord
  2
0
 70
     0
 62
     7
  6
Continuous
370
    -3
390
F
  0
LAYER
  5
73
330
2
100
AcDbSymbolTableRecord
100
AcDbLayerTableRecord
  2
FORMAT
 70
     0
 62
     7
  6
Continuous
370
    -3
390
F
  0
LAYER
  5
74
330
2
100
AcDbSymbolTableRecord
100
AcDbLayerTableRecord
  2
VERMASSUNG
 70
     0
 62
     7
  6
Continuous
370
    -3
390
F
  0
LAYER
  5
75
330
2
100
AcDbSymbolTableRecord
100
AcDbLayerTableRecord
  2
KOPF_DÜNN
 70
     0
 62
     7
  6
Continuous
370
    -3
390
F
  0
LAYER
  5
76
330
2
100
AcDbSymbolTableRecord
100
AcDbLayerTableRecord
  2
KOPF_DICK
 70
     0
 62
     7
  6
Continuous
370
    25
390
F
  0
ENDTAB
  0
TABLE
  2
STYLE
  5
3
330
0
100
AcDbSymbolTable
 70
     3
  0
STYLE
  5
11
330
3
100
AcDbSymbolTableRecord
100
AcDbTextStyleTableRecord
  2
Standard
 70
     0
 40
0.0
 41
1.0
 50
0.0
 71
     0
 42
2.0
  3
txt
  4

  0
STYLE
  5
77
330
3
100
AcDbSymbolTableRecord
100
AcDbTextStyleTableRecord
  2
SLDTEXTSTYLE0
 70
     0
 40
0.0
 41
0.7
 50
0.0
 71
     0
 42
2.0
  3
TXT
  4

  0
STYLE
  5
7B
330
3
100
AcDbSymbolTableRecord
100
AcDbTextStyleTableRecord
  2
SLDTEXTSTYLE1
 70
     0
 40
0.0
 41
0.6416666667
 50
0.0
 71
     0
 42
2.0
  3
TXT
  4

  0
ENDTAB
  0
TABLE
  2
VIEW
  5
6
330
0
100
AcDbSymbolTable
 70
     0
  0
ENDTAB
  0
TABLE
  2
UCS
  5
7
330
0
100
AcDbSymbolTable
 70
     0
  0
ENDTAB
  0
TABLE
  2
APPID
  5
9
330
0
100
AcDbSymbolTable
 70
     1
  0
APPID
  5
12
330
9
100
AcDbSymbolTableRecord
100
AcDbRegAppTableRecord
  2
ACAD
 70
     0
  0
ENDTAB
  0
TABLE
  2
DIMSTYLE
  5
A
330
0
100
AcDbSymbolTable
 70
     4
100
AcDbDimStyleTable
  0
DIMSTYLE
105
27
330
A
100
AcDbSymbolTableRecord
100
AcDbDimStyleTableRecord
  2
ISO-25
 70
     0
 41
2.5
 42
0.625
 43
3.75
 44
1.25
 73
     0
 74
     0
 77
     1
 78
     8
140
2.5
141
2.5
143
0.0393700787
147
0.625
171
     3
172
     1
178
     0
271
     2
272
     2
274
     3
278
    44
283
     0
284
     8
340
11
  0
DIMSTYLE
105
178
102
{ACAD_REACTORS
330
177
330
19A
102
}
330
A
100
AcDbSymbolTableRecord
100
AcDbDimStyleTableRecord
  2
SLDDIMSTYLE0
 70
     0
 41
3.0
 44
0.0
 45
0.000000001
 47
0.1
 48
0.1
 71
     1
 73
     0
 74
     0
 77
     1
 78
    12
 79
     3
140
2.0
147
0.5
173
     1
178
     0
271
     2
272
     1
276
     2
284
     8
340
77
  0
DIMSTYLE
105
185
102
{ACAD_REACTORS
330
184
330
1A5
102
}
330
A
100
AcDbSymbolTableRecord
100
AcDbDimStyleTableRecord
  2
SLDDIMSTYLE1
 70
     0
 41
3.0
 44
0.0
 45
0.000000001
 73
     0
 74
     0
 77
     1
 78
    12
 79
     3
140
2.0
147
0.5
173
     1
178
     0
271
     2
272
     3
276
     2
284
    12
340
77
  0
DIMSTYLE
105
190
102
{ACAD_REACTORS
330
18F
102
}
330
A
100
AcDbSymbolTableRecord
100
AcDbDimStyleTableRecord
  2
SLDDIMSTYLE2
 70
     0
 41
3.0
 44
0.0
 73
     0
 74
     0
 77
     1
 78
    12
 79
     3
140
2.0
147
0.5
173
     1
178
     0
179
     1
272
     3
276
     2
284
    12
340
77
  0
ENDTAB
  0
TABLE
  2
BLOCK_RECORD
  5
1
330
0
100
AcDbSymbolTable
 70
     7
  0
BLOCK_RECORD
  5
1F
330
1
100
AcDbSymbolTableRecord
100
AcDbBlockTableRecord
  2
*Model_Space
340
22
  0
BLOCK_RECORD
  5
1B
330
1
100
AcDbSymbolTableRecord
100
AcDbBlockTableRecord
  2
*Paper_Space
340
1E
  0
BLOCK_RECORD
  5
23
330
1
100
AcDbSymbolTableRecord
100
AcDbBlockTableRecord
  2
*Paper_Space0
340
26
  0
BLOCK_RECORD
  5
179
330
1
100
AcDbSymbolTableRecord
100
AcDbBlockTableRecord
  2
_D
340
0
  0
BLOCK_RECORD
  5
186
330
1
100
AcDbSymbolTableRecord
100
AcDbBlockTableRecord
  2
_D_1
340
0
  0
BLOCK_RECORD
  5
191
330
1
100
AcDbSymbolTableRecord
100
AcDbBlockTableRecord
  2
_D_2
340
0
  0
BLOCK_RECORD
  5
19B
330
1
100
AcDbSymbolTableRecord
100
AcDbBlockTableRecord
  2
_D_3
340
0
  0
BLOCK_RECORD
  5
1A6
330
1
100
AcDbSymbolTableRecord
100
AcDbBlockTableRecord
  2
_D_4
340
0
  0
BLOCK_RECORD
  5
210
330
1
100
AcDbSymbolTableRecord
100
AcDbBlockTableRecord
  2
SW_CENTERMARKSYMBOL_0
340
0
102
{BLKREFS
331
21B
102
}
  0
ENDTAB
  0
ENDSEC
  0
SECTION
  2
BLOCKS
  0
BLOCK
  5
20
330
1F
100
AcDbEntity
  8
0
100
AcDbBlockBegin
  2
*Model_Space
 70
     0
 10
0.0
 20
0.0
 30
0.0
  3
*Model_Space
  1

  0
ENDBLK
  5
21
330
1F
100
AcDbEntity
  8
0
100
AcDbBlockEnd
  0
BLOCK
  5
1C
330
1B
100
AcDbEntity
 67
     1
  8
0
100
AcDbBlockBegin
  2
*Paper_Space
 70
     0
 10
0.0
 20
0.0
 30
0.0
  3
*Paper_Space
  1

  0
ENDBLK
  5
1D
330
1B
100
AcDbEntity
 67
     1
  8
0
100
AcDbBlockEnd
  0
BLOCK
  5
24
330
23
100
AcDbEntity
  8
0
100
AcDbBlockBegin
  2
*Paper_Space0
 70
     0
 10
0.0
 20
0.0
 30
0.0
  3
*Paper_Space0
  1

  0
ENDBLK
  5
25
330
23
100
AcDbEntity
  8
0
100
AcDbBlockEnd
  0
BLOCK
  5
17A
330
179
100
AcDbEntity
  8
0
100
AcDbBlockBegin
  2
_D
 70
     0
 10
0.0
 20
0.0
 30
0.0
  3
_D
  1

  0
SOLID
  5
17C
330
179
100
AcDbEntity
  8
VERMASSUNG
100
AcDbTrace
 10
258.0157274383
 20
181.7282465524
 30
0.0
 11
255.0157274383
 21
182.1782465524
 31
0.0
 12
255.0157274383
 22
181.2782465524
 32
0.0
 13
255.0157274383
 23
181.2782465524
 33
0.0
  0
SOLID
  5
17D
330
179
100
AcDbEntity
  8
VERMASSUNG
100
AcDbTrace
 10
193.0157274383
 20
181.7282465524
 30
0.0
 11
196.0157274383
 21
181.2782465524
 31
0.0
 12
196.0157274383
 22
182.1782465524
 32
0.0
 13
196.0157274383
 23
182.1782465524
 33
0.0
  0
LINE
  5
17E
330
179
100
AcDbEntity
  8
VERMASSUNG
100
AcDbLine
 10
258.0157274383
 20
166.9649651705
 30
0.0
 11
258.0157274383
 21
182.7282465524
 31
0.0
  0
LINE
  5
17F
330
179
100
AcDbEntity
  8
VERMASSUNG
100
AcDbLine
 10
193.0157274383
 20
152.9649651705
 30
0.0
 11
193.0157274383
 21
182.7282465524
 31
0.0
  0
LINE
  5
180
330
179
100
AcDbEntity
  8
VERMASSUNG
100
AcDbLine
 10
258.0157274383
 20
181.7282465524
 30
0.0
 11
193.0157274383
 21
181.7282465524
 31
0.0
  0
MTEXT
  5
181
330
179
100
AcDbEntity
  8
VERMASSUNG
100
AcDbMText
 10
221.8657273522
 20
184.3063821483
 30
0.0
 40
2.0
 41
0.0
 71
     1
 72
     1
  1
65
  7
SLDTEXTSTYLE0
 73
     1
 44
1.0
  0
MTEXT
  5
182
330
179
100
AcDbEntity
  8
VERMASSUNG
100
AcDbMText
 10
225.8532272524
 20
184.3063821483
 30
0.0
 40
2.0
 41
0.0
 71
     1
 72
     1
  1

  7
SLDTEXTSTYLE0
 73
     1
 44
1.0
  0
MTEXT
  5
183
330
179
100
AcDbEntity
  8
VERMASSUNG
100
AcDbMText
 10
225.8657270766
 20
183.8118483147
 30
0.0
 40
1.5
 41
0.0
 71
     1
 72
     1
  1
±0.1
  7
SLDTEXTSTYLE0
 73
     1
 44
1.0
  0
ENDBLK
  5
17B
330
179
100
AcDbEntity
  8
0
100
AcDbBlockEnd
  0
BLOCK
  5
187
330
186
100
AcDbEntity
  8
0
100
AcDbBlockBegin
  2
_D_1
 70
     0
 10
0.0
 20
0.0
 30
0.0
  3
_D_1
  1

  0
SOLID
  5
189
330
186
100
AcDbEntity
  8
VERMASSUNG
100
AcDbTrace
 10
258.0157274383
 20
189.1298333195
 30
0.0
 11
255.0157274383
 21
189.5798333195
 31
0.0
 12
255.0157274383
 22
188.6798333195
 32
0.0
 13
255.0157274383
 23
188.6798333195
 33
0.0
  0
SOLID
  5
18A
330
186
100
AcDbEntity
  8
VERMASSUNG
100
AcDbTrace
 10
155.0157274383
 20
189.1298333195
 30
0.0
 11
158.0157274383
 21
188.6798333195
 31
0.0
 12
158.0157274383
 22
189.5798333195
 32
0.0
 13
158.0157274383
 23
189.5798333195
 33
0.0
  0
LINE
  5
18B
330
186
100
AcDbEntity
  8
VERMASSUNG
100
AcDbLine
 10
258.0157274383
 20
166.9649651705
 30
0.0
 11
258.0157274383
 21
190.1298333195
 31
0.0
  0
LINE
  5
18C
330
186
100
AcDbEntity
  8
VERMASSUNG
100
AcDbLine
 10
155.0157274383
 20
142.257303163
 30
0.0
 11
155.0157274383
 21
190.1298333195
 31
0.0
  0
LINE
  5
18D
330
186
100
AcDbEntity
  8
VERMASSUNG
100
AcDbLine
 10
258.0157274383
 20
189.1298333195
 30
0.0
 11
155.0157274383
 21
189.1298333195
 31
0.0
  0
MTEXT
  5
18E
330
186
100
AcDbEntity
  8
VERMASSUNG
100
AcDbMText
 10
204.6157274063
 20
191.7079689154
 30
0.0
 40
2.0
 41
0.0
 71
     1
 72
     1
  1
103
  7
SLDTEXTSTYLE0
 73
     1
 44
1.0
  0
ENDBLK
  5
188
330
186
100
AcDbEntity
  8
0
100
AcDbBlockEnd
  0
BLOCK
  5
192
330
191
100
AcDbEntity
  8
0
100
AcDbBlockBegin
  2
_D_2
 70
     0
 10
0.0
 20
0.0
 30
0.0
  3
_D_2
  1

  0
ARC
  5
194
330
191
100
AcDbEntity
  8
VERMASSUNG
100
AcDbCircle
 10
258.0157274383
 20
158.3166175635
 30
0.0
 40
15.91339113128038
100
AcDbArc
 50
90.0
 51
135.0144449196
  0
SOLID
  5
195
330
191
100
AcDbEntity
  8
VERMASSUNG
100
AcDbTrace
 10
258.0157274383
 20
174.2300086948
 30
0.0
 11
254.9868736692
 21
174.3989608941
 31
0.0
 12
255.0706025297
 22
173.5028640924
 32
0.0
 13
255.0706025297
 23
173.5028640924
 33
0.0
  0
SOLID
  5
196
330
191
100
AcDbEntity
  8
VERMASSUNG
100
AcDbTrace
 10
246.7604241401
 20
169.5662471113
 30
0.0
 11
249.3567153324
 21
171.1352506309
 31
0.0
 12
248.7821097974
 22
171.8279471583
 32
0.0
 13
248.7821097974
 23
171.8279471583
 33
0.0
  0
LINE
  5
197
330
191
100
AcDbEntity
  8
VERMASSUNG
100
AcDbLine
 10
258.0157274383
 20
166.9649651705
 30
0.0
 11
258.0157274383
 21
175.2300086948
 31
0.0
  0
LINE
  5
198
330
191
100
AcDbEntity
  8
VERMASSUNG
100
AcDbLine
 10
249.4809807274
 20
166.8470619449
 30
0.0
 11
246.0531391117
 21
170.2731756003
 31
0.0
  0
MTEXT
  5
199
330
191
100
AcDbEntity
  8
VERMASSUNG
100
AcDbMText
 10
248.9971272024
 20
174.5957886466
 30
0.0
 40
2.0
 41
0.0
 71
     1
 72
     1
  1
45°
  7
SLDTEXTSTYLE0
 11
0.9238312857418992
 21
0.3827998896087477
 31
0.0
 73
     1
 44
1.0
  0
ENDBLK
  5
193
330
191
100
AcDbEntity
  8
0
100
AcDbBlockEnd
  0
BLOCK
  5
19C
330
19B
100
AcDbEntity
  8
0
100
AcDbBlockBegin
  2
_D_3
 70
     0
 10
0.0
 20
0.0
 30
0.0
  3
_D_3
  1

  0
SOLID
  5
19E
330
19B
100
AcDbEntity
  8
VERMASSUNG
100
AcDbTrace
 10
266.0684210526
 20
121.9649651705
 30
0.0
 11
266.5184210526
 21
124.9649651705
 31
0.0
 12
265.6184210526
 22
124.9649651705
 32
0.0
 13
265.6184210526
 23
124.9649651705
 33
0.0
  0
SOLID
  5
19F
330
19B
100
AcDbEntity
  8
VERMASSUNG
100
AcDbTrace
 10
266.0684210526
 20
166.9649651705
 30
0.0
 11
265.6184210526
 21
163.9649651705
 31
0.0
 12
266.5184210526
 22
163.9649651705
 32
0.0
 13
266.5184210526
 23
163.9649651705
 33
0.0
  0
LINE
  5
1A0
330
19B
100
AcDbEntity
  8
VERMASSUNG
100
AcDbLine
 10
258.0157274383
 20
166.9649651705
 30
0.0
 11
267.0684210526
 21
166.9649651705
 31
0.0
  0
LINE
  5
1A1
330
19B
100
AcDbEntity
  8
VERMASSUNG
100
AcDbLine
 10
266.0684210526
 20
121.9649651705
 30
0.0
 11
266.0684210526
 21
166.9649651705
 31
0.0
  0
MTEXT
  5
1A2
330
19B
100
AcDbEntity
  8
VERMASSUNG
100
AcDbMText
 10
263.4902854567
 20
140.7149647886
 30
0.0
 40
2.0
 41
0.0
 71
     1
 72
     1
  1
45
  7
SLDTEXTSTYLE0
 11
6.123233995736766E-17
 21
1.0
 31
0.0
 73
     1
 44
1.0
  0
MTEXT
  5
1A3
330
19B
100
AcDbEntity
  8
VERMASSUNG
100
AcDbMText
 10
263.4902854567
 20
144.9024648147
 30
0.0
 40
2.0
 41
0.0
 71
     1
 72
     1
  1

  7
SLDTEXTSTYLE0
 11
6.123233995736766E-17
 21
1.0
 31
0.0
 73
     1
 44
1.0
  0
MTEXT
  5
1A4
330
19B
100
AcDbEntity
  8
VERMASSUNG
100
AcDbMText
 10
263.9848192903
 20
144.9149646389
 30
0.0
 40
1.5
 41
0.0
 71
     1
 72
     1
  1
±0.1
  7
SLDTEXTSTYLE0
 11
6.123233995736766E-17
 21
1.0
 31
0.0
 73
     1
 44
1.0
  0
ENDBLK
  5
19D
330
19B
100
AcDbEntity
  8
0
100
AcDbBlockEnd
  0
BLOCK
  5
1A7
330
1A6
100
AcDbEntity
  8
0
100
AcDbBlockBegin
  2
_D_4
 70
     0
 10
0.0
 20
0.0
 30
0.0
  3
_D_4
  1

  0
SOLID
  5
1A9
330
1A6
100
AcDbEntity
  8
VERMASSUNG
100
AcDbTrace
 10
145.0157274383
 20
153.4649651705
 30
0.0
 11
144.5657274383
 21
150.4649651705
 31
0.0
 12
145.4657274383
 22
150.4649651705
 32
0.0
 13
145.4657274383
 23
150.4649651705
 33
0.0
  0
SOLID
  5
1AA
330
1A6
100
AcDbEntity
  8
VERMASSUNG
100
AcDbTrace
 10
145.0157274383
 20
90.4649651705
 30
0.0
 11
145.4657274383
 21
93.4649651705
 31
0.0
 12
144.5657274383
 22
93.4649651705
 32
0.0
 13
144.5657274383
 23
93.4649651705
 33
0.0
  0
LINE
  5
1AB
330
1A6
100
AcDbEntity
  8
VERMASSUNG
100
AcDbLine
 10
193.5157274383
 20
153.4649651705
 30
0.0
 11
144.0157274383
 21
153.4649651705
 31
0.0
  0
LINE
  5
1AC
330
1A6
100
AcDbEntity
  8
VERMASSUNG
100
AcDbLine
 10
193.5157274383
 20
90.4649651705
 30
0.0
 11
144.0157274383
 21
90.4649651705
 31
0.0
  0
LINE
  5
1AD
330
1A6
100
AcDbEntity
  8
VERMASSUNG
100
AcDbLine
 10
145.0157274383
 20
153.4649651705
 30
0.0
 11
145.0157274383
 21
90.4649651705
 31
0.0
  0
MTEXT
  5
1AE
330
1A6
100
AcDbEntity
  8
VERMASSUNG
100
AcDbMText
 10
142.2375921821
 20
116.4599658607
 30
0.0
 40
2.0
 41
0.0
 71
     1
 72
     1
  1
PSC
  7
SLDTEXTSTYLE0
 11
-7.044195017643634E-15
 21
1.0
 31
0.0
 73
     1
 44
1.0
  0
MTEXT
  5
1AF
330
1A6
100
AcDbEntity
  8
VERMASSUNG
100
AcDbMText
 10
142.4375921334
 20
121.0599654971
 30
0.0
 40
2.0
 41
0.0
 71
     1
 72
     1
  1
%%c
  7
SLDTEXTSTYLE0
 11
-7.044195017643634E-15
 21
1.0
 31
0.0
 73
     1
 44
1.0
  0
MTEXT
  5
1B0
330
1A6
100
AcDbEntity
  8
VERMASSUNG
100
AcDbMText
 10
142.2375921821
 20
124.6699655114
 30
0.0
 40
2.0
 41
0.0
 71
     1
 72
     1
  1
63
  7
SLDTEXTSTYLE0
 11
-7.044195017643634E-15
 21
1.0
 31
0.0
 73
     1
 44
1.0
  0
ENDBLK
  5
1A8
330
1A6
100
AcDbEntity
  8
0
100
AcDbBlockEnd
  0
BLOCK
  5
211
330
210
100
AcDbEntity
  8
0
100
AcDbBlockBegin
  2
SW_CENTERMARKSYMBOL_0
 70
     0
 10
0.0
 20
0.0
 30
0.0
  3
SW_CENTERMARKSYMBOL_0
  1

  0
LINE
  5
213
330
210
100
AcDbEntity
  8
VERMASSUNG
 62
     0
100
AcDbLine
 10
0.0
 20
0.0
 30
0.0
 11
0.0
 21
2.5
 31
0.0
  0
LINE
  5
214
330
210
100
AcDbEntity
  8
VERMASSUNG
 62
     0
100
AcDbLine
 10
0.0
 20
0.0
 30
0.0
 11
-2.5
 21
0.0
 31
0.0
  0
LINE
  5
215
330
210
100
AcDbEntity
  8
VERMASSUNG
 62
     0
100
AcDbLine
 10
0.0
 20
0.0
 30
0.0
 11
0.0
 21
-2.5
 31
0.0
  0
LINE
  5
216
330
210
100
AcDbEntity
  8
VERMASSUNG
 62
     0
100
AcDbLine
 10
0.0
 20
0.0
 30
0.0
 11
2.5
 21
0.0
 31
0.0
  0
LINE
  5
217
330
210
100
AcDbEntity
  8
VERMASSUNG
 62
     0
100
AcDbLine
 10
0.0
 20
5.0
 30
0.0
 11
0.0
 21
46.0939004775
 31
0.0
  0
LINE
  5
218
330
210
100
AcDbEntity
  8
VERMASSUNG
 62
     0
100
AcDbLine
 10
-5.0
 20
0.0
 30
0.0
 11
-34.5
 21
0.0
 31
0.0
  0
LINE
  5
219
330
210
100
AcDbEntity
  8
VERMASSUNG
 62
     0
100
AcDbLine
 10
0.0
 20
-5.0
 30
0.0
 11
0.0
 21
-34.5
 31
0.0
  0
LINE
  5
21A
330
210
100
AcDbEntity
  8
VERMASSUNG
 62
     0
100
AcDbLine
 10
5.0
 20
0.0
 30
0.0
 11
34.5
 21
0.0
 31
0.0
  0
ENDBLK
  5
212
330
210
100
AcDbEntity
  8
0
100
AcDbBlockEnd
  0
ENDSEC
  0
SECTION
  2
ENTITIES
  0
MTEXT
  5
78
330
1F
100
AcDbEntity
  8
KOPF_DÜNN
100
AcDbMText
 10
13.8892156294
 20
23.8442973028
 30
0.0
 40
3.0
 41
0.0
 71
     1
 72
     1
  1
PS6.PSD.RSA.065
  7
SLDTEXTSTYLE0
 73
     1
 44
1.0
  0
MTEXT
  5
79
330
1F
100
AcDbEntity
  8
VERMASSUNG
100
AcDbMText
 10
13.9329988022
 20
28.8834360957
 30
0.0
 40
3.0
 41
0.0
 71
     1
 72
     1
  1
Klemmhalter rechts_Turning tool right 90°/45°
  7
SLDTEXTSTYLE0
 73
     1
 44
1.0
  0
MTEXT
  5
7A
330
1F
100
AcDbEntity
  8
VERMASSUNG
100
AcDbMText
 10
98.8601118557
 20
13.8365368761
 30
0.0
 40
2.0
 41
0.0
 71
     1
 72
     1
  1
Datum: 12.02.2018
  7
SLDTEXTSTYLE0
 73
     1
 44
1.0
  0
MTEXT
  5
7C
330
1F
100
AcDbEntity
  8
VERMASSUNG
100
AcDbMText
 10
13.933048693
 20
18.0482802738
 30
0.0
 40
2.0
 41
0.0
 71
     1
 72
     1
  1
PSC Ø63 / SN .. 12 04 ..
  7
SLDTEXTSTYLE1
 73
     1
 44
1.0
  0
MTEXT
  5
7D
330
1F
100
AcDbEntity
  8
VERMASSUNG
100
AcDbMText
 10
13.9808475933
 20
13.9090974274
 30
0.0
 40
2.0
 41
0.0
 71
     1
 72
     1
  1
Gewicht: 1237g
  7
SLDTEXTSTYLE0
 73
     1
 44
1.0
  0
ARC
  5
7E
330
1F
100
AcDbEntity
  8
0
  6
Continuous
 62
     7
370
    25
100
AcDbCircle
 10
214.0157274383
 20
135.6149651705
 30
0.0
 40
2.500000000000007
100
AcDbArc
 50
21.3713330904
 51
158.6286669096
  0
LINE
  5
7F
330
1F
100
AcDbEntity
  8
0
  6
Continuous
 62
     7
370
    25
100
AcDbLine
 10
247.0502266921
 20
159.2840989994
 30
0.0
 11
246.773043658
 21
158.9116041716
 31
0.0
  0
LINE
  5
80
330
1F
100
AcDbEntity
  8
0
  6
Continuous
 62
     7
370
    25
100
AcDbLine
 10
250.1029677556
 20
155.8486067547
 30
0.0
 11
250.6553272828
 21
156.5908999028
 31
0.0
  0
LINE
  5
81
330
1F
100
AcDbEntity
  8
0
  6
Continuous
 62
     7
370
    25
100
AcDbLine
 10
249.9991814587
 20
155.7322389075
 30
0.0
 11
250.0406896451
 21
155.7735418596
 31
0.0
  0
LINE
  5
82
330
1F
100
AcDbEntity
  8
0
  6
Continuous
 62
     7
370
    25
100
AcDbLine
 10
193.5157274383
 20
90.4649651705
 30
0.0
 11
230.2484004503
 21
90.4649651705
 31
0.0
  0
LINE
  5
83
330
1F
100
AcDbEntity
  8
0
  6
Continuous
 62
     7
370
    25
100
AcDbLine
 10
230.2484004503
 20
153.4649651705
 30
0.0
 11
193.5157274383
 21
153.4649651705
 31
0.0
  0
ARC
  5
84
330
1F
100
AcDbEntity
  8
0
  6
Continuous
 62
     7
370
    25
100
AcDbCircle
 10
193.5157274383
 20
90.9649651705
 30
0.0
 40
0.5
100
AcDbArc
 50
180.0
 51
270.0
  0
ARC
  5
85
330
1F
100
AcDbEntity
  8
0
  6
Continuous
 62
     7
370
    25
100
AcDbCircle
 10
193.5157274383
 20
152.9649651705
 30
0.0
 40
0.5
100
AcDbArc
 50
90.0
 51
180.0
  0
LWPOLYLINE
  5
86
330
1F
100
AcDbEntity
  8
0
  6
Continuous
 62
     7
370
    25
100
AcDbPolyline
 90
        3
 70
   128
 43
0.0
 10
192.8157274383
 20
99.4251448916
 10
192.9411823818
 20
99.3568427767
 10
193.0157274383
 20
99.3041050185
  0
LWPOLYLINE
  5
87
330
1F
100
AcDbEntity
  8
0
  6
Continuous
 62
     7
370
    25
100
AcDbPolyline
 90
        3
 70
   128
 43
0.0
 10
193.0157274383
 20
144.6258253224
 10
192.9411823818
 20
144.5730875643
 10
192.8157274383
 20
144.5047854494
  0
ARC
  5
88
330
1F
100
AcDbEntity
  8
0
  6
Continuous
 62
     7
370
    25
100
AcDbCircle
 10
230.2484004503
 20
89.4649651705
 30
0.0
 40
1.0
100
AcDbArc
 50
30.0
 51
90.0
  0
ARC
  5
89
330
1F
100
AcDbEntity
  8
0
  6
Continuous
 62
     7
370
    25
100
AcDbCircle
 10
230.2484004503
 20
154.4649651705
 30
0.0
 40
1.00000000000003
100
AcDbArc
 50
270.0
 51
345.0
  0
LINE
  5
8A
330
1F
100
AcDbEntity
  8
0
  6
Continuous
 62
     7
370
    25
100
AcDbLine
 10
231.1144258541
 20
89.9649651705
 30
0.0
 11
231.9943532981
 21
89.9649651705
 31
0.0
  0
LINE
  5
8B
330
1F
100
AcDbEntity
  8
0
  6
Continuous
 62
     7
370
    25
100
AcDbLine
 10
234.4344426978
 20
166.2237842156
 30
0.0
 11
231.2143262766
 21
154.2061461254
 31
0.0
  0
ARC
  5
8C
330
1F
100
AcDbEntity
  8
0
  6
Continuous
 62
     7
370
    25
100
AcDbCircle
 10
235.4003685241
 20
165.9649651705
 30
0.0
 40
1.000000000000014
100
AcDbArc
 50
159.2925144696
 51
165.0
  0
ARC
  5
8D
330
1F
100
AcDbEntity
  8
0
  6
Continuous
 62
     7
370
    25
100
AcDbCircle
 10
214.4290310624
 20
137.1580876493
 30
0.0
 40
2.588154911275059
100
AcDbArc
 50
1.9236292769
 51
71.3477005428
  0
ARC
  5
8E
330
1F
100
AcDbEntity
  8
0
  6
Continuous
 62
     7
370
    25
100
AcDbCircle
 10
213.9861120932
 20
136.9038423136
 30
0.0
 40
2.989907992198715
100
AcDbArc
 50
64.8501220413
 51
173.4487775065
  0
ARC
  5
8F
330
1F
100
AcDbEntity
  8
0
  6
Continuous
 62
     7
370
    25
100
AcDbCircle
 10
214.5084069203
 20
137.3192180447
 30
0.0
 40
2.354231845542069
100
AcDbArc
 50
338.8417469496
 51
72.9452216625
  0
LWPOLYLINE
  5
90
330
1F
100
AcDbEntity
  8
0
  6
Continuous
 62
     7
370
    25
100
AcDbPolyline
 90
       11
 70
   128
 43
0.0
 10
211.2509688674
 20
136.6811019886
 10
211.1691993561
 20
137.0748435179
 10
211.181985349
 20
137.6498223468
 10
211.3475391114
 20
138.2067489387
 10
211.6569355972
 20
138.7155992368
 10
212.0934951616
 20
139.1489409898
 10
212.6336827657
 20
139.4834126317
 10
213.2483767558
 20
139.7009827097
 10
213.9044388197
 20
139.7899219646
 10
214.566500482
 20
139.745435658
 10
215.1988698268
 20
139.5699220584
  0
LWPOLYLINE
  5
91
330
1F
100
AcDbEntity
  8
0
  6
Continuous
 62
     7
370
    25
100
AcDbPolyline
 90
       27
 70
   128
 43
0.0
 10
215.0499428129
 20
139.2860813312
 10
215.5645845463
 20
139.0144595789
 10
215.9892123344
 20
138.644069389
 10
216.2991483537
 20
138.196436493
 10
216.4763802493
 20
137.6975756877
 10
216.5106079476
 20
137.1764789499
 10
216.3998422592
 20
136.6634305279
 10
216.1505204834
 20
136.1882469311
 10
215.7771322954
 20
135.7785441029
 10
215.3013776596
 20
135.4581324824
 10
214.7509057061
 20
135.2456332285
 10
214.1577078639
 20
135.1533960254
 10
213.5562586354
 20
135.1867813639
 10
212.9815120637
 20
135.3438490097
 10
212.4668703303
 20
135.615470762
 10
212.0422425422
 20
135.985860952
 10
211.7323065229
 20
136.433493848
 10
211.5550746273
 20
136.9323546532
 10
211.520846929
 20
137.453451391
 10
211.6316126174
 20
137.9664998131
 10
211.8809343932
 20
138.4416834099
 10
212.2543225812
 20
138.8513862381
 10
212.730077217
 20
139.1717978585
 10
213.2805491705
 20
139.3842971124
 10
213.8737470127
 20
139.4765343156
 10
214.4751962412
 20
139.443148977
 10
215.0499428129
 20
139.2860813312
  0
LINE
  5
92
330
1F
100
AcDbEntity
  8
0
  6
Continuous
 62
     7
370
    25
100
AcDbLine
 10
248.9181000104
 20
166.8496947595
 30
0.0
 11
240.5890898891
 21
158.5155725998
 31
0.0
  0
ARC
  5
93
330
1F
100
AcDbEntity
  8
0
  6
Continuous
 62
     7
370
    25
100
AcDbCircle
 10
249.1982239936
 20
166.5669448219
 30
0.0
 40
0.3980162976131993
100
AcDbArc
 50
44.7313120079
 51
134.732702106
  0
LINE
  5
94
330
1F
100
AcDbEntity
  8
0
  6
Continuous
 62
     7
370
    25
100
AcDbLine
 10
257.8976719371
 20
158.4346135534
 30
0.0
 11
249.4809807274
 21
166.8470619449
 31
0.0
  0
ARC
  5
95
330
1F
100
AcDbEntity
  8
0
  6
Continuous
 62
     7
370
    25
100
AcDbCircle
 10
257.6176561128
 20
158.1516847739
 30
0.0
 40
0.3980672759352757
100
AcDbArc
 50
315.3034946566
 51
45.2964742013
  0
LINE
  5
96
330
1F
100
AcDbEntity
  8
0
  6
Continuous
 62
     7
370
    25
100
AcDbLine
 10
249.5716090793
 20
149.5375814593
 30
0.0
 11
257.9006192006
 21
157.8717036189
 31
0.0
  0
ARC
  5
97
330
1F
100
AcDbEntity
  8
0
  6
Continuous
 62
     7
370
    25
100
AcDbCircle
 10
249.2914850961
 20
149.8203313969
 30
0.0
 40
0.3980162976132692
100
AcDbArc
 50
224.7313120079
 51
314.7327021059
  0
LINE
  5
98
330
1F
100
AcDbEntity
  8
0
  6
Continuous
 62
     7
370
    25
100
AcDbLine
 10
240.5920371526
 20
157.9526626653
 30
0.0
 11
249.0087283623
 21
149.5402142738
 31
0.0
  0
ARC
  5
99
330
1F
100
AcDbEntity
  8
0
  6
Continuous
 62
     7
370
    25
100
AcDbCircle
 10
240.8720529769
 20
158.2355914449
 30
0.0
 40
0.3980672759352762
100
AcDbArc
 50
135.3034946566
 51
225.2964742013
  0
ARC
  5
9A
330
1F
100
AcDbEntity
  8
0
  6
Continuous
 62
     7
370
    25
100
AcDbCircle
 10
257.6176585677
 20
158.1518242849
 30
0.0
 40
0.3781639121385332
100
AcDbArc
 50
315.3034946566
 51
45.2964742013
  0
LINE
  5
9B
330
1F
100
AcDbEntity
  8
0
  6
Continuous
 62
     7
370
    25
100
AcDbLine
 10
257.8836736008
 20
158.4206066254
 30
0.0
 11
249.4669823911
 21
166.833055017
 31
0.0
  0
ARC
  5
9C
330
1F
100
AcDbEntity
  8
0
  6
Continuous
 62
     7
370
    25
100
AcDbCircle
 10
249.198363494
 20
166.56694375
 30
0.0
 40
0.3781154827324736
100
AcDbArc
 50
44.7313120078
 51
134.732702106
  0
LINE
  5
9D
330
1F
100
AcDbEntity
  8
0
  6
Continuous
 62
     7
370
    25
100
AcDbLine
 10
248.9322457099
 20
166.8355561907
 30
0.0
 11
240.6032355887
 21
158.5014340311
 31
0.0
  0
ARC
  5
9E
330
1F
100
AcDbEntity
  8
0
  6
Continuous
 62
     7
370
    25
100
AcDbCircle
 10
240.8720505221
 20
158.2354519339
 30
0.0
 40
0.3781639121385938
100
AcDbArc
 50
135.3034946567
 51
225.2964742013
  0
LINE
  5
9F
330
1F
100
AcDbEntity
  8
0
  6
Continuous
 62
     7
370
    25
100
AcDbLine
 10
240.606035489
 20
157.9666695933
 30
0.0
 11
249.0227266986
 21
149.5542212018
 31
0.0
  0
ARC
  5
A0
330
1F
100
AcDbEntity
  8
0
  6
Continuous
 62
     7
370
    25
100
AcDbCircle
 10
249.2913455956
 20
149.8203324681
 30
0.0
 40
0.3781154821439135
100
AcDbArc
 50
224.7313119634
 51
314.7327021913
  0
LINE
  5
A1
330
1F
100
AcDbEntity
  8
0
  6
Continuous
 62
     7
370
    25
100
AcDbLine
 10
249.5574633796
 20
149.5517200282
 30
0.0
 11
257.8864735011
 21
157.8858421877
 31
0.0
  0
LINE
  5
A2
330
1F
100
AcDbEntity
  8
0
  6
Continuous
 62
     7
370
    25
100
AcDbLine
 10
240.8502138114
 20
158.2111188968
 30
0.0
 11
240.606035489
 21
157.9666695933
 31
0.0
  0
LINE
  5
A3
330
1F
100
AcDbEntity
  8
0
  6
Continuous
 62
     7
370
    25
100
AcDbLine
 10
240.8502138114
 20
158.2111188968
 30
0.0
 11
240.6032355887
 21
158.5014340311
 31
0.0
  0
LINE
  5
A4
330
1F
100
AcDbEntity
  8
0
  6
Continuous
 62
     7
370
    25
100
AcDbLine
 10
249.1824170879
 20
151.561553906
 30
0.0
 11
249.2669050211
 21
149.7986705052
 31
0.0
  0
LINE
  5
A5
330
1F
100
AcDbEntity
  8
0
  6
Continuous
 62
     7
370
    25
100
AcDbLine
 10
249.2669050211
 20
149.7986705052
 30
0.0
 11
249.0227266986
 21
149.5542212018
 31
0.0
  0
LINE
  5
A6
330
1F
100
AcDbEntity
  8
0
  6
Continuous
 62
     7
370
    25
100
AcDbLine
 10
242.6126316652
 20
158.1280275278
 30
0.0
 11
240.8502138114
 21
158.2111188968
 31
0.0
  0
LINE
  5
A7
330
1F
100
AcDbEntity
  8
0
  6
Continuous
 62
     7
370
    25
100
AcDbLine
 10
249.0988470705
 20
149.0671569892
 30
0.0
 11
249.5716090793
 21
149.5375814593
 31
0.0
  0
ARC
  5
A8
330
1F
100
AcDbEntity
  8
0
  6
Continuous
 62
     7
370
    25
100
AcDbCircle
 10
248.8200229452
 20
149.3465596925
 30
0.0
 40
0.3947261879568945
100
AcDbArc
 50
262.3090922604
 51
314.9406154221
  0
LINE
  5
A9
330
1F
100
AcDbEntity
  8
0
  6
Continuous
 62
     7
370
    25
100
AcDbLine
 10
249.2669050211
 20
149.7986705052
 30
0.0
 11
249.5574633796
 21
149.5517200282
 31
0.0
  0
LINE
  5
AA
330
1F
100
AcDbEntity
  8
0
  6
Continuous
 62
     7
370
    25
100
AcDbLine
 10
243.1259701931
 20
161.0566376496
 30
0.0
 11
240.2772169519
 21
158.206135949
 31
0.0
  0
LINE
  5
AB
330
1F
100
AcDbEntity
  8
0
  6
Continuous
 62
     7
370
    25
100
AcDbLine
 10
248.5032409487
 20
166.4368869394
 30
0.0
 11
248.9181000104
 21
166.8496947595
 31
0.0
  0
LINE
  5
AC
330
1F
100
AcDbEntity
  8
0
  6
Continuous
 62
     7
370
    25
100
AcDbLine
 10
249.1792239326
 20
166.5452410564
 30
0.0
 11
248.9322457099
 21
166.8355561907
 31
0.0
  0
LINE
  5
AD
330
1F
100
AcDbEntity
  8
0
  6
Continuous
 62
     7
370
    25
100
AcDbLine
 10
249.1139761861
 20
164.6333623335
 30
0.0
 11
249.1792239326
 21
166.5452410564
 31
0.0
  0
LINE
  5
AE
330
1F
100
AcDbEntity
  8
0
  6
Continuous
 62
     7
370
    25
100
AcDbLine
 10
255.6837616087
 20
158.0668887117
 30
0.0
 11
257.5959151423
 21
158.1327926649
 31
0.0
  0
LINE
  5
AF
330
1F
100
AcDbEntity
  8
0
  6
Continuous
 62
     7
370
    25
100
AcDbLine
 10
257.5959151423
 20
158.1327926649
 30
0.0
 11
257.8864735011
 21
157.8858421877
 31
0.0
  0
ARC
  5
B0
330
1F
100
AcDbEntity
  8
0
  6
Continuous
 62
     7
370
    25
100
AcDbCircle
 10
245.9661971122
 20
158.2159498029
 30
0.0
 40
0.9951681898382301
100
AcDbArc
 50
135.3034946566
 51
225.2964742013
  0
ARC
  5
B1
330
1F
100
AcDbEntity
  8
0
  6
Continuous
 62
     7
370
    25
100
AcDbCircle
 10
249.268997372
 20
154.9146341481
 30
0.0
 40
0.9950407437500948
100
AcDbArc
 50
224.7313119917
 51
314.7327021405
  0
LINE
  5
B2
330
1F
100
AcDbEntity
  8
0
  6
Continuous
 62
     7
370
    25
100
AcDbLine
 10
245.2661575514
 20
157.508627854
 30
0.0
 11
248.5621055375
 21
154.2143413408
 31
0.0
  0
LINE
  5
B3
330
1F
100
AcDbEntity
  8
0
  6
Continuous
 62
     7
370
    25
100
AcDbLine
 10
248.5204017595
 20
162.1795169141
 30
0.0
 11
245.2587893927
 21
158.9159026902
 31
0.0
  0
ARC
  5
B4
330
1F
100
AcDbEntity
  8
0
  6
Continuous
 62
     7
370
    25
100
AcDbCircle
 10
249.2207117175
 20
161.4726420701
 30
0.0
 40
0.9950407440331193
100
AcDbArc
 50
44.7313120079
 51
134.732702106
  0
LINE
  5
B5
330
1F
100
AcDbEntity
  8
0
  6
Continuous
 62
     7
370
    25
100
AcDbLine
 10
253.2235515383
 20
158.8786483648
 30
0.0
 11
249.927603552
 21
162.1729348778
 31
0.0
  0
ARC
  5
B6
330
1F
100
AcDbEntity
  8
0
  6
Continuous
 62
     7
370
    25
100
AcDbCircle
 10
252.5235119776
 20
158.1713264159
 30
0.0
 40
0.9951681898382059
100
AcDbArc
 50
315.3034946566
 51
45.2964742013
  0
LINE
  5
B7
330
1F
100
AcDbEntity
  8
0
  6
Continuous
 62
     7
370
    25
100
AcDbLine
 10
249.9693073302
 20
154.2077593047
 30
0.0
 11
253.230919697
 21
157.4713735286
 31
0.0
  0
CIRCLE
  5
B8
330
1F
100
AcDbEntity
  8
0
  6
Continuous
 62
     7
370
    25
100
AcDbCircle
 10
249.2555854311
 20
158.209551306
 30
0.0
 40
2.573393945561433
  0
ARC
  5
B9
330
1F
100
AcDbEntity
  8
0
  6
Continuous
 62
     7
370
    25
100
AcDbCircle
 10
248.7546351982
 20
157.705842618
 30
0.0
 40
2.582867529692805
100
AcDbArc
 50
322.8273037198
 51
126.8886997866
  0
SPLINE
  5
BA
330
1F
100
AcDbEntity
  8
0
  6
Continuous
 62
     7
370
    25
100
AcDbSpline
210
0.0
220
0.0
230
1.0
 70
     8
 71
     3
 72
    11
 73
     7
 74
     0
 42
0.000000001
 43
0.00000001
 40
0.0
 40
0.0
 40
0.0
 40
0.0
 40
0.0079305662173009
 40
0.3127032304055375
 40
0.6558289395553363
 40
1.0
 40
1.0
 40
1.0
 40
1.0
 10
243.3093891281775
 20
158.1308852148293
 30
0.0
 10
243.3076563769303
 20
158.1307993629188
 30
0.0
 10
243.2393337757878
 20
158.1274142112105
 30
0.0
 10
243.0876193702476
 20
158.1221755503927
 30
0.0
 10
242.8440695967251
 20
158.1200384115797
 30
0.0
 10
242.6898558267348
 20
158.1253617901775
 30
0.0
 10
242.6126316652069
 20
158.128027527801
 30
0.0
  0
SPLINE
  5
BB
330
1F
100
AcDbEntity
  8
0
  6
Continuous
 62
     7
370
    25
100
AcDbSpline
210
0.0
220
0.0
230
1.0
 70
     8
 71
     3
 72
    11
 73
     7
 74
     0
 42
0.000000001
 43
0.00000001
 40
0.0
 40
0.0
 40
0.0
 40
0.0
 40
0.0079305662173145
 40
0.3127032304055268
 40
0.6558289395553469
 40
1.0
 40
1.0
 40
1.0
 40
1.0
 10
249.1849192063248
 20
152.2583169663427
 30
0.0
 10
249.1848338052138
 20
152.256584594718
 30
0.0
 10
249.1814664285918
 20
152.1882769621407
 30
0.0
 10
249.176279779247
 20
152.0365844091451
 30
0.0
 10
249.1742606630066
 20
151.7930383676243
 30
0.0
 10
249.1796955241689
 20
151.638793593264
 30
0.0
 10
249.1824170878548
 20
151.5615539059729
 30
0.0
  0
LINE
  5
BC
330
1F
100
AcDbEntity
  8
0
  6
Continuous
 62
     7
370
    25
100
AcDbLine
 10
249.1792239326
 20
166.5452410564
 30
0.0
 11
249.4669823911
 21
166.833055017
 31
0.0
  0
LINE
  5
BD
330
1F
100
AcDbEntity
  8
0
  6
Continuous
 62
     7
370
    25
100
AcDbLine
 10
257.5959151423
 20
158.1327926649
 30
0.0
 11
257.8836736008
 21
158.4206066254
 31
0.0
  0
SPLINE
  5
BE
330
1F
100
AcDbEntity
  8
0
  6
Continuous
 62
     7
370
    25
100
AcDbSpline
210
0.0
220
0.0
230
1.0
 70
     8
 71
     3
 72
    11
 73
     7
 74
     0
 42
0.000000001
 43
0.00000001
 40
0.0
 40
0.0
 40
0.0
 40
0.0
 40
0.3441710604446317
 40
0.687296769594391
 40
0.992069433782583
 40
1.0
 40
1.0
 40
1.0
 40
1.0
 10
249.1139761860636
 20
164.6333623334941
 30
0.0
 10
249.1120874589433
 20
164.5515351506573
 30
0.0
 10
249.1083157413366
 20
164.3881293188126
 30
0.0
 10
249.1128510091608
 20
164.1511052536625
 30
0.0
 10
249.1195641150213
 20
164.0112536183663
 30
0.0
 10
249.1236081642986
 20
163.9503207664106
 30
0.0
 10
249.1237107267202
 20
163.948775428946
 30
0.0
  0
SPLINE
  5
BF
330
1F
100
AcDbEntity
  8
0
  6
Continuous
 62
     7
370
    25
100
AcDbSpline
210
0.0
220
0.0
230
1.0
 70
     8
 71
     3
 72
    11
 73
     7
 74
     0
 42
0.000000001
 43
0.00000001
 40
0.0
 40
0.0
 40
0.0
 40
0.0
 40
0.3441710604446163
 40
0.6872967695943777
 40
0.9920694337826036
 40
1.0
 40
1.0
 40
1.0
 40
1.0
 10
255.6837616087115
 20
158.0668887116661
 30
0.0
 10
255.6019271563774
 20
158.0649669537437
 30
0.0
 10
255.4385068076182
 20
158.0611292748574
 30
0.0
 10
255.20151141816
 20
158.0655141124146
 30
0.0
 10
255.0616967678258
 20
158.0721163692972
 30
0.0
 10
255.0007855925821
 20
158.0761059982099
 30
0.0
 10
254.9992408048675
 20
158.0762071804594
 30
0.0
  0
CIRCLE
  5
C0
330
1F
100
AcDbEntity
  8
0
  6
Continuous
 62
     7
370
    25
100
AcDbCircle
 10
238.2128890974
 20
151.8775367507
 30
0.0
 40
3.481073318531222
  0
CIRCLE
  5
C1
330
1F
100
AcDbEntity
  8
0
  6
Continuous
 62
     7
370
    25
100
AcDbCircle
 10
238.2276526023
 20
151.8779774121
 30
0.0
 40
1.987977623254995
  0
SPLINE
  5
C2
330
1F
100
AcDbEntity
  8
0
  6
Continuous
 62
     7
370
    25
100
AcDbSpline
210
0.0
220
0.0
230
1.0
 70
     8
 71
     3
 72
    11
 73
     7
 74
     0
 42
0.000000001
 43
0.00000001
 40
0.0
 40
0.0
 40
0.0
 40
0.0
 40
0.1081100880371222
 40
0.4711580666043553
 40
0.8135808430836146
 40
1.0
 40
1.0
 40
1.0
 40
1.0
 10
237.2917866699145
 20
150.4066457609291
 30
0.0
 10
237.347210584905
 20
150.4006540203438
 30
0.0
 10
237.5887553390047
 20
150.374541222167
 30
0.0
 10
238.0589844775252
 20
150.3351572098679
 30
0.0
 10
238.6080160463302
 20
150.3147779677416
 30
0.0
 10
238.907810253042
 20
150.3121109630656
 30
0.0
 10
239.0134890574908
 20
150.3111708319379
 30
0.0
  0
SPLINE
  5
C3
330
1F
100
AcDbEntity
  8
0
  6
Continuous
 62
     7
370
    25
100
AcDbSpline
210
0.0
220
0.0
230
1.0
 70
     8
 71
     3
 72
    10
 73
     6
 74
     0
 42
0.000000001
 43
0.00000001
 40
0.0
 40
0.0
 40
0.0
 40
0.0
 40
0.4391165375904111
 40
0.7513669429073455
 40
1.0
 40
1.0
 40
1.0
 40
1.0
 10
239.0134890574908
 20
150.3111708319379
 30
0.0
 10
239.1362437277262
 20
150.5075409471414
 30
0.0
 10
239.3462877443066
 20
150.8435474522675
 30
0.0
 10
239.6847643445247
 20
151.3649689160989
 30
0.0
 10
239.8631613616369
 20
151.6343740795192
 30
0.0
 10
239.942242665889
 20
151.7537982270774
 30
0.0
  0
SPLINE
  5
C4
330
1F
100
AcDbEntity
  8
0
  6
Continuous
 62
     7
370
    25
100
AcDbSpline
210
0.0
220
0.0
230
1.0
 70
     8
 71
     3
 72
    10
 73
     6
 74
     0
 42
0.000000001
 43
0.00000001
 40
0.0
 40
0.0
 40
0.0
 40
0.0
 40
0.4391165375904101
 40
0.7513669429073448
 40
1.0
 40
1.0
 40
1.0
 40
1.0
 10
239.942242665889
 20
151.7537982270774
 30
0.0
 10
239.8185223663669
 20
151.9638363144028
 30
0.0
 10
239.6068260733108
 20
152.3232299196489
 30
0.0
 10
239.3322286456299
 20
152.8786486641384
 30
0.0
 10
239.2054800512459
 20
153.1649753093431
 30
0.0
 10
239.1492938867109
 20
153.291900551208
 30
0.0
  0
SPLINE
  5
C5
330
1F
100
AcDbEntity
  8
0
  6
Continuous
 62
     7
370
    25
100
AcDbSpline
210
0.0
220
0.0
230
1.0
 70
     8
 71
     3
 72
    11
 73
     7
 74
     0
 42
0.000000001
 43
0.00000001
 40
0.0
 40
0.0
 40
0.0
 40
0.0
 40
0.1864191569163854
 40
0.5288419333956448
 40
0.891889911962878
 40
1.0
 40
1.0
 40
1.0
 40
1.0
 10
239.1492938867109
 20
153.291900551208
 30
0.0
 10
239.0436150822621
 20
153.2928406823356
 30
0.0
 10
238.7438208755502
 20
153.2955076870116
 30
0.0
 10
238.1947893067453
 20
153.3158869291379
 30
0.0
 10
237.7245601682247
 20
153.3552709414369
 30
0.0
 10
237.4830154141251
 20
153.3813837396137
 30
0.0
 10
237.4275914991345
 20
153.3873754801991
 30
0.0
  0
SPLINE
  5
C6
330
1F
100
AcDbEntity
  8
0
  6
Continuous
 62
     7
370
    25
100
AcDbSpline
210
0.0
220
0.0
230
1.0
 70
     8
 71
     3
 72
    10
 73
     6
 74
     0
 42
0.000000001
 43
0.00000001
 40
0.0
 40
0.0
 40
0.0
 40
0.0
 40
0.4391165375904115
 40
0.7513669429073468
 40
1.0
 40
1.0
 40
1.0
 40
1.0
 10
237.4275914991345
 20
153.3873754801991
 30
0.0
 10
237.2844296913607
 20
153.1706991291211
 30
0.0
 10
237.0394672710467
 20
152.7999468718658
 30
0.0
 10
236.7165116519276
 20
152.2939696467281
 30
0.0
 10
236.565693713181
 20
152.0520071988498
 30
0.0
 10
236.4988378907363
 20
151.9447480850596
 30
0.0
  0
SPLINE
  5
C7
330
1F
100
AcDbEntity
  8
0
  6
Continuous
 62
     7
370
    25
100
AcDbSpline
210
0.0
220
0.0
230
1.0
 70
     8
 71
     3
 72
    10
 73
     6
 74
     0
 42
0.000000001
 43
0.00000001
 40
0.0
 40
0.0
 40
0.0
 40
0.0
 40
0.439116537590416
 40
0.751366942907352
 40
1.0
 40
1.0
 40
1.0
 40
1.0
 10
236.4988378907363
 20
151.9447480850596
 30
0.0
 10
236.6021510527201
 20
151.7144037618597
 30
0.0
 10
236.7789289420426
 20
151.3202644044843
 30
0.0
 10
237.0690473508224
 20
150.7802898986886
 30
0.0
 10
237.2233750235719
 20
150.5214059690259
 30
0.0
 10
237.2917866699145
 20
150.4066457609291
 30
0.0
  0
LINE
  5
C8
330
1F
100
AcDbEntity
  8
0
  6
Continuous
 62
     7
370
    25
100
AcDbLine
 10
238.8813354459
 20
150.3128176194
 30
0.0
 11
239.1071995095
 21
150.6636509111
 31
0.0
  0
LINE
  5
C9
330
1F
100
AcDbEntity
  8
0
  6
Continuous
 62
     7
370
    25
100
AcDbLine
 10
239.1071995095
 20
150.6636509111
 30
0.0
 11
239.5715763137
 21
151.3849646087
 31
0.0
  0
LINE
  5
CA
330
1F
100
AcDbEntity
  8
0
  6
Continuous
 62
     7
370
    25
100
AcDbLine
 10
239.5715763137
 20
151.3849646087
 30
0.0
 11
239.9422426659
 21
151.7537982271
 31
0.0
  0
LINE
  5
CB
330
1F
100
AcDbEntity
  8
0
  6
Continuous
 62
     7
370
    25
100
AcDbLine
 10
239.5715763137
 20
151.3849646087
 30
0.0
 11
239.1751019241
 21
152.1540157708
 31
0.0
  0
LINE
  5
CC
330
1F
100
AcDbEntity
  8
0
  6
Continuous
 62
     7
370
    25
100
AcDbLine
 10
239.1751019241
 20
152.1540157708
 30
0.0
 11
238.7786275345
 21
152.9230669328
 31
0.0
  0
LINE
  5
CD
330
1F
100
AcDbEntity
  8
0
  6
Continuous
 62
     7
370
    25
100
AcDbLine
 10
238.7786275345
 20
152.9230669328
 30
0.0
 11
239.1492938867
 21
153.2919005512
 31
0.0
  0
LINE
  5
CE
330
1F
100
AcDbEntity
  8
0
  6
Continuous
 62
     7
370
    25
100
AcDbLine
 10
238.7786275345
 20
152.9230669328
 30
0.0
 11
237.9177763407
 21
152.9708043973
 31
0.0
  0
LINE
  5
CF
330
1F
100
AcDbEntity
  8
0
  6
Continuous
 62
     7
370
    25
100
AcDbLine
 10
237.9177763407
 20
152.9708043973
 30
0.0
 11
237.1810254178
 21
153.011660031
 31
0.0
  0
ARC
  5
D0
330
1F
100
AcDbEntity
  8
0
  6
Continuous
 62
     7
370
    25
100
AcDbCircle
 10
237.8517771322
 20
151.4675784054
 30
0.0
 40
1.490766501251495
100
AcDbArc
 50
327.3659574818
 51
27.4167521096
  0
ARC
  5
D1
330
1F
100
AcDbEntity
  8
0
  6
Continuous
 62
     7
370
    25
100
AcDbCircle
 10
237.8704388255
 20
151.4597819908
 30
0.0
 40
1.470850667287007
100
AcDbArc
 50
308.0626358657
 51
327.2296916176
  0
ARC
  5
D2
330
1F
100
AcDbEntity
  8
0
  6
Continuous
 62
     7
370
    25
100
AcDbCircle
 10
237.8341149479
 20
151.4927678405
 30
0.0
 40
1.480402408793688
100
AcDbArc
 50
86.7603404259
 51
126.6061600314
  0
ARC
  5
D3
330
1F
100
AcDbEntity
  8
0
  6
Continuous
 62
     7
370
    25
100
AcDbCircle
 10
237.831843905
 20
151.4623961612
 30
0.0
 40
1.510853993660421
100
AcDbArc
 50
27.2431314274
 51
86.7394438013
  0
LINE
  5
D4
330
1F
100
AcDbEntity
  8
0
  6
Continuous
 62
     7
370
    25
100
AcDbLine
 10
249.4230519509
 20
155.6308201748
 30
0.0
 11
249.5514443104
 21
155.8033613623
 31
0.0
  0
LINE
  5
D5
330
1F
100
AcDbEntity
  8
0
  6
Continuous
 62
     7
370
    25
100
AcDbLine
 10
249.5514443104
 20
155.8033613623
 30
0.0
 11
250.3630549625
 21
156.2695824901
 31
0.0
  0
LINE
  5
D6
330
1F
100
AcDbEntity
  8
0
  6
Continuous
 62
     7
370
    25
100
AcDbLine
 10
250.3630549625
 20
156.2695824901
 30
0.0
 11
250.1574353211
 21
155.9932587491
 31
0.0
  0
ELLIPSE
  5
D7
330
1F
100
AcDbEntity
  8
0
  6
Continuous
 62
     7
370
    25
100
AcDbEllipse
 10
248.8527769874
 20
157.9374994511
 30
0.0
 11
1.647968403595371
 21
-1.532235296726498
 31
0.0
210
0.0
220
0.0
230
1.0
 40
0.9912898008
 41
6.196498755316308
 42
8.915669648187713
  0
ELLIPSE
  5
D8
330
1F
100
AcDbEntity
  8
0
  6
Continuous
 62
     7
370
    25
100
AcDbEllipse
 10
248.8527769874
 20
157.9374994511
 30
0.0
 11
1.647968403595371
 21
-1.532235296726498
 31
0.0
210
0.0
220
0.0
230
1.0
 40
0.9912898008
 41
3.0549061017265
 42
3.595087045901479
  0
ELLIPSE
  5
D9
330
1F
100
AcDbEntity
  8
0
  6
Continuous
 62
     7
370
    25
100
AcDbEllipse
 10
248.8527769874
 20
157.9374994511
 30
0.0
 11
1.647968403595371
 21
-1.532235296726498
 31
0.0
210
0.0
220
0.0
230
1.0
 40
0.9912898008
 41
5.346329553993036
 42
5.774076994597969
  0
LINE
  5
DA
330
1F
100
AcDbEntity
  8
0
  6
Continuous
 62
     7
370
    25
100
AcDbLine
 10
248.1541096644
 20
160.0716375399
 30
0.0
 11
247.3424990124
 21
159.6054164121
 31
0.0
  0
SPLINE
  5
DB
330
1F
100
AcDbEntity
  8
0
  6
Continuous
 62
     7
370
    25
100
AcDbSpline
210
0.0
220
0.0
230
1.0
 70
     8
 71
     3
 72
    10
 73
     6
 74
     0
 42
0.000000001
 43
0.00000001
 40
0.0
 40
0.0
 40
0.0
 40
0.0
 40
0.2502942085301788
 40
0.6354791699120733
 40
1.0
 40
1.0
 40
1.0
 40
1.0
 10
250.1574353210933
 20
155.9932587491452
 30
0.0
 10
250.1330858169303
 20
155.9600955049205
 30
0.0
 10
250.0712641599927
 20
155.8758963896665
 30
0.0
 10
249.9826052000193
 20
155.7448436925707
 30
0.0
 10
250.0210783681853
 20
155.7648527071702
 30
0.0
 10
250.0397847345433
 20
155.7745814603613
 30
0.0
  0
SPLINE
  5
DC
330
1F
100
AcDbEntity
  8
0
  6
Continuous
 62
     7
370
    25
100
AcDbSpline
210
0.0
220
0.0
230
1.0
 70
     8
 71
     3
 72
     9
 73
     5
 74
     0
 42
0.000000001
 43
0.00000001
 40
0.0
 40
0.0
 40
0.0
 40
0.0
 40
0.2990679874882904
 40
0.9999999999999999
 40
0.9999999999999999
 40
0.9999999999999999
 40
0.9999999999999999
 10
246.9436696266565
 20
159.1409013615363
 30
0.0
 10
246.9368132424553
 20
159.1362737779294
 30
0.0
 10
246.9138874045591
 20
159.1208004280541
 30
0.0
 10
246.8815894912968
 20
159.1001749052537
 30
0.0
 10
246.8589508499539
 20
159.0857178160481
 30
0.0
  0
LWPOLYLINE
  5
DD
330
1F
100
AcDbEntity
  8
0
  6
Continuous
 62
     7
370
    25
100
AcDbPolyline
 90
        3
 70
   128
 43
0.0
 10
247.1462848592
 20
159.6932064116
 10
247.728040743
 20
159.834958914
 10
247.7461261224
 20
159.8372757229
  0
LWPOLYLINE
  5
DE
330
1F
100
AcDbEntity
  8
0
  6
Continuous
 62
     7
370
    25
100
AcDbPolyline
 90
        3
 70
   128
 43
0.0
 10
250.9040292103
 20
157.0173437896
 10
250.8357496361
 20
156.4317884977
 10
250.734002543
 20
156.0876613626
  0
LINE
  5
DF
330
1F
100
AcDbEntity
  8
0
  6
Continuous
 62
     7
370
    25
100
AcDbLine
 10
243.1259701931
 20
161.0566376496
 30
0.0
 11
240.6762613339
 21
158.6054252497
 31
0.0
  0
LINE
  5
E0
330
1F
100
AcDbEntity
  8
0
  6
Continuous
 62
     7
370
    25
100
AcDbLine
 10
240.3902204546
 20
158.3207986795
 30
0.0
 11
240.3546734917
 21
158.2836400288
 31
0.0
  0
LINE
  5
E1
330
1F
100
AcDbEntity
  8
0
  6
Continuous
 62
     7
370
    25
100
AcDbLine
 10
242.8399293138
 20
160.7720110794
 30
0.0
 11
240.3902204546
 21
158.3207986795
 31
0.0
  0
ELLIPSE
  5
E2
330
1F
100
AcDbEntity
  8
0
  6
Continuous
 62
     7
370
    25
100
AcDbEllipse
 10
226.7727409867
 20
121.9649651705
 30
0.0
 11
-0.9023734997073235
 21
31.49908256339235
 31
0.0
210
0.0
220
0.0
230
1.0
 40
0.2664212198
 41
0.2348369558593211
 42
2.692523795855928
  0
ELLIPSE
  5
E3
330
1F
100
AcDbEntity
  8
0
  6
Continuous
 62
     7
370
    25
100
AcDbEllipse
 10
222.6117694214
 20
138.3133281178
 30
0.0
 11
0.2371374472745345
 21
3.343481664962241
 31
0.0
210
0.0
220
0.0
230
1.0
 40
0.217817511
 41
0.0
 42
6.283185307179586
  0
SPLINE
  5
E4
330
1F
100
AcDbEntity
  8
0
  6
Continuous
 62
     7
370
    25
100
AcDbSpline
210
0.0
220
0.0
230
1.0
 70
    11
 71
     3
 72
    68
 73
    64
 74
     0
 42
0.000000001
 43
0.00000001
 40
0.0
 40
0.0
 40
0.0
 40
0.0
 40
0.0312499999999998
 40
0.0312499999999998
 40
0.0624999999999996
 40
0.0624999999999996
 40
0.0937499999999993
 40
0.0937499999999993
 40
0.1249999999999991
 40
0.1249999999999991
 40
0.1562499999999989
 40
0.1562499999999989
 40
0.1874999999999987
 40
0.1874999999999987
 40
0.2187499999999984
 40
0.2187499999999984
 40
0.2499999999999982
 40
0.2499999999999982
 40
0.281249999999998
 40
0.281249999999998
 40
0.3124999999999978
 40
0.3124999999999978
 40
0.3437499999999976
 40
0.3437499999999976
 40
0.3749999999999973
 40
0.3749999999999973
 40
0.4062499999999971
 40
0.4062499999999971
 40
0.4374999999999969
 40
0.4374999999999969
 40
0.4687499999999967
 40
0.4687499999999967
 40
0.4999999999999964
 40
0.4999999999999964
 40
0.5312499999999967
 40
0.5312499999999967
 40
0.5624999999999969
 40
0.5624999999999969
 40
0.5937499999999971
 40
0.5937499999999971
 40
0.6249999999999973
 40
0.6249999999999973
 40
0.6562499999999976
 40
0.6562499999999976
 40
0.6874999999999978
 40
0.6874999999999978
 40
0.718749999999998
 40
0.718749999999998
 40
0.7499999999999982
 40
0.7499999999999982
 40
0.7812499999999984
 40
0.7812499999999984
 40
0.8124999999999987
 40
0.8124999999999987
 40
0.8437499999999989
 40
0.8437499999999989
 40
0.8749999999999991
 40
0.8749999999999991
 40
0.9062499999999993
 40
0.9062499999999993
 40
0.9374999999999996
 40
0.9374999999999996
 40
1.0
 40
1.0
 40
1.0
 40
1.0
 10
211.0157274383021
 20
137.7149651704834
 30
0.0
 10
211.0157274383021
 20
137.5432195794201
 30
0.0
 10
211.0351981114025
 20
137.3734277136853
 30
0.0
 10
211.1114671375227
 20
137.0376889907522
 30
0.0
 10
211.1691992445371
 20
136.8699716460912
 30
0.0
 10
211.3198181555156
 20
136.5487576385793
 30
0.0
 10
211.4119716198258
 20
136.3956410425161
 30
0.0
 10
211.6296721280856
 20
136.1046641654375
 30
0.0
 10
211.756312529221
 20
135.9663221575788
 30
0.0
 10
212.03293123541
 20
135.7174773467951
 30
0.0
 10
212.1838861524175
 20
135.6053225571184
 30
0.0
 10
212.5117741806461
 20
135.4066834802963
 30
0.0
 10
212.6862231498598
 20
135.3220480885823
 30
0.0
 10
213.0471547526082
 20
135.1858357524978
 30
0.0
 10
213.2363064906174
 20
135.1332375915204
 30
0.0
 10
213.6236011758752
 20
135.0628445408769
 30
0.0
 10
213.8183227204244
 20
135.0453956263416
 30
0.0
 10
214.2098609579392
 20
135.0452005473853
 30
0.0
 10
214.4087273545165
 20
135.0630252558711
 30
0.0
 10
214.7935675657426
 20
135.1329283851787
 30
0.0
 10
214.9806268170891
 20
135.1846218056679
 30
0.0
 10
215.3439715342444
 20
135.3214025016461
 30
0.0
 10
215.5195147572645
 20
135.4067199822308
 30
0.0
 10
215.8444961835036
 20
135.6033254988734
 30
0.0
 10
215.996009082056
 20
135.7152995890857
 30
0.0
 10
216.2762131801664
 20
135.9672015796913
 30
0.0
 10
216.4003172801428
 20
136.1030142728586
 30
0.0
 10
216.6176255989023
 20
136.3928539597795
 30
0.0
 10
216.7116235997868
 20
136.5487293612251
 30
0.0
 10
216.8622702708587
 20
136.8700031596883
 30
0.0
 10
216.919072300978
 20
137.0345691805099
 30
0.0
 10
216.9959563036208
 20
137.3712094090941
 30
0.0
 10
217.015655525926
 20
137.5444151411855
 30
0.0
 10
217.0157989483972
 20
137.8836124115617
 30
0.0
 10
216.9968800894007
 20
138.0513247666896
 30
0.0
 10
216.920188087663
 20
138.3829956979643
 30
0.0
 10
216.8626499200097
 20
138.5444227923674
 30
0.0
 10
216.7132854316586
 20
138.8505964259967
 30
0.0
 10
216.6203730461234
 20
138.9976836285188
 30
0.0
 10
216.4012729182717
 20
139.2732229673733
 30
0.0
 10
216.2772395591055
 20
139.3994215486584
 30
0.0
 10
216.0009362139157
 20
139.6298344659668
 30
0.0
 10
215.846787872418
 20
139.7348736245285
 30
0.0
 10
215.5209236337894
 20
139.9150147719338
 30
0.0
 10
215.3487625637984
 20
139.9909892311587
 30
0.0
 10
214.9858090871517
 20
140.1149940591247
 30
0.0
 10
214.7951674039325
 20
140.1624879965475
 30
0.0
 10
214.411657898626
 20
140.2252427152584
 30
0.0
 10
214.2167648467342
 20
140.2412935069131
 30
0.0
 10
213.8204433342344
 20
140.2416044404375
 30
0.0
 10
213.6250804948254
 20
140.2258119322647
 30
0.0
 10
213.2414794177169
 20
140.1636249502591
 30
0.0
 10
213.0509871256811
 20
140.1164938673902
 30
0.0
 10
212.6874211022803
 20
139.9929210457894
 30
0.0
 10
212.5150617495846
 20
139.9171657051396
 30
0.0
 10
212.1889410009163
 20
139.737580488318
 30
0.0
 10
212.0345165177156
 20
139.6327509472931
 30
0.0
 10
211.7576469878407
 20
139.4026895827157
 30
0.0
 10
211.6333972418693
 20
139.2767081683626
 30
0.0
 10
211.4138983739136
 20
139.0017688709041
 30
0.0
 10
211.3205006042076
 20
138.8545861268399
 30
0.0
 10
211.0955393695072
 20
138.3957859014075
 30
0.0
 10
211.0157274383021
 20
138.0584563526099
 30
0.0
 10
211.0157274383021
 20
137.7149651704834
 30
0.0
  0
SPLINE
  5
E5
330
1F
100
AcDbEntity
  8
0
  6
Continuous
 62
     7
370
    25
100
AcDbSpline
210
0.0
220
0.0
230
1.0
 70
     8
 71
     3
 72
    20
 73
    16
 74
     0
 42
0.000000001
 43
0.00000001
 40
0.0
 40
0.0
 40
0.0
 40
0.0
 40
0.2499999999999997
 40
0.2499999999999997
 40
0.3749999999999997
 40
0.3749999999999997
 40
0.4999999999999998
 40
0.4999999999999998
 40
0.6249999999999998
 40
0.6249999999999998
 40
0.7499999999999999
 40
0.7499999999999999
 40
0.8749999999999999
 40
0.8749999999999999
 40
1.0
 40
1.0
 40
1.0
 40
1.0
 10
229.1420787962564
 20
91.83335591381164
 30
0.0
 10
228.5241417538866
 20
91.85168981925385
 30
0.0
 10
227.9321988745456
 20
91.89716145459609
 30
0.0
 10
227.0827683863068
 20
92.01148406676349
 30
0.0
 10
226.8097129181568
 20
92.0571339219488
 30
0.0
 10
226.294288582546
 20
92.16281129829588
 30
0.0
 10
226.0500936188307
 20
92.22307277359309
 30
0.0
 10
225.5890341858836
 20
92.36053942026436
 30
0.0
 10
225.372823694058
 20
92.43784516522393
 30
0.0
 10
224.9822359929312
 20
92.60605225730548
 30
0.0
 10
224.805756388917
 20
92.69752118775537
 30
0.0
 10
224.4898758793129
 20
92.89686158998533
 30
0.0
 10
224.3501603568638
 20
93.00535516917682
 30
0.0
 10
224.1149830984192
 20
93.234674877505
 30
0.0
 10
224.018408332088
 20
93.35602313418735
 30
0.0
 10
223.9424423369838
 20
93.48459317558475
 30
0.0
  0
ELLIPSE
  5
E6
330
1F
100
AcDbEntity
  8
0
  6
Continuous
 62
     7
370
    25
100
AcDbEllipse
 10
290.7110389641
 20
121.9649651705
 30
0.0
 11
315.5891455672083
 21
-3.159736421071884
 31
0.0
210
0.0
220
0.0
230
1.0
 40
0.0993098927
 41
4.517031997974541
 42
4.520604989393693
  0
ELLIPSE
  5
E7
330
1F
100
AcDbEntity
  8
0
  6
Continuous
 62
     7
370
    25
100
AcDbEllipse
 10
290.7110389641
 20
121.9649651705
 30
0.0
 11
315.5891455672083
 21
-3.159736421071884
 31
0.0
210
0.0
220
0.0
230
1.0
 40
0.0993098927
 41
1.764568934859962
 42
1.768141926279115
  0
SPLINE
  5
E8
330
1F
100
AcDbEntity
  8
0
  6
Continuous
 62
     7
370
    25
100
AcDbSpline
210
0.0
220
0.0
230
1.0
 70
     8
 71
     3
 72
    20
 73
    16
 74
     0
 42
0.000000001
 43
0.00000001
 40
0.0
 40
0.0
 40
0.0
 40
0.0
 40
0.2499999999999988
 40
0.2499999999999988
 40
0.3749999999999989
 40
0.3749999999999989
 40
0.499999999999999
 40
0.499999999999999
 40
0.6249999999999992
 40
0.6249999999999992
 40
0.7499999999999996
 40
0.7499999999999996
 40
0.8749999999999998
 40
0.8749999999999998
 40
1.0
 40
1.0
 40
1.0
 40
1.0
 10
223.9424423369838
 20
152.5435301178781
 30
0.0
 10
224.0943953766628
 20
152.6880580683767
 30
0.0
 10
224.3264178476904
 20
152.8073948845111
 30
0.0
 10
224.8007785775368
 20
152.956516664184
 30
0.0
 10
224.9799377268388
 20
153.0008866310156
 30
0.0
 10
225.3697710066175
 20
153.0783529826318
 30
0.0
 10
225.5817026117762
 20
153.111877062007
 30
0.0
 10
226.0403825449363
 20
153.1703838007411
 30
0.0
 10
226.289224989934
 20
153.1954699474684
 30
0.0
 10
226.8063071464206
 20
153.2372295045387
 30
0.0
 10
227.0758444811514
 20
153.2541530762981
 30
0.0
 10
227.6368233661915
 20
153.2818575906555
 30
0.0
 10
227.9304595748245
 20
153.29268477413
 30
0.0
 10
228.528869230928
 20
153.308861037922
 30
0.0
 10
228.8329886665377
 20
153.3142511761253
 30
0.0
 10
229.1420787962564
 20
153.3172934508381
 30
0.0
  0
SPLINE
  5
E9
330
1F
100
AcDbEntity
  8
0
  6
Continuous
 62
     7
370
    25
100
AcDbSpline
210
0.0
220
0.0
230
1.0
 70
     8
 71
     3
 72
    12
 73
     8
 74
     0
 42
0.000000001
 43
0.00000001
 40
0.0
 40
0.0
 40
0.0
 40
0.0
 40
0.2499999999999991
 40
0.2499999999999991
 40
0.4999999999999982
 40
0.4999999999999982
 40
1.0
 40
1.0
 40
1.0
 40
1.0
 10
203.5434842518686
 20
91.8964732116104
 30
0.0
 10
203.4804272969708
 20
91.8964732116104
 30
0.0
 10
203.4212971472252
 20
91.90437354268995
 30
0.0
 10
203.3228495966919
 20
91.92768429069498
 30
0.0
 10
203.2838173585039
 20
91.94238941697863
 30
0.0
 10
203.1839274740469
 20
91.99032294516527
 30
0.0
 10
203.1416285004375
 20
92.02639291793004
 30
0.0
 10
203.1104715499763
 20
92.06422271036624
 30
0.0
  0
LINE
  5
EA
330
1F
100
AcDbEntity
  8
0
  6
Continuous
 62
     7
370
    25
100
AcDbLine
 10
206.4879706247
 20
91.8964732116
 30
0.0
 11
203.5434842519
 21
91.8964732116
 31
0.0
  0
SPLINE
  5
EB
330
1F
100
AcDbEntity
  8
0
  6
Continuous
 62
     7
370
    25
100
AcDbSpline
210
0.0
220
0.0
230
1.0
 70
     8
 71
     3
 72
    12
 73
     8
 74
     0
 42
0.000000001
 43
0.00000001
 40
0.0
 40
0.0
 40
0.0
 40
0.0
 40
0.4999999999999999
 40
0.4999999999999999
 40
0.7499999999999999
 40
0.7499999999999999
 40
1.0
 40
1.0
 40
1.0
 40
1.0
 10
206.9209833266279
 20
92.06422271036627
 30
0.0
 10
206.8898381286658
 20
92.02640718744607
 30
0.0
 10
206.8475638623314
 20
91.99034032936243
 30
0.0
 10
206.7476183285061
 20
91.94238026435119
 30
0.0
 10
206.707888023802
 20
91.92751929045353
 30
0.0
 10
206.6109999737958
 20
91.9045681443224
 30
0.0
 10
206.5509347320493
 20
91.89647321161034
 30
0.0
 10
206.4879706247357
 20
91.89647321161034
 30
0.0
  0
ELLIPSE
  5
EC
330
1F
100
AcDbEntity
  8
0
  6
Continuous
 62
     7
370
    25
100
AcDbEllipse
 10
190.6685732489
 20
121.9649651705
 30
0.0
 11
-14.75368316065618
 21
31.09325491558116
 31
0.0
210
0.0
220
0.0
230
1.0
 40
0.3419987131
 41
3.300734856217124
 42
4.231496223360773
  0
SPLINE
  5
ED
330
1F
100
AcDbEntity
  8
0
  6
Continuous
 62
     7
370
    25
100
AcDbSpline
210
0.0
220
0.0
230
1.0
 70
     8
 71
     3
 72
    12
 73
     8
 74
     0
 42
0.000000001
 43
0.00000001
 40
0.0
 40
0.0
 40
0.0
 40
0.0
 40
0.2500000000000014
 40
0.2500000000000014
 40
0.5000000000000028
 40
0.5000000000000028
 40
1.0
 40
1.0
 40
1.0
 40
1.0
 10
206.4879706247357
 20
112.5768987391473
 30
0.0
 10
206.5510275796335
 20
112.5768987391473
 30
0.0
 10
206.6101577293791
 20
112.5515523857666
 30
0.0
 10
206.7086052799124
 20
112.4774330036271
 30
0.0
 10
206.7476375181005
 20
112.4309364889291
 30
0.0
 10
206.8475274025574
 20
112.2808619819205
 30
0.0
 10
206.8898263761667
 20
112.1697442728056
 30
0.0
 10
206.920983326628
 20
112.0555958497981
 30
0.0
  0
LINE
  5
EE
330
1F
100
AcDbEntity
  8
0
  6
Continuous
 62
     7
370
    25
100
AcDbLine
 10
203.5434842519
 20
112.5768987391
 30
0.0
 11
206.4879706247
 21
112.5768987391
 31
0.0
  0
SPLINE
  5
EF
330
1F
100
AcDbEntity
  8
0
  6
Continuous
 62
     7
370
    25
100
AcDbSpline
210
0.0
220
0.0
230
1.0
 70
     8
 71
     3
 72
    12
 73
     8
 74
     0
 42
0.000000001
 43
0.00000001
 40
0.0
 40
0.0
 40
0.0
 40
0.0
 40
0.4999999999999972
 40
0.4999999999999972
 40
0.7499999999999986
 40
0.7499999999999986
 40
1.0
 40
1.0
 40
1.0
 40
1.0
 10
203.1104715499764
 20
112.0555958497981
 30
0.0
 10
203.1416167479385
 20
112.1697012156634
 30
0.0
 10
203.1838910142729
 20
112.2808075428822
 30
0.0
 10
203.2838365480982
 20
112.4309651503125
 30
0.0
 10
203.3235668528023
 20
112.4779578419298
 30
0.0
 10
203.4204549028084
 20
112.5509334264683
 30
0.0
 10
203.480520144555
 20
112.5768987391474
 30
0.0
 10
203.5434842518686
 20
112.5768987391474
 30
0.0
  0
ELLIPSE
  5
F0
330
1F
100
AcDbEntity
  8
0
  6
Continuous
 62
     7
370
    25
100
AcDbEllipse
 10
219.3628816277
 20
121.9649651705
 30
0.0
 11
14.75368316065618
 21
31.09325491558116
 31
0.0
210
0.0
220
0.0
230
1.0
 40
0.3419987131
 41
2.051689083818825
 42
2.982450450962501
  0
SPLINE
  5
F1
330
1F
100
AcDbEntity
  8
0
  6
Continuous
 62
     7
370
    25
100
AcDbSpline
210
0.0
220
0.0
230
1.0
 70
     8
 71
     3
 72
    12
 73
     8
 74
     0
 42
0.000000001
 43
0.00000001
 40
0.0
 40
0.0
 40
0.0
 40
0.0
 40
0.2499999999999986
 40
0.2499999999999986
 40
0.4999999999999972
 40
0.4999999999999972
 40
1.0
 40
1.0
 40
1.0
 40
1.0
 10
203.5434842518686
 20
131.3530316018194
 30
0.0
 10
203.4804042133752
 20
131.3530316018194
 30
0.0
 10
203.4212555911938
 20
131.3783959210344
 30
0.0
 10
203.3227830411247
 20
131.4525607814073
 30
0.0
 10
203.28374642914
 20
131.4990811219614
 30
0.0
 10
203.183849962361
 20
131.6492234648067
 30
0.0
 10
203.1414290812943
 20
131.7609166717788
 30
0.0
 10
203.1104715499764
 20
131.8743344911686
 30
0.0
  0
LINE
  5
F2
330
1F
100
AcDbEntity
  8
0
  6
Continuous
 62
     7
370
    25
100
AcDbLine
 10
206.4879706247
 20
131.3530316018
 30
0.0
 11
203.5434842519
 21
131.3530316018
 31
0.0
  0
SPLINE
  5
F3
330
1F
100
AcDbEntity
  8
0
  6
Continuous
 62
     7
370
    25
100
AcDbSpline
210
0.0
220
0.0
230
1.0
 70
     8
 71
     3
 72
    12
 73
     8
 74
     0
 42
0.000000001
 43
0.00000001
 40
0.0
 40
0.0
 40
0.0
 40
0.0
 40
0.4999999999999963
 40
0.4999999999999963
 40
0.7499999999999981
 40
0.7499999999999981
 40
1.0
 40
1.0
 40
1.0
 40
1.0
 10
206.9209833266279
 20
131.8743344911685
 30
0.0
 10
206.8902610847088
 20
131.7617786917594
 30
0.0
 10
206.8474238701737
 20
131.6490208320198
 30
0.0
 10
206.7479968459739
 20
131.4994799462234
 30
0.0
 10
206.7082446511573
 20
131.4521872145166
 30
0.0
 10
206.610203194299
 20
131.3784509211951
 30
0.0
 10
206.5506471387115
 20
131.3530316018194
 30
0.0
 10
206.4879706247357
 20
131.3530316018194
 30
0.0
  0
ELLIPSE
  5
F4
330
1F
100
AcDbEntity
  8
0
  6
Continuous
 62
     7
370
    25
100
AcDbEllipse
 10
190.6685732489
 20
121.9649651705
 30
0.0
 11
14.75368316065604
 21
31.09325491558113
 31
0.0
210
0.0
220
0.0
230
1.0
 40
0.3419987131
 41
5.19328173740862
 42
6.124043104552327
  0
SPLINE
  5
F5
330
1F
100
AcDbEntity
  8
0
  6
Continuous
 62
     7
370
    25
100
AcDbSpline
210
0.0
220
0.0
230
1.0
 70
     8
 71
     3
 72
    12
 73
     8
 74
     0
 42
0.000000001
 43
0.00000001
 40
0.0
 40
0.0
 40
0.0
 40
0.0
 40
0.2499999999999991
 40
0.2499999999999991
 40
0.4999999999999982
 40
0.4999999999999982
 40
1.0
 40
1.0
 40
1.0
 40
1.0
 10
206.4879706247357
 20
152.0334571293565
 30
0.0
 10
206.551050663229
 20
152.0334571293565
 30
0.0
 10
206.6101992854105
 20
152.0255512031441
 30
0.0
 10
206.7086718354795
 20
152.0022260417079
 30
0.0
 10
206.7477084474643
 20
151.9875132518762
 30
0.0
 10
206.8476049142433
 20
151.9395574511452
 30
0.0
 10
206.89002579531
 20
151.9032952945652
 30
0.0
 10
206.9209833266279
 20
151.8657076306007
 30
0.0
  0
LINE
  5
F6
330
1F
100
AcDbEntity
  8
0
  6
Continuous
 62
     7
370
    25
100
AcDbLine
 10
203.5434842519
 20
152.0334571294
 30
0.0
 11
206.4879706247
 21
152.0334571294
 31
0.0
  0
SPLINE
  5
F7
330
1F
100
AcDbEntity
  8
0
  6
Continuous
 62
     7
370
    25
100
AcDbSpline
210
0.0
220
0.0
230
1.0
 70
     8
 71
     3
 72
    12
 73
     8
 74
     0
 42
0.000000001
 43
0.00000001
 40
0.0
 40
0.0
 40
0.0
 40
0.0
 40
0.4999999999999982
 40
0.4999999999999982
 40
0.7499999999999991
 40
0.7499999999999991
 40
1.0
 40
1.0
 40
1.0
 40
1.0
 10
203.1104715499764
 20
151.8657076306007
 30
0.0
 10
203.1411937918955
 20
151.9030096135537
 30
0.0
 10
203.1840310064306
 20
151.9396214456001
 30
0.0
 10
203.2834580306304
 20
151.9873862288853
 30
0.0
 10
203.323210225447
 20
152.0023437443677
 30
0.0
 10
203.4212516823053
 20
152.0255336901369
 30
0.0
 10
203.4808077378927
 20
152.0334571293565
 30
0.0
 10
203.5434842518686
 20
152.0334571293565
 30
0.0
  0
ELLIPSE
  5
F8
330
1F
100
AcDbEntity
  8
0
  6
Continuous
 62
     7
370
    25
100
AcDbEllipse
 10
219.3628816277
 20
121.9649651705
 30
0.0
 11
-14.75368316065607
 21
31.09325491558113
 31
0.0
210
0.0
220
0.0
230
1.0
 40
0.3419987131
 41
0.1591422026273036
 42
1.08990356977098
  0
LINE
  5
F9
330
1F
100
AcDbEntity
  8
0
  6
Continuous
 62
     7
370
    25
100
AcDbLine
 10
193.0157274383
 20
90.9649651705
 30
0.0
 11
193.0157274383
 21
152.9649651698
 31
0.0
  0
SPLINE
  5
FA
330
1F
100
AcDbEntity
  8
0
  6
Continuous
 62
     7
370
    25
100
AcDbSpline
210
0.0
220
0.0
230
1.0
 70
     8
 71
     3
 72
    12
 73
     8
 74
     0
 42
0.000000001
 43
0.00000001
 40
0.0
 40
0.0
 40
0.0
 40
0.0
 40
0.4999999999999998
 40
0.4999999999999998
 40
0.7499999999999999
 40
0.7499999999999999
 40
1.0
 40
1.0
 40
1.0
 40
1.0
 10
192.1992151518456
 20
100.1101714680077
 30
0.0
 10
192.2556516527528
 20
100.1087535866659
 30
0.0
 10
192.3247362834416
 20
100.1071892504176
 30
0.0
 10
192.4435385551595
 20
100.1042450584432
 30
0.0
 10
192.4837238306296
 20
100.1032068553458
 30
0.0
 10
192.5571048780334
 20
100.1012729601311
 30
0.0
 10
192.5905144417761
 20
100.1003780728423
 30
0.0
 10
192.6207505494325
 20
100.09959428257
 30
0.0
  0
SPLINE
  5
FB
330
1F
100
AcDbEntity
  8
0
  6
Continuous
 62
     7
370
    25
100
AcDbSpline
210
0.0
220
0.0
230
1.0
 70
     8
 71
     3
 72
    16
 73
    12
 74
     0
 42
0.000000001
 43
0.00000001
 40
0.0
 40
0.0
 40
0.0
 40
0.0
 40
0.0624999999999983
 40
0.0624999999999983
 40
0.1249999999999967
 40
0.1249999999999967
 40
0.2499999999999969
 40
0.2499999999999969
 40
0.4999999999999991
 40
0.4999999999999991
 40
1.0
 40
1.0
 40
1.0
 40
1.0
 10
192.6207505493953
 20
100.0995942825942
 30
0.0
 10
192.6323309569833
 20
100.0992940914829
 30
0.0
 10
192.6456404837445
 20
100.0979663432239
 30
0.0
 10
192.6749419138307
 20
100.0912676684489
 30
0.0
 10
192.6897560137149
 20
100.0859094853432
 30
0.0
 10
192.7255844154178
 20
100.0688638361759
 30
0.0
 10
192.7397040397808
 20
100.0574012984001
 30
0.0
 10
192.7742081838693
 20
100.0258379730279
 30
0.0
 10
192.7853127345739
 20
100.0079406739826
 30
0.0
 10
192.8114889117901
 20
99.95777925636837
 30
0.0
 10
192.8157274383021
 20
99.93003484417179
 30
0.0
 10
192.8157274383021
 20
99.90537068224225
 30
0.0
  0
LINE
  5
FC
330
1F
100
AcDbEntity
  8
0
  6
Continuous
 62
     7
370
    25
100
AcDbLine
 10
192.8157274383
 20
114.9430778447
 30
0.0
 11
192.8157274383
 21
99.4251448916
 31
0.0
  0
SPLINE
  5
FD
330
1F
100
AcDbEntity
  8
0
  6
Continuous
 62
     7
370
    25
100
AcDbSpline
210
0.0
220
0.0
230
1.0
 70
     8
 71
     3
 72
    16
 73
    12
 74
     0
 42
0.000000001
 43
0.00000001
 40
0.0
 40
0.0
 40
0.0
 40
0.0
 40
0.5000000000000007
 40
0.5000000000000007
 40
0.750000000000001
 40
0.750000000000001
 40
0.8749999999999994
 40
0.8749999999999994
 40
0.9374999999999998
 40
0.9374999999999998
 40
1.0
 40
1.0
 40
1.0
 40
1.0
 10
192.8157274383021
 20
114.9430778447335
 30
0.0
 10
192.8157274383021
 20
115.0567703888614
 30
0.0
 10
192.8115811632242
 20
115.1710905502108
 30
0.0
 10
192.7856155678307
 20
115.3441388407079
 30
0.0
 10
192.7741546624533
 20
115.4033143478697
 30
0.0
 10
192.7398429246789
 20
115.4864374673378
 30
0.0
 10
192.7258181887493
 20
115.5145587834385
 30
0.0
 10
192.6897952257155
 20
115.5431745974159
 30
0.0
 10
192.6750407166258
 20
115.5489676453177
 30
0.0
 10
192.6456885554789
 20
115.5473742193807
 30
0.0
 10
192.6323486809748
 20
115.5408778160569
 30
0.0
 10
192.6207505494265
 20
115.5323620698537
 30
0.0
  0
SPLINE
  5
FE
330
1F
100
AcDbEntity
  8
0
  6
Continuous
 62
     7
370
    25
100
AcDbSpline
210
0.0
220
0.0
230
1.0
 70
     8
 71
     3
 72
    12
 73
     8
 74
     0
 42
0.000000001
 43
0.00000001
 40
0.0
 40
0.0
 40
0.0
 40
0.0
 40
0.2499999999999997
 40
0.2499999999999997
 40
0.4999999999999994
 40
0.4999999999999994
 40
1.0
 40
1.0
 40
1.0
 40
1.0
 10
192.6207505494335
 20
115.5323620698446
 30
0.0
 10
192.5905521079929
 20
115.5101893377995
 30
0.0
 10
192.5571847526569
 20
115.4911096819223
 30
0.0
 10
192.484029476827
 20
115.4659366374796
 30
0.0
 10
192.4437767778031
 20
115.4603801010628
 30
0.0
 10
192.3260480345282
 20
115.4712919120496
 30
0.0
 10
192.2555895864693
 20
115.5132276674604
 30
0.0
 10
192.199215151851
 20
115.5624394498419
 30
0.0
  0
SPLINE
  5
FF
330
1F
100
AcDbEntity
  8
0
  6
Continuous
 62
     7
370
    25
100
AcDbSpline
210
0.0
220
0.0
230
1.0
 70
     8
 71
     3
 72
    12
 73
     8
 74
     0
 42
0.000000001
 43
0.00000001
 40
0.0
 40
0.0
 40
0.0
 40
0.0
 40
0.5000000000000023
 40
0.5000000000000023
 40
0.7500000000000011
 40
0.7500000000000011
 40
1.0
 40
1.0
 40
1.0
 40
1.0
 10
191.6944070947425
 20
116.7787908417225
 30
0.0
 10
191.738157446627
 20
116.5583438567479
 30
0.0
 10
191.7910475977514
 20
116.3427988669424
 30
0.0
 10
191.9026591408931
 20
116.0303847903705
 30
0.0
 10
191.9452184847966
 20
115.9283053147546
 30
0.0
 10
192.0501957201341
 20
115.7338653021128
 30
0.0
 10
192.1117629632286
 20
115.6387804030491
 30
0.0
 10
192.199215151851
 20
115.562439449842
 30
0.0
  0
SPLINE
  5
100
330
1F
100
AcDbEntity
  8
0
  6
Continuous
 62
     7
370
    25
100
AcDbSpline
210
0.0
220
0.0
230
1.0
 70
     8
 71
     3
 72
    12
 73
     8
 74
     0
 42
0.000000001
 43
0.00000001
 40
0.0
 40
0.0
 40
0.0
 40
0.0
 40
0.2499999999999992
 40
0.2499999999999992
 40
0.4999999999999984
 40
0.4999999999999984
 40
1.0
 40
1.0
 40
1.0
 40
1.0
 10
192.1992151518509
 20
128.3674908911251
 30
0.0
 10
192.110721744283
 20
128.2902410110168
 30
0.0
 10
192.0506637035171
 20
128.1969216871275
 30
0.0
 10
191.9448154305346
 20
128.0008886341581
 30
0.0
 10
191.9022819092571
 20
127.8985622759464
 30
0.0
 10
191.7911306024335
 20
127.5872178701705
 30
0.0
 10
191.7381997453857
 20
127.3717996169925
 30
0.0
 10
191.6944070947425
 20
127.1511394992446
 30
0.0
  0
SPLINE
  5
101
330
1F
100
AcDbEntity
  8
0
  6
Continuous
 62
     7
370
    25
100
AcDbSpline
210
0.0
220
0.0
230
1.0
 70
     8
 71
     3
 72
    12
 73
     8
 74
     0
 42
0.000000001
 43
0.00000001
 40
0.0
 40
0.0
 40
0.0
 40
0.0
 40
0.4999999999999998
 40
0.4999999999999998
 40
0.7499999999999997
 40
0.7499999999999997
 40
1.0
 40
1.0
 40
1.0
 40
1.0
 10
192.1992151518509
 20
128.3674908911251
 30
0.0
 10
192.2555237001465
 20
128.416645158369
 30
0.0
 10
192.3257983608646
 20
128.4586024769727
 30
0.0
 10
192.4438362751882
 20
128.4695621545051
 30
0.0
 10
192.4840125160422
 20
128.4640533962578
 30
0.0
 10
192.5579696107201
 20
128.4384961674688
 30
0.0
 10
192.5905859984315
 20
128.4197161196295
 30
0.0
 10
192.6207505494273
 20
128.3975682711128
 30
0.0
  0
SPLINE
  5
102
330
1F
100
AcDbEntity
  8
0
  6
Continuous
 62
     7
370
    25
100
AcDbSpline
210
0.0
220
0.0
230
1.0
 70
     8
 71
     3
 72
    16
 73
    12
 74
     0
 42
0.000000001
 43
0.00000001
 40
0.0
 40
0.0
 40
0.0
 40
0.0
 40
0.0624999999999998
 40
0.0624999999999998
 40
0.1249999999999996
 40
0.1249999999999996
 40
0.2499999999999991
 40
0.2499999999999991
 40
0.4999999999999982
 40
0.4999999999999982
 40
1.0
 40
1.0
 40
1.0
 40
1.0
 10
192.6207505493955
 20
128.3975682710582
 30
0.0
 10
192.6323634492349
 20
128.389041681463
 30
0.0
 10
192.6457146336674
 20
128.3825414199302
 30
0.0
 10
192.6751144732866
 20
128.3809720228127
 30
0.0
 10
192.6899551978418
 20
128.3868554134433
 30
0.0
 10
192.7257884058104
 20
128.4154030494938
 30
0.0
 10
192.739901613632
 20
128.4435700687996
 30
0.0
 10
192.7743929848509
 20
128.5273243272215
 30
0.0
 10
192.7854770559613
 20
128.585037740843
 30
0.0
 10
192.8115998737573
 20
128.7586282774888
 30
0.0
 10
192.8157274383021
 20
128.8736563301308
 30
0.0
 10
192.8157274383021
 20
128.9868524962336
 30
0.0
  0
LINE
  5
103
330
1F
100
AcDbEntity
  8
0
  6
Continuous
 62
     7
370
    25
100
AcDbLine
 10
192.8157274383
 20
144.5047854494
 30
0.0
 11
192.8157274383
 21
128.9868524962
 31
0.0
  0
SPLINE
  5
104
330
1F
100
AcDbEntity
  8
0
  6
Continuous
 62
     7
370
    25
100
AcDbSpline
210
0.0
220
0.0
230
1.0
 70
     8
 71
     3
 72
    16
 73
    12
 74
     0
 42
0.000000001
 43
0.00000001
 40
0.0
 40
0.0
 40
0.0
 40
0.0
 40
0.5000000000000026
 40
0.5000000000000026
 40
0.7500000000000041
 40
0.7500000000000041
 40
0.8750000000000048
 40
0.8750000000000048
 40
0.9375000000000024
 40
0.9375000000000024
 40
1.0
 40
1.0
 40
1.0
 40
1.0
 10
192.8157274383021
 20
144.0245596587248
 30
0.0
 10
192.8157274383021
 20
143.9998885026819
 30
0.0
 10
192.8115617398421
 20
143.9723066712906
 30
0.0
 10
192.7853034115172
 20
143.9219638004673
 30
0.0
 10
192.7737996297796
 20
143.9036743024054
 30
0.0
 10
192.7396688704331
 20
143.8725192713684
 30
0.0
 10
192.7252469837624
 20
143.8608798961566
 30
0.0
 10
192.6896800153245
 20
143.8439978702256
 30
0.0
 10
192.6747282470299
 20
143.8386087664179
 30
0.0
 10
192.6457244286701
 20
143.8319882704734
 30
0.0
 10
192.6323090746609
 20
143.830635682267
 30
0.0
 10
192.6207505494243
 20
143.8303360583953
 30
0.0
  0
SPLINE
  5
105
330
1F
100
AcDbEntity
  8
0
  6
Continuous
 62
     7
370
    25
100
AcDbSpline
210
0.0
220
0.0
230
1.0
 70
     8
 71
     3
 72
    12
 73
     8
 74
     0
 42
0.000000001
 43
0.00000001
 40
0.0
 40
0.0
 40
0.0
 40
0.0
 40
0.2500000000000002
 40
0.2500000000000002
 40
0.5000000000000001
 40
0.5000000000000001
 40
1.0
 40
1.0
 40
1.0
 40
1.0
 10
192.6207505494336
 20
143.8303360583971
 30
0.0
 10
192.5905627728839
 20
143.8295535209795
 30
0.0
 10
192.5572089687922
 20
143.828660189161
 30
0.0
 10
192.4840827655963
 20
143.8267328803574
 30
0.0
 10
192.4438475625721
 20
143.8256933491448
 30
0.0
 10
192.326155932439
 20
143.8227754657975
 30
0.0
 10
192.2557752592789
 20
143.8211798597273
 30
0.0
 10
192.1992151518483
 20
143.8197588729594
 30
0.0
  0
SPLINE
  5
106
330
1F
100
AcDbEntity
  8
0
  6
Continuous
 62
     7
370
    25
100
AcDbSpline
210
0.0
220
0.0
230
1.0
 70
     8
 71
     3
 72
    16
 73
    12
 74
     0
 42
0.000000001
 43
0.00000001
 40
0.0
 40
0.0
 40
0.0
 40
0.0
 40
0.2500000000000001
 40
0.2500000000000001
 40
0.3750000000000001
 40
0.3750000000000001
 40
0.5000000000000001
 40
0.5000000000000001
 40
0.7500000000000001
 40
0.7500000000000001
 40
1.0
 40
1.0
 40
1.0
 40
1.0
 10
191.6944070947425
 20
127.1511394992446
 30
0.0
 10
191.533174617258
 20
126.3387297239978
 30
0.0
 10
191.4126947776184
 20
125.498651429613
 30
0.0
 10
191.2903142603051
 20
124.1973563802503
 30
0.0
 10
191.2593365999076
 20
123.7566753446655
 30
0.0
 10
191.2177228622797
 20
122.8608357037344
 30
0.0
 10
191.2074869493469
 20
122.4141775725319
 30
0.0
 10
191.2072985522908
 20
121.078867615392
 30
0.0
 10
191.2474432549284
 20
120.1943722420845
 30
0.0
 10
191.4115970098679
 20
118.4371223540585
 30
0.0
 10
191.5331486602775
 20
117.5913314076453
 30
0.0
 10
191.6944070947425
 20
116.7787908417225
 30
0.0
  0
LINE
  5
107
330
1F
100
AcDbEntity
  8
0
  6
Continuous
 62
     7
370
    25
100
AcDbLine
 10
190.8157274383
 20
128.4501434322
 30
0.0
 11
190.8157274383
 21
115.4797869088
 31
0.0
  0
LINE
  5
108
330
1F
100
AcDbEntity
  8
0
  6
Continuous
 62
     7
370
    25
100
AcDbLine
 10
156.5157274383
 20
128.019275738
 30
0.0
 11
156.5157274383
 21
115.9106546029
 31
0.0
  0
LINE
  5
109
330
1F
100
AcDbEntity
  8
0
  6
Continuous
 62
     7
370
    25
100
AcDbLine
 10
155.0157274383
 20
127.5862630361
 30
0.0
 11
155.0157274383
 21
116.3436673048
 31
0.0
  0
LINE
  5
10A
330
1F
100
AcDbEntity
  8
0
  6
Continuous
 62
     7
370
    25
100
AcDbLine
 10
156.5157274383
 20
128.019275738
 30
0.0
 11
156.5157274383
 21
143.1233285668
 31
0.0
  0
LINE
  5
10B
330
1F
100
AcDbEntity
  8
0
  6
Continuous
 62
     7
370
    25
100
AcDbLine
 10
156.5157274383
 20
143.1233285668
 30
0.0
 11
190.8157274383
 21
143.985063955
 31
0.0
  0
LINE
  5
10C
330
1F
100
AcDbEntity
  8
0
  6
Continuous
 62
     7
370
    25
100
AcDbLine
 10
190.8157274383
 20
128.4501434322
 30
0.0
 11
190.8157274383
 21
143.985063955
 31
0.0
  0
ARC
  5
10D
330
1F
100
AcDbEntity
  8
0
  6
Continuous
 62
     7
370
    25
100
AcDbCircle
 10
191.0156643492
 20
143.9900870662
 30
0.0
 40
0.2000000000000343
100
AcDbArc
 50
181.4391666667
 51
271.4391666667
  0
LINE
  5
10E
330
1F
100
AcDbEntity
  8
0
  6
Continuous
 62
     7
370
    25
100
AcDbLine
 10
156.5157274383
 20
100.8066017742
 30
0.0
 11
156.5157274383
 21
115.9106546029
 31
0.0
  0
LINE
  5
10F
330
1F
100
AcDbEntity
  8
0
  6
Continuous
 62
     7
370
    25
100
AcDbLine
 10
190.8157274383
 20
99.9448663859
 30
0.0
 11
190.8157274383
 21
115.4797869088
 31
0.0
  0
LINE
  5
110
330
1F
100
AcDbEntity
  8
0
  6
Continuous
 62
     7
370
    25
100
AcDbLine
 10
156.5157274383
 20
100.8066017742
 30
0.0
 11
190.8157274383
 21
99.9448663859
 31
0.0
  0
ARC
  5
111
330
1F
100
AcDbEntity
  8
0
  6
Continuous
 62
     7
370
    25
100
AcDbCircle
 10
191.0156643492
 20
99.9398432748
 30
0.0
 40
0.2000000000000059
100
AcDbArc
 50
88.5608333333
 51
178.5608333333
  0
LINE
  5
112
330
1F
100
AcDbEntity
  8
0
  6
Continuous
 62
     7
370
    25
100
AcDbLine
 10
191.0206874604
 20
143.7901501552
 30
0.0
 11
192.1992151518
 21
143.819758873
 31
0.0
  0
LINE
  5
113
330
1F
100
AcDbEntity
  8
0
  6
Continuous
 62
     7
370
    25
100
AcDbLine
 10
191.0206874604
 20
100.1397801857
 30
0.0
 11
192.1992151519
 21
100.110171468
 31
0.0
  0
LINE
  5
114
330
1F
100
AcDbEntity
  8
0
  6
Continuous
 62
     7
370
    25
100
AcDbLine
 10
155.0157274383
 20
142.257303163
 30
0.0
 11
156.5157274383
 21
143.1233285668
 31
0.0
  0
LINE
  5
115
330
1F
100
AcDbEntity
  8
0
  6
Continuous
 62
     7
370
    25
100
AcDbLine
 10
155.0157274383
 20
127.5862630361
 30
0.0
 11
155.0157274383
 21
142.257303163
 31
0.0
  0
LINE
  5
116
330
1F
100
AcDbEntity
  8
0
  6
Continuous
 62
     7
370
    25
100
AcDbLine
 10
155.0157274383
 20
101.672627178
 30
0.0
 11
156.5157274383
 21
100.8066017742
 31
0.0
  0
LINE
  5
117
330
1F
100
AcDbEntity
  8
0
  6
Continuous
 62
     7
370
    25
100
AcDbLine
 10
155.0157274383
 20
101.672627178
 30
0.0
 11
155.0157274383
 21
116.3436673048
 31
0.0
  0
LINE
  5
118
330
1F
100
AcDbEntity
  8
0
  6
Continuous
 62
     7
370
    25
100
AcDbLine
 10
239.1114252698
 20
159.3713399605
 30
0.0
 11
249.0528395408
 21
149.434937114
 31
0.0
  0
ARC
  5
119
330
1F
100
AcDbEntity
  8
0
  6
Continuous
 62
     7
370
    25
100
AcDbCircle
 10
256.5174431312
 20
144.6645823758
 30
0.0
 40
8.858701433685575
100
AcDbArc
 50
147.4188440999
 51
164.9713649614
  0
LINE
  5
11A
330
1F
100
AcDbEntity
  8
0
  6
Continuous
 62
     7
370
    25
100
AcDbLine
 10
232.9849191549
 20
91.2158686648
 30
0.0
 11
247.9617415837
 21
146.9616592401
 31
0.0
  0
ELLIPSE
  5
11B
330
1F
100
AcDbEntity
  8
0
  6
Continuous
 62
     7
370
    25
100
AcDbEllipse
 10
290.7110389641
 20
121.9649651705
 30
0.0
 11
320.5984970841487
 21
-3.209890967438113
 31
0.0
210
0.0
220
0.0
230
1.0
 40
0.0993098927
 41
4.526404037303744
 42
4.532338612859517
  0
SPLINE
  5
11C
330
1F
100
AcDbEntity
  8
0
  6
Continuous
 62
     7
370
    25
100
AcDbSpline
210
0.0
220
0.0
230
1.0
 70
     8
 71
     3
 72
    10
 73
     6
 74
     0
 42
0.000000001
 43
0.00000001
 40
0.0
 40
0.0
 40
0.0
 40
0.0
 40
0.5
 40
0.5
 40
1.0
 40
1.0
 40
1.0
 40
1.0
 10
231.1144258541077
 20
91.26898798409722
 30
0.0
 10
231.0281574345686
 20
91.42278415431802
 30
0.0
 10
230.9025445539634
 20
91.55500808574006
 30
0.0
 10
230.5999717449183
 20
91.74217344994354
 30
0.0
 10
230.4259659296431
 20
91.79553303150848
 30
0.0
 10
230.2484004503232
 20
91.80073585754955
 30
0.0
  0
SPLINE
  5
11D
330
1F
100
AcDbEntity
  8
0
  6
Continuous
 62
     7
370
    25
100
AcDbSpline
210
0.0
220
0.0
230
1.0
 70
     8
 71
     3
 72
    10
 73
     6
 74
     0
 42
0.000000001
 43
0.00000001
 40
0.0
 40
0.0
 40
0.0
 40
0.0
 40
0.5
 40
0.5
 40
1.0
 40
1.0
 40
1.0
 40
1.0
 10
230.2484004503232
 20
153.3279786248844
 30
0.0
 10
230.4701913877826
 20
153.3300798786777
 30
0.0
 10
230.6862933457401
 20
153.4077970387905
 30
0.0
 10
231.0330706095587
 20
153.6823502074969
 30
0.0
 10
231.1576441751354
 20
153.8729876838476
 30
0.0
 10
231.2143262766123
 20
154.0876394792057
 30
0.0
  0
SPLINE
  5
11E
330
1F
100
AcDbEntity
  8
0
  6
Continuous
 62
     7
370
    25
100
AcDbSpline
210
0.0
220
0.0
230
1.0
 70
     8
 71
     3
 72
     8
 73
     4
 74
     0
 42
0.000000001
 43
0.00000001
 40
0.0
 40
0.0
 40
0.0
 40
0.0
 40
1.0
 40
1.0
 40
1.0
 40
1.0
 10
231.2143262766123
 20
154.0876394792057
 30
0.0
 10
232.2815174655023
 20
158.1290299484541
 30
0.0
 10
233.3565642034578
 20
162.1682607557365
 30
0.0
 10
234.4344426978121
 20
166.2067130513528
 30
0.0
  0
SPLINE
  5
11F
330
1F
100
AcDbEntity
  8
0
  6
Continuous
 62
     7
370
    25
100
AcDbSpline
210
0.0
220
0.0
230
1.0
 70
     8
 71
     3
 72
     8
 73
     4
 74
     0
 42
0.000000001
 43
0.00000001
 40
0.0
 40
0.0
 40
0.0
 40
0.0
 40
1.0
 40
1.0
 40
1.0
 40
1.0
 10
234.4344426978121
 20
166.2067130513528
 30
0.0
 10
234.4560894305771
 20
166.2878161609196
 30
0.0
 10
234.4872404225016
 20
166.3644851811528
 30
0.0
 10
234.5275380871261
 20
166.4368869393957
 30
0.0
  0
LINE
  5
120
330
1F
100
AcDbEntity
  8
0
  6
Continuous
 62
     7
370
    25
100
AcDbLine
 10
248.5053749932
 20
166.4368869394
 30
0.0
 11
234.5275380871
 21
166.4368869394
 31
0.0
  0
LINE
  5
121
330
1F
100
AcDbEntity
  8
0
  6
Continuous
 62
     7
370
    25
100
AcDbLine
 10
248.5053749932
 20
166.4368869394
 30
0.0
 11
243.568054519
 21
161.4965361205
 31
0.0
  0
LINE
  5
122
330
1F
100
AcDbEntity
  8
0
  6
Continuous
 62
     7
370
    25
100
AcDbLine
 10
242.4010343093
 20
162.6629680403
 30
0.0
 11
243.568054519
 21
161.4965361205
 31
0.0
  0
ARC
  5
123
330
1F
100
AcDbEntity
  8
0
  6
Continuous
 62
     7
370
    25
100
AcDbCircle
 10
240.7430999983
 20
161.030275738
 30
0.0
 40
2.326892849622976
100
AcDbArc
 50
44.5604994528
 51
225.4746557882
  0
LINE
  5
124
330
1F
100
AcDbEntity
  8
0
  6
Continuous
 62
     7
370
    25
100
AcDbLine
 10
231.1144258541
 20
89.9649651705
 30
0.0
 11
231.1144258541
 21
91.2689879841
 31
0.0
  0
ELLIPSE
  5
125
330
1F
100
AcDbEntity
  8
0
  6
Continuous
 62
     7
370
    25
100
AcDbEllipse
 10
240.8859571822
 20
121.9649651705
 30
0.0
 11
8.933698817261844
 21
31.99434296433033
 31
0.0
210
0.0
220
0.0
230
1.0
 40
0.067349433
 41
3.160396247586521
 42
3.440924691012404
  0
ARC
  5
126
330
1F
100
AcDbEntity
  8
0
  6
Continuous
 62
     7
370
    25
100
AcDbCircle
 10
239.9799279715
 20
160.2585157409
 30
0.0
 40
2.342990542355418
100
AcDbArc
 50
44.7768235446
 51
121.26176216
  0
SPLINE
  5
127
330
1F
100
AcDbEntity
  8
0
  6
Continuous
 62
     7
370
    25
100
AcDbSpline
210
0.0
220
0.0
230
1.0
 70
     8
 71
     3
 72
     9
 73
     5
 74
     0
 42
0.000000001
 43
0.00000001
 40
0.0
 40
0.0
 40
0.0
 40
0.0
 40
0.7924836376247177
 40
1.0
 40
1.0
 40
1.0
 40
1.0
 10
234.5275380871198
 20
166.4368869393986
 30
0.0
 10
234.5071344526053
 20
166.4054595278236
 30
0.0
 10
234.4813880099713
 20
166.3658026692049
 30
0.0
 10
234.4690031179881
 20
166.3262187718011
 30
0.0
 10
234.4664330502553
 20
166.3180044654033
 30
0.0
  0
LINE
  5
128
330
1F
100
AcDbEntity
  8
0
  6
Continuous
 62
     7
370
    25
100
AcDbLine
 10
242.8101333889
 20
160.7423624784
 30
0.0
 11
243.568054519
 21
161.4965361205
 31
0.0
  0
LINE
  5
129
330
1F
100
AcDbEntity
  8
0
  6
Continuous
 62
     7
370
    25
100
AcDbLine
 10
242.8101333889
 20
160.7423624784
 30
0.0
 11
241.6431131792
 21
161.9087943982
 31
0.0
  0
LINE
  5
12A
330
1F
100
AcDbEntity
  8
0
  6
Continuous
 62
     7
370
    18
100
AcDbLine
 10
240.5613594698
 20
157.9221366661
 30
0.0
 11
240.5920371526
 21
157.9526626653
 31
0.0
  0
LINE
  5
12B
330
1F
100
AcDbEntity
  8
0
  6
Continuous
 62
     7
370
    18
100
AcDbLine
 10
240.2776652996
 20
158.2056878273
 30
0.0
 11
240.5890898891
 21
158.5155725998
 31
0.0
  0
LINE
  5
12C
330
1F
100
AcDbEntity
  8
0
  6
Continuous
 62
     7
370
    18
100
AcDbLine
 10
248.9780506795
 20
149.5096882746
 30
0.0
 11
249.0087283623
 21
149.5402142738
 31
0.0
  0
SPLINE
  5
12D
330
1F
100
AcDbEntity
  8
0
  6
Continuous
 62
     7
370
    18
100
AcDbSpline
210
0.0
220
0.0
230
1.0
 70
     8
 71
     3
 72
    10
 73
     6
 74
     0
 42
0.000000001
 43
0.00000001
 40
0.0
 40
0.0
 40
0.0
 40
0.0
 40
0.4023842853214395
 40
0.6975005370170316
 40
1.0
 40
1.0
 40
1.0
 40
1.0
 10
249.1824170878546
 20
151.5615539059728
 30
0.0
 10
248.8971780666257
 20
151.6908872567302
 30
0.0
 10
248.4027393478608
 20
151.9150761351191
 30
0.0
 10
247.73502388036
 20
152.36055826054
 30
0.0
 10
247.3806777432505
 20
152.6875613911674
 30
0.0
 10
247.2013157995249
 20
152.8530829277985
 30
0.0
  0
SPLINE
  5
12E
330
1F
100
AcDbEntity
  8
0
  6
Continuous
 62
     7
370
    18
100
AcDbSpline
210
0.0
220
0.0
230
1.0
 70
     8
 71
     3
 72
    10
 73
     6
 74
     0
 42
0.000000001
 43
0.00000001
 40
0.0
 40
0.0
 40
0.0
 40
0.0
 40
0.2949154208495184
 40
0.5976167223287119
 40
1.0
 40
1.0
 40
1.0
 40
1.0
 10
243.9053678132157
 20
156.1473694407809
 30
0.0
 10
243.7437661595271
 20
156.3219979391007
 30
0.0
 10
243.4162965062887
 20
156.6758651953141
 30
0.0
 10
242.9691375607247
 20
157.343038662706
 30
0.0
 10
242.7421631995661
 20
157.8428125750358
 30
0.0
 10
242.6126316652069
 20
158.128027527801
 30
0.0
  0
LINE
  5
12F
330
1F
100
AcDbEntity
  8
0
  6
Continuous
 62
     7
370
    18
100
AcDbLine
 10
247.2013157995
 20
152.8530829278
 30
0.0
 11
243.9053678132
 21
156.1473694408
 31
0.0
  0
SPLINE
  5
130
330
1F
100
AcDbEntity
  8
0
  6
Continuous
 62
     7
370
    18
100
AcDbSpline
210
0.0
220
0.0
230
1.0
 70
     8
 71
     3
 72
    10
 73
     6
 74
     0
 42
0.000000001
 43
0.00000001
 40
0.0
 40
0.0
 40
0.0
 40
0.0
 40
0.4023842853214559
 40
0.6975005370170384
 40
1.0
 40
1.0
 40
1.0
 40
1.0
 10
242.6126316652069
 20
158.128027527801
 30
0.0
 10
242.7391027952772
 20
158.4259430340237
 30
0.0
 10
242.9583302461473
 20
158.9423554118332
 30
0.0
 10
243.3971438393134
 20
159.625565616981
 30
0.0
 10
243.720628163826
 20
159.9791343065549
 30
0.0
 10
243.8843685609491
 20
160.1581027240458
 30
0.0
  0
SPLINE
  5
131
330
1F
100
AcDbEntity
  8
0
  6
Continuous
 62
     7
370
    18
100
AcDbSpline
210
0.0
220
0.0
230
1.0
 70
     8
 71
     3
 72
    10
 73
     6
 74
     0
 42
0.000000001
 43
0.00000001
 40
0.0
 40
0.0
 40
0.0
 40
0.0
 40
0.2949154208495627
 40
0.5976167223288027
 40
1.0
 40
1.0
 40
1.0
 40
1.0
 10
247.1459809277628
 20
163.4217169479104
 30
0.0
 10
247.3190103049685
 20
163.5804309723251
 30
0.0
 10
247.6696371015407
 20
163.9020491324914
 30
0.0
 10
248.3324265056848
 20
164.3229408514148
 30
0.0
 10
248.8300108139612
 20
164.5205749395763
 30
0.0
 10
249.1139761860634
 20
164.6333623334941
 30
0.0
  0
LINE
  5
132
330
1F
100
AcDbEntity
  8
0
  6
Continuous
 62
     7
370
    18
100
AcDbLine
 10
243.8843685609
 20
160.158102724
 30
0.0
 11
247.1459809278
 21
163.4217169479
 31
0.0
  0
SPLINE
  5
133
330
1F
100
AcDbEntity
  8
0
  6
Continuous
 62
     7
370
    18
100
AcDbSpline
210
0.0
220
0.0
230
1.0
 70
     8
 71
     3
 72
    13
 73
     9
 74
     0
 42
0.000000001
 43
0.00000001
 40
0.0
 40
0.0
 40
0.0
 40
0.0
 40
0.2004789267618154
 40
0.4024209239810486
 40
0.549547687098563
 40
0.6974946593544654
 40
0.8482239884041181
 40
1.0
 40
1.0
 40
1.0
 40
1.0
 10
255.6837616087115
 20
158.0668887116661
 30
0.0
 10
255.6311350937028
 20
157.9246743866621
 30
0.0
 10
255.5254980018761
 20
157.6392078740672
 30
0.0
 10
255.3385435318623
 20
157.25992248629
 30
0.0
 10
255.14315155357
 20
156.927098570717
 30
0.0
 10
254.9450507573423
 20
156.6391376273899
 30
0.0
 10
254.7240218179851
 20
156.3596738302571
 30
0.0
 10
254.5571685626747
 20
156.1853845252744
 30
0.0
 10
254.4734532750082
 20
156.0979383482328
 30
0.0
  0
SPLINE
  5
134
330
1F
100
AcDbEntity
  8
0
  6
Continuous
 62
     7
370
    18
100
AcDbSpline
210
0.0
220
0.0
230
1.0
 70
     8
 71
     3
 72
    10
 73
     6
 74
     0
 42
0.000000001
 43
0.00000001
 40
0.0
 40
0.0
 40
0.0
 40
0.0
 40
0.2949154208495595
 40
0.5976167223287945
 40
1.0
 40
1.0
 40
1.0
 40
1.0
 10
251.2118409081945
 20
152.8343241243682
 30
0.0
 10
251.0376421215483
 20
152.6744464725762
 30
0.0
 10
250.6846456332358
 20
152.3504703374446
 30
0.0
 10
250.0022083333011
 20
151.9100278703768
 30
0.0
 10
249.4802770088603
 20
151.6881671481688
 30
0.0
 10
249.182417087855
 20
151.5615539059729
 30
0.0
  0
LINE
  5
135
330
1F
100
AcDbEntity
  8
0
  6
Continuous
 62
     7
370
    18
100
AcDbLine
 10
254.473453275
 20
156.0979383482
 30
0.0
 11
251.2118409082
 21
152.8343241244
 31
0.0
  0
LINE
  5
136
330
1F
100
AcDbEntity
  8
0
  6
Continuous
 62
     7
370
    18
100
AcDbLine
 10
244.3953095851
 20
156.6376119208
 30
0.0
 11
245.2661575514
 21
157.508627854
 31
0.0
  0
SPLINE
  5
137
330
1F
100
AcDbEntity
  8
0
  6
Continuous
 62
     7
370
    18
100
AcDbSpline
210
0.0
220
0.0
230
1.0
 70
     8
 71
     3
 72
    10
 73
     6
 74
     0
 42
0.000000001
 43
0.00000001
 40
0.0
 40
0.0
 40
0.0
 40
0.0
 40
0.332957888583709
 40
0.6628995140873257
 40
1.0
 40
1.0
 40
1.0
 40
1.0
 10
243.3093891281775
 20
158.1308852148293
 30
0.0
 10
243.4068225802998
 20
157.9543410716144
 30
0.0
 10
243.6008068356136
 20
157.6028520972881
 30
0.0
 10
243.9641224693414
 20
157.0974488934583
 30
0.0
 10
244.2505558552429
 20
156.7919836876285
 30
0.0
 10
244.3953095850547
 20
156.6376119207606
 30
0.0
  0
SPLINE
  5
138
330
1F
100
AcDbEntity
  8
0
  6
Continuous
 62
     7
370
    18
100
AcDbSpline
210
0.0
220
0.0
230
1.0
 70
     8
 71
     3
 72
     9
 73
     5
 74
     0
 42
0.000000001
 43
0.00000001
 40
0.0
 40
0.0
 40
0.0
 40
0.0
 40
0.6664268038170951
 40
1.0
 40
1.0
 40
1.0
 40
1.0
 10
244.3794680438711
 20
159.6632528186621
 30
0.0
 10
244.1028112090574
 20
159.347854066949
 30
0.0
 10
243.6876765937792
 20
158.8745856601162
 30
0.0
 10
243.4040120250218
 20
158.3169106502888
 30
0.0
 10
243.3093891281775
 20
158.1308852148293
 30
0.0
  0
LINE
  5
139
330
1F
100
AcDbEntity
  8
0
  6
Continuous
 62
     7
370
    18
100
AcDbLine
 10
244.3794680439
 20
159.6632528187
 30
0.0
 11
245.2587893927
 21
158.9159026902
 31
0.0
  0
LINE
  5
13A
330
1F
100
AcDbEntity
  8
0
  6
Continuous
 62
     7
370
    18
100
AcDbLine
 10
247.6912575714
 20
153.3433254078
 30
0.0
 11
248.5621055375
 21
154.2143413408
 31
0.0
  0
LINE
  5
13B
330
1F
100
AcDbEntity
  8
0
  6
Continuous
 62
     7
370
    18
100
AcDbLine
 10
250.7167414253
 20
153.3291740298
 30
0.0
 11
249.9693073302
 21
154.2077593047
 31
0.0
  0
SPLINE
  5
13C
330
1F
100
AcDbEntity
  8
0
  6
Continuous
 62
     7
370
    18
100
AcDbSpline
210
0.0
220
0.0
230
1.0
 70
     8
 71
     3
 72
    10
 73
     6
 74
     0
 42
0.000000001
 43
0.00000001
 40
0.0
 40
0.0
 40
0.0
 40
0.0
 40
0.3329578885837149
 40
0.6628995140873257
 40
1.0
 40
1.0
 40
1.0
 40
1.0
 10
249.1849192063248
 20
152.2583169663427
 30
0.0
 10
249.3697434482218
 20
152.3539410912217
 30
0.0
 10
249.7377176105586
 20
152.544323082731
 30
0.0
 10
250.2574583559327
 20
152.902530763095
 30
0.0
 10
250.5625556091765
 20
153.1859457144866
 30
0.0
 10
250.7167414252725
 20
153.3291740297518
 30
0.0
  0
SPLINE
  5
13D
330
1F
100
AcDbEntity
  8
0
  6
Continuous
 62
     7
370
    18
100
AcDbSpline
210
0.0
220
0.0
230
1.0
 70
     8
 71
     3
 72
    13
 73
     9
 74
     0
 42
0.000000001
 43
0.00000001
 40
0.0
 40
0.0
 40
0.0
 40
0.0
 40
0.1643983652206205
 40
0.3297669727366205
 40
0.497985637829657
 40
0.6670906575137407
 40
0.8332227241189055
 40
1.0
 40
1.0
 40
1.0
 40
1.0
 10
247.6912575713639
 20
153.3433254077782
 30
0.0
 10
247.7653582110885
 20
153.2714934495281
 30
0.0
 10
247.9139968159008
 20
153.1274055969142
 30
0.0
 10
248.1519211675101
 20
152.9259406632175
 30
0.0
 10
248.400247500517
 20
152.7358095001654
 30
0.0
 10
248.6568683600096
 20
152.5607774550336
 30
0.0
 10
248.9185578658284
 20
152.4000486718038
 30
0.0
 10
249.0960174484327
 20
152.3056218708046
 30
0.0
 10
249.1849192063248
 20
152.2583169663427
 30
0.0
  0
LINE
  5
13E
330
1F
100
AcDbEntity
  8
0
  6
Continuous
 62
     7
370
    18
100
AcDbLine
 10
244.3953095851
 20
156.6376119208
 30
0.0
 11
247.6912575714
 21
153.3433254078
 31
0.0
  0
LWPOLYLINE
  5
13F
330
1F
100
AcDbEntity
  8
0
  6
Continuous
 62
     7
370
    18
100
AcDbPolyline
 90
        9
 70
   128
 43
0.0
 10
244.3953095851
 20
156.6376119208
 10
244.3338090577
 20
156.5760960031
 10
244.2701995012
 20
156.5124636532
 10
244.2055692926
 20
156.4478036382
 10
244.1410242728
 20
156.3832223089
 10
244.0776688248
 20
156.3198246698
 10
244.0165869781
 20
156.2586954721
 10
243.9588238599
 20
156.2008806532
 10
243.9053678132
 20
156.1473694408
  0
SPLINE
  5
140
330
1F
100
AcDbEntity
  8
0
  6
Continuous
 62
     7
370
    18
100
AcDbSpline
210
0.0
220
0.0
230
1.0
 70
     8
 71
     3
 72
    10
 73
     6
 74
     0
 42
0.000000001
 43
0.00000001
 40
0.0
 40
0.0
 40
0.0
 40
0.0
 40
0.2765306019330213
 40
0.5626682704062551
 40
1.0
 40
1.0
 40
1.0
 40
1.0
 10
247.6912575713639
 20
153.3433254077782
 30
0.0
 10
247.6456621709735
 20
153.2977177714984
 30
0.0
 10
247.5528873211131
 20
153.204918024767
 30
0.0
 10
247.3758576758387
 20
153.0277920092099
 30
0.0
 10
247.2670744371037
 20
152.9189045598841
 30
0.0
 10
247.2013157995249
 20
152.8530829277985
 30
0.0
  0
LINE
  5
141
330
1F
100
AcDbEntity
  8
0
  6
Continuous
 62
     7
370
    18
100
AcDbLine
 10
247.6410804107
 20
162.9268670425
 30
0.0
 11
244.3794680439
 21
159.6632528187
 31
0.0
  0
LINE
  5
142
330
1F
100
AcDbEntity
  8
0
  6
Continuous
 62
     7
370
    18
100
AcDbLine
 10
247.6410804107
 20
162.9268670425
 30
0.0
 11
248.5204017595
 21
162.1795169141
 31
0.0
  0
LINE
  5
143
330
1F
100
AcDbEntity
  8
0
  6
Continuous
 62
     7
370
    18
100
AcDbLine
 10
253.9783537921
 20
156.5927882536
 30
0.0
 11
253.230919697
 21
157.4713735286
 31
0.0
  0
LINE
  5
144
330
1F
100
AcDbEntity
  8
0
  6
Continuous
 62
     7
370
    18
100
AcDbLine
 10
250.7167414253
 20
153.3291740298
 30
0.0
 11
253.9783537921
 21
156.5927882536
 31
0.0
  0
SPLINE
  5
145
330
1F
100
AcDbEntity
  8
0
  6
Continuous
 62
     7
370
    18
100
AcDbSpline
210
0.0
220
0.0
230
1.0
 70
     8
 71
     3
 72
    10
 73
     6
 74
     0
 42
0.000000001
 43
0.00000001
 40
0.0
 40
0.0
 40
0.0
 40
0.0
 40
0.276530601933033
 40
0.5626682704062684
 40
1.0
 40
1.0
 40
1.0
 40
1.0
 10
244.3794680438711
 20
159.6632528186621
 30
0.0
 10
244.3334224802563
 20
159.7036237021895
 30
0.0
 10
244.2397316646363
 20
159.785768011175
 30
0.0
 10
244.060861660079
 20
159.9601397601879
 30
0.0
 10
243.9508623215637
 20
160.0835201936567
 30
0.0
 10
243.8843685609491
 20
160.1581027240458
 30
0.0
  0
SPLINE
  5
146
330
1F
100
AcDbEntity
  8
0
  6
Continuous
 62
     7
370
    18
100
AcDbSpline
210
0.0
220
0.0
230
1.0
 70
     8
 71
     3
 72
    10
 73
     6
 74
     0
 42
0.000000001
 43
0.00000001
 40
0.0
 40
0.0
 40
0.0
 40
0.0
 40
0.2765306019330308
 40
0.5626682704062631
 40
1.0
 40
1.0
 40
1.0
 40
1.0
 10
251.2118409081945
 20
152.8343241243682
 30
0.0
 10
251.1657953445797
 20
152.8746950078955
 30
0.0
 10
251.0721045289596
 20
152.956839316881
 30
0.0
 10
250.8932345244024
 20
153.131211065894
 30
0.0
 10
250.7832351858871
 20
153.2545914993627
 30
0.0
 10
250.7167414252725
 20
153.3291740297518
 30
0.0
  0
SPLINE
  5
147
330
1F
100
AcDbEntity
  8
0
  6
Continuous
 62
     7
370
    18
100
AcDbSpline
210
0.0
220
0.0
230
1.0
 70
     8
 71
     3
 72
     9
 73
     5
 74
     0
 42
0.000000001
 43
0.00000001
 40
0.0
 40
0.0
 40
0.0
 40
0.0
 40
0.3335731961829146
 40
1.0
 40
1.0
 40
1.0
 40
1.0
 10
249.1237107267203
 20
163.9487754289461
 30
0.0
 10
248.947201052277
 20
163.8635018819726
 30
0.0
 10
248.4180527979714
 20
163.6078651942854
 30
0.0
 10
247.9518022638904
 20
163.1992074901494
 30
0.0
 10
247.6410804106848
 20
162.9268670425268
 30
0.0
  0
SPLINE
  5
148
330
1F
100
AcDbEntity
  8
0
  6
Continuous
 62
     7
370
    18
100
AcDbSpline
210
0.0
220
0.0
230
1.0
 70
     8
 71
     3
 72
     9
 73
     5
 74
     0
 42
0.000000001
 43
0.00000001
 40
0.0
 40
0.0
 40
0.0
 40
0.0
 40
0.6664268038170862
 40
1.0
 40
1.0
 40
1.0
 40
1.0
 10
250.6665642645934
 20
162.9127156645004
 30
0.0
 10
250.3484341188215
 20
163.1879975002744
 30
0.0
 10
249.87106714626
 20
163.6010688746508
 30
0.0
 10
249.3106506489287
 20
163.8618018852501
 30
0.0
 10
249.1237107267203
 20
163.9487754289461
 30
0.0
  0
LINE
  5
149
330
1F
100
AcDbEntity
  8
0
  6
Continuous
 62
     7
370
    18
100
AcDbLine
 10
250.6665642646
 20
162.9127156645
 30
0.0
 11
249.927603552
 21
162.1729348778
 31
0.0
  0
LINE
  5
14A
330
1F
100
AcDbEntity
  8
0
  6
Continuous
 62
     7
370
    18
100
AcDbLine
 10
253.9625122509
 20
159.6184291515
 30
0.0
 11
253.2235515383
 21
158.8786483648
 31
0.0
  0
SPLINE
  5
14B
330
1F
100
AcDbEntity
  8
0
  6
Continuous
 62
     7
370
    18
100
AcDbSpline
210
0.0
220
0.0
230
1.0
 70
     8
 71
     3
 72
    11
 73
     7
 74
     0
 42
0.000000001
 43
0.00000001
 40
0.0
 40
0.0
 40
0.0
 40
0.0
 40
0.1662252292037434
 40
0.3330626766204215
 40
0.6629524704112048
 40
1.0
 40
1.0
 40
1.0
 40
1.0
 10
254.9992408048676
 20
158.0762071804594
 30
0.0
 10
254.9568544567202
 20
158.1695473520437
 30
0.0
 10
254.8719256487782
 20
158.3565714730691
 30
0.0
 10
254.6752738630093
 20
158.7174062744278
 30
0.0
 10
254.3908792521023
 20
159.1552815720925
 30
0.0
 10
254.1063192407042
 20
159.4629459816087
 30
0.0
 10
253.9625122509026
 20
159.618429151518
 30
0.0
  0
SPLINE
  5
14C
330
1F
100
AcDbEntity
  8
0
  6
Continuous
 62
     7
370
    18
100
AcDbSpline
210
0.0
220
0.0
230
1.0
 70
     8
 71
     3
 72
    13
 73
     9
 74
     0
 42
0.000000001
 43
0.00000001
 40
0.0
 40
0.0
 40
0.0
 40
0.0
 40
0.1643983652206183
 40
0.3297669727366149
 40
0.4979856378296463
 40
0.6670906575137265
 40
0.8332227241189011
 40
1.0
 40
1.0
 40
1.0
 40
1.0
 10
253.9783537920862
 20
156.5927882536164
 30
0.0
 10
254.0491633650244
 20
156.6661862144194
 30
0.0
 10
254.1912004131255
 20
156.8134153143351
 30
0.0
 10
254.3856621132541
 20
157.0494003728215
 30
0.0
 10
254.5660353455219
 20
157.2959205062137
 30
0.0
 10
254.7285292789881
 20
157.5509057247977
 30
0.0
 10
254.8745732235608
 20
157.8111174697114
 30
0.0
 10
254.9576312863478
 20
157.9877298464714
 30
0.0
 10
254.9992408048675
 20
158.0762071804594
 30
0.0
  0
ARC
  5
14D
330
1F
100
AcDbEntity
  8
0
  6
Continuous
 62
     7
370
    18
100
AcDbCircle
 10
250.6447886792
 20
166.4271897771
 30
0.0
 40
4.612431312050755
100
AcDbArc
 50
220.6625500274
 51
229.3663398118
  0
ARC
  5
14E
330
1F
100
AcDbEntity
  8
0
  6
Continuous
 62
     7
370
    18
100
AcDbCircle
 10
257.4771615435
 20
159.5982610828
 30
0.0
 40
4.612431312050576
100
AcDbArc
 50
220.6625500274
 51
229.3663398118
  0
LINE
  5
14F
330
1F
100
AcDbEntity
  8
0
  6
Continuous
 62
     7
370
    18
100
AcDbLine
 10
253.9625122509
 20
159.6184291515
 30
0.0
 11
250.6665642646
 21
162.9127156645
 31
0.0
  0
SPLINE
  5
150
330
1F
100
AcDbEntity
  8
0
  6
Continuous
 62
     7
370
    18
100
AcDbSpline
210
0.0
220
0.0
230
1.0
 70
     8
 71
     3
 72
     9
 73
     5
 74
     0
 42
0.000000001
 43
0.00000001
 40
0.0
 40
0.0
 40
0.0
 40
0.0
 40
0.4031487638452058
 40
1.0
 40
1.0
 40
1.0
 40
1.0
 10
249.1139761860637
 20
164.6333623334942
 30
0.0
 10
249.4156515228882
 20
164.5203281338499
 30
0.0
 10
250.1639493322305
 20
164.2399497480496
 30
0.0
 10
250.7855205103898
 20
163.7157984779632
 30
0.0
 10
251.1565060364324
 20
163.4029581444801
 30
0.0
  0
SPLINE
  5
151
330
1F
100
AcDbEntity
  8
0
  6
Continuous
 62
     7
370
    18
100
AcDbSpline
210
0.0
220
0.0
230
1.0
 70
     8
 71
     3
 72
    10
 73
     6
 74
     0
 42
0.000000001
 43
0.00000001
 40
0.0
 40
0.0
 40
0.0
 40
0.0
 40
0.2949154208495163
 40
0.5976167223287115
 40
1.0
 40
1.0
 40
1.0
 40
1.0
 10
254.4524540227416
 20
160.1086716314977
 30
0.0
 10
254.6128862669897
 20
159.9328795058006
 30
0.0
 10
254.9379862284879
 20
159.5766542746219
 30
0.0
 10
255.3654972782612
 20
158.8899300590856
 30
0.0
 10
255.5681246232553
 20
158.3659295127094
 30
0.0
 10
255.6837616087115
 20
158.0668887116661
 30
0.0
  0
LINE
  5
152
330
1F
100
AcDbEntity
  8
0
  6
Continuous
 62
     7
370
    18
100
AcDbLine
 10
251.1565060364
 20
163.4029581445
 30
0.0
 11
254.4524540227
 21
160.1086716315
 31
0.0
  0
LWPOLYLINE
  5
153
330
1F
100
AcDbEntity
  8
0
  6
Continuous
 62
     7
370
    18
100
AcDbPolyline
 90
        9
 70
   128
 43
0.0
 10
251.1565060364
 20
163.4029581445
 10
251.0950055091
 20
163.3414422268
 10
251.0313959526
 20
163.2778098769
 10
250.966765744
 20
163.2131498619
 10
250.9022207242
 20
163.1485685327
 10
250.8388652762
 20
163.0851708936
 10
250.7777834295
 20
163.0240416958
 10
250.7200203113
 20
162.9662268769
 10
250.6665642646
 20
162.9127156645
  0
SPLINE
  5
154
330
1F
100
AcDbEntity
  8
0
  6
Continuous
 62
     7
370
    18
100
AcDbSpline
210
0.0
220
0.0
230
1.0
 70
     8
 71
     3
 72
    10
 73
     6
 74
     0
 42
0.000000001
 43
0.00000001
 40
0.0
 40
0.0
 40
0.0
 40
0.0
 40
0.2765306019330387
 40
0.562668270406274
 40
0.9999999999999999
 40
0.9999999999999999
 40
0.9999999999999999
 40
0.9999999999999999
 10
254.4524540227416
 20
160.1086716314977
 30
0.0
 10
254.4068586223513
 20
160.0630639952179
 30
0.0
 10
254.3140837724908
 20
159.9702642484865
 30
0.0
 10
254.1370541272165
 20
159.7931382329294
 30
0.0
 10
254.0282708884814
 20
159.6842507836035
 30
0.0
 10
253.9625122509026
 20
159.618429151518
 30
0.0
  0
LINE
  5
155
330
1F
100
AcDbEntity
  8
0
  6
Continuous
 62
     7
370
    18
100
AcDbLine
 10
250.1574353211
 20
155.9932587491
 30
0.0
 11
249.8570878438
 21
155.6943963189
 31
0.0
  0
LINE
  5
156
330
1F
100
AcDbEntity
  8
0
  6
Continuous
 62
     7
370
    18
100
AcDbLine
 10
240.3902204546
 20
158.3207986795
 30
0.0
 11
240.6762613339
 21
158.6054252497
 31
0.0
  0
LINE
  5
157
330
1F
100
AcDbEntity
  8
0
  6
Continuous
 62
     7
370
    18
100
AcDbLine
 10
223.942442337
 20
152.5435301179
 30
0.0
 11
223.942442337
 21
93.4845931756
 31
0.0
  0
LINE
  5
158
330
1F
100
AcDbEntity
  8
0
  6
Continuous
 62
     7
370
    18
100
AcDbLine
 10
193.5157274383
 20
90.4649651705
 30
0.0
 11
193.5157274383
 21
153.4649651705
 31
0.0
  0
LINE
  5
159
330
1F
100
AcDbEntity
  8
0
  6
Continuous
 62
     7
370
    18
100
AcDbLine
 10
230.2484004503
 20
153.3279786249
 30
0.0
 11
230.2484004503
 21
153.4649651705
 31
0.0
  0
LINE
  5
15A
330
1F
100
AcDbEntity
  8
0
  6
Continuous
 62
     7
370
    18
100
AcDbLine
 10
230.2484004503
 20
90.4649651705
 30
0.0
 11
230.2484004503
 21
91.8007358575
 31
0.0
  0
LINE
  5
15B
330
1F
100
AcDbEntity
  8
0
  6
Continuous
 62
     7
370
    18
100
AcDbLine
 10
203.11047155
 20
112.0555958498
 30
0.0
 11
203.11047155
 21
92.0642227104
 31
0.0
  0
LINE
  5
15C
330
1F
100
AcDbEntity
  8
0
  6
Continuous
 62
     7
370
    18
100
AcDbLine
 10
203.5434842519
 20
112.5768987391
 30
0.0
 11
203.5434842519
 21
91.8964732116
 31
0.0
  0
LINE
  5
15D
330
1F
100
AcDbEntity
  8
0
  6
Continuous
 62
     7
370
    18
100
AcDbLine
 10
203.5434842519
 20
152.0334571294
 30
0.0
 11
203.5434842519
 21
131.3530316018
 31
0.0
  0
LINE
  5
15E
330
1F
100
AcDbEntity
  8
0
  6
Continuous
 62
     7
370
    18
100
AcDbLine
 10
203.11047155
 20
151.8657076306
 30
0.0
 11
203.11047155
 21
131.8743344912
 31
0.0
  0
LINE
  5
15F
330
1F
100
AcDbEntity
  8
0
  6
Continuous
 62
     7
370
    18
100
AcDbLine
 10
206.4879706247
 20
112.5768987391
 30
0.0
 11
206.4879706247
 21
91.8964732116
 31
0.0
  0
LINE
  5
160
330
1F
100
AcDbEntity
  8
0
  6
Continuous
 62
     7
370
    18
100
AcDbLine
 10
206.9209833266
 20
112.0555958498
 30
0.0
 11
206.9209833266
 21
92.0642227104
 31
0.0
  0
LINE
  5
161
330
1F
100
AcDbEntity
  8
0
  6
Continuous
 62
     7
370
    18
100
AcDbLine
 10
206.9209833266
 20
151.8657076306
 30
0.0
 11
206.9209833266
 21
131.8743344912
 31
0.0
  0
LINE
  5
162
330
1F
100
AcDbEntity
  8
0
  6
Continuous
 62
     7
370
    18
100
AcDbLine
 10
206.4879706247
 20
152.0334571294
 30
0.0
 11
206.4879706247
 21
131.3530316018
 31
0.0
  0
LINE
  5
163
330
1F
100
AcDbEntity
  8
0
  6
Continuous
 62
     7
370
    18
100
AcDbLine
 10
191.6944070947
 20
116.7787908417
 30
0.0
 11
191.6944070947
 21
127.1511394992
 31
0.0
  0
LINE
  5
164
330
1F
100
AcDbEntity
  8
0
  6
Continuous
 62
     7
370
    18
100
AcDbLine
 10
191.0206874604
 20
115.5772438087
 30
0.0
 11
192.1992151519
 21
115.5624394498
 31
0.0
  0
LINE
  5
165
330
1F
100
AcDbEntity
  8
0
  6
Continuous
 62
     7
370
    18
100
AcDbLine
 10
191.0206874604
 20
128.3526865323
 30
0.0
 11
191.0206874604
 21
115.5772438087
 31
0.0
  0
LINE
  5
166
330
1F
100
AcDbEntity
  8
0
  6
Continuous
 62
     7
370
    18
100
AcDbLine
 10
191.0206874604
 20
128.3526865323
 30
0.0
 11
192.1992151519
 21
128.3674908911
 31
0.0
  0
LWPOLYLINE
  5
167
330
1F
100
AcDbEntity
  8
0
  6
Continuous
 62
     7
370
    18
100
AcDbPolyline
 90
        9
 70
   128
 43
0.0
 10
190.8157274383
 20
115.4797869088
 10
190.8205491303
 20
115.4992415281
 10
190.8328689908
 20
115.5178519997
 10
190.8522135744
 20
115.5349031335
 10
190.8778394796
 20
115.549739664
 10
190.9087619173
 20
115.5617914317
 10
190.9437925555
 20
115.5705952938
 10
190.9815851864
 20
115.575812923
 10
191.0206874604
 20
115.5772438087
  0
LWPOLYLINE
  5
168
330
1F
100
AcDbEntity
  8
0
  6
Continuous
 62
     7
370
    18
100
AcDbPolyline
 90
        9
 70
   128
 43
0.0
 10
190.8157274383
 20
128.4501434322
 10
190.8205491303
 20
128.4306888128
 10
190.8328689908
 20
128.4120783413
 10
190.8522135744
 20
128.3950272075
 10
190.8778394796
 20
128.380190677
 10
190.9087619173
 20
128.3681389093
 10
190.9437925555
 20
128.3593350471
 10
190.9815851864
 20
128.3541174179
 10
191.0206874604
 20
128.3526865323
  0
LINE
  5
169
330
1F
100
AcDbEntity
  8
0
  6
Continuous
 62
     7
370
    18
100
AcDbLine
 10
156.5157274383
 20
115.9106546029
 30
0.0
 11
190.8157274383
 21
115.4797869088
 31
0.0
  0
LINE
  5
16A
330
1F
100
AcDbEntity
  8
0
  6
Continuous
 62
     7
370
    18
100
AcDbLine
 10
156.5157274383
 20
128.019275738
 30
0.0
 11
190.8157274383
 21
128.4501434322
 31
0.0
  0
LINE
  5
16B
330
1F
100
AcDbEntity
  8
0
  6
Continuous
 62
     7
370
    18
100
AcDbLine
 10
155.0157274383
 20
116.3436673048
 30
0.0
 11
156.5157274383
 21
115.9106546029
 31
0.0
  0
LINE
  5
16C
330
1F
100
AcDbEntity
  8
0
  6
Continuous
 62
     7
370
    18
100
AcDbLine
 10
155.0157274383
 20
127.5862630361
 30
0.0
 11
156.5157274383
 21
128.019275738
 31
0.0
  0
LINE
  5
16D
330
1F
100
AcDbEntity
  8
0
  6
Continuous
 62
     7
370
    18
100
AcDbLine
 10
191.0206874604
 20
128.3526865323
 30
0.0
 11
191.0206874604
 21
143.7901501552
 31
0.0
  0
LINE
  5
16E
330
1F
100
AcDbEntity
  8
0
  6
Continuous
 62
     7
370
    18
100
AcDbLine
 10
191.0206874604
 20
100.1397801857
 30
0.0
 11
191.0206874604
 21
115.5772438087
 31
0.0
  0
LINE
  5
16F
330
1F
100
AcDbEntity
  8
0
  6
Continuous
 62
     7
370
    18
100
AcDbLine
 10
192.6207505494
 20
100.0995942826
 30
0.0
 11
192.6207505494
 21
115.5323620699
 31
0.0
  0
LINE
  5
170
330
1F
100
AcDbEntity
  8
0
  6
Continuous
 62
     7
370
    18
100
AcDbLine
 10
192.6207505494
 20
128.3975682711
 30
0.0
 11
192.6207505494
 21
143.8303360584
 31
0.0
  0
LINE
  5
171
330
1F
100
AcDbEntity
  8
0
  6
Continuous
 62
     7
370
    18
100
AcDbLine
 10
229.1420787963
 20
153.3172934508
 30
0.0
 11
229.1420787963
 21
91.8333559138
 31
0.0
  0
LINE
  5
172
330
1F
100
AcDbEntity
  8
0
  6
Continuous
 62
     7
370
    18
100
AcDbLine
 10
231.2143262766
 20
154.0876394792
 30
0.0
 11
231.2143262766
 21
154.2061461254
 31
0.0
  0
LINE
  5
173
330
1F
100
AcDbEntity
  8
0
  6
Continuous
 62
     7
370
    18
100
AcDbLine
 10
234.4344426978
 20
166.2067130514
 30
0.0
 11
234.4344426978
 21
166.2237842156
 31
0.0
  0
LINE
  5
174
330
1F
100
AcDbEntity
  8
0
  6
Continuous
 62
     7
370
    18
100
AcDbLine
 10
241.6431131792
 20
161.9087943982
 30
0.0
 11
242.4010343093
 21
162.6629680403
 31
0.0
  0
LINE
  5
175
330
1F
100
AcDbEntity
  8
VERMASSUNG
100
AcDbLine
 10
258.0157274383
 20
121.9649651705
 30
0.0
 11
258.0157274383
 21
166.9649651705
 31
0.0
  0
LINE
  5
176
330
1F
100
AcDbEntity
  8
VERMASSUNG
100
AcDbLine
 10
258.0157274383
 20
166.9649651705
 30
0.0
 11
213.3332272953
 21
166.9649651705
 31
0.0
  0
DIMENSION
  5
177
330
1F
100
AcDbEntity
  8
VERMASSUNG
100
AcDbDimension
  2
_D
 10
193.0157274383
 20
181.7282465524
 30
0.0
 11
225.5157274383
 21
181.7282465524
 31
0.0
 70
   160
  1
<>
 71
     2
 42
-1.0
  3
SLDDIMSTYLE0
100
AcDbAlignedDimension
 13
258.0157274383
 23
166.9649651705
 33
0.0
 14
193.0157274383
 24
152.9649651705
 34
0.0
100
AcDbRotatedDimension
  0
DIMENSION
  5
184
330
1F
100
AcDbEntity
  8
VERMASSUNG
100
AcDbDimension
  2
_D_1
 10
155.0157274383
 20
189.1298333195
 30
0.0
 11
206.5157274383
 21
189.1298333195
 31
0.0
 70
   160
  1
<>
 71
     2
 42
-1.0
  3
SLDDIMSTYLE1
100
AcDbAlignedDimension
 13
258.0157274383
 23
166.9649651705
 33
0.0
 14
155.0157274383
 24
142.257303163
 34
0.0
100
AcDbRotatedDimension
  0
DIMENSION
  5
18F
330
1F
100
AcDbEntity
  8
VERMASSUNG
100
AcDbDimension
  2
_D_2
 10
257.8976719371
 20
158.4346135534
 30
0.0
 11
251.9240830699
 21
173.0179061528
 31
0.0
 70
   162
  1
<>
 71
     1
 42
-1.0
  3
SLDDIMSTYLE2
100
AcDb2LineAngularDimension
 13
258.0157274383
 23
166.9649651705
 33
0.0
 14
258.0157274383
 24
121.9649651705
 34
0.0
 15
249.4809807274
 25
166.8470619449
 35
0.0
 16
251.9240830699
 26
173.0179061528
 36
0.0
  0
DIMENSION
  5
19A
330
1F
100
AcDbEntity
  8
VERMASSUNG
100
AcDbDimension
  2
_D_3
 10
266.0684210526
 20
166.9649651705
 30
0.0
 11
266.0684210526
 21
144.4649651705
 31
0.0
 70
   160
  1
<>
 71
     2
 42
-1.0
  3
SLDDIMSTYLE0
100
AcDbAlignedDimension
 13
266.4347090579
 23
121.9649651705
 33
0.0
 14
258.0157274383
 24
166.9649651705
 34
0.0
 50
90.0
100
AcDbRotatedDimension
  0
DIMENSION
  5
1A5
330
1F
100
AcDbEntity
  8
VERMASSUNG
100
AcDbDimension
  2
_D_4
 10
145.0157274383
 20
90.4649651705
 30
0.0
 11
145.0157274383
 21
121.9649651705
 31
0.0
 70
   160
  1
PSC%%c<>
 71
     2
 42
-1.0
  3
SLDDIMSTYLE1
100
AcDbAlignedDimension
 13
193.5157274383
 23
153.4649651705
 33
0.0
 14
193.5157274383
 24
90.4649651705
 34
0.0
 50
90.0
100
AcDbRotatedDimension
  0
LINE
  5
1B1
330
1F
100
AcDbEntity
  8
VERMASSUNG
  6
CENTERX2
370
    18
100
AcDbLine
 10
266.4347090579
 20
121.9649651705
 30
0.0
 11
152.4683388922
 21
121.9649651705
 31
0.0
  0
LINE
  5
1B2
330
1F
100
AcDbEntity
  8
0
  6
Continuous
 62
     7
370
    25
100
AcDbLine
 10
66.2081072947
 20
153.936319208
 30
0.0
 11
66.5427663621
 21
153.1776601134
 31
0.0
  0
LINE
  5
1B3
330
1F
100
AcDbEntity
  8
0
  6
Continuous
 62
     7
370
    25
100
AcDbLine
 10
67.5352089379
 20
163.1352008937
 30
0.0
 11
67.0548771591
 21
162.4543668388
 31
0.0
  0
LINE
  5
1B4
330
1F
100
AcDbEntity
  8
0
  6
Continuous
 62
     7
370
    25
100
AcDbLine
 10
65.7774825954
 20
149.4223309367
 30
0.0
 11
70.490528145
 21
148.9519068657
 31
0.0
  0
LINE
  5
1B5
330
1F
100
AcDbEntity
  8
0
  6
Continuous
 62
     7
370
    25
100
AcDbLine
 10
72.2327185936
 20
166.4945223986
 30
0.0
 11
67.5196731713
 21
166.9649446069
 31
0.0
  0
LINE
  5
1B6
330
1F
100
AcDbEntity
  8
0
  6
Continuous
 62
     7
370
    25
100
AcDbLine
 10
65.5588507793
 20
155.6121745764
 30
0.0
 11
65.2351223539
 21
155.3445012926
 31
0.0
  0
LINE
  5
1B7
330
1F
100
AcDbEntity
  8
0
  6
Continuous
 62
     7
370
    25
100
AcDbLine
 10
64.5433559689
 20
148.4138985781
 30
0.0
 11
64.8077901128
 21
148.0875184445
 31
0.0
  0
LINE
  5
1B8
330
1F
100
AcDbEntity
  8
0
  6
Continuous
 62
     7
370
    25
100
AcDbLine
 10
70.5723401766
 20
149.2767428665
 30
0.0
 11
73.374443236
 21
148.9970555215
 31
0.0
  0
LINE
  5
1B9
330
1F
100
AcDbEntity
  8
0
  6
Continuous
 62
     7
370
    25
100
AcDbLine
 10
75.0519842982
 20
165.8801177202
 30
0.0
 11
72.2491541087
 21
166.1598795711
 31
0.0
  0
LINE
  5
1BA
330
1F
100
AcDbEntity
  8
0
  6
Continuous
 62
     7
370
    25
100
AcDbLine
 10
73.386875461
 20
149.0018369316
 30
0.0
 11
73.7106041193
 21
149.2695083527
 31
0.0
  0
LINE
  5
1BB
330
1F
100
AcDbEntity
  8
0
  6
Continuous
 62
     7
370
    25
100
AcDbLine
 10
75.3276609026
 20
165.5465962051
 30
0.0
 11
75.063226293
 21
165.8729763387
 31
0.0
  0
LINE
  5
1BC
330
1F
100
AcDbEntity
  8
0
  6
Continuous
 62
     7
370
    25
100
AcDbLine
 10
67.4797907191
 20
166.8496953009
 30
0.0
 11
65.8124580655
 21
158.5155727027
 31
0.0
  0
LWPOLYLINE
  5
1BD
330
1F
100
AcDbEntity
  8
0
  6
Continuous
 62
     7
370
    25
100
AcDbPolyline
 90
        9
 70
   128
 43
0.0
 10
67.5359900665
 20
166.8470615207
 10
67.5348830296
 20
166.8968463002
 10
67.5316647662
 20
166.9339501916
 10
67.5264589513
 20
166.9569501339
 10
67.519465641
 20
166.964959508
 10
67.5109535851
 20
166.9576765655
 10
67.5012498976
 20
166.9353732525
 10
67.4907274856
 20
166.8989138363
 10
67.4797907191
 20
166.8496953009
  0
LINE
  5
1BE
330
1F
100
AcDbEntity
  8
0
  6
Continuous
 62
     7
370
    25
100
AcDbLine
 10
67.5405879988
 20
158.434614694
 30
0.0
 11
67.5359900665
 21
166.8470615207
 31
0.0
  0
ARC
  5
1BF
330
1F
100
AcDbEntity
  8
0
  6
Continuous
 62
     7
370
    25
100
AcDbCircle
 10
64.1985211025
 20
158.4822124323
 30
0.0
 40
3.342405822802918
100
AcDbArc
 50
349.4755452621
 51
359.1840483031
  0
LINE
  5
1C0
330
1F
100
AcDbEntity
  8
0
  6
Continuous
 62
     7
370
    25
100
AcDbLine
 10
65.8173650877
 20
149.5375821053
 30
0.0
 11
67.4846977559
 21
157.8717047034
 31
0.0
  0
LWPOLYLINE
  5
1C1
330
1F
100
AcDbEntity
  8
0
  6
Continuous
 62
     7
370
    25
100
AcDbPolyline
 90
        9
 70
   128
 43
0.0
 10
65.7611657075
 20
149.5402140229
 10
65.7622728172
 20
149.490431106
 10
65.7654910024
 20
149.4533272146
 10
65.7706968627
 20
149.4303272723
 10
65.777690164
 20
149.4223160355
 10
65.7862022195
 20
149.4296008407
 10
65.7959059022
 20
149.451902291
 10
65.8064283339
 20
149.4883617072
 10
65.8173650877
 20
149.5375821053
  0
LINE
  5
1C2
330
1F
100
AcDbEntity
  8
0
  6
Continuous
 62
     7
370
    25
100
AcDbLine
 10
65.756567768
 20
157.9526627122
 30
0.0
 11
65.7611657075
 21
149.5402140229
 31
0.0
  0
ARC
  5
1C3
330
1F
100
AcDbEntity
  8
0
  6
Continuous
 62
     7
370
    25
100
AcDbCircle
 10
69.0986392622
 20
157.9050641988
 30
0.0
 40
3.342410431275456
100
AcDbArc
 50
169.4755464246
 51
179.1840361402
  0
ARC
  5
1C4
330
1F
100
AcDbEntity
  8
0
  6
Continuous
 62
     7
370
    25
100
AcDbCircle
 10
64.3627708179
 20
158.4658295386
 30
0.0
 40
3.175336973541784
100
AcDbArc
 50
349.4756256473
 51
359.1839878093
  0
LINE
  5
1C5
330
1F
100
AcDbEntity
  8
0
  6
Continuous
 62
     7
370
    25
100
AcDbLine
 10
67.5377857583
 20
158.4206076025
 30
0.0
 11
67.533187826
 21
166.8330544292
 31
0.0
  0
LWPOLYLINE
  5
1C6
330
1F
100
AcDbEntity
  8
0
  6
Continuous
 62
     7
370
    25
100
AcDbPolyline
 90
        9
 70
   128
 43
0.0
 10
67.533187826
 20
166.8330544292
 10
67.5321361409
 20
166.8803507148
 10
67.5290787908
 20
166.9155994116
 10
67.5241332661
 20
166.9374482392
 10
67.5174896219
 20
166.9450590073
 10
67.5094031694
 20
166.9381374179
 10
67.5001846662
 20
166.916951692
 10
67.4901883745
 20
166.8823139428
 10
67.4797984461
 20
166.8355578242
  0
LINE
  5
1C7
330
1F
100
AcDbEntity
  8
0
  6
Continuous
 62
     7
370
    25
100
AcDbLine
 10
67.4797984461
 20
166.8355578242
 30
0.0
 11
65.8124657489
 21
158.5014352261
 31
0.0
  0
ARC
  5
1C8
330
1F
100
AcDbEntity
  8
0
  6
Continuous
 62
     7
370
    25
100
AcDbCircle
 10
68.9344132283
 20
157.9214449528
 30
0.0
 40
3.175365298856618
100
AcDbArc
 50
169.4756671059
 51
179.1839424909
  0
LINE
  5
1C9
330
1F
100
AcDbEntity
  8
0
  6
Continuous
 62
     7
370
    25
100
AcDbLine
 10
65.7593700012
 20
157.9666698037
 30
0.0
 11
65.7639679407
 21
149.5542211144
 31
0.0
  0
LWPOLYLINE
  5
1CA
330
1F
100
AcDbEntity
  8
0
  6
Continuous
 62
     7
370
    25
100
AcDbPolyline
 90
        9
 70
   128
 43
0.0
 10
65.7639679407
 20
149.5542211144
 10
65.7650196367
 20
149.5069266914
 10
65.7680770523
 20
149.4716779946
 10
65.7730224916
 20
149.4498273043
 10
65.7796661976
 20
149.4422165363
 10
65.7877526387
 20
149.4491381256
 10
65.7969711024
 20
149.4703238516
 10
65.8069674532
 20
149.5049616008
 10
65.8173574043
 20
149.5517195819
  0
LINE
  5
1CB
330
1F
100
AcDbEntity
  8
0
  6
Continuous
 62
     7
370
    25
100
AcDbLine
 10
65.8173574043
 20
149.5517195819
 30
0.0
 11
67.4846900288
 21
157.8858421801
 31
0.0
  0
ARC
  5
1CC
330
1F
100
AcDbEntity
  8
0
  6
Continuous
 62
     7
370
    25
100
AcDbCircle
 10
68.9115603727
 20
158.0117860573
 30
0.0
 40
3.342411851522131
100
AcDbArc
 50
349.4755721574
 51
359.1840573421
  0
LINE
  5
1CD
330
1F
100
AcDbEntity
  8
0
  6
Continuous
 62
     7
370
    25
100
AcDbLine
 10
70.5304104045
 20
149.0671561717
 30
0.0
 11
72.19774324
 21
157.4012787698
 31
0.0
  0
LINE
  5
1CE
330
1F
100
AcDbEntity
  8
0
  6
Continuous
 62
     7
370
    25
100
AcDbLine
 10
72.2536333046
 20
157.9641887604
 30
0.0
 11
72.2490353651
 21
166.3766393124
 31
0.0
  0
ARC
  5
1CF
330
1F
100
AcDbEntity
  8
0
  6
Continuous
 62
     7
370
    25
100
AcDbCircle
 10
58.7607894814
 20
158.9976526275
 30
0.0
 40
8.356109069068475
100
AcDbArc
 50
349.4755995891
 51
359.1839797972
  0
LINE
  5
1D0
330
1F
100
AcDbEntity
  8
0
  6
Continuous
 62
     7
370
    25
100
AcDbLine
 10
66.3234036324
 20
154.2077587603
 30
0.0
 11
66.9763254841
 21
157.4713738321
 31
0.0
  0
LINE
  5
1D1
330
1F
100
AcDbEntity
  8
0
  6
Continuous
 62
     7
370
    25
100
AcDbLine
 10
67.1160510824
 20
158.8786469458
 30
0.0
 11
67.1142505448
 21
162.1729360579
 31
0.0
  0
LINE
  5
1D2
330
1F
100
AcDbEntity
  8
0
  6
Continuous
 62
     7
370
    25
100
AcDbLine
 10
66.9737521817
 20
162.1795186459
 30
0.0
 11
66.3208302717
 21
158.9159035741
 31
0.0
  0
LWPOLYLINE
  5
1D3
330
1F
100
AcDbEntity
  8
0
  6
Continuous
 62
     7
370
    25
100
AcDbPolyline
 90
        9
 70
   128
 43
0.0
 10
67.1142505448
 20
162.1729360579
 10
67.1114829743
 20
162.2973942815
 10
67.1034373077
 20
162.3901540099
 10
67.0904227732
 20
162.4476538657
 10
67.072939491
 20
162.4676810263
 10
67.0516593523
 20
162.4494680821
 10
67.0274001455
 20
162.3937153874
 10
67.0010941244
 20
162.3025649844
 10
66.9737521817
 20
162.1795186459
  0
LWPOLYLINE
  5
1D4
330
1F
100
AcDbEntity
  8
0
  6
Continuous
 62
     7
370
    25
100
AcDbPolyline
 90
        9
 70
   128
 43
0.0
 10
66.1829052401
 20
154.2143413483
 10
66.1856727816
 20
154.0898831247
 10
66.1937184773
 20
153.9971233963
 10
66.2067330118
 20
153.9396235405
 10
66.2242162648
 20
153.9195926546
 10
66.2454964036
 20
153.9378055988
 10
66.2697556104
 20
153.9935582934
 10
66.2960617479
 20
154.0847124218
 10
66.3234036324
 20
154.2077587603
  0
LINE
  5
1D5
330
1F
100
AcDbEntity
  8
0
  6
Continuous
 62
     7
370
    25
100
AcDbLine
 10
66.1811047608
 20
157.5086267351
 30
0.0
 11
66.1829052401
 21
154.2143413483
 31
0.0
  0
ARC
  5
1D6
330
1F
100
AcDbEntity
  8
0
  6
Continuous
 62
     7
370
    25
100
AcDbCircle
 10
74.5363807698
 20
157.3896241729
 30
0.0
 40
8.356123431160688
100
AcDbArc
 50
169.4756136593
 51
179.1840025915
  0
LWPOLYLINE
  5
1D7
330
1F
100
AcDbEntity
  8
0
  6
Continuous
 62
     7
370
    25
100
AcDbPolyline
 90
       27
 70
   128
 43
0.0
 10
66.2870889205
 20
156.3867443858
 10
66.2978317264
 20
156.0027675389
 10
66.3289586223
 20
155.7461173891
 10
66.3786606306
 20
155.6317062734
 10
66.4440491378
 20
155.6661838351
 10
66.5213242314
 20
155.8475533186
 10
66.6059948412
 20
156.1652647017
 10
66.6931401497
 20
156.600859171
 10
66.7776957412
 20
157.1290196537
 10
66.8547474338
 20
157.7190497576
 10
66.9198173123
 20
158.3366656362
 10
66.9691237413
 20
158.9459666668
 10
66.9998012159
 20
159.5115439652
 10
67.0100668354
 20
160.0005330204
 10
66.9993240295
 20
160.3845098673
 10
66.9681971917
 20
160.6411600171
 10
66.9184951835
 20
160.7555711328
 10
66.8531066181
 20
160.7210898458
 10
66.7758315826
 20
160.5397240876
 10
66.6911609728
 20
160.2220127045
 10
66.6040156061
 20
159.7864182352
 10
66.5194600729
 20
159.2582577525
 10
66.4424083802
 20
158.6682239233
 10
66.3773385018
 20
158.05061177
 10
66.3280320728
 20
157.4413107394
 10
66.2973546564
 20
156.8757297157
 10
66.2870889205
 20
156.3867443858
  0
LINE
  5
1D8
330
1F
100
AcDbEntity
  8
0
  6
Continuous
 62
     7
370
    25
100
AcDbLine
 10
65.8297523765
 20
149.6136767475
 30
0.0
 11
65.7639679407
 21
149.5542211144
 31
0.0
  0
LINE
  5
1D9
330
1F
100
AcDbEntity
  8
0
  6
Continuous
 62
     7
370
    25
100
AcDbLine
 10
66.0298415601
 20
158.2111196278
 30
0.0
 11
65.7593700012
 21
157.9666698037
 31
0.0
  0
LINE
  5
1DA
330
1F
100
AcDbEntity
  8
0
  6
Continuous
 62
     7
370
    25
100
AcDbLine
 10
66.2199525537
 20
158.1941285788
 30
0.0
 11
66.0298415601
 21
158.2111196278
 31
0.0
  0
LINE
  5
1DB
330
1F
100
AcDbEntity
  8
0
  6
Continuous
 62
     7
370
    25
100
AcDbLine
 10
66.0298415601
 20
158.2111196278
 30
0.0
 11
65.8124657489
 21
158.5014352261
 31
0.0
  0
LINE
  5
1DC
330
1F
100
AcDbEntity
  8
0
  6
Continuous
 62
     7
370
    25
100
AcDbLine
 10
67.5332254591
 20
166.7642036139
 30
0.0
 11
67.4797984461
 21
166.8355578242
 31
0.0
  0
ARC
  5
1DD
330
1F
100
AcDbEntity
  8
0
  6
Continuous
 62
     7
370
    25
100
AcDbCircle
 10
70.3484234822
 20
149.0656077986
 30
0.0
 40
0.1819935090513399
100
AcDbArc
 50
321.3359627278
 51
0.4874696527
  0
ARC
  5
1DE
330
1F
100
AcDbEntity
  8
0
  6
Continuous
 62
     7
370
    25
100
AcDbCircle
 10
72.0555920524
 20
166.4099346673
 30
0.0
 40
0.1962877884029779
100
AcDbArc
 50
350.2339720272
 51
25.527058839
  0
LWPOLYLINE
  5
1DF
330
1F
100
AcDbEntity
  8
0
  6
Continuous
 62
     7
370
    25
100
AcDbPolyline
 90
       31
 70
   128
 43
0.0
 10
65.2867599997
 20
155.3532706259
 10
65.3473818816
 20
155.2371682285
 10
65.3894897692
 20
154.9741552828
 10
65.4112431362
 20
154.5757243095
 10
65.4116913352
 20
154.059294766
 10
65.3908150412
 20
153.4474307357
 10
65.3495262518
 20
152.7668798028
 10
65.2896296374
 20
152.0473828225
 10
65.2137429129
 20
151.3203831075
 10
65.1251827508
 20
150.6176555215
 10
65.0278197277
 20
149.9699132203
 10
64.9259088236
 20
149.4054665475
 10
64.8239043217
 20
148.9489825128
 10
64.7262642301
 20
148.6204119085
 10
64.637255869
 20
148.4341157286
 10
64.5607691399
 20
148.3982355951
 10
64.5001472581
 20
148.5143398552
 10
64.4580393705
 20
148.7773546635
 10
64.4362860035
 20
149.1757837741
 10
64.4358378045
 20
149.6922151803
 10
64.4567140985
 20
150.3040754853
 10
64.4980028879
 20
150.9846282809
 10
64.5578995023
 20
151.7041271238
 10
64.6337862268
 20
152.4311249761
 10
64.7223463889
 20
153.1338525622
 10
64.819709412
 20
153.7815930008
 10
64.921620316
 20
154.3460415362
 10
65.023624818
 20
154.8025274335
 10
65.1212649095
 20
155.1310943125
 10
65.2102732706
 20
155.3173923551
 10
65.2867599997
 20
155.3532706259
  0
LWPOLYLINE
  5
1E0
330
1F
100
AcDbEntity
  8
0
  6
Continuous
 62
     7
370
    25
100
AcDbPolyline
 90
       24
 70
   128
 43
0.0
 10
65.1311904799
 20
153.8629086374
 10
65.1743326012
 20
153.7594759522
 10
65.1988911118
 20
153.516333705
 10
65.2030448105
 20
153.1515216141
 10
65.1864856623
 20
152.6920890121
 10
65.150441616
 20
152.1721129923
 10
65.0975860331
 20
151.6301577596
 10
65.0318388503
 20
151.1064173339
 10
64.9580762397
 20
150.6397353171
 10
64.8817690231
 20
150.2647233813
 10
64.8085763819
 20
150.0091926812
 10
64.7439265299
 20
149.8920974939
 10
64.6926146142
 20
149.922121471
 10
64.6584460187
 20
150.0970368891
 10
64.6439548723
 20
150.4038704245
 10
64.6502159211
 20
150.8198680042
 10
64.6767649009
 20
151.3141767739
 10
64.7216325301
 20
151.8501342891
 10
64.7814916588
 20
152.3879917024
 10
64.8519022066
 20
152.8878586052
 10
64.9276427134
 20
153.3126646339
 10
65.0030954416
 20
153.6308975576
 10
65.0726645395
 20
153.8189613877
 10
65.1311904799
 20
153.8629086374
  0
LINE
  5
1E1
330
1F
100
AcDbEntity
  8
0
  6
Continuous
 62
     7
370
    25
100
AcDbLine
 10
65.1417891636
 20
152.1175821929
 30
0.0
 11
65.0258977107
 21
151.9447473495
 31
0.0
  0
LINE
  5
1E2
330
1F
100
AcDbEntity
  8
0
  6
Continuous
 62
     7
370
    25
100
AcDbLine
 10
65.0258977107
 20
151.9447473495
 30
0.0
 11
65.1016696497
 21
151.6726223438
 31
0.0
  0
LINE
  5
1E3
330
1F
100
AcDbEntity
  8
0
  6
Continuous
 62
     7
370
    25
100
AcDbLine
 10
65.1290945384
 20
151.9344469218
 30
0.0
 11
65.0258977107
 21
151.9447473495
 31
0.0
  0
ARC
  5
1E4
330
1F
100
AcDbEntity
  8
0
  6
Continuous
 62
     7
370
    25
100
AcDbCircle
 10
65.0786921603
 20
158.3879004242
 30
0.0
 40
10.02723926160353
100
AcDbArc
 50
349.4755581795
 51
359.1840400302
  0
LINE
  5
1E5
330
1F
100
AcDbEntity
  8
0
  6
Continuous
 62
     7
370
    25
100
AcDbLine
 10
70.6424999658
 20
149.6274342446
 30
0.0
 11
72.0856534458
 21
156.8410025595
 31
0.0
  0
LINE
  5
1E6
330
1F
100
AcDbEntity
  8
0
  6
Continuous
 62
     7
370
    25
100
AcDbLine
 10
72.2533241056
 20
158.5297325312
 30
0.0
 11
72.2493445642
 21
165.8110955416
 31
0.0
  0
ARC
  5
1E7
330
1F
100
AcDbEntity
  8
0
  6
Continuous
 62
     7
370
    25
100
AcDbCircle
 10
67.8402506266
 20
158.1124522586
 30
0.0
 40
7.520433931153309
100
AcDbArc
 50
349.4755499643
 51
359.184019101
  0
LINE
  5
1E8
330
1F
100
AcDbEntity
  8
0
  6
Continuous
 62
     7
370
    25
100
AcDbLine
 10
73.4940907128
 20
149.3428071646
 30
0.0
 11
74.93724396
 21
156.5563754796
 31
0.0
  0
LINE
  5
1E9
330
1F
100
AcDbEntity
  8
0
  6
Continuous
 62
     7
370
    25
100
AcDbLine
 10
75.1049146197
 20
158.2451054512
 30
0.0
 11
75.1009350784
 21
165.5264684616
 31
0.0
  0
LINE
  5
1EA
330
1F
100
AcDbEntity
  8
0
  6
Continuous
 62
     7
370
    25
100
AcDbLine
 10
75.2341686889
 20
156.7388066708
 30
0.0
 11
73.7910154417
 21
149.5252383559
 31
0.0
  0
LINE
  5
1EB
330
1F
100
AcDbEntity
  8
0
  6
Continuous
 62
     7
370
    25
100
AcDbLine
 10
75.3559423752
 20
165.2867162286
 30
0.0
 11
75.3599219165
 21
158.0053532182
 31
0.0
  0
ARC
  5
1EC
330
1F
100
AcDbEntity
  8
0
  6
Continuous
 62
     7
370
    25
100
AcDbCircle
 10
72.9477557147
 20
149.3382887343
 30
0.0
 40
0.5463536824327397
100
AcDbArc
 50
321.3497567494
 51
0.4738504542
  0
ARC
  5
1ED
330
1F
100
AcDbEntity
  8
0
  6
Continuous
 62
     7
370
    25
100
AcDbCircle
 10
74.5206552367
 20
165.6263607607
 30
0.0
 40
0.5888150525033921
100
AcDbArc
 50
350.2325472859
 51
25.5286316302
  0
ARC
  5
1EE
330
1F
100
AcDbEntity
  8
0
  6
Continuous
 62
     7
370
    25
100
AcDbCircle
 10
72.7367997637
 20
149.6915146884
 30
0.0
 40
1.067248103508835
100
AcDbArc
 50
338.1167631211
 51
351.0368535408
  0
ARC
  5
1EF
330
1F
100
AcDbEntity
  8
0
  6
Continuous
 62
     7
370
    25
100
AcDbCircle
 10
74.7719181322
 20
165.3546385693
 30
0.0
 40
0.5879606795533335
100
AcDbArc
 50
353.3662710768
 51
19.0552885114
  0
LINE
  5
1F0
330
1F
100
AcDbEntity
  8
0
  6
Continuous
 62
     7
370
    25
100
AcDbLine
 10
98.366319216
 20
154.7141523717
 30
0.0
 11
75.2809732362
 21
157.0183785318
 31
0.0
  0
LINE
  5
1F1
330
1F
100
AcDbEntity
  8
0
  6
Continuous
 62
     7
370
    25
100
AcDbLine
 10
75.3509206839
 20
157.7220076381
 30
0.0
 11
97.4977510191
 21
155.5114576279
 31
0.0
  0
ARC
  5
1F2
330
1F
100
AcDbEntity
  8
0
  6
Continuous
 62
     7
370
    25
100
AcDbCircle
 10
67.5038723416
 20
121.9649651705
 30
0.0
 40
44.99999999999999
100
AcDbArc
 50
46.698913621
 51
48.200141884
  0
LINE
  5
1F3
330
1F
100
AcDbEntity
  8
0
  6
Continuous
 62
     7
370
    25
100
AcDbLine
 10
99.5038738615
 20
153.6035502015
 30
0.0
 11
99.5038738615
 21
147.6097182988
 31
0.0
  0
ARC
  5
1F4
330
1F
100
AcDbEntity
  8
0
  6
Continuous
 62
     7
370
    25
100
AcDbCircle
 10
67.5038723416
 20
121.9649651705
 30
0.0
 40
44.99999999999999
100
AcDbArc
 50
44.6746095644
 51
46.698913621
  0
ARC
  5
1F5
330
1F
100
AcDbEntity
  8
0
  6
Continuous
 62
     7
370
    25
100
AcDbCircle
 10
122.9679793635
 20
140.6026696112
 30
0.0
 40
50.00194101053804
100
AcDbArc
 50
169.9903210352
 51
170.7027993271
  0
LINE
  5
1F6
330
1F
100
AcDbEntity
  8
0
  6
Continuous
 62
     7
370
    25
100
AcDbLine
 10
73.6228833116
 20
148.680763474
 30
0.0
 11
73.6226011209
 21
149.19674412
 31
0.0
  0
LINE
  5
1F7
330
1F
100
AcDbEntity
  8
0
  6
Continuous
 62
     7
370
    25
100
AcDbLine
 10
75.2555593058
 20
165.6355859397
 30
0.0
 11
75.2649875499
 21
165.6827145873
 31
0.0
  0
LINE
  5
1F8
330
1F
100
AcDbEntity
  8
0
  6
Continuous
 62
     7
370
    25
100
AcDbLine
 10
75.3276264436
 20
165.6827145873
 30
0.0
 11
75.2649875499
 21
165.6827145873
 31
0.0
  0
LINE
  5
1F9
330
1F
100
AcDbEntity
  8
0
  6
Continuous
 62
     7
370
    25
100
AcDbLine
 10
75.3277009494
 20
165.546544051
 30
0.0
 11
75.3276264436
 21
165.6827145873
 31
0.0
  0
LINE
  5
1FA
330
1F
100
AcDbEntity
  8
0
  6
Continuous
 62
     7
370
    25
100
AcDbLine
 10
79.8870129652
 20
165.2276256739
 30
0.0
 11
75.3276264436
 21
165.6827145873
 31
0.0
  0
ARC
  5
1FB
330
1F
100
AcDbEntity
  8
0
  6
Continuous
 62
     7
370
    25
100
AcDbCircle
 10
67.5038723416
 20
121.9649651705
 30
0.0
 40
44.99999999999999
100
AcDbArc
 50
48.200141884
 51
74.0272047837
  0
ARC
  5
1FC
330
1F
100
AcDbEntity
  8
0
  6
Continuous
 62
     7
370
    25
100
AcDbCircle
 10
134.3917360541
 20
138.329423463
 30
0.0
 40
69.22136122386321
100
AcDbArc
 50
170.7678667034
 51
172.8362914228
  0
LINE
  5
1FD
330
1F
100
AcDbEntity
  8
0
  6
Continuous
 62
     7
370
    25
100
AcDbLine
 10
73.6228833116
 20
148.680763474
 30
0.0
 11
70.512124817
 21
148.9912589698
 31
0.0
  0
LINE
  5
1FE
330
1F
100
AcDbEntity
  8
0
  6
Continuous
 62
     7
370
    25
100
AcDbLine
 10
99.5038738615
 20
147.6097182988
 30
0.0
 11
99.5038738615
 21
143.5886548518
 31
0.0
  0
LINE
  5
1FF
330
1F
100
AcDbEntity
  8
0
  6
Continuous
 62
     7
370
    25
100
AcDbLine
 10
58.6442407362
 20
91.2158695667
 30
0.0
 11
65.710724462
 21
146.9616593479
 31
0.0
  0
ARC
  5
200
330
1F
100
AcDbEntity
  8
0
  6
Continuous
 62
     7
370
    25
100
AcDbCircle
 10
67.5038723416
 20
121.9649651705
 30
0.0
 40
32.00000000000004
100
AcDbArc
 50
253.5868780258
 51
253.9269041583
  0
SPLINE
  5
201
330
1F
100
AcDbEntity
  8
0
  6
Continuous
 62
     7
370
    25
100
AcDbSpline
210
0.0
220
0.0
230
1.0
 70
     8
 71
     3
 72
    10
 73
     6
 74
     0
 42
0.000000001
 43
0.00000001
 40
0.0
 40
0.0
 40
0.0
 40
0.0
 40
0.5
 40
0.5
 40
1.0
 40
1.0
 40
1.0
 40
1.0
 10
58.46191544209965
 20
91.26898798409722
 30
0.0
 10
58.46861282095234
 20
91.42278415431802
 30
0.0
 10
58.46921039107404
 20
91.55500808574006
 30
0.0
 10
58.45754112903367
 20
91.74217344994354
 30
0.0
 10
58.44541273198075
 20
91.79553303150848
 30
0.0
 10
58.42812058451154
 20
91.80073585754955
 30
0.0
  0
ARC
  5
202
330
1F
100
AcDbEntity
  8
0
  6
Continuous
 62
     7
370
    25
100
AcDbCircle
 10
67.5038723416
 20
121.9649651705
 30
0.0
 40
31.49999999999998
100
AcDbArc
 50
253.0498997268
 51
253.2546170553
  0
ARC
  5
203
330
1F
100
AcDbEntity
  8
0
  6
Continuous
 62
     7
370
    25
100
AcDbCircle
 10
67.5038723416
 20
121.9649651705
 30
0.0
 40
31.50000000000003
100
AcDbArc
 50
95.3453829447
 51
95.5501002732
  0
SPLINE
  5
204
330
1F
100
AcDbEntity
  8
0
  6
Continuous
 62
     7
370
    25
100
AcDbSpline
210
0.0
220
0.0
230
1.0
 70
     8
 71
     3
 72
    10
 73
     6
 74
     0
 42
0.000000001
 43
0.00000001
 40
0.0
 40
0.0
 40
0.0
 40
0.0
 40
0.5
 40
0.5
 40
1.0
 40
1.0
 40
1.0
 40
1.0
 10
64.56935584668484
 20
153.3279786248844
 30
0.0
 10
64.5918132604037
 20
153.3300798786777
 30
0.0
 10
64.6212474877376
 20
153.4077970387905
 30
0.0
 10
64.68343650145245
 20
153.6823502074969
 30
0.0
 10
64.71496053112453
 20
153.8729876838476
 30
0.0
 10
64.74207136722283
 20
154.0876394792057
 30
0.0
  0
SPLINE
  5
205
330
1F
100
AcDbEntity
  8
0
  6
Continuous
 62
     7
370
    25
100
AcDbSpline
210
0.0
220
0.0
230
1.0
 70
     8
 71
     3
 72
     8
 73
     4
 74
     0
 42
0.000000001
 43
0.00000001
 40
0.0
 40
0.0
 40
0.0
 40
0.0
 40
1.0
 40
1.0
 40
1.0
 40
1.0
 10
64.74207136722283
 20
154.0876394792057
 30
0.0
 10
65.25250490186065
 20
158.1290299484541
 30
0.0
 10
65.76351085774498
 20
162.1682607557365
 30
0.0
 10
66.27472315917107
 20
166.2067130513528
 30
0.0
  0
SPLINE
  5
206
330
1F
100
AcDbEntity
  8
0
  6
Continuous
 62
     7
370
    25
100
AcDbSpline
210
0.0
220
0.0
230
1.0
 70
     8
 71
     3
 72
     8
 73
     4
 74
     0
 42
0.000000001
 43
0.00000001
 40
0.0
 40
0.0
 40
0.0
 40
0.0
 40
1.0
 40
1.0
 40
1.0
 40
1.0
 10
66.27472315917107
 20
166.2067130513528
 30
0.0
 10
66.2849896930458
 20
166.2878161609196
 30
0.0
 10
66.29576701099433
 20
166.3644851811528
 30
0.0
 10
66.30703589537266
 20
166.4368869393957
 30
0.0
  0
LINE
  5
207
330
1F
100
AcDbEntity
  8
0
  6
Continuous
 62
     7
370
    25
100
AcDbLine
 10
67.3972039799
 20
166.4368884324
 30
0.0
 11
66.307035871
 21
166.4368884324
 31
0.0
  0
LWPOLYLINE
  5
208
330
1F
100
AcDbEntity
  8
0
  6
Continuous
 62
     7
370
    25
100
AcDbPolyline
 90
       13
 70
   128
 43
0.0
 10
66.0705261539
 20
159.8055215238
 10
66.0725911289
 20
159.8573924659
 10
66.1052656501
 20
160.422478026
 10
66.157403649
 20
161.0280910193
 10
66.2254520135
 20
161.6329589544
 10
66.3047733392
 20
162.1958614944
 10
66.3899619972
 20
162.6784355997
 10
66.4752124717
 20
163.0477981328
 10
66.5547152307
 20
163.2787735818
 10
66.6230521306
 20
163.3556225954
 10
66.6755662674
 20
163.2731111406
 10
66.708678743
 20
163.0368606804
 10
66.7107890618
 20
163.0058588146
  0
LINE
  5
209
330
1F
100
AcDbEntity
  8
0
  6
Continuous
 62
     7
370
    25
100
AcDbLine
 10
75.2131883196
 20
165.6878852902
 30
0.0
 11
75.2649875499
 21
165.6827145873
 31
0.0
  0
ARC
  5
20A
330
1F
100
AcDbEntity
  8
0
  6
Continuous
 62
     7
370
    25
100
AcDbCircle
 10
67.5038723416
 20
121.9649651705
 30
0.0
 40
32.00000000000004
100
AcDbArc
 50
253.9269041583
 51
0.0
  0
LINE
  5
20B
330
1F
100
AcDbEntity
  8
0
  6
Continuous
 62
     7
370
    25
100
AcDbLine
 10
99.5038738615
 20
143.5886548518
 30
0.0
 11
99.5038738615
 21
121.9649651705
 31
0.0
  0
SPLINE
  5
20C
330
1F
100
AcDbEntity
  8
0
  6
Continuous
 62
     7
370
    25
100
AcDbSpline
210
0.0
220
0.0
230
1.0
 70
     8
 71
     3
 72
    20
 73
    16
 74
     0
 42
0.000000001
 43
0.00000001
 40
0.0
 40
0.0
 40
0.0
 40
0.0
 40
0.2499999999999997
 40
0.2499999999999997
 40
0.3749999999999997
 40
0.3749999999999997
 40
0.4999999999999998
 40
0.4999999999999998
 40
0.6249999999999998
 40
0.6249999999999998
 40
0.7499999999999999
 40
0.7499999999999999
 40
0.8749999999999999
 40
0.8749999999999999
 40
1.0
 40
1.0
 40
1.0
 40
1.0
 10
58.32040221300483
 20
91.83335591381164
 30
0.0
 10
58.26024738403537
 20
91.85168981925385
 30
0.0
 10
58.11029372926989
 20
91.89716145459609
 30
0.0
 10
57.75428236922079
 20
92.01148406676349
 30
0.0
 10
57.61453071543542
 20
92.0571339219488
 30
0.0
 10
57.30048700298536
 20
92.16281129829588
 30
0.0
 10
57.12544360700856
 20
92.22307277359309
 30
0.0
 10
56.73958312461297
 20
92.36053942026436
 30
0.0
 10
56.52866518204612
 20
92.43784516522393
 30
0.0
 10
56.08633230197109
 20
92.60605225730548
 30
0.0
 10
55.85327625962682
 20
92.69752118775537
 30
0.0
 10
55.36447282676298
 20
92.89686158998533
 30
0.0
 10
55.10740476347924
 20
93.00535516917682
 30
0.0
 10
54.58482285936871
 20
93.234674877505
 30
0.0
 10
54.3179330155706
 20
93.35602313418735
 30
0.0
 10
54.04584830270286
 20
93.48459317558475
 30
0.0
  0
SPLINE
  5
20D
330
1F
100
AcDbEntity
  8
0
  6
Continuous
 62
     7
370
    25
100
AcDbSpline
210
0.0
220
0.0
230
1.0
 70
     8
 71
     3
 72
    20
 73
    16
 74
     0
 42
0.000000001
 43
0.00000001
 40
0.0
 40
0.0
 40
0.0
 40
0.0
 40
0.2499999999999988
 40
0.2499999999999988
 40
0.3749999999999989
 40
0.3749999999999989
 40
0.499999999999999
 40
0.499999999999999
 40
0.6249999999999992
 40
0.6249999999999992
 40
0.7499999999999996
 40
0.7499999999999996
 40
0.8749999999999998
 40
0.8749999999999998
 40
1.0
 40
1.0
 40
1.0
 40
1.0
 10
59.94071389042327
 20
152.5435301178781
 30
0.0
 10
60.52505406385087
 20
152.6880580683767
 30
0.0
 10
61.07923951228366
 20
152.8073948845111
 30
0.0
 10
61.86081639404951
 20
152.956516664184
 30
0.0
 10
62.11151576988632
 20
153.0008866310156
 30
0.0
 10
62.57812070842765
 20
153.0783529826318
 30
0.0
 10
62.79624923413994
 20
153.111877062007
 30
0.0
 10
63.20111929144596
 20
153.1703838007411
 30
0.0
 10
63.38886328194669
 20
153.1954699474684
 30
0.0
 10
63.7192704329044
 20
153.2372295045387
 30
0.0
 10
63.86352723345662
 20
153.2541530762981
 30
0.0
 10
64.11010725616156
 20
153.2818575906555
 30
0.0
 10
64.21293387585804
 20
153.29268477413
 30
0.0
 10
64.370745564533
 20
153.308861037922
 30
0.0
 10
64.42600678270341
 20
153.3142511761253
 30
0.0
 10
64.45731503855582
 20
153.3172934508381
 30
0.0
  0
ELLIPSE
  5
20E
330
1F
100
AcDbEntity
  8
0
  6
Continuous
 62
     7
370
    25
100
AcDbEllipse
 10
53.5295352353
 20
138.3133281178
 30
0.0
 11
2.26677764322492
 21
3.003838829095856
 31
0.0
210
0.0
220
0.0
230
1.0
 40
0.6481359233
 41
0.0
 42
6.283185307179586
  0
ARC
  5
20F
330
1F
100
AcDbEntity
  8
0
  6
Continuous
 62
     7
370
    25
100
AcDbCircle
 10
67.5038723416
 20
121.9649651705
 30
0.0
 40
31.50000000000001
100
AcDbArc
 50
103.8924583517
 51
244.7075416483
  0
INSERT
  5
21B
330
1F
100
AcDbEntity
  8
VERMASSUNG
100
AcDbBlockReference
  2
SW_CENTERMARKSYMBOL_0
 10
67.5038723416
 20
121.9649651705
 30
0.0
  0
LINE
  5
21C
330
1F
100
AcDbEntity
  8
0
  6
Continuous
 62
     7
370
    25
100
AcDbLine
 10
240.6921819306
 20
39.3111608478
 30
0.0
 11
241.0256491132
 21
41.2348810828
 31
0.0
  0
LINE
  5
21D
330
1F
100
AcDbEntity
  8
0
  6
Continuous
 62
     7
370
    25
100
AcDbLine
 10
234.7387209417
 20
45.4196172186
 30
0.0
 11
234.7161131087
 21
45.2892002039
 31
0.0
  0
LINE
  5
21E
330
1F
100
AcDbEntity
  8
0
  6
Continuous
 62
     7
370
    25
100
AcDbLine
 10
233.2107528034
 20
45.3790321156
 30
0.0
 11
233.1155918049
 21
45.4597218674
 31
0.0
  0
LINE
  5
21F
330
1F
100
AcDbEntity
  8
0
  6
Continuous
 62
     7
370
    25
100
AcDbLine
 10
230.6431299136
 20
45.8883104608
 30
0.0
 11
230.5263640455
 21
45.8443575844
 31
0.0
  0
LINE
  5
220
330
1F
100
AcDbEntity
  8
0
  6
Continuous
 62
     7
370
    25
100
AcDbLine
 10
238.7409527491
 20
42.6765143533
 30
0.0
 11
238.7661289056
 21
42.9064766244
 31
0.0
  0
LINE
  5
221
330
1F
100
AcDbEntity
  8
0
  6
Continuous
 62
     7
370
    25
100
AcDbLine
 10
240.4883887472
 20
38.3556437605
 30
0.0
 11
240.6437354454
 21
39.2518069181
 31
0.0
  0
LINE
  5
222
330
1F
100
AcDbEntity
  8
0
  6
Continuous
 62
     7
370
    25
100
AcDbLine
 10
234.3333005277
 20
38.8842029369
 30
0.0
 11
234.4284615262
 21
38.8035132327
 31
0.0
  0
LINE
  5
223
330
1F
100
AcDbEntity
  8
0
  6
Continuous
 62
     7
370
    25
100
AcDbLine
 10
240.1634365452
 20
38.1050108862
 30
0.0
 11
240.2802030719
 21
38.1489640478
 31
0.0
  0
LINE
  5
224
330
1F
100
AcDbEntity
  8
0
  6
Continuous
 62
     7
370
    25
100
AcDbLine
 10
202.919122624
 20
30.1870715911
 30
0.0
 11
209.3801870855
 21
26.4571784705
 31
0.0
  0
LINE
  5
225
330
1F
100
AcDbEntity
  8
0
  6
Continuous
 62
     7
370
    25
100
AcDbLine
 10
197.495833078
 20
33.3178700051
 30
0.0
 11
200.2042715727
 21
31.7543217432
 31
0.0
  0
LINE
  5
226
330
1F
100
AcDbEntity
  8
0
  6
Continuous
 62
     7
370
    25
100
AcDbLine
 10
215.952992062
 20
59.0348608636
 30
0.0
 11
213.2445535673
 21
60.5984091255
 31
0.0
  0
LINE
  5
227
330
1F
100
AcDbEntity
  8
0
  6
Continuous
 62
     7
370
    25
100
AcDbLine
 10
222.6932886145
 20
55.143770488
 30
0.0
 11
218.6678431133
 21
57.4676107116
 31
0.0
  0
LINE
  5
228
330
1F
100
AcDbEntity
  8
0
  6
Continuous
 62
     7
370
    25
100
AcDbLine
 10
210.6639899693
 20
25.4273875722
 30
0.0
 11
211.3153826839
 21
25.0513465623
 31
0.0
  0
SPLINE
  5
229
330
1F
100
AcDbEntity
  8
0
  6
Continuous
 62
     7
370
    25
100
AcDbSpline
210
0.0
220
0.0
230
1.0
 70
     8
 71
     3
 72
    32
 73
    28
 74
     0
 42
0.000000001
 43
0.00000001
 40
0.0
 40
0.0
 40
0.0
 40
0.0
 40
0.0173904141699004
 40
0.058194752598806
 40
0.0991036894416647
 40
0.1400851066082272
 40
0.1811095277622128
 40
0.2221541906931581
 40
0.2632019854544408
 40
0.3042429816166946
 40
0.3452733718326916
 40
0.3862918932965804
 40
0.4272989486837136
 40
0.4682958940025788
 40
0.509284635533099
 40
0.5502673861270727
 40
0.591246475256557
 40
0.6322243756935786
 40
0.6732034105392513
 40
0.7141854404676904
 40
0.7551729381717854
 40
0.7961684781482158
 40
0.8371745127885915
 40
0.8781933355599957
 40
0.9192269276949044
 40
0.96027659061803
 40
1.0
 40
1.0
 40
1.0
 40
1.0
 10
209.7640162225765
 20
61.32878091526438
 30
0.0
 10
209.6458630874029
 20
61.32328317701913
 30
0.0
 10
209.2504790325422
 20
61.30488571311113
 30
0.0
 10
208.550245670254
 20
61.17362169908441
 30
0.0
 10
207.6703073591975
 20
60.93881110589831
 30
0.0
 10
206.7735908608879
 20
60.60608978218958
 30
0.0
 10
205.8682382065886
 20
60.18490814758324
 30
0.0
 10
204.9598205357848
 20
59.67628297096802
 30
0.0
 10
204.0545366587588
 20
59.08427372835611
 30
0.0
 10
203.1582874849801
 20
58.41282186410736
 30
0.0
 10
202.2768886701933
 20
57.6665056179754
 30
0.0
 10
201.4160035297699
 20
56.85029780782281
 30
0.0
 10
200.5811573991085
 20
55.96960085981244
 30
0.0
 10
199.7777065203291
 20
55.03020611395912
 30
0.0
 10
199.0108141298154
 20
54.03826165032697
 30
0.0
 10
198.2854155053276
 20
53.00024326738047
 30
0.0
 10
197.6061924270278
 20
51.92290879491152
 30
0.0
 10
196.9775395853021
 20
50.81326283273568
 30
0.0
 10
196.4035444460914
 20
49.67851369659748
 30
0.0
 10
195.8879465421713
 20
48.5260236771881
 30
0.0
 10
195.4341354507108
 20
47.36326261365861
 30
0.0
 10
195.0450710546304
 20
46.1977267445094
 30
0.0
 10
194.7234736168522
 20
45.03700855195984
 30
0.0
 10
194.4710544452686
 20
43.88832650896728
 30
0.0
 10
194.291349664077
 20
42.7600657129151
 30
0.0
 10
194.1802974156542
 20
41.66785047508328
 30
0.0
 10
194.1667173009735
 20
40.97279735656063
 30
0.0
 10
194.1600387329864
 20
40.63097700998519
 30
0.0
  0
SPLINE
  5
22A
330
1F
100
AcDbEntity
  8
0
  6
Continuous
 62
     7
370
    25
100
AcDbSpline
210
0.0
220
0.0
230
1.0
 70
     8
 71
     3
 72
    13
 73
     9
 74
     0
 42
0.000000001
 43
0.00000001
 40
0.0
 40
0.0
 40
0.0
 40
0.0
 40
0.1027242757928398
 40
0.2978199837419258
 40
0.4929842548670467
 40
0.6880865699484311
 40
0.8830191981944635
 40
1.0
 40
1.0
 40
1.0
 40
1.0
 10
194.1600387329864
 20
40.63097700998519
 30
0.0
 10
194.162097412563
 20
40.44806928884756
 30
0.0
 10
194.1680659717308
 20
39.91778008393419
 30
0.0
 10
194.2347447778705
 20
39.07352652349572
 30
0.0
 10
194.3832306127935
 20
38.11925150465416
 30
0.0
 10
194.6090145559809
 20
37.22599591313832
 30
0.0
 10
194.8570601812846
 20
36.4962812786203
 30
0.0
 10
195.0580883647963
 20
36.09518616886792
 30
0.0
 10
195.1334824832503
 20
35.94475844431834
 30
0.0
  0
LINE
  5
22B
330
1F
100
AcDbEntity
  8
0
  6
Continuous
 62
     7
370
    25
100
AcDbLine
 10
186.0089331128
 20
45.318232122
 30
0.0
 11
194.1668543908
 21
40.2679755616
 31
0.0
  0
LINE
  5
22C
330
1F
100
AcDbEntity
  8
0
  6
Continuous
 62
     7
370
    25
100
AcDbLine
 10
204.5265260472
 20
59.3786939652
 30
0.0
 11
196.5051882173
 21
63.6859291206
 31
0.0
  0
LINE
  5
22D
330
1F
100
AcDbEntity
  8
0
  6
Continuous
 62
     7
370
    25
100
AcDbLine
 10
193.8158187226
 20
64.2761857511
 30
0.0
 11
193.1762686138
 21
64.1889747561
 31
0.0
  0
LINE
  5
22E
330
1F
100
AcDbEntity
  8
0
  6
Continuous
 62
     7
370
    25
100
AcDbLine
 10
184.8456827281
 20
47.0542743456
 30
0.0
 11
185.089986277
 21
46.4568248347
 31
0.0
  0
ARC
  5
22F
330
1F
100
AcDbEntity
  8
0
  6
Continuous
 62
     7
370
    25
100
AcDbCircle
 10
216.3755969716
 20
52.4198524293
 30
0.0
 40
4.963700249939102
100
AcDbArc
 50
55.7399230908
 51
83.3743845164
  0
ARC
  5
230
330
1F
100
AcDbEntity
  8
0
  6
Continuous
 62
     7
370
    25
100
AcDbCircle
 10
216.6507169274
 20
53.1132878191
 30
0.0
 40
4.180428543964647
100
AcDbArc
 50
55.1343942851
 51
84.7047877973
  0
LINE
  5
231
330
1F
100
AcDbEntity
  8
0
  6
Continuous
 62
     7
370
    25
100
AcDbLine
 10
240.827038675
 20
44.8212991356
 30
0.0
 11
234.9357311167
 21
45.5009785294
 31
0.0
  0
ARC
  5
232
330
1F
100
AcDbEntity
  8
0
  6
Continuous
 62
     7
370
    25
100
AcDbCircle
 10
240.8350502967
 20
44.6218076182
 30
0.0
 40
0.1996523268189298
100
AcDbArc
 50
17.8276291245
 51
92.2997748099
  0
LINE
  5
233
330
1F
100
AcDbEntity
  8
0
  6
Continuous
 62
     7
370
    25
100
AcDbLine
 10
241.0266158565
 20
41.2461939165
 30
0.0
 11
241.0251156921
 21
44.6829320574
 31
0.0
  0
LWPOLYLINE
  5
234
330
1F
100
AcDbEntity
  8
0
  6
Continuous
 62
     7
370
    25
100
AcDbPolyline
 90
        9
 70
   128
 43
0.0
 10
240.8286402552
 20
41.1535189893
 10
240.8672717932
 20
41.1512817691
 10
240.9044163376
 20
41.1535698958
 10
240.9386501153
 20
41.1602949932
 10
240.968652086
 20
41.1711990373
 10
240.9932711139
 20
41.1858629688
 10
241.011561529
 20
41.2037251557
 10
241.0228200059
 20
41.2240954547
 10
241.0266158565
 20
41.2461939165
  0
LINE
  5
235
330
1F
100
AcDbEntity
  8
0
  6
Continuous
 62
     7
370
    25
100
AcDbLine
 10
234.937332697
 20
41.8331983891
 30
0.0
 11
240.8286402552
 21
41.1535189893
 31
0.0
  0
ARC
  5
236
330
1F
100
AcDbEntity
  8
0
  6
Continuous
 62
     7
370
    25
100
AcDbCircle
 10
234.9293204066
 20
42.0326900159
 30
0.0
 40
0.1996524629520277
100
AcDbArc
 50
197.8277601092
 51
272.2999652937
  0
LINE
  5
237
330
1F
100
AcDbEntity
  8
0
  6
Continuous
 62
     7
370
    25
100
AcDbLine
 10
234.7377541984
 20
45.4083043849
 30
0.0
 11
234.7392550213
 21
41.9715651005
 31
0.0
  0
LWPOLYLINE
  5
238
330
1F
100
AcDbEntity
  8
0
  6
Continuous
 62
     7
370
    25
100
AcDbPolyline
 90
        9
 70
   128
 43
0.0
 10
234.9357311167
 20
45.5009785294
 10
234.8970995788
 20
45.5032157452
 10
234.8599537173
 20
45.5009283912
 10
234.8257212567
 20
45.4942025489
 10
234.795720603
 20
45.4832977071
 10
234.7711002581
 20
45.4686330286
 10
234.7528098429
 20
45.4507723824
 10
234.7415487318
 20
45.4304020566
 10
234.7377541984
 20
45.4083043849
  0
LWPOLYLINE
  5
239
330
1F
100
AcDbEntity
  8
0
  6
Continuous
 62
     7
370
    25
100
AcDbPolyline
 90
        9
 70
   128
 43
0.0
 10
240.828636304
 20
41.1592954004
 10
240.8653369894
 20
41.1571703074
 10
240.9006257554
 20
41.1593436478
 10
240.9331446832
 20
41.1657324901
 10
240.9616491237
 20
41.1760909895
 10
240.9850379904
 20
41.1900223333
 10
241.0024130287
 20
41.2069898526
 10
241.0131091086
 20
41.2263426997
 10
241.0167139813
 20
41.2473364677
  0
LINE
  5
23A
330
1F
100
AcDbEntity
  8
0
  6
Continuous
 62
     7
370
    25
100
AcDbLine
 10
241.0167139813
 20
41.2473364677
 30
0.0
 11
241.0152138169
 21
44.6840746086
 31
0.0
  0
ARC
  5
23B
330
1F
100
AcDbEntity
  8
0
  6
Continuous
 62
     7
370
    25
100
AcDbCircle
 10
240.8346527186
 20
44.626008043
 30
0.0
 40
0.1896682268373268
100
AcDbArc
 50
17.8272491587
 51
92.2999042995
  0
LINE
  5
23C
330
1F
100
AcDbEntity
  8
0
  6
Continuous
 62
     7
370
    25
100
AcDbLine
 10
240.8270413092
 20
44.8155234849
 30
0.0
 11
234.9357337509
 21
45.4952028965
 31
0.0
  0
LWPOLYLINE
  5
23D
330
1F
100
AcDbEntity
  8
0
  6
Continuous
 62
     7
370
    25
100
AcDbPolyline
 90
        9
 70
   128
 43
0.0
 10
234.9357337509
 20
45.4952028965
 10
234.8990330655
 20
45.4973279735
 10
234.8637442995
 20
45.4951546355
 10
234.8312240546
 20
45.4887650212
 10
234.8027235653
 20
45.4784057897
 10
234.7793346986
 20
45.4644744355
 10
234.7619570261
 20
45.4475069333
 10
234.7512622633
 20
45.4281548339
 10
234.7476560736
 20
45.4071618367
  0
LINE
  5
23E
330
1F
100
AcDbEntity
  8
0
  6
Continuous
 62
     7
370
    25
100
AcDbLine
 10
234.7476560736
 20
45.4071618367
 30
0.0
 11
234.7491555794
 21
41.9704233126
 31
0.0
  0
ARC
  5
23F
330
1F
100
AcDbEntity
  8
0
  6
Continuous
 62
     7
370
    25
100
AcDbCircle
 10
234.9297184822
 20
42.0284917495
 30
0.0
 40
0.1896705175127712
100
AcDbArc
 50
197.8276204288
 51
272.2999282724
  0
LINE
  5
240
330
1F
100
AcDbEntity
  8
0
  6
Continuous
 62
     7
370
    25
100
AcDbLine
 10
234.9373300628
 20
41.838974022
 30
0.0
 11
240.828636304
 21
41.1592954004
 31
0.0
  0
ARC
  5
241
330
1F
100
AcDbEntity
  8
0
  6
Continuous
 62
     7
370
    25
100
AcDbCircle
 10
234.6014307143
 20
40.1246866539
 30
0.0
 40
0.2152222296544307
100
AcDbArc
 50
206.031028768
 51
270.6481986143
  0
LINE
  5
242
330
1F
100
AcDbEntity
  8
0
  6
Continuous
 62
     7
370
    25
100
AcDbLine
 10
234.9219128773
 20
41.8600525239
 30
0.0
 11
234.9373300628
 21
41.838974022
 31
0.0
  0
LINE
  5
243
330
1F
100
AcDbEntity
  8
0
  6
Continuous
 62
     7
370
    25
100
AcDbLine
 10
234.9219128773
 20
41.8600525239
 30
0.0
 11
234.7491555794
 21
41.9704233126
 31
0.0
  0
LINE
  5
244
330
1F
100
AcDbEntity
  8
0
  6
Continuous
 62
     7
370
    25
100
AcDbLine
 10
234.6038655145
 20
39.9094781971
 30
0.0
 11
240.4951730727
 21
39.229798729
 31
0.0
  0
LINE
  5
245
330
1F
100
AcDbEntity
  8
0
  6
Continuous
 62
     7
370
    25
100
AcDbLine
 10
240.1138692172
 20
41.3273687182
 30
0.0
 11
240.8132184599
 21
41.1803735251
 31
0.0
  0
LINE
  5
246
330
1F
100
AcDbEntity
  8
0
  6
Continuous
 62
     7
370
    25
100
AcDbLine
 10
240.8132184599
 20
41.1803735251
 30
0.0
 11
240.828636304
 21
41.1592954004
 31
0.0
  0
LINE
  5
247
330
1F
100
AcDbEntity
  8
0
  6
Continuous
 62
     7
370
    25
100
AcDbLine
 10
235.5153148211
 20
41.8579034814
 30
0.0
 11
234.9219128773
 21
41.8600525239
 31
0.0
  0
LINE
  5
248
330
1F
100
AcDbEntity
  8
0
  6
Continuous
 62
     7
370
    25
100
AcDbLine
 10
234.9204120544
 20
45.2967918083
 30
0.0
 11
234.7476560736
 21
45.4071618367
 31
0.0
  0
LINE
  5
249
330
1F
100
AcDbEntity
  8
0
  6
Continuous
 62
     7
370
    25
100
AcDbLine
 10
235.514143929
 20
44.5405053632
 30
0.0
 11
234.9204120544
 21
45.2967918083
 31
0.0
  0
LWPOLYLINE
  5
24A
330
1F
100
AcDbEntity
  8
0
  6
Continuous
 62
     7
370
    25
100
AcDbPolyline
 90
        9
 70
   128
 43
0.0
 10
240.4951730727
 20
39.229798729
 10
240.5338046107
 20
39.2275614657
 10
240.5709504722
 20
39.2298503404
 10
240.6051829328
 20
39.2365747096
 10
240.6351849035
 20
39.2474787436
 10
240.6598052485
 20
39.2621435171
 10
240.6780943465
 20
39.2800048761
 10
240.6893541405
 20
39.3003760572
 10
240.6921819306
 20
39.3111608478
  0
LINE
  5
24B
330
1F
100
AcDbEntity
  8
0
  6
Continuous
 62
     7
370
    25
100
AcDbLine
 10
240.8132184599
 20
41.1803735251
 30
0.0
 11
241.0167139813
 21
41.2473364677
 31
0.0
  0
SPLINE
  5
24C
330
1F
100
AcDbEntity
  8
0
  6
Continuous
 62
     7
370
    25
100
AcDbSpline
210
0.0
220
0.0
230
1.0
 70
     8
 71
     3
 72
    11
 73
     7
 74
     0
 42
0.000000001
 43
0.00000001
 40
0.0
 40
0.0
 40
0.0
 40
0.0
 40
0.0079293256449254
 40
0.312702286514867
 40
0.6558303933952068
 40
1.0
 40
1.0
 40
1.0
 40
1.0
 10
235.7625423075648
 20
41.99650784392092
 30
0.0
 10
235.7618995833764
 20
41.99585577969464
 30
0.0
 10
235.7365529987719
 20
41.97014085970677
 30
0.0
 10
235.6810963730091
 20
41.92192715265636
 30
0.0
 10
235.5942715377366
 20
41.86903481897956
 30
0.0
 10
235.5416603015381
 20
41.861617673806
 30
0.0
 10
235.5153148211005
 20
41.85790348141684
 30
0.0
  0
LINE
  5
24D
330
1F
100
AcDbEntity
  8
0
  6
Continuous
 62
     7
370
    25
100
AcDbLine
 10
240.1126996421
 20
44.0099713365
 30
0.0
 11
240.8117196126
 21
44.6171124234
 31
0.0
  0
LINE
  5
24E
330
1F
100
AcDbEntity
  8
0
  6
Continuous
 62
     7
370
    25
100
AcDbLine
 10
240.8117196126
 20
44.6171124234
 30
0.0
 11
241.0152138169
 21
44.6840746086
 31
0.0
  0
ARC
  5
24F
330
1F
100
AcDbEntity
  8
0
  6
Continuous
 62
     7
370
    25
100
AcDbCircle
 10
236.7090652949
 20
42.9973468851
 30
0.0
 40
0.4991294314448302
100
AcDbArc
 50
197.8275007903
 51
272.3000447283
  0
SPLINE
  5
250
330
1F
100
AcDbEntity
  8
0
  6
Continuous
 62
     7
370
    25
100
AcDbSpline
210
0.0
220
0.0
230
1.0
 70
     8
 71
     3
 72
    11
 73
     7
 74
     0
 42
0.000000001
 43
0.00000001
 40
0.0
 40
0.0
 40
0.0
 40
0.0
 40
0.3441695960887416
 40
0.6872951314312735
 40
0.9920693125704806
 40
0.9999999999999999
 40
0.9999999999999999
 40
0.9999999999999999
 40
0.9999999999999999
 10
240.11386921716
 20
41.32736871816026
 30
0.0
 10
240.0842571742497
 20
41.33753860785502
 30
0.0
 10
240.0251229184777
 20
41.3578475362259
 30
0.0
 10
239.9428885467706
 20
41.43024906633838
 30
0.0
 10
239.895773471731
 20
41.49028265390717
 30
0.0
 10
239.8756608714682
 20
41.5212518664552
 30
0.0
 10
239.8751507842833
 20
41.5220372944077
 30
0.0
  0
LINE
  5
251
330
1F
100
AcDbEntity
  8
0
  6
Continuous
 62
     7
370
    25
100
AcDbLine
 10
236.729096643
 20
42.4986195704
 30
0.0
 11
239.0361137146
 21
42.2324592031
 31
0.0
  0
LWPOLYLINE
  5
252
330
1F
100
AcDbEntity
  8
0
  6
Continuous
 62
     7
370
    25
100
AcDbPolyline
 90
        9
 70
   128
 43
0.0
 10
239.0361137146
 20
42.2324592031
 10
239.1326945351
 20
42.2268657835
 10
239.2255585303
 20
42.2325860932
 10
239.3111363892
 20
42.249399594
 10
239.3861419744
 20
42.276660083
 10
239.4476908612
 20
42.3133206743
 10
239.4934175577
 20
42.3579734778
 10
239.5215677012
 20
42.4088999812
 10
239.5310546934
 20
42.464144624
  0
LINE
  5
253
330
1F
100
AcDbEntity
  8
0
  6
Continuous
 62
     7
370
    25
100
AcDbLine
 10
239.0352747289
 20
44.1558779513
 30
0.0
 11
236.7282576573
 21
44.4220383423
 31
0.0
  0
ARC
  5
254
330
1F
100
AcDbEntity
  8
0
  6
Continuous
 62
     7
370
    25
100
AcDbCircle
 10
239.0553033451
 20
43.6571481938
 30
0.0
 40
0.4991317627265269
100
AcDbArc
 50
17.827802409
 51
92.2997201191
  0
LINE
  5
255
330
1F
100
AcDbEntity
  8
0
  6
Continuous
 62
     7
370
    25
100
AcDbLine
 10
239.5310546934
 20
42.464144624
 30
0.0
 11
239.5304672717
 21
43.8099610184
 31
0.0
  0
LINE
  5
256
330
1F
100
AcDbEntity
  8
0
  6
Continuous
 62
     7
370
    25
100
AcDbLine
 10
236.2333153614
 20
44.1903521255
 30
0.0
 11
236.2339027831
 21
42.8445372756
 31
0.0
  0
LWPOLYLINE
  5
257
330
1F
100
AcDbEntity
  8
0
  6
Continuous
 62
     7
370
    25
100
AcDbPolyline
 90
        9
 70
   128
 43
0.0
 10
236.7282576573
 20
44.4220383423
 10
236.6316768369
 20
44.4276317383
 10
236.5388128416
 20
44.4219114523
 10
236.4532336657
 20
44.4050986761
 10
236.3782280804
 20
44.3778366903
 10
236.3166791936
 20
44.3411760871
 10
236.2709524972
 20
44.296524828
 10
236.2428036707
 20
44.2455975405
 10
236.2333153614
 20
44.1903521255
  0
LWPOLYLINE
  5
258
330
1F
100
AcDbEntity
  8
0
  6
Continuous
 62
     7
370
    25
100
AcDbPolyline
 90
       22
 70
   128
 43
0.0
 10
236.6049109539
 20
43.474607435
 10
236.6617525645
 20
43.2484366758
 10
236.8270353822
 20
43.0292680324
 10
237.0860712303
 20
42.8365764478
 10
237.4158466123
 20
42.6874833431
 10
237.7870589318
 20
42.5952363998
 10
238.1667230115
 20
42.5680316022
 10
238.5211042505
 20
42.6082872963
 10
238.8187150017
 20
42.712424942
 10
239.0331120688
 20
42.8711924658
 10
239.1452424421
 20
43.0704827699
 10
239.1451449776
 20
43.2925881888
 10
239.0328302117
 20
43.5177732114
 10
238.8182724598
 20
43.7260288207
 10
238.5205405364
 20
43.8988515869
 10
238.1660881746
 20
44.0208846767
 10
237.7864096069
 20
44.0812850121
 10
237.4152407513
 20
44.0746863164
 10
237.0855628339
 20
44.0016740259
 10
236.8266679144
 20
43.8687374437
 10
236.6615602695
 20
43.6876858716
 10
236.6049109539
 20
43.474607435
  0
SPLINE
  5
259
330
1F
100
AcDbEntity
  8
0
  6
Continuous
 62
     7
370
    25
100
AcDbSpline
210
0.0
220
0.0
230
1.0
 70
     8
 71
     3
 72
    11
 73
     7
 74
     0
 42
0.000000001
 43
0.00000001
 40
0.0
 40
0.0
 40
0.0
 40
0.0
 40
0.007930178551061
 40
0.3127021649380377
 40
0.6558291274797985
 40
1.0
 40
1.0
 40
1.0
 40
1.0
 10
235.7614945632526
 20
44.39562926115092
 30
0.0
 10
235.7608516218141
 20
44.39564965008978
 30
0.0
 10
235.7354992065482
 20
44.39645362509269
 30
0.0
 10
235.6800087775866
 20
44.40807657065667
 30
0.0
 10
235.5931442151694
 20
44.45380355385513
 30
0.0
 10
235.5405040087548
 20
44.51157551086514
 30
0.0
 10
235.5141439289653
 20
44.54050536316059
 30
0.0
  0
SPLINE
  5
25A
330
1F
100
AcDbEntity
  8
0
  6
Continuous
 62
     7
370
    25
100
AcDbSpline
210
0.0
220
0.0
230
1.0
 70
     8
 71
     3
 72
    11
 73
     7
 74
     0
 42
0.000000001
 43
0.00000001
 40
0.0
 40
0.0
 40
0.0
 40
0.0
 40
0.3441702704704179
 40
0.687298594192958
 40
0.9920672965964702
 40
1.0
 40
1.0
 40
1.0
 40
1.0
 10
240.1126996421139
 20
44.00997133647886
 30
0.0
 10
240.0831019283542
 20
43.98749777079892
 30
0.0
 10
240.0239961054412
 20
43.94261867628212
 30
0.0
 10
239.9417909549941
 20
43.91639291369492
 30
0.0
 10
239.8947378342373
 20
43.91660749762703
 30
0.0
 10
239.8746129164011
 20
43.92104574077959
 30
0.0
 10
239.8741023814266
 20
43.92115833146805
 30
0.0
  0
LINE
  5
25B
330
1F
100
AcDbEntity
  8
0
  6
Continuous
 62
     7
370
    25
100
AcDbLine
 10
234.9204120544
 20
45.2967918083
 30
0.0
 11
234.9357337509
 21
45.4952028965
 31
0.0
  0
LINE
  5
25C
330
1F
100
AcDbEntity
  8
0
  6
Continuous
 62
     7
370
    25
100
AcDbLine
 10
240.8117196126
 20
44.6171124234
 30
0.0
 11
240.8270413092
 21
44.8155234849
 31
0.0
  0
LWPOLYLINE
  5
25D
330
1F
100
AcDbEntity
  8
0
  6
Continuous
 62
     7
370
    25
100
AcDbPolyline
 90
       25
 70
   128
 43
0.0
 10
233.0457057446
 20
45.5158293812
 10
233.3026092255
 20
45.2689788637
 10
233.4543971492
 20
45.0028843238
 10
233.4907316839
 20
44.7356798595
 10
233.4091301168
 20
44.4855747898
 10
233.2151597832
 20
44.269614108
 10
232.9220343787
 20
44.102515075
 10
232.5497328266
 20
43.9956646335
 10
232.1236248954
 20
43.9563446476
 10
231.6727517395
 20
43.9872349586
 10
231.2278377528
 20
44.0862300853
 10
230.8192036416
 20
44.2465837279
 10
230.474696619
 20
44.4573684315
 10
230.2177944552
 20
44.7042197094
 10
230.0660045559
 20
44.9703146295
 10
230.0296719968
 20
45.2375187136
 10
230.1112722468
 20
45.487623023
 10
230.3052438975
 20
45.7035844651
 10
230.5983686434
 20
45.8706831179
 10
230.9706708541
 20
45.9775339396
 10
231.3967761511
 20
46.0168539255
 10
231.8476499656
 20
45.9859639947
 10
232.2925652693
 20
45.8869681076
 10
232.7012000391
 20
45.7266148452
 10
233.0457057446
 20
45.5158293812
  0
LWPOLYLINE
  5
25E
330
1F
100
AcDbEntity
  8
0
  6
Continuous
 62
     7
370
    25
100
AcDbPolyline
 90
       19
 70
   128
 43
0.0
 10
232.4947766289
 20
45.2890166125
 10
232.6775438033
 20
45.0979937886
 10
232.7496675978
 20
44.8935336628
 10
232.7024466638
 20
44.7002995266
 10
232.5415767529
 20
44.5415975754
 10
232.2864625374
 20
44.4365688935
 10
231.9678731924
 20
44.3978822482
 10
231.6242341314
 20
44.4302035011
 10
231.2969954629
 20
44.5296344697
 10
231.0256270518
 20
44.6841819606
 10
230.8428585604
 20
44.8752055449
 10
230.7707354244
 20
45.0796645301
 10
230.8179563583
 20
45.2728986664
 10
230.9788249522
 20
45.4316013779
 10
231.2339404848
 20
45.5366292995
 10
231.5525304883
 20
45.5753163249
 10
231.8961688907
 20
45.5429946919
 10
232.2234062422
 20
45.4435644836
 10
232.4947766289
 20
45.2890166125
  0
SPLINE
  5
25F
330
1F
100
AcDbEntity
  8
0
  6
Continuous
 62
     7
370
    25
100
AcDbSpline
210
0.0
220
0.0
230
1.0
 70
     8
 71
     3
 72
     9
 73
     5
 74
     0
 42
0.000000001
 43
0.00000001
 40
0.0
 40
0.0
 40
0.0
 40
0.0
 40
0.3731919695029757
 40
1.0
 40
1.0
 40
1.0
 40
1.0
 10
230.9030198938818
 20
44.8702507260895
 30
0.0
 10
230.9202869955187
 20
44.84365566047039
 30
0.0
 10
230.9665556803993
 20
44.77239189331448
 30
0.0
 10
231.0218969050962
 20
44.71676820827207
 30
0.0
 10
231.0565852291538
 20
44.68190283580165
 30
0.0
  0
SPLINE
  5
260
330
1F
100
AcDbEntity
  8
0
  6
Continuous
 62
     7
370
    25
100
AcDbSpline
210
0.0
220
0.0
230
1.0
 70
     8
 71
     3
 72
    10
 73
     6
 74
     0
 42
0.000000001
 43
0.00000001
 40
0.0
 40
0.0
 40
0.0
 40
0.0
 40
0.4391168530529812
 40
0.7513680666667412
 40
0.9999999999999999
 40
0.9999999999999999
 40
0.9999999999999999
 40
0.9999999999999999
 10
232.3163887754588
 20
44.44080087228171
 30
0.0
 10
232.3469060321374
 20
44.46306803898602
 30
0.0
 10
232.3991237778038
 20
44.50116914551483
 30
0.0
 10
232.4984098151102
 20
44.69140740993022
 30
0.0
 10
232.5548294449911
 20
44.8264886156581
 30
0.0
 10
232.5798395058773
 20
44.88636829205758
 30
0.0
  0
SPLINE
  5
261
330
1F
100
AcDbEntity
  8
0
  6
Continuous
 62
     7
370
    25
100
AcDbSpline
210
0.0
220
0.0
230
1.0
 70
     8
 71
     3
 72
    11
 73
     7
 74
     0
 42
0.000000001
 43
0.00000001
 40
0.0
 40
0.0
 40
0.0
 40
0.0
 40
0.1864195892958534
 40
0.5288423166578814
 40
0.8918902711962269
 40
1.0
 40
1.0
 40
1.0
 40
1.0
 10
232.5798395058773
 20
44.88636829205758
 30
0.0
 10
232.5428085637484
 20
44.89297449154104
 30
0.0
 10
232.4377577517739
 20
44.91171521429626
 30
0.0
 10
232.2508519405305
 20
45.00980444863491
 30
0.0
 10
232.0985261510853
 20
45.18406373123761
 30
0.0
 10
232.0223585046435
 20
45.29778318333569
 30
0.0
 10
232.0048814181148
 20
45.32387673876458
 30
0.0
  0
SPLINE
  5
262
330
1F
100
AcDbEntity
  8
0
  6
Continuous
 62
     7
370
    25
100
AcDbSpline
210
0.0
220
0.0
230
1.0
 70
     8
 71
     3
 72
    10
 73
     6
 74
     0
 42
0.000000001
 43
0.00000001
 40
0.0
 40
0.0
 40
0.0
 40
0.0
 40
0.4391163564031255
 40
0.7513678360095183
 40
0.9999999999999999
 40
0.9999999999999999
 40
0.9999999999999999
 40
0.9999999999999999
 10
232.0048814181148
 20
45.32387673876458
 30
0.0
 10
231.8776594884789
 20
45.28120372969735
 30
0.0
 10
231.6599712503397
 20
45.20818634828732
 30
0.0
 10
231.3668988212677
 20
45.23689491339402
 30
0.0
 10
231.2280304290667
 20
45.29157731736909
 30
0.0
 10
231.1664719413893
 20
45.3158172904682
 30
0.0
  0
SPLINE
  5
263
330
1F
100
AcDbEntity
  8
0
  6
Continuous
 62
     7
370
    25
100
AcDbSpline
210
0.0
220
0.0
230
1.0
 70
     8
 71
     3
 72
    10
 73
     6
 74
     0
 42
0.000000001
 43
0.00000001
 40
0.0
 40
0.0
 40
0.0
 40
0.0
 40
0.4391154101291334
 40
0.7513667952861468
 40
1.0
 40
1.0
 40
1.0
 40
1.0
 10
231.1664719413893
 20
45.3158172904682
 30
0.0
 10
231.1215592623034
 20
45.21051191756774
 30
0.0
 10
231.0447095435868
 20
45.03032475324263
 30
0.0
 10
230.9563733737655
 20
44.90324253957656
 30
0.0
 10
230.9194067438991
 20
44.88038374647705
 30
0.0
 10
230.9030198938818
 20
44.8702507260895
 30
0.0
  0
LINE
  5
264
330
1F
100
AcDbEntity
  8
0
  6
Continuous
 62
     7
370
    25
100
AcDbLine
 10
231.0565858877
 20
44.681902338
 30
0.0
 11
231.1664719414
 21
45.3158172905
 31
0.0
  0
LINE
  5
265
330
1F
100
AcDbEntity
  8
0
  6
Continuous
 62
     7
370
    25
100
AcDbLine
 10
231.8449670552
 20
44.4013537046
 30
0.0
 11
232.0048814181
 21
45.3238767388
 31
0.0
  0
ELLIPSE
  5
266
330
1F
100
AcDbEntity
  8
0
  6
Continuous
 62
     7
370
    25
100
AcDbEllipse
 10
237.653006271
 20
43.0763588363
 30
0.0
 11
1.109879147397038
 21
-0.1928167064374762
 31
0.0
210
0.0
220
0.0
230
1.0
 40
0.5711339224
 41
5.840304973815853
 42
7.480466392455996
  0
LINE
  5
267
330
1F
100
AcDbEntity
  8
0
  6
Continuous
 62
     7
370
    25
100
AcDbLine
 10
238.1605221565
 20
43.5961849006
 30
0.0
 11
237.7087408676
 21
43.718916778
 31
0.0
  0
ELLIPSE
  5
268
330
1F
100
AcDbEntity
  8
0
  6
Continuous
 62
     7
370
    25
100
AcDbEllipse
 10
237.653006271
 20
43.0763588363
 30
0.0
 11
1.109879147397038
 21
-0.1928167064374762
 31
0.0
210
0.0
220
0.0
230
1.0
 40
0.5711339224
 41
1.61970284599476
 42
2.883983241521836
  0
LINE
  5
269
330
1F
100
AcDbEntity
  8
0
  6
Continuous
 62
     7
370
    25
100
AcDbLine
 10
234.9999201085
 20
39.8637856778
 30
0.0
 11
240.0991191373
 21
39.2754917236
 31
0.0
  0
ARC
  5
26A
330
1F
100
AcDbEntity
  8
0
  6
Continuous
 62
     7
370
    25
100
AcDbCircle
 10
234.8336116566
 20
39.4403914017
 30
0.0
 40
0.7413851097282445
100
AcDbArc
 50
215.6206239602
 51
267.2590129141
  0
LINE
  5
26B
330
1F
100
AcDbEntity
  8
0
  6
Continuous
 62
     7
370
    25
100
AcDbLine
 10
234.7981578763
 20
38.6998544949
 30
0.0
 11
239.8973569051
 21
38.1115606357
 31
0.0
  0
LWPOLYLINE
  5
26C
330
1F
100
AcDbEntity
  8
0
  6
Continuous
 62
     7
370
    25
100
AcDbPolyline
 90
        9
 70
   128
 43
0.0
 10
239.8973569051
 20
38.1115606357
 10
240.0132541531
 20
38.104847325
 10
240.1246891034
 20
38.1117126187
 10
240.2273864853
 20
38.1318885773
 10
240.3173897632
 20
38.1646022
 10
240.391249481
 20
38.2085955701
 10
240.4461233607
 20
38.2621775562
 10
240.4799014256
 20
38.3232899591
 10
240.4883887472
 20
38.3556437605
  0
ARC
  5
26D
330
1F
100
AcDbEntity
  8
0
  6
Continuous
 62
     7
370
    25
100
AcDbCircle
 10
234.834026317
 20
39.317491811
 30
0.0
 40
0.6547188545566469
100
AcDbArc
 50
231.7241079134
 51
265.0123334559
  0
LINE
  5
26E
330
1F
100
AcDbEntity
  8
0
  6
Continuous
 62
     7
370
    25
100
AcDbLine
 10
239.8763032372
 20
38.0769582321
 30
0.0
 11
234.7771042084
 21
38.6652520912
 31
0.0
  0
ARC
  5
26F
330
1F
100
AcDbEntity
  8
0
  6
Continuous
 62
     7
370
    25
100
AcDbCircle
 10
239.9613230942
 20
38.6902410649
 30
0.0
 40
0.6191479703090107
100
AcDbArc
 50
262.1073483573
 51
289.0527210955
  0
SPLINE
  5
270
330
1F
100
AcDbEntity
  8
0
  6
Continuous
 62
     7
370
    25
100
AcDbSpline
210
0.0
220
0.0
230
1.0
 70
    11
 71
     3
 72
    68
 73
    64
 74
     0
 42
0.000000001
 43
0.00000001
 40
0.0
 40
0.0
 40
0.0
 40
0.0
 40
0.0312499999999998
 40
0.0312499999999998
 40
0.0624999999999996
 40
0.0624999999999996
 40
0.0937499999999993
 40
0.0937499999999993
 40
0.1249999999999991
 40
0.1249999999999991
 40
0.1562499999999989
 40
0.1562499999999989
 40
0.1874999999999987
 40
0.1874999999999987
 40
0.2187499999999984
 40
0.2187499999999984
 40
0.2499999999999982
 40
0.2499999999999982
 40
0.281249999999998
 40
0.281249999999998
 40
0.3124999999999978
 40
0.3124999999999978
 40
0.3437499999999976
 40
0.3437499999999976
 40
0.3749999999999973
 40
0.3749999999999973
 40
0.4062499999999971
 40
0.4062499999999971
 40
0.4374999999999969
 40
0.4374999999999969
 40
0.4687499999999967
 40
0.4687499999999967
 40
0.4999999999999964
 40
0.4999999999999964
 40
0.5312499999999967
 40
0.5312499999999967
 40
0.5624999999999969
 40
0.5624999999999969
 40
0.5937499999999971
 40
0.5937499999999971
 40
0.6249999999999973
 40
0.6249999999999973
 40
0.6562499999999976
 40
0.6562499999999976
 40
0.6874999999999978
 40
0.6874999999999978
 40
0.718749999999998
 40
0.718749999999998
 40
0.7499999999999982
 40
0.7499999999999982
 40
0.7812499999999984
 40
0.7812499999999984
 40
0.8124999999999987
 40
0.8124999999999987
 40
0.8437499999999989
 40
0.8437499999999989
 40
0.8749999999999991
 40
0.8749999999999991
 40
0.9062499999999993
 40
0.9062499999999993
 40
0.9374999999999996
 40
0.9374999999999996
 40
1.0
 40
1.0
 40
1.0
 40
1.0
 10
217.1258435515236
 20
57.73849613076178
 30
0.0
 10
217.0651223154838
 20
57.74392552427248
 30
0.0
 10
217.0119757481498
 20
57.74443697808949
 30
0.0
 10
216.9202393570854
 20
57.73612486295238
 30
0.0
 10
216.8813537034003
 20
57.7271270153411
 30
0.0
 10
216.8210392286023
 20
57.70028897680613
 30
0.0
 10
216.7994855066698
 20
57.68261646873771
 30
0.0
 10
216.7735783980235
 20
57.63924192885283
 30
0.0
 10
216.7694412552912
 20
57.61330294794587
 30
0.0
 10
216.7792608101817
 20
57.55591012359616
 30
0.0
 10
216.7929787267549
 20
57.52426651042558
 30
0.0
 10
216.8386751317553
 20
57.45541303211726
 30
0.0
 10
216.8704290266017
 20
57.41872829631518
 30
0.0
 10
216.9498792852623
 20
57.34313656748459
 30
0.0
 10
216.9981582654195
 20
57.30367129315994
 30
0.0
 10
217.110199912822
 20
57.22343879011006
 30
0.0
 10
217.1728752522228
 20
57.18337812619491
 30
0.0
 10
217.3112359528166
 20
57.10346091692141
 30
0.0
 10
217.3878478277231
 20
57.06319594789391
 30
0.0
 10
217.5486238776185
 20
56.98582598375701
 30
0.0
 10
217.6330356942592
 20
56.9484927301878
 30
0.0
 10
217.8098567297944
 20
56.87626843655277
 30
0.0
 10
217.9020849160264
 20
56.84152573038835
 30
0.0
 10
218.0864937481714
 20
56.77711085553675
 30
0.0
 10
218.1796504664264
 20
56.74702825244067
 30
0.0
 10
218.3677783782473
 20
56.69078682197907
 30
0.0
 10
218.4596728417353
 20
56.66554365038267
 30
0.0
 10
218.6389767386763
 20
56.6201479146895
 30
0.0
 10
218.7273203272892
 20
56.59981089981337
 30
0.0
 10
218.8941694093837
 20
56.56515928571886
 30
0.0
 10
218.9724348343628
 20
56.5508395284383
 30
0.0
 10
219.1186377284056
 20
56.52789069273215
 30
0.0
 10
219.1868399290948
 20
56.51928700997629
 30
0.0
 10
219.3068149816172
 20
56.50854113296945
 30
0.0
 10
219.3594214266727
 20
56.50624292527316
 30
0.0
 10
219.4495700917404
 20
56.50803254616686
 30
0.0
 10
219.4863003740379
 20
56.51216526598524
 30
0.0
 10
219.541740779027
 20
56.52677063510292
 30
0.0
 10
219.5608944692575
 20
56.53734638130994
 30
0.0
 10
219.5808487436699
 20
56.56516150615231
 30
0.0
 10
219.5816142652915
 20
56.58211341500321
 30
0.0
 10
219.5653895489182
 20
56.6224230585268
 30
0.0
 10
219.5480268307819
 20
56.64609435103269
 30
0.0
 10
219.4965059377922
 20
56.69874820598292
 30
0.0
 10
219.4624988354262
 20
56.72776722586408
 30
0.0
 10
219.3780177305075
 20
56.79164703691018
 30
0.0
 10
219.3274073596254
 20
56.82652062530254
 30
0.0
 10
219.2140034172755
 20
56.89942393322623
 30
0.0
 10
219.1507731297872
 20
56.93780115452535
 30
0.0
 10
219.0107622468797
 20
57.01866420903338
 30
0.0
 10
218.9361075578003
 20
57.05991660938542
 30
0.0
 10
218.7784976780145
 20
57.14353479679529
 30
0.0
 10
218.6944851281327
 20
57.18642222082452
 30
0.0
 10
218.5222555377927
 20
57.27079598767482
 30
0.0
 10
218.4345337467044
 20
57.31208014522365
 30
0.0
 10
218.2557396879622
 20
57.39246510447515
 30
0.0
 10
218.1640795486723
 20
57.43176561173875
 30
0.0
 10
217.9848524121422
 20
57.50435123607217
 30
0.0
 10
217.8963823369774
 20
57.53806918796693
 30
0.0
 10
217.7215720471564
 20
57.59975909007689
 30
0.0
 10
217.6365139908023
 20
57.62722833411544
 30
0.0
 10
217.3947678082154
 20
57.69698036154667
 30
0.0
 10
217.2472860236033
 20
57.72763734374038
 30
0.0
 10
217.1258435515236
 20
57.73849613076178
 30
0.0
  0
ARC
  5
271
330
1F
100
AcDbEntity
  8
0
  6
Continuous
 62
     7
370
    25
100
AcDbCircle
 10
210.3925799646
 20
55.5139401017
 30
0.0
 40
5.829715146129999
100
AcDbArc
 50
60.7111193837
 51
95.2871544383
  0
ARC
  5
272
330
1F
100
AcDbEntity
  8
0
  6
Continuous
 62
     7
370
    25
100
AcDbCircle
 10
200.5341792801
 20
38.3846335638
 30
0.0
 40
5.907930314679877
100
AcDbArc
 50
205.1821329533
 51
239.0504800139
  0
ELLIPSE
  5
273
330
1F
100
AcDbEntity
  8
0
  6
Continuous
 62
     7
370
    25
100
AcDbEllipse
 10
217.1283232154
 20
40.1703156612
 30
0.0
 11
3.304350776351129
 21
15.8418645214556
 31
0.0
210
0.0
220
0.0
230
1.0
 40
0.6781513615
 41
5.520607497223407
 42
7.97829433722
  0
SPLINE
  5
274
330
1F
100
AcDbEntity
  8
0
  6
Continuous
 62
     7
370
    25
100
AcDbSpline
210
0.0
220
0.0
230
1.0
 70
     8
 71
     3
 72
    20
 73
    16
 74
     0
 42
0.000000001
 43
0.00000001
 40
0.0
 40
0.0
 40
0.0
 40
0.0
 40
0.2499999999999997
 40
0.2499999999999997
 40
0.3749999999999997
 40
0.3749999999999997
 40
0.4999999999999998
 40
0.4999999999999998
 40
0.6249999999999998
 40
0.6249999999999998
 40
0.7499999999999999
 40
0.7499999999999999
 40
0.8749999999999999
 40
0.8749999999999999
 40
1.0
 40
1.0
 40
1.0
 40
1.0
 10
207.3128780146413
 20
37.28614553184788
 30
0.0
 10
207.1008862925702
 20
37.44056915906835
 30
0.0
 10
206.9076795313927
 20
37.63188839366732
 30
0.0
 10
206.6477796493558
 20
37.97394125839631
 30
0.0
 10
206.5673796238522
 20
38.09604612563147
 30
0.0
 10
206.4225121971192
 20
38.35102899857461
 30
0.0
 10
206.3574818886453
 20
38.4846342135343
 30
0.0
 10
206.243074561886
 20
38.76433001595372
 30
0.0
 10
206.1939643176621
 20
38.9103488291519
 30
0.0
 10
206.1153408993319
 20
39.20499140416691
 30
0.0
 10
206.0852850874566
 20
39.3548301284541
 30
0.0
 10
206.0440819373544
 20
39.65955173736621
 30
0.0
 10
206.0330433134548
 20
39.8151650009199
 30
0.0
 10
206.0309723567505
 20
40.1233244999471
 30
0.0
 10
206.039731108261
 20
40.27676625575188
 30
0.0
 10
206.0583294471868
 20
40.42959661176525
 30
0.0
  0
ELLIPSE
  5
275
330
1F
100
AcDbEntity
  8
0
  6
Continuous
 62
     7
370
    25
100
AcDbEllipse
 10
239.733925254
 20
27.12037938
 30
0.0
 11
110.8609758535119
 21
-77.53486027382502
 31
0.0
210
0.0
220
0.0
230
1.0
 40
0.0780429735
 41
4.470586178392617
 42
4.474159169811769
  0
ELLIPSE
  5
276
330
1F
100
AcDbEntity
  8
0
  6
Continuous
 62
     7
370
    25
100
AcDbEllipse
 10
239.733925254
 20
27.12037938
 30
0.0
 11
110.8609758535119
 21
-77.53486027382502
 31
0.0
210
0.0
220
0.0
230
1.0
 40
0.0780429735
 41
1.718123115278033
 42
1.721696106697185
  0
SPLINE
  5
277
330
1F
100
AcDbEntity
  8
0
  6
Continuous
 62
     7
370
    25
100
AcDbSpline
210
0.0
220
0.0
230
1.0
 70
     8
 71
     3
 72
    20
 73
    16
 74
     0
 42
0.000000001
 43
0.00000001
 40
0.0
 40
0.0
 40
0.0
 40
0.0
 40
0.2499999999999988
 40
0.2499999999999988
 40
0.3749999999999989
 40
0.3749999999999989
 40
0.499999999999999
 40
0.499999999999999
 40
0.6249999999999992
 40
0.6249999999999992
 40
0.7499999999999996
 40
0.7499999999999996
 40
0.8749999999999998
 40
0.8749999999999998
 40
1.0
 40
1.0
 40
1.0
 40
1.0
 10
226.9388168479691
 20
50.07694624411646
 30
0.0
 10
227.0436387072928
 20
49.83686196854296
 30
0.0
 10
227.1678629745854
 20
49.58760507985846
 30
0.0
 10
227.3882973298015
 20
49.20212843976376
 30
0.0
 10
227.4673268067069
 20
49.07226455833253
 30
0.0
 10
227.6325421758095
 20
48.81800884715509
 30
0.0
 10
227.7193238653169
 20
48.69254008759984
 30
0.0
 10
227.9021769667347
 20
48.44556746443356
 30
0.0
 10
227.9990253491195
 20
48.32324803497364
 30
0.0
 10
228.1966057317526
 20
48.09133826685166
 30
0.0
 10
228.2978849565146
 20
47.9808835030182
 30
0.0
 10
228.5060159683575
 20
47.77136979653795
 30
0.0
 10
228.6136600329486
 20
47.6716668352137
 30
0.0
 10
228.8309489687386
 20
47.48840197690155
 30
0.0
 10
228.9403771279813
 20
47.40486920151583
 30
0.0
 10
229.050732597882
 20
47.3296219793314
 30
0.0
  0
SPLINE
  5
278
330
1F
100
AcDbEntity
  8
0
  6
Continuous
 62
     7
370
    25
100
AcDbSpline
210
0.0
220
0.0
230
1.0
 70
     8
 71
     3
 72
    12
 73
     8
 74
     0
 42
0.000000001
 43
0.00000001
 40
0.0
 40
0.0
 40
0.0
 40
0.0
 40
0.2499999999999991
 40
0.2499999999999991
 40
0.4999999999999982
 40
0.4999999999999982
 40
1.0
 40
1.0
 40
1.0
 40
1.0
 10
198.2847234536923
 20
42.60728357521698
 30
0.0
 10
198.2624294534877
 20
42.62015362758832
 30
0.0
 10
198.2443169773989
 20
42.64418285064347
 30
0.0
 10
198.2177521061066
 20
42.69929471652991
 30
0.0
 10
198.2091511732095
 20
42.72924577252626
 30
0.0
 10
198.1907818272873
 20
42.82068781072423
 30
0.0
 10
198.1885795429187
 20
42.8820491438157
 30
0.0
 10
198.1909387488238
 20
42.94273290094213
 30
0.0
  0
LINE
  5
279
330
1F
100
AcDbEntity
  8
0
  6
Continuous
 62
     7
370
    25
100
AcDbLine
 10
199.3257564062
 20
42.0063079781
 30
0.0
 11
198.2847233211
 21
42.607283586
 31
0.0
  0
SPLINE
  5
27A
330
1F
100
AcDbEntity
  8
0
  6
Continuous
 62
     7
370
    25
100
AcDbSpline
210
0.0
220
0.0
230
1.0
 70
     8
 71
     3
 72
    12
 73
     8
 74
     0
 42
0.000000001
 43
0.00000001
 40
0.0
 40
0.0
 40
0.0
 40
0.0
 40
0.4999999999999999
 40
0.4999999999999999
 40
0.7499999999999999
 40
0.7499999999999999
 40
1.0
 40
1.0
 40
1.0
 40
1.0
 10
199.5381581073546
 20
42.16499971977855
 30
0.0
 10
199.5137768106689
 20
42.11705244888539
 30
0.0
 10
199.486079040508
 20
42.0729579681813
 30
0.0
 10
199.4337865145516
 20
42.0222634004495
 30
0.0
 10
199.4144855829051
 20
42.00815355601802
 30
0.0
 10
199.3721160287848
 20
41.99345045651623
 30
0.0
 10
199.3480177680015
 20
41.99345683323576
 30
0.0
 10
199.3257565943752
 20
42.00630793522687
 30
0.0
  0
ELLIPSE
  5
27B
330
1F
100
AcDbEntity
  8
0
  6
Continuous
 62
     7
370
    25
100
AcDbEllipse
 10
204.3635722971
 20
47.5392495141
 30
0.0
 11
7.874888476696754
 21
13.63996451050156
 31
0.0
210
0.0
220
0.0
230
1.0
 40
0.1059897947
 41
1.105338485463657
 42
2.036099852607347
  0
SPLINE
  5
27C
330
1F
100
AcDbEntity
  8
0
  6
Continuous
 62
     7
370
    25
100
AcDbSpline
210
0.0
220
0.0
230
1.0
 70
     8
 71
     3
 72
    12
 73
     8
 74
     0
 42
0.000000001
 43
0.00000001
 40
0.0
 40
0.0
 40
0.0
 40
0.0
 40
0.2500000000000014
 40
0.2500000000000014
 40
0.5000000000000028
 40
0.5000000000000028
 40
1.0
 40
1.0
 40
1.0
 40
1.0
 10
206.6373911585475
 20
54.67043044958246
 30
0.0
 10
206.6596851587522
 20
54.65756039721111
 30
0.0
 10
206.6716295345041
 20
54.63709310023149
 30
0.0
 10
206.6802308409266
 20
54.59235475076403
 30
0.0
 10
206.6775918206582
 20
54.5688944909742
 30
0.0
 10
206.6598488771994
 20
54.49830641074835
 30
0.0
 10
206.6355177799251
 20
54.45226745225909
 30
0.0
 10
206.6061758634161
 20
54.40716554614659
 30
0.0
  0
LINE
  5
27D
330
1F
100
AcDbEntity
  8
0
  6
Continuous
 62
     7
370
    25
100
AcDbLine
 10
205.5963579422
 20
55.271406199
 30
0.0
 11
206.6373910273
 21
54.6704305911
 31
0.0
  0
SPLINE
  5
27E
330
1F
100
AcDbEntity
  8
0
  6
Continuous
 62
     7
370
    25
100
AcDbSpline
210
0.0
220
0.0
230
1.0
 70
     8
 71
     3
 72
    12
 73
     8
 74
     0
 42
0.000000001
 43
0.00000001
 40
0.0
 40
0.0
 40
0.0
 40
0.0
 40
0.4999999999999972
 40
0.4999999999999972
 40
0.7499999999999986
 40
0.7499999999999986
 40
1.0
 40
1.0
 40
1.0
 40
1.0
 10
205.2589565048853
 20
55.18489872731018
 30
0.0
 10
205.310310334212
 20
55.21727002471233
 30
0.0
 10
205.364538563114
 20
55.24604381871807
 30
0.0
 10
205.4529633767029
 20
55.27587287997991
 30
0.0
 10
205.4836245860947
 20
55.28342244372262
 30
0.0
 10
205.5436804500266
 20
55.28791213477505
 30
0.0
 10
205.5740968442383
 20
55.28425719156364
 30
0.0
 10
205.5963580178647
 20
55.27140608957252
 30
0.0
  0
ELLIPSE
  5
27F
330
1F
100
AcDbEntity
  8
0
  6
Continuous
 62
     7
370
    25
100
AcDbEllipse
 10
214.5085423151
 20
41.6826829832
 30
0.0
 11
14.30238360604704
 21
-8.263902107297817
 31
0.0
210
0.0
220
0.0
230
1.0
 40
0.9534948969
 41
2.676532761479949
 42
3.60729412862364
  0
SPLINE
  5
280
330
1F
100
AcDbEntity
  8
0
  6
Continuous
 62
     7
370
    25
100
AcDbSpline
210
0.0
220
0.0
230
1.0
 70
     8
 71
     3
 72
    12
 73
     8
 74
     0
 42
0.000000001
 43
0.00000001
 40
0.0
 40
0.0
 40
0.0
 40
0.0
 40
0.2499999999999986
 40
0.2499999999999986
 40
0.4999999999999972
 40
0.4999999999999972
 40
1.0
 40
1.0
 40
1.0
 40
1.0
 10
212.2347234536922
 20
59.10365288400915
 30
0.0
 10
212.2124212922041
 20
59.11652764778917
 30
0.0
 10
212.2004767373415
 20
59.13054915481256
 30
0.0
 10
212.1918826712319
 20
59.15626182725654
 30
0.0
 10
212.1945285688419
 20
59.16771737809827
 30
0.0
 10
212.2122931686885
 20
59.19917187197849
 30
0.0
 10
212.2367846343867
 20
59.21582210449643
 30
0.0
 10
212.2659387488237
 20
59.22994347553747
 30
0.0
  0
LINE
  5
281
330
1F
100
AcDbEntity
  8
0
  6
Continuous
 62
     7
370
    25
100
AcDbLine
 10
213.2757567438
 20
58.5026775476
 30
0.0
 11
212.2347236587
 21
59.1036531555
 31
0.0
  0
SPLINE
  5
282
330
1F
100
AcDbEntity
  8
0
  6
Continuous
 62
     7
370
    25
100
AcDbSpline
210
0.0
220
0.0
230
1.0
 70
     8
 71
     3
 72
    12
 73
     8
 74
     0
 42
0.000000001
 43
0.00000001
 40
0.0
 40
0.0
 40
0.0
 40
0.0
 40
0.4999999999999963
 40
0.4999999999999963
 40
0.7499999999999981
 40
0.7499999999999981
 40
1.0
 40
1.0
 40
1.0
 40
1.0
 10
213.6131581073545
 20
58.45221029437391
 30
0.0
 10
213.5625016700453
 20
58.45073719505806
 30
0.0
 10
213.5074905039759
 20
58.45141377710775
 30
0.0
 10
213.4194670552478
 20
58.46068638378883
 30
0.0
 10
213.3886920263415
 20
58.46525405583554
 30
0.0
 10
213.327959420337
 20
58.47968255757615
 30
0.0
 10
213.2979160884018
 20
58.48988484041146
 30
0.0
 10
213.2757565943751
 20
58.50267724401911
 30
0.0
  0
ELLIPSE
  5
283
330
1F
100
AcDbEntity
  8
0
  6
Continuous
 62
     7
370
    25
100
AcDbEllipse
 10
204.3635722971
 20
47.5392495141
 30
0.0
 11
15.90471575942229
 21
8.322204981098999
 31
0.0
210
0.0
220
0.0
230
1.0
 40
0.4445305117
 41
0.2747775750656704
 42
0.7400769945754306
  0
ELLIPSE
  5
284
330
1F
100
AcDbEntity
  8
0
  6
Continuous
 62
     7
370
    25
100
AcDbEllipse
 10
214.5085423151
 20
41.6826829832
 30
0.0
 11
-0.746104128997189
 21
17.93477386060239
 31
0.0
210
0.0
220
0.0
230
1.0
 40
0.4444802122
 41
5.84612391213279
 42
6.473758866427504
  0
ELLIPSE
  5
285
330
1F
100
AcDbEntity
  8
0
  6
Continuous
 62
     7
370
    25
100
AcDbEllipse
 10
204.3635722971
 20
47.5392495141
 30
0.0
 11
-0.7461041289971605
 21
17.93477386060238
 31
0.0
210
0.0
220
0.0
230
1.0
 40
0.4444802122
 41
2.401404845694032
 42
2.866866793327969
  0
SPLINE
  5
286
330
1F
100
AcDbEntity
  8
0
  6
Continuous
 62
     7
370
    25
100
AcDbSpline
210
0.0
220
0.0
230
1.0
 70
     8
 71
     3
 72
    12
 73
     8
 74
     0
 42
0.000000001
 43
0.00000001
 40
0.0
 40
0.0
 40
0.0
 40
0.0
 40
0.2500000000000014
 40
0.2500000000000014
 40
0.5000000000000029
 40
0.5000000000000029
 40
1.0
 40
1.0
 40
1.0
 40
1.0
 10
199.3257565943752
 20
34.34056854934627
 30
0.0
 10
199.3480587558633
 20
34.32769378556625
 30
0.0
 10
199.3717661188026
 20
34.30687954649872
 30
0.0
 10
199.4148281126718
 20
34.26126249443204
 30
0.0
 10
199.4338313959264
 20
34.23730507468034
 30
0.0
 10
199.4861050664115
 20
34.16540520414392
 30
0.0
 10
199.5139237211536
 20
34.118547165035
 30
0.0
 10
199.5381581073546
 20
34.07359524939035
 30
0.0
  0
LINE
  5
287
330
1F
100
AcDbEntity
  8
0
  6
Continuous
 62
     7
370
    25
100
AcDbLine
 10
198.2847233211
 20
34.9415438761
 30
0.0
 11
199.3257564062
 21
34.3405682682
 31
0.0
  0
SPLINE
  5
288
330
1F
100
AcDbEntity
  8
0
  6
Continuous
 62
     7
370
    25
100
AcDbSpline
210
0.0
220
0.0
230
1.0
 70
     8
 71
     3
 72
    12
 73
     8
 74
     0
 42
0.000000001
 43
0.00000001
 40
0.0
 40
0.0
 40
0.0
 40
0.0
 40
0.5000000000000047
 40
0.5000000000000047
 40
0.7500000000000023
 40
0.7500000000000023
 40
1.0
 40
1.0
 40
1.0
 40
1.0
 10
198.1909387488238
 20
34.85132843055393
 30
0.0
 10
198.1886124590721
 20
34.88339775022342
 30
0.0
 10
198.1908134641587
 20
34.91321773586611
 30
0.0
 10
198.2090788245997
 20
34.94422870760911
 30
0.0
 10
198.217845067547
 20
34.95237056756032
 30
0.0
 10
198.2443090730836
 20
34.95773133883922
 30
0.0
 10
198.2625639596656
 20
34.95433659294396
 30
0.0
 10
198.2847234536924
 20
34.9415441893363
 30
0.0
  0
ELLIPSE
  5
289
330
1F
100
AcDbEntity
  8
0
  6
Continuous
 62
     7
370
    25
100
AcDbEllipse
 10
214.5085423151
 20
41.6826829832
 30
0.0
 11
15.90471575942232
 21
8.32220498109897
 31
0.0
210
0.0
220
0.0
230
1.0
 40
0.4445305117
 41
2.950908281021529
 42
3.578705763440482
  0
LINE
  5
28A
330
1F
100
AcDbEntity
  8
0
  6
Continuous
 62
     7
370
    25
100
AcDbLine
 10
234.7158575935
 20
45.8755160222
 30
0.0
 11
234.7176297367
 21
41.8161962709
 31
0.0
  0
ARC
  5
28B
330
1F
100
AcDbEntity
  8
0
  6
Continuous
 62
     7
370
    25
100
AcDbCircle
 10
234.7629493898
 20
35.5183422984
 30
0.0
 40
6.298017031577888
100
AcDbArc
 50
90.4122960049
 51
101.9636023871
  0
LINE
  5
28C
330
1F
100
AcDbEntity
  8
0
  6
Continuous
 62
     7
370
    25
100
AcDbLine
 10
208.4532125921
 20
36.2435702759
 30
0.0
 11
233.4574317223
 21
41.6795631311
 31
0.0
  0
ELLIPSE
  5
28D
330
1F
100
AcDbEntity
  8
0
  6
Continuous
 62
     7
370
    25
100
AcDbEllipse
 10
239.733925254
 20
27.12037938
 30
0.0
 11
112.6206738829326
 21
-78.76557234166334
 31
0.0
210
0.0
220
0.0
230
1.0
 40
0.0780429735
 41
4.479958217721819
 42
4.485892793277593
  0
SPLINE
  5
28E
330
1F
100
AcDbEntity
  8
0
  6
Continuous
 62
     7
370
    25
100
AcDbSpline
210
0.0
220
0.0
230
1.0
 70
     8
 71
     3
 72
    10
 73
     6
 74
     0
 42
0.000000001
 43
0.00000001
 40
0.0
 40
0.0
 40
0.0
 40
0.0
 40
0.5
 40
0.5
 40
1.0
 40
1.0
 40
1.0
 40
1.0
 10
207.8106738092786
 20
36.71062119505132
 30
0.0
 10
207.8345484744913
 20
36.75688452307872
 30
0.0
 10
207.836885833923
 20
36.80926556909893
 30
0.0
 10
207.7960831404995
 20
36.91398633777656
 30
0.0
 10
207.7534282555089
 20
36.96534374194682
 30
0.0
 10
207.6924888550305
 20
37.00970699578388
 30
0.0
  0
SPLINE
  5
28F
330
1F
100
AcDbEntity
  8
0
  6
Continuous
 62
     7
370
    25
100
AcDbSpline
210
0.0
220
0.0
230
1.0
 70
     8
 71
     3
 72
    10
 73
     6
 74
     0
 42
0.000000001
 43
0.00000001
 40
0.0
 40
0.0
 40
0.0
 40
0.0
 40
0.5
 40
0.5
 40
1.0
 40
1.0
 40
1.0
 40
1.0
 10
229.4456541492773
 20
47.06025740563999
 30
0.0
 10
229.524811992622
 20
47.00624959826738
 30
0.0
 10
229.6286927380369
 20
46.9659878564468
 30
0.0
 10
229.8483662191349
 20
46.92585683829256
 30
0.0
 10
229.9598101517608
 20
46.92647028806506
 30
0.0
 10
230.0557411709697
 20
46.94764367088246
 30
0.0
  0
SPLINE
  5
290
330
1F
100
AcDbEntity
  8
0
  6
Continuous
 62
     7
370
    25
100
AcDbSpline
210
0.0
220
0.0
230
1.0
 70
     8
 71
     3
 72
     8
 73
     4
 74
     0
 42
0.000000001
 43
0.00000001
 40
0.0
 40
0.0
 40
0.0
 40
0.0
 40
1.0
 40
1.0
 40
1.0
 40
1.0
 10
230.0557411709697
 20
46.94764367088246
 30
0.0
 10
231.8618975373271
 20
47.34628886915448
 30
0.0
 10
233.670067703881
 20
47.7426562398899
 30
0.0
 10
235.4789638020719
 20
48.13820250281368
 30
0.0
  0
SPLINE
  5
291
330
1F
100
AcDbEntity
  8
0
  6
Continuous
 62
     7
370
    25
100
AcDbSpline
210
0.0
220
0.0
230
1.0
 70
     8
 71
     3
 72
     8
 73
     4
 74
     0
 42
0.000000001
 43
0.00000001
 40
0.0
 40
0.0
 40
0.0
 40
0.0
 40
1.0
 40
1.0
 40
1.0
 40
1.0
 10
235.4789638020719
 20
48.13820250281368
 30
0.0
 10
235.5152913572113
 20
48.14614614794117
 30
0.0
 10
235.5534114880834
 20
48.15103640985369
 30
0.0
 10
235.5932567511561
 20
48.15298816846722
 30
0.0
  0
LINE
  5
292
330
1F
100
AcDbEntity
  8
0
  6
Continuous
 62
     7
370
    25
100
AcDbLine
 10
240.3147845611
 20
44.8803981779
 30
0.0
 11
235.5932575149
 21
48.152988347
 31
0.0
  0
LINE
  5
293
330
1F
100
AcDbEntity
  8
0
  6
Continuous
 62
     7
370
    25
100
AcDbLine
 10
237.0426757814
 20
45.6070720555
 30
0.0
 11
237.0428285637
 21
45.2578825397
 31
0.0
  0
LWPOLYLINE
  5
294
330
1F
100
AcDbEntity
  8
0
  6
Continuous
 62
     7
370
    25
100
AcDbPolyline
 90
       11
 70
   128
 43
0.0
 10
234.7158575935
 20
45.8755160222
 10
234.7727071067
 20
46.0786714085
 10
234.9378753376
 20
46.248802843
 10
235.1951923845
 20
46.3692542072
 10
235.519471554
 20
46.4282381952
 10
235.8789710009
 20
46.4199774888
 10
236.2384981067
 20
46.3452838405
 10
236.5628615699
 20
46.2114666969
 10
236.8203116428
 20
46.0316261129
 10
236.9856431928
 20
45.8233657011
 10
237.0426757814
 20
45.6070720555
  0
LINE
  5
295
330
1F
100
AcDbEntity
  8
0
  6
Continuous
 62
     7
370
    25
100
AcDbLine
 10
231.0664317866
 20
27.8862410742
 30
0.0
 11
221.2970083044
 21
24.699131373
 31
0.0
  0
ELLIPSE
  5
296
330
1F
100
AcDbEntity
  8
0
  6
Continuous
 62
     7
370
    25
100
AcDbEllipse
 10
222.1180986534
 20
37.2897796147
 30
0.0
 11
12.74542203010762
 21
10.61272031770765
 31
0.0
210
0.0
220
0.0
230
1.0
 40
0.6476580465
 41
2.309751759592067
 42
4.161076529812862
  0
ELLIPSE
  5
297
330
1F
100
AcDbEntity
  8
0
  6
Continuous
 62
     7
370
    25
100
AcDbEllipse
 10
221.4372167609
 20
50.0616207104
 30
0.0
 11
0.9838283171720265
 21
-0.9026399975891694
 31
0.0
210
0.0
220
0.0
230
1.0
 40
0.9215330435
 41
0.0
 42
6.283185307179586
  0
LWPOLYLINE
  5
298
330
1F
100
AcDbEntity
  8
0
  6
Continuous
 62
     7
370
    25
100
AcDbPolyline
 90
       14
 70
   128
 43
0.0
 10
210.6639899693
 20
25.4273875722
 10
210.5792273886
 20
25.4773678237
 10
209.9117260167
 20
25.9522904832
 10
209.3126329313
 20
26.5314243606
 10
208.7866317008
 20
27.2102423611
 10
208.3378336186
 20
27.9834387296
 10
207.9697474099
 20
28.8449697383
 10
207.685249597
 20
29.7881008381
 10
207.4865634262
 20
30.8054593228
 10
207.3752443797
 20
31.8890942167
 10
207.3521597605
 20
33.0305335255
 10
207.4174913269
 20
34.2208556954
 10
207.5707280485
 20
35.4507561067
 10
207.8106733498
 20
36.7106215514
  0
ARC
  5
299
330
1F
100
AcDbEntity
  8
0
  6
Continuous
 62
     7
370
    25
100
AcDbCircle
 10
207.9666415063
 20
46.990753556
 30
0.0
 40
23.18312663837287
100
AcDbArc
 50
140.2279278766
 51
177.3607126482
  0
LINE
  5
29A
330
1F
100
AcDbEntity
  8
0
  6
Continuous
 62
     7
370
    25
100
AcDbLine
 10
234.1830233052
 20
38.7321329977
 30
0.0
 11
234.7176297367
 21
41.8161962709
 31
0.0
  0
ARC
  5
29B
330
1F
100
AcDbEntity
  8
0
  6
Continuous
 62
     7
370
    25
100
AcDbCircle
 10
234.2657150902
 20
31.415187845
 30
0.0
 40
7.317412404629364
100
AcDbArc
 50
87.7610259591
 51
90.6474954358
  0
ELLIPSE
  5
29C
330
1F
100
AcDbEntity
  8
0
  6
Continuous
 62
     7
370
    25
100
AcDbEllipse
 10
233.3194074443
 20
25.6300427851
 30
0.0
 11
4.544831824132615
 21
-0.0001895946768399881
 31
0.0
210
0.0
220
0.0
230
1.0
 40
0.5715931761
 41
1.571123932803274
 42
2.089486720645591
  0
LINE
  5
29D
330
1F
100
AcDbEntity
  8
0
  6
Continuous
 62
     7
370
    25
100
AcDbLine
 10
198.2847233211
 20
34.9415438761
 30
0.0
 11
199.3272710586
 21
34.3394986072
 31
0.0
  0
LINE
  5
29E
330
1F
100
AcDbEntity
  8
0
  6
Continuous
 62
     7
370
    25
100
AcDbLine
 10
237.5552380941
 20
28.2284538281
 30
0.0
 11
233.3180270696
 21
28.2278371929
 31
0.0
  0
LINE
  5
29F
330
1F
100
AcDbEntity
  8
0
  6
Continuous
 62
     7
370
    25
100
AcDbLine
 10
238.3405748104
 20
28.6928707992
 30
0.0
 11
239.9663881746
 21
38.0719334009
 31
0.0
  0
ELLIPSE
  5
2A0
330
1F
100
AcDbEntity
  8
0
  6
Continuous
 62
     7
370
    25
100
AcDbEllipse
 10
215.1951997279
 20
41.2862840964
 30
0.0
 11
31.81178512920235
 21
0.01447255056549324
 31
0.0
210
0.0
220
0.0
230
1.0
 40
0.5773692249
 41
5.491572126624765
 42
5.526902897475028
  0
LWPOLYLINE
  5
2A1
330
1F
100
AcDbEntity
  8
0
  6
Continuous
 62
     7
370
    25
100
AcDbPolyline
 90
        9
 70
   128
 43
0.0
 10
194.4292400901
 20
64.2932083785
 10
193.9270027675
 20
64.2892799951
 10
193.396733757
 20
64.1910218147
 10
192.8475064437
 20
64.000115106
 10
192.288718052
 20
63.7198265775
 10
191.7299296603
 20
63.3549517616
 10
191.180702347
 20
62.9117341121
 10
190.6504333365
 20
62.3977567248
 10
190.1481960139
 20
61.8218142384
  0
LINE
  5
2A2
330
1F
100
AcDbEntity
  8
0
  6
Continuous
 62
     7
370
    25
100
AcDbLine
 10
240.2020312046
 20
38.1195384842
 30
0.0
 11
238.6544437083
 21
29.1917520709
 31
0.0
  0
ELLIPSE
  5
2A3
330
1F
100
AcDbEntity
  8
0
  6
Continuous
 62
     7
370
    25
100
AcDbEllipse
 10
227.7972637108
 20
34.0112674121
 30
0.0
 11
12.85155825475434
 21
18.53695037735578
 31
0.0
210
0.0
220
0.0
230
1.0
 40
0.5198453582
 41
4.785000944781192
 42
4.811202320793141
  0
ARC
  5
2A4
330
1F
100
AcDbEntity
  8
0
  6
Continuous
 62
     7
370
    25
100
AcDbCircle
 10
187.8790422733
 20
47.7709637046
 30
0.0
 40
3.084347660107967
100
AcDbArc
 50
174.6548011447
 51
232.6759370834
  0
ARC
  5
2A5
330
1F
100
AcDbEntity
  8
0
  6
Continuous
 62
     7
370
    25
100
AcDbCircle
 10
193.9940114626
 20
58.9535127218
 30
0.0
 40
5.357403630880314
100
AcDbArc
 50
62.0480988642
 51
85.340228905
  0
LWPOLYLINE
  5
2A6
330
1F
100
AcDbEntity
  8
0
  6
Continuous
 62
     7
370
    25
100
AcDbPolyline
 90
       12
 70
   128
 43
0.0
 10
184.5839633112
 20
48.5411998651
 10
184.630937291
 20
49.707041439
 10
184.7714351276
 20
50.916560834
 10
185.0041831959
 20
52.1588036068
 10
185.3270734951
 20
53.4225197623
 10
185.7371834045
 20
54.6962655586
 10
186.2307980747
 20
55.9685055976
 10
186.8034466468
 20
57.227717575
 10
187.4499440709
 20
58.4624990264
 10
188.1644352275
 20
59.6616663734
 10
188.9404495878
 20
60.8143610032
 10
189.7709593292
 20
61.9101425148
  0
ARC
  5
2A7
330
1F
100
AcDbEntity
  8
0
  6
Continuous
 62
     7
370
    25
100
AcDbCircle
 10
194.5503182613
 20
58.4519715492
 30
0.0
 40
5.89925573522167
100
AcDbArc
 50
103.4689956258
 51
144.1118634589
  0
ARC
  5
2A8
330
1F
100
AcDbEntity
  8
0
  6
Continuous
 62
     7
370
    25
100
AcDbCircle
 10
188.4949965854
 20
48.4630998343
 30
0.0
 40
3.911812992293282
100
AcDbArc
 50
178.8560037274
 51
201.1091891358
  0
LINE
  5
2A9
330
1F
100
AcDbEntity
  8
0
  6
Continuous
 62
     7
370
    18
100
AcDbLine
 10
234.6038655145
 20
39.9094781971
 30
0.0
 11
234.937332697
 21
41.8331983891
 31
0.0
  0
LINE
  5
2AA
330
1F
100
AcDbEntity
  8
0
  6
Continuous
 62
     7
370
    18
100
AcDbLine
 10
234.7176165659
 20
41.8467344939
 30
0.0
 11
234.7392550213
 21
41.9715651005
 31
0.0
  0
LINE
  5
2AB
330
1F
100
AcDbEntity
  8
0
  6
Continuous
 62
     7
370
    18
100
AcDbLine
 10
240.4951730727
 20
39.229798729
 30
0.0
 11
240.8286402552
 21
41.1535189893
 31
0.0
  0
SPLINE
  5
2AC
330
1F
100
AcDbEntity
  8
0
  6
Continuous
 62
     7
370
    18
100
AcDbSpline
210
0.0
220
0.0
230
1.0
 70
     8
 71
     3
 72
     9
 73
     5
 74
     0
 42
0.000000001
 43
0.00000001
 40
0.0
 40
0.0
 40
0.0
 40
0.0
 40
0.4031487183902392
 40
1.0
 40
1.0
 40
1.0
 40
1.0
 10
240.11386921716
 20
41.32736871816026
 30
0.0
 10
239.973737738863
 20
41.33721361965368
 30
0.0
 10
239.6261452205076
 20
41.36163364393835
 30
0.0
 10
239.2276655974356
 20
41.40434939761762
 30
0.0
 10
238.9898325237097
 20
41.42984434994602
 30
0.0
  0
SPLINE
  5
2AD
330
1F
100
AcDbEntity
  8
0
  6
Continuous
 62
     7
370
    18
100
AcDbSpline
210
0.0
220
0.0
230
1.0
 70
     8
 71
     3
 72
     9
 73
     5
 74
     0
 42
0.000000001
 43
0.00000001
 40
0.0
 40
0.0
 40
0.0
 40
0.0
 40
0.596851669257515
 40
0.9999999999999999
 40
0.9999999999999999
 40
0.9999999999999999
 40
0.9999999999999999
 10
236.6828161106221
 20
41.69600509736157
 30
0.0
 10
236.4418771652429
 20
41.72574619801504
 30
0.0
 10
236.0381940429709
 20
41.77557616781382
 30
0.0
 10
235.665546896255
 20
41.83424944689576
 30
0.0
 10
235.5153148211005
 20
41.85790348141684
 30
0.0
  0
LWPOLYLINE
  5
2AE
330
1F
100
AcDbEntity
  8
0
  6
Continuous
 62
     7
370
    18
100
AcDbPolyline
 90
        3
 70
   128
 43
0.0
 10
238.9898325237
 20
41.4298443499
 10
237.6979038592
 20
41.5788939434
 10
236.6828161106
 20
41.6960050974
  0
LINE
  5
2AF
330
1F
100
AcDbEntity
  8
0
  6
Continuous
 62
     7
370
    18
100
AcDbLine
 10
234.7161157429
 20
45.2834737783
 30
0.0
 11
234.7377541984
 21
45.4083043849
 31
0.0
  0
SPLINE
  5
2B0
330
1F
100
AcDbEntity
  8
0
  6
Continuous
 62
     7
370
    18
100
AcDbSpline
210
0.0
220
0.0
230
1.0
 70
     8
 71
     3
 72
     9
 73
     5
 74
     0
 42
0.000000001
 43
0.00000001
 40
0.0
 40
0.0
 40
0.0
 40
0.0
 40
0.4031482538032743
 40
1.0
 40
1.0
 40
1.0
 40
1.0
 10
235.5153148211005
 20
41.85790348141684
 30
0.0
 10
235.4586892655105
 20
41.97874964100737
 30
0.0
 10
235.3182308732051
 20
42.27850576905823
 30
0.0
 10
235.2889751006481
 20
42.53110531006961
 30
0.0
 10
235.2715137417112
 20
42.68186978721075
 30
0.0
  0
SPLINE
  5
2B1
330
1F
100
AcDbEntity
  8
0
  6
Continuous
 62
     7
370
    18
100
AcDbSpline
210
0.0
220
0.0
230
1.0
 70
     8
 71
     3
 72
     9
 73
     5
 74
     0
 42
0.000000001
 43
0.00000001
 40
0.0
 40
0.0
 40
0.0
 40
0.0
 40
0.5968521014541142
 40
1.0
 40
1.0
 40
1.0
 40
1.0
 10
235.2709263200101
 20
44.02768463720441
 30
0.0
 10
235.2882661358965
 20
44.15621584034982
 30
0.0
 10
235.3173182508916
 20
44.37156433762789
 30
0.0
 10
235.4575926141841
 20
44.49196577621307
 30
0.0
 10
235.5141439289653
 20
44.54050536316059
 30
0.0
  0
LWPOLYLINE
  5
2B2
330
1F
100
AcDbEntity
  8
0
  6
Continuous
 62
     7
370
    18
100
AcDbPolyline
 90
        3
 70
   128
 43
0.0
 10
235.2715137417
 20
42.6818697872
 10
235.2711857865
 20
43.4355260139
 10
235.27092632
 20
44.0276846372
  0
SPLINE
  5
2B3
330
1F
100
AcDbEntity
  8
0
  6
Continuous
 62
     7
370
    18
100
AcDbSpline
210
0.0
220
0.0
230
1.0
 70
     8
 71
     3
 72
     9
 73
     5
 74
     0
 42
0.000000001
 43
0.00000001
 40
0.0
 40
0.0
 40
0.0
 40
0.0
 40
0.3335721521979047
 40
1.0
 40
1.0
 40
1.0
 40
1.0
 10
235.7625423075648
 20
41.99650784392092
 30
0.0
 10
235.8617825822111
 20
41.98607764023534
 30
0.0
 10
236.1592902548162
 20
41.95480943149288
 30
0.0
 10
236.4733982253933
 20
41.9208186200882
 30
0.0
 10
236.6827285242026
 20
41.89816619679875
 30
0.0
  0
SPLINE
  5
2B4
330
1F
100
AcDbEntity
  8
0
  6
Continuous
 62
     7
370
    18
100
AcDbSpline
210
0.0
220
0.0
230
1.0
 70
     8
 71
     3
 72
    10
 73
     6
 74
     0
 42
0.000000001
 43
0.00000001
 40
0.0
 40
0.0
 40
0.0
 40
0.0
 40
0.2765289694145777
 40
0.5626655573545074
 40
1.0
 40
1.0
 40
1.0
 40
1.0
 10
236.6828161106221
 20
41.69600509736157
 30
0.0
 10
236.6808102775366
 20
41.70211990303532
 30
0.0
 10
236.676728921455
 20
41.71456196489169
 30
0.0
 10
236.6751378414862
 20
41.77770358270849
 30
0.0
 10
236.6798687280769
 20
41.85278180517786
 30
0.0
 10
236.6827285242026
 20
41.89816619679875
 30
0.0
  0
SPLINE
  5
2B5
330
1F
100
AcDbEntity
  8
0
  6
Continuous
 62
     7
370
    18
100
AcDbSpline
210
0.0
220
0.0
230
1.0
 70
     8
 71
     3
 72
     9
 73
     5
 74
     0
 42
0.000000001
 43
0.00000001
 40
0.0
 40
0.0
 40
0.0
 40
0.0
 40
0.4031490708476723
 40
1.0
 40
1.0
 40
1.0
 40
1.0
 10
240.1126996421139
 20
44.00997133647886
 30
0.0
 10
240.1793940445792
 20
43.94721259578804
 30
0.0
 10
240.3448276454184
 20
43.79154129395705
 30
0.0
 10
240.3792712822281
 20
43.56886781312632
 30
0.0
 10
240.3998289988614
 20
43.43596493919492
 30
0.0
  0
SPLINE
  5
2B6
330
1F
100
AcDbEntity
  8
0
  6
Continuous
 62
     7
370
    18
100
AcDbSpline
210
0.0
220
0.0
230
1.0
 70
     8
 71
     3
 72
     9
 73
     5
 74
     0
 42
0.000000001
 43
0.00000001
 40
0.0
 40
0.0
 40
0.0
 40
0.0
 40
0.5968508669399166
 40
1.0
 40
1.0
 40
1.0
 40
1.0
 10
240.4004164205625
 20
42.09014854475819
 30
0.0
 10
240.379980773825
 20
41.94375645880466
 30
0.0
 10
240.345741656703
 20
41.69848231401857
 30
0.0
 10
240.1804901990498
 20
41.43399610431044
 30
0.0
 10
240.11386921716
 20
41.32736871816026
 30
0.0
  0
LWPOLYLINE
  5
2B7
330
1F
100
AcDbEntity
  8
0
  6
Continuous
 62
     7
370
    18
100
AcDbPolyline
 90
        3
 70
   128
 43
0.0
 10
240.3998289989
 20
43.4359649392
 10
240.4001582711
 20
42.6823079522
 10
240.4004164206
 20
42.0901485448
  0
LINE
  5
2B8
330
1F
100
AcDbEntity
  8
0
  6
Continuous
 62
     7
370
    18
100
AcDbLine
 10
235.6180609352
 20
42.6418881081
 30
0.0
 11
236.2339027831
 21
42.8445372756
 31
0.0
  0
LINE
  5
2B9
330
1F
100
AcDbEntity
  8
0
  6
Continuous
 62
     7
370
    18
100
AcDbLine
 10
236.6827285242
 20
41.8981661968
 30
0.0
 11
236.729096643
 21
42.4986195704
 31
0.0
  0
SPLINE
  5
2BA
330
1F
100
AcDbEntity
  8
0
  6
Continuous
 62
     7
370
    18
100
AcDbSpline
210
0.0
220
0.0
230
1.0
 70
     8
 71
     3
 72
     9
 73
     5
 74
     0
 42
0.000000001
 43
0.00000001
 40
0.0
 40
0.0
 40
0.0
 40
0.0
 40
0.6664266845475004
 40
0.9999999999999999
 40
0.9999999999999999
 40
0.9999999999999999
 40
0.9999999999999999
 10
235.6180609352359
 20
42.64188810811626
 30
0.0
 10
235.6300242368211
 20
42.50995625451281
 30
0.0
 10
235.6479756512265
 20
42.31198721056159
 30
0.0
 10
235.733885180917
 20
42.07542026445888
 30
0.0
 10
235.7625423075648
 20
41.99650784392092
 30
0.0
  0
LWPOLYLINE
  5
2BB
330
1F
100
AcDbEntity
  8
0
  6
Continuous
 62
     7
370
    18
100
AcDbPolyline
 90
        3
 70
   128
 43
0.0
 10
236.6827285242
 20
41.8981661968
 10
237.9746571887
 20
41.7491165974
 10
238.9897429617
 20
41.6320058177
  0
ARC
  5
2BC
330
1F
100
AcDbEntity
  8
0
  6
Continuous
 62
     7
370
    18
100
AcDbCircle
 10
239.6626882644
 20
41.5312231938
 30
0.0
 40
0.6804502316114076
100
AcDbArc
 50
171.4824887878
 51
188.5682778333
  0
SPLINE
  5
2BD
330
1F
100
AcDbEntity
  8
0
  6
Continuous
 62
     7
370
    18
100
AcDbSpline
210
0.0
220
0.0
230
1.0
 70
     8
 71
     3
 72
    10
 73
     6
 74
     0
 42
0.000000001
 43
0.00000001
 40
0.0
 40
0.0
 40
0.0
 40
0.0
 40
0.2765308135283155
 40
0.5626688910333847
 40
0.9999999999999999
 40
0.9999999999999999
 40
0.9999999999999999
 40
0.9999999999999999
 10
235.6180609352359
 20
42.64188810811626
 30
0.0
 10
235.5858157901578
 20
42.63384844199167
 30
0.0
 10
235.5202052356202
 20
42.61748979477661
 30
0.0
 10
235.3949923540561
 20
42.62276182466811
 30
0.0
 10
235.3180342661138
 20
42.65960088280995
 30
0.0
 10
235.2715137417112
 20
42.68186978721075
 30
0.0
  0
SPLINE
  5
2BE
330
1F
100
AcDbEntity
  8
0
  6
Continuous
 62
     7
370
    18
100
AcDbSpline
210
0.0
220
0.0
230
1.0
 70
     8
 71
     3
 72
     9
 73
     5
 74
     0
 42
0.000000001
 43
0.00000001
 40
0.0
 40
0.0
 40
0.0
 40
0.0
 40
0.6664270259827182
 40
1.0
 40
1.0
 40
1.0
 40
1.0
 10
238.9897429616566
 20
41.63200581767061
 30
0.0
 10
239.1958803407913
 20
41.6067253564003
 30
0.0
 10
239.5051975969915
 20
41.56879102858242
 30
0.0
 10
239.7826126275147
 20
41.53373202912334
 30
0.0
 10
239.8751507842833
 20
41.5220372944077
 30
0.0
  0
LINE
  5
2BF
330
1F
100
AcDbEntity
  8
0
  6
Continuous
 62
     7
370
    18
100
AcDbLine
 10
238.9897429617
 20
41.6320058177
 30
0.0
 11
239.0361137146
 21
42.2324592031
 31
0.0
  0
LINE
  5
2C0
330
1F
100
AcDbEntity
  8
0
  6
Continuous
 62
     7
370
    18
100
AcDbLine
 10
240.053869227
 20
42.1301302239
 30
0.0
 11
239.5310546934
 21
42.464144624
 31
0.0
  0
SPLINE
  5
2C1
330
1F
100
AcDbEntity
  8
0
  6
Continuous
 62
     7
370
    18
100
AcDbSpline
210
0.0
220
0.0
230
1.0
 70
     8
 71
     3
 72
     9
 73
     5
 74
     0
 42
0.000000001
 43
0.00000001
 40
0.0
 40
0.0
 40
0.0
 40
0.0
 40
0.3335728432581275
 40
1.0
 40
1.0
 40
1.0
 40
1.0
 10
239.8751507842833
 20
41.5220372944077
 30
0.0
 10
239.9104451618834
 20
41.59357152503893
 30
0.0
 10
240.0162522691268
 20
41.80802012922543
 30
0.0
 10
240.0388256878081
 20
42.0013139634768
 30
0.0
 10
240.0538692270378
 20
42.13013022385269
 30
0.0
  0
SPLINE
  5
2C2
330
1F
100
AcDbEntity
  8
0
  6
Continuous
 62
     7
370
    18
100
AcDbSpline
210
0.0
220
0.0
230
1.0
 70
     8
 71
     3
 72
    10
 73
     6
 74
     0
 42
0.000000001
 43
0.00000001
 40
0.0
 40
0.0
 40
0.0
 40
0.0
 40
0.2765325334241051
 40
0.5626705926720564
 40
1.0
 40
1.0
 40
1.0
 40
1.0
 10
240.4004164205625
 20
42.09014854475819
 30
0.0
 10
240.3681710574082
 20
42.08210873223975
 30
0.0
 10
240.3025602687886
 20
42.06574983942268
 30
0.0
 10
240.1773473731206
 20
42.07102180646192
 30
0.0
 10
240.100389531889
 20
42.10786116909665
 30
0.0
 10
240.0538692270378
 20
42.13013022385269
 30
0.0
  0
LWPOLYLINE
  5
2C3
330
1F
100
AcDbEntity
  8
0
  6
Continuous
 62
     7
370
    18
100
AcDbPolyline
 90
        3
 70
   128
 43
0.0
 10
235.6174748306
 20
43.9877037422
 10
235.6178027858
 20
43.2340474918
 10
235.6180609352
 20
42.6418881081
  0
LINE
  5
2C4
330
1F
100
AcDbEntity
  8
0
  6
Continuous
 62
     7
370
    18
100
AcDbLine
 10
235.6174748306
 20
43.9877037422
 30
0.0
 11
236.2333153614
 21
44.1903521255
 31
0.0
  0
ARC
  5
2C5
330
1F
100
AcDbEntity
  8
0
  6
Continuous
 62
     7
370
    18
100
AcDbCircle
 10
235.4872105632
 20
44.3804984314
 30
0.0
 40
0.4138314236754493
100
AcDbArc
 50
238.4905947391
 51
288.3473014566
  0
LINE
  5
2C6
330
1F
100
AcDbEntity
  8
0
  6
Continuous
 62
     7
370
    18
100
AcDbLine
 10
240.0532818053
 20
43.4759450976
 30
0.0
 11
239.5304672717
 21
43.8099610184
 31
0.0
  0
LWPOLYLINE
  5
2C7
330
1F
100
AcDbEntity
  8
0
  6
Continuous
 62
     7
370
    18
100
AcDbPolyline
 90
        3
 70
   128
 43
0.0
 10
240.053869227
 20
42.1301302239
 10
240.0535399548
 20
42.8837872227
 10
240.0532818053
 20
43.4759450976
  0
ARC
  5
2C8
330
1F
100
AcDbEntity
  8
0
  6
Continuous
 62
     7
370
    18
100
AcDbCircle
 10
240.2695636316
 20
43.8287494703
 30
0.0
 40
0.4138221282182803
100
AcDbArc
 50
238.4901982729
 51
288.347888699
  0
SPLINE
  5
2C9
330
1F
100
AcDbEntity
  8
0
  6
Continuous
 62
     7
370
    18
100
AcDbSpline
210
0.0
220
0.0
230
1.0
 70
     8
 71
     3
 72
     9
 73
     5
 74
     0
 42
0.000000001
 43
0.00000001
 40
0.0
 40
0.0
 40
0.0
 40
0.0
 40
0.3335722585112601
 40
0.9999999999999999
 40
0.9999999999999999
 40
0.9999999999999999
 40
0.9999999999999999
 10
235.7614945632526
 20
44.39562926115092
 30
0.0
 10
235.7328863413593
 20
44.36266632048417
 30
0.0
 10
235.6471231486378
 20
44.26384832880265
 30
0.0
 10
235.6293316073211
 20
44.09813782140179
 30
0.0
 10
235.6174748306238
 20
43.98770374221368
 30
0.0
  0
SPLINE
  5
2CA
330
1F
100
AcDbEntity
  8
0
  6
Continuous
 62
     7
370
    18
100
AcDbSpline
210
0.0
220
0.0
230
1.0
 70
     8
 71
     3
 72
     9
 73
     5
 74
     0
 42
0.000000001
 43
0.00000001
 40
0.0
 40
0.0
 40
0.0
 40
0.0
 40
0.6664260424478247
 40
1.0
 40
1.0
 40
1.0
 40
1.0
 10
236.6815984618269
 20
44.48582813651353
 30
0.0
 10
236.4722752520436
 20
44.49272636977886
 30
0.0
 10
236.1581770679234
 20
44.50307745575984
 30
0.0
 10
235.860718871155
 20
44.42250585041285
 30
0.0
 10
235.7614945632526
 20
44.39562926115092
 30
0.0
  0
LINE
  5
2CB
330
1F
100
AcDbEntity
  8
0
  6
Continuous
 62
     7
370
    18
100
AcDbLine
 10
236.6815984618
 20
44.4858281365
 30
0.0
 11
236.7282576573
 21
44.4220383423
 31
0.0
  0
LINE
  5
2CC
330
1F
100
AcDbEntity
  8
0
  6
Continuous
 62
     7
370
    18
100
AcDbLine
 10
238.9886155335
 20
44.2196677633
 30
0.0
 11
239.0352747289
 21
44.1558779513
 31
0.0
  0
SPLINE
  5
2CD
330
1F
100
AcDbEntity
  8
0
  6
Continuous
 62
     7
370
    18
100
AcDbSpline
210
0.0
220
0.0
230
1.0
 70
     8
 71
     3
 72
     9
 73
     5
 74
     0
 42
0.000000001
 43
0.00000001
 40
0.0
 40
0.0
 40
0.0
 40
0.0
 40
0.3335742507778645
 40
1.0
 40
1.0
 40
1.0
 40
1.0
 10
239.8741023814266
 20
43.92115833146805
 30
0.0
 10
239.7815478620696
 20
43.97016014196154
 30
0.0
 10
239.5040848410444
 20
44.11705940165928
 30
0.0
 10
239.1947585432324
 20
44.17863331919813
 30
0.0
 10
238.988615533459
 20
44.21966776332651
 30
0.0
  0
SPLINE
  5
2CE
330
1F
100
AcDbEntity
  8
0
  6
Continuous
 62
     7
370
    18
100
AcDbSpline
210
0.0
220
0.0
230
1.0
 70
     8
 71
     3
 72
     9
 73
     5
 74
     0
 42
0.000000001
 43
0.00000001
 40
0.0
 40
0.0
 40
0.0
 40
0.0
 40
0.6664279967817228
 40
1.0
 40
1.0
 40
1.0
 40
1.0
 10
240.0532818053366
 20
43.47594509761081
 30
0.0
 10
240.038132667945
 20
43.58949503518451
 30
0.0
 10
240.0154008237475
 20
43.75988094052172
 30
0.0
 10
239.9094459581836
 20
43.8808173358248
 30
0.0
 10
239.8741023814266
 20
43.92115833146805
 30
0.0
  0
LWPOLYLINE
  5
2CF
330
1F
100
AcDbEntity
  8
0
  6
Continuous
 62
     7
370
    18
100
AcDbPolyline
 90
        3
 70
   128
 43
0.0
 10
238.9886155335
 20
44.2196677633
 10
237.6966855519
 20
44.3687181231
 10
236.6815984618
 20
44.4858281365
  0
SPLINE
  5
2D0
330
1F
100
AcDbEntity
  8
0
  6
Continuous
 62
     7
370
    18
100
AcDbSpline
210
0.0
220
0.0
230
1.0
 70
     8
 71
     3
 72
     9
 73
     5
 74
     0
 42
0.000000001
 43
0.00000001
 40
0.0
 40
0.0
 40
0.0
 40
0.0
 40
0.4031483883077033
 40
1.0
 40
1.0
 40
1.0
 40
1.0
 10
235.5141439289653
 20
44.54050536316059
 30
0.0
 10
235.6643445358199
 20
44.58874800975822
 30
0.0
 10
236.0369135729556
 20
44.70841274859081
 30
0.0
 10
236.4405807886114
 20
44.69562264795765
 30
0.0
 10
236.6815102168628
 20
44.68798885578104
 30
0.0
  0
SPLINE
  5
2D1
330
1F
100
AcDbEntity
  8
0
  6
Continuous
 62
     7
370
    18
100
AcDbSpline
210
0.0
220
0.0
230
1.0
 70
     8
 71
     3
 72
    10
 73
     6
 74
     0
 42
0.000000001
 43
0.00000001
 40
0.0
 40
0.0
 40
0.0
 40
0.0
 40
0.2765313254336894
 40
0.5626718639895658
 40
1.0
 40
1.0
 40
1.0
 40
1.0
 10
236.6815984618269
 20
44.48582813651352
 30
0.0
 10
236.6795916711982
 20
44.49194307472604
 30
0.0
 10
236.6755083557839
 20
44.50438543971604
 30
0.0
 10
236.6739204420989
 20
44.56752689336296
 30
0.0
 10
236.6786507827052
 20
44.64260502546341
 30
0.0
 10
236.6815102168628
 20
44.68798885578104
 30
0.0
  0
SPLINE
  5
2D2
330
1F
100
AcDbEntity
  8
0
  6
Continuous
 62
     7
370
    18
100
AcDbSpline
210
0.0
220
0.0
230
1.0
 70
     8
 71
     3
 72
     9
 73
     5
 74
     0
 42
0.000000001
 43
0.00000001
 40
0.0
 40
0.0
 40
0.0
 40
0.0
 40
0.5968520751608017
 40
1.0
 40
1.0
 40
1.0
 40
1.0
 10
238.9885259714059
 20
44.4218292310511
 30
0.0
 10
239.2263692328376
 20
44.37422689496688
 30
0.0
 10
239.62486539517
 20
44.29447122674475
 30
0.0
 10
239.9725366836407
 20
44.09171292505072
 30
0.0
 10
240.1126996421139
 20
44.00997133647886
 30
0.0
  0
LWPOLYLINE
  5
2D3
330
1F
100
AcDbEntity
  8
0
  6
Continuous
 62
     7
370
    18
100
AcDbPolyline
 90
        3
 70
   128
 43
0.0
 10
236.6815102169
 20
44.6879888558
 10
237.9734388814
 20
44.5389392504
 10
238.9885259714
 20
44.4218292311
  0
ARC
  5
2D4
330
1F
100
AcDbEntity
  8
0
  6
Continuous
 62
     7
370
    18
100
AcDbCircle
 10
239.6614251847
 20
44.3210465868
 30
0.0
 40
0.6804046535796229
100
AcDbArc
 50
171.4819122486
 51
188.5688543724
  0
LINE
  5
2D5
330
1F
100
AcDbEntity
  8
0
  6
Continuous
 62
     7
370
    18
100
AcDbLine
 10
234.9999201085
 20
39.8637856778
 30
0.0
 11
234.7981578763
 21
38.6998544949
 31
0.0
  0
LINE
  5
2D6
330
1F
100
AcDbEntity
  8
0
  6
Continuous
 62
     7
370
    18
100
AcDbLine
 10
239.8973569051
 20
38.1115606357
 30
0.0
 11
240.0991191373
 21
39.2754917236
 31
0.0
  0
LINE
  5
2D7
330
1F
100
AcDbEntity
  8
0
  6
Continuous
 62
     7
370
    18
100
AcDbLine
 10
234.7981578763
 20
38.6998544949
 30
0.0
 11
234.7771042084
 21
38.6652520912
 31
0.0
  0
LINE
  5
2D8
330
1F
100
AcDbEntity
  8
0
  6
Continuous
 62
     7
370
    18
100
AcDbLine
 10
239.8763032372
 20
38.0769582321
 30
0.0
 11
239.8973569051
 21
38.1115606357
 31
0.0
  0
LWPOLYLINE
  5
2D9
330
1F
100
AcDbEntity
  8
0
  6
Continuous
 62
     7
370
    18
100
AcDbPolyline
 90
       25
 70
   128
 43
0.0
 10
194.2332613399
 20
40.5289255813
 10
194.2744888603
 20
41.6582775479
 10
194.3978638811
 20
42.8268672049
 10
194.6024749768
 20
44.026043802
 10
194.8868068365
 20
45.2469285069
 10
195.2487534348
 20
46.4804824652
 10
195.6856358127
 20
47.7175727688
 10
196.1942191995
 20
48.949040326
 10
196.7707380377
 20
50.1657679204
 10
197.4109243004
 20
51.358747509
 10
198.1100384428
 20
52.5191463797
 10
198.8629043051
 20
53.6383740691
 10
199.6639479664
 20
54.7081435755
 10
200.5072382458
 20
55.720534284
 10
201.3865324704
 20
56.6680510876
 10
202.2953202695
 20
57.5436800875
 10
203.226873129
 20
58.3409362123
 10
204.1742946062
 20
59.053918822
 10
205.1305700085
 20
59.6773479919
 10
206.0886195297
 20
60.2066096358
 10
207.0413501105
 20
60.6377839244
 10
207.9817078747
 20
60.9676778367
 10
208.9027311014
 20
61.1938511778
 10
209.7976005622
 20
61.3146281471
 10
209.8553871842
 20
61.3188520391
  0
ARC
  5
2DA
330
1F
100
AcDbEntity
  8
0
  6
Continuous
 62
     7
370
    18
100
AcDbCircle
 10
204.8515688345
 20
40.2778549547
 30
0.0
 40
10.62127537115979
100
AcDbArc
 50
178.645489662
 51
204.5145696707
  0
ARC
  5
2DB
330
1F
100
AcDbEntity
  8
0
  6
Continuous
 62
     7
370
    18
100
AcDbCircle
 10
220.8466239669
 20
33.3726008201
 30
0.0
 40
13.64770270243745
100
AcDbArc
 50
164.5439279858
 51
200.0418557719
  0
LINE
  5
2DC
330
1F
100
AcDbEntity
  8
0
  6
Continuous
 62
     7
370
    18
100
AcDbLine
 10
229.0507337319
 20
47.329622028
 30
0.0
 11
207.3128782391
 21
37.2861450665
 31
0.0
  0
LINE
  5
2DD
330
1F
100
AcDbEntity
  8
0
  6
Continuous
 62
     7
370
    18
100
AcDbLine
 10
231.0664317866
 20
27.8862410742
 30
0.0
 11
233.4574317223
 21
41.6795631311
 31
0.0
  0
LINE
  5
2DE
330
1F
100
AcDbEntity
  8
0
  6
Continuous
 62
     7
370
    18
100
AcDbLine
 10
226.9388170562
 20
50.0769460659
 30
0.0
 11
206.058329878
 21
40.4295964752
 31
0.0
  0
LINE
  5
2DF
330
1F
100
AcDbEntity
  8
0
  6
Continuous
 62
     7
370
    18
100
AcDbLine
 10
206.6373910273
 20
54.6704305911
 30
0.0
 11
205.2839151224
 21
52.3261411836
 31
0.0
  0
LINE
  5
2E0
330
1F
100
AcDbEntity
  8
0
  6
Continuous
 62
     7
370
    18
100
AcDbLine
 10
200.679322861
 20
44.3507534622
 30
0.0
 11
199.3257564062
 21
42.0063079781
 31
0.0
  0
LINE
  5
2E1
330
1F
100
AcDbEntity
  8
0
  6
Continuous
 62
     7
370
    18
100
AcDbLine
 10
205.5963579422
 20
55.271406199
 30
0.0
 11
198.2847233211
 21
42.607283586
 31
0.0
  0
LINE
  5
2E2
330
1F
100
AcDbEntity
  8
0
  6
Continuous
 62
     7
370
    18
100
AcDbLine
 10
205.2589566148
 20
55.1848988695
 30
0.0
 11
198.1909386806
 21
42.9427327346
 31
0.0
  0
LINE
  5
2E3
330
1F
100
AcDbEntity
  8
0
  6
Continuous
 62
     7
370
    18
100
AcDbLine
 10
190.1481960139
 20
61.8218142384
 30
0.0
 11
200.5566771782
 21
55.9250844837
 31
0.0
  0
LINE
  5
2E4
330
1F
100
AcDbEntity
  8
0
  6
Continuous
 62
     7
370
    18
100
AcDbLine
 10
184.808106837
 20
48.0582893643
 30
0.0
 11
194.2591303058
 21
42.321119678
 31
0.0
  0
LINE
  5
2E5
330
1F
100
AcDbEntity
  8
0
  6
Continuous
 62
     7
370
    18
100
AcDbLine
 10
233.3180270696
 20
28.2278371929
 30
0.0
 11
235.1204317778
 21
38.6256421608
 31
0.0
  0
LINE
  5
2E6
330
1F
100
AcDbEntity
  8
0
  6
Continuous
 62
     7
370
    18
100
AcDbLine
 10
213.6127250782
 20
58.4522071361
 30
0.0
 11
212.2659386684
 21
59.2299435079
 31
0.0
  0
LINE
  5
2E7
330
1F
100
AcDbEntity
  8
0
  6
Continuous
 62
     7
370
    18
100
AcDbLine
 10
198.1909386806
 20
34.8513284841
 30
0.0
 11
199.5383563053
 21
34.0732283617
 31
0.0
  0
LINE
  5
2E8
330
1F
100
AcDbEntity
  8
0
  6
Continuous
 62
     7
370
    18
100
AcDbLine
 10
194.4292400901
 20
64.2932083785
 30
0.0
 11
204.0908598364
 21
59.0937977826
 31
0.0
  0
LINE
  5
2E9
330
1F
100
AcDbEntity
  8
0
  6
Continuous
 62
     7
370
    18
100
AcDbLine
 10
236.9833356529
 20
45.2647470704
 30
0.0
 11
237.0426757814
 21
45.6070720555
 31
0.0
  0
LINE
  5
2EA
330
1F
100
AcDbEntity
  8
0
  6
Continuous
 62
     7
370
    18
100
AcDbLine
 10
189.7709593292
 20
61.9101425148
 30
0.0
 11
190.1481960139
 21
61.8218142384
 31
0.0
  0
LINE
  5
2EB
330
1F
100
AcDbEntity
  8
0
  6
Continuous
 62
     7
370
    18
100
AcDbLine
 10
184.5839633112
 20
48.5411998651
 30
0.0
 11
184.808106837
 21
48.0582893643
 31
0.0
  0
OLE2FRAME
  5
2EC
330
1F
100
AcDbEntity
  8
0
100
AcDbOle2Frame
 70
     2
  3
Paintbrush-Bild
 10
13.8511154363
 20
38.264191557
 30
0.0
 11
51.6290888628
 21
31.9806341108
 31
0.0
 71
     2
 72
     0
 73
     1
 90
    12928
310
80552BED0767C5B32B40DDAF6807D121434000000000000000006FFBDDFB85D0
310
4940DDAF6807D121434000000000000000006FFBDDFB85D04940416F4BD60AFB
310
3F4000000000000000002BED0767C5B32B40416F4BD60AFB3F40000000000000
310
0000000000000100000000010000010000000100000000000100000000320000
310
D0CF11E0A1B11AE1000000000000000000000000000000003E000300FEFF0900
310
0600000000000000000000000100000001000000000000000010000002000000
310
01000000FEFFFFFF0000000000000000FFFFFFFFFFFFFFFFFFFFFFFFFFFFFFFF
310
FFFFFFFFFFFFFFFFFFFFFFFFFFFFFFFFFFFFFFFFFFFFFFFFFFFFFFFFFFFFFFFF
310
FFFFFFFFFFFFFFFFFFFFFFFFFFFFFFFFFFFFFFFFFFFFFFFFFFFFFFFFFFFFFFFF
310
FFFFFFFFFFFFFFFFFFFFFFFFFFFFFFFFFFFFFFFFFFFFFFFFFFFFFFFFFFFFFFFF
310
FFFFFFFFFFFFFFFFFFFFFFFFFFFFFFFFFFFFFFFFFFFFFFFFFFFFFFFFFFFFFFFF
310
FFFFFFFFFFFFFFFFFFFFFFFFFFFFFFFFFFFFFFFFFFFFFFFFFFFFFFFFFFFFFFFF
310
FFFFFFFFFFFFFFFFFFFFFFFFFFFFFFFFFFFFFFFFFFFFFFFFFFFFFFFFFFFFFFFF
310
FFFFFFFFFFFFFFFFFFFFFFFFFFFFFFFFFFFFFFFFFFFFFFFFFFFFFFFFFFFFFFFF
310
FFFFFFFFFFFFFFFFFFFFFFFFFFFFFFFFFFFFFFFFFFFFFFFFFFFFFFFFFFFFFFFF
310
FFFFFFFFFFFFFFFFFFFFFFFFFFFFFFFFFFFFFFFFFFFFFFFFFFFFFFFFFFFFFFFF
310
FFFFFFFFFFFFFFFFFFFFFFFFFFFFFFFFFFFFFFFFFFFFFFFFFFFFFFFFFFFFFFFF
310
FFFFFFFFFFFFFFFFFFFFFFFFFFFFFFFFFFFFFFFFFFFFFFFFFFFFFFFFFFFFFFFF
310
FFFFFFFFFFFFFFFFFFFFFFFFFFFFFFFFFFFFFFFFFFFFFFFFFFFFFFFFFFFFFFFF
310
FFFFFFFFFFFFFFFFFFFFFFFFFFFFFFFFFFFFFFFFFFFFFFFFFFFFFFFFFFFFFFFF
310
FDFFFFFFFEFFFFFFFEFFFFFFFEFFFFFF05000000060000000700000008000000
310
090000000A0000000B0000000C0000000D0000000E0000000F00000010000000
310
11000000120000001300000014000000150000001600000017000000FEFFFFFF
310
FFFFFFFFFFFFFFFFFFFFFFFFFFFFFFFFFFFFFFFFFFFFFFFFFFFFFFFFFFFFFFFF
310
FFFFFFFFFFFFFFFFFFFFFFFFFFFFFFFFFFFFFFFFFFFFFFFFFFFFFFFFFFFFFFFF
310
FFFFFFFFFFFFFFFFFFFFFFFFFFFFFFFFFFFFFFFFFFFFFFFFFFFFFFFFFFFFFFFF
310
FFFFFFFFFFFFFFFFFFFFFFFFFFFFFFFFFFFFFFFFFFFFFFFFFFFFFFFFFFFFFFFF
310
FFFFFFFFFFFFFFFFFFFFFFFFFFFFFFFFFFFFFFFFFFFFFFFFFFFFFFFFFFFFFFFF
310
FFFFFFFFFFFFFFFFFFFFFFFFFFFFFFFFFFFFFFFFFFFFFFFFFFFFFFFFFFFFFFFF
310
FFFFFFFFFFFFFFFFFFFFFFFFFFFFFFFFFFFFFFFFFFFFFFFFFFFFFFFFFFFFFFFF
310
FFFFFFFFFFFFFFFFFFFFFFFFFFFFFFFFFFFFFFFFFFFFFFFFFFFFFFFFFFFFFFFF
310
FFFFFFFFFFFFFFFFFFFFFFFFFFFFFFFFFFFFFFFFFFFFFFFFFFFFFFFFFFFFFFFF
310
FFFFFFFFFFFFFFFFFFFFFFFFFFFFFFFFFFFFFFFFFFFFFFFFFFFFFFFFFFFFFFFF
310
FFFFFFFFFFFFFFFFFFFFFFFFFFFFFFFFFFFFFFFFFFFFFFFFFFFFFFFFFFFFFFFF
310
FFFFFFFFFFFFFFFFFFFFFFFFFFFFFFFFFFFFFFFFFFFFFFFFFFFFFFFFFFFFFFFF
310
FFFFFFFFFFFFFFFFFFFFFFFFFFFFFFFFFFFFFFFFFFFFFFFFFFFFFFFFFFFFFFFF
310
52006F006F007400200045006E00740072007900000000000000000000000000
310
0000000000000000000000000000000000000000000000000000000000000000
310
16000500FFFFFFFFFFFFFFFF020000000A00030000000000C000000000000046
310
000000000000000000000000305880ABF0A3D30103000000C000000000000000
310
01004F006C006500000000000000000000000000000000000000000000000000
310
0000000000000000000000000000000000000000000000000000000000000000
310
0A000200FFFFFFFFFFFFFFFFFFFFFFFF00000000000000000000000000000000
310
0000000000000000000000000000000000000000000000001400000000000000
310
010043006F006D0070004F0062006A0000000000000000000000000000000000
310
0000000000000000000000000000000000000000000000000000000000000000
310
120002010100000003000000FFFFFFFF00000000000000000000000000000000
310
0000000000000000000000000000000000000000010000004D00000000000000
310
01004F006C006500310030004E00610074006900760065000000000000000000
310
0000000000000000000000000000000000000000000000000000000000000000
310
1A000200FFFFFFFFFFFFFFFFFFFFFFFF00000000000000000000000000000000
310
0000000000000000000000000000000000000000040000002426000000000000
310
FEFFFFFF02000000FEFFFFFFFFFFFFFFFFFFFFFFFFFFFFFFFFFFFFFFFFFFFFFF
310
FFFFFFFFFFFFFFFFFFFFFFFFFFFFFFFFFFFFFFFFFFFFFFFFFFFFFFFFFFFFFFFF
310
FFFFFFFFFFFFFFFFFFFFFFFFFFFFFFFFFFFFFFFFFFFFFFFFFFFFFFFFFFFFFFFF
310
FFFFFFFFFFFFFFFFFFFFFFFFFFFFFFFFFFFFFFFFFFFFFFFFFFFFFFFFFFFFFFFF
310
FFFFFFFFFFFFFFFFFFFFFFFFFFFFFFFFFFFFFFFFFFFFFFFFFFFFFFFFFFFFFFFF
310
FFFFFFFFFFFFFFFFFFFFFFFFFFFFFFFFFFFFFFFFFFFFFFFFFFFFFFFFFFFFFFFF
310
FFFFFFFFFFFFFFFFFFFFFFFFFFFFFFFFFFFFFFFFFFFFFFFFFFFFFFFFFFFFFFFF
310
FFFFFFFFFFFFFFFFFFFFFFFFFFFFFFFFFFFFFFFFFFFFFFFFFFFFFFFFFFFFFFFF
310
FFFFFFFFFFFFFFFFFFFFFFFFFFFFFFFFFFFFFFFFFFFFFFFFFFFFFFFFFFFFFFFF
310
FFFFFFFFFFFFFFFFFFFFFFFFFFFFFFFFFFFFFFFFFFFFFFFFFFFFFFFFFFFFFFFF
310
FFFFFFFFFFFFFFFFFFFFFFFFFFFFFFFFFFFFFFFFFFFFFFFFFFFFFFFFFFFFFFFF
310
FFFFFFFFFFFFFFFFFFFFFFFFFFFFFFFFFFFFFFFFFFFFFFFFFFFFFFFFFFFFFFFF
310
FFFFFFFFFFFFFFFFFFFFFFFFFFFFFFFFFFFFFFFFFFFFFFFFFFFFFFFFFFFFFFFF
310
FFFFFFFFFFFFFFFFFFFFFFFFFFFFFFFFFFFFFFFFFFFFFFFFFFFFFFFFFFFFFFFF
310
FFFFFFFFFFFFFFFFFFFFFFFFFFFFFFFFFFFFFFFFFFFFFFFFFFFFFFFFFFFFFFFF
310
FFFFFFFFFFFFFFFFFFFFFFFFFFFFFFFFFFFFFFFFFFFFFFFFFFFFFFFFFFFFFFFF
310
0100000200000000000000000000000000000000000000000000000000000000
310
0000000000000000000000000000000000000000000000000000000000000000
310
0100FEFF030A0000FFFFFFFF0A00030000000000C00000000000004607000000
310
5042727573680007000000504272757368000700000050427275736800F439B2
310
7100000000000000000000000000000000000000000000000000000000000000
310
0000000000000000000000000000000000000000000000000000000000000000
310
0000000000000000000000000000000000000000000000000000000000000000
310
0000000000000000000000000000000000000000000000000000000000000000
310
0000000000000000000000000000000000000000000000000000000000000000
310
0000000000000000000000000000000000000000000000000000000000000000
310
0000000000000000000000000000000000000000000000000000000000000000
310
0000000000000000000000000000000000000000000000000000000000000000
310
0000000000000000000000000000000000000000000000000000000000000000
310
0000000000000000000000000000000000000000000000000000000000000000
310
0000000000000000000000000000000000000000000000000000000000000000
310
0000000000000000000000000000000000000000000000000000000000000000
310
20260000424D0E260000000000003E00000028000000B40200006E0000000100
310
01000000000000000000130B0000130B00000200000002000000000000FFFFFF
310
FFFFFFFFFFFFFFFFFFFFFFFFFFFFFFFFFFFFFFFFFFFFFFFFFFFFFFFFFFFFFFFF
310
FFFFFFFFFFFFFFFFFFFFFFFFFFFFFFFFFFFFFFFFFFFFFFFFFFFFFFFFFFFFFFFF
310
FFFFFFFFFFFFFFFFFFFFFFFFFFFFFFFFFFFFFFFFFFFFFFFFF000FFFFFFFFFFFF
310
FFFFFFFFFFFFFFFFFFFFFFFFFFFFFFFFFFFFFFFFFFFFFFFFFFFFFFFFFFFFFFFF
310
FFFFFFFFFFFFFFFFFFFFFFFFFFFFFFFFFFFFFFFFFFFFFFFFFFFFFFFFFFFFFFFF
310
FFFFFFFFFFFFFFFFFFFFFFFFFFFFFFFFF000FFFFFFFFFFFFFFFFFFFFFFFFFFFF
310
FFFFFFFFFFFFFFFFFFFFFFFFFFFFFFFFFFFFFFFFFFFFFFFFFFFFFFFFFFFFFFFF
310
FFFFFFFFFFFFFFFFFFFFFFFFFFFFFFFFFFFFFFFFFFFFFFFFFFFFFFFFFFFFFFFF
310
FFFFFFFFFFFFFFFFF000FFFFFFFFFFFFFFFFFFFFFFFFFFFFFFFFFFFFFFFFFFFF
310
FFFFFFFFFFFFFFFFFFFFFFFFFFFFFFFFFFFFFFFFFFFFFFFFFFFFFFFFFFFFFFFF
310
FFFFFFFFFFFFFFFFFFFFFFFFFFFFFFFFFFFFFFFFFFFFFFFFFFFFFFFFFFFFFFFF
310
F000FFFFFFFFFFFFFFFFFFFFFFFFFFFFFFFFFFFFFFFFFFFFFFFFFFFFFFFFFFFF
310
FFFFFFFFFFFFFFFFFFFFFFFFFFFFFFFFFFFFFFFFFFFFFFFFFFFFFFFFFFFFFFFF
310
FFFFFFFFFFFFFFFFFFFFFFFFFFFFFFFFFFFFFFFFFFFFFFFFF000FFFFFFFFFFFF
310
FFFFFFFFFFFFFFFFFFFFFFFFFFFFFFFFFFFFFFFFFFFFFFFFFFFFFFFFFFFFFFFF
310
FFFFFFFFFFFFFFFFFFFFFFFFFFFFFFFFFFFFFFFFFFFFFFFFFFFFFFFFFFFFFFFF
310
FFFFFFFFFFFFFFFFFFFFFFFFFFFFFFFFF000FFFFFFFFFFFFFFFFFFFFFFFFFFFF
310
FFFFFFFFFFFFFFFFFFFFFFFFFFFFFFFFFFFFFFFFFFFFFFFFFFFFFFFFFFFFFFFF
310
FFFFFFFFFFFFFFFFFFFFFFFFFFFFFFFFFFFFFFFFFFFFFFFFFFFFFFFFFFFFFFFF
310
FFFFFFFFFFFFFFFFF000FFFFFFFFFFFFFFFFFFFFFFFFFFFFFFFFFFFFFFFFFFFF
310
FFFFFFFFFFFFFFFFFFFFFFFFFFFFFFFFFFFFFFFFFFFFFFFFFFFFFFFFFFFFFFFF
310
FFFFFFFFFFFFFFFFFFFFFFFFFFFFFFFFFFFFFFFFFFFFFFFFFFFFFFFFFFFFFFFF
310
F000FFFFFFFFFFFFFFFFFFFFFFFFFFFFFFFFFFFFFFFFFFFFFFFFFFFFFFFFFFFF
310
FFFFFFFFFFFFFFFFFFFFFFFFFFFFFFFFFFFFFFFFFFFFFFFFFFFFFFFFFFFFFFFF
310
FFFFFFFFFFFFFFFFFFFFFFFFFFFFFFFFFFFFFFFFFFFFFFFFF000FFFFFFFFFFFF
310
FFFFFFFFFFFFFFFFFFFFFFFFFFFFFFFFFFFFFFFFFFFFFFFFFFFFFFFFFFFFFFFF
310
FFFFFFFFFFFFFFFFFFFFFFFFFFFFFFFFFFFFFFFFFFFFFFFFFFFFFFFFFFFFFFFF
310
FFFFFFFFFFFFFFFFFFFFFFFFFFFFFFFFF000FFFFFFFFFFFFFFFFFFFFFFFFFFFF
310
FFFFFFFFFFFFFFFFFFFFFFFFFFFFFFFFFFFFFFFFFFFFFFFFFFFFFFFFFFFFFFFF
310
FFFFFFFFFFFFFFFFFFFFFFFFFFFFFFFFFFFFFFFFFFFFFFFFFFFFFFFFFFFFFFFF
310
FFFFFFFFFFFFFFFFF000FFFFFFFFFFFFFFFFFFFFFFFFFFFFFFFFFFFFFFFFFFFF
310
FFFFFFFFFFFFFFFFFFFFFFFFFFFFFFFFFFFFFFFFFFFFFFFFFFFFFFFFFFFFFFFF
310
FFFFFFFFFFFFFFFFFFFFFFFFFFFFFFFFFFFFFFFFFFFFFFFFFFFFFFFFFFFFFFFF
310
F000FFFFFFFFFFFFFFFFFFFFFFFFFFFFFFFFFFFFFFFFFFFFFFFFFFFFFFFFFFFF
310
FFFFFFFFFFFFFFFFFFFFFFFFFFFFFFFFFFFFFFFFFFFFFFFFFFFFFFFFFFFFFFFF
310
FFFFFFFFFFFFFFFFFFFFFFFFFFFFFFFFFFFFFFFFFFFFFFFFF000FFFFFFFFFFFF
310
FFFFFFFFFFFFFFFFFFFFFFFFFFFFFFFFFFFFFFFFFFFFFFFFFFFFFFFFFFFFFFFF
310
FFFFFFFFFFFFFFFFFFFFFFFFFFFFFFFFFFFFFFFFFFFFFFFFFFFFFFFFFFFFFFFF
310
FFFFFFFFFFFFFFFFFFFFFFFFFFFFFFFFF000FFFFFFFFFFFFFFFFFFFFFFFFFFFF
310
FFFFFFFFFFFFFFFFFFFFFFFFFFFFFFFFFFFFFFFFFFFFFFFFFFFFFFFFFFFFFFFF
310
FFFFFFFFFFFFFFFFFFFFFFFFFFFFFFFFFFFFFFFFFFFFFFFFFFFFFFFFFFFFFFFF
310
FFFFFFFFFFFFFFFFF000FFFFFFFFFFFFFFFFFFFFFFFFFFFFFFFFFFFFFFFFFFFF
310
FFFFFFFFFFFFFFFFFFFFFFFFFFFFFFFFFFFFFFFFFFFFFFFFFFFFFFFFFFFFFFFF
310
FFFFFFFFFFFFFFFFFFFFFFFFFFFFFFFFFFFFFFFFFFFFFFFFFFFFFFFFFFFFFFFF
310
F000FFFFFFFFFFFFFFFFFFFFFFFFFFFFFFFFFFFFFFFFFFFFFFFFFFFFFFFFFFFF
310
FFFFFFFFFFFFFFFFFFFFFFFFFFFFFFFFFFFFFFFFFFFFFFFFFFFFFFFFFFFFFFFF
310
FFFFFFFFFFFFFFFFFFFFFFFFFFFFFFFFFFFFFFFFFFFFFFFFF000FFFFFFFFFFFF
310
FFFFFFFFFFFFFFFFFFFFFFFFFFFFFFFFFFFFFFFFFFFFFFFFFFFFFFFFFFFFFFFF
310
FFFFFFFFFFFFFFFFFFFFFFFFFFFFFFFFFFFFFFFFFFFFFFFFFFFFFFFFFFFFFFFF
310
FFFFFFFFFFFFFFFFFFFFFFFFFFFFFFFFF000FFFFFFFFFFFFFFFFFFFFFFFFFFFF
310
FFFFFFFFFFFFFFFFFFFFFFFFFFFFFFFFFFFFFFFFFFFFFFFFFFFFFFFFFFFFFFFF
310
FFFFFFFFFFFFFFFFFFFFFFFFFFFFFFFFFFFFFFFFFFFFFFFFFFFFFFFFFFFFFFFF
310
FFFFFFFFFFFFFFFFF000FFFFF80003FFFFFFFFFFFFFFFFFFFFFFFFFFFFFFFFFF
310
FFFFF00007FFFFFFFFFF00007FFFFFF800000000000000007FFFFFFFFFFFFFFF
310
FFFFFFFC001FFFFFFFFFFFFFFC001FFFFFFFFFFFFFFFFFFFFFFFFFFE0007FFFF
310
F000FFFF8000007FFFFFFFF8000FFFFFC0007FFFFF80007FFFFF0000007FFFFF
310
FFF8000007FFFFF800000000000000007FFFFFF0001FFFFFFFFFFFC00001FFFF
310
FFFFFFFFC00001FFFFFFFF000000000003FFFFE000007FFFF000FFFE0000000F
310
FFFFFFF0000FFFFF80007FFFFF80007FFFFC0000001FFFFFFFC0000001FFFFF8
310
00000000000000007FFFFFF0001FFFFFFFFFFE0000003FFFFFFFFFFE0000003F
310
FFFFFF000000000003FFFF0000000FFFF000FFF800000003FFFFFFF00007FFFF
310
80007FFFFF80007FFFF000000007FFFFFF000000003FFFF80000000000000000
310
7FFFFFF0001FFFFFFFFFF80000000FFFFFFFFFF80000000FFFFFFF0000000000
310
03FFFC00000003FFF000FFE000000000FFFFFFF00007FFFF80003FFFFF80007F
310
FFC000000001FFFFFC000000001FFFF800000000000000007FFFFFF0001FFFFF
310
FFFFE000000003FFFFFFFFE000000003FFFFFF000000000003FFF000000000FF
310
F000FF80000000007FFFFFF00007FFFF80003FFFFF80007FFF8000000000FFFF
310
F80000000007FFF800000000000000007FFFFFF0001FFFFFFFFFC000000001FF
310
FFFFFFC000000001FFFFFF000000000003FFC0000000007FF000FF0000000000
310
3FFFFFE00007FFFF00003FFFFF80007FFE00000000003FFFF00000000003FFF8
310
00000000000000007FFFFFF0001FFFFFFFFF8000000000FFFFFFFF8000000000
310
FFFFFF000000000003FF80000000003FF000FE00000000001FFFFFE00003FFFF
310
00003FFFFF80007FFC00000000001FFFE00000000001FFF8000001FFFE000000
310
7FFFFFF0001FFFFFFFFE00000000003FFFFFFE00000000003FFFFF0000000000
310
03FF00000000001FF000FC00000000000FFFFFE00003FFFF00001FFFFF80007F
310
F800000000001FFFC00000000000FFF8000001FFFE0000007FFFFFF0001FFFFF
310
FFFC00000000001FFFFFFC00000000001FFFFF000000000003FE00000000000F
310
F000F8000000000007FFFFE00003FFFF00001FFFFF80007FF800000000000FFF
310
800000000000FFF8000001FFFE0000007FFFFFF0001FFFFFFFF800000000000F
310
FFFFF800000000000FFFFF000000000003FC000000000007F000F80000000000
310
03FFFFC00003FFFE00001FFFFF80007FF0000000000007FF0000000000007FF8
310
000001FFFE0000007FFFFFF0001FFFFFFFF0000000000007FFFFF00000000000
310
07FFFF000000000003F8000000000003F000F0000000000003FFFFC00001FFFE
310
00001FFFFF80007FE0000000000007FE0000000000003FF8000001FFFE000000
310
7FFFFFF0001FFFFFFFF0000000000007FFFFF0000000000007FFFF0000000000
310
03F800001F800003F000E00001FFF00001FFFFC00001FFFE00000FFFFF80007F
310
E00001FFE00003FE00001FFF00003FF8000001FFFE0000007FFFFFF0001FFFFF
310
FFE000003E000003FFFFE000003E000003FFFF000000000003F00001FFF80001
310
F000E00007FFFC0001FFFFC00001FFFE00000FFFFF80007FC0000FFFFC0003FC
310
0000FFFFC0001FF8000001FFFE0000007FFFFFF0001FFFFFFFC00003FFE00001
310
FFFFC00003FFE00001FFFF0001FFFFFFFFF00007FFFE0001F000E0000FFFFF00
310
00FFFF800001FFFC00000FFFFF80007FC0001FFFFE0001FC0001FFFFE0001FF8
310
000001FFFE0000007FFFFFF0001FFFFFFF80000FFFF80000FFFF80000FFFF800
310
00FFFF0003FFFFFFFFE0000FFFFF8000F000C0003FFFFF8000FFFF800000FFFC
310
000007FFFF80007F80003FFFFF0001FC0003FFFFF0001FF8000001FFFE000000
310
7FFFFFF0001FFFFFFF80003FFFFE0000FFFF80003FFFFE0000FFFF0003FFFFFF
310
FFE0003FFFFF8000F000C0003FFFFF8000FFFF800000FFFC000007FFFF80007F
310
80007FFFFF8001F80007FFFFF8000FF8000001FFFE0000007FFFFFF0001FFFFF
310
FF00007FFFFF00007FFF00007FFFFF00007FFF0003FFFFFFFFE0003FFFFFC000
310
F000C0007FFFFFC000FFFF000000FFFC000007FFFF80007F8000FFFFFF8000F8
310
000FFFFFF8000FF8000001FFFE0000007FFFFFF0001FFFFFFF0000FFFFFF8000
310
7FFF0000FFFFFF80007FFF0003FFFFFFFFC0007FFFFFC00070008000FFFFFFC0
310
00FFFF000000FFF8000007FFFF80007F8000FFFFFF8000F8000FFFFFF8000FF8
310
000001FFFE0000007FFFFFF0001FFFFFFE0001FFFFFFC0003FFE0001FFFFFFC0
310
003FFF0003FFFFFFFFC0007FFFFFE00070008000FFFFFFC0007FFF0000007FF8
310
000003FFFF80007F0001FFFFFF8000F8000FFFFFF8000FF8000001FFFE000000
310
7FFFFFF0001FFFFFFE0001FFFFFFC0003FFE0001FFFFFFC0003FFF0003FFFFFF
310
FFC000FFFFFFE00070008000FFFFFFC0007FFF0000007FF8000003FFFF80007F
310
0001FFFFFF8000F8001FFFFFF8000FF8000001FFFE0000007FFFFFF0001FFFFF
310
FE0003FFFFFFE0003FFE0003FFFFFFE0003FFF0003FFFFFFFFC000FFFFFFE000
310
70008000FFFFFFC0007FFE0000007FF8000003FFFF80007F0001FFFFFF8000F0
310
001FFFFFF8000FF8000001FFFE0000007FFFFFF0001FFFFFFC0003FFFFFFE000
310
1FFC0003FFFFFFE0001FFF0003FFFFFFFFC000FFFFFFC00070008000FFFFFF80
310
007FFE0000007FF0000003FFFF80007F0001FFFFFF0000F0001FFFFFF8000FF8
310
000001FFFE0000007FFFFFF0001FFFFFFC0007FFFFFFF0001FFC0007FFFFFFF0
310
001FFF0003FFFFFFFFC000FFFFFFC00070008001FFFFFF0000FFFE0000003FF0
310
000001FFFF80007F0001FFFFFF0000F8001FFFFFF0000FF8000001FFFE000000
310
7FFFFFF0001FFFFFFC0007FFFFFFF0001FFC0007FFFFFFF0001FFF0003FFFFFF
310
FFC001FFFFFF80007000FFFFFFFFFE0000FFFE0008003FF0008001FFFF80007F
310
FFFFFFFFFC0000FFFFFFFFFFE0000FF8000001FFFE0000007FFFFFF0001FFFFF
310
F8000FFFFFFFF8000FF8000FFFFFFFF8000FFF0003FFFFFFFFFFFFFFFFFF0000
310
7000FFFFFFFFFC0000FFFC0008003FF0008001FFFF80007FFFFFFFFFF80001FF
310
FFFFFFFF80000FF8000001FFFE0000007FFFFFF0001FFFFFF8000FFFFFFFF800
310
0FF8000FFFFFFFF8000FFF0003FFFFFFFFFFFFFFFFFE0000F000FFFFFFFFE000
310
00FFFC000C003FE000C001FFFF80007FFFFFFFFFC00001FFFFFFFFFE00001FF8
310
000001FFFE0000007FFFFFF0001FFFFFF8000FFFFFFFF8000FF8000FFFFFFFF8
310
000FFF0003FFFFFFFFFFFFFFFFF00000F000FFFFFFFE000001FFFC000C001FE0
310
00C000FFFF80007FFFFFFFFE000001FFFFFFFFE000001FF80FFFFFFFFFFFFFC0
310
7FFFFFF0001FFFFFF8000FFFFFFFF8000FF8000FFFFFFFF8000FFF0003FFFFFF
310
FFFFFFFFFF800000F000FFFFFFC0000001FFFC001C001FE001C000FFFF80007F
310
FFFFFF80000003FFFFFFF80000001FF80FFFFFFFFFFFFFC07FFFFFF0001FFFFF
310
F8001FFFFFFFFC000FF8001FFFFFFFFC000FFF0003FFFFFFFFFFFFFFF0000001
310
F000FFFFF800000001FFF8001C001FE001C000FFFF80007FFFFFF800000003FF
310
FFFF800000003FF80FFFFFFFFFFFFFC07FFFFFF0001FFFFFF8001FFFFFFFFC00
310
0FF8001FFFFFFFFC000FFF0003FFFFFFFFFFFFFE00000001F000FFFFC0000000
310
03FFF8001E001FC001E000FFFF80007FFFFF8000000007FFFFFC000000003FF8
310
0FFFFFFFFFFFFFC07FFFFFF0001FFFFFF8001FFFFFFFFC000FF8001FFFFFFFFC
310
000FFF0003FFFFFFFFFFFFE000000003F000FFFE0000000007FFF8001E000FC0
310
01E0007FFF80007FFFFE0000000007FFFFE0000000007FF80FFFFFFFFFFFFFC0
310
7FFFFFF0001FFFFFF0001FFFFFFFFC0007F0001FFFFFFFFC0007FF0003FFFFFF
310
FFFFFF0000000003F000FFF80000000007FFF8001E000FC003E0007FFF80007F
310
FFF0000000000FFFFF8000000000FFF80FFFFFFFFFFFFFC07FFFFFF0001FFFFF
310
F0001FFFFFFFFC0007F0001FFFFFFFFC0007FF0003FFFFFFFFFFFC0000000007
310
F000FFE0000000000FFFF0003E000FC003E0007FFF80007FFFC0000000001FFF
310
FE0000000001FFF80FFFFFFFFFFFFFC07FFFFFF0001FFFFFF0001FFFFFFFFC00
310
07F0001FFFFFFFFC0007FF0003FFFFFFFFFFF0000000000FF000FFC000000000
310
1FFFF0003F000F8003F0003FFF80007FFF80000000003FFFF80000000003FFF8
310
0FFFFFFFFFFFFFC07FFFFFF0001FFFFFF0001FFFFFFFFC0007F0001FFFFFFFFC
310
0007FF0003FFFFFFFFFFE0000000001FF000FF00000000007FFFF0003F000780
310
03F0003FFF80007FFF00000000007FFFF00000000007FFF80FFFFFFFFFFFFFC0
310
7FFFFFF0001FFFFFF0001FFFFFFFFC0007F0001FFFFFFFFC0007FF0003FFFFFF
310
FFFF80000000007FF000FE0000000000FFFFE0003F00078007F0003FFF80007F
310
FE0000000001FFFFE0000000001FFFF80FFFFFFFFFFFFFC07FFFFFF0001FFFFF
310
F0001FFFFFFFFC0007F0001FFFFFFFFC0007FF0003FFFFFFFFFF0000000000FF
310
F000FC0000000003FFFFE0007F00078007F0003FFF80007FFC0000000007FFFF
310
C0000000007FFFF80FFFFFFFFFFFFFC07FFFFFF0001FFFFFF8001FFFFFFFFC00
310
0FF8001FFFFFFFFC000FFF0003FFFFFFFFFE0000000003FFF000FC000000000F
310
FFFFE0007F80070007F8001FFF80007FF8000000001FFFFF8000000001FFFFF8
310
0FFFFFFFFFFFFFC07FFFFFF0001FFFFFF8001FFFFFFFFC000FF8001FFFFFFFFC
310
000FFF0003FFFFFFFFFC000000000FFFF000F8000000007FFFFFE0007F800700
310
07F8001FFF80007FF000000000FFFFFF800000000FFFFFF80FFFFFFFFFFFFFC0
310
7FFFFFF0001FFFFFF8000FFFFFFFF8000FF8000FFFFFFFF8000FFF0003FFFFFF
310
FFFC000000007FFFF000F800000007FFFFFFC0007F8003000FF8001FFF80007F
310
F000000007FFFFFF000000007FFFFFF80FFFFFFFFFFFFFC07FFFFFF0001FFFFF
310
F8000FFFFFFFF8000FF8000FFFFFFFF8000FFF0003FFFFFFFFF80000000FFFFF
310
F000F0000000FFFFFFFFC000FF8003000FF8001FFF80007FE0000000FFFFFFFF
310
0000000FFFFFFFF8000001FFFE0000007FFFFFF0001FFFFFF8000FFFFFFFF800
310
0FF8000FFFFFFFF8000FFF0003FFFFFFFFF8000000FFFFFFF000F000000FFFFF
310
FFFFC000FFC002000FF8000FFF80007FE000001FFFFFFFFE000001FFFFFFFFF8
310
000001FFFE0000007FFFFFF0001FFFFFF8000FFFFFFFF8000FF8000FFFFFFFF8
310
000FFF0003FFFFFFFFF000001FFFFFFFF000E00000FFFFFFFFFFC000FFC00200
310
0FFC000FFF80007FE00001FFFFFFFFFE00001FFFFFFFFFF8000001FFFE000000
310
7FFFFFF0001FFFFFFC000FFFFFFFF8001FFC000FFFFFFFF8001FFF0003FFFFFF
310
FFF00001FFFFFFFFF000E00007FFFFFFFFFF8000FFC000001FFC000FFF80007F
310
C0000FFFFFFFFFFE0000FFFFFFFFFFF8000001FFFE0000007FFFFFF0001FFFFF
310
FC0007FFFFFFF0001FFC0007FFFFFFF0001FFF0003FFFFFFFFF00007FFFFFFFF
310
F000E0001FFFFFFFFFFF8000FFC000001FFC000FFF80007FC0003FFFFFFFFFFE
310
0001FFFFFFFFFFF8000001FFFE0000007FFFFFF0001FFFFFFC0007FFFFFFF000
310
1FFC0007FFFFFFF0001FFF0003FFFFFFFFF0001FFFFFFFFFF000E0003FFFFF00
310
03FF8001FFE000001FFC0007FF80007FC0007FFFFF0007FC0003FFFFF0003FF8
310
000001FFFE0000007FFFFFF0001FFFFFFC0003FFFFFFE0001FFC0003FFFFFFE0
310
001FFF0003FFFFFFFFF0003FFFFFFFFFF000E0003FFFFF0001FF8001FFE00000
310
1FFE0007FF80007FC0007FFFFE0003FC0007FFFFE0003FF8000001FFFE000000
310
7FFFFFF0001FFFFFFE0003FFFFFFE0003FFE0003FFFFFFE0003FFF0003FFFFFF
310
FFF0003FFFFF8001F000E0003FFFFF0001FF0001FFE000001FFE0007FF80007F
310
C0007FFFFE0003FC0007FFFFE0003FF8000001FFFE0000007FFFFFF0001FFFFF
310
FE0001FFFFFFC0003FFE0001FFFFFFC0003FFF0003FFFFFFFFF0003FFFFF0001
310
F000E0003FFFFF0003FF0001FFE000003FFE0007FF80007FC0007FFFFE0003FC
310
0007FFFFE0003FF8000001FFFE0000007FFFFFF0001FFFFFFF0001FFFFFFC000
310
7FFF0001FFFFFFC0007FFF0003FFFFFFFFF0003FFFFF0001F000E0003FFFFE00
310
03FF0003FFF000003FFE0003FF80007FC0007FFFFC0003FE0007FFFFE0003FF8
310
000001FFFE0000007FFFFFF0001FFFFFFF0000FFFFFF80007FFF0000FFFFFF80
310
007FFF0003FFFFFFFFF0003FFFFF0001F000E0003FFFFE0003FF0003FFF00000
310
3FFF0003FF80007FC0007FFFFC0007FE0007FFFFC0003FF8000001FFFE000000
310
7FFFFFF0001FFFFFFF80007FFFFF0000FFFF80007FFFFF0000FFFF0003FFFFFF
310
FFF0003FFFFF0003F000E0003FFFFC0003FE0003FFF000003FFF0003FF80007F
310
E0003FFFF80007FE0003FFFFC0007FF8000001FFFE0000007FFFFFF0001FFFFF
310
FF80003FFFFE0000FFFF80003FFFFE0000FFFF0003FFFFFFFFF0001FFFFE0003
310
F000F0001FFFF80003FE0003FFF000007FFF0001FF80007FE0003FFFF00007FE
310
0001FFFF80007FF8000001FFFE0000007FFFFFF0001FFFFFFFC0000FFFF80001
310
FFFFC0000FFFF80001FFFF0003FFFFFFFFF0001FFFFC0003F000F0000FFFF000
310
07FE0007FFF800007FFF0001FF80007FE0001FFFE00007FF0000FFFE00007FF8
310
000001FFFE0000007FFFFFF0001FFFFFFFC00003FFE00001FFFFC00003FFE000
310
01FFFF0003FFFFFFFFF8000FFFF80003F000F00003FFC00007FC0007FFF80000
310
7FFF8001FF80007FF00007FF80000FFF00007FF80000FFF8000001FFFE000000
310
7F80000000000001FFE000003E000003FFFFE000003E000003FFFF0003FFFFFF
310
FFF80003FFE00007F000F800000000000FFC0007FFF800007FFF8001FF80007F
310
F000000000000FFF000000000000FFF8000001FFFE0000007F80000000000001
310
FFF0000000000007FFFFF0000000000007FFFF0003FFFFFFFFFC00007E000007
310
F000F800000000000FFC0007FFF80000FFFF8000FF80007FF800000000001FFF
310
800000000001FFF8000001FFFE0000007F80000000000001FFF800000000000F
310
FFFFF800000000000FFFFF0003FFFFFFFFFC00000000000FF000FC0000000000
310
1FFC0007FFFC0000FFFF8000FF80007FF800000000003FFFC00000000001FFF8
310
000001FFFE0000007F80000000000001FFF800000000000FFFFFF80000000000
310
0FFFFF0003FFFFFFFFFE00000000001FF000FE00000000003FF8000FFFFC0000
310
FFFF8000FF80007FFC00000000003FFFC00000000003FFF8000001FFFE000000
310
7F80000000000001FFFC00000000001FFFFFFC00000000001FFFFF0003FFFFFF
310
FFFF00000000001FF000FF00000000003FF8000FFFFC0000FFFFC000FF80007F
310
FE00000000007FFFE00000000007FFF8000001FFFE0000007F80000000000001
310
FFFE00000000003FFFFFFE00000000003FFFFF0003FFFFFFFFFF80000000003F
310
F000FF80000000007FF8000FFFFC0001FFFFC0007F80007FFF0000000000FFFF
310
F0000000000FFFF800000000000000007F80000000000001FFFF8000000000FF
310
FFFFFF8000000000FFFFFF0003FFFFFFFFFFC0000000007FF000FFC000000000
310
FFF8000FFFFE0001FFFFC0007F80007FFF8000000001FFFFF8000000001FFFF8
310
00000000000000007F80000000000001FFFFC000000001FFFFFFFFC000000001
310
FFFFFF0003FFFFFFFFFFE000000000FFF000FFE000000003FFF0001FFFFE0001
310
FFFFC0007F80007FFFC000000007FFFFFE000000003FFFF80000000000000000
310
7F80000000000001FFFFE000000003FFFFFFFFE000000003FFFFFF0003FFFFFF
310
FFFFF000000003FFF000FFF80000000FFFF0001FFFFE0001FFFFE0007F80007F
310
FFF00000000FFFFFFF00000000FFFFF800000000000000007F80000000000001
310
FFFFF80000000FFFFFFFFFF80000000FFFFFFF0003FFFFFFFFFFFC0000000FFF
310
F000FFFE0000003FFFF0001FFFFE0003FFFFE0003F80007FFFFC0000003FFFFF
310
FFC0000003FFFFF800000000000000007F80000000000001FFFFFE0000003FFF
310
FFFFFFFE0000003FFFFFFF0003FFFFFFFFFFFF0000003FFFF000FFFF800000FF
310
FFF0001FFFFF0003FFFFE0003F80007FFFFF000001FFFFFFFFF800001FFFFFF8
310
00000000000000007F80000000000001FFFFFFC00001FFFFFFFFFFFFC00001FF
310
FFFFFF0003FFFFFFFFFFFFC00000FFFFF000FFFFF8000FFFFFFFFFFFFFFFFFFF
310
FFFFFFFFFFFFFFFFFFFFF0001FFFFFFFFFFF0000FFFFFFF80000000000000000
310
7FFFFFFFFFFFFFFFFFFFFFFC001FFFFFFFFFFFFFFC001FFFFFFFFFFFFFFFFFFF
310
FFFFFFFC001FFFFFF000FFFFFFFFFFFFFFFFFFFFFFFFFFFFFFFFFFFFFFFFFFFF
310
FFFFFFFFFFFFFFFFFFFFFFFFFFFFFFFFFFFFFFFFFFFFFFFFFFFFFFFFFFFFFFFF
310
FFFFFFFFFFFFFFFFFFFFFFFFFFFFFFFFFFFFFFFFFFFFFFFFFFFFFFFFFFFFFFFF
310
F000FFFFFFFFFFFFFFFFFFFFFFFFFFFFFFFFFFFFFFFFFFFFFFFFFFFFFFFFFFFF
310
FFFFFFFFFFFFFFFFFFFFFFFFFFFFFFFFFFFFFFFFFFFFFFFFFFFFFFFFFFFFFFFF
310
FFFFFFFFFFFFFFFFFFFFFFFFFFFFFFFFFFFFFFFFFFFFFFFFF000FFFFFFFFFFFF
310
FFFFFFFFFFFFFFFFFFFFFFFFFFFFFFFFFFFFFFFFFFFFFFFFFFFFFFFFFFFFFFFF
310
FFFFFFFFFFFFFFFFFFFFFFFFFFFFFFFFFFFFFFFFFFFFFFFFFFFFFFFFFFFFFFFF
310
FFFFFFFFFFFFFFFFFFFFFFFFFFFFFFFFF000FFFFFFFFFFFFFFFFFFFFFFFFFFFF
310
FFFFFFFFFFFFFFFFFFFFFFFFFFFFFFFFFFFFFFFFFFFFFFFFFFFFFFFFFFFFFFFF
310
FFFFFFFFFFFFFFFFFFFFFFFFFFFFFFFFFFFFFFFFFFFFFFFFFFFFFFFFFFFFFFFF
310
FFFFFFFFFFFFFFFFF000FFFFFFFFFFFFFFFFFFFFFFFFFFFFFFFFFFFFFFFFFFFF
310
FFFFFFFFFFFFFFFFFFFFFFFFFFFFFFFFFFFFFFFFFFFFFFFFFFFFFFFFFFFFFFFF
310
FFFFFFFFFFFFFFFFFFFFFFFFFFFFFFFFFFFFFFFFFFFFFFFFFFFFFFFFFFFFFFFF
310
F000FFFFFFFFFFFFFFFFFFFFFFFFFFFFFFFFFFFFFFFFFFFFFFFFFFFFFFFFFFFF
310
FFFFFFFFFFFFFFFFFFFFFFFFFFFFFFFFFFFFFFFFFFFFFFFFFFFFFFFFFFFFFFFF
310
FFFFFFFFFFFFFFFFFFFFFFFFFFFFFFFFFFFFFFFFFFFFFFFFF000FFFFFFFFFFFF
310
FFFFFFFFFFFFFFFFFFFFFFFFFFFFFFFFFFFFFFFFFFFFFFFFFFFFFFFFFFFFFFFF
310
FFFFFFFFFFFFFFFFFFFFFFFFFFFFFFFFFFFFFFFFFFFFFFFFFFFFFFFFFFFFFFFF
310
FFFFFFFFFFFFFFFFFFFFFFFFFFFFFFFFF000FFFFFFFFFFFFFFFFFFFFFFFFFFFF
310
FFFFFFFFFFFFFFFFFFFFFFFFFFFFFFFFFFFFFFFFFFFFFFFFFFFFFFFFFFFFFFFF
310
FFFFFFFFFFFFFFFFFFFFFFFFFFFFFFFFFFFFFFFFFFFFFFFFFFFFFFFFFFFFFFFF
310
FFFFFFFFFFFFFFFFF000FFFFFFFFFFFFFFFFFFFFFFFFFFFFFFFFFFFFFFFFFFFF
310
FFFFFFFFFFFFFFFFFFFFFFFFFFFFFFFFFFFFFFFFFFFFFFFFFFFFFFFFFFFFFFFF
310
FFFFFFFFFFFFFFFFFFFFFFFFFFFFFFFFFFFFFFFFFFFFFFFFFFFFFFFFFFFFFFFF
310
F000FFFFFFFFFFFFFFFFFFFFFFFFFFFFFFFFFFFFFFFFFFFFFFFFFFFFFFFFFFFF
310
FFFFFFFFFFFFFFFFFFFFFFFFFFFFFFFFFFFFFFFFFFFFFFFFFFFFFFFFFFFFFFFF
310
FFFFFFFFFFFFFFFFFFFFFFFFFFFFFFFFFFFFFFFFFFFFFFFFF000FFFFFFFFFFFF
310
FFFFFFFFFFFFFFFFFFFFFFFFFFFFFFFFFFFFFFFFFFFFFFFFFFFFFFFFFFFFFFFF
310
FFFFFFFFFFFFFFFFFFFFFFFFFFFFFFFFFFFFFFFFFFFFFFFFFFFFFFFFFFFFFFFF
310
FFFFFFFFFFFFFFFFFFFFFFFFFFFFFFFFF000FFFFFFFFFFFFFFFFFFFFFFFFFFFF
310
FFFFFFFFFFFFFFFFFFFFFFFFFFFFFFFFFFFFFFFFFFFFFFFFFFFFFFFFFFFFFFFF
310
FFFFFFFFFFFFFFFFFFFFFFFFFFFFFFFFFFFFFFFFFFFFFFFFFFFFFFFFFFFFFFFF
310
FFFFFFFFFFFFFFFFF000FFFFFFFFFFFFFFFFFFFFFFFFFFFFFFFFFFFFFFFFFFFF
310
FFFFFFFFFFFFFFFFFFFFFFFFFFFFFFFFFFFFFFFFFFFFFFFFFFFFFFFFFFFFFFFF
310
FFFFFFFFFFFFFFFFFFFFFFFFFFFFFFFFFFFFFFFFFFFFFFFFFFFFFFFFFFFFFFFF
310
F000FFFFFFFFFFFFFFFFFFFFFFFFFFFFFFFFFFFFFFFFFFFFFFFFFFFFFFFFFFFF
310
FFFFFFFFFFFFFFFFFFFFFFFFFFFFFFFFFFFFFFFFFFFFFFFFFFFFFFFFFFFFFFFF
310
FFFFFFFFFFFFFFFFFFFFFFFFFFFFFFFFFFFFFFFFFFFFFFFFF000FFFFFFFFFFFF
310
FFFFFFFFFFFFFFFFFFFFFFFFFFFFFFFFFFFFFFFFFFFFFFFFFFFFFFFFFFFFFFFF
310
FFFFFFFFFFFFFFFFFFFFFFFFFFFFFFFFFFFFFFFFFFFFFFFFFFFFFFFFFFFFFFFF
310
FFFFFFFFFFFFFFFFFFFFFFFFFFFFFFFFF000FFFFFFFFFFFFFFFFFFFFFFFFFFFF
310
FFFFFFFFFFFFFFFFFFFFFFFFFFFFFFFFFFFFFFFFFFFFFFFFFFFFFFFFFFFFFFFF
310
FFFFFFFFFFFFFFFFFFFFFFFFFFFFFFFFFFFFFFFFFFFFFFFFFFFFFFFFFFFFFFFF
310
FFFFFFFFFFFFFFFFF000FFFFFFFFFFFFFFFFFFFFFFFFFFFFFFFFFFFFFFFFFFFF
310
FFFFFFFFFFFFFFFFFFFFFFFFFFFFFFFFFFFFFFFFFFFFFFFFFFFFFFFFFFFFFFFF
310
FFFFFFFFFFFFFFFFFFFFFFFFFFFFFFFFFFFFFFFFFFFFFFFFFFFFFFFFFFFFFFFF
310
F000FFFFFFFFFFFFFFFFFFFFFFFFFFFFFFFFFFFFFFFFFFFFFFFFFFFFFFFFFFFF
310
FFFFFFFFFFFFFFFFFFFFFFFFFFFFFFFFFFFFFFFFFFFFFFFFFFFFFFFFFFFFFFFF
310
FFFFFFFFFFFFFFFFFFFFFFFFFFFFFFFFFFFFFFFFFFFFFFFFF000FFFFFFFFFFFF
310
FFFFFFFFFFFFFFFFFFFFFFFFFFFFFFFFFFFFFFFFFFFFFFFFFFFFFFFFFFFFFFFF
310
FFFFFFFFFFFFFFFFFFFFFFFFFFFFFFFFFFFFFFFFFFFFFFFFFFFFFFFFFFFFFFFF
310
FFFFFFFFFFFFFFFFFFFFFFFFFFFFFFFFF000FFFFFFFFFFFFFFFFFFFFFFFFFFFF
310
FFFFFFFFFFFFFFFFFFFFFFFFFFFFFFFFFFFFFFFFFFFFFFFFFFFFFFFFFFFFFFFF
310
FFFFFFFFFFFFFFFFFFFFFFFFFFFFFFFFFFFFFFFFFFFFFFFFFFFFFFFFFFFFFFFF
310
FFFFFFFFFFFFFFFFF000FFFFFFFFFFFFFFFFFFFFFFFFFFFFFFFFFFFFFFFFFFFF
310
FFFFFFFFFFFFFFFFFFFFFFFFFFFFFFFFFFFFFFFFFFFFFFFFFFFFFFFFFFFFFFFF
310
FFFFFFFFFFFFFFFFFFFFFFFFFFFFFFFFFFFFFFFFFFFFFFFFFFFFFFFFFFFFFFFF
310
F000FFFFFFFFFFFFFFFFFFFFFFFFFFFFFFFFFFFFFFFFFFFFFFFFFFFFFFFFFFFF
310
FFFFFFFFFFFFFFFFFFFFFFFFFFFFFFFFFFFFFFFFFFFFFFFFFFFFFFFFFFFFFFFF
310
FFFFFFFFFFFFFFFFFFFFFFFFFFFFFFFFFFFFFFFFFFFFFFFFF000FFFFFFFFFFFF
310
FFFFFFFFFFFFFFFFFFFFFFFFFFFFFFFFFFFFFFFFFFFFFFFFFFFFFFFFFFFFFFFF
310
FFFFFFFFFFFFFFFFFFFFFFFFFFFFFFFFFFFFFFFFFFFFFFFFFFFFFFFFFFFFFFFF
310
FFFFFFFFFFFFFFFFFFFFFFFFFFFFFFFFF0000000000000000000000000000000
310
0000000000000000000000000000000000000000000000000000000000000000
310
0000000000000000000000000000000000000000000000000000000000000000
310
0000000000000000000000000000000000000000000000000000000000000000
310
0000000000000000000000000000000000000000000000000000000000000000
310
0000000000000000000000000000000000000000000000000000000000000000
310
0000000000000000000000000000000000000000000000000000000000000000
310
0000000000000000000000000000000000000000000000000000000000000000
310
0000000000000000000000000000000000000000000000000000000000000000
310
0000000000000000000000000000000000000000000000000000000000000000
310
0000000000000000000000000000000000000000000000000000000000000000
310
0000000000000000000000000000000000000000000000000000000000000000
310
0000000000000000000000000000000000000000000000000000000000000000
310
0000000000000000000000000000000000000000000000000000000000000000
310
0000000000000000000000000000000000000000000000000000000000000000
310
0000000000000000000000000000000000000000000000000000000000000000
  1
OLE
  0
ENDSEC
  0
SECTION
  2
OBJECTS
  0
DICTIONARY
  5
C
330
0
100
AcDbDictionary
281
     1
  3
ACAD_GROUP
350
D
  3
ACAD_LAYOUT
350
1A
  3
ACAD_MLINESTYLE
350
17
  3
ACAD_PLOTSETTINGS
350
19
  3
ACAD_PLOTSTYLENAME
350
E
  3
ACAD_SCALELIST
350
47
  0
DICTIONARY
  5
D
102
{ACAD_REACTORS
330
C
102
}
330
C
100
AcDbDictionary
281
     1
  0
DICTIONARY
  5
1A
102
{ACAD_REACTORS
330
C
102
}
330
C
100
AcDbDictionary
281
     1
  3
Layout1
350
1E
  3
Layout2
350
26
  3
Model
350
22
  0
DICTIONARY
  5
17
102
{ACAD_REACTORS
330
C
102
}
330
C
100
AcDbDictionary
281
     1
  3
Standard
350
18
  0
DICTIONARY
  5
19
102
{ACAD_REACTORS
330
C
102
}
330
C
100
AcDbDictionary
281
     1
  0
ACDBDICTIONARYWDFLT
  5
E
102
{ACAD_REACTORS
330
C
102
}
330
C
100
AcDbDictionary
281
     1
  3
Normal
350
F
100
AcDbDictionaryWithDefault
340
F
  0
DICTIONARY
  5
47
102
{ACAD_REACTORS
330
C
102
}
330
C
100
AcDbDictionary
281
     1
  3
A0
350
48
  3
A1
350
49
  3
A2
350
4A
  3
A3
350
4B
  3
A4
350
4C
  3
A5
350
4D
  3
A6
350
4E
  3
A7
350
4F
  3
A8
350
50
  3
A9
350
51
  3
B0
350
52
  3
B1
350
53
  3
B2
350
54
  3
B3
350
55
  3
B4
350
56
  3
B5
350
57
  3
B6
350
58
  3
B7
350
59
  3
B8
350
5A
  3
B9
350
5B
  3
C0
350
5C
  3
C1
350
5D
  3
C2
350
5E
  3
C3
350
5F
  3
C4
350
60
  3
C5
350
61
  3
C6
350
62
  3
C7
350
63
  3
C8
350
64
  3
C9
350
65
  3
D0
350
66
  3
D1
350
67
  3
D2
350
68
  0
LAYOUT
  5
1E
102
{ACAD_REACTORS
330
1A
102
}
330
1A
100
AcDbPlotSettings
  1

  2
none_device
  4

  6

 40
0.0
 41
0.0
 42
0.0
 43
0.0
 44
0.0
 45
0.0
 46
0.0
 47
0.0
 48
0.0
 49
0.0
140
0.0
141
0.0
142
1.0
143
1.0
 70
   688
 72
     1
 73
     0
 74
     5
  7

 75
    16
147
1.0
148
0.0
149
0.0
100
AcDbLayout
  1
Layout1
 70
     1
 71
     1
 10
0.0
 20
0.0
 11
420.0
 21
297.0
 12
0.0
 22
0.0
 32
0.0
 14
1.0000000000E+20
 24
1.0000000000E+20
 34
1.0000000000E+20
 15
-1.0000000000E+20
 25
-1.0000000000E+20
 35
-1.0000000000E+20
146
0.0
 13
0.0
 23
0.0
 33
0.0
 16
1.0
 26
0.0
 36
0.0
 17
0.0
 27
1.0
 37
0.0
 76
     0
330
1B
  0
LAYOUT
  5
26
102
{ACAD_REACTORS
330
1A
102
}
330
1A
100
AcDbPlotSettings
  1

  2
none_device
  4

  6

 40
0.0
 41
0.0
 42
0.0
 43
0.0
 44
0.0
 45
0.0
 46
0.0
 47
0.0
 48
0.0
 49
0.0
140
0.0
141
0.0
142
1.0
143
1.0
 70
   688
 72
     1
 73
     0
 74
     5
  7

 75
    16
147
1.0
148
0.0
149
0.0
100
AcDbLayout
  1
Layout2
 70
     1
 71
     2
 10
0.0
 20
0.0
 11
0.0
 21
0.0
 12
0.0
 22
0.0
 32
0.0
 14
0.0
 24
0.0
 34
0.0
 15
0.0
 25
0.0
 35
0.0
146
0.0
 13
0.0
 23
0.0
 33
0.0
 16
1.0
 26
0.0
 36
0.0
 17
0.0
 27
1.0
 37
0.0
 76
     0
330
23
  0
LAYOUT
  5
22
102
{ACAD_REACTORS
330
1A
102
}
330
1A
100
AcDbPlotSettings
  1

  2
none_device
  4
Letter_(8.50_x_11.00_Inches)
  6

 40
6.35
 41
6.35
 42
6.35000508
 43
6.35000508
 44
215.9
 45
279.4
 46
0.0
 47
0.0
 48
0.0
 49
0.0
140
0.0
141
0.0
142
1.0
143
1.0
 70
  1712
 72
     1
 73
     0
 74
     0
  7

 75
     0
147
1.0
148
0.0
149
0.0
100
AcDbLayout
  1
Model
 70
     1
 71
     0
 10
0.0
 20
0.0
 11
297.0
 21
210.0
 12
0.0
 22
0.0
 32
0.0
 14
0.0
 24
0.0
 34
0.0
 15
297.0
 25
210.0
 35
0.0
146
0.0
 13
0.0
 23
0.0
 33
0.0
 16
1.0
 26
0.0
 36
0.0
 17
0.0
 27
1.0
 37
0.0
 76
     0
330
1F
331
29
  0
MLINESTYLE
  5
18
102
{ACAD_REACTORS
330
17
102
}
330
17
100
AcDbMlineStyle
  2
Standard
 70
     0
  3

 62
   256
 51
90.0
 52
90.0
 71
     2
 49
0.5
 62
   256
  6
BYLAYER
 49
-0.5
 62
   256
  6
BYLAYER
  0
ACDBPLACEHOLDER
  5
F
102
{ACAD_REACTORS
330
E
102
}
330
E
  0
SCALE
  5
48
102
{ACAD_REACTORS
330
47
102
}
330
47
100
AcDbScale
 70
     0
300
1:1
140
1.0
141
1.0
290
     1
  0
SCALE
  5
49
102
{ACAD_REACTORS
330
47
102
}
330
47
100
AcDbScale
 70
     0
300
1:2
140
1.0
141
2.0
290
     0
  0
SCALE
  5
4A
102
{ACAD_REACTORS
330
47
102
}
330
47
100
AcDbScale
 70
     0
300
1:4
140
1.0
141
4.0
290
     0
  0
SCALE
  5
4B
102
{ACAD_REACTORS
330
47
102
}
330
47
100
AcDbScale
 70
     0
300
1:5
140
1.0
141
5.0
290
     0
  0
SCALE
  5
4C
102
{ACAD_REACTORS
330
47
102
}
330
47
100
AcDbScale
 70
     0
300
1:8
140
1.0
141
8.0
290
     0
  0
SCALE
  5
4D
102
{ACAD_REACTORS
330
47
102
}
330
47
100
AcDbScale
 70
     0
300
1:10
140
1.0
141
10.0
290
     0
  0
SCALE
  5
4E
102
{ACAD_REACTORS
330
47
102
}
330
47
100
AcDbScale
 70
     0
300
1:16
140
1.0
141
16.0
290
     0
  0
SCALE
  5
4F
102
{ACAD_REACTORS
330
47
102
}
330
47
100
AcDbScale
 70
     0
300
1:20
140
1.0
141
20.0
290
     0
  0
SCALE
  5
50
102
{ACAD_REACTORS
330
47
102
}
330
47
100
AcDbScale
 70
     0
300
1:30
140
1.0
141
30.0
290
     0
  0
SCALE
  5
51
102
{ACAD_REACTORS
330
47
102
}
330
47
100
AcDbScale
 70
     0
300
1:40
140
1.0
141
40.0
290
     0
  0
SCALE
  5
52
102
{ACAD_REACTORS
330
47
102
}
330
47
100
AcDbScale
 70
     0
300
1:50
140
1.0
141
50.0
290
     0
  0
SCALE
  5
53
102
{ACAD_REACTORS
330
47
102
}
330
47
100
AcDbScale
 70
     0
300
1:100
140
1.0
141
100.0
290
     0
  0
SCALE
  5
54
102
{ACAD_REACTORS
330
47
102
}
330
47
100
AcDbScale
 70
     0
300
2:1
140
2.0
141
1.0
290
     0
  0
SCALE
  5
55
102
{ACAD_REACTORS
330
47
102
}
330
47
100
AcDbScale
 70
     0
300
4:1
140
4.0
141
1.0
290
     0
  0
SCALE
  5
56
102
{ACAD_REACTORS
330
47
102
}
330
47
100
AcDbScale
 70
     0
300
8:1
140
8.0
141
1.0
290
     0
  0
SCALE
  5
57
102
{ACAD_REACTORS
330
47
102
}
330
47
100
AcDbScale
 70
     0
300
10:1
140
10.0
141
1.0
290
     0
  0
SCALE
  5
58
102
{ACAD_REACTORS
330
47
102
}
330
47
100
AcDbScale
 70
     0
300
100:1
140
100.0
141
1.0
290
     0
  0
SCALE
  5
59
102
{ACAD_REACTORS
330
47
102
}
330
47
100
AcDbScale
 70
     0
300
1/128" = 1'-0"
140
0.0078125
141
12.0
290
     0
  0
SCALE
  5
5A
102
{ACAD_REACTORS
330
47
102
}
330
47
100
AcDbScale
 70
     0
300
1/64" = 1'-0"
140
0.015625
141
12.0
290
     0
  0
SCALE
  5
5B
102
{ACAD_REACTORS
330
47
102
}
330
47
100
AcDbScale
 70
     0
300
1/32" = 1'-0"
140
0.03125
141
12.0
290
     0
  0
SCALE
  5
5C
102
{ACAD_REACTORS
330
47
102
}
330
47
100
AcDbScale
 70
     0
300
1/16" = 1'-0"
140
0.0625
141
12.0
290
     0
  0
SCALE
  5
5D
102
{ACAD_REACTORS
330
47
102
}
330
47
100
AcDbScale
 70
     0
300
3/32" = 1'-0"
140
0.09375
141
12.0
290
     0
  0
SCALE
  5
5E
102
{ACAD_REACTORS
330
47
102
}
330
47
100
AcDbScale
 70
     0
300
1/8" = 1'-0"
140
0.125
141
12.0
290
     0
  0
SCALE
  5
5F
102
{ACAD_REACTORS
330
47
102
}
330
47
100
AcDbScale
 70
     0
300
3/16" = 1'-0"
140
0.1875
141
12.0
290
     0
  0
SCALE
  5
60
102
{ACAD_REACTORS
330
47
102
}
330
47
100
AcDbScale
 70
     0
300
1/4" = 1'-0"
140
0.25
141
12.0
290
     0
  0
SCALE
  5
61
102
{ACAD_REACTORS
330
47
102
}
330
47
100
AcDbScale
 70
     0
300
3/8" = 1'-0"
140
0.375
141
12.0
290
     0
  0
SCALE
  5
62
102
{ACAD_REACTORS
330
47
102
}
330
47
100
AcDbScale
 70
     0
300
1/2" = 1'-0"
140
0.5
141
12.0
290
     0
  0
SCALE
  5
63
102
{ACAD_REACTORS
330
47
102
}
330
47
100
AcDbScale
 70
     0
300
3/4" = 1'-0"
140
0.75
141
12.0
290
     0
  0
SCALE
  5
64
102
{ACAD_REACTORS
330
47
102
}
330
47
100
AcDbScale
 70
     0
300
1" = 1'-0"
140
1.0
141
12.0
290
     0
  0
SCALE
  5
65
102
{ACAD_REACTORS
330
47
102
}
330
47
100
AcDbScale
 70
     0
300
1-1/2" = 1'-0"
140
1.5
141
12.0
290
     0
  0
SCALE
  5
66
102
{ACAD_REACTORS
330
47
102
}
330
47
100
AcDbScale
 70
     0
300
3" = 1'-0"
140
3.0
141
12.0
290
     0
  0
SCALE
  5
67
102
{ACAD_REACTORS
330
47
102
}
330
47
100
AcDbScale
 70
     0
300
6" = 1'-0"
140
6.0
141
12.0
290
     0
  0
SCALE
  5
68
102
{ACAD_REACTORS
330
47
102
}
330
47
100
AcDbScale
 70
     0
300
1'-0" = 1'-0"
140
12.0
141
12.0
290
     0
  0
ENDSEC
  0
EOF
