  0
SECTION
  2
HEADER
  9
$ACADVER
  1
AC1015
  9
$ACADMAINTVER
 70
     6
  9
$DWGCODEPAGE
  3
ANSI_1252
  9
$INSBASE
 10
0.0
 20
0.0
 30
0.0
  9
$EXTMIN
 10
0.0
 20
0.0
 30
0.0
  9
$EXTMAX
 10
297.0
 20
210.0
 30
0.0
  9
$LIMMIN
 10
0.0
 20
0.0
  9
$LIMMAX
 10
297.0
 20
210.0
  9
$ORTHOMODE
 70
     0
  9
$REGENMODE
 70
     1
  9
$FILLMODE
 70
     1
  9
$QTEXTMODE
 70
     0
  9
$MIRRTEXT
 70
     1
  9
$LTSCALE
 40
1.0
  9
$ATTMODE
 70
     1
  9
$TEXTSIZE
 40
2.0
  9
$TRACEWID
 40
1.0
  9
$TEXTSTYLE
  7
Standard
  9
$CLAYER
  8
0
  9
$CELTYPE
  6
ByLayer
  9
$CECOLOR
 62
   256
  9
$CELTSCALE
 40
1.0
  9
$DISPSILH
 70
     0
  9
$DIMSCALE
 40
1.0
  9
$DIMASZ
 40
3.0
  9
$DIMEXO
 40
0.0
  9
$DIMDLI
 40
3.75
  9
$DIMRND
 40
0.0
  9
$DIMDLE
 40
0.0
  9
$DIMEXE
 40
1.0
  9
$DIMTP
 40
0.0
  9
$DIMTM
 40
0.0
  9
$DIMTXT
 40
2.0
  9
$DIMCEN
 40
2.5
  9
$DIMTSZ
 40
0.0
  9
$DIMTOL
 70
     0
  9
$DIMLIM
 70
     0
  9
$DIMTIH
 70
     1
  9
$DIMTOH
 70
     1
  9
$DIMSE1
 70
     0
  9
$DIMSE2
 70
     0
  9
$DIMTAD
 70
     1
  9
$DIMZIN
 70
     0
  9
$DIMBLK
  1

  9
$DIMASO
 70
     1
  9
$DIMSHO
 70
     1
  9
$DIMPOST
  1

  9
$DIMAPOST
  1

  9
$DIMALT
 70
     0
  9
$DIMALTD
 70
     3
  9
$DIMALTF
 40
0.0393700787
  9
$DIMLFAC
 40
1.0
  9
$DIMTOFL
 70
     1
  9
$DIMTVP
 40
0.0
  9
$DIMTIX
 70
     0
  9
$DIMSOXD
 70
     0
  9
$DIMSAH
 70
     0
  9
$DIMBLK1
  1

  9
$DIMBLK2
  1

  9
$DIMSTYLE
  2
ISO-25
  9
$DIMCLRD
 70
     0
  9
$DIMCLRE
 70
     0
  9
$DIMCLRT
 70
     0
  9
$DIMTFAC
 40
1.0
  9
$DIMGAP
 40
1.524
  9
$DIMJUST
 70
     0
  9
$DIMSD1
 70
     0
  9
$DIMSD2
 70
     0
  9
$DIMTOLJ
 70
     0
  9
$DIMTZIN
 70
     0
  9
$DIMALTZ
 70
     0
  9
$DIMALTTZ
 70
     0
  9
$DIMUPT
 70
     0
  9
$DIMDEC
 70
     2
  9
$DIMTDEC
 70
     3
  9
$DIMALTU
 70
     2
  9
$DIMALTTD
 70
     3
  9
$DIMTXSTY
  7
Standard
  9
$DIMAUNIT
 70
     0
  9
$DIMADEC
 70
     2
  9
$DIMALTRND
 40
0.0
  9
$DIMAZIN
 70
     0
  9
$DIMDSEP
 70
    44
  9
$DIMATFIT
 70
     3
  9
$DIMFRAC
 70
     0
  9
$DIMLDRBLK
  1

  9
$DIMLUNIT
 70
     2
  9
$DIMLWD
 70
    -2
  9
$DIMLWE
 70
    -2
  9
$DIMTMOVE
 70
     0
  9
$LUNITS
 70
     2
  9
$LUPREC
 70
     2
  9
$SKETCHINC
 40
1.0
  9
$FILLETRAD
 40
10.0
  9
$AUNITS
 70
     0
  9
$AUPREC
 70
     2
  9
$MENU
  1
.
  9
$ELEVATION
 40
0.0
  9
$PELEVATION
 40
0.0
  9
$THICKNESS
 40
0.0
  9
$LIMCHECK
 70
     0
  9
$CHAMFERA
 40
10.0
  9
$CHAMFERB
 40
10.0
  9
$CHAMFERC
 40
20.0
  9
$CHAMFERD
 40
0.0
  9
$SKPOLY
 70
     0
  9
$TDCREATE
 40
2456045.636226771
  9
$TDUCREATE
 40
2456045.552893437
  9
$TDUPDATE
 40
2456045.636228032
  9
$TDUUPDATE
 40
2456045.552894699
  9
$TDINDWG
 40
0.0000000116
  9
$TDUSRTIMER
 40
0.0000000116
  9
$USRTIMER
 70
     1
  9
$ANGBASE
 50
0.0
  9
$ANGDIR
 70
     0
  9
$PDMODE
 70
     0
  9
$PDSIZE
 40
-1.0
  9
$PLINEWID
 40
0.0
  9
$SPLFRAME
 70
     0
  9
$SPLINETYPE
 70
     6
  9
$SPLINESEGS
 70
     8
  9
$HANDSEED
  5
252
  9
$SURFTAB1
 70
     6
  9
$SURFTAB2
 70
     6
  9
$SURFTYPE
 70
     6
  9
$SURFU
 70
     6
  9
$SURFV
 70
     6
  9
$UCSBASE
  2

  9
$UCSNAME
  2

  9
$UCSORG
 10
0.0
 20
0.0
 30
0.0
  9
$UCSXDIR
 10
1.0
 20
0.0
 30
0.0
  9
$UCSYDIR
 10
0.0
 20
1.0
 30
0.0
  9
$UCSORTHOREF
  2

  9
$UCSORTHOVIEW
 70
     0
  9
$UCSORGTOP
 10
0.0
 20
0.0
 30
0.0
  9
$UCSORGBOTTOM
 10
0.0
 20
0.0
 30
0.0
  9
$UCSORGLEFT
 10
0.0
 20
0.0
 30
0.0
  9
$UCSORGRIGHT
 10
0.0
 20
0.0
 30
0.0
  9
$UCSORGFRONT
 10
0.0
 20
0.0
 30
0.0
  9
$UCSORGBACK
 10
0.0
 20
0.0
 30
0.0
  9
$PUCSBASE
  2

  9
$PUCSNAME
  2

  9
$PUCSORG
 10
0.0
 20
0.0
 30
0.0
  9
$PUCSXDIR
 10
1.0
 20
0.0
 30
0.0
  9
$PUCSYDIR
 10
0.0
 20
1.0
 30
0.0
  9
$PUCSORTHOREF
  2

  9
$PUCSORTHOVIEW
 70
     0
  9
$PUCSORGTOP
 10
0.0
 20
0.0
 30
0.0
  9
$PUCSORGBOTTOM
 10
0.0
 20
0.0
 30
0.0
  9
$PUCSORGLEFT
 10
0.0
 20
0.0
 30
0.0
  9
$PUCSORGRIGHT
 10
0.0
 20
0.0
 30
0.0
  9
$PUCSORGFRONT
 10
0.0
 20
0.0
 30
0.0
  9
$PUCSORGBACK
 10
0.0
 20
0.0
 30
0.0
  9
$USERI1
 70
     0
  9
$USERI2
 70
     0
  9
$USERI3
 70
     0
  9
$USERI4
 70
     0
  9
$USERI5
 70
     0
  9
$USERR1
 40
0.0
  9
$USERR2
 40
0.0
  9
$USERR3
 40
0.0
  9
$USERR4
 40
0.0
  9
$USERR5
 40
0.0
  9
$WORLDVIEW
 70
     1
  9
$SHADEDGE
 70
     3
  9
$SHADEDIF
 70
    70
  9
$TILEMODE
 70
     1
  9
$MAXACTVP
 70
    64
  9
$PINSBASE
 10
0.0
 20
0.0
 30
0.0
  9
$PLIMCHECK
 70
     0
  9
$PEXTMIN
 10
1.0000000000E+20
 20
1.0000000000E+20
 30
1.0000000000E+20
  9
$PEXTMAX
 10
-1.0000000000E+20
 20
-1.0000000000E+20
 30
-1.0000000000E+20
  9
$PLIMMIN
 10
0.0
 20
0.0
  9
$PLIMMAX
 10
420.0
 20
297.0
  9
$UNITMODE
 70
     0
  9
$VISRETAIN
 70
     1
  9
$PLINEGEN
 70
     0
  9
$PSLTSCALE
 70
     1
  9
$TREEDEPTH
 70
  3020
  9
$CMLSTYLE
  2
Standard
  9
$CMLJUST
 70
     0
  9
$CMLSCALE
 40
20.0
  9
$PROXYGRAPHICS
 70
     1
  9
$MEASUREMENT
 70
     1
  9
$CELWEIGHT
370
    -1
  9
$ENDCAPS
280
     0
  9
$JOINSTYLE
280
     0
  9
$LWDISPLAY
290
     1
  9
$INSUNITS
 70
     4
  9
$HYPERLINKBASE
  1

  9
$STYLESHEET
  1

  9
$XEDIT
290
     1
  9
$CEPSNTYPE
380
     0
  9
$PSTYLEMODE
290
     1
  9
$FINGERPRINTGUID
  2
{8D7AE63A-7047-4E9A-8B23-40E08889ECEF}
  9
$VERSIONGUID
  2
{FAEB1C32-E019-11D5-929B-00C0DF256EC4}
  9
$EXTNAMES
290
     1
  9
$PSVPSCALE
 40
0.0
  9
$OLESTARTUP
290
     0
  0
ENDSEC
  0
SECTION
  2
CLASSES
  0
CLASS
  1
ACDBDICTIONARYWDFLT
  2
AcDbDictionaryWithDefault
  3
ObjectDBX Classes
 90
        0
280
     0
281
     0
  0
CLASS
  1
VISUALSTYLE
  2
AcDbVisualStyle
  3
ObjectDBX Classes
 90
     4095
280
     0
281
     0
  0
CLASS
  1
MATERIAL
  2
AcDbMaterial
  3
ObjectDBX Classes
 90
     1153
280
     0
281
     0
  0
CLASS
  1
ACDBPLACEHOLDER
  2
AcDbPlaceHolder
  3
ObjectDBX Classes
 90
        0
280
     0
281
     0
  0
CLASS
  1
LAYOUT
  2
AcDbLayout
  3
ObjectDBX Classes
 90
        0
280
     0
281
     0
  0
ENDSEC
  0
SECTION
  2
TABLES
  0
TABLE
  2
VPORT
  5
8
330
0
100
AcDbSymbolTable
 70
     1
  0
VPORT
  5
29
330
8
100
AcDbSymbolTableRecord
100
AcDbViewportTableRecord
  2
*Active
 70
     0
 10
0.0
 20
0.0
 11
1.0
 21
1.0
 12
148.5
 22
105.0
 13
0.0
 23
0.0
 14
10.0
 24
10.0
 15
10.0
 25
10.0
 16
0.0
 26
0.0
 36
1.0
 17
0.0
 27
0.0
 37
0.0
 40
210.0
 41
1.4142857143
 42
50.0
 43
0.0
 44
0.0
 50
0.0
 51
0.0
 71
     0
 72
  2000
 73
     1
 74
     3
 75
     0
 76
     0
 77
     0
 78
     0
281
     0
 65
     1
110
0.0
120
0.0
130
0.0
111
1.0
121
0.0
131
0.0
112
0.0
122
1.0
132
0.0
 79
     0
146
0.0
  0
ENDTAB
  0
TABLE
  2
LTYPE
  5
5
330
0
100
AcDbSymbolTable
 70
     6
  0
LTYPE
  5
14
330
5
100
AcDbSymbolTableRecord
100
AcDbLinetypeTableRecord
  2
ByBlock
 70
     0
  3

 72
    65
 73
     0
 40
0.0
  0
LTYPE
  5
15
330
5
100
AcDbSymbolTableRecord
100
AcDbLinetypeTableRecord
  2
ByLayer
 70
     0
  3

 72
    65
 73
     0
 40
0.0
  0
LTYPE
  5
16
330
5
100
AcDbSymbolTableRecord
100
AcDbLinetypeTableRecord
  2
Continuous
 70
     0
  3
Solid line
 72
    65
 73
     0
 40
0.0
  0
LTYPE
  5
3F
330
5
100
AcDbSymbolTableRecord
100
AcDbLinetypeTableRecord
  2
HIDDEN
 70
     0
  3
Hidden __ __ __ __ __ __ __ __ __ __ __ __ __ __
 72
    65
 73
     2
 40
1.905
 49
1.27
 74
     0
 49
-0.635
 74
     0
  0
LTYPE
  5
40
330
5
100
AcDbSymbolTableRecord
100
AcDbLinetypeTableRecord
  2
PHANTOM
 70
     0
  3
Phantom ______  __  __  ______  __  __  ______
 72
    65
 73
     6
 40
12.7
 49
6.35
 74
     0
 49
-1.27
 74
     0
 49
1.27
 74
     0
 49
-1.27
 74
     0
 49
1.27
 74
     0
 49
-1.27
 74
     0
  0
LTYPE
  5
41
330
5
100
AcDbSymbolTableRecord
100
AcDbLinetypeTableRecord
  2
CENTER
 70
     0
  3
Center ____ _ ____ _ ____ _ ____ _ ____ _ ____
 72
    65
 73
     4
 40
10.16
 49
6.35
 74
     0
 49
-1.27
 74
     0
 49
1.27
 74
     0
 49
-1.27
 74
     0
  0
LTYPE
  5
42
330
5
100
AcDbSymbolTableRecord
100
AcDbLinetypeTableRecord
  2
CENTERX2
 70
     0
  3
Center (2x) ________  __  ________  __  _____
 72
    65
 73
     4
 40
20.32
 49
12.7
 74
     0
 49
-2.54
 74
     0
 49
2.54
 74
     0
 49
-2.54
 74
     0
  0
LTYPE
  5
43
330
5
100
AcDbSymbolTableRecord
100
AcDbLinetypeTableRecord
  2
DOT2
 70
     0
  3
Dot (.5x) ........................................
 72
    65
 73
     2
 40
0.635
 49
0.0
 74
     0
 49
-0.635
 74
     0
  0
ENDTAB
  0
TABLE
  2
LAYER
  5
2
330
0
100
AcDbSymbolTable
 70
     5
  0
LAYER
  5
10
330
2
100
AcDbSymbolTableRecord
100
AcDbLayerTableRecord
  2
0
 70
     0
 62
     7
  6
Continuous
370
    -3
390
F
  0
LAYER
  5
44
330
2
100
AcDbSymbolTableRecord
100
AcDbLayerTableRecord
  2
FORMAT
 70
     0
 62
     7
  6
Continuous
370
    -3
390
F
  0
LAYER
  5
45
330
2
100
AcDbSymbolTableRecord
100
AcDbLayerTableRecord
  2
VERMASSUNG
 70
     0
 62
     7
  6
Continuous
370
    -3
390
F
  0
LAYER
  5
46
330
2
100
AcDbSymbolTableRecord
100
AcDbLayerTableRecord
  2
KOPF_DÜNN
 70
     0
 62
     7
  6
Continuous
370
    -3
390
F
  0
LAYER
  5
47
330
2
100
AcDbSymbolTableRecord
100
AcDbLayerTableRecord
  2
KOPF_DICK
 70
     0
 62
     7
  6
Continuous
370
    15
390
F
  0
ENDTAB
  0
TABLE
  2
STYLE
  5
3
330
0
100
AcDbSymbolTable
 70
     2
  0
STYLE
  5
11
330
3
100
AcDbSymbolTableRecord
100
AcDbTextStyleTableRecord
  2
Standard
 70
     0
 40
0.0
 41
1.0
 50
0.0
 71
     0
 42
2.0
  3
txt
  4

  0
STYLE
  5
48
330
3
100
AcDbSymbolTableRecord
100
AcDbTextStyleTableRecord
  2
SLDTEXTSTYLE0
 70
     0
 40
0.0
 41
0.7
 50
0.0
 71
     0
 42
0.2
  3
TXT
  4

  0
ENDTAB
  0
TABLE
  2
VIEW
  5
6
330
0
100
AcDbSymbolTable
 70
     0
  0
ENDTAB
  0
TABLE
  2
UCS
  5
7
330
0
100
AcDbSymbolTable
 70
     0
  0
ENDTAB
  0
TABLE
  2
APPID
  5
9
330
0
100
AcDbSymbolTable
 70
     1
  0
APPID
  5
12
330
9
100
AcDbSymbolTableRecord
100
AcDbRegAppTableRecord
  2
ACAD
 70
     0
  0
ENDTAB
  0
TABLE
  2
DIMSTYLE
  5
A
330
0
100
AcDbSymbolTable
 70
     5
100
AcDbDimStyleTable
  0
DIMSTYLE
105
27
330
A
100
AcDbSymbolTableRecord
100
AcDbDimStyleTableRecord
  2
ISO-25
 70
     0
 41
2.5
 42
0.625
 43
3.75
 44
1.25
 73
     0
 74
     0
 77
     1
 78
     8
140
2.5
141
2.5
143
0.0393700787
147
0.625
171
     3
172
     1
178
     0
271
     2
272
     2
274
     3
278
    44
283
     0
284
     8
340
11
  0
DIMSTYLE
105
1AB
102
{ACAD_REACTORS
330
1AA
330
1D7
102
}
330
A
100
AcDbSymbolTableRecord
100
AcDbDimStyleTableRecord
  2
SLDDIMSTYLE0
 70
     0
 41
3.0
 44
0.0
 45
0.000000001
 73
     0
 74
     0
 77
     1
 78
    12
 79
     3
140
2.0
147
0.5
173
     1
178
     0
271
     2
272
     3
276
     2
284
    12
340
48
  0
DIMSTYLE
105
1B6
102
{ACAD_REACTORS
330
1B5
330
1C2
102
}
330
A
100
AcDbSymbolTableRecord
100
AcDbDimStyleTableRecord
  2
SLDDIMSTYLE1
 70
     0
 41
3.0
 44
0.0
 45
0.000000001
 47
0.1
 48
0.1
 71
     1
 73
     0
 74
     0
 77
     1
 78
    12
 79
     3
140
2.0
147
0.5
173
     1
178
     0
271
     2
272
     1
276
     2
284
     8
340
48
  0
DIMSTYLE
105
1CF
102
{ACAD_REACTORS
330
1CE
102
}
330
A
100
AcDbSymbolTableRecord
100
AcDbDimStyleTableRecord
  2
SLDDIMSTYLE2
 70
     0
 41
3.0
 44
0.0
 73
     0
 74
     0
 77
     1
 78
    12
 79
     3
140
2.0
147
0.5
173
     1
178
     0
179
     1
272
     3
276
     2
284
    12
340
48
  0
DIMSTYLE
105
237
102
{ACAD_REACTORS
330
236
102
}
330
A
100
AcDbSymbolTableRecord
100
AcDbDimStyleTableRecord
  2
SLDDIMSTYLE3
 70
     0
 41
3.0
 44
0.0
 45
0.000000001
 73
     0
 74
     0
 77
     1
 78
    12
 79
     3
140
2.0
147
0.5
172
     1
173
     1
178
     0
271
     2
272
     3
276
     2
284
    12
289
     0
340
48
  0
ENDTAB
  0
TABLE
  2
BLOCK_RECORD
  5
1
330
0
100
AcDbSymbolTable
 70
     8
  0
BLOCK_RECORD
  5
1F
330
1
100
AcDbSymbolTableRecord
100
AcDbBlockTableRecord
  2
*Model_Space
340
22
  0
BLOCK_RECORD
  5
1B
330
1
100
AcDbSymbolTableRecord
100
AcDbBlockTableRecord
  2
*Paper_Space
340
1E
  0
BLOCK_RECORD
  5
23
330
1
100
AcDbSymbolTableRecord
100
AcDbBlockTableRecord
  2
*Paper_Space0
340
26
  0
BLOCK_RECORD
  5
1AC
330
1
100
AcDbSymbolTableRecord
100
AcDbBlockTableRecord
  2
_D
340
0
  0
BLOCK_RECORD
  5
1B7
330
1
100
AcDbSymbolTableRecord
100
AcDbBlockTableRecord
  2
_D_1
340
0
  0
BLOCK_RECORD
  5
1C3
330
1
100
AcDbSymbolTableRecord
100
AcDbBlockTableRecord
  2
_D_2
340
0
  0
BLOCK_RECORD
  5
1D0
330
1
100
AcDbSymbolTableRecord
100
AcDbBlockTableRecord
  2
_D_3
340
0
  0
BLOCK_RECORD
  5
1D8
330
1
100
AcDbSymbolTableRecord
100
AcDbBlockTableRecord
  2
_D_4
340
0
  0
BLOCK_RECORD
  5
238
330
1
100
AcDbSymbolTableRecord
100
AcDbBlockTableRecord
  2
_D_5
340
0
  0
BLOCK_RECORD
  5
245
330
1
100
AcDbSymbolTableRecord
100
AcDbBlockTableRecord
  2
SW_CENTERMARKSYMBOL_0
340
0
102
{BLKREFS
331
250
102
}
  0
ENDTAB
  0
ENDSEC
  0
SECTION
  2
BLOCKS
  0
BLOCK
  5
20
330
1F
100
AcDbEntity
  8
0
100
AcDbBlockBegin
  2
*Model_Space
 70
     0
 10
0.0
 20
0.0
 30
0.0
  3
*Model_Space
  1

  0
ENDBLK
  5
21
330
1F
100
AcDbEntity
  8
0
100
AcDbBlockEnd
  0
BLOCK
  5
1C
330
1B
100
AcDbEntity
 67
     1
  8
0
100
AcDbBlockBegin
  2
*Paper_Space
 70
     0
 10
0.0
 20
0.0
 30
0.0
  3
*Paper_Space
  1

  0
ENDBLK
  5
1D
330
1B
100
AcDbEntity
 67
     1
  8
0
100
AcDbBlockEnd
  0
BLOCK
  5
24
330
23
100
AcDbEntity
  8
0
100
AcDbBlockBegin
  2
*Paper_Space0
 70
     0
 10
0.0
 20
0.0
 30
0.0
  3
*Paper_Space0
  1

  0
ENDBLK
  5
25
330
23
100
AcDbEntity
  8
0
100
AcDbBlockEnd
  0
BLOCK
  5
1AD
330
1AC
100
AcDbEntity
  8
0
100
AcDbBlockBegin
  2
_D
 70
     0
 10
0.0
 20
0.0
 30
0.0
  3
_D
  1

  0
SOLID
  5
1AF
330
1AC
100
AcDbEntity
  8
VERMASSUNG
100
AcDbTrace
 10
157.2506488972
 20
171.2924836124
 30
0.0
 11
160.2506488972
 21
170.8424836124
 31
0.0
 12
160.2506488972
 22
171.7424836124
 32
0.0
 13
160.2506488972
 23
171.7424836124
 33
0.0
  0
SOLID
  5
1B0
330
1AC
100
AcDbEntity
  8
VERMASSUNG
100
AcDbTrace
 10
260.2506488972
 20
171.2924836124
 30
0.0
 11
257.2506488972
 21
171.7424836124
 31
0.0
 12
257.2506488972
 22
170.8424836124
 32
0.0
 13
257.2506488972
 23
170.8424836124
 33
0.0
  0
LINE
  5
1B1
330
1AC
100
AcDbEntity
  8
VERMASSUNG
100
AcDbLine
 10
157.2506488972
 20
129.7271753492
 30
0.0
 11
157.2506488972
 21
172.2924836124
 31
0.0
  0
LINE
  5
1B2
330
1AC
100
AcDbEntity
  8
VERMASSUNG
100
AcDbLine
 10
260.2506488972
 20
154.4348373567
 30
0.0
 11
260.2506488972
 21
172.2924836124
 31
0.0
  0
LINE
  5
1B3
330
1AC
100
AcDbEntity
  8
VERMASSUNG
100
AcDbLine
 10
157.2506488972
 20
171.2924836124
 30
0.0
 11
260.2506488972
 21
171.2924836124
 31
0.0
  0
MTEXT
  5
1B4
330
1AC
100
AcDbEntity
  8
VERMASSUNG
100
AcDbMText
 10
205.9506487642
 20
173.8706189755
 30
0.1
 40
2.0
 41
0.0
 71
     1
 72
     1
  1
103
  7
SLDTEXTSTYLE0
 73
     1
 44
1.0
  0
ENDBLK
  5
1AE
330
1AC
100
AcDbEntity
  8
0
100
AcDbBlockEnd
  0
BLOCK
  5
1B8
330
1B7
100
AcDbEntity
  8
0
100
AcDbBlockBegin
  2
_D_1
 70
     0
 10
0.0
 20
0.0
 30
0.0
  3
_D_1
  1

  0
SOLID
  5
1BA
330
1B7
100
AcDbEntity
  8
VERMASSUNG
100
AcDbTrace
 10
195.2506488972
 20
161.8092330802
 30
0.0
 11
198.2506488972
 21
161.3592330802
 31
0.0
 12
198.2506488972
 22
162.2592330802
 32
0.0
 13
198.2506488972
 23
162.2592330802
 33
0.0
  0
SOLID
  5
1BB
330
1B7
100
AcDbEntity
  8
VERMASSUNG
100
AcDbTrace
 10
260.2506488972
 20
161.8092330802
 30
0.0
 11
257.2506488972
 21
162.2592330802
 31
0.0
 12
257.2506488972
 22
161.3592330802
 32
0.0
 13
257.2506488972
 23
161.3592330802
 33
0.0
  0
LINE
  5
1BC
330
1B7
100
AcDbEntity
  8
VERMASSUNG
100
AcDbLine
 10
195.2506488972
 20
140.4348373567
 30
0.0
 11
195.2506488972
 21
162.8092330802
 31
0.0
  0
LINE
  5
1BD
330
1B7
100
AcDbEntity
  8
VERMASSUNG
100
AcDbLine
 10
260.2506488972
 20
154.4348373567
 30
0.0
 11
260.2506488972
 21
162.8092330802
 31
0.0
  0
LINE
  5
1BE
330
1B7
100
AcDbEntity
  8
VERMASSUNG
100
AcDbLine
 10
195.2506488972
 20
161.8092330802
 30
0.0
 11
260.2506488972
 21
161.8092330802
 31
0.0
  0
MTEXT
  5
1BF
330
1B7
100
AcDbEntity
  8
VERMASSUNG
100
AcDbMText
 10
223.2006487102
 20
164.3873684433
 30
0.1
 40
2.0
 41
0.0
 71
     1
 72
     1
  1
65
  7
SLDTEXTSTYLE0
 73
     1
 44
1.0
  0
MTEXT
  5
1C0
330
1B7
100
AcDbEntity
  8
VERMASSUNG
100
AcDbMText
 10
228.9881488123
 20
164.3873684433
 30
0.1
 40
2.0
 41
0.0
 71
     1
 72
     1
  1

  7
SLDTEXTSTYLE0
 73
     1
 44
1.0
  0
MTEXT
  5
1C1
330
1B7
100
AcDbEntity
  8
VERMASSUNG
100
AcDbMText
 10
229.0006491021
 20
163.8928345806
 30
0.1
 40
1.5
 41
0.0
 71
     1
 72
     1
  1
±0.1
  7
SLDTEXTSTYLE0
 73
     1
 44
1.0
  0
ENDBLK
  5
1B9
330
1B7
100
AcDbEntity
  8
0
100
AcDbBlockEnd
  0
BLOCK
  5
1C4
330
1C3
100
AcDbEntity
  8
0
100
AcDbBlockBegin
  2
_D_2
 70
     0
 10
0.0
 20
0.0
 30
0.0
  3
_D_2
  1

  0
SOLID
  5
1C6
330
1C3
100
AcDbEntity
  8
VERMASSUNG
100
AcDbTrace
 10
278.1195151893
 20
154.4348373567
 30
0.0
 11
277.6695151893
 21
151.4348373567
 31
0.0
 12
278.5695151893
 22
151.4348373567
 32
0.0
 13
278.5695151893
 23
151.4348373567
 33
0.0
  0
SOLID
  5
1C7
330
1C3
100
AcDbEntity
  8
VERMASSUNG
100
AcDbTrace
 10
278.1195151893
 20
109.4348373567
 30
0.0
 11
278.5695151893
 21
112.4348373567
 31
0.0
 12
277.6695151893
 22
112.4348373567
 32
0.0
 13
277.6695151893
 23
112.4348373567
 33
0.0
  0
LINE
  5
1C8
330
1C3
100
AcDbEntity
  8
VERMASSUNG
100
AcDbLine
 10
260.2506488972
 20
154.4348373567
 30
0.0
 11
279.1195151893
 21
154.4348373567
 31
0.0
  0
LINE
  5
1C9
330
1C3
100
AcDbEntity
  8
VERMASSUNG
100
AcDbLine
 10
260.2506488972
 20
109.4348373567
 30
0.0
 11
279.1195151893
 21
109.4348373567
 31
0.0
  0
LINE
  5
1CA
330
1C3
100
AcDbEntity
  8
VERMASSUNG
100
AcDbLine
 10
278.1195151893
 20
154.4348373567
 30
0.0
 11
278.1195151893
 21
109.4348373567
 31
0.0
  0
MTEXT
  5
1CB
330
1C3
100
AcDbEntity
  8
VERMASSUNG
100
AcDbMText
 10
275.5413798261
 20
127.2848373396
 30
0.1
 40
2.0
 41
0.0
 71
     1
 72
     1
  1
45
  7
SLDTEXTSTYLE0
 11
-7.044195017643634E-15
 21
1.0
 31
0.0
 73
     1
 44
1.0
  0
MTEXT
  5
1CC
330
1C3
100
AcDbEntity
  8
VERMASSUNG
100
AcDbMText
 10
275.5413798261
 20
133.2723375676
 30
0.1
 40
2.0
 41
0.0
 71
     1
 72
     1
  1

  7
SLDTEXTSTYLE0
 11
-7.044195017643634E-15
 21
1.0
 31
0.0
 73
     1
 44
1.0
  0
MTEXT
  5
1CD
330
1C3
100
AcDbEntity
  8
VERMASSUNG
100
AcDbMText
 10
276.0359136889
 20
133.2848373917
 30
0.1
 40
1.5
 41
0.0
 71
     1
 72
     1
  1
±0.1
  7
SLDTEXTSTYLE0
 11
-7.044195017643634E-15
 21
1.0
 31
0.0
 73
     1
 44
1.0
  0
ENDBLK
  5
1C5
330
1C3
100
AcDbEntity
  8
0
100
AcDbBlockEnd
  0
BLOCK
  5
1D1
330
1D0
100
AcDbEntity
  8
0
100
AcDbBlockBegin
  2
_D_3
 70
     0
 10
0.0
 20
0.0
 30
0.0
  3
_D_3
  1

  0
ARC
  5
1D3
330
1D0
100
AcDbEntity
  8
VERMASSUNG
100
AcDbCircle
 10
260.2734057587
 20
154.4348373567
 30
0.0
 40
12.07839991794395
100
AcDbArc
 50
266.9675391515
 51
0.0
  0
SOLID
  5
1D4
330
1D0
100
AcDbEntity
  8
VERMASSUNG
100
AcDbTrace
 10
259.6344376274
 20
142.3733505369
 30
0.0
 11
262.6582756005
 21
142.1306492547
 31
0.0
 12
262.5964053569
 22
143.0285201101
 32
0.0
 13
262.5964053569
 23
143.0285201101
 33
0.0
  0
SOLID
  5
1D5
330
1D0
100
AcDbEntity
  8
VERMASSUNG
100
AcDbTrace
 10
272.3518056766
 20
154.4348373567
 30
0.0
 11
271.5408603343
 21
151.511676798
 31
0.0
 12
272.43420088
 22
151.4023942772
 32
0.0
 13
272.43420088
 23
151.4023942772
 33
0.0
  0
MTEXT
  5
1D6
330
1D0
100
AcDbEntity
  8
VERMASSUNG
100
AcDbMText
 10
264.7068527451
 20
145.546104288
 30
0.1
 40
2.0
 41
0.0
 71
     1
 72
     1
  1
93°
  7
SLDTEXTSTYLE0
 11
0.7255693350955863
 21
0.6881490681305532
 31
0.0
 73
     1
 44
1.0
  0
ENDBLK
  5
1D2
330
1D0
100
AcDbEntity
  8
0
100
AcDbBlockEnd
  0
BLOCK
  5
1D9
330
1D8
100
AcDbEntity
  8
0
100
AcDbBlockBegin
  2
_D_4
 70
     0
 10
0.0
 20
0.0
 30
0.0
  3
_D_4
  1

  0
SOLID
  5
1DB
330
1D8
100
AcDbEntity
  8
VERMASSUNG
100
AcDbTrace
 10
147.2506488972
 20
140.9348373567
 30
0.0
 11
146.8006488972
 21
137.9348373567
 31
0.0
 12
147.7006488972
 22
137.9348373567
 32
0.0
 13
147.7006488972
 23
137.9348373567
 33
0.0
  0
SOLID
  5
1DC
330
1D8
100
AcDbEntity
  8
VERMASSUNG
100
AcDbTrace
 10
147.2506488972
 20
77.9348373567
 30
0.0
 11
147.7006488972
 21
80.9348373567
 31
0.0
 12
146.8006488972
 22
80.9348373567
 32
0.0
 13
146.8006488972
 23
80.9348373567
 33
0.0
  0
LINE
  5
1DD
330
1D8
100
AcDbEntity
  8
VERMASSUNG
100
AcDbLine
 10
195.7506488972
 20
140.9348373567
 30
0.0
 11
146.2506488972
 21
140.9348373567
 31
0.0
  0
LINE
  5
1DE
330
1D8
100
AcDbEntity
  8
VERMASSUNG
100
AcDbLine
 10
195.7506488972
 20
77.9348373567
 30
0.0
 11
146.2506488972
 21
77.9348373567
 31
0.0
  0
LINE
  5
1DF
330
1D8
100
AcDbEntity
  8
VERMASSUNG
100
AcDbLine
 10
147.2506488972
 20
140.9348373567
 30
0.0
 11
147.2506488972
 21
77.9348373567
 31
0.0
  0
MTEXT
  5
1E0
330
1D8
100
AcDbEntity
  8
VERMASSUNG
100
AcDbMText
 10
144.4725134082
 20
103.0298372475
 30
0.4027568683
 40
2.0
 41
0.0
 71
     1
 72
     1
  1
PSC
  7
SLDTEXTSTYLE0
 11
-7.044195017643634E-15
 21
1.0
 31
0.0
 73
     1
 44
1.0
  0
MTEXT
  5
1E1
330
1D8
100
AcDbEntity
  8
VERMASSUNG
100
AcDbMText
 10
144.6725134177
 20
107.6298373495
 30
0.4027568683
 40
2.0
 41
0.0
 71
     1
 72
     1
  1
%%c
  7
SLDTEXTSTYLE0
 11
-7.044195017643634E-15
 21
1.0
 31
0.0
 73
     1
 44
1.0
  0
MTEXT
  5
1E2
330
1D8
100
AcDbEntity
  8
VERMASSUNG
100
AcDbMText
 10
144.4725134082
 20
111.2398378295
 30
0.4027568683
 40
2.0
 41
0.0
 71
     1
 72
     1
  1
63
  7
SLDTEXTSTYLE0
 11
-7.044195017643634E-15
 21
1.0
 31
0.0
 73
     1
 44
1.0
  0
ENDBLK
  5
1DA
330
1D8
100
AcDbEntity
  8
0
100
AcDbBlockEnd
  0
BLOCK
  5
239
330
238
100
AcDbEntity
  8
0
100
AcDbBlockBegin
  2
_D_5
 70
     0
 10
0.0
 20
0.0
 30
0.0
  3
_D_5
  1

  0
SOLID
  5
23B
330
238
100
AcDbEntity
  8
VERMASSUNG
100
AcDbTrace
 10
105.2675364736
 20
89.4591383678
 30
0.0
 11
107.3503525808
 21
87.2536050845
 31
0.0
 12
107.905788532
 22
87.9617653094
 32
0.0
 13
107.905788532
 23
87.9617653094
 33
0.0
  0
SOLID
  5
23C
330
238
100
AcDbEntity
  8
VERMASSUNG
100
AcDbTrace
 10
42.3199609317
 20
138.8312229237
 30
0.0
 11
40.2371448245
 21
141.036756207
 31
0.0
 12
39.6817088732
 22
140.3285959822
 32
0.0
 13
39.6817088732
 23
140.3285959822
 33
0.0
  0
LINE
  5
23D
330
238
100
AcDbEntity
  8
VERMASSUNG
100
AcDbLine
 10
105.2675364736
 20
89.4591383678
 30
0.0
 11
105.8846875305
 21
90.2459830621
 31
0.0
  0
LINE
  5
23E
330
238
100
AcDbEntity
  8
VERMASSUNG
100
AcDbLine
 10
42.3199609317
 20
138.8312229237
 30
0.0
 11
42.9371119886
 21
139.618067618
 31
0.0
  0
LINE
  5
23F
330
238
100
AcDbEntity
  8
VERMASSUNG
100
AcDbLine
 10
105.2675364736
 20
89.4591383678
 30
0.0
 11
109.9886046392
 21
85.7562320261
 31
0.0
  0
LINE
  5
240
330
238
100
AcDbEntity
  8
VERMASSUNG
100
AcDbLine
 10
105.2675364736
 20
89.4591383678
 30
0.0
 11
42.3199609317
 21
138.8312229237
 31
0.0
  0
LINE
  5
241
330
238
100
AcDbEntity
  8
VERMASSUNG
100
AcDbLine
 10
42.3199609317
 20
138.8312229237
 30
0.0
 11
28.3540090328
 21
149.7852295256
 31
0.0
  0
MTEXT
  5
242
330
238
100
AcDbEntity
  8
VERMASSUNG
100
AcDbMText
 10
29.9451080689
 20
151.8138217488
 30
0.1
 40
2.0
 41
0.0
 71
     1
 72
     1
  1
%%c
  7
SLDTEXTSTYLE0
 11
0.7868446942735301
 21
-0.6171510569492651
 31
0.0
 73
     1
 44
1.0
  0
MTEXT
  5
243
330
238
100
AcDbEntity
  8
VERMASSUNG
100
AcDbMText
 10
32.9090476438
 20
149.7432753707
 30
0.1
 40
2.0
 41
0.0
 71
     1
 72
     1
  1
80
  7
SLDTEXTSTYLE0
 11
0.7868446942735301
 21
-0.6171510569492651
 31
0.0
 73
     1
 44
1.0
  0
MTEXT
  5
244
330
238
100
AcDbEntity
  8
VERMASSUNG
100
AcDbMText
 10
37.4629117586
 20
146.1715132782
 30
0.1
 40
2.0
 41
0.0
 71
     1
 72
     1
  1
min.
  7
SLDTEXTSTYLE0
 11
0.7868446942735301
 21
-0.6171510569492651
 31
0.0
 73
     1
 44
1.0
  0
ENDBLK
  5
23A
330
238
100
AcDbEntity
  8
0
100
AcDbBlockEnd
  0
BLOCK
  5
246
330
245
100
AcDbEntity
  8
0
100
AcDbBlockBegin
  2
SW_CENTERMARKSYMBOL_0
 70
     0
 10
0.0
 20
0.0
 30
0.0
  3
SW_CENTERMARKSYMBOL_0
  1

  0
LINE
  5
248
330
245
100
AcDbEntity
  8
VERMASSUNG
 62
     0
100
AcDbLine
 10
0.0
 20
0.0
 30
0.0
 11
0.0
 21
2.5
 31
0.0
  0
LINE
  5
249
330
245
100
AcDbEntity
  8
VERMASSUNG
 62
     0
100
AcDbLine
 10
0.0
 20
0.0
 30
0.0
 11
-2.5
 21
0.0
 31
0.0
  0
LINE
  5
24A
330
245
100
AcDbEntity
  8
VERMASSUNG
 62
     0
100
AcDbLine
 10
0.0
 20
0.0
 30
0.0
 11
0.0
 21
-2.5
 31
0.0
  0
LINE
  5
24B
330
245
100
AcDbEntity
  8
VERMASSUNG
 62
     0
100
AcDbLine
 10
0.0
 20
0.0
 30
0.0
 11
2.5
 21
0.0
 31
0.0
  0
LINE
  5
24C
330
245
100
AcDbEntity
  8
VERMASSUNG
 62
     0
100
AcDbLine
 10
0.0
 20
5.0
 30
0.0
 11
0.0
 21
51.2710895667
 31
0.0
  0
LINE
  5
24D
330
245
100
AcDbEntity
  8
VERMASSUNG
 62
     0
100
AcDbLine
 10
-5.0
 20
0.0
 30
0.0
 11
-34.0
 21
0.0
 31
0.0
  0
LINE
  5
24E
330
245
100
AcDbEntity
  8
VERMASSUNG
 62
     0
100
AcDbLine
 10
0.0
 20
-5.0
 30
0.0
 11
0.0
 21
-34.0
 31
0.0
  0
LINE
  5
24F
330
245
100
AcDbEntity
  8
VERMASSUNG
 62
     0
100
AcDbLine
 10
5.0
 20
0.0
 30
0.0
 11
34.0
 21
0.0
 31
0.0
  0
ENDBLK
  5
247
330
245
100
AcDbEntity
  8
0
100
AcDbBlockEnd
  0
ENDSEC
  0
SECTION
  2
ENTITIES
  0
MTEXT
  5
49
330
1F
100
AcDbEntity
  8
KOPF_DÜNN
100
AcDbMText
 10
13.8892156294
 20
23.8442973028
 30
0.0
 40
3.0
 41
0.0
 71
     1
 72
     1
  1
PS6.PDF.RUA.065
  7
SLDTEXTSTYLE0
 73
     1
 44
1.0
  0
MTEXT
  5
4A
330
1F
100
AcDbEntity
  8
VERMASSUNG
100
AcDbMText
 10
13.9329988022
 20
28.8834360957
 30
0.0
 40
3.0
 41
0.0
 71
     1
 72
     1
  1
Klemmhalter rechts_Turning tool right 93° /55°
  7
SLDTEXTSTYLE0
 73
     1
 44
1.0
  0
MTEXT
  5
4B
330
1F
100
AcDbEntity
  8
VERMASSUNG
100
AcDbMText
 10
98.8601118557
 20
13.8365368179
 30
0.0
 40
2.0
 41
0.0
 71
     1
 72
     1
  1
Datum: 27.04.2012
  7
SLDTEXTSTYLE0
 73
     1
 44
1.0
  0
MTEXT
  5
4C
330
1F
100
AcDbEntity
  8
VERMASSUNG
100
AcDbMText
 10
13.933048693
 20
18.0482802738
 30
0.0
 40
2.0
 41
0.0
 71
     1
 72
     1
  1
PSC ø63 / DN..15 06..
  7
SLDTEXTSTYLE0
 73
     1
 44
1.0
  0
MTEXT
  5
4D
330
1F
100
AcDbEntity
  8
VERMASSUNG
100
AcDbMText
 10
13.9808475933
 20
13.9090973692
 30
0.0
 40
2.0
 41
0.0
 71
     1
 72
     1
  1
Gewicht: 1345g
  7
SLDTEXTSTYLE0
 73
     1
 44
1.0
  0
LINE
  5
4E
330
1F
100
AcDbEntity
  8
0
  6
Continuous
 62
     7
370
    15
100
AcDbLine
 10
232.4833219093
 20
140.9348373567
 30
0.0
 11
195.7506488972
 21
140.9348373567
 31
0.0
  0
LINE
  5
4F
330
1F
100
AcDbEntity
  8
0
  6
Continuous
 62
     7
370
    15
100
AcDbLine
 10
195.7506488972
 20
77.9348373567
 30
0.0
 11
229.0630076825
 21
77.9348373567
 31
0.0
  0
ARC
  5
50
330
1F
100
AcDbEntity
  8
0
  6
Continuous
 62
     7
370
    15
100
AcDbCircle
 10
195.7506488972
 20
78.4348373567
 30
0.0
 40
0.5
100
AcDbArc
 50
180.0
 51
270.0
  0
ARC
  5
51
330
1F
100
AcDbEntity
  8
0
  6
Continuous
 62
     7
370
    15
100
AcDbCircle
 10
195.7506488972
 20
140.4348373567
 30
0.0
 40
0.5
100
AcDbArc
 50
90.0
 51
180.0
  0
LWPOLYLINE
  5
52
330
1F
100
AcDbEntity
  8
0
  6
Continuous
 62
     7
370
    15
100
AcDbPolyline
 90
        3
 70
   128
 43
0.0
 10
195.0506488972
 20
86.8950170778
 10
195.1761038407
 20
86.8267149629
 10
195.2506488972
 20
86.7739772048
  0
LWPOLYLINE
  5
53
330
1F
100
AcDbEntity
  8
0
  6
Continuous
 62
     7
370
    15
100
AcDbPolyline
 90
        3
 70
   128
 43
0.0
 10
195.2506488972
 20
132.0956975086
 10
195.1761038407
 20
132.0429597505
 10
195.0506488972
 20
131.9746576356
  0
ARC
  5
54
330
1F
100
AcDbEntity
  8
0
  6
Continuous
 62
     7
370
    15
100
AcDbCircle
 10
232.4833219093
 20
141.9348373567
 30
0.0
 40
1.000000000000028
100
AcDbArc
 50
270.0
 51
345.0
  0
LINE
  5
55
330
1F
100
AcDbEntity
  8
0
  6
Continuous
 62
     7
370
    15
100
AcDbLine
 10
233.5209576348
 20
141.9436432991
 30
0.0
 11
233.4492477355
 21
141.6760183116
 31
0.0
  0
LINE
  5
56
330
1F
100
AcDbEntity
  8
0
  6
Continuous
 62
     7
370
    15
100
AcDbLine
 10
251.3798987486
 20
143.9726197
 30
0.0
 11
250.7842423753
 21
143.2272736039
 31
0.0
  0
LINE
  5
57
330
1F
100
AcDbEntity
  8
0
  6
Continuous
 62
     7
370
    15
100
AcDbLine
 10
247.2593964125
 20
146.8920171816
 30
0.0
 11
246.8376246967
 21
146.1951861769
 31
0.0
  0
LINE
  5
58
330
1F
100
AcDbEntity
  8
0
  6
Continuous
 62
     7
370
    15
100
AcDbLine
 10
259.0205021947
 20
138.8693444003
 30
0.0
 11
259.4399533962
 21
139.5623415625
 31
0.0
  0
SPLINE
  5
59
330
1F
100
AcDbEntity
  8
0
  6
Continuous
 62
     7
370
    15
100
AcDbSpline
210
0.0
220
0.0
230
1.0
 70
     8
 71
     3
 72
    68
 73
    64
 74
     0
 42
0.00000001
 43
0.00000001
 12
1.0
 22
0.0
 32
0.0
 13
1.0
 23
0.0
 33
0.0
 40
-0.0625000000000001
 40
-0.0625000000000001
 40
0.0
 40
0.0
 40
0.03125
 40
0.03125
 40
0.0625000000000001
 40
0.0625000000000001
 40
0.0937500000000001
 40
0.0937500000000001
 40
0.1250000000000002
 40
0.1250000000000002
 40
0.1562500000000002
 40
0.1562500000000002
 40
0.1875000000000002
 40
0.1875000000000002
 40
0.2187500000000003
 40
0.2187500000000003
 40
0.2500000000000003
 40
0.2500000000000003
 40
0.2812500000000004
 40
0.2812500000000004
 40
0.3125000000000004
 40
0.3125000000000004
 40
0.3437500000000004
 40
0.3437500000000004
 40
0.3750000000000005
 40
0.3750000000000005
 40
0.4062500000000006
 40
0.4062500000000006
 40
0.4375000000000006
 40
0.4375000000000006
 40
0.4687500000000006
 40
0.4687500000000006
 40
0.5000000000000007
 40
0.5000000000000007
 40
0.5312500000000007
 40
0.5312500000000007
 40
0.5625000000000008
 40
0.5625000000000008
 40
0.5937500000000008
 40
0.5937500000000008
 40
0.6250000000000009
 40
0.6250000000000009
 40
0.6562500000000009
 40
0.6562500000000009
 40
0.6875000000000009
 40
0.6875000000000009
 40
0.718750000000001
 40
0.718750000000001
 40
0.750000000000001
 40
0.750000000000001
 40
0.7812500000000008
 40
0.7812500000000008
 40
0.8125000000000007
 40
0.8125000000000007
 40
0.8437500000000004
 40
0.8437500000000004
 40
0.8750000000000002
 40
0.8750000000000002
 40
0.9062500000000001
 40
0.9062500000000001
 40
0.9374999999999999
 40
0.9374999999999999
 40
1.0
 40
1.0
 40
1.03125
 40
1.03125
 10
216.6472785176065
 20
122.5151698656213
 30
0.0
 10
216.0523340870518
 20
122.5151698656213
 30
0.0
 10
215.8573558408021
 20
122.5329720288161
 30
0.0
 10
215.4737926156565
 20
122.6026005619357
 30
0.0
 10
215.2832118401943
 20
122.6552777516146
 30
0.0
 10
214.9199625534075
 20
122.7923679831354
 30
0.0
 10
214.7476958144116
 20
122.8761140154568
 30
0.0
 10
214.4216740977036
 20
123.0732958551148
 30
0.0
 10
214.267398730927
 20
123.1877089527302
 30
0.0
 10
213.9908358096759
 20
123.4366016577674
 30
0.0
 10
213.8666929193605
 20
123.5719725004989
 30
0.0
 10
213.6473781469896
 20
123.8646256271638
 30
0.0
 10
213.5542476915863
 20
124.0196751987795
 30
0.0
 10
213.4045933610601
 20
124.3388395444543
 30
0.0
 10
213.3469463910683
 20
124.5053144263132
 30
0.0
 10
213.2698398292459
 20
124.8443234015674
 30
0.0
 10
213.2507560479025
 20
125.0138749255697
 30
0.0
 10
213.2505426378251
 20
125.3529675576717
 30
0.0
 10
213.2700379283245
 20
125.524254037166
 30
0.0
 10
213.3466078028016
 20
125.853958830321
 30
0.0
 10
213.4032610440107
 20
126.0133373061274
 30
0.0
 10
213.5535369948201
 20
126.3213867620459
 30
0.0
 10
213.6474206572325
 20
126.4694106317992
 30
0.0
 10
213.864485857329
 20
126.7422459042354
 30
0.0
 10
213.9884171136037
 20
126.8688174504641
 30
0.0
 10
214.268373958756
 20
127.1020283813617
 30
0.0
 10
214.4198331096578
 20
127.2048556515402
 30
0.0
 10
214.7445661186055
 20
127.3844221979435
 30
0.0
 10
214.9199305574219
 20
127.4618109630022
 30
0.0
 10
215.2832475763217
 20
127.5856217992901
 30
0.0
 10
215.4702390293123
 20
127.6321769552531
 30
0.0
 10
215.854810527669
 20
127.6951544343572
 30
0.0
 10
216.0537183807884
 20
127.7112634368618
 30
0.0
 10
216.445381780485
 20
127.7113808105008
 30
0.0
 10
216.6400895168718
 20
127.6959105895778
 30
0.0
 10
217.0272065805268
 20
127.6330917108351
 30
0.0
 10
217.2166775832537
 20
127.5859326706988
 30
0.0
 10
217.5778100812713
 20
127.4631779334498
 30
0.0
 10
217.7522293306316
 20
127.3866888704658
 30
0.0
 10
218.0804273684355
 20
127.2056484940107
 30
0.0
 10
218.231505605886
 20
127.1028764080182
 30
0.0
 10
218.5083416989137
 20
126.872924824679
 30
0.0
 10
218.6351055154262
 20
126.7441648699042
 30
0.0
 10
218.8531100535831
 20
126.4705981338056
 30
0.0
 10
218.9453912331132
 20
126.3254342447811
 30
0.0
 10
219.0962709202785
 20
126.0177449953067
 30
0.0
 10
219.1542173547486
 20
125.8553223256793
 30
0.0
 10
219.2308295371633
 20
125.526770768127
 30
0.0
 10
219.2504575571787
 20
125.3589312576379
 30
0.0
 10
219.2508374804238
 20
125.0157244722132
 30
0.0
 10
219.2315251399192
 20
124.845607718334
 30
0.0
 10
219.1556045232424
 20
124.5098519576293
 30
0.0
 10
219.0980987542763
 20
124.342220786283
 30
0.0
 10
218.9477386076872
 20
124.020741552632
 30
0.0
 10
218.8557193197958
 20
123.8675488004443
 30
0.0
 10
218.6383753048057
 20
123.5764952431844
 30
0.0
 10
218.5118558846742
 20
123.4380249981991
 30
0.0
 10
218.2354222652144
 20
123.188912629218
 30
0.0
 10
218.0845926751381
 20
123.0766645141813
 30
0.0
 10
217.7570810828979
 20
122.877864105558
 30
0.0
 10
217.5825325498098
 20
122.7929879121251
 30
0.0
 10
217.0413276814382
 20
122.5882364328805
 30
0.0
 10
216.6472785176065
 20
122.5151698656213
 30
0.0
 10
216.0523340870518
 20
122.5151698656213
 30
0.0
  0
ELLIPSE
  5
5A
330
1F
100
AcDbEntity
  8
0
  6
Continuous
 62
     7
370
    15
100
AcDbEllipse
 10
331.7274594383
 20
109.4348373567
 30
0.0
 11
299.7019342435706
 21
-5.529125611777246
 31
0.0
210
0.0
220
0.0
230
1.0
 40
0.1034726254
 41
1.910219074398438
 42
1.914223324170036
  0
SPLINE
  5
5B
330
1F
100
AcDbEntity
  8
0
  6
Continuous
 62
     7
370
    15
100
AcDbSpline
210
0.0
220
0.0
230
1.0
 70
     8
 71
     3
 72
    20
 73
    16
 74
     0
 42
0.00000001
 43
0.00000001
 12
1.0
 22
0.0
 32
0.0
 13
1.0
 23
0.0
 33
0.0
 40
0.0
 40
0.0
 40
0.0
 40
0.0
 40
0.2499999999999994
 40
0.2499999999999994
 40
0.3749999999999994
 40
0.3749999999999994
 40
0.4999999999999996
 40
0.4999999999999996
 40
0.6249999999999996
 40
0.6249999999999996
 40
0.7499999999999997
 40
0.7499999999999997
 40
0.8749999999999999
 40
0.8749999999999999
 40
1.0
 40
1.0
 40
1.0
 40
1.0
 10
226.1833604887017
 20
139.3308950447088
 30
0.0
 10
226.3289105889798
 20
139.5253648773619
 30
0.0
 10
226.5496770385096
 20
139.6926794206016
 30
0.0
 10
227.0057766689052
 20
139.9093356054035
 30
0.0
 10
227.1796142415113
 20
139.9757637571141
 30
0.0
 10
227.5598072849509
 20
140.0940296561974
 30
0.0
 10
227.7673564422329
 20
140.1465403983088
 30
0.0
 10
228.2186118796015
 20
140.2401479793126
 30
0.0
 10
228.4648681925745
 20
140.2815643588875
 30
0.0
 10
228.9835658827641
 20
140.3524452373526
 30
0.0
 10
229.2545591046526
 20
140.3819067069619
 30
0.0
 10
229.8196644470955
 20
140.430937074224
 30
0.0
 10
230.1148128050583
 20
140.4505545699976
 30
0.0
 10
230.7252815726563
 20
140.4805936885183
 30
0.0
 10
231.0358318734966
 20
140.4908262855155
 30
0.0
 10
231.3517446668303
 20
140.4966833517198
 30
0.0
  0
ELLIPSE
  5
5C
330
1F
100
AcDbEntity
  8
0
  6
Continuous
 62
     7
370
    15
100
AcDbEllipse
 10
230.1929869953
 20
109.4348373567
 30
0.0
 11
-1.574944762879795
 21
31.49727103316099
 31
0.0
210
0.0
220
0.0
230
1.0
 40
0.263265937
 41
0.3073266896802237
 42
2.458873682861856
  0
SPLINE
  5
5D
330
1F
100
AcDbEntity
  8
0
  6
Continuous
 62
     7
370
    15
100
AcDbSpline
210
0.0
220
0.0
230
1.0
 70
     8
 71
     3
 72
    18
 73
    14
 74
     0
 42
0.00000001
 43
0.00000001
 12
1.0
 22
0.0
 32
0.0
 13
1.0
 23
0.0
 33
0.0
 40
0.0
 40
0.0
 40
0.0
 40
0.0
 40
0.2499999999999993
 40
0.2499999999999993
 40
0.4999999999999987
 40
0.4999999999999987
 40
0.624999999999999
 40
0.624999999999999
 40
0.7499999999999993
 40
0.7499999999999993
 40
0.8749999999999997
 40
0.8749999999999997
 40
1.0
 40
1.0
 40
1.0
 40
1.0
 10
231.3517446668303
 20
82.03693760547434
 30
0.0
 10
230.7207292219984
 20
82.07167024407086
 30
0.0
 10
230.1190613819658
 20
82.15626969243229
 30
0.0
 10
228.9732457629036
 20
82.43167360169402
 30
0.0
 10
228.457535174881
 20
82.61628347181325
 30
0.0
 10
227.7720812563433
 20
82.96869031867588
 30
0.0
 10
227.5619162867571
 20
83.0973200312378
 30
0.0
 10
227.1815821109714
 20
83.37378211634847
 30
0.0
 10
227.010382474724
 20
83.52215006389805
 30
0.0
 10
226.7049488072524
 20
83.84046531965303
 30
0.0
 10
226.5720295945758
 20
84.00942417078048
 30
0.0
 10
226.3480444844709
 20
84.36090411415353
 30
0.0
 10
226.2560878739529
 20
84.5443322179086
 30
0.0
 10
226.1833604887017
 20
84.73576742352148
 30
0.0
  0
ELLIPSE
  5
5E
330
1F
100
AcDbEntity
  8
0
  6
Continuous
 62
     7
370
    15
100
AcDbEllipse
 10
331.7274594383
 20
109.4348373567
 30
0.0
 11
299.7019342435706
 21
-5.529125611777246
 31
0.0
210
0.0
220
0.0
230
1.0
 40
0.1034726254
 41
4.372779859258265
 42
4.373936636076734
  0
ELLIPSE
  5
5F
330
1F
100
AcDbEntity
  8
0
  6
Continuous
 62
     7
370
    15
100
AcDbEllipse
 10
251.4790160915
 20
109.4348373567
 30
0.0
 11
22.42036185333927
 21
31.49876376612542
 31
0.0
210
0.0
220
0.0
230
1.0
 40
0.0124472587
 41
2.63555799184046
 42
3.68435688542375
  0
SPLINE
  5
60
330
1F
100
AcDbEntity
  8
0
  6
Continuous
 62
     7
370
    15
100
AcDbSpline
210
0.0
220
0.0
230
1.0
 70
     8
 71
     3
 72
    12
 73
     8
 74
     0
 42
0.00000001
 43
0.00000001
 12
1.0
 22
0.0
 32
0.0
 13
1.0
 23
0.0
 33
0.0
 40
0.0
 40
0.0
 40
0.0
 40
0.0
 40
0.5
 40
0.5
 40
0.75
 40
0.75
 40
1.0
 40
1.0
 40
1.0
 40
1.0
 10
205.3453930089104
 20
79.53409489658233
 30
0.0
 10
205.3765382068725
 20
79.49627937366215
 30
0.0
 10
205.418812473207
 20
79.46021251557852
 30
0.0
 10
205.5187580070323
 20
79.41225245056724
 30
0.0
 10
205.5584883117363
 20
79.39739147666958
 30
0.0
 10
205.6553763617425
 20
79.37444033053845
 30
0.0
 10
205.7154416034891
 20
79.36634539782644
 30
0.0
 10
205.7784057108026
 20
79.36634539782645
 30
0.0
  0
LINE
  5
61
330
1F
100
AcDbEntity
  8
0
  6
Continuous
 62
     7
370
    15
100
AcDbLine
 10
205.7784057108
 20
79.3663453978
 30
0.0
 11
208.7228920837
 21
79.3663453978
 31
0.0
  0
SPLINE
  5
62
330
1F
100
AcDbEntity
  8
0
  6
Continuous
 62
     7
370
    15
100
AcDbSpline
210
0.0
220
0.0
230
1.0
 70
     8
 71
     3
 72
    12
 73
     8
 74
     0
 42
0.00000001
 43
0.00000001
 12
1.0
 22
0.0
 32
0.0
 13
1.0
 23
0.0
 33
0.0
 40
0.0
 40
0.0
 40
0.0
 40
0.0
 40
0.2499999999999977
 40
0.2499999999999977
 40
0.4999999999999953
 40
0.4999999999999953
 40
1.0
 40
1.0
 40
1.0
 40
1.0
 10
208.7228920836698
 20
79.36634539782646
 30
0.0
 10
208.7859490385676
 20
79.36634539782648
 30
0.0
 10
208.8450791883132
 20
79.374245728906
 30
0.0
 10
208.9435267388465
 20
79.39755647691106
 30
0.0
 10
208.9825589770346
 20
79.41226160319471
 30
0.0
 10
209.0824488614915
 20
79.46019513138135
 30
0.0
 10
209.1247478351008
 20
79.4962651041461
 30
0.0
 10
209.1559047855621
 20
79.53409489658232
 30
0.0
  0
ELLIPSE
  5
63
330
1F
100
AcDbEntity
  8
0
  6
Continuous
 62
     7
370
    15
100
AcDbEllipse
 10
192.9034947079
 20
109.4348373567
 30
0.0
 11
-14.75368316065618
 21
31.09325491558116
 31
0.0
210
0.0
220
0.0
230
1.0
 40
0.3419987131
 41
3.300734856217123
 42
4.231496223360772
  0
SPLINE
  5
64
330
1F
100
AcDbEntity
  8
0
  6
Continuous
 62
     7
370
    15
100
AcDbSpline
210
0.0
220
0.0
230
1.0
 70
     8
 71
     3
 72
    12
 73
     8
 74
     0
 42
0.00000001
 43
0.00000001
 12
1.0
 22
0.0
 32
0.0
 13
1.0
 23
0.0
 33
0.0
 40
0.0
 40
0.0
 40
0.0
 40
0.0
 40
0.5
 40
0.5
 40
0.75
 40
0.75
 40
1.0
 40
1.0
 40
1.0
 40
1.0
 10
209.155904785562
 20
99.52546803601419
 30
0.0
 10
209.1247595875999
 20
99.6395734018795
 30
0.0
 10
209.0824853212655
 20
99.75067972909827
 30
0.0
 10
208.9825397874402
 20
99.90083733652857
 30
0.0
 10
208.9428094827361
 20
99.94783002814593
 30
0.0
 10
208.8459214327299
 20
100.0208056126844
 30
0.0
 10
208.7858561909833
 20
100.0467709253634
 30
0.0
 10
208.7228920836698
 20
100.0467709253634
 30
0.0
  0
LINE
  5
65
330
1F
100
AcDbEntity
  8
0
  6
Continuous
 62
     7
370
    15
100
AcDbLine
 10
208.7228920837
 20
100.0467709254
 30
0.0
 11
205.7784057108
 21
100.0467709254
 31
0.0
  0
SPLINE
  5
66
330
1F
100
AcDbEntity
  8
0
  6
Continuous
 62
     7
370
    15
100
AcDbSpline
210
0.0
220
0.0
230
1.0
 70
     8
 71
     3
 72
    12
 73
     8
 74
     0
 42
0.00000001
 43
0.00000001
 12
1.0
 22
0.0
 32
0.0
 13
1.0
 23
0.0
 33
0.0
 40
0.0
 40
0.0
 40
0.0
 40
0.0
 40
0.2500000000000023
 40
0.2500000000000023
 40
0.5000000000000047
 40
0.5000000000000047
 40
1.0
 40
1.0
 40
1.0
 40
1.0
 10
205.7784057108027
 20
100.0467709253633
 30
0.0
 10
205.7153487559049
 20
100.0467709253633
 30
0.0
 10
205.6562186061593
 20
100.0214245719826
 30
0.0
 10
205.557771055626
 20
99.94730518984316
 30
0.0
 10
205.5187388174379
 20
99.90080867514514
 30
0.0
 10
205.4188489329809
 20
99.75073416813655
 30
0.0
 10
205.3765499593716
 20
99.63961645902168
 30
0.0
 10
205.3453930089104
 20
99.5254680360142
 30
0.0
  0
ELLIPSE
  5
67
330
1F
100
AcDbEntity
  8
0
  6
Continuous
 62
     7
370
    15
100
AcDbEllipse
 10
221.5978030866
 20
109.4348373567
 30
0.0
 11
14.75368316065618
 21
31.09325491558116
 31
0.0
210
0.0
220
0.0
230
1.0
 40
0.3419987131
 41
2.051689083818826
 42
2.9824504509625
  0
SPLINE
  5
68
330
1F
100
AcDbEntity
  8
0
  6
Continuous
 62
     7
370
    15
100
AcDbSpline
210
0.0
220
0.0
230
1.0
 70
     8
 71
     3
 72
    12
 73
     8
 74
     0
 42
0.00000001
 43
0.00000001
 12
1.0
 22
0.0
 32
0.0
 13
1.0
 23
0.0
 33
0.0
 40
0.0
 40
0.0
 40
0.0
 40
0.0
 40
0.4999999999999982
 40
0.4999999999999982
 40
0.7499999999999991
 40
0.7499999999999991
 40
1.0
 40
1.0
 40
1.0
 40
1.0
 10
205.3453930089105
 20
119.3442066773846
 30
0.0
 10
205.3761152508295
 20
119.2316508779754
 30
0.0
 10
205.4189524653647
 20
119.1188930182358
 30
0.0
 10
205.5183794895645
 20
118.9693521324395
 30
0.0
 10
205.5581316843812
 20
118.9220594007326
 30
0.0
 10
205.6561731412394
 20
118.8483231074112
 30
0.0
 10
205.7157291968269
 20
118.8229037880355
 30
0.0
 10
205.7784057108027
 20
118.8229037880355
 30
0.0
  0
LINE
  5
69
330
1F
100
AcDbEntity
  8
0
  6
Continuous
 62
     7
370
    15
100
AcDbLine
 10
205.7784057108
 20
118.822903788
 30
0.0
 11
208.7228920837
 21
118.822903788
 31
0.0
  0
SPLINE
  5
6A
330
1F
100
AcDbEntity
  8
0
  6
Continuous
 62
     7
370
    15
100
AcDbSpline
210
0.0
220
0.0
230
1.0
 70
     8
 71
     3
 72
    12
 73
     8
 74
     0
 42
0.00000001
 43
0.00000001
 12
1.0
 22
0.0
 32
0.0
 13
1.0
 23
0.0
 33
0.0
 40
0.0
 40
0.0
 40
0.0
 40
0.0
 40
0.2500000000000009
 40
0.2500000000000009
 40
0.5000000000000019
 40
0.5000000000000019
 40
1.0
 40
1.0
 40
1.0
 40
1.0
 10
208.7228920836698
 20
118.8229037880355
 30
0.0
 10
208.7859721221631
 20
118.8229037880355
 30
0.0
 10
208.8451207443445
 20
118.8482681072504
 30
0.0
 10
208.9435932944136
 20
118.9224329676233
 30
0.0
 10
208.9826299063984
 20
118.9689533081775
 30
0.0
 10
209.0825263731774
 20
119.1190956510227
 30
0.0
 10
209.124947254244
 20
119.2307888579949
 30
0.0
 10
209.155904785562
 20
119.3442066773846
 30
0.0
  0
ELLIPSE
  5
6B
330
1F
100
AcDbEntity
  8
0
  6
Continuous
 62
     7
370
    15
100
AcDbEllipse
 10
192.9034947079
 20
109.4348373567
 30
0.0
 11
14.75368316065604
 21
31.09325491558116
 31
0.0
210
0.0
220
0.0
230
1.0
 40
0.3419987131
 41
5.19328173740862
 42
6.124043104552322
  0
SPLINE
  5
6C
330
1F
100
AcDbEntity
  8
0
  6
Continuous
 62
     7
370
    15
100
AcDbSpline
210
0.0
220
0.0
230
1.0
 70
     8
 71
     3
 72
    12
 73
     8
 74
     0
 42
0.00000001
 43
0.00000001
 12
1.0
 22
0.0
 32
0.0
 13
1.0
 23
0.0
 33
0.0
 40
0.0
 40
0.0
 40
0.0
 40
0.0
 40
0.5000000000000001
 40
0.5000000000000001
 40
0.75
 40
0.75
 40
1.0
 40
1.0
 40
1.0
 40
1.0
 10
209.155904785562
 20
139.3355798168167
 30
0.0
 10
209.1251825436429
 20
139.3728817997698
 30
0.0
 10
209.0823453291078
 20
139.4094936318162
 30
0.0
 10
208.982918304908
 20
139.4572584151014
 30
0.0
 10
208.9431661100913
 20
139.4722159305838
 30
0.0
 10
208.8451246532331
 20
139.4954058763529
 30
0.0
 10
208.7855685976456
 20
139.5033293155726
 30
0.0
 10
208.7228920836698
 20
139.5033293155726
 30
0.0
  0
LINE
  5
6D
330
1F
100
AcDbEntity
  8
0
  6
Continuous
 62
     7
370
    15
100
AcDbLine
 10
208.7228920837
 20
139.5033293156
 30
0.0
 11
205.7784057108
 21
139.5033293156
 31
0.0
  0
SPLINE
  5
6E
330
1F
100
AcDbEntity
  8
0
  6
Continuous
 62
     7
370
    15
100
AcDbSpline
210
0.0
220
0.0
230
1.0
 70
     8
 71
     3
 72
    12
 73
     8
 74
     0
 42
0.00000001
 43
0.00000001
 12
1.0
 22
0.0
 32
0.0
 13
1.0
 23
0.0
 33
0.0
 40
0.0
 40
0.0
 40
0.0
 40
0.0
 40
0.25
 40
0.25
 40
0.5
 40
0.5
 40
1.0
 40
1.0
 40
1.0
 40
1.0
 10
205.7784057108027
 20
139.5033293155726
 30
0.0
 10
205.7153256723093
 20
139.5033293155726
 30
0.0
 10
205.6561770501279
 20
139.4954233893602
 30
0.0
 10
205.5577045000588
 20
139.4720982279239
 30
0.0
 10
205.5186678880741
 20
139.4573854380922
 30
0.0
 10
205.4187714212951
 20
139.4094296373613
 30
0.0
 10
205.3763505402284
 20
139.3731674807812
 30
0.0
 10
205.3453930089105
 20
139.3355798168167
 30
0.0
  0
ELLIPSE
  5
6F
330
1F
100
AcDbEntity
  8
0
  6
Continuous
 62
     7
370
    15
100
AcDbEllipse
 10
221.5978030866
 20
109.4348373567
 30
0.0
 11
-14.75368316065604
 21
31.09325491558116
 31
0.0
210
0.0
220
0.0
230
1.0
 40
0.3419987131
 41
0.1591422026273066
 42
1.08990356977098
  0
LINE
  5
70
330
1F
100
AcDbEntity
  8
0
  6
Continuous
 62
     7
370
    15
100
AcDbLine
 10
195.2506488972
 20
78.4348373567
 30
0.0
 11
195.2506488972
 21
140.4348373499
 31
0.0
  0
ELLIPSE
  5
71
330
1F
100
AcDbEntity
  8
0
  6
Continuous
 62
     7
370
    15
100
AcDbEllipse
 10
225.2075477751
 20
127.1091811139
 30
0.0
 11
0.1867965446606377
 21
3.254630236281628
 31
0.0
210
0.0
220
0.0
230
1.0
 40
0.2276044336
 41
0.0
 42
6.283185307179586
  0
ARC
  5
72
330
1F
100
AcDbEntity
  8
0
  6
Continuous
 62
     7
370
    15
100
AcDbCircle
 10
216.2562251629
 20
120.9781725498
 30
0.0
 40
3.312400309404042
100
AcDbArc
 50
64.8251282212
 51
132.6197412616
  0
SPLINE
  5
73
330
1F
100
AcDbEntity
  8
0
  6
Continuous
 62
     7
370
    15
100
AcDbSpline
210
0.0
220
0.0
230
1.0
 70
     8
 71
     3
 72
    14
 73
    10
 74
     0
 42
0.00000001
 43
0.00000001
 12
1.0
 22
0.0
 32
0.0
 13
1.0
 23
0.0
 33
0.0
 40
0.0
 40
0.0
 40
0.0
 40
0.0
 40
0.2679660628552045
 40
0.4048968504292151
 40
0.5427822458716067
 40
0.6765298798648987
 40
0.8113220732487785
 40
0.9495786019893265
 40
1.0
 40
1.0
 40
1.0
 40
1.0
 10
217.6652620240412
 20
123.9759402081892
 30
0.0
 10
217.7517019591909
 20
123.9660375320565
 30
0.0
 10
217.8823127429613
 20
123.951074583636
 30
0.0
 10
218.0583473695857
 20
123.8949948160269
 30
0.0
 10
218.1891632435851
 20
123.8393991769049
 30
0.0
 10
218.316638216772
 20
123.7694806633547
 30
0.0
 10
218.4395367098024
 20
123.6842894792649
 30
0.0
 10
218.5342953817018
 20
123.6077909613276
 30
0.0
 10
218.5850548066882
 20
123.5547944726708
 30
0.0
 10
218.5986195156826
 20
123.540631941347
 30
0.0
  0
SPLINE
  5
74
330
1F
100
AcDbEntity
  8
0
  6
Continuous
 62
     7
370
    15
100
AcDbSpline
210
0.0
220
0.0
230
1.0
 70
     8
 71
     3
 72
    12
 73
     8
 74
     0
 42
0.00000001
 43
0.00000001
 12
1.0
 22
0.0
 32
0.0
 13
1.0
 23
0.0
 33
0.0
 40
0.0
 40
0.0
 40
0.0
 40
0.0
 40
0.5000000000000001
 40
0.5000000000000001
 40
0.7500000000000003
 40
0.7500000000000003
 40
1.0
 40
1.0
 40
1.0
 40
1.0
 10
194.4341366107797
 20
87.58004365422374
 30
0.0
 10
194.4905731116869
 20
87.57862577288198
 30
0.0
 10
194.5596577423757
 20
87.57706143663368
 30
0.0
 10
194.6784600140936
 20
87.57411724465925
 30
0.0
 10
194.7186452895637
 20
87.57307904156185
 30
0.0
 10
194.7920263369675
 20
87.57114514634722
 30
0.0
 10
194.8254359007102
 20
87.5702502590584
 30
0.0
 10
194.8556720083666
 20
87.56946646878608
 30
0.0
  0
SPLINE
  5
75
330
1F
100
AcDbEntity
  8
0
  6
Continuous
 62
     7
370
    15
100
AcDbSpline
210
0.0
220
0.0
230
1.0
 70
     8
 71
     3
 72
    16
 73
    12
 74
     0
 42
0.00000001
 43
0.00000001
 12
1.0
 22
0.0
 32
0.0
 13
1.0
 23
0.0
 33
0.0
 40
0.0
 40
0.0
 40
0.0
 40
0.0
 40
0.0624999999999992
 40
0.0624999999999992
 40
0.1249999999999983
 40
0.1249999999999983
 40
0.2500000000000017
 40
0.2500000000000017
 40
0.5000000000000037
 40
0.5000000000000037
 40
1.0
 40
1.0
 40
1.0
 40
1.0
 10
194.8556720083294
 20
87.56946646881032
 30
0.0
 10
194.8672524159173
 20
87.56916627769898
 30
0.0
 10
194.8805619426786
 20
87.56783852943997
 30
0.0
 10
194.9098633727647
 20
87.56113985466497
 30
0.0
 10
194.924677472649
 20
87.55578167155929
 30
0.0
 10
194.9605058743519
 20
87.53873602239196
 30
0.0
 10
194.9746254987149
 20
87.5272734846162
 30
0.0
 10
195.0091296428034
 20
87.49571015924397
 30
0.0
 10
195.020234193508
 20
87.4778128601987
 30
0.0
 10
195.0464103707242
 20
87.42765144258443
 30
0.0
 10
195.0506488972362
 20
87.39990703038785
 30
0.0
 10
195.0506488972362
 20
87.37524286845833
 30
0.0
  0
LINE
  5
76
330
1F
100
AcDbEntity
  8
0
  6
Continuous
 62
     7
370
    15
100
AcDbLine
 10
195.0506488972
 20
102.4129500309
 30
0.0
 11
195.0506488972
 21
86.8950170778
 31
0.0
  0
SPLINE
  5
77
330
1F
100
AcDbEntity
  8
0
  6
Continuous
 62
     7
370
    15
100
AcDbSpline
210
0.0
220
0.0
230
1.0
 70
     8
 71
     3
 72
    16
 73
    12
 74
     0
 42
0.00000001
 43
0.00000001
 12
1.0
 22
0.0
 32
0.0
 13
1.0
 23
0.0
 33
0.0
 40
0.0
 40
0.0
 40
0.0
 40
0.0
 40
0.4999999999999964
 40
0.4999999999999964
 40
0.7499999999999981
 40
0.7499999999999981
 40
0.8750000000000007
 40
0.8750000000000007
 40
0.9375000000000003
 40
0.9375000000000003
 40
1.0
 40
1.0
 40
1.0
 40
1.0
 10
195.0506488972362
 20
102.4129500309495
 30
0.0
 10
195.0506488972362
 20
102.5266425750774
 30
0.0
 10
195.0465026221583
 20
102.6409627364269
 30
0.0
 10
195.0205370267647
 20
102.814011026924
 30
0.0
 10
195.0090761213874
 20
102.8731865340857
 30
0.0
 10
194.974764383613
 20
102.9563096535539
 30
0.0
 10
194.9607396476834
 20
102.9844309696546
 30
0.0
 10
194.9247166846496
 20
103.013046783632
 30
0.0
 10
194.9099621755599
 20
103.0188398315337
 30
0.0
 10
194.880610014413
 20
103.0172464055967
 30
0.0
 10
194.8672701399089
 20
103.0107500022729
 30
0.0
 10
194.8556720083606
 20
103.0022342560698
 30
0.0
  0
SPLINE
  5
78
330
1F
100
AcDbEntity
  8
0
  6
Continuous
 62
     7
370
    15
100
AcDbSpline
210
0.0
220
0.0
230
1.0
 70
     8
 71
     3
 72
    12
 73
     8
 74
     0
 42
0.00000001
 43
0.00000001
 12
1.0
 22
0.0
 32
0.0
 13
1.0
 23
0.0
 33
0.0
 40
0.0
 40
0.0
 40
0.0
 40
0.0
 40
0.2500000000000003
 40
0.2500000000000003
 40
0.5000000000000007
 40
0.5000000000000007
 40
1.0
 40
1.0
 40
1.0
 40
1.0
 10
194.8556720083676
 20
103.0022342560606
 30
0.0
 10
194.825473566927
 20
102.9800615240156
 30
0.0
 10
194.792106211591
 20
102.9609818681383
 30
0.0
 10
194.7189509357611
 20
102.9358088236956
 30
0.0
 10
194.6786982367372
 20
102.9302522872788
 30
0.0
 10
194.5609694934623
 20
102.9411640982656
 30
0.0
 10
194.4905110454034
 20
102.9830998536764
 30
0.0
 10
194.4341366107851
 20
103.0323116360579
 30
0.0
  0
SPLINE
  5
79
330
1F
100
AcDbEntity
  8
0
  6
Continuous
 62
     7
370
    15
100
AcDbSpline
210
0.0
220
0.0
230
1.0
 70
     8
 71
     3
 72
    12
 73
     8
 74
     0
 42
0.00000001
 43
0.00000001
 12
1.0
 22
0.0
 32
0.0
 13
1.0
 23
0.0
 33
0.0
 40
0.0
 40
0.0
 40
0.0
 40
0.0
 40
0.4999999999999993
 40
0.4999999999999993
 40
0.7499999999999998
 40
0.7499999999999998
 40
1.0
 40
1.0
 40
1.0
 40
1.0
 10
193.9293285536766
 20
104.2486630279385
 30
0.0
 10
193.973078905561
 20
104.028216042964
 30
0.0
 10
194.0259690566855
 20
103.8126710531584
 30
0.0
 10
194.1375805998272
 20
103.5002569765865
 30
0.0
 10
194.1801399437307
 20
103.3981775009706
 30
0.0
 10
194.2851171790682
 20
103.2037374883288
 30
0.0
 10
194.3466844221628
 20
103.1086525892652
 30
0.0
 10
194.4341366107851
 20
103.032311636058
 30
0.0
  0
SPLINE
  5
7A
330
1F
100
AcDbEntity
  8
0
  6
Continuous
 62
     7
370
    15
100
AcDbSpline
210
0.0
220
0.0
230
1.0
 70
     8
 71
     3
 72
    12
 73
     8
 74
     0
 42
0.00000001
 43
0.00000001
 12
1.0
 22
0.0
 32
0.0
 13
1.0
 23
0.0
 33
0.0
 40
0.0
 40
0.0
 40
0.0
 40
0.0
 40
0.2499999999999999
 40
0.2499999999999999
 40
0.4999999999999999
 40
0.4999999999999999
 40
1.0
 40
1.0
 40
1.0
 40
1.0
 10
194.434136610785
 20
115.8373630773412
 30
0.0
 10
194.3456432032171
 20
115.7601131972329
 30
0.0
 10
194.2855851624513
 20
115.6667938733437
 30
0.0
 10
194.1797368894687
 20
115.4707608203742
 30
0.0
 10
194.1372033681912
 20
115.3684344621625
 30
0.0
 10
194.0260520613676
 20
115.0570900563866
 30
0.0
 10
193.9731212043198
 20
114.8416718032086
 30
0.0
 10
193.9293285536766
 20
114.6210116854607
 30
0.0
  0
SPLINE
  5
7B
330
1F
100
AcDbEntity
  8
0
  6
Continuous
 62
     7
370
    15
100
AcDbSpline
210
0.0
220
0.0
230
1.0
 70
     8
 71
     3
 72
    12
 73
     8
 74
     0
 42
0.00000001
 43
0.00000001
 12
1.0
 22
0.0
 32
0.0
 13
1.0
 23
0.0
 33
0.0
 40
0.0
 40
0.0
 40
0.0
 40
0.0
 40
0.5000000000000007
 40
0.5000000000000007
 40
0.7500000000000003
 40
0.7500000000000003
 40
1.0
 40
1.0
 40
1.0
 40
1.0
 10
194.434136610785
 20
115.8373630773412
 30
0.0
 10
194.4904451590807
 20
115.886517344585
 30
0.0
 10
194.5607198197987
 20
115.9284746631888
 30
0.0
 10
194.6787577341223
 20
115.9394343407212
 30
0.0
 10
194.7189339749763
 20
115.9339255824738
 30
0.0
 10
194.7928910696542
 20
115.9083683536849
 30
0.0
 10
194.8255074573656
 20
115.8895883058456
 30
0.0
 10
194.8556720083614
 20
115.8674404573288
 30
0.0
  0
SPLINE
  5
7C
330
1F
100
AcDbEntity
  8
0
  6
Continuous
 62
     7
370
    15
100
AcDbSpline
210
0.0
220
0.0
230
1.0
 70
     8
 71
     3
 72
    16
 73
    12
 74
     0
 42
0.00000001
 43
0.00000001
 12
1.0
 22
0.0
 32
0.0
 13
1.0
 23
0.0
 33
0.0
 40
0.0
 40
0.0
 40
0.0
 40
0.0
 40
0.0624999999999996
 40
0.0624999999999996
 40
0.1249999999999991
 40
0.1249999999999991
 40
0.2499999999999974
 40
0.2499999999999974
 40
0.4999999999999972
 40
0.4999999999999972
 40
1.0
 40
1.0
 40
1.0
 40
1.0
 10
194.8556720083296
 20
115.8674404572743
 30
0.0
 10
194.867284908169
 20
115.8589138676791
 30
0.0
 10
194.8806360926015
 20
115.8524136061463
 30
0.0
 10
194.9100359322206
 20
115.8508442090288
 30
0.0
 10
194.9248766567759
 20
115.8567275996594
 30
0.0
 10
194.9607098647445
 20
115.8852752357099
 30
0.0
 10
194.9748230725661
 20
115.9134422550157
 30
0.0
 10
195.009314443785
 20
115.9971965134376
 30
0.0
 10
195.0203985148954
 20
116.0549099270591
 30
0.0
 10
195.0465213326914
 20
116.2285004637049
 30
0.0
 10
195.0506488972362
 20
116.3435285163469
 30
0.0
 10
195.0506488972362
 20
116.4567246824497
 30
0.0
  0
LINE
  5
7D
330
1F
100
AcDbEntity
  8
0
  6
Continuous
 62
     7
370
    15
100
AcDbLine
 10
195.0506488972
 20
131.9746576356
 30
0.0
 11
195.0506488972
 21
116.4567246824
 31
0.0
  0
SPLINE
  5
7E
330
1F
100
AcDbEntity
  8
0
  6
Continuous
 62
     7
370
    15
100
AcDbSpline
210
0.0
220
0.0
230
1.0
 70
     8
 71
     3
 72
    16
 73
    12
 74
     0
 42
0.00000001
 43
0.00000001
 12
1.0
 22
0.0
 32
0.0
 13
1.0
 23
0.0
 33
0.0
 40
0.0
 40
0.0
 40
0.0
 40
0.0
 40
0.4999999999999946
 40
0.4999999999999946
 40
0.7499999999999938
 40
0.7499999999999938
 40
0.8749999999999934
 40
0.8749999999999934
 40
0.9374999999999968
 40
0.9374999999999968
 40
1.0
 40
1.0
 40
1.0
 40
1.0
 10
195.0506488972362
 20
131.4944318449409
 30
0.0
 10
195.0506488972362
 20
131.4697606888979
 30
0.0
 10
195.0464831987763
 20
131.4421788575067
 30
0.0
 10
195.0202248704513
 20
131.3918359866834
 30
0.0
 10
195.0087210887137
 20
131.3735464886215
 30
0.0
 10
194.9745903293672
 20
131.3423914575845
 30
0.0
 10
194.9601684426965
 20
131.3307520823727
 30
0.0
 10
194.9246014742587
 20
131.3138700564417
 30
0.0
 10
194.909649705964
 20
131.308480952634
 30
0.0
 10
194.8806458876042
 20
131.3018604566895
 30
0.0
 10
194.867230533595
 20
131.300507868483
 30
0.0
 10
194.8556720083584
 20
131.3002082446114
 30
0.0
  0
SPLINE
  5
7F
330
1F
100
AcDbEntity
  8
0
  6
Continuous
 62
     7
370
    15
100
AcDbSpline
210
0.0
220
0.0
230
1.0
 70
     8
 71
     3
 72
    12
 73
     8
 74
     0
 42
0.00000001
 43
0.00000001
 12
1.0
 22
0.0
 32
0.0
 13
1.0
 23
0.0
 33
0.0
 40
0.0
 40
0.0
 40
0.0
 40
0.0
 40
0.2500000000000004
 40
0.2500000000000004
 40
0.5000000000000004
 40
0.5000000000000004
 40
1.0
 40
1.0
 40
1.0
 40
1.0
 10
194.8556720083676
 20
131.3002082446132
 30
0.0
 10
194.825484231818
 20
131.2994257071956
 30
0.0
 10
194.7921304277263
 20
131.2985323753771
 30
0.0
 10
194.7190042245304
 20
131.2966050665735
 30
0.0
 10
194.6787690215062
 20
131.2955655353608
 30
0.0
 10
194.5610773913731
 20
131.2926476520136
 30
0.0
 10
194.4906967182131
 20
131.2910520459434
 30
0.0
 10
194.4341366107824
 20
131.2896310591755
 30
0.0
  0
SPLINE
  5
80
330
1F
100
AcDbEntity
  8
0
  6
Continuous
 62
     7
370
    15
100
AcDbSpline
210
0.0
220
0.0
230
1.0
 70
     8
 71
     3
 72
    16
 73
    12
 74
     0
 42
0.00000001
 43
0.00000001
 12
1.0
 22
0.0
 32
0.0
 13
1.0
 23
0.0
 33
0.0
 40
0.0
 40
0.0
 40
0.0
 40
0.0
 40
0.25
 40
0.25
 40
0.375
 40
0.375
 40
0.5
 40
0.5
 40
0.75
 40
0.75
 40
1.0
 40
1.0
 40
1.0
 40
1.0
 10
193.9293285536766
 20
114.6210116854607
 30
0.0
 10
193.7680960761921
 20
113.8086019102138
 30
0.0
 10
193.6476162365525
 20
112.9685236158291
 30
0.0
 10
193.5252357192392
 20
111.6672285664663
 30
0.0
 10
193.4942580588417
 20
111.2265475308816
 30
0.0
 10
193.4526443212138
 20
110.3307078899504
 30
0.0
 10
193.442408408281
 20
109.8840497587479
 30
0.0
 10
193.4422200112248
 20
108.5487398016081
 30
0.0
 10
193.4823647138624
 20
107.6642444283005
 30
0.0
 10
193.646518468802
 20
105.9069945402745
 30
0.0
 10
193.7680701192116
 20
105.0612035938614
 30
0.0
 10
193.9293285536766
 20
104.2486630279385
 30
0.0
  0
LINE
  5
81
330
1F
100
AcDbEntity
  8
0
  6
Continuous
 62
     7
370
    15
100
AcDbLine
 10
193.0506488972
 20
115.9200156184
 30
0.0
 11
193.0506488972
 21
102.949659095
 31
0.0
  0
LINE
  5
82
330
1F
100
AcDbEntity
  8
0
  6
Continuous
 62
     7
370
    15
100
AcDbLine
 10
158.7506488972
 20
115.4891479242
 30
0.0
 11
158.7506488972
 21
103.3805267892
 31
0.0
  0
ARC
  5
83
330
1F
100
AcDbEntity
  8
0
  6
Continuous
 62
     7
370
    15
100
AcDbCircle
 10
216.2411102871
 20
120.9737344123
 30
0.0
 40
2.73239529636123
100
AcDbArc
 50
75.8795006124
 51
130.3239811757
  0
SPLINE
  5
84
330
1F
100
AcDbEntity
  8
0
  6
Continuous
 62
     7
370
    15
100
AcDbSpline
210
0.0
220
0.0
230
1.0
 70
     8
 71
     3
 72
     8
 73
     4
 74
     0
 42
0.00000001
 43
0.00000001
 12
1.0
 22
0.0
 32
0.0
 13
1.0
 23
0.0
 33
0.0
 40
0.0
 40
0.0
 40
0.0
 40
0.0
 40
1.0
 40
1.0
 40
1.0
 40
1.0
 10
216.9077109049655
 20
123.6235698170106
 30
0.0
 10
217.152967595987
 20
123.7586600846018
 30
0.0
 10
217.4037523185048
 20
123.8794500134016
 30
0.0
 10
217.6652620240414
 20
123.9759402081887
 30
0.0
  0
LINE
  5
85
330
1F
100
AcDbEntity
  8
0
  6
Continuous
 62
     7
370
    15
100
AcDbLine
 10
157.2506488972
 20
115.0561352224
 30
0.0
 11
157.2506488972
 21
103.813539491
 31
0.0
  0
SPLINE
  5
86
330
1F
100
AcDbEntity
  8
0
  6
Continuous
 62
     7
370
    15
100
AcDbSpline
210
0.0
220
0.0
230
1.0
 70
     8
 71
     3
 72
    16
 73
    12
 74
     0
 42
0.00000001
 43
0.00000001
 12
1.0
 22
0.0
 32
0.0
 13
1.0
 23
0.0
 33
0.0
 40
0.0
 40
0.0
 40
0.0
 40
0.0
 40
0.0355929528867096
 40
0.1347371982024357
 40
0.2364576763773106
 40
0.3357366068782479
 40
0.4381051666966337
 40
0.5748849224145839
 40
0.7153764678659931
 40
0.8565590085322926
 40
1.0
 40
1.0
 40
1.0
 40
1.0
 10
216.1399283598933
 20
122.5193523860288
 30
0.0
 10
216.1270488260107
 20
122.5333277844842
 30
0.0
 10
216.0782933233406
 20
122.5862316848051
 30
0.0
 10
216.0212836426266
 20
122.6832671618441
 30
0.0
 10
215.9869611667328
 20
122.8129414454431
 30
0.0
 10
216.0030321958128
 20
122.9496008446727
 30
0.0
 10
216.0727276843549
 20
123.1019006412839
 30
0.0
 10
216.2074451442346
 20
123.2638050464364
 30
0.0
 10
216.4056835968605
 20
123.4180629941622
 30
0.0
 10
216.6409724606666
 20
123.5463467162311
 30
0.0
 10
216.8183289898492
 20
123.5976929747843
 30
0.0
 10
216.9077109049653
 20
123.6235698170109
 30
0.0
  0
LINE
  5
87
330
1F
100
AcDbEntity
  8
0
  6
Continuous
 62
     7
370
    15
100
AcDbLine
 10
158.7506488972
 20
115.4891479242
 30
0.0
 11
158.7506488972
 21
130.593200753
 31
0.0
  0
LINE
  5
88
330
1F
100
AcDbEntity
  8
0
  6
Continuous
 62
     7
370
    15
100
AcDbLine
 10
158.7506488972
 20
130.593200753
 30
0.0
 11
193.0506488972
 21
131.4549361413
 31
0.0
  0
LINE
  5
89
330
1F
100
AcDbEntity
  8
0
  6
Continuous
 62
     7
370
    15
100
AcDbLine
 10
193.0506488972
 20
115.9200156184
 30
0.0
 11
193.0506488972
 21
131.4549361413
 31
0.0
  0
ARC
  5
8A
330
1F
100
AcDbEntity
  8
0
  6
Continuous
 62
     7
370
    15
100
AcDbCircle
 10
193.2505858082
 20
131.4599592524
 30
0.0
 40
0.2000000000000066
100
AcDbArc
 50
181.4391666667
 51
271.4391666667
  0
LINE
  5
8B
330
1F
100
AcDbEntity
  8
0
  6
Continuous
 62
     7
370
    15
100
AcDbLine
 10
158.7506488972
 20
88.2764739604
 30
0.0
 11
158.7506488972
 21
103.3805267892
 31
0.0
  0
LINE
  5
8C
330
1F
100
AcDbEntity
  8
0
  6
Continuous
 62
     7
370
    15
100
AcDbLine
 10
193.0506488972
 20
87.4147385721
 30
0.0
 11
193.0506488972
 21
102.949659095
 31
0.0
  0
LINE
  5
8D
330
1F
100
AcDbEntity
  8
0
  6
Continuous
 62
     7
370
    15
100
AcDbLine
 10
158.7506488972
 20
88.2764739604
 30
0.0
 11
193.0506488972
 21
87.4147385721
 31
0.0
  0
ARC
  5
8E
330
1F
100
AcDbEntity
  8
0
  6
Continuous
 62
     7
370
    15
100
AcDbCircle
 10
193.2505858082
 20
87.409715461
 30
0.0
 40
0.2000000000000066
100
AcDbArc
 50
88.5608333333
 51
178.5608333333
  0
LINE
  5
8F
330
1F
100
AcDbEntity
  8
0
  6
Continuous
 62
     7
370
    15
100
AcDbLine
 10
193.2556089193
 20
131.2600223415
 30
0.0
 11
194.4341366108
 21
131.2896310592
 31
0.0
  0
LINE
  5
90
330
1F
100
AcDbEntity
  8
0
  6
Continuous
 62
     7
370
    15
100
AcDbLine
 10
193.2556089193
 20
87.6096523719
 30
0.0
 11
194.4341366108
 21
87.5800436542
 31
0.0
  0
LINE
  5
91
330
1F
100
AcDbEntity
  8
0
  6
Continuous
 62
     7
370
    15
100
AcDbLine
 10
157.2506488972
 20
129.7271753492
 30
0.0
 11
158.7506488972
 21
130.593200753
 31
0.0
  0
LINE
  5
92
330
1F
100
AcDbEntity
  8
0
  6
Continuous
 62
     7
370
    15
100
AcDbLine
 10
157.2506488972
 20
115.0561352224
 30
0.0
 11
157.2506488972
 21
129.7271753492
 31
0.0
  0
LINE
  5
93
330
1F
100
AcDbEntity
  8
0
  6
Continuous
 62
     7
370
    15
100
AcDbLine
 10
157.2506488972
 20
89.1424993642
 30
0.0
 11
158.7506488972
 21
88.2764739604
 31
0.0
  0
LINE
  5
94
330
1F
100
AcDbEntity
  8
0
  6
Continuous
 62
     7
370
    15
100
AcDbLine
 10
157.2506488972
 20
89.1424993642
 30
0.0
 11
157.2506488972
 21
103.813539491
 31
0.0
  0
LWPOLYLINE
  5
95
330
1F
100
AcDbEntity
  8
0
  6
Continuous
 62
     7
370
    15
100
AcDbPolyline
 90
       31
 70
   128
 43
0.0
 10
251.1580642208
 20
124.5527349426
 10
251.8817687717
 20
124.6148479386
 10
252.573843961
 20
124.8248891842
 10
253.204042782
 20
125.173678869
 10
253.7448225221
 20
125.6459732101
 10
254.1725485119
 20
126.2211306785
 10
254.468527073
 20
126.874014133
 10
254.6198225221
 20
127.5760894336
 10
254.6198225221
 20
128.2966725209
 10
254.468527073
 20
129.0042704561
 10
254.1725485119
 20
129.6679578141
 10
253.7448225221
 20
130.2587282725
 10
253.204042782
 20
130.7507623276
 10
252.573843961
 20
131.1225557301
 10
251.8817687717
 20
131.3578593242
 10
251.1580642208
 20
131.4463892137
 10
250.43435967
 20
131.3842762177
 10
249.7422844807
 20
131.1742349721
 10
249.1120856597
 20
130.8254452874
 10
248.5713059195
 20
130.3531509462
 10
248.1435799298
 20
129.7779934778
 10
247.8476013687
 20
129.1251100233
 10
247.6963059195
 20
128.4230347227
 10
247.6963059195
 20
127.7024516354
 10
247.8476013687
 20
126.9948537002
 10
248.1435799298
 20
126.3311663422
 10
248.5713059195
 20
125.7403958838
 10
249.1120856597
 20
125.2483618287
 10
249.7422844807
 20
124.8765684262
 10
250.43435967
 20
124.6412648322
 10
251.1580642208
 20
124.5527349426
  0
LINE
  5
96
330
1F
100
AcDbEntity
  8
0
  6
Continuous
 62
     7
370
    15
100
AcDbLine
 10
247.1573497192
 20
146.3840410781
 30
0.0
 11
246.6426724214
 21
136.6687311276
 31
0.0
  0
LINE
  5
97
330
1F
100
AcDbEntity
  8
0
  6
Continuous
 62
     7
370
    15
100
AcDbLine
 10
246.6426724214
 20
136.6687311276
 30
0.0
 11
243.9921663901
 21
135.0770633265
 31
0.0
  0
ARC
  5
98
330
1F
100
AcDbEntity
  8
0
  6
Continuous
 62
     7
370
    15
100
AcDbCircle
 10
245.1184604386
 20
133.3152213718
 30
0.0
 40
2.091082341024246
100
AcDbArc
 50
122.5895920301
 51
301.3262094742
  0
LINE
  5
99
330
1F
100
AcDbEntity
  8
0
  6
Continuous
 62
     7
370
    15
100
AcDbLine
 10
246.2056348966
 20
131.5289747329
 30
0.0
 11
259.0399345924
 21
139.2361602041
 31
0.0
  0
LINE
  5
9A
330
1F
100
AcDbEntity
  8
0
  6
Continuous
 62
     7
370
    15
100
AcDbLine
 10
259.0399345924
 20
139.2361602041
 30
0.0
 11
257.951752277
 21
118.6950784002
 31
0.0
  0
LINE
  5
9B
330
1F
100
AcDbEntity
  8
0
  6
Continuous
 62
     7
370
    15
100
AcDbLine
 10
257.951752277
 20
118.6950784002
 30
0.0
 11
231.6784784238
 21
82.0189754052
 31
0.0
  0
SPLINE
  5
9C
330
1F
100
AcDbEntity
  8
0
  6
Continuous
 62
     7
370
    15
100
AcDbSpline
210
0.0
220
0.0
230
1.0
 70
     8
 71
     3
 72
    10
 73
     6
 74
     0
 42
0.00000001
 43
0.00000001
 12
1.0
 22
0.0
 32
0.0
 13
1.0
 23
0.0
 33
0.0
 40
0.0
 40
0.0
 40
0.0
 40
0.0
 40
0.5000000000000023
 40
0.5000000000000023
 40
1.0
 40
1.0
 40
1.0
 40
1.0
 10
232.4833219092573
 20
140.5173990056683
 30
0.0
 10
232.7110238907831
 20
140.5215144827676
 30
0.0
 10
232.927797792708
 20
140.6066686547718
 30
0.0
 10
233.2723547191893
 20
140.8940358889134
 30
0.0
 10
233.3934611494346
 20
141.0888627729046
 30
0.0
 10
233.4492477355464
 20
141.3062419391974
 30
0.0
  0
SPLINE
  5
9D
330
1F
100
AcDbEntity
  8
0
  6
Continuous
 62
     7
370
    15
100
AcDbSpline
210
0.0
220
0.0
230
1.0
 70
     8
 71
     3
 72
     8
 73
     4
 74
     0
 42
0.00000001
 43
0.00000001
 12
1.0
 22
0.0
 32
0.0
 13
1.0
 23
0.0
 33
0.0
 40
0.0
 40
0.0
 40
0.0
 40
0.0
 40
1.0
 40
1.0
 40
1.0
 40
1.0
 10
233.4492477355463
 20
141.3062419391975
 30
0.0
 10
233.5717653128042
 20
141.7836464670018
 30
0.0
 10
233.6946106422508
 20
142.2609613798238
 30
0.0
 10
233.8177451404695
 20
142.7381972272564
 30
0.0
  0
ARC
  5
9E
330
1F
100
AcDbEntity
  8
0
  6
Continuous
 62
     7
370
    15
100
AcDbCircle
 10
233.9665364735
 20
168.4205576069
 30
0.0
 40
25.68279138898242
100
AcDbArc
 50
269.6680593253
 51
300.8995405279
  0
LINE
  5
9F
330
1F
100
AcDbEntity
  8
0
  6
Continuous
 62
     7
370
    15
100
AcDbLine
 10
247.155532594
 20
146.3829498678
 30
0.0
 11
247.1573497192
 21
146.3840410781
 31
0.0
  0
SPLINE
  5
A0
330
1F
100
AcDbEntity
  8
0
  6
Continuous
 62
     7
370
    15
100
AcDbSpline
210
0.0
220
0.0
230
1.0
 70
     8
 71
     3
 72
    12
 73
     8
 74
     0
 42
0.00000001
 43
0.00000001
 12
1.0
 22
0.0
 32
0.0
 13
1.0
 23
0.0
 33
0.0
 40
0.0
 40
0.0
 40
0.0
 40
0.0
 40
0.4999999999999991
 40
0.4999999999999991
 40
0.7499999999999996
 40
0.7499999999999996
 40
1.0
 40
1.0
 40
1.0
 40
1.0
 10
232.4833219092579
 20
82.3188010575656
 30
0.0
 10
232.6800791566654
 20
82.58349477552952
 30
0.0
 10
232.8541106906208
 20
82.81562205352073
 30
0.0
 10
233.0889914753585
 20
83.12631578562177
 30
0.0
 10
233.1626203013
 20
83.223182706799
 30
0.0
 10
233.2954022701261
 20
83.39636630787406
 30
0.0
 10
233.3550920955045
 20
83.47342900318976
 30
0.0
 10
233.4022237472981
 20
83.5326338687087
 30
0.0
  0
LINE
  5
A1
330
1F
100
AcDbEntity
  8
0
  6
Continuous
 62
     7
370
    15
100
AcDbLine
 10
257.951752277
 20
118.6950784002
 30
0.0
 11
253.8704647467
 21
111.9521708438
 31
0.0
  0
LINE
  5
A2
330
1F
100
AcDbEntity
  8
0
  6
Continuous
 62
     7
370
    15
100
AcDbLine
 10
253.8704647467
 20
111.9521708438
 30
0.0
 11
252.079081616
 21
109.4348373567
 31
0.0
  0
ELLIPSE
  5
A3
330
1F
100
AcDbEntity
  8
0
  6
Continuous
 62
     7
370
    15
100
AcDbEllipse
 10
251.4790160915
 20
109.4348373567
 30
0.0
 11
22.77624061291573
 21
31.998744143365
 31
0.0
210
0.0
220
0.0
230
1.0
 40
0.0124472587
 41
3.778286510615641
 42
4.721248526267162
  0
LINE
  5
A4
330
1F
100
AcDbEntity
  8
0
  6
Continuous
 62
     7
370
    15
100
AcDbLine
 10
233.4022237473
 20
83.5371888241
 30
0.0
 11
233.4022237473
 21
83.5326338687
 31
0.0
  0
LINE
  5
A5
330
1F
100
AcDbEntity
  8
0
  6
Continuous
 62
     7
370
    15
100
AcDbLine
 10
233.5512321462
 20
141.9355312683
 30
0.0
 11
233.8177451405
 21
142.7381972273
 31
0.0
  0
LINE
  5
A6
330
1F
100
AcDbEntity
  8
0
  6
Continuous
 62
     7
370
    15
100
AcDbLine
 10
245.67891999
 20
135.0764655733
 30
0.0
 11
246.6426724214
 21
136.6687311276
 31
0.0
  0
LINE
  5
A7
330
1F
100
AcDbEntity
  8
0
  6
Continuous
 62
     7
370
    15
100
AcDbLine
 10
245.67891999
 20
135.0764655733
 30
0.0
 11
243.0284139588
 21
133.4847977722
 31
0.0
  0
LINE
  5
A8
330
1F
100
AcDbEntity
  8
0
  6
Continuous
 62
     7
370
    15
100
AcDbLine
 10
246.0113205032
 20
135.6256417623
 30
0.0
 11
245.8444364807
 21
132.4754542336
 31
0.0
  0
ARC
  5
A9
330
1F
100
AcDbEntity
  8
0
  6
Continuous
 62
     7
370
    15
100
AcDbCircle
 10
246.536103288
 20
131.9283911705
 30
0.0
 40
0.9939519164423506
100
AcDbArc
 50
177.1341110944
 51
217.3795488669
  0
LINE
  5
AA
330
1F
100
AcDbEntity
  8
0
  6
Continuous
 62
     7
370
    15
100
AcDbLine
 10
245.710278529
 20
135.1282746477
 30
0.0
 11
245.5433945065
 21
131.978087119
 31
0.0
  0
CIRCLE
  5
AB
330
1F
100
AcDbEntity
  8
0
  6
Continuous
 62
     7
370
    15
100
AcDbCircle
 10
251.0881407205
 20
127.9838432386
 30
0.0
 40
3.462730894345067
  0
CIRCLE
  5
AC
330
1F
100
AcDbEntity
  8
0
  6
Continuous
 62
     7
370
    15
100
AcDbCircle
 10
251.1176102697
 20
127.9931543061
 30
0.0
 40
1.976085904419362
  0
SPLINE
  5
AD
330
1F
100
AcDbEntity
  8
0
  6
Continuous
 62
     7
370
    15
100
AcDbSpline
210
0.0
220
0.0
230
1.0
 70
     8
 71
     3
 72
    11
 73
     7
 74
     0
 42
0.00000001
 43
0.00000001
 12
1.0
 22
0.0
 32
0.0
 13
1.0
 23
0.0
 33
0.0
 40
0.0
 40
0.0
 40
0.0
 40
0.0
 40
0.1081100880371222
 40
0.4711580666043527
 40
0.813580843083597
 40
0.9999999999999999
 40
0.9999999999999999
 40
0.9999999999999999
 40
0.9999999999999999
 10
250.5033497123689
 20
126.3758858911701
 30
0.0
 10
250.5579923889308
 20
126.3786920280168
 30
0.0
 10
250.7961324026008
 20
126.390921543646
 30
0.0
 10
251.2604240439662
 20
126.4322533083611
 30
0.0
 10
251.8040675023759
 20
126.5196946151971
 30
0.0
 10
252.1014299130369
 20
126.5803889367455
 30
0.0
 10
252.2062514984549
 20
126.6017839577115
 30
0.0
  0
SPLINE
  5
AE
330
1F
100
AcDbEntity
  8
0
  6
Continuous
 62
     7
370
    15
100
AcDbSpline
210
0.0
220
0.0
230
1.0
 70
     8
 71
     3
 72
    11
 73
     7
 74
     0
 42
0.00000001
 43
0.00000001
 12
1.0
 22
0.0
 32
0.0
 13
1.0
 23
0.0
 33
0.0
 40
0.0
 40
0.0
 40
0.0
 40
0.0
 40
0.2164499953511883
 40
0.440299815233321
 40
0.7518914760010323
 40
1.0
 40
1.0
 40
1.0
 40
1.0
 10
252.2062514984549
 20
126.6017839577115
 30
0.0
 10
252.2435015889264
 20
126.7004525515442
 30
0.0
 10
252.3192752470659
 20
126.9011629445538
 30
0.0
 10
252.4717008051223
 20
127.293141170121
 30
0.0
 10
252.6513422307387
 20
127.7402736643645
 30
0.0
 10
252.7771767318704
 20
128.0443795675554
 30
0.0
 10
252.8329576895932
 20
128.1791861458514
 30
0.0
  0
SPLINE
  5
AF
330
1F
100
AcDbEntity
  8
0
  6
Continuous
 62
     7
370
    15
100
AcDbSpline
210
0.0
220
0.0
230
1.0
 70
     8
 71
     3
 72
    11
 73
     7
 74
     0
 42
0.00000001
 43
0.00000001
 12
1.0
 22
0.0
 32
0.0
 13
1.0
 23
0.0
 33
0.0
 40
0.0
 40
0.0
 40
0.0
 40
0.0
 40
0.216449995351181
 40
0.4402998152332832
 40
0.7518914760010278
 40
1.0
 40
1.0
 40
1.0
 40
1.0
 10
252.8329576895932
 20
128.1791861458514
 30
0.0
 10
252.753560314714
 20
128.2623808955053
 30
0.0
 10
252.5920511890951
 20
128.4316145923763
 30
0.0
 10
252.3041382021673
 20
128.7651798039057
 30
0.0
 10
252.0114260961411
 20
129.1496523430104
 30
0.0
 10
251.8349790151133
 20
129.4136591485793
 30
0.0
 10
251.7567620946455
 20
129.53069026745
 30
0.0
  0
SPLINE
  5
B0
330
1F
100
AcDbEntity
  8
0
  6
Continuous
 62
     7
370
    15
100
AcDbSpline
210
0.0
220
0.0
230
1.0
 70
     8
 71
     3
 72
    11
 73
     7
 74
     0
 42
0.00000001
 43
0.00000001
 12
1.0
 22
0.0
 32
0.0
 13
1.0
 23
0.0
 33
0.0
 40
0.0
 40
0.0
 40
0.0
 40
0.0
 40
0.1864191569163738
 40
0.5288419333956474
 40
0.8918899119628808
 40
1.0
 40
1.0
 40
1.0
 40
1.0
 10
251.7567620946455
 20
129.53069026745
 30
0.0
 10
251.6519405092276
 20
129.509295246484
 30
0.0
 10
251.3545780985666
 20
129.4486009249356
 30
0.0
 10
250.8109346401569
 20
129.3611596180997
 30
0.0
 10
250.3466429987915
 20
129.3198278533845
 30
0.0
 10
250.1085029851214
 20
129.3075983377553
 30
0.0
 10
250.0538603085595
 20
129.3047922009086
 30
0.0
  0
SPLINE
  5
B1
330
1F
100
AcDbEntity
  8
0
  6
Continuous
 62
     7
370
    15
100
AcDbSpline
210
0.0
220
0.0
230
1.0
 70
     8
 71
     3
 72
    11
 73
     7
 74
     0
 42
0.00000001
 43
0.00000001
 12
1.0
 22
0.0
 32
0.0
 13
1.0
 23
0.0
 33
0.0
 40
0.0
 40
0.0
 40
0.0
 40
0.0
 40
0.2164499953511914
 40
0.4402998152333314
 40
0.7518914760010593
 40
1.0
 40
1.0
 40
1.0
 40
1.0
 10
250.0538603085595
 20
129.3047922009086
 30
0.0
 10
250.005252612853
 20
129.1873591163136
 30
0.0
 10
249.9063754592464
 20
128.9484782359257
 30
0.0
 10
249.7346920233571
 20
128.524683068035
 30
0.0
 10
249.5666599834744
 20
128.0967310442205
 30
0.0
 10
249.4700016308734
 20
127.8408285746106
 30
0.0
 10
249.4271541174211
 20
127.7273900127687
 30
0.0
  0
SPLINE
  5
B2
330
1F
100
AcDbEntity
  8
0
  6
Continuous
 62
     7
370
    15
100
AcDbSpline
210
0.0
220
0.0
230
1.0
 70
     8
 71
     3
 72
    11
 73
     7
 74
     0
 42
0.00000001
 43
0.00000001
 12
1.0
 22
0.0
 32
0.0
 13
1.0
 23
0.0
 33
0.0
 40
0.0
 40
0.0
 40
0.0
 40
0.0
 40
0.2164499953511979
 40
0.440299815233341
 40
0.7518914760010782
 40
0.9999999999999999
 40
0.9999999999999999
 40
0.9999999999999999
 40
0.9999999999999999
 10
249.4271541174211
 20
127.7273900127687
 30
0.0
 10
249.4951938870655
 20
127.6254307723525
 30
0.0
 10
249.6335995172171
 20
127.4180265881032
 30
0.0
 10
249.902254626312
 20
127.0526444342503
 30
0.0
 10
250.2065761180719
 20
126.6873523655746
 30
0.0
 10
250.4121993476304
 20
126.4715489935867
 30
0.0
 10
250.5033497123689
 20
126.3758858911701
 30
0.0
  0
LINE
  5
B3
330
1F
100
AcDbEntity
  8
0
  6
Continuous
 62
     7
370
    15
100
AcDbLine
 10
252.0607275329
 20
126.5728753599
 30
0.0
 11
252.1294990583
 21
126.7459713915
 31
0.0
  0
LINE
  5
B4
330
1F
100
AcDbEntity
  8
0
  6
Continuous
 62
     7
370
    15
100
AcDbLine
 10
252.1294990583
 20
126.7459713915
 30
0.0
 11
252.4428521538
 21
127.5346724856
 31
0.0
  0
LINE
  5
B5
330
1F
100
AcDbEntity
  8
0
  6
Continuous
 62
     7
370
    15
100
AcDbLine
 10
252.4428521538
 20
127.5346724856
 30
0.0
 11
252.8329576896
 21
128.1791861459
 31
0.0
  0
LINE
  5
B6
330
1F
100
AcDbEntity
  8
0
  6
Continuous
 62
     7
370
    15
100
AcDbLine
 10
252.4428521538
 20
127.5346724856
 30
0.0
 11
251.9047543564
 21
128.2104245464
 31
0.0
  0
LINE
  5
B7
330
1F
100
AcDbEntity
  8
0
  6
Continuous
 62
     7
370
    15
100
AcDbLine
 10
251.9047543564
 20
128.2104245464
 30
0.0
 11
251.3666565589
 21
128.8861766072
 31
0.0
  0
LINE
  5
B8
330
1F
100
AcDbEntity
  8
0
  6
Continuous
 62
     7
370
    15
100
AcDbLine
 10
251.3666565589
 20
128.8861766072
 30
0.0
 11
251.7567620946
 21
129.5306902675
 31
0.0
  0
LINE
  5
B9
330
1F
100
AcDbEntity
  8
0
  6
Continuous
 62
     7
370
    15
100
AcDbLine
 10
251.3666565589
 20
128.8861766072
 30
0.0
 11
250.5152056659
 21
128.7732275739
 31
0.0
  0
LINE
  5
BA
330
1F
100
AcDbEntity
  8
0
  6
Continuous
 62
     7
370
    15
100
AcDbLine
 10
250.5152056659
 20
128.7732275739
 30
0.0
 11
249.797417797
 21
128.6780095801
 31
0.0
  0
ARC
  5
BB
330
1F
100
AcDbEntity
  8
0
  6
Continuous
 62
     7
370
    15
100
AcDbCircle
 10
250.7544583853
 20
127.2844205069
 30
0.0
 40
1.476707250037697
100
AcDbArc
 50
338.6152963378
 51
38.8345419652
  0
LWPOLYLINE
  5
BC
330
1F
100
AcDbEntity
  8
0
  6
Continuous
 62
     7
370
    15
100
AcDbPolyline
 90
        3
 70
   128
 43
0.0
 10
252.1294990583
 20
126.7459713915
 10
252.0467690365
 20
126.5724782861
 10
252.0323830625
 20
126.5474570889
  0
ARC
  5
BD
330
1F
100
AcDbEntity
  8
0
  6
Continuous
 62
     7
370
    15
100
AcDbCircle
 10
250.7052144725
 20
127.3194413307
 30
0.0
 40
1.466150670162651
100
AcDbArc
 50
97.4463082021
 51
134.9662195314
  0
ARC
  5
BE
330
1F
100
AcDbEntity
  8
0
  6
Continuous
 62
     7
370
    15
100
AcDbCircle
 10
250.7116313415
 20
127.2614138068
 30
0.0
 40
1.524520879610096
100
AcDbArc
 50
38.4987599795
 51
97.4028082648
  0
LINE
  5
BF
330
1F
100
AcDbEntity
  8
0
  6
Continuous
 62
     7
370
    15
100
AcDbLine
 10
251.9295181398
 20
144.5722522522
 30
0.0
 11
252.1916107662
 21
144.6116230941
 31
0.0
  0
ELLIPSE
  5
C0
330
1F
100
AcDbEntity
  8
0
  6
Continuous
 62
     7
370
    15
100
AcDbEllipse
 10
253.2216653823
 20
142.5130007742
 30
0.0
 11
1.980360473108334
 21
-1.266117462755034
 31
0.0
210
0.0
220
0.0
230
1.0
 40
0.9803342941
 41
1.990847558494018
 42
3.69604027375258
  0
ELLIPSE
  5
C1
330
1F
100
AcDbEntity
  8
0
  6
Continuous
 62
     7
370
    15
100
AcDbEllipse
 10
253.2216653823
 20
142.5130007742
 30
0.0
 11
1.980360473108334
 21
-1.266117462755034
 31
0.0
210
0.0
220
0.0
230
1.0
 40
0.9803342941
 41
0.2149108424044197
 42
1.990847558494042
  0
SPLINE
  5
C2
330
1F
100
AcDbEntity
  8
0
  6
Continuous
 62
     7
370
    15
100
AcDbSpline
210
0.0
220
0.0
230
1.0
 70
     8
 71
     3
 72
    12
 73
     8
 74
     0
 42
0.00000001
 43
0.00000001
 12
1.0
 22
0.0
 32
0.0
 13
1.0
 23
0.0
 33
0.0
 40
0.0
 40
0.0
 40
0.0
 40
0.0
 40
0.1237661768595163
 40
0.3803849684627515
 40
0.6425654117672134
 40
0.9066704063157079
 40
1.0
 40
1.0
 40
1.0
 40
1.0
 10
251.4244679766536
 20
144.0101480217058
 30
0.0
 10
251.3976243811971
 20
143.9971264474706
 30
0.0
 10
251.3151228410331
 20
143.9571057307411
 30
0.0
 10
251.1847832392824
 20
143.8758822171759
 30
0.0
 10
251.0353312160017
 20
143.7669686840958
 30
0.0
 10
250.9240054861457
 20
143.6731957988722
 30
0.0
 10
250.8672131902037
 20
143.6136117838154
 30
0.0
 10
250.8523841779055
 20
143.5980538269237
 30
0.0
  0
LINE
  5
C3
330
1F
100
AcDbEntity
  8
0
  6
Continuous
 62
     7
370
    15
100
AcDbLine
 10
247.0562709095
 20
132.0738712239
 30
0.0
 11
259.3085611032
 21
139.4315514409
 31
0.0
  0
ARC
  5
C4
330
1F
100
AcDbEntity
  8
0
  6
Continuous
 62
     7
370
    15
100
AcDbCircle
 10
246.8513374372
 20
132.4215069923
 30
0.0
 40
0.4035447379891395
100
AcDbArc
 50
177.4229820073
 51
300.5196171078
  0
LINE
  5
C5
330
1F
100
AcDbEntity
  8
0
  6
Continuous
 62
     7
370
    15
100
AcDbLine
 10
247.2043316549
 20
146.7127609666
 30
0.0
 11
246.44820081
 21
132.4396512861
 31
0.0
  0
ARC
  5
C6
330
1F
100
AcDbEntity
  8
0
  6
Continuous
 62
     7
370
    15
100
AcDbCircle
 10
247.5885705234
 20
146.692775035
 30
0.0
 40
0.3847582949293001
100
AcDbArc
 50
120.933424075
 51
177.0224810537
  0
LINE
  5
C7
330
1F
100
AcDbEntity
  8
0
  6
Continuous
 62
     7
370
    15
100
AcDbLine
 10
259.6430788993
 20
154.3804875201
 30
0.0
 11
247.3907887055
 21
147.0228073031
 31
0.0
  0
ARC
  5
C8
330
1F
100
AcDbEntity
  8
0
  6
Continuous
 62
     7
370
    15
100
AcDbCircle
 10
259.8480123716
 20
154.0328517517
 30
0.0
 40
0.4035447379891753
100
AcDbArc
 50
357.4229820073
 51
120.5196171078
  0
LINE
  5
C9
330
1F
100
AcDbEntity
  8
0
  6
Continuous
 62
     7
370
    15
100
AcDbLine
 10
259.4950181539
 20
139.7415977775
 30
0.0
 11
260.2511489988
 21
154.0147074579
 31
0.0
  0
ARC
  5
CA
330
1F
100
AcDbEntity
  8
0
  6
Continuous
 62
     7
370
    15
100
AcDbCircle
 10
259.1107792854
 20
139.7615837091
 30
0.0
 40
0.3847582949295854
100
AcDbArc
 50
300.933424075
 51
357.0224810537
  0
ARC
  5
CB
330
1F
100
AcDbEntity
  8
0
  6
Continuous
 62
     7
370
    15
100
AcDbCircle
 10
259.8483060242
 20
154.0333378802
 30
0.0
 40
0.3833675010898306
100
AcDbArc
 50
357.4229820073
 51
120.5196171078
  0
LINE
  5
CC
330
1F
100
AcDbEntity
  8
0
  6
Continuous
 62
     7
370
    15
100
AcDbLine
 10
259.6536192255
 20
154.3635918602
 30
0.0
 11
247.4013290319
 21
147.0059116429
 31
0.0
  0
ARC
  5
CD
330
1F
100
AcDbEntity
  8
0
  6
Continuous
 62
     7
370
    15
100
AcDbCircle
 10
247.5892217598
 20
146.6923809874
 30
0.0
 40
0.3655203813238079
100
AcDbArc
 50
120.9334241416
 51
177.0224808999
  0
LINE
  5
CE
330
1F
100
AcDbEntity
  8
0
  6
Continuous
 62
     7
370
    15
100
AcDbLine
 10
247.2241948337
 20
146.7113676235
 30
0.0
 11
246.4680639888
 21
132.438257943
 31
0.0
  0
ARC
  5
CF
330
1F
100
AcDbEntity
  8
0
  6
Continuous
 62
     7
370
    15
100
AcDbCircle
 10
246.8510437846
 20
132.4210208639
 30
0.0
 40
0.3833675010897196
100
AcDbArc
 50
177.4229820073
 51
300.5196171078
  0
LINE
  5
D0
330
1F
100
AcDbEntity
  8
0
  6
Continuous
 62
     7
370
    15
100
AcDbLine
 10
247.0457305833
 20
132.0907668839
 30
0.0
 11
259.298020777
 21
139.4484471009
 31
0.0
  0
ARC
  5
D1
330
1F
100
AcDbEntity
  8
0
  6
Continuous
 62
     7
370
    15
100
AcDbCircle
 10
259.1101280501
 20
139.7619777557
 30
0.0
 40
0.365520380182724
100
AcDbArc
 50
300.933424075
 51
357.0224810537
  0
LINE
  5
D2
330
1F
100
AcDbEntity
  8
0
  6
Continuous
 62
     7
370
    15
100
AcDbLine
 10
259.4751549752
 20
139.7429911207
 30
0.0
 11
260.23128582
 21
154.0161008011
 31
0.0
  0
LINE
  5
D3
330
1F
100
AcDbEntity
  8
0
  6
Continuous
 62
     7
370
    15
100
AcDbLine
 10
246.8225315612
 20
132.3738959115
 30
0.0
 11
247.0457305833
 21
132.0907668839
 31
0.0
  0
LINE
  5
D4
330
1F
100
AcDbEntity
  8
0
  6
Continuous
 62
     7
370
    15
100
AcDbLine
 10
246.8225315612
 20
132.3738959115
 30
0.0
 11
246.4680639888
 21
132.438257943
 31
0.0
  0
LINE
  5
D5
330
1F
100
AcDbEntity
  8
0
  6
Continuous
 62
     7
370
    15
100
AcDbLine
 10
259.074821755
 20
139.7315761284
 30
0.0
 11
259.298020777
 21
139.4484471009
 31
0.0
  0
LINE
  5
D6
330
1F
100
AcDbEntity
  8
0
  6
Continuous
 62
     7
370
    15
100
AcDbLine
 10
247.8611522815
 20
134.1015934064
 30
0.0
 11
246.8225315612
 21
132.3738959115
 31
0.0
  0
LINE
  5
D7
330
1F
100
AcDbEntity
  8
0
  6
Continuous
 62
     7
370
    15
100
AcDbLine
 10
247.8611522815
 20
134.1015934064
 30
0.0
 11
248.4306410058
 21
134.4435797498
 31
0.0
  0
LINE
  5
D8
330
1F
100
AcDbEntity
  8
0
  6
Continuous
 62
     7
370
    15
100
AcDbLine
 10
258.631263402
 20
139.9396197132
 30
0.0
 11
259.074821755
 21
139.7315761284
 31
0.0
  0
LINE
  5
D9
330
1F
100
AcDbEntity
  8
0
  6
Continuous
 62
     7
370
    15
100
AcDbLine
 10
246.0113205032
 20
135.6256417623
 30
0.0
 11
245.7844450682
 21
131.3430258773
 31
0.0
  0
LINE
  5
DA
330
1F
100
AcDbEntity
  8
0
  6
Continuous
 62
     7
370
    15
100
AcDbLine
 10
247.5786624061
 20
146.6470055919
 30
0.0
 11
247.2241948337
 21
146.7113676235
 31
0.0
  0
LINE
  5
DB
330
1F
100
AcDbEntity
  8
0
  6
Continuous
 62
     7
370
    15
100
AcDbLine
 10
247.970061381
 20
146.3527867836
 30
0.0
 11
247.5786624061
 21
146.6470055919
 31
0.0
  0
LINE
  5
DC
330
1F
100
AcDbEntity
  8
0
  6
Continuous
 62
     7
370
    15
100
AcDbLine
 10
247.8962973836
 20
134.7650101959
 30
0.0
 11
247.8611522815
 21
134.1015934064
 31
0.0
  0
ARC
  5
DD
330
1F
100
AcDbEntity
  8
0
  6
Continuous
 62
     7
370
    15
100
AcDbCircle
 10
249.7241859331
 20
137.1985000502
 30
0.0
 40
1.008861844972833
100
AcDbArc
 50
177.4229820073
 51
300.5196171078
  0
LINE
  5
DE
330
1F
100
AcDbEntity
  8
0
  6
Continuous
 62
     7
370
    15
100
AcDbLine
 10
248.4207142947
 20
135.0343031622
 30
0.0
 11
248.4227045825
 21
135.0331059194
 31
0.0
  0
SPLINE
  5
DF
330
1F
100
AcDbEntity
  8
0
  6
Continuous
 62
     7
370
    15
100
AcDbSpline
210
0.0
220
0.0
230
1.0
 70
     8
 71
     3
 72
    14
 73
    10
 74
     0
 42
0.00000001
 43
0.00000001
 12
1.0
 22
0.0
 32
0.0
 13
1.0
 23
0.0
 33
0.0
 40
0.0
 40
0.0
 40
0.0
 40
0.0
 40
0.2210591904779506
 40
0.346079732651926
 40
0.4396016244131435
 40
0.533889745319987
 40
0.6146561933587663
 40
0.7517253237593896
 40
1.0
 40
1.0
 40
1.0
 40
1.0
 10
248.4207142946871
 20
135.0343031622481
 30
0.0
 10
248.3691199938655
 20
135.063184449624
 30
0.0
 10
248.2883464155487
 20
135.108399616621
 30
0.0
 10
248.1735479501281
 20
135.13690900097
 30
0.0
 10
248.0894523275477
 20
135.1330919507595
 30
0.0
 10
248.0236167870822
 20
135.1025265186997
 30
0.0
 10
247.9663352983868
 20
135.0431087262407
 30
0.0
 10
247.9128280712954
 20
134.93124611902
 30
0.0
 10
247.9027747059195
 20
134.8301474529581
 30
0.0
 10
247.8962973836146
 20
134.7650101959106
 30
0.0
  0
SPLINE
  5
E0
330
1F
100
AcDbEntity
  8
0
  6
Continuous
 62
     7
370
    15
100
AcDbSpline
210
0.0
220
0.0
230
1.0
 70
     8
 71
     3
 72
    14
 73
    10
 74
     0
 42
0.00000001
 43
0.00000001
 12
1.0
 22
0.0
 32
0.0
 13
1.0
 23
0.0
 33
0.0
 40
0.0
 40
0.0
 40
0.0
 40
0.0
 40
0.2234968253973686
 40
0.3567622963774652
 40
0.4531212562341368
 40
0.5344619041500356
 40
0.615731755803537
 40
0.739616177892228
 40
1.0
 40
1.0
 40
1.0
 40
1.0
 10
248.430641005824
 20
134.4435797497506
 30
0.0
 10
248.4796939216077
 20
134.4760254545297
 30
0.0
 10
248.5579958431133
 20
134.5278177076144
 30
0.0
 10
248.6342902126404
 20
134.6202621557696
 30
0.0
 10
248.6658808701111
 20
134.6964465450411
 30
0.0
 10
248.668300084417
 20
134.7657221024771
 30
0.0
 10
248.6442967064818
 20
134.8387424597635
 30
0.0
 10
248.5680465437003
 20
134.9390464031418
 30
0.0
 10
248.4814101964994
 20
134.9951139891136
 30
0.0
 10
248.4227045824958
 20
135.0331059193659
 30
0.0
  0
LINE
  5
E1
330
1F
100
AcDbEntity
  8
0
  6
Continuous
 62
     7
370
    15
100
AcDbLine
 10
250.2365196139
 20
136.3294106292
 30
0.0
 11
257.0936837055
 21
140.4472383809
 31
0.0
  0
LINE
  5
E2
330
1F
100
AcDbEntity
  8
0
  6
Continuous
 62
     7
370
    15
100
AcDbLine
 10
249.1395234767
 20
145.2320045219
 30
0.0
 11
248.7163443652
 21
137.2438607847
 31
0.0
  0
ARC
  5
E3
330
1F
100
AcDbEntity
  8
0
  6
Continuous
 62
     7
370
    15
100
AcDbCircle
 10
250.1001206479
 20
145.1820396928
 30
0.0
 40
0.9618957373232249
100
AcDbArc
 50
120.933424075
 51
177.0224810537
  0
LINE
  5
E4
330
1F
100
AcDbEntity
  8
0
  6
Continuous
 62
     7
370
    15
100
AcDbLine
 10
256.4628301949
 20
150.1249481149
 30
0.0
 11
249.6056661033
 21
146.0071203632
 31
0.0
  0
ARC
  5
E5
330
1F
100
AcDbEntity
  8
0
  6
Continuous
 62
     7
370
    15
100
AcDbCircle
 10
256.975163876
 20
149.2558586941
 30
0.0
 40
1.008861844953834
100
AcDbArc
 50
357.4229819929
 51
120.5196171286
  0
LINE
  5
E6
330
1F
100
AcDbEntity
  8
0
  6
Continuous
 62
     7
370
    15
100
AcDbLine
 10
257.5598263321
 20
141.2223542223
 30
0.0
 11
257.9830054439
 21
149.2104979593
 31
0.0
  0
ARC
  5
E7
330
1F
100
AcDbEntity
  8
0
  6
Continuous
 62
     7
370
    15
100
AcDbCircle
 10
256.5992291609
 20
141.2723190514
 30
0.0
 40
0.9618957373234893
100
AcDbArc
 50
300.933424075
 51
357.0224810537
  0
LWPOLYLINE
  5
E8
330
1F
100
AcDbEntity
  8
0
  6
Continuous
 62
     7
370
    15
100
AcDbPolyline
 90
       27
 70
   128
 43
0.0
 10
255.9120249636
 20
143.0474381068
 10
255.8697047286
 20
143.6592954044
 10
255.6809295202
 20
144.2460396889
 10
255.3566702673
 20
144.7735715151
 10
254.915771739
 20
145.2112326509
 10
254.3838573553
 20
145.5335878219
 10
253.7918400465
 20
145.7219029173
 10
253.174125707
 20
145.7652337481
 10
252.5666136486
 20
145.661062084
 10
252.0046102642
 20
145.4154420036
 10
251.5207771475
 20
145.042648053
 10
251.1432329207
 20
144.5643456616
 10
250.8939190819
 20
144.0083320259
 10
250.7873248452
 20
143.4069206373
 10
250.8296450801
 20
142.7950633397
 10
251.0184202885
 20
142.2083190552
 10
251.3426795415
 20
141.680787229
 10
251.7835780697
 20
141.2431260931
 10
252.3154924535
 20
140.9207709221
 10
252.9075097622
 20
140.7324558268
 10
253.5252241018
 20
140.689124996
 10
254.1327361601
 20
140.79329666
 10
254.6947395446
 20
141.0389167405
 10
255.1785726612
 20
141.4117106911
 10
255.5561168881
 20
141.8900130825
 10
255.8054307269
 20
142.4460267182
 10
255.9120249636
 20
143.0474381068
  0
ARC
  5
E9
330
1F
100
AcDbEntity
  8
0
  6
Continuous
 62
     7
370
    15
100
AcDbCircle
 10
252.6265294488
 20
142.1475771044
 30
0.0
 40
2.523078939072136
100
AcDbArc
 50
98.2272484187
 51
133.7183450941
  0
SPLINE
  5
EA
330
1F
100
AcDbEntity
  8
0
  6
Continuous
 62
     7
370
    15
100
AcDbSpline
210
0.0
220
0.0
230
1.0
 70
     8
 71
     3
 72
    11
 73
     7
 74
     0
 42
0.00000001
 43
0.00000001
 12
1.0
 22
0.0
 32
0.0
 13
1.0
 23
0.0
 33
0.0
 40
0.0
 40
0.0
 40
0.0
 40
0.0
 40
0.3280455501579822
 40
0.6557028173712043
 40
0.9906967996087888
 40
0.9999999999999999
 40
0.9999999999999999
 40
0.9999999999999999
 40
0.9999999999999999
 10
258.6312634019532
 20
139.9396197132315
 30
0.0
 10
258.5644456429945
 20
139.9729635930715
 30
0.0
 10
258.4308892122533
 20
140.0396118860987
 30
0.0
 10
258.2221917825913
 20
140.1681122832327
 30
0.0
 10
258.0956968856786
 20
140.2575541889464
 30
0.0
 10
258.0382832322513
 20
140.3018248693599
 30
0.0
 10
258.0367318668902
 20
140.3030211005001
 30
0.0
  0
LINE
  5
EB
330
1F
100
AcDbEntity
  8
0
  6
Continuous
 62
     7
370
    15
100
AcDbLine
 10
258.6709519861
 20
152.0764502741
 30
0.0
 11
259.8309525999
 21
154.0046858089
 31
0.0
  0
LINE
  5
EC
330
1F
100
AcDbEntity
  8
0
  6
Continuous
 62
     7
370
    15
100
AcDbLine
 10
259.8309525999
 20
154.0046858089
 30
0.0
 11
260.23128582
 21
154.0161008011
 31
0.0
  0
LINE
  5
ED
330
1F
100
AcDbEntity
  8
0
  6
Continuous
 62
     7
370
    15
100
AcDbLine
 10
259.074821755
 20
139.7315761284
 30
0.0
 11
259.4751549752
 21
139.7429911207
 31
0.0
  0
LINE
  5
EE
330
1F
100
AcDbEntity
  8
0
  6
Continuous
 62
     7
370
    15
100
AcDbLine
 10
258.635806884
 20
151.4130334846
 30
0.0
 11
258.6709519861
 21
152.0764502741
 31
0.0
  0
SPLINE
  5
EF
330
1F
100
AcDbEntity
  8
0
  6
Continuous
 62
     7
370
    15
100
AcDbSpline
210
0.0
220
0.0
230
1.0
 70
     8
 71
     3
 72
    11
 73
     7
 74
     0
 42
0.00000001
 43
0.00000001
 12
1.0
 22
0.0
 32
0.0
 13
1.0
 23
0.0
 33
0.0
 40
0.0
 40
0.0
 40
0.0
 40
0.0
 40
0.3280455501579819
 40
0.6557028173711982
 40
0.9906967996087616
 40
0.9999999999999999
 40
0.9999999999999999
 40
0.9999999999999999
 40
0.9999999999999999
 10
247.9700613809987
 20
146.3527867835697
 30
0.0
 10
248.0308003679819
 20
146.3093998481541
 30
0.0
 10
248.1522064497591
 20
146.2226773311884
 30
0.0
 10
248.3635306815021
 20
146.0985168104948
 30
0.0
 10
248.5018726473518
 20
146.0286480640024
 30
0.0
 10
248.5679244920354
 20
145.9986489889732
 30
0.0
 10
248.569709268613
 20
145.9978383886528
 30
0.0
  0
LINE
  5
F0
330
1F
100
AcDbEntity
  8
0
  6
Continuous
 62
     7
370
    15
100
AcDbLine
 10
247.5786624061
 20
146.6470055919
 30
0.0
 11
247.4013290319
 21
147.0059116429
 31
0.0
  0
LINE
  5
F1
330
1F
100
AcDbEntity
  8
0
  6
Continuous
 62
     7
370
    15
100
AcDbLine
 10
259.8309525999
 20
154.0046858089
 30
0.0
 11
259.6536192255
 21
154.3635918602
 31
0.0
  0
LINE
  5
F2
330
1F
100
AcDbEntity
  8
0
  6
Continuous
 62
     7
370
    15
100
AcDbLine
 10
258.6709519861
 20
152.0764502741
 30
0.0
 11
258.1014632618
 21
151.7344639307
 31
0.0
  0
LINE
  5
F3
330
1F
100
AcDbEntity
  8
0
  6
Continuous
 62
     7
370
    15
100
AcDbLine
 10
258.1113899729
 20
151.1437405182
 30
0.0
 11
258.1093996851
 21
151.1449377611
 31
0.0
  0
SPLINE
  5
F4
330
1F
100
AcDbEntity
  8
0
  6
Continuous
 62
     7
370
    15
100
AcDbSpline
210
0.0
220
0.0
230
1.0
 70
     8
 71
     3
 72
    14
 73
    10
 74
     0
 42
0.00000001
 43
0.00000001
 12
1.0
 22
0.0
 32
0.0
 13
1.0
 23
0.0
 33
0.0
 40
0.0
 40
0.0
 40
0.0
 40
0.0
 40
0.2234968253973745
 40
0.3567622963774684
 40
0.4531212562341362
 40
0.5344619041500422
 40
0.61573175580354
 40
0.7396161778921936
 40
1.0
 40
1.0
 40
1.0
 40
1.0
 10
258.101463261751
 20
151.7344639307283
 30
0.0
 10
258.0524103459672
 20
151.7020182259491
 30
0.0
 10
257.9741084244617
 20
151.6502259728644
 30
0.0
 10
257.8978140549345
 20
151.5577815247092
 30
0.0
 10
257.8662233974638
 20
151.4815971354377
 30
0.0
 10
257.8638041831579
 20
151.4123215780017
 30
0.0
 10
257.8878075610931
 20
151.3393012207153
 30
0.0
 10
257.9640577238746
 20
151.238997277337
 30
0.0
 10
258.0506940710755
 20
151.1829296913652
 30
0.0
 10
258.109399685079
 20
151.1449377611129
 30
0.0
  0
SPLINE
  5
F5
330
1F
100
AcDbEntity
  8
0
  6
Continuous
 62
     7
370
    15
100
AcDbSpline
210
0.0
220
0.0
230
1.0
 70
     8
 71
     3
 72
    14
 73
    10
 74
     0
 42
0.00000001
 43
0.00000001
 12
1.0
 22
0.0
 32
0.0
 13
1.0
 23
0.0
 33
0.0
 40
0.0
 40
0.0
 40
0.0
 40
0.0
 40
0.2210591904779384
 40
0.3460797326519308
 40
0.4396016244131396
 40
0.5338897453199816
 40
0.6146561933587494
 40
0.7517253237593732
 40
0.9999999999999999
 40
0.9999999999999999
 40
0.9999999999999999
 40
0.9999999999999999
 10
258.1113899728878
 20
151.1437405182307
 30
0.0
 10
258.1629842737094
 20
151.1148592308548
 30
0.0
 10
258.2437578520262
 20
151.0696440638578
 30
0.0
 10
258.3585563174469
 20
151.0411346795088
 30
0.0
 10
258.4426519400272
 20
151.0449517297193
 30
0.0
 10
258.5084874804927
 20
151.0755171617791
 30
0.0
 10
258.5657689691881
 20
151.1349349542381
 30
0.0
 10
258.6192761962795
 20
151.2467975614588
 30
0.0
 10
258.6293295616554
 20
151.3478962275207
 30
0.0
 10
258.6358068839603
 20
151.4130334845682
 30
0.0
  0
SPLINE
  5
F6
330
1F
100
AcDbEntity
  8
0
  6
HIDDEN
 62
     7
370
     0
100
AcDbSpline
210
0.0
220
0.0
230
1.0
 70
     8
 71
     3
 72
    12
 73
     8
 74
     0
 42
0.00000001
 43
0.00000001
 12
1.0
 22
0.0
 32
0.0
 13
1.0
 23
0.0
 33
0.0
 40
0.0
 40
0.0
 40
0.0
 40
0.0
 40
0.5000000000000028
 40
0.5000000000000028
 40
0.7500000000000013
 40
0.7500000000000013
 40
1.0
 40
1.0
 40
1.0
 40
1.0
 10
205.3453930089104
 20
139.3355798168169
 30
0.0
 10
205.3761152508295
 20
139.37288179977
 30
0.0
 10
205.4189524653647
 20
139.4094936318164
 30
0.0
 10
205.5183794895645
 20
139.4572584151016
 30
0.0
 10
205.5581316843812
 20
139.472215930584
 30
0.0
 10
205.6561731412394
 20
139.4954058763531
 30
0.0
 10
205.7157291968269
 20
139.5033293155728
 30
0.0
 10
205.7784057108027
 20
139.5033293155728
 30
0.0
  0
LINE
  5
F7
330
1F
100
AcDbEntity
  8
0
  6
HIDDEN
 62
     7
370
     0
100
AcDbLine
 10
205.7784057108
 20
139.5033293156
 30
0.0
 11
208.7228920837
 21
139.5033293156
 31
0.0
  0
SPLINE
  5
F8
330
1F
100
AcDbEntity
  8
0
  6
HIDDEN
 62
     7
370
     0
100
AcDbSpline
210
0.0
220
0.0
230
1.0
 70
     8
 71
     3
 72
    12
 73
     8
 74
     0
 42
0.00000001
 43
0.00000001
 12
1.0
 22
0.0
 32
0.0
 13
1.0
 23
0.0
 33
0.0
 40
0.0
 40
0.0
 40
0.0
 40
0.0
 40
0.2500000000000009
 40
0.2500000000000009
 40
0.5000000000000018
 40
0.5000000000000018
 40
1.0
 40
1.0
 40
1.0
 40
1.0
 10
208.7228920836698
 20
139.5033293155728
 30
0.0
 10
208.7859721221631
 20
139.5033293155728
 30
0.0
 10
208.8451207443446
 20
139.4954233893604
 30
0.0
 10
208.9435932944136
 20
139.4720982279241
 30
0.0
 10
208.9826299063984
 20
139.4573854380924
 30
0.0
 10
209.0825263731774
 20
139.4094296373615
 30
0.0
 10
209.124947254244
 20
139.3731674807815
 30
0.0
 10
209.155904785562
 20
139.335579816817
 30
0.0
  0
ELLIPSE
  5
F9
330
1F
100
AcDbEntity
  8
0
  6
HIDDEN
 62
     7
370
     0
100
AcDbEllipse
 10
192.9034947079
 20
109.4348373567
 30
0.0
 11
14.75368316065627
 21
31.09325491558116
 31
0.0
210
0.0
220
0.0
230
1.0
 40
0.3419987131
 41
5.19328173740864
 42
6.124043104552344
  0
SPLINE
  5
FA
330
1F
100
AcDbEntity
  8
0
  6
HIDDEN
 62
     7
370
     0
100
AcDbSpline
210
0.0
220
0.0
230
1.0
 70
     8
 71
     3
 72
    12
 73
     8
 74
     0
 42
0.00000001
 43
0.00000001
 12
1.0
 22
0.0
 32
0.0
 13
1.0
 23
0.0
 33
0.0
 40
0.0
 40
0.0
 40
0.0
 40
0.0
 40
0.4999999999999971
 40
0.4999999999999971
 40
0.7499999999999986
 40
0.7499999999999986
 40
1.0
 40
1.0
 40
1.0
 40
1.0
 10
209.155904785562
 20
119.3442066773852
 30
0.0
 10
209.1251825436429
 20
119.231650877976
 30
0.0
 10
209.0823453291078
 20
119.1188930182364
 30
0.0
 10
208.982918304908
 20
118.9693521324401
 30
0.0
 10
208.9431661100913
 20
118.9220594007332
 30
0.0
 10
208.8451246532331
 20
118.8483231074118
 30
0.0
 10
208.7855685976456
 20
118.8229037880361
 30
0.0
 10
208.7228920836698
 20
118.8229037880361
 30
0.0
  0
LINE
  5
FB
330
1F
100
AcDbEntity
  8
0
  6
HIDDEN
 62
     7
370
     0
100
AcDbLine
 10
208.7228920837
 20
118.822903788
 30
0.0
 11
205.7784057108
 21
118.822903788
 31
0.0
  0
SPLINE
  5
FC
330
1F
100
AcDbEntity
  8
0
  6
HIDDEN
 62
     7
370
     0
100
AcDbSpline
210
0.0
220
0.0
230
1.0
 70
     8
 71
     3
 72
    12
 73
     8
 74
     0
 42
0.00000001
 43
0.00000001
 12
1.0
 22
0.0
 32
0.0
 13
1.0
 23
0.0
 33
0.0
 40
0.0
 40
0.0
 40
0.0
 40
0.0
 40
0.2500000000000009
 40
0.2500000000000009
 40
0.5000000000000018
 40
0.5000000000000018
 40
1.0
 40
1.0
 40
1.0
 40
1.0
 10
205.7784057108027
 20
118.8229037880361
 30
0.0
 10
205.7153256723093
 20
118.8229037880361
 30
0.0
 10
205.6561770501279
 20
118.848268107251
 30
0.0
 10
205.5577045000588
 20
118.9224329676239
 30
0.0
 10
205.5186678880741
 20
118.9689533081781
 30
0.0
 10
205.4187714212951
 20
119.1190956510233
 30
0.0
 10
205.3763505402284
 20
119.2307888579955
 30
0.0
 10
205.3453930089105
 20
119.3442066773852
 30
0.0
  0
ELLIPSE
  5
FD
330
1F
100
AcDbEntity
  8
0
  6
HIDDEN
 62
     7
370
     0
100
AcDbEllipse
 10
221.5978030866
 20
109.4348373567
 30
0.0
 11
-14.75368316065627
 21
31.09325491558116
 31
0.0
210
0.0
220
0.0
230
1.0
 40
0.3419987131
 41
0.159142202627284
 42
1.089903569770962
  0
SPLINE
  5
FE
330
1F
100
AcDbEntity
  8
0
  6
HIDDEN
 62
     7
370
     0
100
AcDbSpline
210
0.0
220
0.0
230
1.0
 70
     8
 71
     3
 72
    12
 73
     8
 74
     0
 42
0.00000001
 43
0.00000001
 12
1.0
 22
0.0
 32
0.0
 13
1.0
 23
0.0
 33
0.0
 40
0.0
 40
0.0
 40
0.0
 40
0.0
 40
0.4999999999999982
 40
0.4999999999999982
 40
0.7499999999999991
 40
0.7499999999999991
 40
1.0
 40
1.0
 40
1.0
 40
1.0
 10
205.3453930089105
 20
99.52546803601442
 30
0.0
 10
205.3761152508296
 20
99.63802383542358
 30
0.0
 10
205.4189524653647
 20
99.75078169516316
 30
0.0
 10
205.5183794895645
 20
99.90032258095951
 30
0.0
 10
205.5581316843812
 20
99.94761531266636
 30
0.0
 10
205.6561731412394
 20
100.0213516059878
 30
0.0
 10
205.7157291968269
 20
100.0467709253635
 30
0.0
 10
205.7784057108027
 20
100.0467709253635
 30
0.0
  0
LINE
  5
FF
330
1F
100
AcDbEntity
  8
0
  6
HIDDEN
 62
     7
370
     0
100
AcDbLine
 10
205.7784057108
 20
100.0467709254
 30
0.0
 11
208.7228920837
 21
100.0467709254
 31
0.0
  0
SPLINE
  5
100
330
1F
100
AcDbEntity
  8
0
  6
HIDDEN
 62
     7
370
     0
100
AcDbSpline
210
0.0
220
0.0
230
1.0
 70
     8
 71
     3
 72
    12
 73
     8
 74
     0
 42
0.00000001
 43
0.00000001
 12
1.0
 22
0.0
 32
0.0
 13
1.0
 23
0.0
 33
0.0
 40
0.0
 40
0.0
 40
0.0
 40
0.0
 40
0.25
 40
0.25
 40
0.5
 40
0.5
 40
1.0
 40
1.0
 40
1.0
 40
1.0
 10
208.7228920836698
 20
100.0467709253635
 30
0.0
 10
208.7859721221631
 20
100.0467709253635
 30
0.0
 10
208.8451207443445
 20
100.0214066061486
 30
0.0
 10
208.9435932944136
 20
99.94724174577567
 30
0.0
 10
208.9826299063984
 20
99.90072140522155
 30
0.0
 10
209.0825263731774
 20
99.7505790623763
 30
0.0
 10
209.124947254244
 20
99.63888585540417
 30
0.0
 10
209.155904785562
 20
99.52546803601439
 30
0.0
  0
ELLIPSE
  5
101
330
1F
100
AcDbEntity
  8
0
  6
HIDDEN
 62
     7
370
     0
100
AcDbEllipse
 10
192.9034947079
 20
109.4348373567
 30
0.0
 11
-14.75368316065612
 21
31.09325491558118
 31
0.0
210
0.0
220
0.0
230
1.0
 40
0.3419987131
 41
3.30073485621713
 42
4.231496223360779
  0
SPLINE
  5
102
330
1F
100
AcDbEntity
  8
0
  6
HIDDEN
 62
     7
370
     0
100
AcDbSpline
210
0.0
220
0.0
230
1.0
 70
     8
 71
     3
 72
    12
 73
     8
 74
     0
 42
0.00000001
 43
0.00000001
 12
1.0
 22
0.0
 32
0.0
 13
1.0
 23
0.0
 33
0.0
 40
0.0
 40
0.0
 40
0.0
 40
0.0
 40
0.4999999999999971
 40
0.4999999999999971
 40
0.7499999999999986
 40
0.7499999999999986
 40
1.0
 40
1.0
 40
1.0
 40
1.0
 10
209.155904785562
 20
79.53409489658239
 30
0.0
 10
209.1251825436429
 20
79.49679291362935
 30
0.0
 10
209.0823453291078
 20
79.46018108158297
 30
0.0
 10
208.982918304908
 20
79.41241629829776
 30
0.0
 10
208.9431661100913
 20
79.39745878281539
 30
0.0
 10
208.8451246532331
 20
79.37426883704623
 30
0.0
 10
208.7855685976456
 20
79.36634539782652
 30
0.0
 10
208.7228920836698
 20
79.36634539782652
 30
0.0
  0
LINE
  5
103
330
1F
100
AcDbEntity
  8
0
  6
HIDDEN
 62
     7
370
     0
100
AcDbLine
 10
208.7228920837
 20
79.3663453978
 30
0.0
 11
205.7784057108
 21
79.3663453978
 31
0.0
  0
SPLINE
  5
104
330
1F
100
AcDbEntity
  8
0
  6
HIDDEN
 62
     7
370
     0
100
AcDbSpline
210
0.0
220
0.0
230
1.0
 70
     8
 71
     3
 72
    12
 73
     8
 74
     0
 42
0.00000001
 43
0.00000001
 12
1.0
 22
0.0
 32
0.0
 13
1.0
 23
0.0
 33
0.0
 40
0.0
 40
0.0
 40
0.0
 40
0.0
 40
0.2500000000000023
 40
0.2500000000000023
 40
0.5000000000000047
 40
0.5000000000000047
 40
1.0
 40
1.0
 40
1.0
 40
1.0
 10
205.7784057108027
 20
79.36634539782652
 30
0.0
 10
205.7153256723093
 20
79.36634539782654
 30
0.0
 10
205.6561770501279
 20
79.37425132403897
 30
0.0
 10
205.5577045000588
 20
79.39757648547521
 30
0.0
 10
205.5186678880741
 20
79.4122892753069
 30
0.0
 10
205.4187714212951
 20
79.46024507603782
 30
0.0
 10
205.3763505402284
 20
79.49650723261789
 30
0.0
 10
205.3453930089105
 20
79.53409489658239
 30
0.0
  0
ELLIPSE
  5
105
330
1F
100
AcDbEntity
  8
0
  6
HIDDEN
 62
     7
370
     0
100
AcDbEllipse
 10
221.5978030866
 20
109.4348373567
 30
0.0
 11
14.7536831606561
 21
31.09325491558119
 31
0.0
210
0.0
220
0.0
230
1.0
 40
0.3419987131
 41
2.051689083818818
 42
2.982450450962491
  0
SPLINE
  5
106
330
1F
100
AcDbEntity
  8
0
  6
HIDDEN
 62
     7
370
     0
100
AcDbSpline
210
0.0
220
0.0
230
1.0
 70
     8
 71
     3
 72
    60
 73
    56
 74
     0
 42
0.00000001
 43
0.00000001
 12
1.0
 22
0.0
 32
0.0
 13
1.0
 23
0.0
 33
0.0
 40
-0.0624999999999997
 40
-0.0624999999999997
 40
0.0
 40
0.0
 40
0.0312500000000002
 40
0.0312500000000002
 40
0.0625000000000003
 40
0.0625000000000003
 40
0.0937500000000005
 40
0.0937500000000005
 40
0.1250000000000007
 40
0.1250000000000007
 40
0.1875000000000011
 40
0.1875000000000011
 40
0.2500000000000014
 40
0.2500000000000014
 40
0.2812500000000013
 40
0.2812500000000013
 40
0.3125000000000013
 40
0.3125000000000013
 40
0.3437500000000012
 40
0.3437500000000012
 40
0.3750000000000012
 40
0.3750000000000012
 40
0.4062500000000012
 40
0.4062500000000012
 40
0.4375000000000011
 40
0.4375000000000011
 40
0.4687500000000011
 40
0.4687500000000011
 40
0.500000000000001
 40
0.500000000000001
 40
0.5625000000000009
 40
0.5625000000000009
 40
0.6250000000000008
 40
0.6250000000000008
 40
0.6562500000000008
 40
0.6562500000000008
 40
0.6875000000000007
 40
0.6875000000000007
 40
0.7187500000000007
 40
0.7187500000000007
 40
0.7500000000000006
 40
0.7500000000000006
 40
0.7812500000000006
 40
0.7812500000000006
 40
0.8125000000000006
 40
0.8125000000000006
 40
0.8437500000000004
 40
0.8437500000000004
 40
0.8750000000000004
 40
0.8750000000000004
 40
0.9062500000000003
 40
0.9062500000000003
 40
0.9375000000000003
 40
0.9375000000000003
 40
1.0
 40
1.0
 40
1.03125
 40
1.03125
 10
209.2506488972362
 20
109.1705068316129
 30
0.0
 10
209.2506488972362
 20
109.567002619243
 30
0.0
 10
209.2376770387474
 20
109.6969526802471
 30
0.0
 10
209.186856869055
 20
109.9526056136072
 30
0.0
 10
209.1483895455881
 20
110.0796351201565
 30
0.0
 10
209.047991309516
 20
110.321823251281
 30
0.0
 10
208.9865582785428
 20
110.4366847438339
 30
0.0
 10
208.8414234469979
 20
110.654064939658
 30
0.0
 10
208.75696832959
 20
110.7569625068567
 30
0.0
 10
208.4802488792317
 20
111.0336295458644
 30
0.0
 10
208.2571719873137
 20
111.1826276363444
 30
0.0
 10
207.7758886250934
 20
111.3821387768091
 30
0.0
 10
207.5126582061023
 20
111.4346968798058
 30
0.0
 10
207.1212560044144
 20
111.4349071621839
 30
0.0
 10
206.9887329763056
 20
111.4219213914568
 30
0.0
 10
206.7322025230645
 20
111.370894243243
 30
0.0
 10
206.6075156887679
 20
111.3331390440925
 30
0.0
 10
206.3653364265324
 20
111.2330007111838
 30
0.0
 10
206.2482428943823
 20
111.1703950437723
 30
0.0
 10
206.0315278910269
 20
111.0256617505073
 30
0.0
 10
205.9305090641641
 20
110.9430344032277
 30
0.0
 10
205.743724176712
 20
110.7564293499762
 30
0.0
 10
205.6608672955158
 20
110.6553142861
 30
0.0
 10
205.515983030442
 20
110.4387814821102
 30
0.0
 10
205.453345522621
 20
110.321911274509
 30
0.0
 10
205.3528966992213
 20
110.0796134038589
 30
0.0
 10
205.315045598204
 20
109.9549494053979
 30
0.0
 10
205.2638240329477
 20
109.698662361334
 30
0.0
 10
205.2506959063305
 20
109.5660903655885
 30
0.0
 10
205.2505552659902
 20
109.1744861728145
 30
0.0
 10
205.3028800153621
 20
108.9113208414905
 30
0.0
 10
205.5019910774193
 20
108.4298154723174
 30
0.0
 10
205.6508534138766
 20
108.2065639328333
 30
0.0
 10
205.9271743732021
 20
107.9297076339444
 30
0.0
 10
206.0299380215756
 20
107.8451941871007
 30
0.0
 10
206.2473215789551
 20
107.6997769136604
 30
0.0
 10
206.3621203469116
 20
107.6382657146021
 30
0.0
 10
206.6039970703356
 20
107.5377358663472
 30
0.0
 10
206.7311506783358
 20
107.4990908431292
 30
0.0
 10
206.9868166877684
 20
107.4480345155783
 30
0.0
 10
207.1166827255244
 20
107.4349696570326
 30
0.0
 10
207.3806352522561
 20
107.4347070362347
 30
0.0
 10
207.5110395756801
 20
107.4475840364787
 30
0.0
 10
207.7666903390594
 20
107.4981700402845
 30
0.0
 10
207.8935558881738
 20
107.5364464049064
 30
0.0
 10
208.1360763461197
 20
107.6367172723864
 30
0.0
 10
208.25100298478
 20
107.6980732965273
 30
0.0
 10
208.4683744536121
 20
107.8429195917001
 30
0.0
 10
208.5713882662743
 20
107.9272971061947
 30
0.0
 10
208.7560888118562
 20
108.111704426383
 30
0.0
 10
208.8389185461128
 20
108.2122774896524
 30
0.0
 10
208.9851709847103
 20
108.4305036302314
 30
0.0
 10
209.0475394655027
 20
108.5470587401527
 30
0.0
 10
209.1974956170694
 20
108.9079083341864
 30
0.0
 10
209.2506488972362
 20
109.1705068316129
 30
0.0
 10
209.2506488972362
 20
109.567002619243
 30
0.0
  0
LINE
  5
107
330
1F
100
AcDbEntity
  8
0
  6
HIDDEN
 62
     7
370
     0
100
AcDbLine
 10
195.2506488972
 20
140.4348373499
 30
0.0
 11
195.2506488972
 21
78.4348373567
 31
0.0
  0
LWPOLYLINE
  5
108
330
1F
100
AcDbEntity
  8
0
  6
HIDDEN
 62
     7
370
     0
100
AcDbPolyline
 90
       20
 70
   128
 43
0.0
 10
214.0133010262
 20
123.4156481141
 10
213.9586185415
 20
123.3611271992
 10
213.5821317126
 20
122.8719607818
 10
213.342269221
 20
122.32201531
 10
213.2513116898
 20
121.7394472207
 10
213.3139160171
 20
121.1540831829
 10
213.5268769491
 20
120.5958930144
 10
213.8792911847
 20
120.0934552689
 10
214.3531156093
 20
119.6724940545
 10
214.924091077
 20
119.3545619948
 10
215.5629844446
 20
119.1559367654
 10
216.2370852678
 20
119.0867876996
 10
216.9118805297
 20
119.1506551324
 10
217.5528216594
 20
119.3442691408
 10
218.12709337
 20
119.6577169593
 10
218.6052937553
 20
120.0749504991
 10
218.9629396263
 20
120.5746079882
 10
219.1817200159
 20
121.1311076638
 10
219.2504336751
 20
121.715957523
 10
219.2504336751
 20
121.715957523
  0
SPLINE
  5
109
330
1F
100
AcDbEntity
  8
0
  6
HIDDEN
 62
     7
370
     0
100
AcDbSpline
210
0.0
220
0.0
230
1.0
 70
     8
 71
     3
 72
    15
 73
    11
 74
     0
 42
0.00000001
 43
0.00000001
 12
1.0
 22
0.0
 32
0.0
 13
1.0
 23
0.0
 33
0.0
 40
0.0
 40
0.0
 40
0.0
 40
0.0
 40
0.0572383347993766
 40
0.2158592462908945
 40
0.2972513806545863
 40
0.3792078634113053
 40
0.5394002128763771
 40
0.7030560200201558
 40
0.8506565165384925
 40
1.0
 40
1.0
 40
1.0
 40
1.0
 10
218.5986195156826
 20
123.540631941347
 30
0.0
 10
218.6230462853939
 20
123.5163972051706
 30
0.0
 10
218.7151653890978
 20
123.4250023051716
 30
0.0
 10
218.8263134015009
 20
123.2733539162926
 30
0.0
 10
218.9316487433551
 20
123.0950649803371
 30
0.0
 10
219.0253726403591
 20
122.9049692593147
 30
0.0
 10
219.1206586647553
 20
122.6502336871767
 30
0.0
 10
219.1958365920443
 20
122.3377659177667
 30
0.0
 10
219.2402349782892
 20
122.0238799469614
 30
0.0
 10
219.2470208324252
 20
121.8189991972737
 30
0.0
 10
219.250433675127
 20
121.7159575230339
 30
0.0
  0
LINE
  5
10A
330
1F
100
AcDbEntity
  8
0
  6
HIDDEN
 62
     7
370
     0
100
AcDbLine
 10
195.2506488972
 20
85.1848373567
 30
0.0
 11
195.2506488972
 21
133.6848373567
 31
0.0
  0
SPLINE
  5
10B
330
1F
100
AcDbEntity
  8
0
  6
HIDDEN
 62
     7
370
     0
100
AcDbSpline
210
0.0
220
0.0
230
1.0
 70
     8
 71
     3
 72
    12
 73
     8
 74
     0
 42
0.00000001
 43
0.00000001
 12
1.0
 22
0.0
 32
0.0
 13
1.0
 23
0.0
 33
0.0
 40
0.0
 40
0.0
 40
0.0
 40
0.0
 40
0.5000000000000003
 40
0.5000000000000003
 40
0.75
 40
0.75
 40
1.0
 40
1.0
 40
1.0
 40
1.0
 10
194.4341366107892
 20
124.8871053385305
 30
0.0
 10
194.4905427894695
 20
124.8392829648707
 30
0.0
 10
194.5607056909412
 20
124.7990121179321
 30
0.0
 10
194.6787164043304
 20
124.7909662494552
 30
0.0
 10
194.7189221879259
 20
124.7975288477941
 30
0.0
 10
194.7926428846589
 20
124.8249109422477
 30
0.0
 10
194.8255036064454
 20
124.844672432778
 30
0.0
 10
194.8556720083747
 20
124.8676051439661
 30
0.0
  0
SPLINE
  5
10C
330
1F
100
AcDbEntity
  8
0
  6
HIDDEN
 62
     7
370
     0
100
AcDbSpline
210
0.0
220
0.0
230
1.0
 70
     8
 71
     3
 72
    16
 73
    12
 74
     0
 42
0.00000001
 43
0.00000001
 12
1.0
 22
0.0
 32
0.0
 13
1.0
 23
0.0
 33
0.0
 40
0.0
 40
0.0
 40
0.0
 40
0.0
 40
0.0625000000000013
 40
0.0625000000000013
 40
0.1250000000000026
 40
0.1250000000000026
 40
0.2499999999999988
 40
0.2499999999999988
 40
0.4999999999999973
 40
0.4999999999999973
 40
1.0
 40
1.0
 40
1.0
 40
1.0
 10
194.8556720083296
 20
124.8676051440141
 30
0.0
 10
194.8672849081689
 20
124.8764327669956
 30
0.0
 10
194.8806360926014
 20
124.8842671488775
 30
0.0
 10
194.9100359322206
 20
124.8925772749498
 30
0.0
 10
194.9248766567759
 20
124.8920814557148
 30
0.0
 10
194.9607098647445
 20
124.8806304847455
 30
0.0
 10
194.9748230725661
 20
124.8639499838868
 30
0.0
 10
195.009314443785
 20
124.8118292981298
 30
0.0
 10
195.0203985148954
 20
124.7720398041048
 30
0.0
 10
195.0465213326914
 20
124.6487031720077
 30
0.0
 10
195.0506488972362
 20
124.561281761509
 30
0.0
 10
195.0506488972362
 20
124.4725445191908
 30
0.0
  0
LINE
  5
10D
330
1F
100
AcDbEntity
  8
0
  6
HIDDEN
 62
     7
370
     0
100
AcDbLine
 10
195.0506488972
 20
94.3971301942
 30
0.0
 11
195.0506488972
 21
124.4725445192
 31
0.0
  0
SPLINE
  5
10E
330
1F
100
AcDbEntity
  8
0
  6
HIDDEN
 62
     7
370
     0
100
AcDbSpline
210
0.0
220
0.0
230
1.0
 70
     8
 71
     3
 72
    16
 73
    12
 74
     0
 42
0.00000001
 43
0.00000001
 12
1.0
 22
0.0
 32
0.0
 13
1.0
 23
0.0
 33
0.0
 40
0.0
 40
0.0
 40
0.0
 40
0.0
 40
0.5000000000000098
 40
0.5000000000000098
 40
0.750000000000007
 40
0.750000000000007
 40
0.8750000000000003
 40
0.8750000000000003
 40
0.9375000000000002
 40
0.9375000000000002
 40
1.0
 40
1.0
 40
1.0
 40
1.0
 10
195.0506488972362
 20
94.39713019420843
 30
0.0
 10
195.0506488972362
 20
94.30800382901967
 30
0.0
 10
195.0465026221583
 20
94.22114246140626
 30
0.0
 10
195.0205370267647
 20
94.09816021491221
 30
0.0
 10
195.0090761213873
 20
94.05738891968093
 30
0.0
 10
194.9747643836129
 20
94.00568459968116
 30
0.0
 10
194.9607396476833
 20
93.98901423309076
 30
0.0
 10
194.9247166846495
 20
93.97756201263402
 30
0.0
 10
194.9099621755598
 20
93.97710896635903
 30
0.0
 10
194.880610014413
 20
93.98542428757517
 30
0.0
 10
194.8672701399089
 20
93.99325317265344
 30
0.0
 10
194.8556720083606
 20
94.00206956941608
 30
0.0
  0
SPLINE
  5
10F
330
1F
100
AcDbEntity
  8
0
  6
HIDDEN
 62
     7
370
     0
100
AcDbSpline
210
0.0
220
0.0
230
1.0
 70
     8
 71
     3
 72
    12
 73
     8
 74
     0
 42
0.00000001
 43
0.00000001
 12
1.0
 22
0.0
 32
0.0
 13
1.0
 23
0.0
 33
0.0
 40
0.0
 40
0.0
 40
0.0
 40
0.0
 40
0.2499999999999996
 40
0.2499999999999996
 40
0.4999999999999994
 40
0.4999999999999994
 40
1.0
 40
1.0
 40
1.0
 40
1.0
 10
194.8556720083676
 20
94.002069569425
 30
0.0
 10
194.8254801666504
 20
94.02502009852282
 30
0.0
 10
194.7921211972358
 20
94.04498957254701
 30
0.0
 10
194.7189839126552
 20
94.0720907061725
 30
0.0
 10
194.6787420400013
 20
94.07869144681793
 30
0.0
 10
194.5610362630328
 20
94.07072257231123
 30
0.0
 10
194.4906257852534
 20
94.03046211414338
 30
0.0
 10
194.4341366107851
 20
93.98256937486522
 30
0.0
  0
SPLINE
  5
110
330
1F
100
AcDbEntity
  8
0
  6
HIDDEN
 62
     7
370
     0
100
AcDbSpline
210
0.0
220
0.0
230
1.0
 70
     8
 71
     3
 72
    12
 73
     8
 74
     0
 42
0.00000001
 43
0.00000001
 12
1.0
 22
0.0
 32
0.0
 13
1.0
 23
0.0
 33
0.0
 40
0.0
 40
0.0
 40
0.0
 40
0.0
 40
0.2499999999999999
 40
0.2499999999999999
 40
0.4999999999999999
 40
0.4999999999999999
 40
1.0
 40
1.0
 40
1.0
 40
1.0
 10
194.4341366107847
 20
93.98256937486543
 30
0.0
 10
194.345982673047
 20
93.90783056701136
 30
0.0
 10
194.2856292484182
 20
93.81685006652896
 30
0.0
 10
194.1793672903514
 20
93.62793624377636
 30
0.0
 10
194.1371351237893
 20
93.53143178423578
 30
0.0
 10
194.0260644284722
 20
93.24066403006861
 30
0.0
 10
193.9731276520453
 20
93.04499721552487
 30
0.0
 10
193.9293285536766
 20
92.85093073045856
 30
0.0
  0
SPLINE
  5
111
330
1F
100
AcDbEntity
  8
0
  6
HIDDEN
 62
     7
370
     0
100
AcDbSpline
210
0.0
220
0.0
230
1.0
 70
     8
 71
     3
 72
    12
 73
     8
 74
     0
 42
0.00000001
 43
0.00000001
 12
1.0
 22
0.0
 32
0.0
 13
1.0
 23
0.0
 33
0.0
 40
0.0
 40
0.0
 40
0.0
 40
0.0
 40
0.500000000000001
 40
0.500000000000001
 40
0.7500000000000004
 40
0.7500000000000004
 40
1.0
 40
1.0
 40
1.0
 40
1.0
 10
193.9293285536766
 20
87.66475640169749
 30
0.0
 10
193.9730750945131
 20
87.63816223105631
 30
0.0
 10
194.0259594497446
 20
87.61840200573059
 30
0.0
 10
194.1375265370808
 20
87.59795101550151
 30
0.0
 10
194.1801101336238
 20
87.59269079084505
 30
0.0
 10
194.2850268607056
 20
87.58480799692242
 30
0.0
 10
194.3465604685504
 20
87.58224387174326
 30
0.0
 10
194.4341366107765
 20
87.58004365422362
 30
0.0
  0
LINE
  5
112
330
1F
100
AcDbEntity
  8
0
  6
HIDDEN
 62
     7
370
     0
100
AcDbLine
 10
195.0506488972
 20
86.8950170778
 30
0.0
 11
195.0506488972
 21
87.3752428685
 31
0.0
  0
LINE
  5
113
330
1F
100
AcDbEntity
  8
0
  6
HIDDEN
 62
     7
370
     0
100
AcDbLine
 10
195.0506488972
 20
131.4944318449
 30
0.0
 11
195.0506488972
 21
131.9746576356
 31
0.0
  0
SPLINE
  5
114
330
1F
100
AcDbEntity
  8
0
  6
HIDDEN
 62
     7
370
     0
100
AcDbSpline
210
0.0
220
0.0
230
1.0
 70
     8
 71
     3
 72
    12
 73
     8
 74
     0
 42
0.00000001
 43
0.00000001
 12
1.0
 22
0.0
 32
0.0
 13
1.0
 23
0.0
 33
0.0
 40
0.0
 40
0.0
 40
0.0
 40
0.0
 40
0.2500000000000004
 40
0.2500000000000004
 40
0.5000000000000008
 40
0.5000000000000008
 40
1.0
 40
1.0
 40
1.0
 40
1.0
 10
194.4341366107845
 20
131.2896310591755
 30
0.0
 10
194.3454519509282
 20
131.2874029918345
 30
0.0
 10
194.2855335352048
 20
131.2849012078042
 30
0.0
 10
194.179874307884
 20
131.2769697719682
 30
0.0
 10
194.1372330697691
 20
131.2716776170713
 30
0.0
 10
194.0260437276665
 20
131.2512726765842
 30
0.0
 10
193.9731170455456
 20
131.2315379849973
 30
0.0
 10
193.9293285536766
 20
131.2049183117017
 30
0.0
  0
SPLINE
  5
115
330
1F
100
AcDbEntity
  8
0
  6
HIDDEN
 62
     7
370
     0
100
AcDbSpline
210
0.0
220
0.0
230
1.0
 70
     8
 71
     3
 72
    12
 73
     8
 74
     0
 42
0.00000001
 43
0.00000001
 12
1.0
 22
0.0
 32
0.0
 13
1.0
 23
0.0
 33
0.0
 40
0.0
 40
0.0
 40
0.0
 40
0.0
 40
0.4999999999999958
 40
0.4999999999999958
 40
0.7499999999999966
 40
0.7499999999999966
 40
1.0
 40
1.0
 40
1.0
 40
1.0
 10
193.929328553675
 20
126.0187439829409
 30
0.0
 10
193.9730900299737
 20
125.8248441949788
 30
0.0
 10
194.0259963456268
 20
125.6289878310419
 30
0.0
 10
194.1377075432741
 20
125.336845684543
 30
0.0
 10
194.1802269868606
 20
125.240127747845
 30
0.0
 10
194.285350329428
 20
125.0534033114206
 30
0.0
 10
194.3469162931456
 20
124.9610526031508
 30
0.0
 10
194.4341366107884
 20
124.8871053385312
 30
0.0
  0
LWPOLYLINE
  5
116
330
1F
100
AcDbEntity
  8
0
  6
HIDDEN
 62
     7
370
     0
100
AcDbPolyline
 90
       16
 70
   128
 43
0.0
 10
214.4729528686
 20
123.0569058885
 10
214.1577794478
 20
122.7188616628
 10
213.8832432995
 20
122.2303542278
 10
213.7577802633
 20
121.6980372578
 10
213.7892906185
 20
121.1554302086
 10
213.9757901902
 20
120.636700492
 10
214.3055352908
 20
120.1745119881
 10
214.7577622083
 20
119.7979682351
 10
215.3039946756
 20
119.5307798083
 10
215.9098369922
 20
119.3897712901
 10
216.5371398863
 20
119.3838218428
 10
217.1464027354
 20
119.513306097
 10
217.6992608804
 20
119.7700705616
 10
218.1609014087
 20
120.1379470404
 10
218.5022552876
 20
120.5937707274
 10
218.5022552876
 20
120.5937707274
  0
SPLINE
  5
117
330
1F
100
AcDbEntity
  8
0
  6
HIDDEN
 62
     7
370
     0
100
AcDbSpline
210
0.0
220
0.0
230
1.0
 70
     8
 71
     3
 72
    10
 73
     6
 74
     0
 42
0.00000001
 43
0.00000001
 12
1.0
 22
0.0
 32
0.0
 13
1.0
 23
0.0
 33
0.0
 40
0.0
 40
0.0
 40
0.0
 40
0.0
 40
0.5
 40
0.5
 40
1.0
 40
1.0
 40
1.0
 40
1.0
 10
219.2504336751267
 20
121.7159575230339
 30
0.0
 10
219.150534621306
 20
121.511827822102
 30
0.0
 10
219.0354904122291
 20
121.3138727297974
 30
0.0
 10
218.7850141400028
 20
120.9394207248033
 30
0.0
 10
218.6488517301731
 20
120.7615646782049
 30
0.0
 10
218.5022552875847
 20
120.5937707273693
 30
0.0
  0
SPLINE
  5
118
330
1F
100
AcDbEntity
  8
0
  6
HIDDEN
 62
     7
370
     0
100
AcDbSpline
210
0.0
220
0.0
230
1.0
 70
     8
 71
     3
 72
    14
 73
    10
 74
     0
 42
0.00000001
 43
0.00000001
 12
1.0
 22
0.0
 32
0.0
 13
1.0
 23
0.0
 33
0.0
 40
0.0
 40
0.0
 40
0.0
 40
0.0
 40
0.4999999999999982
 40
0.4999999999999982
 40
0.6249999999999984
 40
0.6249999999999984
 40
0.7499999999999987
 40
0.7499999999999987
 40
1.0
 40
1.0
 40
1.0
 40
1.0
 10
217.6871023294098
 20
119.6620498611214
 30
0.0
 10
217.5354722298987
 20
119.3294488116515
 30
0.0
 10
217.3920827719214
 20
119.0183968598407
 30
0.0
 10
217.3915491825894
 20
118.6949461698381
 30
0.0
 10
217.4003085676957
 20
118.6335306230293
 30
0.0
 10
217.4322727372959
 20
118.520531937447
 30
0.0
 10
217.4553179974963
 20
118.4683155039056
 30
0.0
 10
217.5381851597642
 20
118.3220271300429
 30
0.0
 10
217.6111511237636
 20
118.2378885027067
 30
0.0
 10
217.6871023294098
 20
118.163643389065
 30
0.0
  0
SPLINE
  5
119
330
1F
100
AcDbEntity
  8
0
  6
HIDDEN
 62
     7
370
     0
100
AcDbSpline
210
0.0
220
0.0
230
1.0
 70
     8
 71
     3
 72
    12
 73
     8
 74
     0
 42
0.00000001
 43
0.00000001
 12
1.0
 22
0.0
 32
0.0
 13
1.0
 23
0.0
 33
0.0
 40
0.0
 40
0.0
 40
0.0
 40
0.0
 40
0.4999999999999986
 40
0.4999999999999986
 40
0.7499999999999992
 40
0.7499999999999992
 40
1.0
 40
1.0
 40
1.0
 40
1.0
 10
218.502255287585
 20
120.5937707273693
 30
0.0
 10
218.4140744320135
 20
120.3940672528604
 30
0.0
 10
218.3025040954554
 20
120.2067075290316
 30
0.0
 10
218.095047654448
 20
119.9634976848371
 30
0.0
 10
218.0207492104425
 20
119.8907096062724
 30
0.0
 10
217.8616359894487
 20
119.7628097363878
 30
0.0
 10
217.776046939593
 20
119.7073709892638
 30
0.0
 10
217.6871023294101
 20
119.6620498611232
 30
0.0
  0
SPLINE
  5
11A
330
1F
100
AcDbEntity
  8
0
  6
HIDDEN
 62
     7
370
     0
100
AcDbSpline
210
0.0
220
0.0
230
1.0
 70
     8
 71
     3
 72
    34
 73
    30
 74
     0
 42
0.00000001
 43
0.00000001
 12
1.0
 22
0.0
 32
0.0
 13
1.0
 23
0.0
 33
0.0
 40
0.0
 40
0.0
 40
0.0
 40
0.0
 40
0.0401477668132646
 40
0.0819498145174282
 40
0.1220634929803477
 40
0.1631939462119875
 40
0.1951011795360884
 40
0.2272490172406302
 40
0.260056096486714
 40
0.2930741370001123
 40
0.3257779953177839
 40
0.3587233105310327
 40
0.3925387314663747
 40
0.4267183239551086
 40
0.4704773806343695
 40
0.5154072678609956
 40
0.5592133975886415
 40
0.6045239680035228
 40
0.6449876718616405
 40
0.6864917892886606
 40
0.7298502600911473
 40
0.7740870366661535
 40
0.8063834062760065
 40
0.8389235596002342
 40
0.8721591782006287
 40
0.9056154994825113
 40
0.9586201070746551
 40
0.9856509983283499
 40
1.0
 40
1.0
 40
1.0
 40
1.0
 10
217.6871023294098
 20
118.163643389065
 30
0.0
 10
217.7654147050067
 20
118.2205529468349
 30
0.0
 10
217.9252663023431
 20
118.3367170095884
 30
0.0
 10
218.1354760332838
 20
118.5099991275872
 30
0.0
 10
218.316337306117
 20
118.6773495337779
 30
0.0
 10
218.452336123587
 20
118.8263681751265
 30
0.0
 10
218.5549168278058
 20
118.9635857737744
 30
0.0
 10
218.6309459209769
 20
119.090941698681
 30
0.0
 10
218.6894230872799
 20
119.2225008087032
 30
0.0
 10
218.7295329097136
 20
119.3591012745695
 30
0.0
 10
218.7506810780853
 20
119.5013580270794
 30
0.0
 10
218.7522154933729
 20
119.6511219858539
 30
0.0
 10
218.7324687883691
 20
119.8102254890088
 30
0.0
 10
218.6855043314125
 20
119.9944966612599
 30
0.0
 10
218.6009667761427
 20
120.2069244953425
 30
0.0
 10
218.4688288423823
 20
120.4452640264934
 30
0.0
 10
218.2959786002649
 20
120.6906422434485
 30
0.0
 10
218.0964257038099
 20
120.9257119061183
 30
0.0
 10
217.8782642198253
 20
121.1481924175536
 30
0.0
 10
217.6502962606168
 20
121.3555729151702
 30
0.0
 10
217.4094256318228
 20
121.5542525564148
 30
0.0
 10
217.1865480436205
 20
121.7238762894195
 30
0.0
 10
216.9888573730218
 20
121.8669865211382
 30
0.0
 10
216.816882803604
 20
121.9880268685429
 30
0.0
 10
216.6509538214333
 20
122.1037775502219
 30
0.0
 10
216.4630250882228
 20
122.2368744538659
 30
0.0
 10
216.3054363784054
 20
122.3581401399594
 30
0.0
 10
216.1923340978201
 20
122.458480226291
 30
0.0
 10
216.1534217196048
 20
122.5036791032883
 30
0.0
 10
216.1399283598933
 20
122.5193523860288
 30
0.0
  0
SPLINE
  5
11B
330
1F
100
AcDbEntity
  8
0
  6
HIDDEN
 62
     7
370
     0
100
AcDbSpline
210
0.0
220
0.0
230
1.0
 70
     8
 71
     3
 72
    62
 73
    58
 74
     0
 42
0.00000001
 43
0.00000001
 12
1.0
 22
0.0
 32
0.0
 13
1.0
 23
0.0
 33
0.0
 40
-0.0312499999999999
 40
-0.0312499999999999
 40
0.0
 40
0.0
 40
0.0312500000000006
 40
0.0312500000000006
 40
0.0625000000000012
 40
0.0625000000000012
 40
0.0937500000000018
 40
0.0937500000000018
 40
0.1250000000000024
 40
0.1250000000000024
 40
0.187500000000003
 40
0.187500000000003
 40
0.2187500000000033
 40
0.2187500000000033
 40
0.2500000000000036
 40
0.2500000000000036
 40
0.2812500000000039
 40
0.2812500000000039
 40
0.3125000000000042
 40
0.3125000000000042
 40
0.3750000000000048
 40
0.3750000000000048
 40
0.4062500000000048
 40
0.4062500000000048
 40
0.4375000000000048
 40
0.4375000000000048
 40
0.4687500000000048
 40
0.4687500000000048
 40
0.5000000000000048
 40
0.5000000000000048
 40
0.5625000000000041
 40
0.5625000000000041
 40
0.5937500000000037
 40
0.5937500000000037
 40
0.6250000000000032
 40
0.6250000000000032
 40
0.6562500000000029
 40
0.6562500000000029
 40
0.6875000000000024
 40
0.6875000000000024
 40
0.7187500000000021
 40
0.7187500000000021
 40
0.7500000000000017
 40
0.7500000000000017
 40
0.7812500000000012
 40
0.7812500000000012
 40
0.8125000000000009
 40
0.8125000000000009
 40
0.8750000000000002
 40
0.8750000000000002
 40
0.9062500000000002
 40
0.9062500000000002
 40
0.9375000000000001
 40
0.9375000000000001
 40
0.9687500000000001
 40
0.9687500000000001
 40
1.0
 40
1.0
 40
1.031250000000001
 40
1.031250000000001
 10
216.0846050783002
 20
111.5926779636861
 30
0.0
 10
216.4166927161725
 20
111.5926779636861
 30
0.0
 10
216.5797894467496
 20
111.6092516077416
 30
0.0
 10
216.9003857516581
 20
111.6737401785701
 30
0.0
 10
217.0595879549645
 20
111.7224842040286
 30
0.0
 10
217.3618984566786
 20
111.8480617475985
 30
0.0
 10
217.5051500309231
 20
111.9244360759192
 30
0.0
 10
217.7762608719902
 20
112.1030198663487
 30
0.0
 10
217.903942867119
 20
112.2056217908351
 30
0.0
 10
218.2479429553343
 20
112.5380587131776
 30
0.0
 10
218.4339445839186
 20
112.8013150544742
 30
0.0
 10
218.6214310971002
 20
113.215859380783
 30
0.0
 10
218.6699030418524
 20
113.3596162927609
 30
0.0
 10
218.734465021266
 20
113.648231760229
 30
0.0
 10
218.750543521486
 20
113.7914411812693
 30
0.0
 10
218.7507532503997
 20
114.0754640215078
 30
0.0
 10
218.7343217029888
 20
114.2174300258858
 30
0.0
 10
218.6701530128364
 20
114.4869398141799
 30
0.0
 10
218.622684050045
 20
114.6158578230821
 30
0.0
 10
218.4335605660908
 20
114.9860507956246
 30
0.0
 10
218.2494206737246
 20
115.2012231307351
 30
0.0
 10
217.9026850899207
 20
115.4667269446234
 30
0.0
 10
217.7773681337689
 20
115.5443382585737
 30
0.0
 10
217.507308630969
 20
115.6796021179065
 30
0.0
 10
217.3609352550878
 20
115.7375722886672
 30
0.0
 10
217.0595173520342
 20
115.8294521643116
 30
0.0
 10
216.9036651905953
 20
115.8640498201318
 30
0.0
 10
216.5813221292789
 20
115.9109114371457
 30
0.0
 10
216.4153706622094
 20
115.9227537510779
 30
0.0
 10
215.9244492946582
 20
115.9229069395472
 30
0.0
 10
215.5939663075555
 20
115.875654666737
 30
0.0
 10
215.1420568099569
 20
115.7381818081442
 30
0.0
 10
214.9957595925776
 20
115.6803875032801
 30
0.0
 10
214.7248760300213
 20
115.5449126157312
 30
0.0
 10
214.5995195078634
 20
115.4673038099222
 30
0.0
 10
214.3687418663742
 20
115.2908256742819
 30
0.0
 10
214.2639539863042
 20
115.1919415122412
 30
0.0
 10
214.0832903621221
 20
114.9794837719437
 30
0.0
 10
214.0061018649267
 20
114.8650106501125
 30
0.0
 10
213.8792384606355
 20
114.6174686004192
 30
0.0
 10
213.8315771067032
 20
114.4881615548564
 30
0.0
 10
213.7673467396406
 20
114.2195733937235
 30
0.0
 10
213.7507135257615
 20
114.0784278502244
 30
0.0
 10
213.7505846507501
 20
113.7929395271828
 30
0.0
 10
213.7666656298789
 20
113.6496735393593
 30
0.0
 10
213.8306330423473
 20
113.3623368157151
 30
0.0
 10
213.8791970925909
 20
113.2175684959846
 30
0.0
 10
214.0669279346335
 20
112.8018014162728
 30
0.0
 10
214.2528737721291
 20
112.5386734906208
 30
0.0
 10
214.5966489942335
 20
112.206229363362
 30
0.0
 10
214.7238242986011
 20
112.1039037076389
 30
0.0
 10
214.9954667078757
 20
111.9248002137767
 30
0.0
 10
215.1386258788228
 20
111.8484856658943
 30
0.0
 10
215.4397528213607
 20
111.7231954319999
 30
0.0
 10
215.5992690500522
 20
111.6741398306858
 30
0.0
 10
215.921134942284
 20
111.6092579899549
 30
0.0
 10
216.0846050783002
 20
111.5926779636861
 30
0.0
 10
216.4166927161725
 20
111.5926779636861
 30
0.0
  0
LWPOLYLINE
  5
11C
330
1F
100
AcDbEntity
  8
0
  6
HIDDEN
 62
     7
370
     0
100
AcDbPolyline
 90
        9
 70
   128
 43
0.0
 10
217.6871023294
 20
119.6620498611
 10
217.8302607263
 20
119.3546260059
 10
217.9352352004
 20
119.0690001959
 10
217.9993214699
 20
118.8125305319
 10
218.0208685872
 20
118.5918240131
 10
217.9993214699
 20
118.4125663329
 10
217.9352352004
 20
118.2793754074
 10
217.8302607263
 20
118.1956824118
 10
217.6871023294
 20
118.1636433891
  0
LINE
  5
11D
330
1F
100
AcDbEntity
  8
0
  6
HIDDEN
 62
     7
370
     0
100
AcDbLine
 10
195.0506488972
 20
87.3752428685
 30
0.0
 11
195.0506488972
 21
102.4129500309
 31
0.0
  0
LINE
  5
11E
330
1F
100
AcDbEntity
  8
0
  6
HIDDEN
 62
     7
370
     0
100
AcDbLine
 10
195.0506488972
 20
116.4567246824
 30
0.0
 11
195.0506488972
 21
131.4944318449
 31
0.0
  0
CIRCLE
  5
11F
330
1F
100
AcDbEntity
  8
0
  6
HIDDEN
 62
     7
370
     0
100
AcDbCircle
 10
179.7506488972
 20
109.4348373567
 30
0.0
 40
4.049999999999997
  0
LINE
  5
120
330
1F
100
AcDbEntity
  8
0
  6
HIDDEN
 62
     7
370
     0
100
AcDbLine
 10
158.7808773369
 20
124.7477883996
 30
0.0
 11
158.7808773369
 21
94.1218863138
 31
0.0
  0
LINE
  5
121
330
1F
100
AcDbEntity
  8
0
  6
HIDDEN
 62
     7
370
     0
100
AcDbLine
 10
157.2506488972
 20
93.2384085122
 30
0.0
 11
157.2506488972
 21
125.6123524461
 31
0.0
  0
LINE
  5
122
330
1F
100
AcDbEntity
  8
0
  6
HIDDEN
 62
     7
370
     0
100
AcDbLine
 10
165.2808773369
 20
123.7812475182
 30
0.0
 11
165.2808773369
 21
95.0884271952
 31
0.0
  0
LINE
  5
123
330
1F
100
AcDbEntity
  8
0
  6
HIDDEN
 62
     7
370
     0
100
AcDbLine
 10
171.0808773369
 20
123.4348373567
 30
0.0
 11
171.0808773369
 21
95.4348373567
 31
0.0
  0
LINE
  5
124
330
1F
100
AcDbEntity
  8
0
  6
HIDDEN
 62
     7
370
     0
100
AcDbLine
 10
163.6808773369
 20
123.4348373567
 30
0.0
 11
163.6808773369
 21
95.4348373567
 31
0.0
  0
LINE
  5
125
330
1F
100
AcDbEntity
  8
0
  6
HIDDEN
 62
     7
370
     0
100
AcDbLine
 10
164.6808773369
 20
123.4348373567
 30
0.0
 11
164.6808773369
 21
95.4348373567
 31
0.0
  0
SPLINE
  5
126
330
1F
100
AcDbEntity
  8
0
  6
HIDDEN
 62
     7
370
     0
100
AcDbSpline
210
0.0
220
0.0
230
1.0
 70
     8
 71
     3
 72
    10
 73
     6
 74
     0
 42
0.00000001
 43
0.00000001
 12
1.0
 22
0.0
 32
0.0
 13
1.0
 23
0.0
 33
0.0
 40
0.0
 40
0.0
 40
0.0
 40
0.0
 40
0.5
 40
0.5
 40
1.0
 40
1.0
 40
1.0
 40
1.0
 10
183.7506488972363
 20
110.0692662337221
 30
0.0
 10
183.7837963153127
 20
109.8602756327141
 30
0.0
 10
183.8006551606743
 20
109.6487131666925
 30
0.0
 10
183.8006426303266
 20
109.2207244007249
 30
0.0
 10
183.7837276725863
 20
109.0089662963092
 30
0.0
 10
183.7506488972362
 20
108.8004084796771
 30
0.0
  0
LINE
  5
127
330
1F
100
AcDbEntity
  8
0
  6
HIDDEN
 62
     7
370
     0
100
AcDbLine
 10
184.2506488972
 20
122.9348373567
 30
0.0
 11
184.2506488972
 21
95.9348373567
 31
0.0
  0
SPLINE
  5
128
330
1F
100
AcDbEntity
  8
0
  6
HIDDEN
 62
     7
370
     0
100
AcDbSpline
210
0.0
220
0.0
230
1.0
 70
     8
 71
     3
 72
    10
 73
     6
 74
     0
 42
0.00000001
 43
0.00000001
 12
1.0
 22
0.0
 32
0.0
 13
1.0
 23
0.0
 33
0.0
 40
0.0
 40
0.0
 40
0.0
 40
0.0
 40
0.5
 40
0.5
 40
1.0
 40
1.0
 40
1.0
 40
1.0
 10
183.7506488972362
 20
108.8004084796771
 30
0.0
 10
183.7838378597099
 20
109.0096610132596
 30
0.0
 10
183.8005386359646
 20
109.2204777741585
 30
0.0
 10
183.8007580764092
 20
109.6450100553618
 30
0.0
 10
183.7838783610158
 20
109.8597583441344
 30
0.0
 10
183.7506488972362
 20
110.0692662337221
 30
0.0
  0
SPLINE
  5
129
330
1F
100
AcDbEntity
  8
0
  6
HIDDEN
 62
     7
370
     0
100
AcDbSpline
210
0.0
220
0.0
230
1.0
 70
     8
 71
     3
 72
    68
 73
    64
 74
     0
 42
0.00000001
 43
0.00000001
 12
1.0
 22
0.0
 32
0.0
 13
1.0
 23
0.0
 33
0.0
 40
0.0
 40
0.0
 40
0.0
 40
0.0
 40
0.03125
 40
0.03125
 40
0.0625
 40
0.0625
 40
0.09375
 40
0.09375
 40
0.125
 40
0.125
 40
0.15625
 40
0.15625
 40
0.1875
 40
0.1875
 40
0.21875
 40
0.21875
 40
0.25
 40
0.25
 40
0.28125
 40
0.28125
 40
0.3125
 40
0.3125
 40
0.34375
 40
0.34375
 40
0.375
 40
0.375
 40
0.40625
 40
0.40625
 40
0.4375
 40
0.4375
 40
0.46875
 40
0.46875
 40
0.5
 40
0.5
 40
0.5625
 40
0.5625
 40
0.59375
 40
0.59375
 40
0.625
 40
0.625
 40
0.65625
 40
0.65625
 40
0.6875
 40
0.6875
 40
0.71875
 40
0.71875
 40
0.75
 40
0.75
 40
0.78125
 40
0.78125
 40
0.8125
 40
0.8125
 40
0.84375
 40
0.84375
 40
0.875
 40
0.875
 40
0.90625
 40
0.90625
 40
0.9375
 40
0.9375
 40
0.96875
 40
0.96875
 40
1.0
 40
1.0
 40
1.0
 40
1.0
 10
183.7506488972362
 20
108.8004084796771
 30
0.0
 10
183.7106339448866
 20
108.5481188768615
 30
0.0
 10
183.6476921434752
 20
108.3041200264857
 30
0.0
 10
183.4783054814032
 20
107.8317016374232
 30
0.0
 10
183.3706119188177
 20
107.6012882512632
 30
0.0
 10
183.1153271502798
 20
107.1665836554661
 30
0.0
 10
182.9692879198076
 20
106.9639416888148
 30
0.0
 10
182.6410664832483
 20
106.586952398057
 30
0.0
 10
182.4568191954733
 20
106.4112944444796
 30
0.0
 10
182.063859028165
 20
106.1010364755334
 30
0.0
 10
181.8545644312059
 20
105.9650912678835
 30
0.0
 10
181.4096790042685
 20
105.7317011724776
 30
0.0
 10
181.1728814117695
 20
105.6344545660632
 30
0.0
 10
180.6921463428502
 20
105.4877831081919
 30
0.0
 10
180.4459032496675
 20
105.4368907632494
 30
0.0
 10
179.941186469688
 20
105.381363413014
 30
0.0
 10
179.6849917687515
 20
105.377538525944
 30
0.0
 10
179.1826130195514
 20
105.4169623085884
 30
0.0
 10
178.9333633203678
 20
105.4599897577997
 30
0.0
 10
178.4418355228891
 20
105.593694727251
 30
0.0
 10
178.2065399216632
 20
105.6823645731562
 30
0.0
 10
177.7556260270011
 20
105.9013959369336
 30
0.0
 10
177.5380136765377
 20
106.0333975026171
 30
0.0
 10
177.1348065069894
 20
106.33275478362
 30
0.0
 10
176.949195014555
 20
106.4993737110579
 30
0.0
 10
176.6092069441525
 20
106.8664851364854
 30
0.0
 10
176.4541340133296
 20
107.0687888820261
 30
0.0
 10
176.1877909366663
 20
107.4928695616201
 30
0.0
 10
176.0748068359495
 20
107.7160291670863
 30
0.0
 10
175.8899515790186
 20
108.1853844086805
 30
0.0
 10
175.8188108175152
 20
108.431594912016
 30
0.0
 10
175.724850406227
 20
108.9261207383871
 30
0.0
 10
175.7008410762706
 20
109.1770517334791
 30
0.0
 10
175.7002679555981
 20
109.9412971130354
 30
0.0
 10
175.7956670669167
 20
110.4435214150863
 30
0.0
 10
176.0735308591178
 20
111.1510859213587
 30
0.0
 10
176.1866928151983
 20
111.3747921850995
 30
0.0
 10
176.4528239972422
 20
111.7990620964201
 30
0.0
 10
176.6076517714419
 20
112.0013140584762
 30
0.0
 10
176.9478328772298
 20
112.3690247998443
 30
0.0
 10
177.1333353341795
 20
112.5356416750937
 30
0.0
 10
177.5356291352388
 20
112.8346910538891
 30
0.0
 10
177.7536371834908
 20
112.9671477619175
 30
0.0
 10
178.2042355506411
 20
113.1863541626222
 30
0.0
 10
178.4387845495219
 20
113.2748392926258
 30
0.0
 10
178.9272445430742
 20
113.4083255225645
 30
0.0
 10
179.1795099387881
 20
113.4522672350582
 30
0.0
 10
179.6816905769483
 20
113.4920762315317
 30
0.0
 10
179.9341726943
 20
113.4887320187182
 30
0.0
 10
180.4420377373696
 20
113.4335526987277
 30
0.0
 10
180.6895832105533
 20
113.3825067702583
 30
0.0
 10
181.1705507480241
 20
113.2360963820227
 30
0.0
 10
181.4065106131293
 20
113.1394501772491
 30
0.0
 10
181.8530810626509
 20
112.905545232936
 30
0.0
 10
182.0627259252244
 20
112.7694202191095
 30
0.0
 10
182.4557126319789
 20
112.4593659547804
 30
0.0
 10
182.6401085357939
 20
112.2837087072053
 30
0.0
 10
182.9686589536543
 20
111.9065687845409
 30
0.0
 10
183.1146010501774
 20
111.7041025792711
 30
0.0
 10
183.3694864053796
 20
111.2705262811377
 30
0.0
 10
183.4777977181879
 20
111.0392344375562
 30
0.0
 10
183.6476326956049
 20
110.5658747574229
 30
0.0
 10
183.7106280567419
 20
110.3215929606022
 30
0.0
 10
183.7506488972363
 20
110.0692662337221
 30
0.0
  0
SPLINE
  5
12A
330
1F
100
AcDbEntity
  8
0
  6
HIDDEN
 62
     7
370
     0
100
AcDbSpline
210
0.0
220
0.0
230
1.0
 70
     8
 71
     3
 72
    68
 73
    64
 74
     0
 42
0.00000001
 43
0.00000001
 12
1.0
 22
0.0
 32
0.0
 13
1.0
 23
0.0
 33
0.0
 40
0.0
 40
0.0
 40
0.0
 40
0.0
 40
0.0312499999999999
 40
0.0312499999999999
 40
0.0624999999999998
 40
0.0624999999999998
 40
0.0937499999999998
 40
0.0937499999999998
 40
0.1249999999999997
 40
0.1249999999999997
 40
0.1562499999999997
 40
0.1562499999999997
 40
0.1874999999999996
 40
0.1874999999999996
 40
0.2187499999999996
 40
0.2187499999999996
 40
0.2499999999999995
 40
0.2499999999999995
 40
0.2812499999999994
 40
0.2812499999999994
 40
0.3124999999999994
 40
0.3124999999999994
 40
0.3437499999999994
 40
0.3437499999999994
 40
0.3749999999999994
 40
0.3749999999999994
 40
0.4062499999999993
 40
0.4062499999999993
 40
0.4374999999999993
 40
0.4374999999999993
 40
0.4687499999999993
 40
0.4687499999999993
 40
0.4999999999999993
 40
0.4999999999999993
 40
0.5624999999999992
 40
0.5624999999999992
 40
0.5937499999999992
 40
0.5937499999999992
 40
0.6249999999999991
 40
0.6249999999999991
 40
0.656249999999999
 40
0.656249999999999
 40
0.6874999999999989
 40
0.6874999999999989
 40
0.7187499999999989
 40
0.7187499999999989
 40
0.7499999999999988
 40
0.7499999999999988
 40
0.7812499999999989
 40
0.7812499999999989
 40
0.812499999999999
 40
0.812499999999999
 40
0.8437499999999992
 40
0.8437499999999992
 40
0.8749999999999993
 40
0.8749999999999993
 40
0.9062499999999994
 40
0.9062499999999994
 40
0.9374999999999996
 40
0.9374999999999996
 40
0.9687499999999998
 40
0.9687499999999998
 40
1.0
 40
1.0
 40
1.0
 40
1.0
 10
183.7506488972362
 20
110.0692662337221
 30
0.0
 10
183.7106339448866
 20
110.3215558365377
 30
0.0
 10
183.6476921434752
 20
110.5655546869135
 30
0.0
 10
183.4783054814032
 20
111.037973075976
 30
0.0
 10
183.3706119188177
 20
111.268386462136
 30
0.0
 10
183.1153271502798
 20
111.7030910579331
 30
0.0
 10
182.9692879198076
 20
111.9057330245844
 30
0.0
 10
182.6410664832483
 20
112.2827223153422
 30
0.0
 10
182.4568191954733
 20
112.4583802689196
 30
0.0
 10
182.063859028165
 20
112.7686382378658
 30
0.0
 10
181.8545644312059
 20
112.9045834455157
 30
0.0
 10
181.4096790042685
 20
113.1379735409216
 30
0.0
 10
181.1728814117695
 20
113.235220147336
 30
0.0
 10
180.6921463428502
 20
113.3818916052074
 30
0.0
 10
180.4459032496675
 20
113.4327839501498
 30
0.0
 10
179.941186469688
 20
113.4883113003852
 30
0.0
 10
179.6849917687515
 20
113.4921361874552
 30
0.0
 10
179.1826130195514
 20
113.4527124048108
 30
0.0
 10
178.9333633203678
 20
113.4096849555995
 30
0.0
 10
178.4418355228891
 20
113.2759799861482
 30
0.0
 10
178.2065399216632
 20
113.1873101402431
 30
0.0
 10
177.7556260270011
 20
112.9682787764656
 30
0.0
 10
177.5380136765377
 20
112.8362772107821
 30
0.0
 10
177.1348065069894
 20
112.5369199297792
 30
0.0
 10
176.949195014555
 20
112.3703010023413
 30
0.0
 10
176.6092069441525
 20
112.0031895769138
 30
0.0
 10
176.4541340133296
 20
111.8008858313731
 30
0.0
 10
176.1877909366663
 20
111.3768051517791
 30
0.0
 10
176.0748068359495
 20
111.1536455463129
 30
0.0
 10
175.8899515790186
 20
110.6842903047187
 30
0.0
 10
175.8188108175152
 20
110.4380798013832
 30
0.0
 10
175.724850406227
 20
109.9435539750121
 30
0.0
 10
175.7008410762706
 20
109.6926229799201
 30
0.0
 10
175.7002679555981
 20
108.9283776003638
 30
0.0
 10
175.7956670669167
 20
108.4261532983129
 30
0.0
 10
176.0735308591178
 20
107.7185887920405
 30
0.0
 10
176.1866928151983
 20
107.4948825282997
 30
0.0
 10
176.4528239972422
 20
107.0706126169791
 30
0.0
 10
176.6076517714419
 20
106.8683606549231
 30
0.0
 10
176.9478328772298
 20
106.5006499135549
 30
0.0
 10
177.1333353341795
 20
106.3340330383055
 30
0.0
 10
177.5356291352388
 20
106.0349836595101
 30
0.0
 10
177.7536371834908
 20
105.9025269514817
 30
0.0
 10
178.2042355506411
 20
105.683320550777
 30
0.0
 10
178.4387845495219
 20
105.5948354207734
 30
0.0
 10
178.9272445430742
 20
105.4613491908348
 30
0.0
 10
179.1795099387881
 20
105.417407478341
 30
0.0
 10
179.6816905769483
 20
105.3775984818675
 30
0.0
 10
179.9341726943
 20
105.380942694681
 30
0.0
 10
180.4420377373695
 20
105.4361220146715
 30
0.0
 10
180.6895832105533
 20
105.4871679431409
 30
0.0
 10
181.1705507480241
 20
105.6335783313765
 30
0.0
 10
181.4065106131293
 20
105.7302245361501
 30
0.0
 10
181.8530810626509
 20
105.9641294804632
 30
0.0
 10
182.0627259252244
 20
106.1002544942897
 30
0.0
 10
182.4557126319789
 20
106.4103087586188
 30
0.0
 10
182.6401085357939
 20
106.5859660061939
 30
0.0
 10
182.9686589536543
 20
106.9631059288583
 30
0.0
 10
183.1146010501774
 20
107.1655721341282
 30
0.0
 10
183.3694864053796
 20
107.5991484322615
 30
0.0
 10
183.4777977181879
 20
107.830440275843
 30
0.0
 10
183.6476326956049
 20
108.3037999559763
 30
0.0
 10
183.7106280567419
 20
108.548081752797
 30
0.0
 10
183.7506488972363
 20
108.8004084796771
 30
0.0
  0
LINE
  5
12B
330
1F
100
AcDbEntity
  8
0
  6
HIDDEN
 62
     7
370
     0
100
AcDbLine
 10
185.5006488972
 20
118.4348373567
 30
0.0
 11
185.5006488972
 21
100.4348373567
 31
0.0
  0
LINE
  5
12C
330
1F
100
AcDbEntity
  8
0
  6
HIDDEN
 62
     7
370
     0
100
AcDbLine
 10
184.2506488972
 20
99.1848373567
 30
0.0
 11
184.2506488972
 21
119.6848373567
 31
0.0
  0
LINE
  5
12D
330
1F
100
AcDbEntity
  8
0
  6
HIDDEN
 62
     7
370
     0
100
AcDbLine
 10
222.2506488972
 20
100.4348373567
 30
0.0
 11
222.2506488972
 21
118.4348373567
 31
0.0
  0
LWPOLYLINE
  5
12E
330
1F
100
AcDbEntity
  8
0
  6
HIDDEN
 62
     7
370
     0
100
AcDbPolyline
 90
       31
 70
   128
 43
0.0
 10
250.6793868305
 20
123.7618871113
 10
251.4030913814
 20
123.8240001073
 10
252.0951665706
 20
124.0340413529
 10
252.7253653916
 20
124.3828310377
 10
253.2661451318
 20
124.8551253788
 10
253.6938711215
 20
125.4302828472
 10
253.9898496826
 20
126.0831663017
 10
254.1411451318
 20
126.7852416023
 10
254.1411451318
 20
127.5058246896
 10
253.9898496826
 20
128.2134226248
 10
253.6938711215
 20
128.8771099828
 10
253.2661451318
 20
129.4678804412
 10
252.7253653916
 20
129.9599144963
 10
252.0951665706
 20
130.3317078988
 10
251.4030913814
 20
130.5670114928
 10
250.6793868305
 20
130.6555413824
 10
249.9556822796
 20
130.5934283864
 10
249.2636070903
 20
130.3833871408
 10
248.6334082694
 20
130.034597456
 10
248.0926285292
 20
129.5623031149
 10
247.6649025395
 20
128.9871456465
 10
247.3689239783
 20
128.334262192
 10
247.2176285292
 20
127.6321868914
 10
247.2176285292
 20
126.9116038041
 10
247.3689239783
 20
126.2040058689
 10
247.6649025395
 20
125.5403185109
 10
248.0926285292
 20
124.9495480525
 10
248.6334082694
 20
124.4575139974
 10
249.2636070903
 20
124.0857205949
 10
249.9556822796
 20
123.8504170008
 10
250.6793868305
 20
123.7618871113
  0
ARC
  5
12F
330
1F
100
AcDbEntity
  8
0
  6
HIDDEN
 62
     7
370
     0
100
AcDbCircle
 10
244.1547080073
 20
131.7229558175
 30
0.0
 40
2.091082341024276
100
AcDbArc
 50
122.5895920301
 51
301.3262094742
  0
LINE
  5
130
330
1F
100
AcDbEntity
  8
0
  6
HIDDEN
 62
     7
370
     0
100
AcDbLine
 10
259.0399345924
 20
139.2361602041
 30
0.0
 11
258.076182161
 21
137.6438946498
 31
0.0
  0
LINE
  5
131
330
1F
100
AcDbEntity
  8
0
  6
HIDDEN
 62
     7
370
     0
100
AcDbLine
 10
233.4022237473
 20
112.0356088362
 30
0.0
 11
233.4022237473
 21
83.5326338687
 31
0.0
  0
SPLINE
  5
132
330
1F
100
AcDbEntity
  8
0
  6
HIDDEN
 62
     7
370
     0
100
AcDbSpline
210
0.0
220
0.0
230
1.0
 70
     8
 71
     3
 72
     9
 73
     5
 74
     0
 42
0.00000001
 43
0.00000001
 12
1.0
 22
0.0
 32
0.0
 13
1.0
 23
0.0
 33
0.0
 40
0.0
 40
0.0
 40
0.0
 40
0.0
 40
0.5
 40
1.0
 40
1.0
 40
1.0
 40
1.0
 10
233.4492477355464
 20
113.3710473824025
 30
0.0
 10
233.4419665264932
 20
113.1484686186851
 30
0.0
 10
233.4261706931265
 20
112.7033236725968
 30
0.0
 10
233.4099640852504
 20
112.2581829165785
 30
0.0
 10
233.4022237472991
 20
112.035608836166
 30
0.0
  0
SPLINE
  5
133
330
1F
100
AcDbEntity
  8
0
  6
HIDDEN
 62
     7
370
     0
100
AcDbSpline
210
0.0
220
0.0
230
1.0
 70
     8
 71
     3
 72
    14
 73
    10
 74
     0
 42
0.00000001
 43
0.00000001
 12
1.0
 22
0.0
 32
0.0
 13
1.0
 23
0.0
 33
0.0
 40
0.0
 40
0.0
 40
0.0
 40
0.0
 40
0.2500000000000001
 40
0.2500000000000001
 40
0.5000000000000001
 40
0.5000000000000001
 40
0.7500000000000001
 40
0.7500000000000001
 40
1.0
 40
1.0
 40
1.0
 40
1.0
 10
233.4492477355464
 20
140.36496777426
 30
0.0
 10
233.4294417221102
 20
140.4682063307157
 30
0.0
 10
233.4056071799815
 20
140.57164475152
 30
0.0
 10
233.3705279296435
 20
140.7799993001788
 30
0.0
 10
233.3596337884933
 20
140.8848774545864
 30
0.0
 10
233.3598889897325
 20
141.0959089136213
 30
0.0
 10
233.3709994578134
 20
141.2020439240304
 30
0.0
 10
233.4060183594119
 20
141.4149242344398
 30
0.0
 10
233.4296023704476
 20
141.5216451594818
 30
0.0
 10
233.449247735544
 20
141.6283814611864
 30
0.0
  0
LINE
  5
134
330
1F
100
AcDbEntity
  8
0
  6
HIDDEN
 62
     7
370
     0
100
AcDbLine
 10
233.4492477355
 20
141.6283814612
 30
0.0
 11
233.5512321462
 21
141.9355312683
 31
0.0
  0
SPLINE
  5
135
330
1F
100
AcDbEntity
  8
0
  6
HIDDEN
 62
     7
370
     0
100
AcDbSpline
210
0.0
220
0.0
230
1.0
 70
     8
 71
     3
 72
    36
 73
    32
 74
     0
 42
0.00000001
 43
0.00000001
 12
1.0
 22
0.0
 32
0.0
 13
1.0
 23
0.0
 33
0.0
 40
0.0
 40
0.0
 40
0.0
 40
0.0
 40
0.1250000000000011
 40
0.1250000000000011
 40
0.2500000000000022
 40
0.2500000000000022
 40
0.3125000000000024
 40
0.3125000000000024
 40
0.3750000000000027
 40
0.3750000000000027
 40
0.4375000000000029
 40
0.4375000000000029
 40
0.4687500000000031
 40
0.4687500000000031
 40
0.5000000000000031
 40
0.5000000000000031
 40
0.5312500000000032
 40
0.5312500000000032
 40
0.5625000000000034
 40
0.5625000000000034
 40
0.5937500000000036
 40
0.5937500000000036
 40
0.6250000000000038
 40
0.6250000000000038
 40
0.6875000000000031
 40
0.6875000000000031
 40
0.7500000000000023
 40
0.7500000000000023
 40
0.8750000000000012
 40
0.8750000000000012
 40
1.0
 40
1.0
 40
1.0
 40
1.0
 10
247.9728560171026
 20
129.7034794721577
 30
0.0
 10
248.0312002013586
 20
129.7998729357313
 30
0.0
 10
248.1479956060696
 20
129.9265172119328
 30
0.0
 10
248.4559312147532
 20
130.2049666289488
 30
0.0
 10
248.6494096262288
 20
130.3581564487257
 30
0.0
 10
248.9998531336201
 20
130.5845978194268
 30
0.0
 10
249.1271275912617
 20
130.6597679492098
 30
0.0
 10
249.4103420166918
 20
130.8055564143029
 30
0.0
 10
249.5674597308381
 20
130.8768966152396
 30
0.0
 10
249.9200598173233
 20
131.0037699256535
 30
0.0
 10
250.1146023335175
 20
131.0606616763145
 30
0.0
 10
250.4664295402342
 20
131.1155072792054
 30
0.0
 10
250.5924069299078
 20
131.1279579241175
 30
0.0
 10
250.8601701443163
 20
131.1324864645256
 30
0.0
 10
251.001012060551
 20
131.1241051921969
 30
0.0
 10
251.2797611807577
 20
131.0807239969049
 30
0.0
 10
251.413180405436
 20
131.0462076937733
 30
0.0
 10
251.6497604319567
 20
130.9631856146665
 30
0.0
 10
251.7553990378174
 20
130.9143494701631
 30
0.0
 10
251.9401186460798
 20
130.8129921367168
 30
0.0
 10
252.0218331090411
 20
130.7591574163309
 30
0.0
 10
252.1668178865171
 20
130.6509563002608
 30
0.0
 10
252.2304858680935
 20
130.5963907106111
 30
0.0
 10
252.4035007702412
 20
130.4322705719634
 30
0.0
 10
252.4955474376665
 20
130.3216964873342
 30
0.0
 10
252.6483706019907
 20
130.1066050036225
 30
0.0
 10
252.709264754368
 20
130.0017011645678
 30
0.0
 10
252.8594777872953
 20
129.6965832014447
 30
0.0
 10
252.9174245984114
 20
129.5047334534912
 30
0.0
 10
252.9649764602018
 20
129.1682216444148
 30
0.0
 10
252.9552803560109
 20
129.0244814654519
 30
0.0
 10
252.8970724003404
 20
128.9283130722148
 30
0.0
  0
ELLIPSE
  5
136
330
1F
100
AcDbEntity
  8
0
  6
HIDDEN
 62
     7
370
     0
100
AcDbEllipse
 10
251.5896384244
 20
134.1518829255
 30
0.0
 11
3.105839292631259
 21
2.305055007060105
 31
0.0
210
0.0
220
0.0
230
1.0
 40
0.0904236958
 41
6.065479689650862
 42
9.207072343240307
  0
LINE
  5
137
330
1F
100
AcDbEntity
  8
0
  6
HIDDEN
 62
     7
370
     0
100
AcDbLine
 10
246.1935972878
 20
144.7917755238
 30
0.0
 11
247.1573497192
 21
146.3840410781
 31
0.0
  0
ELLIPSE
  5
138
330
1F
100
AcDbEntity
  8
0
  6
HIDDEN
 62
     7
370
     0
100
AcDbEllipse
 10
247.1744915705
 20
121.418094361
 30
0.0
 11
2.220506159017901
 21
3.668613800738158
 31
0.0
210
0.0
220
0.0
230
1.0
 40
0.9794128731
 41
0.0
 42
6.283185307179586
  0
LINE
  5
139
330
1F
100
AcDbEntity
  8
0
  6
HIDDEN
 62
     7
370
     0
100
AcDbLine
 10
252.8970724003
 20
128.9283130722
 30
0.0
 11
252.4589063588
 21
128.2043961488
 31
0.0
  0
LINE
  5
13A
330
1F
100
AcDbEntity
  8
0
  6
HIDDEN
 62
     7
370
     0
100
AcDbLine
 10
247.5346899755
 20
128.9795625487
 30
0.0
 11
247.9728560171
 21
129.7034794722
 31
0.0
  0
ELLIPSE
  5
13B
330
1F
100
AcDbEntity
  8
0
  6
HIDDEN
 62
     7
370
     0
100
AcDbEllipse
 10
249.7676238735
 20
125.7023432091
 30
0.0
 11
3.953222233227706
 21
-1.478682026362549
 31
0.0
210
0.0
220
0.0
230
1.0
 40
0.8454008504
 41
1.170661207113729
 42
2.445785048352122
  0
LWPOLYLINE
  5
13C
330
1F
100
AcDbEntity
  8
0
  6
HIDDEN
 62
     7
370
     0
100
AcDbPolyline
 90
       34
 70
   128
 43
0.0
 10
250.6354219045
 20
122.9998849416
 10
251.4259228307
 20
123.0602037716
 10
252.1878529938
 20
123.2678352978
 10
252.8936742525
 20
123.615275176
 10
253.5178763876
 20
124.0899660237
 10
254.0378991075
 20
124.6747512768
 10
254.4349474361
 20
125.3484952728
 10
254.6946710125
 20
126.0868471481
 10
254.8076827499
 20
126.8631209422
 10
254.7698981096
 20
127.6492600976
 10
254.582682727
 20
128.416851497
 10
254.2528030537
 20
129.1381523874
 10
253.7921818008
 20
129.787093075
 10
253.2174670203
 20
130.3402191528
 10
252.5494304019
 20
130.7775392031
 10
251.8122165294
 20
131.0832473399
 10
251.0324702332
 20
131.2462944746
 10
250.2383735758
 20
131.2607876589
 10
249.4586272795
 20
131.1262030714
 10
248.7214134071
 20
130.8474049497
 10
248.0533767887
 20
130.4344697843
 10
247.4786620082
 20
129.9023221281
 10
247.0180407553
 20
129.2701951838
 10
246.688161082
 20
128.5609356662
 10
246.5009456994
 20
127.8001780621
 10
246.4631610591
 20
127.0154181337
 10
246.5761727964
 20
126.2350191492
 10
246.8358963728
 20
125.4871867614
 10
247.2329447015
 20
124.7989495811
 10
247.7529674214
 20
124.1951822934
 10
248.3771695564
 20
123.6977066209
 10
249.0829908152
 20
123.3245026308
 10
249.8449209783
 20
123.0890588876
 10
250.6354219045
 20
122.9998849416
  0
LINE
  5
13D
330
1F
100
AcDbEntity
  8
0
  6
HIDDEN
 62
     7
370
     0
100
AcDbLine
 10
252.4589063588
 20
128.2043961488
 30
0.0
 11
252.8336106618
 21
132.9290058697
 31
0.0
  0
LINE
  5
13E
330
1F
100
AcDbEntity
  8
0
  6
HIDDEN
 62
     7
370
     0
100
AcDbLine
 10
254.539151692
 20
139.2508328076
 30
0.0
 11
254.2153028484
 21
138.715785277
 31
0.0
  0
LINE
  5
13F
330
1F
100
AcDbEntity
  8
0
  6
HIDDEN
 62
     7
370
     0
100
AcDbLine
 10
253.9586449451
 20
135.1712530753
 30
0.0
 11
254.539151692
 21
139.2508328076
 31
0.0
  0
LINE
  5
140
330
1F
100
AcDbEntity
  8
0
  6
HIDDEN
 62
     7
370
     0
100
AcDbLine
 10
254.6671853227
 20
136.341869512
 30
0.0
 11
253.9586449451
 21
135.1712530753
 31
0.0
  0
ARC
  5
141
330
1F
100
AcDbEntity
  8
0
  6
HIDDEN
 62
     7
370
     0
100
AcDbCircle
 10
252.3822731265
 20
141.577376114
 30
0.0
 40
3.172527210755403
100
AcDbArc
 50
312.832807747
 51
209.2751054724
  0
LINE
  5
142
330
1F
100
AcDbEntity
  8
0
  6
HIDDEN
 62
     7
370
     0
100
AcDbLine
 10
249.6149353088
 20
140.0259992076
 30
0.0
 11
248.4537267414
 21
131.8654688405
 31
0.0
  0
LINE
  5
143
330
1F
100
AcDbEntity
  8
0
  6
HIDDEN
 62
     7
370
     0
100
AcDbLine
 10
258.8317045416
 20
151.9055186484
 30
0.0
 11
258.4360279688
 21
152.1435349586
 31
0.0
  0
LINE
  5
144
330
1F
100
AcDbEntity
  8
0
  6
HIDDEN
 62
     7
370
     0
100
AcDbLine
 10
258.4360279688
 20
152.1435349586
 30
0.0
 11
246.1935972878
 21
144.7917755238
 31
0.0
  0
LINE
  5
145
330
1F
100
AcDbEntity
  8
0
  6
HIDDEN
 62
     7
370
     0
100
AcDbLine
 10
246.1935972878
 20
144.7917755238
 30
0.0
 11
245.67891999
 21
135.0764655733
 31
0.0
  0
LINE
  5
146
330
1F
100
AcDbEntity
  8
0
  6
HIDDEN
 62
     7
370
     0
100
AcDbLine
 10
245.2418824652
 20
129.9367091786
 30
0.0
 11
248.4537267414
 21
131.8654688405
 31
0.0
  0
LINE
  5
147
330
1F
100
AcDbEntity
  8
0
  6
HIDDEN
 62
     7
370
     0
100
AcDbLine
 10
253.9586449451
 20
135.1712530753
 30
0.0
 11
258.076182161
 21
137.6438946498
 31
0.0
  0
LINE
  5
148
330
1F
100
AcDbEntity
  8
0
  6
HIDDEN
 62
     7
370
     0
100
AcDbLine
 10
258.076182161
 20
137.6438946498
 30
0.0
 11
258.8317045416
 21
151.9055186484
 31
0.0
  0
LINE
  5
149
330
1F
100
AcDbEntity
  8
0
  6
HIDDEN
 62
     7
370
     0
100
AcDbLine
 10
248.4537267414
 20
131.8654688405
 30
0.0
 11
248.5120915261
 21
131.961896339
 31
0.0
  0
LINE
  5
14A
330
1F
100
AcDbEntity
  8
0
  6
HIDDEN
 62
     7
370
     0
100
AcDbLine
 10
193.0506488972
 20
131.4549361413
 30
0.0
 11
193.0506488972
 21
124.9697578796
 31
0.0
  0
LINE
  5
14B
330
1F
100
AcDbEntity
  8
0
  6
HIDDEN
 62
     7
370
     0
100
AcDbLine
 10
158.7506488972
 20
130.593200753
 30
0.0
 11
158.7506488972
 21
124.5388901854
 31
0.0
  0
LINE
  5
14C
330
1F
100
AcDbEntity
  8
0
  6
HIDDEN
 62
     7
370
     0
100
AcDbLine
 10
157.2506488972
 20
129.7271753492
 30
0.0
 11
157.2506488972
 21
124.1058774835
 31
0.0
  0
LINE
  5
14D
330
1F
100
AcDbEntity
  8
0
  6
HIDDEN
 62
     7
370
     0
100
AcDbLine
 10
158.7506488972
 20
94.330784528
 30
0.0
 11
158.7506488972
 21
88.2764739604
 31
0.0
  0
LINE
  5
14E
330
1F
100
AcDbEntity
  8
0
  6
HIDDEN
 62
     7
370
     0
100
AcDbLine
 10
157.2506488972
 20
94.7637972299
 30
0.0
 11
157.2506488972
 21
89.1424993642
 31
0.0
  0
SPLINE
  5
14F
330
1F
100
AcDbEntity
  8
0
  6
HIDDEN
 62
     7
370
     0
100
AcDbSpline
210
0.0
220
0.0
230
1.0
 70
     8
 71
     3
 72
    16
 73
    12
 74
     0
 42
0.00000001
 43
0.00000001
 12
1.0
 22
0.0
 32
0.0
 13
1.0
 23
0.0
 33
0.0
 40
0.0
 40
0.0
 40
0.0
 40
0.0
 40
0.25
 40
0.25
 40
0.375
 40
0.375
 40
0.5
 40
0.5
 40
0.75
 40
0.75
 40
1.0
 40
1.0
 40
1.0
 40
1.0
 10
193.9293285536766
 20
131.2049183117017
 30
0.0
 10
193.7680960761921
 20
131.106902698647
 30
0.0
 10
193.6476162365525
 20
130.9201666669709
 30
0.0
 10
193.5252357192392
 20
130.507126859412
 30
0.0
 10
193.4942580588417
 20
130.3471263601791
 30
0.0
 10
193.4526443212138
 20
129.980320709088
 30
0.0
 10
193.442408408281
 20
129.776983556464
 30
0.0
 10
193.4422200112248
 20
129.1096962898373
 30
0.0
 10
193.4823647138625
 20
128.5888818259492
 30
0.0
 10
193.646518468802
 20
127.3915228104716
 30
0.0
 10
193.7680701192116
 20
126.7332531561756
 30
0.0
 10
193.9293285536766
 20
126.0187439829407
 30
0.0
  0
SPLINE
  5
150
330
1F
100
AcDbEntity
  8
0
  6
HIDDEN
 62
     7
370
     0
100
AcDbSpline
210
0.0
220
0.0
230
1.0
 70
     8
 71
     3
 72
    16
 73
    12
 74
     0
 42
0.00000001
 43
0.00000001
 12
1.0
 22
0.0
 32
0.0
 13
1.0
 23
0.0
 33
0.0
 40
0.0
 40
0.0
 40
0.0
 40
0.0
 40
0.2500000000000003
 40
0.2500000000000003
 40
0.3750000000000001
 40
0.3750000000000001
 40
0.4999999999999999
 40
0.4999999999999999
 40
0.7499999999999999
 40
0.7499999999999999
 40
1.0
 40
1.0
 40
1.0
 40
1.0
 10
193.9293285536766
 20
92.85093073045856
 30
0.0
 10
193.7680960761921
 20
92.13653656826642
 30
0.0
 10
193.6476162365525
 20
91.48319430555776
 30
0.0
 10
193.5252357192392
 20
90.59493906375388
 30
0.0
 10
193.4942580588417
 20
90.31425852740205
 30
0.0
 10
193.4526443212138
 20
89.78522453756204
 30
0.0
 10
193.442408408281
 20
89.5419035589836
 30
0.0
 10
193.4422200112248
 20
88.87388086847038
 30
0.0
 10
193.4823647138625
 20
88.51019995905091
 30
0.0
 10
193.646518468802
 20
87.95030908650259
 30
0.0
 10
193.7680701192116
 20
87.76278779438546
 30
0.0
 10
193.9293285536766
 20
87.66475640169749
 30
0.0
  0
LINE
  5
151
330
1F
100
AcDbEntity
  8
0
  6
HIDDEN
 62
     7
370
     0
100
AcDbLine
 10
193.0506488972
 20
93.8999168338
 30
0.0
 11
193.0506488972
 21
87.4147385721
 31
0.0
  0
SPLINE
  5
152
330
1F
100
AcDbEntity
  8
0
  6
HIDDEN
 62
     7
370
     0
100
AcDbSpline
210
0.0
220
0.0
230
1.0
 70
     8
 71
     3
 72
    10
 73
     6
 74
     0
 42
0.00000001
 43
0.00000001
 12
1.0
 22
0.0
 32
0.0
 13
1.0
 23
0.0
 33
0.0
 40
0.0
 40
0.0
 40
0.0
 40
0.0
 40
0.5
 40
0.5
 40
1.0
 40
1.0
 40
1.0
 40
1.0
 10
254.2153028484118
 20
138.7157852770398
 30
0.0
 10
254.1706503405369
 20
138.6420125446553
 30
0.0
 10
254.089824821467
 20
138.5349106853836
 30
0.0
 10
253.8921819044695
 20
138.2975018183523
 30
0.0
 10
253.7738360775327
 20
138.1659204559508
 30
0.0
 10
253.6376798326465
 20
138.0298475757107
 30
0.0
  0
ARC
  5
153
330
1F
100
AcDbEntity
  8
0
  6
HIDDEN
 62
     7
370
     0
100
AcDbCircle
 10
251.8027787236
 20
140.6189980375
 30
0.0
 40
3.173414910414284
100
AcDbArc
 50
305.324761146
 51
216.7831520734
  0
SPLINE
  5
154
330
1F
100
AcDbEntity
  8
0
  6
HIDDEN
 62
     7
370
     0
100
AcDbSpline
210
0.0
220
0.0
230
1.0
 70
     8
 71
     3
 72
    10
 73
     6
 74
     0
 42
0.00000001
 43
0.00000001
 12
1.0
 22
0.0
 32
0.0
 13
1.0
 23
0.0
 33
0.0
 40
0.0
 40
0.0
 40
0.0
 40
0.0
 40
0.5
 40
0.5
 40
1.0
 40
1.0
 40
1.0
 40
1.0
 10
249.2611669838116
 20
138.7187949016012
 30
0.0
 10
249.2328276416486
 20
138.8807836998267
 30
0.0
 10
249.2207359344609
 20
139.0329076484877
 30
0.0
 10
249.2280149267334
 20
139.3002769461885
 30
0.0
 10
249.2463815041839
 20
139.4170922840784
 30
0.0
 10
249.2910864651738
 20
139.4909516769844
 30
0.0
  0
LINE
  5
155
330
1F
100
AcDbEntity
  8
0
  6
HIDDEN
 62
     7
370
     0
100
AcDbLine
 10
249.2910864652
 20
139.490951677
 30
0.0
 11
249.6149353088
 21
140.0259992076
 31
0.0
  0
ELLIPSE
  5
156
330
1F
100
AcDbEntity
  8
0
  6
HIDDEN
 62
     7
370
     0
100
AcDbEllipse
 10
251.2581169675
 20
137.0298926296
 30
0.0
 11
0.3124824774540684
 21
2.947022789647605
 31
0.0
210
0.0
220
0.0
230
1.0
 40
0.8407155321
 41
5.146056947021524
 42
7.335381317564369
  0
LWPOLYLINE
  5
157
330
1F
100
AcDbEntity
  8
0
  6
HIDDEN
 62
     7
370
     0
100
AcDbPolyline
 90
       13
 70
   128
 43
0.0
 10
252.8336106618
 20
132.9290058697
 10
252.786142612
 20
133.4015074822
 10
252.5741208268
 20
133.8682220453
 10
252.2119942407
 20
134.2973437327
 10
251.724441182
 20
134.6596286106
 10
251.1446875859
 20
134.9303875632
 10
250.5122427019
 20
135.0911688155
 10
249.8702066037
 20
135.1310153907
 10
249.2623329904
 20
135.0472118106
 10
248.7300474441
 20
134.8454691506
 10
248.3096243452
 20
134.5395358398
 10
248.0297148332
 20
134.1502607276
 10
247.9093942786
 20
133.7041722696
  0
SPLINE
  5
158
330
1F
100
AcDbEntity
  8
0
  6
HIDDEN
 62
     7
370
     0
100
AcDbSpline
210
0.0
220
0.0
230
1.0
 70
     8
 71
     3
 72
    10
 73
     6
 74
     0
 42
0.00000001
 43
0.00000001
 12
1.0
 22
0.0
 32
0.0
 13
1.0
 23
0.0
 33
0.0
 40
0.0
 40
0.0
 40
0.0
 40
0.0
 40
0.5
 40
0.5
 40
1.0
 40
1.0
 40
1.0
 40
1.0
 10
235.6889361991736
 20
137.4115195466493
 30
0.0
 10
235.1025680025886
 20
137.7882959246203
 30
0.0
 10
234.5962997302941
 20
138.2392676142314
 30
0.0
 10
233.8236178540563
 20
139.2408288251063
 30
0.0
 10
233.5593549572158
 20
139.7910354856069
 30
0.0
 10
233.4492477355463
 20
140.36496777426
 30
0.0
  0
LINE
  5
159
330
1F
100
AcDbEntity
  8
0
  6
HIDDEN
 62
     7
370
     0
100
AcDbLine
 10
258.4360279688
 20
152.1435349586
 30
0.0
 11
257.9579072092
 21
151.3536067659
 31
0.0
  0
LINE
  5
15A
330
1F
100
AcDbEntity
  8
0
  6
HIDDEN
 62
     7
370
     0
100
AcDbLine
 10
258.2758111694
 20
150.9870982745
 30
0.0
 11
258.8317045416
 21
151.9055186484
 31
0.0
  0
LINE
  5
15B
330
1F
100
AcDbEntity
  8
0
  6
HIDDEN
 62
     7
370
     0
100
AcDbLine
 10
247.9093942786
 20
133.7041722696
 30
0.0
 11
247.5346899755
 21
128.9795625487
 31
0.0
  0
ELLIPSE
  5
15C
330
1F
100
AcDbEntity
  8
0
  6
HIDDEN
 62
     7
370
     0
100
AcDbEllipse
 10
324.724360389
 20
115.4348373567
 30
0.0
 11
68.28960481860258
 21
-39.37702396370487
 31
0.0
210
0.0
220
0.0
230
1.0
 40
0.102974212
 41
3.420536082137399
 42
3.440934563257052
  0
SPLINE
  5
15D
330
1F
100
AcDbEntity
  8
0
  6
HIDDEN
 62
     7
370
     0
100
AcDbSpline
210
0.0
220
0.0
230
1.0
 70
     8
 71
     3
 72
     8
 73
     4
 74
     0
 42
0.00000001
 43
0.00000001
 12
1.0
 22
0.0
 32
0.0
 13
1.0
 23
0.0
 33
0.0
 40
0.0
 40
0.0
 40
0.0
 40
0.0
 40
1.0
 40
1.0
 40
1.0
 40
1.0
 10
235.6889361991736
 20
137.4115195466493
 30
0.0
 10
235.6063499201463
 20
135.9615527503385
 30
0.0
 10
235.5227841605757
 20
134.4485207913749
 30
0.0
 10
235.4381666933458
 20
132.8704331308623
 30
0.0
  0
ELLIPSE
  5
15E
330
1F
100
AcDbEntity
  8
0
  6
HIDDEN
 62
     7
370
     0
100
AcDbEllipse
 10
197.2851914353
 20
115.4348373567
 30
0.0
 11
64.4735668462296
 21
39.87516059835082
 31
0.0
210
0.0
220
0.0
230
1.0
 40
0.0489778835
 41
5.493239388931807
 42
5.906548481954527
  0
SPLINE
  5
15F
330
1F
100
AcDbEntity
  8
0
  6
HIDDEN
 62
     7
370
     0
100
AcDbSpline
210
0.0
220
0.0
230
1.0
 70
     8
 71
     3
 72
    16
 73
    12
 74
     0
 42
0.00000001
 43
0.00000001
 12
1.0
 22
0.0
 32
0.0
 13
1.0
 23
0.0
 33
0.0
 40
0.0
 40
0.0
 40
0.0
 40
0.0
 40
0.1250000000000001
 40
0.1250000000000001
 40
0.2500000000000002
 40
0.2500000000000002
 40
0.5000000000000001
 40
0.5000000000000001
 40
0.75
 40
0.75
 40
1.0
 40
1.0
 40
1.0
 40
1.0
 10
235.6889361991736
 20
137.4115195466493
 30
0.0
 10
236.0754087221722
 20
137.5107416650398
 30
0.0
 10
236.4596013105076
 20
137.6193682226555
 30
0.0
 10
237.2233893713775
 20
137.8552153228978
 30
0.0
 10
237.6019920240954
 20
137.9821954879322
 30
0.0
 10
238.7167124354273
 20
138.3850412136431
 30
0.0
 10
239.4363301660126
 20
138.6841340240659
 30
0.0
 10
240.831178123314
 20
139.3358899421852
 30
0.0
 10
241.5063910943909
 20
139.6885797353783
 30
0.0
 10
242.8139205923426
 20
140.4411315289886
 30
0.0
 10
243.4479305796379
 20
140.8423043202359
 30
0.0
 10
244.0543325557743
 20
141.2592958698547
 30
0.0
  0
ELLIPSE
  5
160
330
1F
100
AcDbEntity
  8
0
  6
HIDDEN
 62
     7
370
     0
100
AcDbEllipse
 10
257.5116090842
 20
115.4348373567
 30
0.0
 11
2.830899125705002
 21
39.99911690243091
 31
0.0
210
0.0
220
0.0
230
1.0
 40
0.0938906935
 41
0.4827069343464127
 42
1.126414440952052
  0
LINE
  5
161
330
1F
100
AcDbEntity
  8
0
  6
HIDDEN
 62
     7
370
     0
100
AcDbLine
 10
157.2506488972
 20
124.1058774835
 30
0.0
 11
157.2506488972
 21
112.3368246897
 31
0.0
  0
LINE
  5
162
330
1F
100
AcDbEntity
  8
0
  6
HIDDEN
 62
     7
370
     0
100
AcDbLine
 10
157.2506488972
 20
106.5328500237
 30
0.0
 11
157.2506488972
 21
94.7637972299
 31
0.0
  0
LINE
  5
163
330
1F
100
AcDbEntity
  8
0
  6
HIDDEN
 62
     7
370
     0
100
AcDbLine
 10
158.7506488972
 20
105.4696264599
 30
0.0
 11
158.7506488972
 21
94.330784528
 31
0.0
  0
LINE
  5
164
330
1F
100
AcDbEntity
  8
0
  6
HIDDEN
 62
     7
370
     0
100
AcDbLine
 10
158.7506488972
 20
124.5388901854
 30
0.0
 11
158.7506488972
 21
113.4000482535
 31
0.0
  0
LINE
  5
165
330
1F
100
AcDbEntity
  8
0
  6
HIDDEN
 62
     7
370
     0
100
AcDbLine
 10
195.0506488972
 20
124.4725445192
 30
0.0
 11
195.0506488972
 21
94.3971301942
 31
0.0
  0
LINE
  5
166
330
1F
100
AcDbEntity
  8
0
  6
HIDDEN
 62
     7
370
     0
100
AcDbLine
 10
193.0506488972
 20
124.9697578796
 30
0.0
 11
193.0506488972
 21
93.8999168338
 31
0.0
  0
SPLINE
  5
167
330
1F
100
AcDbEntity
  8
0
  6
HIDDEN
 62
     7
370
     0
100
AcDbSpline
210
0.0
220
0.0
230
1.0
 70
     8
 71
     3
 72
     8
 73
     4
 74
     0
 42
0.00000001
 43
0.00000001
 12
1.0
 22
0.0
 32
0.0
 13
1.0
 23
0.0
 33
0.0
 40
0.0000249638557296
 40
0.0000249638557296
 40
0.0000249638557296
 40
0.0000249638557296
 40
0.0049776420541172
 40
0.0049776420541172
 40
0.0049776420541172
 40
0.0049776420541172
 10
158.7506488972362
 20
105.4696264598631
 30
0.0
 10
160.4006251317458
 20
105.4283472220949
 30
0.0
 10
162.0506264514908
 20
105.3881255408554
 30
0.0
 10
163.7006488972362
 20
105.3488763036003
 30
0.0
  0
SPLINE
  5
168
330
1F
100
AcDbEntity
  8
0
  6
HIDDEN
 62
     7
370
     0
100
AcDbSpline
210
0.0
220
0.0
230
1.0
 70
     8
 71
     3
 72
     8
 73
     4
 74
     0
 42
0.00000001
 43
0.00000001
 12
1.0
 22
0.0
 32
0.0
 13
1.0
 23
0.0
 33
0.0
 40
0.0000249631533153
 40
0.0000249631533153
 40
0.0000249631533153
 40
0.0000249631533153
 40
0.0049776413517029
 40
0.0049776413517029
 40
0.0049776413517029
 40
0.0049776413517029
 10
163.7006488972362
 20
113.5207984097989
 30
0.0
 10
162.0506264514908
 20
113.4815491725438
 30
0.0
 10
160.4006251317458
 20
113.4413274913043
 30
0.0
 10
158.7506488972362
 20
113.4000482535361
 30
0.0
  0
SPLINE
  5
169
330
1F
100
AcDbEntity
  8
0
  6
HIDDEN
 62
     7
370
     0
100
AcDbSpline
210
0.0
220
0.0
230
1.0
 70
     8
 71
     3
 72
     8
 73
     4
 74
     0
 42
0.00000001
 43
0.00000001
 12
1.0
 22
0.0
 32
0.0
 13
1.0
 23
0.0
 33
0.0
 40
0.0
 40
0.0
 40
0.0
 40
0.0
 40
1.0
 40
1.0
 40
1.0
 40
1.0
 10
157.250648897234
 20
106.5328500237192
 30
0.0
 10
157.7174095086118
 20
106.1174867780962
 30
0.0
 10
158.2231570553918
 20
105.7728963487916
 30
0.0
 10
158.7506488972362
 20
105.4696264598631
 30
0.0
  0
SPLINE
  5
16A
330
1F
100
AcDbEntity
  8
0
  6
HIDDEN
 62
     7
370
     0
100
AcDbSpline
210
0.0
220
0.0
230
1.0
 70
     8
 71
     3
 72
     8
 73
     4
 74
     0
 42
0.00000001
 43
0.00000001
 12
1.0
 22
0.0
 32
0.0
 13
1.0
 23
0.0
 33
0.0
 40
0.0
 40
0.0
 40
0.0
 40
0.0
 40
1.0
 40
1.0
 40
1.0
 40
1.0
 10
158.7506488972362
 20
113.4000482535361
 30
0.0
 10
158.2231570553927
 20
113.0967783646081
 30
0.0
 10
157.7174095086134
 20
112.7521879353041
 30
0.0
 10
157.2506488972362
 20
112.3368246896819
 30
0.0
  0
LINE
  5
16B
330
1F
100
AcDbEntity
  8
0
  6
HIDDEN
 62
     7
370
     0
100
AcDbLine
 10
157.2506488972
 20
106.5328500237
 30
0.0
 11
157.2506488972
 21
112.3368246897
 31
0.0
  0
LINE
  5
16C
330
1F
100
AcDbEntity
  8
0
  6
HIDDEN
 62
     7
370
     0
100
AcDbLine
 10
163.7006488972
 20
105.3488763036
 30
0.0
 11
163.7006488972
 21
113.5207984098
 31
0.0
  0
SPLINE
  5
16D
330
1F
100
AcDbEntity
  8
0
  6
HIDDEN
 62
     7
370
     0
100
AcDbSpline
210
0.0
220
0.0
230
1.0
 70
     8
 71
     3
 72
    24
 73
    20
 74
     0
 42
0.00000001
 43
0.00000001
 12
1.0
 22
0.0
 32
0.0
 13
1.0
 23
0.0
 33
0.0
 40
0.0
 40
0.0
 40
0.0
 40
0.0
 40
0.125
 40
0.125
 40
0.25
 40
0.25
 40
0.375
 40
0.375
 40
0.4375
 40
0.4375
 40
0.5
 40
0.5
 40
0.625
 40
0.625
 40
0.75
 40
0.75
 40
0.875
 40
0.875
 40
1.0
 40
1.0
 40
1.0
 40
1.0
 10
163.7006488972362
 20
105.3488763036003
 30
0.0
 10
163.9384525295113
 20
105.6478834059305
 30
0.0
 10
164.1685381907226
 20
105.9522212572492
 30
0.0
 10
164.6032915893324
 20
106.5779547946452
 30
0.0
 10
164.8082243816186
 20
106.8991795219727
 30
0.0
 10
165.1733263321173
 20
107.5711052927055
 30
0.0
 10
165.3351267179088
 20
107.9264205245843
 30
0.0
 10
165.5069869224885
 20
108.4766517459368
 30
0.0
 10
165.5525721141486
 20
108.6630555309173
 30
0.0
 10
165.6150468537235
 20
109.0431900330135
 30
0.0
 10
165.631717999472
 20
109.2388598252994
 30
0.0
 10
165.6322390426485
 20
109.8173402039738
 30
0.0
 10
165.5677967417618
 20
110.1952520429426
 30
0.0
 10
165.3379476483885
 20
110.937220068041
 30
0.0
 10
165.1794269707253
 20
111.285935528202
 30
0.0
 10
164.8151926408251
 20
111.9590279259351
 30
0.0
 10
164.6084564007616
 20
112.2839804131768
 30
0.0
 10
164.1705184550212
 20
112.9149042236386
 30
0.0
 10
163.9392457277416
 20
113.2207939639792
 30
0.0
 10
163.7006488972363
 20
113.5207984097987
 30
0.0
  0
LINE
  5
16E
330
1F
100
AcDbEntity
  8
0
  6
HIDDEN
 62
     7
370
     0
100
AcDbLine
 10
233.4022237473
 20
109.4348373567
 30
0.0
 11
233.4022237473
 21
83.5371888241
 31
0.0
  0
SPLINE
  5
16F
330
1F
100
AcDbEntity
  8
0
  6
HIDDEN
 62
     7
370
     0
100
AcDbSpline
210
0.0
220
0.0
230
1.0
 70
     8
 71
     3
 72
    70
 73
    66
 74
     0
 42
0.00000001
 43
0.00000001
 12
1.0
 22
0.0
 32
0.0
 13
1.0
 23
0.0
 33
0.0
 40
-0.03125
 40
-0.03125
 40
0.0
 40
0.0
 40
0.03125
 40
0.03125
 40
0.0625
 40
0.0625
 40
0.09375
 40
0.09375
 40
0.125
 40
0.125
 40
0.15625
 40
0.15625
 40
0.1875
 40
0.1875
 40
0.21875
 40
0.21875
 40
0.25
 40
0.25
 40
0.28125
 40
0.28125
 40
0.3125
 40
0.3125
 40
0.34375
 40
0.34375
 40
0.375
 40
0.375
 40
0.40625
 40
0.40625
 40
0.4375
 40
0.4375
 40
0.46875
 40
0.46875
 40
0.5
 40
0.5
 40
0.53125
 40
0.53125
 40
0.5625
 40
0.5625
 40
0.59375
 40
0.59375
 40
0.625
 40
0.625
 40
0.65625
 40
0.65625
 40
0.6875
 40
0.6875
 40
0.71875
 40
0.71875
 40
0.75
 40
0.75
 40
0.78125
 40
0.78125
 40
0.8125
 40
0.8125
 40
0.84375
 40
0.84375
 40
0.875
 40
0.875
 40
0.90625
 40
0.90625
 40
0.9375
 40
0.9375
 40
0.96875
 40
0.96875
 40
1.0
 40
1.0
 40
1.03125
 40
1.03125
 10
176.8077264536152
 20
112.341047044017
 30
0.0
 10
177.2394048755669
 20
112.6905666386365
 30
0.0
 10
177.469187048116
 20
112.8421660743898
 30
0.0
 10
177.9551394635322
 20
113.1016595428577
 30
0.0
 10
178.2131468813035
 20
113.2097046488568
 30
0.0
 10
178.7372725349148
 20
113.3749416238835
 30
0.0
 10
179.0052395463441
 20
113.4334464257452
 30
0.0
 10
179.5529727541431
 20
113.5022858524041
 30
0.0
 10
179.8314335610725
 20
113.5118881065999
 30
0.0
 10
180.3786367552897
 20
113.4820620290676
 30
0.0
 10
180.6500244733576
 20
113.4430552090252
 30
0.0
 10
181.1882314695641
 20
113.3150848518169
 30
0.0
 10
181.4498940612227
 20
113.2270552475594
 30
0.0
 10
181.9497484996555
 20
113.0067859922472
 30
0.0
 10
182.1897934933201
 20
112.873982323625
 30
0.0
 10
182.6464632939544
 20
112.5609869993765
 30
0.0
 10
182.8562664657848
 20
112.3855558526406
 30
0.0
 10
183.2391889551605
 20
111.9969888235444
 30
0.0
 10
183.4138072177007
 20
111.7815231336778
 30
0.0
 10
183.7151102812335
 20
111.3195325434943
 30
0.0
 10
183.8402237214746
 20
111.0764997152601
 30
0.0
 10
184.0386677980352
 20
110.5659226578182
 30
0.0
 10
184.1121275816143
 20
110.2949512516888
 30
0.0
 10
184.1973252322591
 20
109.751840778791
 30
0.0
 10
184.2104925370163
 20
109.4779511232098
 30
0.0
 10
184.176453100346
 20
108.92538096033
 30
0.0
 10
184.1289054203451
 20
108.6512161677535
 30
0.0
 10
183.9781137612035
 20
108.1235900279286
 30
0.0
 10
183.8730789748477
 20
107.8647205379807
 30
0.0
 10
183.6137042014703
 20
107.3785975852539
 30
0.0
 10
183.4603868890614
 20
107.151485684599
 30
0.0
 10
183.1082441857452
 20
106.7278226697705
 30
0.0
 10
182.9099130825367
 20
106.5328679054333
 30
0.0
 10
182.484645348516
 20
106.1880446617831
 30
0.0
 10
182.2547826105589
 20
106.0353607949945
 30
0.0
 10
181.7676049909217
 20
105.7738666436356
 30
0.0
 10
181.5150984992671
 20
105.6673392948256
 30
0.0
 10
180.9930322885317
 20
105.50033170511
 30
0.0
 10
180.7206708015001
 20
105.4396520959691
 30
0.0
 10
180.174361846389
 20
105.3687603943916
 30
0.0
 10
179.9005521070731
 20
105.3579176554153
 30
0.0
 10
179.3516277019696
 20
105.3850440470571
 30
0.0
 10
179.0742721292092
 20
105.4238803079919
 30
0.0
 10
178.5389895830087
 20
105.5491129309825
 30
0.0
 10
178.2789733288415
 20
105.6352120189891
 30
0.0
 10
177.7745520271162
 20
105.8555435062618
 30
0.0
 10
177.5296097296605
 20
105.9908683320004
 30
0.0
 10
177.0770904234951
 20
106.3002173512693
 30
0.0
 10
176.8666429034583
 20
106.4752111325152
 30
0.0
 10
176.4791332935382
 20
106.86824104259
 30
0.0
 10
176.3042413342264
 20
107.0850550697897
 30
0.0
 10
176.0056107567262
 20
107.5436324069115
 30
0.0
 10
175.8795590779352
 20
107.7877314918807
 30
0.0
 10
175.6787317041292
 20
108.3064751232629
 30
0.0
 10
175.6075590146319
 20
108.5717027478169
 30
0.0
 10
175.5224640828405
 20
109.1136425525414
 30
0.0
 10
175.5090384830285
 20
109.3939454338038
 30
0.0
 10
175.5428992819181
 20
109.9441245687832
 30
0.0
 10
175.5891769134608
 20
110.2147141431655
 30
0.0
 10
175.7402707245289
 20
110.7469272959647
 30
0.0
 10
175.8448094938349
 20
111.0052107783479
 30
0.0
 10
176.1022732284673
 20
111.4901847184348
 30
0.0
 10
176.2576202658617
 20
111.7214737471039
 30
0.0
 10
176.6109497349722
 20
112.1472021482326
 30
0.0
 10
176.8077264536152
 20
112.341047044017
 30
0.0
 10
177.2394048755669
 20
112.6905666386365
 30
0.0
  0
CIRCLE
  5
170
330
1F
100
AcDbEntity
  8
0
  6
HIDDEN
 62
     7
370
     0
100
AcDbCircle
 10
179.7506488972
 20
109.4348373567
 30
0.0
 40
4.049999999999997
  0
CIRCLE
  5
171
330
1F
100
AcDbEntity
  8
0
  6
HIDDEN
 62
     7
370
     0
100
AcDbCircle
 10
207.2506488972
 20
109.4348373567
 30
0.0
 40
2.0
  0
LINE
  5
172
330
1F
100
AcDbEntity
  8
0
  6
HIDDEN
 62
     7
370
     0
100
AcDbLine
 10
233.4022237473
 20
109.4348373567
 30
0.0
 11
233.4022237473
 21
112.0356088362
 31
0.0
  0
LINE
  5
173
330
1F
100
AcDbEntity
  8
0
  6
HIDDEN
 62
     7
370
     0
100
AcDbLine
 10
235.4381666933
 20
132.8704331309
 30
0.0
 11
255.3378188721
 21
132.8704331309
 31
0.0
  0
SPLINE
  5
174
330
1F
100
AcDbEntity
  8
0
  6
HIDDEN
 62
     7
370
     0
100
AcDbSpline
210
0.0
220
0.0
230
1.0
 70
     8
 71
     3
 72
    10
 73
     6
 74
     0
 42
0.00000001
 43
0.00000001
 12
1.0
 22
0.0
 32
0.0
 13
1.0
 23
0.0
 33
0.0
 40
0.0
 40
0.0
 40
0.0
 40
0.0
 40
0.5
 40
0.5
 40
1.0
 40
1.0
 40
1.0
 40
1.0
 10
235.4381666933458
 20
132.8704331308623
 30
0.0
 10
234.9276380618238
 20
129.6457476033144
 30
0.0
 10
234.4835603470365
 20
126.411704686579
 30
0.0
 10
233.7972464964455
 20
119.91519621725
 30
0.0
 10
233.5565939976016
 20
116.652507662355
 30
0.0
 10
233.4492477355464
 20
113.3710473824025
 30
0.0
  0
LINE
  5
175
330
1F
100
AcDbEntity
  8
0
  6
HIDDEN
 62
     7
370
     0
100
AcDbLine
 10
255.3378188721
 20
132.8704331309
 30
0.0
 11
253.8704647467
 21
111.9521708438
 31
0.0
  0
LINE
  5
176
330
1F
100
AcDbEntity
  8
0
  6
HIDDEN
 62
     7
370
     0
100
AcDbLine
 10
213.2506488972
 20
125.1847242204
 30
0.0
 11
213.2506488972
 21
121.6848373567
 31
0.0
  0
LINE
  5
177
330
1F
100
AcDbEntity
  8
0
  6
HIDDEN
 62
     7
370
     0
100
AcDbLine
 10
219.2506488972
 20
121.6901056809
 30
0.0
 11
219.2506488972
 21
125.1848161011
 31
0.0
  0
LINE
  5
178
330
1F
100
AcDbEntity
  8
0
  6
HIDDEN
 62
     7
370
     0
100
AcDbLine
 10
195.2506488972
 20
85.1848373567
 30
0.0
 11
195.343542116
 21
85.2777305755
 31
0.0
  0
LINE
  5
179
330
1F
100
AcDbEntity
  8
0
  6
HIDDEN
 62
     7
370
     0
100
AcDbLine
 10
195.343542116
 20
133.5919441379
 30
0.0
 11
195.2506488972
 21
133.6848373567
 31
0.0
  0
ARC
  5
17A
330
1F
100
AcDbEntity
  8
0
  6
HIDDEN
 62
     7
370
     0
100
AcDbCircle
 10
194.6364353349
 20
85.9848373567
 30
0.0
 40
1.000000000000008
100
AcDbArc
 50
315.0
 51
0.0
  0
ARC
  5
17B
330
1F
100
AcDbEntity
  8
0
  6
HIDDEN
 62
     7
370
     0
100
AcDbCircle
 10
194.6364353349
 20
85.9848373567
 30
0.0
 40
1.0
100
AcDbArc
 50
0.0
 51
52.1052014664
  0
ARC
  5
17C
330
1F
100
AcDbEntity
  8
0
  6
HIDDEN
 62
     7
370
     0
100
AcDbCircle
 10
194.6364353349
 20
132.8848373567
 30
0.0
 40
1.000000000000008
100
AcDbArc
 50
351.8087250651
 51
45.0
  0
ARC
  5
17D
330
1F
100
AcDbEntity
  8
0
  6
HIDDEN
 62
     7
370
     0
100
AcDbCircle
 10
194.6364353349
 20
132.8848373567
 30
0.0
 40
0.9999999999999989
100
AcDbArc
 50
307.8947985336
 51
351.8087250651
  0
LINE
  5
17E
330
1F
100
AcDbEntity
  8
0
  6
HIDDEN
 62
     7
370
     0
100
AcDbLine
 10
195.6364353349
 20
85.9848373567
 30
0.0
 11
195.6364353349
 21
132.8848373567
 31
0.0
  0
LINE
  5
17F
330
1F
100
AcDbEntity
  8
0
  6
HIDDEN
 62
     7
370
     0
100
AcDbLine
 10
195.6364353349
 20
85.9848373567
 30
0.0
 11
195.6364353349
 21
132.8848373567
 31
0.0
  0
LINE
  5
180
330
1F
100
AcDbEntity
  8
0
  6
HIDDEN
 62
     7
370
     0
100
AcDbLine
 10
213.7506488972
 20
121.5346222019
 30
0.0
 11
213.7506488972
 21
113.9338771917
 31
0.0
  0
LINE
  5
181
330
1F
100
AcDbEntity
  8
0
  6
HIDDEN
 62
     7
370
     0
100
AcDbLine
 10
218.7506488972
 20
113.9336125637
 30
0.0
 11
218.7506488972
 21
119.5866974382
 31
0.0
  0
LINE
  5
182
330
1F
100
AcDbEntity
  8
0
  6
HIDDEN
 62
     7
370
     0
100
AcDbLine
 10
225.245829095
 20
130.3092502742
 30
0.0
 11
216.313248379
 21
123.3438670122
 31
0.0
  0
LINE
  5
183
330
1F
100
AcDbEntity
  8
0
  6
HIDDEN
 62
     7
370
     0
100
AcDbLine
 10
217.8853430362
 20
118.2293067688
 30
0.0
 11
225.1692664551
 21
123.9091119535
 31
0.0
  0
LINE
  5
184
330
1F
100
AcDbEntity
  8
0
  6
HIDDEN
 62
     7
370
     0
100
AcDbLine
 10
157.2506488972
 20
93.2384085122
 30
0.0
 11
158.7808773369
 21
94.1218863138
 31
0.0
  0
LINE
  5
185
330
1F
100
AcDbEntity
  8
0
  6
HIDDEN
 62
     7
370
     0
100
AcDbLine
 10
158.7808773369
 20
124.7477883996
 30
0.0
 11
157.2506488972
 21
125.6312662012
 31
0.0
  0
LINE
  5
186
330
1F
100
AcDbEntity
  8
0
  6
HIDDEN
 62
     7
370
     0
100
AcDbLine
 10
167.2506488972
 20
93.4348373567
 30
0.0
 11
168.2524502121
 21
93.4348373567
 31
0.0
  0
LINE
  5
187
330
1F
100
AcDbEntity
  8
0
  6
HIDDEN
 62
     7
370
     0
100
AcDbLine
 10
168.2524502121
 20
125.4348373567
 30
0.0
 11
167.2506488972
 21
125.4348373567
 31
0.0
  0
ARC
  5
188
330
1F
100
AcDbEntity
  8
0
  6
HIDDEN
 62
     7
370
     0
100
AcDbCircle
 10
168.2524502121
 20
95.4348373567
 30
0.0
 40
2.0
100
AcDbArc
 50
270.0
 51
315.0
  0
ARC
  5
189
330
1F
100
AcDbEntity
  8
0
  6
HIDDEN
 62
     7
370
     0
100
AcDbCircle
 10
168.2524502121
 20
123.4348373567
 30
0.0
 40
2.000000000000016
100
AcDbArc
 50
45.0
 51
90.0
  0
ARC
  5
18A
330
1F
100
AcDbEntity
  8
0
  6
HIDDEN
 62
     7
370
     0
100
AcDbCircle
 10
167.2506488972
 20
95.4348373567
 30
0.0
 40
2.000000000000027
100
AcDbArc
 50
189.9742217944
 51
270.0
  0
ARC
  5
18B
330
1F
100
AcDbEntity
  8
0
  6
HIDDEN
 62
     7
370
     0
100
AcDbCircle
 10
167.2506488972
 20
123.4348373567
 30
0.0
 40
2.000000000000029
100
AcDbArc
 50
90.0
 51
170.0257782056
  0
LINE
  5
18C
330
1F
100
AcDbEntity
  8
0
  6
HIDDEN
 62
     7
370
     0
100
AcDbLine
 10
169.6666637745
 20
94.0206237943
 30
0.0
 11
171.0808773369
 21
95.4348373567
 31
0.0
  0
LINE
  5
18D
330
1F
100
AcDbEntity
  8
0
  6
HIDDEN
 62
     7
370
     0
100
AcDbLine
 10
171.0808773369
 20
123.4348373567
 30
0.0
 11
169.6666637745
 21
124.8490509191
 31
0.0
  0
LINE
  5
18E
330
1F
100
AcDbEntity
  8
0
  6
HIDDEN
 62
     7
370
     0
100
AcDbLine
 10
158.7808773369
 20
94.1218863138
 30
0.0
 11
163.6808773369
 21
95.4348373567
 31
0.0
  0
LINE
  5
18F
330
1F
100
AcDbEntity
  8
0
  6
HIDDEN
 62
     7
370
     0
100
AcDbLine
 10
163.6808773369
 20
123.4348373567
 30
0.0
 11
158.7808773369
 21
124.7477883996
 31
0.0
  0
LINE
  5
190
330
1F
100
AcDbEntity
  8
0
  6
HIDDEN
 62
     7
370
     0
100
AcDbLine
 10
165.2808773369
 20
123.7812475182
 30
0.0
 11
164.6808773369
 21
123.4348373567
 31
0.0
  0
LINE
  5
191
330
1F
100
AcDbEntity
  8
0
  6
HIDDEN
 62
     7
370
     0
100
AcDbLine
 10
164.6808773369
 20
95.4348373567
 30
0.0
 11
165.2808773369
 21
95.0884271952
 31
0.0
  0
ARC
  5
192
330
1F
100
AcDbEntity
  8
0
  6
HIDDEN
 62
     7
370
     0
100
AcDbCircle
 10
183.7506488972
 20
95.9348373567
 30
0.0
 40
0.5
100
AcDbArc
 50
270.0
 51
0.0
  0
ARC
  5
193
330
1F
100
AcDbEntity
  8
0
  6
HIDDEN
 62
     7
370
     0
100
AcDbCircle
 10
183.7506488972
 20
122.9348373567
 30
0.0
 40
0.5
100
AcDbArc
 50
0.0
 51
90.0
  0
LINE
  5
194
330
1F
100
AcDbEntity
  8
0
  6
HIDDEN
 62
     7
370
     0
100
AcDbLine
 10
163.6808773369
 20
95.4348373567
 30
0.0
 11
164.6808773369
 21
95.4348373567
 31
0.0
  0
LINE
  5
195
330
1F
100
AcDbEntity
  8
0
  6
HIDDEN
 62
     7
370
     0
100
AcDbLine
 10
164.6808773369
 20
123.4348373567
 30
0.0
 11
163.6808773369
 21
123.4348373567
 31
0.0
  0
LINE
  5
196
330
1F
100
AcDbEntity
  8
0
  6
HIDDEN
 62
     7
370
     0
100
AcDbLine
 10
171.0808773369
 20
95.4348373567
 30
0.0
 11
183.7506488972
 21
95.4348373567
 31
0.0
  0
LINE
  5
197
330
1F
100
AcDbEntity
  8
0
  6
HIDDEN
 62
     7
370
     0
100
AcDbLine
 10
183.7506488972
 20
123.4348373567
 30
0.0
 11
171.0808773369
 21
123.4348373567
 31
0.0
  0
LINE
  5
198
330
1F
100
AcDbEntity
  8
0
  6
HIDDEN
 62
     7
370
     0
100
AcDbLine
 10
184.2506488972
 20
99.1848373567
 30
0.0
 11
185.5006488972
 21
100.4348373567
 31
0.0
  0
LINE
  5
199
330
1F
100
AcDbEntity
  8
0
  6
HIDDEN
 62
     7
370
     0
100
AcDbLine
 10
185.5006488972
 20
118.4348373567
 30
0.0
 11
184.2506488972
 21
119.6848373567
 31
0.0
  0
LINE
  5
19A
330
1F
100
AcDbEntity
  8
0
  6
HIDDEN
 62
     7
370
     0
100
AcDbLine
 10
222.2506488972
 20
100.4348373567
 30
0.0
 11
227.6583944685
 21
109.4348373567
 31
0.0
  0
LINE
  5
19B
330
1F
100
AcDbEntity
  8
0
  6
HIDDEN
 62
     7
370
     0
100
AcDbLine
 10
227.6583944685
 20
109.4348373567
 30
0.0
 11
222.2506488972
 21
118.4348373567
 31
0.0
  0
LINE
  5
19C
330
1F
100
AcDbEntity
  8
0
  6
HIDDEN
 62
     7
370
     0
100
AcDbLine
 10
222.2506488972
 20
118.4348373567
 30
0.0
 11
185.5006488972
 21
118.4348373567
 31
0.0
  0
LINE
  5
19D
330
1F
100
AcDbEntity
  8
0
  6
HIDDEN
 62
     7
370
     0
100
AcDbLine
 10
185.5006488972
 20
100.4348373567
 30
0.0
 11
222.2506488972
 21
100.4348373567
 31
0.0
  0
LINE
  5
19E
330
1F
100
AcDbEntity
  8
0
  6
HIDDEN
 62
     7
370
     0
100
AcDbLine
 10
248.1638245684
 20
129.8118890089
 30
0.0
 11
247.6851471781
 21
129.0210411776
 31
0.0
  0
LINE
  5
19F
330
1F
100
AcDbEntity
  8
0
  6
HIDDEN
 62
     7
370
     0
100
AcDbLine
 10
253.6736264829
 20
125.3963873161
 30
0.0
 11
254.1523038732
 21
126.1872351474
 31
0.0
  0
LINE
  5
1A0
330
1F
100
AcDbEntity
  8
0
  6
HIDDEN
 62
     7
370
     0
100
AcDbLine
 10
243.3023568519
 20
134.3904151882
 30
0.0
 11
242.3386044206
 21
132.7981496339
 31
0.0
  0
LINE
  5
1A1
330
1F
100
AcDbEntity
  8
0
  6
HIDDEN
 62
     7
370
     0
100
AcDbLine
 10
252.9370030343
 20
129.030113111
 30
0.0
 11
254.6999263817
 21
136.4135582966
 31
0.0
  0
LINE
  5
1A2
330
1F
100
AcDbEntity
  8
0
  6
HIDDEN
 62
     7
370
     0
100
AcDbLine
 10
247.0423343216
 20
129.3108698212
 30
0.0
 11
243.5814039876
 21
123.592886678
 31
0.0
  0
LINE
  5
1A3
330
1F
100
AcDbEntity
  8
0
  6
HIDDEN
 62
     7
370
     0
100
AcDbLine
 10
250.7675791534
 20
119.2433020441
 30
0.0
 11
254.2285094874
 21
124.9612851873
 31
0.0
  0
LINE
  5
1A4
330
1F
100
AcDbEntity
  8
0
  6
HIDDEN
 62
     7
370
     0
100
AcDbLine
 10
249.6159281101
 20
143.2383623966
 30
0.0
 11
249.0305687158
 21
142.2712596738
 31
0.0
  0
LINE
  5
1A5
330
1F
100
AcDbEntity
  8
0
  6
HIDDEN
 62
     7
370
     0
100
AcDbLine
 10
254.5057497945
 20
138.957290429
 30
0.0
 11
255.0911091888
 21
139.9243931517
 31
0.0
  0
LINE
  5
1A6
330
1F
100
AcDbEntity
  8
0
  6
HIDDEN
 62
     7
370
     0
100
AcDbLine
 10
249.2477936988
 20
139.3750704132
 30
0.0
 11
247.939855507
 21
133.8971862158
 31
0.0
  0
LINE
  5
1A7
330
1F
100
AcDbEntity
  8
VERMASSUNG
  6
CENTERX2
100
AcDbLine
 10
152.4842471323
 20
109.4348373567
 30
0.0
 11
260.2506488972
 21
109.4348373567
 31
0.0
  0
LINE
  5
1A8
330
1F
100
AcDbEntity
  8
VERMASSUNG
  6
CENTERX2
100
AcDbLine
 10
260.2506488972
 20
154.4348373567
 30
0.0
 11
260.2506488972
 21
109.4348373567
 31
0.0
  0
LINE
  5
1A9
330
1F
100
AcDbEntity
  8
VERMASSUNG
  6
CENTERX2
100
AcDbLine
 10
260.2506488972
 20
154.4348373567
 30
0.0
 11
273.6076017431
 21
154.4348373567
 31
0.0
  0
DIMENSION
  5
1AA
330
1F
100
AcDbEntity
  8
VERMASSUNG
100
AcDbDimension
  2
_D
 10
260.2506488972
 20
171.2924836124
 30
0.0
 11
208.7506488972
 21
171.2924836124
 31
0.0
 70
   160
  1
<>
 71
     2
 42
-1.0
  3
SLDDIMSTYLE0
100
AcDbAlignedDimension
 13
157.2506488972
 23
129.7271753492
 33
0.0
 14
260.2506488972
 24
154.4348373567
 34
0.0
 50
0.0
100
AcDbRotatedDimension
  0
DIMENSION
  5
1B5
330
1F
100
AcDbEntity
  8
VERMASSUNG
100
AcDbDimension
  2
_D_1
 10
260.2506488972
 20
161.8092330802
 30
0.0
 11
227.7506488972
 21
161.8092330802
 31
0.0
 70
   160
  1
<>
 71
     2
 42
-1.0
  3
SLDDIMSTYLE1
100
AcDbAlignedDimension
 13
195.2506488972
 23
140.4348373567
 33
0.0
 14
260.2506488972
 24
154.4348373567
 34
0.0
100
AcDbRotatedDimension
  0
DIMENSION
  5
1C2
330
1F
100
AcDbEntity
  8
VERMASSUNG
100
AcDbDimension
  2
_D_2
 10
278.1195151893
 20
109.4348373567
 30
0.0
 11
278.1195151893
 21
131.9348373567
 31
0.0
 70
   160
  1
<>
 71
     2
 42
-1.0
  3
SLDDIMSTYLE1
100
AcDbAlignedDimension
 13
260.2506488972
 23
154.4348373567
 33
0.0
 14
260.2506488972
 24
109.4348373567
 34
0.0
 50
90.0
100
AcDbRotatedDimension
  0
DIMENSION
  5
1CE
330
1F
100
AcDbEntity
  8
VERMASSUNG
100
AcDbDimension
  2
_D_3
 10
273.6076017431
 20
154.4348373567
 30
0.0
 11
268.5851454067
 21
145.6711207592
 31
0.0
 70
   162
  1
<>
 71
     1
 42
-1.0
  3
SLDDIMSTYLE2
100
AcDb2LineAngularDimension
 13
259.4950181539
 23
139.7415977775
 33
0.0
 14
260.2511489988
 24
154.0147074579
 34
0.0
 15
260.2506488972
 25
154.4348373567
 35
0.0
 16
268.5851454067
 26
145.6711207592
 36
0.0
  0
DIMENSION
  5
1D7
330
1F
100
AcDbEntity
  8
VERMASSUNG
100
AcDbDimension
  2
_D_4
 10
147.2506488972
 20
77.9348373567
 30
0.0
 11
147.2506488972
 21
109.4348373567
 31
0.0
 70
   160
  1
PSC%%c<>
 71
     2
 42
-1.0
  3
SLDDIMSTYLE0
100
AcDbAlignedDimension
 13
195.7506488972
 23
140.9348373567
 33
0.0
 14
195.7506488972
 24
77.9348373567
 34
0.0
 50
90.0
100
AcDbRotatedDimension
  0
LINE
  5
1E3
330
1F
100
AcDbEntity
  8
0
  6
Continuous
 62
     7
370
    15
100
AcDbLine
 10
82.6233488803
 20
152.3427608167
 30
0.0
 11
79.911116354
 21
152.8210024094
 31
0.0
  0
LINE
  5
1E4
330
1F
100
AcDbEntity
  8
0
  6
Continuous
 62
     7
370
    15
100
AcDbLine
 10
82.8719784802
 20
151.9903558051
 30
0.0
 11
82.6332069298
 21
152.3353996431
 31
0.0
  0
LINE
  5
1E5
330
1F
100
AcDbEntity
  8
0
  6
Continuous
 62
     7
370
    15
100
AcDbLine
 10
79.9607581755
 20
153.339872018
 30
0.0
 11
73.7414863831
 21
154.436496899
 31
0.0
  0
LINE
  5
1E6
330
1F
100
AcDbEntity
  8
0
  6
Continuous
 62
     7
370
    15
100
AcDbLine
 10
73.1202903732
 20
150.7885808801
 30
0.0
 11
72.6786261255
 21
150.2518224274
 31
0.0
  0
LINE
  5
1E7
330
1F
100
AcDbEntity
  8
0
  6
Continuous
 62
     7
370
    15
100
AcDbLine
 10
69.4255245214
 20
136.2091469323
 30
0.0
 11
69.6586960291
 21
135.5488131498
 31
0.0
  0
LINE
  5
1E8
330
1F
100
AcDbEntity
  8
0
  6
Continuous
 62
     7
370
    15
100
AcDbLine
 10
68.4001439547
 20
132.017861933
 30
0.0
 11
68.7155689409
 21
131.9622433488
 31
0.0
  0
LINE
  5
1E9
330
1F
100
AcDbEntity
  8
0
  6
Continuous
 62
     7
370
    15
100
AcDbLine
 10
67.5528196914
 20
118.6950782989
 30
0.0
 11
105.7937502226
 21
111.9521708437
 31
0.0
  0
LINE
  5
1EA
330
1F
100
AcDbEntity
  8
0
  6
Continuous
 62
     7
370
    15
100
AcDbLine
 10
71.2909035681
 20
139.2361595039
 30
0.0
 11
67.5528196914
 21
118.6950782989
 31
0.0
  0
LINE
  5
1EB
330
1F
100
AcDbEntity
  8
0
  6
Continuous
 62
     7
370
    15
100
AcDbLine
 10
71.2909035681
 20
139.2361595039
 30
0.0
 11
80.3210901392
 21
137.6438940619
 31
0.0
  0
LINE
  5
1EC
330
1F
100
AcDbEntity
  8
0
  6
Continuous
 62
     7
370
    15
100
AcDbLine
 10
80.3210901392
 20
137.6438940619
 30
0.0
 11
80.3997780492
 21
138.0762922322
 31
0.0
  0
LINE
  5
1ED
330
1F
100
AcDbEntity
  8
0
  6
Continuous
 62
     7
370
    15
100
AcDbLine
 10
82.8642177691
 20
151.618594185
 30
0.0
 11
82.9164333006
 21
151.9055197691
 31
0.0
  0
LINE
  5
1EE
330
1F
100
AcDbEntity
  8
0
  6
Continuous
 62
     7
370
    15
100
AcDbLine
 10
88.1250541022
 20
150.9870978748
 30
0.0
 11
82.9164333006
 21
151.9055197691
 31
0.0
  0
ARC
  5
1EF
330
1F
100
AcDbEntity
  8
0
  6
Continuous
 62
     7
370
    15
100
AcDbCircle
 10
69.7937487026
 20
115.4348373567
 30
0.0
 40
40.00000000000001
100
AcDbArc
 50
25.8419327632
 51
62.7236561326
  0
LINE
  5
1F0
330
1F
100
AcDbEntity
  8
0
  6
Continuous
 62
     7
370
    15
100
AcDbLine
 10
105.7937502226
 20
132.8704337334
 30
0.0
 11
105.7937502226
 21
111.9521708437
 31
0.0
  0
LWPOLYLINE
  5
1F1
330
1F
100
AcDbEntity
  8
0
  6
Continuous
 62
     7
370
    15
100
AcDbPolyline
 90
       31
 70
   128
 43
0.0
 10
67.8606218023
 20
124.5527350088
 10
67.9488119965
 20
124.6148477053
 10
68.0597101634
 20
124.8248888855
 10
68.1884692346
 20
125.1736785029
 10
68.3294626249
 20
125.6459726696
 10
68.4765277726
 20
126.2211314147
 10
68.6232371552
 20
126.8740146165
 10
68.7631790822
 20
127.5760902767
 10
68.8902375584
 20
128.2966731792
 10
68.9988591073
 20
129.0042697196
 10
69.084296312
 20
129.667958126
 10
69.1428159659
 20
130.2587277
 10
69.1718597261
 20
130.75076218
 10
69.1701586654
 20
131.122555465
 10
69.137786824
 20
131.3578597014
 10
69.0761593466
 20
131.4463893627
 10
68.9879691524
 20
131.3842757349
 10
68.8770709855
 20
131.1742345547
 10
68.7483114486
 20
130.8254449372
 10
68.6073180584
 20
130.3531507706
 10
68.4602533763
 20
129.7779938882
 10
68.3135435281
 20
129.1251106863
 10
68.1736016011
 20
128.4230350261
 10
68.0465435905
 20
127.7024521237
 10
67.9379220416
 20
126.9948537206
 10
67.8524843713
 20
126.3311671769
 10
67.793965183
 20
125.7403957402
 10
67.7649214228
 20
125.2483612602
 10
67.7666224835
 20
124.8765679752
 10
67.7989943249
 20
124.6412646701
 10
67.8606218023
 20
124.5527350088
  0
LWPOLYLINE
  5
1F2
330
1F
100
AcDbEntity
  8
0
  6
Continuous
 62
     7
370
    15
100
AcDbPolyline
 90
       12
 70
   128
 43
0.0
 10
68.8574377743
 20
134.7768137907
 10
68.837581977
 20
134.7055508499
 10
68.7170651106
 20
134.2204156076
 10
68.5997720172
 20
133.6609570985
 10
68.4952059125
 20
133.0725009297
 10
68.4118381066
 20
132.5027196412
 10
68.3564220851
 20
131.9977733051
 10
68.3334477542
 20
131.5985711967
 10
68.3447758963
 20
131.3374525612
 10
68.3894891588
 20
131.2355733221
 10
68.4639651624
 20
131.3011849975
 10
68.5621698683
 20
131.5289753233
  0
LINE
  5
1F3
330
1F
100
AcDbEntity
  8
0
  6
Continuous
 62
     7
370
    15
100
AcDbLine
 10
67.5528196914
 20
118.6950782989
 30
0.0
 11
58.2818010186
 21
82.0189750497
 31
0.0
  0
ARC
  5
1F4
330
1F
100
AcDbEntity
  8
0
  6
Continuous
 62
     7
370
    15
100
AcDbCircle
 10
73.7937487026
 20
109.4348373567
 30
0.0
 40
31.50000000000002
100
AcDbArc
 50
240.4324565774
 51
240.498735007
  0
ARC
  5
1F5
330
1F
100
AcDbEntity
  8
0
  6
Continuous
 62
     7
370
    15
100
AcDbCircle
 10
73.7937487026
 20
109.4348373567
 30
0.0
 40
31.50000000000001
100
AcDbArc
 50
99.3381168105
 51
99.5675434226
  0
SPLINE
  5
1F6
330
1F
100
AcDbEntity
  8
0
  6
Continuous
 62
     7
370
    15
100
AcDbSpline
210
0.0
220
0.0
230
1.0
 70
     8
 71
     3
 72
    10
 73
     6
 74
     0
 42
0.00000001
 43
0.00000001
 12
1.0
 22
0.0
 32
0.0
 13
1.0
 23
0.0
 33
0.0
 40
0.0
 40
0.0
 40
0.0
 40
0.0
 40
0.5000000000000023
 40
0.5000000000000023
 40
1.0
 40
1.0
 40
1.0
 40
1.0
 10
68.68254910390732
 20
140.5173990056683
 30
0.0
 10
68.70757641269921
 20
140.5215144827676
 30
0.0
 10
68.74572672362204
 20
140.6066686547718
 30
0.0
 10
68.83317037801021
 20
140.8940358889134
 30
0.0
 10
68.8804487751998
 20
141.0888627729046
 30
0.0
 10
68.92473244622845
 20
141.3062419391974
 30
0.0
  0
SPLINE
  5
1F7
330
1F
100
AcDbEntity
  8
0
  6
Continuous
 62
     7
370
    15
100
AcDbSpline
210
0.0
220
0.0
230
1.0
 70
     8
 71
     3
 72
     8
 73
     4
 74
     0
 42
0.00000001
 43
0.00000001
 12
1.0
 22
0.0
 32
0.0
 13
1.0
 23
0.0
 33
0.0
 40
0.0
 40
0.0
 40
0.0
 40
0.0
 40
1.0
 40
1.0
 40
1.0
 40
1.0
 10
68.92473244622845
 20
141.3062419391975
 30
0.0
 10
69.02198751173185
 20
141.7836464670018
 30
0.0
 10
69.11926175525727
 20
142.2609613798238
 30
0.0
 10
69.21655291914286
 20
142.7381972272564
 30
0.0
  0
ARC
  5
1F8
330
1F
100
AcDbEntity
  8
0
  6
Continuous
 62
     7
370
    15
100
AcDbCircle
 10
66.7643335296
 20
146.0232023167
 30
0.0
 40
4.099344903825814
100
AcDbArc
 50
306.740939125
 51
343.1672499772
  0
LINE
  5
1F9
330
1F
100
AcDbEntity
  8
0
  6
Continuous
 62
     7
370
    15
100
AcDbLine
 10
68.5621698683
 20
131.5289753233
 30
0.0
 11
71.2909035681
 21
139.2361595039
 31
0.0
  0
LINE
  5
1FA
330
1F
100
AcDbEntity
  8
0
  6
Continuous
 62
     7
370
    15
100
AcDbLine
 10
82.9164333006
 20
151.9055197691
 30
0.0
 11
82.9161725303
 21
152.1435360168
 31
0.0
  0
LINE
  5
1FB
330
1F
100
AcDbEntity
  8
0
  6
Continuous
 62
     7
370
    15
100
AcDbLine
 10
82.9161725303
 20
152.1435360168
 30
0.0
 11
87.3960781207
 21
151.3536068355
 31
0.0
  0
ARC
  5
1FC
330
1F
100
AcDbEntity
  8
0
  6
Continuous
 62
     7
370
    15
100
AcDbCircle
 10
69.7937487026
 20
115.4348373567
 30
0.0
 40
40.00000000000001
100
AcDbArc
 50
62.7236561326
 51
63.8924030092
  0
LINE
  5
1FD
330
1F
100
AcDbEntity
  8
0
  6
Continuous
 62
     7
370
    15
100
AcDbLine
 10
82.9161725303
 20
152.1435360168
 30
0.0
 11
82.8653372189
 21
151.9999521529
 31
0.0
  0
SPLINE
  5
1FE
330
1F
100
AcDbEntity
  8
0
  6
Continuous
 62
     7
370
    15
100
AcDbSpline
210
0.0
220
0.0
230
1.0
 70
     8
 71
     3
 72
    12
 73
     8
 74
     0
 42
0.00000001
 43
0.00000001
 12
1.0
 22
0.0
 32
0.0
 13
1.0
 23
0.0
 33
0.0
 40
0.0
 40
0.0
 40
0.0
 40
0.0
 40
0.4999999999999991
 40
0.4999999999999991
 40
0.7499999999999996
 40
0.7499999999999996
 40
1.0
 40
1.0
 40
1.0
 40
1.0
 10
89.82405049093792
 20
82.3188010575656
 30
0.0
 10
90.27179280791067
 20
82.58349477552952
 30
0.0
 10
90.7434895349768
 20
82.81562205352073
 30
0.0
 10
91.47861587009814
 20
83.12631578562177
 30
0.0
 10
91.72906605978176
 20
83.223182706799
 30
0.0
 10
92.23787307204961
 20
83.39636630787406
 30
0.0
 10
92.49653938154367
 20
83.47342900318976
 30
0.0
 10
92.76319431274884
 20
83.5326338687087
 30
0.0
  0
ARC
  5
1FF
330
1F
100
AcDbEntity
  8
0
  6
Continuous
 62
     7
370
    15
100
AcDbCircle
 10
73.7937487026
 20
109.4348373567
 30
0.0
 40
31.5
100
AcDbArc
 50
240.498735007
 51
300.5904851672
  0
LINE
  5
200
330
1F
100
AcDbEntity
  8
0
  6
Continuous
 62
     7
370
    15
100
AcDbLine
 10
105.7937502226
 20
111.9521708437
 30
0.0
 11
105.7937502226
 21
109.4348373567
 31
0.0
  0
ARC
  5
201
330
1F
100
AcDbEntity
  8
0
  6
Continuous
 62
     7
370
    15
100
AcDbCircle
 10
73.7937487026
 20
109.4348373567
 30
0.0
 40
32.00000000000001
100
AcDbArc
 50
305.972256262
 51
0.0
  0
LINE
  5
202
330
1F
100
AcDbEntity
  8
0
  6
Continuous
 62
     7
370
    15
100
AcDbLine
 10
92.5903379282
 20
83.5371891712
 30
0.0
 11
92.7631951233
 21
83.5326331412
 31
0.0
  0
ARC
  5
203
330
1F
100
AcDbEntity
  8
0
  6
Continuous
 62
     7
370
    15
100
AcDbCircle
 10
73.7937487026
 20
109.4348373567
 30
0.0
 40
32.10551373655944
100
AcDbArc
 50
306.2171350402
 51
4.6464506928
  0
SPLINE
  5
204
330
1F
100
AcDbEntity
  8
0
  6
Continuous
 62
     7
370
    15
100
AcDbSpline
210
0.0
220
0.0
230
1.0
 70
     8
 71
     3
 72
    20
 73
    16
 74
     0
 42
0.00000001
 43
0.00000001
 12
1.0
 22
0.0
 32
0.0
 13
1.0
 23
0.0
 33
0.0
 40
0.0
 40
0.0
 40
0.0
 40
0.0
 40
0.2499999999999994
 40
0.2499999999999994
 40
0.3749999999999994
 40
0.3749999999999994
 40
0.4999999999999996
 40
0.4999999999999996
 40
0.6249999999999996
 40
0.6249999999999996
 40
0.7499999999999997
 40
0.7499999999999997
 40
0.8749999999999999
 40
0.8749999999999999
 40
1.0
 40
1.0
 40
1.0
 40
1.0
 10
63.87025462468191
 20
139.3308950447088
 30
0.0
 10
64.45612501367029
 20
139.5253648773619
 30
0.0
 10
65.01777978548382
 20
139.6926794206016
 30
0.0
 10
65.81683728972476
 20
139.9093356054035
 30
0.0
 10
66.07598362232126
 20
139.9757637571141
 30
0.0
 10
66.56007669093403
 20
140.0940296561974
 30
0.0
 10
66.7874386386411
 20
140.1465403983088
 30
0.0
 10
67.21120194069402
 20
140.2401479793126
 30
0.0
 10
67.4092542525722
 20
140.2815643588875
 30
0.0
 10
67.76184526602628
 20
140.3524452373526
 30
0.0
 10
67.91608220659046
 20
140.3819067069619
 30
0.0
 10
68.18038365928044
 20
140.430937074224
 30
0.0
 10
68.29075733398356
 20
140.4505545699976
 30
0.0
 10
68.46283489315887
 20
140.4805936885183
 30
0.0
 10
68.52337931953667
 20
140.4908262855155
 30
0.0
 10
68.55812807260259
 20
140.4966833517198
 30
0.0
  0
SPLINE
  5
205
330
1F
100
AcDbEntity
  8
0
  6
Continuous
 62
     7
370
    15
100
AcDbSpline
210
0.0
220
0.0
230
1.0
 70
     8
 71
     3
 72
    18
 73
    14
 74
     0
 42
0.00000001
 43
0.00000001
 12
1.0
 22
0.0
 32
0.0
 13
1.0
 23
0.0
 33
0.0
 40
0.0
 40
0.0
 40
0.0
 40
0.0
 40
0.2499999999999993
 40
0.2499999999999993
 40
0.4999999999999987
 40
0.4999999999999987
 40
0.624999999999999
 40
0.624999999999999
 40
0.7499999999999993
 40
0.7499999999999993
 40
0.8749999999999997
 40
0.8749999999999997
 40
1.0
 40
1.0
 40
1.0
 40
1.0
 10
58.25009761218259
 20
82.03693760547434
 30
0.0
 10
58.18887638784959
 20
82.07167024407086
 30
0.0
 10
58.03927790657965
 20
82.15626969243229
 30
0.0
 10
57.57176512792625
 20
82.43167360169402
 30
0.0
 10
57.26477540282548
 20
82.61628347181325
 30
0.0
 10
56.71039397742872
 20
82.96869031867588
 30
0.0
 10
56.51233753439961
 20
83.0973200312378
 30
0.0
 10
56.09817325016738
 20
83.37378211634847
 30
0.0
 10
55.88121025573859
 20
83.52215006389805
 30
0.0
 10
55.42925806512189
 20
83.84046531965303
 30
0.0
 10
55.19577137121821
 20
84.00942417078048
 30
0.0
 10
54.72455185948129
 20
84.36090411415353
 30
0.0
 10
54.48551484132746
 20
84.5443322179086
 30
0.0
 10
54.2436606098446
 20
84.73576742352148
 30
0.0
  0
ELLIPSE
  5
206
330
1F
100
AcDbEntity
  8
0
  6
Continuous
 62
     7
370
    15
100
AcDbEllipse
 10
58.0172737151
 20
127.1091811139
 30
0.0
 11
2.47048456865236
 21
2.832899650590406
 31
0.0
210
0.0
220
0.0
230
1.0
 40
0.6487969398
 41
0.0
 42
6.283185307179586
  0
ARC
  5
207
330
1F
100
AcDbEntity
  8
0
  6
Continuous
 62
     7
370
    15
100
AcDbCircle
 10
73.7937487026
 20
109.4348373567
 30
0.0
 40
31.5
100
AcDbArc
 50
108.3627189333
 51
231.6372810667
  0
LINE
  5
208
330
1F
100
AcDbEntity
  8
0
  6
Continuous
 62
     7
370
    15
100
AcDbLine
 10
77.3871963208
 20
138.9518490737
 30
0.0
 11
79.7227032778
 21
151.7856548284
 31
0.0
  0
LINE
  5
209
330
1F
100
AcDbEntity
  8
0
  6
Continuous
 62
     7
370
    15
100
AcDbLine
 10
80.2079051098
 20
138.4544818406
 30
0.0
 11
82.5434125324
 21
151.2882875954
 31
0.0
  0
LINE
  5
20A
330
1F
100
AcDbEntity
  8
0
  6
Continuous
 62
     7
370
    15
100
AcDbLine
 10
82.8091225883
 20
151.2573788618
 30
0.0
 11
80.4736156312
 21
138.423573107
 31
0.0
  0
ARC
  5
20B
330
1F
100
AcDbEntity
  8
0
  6
Continuous
 62
     7
370
    15
100
AcDbCircle
 10
80.0216913559
 20
152.009717939
 30
0.0
 40
2.622887613481127
100
AcDbArc
 50
344.0348901406
 51
7.2948618246
  0
ARC
  5
20C
330
1F
100
AcDbEntity
  8
0
  6
Continuous
 62
     7
370
    15
100
AcDbCircle
 10
80.7482954965
 20
151.803287106
 30
0.0
 40
2.131906215857566
100
AcDbArc
 50
345.1632527575
 51
5.0340155839
  0
ARC
  5
20D
330
1F
100
AcDbEntity
  8
0
  6
Continuous
 62
     7
370
    15
100
AcDbCircle
 10
74.4935311881
 20
139.4147230322
 30
0.0
 40
5.794491562080385
100
AcDbArc
 50
342.7428032458
 51
350.461156808
  0
ARC
  5
20E
330
1F
100
AcDbEntity
  8
0
  6
Continuous
 62
     7
370
    15
100
AcDbCircle
 10
76.5664675315
 20
139.0762966292
 30
0.0
 40
3.961294519484124
100
AcDbArc
 50
342.4375004652
 51
350.5158181277
  0
LINE
  5
20F
330
1F
100
AcDbEntity
  8
0
  6
Continuous
 62
     7
370
    15
100
AcDbLine
 10
80.3431196434
 20
137.8809920256
 30
0.0
 11
80.2628130948
 21
137.6541702752
 31
0.0
  0
LWPOLYLINE
  5
210
330
1F
100
AcDbEntity
  8
0
  6
Continuous
 62
     7
370
    15
100
AcDbPolyline
 90
       31
 70
   128
 43
0.0
 10
69.0149425825
 20
131.4166187053
 10
69.0960901154
 20
131.4368563448
 10
69.1498041449
 20
131.3068660652
 10
69.1737368067
 20
131.0323307966
 10
69.1668426914
 20
130.6252496992
 10
69.1294230817
 20
130.1034128969
 10
69.0631129143
 20
129.4896266167
 10
68.970810931
 20
128.8107185369
 10
68.8565502239
 20
128.0963605945
 10
68.7253254762
 20
127.3777688598
 10
68.5828713065
 20
126.6863549804
 10
68.4354136062
 20
126.0523329233
 10
68.2893971277
 20
125.5034151231
 10
68.1512037588
 20
125.0635905867
 10
68.0268731264
 20
124.7520827432
 10
67.9218385664
 20
124.5825047349
 10
67.8406910335
 20
124.5622680267
 10
67.786977004
 20
124.6922583063
 10
67.7630438765
 20
124.9667935749
 10
67.7699379919
 20
125.3738756036
 10
67.8073580673
 20
125.8957124059
 10
67.8736677689
 20
126.5094968234
 10
67.965970218
 20
127.1884049033
 10
68.080230925
 20
127.9027647083
 10
68.2114556728
 20
128.6213545804
 10
68.3539098425
 20
129.3127684598
 10
68.5013675427
 20
129.9467905169
 10
68.6473835556
 20
130.4957083171
 10
68.7855773901
 20
130.9355328535
 10
68.9099080225
 20
131.2470416283
 10
69.0149425825
 20
131.4166187053
  0
LWPOLYLINE
  5
211
330
1F
100
AcDbEntity
  8
0
  6
Continuous
 62
     7
370
    15
100
AcDbPolyline
 90
       24
 70
   128
 43
0.0
 10
68.7807061074
 20
129.9521661108
 10
68.8381528778
 20
129.9501339649
 10
68.8681759236
 20
129.8034357582
 10
68.8685489183
 20
129.5229530637
 10
68.8392439222
 20
129.1294879024
 10
68.7824346421
 20
128.6522204732
 10
68.7023339158
 20
128.1265484845
 10
68.6048826499
 20
127.5914589619
 10
68.4973083732
 20
127.0866355603
 10
68.3875897264
 20
126.6495211725
 10
68.283863209
 20
126.3125314121
 10
68.1938224768
 20
126.100662977
 10
68.1241451127
 20
126.0296254163
 10
68.0799990257
 20
126.1046900158
 10
68.0646582802
 20
126.3202893292
 10
68.0792600212
 20
126.6604306852
 10
68.1227220518
 20
127.0998901432
 10
68.1918205989
 20
127.6060751383
 10
68.2814315257
 20
128.1414421951
 10
68.384907983
 20
128.6662871694
 10
68.4945758728
 20
129.1416845029
 10
68.602301955
 20
129.5323743229
 10
68.7000959476
 20
129.8093831842
 10
68.7807061074
 20
129.9521661108
  0
LINE
  5
212
330
1F
100
AcDbEntity
  8
0
  6
Continuous
 62
     7
370
    15
100
AcDbLine
 10
68.6693148052
 20
127.9557513749
 30
0.0
 11
68.5092483943
 21
127.7273892169
 31
0.0
  0
LINE
  5
213
330
1F
100
AcDbEntity
  8
0
  6
Continuous
 62
     7
370
    15
100
AcDbLine
 10
68.5092483943
 20
127.7273892169
 30
0.0
 11
68.5790160967
 21
127.4678836321
 31
0.0
  0
LINE
  5
214
330
1F
100
AcDbEntity
  8
0
  6
Continuous
 62
     7
370
    15
100
AcDbLine
 10
68.8549092335
 20
129.3046789919
 30
0.0
 11
68.8542722089
 21
129.3047926133
 31
0.0
  0
LINE
  5
215
330
1F
100
AcDbEntity
  8
0
  6
Continuous
 62
     7
370
    15
100
AcDbLine
 10
68.6271994671
 20
127.7065927838
 30
0.0
 11
68.5092483943
 21
127.7273892169
 31
0.0
  0
ELLIPSE
  5
216
330
1F
100
AcDbEntity
  8
0
  6
Continuous
 62
     7
370
    15
100
AcDbEllipse
 10
71.2681608639
 20
142.5130007742
 30
0.0
 11
0.4087148498875735
 21
2.317396459798914
 31
0.0
210
0.0
220
0.0
230
1.0
 40
0.1043907487
 41
0.4110192178762802
 42
1.645821917582924
  0
LINE
  5
217
330
1F
100
AcDbEntity
  8
0
  6
Continuous
 62
     7
370
    15
100
AcDbLine
 10
68.43251859
 20
132.0738716726
 30
0.0
 11
71.0375095548
 21
139.4315509801
 31
0.0
  0
LWPOLYLINE
  5
218
330
1F
100
AcDbEntity
  8
0
  6
Continuous
 62
     7
370
    15
100
AcDbPolyline
 90
        9
 70
   128
 43
0.0
 10
68.432118587
 20
132.4396504765
 10
68.4142409188
 20
132.3327700352
 10
68.4004550164
 20
132.2317289864
 10
68.3917797466
 20
132.1439946746
 10
68.3888567907
 20
132.0760528301
 10
68.3919012842
 20
132.032927007
 10
68.4006887784
 20
132.0178004657
 10
68.4145701414
 20
132.0317926561
 10
68.43251859
 20
132.0738716726
  0
LINE
  5
219
330
1F
100
AcDbEntity
  8
0
  6
Continuous
 62
     7
370
    15
100
AcDbLine
 10
71.0295516362
 20
146.712759391
 30
0.0
 11
68.432118587
 21
132.4396504765
 31
0.0
  0
ARC
  5
21A
330
1F
100
AcDbEntity
  8
0
  6
Continuous
 62
     7
370
    15
100
AcDbCircle
 10
73.2622761192
 20
146.3397627537
 30
0.0
 40
2.263666297881827
100
AcDbArc
 50
162.4376877372
 51
170.5158097331
  0
LINE
  5
21B
330
1F
100
AcDbEntity
  8
0
  6
Continuous
 62
     7
370
    15
100
AcDbLine
 10
73.7091118678
 20
154.3804871594
 30
0.0
 11
71.1041207721
 21
147.0228078519
 31
0.0
  0
LWPOLYLINE
  5
21C
330
1F
100
AcDbEntity
  8
0
  6
Continuous
 62
     7
370
    15
100
AcDbPolyline
 90
        9
 70
   128
 43
0.0
 10
73.7095116381
 20
154.0147083556
 10
73.7273893571
 20
154.1215869342
 10
73.7411752632
 20
154.2226317083
 10
73.7498504493
 20
154.3103622948
 10
73.7527737362
 20
154.3783041393
 10
73.7497290608
 20
154.4214318251
 10
73.7409414539
 20
154.436560229
 10
73.7270604111
 20
154.4225643133
 10
73.7091118678
 20
154.3804871594
  0
LINE
  5
21D
330
1F
100
AcDbEntity
  8
0
  6
Continuous
 62
     7
370
    15
100
AcDbLine
 10
71.1120786907
 20
139.7415975784
 30
0.0
 11
73.7095116381
 21
154.0147083556
 31
0.0
  0
ARC
  5
21E
330
1F
100
AcDbEntity
  8
0
  6
Continuous
 62
     7
370
    15
100
AcDbCircle
 10
68.8793622247
 20
140.114596391
 30
0.0
 40
2.263658748929612
100
AcDbArc
 50
342.4376189627
 51
350.5157219899
  0
LWPOLYLINE
  5
21F
330
1F
100
AcDbEntity
  8
0
  6
Continuous
 62
     7
370
    15
100
AcDbPolyline
 90
        9
 70
   128
 43
0.0
 10
73.7076374169
 20
154.0161016141
 10
73.7246212409
 20
154.1176381265
 10
73.7377178554
 20
154.2136276816
 10
73.7459592817
 20
154.2969736015
 10
73.7487364056
 20
154.3615179812
 10
73.7458439614
 20
154.4024887239
 10
73.737495735
 20
154.4168608939
 10
73.7243087458
 20
154.4035653328
 10
73.7072576264
 20
154.3635929679
  0
LINE
  5
220
330
1F
100
AcDbEntity
  8
0
  6
Continuous
 62
     7
370
    15
100
AcDbLine
 10
73.7072576264
 20
154.3635929679
 30
0.0
 11
71.1022665089
 21
147.0059099351
 31
0.0
  0
ARC
  5
221
330
1F
100
AcDbEntity
  8
0
  6
Continuous
 62
     7
370
    15
100
AcDbCircle
 10
73.1523774496
 20
146.3570462599
 30
0.0
 40
2.150343911669299
100
AcDbArc
 50
162.4373301275
 51
170.5159182585
  0
LINE
  5
222
330
1F
100
AcDbEntity
  8
0
  6
Continuous
 62
     7
370
    15
100
AcDbLine
 10
71.0314256901
 20
146.7113661324
 30
0.0
 11
68.4339928737
 21
132.4382572179
 31
0.0
  0
LWPOLYLINE
  5
223
330
1F
100
AcDbEntity
  8
0
  6
Continuous
 62
     7
370
    15
100
AcDbPolyline
 90
        9
 70
   128
 43
0.0
 10
68.4339928737
 20
132.4382572179
 10
68.4170092752
 20
132.3367207055
 10
68.4039125515
 20
132.2407311504
 10
68.3956708124
 20
132.1573852306
 10
68.3928940741
 20
132.0928408508
 10
68.3957862964
 20
132.0518682455
 10
68.4041346719
 20
132.0374998008
 10
68.4173217339
 20
132.0507934992
 10
68.4343728533
 20
132.0907677268
  0
LINE
  5
224
330
1F
100
AcDbEntity
  8
0
  6
Continuous
 62
     7
370
    15
100
AcDbLine
 10
68.4343728533
 20
132.0907677268
 30
0.0
 11
71.039363818
 21
139.4484470343
 31
0.0
  0
ARC
  5
225
330
1F
100
AcDbEntity
  8
0
  6
Continuous
 62
     7
370
    15
100
AcDbCircle
 10
68.9891725975
 20
140.0973300176
 30
0.0
 40
2.150426275565897
100
AcDbArc
 50
342.4374850941
 51
350.5157632919
  0
LINE
  5
226
330
1F
100
AcDbEntity
  8
0
  6
Continuous
 62
     7
370
    15
100
AcDbLine
 10
71.1102046368
 20
139.742990837
 30
0.0
 11
73.7076374169
 21
154.0161016141
 31
0.0
  0
ARC
  5
227
330
1F
100
AcDbEntity
  8
0
  6
Continuous
 62
     7
370
    15
100
AcDbCircle
 10
78.9201248127
 20
153.2066533519
 30
0.0
 40
1.04912583072231
100
AcDbArc
 50
344.03456207
 51
7.2951494806
  0
LINE
  5
228
330
1F
100
AcDbEntity
  8
0
  6
Continuous
 62
     7
370
    15
100
AcDbLine
 10
77.331350494
 20
138.6449726974
 30
0.0
 11
79.9287835432
 21
152.9180834745
 31
0.0
  0
LINE
  5
229
330
1F
100
AcDbEntity
  8
0
  6
Continuous
 62
     7
370
    15
100
AcDbLine
 10
71.3562921917
 20
146.5575526213
 30
0.0
 11
71.2819125799
 21
146.6470042919
 31
0.0
  0
ARC
  5
22A
330
1F
100
AcDbEntity
  8
0
  6
Continuous
 62
     7
370
    15
100
AcDbCircle
 10
75.09869231
 20
139.0179591132
 30
0.0
 40
2.263599220893928
100
AcDbArc
 50
342.4374712031
 51
350.5157884021
  0
LINE
  5
22B
330
1F
100
AcDbEntity
  8
0
  6
Continuous
 62
     7
370
    15
100
AcDbLine
 10
77.2065572271
 20
138.1930707698
 30
0.0
 11
77.2567811252
 21
138.3349260991
 31
0.0
  0
LWPOLYLINE
  5
22C
330
1F
100
AcDbEntity
  8
0
  6
Continuous
 62
     7
370
    15
100
AcDbPolyline
 90
        9
 70
   128
 43
0.0
 10
72.6203308038
 20
149.2104994809
 10
72.6650250906
 20
149.4776996528
 10
72.6994898466
 20
149.7303041374
 10
72.7211777882
 20
149.9496380543
 10
72.7284861093
 20
150.1194926654
 10
72.7208744099
 20
150.2273100172
 10
72.6989053253
 20
150.2651254391
 10
72.6642027327
 20
150.2301449632
 10
72.6193313783
 20
150.1249464904
  0
LINE
  5
22D
330
1F
100
AcDbEntity
  8
0
  6
Continuous
 62
     7
370
    15
100
AcDbLine
 10
71.1666413879
 20
141.2223557686
 30
0.0
 11
72.6203308038
 21
149.2104994809
 31
0.0
  0
ARC
  5
22E
330
1F
100
AcDbEntity
  8
0
  6
Continuous
 62
     7
370
    15
100
AcDbCircle
 10
65.5850974107
 20
142.1547929179
 30
0.0
 40
5.658893196294914
100
AcDbArc
 50
342.4374321108
 51
350.5159076066
  0
LINE
  5
22F
330
1F
100
AcDbEntity
  8
0
  6
Continuous
 62
     7
370
    15
100
AcDbLine
 10
69.5222987158
 20
136.329410479
 30
0.0
 11
70.9802183153
 21
140.4472383415
 31
0.0
  0
LWPOLYLINE
  5
230
330
1F
100
AcDbEntity
  8
0
  6
Continuous
 62
     7
370
    15
100
AcDbPolyline
 90
        9
 70
   128
 43
0.0
 10
69.5212994067
 20
137.2438612138
 10
69.4766052363
 20
136.9766573166
 10
69.4421402475
 20
136.7240546947
 10
69.4204525387
 20
136.5047207778
 10
69.4131444504
 20
136.3348661666
 10
69.4207561498
 20
136.2270488148
 10
69.442725118
 20
136.189233393
 10
69.4774275941
 20
136.2242157315
 10
69.5222987158
 20
136.329410479
  0
LINE
  5
231
330
1F
100
AcDbEntity
  8
0
  6
Continuous
 62
     7
370
    15
100
AcDbLine
 10
70.974988939
 20
145.2320049261
 30
0.0
 11
69.5212994067
 21
137.2438612138
 31
0.0
  0
ARC
  5
232
330
1F
100
AcDbEntity
  8
0
  6
Continuous
 62
     7
370
    15
100
AcDbCircle
 10
76.5565973095
 20
144.2995440828
 30
0.0
 40
5.658960613585119
100
AcDbArc
 50
162.4374360856
 51
170.5157784165
  0
LINE
  5
233
330
1F
100
AcDbEntity
  8
0
  6
Continuous
 62
     7
370
    15
100
AcDbLine
 10
72.6193313783
 20
150.1249464904
 30
0.0
 11
71.1614120116
 21
146.0071186279
 31
0.0
  0
LWPOLYLINE
  5
234
330
1F
100
AcDbEntity
  8
0
  6
Continuous
 62
     7
370
    15
100
AcDbPolyline
 90
       27
 70
   128
 43
0.0
 10
71.3125903455
 20
143.0474388157
 10
71.415960632
 20
143.6592953955
 10
71.4992723258
 20
144.2460397934
 10
71.5576837135
 20
144.773570702
 10
71.5877998916
 20
145.2112327074
 10
71.587870905
 20
145.5335895275
 10
71.5578925626
 20
145.7219029521
 10
71.4996071363
 20
145.7652355288
 10
71.4164016133
 20
145.6610615109
 10
71.313112119
 20
145.4154419457
 10
71.1957410274
 20
145.0426484202
 10
71.0711098106
 20
144.5643472229
 10
70.9464613644
 20
144.0083327447
 10
70.8290399814
 20
143.4069218789
 10
70.7256696948
 20
142.7950615739
 10
70.6423580011
 20
142.2083209013
 10
70.5839466134
 20
141.6807862674
 10
70.5538304353
 20
141.243124262
 10
70.5537594219
 20
140.9207711672
 10
70.5837377643
 20
140.7324540173
 10
70.6420231906
 20
140.6891251658
 10
70.7252287136
 20
140.7932954584
 10
70.8285182079
 20
141.0389150237
 10
70.9458892995
 20
141.4117122744
 10
71.0705205163
 20
141.8900134717
 10
71.1951689625
 20
142.4460279499
 10
71.3125903455
 20
143.0474388157
  0
CIRCLE
  5
235
330
1F
100
AcDbEntity
  8
VERMASSUNG
  6
CENTERX2
100
AcDbCircle
 10
73.7937487026
 20
114.1451806458
 30
0.0
 40
40.00000000000001
  0
DIMENSION
  5
236
330
1F
100
AcDbEntity
  8
VERMASSUNG
100
AcDbDimension
  2
_D_5
 10
42.3199609317
 20
138.8312229237
 30
0.0
 11
33.7871714308
 21
145.5238016468
 31
0.0
 70
   160
  1
%%c<> min. 
 71
     2
 42
-1.0
  3
SLDDIMSTYLE3
100
AcDbAlignedDimension
 13
105.2675364736
 23
89.4591383678
 33
0.0
 14
42.3199609317
 24
138.8312229237
 34
0.0
 50
-38.1083867284
100
AcDbRotatedDimension
  0
INSERT
  5
250
330
1F
100
AcDbEntity
  8
VERMASSUNG
100
AcDbBlockReference
  2
SW_CENTERMARKSYMBOL_0
 10
73.7937487026
 20
109.4348373567
 30
0.0
  0
OLE2FRAME
  5
251
330
1F
100
AcDbEntity
  8
0
100
AcDbOle2Frame
 70
     2
  3
Paintbrush-Bild
 10
13.8511154363
 20
38.264191557
 30
0.0
 11
51.6290888628
 21
31.9806341108
 31
0.0
 71
     2
 72
     0
 73
     1
 90
    12928
310
80552BED0767C5B32B40DDAF6807D121434000000000000000006FFBDDFB85D0
310
4940DDAF6807D121434000000000000000006FFBDDFB85D04940416F4BD60AFB
310
3F4000000000000000002BED0767C5B32B40416F4BD60AFB3F40000000000000
310
0000000000000100000000010000010000000100000000000100000000320000
310
D0CF11E0A1B11AE1000000000000000000000000000000003E000300FEFF0900
310
0600000000000000000000000100000001000000000000000010000002000000
310
01000000FEFFFFFF0000000000000000FFFFFFFFFFFFFFFFFFFFFFFFFFFFFFFF
310
FFFFFFFFFFFFFFFFFFFFFFFFFFFFFFFFFFFFFFFFFFFFFFFFFFFFFFFFFFFFFFFF
310
FFFFFFFFFFFFFFFFFFFFFFFFFFFFFFFFFFFFFFFFFFFFFFFFFFFFFFFFFFFFFFFF
310
FFFFFFFFFFFFFFFFFFFFFFFFFFFFFFFFFFFFFFFFFFFFFFFFFFFFFFFFFFFFFFFF
310
FFFFFFFFFFFFFFFFFFFFFFFFFFFFFFFFFFFFFFFFFFFFFFFFFFFFFFFFFFFFFFFF
310
FFFFFFFFFFFFFFFFFFFFFFFFFFFFFFFFFFFFFFFFFFFFFFFFFFFFFFFFFFFFFFFF
310
FFFFFFFFFFFFFFFFFFFFFFFFFFFFFFFFFFFFFFFFFFFFFFFFFFFFFFFFFFFFFFFF
310
FFFFFFFFFFFFFFFFFFFFFFFFFFFFFFFFFFFFFFFFFFFFFFFFFFFFFFFFFFFFFFFF
310
FFFFFFFFFFFFFFFFFFFFFFFFFFFFFFFFFFFFFFFFFFFFFFFFFFFFFFFFFFFFFFFF
310
FFFFFFFFFFFFFFFFFFFFFFFFFFFFFFFFFFFFFFFFFFFFFFFFFFFFFFFFFFFFFFFF
310
FFFFFFFFFFFFFFFFFFFFFFFFFFFFFFFFFFFFFFFFFFFFFFFFFFFFFFFFFFFFFFFF
310
FFFFFFFFFFFFFFFFFFFFFFFFFFFFFFFFFFFFFFFFFFFFFFFFFFFFFFFFFFFFFFFF
310
FFFFFFFFFFFFFFFFFFFFFFFFFFFFFFFFFFFFFFFFFFFFFFFFFFFFFFFFFFFFFFFF
310
FFFFFFFFFFFFFFFFFFFFFFFFFFFFFFFFFFFFFFFFFFFFFFFFFFFFFFFFFFFFFFFF
310
FDFFFFFFFEFFFFFFFEFFFFFFFEFFFFFF05000000060000000700000008000000
310
090000000A0000000B0000000C0000000D0000000E0000000F00000010000000
310
11000000120000001300000014000000150000001600000017000000FEFFFFFF
310
FFFFFFFFFFFFFFFFFFFFFFFFFFFFFFFFFFFFFFFFFFFFFFFFFFFFFFFFFFFFFFFF
310
FFFFFFFFFFFFFFFFFFFFFFFFFFFFFFFFFFFFFFFFFFFFFFFFFFFFFFFFFFFFFFFF
310
FFFFFFFFFFFFFFFFFFFFFFFFFFFFFFFFFFFFFFFFFFFFFFFFFFFFFFFFFFFFFFFF
310
FFFFFFFFFFFFFFFFFFFFFFFFFFFFFFFFFFFFFFFFFFFFFFFFFFFFFFFFFFFFFFFF
310
FFFFFFFFFFFFFFFFFFFFFFFFFFFFFFFFFFFFFFFFFFFFFFFFFFFFFFFFFFFFFFFF
310
FFFFFFFFFFFFFFFFFFFFFFFFFFFFFFFFFFFFFFFFFFFFFFFFFFFFFFFFFFFFFFFF
310
FFFFFFFFFFFFFFFFFFFFFFFFFFFFFFFFFFFFFFFFFFFFFFFFFFFFFFFFFFFFFFFF
310
FFFFFFFFFFFFFFFFFFFFFFFFFFFFFFFFFFFFFFFFFFFFFFFFFFFFFFFFFFFFFFFF
310
FFFFFFFFFFFFFFFFFFFFFFFFFFFFFFFFFFFFFFFFFFFFFFFFFFFFFFFFFFFFFFFF
310
FFFFFFFFFFFFFFFFFFFFFFFFFFFFFFFFFFFFFFFFFFFFFFFFFFFFFFFFFFFFFFFF
310
FFFFFFFFFFFFFFFFFFFFFFFFFFFFFFFFFFFFFFFFFFFFFFFFFFFFFFFFFFFFFFFF
310
FFFFFFFFFFFFFFFFFFFFFFFFFFFFFFFFFFFFFFFFFFFFFFFFFFFFFFFFFFFFFFFF
310
FFFFFFFFFFFFFFFFFFFFFFFFFFFFFFFFFFFFFFFFFFFFFFFFFFFFFFFFFFFFFFFF
310
52006F006F007400200045006E00740072007900000000000000000000000000
310
0000000000000000000000000000000000000000000000000000000000000000
310
16000500FFFFFFFFFFFFFFFF020000000A00030000000000C000000000000046
310
000000000000000000000000605983E97724CD0103000000C000000000000000
310
01004F006C006500000000000000000000000000000000000000000000000000
310
0000000000000000000000000000000000000000000000000000000000000000
310
0A000200FFFFFFFFFFFFFFFFFFFFFFFF00000000000000000000000000000000
310
0000000000000000000000000000000000000000000000001400000000000000
310
010043006F006D0070004F0062006A0000000000000000000000000000000000
310
0000000000000000000000000000000000000000000000000000000000000000
310
120002010100000003000000FFFFFFFF00000000000000000000000000000000
310
0000000000000000000000000000000000000000010000004D00000000000000
310
01004F006C006500310030004E00610074006900760065000000000000000000
310
0000000000000000000000000000000000000000000000000000000000000000
310
1A000200FFFFFFFFFFFFFFFFFFFFFFFF00000000000000000000000000000000
310
0000000000000000000000000000000000000000040000002426000000000000
310
FEFFFFFF02000000FEFFFFFFFFFFFFFFFFFFFFFFFFFFFFFFFFFFFFFFFFFFFFFF
310
FFFFFFFFFFFFFFFFFFFFFFFFFFFFFFFFFFFFFFFFFFFFFFFFFFFFFFFFFFFFFFFF
310
FFFFFFFFFFFFFFFFFFFFFFFFFFFFFFFFFFFFFFFFFFFFFFFFFFFFFFFFFFFFFFFF
310
FFFFFFFFFFFFFFFFFFFFFFFFFFFFFFFFFFFFFFFFFFFFFFFFFFFFFFFFFFFFFFFF
310
FFFFFFFFFFFFFFFFFFFFFFFFFFFFFFFFFFFFFFFFFFFFFFFFFFFFFFFFFFFFFFFF
310
FFFFFFFFFFFFFFFFFFFFFFFFFFFFFFFFFFFFFFFFFFFFFFFFFFFFFFFFFFFFFFFF
310
FFFFFFFFFFFFFFFFFFFFFFFFFFFFFFFFFFFFFFFFFFFFFFFFFFFFFFFFFFFFFFFF
310
FFFFFFFFFFFFFFFFFFFFFFFFFFFFFFFFFFFFFFFFFFFFFFFFFFFFFFFFFFFFFFFF
310
FFFFFFFFFFFFFFFFFFFFFFFFFFFFFFFFFFFFFFFFFFFFFFFFFFFFFFFFFFFFFFFF
310
FFFFFFFFFFFFFFFFFFFFFFFFFFFFFFFFFFFFFFFFFFFFFFFFFFFFFFFFFFFFFFFF
310
FFFFFFFFFFFFFFFFFFFFFFFFFFFFFFFFFFFFFFFFFFFFFFFFFFFFFFFFFFFFFFFF
310
FFFFFFFFFFFFFFFFFFFFFFFFFFFFFFFFFFFFFFFFFFFFFFFFFFFFFFFFFFFFFFFF
310
FFFFFFFFFFFFFFFFFFFFFFFFFFFFFFFFFFFFFFFFFFFFFFFFFFFFFFFFFFFFFFFF
310
FFFFFFFFFFFFFFFFFFFFFFFFFFFFFFFFFFFFFFFFFFFFFFFFFFFFFFFFFFFFFFFF
310
FFFFFFFFFFFFFFFFFFFFFFFFFFFFFFFFFFFFFFFFFFFFFFFFFFFFFFFFFFFFFFFF
310
FFFFFFFFFFFFFFFFFFFFFFFFFFFFFFFFFFFFFFFFFFFFFFFFFFFFFFFFFFFFFFFF
310
0100000200000000000000000000000000000000000000000000000000000000
310
0000000000000000000000000000000000000000000000000000000000000000
310
0100FEFF030A0000FFFFFFFF0A00030000000000C00000000000004607000000
310
5042727573680007000000504272757368000700000050427275736800F439B2
310
7100000000000000000000000000000000000000000000000000000000000000
310
0000000000000000000000000000000000000000000000000000000000000000
310
0000000000000000000000000000000000000000000000000000000000000000
310
0000000000000000000000000000000000000000000000000000000000000000
310
0000000000000000000000000000000000000000000000000000000000000000
310
0000000000000000000000000000000000000000000000000000000000000000
310
0000000000000000000000000000000000000000000000000000000000000000
310
0000000000000000000000000000000000000000000000000000000000000000
310
0000000000000000000000000000000000000000000000000000000000000000
310
0000000000000000000000000000000000000000000000000000000000000000
310
0000000000000000000000000000000000000000000000000000000000000000
310
0000000000000000000000000000000000000000000000000000000000000000
310
20260000424D0E260000000000003E00000028000000B40200006E0000000100
310
01000000000000000000130B0000130B00000200000002000000000000FFFFFF
310
FFFFFFFFFFFFFFFFFFFFFFFFFFFFFFFFFFFFFFFFFFFFFFFFFFFFFFFFFFFFFFFF
310
FFFFFFFFFFFFFFFFFFFFFFFFFFFFFFFFFFFFFFFFFFFFFFFFFFFFFFFFFFFFFFFF
310
FFFFFFFFFFFFFFFFFFFFFFFFFFFFFFFFFFFFFFFFFFFFFFFFF000FFFFFFFFFFFF
310
FFFFFFFFFFFFFFFFFFFFFFFFFFFFFFFFFFFFFFFFFFFFFFFFFFFFFFFFFFFFFFFF
310
FFFFFFFFFFFFFFFFFFFFFFFFFFFFFFFFFFFFFFFFFFFFFFFFFFFFFFFFFFFFFFFF
310
FFFFFFFFFFFFFFFFFFFFFFFFFFFFFFFFF000FFFFFFFFFFFFFFFFFFFFFFFFFFFF
310
FFFFFFFFFFFFFFFFFFFFFFFFFFFFFFFFFFFFFFFFFFFFFFFFFFFFFFFFFFFFFFFF
310
FFFFFFFFFFFFFFFFFFFFFFFFFFFFFFFFFFFFFFFFFFFFFFFFFFFFFFFFFFFFFFFF
310
FFFFFFFFFFFFFFFFF000FFFFFFFFFFFFFFFFFFFFFFFFFFFFFFFFFFFFFFFFFFFF
310
FFFFFFFFFFFFFFFFFFFFFFFFFFFFFFFFFFFFFFFFFFFFFFFFFFFFFFFFFFFFFFFF
310
FFFFFFFFFFFFFFFFFFFFFFFFFFFFFFFFFFFFFFFFFFFFFFFFFFFFFFFFFFFFFFFF
310
F000FFFFFFFFFFFFFFFFFFFFFFFFFFFFFFFFFFFFFFFFFFFFFFFFFFFFFFFFFFFF
310
FFFFFFFFFFFFFFFFFFFFFFFFFFFFFFFFFFFFFFFFFFFFFFFFFFFFFFFFFFFFFFFF
310
FFFFFFFFFFFFFFFFFFFFFFFFFFFFFFFFFFFFFFFFFFFFFFFFF000FFFFFFFFFFFF
310
FFFFFFFFFFFFFFFFFFFFFFFFFFFFFFFFFFFFFFFFFFFFFFFFFFFFFFFFFFFFFFFF
310
FFFFFFFFFFFFFFFFFFFFFFFFFFFFFFFFFFFFFFFFFFFFFFFFFFFFFFFFFFFFFFFF
310
FFFFFFFFFFFFFFFFFFFFFFFFFFFFFFFFF000FFFFFFFFFFFFFFFFFFFFFFFFFFFF
310
FFFFFFFFFFFFFFFFFFFFFFFFFFFFFFFFFFFFFFFFFFFFFFFFFFFFFFFFFFFFFFFF
310
FFFFFFFFFFFFFFFFFFFFFFFFFFFFFFFFFFFFFFFFFFFFFFFFFFFFFFFFFFFFFFFF
310
FFFFFFFFFFFFFFFFF000FFFFFFFFFFFFFFFFFFFFFFFFFFFFFFFFFFFFFFFFFFFF
310
FFFFFFFFFFFFFFFFFFFFFFFFFFFFFFFFFFFFFFFFFFFFFFFFFFFFFFFFFFFFFFFF
310
FFFFFFFFFFFFFFFFFFFFFFFFFFFFFFFFFFFFFFFFFFFFFFFFFFFFFFFFFFFFFFFF
310
F000FFFFFFFFFFFFFFFFFFFFFFFFFFFFFFFFFFFFFFFFFFFFFFFFFFFFFFFFFFFF
310
FFFFFFFFFFFFFFFFFFFFFFFFFFFFFFFFFFFFFFFFFFFFFFFFFFFFFFFFFFFFFFFF
310
FFFFFFFFFFFFFFFFFFFFFFFFFFFFFFFFFFFFFFFFFFFFFFFFF000FFFFFFFFFFFF
310
FFFFFFFFFFFFFFFFFFFFFFFFFFFFFFFFFFFFFFFFFFFFFFFFFFFFFFFFFFFFFFFF
310
FFFFFFFFFFFFFFFFFFFFFFFFFFFFFFFFFFFFFFFFFFFFFFFFFFFFFFFFFFFFFFFF
310
FFFFFFFFFFFFFFFFFFFFFFFFFFFFFFFFF000FFFFFFFFFFFFFFFFFFFFFFFFFFFF
310
FFFFFFFFFFFFFFFFFFFFFFFFFFFFFFFFFFFFFFFFFFFFFFFFFFFFFFFFFFFFFFFF
310
FFFFFFFFFFFFFFFFFFFFFFFFFFFFFFFFFFFFFFFFFFFFFFFFFFFFFFFFFFFFFFFF
310
FFFFFFFFFFFFFFFFF000FFFFFFFFFFFFFFFFFFFFFFFFFFFFFFFFFFFFFFFFFFFF
310
FFFFFFFFFFFFFFFFFFFFFFFFFFFFFFFFFFFFFFFFFFFFFFFFFFFFFFFFFFFFFFFF
310
FFFFFFFFFFFFFFFFFFFFFFFFFFFFFFFFFFFFFFFFFFFFFFFFFFFFFFFFFFFFFFFF
310
F000FFFFFFFFFFFFFFFFFFFFFFFFFFFFFFFFFFFFFFFFFFFFFFFFFFFFFFFFFFFF
310
FFFFFFFFFFFFFFFFFFFFFFFFFFFFFFFFFFFFFFFFFFFFFFFFFFFFFFFFFFFFFFFF
310
FFFFFFFFFFFFFFFFFFFFFFFFFFFFFFFFFFFFFFFFFFFFFFFFF000FFFFFFFFFFFF
310
FFFFFFFFFFFFFFFFFFFFFFFFFFFFFFFFFFFFFFFFFFFFFFFFFFFFFFFFFFFFFFFF
310
FFFFFFFFFFFFFFFFFFFFFFFFFFFFFFFFFFFFFFFFFFFFFFFFFFFFFFFFFFFFFFFF
310
FFFFFFFFFFFFFFFFFFFFFFFFFFFFFFFFF000FFFFFFFFFFFFFFFFFFFFFFFFFFFF
310
FFFFFFFFFFFFFFFFFFFFFFFFFFFFFFFFFFFFFFFFFFFFFFFFFFFFFFFFFFFFFFFF
310
FFFFFFFFFFFFFFFFFFFFFFFFFFFFFFFFFFFFFFFFFFFFFFFFFFFFFFFFFFFFFFFF
310
FFFFFFFFFFFFFFFFF000FFFFFFFFFFFFFFFFFFFFFFFFFFFFFFFFFFFFFFFFFFFF
310
FFFFFFFFFFFFFFFFFFFFFFFFFFFFFFFFFFFFFFFFFFFFFFFFFFFFFFFFFFFFFFFF
310
FFFFFFFFFFFFFFFFFFFFFFFFFFFFFFFFFFFFFFFFFFFFFFFFFFFFFFFFFFFFFFFF
310
F000FFFFFFFFFFFFFFFFFFFFFFFFFFFFFFFFFFFFFFFFFFFFFFFFFFFFFFFFFFFF
310
FFFFFFFFFFFFFFFFFFFFFFFFFFFFFFFFFFFFFFFFFFFFFFFFFFFFFFFFFFFFFFFF
310
FFFFFFFFFFFFFFFFFFFFFFFFFFFFFFFFFFFFFFFFFFFFFFFFF000FFFFFFFFFFFF
310
FFFFFFFFFFFFFFFFFFFFFFFFFFFFFFFFFFFFFFFFFFFFFFFFFFFFFFFFFFFFFFFF
310
FFFFFFFFFFFFFFFFFFFFFFFFFFFFFFFFFFFFFFFFFFFFFFFFFFFFFFFFFFFFFFFF
310
FFFFFFFFFFFFFFFFFFFFFFFFFFFFFFFFF000FFFFFFFFFFFFFFFFFFFFFFFFFFFF
310
FFFFFFFFFFFFFFFFFFFFFFFFFFFFFFFFFFFFFFFFFFFFFFFFFFFFFFFFFFFFFFFF
310
FFFFFFFFFFFFFFFFFFFFFFFFFFFFFFFFFFFFFFFFFFFFFFFFFFFFFFFFFFFFFFFF
310
FFFFFFFFFFFFFFFFF000FFFFF80003FFFFFFFFFFFFFFFFFFFFFFFFFFFFFFFFFF
310
FFFFF00007FFFFFFFFFF00007FFFFFF800000000000000007FFFFFFFFFFFFFFF
310
FFFFFFFC001FFFFFFFFFFFFFFC001FFFFFFFFFFFFFFFFFFFFFFFFFFE0007FFFF
310
F000FFFF8000007FFFFFFFF8000FFFFFC0007FFFFF80007FFFFF0000007FFFFF
310
FFF8000007FFFFF800000000000000007FFFFFF0001FFFFFFFFFFFC00001FFFF
310
FFFFFFFFC00001FFFFFFFF000000000003FFFFE000007FFFF000FFFE0000000F
310
FFFFFFF0000FFFFF80007FFFFF80007FFFFC0000001FFFFFFFC0000001FFFFF8
310
00000000000000007FFFFFF0001FFFFFFFFFFE0000003FFFFFFFFFFE0000003F
310
FFFFFF000000000003FFFF0000000FFFF000FFF800000003FFFFFFF00007FFFF
310
80007FFFFF80007FFFF000000007FFFFFF000000003FFFF80000000000000000
310
7FFFFFF0001FFFFFFFFFF80000000FFFFFFFFFF80000000FFFFFFF0000000000
310
03FFFC00000003FFF000FFE000000000FFFFFFF00007FFFF80003FFFFF80007F
310
FFC000000001FFFFFC000000001FFFF800000000000000007FFFFFF0001FFFFF
310
FFFFE000000003FFFFFFFFE000000003FFFFFF000000000003FFF000000000FF
310
F000FF80000000007FFFFFF00007FFFF80003FFFFF80007FFF8000000000FFFF
310
F80000000007FFF800000000000000007FFFFFF0001FFFFFFFFFC000000001FF
310
FFFFFFC000000001FFFFFF000000000003FFC0000000007FF000FF0000000000
310
3FFFFFE00007FFFF00003FFFFF80007FFE00000000003FFFF00000000003FFF8
310
00000000000000007FFFFFF0001FFFFFFFFF8000000000FFFFFFFF8000000000
310
FFFFFF000000000003FF80000000003FF000FE00000000001FFFFFE00003FFFF
310
00003FFFFF80007FFC00000000001FFFE00000000001FFF8000001FFFE000000
310
7FFFFFF0001FFFFFFFFE00000000003FFFFFFE00000000003FFFFF0000000000
310
03FF00000000001FF000FC00000000000FFFFFE00003FFFF00001FFFFF80007F
310
F800000000001FFFC00000000000FFF8000001FFFE0000007FFFFFF0001FFFFF
310
FFFC00000000001FFFFFFC00000000001FFFFF000000000003FE00000000000F
310
F000F8000000000007FFFFE00003FFFF00001FFFFF80007FF800000000000FFF
310
800000000000FFF8000001FFFE0000007FFFFFF0001FFFFFFFF800000000000F
310
FFFFF800000000000FFFFF000000000003FC000000000007F000F80000000000
310
03FFFFC00003FFFE00001FFFFF80007FF0000000000007FF0000000000007FF8
310
000001FFFE0000007FFFFFF0001FFFFFFFF0000000000007FFFFF00000000000
310
07FFFF000000000003F8000000000003F000F0000000000003FFFFC00001FFFE
310
00001FFFFF80007FE0000000000007FE0000000000003FF8000001FFFE000000
310
7FFFFFF0001FFFFFFFF0000000000007FFFFF0000000000007FFFF0000000000
310
03F800001F800003F000E00001FFF00001FFFFC00001FFFE00000FFFFF80007F
310
E00001FFE00003FE00001FFF00003FF8000001FFFE0000007FFFFFF0001FFFFF
310
FFE000003E000003FFFFE000003E000003FFFF000000000003F00001FFF80001
310
F000E00007FFFC0001FFFFC00001FFFE00000FFFFF80007FC0000FFFFC0003FC
310
0000FFFFC0001FF8000001FFFE0000007FFFFFF0001FFFFFFFC00003FFE00001
310
FFFFC00003FFE00001FFFF0001FFFFFFFFF00007FFFE0001F000E0000FFFFF00
310
00FFFF800001FFFC00000FFFFF80007FC0001FFFFE0001FC0001FFFFE0001FF8
310
000001FFFE0000007FFFFFF0001FFFFFFF80000FFFF80000FFFF80000FFFF800
310
00FFFF0003FFFFFFFFE0000FFFFF8000F000C0003FFFFF8000FFFF800000FFFC
310
000007FFFF80007F80003FFFFF0001FC0003FFFFF0001FF8000001FFFE000000
310
7FFFFFF0001FFFFFFF80003FFFFE0000FFFF80003FFFFE0000FFFF0003FFFFFF
310
FFE0003FFFFF8000F000C0003FFFFF8000FFFF800000FFFC000007FFFF80007F
310
80007FFFFF8001F80007FFFFF8000FF8000001FFFE0000007FFFFFF0001FFFFF
310
FF00007FFFFF00007FFF00007FFFFF00007FFF0003FFFFFFFFE0003FFFFFC000
310
F000C0007FFFFFC000FFFF000000FFFC000007FFFF80007F8000FFFFFF8000F8
310
000FFFFFF8000FF8000001FFFE0000007FFFFFF0001FFFFFFF0000FFFFFF8000
310
7FFF0000FFFFFF80007FFF0003FFFFFFFFC0007FFFFFC00070008000FFFFFFC0
310
00FFFF000000FFF8000007FFFF80007F8000FFFFFF8000F8000FFFFFF8000FF8
310
000001FFFE0000007FFFFFF0001FFFFFFE0001FFFFFFC0003FFE0001FFFFFFC0
310
003FFF0003FFFFFFFFC0007FFFFFE00070008000FFFFFFC0007FFF0000007FF8
310
000003FFFF80007F0001FFFFFF8000F8000FFFFFF8000FF8000001FFFE000000
310
7FFFFFF0001FFFFFFE0001FFFFFFC0003FFE0001FFFFFFC0003FFF0003FFFFFF
310
FFC000FFFFFFE00070008000FFFFFFC0007FFF0000007FF8000003FFFF80007F
310
0001FFFFFF8000F8001FFFFFF8000FF8000001FFFE0000007FFFFFF0001FFFFF
310
FE0003FFFFFFE0003FFE0003FFFFFFE0003FFF0003FFFFFFFFC000FFFFFFE000
310
70008000FFFFFFC0007FFE0000007FF8000003FFFF80007F0001FFFFFF8000F0
310
001FFFFFF8000FF8000001FFFE0000007FFFFFF0001FFFFFFC0003FFFFFFE000
310
1FFC0003FFFFFFE0001FFF0003FFFFFFFFC000FFFFFFC00070008000FFFFFF80
310
007FFE0000007FF0000003FFFF80007F0001FFFFFF0000F0001FFFFFF8000FF8
310
000001FFFE0000007FFFFFF0001FFFFFFC0007FFFFFFF0001FFC0007FFFFFFF0
310
001FFF0003FFFFFFFFC000FFFFFFC00070008001FFFFFF0000FFFE0000003FF0
310
000001FFFF80007F0001FFFFFF0000F8001FFFFFF0000FF8000001FFFE000000
310
7FFFFFF0001FFFFFFC0007FFFFFFF0001FFC0007FFFFFFF0001FFF0003FFFFFF
310
FFC001FFFFFF80007000FFFFFFFFFE0000FFFE0008003FF0008001FFFF80007F
310
FFFFFFFFFC0000FFFFFFFFFFE0000FF8000001FFFE0000007FFFFFF0001FFFFF
310
F8000FFFFFFFF8000FF8000FFFFFFFF8000FFF0003FFFFFFFFFFFFFFFFFF0000
310
7000FFFFFFFFFC0000FFFC0008003FF0008001FFFF80007FFFFFFFFFF80001FF
310
FFFFFFFF80000FF8000001FFFE0000007FFFFFF0001FFFFFF8000FFFFFFFF800
310
0FF8000FFFFFFFF8000FFF0003FFFFFFFFFFFFFFFFFE0000F000FFFFFFFFE000
310
00FFFC000C003FE000C001FFFF80007FFFFFFFFFC00001FFFFFFFFFE00001FF8
310
000001FFFE0000007FFFFFF0001FFFFFF8000FFFFFFFF8000FF8000FFFFFFFF8
310
000FFF0003FFFFFFFFFFFFFFFFF00000F000FFFFFFFE000001FFFC000C001FE0
310
00C000FFFF80007FFFFFFFFE000001FFFFFFFFE000001FF80FFFFFFFFFFFFFC0
310
7FFFFFF0001FFFFFF8000FFFFFFFF8000FF8000FFFFFFFF8000FFF0003FFFFFF
310
FFFFFFFFFF800000F000FFFFFFC0000001FFFC001C001FE001C000FFFF80007F
310
FFFFFF80000003FFFFFFF80000001FF80FFFFFFFFFFFFFC07FFFFFF0001FFFFF
310
F8001FFFFFFFFC000FF8001FFFFFFFFC000FFF0003FFFFFFFFFFFFFFF0000001
310
F000FFFFF800000001FFF8001C001FE001C000FFFF80007FFFFFF800000003FF
310
FFFF800000003FF80FFFFFFFFFFFFFC07FFFFFF0001FFFFFF8001FFFFFFFFC00
310
0FF8001FFFFFFFFC000FFF0003FFFFFFFFFFFFFE00000001F000FFFFC0000000
310
03FFF8001E001FC001E000FFFF80007FFFFF8000000007FFFFFC000000003FF8
310
0FFFFFFFFFFFFFC07FFFFFF0001FFFFFF8001FFFFFFFFC000FF8001FFFFFFFFC
310
000FFF0003FFFFFFFFFFFFE000000003F000FFFE0000000007FFF8001E000FC0
310
01E0007FFF80007FFFFE0000000007FFFFE0000000007FF80FFFFFFFFFFFFFC0
310
7FFFFFF0001FFFFFF0001FFFFFFFFC0007F0001FFFFFFFFC0007FF0003FFFFFF
310
FFFFFF0000000003F000FFF80000000007FFF8001E000FC003E0007FFF80007F
310
FFF0000000000FFFFF8000000000FFF80FFFFFFFFFFFFFC07FFFFFF0001FFFFF
310
F0001FFFFFFFFC0007F0001FFFFFFFFC0007FF0003FFFFFFFFFFFC0000000007
310
F000FFE0000000000FFFF0003E000FC003E0007FFF80007FFFC0000000001FFF
310
FE0000000001FFF80FFFFFFFFFFFFFC07FFFFFF0001FFFFFF0001FFFFFFFFC00
310
07F0001FFFFFFFFC0007FF0003FFFFFFFFFFF0000000000FF000FFC000000000
310
1FFFF0003F000F8003F0003FFF80007FFF80000000003FFFF80000000003FFF8
310
0FFFFFFFFFFFFFC07FFFFFF0001FFFFFF0001FFFFFFFFC0007F0001FFFFFFFFC
310
0007FF0003FFFFFFFFFFE0000000001FF000FF00000000007FFFF0003F000780
310
03F0003FFF80007FFF00000000007FFFF00000000007FFF80FFFFFFFFFFFFFC0
310
7FFFFFF0001FFFFFF0001FFFFFFFFC0007F0001FFFFFFFFC0007FF0003FFFFFF
310
FFFF80000000007FF000FE0000000000FFFFE0003F00078007F0003FFF80007F
310
FE0000000001FFFFE0000000001FFFF80FFFFFFFFFFFFFC07FFFFFF0001FFFFF
310
F0001FFFFFFFFC0007F0001FFFFFFFFC0007FF0003FFFFFFFFFF0000000000FF
310
F000FC0000000003FFFFE0007F00078007F0003FFF80007FFC0000000007FFFF
310
C0000000007FFFF80FFFFFFFFFFFFFC07FFFFFF0001FFFFFF8001FFFFFFFFC00
310
0FF8001FFFFFFFFC000FFF0003FFFFFFFFFE0000000003FFF000FC000000000F
310
FFFFE0007F80070007F8001FFF80007FF8000000001FFFFF8000000001FFFFF8
310
0FFFFFFFFFFFFFC07FFFFFF0001FFFFFF8001FFFFFFFFC000FF8001FFFFFFFFC
310
000FFF0003FFFFFFFFFC000000000FFFF000F8000000007FFFFFE0007F800700
310
07F8001FFF80007FF000000000FFFFFF800000000FFFFFF80FFFFFFFFFFFFFC0
310
7FFFFFF0001FFFFFF8000FFFFFFFF8000FF8000FFFFFFFF8000FFF0003FFFFFF
310
FFFC000000007FFFF000F800000007FFFFFFC0007F8003000FF8001FFF80007F
310
F000000007FFFFFF000000007FFFFFF80FFFFFFFFFFFFFC07FFFFFF0001FFFFF
310
F8000FFFFFFFF8000FF8000FFFFFFFF8000FFF0003FFFFFFFFF80000000FFFFF
310
F000F0000000FFFFFFFFC000FF8003000FF8001FFF80007FE0000000FFFFFFFF
310
0000000FFFFFFFF8000001FFFE0000007FFFFFF0001FFFFFF8000FFFFFFFF800
310
0FF8000FFFFFFFF8000FFF0003FFFFFFFFF8000000FFFFFFF000F000000FFFFF
310
FFFFC000FFC002000FF8000FFF80007FE000001FFFFFFFFE000001FFFFFFFFF8
310
000001FFFE0000007FFFFFF0001FFFFFF8000FFFFFFFF8000FF8000FFFFFFFF8
310
000FFF0003FFFFFFFFF000001FFFFFFFF000E00000FFFFFFFFFFC000FFC00200
310
0FFC000FFF80007FE00001FFFFFFFFFE00001FFFFFFFFFF8000001FFFE000000
310
7FFFFFF0001FFFFFFC000FFFFFFFF8001FFC000FFFFFFFF8001FFF0003FFFFFF
310
FFF00001FFFFFFFFF000E00007FFFFFFFFFF8000FFC000001FFC000FFF80007F
310
C0000FFFFFFFFFFE0000FFFFFFFFFFF8000001FFFE0000007FFFFFF0001FFFFF
310
FC0007FFFFFFF0001FFC0007FFFFFFF0001FFF0003FFFFFFFFF00007FFFFFFFF
310
F000E0001FFFFFFFFFFF8000FFC000001FFC000FFF80007FC0003FFFFFFFFFFE
310
0001FFFFFFFFFFF8000001FFFE0000007FFFFFF0001FFFFFFC0007FFFFFFF000
310
1FFC0007FFFFFFF0001FFF0003FFFFFFFFF0001FFFFFFFFFF000E0003FFFFF00
310
03FF8001FFE000001FFC0007FF80007FC0007FFFFF0007FC0003FFFFF0003FF8
310
000001FFFE0000007FFFFFF0001FFFFFFC0003FFFFFFE0001FFC0003FFFFFFE0
310
001FFF0003FFFFFFFFF0003FFFFFFFFFF000E0003FFFFF0001FF8001FFE00000
310
1FFE0007FF80007FC0007FFFFE0003FC0007FFFFE0003FF8000001FFFE000000
310
7FFFFFF0001FFFFFFE0003FFFFFFE0003FFE0003FFFFFFE0003FFF0003FFFFFF
310
FFF0003FFFFF8001F000E0003FFFFF0001FF0001FFE000001FFE0007FF80007F
310
C0007FFFFE0003FC0007FFFFE0003FF8000001FFFE0000007FFFFFF0001FFFFF
310
FE0001FFFFFFC0003FFE0001FFFFFFC0003FFF0003FFFFFFFFF0003FFFFF0001
310
F000E0003FFFFF0003FF0001FFE000003FFE0007FF80007FC0007FFFFE0003FC
310
0007FFFFE0003FF8000001FFFE0000007FFFFFF0001FFFFFFF0001FFFFFFC000
310
7FFF0001FFFFFFC0007FFF0003FFFFFFFFF0003FFFFF0001F000E0003FFFFE00
310
03FF0003FFF000003FFE0003FF80007FC0007FFFFC0003FE0007FFFFE0003FF8
310
000001FFFE0000007FFFFFF0001FFFFFFF0000FFFFFF80007FFF0000FFFFFF80
310
007FFF0003FFFFFFFFF0003FFFFF0001F000E0003FFFFE0003FF0003FFF00000
310
3FFF0003FF80007FC0007FFFFC0007FE0007FFFFC0003FF8000001FFFE000000
310
7FFFFFF0001FFFFFFF80007FFFFF0000FFFF80007FFFFF0000FFFF0003FFFFFF
310
FFF0003FFFFF0003F000E0003FFFFC0003FE0003FFF000003FFF0003FF80007F
310
E0003FFFF80007FE0003FFFFC0007FF8000001FFFE0000007FFFFFF0001FFFFF
310
FF80003FFFFE0000FFFF80003FFFFE0000FFFF0003FFFFFFFFF0001FFFFE0003
310
F000F0001FFFF80003FE0003FFF000007FFF0001FF80007FE0003FFFF00007FE
310
0001FFFF80007FF8000001FFFE0000007FFFFFF0001FFFFFFFC0000FFFF80001
310
FFFFC0000FFFF80001FFFF0003FFFFFFFFF0001FFFFC0003F000F0000FFFF000
310
07FE0007FFF800007FFF0001FF80007FE0001FFFE00007FF0000FFFE00007FF8
310
000001FFFE0000007FFFFFF0001FFFFFFFC00003FFE00001FFFFC00003FFE000
310
01FFFF0003FFFFFFFFF8000FFFF80003F000F00003FFC00007FC0007FFF80000
310
7FFF8001FF80007FF00007FF80000FFF00007FF80000FFF8000001FFFE000000
310
7F80000000000001FFE000003E000003FFFFE000003E000003FFFF0003FFFFFF
310
FFF80003FFE00007F000F800000000000FFC0007FFF800007FFF8001FF80007F
310
F000000000000FFF000000000000FFF8000001FFFE0000007F80000000000001
310
FFF0000000000007FFFFF0000000000007FFFF0003FFFFFFFFFC00007E000007
310
F000F800000000000FFC0007FFF80000FFFF8000FF80007FF800000000001FFF
310
800000000001FFF8000001FFFE0000007F80000000000001FFF800000000000F
310
FFFFF800000000000FFFFF0003FFFFFFFFFC00000000000FF000FC0000000000
310
1FFC0007FFFC0000FFFF8000FF80007FF800000000003FFFC00000000001FFF8
310
000001FFFE0000007F80000000000001FFF800000000000FFFFFF80000000000
310
0FFFFF0003FFFFFFFFFE00000000001FF000FE00000000003FF8000FFFFC0000
310
FFFF8000FF80007FFC00000000003FFFC00000000003FFF8000001FFFE000000
310
7F80000000000001FFFC00000000001FFFFFFC00000000001FFFFF0003FFFFFF
310
FFFF00000000001FF000FF00000000003FF8000FFFFC0000FFFFC000FF80007F
310
FE00000000007FFFE00000000007FFF8000001FFFE0000007F80000000000001
310
FFFE00000000003FFFFFFE00000000003FFFFF0003FFFFFFFFFF80000000003F
310
F000FF80000000007FF8000FFFFC0001FFFFC0007F80007FFF0000000000FFFF
310
F0000000000FFFF800000000000000007F80000000000001FFFF8000000000FF
310
FFFFFF8000000000FFFFFF0003FFFFFFFFFFC0000000007FF000FFC000000000
310
FFF8000FFFFE0001FFFFC0007F80007FFF8000000001FFFFF8000000001FFFF8
310
00000000000000007F80000000000001FFFFC000000001FFFFFFFFC000000001
310
FFFFFF0003FFFFFFFFFFE000000000FFF000FFE000000003FFF0001FFFFE0001
310
FFFFC0007F80007FFFC000000007FFFFFE000000003FFFF80000000000000000
310
7F80000000000001FFFFE000000003FFFFFFFFE000000003FFFFFF0003FFFFFF
310
FFFFF000000003FFF000FFF80000000FFFF0001FFFFE0001FFFFE0007F80007F
310
FFF00000000FFFFFFF00000000FFFFF800000000000000007F80000000000001
310
FFFFF80000000FFFFFFFFFF80000000FFFFFFF0003FFFFFFFFFFFC0000000FFF
310
F000FFFE0000003FFFF0001FFFFE0003FFFFE0003F80007FFFFC0000003FFFFF
310
FFC0000003FFFFF800000000000000007F80000000000001FFFFFE0000003FFF
310
FFFFFFFE0000003FFFFFFF0003FFFFFFFFFFFF0000003FFFF000FFFF800000FF
310
FFF0001FFFFF0003FFFFE0003F80007FFFFF000001FFFFFFFFF800001FFFFFF8
310
00000000000000007F80000000000001FFFFFFC00001FFFFFFFFFFFFC00001FF
310
FFFFFF0003FFFFFFFFFFFFC00000FFFFF000FFFFF8000FFFFFFFFFFFFFFFFFFF
310
FFFFFFFFFFFFFFFFFFFFF0001FFFFFFFFFFF0000FFFFFFF80000000000000000
310
7FFFFFFFFFFFFFFFFFFFFFFC001FFFFFFFFFFFFFFC001FFFFFFFFFFFFFFFFFFF
310
FFFFFFFC001FFFFFF000FFFFFFFFFFFFFFFFFFFFFFFFFFFFFFFFFFFFFFFFFFFF
310
FFFFFFFFFFFFFFFFFFFFFFFFFFFFFFFFFFFFFFFFFFFFFFFFFFFFFFFFFFFFFFFF
310
FFFFFFFFFFFFFFFFFFFFFFFFFFFFFFFFFFFFFFFFFFFFFFFFFFFFFFFFFFFFFFFF
310
F000FFFFFFFFFFFFFFFFFFFFFFFFFFFFFFFFFFFFFFFFFFFFFFFFFFFFFFFFFFFF
310
FFFFFFFFFFFFFFFFFFFFFFFFFFFFFFFFFFFFFFFFFFFFFFFFFFFFFFFFFFFFFFFF
310
FFFFFFFFFFFFFFFFFFFFFFFFFFFFFFFFFFFFFFFFFFFFFFFFF000FFFFFFFFFFFF
310
FFFFFFFFFFFFFFFFFFFFFFFFFFFFFFFFFFFFFFFFFFFFFFFFFFFFFFFFFFFFFFFF
310
FFFFFFFFFFFFFFFFFFFFFFFFFFFFFFFFFFFFFFFFFFFFFFFFFFFFFFFFFFFFFFFF
310
FFFFFFFFFFFFFFFFFFFFFFFFFFFFFFFFF000FFFFFFFFFFFFFFFFFFFFFFFFFFFF
310
FFFFFFFFFFFFFFFFFFFFFFFFFFFFFFFFFFFFFFFFFFFFFFFFFFFFFFFFFFFFFFFF
310
FFFFFFFFFFFFFFFFFFFFFFFFFFFFFFFFFFFFFFFFFFFFFFFFFFFFFFFFFFFFFFFF
310
FFFFFFFFFFFFFFFFF000FFFFFFFFFFFFFFFFFFFFFFFFFFFFFFFFFFFFFFFFFFFF
310
FFFFFFFFFFFFFFFFFFFFFFFFFFFFFFFFFFFFFFFFFFFFFFFFFFFFFFFFFFFFFFFF
310
FFFFFFFFFFFFFFFFFFFFFFFFFFFFFFFFFFFFFFFFFFFFFFFFFFFFFFFFFFFFFFFF
310
F000FFFFFFFFFFFFFFFFFFFFFFFFFFFFFFFFFFFFFFFFFFFFFFFFFFFFFFFFFFFF
310
FFFFFFFFFFFFFFFFFFFFFFFFFFFFFFFFFFFFFFFFFFFFFFFFFFFFFFFFFFFFFFFF
310
FFFFFFFFFFFFFFFFFFFFFFFFFFFFFFFFFFFFFFFFFFFFFFFFF000FFFFFFFFFFFF
310
FFFFFFFFFFFFFFFFFFFFFFFFFFFFFFFFFFFFFFFFFFFFFFFFFFFFFFFFFFFFFFFF
310
FFFFFFFFFFFFFFFFFFFFFFFFFFFFFFFFFFFFFFFFFFFFFFFFFFFFFFFFFFFFFFFF
310
FFFFFFFFFFFFFFFFFFFFFFFFFFFFFFFFF000FFFFFFFFFFFFFFFFFFFFFFFFFFFF
310
FFFFFFFFFFFFFFFFFFFFFFFFFFFFFFFFFFFFFFFFFFFFFFFFFFFFFFFFFFFFFFFF
310
FFFFFFFFFFFFFFFFFFFFFFFFFFFFFFFFFFFFFFFFFFFFFFFFFFFFFFFFFFFFFFFF
310
FFFFFFFFFFFFFFFFF000FFFFFFFFFFFFFFFFFFFFFFFFFFFFFFFFFFFFFFFFFFFF
310
FFFFFFFFFFFFFFFFFFFFFFFFFFFFFFFFFFFFFFFFFFFFFFFFFFFFFFFFFFFFFFFF
310
FFFFFFFFFFFFFFFFFFFFFFFFFFFFFFFFFFFFFFFFFFFFFFFFFFFFFFFFFFFFFFFF
310
F000FFFFFFFFFFFFFFFFFFFFFFFFFFFFFFFFFFFFFFFFFFFFFFFFFFFFFFFFFFFF
310
FFFFFFFFFFFFFFFFFFFFFFFFFFFFFFFFFFFFFFFFFFFFFFFFFFFFFFFFFFFFFFFF
310
FFFFFFFFFFFFFFFFFFFFFFFFFFFFFFFFFFFFFFFFFFFFFFFFF000FFFFFFFFFFFF
310
FFFFFFFFFFFFFFFFFFFFFFFFFFFFFFFFFFFFFFFFFFFFFFFFFFFFFFFFFFFFFFFF
310
FFFFFFFFFFFFFFFFFFFFFFFFFFFFFFFFFFFFFFFFFFFFFFFFFFFFFFFFFFFFFFFF
310
FFFFFFFFFFFFFFFFFFFFFFFFFFFFFFFFF000FFFFFFFFFFFFFFFFFFFFFFFFFFFF
310
FFFFFFFFFFFFFFFFFFFFFFFFFFFFFFFFFFFFFFFFFFFFFFFFFFFFFFFFFFFFFFFF
310
FFFFFFFFFFFFFFFFFFFFFFFFFFFFFFFFFFFFFFFFFFFFFFFFFFFFFFFFFFFFFFFF
310
FFFFFFFFFFFFFFFFF000FFFFFFFFFFFFFFFFFFFFFFFFFFFFFFFFFFFFFFFFFFFF
310
FFFFFFFFFFFFFFFFFFFFFFFFFFFFFFFFFFFFFFFFFFFFFFFFFFFFFFFFFFFFFFFF
310
FFFFFFFFFFFFFFFFFFFFFFFFFFFFFFFFFFFFFFFFFFFFFFFFFFFFFFFFFFFFFFFF
310
F000FFFFFFFFFFFFFFFFFFFFFFFFFFFFFFFFFFFFFFFFFFFFFFFFFFFFFFFFFFFF
310
FFFFFFFFFFFFFFFFFFFFFFFFFFFFFFFFFFFFFFFFFFFFFFFFFFFFFFFFFFFFFFFF
310
FFFFFFFFFFFFFFFFFFFFFFFFFFFFFFFFFFFFFFFFFFFFFFFFF000FFFFFFFFFFFF
310
FFFFFFFFFFFFFFFFFFFFFFFFFFFFFFFFFFFFFFFFFFFFFFFFFFFFFFFFFFFFFFFF
310
FFFFFFFFFFFFFFFFFFFFFFFFFFFFFFFFFFFFFFFFFFFFFFFFFFFFFFFFFFFFFFFF
310
FFFFFFFFFFFFFFFFFFFFFFFFFFFFFFFFF000FFFFFFFFFFFFFFFFFFFFFFFFFFFF
310
FFFFFFFFFFFFFFFFFFFFFFFFFFFFFFFFFFFFFFFFFFFFFFFFFFFFFFFFFFFFFFFF
310
FFFFFFFFFFFFFFFFFFFFFFFFFFFFFFFFFFFFFFFFFFFFFFFFFFFFFFFFFFFFFFFF
310
FFFFFFFFFFFFFFFFF000FFFFFFFFFFFFFFFFFFFFFFFFFFFFFFFFFFFFFFFFFFFF
310
FFFFFFFFFFFFFFFFFFFFFFFFFFFFFFFFFFFFFFFFFFFFFFFFFFFFFFFFFFFFFFFF
310
FFFFFFFFFFFFFFFFFFFFFFFFFFFFFFFFFFFFFFFFFFFFFFFFFFFFFFFFFFFFFFFF
310
F000FFFFFFFFFFFFFFFFFFFFFFFFFFFFFFFFFFFFFFFFFFFFFFFFFFFFFFFFFFFF
310
FFFFFFFFFFFFFFFFFFFFFFFFFFFFFFFFFFFFFFFFFFFFFFFFFFFFFFFFFFFFFFFF
310
FFFFFFFFFFFFFFFFFFFFFFFFFFFFFFFFFFFFFFFFFFFFFFFFF000FFFFFFFFFFFF
310
FFFFFFFFFFFFFFFFFFFFFFFFFFFFFFFFFFFFFFFFFFFFFFFFFFFFFFFFFFFFFFFF
310
FFFFFFFFFFFFFFFFFFFFFFFFFFFFFFFFFFFFFFFFFFFFFFFFFFFFFFFFFFFFFFFF
310
FFFFFFFFFFFFFFFFFFFFFFFFFFFFFFFFF000FFFFFFFFFFFFFFFFFFFFFFFFFFFF
310
FFFFFFFFFFFFFFFFFFFFFFFFFFFFFFFFFFFFFFFFFFFFFFFFFFFFFFFFFFFFFFFF
310
FFFFFFFFFFFFFFFFFFFFFFFFFFFFFFFFFFFFFFFFFFFFFFFFFFFFFFFFFFFFFFFF
310
FFFFFFFFFFFFFFFFF000FFFFFFFFFFFFFFFFFFFFFFFFFFFFFFFFFFFFFFFFFFFF
310
FFFFFFFFFFFFFFFFFFFFFFFFFFFFFFFFFFFFFFFFFFFFFFFFFFFFFFFFFFFFFFFF
310
FFFFFFFFFFFFFFFFFFFFFFFFFFFFFFFFFFFFFFFFFFFFFFFFFFFFFFFFFFFFFFFF
310
F000FFFFFFFFFFFFFFFFFFFFFFFFFFFFFFFFFFFFFFFFFFFFFFFFFFFFFFFFFFFF
310
FFFFFFFFFFFFFFFFFFFFFFFFFFFFFFFFFFFFFFFFFFFFFFFFFFFFFFFFFFFFFFFF
310
FFFFFFFFFFFFFFFFFFFFFFFFFFFFFFFFFFFFFFFFFFFFFFFFF000FFFFFFFFFFFF
310
FFFFFFFFFFFFFFFFFFFFFFFFFFFFFFFFFFFFFFFFFFFFFFFFFFFFFFFFFFFFFFFF
310
FFFFFFFFFFFFFFFFFFFFFFFFFFFFFFFFFFFFFFFFFFFFFFFFFFFFFFFFFFFFFFFF
310
FFFFFFFFFFFFFFFFFFFFFFFFFFFFFFFFF0000000000000000000000000000000
310
0000000000000000000000000000000000000000000000000000000000000000
310
0000000000000000000000000000000000000000000000000000000000000000
310
0000000000000000000000000000000000000000000000000000000000000000
310
0000000000000000000000000000000000000000000000000000000000000000
310
0000000000000000000000000000000000000000000000000000000000000000
310
0000000000000000000000000000000000000000000000000000000000000000
310
0000000000000000000000000000000000000000000000000000000000000000
310
0000000000000000000000000000000000000000000000000000000000000000
310
0000000000000000000000000000000000000000000000000000000000000000
310
0000000000000000000000000000000000000000000000000000000000000000
310
0000000000000000000000000000000000000000000000000000000000000000
310
0000000000000000000000000000000000000000000000000000000000000000
310
0000000000000000000000000000000000000000000000000000000000000000
310
0000000000000000000000000000000000000000000000000000000000000000
310
0000000000000000000000000000000000000000000000000000000000000000
  1
OLE
  0
ENDSEC
  0
SECTION
  2
OBJECTS
  0
DICTIONARY
  5
C
330
0
100
AcDbDictionary
281
     1
  3
ACAD_GROUP
350
D
  3
ACAD_LAYOUT
350
1A
  3
ACAD_MLINESTYLE
350
17
  3
ACAD_PLOTSETTINGS
350
19
  3
ACAD_PLOTSTYLENAME
350
E
  0
DICTIONARY
  5
D
102
{ACAD_REACTORS
330
C
102
}
330
C
100
AcDbDictionary
281
     1
  0
DICTIONARY
  5
1A
102
{ACAD_REACTORS
330
C
102
}
330
C
100
AcDbDictionary
281
     1
  3
Layout1
350
1E
  3
Layout2
350
26
  3
Model
350
22
  0
DICTIONARY
  5
17
102
{ACAD_REACTORS
330
C
102
}
330
C
100
AcDbDictionary
281
     1
  3
Standard
350
18
  0
DICTIONARY
  5
19
102
{ACAD_REACTORS
330
C
102
}
330
C
100
AcDbDictionary
281
     1
  0
ACDBDICTIONARYWDFLT
  5
E
102
{ACAD_REACTORS
330
C
102
}
330
C
100
AcDbDictionary
281
     1
  3
Normal
350
F
100
AcDbDictionaryWithDefault
340
F
  0
LAYOUT
  5
1E
102
{ACAD_REACTORS
330
1A
102
}
330
1A
100
AcDbPlotSettings
  1

  2
none_device
  4

  6

 40
0.0
 41
0.0
 42
0.0
 43
0.0
 44
0.0
 45
0.0
 46
0.0
 47
0.0
 48
0.0
 49
0.0
140
0.0
141
0.0
142
1.0
143
1.0
 70
   688
 72
     0
 73
     0
 74
     5
  7

 75
    16
147
1.0
148
0.0
149
0.0
100
AcDbLayout
  1
Layout1
 70
     1
 71
     1
 10
0.0
 20
0.0
 11
420.0
 21
297.0
 12
0.0
 22
0.0
 32
0.0
 14
1.0000000000E+20
 24
1.0000000000E+20
 34
1.0000000000E+20
 15
-1.0000000000E+20
 25
-1.0000000000E+20
 35
-1.0000000000E+20
146
0.0
 13
0.0
 23
0.0
 33
0.0
 16
1.0
 26
0.0
 36
0.0
 17
0.0
 27
1.0
 37
0.0
 76
     0
330
1B
  0
LAYOUT
  5
26
102
{ACAD_REACTORS
330
1A
102
}
330
1A
100
AcDbPlotSettings
  1

  2
none_device
  4

  6

 40
0.0
 41
0.0
 42
0.0
 43
0.0
 44
0.0
 45
0.0
 46
0.0
 47
0.0
 48
0.0
 49
0.0
140
0.0
141
0.0
142
1.0
143
1.0
 70
   688
 72
     0
 73
     0
 74
     5
  7

 75
    16
147
1.0
148
0.0
149
0.0
100
AcDbLayout
  1
Layout2
 70
     1
 71
     2
 10
0.0
 20
0.0
 11
0.0
 21
0.0
 12
0.0
 22
0.0
 32
0.0
 14
0.0
 24
0.0
 34
0.0
 15
0.0
 25
0.0
 35
0.0
146
0.0
 13
0.0
 23
0.0
 33
0.0
 16
1.0
 26
0.0
 36
0.0
 17
0.0
 27
1.0
 37
0.0
 76
     0
330
23
  0
LAYOUT
  5
22
102
{ACAD_REACTORS
330
1A
102
}
330
1A
100
AcDbPlotSettings
  1

  2
none_device
  4

  6

 40
0.0
 41
0.0
 42
0.0
 43
0.0
 44
0.0
 45
0.0
 46
0.0
 47
0.0
 48
0.0
 49
0.0
140
0.0
141
0.0
142
1.0
143
1.0
 70
  1712
 72
     0
 73
     0
 74
     0
  7

 75
     0
147
1.0
148
0.0
149
0.0
100
AcDbLayout
  1
Model
 70
     1
 71
     0
 10
0.0
 20
0.0
 11
297.0
 21
210.0
 12
0.0
 22
0.0
 32
0.0
 14
0.0
 24
0.0
 34
0.0
 15
297.0
 25
210.0
 35
0.0
146
0.0
 13
0.0
 23
0.0
 33
0.0
 16
1.0
 26
0.0
 36
0.0
 17
0.0
 27
1.0
 37
0.0
 76
     0
330
1F
331
29
  0
MLINESTYLE
  5
18
102
{ACAD_REACTORS
330
17
102
}
330
17
100
AcDbMlineStyle
  2
Standard
 70
     0
  3

 62
   256
 51
90.0
 52
90.0
 71
     2
 49
0.5
 62
   256
  6
BYLAYER
 49
-0.5
 62
   256
  6
BYLAYER
  0
ACDBPLACEHOLDER
  5
F
102
{ACAD_REACTORS
330
E
102
}
330
E
  0
ENDSEC
  0
EOF
