  0
SECTION
  2
HEADER
  9
$ACADVER
  1
AC1015
  9
$ACADMAINTVER
 70
     6
  9
$DWGCODEPAGE
  3
ANSI_1252
  9
$INSBASE
 10
0.0
 20
0.0
 30
0.0
  9
$EXTMIN
 10
0.0
 20
0.0
 30
0.0
  9
$EXTMAX
 10
297.0
 20
210.0
 30
0.0
  9
$LIMMIN
 10
0.0
 20
0.0
  9
$LIMMAX
 10
297.0
 20
210.0
  9
$ORTHOMODE
 70
     0
  9
$REGENMODE
 70
     1
  9
$FILLMODE
 70
     1
  9
$QTEXTMODE
 70
     0
  9
$MIRRTEXT
 70
     1
  9
$LTSCALE
 40
1.0
  9
$ATTMODE
 70
     1
  9
$TEXTSIZE
 40
2.0
  9
$TRACEWID
 40
1.0
  9
$TEXTSTYLE
  7
Standard
  9
$CLAYER
  8
0
  9
$CELTYPE
  6
ByLayer
  9
$CECOLOR
 62
   256
  9
$CELTSCALE
 40
1.0
  9
$DISPSILH
 70
     0
  9
$DIMSCALE
 40
1.0
  9
$DIMASZ
 40
3.0
  9
$DIMEXO
 40
0.0
  9
$DIMDLI
 40
3.75
  9
$DIMRND
 40
0.0
  9
$DIMDLE
 40
0.0
  9
$DIMEXE
 40
1.0
  9
$DIMTP
 40
0.0
  9
$DIMTM
 40
0.0
  9
$DIMTXT
 40
2.0
  9
$DIMCEN
 40
2.5
  9
$DIMTSZ
 40
0.0
  9
$DIMTOL
 70
     0
  9
$DIMLIM
 70
     0
  9
$DIMTIH
 70
     1
  9
$DIMTOH
 70
     1
  9
$DIMSE1
 70
     0
  9
$DIMSE2
 70
     0
  9
$DIMTAD
 70
     1
  9
$DIMZIN
 70
     0
  9
$DIMBLK
  1

  9
$DIMASO
 70
     1
  9
$DIMSHO
 70
     1
  9
$DIMPOST
  1

  9
$DIMAPOST
  1

  9
$DIMALT
 70
     0
  9
$DIMALTD
 70
     3
  9
$DIMALTF
 40
0.0393700787
  9
$DIMLFAC
 40
1.0
  9
$DIMTOFL
 70
     1
  9
$DIMTVP
 40
0.0
  9
$DIMTIX
 70
     0
  9
$DIMSOXD
 70
     0
  9
$DIMSAH
 70
     0
  9
$DIMBLK1
  1

  9
$DIMBLK2
  1

  9
$DIMSTYLE
  2
ISO-25
  9
$DIMCLRD
 70
     0
  9
$DIMCLRE
 70
     0
  9
$DIMCLRT
 70
     0
  9
$DIMTFAC
 40
1.0
  9
$DIMGAP
 40
1.524
  9
$DIMJUST
 70
     0
  9
$DIMSD1
 70
     0
  9
$DIMSD2
 70
     0
  9
$DIMTOLJ
 70
     0
  9
$DIMTZIN
 70
     0
  9
$DIMALTZ
 70
     0
  9
$DIMALTTZ
 70
     0
  9
$DIMUPT
 70
     0
  9
$DIMDEC
 70
     2
  9
$DIMTDEC
 70
     3
  9
$DIMALTU
 70
     2
  9
$DIMALTTD
 70
     3
  9
$DIMTXSTY
  7
Standard
  9
$DIMAUNIT
 70
     0
  9
$DIMADEC
 70
     2
  9
$DIMALTRND
 40
0.0
  9
$DIMAZIN
 70
     0
  9
$DIMDSEP
 70
    44
  9
$DIMATFIT
 70
     3
  9
$DIMFRAC
 70
     0
  9
$DIMLDRBLK
  1

  9
$DIMLUNIT
 70
     2
  9
$DIMLWD
 70
    -2
  9
$DIMLWE
 70
    -2
  9
$DIMTMOVE
 70
     0
  9
$LUNITS
 70
     2
  9
$LUPREC
 70
     2
  9
$SKETCHINC
 40
1.0
  9
$FILLETRAD
 40
10.0
  9
$AUNITS
 70
     0
  9
$AUPREC
 70
     2
  9
$MENU
  1
.
  9
$ELEVATION
 40
0.0
  9
$PELEVATION
 40
0.0
  9
$THICKNESS
 40
0.0
  9
$LIMCHECK
 70
     0
  9
$CHAMFERA
 40
10.0
  9
$CHAMFERB
 40
10.0
  9
$CHAMFERC
 40
20.0
  9
$CHAMFERD
 40
0.0
  9
$SKPOLY
 70
     0
  9
$TDCREATE
 40
2456087.467162477
  9
$TDUCREATE
 40
2456087.383829143
  9
$TDUPDATE
 40
2456087.467163924
  9
$TDUUPDATE
 40
2456087.38383059
  9
$TDINDWG
 40
0.0000000116
  9
$TDUSRTIMER
 40
0.0000000116
  9
$USRTIMER
 70
     1
  9
$ANGBASE
 50
0.0
  9
$ANGDIR
 70
     0
  9
$PDMODE
 70
     0
  9
$PDSIZE
 40
-1.0
  9
$PLINEWID
 40
0.0
  9
$SPLFRAME
 70
     0
  9
$SPLINETYPE
 70
     6
  9
$SPLINESEGS
 70
     8
  9
$HANDSEED
  5
26E
  9
$SURFTAB1
 70
     6
  9
$SURFTAB2
 70
     6
  9
$SURFTYPE
 70
     6
  9
$SURFU
 70
     6
  9
$SURFV
 70
     6
  9
$UCSBASE
  2

  9
$UCSNAME
  2

  9
$UCSORG
 10
0.0
 20
0.0
 30
0.0
  9
$UCSXDIR
 10
1.0
 20
0.0
 30
0.0
  9
$UCSYDIR
 10
0.0
 20
1.0
 30
0.0
  9
$UCSORTHOREF
  2

  9
$UCSORTHOVIEW
 70
     0
  9
$UCSORGTOP
 10
0.0
 20
0.0
 30
0.0
  9
$UCSORGBOTTOM
 10
0.0
 20
0.0
 30
0.0
  9
$UCSORGLEFT
 10
0.0
 20
0.0
 30
0.0
  9
$UCSORGRIGHT
 10
0.0
 20
0.0
 30
0.0
  9
$UCSORGFRONT
 10
0.0
 20
0.0
 30
0.0
  9
$UCSORGBACK
 10
0.0
 20
0.0
 30
0.0
  9
$PUCSBASE
  2

  9
$PUCSNAME
  2

  9
$PUCSORG
 10
0.0
 20
0.0
 30
0.0
  9
$PUCSXDIR
 10
1.0
 20
0.0
 30
0.0
  9
$PUCSYDIR
 10
0.0
 20
1.0
 30
0.0
  9
$PUCSORTHOREF
  2

  9
$PUCSORTHOVIEW
 70
     0
  9
$PUCSORGTOP
 10
0.0
 20
0.0
 30
0.0
  9
$PUCSORGBOTTOM
 10
0.0
 20
0.0
 30
0.0
  9
$PUCSORGLEFT
 10
0.0
 20
0.0
 30
0.0
  9
$PUCSORGRIGHT
 10
0.0
 20
0.0
 30
0.0
  9
$PUCSORGFRONT
 10
0.0
 20
0.0
 30
0.0
  9
$PUCSORGBACK
 10
0.0
 20
0.0
 30
0.0
  9
$USERI1
 70
     0
  9
$USERI2
 70
     0
  9
$USERI3
 70
     0
  9
$USERI4
 70
     0
  9
$USERI5
 70
     0
  9
$USERR1
 40
0.0
  9
$USERR2
 40
0.0
  9
$USERR3
 40
0.0
  9
$USERR4
 40
0.0
  9
$USERR5
 40
0.0
  9
$WORLDVIEW
 70
     1
  9
$SHADEDGE
 70
     3
  9
$SHADEDIF
 70
    70
  9
$TILEMODE
 70
     1
  9
$MAXACTVP
 70
    64
  9
$PINSBASE
 10
0.0
 20
0.0
 30
0.0
  9
$PLIMCHECK
 70
     0
  9
$PEXTMIN
 10
1.0000000000E+20
 20
1.0000000000E+20
 30
1.0000000000E+20
  9
$PEXTMAX
 10
-1.0000000000E+20
 20
-1.0000000000E+20
 30
-1.0000000000E+20
  9
$PLIMMIN
 10
0.0
 20
0.0
  9
$PLIMMAX
 10
420.0
 20
297.0
  9
$UNITMODE
 70
     0
  9
$VISRETAIN
 70
     1
  9
$PLINEGEN
 70
     0
  9
$PSLTSCALE
 70
     1
  9
$TREEDEPTH
 70
  3020
  9
$CMLSTYLE
  2
Standard
  9
$CMLJUST
 70
     0
  9
$CMLSCALE
 40
20.0
  9
$PROXYGRAPHICS
 70
     1
  9
$MEASUREMENT
 70
     1
  9
$CELWEIGHT
370
    -1
  9
$ENDCAPS
280
     0
  9
$JOINSTYLE
280
     0
  9
$LWDISPLAY
290
     1
  9
$INSUNITS
 70
     4
  9
$HYPERLINKBASE
  1

  9
$STYLESHEET
  1

  9
$XEDIT
290
     1
  9
$CEPSNTYPE
380
     0
  9
$PSTYLEMODE
290
     1
  9
$FINGERPRINTGUID
  2
{57CBF27D-8889-47AC-96E6-EC3FC968E460}
  9
$VERSIONGUID
  2
{FAEB1C32-E019-11D5-929B-00C0DF256EC4}
  9
$EXTNAMES
290
     1
  9
$PSVPSCALE
 40
0.0
  9
$OLESTARTUP
290
     0
  0
ENDSEC
  0
SECTION
  2
CLASSES
  0
CLASS
  1
ACDBDICTIONARYWDFLT
  2
AcDbDictionaryWithDefault
  3
ObjectDBX Classes
 90
        0
280
     0
281
     0
  0
CLASS
  1
VISUALSTYLE
  2
AcDbVisualStyle
  3
ObjectDBX Classes
 90
     4095
280
     0
281
     0
  0
CLASS
  1
MATERIAL
  2
AcDbMaterial
  3
ObjectDBX Classes
 90
     1153
280
     0
281
     0
  0
CLASS
  1
ACDBPLACEHOLDER
  2
AcDbPlaceHolder
  3
ObjectDBX Classes
 90
        0
280
     0
281
     0
  0
CLASS
  1
LAYOUT
  2
AcDbLayout
  3
ObjectDBX Classes
 90
        0
280
     0
281
     0
  0
ENDSEC
  0
SECTION
  2
TABLES
  0
TABLE
  2
VPORT
  5
8
330
0
100
AcDbSymbolTable
 70
     1
  0
VPORT
  5
29
330
8
100
AcDbSymbolTableRecord
100
AcDbViewportTableRecord
  2
*Active
 70
     0
 10
0.0
 20
0.0
 11
1.0
 21
1.0
 12
148.5
 22
105.0
 13
0.0
 23
0.0
 14
10.0
 24
10.0
 15
10.0
 25
10.0
 16
0.0
 26
0.0
 36
1.0
 17
0.0
 27
0.0
 37
0.0
 40
210.0
 41
1.4142857143
 42
50.0
 43
0.0
 44
0.0
 50
0.0
 51
0.0
 71
     0
 72
  2000
 73
     1
 74
     3
 75
     0
 76
     0
 77
     0
 78
     0
281
     0
 65
     1
110
0.0
120
0.0
130
0.0
111
1.0
121
0.0
131
0.0
112
0.0
122
1.0
132
0.0
 79
     0
146
0.0
  0
ENDTAB
  0
TABLE
  2
LTYPE
  5
5
330
0
100
AcDbSymbolTable
 70
     6
  0
LTYPE
  5
14
330
5
100
AcDbSymbolTableRecord
100
AcDbLinetypeTableRecord
  2
ByBlock
 70
     0
  3

 72
    65
 73
     0
 40
0.0
  0
LTYPE
  5
15
330
5
100
AcDbSymbolTableRecord
100
AcDbLinetypeTableRecord
  2
ByLayer
 70
     0
  3

 72
    65
 73
     0
 40
0.0
  0
LTYPE
  5
16
330
5
100
AcDbSymbolTableRecord
100
AcDbLinetypeTableRecord
  2
Continuous
 70
     0
  3
Solid line
 72
    65
 73
     0
 40
0.0
  0
LTYPE
  5
3F
330
5
100
AcDbSymbolTableRecord
100
AcDbLinetypeTableRecord
  2
HIDDEN
 70
     0
  3
Hidden __ __ __ __ __ __ __ __ __ __ __ __ __ __
 72
    65
 73
     2
 40
1.905
 49
1.27
 74
     0
 49
-0.635
 74
     0
  0
LTYPE
  5
40
330
5
100
AcDbSymbolTableRecord
100
AcDbLinetypeTableRecord
  2
PHANTOM
 70
     0
  3
Phantom ______  __  __  ______  __  __  ______
 72
    65
 73
     6
 40
12.7
 49
6.35
 74
     0
 49
-1.27
 74
     0
 49
1.27
 74
     0
 49
-1.27
 74
     0
 49
1.27
 74
     0
 49
-1.27
 74
     0
  0
LTYPE
  5
41
330
5
100
AcDbSymbolTableRecord
100
AcDbLinetypeTableRecord
  2
CENTER
 70
     0
  3
Center ____ _ ____ _ ____ _ ____ _ ____ _ ____
 72
    65
 73
     4
 40
10.16
 49
6.35
 74
     0
 49
-1.27
 74
     0
 49
1.27
 74
     0
 49
-1.27
 74
     0
  0
LTYPE
  5
42
330
5
100
AcDbSymbolTableRecord
100
AcDbLinetypeTableRecord
  2
CENTERX2
 70
     0
  3
Center (2x) ________  __  ________  __  _____
 72
    65
 73
     4
 40
20.32
 49
12.7
 74
     0
 49
-2.54
 74
     0
 49
2.54
 74
     0
 49
-2.54
 74
     0
  0
LTYPE
  5
43
330
5
100
AcDbSymbolTableRecord
100
AcDbLinetypeTableRecord
  2
DOT2
 70
     0
  3
Dot (.5x) ........................................
 72
    65
 73
     2
 40
0.635
 49
0.0
 74
     0
 49
-0.635
 74
     0
  0
ENDTAB
  0
TABLE
  2
LAYER
  5
2
330
0
100
AcDbSymbolTable
 70
     5
  0
LAYER
  5
10
330
2
100
AcDbSymbolTableRecord
100
AcDbLayerTableRecord
  2
0
 70
     0
 62
     7
  6
Continuous
370
    -3
390
F
  0
LAYER
  5
44
330
2
100
AcDbSymbolTableRecord
100
AcDbLayerTableRecord
  2
FORMAT
 70
     0
 62
     7
  6
Continuous
370
    -3
390
F
  0
LAYER
  5
45
330
2
100
AcDbSymbolTableRecord
100
AcDbLayerTableRecord
  2
VERMASSUNG
 70
     0
 62
     7
  6
Continuous
370
    -3
390
F
  0
LAYER
  5
46
330
2
100
AcDbSymbolTableRecord
100
AcDbLayerTableRecord
  2
KOPF_DÜNN
 70
     0
 62
     7
  6
Continuous
370
    -3
390
F
  0
LAYER
  5
47
330
2
100
AcDbSymbolTableRecord
100
AcDbLayerTableRecord
  2
KOPF_DICK
 70
     0
 62
     7
  6
Continuous
370
    15
390
F
  0
ENDTAB
  0
TABLE
  2
STYLE
  5
3
330
0
100
AcDbSymbolTable
 70
     2
  0
STYLE
  5
11
330
3
100
AcDbSymbolTableRecord
100
AcDbTextStyleTableRecord
  2
Standard
 70
     0
 40
0.0
 41
1.0
 50
0.0
 71
     0
 42
2.0
  3
txt
  4

  0
STYLE
  5
48
330
3
100
AcDbSymbolTableRecord
100
AcDbTextStyleTableRecord
  2
SLDTEXTSTYLE0
 70
     0
 40
0.0
 41
0.7
 50
0.0
 71
     0
 42
0.2
  3
TXT
  4

  0
ENDTAB
  0
TABLE
  2
VIEW
  5
6
330
0
100
AcDbSymbolTable
 70
     0
  0
ENDTAB
  0
TABLE
  2
UCS
  5
7
330
0
100
AcDbSymbolTable
 70
     0
  0
ENDTAB
  0
TABLE
  2
APPID
  5
9
330
0
100
AcDbSymbolTable
 70
     1
  0
APPID
  5
12
330
9
100
AcDbSymbolTableRecord
100
AcDbRegAppTableRecord
  2
ACAD
 70
     0
  0
ENDTAB
  0
TABLE
  2
DIMSTYLE
  5
A
330
0
100
AcDbSymbolTable
 70
     5
100
AcDbDimStyleTable
  0
DIMSTYLE
105
27
330
A
100
AcDbSymbolTableRecord
100
AcDbDimStyleTableRecord
  2
ISO-25
 70
     0
 41
2.5
 42
0.625
 43
3.75
 44
1.25
 73
     0
 74
     0
 77
     1
 78
     8
140
2.5
141
2.5
143
0.0393700787
147
0.625
171
     3
172
     1
178
     0
271
     2
272
     2
274
     3
278
    44
283
     0
284
     8
340
11
  0
DIMSTYLE
105
1B6
102
{ACAD_REACTORS
330
1B5
330
1C9
330
1D3
330
1DD
330
1E6
102
}
330
A
100
AcDbSymbolTableRecord
100
AcDbDimStyleTableRecord
  2
SLDDIMSTYLE0
 70
     0
 41
3.0
 44
0.0
 45
0.000000001
 73
     0
 74
     0
 77
     1
 78
    12
 79
     3
140
2.0
147
0.5
173
     1
178
     0
271
     2
272
     3
276
     2
284
    12
340
48
  0
DIMSTYLE
105
1C1
102
{ACAD_REACTORS
330
1C0
102
}
330
A
100
AcDbSymbolTableRecord
100
AcDbDimStyleTableRecord
  2
SLDDIMSTYLE1
 70
     0
 41
3.0
 44
0.0
 73
     0
 74
     0
 77
     1
 78
    12
 79
     3
140
2.0
147
0.5
173
     1
178
     0
179
     1
272
     3
276
     2
284
    12
340
48
  0
DIMSTYLE
105
248
102
{ACAD_REACTORS
330
247
102
}
330
A
100
AcDbSymbolTableRecord
100
AcDbDimStyleTableRecord
  2
SLDDIMSTYLE2
 70
     0
 41
3.0
 44
0.0
 73
     0
 74
     0
 77
     1
 78
    12
 79
     3
140
2.0
147
0.5
173
     1
178
     0
179
     2
272
     3
276
     2
284
    12
340
48
  0
DIMSTYLE
105
253
102
{ACAD_REACTORS
330
252
102
}
330
A
100
AcDbSymbolTableRecord
100
AcDbDimStyleTableRecord
  2
SLDDIMSTYLE3
 70
     0
 41
3.0
 44
0.0
 45
0.000000001
 73
     0
 74
     0
 77
     1
 78
    12
 79
     3
140
2.0
147
0.5
172
     1
173
     1
178
     0
271
     2
272
     3
276
     2
284
    12
289
     0
340
48
  0
ENDTAB
  0
TABLE
  2
BLOCK_RECORD
  5
1
330
0
100
AcDbSymbolTable
 70
    10
  0
BLOCK_RECORD
  5
1F
330
1
100
AcDbSymbolTableRecord
100
AcDbBlockTableRecord
  2
*Model_Space
340
22
  0
BLOCK_RECORD
  5
1B
330
1
100
AcDbSymbolTableRecord
100
AcDbBlockTableRecord
  2
*Paper_Space
340
1E
  0
BLOCK_RECORD
  5
23
330
1
100
AcDbSymbolTableRecord
100
AcDbBlockTableRecord
  2
*Paper_Space0
340
26
  0
BLOCK_RECORD
  5
1B7
330
1
100
AcDbSymbolTableRecord
100
AcDbBlockTableRecord
  2
_D
340
0
  0
BLOCK_RECORD
  5
1C2
330
1
100
AcDbSymbolTableRecord
100
AcDbBlockTableRecord
  2
_D_1
340
0
  0
BLOCK_RECORD
  5
1CA
330
1
100
AcDbSymbolTableRecord
100
AcDbBlockTableRecord
  2
_D_2
340
0
  0
BLOCK_RECORD
  5
1D4
330
1
100
AcDbSymbolTableRecord
100
AcDbBlockTableRecord
  2
_D_3
340
0
  0
BLOCK_RECORD
  5
1DE
330
1
100
AcDbSymbolTableRecord
100
AcDbBlockTableRecord
  2
_D_4
340
0
  0
BLOCK_RECORD
  5
1E7
330
1
100
AcDbSymbolTableRecord
100
AcDbBlockTableRecord
  2
_D_5
340
0
  0
BLOCK_RECORD
  5
249
330
1
100
AcDbSymbolTableRecord
100
AcDbBlockTableRecord
  2
_D_6
340
0
  0
BLOCK_RECORD
  5
254
330
1
100
AcDbSymbolTableRecord
100
AcDbBlockTableRecord
  2
_D_7
340
0
  0
BLOCK_RECORD
  5
261
330
1
100
AcDbSymbolTableRecord
100
AcDbBlockTableRecord
  2
SW_CENTERMARKSYMBOL_0
340
0
102
{BLKREFS
331
26C
102
}
  0
ENDTAB
  0
ENDSEC
  0
SECTION
  2
BLOCKS
  0
BLOCK
  5
20
330
1F
100
AcDbEntity
  8
0
100
AcDbBlockBegin
  2
*Model_Space
 70
     0
 10
0.0
 20
0.0
 30
0.0
  3
*Model_Space
  1

  0
ENDBLK
  5
21
330
1F
100
AcDbEntity
  8
0
100
AcDbBlockEnd
  0
BLOCK
  5
1C
330
1B
100
AcDbEntity
 67
     1
  8
0
100
AcDbBlockBegin
  2
*Paper_Space
 70
     0
 10
0.0
 20
0.0
 30
0.0
  3
*Paper_Space
  1

  0
ENDBLK
  5
1D
330
1B
100
AcDbEntity
 67
     1
  8
0
100
AcDbBlockEnd
  0
BLOCK
  5
24
330
23
100
AcDbEntity
  8
0
100
AcDbBlockBegin
  2
*Paper_Space0
 70
     0
 10
0.0
 20
0.0
 30
0.0
  3
*Paper_Space0
  1

  0
ENDBLK
  5
25
330
23
100
AcDbEntity
  8
0
100
AcDbBlockEnd
  0
BLOCK
  5
1B8
330
1B7
100
AcDbEntity
  8
0
100
AcDbBlockBegin
  2
_D
 70
     0
 10
0.0
 20
0.0
 30
0.0
  3
_D
  1

  0
SOLID
  5
1BA
330
1B7
100
AcDbEntity
  8
VERMASSUNG
100
AcDbTrace
 10
280.8947259563
 20
147.0687534619
 30
0.0
 11
281.3447259563
 21
150.0687534619
 31
0.0
 12
280.4447259563
 22
150.0687534619
 32
0.0
 13
280.4447259563
 23
150.0687534619
 33
0.0
  0
SOLID
  5
1BB
330
1B7
100
AcDbEntity
  8
VERMASSUNG
100
AcDbTrace
 10
280.8947259563
 20
174.0687534619
 30
0.0
 11
280.4447259563
 21
171.0687534619
 31
0.0
 12
281.3447259563
 22
171.0687534619
 32
0.0
 13
281.3447259563
 23
171.0687534619
 33
0.0
  0
LINE
  5
1BC
330
1B7
100
AcDbEntity
  8
VERMASSUNG
100
AcDbLine
 10
263.1195542052
 20
147.0687534619
 30
0.0
 11
281.8947259563
 21
147.0687534619
 31
0.0
  0
LINE
  5
1BD
330
1B7
100
AcDbEntity
  8
VERMASSUNG
100
AcDbLine
 10
263.1195542052
 20
174.0687534619
 30
0.0
 11
281.8947259563
 21
174.0687534619
 31
0.0
  0
LINE
  5
1BE
330
1B7
100
AcDbEntity
  8
VERMASSUNG
100
AcDbLine
 10
280.8947259563
 20
147.0687534619
 30
0.0
 11
280.8947259563
 21
174.0687534619
 31
0.0
  0
MTEXT
  5
1BF
330
1B7
100
AcDbEntity
  8
VERMASSUNG
100
AcDbMText
 10
278.3165905932
 20
158.2687534109
 30
0.1
 40
2.0
 41
0.0
 71
     1
 72
     1
  1
27
  7
SLDTEXTSTYLE0
 11
6.123233995736766E-17
 21
1.0
 31
0.0
 73
     1
 44
1.0
  0
ENDBLK
  5
1B9
330
1B7
100
AcDbEntity
  8
0
100
AcDbBlockEnd
  0
BLOCK
  5
1C3
330
1C2
100
AcDbEntity
  8
0
100
AcDbBlockBegin
  2
_D_1
 70
     0
 10
0.0
 20
0.0
 30
0.0
  3
_D_1
  1

  0
ARC
  5
1C5
330
1C2
100
AcDbEntity
  8
VERMASSUNG
100
AcDbCircle
 10
263.2647413443
 20
174.0687534619
 30
0.0
 40
10.38831340008868
100
AcDbArc
 50
252.4906330447
 51
0.0
  0
SOLID
  5
1C6
330
1C2
100
AcDbEntity
  8
VERMASSUNG
100
AcDbTrace
 10
260.139295578
 20
164.1617537112
 30
0.0
 11
263.0246113719
 21
163.2250292214
 31
0.0
 12
263.1724628499
 22
164.1128016812
 32
0.0
 13
263.1724628499
 23
164.1128016812
 33
0.0
  0
SOLID
  5
1C7
330
1C2
100
AcDbEntity
  8
VERMASSUNG
100
AcDbTrace
 10
273.6530547444
 20
174.0687534619
 30
0.0
 11
272.7871748164
 21
171.1613917799
 31
0.0
 12
273.678297654
 22
171.0352962271
 32
0.0
 13
273.678297654
 23
171.0352962271
 33
0.0
  0
MTEXT
  5
1C8
330
1C2
100
AcDbEntity
  8
VERMASSUNG
100
AcDbMText
 10
264.3338912057
 20
165.1684276627
 30
0.1
 40
2.0
 41
0.0
 71
     1
 72
     1
  1
107.5°
  7
SLDTEXTSTYLE0
 11
0.8064929364690419
 21
0.5912437259079727
 31
0.0
 73
     1
 44
1.0
  0
ENDBLK
  5
1C4
330
1C2
100
AcDbEntity
  8
0
100
AcDbBlockEnd
  0
BLOCK
  5
1CB
330
1CA
100
AcDbEntity
  8
0
100
AcDbBlockBegin
  2
_D_2
 70
     0
 10
0.0
 20
0.0
 30
0.0
  3
_D_2
  1

  0
SOLID
  5
1CD
330
1CA
100
AcDbEntity
  8
VERMASSUNG
100
AcDbTrace
 10
83.1195542052
 20
188.5687534619
 30
0.0
 11
86.1195542052
 21
188.1187534619
 31
0.0
 12
86.1195542052
 22
189.0187534619
 32
0.0
 13
86.1195542052
 23
189.0187534619
 33
0.0
  0
SOLID
  5
1CE
330
1CA
100
AcDbEntity
  8
VERMASSUNG
100
AcDbTrace
 10
263.1195542052
 20
188.5687534619
 30
0.0
 11
260.1195542052
 21
189.0187534619
 31
0.0
 12
260.1195542052
 22
188.1187534619
 32
0.0
 13
260.1195542052
 23
188.1187534619
 33
0.0
  0
LINE
  5
1CF
330
1CA
100
AcDbEntity
  8
VERMASSUNG
100
AcDbLine
 10
83.1195542052
 20
178.0687534619
 30
0.0
 11
83.1195542052
 21
189.5687534619
 31
0.0
  0
LINE
  5
1D0
330
1CA
100
AcDbEntity
  8
VERMASSUNG
100
AcDbLine
 10
263.1195542052
 20
174.0687534619
 30
0.0
 11
263.1195542052
 21
189.5687534619
 31
0.0
  0
LINE
  5
1D1
330
1CA
100
AcDbEntity
  8
VERMASSUNG
100
AcDbLine
 10
83.1195542052
 20
188.5687534619
 30
0.0
 11
263.1195542052
 21
188.5687534619
 31
0.0
  0
MTEXT
  5
1D2
330
1CA
100
AcDbEntity
  8
VERMASSUNG
100
AcDbMText
 10
170.3195540722
 20
191.1468888251
 30
0.1
 40
2.0
 41
0.0
 71
     1
 72
     1
  1
180
  7
SLDTEXTSTYLE0
 73
     1
 44
1.0
  0
ENDBLK
  5
1CC
330
1CA
100
AcDbEntity
  8
0
100
AcDbBlockEnd
  0
BLOCK
  5
1D5
330
1D4
100
AcDbEntity
  8
0
100
AcDbBlockBegin
  2
_D_3
 70
     0
 10
0.0
 20
0.0
 30
0.0
  3
_D_3
  1

  0
SOLID
  5
1D7
330
1D4
100
AcDbEntity
  8
VERMASSUNG
100
AcDbTrace
 10
263.1195542052
 20
197.0897586352
 30
0.0
 11
260.1195542052
 21
197.5397586352
 31
0.0
 12
260.1195542052
 22
196.6397586352
 32
0.0
 13
260.1195542052
 23
196.6397586352
 33
0.0
  0
SOLID
  5
1D8
330
1D4
100
AcDbEntity
  8
VERMASSUNG
100
AcDbTrace
 10
45.1195542052
 20
197.0897586352
 30
0.0
 11
48.1195542052
 21
196.6397586352
 31
0.0
 12
48.1195542052
 22
197.5397586352
 32
0.0
 13
48.1195542052
 23
197.5397586352
 33
0.0
  0
LINE
  5
1D9
330
1D4
100
AcDbEntity
  8
VERMASSUNG
100
AcDbLine
 10
263.1195542052
 20
174.0687534619
 30
0.0
 11
263.1195542052
 21
198.0897586352
 31
0.0
  0
LINE
  5
1DA
330
1D4
100
AcDbEntity
  8
VERMASSUNG
100
AcDbLine
 10
45.1195542052
 20
167.3610914544
 30
0.0
 11
45.1195542052
 21
198.0897586352
 31
0.0
  0
LINE
  5
1DB
330
1D4
100
AcDbEntity
  8
VERMASSUNG
100
AcDbLine
 10
263.1195542052
 20
197.0897586352
 30
0.0
 11
45.1195542052
 21
197.0897586352
 31
0.0
  0
MTEXT
  5
1DC
330
1D4
100
AcDbEntity
  8
VERMASSUNG
100
AcDbMText
 10
151.3195540722
 20
199.6678939983
 30
0.1
 40
2.0
 41
0.0
 71
     1
 72
     1
  1
218
  7
SLDTEXTSTYLE0
 73
     1
 44
1.0
  0
ENDBLK
  5
1D6
330
1D4
100
AcDbEntity
  8
0
100
AcDbBlockEnd
  0
BLOCK
  5
1DF
330
1DE
100
AcDbEntity
  8
0
100
AcDbBlockBegin
  2
_D_4
 70
     0
 10
0.0
 20
0.0
 30
0.0
  3
_D_4
  1

  0
SOLID
  5
1E1
330
1DE
100
AcDbEntity
  8
VERMASSUNG
100
AcDbTrace
 10
136.3710079384
 20
127.0687534619
 30
0.0
 11
136.8210079384
 21
130.0687534619
 31
0.0
 12
135.9210079384
 22
130.0687534619
 32
0.0
 13
135.9210079384
 23
130.0687534619
 33
0.0
  0
SOLID
  5
1E2
330
1DE
100
AcDbEntity
  8
VERMASSUNG
100
AcDbTrace
 10
136.3710079384
 20
167.0687534619
 30
0.0
 11
135.9210079384
 21
164.0687534619
 31
0.0
 12
136.8210079384
 22
164.0687534619
 32
0.0
 13
136.8210079384
 23
164.0687534619
 33
0.0
  0
LINE
  5
1E3
330
1DE
100
AcDbEntity
  8
VERMASSUNG
100
AcDbLine
 10
136.3710079384
 20
127.0687534619
 30
0.0
 11
136.3710079384
 21
167.0687534619
 31
0.0
  0
MTEXT
  5
1E4
330
1DE
100
AcDbEntity
  8
VERMASSUNG
100
AcDbMText
 10
133.7928724589
 20
153.0128061575
 30
0.1
 40
2.0
 41
0.0
 71
     1
 72
     1
  1
%%c
  7
SLDTEXTSTYLE0
 11
6.123233995736766E-17
 21
1.0
 31
0.0
 73
     1
 44
1.0
  0
MTEXT
  5
1E5
330
1DE
100
AcDbEntity
  8
VERMASSUNG
100
AcDbMText
 10
133.5928724494
 20
156.6228061718
 30
0.1
 40
2.0
 41
0.0
 71
     1
 72
     1
  1
40
  7
SLDTEXTSTYLE0
 11
6.123233995736766E-17
 21
1.0
 31
0.0
 73
     1
 44
1.0
  0
ENDBLK
  5
1E0
330
1DE
100
AcDbEntity
  8
0
100
AcDbBlockEnd
  0
BLOCK
  5
1E8
330
1E7
100
AcDbEntity
  8
0
100
AcDbBlockBegin
  2
_D_5
 70
     0
 10
0.0
 20
0.0
 30
0.0
  3
_D_5
  1

  0
SOLID
  5
1EA
330
1E7
100
AcDbEntity
  8
VERMASSUNG
100
AcDbTrace
 10
35.1195542052
 20
178.5687534619
 30
0.0
 11
34.6695542052
 21
175.5687534619
 31
0.0
 12
35.5695542052
 22
175.5687534619
 32
0.0
 13
35.5695542052
 23
175.5687534619
 33
0.0
  0
SOLID
  5
1EB
330
1E7
100
AcDbEntity
  8
VERMASSUNG
100
AcDbTrace
 10
35.1195542052
 20
115.5687534619
 30
0.0
 11
35.5695542052
 21
118.5687534619
 31
0.0
 12
34.6695542052
 22
118.5687534619
 32
0.0
 13
34.6695542052
 23
118.5687534619
 33
0.0
  0
LINE
  5
1EC
330
1E7
100
AcDbEntity
  8
VERMASSUNG
100
AcDbLine
 10
83.6195542052
 20
178.5687534619
 30
0.0
 11
34.1195542052
 21
178.5687534619
 31
0.0
  0
LINE
  5
1ED
330
1E7
100
AcDbEntity
  8
VERMASSUNG
100
AcDbLine
 10
83.6195542052
 20
115.5687534619
 30
0.0
 11
34.1195542052
 21
115.5687534619
 31
0.0
  0
LINE
  5
1EE
330
1E7
100
AcDbEntity
  8
VERMASSUNG
100
AcDbLine
 10
35.1195542052
 20
178.5687534619
 30
0.0
 11
35.1195542052
 21
115.5687534619
 31
0.0
  0
MTEXT
  5
1EF
330
1E7
100
AcDbEntity
  8
VERMASSUNG
100
AcDbMText
 10
32.3414187161
 20
140.6637533527
 30
0.1
 40
2.0
 41
0.0
 71
     1
 72
     1
  1
PSC
  7
SLDTEXTSTYLE0
 11
-7.044195017643634E-15
 21
1.0
 31
0.0
 73
     1
 44
1.0
  0
MTEXT
  5
1F0
330
1E7
100
AcDbEntity
  8
VERMASSUNG
100
AcDbMText
 10
32.5414187256
 20
145.2637534548
 30
0.1
 40
2.0
 41
0.0
 71
     1
 72
     1
  1
%%c
  7
SLDTEXTSTYLE0
 11
-7.044195017643634E-15
 21
1.0
 31
0.0
 73
     1
 44
1.0
  0
MTEXT
  5
1F1
330
1E7
100
AcDbEntity
  8
VERMASSUNG
100
AcDbMText
 10
32.3414187161
 20
148.8737539348
 30
0.1
 40
2.0
 41
0.0
 71
     1
 72
     1
  1
63
  7
SLDTEXTSTYLE0
 11
-7.044195017643634E-15
 21
1.0
 31
0.0
 73
     1
 44
1.0
  0
ENDBLK
  5
1E9
330
1E7
100
AcDbEntity
  8
0
100
AcDbBlockEnd
  0
BLOCK
  5
24A
330
249
100
AcDbEntity
  8
0
100
AcDbBlockBegin
  2
_D_6
 70
     0
 10
0.0
 20
0.0
 30
0.0
  3
_D_6
  1

  0
ARC
  5
24C
330
249
100
AcDbEntity
  8
VERMASSUNG
100
AcDbCircle
 10
175.3684305925
 20
100.2729822743
 30
0.0
 40
68.66219173114294
100
AcDbArc
 50
258.0
 51
270.0
  0
SOLID
  5
24D
330
249
100
AcDbEntity
  8
VERMASSUNG
100
AcDbTrace
 10
161.0927582144
 20
33.1112241713
 30
0.0
 11
163.9561891998
 21
32.1095940042
 31
0.0
 12
164.1240470539
 22
32.9938019779
 32
0.0
 13
164.1240470539
 23
32.9938019779
 33
0.0
  0
SOLID
  5
24E
330
249
100
AcDbEntity
  8
VERMASSUNG
100
AcDbTrace
 10
175.3684305925
 20
31.6107905431
 30
0.0
 11
172.3789692402
 21
32.1261746943
 31
0.0
 12
172.3593218226
 22
31.226389176
 32
0.0
 13
172.3593218226
 23
31.226389176
 33
0.0
  0
LINE
  5
24F
330
249
100
AcDbEntity
  8
VERMASSUNG
100
AcDbLine
 10
161.8175394394
 20
36.5210517452
 30
0.0
 11
160.8848465236
 21
32.1330765706
 31
0.0
  0
LINE
  5
250
330
249
100
AcDbEntity
  8
VERMASSUNG
100
AcDbLine
 10
175.3684305925
 20
39.428854778
 30
0.0
 11
175.3684305925
 21
30.6107905431
 31
0.0
  0
MTEXT
  5
251
330
249
100
AcDbEntity
  8
VERMASSUNG
100
AcDbMText
 10
165.7755565467
 20
34.8331681397
 30
0.1
 40
2.0
 41
0.0
 71
     1
 72
     1
  1
12°
  7
SLDTEXTSTYLE0
 11
0.9945218953682752
 21
-0.1045284632676357
 31
0.0
 73
     1
 44
1.0
  0
ENDBLK
  5
24B
330
249
100
AcDbEntity
  8
0
100
AcDbBlockEnd
  0
BLOCK
  5
255
330
254
100
AcDbEntity
  8
0
100
AcDbBlockBegin
  2
_D_7
 70
     0
 10
0.0
 20
0.0
 30
0.0
  3
_D_7
  1

  0
SOLID
  5
257
330
254
100
AcDbEntity
  8
VERMASSUNG
100
AcDbTrace
 10
190.5733151427
 20
55.4282982048
 30
0.0
 11
192.0406969754
 21
52.7732481946
 31
0.0
 12
192.7551056019
 22
53.3206240384
 32
0.0
 13
192.7551056019
 23
53.3206240384
 33
0.0
  0
SOLID
  5
258
330
254
100
AcDbEntity
  8
VERMASSUNG
100
AcDbTrace
 10
160.1635460423
 20
95.1176663437
 30
0.0
 11
158.6961642095
 21
97.7727163539
 31
0.0
 12
157.981755583
 22
97.2253405101
 32
0.0
 13
157.981755583
 23
97.2253405101
 33
0.0
  0
LINE
  5
259
330
254
100
AcDbEntity
  8
VERMASSUNG
100
AcDbLine
 10
190.5733151427
 20
55.4282982048
 30
0.0
 11
189.7795277799
 21
54.8201028228
 31
0.0
  0
LINE
  5
25A
330
254
100
AcDbEntity
  8
VERMASSUNG
100
AcDbLine
 10
160.1635460423
 20
95.1176663437
 30
0.0
 11
159.3697586795
 21
94.5094709617
 31
0.0
  0
LINE
  5
25B
330
254
100
AcDbEntity
  8
VERMASSUNG
100
AcDbLine
 10
190.5733151427
 20
55.4282982048
 30
0.0
 11
194.2224874347
 21
50.6655740282
 31
0.0
  0
LINE
  5
25C
330
254
100
AcDbEntity
  8
VERMASSUNG
100
AcDbLine
 10
190.5733151427
 20
55.4282982048
 30
0.0
 11
160.1635460423
 21
95.1176663437
 31
0.0
  0
LINE
  5
25D
330
254
100
AcDbEntity
  8
VERMASSUNG
100
AcDbLine
 10
160.1635460423
 20
95.1176663437
 30
0.0
 11
148.3707751827
 21
110.5090237222
 31
0.0
  0
MTEXT
  5
25E
330
254
100
AcDbEntity
  8
VERMASSUNG
100
AcDbMText
 10
150.4172665459
 20
112.0770338151
 30
0.1
 40
2.0
 41
0.0
 71
     1
 72
     1
  1
%%c
  7
SLDTEXTSTYLE0
 11
0.6081953820079117
 21
-0.7937873627768651
 31
0.0
 73
     1
 44
1.0
  0
MTEXT
  5
25F
330
254
100
AcDbEntity
  8
VERMASSUNG
100
AcDbMText
 10
152.7716093637
 20
109.3331005063
 30
0.1
 40
2.0
 41
0.0
 71
     1
 72
     1
  1
50
  7
SLDTEXTSTYLE0
 11
0.6081953820079117
 21
-0.7937873627768651
 31
0.0
 73
     1
 44
1.0
  0
MTEXT
  5
260
330
254
100
AcDbEntity
  8
VERMASSUNG
100
AcDbMText
 10
156.2915404824
 20
104.7390556935
 30
0.1
 40
2.0
 41
0.0
 71
     1
 72
     1
  1
min.
  7
SLDTEXTSTYLE0
 11
0.6081953820079117
 21
-0.7937873627768651
 31
0.0
 73
     1
 44
1.0
  0
ENDBLK
  5
256
330
254
100
AcDbEntity
  8
0
100
AcDbBlockEnd
  0
BLOCK
  5
262
330
261
100
AcDbEntity
  8
0
100
AcDbBlockBegin
  2
SW_CENTERMARKSYMBOL_0
 70
     0
 10
0.0
 20
0.0
 30
0.0
  3
SW_CENTERMARKSYMBOL_0
  1

  0
LINE
  5
264
330
261
100
AcDbEntity
  8
VERMASSUNG
 62
     0
100
AcDbLine
 10
0.0
 20
0.0
 30
0.0
 11
0.0
 21
2.5
 31
0.0
  0
LINE
  5
265
330
261
100
AcDbEntity
  8
VERMASSUNG
 62
     0
100
AcDbLine
 10
0.0
 20
0.0
 30
0.0
 11
-2.5
 21
0.0
 31
0.0
  0
LINE
  5
266
330
261
100
AcDbEntity
  8
VERMASSUNG
 62
     0
100
AcDbLine
 10
0.0
 20
0.0
 30
0.0
 11
0.0
 21
-2.5
 31
0.0
  0
LINE
  5
267
330
261
100
AcDbEntity
  8
VERMASSUNG
 62
     0
100
AcDbLine
 10
0.0
 20
0.0
 30
0.0
 11
2.5
 21
0.0
 31
0.0
  0
LINE
  5
268
330
261
100
AcDbEntity
  8
VERMASSUNG
 62
     0
100
AcDbLine
 10
0.0
 20
5.0
 30
0.0
 11
0.0
 21
34.0
 31
0.0
  0
LINE
  5
269
330
261
100
AcDbEntity
  8
VERMASSUNG
 62
     0
100
AcDbLine
 10
-5.0
 20
0.0
 30
0.0
 11
-34.0
 21
0.0
 31
0.0
  0
LINE
  5
26A
330
261
100
AcDbEntity
  8
VERMASSUNG
 62
     0
100
AcDbLine
 10
0.0
 20
-5.0
 30
0.0
 11
0.0
 21
-34.0
 31
0.0
  0
LINE
  5
26B
330
261
100
AcDbEntity
  8
VERMASSUNG
 62
     0
100
AcDbLine
 10
5.0
 20
0.0
 30
0.0
 11
34.0
 21
0.0
 31
0.0
  0
ENDBLK
  5
263
330
261
100
AcDbEntity
  8
0
100
AcDbBlockEnd
  0
ENDSEC
  0
SECTION
  2
ENTITIES
  0
MTEXT
  5
49
330
1F
100
AcDbEntity
  8
KOPF_DÜNN
100
AcDbMText
 10
13.8892156294
 20
23.8442973028
 30
0.0
 40
3.0
 41
0.0
 71
     1
 72
     1
  1
PS6.PDF.RQC.180
  7
SLDTEXTSTYLE0
 73
     1
 44
1.0
  0
MTEXT
  5
4A
330
1F
100
AcDbEntity
  8
VERMASSUNG
100
AcDbMText
 10
13.9329988022
 20
28.8834360957
 30
0.0
 40
3.0
 41
0.0
 71
     1
 72
     1
  1
Bohrstange rechts_Boring bar right
  7
SLDTEXTSTYLE0
 73
     1
 44
1.0
  0
MTEXT
  5
4B
330
1F
100
AcDbEntity
  8
VERMASSUNG
100
AcDbMText
 10
98.8601118557
 20
13.8365368179
 30
0.0
 40
2.0
 41
0.0
 71
     1
 72
     1
  1
Datum: 08.06.2012
  7
SLDTEXTSTYLE0
 73
     1
 44
1.0
  0
MTEXT
  5
4C
330
1F
100
AcDbEntity
  8
VERMASSUNG
100
AcDbMText
 10
13.933048693
 20
18.0482802738
 30
0.0
 40
2.0
 41
0.0
 71
     1
 72
     1
  1
PSC ø63 / Wp.: DN..15 06..
  7
SLDTEXTSTYLE0
 73
     1
 44
1.0
  0
MTEXT
  5
4D
330
1F
100
AcDbEntity
  8
VERMASSUNG
100
AcDbMText
 10
13.9808475933
 20
13.9090973692
 30
0.0
 40
2.0
 41
0.0
 71
     1
 72
     1
  1
Gewicht: 2096g
  7
SLDTEXTSTYLE0
 73
     1
 44
1.0
  0
LINE
  5
4E
330
1F
100
AcDbEntity
  8
0
  6
Continuous
 62
     7
370
    15
100
AcDbLine
 10
258.1612711355
 20
158.6993667732
 30
0.0
 11
258.8250268773
 21
160.0123736012
 31
0.0
  0
LINE
  5
4F
330
1F
100
AcDbEntity
  8
0
  6
Continuous
 62
     7
370
    15
100
AcDbLine
 10
248.6154159776
 20
169.7993608092
 30
0.0
 11
248.4306354901
 21
169.4338377312
 31
0.0
  0
LINE
  5
50
330
1F
100
AcDbEntity
  8
0
  6
Continuous
 62
     7
370
    15
100
AcDbLine
 10
257.9169247618
 20
158.3084334417
 30
0.0
 11
258.0460216923
 21
158.563806225
 31
0.0
  0
ARC
  5
51
330
1F
100
AcDbEntity
  8
0
  6
Continuous
 62
     7
370
    15
100
AcDbCircle
 10
104.1195542052
 20
116.5687534619
 30
0.0
 40
1.000000000000014
100
AcDbArc
 50
270.0
 51
0.0
  0
ARC
  5
52
330
1F
100
AcDbEntity
  8
0
  6
Continuous
 62
     7
370
    15
100
AcDbCircle
 10
104.1195542052
 20
177.5687534619
 30
0.0
 40
1.000000000000028
100
AcDbArc
 50
0.0
 51
90.0
  0
ARC
  5
53
330
1F
100
AcDbEntity
  8
0
  6
Continuous
 62
     7
370
    15
100
AcDbCircle
 10
83.6195542052
 20
116.0687534619
 30
0.0
 40
0.5000000000000142
100
AcDbArc
 50
180.0
 51
270.0
  0
ARC
  5
54
330
1F
100
AcDbEntity
  8
0
  6
Continuous
 62
     7
370
    15
100
AcDbCircle
 10
83.6195542052
 20
178.0687534619
 30
0.0
 40
0.5000000000000284
100
AcDbArc
 50
90.0
 51
180.0
  0
LINE
  5
55
330
1F
100
AcDbEntity
  8
0
  6
Continuous
 62
     7
370
    15
100
AcDbLine
 10
83.6195542052
 20
115.5687534619
 30
0.0
 11
104.1195542052
 21
115.5687534619
 31
0.0
  0
LINE
  5
56
330
1F
100
AcDbEntity
  8
0
  6
Continuous
 62
     7
370
    15
100
AcDbLine
 10
104.1195542052
 20
178.5687534619
 30
0.0
 11
83.6195542052
 21
178.5687534619
 31
0.0
  0
LWPOLYLINE
  5
57
330
1F
100
AcDbEntity
  8
0
  6
Continuous
 62
     7
370
    15
100
AcDbPolyline
 90
        3
 70
   128
 43
0.0
 10
82.9195542052
 20
124.5289331831
 10
83.0450091486
 20
124.4606310681
 10
83.1195542052
 20
124.40789331
  0
LWPOLYLINE
  5
58
330
1F
100
AcDbEntity
  8
0
  6
Continuous
 62
     7
370
    15
100
AcDbPolyline
 90
        3
 70
   128
 43
0.0
 10
83.1195542052
 20
169.7296136139
 10
83.0450091486
 20
169.6768758558
 10
82.9195542052
 20
169.6085737408
  0
ARC
  5
59
330
1F
100
AcDbEntity
  8
0
  6
Continuous
 62
     7
370
    15
100
AcDbCircle
 10
109.1195542052
 20
123.0687534619
 30
0.0
 40
4.0
100
AcDbArc
 50
90.0
 51
180.0
  0
ARC
  5
5A
330
1F
100
AcDbEntity
  8
0
  6
Continuous
 62
     7
370
    15
100
AcDbCircle
 10
109.1195542052
 20
171.0687534619
 30
0.0
 40
4.0
100
AcDbArc
 50
180.0
 51
270.0
  0
LINE
  5
5B
330
1F
100
AcDbEntity
  8
0
  6
Continuous
 62
     7
370
    15
100
AcDbLine
 10
109.1195542052
 20
127.0687534619
 30
0.0
 11
237.1195542052
 21
127.0687534619
 31
0.0
  0
LINE
  5
5C
330
1F
100
AcDbEntity
  8
0
  6
Continuous
 62
     7
370
    15
100
AcDbLine
 10
237.1195542052
 20
167.0687534619
 30
0.0
 11
109.1195542052
 21
167.0687534619
 31
0.0
  0
LINE
  5
5D
330
1F
100
AcDbEntity
  8
0
  6
Continuous
 62
     7
370
    15
100
AcDbLine
 10
238.0787992681
 20
168.0279985249
 30
0.0
 11
237.1195542052
 21
167.0687534619
 31
0.0
  0
LINE
  5
5E
330
1F
100
AcDbEntity
  8
0
  6
Continuous
 62
     7
370
    15
100
AcDbLine
 10
237.1195542052
 20
127.0687534619
 30
0.0
 11
237.6195542052
 21
126.5687534619
 31
0.0
  0
LINE
  5
5F
330
1F
100
AcDbEntity
  8
0
  6
Continuous
 62
     7
370
    15
100
AcDbLine
 10
237.6195542052
 20
126.5687534619
 30
0.0
 11
247.4094945523
 21
126.5687534619
 31
0.0
  0
LWPOLYLINE
  5
60
330
1F
100
AcDbEntity
  8
0
  6
Continuous
 62
     7
370
    15
100
AcDbPolyline
 90
       25
 70
   128
 43
0.0
 10
250.0043442143
 20
153.471390089
 10
250.6371378405
 20
152.8161731151
 10
251.0795869612
 20
152.0258879188
 10
251.3015394001
 20
151.1543911302
 10
251.2878694652
 20
150.2610738152
 10
251.0395087401
 20
149.4068140725
 10
250.5733825977
 20
148.649828292
 10
249.9212567642
 20
148.0417038035
 10
249.1275725377
 20
147.623883286
 10
248.2464181864
 20
147.4248405173
 10
247.3378429232
 20
147.4581399331
 10
246.4637646509
 20
147.7215122332
 10
245.6837503592
 20
148.1970090307
 10
245.0509567331
 20
148.8522260046
 10
244.6085076123
 20
149.6425112009
 10
244.3865551735
 20
150.5140079896
 10
244.4002251083
 20
151.4073253046
 10
244.6485858335
 20
152.2615850472
 10
245.1147119759
 20
153.0185708278
 10
245.7668378093
 20
153.6266953162
 10
246.5605220359
 20
154.0445158337
 10
247.4416763872
 20
154.2435586025
 10
248.3502516503
 20
154.2102591867
 10
249.2243299226
 20
153.9468868865
 10
250.0043442143
 20
153.471390089
  0
LWPOLYLINE
  5
61
330
1F
100
AcDbEntity
  8
0
  6
Continuous
 62
     7
370
    15
100
AcDbPolyline
 90
       19
 70
   128
 43
0.0
 10
249.078502674
 20
152.3411655765
 10
249.5374774215
 20
151.823370706
 10
249.7921995024
 20
151.1862671966
 10
249.8119456745
 20
150.5066991343
 10
249.5943342579
 20
149.8666324567
 10
249.1656124011
 20
149.3432686515
 10
248.5774902873
 20
148.9997331177
 10
247.9009041232
 20
148.8774613106
 10
247.2174601854
 20
148.9912010147
 10
246.6095918996
 20
149.3272335432
 10
246.1506171521
 20
149.8450284137
 10
245.8958950711
 20
150.4821319231
 10
245.8761488991
 20
151.1616999854
 10
246.0937603157
 20
151.801766663
 10
246.5224821725
 20
152.3251304682
 10
247.1106042863
 20
152.6686660021
 10
247.7871904504
 20
152.7909378092
 10
248.4706343881
 20
152.677198105
 10
249.078502674
 20
152.3411655765
  0
SPLINE
  5
62
330
1F
100
AcDbEntity
  8
0
  6
Continuous
 62
     7
370
    15
100
AcDbSpline
210
0.0
220
0.0
230
1.0
 70
     8
 71
     3
 72
    11
 73
     7
 74
     0
 42
0.00000001
 43
0.00000001
 12
1.0
 22
0.0
 32
0.0
 13
1.0
 23
0.0
 33
0.0
 40
0.0
 40
0.0
 40
0.0
 40
0.0
 40
0.108110088037122
 40
0.4711580666043666
 40
0.8135808430835956
 40
1.0
 40
1.0
 40
1.0
 40
1.0
 10
246.2148620820217
 20
150.1890621786052
 30
0.0
 10
246.2575976423774
 20
150.1467362972531
 30
0.0
 10
246.4438448683119
 20
149.9622745066167
 30
0.0
 10
246.8093439165662
 20
149.6327101941801
 30
0.0
 10
247.2426252760431
 20
149.3139632051497
 30
0.0
 10
247.4813730968912
 20
149.1617386013245
 30
0.0
 10
247.5655327761215
 20
149.1080787447302
 30
0.0
  0
SPLINE
  5
63
330
1F
100
AcDbEntity
  8
0
  6
Continuous
 62
     7
370
    15
100
AcDbSpline
210
0.0
220
0.0
230
1.0
 70
     8
 71
     3
 72
    10
 73
     6
 74
     0
 42
0.00000001
 43
0.00000001
 12
1.0
 22
0.0
 32
0.0
 13
1.0
 23
0.0
 33
0.0
 40
0.0
 40
0.0
 40
0.0
 40
0.0
 40
0.439116537590425
 40
0.7513669429073379
 40
0.9999999999999999
 40
0.9999999999999999
 40
0.9999999999999999
 40
0.9999999999999999
 10
247.5655327761215
 20
149.1080787447302
 30
0.0
 10
247.7840149078213
 20
149.1712608396824
 30
0.0
 10
248.1578570142376
 20
149.2793709504771
 30
0.0
 10
248.7361810859095
 20
149.5055229950022
 30
0.0
 10
249.0344780983593
 20
149.6387524751485
 30
0.0
 10
249.1667096635554
 20
149.6978115402907
 30
0.0
  0
SPLINE
  5
64
330
1F
100
AcDbEntity
  8
0
  6
Continuous
 62
     7
370
    15
100
AcDbSpline
210
0.0
220
0.0
230
1.0
 70
     8
 71
     3
 72
    10
 73
     6
 74
     0
 42
0.00000001
 43
0.00000001
 12
1.0
 22
0.0
 32
0.0
 13
1.0
 23
0.0
 33
0.0
 40
0.0
 40
0.0
 40
0.0
 40
0.0
 40
0.4391165375903772
 40
0.751366942907314
 40
1.0
 40
1.0
 40
1.0
 40
1.0
 10
249.1667096635554
 20
149.6978115402907
 30
0.0
 10
249.1918328727822
 20
149.9157447473371
 30
0.0
 10
249.2348208891671
 20
150.2886475954853
 30
0.0
 10
249.3321901054749
 20
150.8997226514902
 30
0.0
 10
249.3911012415646
 20
151.2245400351716
 30
0.0
 10
249.4172158568892
 20
151.3685277697263
 30
0.0
  0
SPLINE
  5
65
330
1F
100
AcDbEntity
  8
0
  6
Continuous
 62
     7
370
    15
100
AcDbSpline
210
0.0
220
0.0
230
1.0
 70
     8
 71
     3
 72
    11
 73
     7
 74
     0
 42
0.00000001
 43
0.00000001
 12
1.0
 22
0.0
 32
0.0
 13
1.0
 23
0.0
 33
0.0
 40
0.0
 40
0.0
 40
0.0
 40
0.0
 40
0.1864191569163746
 40
0.528841933395643
 40
0.8918899119628587
 40
0.9999999999999999
 40
0.9999999999999999
 40
0.9999999999999999
 40
0.9999999999999999
 10
249.4172158568893
 20
151.3685277697263
 30
0.0
 10
249.333056177659
 20
151.4221876263206
 30
0.0
 10
249.094308356811
 20
151.5744122301458
 30
0.0
 10
248.6610269973339
 20
151.8931592191762
 30
0.0
 10
248.2955279490796
 20
152.2227235316127
 30
0.0
 10
248.1092807231451
 20
152.4071853222491
 30
0.0
 10
248.0665451627893
 20
152.4495112036012
 30
0.0
  0
SPLINE
  5
66
330
1F
100
AcDbEntity
  8
0
  6
Continuous
 62
     7
370
    15
100
AcDbSpline
210
0.0
220
0.0
230
1.0
 70
     8
 71
     3
 72
    10
 73
     6
 74
     0
 42
0.00000001
 43
0.00000001
 12
1.0
 22
0.0
 32
0.0
 13
1.0
 23
0.0
 33
0.0
 40
0.0
 40
0.0
 40
0.0
 40
0.0
 40
0.4391165375904085
 40
0.7513669429073508
 40
0.9999999999999999
 40
0.9999999999999999
 40
0.9999999999999999
 40
0.9999999999999999
 10
248.0665451627893
 20
152.4495112036012
 30
0.0
 10
247.826585663979
 20
152.3438437064292
 30
0.0
 10
247.4159938970827
 20
152.1630373429282
 30
0.0
 10
246.8540047870559
 20
151.9691982635898
 30
0.0
 10
246.5847332069833
 20
151.8933853728603
 30
0.0
 10
246.4653682753556
 20
151.8597784080408
 30
0.0
  0
SPLINE
  5
67
330
1F
100
AcDbEntity
  8
0
  6
Continuous
 62
     7
370
    15
100
AcDbSpline
210
0.0
220
0.0
230
1.0
 70
     8
 71
     3
 72
    10
 73
     6
 74
     0
 42
0.00000001
 43
0.00000001
 12
1.0
 22
0.0
 32
0.0
 13
1.0
 23
0.0
 33
0.0
 40
0.0
 40
0.0
 40
0.0
 40
0.0
 40
0.4391165375904315
 40
0.7513669429073788
 40
1.0
 40
1.0
 40
1.0
 40
1.0
 10
246.4653682753556
 20
151.8597784080408
 30
0.0
 10
246.4187676990181
 20
151.5993597987744
 30
0.0
 10
246.3390300221532
 20
151.15376069792
 30
0.0
 10
246.2579957674907
 20
150.5749986071017
 30
0.0
 10
246.228110063778
 20
150.3075978128373
 30
0.0
 10
246.2148620820217
 20
150.1890621786052
 30
0.0
  0
LINE
  5
68
330
1F
100
AcDbEntity
  8
0
  6
Continuous
 62
     7
370
    15
100
AcDbLine
 10
248.8730315629
 20
149.5692345831
 30
0.0
 11
248.9018572245
 21
149.7614833254
 31
0.0
  0
LINE
  5
69
330
1F
100
AcDbEntity
  8
0
  6
Continuous
 62
     7
370
    15
100
AcDbLine
 10
248.9018572245
 20
149.7614833254
 30
0.0
 11
249.0271103211
 21
150.5968414401
 31
0.0
  0
LINE
  5
6A
330
1F
100
AcDbEntity
  8
0
  6
Continuous
 62
     7
370
    15
100
AcDbLine
 10
249.0271103211
 20
150.5968414401
 30
0.0
 11
249.4172158569
 21
151.3685277697
 31
0.0
  0
LINE
  5
6B
330
1F
100
AcDbEntity
  8
0
  6
Continuous
 62
     7
370
    15
100
AcDbLine
 10
247.676439627
 20
151.677824874
 30
0.0
 11
248.0665451628
 21
152.4495112036
 31
0.0
  0
LINE
  5
6C
330
1F
100
AcDbEntity
  8
0
  6
Continuous
 62
     7
370
    15
100
AcDbLine
 10
247.676439627
 20
151.677824874
 30
0.0
 11
246.8758511833
 21
151.3829584762
 31
0.0
  0
LINE
  5
6D
330
1F
100
AcDbEntity
  8
0
  6
Continuous
 62
     7
370
    15
100
AcDbLine
 10
246.8758511833
 20
151.3829584762
 30
0.0
 11
246.3503974051
 21
151.1894275004
 31
0.0
  0
LINE
  5
6E
330
1F
100
AcDbEntity
  8
0
  6
Continuous
 62
     7
370
    15
100
AcDbLine
 10
249.0271103211
 20
150.5968414401
 30
0.0
 11
248.3517749741
 21
151.1373331571
 31
0.0
  0
LINE
  5
6F
330
1F
100
AcDbEntity
  8
0
  6
Continuous
 62
     7
370
    15
100
AcDbLine
 10
248.3517749741
 20
151.1373331571
 30
0.0
 11
247.676439627
 21
151.677824874
 31
0.0
  0
LWPOLYLINE
  5
70
330
1F
100
AcDbEntity
  8
0
  6
Continuous
 62
     7
370
    15
100
AcDbPolyline
 90
        3
 70
   128
 43
0.0
 10
248.9018572245
 20
149.7614833254
 10
248.8609135227
 20
149.574728595
 10
248.849514308
 20
149.5374340746
  0
ARC
  5
71
330
1F
100
AcDbEntity
  8
0
  6
Continuous
 62
     7
370
    15
100
AcDbCircle
 10
247.3738038987
 20
150.024483303
 30
0.0
 40
1.446862710521902
100
AcDbArc
 50
110.1305462485
 51
138.2363885391
  0
ARC
  5
72
330
1F
100
AcDbEntity
  8
0
  6
Continuous
 62
     7
370
    15
100
AcDbCircle
 10
247.3956323387
 20
149.9491321722
 30
0.0
 40
1.525132885898676
100
AcDbArc
 50
51.1764454146
 51
109.9262559595
  0
ARC
  5
73
330
1F
100
AcDbEntity
  8
0
  6
Continuous
 62
     7
370
    15
100
AcDbCircle
 10
247.4311899174
 20
149.9713816968
 30
0.0
 40
1.485570481107565
100
AcDbArc
 50
351.8774176231
 51
51.706898603
  0
LINE
  5
74
330
1F
100
AcDbEntity
  8
0
  6
Continuous
 62
     7
370
    15
100
AcDbLine
 10
244.8397415557
 20
155.7572239151
 30
0.0
 11
258.5901376124
 21
159.8177897972
 31
0.0
  0
ARC
  5
75
330
1F
100
AcDbEntity
  8
0
  6
Continuous
 62
     7
370
    15
100
AcDbCircle
 10
244.7240362956
 20
156.142934733
 30
0.0
 40
0.4026916218561931
100
AcDbArc
 50
163.7232760755
 51
286.6981559959
  0
LINE
  5
76
330
1F
100
AcDbEntity
  8
0
  6
Continuous
 62
     7
370
    15
100
AcDbLine
 10
248.592227415
 20
169.7424307249
 30
0.0
 11
244.3374848632
 21
156.2557998403
 31
0.0
  0
ARC
  5
77
330
1F
100
AcDbEntity
  8
0
  6
Continuous
 62
     7
370
    15
100
AcDbCircle
 10
248.9570392606
 20
169.626261601
 30
0.0
 40
0.3828615259862647
100
AcDbArc
 50
106.1873863895
 51
162.3366664714
  0
LINE
  5
78
330
1F
100
AcDbEntity
  8
0
  6
Continuous
 62
     7
370
    15
100
AcDbLine
 10
262.6007012991
 20
174.0545104953
 30
0.0
 11
248.8503052425
 21
169.9939446132
 31
0.0
  0
ARC
  5
79
330
1F
100
AcDbEntity
  8
0
  6
Continuous
 62
     7
370
    15
100
AcDbCircle
 10
262.7164065593
 20
173.6687996773
 30
0.0
 40
0.4026916218562557
100
AcDbArc
 50
343.7232760755
 51
106.6981559959
  0
LINE
  5
7A
330
1F
100
AcDbEntity
  8
0
  6
Continuous
 62
     7
370
    15
100
AcDbLine
 10
258.8482154399
 20
160.0693036855
 30
0.0
 11
263.1029579917
 21
173.5559345701
 31
0.0
  0
ARC
  5
7B
330
1F
100
AcDbEntity
  8
0
  6
Continuous
 62
     7
370
    15
100
AcDbCircle
 10
258.4834035942
 20
160.1854728094
 30
0.0
 40
0.3828615259865417
100
AcDbArc
 50
286.1873863896
 51
342.3366664714
  0
ARC
  5
7C
330
1F
100
AcDbEntity
  8
0
  6
Continuous
 62
     7
370
    15
100
AcDbCircle
 10
262.7167257679
 20
173.6693329729
 30
0.0
 40
0.382557040763475
100
AcDbArc
 50
343.7232760755
 51
106.6981559959
  0
LINE
  5
7D
330
1F
100
AcDbEntity
  8
0
  6
Continuous
 62
     7
370
    15
100
AcDbLine
 10
262.6068057708
 20
174.03575825
 30
0.0
 11
248.8564097142
 21
169.9751923676
 31
0.0
  0
ARC
  5
7E
330
1F
100
AcDbEntity
  8
0
  6
Continuous
 62
     7
370
    15
100
AcDbCircle
 10
248.9578070322
 20
169.625893505
 30
0.0
 40
0.3637184508709816
100
AcDbArc
 50
106.187386458
 51
162.3366663113
  0
LINE
  5
7F
330
1F
100
AcDbEntity
  8
0
  6
Continuous
 62
     7
370
    15
100
AcDbLine
 10
248.611235778
 20
169.736254174
 30
0.0
 11
244.3564932262
 21
156.2496232894
 31
0.0
  0
ARC
  5
80
330
1F
100
AcDbEntity
  8
0
  6
Continuous
 62
     7
370
    15
100
AcDbCircle
 10
244.723717087
 20
156.1424014375
 30
0.0
 40
0.3825570407634728
100
AcDbArc
 50
163.7232760755
 51
286.6981559959
  0
LINE
  5
81
330
1F
100
AcDbEntity
  8
0
  6
Continuous
 62
     7
370
    15
100
AcDbLine
 10
244.8336370841
 20
155.7759761605
 30
0.0
 11
258.5840331408
 21
159.8365420425
 31
0.0
  0
ARC
  5
82
330
1F
100
AcDbEntity
  8
0
  6
Continuous
 62
     7
370
    15
100
AcDbCircle
 10
258.4826358235
 20
160.1858409041
 30
0.0
 40
0.363718449686925
100
AcDbArc
 50
286.1873863895
 51
342.3366664714
  0
LINE
  5
83
330
1F
100
AcDbEntity
  8
0
  6
Continuous
 62
     7
370
    15
100
AcDbLine
 10
258.8292070769
 20
160.0754802364
 30
0.0
 11
263.0839496287
 21
173.562111121
 31
0.0
  0
LINE
  5
84
330
1F
100
AcDbEntity
  8
0
  6
Continuous
 62
     7
370
    15
100
AcDbLine
 10
244.6947192994
 20
156.0869043114
 30
0.0
 11
244.8336370841
 21
155.7759761605
 31
0.0
  0
LINE
  5
85
330
1F
100
AcDbEntity
  8
0
  6
Continuous
 62
     7
370
    15
100
AcDbLine
 10
244.6947192994
 20
156.0869043114
 30
0.0
 11
244.3564932262
 21
156.2496232894
 31
0.0
  0
LINE
  5
86
330
1F
100
AcDbEntity
  8
0
  6
Continuous
 62
     7
370
    15
100
AcDbLine
 10
258.4451153561
 20
160.1474701935
 30
0.0
 11
258.5840331408
 21
159.8365420425
 31
0.0
  0
LINE
  5
87
330
1F
100
AcDbEntity
  8
0
  6
Continuous
 62
     7
370
    15
100
AcDbLine
 10
246.1556007159
 20
157.4497224282
 30
0.0
 11
244.6947192994
 21
156.0869043114
 31
0.0
  0
LINE
  5
88
330
1F
100
AcDbEntity
  8
0
  6
Continuous
 62
     7
370
    15
100
AcDbLine
 10
246.1556007159
 20
157.4497224282
 30
0.0
 11
246.794721679
 21
157.6384582847
 31
0.0
  0
LINE
  5
89
330
1F
100
AcDbEntity
  8
0
  6
Continuous
 62
     7
370
    15
100
AcDbLine
 10
258.0742046135
 20
160.4381846925
 30
0.0
 11
258.4451153561
 21
160.1474701935
 31
0.0
  0
LINE
  5
8A
330
1F
100
AcDbEntity
  8
0
  6
Continuous
 62
     7
370
    15
100
AcDbLine
 10
257.9230079788
 20
158.5037866408
 30
0.0
 11
257.9263818706
 21
158.5047829692
 31
0.0
  0
LINE
  5
8B
330
1F
100
AcDbEntity
  8
0
  6
Continuous
 62
     7
370
    15
100
AcDbLine
 10
244.9503554802
 20
158.9894276248
 30
0.0
 11
243.8187658258
 21
155.4025285832
 31
0.0
  0
LINE
  5
8C
330
1F
100
AcDbEntity
  8
0
  6
Continuous
 62
     7
370
    15
100
AcDbLine
 10
248.9494618512
 20
169.573535196
 30
0.0
 11
248.611235778
 21
169.736254174
 31
0.0
  0
LINE
  5
8D
330
1F
100
AcDbEntity
  8
0
  6
Continuous
 62
     7
370
    15
100
AcDbLine
 10
249.2682132155
 20
169.1796417483
 30
0.0
 11
248.9494618512
 21
169.573535196
 31
0.0
  0
LINE
  5
8E
330
1F
100
AcDbEntity
  8
0
  6
Continuous
 62
     7
370
    15
100
AcDbLine
 10
246.3533619401
 20
158.0765835371
 30
0.0
 11
246.1556007159
 21
157.4497224282
 31
0.0
  0
ARC
  5
8F
330
1F
100
AcDbEntity
  8
0
  6
Continuous
 62
     7
370
    15
100
AcDbCircle
 10
248.6977691217
 20
160.0222659972
 30
0.0
 40
1.006729054640574
100
AcDbArc
 50
163.7232760755
 51
286.6981559959
  0
LINE
  5
90
330
1F
100
AcDbEntity
  8
0
  6
Continuous
 62
     7
370
    15
100
AcDbLine
 10
246.9306537912
 20
158.206679858
 30
0.0
 11
246.9322977387
 21
158.205047958
 31
0.0
  0
SPLINE
  5
91
330
1F
100
AcDbEntity
  8
0
  6
Continuous
 62
     7
370
    15
100
AcDbSpline
210
0.0
220
0.0
230
1.0
 70
     8
 71
     3
 72
    14
 73
    10
 74
     0
 42
0.00000001
 43
0.00000001
 12
1.0
 22
0.0
 32
0.0
 13
1.0
 23
0.0
 33
0.0
 40
0.0
 40
0.0
 40
0.0
 40
0.0
 40
0.2234968253973814
 40
0.3567622963775127
 40
0.453121256234156
 40
0.5344619041500662
 40
0.6157317558035693
 40
0.7396161778922418
 40
1.0
 40
1.0
 40
1.0
 40
1.0
 10
246.7947216790402
 20
157.6384582846984
 30
0.0
 10
246.8505090339725
 20
157.6575776689111
 30
0.0
 10
246.9395609693594
 20
157.6880974555118
 30
0.0
 10
247.0366771110884
 20
157.7580437634396
 30
0.0
 10
247.086232616738
 20
157.8233132943455
 30
0.0
 10
247.1056647928735
 20
157.8890765054094
 30
0.0
 10
247.1002776595892
 20
157.9648674896113
 30
0.0
 10
247.0507137816855
 20
158.0795270607012
 30
0.0
 10
246.9801276046108
 20
158.1543483439137
 30
0.0
 10
246.9322977387495
 20
158.2050479580299
 30
0.0
  0
SPLINE
  5
92
330
1F
100
AcDbEntity
  8
0
  6
Continuous
 62
     7
370
    15
100
AcDbSpline
210
0.0
220
0.0
230
1.0
 70
     8
 71
     3
 72
    14
 73
    10
 74
     0
 42
0.00000001
 43
0.00000001
 12
1.0
 22
0.0
 32
0.0
 13
1.0
 23
0.0
 33
0.0
 40
0.0
 40
0.0
 40
0.0
 40
0.0
 40
0.2210591904779792
 40
0.3460797326519304
 40
0.4396016244131375
 40
0.5338897453199797
 40
0.6146561933587811
 40
0.7517253237593948
 40
0.9999999999999999
 40
0.9999999999999999
 40
0.9999999999999999
 40
0.9999999999999999
 10
246.9306537911637
 20
158.206679858014
 30
0.0
 10
246.8875065384247
 20
158.2469196876308
 30
0.0
 10
246.8199572559892
 20
158.3099172469978
 30
0.0
 10
246.7151413712231
 20
158.3652079631219
 30
0.0
 10
246.632269964718
 20
158.3820516988488
 30
0.0
 10
246.560595511393
 20
158.3688243144718
 30
0.0
 10
246.4901432691816
 20
158.3258766062515
 30
0.0
 10
246.410441366184
 20
158.231776602381
 30
0.0
 10
246.3757277271054
 20
158.1373938024042
 30
0.0
 10
246.3533619400995
 20
158.0765835371215
 30
0.0
  0
LINE
  5
93
330
1F
100
AcDbEntity
  8
0
  6
Continuous
 62
     7
370
    15
100
AcDbLine
 10
248.9870322721
 20
159.0579889523
 30
0.0
 11
256.6826320819
 21
161.3305409502
 31
0.0
  0
LINE
  5
94
330
1F
100
AcDbEntity
  8
0
  6
Continuous
 62
     7
370
    15
100
AcDbLine
 10
250.1126162041
 20
167.8524087395
 30
0.0
 11
247.7313905407
 21
160.3044287654
 31
0.0
  0
ARC
  5
95
330
1F
100
AcDbEntity
  8
0
  6
Continuous
 62
     7
370
    15
100
AcDbCircle
 10
251.0246458183
 20
167.5619859298
 30
0.0
 40
0.9571538149655622
100
AcDbArc
 50
106.1873863895
 51
162.3366664714
  0
LINE
  5
96
330
1F
100
AcDbEntity
  8
0
  6
Continuous
 62
     7
370
    15
100
AcDbLine
 10
258.4534105828
 20
170.7537454581
 30
0.0
 11
250.757810773
 21
168.4811934602
 31
0.0
  0
ARC
  5
97
330
1F
100
AcDbEntity
  8
0
  6
Continuous
 62
     7
370
    15
100
AcDbCircle
 10
258.7426737336
 20
169.7894684134
 30
0.0
 40
1.006729054633031
100
AcDbArc
 50
343.7232760613
 51
106.6981560162
  0
LINE
  5
98
330
1F
100
AcDbEntity
  8
0
  6
Continuous
 62
     7
370
    15
100
AcDbLine
 10
257.3278266508
 20
161.959325671
 30
0.0
 11
259.7090523144
 21
169.5073056449
 31
0.0
  0
ARC
  5
99
330
1F
100
AcDbEntity
  8
0
  6
Continuous
 62
     7
370
    15
100
AcDbCircle
 10
256.4157970366
 20
162.2497484807
 30
0.0
 40
0.9571538149658633
100
AcDbArc
 50
286.1873863895
 51
342.3366664714
  0
LWPOLYLINE
  5
9A
330
1F
100
AcDbEntity
  8
0
  6
Continuous
 62
     7
370
    15
100
AcDbPolyline
 90
       21
 70
   128
 43
0.0
 10
256.1723002547
 20
164.1090921361
 10
256.2857902166
 20
164.8882448034
 10
256.14814443
 20
165.6691224741
 10
255.7728366236
 20
166.3752874012
 10
255.1966045404
 20
166.9376152414
 10
254.4758537915
 20
167.3010614279
 10
253.6811364821
 20
167.4300493155
 10
252.8902450794
 20
167.3119526712
 10
252.1805975444
 20
166.9583316172
 10
251.6216591223
 20
166.4038010463
 10
251.2681426002
 20
165.7026422742
 10
251.1546526383
 20
164.923489607
 10
251.2922984249
 20
164.1426119363
 10
251.6676062313
 20
163.4364470092
 10
252.2438383145
 20
162.8741191689
 10
252.9645890633
 20
162.5106729825
 10
253.7593063728
 20
162.3816850949
 10
254.5501977755
 20
162.4997817392
 10
255.2598453105
 20
162.8534027932
 10
255.8187837326
 20
163.4079333641
 10
256.1723002547
 20
164.1090921361
  0
ARC
  5
9B
330
1F
100
AcDbEntity
  8
0
  6
Continuous
 62
     7
370
    15
100
AcDbCircle
 10
253.0213414645
 20
163.5233794833
 30
0.0
 40
2.597365444019589
100
AcDbArc
 50
351.4340856883
 51
134.9305788807
  0
SPLINE
  5
9C
330
1F
100
AcDbEntity
  8
0
  6
Continuous
 62
     7
370
    15
100
AcDbSpline
210
0.0
220
0.0
230
1.0
 70
     8
 71
     3
 72
    11
 73
     7
 74
     0
 42
0.00000001
 43
0.00000001
 12
1.0
 22
0.0
 32
0.0
 13
1.0
 23
0.0
 33
0.0
 40
0.0
 40
0.0
 40
0.0
 40
0.0
 40
0.3280455501580141
 40
0.6557028173712044
 40
0.9906967996087972
 40
1.0
 40
1.0
 40
1.0
 40
1.0
 10
258.0742046135377
 20
160.4381846924982
 30
0.0
 10
258.0184852574437
 20
160.484466245532
 30
0.0
 10
257.9071124960836
 20
160.576974571592
 30
0.0
 10
257.7349601317229
 20
160.7517672014519
 30
0.0
 10
257.6315080474403
 20
160.872058891021
 30
0.0
 10
257.5848368273332
 20
160.9312193349983
 30
0.0
 10
257.583575731585
 20
160.9328179001139
 30
0.0
  0
LINE
  5
9D
330
1F
100
AcDbEntity
  8
0
  6
Continuous
 62
     7
370
    15
100
AcDbLine
 10
258.4451153561
 20
160.1474701935
 30
0.0
 11
258.8292070769
 21
160.0754802364
 31
0.0
  0
ARC
  5
9E
330
1F
100
AcDbEntity
  8
0
  6
Continuous
 62
     7
370
    15
100
AcDbCircle
 10
257.8192640543
 20
158.8731524605
 30
0.0
 40
0.3836278258436143
100
AcDbArc
 50
286.2138525714
 51
333.0632932926
  0
LINE
  5
9F
330
1F
100
AcDbEntity
  8
0
  6
Continuous
 62
     7
370
    15
100
AcDbLine
 10
261.1175965978
 20
172.0311756162
 30
0.0
 11
262.6998579078
 21
173.6341010781
 31
0.0
  0
LINE
  5
A0
330
1F
100
AcDbEntity
  8
0
  6
Continuous
 62
     7
370
    15
100
AcDbLine
 10
262.6998579078
 20
173.6341010781
 30
0.0
 11
263.0839496287
 21
173.562111121
 31
0.0
  0
LINE
  5
A1
330
1F
100
AcDbEntity
  8
0
  6
Continuous
 62
     7
370
    15
100
AcDbLine
 10
260.9198353736
 20
171.4043145072
 30
0.0
 11
261.1175965978
 21
172.0311756162
 31
0.0
  0
SPLINE
  5
A2
330
1F
100
AcDbEntity
  8
0
  6
Continuous
 62
     7
370
    15
100
AcDbSpline
210
0.0
220
0.0
230
1.0
 70
     8
 71
     3
 72
    11
 73
     7
 74
     0
 42
0.00000001
 43
0.00000001
 12
1.0
 22
0.0
 32
0.0
 13
1.0
 23
0.0
 33
0.0
 40
0.0
 40
0.0
 40
0.0
 40
0.0
 40
0.3280455501579899
 40
0.6557028173711722
 40
0.9906967996087569
 40
1.0
 40
1.0
 40
1.0
 40
1.0
 10
249.2682132155182
 20
169.1796417482611
 30
0.0
 10
249.3178537996368
 20
169.1213354870286
 30
0.0
 10
249.417076212033
 20
169.0047919773175
 30
0.0
 10
249.591855378474
 20
168.8351955496909
 30
0.0
 10
249.707154531695
 20
168.7383391111172
 30
0.0
 10
249.7624639430574
 20
168.6962662844468
 30
0.0
 10
249.7639584500222
 20
168.6951294411693
 30
0.0
  0
LINE
  5
A3
330
1F
100
AcDbEntity
  8
0
  6
Continuous
 62
     7
370
    15
100
AcDbLine
 10
248.9494618512
 20
169.573535196
 30
0.0
 11
248.8564097142
 21
169.9751923676
 31
0.0
  0
LINE
  5
A4
330
1F
100
AcDbEntity
  8
0
  6
Continuous
 62
     7
370
    15
100
AcDbLine
 10
262.6998579078
 20
173.6341010781
 30
0.0
 11
262.6068057708
 21
174.03575825
 31
0.0
  0
LINE
  5
A5
330
1F
100
AcDbEntity
  8
0
  6
Continuous
 62
     7
370
    15
100
AcDbLine
 10
261.1175965978
 20
172.0311756162
 30
0.0
 11
260.4784756346
 21
171.8424397596
 31
0.0
  0
LINE
  5
A6
330
1F
100
AcDbEntity
  8
0
  6
Continuous
 62
     7
370
    15
100
AcDbLine
 10
260.3425435225
 20
171.2742181863
 30
0.0
 11
260.3408995749
 21
171.2758500863
 31
0.0
  0
SPLINE
  5
A7
330
1F
100
AcDbEntity
  8
0
  6
Continuous
 62
     7
370
    15
100
AcDbSpline
210
0.0
220
0.0
230
1.0
 70
     8
 71
     3
 72
    14
 73
    10
 74
     0
 42
0.00000001
 43
0.00000001
 12
1.0
 22
0.0
 32
0.0
 13
1.0
 23
0.0
 33
0.0
 40
0.0
 40
0.0
 40
0.0
 40
0.0
 40
0.2210591904779801
 40
0.346079732651923
 40
0.4396016244132043
 40
0.5338897453199872
 40
0.6146561933587456
 40
0.7517253237593727
 40
1.0
 40
1.0
 40
1.0
 40
1.0
 10
260.3425435225151
 20
171.2742181863307
 30
0.0
 10
260.3856907752541
 20
171.2339783567138
 30
0.0
 10
260.4532400576897
 20
171.1709807973468
 30
0.0
 10
260.5580559424558
 20
171.1156900812228
 30
0.0
 10
260.6409273489609
 20
171.0988463454958
 30
0.0
 10
260.7126018022859
 20
171.1120737298729
 30
0.0
 10
260.7830540444973
 20
171.1550214380932
 30
0.0
 10
260.8627559474948
 20
171.2491214419636
 30
0.0
 10
260.8974695865735
 20
171.3435042419405
 30
0.0
 10
260.9198353735794
 20
171.4043145072232
 30
0.0
  0
SPLINE
  5
A8
330
1F
100
AcDbEntity
  8
0
  6
Continuous
 62
     7
370
    15
100
AcDbSpline
210
0.0
220
0.0
230
1.0
 70
     8
 71
     3
 72
    14
 73
    10
 74
     0
 42
0.00000001
 43
0.00000001
 12
1.0
 22
0.0
 32
0.0
 13
1.0
 23
0.0
 33
0.0
 40
0.0
 40
0.0
 40
0.0
 40
0.0
 40
0.2234968253973746
 40
0.3567622963774723
 40
0.4531212562341599
 40
0.5344619041500476
 40
0.6157317558035474
 40
0.7396161778922203
 40
0.9999999999999999
 40
0.9999999999999999
 40
0.9999999999999999
 40
0.9999999999999999
 10
260.4784756346387
 20
171.8424397596463
 30
0.0
 10
260.4226882797064
 20
171.8233203754335
 30
0.0
 10
260.3336363443195
 20
171.7928005888329
 30
0.0
 10
260.2365202025906
 20
171.722854280905
 30
0.0
 10
260.1869646969409
 20
171.6575847499992
 30
0.0
 10
260.1675325208053
 20
171.5918215389353
 30
0.0
 10
260.1729196540898
 20
171.5160305547334
 30
0.0
 10
260.2224835319934
 20
171.4013709836434
 30
0.0
 10
260.293069709068
 20
171.326549700431
 30
0.0
 10
260.3408995749294
 20
171.2758500863148
 30
0.0
  0
ELLIPSE
  5
A9
330
1F
100
AcDbEntity
  8
0
  6
Continuous
 62
     7
370
    15
100
AcDbEllipse
 10
252.9784487001
 20
163.3168297431
 30
0.0
 11
2.09333716601634
 21
-1.067951011005505
 31
0.0
210
0.0
220
0.0
230
1.0
 40
0.9741101241
 41
1.645336612432521
 42
2.923623729917213
  0
ELLIPSE
  5
AA
330
1F
100
AcDbEntity
  8
0
  6
Continuous
 62
     7
370
    15
100
AcDbEllipse
 10
252.9784487001
 20
163.3168297431
 30
0.0
 11
2.09333716601634
 21
-1.067951011005505
 31
0.0
210
0.0
220
0.0
230
1.0
 40
0.9741101241
 41
0.2863192092752783
 42
1.645336612432547
  0
LINE
  5
AB
330
1F
100
AcDbEntity
  8
0
  6
Continuous
 62
     7
370
    15
100
AcDbLine
 10
243.7102583719
 20
155.4173166911
 30
0.0
 11
243.6980431192
 21
155.3752332133
 31
0.0
  0
LINE
  5
AC
330
1F
100
AcDbEntity
  8
0
  6
Continuous
 62
     7
370
    15
100
AcDbLine
 10
244.9503554802
 20
158.9894276248
 30
0.0
 11
244.0113003461
 21
156.0128221501
 31
0.0
  0
LINE
  5
AD
330
1F
100
AcDbEntity
  8
0
  6
Continuous
 62
     7
370
    15
100
AcDbLine
 10
244.6493135059
 20
158.3939221658
 30
0.0
 11
243.7102583719
 21
155.4173166911
 31
0.0
  0
ARC
  5
AE
330
1F
100
AcDbEntity
  8
0
  6
Continuous
 62
     7
370
    15
100
AcDbCircle
 10
257.0712880484
 20
158.7360060208
 30
0.0
 40
0.9475862817313945
100
AcDbArc
 50
321.0687785882
 51
333.1778324048
  0
LWPOLYLINE
  5
AF
330
1F
100
AcDbEntity
  8
0
  6
Continuous
 62
     7
370
    15
100
AcDbPolyline
 90
        3
 70
   128
 43
0.0
 10
251.1908789461
 20
165.3854269331
 10
251.9663320242
 20
165.6033382829
 10
252.8136732009
 20
165.6159036866
  0
ARC
  5
B0
330
1F
100
AcDbEntity
  8
0
  6
Continuous
 62
     7
370
    15
100
AcDbCircle
 10
252.5060567228
 20
162.4146311072
 30
0.0
 40
3.18685818673206
100
AcDbArc
 50
13.4046709996
 51
36.7501250328
  0
LINE
  5
B1
330
1F
100
AcDbEntity
  8
0
  6
Continuous
 62
     7
370
    15
100
AcDbLine
 10
105.1195542052
 20
116.5687534619
 30
0.0
 11
105.1195542052
 21
177.5687534321
 31
0.0
  0
LINE
  5
B2
330
1F
100
AcDbEntity
  8
0
  6
Continuous
 62
     7
370
    15
100
AcDbLine
 10
83.1195542052
 20
116.0687534619
 30
0.0
 11
83.1195542052
 21
178.0687534514
 31
0.0
  0
SPLINE
  5
B3
330
1F
100
AcDbEntity
  8
0
  6
Continuous
 62
     7
370
    15
100
AcDbSpline
210
0.0
220
0.0
230
1.0
 70
     8
 71
     3
 72
    12
 73
     8
 74
     0
 42
0.00000001
 43
0.00000001
 12
1.0
 22
0.0
 32
0.0
 13
1.0
 23
0.0
 33
0.0
 40
0.0
 40
0.0
 40
0.0
 40
0.0
 40
0.2499999999999986
 40
0.2499999999999986
 40
0.4999999999999972
 40
0.4999999999999972
 40
1.0
 40
1.0
 40
1.0
 40
1.0
 10
93.64731101872059
 20
156.456819893273
 30
0.0
 10
93.58423098022722
 20
156.456819893273
 30
0.0
 10
93.52508235804585
 20
156.4821842124879
 30
0.0
 10
93.42660980797679
 20
156.5563490728608
 30
0.0
 10
93.38757319599203
 20
156.6028694134149
 30
0.0
 10
93.287676729213
 20
156.7530117562602
 30
0.0
 10
93.24525584814634
 20
156.8647049632323
 30
0.0
 10
93.21429831682839
 20
156.9781227826221
 30
0.0
  0
LINE
  5
B4
330
1F
100
AcDbEntity
  8
0
  6
Continuous
 62
     7
370
    15
100
AcDbLine
 10
96.5917973916
 20
156.4568198933
 30
0.0
 11
93.6473110187
 21
156.4568198933
 31
0.0
  0
SPLINE
  5
B5
330
1F
100
AcDbEntity
  8
0
  6
Continuous
 62
     7
370
    15
100
AcDbSpline
210
0.0
220
0.0
230
1.0
 70
     8
 71
     3
 72
    12
 73
     8
 74
     0
 42
0.00000001
 43
0.00000001
 12
1.0
 22
0.0
 32
0.0
 13
1.0
 23
0.0
 33
0.0
 40
0.0
 40
0.0
 40
0.0
 40
0.0
 40
0.4999999999999971
 40
0.4999999999999971
 40
0.7499999999999986
 40
0.7499999999999986
 40
1.0
 40
1.0
 40
1.0
 40
1.0
 10
97.02481009347997
 20
156.9781227826221
 30
0.0
 10
96.99408785156088
 20
156.8655669832129
 30
0.0
 10
96.95125063702572
 20
156.7528091234733
 30
0.0
 10
96.85182361282597
 20
156.603268237677
 30
0.0
 10
96.8120714180093
 20
156.5559755059701
 30
0.0
 10
96.71402996115108
 20
156.4822392126486
 30
0.0
 10
96.65447390556358
 20
156.456819893273
 30
0.0
 10
96.59179739158772
 20
156.456819893273
 30
0.0
  0
ELLIPSE
  5
B6
330
1F
100
AcDbEntity
  8
0
  6
Continuous
 62
     7
370
    15
100
AcDbEllipse
 10
80.7724000158
 20
147.0687534619
 30
0.0
 11
14.75368316065604
 21
31.09325491558116
 31
0.0
210
0.0
220
0.0
230
1.0
 40
0.3419987131
 41
5.193281737408618
 42
6.124043104552324
  0
SPLINE
  5
B7
330
1F
100
AcDbEntity
  8
0
  6
Continuous
 62
     7
370
    15
100
AcDbSpline
210
0.0
220
0.0
230
1.0
 70
     8
 71
     3
 72
    12
 73
     8
 74
     0
 42
0.00000001
 43
0.00000001
 12
1.0
 22
0.0
 32
0.0
 13
1.0
 23
0.0
 33
0.0
 40
0.0
 40
0.0
 40
0.0
 40
0.0
 40
0.2500000000000014
 40
0.2500000000000014
 40
0.5000000000000028
 40
0.5000000000000028
 40
1.0
 40
1.0
 40
1.0
 40
1.0
 10
96.59179739158773
 20
177.1372454208101
 30
0.0
 10
96.65487743008109
 20
177.1372454208101
 30
0.0
 10
96.71402605226254
 20
177.1293394945977
 30
0.0
 10
96.8124986023316
 20
177.1060143331615
 30
0.0
 10
96.85153521431633
 20
177.0913015433297
 30
0.0
 10
96.95143168109537
 20
177.0433457425988
 30
0.0
 10
96.993852562162
 20
177.0070835860188
 30
0.0
 10
97.02481009347996
 20
176.9694959220543
 30
0.0
  0
LINE
  5
B8
330
1F
100
AcDbEntity
  8
0
  6
Continuous
 62
     7
370
    15
100
AcDbLine
 10
93.6473110187
 20
177.1372454208
 30
0.0
 11
96.5917973916
 21
177.1372454208
 31
0.0
  0
SPLINE
  5
B9
330
1F
100
AcDbEntity
  8
0
  6
Continuous
 62
     7
370
    15
100
AcDbSpline
210
0.0
220
0.0
230
1.0
 70
     8
 71
     3
 72
    12
 73
     8
 74
     0
 42
0.00000001
 43
0.00000001
 12
1.0
 22
0.0
 32
0.0
 13
1.0
 23
0.0
 33
0.0
 40
0.0
 40
0.0
 40
0.0
 40
0.0
 40
0.5
 40
0.5
 40
0.75
 40
0.75
 40
1.0
 40
1.0
 40
1.0
 40
1.0
 10
93.2142983168284
 20
176.9694959220543
 30
0.0
 10
93.2450205587475
 20
177.0067979050073
 30
0.0
 10
93.28785777328264
 20
177.0434097370537
 30
0.0
 10
93.38728479748242
 20
177.0911745203389
 30
0.0
 10
93.42703699229904
 20
177.1061320358212
 30
0.0
 10
93.5250784491573
 20
177.1293219815904
 30
0.0
 10
93.58463450474468
 20
177.1372454208101
 30
0.0
 10
93.64731101872054
 20
177.1372454208101
 30
0.0
  0
ELLIPSE
  5
BA
330
1F
100
AcDbEntity
  8
0
  6
Continuous
 62
     7
370
    15
100
AcDbEllipse
 10
109.4667083945
 20
147.0687534619
 30
0.0
 11
-14.75368316065605
 21
31.09325491558116
 31
0.0
210
0.0
220
0.0
230
1.0
 40
0.3419987131
 41
0.1591422026273012
 42
1.08990356977098
  0
SPLINE
  5
BB
330
1F
100
AcDbEntity
  8
0
  6
Continuous
 62
     7
370
    15
100
AcDbSpline
210
0.0
220
0.0
230
1.0
 70
     8
 71
     3
 72
    12
 73
     8
 74
     0
 42
0.00000001
 43
0.00000001
 12
1.0
 22
0.0
 32
0.0
 13
1.0
 23
0.0
 33
0.0
 40
0.0
 40
0.0
 40
0.0
 40
0.0
 40
0.2500000000000004
 40
0.2500000000000004
 40
0.5000000000000009
 40
0.5000000000000009
 40
1.0
 40
1.0
 40
1.0
 40
1.0
 10
93.64731101872061
 20
117.0002615030639
 30
0.0
 10
93.58423098022722
 20
117.0002615030639
 30
0.0
 10
93.52508235804582
 20
117.0081674292764
 30
0.0
 10
93.42660980797677
 20
117.0314925907126
 30
0.0
 10
93.38757319599205
 20
117.0462053805443
 30
0.0
 10
93.287676729213
 20
117.0941611812753
 30
0.0
 10
93.24525584814636
 20
117.1304233378553
 30
0.0
 10
93.2142983168284
 20
117.1680110018198
 30
0.0
  0
LINE
  5
BC
330
1F
100
AcDbEntity
  8
0
  6
Continuous
 62
     7
370
    15
100
AcDbLine
 10
96.5917973916
 20
117.0002615031
 30
0.0
 11
93.6473110187
 21
117.0002615031
 31
0.0
  0
SPLINE
  5
BD
330
1F
100
AcDbEntity
  8
0
  6
Continuous
 62
     7
370
    15
100
AcDbSpline
210
0.0
220
0.0
230
1.0
 70
     8
 71
     3
 72
    12
 73
     8
 74
     0
 42
0.00000001
 43
0.00000001
 12
1.0
 22
0.0
 32
0.0
 13
1.0
 23
0.0
 33
0.0
 40
0.0
 40
0.0
 40
0.0
 40
0.0
 40
0.4999999999999981
 40
0.4999999999999981
 40
0.749999999999999
 40
0.749999999999999
 40
1.0
 40
1.0
 40
1.0
 40
1.0
 10
97.02481009347996
 20
117.1680110018198
 30
0.0
 10
96.99408785156088
 20
117.1307090188668
 30
0.0
 10
96.95125063702571
 20
117.0940971868204
 30
0.0
 10
96.85182361282594
 20
117.0463324035352
 30
0.0
 10
96.81207141800922
 20
117.0313748880528
 30
0.0
 10
96.71402996115106
 20
117.0081849422836
 30
0.0
 10
96.65447390556355
 20
117.0002615030639
 30
0.0
 10
96.59179739158773
 20
117.0002615030639
 30
0.0
  0
ELLIPSE
  5
BE
330
1F
100
AcDbEntity
  8
0
  6
Continuous
 62
     7
370
    15
100
AcDbEllipse
 10
80.7724000158
 20
147.0687534619
 30
0.0
 11
-14.75368316065618
 21
31.09325491558116
 31
0.0
210
0.0
220
0.0
230
1.0
 40
0.3419987131
 41
3.300734856217121
 42
4.231496223360773
  0
SPLINE
  5
BF
330
1F
100
AcDbEntity
  8
0
  6
Continuous
 62
     7
370
    15
100
AcDbSpline
210
0.0
220
0.0
230
1.0
 70
     8
 71
     3
 72
    12
 73
     8
 74
     0
 42
0.00000001
 43
0.00000001
 12
1.0
 22
0.0
 32
0.0
 13
1.0
 23
0.0
 33
0.0
 40
0.0
 40
0.0
 40
0.0
 40
0.0
 40
0.2500000000000001
 40
0.2500000000000001
 40
0.5000000000000001
 40
0.5000000000000001
 40
1.0
 40
1.0
 40
1.0
 40
1.0
 10
96.59179739158773
 20
137.6806870306008
 30
0.0
 10
96.65487743008106
 20
137.6806870306008
 30
0.0
 10
96.7140260522625
 20
137.6553227113859
 30
0.0
 10
96.81249860233163
 20
137.581157851013
 30
0.0
 10
96.8515352143163
 20
137.5346375104589
 30
0.0
 10
96.95143168109537
 20
137.3844951676136
 30
0.0
 10
96.993852562162
 20
137.2728019606415
 30
0.0
 10
97.02481009347996
 20
137.1593841412517
 30
0.0
  0
LINE
  5
C0
330
1F
100
AcDbEntity
  8
0
  6
Continuous
 62
     7
370
    15
100
AcDbLine
 10
93.6473110187
 20
137.6806870306
 30
0.0
 11
96.5917973916
 21
137.6806870306
 31
0.0
  0
SPLINE
  5
C1
330
1F
100
AcDbEntity
  8
0
  6
Continuous
 62
     7
370
    15
100
AcDbSpline
210
0.0
220
0.0
230
1.0
 70
     8
 71
     3
 72
    12
 73
     8
 74
     0
 42
0.00000001
 43
0.00000001
 12
1.0
 22
0.0
 32
0.0
 13
1.0
 23
0.0
 33
0.0
 40
0.0
 40
0.0
 40
0.0
 40
0.0
 40
0.4999999999999991
 40
0.4999999999999991
 40
0.7499999999999996
 40
0.7499999999999996
 40
1.0
 40
1.0
 40
1.0
 40
1.0
 10
93.2142983168284
 20
137.1593841412517
 30
0.0
 10
93.2450205587475
 20
137.2719399406609
 30
0.0
 10
93.28785777328264
 20
137.3846978004005
 30
0.0
 10
93.38728479748242
 20
137.5342386861968
 30
0.0
 10
93.42703699229907
 20
137.5815314179037
 30
0.0
 10
93.5250784491573
 20
137.6552677112251
 30
0.0
 10
93.58463450474478
 20
137.6806870306008
 30
0.0
 10
93.64731101872061
 20
137.6806870306008
 30
0.0
  0
ELLIPSE
  5
C2
330
1F
100
AcDbEntity
  8
0
  6
Continuous
 62
     7
370
    15
100
AcDbEllipse
 10
109.4667083945
 20
147.0687534619
 30
0.0
 11
14.75368316065619
 21
31.09325491558119
 31
0.0
210
0.0
220
0.0
230
1.0
 40
0.3419987131
 41
2.051689083818824
 42
2.982450450962504
  0
SPLINE
  5
C3
330
1F
100
AcDbEntity
  8
0
  6
Continuous
 62
     7
370
    15
100
AcDbSpline
210
0.0
220
0.0
230
1.0
 70
     8
 71
     3
 72
    12
 73
     8
 74
     0
 42
0.00000001
 43
0.00000001
 12
1.0
 22
0.0
 32
0.0
 13
1.0
 23
0.0
 33
0.0
 40
0.0
 40
0.0
 40
0.0
 40
0.0
 40
0.5
 40
0.5
 40
0.75
 40
0.75
 40
1.0
 40
1.0
 40
1.0
 40
1.0
 10
82.30304191869767
 20
125.2139597594612
 30
0.0
 10
82.35947841960488
 20
125.2125418781195
 30
0.0
 10
82.42856305029359
 20
125.2109775418712
 30
0.0
 10
82.54736532201154
 20
125.2080333498967
 30
0.0
 10
82.58755059748162
 20
125.2069951467993
 30
0.0
 10
82.66093164488544
 20
125.2050612515847
 30
0.0
 10
82.69434120862809
 20
125.2041663642959
 30
0.0
 10
82.72457731628454
 20
125.2033825740236
 30
0.0
  0
SPLINE
  5
C4
330
1F
100
AcDbEntity
  8
0
  6
Continuous
 62
     7
370
    15
100
AcDbSpline
210
0.0
220
0.0
230
1.0
 70
     8
 71
     3
 72
    16
 73
    12
 74
     0
 42
0.00000001
 43
0.00000001
 12
1.0
 22
0.0
 32
0.0
 13
1.0
 23
0.0
 33
0.0
 40
0.0
 40
0.0
 40
0.0
 40
0.0
 40
0.0625000000000025
 40
0.0625000000000025
 40
0.1250000000000051
 40
0.1250000000000051
 40
0.2500000000000031
 40
0.2500000000000031
 40
0.500000000000002
 40
0.500000000000002
 40
1.0
 40
1.0
 40
1.0
 40
1.0
 10
82.72457731624735
 20
125.2033825740478
 30
0.0
 10
82.73615772383529
 20
125.2030823829365
 30
0.0
 10
82.74946725059655
 20
125.2017546346775
 30
0.0
 10
82.77876868068267
 20
125.1950559599025
 30
0.0
 10
82.79358278056702
 20
125.1896977767968
 30
0.0
 10
82.82941118226985
 20
125.1726521276294
 30
0.0
 10
82.84353080663291
 20
125.1611895898537
 30
0.0
 10
82.87803495072141
 20
125.1296262644814
 30
0.0
 10
82.88913950142602
 20
125.1117289654362
 30
0.0
 10
82.9153156786422
 20
125.0615675478219
 30
0.0
 10
82.91955420515421
 20
125.0338231356253
 30
0.0
 10
82.91955420515421
 20
125.0091589736958
 30
0.0
  0
LINE
  5
C5
330
1F
100
AcDbEntity
  8
0
  6
Continuous
 62
     7
370
    15
100
AcDbLine
 10
82.9195542052
 20
140.0468661362
 30
0.0
 11
82.9195542052
 21
124.5289331831
 31
0.0
  0
SPLINE
  5
C6
330
1F
100
AcDbEntity
  8
0
  6
Continuous
 62
     7
370
    15
100
AcDbSpline
210
0.0
220
0.0
230
1.0
 70
     8
 71
     3
 72
    16
 73
    12
 74
     0
 42
0.00000001
 43
0.00000001
 12
1.0
 22
0.0
 32
0.0
 13
1.0
 23
0.0
 33
0.0
 40
0.0
 40
0.0
 40
0.0
 40
0.0
 40
0.5000000000000037
 40
0.5000000000000037
 40
0.7500000000000056
 40
0.7500000000000056
 40
0.8750000000000039
 40
0.8750000000000039
 40
0.937500000000002
 40
0.937500000000002
 40
1.0
 40
1.0
 40
1.0
 40
1.0
 10
82.91955420515421
 20
140.0468661361869
 30
0.0
 10
82.91955420515421
 20
140.1605586803148
 30
0.0
 10
82.91540793007626
 20
140.2748788416643
 30
0.0
 10
82.88944233468276
 20
140.4479271321614
 30
0.0
 10
82.87798142930535
 20
140.5071026393231
 30
0.0
 10
82.84366969153099
 20
140.5902257587913
 30
0.0
 10
82.82964495560144
 20
140.618347074892
 30
0.0
 10
82.79362199256755
 20
140.6469628888694
 30
0.0
 10
82.77886748347785
 20
140.6527559367712
 30
0.0
 10
82.749515322331
 20
140.6511625108342
 30
0.0
 10
82.7361754478269
 20
140.6446661075104
 30
0.0
 10
82.72457731627853
 20
140.6361503613072
 30
0.0
  0
SPLINE
  5
C7
330
1F
100
AcDbEntity
  8
0
  6
Continuous
 62
     7
370
    15
100
AcDbSpline
210
0.0
220
0.0
230
1.0
 70
     8
 71
     3
 72
    12
 73
     8
 74
     0
 42
0.00000001
 43
0.00000001
 12
1.0
 22
0.0
 32
0.0
 13
1.0
 23
0.0
 33
0.0
 40
0.0
 40
0.0
 40
0.0
 40
0.0
 40
0.2499999999999998
 40
0.2499999999999998
 40
0.4999999999999999
 40
0.4999999999999999
 40
1.0
 40
1.0
 40
1.0
 40
1.0
 10
82.72457731628558
 20
140.6361503612981
 30
0.0
 10
82.69437887484496
 20
140.613977629253
 30
0.0
 10
82.66101151950899
 20
140.5948979733758
 30
0.0
 10
82.58785624367908
 20
140.5697249289331
 30
0.0
 10
82.5476035446551
 20
140.5641683925163
 30
0.0
 10
82.42987480138025
 20
140.5750802035031
 30
0.0
 10
82.3594163533213
 20
140.6170159589139
 30
0.0
 10
82.30304191870304
 20
140.6662277412955
 30
0.0
  0
SPLINE
  5
C8
330
1F
100
AcDbEntity
  8
0
  6
Continuous
 62
     7
370
    15
100
AcDbSpline
210
0.0
220
0.0
230
1.0
 70
     8
 71
     3
 72
    12
 73
     8
 74
     0
 42
0.00000001
 43
0.00000001
 12
1.0
 22
0.0
 32
0.0
 13
1.0
 23
0.0
 33
0.0
 40
0.0
 40
0.0
 40
0.0
 40
0.0
 40
0.4999999999999984
 40
0.4999999999999984
 40
0.7499999999999992
 40
0.7499999999999992
 40
1.0
 40
1.0
 40
1.0
 40
1.0
 10
81.79823386159454
 20
141.882579133176
 30
0.0
 10
81.84198421347901
 20
141.6621321482015
 30
0.0
 10
81.89487436460348
 20
141.4465871583959
 30
0.0
 10
82.00648590774514
 20
141.134173081824
 30
0.0
 10
82.04904525164868
 20
141.0320936062081
 30
0.0
 10
82.1540224869861
 20
140.8376535935663
 30
0.0
 10
82.21558973008067
 20
140.7425686945027
 30
0.0
 10
82.30304191870304
 20
140.6662277412955
 30
0.0
  0
SPLINE
  5
C9
330
1F
100
AcDbEntity
  8
0
  6
Continuous
 62
     7
370
    15
100
AcDbSpline
210
0.0
220
0.0
230
1.0
 70
     8
 71
     3
 72
    12
 73
     8
 74
     0
 42
0.00000001
 43
0.00000001
 12
1.0
 22
0.0
 32
0.0
 13
1.0
 23
0.0
 33
0.0
 40
0.0
 40
0.0
 40
0.0
 40
0.0
 40
0.25
 40
0.25
 40
0.5
 40
0.5
 40
1.0
 40
1.0
 40
1.0
 40
1.0
 10
82.30304191870293
 20
153.4712791825786
 30
0.0
 10
82.21454851113506
 20
153.3940293024703
 30
0.0
 10
82.15449047036918
 20
153.3007099785811
 30
0.0
 10
82.04864219738663
 20
153.1046769256117
 30
0.0
 10
82.00610867610915
 20
153.0023505673999
 30
0.0
 10
81.8949573692855
 20
152.6910061616241
 30
0.0
 10
81.84202651223774
 20
152.4755879084461
 30
0.0
 10
81.79823386159454
 20
152.2549277906982
 30
0.0
  0
SPLINE
  5
CA
330
1F
100
AcDbEntity
  8
0
  6
Continuous
 62
     7
370
    15
100
AcDbSpline
210
0.0
220
0.0
230
1.0
 70
     8
 71
     3
 72
    12
 73
     8
 74
     0
 42
0.00000001
 43
0.00000001
 12
1.0
 22
0.0
 32
0.0
 13
1.0
 23
0.0
 33
0.0
 40
0.0
 40
0.0
 40
0.0
 40
0.0
 40
0.5000000000000007
 40
0.5000000000000007
 40
0.7500000000000003
 40
0.7500000000000003
 40
1.0
 40
1.0
 40
1.0
 40
1.0
 10
82.30304191870292
 20
153.4712791825787
 30
0.0
 10
82.35935046699855
 20
153.5204334498225
 30
0.0
 10
82.42962512771668
 20
153.5623907684263
 30
0.0
 10
82.54766304204024
 20
153.5733504459587
 30
0.0
 10
82.5878392828942
 20
153.5678416877114
 30
0.0
 10
82.66179637757214
 20
153.5422844589224
 30
0.0
 10
82.69441276528359
 20
153.5235044110831
 30
0.0
 10
82.72457731627932
 20
153.5013565625664
 30
0.0
  0
SPLINE
  5
CB
330
1F
100
AcDbEntity
  8
0
  6
Continuous
 62
     7
370
    15
100
AcDbSpline
210
0.0
220
0.0
230
1.0
 70
     8
 71
     3
 72
    16
 73
    12
 74
     0
 42
0.00000001
 43
0.00000001
 12
1.0
 22
0.0
 32
0.0
 13
1.0
 23
0.0
 33
0.0
 40
0.0
 40
0.0
 40
0.0
 40
0.0
 40
0.0624999999999978
 40
0.0624999999999978
 40
0.1249999999999955
 40
0.1249999999999955
 40
0.2499999999999934
 40
0.2499999999999934
 40
0.4999999999999944
 40
0.4999999999999944
 40
1.0
 40
1.0
 40
1.0
 40
1.0
 10
82.72457731624758
 20
153.5013565625119
 30
0.0
 10
82.73619021608694
 20
153.4928299729166
 30
0.0
 10
82.74954140051943
 20
153.4863297113839
 30
0.0
 10
82.7789412401386
 20
153.4847603142664
 30
0.0
 10
82.79378196469384
 20
153.490643704897
 30
0.0
 10
82.8296151726624
 20
153.5191913409475
 30
0.0
 10
82.84372838048395
 20
153.5473583602533
 30
0.0
 10
82.87821975170287
 20
153.6311126186753
 30
0.0
 10
82.88930382281326
 20
153.6888260322966
 30
0.0
 10
82.91542664060925
 20
153.8624165689425
 30
0.0
 10
82.91955420515414
 20
153.9774446215844
 30
0.0
 10
82.91955420515414
 20
154.0906407876872
 30
0.0
  0
LINE
  5
CC
330
1F
100
AcDbEntity
  8
0
  6
Continuous
 62
     7
370
    15
100
AcDbLine
 10
82.9195542052
 20
169.6085737408
 30
0.0
 11
82.9195542052
 21
154.0906407877
 31
0.0
  0
SPLINE
  5
CD
330
1F
100
AcDbEntity
  8
0
  6
Continuous
 62
     7
370
    15
100
AcDbSpline
210
0.0
220
0.0
230
1.0
 70
     8
 71
     3
 72
    16
 73
    12
 74
     0
 42
0.00000001
 43
0.00000001
 12
1.0
 22
0.0
 32
0.0
 13
1.0
 23
0.0
 33
0.0
 40
0.0
 40
0.0
 40
0.0
 40
0.0
 40
0.4999999999999984
 40
0.4999999999999984
 40
0.7499999999999957
 40
0.7499999999999957
 40
0.8749999999999953
 40
0.8749999999999953
 40
0.9374999999999977
 40
0.9374999999999977
 40
1.0
 40
1.0
 40
1.0
 40
1.0
 10
82.91955420515414
 20
169.1283479501784
 30
0.0
 10
82.91955420515414
 20
169.1036767941354
 30
0.0
 10
82.91538850669416
 20
169.0760949627442
 30
0.0
 10
82.88913017836919
 20
169.0257520919208
 30
0.0
 10
82.8776263966316
 20
169.0074625938589
 30
0.0
 10
82.84349563728509
 20
168.9763075628219
 30
0.0
 10
82.82907375061438
 20
168.9646681876102
 30
0.0
 10
82.79350678217655
 20
168.9477861616791
 30
0.0
 10
82.77855501388194
 20
168.9423970578715
 30
0.0
 10
82.7495511955222
 20
168.935776561927
 30
0.0
 10
82.73613584151295
 20
168.9344239737206
 30
0.0
 10
82.72457731627634
 20
168.934124349849
 30
0.0
  0
SPLINE
  5
CE
330
1F
100
AcDbEntity
  8
0
  6
Continuous
 62
     7
370
    15
100
AcDbSpline
210
0.0
220
0.0
230
1.0
 70
     8
 71
     3
 72
    12
 73
     8
 74
     0
 42
0.00000001
 43
0.00000001
 12
1.0
 22
0.0
 32
0.0
 13
1.0
 23
0.0
 33
0.0
 40
0.0
 40
0.0
 40
0.0
 40
0.0
 40
0.25
 40
0.25
 40
0.5
 40
0.5
 40
1.0
 40
1.0
 40
1.0
 40
1.0
 10
82.72457731628559
 20
168.9341243498507
 30
0.0
 10
82.69438953973592
 20
168.9333418124331
 30
0.0
 10
82.66103573564422
 20
168.9324484806146
 30
0.0
 10
82.58790953244828
 20
168.930521171811
 30
0.0
 10
82.54767432942411
 20
168.9294816405983
 30
0.0
 10
82.42998269929106
 20
168.926563757251
 30
0.0
 10
82.35960202613097
 20
168.9249681511808
 30
0.0
 10
82.30304191870036
 20
168.923547164413
 30
0.0
  0
SPLINE
  5
CF
330
1F
100
AcDbEntity
  8
0
  6
Continuous
 62
     7
370
    15
100
AcDbSpline
210
0.0
220
0.0
230
1.0
 70
     8
 71
     3
 72
    16
 73
    12
 74
     0
 42
0.00000001
 43
0.00000001
 12
1.0
 22
0.0
 32
0.0
 13
1.0
 23
0.0
 33
0.0
 40
0.0
 40
0.0
 40
0.0
 40
0.0
 40
0.2499999999999998
 40
0.2499999999999998
 40
0.3749999999999998
 40
0.3749999999999998
 40
0.4999999999999999
 40
0.4999999999999999
 40
0.75
 40
0.75
 40
1.0
 40
1.0
 40
1.0
 40
1.0
 10
81.79823386159451
 20
152.2549277906982
 30
0.0
 10
81.63700138411005
 20
151.4425180154514
 30
0.0
 10
81.51652154447042
 20
150.6024397210666
 30
0.0
 10
81.3941410271571
 20
149.3011446717038
 30
0.0
 10
81.36316336675965
 20
148.8604636361191
 30
0.0
 10
81.3215496291317
 20
147.9646239951879
 30
0.0
 10
81.31131371619888
 20
147.5179658639855
 30
0.0
 10
81.31112531914276
 20
146.1826559068455
 30
0.0
 10
81.35127002178038
 20
145.298160533538
 30
0.0
 10
81.51542377671996
 20
143.540910645512
 30
0.0
 10
81.63697542712951
 20
142.6951196990989
 30
0.0
 10
81.79823386159451
 20
141.882579133176
 30
0.0
  0
LINE
  5
D0
330
1F
100
AcDbEntity
  8
0
  6
Continuous
 62
     7
370
    15
100
AcDbLine
 10
80.9195542052
 20
153.5539317236
 30
0.0
 11
80.9195542052
 21
140.5835752003
 31
0.0
  0
LINE
  5
D1
330
1F
100
AcDbEntity
  8
0
  6
Continuous
 62
     7
370
    15
100
AcDbLine
 10
46.6195542052
 20
153.1230640295
 30
0.0
 11
46.6195542052
 21
141.0144428944
 31
0.0
  0
LINE
  5
D2
330
1F
100
AcDbEntity
  8
0
  6
Continuous
 62
     7
370
    15
100
AcDbLine
 10
45.1195542052
 20
152.6900513276
 30
0.0
 11
45.1195542052
 21
141.4474555963
 31
0.0
  0
LINE
  5
D3
330
1F
100
AcDbEntity
  8
0
  6
Continuous
 62
     7
370
    15
100
AcDbLine
 10
80.9195542052
 20
153.5539317236
 30
0.0
 11
80.9195542052
 21
169.0888522465
 31
0.0
  0
ARC
  5
D4
330
1F
100
AcDbEntity
  8
0
  6
Continuous
 62
     7
370
    15
100
AcDbCircle
 10
81.1194911161
 20
169.0938753576
 30
0.0
 40
0.1999999999999775
100
AcDbArc
 50
181.4391666667
 51
271.4391666667
  0
LINE
  5
D5
330
1F
100
AcDbEntity
  8
0
  6
Continuous
 62
     7
370
    15
100
AcDbLine
 10
46.6195542052
 20
153.1230640295
 30
0.0
 11
46.6195542052
 21
168.2271168582
 31
0.0
  0
LINE
  5
D6
330
1F
100
AcDbEntity
  8
0
  6
Continuous
 62
     7
370
    15
100
AcDbLine
 10
46.6195542052
 20
168.2271168582
 30
0.0
 11
80.9195542052
 21
169.0888522465
 31
0.0
  0
LINE
  5
D7
330
1F
100
AcDbEntity
  8
0
  6
Continuous
 62
     7
370
    15
100
AcDbLine
 10
46.6195542052
 20
125.9103900657
 30
0.0
 11
46.6195542052
 21
141.0144428944
 31
0.0
  0
LINE
  5
D8
330
1F
100
AcDbEntity
  8
0
  6
Continuous
 62
     7
370
    15
100
AcDbLine
 10
80.9195542052
 20
125.0486546774
 30
0.0
 11
80.9195542052
 21
140.5835752003
 31
0.0
  0
LINE
  5
D9
330
1F
100
AcDbEntity
  8
0
  6
Continuous
 62
     7
370
    15
100
AcDbLine
 10
46.6195542052
 20
125.9103900657
 30
0.0
 11
80.9195542052
 21
125.0486546774
 31
0.0
  0
ARC
  5
DA
330
1F
100
AcDbEntity
  8
0
  6
Continuous
 62
     7
370
    15
100
AcDbCircle
 10
81.1194911161
 20
125.0436315662
 30
0.0
 40
0.200000000000034
100
AcDbArc
 50
88.5608333333
 51
178.5608333333
  0
LINE
  5
DB
330
1F
100
AcDbEntity
  8
0
  6
Continuous
 62
     7
370
    15
100
AcDbLine
 10
81.1245142272
 20
168.8939384467
 30
0.0
 11
82.3030419187
 21
168.9235471644
 31
0.0
  0
LINE
  5
DC
330
1F
100
AcDbEntity
  8
0
  6
Continuous
 62
     7
370
    15
100
AcDbLine
 10
81.1245142272
 20
125.2435684772
 30
0.0
 11
82.3030419187
 21
125.2139597595
 31
0.0
  0
LINE
  5
DD
330
1F
100
AcDbEntity
  8
0
  6
Continuous
 62
     7
370
    15
100
AcDbLine
 10
45.1195542052
 20
126.7764154694
 30
0.0
 11
46.6195542052
 21
125.9103900657
 31
0.0
  0
LINE
  5
DE
330
1F
100
AcDbEntity
  8
0
  6
Continuous
 62
     7
370
    15
100
AcDbLine
 10
45.1195542052
 20
126.7764154694
 30
0.0
 11
45.1195542052
 21
141.4474555963
 31
0.0
  0
LINE
  5
DF
330
1F
100
AcDbEntity
  8
0
  6
Continuous
 62
     7
370
    15
100
AcDbLine
 10
45.1195542052
 20
167.3610914544
 30
0.0
 11
46.6195542052
 21
168.2271168582
 31
0.0
  0
LINE
  5
E0
330
1F
100
AcDbEntity
  8
0
  6
Continuous
 62
     7
370
    15
100
AcDbLine
 10
45.1195542052
 20
152.6900513276
 30
0.0
 11
45.1195542052
 21
167.3610914544
 31
0.0
  0
ELLIPSE
  5
E1
330
1F
100
AcDbEntity
  8
0
  6
Continuous
 62
     7
370
    15
100
AcDbEllipse
 10
232.47225608
 20
147.0687534619
 30
0.0
 11
-1.195939561569872
 21
19.99755988885704
 31
0.0
210
0.0
220
0.0
230
1.0
 40
0.2612235458
 41
0.4670699744839241
 42
2.224401630764463
  0
SPLINE
  5
E2
330
1F
100
AcDbEntity
  8
0
  6
Continuous
 62
     7
370
    15
100
AcDbSpline
210
0.0
220
0.0
230
1.0
 70
     8
 71
     3
 72
    20
 73
    16
 74
     0
 42
0.00000001
 43
0.00000001
 12
1.0
 22
0.0
 32
0.0
 13
1.0
 23
0.0
 33
0.0
 40
0.0
 40
0.0
 40
0.0
 40
0.0
 40
0.1249999999999995
 40
0.1249999999999995
 40
0.249999999999999
 40
0.249999999999999
 40
0.3749999999999983
 40
0.3749999999999983
 40
0.4999999999999977
 40
0.4999999999999977
 40
0.6249999999999971
 40
0.6249999999999971
 40
0.7499999999999963
 40
0.7499999999999963
 40
1.0
 40
1.0
 40
1.0
 40
1.0
 10
234.2206499747482
 20
131.0279926259259
 30
0.0
 10
233.8915252871095
 20
131.0507298270645
 30
0.0
 10
233.570969051779
 20
131.0909004165738
 30
0.0
 10
232.9461570209696
 20
131.205753531134
 30
0.0
 10
232.6404718510063
 20
131.2809053985798
 30
0.0
 10
232.0522358254887
 20
131.4674611532964
 30
0.0
 10
231.7753012594827
 20
131.5768986842438
 30
0.0
 10
231.2537287175664
 20
131.8290705100618
 30
0.0
 10
231.0074758881786
 20
131.9730261181803
 30
0.0
 10
230.5553455987121
 20
132.2920333366645
 30
0.0
 10
230.3512157931548
 20
132.465380197642
 30
0.0
 10
229.9828518492606
 20
132.8403315373929
 30
0.0
 10
229.8176943293772
 20
133.0434861320296
 30
0.0
 10
229.3868081164221
 20
133.686062271046
 30
0.0
 10
229.1857014327829
 20
134.1538541570308
 30
0.0
 10
229.0522657966198
 20
134.661166012953
 30
0.0
  0
ELLIPSE
  5
E3
330
1F
100
AcDbEntity
  8
0
  6
Continuous
 62
     7
370
    15
100
AcDbEllipse
 10
313.6595077549
 20
147.0687534619
 30
0.0
 11
190.2867990447081
 21
-4.202620746254809
 31
0.0
210
0.0
220
0.0
230
1.0
 40
0.1027578619
 41
4.284001329030406
 42
4.300703184239445
  0
LINE
  5
E4
330
1F
100
AcDbEntity
  8
0
  6
Continuous
 62
     7
370
    15
100
AcDbLine
 10
237.1195542052
 20
166.6519423505
 30
0.0
 11
237.1195542052
 21
167.0687534619
 31
0.0
  0
LINE
  5
E5
330
1F
100
AcDbEntity
  8
0
  6
Continuous
 62
     7
370
    15
100
AcDbLine
 10
237.1195542052
 20
127.0687534619
 30
0.0
 11
237.1195542052
 21
130.830727823
 31
0.0
  0
ELLIPSE
  5
E6
330
1F
100
AcDbEntity
  8
0
  6
Continuous
 62
     7
370
    15
100
AcDbEllipse
 10
313.6595077549
 20
147.0687534619
 30
0.0
 11
190.2867990447081
 21
-4.202620746254809
 31
0.0
210
0.0
220
0.0
230
1.0
 40
0.1027578619
 41
1.987021077646242
 42
2.003722932855284
  0
SPLINE
  5
E7
330
1F
100
AcDbEntity
  8
0
  6
Continuous
 62
     7
370
    15
100
AcDbSpline
210
0.0
220
0.0
230
1.0
 70
     8
 71
     3
 72
    18
 73
    14
 74
     0
 42
0.00000001
 43
0.00000001
 12
1.0
 22
0.0
 32
0.0
 13
1.0
 23
0.0
 33
0.0
 40
0.0
 40
0.0
 40
0.0
 40
0.0
 40
0.2499999999999987
 40
0.2499999999999987
 40
0.3750000000000004
 40
0.3750000000000004
 40
0.5000000000000022
 40
0.5000000000000022
 40
0.625000000000004
 40
0.625000000000004
 40
0.7500000000000058
 40
0.7500000000000058
 40
1.0
 40
1.0
 40
1.0
 40
1.0
 10
229.0522657966197
 20
164.7837348683043
 30
0.0
 10
229.1858284363092
 20
165.0842571955031
 30
0.0
 10
229.3870293241679
 20
165.3445249645641
 30
0.0
 10
229.8166387061673
 20
165.6812422837625
 30
0.0
 10
229.9826689185738
 20
165.7848151945434
 30
0.0
 10
230.3506043167577
 20
165.9686050711528
 30
0.0
 10
230.5534705656311
 20
166.0498622615562
 30
0.0
 10
230.9993587197161
 20
166.1940401227798
 30
0.0
 10
231.2439324878562
 20
166.257284522277
 30
0.0
 10
231.7712137406512
 20
166.3661647792448
 30
0.0
 10
232.0482250655727
 20
166.4108228810623
 30
0.0
 10
232.9189732348003
 20
166.5214186571564
 30
0.0
 10
233.5610572233631
 20
166.5646337333128
 30
0.0
 10
234.2206499747481
 20
166.5813735728732
 30
0.0
  0
ELLIPSE
  5
E8
330
1F
100
AcDbEntity
  8
0
  6
Continuous
 62
     7
370
    15
100
AcDbEllipse
 10
228.8946653253
 20
153.4063231941
 30
0.0
 11
0.05076165780209863
 21
2.94995539098079
 31
0.0
210
0.0
220
0.0
230
1.0
 40
0.2406504161
 41
6.131281699286504
 42
9.719447700788056
  0
SPLINE
  5
E9
330
1F
100
AcDbEntity
  8
0
  6
Continuous
 62
     7
370
    15
100
AcDbSpline
210
0.0
220
0.0
230
1.0
 70
     8
 71
     3
 72
    30
 73
    26
 74
     0
 42
0.00000001
 43
0.00000001
 12
1.0
 22
0.0
 32
0.0
 13
1.0
 23
0.0
 33
0.0
 40
0.0
 40
0.0
 40
0.0
 40
0.0
 40
0.0625000000000002
 40
0.0625000000000002
 40
0.1250000000000003
 40
0.1250000000000003
 40
0.1875000000000005
 40
0.1875000000000005
 40
0.2500000000000007
 40
0.2500000000000007
 40
0.3125000000000008
 40
0.3125000000000008
 40
0.375000000000001
 40
0.375000000000001
 40
0.5000000000000001
 40
0.5000000000000001
 40
0.6249999999999993
 40
0.6249999999999993
 40
0.7499999999999984
 40
0.7499999999999984
 40
0.8749999999999977
 40
0.8749999999999977
 40
0.9374999999999988
 40
0.9374999999999988
 40
1.0
 40
1.0
 40
1.0
 40
1.0
 10
229.0522657966197
 20
156.3204608048297
 30
0.0
 10
229.0973747882511
 20
156.2906636305027
 30
0.0
 10
229.149253359348
 20
156.2480689520507
 30
0.0
 10
229.2656394691858
 20
156.136578635551
 30
0.0
 10
229.3310183990189
 20
156.0666953967497
 30
0.0
 10
229.4689005996887
 20
155.9003168314602
 30
0.0
 10
229.5409647629922
 20
155.8046274801158
 30
0.0
 10
229.6868419081824
 20
155.5825205668292
 30
0.0
 10
229.7614602422111
 20
155.4540987280174
 30
0.0
 10
229.8960042672276
 20
155.1732760141355
 30
0.0
 10
229.9576263643395
 20
155.0164995497151
 30
0.0
 10
230.0532696383837
 20
154.6903956003408
 30
0.0
 10
230.0882147434615
 20
154.5181663762895
 30
0.0
 10
230.1495158277803
 20
154.001612357479
 30
0.0
 10
230.1335165609798
 20
153.6598245834394
 30
0.0
 10
230.0449934745219
 20
153.0251082695478
 30
0.0
 10
229.9724470581828
 20
152.7237821885938
 30
0.0
 10
229.8068647484105
 20
152.165006919951
 30
0.0
 10
229.7135096469424
 20
151.9065071109313
 30
0.0
 10
229.5198764908502
 20
151.4284133079941
 30
0.0
 10
229.418467776048
 20
151.2073053639312
 30
0.0
 10
229.2738591629633
 20
150.9274246892473
 30
0.0
 10
229.2267119196443
 20
150.8423769126037
 30
0.0
 10
229.1359730410972
 20
150.6930601811308
 30
0.0
 10
229.0922161706604
 20
150.6286105616964
 30
0.0
 10
229.0522657966197
 20
150.579968692596
 30
0.0
  0
LINE
  5
EA
330
1F
100
AcDbEntity
  8
0
  6
Continuous
 62
     7
370
    15
100
AcDbLine
 10
242.607120027
 20
159.3599232638
 30
0.0
 11
245.5817073983
 21
160.2383349069
 31
0.0
  0
ARC
  5
EB
330
1F
100
AcDbEntity
  8
0
  6
Continuous
 62
     7
370
    15
100
AcDbCircle
 10
243.2435967934
 20
157.3894749643
 30
0.0
 40
2.070692921563208
100
AcDbArc
 50
107.9010349698
 51
288.1625050238
  0
LINE
  5
EC
330
1F
100
AcDbEntity
  8
0
  6
Continuous
 62
     7
370
    15
100
AcDbLine
 10
258.2926277999
 20
159.6754030275
 30
0.0
 11
243.8890590682
 21
155.4219517428
 31
0.0
  0
LINE
  5
ED
330
1F
100
AcDbEntity
  8
0
  6
Continuous
 62
     7
370
    15
100
AcDbLine
 10
248.7967262476
 20
129.5754104674
 30
0.0
 11
258.2926277999
 21
159.6754030275
 31
0.0
  0
ELLIPSE
  5
EE
330
1F
100
AcDbEntity
  8
0
  6
Continuous
 62
     7
370
    15
100
AcDbEllipse
 10
313.6595077549
 20
147.0687534619
 30
0.0
 11
195.043969020826
 21
-4.307686264911155
 31
0.0
210
0.0
220
0.0
230
1.0
 40
0.1027578619
 41
4.314179367267243
 42
4.375648239891092
  0
SPLINE
  5
EF
330
1F
100
AcDbEntity
  8
0
  6
Continuous
 62
     7
370
    15
100
AcDbSpline
210
0.0
220
0.0
230
1.0
 70
     8
 71
     3
 72
     8
 73
     4
 74
     0
 42
0.00000001
 43
0.00000001
 12
1.0
 22
0.0
 32
0.0
 13
1.0
 23
0.0
 33
0.0
 40
0.0
 40
0.0
 40
0.0
 40
0.0
 40
1.0
 40
1.0
 40
1.0
 40
1.0
 10
237.6195542051535
 20
130.265013216178
 30
0.0
 10
237.4525668791077
 20
130.4533033195017
 30
0.0
 10
237.285891566648
 20
130.6418672669735
 30
0.0
 10
237.1195542051541
 20
130.8307278229859
 30
0.0
  0
SPLINE
  5
F0
330
1F
100
AcDbEntity
  8
0
  6
Continuous
 62
     7
370
    15
100
AcDbSpline
210
0.0
220
0.0
230
1.0
 70
     8
 71
     3
 72
     8
 73
     4
 74
     0
 42
0.00000001
 43
0.00000001
 12
1.0
 22
0.0
 32
0.0
 13
1.0
 23
0.0
 33
0.0
 40
0.0
 40
0.0
 40
0.0
 40
0.0
 40
1.0
 40
1.0
 40
1.0
 40
1.0
 10
237.1195542051542
 20
166.6519423504587
 30
0.0
 10
237.7642860932192
 20
167.3557973836811
 30
0.0
 10
238.4140533710166
 20
168.0550129488695
 30
0.0
 10
239.0675498596183
 20
168.7507925229552
 30
0.0
  0
LINE
  5
F1
330
1F
100
AcDbEntity
  8
0
  6
Continuous
 62
     7
370
    15
100
AcDbLine
 10
239.0675498596
 20
168.750792523
 30
0.0
 11
241.658713405
 21
168.6941693826
 31
0.0
  0
ARC
  5
F2
330
1F
100
AcDbEntity
  8
0
  6
Continuous
 62
     7
370
    15
100
AcDbCircle
 10
242.2392954188
 20
194.7473202305
 30
0.0
 40
26.05961904129795
100
AcDbArc
 50
268.7234022313
 51
283.8717551116
  0
LINE
  5
F3
330
1F
100
AcDbEntity
  8
0
  6
Continuous
 62
     7
370
    15
100
AcDbLine
 10
245.5817073983
 20
160.2383349069
 30
0.0
 11
248.4870756058
 21
169.4477355044
 31
0.0
  0
LWPOLYLINE
  5
F4
330
1F
100
AcDbEntity
  8
0
  6
Continuous
 62
     7
370
    15
100
AcDbPolyline
 90
       25
 70
   128
 43
0.0
 10
247.8440472868
 20
147.4106829573
 10
248.7449515123
 20
147.5076495379
 10
249.5844606037
 20
147.8313150051
 10
250.3053634036
 20
148.3596220922
 10
250.8585315778
 20
149.0565675443
 10
251.2062676292
 20
149.8746556805
 10
251.3248739206
 20
150.7581351465
 10
251.2062676292
 20
151.6467982765
 10
250.8585315778
 20
152.4800841468
 10
250.3053634036
 20
153.2012057025
 10
249.5844606037
 20
153.7610197013
 10
248.7449515123
 20
154.1213757442
 10
247.8440472868
 20
154.2577161624
 10
246.9431430612
 20
154.1607495818
 10
246.1036339699
 20
153.8370841146
 10
245.3827311699
 20
153.3087770275
 10
244.8295629957
 20
152.6118315754
 10
244.4818269444
 20
151.7937434392
 10
244.363220653
 20
150.9102639732
 10
244.4818269444
 20
150.0216008432
 10
244.8295629957
 20
149.1883149729
 10
245.3827311699
 20
148.4671934172
 10
246.1036339699
 20
147.9073794184
 10
246.9431430612
 20
147.5470233755
 10
247.8440472868
 20
147.4106829573
  0
LINE
  5
F5
330
1F
100
AcDbEntity
  8
0
  6
Continuous
 62
     7
370
    15
100
AcDbLine
 10
237.6195542052
 20
130.2650132162
 30
0.0
 11
237.6195542052
 21
126.5687534619
 31
0.0
  0
SPLINE
  5
F6
330
1F
100
AcDbEntity
  8
0
  6
Continuous
 62
     7
370
    15
100
AcDbSpline
210
0.0
220
0.0
230
1.0
 70
     8
 71
     3
 72
     9
 73
     5
 74
     0
 42
0.00000001
 43
0.00000001
 12
1.0
 22
0.0
 32
0.0
 13
1.0
 23
0.0
 33
0.0
 40
0.0
 40
0.0
 40
0.0
 40
0.0
 40
0.6604079770674384
 40
1.0
 40
1.0
 40
1.0
 40
1.0
 10
238.0800761277714
 20
168.0267216652547
 30
0.0
 10
238.2620405477022
 20
168.1882920435706
 30
0.0
 10
238.5375738941329
 20
168.4329444159319
 30
0.0
 10
238.9331987981431
 20
168.6702167358487
 30
0.0
 10
239.0675498596184
 20
168.7507925229552
 30
0.0
  0
ELLIPSE
  5
F7
330
1F
100
AcDbEntity
  8
0
  6
Continuous
 62
     7
370
    15
100
AcDbEllipse
 10
254.0707359177
 20
147.0687534619
 30
0.0
 11
6.669703807742906
 21
20.49869244577122
 31
0.0
210
0.0
220
0.0
230
1.0
 40
0.0347142918
 41
3.152887237351223
 42
3.701336965437027
  0
LINE
  5
F8
330
1F
100
AcDbEntity
  8
0
  6
Continuous
 62
     7
370
    15
100
AcDbLine
 10
241.6433675956
 20
157.4534787041
 30
0.0
 11
241.1686471311
 21
157.2453224011
 31
0.0
  0
LINE
  5
F9
330
1F
100
AcDbEntity
  8
0
  6
Continuous
 62
     7
370
    15
100
AcDbLine
 10
244.617954967
 20
158.3318903472
 30
0.0
 11
245.5817073983
 21
160.2383349069
 31
0.0
  0
LINE
  5
FA
330
1F
100
AcDbEntity
  8
0
  6
Continuous
 62
     7
370
    15
100
AcDbLine
 10
244.617954967
 20
158.3318903472
 30
0.0
 11
241.6433675956
 21
157.4534787041
 31
0.0
  0
ARC
  5
FB
330
1F
100
AcDbEntity
  8
0
  6
Continuous
 62
     7
370
    15
100
AcDbCircle
 10
252.6524788503
 20
162.793714788
 30
0.0
 40
3.272323123081245
100
AcDbArc
 50
32.991428141
 51
93.3732364254
  0
LINE
  5
FC
330
1F
100
AcDbEntity
  8
0
  6
HIDDEN
 62
     7
370
     0
100
AcDbLine
 10
105.1195542052
 20
177.5687534321
 30
0.0
 11
105.1195542052
 21
116.5687534619
 31
0.0
  0
LINE
  5
FD
330
1F
100
AcDbEntity
  8
0
  6
HIDDEN
 62
     7
370
     0
100
AcDbLine
 10
83.1195542052
 20
178.0687534514
 30
0.0
 11
83.1195542052
 21
116.0687534619
 31
0.0
  0
SPLINE
  5
FE
330
1F
100
AcDbEntity
  8
0
  6
HIDDEN
 62
     7
370
     0
100
AcDbSpline
210
0.0
220
0.0
230
1.0
 70
     8
 71
     3
 72
    60
 73
    56
 74
     0
 42
0.00000001
 43
0.00000001
 12
1.0
 22
0.0
 32
0.0
 13
1.0
 23
0.0
 33
0.0
 40
-0.0624999999999997
 40
-0.0624999999999997
 40
0.0
 40
0.0
 40
0.0312500000000001
 40
0.0312500000000001
 40
0.0625000000000002
 40
0.0625000000000002
 40
0.0937500000000004
 40
0.0937500000000004
 40
0.1250000000000005
 40
0.1250000000000005
 40
0.1875000000000007
 40
0.1875000000000007
 40
0.2500000000000009
 40
0.2500000000000009
 40
0.281250000000001
 40
0.281250000000001
 40
0.3125000000000011
 40
0.3125000000000011
 40
0.3437500000000012
 40
0.3437500000000012
 40
0.3750000000000013
 40
0.3750000000000013
 40
0.4062500000000015
 40
0.4062500000000015
 40
0.4375000000000016
 40
0.4375000000000016
 40
0.4687500000000017
 40
0.4687500000000017
 40
0.5000000000000018
 40
0.5000000000000018
 40
0.5625000000000016
 40
0.5625000000000016
 40
0.6250000000000013
 40
0.6250000000000013
 40
0.6562500000000012
 40
0.6562500000000012
 40
0.6875000000000011
 40
0.6875000000000011
 40
0.718750000000001
 40
0.718750000000001
 40
0.7500000000000009
 40
0.7500000000000009
 40
0.7812500000000009
 40
0.7812500000000009
 40
0.8125000000000008
 40
0.8125000000000008
 40
0.8437500000000007
 40
0.8437500000000007
 40
0.8750000000000006
 40
0.8750000000000006
 40
0.9062500000000004
 40
0.9062500000000004
 40
0.9375000000000003
 40
0.9375000000000003
 40
1.0
 40
1.0
 40
1.03125
 40
1.03125
 10
95.38388475221309
 20
145.0687534619371
 30
0.0
 10
94.98738893162474
 20
145.0687534619371
 30
0.0
 10
94.85743888824564
 20
145.081725322073
 30
0.0
 10
94.6017860292024
 20
145.1325454710586
 30
0.0
 10
94.47475657980678
 20
145.1710127734701
 30
0.0
 10
94.23256861871695
 20
145.2714109047796
 30
0.0
 10
94.11770719599224
 20
145.3328438668446
 30
0.0
 10
93.90032706073433
 20
145.4779785808144
 30
0.0
 10
93.79742952560952
 20
145.562433618414
 30
0.0
 10
93.52076244374894
 20
145.8391529330368
 30
0.0
 10
93.37176411777287
 20
146.0622299893932
 30
0.0
 10
93.17225277592222
 20
146.5435136747529
 30
0.0
 10
93.1196946747106
 20
146.806744147621
 30
0.0
 10
93.11948440329323
 20
147.1981464418763
 30
0.0
 10
93.13247018249137
 20
147.3306694789584
 30
0.0
 10
93.1834973475963
 20
147.5871999465401
 30
0.0
 10
93.22125256626721
 20
147.7118868285676
 30
0.0
 10
93.32139098425293
 20
147.9540662148513
 30
0.0
 10
93.38399674075784
 20
148.0711598602276
 30
0.0
 10
93.52873017587349
 20
148.287874951953
 30
0.0
 10
93.6113575794883
 20
148.3888937721449
 30
0.0
 10
93.79796263659884
 20
148.5756785517239
 30
0.0
 10
93.89907775950557
 20
148.6585354292726
 30
0.0
 10
94.11561048537811
 20
148.8034195582134
 30
0.0
 10
94.2324805930158
 20
148.8660569807993
 30
0.0
 10
94.47477830846523
 20
148.9665057048064
 30
0.0
 10
94.5994422259309
 20
149.0043567753888
 30
0.0
 10
94.85572914676659
 20
149.0555783149484
 30
0.0
 10
94.9883011608091
 20
149.0687064506528
 30
0.0
 10
95.37990535987204
 20
149.0688470975273
 30
0.0
 10
95.64307058740229
 20
149.0165223628251
 30
0.0
 10
96.12457575090073
 20
148.8174114577538
 30
0.0
 10
96.34782709958415
 20
148.6685493535982
 30
0.0
 10
96.62468350038927
 20
148.39222847272
 30
0.0
 10
96.70919702965308
 20
148.2894647941763
 30
0.0
 10
96.85461443244584
 20
148.0720811620474
 30
0.0
 10
96.9161257017988
 20
147.9572823206856
 30
0.0
 10
97.01665565408734
 20
147.7154054300316
 30
0.0
 10
97.05530070118711
 20
147.5882517600274
 30
0.0
 10
97.10635705365817
 20
147.3325856430654
 30
0.0
 10
97.1194219116781
 20
147.2027195601977
 30
0.0
 10
97.1196845189667
 20
146.9387669747596
 30
0.0
 10
97.10680752036639
 20
146.8083627297646
 30
0.0
 10
97.05622149371156
 20
146.552711907743
 30
0.0
 10
97.01794510032211
 20
146.4258462861378
 30
0.0
 10
96.9176741329018
 20
146.1833256822806
 30
0.0
 10
96.85631804318312
 20
146.0683989819344
 30
0.0
 10
96.71147163584283
 20
145.8510274629471
 30
0.0
 10
96.62709404564251
 20
145.748013622364
 30
0.0
 10
96.44268662944313
 20
145.5633131003517
 30
0.0
 10
96.34211356690957
 20
145.480483432268
 30
0.0
 10
96.12388755111559
 20
145.3342311616046
 30
0.0
 10
96.00733251220375
 20
145.2718627475517
 30
0.0
 10
95.64648315915004
 20
145.1219067486364
 30
0.0
 10
95.38388475221309
 20
145.0687534619371
 30
0.0
 10
94.98738893162474
 20
145.0687534619371
 30
0.0
  0
SPLINE
  5
FF
330
1F
100
AcDbEntity
  8
0
  6
HIDDEN
 62
     7
370
     0
100
AcDbSpline
210
0.0
220
0.0
230
1.0
 70
     8
 71
     3
 72
    12
 73
     8
 74
     0
 42
0.00000001
 43
0.00000001
 12
1.0
 22
0.0
 32
0.0
 13
1.0
 23
0.0
 33
0.0
 40
0.0
 40
0.0
 40
0.0
 40
0.0
 40
0.2500000000000005
 40
0.2500000000000005
 40
0.500000000000001
 40
0.500000000000001
 40
1.0
 40
1.0
 40
1.0
 40
1.0
 10
93.64731101872061
 20
137.680687030601
 30
0.0
 10
93.58423098022725
 20
137.680687030601
 30
0.0
 10
93.5250823580458
 20
137.6553227113862
 30
0.0
 10
93.4266098079767
 20
137.5811578510132
 30
0.0
 10
93.387573195992
 20
137.5346375104591
 30
0.0
 10
93.28767672921298
 20
137.3844951676138
 30
0.0
 10
93.24525584814633
 20
137.2728019606417
 30
0.0
 10
93.21429831682838
 20
137.1593841412519
 30
0.0
  0
LINE
  5
100
330
1F
100
AcDbEntity
  8
0
  6
HIDDEN
 62
     7
370
     0
100
AcDbLine
 10
96.5917973916
 20
137.6806870306
 30
0.0
 11
93.6473110187
 21
137.6806870306
 31
0.0
  0
SPLINE
  5
101
330
1F
100
AcDbEntity
  8
0
  6
HIDDEN
 62
     7
370
     0
100
AcDbSpline
210
0.0
220
0.0
230
1.0
 70
     8
 71
     3
 72
    12
 73
     8
 74
     0
 42
0.00000001
 43
0.00000001
 12
1.0
 22
0.0
 32
0.0
 13
1.0
 23
0.0
 33
0.0
 40
0.0
 40
0.0
 40
0.0
 40
0.0
 40
0.5000000000000019
 40
0.5000000000000019
 40
0.7500000000000009
 40
0.7500000000000009
 40
1.0
 40
1.0
 40
1.0
 40
1.0
 10
97.02481009347997
 20
137.1593841412519
 30
0.0
 10
96.99408785156088
 20
137.2719399406611
 30
0.0
 10
96.95125063702571
 20
137.3846978004007
 30
0.0
 10
96.85182361282597
 20
137.5342386861971
 30
0.0
 10
96.81207141800928
 20
137.581531417904
 30
0.0
 10
96.71402996115108
 20
137.6552677112254
 30
0.0
 10
96.65447390556353
 20
137.680687030601
 30
0.0
 10
96.59179739158772
 20
137.680687030601
 30
0.0
  0
ELLIPSE
  5
102
330
1F
100
AcDbEntity
  8
0
  6
HIDDEN
 62
     7
370
     0
100
AcDbEllipse
 10
80.7724000158
 20
147.0687534619
 30
0.0
 11
-14.75368316065612
 21
31.09325491558116
 31
0.0
210
0.0
220
0.0
230
1.0
 40
0.3419987131
 41
3.300734856217127
 42
4.231496223360779
  0
SPLINE
  5
103
330
1F
100
AcDbEntity
  8
0
  6
HIDDEN
 62
     7
370
     0
100
AcDbSpline
210
0.0
220
0.0
230
1.0
 70
     8
 71
     3
 72
    12
 73
     8
 74
     0
 42
0.00000001
 43
0.00000001
 12
1.0
 22
0.0
 32
0.0
 13
1.0
 23
0.0
 33
0.0
 40
0.0
 40
0.0
 40
0.0
 40
0.0
 40
0.2500000000000014
 40
0.2500000000000014
 40
0.5000000000000028
 40
0.5000000000000028
 40
1.0
 40
1.0
 40
1.0
 40
1.0
 10
96.59179739158778
 20
117.0002615030641
 30
0.0
 10
96.65487743008114
 20
117.000261503064
 30
0.0
 10
96.71402605226257
 20
117.0081674292764
 30
0.0
 10
96.8124986023316
 20
117.0314925907127
 30
0.0
 10
96.85153521431631
 20
117.0462053805444
 30
0.0
 10
96.95143168109539
 20
117.0941611812753
 30
0.0
 10
96.993852562162
 20
117.1304233378554
 30
0.0
 10
97.02481009347997
 20
117.1680110018199
 30
0.0
  0
LINE
  5
104
330
1F
100
AcDbEntity
  8
0
  6
HIDDEN
 62
     7
370
     0
100
AcDbLine
 10
93.6473110187
 20
117.0002615031
 30
0.0
 11
96.5917973916
 21
117.0002615031
 31
0.0
  0
SPLINE
  5
105
330
1F
100
AcDbEntity
  8
0
  6
HIDDEN
 62
     7
370
     0
100
AcDbSpline
210
0.0
220
0.0
230
1.0
 70
     8
 71
     3
 72
    12
 73
     8
 74
     0
 42
0.00000001
 43
0.00000001
 12
1.0
 22
0.0
 32
0.0
 13
1.0
 23
0.0
 33
0.0
 40
0.0
 40
0.0
 40
0.0
 40
0.0
 40
0.5000000000000029
 40
0.5000000000000029
 40
0.7500000000000014
 40
0.7500000000000014
 40
1.0
 40
1.0
 40
1.0
 40
1.0
 10
93.21429831682838
 20
117.1680110018199
 30
0.0
 10
93.24502055874747
 20
117.1307090188668
 30
0.0
 10
93.28785777328261
 20
117.0940971868204
 30
0.0
 10
93.38728479748238
 20
117.0463324035352
 30
0.0
 10
93.42703699229904
 20
117.0313748880529
 30
0.0
 10
93.52507844915726
 20
117.0081849422837
 30
0.0
 10
93.5846345047448
 20
117.000261503064
 30
0.0
 10
93.64731101872061
 20
117.000261503064
 30
0.0
  0
ELLIPSE
  5
106
330
1F
100
AcDbEntity
  8
0
  6
HIDDEN
 62
     7
370
     0
100
AcDbEllipse
 10
109.4667083945
 20
147.0687534619
 30
0.0
 11
14.75368316065612
 21
31.09325491558118
 31
0.0
210
0.0
220
0.0
230
1.0
 40
0.3419987131
 41
2.051689083818818
 42
2.982450450962498
  0
SPLINE
  5
107
330
1F
100
AcDbEntity
  8
0
  6
HIDDEN
 62
     7
370
     0
100
AcDbSpline
210
0.0
220
0.0
230
1.0
 70
     8
 71
     3
 72
    12
 73
     8
 74
     0
 42
0.00000001
 43
0.00000001
 12
1.0
 22
0.0
 32
0.0
 13
1.0
 23
0.0
 33
0.0
 40
0.0
 40
0.0
 40
0.0
 40
0.0
 40
0.2500000000000014
 40
0.2500000000000014
 40
0.5000000000000029
 40
0.5000000000000029
 40
1.0
 40
1.0
 40
1.0
 40
1.0
 10
93.64731101872061
 20
177.1372454208103
 30
0.0
 10
93.58423098022728
 20
177.1372454208103
 30
0.0
 10
93.52508235804585
 20
177.1293394945979
 30
0.0
 10
93.42660980797672
 20
177.1060143331617
 30
0.0
 10
93.38757319599206
 20
177.0913015433299
 30
0.0
 10
93.287676729213
 20
177.043345742599
 30
0.0
 10
93.24525584814636
 20
177.007083586019
 30
0.0
 10
93.21429831682839
 20
176.9694959220545
 30
0.0
  0
LINE
  5
108
330
1F
100
AcDbEntity
  8
0
  6
HIDDEN
 62
     7
370
     0
100
AcDbLine
 10
96.5917973916
 20
177.1372454208
 30
0.0
 11
93.6473110187
 21
177.1372454208
 31
0.0
  0
SPLINE
  5
109
330
1F
100
AcDbEntity
  8
0
  6
HIDDEN
 62
     7
370
     0
100
AcDbSpline
210
0.0
220
0.0
230
1.0
 70
     8
 71
     3
 72
    12
 73
     8
 74
     0
 42
0.00000001
 43
0.00000001
 12
1.0
 22
0.0
 32
0.0
 13
1.0
 23
0.0
 33
0.0
 40
0.0
 40
0.0
 40
0.0
 40
0.0
 40
0.5
 40
0.5
 40
0.75
 40
0.75
 40
1.0
 40
1.0
 40
1.0
 40
1.0
 10
97.02481009347993
 20
176.9694959220545
 30
0.0
 10
96.99408785156085
 20
177.0067979050075
 30
0.0
 10
96.9512506370257
 20
177.0434097370539
 30
0.0
 10
96.85182361282592
 20
177.0911745203391
 30
0.0
 10
96.81207141800927
 20
177.1061320358214
 30
0.0
 10
96.71402996115106
 20
177.1293219815906
 30
0.0
 10
96.65447390556356
 20
177.1372454208103
 30
0.0
 10
96.59179739158773
 20
177.1372454208103
 30
0.0
  0
ELLIPSE
  5
10A
330
1F
100
AcDbEntity
  8
0
  6
HIDDEN
 62
     7
370
     0
100
AcDbEllipse
 10
80.7724000158
 20
147.0687534619
 30
0.0
 11
14.75368316065624
 21
31.09325491558118
 31
0.0
210
0.0
220
0.0
230
1.0
 40
0.3419987131
 41
5.193281737408637
 42
6.12404310455234
  0
SPLINE
  5
10B
330
1F
100
AcDbEntity
  8
0
  6
HIDDEN
 62
     7
370
     0
100
AcDbSpline
210
0.0
220
0.0
230
1.0
 70
     8
 71
     3
 72
    12
 73
     8
 74
     0
 42
0.00000001
 43
0.00000001
 12
1.0
 22
0.0
 32
0.0
 13
1.0
 23
0.0
 33
0.0
 40
0.0
 40
0.0
 40
0.0
 40
0.0
 40
0.2499999999999995
 40
0.2499999999999995
 40
0.499999999999999
 40
0.499999999999999
 40
1.0
 40
1.0
 40
1.0
 40
1.0
 10
96.59179739158772
 20
156.4568198932736
 30
0.0
 10
96.65487743008109
 20
156.4568198932736
 30
0.0
 10
96.71402605226253
 20
156.4821842124885
 30
0.0
 10
96.81249860233157
 20
156.5563490728614
 30
0.0
 10
96.8515352143163
 20
156.6028694134156
 30
0.0
 10
96.95143168109534
 20
156.7530117562608
 30
0.0
 10
96.99385256216198
 20
156.864704963233
 30
0.0
 10
97.02481009347993
 20
156.9781227826227
 30
0.0
  0
LINE
  5
10C
330
1F
100
AcDbEntity
  8
0
  6
HIDDEN
 62
     7
370
     0
100
AcDbLine
 10
93.6473110187
 20
156.4568198933
 30
0.0
 11
96.5917973916
 21
156.4568198933
 31
0.0
  0
SPLINE
  5
10D
330
1F
100
AcDbEntity
  8
0
  6
HIDDEN
 62
     7
370
     0
100
AcDbSpline
210
0.0
220
0.0
230
1.0
 70
     8
 71
     3
 72
    12
 73
     8
 74
     0
 42
0.00000001
 43
0.00000001
 12
1.0
 22
0.0
 32
0.0
 13
1.0
 23
0.0
 33
0.0
 40
0.0
 40
0.0
 40
0.0
 40
0.0
 40
0.5000000000000028
 40
0.5000000000000028
 40
0.7500000000000013
 40
0.7500000000000013
 40
1.0
 40
1.0
 40
1.0
 40
1.0
 10
93.2142983168284
 20
156.9781227826227
 30
0.0
 10
93.2450205587475
 20
156.8655669832135
 30
0.0
 10
93.28785777328264
 20
156.752809123474
 30
0.0
 10
93.38728479748244
 20
156.6032682376776
 30
0.0
 10
93.42703699229911
 20
156.5559755059708
 30
0.0
 10
93.52507844915732
 20
156.4822392126493
 30
0.0
 10
93.5846345047448
 20
156.4568198932736
 30
0.0
 10
93.64731101872061
 20
156.4568198932736
 30
0.0
  0
ELLIPSE
  5
10E
330
1F
100
AcDbEntity
  8
0
  6
HIDDEN
 62
     7
370
     0
100
AcDbEllipse
 10
109.4667083945
 20
147.0687534619
 30
0.0
 11
-14.75368316065627
 21
31.09325491558116
 31
0.0
210
0.0
220
0.0
230
1.0
 40
0.3419987131
 41
0.1591422026272786
 42
1.08990356977096
  0
LINE
  5
10F
330
1F
100
AcDbEntity
  8
0
  6
HIDDEN
 62
     7
370
     0
100
AcDbLine
 10
83.1195542052
 20
122.8187534619
 30
0.0
 11
83.1195542052
 21
171.2886088015
 31
0.0
  0
SPLINE
  5
110
330
1F
100
AcDbEntity
  8
0
  6
HIDDEN
 62
     7
370
     0
100
AcDbSpline
210
0.0
220
0.0
230
1.0
 70
     8
 71
     3
 72
    12
 73
     8
 74
     0
 42
0.00000001
 43
0.00000001
 12
1.0
 22
0.0
 32
0.0
 13
1.0
 23
0.0
 33
0.0
 40
0.0
 40
0.0
 40
0.0
 40
0.0
 40
0.4999999999999993
 40
0.4999999999999993
 40
0.7499999999999997
 40
0.7499999999999997
 40
1.0
 40
1.0
 40
1.0
 40
1.0
 10
82.30304191870714
 20
162.521021443768
 30
0.0
 10
82.35944809738737
 20
162.4731990701082
 30
0.0
 10
82.4296109988591
 20
162.4329282231696
 30
0.0
 10
82.54762171224834
 20
162.4248823546926
 30
0.0
 10
82.58782749584383
 20
162.4314449530315
 30
0.0
 10
82.6615481925769
 20
162.4588270474851
 30
0.0
 10
82.6944089143634
 20
162.4785885380155
 30
0.0
 10
82.72457731629265
 20
162.5015212492035
 30
0.0
  0
SPLINE
  5
111
330
1F
100
AcDbEntity
  8
0
  6
HIDDEN
 62
     7
370
     0
100
AcDbSpline
210
0.0
220
0.0
230
1.0
 70
     8
 71
     3
 72
    16
 73
    12
 74
     0
 42
0.00000001
 43
0.00000001
 12
1.0
 22
0.0
 32
0.0
 13
1.0
 23
0.0
 33
0.0
 40
0.0
 40
0.0
 40
0.0
 40
0.0
 40
0.0624999999999966
 40
0.0624999999999966
 40
0.1249999999999931
 40
0.1249999999999931
 40
0.2499999999999925
 40
0.2499999999999925
 40
0.499999999999995
 40
0.499999999999995
 40
1.0
 40
1.0
 40
1.0
 40
1.0
 10
82.72457731624752
 20
162.5015212492516
 30
0.0
 10
82.73619021608688
 20
162.510348872233
 30
0.0
 10
82.74954140051939
 20
162.5181832541149
 30
0.0
 10
82.77894124013858
 20
162.5264933801872
 30
0.0
 10
82.79378196469379
 20
162.5259975609522
 30
0.0
 10
82.8296151726624
 20
162.5145465899828
 30
0.0
 10
82.84372838048397
 20
162.4978660891242
 30
0.0
 10
82.87821975170286
 20
162.4457454033671
 30
0.0
 10
82.88930382281326
 20
162.4059559093421
 30
0.0
 10
82.91542664060925
 20
162.2826192772451
 30
0.0
 10
82.91955420515414
 20
162.1951978667464
 30
0.0
 10
82.91955420515414
 20
162.1064606244282
 30
0.0
  0
LINE
  5
112
330
1F
100
AcDbEntity
  8
0
  6
HIDDEN
 62
     7
370
     0
100
AcDbLine
 10
82.9195542052
 20
132.0310462994
 30
0.0
 11
82.9195542052
 21
162.1064606244
 31
0.0
  0
SPLINE
  5
113
330
1F
100
AcDbEntity
  8
0
  6
HIDDEN
 62
     7
370
     0
100
AcDbSpline
210
0.0
220
0.0
230
1.0
 70
     8
 71
     3
 72
    16
 73
    12
 74
     0
 42
0.00000001
 43
0.00000001
 12
1.0
 22
0.0
 32
0.0
 13
1.0
 23
0.0
 33
0.0
 40
0.0
 40
0.0
 40
0.0
 40
0.0
 40
0.5000000000000037
 40
0.5000000000000037
 40
0.7499999999999978
 40
0.7499999999999978
 40
0.8749999999999981
 40
0.8749999999999981
 40
0.9374999999999991
 40
0.9374999999999991
 40
1.0
 40
1.0
 40
1.0
 40
1.0
 10
82.91955420515414
 20
132.031046299446
 30
0.0
 10
82.91955420515414
 20
131.9419199342573
 30
0.0
 10
82.9154079300762
 20
131.8550585666438
 30
0.0
 10
82.88944233468264
 20
131.7320763201498
 30
0.0
 10
82.8779814293052
 20
131.6913050249185
 30
0.0
 10
82.84366969153086
 20
131.6396007049188
 30
0.0
 10
82.82964495560122
 20
131.6229303383284
 30
0.0
 10
82.79362199256748
 20
131.6114781178716
 30
0.0
 10
82.77886748347775
 20
131.6110250715966
 30
0.0
 10
82.74951532233095
 20
131.6193403928127
 30
0.0
 10
82.73617544782685
 20
131.627169277891
 30
0.0
 10
82.72457731627851
 20
131.6359856746536
 30
0.0
  0
SPLINE
  5
114
330
1F
100
AcDbEntity
  8
0
  6
HIDDEN
 62
     7
370
     0
100
AcDbSpline
210
0.0
220
0.0
230
1.0
 70
     8
 71
     3
 72
    12
 73
     8
 74
     0
 42
0.00000001
 43
0.00000001
 12
1.0
 22
0.0
 32
0.0
 13
1.0
 23
0.0
 33
0.0
 40
0.0
 40
0.0
 40
0.0
 40
0.0
 40
0.2500000000000002
 40
0.2500000000000002
 40
0.5000000000000003
 40
0.5000000000000003
 40
1.0
 40
1.0
 40
1.0
 40
1.0
 10
82.72457731628558
 20
131.6359856746625
 30
0.0
 10
82.69438547456836
 20
131.6589362037603
 30
0.0
 10
82.66102650515374
 20
131.6789056777845
 30
0.0
 10
82.58788922057317
 20
131.70600681141
 30
0.0
 10
82.54764734791921
 20
131.7126075520554
 30
0.0
 10
82.42994157095067
 20
131.7046386775487
 30
0.0
 10
82.3595310931713
 20
131.6643782193808
 30
0.0
 10
82.303041918703
 20
131.6164854801027
 30
0.0
  0
SPLINE
  5
115
330
1F
100
AcDbEntity
  8
0
  6
HIDDEN
 62
     7
370
     0
100
AcDbSpline
210
0.0
220
0.0
230
1.0
 70
     8
 71
     3
 72
    12
 73
     8
 74
     0
 42
0.00000001
 43
0.00000001
 12
1.0
 22
0.0
 32
0.0
 13
1.0
 23
0.0
 33
0.0
 40
0.0
 40
0.0
 40
0.0
 40
0.0
 40
0.2500000000000034
 40
0.2500000000000034
 40
0.5000000000000041
 40
0.5000000000000041
 40
1.0
 40
1.0
 40
1.0
 40
1.0
 10
82.30304191870265
 20
131.6164854801029
 30
0.0
 10
82.2148879809649
 20
131.5417466722488
 30
0.0
 10
82.15453455633619
 20
131.4507661717664
 30
0.0
 10
82.04827259826935
 20
131.2618523490138
 30
0.0
 10
82.00604043170729
 20
131.1653478894733
 30
0.0
 10
81.89496973639012
 20
130.8745801353061
 30
0.0
 10
81.84203295996333
 20
130.6789133207624
 30
0.0
 10
81.79823386159455
 20
130.4848468356961
 30
0.0
  0
SPLINE
  5
116
330
1F
100
AcDbEntity
  8
0
  6
HIDDEN
 62
     7
370
     0
100
AcDbSpline
210
0.0
220
0.0
230
1.0
 70
     8
 71
     3
 72
    12
 73
     8
 74
     0
 42
0.00000001
 43
0.00000001
 12
1.0
 22
0.0
 32
0.0
 13
1.0
 23
0.0
 33
0.0
 40
0.0
 40
0.0
 40
0.0
 40
0.0
 40
0.5
 40
0.5
 40
0.75
 40
0.75
 40
1.0
 40
1.0
 40
1.0
 40
1.0
 10
81.79823386159454
 20
125.298672506935
 30
0.0
 10
81.84198040243112
 20
125.2720783362938
 30
0.0
 10
81.89486475766263
 20
125.2523181109681
 30
0.0
 10
82.0064318449988
 20
125.231867120739
 30
0.0
 10
82.04901544154178
 20
125.2266068960826
 30
0.0
 10
82.15393216862357
 20
125.2187241021599
 30
0.0
 10
82.21546577646836
 20
125.2161599769808
 30
0.0
 10
82.30304191869449
 20
125.2139597594611
 30
0.0
  0
LINE
  5
117
330
1F
100
AcDbEntity
  8
0
  6
HIDDEN
 62
     7
370
     0
100
AcDbLine
 10
82.9195542052
 20
124.5289331831
 30
0.0
 11
82.9195542052
 21
125.0091589737
 31
0.0
  0
LINE
  5
118
330
1F
100
AcDbEntity
  8
0
  6
HIDDEN
 62
     7
370
     0
100
AcDbLine
 10
82.9195542052
 20
169.1283479502
 30
0.0
 11
82.9195542052
 21
169.6085737408
 31
0.0
  0
SPLINE
  5
119
330
1F
100
AcDbEntity
  8
0
  6
HIDDEN
 62
     7
370
     0
100
AcDbSpline
210
0.0
220
0.0
230
1.0
 70
     8
 71
     3
 72
    12
 73
     8
 74
     0
 42
0.00000001
 43
0.00000001
 12
1.0
 22
0.0
 32
0.0
 13
1.0
 23
0.0
 33
0.0
 40
0.0
 40
0.0
 40
0.0
 40
0.0
 40
0.25
 40
0.25
 40
0.5000000000000001
 40
0.5000000000000001
 40
1.0
 40
1.0
 40
1.0
 40
1.0
 10
82.30304191870245
 20
168.923547164413
 30
0.0
 10
82.21435725884609
 20
168.921319097072
 30
0.0
 10
82.15443884312269
 20
168.9188173130417
 30
0.0
 10
82.04877961580196
 20
168.9108858772057
 30
0.0
 10
82.00613837768701
 20
168.9055937223089
 30
0.0
 10
81.89494903558449
 20
168.8851887818217
 30
0.0
 10
81.84202235346352
 20
168.8654540902348
 30
0.0
 10
81.79823386159454
 20
168.8388344169392
 30
0.0
  0
SPLINE
  5
11A
330
1F
100
AcDbEntity
  8
0
  6
HIDDEN
 62
     7
370
     0
100
AcDbSpline
210
0.0
220
0.0
230
1.0
 70
     8
 71
     3
 72
    12
 73
     8
 74
     0
 42
0.00000001
 43
0.00000001
 12
1.0
 22
0.0
 32
0.0
 13
1.0
 23
0.0
 33
0.0
 40
0.0
 40
0.0
 40
0.0
 40
0.0
 40
0.500000000000001
 40
0.500000000000001
 40
0.7500000000000004
 40
0.7500000000000004
 40
1.0
 40
1.0
 40
1.0
 40
1.0
 10
81.79823386159296
 20
163.6526600881783
 30
0.0
 10
81.8419953378917
 20
163.4587603002163
 30
0.0
 10
81.89490165354474
 20
163.2629039362794
 30
0.0
 10
82.00661285119212
 20
162.9707617897805
 30
0.0
 10
82.04913229477849
 20
162.8740438530825
 30
0.0
 10
82.15425563734588
 20
162.6873194166581
 30
0.0
 10
82.21582160106355
 20
162.5949687083884
 30
0.0
 10
82.30304191870628
 20
162.5210214437687
 30
0.0
  0
LINE
  5
11B
330
1F
100
AcDbEntity
  8
0
  6
HIDDEN
 62
     7
370
     0
100
AcDbLine
 10
105.1195542052
 20
171.06129383
 30
0.0
 11
105.1195542052
 21
123.0762130939
 31
0.0
  0
LINE
  5
11C
330
1F
100
AcDbEntity
  8
0
  6
HIDDEN
 62
     7
370
     0
100
AcDbLine
 10
82.9195542052
 20
125.0091589737
 30
0.0
 11
82.9195542052
 21
140.0468661362
 31
0.0
  0
LINE
  5
11D
330
1F
100
AcDbEntity
  8
0
  6
HIDDEN
 62
     7
370
     0
100
AcDbLine
 10
82.9195542052
 20
154.0906407877
 30
0.0
 11
82.9195542052
 21
169.1283479502
 31
0.0
  0
LINE
  5
11E
330
1F
100
AcDbEntity
  8
0
  6
HIDDEN
 62
     7
370
     0
100
AcDbLine
 10
237.1195542052
 20
167.0687534619
 30
0.0
 11
237.1195542052
 21
127.0687534619
 31
0.0
  0
SPLINE
  5
11F
330
1F
100
AcDbEntity
  8
0
  6
HIDDEN
 62
     7
370
     0
100
AcDbSpline
210
0.0
220
0.0
230
1.0
 70
     8
 71
     3
 72
    70
 73
    66
 74
     0
 42
0.00000001
 43
0.00000001
 12
1.0
 22
0.0
 32
0.0
 13
1.0
 23
0.0
 33
0.0
 40
-0.03125
 40
-0.03125
 40
0.0
 40
0.0
 40
0.03125
 40
0.03125
 40
0.0625
 40
0.0625
 40
0.09375
 40
0.09375
 40
0.125
 40
0.125
 40
0.15625
 40
0.15625
 40
0.1875
 40
0.1875
 40
0.21875
 40
0.21875
 40
0.25
 40
0.25
 40
0.28125
 40
0.28125
 40
0.3125
 40
0.3125
 40
0.34375
 40
0.34375
 40
0.375
 40
0.375
 40
0.40625
 40
0.40625
 40
0.4375
 40
0.4375
 40
0.46875
 40
0.46875
 40
0.5
 40
0.5
 40
0.53125
 40
0.53125
 40
0.5625
 40
0.5625
 40
0.59375
 40
0.59375
 40
0.625
 40
0.625
 40
0.65625
 40
0.65625
 40
0.6875
 40
0.6875
 40
0.71875
 40
0.71875
 40
0.75
 40
0.75
 40
0.78125
 40
0.78125
 40
0.8125
 40
0.8125
 40
0.84375
 40
0.84375
 40
0.875
 40
0.875
 40
0.90625
 40
0.90625
 40
0.9375
 40
0.9375
 40
0.96875
 40
0.96875
 40
1.0
 40
1.0
 40
1.03125
 40
1.03125
 10
222.1195542051542
 20
146.8702593101489
 30
0.0
 10
222.1195542051542
 20
147.2672476137253
 30
0.0
 10
222.1000489154917
 20
147.4623693165122
 30
0.0
 10
222.0236754717648
 20
147.8461605805969
 30
0.0
 10
221.9658600877642
 20
148.0368400523003
 30
0.0
 10
221.8151818949267
 20
148.4000085772146
 30
0.0
 10
221.7230170008493
 20
148.5722098659567
 30
0.0
 10
221.5053198767856
 20
148.8981035780769
 30
0.0
 10
221.3787951112057
 20
149.0521865280329
 30
0.0
 10
221.1024424196031
 20
149.3284725879035
 30
0.0
 10
220.9516018022193
 20
149.4525514921459
 30
0.0
 10
220.6237803426841
 20
149.6718660553359
 30
0.0
 10
220.4495968461878
 20
149.7648882197618
 30
0.0
 10
220.0887480679749
 20
149.9145959234217
 30
0.0
 10
219.8994076984688
 20
149.9723428363388
 30
0.0
 10
219.512038547598
 20
150.0495182576078
 30
0.0
 10
219.3172073229706
 20
150.0686419154614
 30
0.0
 10
218.9253018433672
 20
150.0688640446509
 30
0.0
 10
218.7262208960875
 20
150.0493250700684
 30
0.0
 10
218.3412561636245
 20
149.9726767325783
 30
0.0
 10
218.154117514517
 20
149.9159685178834
 30
0.0
 10
217.7905675683959
 20
149.7655100504623
 30
0.0
 10
217.615297722004
 20
149.67170312645
 30
0.0
 10
217.2905508804119
 20
149.4547294385908
 30
0.0
 10
217.1387824596779
 20
149.3305276293509
 30
0.0
 10
216.8591200915384
 20
149.0510543245863
 30
0.0
 10
216.7351906656612
 20
148.8998593567137
 30
0.0
 10
216.517921162115
 20
148.5752871640881
 30
0.0
 10
216.4238235881268
 20
148.399784941965
 30
0.0
 10
216.2732416025572
 20
148.0367993950942
 30
0.0
 10
216.2163694484208
 20
147.8498115618085
 30
0.0
 10
216.1393449903779
 20
147.4648424964568
 30
0.0
 10
216.1196297364658
 20
147.2658241298279
 30
0.0
 10
216.1194791171206
 20
146.8739891630028
 30
0.0
 10
216.1384100375996
 20
146.6790726360372
 30
0.0
 10
216.2153112636751
 20
146.2912930895141
 30
0.0
 10
216.2728050862928
 20
146.1022059777922
 30
0.0
 10
216.422264169076
 20
145.7410407497443
 30
0.0
 10
216.5154841869875
 20
145.5662242509266
 30
0.0
 10
216.7342249310989
 20
145.2387318927229
 30
0.0
 10
216.8581119028331
 20
145.0878153263802
 30
0.0
 10
217.1343933771322
 20
144.8110170578105
 30
0.0
 10
217.2884916305374
 20
144.6843211110208
 30
0.0
 10
217.6138211394224
 20
144.4666243869255
 30
0.0
 10
217.7858974164829
 20
144.3743007273479
 30
0.0
 10
218.1492555754492
 20
144.2231890999701
 30
0.0
 10
218.3395950932007
 20
144.1653219351257
 30
0.0
 10
218.7231600535277
 20
144.0886322355844
 30
0.0
 10
218.9187156767753
 20
144.0689226548953
 30
0.0
 10
219.3153059292808
 20
144.0685864252773
 30
0.0
 10
219.510381814605
 20
144.0878882303381
 30
0.0
 10
219.8943512010975
 20
144.1639310294394
 30
0.0
 10
220.0852725711788
 20
144.2216527222575
 30
0.0
 10
220.448318040262
 20
144.3719069229455
 30
0.0
 10
220.6206161946226
 20
144.4638985203901
 30
0.0
 10
220.9469404443555
 20
144.6814713471659
 30
0.0
 10
221.1010144486592
 20
144.8077881763887
 30
0.0
 10
221.3774481609248
 20
145.0837941163734
 30
0.0
 10
221.5017284742973
 20
145.2345695481489
 30
0.0
 10
221.7215733899191
 20
145.5626057134468
 30
0.0
 10
221.8144918104922
 20
145.7362845192941
 30
0.0
 10
221.9645343564522
 20
146.0970281311498
 30
0.0
 10
222.0225008746629
 20
146.2864670638527
 30
0.0
 10
222.1000463061878
 20
146.6741166538277
 30
0.0
 10
222.1195542051542
 20
146.8702593101489
 30
0.0
 10
222.1195542051542
 20
147.2672476137253
 30
0.0
  0
CIRCLE
  5
120
330
1F
100
AcDbEntity
  8
0
  6
HIDDEN
 62
     7
370
     0
100
AcDbCircle
 10
219.1195542052
 20
147.0687534619
 30
0.0
 40
2.5
  0
LWPOLYLINE
  5
121
330
1F
100
AcDbEntity
  8
0
  6
HIDDEN
 62
     7
370
     0
100
AcDbPolyline
 90
        9
 70
   128
 43
0.0
 10
217.5175654965
 20
148.9880325394
 10
217.5235610779
 20
149.0817181579
 10
217.541801471
 20
149.1588276485
 10
217.5721302618
 20
149.2186997875
 10
217.6142873771
 20
149.2608211633
 10
217.667911314
 20
149.2848305796
 10
217.7325422403
 20
149.2905221525
 10
217.8076259373
 20
149.2778470761
 10
217.8925185526
 20
149.2469140408
  0
SPLINE
  5
122
330
1F
100
AcDbEntity
  8
0
  6
HIDDEN
 62
     7
370
     0
100
AcDbSpline
210
0.0
220
0.0
230
1.0
 70
     8
 71
     3
 72
    78
 73
    74
 74
     0
 42
0.00000001
 43
0.00000001
 12
1.0
 22
0.0
 32
0.0
 13
1.0
 23
0.0
 33
0.0
 40
0.0
 40
0.0
 40
0.0
 40
0.0
 40
0.0156249999999993
 40
0.0156249999999993
 40
0.0312499999999986
 40
0.0312499999999986
 40
0.046874999999998
 40
0.046874999999998
 40
0.0624999999999973
 40
0.0624999999999973
 40
0.0937499999999993
 40
0.0937499999999993
 40
0.1250000000000013
 40
0.1250000000000013
 40
0.1562500000000033
 40
0.1562500000000033
 40
0.1875000000000053
 40
0.1875000000000053
 40
0.2500000000000057
 40
0.2500000000000057
 40
0.2812500000000058
 40
0.2812500000000058
 40
0.3125000000000059
 40
0.3125000000000059
 40
0.3437500000000061
 40
0.3437500000000061
 40
0.3750000000000062
 40
0.3750000000000062
 40
0.4062500000000063
 40
0.4062500000000063
 40
0.4375000000000065
 40
0.4375000000000065
 40
0.4687500000000066
 40
0.4687500000000066
 40
0.5000000000000068
 40
0.5000000000000068
 40
0.531250000000007
 40
0.531250000000007
 40
0.5468750000000071
 40
0.5468750000000071
 40
0.5625000000000071
 40
0.5625000000000071
 40
0.5781250000000072
 40
0.5781250000000072
 40
0.5937500000000075
 40
0.5937500000000075
 40
0.6250000000000067
 40
0.6250000000000067
 40
0.6562500000000058
 40
0.6562500000000058
 40
0.6875000000000048
 40
0.6875000000000048
 40
0.7187500000000039
 40
0.7187500000000039
 40
0.750000000000003
 40
0.750000000000003
 40
0.7812500000000022
 40
0.7812500000000022
 40
0.8125000000000013
 40
0.8125000000000013
 40
0.8437500000000004
 40
0.8437500000000004
 40
0.8749999999999996
 40
0.8749999999999996
 40
0.9062499999999987
 40
0.9062499999999987
 40
0.9374999999999977
 40
0.9374999999999977
 40
0.9687499999999968
 40
0.9687499999999968
 40
0.9843749999999984
 40
0.9843749999999984
 40
1.0
 40
1.0
 40
1.0
 40
1.0
 10
217.5175654964629
 20
148.9880325394103
 30
0.0
 10
217.5883024108367
 20
149.0470754057889
 30
0.0
 10
217.6613864547417
 20
149.1014563635567
 30
0.0
 10
217.8116503792645
 20
149.20124539787
 30
0.0
 10
217.8872361226412
 20
149.2455059449215
 30
0.0
 10
218.0340036435279
 20
149.3222927242576
 30
0.0
 10
218.1061440738546
 20
149.3553774272694
 30
0.0
 10
218.2453431515235
 20
149.4121280130412
 30
0.0
 10
218.3132198639185
 20
149.4361961546122
 30
0.0
 10
218.5150578746503
 20
149.4986555336745
 30
0.0
 10
218.648149339268
 20
149.527553342116
 30
0.0
 10
218.9134065176574
 20
149.5638331258534
 30
0.0
 10
219.0454516538183
 20
149.5712188540294
 30
0.0
 10
219.3123911630449
 20
149.5648780851091
 30
0.0
 10
219.4471994550131
 20
149.5511402592521
 30
0.0
 10
219.7222787302705
 20
149.4990453719887
 30
0.0
 10
219.8635873863311
 20
149.4601931238304
 30
0.0
 10
220.2851239558798
 20
149.3007308992938
 30
0.0
 10
220.5718533994551
 20
149.1345851031666
 30
0.0
 10
220.9611757953299
 20
148.7687941227793
 30
0.0
 10
221.0798774865491
 20
148.6311580654335
 30
0.0
 10
221.2878256354733
 20
148.3267576420048
 30
0.0
 10
221.3722094798095
 20
148.1673017836285
 30
0.0
 10
221.5044049031075
 20
147.8393060883001
 30
0.0
 10
221.5495091449138
 20
147.677952257162
 30
0.0
 10
221.607492586919
 20
147.3619543997047
 30
0.0
 10
221.6195043020939
 20
147.2125352513096
 30
0.0
 10
221.6196038052306
 20
146.9267123154277
 30
0.0
 10
221.6072755532993
 20
146.789553374432
 30
0.0
 10
221.565212224959
 20
146.5344623006361
 30
0.0
 10
221.5355345286432
 20
146.4155310695258
 30
0.0
 10
221.4640519589337
 20
146.1929734096661
 30
0.0
 10
221.4220989275699
 20
146.089245989214
 30
0.0
 10
221.3313145717173
 20
145.8985982719109
 30
0.0
 10
221.2827621778076
 20
145.8125564048397
 30
0.0
 10
221.1906505581612
 20
145.6658779593452
 30
0.0
 10
221.1465256169519
 20
145.6048503670416
 30
0.0
 10
221.1103331449082
 20
145.5564024587291
 30
0.0
 10
221.1039849553559
 20
145.5482113193557
 30
0.0
 10
221.1084966165441
 20
145.5541175671139
 30
0.0
 10
221.119730588283
 20
145.568679949982
 30
0.0
 10
221.155652661676
 20
145.6178126705039
 30
0.0
 10
221.1803680205812
 20
145.6526195257279
 30
0.0
 10
221.234144553127
 20
145.7342510949861
 30
0.0
 10
221.2632764345215
 20
145.7811389383338
 30
0.0
 10
221.3509912464621
 20
145.9353191396265
 30
0.0
 10
221.4092224592901
 20
146.0555985888351
 30
0.0
 10
221.5068664927474
 20
146.3139001302264
 30
0.0
 10
221.5473690818775
 20
146.4532766757498
 30
0.0
 10
221.6040459844852
 20
146.7518980557792
 30
0.0
 10
221.619553179283
 20
146.9084983401125
 30
0.0
 10
221.6195552309227
 20
147.2289765747278
 30
0.0
 10
221.6043488768316
 20
147.3940647288094
 30
0.0
 10
221.535698819232
 20
147.733792697331
 30
0.0
 10
221.4837131938548
 20
147.9011277080673
 30
0.0
 10
221.3408704808968
 20
148.229722286926
 30
0.0
 10
221.2497287291697
 20
148.389800489741
 30
0.0
 10
221.0370538972893
 20
148.6830656012385
 30
0.0
 10
220.9123881203994
 20
148.820349758388
 30
0.0
 10
220.6432175968399
 20
149.0589275503603
 30
0.0
 10
220.4965488765018
 20
149.1627152586932
 30
0.0
 10
220.1905441012843
 20
149.3345361023466
 30
0.0
 10
220.0329566740962
 20
149.4021224178629
 30
0.0
 10
219.708586692606
 20
149.5043140716272
 30
0.0
 10
219.5447605990752
 20
149.5378339001013
 30
0.0
 10
219.2169681570492
 20
149.5722848097601
 30
0.0
 10
219.0509840569512
 20
149.5732873103017
 30
0.0
 10
218.7214206298934
 20
149.5423907269941
 30
0.0
 10
218.5574556359331
 20
149.5110421257629
 30
0.0
 10
218.3059633469969
 20
149.4342876712154
 30
0.0
 10
218.2227128211204
 20
149.4041069177962
 30
0.0
 10
218.0561022066427
 20
149.3331010674895
 30
0.0
 10
217.9724734808038
 20
149.2919555076612
 30
0.0
 10
217.8925185525641
 20
149.246914040791
 30
0.0
  0
CIRCLE
  5
123
330
1F
100
AcDbEntity
  8
0
  6
HIDDEN
 62
     7
370
     0
100
AcDbCircle
 10
67.6195542052
 20
147.0687534619
 30
0.0
 40
4.050000000000011
  0
SPLINE
  5
124
330
1F
100
AcDbEntity
  8
0
  6
HIDDEN
 62
     7
370
     0
100
AcDbSpline
210
0.0
220
0.0
230
1.0
 70
     8
 71
     3
 72
    10
 73
     6
 74
     0
 42
0.00000001
 43
0.00000001
 12
1.0
 22
0.0
 32
0.0
 13
1.0
 23
0.0
 33
0.0
 40
0.0
 40
0.0
 40
0.0
 40
0.0
 40
0.5
 40
0.5
 40
1.0
 40
1.0
 40
1.0
 40
1.0
 10
217.892518552564
 20
149.2469140407909
 30
0.0
 10
217.795418192933
 20
149.1922139400255
 30
0.0
 10
217.7150293260245
 20
149.1383408574445
 30
0.0
 10
217.5908083319421
 20
149.0483539718568
 30
0.0
 10
217.5470548642211
 20
149.0126467993838
 30
0.0
 10
217.5175654964627
 20
148.98803253941
 30
0.0
  0
LINE
  5
125
330
1F
100
AcDbEntity
  8
0
  6
HIDDEN
 62
     7
370
     0
100
AcDbLine
 10
46.6497826448
 20
162.3817045048
 30
0.0
 11
46.6497826448
 21
131.755802419
 31
0.0
  0
LINE
  5
126
330
1F
100
AcDbEntity
  8
0
  6
HIDDEN
 62
     7
370
     0
100
AcDbLine
 10
45.1195542052
 20
130.8723246175
 30
0.0
 11
45.1195542052
 21
163.2344630052
 31
0.0
  0
LINE
  5
127
330
1F
100
AcDbEntity
  8
0
  6
HIDDEN
 62
     7
370
     0
100
AcDbLine
 10
53.1497826448
 20
161.4151636235
 30
0.0
 11
53.1497826448
 21
132.7223433004
 31
0.0
  0
LINE
  5
128
330
1F
100
AcDbEntity
  8
0
  6
HIDDEN
 62
     7
370
     0
100
AcDbLine
 10
58.9497826448
 20
161.0687534619
 30
0.0
 11
58.9497826448
 21
133.0687534619
 31
0.0
  0
LINE
  5
129
330
1F
100
AcDbEntity
  8
0
  6
HIDDEN
 62
     7
370
     0
100
AcDbLine
 10
51.5497826448
 20
161.0687534619
 30
0.0
 11
51.5497826448
 21
133.0687534619
 31
0.0
  0
LINE
  5
12A
330
1F
100
AcDbEntity
  8
0
  6
HIDDEN
 62
     7
370
     0
100
AcDbLine
 10
52.5497826448
 20
161.0687534619
 30
0.0
 11
52.5497826448
 21
133.0687534619
 31
0.0
  0
SPLINE
  5
12B
330
1F
100
AcDbEntity
  8
0
  6
HIDDEN
 62
     7
370
     0
100
AcDbSpline
210
0.0
220
0.0
230
1.0
 70
     8
 71
     3
 72
    10
 73
     6
 74
     0
 42
0.00000001
 43
0.00000001
 12
1.0
 22
0.0
 32
0.0
 13
1.0
 23
0.0
 33
0.0
 40
0.0
 40
0.0
 40
0.0
 40
0.0
 40
0.5
 40
0.5
 40
1.0
 40
1.0
 40
1.0
 40
1.0
 10
71.61955420515412
 20
147.7031823389594
 30
0.0
 10
71.65270162323056
 20
147.4941917379515
 30
0.0
 10
71.66956046859218
 20
147.2826292719299
 30
0.0
 10
71.6695479382445
 20
146.8546405059623
 30
0.0
 10
71.65263298050414
 20
146.6428824015468
 30
0.0
 10
71.61955420515412
 20
146.4343245849147
 30
0.0
  0
LINE
  5
12C
330
1F
100
AcDbEntity
  8
0
  6
HIDDEN
 62
     7
370
     0
100
AcDbLine
 10
72.1195542052
 20
160.5687533163
 30
0.0
 11
72.1195542052
 21
133.5687534619
 31
0.0
  0
SPLINE
  5
12D
330
1F
100
AcDbEntity
  8
0
  6
HIDDEN
 62
     7
370
     0
100
AcDbSpline
210
0.0
220
0.0
230
1.0
 70
     8
 71
     3
 72
    10
 73
     6
 74
     0
 42
0.00000001
 43
0.00000001
 12
1.0
 22
0.0
 32
0.0
 13
1.0
 23
0.0
 33
0.0
 40
0.0
 40
0.0
 40
0.0
 40
0.0
 40
0.5
 40
0.5
 40
1.0
 40
1.0
 40
1.0
 40
1.0
 10
71.61955420515412
 20
146.4343245849147
 30
0.0
 10
71.65274316762782
 20
146.6435771184972
 30
0.0
 10
71.66944394388246
 20
146.854393879396
 30
0.0
 10
71.66966338432711
 20
147.2789261605993
 30
0.0
 10
71.65278366893371
 20
147.4936744493718
 30
0.0
 10
71.61955420515412
 20
147.7031823389594
 30
0.0
  0
SPLINE
  5
12E
330
1F
100
AcDbEntity
  8
0
  6
HIDDEN
 62
     7
370
     0
100
AcDbSpline
210
0.0
220
0.0
230
1.0
 70
     8
 71
     3
 72
    66
 73
    62
 74
     0
 42
0.00000001
 43
0.00000001
 12
1.0
 22
0.0
 32
0.0
 13
1.0
 23
0.0
 33
0.0
 40
0.0
 40
0.0
 40
0.0
 40
0.0
 40
0.0312500000000001
 40
0.0312500000000001
 40
0.0625000000000002
 40
0.0625000000000002
 40
0.0937500000000004
 40
0.0937500000000004
 40
0.1250000000000005
 40
0.1250000000000005
 40
0.1562500000000006
 40
0.1562500000000006
 40
0.1875000000000007
 40
0.1875000000000007
 40
0.2187500000000009
 40
0.2187500000000009
 40
0.250000000000001
 40
0.250000000000001
 40
0.2812500000000011
 40
0.2812500000000011
 40
0.3125000000000012
 40
0.3125000000000012
 40
0.3437500000000014
 40
0.3437500000000014
 40
0.3750000000000015
 40
0.3750000000000015
 40
0.4375000000000014
 40
0.4375000000000014
 40
0.4687500000000014
 40
0.4687500000000014
 40
0.5000000000000013
 40
0.5000000000000013
 40
0.5312500000000013
 40
0.5312500000000013
 40
0.5625000000000012
 40
0.5625000000000012
 40
0.5937500000000011
 40
0.5937500000000011
 40
0.625000000000001
 40
0.625000000000001
 40
0.687500000000001
 40
0.687500000000001
 40
0.7187500000000009
 40
0.7187500000000009
 40
0.7500000000000008
 40
0.7500000000000008
 40
0.7812500000000007
 40
0.7812500000000007
 40
0.8125000000000006
 40
0.8125000000000006
 40
0.8437500000000004
 40
0.8437500000000004
 40
0.8750000000000003
 40
0.8750000000000003
 40
0.9062500000000003
 40
0.9062500000000003
 40
0.9375000000000002
 40
0.9375000000000002
 40
0.9687500000000001
 40
0.9687500000000001
 40
1.0
 40
1.0
 40
1.0
 40
1.0
 10
71.61955420515413
 20
146.4343245849147
 30
0.0
 10
71.57988404398786
 20
146.1842088502561
 30
0.0
 10
71.51740783614446
 20
145.9405880672536
 30
0.0
 10
71.34746471478547
 20
145.4660359826021
 30
0.0
 10
71.23899653646275
 20
145.2343868452194
 30
0.0
 10
70.98532561016349
 20
144.8022922283356
 30
0.0
 10
70.83945678869895
 20
144.5993165340964
 30
0.0
 10
70.50881136761386
 20
144.2195282273729
 30
0.0
 10
70.32595526120275
 20
144.0454917602017
 30
0.0
 10
69.93450906544729
 20
143.7362315958173
 30
0.0
 10
69.72436152039094
 20
143.5993812817167
 30
0.0
 10
69.27533254690441
 20
143.3640057995244
 30
0.0
 10
69.04303280977355
 20
143.2688627683964
 30
0.0
 10
68.56309920997793
 20
143.1222127685527
 30
0.0
 10
68.31304274776006
 20
143.0704870635236
 30
0.0
 10
67.80788780443278
 20
143.0151635706443
 30
0.0
 10
67.55583769774721
 20
143.0114027328075
 30
0.0
 10
67.05277090530592
 20
143.0506803636102
 30
0.0
 10
66.79926341451619
 20
143.0946743943032
 30
0.0
 10
66.3122810962519
 20
143.2272409426613
 30
0.0
 10
66.07730274334583
 20
143.3154311538962
 30
0.0
 10
65.62404437326214
 20
143.5354959804748
 30
0.0
 10
65.40655989106843
 20
143.6676404189008
 30
0.0
 10
65.00532740311942
 20
143.9654113935839
 30
0.0
 10
64.81917206365722
 20
144.1320805033403
 30
0.0
 10
64.3048160703854
 20
144.6876268557727
 30
0.0
 10
64.03626490061015
 20
145.1143342719514
 30
0.0
 10
63.75780278518376
 20
145.8222864054459
 30
0.0
 10
63.68813422530528
 20
146.0638953103716
 30
0.0
 10
63.59399207072546
 20
146.5582121173074
 30
0.0
 10
63.56963272827262
 20
146.8138170999476
 30
0.0
 10
63.56947606815299
 20
147.32118880367
 30
0.0
 10
63.59302546204572
 20
147.5720527867125
 30
0.0
 10
63.68670845452672
 20
148.0682374443848
 30
0.0
 10
63.75789529063574
 20
148.3150849732613
 30
0.0
 10
63.94175991002896
 20
148.7832740745118
 30
0.0
 10
64.05458358055101
 20
149.0070573269694
 30
0.0
 10
64.3224394728218
 20
149.4341438883402
 30
0.0
 10
64.47649925071616
 20
149.6350662643443
 30
0.0
 10
64.9846729033678
 20
150.1846680806584
 30
0.0
 10
65.39650369071096
 20
150.4908722795055
 30
0.0
 10
66.07127042627533
 20
150.8194740644202
 30
0.0
 10
66.30914413366489
 20
150.9092877579218
 30
0.0
 10
66.79872072844381
 20
151.0428081467151
 30
0.0
 10
67.04733799930548
 20
151.0861161005244
 30
0.0
 10
67.55225055233238
 20
151.1261053291615
 30
0.0
 10
67.80978749296243
 20
151.1221395432586
 30
0.0
 10
68.31127761274615
 20
151.0672089331698
 30
0.0
 10
68.55786253407503
 20
151.0167018699125
 30
0.0
 10
69.04267594841647
 20
150.868943411928
 30
0.0
 10
69.27771149307927
 20
150.7722189418165
 30
0.0
 10
69.72109061389037
 20
150.5398753086768
 30
0.0
 10
69.93227377492771
 20
150.4030498337076
 30
0.0
 10
70.32835903776261
 20
150.0901075428175
 30
0.0
 10
70.50896146594833
 20
149.9176297008508
 30
0.0
 10
70.83684388767217
 20
149.5413669056724
 30
0.0
 10
70.98536567544731
 20
149.3352770519039
 30
0.0
 10
71.24003610312418
 20
148.9012181584332
 30
0.0
 10
71.34610082723772
 20
148.6745176516518
 30
0.0
 10
71.51599873514375
 20
148.2016031360981
 30
0.0
 10
71.57998570359018
 20
147.9526571216941
 30
0.0
 10
71.61955420515412
 20
147.7031823389594
 30
0.0
  0
SPLINE
  5
12F
330
1F
100
AcDbEntity
  8
0
  6
HIDDEN
 62
     7
370
     0
100
AcDbSpline
210
0.0
220
0.0
230
1.0
 70
     8
 71
     3
 72
    70
 73
    66
 74
     0
 42
0.00000001
 43
0.00000001
 12
1.0
 22
0.0
 32
0.0
 13
1.0
 23
0.0
 33
0.0
 40
0.0
 40
0.0
 40
0.0
 40
0.0
 40
0.0312500000000001
 40
0.0312500000000001
 40
0.0625000000000002
 40
0.0625000000000002
 40
0.0937500000000002
 40
0.0937500000000002
 40
0.1250000000000002
 40
0.1250000000000002
 40
0.1562500000000002
 40
0.1562500000000002
 40
0.1875000000000003
 40
0.1875000000000003
 40
0.2187500000000003
 40
0.2187500000000003
 40
0.2500000000000003
 40
0.2500000000000003
 40
0.2812500000000003
 40
0.2812500000000003
 40
0.3125000000000004
 40
0.3125000000000004
 40
0.3437500000000004
 40
0.3437500000000004
 40
0.3750000000000004
 40
0.3750000000000004
 40
0.4062500000000004
 40
0.4062500000000004
 40
0.4375000000000005
 40
0.4375000000000005
 40
0.4687500000000005
 40
0.4687500000000005
 40
0.5000000000000006
 40
0.5000000000000006
 40
0.5312500000000006
 40
0.5312500000000006
 40
0.5625000000000004
 40
0.5625000000000004
 40
0.5937500000000004
 40
0.5937500000000004
 40
0.6250000000000004
 40
0.6250000000000004
 40
0.6562500000000004
 40
0.6562500000000004
 40
0.6875000000000003
 40
0.6875000000000003
 40
0.7187500000000003
 40
0.7187500000000003
 40
0.7500000000000003
 40
0.7500000000000003
 40
0.7812500000000003
 40
0.7812500000000003
 40
0.8125000000000002
 40
0.8125000000000002
 40
0.8437500000000002
 40
0.8437500000000002
 40
0.8750000000000002
 40
0.8750000000000002
 40
0.9062500000000002
 40
0.9062500000000002
 40
0.9375000000000001
 40
0.9375000000000001
 40
0.9687500000000001
 40
0.9687500000000001
 40
1.0
 40
1.0
 40
1.0
 40
1.0
 10
71.61955420515412
 20
147.7031823389594
 30
0.0
 10
71.58006506479583
 20
147.9521567585579
 30
0.0
 10
71.51627267894607
 20
148.2008797147368
 30
0.0
 10
71.34568325695672
 20
148.6756408274928
 30
0.0
 10
71.23931937300307
 20
148.9026002942271
 30
0.0
 10
70.98475384436203
 20
149.336158468315
 30
0.0
 10
70.83585348548141
 20
149.5426791654506
 30
0.0
 10
70.50748242773211
 20
149.9191499305667
 30
0.0
 10
70.32682150290535
 20
150.0914501670921
 30
0.0
 10
69.93127270491063
 20
150.4037121079643
 30
0.0
 10
69.71921213962429
 20
150.5409921951992
 30
0.0
 10
69.27620840698025
 20
150.7728730763827
 30
0.0
 10
69.04354736441714
 20
150.8686985844702
 30
0.0
 10
68.55638656144731
 20
151.0171309246543
 30
0.0
 10
68.30894419811918
 20
151.0676430729148
 30
0.0
 10
67.80643401986771
 20
151.1223262832934
 30
0.0
 10
67.54879018795198
 20
151.1260233219087
 30
0.0
 10
67.04464757446672
 20
151.0857086059182
 30
0.0
 10
66.79677081171656
 20
151.0423358811628
 30
0.0
 10
66.30931447506684
 20
150.9092744688575
 30
0.0
 10
66.06995573727717
 20
150.8189605445841
 30
0.0
 10
65.6194183535305
 20
150.5993008910807
 30
0.0
 10
65.40549502396377
 20
150.4693615008775
 30
0.0
 10
65.00044649508733
 20
150.1681837152882
 30
0.0
 10
64.81363765066213
 20
149.9998841219438
 30
0.0
 10
64.47521675047146
 20
149.6334828098183
 30
0.0
 10
64.3218685183823
 20
149.4333958247684
 30
0.0
 10
64.05368117077867
 20
149.005455270567
 30
0.0
 10
63.94109540518102
 20
148.7817349263858
 30
0.0
 10
63.7578986329741
 20
148.3149399979322
 30
0.0
 10
63.68686048408946
 20
148.0690459503072
 30
0.0
 10
63.59286980768626
 20
147.5712250822103
 30
0.0
 10
63.56950470109719
 20
147.3204960074001
 30
0.0
 10
63.56960386532889
 20
146.8154205989733
 30
0.0
 10
63.59385652951416
 20
146.5588720679496
 30
0.0
 10
63.68832790330078
 20
146.0629301299328
 30
0.0
 10
63.75815158765489
 20
145.8213849716732
 30
0.0
 10
63.94315832547627
 20
145.3510597579198
 30
0.0
 10
64.05822569809496
 20
145.1240179280184
 30
0.0
 10
64.32457510099472
 20
144.7005960061856
 30
0.0
 10
64.47676167831159
 20
144.5017973343136
 30
0.0
 10
64.82037274555528
 20
144.130898498846
 30
0.0
 10
65.00667373342367
 20
143.9643010600119
 30
0.0
 10
65.4075475596532
 20
143.6670192460365
 30
0.0
 10
65.62416431287666
 20
143.5353919517239
 30
0.0
 10
66.07837356272587
 20
143.3149571686543
 30
0.0
 10
66.31318920531129
 20
143.2269966003439
 30
0.0
 10
66.79826940500284
 20
143.0949421209883
 30
0.0
 10
67.0515189482456
 20
143.0508017540813
 30
0.0
 10
67.55633841249046
 20
143.0113400317688
 30
0.0
 10
67.80822598481825
 20
143.0152557694187
 30
0.0
 10
68.3109615108798
 20
143.0702041598423
 30
0.0
 10
68.56282354698125
 20
143.1220993694746
 30
0.0
 10
69.0441678054187
 20
143.269238799941
 30
0.0
 10
69.27641377840474
 20
143.3645402826463
 30
0.0
 10
69.72409266638826
 20
143.5992726955557
 30
0.0
 10
69.93577886776069
 20
143.7371001200511
 30
0.0
 10
70.3273850093687
 20
144.0467569341573
 30
0.0
 10
70.50966001573077
 20
144.2203554637573
 30
0.0
 10
70.84065751566239
 20
144.600844181717
 30
0.0
 10
70.98635259053577
 20
144.8038718290031
 30
0.0
 10
71.23938234184449
 20
145.2352146868262
 30
0.0
 10
71.34755196173514
 20
145.4661437804299
 30
0.0
 10
71.51781621060094
 20
145.9418646470031
 30
0.0
 10
71.58005693407564
 20
146.1852989020746
 30
0.0
 10
71.61955420515415
 20
146.4343245849147
 30
0.0
  0
LINE
  5
130
330
1F
100
AcDbEntity
  8
0
  6
HIDDEN
 62
     7
370
     0
100
AcDbLine
 10
237.6195542052
 20
126.5687534619
 30
0.0
 11
237.6195542052
 21
147.0687534619
 31
0.0
  0
SPLINE
  5
131
330
1F
100
AcDbEntity
  8
0
  6
HIDDEN
 62
     7
370
     0
100
AcDbSpline
210
0.0
220
0.0
230
1.0
 70
     8
 71
     3
 72
    12
 73
     8
 74
     0
 42
0.00000001
 43
0.00000001
 12
1.0
 22
0.0
 32
0.0
 13
1.0
 23
0.0
 33
0.0
 40
0.0
 40
0.0
 40
0.0
 40
0.0
 40
0.2500000000000004
 40
0.2500000000000004
 40
0.5000000000000008
 40
0.5000000000000008
 40
1.0
 40
1.0
 40
1.0
 40
1.0
 10
238.7817332275886
 20
154.0687534619371
 30
0.0
 10
238.5991294756266
 20
153.5036684383413
 30
0.0
 10
238.4332767472286
 20
152.9285716424604
 30
0.0
 10
238.1450939346627
 20
151.7736468109302
 30
0.0
 10
238.0224485049199
 20
151.1932712993158
 30
0.0
 10
237.724473900638
 20
149.4426415789377
 30
0.0
 10
237.6195542051542
 20
148.2628233589102
 30
0.0
 10
237.6195542051542
 20
147.0687534619371
 30
0.0
  0
SPLINE
  5
132
330
1F
100
AcDbEntity
  8
0
  6
HIDDEN
 62
     7
370
     0
100
AcDbSpline
210
0.0
220
0.0
230
1.0
 70
     8
 71
     3
 72
    14
 73
    10
 74
     0
 42
0.00000001
 43
0.00000001
 12
1.0
 22
0.0
 32
0.0
 13
1.0
 23
0.0
 33
0.0
 40
0.0
 40
0.0
 40
0.0
 40
0.0
 40
0.4999999999999971
 40
0.4999999999999971
 40
0.6249999999999973
 40
0.6249999999999973
 40
0.7499999999999977
 40
0.7499999999999977
 40
1.0
 40
1.0
 40
1.0
 40
1.0
 10
238.7817332275887
 20
154.0687534619371
 30
0.0
 10
239.3646150403661
 20
155.872537772981
 30
0.0
 10
239.9103300377907
 20
157.6504650948142
 30
0.0
 10
240.5541597678158
 20
159.8372338955759
 30
0.0
 10
240.6813817313483
 20
160.2741815621459
 30
0.0
 10
240.928868741631
 20
161.1331683151371
 30
0.0
 10
241.0494016798784
 20
161.5560850724926
 30
0.0
 10
241.4018585790279
 20
162.8052783426502
 30
0.0
 10
241.6246803989166
 20
163.6120853543102
 30
0.0
 10
241.8361377566923
 20
164.3923161353981
 30
0.0
  0
SPLINE
  5
133
330
1F
100
AcDbEntity
  8
0
  6
HIDDEN
 62
     7
370
     0
100
AcDbSpline
210
0.0
220
0.0
230
1.0
 70
     8
 71
     3
 72
     8
 73
     4
 74
     0
 42
0.00000001
 43
0.00000001
 12
1.0
 22
0.0
 32
0.0
 13
1.0
 23
0.0
 33
0.0
 40
0.0
 40
0.0
 40
0.0
 40
0.0
 40
1.0
 40
1.0
 40
1.0
 40
1.0
 10
241.8361377566923
 20
164.3923161353981
 30
0.0
 10
241.0842507912453
 20
164.5707186693165
 30
0.0
 10
240.4102640510256
 20
164.8087472911485
 30
0.0
 10
239.8349263386968
 20
165.0864493730499
 30
0.0
  0
SPLINE
  5
134
330
1F
100
AcDbEntity
  8
0
  6
HIDDEN
 62
     7
370
     0
100
AcDbSpline
210
0.0
220
0.0
230
1.0
 70
     8
 71
     3
 72
    17
 73
    13
 74
     0
 42
0.00000001
 43
0.00000001
 12
1.0
 22
0.0
 32
0.0
 13
1.0
 23
0.0
 33
0.0
 40
0.0
 40
0.0
 40
0.0
 40
0.0
 40
0.1004538331217627
 40
0.2011113164778585
 40
0.3025303539628507
 40
0.4042804268473896
 40
0.5289492486104045
 40
0.6544936870721574
 40
0.7829692611059593
 40
0.9124949029982004
 40
0.9964695904562081
 40
1.0
 40
1.0
 40
1.0
 40
1.0
 10
239.8349263386968
 20
165.0864493730499
 30
0.0
 10
239.6481618273347
 20
165.1795707804327
 30
0.0
 10
239.274254176585
 20
165.3660023803928
 30
0.0
 10
238.7889140123242
 20
165.6527363822813
 30
0.0
 10
238.3699507021919
 20
165.9452867287239
 30
0.0
 10
238.0080196188307
 20
166.2659918240633
 30
0.0
 10
237.7369658626126
 20
166.6153506769835
 30
0.0
 10
237.6019577654462
 20
166.9949977099438
 30
0.0
 10
237.6251036695484
 20
167.3809038877824
 30
0.0
 10
237.8177847150609
 20
167.7220045614263
 30
0.0
 10
237.969463695645
 20
167.9382382933034
 30
0.0
 10
238.0757865137421
 20
168.0232902289651
 30
0.0
 10
238.0800761277714
 20
168.0267216652547
 30
0.0
  0
ELLIPSE
  5
135
330
1F
100
AcDbEntity
  8
0
  6
HIDDEN
 62
     7
370
     0
100
AcDbEllipse
 10
254.0707359177
 20
147.0687534619
 30
0.0
 11
6.669703807742906
 21
20.49869244577122
 31
0.0
210
0.0
220
0.0
230
1.0
 40
0.0347142918
 41
1.582090910555887
 42
3.152887237351223
  0
SPLINE
  5
136
330
1F
100
AcDbEntity
  8
0
  6
HIDDEN
 62
     7
370
     0
100
AcDbSpline
210
0.0
220
0.0
230
1.0
 70
     8
 71
     3
 72
    52
 73
    48
 74
     0
 42
0.00000001
 43
0.00000001
 12
1.0
 22
0.0
 32
0.0
 13
1.0
 23
0.0
 33
0.0
 40
0.0
 40
0.0
 40
0.0
 40
0.0
 40
0.062499999999997
 40
0.062499999999997
 40
0.093749999999995
 40
0.093749999999995
 40
0.124999999999993
 40
0.124999999999993
 40
0.156249999999991
 40
0.156249999999991
 40
0.1874999999999889
 40
0.1874999999999889
 40
0.2499999999999849
 40
0.2499999999999849
 40
0.3124999999999809
 40
0.3124999999999809
 40
0.3437499999999805
 40
0.3437499999999805
 40
0.3749999999999801
 40
0.3749999999999801
 40
0.4374999999999793
 40
0.4374999999999793
 40
0.4687499999999814
 40
0.4687499999999814
 40
0.4999999999999835
 40
0.4999999999999835
 40
0.5624999999999875
 40
0.5624999999999875
 40
0.5937499999999918
 40
0.5937499999999918
 40
0.624999999999996
 40
0.624999999999996
 40
0.6875000000000004
 40
0.6875000000000004
 40
0.7187500000000008
 40
0.7187500000000008
 40
0.7500000000000012
 40
0.7500000000000012
 40
0.812500000000002
 40
0.812500000000002
 40
0.8437500000000017
 40
0.8437500000000017
 40
0.8750000000000012
 40
0.8750000000000012
 40
0.9375000000000007
 40
0.9375000000000007
 40
1.0
 40
1.0
 40
1.0
 40
1.0
 10
241.2345079529176
 20
147.0687534619371
 30
0.0
 10
241.0689291615036
 20
146.7473370081364
 30
0.0
 10
240.9453299103153
 20
146.412536435461
 30
0.0
 10
240.8232891420697
 20
145.8902312627506
 30
0.0
 10
240.7932223277815
 20
145.7113810265847
 30
0.0
 10
240.7567851571114
 20
145.3551085550127
 30
0.0
 10
240.7501528766053
 20
145.1774519540034
 30
0.0
 10
240.7598520519147
 20
144.8230893011763
 30
0.0
 10
240.7761812454763
 20
144.6463832122965
 30
0.0
 10
240.8326947442544
 20
144.2939371662511
 30
0.0
 10
240.8730042178692
 20
144.1188055215792
 30
0.0
 10
241.0262682345352
 20
143.6107998395372
 30
0.0
 10
241.1730988523235
 20
143.2876012034725
 30
0.0
 10
241.5509783466196
 20
142.6859234610412
 30
0.0
 10
241.7759293735707
 20
142.4158073719877
 30
0.0
 10
242.1660223628229
 20
142.0544431427353
 30
0.0
 10
242.3051707937406
 20
141.9414688562165
 30
0.0
 10
242.5935422969024
 20
141.736360800226
 30
0.0
 10
242.7436621918212
 20
141.6433238553074
 30
0.0
 10
243.2116373297154
 20
141.3921531044391
 30
0.0
 10
243.5506127476869
 20
141.2615202160406
 30
0.0
 10
244.0683373135413
 20
141.1317145126937
 30
0.0
 10
244.2433547217571
 20
141.0989220658524
 30
0.0
 10
244.598342247167
 20
141.0544835868726
 30
0.0
 10
244.7796085579931
 20
141.0429002170156
 30
0.0
 10
245.3182401771506
 20
141.0414740893697
 30
0.0
 10
245.6719873679554
 20
141.0835153207622
 30
0.0
 10
246.1945194970831
 20
141.2120742803415
 30
0.0
 10
246.3669069198253
 20
141.2660805366349
 30
0.0
 10
246.6990674132782
 20
141.3933270839239
 30
0.0
 10
246.8601178630448
 20
141.4668443137643
 30
0.0
 10
247.3282832520561
 20
141.7171538919441
 30
0.0
 10
247.622585956227
 20
141.9264332287874
 30
0.0
 10
248.0098592670986
 20
142.2850526889601
 30
0.0
 10
248.1309303283236
 20
142.4125017606169
 30
0.0
 10
248.3569085951985
 20
142.6835485882583
 30
0.0
 10
248.4623990358263
 20
142.8282246542024
 30
0.0
 10
248.7464004107464
 20
143.2764111258904
 30
0.0
 10
248.8950134469007
 20
143.5953163006801
 30
0.0
 10
249.0568600195766
 20
144.1045751012834
 30
0.0
 10
249.1000437952482
 20
144.2786437312531
 30
0.0
 10
249.163549342216
 20
144.6275293127731
 30
0.0
 10
249.1842440602955
 20
144.8034528502587
 30
0.0
 10
249.2134013109857
 20
145.3356707058051
 30
0.0
 10
249.1877877660613
 20
145.6989970552146
 30
0.0
 10
249.0505694687737
 20
146.3982927307855
 30
0.0
 10
248.9385836413766
 20
146.7416417865751
 30
0.0
 10
248.7843672868606
 20
147.0687534619371
 30
0.0
  0
LINE
  5
137
330
1F
100
AcDbEntity
  8
0
  6
HIDDEN
 62
     7
370
     0
100
AcDbLine
 10
73.3695542052
 20
156.0687534619
 30
0.0
 11
73.3695542052
 21
138.0687534619
 31
0.0
  0
LINE
  5
138
330
1F
100
AcDbEntity
  8
0
  6
HIDDEN
 62
     7
370
     0
100
AcDbLine
 10
72.1195542052
 20
136.8187534619
 30
0.0
 11
72.1195542052
 21
157.2886779241
 31
0.0
  0
LINE
  5
139
330
1F
100
AcDbEntity
  8
0
  6
HIDDEN
 62
     7
370
     0
100
AcDbLine
 10
99.1195542052
 20
156.0687534619
 30
0.0
 11
99.1195542052
 21
138.0687534619
 31
0.0
  0
LINE
  5
13A
330
1F
100
AcDbEntity
  8
0
  6
HIDDEN
 62
     7
370
     0
100
AcDbLine
 10
101.9736421455
 20
151.3187534619
 30
0.0
 11
101.9736421455
 21
142.8187534619
 31
0.0
  0
LWPOLYLINE
  5
13B
330
1F
100
AcDbEntity
  8
0
  6
HIDDEN
 62
     7
370
     0
100
AcDbPolyline
 90
       25
 70
   128
 43
0.0
 10
247.3480366449
 20
146.4295006962
 10
248.2489408704
 20
146.5264672767
 10
249.0884499618
 20
146.8501327439
 10
249.8093527618
 20
147.378439831
 10
250.3625209359
 20
148.0753852831
 10
250.7102569873
 20
148.8934734194
 10
250.8288632787
 20
149.7769528853
 10
250.7102569873
 20
150.6656160154
 10
250.3625209359
 20
151.4989018857
 10
249.8093527618
 20
152.2200234414
 10
249.0884499618
 20
152.7798374401
 10
248.2489408704
 20
153.140193483
 10
247.3480366449
 20
153.2765339013
 10
246.4471324194
 20
153.1795673207
 10
245.607623328
 20
152.8559018535
 10
244.886720528
 20
152.3275947664
 10
244.3335523539
 20
151.6306493143
 10
243.9858163025
 20
150.812561178
 10
243.8672100111
 20
149.9290817121
 10
243.9858163025
 20
149.0404185821
 10
244.3335523539
 20
148.2071327117
 10
244.886720528
 20
147.4860111561
 10
245.607623328
 20
146.9261971573
 10
246.4471324194
 20
146.5658411144
 10
247.3480366449
 20
146.4295006962
  0
ARC
  5
13C
330
1F
100
AcDbEntity
  8
0
  6
HIDDEN
 62
     7
370
     0
100
AcDbCircle
 10
242.2895799286
 20
155.4946753974
 30
0.0
 40
2.078762917783579
100
AcDbArc
 50
122.6312850733
 51
287.8074874418
  0
LINE
  5
13D
330
1F
100
AcDbEntity
  8
0
  6
HIDDEN
 62
     7
370
     0
100
AcDbLine
 10
258.2926277999
 20
159.6754030275
 30
0.0
 11
257.3288753686
 21
157.7689584677
 31
0.0
  0
LINE
  5
13E
330
1F
100
AcDbEntity
  8
0
  6
HIDDEN
 62
     7
370
     0
100
AcDbLine
 10
223.1195542052
 20
151.3187534619
 30
0.0
 11
223.1195542052
 21
142.8187534619
 31
0.0
  0
SPLINE
  5
13F
330
1F
100
AcDbEntity
  8
0
  6
HIDDEN
 62
     7
370
     0
100
AcDbSpline
210
0.0
220
0.0
230
1.0
 70
     8
 71
     3
 72
    60
 73
    56
 74
     0
 42
0.00000001
 43
0.00000001
 12
1.0
 22
0.0
 32
0.0
 13
1.0
 23
0.0
 33
0.0
 40
-0.031249999999999
 40
-0.031249999999999
 40
0.0
 40
0.0
 40
0.0312500000000025
 40
0.0312500000000025
 40
0.0625000000000051
 40
0.0625000000000051
 40
0.1250000000000055
 40
0.1250000000000055
 40
0.1562500000000039
 40
0.1562500000000039
 40
0.1875000000000024
 40
0.1875000000000024
 40
0.2187500000000008
 40
0.2187500000000008
 40
0.2499999999999993
 40
0.2499999999999993
 40
0.3124999999999961
 40
0.3124999999999961
 40
0.3749999999999929
 40
0.3749999999999929
 40
0.4062499999999931
 40
0.4062499999999931
 40
0.4374999999999932
 40
0.4374999999999932
 40
0.4687499999999933
 40
0.4687499999999933
 40
0.4999999999999935
 40
0.4999999999999935
 40
0.5312499999999937
 40
0.5312499999999937
 40
0.5624999999999938
 40
0.5624999999999938
 40
0.6249999999999987
 40
0.6249999999999987
 40
0.6562499999999993
 40
0.6562499999999993
 40
0.6875
 40
0.6875
 40
0.7187500000000007
 40
0.7187500000000007
 40
0.7500000000000013
 40
0.7500000000000013
 40
0.781250000000002
 40
0.781250000000002
 40
0.8125000000000027
 40
0.8125000000000027
 40
0.875000000000004
 40
0.875000000000004
 40
0.906250000000003
 40
0.906250000000003
 40
0.937500000000002
 40
0.937500000000002
 40
0.968750000000001
 40
0.968750000000001
 40
1.0
 40
1.0
 40
1.031250000000002
 40
1.031250000000002
 10
219.2890818017247
 20
144.5687534619371
 30
0.0
 10
218.9500266085836
 20
144.5687534619371
 30
0.0
 10
218.7844287608761
 20
144.5858044265678
 30
0.0
 10
218.4603086842033
 20
144.6515773577299
 30
0.0
 10
218.3004986198778
 20
144.701149859871
 30
0.0
 10
217.8511570173364
 20
144.8900464951583
 30
0.0
 10
217.581474277561
 20
145.0723848228448
 30
0.0
 10
217.2432894888034
 20
145.408956752734
 30
0.0
 10
217.1397230551796
 20
145.5337736056148
 30
0.0
 10
216.9592715928797
 20
145.8002608222937
 30
0.0
 10
216.8821496266175
 20
145.9415501950054
 30
0.0
 10
216.7547317418102
 20
146.2416010153454
 30
0.0
 10
216.7042675490091
 20
146.4025009720356
 30
0.0
 10
216.6374261363266
 20
146.7273705953623
 30
0.0
 10
216.6201079347775
 20
146.8925804732322
 30
0.0
 10
216.6184855428441
 20
147.3969757466851
 30
0.0
 10
216.6869735133878
 20
147.7324369255297
 30
0.0
 10
216.9410238197586
 20
148.3383714839063
 30
0.0
 10
217.125606719114
 20
148.6100159134113
 30
0.0
 10
217.4629751895372
 20
148.9478689707258
 30
0.0
 10
217.586964358504
 20
149.0504102012503
 30
0.0
 10
217.8531331037216
 20
149.2302281123475
 30
0.0
 10
217.9936697845455
 20
149.3067274497363
 30
0.0
 10
218.2913281198435
 20
149.4331106367832
 30
0.0
 10
218.4507954973859
 20
149.4833756843781
 30
0.0
 10
218.7764128815195
 20
149.550666578534
 30
0.0
 10
218.9423798639066
 20
149.5682157083696
 30
0.0
 10
219.2812131099697
 20
149.5692671425699
 30
0.0
 10
219.4482037888049
 20
149.5526139534042
 30
0.0
 10
219.7738287025956
 20
149.4873270853571
 30
0.0
 10
219.9339598751526
 20
149.4379858763995
 30
0.0
 10
220.3846650345109
 20
149.2494803833341
 30
0.0
 10
220.6549235356619
 20
149.0673886762588
 30
0.0
 10
220.9946382645635
 20
148.7299383388837
 30
0.0
 10
221.098596908439
 20
148.604721216183
 30
0.0
 10
221.2789060010605
 20
148.3387955025892
 30
0.0
 10
221.3563397096531
 20
148.1973270394653
 30
0.0
 10
221.4845885644977
 20
147.8954941662428
 30
0.0
 10
221.5349038554145
 20
147.7347265483702
 30
0.0
 10
221.6016521019059
 20
147.4102561937076
 30
0.0
 10
221.6191256111021
 20
147.2445102683573
 30
0.0
 10
221.6199673936325
 20
146.9054085651108
 30
0.0
 10
221.6032072961006
 20
146.7383178924245
 30
0.0
 10
221.5374551525967
 20
146.4118856288661
 30
0.0
 10
221.4876002918231
 20
146.2506427391018
 30
0.0
 10
221.2966355062557
 20
145.7967052309257
 30
0.0
 10
221.1113393732857
 20
145.5245199439316
 30
0.0
 10
220.7724504724657
 20
145.1863612982164
 30
0.0
 10
220.6472685500626
 20
145.0833670634622
 30
0.0
 10
220.3813334140893
 20
144.904594618694
 30
0.0
 10
220.2404778306907
 20
144.8282246259577
 30
0.0
 10
219.9408112342065
 20
144.7019040515662
 30
0.0
 10
219.7804330520718
 20
144.6520006038736
 30
0.0
 10
219.4556959120231
 20
144.5859196011714
 30
0.0
 10
219.2890818017247
 20
144.5687534619371
 30
0.0
 10
218.9500266085836
 20
144.5687534619371
 30
0.0
  0
SPLINE
  5
140
330
1F
100
AcDbEntity
  8
0
  6
HIDDEN
 62
     7
370
     0
100
AcDbSpline
210
0.0
220
0.0
230
1.0
 70
     8
 71
     3
 72
    60
 73
    56
 74
     0
 42
0.00000001
 43
0.00000001
 12
1.0
 22
0.0
 32
0.0
 13
1.0
 23
0.0
 33
0.0
 40
-0.0312500000000009
 40
-0.0312500000000009
 40
0.0
 40
0.0
 40
0.0312499999999944
 40
0.0312499999999944
 40
0.0624999999999889
 40
0.0624999999999889
 40
0.1249999999999823
 40
0.1249999999999823
 40
0.1562499999999807
 40
0.1562499999999807
 40
0.1874999999999792
 40
0.1874999999999792
 40
0.2187499999999776
 40
0.2187499999999776
 40
0.2499999999999761
 40
0.2499999999999761
 40
0.312499999999973
 40
0.312499999999973
 40
0.3749999999999699
 40
0.3749999999999699
 40
0.4062499999999702
 40
0.4062499999999702
 40
0.4374999999999704
 40
0.4374999999999704
 40
0.4687499999999707
 40
0.4687499999999707
 40
0.4999999999999709
 40
0.4999999999999709
 40
0.5312499999999711
 40
0.5312499999999711
 40
0.5624999999999714
 40
0.5624999999999714
 40
0.6249999999999765
 40
0.6249999999999765
 40
0.656249999999979
 40
0.656249999999979
 40
0.6874999999999816
 40
0.6874999999999816
 40
0.7187499999999841
 40
0.7187499999999841
 40
0.7499999999999867
 40
0.7499999999999867
 40
0.7812499999999892
 40
0.7812499999999892
 40
0.8124999999999918
 40
0.8124999999999918
 40
0.8749999999999968
 40
0.8749999999999968
 40
0.9062499999999976
 40
0.9062499999999976
 40
0.9374999999999983
 40
0.9374999999999983
 40
0.9687499999999991
 40
0.9687499999999991
 40
1.0
 40
1.0
 40
1.031249999999994
 40
1.031249999999994
 10
218.9500266085835
 20
144.5687534619371
 30
0.0
 10
219.2890818017247
 20
144.5687534619371
 30
0.0
 10
219.4546796494322
 20
144.5858044265678
 30
0.0
 10
219.7787997261049
 20
144.6515773577299
 30
0.0
 10
219.9386097904305
 20
144.701149859871
 30
0.0
 10
220.3879513929719
 20
144.8900464951583
 30
0.0
 10
220.6576341327474
 20
145.0723848228449
 30
0.0
 10
220.9958189215049
 20
145.408956752734
 30
0.0
 10
221.0993853551287
 20
145.5337736056148
 30
0.0
 10
221.2798368174286
 20
145.8002608222938
 30
0.0
 10
221.3569587836909
 20
145.9415501950055
 30
0.0
 10
221.4843766684981
 20
146.2416010153455
 30
0.0
 10
221.5348408612993
 20
146.4025009720356
 30
0.0
 10
221.6016822739817
 20
146.7273705953623
 30
0.0
 10
221.6190004755307
 20
146.8925804732322
 30
0.0
 10
221.620622867464
 20
147.3969757466851
 30
0.0
 10
221.5521348969205
 20
147.7324369255298
 30
0.0
 10
221.2980845905496
 20
148.3383714839063
 30
0.0
 10
221.1135016911942
 20
148.6100159134113
 30
0.0
 10
220.7761332207711
 20
148.9478689707257
 30
0.0
 10
220.6521440518043
 20
149.0504102012502
 30
0.0
 10
220.3859753065869
 20
149.2302281123474
 30
0.0
 10
220.2454386257629
 20
149.3067274497363
 30
0.0
 10
219.9477802904649
 20
149.4331106367831
 30
0.0
 10
219.7883129129224
 20
149.483375684378
 30
0.0
 10
219.4626955287888
 20
149.550666578534
 30
0.0
 10
219.2967285464018
 20
149.5682157083696
 30
0.0
 10
218.9578953003386
 20
149.5692671425699
 30
0.0
 10
218.7909046215034
 20
149.5526139534042
 30
0.0
 10
218.4652797077126
 20
149.4873270853571
 30
0.0
 10
218.3051485351556
 20
149.4379858763996
 30
0.0
 10
217.8544433757972
 20
149.249480383334
 30
0.0
 10
217.5841848746465
 20
149.0673886762587
 30
0.0
 10
217.2444701457447
 20
148.7299383388838
 30
0.0
 10
217.1405115018694
 20
148.604721216183
 30
0.0
 10
216.9602024092477
 20
148.3387955025892
 30
0.0
 10
216.8827687006552
 20
148.1973270394653
 30
0.0
 10
216.7545198458105
 20
147.8954941662429
 30
0.0
 10
216.7042045548937
 20
147.7347265483702
 30
0.0
 10
216.6374563084024
 20
147.4102561937076
 30
0.0
 10
216.6199827992062
 20
147.2445102683573
 30
0.0
 10
216.6191410166758
 20
146.9054085651108
 30
0.0
 10
216.6359011142077
 20
146.7383178924245
 30
0.0
 10
216.7016532577116
 20
146.4118856288661
 30
0.0
 10
216.7515081184852
 20
146.2506427391018
 30
0.0
 10
216.9424729040528
 20
145.7967052309256
 30
0.0
 10
217.1277690370226
 20
145.5245199439316
 30
0.0
 10
217.4666579378424
 20
145.1863612982164
 30
0.0
 10
217.5918398602456
 20
145.0833670634621
 30
0.0
 10
217.857774996219
 20
144.904594618694
 30
0.0
 10
217.9986305796178
 20
144.8282246259577
 30
0.0
 10
218.298297176102
 20
144.7019040515662
 30
0.0
 10
218.4586753582366
 20
144.6520006038736
 30
0.0
 10
218.7834124982853
 20
144.5859196011714
 30
0.0
 10
218.9500266085835
 20
144.5687534619371
 30
0.0
 10
219.2890818017247
 20
144.5687534619371
 30
0.0
  0
SPLINE
  5
141
330
1F
100
AcDbEntity
  8
0
  6
HIDDEN
 62
     7
370
     0
100
AcDbSpline
210
0.0
220
0.0
230
1.0
 70
     8
 71
     3
 72
    34
 73
    30
 74
     0
 42
0.00000001
 43
0.00000001
 12
1.0
 22
0.0
 32
0.0
 13
1.0
 23
0.0
 33
0.0
 40
0.0
 40
0.0
 40
0.0
 40
0.0
 40
0.1249999999999991
 40
0.1249999999999991
 40
0.2499999999999983
 40
0.2499999999999983
 40
0.3124999999999965
 40
0.3124999999999965
 40
0.3749999999999948
 40
0.3749999999999948
 40
0.4374999999999931
 40
0.4374999999999931
 40
0.4687499999999922
 40
0.4687499999999922
 40
0.4999999999999913
 40
0.4999999999999913
 40
0.5312499999999905
 40
0.5312499999999905
 40
0.5624999999999896
 40
0.5624999999999896
 40
0.6249999999999912
 40
0.6249999999999912
 40
0.6874999999999929
 40
0.6874999999999929
 40
0.7499999999999947
 40
0.7499999999999947
 40
0.8749999999999973
 40
0.8749999999999973
 40
1.0
 40
1.0
 40
1.0
 40
1.0
 10
245.6148783329384
 20
152.4815753649435
 30
0.0
 10
245.6736592054912
 20
152.5978526069527
 30
0.0
 10
245.797947233383
 20
152.7281725104536
 30
0.0
 10
246.1255598358137
 20
152.9935903755782
 30
0.0
 10
246.3316030012307
 20
153.1297457079956
 30
0.0
 10
246.7011410490646
 20
153.3139995229043
 30
0.0
 10
246.8347706096588
 20
153.3722188550061
 30
0.0
 10
247.1299433155239
 20
153.4762299600597
 30
0.0
 10
247.2917435005416
 20
153.5223608350182
 30
0.0
 10
247.653639177719
 20
153.5875931746713
 30
0.0
 10
247.8526052068936
 20
153.6079325230386
 30
0.0
 10
248.2000831489209
 20
153.5891274634441
 30
0.0
 10
248.3226849718119
 20
153.5743067377967
 30
0.0
 10
248.5830535920539
 20
153.5169411534578
 30
0.0
 10
248.7156843277368
 20
153.4750123073341
 30
0.0
 10
248.974114648227
 20
153.3624160960643
 30
0.0
 10
249.0947197127205
 20
153.2936913346879
 30
0.0
 10
249.3055123007147
 20
153.1478028868387
 30
0.0
 10
249.3973421599358
 20
153.0701643790777
 30
0.0
 10
249.636421160618
 20
152.8385893242188
 30
0.0
 10
249.7519786113696
 20
152.6840867830635
 30
0.0
 10
249.9380722661995
 20
152.3882782907419
 30
0.0
 10
250.0079388939739
 20
152.246508340434
 30
0.0
 10
250.1216683911016
 20
151.9723422715214
 30
0.0
 10
250.1650474942542
 20
151.8399926252026
 30
0.0
 10
250.2665884814928
 20
151.4575068776802
 30
0.0
 10
250.2957800248614
 20
151.2270532814952
 30
0.0
 10
250.3021242032478
 20
150.8261684557681
 30
0.0
 10
250.2797943658931
 20
150.6545497402757
 30
0.0
 10
250.2212547420125
 20
150.5387497237486
 30
0.0
  0
ELLIPSE
  5
142
330
1F
100
AcDbEntity
  8
0
  6
HIDDEN
 62
     7
370
     0
100
AcDbEllipse
 10
250.0023268982
 20
156.250679509
 30
0.0
 11
3.434281587992643
 21
1.718550178042108
 31
0.0
210
0.0
220
0.0
230
1.0
 40
0.1647216549
 41
6.064908987715305
 42
9.206501641304733
  0
LINE
  5
143
330
1F
100
AcDbEntity
  8
0
  6
HIDDEN
 62
     7
370
     0
100
AcDbLine
 10
248.4870756058
 20
169.4477355044
 30
0.0
 11
247.5233231745
 21
167.5412909446
 31
0.0
  0
LINE
  5
144
330
1F
100
AcDbEntity
  8
0
  6
HIDDEN
 62
     7
370
     0
100
AcDbLine
 10
245.1767122914
 20
151.6148182611
 30
0.0
 11
245.6148783329
 21
152.4815753649
 31
0.0
  0
ELLIPSE
  5
145
330
1F
100
AcDbEntity
  8
0
  6
HIDDEN
 62
     7
370
     0
100
AcDbEllipse
 10
246.4536069394
 20
148.0837033228
 30
0.0
 11
3.809839114181586
 21
-1.769635718921308
 31
0.0
210
0.0
220
0.0
230
1.0
 40
0.816602865
 41
0.9769531800217854
 42
2.252077021260143
  0
LINE
  5
146
330
1F
100
AcDbEntity
  8
0
  6
HIDDEN
 62
     7
370
     0
100
AcDbLine
 10
250.221254742
 20
150.5387497237
 30
0.0
 11
249.7830887004
 21
149.6719926199
 31
0.0
  0
ELLIPSE
  5
147
330
1F
100
AcDbEntity
  8
0
  6
HIDDEN
 62
     7
370
     0
100
AcDbEllipse
 10
244.9673707758
 20
145.1437088216
 30
0.0
 11
1.947843959788543
 21
3.853122855659081
 31
0.0
210
0.0
220
0.0
230
1.0
 40
0.9727892058
 41
5.634323124054823
 42
7.846127793565776
  0
LWPOLYLINE
  5
148
330
1F
100
AcDbEntity
  8
0
  6
HIDDEN
 62
     7
370
     0
100
AcDbPolyline
 90
       27
 70
   128
 43
0.0
 10
247.3214049704
 20
145.6921159927
 10
248.3210245762
 20
145.7896493105
 10
249.2625499239
 20
146.1202691556
 10
250.0912629828
 20
146.6647611043
 10
250.7590019619
 20
147.3914812636
 10
251.2269602991
 20
148.2581952996
 10
251.4679419567
 20
149.2145329427
 10
251.4679419567
 20
150.2049153252
 10
251.2269602991
 20
151.1717850231
 10
250.7590019619
 20
152.0589510839
 10
250.0912629828
 20
152.8148546408
 10
249.2625499239
 20
153.3955653268
 10
248.3210245762
 20
153.7673343475
 10
247.3214049704
 20
153.9085558388
 10
246.3217853647
 20
153.811022521
 10
245.3802600169
 20
153.4804026759
 10
244.5515469581
 20
152.9359107272
 10
243.8838079789
 20
152.2091905678
 10
243.4158496417
 20
151.3424765319
 10
243.1748679842
 20
150.3861388888
 10
243.1748679842
 20
149.3957565062
 10
243.4158496417
 20
148.4288868084
 10
243.8838079789
 20
147.5417207476
 10
244.5515469581
 20
146.7858171907
 10
245.3802600169
 20
146.2051065047
 10
246.3217853647
 20
145.833337484
 10
247.3214049704
 20
145.6921159927
  0
LINE
  5
149
330
1F
100
AcDbEntity
  8
0
  6
HIDDEN
 62
     7
370
     0
100
AcDbLine
 10
249.7830887004
 20
149.6719926199
 30
0.0
 11
251.4610980688
 21
153.857153977
 31
0.0
  0
LINE
  5
14A
330
1F
100
AcDbEntity
  8
0
  6
HIDDEN
 62
     7
370
     0
100
AcDbLine
 10
253.9551402984
 20
159.5296936092
 30
0.0
 11
251.4610980688
 21
153.857153977
 31
0.0
  0
LINE
  5
14B
330
1F
100
AcDbEntity
  8
0
  6
HIDDEN
 62
     7
370
     0
100
AcDbLine
 10
254.278989142
 20
160.1703144222
 30
0.0
 11
253.9551402984
 21
159.5296936092
 31
0.0
  0
LINE
  5
14C
330
1F
100
AcDbEntity
  8
0
  6
HIDDEN
 62
     7
370
     0
100
AcDbLine
 10
252.7078807136
 20
156.4043539021
 30
0.0
 11
254.278989142
 21
160.1703144222
 31
0.0
  0
LINE
  5
14D
330
1F
100
AcDbEntity
  8
0
  6
HIDDEN
 62
     7
370
     0
100
AcDbLine
 10
253.4164210912
 20
157.80595135
 30
0.0
 11
252.7078807136
 21
156.4043539021
 31
0.0
  0
ARC
  5
14E
330
1F
100
AcDbEntity
  8
0
  6
HIDDEN
 62
     7
370
     0
100
AcDbCircle
 10
252.8368615055
 20
162.8808835261
 30
0.0
 40
3.070328481860244
100
AcDbArc
 50
298.0147051904
 51
33.5006203734
  0
ARC
  5
14F
330
1F
100
AcDbEntity
  8
0
  6
HIDDEN
 62
     7
370
     0
100
AcDbCircle
 10
252.6113841233
 20
162.9956796827
 30
0.0
 40
3.068428500734468
100
AcDbArc
 50
92.8291083075
 51
196.7154875964
  0
LINE
  5
150
330
1F
100
AcDbEntity
  8
0
  6
HIDDEN
 62
     7
370
     0
100
AcDbLine
 10
249.672612733
 20
162.1131400634
 30
0.0
 11
246.5298679207
 21
154.5799535094
 31
0.0
  0
LINE
  5
151
330
1F
100
AcDbEntity
  8
0
  6
HIDDEN
 62
     7
370
     0
100
AcDbLine
 10
248.6307740861
 20
167.8416435019
 30
0.0
 11
261.1042696556
 21
171.5251338051
 31
0.0
  0
LINE
  5
152
330
1F
100
AcDbEntity
  8
0
  6
HIDDEN
 62
     7
370
     0
100
AcDbLine
 10
261.4962029017
 20
170.978499773
 30
0.0
 11
261.1042696556
 21
171.5251338051
 31
0.0
  0
ARC
  5
153
330
1F
100
AcDbEntity
  8
0
  6
HIDDEN
 62
     7
370
     0
100
AcDbCircle
 10
241.3409702594
 20
192.5285327021
 30
0.0
 40
25.74070197587489
100
AcDbArc
 50
283.8970522532
 51
286.4513698614
  0
LINE
  5
154
330
1F
100
AcDbEntity
  8
0
  6
HIDDEN
 62
     7
370
     0
100
AcDbLine
 10
247.5233231745
 20
167.5412909446
 30
0.0
 11
244.617954967
 21
158.3318903472
 31
0.0
  0
LINE
  5
155
330
1F
100
AcDbEntity
  8
0
  6
HIDDEN
 62
     7
370
     0
100
AcDbLine
 10
242.9253066369
 20
153.515507183
 30
0.0
 11
246.5298679207
 21
154.5799535094
 31
0.0
  0
LINE
  5
156
330
1F
100
AcDbEntity
  8
0
  6
HIDDEN
 62
     7
370
     0
100
AcDbLine
 10
252.7078807136
 20
156.4043539021
 30
0.0
 11
257.3288753686
 21
157.7689584677
 31
0.0
  0
LINE
  5
157
330
1F
100
AcDbEntity
  8
0
  6
HIDDEN
 62
     7
370
     0
100
AcDbLine
 10
257.3288753686
 20
157.7689584677
 30
0.0
 11
261.4962021798
 21
170.9785000076
 31
0.0
  0
LINE
  5
158
330
1F
100
AcDbEntity
  8
0
  6
HIDDEN
 62
     7
370
     0
100
AcDbLine
 10
246.5298679207
 20
154.5799535094
 30
0.0
 11
246.5882327053
 21
154.695407668
 31
0.0
  0
LINE
  5
159
330
1F
100
AcDbEntity
  8
0
  6
HIDDEN
 62
     7
370
     0
100
AcDbLine
 10
46.6195542052
 20
131.9647006332
 30
0.0
 11
46.6195542052
 21
125.9103900657
 31
0.0
  0
LINE
  5
15A
330
1F
100
AcDbEntity
  8
0
  6
HIDDEN
 62
     7
370
     0
100
AcDbLine
 10
80.9195542052
 20
131.5338329391
 30
0.0
 11
80.9195542052
 21
125.0486546774
 31
0.0
  0
LINE
  5
15B
330
1F
100
AcDbEntity
  8
0
  6
HIDDEN
 62
     7
370
     0
100
AcDbLine
 10
45.1195542052
 20
132.3977133351
 30
0.0
 11
45.1195542052
 21
126.7764154694
 31
0.0
  0
SPLINE
  5
15C
330
1F
100
AcDbEntity
  8
0
  6
HIDDEN
 62
     7
370
     0
100
AcDbSpline
210
0.0
220
0.0
230
1.0
 70
     8
 71
     3
 72
    16
 73
    12
 74
     0
 42
0.00000001
 43
0.00000001
 12
1.0
 22
0.0
 32
0.0
 13
1.0
 23
0.0
 33
0.0
 40
0.0
 40
0.0
 40
0.0
 40
0.0
 40
0.2500000000000003
 40
0.2500000000000003
 40
0.3750000000000003
 40
0.3750000000000003
 40
0.5000000000000003
 40
0.5000000000000003
 40
0.7500000000000002
 40
0.7500000000000002
 40
1.0
 40
1.0
 40
1.0
 40
1.0
 10
81.79823386159451
 20
130.4848468356961
 30
0.0
 10
81.63700138411006
 20
129.770452673504
 30
0.0
 10
81.51652154447042
 20
129.1171104107953
 30
0.0
 10
81.3941410271571
 20
128.2288551689914
 30
0.0
 10
81.36316336675965
 20
127.9481746326395
 30
0.0
 10
81.3215496291317
 20
127.4191406427996
 30
0.0
 10
81.31131371619888
 20
127.1758196642211
 30
0.0
 10
81.31112531914276
 20
126.5077969737079
 30
0.0
 10
81.35127002178038
 20
126.1441160642884
 30
0.0
 10
81.51542377671996
 20
125.5842251917401
 30
0.0
 10
81.63697542712951
 20
125.3967038996229
 30
0.0
 10
81.79823386159451
 20
125.298672506935
 30
0.0
  0
LINE
  5
15D
330
1F
100
AcDbEntity
  8
0
  6
HIDDEN
 62
     7
370
     0
100
AcDbLine
 10
46.6195542052
 20
168.2271168582
 30
0.0
 11
46.6195542052
 21
162.1728062907
 31
0.0
  0
LINE
  5
15E
330
1F
100
AcDbEntity
  8
0
  6
HIDDEN
 62
     7
370
     0
100
AcDbLine
 10
45.1195542052
 20
167.3610914544
 30
0.0
 11
45.1195542052
 21
161.7397935888
 31
0.0
  0
LINE
  5
15F
330
1F
100
AcDbEntity
  8
0
  6
HIDDEN
 62
     7
370
     0
100
AcDbLine
 10
80.9195542052
 20
169.0888522465
 30
0.0
 11
80.9195542052
 21
162.6036739848
 31
0.0
  0
SPLINE
  5
160
330
1F
100
AcDbEntity
  8
0
  6
HIDDEN
 62
     7
370
     0
100
AcDbSpline
210
0.0
220
0.0
230
1.0
 70
     8
 71
     3
 72
    16
 73
    12
 74
     0
 42
0.00000001
 43
0.00000001
 12
1.0
 22
0.0
 32
0.0
 13
1.0
 23
0.0
 33
0.0
 40
0.0
 40
0.0
 40
0.0
 40
0.0
 40
0.2500000000000001
 40
0.2500000000000001
 40
0.3749999999999999
 40
0.3749999999999999
 40
0.4999999999999998
 40
0.4999999999999998
 40
0.7499999999999999
 40
0.7499999999999999
 40
1.0
 40
1.0
 40
1.0
 40
1.0
 10
81.79823386159451
 20
168.8388344169392
 30
0.0
 10
81.63700138411005
 20
168.7408188038845
 30
0.0
 10
81.51652154447042
 20
168.5540827722085
 30
0.0
 10
81.3941410271571
 20
168.1410429646496
 30
0.0
 10
81.36316336675964
 20
167.9810424654166
 30
0.0
 10
81.3215496291317
 20
167.6142368143255
 30
0.0
 10
81.31131371619887
 20
167.4108996617014
 30
0.0
 10
81.31112531914276
 20
166.7436123950748
 30
0.0
 10
81.35127002178038
 20
166.2227979311867
 30
0.0
 10
81.51542377671996
 20
165.025438915709
 30
0.0
 10
81.63697542712951
 20
164.367169261413
 30
0.0
 10
81.79823386159451
 20
163.6526600881781
 30
0.0
  0
SPLINE
  5
161
330
1F
100
AcDbEntity
  8
0
  6
HIDDEN
 62
     7
370
     0
100
AcDbSpline
210
0.0
220
0.0
230
1.0
 70
     8
 71
     3
 72
    12
 73
     8
 74
     0
 42
0.00000001
 43
0.00000001
 12
1.0
 22
0.0
 32
0.0
 13
1.0
 23
0.0
 33
0.0
 40
0.0
 40
0.0
 40
0.0
 40
0.0
 40
0.5000000000000042
 40
0.5000000000000042
 40
0.7500000000000021
 40
0.7500000000000021
 40
1.0
 40
1.0
 40
1.0
 40
1.0
 10
253.0461453892403
 20
158.6334483143154
 30
0.0
 10
253.2668845978244
 20
158.7900529804482
 30
0.0
 10
253.4560336121193
 20
158.9531473745126
 30
0.0
 10
253.6912408392776
 20
159.1870978664798
 30
0.0
 10
253.7613200298327
 20
159.2632789676423
 30
0.0
 10
253.8790249060913
 20
159.4064550519279
 30
0.0
 10
253.9265589156443
 20
159.4731554154855
 30
0.0
 10
253.9551402984071
 20
159.5296936092234
 30
0.0
  0
ARC
  5
162
330
1F
100
AcDbEntity
  8
0
  6
HIDDEN
 62
     7
370
     0
100
AcDbCircle
 10
252.0801395469
 20
161.6433926527
 30
0.0
 40
3.161159946479503
100
AcDbArc
 50
287.7934152804
 51
206.4695900882
  0
SPLINE
  5
163
330
1F
100
AcDbEntity
  8
0
  6
HIDDEN
 62
     7
370
     0
100
AcDbSpline
210
0.0
220
0.0
230
1.0
 70
     8
 71
     3
 72
    12
 73
     8
 74
     0
 42
0.00000001
 43
0.00000001
 12
1.0
 22
0.0
 32
0.0
 13
1.0
 23
0.0
 33
0.0
 40
0.0
 40
0.0
 40
0.0
 40
0.0
 40
0.2499999999999997
 40
0.2499999999999997
 40
0.4999999999999993
 40
0.4999999999999993
 40
1.0
 40
1.0
 40
1.0
 40
1.0
 10
249.3487638893322
 20
161.4725192504167
 30
0.0
 10
249.3202931206435
 20
161.416199867644
 30
0.0
 10
249.2978969700511
 20
161.3395665751499
 30
0.0
 10
249.2618895840978
 20
161.1623699742607
 30
0.0
 10
249.2484860213791
 20
161.0617906894215
 30
0.0
 10
249.2223637791493
 20
160.7390970274712
 30
0.0
 10
249.2228915406581
 20
160.4957429079685
 30
0.0
 10
249.2503606581873
 20
160.2343917129954
 30
0.0
  0
LINE
  5
164
330
1F
100
AcDbEntity
  8
0
  6
HIDDEN
 62
     7
370
     0
100
AcDbLine
 10
249.3487638893
 20
161.4725192504
 30
0.0
 11
249.672612733
 21
162.1131400634
 31
0.0
  0
ELLIPSE
  5
165
330
1F
100
AcDbEntity
  8
0
  6
HIDDEN
 62
     7
370
     0
100
AcDbEllipse
 10
250.5082655333
 20
157.8998644521
 30
0.0
 11
1.101654435681468
 21
2.719284888726065
 31
0.0
210
0.0
220
0.0
230
1.0
 40
0.8519509261
 41
5.302591628140244
 42
7.239561653762401
  0
LWPOLYLINE
  5
166
330
1F
100
AcDbEntity
  8
0
  6
HIDDEN
 62
     7
370
     0
100
AcDbPolyline
 90
       11
 70
   128
 43
0.0
 10
246.8547216597
 20
155.7999796182
 10
247.1622106562
 20
156.2381979774
 10
247.665052596
 20
156.5384318153
 10
248.3140258066
 20
156.6712921519
 10
249.0456042685
 20
156.6237736918
 10
249.7881759845
 20
156.400527873
 10
250.4690528613
 20
156.0234075516
 10
251.0215859264
 20
155.5293278922
 10
251.3916893935
 20
154.9666528545
 10
251.5431349566
 20
154.3904609914
 10
251.4610980688
 20
153.857153977
  0
SPLINE
  5
167
330
1F
100
AcDbEntity
  8
0
  6
HIDDEN
 62
     7
370
     0
100
AcDbSpline
210
0.0
220
0.0
230
1.0
 70
     8
 71
     3
 72
    11
 73
     7
 74
     0
 42
0.00000001
 43
0.00000001
 12
1.0
 22
0.0
 32
0.0
 13
1.0
 23
0.0
 33
0.0
 40
0.0
 40
0.0
 40
0.0
 40
0.0
 40
0.247302376312323
 40
0.4963495556445092
 40
0.7472223951397069
 40
1.0
 40
1.0
 40
1.0
 40
1.0
 10
261.1042696555635
 20
171.5251338051498
 30
0.0
 10
261.0606513363255
 20
171.4781750144242
 30
0.0
 10
260.9731069556582
 20
171.3839261226107
 30
0.0
 10
260.8285637960511
 20
171.2386060904768
 30
0.0
 10
260.6745896955842
 20
171.0900016311575
 30
0.0
 10
260.5633595306952
 20
170.9884247705121
 30
0.0
 10
260.5075341164937
 20
170.9374442624415
 30
0.0
  0
SPLINE
  5
168
330
1F
100
AcDbEntity
  8
0
  6
HIDDEN
 62
     7
370
     0
100
AcDbSpline
210
0.0
220
0.0
230
1.0
 70
     8
 71
     3
 72
    21
 73
    17
 74
     0
 42
0.00000001
 43
0.00000001
 12
1.0
 22
0.0
 32
0.0
 13
1.0
 23
0.0
 33
0.0
 40
0.0
 40
0.0
 40
0.0
 40
0.0
 40
0.0722469213901359
 40
0.1442536466934069
 40
0.2160482427276298
 40
0.2876590257341278
 40
0.3591145304776983
 40
0.4304434780781092
 40
0.5016747427424051
 40
0.5728373175822481
 40
0.6439602797131011
 40
0.7150727548420529
 40
0.7862038815583802
 40
0.8573827755450866
 40
0.9286384939308898
 40
1.0
 40
1.0
 40
1.0
 40
1.0
 10
260.167689546129
 20
167.6279521759862
 30
0.0
 10
260.2053312156428
 20
167.7274928837379
 30
0.0
 10
260.2804894091067
 20
167.9262433607319
 30
0.0
 10
260.390122118797
 20
168.2139668674415
 30
0.0
 10
260.4972176696115
 20
168.4933729435838
 30
0.0
 10
260.6015707412429
 20
168.7637628091119
 30
0.0
 10
260.7032360357934
 20
169.0253226840572
 30
0.0
 10
260.8021988417055
 20
169.2780025419213
 30
0.0
 10
260.8984630976289
 20
169.5218158139356
 30
0.0
 10
260.9920273457919
 20
169.7567576396643
 30
0.0
 10
261.0828931365888
 20
169.9828331183781
 30
0.0
 10
261.1710554025453
 20
170.2000258652822
 30
0.0
 10
261.2565325732931
 20
170.4083955857444
 30
0.0
 10
261.3392556805256
 20
170.6077190220005
 30
0.0
 10
261.4194822893535
 20
170.7988300997037
 30
0.0
 10
261.4706153170212
 20
170.9185783717031
 30
0.0
 10
261.49620079506
 20
170.9784969199129
 30
0.0
  0
LINE
  5
169
330
1F
100
AcDbEntity
  8
0
  6
HIDDEN
 62
     7
370
     0
100
AcDbLine
 10
246.8547216597
 20
155.7999796182
 30
0.0
 11
245.1767122914
 21
151.6148182611
 31
0.0
  0
SPLINE
  5
16A
330
1F
100
AcDbEntity
  8
0
  6
HIDDEN
 62
     7
370
     0
100
AcDbSpline
210
0.0
220
0.0
230
1.0
 70
     8
 71
     3
 72
    20
 73
    16
 74
     0
 42
0.00000001
 43
0.00000001
 12
1.0
 22
0.0
 32
0.0
 13
1.0
 23
0.0
 33
0.0
 40
0.0
 40
0.0
 40
0.0
 40
0.0
 40
0.0905684028495508
 40
0.1788625232998882
 40
0.2648823727826198
 40
0.3486279644728213
 40
0.4300993134619231
 40
0.509296436955444
 40
0.5862193544999449
 40
0.6608680882445879
 40
0.7332426632437233
 40
0.8033431078085675
 40
0.8711694539178741
 40
0.9367217376997313
 40
1.0
 40
1.0
 40
1.0
 40
1.0
 10
260.5075341164935
 20
170.9374442624415
 30
0.0
 10
260.4967747730823
 20
170.8526688272308
 30
0.0
 10
260.4755262664174
 20
170.6852467707679
 30
0.0
 10
260.4443170400367
 20
170.4261063181356
 30
0.0
 10
260.4141099576576
 20
170.1660551309478
 30
0.0
 10
260.3849221895273
 20
169.9050576485481
 30
0.0
 10
260.3567493007287
 20
169.6440518830852
 30
0.0
 10
260.3295923999646
 20
169.3836840899029
 30
0.0
 10
260.3034512311631
 20
169.1246340872828
 30
0.0
 10
260.2783256601907
 20
168.8675356196604
 30
0.0
 10
260.2542163252043
 20
168.6129854578539
 30
0.0
 10
260.2311207910682
 20
168.3615849315769
 30
0.0
 10
260.2090476165713
 20
168.1137770584689
 30
0.0
 10
260.1879662978903
 20
167.8704329046159
 30
0.0
 10
260.174405908118
 20
167.7077903190089
 30
0.0
 10
260.1677453922156
 20
167.6279044494988
 30
0.0
  0
ELLIPSE
  5
16B
330
1F
100
AcDbEntity
  8
0
  6
HIDDEN
 62
     7
370
     0
100
AcDbEllipse
 10
202.8276545791
 20
154.0687534619
 30
0.0
 11
62.3907844461005
 21
19.74575069221083
 31
0.0
210
0.0
220
0.0
230
1.0
 40
0.0509512444
 41
5.495921170328373
 42
5.87565488461065
  0
SPLINE
  5
16C
330
1F
100
AcDbEntity
  8
0
  6
HIDDEN
 62
     7
370
     0
100
AcDbSpline
210
0.0
220
0.0
230
1.0
 70
     8
 71
     3
 72
    10
 73
     6
 74
     0
 42
0.00000001
 43
0.00000001
 12
1.0
 22
0.0
 32
0.0
 13
1.0
 23
0.0
 33
0.0
 40
0.0
 40
0.0
 40
0.0
 40
0.0
 40
0.5
 40
0.5
 40
1.0
 40
1.0
 40
1.0
 40
1.0
 10
247.5749290714445
 20
165.7530262195017
 30
0.0
 10
246.6584831254877
 20
165.4109694255215
 30
0.0
 10
245.7213745300804
 20
165.124533712333
 30
0.0
 10
243.808187108334
 20
164.6684689356035
 30
0.0
 10
242.8321231745654
 20
164.4987311317602
 30
0.0
 10
241.8361377566922
 20
164.3923161353981
 30
0.0
  0
ELLIPSE
  5
16D
330
1F
100
AcDbEntity
  8
0
  6
HIDDEN
 62
     7
370
     0
100
AcDbEllipse
 10
256.326113893
 20
154.0687534619
 30
0.0
 11
6.507028105115013
 21
19.99872433733782
 31
0.0
210
0.0
220
0.0
230
1.0
 40
0.0347142918
 41
0.8371099826738276
 42
1.582090910555888
  0
CIRCLE
  5
16E
330
1F
100
AcDbEntity
  8
0
  6
HIDDEN
 62
     7
370
     0
100
AcDbCircle
 10
219.1195542052
 20
147.0687534619
 30
0.0
 40
2.5
  0
CIRCLE
  5
16F
330
1F
100
AcDbEntity
  8
0
  6
HIDDEN
 62
     7
370
     0
100
AcDbCircle
 10
219.1195542052
 20
147.0687534619
 30
0.0
 40
3.000000000000028
  0
LINE
  5
170
330
1F
100
AcDbEntity
  8
0
  6
HIDDEN
 62
     7
370
     0
100
AcDbLine
 10
45.1195542052
 20
144.166766129
 30
0.0
 11
45.1195542052
 21
132.3977133351
 31
0.0
  0
LINE
  5
171
330
1F
100
AcDbEntity
  8
0
  6
HIDDEN
 62
     7
370
     0
100
AcDbLine
 10
45.1195542052
 20
161.7397935888
 30
0.0
 11
45.1195542052
 21
149.9707407949
 31
0.0
  0
LINE
  5
172
330
1F
100
AcDbEntity
  8
0
  6
HIDDEN
 62
     7
370
     0
100
AcDbLine
 10
46.6195542052
 20
162.1728062907
 30
0.0
 11
46.6195542052
 21
151.0339643588
 31
0.0
  0
LINE
  5
173
330
1F
100
AcDbEntity
  8
0
  6
HIDDEN
 62
     7
370
     0
100
AcDbLine
 10
46.6195542052
 20
143.1035425651
 30
0.0
 11
46.6195542052
 21
131.9647006332
 31
0.0
  0
LINE
  5
174
330
1F
100
AcDbEntity
  8
0
  6
HIDDEN
 62
     7
370
     0
100
AcDbLine
 10
82.9195542052
 20
162.1064606244
 30
0.0
 11
82.9195542052
 21
132.0310462994
 31
0.0
  0
LINE
  5
175
330
1F
100
AcDbEntity
  8
0
  6
HIDDEN
 62
     7
370
     0
100
AcDbLine
 10
80.9195542052
 20
162.6036739848
 30
0.0
 11
80.9195542052
 21
131.5338329391
 31
0.0
  0
SPLINE
  5
176
330
1F
100
AcDbEntity
  8
0
  6
HIDDEN
 62
     7
370
     0
100
AcDbSpline
210
0.0
220
0.0
230
1.0
 70
     8
 71
     3
 72
    24
 73
    20
 74
     0
 42
0.00000001
 43
0.00000001
 12
1.0
 22
0.0
 32
0.0
 13
1.0
 23
0.0
 33
0.0
 40
0.0
 40
0.0
 40
0.0
 40
0.0
 40
0.125
 40
0.125
 40
0.25
 40
0.25
 40
0.375
 40
0.375
 40
0.4375
 40
0.4375
 40
0.5
 40
0.5
 40
0.625
 40
0.625
 40
0.75
 40
0.75
 40
0.875
 40
0.875
 40
1.0
 40
1.0
 40
1.0
 40
1.0
 10
51.56955420515415
 20
142.9827924088378
 30
0.0
 10
51.80735783742924
 20
143.281799511168
 30
0.0
 10
52.03744349864052
 20
143.5861373624867
 30
0.0
 10
52.47219689725036
 20
144.2118708998827
 30
0.0
 10
52.67712968953651
 20
144.5330956272102
 30
0.0
 10
53.0422316400352
 20
145.2050213979429
 30
0.0
 10
53.20403202582673
 20
145.5603366298218
 30
0.0
 10
53.37589223040645
 20
146.1105678511743
 30
0.0
 10
53.42147742206659
 20
146.2969716361548
 30
0.0
 10
53.48395216164144
 20
146.677106138251
 30
0.0
 10
53.5006233073899
 20
146.8727759305369
 30
0.0
 10
53.5011443505664
 20
147.4512563092113
 30
0.0
 10
53.43670204967971
 20
147.8291681481801
 30
0.0
 10
53.20685295630636
 20
148.5711361732785
 30
0.0
 10
53.04833227864328
 20
148.9198516334395
 30
0.0
 10
52.68409794874309
 20
149.5929440311726
 30
0.0
 10
52.4773617086795
 20
149.9178965184143
 30
0.0
 10
52.03942376293916
 20
150.5488203288761
 30
0.0
 10
51.80815103565961
 20
150.8547100692167
 30
0.0
 10
51.56955420515427
 20
151.1547145150362
 30
0.0
  0
LINE
  5
177
330
1F
100
AcDbEntity
  8
0
  6
HIDDEN
 62
     7
370
     0
100
AcDbLine
 10
51.5695542052
 20
142.9827924088
 30
0.0
 11
51.5695542052
 21
151.154714515
 31
0.0
  0
SPLINE
  5
178
330
1F
100
AcDbEntity
  8
0
  6
HIDDEN
 62
     7
370
     0
100
AcDbSpline
210
0.0
220
0.0
230
1.0
 70
     8
 71
     3
 72
     8
 73
     4
 74
     0
 42
0.00000001
 43
0.00000001
 12
1.0
 22
0.0
 32
0.0
 13
1.0
 23
0.0
 33
0.0
 40
0.0000249638557296
 40
0.0000249638557296
 40
0.0000249638557296
 40
0.0000249638557296
 40
0.0049776420541172
 40
0.0049776420541172
 40
0.0049776420541172
 40
0.0049776420541172
 10
46.61955420515415
 20
143.1035425651006
 30
0.0
 10
48.2695304396637
 20
143.0622633273324
 30
0.0
 10
49.91953175940872
 20
143.0220416460929
 30
0.0
 10
51.56955420515415
 20
142.9827924088379
 30
0.0
  0
SPLINE
  5
179
330
1F
100
AcDbEntity
  8
0
  6
HIDDEN
 62
     7
370
     0
100
AcDbSpline
210
0.0
220
0.0
230
1.0
 70
     8
 71
     3
 72
     8
 73
     4
 74
     0
 42
0.00000001
 43
0.00000001
 12
1.0
 22
0.0
 32
0.0
 13
1.0
 23
0.0
 33
0.0
 40
0.0000249631533152
 40
0.0000249631533152
 40
0.0000249631533152
 40
0.0000249631533152
 40
0.0049776413517029
 40
0.0049776413517029
 40
0.0049776413517029
 40
0.0049776413517029
 10
51.56955420515419
 20
151.1547145150363
 30
0.0
 10
49.91953175940873
 20
151.1154652777813
 30
0.0
 10
48.26953043966367
 20
151.0752435965418
 30
0.0
 10
46.6195542051541
 20
151.0339643587736
 30
0.0
  0
SPLINE
  5
17A
330
1F
100
AcDbEntity
  8
0
  6
HIDDEN
 62
     7
370
     0
100
AcDbSpline
210
0.0
220
0.0
230
1.0
 70
     8
 71
     3
 72
     8
 73
     4
 74
     0
 42
0.00000001
 43
0.00000001
 12
1.0
 22
0.0
 32
0.0
 13
1.0
 23
0.0
 33
0.0
 40
0.0
 40
0.0
 40
0.0
 40
0.0
 40
1.0
 40
1.0
 40
1.0
 40
1.0
 10
46.61955420515415
 20
151.0339643587736
 30
0.0
 10
46.09206236331065
 20
150.7306944698455
 30
0.0
 10
45.58631481653138
 20
150.3861040405415
 30
0.0
 10
45.11955420515422
 20
149.9707407949194
 30
0.0
  0
SPLINE
  5
17B
330
1F
100
AcDbEntity
  8
0
  6
HIDDEN
 62
     7
370
     0
100
AcDbSpline
210
0.0
220
0.0
230
1.0
 70
     8
 71
     3
 72
     8
 73
     4
 74
     0
 42
0.00000001
 43
0.00000001
 12
1.0
 22
0.0
 32
0.0
 13
1.0
 23
0.0
 33
0.0
 40
0.0
 40
0.0
 40
0.0
 40
0.0
 40
1.0
 40
1.0
 40
1.0
 40
1.0
 10
45.11955420515196
 20
144.1667661289568
 30
0.0
 10
45.58631481652975
 20
143.7514028833338
 30
0.0
 10
46.09206236330981
 20
143.4068124540292
 30
0.0
 10
46.61955420515419
 20
143.1035425651006
 30
0.0
  0
LINE
  5
17C
330
1F
100
AcDbEntity
  8
0
  6
HIDDEN
 62
     7
370
     0
100
AcDbLine
 10
45.1195542052
 20
144.166766129
 30
0.0
 11
45.1195542052
 21
149.9707407949
 31
0.0
  0
SPLINE
  5
17D
330
1F
100
AcDbEntity
  8
0
  6
HIDDEN
 62
     7
370
     0
100
AcDbSpline
210
0.0
220
0.0
230
1.0
 70
     8
 71
     3
 72
    72
 73
    68
 74
     0
 42
0.00000001
 43
0.00000001
 12
1.0
 22
0.0
 32
0.0
 13
1.0
 23
0.0
 33
0.0
 40
-0.0312499999999998
 40
-0.0312499999999998
 40
0.0
 40
0.0
 40
0.03125
 40
0.03125
 40
0.0625000000000001
 40
0.0625000000000001
 40
0.0937500000000001
 40
0.0937500000000001
 40
0.1250000000000001
 40
0.1250000000000001
 40
0.1562500000000001
 40
0.1562500000000001
 40
0.1875000000000001
 40
0.1875000000000001
 40
0.2187500000000001
 40
0.2187500000000001
 40
0.2500000000000002
 40
0.2500000000000002
 40
0.2812500000000001
 40
0.2812500000000001
 40
0.3125000000000001
 40
0.3125000000000001
 40
0.3437500000000001
 40
0.3437500000000001
 40
0.3750000000000002
 40
0.3750000000000002
 40
0.3906250000000002
 40
0.3906250000000002
 40
0.4062500000000002
 40
0.4062500000000002
 40
0.4375000000000002
 40
0.4375000000000002
 40
0.4687500000000001
 40
0.4687500000000001
 40
0.5000000000000001
 40
0.5000000000000001
 40
0.53125
 40
0.53125
 40
0.5625
 40
0.5625
 40
0.5937500000000001
 40
0.5937500000000001
 40
0.6250000000000001
 40
0.6250000000000001
 40
0.6562500000000001
 40
0.6562500000000001
 40
0.6875000000000001
 40
0.6875000000000001
 40
0.7187500000000002
 40
0.7187500000000002
 40
0.7500000000000002
 40
0.7500000000000002
 40
0.7812500000000002
 40
0.7812500000000002
 40
0.8125000000000002
 40
0.8125000000000002
 40
0.8437500000000003
 40
0.8437500000000003
 40
0.8750000000000003
 40
0.8750000000000003
 40
0.9062500000000003
 40
0.9062500000000003
 40
0.9375000000000002
 40
0.9375000000000002
 40
0.9687500000000002
 40
0.9687500000000002
 40
1.0
 40
1.0
 40
1.03125
 40
1.03125
 10
64.24350052397934
 20
149.5095871117519
 30
0.0
 10
64.61793074385325
 20
149.9199429122371
 30
0.0
 10
64.82278334511882
 20
150.1035919948956
 30
0.0
 10
65.26565154196581
 20
150.4305468983909
 30
0.0
 10
65.50560695928415
 20
150.5743251065708
 30
0.0
 10
66.0012179420587
 20
150.8118424620166
 30
0.0
 10
66.25848423321318
 20
150.9071620269144
 30
0.0
 10
66.79183800105024
 20
151.0512475595488
 30
0.0
 10
67.06611814094855
 20
151.0989835665184
 30
0.0
 10
67.61254667552811
 20
151.1445657070522
 30
0.0
 10
67.88712299399585
 20
151.14313194698
 30
0.0
 10
68.43909016826656
 20
151.0902186388891
 30
0.0
 10
68.70970713083825
 20
151.0392489126849
 30
0.0
 10
69.23599230191745
 20
150.8906422857413
 30
0.0
 10
69.49362386532505
 20
150.7923569149842
 30
0.0
 10
69.98955002999854
 20
150.5481035557985
 30
0.0
 10
70.22253370779016
 20
150.4050234247763
 30
0.0
 10
70.65886698311513
 20
150.0771648743075
 30
0.0
 10
70.8641482369734
 20
149.8901712366073
 30
0.0
 10
71.23218253483358
 20
149.4807406167843
 30
0.0
 10
71.39369752481876
 20
149.2606351757998
 30
0.0
 10
71.6708552079659
 20
148.7888850943618
 30
0.0
 10
71.78724938739958
 20
148.5338685679206
 30
0.0
 10
71.96052342404622
 20
148.0126307445236
 30
0.0
 10
72.01896997851198
 20
147.7451466267426
 30
0.0
 10
72.06283470398786
 20
147.3332309674102
 30
0.0
 10
72.07001492061723
 20
147.1935236643347
 30
0.0
 10
72.06904689332177
 20
146.9174006088723
 30
0.0
 10
72.06104410390813
 20
146.7802240425415
 30
0.0
 10
72.01497137199573
 20
146.3712906012782
 30
0.0
 10
71.9540365395437
 20
146.099364352274
 30
0.0
 10
71.77591638313518
 20
145.5761838358189
 30
0.0
 10
71.6603484717928
 20
145.3274718354556
 30
0.0
 10
71.37850168785351
 20
144.8545873104636
 30
0.0
 10
71.21163174243887
 20
144.6309780932315
 30
0.0
 10
70.8423061876401
 20
144.2263207050439
 30
0.0
 10
70.63752103134263
 20
144.0419071168743
 30
0.0
 10
70.19286808382644
 20
143.7128810819799
 30
0.0
 10
69.95801895431565
 20
143.5717130059917
 30
0.0
 10
69.46460919183863
 20
143.3333034772112
 30
0.0
 10
69.20332223813399
 20
143.2355209208064
 30
0.0
 10
68.67258395762133
 20
143.0901928926162
 30
0.0
 10
68.40294425672408
 20
143.0419035024212
 30
0.0
 10
67.85519291697887
 20
142.9934882786346
 30
0.0
 10
67.57528887512025
 20
142.9939464642706
 30
0.0
 10
67.02821096728526
 20
143.0440983198727
 30
0.0
 10
66.75860586259782
 20
143.0932718869047
 30
0.0
 10
66.22745110594175
 20
143.2409464102117
 30
0.0
 10
65.96615628949819
 20
143.3401015745773
 30
0.0
 10
65.47384231132281
 20
143.581114345054
 30
0.0
 10
65.23988543574418
 20
143.7236024696788
 30
0.0
 10
64.79771681521372
 20
144.0550898986637
 30
0.0
 10
64.59252328410203
 20
144.2425235266521
 30
0.0
 10
64.22682906774405
 20
144.6494272457025
 30
0.0
 10
64.06405844535567
 20
144.8706063203715
 30
0.0
 10
63.78310601459011
 20
145.3503536495868
 30
0.0
 10
63.66990216231659
 20
145.6003656163971
 30
0.0
 10
63.49729343817766
 20
146.1204408264175
 30
0.0
 10
63.43768715550127
 20
146.3941722910473
 30
0.0
 10
63.37979538543141
 20
146.9427899409457
 30
0.0
 10
63.38058492429138
 20
147.2171298048373
 30
0.0
 10
63.44177539990779
 20
147.7658717559763
 30
0.0
 10
63.50290412364183
 20
148.0389370698335
 30
0.0
 10
63.67898380927164
 20
148.5591023186018
 30
0.0
 10
63.79531440426162
 20
148.8114214521608
 30
0.0
 10
64.07851563400236
 20
149.2878257935677
 30
0.0
 10
64.24350052397934
 20
149.5095871117519
 30
0.0
 10
64.61793074385325
 20
149.9199429122371
 30
0.0
  0
CIRCLE
  5
17E
330
1F
100
AcDbEntity
  8
0
  6
HIDDEN
 62
     7
370
     0
100
AcDbCircle
 10
67.6195542052
 20
147.0687534619
 30
0.0
 40
4.050000000000011
  0
LINE
  5
17F
330
1F
100
AcDbEntity
  8
0
  6
HIDDEN
 62
     7
370
     0
100
AcDbLine
 10
255.5584240099
 20
154.0687534619
 30
0.0
 11
253.2838537875
 21
147.0687534619
 31
0.0
  0
CIRCLE
  5
180
330
1F
100
AcDbEntity
  8
0
  6
HIDDEN
 62
     7
370
     0
100
AcDbCircle
 10
95.1195542052
 20
147.0687534619
 30
0.0
 40
2.0
  0
LINE
  5
181
330
1F
100
AcDbEntity
  8
0
  6
HIDDEN
 62
     7
370
     0
100
AcDbLine
 10
83.1195542052
 20
122.8187534619
 30
0.0
 11
83.212447424
 21
122.9116466808
 31
0.0
  0
LINE
  5
182
330
1F
100
AcDbEntity
  8
0
  6
HIDDEN
 62
     7
370
     0
100
AcDbLine
 10
83.212447424
 20
171.2258602431
 30
0.0
 11
83.1195542052
 21
171.3187534619
 31
0.0
  0
ARC
  5
183
330
1F
100
AcDbEntity
  8
0
  6
HIDDEN
 62
     7
370
     0
100
AcDbCircle
 10
82.5053406428
 20
123.6187534619
 30
0.0
 40
1.000000000000008
100
AcDbArc
 50
315.0
 51
0.0
  0
ARC
  5
184
330
1F
100
AcDbEntity
  8
0
  6
HIDDEN
 62
     7
370
     0
100
AcDbCircle
 10
82.5053406428
 20
123.6187534619
 30
0.0
 40
1.0
100
AcDbArc
 50
0.0
 51
52.1052014664
  0
ARC
  5
185
330
1F
100
AcDbEntity
  8
0
  6
HIDDEN
 62
     7
370
     0
100
AcDbCircle
 10
82.5053406428
 20
170.5187534619
 30
0.0
 40
0.999999999999998
100
AcDbArc
 50
351.8087250651
 51
45.0
  0
ARC
  5
186
330
1F
100
AcDbEntity
  8
0
  6
HIDDEN
 62
     7
370
     0
100
AcDbCircle
 10
82.5053406428
 20
170.5187534619
 30
0.0
 40
1.000000000000004
100
AcDbArc
 50
307.8947985336
 51
351.8087250651
  0
LINE
  5
187
330
1F
100
AcDbEntity
  8
0
  6
HIDDEN
 62
     7
370
     0
100
AcDbLine
 10
83.5053406428
 20
123.6187534619
 30
0.0
 11
83.5053406428
 21
170.5187534619
 31
0.0
  0
LINE
  5
188
330
1F
100
AcDbEntity
  8
0
  6
HIDDEN
 62
     7
370
     0
100
AcDbLine
 10
83.5053406428
 20
123.6187534619
 30
0.0
 11
83.5053406428
 21
170.5187534619
 31
0.0
  0
LINE
  5
189
330
1F
100
AcDbEntity
  8
0
  6
HIDDEN
 62
     7
370
     0
100
AcDbLine
 10
228.8345010749
 20
156.3223463553
 30
0.0
 11
217.6199077502
 21
149.2645276528
 31
0.0
  0
LINE
  5
18A
330
1F
100
AcDbEntity
  8
0
  6
HIDDEN
 62
     7
370
     0
100
AcDbLine
 10
221.107025327
 20
145.5513443351
 30
0.0
 11
228.9548295757
 21
150.4903000329
 31
0.0
  0
LINE
  5
18B
330
1F
100
AcDbEntity
  8
0
  6
HIDDEN
 62
     7
370
     0
100
AcDbLine
 10
45.1195542052
 20
130.8723246175
 30
0.0
 11
46.6497826448
 21
131.755802419
 31
0.0
  0
LINE
  5
18C
330
1F
100
AcDbEntity
  8
0
  6
HIDDEN
 62
     7
370
     0
100
AcDbLine
 10
46.6497826448
 20
162.3817045048
 30
0.0
 11
45.1195542052
 21
163.2651823064
 31
0.0
  0
ARC
  5
18D
330
1F
100
AcDbEntity
  8
0
  6
HIDDEN
 62
     7
370
     0
100
AcDbCircle
 10
56.12135552
 20
133.0687534619
 30
0.0
 40
2.000000000000056
100
AcDbArc
 50
270.0
 51
315.0
  0
ARC
  5
18E
330
1F
100
AcDbEntity
  8
0
  6
HIDDEN
 62
     7
370
     0
100
AcDbCircle
 10
56.12135552
 20
161.0687534619
 30
0.0
 40
2.000000000000016
100
AcDbArc
 50
45.0
 51
90.0
  0
LINE
  5
18F
330
1F
100
AcDbEntity
  8
0
  6
HIDDEN
 62
     7
370
     0
100
AcDbLine
 10
55.1195542052
 20
131.0687534619
 30
0.0
 11
56.12135552
 21
131.0687534619
 31
0.0
  0
LINE
  5
190
330
1F
100
AcDbEntity
  8
0
  6
HIDDEN
 62
     7
370
     0
100
AcDbLine
 10
56.12135552
 20
163.0687534619
 30
0.0
 11
55.1195542052
 21
163.0687534619
 31
0.0
  0
ARC
  5
191
330
1F
100
AcDbEntity
  8
0
  6
HIDDEN
 62
     7
370
     0
100
AcDbCircle
 10
55.1195542052
 20
133.0687534619
 30
0.0
 40
2.000000000000001
100
AcDbArc
 50
189.9742217944
 51
270.0
  0
ARC
  5
192
330
1F
100
AcDbEntity
  8
0
  6
HIDDEN
 62
     7
370
     0
100
AcDbCircle
 10
55.1195542052
 20
161.0687534619
 30
0.0
 40
2.0
100
AcDbArc
 50
90.0
 51
170.0257782056
  0
LINE
  5
193
330
1F
100
AcDbEntity
  8
0
  6
HIDDEN
 62
     7
370
     0
100
AcDbLine
 10
57.5355690824
 20
131.6545398996
 30
0.0
 11
58.9497826448
 21
133.0687534619
 31
0.0
  0
LINE
  5
194
330
1F
100
AcDbEntity
  8
0
  6
HIDDEN
 62
     7
370
     0
100
AcDbLine
 10
58.9497826448
 20
161.0687534619
 30
0.0
 11
57.5355690824
 21
162.4829670243
 31
0.0
  0
LINE
  5
195
330
1F
100
AcDbEntity
  8
0
  6
HIDDEN
 62
     7
370
     0
100
AcDbLine
 10
46.6497826448
 20
131.755802419
 30
0.0
 11
51.5497826448
 21
133.0687534619
 31
0.0
  0
LINE
  5
196
330
1F
100
AcDbEntity
  8
0
  6
HIDDEN
 62
     7
370
     0
100
AcDbLine
 10
51.5497826448
 20
161.0687534619
 30
0.0
 11
46.6497826448
 21
162.3817045048
 31
0.0
  0
LINE
  5
197
330
1F
100
AcDbEntity
  8
0
  6
HIDDEN
 62
     7
370
     0
100
AcDbLine
 10
53.1497826448
 20
161.4151636235
 30
0.0
 11
52.5497826448
 21
161.0687534619
 31
0.0
  0
LINE
  5
198
330
1F
100
AcDbEntity
  8
0
  6
HIDDEN
 62
     7
370
     0
100
AcDbLine
 10
52.5497826448
 20
133.0687534619
 30
0.0
 11
53.1497826448
 21
132.7223433004
 31
0.0
  0
ARC
  5
199
330
1F
100
AcDbEntity
  8
0
  6
HIDDEN
 62
     7
370
     0
100
AcDbCircle
 10
71.6195542052
 20
133.5687534619
 30
0.0
 40
0.5
100
AcDbArc
 50
270.0
 51
0.0
  0
ARC
  5
19A
330
1F
100
AcDbEntity
  8
0
  6
HIDDEN
 62
     7
370
     0
100
AcDbCircle
 10
71.6195542052
 20
160.5687534619
 30
0.0
 40
0.5
100
AcDbArc
 50
0.0
 51
90.0
  0
LINE
  5
19B
330
1F
100
AcDbEntity
  8
0
  6
HIDDEN
 62
     7
370
     0
100
AcDbLine
 10
51.5497826448
 20
133.0687534619
 30
0.0
 11
52.5497826448
 21
133.0687534619
 31
0.0
  0
LINE
  5
19C
330
1F
100
AcDbEntity
  8
0
  6
HIDDEN
 62
     7
370
     0
100
AcDbLine
 10
52.5497826448
 20
161.0687534619
 30
0.0
 11
51.5497826448
 21
161.0687534619
 31
0.0
  0
LINE
  5
19D
330
1F
100
AcDbEntity
  8
0
  6
HIDDEN
 62
     7
370
     0
100
AcDbLine
 10
58.9497826448
 20
133.0687534619
 30
0.0
 11
71.6195542052
 21
133.0687534619
 31
0.0
  0
LINE
  5
19E
330
1F
100
AcDbEntity
  8
0
  6
HIDDEN
 62
     7
370
     0
100
AcDbLine
 10
71.6195542052
 20
161.0687534619
 30
0.0
 11
58.9497826448
 21
161.0687534619
 31
0.0
  0
LINE
  5
19F
330
1F
100
AcDbEntity
  8
0
  6
HIDDEN
 62
     7
370
     0
100
AcDbLine
 10
72.1195542052
 20
136.8187534619
 30
0.0
 11
73.3695542052
 21
138.0687534619
 31
0.0
  0
LINE
  5
1A0
330
1F
100
AcDbEntity
  8
0
  6
HIDDEN
 62
     7
370
     0
100
AcDbLine
 10
73.3695542052
 20
156.0687534619
 30
0.0
 11
72.1195542052
 21
157.3187534619
 31
0.0
  0
LINE
  5
1A1
330
1F
100
AcDbEntity
  8
0
  6
HIDDEN
 62
     7
370
     0
100
AcDbLine
 10
99.1195542052
 20
138.0687534619
 30
0.0
 11
101.9736421455
 21
142.8187534619
 31
0.0
  0
LINE
  5
1A2
330
1F
100
AcDbEntity
  8
0
  6
HIDDEN
 62
     7
370
     0
100
AcDbLine
 10
101.9736421455
 20
151.3187534619
 30
0.0
 11
99.1195542052
 21
156.0687534619
 31
0.0
  0
LINE
  5
1A3
330
1F
100
AcDbEntity
  8
0
  6
HIDDEN
 62
     7
370
     0
100
AcDbLine
 10
73.3695542052
 20
138.0687534619
 30
0.0
 11
99.1195542052
 21
138.0687534619
 31
0.0
  0
LINE
  5
1A4
330
1F
100
AcDbEntity
  8
0
  6
HIDDEN
 62
     7
370
     0
100
AcDbLine
 10
99.1195542052
 20
156.0687534619
 30
0.0
 11
73.3695542052
 21
156.0687534619
 31
0.0
  0
LINE
  5
1A5
330
1F
100
AcDbEntity
  8
0
  6
HIDDEN
 62
     7
370
     0
100
AcDbLine
 10
244.7204836845
 20
152.4132342088
 30
0.0
 11
244.2244730426
 21
151.4320519477
 31
0.0
  0
LINE
  5
1A6
330
1F
100
AcDbEntity
  8
0
  6
HIDDEN
 62
     7
370
     0
100
AcDbLine
 10
250.4716002472
 20
148.2739826498
 30
0.0
 11
250.967610889
 21
149.2551649109
 31
0.0
  0
LINE
  5
1A7
330
1F
100
AcDbEntity
  8
0
  6
HIDDEN
 62
     7
370
     0
100
AcDbLine
 10
241.3739513862
 20
158.3383582927
 30
0.0
 11
240.4101989549
 21
156.4319137329
 31
0.0
  0
LINE
  5
1A8
330
1F
100
AcDbEntity
  8
0
  6
HIDDEN
 62
     7
370
     0
100
AcDbLine
 10
101.9736421455
 20
142.8187534619
 30
0.0
 11
223.1195542052
 21
142.8187534619
 31
0.0
  0
LINE
  5
1A9
330
1F
100
AcDbEntity
  8
0
  6
HIDDEN
 62
     7
370
     0
100
AcDbLine
 10
223.1195542052
 20
151.3187534619
 30
0.0
 11
101.9736421455
 21
151.3187534619
 31
0.0
  0
LINE
  5
1AA
330
1F
100
AcDbEntity
  8
0
  6
HIDDEN
 62
     7
370
     0
100
AcDbLine
 10
223.1195542052
 20
142.8187534619
 30
0.0
 11
225.673211836
 21
147.0687534619
 31
0.0
  0
LINE
  5
1AB
330
1F
100
AcDbEntity
  8
0
  6
HIDDEN
 62
     7
370
     0
100
AcDbLine
 10
225.673211836
 20
147.0687534619
 30
0.0
 11
223.1195542052
 21
151.3187534619
 31
0.0
  0
LINE
  5
1AC
330
1F
100
AcDbEntity
  8
0
  6
HIDDEN
 62
     7
370
     0
100
AcDbLine
 10
250.232065352
 20
150.5617943274
 30
0.0
 11
253.4259899274
 21
157.8261716187
 31
0.0
  0
LINE
  5
1AD
330
1F
100
AcDbEntity
  8
0
  6
HIDDEN
 62
     7
370
     0
100
AcDbLine
 10
243.5731286477
 20
151.6951774945
 30
0.0
 11
241.2190944531
 21
147.0385504003
 31
0.0
  0
LINE
  5
1AE
330
1F
100
AcDbEntity
  8
0
  6
HIDDEN
 62
     7
370
     0
100
AcDbLine
 10
248.7527660528
 20
143.3222940132
 30
0.0
 11
251.0696812932
 21
147.905494337
 31
0.0
  0
LINE
  5
1AF
330
1F
100
AcDbEntity
  8
0
  6
HIDDEN
 62
     7
370
     0
100
AcDbLine
 10
249.8682355933
 20
164.3790119214
 30
0.0
 11
249.2097062747
 21
163.0763437298
 31
0.0
  0
LINE
  5
1B0
330
1F
100
AcDbEntity
  8
0
  6
HIDDEN
 62
     7
370
     0
100
AcDbLine
 10
254.9213654331
 20
160.1889660861
 30
0.0
 11
255.5798947517
 21
161.4916342776
 31
0.0
  0
LINE
  5
1B1
330
1F
100
AcDbEntity
  8
0
  6
HIDDEN
 62
     7
370
     0
100
AcDbLine
 10
249.348085287
 20
161.4725192504
 30
0.0
 11
246.8693434832
 21
155.8347794589
 31
0.0
  0
LINE
  5
1B2
330
1F
100
AcDbEntity
  8
VERMASSUNG
  6
CENTERX2
100
AcDbLine
 10
42.2680298357
 20
147.0687534619
 30
0.0
 11
263.1195542052
 21
147.0687534619
 31
0.0
  0
LINE
  5
1B3
330
1F
100
AcDbEntity
  8
VERMASSUNG
  6
CENTERX2
100
AcDbLine
 10
263.1195542052
 20
147.0687534619
 30
0.0
 11
263.1195542052
 21
174.0687534619
 31
0.0
  0
LINE
  5
1B4
330
1F
100
AcDbEntity
  8
VERMASSUNG
  6
CENTERX2
100
AcDbLine
 10
263.1195542052
 20
174.0687534619
 30
0.0
 11
282.8852569409
 21
174.0687534619
 31
0.0
  0
DIMENSION
  5
1B5
330
1F
100
AcDbEntity
  8
VERMASSUNG
100
AcDbDimension
  2
_D
 10
280.8947259563
 20
174.0687534619
 30
0.0
 11
280.8947259563
 21
160.5687534619
 31
0.0
 70
   160
  1
<>
 71
     2
 42
-1.0
  3
SLDDIMSTYLE0
100
AcDbAlignedDimension
 13
263.1195542052
 23
147.0687534619
 33
0.0
 14
263.1195542052
 24
174.0687534619
 34
0.0
 50
90.0
100
AcDbRotatedDimension
  0
DIMENSION
  5
1C0
330
1F
100
AcDbEntity
  8
VERMASSUNG
100
AcDbDimension
  2
_D_1
 10
263.1195542052
 20
174.0687534619
 30
0.0
 11
269.4067664649
 21
165.6906520829
 31
0.0
 70
   162
  1
<>
 71
     1
 42
-1.0
  3
SLDDIMSTYLE1
100
AcDb2LineAngularDimension
 13
263.1029579917
 23
173.5559345701
 33
0.0
 14
258.8482154399
 24
160.0693036855
 34
0.0
 15
282.8852569409
 25
174.0687534619
 35
0.0
 16
269.4067664649
 26
165.6906520829
 36
0.0
  0
DIMENSION
  5
1C9
330
1F
100
AcDbEntity
  8
VERMASSUNG
100
AcDbDimension
  2
_D_2
 10
263.1195542052
 20
188.5687534619
 30
0.0
 11
173.1195542052
 21
188.5687534619
 31
0.0
 70
   160
  1
<>
 71
     2
 42
-1.0
  3
SLDDIMSTYLE0
100
AcDbAlignedDimension
 13
83.1195542052
 23
178.0687534619
 33
0.0
 14
263.1195542052
 24
174.0687534619
 34
0.0
100
AcDbRotatedDimension
  0
DIMENSION
  5
1D3
330
1F
100
AcDbEntity
  8
VERMASSUNG
100
AcDbDimension
  2
_D_3
 10
45.1195542052
 20
197.0897586352
 30
0.0
 11
154.1195542052
 21
197.0897586352
 31
0.0
 70
   160
  1
<>
 71
     2
 42
-1.0
  3
SLDDIMSTYLE0
100
AcDbAlignedDimension
 13
263.1195542052
 23
174.0687534619
 33
0.0
 14
45.1195542052
 24
167.3610914544
 34
0.0
100
AcDbRotatedDimension
  0
DIMENSION
  5
1DD
330
1F
100
AcDbEntity
  8
VERMASSUNG
100
AcDbDimension
  2
_D_4
 10
136.3710079384
 20
167.0687534619
 30
0.0
 11
136.3710079384
 21
157.2178062787
 31
0.0
 70
   160
  1
%%c<>
 71
     2
 42
-1.0
  3
SLDDIMSTYLE0
100
AcDbAlignedDimension
 13
109.1195542052
 23
127.0687534619
 33
0.0
 14
109.1195542052
 24
167.0687534619
 34
0.0
 50
90.0
100
AcDbRotatedDimension
  0
DIMENSION
  5
1E6
330
1F
100
AcDbEntity
  8
VERMASSUNG
100
AcDbDimension
  2
_D_5
 10
35.1195542052
 20
115.5687534619
 30
0.0
 11
35.1195542052
 21
147.0687534619
 31
0.0
 70
   160
  1
PSC%%c<>
 71
     2
 42
-1.0
  3
SLDDIMSTYLE0
100
AcDbAlignedDimension
 13
83.6195542052
 23
178.5687534619
 33
0.0
 14
83.6195542052
 24
115.5687534619
 34
0.0
 50
90.0
100
AcDbRotatedDimension
  0
LINE
  5
1F2
330
1F
100
AcDbEntity
  8
0
  6
Continuous
 62
     7
370
    15
100
AcDbLine
 10
181.4931481565
 20
99.1178191169
 30
0.0
 11
175.3159366995
 21
100.4308259449
 31
0.0
  0
LINE
  5
1F3
330
1F
100
AcDbEntity
  8
0
  6
Continuous
 62
     7
370
    15
100
AcDbLine
 10
174.6584424712
 20
97.6934179606
 30
0.0
 11
174.1714618741
 21
97.1419936455
 31
0.0
  0
LINE
  5
1F4
330
1F
100
AcDbEntity
  8
0
  6
Continuous
 62
     7
370
    15
100
AcDbLine
 10
170.5923900357
 20
85.3978560902
 30
0.0
 11
170.8553239896
 21
84.5613283447
 31
0.0
  0
LINE
  5
1F5
330
1F
100
AcDbEntity
  8
0
  6
Continuous
 62
     7
370
    15
100
AcDbLine
 10
169.4851415044
 20
82.1011110977
 30
0.0
 11
169.7931371902
 21
82.0356445937
 31
0.0
  0
LINE
  5
1F6
330
1F
100
AcDbEntity
  8
0
  6
Continuous
 62
     7
370
    15
100
AcDbLine
 10
184.133924764
 20
98.2244696083
 30
0.0
 11
181.4657907891
 21
98.791598992
 31
0.0
  0
LINE
  5
1F7
330
1F
100
AcDbEntity
  8
0
  6
Continuous
 62
     7
370
    15
100
AcDbLine
 10
184.3701043269
 20
97.8636021436
 30
0.0
 11
184.1435194903
 21
98.2167676571
 31
0.0
  0
LWPOLYLINE
  5
1F8
330
1F
100
AcDbEntity
  8
0
  6
Continuous
 62
     7
370
    15
100
AcDbPolyline
 90
       25
 70
   128
 43
0.0
 10
169.8894576095
 20
79.8314914051
 10
169.8181820896
 20
79.1762744312
 10
169.6977439729
 20
78.3859892349
 10
169.5363509179
 20
77.5144924463
 10
169.3450015946
 20
76.6211751313
 10
169.1367361433
 20
75.7669153886
 10
168.9257475101
 20
75.0099296081
 10
168.7264142219
 20
74.4018051196
 10
168.5523205127
 20
73.9839846021
 10
168.4153305812
 20
73.7849418334
 10
168.3247800648
 20
73.8182412492
 10
168.2868398315
 20
74.0816135493
 10
168.3040954456
 20
74.5571103468
 10
168.3753709655
 20
75.2123273207
 10
168.4958090822
 20
76.002612517
 10
168.6572021372
 20
76.8741093057
 10
168.8485514604
 20
77.7674266207
 10
169.0568169118
 20
78.6216863633
 10
169.267805545
 20
79.3786721438
 10
169.4671388332
 20
79.9867966323
 10
169.6412325424
 20
80.4046171498
 10
169.7782224739
 20
80.6036599186
 10
169.8687729903
 20
80.5703605028
 10
169.9067132236
 20
80.3069882026
 10
169.8894576095
 20
79.8314914051
  0
LWPOLYLINE
  5
1F9
330
1F
100
AcDbEntity
  8
0
  6
Continuous
 62
     7
370
    15
100
AcDbPolyline
 90
       19
 70
   128
 43
0.0
 10
169.5497371458
 20
78.7012668926
 10
169.4889943528
 20
78.1834720221
 10
169.3809443016
 20
77.5463685127
 10
169.238619423
 20
76.8668004504
 10
169.0791861978
 20
76.2267337728
 10
168.921874626
 20
75.7033699676
 10
168.7856588048
 20
75.3598344338
 10
168.6869683725
 20
75.2375626267
 10
168.6377068519
 20
75.3513023308
 10
168.6438159093
 20
75.6873348593
 10
168.7045587022
 20
76.2051297298
 10
168.8126087534
 20
76.8422332392
 10
168.954933632
 20
77.5218013015
 10
169.1143668572
 20
78.1618679791
 10
169.2716784291
 20
78.6852317843
 10
169.4078942503
 20
79.0287673182
 10
169.5065846825
 20
79.1510391253
 10
169.5558462032
 20
79.0372994211
 10
169.5497371458
 20
78.7012668926
  0
LINE
  5
1FA
330
1F
100
AcDbEntity
  8
0
  6
Continuous
 62
     7
370
    15
100
AcDbLine
 10
169.492713431
 20
78.2091155606
 30
0.0
 11
169.4420720233
 21
78.2198797241
 31
0.0
  0
LINE
  5
1FB
330
1F
100
AcDbEntity
  8
0
  6
Continuous
 62
     7
370
    15
100
AcDbLine
 10
169.1577692803
 20
76.5283889757
 30
0.0
 11
169.0600328528
 21
76.5491634947
 31
0.0
  0
LINE
  5
1FC
330
1F
100
AcDbEntity
  8
0
  6
Continuous
 62
     7
370
    15
100
AcDbLine
 10
169.5017067185
 20
82.1173252312
 30
0.0
 11
171.8423186861
 21
86.1778911133
 31
0.0
  0
LWPOLYLINE
  5
1FD
330
1F
100
AcDbEntity
  8
0
  6
Continuous
 62
     7
370
    15
100
AcDbPolyline
 90
        9
 70
   128
 43
0.0
 10
169.5537136528
 20
82.6159011564
 10
169.5296027195
 20
82.5113172099
 10
169.5083523484
 20
82.4053328905
 10
169.4915331488
 20
82.3057814703
 10
169.4803882229
 20
82.2200207674
 10
169.4757412892
 20
82.1543893321
 10
169.4779358014
 20
82.1137379657
 10
169.4868095636
 20
82.1010711997
 10
169.5017067185
 20
82.1173252312
  0
LINE
  5
1FE
330
1F
100
AcDbEntity
  8
0
  6
Continuous
 62
     7
370
    15
100
AcDbLine
 10
172.8775675276
 20
96.102532041
 30
0.0
 11
169.5537136528
 21
82.6159011564
 31
0.0
  0
ARC
  5
1FF
330
1F
100
AcDbEntity
  8
0
  6
Continuous
 62
     7
370
    15
100
AcDbCircle
 10
174.102791571
 20
95.8458754746
 30
0.0
 40
1.251817298810331
100
AcDbArc
 50
156.0495665456
 51
168.1689100562
  0
LINE
  5
200
330
1F
100
AcDbEntity
  8
0
  6
Continuous
 62
     7
370
    15
100
AcDbLine
 10
175.2993714854
 20
100.4146118114
 30
0.0
 11
172.9587595178
 21
96.3540459293
 31
0.0
  0
LWPOLYLINE
  5
201
330
1F
100
AcDbEntity
  8
0
  6
Continuous
 62
     7
370
    15
100
AcDbPolyline
 90
        9
 70
   128
 43
0.0
 10
175.2473645511
 20
99.9160358862
 10
175.2714754844
 20
100.0206198327
 10
175.2927258554
 20
100.1266041521
 10
175.3095450551
 20
100.2261555723
 10
175.320689981
 20
100.3119162752
 10
175.3253369147
 20
100.3775477105
 10
175.3231424025
 20
100.4181990768
 10
175.3142686403
 20
100.4308658429
 10
175.2993714854
 20
100.4146118114
  0
LINE
  5
202
330
1F
100
AcDbEntity
  8
0
  6
Continuous
 62
     7
370
    15
100
AcDbLine
 10
171.9235106763
 20
86.4294050016
 30
0.0
 11
175.2473645511
 21
99.9160358862
 31
0.0
  0
ARC
  5
203
330
1F
100
AcDbEntity
  8
0
  6
Continuous
 62
     7
370
    15
100
AcDbCircle
 10
170.6982866329
 20
86.6860615679
 30
0.0
 40
1.251817298813518
100
AcDbArc
 50
336.0495665456
 51
348.1689100562
  0
LWPOLYLINE
  5
204
330
1F
100
AcDbEntity
  8
0
  6
Continuous
 62
     7
370
    15
100
AcDbPolyline
 90
        9
 70
   128
 43
0.0
 10
175.2466349245
 20
99.9222124371
 10
175.2695403112
 20
100.0215671863
 10
175.2897281637
 20
100.1222522897
 10
175.3057064034
 20
100.216826139
 10
175.316294083
 20
100.2982988067
 10
175.3207086699
 20
100.3606486702
 10
175.3186238834
 20
100.3992674683
 10
175.3101938093
 20
100.411300896
 10
175.2960415122
 20
100.3958595661
  0
LINE
  5
205
330
1F
100
AcDbEntity
  8
0
  6
Continuous
 62
     7
370
    15
100
AcDbLine
 10
175.2960415122
 20
100.3958595661
 30
0.0
 11
172.9554295447
 21
96.3352936837
 31
0.0
  0
ARC
  5
206
330
1F
100
AcDbEntity
  8
0
  6
Continuous
 62
     7
370
    15
100
AcDbCircle
 10
174.0422600083
 20
95.8525317466
 30
0.0
 40
1.189226447984021
100
AcDbArc
 50
156.0495665769
 51
168.1689099304
  0
LINE
  5
207
330
1F
100
AcDbEntity
  8
0
  6
Continuous
 62
     7
370
    15
100
AcDbLine
 10
172.8782971538
 20
96.0963554901
 30
0.0
 11
169.554443279
 21
82.6097246055
 31
0.0
  0
LWPOLYLINE
  5
208
330
1F
100
AcDbEntity
  8
0
  6
Continuous
 62
     7
370
    15
100
AcDbPolyline
 90
        9
 70
   128
 43
0.0
 10
169.554443279
 20
82.6097246055
 10
169.5315378924
 20
82.5103698564
 10
169.5113500399
 20
82.4096847529
 10
169.4953718002
 20
82.3151109037
 10
169.4847841206
 20
82.233638236
 10
169.4803695336
 20
82.1712883724
 10
169.4824543202
 20
82.1326695744
 10
169.4908843943
 20
82.1206361466
 10
169.5050366914
 20
82.1360774766
  0
LINE
  5
209
330
1F
100
AcDbEntity
  8
0
  6
Continuous
 62
     7
370
    15
100
AcDbLine
 10
169.5050366914
 20
82.1360774766
 30
0.0
 11
171.845648659
 21
86.1966433586
 31
0.0
  0
ARC
  5
20A
330
1F
100
AcDbEntity
  8
0
  6
Continuous
 62
     7
370
    15
100
AcDbCircle
 10
170.7588182085
 20
86.6794052906
 30
0.0
 40
1.189226433870181
100
AcDbArc
 50
336.0495665456
 51
348.1689100562
  0
LINE
  5
20B
330
1F
100
AcDbEntity
  8
0
  6
Continuous
 62
     7
370
    15
100
AcDbLine
 10
171.9227810498
 20
86.4355815525
 30
0.0
 11
175.2466349245
 21
99.9222124371
 31
0.0
  0
ARC
  5
20C
330
1F
100
AcDbEntity
  8
0
  6
Continuous
 62
     7
370
    15
100
AcDbCircle
 10
180.3451967391
 20
99.0087688814
 30
0.0
 40
1.153119425962694
100
AcDbArc
 50
339.398705673
 51
5.4265577983
  0
LINE
  5
20D
330
1F
100
AcDbEntity
  8
0
  6
Continuous
 62
     7
370
    15
100
AcDbLine
 10
175.3193895992
 20
100.3334040734
 30
0.0
 11
175.2960415122
 21
100.3958595661
 31
0.0
  0
LINE
  5
20E
330
1F
100
AcDbEntity
  8
0
  6
Continuous
 62
     7
370
    15
100
AcDbLine
 10
178.1007221334
 20
85.1163981736
 30
0.0
 11
181.4245760081
 21
98.6030290582
 31
0.0
  0
LINE
  5
20F
330
1F
100
AcDbEntity
  8
0
  6
Continuous
 62
     7
370
    15
100
AcDbLine
 10
173.1055832971
 20
95.9336365121
 30
0.0
 11
172.9554295447
 21
96.3352936837
 31
0.0
  0
LINE
  5
210
330
1F
100
AcDbEntity
  8
0
  6
Continuous
 62
     7
370
    15
100
AcDbLine
 10
173.2802507338
 20
95.6012729882
 30
0.0
 11
173.1055832971
 21
95.9336365121
 31
0.0
  0
LWPOLYLINE
  5
211
330
1F
100
AcDbEntity
  8
0
  6
Continuous
 62
     7
370
    15
100
AcDbPolyline
 90
        9
 70
   128
 43
0.0
 10
174.0221188467
 20
95.867406961
 10
174.0823961799
 20
96.1288668274
 10
174.1355221075
 20
96.3938276259
 10
174.1775701068
 20
96.6427061766
 10
174.2054324215
 20
96.8571079338
 10
174.2170497556
 20
97.0211865222
 10
174.2115634751
 20
97.1228149381
 10
174.1893790696
 20
97.1544818533
 10
174.1521361823
 20
97.1138467742
  0
LWPOLYLINE
  5
212
330
1F
100
AcDbEntity
  8
0
  6
Continuous
 62
     7
370
    15
100
AcDbPolyline
 90
        3
 70
   128
 43
0.0
 10
174.6542103599
 20
97.6804747574
 10
174.6784954259
 20
97.7143219166
 10
174.7004393931
 20
97.749632065
  0
LINE
  5
213
330
1F
100
AcDbEntity
  8
0
  6
Continuous
 62
     7
370
    15
100
AcDbLine
 10
172.1618779384
 20
88.3194269871
 30
0.0
 11
174.0221188467
 21
95.867406961
 31
0.0
  0
LINE
  5
214
330
1F
100
AcDbEntity
  8
0
  6
Continuous
 62
     7
370
    15
100
AcDbLine
 10
170.6489420212
 20
85.4180902684
 30
0.0
 11
171.9588979628
 21
87.6906422663
 31
0.0
  0
LWPOLYLINE
  5
215
330
1F
100
AcDbEntity
  8
0
  6
Continuous
 62
     7
370
    15
100
AcDbPolyline
 90
        9
 70
   128
 43
0.0
 10
170.7789593571
 20
86.6645300815
 10
170.7186820238
 20
86.4030702153
 10
170.6655560962
 20
86.1381094167
 10
170.623508097
 20
85.8892308661
 10
170.5956457822
 20
85.674829109
 10
170.5840284481
 20
85.5107505207
 10
170.5895147285
 20
85.4091221048
 10
170.611699134
 20
85.3774551897
 10
170.6489420212
 20
85.4180902684
  0
LINE
  5
216
330
1F
100
AcDbEntity
  8
0
  6
Continuous
 62
     7
370
    15
100
AcDbLine
 10
172.6392002651
 20
94.2125100556
 30
0.0
 11
170.7789593571
 21
86.6645300815
 31
0.0
  0
ARC
  5
217
330
1F
100
AcDbEntity
  8
0
  6
Continuous
 62
     7
370
    15
100
AcDbCircle
 10
175.7022603736
 20
93.5708686396
 30
0.0
 40
3.129543247027193
100
AcDbArc
 50
156.0495665456
 51
168.1689100562
  0
LINE
  5
218
330
1F
100
AcDbEntity
  8
0
  6
Continuous
 62
     7
370
    15
100
AcDbLine
 10
174.1521361823
 20
97.1138467742
 30
0.0
 11
172.8421802408
 21
94.8412947763
 31
0.0
  0
ARC
  5
219
330
1F
100
AcDbEntity
  8
0
  6
Continuous
 62
     7
370
    15
100
AcDbCircle
 10
169.0988178299
 20
88.961068403
 30
0.0
 40
3.129543247035672
100
AcDbArc
 50
336.0495665456
 51
348.1689100562
  0
LWPOLYLINE
  5
21A
330
1F
100
AcDbEntity
  8
0
  6
Continuous
 62
     7
370
    15
100
AcDbPolyline
 90
       21
 70
   128
 43
0.0
 10
172.4946609074
 20
90.4691934522
 10
172.6724696798
 20
91.2483461195
 10
172.8236599925
 20
92.0292237902
 10
172.9334322845
 20
92.7353887173
 10
172.9910412789
 20
93.2977165575
 10
172.9908478059
 20
93.661162744
 10
172.932870804
 20
93.7901506316
 10
172.8227854662
 20
93.6720539873
 10
172.6713677123
 20
93.3184329333
 10
172.493439367
 20
92.7639023624
 10
172.3064172965
 20
92.0627435903
 10
172.1286085241
 20
91.2835909231
 10
171.9774182114
 20
90.5027132524
 10
171.8676459194
 20
89.7965483253
 10
171.810036925
 20
89.234220485
 10
171.810230398
 20
88.8707742986
 10
171.8682073999
 20
88.741786411
 10
171.9782927377
 20
88.8598830553
 10
172.1297104916
 20
89.2135041093
 10
172.3076388369
 20
89.7680346802
 10
172.4946609074
 20
90.4691934522
  0
ARC
  5
21B
330
1F
100
AcDbEntity
  8
0
  6
Continuous
 62
     7
370
    15
100
AcDbCircle
 10
176.8754980899
 20
85.3730547399
 30
0.0
 40
1.251817298814397
100
AcDbArc
 50
336.0495665456
 51
348.1689100562
  0
LINE
  5
21C
330
1F
100
AcDbEntity
  8
0
  6
Continuous
 62
     7
370
    15
100
AcDbLine
 10
177.9744034247
 20
84.7865970614
 30
0.0
 11
178.0195301431
 21
84.8648842853
 31
0.0
  0
LINE
  5
21D
330
1F
100
AcDbEntity
  8
0
  6
Continuous
 62
     7
370
    15
100
AcDbLine
 10
169.7127355253
 20
82.496399824
 30
0.0
 11
169.554443279
 21
82.6097246055
 31
0.0
  0
LINE
  5
21E
330
1F
100
AcDbEntity
  8
0
  6
Continuous
 62
     7
370
    15
100
AcDbLine
 10
173.1055832971
 20
95.9336365121
 30
0.0
 11
172.8782971538
 21
96.0963554901
 31
0.0
  0
LINE
  5
21F
330
1F
100
AcDbEntity
  8
0
  6
Continuous
 62
     7
370
    15
100
AcDbLine
 10
178.1721861475
 20
85.4063654275
 30
0.0
 11
181.1608614803
 21
97.5329999204
 31
0.0
  0
LINE
  5
220
330
1F
100
AcDbEntity
  8
0
  6
Continuous
 62
     7
370
    15
100
AcDbLine
 10
177.9692061718
 20
84.7775807067
 30
0.0
 11
177.9742455008
 21
84.7866306292
 31
0.0
  0
LINE
  5
221
330
1F
100
AcDbEntity
  8
0
  6
Continuous
 62
     7
370
    15
100
AcDbLine
 10
180.9738190603
 20
84.8108599685
 30
0.0
 11
183.9624943931
 21
96.9374944614
 31
0.0
  0
LINE
  5
222
330
1F
100
AcDbEntity
  8
0
  6
Continuous
 62
     7
370
    15
100
AcDbLine
 10
184.2433867589
 20
96.9681109066
 30
0.0
 11
181.2547114261
 21
84.8414764137
 31
0.0
  0
ARC
  5
223
330
1F
100
AcDbEntity
  8
0
  6
Continuous
 62
     7
370
    15
100
AcDbCircle
 10
181.2640462205
 20
97.9518440194
 30
0.0
 40
2.882798564906272
100
AcDbArc
 50
339.398705673
 51
5.4265577983
  0
ARC
  5
224
330
1F
100
AcDbEntity
  8
0
  6
Continuous
 62
     7
370
    15
100
AcDbCircle
 10
180.8149214745
 20
97.9445600138
 30
0.0
 40
3.564803930776181
100
AcDbArc
 50
344.1027038596
 51
358.2246870189
  0
ARC
  5
225
330
1F
100
AcDbEntity
  8
0
  6
Continuous
 62
     7
370
    15
100
AcDbCircle
 10
177.7937530164
 20
85.4850813785
 30
0.0
 40
3.250752920994263
100
AcDbArc
 50
336.5437840906
 51
348.0296961975
  0
ARC
  5
226
330
1F
100
AcDbEntity
  8
0
  6
Continuous
 62
     7
370
    15
100
AcDbCircle
 10
179.1105693501
 20
85.2906254049
 30
0.0
 40
2.190680272921104
100
AcDbArc
 50
336.0495665456
 51
348.1689100562
  0
LINE
  5
227
330
1F
100
AcDbEntity
  8
0
  6
Continuous
 62
     7
370
    15
100
AcDbLine
 10
181.1126254431
 20
84.4013271092
 30
0.0
 11
180.9679291562
 21
84.1503035247
 31
0.0
  0
LINE
  5
228
330
1F
100
AcDbEntity
  8
0
  6
Continuous
 62
     7
370
    15
100
AcDbLine
 10
195.8684305925
 20
80.428854778
 30
0.0
 11
195.8684305925
 21
73.428854778
 31
0.0
  0
ARC
  5
229
330
1F
100
AcDbEntity
  8
0
  6
Continuous
 62
     7
370
    15
100
AcDbCircle
 10
175.3684305925
 20
73.428854778
 30
0.0
 40
20.50000000000003
100
AcDbArc
 50
238.5761453056
 51
0.0
  0
LINE
  5
22A
330
1F
100
AcDbEntity
  8
0
  6
Continuous
 62
     7
370
    15
100
AcDbLine
 10
164.6804489834
 20
55.9355117835
 30
0.0
 11
172.0987566214
 21
86.0355043436
 31
0.0
  0
LINE
  5
22B
330
1F
100
AcDbEntity
  8
0
  6
Continuous
 62
     7
370
    15
100
AcDbLine
 10
172.0987566214
 20
86.0355043436
 30
0.0
 11
181.0678730993
 21
84.1290597838
 31
0.0
  0
LINE
  5
22C
330
1F
100
AcDbEntity
  8
0
  6
Continuous
 62
     7
370
    15
100
AcDbLine
 10
181.0678730993
 20
84.1290597838
 30
0.0
 11
181.1685676235
 21
84.5376306573
 31
0.0
  0
LINE
  5
22D
330
1F
100
AcDbEntity
  8
0
  6
Continuous
 62
     7
370
    15
100
AcDbLine
 10
184.3222342974
 20
97.3337221722
 30
0.0
 11
184.323436791
 21
97.3386013237
 31
0.0
  0
SPLINE
  5
22E
330
1F
100
AcDbEntity
  8
0
  6
Continuous
 62
     7
370
    15
100
AcDbSpline
210
0.0
220
0.0
230
1.0
 70
     8
 71
     3
 72
    21
 73
    17
 74
     0
 42
0.00000001
 43
0.00000001
 12
1.0
 22
0.0
 32
0.0
 13
1.0
 23
0.0
 33
0.0
 40
0.0
 40
0.0
 40
0.0
 40
0.0
 40
0.0722469213901359
 40
0.1442536466934069
 40
0.2160482427276298
 40
0.2876590257341278
 40
0.3591145304776983
 40
0.4304434780781092
 40
0.5016747427424051
 40
0.5728373175822481
 40
0.6439602797131011
 40
0.7150727548420529
 40
0.7862038815583802
 40
0.8573827755450866
 40
0.9286384939308898
 40
1.0
 40
1.0
 40
1.0
 40
1.0
 10
190.5704984404624
 20
93.98805349208195
 30
0.0
 10
190.43249868059
 20
94.0875941998337
 30
0.0
 10
190.1569579624339
 20
94.28634467682767
 30
0.0
 10
189.7364695420557
 20
94.57406818353729
 30
0.0
 10
189.311669604784
 20
94.85347425967953
 30
0.0
 10
188.88199176814
 20
95.12386412520767
 30
0.0
 10
188.4475873425618
 20
95.38542400015297
 30
0.0
 10
188.0084161039188
 20
95.63810385801702
 30
0.0
 10
187.5644891420002
 20
95.88191713003135
 30
0.0
 10
187.1158032895973
 20
96.11685895576002
 30
0.0
 10
186.6623613227165
 20
96.34293443447389
 30
0.0
 10
186.2041565569417
 20
96.560127181378
 30
0.0
 10
185.7412142875669
 20
96.7684969018402
 30
0.0
 10
185.2734413321832
 20
96.96782033809626
 30
0.0
 10
184.8011870382809
 20
97.15893141579943
 30
0.0
 10
184.4827722278632
 20
97.27867968779886
 30
0.0
 10
184.3234467290466
 20
97.33859823600865
 30
0.0
  0
ARC
  5
22F
330
1F
100
AcDbEntity
  8
0
  6
Continuous
 62
     7
370
    15
100
AcDbCircle
 10
175.8684305925
 20
80.428854778
 30
0.0
 40
20.0
100
AcDbArc
 50
0.0
 51
42.6842629854
  0
SPLINE
  5
230
330
1F
100
AcDbEntity
  8
0
  6
Continuous
 62
     7
370
    15
100
AcDbSpline
210
0.0
220
0.0
230
1.0
 70
     8
 71
     3
 72
    11
 73
     7
 74
     0
 42
0.00000001
 43
0.00000001
 12
1.0
 22
0.0
 32
0.0
 13
1.0
 23
0.0
 33
0.0
 40
0.0
 40
0.0
 40
0.0
 40
0.0
 40
0.247302376312323
 40
0.4963495556445092
 40
0.7472223951397069
 40
1.0
 40
1.0
 40
1.0
 40
1.0
 10
184.3975133299554
 20
97.88523512124556
 30
0.0
 10
184.5819940903468
 20
97.83827633051992
 30
0.0
 10
184.9522571861191
 20
97.74402743870641
 30
0.0
 10
185.5056302059721
 20
97.59870740657256
 30
0.0
 10
186.0602102846698
 20
97.45010294725334
 30
0.0
 10
186.4283192104001
 20
97.34852608660782
 30
0.0
 10
186.6130697524012
 20
97.29754557853727
 30
0.0
  0
SPLINE
  5
231
330
1F
100
AcDbEntity
  8
0
  6
Continuous
 62
     7
370
    15
100
AcDbSpline
210
0.0
220
0.0
230
1.0
 70
     8
 71
     3
 72
    20
 73
    16
 74
     0
 42
0.00000001
 43
0.00000001
 12
1.0
 22
0.0
 32
0.0
 13
1.0
 23
0.0
 33
0.0
 40
0.0
 40
0.0
 40
0.0
 40
0.0
 40
0.0905684028495508
 40
0.1788625232998882
 40
0.2648823727826198
 40
0.3486279644728213
 40
0.4300993134619231
 40
0.509296436955444
 40
0.5862193544999449
 40
0.6608680882445879
 40
0.7332426632437233
 40
0.8033431078085675
 40
0.8711694539178741
 40
0.9367217376997313
 40
1.0
 40
1.0
 40
1.0
 40
1.0
 10
186.6130697524011
 20
97.29754557853728
 30
0.0
 10
186.744202723859
 20
97.21277014332658
 30
0.0
 10
187.003175758878
 20
97.04534808686367
 30
0.0
 10
187.3792886268493
 20
96.78620763423137
 30
0.0
 10
187.7403474717428
 20
96.52615644704359
 30
0.0
 10
188.0861235580022
 20
96.2651589646439
 30
0.0
 10
188.417045438377
 20
96.00415319918099
 30
0.0
 10
188.7333926069034
 20
95.74378540599866
 30
0.0
 10
189.0354991076975
 20
95.48473540337851
 30
0.0
 10
189.3237020010604
 20
95.22763693575611
 30
0.0
 10
189.5983388966094
 20
94.97308677394963
 30
0.0
 10
189.8597923816666
 20
94.72168624767266
 30
0.0
 10
190.1083113402982
 20
94.47387837456469
 30
0.0
 10
190.3446398285719
 20
94.23053422071169
 30
0.0
 10
190.4960720627189
 20
94.06789163510469
 30
0.0
 10
190.5704516949139
 20
93.98800576559458
 30
0.0
  0
LINE
  5
232
330
1F
100
AcDbEntity
  8
0
  6
Continuous
 62
     7
370
    15
100
AcDbLine
 10
184.3234368187
 20
97.3386010891
 30
0.0
 11
184.39751333
 21
97.8852351212
 31
0.0
  0
LINE
  5
233
330
1F
100
AcDbEntity
  8
0
  6
Continuous
 62
     7
370
    15
100
AcDbLine
 10
184.3758413396
 20
97.8476378835
 30
0.0
 11
184.39751333
 21
97.8852351212
 31
0.0
  0
LWPOLYLINE
  5
234
330
1F
100
AcDbEntity
  8
0
  6
Continuous
 62
     7
370
    15
100
AcDbPolyline
 90
        4
 70
   128
 43
0.0
 10
169.6469606723
 20
81.7820530589
 10
169.5523244369
 20
81.7000383952
 10
169.511275338
 20
81.8654046522
 10
169.5158002642
 20
82.0945943771
  0
ARC
  5
235
330
1F
100
AcDbEntity
  8
0
  6
Continuous
 62
     7
370
    15
100
AcDbCircle
 10
183.2402630131
 20
80.9214914959
 30
0.0
 40
13.77129276085309
100
AcDbArc
 50
160.0965959119
 51
172.2135161275
  0
ARC
  5
236
330
1F
100
AcDbEntity
  8
0
  6
Continuous
 62
     7
370
    15
100
AcDbCircle
 10
175.3684305925
 20
73.428854778
 30
0.0
 40
20.49999999999998
100
AcDbArc
 50
235.0542383328
 51
238.5761453056
  0
SPLINE
  5
237
330
1F
100
AcDbEntity
  8
0
  6
Continuous
 62
     7
370
    15
100
AcDbSpline
210
0.0
220
0.0
230
1.0
 70
     8
 71
     3
 72
     8
 73
     4
 74
     0
 42
0.00000001
 43
0.00000001
 12
1.0
 22
0.0
 32
0.0
 13
1.0
 23
0.0
 33
0.0
 40
0.0
 40
0.0
 40
0.0
 40
0.0
 40
1.0
 40
1.0
 40
1.0
 40
1.0
 10
163.6260154340424
 20
56.62511453227381
 30
0.0
 10
163.6480945543378
 20
56.81340463559744
 30
0.0
 10
163.6702654085893
 20
57.0019685830693
 30
0.0
 10
163.69253562255
 20
57.19082913908169
 30
0.0
  0
ARC
  5
238
330
1F
100
AcDbEntity
  8
0
  6
Continuous
 62
     7
370
    15
100
AcDbCircle
 10
175.3684305925
 20
73.428854778
 30
0.0
 40
20.0
100
AcDbArc
 50
233.3251641078
 51
234.2821099214
  0
ARC
  5
239
330
1F
100
AcDbEntity
  8
0
  6
Continuous
 62
     7
370
    15
100
AcDbCircle
 10
175.3684305925
 20
73.428854778
 30
0.0
 40
20.00000000000002
100
AcDbArc
 50
101.7178900786
 51
102.6748358922
  0
SPLINE
  5
23A
330
1F
100
AcDbEntity
  8
0
  6
Continuous
 62
     7
370
    15
100
AcDbSpline
210
0.0
220
0.0
230
1.0
 70
     8
 71
     3
 72
     8
 73
     4
 74
     0
 42
0.00000001
 43
0.00000001
 12
1.0
 22
0.0
 32
0.0
 13
1.0
 23
0.0
 33
0.0
 40
0.0
 40
0.0
 40
0.0
 40
0.0
 40
1.0
 40
1.0
 40
1.0
 40
1.0
 10
171.3065698173533
 20
93.01204366655442
 30
0.0
 10
171.5254567644088
 20
93.7158986997769
 30
0.0
 10
171.7438986264322
 20
94.4151142649653
 30
0.0
 10
171.9620108583774
 20
95.110893839051
 30
0.0
  0
LINE
  5
23B
330
1F
100
AcDbEntity
  8
0
  6
Continuous
 62
     7
370
    15
100
AcDbLine
 10
171.9620108584
 20
95.1108938391
 30
0.0
 11
172.2284017894
 21
95.0542706987
 31
0.0
  0
ARC
  5
23C
330
1F
100
AcDbEntity
  8
0
  6
Continuous
 62
     7
370
    15
100
AcDbCircle
 10
172.2483443782
 20
95.6219142363
 30
0.0
 40
0.5679937435028745
100
AcDbArc
 50
267.9878985034
 51
316.9795579614
  0
LWPOLYLINE
  5
23D
330
1F
100
AcDbEntity
  8
0
  6
Continuous
 62
     7
370
    15
100
AcDbPolyline
 90
       25
 70
   128
 43
0.0
 10
168.3690856098
 20
73.7707842734
 10
168.4865007476
 20
73.867750854
 10
168.6455051714
 20
74.1914163212
 10
168.8352629923
 20
74.7197234083
 10
169.0428425285
 20
75.4166688603
 10
169.2540975776
 20
76.2347569966
 10
169.4546314571
 20
77.1182364626
 10
169.6307781145
 20
78.0068995926
 10
169.7705334463
 20
78.8401854629
 10
169.8643733576
 20
79.5613070186
 10
169.9059028133
 20
80.1211210174
 10
169.8922916499
 20
80.4814770603
 10
169.8244674455
 20
80.6178174785
 10
169.7070523076
 20
80.5208508979
 10
169.5480478839
 20
80.1971854307
 10
169.358290063
 20
79.6688783436
 10
169.1507105268
 20
78.9719328915
 10
168.9394554777
 20
78.1538447553
 10
168.7389215982
 20
77.2703652893
 10
168.5627749407
 20
76.3817021593
 10
168.4230196089
 20
75.548416289
 10
168.3291796977
 20
74.8272947333
 10
168.287650242
 20
74.2674807345
 10
168.3012614054
 20
73.9071246916
 10
168.3690856098
 20
73.7707842734
  0
LINE
  5
23E
330
1F
100
AcDbEntity
  8
0
  6
Continuous
 62
     7
370
    15
100
AcDbLine
 10
172.0987566214
 20
86.0355043436
 30
0.0
 11
169.6469606723
 21
81.7820530589
 31
0.0
  0
SPLINE
  5
23F
330
1F
100
AcDbEntity
  8
0
  6
Continuous
 62
     7
370
    15
100
AcDbSpline
210
0.0
220
0.0
230
1.0
 70
     8
 71
     3
 72
    30
 73
    26
 74
     0
 42
0.00000001
 43
0.00000001
 12
1.0
 22
0.0
 32
0.0
 13
1.0
 23
0.0
 33
0.0
 40
0.0
 40
0.0
 40
0.0
 40
0.0
 40
0.0625000000000002
 40
0.0625000000000002
 40
0.1250000000000003
 40
0.1250000000000003
 40
0.1875000000000005
 40
0.1875000000000005
 40
0.2500000000000007
 40
0.2500000000000007
 40
0.3125000000000008
 40
0.3125000000000008
 40
0.375000000000001
 40
0.375000000000001
 40
0.5000000000000001
 40
0.5000000000000001
 40
0.6249999999999993
 40
0.6249999999999993
 40
0.7499999999999984
 40
0.7499999999999984
 40
0.8749999999999977
 40
0.8749999999999977
 40
0.9374999999999988
 40
0.9374999999999988
 40
1.0
 40
1.0
 40
1.0
 40
1.0
 10
164.2862182819692
 20
82.68056212092544
 30
0.0
 10
164.4519947635851
 20
82.65076494659851
 30
0.0
 10
164.6109394719863
 20
82.60817026814641
 30
0.0
 10
164.915258114749
 20
82.49667995164674
 30
0.0
 10
165.0622339121674
 20
82.42679671284552
 30
0.0
 10
165.3323214694375
 20
82.26041814755594
 30
0.0
 10
165.4550847412779
 20
82.16472879621158
 30
0.0
 10
165.6739508376094
 20
81.94262188292501
 30
0.0
 10
165.7705802639051
 20
81.81420004411322
 30
0.0
 10
165.9208788344719
 20
81.53337733023126
 30
0.0
 10
165.9765690105743
 20
81.37660086581081
 30
0.0
 10
166.0409012475457
 20
81.05049691643654
 30
0.0
 10
166.0505306964093
 20
80.87826769238531
 30
0.0
 10
166.0214485156904
 20
80.36171367357484
 30
0.0
 10
165.9282338929672
 20
80.01992589953518
 30
0.0
 10
165.675481741522
 20
79.38520958564362
 30
0.0
 10
165.5126479279093
 20
79.08388350468962
 30
0.0
 10
165.1454705748104
 20
78.52510823604678
 30
0.0
 10
164.94083297047
 20
78.2666084270271
 30
0.0
 10
164.4868142759152
 20
77.7885146240899
 30
0.0
 10
164.234899534232
 20
77.56740668002693
 30
0.0
 10
163.8259894735519
 20
77.28752600534308
 30
0.0
 10
163.6840862467467
 20
77.20247822869949
 30
0.0
 10
163.3858645174592
 20
77.05316149722651
 30
0.0
 10
163.2288059022283
 20
76.9887118777922
 30
0.0
 10
163.066039016299
 20
76.94007000869175
 30
0.0
  0
SPLINE
  5
240
330
1F
100
AcDbEntity
  8
0
  6
Continuous
 62
     7
370
    15
100
AcDbSpline
210
0.0
220
0.0
230
1.0
 70
     8
 71
     3
 72
    20
 73
    16
 74
     0
 42
0.00000001
 43
0.00000001
 12
1.0
 22
0.0
 32
0.0
 13
1.0
 23
0.0
 33
0.0
 40
0.0
 40
0.0
 40
0.0
 40
0.0
 40
0.1249999999999995
 40
0.1249999999999995
 40
0.249999999999999
 40
0.249999999999999
 40
0.3749999999999983
 40
0.3749999999999983
 40
0.4999999999999977
 40
0.4999999999999977
 40
0.6249999999999971
 40
0.6249999999999971
 40
0.7499999999999963
 40
0.7499999999999963
 40
1.0
 40
1.0
 40
1.0
 40
1.0
 10
163.4229715472208
 20
57.38809394202163
 30
0.0
 10
163.392439275153
 20
57.41083114316027
 30
0.0
 10
163.3385837996179
 20
57.45100173266957
 30
0.0
 10
163.1875342792236
 20
57.56585484722976
 30
0.0
 10
163.0897295251819
 20
57.64100671467559
 30
0.0
 10
162.8535464670848
 20
57.82756246939214
 30
0.0
 10
162.7176900765648
 20
57.93700000033957
 30
0.0
 10
162.4150193205223
 20
58.18917182615758
 30
0.0
 10
162.2468247396017
 20
58.33312743427611
 30
0.0
 10
161.8885913302818
 20
58.65213465276028
 30
0.0
 10
161.700415258123
 20
58.82548151373771
 30
0.0
 10
161.3105088608121
 20
59.20043285348868
 30
0.0
 10
161.107309497347
 20
59.40358744812531
 30
0.0
 10
160.4938088913862
 20
60.04616358714178
 30
0.0
 10
160.0836745236949
 20
60.51395547312663
 30
0.0
 10
159.6823930528108
 20
61.02126732904873
 30
0.0
  0
SPLINE
  5
241
330
1F
100
AcDbEntity
  8
0
  6
Continuous
 62
     7
370
    15
100
AcDbSpline
210
0.0
220
0.0
230
1.0
 70
     8
 71
     3
 72
    18
 73
    14
 74
     0
 42
0.00000001
 43
0.00000001
 12
1.0
 22
0.0
 32
0.0
 13
1.0
 23
0.0
 33
0.0
 40
0.0
 40
0.0
 40
0.0
 40
0.0
 40
0.2499999999999987
 40
0.2499999999999987
 40
0.3750000000000004
 40
0.3750000000000004
 40
0.5000000000000022
 40
0.5000000000000022
 40
0.625000000000004
 40
0.625000000000004
 40
0.7500000000000058
 40
0.7500000000000058
 40
1.0
 40
1.0
 40
1.0
 40
1.0
 10
166.0851427173723
 20
91.14383618440012
 30
0.0
 10
166.6586192173096
 20
91.44435851159888
 30
0.0
 10
167.2231708224884
 20
91.70462628065981
 30
0.0
 10
168.0429592737405
 20
92.0413435998583
 30
0.0
 10
168.3127909126173
 20
92.14491651063916
 30
0.0
 10
168.8210168114204
 20
92.32870638724852
 30
0.0
 10
169.0617890537799
 20
92.40996357765196
 30
0.0
 10
169.5135498164759
 20
92.55414143887558
 30
0.0
 10
169.7257202117878
 20
92.61738583837283
 30
0.0
 10
170.1101208693232
 20
92.72626609534058
 30
0.0
 10
170.2785800815132
 20
92.77092419715808
 30
0.0
 10
170.7119590360763
 20
92.8815199732522
 30
0.0
 10
170.9056430186923
 20
92.92473504940853
 30
0.0
 10
170.9800759570479
 20
92.94147488896901
 30
0.0
  0
ELLIPSE
  5
242
330
1F
100
AcDbEntity
  8
0
  6
Continuous
 62
     7
370
    15
100
AcDbEllipse
 10
163.0654861109
 20
79.7664245102
 30
0.0
 11
2.143417157302594
 21
2.483736727519315
 31
0.0
210
0.0
220
0.0
230
1.0
 40
0.7425888588
 41
0.4138642358143265
 42
4.002030237316081
  0
ARC
  5
243
330
1F
100
AcDbEntity
  8
0
  6
Continuous
 62
     7
370
    15
100
AcDbCircle
 10
175.3684305925
 20
73.428854778
 30
0.0
 40
20.00000000000001
100
AcDbArc
 50
117.6561564452
 51
218.3438435548
  0
CIRCLE
  5
244
330
1F
100
AcDbEntity
  8
0
  6
Continuous
 62
     7
370
    15
100
AcDbCircle
 10
175.3684305925
 20
73.428854778
 30
0.0
 40
31.50000000000001
  0
LINE
  5
245
330
1F
100
AcDbEntity
  8
VERMASSUNG
100
AcDbLine
 10
175.3684305925
 20
100.2729822742
 30
0.0
 11
161.8175394394
 21
36.5210517452
 31
0.0
  0
CIRCLE
  5
246
330
1F
100
AcDbEntity
  8
VERMASSUNG
  6
CENTERX2
100
AcDbCircle
 10
175.3684305925
 20
75.2729822742
 30
0.0
 40
25.00000000000003
  0
DIMENSION
  5
247
330
1F
100
AcDbEntity
  8
VERMASSUNG
100
AcDbDimension
  2
_D_6
 10
175.3684305925
 20
107.428854778
 30
0.0
 11
168.1912772062
 21
31.9869292137
 31
0.0
 70
   162
  1
<>
 71
     1
 42
-1.0
  3
SLDDIMSTYLE2
100
AcDb2LineAngularDimension
 13
161.8175394394
 23
36.5210517452
 33
0.0
 14
175.3684305925
 24
100.2729822742
 34
0.0
 15
175.3684305925
 25
39.428854778
 35
0.0
 16
168.1912772062
 26
31.9869292137
 36
0.0
  0
DIMENSION
  5
252
330
1F
100
AcDbEntity
  8
VERMASSUNG
100
AcDbDimension
  2
_D_7
 10
160.1635460423
 20
95.1176663437
 30
0.0
 11
152.5703641285
 21
105.0279222001
 31
0.0
 70
   160
  1
%%c<> min. 
 71
     2
 42
-1.0
  3
SLDDIMSTYLE3
100
AcDbAlignedDimension
 13
190.5733151427
 23
55.4282982048
 33
0.0
 14
160.1635460423
 24
95.1176663437
 34
0.0
 50
-52.5408685918
100
AcDbRotatedDimension
  0
INSERT
  5
26C
330
1F
100
AcDbEntity
  8
VERMASSUNG
100
AcDbBlockReference
  2
SW_CENTERMARKSYMBOL_0
 10
175.3684305925
 20
73.428854778
 30
0.0
  0
OLE2FRAME
  5
26D
330
1F
100
AcDbEntity
  8
0
100
AcDbOle2Frame
 70
     2
  3
Paintbrush-Bild
 10
13.8511154363
 20
38.264191557
 30
0.0
 11
51.6290888628
 21
31.9806341108
 31
0.0
 71
     2
 72
     0
 73
     1
 90
    12928
310
80552BED0767C5B32B40DDAF6807D121434000000000000000006FFBDDFB85D0
310
4940DDAF6807D121434000000000000000006FFBDDFB85D04940416F4BD60AFB
310
3F4000000000000000002BED0767C5B32B40416F4BD60AFB3F40000000000000
310
0000000000000100000000010000010000000100000000000100000000320000
310
D0CF11E0A1B11AE1000000000000000000000000000000003E000300FEFF0900
310
0600000000000000000000000100000001000000000000000010000002000000
310
01000000FEFFFFFF0000000000000000FFFFFFFFFFFFFFFFFFFFFFFFFFFFFFFF
310
FFFFFFFFFFFFFFFFFFFFFFFFFFFFFFFFFFFFFFFFFFFFFFFFFFFFFFFFFFFFFFFF
310
FFFFFFFFFFFFFFFFFFFFFFFFFFFFFFFFFFFFFFFFFFFFFFFFFFFFFFFFFFFFFFFF
310
FFFFFFFFFFFFFFFFFFFFFFFFFFFFFFFFFFFFFFFFFFFFFFFFFFFFFFFFFFFFFFFF
310
FFFFFFFFFFFFFFFFFFFFFFFFFFFFFFFFFFFFFFFFFFFFFFFFFFFFFFFFFFFFFFFF
310
FFFFFFFFFFFFFFFFFFFFFFFFFFFFFFFFFFFFFFFFFFFFFFFFFFFFFFFFFFFFFFFF
310
FFFFFFFFFFFFFFFFFFFFFFFFFFFFFFFFFFFFFFFFFFFFFFFFFFFFFFFFFFFFFFFF
310
FFFFFFFFFFFFFFFFFFFFFFFFFFFFFFFFFFFFFFFFFFFFFFFFFFFFFFFFFFFFFFFF
310
FFFFFFFFFFFFFFFFFFFFFFFFFFFFFFFFFFFFFFFFFFFFFFFFFFFFFFFFFFFFFFFF
310
FFFFFFFFFFFFFFFFFFFFFFFFFFFFFFFFFFFFFFFFFFFFFFFFFFFFFFFFFFFFFFFF
310
FFFFFFFFFFFFFFFFFFFFFFFFFFFFFFFFFFFFFFFFFFFFFFFFFFFFFFFFFFFFFFFF
310
FFFFFFFFFFFFFFFFFFFFFFFFFFFFFFFFFFFFFFFFFFFFFFFFFFFFFFFFFFFFFFFF
310
FFFFFFFFFFFFFFFFFFFFFFFFFFFFFFFFFFFFFFFFFFFFFFFFFFFFFFFFFFFFFFFF
310
FFFFFFFFFFFFFFFFFFFFFFFFFFFFFFFFFFFFFFFFFFFFFFFFFFFFFFFFFFFFFFFF
310
FDFFFFFFFEFFFFFFFEFFFFFFFEFFFFFF05000000060000000700000008000000
310
090000000A0000000B0000000C0000000D0000000E0000000F00000010000000
310
11000000120000001300000014000000150000001600000017000000FEFFFFFF
310
FFFFFFFFFFFFFFFFFFFFFFFFFFFFFFFFFFFFFFFFFFFFFFFFFFFFFFFFFFFFFFFF
310
FFFFFFFFFFFFFFFFFFFFFFFFFFFFFFFFFFFFFFFFFFFFFFFFFFFFFFFFFFFFFFFF
310
FFFFFFFFFFFFFFFFFFFFFFFFFFFFFFFFFFFFFFFFFFFFFFFFFFFFFFFFFFFFFFFF
310
FFFFFFFFFFFFFFFFFFFFFFFFFFFFFFFFFFFFFFFFFFFFFFFFFFFFFFFFFFFFFFFF
310
FFFFFFFFFFFFFFFFFFFFFFFFFFFFFFFFFFFFFFFFFFFFFFFFFFFFFFFFFFFFFFFF
310
FFFFFFFFFFFFFFFFFFFFFFFFFFFFFFFFFFFFFFFFFFFFFFFFFFFFFFFFFFFFFFFF
310
FFFFFFFFFFFFFFFFFFFFFFFFFFFFFFFFFFFFFFFFFFFFFFFFFFFFFFFFFFFFFFFF
310
FFFFFFFFFFFFFFFFFFFFFFFFFFFFFFFFFFFFFFFFFFFFFFFFFFFFFFFFFFFFFFFF
310
FFFFFFFFFFFFFFFFFFFFFFFFFFFFFFFFFFFFFFFFFFFFFFFFFFFFFFFFFFFFFFFF
310
FFFFFFFFFFFFFFFFFFFFFFFFFFFFFFFFFFFFFFFFFFFFFFFFFFFFFFFFFFFFFFFF
310
FFFFFFFFFFFFFFFFFFFFFFFFFFFFFFFFFFFFFFFFFFFFFFFFFFFFFFFFFFFFFFFF
310
FFFFFFFFFFFFFFFFFFFFFFFFFFFFFFFFFFFFFFFFFFFFFFFFFFFFFFFFFFFFFFFF
310
FFFFFFFFFFFFFFFFFFFFFFFFFFFFFFFFFFFFFFFFFFFFFFFFFFFFFFFFFFFFFFFF
310
52006F006F007400200045006E00740072007900000000000000000000000000
310
0000000000000000000000000000000000000000000000000000000000000000
310
16000500FFFFFFFFFFFFFFFF020000000A00030000000000C000000000000046
310
000000000000000000000000305254DC5645CD0103000000C000000000000000
310
01004F006C006500000000000000000000000000000000000000000000000000
310
0000000000000000000000000000000000000000000000000000000000000000
310
0A000200FFFFFFFFFFFFFFFFFFFFFFFF00000000000000000000000000000000
310
0000000000000000000000000000000000000000000000001400000000000000
310
010043006F006D0070004F0062006A0000000000000000000000000000000000
310
0000000000000000000000000000000000000000000000000000000000000000
310
120002010100000003000000FFFFFFFF00000000000000000000000000000000
310
0000000000000000000000000000000000000000010000004D00000000000000
310
01004F006C006500310030004E00610074006900760065000000000000000000
310
0000000000000000000000000000000000000000000000000000000000000000
310
1A000200FFFFFFFFFFFFFFFFFFFFFFFF00000000000000000000000000000000
310
0000000000000000000000000000000000000000040000002426000000000000
310
FEFFFFFF02000000FEFFFFFFFFFFFFFFFFFFFFFFFFFFFFFFFFFFFFFFFFFFFFFF
310
FFFFFFFFFFFFFFFFFFFFFFFFFFFFFFFFFFFFFFFFFFFFFFFFFFFFFFFFFFFFFFFF
310
FFFFFFFFFFFFFFFFFFFFFFFFFFFFFFFFFFFFFFFFFFFFFFFFFFFFFFFFFFFFFFFF
310
FFFFFFFFFFFFFFFFFFFFFFFFFFFFFFFFFFFFFFFFFFFFFFFFFFFFFFFFFFFFFFFF
310
FFFFFFFFFFFFFFFFFFFFFFFFFFFFFFFFFFFFFFFFFFFFFFFFFFFFFFFFFFFFFFFF
310
FFFFFFFFFFFFFFFFFFFFFFFFFFFFFFFFFFFFFFFFFFFFFFFFFFFFFFFFFFFFFFFF
310
FFFFFFFFFFFFFFFFFFFFFFFFFFFFFFFFFFFFFFFFFFFFFFFFFFFFFFFFFFFFFFFF
310
FFFFFFFFFFFFFFFFFFFFFFFFFFFFFFFFFFFFFFFFFFFFFFFFFFFFFFFFFFFFFFFF
310
FFFFFFFFFFFFFFFFFFFFFFFFFFFFFFFFFFFFFFFFFFFFFFFFFFFFFFFFFFFFFFFF
310
FFFFFFFFFFFFFFFFFFFFFFFFFFFFFFFFFFFFFFFFFFFFFFFFFFFFFFFFFFFFFFFF
310
FFFFFFFFFFFFFFFFFFFFFFFFFFFFFFFFFFFFFFFFFFFFFFFFFFFFFFFFFFFFFFFF
310
FFFFFFFFFFFFFFFFFFFFFFFFFFFFFFFFFFFFFFFFFFFFFFFFFFFFFFFFFFFFFFFF
310
FFFFFFFFFFFFFFFFFFFFFFFFFFFFFFFFFFFFFFFFFFFFFFFFFFFFFFFFFFFFFFFF
310
FFFFFFFFFFFFFFFFFFFFFFFFFFFFFFFFFFFFFFFFFFFFFFFFFFFFFFFFFFFFFFFF
310
FFFFFFFFFFFFFFFFFFFFFFFFFFFFFFFFFFFFFFFFFFFFFFFFFFFFFFFFFFFFFFFF
310
FFFFFFFFFFFFFFFFFFFFFFFFFFFFFFFFFFFFFFFFFFFFFFFFFFFFFFFFFFFFFFFF
310
0100000200000000000000000000000000000000000000000000000000000000
310
0000000000000000000000000000000000000000000000000000000000000000
310
0100FEFF030A0000FFFFFFFF0A00030000000000C00000000000004607000000
310
5042727573680007000000504272757368000700000050427275736800F439B2
310
7100000000000000000000000000000000000000000000000000000000000000
310
0000000000000000000000000000000000000000000000000000000000000000
310
0000000000000000000000000000000000000000000000000000000000000000
310
0000000000000000000000000000000000000000000000000000000000000000
310
0000000000000000000000000000000000000000000000000000000000000000
310
0000000000000000000000000000000000000000000000000000000000000000
310
0000000000000000000000000000000000000000000000000000000000000000
310
0000000000000000000000000000000000000000000000000000000000000000
310
0000000000000000000000000000000000000000000000000000000000000000
310
0000000000000000000000000000000000000000000000000000000000000000
310
0000000000000000000000000000000000000000000000000000000000000000
310
0000000000000000000000000000000000000000000000000000000000000000
310
20260000424D0E260000000000003E00000028000000B40200006E0000000100
310
01000000000000000000130B0000130B00000200000002000000000000FFFFFF
310
FFFFFFFFFFFFFFFFFFFFFFFFFFFFFFFFFFFFFFFFFFFFFFFFFFFFFFFFFFFFFFFF
310
FFFFFFFFFFFFFFFFFFFFFFFFFFFFFFFFFFFFFFFFFFFFFFFFFFFFFFFFFFFFFFFF
310
FFFFFFFFFFFFFFFFFFFFFFFFFFFFFFFFFFFFFFFFFFFFFFFFF000FFFFFFFFFFFF
310
FFFFFFFFFFFFFFFFFFFFFFFFFFFFFFFFFFFFFFFFFFFFFFFFFFFFFFFFFFFFFFFF
310
FFFFFFFFFFFFFFFFFFFFFFFFFFFFFFFFFFFFFFFFFFFFFFFFFFFFFFFFFFFFFFFF
310
FFFFFFFFFFFFFFFFFFFFFFFFFFFFFFFFF000FFFFFFFFFFFFFFFFFFFFFFFFFFFF
310
FFFFFFFFFFFFFFFFFFFFFFFFFFFFFFFFFFFFFFFFFFFFFFFFFFFFFFFFFFFFFFFF
310
FFFFFFFFFFFFFFFFFFFFFFFFFFFFFFFFFFFFFFFFFFFFFFFFFFFFFFFFFFFFFFFF
310
FFFFFFFFFFFFFFFFF000FFFFFFFFFFFFFFFFFFFFFFFFFFFFFFFFFFFFFFFFFFFF
310
FFFFFFFFFFFFFFFFFFFFFFFFFFFFFFFFFFFFFFFFFFFFFFFFFFFFFFFFFFFFFFFF
310
FFFFFFFFFFFFFFFFFFFFFFFFFFFFFFFFFFFFFFFFFFFFFFFFFFFFFFFFFFFFFFFF
310
F000FFFFFFFFFFFFFFFFFFFFFFFFFFFFFFFFFFFFFFFFFFFFFFFFFFFFFFFFFFFF
310
FFFFFFFFFFFFFFFFFFFFFFFFFFFFFFFFFFFFFFFFFFFFFFFFFFFFFFFFFFFFFFFF
310
FFFFFFFFFFFFFFFFFFFFFFFFFFFFFFFFFFFFFFFFFFFFFFFFF000FFFFFFFFFFFF
310
FFFFFFFFFFFFFFFFFFFFFFFFFFFFFFFFFFFFFFFFFFFFFFFFFFFFFFFFFFFFFFFF
310
FFFFFFFFFFFFFFFFFFFFFFFFFFFFFFFFFFFFFFFFFFFFFFFFFFFFFFFFFFFFFFFF
310
FFFFFFFFFFFFFFFFFFFFFFFFFFFFFFFFF000FFFFFFFFFFFFFFFFFFFFFFFFFFFF
310
FFFFFFFFFFFFFFFFFFFFFFFFFFFFFFFFFFFFFFFFFFFFFFFFFFFFFFFFFFFFFFFF
310
FFFFFFFFFFFFFFFFFFFFFFFFFFFFFFFFFFFFFFFFFFFFFFFFFFFFFFFFFFFFFFFF
310
FFFFFFFFFFFFFFFFF000FFFFFFFFFFFFFFFFFFFFFFFFFFFFFFFFFFFFFFFFFFFF
310
FFFFFFFFFFFFFFFFFFFFFFFFFFFFFFFFFFFFFFFFFFFFFFFFFFFFFFFFFFFFFFFF
310
FFFFFFFFFFFFFFFFFFFFFFFFFFFFFFFFFFFFFFFFFFFFFFFFFFFFFFFFFFFFFFFF
310
F000FFFFFFFFFFFFFFFFFFFFFFFFFFFFFFFFFFFFFFFFFFFFFFFFFFFFFFFFFFFF
310
FFFFFFFFFFFFFFFFFFFFFFFFFFFFFFFFFFFFFFFFFFFFFFFFFFFFFFFFFFFFFFFF
310
FFFFFFFFFFFFFFFFFFFFFFFFFFFFFFFFFFFFFFFFFFFFFFFFF000FFFFFFFFFFFF
310
FFFFFFFFFFFFFFFFFFFFFFFFFFFFFFFFFFFFFFFFFFFFFFFFFFFFFFFFFFFFFFFF
310
FFFFFFFFFFFFFFFFFFFFFFFFFFFFFFFFFFFFFFFFFFFFFFFFFFFFFFFFFFFFFFFF
310
FFFFFFFFFFFFFFFFFFFFFFFFFFFFFFFFF000FFFFFFFFFFFFFFFFFFFFFFFFFFFF
310
FFFFFFFFFFFFFFFFFFFFFFFFFFFFFFFFFFFFFFFFFFFFFFFFFFFFFFFFFFFFFFFF
310
FFFFFFFFFFFFFFFFFFFFFFFFFFFFFFFFFFFFFFFFFFFFFFFFFFFFFFFFFFFFFFFF
310
FFFFFFFFFFFFFFFFF000FFFFFFFFFFFFFFFFFFFFFFFFFFFFFFFFFFFFFFFFFFFF
310
FFFFFFFFFFFFFFFFFFFFFFFFFFFFFFFFFFFFFFFFFFFFFFFFFFFFFFFFFFFFFFFF
310
FFFFFFFFFFFFFFFFFFFFFFFFFFFFFFFFFFFFFFFFFFFFFFFFFFFFFFFFFFFFFFFF
310
F000FFFFFFFFFFFFFFFFFFFFFFFFFFFFFFFFFFFFFFFFFFFFFFFFFFFFFFFFFFFF
310
FFFFFFFFFFFFFFFFFFFFFFFFFFFFFFFFFFFFFFFFFFFFFFFFFFFFFFFFFFFFFFFF
310
FFFFFFFFFFFFFFFFFFFFFFFFFFFFFFFFFFFFFFFFFFFFFFFFF000FFFFFFFFFFFF
310
FFFFFFFFFFFFFFFFFFFFFFFFFFFFFFFFFFFFFFFFFFFFFFFFFFFFFFFFFFFFFFFF
310
FFFFFFFFFFFFFFFFFFFFFFFFFFFFFFFFFFFFFFFFFFFFFFFFFFFFFFFFFFFFFFFF
310
FFFFFFFFFFFFFFFFFFFFFFFFFFFFFFFFF000FFFFFFFFFFFFFFFFFFFFFFFFFFFF
310
FFFFFFFFFFFFFFFFFFFFFFFFFFFFFFFFFFFFFFFFFFFFFFFFFFFFFFFFFFFFFFFF
310
FFFFFFFFFFFFFFFFFFFFFFFFFFFFFFFFFFFFFFFFFFFFFFFFFFFFFFFFFFFFFFFF
310
FFFFFFFFFFFFFFFFF000FFFFFFFFFFFFFFFFFFFFFFFFFFFFFFFFFFFFFFFFFFFF
310
FFFFFFFFFFFFFFFFFFFFFFFFFFFFFFFFFFFFFFFFFFFFFFFFFFFFFFFFFFFFFFFF
310
FFFFFFFFFFFFFFFFFFFFFFFFFFFFFFFFFFFFFFFFFFFFFFFFFFFFFFFFFFFFFFFF
310
F000FFFFFFFFFFFFFFFFFFFFFFFFFFFFFFFFFFFFFFFFFFFFFFFFFFFFFFFFFFFF
310
FFFFFFFFFFFFFFFFFFFFFFFFFFFFFFFFFFFFFFFFFFFFFFFFFFFFFFFFFFFFFFFF
310
FFFFFFFFFFFFFFFFFFFFFFFFFFFFFFFFFFFFFFFFFFFFFFFFF000FFFFFFFFFFFF
310
FFFFFFFFFFFFFFFFFFFFFFFFFFFFFFFFFFFFFFFFFFFFFFFFFFFFFFFFFFFFFFFF
310
FFFFFFFFFFFFFFFFFFFFFFFFFFFFFFFFFFFFFFFFFFFFFFFFFFFFFFFFFFFFFFFF
310
FFFFFFFFFFFFFFFFFFFFFFFFFFFFFFFFF000FFFFFFFFFFFFFFFFFFFFFFFFFFFF
310
FFFFFFFFFFFFFFFFFFFFFFFFFFFFFFFFFFFFFFFFFFFFFFFFFFFFFFFFFFFFFFFF
310
FFFFFFFFFFFFFFFFFFFFFFFFFFFFFFFFFFFFFFFFFFFFFFFFFFFFFFFFFFFFFFFF
310
FFFFFFFFFFFFFFFFF000FFFFF80003FFFFFFFFFFFFFFFFFFFFFFFFFFFFFFFFFF
310
FFFFF00007FFFFFFFFFF00007FFFFFF800000000000000007FFFFFFFFFFFFFFF
310
FFFFFFFC001FFFFFFFFFFFFFFC001FFFFFFFFFFFFFFFFFFFFFFFFFFE0007FFFF
310
F000FFFF8000007FFFFFFFF8000FFFFFC0007FFFFF80007FFFFF0000007FFFFF
310
FFF8000007FFFFF800000000000000007FFFFFF0001FFFFFFFFFFFC00001FFFF
310
FFFFFFFFC00001FFFFFFFF000000000003FFFFE000007FFFF000FFFE0000000F
310
FFFFFFF0000FFFFF80007FFFFF80007FFFFC0000001FFFFFFFC0000001FFFFF8
310
00000000000000007FFFFFF0001FFFFFFFFFFE0000003FFFFFFFFFFE0000003F
310
FFFFFF000000000003FFFF0000000FFFF000FFF800000003FFFFFFF00007FFFF
310
80007FFFFF80007FFFF000000007FFFFFF000000003FFFF80000000000000000
310
7FFFFFF0001FFFFFFFFFF80000000FFFFFFFFFF80000000FFFFFFF0000000000
310
03FFFC00000003FFF000FFE000000000FFFFFFF00007FFFF80003FFFFF80007F
310
FFC000000001FFFFFC000000001FFFF800000000000000007FFFFFF0001FFFFF
310
FFFFE000000003FFFFFFFFE000000003FFFFFF000000000003FFF000000000FF
310
F000FF80000000007FFFFFF00007FFFF80003FFFFF80007FFF8000000000FFFF
310
F80000000007FFF800000000000000007FFFFFF0001FFFFFFFFFC000000001FF
310
FFFFFFC000000001FFFFFF000000000003FFC0000000007FF000FF0000000000
310
3FFFFFE00007FFFF00003FFFFF80007FFE00000000003FFFF00000000003FFF8
310
00000000000000007FFFFFF0001FFFFFFFFF8000000000FFFFFFFF8000000000
310
FFFFFF000000000003FF80000000003FF000FE00000000001FFFFFE00003FFFF
310
00003FFFFF80007FFC00000000001FFFE00000000001FFF8000001FFFE000000
310
7FFFFFF0001FFFFFFFFE00000000003FFFFFFE00000000003FFFFF0000000000
310
03FF00000000001FF000FC00000000000FFFFFE00003FFFF00001FFFFF80007F
310
F800000000001FFFC00000000000FFF8000001FFFE0000007FFFFFF0001FFFFF
310
FFFC00000000001FFFFFFC00000000001FFFFF000000000003FE00000000000F
310
F000F8000000000007FFFFE00003FFFF00001FFFFF80007FF800000000000FFF
310
800000000000FFF8000001FFFE0000007FFFFFF0001FFFFFFFF800000000000F
310
FFFFF800000000000FFFFF000000000003FC000000000007F000F80000000000
310
03FFFFC00003FFFE00001FFFFF80007FF0000000000007FF0000000000007FF8
310
000001FFFE0000007FFFFFF0001FFFFFFFF0000000000007FFFFF00000000000
310
07FFFF000000000003F8000000000003F000F0000000000003FFFFC00001FFFE
310
00001FFFFF80007FE0000000000007FE0000000000003FF8000001FFFE000000
310
7FFFFFF0001FFFFFFFF0000000000007FFFFF0000000000007FFFF0000000000
310
03F800001F800003F000E00001FFF00001FFFFC00001FFFE00000FFFFF80007F
310
E00001FFE00003FE00001FFF00003FF8000001FFFE0000007FFFFFF0001FFFFF
310
FFE000003E000003FFFFE000003E000003FFFF000000000003F00001FFF80001
310
F000E00007FFFC0001FFFFC00001FFFE00000FFFFF80007FC0000FFFFC0003FC
310
0000FFFFC0001FF8000001FFFE0000007FFFFFF0001FFFFFFFC00003FFE00001
310
FFFFC00003FFE00001FFFF0001FFFFFFFFF00007FFFE0001F000E0000FFFFF00
310
00FFFF800001FFFC00000FFFFF80007FC0001FFFFE0001FC0001FFFFE0001FF8
310
000001FFFE0000007FFFFFF0001FFFFFFF80000FFFF80000FFFF80000FFFF800
310
00FFFF0003FFFFFFFFE0000FFFFF8000F000C0003FFFFF8000FFFF800000FFFC
310
000007FFFF80007F80003FFFFF0001FC0003FFFFF0001FF8000001FFFE000000
310
7FFFFFF0001FFFFFFF80003FFFFE0000FFFF80003FFFFE0000FFFF0003FFFFFF
310
FFE0003FFFFF8000F000C0003FFFFF8000FFFF800000FFFC000007FFFF80007F
310
80007FFFFF8001F80007FFFFF8000FF8000001FFFE0000007FFFFFF0001FFFFF
310
FF00007FFFFF00007FFF00007FFFFF00007FFF0003FFFFFFFFE0003FFFFFC000
310
F000C0007FFFFFC000FFFF000000FFFC000007FFFF80007F8000FFFFFF8000F8
310
000FFFFFF8000FF8000001FFFE0000007FFFFFF0001FFFFFFF0000FFFFFF8000
310
7FFF0000FFFFFF80007FFF0003FFFFFFFFC0007FFFFFC00070008000FFFFFFC0
310
00FFFF000000FFF8000007FFFF80007F8000FFFFFF8000F8000FFFFFF8000FF8
310
000001FFFE0000007FFFFFF0001FFFFFFE0001FFFFFFC0003FFE0001FFFFFFC0
310
003FFF0003FFFFFFFFC0007FFFFFE00070008000FFFFFFC0007FFF0000007FF8
310
000003FFFF80007F0001FFFFFF8000F8000FFFFFF8000FF8000001FFFE000000
310
7FFFFFF0001FFFFFFE0001FFFFFFC0003FFE0001FFFFFFC0003FFF0003FFFFFF
310
FFC000FFFFFFE00070008000FFFFFFC0007FFF0000007FF8000003FFFF80007F
310
0001FFFFFF8000F8001FFFFFF8000FF8000001FFFE0000007FFFFFF0001FFFFF
310
FE0003FFFFFFE0003FFE0003FFFFFFE0003FFF0003FFFFFFFFC000FFFFFFE000
310
70008000FFFFFFC0007FFE0000007FF8000003FFFF80007F0001FFFFFF8000F0
310
001FFFFFF8000FF8000001FFFE0000007FFFFFF0001FFFFFFC0003FFFFFFE000
310
1FFC0003FFFFFFE0001FFF0003FFFFFFFFC000FFFFFFC00070008000FFFFFF80
310
007FFE0000007FF0000003FFFF80007F0001FFFFFF0000F0001FFFFFF8000FF8
310
000001FFFE0000007FFFFFF0001FFFFFFC0007FFFFFFF0001FFC0007FFFFFFF0
310
001FFF0003FFFFFFFFC000FFFFFFC00070008001FFFFFF0000FFFE0000003FF0
310
000001FFFF80007F0001FFFFFF0000F8001FFFFFF0000FF8000001FFFE000000
310
7FFFFFF0001FFFFFFC0007FFFFFFF0001FFC0007FFFFFFF0001FFF0003FFFFFF
310
FFC001FFFFFF80007000FFFFFFFFFE0000FFFE0008003FF0008001FFFF80007F
310
FFFFFFFFFC0000FFFFFFFFFFE0000FF8000001FFFE0000007FFFFFF0001FFFFF
310
F8000FFFFFFFF8000FF8000FFFFFFFF8000FFF0003FFFFFFFFFFFFFFFFFF0000
310
7000FFFFFFFFFC0000FFFC0008003FF0008001FFFF80007FFFFFFFFFF80001FF
310
FFFFFFFF80000FF8000001FFFE0000007FFFFFF0001FFFFFF8000FFFFFFFF800
310
0FF8000FFFFFFFF8000FFF0003FFFFFFFFFFFFFFFFFE0000F000FFFFFFFFE000
310
00FFFC000C003FE000C001FFFF80007FFFFFFFFFC00001FFFFFFFFFE00001FF8
310
000001FFFE0000007FFFFFF0001FFFFFF8000FFFFFFFF8000FF8000FFFFFFFF8
310
000FFF0003FFFFFFFFFFFFFFFFF00000F000FFFFFFFE000001FFFC000C001FE0
310
00C000FFFF80007FFFFFFFFE000001FFFFFFFFE000001FF80FFFFFFFFFFFFFC0
310
7FFFFFF0001FFFFFF8000FFFFFFFF8000FF8000FFFFFFFF8000FFF0003FFFFFF
310
FFFFFFFFFF800000F000FFFFFFC0000001FFFC001C001FE001C000FFFF80007F
310
FFFFFF80000003FFFFFFF80000001FF80FFFFFFFFFFFFFC07FFFFFF0001FFFFF
310
F8001FFFFFFFFC000FF8001FFFFFFFFC000FFF0003FFFFFFFFFFFFFFF0000001
310
F000FFFFF800000001FFF8001C001FE001C000FFFF80007FFFFFF800000003FF
310
FFFF800000003FF80FFFFFFFFFFFFFC07FFFFFF0001FFFFFF8001FFFFFFFFC00
310
0FF8001FFFFFFFFC000FFF0003FFFFFFFFFFFFFE00000001F000FFFFC0000000
310
03FFF8001E001FC001E000FFFF80007FFFFF8000000007FFFFFC000000003FF8
310
0FFFFFFFFFFFFFC07FFFFFF0001FFFFFF8001FFFFFFFFC000FF8001FFFFFFFFC
310
000FFF0003FFFFFFFFFFFFE000000003F000FFFE0000000007FFF8001E000FC0
310
01E0007FFF80007FFFFE0000000007FFFFE0000000007FF80FFFFFFFFFFFFFC0
310
7FFFFFF0001FFFFFF0001FFFFFFFFC0007F0001FFFFFFFFC0007FF0003FFFFFF
310
FFFFFF0000000003F000FFF80000000007FFF8001E000FC003E0007FFF80007F
310
FFF0000000000FFFFF8000000000FFF80FFFFFFFFFFFFFC07FFFFFF0001FFFFF
310
F0001FFFFFFFFC0007F0001FFFFFFFFC0007FF0003FFFFFFFFFFFC0000000007
310
F000FFE0000000000FFFF0003E000FC003E0007FFF80007FFFC0000000001FFF
310
FE0000000001FFF80FFFFFFFFFFFFFC07FFFFFF0001FFFFFF0001FFFFFFFFC00
310
07F0001FFFFFFFFC0007FF0003FFFFFFFFFFF0000000000FF000FFC000000000
310
1FFFF0003F000F8003F0003FFF80007FFF80000000003FFFF80000000003FFF8
310
0FFFFFFFFFFFFFC07FFFFFF0001FFFFFF0001FFFFFFFFC0007F0001FFFFFFFFC
310
0007FF0003FFFFFFFFFFE0000000001FF000FF00000000007FFFF0003F000780
310
03F0003FFF80007FFF00000000007FFFF00000000007FFF80FFFFFFFFFFFFFC0
310
7FFFFFF0001FFFFFF0001FFFFFFFFC0007F0001FFFFFFFFC0007FF0003FFFFFF
310
FFFF80000000007FF000FE0000000000FFFFE0003F00078007F0003FFF80007F
310
FE0000000001FFFFE0000000001FFFF80FFFFFFFFFFFFFC07FFFFFF0001FFFFF
310
F0001FFFFFFFFC0007F0001FFFFFFFFC0007FF0003FFFFFFFFFF0000000000FF
310
F000FC0000000003FFFFE0007F00078007F0003FFF80007FFC0000000007FFFF
310
C0000000007FFFF80FFFFFFFFFFFFFC07FFFFFF0001FFFFFF8001FFFFFFFFC00
310
0FF8001FFFFFFFFC000FFF0003FFFFFFFFFE0000000003FFF000FC000000000F
310
FFFFE0007F80070007F8001FFF80007FF8000000001FFFFF8000000001FFFFF8
310
0FFFFFFFFFFFFFC07FFFFFF0001FFFFFF8001FFFFFFFFC000FF8001FFFFFFFFC
310
000FFF0003FFFFFFFFFC000000000FFFF000F8000000007FFFFFE0007F800700
310
07F8001FFF80007FF000000000FFFFFF800000000FFFFFF80FFFFFFFFFFFFFC0
310
7FFFFFF0001FFFFFF8000FFFFFFFF8000FF8000FFFFFFFF8000FFF0003FFFFFF
310
FFFC000000007FFFF000F800000007FFFFFFC0007F8003000FF8001FFF80007F
310
F000000007FFFFFF000000007FFFFFF80FFFFFFFFFFFFFC07FFFFFF0001FFFFF
310
F8000FFFFFFFF8000FF8000FFFFFFFF8000FFF0003FFFFFFFFF80000000FFFFF
310
F000F0000000FFFFFFFFC000FF8003000FF8001FFF80007FE0000000FFFFFFFF
310
0000000FFFFFFFF8000001FFFE0000007FFFFFF0001FFFFFF8000FFFFFFFF800
310
0FF8000FFFFFFFF8000FFF0003FFFFFFFFF8000000FFFFFFF000F000000FFFFF
310
FFFFC000FFC002000FF8000FFF80007FE000001FFFFFFFFE000001FFFFFFFFF8
310
000001FFFE0000007FFFFFF0001FFFFFF8000FFFFFFFF8000FF8000FFFFFFFF8
310
000FFF0003FFFFFFFFF000001FFFFFFFF000E00000FFFFFFFFFFC000FFC00200
310
0FFC000FFF80007FE00001FFFFFFFFFE00001FFFFFFFFFF8000001FFFE000000
310
7FFFFFF0001FFFFFFC000FFFFFFFF8001FFC000FFFFFFFF8001FFF0003FFFFFF
310
FFF00001FFFFFFFFF000E00007FFFFFFFFFF8000FFC000001FFC000FFF80007F
310
C0000FFFFFFFFFFE0000FFFFFFFFFFF8000001FFFE0000007FFFFFF0001FFFFF
310
FC0007FFFFFFF0001FFC0007FFFFFFF0001FFF0003FFFFFFFFF00007FFFFFFFF
310
F000E0001FFFFFFFFFFF8000FFC000001FFC000FFF80007FC0003FFFFFFFFFFE
310
0001FFFFFFFFFFF8000001FFFE0000007FFFFFF0001FFFFFFC0007FFFFFFF000
310
1FFC0007FFFFFFF0001FFF0003FFFFFFFFF0001FFFFFFFFFF000E0003FFFFF00
310
03FF8001FFE000001FFC0007FF80007FC0007FFFFF0007FC0003FFFFF0003FF8
310
000001FFFE0000007FFFFFF0001FFFFFFC0003FFFFFFE0001FFC0003FFFFFFE0
310
001FFF0003FFFFFFFFF0003FFFFFFFFFF000E0003FFFFF0001FF8001FFE00000
310
1FFE0007FF80007FC0007FFFFE0003FC0007FFFFE0003FF8000001FFFE000000
310
7FFFFFF0001FFFFFFE0003FFFFFFE0003FFE0003FFFFFFE0003FFF0003FFFFFF
310
FFF0003FFFFF8001F000E0003FFFFF0001FF0001FFE000001FFE0007FF80007F
310
C0007FFFFE0003FC0007FFFFE0003FF8000001FFFE0000007FFFFFF0001FFFFF
310
FE0001FFFFFFC0003FFE0001FFFFFFC0003FFF0003FFFFFFFFF0003FFFFF0001
310
F000E0003FFFFF0003FF0001FFE000003FFE0007FF80007FC0007FFFFE0003FC
310
0007FFFFE0003FF8000001FFFE0000007FFFFFF0001FFFFFFF0001FFFFFFC000
310
7FFF0001FFFFFFC0007FFF0003FFFFFFFFF0003FFFFF0001F000E0003FFFFE00
310
03FF0003FFF000003FFE0003FF80007FC0007FFFFC0003FE0007FFFFE0003FF8
310
000001FFFE0000007FFFFFF0001FFFFFFF0000FFFFFF80007FFF0000FFFFFF80
310
007FFF0003FFFFFFFFF0003FFFFF0001F000E0003FFFFE0003FF0003FFF00000
310
3FFF0003FF80007FC0007FFFFC0007FE0007FFFFC0003FF8000001FFFE000000
310
7FFFFFF0001FFFFFFF80007FFFFF0000FFFF80007FFFFF0000FFFF0003FFFFFF
310
FFF0003FFFFF0003F000E0003FFFFC0003FE0003FFF000003FFF0003FF80007F
310
E0003FFFF80007FE0003FFFFC0007FF8000001FFFE0000007FFFFFF0001FFFFF
310
FF80003FFFFE0000FFFF80003FFFFE0000FFFF0003FFFFFFFFF0001FFFFE0003
310
F000F0001FFFF80003FE0003FFF000007FFF0001FF80007FE0003FFFF00007FE
310
0001FFFF80007FF8000001FFFE0000007FFFFFF0001FFFFFFFC0000FFFF80001
310
FFFFC0000FFFF80001FFFF0003FFFFFFFFF0001FFFFC0003F000F0000FFFF000
310
07FE0007FFF800007FFF0001FF80007FE0001FFFE00007FF0000FFFE00007FF8
310
000001FFFE0000007FFFFFF0001FFFFFFFC00003FFE00001FFFFC00003FFE000
310
01FFFF0003FFFFFFFFF8000FFFF80003F000F00003FFC00007FC0007FFF80000
310
7FFF8001FF80007FF00007FF80000FFF00007FF80000FFF8000001FFFE000000
310
7F80000000000001FFE000003E000003FFFFE000003E000003FFFF0003FFFFFF
310
FFF80003FFE00007F000F800000000000FFC0007FFF800007FFF8001FF80007F
310
F000000000000FFF000000000000FFF8000001FFFE0000007F80000000000001
310
FFF0000000000007FFFFF0000000000007FFFF0003FFFFFFFFFC00007E000007
310
F000F800000000000FFC0007FFF80000FFFF8000FF80007FF800000000001FFF
310
800000000001FFF8000001FFFE0000007F80000000000001FFF800000000000F
310
FFFFF800000000000FFFFF0003FFFFFFFFFC00000000000FF000FC0000000000
310
1FFC0007FFFC0000FFFF8000FF80007FF800000000003FFFC00000000001FFF8
310
000001FFFE0000007F80000000000001FFF800000000000FFFFFF80000000000
310
0FFFFF0003FFFFFFFFFE00000000001FF000FE00000000003FF8000FFFFC0000
310
FFFF8000FF80007FFC00000000003FFFC00000000003FFF8000001FFFE000000
310
7F80000000000001FFFC00000000001FFFFFFC00000000001FFFFF0003FFFFFF
310
FFFF00000000001FF000FF00000000003FF8000FFFFC0000FFFFC000FF80007F
310
FE00000000007FFFE00000000007FFF8000001FFFE0000007F80000000000001
310
FFFE00000000003FFFFFFE00000000003FFFFF0003FFFFFFFFFF80000000003F
310
F000FF80000000007FF8000FFFFC0001FFFFC0007F80007FFF0000000000FFFF
310
F0000000000FFFF800000000000000007F80000000000001FFFF8000000000FF
310
FFFFFF8000000000FFFFFF0003FFFFFFFFFFC0000000007FF000FFC000000000
310
FFF8000FFFFE0001FFFFC0007F80007FFF8000000001FFFFF8000000001FFFF8
310
00000000000000007F80000000000001FFFFC000000001FFFFFFFFC000000001
310
FFFFFF0003FFFFFFFFFFE000000000FFF000FFE000000003FFF0001FFFFE0001
310
FFFFC0007F80007FFFC000000007FFFFFE000000003FFFF80000000000000000
310
7F80000000000001FFFFE000000003FFFFFFFFE000000003FFFFFF0003FFFFFF
310
FFFFF000000003FFF000FFF80000000FFFF0001FFFFE0001FFFFE0007F80007F
310
FFF00000000FFFFFFF00000000FFFFF800000000000000007F80000000000001
310
FFFFF80000000FFFFFFFFFF80000000FFFFFFF0003FFFFFFFFFFFC0000000FFF
310
F000FFFE0000003FFFF0001FFFFE0003FFFFE0003F80007FFFFC0000003FFFFF
310
FFC0000003FFFFF800000000000000007F80000000000001FFFFFE0000003FFF
310
FFFFFFFE0000003FFFFFFF0003FFFFFFFFFFFF0000003FFFF000FFFF800000FF
310
FFF0001FFFFF0003FFFFE0003F80007FFFFF000001FFFFFFFFF800001FFFFFF8
310
00000000000000007F80000000000001FFFFFFC00001FFFFFFFFFFFFC00001FF
310
FFFFFF0003FFFFFFFFFFFFC00000FFFFF000FFFFF8000FFFFFFFFFFFFFFFFFFF
310
FFFFFFFFFFFFFFFFFFFFF0001FFFFFFFFFFF0000FFFFFFF80000000000000000
310
7FFFFFFFFFFFFFFFFFFFFFFC001FFFFFFFFFFFFFFC001FFFFFFFFFFFFFFFFFFF
310
FFFFFFFC001FFFFFF000FFFFFFFFFFFFFFFFFFFFFFFFFFFFFFFFFFFFFFFFFFFF
310
FFFFFFFFFFFFFFFFFFFFFFFFFFFFFFFFFFFFFFFFFFFFFFFFFFFFFFFFFFFFFFFF
310
FFFFFFFFFFFFFFFFFFFFFFFFFFFFFFFFFFFFFFFFFFFFFFFFFFFFFFFFFFFFFFFF
310
F000FFFFFFFFFFFFFFFFFFFFFFFFFFFFFFFFFFFFFFFFFFFFFFFFFFFFFFFFFFFF
310
FFFFFFFFFFFFFFFFFFFFFFFFFFFFFFFFFFFFFFFFFFFFFFFFFFFFFFFFFFFFFFFF
310
FFFFFFFFFFFFFFFFFFFFFFFFFFFFFFFFFFFFFFFFFFFFFFFFF000FFFFFFFFFFFF
310
FFFFFFFFFFFFFFFFFFFFFFFFFFFFFFFFFFFFFFFFFFFFFFFFFFFFFFFFFFFFFFFF
310
FFFFFFFFFFFFFFFFFFFFFFFFFFFFFFFFFFFFFFFFFFFFFFFFFFFFFFFFFFFFFFFF
310
FFFFFFFFFFFFFFFFFFFFFFFFFFFFFFFFF000FFFFFFFFFFFFFFFFFFFFFFFFFFFF
310
FFFFFFFFFFFFFFFFFFFFFFFFFFFFFFFFFFFFFFFFFFFFFFFFFFFFFFFFFFFFFFFF
310
FFFFFFFFFFFFFFFFFFFFFFFFFFFFFFFFFFFFFFFFFFFFFFFFFFFFFFFFFFFFFFFF
310
FFFFFFFFFFFFFFFFF000FFFFFFFFFFFFFFFFFFFFFFFFFFFFFFFFFFFFFFFFFFFF
310
FFFFFFFFFFFFFFFFFFFFFFFFFFFFFFFFFFFFFFFFFFFFFFFFFFFFFFFFFFFFFFFF
310
FFFFFFFFFFFFFFFFFFFFFFFFFFFFFFFFFFFFFFFFFFFFFFFFFFFFFFFFFFFFFFFF
310
F000FFFFFFFFFFFFFFFFFFFFFFFFFFFFFFFFFFFFFFFFFFFFFFFFFFFFFFFFFFFF
310
FFFFFFFFFFFFFFFFFFFFFFFFFFFFFFFFFFFFFFFFFFFFFFFFFFFFFFFFFFFFFFFF
310
FFFFFFFFFFFFFFFFFFFFFFFFFFFFFFFFFFFFFFFFFFFFFFFFF000FFFFFFFFFFFF
310
FFFFFFFFFFFFFFFFFFFFFFFFFFFFFFFFFFFFFFFFFFFFFFFFFFFFFFFFFFFFFFFF
310
FFFFFFFFFFFFFFFFFFFFFFFFFFFFFFFFFFFFFFFFFFFFFFFFFFFFFFFFFFFFFFFF
310
FFFFFFFFFFFFFFFFFFFFFFFFFFFFFFFFF000FFFFFFFFFFFFFFFFFFFFFFFFFFFF
310
FFFFFFFFFFFFFFFFFFFFFFFFFFFFFFFFFFFFFFFFFFFFFFFFFFFFFFFFFFFFFFFF
310
FFFFFFFFFFFFFFFFFFFFFFFFFFFFFFFFFFFFFFFFFFFFFFFFFFFFFFFFFFFFFFFF
310
FFFFFFFFFFFFFFFFF000FFFFFFFFFFFFFFFFFFFFFFFFFFFFFFFFFFFFFFFFFFFF
310
FFFFFFFFFFFFFFFFFFFFFFFFFFFFFFFFFFFFFFFFFFFFFFFFFFFFFFFFFFFFFFFF
310
FFFFFFFFFFFFFFFFFFFFFFFFFFFFFFFFFFFFFFFFFFFFFFFFFFFFFFFFFFFFFFFF
310
F000FFFFFFFFFFFFFFFFFFFFFFFFFFFFFFFFFFFFFFFFFFFFFFFFFFFFFFFFFFFF
310
FFFFFFFFFFFFFFFFFFFFFFFFFFFFFFFFFFFFFFFFFFFFFFFFFFFFFFFFFFFFFFFF
310
FFFFFFFFFFFFFFFFFFFFFFFFFFFFFFFFFFFFFFFFFFFFFFFFF000FFFFFFFFFFFF
310
FFFFFFFFFFFFFFFFFFFFFFFFFFFFFFFFFFFFFFFFFFFFFFFFFFFFFFFFFFFFFFFF
310
FFFFFFFFFFFFFFFFFFFFFFFFFFFFFFFFFFFFFFFFFFFFFFFFFFFFFFFFFFFFFFFF
310
FFFFFFFFFFFFFFFFFFFFFFFFFFFFFFFFF000FFFFFFFFFFFFFFFFFFFFFFFFFFFF
310
FFFFFFFFFFFFFFFFFFFFFFFFFFFFFFFFFFFFFFFFFFFFFFFFFFFFFFFFFFFFFFFF
310
FFFFFFFFFFFFFFFFFFFFFFFFFFFFFFFFFFFFFFFFFFFFFFFFFFFFFFFFFFFFFFFF
310
FFFFFFFFFFFFFFFFF000FFFFFFFFFFFFFFFFFFFFFFFFFFFFFFFFFFFFFFFFFFFF
310
FFFFFFFFFFFFFFFFFFFFFFFFFFFFFFFFFFFFFFFFFFFFFFFFFFFFFFFFFFFFFFFF
310
FFFFFFFFFFFFFFFFFFFFFFFFFFFFFFFFFFFFFFFFFFFFFFFFFFFFFFFFFFFFFFFF
310
F000FFFFFFFFFFFFFFFFFFFFFFFFFFFFFFFFFFFFFFFFFFFFFFFFFFFFFFFFFFFF
310
FFFFFFFFFFFFFFFFFFFFFFFFFFFFFFFFFFFFFFFFFFFFFFFFFFFFFFFFFFFFFFFF
310
FFFFFFFFFFFFFFFFFFFFFFFFFFFFFFFFFFFFFFFFFFFFFFFFF000FFFFFFFFFFFF
310
FFFFFFFFFFFFFFFFFFFFFFFFFFFFFFFFFFFFFFFFFFFFFFFFFFFFFFFFFFFFFFFF
310
FFFFFFFFFFFFFFFFFFFFFFFFFFFFFFFFFFFFFFFFFFFFFFFFFFFFFFFFFFFFFFFF
310
FFFFFFFFFFFFFFFFFFFFFFFFFFFFFFFFF000FFFFFFFFFFFFFFFFFFFFFFFFFFFF
310
FFFFFFFFFFFFFFFFFFFFFFFFFFFFFFFFFFFFFFFFFFFFFFFFFFFFFFFFFFFFFFFF
310
FFFFFFFFFFFFFFFFFFFFFFFFFFFFFFFFFFFFFFFFFFFFFFFFFFFFFFFFFFFFFFFF
310
FFFFFFFFFFFFFFFFF000FFFFFFFFFFFFFFFFFFFFFFFFFFFFFFFFFFFFFFFFFFFF
310
FFFFFFFFFFFFFFFFFFFFFFFFFFFFFFFFFFFFFFFFFFFFFFFFFFFFFFFFFFFFFFFF
310
FFFFFFFFFFFFFFFFFFFFFFFFFFFFFFFFFFFFFFFFFFFFFFFFFFFFFFFFFFFFFFFF
310
F000FFFFFFFFFFFFFFFFFFFFFFFFFFFFFFFFFFFFFFFFFFFFFFFFFFFFFFFFFFFF
310
FFFFFFFFFFFFFFFFFFFFFFFFFFFFFFFFFFFFFFFFFFFFFFFFFFFFFFFFFFFFFFFF
310
FFFFFFFFFFFFFFFFFFFFFFFFFFFFFFFFFFFFFFFFFFFFFFFFF000FFFFFFFFFFFF
310
FFFFFFFFFFFFFFFFFFFFFFFFFFFFFFFFFFFFFFFFFFFFFFFFFFFFFFFFFFFFFFFF
310
FFFFFFFFFFFFFFFFFFFFFFFFFFFFFFFFFFFFFFFFFFFFFFFFFFFFFFFFFFFFFFFF
310
FFFFFFFFFFFFFFFFFFFFFFFFFFFFFFFFF000FFFFFFFFFFFFFFFFFFFFFFFFFFFF
310
FFFFFFFFFFFFFFFFFFFFFFFFFFFFFFFFFFFFFFFFFFFFFFFFFFFFFFFFFFFFFFFF
310
FFFFFFFFFFFFFFFFFFFFFFFFFFFFFFFFFFFFFFFFFFFFFFFFFFFFFFFFFFFFFFFF
310
FFFFFFFFFFFFFFFFF000FFFFFFFFFFFFFFFFFFFFFFFFFFFFFFFFFFFFFFFFFFFF
310
FFFFFFFFFFFFFFFFFFFFFFFFFFFFFFFFFFFFFFFFFFFFFFFFFFFFFFFFFFFFFFFF
310
FFFFFFFFFFFFFFFFFFFFFFFFFFFFFFFFFFFFFFFFFFFFFFFFFFFFFFFFFFFFFFFF
310
F000FFFFFFFFFFFFFFFFFFFFFFFFFFFFFFFFFFFFFFFFFFFFFFFFFFFFFFFFFFFF
310
FFFFFFFFFFFFFFFFFFFFFFFFFFFFFFFFFFFFFFFFFFFFFFFFFFFFFFFFFFFFFFFF
310
FFFFFFFFFFFFFFFFFFFFFFFFFFFFFFFFFFFFFFFFFFFFFFFFF000FFFFFFFFFFFF
310
FFFFFFFFFFFFFFFFFFFFFFFFFFFFFFFFFFFFFFFFFFFFFFFFFFFFFFFFFFFFFFFF
310
FFFFFFFFFFFFFFFFFFFFFFFFFFFFFFFFFFFFFFFFFFFFFFFFFFFFFFFFFFFFFFFF
310
FFFFFFFFFFFFFFFFFFFFFFFFFFFFFFFFF0000000000000000000000000000000
310
0000000000000000000000000000000000000000000000000000000000000000
310
0000000000000000000000000000000000000000000000000000000000000000
310
0000000000000000000000000000000000000000000000000000000000000000
310
0000000000000000000000000000000000000000000000000000000000000000
310
0000000000000000000000000000000000000000000000000000000000000000
310
0000000000000000000000000000000000000000000000000000000000000000
310
0000000000000000000000000000000000000000000000000000000000000000
310
0000000000000000000000000000000000000000000000000000000000000000
310
0000000000000000000000000000000000000000000000000000000000000000
310
0000000000000000000000000000000000000000000000000000000000000000
310
0000000000000000000000000000000000000000000000000000000000000000
310
0000000000000000000000000000000000000000000000000000000000000000
310
0000000000000000000000000000000000000000000000000000000000000000
310
0000000000000000000000000000000000000000000000000000000000000000
310
0000000000000000000000000000000000000000000000000000000000000000
  1
OLE
  0
ENDSEC
  0
SECTION
  2
OBJECTS
  0
DICTIONARY
  5
C
330
0
100
AcDbDictionary
281
     1
  3
ACAD_GROUP
350
D
  3
ACAD_LAYOUT
350
1A
  3
ACAD_MLINESTYLE
350
17
  3
ACAD_PLOTSETTINGS
350
19
  3
ACAD_PLOTSTYLENAME
350
E
  0
DICTIONARY
  5
D
102
{ACAD_REACTORS
330
C
102
}
330
C
100
AcDbDictionary
281
     1
  0
DICTIONARY
  5
1A
102
{ACAD_REACTORS
330
C
102
}
330
C
100
AcDbDictionary
281
     1
  3
Layout1
350
1E
  3
Layout2
350
26
  3
Model
350
22
  0
DICTIONARY
  5
17
102
{ACAD_REACTORS
330
C
102
}
330
C
100
AcDbDictionary
281
     1
  3
Standard
350
18
  0
DICTIONARY
  5
19
102
{ACAD_REACTORS
330
C
102
}
330
C
100
AcDbDictionary
281
     1
  0
ACDBDICTIONARYWDFLT
  5
E
102
{ACAD_REACTORS
330
C
102
}
330
C
100
AcDbDictionary
281
     1
  3
Normal
350
F
100
AcDbDictionaryWithDefault
340
F
  0
LAYOUT
  5
1E
102
{ACAD_REACTORS
330
1A
102
}
330
1A
100
AcDbPlotSettings
  1

  2
none_device
  4

  6

 40
0.0
 41
0.0
 42
0.0
 43
0.0
 44
0.0
 45
0.0
 46
0.0
 47
0.0
 48
0.0
 49
0.0
140
0.0
141
0.0
142
1.0
143
1.0
 70
   688
 72
     0
 73
     0
 74
     5
  7

 75
    16
147
1.0
148
0.0
149
0.0
100
AcDbLayout
  1
Layout1
 70
     1
 71
     1
 10
0.0
 20
0.0
 11
420.0
 21
297.0
 12
0.0
 22
0.0
 32
0.0
 14
1.0000000000E+20
 24
1.0000000000E+20
 34
1.0000000000E+20
 15
-1.0000000000E+20
 25
-1.0000000000E+20
 35
-1.0000000000E+20
146
0.0
 13
0.0
 23
0.0
 33
0.0
 16
1.0
 26
0.0
 36
0.0
 17
0.0
 27
1.0
 37
0.0
 76
     0
330
1B
  0
LAYOUT
  5
26
102
{ACAD_REACTORS
330
1A
102
}
330
1A
100
AcDbPlotSettings
  1

  2
none_device
  4

  6

 40
0.0
 41
0.0
 42
0.0
 43
0.0
 44
0.0
 45
0.0
 46
0.0
 47
0.0
 48
0.0
 49
0.0
140
0.0
141
0.0
142
1.0
143
1.0
 70
   688
 72
     0
 73
     0
 74
     5
  7

 75
    16
147
1.0
148
0.0
149
0.0
100
AcDbLayout
  1
Layout2
 70
     1
 71
     2
 10
0.0
 20
0.0
 11
0.0
 21
0.0
 12
0.0
 22
0.0
 32
0.0
 14
0.0
 24
0.0
 34
0.0
 15
0.0
 25
0.0
 35
0.0
146
0.0
 13
0.0
 23
0.0
 33
0.0
 16
1.0
 26
0.0
 36
0.0
 17
0.0
 27
1.0
 37
0.0
 76
     0
330
23
  0
LAYOUT
  5
22
102
{ACAD_REACTORS
330
1A
102
}
330
1A
100
AcDbPlotSettings
  1

  2
none_device
  4

  6

 40
0.0
 41
0.0
 42
0.0
 43
0.0
 44
0.0
 45
0.0
 46
0.0
 47
0.0
 48
0.0
 49
0.0
140
0.0
141
0.0
142
1.0
143
1.0
 70
  1712
 72
     0
 73
     0
 74
     0
  7

 75
     0
147
1.0
148
0.0
149
0.0
100
AcDbLayout
  1
Model
 70
     1
 71
     0
 10
0.0
 20
0.0
 11
297.0
 21
210.0
 12
0.0
 22
0.0
 32
0.0
 14
0.0
 24
0.0
 34
0.0
 15
297.0
 25
210.0
 35
0.0
146
0.0
 13
0.0
 23
0.0
 33
0.0
 16
1.0
 26
0.0
 36
0.0
 17
0.0
 27
1.0
 37
0.0
 76
     0
330
1F
331
29
  0
MLINESTYLE
  5
18
102
{ACAD_REACTORS
330
17
102
}
330
17
100
AcDbMlineStyle
  2
Standard
 70
     0
  3

 62
   256
 51
90.0
 52
90.0
 71
     2
 49
0.5
 62
   256
  6
BYLAYER
 49
-0.5
 62
   256
  6
BYLAYER
  0
ACDBPLACEHOLDER
  5
F
102
{ACAD_REACTORS
330
E
102
}
330
E
  0
ENDSEC
  0
EOF
