  0
SECTION
  2
HEADER
  9
$ACADVER
  1
AC1015
  9
$ACADMAINTVER
 70
     6
  9
$DWGCODEPAGE
  3
ANSI_1252
  9
$INSBASE
 10
0.0
 20
0.0
 30
0.0
  9
$EXTMIN
 10
0.0
 20
0.0
 30
0.0
  9
$EXTMAX
 10
297.0
 20
210.0
 30
0.0
  9
$LIMMIN
 10
0.0
 20
0.0
  9
$LIMMAX
 10
297.0
 20
210.0
  9
$ORTHOMODE
 70
     0
  9
$REGENMODE
 70
     1
  9
$FILLMODE
 70
     1
  9
$QTEXTMODE
 70
     0
  9
$MIRRTEXT
 70
     1
  9
$LTSCALE
 40
1.0
  9
$ATTMODE
 70
     1
  9
$TEXTSIZE
 40
2.0
  9
$TRACEWID
 40
1.0
  9
$TEXTSTYLE
  7
Standard
  9
$CLAYER
  8
0
  9
$CELTYPE
  6
ByLayer
  9
$CECOLOR
 62
   256
  9
$CELTSCALE
 40
1.0
  9
$DISPSILH
 70
     0
  9
$DIMSCALE
 40
1.0
  9
$DIMASZ
 40
3.0
  9
$DIMEXO
 40
0.0
  9
$DIMDLI
 40
3.75
  9
$DIMRND
 40
0.0
  9
$DIMDLE
 40
0.0
  9
$DIMEXE
 40
1.0
  9
$DIMTP
 40
0.0
  9
$DIMTM
 40
0.0
  9
$DIMTXT
 40
2.0
  9
$DIMCEN
 40
2.5
  9
$DIMTSZ
 40
0.0
  9
$DIMTOL
 70
     0
  9
$DIMLIM
 70
     0
  9
$DIMTIH
 70
     1
  9
$DIMTOH
 70
     1
  9
$DIMSE1
 70
     0
  9
$DIMSE2
 70
     0
  9
$DIMTAD
 70
     1
  9
$DIMZIN
 70
     0
  9
$DIMBLK
  1

  9
$DIMASO
 70
     1
  9
$DIMSHO
 70
     1
  9
$DIMPOST
  1

  9
$DIMAPOST
  1

  9
$DIMALT
 70
     0
  9
$DIMALTD
 70
     3
  9
$DIMALTF
 40
0.0393700787
  9
$DIMLFAC
 40
1.0
  9
$DIMTOFL
 70
     1
  9
$DIMTVP
 40
0.0
  9
$DIMTIX
 70
     0
  9
$DIMSOXD
 70
     0
  9
$DIMSAH
 70
     0
  9
$DIMBLK1
  1

  9
$DIMBLK2
  1

  9
$DIMSTYLE
  2
ISO-25
  9
$DIMCLRD
 70
     0
  9
$DIMCLRE
 70
     0
  9
$DIMCLRT
 70
     0
  9
$DIMTFAC
 40
1.0
  9
$DIMGAP
 40
1.524
  9
$DIMJUST
 70
     0
  9
$DIMSD1
 70
     0
  9
$DIMSD2
 70
     0
  9
$DIMTOLJ
 70
     0
  9
$DIMTZIN
 70
     0
  9
$DIMALTZ
 70
     0
  9
$DIMALTTZ
 70
     0
  9
$DIMUPT
 70
     0
  9
$DIMDEC
 70
     2
  9
$DIMTDEC
 70
     3
  9
$DIMALTU
 70
     2
  9
$DIMALTTD
 70
     3
  9
$DIMTXSTY
  7
Standard
  9
$DIMAUNIT
 70
     0
  9
$DIMADEC
 70
     2
  9
$DIMALTRND
 40
0.0
  9
$DIMAZIN
 70
     0
  9
$DIMDSEP
 70
    44
  9
$DIMATFIT
 70
     3
  9
$DIMFRAC
 70
     0
  9
$DIMLDRBLK
  1

  9
$DIMLUNIT
 70
     2
  9
$DIMLWD
 70
    -2
  9
$DIMLWE
 70
    -2
  9
$DIMTMOVE
 70
     0
  9
$LUNITS
 70
     2
  9
$LUPREC
 70
     2
  9
$SKETCHINC
 40
1.0
  9
$FILLETRAD
 40
10.0
  9
$AUNITS
 70
     0
  9
$AUPREC
 70
     2
  9
$MENU
  1
.
  9
$ELEVATION
 40
0.0
  9
$PELEVATION
 40
0.0
  9
$THICKNESS
 40
0.0
  9
$LIMCHECK
 70
     0
  9
$CHAMFERA
 40
10.0
  9
$CHAMFERB
 40
10.0
  9
$CHAMFERC
 40
20.0
  9
$CHAMFERD
 40
0.0
  9
$SKPOLY
 70
     0
  9
$TDCREATE
 40
2456087.440071829
  9
$TDUCREATE
 40
2456087.356738495
  9
$TDUPDATE
 40
2456087.440073808
  9
$TDUUPDATE
 40
2456087.356740475
  9
$TDINDWG
 40
0.0000000116
  9
$TDUSRTIMER
 40
0.0000000116
  9
$USRTIMER
 70
     1
  9
$ANGBASE
 50
0.0
  9
$ANGDIR
 70
     0
  9
$PDMODE
 70
     0
  9
$PDSIZE
 40
-1.0
  9
$PLINEWID
 40
0.0
  9
$SPLFRAME
 70
     0
  9
$SPLINETYPE
 70
     6
  9
$SPLINESEGS
 70
     8
  9
$HANDSEED
  5
262
  9
$SURFTAB1
 70
     6
  9
$SURFTAB2
 70
     6
  9
$SURFTYPE
 70
     6
  9
$SURFU
 70
     6
  9
$SURFV
 70
     6
  9
$UCSBASE
  2

  9
$UCSNAME
  2

  9
$UCSORG
 10
0.0
 20
0.0
 30
0.0
  9
$UCSXDIR
 10
1.0
 20
0.0
 30
0.0
  9
$UCSYDIR
 10
0.0
 20
1.0
 30
0.0
  9
$UCSORTHOREF
  2

  9
$UCSORTHOVIEW
 70
     0
  9
$UCSORGTOP
 10
0.0
 20
0.0
 30
0.0
  9
$UCSORGBOTTOM
 10
0.0
 20
0.0
 30
0.0
  9
$UCSORGLEFT
 10
0.0
 20
0.0
 30
0.0
  9
$UCSORGRIGHT
 10
0.0
 20
0.0
 30
0.0
  9
$UCSORGFRONT
 10
0.0
 20
0.0
 30
0.0
  9
$UCSORGBACK
 10
0.0
 20
0.0
 30
0.0
  9
$PUCSBASE
  2

  9
$PUCSNAME
  2

  9
$PUCSORG
 10
0.0
 20
0.0
 30
0.0
  9
$PUCSXDIR
 10
1.0
 20
0.0
 30
0.0
  9
$PUCSYDIR
 10
0.0
 20
1.0
 30
0.0
  9
$PUCSORTHOREF
  2

  9
$PUCSORTHOVIEW
 70
     0
  9
$PUCSORGTOP
 10
0.0
 20
0.0
 30
0.0
  9
$PUCSORGBOTTOM
 10
0.0
 20
0.0
 30
0.0
  9
$PUCSORGLEFT
 10
0.0
 20
0.0
 30
0.0
  9
$PUCSORGRIGHT
 10
0.0
 20
0.0
 30
0.0
  9
$PUCSORGFRONT
 10
0.0
 20
0.0
 30
0.0
  9
$PUCSORGBACK
 10
0.0
 20
0.0
 30
0.0
  9
$USERI1
 70
     0
  9
$USERI2
 70
     0
  9
$USERI3
 70
     0
  9
$USERI4
 70
     0
  9
$USERI5
 70
     0
  9
$USERR1
 40
0.0
  9
$USERR2
 40
0.0
  9
$USERR3
 40
0.0
  9
$USERR4
 40
0.0
  9
$USERR5
 40
0.0
  9
$WORLDVIEW
 70
     1
  9
$SHADEDGE
 70
     3
  9
$SHADEDIF
 70
    70
  9
$TILEMODE
 70
     1
  9
$MAXACTVP
 70
    64
  9
$PINSBASE
 10
0.0
 20
0.0
 30
0.0
  9
$PLIMCHECK
 70
     0
  9
$PEXTMIN
 10
1.0000000000E+20
 20
1.0000000000E+20
 30
1.0000000000E+20
  9
$PEXTMAX
 10
-1.0000000000E+20
 20
-1.0000000000E+20
 30
-1.0000000000E+20
  9
$PLIMMIN
 10
0.0
 20
0.0
  9
$PLIMMAX
 10
420.0
 20
297.0
  9
$UNITMODE
 70
     0
  9
$VISRETAIN
 70
     1
  9
$PLINEGEN
 70
     0
  9
$PSLTSCALE
 70
     1
  9
$TREEDEPTH
 70
  3020
  9
$CMLSTYLE
  2
Standard
  9
$CMLJUST
 70
     0
  9
$CMLSCALE
 40
20.0
  9
$PROXYGRAPHICS
 70
     1
  9
$MEASUREMENT
 70
     1
  9
$CELWEIGHT
370
    -1
  9
$ENDCAPS
280
     0
  9
$JOINSTYLE
280
     0
  9
$LWDISPLAY
290
     1
  9
$INSUNITS
 70
     4
  9
$HYPERLINKBASE
  1

  9
$STYLESHEET
  1

  9
$XEDIT
290
     1
  9
$CEPSNTYPE
380
     0
  9
$PSTYLEMODE
290
     1
  9
$FINGERPRINTGUID
  2
{77370FBB-FEC3-4680-8647-34FCA191BB98}
  9
$VERSIONGUID
  2
{FAEB1C32-E019-11D5-929B-00C0DF256EC4}
  9
$EXTNAMES
290
     1
  9
$PSVPSCALE
 40
0.0
  9
$OLESTARTUP
290
     0
  0
ENDSEC
  0
SECTION
  2
CLASSES
  0
CLASS
  1
ACDBDICTIONARYWDFLT
  2
AcDbDictionaryWithDefault
  3
ObjectDBX Classes
 90
        0
280
     0
281
     0
  0
CLASS
  1
VISUALSTYLE
  2
AcDbVisualStyle
  3
ObjectDBX Classes
 90
     4095
280
     0
281
     0
  0
CLASS
  1
MATERIAL
  2
AcDbMaterial
  3
ObjectDBX Classes
 90
     1153
280
     0
281
     0
  0
CLASS
  1
ACDBPLACEHOLDER
  2
AcDbPlaceHolder
  3
ObjectDBX Classes
 90
        0
280
     0
281
     0
  0
CLASS
  1
LAYOUT
  2
AcDbLayout
  3
ObjectDBX Classes
 90
        0
280
     0
281
     0
  0
ENDSEC
  0
SECTION
  2
TABLES
  0
TABLE
  2
VPORT
  5
8
330
0
100
AcDbSymbolTable
 70
     1
  0
VPORT
  5
29
330
8
100
AcDbSymbolTableRecord
100
AcDbViewportTableRecord
  2
*Active
 70
     0
 10
0.0
 20
0.0
 11
1.0
 21
1.0
 12
148.5
 22
105.0
 13
0.0
 23
0.0
 14
10.0
 24
10.0
 15
10.0
 25
10.0
 16
0.0
 26
0.0
 36
1.0
 17
0.0
 27
0.0
 37
0.0
 40
210.0
 41
1.4142857143
 42
50.0
 43
0.0
 44
0.0
 50
0.0
 51
0.0
 71
     0
 72
  2000
 73
     1
 74
     3
 75
     0
 76
     0
 77
     0
 78
     0
281
     0
 65
     1
110
0.0
120
0.0
130
0.0
111
1.0
121
0.0
131
0.0
112
0.0
122
1.0
132
0.0
 79
     0
146
0.0
  0
ENDTAB
  0
TABLE
  2
LTYPE
  5
5
330
0
100
AcDbSymbolTable
 70
     6
  0
LTYPE
  5
14
330
5
100
AcDbSymbolTableRecord
100
AcDbLinetypeTableRecord
  2
ByBlock
 70
     0
  3

 72
    65
 73
     0
 40
0.0
  0
LTYPE
  5
15
330
5
100
AcDbSymbolTableRecord
100
AcDbLinetypeTableRecord
  2
ByLayer
 70
     0
  3

 72
    65
 73
     0
 40
0.0
  0
LTYPE
  5
16
330
5
100
AcDbSymbolTableRecord
100
AcDbLinetypeTableRecord
  2
Continuous
 70
     0
  3
Solid line
 72
    65
 73
     0
 40
0.0
  0
LTYPE
  5
3F
330
5
100
AcDbSymbolTableRecord
100
AcDbLinetypeTableRecord
  2
HIDDEN
 70
     0
  3
Hidden __ __ __ __ __ __ __ __ __ __ __ __ __ __
 72
    65
 73
     2
 40
1.905
 49
1.27
 74
     0
 49
-0.635
 74
     0
  0
LTYPE
  5
40
330
5
100
AcDbSymbolTableRecord
100
AcDbLinetypeTableRecord
  2
PHANTOM
 70
     0
  3
Phantom ______  __  __  ______  __  __  ______
 72
    65
 73
     6
 40
12.7
 49
6.35
 74
     0
 49
-1.27
 74
     0
 49
1.27
 74
     0
 49
-1.27
 74
     0
 49
1.27
 74
     0
 49
-1.27
 74
     0
  0
LTYPE
  5
41
330
5
100
AcDbSymbolTableRecord
100
AcDbLinetypeTableRecord
  2
CENTER
 70
     0
  3
Center ____ _ ____ _ ____ _ ____ _ ____ _ ____
 72
    65
 73
     4
 40
10.16
 49
6.35
 74
     0
 49
-1.27
 74
     0
 49
1.27
 74
     0
 49
-1.27
 74
     0
  0
LTYPE
  5
42
330
5
100
AcDbSymbolTableRecord
100
AcDbLinetypeTableRecord
  2
CENTERX2
 70
     0
  3
Center (2x) ________  __  ________  __  _____
 72
    65
 73
     4
 40
20.32
 49
12.7
 74
     0
 49
-2.54
 74
     0
 49
2.54
 74
     0
 49
-2.54
 74
     0
  0
LTYPE
  5
43
330
5
100
AcDbSymbolTableRecord
100
AcDbLinetypeTableRecord
  2
DOT2
 70
     0
  3
Dot (.5x) ........................................
 72
    65
 73
     2
 40
0.635
 49
0.0
 74
     0
 49
-0.635
 74
     0
  0
ENDTAB
  0
TABLE
  2
LAYER
  5
2
330
0
100
AcDbSymbolTable
 70
     5
  0
LAYER
  5
10
330
2
100
AcDbSymbolTableRecord
100
AcDbLayerTableRecord
  2
0
 70
     0
 62
     7
  6
Continuous
370
    -3
390
F
  0
LAYER
  5
44
330
2
100
AcDbSymbolTableRecord
100
AcDbLayerTableRecord
  2
FORMAT
 70
     0
 62
     7
  6
Continuous
370
    -3
390
F
  0
LAYER
  5
45
330
2
100
AcDbSymbolTableRecord
100
AcDbLayerTableRecord
  2
VERMASSUNG
 70
     0
 62
     7
  6
Continuous
370
    -3
390
F
  0
LAYER
  5
46
330
2
100
AcDbSymbolTableRecord
100
AcDbLayerTableRecord
  2
KOPF_DÜNN
 70
     0
 62
     7
  6
Continuous
370
    -3
390
F
  0
LAYER
  5
47
330
2
100
AcDbSymbolTableRecord
100
AcDbLayerTableRecord
  2
KOPF_DICK
 70
     0
 62
     7
  6
Continuous
370
    15
390
F
  0
ENDTAB
  0
TABLE
  2
STYLE
  5
3
330
0
100
AcDbSymbolTable
 70
     2
  0
STYLE
  5
11
330
3
100
AcDbSymbolTableRecord
100
AcDbTextStyleTableRecord
  2
Standard
 70
     0
 40
0.0
 41
1.0
 50
0.0
 71
     0
 42
2.0
  3
txt
  4

  0
STYLE
  5
48
330
3
100
AcDbSymbolTableRecord
100
AcDbTextStyleTableRecord
  2
SLDTEXTSTYLE0
 70
     0
 40
0.0
 41
0.7
 50
0.0
 71
     0
 42
0.2
  3
TXT
  4

  0
ENDTAB
  0
TABLE
  2
VIEW
  5
6
330
0
100
AcDbSymbolTable
 70
     0
  0
ENDTAB
  0
TABLE
  2
UCS
  5
7
330
0
100
AcDbSymbolTable
 70
     0
  0
ENDTAB
  0
TABLE
  2
APPID
  5
9
330
0
100
AcDbSymbolTable
 70
     1
  0
APPID
  5
12
330
9
100
AcDbSymbolTableRecord
100
AcDbRegAppTableRecord
  2
ACAD
 70
     0
  0
ENDTAB
  0
TABLE
  2
DIMSTYLE
  5
A
330
0
100
AcDbSymbolTable
 70
     5
100
AcDbDimStyleTable
  0
DIMSTYLE
105
27
330
A
100
AcDbSymbolTableRecord
100
AcDbDimStyleTableRecord
  2
ISO-25
 70
     0
 41
2.5
 42
0.625
 43
3.75
 44
1.25
 73
     0
 74
     0
 77
     1
 78
     8
140
2.5
141
2.5
143
0.0393700787
147
0.625
171
     3
172
     1
178
     0
271
     2
272
     2
274
     3
278
    44
283
     0
284
     8
340
11
  0
DIMSTYLE
105
1AC
102
{ACAD_REACTORS
330
1AB
330
1B6
330
1C0
330
1D3
330
1DF
102
}
330
A
100
AcDbSymbolTableRecord
100
AcDbDimStyleTableRecord
  2
SLDDIMSTYLE0
 70
     0
 41
3.0
 44
0.0
 45
0.000000001
 73
     0
 74
     0
 77
     1
 78
    12
 79
     3
140
2.0
147
0.5
173
     1
178
     0
271
     2
272
     3
276
     2
284
    12
340
48
  0
DIMSTYLE
105
1CB
102
{ACAD_REACTORS
330
1CA
102
}
330
A
100
AcDbSymbolTableRecord
100
AcDbDimStyleTableRecord
  2
SLDDIMSTYLE1
 70
     0
 41
3.0
 44
0.0
 73
     0
 74
     0
 77
     1
 78
    12
 79
     3
140
2.0
147
0.5
173
     1
178
     0
179
     1
272
     3
276
     2
284
    12
340
48
  0
DIMSTYLE
105
23C
102
{ACAD_REACTORS
330
23B
102
}
330
A
100
AcDbSymbolTableRecord
100
AcDbDimStyleTableRecord
  2
SLDDIMSTYLE2
 70
     0
 41
3.0
 44
0.0
 45
0.000000001
 73
     0
 74
     0
 77
     1
 78
    12
 79
     3
140
2.0
147
0.5
172
     1
173
     1
178
     0
271
     2
272
     3
276
     2
284
    12
289
     0
340
48
  0
DIMSTYLE
105
24B
102
{ACAD_REACTORS
330
24A
102
}
330
A
100
AcDbSymbolTableRecord
100
AcDbDimStyleTableRecord
  2
SLDDIMSTYLE3
 70
     0
 41
3.0
 44
0.0
 73
     0
 74
     0
 77
     1
 78
    12
 79
     3
140
2.0
147
0.5
173
     1
178
     0
179
     2
272
     3
276
     2
284
    12
340
48
  0
ENDTAB
  0
TABLE
  2
BLOCK_RECORD
  5
1
330
0
100
AcDbSymbolTable
 70
    10
  0
BLOCK_RECORD
  5
1F
330
1
100
AcDbSymbolTableRecord
100
AcDbBlockTableRecord
  2
*Model_Space
340
22
  0
BLOCK_RECORD
  5
1B
330
1
100
AcDbSymbolTableRecord
100
AcDbBlockTableRecord
  2
*Paper_Space
340
1E
  0
BLOCK_RECORD
  5
23
330
1
100
AcDbSymbolTableRecord
100
AcDbBlockTableRecord
  2
*Paper_Space0
340
26
  0
BLOCK_RECORD
  5
1AD
330
1
100
AcDbSymbolTableRecord
100
AcDbBlockTableRecord
  2
_D
340
0
  0
BLOCK_RECORD
  5
1B7
330
1
100
AcDbSymbolTableRecord
100
AcDbBlockTableRecord
  2
_D_1
340
0
  0
BLOCK_RECORD
  5
1C1
330
1
100
AcDbSymbolTableRecord
100
AcDbBlockTableRecord
  2
_D_2
340
0
  0
BLOCK_RECORD
  5
1CC
330
1
100
AcDbSymbolTableRecord
100
AcDbBlockTableRecord
  2
_D_3
340
0
  0
BLOCK_RECORD
  5
1D4
330
1
100
AcDbSymbolTableRecord
100
AcDbBlockTableRecord
  2
_D_4
340
0
  0
BLOCK_RECORD
  5
1E0
330
1
100
AcDbSymbolTableRecord
100
AcDbBlockTableRecord
  2
_D_5
340
0
  0
BLOCK_RECORD
  5
23D
330
1
100
AcDbSymbolTableRecord
100
AcDbBlockTableRecord
  2
_D_6
340
0
  0
BLOCK_RECORD
  5
24C
330
1
100
AcDbSymbolTableRecord
100
AcDbBlockTableRecord
  2
_D_7
340
0
  0
BLOCK_RECORD
  5
255
330
1
100
AcDbSymbolTableRecord
100
AcDbBlockTableRecord
  2
SW_CENTERMARKSYMBOL_0
340
0
102
{BLKREFS
331
260
102
}
  0
ENDTAB
  0
ENDSEC
  0
SECTION
  2
BLOCKS
  0
BLOCK
  5
20
330
1F
100
AcDbEntity
  8
0
100
AcDbBlockBegin
  2
*Model_Space
 70
     0
 10
0.0
 20
0.0
 30
0.0
  3
*Model_Space
  1

  0
ENDBLK
  5
21
330
1F
100
AcDbEntity
  8
0
100
AcDbBlockEnd
  0
BLOCK
  5
1C
330
1B
100
AcDbEntity
 67
     1
  8
0
100
AcDbBlockBegin
  2
*Paper_Space
 70
     0
 10
0.0
 20
0.0
 30
0.0
  3
*Paper_Space
  1

  0
ENDBLK
  5
1D
330
1B
100
AcDbEntity
 67
     1
  8
0
100
AcDbBlockEnd
  0
BLOCK
  5
24
330
23
100
AcDbEntity
  8
0
100
AcDbBlockBegin
  2
*Paper_Space0
 70
     0
 10
0.0
 20
0.0
 30
0.0
  3
*Paper_Space0
  1

  0
ENDBLK
  5
25
330
23
100
AcDbEntity
  8
0
100
AcDbBlockEnd
  0
BLOCK
  5
1AE
330
1AD
100
AcDbEntity
  8
0
100
AcDbBlockBegin
  2
_D
 70
     0
 10
0.0
 20
0.0
 30
0.0
  3
_D
  1

  0
SOLID
  5
1B0
330
1AD
100
AcDbEntity
  8
VERMASSUNG
100
AcDbTrace
 10
289.2175762951
 20
121.772513416
 30
0.0
 11
289.6675762951
 21
124.772513416
 31
0.0
 12
288.7675762951
 22
124.772513416
 32
0.0
 13
288.7675762951
 23
124.772513416
 33
0.0
  0
SOLID
  5
1B1
330
1AD
100
AcDbEntity
  8
VERMASSUNG
100
AcDbTrace
 10
289.2175762951
 20
148.772513416
 30
0.0
 11
288.7675762951
 21
145.772513416
 31
0.0
 12
289.6675762951
 22
145.772513416
 32
0.0
 13
289.6675762951
 23
145.772513416
 33
0.0
  0
LINE
  5
1B2
330
1AD
100
AcDbEntity
  8
VERMASSUNG
100
AcDbLine
 10
270.6682752506
 20
121.772513416
 30
0.0
 11
290.2175762951
 21
121.772513416
 31
0.0
  0
LINE
  5
1B3
330
1AD
100
AcDbEntity
  8
VERMASSUNG
100
AcDbLine
 10
270.6682752506
 20
148.772513416
 30
0.0
 11
290.2175762951
 21
148.772513416
 31
0.0
  0
LINE
  5
1B4
330
1AD
100
AcDbEntity
  8
VERMASSUNG
100
AcDbLine
 10
289.2175762951
 20
121.772513416
 30
0.0
 11
289.2175762951
 21
148.772513416
 31
0.0
  0
MTEXT
  5
1B5
330
1AD
100
AcDbEntity
  8
VERMASSUNG
100
AcDbMText
 10
286.639440932
 20
132.9725133649
 30
0.1
 40
2.0
 41
0.0
 71
     1
 72
     1
  1
27
  7
SLDTEXTSTYLE0
 11
6.123233995736766E-17
 21
1.0
 31
0.0
 73
     1
 44
1.0
  0
ENDBLK
  5
1AF
330
1AD
100
AcDbEntity
  8
0
100
AcDbBlockEnd
  0
BLOCK
  5
1B8
330
1B7
100
AcDbEntity
  8
0
100
AcDbBlockBegin
  2
_D_1
 70
     0
 10
0.0
 20
0.0
 30
0.0
  3
_D_1
  1

  0
SOLID
  5
1BA
330
1B7
100
AcDbEntity
  8
VERMASSUNG
100
AcDbTrace
 10
130.6682752506
 20
163.272513416
 30
0.0
 11
133.6682752506
 21
162.822513416
 31
0.0
 12
133.6682752506
 22
163.722513416
 32
0.0
 13
133.6682752506
 23
163.722513416
 33
0.0
  0
SOLID
  5
1BB
330
1B7
100
AcDbEntity
  8
VERMASSUNG
100
AcDbTrace
 10
270.6682752506
 20
163.272513416
 30
0.0
 11
267.6682752506
 21
163.722513416
 31
0.0
 12
267.6682752506
 22
162.822513416
 32
0.0
 13
267.6682752506
 23
162.822513416
 33
0.0
  0
LINE
  5
1BC
330
1B7
100
AcDbEntity
  8
VERMASSUNG
100
AcDbLine
 10
130.6682752506
 20
152.772513416
 30
0.0
 11
130.6682752506
 21
164.272513416
 31
0.0
  0
LINE
  5
1BD
330
1B7
100
AcDbEntity
  8
VERMASSUNG
100
AcDbLine
 10
270.6682752506
 20
148.772513416
 30
0.0
 11
270.6682752506
 21
164.272513416
 31
0.0
  0
LINE
  5
1BE
330
1B7
100
AcDbEntity
  8
VERMASSUNG
100
AcDbLine
 10
130.6682752506
 20
163.272513416
 30
0.0
 11
270.6682752506
 21
163.272513416
 31
0.0
  0
MTEXT
  5
1BF
330
1B7
100
AcDbEntity
  8
VERMASSUNG
100
AcDbMText
 10
197.7682750547
 20
165.8506487791
 30
0.1
 40
2.0
 41
0.0
 71
     1
 72
     1
  1
140
  7
SLDTEXTSTYLE0
 73
     1
 44
1.0
  0
ENDBLK
  5
1B9
330
1B7
100
AcDbEntity
  8
0
100
AcDbBlockEnd
  0
BLOCK
  5
1C2
330
1C1
100
AcDbEntity
  8
0
100
AcDbBlockBegin
  2
_D_2
 70
     0
 10
0.0
 20
0.0
 30
0.0
  3
_D_2
  1

  0
SOLID
  5
1C4
330
1C1
100
AcDbEntity
  8
VERMASSUNG
100
AcDbTrace
 10
270.6682752506
 20
169.272513416
 30
0.0
 11
267.6682752506
 21
169.722513416
 31
0.0
 12
267.6682752506
 22
168.822513416
 32
0.0
 13
267.6682752506
 23
168.822513416
 33
0.0
  0
SOLID
  5
1C5
330
1C1
100
AcDbEntity
  8
VERMASSUNG
100
AcDbTrace
 10
92.6682752506
 20
169.272513416
 30
0.0
 11
95.6682752506
 21
168.822513416
 31
0.0
 12
95.6682752506
 22
169.722513416
 32
0.0
 13
95.6682752506
 23
169.722513416
 33
0.0
  0
LINE
  5
1C6
330
1C1
100
AcDbEntity
  8
VERMASSUNG
100
AcDbLine
 10
270.6682752506
 20
148.772513416
 30
0.0
 11
270.6682752506
 21
170.272513416
 31
0.0
  0
LINE
  5
1C7
330
1C1
100
AcDbEntity
  8
VERMASSUNG
100
AcDbLine
 10
92.6682752506
 20
142.0648514085
 30
0.0
 11
92.6682752506
 21
170.272513416
 31
0.0
  0
LINE
  5
1C8
330
1C1
100
AcDbEntity
  8
VERMASSUNG
100
AcDbLine
 10
270.6682752506
 20
169.272513416
 30
0.0
 11
92.6682752506
 21
169.272513416
 31
0.0
  0
MTEXT
  5
1C9
330
1C1
100
AcDbEntity
  8
VERMASSUNG
100
AcDbMText
 10
178.8682751176
 20
171.8506487791
 30
0.1
 40
2.0
 41
0.0
 71
     1
 72
     1
  1
178
  7
SLDTEXTSTYLE0
 73
     1
 44
1.0
  0
ENDBLK
  5
1C3
330
1C1
100
AcDbEntity
  8
0
100
AcDbBlockEnd
  0
BLOCK
  5
1CD
330
1CC
100
AcDbEntity
  8
0
100
AcDbBlockBegin
  2
_D_3
 70
     0
 10
0.0
 20
0.0
 30
0.0
  3
_D_3
  1

  0
ARC
  5
1CF
330
1CC
100
AcDbEntity
  8
VERMASSUNG
100
AcDbCircle
 10
270.8134623898
 20
148.772513416
 30
0.0
 40
12.68570069464312
100
AcDbArc
 50
252.4906330447
 51
0.0
  0
SOLID
  5
1D0
330
1CC
100
AcDbEntity
  8
VERMASSUNG
100
AcDbTrace
 10
266.9968207463
 20
136.6745694303
 30
0.0
 11
269.8583650388
 21
135.6675618523
 31
0.0
 12
270.0278836503
 22
136.5514529318
 32
0.0
 13
270.0278836503
 23
136.5514529318
 33
0.0
  0
SOLID
  5
1D1
330
1CC
100
AcDbEntity
  8
VERMASSUNG
100
AcDbTrace
 10
283.4991630845
 20
148.772513416
 30
0.0
 11
282.7046445441
 21
145.8448453526
 31
0.0
 12
283.5985846451
 22
145.7405808057
 32
0.0
 13
283.5985846451
 23
145.7405808057
 33
0.0
  0
MTEXT
  5
1D2
330
1CC
100
AcDbEntity
  8
VERMASSUNG
100
AcDbMText
 10
273.240928075
 20
138.0193609913
 30
0.1
 40
2.0
 41
0.0
 71
     1
 72
     1
  1
107.5°
  7
SLDTEXTSTYLE0
 11
0.8064929364690383
 21
0.5912437259079776
 31
0.0
 73
     1
 44
1.0
  0
ENDBLK
  5
1CE
330
1CC
100
AcDbEntity
  8
0
100
AcDbBlockEnd
  0
BLOCK
  5
1D5
330
1D4
100
AcDbEntity
  8
0
100
AcDbBlockBegin
  2
_D_4
 70
     0
 10
0.0
 20
0.0
 30
0.0
  3
_D_4
  1

  0
SOLID
  5
1D7
330
1D4
100
AcDbEntity
  8
VERMASSUNG
100
AcDbTrace
 10
84.9257980833
 20
153.272513416
 30
0.0
 11
84.4757980833
 21
150.272513416
 31
0.0
 12
85.3757980833
 22
150.272513416
 32
0.0
 13
85.3757980833
 23
150.272513416
 33
0.0
  0
SOLID
  5
1D8
330
1D4
100
AcDbEntity
  8
VERMASSUNG
100
AcDbTrace
 10
84.9257980833
 20
90.272513416
 30
0.0
 11
85.3757980833
 21
93.272513416
 31
0.0
 12
84.4757980833
 22
93.272513416
 32
0.0
 13
84.4757980833
 23
93.272513416
 33
0.0
  0
LINE
  5
1D9
330
1D4
100
AcDbEntity
  8
VERMASSUNG
100
AcDbLine
 10
131.1682752506
 20
153.272513416
 30
0.0
 11
83.9257980833
 21
153.272513416
 31
0.0
  0
LINE
  5
1DA
330
1D4
100
AcDbEntity
  8
VERMASSUNG
100
AcDbLine
 10
131.1682752506
 20
90.272513416
 30
0.0
 11
83.9257980833
 21
90.272513416
 31
0.0
  0
LINE
  5
1DB
330
1D4
100
AcDbEntity
  8
VERMASSUNG
100
AcDbLine
 10
84.9257980833
 20
153.272513416
 30
0.0
 11
84.9257980833
 21
90.272513416
 31
0.0
  0
MTEXT
  5
1DC
330
1D4
100
AcDbEntity
  8
VERMASSUNG
100
AcDbMText
 10
82.1476625942
 20
115.3675133067
 30
0.1
 40
2.0
 41
0.0
 71
     1
 72
     1
  1
PSC
  7
SLDTEXTSTYLE0
 11
-7.044195017643634E-15
 21
1.0
 31
0.0
 73
     1
 44
1.0
  0
MTEXT
  5
1DD
330
1D4
100
AcDbEntity
  8
VERMASSUNG
100
AcDbMText
 10
82.3476626037
 20
119.9675134088
 30
0.1
 40
2.0
 41
0.0
 71
     1
 72
     1
  1
%%c
  7
SLDTEXTSTYLE0
 11
-7.044195017643634E-15
 21
1.0
 31
0.0
 73
     1
 44
1.0
  0
MTEXT
  5
1DE
330
1D4
100
AcDbEntity
  8
VERMASSUNG
100
AcDbMText
 10
82.1476625942
 20
123.5775138888
 30
0.1
 40
2.0
 41
0.0
 71
     1
 72
     1
  1
63
  7
SLDTEXTSTYLE0
 11
-7.044195017643634E-15
 21
1.0
 31
0.0
 73
     1
 44
1.0
  0
ENDBLK
  5
1D6
330
1D4
100
AcDbEntity
  8
0
100
AcDbBlockEnd
  0
BLOCK
  5
1E1
330
1E0
100
AcDbEntity
  8
0
100
AcDbBlockBegin
  2
_D_5
 70
     0
 10
0.0
 20
0.0
 30
0.0
  3
_D_5
  1

  0
SOLID
  5
1E3
330
1E0
100
AcDbEntity
  8
VERMASSUNG
100
AcDbTrace
 10
178.8618806386
 20
101.772513416
 30
0.0
 11
179.3118806386
 21
104.772513416
 31
0.0
 12
178.4118806386
 22
104.772513416
 32
0.0
 13
178.4118806386
 23
104.772513416
 33
0.0
  0
SOLID
  5
1E4
330
1E0
100
AcDbEntity
  8
VERMASSUNG
100
AcDbTrace
 10
178.8618806386
 20
141.772513416
 30
0.0
 11
178.4118806386
 21
138.772513416
 31
0.0
 12
179.3118806386
 22
138.772513416
 32
0.0
 13
179.3118806386
 23
138.772513416
 33
0.0
  0
LINE
  5
1E5
330
1E0
100
AcDbEntity
  8
VERMASSUNG
100
AcDbLine
 10
178.8618806386
 20
101.772513416
 30
0.0
 11
178.8618806386
 21
141.772513416
 31
0.0
  0
MTEXT
  5
1E6
330
1E0
100
AcDbEntity
  8
VERMASSUNG
100
AcDbMText
 10
176.283745159
 20
128.442341198
 30
0.1
 40
2.0
 41
0.0
 71
     1
 72
     1
  1
%%c
  7
SLDTEXTSTYLE0
 11
6.123233995736766E-17
 21
1.0
 31
0.0
 73
     1
 44
1.0
  0
MTEXT
  5
1E7
330
1E0
100
AcDbEntity
  8
VERMASSUNG
100
AcDbMText
 10
176.0837451495
 20
132.0523412123
 30
0.1
 40
2.0
 41
0.0
 71
     1
 72
     1
  1
40
  7
SLDTEXTSTYLE0
 11
6.123233995736766E-17
 21
1.0
 31
0.0
 73
     1
 44
1.0
  0
ENDBLK
  5
1E2
330
1E0
100
AcDbEntity
  8
0
100
AcDbBlockEnd
  0
BLOCK
  5
23E
330
23D
100
AcDbEntity
  8
0
100
AcDbBlockBegin
  2
_D_6
 70
     0
 10
0.0
 20
0.0
 30
0.0
  3
_D_6
  1

  0
SOLID
  5
240
330
23D
100
AcDbEntity
  8
VERMASSUNG
100
AcDbTrace
 10
59.5446911571
 20
103.6318242899
 30
0.0
 11
60.9873912403
 21
100.9632822779
 31
0.0
 12
61.7068446387
 22
101.5040103126
 32
0.0
 13
61.7068446387
 23
101.5040103126
 33
0.0
  0
SOLID
  5
241
330
23D
100
AcDbEntity
  8
VERMASSUNG
100
AcDbTrace
 10
29.5042447839
 20
143.6014575344
 30
0.0
 11
28.0615447007
 21
146.2699995465
 31
0.0
 12
27.3420913023
 22
145.7292715118
 32
0.0
 13
27.3420913023
 23
145.7292715118
 33
0.0
  0
LINE
  5
242
330
23D
100
AcDbEntity
  8
VERMASSUNG
100
AcDbLine
 10
59.5446911571
 20
103.6318242899
 30
0.0
 11
58.7452984922
 21
103.0310153625
 31
0.0
  0
LINE
  5
243
330
23D
100
AcDbEntity
  8
VERMASSUNG
100
AcDbLine
 10
29.5042447839
 20
143.6014575344
 30
0.0
 11
30.3036374488
 21
144.2022664619
 31
0.0
  0
LINE
  5
244
330
23D
100
AcDbEntity
  8
VERMASSUNG
100
AcDbLine
 10
59.5446911571
 20
103.6318242899
 30
0.0
 11
63.1495447218
 21
98.8354683006
 31
0.0
  0
LINE
  5
245
330
23D
100
AcDbEntity
  8
VERMASSUNG
100
AcDbLine
 10
59.5446911571
 20
103.6318242899
 30
0.0
 11
29.5042447839
 21
143.6014575344
 31
0.0
  0
LINE
  5
246
330
23D
100
AcDbEntity
  8
VERMASSUNG
100
AcDbLine
 10
29.5042447839
 20
143.6014575344
 30
0.0
 11
17.7248693977
 21
159.2742377651
 31
0.0
  0
MTEXT
  5
247
330
23D
100
AcDbEntity
  8
VERMASSUNG
100
AcDbMText
 10
19.7858119891
 20
160.8232045774
 30
0.1
 40
2.0
 41
0.0
 71
     1
 72
     1
  1
%%c
  7
SLDTEXTSTYLE0
 11
0.6008089274630688
 21
-0.7993926648904636
 31
0.0
 73
     1
 44
1.0
  0
MTEXT
  5
248
330
23D
100
AcDbEntity
  8
VERMASSUNG
100
AcDbMText
 10
22.1146107664
 20
158.0575588369
 30
0.1
 40
2.0
 41
0.0
 71
     1
 72
     1
  1
50
  7
SLDTEXTSTYLE0
 11
0.6008089274630688
 21
-0.7993926648904636
 31
0.0
 73
     1
 44
1.0
  0
MTEXT
  5
249
330
23D
100
AcDbEntity
  8
VERMASSUNG
100
AcDbMText
 10
25.5917927752
 20
153.431073335
 30
0.1
 40
2.0
 41
0.0
 71
     1
 72
     1
  1
min.
  7
SLDTEXTSTYLE0
 11
0.6008089274630688
 21
-0.7993926648904636
 31
0.0
 73
     1
 44
1.0
  0
ENDBLK
  5
23F
330
23D
100
AcDbEntity
  8
0
100
AcDbBlockEnd
  0
BLOCK
  5
24D
330
24C
100
AcDbEntity
  8
0
100
AcDbBlockBegin
  2
_D_7
 70
     0
 10
0.0
 20
0.0
 30
0.0
  3
_D_7
  1

  0
ARC
  5
24F
330
24C
100
AcDbEntity
  8
VERMASSUNG
100
AcDbCircle
 10
44.5244679705
 20
148.6166409122
 30
0.0
 40
68.70929159069627
100
AcDbArc
 50
258.0
 51
270.0
  0
SOLID
  5
250
330
24C
100
AcDbEntity
  8
VERMASSUNG
100
AcDbTrace
 10
30.239002981
 20
81.4088121946
 30
0.0
 11
33.1024189949
 21
80.4071392283
 31
0.0
 12
33.2702900651
 22
81.291344693
 32
0.0
 13
33.2702900651
 23
81.291344693
 33
0.0
  0
SOLID
  5
251
330
24C
100
AcDbEntity
  8
VERMASSUNG
100
AcDbTrace
 10
44.5244679705
 20
79.9073493215
 30
0.0
 11
41.5349989152
 21
80.4226887896
 31
0.0
 12
41.5153649465
 22
79.5229029777
 32
0.0
 13
41.5153649465
 23
79.5229029777
 33
0.0
  0
LINE
  5
252
330
24C
100
AcDbEntity
  8
VERMASSUNG
100
AcDbLine
 10
31.7350806341
 20
88.4473041675
 30
0.0
 11
30.0310912902
 21
80.4306645939
 31
0.0
  0
LINE
  5
253
330
24C
100
AcDbEntity
  8
VERMASSUNG
100
AcDbLine
 10
44.5244679705
 20
87.772513416
 30
0.0
 11
44.5244679705
 21
78.9073493215
 31
0.0
  0
MTEXT
  5
254
330
24C
100
AcDbEntity
  8
VERMASSUNG
100
AcDbMText
 10
34.9266706488
 20
83.129984936
 30
0.1
 40
2.0
 41
0.0
 71
     1
 72
     1
  1
12°
  7
SLDTEXTSTYLE0
 11
0.9945218953682752
 21
-0.1045284632676357
 31
0.0
 73
     1
 44
1.0
  0
ENDBLK
  5
24E
330
24C
100
AcDbEntity
  8
0
100
AcDbBlockEnd
  0
BLOCK
  5
256
330
255
100
AcDbEntity
  8
0
100
AcDbBlockBegin
  2
SW_CENTERMARKSYMBOL_0
 70
     0
 10
0.0
 20
0.0
 30
0.0
  3
SW_CENTERMARKSYMBOL_0
  1

  0
LINE
  5
258
330
255
100
AcDbEntity
  8
VERMASSUNG
 62
     0
100
AcDbLine
 10
0.0
 20
0.0
 30
0.0
 11
0.0
 21
2.5
 31
0.0
  0
LINE
  5
259
330
255
100
AcDbEntity
  8
VERMASSUNG
 62
     0
100
AcDbLine
 10
0.0
 20
0.0
 30
0.0
 11
-2.5
 21
0.0
 31
0.0
  0
LINE
  5
25A
330
255
100
AcDbEntity
  8
VERMASSUNG
 62
     0
100
AcDbLine
 10
0.0
 20
0.0
 30
0.0
 11
0.0
 21
-2.5
 31
0.0
  0
LINE
  5
25B
330
255
100
AcDbEntity
  8
VERMASSUNG
 62
     0
100
AcDbLine
 10
0.0
 20
0.0
 30
0.0
 11
2.5
 21
0.0
 31
0.0
  0
LINE
  5
25C
330
255
100
AcDbEntity
  8
VERMASSUNG
 62
     0
100
AcDbLine
 10
0.0
 20
5.0
 30
0.0
 11
0.0
 21
34.0
 31
0.0
  0
LINE
  5
25D
330
255
100
AcDbEntity
  8
VERMASSUNG
 62
     0
100
AcDbLine
 10
-5.0
 20
0.0
 30
0.0
 11
-34.0
 21
0.0
 31
0.0
  0
LINE
  5
25E
330
255
100
AcDbEntity
  8
VERMASSUNG
 62
     0
100
AcDbLine
 10
0.0
 20
-5.0
 30
0.0
 11
0.0
 21
-34.0
 31
0.0
  0
LINE
  5
25F
330
255
100
AcDbEntity
  8
VERMASSUNG
 62
     0
100
AcDbLine
 10
5.0
 20
0.0
 30
0.0
 11
34.0
 21
0.0
 31
0.0
  0
ENDBLK
  5
257
330
255
100
AcDbEntity
  8
0
100
AcDbBlockEnd
  0
ENDSEC
  0
SECTION
  2
ENTITIES
  0
MTEXT
  5
49
330
1F
100
AcDbEntity
  8
KOPF_DÜNN
100
AcDbMText
 10
13.8892156294
 20
23.8442973028
 30
0.0
 40
3.0
 41
0.0
 71
     1
 72
     1
  1
PS6.PDF.RQC.140
  7
SLDTEXTSTYLE0
 73
     1
 44
1.0
  0
MTEXT
  5
4A
330
1F
100
AcDbEntity
  8
VERMASSUNG
100
AcDbMText
 10
13.9329988022
 20
28.8834360957
 30
0.0
 40
3.0
 41
0.0
 71
     1
 72
     1
  1
Bohrstange rechts_Boring bar right
  7
SLDTEXTSTYLE0
 73
     1
 44
1.0
  0
MTEXT
  5
4B
330
1F
100
AcDbEntity
  8
VERMASSUNG
100
AcDbMText
 10
98.8601118557
 20
13.8365368179
 30
0.0
 40
2.0
 41
0.0
 71
     1
 72
     1
  1
Datum: 08.06.2012
  7
SLDTEXTSTYLE0
 73
     1
 44
1.0
  0
MTEXT
  5
4C
330
1F
100
AcDbEntity
  8
VERMASSUNG
100
AcDbMText
 10
13.933048693
 20
18.0482802738
 30
0.0
 40
2.0
 41
0.0
 71
     1
 72
     1
  1
PSC ø63 / Wp.: DN..15 06..
  7
SLDTEXTSTYLE0
 73
     1
 44
1.0
  0
MTEXT
  5
4D
330
1F
100
AcDbEntity
  8
VERMASSUNG
100
AcDbMText
 10
13.9808475933
 20
13.9090973692
 30
0.0
 40
2.0
 41
0.0
 71
     1
 72
     1
  1
Gewicht: 1719g
  7
SLDTEXTSTYLE0
 73
     1
 44
1.0
  0
LINE
  5
4E
330
1F
100
AcDbEntity
  8
0
  6
Continuous
 62
     7
370
    15
100
AcDbLine
 10
265.7099889652
 20
133.4031267728
 30
0.0
 11
266.3737462895
 21
134.7161332782
 31
0.0
  0
LINE
  5
4F
330
1F
100
AcDbEntity
  8
0
  6
Continuous
 62
     7
370
    15
100
AcDbLine
 10
256.1641411917
 20
144.5031209554
 30
0.0
 11
255.9793518917
 21
144.1375973339
 31
0.0
  0
LINE
  5
50
330
1F
100
AcDbEntity
  8
0
  6
Continuous
 62
     7
370
    15
100
AcDbLine
 10
263.0007790463
 20
137.7096983309
 30
0.0
 11
263.0402224199
 21
137.7839172895
 31
0.0
  0
LINE
  5
51
330
1F
100
AcDbEntity
  8
0
  6
Continuous
 62
     7
370
    15
100
AcDbLine
 10
258.8882075684
 20
139.9863536175
 30
0.0
 11
258.7032245533
 21
139.6383537616
 31
0.0
  0
LINE
  5
52
330
1F
100
AcDbEntity
  8
0
  6
Continuous
 62
     7
370
    15
100
AcDbLine
 10
265.465639724
 20
133.0121929462
 30
0.0
 11
265.5947433846
 21
133.2675662528
 31
0.0
  0
ARC
  5
53
330
1F
100
AcDbEntity
  8
0
  6
Continuous
 62
     7
370
    15
100
AcDbCircle
 10
151.6682752506
 20
91.272513416
 30
0.0
 40
1.000000000000014
100
AcDbArc
 50
270.0
 51
0.0
  0
ARC
  5
54
330
1F
100
AcDbEntity
  8
0
  6
Continuous
 62
     7
370
    15
100
AcDbCircle
 10
151.6682752506
 20
152.272513416
 30
0.0
 40
1.000000000000028
100
AcDbArc
 50
0.0
 51
90.0
  0
ARC
  5
55
330
1F
100
AcDbEntity
  8
0
  6
Continuous
 62
     7
370
    15
100
AcDbCircle
 10
131.1682752506
 20
90.772513416
 30
0.0
 40
0.5000000000000142
100
AcDbArc
 50
180.0
 51
270.0
  0
ARC
  5
56
330
1F
100
AcDbEntity
  8
0
  6
Continuous
 62
     7
370
    15
100
AcDbCircle
 10
131.1682752506
 20
152.772513416
 30
0.0
 40
0.5000000000000284
100
AcDbArc
 50
90.0
 51
180.0
  0
LINE
  5
57
330
1F
100
AcDbEntity
  8
0
  6
Continuous
 62
     7
370
    15
100
AcDbLine
 10
131.1682752744
 20
90.2725129093
 30
0.0
 11
151.6682749675
 21
90.2725129093
 31
0.0
  0
LINE
  5
58
330
1F
100
AcDbEntity
  8
0
  6
Continuous
 62
     7
370
    15
100
AcDbLine
 10
151.6682749675
 20
153.2725139226
 30
0.0
 11
131.1682752744
 21
153.2725139226
 31
0.0
  0
LWPOLYLINE
  5
59
330
1F
100
AcDbEntity
  8
0
  6
Continuous
 62
     7
370
    15
100
AcDbPolyline
 90
        3
 70
   128
 43
0.0
 10
130.4682752557
 20
99.2326928939
 10
130.5937301909
 20
99.1643915589
 10
130.6682752506
 20
99.1116526242
  0
LWPOLYLINE
  5
5A
330
1F
100
AcDbEntity
  8
0
  6
Continuous
 62
     7
370
    15
100
AcDbPolyline
 90
        3
 70
   128
 43
0.0
 10
130.6682752506
 20
144.4333742078
 10
130.5937301909
 20
144.380635273
 10
130.4682752557
 20
144.312333938
  0
ARC
  5
5B
330
1F
100
AcDbEntity
  8
0
  6
Continuous
 62
     7
370
    15
100
AcDbCircle
 10
156.6682752506
 20
97.772513416
 30
0.0
 40
4.0
100
AcDbArc
 50
90.0
 51
180.0
  0
ARC
  5
5C
330
1F
100
AcDbEntity
  8
0
  6
Continuous
 62
     7
370
    15
100
AcDbCircle
 10
156.6682752506
 20
145.772513416
 30
0.0
 40
4.0
100
AcDbArc
 50
180.0
 51
270.0
  0
LINE
  5
5D
330
1F
100
AcDbEntity
  8
0
  6
Continuous
 62
     7
370
    15
100
AcDbLine
 10
156.6682757871
 20
101.772513863
 30
0.0
 11
244.6682753102
 21
101.772513863
 31
0.0
  0
LINE
  5
5E
330
1F
100
AcDbEntity
  8
0
  6
Continuous
 62
     7
370
    15
100
AcDbLine
 10
244.6682753102
 20
141.7725129689
 30
0.0
 11
156.6682757871
 21
141.7725129689
 31
0.0
  0
LINE
  5
5F
330
1F
100
AcDbEntity
  8
0
  6
Continuous
 62
     7
370
    15
100
AcDbLine
 10
245.6424387233
 20
142.746676382
 30
0.0
 11
244.6682753102
 21
141.7725129689
 31
0.0
  0
LINE
  5
60
330
1F
100
AcDbEntity
  8
0
  6
Continuous
 62
     7
370
    15
100
AcDbLine
 10
244.6682753102
 20
101.772513863
 30
0.0
 11
245.1682763235
 21
101.2725128497
 31
0.0
  0
LINE
  5
61
330
1F
100
AcDbEntity
  8
0
  6
Continuous
 62
     7
370
    15
100
AcDbLine
 10
245.1682763235
 20
101.2725128497
 30
0.0
 11
254.958212568
 21
101.2725128497
 31
0.0
  0
LWPOLYLINE
  5
62
330
1F
100
AcDbEntity
  8
0
  6
Continuous
 62
     7
370
    15
100
AcDbPolyline
 90
       27
 70
   128
 43
0.0
 10
257.5530635254
 20
128.1751498285
 10
258.1434624331
 20
127.575763658
 10
258.5740016834
 20
126.8579477149
 10
258.8196622269
 20
126.0634187314
 10
258.8661538498
 20
125.2383521463
 10
258.7107943432
 20
124.4306975681
 10
258.3625989096
 20
123.6873929559
 10
257.8418033259
 20
123.0516365434
 10
257.1786867516
 20
122.5603762253
 10
256.4117835896
 20
122.2421622191
 10
255.5856483118
 20
122.1154879716
 10
254.7483073609
 20
122.187715326
 10
253.9484204785
 20
122.4546466659
 10
253.2324718372
 20
122.9007690384
 10
252.6420729296
 20
123.5001552089
 10
252.2115336792
 20
124.217971152
 10
251.9658805864
 20
125.0125001355
 10
251.9193815128
 20
125.8375669534
 10
252.0747410195
 20
126.6452215317
 10
252.4229364531
 20
127.388525911
 10
252.9437245862
 20
128.0242825563
 10
253.6068486111
 20
128.5155426416
 10
254.3737592237
 20
128.8337569389
 10
255.1998870508
 20
128.9604312445
 10
256.0372280018
 20
128.8882039192
 10
256.8371223347
 20
128.6212724338
 10
257.5530635254
 20
128.1751498285
  0
LWPOLYLINE
  5
63
330
1F
100
AcDbEntity
  8
0
  6
Continuous
 62
     7
370
    15
100
AcDbPolyline
 90
       20
 70
   128
 43
0.0
 10
256.6272245781
 20
127.0449256229
 10
257.0667492287
 20
126.5579803552
 10
257.3248671429
 20
125.9604996707
 10
257.3736088411
 20
125.3172305118
 10
257.2076993124
 20
124.6978805105
 10
256.8451242582
 20
124.1695663597
 10
256.3251482384
 20
123.7895387861
 10
255.7041423456
 20
123.59897971
 10
255.0493927734
 20
123.6185391138
 10
254.4318514006
 20
123.8460975404
 10
253.9184467928
 20
124.2569954305
 10
253.5647975342
 20
124.8067057862
 10
253.4092443125
 20
125.4356586545
 10
253.4686328904
 20
126.0756977539
 10
253.736533417
 20
126.6574642326
 10
254.1839109795
 20
127.1179147701
 10
254.7622921006
 20
127.4071532938
 10
255.4089875953
 20
127.4938352111
 10
256.0539322035
 20
127.3685676682
 10
256.6272245781
 20
127.0449256229
  0
SPLINE
  5
64
330
1F
100
AcDbEntity
  8
0
  6
Continuous
 62
     7
370
    15
100
AcDbSpline
210
0.0
220
0.0
230
1.0
 70
     8
 71
     3
 72
    11
 73
     7
 74
     0
 42
0.00000001
 43
0.00000001
 12
1.0
 22
0.0
 32
0.0
 13
1.0
 23
0.0
 33
0.0
 40
0.0
 40
0.0
 40
0.0
 40
0.0
 40
0.1081094294202853
 40
0.4711572277627903
 40
0.8135781023301851
 40
0.9999999999999999
 40
0.9999999999999999
 40
0.9999999999999999
 40
0.9999999999999999
 10
253.763586475099
 20
124.8928221578886
 30
0.0
 10
253.806321395306
 20
124.8504962099094
 30
0.0
 10
253.9925666344248
 20
124.6660333335512
 30
0.0
 10
254.3580671650249
 20
124.3364724612562
 30
0.0
 10
254.7913436547148
 20
124.0177201407262
 30
0.0
 10
255.0300953715876
 20
123.8654982209197
 30
0.0
 10
255.1142575280317
 20
123.8118386066695
 30
0.0
  0
SPLINE
  5
65
330
1F
100
AcDbEntity
  8
0
  6
Continuous
 62
     7
370
    15
100
AcDbSpline
210
0.0
220
0.0
230
1.0
 70
     8
 71
     3
 72
    10
 73
     6
 74
     0
 42
0.00000001
 43
0.00000001
 12
1.0
 22
0.0
 32
0.0
 13
1.0
 23
0.0
 33
0.0
 40
0.0
 40
0.0
 40
0.0
 40
0.0
 40
0.4391195888898117
 40
0.7513701322398656
 40
1.0
 40
1.0
 40
1.0
 40
1.0
 10
255.1142575280317
 20
123.8118386066695
 30
0.0
 10
255.3327402848386
 20
123.8750206095187
 30
0.0
 10
255.7065824499973
 20
123.9831302703881
 30
0.0
 10
256.2849034807506
 20
124.2092816095956
 30
0.0
 10
256.5831959685617
 20
124.3425122449294
 30
0.0
 10
256.7154245512136
 20
124.4015713858594
 30
0.0
  0
SPLINE
  5
66
330
1F
100
AcDbEntity
  8
0
  6
Continuous
 62
     7
370
    15
100
AcDbSpline
210
0.0
220
0.0
230
1.0
 70
     8
 71
     3
 72
    10
 73
     6
 74
     0
 42
0.00000001
 43
0.00000001
 12
1.0
 22
0.0
 32
0.0
 13
1.0
 23
0.0
 33
0.0
 40
0.0
 40
0.0
 40
0.0
 40
0.0
 40
0.4391165299872241
 40
0.7513669838855881
 40
1.0
 40
1.0
 40
1.0
 40
1.0
 10
256.7154245512136
 20
124.4015713858594
 30
0.0
 10
256.7405501411827
 20
124.6195046210031
 30
0.0
 10
256.7835422343157
 20
124.9924075440223
 30
0.0
 10
256.8809154569537
 20
125.6034824323923
 30
0.0
 10
256.9398277497733
 20
125.9282999486343
 30
0.0
 10
256.9659428732046
 20
126.0722877162685
 30
0.0
  0
SPLINE
  5
67
330
1F
100
AcDbEntity
  8
0
  6
Continuous
 62
     7
370
    15
100
AcDbSpline
210
0.0
220
0.0
230
1.0
 70
     8
 71
     3
 72
    11
 73
     7
 74
     0
 42
0.00000001
 43
0.00000001
 12
1.0
 22
0.0
 32
0.0
 13
1.0
 23
0.0
 33
0.0
 40
0.0
 40
0.0
 40
0.0
 40
0.0
 40
0.1864182243905033
 40
0.528841297198884
 40
0.8918909945455226
 40
1.0
 40
1.0
 40
1.0
 40
1.0
 10
256.9659428732046
 20
126.0722877162685
 30
0.0
 10
256.8817834675209
 20
126.1259475641759
 30
0.0
 10
256.6430355156039
 20
126.2781727217087
 30
0.0
 10
256.2097520439623
 20
126.5969209677629
 30
0.0
 10
255.8442456997566
 20
126.9264811505153
 30
0.0
 10
255.6579992632615
 20
127.1109451316724
 30
0.0
 10
255.6152643696913
 20
127.153271034657
 30
0.0
  0
SPLINE
  5
68
330
1F
100
AcDbEntity
  8
0
  6
Continuous
 62
     7
370
    15
100
AcDbSpline
210
0.0
220
0.0
230
1.0
 70
     8
 71
     3
 72
    10
 73
     6
 74
     0
 42
0.00000001
 43
0.00000001
 12
1.0
 22
0.0
 32
0.0
 13
1.0
 23
0.0
 33
0.0
 40
0.0
 40
0.0
 40
0.0
 40
0.0
 40
0.4391156884600187
 40
0.7513675884154429
 40
1.0
 40
1.0
 40
1.0
 40
1.0
 10
255.6152643696913
 20
127.153271034657
 30
0.0
 10
255.3753059142878
 20
127.0476033460429
 30
0.0
 10
254.9647147860393
 20
126.8667961500037
 30
0.0
 10
254.4027250407561
 20
126.6729589133554
 30
0.0
 10
254.1334540678164
 20
126.5971455323297
 30
0.0
 10
254.0140898959288
 20
126.5635384882977
 30
0.0
  0
SPLINE
  5
69
330
1F
100
AcDbEntity
  8
0
  6
Continuous
 62
     7
370
    15
100
AcDbSpline
210
0.0
220
0.0
230
1.0
 70
     8
 71
     3
 72
    10
 73
     6
 74
     0
 42
0.00000001
 43
0.00000001
 12
1.0
 22
0.0
 32
0.0
 13
1.0
 23
0.0
 33
0.0
 40
0.0
 40
0.0
 40
0.0
 40
0.0
 40
0.4391169155564841
 40
0.7513673211042958
 40
1.0
 40
1.0
 40
1.0
 40
1.0
 10
254.0140898959288
 20
126.5635384882977
 30
0.0
 10
253.9674888890988
 20
126.3031197331725
 30
0.0
 10
253.8877505041218
 20
125.8575205419966
 30
0.0
 10
253.806711347542
 20
125.2787589311225
 30
0.0
 10
253.7768317422675
 20
125.0113578284204
 30
0.0
 10
253.763586475099
 20
124.8928221578886
 30
0.0
  0
LINE
  5
6A
330
1F
100
AcDbEntity
  8
0
  6
Continuous
 62
     7
370
    15
100
AcDbLine
 10
256.4217524664
 20
124.272994621
 30
0.0
 11
256.4505713122
 21
124.4652433491
 31
0.0
  0
LINE
  5
6B
330
1F
100
AcDbEntity
  8
0
  6
Continuous
 62
     7
370
    15
100
AcDbLine
 10
256.4505713122
 20
124.4652433491
 30
0.0
 11
256.5758304731
 21
125.3006012815
 31
0.0
  0
LINE
  5
6C
330
1F
100
AcDbEntity
  8
0
  6
Continuous
 62
     7
370
    15
100
AcDbLine
 10
256.5758304731
 20
125.3006012815
 30
0.0
 11
256.9659428732
 21
126.0722877163
 31
0.0
  0
LINE
  5
6D
330
1F
100
AcDbEntity
  8
0
  6
Continuous
 62
     7
370
    15
100
AcDbLine
 10
255.2251594202
 20
126.3815845999
 30
0.0
 11
255.6152643697
 21
127.1532710347
 31
0.0
  0
LINE
  5
6E
330
1F
100
AcDbEntity
  8
0
  6
Continuous
 62
     7
370
    15
100
AcDbLine
 10
255.2251594202
 20
126.3815845999
 30
0.0
 11
254.4245721833
 21
126.0867185596
 31
0.0
  0
LINE
  5
6F
330
1F
100
AcDbEntity
  8
0
  6
Continuous
 62
     7
370
    15
100
AcDbLine
 10
254.4245721833
 20
126.0867185596
 30
0.0
 11
253.8991199867
 21
125.8931874003
 31
0.0
  0
LINE
  5
70
330
1F
100
AcDbEntity
  8
0
  6
Continuous
 62
     7
370
    15
100
AcDbLine
 10
256.5758304731
 20
125.3006012815
 30
0.0
 11
255.9004949467
 21
125.8410929407
 31
0.0
  0
LINE
  5
71
330
1F
100
AcDbEntity
  8
0
  6
Continuous
 62
     7
370
    15
100
AcDbLine
 10
255.9004949467
 20
125.8410929407
 30
0.0
 11
255.2251594202
 21
126.3815845999
 31
0.0
  0
LWPOLYLINE
  5
72
330
1F
100
AcDbEntity
  8
0
  6
Continuous
 62
     7
370
    15
100
AcDbPolyline
 90
        3
 70
   128
 43
0.0
 10
256.4505713122
 20
124.4652433491
 10
256.4096378224
 20
124.2784884929
 10
256.398238434
 20
124.2411939132
  0
ARC
  5
73
330
1F
100
AcDbEntity
  8
0
  6
Continuous
 62
     7
370
    15
100
AcDbCircle
 10
254.9225593205
 20
124.7281838305
 30
0.0
 40
1.446930474761022
100
AcDbArc
 50
110.1310143897
 51
138.2356395515
  0
ARC
  5
74
330
1F
100
AcDbEntity
  8
0
  6
Continuous
 62
     7
370
    15
100
AcDbCircle
 10
254.9443527343
 20
124.6528940727
 30
0.0
 40
1.525130971479752
100
AcDbArc
 50
51.1764079371
 51
109.9262578785
  0
ARC
  5
75
330
1F
100
AcDbEntity
  8
0
  6
Continuous
 62
     7
370
    15
100
AcDbCircle
 10
254.9799637451
 20
124.6751693392
 30
0.0
 40
1.485515243138162
100
AcDbArc
 50
351.8760375088
 51
51.7078630191
  0
LINE
  5
76
330
1F
100
AcDbEntity
  8
0
  6
Continuous
 62
     7
370
    15
100
AcDbLine
 10
252.3884626166
 20
130.4609837647
 30
0.0
 11
266.1388592856
 21
134.52155019
 31
0.0
  0
ARC
  5
77
330
1F
100
AcDbEntity
  8
0
  6
Continuous
 62
     7
370
    15
100
AcDbCircle
 10
252.2727558457
 20
130.8466945297
 30
0.0
 40
0.4026920052523223
100
AcDbArc
 50
163.7232597744
 51
286.6983640466
  0
LINE
  5
78
330
1F
100
AcDbEntity
  8
0
  6
Continuous
 62
     7
370
    15
100
AcDbLine
 10
256.1409549849
 20
144.446191069
 30
0.0
 11
251.8862040774
 21
130.9595598544
 31
0.0
  0
ARC
  5
79
330
1F
100
AcDbEntity
  8
0
  6
Continuous
 62
     7
370
    15
100
AcDbCircle
 10
256.5057248037
 20
144.3300656916
 30
0.0
 40
0.3828082078381179
100
AcDbArc
 50
106.1838726005
 51
162.3409968089
  0
LINE
  5
7A
330
1F
100
AcDbEntity
  8
0
  6
Continuous
 62
     7
370
    15
100
AcDbLine
 10
270.1494174139
 20
148.7582704689
 30
0.0
 11
256.3990281956
 21
144.6977040435
 31
0.0
  0
ARC
  5
7B
330
1F
100
AcDbEntity
  8
0
  6
Continuous
 62
     7
370
    15
100
AcDbCircle
 10
270.2651268666
 20
148.3725624054
 30
0.0
 40
0.4026901881741571
100
AcDbArc
 50
343.7227838487
 51
106.6988399723
  0
LINE
  5
7C
330
1F
100
AcDbEntity
  8
0
  6
Continuous
 62
     7
370
    15
100
AcDbLine
 10
266.3969324963
 20
134.7730640958
 30
0.0
 11
270.6516759531
 21
148.2596943791
 31
0.0
  0
ARC
  5
7D
330
1F
100
AcDbEntity
  8
0
  6
Continuous
 62
     7
370
    15
100
AcDbCircle
 10
266.0321081209
 20
134.8892440914
 30
0.0
 40
0.3828767638057571
100
AcDbArc
 50
286.1893962971
 51
342.3356852011
  0
ARC
  5
7E
330
1F
100
AcDbEntity
  8
0
  6
Continuous
 62
     7
370
    15
100
AcDbCircle
 10
270.265447144
 20
148.3730876674
 30
0.0
 40
0.3825613414861158
100
AcDbArc
 50
343.7242590624
 51
106.6980029331
  0
LINE
  5
7F
330
1F
100
AcDbEntity
  8
0
  6
Continuous
 62
     7
370
    15
100
AcDbLine
 10
270.15552689
 20
148.7395173575
 30
0.0
 11
256.4051376717
 21
144.6789527948
 31
0.0
  0
ARC
  5
80
330
1F
100
AcDbEntity
  8
0
  6
Continuous
 62
     7
370
    15
100
AcDbCircle
 10
256.5065139285
 20
144.3296614019
 30
0.0
 40
0.3637054063543298
100
AcDbArc
 50
106.1845282053
 51
162.337257388
  0
LINE
  5
81
330
1F
100
AcDbEntity
  8
0
  6
Continuous
 62
     7
370
    15
100
AcDbLine
 10
256.1599539654
 20
144.4400145377
 30
0.0
 11
251.9052179591
 21
130.9533833231
 31
0.0
  0
ARC
  5
82
330
1F
100
AcDbEntity
  8
0
  6
Continuous
 62
     7
370
    15
100
AcDbCircle
 10
252.2724372714
 20
130.8461569807
 30
0.0
 40
0.382553933227378
100
AcDbArc
 50
163.7224395497
 51
286.6988151472
  0
LINE
  5
83
330
1F
100
AcDbEntity
  8
0
  6
Continuous
 62
     7
370
    15
100
AcDbLine
 10
252.3823605911
 20
130.4797359447
 30
0.0
 11
266.1327498095
 21
134.54030237
 31
0.0
  0
ARC
  5
84
330
1F
100
AcDbEntity
  8
0
  6
Continuous
 62
     7
370
    15
100
AcDbCircle
 10
266.031338962
 20
134.8896292577
 30
0.0
 40
0.3637491366939428
100
AcDbArc
 50
286.188202429
 51
342.3335831643
  0
LINE
  5
85
330
1F
100
AcDbEntity
  8
0
  6
Continuous
 62
     7
370
    15
100
AcDbLine
 10
266.3779335158
 20
134.7792406271
 30
0.0
 11
270.6326769726
 21
148.2658709104
 31
0.0
  0
LINE
  5
86
330
1F
100
AcDbEntity
  8
0
  6
Continuous
 62
     7
370
    15
100
AcDbLine
 10
253.704324557
 20
132.1534827988
 30
0.0
 11
252.2434370653
 21
130.7906645055
 31
0.0
  0
LINE
  5
87
330
1F
100
AcDbEntity
  8
0
  6
Continuous
 62
     7
370
    15
100
AcDbLine
 10
253.704324557
 20
132.1534827988
 30
0.0
 11
254.3434428112
 21
132.3422181125
 31
0.0
  0
LINE
  5
88
330
1F
100
AcDbEntity
  8
0
  6
Continuous
 62
     7
370
    15
100
AcDbLine
 10
265.6229214804
 20
135.1419442038
 30
0.0
 11
265.9938411848
 21
134.8512299995
 31
0.0
  0
LINE
  5
89
330
1F
100
AcDbEntity
  8
0
  6
Continuous
 62
     7
370
    15
100
AcDbLine
 10
265.4717342989
 20
133.2075462382
 30
0.0
 11
265.4751019613
 21
133.2085427533
 31
0.0
  0
LINE
  5
8A
330
1F
100
AcDbEntity
  8
0
  6
Continuous
 62
     7
370
    15
100
AcDbLine
 10
252.4990739362
 20
133.6931871887
 30
0.0
 11
251.3674872057
 21
130.1062886308
 31
0.0
  0
LINE
  5
8B
330
1F
100
AcDbEntity
  8
0
  6
Continuous
 62
     7
370
    15
100
AcDbLine
 10
256.8169312613
 20
143.8834021504
 30
0.0
 11
256.4981805222
 21
144.2772957201
 31
0.0
  0
LINE
  5
8C
330
1F
100
AcDbEntity
  8
0
  6
Continuous
 62
     7
370
    15
100
AcDbLine
 10
253.9020853178
 20
132.7803439166
 30
0.0
 11
253.704324557
 21
132.1534827988
 31
0.0
  0
ARC
  5
8D
330
1F
100
AcDbEntity
  8
0
  6
Continuous
 62
     7
370
    15
100
AcDbCircle
 10
256.2464871599
 20
134.7260222375
 30
0.0
 40
1.006723988174768
100
AcDbArc
 50
163.7229795488
 51
286.6980071485
  0
ARC
  5
8E
330
1F
100
AcDbEntity
  8
0
  6
Continuous
 62
     7
370
    15
100
AcDbCircle
 10
254.2998885797
 20
132.7276710547
 30
0.0
 40
0.2561606788546726
100
AcDbArc
 50
45.0011864509
 51
45.5196806847
  0
SPLINE
  5
8F
330
1F
100
AcDbEntity
  8
0
  6
Continuous
 62
     7
370
    15
100
AcDbSpline
210
0.0
220
0.0
230
1.0
 70
     8
 71
     3
 72
    14
 73
    10
 74
     0
 42
0.00000001
 43
0.00000001
 12
1.0
 22
0.0
 32
0.0
 13
1.0
 23
0.0
 33
0.0
 40
0.0
 40
0.0
 40
0.0
 40
0.0
 40
0.2234975968150281
 40
0.3567639730201992
 40
0.4531227287400184
 40
0.534461722240735
 40
0.6157316377276666
 40
0.7396172394980857
 40
1.0
 40
1.0
 40
1.0
 40
1.0
 10
254.3434428112158
 20
132.3422181124975
 30
0.0
 10
254.3992305776812
 20
132.3613375339646
 30
0.0
 10
254.4882832811274
 20
132.3918574181229
 30
0.0
 10
254.5853988351944
 20
132.461803966754
 30
0.0
 10
254.6349571248309
 20
132.527072831418
 30
0.0
 10
254.6543807656966
 20
132.5928371466642
 30
0.0
 10
254.6490037143305
 20
132.6686283112795
 30
0.0
 10
254.5994291057698
 20
132.7832858334087
 30
0.0
 10
254.528845616692
 20
132.8581078617819
 30
0.0
 10
254.481017781938
 20
132.9088077585389
 30
0.0
  0
SPLINE
  5
90
330
1F
100
AcDbEntity
  8
0
  6
Continuous
 62
     7
370
    15
100
AcDbSpline
210
0.0
220
0.0
230
1.0
 70
     8
 71
     3
 72
    14
 73
    10
 74
     0
 42
0.00000001
 43
0.00000001
 12
1.0
 22
0.0
 32
0.0
 13
1.0
 23
0.0
 33
0.0
 40
0.0
 40
0.0
 40
0.0
 40
0.0
 40
0.2210604891313513
 40
0.3460756152500161
 40
0.4396009053456159
 40
0.5338909876972742
 40
0.6146547130653254
 40
0.7517278735042033
 40
1.0
 40
1.0
 40
1.0
 40
1.0
 10
254.4793712036261
 20
132.9104394356897
 30
0.0
 10
254.4362238889554
 20
132.9506790402162
 30
0.0
 10
254.3686757100397
 20
133.013675127616
 30
0.0
 10
254.26386228495
 20
133.0689700302796
 30
0.0
 10
254.1809908861983
 20
133.0858108508309
 30
0.0
 10
254.1093150948631
 20
133.0725857143452
 30
0.0
 10
254.0388654638178
 20
133.0296336844377
 30
0.0
 10
253.9591573261571
 20
132.9355400637841
 30
0.0
 10
253.9244480063621
 20
132.8411548675853
 30
0.0
 10
253.9020853178152
 20
132.7803439165642
 30
0.0
  0
LINE
  5
91
330
1F
100
AcDbEntity
  8
0
  6
Continuous
 62
     7
370
    15
100
AcDbLine
 10
256.5357463495
 20
133.761749294
 30
0.0
 11
264.23134674
 21
136.0343011732
 31
0.0
  0
LINE
  5
92
330
1F
100
AcDbEntity
  8
0
  6
Continuous
 62
     7
370
    15
100
AcDbLine
 10
257.6613353626
 20
142.5561687614
 30
0.0
 11
255.2801149027
 21
135.008188587
 31
0.0
  0
ARC
  5
93
330
1F
100
AcDbEntity
  8
0
  6
Continuous
 62
     7
370
    15
100
AcDbCircle
 10
258.5733874679
 20
142.2657239933
 30
0.0
 40
0.9571819085594222
100
AcDbArc
 50
106.188555121
 51
162.3358225304
  0
LINE
  5
94
330
1F
100
AcDbEntity
  8
0
  6
Continuous
 62
     7
370
    15
100
AcDbLine
 10
266.0021262304
 20
145.4575049396
 30
0.0
 11
258.30652584
 21
143.1849530603
 31
0.0
  0
ARC
  5
95
330
1F
100
AcDbEntity
  8
0
  6
Continuous
 62
     7
370
    15
100
AcDbCircle
 10
266.2913997849
 20
144.493234914
 30
0.0
 40
1.006725320815435
100
AcDbArc
 50
343.722828692
 51
106.6988379385
  0
LINE
  5
96
330
1F
100
AcDbEntity
  8
0
  6
Continuous
 62
     7
370
    15
100
AcDbLine
 10
264.8765521185
 20
136.6630854721
 30
0.0
 11
267.2577725784
 21
144.2110656466
 31
0.0
  0
ARC
  5
97
330
1F
100
AcDbEntity
  8
0
  6
Continuous
 62
     7
370
    15
100
AcDbCircle
 10
263.9644929621
 20
136.9535437995
 30
0.0
 40
0.9571927417072351
100
AcDbArc
 50
286.1878775817
 51
342.3351772349
  0
LWPOLYLINE
  5
98
330
1F
100
AcDbEntity
  8
0
  6
Continuous
 62
     7
370
    15
100
AcDbPolyline
 90
       23
 70
   128
 43
0.0
 10
263.7210266726
 20
138.8128517832
 10
263.834588422
 20
139.5199305083
 10
263.740293874
 20
140.2342772748
 10
263.4457873242
 20
140.8980178352
 10
262.9749255316
 20
141.4573794867
 10
262.365855469
 20
141.8670496608
 10
261.667914881
 20
142.0938341583
 10
260.9376536743
 20
142.1193654354
 10
260.2342443602
 20
141.941570368
 10
259.6146540777
 20
141.5748565163
 10
259.1290699379
 20
141.0489312078
 10
258.8168608086
 20
140.4064024504
 10
258.7032990591
 20
139.6993237253
 10
258.7975936072
 20
138.9849769588
 10
259.092100157
 20
138.3212363984
 10
259.5629619496
 20
137.7618747468
 10
260.1720320122
 20
137.352205504
 10
260.8699726002
 20
137.1254200752
 10
261.6002189057
 20
137.0998897295
 10
262.303643121
 20
137.2776838656
 10
262.9232334034
 20
137.6443977173
 10
263.4088026421
 20
138.1703230257
 10
263.7210266726
 20
138.8128517832
  0
LINE
  5
99
330
1F
100
AcDbEntity
  8
0
  6
Continuous
 62
     7
370
    15
100
AcDbLine
 10
263.1384508745
 20
137.8402697559
 30
0.0
 11
263.1666587727
 21
138.0930102135
 31
0.0
  0
LWPOLYLINE
  5
9A
330
1F
100
AcDbEntity
  8
0
  6
Continuous
 62
     7
370
    15
100
AcDbPolyline
 90
        3
 70
   128
 43
0.0
 10
259.2145578997
 20
140.4478500302
 10
258.9508967535
 20
140.2618500109
 10
258.7356792824
 20
140.0659779723
  0
SPLINE
  5
9B
330
1F
100
AcDbEntity
  8
0
  6
Continuous
 62
     7
370
    15
100
AcDbSpline
210
0.0
220
0.0
230
1.0
 70
     8
 71
     3
 72
    11
 73
     7
 74
     0
 42
0.00000001
 43
0.00000001
 12
1.0
 22
0.0
 32
0.0
 13
1.0
 23
0.0
 33
0.0
 40
0.0
 40
0.0
 40
0.0
 40
0.0
 40
0.3280488898505854
 40
0.6557029479791524
 40
0.9906993572354557
 40
1.0
 40
1.0
 40
1.0
 40
1.0
 10
265.6229214803823
 20
135.1419442038228
 30
0.0
 10
265.5672004414194
 20
135.1882248027124
 30
0.0
 10
265.4558254279905
 20
135.2807302982803
 30
0.0
 10
265.2836929425786
 20
135.455535571655
 30
0.0
 10
265.1802072731044
 20
135.5758058064098
 30
0.0
 10
265.1335608283355
 20
135.6349795203901
 30
0.0
 10
265.1323007480749
 20
135.6365780051043
 30
0.0
  0
ARC
  5
9C
330
1F
100
AcDbEntity
  8
0
  6
Continuous
 62
     7
370
    15
100
AcDbCircle
 10
265.3680271797
 20
133.57685613
 30
0.0
 40
0.3835619276393604
100
AcDbArc
 50
286.210020342
 51
333.0677297467
  0
LINE
  5
9D
330
1F
100
AcDbEntity
  8
0
  6
Continuous
 62
     7
370
    15
100
AcDbLine
 10
268.6663197415
 20
146.7349349226
 30
0.0
 11
270.2485846417
 21
148.3378602828
 31
0.0
  0
LINE
  5
9E
330
1F
100
AcDbEntity
  8
0
  6
Continuous
 62
     7
370
    15
100
AcDbLine
 10
268.4685515301
 20
146.1080747361
 30
0.0
 11
268.6663197415
 21
146.7349349226
 31
0.0
  0
SPLINE
  5
9F
330
1F
100
AcDbEntity
  8
0
  6
Continuous
 62
     7
370
    15
100
AcDbSpline
210
0.0
220
0.0
230
1.0
 70
     8
 71
     3
 72
    11
 73
     7
 74
     0
 42
0.00000001
 43
0.00000001
 12
1.0
 22
0.0
 32
0.0
 13
1.0
 23
0.0
 33
0.0
 40
0.0
 40
0.0
 40
0.0
 40
0.0
 40
0.3280535870277372
 40
0.655702935375678
 40
0.9906977039695973
 40
1.0
 40
1.0
 40
1.0
 40
1.0
 10
256.8169312612661
 20
143.8834021504213
 30
0.0
 10
256.8665757944549
 20
143.825096535585
 30
0.0
 10
256.9658036871664
 20
143.708557152055
 30
0.0
 10
257.1405726143391
 20
143.5389519176503
 30
0.0
 10
257.2558817852375
 20
143.44210344392
 30
0.0
 10
257.3111838298639
 20
143.400025892371
 30
0.0
 10
257.3126779930242
 20
143.3988890315582
 30
0.0
  0
LINE
  5
A0
330
1F
100
AcDbEntity
  8
0
  6
Continuous
 62
     7
370
    15
100
AcDbLine
 10
268.6663197415
 20
146.7349349226
 30
0.0
 11
268.0271940367
 21
146.5462005402
 31
0.0
  0
LWPOLYLINE
  5
A1
330
1F
100
AcDbEntity
  8
0
  6
Continuous
 62
     7
370
    15
100
AcDbPolyline
 90
        9
 70
   128
 43
0.0
 10
267.8912656443
 20
145.9779782857
 10
267.891057028
 20
145.978181314
 10
267.8908484118
 20
145.978386205
 10
267.8906546967
 20
145.978591096
 10
267.8904460804
 20
145.9787941243
 10
267.8902374642
 20
145.9789990152
 10
267.8900288479
 20
145.9792020436
 10
267.8898202316
 20
145.9794069345
 10
267.8896265165
 20
145.9796099628
  0
SPLINE
  5
A2
330
1F
100
AcDbEntity
  8
0
  6
Continuous
 62
     7
370
    15
100
AcDbSpline
210
0.0
220
0.0
230
1.0
 70
     8
 71
     3
 72
    14
 73
    10
 74
     0
 42
0.00000001
 43
0.00000001
 12
1.0
 22
0.0
 32
0.0
 13
1.0
 23
0.0
 33
0.0
 40
0.0
 40
0.0
 40
0.0
 40
0.0
 40
0.2210525299291319
 40
0.3460843239390517
 40
0.4396095923543221
 40
0.5338906407886714
 40
0.61465368592462
 40
0.7517269193224609
 40
0.9999999999999999
 40
0.9999999999999999
 40
0.9999999999999999
 40
0.9999999999999999
 10
267.891265644277
 20
145.9779782856991
 30
0.0
 10
267.9344096343032
 20
145.9377373289927
 30
0.0
 10
268.0019567400751
 20
145.8747352710617
 30
0.0
 10
268.1067784182106
 20
145.8194516382401
 30
0.0
 10
268.1896510380177
 20
145.8026070349055
 30
0.0
 10
268.2613234361473
 20
145.815834647801
 30
0.0
 10
268.3317718214316
 20
145.8587836482268
 30
0.0
 10
268.411479500473
 20
145.9528780996025
 30
0.0
 10
268.4461888171875
 20
146.0472635498343
 30
0.0
 10
268.4685515300878
 20
146.1080747361471
 30
0.0
  0
SPLINE
  5
A3
330
1F
100
AcDbEntity
  8
0
  6
Continuous
 62
     7
370
    15
100
AcDbSpline
210
0.0
220
0.0
230
1.0
 70
     8
 71
     3
 72
    14
 73
    10
 74
     0
 42
0.00000001
 43
0.00000001
 12
1.0
 22
0.0
 32
0.0
 13
1.0
 23
0.0
 33
0.0
 40
0.0
 40
0.0
 40
0.0
 40
0.0
 40
0.223496755607215
 40
0.3567632848183564
 40
0.4531216664185077
 40
0.5344592148855593
 40
0.6157287956945819
 40
0.7396173831399951
 40
1.0
 40
1.0
 40
1.0
 40
1.0
 10
268.0271940366873
 20
146.5462005402138
 30
0.0
 10
267.9714061733122
 20
146.5270812583189
 30
0.0
 10
267.8823531517746
 20
146.4965615409581
 30
0.0
 10
267.7852382336181
 20
146.4266137636958
 30
0.0
 10
267.7356798663335
 20
146.3613450960937
 30
0.0
 10
267.7162562652088
 20
146.295581357882
 30
0.0
 10
267.7216319901389
 20
146.2197888905624
 30
0.0
 10
267.7712200715573
 20
146.1051354947609
 30
0.0
 10
267.8418008789913
 20
146.030311076236
 30
0.0
 10
267.8896265165457
 20
145.9796099628498
 30
0.0
  0
ELLIPSE
  5
A4
330
1F
100
AcDbEntity
  8
0
  6
Continuous
 62
     7
370
    15
100
AcDbEllipse
 10
260.9642177309
 20
138.8851351207
 30
0.0
 11
2.09333716601634
 21
-1.067951011005476
 31
0.0
210
0.0
220
0.0
230
1.0
 40
0.9741101241
 41
0.0
 42
6.283185307179586
  0
LINE
  5
A5
330
1F
100
AcDbEntity
  8
0
  6
Continuous
 62
     7
370
    15
100
AcDbLine
 10
252.4990739362
 20
133.6931871887
 30
0.0
 11
251.5600251095
 21
130.7165824513
 31
0.0
  0
LINE
  5
A6
330
1F
100
AcDbEntity
  8
0
  6
Continuous
 62
     7
370
    15
100
AcDbLine
 10
251.2589769499
 20
130.121077102
 30
0.0
 11
251.2467654483
 21
130.0789934288
 31
0.0
  0
LINE
  5
A7
330
1F
100
AcDbEntity
  8
0
  6
Continuous
 62
     7
370
    15
100
AcDbLine
 10
252.1980332272
 20
133.0976818393
 30
0.0
 11
251.2589769499
 21
130.121077102
 31
0.0
  0
ARC
  5
A8
330
1F
100
AcDbEntity
  8
0
  6
Continuous
 62
     7
370
    15
100
AcDbCircle
 10
264.6100335342
 20
133.4461506842
 30
0.0
 40
0.9593650349928632
100
AcDbArc
 50
321.1467745435
 51
333.1061812319
  0
LINE
  5
A9
330
1F
100
AcDbEntity
  8
0
  6
Continuous
 62
     7
370
    15
100
AcDbLine
 10
258.9224802391
 20
140.2385445948
 30
0.0
 11
259.1290401356
 21
140.3489733751
 31
0.0
  0
LINE
  5
AA
330
1F
100
AcDbEntity
  8
0
  6
Continuous
 62
     7
370
    15
100
AcDbLine
 10
152.6682751314
 20
91.2725130732
 30
0.0
 11
152.6682751314
 21
152.2725137587
 31
0.0
  0
LINE
  5
AB
330
1F
100
AcDbEntity
  8
0
  6
Continuous
 62
     7
370
    15
100
AcDbLine
 10
130.6682752506
 20
90.7725139226
 30
0.0
 11
130.6682752506
 21
152.7725129093
 31
0.0
  0
SPLINE
  5
AC
330
1F
100
AcDbEntity
  8
0
  6
Continuous
 62
     7
370
    15
100
AcDbSpline
210
0.0
220
0.0
230
1.0
 70
     8
 71
     3
 72
    12
 73
     8
 74
     0
 42
0.00000001
 43
0.00000001
 12
1.0
 22
0.0
 32
0.0
 13
1.0
 23
0.0
 33
0.0
 40
0.0
 40
0.0
 40
0.0
 40
0.0
 40
0.2499999999999991
 40
0.2499999999999991
 40
0.4999999999999982
 40
0.4999999999999982
 40
1.0
 40
1.0
 40
1.0
 40
1.0
 10
141.1960320642048
 20
131.1605798472973
 30
0.0
 10
141.1329520257114
 20
131.1605798472973
 30
0.0
 10
141.07380340353
 20
131.1859441665123
 30
0.0
 10
140.975330853461
 20
131.2601090268851
 30
0.0
 10
140.9362942414762
 20
131.3066293674393
 30
0.0
 10
140.8363977746972
 20
131.4567717102845
 30
0.0
 10
140.7939768936305
 20
131.5684649172567
 30
0.0
 10
140.7630193623126
 20
131.6818827366464
 30
0.0
  0
LINE
  5
AD
330
1F
100
AcDbEntity
  8
0
  6
Continuous
 62
     7
370
    15
100
AcDbLine
 10
144.1405184628
 20
131.1605802442
 30
0.0
 11
141.1960322471
 21
131.1605802442
 31
0.0
  0
SPLINE
  5
AE
330
1F
100
AcDbEntity
  8
0
  6
Continuous
 62
     7
370
    15
100
AcDbSpline
210
0.0
220
0.0
230
1.0
 70
     8
 71
     3
 72
    12
 73
     8
 74
     0
 42
0.00000001
 43
0.00000001
 12
1.0
 22
0.0
 32
0.0
 13
1.0
 23
0.0
 33
0.0
 40
0.0
 40
0.0
 40
0.0
 40
0.0
 40
0.4999999999999981
 40
0.4999999999999981
 40
0.749999999999999
 40
0.749999999999999
 40
1.0
 40
1.0
 40
1.0
 40
1.0
 10
144.5735311389641
 20
131.6818827366464
 30
0.0
 10
144.5428088970451
 20
131.5693269372372
 30
0.0
 10
144.4999716825099
 20
131.4565690774977
 30
0.0
 10
144.4005446583101
 20
131.3070281917013
 30
0.0
 10
144.3607924634935
 20
131.2597354599944
 30
0.0
 10
144.2627510066353
 20
131.185999166673
 30
0.0
 10
144.2031949510477
 20
131.1605798472973
 30
0.0
 10
144.1405184370719
 20
131.1605798472973
 30
0.0
  0
ELLIPSE
  5
AF
330
1F
100
AcDbEntity
  8
0
  6
Continuous
 62
     7
370
    15
100
AcDbEllipse
 10
128.3211210613
 20
121.772513416
 30
0.0
 11
14.75368316065604
 21
31.09325491558116
 31
0.0
210
0.0
220
0.0
230
1.0
 40
0.3419987131
 41
5.193281737408618
 42
6.124043104552324
  0
SPLINE
  5
B0
330
1F
100
AcDbEntity
  8
0
  6
Continuous
 62
     7
370
    15
100
AcDbSpline
210
0.0
220
0.0
230
1.0
 70
     8
 71
     3
 72
    12
 73
     8
 74
     0
 42
0.00000001
 43
0.00000001
 12
1.0
 22
0.0
 32
0.0
 13
1.0
 23
0.0
 33
0.0
 40
0.0
 40
0.0
 40
0.0
 40
0.0
 40
0.2500000000000009
 40
0.2500000000000009
 40
0.5000000000000018
 40
0.5000000000000018
 40
1.0
 40
1.0
 40
1.0
 40
1.0
 10
144.1405184370719
 20
151.8410053748345
 30
0.0
 10
144.2035984755653
 20
151.8410053748345
 30
0.0
 10
144.2627470977467
 20
151.833099448622
 30
0.0
 10
144.3612196478157
 20
151.8097742871858
 30
0.0
 10
144.4002562598005
 20
151.7950614973541
 30
0.0
 10
144.5001527265796
 20
151.7471056966232
 30
0.0
 10
144.5425736076462
 20
151.7108435400431
 30
0.0
 10
144.5735311389641
 20
151.6732558760786
 30
0.0
  0
LINE
  5
B1
330
1F
100
AcDbEntity
  8
0
  6
Continuous
 62
     7
370
    15
100
AcDbLine
 10
141.1960322471
 20
151.8410059328
 30
0.0
 11
144.1405184628
 21
151.8410059328
 31
0.0
  0
SPLINE
  5
B2
330
1F
100
AcDbEntity
  8
0
  6
Continuous
 62
     7
370
    15
100
AcDbSpline
210
0.0
220
0.0
230
1.0
 70
     8
 71
     3
 72
    12
 73
     8
 74
     0
 42
0.00000001
 43
0.00000001
 12
1.0
 22
0.0
 32
0.0
 13
1.0
 23
0.0
 33
0.0
 40
0.0
 40
0.0
 40
0.0
 40
0.0
 40
0.5
 40
0.5
 40
0.75
 40
0.75
 40
1.0
 40
1.0
 40
1.0
 40
1.0
 10
140.7630193623126
 20
151.6732558760786
 30
0.0
 10
140.7937416042317
 20
151.7105578590316
 30
0.0
 10
140.8365788187668
 20
151.7471696910781
 30
0.0
 10
140.9360058429666
 20
151.7949344743632
 30
0.0
 10
140.9757580377833
 20
151.8098919898456
 30
0.0
 10
141.0737994946415
 20
151.8330819356147
 30
0.0
 10
141.1333555502289
 20
151.8410053748345
 30
0.0
 10
141.1960320642048
 20
151.8410053748345
 30
0.0
  0
ELLIPSE
  5
B3
330
1F
100
AcDbEntity
  8
0
  6
Continuous
 62
     7
370
    15
100
AcDbEllipse
 10
157.01542944
 20
121.772513416
 30
0.0
 11
-14.75368316065606
 21
31.09325491558118
 31
0.0
210
0.0
220
0.0
230
1.0
 40
0.3419987131
 41
0.1591422026273065
 42
1.089903569770981
  0
SPLINE
  5
B4
330
1F
100
AcDbEntity
  8
0
  6
Continuous
 62
     7
370
    15
100
AcDbSpline
210
0.0
220
0.0
230
1.0
 70
     8
 71
     3
 72
    12
 73
     8
 74
     0
 42
0.00000001
 43
0.00000001
 12
1.0
 22
0.0
 32
0.0
 13
1.0
 23
0.0
 33
0.0
 40
0.0
 40
0.0
 40
0.0
 40
0.0
 40
0.2500000000000018
 40
0.2500000000000018
 40
0.5000000000000037
 40
0.5000000000000037
 40
1.0
 40
1.0
 40
1.0
 40
1.0
 10
141.1960320642048
 20
91.70402145708829
 30
0.0
 10
141.1329520257114
 20
91.70402145708829
 30
0.0
 10
141.07380340353
 20
91.71192738330072
 30
0.0
 10
140.975330853461
 20
91.73525254473697
 30
0.0
 10
140.9362942414762
 20
91.74996533456867
 30
0.0
 10
140.8363977746972
 20
91.7979211352996
 30
0.0
 10
140.7939768936305
 20
91.83418329187965
 30
0.0
 10
140.7630193623126
 20
91.87177095584416
 30
0.0
  0
LINE
  5
B5
330
1F
100
AcDbEntity
  8
0
  6
Continuous
 62
     7
370
    15
100
AcDbLine
 10
144.1405184628
 20
91.7040208991
 30
0.0
 11
141.1960322471
 21
91.7040208991
 31
0.0
  0
SPLINE
  5
B6
330
1F
100
AcDbEntity
  8
0
  6
Continuous
 62
     7
370
    15
100
AcDbSpline
210
0.0
220
0.0
230
1.0
 70
     8
 71
     3
 72
    12
 73
     8
 74
     0
 42
0.00000001
 43
0.00000001
 12
1.0
 22
0.0
 32
0.0
 13
1.0
 23
0.0
 33
0.0
 40
0.0
 40
0.0
 40
0.0
 40
0.0
 40
0.4999999999999981
 40
0.4999999999999981
 40
0.749999999999999
 40
0.749999999999999
 40
1.0
 40
1.0
 40
1.0
 40
1.0
 10
144.5735311389641
 20
91.87177095584416
 30
0.0
 10
144.5428088970451
 20
91.83446897289112
 30
0.0
 10
144.4999716825099
 20
91.79785714084473
 30
0.0
 10
144.4005446583101
 20
91.75009235755952
 30
0.0
 10
144.3607924634934
 20
91.73513484207716
 30
0.0
 10
144.2627510066352
 20
91.711944896308
 30
0.0
 10
144.2031949510477
 20
91.70402145708827
 30
0.0
 10
144.1405184370719
 20
91.70402145708827
 30
0.0
  0
ELLIPSE
  5
B7
330
1F
100
AcDbEntity
  8
0
  6
Continuous
 62
     7
370
    15
100
AcDbEllipse
 10
128.3211210613
 20
121.772513416
 30
0.0
 11
-14.75368316065619
 21
31.09325491558119
 31
0.0
210
0.0
220
0.0
230
1.0
 40
0.3419987131
 41
3.300734856217121
 42
4.231496223360773
  0
SPLINE
  5
B8
330
1F
100
AcDbEntity
  8
0
  6
Continuous
 62
     7
370
    15
100
AcDbSpline
210
0.0
220
0.0
230
1.0
 70
     8
 71
     3
 72
    12
 73
     8
 74
     0
 42
0.00000001
 43
0.00000001
 12
1.0
 22
0.0
 32
0.0
 13
1.0
 23
0.0
 33
0.0
 40
0.0
 40
0.0
 40
0.0
 40
0.0
 40
0.2500000000000009
 40
0.2500000000000009
 40
0.5000000000000018
 40
0.5000000000000018
 40
1.0
 40
1.0
 40
1.0
 40
1.0
 10
144.1405184370719
 20
112.3844469846252
 30
0.0
 10
144.2035984755653
 20
112.3844469846252
 30
0.0
 10
144.2627470977467
 20
112.3590826654102
 30
0.0
 10
144.3612196478158
 20
112.2849178050373
 30
0.0
 10
144.4002562598005
 20
112.2383974644832
 30
0.0
 10
144.5001527265796
 20
112.0882551216379
 30
0.0
 10
144.5425736076462
 20
111.9765619146658
 30
0.0
 10
144.5735311389641
 20
111.863144095276
 30
0.0
  0
LINE
  5
B9
330
1F
100
AcDbEntity
  8
0
  6
Continuous
 62
     7
370
    15
100
AcDbLine
 10
141.1960322471
 20
112.3844465877
 30
0.0
 11
144.1405184628
 21
112.3844465877
 31
0.0
  0
SPLINE
  5
BA
330
1F
100
AcDbEntity
  8
0
  6
Continuous
 62
     7
370
    15
100
AcDbSpline
210
0.0
220
0.0
230
1.0
 70
     8
 71
     3
 72
    12
 73
     8
 74
     0
 42
0.00000001
 43
0.00000001
 12
1.0
 22
0.0
 32
0.0
 13
1.0
 23
0.0
 33
0.0
 40
0.0
 40
0.0
 40
0.0
 40
0.0
 40
0.4999999999999936
 40
0.4999999999999936
 40
0.7499999999999968
 40
0.7499999999999968
 40
1.0
 40
1.0
 40
1.0
 40
1.0
 10
140.7630193623126
 20
111.863144095276
 30
0.0
 10
140.7937416042317
 20
111.9756998946852
 30
0.0
 10
140.8365788187668
 20
112.0884577544248
 30
0.0
 10
140.9360058429666
 20
112.2379986402212
 30
0.0
 10
140.9757580377833
 20
112.285291371928
 30
0.0
 10
141.0737994946415
 20
112.3590276652495
 30
0.0
 10
141.133355550229
 20
112.3844469846252
 30
0.0
 10
141.1960320642048
 20
112.3844469846252
 30
0.0
  0
ELLIPSE
  5
BB
330
1F
100
AcDbEntity
  8
0
  6
Continuous
 62
     7
370
    15
100
AcDbEllipse
 10
157.01542944
 20
121.772513416
 30
0.0
 11
14.75368316065615
 21
31.09325491558118
 31
0.0
210
0.0
220
0.0
230
1.0
 40
0.3419987131
 41
2.051689083818822
 42
2.982450450962497
  0
SPLINE
  5
BC
330
1F
100
AcDbEntity
  8
0
  6
Continuous
 62
     7
370
    15
100
AcDbSpline
210
0.0
220
0.0
230
1.0
 70
     8
 71
     3
 72
    12
 73
     8
 74
     0
 42
0.00000001
 43
0.00000001
 12
1.0
 22
0.0
 32
0.0
 13
1.0
 23
0.0
 33
0.0
 40
0.0
 40
0.0
 40
0.0
 40
0.0
 40
0.5000000000000008
 40
0.5000000000000008
 40
0.7500000000000006
 40
0.7500000000000006
 40
1.0
 40
1.0
 40
1.0
 40
1.0
 10
129.8517629641819
 20
99.91771971348558
 30
0.0
 10
129.908199465089
 20
99.91630183214383
 30
0.0
 10
129.9772840957778
 20
99.91473749589552
 30
0.0
 10
130.0960863674957
 20
99.91179330392109
 30
0.0
 10
130.1362716429658
 20
99.9107551008237
 30
0.0
 10
130.2096526903697
 20
99.90882120560907
 30
0.0
 10
130.2430622541123
 20
99.90792631832026
 30
0.0
 10
130.2732983617687
 20
99.90714252804791
 30
0.0
  0
SPLINE
  5
BD
330
1F
100
AcDbEntity
  8
0
  6
Continuous
 62
     7
370
    15
100
AcDbSpline
210
0.0
220
0.0
230
1.0
 70
     8
 71
     3
 72
    16
 73
    12
 74
     0
 42
0.00000001
 43
0.00000001
 12
1.0
 22
0.0
 32
0.0
 13
1.0
 23
0.0
 33
0.0
 40
0.0
 40
0.0
 40
0.0
 40
0.0
 40
0.0625000000000024
 40
0.0625000000000024
 40
0.1250000000000048
 40
0.1250000000000048
 40
0.2500000000000063
 40
0.2500000000000063
 40
0.5000000000000041
 40
0.5000000000000041
 40
1.0
 40
1.0
 40
1.0
 40
1.0
 10
130.2732983617315
 20
99.90714252807216
 30
0.0
 10
130.2848787693195
 20
99.9068423369608
 30
0.0
 10
130.2981882960807
 20
99.90551458870182
 30
0.0
 10
130.3274897261669
 20
99.89881591392681
 30
0.0
 10
130.3423038260512
 20
99.89345773082111
 30
0.0
 10
130.378132227754
 20
99.87641208165377
 30
0.0
 10
130.3922518521171
 20
99.86494954387804
 30
0.0
 10
130.4267559962056
 20
99.83338621850578
 30
0.0
 10
130.4378605469102
 20
99.8154889194605
 30
0.0
 10
130.4640367241264
 20
99.76532750184626
 30
0.0
 10
130.4682752506384
 20
99.73758308964969
 30
0.0
 10
130.4682752506384
 20
99.71291892772015
 30
0.0
  0
LINE
  5
BE
330
1F
100
AcDbEntity
  8
0
  6
Continuous
 62
     7
370
    15
100
AcDbLine
 10
130.4682752557
 20
114.7506261881
 30
0.0
 11
130.4682752557
 21
99.2326928939
 31
0.0
  0
SPLINE
  5
BF
330
1F
100
AcDbEntity
  8
0
  6
Continuous
 62
     7
370
    15
100
AcDbSpline
210
0.0
220
0.0
230
1.0
 70
     8
 71
     3
 72
    16
 73
    12
 74
     0
 42
0.00000001
 43
0.00000001
 12
1.0
 22
0.0
 32
0.0
 13
1.0
 23
0.0
 33
0.0
 40
0.0
 40
0.0
 40
0.0
 40
0.0
 40
0.5000000000000049
 40
0.5000000000000049
 40
0.7500000000000039
 40
0.7500000000000039
 40
0.8750000000000024
 40
0.8750000000000024
 40
0.9375000000000012
 40
0.9375000000000012
 40
1.0
 40
1.0
 40
1.0
 40
1.0
 10
130.4682752506384
 20
114.7506260902113
 30
0.0
 10
130.4682752506384
 20
114.8643186343391
 30
0.0
 10
130.4641289755604
 20
114.9786387956887
 30
0.0
 10
130.4381633801669
 20
115.1516870861857
 30
0.0
 10
130.4267024747895
 20
115.2108625933475
 30
0.0
 10
130.3923907370152
 20
115.2939857128156
 30
0.0
 10
130.3783660010856
 20
115.3221070289163
 30
0.0
 10
130.3423430380517
 20
115.3507228428938
 30
0.0
 10
130.3275885289621
 20
115.3565158907956
 30
0.0
 10
130.2982363678152
 20
115.3549224648585
 30
0.0
 10
130.2848964933111
 20
115.3484260615347
 30
0.0
 10
130.2732983617627
 20
115.3399103153316
 30
0.0
  0
SPLINE
  5
C0
330
1F
100
AcDbEntity
  8
0
  6
Continuous
 62
     7
370
    15
100
AcDbSpline
210
0.0
220
0.0
230
1.0
 70
     8
 71
     3
 72
    12
 73
     8
 74
     0
 42
0.00000001
 43
0.00000001
 12
1.0
 22
0.0
 32
0.0
 13
1.0
 23
0.0
 33
0.0
 40
0.0
 40
0.0
 40
0.0
 40
0.0
 40
0.25
 40
0.25
 40
0.5
 40
0.5
 40
1.0
 40
1.0
 40
1.0
 40
1.0
 10
130.2732983617698
 20
115.3399103153224
 30
0.0
 10
130.2430999203291
 20
115.3177375832774
 30
0.0
 10
130.2097325649932
 20
115.2986579274002
 30
0.0
 10
130.1365772891633
 20
115.2734848829574
 30
0.0
 10
130.0963245901393
 20
115.2679283465407
 30
0.0
 10
129.9785958468644
 20
115.2788401575274
 30
0.0
 10
129.9081373988055
 20
115.3207759129383
 30
0.0
 10
129.8517629641872
 20
115.3699876953198
 30
0.0
  0
SPLINE
  5
C1
330
1F
100
AcDbEntity
  8
0
  6
Continuous
 62
     7
370
    15
100
AcDbSpline
210
0.0
220
0.0
230
1.0
 70
     8
 71
     3
 72
    12
 73
     8
 74
     0
 42
0.00000001
 43
0.00000001
 12
1.0
 22
0.0
 32
0.0
 13
1.0
 23
0.0
 33
0.0
 40
0.0
 40
0.0
 40
0.0
 40
0.0
 40
0.4999999999999992
 40
0.4999999999999992
 40
0.7499999999999994
 40
0.7499999999999994
 40
1.0
 40
1.0
 40
1.0
 40
1.0
 10
129.3469549070787
 20
116.5863390872004
 30
0.0
 10
129.3907052589632
 20
116.3658921022258
 30
0.0
 10
129.4435954100877
 20
116.1503471124203
 30
0.0
 10
129.5552069532293
 20
115.8379330358484
 30
0.0
 10
129.5977662971329
 20
115.7358535602325
 30
0.0
 10
129.7027435324703
 20
115.5414135475907
 30
0.0
 10
129.7643107755649
 20
115.446328648527
 30
0.0
 10
129.8517629641872
 20
115.3699876953198
 30
0.0
  0
SPLINE
  5
C2
330
1F
100
AcDbEntity
  8
0
  6
Continuous
 62
     7
370
    15
100
AcDbSpline
210
0.0
220
0.0
230
1.0
 70
     8
 71
     3
 72
    12
 73
     8
 74
     0
 42
0.00000001
 43
0.00000001
 12
1.0
 22
0.0
 32
0.0
 13
1.0
 23
0.0
 33
0.0
 40
0.0
 40
0.0
 40
0.0
 40
0.0
 40
0.2499999999999996
 40
0.2499999999999996
 40
0.4999999999999992
 40
0.4999999999999992
 40
1.0
 40
1.0
 40
1.0
 40
1.0
 10
129.8517629641871
 20
128.175039136603
 30
0.0
 10
129.7632695566193
 20
128.0977892564947
 30
0.0
 10
129.7032115158534
 20
128.0044699326054
 30
0.0
 10
129.5973632428708
 20
127.808436879636
 30
0.0
 10
129.5548297215934
 20
127.7061105214243
 30
0.0
 10
129.4436784147697
 20
127.3947661156484
 30
0.0
 10
129.3907475577219
 20
127.1793478624704
 30
0.0
 10
129.3469549070787
 20
126.9586877447226
 30
0.0
  0
SPLINE
  5
C3
330
1F
100
AcDbEntity
  8
0
  6
Continuous
 62
     7
370
    15
100
AcDbSpline
210
0.0
220
0.0
230
1.0
 70
     8
 71
     3
 72
    12
 73
     8
 74
     0
 42
0.00000001
 43
0.00000001
 12
1.0
 22
0.0
 32
0.0
 13
1.0
 23
0.0
 33
0.0
 40
0.0
 40
0.0
 40
0.0
 40
0.0
 40
0.4999999999999994
 40
0.4999999999999994
 40
0.7499999999999996
 40
0.7499999999999996
 40
1.0
 40
1.0
 40
1.0
 40
1.0
 10
129.8517629641871
 20
128.175039136603
 30
0.0
 10
129.9080715124828
 20
128.2241934038469
 30
0.0
 10
129.9783461732009
 20
128.2661507224506
 30
0.0
 10
130.0963840875244
 20
128.2771103999831
 30
0.0
 10
130.1365603283784
 20
128.2716016417357
 30
0.0
 10
130.2105174230564
 20
128.2460444129468
 30
0.0
 10
130.2431338107678
 20
128.2272643651075
 30
0.0
 10
130.2732983617636
 20
128.2051165165907
 30
0.0
  0
SPLINE
  5
C4
330
1F
100
AcDbEntity
  8
0
  6
Continuous
 62
     7
370
    15
100
AcDbSpline
210
0.0
220
0.0
230
1.0
 70
     8
 71
     3
 72
    16
 73
    12
 74
     0
 42
0.00000001
 43
0.00000001
 12
1.0
 22
0.0
 32
0.0
 13
1.0
 23
0.0
 33
0.0
 40
0.0
 40
0.0
 40
0.0
 40
0.0
 40
0.0624999999999993
 40
0.0624999999999993
 40
0.1249999999999986
 40
0.1249999999999986
 40
0.2499999999999961
 40
0.2499999999999961
 40
0.4999999999999962
 40
0.4999999999999962
 40
1.0
 40
1.0
 40
1.0
 40
1.0
 10
130.2732983617318
 20
128.2051165165362
 30
0.0
 10
130.2849112615712
 20
128.196589926941
 30
0.0
 10
130.2982624460037
 20
128.1900896654082
 30
0.0
 10
130.3276622856228
 20
128.1885202682907
 30
0.0
 10
130.3425030101781
 20
128.1944036589213
 30
0.0
 10
130.3783362181466
 20
128.2229512949719
 30
0.0
 10
130.3924494259682
 20
128.2511183142776
 30
0.0
 10
130.4269407971871
 20
128.3348725726996
 30
0.0
 10
130.4380248682975
 20
128.392585986321
 30
0.0
 10
130.4641476860935
 20
128.5661765229668
 30
0.0
 10
130.4682752506384
 20
128.6812045756088
 30
0.0
 10
130.4682752506384
 20
128.7944007417116
 30
0.0
  0
LINE
  5
C5
330
1F
100
AcDbEntity
  8
0
  6
Continuous
 62
     7
370
    15
100
AcDbLine
 10
130.4682752557
 20
144.312333938
 30
0.0
 11
130.4682752557
 21
128.7944006439
 31
0.0
  0
SPLINE
  5
C6
330
1F
100
AcDbEntity
  8
0
  6
Continuous
 62
     7
370
    15
100
AcDbSpline
210
0.0
220
0.0
230
1.0
 70
     8
 71
     3
 72
    16
 73
    12
 74
     0
 42
0.00000001
 43
0.00000001
 12
1.0
 22
0.0
 32
0.0
 13
1.0
 23
0.0
 33
0.0
 40
0.0
 40
0.0
 40
0.0
 40
0.0
 40
0.5000000000000061
 40
0.5000000000000061
 40
0.7500000000000071
 40
0.7500000000000071
 40
0.8750000000000036
 40
0.8750000000000036
 40
0.9375000000000018
 40
0.9375000000000018
 40
1.0
 40
1.0
 40
1.0
 40
1.0
 10
130.4682752506384
 20
143.8321079042027
 30
0.0
 10
130.4682752506384
 20
143.8074367481598
 30
0.0
 10
130.4641095521783
 20
143.7798549167685
 30
0.0
 10
130.4378512238534
 20
143.7295120459452
 30
0.0
 10
130.4263474421159
 20
143.7112225478833
 30
0.0
 10
130.3922166827693
 20
143.6800675168463
 30
0.0
 10
130.3777947960986
 20
143.6684281416346
 30
0.0
 10
130.3422278276608
 20
143.6515461157035
 30
0.0
 10
130.3272760593661
 20
143.6461570118958
 30
0.0
 10
130.2982722410064
 20
143.6395365159514
 30
0.0
 10
130.2848568869971
 20
143.6381839277449
 30
0.0
 10
130.2732983617605
 20
143.6378843038733
 30
0.0
  0
SPLINE
  5
C7
330
1F
100
AcDbEntity
  8
0
  6
Continuous
 62
     7
370
    15
100
AcDbSpline
210
0.0
220
0.0
230
1.0
 70
     8
 71
     3
 72
    12
 73
     8
 74
     0
 42
0.00000001
 43
0.00000001
 12
1.0
 22
0.0
 32
0.0
 13
1.0
 23
0.0
 33
0.0
 40
0.0
 40
0.0
 40
0.0
 40
0.0
 40
0.2499999999999996
 40
0.2499999999999996
 40
0.4999999999999996
 40
0.4999999999999996
 40
1.0
 40
1.0
 40
1.0
 40
1.0
 10
130.2732983617698
 20
143.637884303875
 30
0.0
 10
130.2431105852201
 20
143.6371017664574
 30
0.0
 10
130.2097567811284
 20
143.6362084346389
 30
0.0
 10
130.1366305779325
 20
143.6342811258353
 30
0.0
 10
130.0963953749083
 20
143.6332415946227
 30
0.0
 10
129.9787037447752
 20
143.6303237112754
 30
0.0
 10
129.9083230716151
 20
143.6287281052052
 30
0.0
 10
129.8517629641846
 20
143.6273071184373
 30
0.0
  0
SPLINE
  5
C8
330
1F
100
AcDbEntity
  8
0
  6
Continuous
 62
     7
370
    15
100
AcDbSpline
210
0.0
220
0.0
230
1.0
 70
     8
 71
     3
 72
    16
 73
    12
 74
     0
 42
0.00000001
 43
0.00000001
 12
1.0
 22
0.0
 32
0.0
 13
1.0
 23
0.0
 33
0.0
 40
0.0
 40
0.0
 40
0.0
 40
0.0
 40
0.2499999999999999
 40
0.2499999999999999
 40
0.3749999999999999
 40
0.3749999999999999
 40
0.5
 40
0.5
 40
0.7499999999999999
 40
0.7499999999999999
 40
1.0
 40
1.0
 40
1.0
 40
1.0
 10
129.3469549070787
 20
126.9586877447226
 30
0.0
 10
129.1857224295943
 20
126.1462779694757
 30
0.0
 10
129.0652425899546
 20
125.306199675091
 30
0.0
 10
128.9428620726413
 20
124.0049046257282
 30
0.0
 10
128.9118844122439
 20
123.5642235901434
 30
0.0
 10
128.8702706746159
 20
122.6683839492123
 30
0.0
 10
128.8600347616831
 20
122.2217258180098
 30
0.0
 10
128.859846364627
 20
120.8864158608699
 30
0.0
 10
128.8999910672646
 20
120.0019204875624
 30
0.0
 10
129.0641448222042
 20
118.2446705995364
 30
0.0
 10
129.1856964726137
 20
117.3988796531232
 30
0.0
 10
129.3469549070787
 20
116.5863390872003
 30
0.0
  0
LINE
  5
C9
330
1F
100
AcDbEntity
  8
0
  6
Continuous
 62
     7
370
    15
100
AcDbLine
 10
128.4682752626
 20
128.2576915513
 30
0.0
 11
128.4682752626
 21
115.2873352806
 31
0.0
  0
LINE
  5
CA
330
1F
100
AcDbEntity
  8
0
  6
Continuous
 62
     7
370
    15
100
AcDbLine
 10
94.1682757871
 20
127.8268240097
 30
0.0
 11
94.1682757871
 21
115.7182028222
 31
0.0
  0
LINE
  5
CB
330
1F
100
AcDbEntity
  8
0
  6
Continuous
 62
     7
370
    15
100
AcDbLine
 10
92.6682764725
 20
127.3938111666
 30
0.0
 11
92.6682764725
 21
116.1512156653
 31
0.0
  0
LINE
  5
CC
330
1F
100
AcDbEntity
  8
0
  6
Continuous
 62
     7
370
    15
100
AcDbLine
 10
128.4682752626
 20
128.2576915513
 30
0.0
 11
128.4682752626
 21
143.7926131006
 31
0.0
  0
ARC
  5
CD
330
1F
100
AcDbEntity
  8
0
  6
Continuous
 62
     7
370
    15
100
AcDbCircle
 10
128.6682121616
 20
143.7976353117
 30
0.0
 40
0.1999999999999782
100
AcDbArc
 50
181.4391666667
 51
271.4391666667
  0
LINE
  5
CE
330
1F
100
AcDbEntity
  8
0
  6
Continuous
 62
     7
370
    15
100
AcDbLine
 10
94.1682757871
 20
127.8268240097
 30
0.0
 11
94.1682757871
 21
142.9308770861
 31
0.0
  0
LINE
  5
CF
330
1F
100
AcDbEntity
  8
0
  6
Continuous
 62
     7
370
    15
100
AcDbLine
 10
94.1682757871
 20
142.9308770861
 30
0.0
 11
128.4682752626
 21
143.7926131006
 31
0.0
  0
LINE
  5
D0
330
1F
100
AcDbEntity
  8
0
  6
Continuous
 62
     7
370
    15
100
AcDbLine
 10
94.1682757871
 20
100.6141497459
 30
0.0
 11
94.1682757871
 21
115.7182028222
 31
0.0
  0
LINE
  5
D1
330
1F
100
AcDbEntity
  8
0
  6
Continuous
 62
     7
370
    15
100
AcDbLine
 10
128.4682752626
 20
99.7524137314
 30
0.0
 11
128.4682752626
 21
115.2873352806
 31
0.0
  0
LINE
  5
D2
330
1F
100
AcDbEntity
  8
0
  6
Continuous
 62
     7
370
    15
100
AcDbLine
 10
94.1682757871
 20
100.6141497459
 30
0.0
 11
128.4682752626
 21
99.7524137314
 31
0.0
  0
ARC
  5
D3
330
1F
100
AcDbEntity
  8
0
  6
Continuous
 62
     7
370
    15
100
AcDbCircle
 10
128.6682121616
 20
99.7473915203
 30
0.0
 40
0.2000000000000063
100
AcDbArc
 50
88.5608333333
 51
178.5608333333
  0
LINE
  5
D4
330
1F
100
AcDbEntity
  8
0
  6
Continuous
 62
     7
370
    15
100
AcDbLine
 10
128.6732353797
 20
143.5976984616
 30
0.0
 11
129.8517629798
 21
143.6273070689
 31
0.0
  0
LINE
  5
D5
330
1F
100
AcDbEntity
  8
0
  6
Continuous
 62
     7
370
    15
100
AcDbLine
 10
128.6732353797
 20
99.9473283704
 30
0.0
 11
129.8517629798
 21
99.9177197631
 31
0.0
  0
LINE
  5
D6
330
1F
100
AcDbEntity
  8
0
  6
Continuous
 62
     7
370
    15
100
AcDbLine
 10
92.6682764725
 20
142.0648513998
 30
0.0
 11
94.1682757871
 21
142.9308770861
 31
0.0
  0
LINE
  5
D7
330
1F
100
AcDbEntity
  8
0
  6
Continuous
 62
     7
370
    15
100
AcDbLine
 10
92.6682764725
 20
127.3938111666
 30
0.0
 11
92.6682764725
 21
142.0648513998
 31
0.0
  0
LINE
  5
D8
330
1F
100
AcDbEntity
  8
0
  6
Continuous
 62
     7
370
    15
100
AcDbLine
 10
92.6682764725
 20
101.4801754321
 30
0.0
 11
94.1682757871
 21
100.6141497459
 31
0.0
  0
LINE
  5
D9
330
1F
100
AcDbEntity
  8
0
  6
Continuous
 62
     7
370
    15
100
AcDbLine
 10
92.6682764725
 20
101.4801754321
 30
0.0
 11
92.6682764725
 21
116.1512156653
 31
0.0
  0
ELLIPSE
  5
DA
330
1F
100
AcDbEntity
  8
0
  6
Continuous
 62
     7
370
    15
100
AcDbEllipse
 10
240.0209771255
 20
121.772513416
 30
0.0
 11
-1.195939561569872
 21
19.99755988885701
 31
0.0
210
0.0
220
0.0
230
1.0
 40
0.2612235458
 41
0.4670699744839099
 42
2.224401630764457
  0
SPLINE
  5
DB
330
1F
100
AcDbEntity
  8
0
  6
Continuous
 62
     7
370
    15
100
AcDbSpline
210
0.0
220
0.0
230
1.0
 70
     8
 71
     3
 72
    20
 73
    16
 74
     0
 42
0.00000001
 43
0.00000001
 12
1.0
 22
0.0
 32
0.0
 13
1.0
 23
0.0
 33
0.0
 40
0.0
 40
0.0
 40
0.0
 40
0.0
 40
0.1250000000000004
 40
0.1250000000000004
 40
0.2500000000000008
 40
0.2500000000000008
 40
0.3750000000000012
 40
0.3750000000000012
 40
0.5000000000000016
 40
0.5000000000000016
 40
0.625000000000002
 40
0.625000000000002
 40
0.7500000000000023
 40
0.7500000000000023
 40
1.0
 40
1.0
 40
1.0
 40
1.0
 10
241.7693710202324
 20
105.7317525799502
 30
0.0
 10
241.4402463325938
 20
105.7544897810888
 30
0.0
 10
241.1196900972631
 20
105.7946603705982
 30
0.0
 10
240.4948780664538
 20
105.9095134851583
 30
0.0
 10
240.1891928964905
 20
105.9846653526042
 30
0.0
 10
239.6009568709729
 20
106.1712211073207
 30
0.0
 10
239.3240223049668
 20
106.2806586382682
 30
0.0
 10
238.8024497630506
 20
106.5328304640862
 30
0.0
 10
238.5561969336628
 20
106.6767860722047
 30
0.0
 10
238.1040666441963
 20
106.9957932906889
 30
0.0
 10
237.899936838639
 20
107.1691401516663
 30
0.0
 10
237.5315728947448
 20
107.5440914914172
 30
0.0
 10
237.3664153748614
 20
107.7472460860539
 30
0.0
 10
236.9355291619063
 20
108.3898222250704
 30
0.0
 10
236.7344224782669
 20
108.8576141110552
 30
0.0
 10
236.6009868421039
 20
109.3649259669773
 30
0.0
  0
ELLIPSE
  5
DC
330
1F
100
AcDbEntity
  8
0
  6
Continuous
 62
     7
370
    15
100
AcDbEllipse
 10
321.2082288004
 20
121.772513416
 30
0.0
 11
190.2867990447085
 21
-4.202620746254794
 31
0.0
210
0.0
220
0.0
230
1.0
 40
0.1027578619
 41
4.284001329030406
 42
4.300703184239445
  0
LINE
  5
DD
330
1F
100
AcDbEntity
  8
0
  6
Continuous
 62
     7
370
    15
100
AcDbLine
 10
244.6682753102
 20
141.3557014133
 30
0.0
 11
244.6682753102
 21
141.7725129689
 31
0.0
  0
LINE
  5
DE
330
1F
100
AcDbEntity
  8
0
  6
Continuous
 62
     7
370
    15
100
AcDbLine
 10
244.6682753102
 20
101.772513863
 30
0.0
 11
244.6682753102
 21
105.534487095
 31
0.0
  0
ELLIPSE
  5
DF
330
1F
100
AcDbEntity
  8
0
  6
Continuous
 62
     7
370
    15
100
AcDbEllipse
 10
321.2082288004
 20
121.772513416
 30
0.0
 11
190.2867990447085
 21
-4.202620746254794
 31
0.0
210
0.0
220
0.0
230
1.0
 40
0.1027578619
 41
1.987021077646241
 42
2.003722932855283
  0
SPLINE
  5
E0
330
1F
100
AcDbEntity
  8
0
  6
Continuous
 62
     7
370
    15
100
AcDbSpline
210
0.0
220
0.0
230
1.0
 70
     8
 71
     3
 72
    18
 73
    14
 74
     0
 42
0.00000001
 43
0.00000001
 12
1.0
 22
0.0
 32
0.0
 13
1.0
 23
0.0
 33
0.0
 40
0.0
 40
0.0
 40
0.0
 40
0.0
 40
0.2499999999999996
 40
0.2499999999999996
 40
0.3749999999999997
 40
0.3749999999999997
 40
0.4999999999999998
 40
0.4999999999999998
 40
0.6249999999999999
 40
0.6249999999999999
 40
0.75
 40
0.75
 40
1.0
 40
1.0
 40
1.0
 40
1.0
 10
236.6009868421039
 20
139.4874948223287
 30
0.0
 10
236.7345494817935
 20
139.7880171495275
 30
0.0
 10
236.935750369652
 20
140.0482849185884
 30
0.0
 10
237.3653597516514
 20
140.3850022377869
 30
0.0
 10
237.531389964058
 20
140.4885751485677
 30
0.0
 10
237.8993253622418
 20
140.6723650251771
 30
0.0
 10
238.1021916111152
 20
140.7536222155805
 30
0.0
 10
238.5480797652003
 20
140.8978000768042
 30
0.0
 10
238.7926535333403
 20
140.9610444763014
 30
0.0
 10
239.3199347861354
 20
141.0699247332691
 30
0.0
 10
239.5969461110568
 20
141.1145828350867
 30
0.0
 10
240.4676942802845
 20
141.2251786111808
 30
0.0
 10
241.1097782688474
 20
141.2683936873371
 30
0.0
 10
241.7693710202324
 20
141.2851335268976
 30
0.0
  0
ELLIPSE
  5
E1
330
1F
100
AcDbEntity
  8
0
  6
Continuous
 62
     7
370
    15
100
AcDbEllipse
 10
236.4433863708
 20
128.1100831481
 30
0.0
 11
0.0507616578020702
 21
2.949955390980818
 31
0.0
210
0.0
220
0.0
230
1.0
 40
0.2406504161
 41
6.131281699286423
 42
9.719447700788017
  0
SPLINE
  5
E2
330
1F
100
AcDbEntity
  8
0
  6
Continuous
 62
     7
370
    15
100
AcDbSpline
210
0.0
220
0.0
230
1.0
 70
     8
 71
     3
 72
    30
 73
    26
 74
     0
 42
0.00000001
 43
0.00000001
 12
1.0
 22
0.0
 32
0.0
 13
1.0
 23
0.0
 33
0.0
 40
0.0
 40
0.0
 40
0.0
 40
0.0
 40
0.0624999999999998
 40
0.0624999999999998
 40
0.1249999999999997
 40
0.1249999999999997
 40
0.1874999999999995
 40
0.1874999999999995
 40
0.2499999999999993
 40
0.2499999999999993
 40
0.3124999999999992
 40
0.3124999999999992
 40
0.3749999999999993
 40
0.3749999999999993
 40
0.4999999999999998
 40
0.4999999999999998
 40
0.6250000000000003
 40
0.6250000000000003
 40
0.7500000000000009
 40
0.7500000000000009
 40
0.8750000000000014
 40
0.8750000000000014
 40
0.9375000000000007
 40
0.9375000000000007
 40
1.0
 40
1.0
 40
1.0
 40
1.0
 10
236.6009868421039
 20
131.024220758854
 30
0.0
 10
236.6460958337353
 20
130.9944235845271
 30
0.0
 10
236.6979744048321
 20
130.9518289060749
 30
0.0
 10
236.81436051467
 20
130.8403385895752
 30
0.0
 10
236.8797394445031
 20
130.770455350774
 30
0.0
 10
237.0176216451727
 20
130.6040767854844
 30
0.0
 10
237.0896858084763
 20
130.50838743414
 30
0.0
 10
237.2355629536665
 20
130.2862805208535
 30
0.0
 10
237.3101812876952
 20
130.1578586820417
 30
0.0
 10
237.4447253127117
 20
129.8770359681598
 30
0.0
 10
237.5063474098236
 20
129.7202595037394
 30
0.0
 10
237.6019906838678
 20
129.3941555543651
 30
0.0
 10
237.6369357889457
 20
129.2219263303139
 30
0.0
 10
237.6982368732644
 20
128.7053723115034
 30
0.0
 10
237.682237606464
 20
128.3635845374637
 30
0.0
 10
237.593714520006
 20
127.7288682235721
 30
0.0
 10
237.521168103667
 20
127.4275421426181
 30
0.0
 10
237.3555857938946
 20
126.8687668739753
 30
0.0
 10
237.2622306924266
 20
126.6102670649556
 30
0.0
 10
237.0685975363344
 20
126.1321732620184
 30
0.0
 10
236.9671888215322
 20
125.9110653179555
 30
0.0
 10
236.8225802084475
 20
125.6311846432716
 30
0.0
 10
236.7754329651285
 20
125.546136866628
 30
0.0
 10
236.6846940865814
 20
125.396820135155
 30
0.0
 10
236.6409372161446
 20
125.3323705157207
 30
0.0
 10
236.6009868421039
 20
125.2837286466203
 30
0.0
  0
LINE
  5
E3
330
1F
100
AcDbEntity
  8
0
  6
Continuous
 62
     7
370
    15
100
AcDbLine
 10
250.1558439867
 20
134.0636831413
 30
0.0
 11
253.1304286854
 21
134.9420944865
 31
0.0
  0
ARC
  5
E4
330
1F
100
AcDbEntity
  8
0
  6
Continuous
 62
     7
370
    15
100
AcDbCircle
 10
250.7955175046
 20
132.0942752946
 30
0.0
 40
2.070688164861172
100
AcDbArc
 50
107.9940557803
 51
288.0694926851
  0
LINE
  5
E5
330
1F
100
AcDbEntity
  8
0
  6
Continuous
 62
     7
370
    15
100
AcDbLine
 10
265.8413427012
 20
134.3791630755
 30
0.0
 11
251.4377834336
 21
130.1257113631
 31
0.0
  0
LINE
  5
E6
330
1F
100
AcDbEntity
  8
0
  6
Continuous
 62
     7
370
    15
100
AcDbLine
 10
256.3454436199
 20
104.2791704352
 30
0.0
 11
265.8413427012
 21
134.3791630755
 31
0.0
  0
ELLIPSE
  5
E7
330
1F
100
AcDbEntity
  8
0
  6
Continuous
 62
     7
370
    15
100
AcDbEllipse
 10
321.2082288004
 20
121.772513416
 30
0.0
 11
195.0439690208264
 21
-4.307686264911169
 31
0.0
210
0.0
220
0.0
230
1.0
 40
0.1027578619
 41
4.314179367267243
 42
4.375648239891094
  0
SPLINE
  5
E8
330
1F
100
AcDbEntity
  8
0
  6
Continuous
 62
     7
370
    15
100
AcDbSpline
210
0.0
220
0.0
230
1.0
 70
     8
 71
     3
 72
     8
 73
     4
 74
     0
 42
0.00000001
 43
0.00000001
 12
1.0
 22
0.0
 32
0.0
 13
1.0
 23
0.0
 33
0.0
 40
0.0
 40
0.0
 40
0.0
 40
0.0
 40
1.0
 40
1.0
 40
1.0
 40
1.0
 10
245.1682752506377
 20
104.9687731702024
 30
0.0
 10
245.0012879245919
 20
105.157063273526
 30
0.0
 10
244.8346126121322
 20
105.3456272209979
 30
0.0
 10
244.6682752506383
 20
105.5344877770103
 30
0.0
  0
SPLINE
  5
E9
330
1F
100
AcDbEntity
  8
0
  6
Continuous
 62
     7
370
    15
100
AcDbSpline
210
0.0
220
0.0
230
1.0
 70
     8
 71
     3
 72
     8
 73
     4
 74
     0
 42
0.00000001
 43
0.00000001
 12
1.0
 22
0.0
 32
0.0
 13
1.0
 23
0.0
 33
0.0
 40
0.0
 40
0.0
 40
0.0
 40
0.0
 40
1.0
 40
1.0
 40
1.0
 40
1.0
 10
244.6682752506384
 20
141.355702304483
 30
0.0
 10
245.3130071387034
 20
142.0595573377054
 30
0.0
 10
245.9627744165008
 20
142.7587729028938
 30
0.0
 10
246.6162709051025
 20
143.4545524769795
 30
0.0
  0
LINE
  5
EA
330
1F
100
AcDbEntity
  8
0
  6
Continuous
 62
     7
370
    15
100
AcDbLine
 10
246.6162743108
 20
143.4545523192
 30
0.0
 11
249.2074372308
 21
143.3979297693
 31
0.0
  0
ARC
  5
EB
330
1F
100
AcDbEntity
  8
0
  6
Continuous
 62
     7
370
    15
100
AcDbCircle
 10
249.7880186975
 20
169.4511151969
 30
0.0
 40
26.05965360026826
100
AcDbArc
 50
268.7234051276
 51
283.8717331902
  0
LINE
  5
EC
330
1F
100
AcDbEntity
  8
0
  6
Continuous
 62
     7
370
    15
100
AcDbLine
 10
253.1304286854
 20
134.9420944865
 30
0.0
 11
256.0357974903
 21
144.1514945294
 31
0.0
  0
LWPOLYLINE
  5
ED
330
1F
100
AcDbEntity
  8
0
  6
Continuous
 62
     7
370
    15
100
AcDbPolyline
 90
       27
 70
   128
 43
0.0
 10
255.3927676813
 20
122.1144429113
 10
256.2257872955
 20
122.1957206838
 10
257.010393037
 20
122.471237188
 10
257.7009873526
 20
122.924980515
 10
258.2574265139
 20
123.5305805861
 10
258.6474048035
 20
124.2528424303
 10
258.8482128517
 20
125.0497902914
 10
258.8482128517
 20
125.8751090321
 10
258.6474048035
 20
126.68083391
 10
258.2574265139
 20
127.4201387244
 10
257.7009873526
 20
128.0500583056
 10
257.010393037
 20
128.5339842255
 10
256.2257872955
 20
128.843791474
 10
255.3927676813
 20
128.9614761885
 10
254.5597555177
 20
128.8801982704
 10
253.7751497762
 20
128.6046818535
 10
253.0845554607
 20
128.1509387012
 10
252.5281013982
 20
127.5453382808
 10
252.1381380098
 20
126.8230766694
 10
251.9373225109
 20
126.0261285755
 10
251.9373225109
 20
125.2008100677
 10
252.1381380098
 20
124.3950851898
 10
252.5281013982
 20
123.6557802589
 10
253.0845554607
 20
123.0258605614
 10
253.7751497762
 20
122.5419349906
 10
254.5597555177
 20
122.2321274803
 10
255.3927676813
 20
122.1144429113
  0
LINE
  5
EE
330
1F
100
AcDbEntity
  8
0
  6
Continuous
 62
     7
370
    15
100
AcDbLine
 10
245.1682763235
 20
104.9687738235
 30
0.0
 11
245.1682763235
 21
101.2725128497
 31
0.0
  0
SPLINE
  5
EF
330
1F
100
AcDbEntity
  8
0
  6
Continuous
 62
     7
370
    15
100
AcDbSpline
210
0.0
220
0.0
230
1.0
 70
     8
 71
     3
 72
     9
 73
     5
 74
     0
 42
0.00000001
 43
0.00000001
 12
1.0
 22
0.0
 32
0.0
 13
1.0
 23
0.0
 33
0.0
 40
0.0
 40
0.0
 40
0.0
 40
0.0
 40
0.3205022048711221
 40
0.9999999999999999
 40
0.9999999999999999
 40
0.9999999999999999
 40
0.9999999999999999
 10
245.6586064831861
 20
142.7305048967888
 30
0.0
 10
245.7303543641901
 20
142.8094863519628
 30
0.0
 10
245.9542151673718
 20
143.055916654075
 30
0.0
 10
246.3484158298203
 20
143.2932707406829
 30
0.0
 10
246.6162743107923
 20
143.4545523191979
 30
0.0
  0
ELLIPSE
  5
F0
330
1F
100
AcDbEntity
  8
0
  6
Continuous
 62
     7
370
    15
100
AcDbEllipse
 10
261.6194569632
 20
121.772513416
 30
0.0
 11
6.669703807742906
 21
20.49869244577141
 31
0.0
210
0.0
220
0.0
230
1.0
 40
0.0347142918
 41
3.152887237351236
 42
3.701336965437042
  0
LINE
  5
F1
330
1F
100
AcDbEntity
  8
0
  6
Continuous
 62
     7
370
    15
100
AcDbLine
 10
249.1920890348
 20
132.1572388227
 30
0.0
 11
248.7173678414
 21
131.9490826394
 31
0.0
  0
LINE
  5
F2
330
1F
100
AcDbEntity
  8
0
  6
Continuous
 62
     7
370
    15
100
AcDbLine
 10
252.1666737334
 20
133.0356501679
 30
0.0
 11
253.1304286854
 21
134.9420944865
 31
0.0
  0
LINE
  5
F3
330
1F
100
AcDbEntity
  8
0
  6
Continuous
 62
     7
370
    15
100
AcDbLine
 10
252.1666737334
 20
133.0356501679
 30
0.0
 11
249.1920890348
 21
132.1572388227
 31
0.0
  0
LINE
  5
F4
330
1F
100
AcDbEntity
  8
0
  6
HIDDEN
 62
     7
370
     0
100
AcDbLine
 10
152.6682751314
 20
152.2725137587
 30
0.0
 11
152.6682751314
 21
91.2725130732
 31
0.0
  0
LINE
  5
F5
330
1F
100
AcDbEntity
  8
0
  6
HIDDEN
 62
     7
370
     0
100
AcDbLine
 10
130.6682752506
 20
152.7725129093
 30
0.0
 11
130.6682752506
 21
90.7725139226
 31
0.0
  0
SPLINE
  5
F6
330
1F
100
AcDbEntity
  8
0
  6
HIDDEN
 62
     7
370
     0
100
AcDbSpline
210
0.0
220
0.0
230
1.0
 70
     8
 71
     3
 72
    60
 73
    56
 74
     0
 42
0.00000001
 43
0.00000001
 12
1.0
 22
0.0
 32
0.0
 13
1.0
 23
0.0
 33
0.0
 40
-0.0624999999999998
 40
-0.0624999999999998
 40
0.0
 40
0.0
 40
0.0312499999999999
 40
0.0312499999999999
 40
0.0624999999999998
 40
0.0624999999999998
 40
0.0937499999999997
 40
0.0937499999999997
 40
0.1249999999999996
 40
0.1249999999999996
 40
0.1874999999999994
 40
0.1874999999999994
 40
0.2499999999999992
 40
0.2499999999999992
 40
0.2812499999999991
 40
0.2812499999999991
 40
0.312499999999999
 40
0.312499999999999
 40
0.3437499999999989
 40
0.3437499999999989
 40
0.3749999999999988
 40
0.3749999999999988
 40
0.4062499999999987
 40
0.4062499999999987
 40
0.4374999999999987
 40
0.4374999999999987
 40
0.4687499999999986
 40
0.4687499999999986
 40
0.4999999999999984
 40
0.4999999999999984
 40
0.5624999999999987
 40
0.5624999999999987
 40
0.6249999999999989
 40
0.6249999999999989
 40
0.6562499999999991
 40
0.6562499999999991
 40
0.6874999999999992
 40
0.6874999999999992
 40
0.7187499999999993
 40
0.7187499999999993
 40
0.7499999999999994
 40
0.7499999999999994
 40
0.7812499999999996
 40
0.7812499999999996
 40
0.8124999999999997
 40
0.8124999999999997
 40
0.8437499999999998
 40
0.8437499999999998
 40
0.8749999999999999
 40
0.8749999999999999
 40
0.9062500000000001
 40
0.9062500000000001
 40
0.9375000000000002
 40
0.9375000000000002
 40
1.0
 40
1.0
 40
1.03125
 40
1.03125
 10
142.9326057976973
 20
119.7725134159614
 30
0.0
 10
142.5361099771089
 20
119.7725134159614
 30
0.0
 10
142.4061599337298
 20
119.7854852760973
 30
0.0
 10
142.1505070746866
 20
119.836305425083
 30
0.0
 10
142.023477625291
 20
119.8747727274945
 30
0.0
 10
141.7812896642011
 20
119.9751708588039
 30
0.0
 10
141.6664282414765
 20
120.0366038208689
 30
0.0
 10
141.4490481062185
 20
120.1817385348388
 30
0.0
 10
141.3461505710937
 20
120.2661935724384
 30
0.0
 10
141.0694834892331
 20
120.5429128870612
 30
0.0
 10
140.9204851632571
 20
120.7659899434176
 30
0.0
 10
140.7209738214064
 20
121.2472736287772
 30
0.0
 10
140.6684157201948
 20
121.5105041016453
 30
0.0
 10
140.6682054487774
 20
121.9019063959006
 30
0.0
 10
140.6811912279756
 20
122.0344294329828
 30
0.0
 10
140.7322183930805
 20
122.2909599005645
 30
0.0
 10
140.7699736117514
 20
122.4156467825919
 30
0.0
 10
140.8701120297372
 20
122.6578261688756
 30
0.0
 10
140.9327177862421
 20
122.7749198142519
 30
0.0
 10
141.0774512213577
 20
122.9916349059774
 30
0.0
 10
141.1600786249725
 20
123.0926537261692
 30
0.0
 10
141.346683682083
 20
123.2794385057482
 30
0.0
 10
141.4477988049898
 20
123.362295383297
 30
0.0
 10
141.6643315308623
 20
123.5071795122377
 30
0.0
 10
141.7812016385
 20
123.5698169348236
 30
0.0
 10
142.0234993539494
 20
123.6702656588308
 30
0.0
 10
142.1481632714151
 20
123.7081167294131
 30
0.0
 10
142.4044501922508
 20
123.7593382689727
 30
0.0
 10
142.5370222062933
 20
123.7724664046772
 30
0.0
 10
142.9286264053562
 20
123.7726070515516
 30
0.0
 10
143.1917916328865
 20
123.7202823168494
 30
0.0
 10
143.6732967963849
 20
123.5211714117781
 30
0.0
 10
143.8965481450684
 20
123.3723093076225
 30
0.0
 10
144.1734045458735
 20
123.0959884267444
 30
0.0
 10
144.2579180751373
 20
122.9932247482006
 30
0.0
 10
144.4033354779301
 20
122.7758411160718
 30
0.0
 10
144.464846747283
 20
122.66104227471
 30
0.0
 10
144.5653766995715
 20
122.419165384056
 30
0.0
 10
144.6040217466713
 20
122.2920117140517
 30
0.0
 10
144.6550780991423
 20
122.0363455970898
 30
0.0
 10
144.6681429571623
 20
121.9064795142221
 30
0.0
 10
144.6684055644509
 20
121.642526928784
 30
0.0
 10
144.6555285658506
 20
121.512122683789
 30
0.0
 10
144.6049425391957
 20
121.2564718617674
 30
0.0
 10
144.5666661458063
 20
121.1296062401622
 30
0.0
 10
144.466395178386
 20
120.8870856363049
 30
0.0
 10
144.4050390886673
 20
120.7721589359587
 30
0.0
 10
144.260192681327
 20
120.5547874169715
 30
0.0
 10
144.1758150911267
 20
120.4517735763883
 30
0.0
 10
143.9914076749274
 20
120.267073054376
 30
0.0
 10
143.8908346123938
 20
120.1842433862923
 30
0.0
 10
143.6726085965998
 20
120.0379911156289
 30
0.0
 10
143.556053557688
 20
119.9756227015761
 30
0.0
 10
143.1952042046342
 20
119.8256667026607
 30
0.0
 10
142.9326057976973
 20
119.7725134159614
 30
0.0
 10
142.5361099771089
 20
119.7725134159614
 30
0.0
  0
SPLINE
  5
F7
330
1F
100
AcDbEntity
  8
0
  6
HIDDEN
 62
     7
370
     0
100
AcDbSpline
210
0.0
220
0.0
230
1.0
 70
     8
 71
     3
 72
    12
 73
     8
 74
     0
 42
0.00000001
 43
0.00000001
 12
1.0
 22
0.0
 32
0.0
 13
1.0
 23
0.0
 33
0.0
 40
0.0
 40
0.0
 40
0.0
 40
0.0
 40
0.2500000000000009
 40
0.2500000000000009
 40
0.5000000000000018
 40
0.5000000000000018
 40
1.0
 40
1.0
 40
1.0
 40
1.0
 10
141.1960320642048
 20
112.3844469846254
 30
0.0
 10
141.1329520257115
 20
112.3844469846254
 30
0.0
 10
141.07380340353
 20
112.3590826654105
 30
0.0
 10
140.9753308534609
 20
112.2849178050376
 30
0.0
 10
140.9362942414762
 20
112.2383974644834
 30
0.0
 10
140.8363977746972
 20
112.0882551216382
 30
0.0
 10
140.7939768936305
 20
111.976561914666
 30
0.0
 10
140.7630193623126
 20
111.8631440952763
 30
0.0
  0
LINE
  5
F8
330
1F
100
AcDbEntity
  8
0
  6
HIDDEN
 62
     7
370
     0
100
AcDbLine
 10
144.1405184628
 20
112.3844465877
 30
0.0
 11
141.1960322471
 21
112.3844465877
 31
0.0
  0
SPLINE
  5
F9
330
1F
100
AcDbEntity
  8
0
  6
HIDDEN
 62
     7
370
     0
100
AcDbSpline
210
0.0
220
0.0
230
1.0
 70
     8
 71
     3
 72
    12
 73
     8
 74
     0
 42
0.00000001
 43
0.00000001
 12
1.0
 22
0.0
 32
0.0
 13
1.0
 23
0.0
 33
0.0
 40
0.0
 40
0.0
 40
0.0
 40
0.0
 40
0.4999999999999991
 40
0.4999999999999991
 40
0.7499999999999996
 40
0.7499999999999996
 40
1.0
 40
1.0
 40
1.0
 40
1.0
 10
144.5735311389641
 20
111.8631440952763
 30
0.0
 10
144.5428088970451
 20
111.9756998946854
 30
0.0
 10
144.4999716825099
 20
112.088457754425
 30
0.0
 10
144.4005446583101
 20
112.2379986402214
 30
0.0
 10
144.3607924634935
 20
112.2852913719283
 30
0.0
 10
144.2627510066353
 20
112.3590276652497
 30
0.0
 10
144.2031949510477
 20
112.3844469846254
 30
0.0
 10
144.1405184370719
 20
112.3844469846254
 30
0.0
  0
ELLIPSE
  5
FA
330
1F
100
AcDbEntity
  8
0
  6
HIDDEN
 62
     7
370
     0
100
AcDbEllipse
 10
128.3211210613
 20
121.772513416
 30
0.0
 11
-14.75368316065614
 21
31.09325491558119
 31
0.0
210
0.0
220
0.0
230
1.0
 40
0.3419987131
 41
3.300734856217126
 42
4.231496223360779
  0
SPLINE
  5
FB
330
1F
100
AcDbEntity
  8
0
  6
HIDDEN
 62
     7
370
     0
100
AcDbSpline
210
0.0
220
0.0
230
1.0
 70
     8
 71
     3
 72
    12
 73
     8
 74
     0
 42
0.00000001
 43
0.00000001
 12
1.0
 22
0.0
 32
0.0
 13
1.0
 23
0.0
 33
0.0
 40
0.0
 40
0.0
 40
0.0
 40
0.0
 40
0.2500000000000005
 40
0.2500000000000005
 40
0.500000000000001
 40
0.500000000000001
 40
1.0
 40
1.0
 40
1.0
 40
1.0
 10
144.1405184370719
 20
91.70402145708837
 30
0.0
 10
144.2035984755653
 20
91.70402145708837
 30
0.0
 10
144.2627470977467
 20
91.71192738330078
 30
0.0
 10
144.3612196478158
 20
91.73525254473704
 30
0.0
 10
144.4002562598005
 20
91.74996533456873
 30
0.0
 10
144.5001527265796
 20
91.79792113529965
 30
0.0
 10
144.5425736076462
 20
91.83418329187973
 30
0.0
 10
144.5735311389641
 20
91.87177095584423
 30
0.0
  0
LINE
  5
FC
330
1F
100
AcDbEntity
  8
0
  6
HIDDEN
 62
     7
370
     0
100
AcDbLine
 10
141.1960322471
 20
91.7040208991
 30
0.0
 11
144.1405184628
 21
91.7040208991
 31
0.0
  0
SPLINE
  5
FD
330
1F
100
AcDbEntity
  8
0
  6
HIDDEN
 62
     7
370
     0
100
AcDbSpline
210
0.0
220
0.0
230
1.0
 70
     8
 71
     3
 72
    12
 73
     8
 74
     0
 42
0.00000001
 43
0.00000001
 12
1.0
 22
0.0
 32
0.0
 13
1.0
 23
0.0
 33
0.0
 40
0.0
 40
0.0
 40
0.0
 40
0.0
 40
0.5
 40
0.5
 40
0.75
 40
0.75
 40
1.0
 40
1.0
 40
1.0
 40
1.0
 10
140.7630193623126
 20
91.87177095584423
 30
0.0
 10
140.7937416042317
 20
91.83446897289119
 30
0.0
 10
140.8365788187668
 20
91.7978571408448
 30
0.0
 10
140.9360058429666
 20
91.75009235755958
 30
0.0
 10
140.9757580377833
 20
91.73513484207722
 30
0.0
 10
141.0737994946415
 20
91.71194489630805
 30
0.0
 10
141.133355550229
 20
91.70402145708837
 30
0.0
 10
141.1960320642048
 20
91.70402145708837
 30
0.0
  0
ELLIPSE
  5
FE
330
1F
100
AcDbEntity
  8
0
  6
HIDDEN
 62
     7
370
     0
100
AcDbEllipse
 10
157.01542944
 20
121.772513416
 30
0.0
 11
14.7536831606561
 21
31.09325491558119
 31
0.0
210
0.0
220
0.0
230
1.0
 40
0.3419987131
 41
2.051689083818818
 42
2.982450450962491
  0
SPLINE
  5
FF
330
1F
100
AcDbEntity
  8
0
  6
HIDDEN
 62
     7
370
     0
100
AcDbSpline
210
0.0
220
0.0
230
1.0
 70
     8
 71
     3
 72
    12
 73
     8
 74
     0
 42
0.00000001
 43
0.00000001
 12
1.0
 22
0.0
 32
0.0
 13
1.0
 23
0.0
 33
0.0
 40
0.0
 40
0.0
 40
0.0
 40
0.0
 40
0.2499999999999968
 40
0.2499999999999968
 40
0.4999999999999936
 40
0.4999999999999936
 40
1.0
 40
1.0
 40
1.0
 40
1.0
 10
141.1960320642048
 20
151.8410053748347
 30
0.0
 10
141.1329520257115
 20
151.8410053748347
 30
0.0
 10
141.07380340353
 20
151.8330994486222
 30
0.0
 10
140.975330853461
 20
151.809774287186
 30
0.0
 10
140.9362942414762
 20
151.7950614973543
 30
0.0
 10
140.8363977746972
 20
151.7471056966234
 30
0.0
 10
140.7939768936305
 20
151.7108435400433
 30
0.0
 10
140.7630193623126
 20
151.6732558760788
 30
0.0
  0
LINE
  5
100
330
1F
100
AcDbEntity
  8
0
  6
HIDDEN
 62
     7
370
     0
100
AcDbLine
 10
144.1405184628
 20
151.8410059328
 30
0.0
 11
141.1960322471
 21
151.8410059328
 31
0.0
  0
SPLINE
  5
101
330
1F
100
AcDbEntity
  8
0
  6
HIDDEN
 62
     7
370
     0
100
AcDbSpline
210
0.0
220
0.0
230
1.0
 70
     8
 71
     3
 72
    12
 73
     8
 74
     0
 42
0.00000001
 43
0.00000001
 12
1.0
 22
0.0
 32
0.0
 13
1.0
 23
0.0
 33
0.0
 40
0.0
 40
0.0
 40
0.0
 40
0.0
 40
0.5000000000000009
 40
0.5000000000000009
 40
0.7500000000000004
 40
0.7500000000000004
 40
1.0
 40
1.0
 40
1.0
 40
1.0
 10
144.5735311389641
 20
151.6732558760788
 30
0.0
 10
144.5428088970451
 20
151.7105578590318
 30
0.0
 10
144.4999716825099
 20
151.7471696910782
 30
0.0
 10
144.4005446583101
 20
151.7949344743634
 30
0.0
 10
144.3607924634935
 20
151.8098919898458
 30
0.0
 10
144.2627510066353
 20
151.833081935615
 30
0.0
 10
144.2031949510477
 20
151.8410053748347
 30
0.0
 10
144.1405184370719
 20
151.8410053748346
 30
0.0
  0
ELLIPSE
  5
102
330
1F
100
AcDbEntity
  8
0
  6
HIDDEN
 62
     7
370
     0
100
AcDbEllipse
 10
128.3211210613
 20
121.772513416
 30
0.0
 11
14.75368316065624
 21
31.09325491558118
 31
0.0
210
0.0
220
0.0
230
1.0
 40
0.3419987131
 41
5.193281737408638
 42
6.124043104552343
  0
SPLINE
  5
103
330
1F
100
AcDbEntity
  8
0
  6
HIDDEN
 62
     7
370
     0
100
AcDbSpline
210
0.0
220
0.0
230
1.0
 70
     8
 71
     3
 72
    12
 73
     8
 74
     0
 42
0.00000001
 43
0.00000001
 12
1.0
 22
0.0
 32
0.0
 13
1.0
 23
0.0
 33
0.0
 40
0.0
 40
0.0
 40
0.0
 40
0.0
 40
0.2499999999999986
 40
0.2499999999999986
 40
0.4999999999999971
 40
0.4999999999999971
 40
1.0
 40
1.0
 40
1.0
 40
1.0
 10
144.1405184370719
 20
131.1605798472979
 30
0.0
 10
144.2035984755653
 20
131.1605798472979
 30
0.0
 10
144.2627470977467
 20
131.1859441665129
 30
0.0
 10
144.3612196478157
 20
131.2601090268858
 30
0.0
 10
144.4002562598005
 20
131.3066293674399
 30
0.0
 10
144.5001527265795
 20
131.4567717102851
 30
0.0
 10
144.5425736076462
 20
131.5684649172573
 30
0.0
 10
144.5735311389641
 20
131.6818827366471
 30
0.0
  0
LINE
  5
104
330
1F
100
AcDbEntity
  8
0
  6
HIDDEN
 62
     7
370
     0
100
AcDbLine
 10
141.1960322471
 20
131.1605802442
 30
0.0
 11
144.1405184628
 21
131.1605802442
 31
0.0
  0
SPLINE
  5
105
330
1F
100
AcDbEntity
  8
0
  6
HIDDEN
 62
     7
370
     0
100
AcDbSpline
210
0.0
220
0.0
230
1.0
 70
     8
 71
     3
 72
    12
 73
     8
 74
     0
 42
0.00000001
 43
0.00000001
 12
1.0
 22
0.0
 32
0.0
 13
1.0
 23
0.0
 33
0.0
 40
0.0
 40
0.0
 40
0.0
 40
0.0
 40
0.4999999999999991
 40
0.4999999999999991
 40
0.7499999999999996
 40
0.7499999999999996
 40
1.0
 40
1.0
 40
1.0
 40
1.0
 10
140.7630193623126
 20
131.6818827366471
 30
0.0
 10
140.7937416042317
 20
131.5693269372379
 30
0.0
 10
140.8365788187668
 20
131.4565690774983
 30
0.0
 10
140.9360058429666
 20
131.307028191702
 30
0.0
 10
140.9757580377833
 20
131.2597354599951
 30
0.0
 10
141.0737994946415
 20
131.1859991666737
 30
0.0
 10
141.133355550229
 20
131.1605798472979
 30
0.0
 10
141.1960320642048
 20
131.1605798472979
 30
0.0
  0
ELLIPSE
  5
106
330
1F
100
AcDbEntity
  8
0
  6
HIDDEN
 62
     7
370
     0
100
AcDbEllipse
 10
157.01542944
 20
121.772513416
 30
0.0
 11
-14.75368316065626
 21
31.09325491558118
 31
0.0
210
0.0
220
0.0
230
1.0
 40
0.3419987131
 41
0.1591422026272848
 42
1.089903569770961
  0
LINE
  5
107
330
1F
100
AcDbEntity
  8
0
  6
HIDDEN
 62
     7
370
     0
100
AcDbLine
 10
130.6682752506
 20
97.5225127007
 30
0.0
 11
130.6682752506
 21
146.0225141312
 31
0.0
  0
SPLINE
  5
108
330
1F
100
AcDbEntity
  8
0
  6
HIDDEN
 62
     7
370
     0
100
AcDbSpline
210
0.0
220
0.0
230
1.0
 70
     8
 71
     3
 72
    12
 73
     8
 74
     0
 42
0.00000001
 43
0.00000001
 12
1.0
 22
0.0
 32
0.0
 13
1.0
 23
0.0
 33
0.0
 40
0.0
 40
0.0
 40
0.0
 40
0.0
 40
0.5000000000000011
 40
0.5000000000000011
 40
0.7500000000000006
 40
0.7500000000000006
 40
1.0
 40
1.0
 40
1.0
 40
1.0
 10
129.8517629641914
 20
137.2247813977923
 30
0.0
 10
129.9081691428716
 20
137.1769590241325
 30
0.0
 10
129.9783320443433
 20
137.136688177194
 30
0.0
 10
130.0963427577325
 20
137.128642308717
 30
0.0
 10
130.136548541328
 20
137.1352049070558
 30
0.0
 10
130.2102692380611
 20
137.1625870015095
 30
0.0
 10
130.2431299598476
 20
137.1823484920398
 30
0.0
 10
130.2732983617769
 20
137.2052812032279
 30
0.0
  0
SPLINE
  5
109
330
1F
100
AcDbEntity
  8
0
  6
HIDDEN
 62
     7
370
     0
100
AcDbSpline
210
0.0
220
0.0
230
1.0
 70
     8
 71
     3
 72
    16
 73
    12
 74
     0
 42
0.00000001
 43
0.00000001
 12
1.0
 22
0.0
 32
0.0
 13
1.0
 23
0.0
 33
0.0
 40
0.0
 40
0.0
 40
0.0
 40
0.0
 40
0.0624999999999966
 40
0.0624999999999966
 40
0.1249999999999933
 40
0.1249999999999933
 40
0.2499999999999883
 40
0.2499999999999883
 40
0.4999999999999888
 40
0.4999999999999888
 40
1.0
 40
1.0
 40
1.0
 40
1.0
 10
130.2732983617317
 20
137.2052812032759
 30
0.0
 10
130.2849112615711
 20
137.2141088262573
 30
0.0
 10
130.2982624460036
 20
137.2219432081392
 30
0.0
 10
130.3276622856228
 20
137.2302533342116
 30
0.0
 10
130.342503010178
 20
137.2297575149766
 30
0.0
 10
130.3783362181466
 20
137.2183065440072
 30
0.0
 10
130.3924494259682
 20
137.2016260431486
 30
0.0
 10
130.4269407971871
 20
137.1495053573915
 30
0.0
 10
130.4380248682975
 20
137.1097158633665
 30
0.0
 10
130.4641476860935
 20
136.9863792312694
 30
0.0
 10
130.4682752506384
 20
136.8989578207708
 30
0.0
 10
130.4682752506384
 20
136.8102205784525
 30
0.0
  0
LINE
  5
10A
330
1F
100
AcDbEntity
  8
0
  6
HIDDEN
 62
     7
370
     0
100
AcDbLine
 10
130.4682752557
 20
106.7348063628
 30
0.0
 11
130.4682752557
 21
136.8102204691
 31
0.0
  0
SPLINE
  5
10B
330
1F
100
AcDbEntity
  8
0
  6
HIDDEN
 62
     7
370
     0
100
AcDbSpline
210
0.0
220
0.0
230
1.0
 70
     8
 71
     3
 72
    16
 73
    12
 74
     0
 42
0.00000001
 43
0.00000001
 12
1.0
 22
0.0
 32
0.0
 13
1.0
 23
0.0
 33
0.0
 40
0.0
 40
0.0
 40
0.0
 40
0.0
 40
0.5000000000000098
 40
0.5000000000000098
 40
0.7500000000000122
 40
0.7500000000000122
 40
0.8750000000000061
 40
0.8750000000000061
 40
0.9375000000000031
 40
0.9375000000000031
 40
1.0
 40
1.0
 40
1.0
 40
1.0
 10
130.4682752506383
 20
106.7348062534704
 30
0.0
 10
130.4682752506383
 20
106.6456798882816
 30
0.0
 10
130.4641289755604
 20
106.5588185206682
 30
0.0
 10
130.4381633801669
 20
106.4358362741742
 30
0.0
 10
130.4267024747894
 20
106.3950649789429
 30
0.0
 10
130.3923907370151
 20
106.3433606589431
 30
0.0
 10
130.3783660010854
 20
106.3266902923527
 30
0.0
 10
130.3423430380517
 20
106.3152380718959
 30
0.0
 10
130.3275885289619
 20
106.3147850256209
 30
0.0
 10
130.2982363678152
 20
106.3231003468371
 30
0.0
 10
130.284896493311
 20
106.3309292319153
 30
0.0
 10
130.2732983617627
 20
106.339745628678
 30
0.0
  0
SPLINE
  5
10C
330
1F
100
AcDbEntity
  8
0
  6
HIDDEN
 62
     7
370
     0
100
AcDbSpline
210
0.0
220
0.0
230
1.0
 70
     8
 71
     3
 72
    12
 73
     8
 74
     0
 42
0.00000001
 43
0.00000001
 12
1.0
 22
0.0
 32
0.0
 13
1.0
 23
0.0
 33
0.0
 40
0.0
 40
0.0
 40
0.0
 40
0.0
 40
0.2500000000000006
 40
0.2500000000000006
 40
0.5000000000000011
 40
0.5000000000000011
 40
1.0
 40
1.0
 40
1.0
 40
1.0
 10
130.2732983617698
 20
106.3397456286869
 30
0.0
 10
130.2431065200526
 20
106.3626961577847
 30
0.0
 10
130.2097475506379
 20
106.3826656318089
 30
0.0
 10
130.1366102660573
 20
106.4097667654343
 30
0.0
 10
130.0963683934034
 20
106.4163675060798
 30
0.0
 10
129.9786626164349
 20
106.4083986315731
 30
0.0
 10
129.9082521386555
 20
106.3681381734052
 30
0.0
 10
129.8517629641872
 20
106.320245434127
 30
0.0
  0
SPLINE
  5
10D
330
1F
100
AcDbEntity
  8
0
  6
HIDDEN
 62
     7
370
     0
100
AcDbSpline
210
0.0
220
0.0
230
1.0
 70
     8
 71
     3
 72
    12
 73
     8
 74
     0
 42
0.00000001
 43
0.00000001
 12
1.0
 22
0.0
 32
0.0
 13
1.0
 23
0.0
 33
0.0
 40
0.0
 40
0.0
 40
0.0
 40
0.0
 40
0.2500000000000011
 40
0.2500000000000011
 40
0.500000000000002
 40
0.500000000000002
 40
1.0
 40
1.0
 40
1.0
 40
1.0
 10
129.8517629641869
 20
106.3202454341272
 30
0.0
 10
129.7636090264491
 20
106.2455066262732
 30
0.0
 10
129.7032556018204
 20
106.1545261257908
 30
0.0
 10
129.5969936437535
 20
105.9656123030382
 30
0.0
 10
129.5547614771915
 20
105.8691078434976
 30
0.0
 10
129.4436907818743
 20
105.5783400893305
 30
0.0
 10
129.3907540054475
 20
105.3826732747868
 30
0.0
 10
129.3469549070788
 20
105.1886067897205
 30
0.0
  0
SPLINE
  5
10E
330
1F
100
AcDbEntity
  8
0
  6
HIDDEN
 62
     7
370
     0
100
AcDbSpline
210
0.0
220
0.0
230
1.0
 70
     8
 71
     3
 72
    12
 73
     8
 74
     0
 42
0.00000001
 43
0.00000001
 12
1.0
 22
0.0
 32
0.0
 13
1.0
 23
0.0
 33
0.0
 40
0.0
 40
0.0
 40
0.0
 40
0.0
 40
0.4999999999999991
 40
0.4999999999999991
 40
0.7499999999999996
 40
0.7499999999999996
 40
1.0
 40
1.0
 40
1.0
 40
1.0
 10
129.3469549070788
 20
100.0024324609593
 30
0.0
 10
129.3907014479153
 20
99.97583829031817
 30
0.0
 10
129.4435858031468
 20
99.95607806499243
 30
0.0
 10
129.555152890483
 20
99.93562707476336
 30
0.0
 10
129.597736487026
 20
99.9303668501069
 30
0.0
 10
129.7026532141078
 20
99.92248405618427
 30
0.0
 10
129.7641868219526
 20
99.91991993100511
 30
0.0
 10
129.8517629641787
 20
99.91771971348548
 30
0.0
  0
LINE
  5
10F
330
1F
100
AcDbEntity
  8
0
  6
HIDDEN
 62
     7
370
     0
100
AcDbLine
 10
130.4682752557
 20
99.2326928939
 30
0.0
 11
130.4682752557
 21
99.7129182036
 31
0.0
  0
LINE
  5
110
330
1F
100
AcDbEntity
  8
0
  6
HIDDEN
 62
     7
370
     0
100
AcDbLine
 10
130.4682752557
 20
143.8321086283
 30
0.0
 11
130.4682752557
 21
144.312333938
 31
0.0
  0
SPLINE
  5
111
330
1F
100
AcDbEntity
  8
0
  6
HIDDEN
 62
     7
370
     0
100
AcDbSpline
210
0.0
220
0.0
230
1.0
 70
     8
 71
     3
 72
    12
 73
     8
 74
     0
 42
0.00000001
 43
0.00000001
 12
1.0
 22
0.0
 32
0.0
 13
1.0
 23
0.0
 33
0.0
 40
0.0
 40
0.0
 40
0.0
 40
0.0
 40
0.2499999999999997
 40
0.2499999999999997
 40
0.4999999999999992
 40
0.4999999999999992
 40
1.0
 40
1.0
 40
1.0
 40
1.0
 10
129.8517629641867
 20
143.6273071184374
 30
0.0
 10
129.7630783043303
 20
143.6250790510963
 30
0.0
 10
129.7031598886069
 20
143.622577267066
 30
0.0
 10
129.5975006612862
 20
143.61464583123
 30
0.0
 10
129.5548594231712
 20
143.6093536763332
 30
0.0
 10
129.4436700810687
 20
143.588948735846
 30
0.0
 10
129.3907433989477
 20
143.5692140442592
 30
0.0
 10
129.3469549070788
 20
143.5425943709636
 30
0.0
  0
SPLINE
  5
112
330
1F
100
AcDbEntity
  8
0
  6
HIDDEN
 62
     7
370
     0
100
AcDbSpline
210
0.0
220
0.0
230
1.0
 70
     8
 71
     3
 72
    12
 73
     8
 74
     0
 42
0.00000001
 43
0.00000001
 12
1.0
 22
0.0
 32
0.0
 13
1.0
 23
0.0
 33
0.0
 40
0.0
 40
0.0
 40
0.0
 40
0.0
 40
0.4999999999999988
 40
0.4999999999999988
 40
0.7499999999999981
 40
0.7499999999999981
 40
1.0
 40
1.0
 40
1.0
 40
1.0
 10
129.3469549070772
 20
138.3564200422027
 30
0.0
 10
129.3907163833759
 20
138.1625202542406
 30
0.0
 10
129.4436226990289
 20
137.9666638903037
 30
0.0
 10
129.5553338966763
 20
137.6745217438048
 30
0.0
 10
129.5978533402627
 20
137.5778038071069
 30
0.0
 10
129.7029766828301
 20
137.3910793706824
 30
0.0
 10
129.7645426465478
 20
137.2987286624127
 30
0.0
 10
129.8517629641905
 20
137.224781397793
 30
0.0
  0
LINE
  5
113
330
1F
100
AcDbEntity
  8
0
  6
HIDDEN
 62
     7
370
     0
100
AcDbLine
 10
152.6682751314
 20
97.7725132073
 30
0.0
 11
152.6682751314
 21
145.7725136246
 31
0.0
  0
LINE
  5
114
330
1F
100
AcDbEntity
  8
0
  6
HIDDEN
 62
     7
370
     0
100
AcDbLine
 10
130.4682752557
 20
99.7129182036
 30
0.0
 11
130.4682752557
 21
114.7506261881
 31
0.0
  0
LINE
  5
115
330
1F
100
AcDbEntity
  8
0
  6
HIDDEN
 62
     7
370
     0
100
AcDbLine
 10
130.4682752557
 20
128.7944006439
 30
0.0
 11
130.4682752557
 21
143.8321086283
 31
0.0
  0
LINE
  5
116
330
1F
100
AcDbEntity
  8
0
  6
HIDDEN
 62
     7
370
     0
100
AcDbLine
 10
244.6682753102
 20
141.7725129689
 30
0.0
 11
244.6682753102
 21
101.772513863
 31
0.0
  0
SPLINE
  5
117
330
1F
100
AcDbEntity
  8
0
  6
HIDDEN
 62
     7
370
     0
100
AcDbSpline
210
0.0
220
0.0
230
1.0
 70
     8
 71
     3
 72
    70
 73
    66
 74
     0
 42
0.00000001
 43
0.00000001
 12
1.0
 22
0.0
 32
0.0
 13
1.0
 23
0.0
 33
0.0
 40
-0.03125
 40
-0.03125
 40
0.0
 40
0.0
 40
0.03125
 40
0.03125
 40
0.0625
 40
0.0625
 40
0.09375
 40
0.09375
 40
0.125
 40
0.125
 40
0.15625
 40
0.15625
 40
0.1875
 40
0.1875
 40
0.21875
 40
0.21875
 40
0.25
 40
0.25
 40
0.28125
 40
0.28125
 40
0.3125
 40
0.3125
 40
0.34375
 40
0.34375
 40
0.375
 40
0.375
 40
0.40625
 40
0.40625
 40
0.4375
 40
0.4375
 40
0.46875
 40
0.46875
 40
0.5
 40
0.5
 40
0.53125
 40
0.53125
 40
0.5625
 40
0.5625
 40
0.59375
 40
0.59375
 40
0.625
 40
0.625
 40
0.65625
 40
0.65625
 40
0.6875
 40
0.6875
 40
0.71875
 40
0.71875
 40
0.75
 40
0.75
 40
0.78125
 40
0.78125
 40
0.8125
 40
0.8125
 40
0.84375
 40
0.84375
 40
0.875
 40
0.875
 40
0.90625
 40
0.90625
 40
0.9375
 40
0.9375
 40
0.96875
 40
0.96875
 40
1.0
 40
1.0
 40
1.03125
 40
1.03125
 10
223.6682752506384
 20
121.9710075677496
 30
0.0
 10
223.6682752506384
 20
121.5740192641733
 30
0.0
 10
223.6877805403008
 20
121.3788975613863
 30
0.0
 10
223.7641539840276
 20
120.9951062973016
 30
0.0
 10
223.8219693680284
 20
120.8044268255983
 30
0.0
 10
223.9726475608658
 20
120.4412583006839
 30
0.0
 10
224.0648124549433
 20
120.2690570119418
 30
0.0
 10
224.2825095790069
 20
119.9431632998216
 30
0.0
 10
224.4090343445869
 20
119.7890803498656
 30
0.0
 10
224.6853870361895
 20
119.512794289995
 30
0.0
 10
224.8362276535732
 20
119.3887153857526
 30
0.0
 10
225.1640491131085
 20
119.1694008225626
 30
0.0
 10
225.3382326096049
 20
119.0763786581367
 30
0.0
 10
225.6990813878178
 20
118.9266709544768
 30
0.0
 10
225.8884217573241
 20
118.8689240415596
 30
0.0
 10
226.2757909081947
 20
118.7917486202907
 30
0.0
 10
226.470622132822
 20
118.7726249624371
 30
0.0
 10
226.8625276124254
 20
118.7724028332476
 30
0.0
 10
227.0616085597051
 20
118.7919418078301
 30
0.0
 10
227.4465732921681
 20
118.8685901453203
 30
0.0
 10
227.6337119412757
 20
118.9252983600152
 30
0.0
 10
227.9972618873967
 20
119.0757568274363
 30
0.0
 10
228.1725317337885
 20
119.1695637514486
 30
0.0
 10
228.4972785753806
 20
119.3865374393077
 30
0.0
 10
228.6490469961147
 20
119.5107392485477
 30
0.0
 10
228.9287093642542
 20
119.7902125533123
 30
0.0
 10
229.0526387901314
 20
119.9414075211848
 30
0.0
 10
229.2699082936774
 20
120.2659797138105
 30
0.0
 10
229.3640058676658
 20
120.4414819359335
 30
0.0
 10
229.5145878532353
 20
120.8044674828043
 30
0.0
 10
229.5714600073718
 20
120.99145531609
 30
0.0
 10
229.6484844654146
 20
121.3764243814418
 30
0.0
 10
229.6681997193268
 20
121.5754427480706
 30
0.0
 10
229.6683503386719
 20
121.9672777148957
 30
0.0
 10
229.6494194181929
 20
122.1621942418613
 30
0.0
 10
229.5725181921173
 20
122.5499737883844
 30
0.0
 10
229.5150243694997
 20
122.7390609001064
 30
0.0
 10
229.3655652867165
 20
123.1002261281542
 30
0.0
 10
229.2723452688051
 20
123.2750426269719
 30
0.0
 10
229.0536045246937
 20
123.6025349851756
 30
0.0
 10
228.9297175529595
 20
123.7534515515183
 30
0.0
 10
228.6534360786603
 20
124.030249820088
 30
0.0
 10
228.4993378252552
 20
124.1569457668777
 30
0.0
 10
228.1740083163701
 20
124.374642490973
 30
0.0
 10
228.0019320393097
 20
124.4669661505506
 30
0.0
 10
227.6385738803433
 20
124.6180777779285
 30
0.0
 10
227.4482343625918
 20
124.6759449427729
 30
0.0
 10
227.0646694022648
 20
124.7526346423141
 30
0.0
 10
226.8691137790173
 20
124.7723442230032
 30
0.0
 10
226.4725235265118
 20
124.7726804526212
 30
0.0
 10
226.2774476411876
 20
124.7533786475604
 30
0.0
 10
225.8934782546951
 20
124.6773358484591
 30
0.0
 10
225.7025568846137
 20
124.6196141556411
 30
0.0
 10
225.3395114155306
 20
124.469359954953
 30
0.0
 10
225.16721326117
 20
124.3773683575084
 30
0.0
 10
224.840889011437
 20
124.1597955307326
 30
0.0
 10
224.6868150071334
 20
124.0334787015098
 30
0.0
 10
224.4103812948678
 20
123.7574727615251
 30
0.0
 10
224.2861009814953
 20
123.6066973297497
 30
0.0
 10
224.0662560658735
 20
123.2786611644519
 30
0.0
 10
223.9733376453004
 20
123.1049823586044
 30
0.0
 10
223.8232950993404
 20
122.7442387467487
 30
0.0
 10
223.7653285811297
 20
122.5547998140458
 30
0.0
 10
223.6877831496046
 20
122.1671502240708
 30
0.0
 10
223.6682752506384
 20
121.9710075677496
 30
0.0
 10
223.6682752506384
 20
121.5740192641733
 30
0.0
  0
CIRCLE
  5
118
330
1F
100
AcDbEntity
  8
0
  6
HIDDEN
 62
     7
370
     0
100
AcDbCircle
 10
226.6682752506
 20
121.772513416
 30
0.0
 40
2.5
  0
LWPOLYLINE
  5
119
330
1F
100
AcDbEntity
  8
0
  6
HIDDEN
 62
     7
370
     0
100
AcDbPolyline
 90
        9
 70
   128
 43
0.0
 10
225.0662894981
 20
123.6917925238
 10
225.0722797649
 20
123.7854782197
 10
225.0905262367
 20
123.8625875379
 10
225.1208500998
 20
123.9224597051
 10
225.1630054848
 20
123.9645810968
 10
225.2166347639
 20
123.9885905928
 10
225.2812611
 20
123.9942821379
 10
225.3563480513
 20
123.9816070705
 10
225.4412399666
 20
123.9506738897
  0
SPLINE
  5
11A
330
1F
100
AcDbEntity
  8
0
  6
HIDDEN
 62
     7
370
     0
100
AcDbSpline
210
0.0
220
0.0
230
1.0
 70
     8
 71
     3
 72
    78
 73
    74
 74
     0
 42
0.00000001
 43
0.00000001
 12
1.0
 22
0.0
 32
0.0
 13
1.0
 23
0.0
 33
0.0
 40
0.0
 40
0.0
 40
0.0
 40
0.0
 40
0.0156250000000004
 40
0.0156250000000004
 40
0.0312500000000009
 40
0.0312500000000009
 40
0.0468750000000013
 40
0.0468750000000013
 40
0.0625000000000018
 40
0.0625000000000018
 40
0.0937500000000007
 40
0.0937500000000007
 40
0.1249999999999996
 40
0.1249999999999996
 40
0.1562499999999985
 40
0.1562499999999985
 40
0.1874999999999974
 40
0.1874999999999974
 40
0.2499999999999953
 40
0.2499999999999953
 40
0.2812499999999951
 40
0.2812499999999951
 40
0.3124999999999948
 40
0.3124999999999948
 40
0.3437499999999946
 40
0.3437499999999946
 40
0.3749999999999943
 40
0.3749999999999943
 40
0.4062499999999941
 40
0.4062499999999941
 40
0.4374999999999939
 40
0.4374999999999939
 40
0.4687499999999937
 40
0.4687499999999937
 40
0.4999999999999934
 40
0.4999999999999934
 40
0.5312499999999932
 40
0.5312499999999932
 40
0.5468749999999933
 40
0.5468749999999933
 40
0.5624999999999934
 40
0.5624999999999934
 40
0.5781249999999936
 40
0.5781249999999936
 40
0.5937499999999939
 40
0.5937499999999939
 40
0.6249999999999942
 40
0.6249999999999942
 40
0.6562499999999946
 40
0.6562499999999946
 40
0.6874999999999949
 40
0.6874999999999949
 40
0.7187499999999952
 40
0.7187499999999952
 40
0.7499999999999954
 40
0.7499999999999954
 40
0.7812499999999958
 40
0.7812499999999958
 40
0.8124999999999961
 40
0.8124999999999961
 40
0.8437499999999964
 40
0.8437499999999964
 40
0.8749999999999968
 40
0.8749999999999968
 40
0.9062499999999971
 40
0.9062499999999971
 40
0.9374999999999974
 40
0.9374999999999974
 40
0.9687499999999978
 40
0.9687499999999978
 40
0.9843749999999989
 40
0.9843749999999989
 40
1.0
 40
1.0
 40
1.0
 40
1.0
 10
225.066286541947
 20
123.6917924934334
 30
0.0
 10
225.1370234563205
 20
123.7508353598119
 30
0.0
 10
225.2101075002253
 20
123.8052163175805
 30
0.0
 10
225.360371424748
 20
123.9050053518938
 30
0.0
 10
225.4359571681247
 20
123.9492658989454
 30
0.0
 10
225.5827246890113
 20
124.0260526782815
 30
0.0
 10
225.6548651193382
 20
124.0591373812934
 30
0.0
 10
225.794064197007
 20
124.1158879670653
 30
0.0
 10
225.8619409094021
 20
124.1399561086363
 30
0.0
 10
226.0637789201339
 20
124.2024154876987
 30
0.0
 10
226.1968703847515
 20
124.2313132961402
 30
0.0
 10
226.4621275631409
 20
124.2675930798777
 30
0.0
 10
226.5941726993019
 20
124.2749788080537
 30
0.0
 10
226.8611122085284
 20
124.2686380391335
 30
0.0
 10
226.9959205004967
 20
124.2549002132765
 30
0.0
 10
227.270999775754
 20
124.2028053260132
 30
0.0
 10
227.4123084318147
 20
124.163953077855
 30
0.0
 10
227.8338450013634
 20
124.0044908533185
 30
0.0
 10
228.1205744449388
 20
123.8383450571914
 30
0.0
 10
228.5098968408136
 20
123.4725540768042
 30
0.0
 10
228.6285985320329
 20
123.3349180194585
 30
0.0
 10
228.8365466809571
 20
123.03051759603
 30
0.0
 10
228.9209305252934
 20
122.8710617376536
 30
0.0
 10
229.0531259485915
 20
122.5430660423253
 30
0.0
 10
229.0982301903979
 20
122.3817122111871
 30
0.0
 10
229.1562136324031
 20
122.0657143537297
 30
0.0
 10
229.1682253475781
 20
121.9162952053346
 30
0.0
 10
229.1683248507149
 20
121.6304722694527
 30
0.0
 10
229.1559965987837
 20
121.4933133284569
 30
0.0
 10
229.1139332704434
 20
121.238222254661
 30
0.0
 10
229.0842555741276
 20
121.1192910235506
 30
0.0
 10
229.0127730044182
 20
120.8967333636909
 30
0.0
 10
228.9708199730543
 20
120.7930059432388
 30
0.0
 10
228.8800356172018
 20
120.6023582259356
 30
0.0
 10
228.831483223292
 20
120.5163163588643
 30
0.0
 10
228.7393716036456
 20
120.3696379133698
 30
0.0
 10
228.6952466624362
 20
120.308610321066
 30
0.0
 10
228.6590541903924
 20
120.2601624127535
 30
0.0
 10
228.6527060008401
 20
120.25197127338
 30
0.0
 10
228.6572176620282
 20
120.257877521138
 30
0.0
 10
228.668451633767
 20
120.2724399040061
 30
0.0
 10
228.70437370716
 20
120.3215726245278
 30
0.0
 10
228.7290890660651
 20
120.3563794797519
 30
0.0
 10
228.782865598611
 20
120.43801104901
 30
0.0
 10
228.8119974800055
 20
120.4848988923576
 30
0.0
 10
228.8997122919462
 20
120.6390790936504
 30
0.0
 10
228.9579435047742
 20
120.7593585428589
 30
0.0
 10
229.0555875382315
 20
121.0176600842501
 30
0.0
 10
229.0960901273617
 20
121.1570366297735
 30
0.0
 10
229.1527670299694
 20
121.4556580098029
 30
0.0
 10
229.1682742247673
 20
121.6122582941363
 30
0.0
 10
229.1682762764071
 20
121.9327365287515
 30
0.0
 10
229.153069922316
 20
122.0978246828331
 30
0.0
 10
229.0844198647165
 20
122.4375526513547
 30
0.0
 10
229.0324342393394
 20
122.604887662091
 30
0.0
 10
228.8895915263814
 20
122.9334822409498
 30
0.0
 10
228.7984497746542
 20
123.0935604437649
 30
0.0
 10
228.5857749427739
 20
123.3868255552624
 30
0.0
 10
228.4611091658841
 20
123.524109712412
 30
0.0
 10
228.1919386423246
 20
123.7626875043843
 30
0.0
 10
228.0452699219866
 20
123.8664752127172
 30
0.0
 10
227.7392651467691
 20
124.0382960563708
 30
0.0
 10
227.581677719581
 20
124.105882371887
 30
0.0
 10
227.2573077380907
 20
124.2080740256514
 30
0.0
 10
227.0934816445599
 20
124.2415938541255
 30
0.0
 10
226.7656892025339
 20
124.2760447637845
 30
0.0
 10
226.599705102436
 20
124.277047264326
 30
0.0
 10
226.2701416753782
 20
124.2461506810185
 30
0.0
 10
226.106176681418
 20
124.2148020797874
 30
0.0
 10
225.8546843924816
 20
124.1380476252399
 30
0.0
 10
225.7714338666052
 20
124.1078668718207
 30
0.0
 10
225.6048232521275
 20
124.036861021514
 30
0.0
 10
225.5211945262889
 20
123.9957154616859
 30
0.0
 10
225.4412395980492
 20
123.9506739948157
 30
0.0
  0
CIRCLE
  5
11B
330
1F
100
AcDbEntity
  8
0
  6
HIDDEN
 62
     7
370
     0
100
AcDbCircle
 10
115.1682752506
 20
121.772513416
 30
0.0
 40
4.050000000000011
  0
SPLINE
  5
11C
330
1F
100
AcDbEntity
  8
0
  6
HIDDEN
 62
     7
370
     0
100
AcDbSpline
210
0.0
220
0.0
230
1.0
 70
     8
 71
     3
 72
    10
 73
     6
 74
     0
 42
0.00000001
 43
0.00000001
 12
1.0
 22
0.0
 32
0.0
 13
1.0
 23
0.0
 33
0.0
 40
0.0
 40
0.0
 40
0.0
 40
0.0
 40
0.4999999999999987
 40
0.4999999999999987
 40
1.0
 40
1.0
 40
1.0
 40
1.0
 10
225.4412395980492
 20
123.9506739948158
 30
0.0
 10
225.3441392384178
 20
123.8959738940502
 30
0.0
 10
225.263750371509
 20
123.842100811469
 30
0.0
 10
225.1395293774263
 20
123.7521139258811
 30
0.0
 10
225.0957759097051
 20
123.7164067534081
 30
0.0
 10
225.0662865419468
 20
123.6917924934342
 30
0.0
  0
LINE
  5
11D
330
1F
100
AcDbEntity
  8
0
  6
HIDDEN
 62
     7
370
     0
100
AcDbLine
 10
94.1985027926
 20
137.0854644741
 30
0.0
 11
94.1985027926
 21
106.4595623578
 31
0.0
  0
LINE
  5
11E
330
1F
100
AcDbEntity
  8
0
  6
HIDDEN
 62
     7
370
     0
100
AcDbLine
 10
92.6682764725
 20
105.5760836865
 30
0.0
 11
92.6682764725
 21
137.9689431454
 31
0.0
  0
LINE
  5
11F
330
1F
100
AcDbEntity
  8
0
  6
HIDDEN
 62
     7
370
     0
100
AcDbLine
 10
100.6985029267
 20
136.1189239363
 30
0.0
 11
100.6985029267
 21
107.4261028956
 31
0.0
  0
LINE
  5
120
330
1F
100
AcDbEntity
  8
0
  6
HIDDEN
 62
     7
370
     0
100
AcDbLine
 10
106.4985042499
 20
135.7725138481
 30
0.0
 11
106.4985042499
 21
107.7725129838
 31
0.0
  0
LINE
  5
121
330
1F
100
AcDbEntity
  8
0
  6
HIDDEN
 62
     7
370
     0
100
AcDbLine
 10
99.098503782
 20
135.7725138481
 30
0.0
 11
99.098503782
 21
107.7725129838
 31
0.0
  0
LINE
  5
122
330
1F
100
AcDbEntity
  8
0
  6
HIDDEN
 62
     7
370
     0
100
AcDbLine
 10
100.0985039459
 20
135.7725138481
 30
0.0
 11
100.0985039459
 21
107.7725129838
 31
0.0
  0
SPLINE
  5
123
330
1F
100
AcDbEntity
  8
0
  6
HIDDEN
 62
     7
370
     0
100
AcDbSpline
210
0.0
220
0.0
230
1.0
 70
     8
 71
     3
 72
    10
 73
     6
 74
     0
 42
0.00000001
 43
0.00000001
 12
1.0
 22
0.0
 32
0.0
 13
1.0
 23
0.0
 33
0.0
 40
0.0
 40
0.0
 40
0.0
 40
0.0
 40
0.5
 40
0.5
 40
1.0
 40
1.0
 40
1.0
 40
1.0
 10
119.1682752506383
 20
122.4069422929838
 30
0.0
 10
119.2014226687148
 20
122.1979516919758
 30
0.0
 10
119.2182815140764
 20
121.9863892259543
 30
0.0
 10
119.2182689837287
 20
121.5584004599867
 30
0.0
 10
119.2013540259884
 20
121.3466423555711
 30
0.0
 10
119.1682752506383
 20
121.1380845389391
 30
0.0
  0
LINE
  5
124
330
1F
100
AcDbEntity
  8
0
  6
HIDDEN
 62
     7
370
     0
100
AcDbLine
 10
119.6682753102
 20
135.2725137661
 30
0.0
 11
119.6682753102
 21
108.2725130658
 31
0.0
  0
SPLINE
  5
125
330
1F
100
AcDbEntity
  8
0
  6
HIDDEN
 62
     7
370
     0
100
AcDbSpline
210
0.0
220
0.0
230
1.0
 70
     8
 71
     3
 72
    10
 73
     6
 74
     0
 42
0.00000001
 43
0.00000001
 12
1.0
 22
0.0
 32
0.0
 13
1.0
 23
0.0
 33
0.0
 40
0.0
 40
0.0
 40
0.0
 40
0.0
 40
0.5
 40
0.5
 40
1.0
 40
1.0
 40
1.0
 40
1.0
 10
119.1682752506383
 20
121.1380845389391
 30
0.0
 10
119.201464213112
 20
121.3473370725215
 30
0.0
 10
119.2181649893667
 20
121.5581538334204
 30
0.0
 10
119.2183844298113
 20
121.9826861146236
 30
0.0
 10
119.2015047144179
 20
122.1974344033962
 30
0.0
 10
119.1682752506383
 20
122.4069422929838
 30
0.0
  0
SPLINE
  5
126
330
1F
100
AcDbEntity
  8
0
  6
HIDDEN
 62
     7
370
     0
100
AcDbSpline
210
0.0
220
0.0
230
1.0
 70
     8
 71
     3
 72
    66
 73
    62
 74
     0
 42
0.00000001
 43
0.00000001
 12
1.0
 22
0.0
 32
0.0
 13
1.0
 23
0.0
 33
0.0
 40
0.0
 40
0.0
 40
0.0
 40
0.0
 40
0.0312499999999999
 40
0.0312499999999999
 40
0.0624999999999998
 40
0.0624999999999998
 40
0.0937499999999996
 40
0.0937499999999996
 40
0.1249999999999995
 40
0.1249999999999995
 40
0.1562499999999994
 40
0.1562499999999994
 40
0.1874999999999992
 40
0.1874999999999992
 40
0.2187499999999991
 40
0.2187499999999991
 40
0.2499999999999989
 40
0.2499999999999989
 40
0.2812499999999988
 40
0.2812499999999988
 40
0.3124999999999987
 40
0.3124999999999987
 40
0.3437499999999986
 40
0.3437499999999986
 40
0.3749999999999985
 40
0.3749999999999985
 40
0.4374999999999985
 40
0.4374999999999985
 40
0.4687499999999984
 40
0.4687499999999984
 40
0.4999999999999983
 40
0.4999999999999983
 40
0.5312499999999982
 40
0.5312499999999982
 40
0.5624999999999981
 40
0.5624999999999981
 40
0.593749999999998
 40
0.593749999999998
 40
0.6249999999999979
 40
0.6249999999999979
 40
0.6874999999999977
 40
0.6874999999999977
 40
0.7187499999999976
 40
0.7187499999999976
 40
0.7499999999999974
 40
0.7499999999999974
 40
0.7812499999999978
 40
0.7812499999999978
 40
0.8124999999999981
 40
0.8124999999999981
 40
0.8437499999999984
 40
0.8437499999999984
 40
0.8749999999999988
 40
0.8749999999999988
 40
0.9062499999999991
 40
0.9062499999999991
 40
0.9374999999999994
 40
0.9374999999999994
 40
0.9687499999999998
 40
0.9687499999999998
 40
1.0
 40
1.0
 40
1.0
 40
1.0
 10
119.1682752506383
 20
121.1380845389391
 30
0.0
 10
119.1286050894721
 20
120.8879688042805
 30
0.0
 10
119.0661288816287
 20
120.6443480212779
 30
0.0
 10
118.8961857602697
 20
120.1697959366264
 30
0.0
 10
118.7877175819469
 20
119.9381467992437
 30
0.0
 10
118.5340466556477
 20
119.50605218236
 30
0.0
 10
118.3881778341832
 20
119.3030764881207
 30
0.0
 10
118.0575324130981
 20
118.9232881813973
 30
0.0
 10
117.874676306687
 20
118.749251714226
 30
0.0
 10
117.4832301109315
 20
118.4399915498417
 30
0.0
 10
117.2730825658751
 20
118.303141235741
 30
0.0
 10
116.8240535923886
 20
118.0677657535487
 30
0.0
 10
116.5917538552578
 20
117.9726227224207
 30
0.0
 10
116.1118202554621
 20
117.8259727225771
 30
0.0
 10
115.8617637932443
 20
117.774247017548
 30
0.0
 10
115.356608849917
 20
117.7189235246687
 30
0.0
 10
115.1045587432314
 20
117.7151626868318
 30
0.0
 10
114.6014919507901
 20
117.7544403176346
 30
0.0
 10
114.3479844600004
 20
117.7984343483275
 30
0.0
 10
113.8610021417361
 20
117.9310008966857
 30
0.0
 10
113.62602378883
 20
118.0191911079206
 30
0.0
 10
113.1727654187464
 20
118.2392559344991
 30
0.0
 10
112.9552809365526
 20
118.3714003729251
 30
0.0
 10
112.5540484486036
 20
118.6691713476082
 30
0.0
 10
112.3678931091414
 20
118.8358404573646
 30
0.0
 10
111.8535371158696
 20
119.3913868097971
 30
0.0
 10
111.5849859460944
 20
119.8180942259758
 30
0.0
 10
111.306523830668
 20
120.5260463594703
 30
0.0
 10
111.2368552707895
 20
120.767655264396
 30
0.0
 10
111.1427131162097
 20
121.2619720713317
 30
0.0
 10
111.1183537737568
 20
121.5175770539719
 30
0.0
 10
111.1181971136372
 20
122.0249487576944
 30
0.0
 10
111.1417465075299
 20
122.2758127407369
 30
0.0
 10
111.235429500011
 20
122.7719973984092
 30
0.0
 10
111.30661633612
 20
123.0188449272856
 30
0.0
 10
111.4904809555132
 20
123.4870340285362
 30
0.0
 10
111.6033046260352
 20
123.7108172809937
 30
0.0
 10
111.871160518306
 20
124.1379038423645
 30
0.0
 10
112.0252202962004
 20
124.3388262183687
 30
0.0
 10
112.533393948852
 20
124.8884280346828
 30
0.0
 10
112.9452247361951
 20
125.1946322335298
 30
0.0
 10
113.6199914717595
 20
125.5232340184446
 30
0.0
 10
113.8578651791491
 20
125.6130477119461
 30
0.0
 10
114.347441773928
 20
125.7465681007395
 30
0.0
 10
114.5960590447897
 20
125.7898760545487
 30
0.0
 10
115.1009715978166
 20
125.8298652831859
 30
0.0
 10
115.3585085384466
 20
125.825899497283
 30
0.0
 10
115.8599986582304
 20
125.7709688871941
 30
0.0
 10
116.1065835795592
 20
125.7204618239368
 30
0.0
 10
116.5913969939007
 20
125.5727033659523
 30
0.0
 10
116.8264325385635
 20
125.4759788958409
 30
0.0
 10
117.2698116593746
 20
125.2436352627012
 30
0.0
 10
117.4809948204119
 20
125.1068097877319
 30
0.0
 10
117.8770800832468
 20
124.7938674968418
 30
0.0
 10
118.0576825114325
 20
124.6213896548752
 30
0.0
 10
118.3855649331564
 20
124.2451268596967
 30
0.0
 10
118.5340867209315
 20
124.0390370059283
 30
0.0
 10
118.7887571486084
 20
123.6049781124576
 30
0.0
 10
118.8948218727219
 20
123.3782776056762
 30
0.0
 10
119.064719780628
 20
122.9053630901225
 30
0.0
 10
119.1287067490744
 20
122.6564170757185
 30
0.0
 10
119.1682752506383
 20
122.4069422929838
 30
0.0
  0
SPLINE
  5
127
330
1F
100
AcDbEntity
  8
0
  6
HIDDEN
 62
     7
370
     0
100
AcDbSpline
210
0.0
220
0.0
230
1.0
 70
     8
 71
     3
 72
    70
 73
    66
 74
     0
 42
0.00000001
 43
0.00000001
 12
1.0
 22
0.0
 32
0.0
 13
1.0
 23
0.0
 33
0.0
 40
0.0
 40
0.0
 40
0.0
 40
0.0
 40
0.0312500000000001
 40
0.0312500000000001
 40
0.0625000000000001
 40
0.0625000000000001
 40
0.0937500000000002
 40
0.0937500000000002
 40
0.1250000000000002
 40
0.1250000000000002
 40
0.1562500000000003
 40
0.1562500000000003
 40
0.1875000000000004
 40
0.1875000000000004
 40
0.2187500000000004
 40
0.2187500000000004
 40
0.2500000000000005
 40
0.2500000000000005
 40
0.2812500000000006
 40
0.2812500000000006
 40
0.3125000000000006
 40
0.3125000000000006
 40
0.3437500000000007
 40
0.3437500000000007
 40
0.3750000000000008
 40
0.3750000000000008
 40
0.4062500000000008
 40
0.4062500000000008
 40
0.4375000000000008
 40
0.4375000000000008
 40
0.4687500000000008
 40
0.4687500000000008
 40
0.5000000000000008
 40
0.5000000000000008
 40
0.5312500000000009
 40
0.5312500000000009
 40
0.5625000000000009
 40
0.5625000000000009
 40
0.593750000000001
 40
0.593750000000001
 40
0.625000000000001
 40
0.625000000000001
 40
0.6562500000000011
 40
0.6562500000000011
 40
0.6875000000000011
 40
0.6875000000000011
 40
0.7187500000000012
 40
0.7187500000000012
 40
0.7500000000000012
 40
0.7500000000000012
 40
0.7812500000000011
 40
0.7812500000000011
 40
0.812500000000001
 40
0.812500000000001
 40
0.8437500000000008
 40
0.8437500000000008
 40
0.8750000000000007
 40
0.8750000000000007
 40
0.9062500000000004
 40
0.9062500000000004
 40
0.9375000000000003
 40
0.9375000000000003
 40
0.9687500000000001
 40
0.9687500000000001
 40
1.0
 40
1.0
 40
1.0
 40
1.0
 10
119.1682752506383
 20
122.4069422929838
 30
0.0
 10
119.12878611028
 20
122.6559167125823
 30
0.0
 10
119.0649937244303
 20
122.9046396687612
 30
0.0
 10
118.8944043024409
 20
123.3794007815171
 30
0.0
 10
118.7880404184873
 20
123.6063602482514
 30
0.0
 10
118.5334748898462
 20
124.0399184223393
 30
0.0
 10
118.3845745309656
 20
124.2464391194749
 30
0.0
 10
118.0562034732163
 20
124.622909884591
 30
0.0
 10
117.8755425483895
 20
124.7952101211165
 30
0.0
 10
117.4799937503949
 20
125.1074720619887
 30
0.0
 10
117.2679331851085
 20
125.2447521492235
 30
0.0
 10
116.8249294524645
 20
125.476633030407
 30
0.0
 10
116.5922684099014
 20
125.5724585384945
 30
0.0
 10
116.1051076069315
 20
125.7208908786786
 30
0.0
 10
115.8576652436034
 20
125.7714030269392
 30
0.0
 10
115.3551550653519
 20
125.8260862373178
 30
0.0
 10
115.0975112334362
 20
125.829783275933
 30
0.0
 10
114.5933686199509
 20
125.7894685599425
 30
0.0
 10
114.3454918572008
 20
125.7460958351871
 30
0.0
 10
113.858035520551
 20
125.6130344228819
 30
0.0
 10
113.6186767827614
 20
125.5227204986085
 30
0.0
 10
113.1681393990147
 20
125.3030608451051
 30
0.0
 10
112.954216069448
 20
125.1731214549019
 30
0.0
 10
112.5491675405715
 20
124.8719436693126
 30
0.0
 10
112.3623586961463
 20
124.7036440759681
 30
0.0
 10
112.0239377959557
 20
124.3372427638427
 30
0.0
 10
111.8705895638665
 20
124.1371557787928
 30
0.0
 10
111.6024022162629
 20
123.7092152245914
 30
0.0
 10
111.4898164506652
 20
123.4854948804102
 30
0.0
 10
111.3066196784583
 20
123.0186999519565
 30
0.0
 10
111.2355815295737
 20
122.7728059043316
 30
0.0
 10
111.1415908531705
 20
122.2749850362347
 30
0.0
 10
111.1182257465814
 20
122.0242559614244
 30
0.0
 10
111.1183249108131
 20
121.5191805529977
 30
0.0
 10
111.1425775749984
 20
121.262632021974
 30
0.0
 10
111.237048948785
 20
120.7666900839572
 30
0.0
 10
111.3068726331391
 20
120.5251449256976
 30
0.0
 10
111.4918793709605
 20
120.0548197119441
 30
0.0
 10
111.6069467435792
 20
119.8277778820427
 30
0.0
 10
111.8732961464789
 20
119.4043559602099
 30
0.0
 10
112.0254827237958
 20
119.205557288338
 30
0.0
 10
112.3690937910395
 20
118.8346584528703
 30
0.0
 10
112.5553947789079
 20
118.6680610140363
 30
0.0
 10
112.9562686051374
 20
118.3707792000608
 30
0.0
 10
113.1728853583609
 20
118.2391519057483
 30
0.0
 10
113.6270946082101
 20
118.0187171226787
 30
0.0
 10
113.8619102507955
 20
117.9307565543683
 30
0.0
 10
114.3469904504871
 20
117.7987020750127
 30
0.0
 10
114.6002399937298
 20
117.7545617081057
 30
0.0
 10
115.1050594579747
 20
117.7150999857932
 30
0.0
 10
115.3569470303025
 20
117.7190157234431
 30
0.0
 10
115.859682556364
 20
117.7739641138666
 30
0.0
 10
116.1115445924655
 20
117.8258593234989
 30
0.0
 10
116.5928888509029
 20
117.9729987539654
 30
0.0
 10
116.825134823889
 20
118.0683002366706
 30
0.0
 10
117.2728137118725
 20
118.3030326495801
 30
0.0
 10
117.4844999132449
 20
118.4408600740755
 30
0.0
 10
117.8761060548529
 20
118.7505168881816
 30
0.0
 10
118.058381061215
 20
118.9241154177816
 30
0.0
 10
118.3893785611466
 20
119.3046041357414
 30
0.0
 10
118.53507363602
 20
119.5076317830274
 30
0.0
 10
118.7881033873287
 20
119.9389746408506
 30
0.0
 10
118.8962730072193
 20
120.1699037344543
 30
0.0
 10
119.0665372560852
 20
120.6456246010275
 30
0.0
 10
119.1287779795598
 20
120.889058856099
 30
0.0
 10
119.1682752506383
 20
121.1380845389391
 30
0.0
  0
LINE
  5
128
330
1F
100
AcDbEntity
  8
0
  6
HIDDEN
 62
     7
370
     0
100
AcDbLine
 10
245.1682763235
 20
101.2725128497
 30
0.0
 11
245.1682763235
 21
121.772513416
 31
0.0
  0
SPLINE
  5
129
330
1F
100
AcDbEntity
  8
0
  6
HIDDEN
 62
     7
370
     0
100
AcDbSpline
210
0.0
220
0.0
230
1.0
 70
     8
 71
     3
 72
    12
 73
     8
 74
     0
 42
0.00000001
 43
0.00000001
 12
1.0
 22
0.0
 32
0.0
 13
1.0
 23
0.0
 33
0.0
 40
0.0
 40
0.0
 40
0.0
 40
0.0
 40
0.2500000000000001
 40
0.2500000000000001
 40
0.5000000000000002
 40
0.5000000000000002
 40
1.0
 40
1.0
 40
1.0
 40
1.0
 10
246.3304542730728
 20
128.7725134159615
 30
0.0
 10
246.1478505211108
 20
128.2074283923656
 30
0.0
 10
245.9819977927129
 20
127.6323315964847
 30
0.0
 10
245.6938149801469
 20
126.4774067649546
 30
0.0
 10
245.5711695504041
 20
125.8970312533401
 30
0.0
 10
245.2731949461221
 20
124.146401532962
 30
0.0
 10
245.1682752506383
 20
122.9665833129345
 30
0.0
 10
245.1682752506384
 20
121.7725134159614
 30
0.0
  0
SPLINE
  5
12A
330
1F
100
AcDbEntity
  8
0
  6
HIDDEN
 62
     7
370
     0
100
AcDbSpline
210
0.0
220
0.0
230
1.0
 70
     8
 71
     3
 72
    14
 73
    10
 74
     0
 42
0.00000001
 43
0.00000001
 12
1.0
 22
0.0
 32
0.0
 13
1.0
 23
0.0
 33
0.0
 40
0.0
 40
0.0
 40
0.0
 40
0.0
 40
0.5000000000000002
 40
0.5000000000000002
 40
0.6249999999999999
 40
0.6249999999999999
 40
0.7499999999999997
 40
0.7499999999999997
 40
1.0
 40
1.0
 40
1.0
 40
1.0
 10
246.3304542730728
 20
128.7725134159615
 30
0.0
 10
246.9133360858503
 20
130.5762977270053
 30
0.0
 10
247.4590510832749
 20
132.3542250488386
 30
0.0
 10
248.1028808132999
 20
134.5409938496003
 30
0.0
 10
248.2301027768324
 20
134.9779415161702
 30
0.0
 10
248.4775897871152
 20
135.8369282691614
 30
0.0
 10
248.5981227253626
 20
136.259845026517
 30
0.0
 10
248.950579624512
 20
137.5090382966746
 30
0.0
 10
249.1734014444007
 20
138.3158453083345
 30
0.0
 10
249.3848588021765
 20
139.0960760894224
 30
0.0
  0
SPLINE
  5
12B
330
1F
100
AcDbEntity
  8
0
  6
HIDDEN
 62
     7
370
     0
100
AcDbSpline
210
0.0
220
0.0
230
1.0
 70
     8
 71
     3
 72
     8
 73
     4
 74
     0
 42
0.00000001
 43
0.00000001
 12
1.0
 22
0.0
 32
0.0
 13
1.0
 23
0.0
 33
0.0
 40
0.0
 40
0.0
 40
0.0
 40
0.0
 40
1.0
 40
1.0
 40
1.0
 40
1.0
 10
249.3848588021766
 20
139.0960760894224
 30
0.0
 10
248.6329718367295
 20
139.2744786233408
 30
0.0
 10
247.9589850965098
 20
139.5125072451729
 30
0.0
 10
247.383647384181
 20
139.7902093270742
 30
0.0
  0
SPLINE
  5
12C
330
1F
100
AcDbEntity
  8
0
  6
HIDDEN
 62
     7
370
     0
100
AcDbSpline
210
0.0
220
0.0
230
1.0
 70
     8
 71
     3
 72
    12
 73
     8
 74
     0
 42
0.00000001
 43
0.00000001
 12
1.0
 22
0.0
 32
0.0
 13
1.0
 23
0.0
 33
0.0
 40
0.0
 40
0.0
 40
0.0
 40
0.0
 40
0.2011054898851795
 40
0.4042367188734479
 40
0.6542849358564955
 40
0.9120863524415228
 40
1.0
 40
1.0
 40
1.0
 40
1.0
 10
247.3836468593725
 20
139.7902096326639
 30
0.0
 10
247.0203334410943
 20
139.9775876050453
 30
0.0
 10
246.2900469421464
 20
140.3542310113882
 30
0.0
 10
245.4771775869512
 20
140.991245220408
 30
0.0
 10
245.0767897672729
 20
141.7023729284475
 30
0.0
 10
245.2079348039786
 20
142.3051588314514
 30
0.0
 10
245.5672375537282
 20
142.6442704684187
 30
0.0
 10
245.6586064831861
 20
142.7305048967888
 30
0.0
  0
ELLIPSE
  5
12D
330
1F
100
AcDbEntity
  8
0
  6
HIDDEN
 62
     7
370
     0
100
AcDbEllipse
 10
261.6194569632
 20
121.772513416
 30
0.0
 11
6.669703807742906
 21
20.49869244577141
 31
0.0
210
0.0
220
0.0
230
1.0
 40
0.0347142918
 41
1.582090910555888
 42
3.152887237351236
  0
SPLINE
  5
12E
330
1F
100
AcDbEntity
  8
0
  6
HIDDEN
 62
     7
370
     0
100
AcDbSpline
210
0.0
220
0.0
230
1.0
 70
     8
 71
     3
 72
    52
 73
    48
 74
     0
 42
0.00000001
 43
0.00000001
 12
1.0
 22
0.0
 32
0.0
 13
1.0
 23
0.0
 33
0.0
 40
0.0
 40
0.0
 40
0.0
 40
0.0
 40
0.0624999999999985
 40
0.0624999999999985
 40
0.093749999999998
 40
0.093749999999998
 40
0.1249999999999976
 40
0.1249999999999976
 40
0.1562499999999971
 40
0.1562499999999971
 40
0.1874999999999966
 40
0.1874999999999966
 40
0.2499999999999962
 40
0.2499999999999962
 40
0.3124999999999957
 40
0.3124999999999957
 40
0.3437499999999956
 40
0.3437499999999956
 40
0.3749999999999954
 40
0.3749999999999954
 40
0.4374999999999972
 40
0.4374999999999972
 40
0.4687499999999979
 40
0.4687499999999979
 40
0.4999999999999988
 40
0.4999999999999988
 40
0.5625000000000004
 40
0.5625000000000004
 40
0.5937500000000012
 40
0.5937500000000012
 40
0.625000000000002
 40
0.625000000000002
 40
0.6875000000000017
 40
0.6875000000000017
 40
0.7187500000000013
 40
0.7187500000000013
 40
0.750000000000001
 40
0.750000000000001
 40
0.8125000000000007
 40
0.8125000000000007
 40
0.8437500000000004
 40
0.8437500000000004
 40
0.8750000000000003
 40
0.8750000000000003
 40
0.9375000000000001
 40
0.9375000000000001
 40
1.0
 40
1.0
 40
1.0
 40
1.0
 10
248.7832289984012
 20
121.7725134159614
 30
0.0
 10
248.6176502069872
 20
121.4510969621608
 30
0.0
 10
248.4940509557989
 20
121.1162963894854
 30
0.0
 10
248.3720101875533
 20
120.5939912167749
 30
0.0
 10
248.3419433732651
 20
120.4151409806091
 30
0.0
 10
248.3055062025951
 20
120.0588685090371
 30
0.0
 10
248.2988739220889
 20
119.8812119080278
 30
0.0
 10
248.3085730973984
 20
119.5268492552007
 30
0.0
 10
248.3249022909599
 20
119.3501431663209
 30
0.0
 10
248.381415789738
 20
118.9976971202756
 30
0.0
 10
248.4217252633528
 20
118.8225654756036
 30
0.0
 10
248.5749892800189
 20
118.3145597935616
 30
0.0
 10
248.7218198978072
 20
117.991361157497
 30
0.0
 10
249.0996993921033
 20
117.3896834150657
 30
0.0
 10
249.3246504190543
 20
117.1195673260122
 30
0.0
 10
249.7147434083065
 20
116.7582030967598
 30
0.0
 10
249.8538918392244
 20
116.645228810241
 30
0.0
 10
250.142263342386
 20
116.4401207542505
 30
0.0
 10
250.292383237305
 20
116.3470838093319
 30
0.0
 10
250.7603583751991
 20
116.0959130584636
 30
0.0
 10
251.0993337931704
 20
115.9652801700652
 30
0.0
 10
251.6170583590248
 20
115.8354744667183
 30
0.0
 10
251.7920757672407
 20
115.802682019877
 30
0.0
 10
252.1470632926507
 20
115.7582435408971
 30
0.0
 10
252.3283296034767
 20
115.7466601710401
 30
0.0
 10
252.8669612226342
 20
115.7452340433943
 30
0.0
 10
253.220708413439
 20
115.7872752747868
 30
0.0
 10
253.7432405425667
 20
115.915834234366
 30
0.0
 10
253.9156279653089
 20
115.9698404906594
 30
0.0
 10
254.2477884587618
 20
116.0970870379484
 30
0.0
 10
254.4088389085285
 20
116.1706042677887
 30
0.0
 10
254.8770042975396
 20
116.4209138459685
 30
0.0
 10
255.1713070017105
 20
116.6301931828119
 30
0.0
 10
255.5585803125822
 20
116.9888126429846
 30
0.0
 10
255.6796513738071
 20
117.1162617146414
 30
0.0
 10
255.9056296406822
 20
117.3873085422827
 30
0.0
 10
256.0111200813099
 20
117.5319846082267
 30
0.0
 10
256.2951214562299
 20
117.9801710799148
 30
0.0
 10
256.4437344923842
 20
118.2990762547045
 30
0.0
 10
256.6055810650602
 20
118.8083350553078
 30
0.0
 10
256.6487648407318
 20
118.9824036852775
 30
0.0
 10
256.7122703876996
 20
119.3312892667975
 30
0.0
 10
256.7329651057792
 20
119.507212804283
 30
0.0
 10
256.7621223564694
 20
120.0394306598294
 30
0.0
 10
256.736508811545
 20
120.402757009239
 30
0.0
 10
256.5992905142575
 20
121.1020526848098
 30
0.0
 10
256.4873046868603
 20
121.4454017405995
 30
0.0
 10
256.3330883323443
 20
121.7725134159614
 30
0.0
  0
LINE
  5
12F
330
1F
100
AcDbEntity
  8
0
  6
HIDDEN
 62
     7
370
     0
100
AcDbLine
 10
120.9182750495
 20
130.7725130285
 30
0.0
 11
120.9182750495
 21
112.7725138034
 31
0.0
  0
LINE
  5
130
330
1F
100
AcDbEntity
  8
0
  6
HIDDEN
 62
     7
370
     0
100
AcDbLine
 10
119.6682753102
 20
111.5225131328
 30
0.0
 11
119.6682753102
 21
132.0225136991
 31
0.0
  0
LINE
  5
131
330
1F
100
AcDbEntity
  8
0
  6
HIDDEN
 62
     7
370
     0
100
AcDbLine
 10
146.6682760106
 20
130.7725130285
 30
0.0
 11
146.6682760106
 21
112.7725138034
 31
0.0
  0
LINE
  5
132
330
1F
100
AcDbEntity
  8
0
  6
HIDDEN
 62
     7
370
     0
100
AcDbLine
 10
149.5223624693
 20
126.0225136469
 30
0.0
 11
149.5223624693
 21
117.522513185
 31
0.0
  0
LWPOLYLINE
  5
133
330
1F
100
AcDbEntity
  8
0
  6
HIDDEN
 62
     7
370
     0
100
AcDbPolyline
 90
       27
 70
   128
 43
0.0
 10
254.8967601792
 20
121.1332606439
 10
255.7297723429
 20
121.2145383873
 10
256.5143780844
 20
121.4900549497
 10
257.2049723999
 20
121.9437982476
 10
257.7614264624
 20
122.5493983769
 10
258.1513898508
 20
123.2716601047
 10
258.3521978991
 20
124.0686081986
 10
258.3521978991
 20
124.8939267065
 10
258.1513898508
 20
125.6996515843
 10
257.7614264624
 20
126.4389563988
 10
257.2049723999
 20
127.0688759799
 10
256.5143780844
 20
127.5528018999
 10
255.7297723429
 20
127.8626091483
 10
254.8967601792
 20
127.9802938628
 10
254.063740565
 20
127.8990159447
 10
253.2791348235
 20
127.6234995279
 10
252.588540508
 20
127.1697563756
 10
252.0320938961
 20
126.5641559552
 10
251.6421305077
 20
125.8418943438
 10
251.4413075583
 20
125.0449464827
 10
251.4413075583
 20
124.219627742
 10
251.6421305077
 20
123.4139029806
 10
252.0320938961
 20
122.6745979333
 10
252.588540508
 20
122.044678323
 10
253.2791348235
 20
121.5607527377
 10
254.063740565
 20
121.250945242
 10
254.8967601792
 20
121.1332606439
  0
ARC
  5
134
330
1F
100
AcDbEntity
  8
0
  6
HIDDEN
 62
     7
370
     0
100
AcDbCircle
 10
249.8351617622
 20
130.1969569008
 30
0.0
 40
2.078318515772096
100
AcDbArc
 50
122.5364276386
 51
287.90236894
  0
LINE
  5
135
330
1F
100
AcDbEntity
  8
0
  6
HIDDEN
 62
     7
370
     0
100
AcDbLine
 10
265.8413427012
 20
134.3791630755
 30
0.0
 11
264.8775951998
 21
132.4727187569
 31
0.0
  0
LINE
  5
136
330
1F
100
AcDbEntity
  8
0
  6
HIDDEN
 62
     7
370
     0
100
AcDbLine
 10
230.6682767408
 20
126.0225136469
 30
0.0
 11
230.6682767408
 21
117.522513185
 31
0.0
  0
SPLINE
  5
137
330
1F
100
AcDbEntity
  8
0
  6
HIDDEN
 62
     7
370
     0
100
AcDbSpline
210
0.0
220
0.0
230
1.0
 70
     8
 71
     3
 72
    60
 73
    56
 74
     0
 42
0.00000001
 43
0.00000001
 12
1.0
 22
0.0
 32
0.0
 13
1.0
 23
0.0
 33
0.0
 40
-0.0312500000000007
 40
-0.0312500000000007
 40
0.0
 40
0.0
 40
0.0312500000000011
 40
0.0312500000000011
 40
0.0625000000000021
 40
0.0625000000000021
 40
0.125000000000002
 40
0.125000000000002
 40
0.1562500000000019
 40
0.1562500000000019
 40
0.1875000000000018
 40
0.1875000000000018
 40
0.2187500000000018
 40
0.2187500000000018
 40
0.2500000000000018
 40
0.2500000000000018
 40
0.3125000000000017
 40
0.3125000000000017
 40
0.3750000000000016
 40
0.3750000000000016
 40
0.4062500000000007
 40
0.4062500000000007
 40
0.4374999999999998
 40
0.4374999999999998
 40
0.4687499999999988
 40
0.4687499999999988
 40
0.4999999999999979
 40
0.4999999999999979
 40
0.531249999999997
 40
0.531249999999997
 40
0.562499999999996
 40
0.562499999999996
 40
0.6249999999999964
 40
0.6249999999999964
 40
0.6562499999999967
 40
0.6562499999999967
 40
0.6874999999999968
 40
0.6874999999999968
 40
0.7187499999999971
 40
0.7187499999999971
 40
0.7499999999999973
 40
0.7499999999999973
 40
0.7812499999999977
 40
0.7812499999999977
 40
0.812499999999998
 40
0.812499999999998
 40
0.8749999999999976
 40
0.8749999999999976
 40
0.9062499999999981
 40
0.9062499999999981
 40
0.9374999999999988
 40
0.9374999999999988
 40
0.9687499999999993
 40
0.9687499999999993
 40
1.0
 40
1.0
 40
1.031250000000001
 40
1.031250000000001
 10
226.8378028472089
 20
119.2725134159614
 30
0.0
 10
226.4987476540678
 20
119.2725134159614
 30
0.0
 10
226.3331498063603
 20
119.2895643805921
 30
0.0
 10
226.0090297296876
 20
119.3553373117542
 30
0.0
 10
225.849219665362
 20
119.4049098138954
 30
0.0
 10
225.3998780628206
 20
119.5938064491827
 30
0.0
 10
225.1301953230453
 20
119.7761447768692
 30
0.0
 10
224.7920105342877
 20
120.1127167067583
 30
0.0
 10
224.6884441006638
 20
120.2375335596391
 30
0.0
 10
224.5079926383639
 20
120.5040207763181
 30
0.0
 10
224.4308706721016
 20
120.6453101490298
 30
0.0
 10
224.3034527872944
 20
120.9453609693698
 30
0.0
 10
224.2529885944933
 20
121.1062609260599
 30
0.0
 10
224.1861471818108
 20
121.4311305493867
 30
0.0
 10
224.1688289802618
 20
121.5963404272566
 30
0.0
 10
224.1672065883284
 20
122.1007357007094
 30
0.0
 10
224.235694558872
 20
122.436196879554
 30
0.0
 10
224.4897448652429
 20
123.0421314379306
 30
0.0
 10
224.6743277645983
 20
123.3137758674356
 30
0.0
 10
225.0116962350214
 20
123.65162892475
 30
0.0
 10
225.1356854039882
 20
123.7541701552746
 30
0.0
 10
225.4018541492057
 20
123.9339880663718
 30
0.0
 10
225.5423908300297
 20
124.0104874037606
 30
0.0
 10
225.8400491653277
 20
124.1368705908075
 30
0.0
 10
225.9995165428702
 20
124.1871356384024
 30
0.0
 10
226.3251339270037
 20
124.2544265325584
 30
0.0
 10
226.4911009093908
 20
124.271975662394
 30
0.0
 10
226.8299341554539
 20
124.2730270965942
 30
0.0
 10
226.9969248342892
 20
124.2563739074286
 30
0.0
 10
227.3225497480799
 20
124.1910870393814
 30
0.0
 10
227.4826809206369
 20
124.1417458304239
 30
0.0
 10
227.9333860799952
 20
123.9532403373584
 30
0.0
 10
228.203644581146
 20
123.7711486302831
 30
0.0
 10
228.5433593100478
 20
123.4336982929081
 30
0.0
 10
228.6473179539232
 20
123.3084811702074
 30
0.0
 10
228.8276270465448
 20
123.0425554566136
 30
0.0
 10
228.9050607551374
 20
122.9010869934897
 30
0.0
 10
229.033309609982
 20
122.5992541202672
 30
0.0
 10
229.0836249008988
 20
122.4384865023946
 30
0.0
 10
229.1503731473902
 20
122.114016147732
 30
0.0
 10
229.1678466565863
 20
121.9482702223817
 30
0.0
 10
229.1686884391167
 20
121.6091685191352
 30
0.0
 10
229.1519283415848
 20
121.4420778464489
 30
0.0
 10
229.0861761980809
 20
121.1156455828905
 30
0.0
 10
229.0363213373073
 20
120.9544026931261
 30
0.0
 10
228.8453565517399
 20
120.50046518495
 30
0.0
 10
228.66006041877
 20
120.2282798979559
 30
0.0
 10
228.3211715179501
 20
119.8901212522407
 30
0.0
 10
228.1959895955469
 20
119.7871270174865
 30
0.0
 10
227.9300544595737
 20
119.6083545727184
 30
0.0
 10
227.7891988761748
 20
119.5319845799821
 30
0.0
 10
227.4895322796906
 20
119.4056640055906
 30
0.0
 10
227.329154097556
 20
119.3557605578979
 30
0.0
 10
227.0044169575073
 20
119.2896795551958
 30
0.0
 10
226.8378028472089
 20
119.2725134159614
 30
0.0
 10
226.4987476540678
 20
119.2725134159614
 30
0.0
  0
SPLINE
  5
138
330
1F
100
AcDbEntity
  8
0
  6
HIDDEN
 62
     7
370
     0
100
AcDbSpline
210
0.0
220
0.0
230
1.0
 70
     8
 71
     3
 72
    60
 73
    56
 74
     0
 42
0.00000001
 43
0.00000001
 12
1.0
 22
0.0
 32
0.0
 13
1.0
 23
0.0
 33
0.0
 40
-0.0312499999999988
 40
-0.0312499999999988
 40
0.0
 40
0.0
 40
0.0312499999999996
 40
0.0312499999999996
 40
0.0624999999999992
 40
0.0624999999999992
 40
0.1249999999999985
 40
0.1249999999999985
 40
0.156249999999999
 40
0.156249999999999
 40
0.1874999999999995
 40
0.1874999999999995
 40
0.2187500000000001
 40
0.2187500000000001
 40
0.2500000000000006
 40
0.2500000000000006
 40
0.3125000000000016
 40
0.3125000000000016
 40
0.3750000000000026
 40
0.3750000000000026
 40
0.4062500000000031
 40
0.4062500000000031
 40
0.4375000000000036
 40
0.4375000000000036
 40
0.4687500000000041
 40
0.4687500000000041
 40
0.5000000000000047
 40
0.5000000000000047
 40
0.5312500000000052
 40
0.5312500000000052
 40
0.5625000000000057
 40
0.5625000000000057
 40
0.6250000000000043
 40
0.6250000000000043
 40
0.6562500000000046
 40
0.6562500000000046
 40
0.6875000000000047
 40
0.6875000000000047
 40
0.7187500000000049
 40
0.7187500000000049
 40
0.750000000000005
 40
0.750000000000005
 40
0.7812500000000052
 40
0.7812500000000052
 40
0.8125000000000054
 40
0.8125000000000054
 40
0.8750000000000048
 40
0.8750000000000048
 40
0.9062500000000036
 40
0.9062500000000036
 40
0.9375000000000024
 40
0.9375000000000024
 40
0.9687500000000012
 40
0.9687500000000012
 40
1.0
 40
1.0
 40
1.03125
 40
1.03125
 10
226.4987476540678
 20
119.2725134159614
 30
0.0
 10
226.8378028472089
 20
119.2725134159614
 30
0.0
 10
227.0034006949165
 20
119.2895643805921
 30
0.0
 10
227.3275207715891
 20
119.3553373117542
 30
0.0
 10
227.4873308359147
 20
119.4049098138954
 30
0.0
 10
227.9366724384562
 20
119.5938064491827
 30
0.0
 10
228.2063551782316
 20
119.7761447768692
 30
0.0
 10
228.5445399669891
 20
120.1127167067583
 30
0.0
 10
228.648106400613
 20
120.2375335596391
 30
0.0
 10
228.8285578629129
 20
120.5040207763181
 30
0.0
 10
228.9056798291753
 20
120.6453101490298
 30
0.0
 10
229.0330977139824
 20
120.9453609693698
 30
0.0
 10
229.0835619067835
 20
121.1062609260599
 30
0.0
 10
229.150403319466
 20
121.4311305493867
 30
0.0
 10
229.167721521015
 20
121.5963404272566
 30
0.0
 10
229.1693439129484
 20
122.1007357007094
 30
0.0
 10
229.1008559424048
 20
122.4361968795541
 30
0.0
 10
228.8468056360339
 20
123.0421314379306
 30
0.0
 10
228.6622227366785
 20
123.3137758674356
 30
0.0
 10
228.3248542662554
 20
123.6516289247501
 30
0.0
 10
228.2008650972886
 20
123.7541701552746
 30
0.0
 10
227.9346963520711
 20
123.9339880663718
 30
0.0
 10
227.7941596712471
 20
124.0104874037606
 30
0.0
 10
227.4965013359491
 20
124.1368705908075
 30
0.0
 10
227.3370339584066
 20
124.1871356384024
 30
0.0
 10
227.011416574273
 20
124.2544265325584
 30
0.0
 10
226.845449591886
 20
124.271975662394
 30
0.0
 10
226.5066163458229
 20
124.2730270965942
 30
0.0
 10
226.3396256669877
 20
124.2563739074286
 30
0.0
 10
226.0140007531969
 20
124.1910870393814
 30
0.0
 10
225.8538695806399
 20
124.1417458304239
 30
0.0
 10
225.4031644212816
 20
123.9532403373584
 30
0.0
 10
225.1329059201309
 20
123.7711486302831
 30
0.0
 10
224.793191191229
 20
123.4336982929081
 30
0.0
 10
224.6892325473536
 20
123.3084811702074
 30
0.0
 10
224.508923454732
 20
123.0425554566136
 30
0.0
 10
224.4314897461395
 20
122.9010869934897
 30
0.0
 10
224.3032408912948
 20
122.5992541202672
 30
0.0
 10
224.2529256003781
 20
122.4384865023946
 30
0.0
 10
224.1861773538866
 20
122.114016147732
 30
0.0
 10
224.1687038446904
 20
121.9482702223817
 30
0.0
 10
224.1678620621601
 20
121.6091685191352
 30
0.0
 10
224.184622159692
 20
121.4420778464489
 30
0.0
 10
224.2503743031959
 20
121.1156455828905
 30
0.0
 10
224.3002291639694
 20
120.9544026931262
 30
0.0
 10
224.491193949537
 20
120.50046518495
 30
0.0
 10
224.6764900825068
 20
120.228279897956
 30
0.0
 10
225.0153789833267
 20
119.8901212522407
 30
0.0
 10
225.1405609057299
 20
119.7871270174865
 30
0.0
 10
225.4064960417032
 20
119.6083545727184
 30
0.0
 10
225.5473516251019
 20
119.5319845799821
 30
0.0
 10
225.8470182215862
 20
119.4056640055906
 30
0.0
 10
226.0073964037208
 20
119.3557605578979
 30
0.0
 10
226.3321335437694
 20
119.2896795551958
 30
0.0
 10
226.4987476540678
 20
119.2725134159614
 30
0.0
 10
226.8378028472089
 20
119.2725134159614
 30
0.0
  0
SPLINE
  5
139
330
1F
100
AcDbEntity
  8
0
  6
HIDDEN
 62
     7
370
     0
100
AcDbSpline
210
0.0
220
0.0
230
1.0
 70
     8
 71
     3
 72
    34
 73
    30
 74
     0
 42
0.00000001
 43
0.00000001
 12
1.0
 22
0.0
 32
0.0
 13
1.0
 23
0.0
 33
0.0
 40
0.0
 40
0.0
 40
0.0
 40
0.0
 40
0.1249999999999991
 40
0.1249999999999991
 40
0.2499999999999982
 40
0.2499999999999982
 40
0.3124999999999984
 40
0.3124999999999984
 40
0.3749999999999986
 40
0.3749999999999986
 40
0.4374999999999988
 40
0.4374999999999988
 40
0.4687500000000002
 40
0.4687500000000002
 40
0.5000000000000017
 40
0.5000000000000017
 40
0.5312500000000031
 40
0.5312500000000031
 40
0.5625000000000046
 40
0.5625000000000046
 40
0.6250000000000039
 40
0.6250000000000039
 40
0.6875000000000032
 40
0.6875000000000032
 40
0.7500000000000024
 40
0.7500000000000024
 40
0.8750000000000012
 40
0.8750000000000012
 40
1.0
 40
1.0
 40
1.0
 40
1.0
 10
253.1635993784221
 20
127.1853353189681
 30
0.0
 10
253.2223802509749
 20
127.3016125609773
 30
0.0
 10
253.3466682788667
 20
127.4319324644782
 30
0.0
 10
253.6742808812975
 20
127.6973503296028
 30
0.0
 10
253.8803240467144
 20
127.8335056620201
 30
0.0
 10
254.2498620945483
 20
128.0177594769289
 30
0.0
 10
254.3834916551426
 20
128.0759788090306
 30
0.0
 10
254.6786643610075
 20
128.1799899140842
 30
0.0
 10
254.8404645460253
 20
128.2261207890428
 30
0.0
 10
255.2023602232027
 20
128.2913531286959
 30
0.0
 10
255.4013262523773
 20
128.3116924770631
 30
0.0
 10
255.7488041944047
 20
128.2928874174686
 30
0.0
 10
255.8714060172956
 20
128.2780666918212
 30
0.0
 10
256.1317746375375
 20
128.2207011074823
 30
0.0
 10
256.2644053732204
 20
128.1787722613586
 30
0.0
 10
256.5228356937106
 20
128.0661760500888
 30
0.0
 10
256.6434407582041
 20
127.9974512887125
 30
0.0
 10
256.8542333461983
 20
127.8515628408632
 30
0.0
 10
256.9460632054195
 20
127.7739243331022
 30
0.0
 10
257.1851422061015
 20
127.5423492782434
 30
0.0
 10
257.3006996568532
 20
127.3878467370881
 30
0.0
 10
257.4867933116832
 20
127.0920382447665
 30
0.0
 10
257.5566599394576
 20
126.9502682944586
 30
0.0
 10
257.6703894365853
 20
126.676102225546
 30
0.0
 10
257.7137685397378
 20
126.5437525792272
 30
0.0
 10
257.8153095269765
 20
126.1612668317048
 30
0.0
 10
257.8445010703451
 20
125.9308132355198
 30
0.0
 10
257.8508452487315
 20
125.5299284097927
 30
0.0
 10
257.8285154113768
 20
125.3583096943003
 30
0.0
 10
257.7699757874963
 20
125.2425096777731
 30
0.0
  0
ELLIPSE
  5
13A
330
1F
100
AcDbEntity
  8
0
  6
HIDDEN
 62
     7
370
     0
100
AcDbEllipse
 10
257.5510479437
 20
130.954439463
 30
0.0
 11
3.434281587992701
 21
1.718550178042136
 31
0.0
210
0.0
220
0.0
230
1.0
 40
0.1647216549
 41
6.064908987714925
 42
9.206501641304888
  0
LINE
  5
13B
330
1F
100
AcDbEntity
  8
0
  6
HIDDEN
 62
     7
370
     0
100
AcDbLine
 10
256.0357974903
 20
144.1514945294
 30
0.0
 11
255.0720425384
 21
142.2450511421
 31
0.0
  0
LINE
  5
13C
330
1F
100
AcDbEntity
  8
0
  6
HIDDEN
 62
     7
370
     0
100
AcDbLine
 10
252.7254300253
 20
126.3185782994
 30
0.0
 11
253.1635986702
 21
127.1853355396
 31
0.0
  0
ELLIPSE
  5
13D
330
1F
100
AcDbEntity
  8
0
  6
HIDDEN
 62
     7
370
     0
100
AcDbEllipse
 10
254.0023279849
 20
122.7874632768
 30
0.0
 11
3.809839114181614
 21
-1.769635718921307
 31
0.0
210
0.0
220
0.0
230
1.0
 40
0.816602865
 41
0.9769531800217558
 42
2.252077021260147
  0
LINE
  5
13E
330
1F
100
AcDbEntity
  8
0
  6
HIDDEN
 62
     7
370
     0
100
AcDbLine
 10
257.7699797289
 20
125.2425095703
 30
0.0
 11
257.331811084
 21
124.375752563
 31
0.0
  0
ELLIPSE
  5
13F
330
1F
100
AcDbEntity
  8
0
  6
HIDDEN
 62
     7
370
     0
100
AcDbEllipse
 10
252.5160918213
 20
119.8474687756
 30
0.0
 11
1.947843959788543
 21
3.853122855659095
 31
0.0
210
0.0
220
0.0
230
1.0
 40
0.9727892058
 41
5.634323124054756
 42
7.846127793565818
  0
LWPOLYLINE
  5
140
330
1F
100
AcDbEntity
  8
0
  6
HIDDEN
 62
     7
370
     0
100
AcDbPolyline
 90
       29
 70
   128
 43
0.0
 10
254.8701243536
 20
120.3958759255
 10
255.7995991842
 20
120.4785665435
 10
256.6824482815
 20
120.763113879
 10
257.4744449989
 20
121.2352497208
 10
258.1358330385
 20
121.8712991798
 10
258.6334722178
 20
122.6393680375
 10
258.9423881905
 20
123.5009421765
 10
259.0471135513
 20
124.4128185029
 10
258.9423881905
 20
125.329272047
 10
258.6334722178
 20
126.2043478604
 10
258.1358330385
 20
126.9941657487
 10
257.4744449989
 20
127.6591212194
 10
256.6824482815
 20
128.165870596
 10
255.7995991842
 20
128.4890032078
 10
254.8701243536
 20
128.6123159046
 10
253.9406569736
 20
128.5296251702
 10
253.0578004257
 20
128.2450777183
 10
252.2658111589
 20
127.7729418765
 10
251.6044231193
 20
127.1368923302
 10
251.10678394
 20
126.368823618
 10
250.7978605168
 20
125.5072496536
 10
250.6931351559
 20
124.5953730944
 10
250.7978605168
 20
123.6789196667
 10
251.10678394
 20
122.8038440862
 10
251.6044231193
 20
122.0140261106
 10
252.2658111589
 20
121.349070669
 10
253.0578004257
 20
120.8423213505
 10
253.9406569736
 20
120.5191887387
 10
254.8701243536
 20
120.3958759255
  0
LINE
  5
141
330
1F
100
AcDbEntity
  8
0
  6
HIDDEN
 62
     7
370
     0
100
AcDbLine
 10
257.331811084
 20
124.375752563
 30
0.0
 11
259.0098159449
 21
128.5609138834
 31
0.0
  0
LINE
  5
142
330
1F
100
AcDbEntity
  8
0
  6
HIDDEN
 62
     7
370
     0
100
AcDbLine
 10
261.8277149336
 20
134.8740744109
 30
0.0
 11
261.5038679974
 21
134.2334539334
 31
0.0
  0
LINE
  5
143
330
1F
100
AcDbEntity
  8
0
  6
HIDDEN
 62
     7
370
     0
100
AcDbLine
 10
260.256596102
 20
131.108114187
 30
0.0
 11
261.8277149336
 21
134.8740744109
 31
0.0
  0
LINE
  5
144
330
1F
100
AcDbEntity
  8
0
  6
HIDDEN
 62
     7
370
     0
100
AcDbLine
 10
260.9651463167
 20
132.5097108896
 30
0.0
 11
260.256596102
 21
131.108114187
 31
0.0
  0
ARC
  5
145
330
1F
100
AcDbEntity
  8
0
  6
HIDDEN
 62
     7
370
     0
100
AcDbCircle
 10
260.2815197639
 20
137.6403004797
 30
0.0
 40
3.169026059520106
100
AcDbArc
 50
299.2032144746
 51
195.0598352161
  0
LINE
  5
146
330
1F
100
AcDbEntity
  8
0
  6
HIDDEN
 62
     7
370
     0
100
AcDbLine
 10
257.2213338749
 20
136.8168999146
 30
0.0
 11
254.0785895722
 21
129.2837133336
 31
0.0
  0
LINE
  5
147
330
1F
100
AcDbEntity
  8
0
  6
HIDDEN
 62
     7
370
     0
100
AcDbLine
 10
256.1794893877
 20
142.5454026724
 30
0.0
 11
268.6529981033
 21
146.2288933511
 31
0.0
  0
LINE
  5
148
330
1F
100
AcDbEntity
  8
0
  6
HIDDEN
 62
     7
370
     0
100
AcDbLine
 10
269.0449284451
 20
145.6822591539
 30
0.0
 11
268.6529981033
 21
146.2288933511
 31
0.0
  0
ARC
  5
149
330
1F
100
AcDbEntity
  8
0
  6
HIDDEN
 62
     7
370
     0
100
AcDbCircle
 10
248.8889959517
 20
167.2348364009
 30
0.0
 40
25.7433376307456
100
AcDbArc
 50
283.8971912981
 51
286.4512380201
  0
LINE
  5
14A
330
1F
100
AcDbEntity
  8
0
  6
HIDDEN
 62
     7
370
     0
100
AcDbLine
 10
255.0720425384
 20
142.2450511421
 30
0.0
 11
252.1666737334
 21
133.0356501679
 31
0.0
  0
LINE
  5
14B
330
1F
100
AcDbEntity
  8
0
  6
HIDDEN
 62
     7
370
     0
100
AcDbLine
 10
250.4740284817
 20
128.2192670445
 30
0.0
 11
254.0785895722
 21
129.2837133336
 31
0.0
  0
LINE
  5
14C
330
1F
100
AcDbEntity
  8
0
  6
HIDDEN
 62
     7
370
     0
100
AcDbLine
 10
260.256596102
 20
131.108114187
 30
0.0
 11
264.8775951998
 21
132.4727187569
 31
0.0
  0
LINE
  5
14D
330
1F
100
AcDbEntity
  8
0
  6
HIDDEN
 62
     7
370
     0
100
AcDbLine
 10
264.8775951998
 20
132.4727187569
 30
0.0
 11
269.0449284451
 21
145.6822591539
 31
0.0
  0
LINE
  5
14E
330
1F
100
AcDbEntity
  8
0
  6
HIDDEN
 62
     7
370
     0
100
AcDbLine
 10
254.0785895722
 20
129.2837133336
 30
0.0
 11
254.1369574206
 21
129.3991675305
 31
0.0
  0
LINE
  5
14F
330
1F
100
AcDbEntity
  8
0
  6
HIDDEN
 62
     7
370
     0
100
AcDbLine
 10
128.4682752626
 20
106.237592798
 30
0.0
 11
128.4682752626
 21
99.7524137314
 31
0.0
  0
SPLINE
  5
150
330
1F
100
AcDbEntity
  8
0
  6
HIDDEN
 62
     7
370
     0
100
AcDbSpline
210
0.0
220
0.0
230
1.0
 70
     8
 71
     3
 72
    16
 73
    12
 74
     0
 42
0.00000001
 43
0.00000001
 12
1.0
 22
0.0
 32
0.0
 13
1.0
 23
0.0
 33
0.0
 40
0.0
 40
0.0
 40
0.0
 40
0.0
 40
0.25
 40
0.25
 40
0.375
 40
0.375
 40
0.5
 40
0.5
 40
0.75
 40
0.75
 40
1.0
 40
1.0
 40
1.0
 40
1.0
 10
129.3469549070787
 20
105.1886067897205
 30
0.0
 10
129.1857224295943
 20
104.4742126275283
 30
0.0
 10
129.0652425899546
 20
103.8208703648196
 30
0.0
 10
128.9428620726413
 20
102.9326151230157
 30
0.0
 10
128.9118844122439
 20
102.6519345866639
 30
0.0
 10
128.8702706746159
 20
102.1229005968239
 30
0.0
 10
128.8600347616831
 20
101.8795796182455
 30
0.0
 10
128.859846364627
 20
101.2115569277322
 30
0.0
 10
128.8999910672646
 20
100.8478760183127
 30
0.0
 10
129.0641448222042
 20
100.2879851457644
 30
0.0
 10
129.1856964726137
 20
100.1004638536473
 30
0.0
 10
129.3469549070787
 20
100.0024324609593
 30
0.0
  0
LINE
  5
151
330
1F
100
AcDbEntity
  8
0
  6
HIDDEN
 62
     7
370
     0
100
AcDbLine
 10
94.1682757871
 20
142.9308770861
 30
0.0
 11
94.1682757871
 21
136.8765660267
 31
0.0
  0
LINE
  5
152
330
1F
100
AcDbEntity
  8
0
  6
HIDDEN
 62
     7
370
     0
100
AcDbLine
 10
92.6682764725
 20
142.0648513998
 30
0.0
 11
92.6682764725
 21
136.4435531835
 31
0.0
  0
LINE
  5
153
330
1F
100
AcDbEntity
  8
0
  6
HIDDEN
 62
     7
370
     0
100
AcDbLine
 10
94.1682757871
 20
106.6684608053
 30
0.0
 11
94.1682757871
 21
100.6141497459
 31
0.0
  0
SPLINE
  5
154
330
1F
100
AcDbEntity
  8
0
  6
HIDDEN
 62
     7
370
     0
100
AcDbSpline
210
0.0
220
0.0
230
1.0
 70
     8
 71
     3
 72
    16
 73
    12
 74
     0
 42
0.00000001
 43
0.00000001
 12
1.0
 22
0.0
 32
0.0
 13
1.0
 23
0.0
 33
0.0
 40
0.0
 40
0.0
 40
0.0
 40
0.0
 40
0.2500000000000002
 40
0.2500000000000002
 40
0.3750000000000003
 40
0.3750000000000003
 40
0.5000000000000004
 40
0.5000000000000004
 40
0.7500000000000002
 40
0.7500000000000002
 40
1.0
 40
1.0
 40
1.0
 40
1.0
 10
129.3469549070787
 20
143.5425943709636
 30
0.0
 10
129.1857224295943
 20
143.4445787579089
 30
0.0
 10
129.0652425899546
 20
143.2578427262328
 30
0.0
 10
128.9428620726413
 20
142.8448029186739
 30
0.0
 10
128.9118844122439
 20
142.684802419441
 30
0.0
 10
128.8702706746159
 20
142.3179967683498
 30
0.0
 10
128.8600347616831
 20
142.1146596157258
 30
0.0
 10
128.859846364627
 20
141.4473723490991
 30
0.0
 10
128.8999910672646
 20
140.9265578852111
 30
0.0
 10
129.0641448222042
 20
139.7291988697334
 30
0.0
 10
129.1856964726137
 20
139.0709292154374
 30
0.0
 10
129.3469549070787
 20
138.3564200422024
 30
0.0
  0
LINE
  5
155
330
1F
100
AcDbEntity
  8
0
  6
HIDDEN
 62
     7
370
     0
100
AcDbLine
 10
128.4682752626
 20
143.7926131006
 30
0.0
 11
128.4682752626
 21
137.3074340339
 31
0.0
  0
LINE
  5
156
330
1F
100
AcDbEntity
  8
0
  6
HIDDEN
 62
     7
370
     0
100
AcDbLine
 10
92.6682764725
 20
107.1014736484
 30
0.0
 11
92.6682764725
 21
101.4801754321
 31
0.0
  0
SPLINE
  5
157
330
1F
100
AcDbEntity
  8
0
  6
HIDDEN
 62
     7
370
     0
100
AcDbSpline
210
0.0
220
0.0
230
1.0
 70
     8
 71
     3
 72
    12
 73
     8
 74
     0
 42
0.00000001
 43
0.00000001
 12
1.0
 22
0.0
 32
0.0
 13
1.0
 23
0.0
 33
0.0
 40
0.0
 40
0.0
 40
0.0
 40
0.0
 40
0.500000000000001
 40
0.500000000000001
 40
0.7500000000000004
 40
0.7500000000000004
 40
1.0
 40
1.0
 40
1.0
 40
1.0
 10
260.5948664347239
 20
133.3372082683395
 30
0.0
 10
260.8156056433081
 20
133.4938129344722
 30
0.0
 10
261.004754657603
 20
133.6569073285366
 30
0.0
 10
261.2399618847612
 20
133.8908578205037
 30
0.0
 10
261.3100410753162
 20
133.9670389216662
 30
0.0
 10
261.4277459515747
 20
134.1102150059517
 30
0.0
 10
261.4752799611276
 20
134.1769153695092
 30
0.0
 10
261.5038613438905
 20
134.2334535632471
 30
0.0
  0
ARC
  5
158
330
1F
100
AcDbEntity
  8
0
  6
HIDDEN
 62
     7
370
     0
100
AcDbCircle
 10
259.6315846072
 20
136.3536153496
 30
0.0
 40
3.166484294661343
100
AcDbArc
 50
287.7107666884
 51
206.5522918136
  0
SPLINE
  5
159
330
1F
100
AcDbEntity
  8
0
  6
HIDDEN
 62
     7
370
     0
100
AcDbSpline
210
0.0
220
0.0
230
1.0
 70
     8
 71
     3
 72
    12
 73
     8
 74
     0
 42
0.00000001
 43
0.00000001
 12
1.0
 22
0.0
 32
0.0
 13
1.0
 23
0.0
 33
0.0
 40
0.0
 40
0.0
 40
0.0
 40
0.0
 40
0.2500000000000006
 40
0.2500000000000006
 40
0.5000000000000011
 40
0.5000000000000011
 40
1.0
 40
1.0
 40
1.0
 40
1.0
 10
256.8974849348164
 20
136.1762792044422
 30
0.0
 10
256.8690141661276
 20
136.1199598216695
 30
0.0
 10
256.8466180155351
 20
136.0433265291753
 30
0.0
 10
256.8106106295819
 20
135.8661299282861
 30
0.0
 10
256.7972070668631
 20
135.7655506434467
 30
0.0
 10
256.7710848246333
 20
135.4428569814963
 30
0.0
 10
256.7716125861419
 20
135.1995028619935
 30
0.0
 10
256.7990817036713
 20
134.9381516670202
 30
0.0
  0
LINE
  5
15A
330
1F
100
AcDbEntity
  8
0
  6
HIDDEN
 62
     7
370
     0
100
AcDbLine
 10
256.8974869387
 20
136.1762794371
 30
0.0
 11
257.2213338749
 21
136.8168999146
 31
0.0
  0
ELLIPSE
  5
15B
330
1F
100
AcDbEntity
  8
0
  6
HIDDEN
 62
     7
370
     0
100
AcDbEllipse
 10
258.0569865787
 20
132.6036244061
 30
0.0
 11
1.101654435681496
 21
2.719284888726094
 31
0.0
210
0.0
220
0.0
230
1.0
 40
0.8519509261
 41
5.302591628140116
 42
7.239561653762255
  0
LWPOLYLINE
  5
15C
330
1F
100
AcDbEntity
  8
0
  6
HIDDEN
 62
     7
370
     0
100
AcDbPolyline
 90
       12
 70
   128
 43
0.0
 10
254.4034423368
 20
130.5037398528
 10
254.6743081944
 20
130.9072632979
 10
255.109816982
 20
131.1993977691
 10
255.67468275
 20
131.3564755659
 10
256.3231663839
 20
131.3657720278
 10
257.0027040379
 20
131.226533715
 10
257.6582657234
 20
130.9500408064
 10
258.2367138998
 20
130.5586934726
 10
258.6912291186
 20
130.0841957967
 10
258.9849459068
 20
129.5649885836
 10
259.0940969126
 20
129.0431354831
 10
259.0098159449
 20
128.5609138834
  0
SPLINE
  5
15D
330
1F
100
AcDbEntity
  8
0
  6
HIDDEN
 62
     7
370
     0
100
AcDbSpline
210
0.0
220
0.0
230
1.0
 70
     8
 71
     3
 72
    11
 73
     7
 74
     0
 42
0.00000001
 43
0.00000001
 12
1.0
 22
0.0
 32
0.0
 13
1.0
 23
0.0
 33
0.0
 40
0.0
 40
0.0
 40
0.0
 40
0.0
 40
0.2473023763123923
 40
0.4963495556446091
 40
0.7472223951397747
 40
1.0
 40
1.0
 40
1.0
 40
1.0
 10
268.6529907010477
 20
146.228893759174
 30
0.0
 10
268.6093723818095
 20
146.1819349684484
 30
0.0
 10
268.5218280011424
 20
146.0876860766349
 30
0.0
 10
268.3772848415352
 20
145.9423660445011
 30
0.0
 10
268.2233107410683
 20
145.7937615851819
 30
0.0
 10
268.1120805761793
 20
145.6921847245364
 30
0.0
 10
268.0562551619779
 20
145.6412042164659
 30
0.0
  0
SPLINE
  5
15E
330
1F
100
AcDbEntity
  8
0
  6
HIDDEN
 62
     7
370
     0
100
AcDbSpline
210
0.0
220
0.0
230
1.0
 70
     8
 71
     3
 72
    21
 73
    17
 74
     0
 42
0.00000001
 43
0.00000001
 12
1.0
 22
0.0
 32
0.0
 13
1.0
 23
0.0
 33
0.0
 40
0.0
 40
0.0
 40
0.0
 40
0.0
 40
0.0722469213901372
 40
0.1442536466934098
 40
0.2160482427276348
 40
0.2876590257341337
 40
0.3591145304777068
 40
0.4304434780781164
 40
0.5016747427424118
 40
0.5728373175822548
 40
0.6439602797131069
 40
0.7150727548420582
 40
0.7862038815583846
 40
0.8573827755450908
 40
0.9286384939308907
 40
1.0
 40
1.0
 40
1.0
 40
1.0
 10
267.7164105916132
 20
142.3317121300106
 30
0.0
 10
267.7540522611271
 20
142.4312528377624
 30
0.0
 10
267.829210454591
 20
142.6300033147564
 30
0.0
 10
267.9388431642812
 20
142.9177268214659
 30
0.0
 10
268.0459387150957
 20
143.1971328976082
 30
0.0
 10
268.1502917867271
 20
143.4675227631363
 30
0.0
 10
268.2519570812777
 20
143.7290826380816
 30
0.0
 10
268.3509198871899
 20
143.9817624959457
 30
0.0
 10
268.4471841431131
 20
144.22557576796
 30
0.0
 10
268.5407483912761
 20
144.4605175936887
 30
0.0
 10
268.631614182073
 20
144.6865930724025
 30
0.0
 10
268.7197764480295
 20
144.9037858193066
 30
0.0
 10
268.8052536187773
 20
145.1121555397688
 30
0.0
 10
268.8879767260099
 20
145.3114789760249
 30
0.0
 10
268.9682033348376
 20
145.5025900537281
 30
0.0
 10
269.0193363625054
 20
145.6223383257275
 30
0.0
 10
269.0449218405442
 20
145.6822568739373
 30
0.0
  0
LINE
  5
15F
330
1F
100
AcDbEntity
  8
0
  6
HIDDEN
 62
     7
370
     0
100
AcDbLine
 10
254.4034423368
 20
130.5037398528
 30
0.0
 11
252.7254300253
 21
126.3185782994
 31
0.0
  0
SPLINE
  5
160
330
1F
100
AcDbEntity
  8
0
  6
HIDDEN
 62
     7
370
     0
100
AcDbSpline
210
0.0
220
0.0
230
1.0
 70
     8
 71
     3
 72
    20
 73
    16
 74
     0
 42
0.00000001
 43
0.00000001
 12
1.0
 22
0.0
 32
0.0
 13
1.0
 23
0.0
 33
0.0
 40
0.0
 40
0.0
 40
0.0
 40
0.0
 40
0.0905684022822992
 40
0.1788625222599174
 40
0.2648823713644778
 40
0.3486279627710376
 40
0.4300993115710482
 40
0.5092964349700113
 40
0.5862193525145093
 40
0.6608680863536941
 40
0.733242661541907
 40
0.8033431063903872
 40
0.8711694528778726
 40
0.9367217371324547
 40
1.0
 40
1.0
 40
1.0
 40
1.0
 10
268.0562551619778
 20
145.6412042164658
 30
0.0
 10
268.0454958186258
 20
145.556428781792
 30
0.0
 10
268.0242473120683
 20
145.389006726314
 30
0.0
 10
267.9930380858364
 20
145.1298662751513
 30
0.0
 10
267.9628310035762
 20
144.8698150892216
 30
0.0
 10
267.9336432355352
 20
144.6088176078462
 30
0.0
 10
267.9054703467961
 20
144.3478118431431
 30
0.0
 10
267.8783134460618
 20
144.0874440504304
 30
0.0
 10
267.8521722772604
 20
143.8283940479655
 30
0.0
 10
267.8270467062584
 20
143.5712955801619
 30
0.0
 10
267.8029373712126
 20
143.3167454178177
 30
0.0
 10
267.7798418369877
 20
143.0653448906289
 30
0.0
 10
267.757768662372
 20
142.8175370162175
 30
0.0
 10
267.7366873435428
 20
142.5741928606601
 30
0.0
 10
267.7231269536617
 20
142.4115502737464
 30
0.0
 10
267.7164664376999
 20
142.3316644035232
 30
0.0
  0
ELLIPSE
  5
161
330
1F
100
AcDbEntity
  8
0
  6
HIDDEN
 62
     7
370
     0
100
AcDbEllipse
 10
210.3763756245
 20
128.772513416
 30
0.0
 11
62.39078444610026
 21
19.74575069221077
 31
0.0
210
0.0
220
0.0
230
1.0
 40
0.0509512444
 41
5.495921170328371
 42
5.875654884610634
  0
SPLINE
  5
162
330
1F
100
AcDbEntity
  8
0
  6
HIDDEN
 62
     7
370
     0
100
AcDbSpline
210
0.0
220
0.0
230
1.0
 70
     8
 71
     3
 72
    10
 73
     6
 74
     0
 42
0.00000001
 43
0.00000001
 12
1.0
 22
0.0
 32
0.0
 13
1.0
 23
0.0
 33
0.0
 40
0.0
 40
0.0
 40
0.0
 40
0.0
 40
0.5
 40
0.5
 40
1.0
 40
1.0
 40
1.0
 40
1.0
 10
255.1236501169287
 20
140.456786173526
 30
0.0
 10
254.2072041709719
 20
140.1147293795459
 30
0.0
 10
253.2700955755646
 20
139.8282936663574
 30
0.0
 10
251.3569081538183
 20
139.3722288896278
 30
0.0
 10
250.3808442200497
 20
139.2024910857846
 30
0.0
 10
249.3848588021765
 20
139.0960760894225
 30
0.0
  0
ELLIPSE
  5
163
330
1F
100
AcDbEntity
  8
0
  6
HIDDEN
 62
     7
370
     0
100
AcDbEllipse
 10
263.8748349385
 20
128.772513416
 30
0.0
 11
6.507028105114898
 21
19.99872433733779
 31
0.0
210
0.0
220
0.0
230
1.0
 40
0.0347142918
 41
0.8371099826737485
 42
1.58209091055589
  0
CIRCLE
  5
164
330
1F
100
AcDbEntity
  8
0
  6
HIDDEN
 62
     7
370
     0
100
AcDbCircle
 10
226.6682752506
 20
121.772513416
 30
0.0
 40
2.5
  0
CIRCLE
  5
165
330
1F
100
AcDbEntity
  8
0
  6
HIDDEN
 62
     7
370
     0
100
AcDbCircle
 10
226.6682752506
 20
121.772513416
 30
0.0
 40
3.0
  0
LINE
  5
166
330
1F
100
AcDbEntity
  8
0
  6
HIDDEN
 62
     7
370
     0
100
AcDbLine
 10
92.6682764725
 20
118.8705260105
 30
0.0
 11
92.6682764725
 21
107.1014736484
 31
0.0
  0
LINE
  5
167
330
1F
100
AcDbEntity
  8
0
  6
HIDDEN
 62
     7
370
     0
100
AcDbLine
 10
92.6682764725
 20
136.4435531835
 30
0.0
 11
92.6682764725
 21
124.6745008215
 31
0.0
  0
LINE
  5
168
330
1F
100
AcDbEntity
  8
0
  6
HIDDEN
 62
     7
370
     0
100
AcDbLine
 10
94.1682757871
 20
136.8765660267
 30
0.0
 11
94.1682757871
 21
125.7377245168
 31
0.0
  0
LINE
  5
169
330
1F
100
AcDbEntity
  8
0
  6
HIDDEN
 62
     7
370
     0
100
AcDbLine
 10
94.1682757871
 20
117.8073023151
 30
0.0
 11
94.1682757871
 21
106.6684608053
 31
0.0
  0
LINE
  5
16A
330
1F
100
AcDbEntity
  8
0
  6
HIDDEN
 62
     7
370
     0
100
AcDbLine
 10
130.4682752557
 20
136.8102204691
 30
0.0
 11
130.4682752557
 21
106.7348063628
 31
0.0
  0
LINE
  5
16B
330
1F
100
AcDbEntity
  8
0
  6
HIDDEN
 62
     7
370
     0
100
AcDbLine
 10
128.4682752626
 20
137.3074340339
 30
0.0
 11
128.4682752626
 21
106.237592798
 31
0.0
  0
SPLINE
  5
16C
330
1F
100
AcDbEntity
  8
0
  6
HIDDEN
 62
     7
370
     0
100
AcDbSpline
210
0.0
220
0.0
230
1.0
 70
     8
 71
     3
 72
    24
 73
    20
 74
     0
 42
0.00000001
 43
0.00000001
 12
1.0
 22
0.0
 32
0.0
 13
1.0
 23
0.0
 33
0.0
 40
0.0
 40
0.0
 40
0.0
 40
0.0
 40
0.125
 40
0.125
 40
0.2500000000000001
 40
0.2500000000000001
 40
0.3749999999999999
 40
0.3749999999999999
 40
0.4375
 40
0.4375
 40
0.5
 40
0.5
 40
0.625
 40
0.625
 40
0.75
 40
0.75
 40
0.8750000000000001
 40
0.8750000000000001
 40
1.0
 40
1.0
 40
1.0
 40
1.0
 10
99.11827525063832
 20
117.6865523628622
 30
0.0
 10
99.35607888291342
 20
117.9855594651924
 30
0.0
 10
99.58616454412471
 20
118.2898973165111
 30
0.0
 10
100.0209179427345
 20
118.915630853907
 30
0.0
 10
100.2258507350207
 20
119.2368555812346
 30
0.0
 10
100.5909526855194
 20
119.9087813519673
 30
0.0
 10
100.7527530713109
 20
120.2640965838462
 30
0.0
 10
100.9246132758906
 20
120.8143278051986
 30
0.0
 10
100.9701984675507
 20
121.0007315901791
 30
0.0
 10
101.0326732071256
 20
121.3808660922754
 30
0.0
 10
101.049344352874
 20
121.5765358845612
 30
0.0
 10
101.0498653960505
 20
122.1550162632357
 30
0.0
 10
100.9854230951639
 20
122.5329281022044
 30
0.0
 10
100.7555740017905
 20
123.2748961273029
 30
0.0
 10
100.5970533241274
 20
123.6236115874638
 30
0.0
 10
100.2328189942273
 20
124.296703985197
 30
0.0
 10
100.0260827541637
 20
124.6216564724386
 30
0.0
 10
99.58814480842331
 20
125.2525802829004
 30
0.0
 10
99.35687208114378
 20
125.558470023241
 30
0.0
 10
99.11827525063845
 20
125.8584744690605
 30
0.0
  0
LINE
  5
16D
330
1F
100
AcDbEntity
  8
0
  6
HIDDEN
 62
     7
370
     0
100
AcDbLine
 10
99.1182738976
 20
117.6865521523
 30
0.0
 11
99.1182738976
 21
125.8584746796
 31
0.0
  0
SPLINE
  5
16E
330
1F
100
AcDbEntity
  8
0
  6
HIDDEN
 62
     7
370
     0
100
AcDbSpline
210
0.0
220
0.0
230
1.0
 70
     8
 71
     3
 72
     8
 73
     4
 74
     0
 42
0.00000001
 43
0.00000001
 12
1.0
 22
0.0
 32
0.0
 13
1.0
 23
0.0
 33
0.0
 40
0.0000249638557296
 40
0.0000249638557296
 40
0.0000249638557296
 40
0.0000249638557296
 40
0.0049776420541172
 40
0.0049776420541172
 40
0.0049776420541172
 40
0.0049776420541172
 10
94.16827525063836
 20
117.8073025191249
 30
0.0
 10
95.81825148514788
 20
117.7660232813567
 30
0.0
 10
97.46825280489294
 20
117.7258016001172
 30
0.0
 10
99.11827525063835
 20
117.6865523628622
 30
0.0
  0
SPLINE
  5
16F
330
1F
100
AcDbEntity
  8
0
  6
HIDDEN
 62
     7
370
     0
100
AcDbSpline
210
0.0
220
0.0
230
1.0
 70
     8
 71
     3
 72
     8
 73
     4
 74
     0
 42
0.00000001
 43
0.00000001
 12
1.0
 22
0.0
 32
0.0
 13
1.0
 23
0.0
 33
0.0
 40
0.0000249631533152
 40
0.0000249631533152
 40
0.0000249631533152
 40
0.0000249631533152
 40
0.0049776413517029
 40
0.0049776413517029
 40
0.0049776413517029
 40
0.0049776413517029
 10
99.11827525063838
 20
125.8584744690607
 30
0.0
 10
97.46825280489294
 20
125.8192252318057
 30
0.0
 10
95.81825148514788
 20
125.7790035505662
 30
0.0
 10
94.16827525063832
 20
125.737724312798
 30
0.0
  0
SPLINE
  5
170
330
1F
100
AcDbEntity
  8
0
  6
HIDDEN
 62
     7
370
     0
100
AcDbSpline
210
0.0
220
0.0
230
1.0
 70
     8
 71
     3
 72
     8
 73
     4
 74
     0
 42
0.00000001
 43
0.00000001
 12
1.0
 22
0.0
 32
0.0
 13
1.0
 23
0.0
 33
0.0
 40
0.0
 40
0.0
 40
0.0
 40
0.0
 40
1.0
 40
1.0
 40
1.0
 40
1.0
 10
94.16827525063837
 20
125.737724312798
 30
0.0
 10
93.64078340879486
 20
125.4344544238699
 30
0.0
 10
93.13503586201557
 20
125.0898639945659
 30
0.0
 10
92.6682752506384
 20
124.6745007489437
 30
0.0
  0
SPLINE
  5
171
330
1F
100
AcDbEntity
  8
0
  6
HIDDEN
 62
     7
370
     0
100
AcDbSpline
210
0.0
220
0.0
230
1.0
 70
     8
 71
     3
 72
     8
 73
     4
 74
     0
 42
0.00000001
 43
0.00000001
 12
1.0
 22
0.0
 32
0.0
 13
1.0
 23
0.0
 33
0.0
 40
0.0
 40
0.0
 40
0.0
 40
0.0
 40
1.0
 40
1.0
 40
1.0
 40
1.0
 10
92.66827525063617
 20
118.8705260829811
 30
0.0
 10
93.13503586201396
 20
118.4551628373581
 30
0.0
 10
93.64078340879404
 20
118.1105724080535
 30
0.0
 10
94.16827525063839
 20
117.8073025191249
 30
0.0
  0
LINE
  5
172
330
1F
100
AcDbEntity
  8
0
  6
HIDDEN
 62
     7
370
     0
100
AcDbLine
 10
92.6682764725
 20
118.8705260105
 30
0.0
 11
92.6682764725
 21
124.6745008215
 31
0.0
  0
SPLINE
  5
173
330
1F
100
AcDbEntity
  8
0
  6
HIDDEN
 62
     7
370
     0
100
AcDbSpline
210
0.0
220
0.0
230
1.0
 70
     8
 71
     3
 72
    72
 73
    68
 74
     0
 42
0.00000001
 43
0.00000001
 12
1.0
 22
0.0
 32
0.0
 13
1.0
 23
0.0
 33
0.0
 40
-0.0312500000000001
 40
-0.0312500000000001
 40
0.0
 40
0.0
 40
0.0312499999999999
 40
0.0312499999999999
 40
0.0624999999999998
 40
0.0624999999999998
 40
0.0937499999999996
 40
0.0937499999999996
 40
0.1249999999999995
 40
0.1249999999999995
 40
0.1562499999999996
 40
0.1562499999999996
 40
0.1874999999999997
 40
0.1874999999999997
 40
0.2187499999999998
 40
0.2187499999999998
 40
0.2499999999999999
 40
0.2499999999999999
 40
0.28125
 40
0.28125
 40
0.3125000000000001
 40
0.3125000000000001
 40
0.3437500000000001
 40
0.3437500000000001
 40
0.3750000000000002
 40
0.3750000000000002
 40
0.3906250000000002
 40
0.3906250000000002
 40
0.4062500000000002
 40
0.4062500000000002
 40
0.4375000000000001
 40
0.4375000000000001
 40
0.4687500000000001
 40
0.4687500000000001
 40
0.5000000000000001
 40
0.5000000000000001
 40
0.5312500000000001
 40
0.5312500000000001
 40
0.5625000000000001
 40
0.5625000000000001
 40
0.5937500000000001
 40
0.5937500000000001
 40
0.625
 40
0.625
 40
0.65625
 40
0.65625
 40
0.6875
 40
0.6875
 40
0.71875
 40
0.71875
 40
0.75
 40
0.75
 40
0.78125
 40
0.78125
 40
0.8125
 40
0.8125
 40
0.84375
 40
0.84375
 40
0.8749999999999999
 40
0.8749999999999999
 40
0.9062499999999999
 40
0.9062499999999999
 40
0.9374999999999999
 40
0.9374999999999999
 40
0.9687499999999999
 40
0.9687499999999999
 40
1.0
 40
1.0
 40
1.03125
 40
1.03125
 10
111.7922215694635
 20
124.2133470657763
 30
0.0
 10
112.1666517893374
 20
124.6237028662614
 30
0.0
 10
112.371504390603
 20
124.80735194892
 30
0.0
 10
112.81437258745
 20
125.1343068524153
 30
0.0
 10
113.0543280047684
 20
125.2780850605951
 30
0.0
 10
113.5499389875429
 20
125.515602416041
 30
0.0
 10
113.8072052786974
 20
125.6109219809387
 30
0.0
 10
114.3405590465345
 20
125.7550075135732
 30
0.0
 10
114.6148391864327
 20
125.8027435205428
 30
0.0
 10
115.1612677210123
 20
125.8483256610766
 30
0.0
 10
115.4358440394801
 20
125.8468919010043
 30
0.0
 10
115.9878112137508
 20
125.7939785929135
 30
0.0
 10
116.2584281763225
 20
125.7430088667093
 30
0.0
 10
116.7847133474016
 20
125.5944022397657
 30
0.0
 10
117.0423449108092
 20
125.4961168690086
 30
0.0
 10
117.5382710754827
 20
125.2518635098228
 30
0.0
 10
117.7712547532744
 20
125.1087833788007
 30
0.0
 10
118.2075880285994
 20
124.7809248283319
 30
0.0
 10
118.4128692824576
 20
124.5939311906316
 30
0.0
 10
118.7809035803178
 20
124.1845005708086
 30
0.0
 10
118.942418570303
 20
123.9643951298242
 30
0.0
 10
119.2195762534501
 20
123.4926450483861
 30
0.0
 10
119.3359704328838
 20
123.2376285219449
 30
0.0
 10
119.5092444695304
 20
122.7163906985479
 30
0.0
 10
119.5676910239962
 20
122.448906580767
 30
0.0
 10
119.6115557494721
 20
122.0369909214346
 30
0.0
 10
119.6187359661015
 20
121.897283618359
 30
0.0
 10
119.617767938806
 20
121.6211605628966
 30
0.0
 10
119.6097651493924
 20
121.4839839965659
 30
0.0
 10
119.56369241748
 20
121.0750505553026
 30
0.0
 10
119.5027575850279
 20
120.8031243062984
 30
0.0
 10
119.3246374286194
 20
120.2799437898433
 30
0.0
 10
119.209069517277
 20
120.0312317894799
 30
0.0
 10
118.9272227333378
 20
119.5583472644879
 30
0.0
 10
118.7603527879231
 20
119.3347380472558
 30
0.0
 10
118.3910272331243
 20
118.9300806590682
 30
0.0
 10
118.1862420768268
 20
118.7456670708987
 30
0.0
 10
117.7415891293106
 20
118.4166410360043
 30
0.0
 10
117.5067399997998
 20
118.2754729600161
 30
0.0
 10
117.0133302373228
 20
118.0370634312356
 30
0.0
 10
116.7520432836182
 20
117.9392808748307
 30
0.0
 10
116.2213050031055
 20
117.7939528466406
 30
0.0
 10
115.9516653022083
 20
117.7456634564456
 30
0.0
 10
115.4039139624631
 20
117.6972482326589
 30
0.0
 10
115.1240099206045
 20
117.6977064182949
 30
0.0
 10
114.5769320127695
 20
117.7478582738971
 30
0.0
 10
114.307326908082
 20
117.7970318409291
 30
0.0
 10
113.7761721514259
 20
117.9447063642361
 30
0.0
 10
113.5148773349824
 20
118.0438615286017
 30
0.0
 10
113.022563356807
 20
118.2848742990784
 30
0.0
 10
112.7886064812284
 20
118.4273624237031
 30
0.0
 10
112.3464378606979
 20
118.758849852688
 30
0.0
 10
112.1412443295863
 20
118.9462834806764
 30
0.0
 10
111.7755501132283
 20
119.3531871997269
 30
0.0
 10
111.6127794908399
 20
119.5743662743958
 30
0.0
 10
111.3318270600744
 20
120.0541136036111
 30
0.0
 10
111.2186232078008
 20
120.3041255704214
 30
0.0
 10
111.0460144836619
 20
120.8242007804418
 30
0.0
 10
110.9864082009855
 20
121.0979322450716
 30
0.0
 10
110.9285164309156
 20
121.6465498949701
 30
0.0
 10
110.9293059697756
 20
121.9208897588617
 30
0.0
 10
110.9904964453921
 20
122.4696317100006
 30
0.0
 10
111.0516251691261
 20
122.7426970238578
 30
0.0
 10
111.2277048547559
 20
123.2628622726262
 30
0.0
 10
111.3440354497459
 20
123.5151814061851
 30
0.0
 10
111.6272366794866
 20
123.9915857475921
 30
0.0
 10
111.7922215694635
 20
124.2133470657763
 30
0.0
 10
112.1666517893374
 20
124.6237028662614
 30
0.0
  0
CIRCLE
  5
174
330
1F
100
AcDbEntity
  8
0
  6
HIDDEN
 62
     7
370
     0
100
AcDbCircle
 10
115.1682752506
 20
121.772513416
 30
0.0
 40
4.050000000000011
  0
LINE
  5
175
330
1F
100
AcDbEntity
  8
0
  6
HIDDEN
 62
     7
370
     0
100
AcDbLine
 10
263.1071435349
 20
128.772513632
 30
0.0
 11
260.8325706856
 21
121.772513416
 31
0.0
  0
CIRCLE
  5
176
330
1F
100
AcDbEntity
  8
0
  6
HIDDEN
 62
     7
370
     0
100
AcDbCircle
 10
142.6682752506
 20
121.772513416
 30
0.0
 40
2.0
  0
LINE
  5
177
330
1F
100
AcDbEntity
  8
0
  6
HIDDEN
 62
     7
370
     0
100
AcDbLine
 10
130.6682752506
 20
97.5225127007
 30
0.0
 11
130.7611684711
 21
97.6154065396
 31
0.0
  0
LINE
  5
178
330
1F
100
AcDbEntity
  8
0
  6
HIDDEN
 62
     7
370
     0
100
AcDbLine
 10
130.7611684711
 20
145.9296202923
 30
0.0
 11
130.6682752506
 21
146.0225141312
 31
0.0
  0
ARC
  5
179
330
1F
100
AcDbEntity
  8
0
  6
HIDDEN
 62
     7
370
     0
100
AcDbCircle
 10
130.0540616883
 20
98.322513416
 30
0.0
 40
1.000000000000018
100
AcDbArc
 50
315.0
 51
0.0
  0
ARC
  5
17A
330
1F
100
AcDbEntity
  8
0
  6
HIDDEN
 62
     7
370
     0
100
AcDbCircle
 10
130.0540616883
 20
98.322513416
 30
0.0
 40
1.0
100
AcDbArc
 50
0.0
 51
52.1052014664
  0
ARC
  5
17B
330
1F
100
AcDbEntity
  8
0
  6
HIDDEN
 62
     7
370
     0
100
AcDbCircle
 10
130.0540616883
 20
145.222513416
 30
0.0
 40
1.000000000000028
100
AcDbArc
 50
351.8087250651
 51
45.0
  0
ARC
  5
17C
330
1F
100
AcDbEntity
  8
0
  6
HIDDEN
 62
     7
370
     0
100
AcDbCircle
 10
130.0540616883
 20
145.222513416
 30
0.0
 40
0.9999999999999815
100
AcDbArc
 50
307.8947985336
 51
351.8087250651
  0
LINE
  5
17D
330
1F
100
AcDbEntity
  8
0
  6
HIDDEN
 62
     7
370
     0
100
AcDbLine
 10
131.0540616864
 20
98.3225132044
 30
0.0
 11
131.0540616864
 21
145.2225136276
 31
0.0
  0
LINE
  5
17E
330
1F
100
AcDbEntity
  8
0
  6
HIDDEN
 62
     7
370
     0
100
AcDbLine
 10
131.0540616864
 20
98.3225132044
 30
0.0
 11
131.0540616864
 21
145.2225136276
 31
0.0
  0
LINE
  5
17F
330
1F
100
AcDbEntity
  8
0
  6
HIDDEN
 62
     7
370
     0
100
AcDbLine
 10
236.3832222359
 20
131.0261065777
 30
0.0
 11
225.1686306731
 21
123.9682875279
 31
0.0
  0
LINE
  5
180
330
1F
100
AcDbEntity
  8
0
  6
HIDDEN
 62
     7
370
     0
100
AcDbLine
 10
228.6652477519
 20
120.2610856093
 30
0.0
 11
236.5035491125
 21
125.1940600745
 31
0.0
  0
LINE
  5
181
330
1F
100
AcDbEntity
  8
0
  6
HIDDEN
 62
     7
370
     0
100
AcDbLine
 10
92.6682764725
 20
105.5760836865
 30
0.0
 11
94.1985027926
 21
106.4595623578
 31
0.0
  0
LINE
  5
182
330
1F
100
AcDbEntity
  8
0
  6
HIDDEN
 62
     7
370
     0
100
AcDbLine
 10
94.1985027926
 20
137.0854644741
 30
0.0
 11
92.6682764725
 21
137.9689431454
 31
0.0
  0
ARC
  5
183
330
1F
100
AcDbEntity
  8
0
  6
HIDDEN
 62
     7
370
     0
100
AcDbCircle
 10
103.6700765655
 20
107.772513416
 30
0.0
 40
2.000000000000026
100
AcDbArc
 50
270.0
 51
315.0
  0
ARC
  5
184
330
1F
100
AcDbEntity
  8
0
  6
HIDDEN
 62
     7
370
     0
100
AcDbCircle
 10
103.6700765655
 20
135.772513416
 30
0.0
 40
2.000000000000026
100
AcDbArc
 50
45.0
 51
90.0
  0
LINE
  5
185
330
1F
100
AcDbEntity
  8
0
  6
HIDDEN
 62
     7
370
     0
100
AcDbLine
 10
102.6682743864
 20
105.772512656
 30
0.0
 11
103.6700757281
 21
105.772512656
 31
0.0
  0
LINE
  5
186
330
1F
100
AcDbEntity
  8
0
  6
HIDDEN
 62
     7
370
     0
100
AcDbLine
 10
103.6700757281
 20
137.7725141759
 30
0.0
 11
102.6682743864
 21
137.7725141759
 31
0.0
  0
ARC
  5
187
330
1F
100
AcDbEntity
  8
0
  6
HIDDEN
 62
     7
370
     0
100
AcDbCircle
 10
102.6682752506
 20
107.772513416
 30
0.0
 40
2.0
100
AcDbArc
 50
189.9742217944
 51
270.0
  0
ARC
  5
188
330
1F
100
AcDbEntity
  8
0
  6
HIDDEN
 62
     7
370
     0
100
AcDbCircle
 10
102.6682752506
 20
135.772513416
 30
0.0
 40
2.0
100
AcDbArc
 50
90.0
 51
170.0257782056
  0
LINE
  5
189
330
1F
100
AcDbEntity
  8
0
  6
HIDDEN
 62
     7
370
     0
100
AcDbLine
 10
105.0842909203
 20
106.3582996543
 30
0.0
 11
106.4985042499
 21
107.7725129838
 31
0.0
  0
LINE
  5
18A
330
1F
100
AcDbEntity
  8
0
  6
HIDDEN
 62
     7
370
     0
100
AcDbLine
 10
106.4985042499
 20
135.7725138481
 30
0.0
 11
105.0842909203
 21
137.1867271776
 31
0.0
  0
LINE
  5
18B
330
1F
100
AcDbEntity
  8
0
  6
HIDDEN
 62
     7
370
     0
100
AcDbLine
 10
94.1985027926
 20
106.4595623578
 30
0.0
 11
99.098503782
 21
107.7725129838
 31
0.0
  0
LINE
  5
18C
330
1F
100
AcDbEntity
  8
0
  6
HIDDEN
 62
     7
370
     0
100
AcDbLine
 10
99.098503782
 20
135.7725138481
 30
0.0
 11
94.1985027926
 21
137.0854644741
 31
0.0
  0
LINE
  5
18D
330
1F
100
AcDbEntity
  8
0
  6
HIDDEN
 62
     7
370
     0
100
AcDbLine
 10
100.6985029267
 20
136.1189239363
 30
0.0
 11
100.0985039459
 21
135.7725138481
 31
0.0
  0
LINE
  5
18E
330
1F
100
AcDbEntity
  8
0
  6
HIDDEN
 62
     7
370
     0
100
AcDbLine
 10
100.0985039459
 20
107.7725129838
 30
0.0
 11
100.6985029267
 21
107.4261028956
 31
0.0
  0
ARC
  5
18F
330
1F
100
AcDbEntity
  8
0
  6
HIDDEN
 62
     7
370
     0
100
AcDbCircle
 10
119.1682752506
 20
108.272513416
 30
0.0
 40
0.5
100
AcDbArc
 50
270.0
 51
0.0
  0
ARC
  5
190
330
1F
100
AcDbEntity
  8
0
  6
HIDDEN
 62
     7
370
     0
100
AcDbCircle
 10
119.1682752506
 20
135.272513416
 30
0.0
 40
0.5
100
AcDbArc
 50
0.0
 51
90.0
  0
LINE
  5
191
330
1F
100
AcDbEntity
  8
0
  6
HIDDEN
 62
     7
370
     0
100
AcDbLine
 10
99.098503782
 20
107.7725129838
 30
0.0
 11
100.0985039459
 21
107.7725129838
 31
0.0
  0
LINE
  5
192
330
1F
100
AcDbEntity
  8
0
  6
HIDDEN
 62
     7
370
     0
100
AcDbLine
 10
100.0985039459
 20
135.7725138481
 30
0.0
 11
99.098503782
 21
135.7725138481
 31
0.0
  0
LINE
  5
193
330
1F
100
AcDbEntity
  8
0
  6
HIDDEN
 62
     7
370
     0
100
AcDbLine
 10
106.4985042499
 20
107.7725129838
 30
0.0
 11
119.1682752283
 21
107.7725129838
 31
0.0
  0
LINE
  5
194
330
1F
100
AcDbEntity
  8
0
  6
HIDDEN
 62
     7
370
     0
100
AcDbLine
 10
119.1682752283
 20
135.7725138481
 30
0.0
 11
106.4985042499
 21
135.7725138481
 31
0.0
  0
LINE
  5
195
330
1F
100
AcDbEntity
  8
0
  6
HIDDEN
 62
     7
370
     0
100
AcDbLine
 10
119.6682753102
 20
111.5225131328
 30
0.0
 11
120.9182750495
 21
112.7725138034
 31
0.0
  0
LINE
  5
196
330
1F
100
AcDbEntity
  8
0
  6
HIDDEN
 62
     7
370
     0
100
AcDbLine
 10
120.9182750495
 20
130.7725130285
 30
0.0
 11
119.6682753102
 21
132.0225136991
 31
0.0
  0
LINE
  5
197
330
1F
100
AcDbEntity
  8
0
  6
HIDDEN
 62
     7
370
     0
100
AcDbLine
 10
146.6682760106
 20
112.7725138034
 30
0.0
 11
149.5223624693
 21
117.522513185
 31
0.0
  0
LINE
  5
198
330
1F
100
AcDbEntity
  8
0
  6
HIDDEN
 62
     7
370
     0
100
AcDbLine
 10
149.5223624693
 20
126.0225136469
 30
0.0
 11
146.6682760106
 21
130.7725130285
 31
0.0
  0
LINE
  5
199
330
1F
100
AcDbEntity
  8
0
  6
HIDDEN
 62
     7
370
     0
100
AcDbLine
 10
120.9182750495
 20
112.7725138034
 30
0.0
 11
146.6682760106
 21
112.7725138034
 31
0.0
  0
LINE
  5
19A
330
1F
100
AcDbEntity
  8
0
  6
HIDDEN
 62
     7
370
     0
100
AcDbLine
 10
146.6682760106
 20
130.7725130285
 30
0.0
 11
120.9182750495
 21
130.7725130285
 31
0.0
  0
LINE
  5
19B
330
1F
100
AcDbEntity
  8
0
  6
HIDDEN
 62
     7
370
     0
100
AcDbLine
 10
252.269201173
 20
127.1169941577
 30
0.0
 11
251.773193671
 21
126.1358118321
 31
0.0
  0
LINE
  5
19C
330
1F
100
AcDbEntity
  8
0
  6
HIDDEN
 62
     7
370
     0
100
AcDbLine
 10
258.020319237
 20
122.9777426164
 30
0.0
 11
258.5163341896
 21
123.958924942
 31
0.0
  0
LINE
  5
19D
330
1F
100
AcDbEntity
  8
0
  6
HIDDEN
 62
     7
370
     0
100
AcDbLine
 10
248.9226760404
 20
133.0421182032
 30
0.0
 11
247.9589210884
 21
131.1356738846
 31
0.0
  0
LINE
  5
19E
330
1F
100
AcDbEntity
  8
0
  6
HIDDEN
 62
     7
370
     0
100
AcDbLine
 10
149.5223624693
 20
117.522513185
 30
0.0
 11
230.6682767408
 21
117.522513185
 31
0.0
  0
LINE
  5
19F
330
1F
100
AcDbEntity
  8
0
  6
HIDDEN
 62
     7
370
     0
100
AcDbLine
 10
230.6682767408
 20
126.0225136469
 30
0.0
 11
149.5223624693
 21
126.0225136469
 31
0.0
  0
LINE
  5
1A0
330
1F
100
AcDbEntity
  8
0
  6
HIDDEN
 62
     7
370
     0
100
AcDbLine
 10
230.6682767408
 20
117.522513185
 30
0.0
 11
233.221933438
 21
121.772513416
 31
0.0
  0
LINE
  5
1A1
330
1F
100
AcDbEntity
  8
0
  6
HIDDEN
 62
     7
370
     0
100
AcDbLine
 10
233.221933438
 20
121.772513416
 30
0.0
 11
230.6682767408
 21
126.0225136469
 31
0.0
  0
LINE
  5
1A2
330
1F
100
AcDbEntity
  8
0
  6
HIDDEN
 62
     7
370
     0
100
AcDbLine
 10
257.7826904194
 20
125.2698911525
 30
0.0
 11
260.9747128622
 21
132.5299317653
 31
0.0
  0
LINE
  5
1A3
330
1F
100
AcDbEntity
  8
0
  6
HIDDEN
 62
     7
370
     0
100
AcDbLine
 10
251.121849014
 20
126.3989374678
 30
0.0
 11
248.7678157227
 21
121.7423103538
 31
0.0
  0
LINE
  5
1A4
330
1F
100
AcDbEntity
  8
0
  6
HIDDEN
 62
     7
370
     0
100
AcDbLine
 10
256.3019769327
 20
118.0270364679
 30
0.0
 11
258.6184071438
 21
122.6092543042
 31
0.0
  0
LINE
  5
1A5
330
1F
100
AcDbEntity
  8
0
  6
HIDDEN
 62
     7
370
     0
100
AcDbLine
 10
257.4169563191
 20
139.0827714171
 30
0.0
 11
256.7584293024
 21
137.7801044549
 31
0.0
  0
LINE
  5
1A6
330
1F
100
AcDbEntity
  8
0
  6
HIDDEN
 62
     7
370
     0
100
AcDbLine
 10
262.4700890915
 20
134.8927260081
 30
0.0
 11
263.1286161081
 21
136.1953939016
 31
0.0
  0
LINE
  5
1A7
330
1F
100
AcDbEntity
  8
0
  6
HIDDEN
 62
     7
370
     0
100
AcDbLine
 10
256.8968014853
 20
136.1762794371
 30
0.0
 11
254.4180678265
 21
130.5385396521
 31
0.0
  0
LINE
  5
1A8
330
1F
100
AcDbEntity
  8
VERMASSUNG
  6
CENTERX2
100
AcDbLine
 10
87.8601146902
 20
121.772513416
 30
0.0
 11
270.6682752506
 21
121.772513416
 31
0.0
  0
LINE
  5
1A9
330
1F
100
AcDbEntity
  8
VERMASSUNG
  6
CENTERX2
100
AcDbLine
 10
270.6682752506
 20
121.772513416
 30
0.0
 11
270.6682752506
 21
148.772513416
 31
0.0
  0
LINE
  5
1AA
330
1F
100
AcDbEntity
  8
VERMASSUNG
  6
CENTERX2
100
AcDbLine
 10
270.6682752506
 20
148.772513416
 30
0.0
 11
290.4339779864
 21
148.772513416
 31
0.0
  0
DIMENSION
  5
1AB
330
1F
100
AcDbEntity
  8
VERMASSUNG
100
AcDbDimension
  2
_D
 10
289.2175762951
 20
148.772513416
 30
0.0
 11
289.2175762951
 21
135.272513416
 31
0.0
 70
   160
  1
<>
 71
     2
 42
-1.0
  3
SLDDIMSTYLE0
100
AcDbAlignedDimension
 13
270.6682752506
 23
121.772513416
 33
0.0
 14
270.6682752506
 24
148.772513416
 34
0.0
 50
90.0
100
AcDbRotatedDimension
  0
DIMENSION
  5
1B6
330
1F
100
AcDbEntity
  8
VERMASSUNG
100
AcDbDimension
  2
_D_1
 10
270.6682752506
 20
163.272513416
 30
0.0
 11
200.6682752506
 21
163.272513416
 31
0.0
 70
   160
  1
<>
 71
     2
 42
-1.0
  3
SLDDIMSTYLE0
100
AcDbAlignedDimension
 13
130.6682752506
 23
152.772513416
 33
0.0
 14
270.6682752506
 24
148.772513416
 34
0.0
100
AcDbRotatedDimension
  0
DIMENSION
  5
1C0
330
1F
100
AcDbEntity
  8
VERMASSUNG
100
AcDbDimension
  2
_D_2
 10
92.6682752506
 20
169.272513416
 30
0.0
 11
181.6682752506
 21
169.272513416
 31
0.0
 70
   160
  1
<>
 71
     2
 42
-1.0
  3
SLDDIMSTYLE0
100
AcDbAlignedDimension
 13
270.6682752506
 23
148.772513416
 33
0.0
 14
92.6682752506
 24
142.0648514085
 34
0.0
100
AcDbRotatedDimension
  0
DIMENSION
  5
1CA
330
1F
100
AcDbEntity
  8
VERMASSUNG
100
AcDbDimension
  2
_D_3
 10
270.6682752506
 20
148.772513416
 30
0.0
 11
278.3138033343
 21
138.5415854116
 31
0.0
 70
   162
  1
<>
 71
     1
 42
-1.0
  3
SLDDIMSTYLE1
100
AcDb2LineAngularDimension
 13
270.6516790372
 23
148.2596945241
 33
0.0
 14
266.3969364854
 24
134.7730636395
 34
0.0
 15
290.4339779864
 25
148.772513416
 35
0.0
 16
278.3138033343
 26
138.5415854116
 36
0.0
  0
DIMENSION
  5
1D3
330
1F
100
AcDbEntity
  8
VERMASSUNG
100
AcDbDimension
  2
_D_4
 10
84.9257980833
 20
90.272513416
 30
0.0
 11
84.9257980833
 21
121.772513416
 31
0.0
 70
   160
  1
PSC%%c<>
 71
     2
 42
-1.0
  3
SLDDIMSTYLE0
100
AcDbAlignedDimension
 13
131.1682752506
 23
153.272513416
 33
0.0
 14
131.1682752506
 24
90.272513416
 34
0.0
 50
90.0
100
AcDbRotatedDimension
  0
DIMENSION
  5
1DF
330
1F
100
AcDbEntity
  8
VERMASSUNG
100
AcDbDimension
  2
_D_5
 10
178.8618806386
 20
141.772513416
 30
0.0
 11
178.8618806386
 21
132.6473413191
 31
0.0
 70
   160
  1
%%c<>
 71
     2
 42
-1.0
  3
SLDDIMSTYLE0
100
AcDbAlignedDimension
 13
156.6682752506
 23
101.772513416
 33
0.0
 14
156.6682752506
 24
141.772513416
 34
0.0
 50
90.0
100
AcDbRotatedDimension
  0
LINE
  5
1E8
330
1F
100
AcDbEntity
  8
0
  6
Continuous
 62
     7
370
    15
100
AcDbLine
 10
50.6491856196
 20
147.4614782895
 30
0.0
 11
44.4719740791
 21
148.7744847949
 31
0.0
  0
LINE
  5
1E9
330
1F
100
AcDbEntity
  8
0
  6
Continuous
 62
     7
370
    15
100
AcDbLine
 10
43.8144798519
 20
146.037076291
 30
0.0
 11
43.3274992521
 21
145.4856513704
 31
0.0
  0
LINE
  5
1EA
330
1F
100
AcDbEntity
  8
0
  6
Continuous
 62
     7
370
    15
100
AcDbLine
 10
39.7484274127
 20
133.7415144484
 30
0.0
 11
40.0109700405
 21
132.9062326516
 31
0.0
  0
LINE
  5
1EB
330
1F
100
AcDbEntity
  8
0
  6
Continuous
 62
     7
370
    15
100
AcDbLine
 10
38.6411789351
 20
130.4447694387
 30
0.0
 11
38.9491747611
 21
130.3793030496
 31
0.0
  0
LINE
  5
1EC
330
1F
100
AcDbEntity
  8
0
  6
Continuous
 62
     7
370
    15
100
AcDbLine
 10
42.1011081909
 20
141.169848543
 30
0.0
 11
41.997372593
 21
141.1866700913
 31
0.0
  0
LINE
  5
1ED
330
1F
100
AcDbEntity
  8
0
  6
Continuous
 62
     7
370
    15
100
AcDbLine
 10
53.2899624214
 20
146.5681275989
 30
0.0
 11
50.6218280189
 21
147.1352583434
 31
0.0
  0
LINE
  5
1EE
330
1F
100
AcDbEntity
  8
0
  6
Continuous
 62
     7
370
    15
100
AcDbLine
 10
53.5261421011
 20
146.2072605903
 30
0.0
 11
53.2995569066
 21
146.5604255612
 31
0.0
  0
LWPOLYLINE
  5
1EF
330
1F
100
AcDbEntity
  8
0
  6
Continuous
 62
     7
370
    15
100
AcDbPolyline
 90
       27
 70
   128
 43
0.0
 10
39.0454949357
 20
128.1751498285
 10
38.9815312356
 20
127.575763658
 10
38.8752170385
 20
126.8579477149
 10
38.7327312038
 20
126.0634187314
 10
38.5623541207
 20
125.2383521463
 10
38.3739876107
 20
124.4306975681
 10
38.1785789051
 20
123.6873929559
 10
37.9874845513
 20
123.0516365434
 10
37.811810571
 20
122.5603762253
 10
37.6617656567
 20
122.2421622191
 10
37.5460702472
 20
122.1154879716
 10
37.4714484916
 20
122.187715326
 10
37.4422366277
 20
122.4546466659
 10
37.4601329223
 20
122.9007690384
 10
37.5240966224
 20
123.5001552089
 10
37.6304108196
 20
124.217971152
 10
37.7728966542
 20
125.0125001355
 10
37.9432737373
 20
125.8375669534
 10
38.1316402473
 20
126.6452215317
 10
38.3270489529
 20
127.388525911
 10
38.5181433067
 20
128.0242825563
 10
38.693817287
 20
128.5155426416
 10
38.8438622013
 20
128.8337569389
 10
38.9595576108
 20
128.9604312445
 10
39.0341793664
 20
128.8882039192
 10
39.0633912303
 20
128.6212724338
 10
39.0454949357
 20
128.1751498285
  0
LWPOLYLINE
  5
1F0
330
1F
100
AcDbEntity
  8
0
  6
Continuous
 62
     7
370
    15
100
AcDbPolyline
 90
       20
 70
   128
 43
0.0
 10
38.7057745375
 20
127.0449256229
 10
38.6494989053
 20
126.5579803552
 10
38.5502357513
 20
125.9604996707
 10
38.4187427827
 20
125.3172305118
 10
38.2692687691
 20
124.6978805105
 10
38.1180117384
 20
124.1695663597
 10
37.9813625023
 20
123.7895387861
 10
37.8741290898
 20
123.59897971
 10
37.8079320782
 20
123.6185391138
 10
37.7899449796
 20
123.8460975404
 10
37.8221170523
 20
124.2569954305
 10
37.9009618901
 20
124.8067057862
 10
38.0179350742
 20
125.4356586545
 10
38.1603608385
 20
126.0756977539
 10
38.3128057711
 20
126.6574642326
 10
38.4587496065
 20
127.1179147701
 10
38.5823770904
 20
127.4071532938
 10
38.6702911474
 20
127.4938352111
 10
38.7129648135
 20
127.3685676682
 10
38.7057745375
 20
127.0449256229
  0
LINE
  5
1F1
330
1F
100
AcDbEntity
  8
0
  6
Continuous
 62
     7
370
    15
100
AcDbLine
 10
38.2160702266
 20
124.8928221579
 30
0.0
 11
38.2845773839
 21
124.7691343709
 31
0.0
  0
LINE
  5
1F2
330
1F
100
AcDbEntity
  8
0
  6
Continuous
 62
     7
370
    15
100
AcDbLine
 10
38.6487505876
 20
126.552774262
 30
0.0
 11
38.598109457
 21
126.5635384883
 31
0.0
  0
LINE
  5
1F3
330
1F
100
AcDbEntity
  8
0
  6
Continuous
 62
     7
370
    15
100
AcDbLine
 10
38.3138064772
 20
124.8720476109
 30
0.0
 11
38.2160702266
 21
124.8928221579
 31
0.0
  0
LINE
  5
1F4
330
1F
100
AcDbEntity
  8
0
  6
Continuous
 62
     7
370
    15
100
AcDbLine
 10
38.6577439041
 20
130.4609837647
 30
0.0
 11
40.9983561386
 21
134.52155019
 31
0.0
  0
LWPOLYLINE
  5
1F5
330
1F
100
AcDbEntity
  8
0
  6
Continuous
 62
     7
370
    15
100
AcDbPolyline
 90
        9
 70
   128
 43
0.0
 10
38.7097508193
 20
130.9595598544
 10
38.6856402748
 20
130.8549760546
 10
38.6643898219
 20
130.7489915456
 10
38.6475706019
 20
130.6494396816
 10
38.6364254647
 20
130.5636797737
 10
38.6317786307
 20
130.4980476092
 10
38.6339732923
 20
130.4573963101
 10
38.6428469338
 20
130.4447293918
 10
38.6577439041
 20
130.4609837647
  0
LINE
  5
1F6
330
1F
100
AcDbEntity
  8
0
  6
Continuous
 62
     7
370
    15
100
AcDbLine
 10
42.0336049993
 20
144.446191069
 30
0.0
 11
38.7097508193
 21
130.9595598544
 31
0.0
  0
ARC
  5
1F7
330
1F
100
AcDbEntity
  8
0
  6
Continuous
 62
     7
370
    15
100
AcDbCircle
 10
43.2587853444
 20
144.1895467024
 30
0.0
 40
1.25177202748934
100
AcDbArc
 50
156.0493028923
 51
168.1690465102
  0
LINE
  5
1F8
330
1F
100
AcDbEntity
  8
0
  6
Continuous
 62
     7
370
    15
100
AcDbLine
 10
44.4554088664
 20
148.7582704689
 30
0.0
 11
42.1147970029
 21
144.6977040435
 31
0.0
  0
LWPOLYLINE
  5
1F9
330
1F
100
AcDbEntity
  8
0
  6
Continuous
 62
     7
370
    15
100
AcDbPolyline
 90
        9
 70
   128
 43
0.0
 10
44.4034019293
 20
148.2596943791
 10
44.4275128594
 20
148.364278179
 10
44.4487632322
 20
148.470262688
 10
44.4655824341
 20
148.5698136206
 10
44.4767273603
 20
148.6555753912
 10
44.4813742925
 20
148.721205693
 10
44.47917978
 20
148.7618579234
 10
44.4703060185
 20
148.7745239104
 10
44.4554088664
 20
148.7582704689
  0
LINE
  5
1FA
330
1F
100
AcDbEntity
  8
0
  6
Continuous
 62
     7
370
    15
100
AcDbLine
 10
41.0795481422
 20
134.7730640958
 30
0.0
 11
44.4034019293
 21
148.2596943791
 31
0.0
  0
ARC
  5
1FB
330
1F
100
AcDbEntity
  8
0
  6
Continuous
 62
     7
370
    15
100
AcDbCircle
 10
39.8543386215
 20
135.0297159991
 30
0.0
 40
1.251802128579698
100
AcDbArc
 50
336.0494907824
 51
348.1689826688
  0
LWPOLYLINE
  5
1FC
330
1F
100
AcDbEntity
  8
0
  6
Continuous
 62
     7
370
    15
100
AcDbPolyline
 90
        9
 70
   128
 43
0.0
 10
44.4026723036
 20
148.2658709104
 10
44.4255776875
 20
148.3652262653
 10
44.445765545
 20
148.4659115489
 10
44.4617437807
 20
148.5604854937
 10
44.4723314596
 20
148.6419575925
 10
44.4767460486
 20
148.7043077762
 10
44.4746612612
 20
148.7429259981
 10
44.4662311876
 20
148.7549586858
 10
44.4520788934
 20
148.7395173575
  0
LINE
  5
1FD
330
1F
100
AcDbEntity
  8
0
  6
Continuous
 62
     7
370
    15
100
AcDbLine
 10
44.4520788934
 20
148.7395173575
 30
0.0
 11
42.1114668262
 21
144.6789527948
 31
0.0
  0
ARC
  5
1FE
330
1F
100
AcDbEntity
  8
0
  6
Continuous
 62
     7
370
    15
100
AcDbCircle
 10
43.198368156
 20
144.1961681552
 30
0.0
 40
1.189300428426918
100
AcDbArc
 50
156.0499529539
 51
168.1685421949
  0
LINE
  5
1FF
330
1F
100
AcDbEntity
  8
0
  6
Continuous
 62
     7
370
    15
100
AcDbLine
 10
42.0343344577
 20
144.4400145377
 30
0.0
 11
38.7104805105
 21
130.9533833231
 31
0.0
  0
LWPOLYLINE
  5
200
330
1F
100
AcDbEntity
  8
0
  6
Continuous
 62
     7
370
    15
100
AcDbPolyline
 90
        9
 70
   128
 43
0.0
 10
38.7104805105
 20
130.9533833231
 10
38.6875750974
 20
130.8540288995
 10
38.6673872837
 20
130.753343616
 10
38.6514090479
 20
130.6587696712
 10
38.6408213072
 20
130.577296641
 10
38.6364068382
 20
130.5149473886
 10
38.6384916038
 20
130.4763282354
 10
38.6469219357
 20
130.4642946164
 10
38.6610738479
 20
130.4797359447
  0
LINE
  5
201
330
1F
100
AcDbEntity
  8
0
  6
Continuous
 62
     7
370
    15
100
AcDbLine
 10
38.6610738479
 20
130.4797359447
 30
0.0
 11
41.0016860825
 21
134.54030237
 31
0.0
  0
ARC
  5
202
330
1F
100
AcDbEntity
  8
0
  6
Continuous
 62
     7
370
    15
100
AcDbCircle
 10
39.9148783625
 20
135.0230567912
 30
0.0
 40
1.189202611549458
100
AcDbArc
 50
336.049452685
 51
348.1690424638
  0
LINE
  5
203
330
1F
100
AcDbEntity
  8
0
  6
Continuous
 62
     7
370
    15
100
AcDbLine
 10
41.0788184509
 20
134.7792406271
 30
0.0
 11
44.4026723036
 21
148.2658709104
 31
0.0
  0
ARC
  5
204
330
1F
100
AcDbEntity
  8
0
  6
Continuous
 62
     7
370
    15
100
AcDbCircle
 10
49.5012306782
 20
147.3524286645
 30
0.0
 40
1.153122876440426
100
AcDbArc
 50
339.398718762
 51
5.426511041
  0
LINE
  5
205
330
1F
100
AcDbEntity
  8
0
  6
Continuous
 62
     7
370
    15
100
AcDbLine
 10
47.2567595553
 20
133.4600566591
 30
0.0
 11
50.5806132697
 21
146.9466878737
 31
0.0
  0
LINE
  5
206
330
1F
100
AcDbEntity
  8
0
  6
Continuous
 62
     7
370
    15
100
AcDbLine
 10
42.4362881587
 20
143.9449309076
 30
0.0
 11
42.2616207053
 21
144.2772957201
 31
0.0
  0
LWPOLYLINE
  5
207
330
1F
100
AcDbEntity
  8
0
  6
Continuous
 62
     7
370
    15
100
AcDbPolyline
 90
        9
 70
   128
 43
0.0
 10
43.1781562057
 20
144.2110656466
 10
43.2384336146
 20
144.4725251462
 10
43.2915595139
 20
144.7374864186
 10
43.3336074476
 20
144.9863656129
 10
43.361469825
 20
145.2007672454
 10
43.3730871428
 20
145.364845794
 10
43.367600838
 20
145.466473576
 10
43.3454165014
 20
145.4981404062
 10
43.3081736101
 20
145.4575049396
  0
LWPOLYLINE
  5
208
330
1F
100
AcDbEntity
  8
0
  6
Continuous
 62
     7
370
    15
100
AcDbPolyline
 90
        3
 70
   128
 43
0.0
 10
43.7814637681
 20
145.9893553223
 10
43.8345327985
 20
146.0579807575
 10
43.8564767956
 20
146.0932909216
  0
LINE
  5
209
330
1F
100
AcDbEntity
  8
0
  6
Continuous
 62
     7
370
    15
100
AcDbLine
 10
41.3179152657
 20
136.6630854721
 30
0.0
 11
43.1781562057
 21
144.2110656466
 31
0.0
  0
LINE
  5
20A
330
1F
100
AcDbEntity
  8
0
  6
Continuous
 62
     7
370
    15
100
AcDbLine
 10
39.8049791821
 20
133.761749294
 30
0.0
 11
41.1149353732
 21
136.0343011732
 31
0.0
  0
LWPOLYLINE
  5
20B
330
1F
100
AcDbEntity
  8
0
  6
Continuous
 62
     7
370
    15
100
AcDbPolyline
 90
        9
 70
   128
 43
0.0
 10
39.9349969358
 20
135.008188587
 10
39.8747194105
 20
134.7467290874
 10
39.8215935112
 20
134.4817678149
 10
39.7795456939
 20
134.232889552
 10
39.7516833164
 20
134.0184879194
 10
39.7400659986
 20
133.8544093709
 10
39.7455519543
 20
133.7527806576
 10
39.7677365237
 20
133.7211138274
 10
39.8049791821
 20
133.761749294
  0
LINE
  5
20C
330
1F
100
AcDbEntity
  8
0
  6
Continuous
 62
     7
370
    15
100
AcDbLine
 10
41.795237643
 20
142.5561687614
 30
0.0
 11
39.9349969358
 21
135.008188587
 31
0.0
  0
ARC
  5
20D
330
1F
100
AcDbEntity
  8
0
  6
Continuous
 62
     7
370
    15
100
AcDbCircle
 10
44.8582363129
 20
141.9145467047
 30
0.0
 40
3.12947914444387
100
AcDbArc
 50
156.0494415156
 51
168.1690263397
  0
LINE
  5
20E
330
1F
100
AcDbEntity
  8
0
  6
Continuous
 62
     7
370
    15
100
AcDbLine
 10
43.3081736101
 20
145.4575049396
 30
0.0
 11
41.9982175355
 21
143.1849530603
 31
0.0
  0
ARC
  5
20F
330
1F
100
AcDbEntity
  8
0
  6
Continuous
 62
     7
370
    15
100
AcDbCircle
 10
38.254862595
 20
137.304724961
 30
0.0
 40
3.129535572151083
100
AcDbArc
 50
336.0495511871
 51
348.1689166682
  0
LWPOLYLINE
  5
210
330
1F
100
AcDbEntity
  8
0
  6
Continuous
 62
     7
370
    15
100
AcDbPolyline
 90
       23
 70
   128
 43
0.0
 10
41.650698242
 20
138.8128517832
 10
41.8131949392
 20
139.5199305083
 10
41.9549017225
 20
140.2342772748
 10
42.0643386443
 20
140.8980178352
 10
42.1326397464
 20
141.4573794867
 10
42.1542715759
 20
141.8670496608
 10
42.1274818492
 20
142.0938341583
 10
42.054440548
 20
142.1193654354
 10
41.9410652958
 20
141.941570368
 10
41.7965412617
 20
141.5748565163
 10
41.6325763345
 20
141.0489312078
 10
41.4624546666
 20
140.4064024504
 10
41.2999582023
 20
139.6993237253
 10
41.1582511861
 20
138.9849769588
 10
41.0488142644
 20
138.3212363984
 10
40.9805131622
 20
137.7618747468
 10
40.9588813328
 20
137.352205504
 10
40.9856712923
 20
137.1254200752
 10
41.0587123607
 20
137.0998897295
 10
41.1720876128
 20
137.2776838656
 10
41.3166118798
 20
137.6443977173
 10
41.4805765741
 20
138.1703230257
 10
41.650698242
 20
138.8128517832
  0
ARC
  5
211
330
1F
100
AcDbEntity
  8
0
  6
Continuous
 62
     7
370
    15
100
AcDbCircle
 10
46.0315277393
 20
133.7167157596
 30
0.0
 40
1.251825425840814
100
AcDbArc
 50
336.0496039805
 51
348.1688694708
  0
LINE
  5
212
330
1F
100
AcDbEntity
  8
0
  6
Continuous
 62
     7
370
    15
100
AcDbLine
 10
47.1304407821
 20
133.1302557777
 30
0.0
 11
47.1755675518
 21
133.2085427533
 31
0.0
  0
ELLIPSE
  5
213
330
1F
100
AcDbEntity
  8
0
  6
Continuous
 62
     7
370
    15
100
AcDbEllipse
 10
41.5092034955
 20
138.8851351207
 30
0.0
 11
0.4894004466115689
 21
2.301304685160517
 31
0.0
210
0.0
220
0.0
230
1.0
 40
0.10442579
 41
5.72722998913612
 42
7.614523917559866
  0
LINE
  5
214
330
1F
100
AcDbEntity
  8
0
  6
Continuous
 62
     7
370
    15
100
AcDbLine
 10
47.3282234289
 20
133.7500239427
 30
0.0
 11
50.3168990382
 21
145.8766578402
 31
0.0
  0
LINE
  5
215
330
1F
100
AcDbEntity
  8
0
  6
Continuous
 62
     7
370
    15
100
AcDbLine
 10
50.1298564032
 20
133.1545185934
 30
0.0
 11
53.1185320125
 21
145.2811534221
 31
0.0
  0
LINE
  5
216
330
1F
100
AcDbEntity
  8
0
  6
Continuous
 62
     7
370
    15
100
AcDbLine
 10
53.3994244889
 20
145.3117697205
 30
0.0
 11
50.4107488797
 21
133.1851348917
 31
0.0
  0
ARC
  5
217
330
1F
100
AcDbEntity
  8
0
  6
Continuous
 62
     7
370
    15
100
AcDbCircle
 10
50.4200804153
 20
146.2955033157
 30
0.0
 40
2.882801888584157
100
AcDbArc
 50
339.3987233796
 51
5.4265254561
  0
ARC
  5
218
330
1F
100
AcDbEntity
  8
0
  6
Continuous
 62
     7
370
    15
100
AcDbCircle
 10
49.9708646044
 20
146.2882327086
 30
0.0
 40
3.56489871503128
100
AcDbArc
 50
344.1029057626
 51
358.2245055119
  0
ARC
  5
219
330
1F
100
AcDbEntity
  8
0
  6
Continuous
 62
     7
370
    15
100
AcDbCircle
 10
46.9497508704
 20
133.8287522747
 30
0.0
 40
3.250794096397492
100
AcDbArc
 50
336.5438663087
 51
348.02962897
  0
ARC
  5
21A
330
1F
100
AcDbEntity
  8
0
  6
Continuous
 62
     7
370
    15
100
AcDbCircle
 10
48.2665502831
 20
133.6343009076
 30
0.0
 40
2.190739083365409
100
AcDbArc
 50
336.0497550125
 51
348.168777332
  0
LINE
  5
21B
330
1F
100
AcDbEntity
  8
0
  6
Continuous
 62
     7
370
    15
100
AcDbLine
 10
50.2686630481
 20
132.7449853237
 30
0.0
 11
50.1239667193
 21
132.4939622249
 31
0.0
  0
LINE
  5
21C
330
1F
100
AcDbEntity
  8
0
  6
Continuous
 62
     7
370
    15
100
AcDbLine
 10
65.0244685367
 20
128.772513632
 30
0.0
 11
65.0244685367
 21
121.772513416
 31
0.0
  0
ARC
  5
21D
330
1F
100
AcDbEntity
  8
0
  6
Continuous
 62
     7
370
    15
100
AcDbCircle
 10
44.5244679705
 20
121.772513416
 30
0.0
 40
20.50000000000002
100
AcDbArc
 50
238.5761453056
 51
0.0
  0
LINE
  5
21E
330
1F
100
AcDbEntity
  8
0
  6
Continuous
 62
     7
370
    15
100
AcDbLine
 10
33.8364862383
 20
104.2791704352
 30
0.0
 11
41.2547939469
 21
134.3791630755
 31
0.0
  0
LINE
  5
21F
330
1F
100
AcDbEntity
  8
0
  6
Continuous
 62
     7
370
    15
100
AcDbLine
 10
41.2547939469
 20
134.3791630755
 30
0.0
 11
50.22391067
 21
132.4727187569
 31
0.0
  0
LINE
  5
220
330
1F
100
AcDbEntity
  8
0
  6
Continuous
 62
     7
370
    15
100
AcDbLine
 10
50.22391067
 20
132.4727187569
 30
0.0
 11
50.3246048011
 21
132.8812890391
 31
0.0
  0
LINE
  5
221
330
1F
100
AcDbEntity
  8
0
  6
Continuous
 62
     7
370
    15
100
AcDbLine
 10
53.4782721207
 20
145.6773808862
 30
0.0
 11
53.4794744582
 21
145.6822591539
 31
0.0
  0
SPLINE
  5
222
330
1F
100
AcDbEntity
  8
0
  6
Continuous
 62
     7
370
    15
100
AcDbSpline
210
0.0
220
0.0
230
1.0
 70
     8
 71
     3
 72
    21
 73
    17
 74
     0
 42
0.00000001
 43
0.00000001
 12
1.0
 22
0.0
 32
0.0
 13
1.0
 23
0.0
 33
0.0
 40
0.0
 40
0.0
 40
0.0
 40
0.0
 40
0.0722469213901372
 40
0.1442536466934098
 40
0.2160482427276348
 40
0.2876590257341337
 40
0.3591145304777068
 40
0.4304434780781164
 40
0.5016747427424118
 40
0.5728373175822548
 40
0.6439602797131069
 40
0.7150727548420582
 40
0.7862038815583846
 40
0.8573827755450908
 40
0.9286384939308907
 40
1.0
 40
1.0
 40
1.0
 40
1.0
 10
59.7265358184769
 20
142.3317121300106
 30
0.0
 10
59.58853605860452
 20
142.4312528377624
 30
0.0
 10
59.31299534044842
 20
142.6300033147564
 30
0.0
 10
58.89250692007023
 20
142.9177268214659
 30
0.0
 10
58.46770698279845
 20
143.1971328976082
 30
0.0
 10
58.03802914615443
 20
143.4675227631363
 30
0.0
 10
57.6036247205763
 20
143.7290826380816
 30
0.0
 10
57.16445348193326
 20
143.9817624959457
 30
0.0
 10
56.72052652001471
 20
144.22557576796
 30
0.0
 10
56.27184066761176
 20
144.4605175936887
 30
0.0
 10
55.818398700731
 20
144.6865930724025
 30
0.0
 10
55.36019393495613
 20
144.9037858193066
 30
0.0
 10
54.89725166558135
 20
145.1121555397688
 30
0.0
 10
54.42947871019769
 20
145.3114789760249
 30
0.0
 10
53.95722441629536
 20
145.5025900537281
 30
0.0
 10
53.63880960587773
 20
145.6223383257275
 30
0.0
 10
53.47948410706117
 20
145.6822568739373
 30
0.0
  0
ARC
  5
223
330
1F
100
AcDbEntity
  8
0
  6
Continuous
 62
     7
370
    15
100
AcDbCircle
 10
45.0244679705
 20
128.772513416
 30
0.0
 40
20.00000000000001
100
AcDbArc
 50
0.0
 51
42.6842629854
  0
SPLINE
  5
224
330
1F
100
AcDbEntity
  8
0
  6
Continuous
 62
     7
370
    15
100
AcDbSpline
210
0.0
220
0.0
230
1.0
 70
     8
 71
     3
 72
    11
 73
     7
 74
     0
 42
0.00000001
 43
0.00000001
 12
1.0
 22
0.0
 32
0.0
 13
1.0
 23
0.0
 33
0.0
 40
0.0
 40
0.0
 40
0.0
 40
0.0
 40
0.2473023763123923
 40
0.4963495556446091
 40
0.7472223951397747
 40
1.0
 40
1.0
 40
1.0
 40
1.0
 10
53.55355070797029
 20
146.228893759174
 30
0.0
 10
53.73803146836173
 20
146.1819349684484
 30
0.0
 10
54.10829456413403
 20
146.0876860766349
 30
0.0
 10
54.66166758398693
 20
145.9423660445011
 30
0.0
 10
55.21624766268451
 20
145.7937615851819
 30
0.0
 10
55.58435658841459
 20
145.6921847245364
 30
0.0
 10
55.76910713041563
 20
145.6412042164659
 30
0.0
  0
SPLINE
  5
225
330
1F
100
AcDbEntity
  8
0
  6
Continuous
 62
     7
370
    15
100
AcDbSpline
210
0.0
220
0.0
230
1.0
 70
     8
 71
     3
 72
    20
 73
    16
 74
     0
 42
0.00000001
 43
0.00000001
 12
1.0
 22
0.0
 32
0.0
 13
1.0
 23
0.0
 33
0.0
 40
0.0
 40
0.0
 40
0.0
 40
0.0
 40
0.0905684022822992
 40
0.1788625222599174
 40
0.2648823713644778
 40
0.3486279627710376
 40
0.4300993115710482
 40
0.5092964349700113
 40
0.5862193525145093
 40
0.6608680863536941
 40
0.733242661541907
 40
0.8033431063903872
 40
0.8711694528778726
 40
0.9367217371324547
 40
1.0
 40
1.0
 40
1.0
 40
1.0
 10
55.76910713041563
 20
145.6412042164658
 30
0.0
 10
55.90024010105521
 20
145.556428781792
 30
0.0
 10
56.15921313457437
 20
145.389006726314
 30
0.0
 10
56.53532600058637
 20
145.1298662751513
 30
0.0
 10
56.89638484397381
 20
144.8698150892216
 30
0.0
 10
57.24216092916692
 20
144.6088176078462
 30
0.0
 10
57.57308280889448
 20
144.3478118431431
 30
0.0
 10
57.88942997717371
 20
144.0874440504304
 30
0.0
 10
58.19153647810084
 20
143.8283940479655
 30
0.0
 10
58.47973937195791
 20
143.5712955801619
 30
0.0
 10
58.75437626834294
 20
143.3167454178177
 30
0.0
 10
59.01582975456
 20
143.0653448906289
 30
0.0
 10
59.26434871465596
 20
142.8175370162175
 30
0.0
 10
59.50067720468682
 20
142.5741928606601
 30
0.0
 10
59.65210944006319
 20
142.4115502737464
 30
0.0
 10
59.72648907292838
 20
142.3316644035232
 30
0.0
  0
LINE
  5
226
330
1F
100
AcDbEntity
  8
0
  6
Continuous
 62
     7
370
    15
100
AcDbLine
 10
53.4794744582
 20
145.6822591539
 30
0.0
 11
53.5535509244
 21
146.2288933511
 31
0.0
  0
LINE
  5
227
330
1F
100
AcDbEntity
  8
0
  6
Continuous
 62
     7
370
    15
100
AcDbLine
 10
53.5318790481
 20
146.1912958588
 30
0.0
 11
53.5535509244
 21
146.2288933511
 31
0.0
  0
LWPOLYLINE
  5
228
330
1F
100
AcDbEntity
  8
0
  6
Continuous
 62
     7
370
    15
100
AcDbPolyline
 90
        4
 70
   128
 43
0.0
 10
38.8029980951
 20
130.1257113631
 10
38.7155552872
 20
130.0406937192
 10
38.6708974384
 20
130.156736512
 10
38.6718376086
 20
130.4382529746
  0
ARC
  5
229
330
1F
100
AcDbEntity
  8
0
  6
Continuous
 62
     7
370
    15
100
AcDbCircle
 10
52.1771613254
 20
129.3191574727
 30
0.0
 40
13.54687823398285
100
AcDbArc
 50
159.9958457685
 51
172.3142625022
  0
ARC
  5
22A
330
1F
100
AcDbEntity
  8
0
  6
Continuous
 62
     7
370
    15
100
AcDbCircle
 10
44.5244679705
 20
121.772513416
 30
0.0
 40
20.50000000000002
100
AcDbArc
 50
235.0542383328
 51
238.5761453056
  0
SPLINE
  5
22B
330
1F
100
AcDbEntity
  8
0
  6
Continuous
 62
     7
370
    15
100
AcDbSpline
210
0.0
220
0.0
230
1.0
 70
     8
 71
     3
 72
     8
 73
     4
 74
     0
 42
0.00000001
 43
0.00000001
 12
1.0
 22
0.0
 32
0.0
 13
1.0
 23
0.0
 33
0.0
 40
0.0
 40
0.0
 40
0.0
 40
0.0
 40
1.0
 40
1.0
 40
1.0
 40
1.0
 10
32.78205281205695
 20
104.9687731702024
 30
0.0
 10
32.80413193235226
 20
105.157063273526
 30
0.0
 10
32.82630278660384
 20
105.3456272209979
 30
0.0
 10
32.84857300056444
 20
105.5344877770103
 30
0.0
  0
ARC
  5
22C
330
1F
100
AcDbEntity
  8
0
  6
Continuous
 62
     7
370
    15
100
AcDbCircle
 10
44.5244679705
 20
121.772513416
 30
0.0
 40
20.00000000000002
100
AcDbArc
 50
233.3251641078
 51
234.2821099214
  0
ARC
  5
22D
330
1F
100
AcDbEntity
  8
0
  6
Continuous
 62
     7
370
    15
100
AcDbCircle
 10
44.5244679705
 20
121.772513416
 30
0.0
 40
20.00000000000001
100
AcDbArc
 50
101.7178900786
 51
102.6748358922
  0
SPLINE
  5
22E
330
1F
100
AcDbEntity
  8
0
  6
Continuous
 62
     7
370
    15
100
AcDbSpline
210
0.0
220
0.0
230
1.0
 70
     8
 71
     3
 72
     8
 73
     4
 74
     0
 42
0.00000001
 43
0.00000001
 12
1.0
 22
0.0
 32
0.0
 13
1.0
 23
0.0
 33
0.0
 40
0.0
 40
0.0
 40
0.0
 40
0.0
 40
1.0
 40
1.0
 40
1.0
 40
1.0
 10
40.46260719536777
 20
141.355702304483
 30
0.0
 10
40.68149414242332
 20
142.0595573377054
 30
0.0
 10
40.89993600444667
 20
142.7587729028938
 30
0.0
 10
41.11804823639187
 20
143.4545524769795
 30
0.0
  0
LINE
  5
22F
330
1F
100
AcDbEntity
  8
0
  6
Continuous
 62
     7
370
    15
100
AcDbLine
 10
41.1180483189
 20
143.4545523192
 30
0.0
 11
41.3844391715
 21
143.3979297693
 31
0.0
  0
ARC
  5
230
330
1F
100
AcDbEntity
  8
0
  6
Continuous
 62
     7
370
    15
100
AcDbCircle
 10
41.4043859936
 20
143.9655655823
 30
0.0
 40
0.5679861722967455
100
AcDbArc
 50
267.9874443677
 51
316.9797484489
  0
LWPOLYLINE
  5
231
330
1F
100
AcDbEntity
  8
0
  6
Continuous
 62
     7
370
    15
100
AcDbPolyline
 90
       27
 70
   128
 43
0.0
 10
37.5251229399
 20
122.1144429113
 10
37.6319088519
 20
122.1957206838
 10
37.7747788571
 20
122.471237188
 10
37.9454311461
 20
122.924980515
 10
38.1339471333
 20
123.5305805861
 10
38.3293712058
 20
124.2528424303
 10
38.5203463503
 20
125.0497902914
 10
38.6957730644
 20
125.8751090321
 10
38.8454566256
 20
126.68083391
 10
38.960698481
 20
127.4201387244
 10
39.0348000929
 20
128.0500583056
 10
39.0634554916
 20
128.5339842255
 10
39.0449999378
 20
128.843791474
 10
38.9805049182
 20
128.9614761885
 10
38.8737190061
 20
128.8801982704
 10
38.7308485352
 20
128.6046818535
 10
38.5601967119
 20
128.1509387012
 10
38.3716807247
 20
127.5453382808
 10
38.1762566522
 20
126.8230766694
 10
37.9852815077
 20
126.0261285755
 10
37.8098547936
 20
125.2008100677
 10
37.6601707668
 20
124.3950851898
 10
37.5449293771
 20
123.6557802589
 10
37.4708277651
 20
123.0258605614
 10
37.4421719008
 20
122.5419349906
 10
37.4606279202
 20
122.2321274803
 10
37.5251229399
 20
122.1144429113
  0
LINE
  5
232
330
1F
100
AcDbEntity
  8
0
  6
Continuous
 62
     7
370
    15
100
AcDbLine
 10
41.2547939469
 20
134.3791630755
 30
0.0
 11
38.8029980951
 21
130.1257113631
 31
0.0
  0
SPLINE
  5
233
330
1F
100
AcDbEntity
  8
0
  6
Continuous
 62
     7
370
    15
100
AcDbSpline
210
0.0
220
0.0
230
1.0
 70
     8
 71
     3
 72
    30
 73
    26
 74
     0
 42
0.00000001
 43
0.00000001
 12
1.0
 22
0.0
 32
0.0
 13
1.0
 23
0.0
 33
0.0
 40
0.0
 40
0.0
 40
0.0
 40
0.0
 40
0.0624999999999998
 40
0.0624999999999998
 40
0.1249999999999997
 40
0.1249999999999997
 40
0.1874999999999995
 40
0.1874999999999995
 40
0.2499999999999993
 40
0.2499999999999993
 40
0.3124999999999992
 40
0.3124999999999992
 40
0.3749999999999993
 40
0.3749999999999993
 40
0.4999999999999998
 40
0.4999999999999998
 40
0.6250000000000003
 40
0.6250000000000003
 40
0.7500000000000009
 40
0.7500000000000009
 40
0.8750000000000014
 40
0.8750000000000014
 40
0.9375000000000007
 40
0.9375000000000007
 40
1.0
 40
1.0
 40
1.0
 40
1.0
 10
33.44225565998373
 20
131.024220758854
 30
0.0
 10
33.60803214159961
 20
130.9944235845271
 30
0.0
 10
33.76697685000077
 20
130.9518289060749
 30
0.0
 10
34.07129549276343
 20
130.8403385895752
 30
0.0
 10
34.21827129018184
 20
130.770455350774
 30
0.0
 10
34.48835884745197
 20
130.6040767854844
 30
0.0
 10
34.61112211929234
 20
130.50838743414
 30
0.0
 10
34.8299882156238
 20
130.2862805208535
 30
0.0
 10
34.92661764191949
 20
130.1578586820417
 30
0.0
 10
35.07691621248635
 20
129.8770359681598
 30
0.0
 10
35.13260638858873
 20
129.7202595037394
 30
0.0
 10
35.19693862556016
 20
129.3941555543651
 30
0.0
 10
35.2065680744237
 20
129.2219263303139
 30
0.0
 10
35.17748589370483
 20
128.7053723115034
 30
0.0
 10
35.08427127098164
 20
128.3635845374637
 30
0.0
 10
34.83151911953647
 20
127.7288682235721
 30
0.0
 10
34.66868530592374
 20
127.4275421426181
 30
0.0
 10
34.30150795282484
 20
126.8687668739753
 30
0.0
 10
34.09687034848447
 20
126.6102670649556
 30
0.0
 10
33.64285165392973
 20
126.1321732620184
 30
0.0
 10
33.39093691224654
 20
125.9110653179555
 30
0.0
 10
32.9820268515664
 20
125.6311846432716
 30
0.0
 10
32.8401236247612
 20
125.546136866628
 30
0.0
 10
32.54190189547376
 20
125.396820135155
 30
0.0
 10
32.38484328024278
 20
125.3323705157207
 30
0.0
 10
32.22207639431353
 20
125.2837286466203
 30
0.0
  0
SPLINE
  5
234
330
1F
100
AcDbEntity
  8
0
  6
Continuous
 62
     7
370
    15
100
AcDbSpline
210
0.0
220
0.0
230
1.0
 70
     8
 71
     3
 72
    20
 73
    16
 74
     0
 42
0.00000001
 43
0.00000001
 12
1.0
 22
0.0
 32
0.0
 13
1.0
 23
0.0
 33
0.0
 40
0.0
 40
0.0
 40
0.0
 40
0.0
 40
0.1250000000000004
 40
0.1250000000000004
 40
0.2500000000000008
 40
0.2500000000000008
 40
0.3750000000000012
 40
0.3750000000000012
 40
0.5000000000000016
 40
0.5000000000000016
 40
0.625000000000002
 40
0.625000000000002
 40
0.7500000000000023
 40
0.7500000000000023
 40
1.0
 40
1.0
 40
1.0
 40
1.0
 10
32.57900892523534
 20
105.7317525799502
 30
0.0
 10
32.54847665316749
 20
105.7544897810888
 30
0.0
 10
32.49462117763238
 20
105.7946603705982
 30
0.0
 10
32.34357165723815
 20
105.9095134851583
 30
0.0
 10
32.24576690319644
 20
105.9846653526042
 30
0.0
 10
32.00958384509926
 20
106.1712211073207
 30
0.0
 10
31.87372745457936
 20
106.2806586382682
 30
0.0
 10
31.57105669853687
 20
106.5328304640862
 30
0.0
 10
31.40286211761629
 20
106.6767860722047
 30
0.0
 10
31.04462870829632
 20
106.9957932906889
 30
0.0
 10
30.85645263613753
 20
107.1691401516663
 30
0.0
 10
30.4665462388266
 20
107.5440914914172
 30
0.0
 10
30.26334687536155
 20
107.7472460860539
 30
0.0
 10
29.64984626940069
 20
108.3898222250704
 30
0.0
 10
29.23971190170939
 20
108.8576141110552
 30
0.0
 10
28.83843043082532
 20
109.3649259669773
 30
0.0
  0
SPLINE
  5
235
330
1F
100
AcDbEntity
  8
0
  6
Continuous
 62
     7
370
    15
100
AcDbSpline
210
0.0
220
0.0
230
1.0
 70
     8
 71
     3
 72
    18
 73
    14
 74
     0
 42
0.00000001
 43
0.00000001
 12
1.0
 22
0.0
 32
0.0
 13
1.0
 23
0.0
 33
0.0
 40
0.0
 40
0.0
 40
0.0
 40
0.0
 40
0.2499999999999996
 40
0.2499999999999996
 40
0.3749999999999997
 40
0.3749999999999997
 40
0.4999999999999998
 40
0.4999999999999998
 40
0.6249999999999999
 40
0.6249999999999999
 40
0.75
 40
0.75
 40
1.0
 40
1.0
 40
1.0
 40
1.0
 10
35.24118009538687
 20
139.4874948223287
 30
0.0
 10
35.81465659532407
 20
139.7880171495275
 30
0.0
 10
36.37920820050287
 20
140.0482849185884
 30
0.0
 10
37.19899665175497
 20
140.3850022377869
 30
0.0
 10
37.46882829063171
 20
140.4885751485677
 30
0.0
 10
37.97705418943491
 20
140.6723650251771
 30
0.0
 10
38.21782643179446
 20
140.7536222155805
 30
0.0
 10
38.66958719449039
 20
140.8978000768042
 30
0.0
 10
38.88175758980229
 20
140.9610444763014
 30
0.0
 10
39.26615824733774
 20
141.0699247332691
 30
0.0
 10
39.43461745952773
 20
141.1145828350867
 30
0.0
 10
39.86799641409078
 20
141.2251786111808
 30
0.0
 10
40.0616803967068
 20
141.2683936873371
 30
0.0
 10
40.13611333506244
 20
141.2851335268976
 30
0.0
  0
ELLIPSE
  5
236
330
1F
100
AcDbEntity
  8
0
  6
Continuous
 62
     7
370
    15
100
AcDbEllipse
 10
32.2215234889
 20
128.1100831481
 30
0.0
 11
2.143417157302573
 21
2.483736727519301
 31
0.0
210
0.0
220
0.0
230
1.0
 40
0.7425888588
 41
0.4138642358143362
 42
4.00203023731606
  0
ARC
  5
237
330
1F
100
AcDbEntity
  8
0
  6
Continuous
 62
     7
370
    15
100
AcDbCircle
 10
44.5244679705
 20
121.772513416
 30
0.0
 40
20.0
100
AcDbArc
 50
117.6561564452
 51
218.3438435548
  0
CIRCLE
  5
238
330
1F
100
AcDbEntity
  8
0
  6
Continuous
 62
     7
370
    15
100
AcDbCircle
 10
44.5244679705
 20
121.772513416
 30
0.0
 40
31.50000000000001
  0
LINE
  5
239
330
1F
100
AcDbEntity
  8
VERMASSUNG
100
AcDbLine
 10
44.5244679705
 20
148.6166409122
 30
0.0
 11
31.7350806341
 21
88.4473041675
 31
0.0
  0
CIRCLE
  5
23A
330
1F
100
AcDbEntity
  8
VERMASSUNG
  6
CENTERX2
100
AcDbCircle
 10
44.5244679705
 20
123.6166409122
 30
0.0
 40
25.00000000000001
  0
DIMENSION
  5
23B
330
1F
100
AcDbEntity
  8
VERMASSUNG
100
AcDbDimension
  2
_D_6
 10
29.5042447839
 20
143.6014575344
 30
0.0
 11
21.8734548769
 21
153.7544316334
 31
0.0
 70
   160
  1
%%c<> min. 
 71
     2
 42
-1.0
  3
SLDDIMSTYLE2
100
AcDbAlignedDimension
 13
59.5446911571
 23
103.6318242899
 33
0.0
 14
29.5042447839
 24
143.6014575344
 34
0.0
 50
-53.0721451975
100
AcDbRotatedDimension
  0
DIMENSION
  5
24A
330
1F
100
AcDbEntity
  8
VERMASSUNG
100
AcDbDimension
  2
_D_7
 10
44.5244679705
 20
155.772513416
 30
0.0
 11
37.3423913083
 21
80.28374601
 31
0.0
 70
   162
  1
<>
 71
     1
 42
-1.0
  3
SLDDIMSTYLE3
100
AcDb2LineAngularDimension
 13
31.7350806341
 23
88.4473041675
 33
0.0
 14
44.5244679705
 24
148.6166409122
 34
0.0
 15
44.5244679705
 25
87.772513416
 35
0.0
 16
37.3423913083
 26
80.28374601
 36
0.0
  0
INSERT
  5
260
330
1F
100
AcDbEntity
  8
VERMASSUNG
100
AcDbBlockReference
  2
SW_CENTERMARKSYMBOL_0
 10
44.5244679705
 20
121.772513416
 30
0.0
  0
OLE2FRAME
  5
261
330
1F
100
AcDbEntity
  8
0
100
AcDbOle2Frame
 70
     2
  3
Paintbrush-Bild
 10
13.8511154363
 20
38.264191557
 30
0.0
 11
51.6290888628
 21
31.9806341108
 31
0.0
 71
     2
 72
     0
 73
     1
 90
    12928
310
80552BED0767C5B32B40DDAF6807D121434000000000000000006FFBDDFB85D0
310
4940DDAF6807D121434000000000000000006FFBDDFB85D04940416F4BD60AFB
310
3F4000000000000000002BED0767C5B32B40416F4BD60AFB3F40000000000000
310
0000000000000100000000010000010000000100000000000100000000320000
310
D0CF11E0A1B11AE1000000000000000000000000000000003E000300FEFF0900
310
0600000000000000000000000100000001000000000000000010000002000000
310
01000000FEFFFFFF0000000000000000FFFFFFFFFFFFFFFFFFFFFFFFFFFFFFFF
310
FFFFFFFFFFFFFFFFFFFFFFFFFFFFFFFFFFFFFFFFFFFFFFFFFFFFFFFFFFFFFFFF
310
FFFFFFFFFFFFFFFFFFFFFFFFFFFFFFFFFFFFFFFFFFFFFFFFFFFFFFFFFFFFFFFF
310
FFFFFFFFFFFFFFFFFFFFFFFFFFFFFFFFFFFFFFFFFFFFFFFFFFFFFFFFFFFFFFFF
310
FFFFFFFFFFFFFFFFFFFFFFFFFFFFFFFFFFFFFFFFFFFFFFFFFFFFFFFFFFFFFFFF
310
FFFFFFFFFFFFFFFFFFFFFFFFFFFFFFFFFFFFFFFFFFFFFFFFFFFFFFFFFFFFFFFF
310
FFFFFFFFFFFFFFFFFFFFFFFFFFFFFFFFFFFFFFFFFFFFFFFFFFFFFFFFFFFFFFFF
310
FFFFFFFFFFFFFFFFFFFFFFFFFFFFFFFFFFFFFFFFFFFFFFFFFFFFFFFFFFFFFFFF
310
FFFFFFFFFFFFFFFFFFFFFFFFFFFFFFFFFFFFFFFFFFFFFFFFFFFFFFFFFFFFFFFF
310
FFFFFFFFFFFFFFFFFFFFFFFFFFFFFFFFFFFFFFFFFFFFFFFFFFFFFFFFFFFFFFFF
310
FFFFFFFFFFFFFFFFFFFFFFFFFFFFFFFFFFFFFFFFFFFFFFFFFFFFFFFFFFFFFFFF
310
FFFFFFFFFFFFFFFFFFFFFFFFFFFFFFFFFFFFFFFFFFFFFFFFFFFFFFFFFFFFFFFF
310
FFFFFFFFFFFFFFFFFFFFFFFFFFFFFFFFFFFFFFFFFFFFFFFFFFFFFFFFFFFFFFFF
310
FFFFFFFFFFFFFFFFFFFFFFFFFFFFFFFFFFFFFFFFFFFFFFFFFFFFFFFFFFFFFFFF
310
FDFFFFFFFEFFFFFFFEFFFFFFFEFFFFFF05000000060000000700000008000000
310
090000000A0000000B0000000C0000000D0000000E0000000F00000010000000
310
11000000120000001300000014000000150000001600000017000000FEFFFFFF
310
FFFFFFFFFFFFFFFFFFFFFFFFFFFFFFFFFFFFFFFFFFFFFFFFFFFFFFFFFFFFFFFF
310
FFFFFFFFFFFFFFFFFFFFFFFFFFFFFFFFFFFFFFFFFFFFFFFFFFFFFFFFFFFFFFFF
310
FFFFFFFFFFFFFFFFFFFFFFFFFFFFFFFFFFFFFFFFFFFFFFFFFFFFFFFFFFFFFFFF
310
FFFFFFFFFFFFFFFFFFFFFFFFFFFFFFFFFFFFFFFFFFFFFFFFFFFFFFFFFFFFFFFF
310
FFFFFFFFFFFFFFFFFFFFFFFFFFFFFFFFFFFFFFFFFFFFFFFFFFFFFFFFFFFFFFFF
310
FFFFFFFFFFFFFFFFFFFFFFFFFFFFFFFFFFFFFFFFFFFFFFFFFFFFFFFFFFFFFFFF
310
FFFFFFFFFFFFFFFFFFFFFFFFFFFFFFFFFFFFFFFFFFFFFFFFFFFFFFFFFFFFFFFF
310
FFFFFFFFFFFFFFFFFFFFFFFFFFFFFFFFFFFFFFFFFFFFFFFFFFFFFFFFFFFFFFFF
310
FFFFFFFFFFFFFFFFFFFFFFFFFFFFFFFFFFFFFFFFFFFFFFFFFFFFFFFFFFFFFFFF
310
FFFFFFFFFFFFFFFFFFFFFFFFFFFFFFFFFFFFFFFFFFFFFFFFFFFFFFFFFFFFFFFF
310
FFFFFFFFFFFFFFFFFFFFFFFFFFFFFFFFFFFFFFFFFFFFFFFFFFFFFFFFFFFFFFFF
310
FFFFFFFFFFFFFFFFFFFFFFFFFFFFFFFFFFFFFFFFFFFFFFFFFFFFFFFFFFFFFFFF
310
FFFFFFFFFFFFFFFFFFFFFFFFFFFFFFFFFFFFFFFFFFFFFFFFFFFFFFFFFFFFFFFF
310
52006F006F007400200045006E00740072007900000000000000000000000000
310
0000000000000000000000000000000000000000000000000000000000000000
310
16000500FFFFFFFFFFFFFFFF020000000A00030000000000C000000000000046
310
000000000000000000000000903D3B695145CD0103000000C000000000000000
310
01004F006C006500000000000000000000000000000000000000000000000000
310
0000000000000000000000000000000000000000000000000000000000000000
310
0A000200FFFFFFFFFFFFFFFFFFFFFFFF00000000000000000000000000000000
310
0000000000000000000000000000000000000000000000001400000000000000
310
010043006F006D0070004F0062006A0000000000000000000000000000000000
310
0000000000000000000000000000000000000000000000000000000000000000
310
120002010100000003000000FFFFFFFF00000000000000000000000000000000
310
0000000000000000000000000000000000000000010000004D00000000000000
310
01004F006C006500310030004E00610074006900760065000000000000000000
310
0000000000000000000000000000000000000000000000000000000000000000
310
1A000200FFFFFFFFFFFFFFFFFFFFFFFF00000000000000000000000000000000
310
0000000000000000000000000000000000000000040000002426000000000000
310
FEFFFFFF02000000FEFFFFFFFFFFFFFFFFFFFFFFFFFFFFFFFFFFFFFFFFFFFFFF
310
FFFFFFFFFFFFFFFFFFFFFFFFFFFFFFFFFFFFFFFFFFFFFFFFFFFFFFFFFFFFFFFF
310
FFFFFFFFFFFFFFFFFFFFFFFFFFFFFFFFFFFFFFFFFFFFFFFFFFFFFFFFFFFFFFFF
310
FFFFFFFFFFFFFFFFFFFFFFFFFFFFFFFFFFFFFFFFFFFFFFFFFFFFFFFFFFFFFFFF
310
FFFFFFFFFFFFFFFFFFFFFFFFFFFFFFFFFFFFFFFFFFFFFFFFFFFFFFFFFFFFFFFF
310
FFFFFFFFFFFFFFFFFFFFFFFFFFFFFFFFFFFFFFFFFFFFFFFFFFFFFFFFFFFFFFFF
310
FFFFFFFFFFFFFFFFFFFFFFFFFFFFFFFFFFFFFFFFFFFFFFFFFFFFFFFFFFFFFFFF
310
FFFFFFFFFFFFFFFFFFFFFFFFFFFFFFFFFFFFFFFFFFFFFFFFFFFFFFFFFFFFFFFF
310
FFFFFFFFFFFFFFFFFFFFFFFFFFFFFFFFFFFFFFFFFFFFFFFFFFFFFFFFFFFFFFFF
310
FFFFFFFFFFFFFFFFFFFFFFFFFFFFFFFFFFFFFFFFFFFFFFFFFFFFFFFFFFFFFFFF
310
FFFFFFFFFFFFFFFFFFFFFFFFFFFFFFFFFFFFFFFFFFFFFFFFFFFFFFFFFFFFFFFF
310
FFFFFFFFFFFFFFFFFFFFFFFFFFFFFFFFFFFFFFFFFFFFFFFFFFFFFFFFFFFFFFFF
310
FFFFFFFFFFFFFFFFFFFFFFFFFFFFFFFFFFFFFFFFFFFFFFFFFFFFFFFFFFFFFFFF
310
FFFFFFFFFFFFFFFFFFFFFFFFFFFFFFFFFFFFFFFFFFFFFFFFFFFFFFFFFFFFFFFF
310
FFFFFFFFFFFFFFFFFFFFFFFFFFFFFFFFFFFFFFFFFFFFFFFFFFFFFFFFFFFFFFFF
310
FFFFFFFFFFFFFFFFFFFFFFFFFFFFFFFFFFFFFFFFFFFFFFFFFFFFFFFFFFFFFFFF
310
0100000200000000000000000000000000000000000000000000000000000000
310
0000000000000000000000000000000000000000000000000000000000000000
310
0100FEFF030A0000FFFFFFFF0A00030000000000C00000000000004607000000
310
5042727573680007000000504272757368000700000050427275736800F439B2
310
7100000000000000000000000000000000000000000000000000000000000000
310
0000000000000000000000000000000000000000000000000000000000000000
310
0000000000000000000000000000000000000000000000000000000000000000
310
0000000000000000000000000000000000000000000000000000000000000000
310
0000000000000000000000000000000000000000000000000000000000000000
310
0000000000000000000000000000000000000000000000000000000000000000
310
0000000000000000000000000000000000000000000000000000000000000000
310
0000000000000000000000000000000000000000000000000000000000000000
310
0000000000000000000000000000000000000000000000000000000000000000
310
0000000000000000000000000000000000000000000000000000000000000000
310
0000000000000000000000000000000000000000000000000000000000000000
310
0000000000000000000000000000000000000000000000000000000000000000
310
20260000424D0E260000000000003E00000028000000B40200006E0000000100
310
01000000000000000000130B0000130B00000200000002000000000000FFFFFF
310
FFFFFFFFFFFFFFFFFFFFFFFFFFFFFFFFFFFFFFFFFFFFFFFFFFFFFFFFFFFFFFFF
310
FFFFFFFFFFFFFFFFFFFFFFFFFFFFFFFFFFFFFFFFFFFFFFFFFFFFFFFFFFFFFFFF
310
FFFFFFFFFFFFFFFFFFFFFFFFFFFFFFFFFFFFFFFFFFFFFFFFF000FFFFFFFFFFFF
310
FFFFFFFFFFFFFFFFFFFFFFFFFFFFFFFFFFFFFFFFFFFFFFFFFFFFFFFFFFFFFFFF
310
FFFFFFFFFFFFFFFFFFFFFFFFFFFFFFFFFFFFFFFFFFFFFFFFFFFFFFFFFFFFFFFF
310
FFFFFFFFFFFFFFFFFFFFFFFFFFFFFFFFF000FFFFFFFFFFFFFFFFFFFFFFFFFFFF
310
FFFFFFFFFFFFFFFFFFFFFFFFFFFFFFFFFFFFFFFFFFFFFFFFFFFFFFFFFFFFFFFF
310
FFFFFFFFFFFFFFFFFFFFFFFFFFFFFFFFFFFFFFFFFFFFFFFFFFFFFFFFFFFFFFFF
310
FFFFFFFFFFFFFFFFF000FFFFFFFFFFFFFFFFFFFFFFFFFFFFFFFFFFFFFFFFFFFF
310
FFFFFFFFFFFFFFFFFFFFFFFFFFFFFFFFFFFFFFFFFFFFFFFFFFFFFFFFFFFFFFFF
310
FFFFFFFFFFFFFFFFFFFFFFFFFFFFFFFFFFFFFFFFFFFFFFFFFFFFFFFFFFFFFFFF
310
F000FFFFFFFFFFFFFFFFFFFFFFFFFFFFFFFFFFFFFFFFFFFFFFFFFFFFFFFFFFFF
310
FFFFFFFFFFFFFFFFFFFFFFFFFFFFFFFFFFFFFFFFFFFFFFFFFFFFFFFFFFFFFFFF
310
FFFFFFFFFFFFFFFFFFFFFFFFFFFFFFFFFFFFFFFFFFFFFFFFF000FFFFFFFFFFFF
310
FFFFFFFFFFFFFFFFFFFFFFFFFFFFFFFFFFFFFFFFFFFFFFFFFFFFFFFFFFFFFFFF
310
FFFFFFFFFFFFFFFFFFFFFFFFFFFFFFFFFFFFFFFFFFFFFFFFFFFFFFFFFFFFFFFF
310
FFFFFFFFFFFFFFFFFFFFFFFFFFFFFFFFF000FFFFFFFFFFFFFFFFFFFFFFFFFFFF
310
FFFFFFFFFFFFFFFFFFFFFFFFFFFFFFFFFFFFFFFFFFFFFFFFFFFFFFFFFFFFFFFF
310
FFFFFFFFFFFFFFFFFFFFFFFFFFFFFFFFFFFFFFFFFFFFFFFFFFFFFFFFFFFFFFFF
310
FFFFFFFFFFFFFFFFF000FFFFFFFFFFFFFFFFFFFFFFFFFFFFFFFFFFFFFFFFFFFF
310
FFFFFFFFFFFFFFFFFFFFFFFFFFFFFFFFFFFFFFFFFFFFFFFFFFFFFFFFFFFFFFFF
310
FFFFFFFFFFFFFFFFFFFFFFFFFFFFFFFFFFFFFFFFFFFFFFFFFFFFFFFFFFFFFFFF
310
F000FFFFFFFFFFFFFFFFFFFFFFFFFFFFFFFFFFFFFFFFFFFFFFFFFFFFFFFFFFFF
310
FFFFFFFFFFFFFFFFFFFFFFFFFFFFFFFFFFFFFFFFFFFFFFFFFFFFFFFFFFFFFFFF
310
FFFFFFFFFFFFFFFFFFFFFFFFFFFFFFFFFFFFFFFFFFFFFFFFF000FFFFFFFFFFFF
310
FFFFFFFFFFFFFFFFFFFFFFFFFFFFFFFFFFFFFFFFFFFFFFFFFFFFFFFFFFFFFFFF
310
FFFFFFFFFFFFFFFFFFFFFFFFFFFFFFFFFFFFFFFFFFFFFFFFFFFFFFFFFFFFFFFF
310
FFFFFFFFFFFFFFFFFFFFFFFFFFFFFFFFF000FFFFFFFFFFFFFFFFFFFFFFFFFFFF
310
FFFFFFFFFFFFFFFFFFFFFFFFFFFFFFFFFFFFFFFFFFFFFFFFFFFFFFFFFFFFFFFF
310
FFFFFFFFFFFFFFFFFFFFFFFFFFFFFFFFFFFFFFFFFFFFFFFFFFFFFFFFFFFFFFFF
310
FFFFFFFFFFFFFFFFF000FFFFFFFFFFFFFFFFFFFFFFFFFFFFFFFFFFFFFFFFFFFF
310
FFFFFFFFFFFFFFFFFFFFFFFFFFFFFFFFFFFFFFFFFFFFFFFFFFFFFFFFFFFFFFFF
310
FFFFFFFFFFFFFFFFFFFFFFFFFFFFFFFFFFFFFFFFFFFFFFFFFFFFFFFFFFFFFFFF
310
F000FFFFFFFFFFFFFFFFFFFFFFFFFFFFFFFFFFFFFFFFFFFFFFFFFFFFFFFFFFFF
310
FFFFFFFFFFFFFFFFFFFFFFFFFFFFFFFFFFFFFFFFFFFFFFFFFFFFFFFFFFFFFFFF
310
FFFFFFFFFFFFFFFFFFFFFFFFFFFFFFFFFFFFFFFFFFFFFFFFF000FFFFFFFFFFFF
310
FFFFFFFFFFFFFFFFFFFFFFFFFFFFFFFFFFFFFFFFFFFFFFFFFFFFFFFFFFFFFFFF
310
FFFFFFFFFFFFFFFFFFFFFFFFFFFFFFFFFFFFFFFFFFFFFFFFFFFFFFFFFFFFFFFF
310
FFFFFFFFFFFFFFFFFFFFFFFFFFFFFFFFF000FFFFFFFFFFFFFFFFFFFFFFFFFFFF
310
FFFFFFFFFFFFFFFFFFFFFFFFFFFFFFFFFFFFFFFFFFFFFFFFFFFFFFFFFFFFFFFF
310
FFFFFFFFFFFFFFFFFFFFFFFFFFFFFFFFFFFFFFFFFFFFFFFFFFFFFFFFFFFFFFFF
310
FFFFFFFFFFFFFFFFF000FFFFFFFFFFFFFFFFFFFFFFFFFFFFFFFFFFFFFFFFFFFF
310
FFFFFFFFFFFFFFFFFFFFFFFFFFFFFFFFFFFFFFFFFFFFFFFFFFFFFFFFFFFFFFFF
310
FFFFFFFFFFFFFFFFFFFFFFFFFFFFFFFFFFFFFFFFFFFFFFFFFFFFFFFFFFFFFFFF
310
F000FFFFFFFFFFFFFFFFFFFFFFFFFFFFFFFFFFFFFFFFFFFFFFFFFFFFFFFFFFFF
310
FFFFFFFFFFFFFFFFFFFFFFFFFFFFFFFFFFFFFFFFFFFFFFFFFFFFFFFFFFFFFFFF
310
FFFFFFFFFFFFFFFFFFFFFFFFFFFFFFFFFFFFFFFFFFFFFFFFF000FFFFFFFFFFFF
310
FFFFFFFFFFFFFFFFFFFFFFFFFFFFFFFFFFFFFFFFFFFFFFFFFFFFFFFFFFFFFFFF
310
FFFFFFFFFFFFFFFFFFFFFFFFFFFFFFFFFFFFFFFFFFFFFFFFFFFFFFFFFFFFFFFF
310
FFFFFFFFFFFFFFFFFFFFFFFFFFFFFFFFF000FFFFFFFFFFFFFFFFFFFFFFFFFFFF
310
FFFFFFFFFFFFFFFFFFFFFFFFFFFFFFFFFFFFFFFFFFFFFFFFFFFFFFFFFFFFFFFF
310
FFFFFFFFFFFFFFFFFFFFFFFFFFFFFFFFFFFFFFFFFFFFFFFFFFFFFFFFFFFFFFFF
310
FFFFFFFFFFFFFFFFF000FFFFF80003FFFFFFFFFFFFFFFFFFFFFFFFFFFFFFFFFF
310
FFFFF00007FFFFFFFFFF00007FFFFFF800000000000000007FFFFFFFFFFFFFFF
310
FFFFFFFC001FFFFFFFFFFFFFFC001FFFFFFFFFFFFFFFFFFFFFFFFFFE0007FFFF
310
F000FFFF8000007FFFFFFFF8000FFFFFC0007FFFFF80007FFFFF0000007FFFFF
310
FFF8000007FFFFF800000000000000007FFFFFF0001FFFFFFFFFFFC00001FFFF
310
FFFFFFFFC00001FFFFFFFF000000000003FFFFE000007FFFF000FFFE0000000F
310
FFFFFFF0000FFFFF80007FFFFF80007FFFFC0000001FFFFFFFC0000001FFFFF8
310
00000000000000007FFFFFF0001FFFFFFFFFFE0000003FFFFFFFFFFE0000003F
310
FFFFFF000000000003FFFF0000000FFFF000FFF800000003FFFFFFF00007FFFF
310
80007FFFFF80007FFFF000000007FFFFFF000000003FFFF80000000000000000
310
7FFFFFF0001FFFFFFFFFF80000000FFFFFFFFFF80000000FFFFFFF0000000000
310
03FFFC00000003FFF000FFE000000000FFFFFFF00007FFFF80003FFFFF80007F
310
FFC000000001FFFFFC000000001FFFF800000000000000007FFFFFF0001FFFFF
310
FFFFE000000003FFFFFFFFE000000003FFFFFF000000000003FFF000000000FF
310
F000FF80000000007FFFFFF00007FFFF80003FFFFF80007FFF8000000000FFFF
310
F80000000007FFF800000000000000007FFFFFF0001FFFFFFFFFC000000001FF
310
FFFFFFC000000001FFFFFF000000000003FFC0000000007FF000FF0000000000
310
3FFFFFE00007FFFF00003FFFFF80007FFE00000000003FFFF00000000003FFF8
310
00000000000000007FFFFFF0001FFFFFFFFF8000000000FFFFFFFF8000000000
310
FFFFFF000000000003FF80000000003FF000FE00000000001FFFFFE00003FFFF
310
00003FFFFF80007FFC00000000001FFFE00000000001FFF8000001FFFE000000
310
7FFFFFF0001FFFFFFFFE00000000003FFFFFFE00000000003FFFFF0000000000
310
03FF00000000001FF000FC00000000000FFFFFE00003FFFF00001FFFFF80007F
310
F800000000001FFFC00000000000FFF8000001FFFE0000007FFFFFF0001FFFFF
310
FFFC00000000001FFFFFFC00000000001FFFFF000000000003FE00000000000F
310
F000F8000000000007FFFFE00003FFFF00001FFFFF80007FF800000000000FFF
310
800000000000FFF8000001FFFE0000007FFFFFF0001FFFFFFFF800000000000F
310
FFFFF800000000000FFFFF000000000003FC000000000007F000F80000000000
310
03FFFFC00003FFFE00001FFFFF80007FF0000000000007FF0000000000007FF8
310
000001FFFE0000007FFFFFF0001FFFFFFFF0000000000007FFFFF00000000000
310
07FFFF000000000003F8000000000003F000F0000000000003FFFFC00001FFFE
310
00001FFFFF80007FE0000000000007FE0000000000003FF8000001FFFE000000
310
7FFFFFF0001FFFFFFFF0000000000007FFFFF0000000000007FFFF0000000000
310
03F800001F800003F000E00001FFF00001FFFFC00001FFFE00000FFFFF80007F
310
E00001FFE00003FE00001FFF00003FF8000001FFFE0000007FFFFFF0001FFFFF
310
FFE000003E000003FFFFE000003E000003FFFF000000000003F00001FFF80001
310
F000E00007FFFC0001FFFFC00001FFFE00000FFFFF80007FC0000FFFFC0003FC
310
0000FFFFC0001FF8000001FFFE0000007FFFFFF0001FFFFFFFC00003FFE00001
310
FFFFC00003FFE00001FFFF0001FFFFFFFFF00007FFFE0001F000E0000FFFFF00
310
00FFFF800001FFFC00000FFFFF80007FC0001FFFFE0001FC0001FFFFE0001FF8
310
000001FFFE0000007FFFFFF0001FFFFFFF80000FFFF80000FFFF80000FFFF800
310
00FFFF0003FFFFFFFFE0000FFFFF8000F000C0003FFFFF8000FFFF800000FFFC
310
000007FFFF80007F80003FFFFF0001FC0003FFFFF0001FF8000001FFFE000000
310
7FFFFFF0001FFFFFFF80003FFFFE0000FFFF80003FFFFE0000FFFF0003FFFFFF
310
FFE0003FFFFF8000F000C0003FFFFF8000FFFF800000FFFC000007FFFF80007F
310
80007FFFFF8001F80007FFFFF8000FF8000001FFFE0000007FFFFFF0001FFFFF
310
FF00007FFFFF00007FFF00007FFFFF00007FFF0003FFFFFFFFE0003FFFFFC000
310
F000C0007FFFFFC000FFFF000000FFFC000007FFFF80007F8000FFFFFF8000F8
310
000FFFFFF8000FF8000001FFFE0000007FFFFFF0001FFFFFFF0000FFFFFF8000
310
7FFF0000FFFFFF80007FFF0003FFFFFFFFC0007FFFFFC00070008000FFFFFFC0
310
00FFFF000000FFF8000007FFFF80007F8000FFFFFF8000F8000FFFFFF8000FF8
310
000001FFFE0000007FFFFFF0001FFFFFFE0001FFFFFFC0003FFE0001FFFFFFC0
310
003FFF0003FFFFFFFFC0007FFFFFE00070008000FFFFFFC0007FFF0000007FF8
310
000003FFFF80007F0001FFFFFF8000F8000FFFFFF8000FF8000001FFFE000000
310
7FFFFFF0001FFFFFFE0001FFFFFFC0003FFE0001FFFFFFC0003FFF0003FFFFFF
310
FFC000FFFFFFE00070008000FFFFFFC0007FFF0000007FF8000003FFFF80007F
310
0001FFFFFF8000F8001FFFFFF8000FF8000001FFFE0000007FFFFFF0001FFFFF
310
FE0003FFFFFFE0003FFE0003FFFFFFE0003FFF0003FFFFFFFFC000FFFFFFE000
310
70008000FFFFFFC0007FFE0000007FF8000003FFFF80007F0001FFFFFF8000F0
310
001FFFFFF8000FF8000001FFFE0000007FFFFFF0001FFFFFFC0003FFFFFFE000
310
1FFC0003FFFFFFE0001FFF0003FFFFFFFFC000FFFFFFC00070008000FFFFFF80
310
007FFE0000007FF0000003FFFF80007F0001FFFFFF0000F0001FFFFFF8000FF8
310
000001FFFE0000007FFFFFF0001FFFFFFC0007FFFFFFF0001FFC0007FFFFFFF0
310
001FFF0003FFFFFFFFC000FFFFFFC00070008001FFFFFF0000FFFE0000003FF0
310
000001FFFF80007F0001FFFFFF0000F8001FFFFFF0000FF8000001FFFE000000
310
7FFFFFF0001FFFFFFC0007FFFFFFF0001FFC0007FFFFFFF0001FFF0003FFFFFF
310
FFC001FFFFFF80007000FFFFFFFFFE0000FFFE0008003FF0008001FFFF80007F
310
FFFFFFFFFC0000FFFFFFFFFFE0000FF8000001FFFE0000007FFFFFF0001FFFFF
310
F8000FFFFFFFF8000FF8000FFFFFFFF8000FFF0003FFFFFFFFFFFFFFFFFF0000
310
7000FFFFFFFFFC0000FFFC0008003FF0008001FFFF80007FFFFFFFFFF80001FF
310
FFFFFFFF80000FF8000001FFFE0000007FFFFFF0001FFFFFF8000FFFFFFFF800
310
0FF8000FFFFFFFF8000FFF0003FFFFFFFFFFFFFFFFFE0000F000FFFFFFFFE000
310
00FFFC000C003FE000C001FFFF80007FFFFFFFFFC00001FFFFFFFFFE00001FF8
310
000001FFFE0000007FFFFFF0001FFFFFF8000FFFFFFFF8000FF8000FFFFFFFF8
310
000FFF0003FFFFFFFFFFFFFFFFF00000F000FFFFFFFE000001FFFC000C001FE0
310
00C000FFFF80007FFFFFFFFE000001FFFFFFFFE000001FF80FFFFFFFFFFFFFC0
310
7FFFFFF0001FFFFFF8000FFFFFFFF8000FF8000FFFFFFFF8000FFF0003FFFFFF
310
FFFFFFFFFF800000F000FFFFFFC0000001FFFC001C001FE001C000FFFF80007F
310
FFFFFF80000003FFFFFFF80000001FF80FFFFFFFFFFFFFC07FFFFFF0001FFFFF
310
F8001FFFFFFFFC000FF8001FFFFFFFFC000FFF0003FFFFFFFFFFFFFFF0000001
310
F000FFFFF800000001FFF8001C001FE001C000FFFF80007FFFFFF800000003FF
310
FFFF800000003FF80FFFFFFFFFFFFFC07FFFFFF0001FFFFFF8001FFFFFFFFC00
310
0FF8001FFFFFFFFC000FFF0003FFFFFFFFFFFFFE00000001F000FFFFC0000000
310
03FFF8001E001FC001E000FFFF80007FFFFF8000000007FFFFFC000000003FF8
310
0FFFFFFFFFFFFFC07FFFFFF0001FFFFFF8001FFFFFFFFC000FF8001FFFFFFFFC
310
000FFF0003FFFFFFFFFFFFE000000003F000FFFE0000000007FFF8001E000FC0
310
01E0007FFF80007FFFFE0000000007FFFFE0000000007FF80FFFFFFFFFFFFFC0
310
7FFFFFF0001FFFFFF0001FFFFFFFFC0007F0001FFFFFFFFC0007FF0003FFFFFF
310
FFFFFF0000000003F000FFF80000000007FFF8001E000FC003E0007FFF80007F
310
FFF0000000000FFFFF8000000000FFF80FFFFFFFFFFFFFC07FFFFFF0001FFFFF
310
F0001FFFFFFFFC0007F0001FFFFFFFFC0007FF0003FFFFFFFFFFFC0000000007
310
F000FFE0000000000FFFF0003E000FC003E0007FFF80007FFFC0000000001FFF
310
FE0000000001FFF80FFFFFFFFFFFFFC07FFFFFF0001FFFFFF0001FFFFFFFFC00
310
07F0001FFFFFFFFC0007FF0003FFFFFFFFFFF0000000000FF000FFC000000000
310
1FFFF0003F000F8003F0003FFF80007FFF80000000003FFFF80000000003FFF8
310
0FFFFFFFFFFFFFC07FFFFFF0001FFFFFF0001FFFFFFFFC0007F0001FFFFFFFFC
310
0007FF0003FFFFFFFFFFE0000000001FF000FF00000000007FFFF0003F000780
310
03F0003FFF80007FFF00000000007FFFF00000000007FFF80FFFFFFFFFFFFFC0
310
7FFFFFF0001FFFFFF0001FFFFFFFFC0007F0001FFFFFFFFC0007FF0003FFFFFF
310
FFFF80000000007FF000FE0000000000FFFFE0003F00078007F0003FFF80007F
310
FE0000000001FFFFE0000000001FFFF80FFFFFFFFFFFFFC07FFFFFF0001FFFFF
310
F0001FFFFFFFFC0007F0001FFFFFFFFC0007FF0003FFFFFFFFFF0000000000FF
310
F000FC0000000003FFFFE0007F00078007F0003FFF80007FFC0000000007FFFF
310
C0000000007FFFF80FFFFFFFFFFFFFC07FFFFFF0001FFFFFF8001FFFFFFFFC00
310
0FF8001FFFFFFFFC000FFF0003FFFFFFFFFE0000000003FFF000FC000000000F
310
FFFFE0007F80070007F8001FFF80007FF8000000001FFFFF8000000001FFFFF8
310
0FFFFFFFFFFFFFC07FFFFFF0001FFFFFF8001FFFFFFFFC000FF8001FFFFFFFFC
310
000FFF0003FFFFFFFFFC000000000FFFF000F8000000007FFFFFE0007F800700
310
07F8001FFF80007FF000000000FFFFFF800000000FFFFFF80FFFFFFFFFFFFFC0
310
7FFFFFF0001FFFFFF8000FFFFFFFF8000FF8000FFFFFFFF8000FFF0003FFFFFF
310
FFFC000000007FFFF000F800000007FFFFFFC0007F8003000FF8001FFF80007F
310
F000000007FFFFFF000000007FFFFFF80FFFFFFFFFFFFFC07FFFFFF0001FFFFF
310
F8000FFFFFFFF8000FF8000FFFFFFFF8000FFF0003FFFFFFFFF80000000FFFFF
310
F000F0000000FFFFFFFFC000FF8003000FF8001FFF80007FE0000000FFFFFFFF
310
0000000FFFFFFFF8000001FFFE0000007FFFFFF0001FFFFFF8000FFFFFFFF800
310
0FF8000FFFFFFFF8000FFF0003FFFFFFFFF8000000FFFFFFF000F000000FFFFF
310
FFFFC000FFC002000FF8000FFF80007FE000001FFFFFFFFE000001FFFFFFFFF8
310
000001FFFE0000007FFFFFF0001FFFFFF8000FFFFFFFF8000FF8000FFFFFFFF8
310
000FFF0003FFFFFFFFF000001FFFFFFFF000E00000FFFFFFFFFFC000FFC00200
310
0FFC000FFF80007FE00001FFFFFFFFFE00001FFFFFFFFFF8000001FFFE000000
310
7FFFFFF0001FFFFFFC000FFFFFFFF8001FFC000FFFFFFFF8001FFF0003FFFFFF
310
FFF00001FFFFFFFFF000E00007FFFFFFFFFF8000FFC000001FFC000FFF80007F
310
C0000FFFFFFFFFFE0000FFFFFFFFFFF8000001FFFE0000007FFFFFF0001FFFFF
310
FC0007FFFFFFF0001FFC0007FFFFFFF0001FFF0003FFFFFFFFF00007FFFFFFFF
310
F000E0001FFFFFFFFFFF8000FFC000001FFC000FFF80007FC0003FFFFFFFFFFE
310
0001FFFFFFFFFFF8000001FFFE0000007FFFFFF0001FFFFFFC0007FFFFFFF000
310
1FFC0007FFFFFFF0001FFF0003FFFFFFFFF0001FFFFFFFFFF000E0003FFFFF00
310
03FF8001FFE000001FFC0007FF80007FC0007FFFFF0007FC0003FFFFF0003FF8
310
000001FFFE0000007FFFFFF0001FFFFFFC0003FFFFFFE0001FFC0003FFFFFFE0
310
001FFF0003FFFFFFFFF0003FFFFFFFFFF000E0003FFFFF0001FF8001FFE00000
310
1FFE0007FF80007FC0007FFFFE0003FC0007FFFFE0003FF8000001FFFE000000
310
7FFFFFF0001FFFFFFE0003FFFFFFE0003FFE0003FFFFFFE0003FFF0003FFFFFF
310
FFF0003FFFFF8001F000E0003FFFFF0001FF0001FFE000001FFE0007FF80007F
310
C0007FFFFE0003FC0007FFFFE0003FF8000001FFFE0000007FFFFFF0001FFFFF
310
FE0001FFFFFFC0003FFE0001FFFFFFC0003FFF0003FFFFFFFFF0003FFFFF0001
310
F000E0003FFFFF0003FF0001FFE000003FFE0007FF80007FC0007FFFFE0003FC
310
0007FFFFE0003FF8000001FFFE0000007FFFFFF0001FFFFFFF0001FFFFFFC000
310
7FFF0001FFFFFFC0007FFF0003FFFFFFFFF0003FFFFF0001F000E0003FFFFE00
310
03FF0003FFF000003FFE0003FF80007FC0007FFFFC0003FE0007FFFFE0003FF8
310
000001FFFE0000007FFFFFF0001FFFFFFF0000FFFFFF80007FFF0000FFFFFF80
310
007FFF0003FFFFFFFFF0003FFFFF0001F000E0003FFFFE0003FF0003FFF00000
310
3FFF0003FF80007FC0007FFFFC0007FE0007FFFFC0003FF8000001FFFE000000
310
7FFFFFF0001FFFFFFF80007FFFFF0000FFFF80007FFFFF0000FFFF0003FFFFFF
310
FFF0003FFFFF0003F000E0003FFFFC0003FE0003FFF000003FFF0003FF80007F
310
E0003FFFF80007FE0003FFFFC0007FF8000001FFFE0000007FFFFFF0001FFFFF
310
FF80003FFFFE0000FFFF80003FFFFE0000FFFF0003FFFFFFFFF0001FFFFE0003
310
F000F0001FFFF80003FE0003FFF000007FFF0001FF80007FE0003FFFF00007FE
310
0001FFFF80007FF8000001FFFE0000007FFFFFF0001FFFFFFFC0000FFFF80001
310
FFFFC0000FFFF80001FFFF0003FFFFFFFFF0001FFFFC0003F000F0000FFFF000
310
07FE0007FFF800007FFF0001FF80007FE0001FFFE00007FF0000FFFE00007FF8
310
000001FFFE0000007FFFFFF0001FFFFFFFC00003FFE00001FFFFC00003FFE000
310
01FFFF0003FFFFFFFFF8000FFFF80003F000F00003FFC00007FC0007FFF80000
310
7FFF8001FF80007FF00007FF80000FFF00007FF80000FFF8000001FFFE000000
310
7F80000000000001FFE000003E000003FFFFE000003E000003FFFF0003FFFFFF
310
FFF80003FFE00007F000F800000000000FFC0007FFF800007FFF8001FF80007F
310
F000000000000FFF000000000000FFF8000001FFFE0000007F80000000000001
310
FFF0000000000007FFFFF0000000000007FFFF0003FFFFFFFFFC00007E000007
310
F000F800000000000FFC0007FFF80000FFFF8000FF80007FF800000000001FFF
310
800000000001FFF8000001FFFE0000007F80000000000001FFF800000000000F
310
FFFFF800000000000FFFFF0003FFFFFFFFFC00000000000FF000FC0000000000
310
1FFC0007FFFC0000FFFF8000FF80007FF800000000003FFFC00000000001FFF8
310
000001FFFE0000007F80000000000001FFF800000000000FFFFFF80000000000
310
0FFFFF0003FFFFFFFFFE00000000001FF000FE00000000003FF8000FFFFC0000
310
FFFF8000FF80007FFC00000000003FFFC00000000003FFF8000001FFFE000000
310
7F80000000000001FFFC00000000001FFFFFFC00000000001FFFFF0003FFFFFF
310
FFFF00000000001FF000FF00000000003FF8000FFFFC0000FFFFC000FF80007F
310
FE00000000007FFFE00000000007FFF8000001FFFE0000007F80000000000001
310
FFFE00000000003FFFFFFE00000000003FFFFF0003FFFFFFFFFF80000000003F
310
F000FF80000000007FF8000FFFFC0001FFFFC0007F80007FFF0000000000FFFF
310
F0000000000FFFF800000000000000007F80000000000001FFFF8000000000FF
310
FFFFFF8000000000FFFFFF0003FFFFFFFFFFC0000000007FF000FFC000000000
310
FFF8000FFFFE0001FFFFC0007F80007FFF8000000001FFFFF8000000001FFFF8
310
00000000000000007F80000000000001FFFFC000000001FFFFFFFFC000000001
310
FFFFFF0003FFFFFFFFFFE000000000FFF000FFE000000003FFF0001FFFFE0001
310
FFFFC0007F80007FFFC000000007FFFFFE000000003FFFF80000000000000000
310
7F80000000000001FFFFE000000003FFFFFFFFE000000003FFFFFF0003FFFFFF
310
FFFFF000000003FFF000FFF80000000FFFF0001FFFFE0001FFFFE0007F80007F
310
FFF00000000FFFFFFF00000000FFFFF800000000000000007F80000000000001
310
FFFFF80000000FFFFFFFFFF80000000FFFFFFF0003FFFFFFFFFFFC0000000FFF
310
F000FFFE0000003FFFF0001FFFFE0003FFFFE0003F80007FFFFC0000003FFFFF
310
FFC0000003FFFFF800000000000000007F80000000000001FFFFFE0000003FFF
310
FFFFFFFE0000003FFFFFFF0003FFFFFFFFFFFF0000003FFFF000FFFF800000FF
310
FFF0001FFFFF0003FFFFE0003F80007FFFFF000001FFFFFFFFF800001FFFFFF8
310
00000000000000007F80000000000001FFFFFFC00001FFFFFFFFFFFFC00001FF
310
FFFFFF0003FFFFFFFFFFFFC00000FFFFF000FFFFF8000FFFFFFFFFFFFFFFFFFF
310
FFFFFFFFFFFFFFFFFFFFF0001FFFFFFFFFFF0000FFFFFFF80000000000000000
310
7FFFFFFFFFFFFFFFFFFFFFFC001FFFFFFFFFFFFFFC001FFFFFFFFFFFFFFFFFFF
310
FFFFFFFC001FFFFFF000FFFFFFFFFFFFFFFFFFFFFFFFFFFFFFFFFFFFFFFFFFFF
310
FFFFFFFFFFFFFFFFFFFFFFFFFFFFFFFFFFFFFFFFFFFFFFFFFFFFFFFFFFFFFFFF
310
FFFFFFFFFFFFFFFFFFFFFFFFFFFFFFFFFFFFFFFFFFFFFFFFFFFFFFFFFFFFFFFF
310
F000FFFFFFFFFFFFFFFFFFFFFFFFFFFFFFFFFFFFFFFFFFFFFFFFFFFFFFFFFFFF
310
FFFFFFFFFFFFFFFFFFFFFFFFFFFFFFFFFFFFFFFFFFFFFFFFFFFFFFFFFFFFFFFF
310
FFFFFFFFFFFFFFFFFFFFFFFFFFFFFFFFFFFFFFFFFFFFFFFFF000FFFFFFFFFFFF
310
FFFFFFFFFFFFFFFFFFFFFFFFFFFFFFFFFFFFFFFFFFFFFFFFFFFFFFFFFFFFFFFF
310
FFFFFFFFFFFFFFFFFFFFFFFFFFFFFFFFFFFFFFFFFFFFFFFFFFFFFFFFFFFFFFFF
310
FFFFFFFFFFFFFFFFFFFFFFFFFFFFFFFFF000FFFFFFFFFFFFFFFFFFFFFFFFFFFF
310
FFFFFFFFFFFFFFFFFFFFFFFFFFFFFFFFFFFFFFFFFFFFFFFFFFFFFFFFFFFFFFFF
310
FFFFFFFFFFFFFFFFFFFFFFFFFFFFFFFFFFFFFFFFFFFFFFFFFFFFFFFFFFFFFFFF
310
FFFFFFFFFFFFFFFFF000FFFFFFFFFFFFFFFFFFFFFFFFFFFFFFFFFFFFFFFFFFFF
310
FFFFFFFFFFFFFFFFFFFFFFFFFFFFFFFFFFFFFFFFFFFFFFFFFFFFFFFFFFFFFFFF
310
FFFFFFFFFFFFFFFFFFFFFFFFFFFFFFFFFFFFFFFFFFFFFFFFFFFFFFFFFFFFFFFF
310
F000FFFFFFFFFFFFFFFFFFFFFFFFFFFFFFFFFFFFFFFFFFFFFFFFFFFFFFFFFFFF
310
FFFFFFFFFFFFFFFFFFFFFFFFFFFFFFFFFFFFFFFFFFFFFFFFFFFFFFFFFFFFFFFF
310
FFFFFFFFFFFFFFFFFFFFFFFFFFFFFFFFFFFFFFFFFFFFFFFFF000FFFFFFFFFFFF
310
FFFFFFFFFFFFFFFFFFFFFFFFFFFFFFFFFFFFFFFFFFFFFFFFFFFFFFFFFFFFFFFF
310
FFFFFFFFFFFFFFFFFFFFFFFFFFFFFFFFFFFFFFFFFFFFFFFFFFFFFFFFFFFFFFFF
310
FFFFFFFFFFFFFFFFFFFFFFFFFFFFFFFFF000FFFFFFFFFFFFFFFFFFFFFFFFFFFF
310
FFFFFFFFFFFFFFFFFFFFFFFFFFFFFFFFFFFFFFFFFFFFFFFFFFFFFFFFFFFFFFFF
310
FFFFFFFFFFFFFFFFFFFFFFFFFFFFFFFFFFFFFFFFFFFFFFFFFFFFFFFFFFFFFFFF
310
FFFFFFFFFFFFFFFFF000FFFFFFFFFFFFFFFFFFFFFFFFFFFFFFFFFFFFFFFFFFFF
310
FFFFFFFFFFFFFFFFFFFFFFFFFFFFFFFFFFFFFFFFFFFFFFFFFFFFFFFFFFFFFFFF
310
FFFFFFFFFFFFFFFFFFFFFFFFFFFFFFFFFFFFFFFFFFFFFFFFFFFFFFFFFFFFFFFF
310
F000FFFFFFFFFFFFFFFFFFFFFFFFFFFFFFFFFFFFFFFFFFFFFFFFFFFFFFFFFFFF
310
FFFFFFFFFFFFFFFFFFFFFFFFFFFFFFFFFFFFFFFFFFFFFFFFFFFFFFFFFFFFFFFF
310
FFFFFFFFFFFFFFFFFFFFFFFFFFFFFFFFFFFFFFFFFFFFFFFFF000FFFFFFFFFFFF
310
FFFFFFFFFFFFFFFFFFFFFFFFFFFFFFFFFFFFFFFFFFFFFFFFFFFFFFFFFFFFFFFF
310
FFFFFFFFFFFFFFFFFFFFFFFFFFFFFFFFFFFFFFFFFFFFFFFFFFFFFFFFFFFFFFFF
310
FFFFFFFFFFFFFFFFFFFFFFFFFFFFFFFFF000FFFFFFFFFFFFFFFFFFFFFFFFFFFF
310
FFFFFFFFFFFFFFFFFFFFFFFFFFFFFFFFFFFFFFFFFFFFFFFFFFFFFFFFFFFFFFFF
310
FFFFFFFFFFFFFFFFFFFFFFFFFFFFFFFFFFFFFFFFFFFFFFFFFFFFFFFFFFFFFFFF
310
FFFFFFFFFFFFFFFFF000FFFFFFFFFFFFFFFFFFFFFFFFFFFFFFFFFFFFFFFFFFFF
310
FFFFFFFFFFFFFFFFFFFFFFFFFFFFFFFFFFFFFFFFFFFFFFFFFFFFFFFFFFFFFFFF
310
FFFFFFFFFFFFFFFFFFFFFFFFFFFFFFFFFFFFFFFFFFFFFFFFFFFFFFFFFFFFFFFF
310
F000FFFFFFFFFFFFFFFFFFFFFFFFFFFFFFFFFFFFFFFFFFFFFFFFFFFFFFFFFFFF
310
FFFFFFFFFFFFFFFFFFFFFFFFFFFFFFFFFFFFFFFFFFFFFFFFFFFFFFFFFFFFFFFF
310
FFFFFFFFFFFFFFFFFFFFFFFFFFFFFFFFFFFFFFFFFFFFFFFFF000FFFFFFFFFFFF
310
FFFFFFFFFFFFFFFFFFFFFFFFFFFFFFFFFFFFFFFFFFFFFFFFFFFFFFFFFFFFFFFF
310
FFFFFFFFFFFFFFFFFFFFFFFFFFFFFFFFFFFFFFFFFFFFFFFFFFFFFFFFFFFFFFFF
310
FFFFFFFFFFFFFFFFFFFFFFFFFFFFFFFFF000FFFFFFFFFFFFFFFFFFFFFFFFFFFF
310
FFFFFFFFFFFFFFFFFFFFFFFFFFFFFFFFFFFFFFFFFFFFFFFFFFFFFFFFFFFFFFFF
310
FFFFFFFFFFFFFFFFFFFFFFFFFFFFFFFFFFFFFFFFFFFFFFFFFFFFFFFFFFFFFFFF
310
FFFFFFFFFFFFFFFFF000FFFFFFFFFFFFFFFFFFFFFFFFFFFFFFFFFFFFFFFFFFFF
310
FFFFFFFFFFFFFFFFFFFFFFFFFFFFFFFFFFFFFFFFFFFFFFFFFFFFFFFFFFFFFFFF
310
FFFFFFFFFFFFFFFFFFFFFFFFFFFFFFFFFFFFFFFFFFFFFFFFFFFFFFFFFFFFFFFF
310
F000FFFFFFFFFFFFFFFFFFFFFFFFFFFFFFFFFFFFFFFFFFFFFFFFFFFFFFFFFFFF
310
FFFFFFFFFFFFFFFFFFFFFFFFFFFFFFFFFFFFFFFFFFFFFFFFFFFFFFFFFFFFFFFF
310
FFFFFFFFFFFFFFFFFFFFFFFFFFFFFFFFFFFFFFFFFFFFFFFFF000FFFFFFFFFFFF
310
FFFFFFFFFFFFFFFFFFFFFFFFFFFFFFFFFFFFFFFFFFFFFFFFFFFFFFFFFFFFFFFF
310
FFFFFFFFFFFFFFFFFFFFFFFFFFFFFFFFFFFFFFFFFFFFFFFFFFFFFFFFFFFFFFFF
310
FFFFFFFFFFFFFFFFFFFFFFFFFFFFFFFFF000FFFFFFFFFFFFFFFFFFFFFFFFFFFF
310
FFFFFFFFFFFFFFFFFFFFFFFFFFFFFFFFFFFFFFFFFFFFFFFFFFFFFFFFFFFFFFFF
310
FFFFFFFFFFFFFFFFFFFFFFFFFFFFFFFFFFFFFFFFFFFFFFFFFFFFFFFFFFFFFFFF
310
FFFFFFFFFFFFFFFFF000FFFFFFFFFFFFFFFFFFFFFFFFFFFFFFFFFFFFFFFFFFFF
310
FFFFFFFFFFFFFFFFFFFFFFFFFFFFFFFFFFFFFFFFFFFFFFFFFFFFFFFFFFFFFFFF
310
FFFFFFFFFFFFFFFFFFFFFFFFFFFFFFFFFFFFFFFFFFFFFFFFFFFFFFFFFFFFFFFF
310
F000FFFFFFFFFFFFFFFFFFFFFFFFFFFFFFFFFFFFFFFFFFFFFFFFFFFFFFFFFFFF
310
FFFFFFFFFFFFFFFFFFFFFFFFFFFFFFFFFFFFFFFFFFFFFFFFFFFFFFFFFFFFFFFF
310
FFFFFFFFFFFFFFFFFFFFFFFFFFFFFFFFFFFFFFFFFFFFFFFFF000FFFFFFFFFFFF
310
FFFFFFFFFFFFFFFFFFFFFFFFFFFFFFFFFFFFFFFFFFFFFFFFFFFFFFFFFFFFFFFF
310
FFFFFFFFFFFFFFFFFFFFFFFFFFFFFFFFFFFFFFFFFFFFFFFFFFFFFFFFFFFFFFFF
310
FFFFFFFFFFFFFFFFFFFFFFFFFFFFFFFFF0000000000000000000000000000000
310
0000000000000000000000000000000000000000000000000000000000000000
310
0000000000000000000000000000000000000000000000000000000000000000
310
0000000000000000000000000000000000000000000000000000000000000000
310
0000000000000000000000000000000000000000000000000000000000000000
310
0000000000000000000000000000000000000000000000000000000000000000
310
0000000000000000000000000000000000000000000000000000000000000000
310
0000000000000000000000000000000000000000000000000000000000000000
310
0000000000000000000000000000000000000000000000000000000000000000
310
0000000000000000000000000000000000000000000000000000000000000000
310
0000000000000000000000000000000000000000000000000000000000000000
310
0000000000000000000000000000000000000000000000000000000000000000
310
0000000000000000000000000000000000000000000000000000000000000000
310
0000000000000000000000000000000000000000000000000000000000000000
310
0000000000000000000000000000000000000000000000000000000000000000
310
0000000000000000000000000000000000000000000000000000000000000000
  1
OLE
  0
ENDSEC
  0
SECTION
  2
OBJECTS
  0
DICTIONARY
  5
C
330
0
100
AcDbDictionary
281
     1
  3
ACAD_GROUP
350
D
  3
ACAD_LAYOUT
350
1A
  3
ACAD_MLINESTYLE
350
17
  3
ACAD_PLOTSETTINGS
350
19
  3
ACAD_PLOTSTYLENAME
350
E
  0
DICTIONARY
  5
D
102
{ACAD_REACTORS
330
C
102
}
330
C
100
AcDbDictionary
281
     1
  0
DICTIONARY
  5
1A
102
{ACAD_REACTORS
330
C
102
}
330
C
100
AcDbDictionary
281
     1
  3
Layout1
350
1E
  3
Layout2
350
26
  3
Model
350
22
  0
DICTIONARY
  5
17
102
{ACAD_REACTORS
330
C
102
}
330
C
100
AcDbDictionary
281
     1
  3
Standard
350
18
  0
DICTIONARY
  5
19
102
{ACAD_REACTORS
330
C
102
}
330
C
100
AcDbDictionary
281
     1
  0
ACDBDICTIONARYWDFLT
  5
E
102
{ACAD_REACTORS
330
C
102
}
330
C
100
AcDbDictionary
281
     1
  3
Normal
350
F
100
AcDbDictionaryWithDefault
340
F
  0
LAYOUT
  5
1E
102
{ACAD_REACTORS
330
1A
102
}
330
1A
100
AcDbPlotSettings
  1

  2
none_device
  4

  6

 40
0.0
 41
0.0
 42
0.0
 43
0.0
 44
0.0
 45
0.0
 46
0.0
 47
0.0
 48
0.0
 49
0.0
140
0.0
141
0.0
142
1.0
143
1.0
 70
   688
 72
     0
 73
     0
 74
     5
  7

 75
    16
147
1.0
148
0.0
149
0.0
100
AcDbLayout
  1
Layout1
 70
     1
 71
     1
 10
0.0
 20
0.0
 11
420.0
 21
297.0
 12
0.0
 22
0.0
 32
0.0
 14
1.0000000000E+20
 24
1.0000000000E+20
 34
1.0000000000E+20
 15
-1.0000000000E+20
 25
-1.0000000000E+20
 35
-1.0000000000E+20
146
0.0
 13
0.0
 23
0.0
 33
0.0
 16
1.0
 26
0.0
 36
0.0
 17
0.0
 27
1.0
 37
0.0
 76
     0
330
1B
  0
LAYOUT
  5
26
102
{ACAD_REACTORS
330
1A
102
}
330
1A
100
AcDbPlotSettings
  1

  2
none_device
  4

  6

 40
0.0
 41
0.0
 42
0.0
 43
0.0
 44
0.0
 45
0.0
 46
0.0
 47
0.0
 48
0.0
 49
0.0
140
0.0
141
0.0
142
1.0
143
1.0
 70
   688
 72
     0
 73
     0
 74
     5
  7

 75
    16
147
1.0
148
0.0
149
0.0
100
AcDbLayout
  1
Layout2
 70
     1
 71
     2
 10
0.0
 20
0.0
 11
0.0
 21
0.0
 12
0.0
 22
0.0
 32
0.0
 14
0.0
 24
0.0
 34
0.0
 15
0.0
 25
0.0
 35
0.0
146
0.0
 13
0.0
 23
0.0
 33
0.0
 16
1.0
 26
0.0
 36
0.0
 17
0.0
 27
1.0
 37
0.0
 76
     0
330
23
  0
LAYOUT
  5
22
102
{ACAD_REACTORS
330
1A
102
}
330
1A
100
AcDbPlotSettings
  1

  2
none_device
  4

  6

 40
0.0
 41
0.0
 42
0.0
 43
0.0
 44
0.0
 45
0.0
 46
0.0
 47
0.0
 48
0.0
 49
0.0
140
0.0
141
0.0
142
1.0
143
1.0
 70
  1712
 72
     0
 73
     0
 74
     0
  7

 75
     0
147
1.0
148
0.0
149
0.0
100
AcDbLayout
  1
Model
 70
     1
 71
     0
 10
0.0
 20
0.0
 11
297.0
 21
210.0
 12
0.0
 22
0.0
 32
0.0
 14
0.0
 24
0.0
 34
0.0
 15
297.0
 25
210.0
 35
0.0
146
0.0
 13
0.0
 23
0.0
 33
0.0
 16
1.0
 26
0.0
 36
0.0
 17
0.0
 27
1.0
 37
0.0
 76
     0
330
1F
331
29
  0
MLINESTYLE
  5
18
102
{ACAD_REACTORS
330
17
102
}
330
17
100
AcDbMlineStyle
  2
Standard
 70
     0
  3

 62
   256
 51
90.0
 52
90.0
 71
     2
 49
0.5
 62
   256
  6
BYLAYER
 49
-0.5
 62
   256
  6
BYLAYER
  0
ACDBPLACEHOLDER
  5
F
102
{ACAD_REACTORS
330
E
102
}
330
E
  0
ENDSEC
  0
EOF
