  0
SECTION
  2
HEADER
  9
$ACADVER
  1
AC1015
  9
$ACADMAINTVER
 70
     6
  9
$DWGCODEPAGE
  3
ANSI_1252
  9
$INSBASE
 10
0.0
 20
0.0
 30
0.0
  9
$EXTMIN
 10
0.0
 20
0.0
 30
0.0
  9
$EXTMAX
 10
297.0
 20
210.0
 30
0.0
  9
$LIMMIN
 10
0.0
 20
0.0
  9
$LIMMAX
 10
297.0
 20
210.0
  9
$ORTHOMODE
 70
     0
  9
$REGENMODE
 70
     1
  9
$FILLMODE
 70
     1
  9
$QTEXTMODE
 70
     0
  9
$MIRRTEXT
 70
     1
  9
$LTSCALE
 40
1.0
  9
$ATTMODE
 70
     1
  9
$TEXTSIZE
 40
2.0
  9
$TRACEWID
 40
1.0
  9
$TEXTSTYLE
  7
Standard
  9
$CLAYER
  8
0
  9
$CELTYPE
  6
ByLayer
  9
$CECOLOR
 62
   256
  9
$CELTSCALE
 40
1.0
  9
$DISPSILH
 70
     0
  9
$DIMSCALE
 40
1.0
  9
$DIMASZ
 40
3.0
  9
$DIMEXO
 40
0.0
  9
$DIMDLI
 40
3.75
  9
$DIMRND
 40
0.0
  9
$DIMDLE
 40
0.0
  9
$DIMEXE
 40
1.0
  9
$DIMTP
 40
0.0
  9
$DIMTM
 40
0.0
  9
$DIMTXT
 40
2.0
  9
$DIMCEN
 40
2.5
  9
$DIMTSZ
 40
0.0
  9
$DIMTOL
 70
     0
  9
$DIMLIM
 70
     0
  9
$DIMTIH
 70
     1
  9
$DIMTOH
 70
     1
  9
$DIMSE1
 70
     0
  9
$DIMSE2
 70
     0
  9
$DIMTAD
 70
     1
  9
$DIMZIN
 70
     0
  9
$DIMBLK
  1

  9
$DIMASO
 70
     1
  9
$DIMSHO
 70
     1
  9
$DIMPOST
  1

  9
$DIMAPOST
  1

  9
$DIMALT
 70
     0
  9
$DIMALTD
 70
     3
  9
$DIMALTF
 40
0.0393700787
  9
$DIMLFAC
 40
1.0
  9
$DIMTOFL
 70
     1
  9
$DIMTVP
 40
0.0
  9
$DIMTIX
 70
     0
  9
$DIMSOXD
 70
     0
  9
$DIMSAH
 70
     0
  9
$DIMBLK1
  1

  9
$DIMBLK2
  1

  9
$DIMSTYLE
  2
ISO-25
  9
$DIMCLRD
 70
     0
  9
$DIMCLRE
 70
     0
  9
$DIMCLRT
 70
     0
  9
$DIMTFAC
 40
1.0
  9
$DIMGAP
 40
1.524
  9
$DIMJUST
 70
     0
  9
$DIMSD1
 70
     0
  9
$DIMSD2
 70
     0
  9
$DIMTOLJ
 70
     0
  9
$DIMTZIN
 70
     0
  9
$DIMALTZ
 70
     0
  9
$DIMALTTZ
 70
     0
  9
$DIMUPT
 70
     0
  9
$DIMDEC
 70
     2
  9
$DIMTDEC
 70
     3
  9
$DIMALTU
 70
     2
  9
$DIMALTTD
 70
     3
  9
$DIMTXSTY
  7
Standard
  9
$DIMAUNIT
 70
     0
  9
$DIMADEC
 70
     2
  9
$DIMALTRND
 40
0.0
  9
$DIMAZIN
 70
     0
  9
$DIMDSEP
 70
    44
  9
$DIMATFIT
 70
     3
  9
$DIMFRAC
 70
     0
  9
$DIMLDRBLK
  1

  9
$DIMLUNIT
 70
     2
  9
$DIMLWD
 70
    -2
  9
$DIMLWE
 70
    -2
  9
$DIMTMOVE
 70
     0
  9
$LUNITS
 70
     2
  9
$LUPREC
 70
     2
  9
$SKETCHINC
 40
1.0
  9
$FILLETRAD
 40
10.0
  9
$AUNITS
 70
     0
  9
$AUPREC
 70
     2
  9
$MENU
  1
.
  9
$ELEVATION
 40
0.0
  9
$PELEVATION
 40
0.0
  9
$THICKNESS
 40
0.0
  9
$LIMCHECK
 70
     0
  9
$CHAMFERA
 40
10.0
  9
$CHAMFERB
 40
10.0
  9
$CHAMFERC
 40
20.0
  9
$CHAMFERD
 40
0.0
  9
$SKPOLY
 70
     0
  9
$TDCREATE
 40
2456071.388529421
  9
$TDUCREATE
 40
2456071.305196088
  9
$TDUPDATE
 40
2456071.388531042
  9
$TDUUPDATE
 40
2456071.305197708
  9
$TDINDWG
 40
0.0000000116
  9
$TDUSRTIMER
 40
0.0000000116
  9
$USRTIMER
 70
     1
  9
$ANGBASE
 50
0.0
  9
$ANGDIR
 70
     0
  9
$PDMODE
 70
     0
  9
$PDSIZE
 40
-1.0
  9
$PLINEWID
 40
0.0
  9
$SPLFRAME
 70
     0
  9
$SPLINETYPE
 70
     6
  9
$SPLINESEGS
 70
     8
  9
$HANDSEED
  5
26B
  9
$SURFTAB1
 70
     6
  9
$SURFTAB2
 70
     6
  9
$SURFTYPE
 70
     6
  9
$SURFU
 70
     6
  9
$SURFV
 70
     6
  9
$UCSBASE
  2

  9
$UCSNAME
  2

  9
$UCSORG
 10
0.0
 20
0.0
 30
0.0
  9
$UCSXDIR
 10
1.0
 20
0.0
 30
0.0
  9
$UCSYDIR
 10
0.0
 20
1.0
 30
0.0
  9
$UCSORTHOREF
  2

  9
$UCSORTHOVIEW
 70
     0
  9
$UCSORGTOP
 10
0.0
 20
0.0
 30
0.0
  9
$UCSORGBOTTOM
 10
0.0
 20
0.0
 30
0.0
  9
$UCSORGLEFT
 10
0.0
 20
0.0
 30
0.0
  9
$UCSORGRIGHT
 10
0.0
 20
0.0
 30
0.0
  9
$UCSORGFRONT
 10
0.0
 20
0.0
 30
0.0
  9
$UCSORGBACK
 10
0.0
 20
0.0
 30
0.0
  9
$PUCSBASE
  2

  9
$PUCSNAME
  2

  9
$PUCSORG
 10
0.0
 20
0.0
 30
0.0
  9
$PUCSXDIR
 10
1.0
 20
0.0
 30
0.0
  9
$PUCSYDIR
 10
0.0
 20
1.0
 30
0.0
  9
$PUCSORTHOREF
  2

  9
$PUCSORTHOVIEW
 70
     0
  9
$PUCSORGTOP
 10
0.0
 20
0.0
 30
0.0
  9
$PUCSORGBOTTOM
 10
0.0
 20
0.0
 30
0.0
  9
$PUCSORGLEFT
 10
0.0
 20
0.0
 30
0.0
  9
$PUCSORGRIGHT
 10
0.0
 20
0.0
 30
0.0
  9
$PUCSORGFRONT
 10
0.0
 20
0.0
 30
0.0
  9
$PUCSORGBACK
 10
0.0
 20
0.0
 30
0.0
  9
$USERI1
 70
     0
  9
$USERI2
 70
     0
  9
$USERI3
 70
     0
  9
$USERI4
 70
     0
  9
$USERI5
 70
     0
  9
$USERR1
 40
0.0
  9
$USERR2
 40
0.0
  9
$USERR3
 40
0.0
  9
$USERR4
 40
0.0
  9
$USERR5
 40
0.0
  9
$WORLDVIEW
 70
     1
  9
$SHADEDGE
 70
     3
  9
$SHADEDIF
 70
    70
  9
$TILEMODE
 70
     1
  9
$MAXACTVP
 70
    64
  9
$PINSBASE
 10
0.0
 20
0.0
 30
0.0
  9
$PLIMCHECK
 70
     0
  9
$PEXTMIN
 10
1.0000000000E+20
 20
1.0000000000E+20
 30
1.0000000000E+20
  9
$PEXTMAX
 10
-1.0000000000E+20
 20
-1.0000000000E+20
 30
-1.0000000000E+20
  9
$PLIMMIN
 10
0.0
 20
0.0
  9
$PLIMMAX
 10
420.0
 20
297.0
  9
$UNITMODE
 70
     0
  9
$VISRETAIN
 70
     1
  9
$PLINEGEN
 70
     0
  9
$PSLTSCALE
 70
     1
  9
$TREEDEPTH
 70
  3020
  9
$CMLSTYLE
  2
Standard
  9
$CMLJUST
 70
     0
  9
$CMLSCALE
 40
20.0
  9
$PROXYGRAPHICS
 70
     1
  9
$MEASUREMENT
 70
     1
  9
$CELWEIGHT
370
    -1
  9
$ENDCAPS
280
     0
  9
$JOINSTYLE
280
     0
  9
$LWDISPLAY
290
     1
  9
$INSUNITS
 70
     4
  9
$HYPERLINKBASE
  1

  9
$STYLESHEET
  1

  9
$XEDIT
290
     1
  9
$CEPSNTYPE
380
     0
  9
$PSTYLEMODE
290
     1
  9
$FINGERPRINTGUID
  2
{EC088B6E-3ABE-42B1-BB50-17C6B06431B5}
  9
$VERSIONGUID
  2
{FAEB1C32-E019-11D5-929B-00C0DF256EC4}
  9
$EXTNAMES
290
     1
  9
$PSVPSCALE
 40
0.0
  9
$OLESTARTUP
290
     0
  0
ENDSEC
  0
SECTION
  2
CLASSES
  0
CLASS
  1
ACDBDICTIONARYWDFLT
  2
AcDbDictionaryWithDefault
  3
ObjectDBX Classes
 90
        0
280
     0
281
     0
  0
CLASS
  1
VISUALSTYLE
  2
AcDbVisualStyle
  3
ObjectDBX Classes
 90
     4095
280
     0
281
     0
  0
CLASS
  1
MATERIAL
  2
AcDbMaterial
  3
ObjectDBX Classes
 90
     1153
280
     0
281
     0
  0
CLASS
  1
ACDBPLACEHOLDER
  2
AcDbPlaceHolder
  3
ObjectDBX Classes
 90
        0
280
     0
281
     0
  0
CLASS
  1
LAYOUT
  2
AcDbLayout
  3
ObjectDBX Classes
 90
        0
280
     0
281
     0
  0
ENDSEC
  0
SECTION
  2
TABLES
  0
TABLE
  2
VPORT
  5
8
330
0
100
AcDbSymbolTable
 70
     1
  0
VPORT
  5
29
330
8
100
AcDbSymbolTableRecord
100
AcDbViewportTableRecord
  2
*Active
 70
     0
 10
0.0
 20
0.0
 11
1.0
 21
1.0
 12
148.5
 22
105.0
 13
0.0
 23
0.0
 14
10.0
 24
10.0
 15
10.0
 25
10.0
 16
0.0
 26
0.0
 36
1.0
 17
0.0
 27
0.0
 37
0.0
 40
210.0
 41
1.4142857143
 42
50.0
 43
0.0
 44
0.0
 50
0.0
 51
0.0
 71
     0
 72
  2000
 73
     1
 74
     3
 75
     0
 76
     0
 77
     0
 78
     0
281
     0
 65
     1
110
0.0
120
0.0
130
0.0
111
1.0
121
0.0
131
0.0
112
0.0
122
1.0
132
0.0
 79
     0
146
0.0
  0
ENDTAB
  0
TABLE
  2
LTYPE
  5
5
330
0
100
AcDbSymbolTable
 70
     6
  0
LTYPE
  5
14
330
5
100
AcDbSymbolTableRecord
100
AcDbLinetypeTableRecord
  2
ByBlock
 70
     0
  3

 72
    65
 73
     0
 40
0.0
  0
LTYPE
  5
15
330
5
100
AcDbSymbolTableRecord
100
AcDbLinetypeTableRecord
  2
ByLayer
 70
     0
  3

 72
    65
 73
     0
 40
0.0
  0
LTYPE
  5
16
330
5
100
AcDbSymbolTableRecord
100
AcDbLinetypeTableRecord
  2
Continuous
 70
     0
  3
Solid line
 72
    65
 73
     0
 40
0.0
  0
LTYPE
  5
3F
330
5
100
AcDbSymbolTableRecord
100
AcDbLinetypeTableRecord
  2
HIDDEN
 70
     0
  3
Hidden __ __ __ __ __ __ __ __ __ __ __ __ __ __
 72
    65
 73
     2
 40
1.905
 49
1.27
 74
     0
 49
-0.635
 74
     0
  0
LTYPE
  5
40
330
5
100
AcDbSymbolTableRecord
100
AcDbLinetypeTableRecord
  2
PHANTOM
 70
     0
  3
Phantom ______  __  __  ______  __  __  ______
 72
    65
 73
     6
 40
12.7
 49
6.35
 74
     0
 49
-1.27
 74
     0
 49
1.27
 74
     0
 49
-1.27
 74
     0
 49
1.27
 74
     0
 49
-1.27
 74
     0
  0
LTYPE
  5
41
330
5
100
AcDbSymbolTableRecord
100
AcDbLinetypeTableRecord
  2
CENTER
 70
     0
  3
Center ____ _ ____ _ ____ _ ____ _ ____ _ ____
 72
    65
 73
     4
 40
10.16
 49
6.35
 74
     0
 49
-1.27
 74
     0
 49
1.27
 74
     0
 49
-1.27
 74
     0
  0
LTYPE
  5
42
330
5
100
AcDbSymbolTableRecord
100
AcDbLinetypeTableRecord
  2
CENTERX2
 70
     0
  3
Center (2x) ________  __  ________  __  _____
 72
    65
 73
     4
 40
20.32
 49
12.7
 74
     0
 49
-2.54
 74
     0
 49
2.54
 74
     0
 49
-2.54
 74
     0
  0
LTYPE
  5
43
330
5
100
AcDbSymbolTableRecord
100
AcDbLinetypeTableRecord
  2
DOT2
 70
     0
  3
Dot (.5x) ........................................
 72
    65
 73
     2
 40
0.635
 49
0.0
 74
     0
 49
-0.635
 74
     0
  0
ENDTAB
  0
TABLE
  2
LAYER
  5
2
330
0
100
AcDbSymbolTable
 70
     5
  0
LAYER
  5
10
330
2
100
AcDbSymbolTableRecord
100
AcDbLayerTableRecord
  2
0
 70
     0
 62
     7
  6
Continuous
370
    -3
390
F
  0
LAYER
  5
44
330
2
100
AcDbSymbolTableRecord
100
AcDbLayerTableRecord
  2
FORMAT
 70
     0
 62
     7
  6
Continuous
370
    -3
390
F
  0
LAYER
  5
45
330
2
100
AcDbSymbolTableRecord
100
AcDbLayerTableRecord
  2
VERMASSUNG
 70
     0
 62
     7
  6
Continuous
370
    -3
390
F
  0
LAYER
  5
46
330
2
100
AcDbSymbolTableRecord
100
AcDbLayerTableRecord
  2
KOPF_DÜNN
 70
     0
 62
     7
  6
Continuous
370
    -3
390
F
  0
LAYER
  5
47
330
2
100
AcDbSymbolTableRecord
100
AcDbLayerTableRecord
  2
KOPF_DICK
 70
     0
 62
     7
  6
Continuous
370
    15
390
F
  0
ENDTAB
  0
TABLE
  2
STYLE
  5
3
330
0
100
AcDbSymbolTable
 70
     2
  0
STYLE
  5
11
330
3
100
AcDbSymbolTableRecord
100
AcDbTextStyleTableRecord
  2
Standard
 70
     0
 40
0.0
 41
1.0
 50
0.0
 71
     0
 42
2.0
  3
txt
  4

  0
STYLE
  5
48
330
3
100
AcDbSymbolTableRecord
100
AcDbTextStyleTableRecord
  2
SLDTEXTSTYLE0
 70
     0
 40
0.0
 41
0.7
 50
0.0
 71
     0
 42
0.2
  3
TXT
  4

  0
ENDTAB
  0
TABLE
  2
VIEW
  5
6
330
0
100
AcDbSymbolTable
 70
     0
  0
ENDTAB
  0
TABLE
  2
UCS
  5
7
330
0
100
AcDbSymbolTable
 70
     0
  0
ENDTAB
  0
TABLE
  2
APPID
  5
9
330
0
100
AcDbSymbolTable
 70
     1
  0
APPID
  5
12
330
9
100
AcDbSymbolTableRecord
100
AcDbRegAppTableRecord
  2
ACAD
 70
     0
  0
ENDTAB
  0
TABLE
  2
DIMSTYLE
  5
A
330
0
100
AcDbSymbolTable
 70
     4
100
AcDbDimStyleTable
  0
DIMSTYLE
105
27
330
A
100
AcDbSymbolTableRecord
100
AcDbDimStyleTableRecord
  2
ISO-25
 70
     0
 41
2.5
 42
0.625
 43
3.75
 44
1.25
 73
     0
 74
     0
 77
     1
 78
     8
140
2.5
141
2.5
143
0.0393700787
147
0.625
171
     3
172
     1
178
     0
271
     2
272
     2
274
     3
278
    44
283
     0
284
     8
340
11
  0
DIMSTYLE
105
1C2
102
{ACAD_REACTORS
330
1C1
102
}
330
A
100
AcDbSymbolTableRecord
100
AcDbDimStyleTableRecord
  2
SLDDIMSTYLE0
 70
     0
 41
3.0
 44
0.0
 73
     0
 74
     0
 77
     1
 78
    12
 79
     3
140
2.0
147
0.5
173
     1
178
     0
179
     1
272
     3
276
     2
284
    12
340
48
  0
DIMSTYLE
105
1CC
102
{ACAD_REACTORS
330
1CB
330
1E3
102
}
330
A
100
AcDbSymbolTableRecord
100
AcDbDimStyleTableRecord
  2
SLDDIMSTYLE1
 70
     0
 41
3.0
 44
0.0
 45
0.000000001
 47
0.1
 48
0.1
 71
     1
 73
     0
 74
     0
 77
     1
 78
    12
 79
     3
140
2.0
147
0.5
173
     1
178
     0
271
     2
272
     1
276
     2
284
     8
340
48
  0
DIMSTYLE
105
1D9
102
{ACAD_REACTORS
330
1D8
330
1EF
102
}
330
A
100
AcDbSymbolTableRecord
100
AcDbDimStyleTableRecord
  2
SLDDIMSTYLE2
 70
     0
 41
3.0
 44
0.0
 45
0.000000001
 73
     0
 74
     0
 77
     1
 78
    12
 79
     3
140
2.0
147
0.5
173
     1
178
     0
271
     2
272
     3
276
     2
284
    12
340
48
  0
ENDTAB
  0
TABLE
  2
BLOCK_RECORD
  5
1
330
0
100
AcDbSymbolTable
 70
     7
  0
BLOCK_RECORD
  5
1F
330
1
100
AcDbSymbolTableRecord
100
AcDbBlockTableRecord
  2
*Model_Space
340
22
  0
BLOCK_RECORD
  5
1B
330
1
100
AcDbSymbolTableRecord
100
AcDbBlockTableRecord
  2
*Paper_Space
340
1E
  0
BLOCK_RECORD
  5
23
330
1
100
AcDbSymbolTableRecord
100
AcDbBlockTableRecord
  2
*Paper_Space0
340
26
  0
BLOCK_RECORD
  5
1C3
330
1
100
AcDbSymbolTableRecord
100
AcDbBlockTableRecord
  2
_D
340
0
  0
BLOCK_RECORD
  5
1CD
330
1
100
AcDbSymbolTableRecord
100
AcDbBlockTableRecord
  2
_D_1
340
0
  0
BLOCK_RECORD
  5
1DA
330
1
100
AcDbSymbolTableRecord
100
AcDbBlockTableRecord
  2
_D_2
340
0
  0
BLOCK_RECORD
  5
1E4
330
1
100
AcDbSymbolTableRecord
100
AcDbBlockTableRecord
  2
_D_3
340
0
  0
BLOCK_RECORD
  5
1F0
330
1
100
AcDbSymbolTableRecord
100
AcDbBlockTableRecord
  2
_D_4
340
0
  0
BLOCK_RECORD
  5
25E
330
1
100
AcDbSymbolTableRecord
100
AcDbBlockTableRecord
  2
SW_CENTERMARKSYMBOL_0
340
0
102
{BLKREFS
331
269
102
}
  0
ENDTAB
  0
ENDSEC
  0
SECTION
  2
BLOCKS
  0
BLOCK
  5
20
330
1F
100
AcDbEntity
  8
0
100
AcDbBlockBegin
  2
*Model_Space
 70
     0
 10
0.0
 20
0.0
 30
0.0
  3
*Model_Space
  1

  0
ENDBLK
  5
21
330
1F
100
AcDbEntity
  8
0
100
AcDbBlockEnd
  0
BLOCK
  5
1C
330
1B
100
AcDbEntity
 67
     1
  8
0
100
AcDbBlockBegin
  2
*Paper_Space
 70
     0
 10
0.0
 20
0.0
 30
0.0
  3
*Paper_Space
  1

  0
ENDBLK
  5
1D
330
1B
100
AcDbEntity
 67
     1
  8
0
100
AcDbBlockEnd
  0
BLOCK
  5
24
330
23
100
AcDbEntity
  8
0
100
AcDbBlockBegin
  2
*Paper_Space0
 70
     0
 10
0.0
 20
0.0
 30
0.0
  3
*Paper_Space0
  1

  0
ENDBLK
  5
25
330
23
100
AcDbEntity
  8
0
100
AcDbBlockEnd
  0
BLOCK
  5
1C4
330
1C3
100
AcDbEntity
  8
0
100
AcDbBlockBegin
  2
_D
 70
     0
 10
0.0
 20
0.0
 30
0.0
  3
_D
  1

  0
ARC
  5
1C6
330
1C3
100
AcDbEntity
  8
VERMASSUNG
100
AcDbCircle
 10
251.0273608496
 20
154.5141308281
 30
0.0
 40
10.85288986131657
100
AcDbArc
 50
90.0
 51
183.0076247934
  0
SOLID
  5
1C7
330
1C3
100
AcDbEntity
  8
VERMASSUNG
100
AcDbTrace
 10
251.0273608496
 20
165.3670206894
 30
0.0
 11
247.9940977902
 21
165.4096260032
 31
0.0
 12
248.1150906934
 22
164.5177960209
 32
0.0
 13
248.1150906934
 23
164.5177960209
 33
0.0
  0
SOLID
  5
1C8
330
1C3
100
AcDbEntity
  8
VERMASSUNG
100
AcDbTrace
 10
240.1894201803
 20
153.9446921654
 30
0.0
 11
240.8846716245
 21
156.8975086903
 31
0.0
 12
239.9877217248
 22
156.9715416386
 32
0.0
 13
239.9877217248
 23
156.9715416386
 33
0.0
  0
LINE
  5
1C9
330
1C3
100
AcDbEntity
  8
VERMASSUNG
100
AcDbLine
 10
251.0273608496
 20
164.2306797758
 30
0.0
 11
251.0273608496
 21
166.3670206894
 31
0.0
  0
MTEXT
  5
1CA
330
1C3
100
AcDbEntity
  8
VERMASSUNG
100
AcDbMText
 10
239.2881357948
 20
161.6550715805
 30
0.1
 40
2.0
 41
0.0
 71
     1
 72
     1
  1
93°
  7
SLDTEXTSTYLE0
 11
0.6883063085752751
 21
0.725420171745643
 31
0.0
 73
     1
 44
1.0
  0
ENDBLK
  5
1C5
330
1C3
100
AcDbEntity
  8
0
100
AcDbBlockEnd
  0
BLOCK
  5
1CE
330
1CD
100
AcDbEntity
  8
0
100
AcDbBlockBegin
  2
_D_1
 70
     0
 10
0.0
 20
0.0
 30
0.0
  3
_D_1
  1

  0
SOLID
  5
1D0
330
1CD
100
AcDbEntity
  8
VERMASSUNG
100
AcDbTrace
 10
251.0273608496
 20
170.8544563158
 30
0.0
 11
248.0273608496
 21
171.3044563158
 31
0.0
 12
248.0273608496
 22
170.4044563158
 32
0.0
 13
248.0273608496
 23
170.4044563158
 33
0.0
  0
SOLID
  5
1D1
330
1CD
100
AcDbEntity
  8
VERMASSUNG
100
AcDbTrace
 10
186.0273608496
 20
170.8544563158
 30
0.0
 11
189.0273608496
 21
170.4044563158
 31
0.0
 12
189.0273608496
 22
171.3044563158
 32
0.0
 13
189.0273608496
 23
171.3044563158
 33
0.0
  0
LINE
  5
1D2
330
1CD
100
AcDbEntity
  8
VERMASSUNG
100
AcDbLine
 10
251.0273608496
 20
154.4906396133
 30
0.0
 11
251.0273608496
 21
171.8544563158
 31
0.0
  0
LINE
  5
1D3
330
1CD
100
AcDbEntity
  8
VERMASSUNG
100
AcDbLine
 10
186.0273608496
 20
140.4906396133
 30
0.0
 11
186.0273608496
 21
171.8544563158
 31
0.0
  0
LINE
  5
1D4
330
1CD
100
AcDbEntity
  8
VERMASSUNG
100
AcDbLine
 10
251.0273608496
 20
170.8544563158
 30
0.0
 11
186.0273608496
 21
170.8544563158
 31
0.0
  0
MTEXT
  5
1D5
330
1CD
100
AcDbEntity
  8
VERMASSUNG
100
AcDbMText
 10
213.9773606626
 20
173.432591679
 30
0.1
 40
2.0
 41
0.0
 71
     1
 72
     1
  1
65
  7
SLDTEXTSTYLE0
 73
     1
 44
1.0
  0
MTEXT
  5
1D6
330
1CD
100
AcDbEntity
  8
VERMASSUNG
100
AcDbMText
 10
219.7648607646
 20
173.432591679
 30
0.1
 40
2.0
 41
0.0
 71
     1
 72
     1
  1

  7
SLDTEXTSTYLE0
 73
     1
 44
1.0
  0
MTEXT
  5
1D7
330
1CD
100
AcDbEntity
  8
VERMASSUNG
100
AcDbMText
 10
219.7773610545
 20
172.9380578162
 30
0.1
 40
1.5
 41
0.0
 71
     1
 72
     1
  1
±0.1
  7
SLDTEXTSTYLE0
 73
     1
 44
1.0
  0
ENDBLK
  5
1CF
330
1CD
100
AcDbEntity
  8
0
100
AcDbBlockEnd
  0
BLOCK
  5
1DB
330
1DA
100
AcDbEntity
  8
0
100
AcDbBlockBegin
  2
_D_2
 70
     0
 10
0.0
 20
0.0
 30
0.0
  3
_D_2
  1

  0
SOLID
  5
1DD
330
1DA
100
AcDbEntity
  8
VERMASSUNG
100
AcDbTrace
 10
251.0273608496
 20
176.8544563158
 30
0.0
 11
248.0273608496
 21
177.3044563158
 31
0.0
 12
248.0273608496
 22
176.4044563158
 32
0.0
 13
248.0273608496
 23
176.4044563158
 33
0.0
  0
SOLID
  5
1DE
330
1DA
100
AcDbEntity
  8
VERMASSUNG
100
AcDbTrace
 10
148.0273608496
 20
176.8544563158
 30
0.0
 11
151.0273608496
 21
176.4044563158
 31
0.0
 12
151.0273608496
 22
177.3044563158
 32
0.0
 13
151.0273608496
 23
177.3044563158
 33
0.0
  0
LINE
  5
1DF
330
1DA
100
AcDbEntity
  8
VERMASSUNG
100
AcDbLine
 10
251.0273608496
 20
154.4906396133
 30
0.0
 11
251.0273608496
 21
177.8544563158
 31
0.0
  0
LINE
  5
1E0
330
1DA
100
AcDbEntity
  8
VERMASSUNG
100
AcDbLine
 10
148.0273608496
 20
129.7829776058
 30
0.0
 11
148.0273608496
 21
177.8544563158
 31
0.0
  0
LINE
  5
1E1
330
1DA
100
AcDbEntity
  8
VERMASSUNG
100
AcDbLine
 10
251.0273608496
 20
176.8544563158
 30
0.0
 11
148.0273608496
 21
176.8544563158
 31
0.0
  0
MTEXT
  5
1E2
330
1DA
100
AcDbEntity
  8
VERMASSUNG
100
AcDbMText
 10
196.7273607166
 20
179.432591679
 30
0.1
 40
2.0
 41
0.0
 71
     1
 72
     1
  1
103
  7
SLDTEXTSTYLE0
 73
     1
 44
1.0
  0
ENDBLK
  5
1DC
330
1DA
100
AcDbEntity
  8
0
100
AcDbBlockEnd
  0
BLOCK
  5
1E5
330
1E4
100
AcDbEntity
  8
0
100
AcDbBlockBegin
  2
_D_3
 70
     0
 10
0.0
 20
0.0
 30
0.0
  3
_D_3
  1

  0
SOLID
  5
1E7
330
1E4
100
AcDbEntity
  8
VERMASSUNG
100
AcDbTrace
 10
260.1567585574
 20
154.4906396133
 30
0.0
 11
259.7067585574
 21
151.4906396133
 31
0.0
 12
260.6067585574
 22
151.4906396133
 32
0.0
 13
260.6067585574
 23
151.4906396133
 33
0.0
  0
SOLID
  5
1E8
330
1E4
100
AcDbEntity
  8
VERMASSUNG
100
AcDbTrace
 10
260.1567585574
 20
109.4906396133
 30
0.0
 11
260.6067585574
 21
112.4906396133
 31
0.0
 12
259.7067585574
 22
112.4906396133
 32
0.0
 13
259.7067585574
 23
112.4906396133
 33
0.0
  0
LINE
  5
1E9
330
1E4
100
AcDbEntity
  8
VERMASSUNG
100
AcDbLine
 10
251.0273608496
 20
154.4906396133
 30
0.0
 11
261.1567585574
 21
154.4906396133
 31
0.0
  0
LINE
  5
1EA
330
1E4
100
AcDbEntity
  8
VERMASSUNG
100
AcDbLine
 10
251.0273608496
 20
109.4906396133
 30
0.0
 11
261.1567585574
 21
109.4906396133
 31
0.0
  0
LINE
  5
1EB
330
1E4
100
AcDbEntity
  8
VERMASSUNG
100
AcDbLine
 10
260.1567585574
 20
154.4906396133
 30
0.0
 11
260.1567585574
 21
109.4906396133
 31
0.0
  0
MTEXT
  5
1EC
330
1E4
100
AcDbEntity
  8
VERMASSUNG
100
AcDbMText
 10
257.5786231942
 20
127.3406395962
 30
0.1
 40
2.0
 41
0.0
 71
     1
 72
     1
  1
45
  7
SLDTEXTSTYLE0
 11
-7.044195017643634E-15
 21
1.0
 31
0.0
 73
     1
 44
1.0
  0
MTEXT
  5
1ED
330
1E4
100
AcDbEntity
  8
VERMASSUNG
100
AcDbMText
 10
257.5786231942
 20
133.3281398242
 30
0.1
 40
2.0
 41
0.0
 71
     1
 72
     1
  1

  7
SLDTEXTSTYLE0
 11
-7.044195017643634E-15
 21
1.0
 31
0.0
 73
     1
 44
1.0
  0
MTEXT
  5
1EE
330
1E4
100
AcDbEntity
  8
VERMASSUNG
100
AcDbMText
 10
258.073157057
 20
133.3406396484
 30
0.1
 40
1.5
 41
0.0
 71
     1
 72
     1
  1
±0.1
  7
SLDTEXTSTYLE0
 11
-7.044195017643634E-15
 21
1.0
 31
0.0
 73
     1
 44
1.0
  0
ENDBLK
  5
1E6
330
1E4
100
AcDbEntity
  8
0
100
AcDbBlockEnd
  0
BLOCK
  5
1F1
330
1F0
100
AcDbEntity
  8
0
100
AcDbBlockBegin
  2
_D_4
 70
     0
 10
0.0
 20
0.0
 30
0.0
  3
_D_4
  1

  0
SOLID
  5
1F3
330
1F0
100
AcDbEntity
  8
VERMASSUNG
100
AcDbTrace
 10
138.0273608496
 20
140.9906396133
 30
0.0
 11
137.5773608496
 21
137.9906396133
 31
0.0
 12
138.4773608496
 22
137.9906396133
 32
0.0
 13
138.4773608496
 23
137.9906396133
 33
0.0
  0
SOLID
  5
1F4
330
1F0
100
AcDbEntity
  8
VERMASSUNG
100
AcDbTrace
 10
138.0273608496
 20
77.9906396133
 30
0.0
 11
138.4773608496
 21
80.9906396133
 31
0.0
 12
137.5773608496
 22
80.9906396133
 32
0.0
 13
137.5773608496
 23
80.9906396133
 33
0.0
  0
LINE
  5
1F5
330
1F0
100
AcDbEntity
  8
VERMASSUNG
100
AcDbLine
 10
186.5273608496
 20
140.9906396133
 30
0.0
 11
137.0273608496
 21
140.9906396133
 31
0.0
  0
LINE
  5
1F6
330
1F0
100
AcDbEntity
  8
VERMASSUNG
100
AcDbLine
 10
186.5273608496
 20
77.9906396133
 30
0.0
 11
137.0273608496
 21
77.9906396133
 31
0.0
  0
LINE
  5
1F7
330
1F0
100
AcDbEntity
  8
VERMASSUNG
100
AcDbLine
 10
138.0273608496
 20
140.9906396133
 30
0.0
 11
138.0273608496
 21
77.9906396133
 31
0.0
  0
MTEXT
  5
1F8
330
1F0
100
AcDbEntity
  8
VERMASSUNG
100
AcDbMText
 10
135.2492253605
 20
103.0856395041
 30
0.5506322177
 40
2.0
 41
0.0
 71
     1
 72
     1
  1
PSC
  7
SLDTEXTSTYLE0
 11
-7.044195017643634E-15
 21
1.0
 31
0.0
 73
     1
 44
1.0
  0
MTEXT
  5
1F9
330
1F0
100
AcDbEntity
  8
VERMASSUNG
100
AcDbMText
 10
135.44922537
 20
107.6856396062
 30
0.5506322177
 40
2.0
 41
0.0
 71
     1
 72
     1
  1
%%c
  7
SLDTEXTSTYLE0
 11
-7.044195017643634E-15
 21
1.0
 31
0.0
 73
     1
 44
1.0
  0
MTEXT
  5
1FA
330
1F0
100
AcDbEntity
  8
VERMASSUNG
100
AcDbMText
 10
135.2492253605
 20
111.2956400862
 30
0.5506322177
 40
2.0
 41
0.0
 71
     1
 72
     1
  1
63
  7
SLDTEXTSTYLE0
 11
-7.044195017643634E-15
 21
1.0
 31
0.0
 73
     1
 44
1.0
  0
ENDBLK
  5
1F2
330
1F0
100
AcDbEntity
  8
0
100
AcDbBlockEnd
  0
BLOCK
  5
25F
330
25E
100
AcDbEntity
  8
0
100
AcDbBlockBegin
  2
SW_CENTERMARKSYMBOL_0
 70
     0
 10
0.0
 20
0.0
 30
0.0
  3
SW_CENTERMARKSYMBOL_0
  1

  0
LINE
  5
261
330
25E
100
AcDbEntity
  8
VERMASSUNG
 62
     0
100
AcDbLine
 10
0.0
 20
0.0
 30
0.0
 11
0.0
 21
2.5
 31
0.0
  0
LINE
  5
262
330
25E
100
AcDbEntity
  8
VERMASSUNG
 62
     0
100
AcDbLine
 10
0.0
 20
0.0
 30
0.0
 11
-2.5
 21
0.0
 31
0.0
  0
LINE
  5
263
330
25E
100
AcDbEntity
  8
VERMASSUNG
 62
     0
100
AcDbLine
 10
0.0
 20
0.0
 30
0.0
 11
0.0
 21
-2.5
 31
0.0
  0
LINE
  5
264
330
25E
100
AcDbEntity
  8
VERMASSUNG
 62
     0
100
AcDbLine
 10
0.0
 20
0.0
 30
0.0
 11
2.5
 21
0.0
 31
0.0
  0
LINE
  5
265
330
25E
100
AcDbEntity
  8
VERMASSUNG
 62
     0
100
AcDbLine
 10
0.0
 20
5.0
 30
0.0
 11
0.0
 21
51.4268217215
 31
0.0
  0
LINE
  5
266
330
25E
100
AcDbEntity
  8
VERMASSUNG
 62
     0
100
AcDbLine
 10
-5.0
 20
0.0
 30
0.0
 11
-34.0
 21
0.0
 31
0.0
  0
LINE
  5
267
330
25E
100
AcDbEntity
  8
VERMASSUNG
 62
     0
100
AcDbLine
 10
0.0
 20
-5.0
 30
0.0
 11
0.0
 21
-34.0
 31
0.0
  0
LINE
  5
268
330
25E
100
AcDbEntity
  8
VERMASSUNG
 62
     0
100
AcDbLine
 10
5.0
 20
0.0
 30
0.0
 11
34.0
 21
0.0
 31
0.0
  0
ENDBLK
  5
260
330
25E
100
AcDbEntity
  8
0
100
AcDbBlockEnd
  0
ENDSEC
  0
SECTION
  2
ENTITIES
  0
MTEXT
  5
49
330
1F
100
AcDbEntity
  8
KOPF_DÜNN
100
AcDbMText
 10
13.8892156294
 20
23.8442973028
 30
0.0
 40
3.0
 41
0.0
 71
     1
 72
     1
  1
PS6.PDF.RJA.065
  7
SLDTEXTSTYLE0
 73
     1
 44
1.0
  0
MTEXT
  5
4A
330
1F
100
AcDbEntity
  8
VERMASSUNG
100
AcDbMText
 10
13.9329988022
 20
28.8834360957
 30
0.0
 40
3.0
 41
0.0
 71
     1
 72
     1
  1
Klemmhalter rechts_Turning tool right 55°/93°
  7
SLDTEXTSTYLE0
 73
     1
 44
1.0
  0
MTEXT
  5
4B
330
1F
100
AcDbEntity
  8
VERMASSUNG
100
AcDbMText
 10
98.8601118557
 20
13.8365368179
 30
0.0
 40
2.0
 41
0.0
 71
     1
 72
     1
  1
Datum: 23.05.2012
  7
SLDTEXTSTYLE0
 73
     1
 44
1.0
  0
MTEXT
  5
4C
330
1F
100
AcDbEntity
  8
VERMASSUNG
100
AcDbMText
 10
13.933048693
 20
18.0482802738
 30
0.0
 40
2.0
 41
0.0
 71
     1
 72
     1
  1
PSC ø63 / DN..15 06 ..
  7
SLDTEXTSTYLE0
 73
     1
 44
1.0
  0
MTEXT
  5
4D
330
1F
100
AcDbEntity
  8
VERMASSUNG
100
AcDbMText
 10
13.9808475933
 20
13.9090973692
 30
0.0
 40
2.0
 41
0.0
 71
     1
 72
     1
  1
Gewicht: 1295g
  7
SLDTEXTSTYLE0
 73
     1
 44
1.0
  0
ARC
  5
4E
330
1F
100
AcDbEntity
  8
0
  6
Continuous
 62
     7
370
    15
100
AcDbCircle
 10
186.5273608496
 20
78.4906396133
 30
0.0
 40
0.5
100
AcDbArc
 50
180.0
 51
270.0
  0
ARC
  5
4F
330
1F
100
AcDbEntity
  8
0
  6
Continuous
 62
     7
370
    15
100
AcDbCircle
 10
186.5273608496
 20
140.4906396133
 30
0.0
 40
0.5000000000000284
100
AcDbArc
 50
90.0
 51
180.0
  0
LINE
  5
50
330
1F
100
AcDbEntity
  8
0
  6
Continuous
 62
     7
370
    15
100
AcDbLine
 10
222.258385465
 20
140.9906396133
 30
0.0
 11
186.5273608496
 21
140.9906396133
 31
0.0
  0
LINE
  5
51
330
1F
100
AcDbEntity
  8
0
  6
Continuous
 62
     7
370
    15
100
AcDbLine
 10
186.5273608496
 20
77.9906396133
 30
0.0
 11
218.6056017147
 21
77.9906396133
 31
0.0
  0
LWPOLYLINE
  5
52
330
1F
100
AcDbEntity
  8
0
  6
Continuous
 62
     7
370
    15
100
AcDbPolyline
 90
        3
 70
   128
 43
0.0
 10
185.8273608496
 20
86.9508193345
 10
185.9528157931
 20
86.8825172195
 10
186.0273608496
 20
86.8297794614
  0
LWPOLYLINE
  5
53
330
1F
100
AcDbEntity
  8
0
  6
Continuous
 62
     7
370
    15
100
AcDbPolyline
 90
        3
 70
   128
 43
0.0
 10
186.0273608496
 20
132.1514997653
 10
185.9528157931
 20
132.0987620072
 10
185.8273608496
 20
132.0304598922
  0
LINE
  5
54
330
1F
100
AcDbEntity
  8
0
  6
Continuous
 62
     7
370
    15
100
AcDbLine
 10
226.7070147152
 20
150.9912439866
 30
0.0
 11
224.7526816113
 21
143.6975735479
 31
0.0
  0
LINE
  5
55
330
1F
100
AcDbEntity
  8
0
  6
Continuous
 62
     7
370
    15
100
AcDbLine
 10
227.3345215868
 20
151.5177847711
 30
0.0
 11
226.7070147152
 21
150.9912439866
 31
0.0
  0
LINE
  5
56
330
1F
100
AcDbEntity
  8
0
  6
Continuous
 62
     7
370
    15
100
AcDbLine
 10
234.9942604211
 20
152.1879250847
 30
0.0
 11
227.3345215868
 21
151.5177847711
 31
0.0
  0
ARC
  5
57
330
1F
100
AcDbEntity
  8
0
  6
Continuous
 62
     7
370
    15
100
AcDbCircle
 10
207.0273608496
 20
123.1406396133
 30
0.0
 40
2.50000000000001
100
AcDbArc
 50
21.3713330905
 51
158.6286669095
  0
LINE
  5
58
330
1F
100
AcDbEntity
  8
0
  6
Continuous
 62
     7
370
    15
100
AcDbLine
 10
243.4086612386
 20
141.3787638051
 30
0.0
 11
243.7094091311
 21
141.6749426614
 31
0.0
  0
LINE
  5
59
330
1F
100
AcDbEntity
  8
0
  6
Continuous
 62
     7
370
    15
100
AcDbLine
 10
236.0972021209
 20
153.6341451985
 30
0.0
 11
234.9945361927
 21
152.5482312435
 31
0.0
  0
LINE
  5
5A
330
1F
100
AcDbEntity
  8
0
  6
Continuous
 62
     7
370
    15
100
AcDbLine
 10
234.8422617468
 20
152.3160268818
 30
0.0
 11
234.6846812833
 21
152.1608404197
 31
0.0
  0
LINE
  5
5B
330
1F
100
AcDbEntity
  8
0
  6
Continuous
 62
     7
370
    15
100
AcDbLine
 10
237.8843735732
 20
148.8081814569
 30
0.0
 11
237.4595827258
 21
148.4249995686
 31
0.0
  0
LINE
  5
5C
330
1F
100
AcDbEntity
  8
0
  6
Continuous
 62
     7
370
    15
100
AcDbLine
 10
186.0273608496
 20
78.4906396133
 30
0.0
 11
186.0273608496
 21
140.4906396067
 31
0.0
  0
SPLINE
  5
5D
330
1F
100
AcDbEntity
  8
0
  6
Continuous
 62
     7
370
    15
100
AcDbSpline
210
0.0
220
0.0
230
1.0
 70
     8
 71
     3
 72
    68
 73
    64
 74
     0
 42
0.00000001
 43
0.00000001
 12
1.0
 22
0.0
 32
0.0
 13
1.0
 23
0.0
 33
0.0
 40
-0.0624999999999999
 40
-0.0624999999999999
 40
0.0
 40
0.0
 40
0.0312499999999997
 40
0.0312499999999997
 40
0.0624999999999994
 40
0.0624999999999994
 40
0.0937499999999991
 40
0.0937499999999991
 40
0.1249999999999988
 40
0.1249999999999988
 40
0.1562499999999986
 40
0.1562499999999986
 40
0.1874999999999983
 40
0.1874999999999983
 40
0.2187499999999979
 40
0.2187499999999979
 40
0.2499999999999977
 40
0.2499999999999977
 40
0.2812499999999979
 40
0.2812499999999979
 40
0.3124999999999981
 40
0.3124999999999981
 40
0.3437499999999983
 40
0.3437499999999983
 40
0.3749999999999985
 40
0.3749999999999985
 40
0.4062499999999987
 40
0.4062499999999987
 40
0.4374999999999989
 40
0.4374999999999989
 40
0.4687499999999991
 40
0.4687499999999991
 40
0.4999999999999993
 40
0.4999999999999993
 40
0.5312499999999994
 40
0.5312499999999994
 40
0.5624999999999997
 40
0.5624999999999997
 40
0.5937499999999998
 40
0.5937499999999998
 40
0.6249999999999999
 40
0.6249999999999999
 40
0.6562500000000001
 40
0.6562500000000001
 40
0.6875000000000002
 40
0.6875000000000002
 40
0.7187500000000004
 40
0.7187500000000004
 40
0.7500000000000006
 40
0.7500000000000006
 40
0.7812500000000004
 40
0.7812500000000004
 40
0.8125000000000004
 40
0.8125000000000004
 40
0.8437500000000003
 40
0.8437500000000003
 40
0.8750000000000002
 40
0.8750000000000002
 40
0.9062500000000002
 40
0.9062500000000002
 40
0.9375000000000001
 40
0.9375000000000001
 40
1.0
 40
1.0
 40
1.03125
 40
1.03125
 10
207.4239904699346
 20
122.5709721222685
 30
0.0
 10
206.8290460393798
 20
122.5709721222685
 30
0.0
 10
206.6340677931302
 20
122.5887742854632
 30
0.0
 10
206.2505045679845
 20
122.6584028185829
 30
0.0
 10
206.0599237925223
 20
122.7110800082617
 30
0.0
 10
205.6966745057355
 20
122.8481702397826
 30
0.0
 10
205.5244077667396
 20
122.931916272104
 30
0.0
 10
205.1983860500316
 20
123.1290981117619
 30
0.0
 10
205.0441106832551
 20
123.2435112093773
 30
0.0
 10
204.7675477620039
 20
123.4924039144145
 30
0.0
 10
204.6434048716885
 20
123.6277747571461
 30
0.0
 10
204.4240900993177
 20
123.920427883811
 30
0.0
 10
204.3309596439143
 20
124.0754774554267
 30
0.0
 10
204.1813053133882
 20
124.3946418011015
 30
0.0
 10
204.1236583433963
 20
124.5611166829603
 30
0.0
 10
204.0465517815739
 20
124.9001256582145
 30
0.0
 10
204.0274680002305
 20
125.0696771822169
 30
0.0
 10
204.0272545901531
 20
125.4087698143189
 30
0.0
 10
204.0467498806526
 20
125.5800562938132
 30
0.0
 10
204.1233197551296
 20
125.9097610869682
 30
0.0
 10
204.1799729963388
 20
126.0691395627745
 30
0.0
 10
204.3302489471481
 20
126.377189018693
 30
0.0
 10
204.4241326095606
 20
126.5252128884463
 30
0.0
 10
204.641197809657
 20
126.7980481608825
 30
0.0
 10
204.7651290659317
 20
126.9246197071112
 30
0.0
 10
205.045085911084
 20
127.1578306380088
 30
0.0
 10
205.1965450619859
 20
127.2606579081873
 30
0.0
 10
205.5212780709335
 20
127.4402244545905
 30
0.0
 10
205.6966425097499
 20
127.5176132196493
 30
0.0
 10
206.0599595286497
 20
127.6414240559372
 30
0.0
 10
206.2469509816403
 20
127.6879792119002
 30
0.0
 10
206.631522479997
 20
127.7509566910043
 30
0.0
 10
206.8304303331164
 20
127.7670656935089
 30
0.0
 10
207.222093732813
 20
127.7671830671479
 30
0.0
 10
207.4168014691998
 20
127.7517128462249
 30
0.0
 10
207.8039185328548
 20
127.6888939674822
 30
0.0
 10
207.9933895355817
 20
127.6417349273459
 30
0.0
 10
208.3545220335993
 20
127.5189801900969
 30
0.0
 10
208.5289412829596
 20
127.4424911271129
 30
0.0
 10
208.8571393207635
 20
127.2614507506578
 30
0.0
 10
209.0082175582141
 20
127.1586786646653
 30
0.0
 10
209.2850536512416
 20
126.9287270813261
 30
0.0
 10
209.4118174677542
 20
126.7999671265513
 30
0.0
 10
209.6298220059111
 20
126.5264003904527
 30
0.0
 10
209.7221031854411
 20
126.3812365014282
 30
0.0
 10
209.8729828726065
 20
126.0735472519538
 30
0.0
 10
209.9309293070766
 20
125.9111245823264
 30
0.0
 10
210.0075414894912
 20
125.5825730247741
 30
0.0
 10
210.0271695095066
 20
125.414733514285
 30
0.0
 10
210.0275494327518
 20
125.0715267288603
 30
0.0
 10
210.0082370922471
 20
124.9014099749811
 30
0.0
 10
209.9323164755704
 20
124.5656542142764
 30
0.0
 10
209.8748107066043
 20
124.3980230429301
 30
0.0
 10
209.7244505600152
 20
124.0765438092792
 30
0.0
 10
209.6324312721238
 20
123.9233510570914
 30
0.0
 10
209.4150872571338
 20
123.6322974998315
 30
0.0
 10
209.2885678370022
 20
123.4938272548463
 30
0.0
 10
209.0121342175424
 20
123.2447148858652
 30
0.0
 10
208.8613046274661
 20
123.1324667708285
 30
0.0
 10
208.533793035226
 20
122.9336663622052
 30
0.0
 10
208.3592445021378
 20
122.8487901687723
 30
0.0
 10
207.8180396337662
 20
122.6440386895277
 30
0.0
 10
207.4239904699346
 20
122.5709721222685
 30
0.0
 10
206.8290460393798
 20
122.5709721222685
 30
0.0
  0
ELLIPSE
  5
5E
330
1F
100
AcDbEntity
  8
0
  6
Continuous
 62
     7
370
    15
100
AcDbEllipse
 10
240.5202147349
 20
109.4906396133
 30
0.0
 11
178.6426981535721
 21
-5.63973000588071
 31
0.0
210
0.0
220
0.0
230
1.0
 40
0.1734804855
 41
1.67304098653096
 42
1.675250332632504
  0
SPLINE
  5
5F
330
1F
100
AcDbEntity
  8
0
  6
Continuous
 62
     7
370
    15
100
AcDbSpline
210
0.0
220
0.0
230
1.0
 70
     8
 71
     3
 72
    11
 73
     7
 74
     0
 42
0.00000001
 43
0.00000001
 12
1.0
 22
0.0
 32
0.0
 13
1.0
 23
0.0
 33
0.0
 40
0.0
 40
0.0
 40
0.0
 40
0.0
 40
0.2535353194958931
 40
0.5452014534035491
 40
0.7722782350836872
 40
1.0
 40
1.0
 40
1.0
 40
1.0
 10
222.2583854650333
 20
140.9887503692215
 30
0.0
 10
222.325134453263
 20
140.9870671344725
 30
0.0
 10
222.4686712412276
 20
140.9834475124275
 30
0.0
 10
222.7077069123077
 20
140.9402493837369
 30
0.0
 10
222.968612242147
 20
140.8782763893876
 30
0.0
 10
223.1628015237432
 20
140.8250274664264
 30
0.0
 10
223.2600338615857
 20
140.7983652468407
 30
0.0
  0
ELLIPSE
  5
60
330
1F
100
AcDbEntity
  8
0
  6
Continuous
 62
     7
370
    15
100
AcDbEllipse
 10
293.6160785902
 20
109.4906396133
 30
0.0
 11
178.6426981535721
 21
-5.639730005880708
 31
0.0
210
0.0
220
0.0
230
1.0
 40
0.1734804855
 41
1.981068492791978
 42
1.990027665321728
  0
SPLINE
  5
61
330
1F
100
AcDbEntity
  8
0
  6
Continuous
 62
     7
370
    15
100
AcDbSpline
210
0.0
220
0.0
230
1.0
 70
     8
 71
     3
 72
    20
 73
    16
 74
     0
 42
0.00000001
 43
0.00000001
 12
1.0
 22
0.0
 32
0.0
 13
1.0
 23
0.0
 33
0.0
 40
0.0
 40
0.0
 40
0.0
 40
0.0
 40
0.2499999999999997
 40
0.2499999999999997
 40
0.3749999999999997
 40
0.3749999999999997
 40
0.4999999999999998
 40
0.4999999999999998
 40
0.6249999999999998
 40
0.6249999999999998
 40
0.7499999999999999
 40
0.7499999999999999
 40
0.8749999999999999
 40
0.8749999999999999
 40
1.0
 40
1.0
 40
1.0
 40
1.0
 10
217.0380453501722
 20
138.5492427985691
 30
0.0
 10
217.1723501768222
 20
138.7791787748608
 30
0.0
 10
217.3717223064401
 20
138.983303703286
 30
0.0
 10
217.7808288366812
 20
139.2552842797986
 30
0.0
 10
217.9372461182591
 20
139.3407762889901
 30
0.0
 10
218.28130425277
 20
139.4963061456673
 30
0.0
 10
218.4692025392632
 20
139.5668176337856
 30
0.0
 10
218.8777256689355
 20
139.6949194645841
 30
0.0
 10
219.0983291330356
 20
139.7525109312902
 30
0.0
 10
219.5751228320786
 20
139.8557538001605
 30
0.0
 10
219.8285707911301
 20
139.9006675669119
 30
0.0
 10
220.3532936590925
 20
139.976828113071
 30
0.0
 10
220.6263114179195
 20
140.008464839657
 30
0.0
 10
221.1944224301323
 20
140.059989062867
 30
0.0
 10
221.4908533516256
 20
140.0798758252743
 30
0.0
 10
221.7917112419051
 20
140.0936041141849
 30
0.0
  0
ELLIPSE
  5
62
330
1F
100
AcDbEntity
  8
0
  6
Continuous
 62
     7
370
    15
100
AcDbEllipse
 10
221.59867621
 20
109.4906396133
 30
0.0
 11
-1.574944762879767
 21
31.497271033161
 31
0.0
210
0.0
220
0.0
230
1.0
 40
0.263265937
 41
0.3831372891034033
 42
2.383063083438683
  0
SPLINE
  5
63
330
1F
100
AcDbEntity
  8
0
  6
Continuous
 62
     7
370
    15
100
AcDbSpline
210
0.0
220
0.0
230
1.0
 70
     8
 71
     3
 72
    20
 73
    16
 74
     0
 42
0.00000001
 43
0.00000001
 12
1.0
 22
0.0
 32
0.0
 13
1.0
 23
0.0
 33
0.0
 40
0.0
 40
0.0
 40
0.0
 40
0.0
 40
0.2499999999999988
 40
0.2499999999999988
 40
0.374999999999999
 40
0.374999999999999
 40
0.4999999999999992
 40
0.4999999999999992
 40
0.6249999999999994
 40
0.6249999999999994
 40
0.7499999999999996
 40
0.7499999999999996
 40
0.8749999999999998
 40
0.8749999999999998
 40
1.0
 40
1.0
 40
1.0
 40
1.0
 10
221.7917112419051
 20
83.28603544754344
 30
0.0
 10
221.1916928439551
 20
83.35015833028397
 30
0.0
 10
220.6273047478949
 20
83.4666131622829
 30
0.0
 10
219.8319303309138
 20
83.72324636646027
 30
0.0
 10
219.5797041593909
 20
83.82157023948666
 30
0.0
 10
219.1075919771771
 20
84.04066610804186
 30
0.0
 10
218.8863213201362
 20
84.16188819948769
 30
0.0
 10
218.472756064275
 20
84.42891762736663
 30
0.0
 10
218.2819125383375
 20
84.57414691180438
 30
0.0
 10
217.9388856153673
 20
84.88115417720476
 30
0.0
 10
217.7851998173584
 20
85.0438725508052
 30
0.0
 10
217.5116083326974
 20
85.38826206153765
 30
0.0
 10
217.3916513653333
 20
85.57048708031175
 30
0.0
 10
217.1887926967831
 20
85.94668637696982
 30
0.0
 10
217.1050893664646
 20
86.14151614645006
 30
0.0
 10
217.0380453501722
 20
86.3431961567827
 30
0.0
  0
ELLIPSE
  5
64
330
1F
100
AcDbEntity
  8
0
  6
Continuous
 62
     7
370
    15
100
AcDbEllipse
 10
293.6160785902
 20
109.4906396133
 30
0.0
 11
178.6426981535721
 21
-5.639730005880708
 31
0.0
210
0.0
220
0.0
230
1.0
 40
0.1734804855
 41
4.304111051405039
 42
4.312886653993123
  0
ELLIPSE
  5
65
330
1F
100
AcDbEntity
  8
0
  6
Continuous
 62
     7
370
    15
100
AcDbEllipse
 10
241.6266332228
 20
109.4906396133
 30
0.0
 11
23.05226149512188
 21
31.49098328279236
 31
0.0
210
0.0
220
0.0
230
1.0
 40
0.0326926316
 41
3.165519987239061
 42
3.745031943603489
  0
SPLINE
  5
66
330
1F
100
AcDbEntity
  8
0
  6
Continuous
 62
     7
370
    15
100
AcDbSpline
210
0.0
220
0.0
230
1.0
 70
     8
 71
     3
 72
    12
 73
     8
 74
     0
 42
0.00000001
 43
0.00000001
 12
1.0
 22
0.0
 32
0.0
 13
1.0
 23
0.0
 33
0.0
 40
0.0
 40
0.0
 40
0.0
 40
0.0
 40
0.4999999999999981
 40
0.4999999999999981
 40
0.749999999999999
 40
0.749999999999999
 40
1.0
 40
1.0
 40
1.0
 40
1.0
 10
196.1221049612389
 20
79.5898971532293
 30
0.0
 10
196.153250159201
 20
79.5520816303091
 30
0.0
 10
196.1955244255354
 20
79.51601477222549
 30
0.0
 10
196.2954699593608
 20
79.46805470721422
 30
0.0
 10
196.3352002640648
 20
79.45319373331655
 30
0.0
 10
196.432088314071
 20
79.43024258718542
 30
0.0
 10
196.4921535558176
 20
79.42214765447338
 30
0.0
 10
196.5551176631311
 20
79.42214765447338
 30
0.0
  0
LINE
  5
67
330
1F
100
AcDbEntity
  8
0
  6
Continuous
 62
     7
370
    15
100
AcDbLine
 10
196.5551176631
 20
79.4221476545
 30
0.0
 11
199.499604036
 21
79.4221476545
 31
0.0
  0
SPLINE
  5
68
330
1F
100
AcDbEntity
  8
0
  6
Continuous
 62
     7
370
    15
100
AcDbSpline
210
0.0
220
0.0
230
1.0
 70
     8
 71
     3
 72
    12
 73
     8
 74
     0
 42
0.00000001
 43
0.00000001
 12
1.0
 22
0.0
 32
0.0
 13
1.0
 23
0.0
 33
0.0
 40
0.0
 40
0.0
 40
0.0
 40
0.0
 40
0.2499999999999977
 40
0.2499999999999977
 40
0.4999999999999953
 40
0.4999999999999953
 40
1.0
 40
1.0
 40
1.0
 40
1.0
 10
199.4996040359983
 20
79.42214765447345
 30
0.0
 10
199.5626609908961
 20
79.42214765447343
 30
0.0
 10
199.6217911406416
 20
79.43004798555299
 30
0.0
 10
199.720238691175
 20
79.45335873355803
 30
0.0
 10
199.759270929363
 20
79.46806385984166
 30
0.0
 10
199.85916081382
 20
79.51599738802831
 30
0.0
 10
199.9014597874293
 20
79.55206736079307
 30
0.0
 10
199.9326167378906
 20
79.5898971532293
 30
0.0
  0
ELLIPSE
  5
69
330
1F
100
AcDbEntity
  8
0
  6
Continuous
 62
     7
370
    15
100
AcDbEllipse
 10
183.6802066602
 20
109.4906396133
 30
0.0
 11
-14.75368316065615
 21
31.09325491558114
 31
0.0
210
0.0
220
0.0
230
1.0
 40
0.3419987131
 41
3.300734856217126
 42
4.231496223360772
  0
SPLINE
  5
6A
330
1F
100
AcDbEntity
  8
0
  6
Continuous
 62
     7
370
    15
100
AcDbSpline
210
0.0
220
0.0
230
1.0
 70
     8
 71
     3
 72
    12
 73
     8
 74
     0
 42
0.00000001
 43
0.00000001
 12
1.0
 22
0.0
 32
0.0
 13
1.0
 23
0.0
 33
0.0
 40
0.0
 40
0.0
 40
0.0
 40
0.0
 40
0.4999999999999991
 40
0.4999999999999991
 40
0.7499999999999996
 40
0.7499999999999996
 40
1.0
 40
1.0
 40
1.0
 40
1.0
 10
199.9326167378905
 20
99.58127029266115
 30
0.0
 10
199.9014715399284
 20
99.69537565852646
 30
0.0
 10
199.8591972735939
 20
99.80648198574522
 30
0.0
 10
199.7592517397687
 20
99.95663959317552
 30
0.0
 10
199.7195214350646
 20
100.0036322847929
 30
0.0
 10
199.6226333850584
 20
100.0766078693314
 30
0.0
 10
199.5625681433118
 20
100.1025731820104
 30
0.0
 10
199.4996040359983
 20
100.1025731820104
 30
0.0
  0
LINE
  5
6B
330
1F
100
AcDbEntity
  8
0
  6
Continuous
 62
     7
370
    15
100
AcDbLine
 10
199.499604036
 20
100.102573182
 30
0.0
 11
196.5551176631
 21
100.102573182
 31
0.0
  0
SPLINE
  5
6C
330
1F
100
AcDbEntity
  8
0
  6
Continuous
 62
     7
370
    15
100
AcDbSpline
210
0.0
220
0.0
230
1.0
 70
     8
 71
     3
 72
    12
 73
     8
 74
     0
 42
0.00000001
 43
0.00000001
 12
1.0
 22
0.0
 32
0.0
 13
1.0
 23
0.0
 33
0.0
 40
0.0
 40
0.0
 40
0.0
 40
0.0
 40
0.2500000000000005
 40
0.2500000000000005
 40
0.500000000000001
 40
0.500000000000001
 40
1.0
 40
1.0
 40
1.0
 40
1.0
 10
196.5551176631312
 20
100.1025731820103
 30
0.0
 10
196.4920607082334
 20
100.1025731820103
 30
0.0
 10
196.4329305584878
 20
100.0772268286296
 30
0.0
 10
196.3344830079545
 20
100.0031074464901
 30
0.0
 10
196.2954507697664
 20
99.9566109317921
 30
0.0
 10
196.1955608853094
 20
99.8065364247835
 30
0.0
 10
196.1532619117001
 20
99.69541871566864
 30
0.0
 10
196.1221049612388
 20
99.58127029266116
 30
0.0
  0
ELLIPSE
  5
6D
330
1F
100
AcDbEntity
  8
0
  6
Continuous
 62
     7
370
    15
100
AcDbEllipse
 10
212.3745150389
 20
109.4906396133
 30
0.0
 11
14.75368316065615
 21
31.09325491558114
 31
0.0
210
0.0
220
0.0
230
1.0
 40
0.3419987131
 41
2.051689083818827
 42
2.9824504509625
  0
SPLINE
  5
6E
330
1F
100
AcDbEntity
  8
0
  6
Continuous
 62
     7
370
    15
100
AcDbSpline
210
0.0
220
0.0
230
1.0
 70
     8
 71
     3
 72
    12
 73
     8
 74
     0
 42
0.00000001
 43
0.00000001
 12
1.0
 22
0.0
 32
0.0
 13
1.0
 23
0.0
 33
0.0
 40
0.0
 40
0.0
 40
0.0
 40
0.0
 40
0.499999999999999
 40
0.499999999999999
 40
0.7499999999999994
 40
0.7499999999999994
 40
1.0
 40
1.0
 40
1.0
 40
1.0
 10
196.1221049612389
 20
119.4000089340316
 30
0.0
 10
196.152827203158
 20
119.2874531346224
 30
0.0
 10
196.1956644176931
 20
119.1746952748828
 30
0.0
 10
196.2950914418929
 20
119.0251543890864
 30
0.0
 10
196.3348436367096
 20
118.9778616573796
 30
0.0
 10
196.4328850935678
 20
118.9041253640581
 30
0.0
 10
196.4924411491553
 20
118.8787060446824
 30
0.0
 10
196.5551176631312
 20
118.8787060446824
 30
0.0
  0
LINE
  5
6F
330
1F
100
AcDbEntity
  8
0
  6
Continuous
 62
     7
370
    15
100
AcDbLine
 10
196.5551176631
 20
118.8787060447
 30
0.0
 11
199.499604036
 21
118.8787060447
 31
0.0
  0
SPLINE
  5
70
330
1F
100
AcDbEntity
  8
0
  6
Continuous
 62
     7
370
    15
100
AcDbSpline
210
0.0
220
0.0
230
1.0
 70
     8
 71
     3
 72
    12
 73
     8
 74
     0
 42
0.00000001
 43
0.00000001
 12
1.0
 22
0.0
 32
0.0
 13
1.0
 23
0.0
 33
0.0
 40
0.0
 40
0.0
 40
0.0
 40
0.0
 40
0.2499999999999986
 40
0.2499999999999986
 40
0.4999999999999971
 40
0.4999999999999971
 40
1.0
 40
1.0
 40
1.0
 40
1.0
 10
199.4996040359983
 20
118.8787060446824
 30
0.0
 10
199.5626840744916
 20
118.8787060446824
 30
0.0
 10
199.621832696673
 20
118.9040703638973
 30
0.0
 10
199.7203052467421
 20
118.9782352242703
 30
0.0
 10
199.7593418587269
 20
119.0247555648244
 30
0.0
 10
199.8592383255059
 20
119.1748979076696
 30
0.0
 10
199.9016592065725
 20
119.2865911146418
 30
0.0
 10
199.9326167378905
 20
119.4000089340315
 30
0.0
  0
ELLIPSE
  5
71
330
1F
100
AcDbEntity
  8
0
  6
Continuous
 62
     7
370
    15
100
AcDbEllipse
 10
183.6802066602
 20
109.4906396133
 30
0.0
 11
14.75368316065604
 21
31.09325491558115
 31
0.0
210
0.0
220
0.0
230
1.0
 40
0.3419987131
 41
5.193281737408619
 42
6.124043104552325
  0
SPLINE
  5
72
330
1F
100
AcDbEntity
  8
0
  6
Continuous
 62
     7
370
    15
100
AcDbSpline
210
0.0
220
0.0
230
1.0
 70
     8
 71
     3
 72
    12
 73
     8
 74
     0
 42
0.00000001
 43
0.00000001
 12
1.0
 22
0.0
 32
0.0
 13
1.0
 23
0.0
 33
0.0
 40
0.0
 40
0.0
 40
0.0
 40
0.0
 40
0.4999999999999982
 40
0.4999999999999982
 40
0.7499999999999991
 40
0.7499999999999991
 40
1.0
 40
1.0
 40
1.0
 40
1.0
 10
199.9326167378905
 20
139.3913820734637
 30
0.0
 10
199.9018944959714
 20
139.4286840564168
 30
0.0
 10
199.8590572814362
 20
139.4652958884631
 30
0.0
 10
199.7596302572364
 20
139.5130606717483
 30
0.0
 10
199.7198780624198
 20
139.5280181872307
 30
0.0
 10
199.6218366055616
 20
139.5512081329999
 30
0.0
 10
199.5622805499741
 20
139.5591315722195
 30
0.0
 10
199.4996040359983
 20
139.5591315722195
 30
0.0
  0
LINE
  5
73
330
1F
100
AcDbEntity
  8
0
  6
Continuous
 62
     7
370
    15
100
AcDbLine
 10
199.499604036
 20
139.5591315722
 30
0.0
 11
196.5551176631
 21
139.5591315722
 31
0.0
  0
SPLINE
  5
74
330
1F
100
AcDbEntity
  8
0
  6
Continuous
 62
     7
370
    15
100
AcDbSpline
210
0.0
220
0.0
230
1.0
 70
     8
 71
     3
 72
    12
 73
     8
 74
     0
 42
0.00000001
 43
0.00000001
 12
1.0
 22
0.0
 32
0.0
 13
1.0
 23
0.0
 33
0.0
 40
0.0
 40
0.0
 40
0.0
 40
0.0
 40
0.2499999999999999
 40
0.2499999999999999
 40
0.4999999999999999
 40
0.4999999999999999
 40
1.0
 40
1.0
 40
1.0
 40
1.0
 10
196.5551176631311
 20
139.5591315722195
 30
0.0
 10
196.4920376246378
 20
139.5591315722195
 30
0.0
 10
196.4328890024564
 20
139.5512256460071
 30
0.0
 10
196.3344164523873
 20
139.5279004845709
 30
0.0
 10
196.2953798404025
 20
139.5131876947392
 30
0.0
 10
196.1954833736235
 20
139.4652318940082
 30
0.0
 10
196.1530624925569
 20
139.4289697374282
 30
0.0
 10
196.1221049612389
 20
139.3913820734637
 30
0.0
  0
ELLIPSE
  5
75
330
1F
100
AcDbEntity
  8
0
  6
Continuous
 62
     7
370
    15
100
AcDbEllipse
 10
212.3745150389
 20
109.4906396133
 30
0.0
 11
-14.75368316065607
 21
31.09325491558112
 31
0.0
210
0.0
220
0.0
230
1.0
 40
0.3419987131
 41
0.1591422026273033
 42
1.089903569770979
  0
ELLIPSE
  5
76
330
1F
100
AcDbEntity
  8
0
  6
Continuous
 62
     7
370
    15
100
AcDbEllipse
 10
216.3728524379
 20
128.0289443872
 30
0.0
 11
0.2010024897830647
 21
3.237295024094607
 31
0.0
210
0.0
220
0.0
230
1.0
 40
0.2319071678
 41
5.517514468475404
 42
10.713647677261
  0
SPLINE
  5
77
330
1F
100
AcDbEntity
  8
0
  6
Continuous
 62
     7
370
    15
100
AcDbSpline
210
0.0
220
0.0
230
1.0
 70
     8
 71
     3
 72
    12
 73
     8
 74
     0
 42
0.00000001
 43
0.00000001
 12
1.0
 22
0.0
 32
0.0
 13
1.0
 23
0.0
 33
0.0
 40
0.0
 40
0.0
 40
0.0
 40
0.0
 40
0.5000000000000002
 40
0.5000000000000002
 40
0.75
 40
0.75
 40
1.0
 40
1.0
 40
1.0
 40
1.0
 10
185.2108485631082
 20
87.6358459108707
 30
0.0
 10
185.2672850640154
 20
87.63442802952895
 30
0.0
 10
185.3363696947041
 20
87.63286369328064
 30
0.0
 10
185.4551719664221
 20
87.62991950130619
 30
0.0
 10
185.4953572418922
 20
87.62888129820881
 30
0.0
 10
185.568738289296
 20
87.62694740299418
 30
0.0
 10
185.6021478530386
 20
87.62605251570538
 30
0.0
 10
185.6323839606951
 20
87.62526872543303
 30
0.0
  0
SPLINE
  5
78
330
1F
100
AcDbEntity
  8
0
  6
Continuous
 62
     7
370
    15
100
AcDbSpline
210
0.0
220
0.0
230
1.0
 70
     8
 71
     3
 72
    16
 73
    12
 74
     0
 42
0.00000001
 43
0.00000001
 12
1.0
 22
0.0
 32
0.0
 13
1.0
 23
0.0
 33
0.0
 40
0.0
 40
0.0
 40
0.0
 40
0.0
 40
0.0625000000000014
 40
0.0625000000000014
 40
0.1250000000000028
 40
0.1250000000000028
 40
0.2500000000000058
 40
0.2500000000000058
 40
0.5000000000000039
 40
0.5000000000000039
 40
1.0
 40
1.0
 40
1.0
 40
1.0
 10
185.6323839606578
 20
87.62526872545727
 30
0.0
 10
185.6439643682458
 20
87.62496853434591
 30
0.0
 10
185.6572738950071
 20
87.62364078608694
 30
0.0
 10
185.6865753250932
 20
87.61694211131191
 30
0.0
 10
185.7013894249775
 20
87.61158392820623
 30
0.0
 10
185.7372178266803
 20
87.59453827903889
 30
0.0
 10
185.7513374510434
 20
87.58307574126314
 30
0.0
 10
185.7858415951319
 20
87.5515124158909
 30
0.0
 10
185.7969461458365
 20
87.53361511684564
 30
0.0
 10
185.8231223230527
 20
87.48345369923139
 30
0.0
 10
185.8273608495647
 20
87.45570928703482
 30
0.0
 10
185.8273608495647
 20
87.43104512510527
 30
0.0
  0
LINE
  5
79
330
1F
100
AcDbEntity
  8
0
  6
Continuous
 62
     7
370
    15
100
AcDbLine
 10
185.8273608496
 20
102.4687522876
 30
0.0
 11
185.8273608496
 21
86.9508193345
 31
0.0
  0
SPLINE
  5
7A
330
1F
100
AcDbEntity
  8
0
  6
Continuous
 62
     7
370
    15
100
AcDbSpline
210
0.0
220
0.0
230
1.0
 70
     8
 71
     3
 72
    16
 73
    12
 74
     0
 42
0.00000001
 43
0.00000001
 12
1.0
 22
0.0
 32
0.0
 13
1.0
 23
0.0
 33
0.0
 40
0.0
 40
0.0
 40
0.0
 40
0.0
 40
0.5000000000000016
 40
0.5000000000000016
 40
0.7500000000000023
 40
0.7500000000000023
 40
0.8750000000000027
 40
0.8750000000000027
 40
0.9375000000000013
 40
0.9375000000000013
 40
1.0
 40
1.0
 40
1.0
 40
1.0
 10
185.8273608495647
 20
102.4687522875965
 30
0.0
 10
185.8273608495647
 20
102.5824448317243
 30
0.0
 10
185.8232145744867
 20
102.6967649930739
 30
0.0
 10
185.7972489790932
 20
102.869813283571
 30
0.0
 10
185.7857880737158
 20
102.9289887907327
 30
0.0
 10
185.7514763359414
 20
103.0121119102008
 30
0.0
 10
185.7374516000119
 20
103.0402332263015
 30
0.0
 10
185.701428636978
 20
103.0688490402789
 30
0.0
 10
185.6866741278884
 20
103.0746420881807
 30
0.0
 10
185.6573219667415
 20
103.0730486622437
 30
0.0
 10
185.6439820922374
 20
103.0665522589198
 30
0.0
 10
185.6323839606891
 20
103.0580365127167
 30
0.0
  0
SPLINE
  5
7B
330
1F
100
AcDbEntity
  8
0
  6
Continuous
 62
     7
370
    15
100
AcDbSpline
210
0.0
220
0.0
230
1.0
 70
     8
 71
     3
 72
    12
 73
     8
 74
     0
 42
0.00000001
 43
0.00000001
 12
1.0
 22
0.0
 32
0.0
 13
1.0
 23
0.0
 33
0.0
 40
0.0
 40
0.0
 40
0.0
 40
0.0
 40
0.2499999999999999
 40
0.2499999999999999
 40
0.4999999999999999
 40
0.4999999999999999
 40
1.0
 40
1.0
 40
1.0
 40
1.0
 10
185.6323839606961
 20
103.0580365127076
 30
0.0
 10
185.6021855192555
 20
103.0358637806625
 30
0.0
 10
185.5688181639195
 20
103.0167841247853
 30
0.0
 10
185.4956628880896
 20
102.9916110803426
 30
0.0
 10
185.4554101890656
 20
102.9860545439258
 30
0.0
 10
185.3376814457908
 20
102.9969663549125
 30
0.0
 10
185.2672229977319
 20
103.0389021103234
 30
0.0
 10
185.2108485631136
 20
103.0881138927049
 30
0.0
  0
SPLINE
  5
7C
330
1F
100
AcDbEntity
  8
0
  6
Continuous
 62
     7
370
    15
100
AcDbSpline
210
0.0
220
0.0
230
1.0
 70
     8
 71
     3
 72
    12
 73
     8
 74
     0
 42
0.00000001
 43
0.00000001
 12
1.0
 22
0.0
 32
0.0
 13
1.0
 23
0.0
 33
0.0
 40
0.0
 40
0.0
 40
0.0
 40
0.0
 40
0.4999999999999976
 40
0.4999999999999976
 40
0.7499999999999987
 40
0.7499999999999987
 40
1.0
 40
1.0
 40
1.0
 40
1.0
 10
184.7060405060051
 20
104.3044652845855
 30
0.0
 10
184.7497908578895
 20
104.0840182996109
 30
0.0
 10
184.802681009014
 20
103.8684733098054
 30
0.0
 10
184.9142925521557
 20
103.5560592332335
 30
0.0
 10
184.9568518960592
 20
103.4539797576176
 30
0.0
 10
185.0618291313966
 20
103.2595397449758
 30
0.0
 10
185.1233963744913
 20
103.1644548459121
 30
0.0
 10
185.2108485631136
 20
103.088113892705
 30
0.0
  0
SPLINE
  5
7D
330
1F
100
AcDbEntity
  8
0
  6
Continuous
 62
     7
370
    15
100
AcDbSpline
210
0.0
220
0.0
230
1.0
 70
     8
 71
     3
 72
    12
 73
     8
 74
     0
 42
0.00000001
 43
0.00000001
 12
1.0
 22
0.0
 32
0.0
 13
1.0
 23
0.0
 33
0.0
 40
0.0
 40
0.0
 40
0.0
 40
0.0
 40
0.2500000000000004
 40
0.2500000000000004
 40
0.5000000000000008
 40
0.5000000000000008
 40
1.0
 40
1.0
 40
1.0
 40
1.0
 10
185.2108485631135
 20
115.8931653339881
 30
0.0
 10
185.1223551555456
 20
115.8159154538798
 30
0.0
 10
185.0622971147797
 20
115.7225961299906
 30
0.0
 10
184.9564488417972
 20
115.5265630770211
 30
0.0
 10
184.9139153205197
 20
115.4242367188094
 30
0.0
 10
184.802764013696
 20
115.1128923130335
 30
0.0
 10
184.7498331566483
 20
114.8974740598555
 30
0.0
 10
184.7060405060051
 20
114.6768139421076
 30
0.0
  0
SPLINE
  5
7E
330
1F
100
AcDbEntity
  8
0
  6
Continuous
 62
     7
370
    15
100
AcDbSpline
210
0.0
220
0.0
230
1.0
 70
     8
 71
     3
 72
    12
 73
     8
 74
     0
 42
0.00000001
 43
0.00000001
 12
1.0
 22
0.0
 32
0.0
 13
1.0
 23
0.0
 33
0.0
 40
0.0
 40
0.0
 40
0.0
 40
0.0
 40
0.4999999999999999
 40
0.4999999999999999
 40
0.7499999999999998
 40
0.7499999999999998
 40
1.0
 40
1.0
 40
1.0
 40
1.0
 10
185.2108485631134
 20
115.8931653339882
 30
0.0
 10
185.2671571114091
 20
115.942319601232
 30
0.0
 10
185.3374317721272
 20
115.9842769198358
 30
0.0
 10
185.4554696864508
 20
115.9952365973682
 30
0.0
 10
185.4956459273047
 20
115.9897278391208
 30
0.0
 10
185.5696030219827
 20
115.9641706103319
 30
0.0
 10
185.6022194096941
 20
115.9453905624926
 30
0.0
 10
185.6323839606899
 20
115.9232427139759
 30
0.0
  0
SPLINE
  5
7F
330
1F
100
AcDbEntity
  8
0
  6
Continuous
 62
     7
370
    15
100
AcDbSpline
210
0.0
220
0.0
230
1.0
 70
     8
 71
     3
 72
    16
 73
    12
 74
     0
 42
0.00000001
 43
0.00000001
 12
1.0
 22
0.0
 32
0.0
 13
1.0
 23
0.0
 33
0.0
 40
0.0
 40
0.0
 40
0.0
 40
0.0
 40
0.0625000000000016
 40
0.0625000000000016
 40
0.1250000000000032
 40
0.1250000000000032
 40
0.2500000000000041
 40
0.2500000000000041
 40
0.5000000000000028
 40
0.5000000000000028
 40
1.0
 40
1.0
 40
1.0
 40
1.0
 10
185.6323839606581
 20
115.9232427139213
 30
0.0
 10
185.6439968604975
 20
115.9147161243261
 30
0.0
 10
185.65734804493
 20
115.9082158627933
 30
0.0
 10
185.6867478845491
 20
115.9066464656757
 30
0.0
 10
185.7015886091044
 20
115.9125298563064
 30
0.0
 10
185.737421817073
 20
115.9410774923569
 30
0.0
 10
185.7515350248946
 20
115.9692445116627
 30
0.0
 10
185.7860263961135
 20
116.0529987700846
 30
0.0
 10
185.7971104672239
 20
116.1107121837061
 30
0.0
 10
185.8232332850199
 20
116.2843027203519
 30
0.0
 10
185.8273608495647
 20
116.3993307729938
 30
0.0
 10
185.8273608495647
 20
116.5125269390967
 30
0.0
  0
LINE
  5
80
330
1F
100
AcDbEntity
  8
0
  6
Continuous
 62
     7
370
    15
100
AcDbLine
 10
185.8273608496
 20
132.0304598922
 30
0.0
 11
185.8273608496
 21
116.5125269391
 31
0.0
  0
SPLINE
  5
81
330
1F
100
AcDbEntity
  8
0
  6
Continuous
 62
     7
370
    15
100
AcDbSpline
210
0.0
220
0.0
230
1.0
 70
     8
 71
     3
 72
    16
 73
    12
 74
     0
 42
0.00000001
 43
0.00000001
 12
1.0
 22
0.0
 32
0.0
 13
1.0
 23
0.0
 33
0.0
 40
0.0
 40
0.0
 40
0.0
 40
0.0
 40
0.4999999999999952
 40
0.4999999999999952
 40
0.7499999999999948
 40
0.7499999999999948
 40
0.8749999999999947
 40
0.8749999999999947
 40
0.9374999999999972
 40
0.9374999999999972
 40
1.0
 40
1.0
 40
1.0
 40
1.0
 10
185.8273608495647
 20
131.5502341015878
 30
0.0
 10
185.8273608495647
 20
131.5255629455449
 30
0.0
 10
185.8231951511047
 20
131.4979811141537
 30
0.0
 10
185.7969368227798
 20
131.4476382433303
 30
0.0
 10
185.7854330410422
 20
131.4293487452684
 30
0.0
 10
185.7513022816956
 20
131.3981937142314
 30
0.0
 10
185.7368803950249
 20
131.3865543390197
 30
0.0
 10
185.7013134265871
 20
131.3696723130886
 30
0.0
 10
185.6863616582925
 20
131.364283209281
 30
0.0
 10
185.6573578399327
 20
131.3576627133365
 30
0.0
 10
185.6439424859235
 20
131.35631012513
 30
0.0
 10
185.6323839606869
 20
131.3560105012584
 30
0.0
  0
SPLINE
  5
82
330
1F
100
AcDbEntity
  8
0
  6
Continuous
 62
     7
370
    15
100
AcDbSpline
210
0.0
220
0.0
230
1.0
 70
     8
 71
     3
 72
    12
 73
     8
 74
     0
 42
0.00000001
 43
0.00000001
 12
1.0
 22
0.0
 32
0.0
 13
1.0
 23
0.0
 33
0.0
 40
0.0
 40
0.0
 40
0.0
 40
0.0
 40
0.2499999999999999
 40
0.2499999999999999
 40
0.4999999999999999
 40
0.4999999999999999
 40
1.0
 40
1.0
 40
1.0
 40
1.0
 10
185.6323839606962
 20
131.3560105012601
 30
0.0
 10
185.6021961841465
 20
131.3552279638426
 30
0.0
 10
185.5688423800548
 20
131.3543346320241
 30
0.0
 10
185.4957161768588
 20
131.3524073232205
 30
0.0
 10
185.4554809738346
 20
131.3513677920078
 30
0.0
 10
185.3377893437015
 20
131.3484499086605
 30
0.0
 10
185.2674086705415
 20
131.3468543025903
 30
0.0
 10
185.2108485631109
 20
131.3454333158225
 30
0.0
  0
SPLINE
  5
83
330
1F
100
AcDbEntity
  8
0
  6
Continuous
 62
     7
370
    15
100
AcDbSpline
210
0.0
220
0.0
230
1.0
 70
     8
 71
     3
 72
    16
 73
    12
 74
     0
 42
0.00000001
 43
0.00000001
 12
1.0
 22
0.0
 32
0.0
 13
1.0
 23
0.0
 33
0.0
 40
0.0
 40
0.0
 40
0.0
 40
0.0
 40
0.2500000000000001
 40
0.2500000000000001
 40
0.3750000000000001
 40
0.3750000000000001
 40
0.5000000000000001
 40
0.5000000000000001
 40
0.7500000000000001
 40
0.7500000000000001
 40
1.0
 40
1.0
 40
1.0
 40
1.0
 10
184.7060405060051
 20
114.6768139421076
 30
0.0
 10
184.5448080285206
 20
113.8644041668608
 30
0.0
 10
184.424328188881
 20
113.024325872476
 30
0.0
 10
184.3019476715677
 20
111.7230308231133
 30
0.0
 10
184.2709700111702
 20
111.2823497875285
 30
0.0
 10
184.2293562735422
 20
110.3865101465974
 30
0.0
 10
184.2191203606094
 20
109.9398520153949
 30
0.0
 10
184.2189319635533
 20
108.604542058255
 30
0.0
 10
184.2590766661909
 20
107.7200466849475
 30
0.0
 10
184.4232304211305
 20
105.9627967969215
 30
0.0
 10
184.5447820715401
 20
105.1170058505084
 30
0.0
 10
184.7060405060051
 20
104.3044652845855
 30
0.0
  0
LINE
  5
84
330
1F
100
AcDbEntity
  8
0
  6
Continuous
 62
     7
370
    15
100
AcDbLine
 10
183.8273608496
 20
115.975817875
 30
0.0
 11
183.8273608496
 21
103.0054613517
 31
0.0
  0
LINE
  5
85
330
1F
100
AcDbEntity
  8
0
  6
Continuous
 62
     7
370
    15
100
AcDbLine
 10
149.5273608496
 20
115.5449501809
 30
0.0
 11
149.5273608496
 21
103.4363290458
 31
0.0
  0
LINE
  5
86
330
1F
100
AcDbEntity
  8
0
  6
Continuous
 62
     7
370
    15
100
AcDbLine
 10
148.0273608496
 20
115.111937479
 30
0.0
 11
148.0273608496
 21
103.8693417477
 31
0.0
  0
SPLINE
  5
87
330
1F
100
AcDbEntity
  8
0
  6
Continuous
 62
     7
370
    15
100
AcDbSpline
210
0.0
220
0.0
230
1.0
 70
     8
 71
     3
 72
    16
 73
    12
 74
     0
 42
0.00000001
 43
0.00000001
 12
1.0
 22
0.0
 32
0.0
 13
1.0
 23
0.0
 33
0.0
 40
0.0
 40
0.0
 40
0.0
 40
0.0
 40
0.25
 40
0.25
 40
0.5
 40
0.5
 40
0.75
 40
0.75
 40
0.875
 40
0.875
 40
1.0
 40
1.0
 40
1.0
 40
1.0
 10
217.0380453501722
 20
127.0835335191109
 30
0.0
 10
217.0690846769984
 20
127.3226638065845
 30
0.0
 10
217.0980425389403
 20
127.5710239517151
 30
0.0
 10
217.1439777700464
 20
128.088184471895
 30
0.0
 10
217.1610875028823
 20
128.3572241042961
 30
0.0
 10
217.1724367708076
 20
128.9230569768714
 30
0.0
 10
217.1660598273456
 20
129.2110043944305
 30
0.0
 10
217.1328196546501
 20
129.6450647323391
 30
0.0
 10
217.118077228699
 20
129.7869238062392
 30
0.0
 10
217.0822109981944
 20
130.0644605647848
 30
0.0
 10
217.0608866658143
 20
130.2010569126387
 30
0.0
 10
217.0380453501722
 20
130.3304629799199
 30
0.0
  0
LINE
  5
88
330
1F
100
AcDbEntity
  8
0
  6
Continuous
 62
     7
370
    15
100
AcDbLine
 10
183.8273608496
 20
115.975817875
 30
0.0
 11
183.8273608496
 21
131.5107383979
 31
0.0
  0
ARC
  5
89
330
1F
100
AcDbEntity
  8
0
  6
Continuous
 62
     7
370
    15
100
AcDbCircle
 10
184.0272977605
 20
131.515761509
 30
0.0
 40
0.2000000000000066
100
AcDbArc
 50
181.4391666667
 51
271.4391666667
  0
LINE
  5
8A
330
1F
100
AcDbEntity
  8
0
  6
Continuous
 62
     7
370
    15
100
AcDbLine
 10
149.5273608496
 20
115.5449501809
 30
0.0
 11
149.5273608496
 21
130.6490030096
 31
0.0
  0
LINE
  5
8B
330
1F
100
AcDbEntity
  8
0
  6
Continuous
 62
     7
370
    15
100
AcDbLine
 10
149.5273608496
 20
130.6490030096
 30
0.0
 11
183.8273608496
 21
131.5107383979
 31
0.0
  0
LINE
  5
8C
330
1F
100
AcDbEntity
  8
0
  6
Continuous
 62
     7
370
    15
100
AcDbLine
 10
149.5273608496
 20
88.3322762171
 30
0.0
 11
149.5273608496
 21
103.4363290458
 31
0.0
  0
LINE
  5
8D
330
1F
100
AcDbEntity
  8
0
  6
Continuous
 62
     7
370
    15
100
AcDbLine
 10
183.8273608496
 20
87.4705408288
 30
0.0
 11
183.8273608496
 21
103.0054613517
 31
0.0
  0
LINE
  5
8E
330
1F
100
AcDbEntity
  8
0
  6
Continuous
 62
     7
370
    15
100
AcDbLine
 10
149.5273608496
 20
88.3322762171
 30
0.0
 11
183.8273608496
 21
87.4705408288
 31
0.0
  0
ARC
  5
8F
330
1F
100
AcDbEntity
  8
0
  6
Continuous
 62
     7
370
    15
100
AcDbCircle
 10
184.0272977605
 20
87.4655177177
 30
0.0
 40
0.2000000000000343
100
AcDbArc
 50
88.5608333333
 51
178.5608333333
  0
LINE
  5
90
330
1F
100
AcDbEntity
  8
0
  6
Continuous
 62
     7
370
    15
100
AcDbLine
 10
184.0323208716
 20
131.3158245981
 30
0.0
 11
185.2108485631
 21
131.3454333158
 31
0.0
  0
LINE
  5
91
330
1F
100
AcDbEntity
  8
0
  6
Continuous
 62
     7
370
    15
100
AcDbLine
 10
184.0323208716
 20
87.6654546286
 30
0.0
 11
185.2108485631
 21
87.6358459109
 31
0.0
  0
LINE
  5
92
330
1F
100
AcDbEntity
  8
0
  6
Continuous
 62
     7
370
    15
100
AcDbLine
 10
148.0273608496
 20
129.7829776058
 30
0.0
 11
149.5273608496
 21
130.6490030096
 31
0.0
  0
LINE
  5
93
330
1F
100
AcDbEntity
  8
0
  6
Continuous
 62
     7
370
    15
100
AcDbLine
 10
148.0273608496
 20
115.111937479
 30
0.0
 11
148.0273608496
 21
129.7829776058
 31
0.0
  0
LINE
  5
94
330
1F
100
AcDbEntity
  8
0
  6
Continuous
 62
     7
370
    15
100
AcDbLine
 10
148.0273608496
 20
89.1983016208
 30
0.0
 11
149.5273608496
 21
88.3322762171
 31
0.0
  0
LINE
  5
95
330
1F
100
AcDbEntity
  8
0
  6
Continuous
 62
     7
370
    15
100
AcDbLine
 10
148.0273608496
 20
89.1983016208
 30
0.0
 11
148.0273608496
 21
103.8693417477
 31
0.0
  0
LWPOLYLINE
  5
96
330
1F
100
AcDbEntity
  8
0
  6
Continuous
 62
     7
370
    15
100
AcDbPolyline
 90
       31
 70
   128
 43
0.0
 10
227.5384085281
 20
135.3263426698
 10
227.6356269757
 20
134.6093711626
 10
227.8791688309
 20
133.9237347507
 10
228.2583901459
 20
133.2993990354
 10
228.7567171296
 20
132.7636504832
 10
229.3523705015
 20
132.3399038767
 10
230.019317351
 20
132.046678976
 10
230.7284089004
 20
131.8967911163
 10
231.4486544464
 20
131.8967911163
 10
232.1485758025
 20
132.046678976
 10
232.797583047
 20
132.3399038767
 10
233.3673114488
 20
132.7636504832
 10
233.832861143
 20
133.2993990354
 10
234.173885374
 20
133.9237347507
 10
234.3754797465
 20
134.6093711626
 10
234.4288336191
 20
135.3263426698
 10
234.3316151714
 20
136.043314177
 10
234.0880733162
 20
136.7289505889
 10
233.7088520012
 20
137.3532863043
 10
233.2105250175
 20
137.8890348565
 10
232.6148716457
 20
138.3127814629
 10
231.9479247962
 20
138.6060063636
 10
231.2388332468
 20
138.7558942233
 10
230.5185877008
 20
138.7558942233
 10
229.8186663446
 20
138.6060063636
 10
229.1696591002
 20
138.3127814629
 10
228.5999306984
 20
137.8890348565
 10
228.1343810041
 20
137.3532863043
 10
227.7933567731
 20
136.7289505889
 10
227.5917624006
 20
136.043314177
 10
227.5384085281
 20
135.3263426698
  0
SPLINE
  5
97
330
1F
100
AcDbEntity
  8
0
  6
Continuous
 62
     7
370
    15
100
AcDbSpline
210
0.0
220
0.0
230
1.0
 70
     8
 71
     3
 72
    10
 73
     6
 74
     0
 42
0.00000001
 43
0.00000001
 12
1.0
 22
0.0
 32
0.0
 13
1.0
 23
0.0
 33
0.0
 40
0.0
 40
0.0
 40
0.0
 40
0.0
 40
0.5
 40
0.5
 40
1.0
 40
1.0
 40
1.0
 40
1.0
 10
223.2600338615858
 20
140.1592446512061
 30
0.0
 10
223.4918804175021
 20
140.1693953549374
 30
0.0
 10
223.708448141442
 20
140.264522840157
 30
0.0
 10
224.0503125745791
 20
140.567148247536
 30
0.0
 10
224.170265894895
 20
140.7679519206485
 30
0.0
 10
224.2259596878748
 20
140.991458286225
 30
0.0
  0
LINE
  5
98
330
1F
100
AcDbEntity
  8
0
  6
Continuous
 62
     7
370
    15
100
AcDbLine
 10
224.2259596879
 20
140.9914582862
 30
0.0
 11
224.2353218728
 21
141.0290256584
 31
0.0
  0
ARC
  5
99
330
1F
100
AcDbEntity
  8
0
  6
Continuous
 62
     7
370
    15
100
AcDbCircle
 10
225.5426254303
 20
142.6963722889
 30
0.0
 40
2.118746652561598
100
AcDbArc
 50
231.9013449099
 51
272.8082132538
  0
LINE
  5
9A
330
1F
100
AcDbEntity
  8
0
  6
Continuous
 62
     7
370
    15
100
AcDbLine
 10
225.6464290716
 20
140.5801699872
 30
0.0
 11
243.4641188579
 21
141.516333208
 31
0.0
  0
ARC
  5
9B
330
1F
100
AcDbEntity
  8
0
  6
Continuous
 62
     7
370
    15
100
AcDbCircle
 10
266.7948695627
 20
132.0574030931
 30
0.0
 40
25.17529120723494
100
AcDbArc
 50
157.9310086046
 51
180.06125453
  0
LINE
  5
9C
330
1F
100
AcDbEntity
  8
0
  6
Continuous
 62
     7
370
    15
100
AcDbLine
 10
241.6195927426
 20
132.0304883648
 30
0.0
 11
241.6195927426
 21
108.8337879029
 31
0.0
  0
LINE
  5
9D
330
1F
100
AcDbEntity
  8
0
  6
Continuous
 62
     7
370
    15
100
AcDbLine
 10
241.6195927426
 20
108.8337879029
 30
0.0
 11
223.229891433
 21
83.1336443021
 31
0.0
  0
SPLINE
  5
9E
330
1F
100
AcDbEntity
  8
0
  6
Continuous
 62
     7
370
    15
100
AcDbSpline
210
0.0
220
0.0
230
1.0
 70
     8
 71
     3
 72
    12
 73
     8
 74
     0
 42
0.00000001
 43
0.00000001
 12
1.0
 22
0.0
 32
0.0
 13
1.0
 23
0.0
 33
0.0
 40
0.0
 40
0.0
 40
0.0
 40
0.0
 40
0.4999999999999997
 40
0.4999999999999997
 40
0.7499999999999998
 40
0.7499999999999998
 40
1.0
 40
1.0
 40
1.0
 40
1.0
 10
223.2600338615857
 20
140.7983652468407
 30
0.0
 10
223.4758019717233
 20
140.738857350173
 30
0.0
 10
223.6830038350163
 20
140.7349778966401
 30
0.0
 10
223.9389978314402
 20
140.7911537835179
 30
0.0
 10
224.0154010659139
 20
140.8203271904534
 30
0.0
 10
224.1422519627584
 20
140.8986314286612
 30
0.0
 10
224.1934321500664
 20
140.9473401445712
 30
0.0
 10
224.2259596878748
 20
141.0108066110458
 30
0.0
  0
SPLINE
  5
9F
330
1F
100
AcDbEntity
  8
0
  6
Continuous
 62
     7
370
    15
100
AcDbSpline
210
0.0
220
0.0
230
1.0
 70
     8
 71
     3
 72
     8
 73
     4
 74
     0
 42
0.00000001
 43
0.00000001
 12
1.0
 22
0.0
 32
0.0
 13
1.0
 23
0.0
 33
0.0
 40
0.0
 40
0.0
 40
0.0
 40
0.0
 40
1.0
 40
1.0
 40
1.0
 40
1.0
 10
224.2259596878746
 20
141.0108066110448
 30
0.0
 10
224.229072980769
 20
141.0168811470356
 30
0.0
 10
224.2321937216181
 20
141.0229541788819
 30
0.0
 10
224.2353218727692
 20
141.0290256583724
 30
0.0
  0
LINE
  5
A0
330
1F
100
AcDbEntity
  8
0
  6
Continuous
 62
     7
370
    15
100
AcDbLine
 10
235.1490831742
 20
152.0991025602
 30
0.0
 11
230.9395834473
 21
145.0087488401
 31
0.0
  0
LINE
  5
A1
330
1F
100
AcDbEntity
  8
0
  6
Continuous
 62
     7
370
    15
100
AcDbLine
 10
230.9395834473
 20
145.0087488401
 30
0.0
 11
225.3036461899
 21
144.7126298012
 31
0.0
  0
ARC
  5
A2
330
1F
100
AcDbEntity
  8
0
  6
Continuous
 62
     7
370
    15
100
AcDbCircle
 10
225.4110668703
 20
142.6666680137
 30
0.0
 40
2.048779841393724
100
AcDbArc
 50
93.0054840254
 51
97.0540701165
  0
SPLINE
  5
A3
330
1F
100
AcDbEntity
  8
0
  6
Continuous
 62
     7
370
    15
100
AcDbSpline
210
0.0
220
0.0
230
1.0
 70
     8
 71
     3
 72
     8
 73
     4
 74
     0
 42
0.00000001
 43
0.00000001
 12
1.0
 22
0.0
 32
0.0
 13
1.0
 23
0.0
 33
0.0
 40
0.0
 40
0.0
 40
0.0
 40
0.0
 40
1.0
 40
1.0
 40
1.0
 40
1.0
 10
225.1594645025334
 20
144.6999400287031
 30
0.0
 10
225.6698616753586
 20
146.7092343868914
 30
0.0
 10
226.1864648806803
 20
148.7167612497058
 30
0.0
 10
226.7070147151995
 20
150.7231641015109
 30
0.0
  0
SPLINE
  5
A4
330
1F
100
AcDbEntity
  8
0
  6
Continuous
 62
     7
370
    15
100
AcDbSpline
210
0.0
220
0.0
230
1.0
 70
     8
 71
     3
 72
     8
 73
     4
 74
     0
 42
0.00000001
 43
0.00000001
 12
1.0
 22
0.0
 32
0.0
 13
1.0
 23
0.0
 33
0.0
 40
0.0
 40
0.0
 40
0.0
 40
0.0
 40
0.0008623686098218
 40
0.0008623686098218
 40
0.0008623686098218
 40
0.0008623686098218
 10
227.3345215867966
 20
151.2762180303828
 30
0.0
 10
227.1252054828792
 20
151.0920327017066
 30
0.0
 10
226.9160344609879
 20
150.9076834657791
 30
0.0
 10
226.7070147151995
 20
150.7231641015109
 30
0.0
  0
ELLIPSE
  5
A5
330
1F
100
AcDbEntity
  8
0
  6
Continuous
 62
     7
370
    15
100
AcDbEllipse
 10
472.147739489
 20
104.0242038838
 30
0.0
 11
359.8134541195676
 21
-11.27307127517014
 31
0.0
210
0.0
220
0.0
230
1.0
 40
0.1506209821
 41
2.294556550658115
 42
2.323798651461098
  0
SPLINE
  5
A6
330
1F
100
AcDbEntity
  8
0
  6
Continuous
 62
     7
370
    15
100
AcDbSpline
210
0.0
220
0.0
230
1.0
 70
     8
 71
     3
 72
     8
 73
     4
 74
     0
 42
0.00000001
 43
0.00000001
 12
1.0
 22
0.0
 32
0.0
 13
1.0
 23
0.0
 33
0.0
 40
0.0
 40
0.0
 40
0.0
 40
0.0
 40
1.0
 40
1.0
 40
1.0
 40
1.0
 10
225.1594645025336
 20
144.6999400287037
 30
0.0
 10
225.1135257829984
 20
144.6154125510817
 30
0.0
 10
225.0700653822875
 20
144.5296664875488
 30
0.0
 10
225.0290680235611
 20
144.4422230941881
 30
0.0
  0
SPLINE
  5
A7
330
1F
100
AcDbEntity
  8
0
  6
Continuous
 62
     7
370
    15
100
AcDbSpline
210
0.0
220
0.0
230
1.0
 70
     8
 71
     3
 72
     8
 73
     4
 74
     0
 42
0.00000001
 43
0.00000001
 12
1.0
 22
0.0
 32
0.0
 13
1.0
 23
0.0
 33
0.0
 40
0.0
 40
0.0
 40
0.0
 40
0.0
 40
1.0
 40
1.0
 40
1.0
 40
1.0
 10
225.0290680235611
 20
144.4422230941881
 30
0.0
 10
224.830234272757
 20
144.0181299714838
 30
0.0
 10
224.7017511293547
 20
143.5991093100778
 30
0.0
 10
224.6537187903314
 20
143.1858893603742
 30
0.0
  0
LINE
  5
A8
330
1F
100
AcDbEntity
  8
0
  6
Continuous
 62
     7
370
    15
100
AcDbLine
 10
224.6537187903
 20
143.1858893604
 30
0.0
 11
224.2259596879
 21
141.6145932444
 31
0.0
  0
LINE
  5
A9
330
1F
100
AcDbEntity
  8
0
  6
Continuous
 62
     7
370
    15
100
AcDbLine
 10
226.7070147152
 20
150.7231641015
 30
0.0
 11
226.7070147152
 21
150.9912439866
 31
0.0
  0
LINE
  5
AA
330
1F
100
AcDbEntity
  8
0
  6
Continuous
 62
     7
370
    15
100
AcDbLine
 10
229.3385472492
 20
143.4320359794
 30
0.0
 11
230.9395834473
 21
145.0087488401
 31
0.0
  0
LINE
  5
AB
330
1F
100
AcDbEntity
  8
0
  6
Continuous
 62
     7
370
    15
100
AcDbLine
 10
229.3385472492
 20
143.4320359794
 30
0.0
 11
224.6537187903
 21
143.1858893604
 31
0.0
  0
LINE
  5
AC
330
1F
100
AcDbEntity
  8
0
  6
Continuous
 62
     7
370
    15
100
AcDbLine
 10
227.3345215868
 20
151.5177847711
 30
0.0
 11
227.3345215868
 21
151.2762180304
 31
0.0
  0
ELLIPSE
  5
AD
330
1F
100
AcDbEntity
  8
0
  6
Continuous
 62
     7
370
    15
100
AcDbEllipse
 10
210.1434840395
 20
111.6664453677
 30
0.0
 11
24.94820542485843
 21
40.50210807924768
 31
0.0
210
0.0
220
0.0
230
1.0
 40
0.0513278518
 41
6.248246066228557
 42
6.321330646543955
  0
SPLINE
  5
AE
330
1F
100
AcDbEntity
  8
0
  6
Continuous
 62
     7
370
    15
100
AcDbSpline
210
0.0
220
0.0
230
1.0
 70
     8
 71
     3
 72
    10
 73
     6
 74
     0
 42
0.00000001
 43
0.00000001
 12
1.0
 22
0.0
 32
0.0
 13
1.0
 23
0.0
 33
0.0
 40
0.0
 40
0.0
 40
0.0
 40
0.0
 40
0.5
 40
0.5
 40
1.0
 40
1.0
 40
1.0
 40
1.0
 10
224.2259596878748
 20
141.6145932443974
 30
0.0
 10
224.1685326663825
 20
141.4035517728038
 30
0.0
 10
224.0418475664725
 20
141.2198912009548
 30
0.0
 10
223.6945107362429
 20
140.961735504136
 30
0.0
 10
223.4803875059053
 20
140.8924085548226
 30
0.0
 10
223.260033861587
 20
140.8954412011272
 30
0.0
  0
LWPOLYLINE
  5
AF
330
1F
100
AcDbEntity
  8
0
  6
Continuous
 62
     7
370
    15
100
AcDbPolyline
 90
        3
 70
   128
 43
0.0
 10
209.7404435763
 20
125.8794166823
 10
209.9573156987
 20
125.3287824594
 10
210.0198910153
 20
124.9538673554
  0
ARC
  5
B0
330
1F
100
AcDbEntity
  8
0
  6
Continuous
 62
     7
370
    15
100
AcDbCircle
 10
207.0652613423
 20
124.3310258675
 30
0.0
 40
3.090973002167696
100
AcDbArc
 50
30.0621836897
 51
168.806884462
  0
ARC
  5
B1
330
1F
100
AcDbEntity
  8
0
  6
Continuous
 62
     7
370
    15
100
AcDbCircle
 10
207.7095638265
 20
124.8420519397
 30
0.0
 40
2.177287000721275
100
AcDbArc
 50
340.2095559002
 51
29.0015684408
  0
LWPOLYLINE
  5
B2
330
1F
100
AcDbEntity
  8
0
  6
Continuous
 62
     7
370
    15
100
AcDbPolyline
 90
       14
 70
   128
 43
0.0
 10
204.3072522575
 20
124.0754880364
 10
204.1794166256
 20
124.6134606688
 10
204.1956873339
 20
125.1883734561
 10
204.3646142943
 20
125.7445398218
 10
204.6770906108
 20
126.2519766934
 10
205.1162706042
 20
126.6833280177
 10
205.6584779674
 20
127.0153395331
 10
206.2744821611
 20
127.230112413
 10
206.9310742397
 20
127.3160681957
 10
207.5928571545
 20
127.2685729829
 10
208.224154017
 20
127.0901872536
 10
208.7909314501
 20
126.7905278288
 10
209.2626343357
 20
126.3857494255
 10
209.613833049
 20
125.8976737524
  0
LWPOLYLINE
  5
B3
330
1F
100
AcDbEntity
  8
0
  6
Continuous
 62
     7
370
    15
100
AcDbPolyline
 90
       26
 70
   128
 43
0.0
 10
209.2882631218
 20
125.7646205041
 10
209.4825652402
 20
125.2486574439
 10
209.5225978372
 20
124.7070571228
 10
209.4058455173
 20
124.1738502809
 10
209.1396442584
 20
123.682540265
 10
208.7407204644
 20
123.2639978903
 10
208.2341399845
 20
122.9445217136
 10
207.6517331334
 20
122.744185598
 10
207.0300946754
 20
122.6755773984
 10
206.408284441
 20
122.7430080203
 10
205.8253730542
 20
122.9422405497
 10
205.3179869812
 20
123.2607564741
 10
204.918007155
 20
123.6785422666
 10
204.6505657791
 20
124.1693469092
 10
204.5324671786
 20
124.7023313413
 10
204.5711319232
 20
125.2440061908
 10
204.7641305645
 20
125.7603360347
 10
205.0993362882
 20
126.2188779701
 10
205.5556868859
 20
126.5908201208
 10
206.1045081712
 20
126.8527919934
 10
206.7113156842
 20
126.9883329318
 10
207.3379814774
 20
126.9889264003
 10
207.9451298341
 20
126.8545351092
 10
208.4946113902
 20
126.5936033575
 10
208.9519001986
 20
126.2225264468
 10
209.2882631218
 20
125.7646205041
  0
LINE
  5
B4
330
1F
100
AcDbEntity
  8
0
  6
Continuous
 62
     7
370
    15
100
AcDbLine
 10
229.2040830107
 20
140.8172782568
 30
0.0
 11
243.4613855826
 21
141.5663743774
 31
0.0
  0
ARC
  5
B5
330
1F
100
AcDbEntity
  8
0
  6
Continuous
 62
     7
370
    15
100
AcDbCircle
 10
229.1828981896
 20
141.2208112077
 30
0.0
 40
0.4040886525445073
100
AcDbArc
 50
150.5167545416
 51
273.0051760784
  0
LINE
  5
B6
330
1F
100
AcDbEntity
  8
0
  6
Continuous
 62
     7
370
    15
100
AcDbLine
 10
236.0375737935
 20
153.5579911501
 30
0.0
 11
228.8311391573
 21
141.4196911271
 31
0.0
  0
ARC
  5
B7
330
1F
100
AcDbEntity
  8
0
  6
Continuous
 62
     7
370
    15
100
AcDbCircle
 10
236.3635239933
 20
153.3636823108
 30
0.0
 40
0.3794726048280565
100
AcDbArc
 50
92.7638976865
 51
149.1995430404
  0
LINE
  5
B8
330
1F
100
AcDbEntity
  8
0
  6
Continuous
 62
     7
370
    15
100
AcDbLine
 10
250.6025282414
 20
154.4918096031
 30
0.0
 11
236.3452256694
 21
153.7427134826
 31
0.0
  0
ARC
  5
B9
330
1F
100
AcDbEntity
  8
0
  6
Continuous
 62
     7
370
    15
100
AcDbCircle
 10
250.6237130625
 20
154.0882766522
 30
0.0
 40
0.4040886525444966
100
AcDbArc
 50
330.5167545416
 51
93.0051760784
  0
LINE
  5
BA
330
1F
100
AcDbEntity
  8
0
  6
Continuous
 62
     7
370
    15
100
AcDbLine
 10
243.7690374586
 20
141.7510967098
 30
0.0
 11
250.9754720948
 21
153.8893967329
 31
0.0
  0
ARC
  5
BB
330
1F
100
AcDbEntity
  8
0
  6
Continuous
 62
     7
370
    15
100
AcDbCircle
 10
243.4430872587
 20
141.9454055491
 30
0.0
 40
0.379472604828003
100
AcDbArc
 50
272.7638976865
 51
329.1995430404
  0
ARC
  5
BC
330
1F
100
AcDbEntity
  8
0
  6
Continuous
 62
     7
370
    15
100
AcDbCircle
 10
250.6242861209
 20
154.0887749197
 30
0.0
 40
0.3838842199172536
100
AcDbArc
 50
330.5167545416
 51
93.0051760784
  0
LINE
  5
BD
330
1F
100
AcDbEntity
  8
0
  6
Continuous
 62
     7
370
    15
100
AcDbLine
 10
250.6041605408
 20
154.4721312231
 30
0.0
 11
236.3468579689
 21
153.7230351022
 31
0.0
  0
ARC
  5
BE
330
1F
100
AcDbEntity
  8
0
  6
Continuous
 62
     7
370
    15
100
AcDbCircle
 10
236.3642413771
 20
153.3629554879
 30
0.0
 40
0.3604989757387274
100
AcDbArc
 50
92.7638977545
 51
149.1995428812
  0
LINE
  5
BF
330
1F
100
AcDbEntity
  8
0
  6
Continuous
 62
     7
370
    15
100
AcDbLine
 10
236.0545886868
 20
153.5475488867
 30
0.0
 11
228.8481540505
 21
141.4092488636
 31
0.0
  0
ARC
  5
C0
330
1F
100
AcDbEntity
  8
0
  6
Continuous
 62
     7
370
    15
100
AcDbCircle
 10
229.1823251312
 20
141.2203129403
 30
0.0
 40
0.3838842199172578
100
AcDbArc
 50
150.5167545416
 51
273.0051760784
  0
LINE
  5
C1
330
1F
100
AcDbEntity
  8
0
  6
Continuous
 62
     7
370
    15
100
AcDbLine
 10
229.2024507113
 20
140.8369566369
 30
0.0
 11
243.4597532832
 21
141.5860527575
 31
0.0
  0
ARC
  5
C2
330
1F
100
AcDbEntity
  8
0
  6
Continuous
 62
     7
370
    15
100
AcDbCircle
 10
243.4423698755
 20
141.9461323706
 30
0.0
 40
0.3604989745863326
100
AcDbArc
 50
272.7638976865
 51
329.1995430404
  0
LINE
  5
C3
330
1F
100
AcDbEntity
  8
0
  6
Continuous
 62
     7
370
    15
100
AcDbLine
 10
243.7520225654
 20
141.7615389733
 30
0.0
 11
250.9584572016
 21
153.8998389963
 31
0.0
  0
LINE
  5
C4
330
1F
100
AcDbEntity
  8
0
  6
Continuous
 62
     7
370
    15
100
AcDbLine
 10
229.1333398096
 20
141.173327428
 30
0.0
 11
229.2024507113
 21
140.8369566369
 31
0.0
  0
LINE
  5
C5
330
1F
100
AcDbEntity
  8
0
  6
Continuous
 62
     7
370
    15
100
AcDbLine
 10
229.1333398096
 20
141.173327428
 30
0.0
 11
228.8481540505
 21
141.4092488636
 31
0.0
  0
LINE
  5
C6
330
1F
100
AcDbEntity
  8
0
  6
Continuous
 62
     7
370
    15
100
AcDbLine
 10
243.3906423815
 20
141.9224235486
 30
0.0
 11
243.4597532832
 21
141.5860527575
 31
0.0
  0
LINE
  5
C7
330
1F
100
AcDbEntity
  8
0
  6
Continuous
 62
     7
370
    15
100
AcDbLine
 10
230.84636777
 20
142.1631209424
 30
0.0
 11
229.1333398096
 21
141.173327428
 31
0.0
  0
LINE
  5
C8
330
1F
100
AcDbEntity
  8
0
  6
Continuous
 62
     7
370
    15
100
AcDbLine
 10
230.84636777
 20
142.1631209424
 30
0.0
 11
231.5090498422
 21
142.1979390692
 31
0.0
  0
LINE
  5
C9
330
1F
100
AcDbEntity
  8
0
  6
Continuous
 62
     7
370
    15
100
AcDbLine
 10
243.0912678378
 20
142.2933514191
 30
0.0
 11
243.3906423815
 21
141.9224235486
 31
0.0
  0
LINE
  5
CA
330
1F
100
AcDbEntity
  8
0
  6
Continuous
 62
     7
370
    15
100
AcDbLine
 10
234.9349078653
 20
152.4720771951
 30
0.0
 11
234.7537141617
 21
152.1668800139
 31
0.0
  0
LINE
  5
CB
330
1F
100
AcDbEntity
  8
0
  6
Continuous
 62
     7
370
    15
100
AcDbLine
 10
229.8907484542
 20
143.9758480073
 30
0.0
 11
227.9465022507
 21
140.7010186461
 31
0.0
  0
LINE
  5
CC
330
1F
100
AcDbEntity
  8
0
  6
Continuous
 62
     7
370
    15
100
AcDbLine
 10
236.3397744458
 20
153.3116274511
 30
0.0
 11
236.0545886868
 21
153.5475488867
 31
0.0
  0
LINE
  5
CD
330
1F
100
AcDbEntity
  8
0
  6
Continuous
 62
     7
370
    15
100
AcDbLine
 10
236.5524990887
 20
152.8553660866
 30
0.0
 11
236.3397744458
 21
153.3116274511
 31
0.0
  0
LINE
  5
CE
330
1F
100
AcDbEntity
  8
0
  6
Continuous
 62
     7
370
    15
100
AcDbLine
 10
231.1813241907
 20
142.7273113824
 30
0.0
 11
230.84636777
 21
142.1631209424
 31
0.0
  0
ARC
  5
CF
330
1F
100
AcDbEntity
  8
0
  6
Continuous
 62
     7
370
    15
100
AcDbCircle
 10
233.9257194776
 20
144.0731523326
 30
0.0
 40
1.010221631361226
100
AcDbArc
 50
150.5167545416
 51
273.0051760784
  0
LINE
  5
D0
330
1F
100
AcDbEntity
  8
0
  6
Continuous
 62
     7
370
    15
100
AcDbLine
 10
231.7706699466
 20
142.7194487962
 30
0.0
 11
231.7718906375
 21
142.7174770252
 31
0.0
  0
SPLINE
  5
D1
330
1F
100
AcDbEntity
  8
0
  6
Continuous
 62
     7
370
    15
100
AcDbSpline
210
0.0
220
0.0
230
1.0
 70
     8
 71
     3
 72
    14
 73
    10
 74
     0
 42
0.00000001
 43
0.00000001
 12
1.0
 22
0.0
 32
0.0
 13
1.0
 23
0.0
 33
0.0
 40
0.0
 40
0.0
 40
0.0
 40
0.0
 40
0.2234968253973652
 40
0.3567622963774673
 40
0.4531212562341276
 40
0.5344619041500379
 40
0.6157317558035288
 40
0.7396161778922182
 40
1.0
 40
1.0
 40
1.0
 40
1.0
 10
231.509049842162
 20
142.1979390691954
 30
0.0
 10
231.5674982438522
 20
142.2035533371168
 30
0.0
 10
231.6607979404787
 20
142.2125152501666
 30
0.0
 10
231.7709246804401
 20
142.2579812013249
 30
0.0
 10
231.833878274116
 20
142.3099763429737
 30
0.0
 10
231.867743679948
 20
142.3694711949721
 30
0.0
 10
231.8798412489503
 20
142.444511629554
 30
0.0
 10
231.8579969415118
 20
142.5676856989915
 30
0.0
 10
231.8066701560963
 20
142.6569742515781
 30
0.0
 10
231.7718906374532
 20
142.7174770252111
 30
0.0
  0
SPLINE
  5
D2
330
1F
100
AcDbEntity
  8
0
  6
Continuous
 62
     7
370
    15
100
AcDbSpline
210
0.0
220
0.0
230
1.0
 70
     8
 71
     3
 72
    14
 73
    10
 74
     0
 42
0.00000001
 43
0.00000001
 12
1.0
 22
0.0
 32
0.0
 13
1.0
 23
0.0
 33
0.0
 40
0.0
 40
0.0
 40
0.0
 40
0.0
 40
0.2210591904779528
 40
0.3460797326519267
 40
0.4396016244131503
 40
0.5338897453199839
 40
0.6146561933587633
 40
0.7517253237593874
 40
1.0
 40
1.0
 40
1.0
 40
1.0
 10
231.7706699466062
 20
142.7194487962165
 30
0.0
 10
231.7380393971463
 20
142.7686774998231
 30
0.0
 10
231.6869545641251
 20
142.8457476118874
 30
0.0
 10
231.5979830017081
 20
142.923998406441
 30
0.0
 10
231.5214981096378
 20
142.9597063983137
 30
0.0
 10
231.4489954858103
 20
142.963530081498
 30
0.0
 10
231.3708859620147
 20
142.9381352024085
 30
0.0
 10
231.2721206628755
 20
142.8650970597232
 30
0.0
 10
231.2169015378313
 20
142.7813008024504
 30
0.0
 10
231.1813241906511
 20
142.7273113823896
 30
0.0
  0
LINE
  5
D3
330
1F
100
AcDbEntity
  8
0
  6
Continuous
 62
     7
370
    15
100
AcDbLine
 10
233.9786815304
 20
143.0643199554
 30
0.0
 11
241.9579786001
 21
143.4835619859
 31
0.0
  0
LINE
  5
D4
330
1F
100
AcDbEntity
  8
0
  6
Continuous
 62
     7
370
    15
100
AcDbLine
 10
237.0795029622
 20
151.3637200431
 30
0.0
 11
233.0463218968
 21
144.570352131
 31
0.0
  0
ARC
  5
D5
330
1F
100
AcDbEntity
  8
0
  6
Continuous
 62
     7
370
    15
100
AcDbCircle
 10
237.8943784618
 20
150.8779479448
 30
0.0
 40
0.948681512069964
100
AcDbArc
 50
92.7638976865
 51
149.1995430404
  0
LINE
  5
D6
330
1F
100
AcDbEntity
  8
0
  6
Continuous
 62
     7
370
    15
100
AcDbLine
 10
245.8279297217
 20
152.2447679046
 30
0.0
 11
237.848632652
 21
151.8255258741
 31
0.0
  0
ARC
  5
D7
330
1F
100
AcDbEntity
  8
0
  6
Continuous
 62
     7
370
    15
100
AcDbCircle
 10
245.8808917749
 20
151.2359355274
 30
0.0
 40
1.010221631349161
100
AcDbArc
 50
330.5167545273
 51
93.0051760987
  0
LINE
  5
D8
330
1F
100
AcDbEntity
  8
0
  6
Continuous
 62
     7
370
    15
100
AcDbLine
 10
242.72710829
 20
143.9453678169
 30
0.0
 11
246.7602893555
 21
150.7387357288
 31
0.0
  0
ARC
  5
D9
330
1F
100
AcDbEntity
  8
0
  6
Continuous
 62
     7
370
    15
100
AcDbCircle
 10
241.9122327904
 20
144.4311399152
 30
0.0
 40
0.9486815120699356
100
AcDbArc
 50
272.7638976865
 51
329.1995430404
  0
LWPOLYLINE
  5
DA
330
1F
100
AcDbEntity
  8
0
  6
Continuous
 62
     7
370
    15
100
AcDbPolyline
 90
       27
 70
   128
 43
0.0
 10
242.0982268533
 20
146.3074919455
 10
242.3407336275
 20
146.8625356951
 10
242.4415859459
 20
147.4636080845
 10
242.3949226384
 20
148.0757769713
 10
242.2034556069
 20
148.6634653247
 10
241.8783122191
 20
149.192518834
 10
241.438388627
 20
149.6321908322
 10
240.9092515907
 20
149.9569291809
 10
240.3216526314
 20
150.1478612676
 10
239.7097408648
 20
150.1938908135
 10
239.1090783785
 20
150.0923427487
 10
238.5545734929
 20
149.8491186776
 10
238.0784520165
 20
149.4783538991
 10
237.7083843988
 20
149.0015959144
 10
237.4658776246
 20
148.4465521648
 10
237.3650253062
 20
147.8454797754
 10
237.4116886136
 20
147.2333108887
 10
237.6031556452
 20
146.6456225352
 10
237.928299033
 20
146.1165690259
 10
238.368222625
 20
145.6768970277
 10
238.8973596614
 20
145.352158679
 10
239.4849586207
 20
145.1612265923
 10
240.0968703873
 20
145.1151970464
 10
240.6975328736
 20
145.2167451112
 10
241.2520377591
 20
145.4599691824
 10
241.7281592356
 20
145.8307339609
 10
242.0982268533
 20
146.3074919455
  0
LWPOLYLINE
  5
DB
330
1F
100
AcDbEntity
  8
0
  6
Continuous
 62
     7
370
    15
100
AcDbPolyline
 90
        3
 70
   128
 43
0.0
 10
238.2253577894
 20
149.0610647887
 10
238.0064124503
 20
149.0064287936
 10
237.6303936318
 20
148.8597241143
  0
SPLINE
  5
DC
330
1F
100
AcDbEntity
  8
0
  6
Continuous
 62
     7
370
    15
100
AcDbSpline
210
0.0
220
0.0
230
1.0
 70
     8
 71
     3
 72
    11
 73
     7
 74
     0
 42
0.00000001
 43
0.00000001
 12
1.0
 22
0.0
 32
0.0
 13
1.0
 23
0.0
 33
0.0
 40
0.0
 40
0.0
 40
0.0
 40
0.0
 40
0.3280455501580066
 40
0.6557028173711961
 40
0.9906967996087576
 40
0.9999999999999999
 40
0.9999999999999999
 40
0.9999999999999999
 40
0.9999999999999999
 10
243.0912678378461
 20
142.2933514190613
 30
0.0
 10
243.0471018571293
 20
142.3515639455327
 30
0.0
 10
242.9588221716587
 20
142.4679200966686
 30
0.0
 10
242.8321994254598
 20
142.6781258176803
 30
0.0
 10
242.7608245390834
 20
142.8190032712179
 30
0.0
 10
242.7301374846191
 20
142.8872277873257
 30
0.0
 10
242.7293082945139
 20
142.8890712713184
 30
0.0
  0
LINE
  5
DD
330
1F
100
AcDbEntity
  8
0
  6
Continuous
 62
     7
370
    15
100
AcDbLine
 10
248.6824063979
 20
152.872350803
 30
0.0
 11
250.5970770177
 21
154.0607235717
 31
0.0
  0
LINE
  5
DE
330
1F
100
AcDbEntity
  8
0
  6
Continuous
 62
     7
370
    15
100
AcDbLine
 10
250.5970770177
 20
154.0607235717
 30
0.0
 11
250.9584572016
 21
153.8998389963
 31
0.0
  0
LINE
  5
DF
330
1F
100
AcDbEntity
  8
0
  6
Continuous
 62
     7
370
    15
100
AcDbLine
 10
243.3906423815
 20
141.9224235486
 30
0.0
 11
243.7520225654
 21
141.7615389733
 31
0.0
  0
LINE
  5
E0
330
1F
100
AcDbEntity
  8
0
  6
Continuous
 62
     7
370
    15
100
AcDbLine
 10
248.3474499772
 20
152.3081603629
 30
0.0
 11
248.6824063979
 21
152.872350803
 31
0.0
  0
SPLINE
  5
E1
330
1F
100
AcDbEntity
  8
0
  6
Continuous
 62
     7
370
    15
100
AcDbSpline
210
0.0
220
0.0
230
1.0
 70
     8
 71
     3
 72
    11
 73
     7
 74
     0
 42
0.00000001
 43
0.00000001
 12
1.0
 22
0.0
 32
0.0
 13
1.0
 23
0.0
 33
0.0
 40
0.0
 40
0.0
 40
0.0
 40
0.0
 40
0.328045550157998
 40
0.655702817371191
 40
0.9906967996087708
 40
1.0
 40
1.0
 40
1.0
 40
1.0
 10
236.5524990887032
 20
152.8553660865671
 30
0.0
 10
236.5865666938867
 20
152.7872086015776
 30
0.0
 10
236.6546615809814
 20
152.650974304508
 30
0.0
 10
236.7856481088734
 20
152.4450660695399
 30
0.0
 10
236.8767039689039
 20
152.3235705914445
 30
0.0
 10
236.9217412407449
 20
152.2694782806662
 30
0.0
 10
236.9229581858323
 20
152.2680166607861
 30
0.0
  0
LINE
  5
E2
330
1F
100
AcDbEntity
  8
0
  6
Continuous
 62
     7
370
    15
100
AcDbLine
 10
236.3397744458
 20
153.3116274511
 30
0.0
 11
236.3468579689
 21
153.7230351022
 31
0.0
  0
LINE
  5
E3
330
1F
100
AcDbEntity
  8
0
  6
Continuous
 62
     7
370
    15
100
AcDbLine
 10
250.5970770177
 20
154.0607235717
 30
0.0
 11
250.6041605408
 21
154.4721312231
 31
0.0
  0
LINE
  5
E4
330
1F
100
AcDbEntity
  8
0
  6
Continuous
 62
     7
370
    15
100
AcDbLine
 10
248.6824063979
 20
152.872350803
 30
0.0
 11
248.0197243257
 21
152.8375326761
 31
0.0
  0
ARC
  5
E5
330
1F
100
AcDbEntity
  8
0
  6
Continuous
 62
     7
370
    15
100
AcDbCircle
 10
235.2589138643
 20
152.279803142
 30
0.0
 40
0.3767614614640484
100
AcDbArc
 50
134.5644415318
 51
149.3139432255
  0
LINE
  5
E6
330
1F
100
AcDbEntity
  8
0
  6
Continuous
 62
     7
370
    15
100
AcDbLine
 10
247.7581042213
 20
152.3160229491
 30
0.0
 11
247.7568835304
 21
152.3179947201
 31
0.0
  0
SPLINE
  5
E7
330
1F
100
AcDbEntity
  8
0
  6
Continuous
 62
     7
370
    15
100
AcDbSpline
210
0.0
220
0.0
230
1.0
 70
     8
 71
     3
 72
    14
 73
    10
 74
     0
 42
0.00000001
 43
0.00000001
 12
1.0
 22
0.0
 32
0.0
 13
1.0
 23
0.0
 33
0.0
 40
0.0
 40
0.0
 40
0.0
 40
0.0
 40
0.2210591904779596
 40
0.3460797326519164
 40
0.4396016244131563
 40
0.5338897453199729
 40
0.6146561933587483
 40
0.7517253237593712
 40
0.9999999999999999
 40
0.9999999999999999
 40
0.9999999999999999
 40
0.9999999999999999
 10
247.7581042212569
 20
152.3160229491172
 30
0.0
 10
247.7907347707168
 20
152.2667942455107
 30
0.0
 10
247.841819603738
 20
152.1897241334464
 30
0.0
 10
247.930791166155
 20
152.1114733388928
 30
0.0
 10
248.0072760582253
 20
152.0757653470201
 30
0.0
 10
248.0797786820528
 20
152.0719416638358
 30
0.0
 10
248.1578882058484
 20
152.0973365429252
 30
0.0
 10
248.2566535049876
 20
152.1703746856106
 30
0.0
 10
248.3118726300318
 20
152.2541709428834
 30
0.0
 10
248.3474499772121
 20
152.3081603629442
 30
0.0
  0
SPLINE
  5
E8
330
1F
100
AcDbEntity
  8
0
  6
Continuous
 62
     7
370
    15
100
AcDbSpline
210
0.0
220
0.0
230
1.0
 70
     8
 71
     3
 72
    14
 73
    10
 74
     0
 42
0.00000001
 43
0.00000001
 12
1.0
 22
0.0
 32
0.0
 13
1.0
 23
0.0
 33
0.0
 40
0.0
 40
0.0
 40
0.0
 40
0.0
 40
0.2234968253974006
 40
0.356762296377488
 40
0.4531212562341531
 40
0.5344619041500501
 40
0.6157317558035482
 40
0.7396161778922071
 40
1.0
 40
1.0
 40
1.0
 40
1.0
 10
248.0197243257012
 20
152.8375326761384
 30
0.0
 10
247.9612759240109
 20
152.831918408217
 30
0.0
 10
247.8679762273844
 20
152.8229564951673
 30
0.0
 10
247.757849487423
 20
152.7774905440089
 30
0.0
 10
247.6948958937471
 20
152.7254954023601
 30
0.0
 10
247.6610304879151
 20
152.6660005503617
 30
0.0
 10
247.6489329189128
 20
152.5909601157799
 30
0.0
 10
247.6707772263513
 20
152.4677860463423
 30
0.0
 10
247.7221040117668
 20
152.3784974937557
 30
0.0
 10
247.7568835304099
 20
152.3179947201227
 30
0.0
  0
LINE
  5
E9
330
1F
100
AcDbEntity
  8
0
  6
Continuous
 62
     7
370
    15
100
AcDbLine
 10
234.7799670146
 20
152.2110995235
 30
0.0
 11
234.7537141617
 21
152.1668800139
 31
0.0
  0
LINE
  5
EA
330
1F
100
AcDbEntity
  8
0
  6
Continuous
 62
     7
370
    15
100
AcDbLine
 10
229.8907484542
 20
143.9758480073
 30
0.0
 11
228.3002316694
 21
141.2968297549
 31
0.0
  0
LINE
  5
EB
330
1F
100
AcDbEntity
  8
0
  6
Continuous
 62
     7
370
    15
100
AcDbLine
 10
227.8001249178
 20
140.8043207485
 30
0.0
 11
227.7424437313
 21
140.6902971618
 31
0.0
  0
LINE
  5
EC
330
1F
100
AcDbEntity
  8
0
  6
Continuous
 62
     7
370
    15
100
AcDbLine
 10
229.3906417025
 20
143.4833390009
 30
0.0
 11
227.8001249178
 21
140.8043207485
 31
0.0
  0
LWPOLYLINE
  5
ED
330
1F
100
AcDbEntity
  8
0
  6
Continuous
 62
     7
370
    15
100
AcDbPolyline
 90
       31
 70
   128
 43
0.0
 10
228.7146010464
 20
137.9904591482
 10
229.3036409156
 20
138.3874800641
 10
229.9661039791
 20
138.6507145869
 10
230.6730374222
 20
138.7686581048
 10
231.3935448613
 20
138.7361559202
 10
232.0961366638
 20
138.5546285344
 10
232.7501061965
 20
138.2320095653
 10
233.3268718529
 20
137.7823990099
 10
233.801226206
 20
137.225447007
 10
234.1524376945
 20
136.5854950316
 10
234.3651566909
 20
135.890512056
 10
234.4300863545
 20
135.170872171
 10
234.3443889473
 20
134.4580270928
 10
234.1118098573
 20
133.783131572
 10
233.7425139068
 20
133.1756817813
 10
233.2526411007
 20
132.6622261914
 10
232.6636012316
 20
132.2652052755
 10
232.0011381681
 20
132.0019707527
 10
231.2942047249
 20
131.8840272348
 10
230.5736972859
 20
131.9165294194
 10
229.8711054834
 20
132.0980568052
 10
229.2171359506
 20
132.4206757743
 10
228.6403702943
 20
132.8702863297
 10
228.1660159412
 20
133.4272383326
 10
227.8148044527
 20
134.067190308
 10
227.6020854562
 20
134.7621732836
 10
227.5371557926
 20
135.4818131687
 10
227.6228531998
 20
136.1946582468
 10
227.8554322898
 20
136.8695537677
 10
228.2247282404
 20
137.4770035584
 10
228.7146010464
 20
137.9904591482
  0
LWPOLYLINE
  5
EE
330
1F
100
AcDbEntity
  8
0
  6
Continuous
 62
     7
370
    15
100
AcDbPolyline
 90
       24
 70
   128
 43
0.0
 10
229.6870382009
 20
136.8486949432
 10
230.1351338373
 20
137.1298078663
 10
230.6461578905
 20
137.2771660262
 10
231.1822100442
 20
137.2798405421
 10
231.7035337623
 20
137.1376330575
 10
232.1714648498
 20
136.8610904509
 10
232.5512989984
 20
136.4707226224
 10
232.814865647
 20
135.9954813681
 10
232.9426172629
 20
135.4706131575
 10
232.9250790933
 20
134.9350450649
 10
232.7635518639
 20
134.4284977256
 10
232.4700153105
 20
133.9885394384
 10
232.0662396963
 20
133.6477998969
 10
231.5821712115
 20
133.431550194
 10
231.0537110012
 20
133.3558285809
 10
230.5200525416
 20
133.4262509833
 10
230.0207748393
 20
133.6375944938
 10
229.5929070375
 20
133.9741847309
 10
229.2681821336
 20
134.4110583367
 10
229.0706834883
 20
134.9158143943
 10
229.0150586726
 20
135.4510174561
 10
229.1054331246
 20
135.9769739593
 10
229.3351041847
 20
136.4546761162
 10
229.6870382009
 20
136.8486949432
  0
SPLINE
  5
EF
330
1F
100
AcDbEntity
  8
0
  6
Continuous
 62
     7
370
    15
100
AcDbSpline
210
0.0
220
0.0
230
1.0
 70
     8
 71
     3
 72
    11
 73
     7
 74
     0
 42
0.00000001
 43
0.00000001
 12
1.0
 22
0.0
 32
0.0
 13
1.0
 23
0.0
 33
0.0
 40
0.0
 40
0.0
 40
0.0
 40
0.0
 40
0.1081100880371234
 40
0.471158066604359
 40
0.8135808430835939
 40
0.9999999999999999
 40
0.9999999999999999
 40
0.9999999999999999
 40
0.9999999999999999
 10
231.2675220237387
 20
133.5969771326408
 30
0.0
 10
231.3060710165309
 20
133.6288235300602
 30
0.0
 10
231.4740726271417
 20
133.7676143432843
 30
0.0
 10
231.8120600373987
 20
134.0497150202011
 30
0.0
 10
232.231125370281
 20
134.4057183523035
 30
0.0
 10
232.4680275662801
 20
134.6089098574683
 30
0.0
 10
232.5515366544612
 20
134.6805357757123
 30
0.0
  0
SPLINE
  5
F0
330
1F
100
AcDbEntity
  8
0
  6
Continuous
 62
     7
370
    15
100
AcDbSpline
210
0.0
220
0.0
230
1.0
 70
     8
 71
     3
 72
    10
 73
     6
 74
     0
 42
0.00000001
 43
0.00000001
 12
1.0
 22
0.0
 32
0.0
 13
1.0
 23
0.0
 33
0.0
 40
0.0
 40
0.0
 40
0.0
 40
0.0
 40
0.4391165375904111
 40
0.7513669429073259
 40
1.0
 40
1.0
 40
1.0
 40
1.0
 10
232.5515366544612
 20
134.6805357757123
 30
0.0
 10
232.4863934100377
 20
134.9039793693521
 30
0.0
 10
232.3749276003416
 20
135.2863109726813
 30
0.0
 10
232.270834426086
 20
135.8991592826412
 30
0.0
 10
232.2363800402513
 20
136.2212848280468
 30
0.0
 10
232.2211068153224
 20
136.3640793022817
 30
0.0
  0
SPLINE
  5
F1
330
1F
100
AcDbEntity
  8
0
  6
Continuous
 62
     7
370
    15
100
AcDbSpline
210
0.0
220
0.0
230
1.0
 70
     8
 71
     3
 72
    10
 73
     6
 74
     0
 42
0.00000001
 43
0.00000001
 12
1.0
 22
0.0
 32
0.0
 13
1.0
 23
0.0
 33
0.0
 40
0.0
 40
0.0
 40
0.0
 40
0.0
 40
0.4391165375903762
 40
0.7513669429073203
 40
1.0
 40
1.0
 40
1.0
 40
1.0
 10
232.2211068153224
 20
136.3640793022817
 30
0.0
 10
231.9721469777646
 20
136.4324031227779
 30
0.0
 10
231.5461548411921
 20
136.5493111773359
 30
0.0
 10
230.9848420991304
 20
136.7763194800064
 30
0.0
 10
230.7228156122816
 20
136.9064007051404
 30
0.0
 10
230.6066623454611
 20
136.9640641857795
 30
0.0
  0
SPLINE
  5
F2
330
1F
100
AcDbEntity
  8
0
  6
Continuous
 62
     7
370
    15
100
AcDbSpline
210
0.0
220
0.0
230
1.0
 70
     8
 71
     3
 72
    11
 73
     7
 74
     0
 42
0.00000001
 43
0.00000001
 12
1.0
 22
0.0
 32
0.0
 13
1.0
 23
0.0
 33
0.0
 40
0.0
 40
0.0
 40
0.0
 40
0.0
 40
0.1864191569163763
 40
0.5288419333956542
 40
0.8918899119628778
 40
1.0
 40
1.0
 40
1.0
 40
1.0
 10
230.6066623454611
 20
136.9640641857795
 30
0.0
 10
230.52315325728
 20
136.8924382675355
 30
0.0
 10
230.286251061281
 20
136.6892467623705
 30
0.0
 10
229.8671857283985
 20
136.3332434302684
 30
0.0
 10
229.5291983181417
 20
136.0511427533515
 30
0.0
 10
229.3611967075308
 20
135.9123519401273
 30
0.0
 10
229.3226477147387
 20
135.8805055427079
 30
0.0
  0
SPLINE
  5
F3
330
1F
100
AcDbEntity
  8
0
  6
Continuous
 62
     7
370
    15
100
AcDbSpline
210
0.0
220
0.0
230
1.0
 70
     8
 71
     3
 72
    10
 73
     6
 74
     0
 42
0.00000001
 43
0.00000001
 12
1.0
 22
0.0
 32
0.0
 13
1.0
 23
0.0
 33
0.0
 40
0.0
 40
0.0
 40
0.0
 40
0.0
 40
0.4391165375904175
 40
0.7513669429073501
 40
0.9999999999999999
 40
0.9999999999999999
 40
0.9999999999999999
 40
0.9999999999999999
 10
229.3226477147387
 20
135.8805055427079
 30
0.0
 10
229.3521116279708
 20
135.6219246670888
 30
0.0
 10
229.40252696995
 20
135.1794700898269
 30
0.0
 10
229.5337566411299
 20
134.5933460124276
 30
0.0
 10
229.6164296009366
 20
134.318706492509
 30
0.0
 10
229.6530775538774
 20
134.1969620161387
 30
0.0
  0
SPLINE
  5
F4
330
1F
100
AcDbEntity
  8
0
  6
Continuous
 62
     7
370
    15
100
AcDbSpline
210
0.0
220
0.0
230
1.0
 70
     8
 71
     3
 72
    10
 73
     6
 74
     0
 42
0.00000001
 43
0.00000001
 12
1.0
 22
0.0
 32
0.0
 13
1.0
 23
0.0
 33
0.0
 40
0.0
 40
0.0
 40
0.0
 40
0.0
 40
0.4391165375904331
 40
0.7513669429073789
 40
1.0
 40
1.0
 40
1.0
 40
1.0
 10
229.6530775538774
 20
134.1969620161387
 30
0.0
 10
229.866358060244
 20
134.093500913663
 30
0.0
 10
230.2312997290996
 20
133.9164698851722
 30
0.0
 10
230.8197489680854
 20
133.7161858150623
 30
0.0
 10
231.1299940289064
 20
133.6335906154153
 30
0.0
 10
231.2675220237387
 20
133.5969771326408
 30
0.0
  0
LINE
  5
F5
330
1F
100
AcDbEntity
  8
0
  6
Continuous
 62
     7
370
    15
100
AcDbLine
 10
229.9585985238
 20
136.3258459097
 30
0.0
 11
230.6066623455
 21
136.9640641858
 31
0.0
  0
LINE
  5
F6
330
1F
100
AcDbEntity
  8
0
  6
Continuous
 62
     7
370
    15
100
AcDbLine
 10
229.9585985238
 20
136.3258459097
 30
0.0
 11
229.3165912084
 21
135.7840665882
 31
0.0
  0
LINE
  5
F7
330
1F
100
AcDbEntity
  8
0
  6
Continuous
 62
     7
370
    15
100
AcDbLine
 10
231.8889965928
 20
134.1160740955
 30
0.0
 11
231.7382579132
 21
134.8840892629
 31
0.0
  0
LINE
  5
F8
330
1F
100
AcDbEntity
  8
0
  6
Continuous
 62
     7
370
    15
100
AcDbLine
 10
231.7382579132
 20
134.8840892629
 30
0.0
 11
231.5730429936
 21
135.7258610262
 31
0.0
  0
LINE
  5
F9
330
1F
100
AcDbEntity
  8
0
  6
Continuous
 62
     7
370
    15
100
AcDbLine
 10
231.5730429936
 20
135.7258610262
 30
0.0
 11
232.2211068153
 21
136.3640793023
 31
0.0
  0
LINE
  5
FA
330
1F
100
AcDbEntity
  8
0
  6
Continuous
 62
     7
370
    15
100
AcDbLine
 10
231.5730429936
 20
135.7258610262
 30
0.0
 11
230.7658207587
 21
136.025853468
 31
0.0
  0
LINE
  5
FB
330
1F
100
AcDbEntity
  8
0
  6
Continuous
 62
     7
370
    15
100
AcDbLine
 10
230.7658207587
 20
136.025853468
 30
0.0
 11
229.9585985238
 21
136.3258459097
 31
0.0
  0
ARC
  5
FC
330
1F
100
AcDbEntity
  8
0
  6
Continuous
 62
     7
370
    15
100
AcDbCircle
 10
230.2289882865
 20
134.5836418501
 30
0.0
 40
1.538883833861959
100
AcDbArc
 50
11.2585820815
 51
69.5832920757
  0
ARC
  5
FD
330
1F
100
AcDbEntity
  8
0
  6
Continuous
 62
     7
370
    15
100
AcDbCircle
 10
230.3131254051
 20
134.5979819644
 30
0.0
 40
1.453568041764113
100
AcDbArc
 50
326.9388710114
 51
11.351707309
  0
ARC
  5
FE
330
1F
100
AcDbEntity
  8
0
  6
Continuous
 62
     7
370
    15
100
AcDbCircle
 10
230.2480501612
 20
134.6651711083
 30
0.0
 40
1.455864992268179
100
AcDbArc
 50
69.1670412643
 51
129.7767299666
  0
ELLIPSE
  5
FF
330
1F
100
AcDbEntity
  8
0
  6
Continuous
 62
     7
370
    15
100
AcDbEllipse
 10
239.4620220998
 20
147.06647289
 30
0.0
 11
-1.636441407150699
 21
1.686705215780705
 31
0.0
210
0.0
220
0.0
230
1.0
 40
0.9711043057
 41
4.882443948612554
 42
6.593162079200573
  0
ELLIPSE
  5
100
330
1F
100
AcDbEntity
  8
0
  6
Continuous
 62
     7
370
    15
100
AcDbEllipse
 10
239.4620220998
 20
147.06647289
 30
0.0
 11
-1.636441407150699
 21
1.686705215780705
 31
0.0
210
0.0
220
0.0
230
1.0
 40
0.9711043057
 41
3.106313192622006
 42
4.88244394861257
  0
LINE
  5
101
330
1F
100
AcDbEntity
  8
0
  6
HIDDEN
 62
     7
370
     0
100
AcDbLine
 10
186.0273608496
 20
140.4906396067
 30
0.0
 11
186.0273608496
 21
78.4906396133
 31
0.0
  0
SPLINE
  5
102
330
1F
100
AcDbEntity
  8
0
  6
HIDDEN
 62
     7
370
     0
100
AcDbSpline
210
0.0
220
0.0
230
1.0
 70
     8
 71
     3
 72
    28
 73
    24
 74
     0
 42
0.00000001
 43
0.00000001
 12
1.0
 22
0.0
 32
0.0
 13
1.0
 23
0.0
 33
0.0
 40
0.0
 40
0.0
 40
0.0
 40
0.0
 40
0.1250000000000004
 40
0.1250000000000004
 40
0.2500000000000009
 40
0.2500000000000009
 40
0.3750000000000013
 40
0.3750000000000013
 40
0.5000000000000018
 40
0.5000000000000018
 40
0.5625000000000017
 40
0.5625000000000017
 40
0.6250000000000016
 40
0.6250000000000016
 40
0.7500000000000009
 40
0.7500000000000009
 40
0.8125000000000007
 40
0.8125000000000007
 40
0.8750000000000004
 40
0.8750000000000004
 40
0.9375000000000002
 40
0.9375000000000002
 40
1.0
 40
1.0
 40
1.0
 40
1.0
 10
223.2600338615858
 20
133.6142956350276
 30
0.0
 10
222.981595329474
 20
133.3457826422807
 30
0.0
 10
222.7325809098988
 20
133.0625776748963
 30
0.0
 10
222.2831701912111
 20
132.4677324173175
 30
0.0
 10
222.0829780444123
 20
132.1560542528406
 30
0.0
 10
221.7320525741728
 20
131.5019401539508
 30
0.0
 10
221.580621529693
 20
131.1574511327527
 30
0.0
 10
221.3393599153764
 20
130.4423909579124
 30
0.0
 10
221.2499461134532
 20
130.0744212209228
 30
0.0
 10
221.1722116957106
 20
129.5051962824686
 30
0.0
 10
221.1557765053212
 20
129.3125659978265
 30
0.0
 10
221.1448872361622
 20
128.921070349309
 30
0.0
 10
221.1505822084171
 20
128.7217057024222
 30
0.0
 10
221.2057236445745
 20
128.1256340936662
 30
0.0
 10
221.2916380474297
 20
127.7271732984252
 30
0.0
 10
221.5252558395677
 20
127.1335721625038
 30
0.0
 10
221.6192219572405
 20
126.9408201943509
 30
0.0
 10
221.8438770247238
 20
126.5680554829935
 30
0.0
 10
221.9752308680671
 20
126.3871756994407
 30
0.0
 10
222.2795851095551
 20
126.0458185756853
 30
0.0
 10
222.4491317547215
 20
125.8889812301079
 30
0.0
 10
222.8265504247184
 20
125.6070768114233
 30
0.0
 10
223.0360440994225
 20
125.4815815130506
 30
0.0
 10
223.2600338615858
 20
125.3790730319819
 30
0.0
  0
ELLIPSE
  5
103
330
1F
100
AcDbEntity
  8
0
  6
HIDDEN
 62
     7
370
     0
100
AcDbEllipse
 10
240.5202147349
 20
109.4906396133
 30
0.0
 11
178.6426981535721
 21
-5.63973000588071
 31
0.0
210
0.0
220
0.0
230
1.0
 40
0.1734804855
 41
1.675250332632504
 42
1.681157252277198
  0
SPLINE
  5
104
330
1F
100
AcDbEntity
  8
0
  6
HIDDEN
 62
     7
370
     0
100
AcDbSpline
210
0.0
220
0.0
230
1.0
 70
     8
 71
     3
 72
    10
 73
     6
 74
     0
 42
0.00000001
 43
0.00000001
 12
1.0
 22
0.0
 32
0.0
 13
1.0
 23
0.0
 33
0.0
 40
0.0
 40
0.0
 40
0.0
 40
0.0
 40
0.4692764847038368
 40
0.9391169671906715
 40
1.0
 40
1.0
 40
1.0
 40
1.0
 10
221.8174681617748
 20
140.9142681565327
 30
0.0
 10
221.8829833057586
 20
140.9343478865201
 30
0.0
 10
222.0140923328003
 20
140.974531479226
 30
0.0
 10
222.1591593337041
 20
140.9946432182645
 30
0.0
 10
222.248173969186
 20
140.9893568103145
 30
0.0
 10
222.2583854650333
 20
140.9887503692215
 30
0.0
  0
ELLIPSE
  5
105
330
1F
100
AcDbEntity
  8
0
  6
HIDDEN
 62
     7
370
     0
100
AcDbEllipse
 10
241.6266332228
 20
109.4906396133
 30
0.0
 11
23.05226149512188
 21
31.49098328279236
 31
0.0
210
0.0
220
0.0
230
1.0
 40
0.0326926316
 41
2.44673101622198
 42
3.165519987239061
  0
SPLINE
  5
106
330
1F
100
AcDbEntity
  8
0
  6
HIDDEN
 62
     7
370
     0
100
AcDbSpline
210
0.0
220
0.0
230
1.0
 70
     8
 71
     3
 72
    12
 73
     8
 74
     0
 42
0.00000001
 43
0.00000001
 12
1.0
 22
0.0
 32
0.0
 13
1.0
 23
0.0
 33
0.0
 40
0.0
 40
0.0
 40
0.0
 40
0.0
 40
0.4999999999999953
 40
0.4999999999999953
 40
0.7499999999999977
 40
0.7499999999999977
 40
1.0
 40
1.0
 40
1.0
 40
1.0
 10
196.1221049612389
 20
139.3913820734639
 30
0.0
 10
196.152827203158
 20
139.428684056417
 30
0.0
 10
196.1956644176931
 20
139.4652958884633
 30
0.0
 10
196.2950914418929
 20
139.5130606717485
 30
0.0
 10
196.3348436367096
 20
139.5280181872309
 30
0.0
 10
196.4328850935678
 20
139.5512081330001
 30
0.0
 10
196.4924411491553
 20
139.5591315722197
 30
0.0
 10
196.5551176631311
 20
139.5591315722197
 30
0.0
  0
LINE
  5
107
330
1F
100
AcDbEntity
  8
0
  6
HIDDEN
 62
     7
370
     0
100
AcDbLine
 10
196.5551176631
 20
139.5591315722
 30
0.0
 11
199.499604036
 21
139.5591315722
 31
0.0
  0
SPLINE
  5
108
330
1F
100
AcDbEntity
  8
0
  6
HIDDEN
 62
     7
370
     0
100
AcDbSpline
210
0.0
220
0.0
230
1.0
 70
     8
 71
     3
 72
    12
 73
     8
 74
     0
 42
0.00000001
 43
0.00000001
 12
1.0
 22
0.0
 32
0.0
 13
1.0
 23
0.0
 33
0.0
 40
0.0
 40
0.0
 40
0.0
 40
0.0
 40
0.25
 40
0.25
 40
0.5
 40
0.5
 40
1.0
 40
1.0
 40
1.0
 40
1.0
 10
199.4996040359983
 20
139.5591315722197
 30
0.0
 10
199.5626840744916
 20
139.5591315722197
 30
0.0
 10
199.621832696673
 20
139.5512256460073
 30
0.0
 10
199.7203052467421
 20
139.5279004845711
 30
0.0
 10
199.7593418587269
 20
139.5131876947394
 30
0.0
 10
199.8592383255059
 20
139.4652318940085
 30
0.0
 10
199.9016592065725
 20
139.4289697374284
 30
0.0
 10
199.9326167378905
 20
139.3913820734639
 30
0.0
  0
ELLIPSE
  5
109
330
1F
100
AcDbEntity
  8
0
  6
HIDDEN
 62
     7
370
     0
100
AcDbEllipse
 10
183.6802066602
 20
109.4906396133
 30
0.0
 11
14.75368316065624
 21
31.09325491558115
 31
0.0
210
0.0
220
0.0
230
1.0
 40
0.3419987131
 41
5.193281737408639
 42
6.124043104552344
  0
SPLINE
  5
10A
330
1F
100
AcDbEntity
  8
0
  6
HIDDEN
 62
     7
370
     0
100
AcDbSpline
210
0.0
220
0.0
230
1.0
 70
     8
 71
     3
 72
    12
 73
     8
 74
     0
 42
0.00000001
 43
0.00000001
 12
1.0
 22
0.0
 32
0.0
 13
1.0
 23
0.0
 33
0.0
 40
0.0
 40
0.0
 40
0.0
 40
0.0
 40
0.4999999999999953
 40
0.4999999999999953
 40
0.7499999999999977
 40
0.7499999999999977
 40
1.0
 40
1.0
 40
1.0
 40
1.0
 10
199.9326167378905
 20
119.4000089340322
 30
0.0
 10
199.9018944959714
 20
119.287453134623
 30
0.0
 10
199.8590572814362
 20
119.1746952748834
 30
0.0
 10
199.7596302572365
 20
119.025154389087
 30
0.0
 10
199.7198780624198
 20
118.9778616573802
 30
0.0
 10
199.6218366055616
 20
118.9041253640587
 30
0.0
 10
199.5622805499741
 20
118.878706044683
 30
0.0
 10
199.4996040359983
 20
118.878706044683
 30
0.0
  0
LINE
  5
10B
330
1F
100
AcDbEntity
  8
0
  6
HIDDEN
 62
     7
370
     0
100
AcDbLine
 10
199.499604036
 20
118.8787060447
 30
0.0
 11
196.5551176631
 21
118.8787060447
 31
0.0
  0
SPLINE
  5
10C
330
1F
100
AcDbEntity
  8
0
  6
HIDDEN
 62
     7
370
     0
100
AcDbSpline
210
0.0
220
0.0
230
1.0
 70
     8
 71
     3
 72
    12
 73
     8
 74
     0
 42
0.00000001
 43
0.00000001
 12
1.0
 22
0.0
 32
0.0
 13
1.0
 23
0.0
 33
0.0
 40
0.0
 40
0.0
 40
0.0
 40
0.0
 40
0.2499999999999991
 40
0.2499999999999991
 40
0.4999999999999982
 40
0.4999999999999982
 40
1.0
 40
1.0
 40
1.0
 40
1.0
 10
196.5551176631311
 20
118.878706044683
 30
0.0
 10
196.4920376246378
 20
118.878706044683
 30
0.0
 10
196.4328890024564
 20
118.904070363898
 30
0.0
 10
196.3344164523873
 20
118.9782352242709
 30
0.0
 10
196.2953798404026
 20
119.024755564825
 30
0.0
 10
196.1954833736235
 20
119.1748979076703
 30
0.0
 10
196.1530624925569
 20
119.2865911146424
 30
0.0
 10
196.1221049612389
 20
119.4000089340322
 30
0.0
  0
ELLIPSE
  5
10D
330
1F
100
AcDbEntity
  8
0
  6
HIDDEN
 62
     7
370
     0
100
AcDbEllipse
 10
212.3745150389
 20
109.4906396133
 30
0.0
 11
-14.75368316065626
 21
31.09325491558114
 31
0.0
210
0.0
220
0.0
230
1.0
 40
0.3419987131
 41
0.1591422026272858
 42
1.089903569770962
  0
SPLINE
  5
10E
330
1F
100
AcDbEntity
  8
0
  6
HIDDEN
 62
     7
370
     0
100
AcDbSpline
210
0.0
220
0.0
230
1.0
 70
     8
 71
     3
 72
    12
 73
     8
 74
     0
 42
0.00000001
 43
0.00000001
 12
1.0
 22
0.0
 32
0.0
 13
1.0
 23
0.0
 33
0.0
 40
0.0
 40
0.0
 40
0.0
 40
0.0
 40
0.4999999999999953
 40
0.4999999999999953
 40
0.7499999999999977
 40
0.7499999999999977
 40
1.0
 40
1.0
 40
1.0
 40
1.0
 10
196.1221049612389
 20
99.58127029266137
 30
0.0
 10
196.152827203158
 20
99.69382609207054
 30
0.0
 10
196.1956644176931
 20
99.80658395181014
 30
0.0
 10
196.295091441893
 20
99.95612483760647
 30
0.0
 10
196.3348436367096
 20
100.0034175693133
 30
0.0
 10
196.4328850935678
 20
100.0771538626348
 30
0.0
 10
196.4924411491554
 20
100.1025731820105
 30
0.0
 10
196.5551176631312
 20
100.1025731820105
 30
0.0
  0
LINE
  5
10F
330
1F
100
AcDbEntity
  8
0
  6
HIDDEN
 62
     7
370
     0
100
AcDbLine
 10
196.5551176631
 20
100.102573182
 30
0.0
 11
199.499604036
 21
100.102573182
 31
0.0
  0
SPLINE
  5
110
330
1F
100
AcDbEntity
  8
0
  6
HIDDEN
 62
     7
370
     0
100
AcDbSpline
210
0.0
220
0.0
230
1.0
 70
     8
 71
     3
 72
    12
 73
     8
 74
     0
 42
0.00000001
 43
0.00000001
 12
1.0
 22
0.0
 32
0.0
 13
1.0
 23
0.0
 33
0.0
 40
0.0
 40
0.0
 40
0.0
 40
0.0
 40
0.25
 40
0.25
 40
0.5
 40
0.5
 40
1.0
 40
1.0
 40
1.0
 40
1.0
 10
199.4996040359983
 20
100.1025731820105
 30
0.0
 10
199.5626840744916
 20
100.1025731820105
 30
0.0
 10
199.621832696673
 20
100.0772088627955
 30
0.0
 10
199.7203052467421
 20
100.0030440024226
 30
0.0
 10
199.7593418587268
 20
99.9565236618685
 30
0.0
 10
199.8592383255059
 20
99.80638131902325
 30
0.0
 10
199.9016592065725
 20
99.69468811205113
 30
0.0
 10
199.9326167378905
 20
99.58127029266136
 30
0.0
  0
ELLIPSE
  5
111
330
1F
100
AcDbEntity
  8
0
  6
HIDDEN
 62
     7
370
     0
100
AcDbEllipse
 10
183.6802066602
 20
109.4906396133
 30
0.0
 11
-14.75368316065615
 21
31.09325491558114
 31
0.0
210
0.0
220
0.0
230
1.0
 40
0.3419987131
 41
3.300734856217125
 42
4.231496223360777
  0
SPLINE
  5
112
330
1F
100
AcDbEntity
  8
0
  6
HIDDEN
 62
     7
370
     0
100
AcDbSpline
210
0.0
220
0.0
230
1.0
 70
     8
 71
     3
 72
    12
 73
     8
 74
     0
 42
0.00000001
 43
0.00000001
 12
1.0
 22
0.0
 32
0.0
 13
1.0
 23
0.0
 33
0.0
 40
0.0
 40
0.0
 40
0.0
 40
0.0
 40
0.5000000000000001
 40
0.5000000000000001
 40
0.75
 40
0.75
 40
1.0
 40
1.0
 40
1.0
 40
1.0
 10
199.9326167378905
 20
79.58989715322936
 30
0.0
 10
199.9018944959714
 20
79.55259517027629
 30
0.0
 10
199.8590572814362
 20
79.51598333822992
 30
0.0
 10
199.7596302572364
 20
79.46821855494471
 30
0.0
 10
199.7198780624198
 20
79.45326103946235
 30
0.0
 10
199.6218366055616
 20
79.4300710936932
 30
0.0
 10
199.5622805499741
 20
79.4221476544735
 30
0.0
 10
199.4996040359983
 20
79.4221476544735
 30
0.0
  0
LINE
  5
113
330
1F
100
AcDbEntity
  8
0
  6
HIDDEN
 62
     7
370
     0
100
AcDbLine
 10
199.499604036
 20
79.4221476545
 30
0.0
 11
196.5551176631
 21
79.4221476545
 31
0.0
  0
SPLINE
  5
114
330
1F
100
AcDbEntity
  8
0
  6
HIDDEN
 62
     7
370
     0
100
AcDbSpline
210
0.0
220
0.0
230
1.0
 70
     8
 71
     3
 72
    12
 73
     8
 74
     0
 42
0.00000001
 43
0.00000001
 12
1.0
 22
0.0
 32
0.0
 13
1.0
 23
0.0
 33
0.0
 40
0.0
 40
0.0
 40
0.0
 40
0.0
 40
0.2499999999999986
 40
0.2499999999999986
 40
0.4999999999999971
 40
0.4999999999999971
 40
1.0
 40
1.0
 40
1.0
 40
1.0
 10
196.5551176631312
 20
79.4221476544735
 30
0.0
 10
196.4920376246378
 20
79.4221476544735
 30
0.0
 10
196.4328890024564
 20
79.43005358068592
 30
0.0
 10
196.3344164523873
 20
79.45337874212215
 30
0.0
 10
196.2953798404026
 20
79.46809153195386
 30
0.0
 10
196.1954833736235
 20
79.5160473326848
 30
0.0
 10
196.1530624925569
 20
79.55230948926484
 30
0.0
 10
196.1221049612389
 20
79.58989715322936
 30
0.0
  0
ELLIPSE
  5
115
330
1F
100
AcDbEntity
  8
0
  6
HIDDEN
 62
     7
370
     0
100
AcDbEllipse
 10
212.3745150389
 20
109.4906396133
 30
0.0
 11
14.7536831606561
 21
31.09325491558114
 31
0.0
210
0.0
220
0.0
230
1.0
 40
0.3419987131
 41
2.051689083818819
 42
2.982450450962495
  0
SPLINE
  5
116
330
1F
100
AcDbEntity
  8
0
  6
HIDDEN
 62
     7
370
     0
100
AcDbSpline
210
0.0
220
0.0
230
1.0
 70
     8
 71
     3
 72
    60
 73
    56
 74
     0
 42
0.00000001
 43
0.00000001
 12
1.0
 22
0.0
 32
0.0
 13
1.0
 23
0.0
 33
0.0
 40
-0.0625000000000002
 40
-0.0625000000000002
 40
0.0
 40
0.0
 40
0.0312500000000002
 40
0.0312500000000002
 40
0.0625000000000003
 40
0.0625000000000003
 40
0.0937500000000005
 40
0.0937500000000005
 40
0.1250000000000007
 40
0.1250000000000007
 40
0.1875000000000008
 40
0.1875000000000008
 40
0.2500000000000009
 40
0.2500000000000009
 40
0.2812500000000008
 40
0.2812500000000008
 40
0.3125000000000007
 40
0.3125000000000007
 40
0.3437500000000006
 40
0.3437500000000006
 40
0.3750000000000004
 40
0.3750000000000004
 40
0.4062500000000003
 40
0.4062500000000003
 40
0.4375000000000002
 40
0.4375000000000002
 40
0.4687500000000001
 40
0.4687500000000001
 40
0.4999999999999999
 40
0.4999999999999999
 40
0.5624999999999997
 40
0.5624999999999997
 40
0.6249999999999993
 40
0.6249999999999993
 40
0.6562499999999994
 40
0.6562499999999994
 40
0.6874999999999994
 40
0.6874999999999994
 40
0.7187499999999996
 40
0.7187499999999996
 40
0.7499999999999996
 40
0.7499999999999996
 40
0.7812499999999996
 40
0.7812499999999996
 40
0.8124999999999997
 40
0.8124999999999997
 40
0.8437499999999997
 40
0.8437499999999997
 40
0.8749999999999997
 40
0.8749999999999997
 40
0.9062499999999998
 40
0.9062499999999998
 40
0.9374999999999998
 40
0.9374999999999998
 40
1.0
 40
1.0
 40
1.03125
 40
1.03125
 10
200.0273608495647
 20
109.2263090882599
 30
0.0
 10
200.0273608495647
 20
109.6228048758899
 30
0.0
 10
200.0143889910759
 20
109.752754936894
 30
0.0
 10
199.9635688213835
 20
110.0084078702541
 30
0.0
 10
199.9251014979166
 20
110.1354373768035
 30
0.0
 10
199.8247032618445
 20
110.377625507928
 30
0.0
 10
199.7632702308713
 20
110.4924870004808
 30
0.0
 10
199.6181353993263
 20
110.709867196305
 30
0.0
 10
199.5336802819185
 20
110.8127647635036
 30
0.0
 10
199.2569608315602
 20
111.0894318025114
 30
0.0
 10
199.0338839396421
 20
111.2384298929914
 30
0.0
 10
198.5526005774218
 20
111.4379410334561
 30
0.0
 10
198.2893701584308
 20
111.4904991364528
 30
0.0
 10
197.8979679567429
 20
111.4907094188308
 30
0.0
 10
197.765444928634
 20
111.4777236481037
 30
0.0
 10
197.5089144753929
 20
111.4266964998899
 30
0.0
 10
197.3842276410964
 20
111.3889413007395
 30
0.0
 10
197.1420483788608
 20
111.2888029678308
 30
0.0
 10
197.0249548467108
 20
111.2261973004192
 30
0.0
 10
196.8082398433553
 20
111.0814640071543
 30
0.0
 10
196.7072210164926
 20
110.9988366598747
 30
0.0
 10
196.5204361290404
 20
110.8122316066231
 30
0.0
 10
196.4375792478443
 20
110.711116542747
 30
0.0
 10
196.2926949827704
 20
110.4945837387571
 30
0.0
 10
196.2300574749495
 20
110.377713531156
 30
0.0
 10
196.1296086515497
 20
110.1354156605058
 30
0.0
 10
196.0917575505325
 20
110.0107516620449
 30
0.0
 10
196.0405359852762
 20
109.754464617981
 30
0.0
 10
196.0274078586589
 20
109.6218926222354
 30
0.0
 10
196.0272672183187
 20
109.2302884294614
 30
0.0
 10
196.0795919676905
 20
108.9671230981375
 30
0.0
 10
196.2787030297478
 20
108.4856177289643
 30
0.0
 10
196.4275653662051
 20
108.2623661894802
 30
0.0
 10
196.7038863255306
 20
107.9855098905914
 30
0.0
 10
196.8066499739041
 20
107.9009964437477
 30
0.0
 10
197.0240335312836
 20
107.7555791703074
 30
0.0
 10
197.13883229924
 20
107.694067971249
 30
0.0
 10
197.3807090226641
 20
107.5935381229942
 30
0.0
 10
197.5078626306643
 20
107.5548930997762
 30
0.0
 10
197.7635286400969
 20
107.5038367722252
 30
0.0
 10
197.8933946778529
 20
107.4907719136796
 30
0.0
 10
198.1573472045845
 20
107.4905092928817
 30
0.0
 10
198.2877515280086
 20
107.5033862931257
 30
0.0
 10
198.5434022913879
 20
107.5539722969315
 30
0.0
 10
198.6702678405023
 20
107.5922486615533
 30
0.0
 10
198.9127882984482
 20
107.6925195290333
 30
0.0
 10
199.0277149371085
 20
107.7538755531742
 30
0.0
 10
199.2450864059405
 20
107.898721848347
 30
0.0
 10
199.3481002186028
 20
107.9830993628417
 30
0.0
 10
199.5328007641847
 20
108.1675066830299
 30
0.0
 10
199.6156304984413
 20
108.2680797462994
 30
0.0
 10
199.7618829370388
 20
108.4863058868784
 30
0.0
 10
199.8242514178312
 20
108.6028609967996
 30
0.0
 10
199.9742075693979
 20
108.9637105908334
 30
0.0
 10
200.0273608495647
 20
109.2263090882599
 30
0.0
 10
200.0273608495647
 20
109.6228048758899
 30
0.0
  0
LWPOLYLINE
  5
117
330
1F
100
AcDbEntity
  8
0
  6
HIDDEN
 62
     7
370
     0
100
AcDbPolyline
 90
       20
 70
   128
 43
0.0
 10
207.4268970959
 20
124.3155722515
 10
206.750404078
 20
124.327620713
 10
206.0880000466
 20
124.2080676187
 10
205.4733819629
 20
123.9629947188
 10
204.9378158827
 20
123.604869045
 10
204.508546431
 20
123.1519087031
 10
204.207410848
 20
122.6271561058
 10
204.0497281134
 20
122.0573057884
 10
204.0435196594
 20
121.4713464389
 10
204.1891013144
 20
120.8990862234
 10
204.4790672367
 20
120.3696364233
 10
204.8986666552
 20
119.9099305239
 10
205.4265542509
 20
119.5433540891
 10
206.035876009
 20
119.2885551209
 10
206.6956353014
 20
119.1584954229
 10
207.3722697066
 20
119.1597912237
 10
208.0313583547
 20
119.2923766052
 10
208.6393729405
 20
119.5495068552
 10
209.1653833326
 20
119.9181015763
 10
209.5826310108
 20
120.3794100948
  0
SPLINE
  5
118
330
1F
100
AcDbEntity
  8
0
  6
HIDDEN
 62
     7
370
     0
100
AcDbSpline
210
0.0
220
0.0
230
1.0
 70
     8
 71
     3
 72
    30
 73
    26
 74
     0
 42
0.00000001
 43
0.00000001
 12
1.0
 22
0.0
 32
0.0
 13
1.0
 23
0.0
 33
0.0
 40
0.0
 40
0.0
 40
0.0
 40
0.0
 40
0.1249999999999993
 40
0.1249999999999993
 40
0.2499999999999987
 40
0.2499999999999987
 40
0.3124999999999988
 40
0.3124999999999988
 40
0.374999999999999
 40
0.374999999999999
 40
0.4374999999999992
 40
0.4374999999999992
 40
0.4999999999999993
 40
0.4999999999999993
 40
0.5624999999999994
 40
0.5624999999999994
 40
0.6249999999999996
 40
0.6249999999999996
 40
0.7499999999999999
 40
0.7499999999999999
 40
0.8125
 40
0.8125
 40
0.8750000000000001
 40
0.8750000000000001
 40
1.0
 40
1.0
 40
1.0
 40
1.0
 10
207.4268970958755
 20
124.3155722514777
 30
0.0
 10
207.5329670791438
 20
124.4466398395688
 30
0.0
 10
207.6920511625909
 20
124.5509646362536
 30
0.0
 10
208.0713280866782
 20
124.6854289732024
 30
0.0
 10
208.284430643878
 20
124.7126047526699
 30
0.0
 10
208.6189807408417
 20
124.6717867740587
 30
0.0
 10
208.73042202732
 20
124.6446957241166
 30
0.0
 10
208.9509495634931
 20
124.5604077899793
 30
0.0
 10
209.061216469977
 20
124.502128641219
 30
0.0
 10
209.2669819322107
 20
124.3572876847689
 30
0.0
 10
209.363504175326
 20
124.2707126263474
 30
0.0
 10
209.5421158508942
 20
124.0678255525852
 30
0.0
 10
209.6226263581988
 20
123.9527339479131
 30
0.0
 10
209.7607214206913
 20
123.7053014658795
 30
0.0
 10
209.81976411751
 20
123.5702757372424
 30
0.0
 10
209.9143906482473
 20
123.2906618139256
 30
0.0
 10
209.9503682978702
 20
123.1460789607908
 30
0.0
 10
210.0281344860005
 20
122.6997939773267
 30
0.0
 10
210.0382147406862
 20
122.3965523252482
 30
0.0
 10
210.0065343403074
 20
121.9442560052804
 30
0.0
 10
209.9878669652466
 20
121.7928014462193
 30
0.0
 10
209.9373885031199
 20
121.497008072515
 30
0.0
 10
209.9055501253589
 20
121.3517329384547
 30
0.0
 10
209.7930101089053
 20
120.9229397277438
 30
0.0
 10
209.6934535720693
 20
120.6447331161594
 30
0.0
 10
209.5826310108247
 20
120.379410094772
 30
0.0
  0
LINE
  5
119
330
1F
100
AcDbEntity
  8
0
  6
HIDDEN
 62
     7
370
     0
100
AcDbLine
 10
186.0273608496
 20
85.2406396133
 30
0.0
 11
186.0273608496
 21
133.7406396133
 31
0.0
  0
SPLINE
  5
11A
330
1F
100
AcDbEntity
  8
0
  6
HIDDEN
 62
     7
370
     0
100
AcDbSpline
210
0.0
220
0.0
230
1.0
 70
     8
 71
     3
 72
    12
 73
     8
 74
     0
 42
0.00000001
 43
0.00000001
 12
1.0
 22
0.0
 32
0.0
 13
1.0
 23
0.0
 33
0.0
 40
0.0
 40
0.0
 40
0.0
 40
0.0
 40
0.5000000000000002
 40
0.5000000000000002
 40
0.75
 40
0.75
 40
1.0
 40
1.0
 40
1.0
 40
1.0
 10
185.2108485631093
 20
124.9429075951845
 30
0.0
 10
185.26725474179
 20
124.8950852215225
 30
0.0
 10
185.3374176432621
 20
124.8548143745813
 30
0.0
 10
185.455428356654
 20
124.8467685061015
 30
0.0
 10
185.4956341402506
 20
124.8533311044399
 30
0.0
 10
185.5693548369857
 20
124.8807131988935
 30
0.0
 10
185.6022155587732
 20
124.9004746894244
 30
0.0
 10
185.6323839607032
 20
124.923407400613
 30
0.0
  0
SPLINE
  5
11B
330
1F
100
AcDbEntity
  8
0
  6
HIDDEN
 62
     7
370
     0
100
AcDbSpline
210
0.0
220
0.0
230
1.0
 70
     8
 71
     3
 72
    16
 73
    12
 74
     0
 42
0.00000001
 43
0.00000001
 12
1.0
 22
0.0
 32
0.0
 13
1.0
 23
0.0
 33
0.0
 40
0.0
 40
0.0
 40
0.0
 40
0.0
 40
0.0625000000000055
 40
0.0625000000000055
 40
0.125000000000011
 40
0.125000000000011
 40
0.2500000000000139
 40
0.2500000000000139
 40
0.5000000000000092
 40
0.5000000000000092
 40
1.0
 40
1.0
 40
1.0
 40
1.0
 10
185.6323839606581
 20
124.9234074006611
 30
0.0
 10
185.6439968604974
 20
124.9322350236424
 30
0.0
 10
185.6573480449299
 20
124.9400694055244
 30
0.0
 10
185.686747884549
 20
124.9483795315968
 30
0.0
 10
185.7015886091043
 20
124.9478837123617
 30
0.0
 10
185.7374218170729
 20
124.9364327413924
 30
0.0
 10
185.7515350248945
 20
124.9197522405337
 30
0.0
 10
185.7860263961134
 20
124.8676315547767
 30
0.0
 10
185.7971104672238
 20
124.8278420607517
 30
0.0
 10
185.8232332850199
 20
124.7045054286546
 30
0.0
 10
185.8273608495647
 20
124.6170840181559
 30
0.0
 10
185.8273608495647
 20
124.5283467758377
 30
0.0
  0
LINE
  5
11C
330
1F
100
AcDbEntity
  8
0
  6
HIDDEN
 62
     7
370
     0
100
AcDbLine
 10
185.8273608496
 20
94.4529324509
 30
0.0
 11
185.8273608496
 21
124.5283467758
 31
0.0
  0
SPLINE
  5
11D
330
1F
100
AcDbEntity
  8
0
  6
HIDDEN
 62
     7
370
     0
100
AcDbSpline
210
0.0
220
0.0
230
1.0
 70
     8
 71
     3
 72
    16
 73
    12
 74
     0
 42
0.00000001
 43
0.00000001
 12
1.0
 22
0.0
 32
0.0
 13
1.0
 23
0.0
 33
0.0
 40
0.0
 40
0.0
 40
0.0
 40
0.0
 40
0.4999999999999997
 40
0.4999999999999997
 40
0.7500000000000019
 40
0.7500000000000019
 40
0.8749999999999979
 40
0.8749999999999979
 40
0.9374999999999989
 40
0.9374999999999989
 40
1.0
 40
1.0
 40
1.0
 40
1.0
 10
185.8273608495647
 20
94.45293245085539
 30
0.0
 10
185.8273608495647
 20
94.36380608566665
 30
0.0
 10
185.8232145744868
 20
94.27694471805322
 30
0.0
 10
185.7972489790932
 20
94.15396247155918
 30
0.0
 10
185.7857880737158
 20
94.11319117632792
 30
0.0
 10
185.7514763359414
 20
94.06148685632813
 30
0.0
 10
185.7374516000118
 20
94.04481648973773
 30
0.0
 10
185.701428636978
 20
94.033364269281
 30
0.0
 10
185.6866741278883
 20
94.03291122300597
 30
0.0
 10
185.6573219667415
 20
94.04122654422214
 30
0.0
 10
185.6439820922374
 20
94.04905542930042
 30
0.0
 10
185.632383960689
 20
94.05787182606305
 30
0.0
  0
SPLINE
  5
11E
330
1F
100
AcDbEntity
  8
0
  6
HIDDEN
 62
     7
370
     0
100
AcDbSpline
210
0.0
220
0.0
230
1.0
 70
     8
 71
     3
 72
    12
 73
     8
 74
     0
 42
0.00000001
 43
0.00000001
 12
1.0
 22
0.0
 32
0.0
 13
1.0
 23
0.0
 33
0.0
 40
0.0
 40
0.0
 40
0.0
 40
0.0
 40
0.2500000000000004
 40
0.2500000000000004
 40
0.5000000000000008
 40
0.5000000000000008
 40
1.0
 40
1.0
 40
1.0
 40
1.0
 10
185.6323839606961
 20
94.05787182607196
 30
0.0
 10
185.6021921189789
 20
94.08082235516979
 30
0.0
 10
185.5688331495643
 20
94.10079182919397
 30
0.0
 10
185.4956958649837
 20
94.12789296281947
 30
0.0
 10
185.4554539923298
 20
94.13449370346488
 30
0.0
 10
185.3377482153612
 20
94.12652482895817
 30
0.0
 10
185.2673377375819
 20
94.08626437079032
 30
0.0
 10
185.2108485631135
 20
94.03837163151219
 30
0.0
  0
SPLINE
  5
11F
330
1F
100
AcDbEntity
  8
0
  6
HIDDEN
 62
     7
370
     0
100
AcDbSpline
210
0.0
220
0.0
230
1.0
 70
     8
 71
     3
 72
    12
 73
     8
 74
     0
 42
0.00000001
 43
0.00000001
 12
1.0
 22
0.0
 32
0.0
 13
1.0
 23
0.0
 33
0.0
 40
0.0
 40
0.0
 40
0.0
 40
0.0
 40
0.2500000000000001
 40
0.2500000000000001
 40
0.5000000000000001
 40
0.5000000000000001
 40
1.0
 40
1.0
 40
1.0
 40
1.0
 10
185.2108485631132
 20
94.03837163151238
 30
0.0
 10
185.1226946253755
 20
93.9636328236583
 30
0.0
 10
185.0623412007467
 20
93.8726523231759
 30
0.0
 10
184.9560792426799
 20
93.68373850042329
 30
0.0
 10
184.9138470761178
 20
93.58723404088272
 30
0.0
 10
184.8027763808007
 20
93.29646628671556
 30
0.0
 10
184.7498396043738
 20
93.10079947217181
 30
0.0
 10
184.7060405060051
 20
92.9067329871055
 30
0.0
  0
SPLINE
  5
120
330
1F
100
AcDbEntity
  8
0
  6
HIDDEN
 62
     7
370
     0
100
AcDbSpline
210
0.0
220
0.0
230
1.0
 70
     8
 71
     3
 72
    12
 73
     8
 74
     0
 42
0.00000001
 43
0.00000001
 12
1.0
 22
0.0
 32
0.0
 13
1.0
 23
0.0
 33
0.0
 40
0.0
 40
0.0
 40
0.0
 40
0.0
 40
0.5000000000000006
 40
0.5000000000000006
 40
0.7500000000000002
 40
0.7500000000000002
 40
1.0
 40
1.0
 40
1.0
 40
1.0
 10
184.7060405060051
 20
87.72055865834449
 30
0.0
 10
184.7497870468416
 20
87.69396448770331
 30
0.0
 10
184.8026714020731
 20
87.67420426237757
 30
0.0
 10
184.9142384894093
 20
87.65375327214849
 30
0.0
 10
184.9568220859523
 20
87.64849304749204
 30
0.0
 10
185.0617388130341
 20
87.64061025356939
 30
0.0
 10
185.1232724208789
 20
87.63804612839024
 30
0.0
 10
185.2108485631051
 20
87.63584591087059
 30
0.0
  0
LINE
  5
121
330
1F
100
AcDbEntity
  8
0
  6
HIDDEN
 62
     7
370
     0
100
AcDbLine
 10
185.8273608496
 20
86.9508193345
 30
0.0
 11
185.8273608496
 21
87.4310451251
 31
0.0
  0
LINE
  5
122
330
1F
100
AcDbEntity
  8
0
  6
HIDDEN
 62
     7
370
     0
100
AcDbLine
 10
185.8273608496
 20
131.5502341016
 30
0.0
 11
185.8273608496
 21
132.0304598922
 31
0.0
  0
SPLINE
  5
123
330
1F
100
AcDbEntity
  8
0
  6
HIDDEN
 62
     7
370
     0
100
AcDbSpline
210
0.0
220
0.0
230
1.0
 70
     8
 71
     3
 72
    12
 73
     8
 74
     0
 42
0.00000001
 43
0.00000001
 12
1.0
 22
0.0
 32
0.0
 13
1.0
 23
0.0
 33
0.0
 40
0.0
 40
0.0
 40
0.0
 40
0.0
 40
0.25
 40
0.25
 40
0.5
 40
0.5
 40
1.0
 40
1.0
 40
1.0
 40
1.0
 10
185.210848563113
 20
131.3454333158225
 30
0.0
 10
185.1221639032566
 20
131.3432052484815
 30
0.0
 10
185.0622454875332
 20
131.3407034644511
 30
0.0
 10
184.9565862602125
 20
131.3327720286151
 30
0.0
 10
184.9139450220975
 20
131.3274798737183
 30
0.0
 10
184.802755679995
 20
131.3070749332311
 30
0.0
 10
184.749828997874
 20
131.2873402416443
 30
0.0
 10
184.706040506005
 20
131.2607205683487
 30
0.0
  0
SPLINE
  5
124
330
1F
100
AcDbEntity
  8
0
  6
HIDDEN
 62
     7
370
     0
100
AcDbSpline
210
0.0
220
0.0
230
1.0
 70
     8
 71
     3
 72
    12
 73
     8
 74
     0
 42
0.00000001
 43
0.00000001
 12
1.0
 22
0.0
 32
0.0
 13
1.0
 23
0.0
 33
0.0
 40
0.0
 40
0.0
 40
0.0
 40
0.0
 40
0.4999999999999988
 40
0.4999999999999988
 40
0.7499999999999981
 40
0.7499999999999981
 40
1.0
 40
1.0
 40
1.0
 40
1.0
 10
184.7060405060035
 20
126.0745462395878
 30
0.0
 10
184.7498019823019
 20
125.880646451627
 30
0.0
 10
184.8027082979546
 20
125.6847900876914
 30
0.0
 10
184.9144194956008
 20
125.3926479411943
 30
0.0
 10
184.9569389391867
 20
125.2959300044969
 30
0.0
 10
185.0620622817526
 20
125.1092055680734
 30
0.0
 10
185.1236282454695
 20
125.0168548598041
 30
0.0
 10
185.2108485631101
 20
124.9429075951838
 30
0.0
  0
SPLINE
  5
125
330
1F
100
AcDbEntity
  8
0
  6
HIDDEN
 62
     7
370
     0
100
AcDbSpline
210
0.0
220
0.0
230
1.0
 70
     8
 71
     3
 72
     8
 73
     4
 74
     0
 42
0.00000001
 43
0.00000001
 12
1.0
 22
0.0
 32
0.0
 13
1.0
 23
0.0
 33
0.0
 40
0.0
 40
0.0
 40
0.0
 40
0.0
 40
1.0
 40
1.0
 40
1.0
 40
1.0
 10
209.5826310108306
 20
120.379410094782
 30
0.0
 10
209.4457353837668
 20
120.2488892513854
 30
0.0
 10
209.3061382047496
 20
120.1240121242165
 30
0.0
 10
209.1640616724425
 20
120.00513519271
 30
0.0
  0
SPLINE
  5
126
330
1F
100
AcDbEntity
  8
0
  6
HIDDEN
 62
     7
370
     0
100
AcDbSpline
210
0.0
220
0.0
230
1.0
 70
     8
 71
     3
 72
     8
 73
     4
 74
     0
 42
0.00000001
 43
0.00000001
 12
1.0
 22
0.0
 32
0.0
 13
1.0
 23
0.0
 33
0.0
 40
0.0
 40
0.0
 40
0.0
 40
0.0
 40
1.0
 40
1.0
 40
1.0
 40
1.0
 10
206.7861802982608
 20
123.745389413348
 30
0.0
 10
206.9965308631875
 20
123.937843865035
 30
0.0
 10
207.2096582394868
 20
124.1298833916574
 30
0.0
 10
207.426897095879
 20
124.315572251478
 30
0.0
  0
LWPOLYLINE
  5
127
330
1F
100
AcDbEntity
  8
0
  6
HIDDEN
 62
     7
370
     0
100
AcDbPolyline
 90
       16
 70
   128
 43
0.0
 10
206.7861802983
 20
123.7453894134
 10
206.1736439341
 20
123.625338602
 10
205.6149828526
 20
123.376871014
 10
205.1454523275
 20
123.015666626
 10
204.7946828947
 20
122.5645198659
 10
204.5848104662
 20
122.0519011302
 10
204.5290794044
 20
121.510160111
 10
204.6310067144
 20
120.9734843123
 10
204.884160097
 20
120.4757415886
 10
205.2725638702
 20
120.0483428554
 10
205.771707142
 20
119.7182598491
 10
206.3500906128
 20
119.5063230288
 10
206.9712143935
 20
119.4259070339
 10
207.5958813933
 20
119.4820866551
 10
208.1846709209
 20
119.6713165801
 10
208.7004263946
 20
119.9816551273
  0
SPLINE
  5
128
330
1F
100
AcDbEntity
  8
0
  6
HIDDEN
 62
     7
370
     0
100
AcDbSpline
210
0.0
220
0.0
230
1.0
 70
     8
 71
     3
 72
     8
 73
     4
 74
     0
 42
0.00000001
 43
0.00000001
 12
1.0
 22
0.0
 32
0.0
 13
1.0
 23
0.0
 33
0.0
 40
0.0
 40
0.0
 40
0.0
 40
0.0
 40
1.0
 40
1.0
 40
1.0
 40
1.0
 10
209.1640616724425
 20
120.00513519271
 30
0.0
 10
209.0098665219608
 20
119.9954227595221
 30
0.0
 10
208.8553728200331
 20
119.9873309305814
 30
0.0
 10
208.7004263946245
 20
119.9816551272527
 30
0.0
  0
LWPOLYLINE
  5
129
330
1F
100
AcDbEntity
  8
0
  6
HIDDEN
 62
     7
370
     0
100
AcDbPolyline
 90
        9
 70
   128
 43
0.0
 10
209.1640616724
 20
120.0051351927
 10
209.1915030551
 20
119.8389170702
 10
209.1998094582
 20
119.689201371
 10
209.1888853905
 20
119.557709242
 10
209.1588564363
 20
119.4459523302
 10
209.1100678113
 20
119.3552154043
 10
209.0430803948
 20
119.2865415854
 10
208.9586642807
 20
119.2407203547
 10
208.8577899254
 20
119.2182784778
  0
SPLINE
  5
12A
330
1F
100
AcDbEntity
  8
0
  6
HIDDEN
 62
     7
370
     0
100
AcDbSpline
210
0.0
220
0.0
230
1.0
 70
     8
 71
     3
 72
    36
 73
    32
 74
     0
 42
0.00000001
 43
0.00000001
 12
1.0
 22
0.0
 32
0.0
 13
1.0
 23
0.0
 33
0.0
 40
0.0
 40
0.0
 40
0.0
 40
0.0
 40
0.0624999999999997
 40
0.0624999999999997
 40
0.1249999999999995
 40
0.1249999999999995
 40
0.1874999999999992
 40
0.1874999999999992
 40
0.2499999999999989
 40
0.2499999999999989
 40
0.3124999999999987
 40
0.3124999999999987
 40
0.3749999999999984
 40
0.3749999999999984
 40
0.4374999999999982
 40
0.4374999999999982
 40
0.4999999999999979
 40
0.4999999999999979
 40
0.6249999999999976
 40
0.6249999999999976
 40
0.687499999999998
 40
0.687499999999998
 40
0.7499999999999983
 40
0.7499999999999983
 40
0.8124999999999988
 40
0.8124999999999988
 40
0.8749999999999992
 40
0.8749999999999992
 40
0.9374999999999996
 40
0.9374999999999996
 40
1.0
 40
1.0
 40
1.0
 40
1.0
 10
208.8577899254052
 20
119.2182784777657
 30
0.0
 10
208.9709932169714
 20
119.311515924117
 30
0.0
 10
209.0662059192923
 20
119.398300537523
 30
0.0
 10
209.2298338450541
 20
119.5692846573427
 30
0.0
 10
209.2985391876042
 20
119.6543417643297
 30
0.0
 10
209.4080570098206
 20
119.8247234751328
 30
0.0
 10
209.4495387974711
 20
119.9104615329653
 30
0.0
 10
209.507693791168
 20
120.0896879567676
 30
0.0
 10
209.5242879888079
 20
120.1840508894137
 30
0.0
 10
209.5296512599593
 20
120.3806562621011
 30
0.0
 10
209.5187548372717
 20
120.4828387664052
 30
0.0
 10
209.4665596607146
 20
120.6995636696146
 30
0.0
 10
209.4247844496106
 20
120.8141314970852
 30
0.0
 10
209.3106398767621
 20
121.0483078516004
 30
0.0
 10
209.2364212251072
 20
121.1712534218645
 30
0.0
 10
209.0619487723457
 20
121.4147835936184
 30
0.0
 10
208.9614333435649
 20
121.5363659054525
 30
0.0
 10
208.6259915459391
 20
121.8974702382551
 30
0.0
 10
208.3698087995998
 20
122.1190517975771
 30
0.0
 10
207.9930041225292
 20
122.4110105367823
 30
0.0
 10
207.867320803134
 20
122.5027247824015
 30
0.0
 10
207.6280270772332
 20
122.67253951406
 30
0.0
 10
207.5131073150559
 20
122.7515797711152
 30
0.0
 10
207.2953927818236
 20
122.9035894729329
 30
0.0
 10
207.1924553473369
 20
122.9766057532252
 30
0.0
 10
207.0109180363622
 20
123.1189793416438
 30
0.0
 10
206.9312016531966
 20
123.1888508495682
 30
0.0
 10
206.8061788265901
 20
123.3365963532407
 30
0.0
 10
206.7632871073302
 20
123.4125702589246
 30
0.0
 10
206.7326625653477
 20
123.5754857534147
 30
0.0
 10
206.7462015963966
 20
123.6606890561154
 30
0.0
 10
206.7861802982659
 20
123.7453894133528
 30
0.0
  0
SPLINE
  5
12B
330
1F
100
AcDbEntity
  8
0
  6
HIDDEN
 62
     7
370
     0
100
AcDbSpline
210
0.0
220
0.0
230
1.0
 70
     8
 71
     3
 72
    10
 73
     6
 74
     0
 42
0.00000001
 43
0.00000001
 12
1.0
 22
0.0
 32
0.0
 13
1.0
 23
0.0
 33
0.0
 40
0.0
 40
0.0
 40
0.0
 40
0.0
 40
0.5
 40
0.5
 40
1.0
 40
1.0
 40
1.0
 40
1.0
 10
208.7004263946245
 20
119.9816551272527
 30
0.0
 10
208.6739588256055
 20
119.8109712042683
 30
0.0
 10
208.677840490628
 20
119.6613944119299
 30
0.0
 10
208.7404981909392
 20
119.408660673703
 30
0.0
 10
208.7956375191782
 20
119.306032217821
 30
0.0
 10
208.8577899253994
 20
119.2182784777663
 30
0.0
  0
SPLINE
  5
12C
330
1F
100
AcDbEntity
  8
0
  6
HIDDEN
 62
     7
370
     0
100
AcDbSpline
210
0.0
220
0.0
230
1.0
 70
     8
 71
     3
 72
    62
 73
    58
 74
     0
 42
0.00000001
 43
0.00000001
 12
1.0
 22
0.0
 32
0.0
 13
1.0
 23
0.0
 33
0.0
 40
-0.0312500000000002
 40
-0.0312500000000002
 40
0.0
 40
0.0
 40
0.0312499999999999
 40
0.0312499999999999
 40
0.0624999999999998
 40
0.0624999999999998
 40
0.0937499999999997
 40
0.0937499999999997
 40
0.1249999999999996
 40
0.1249999999999996
 40
0.1874999999999988
 40
0.1874999999999988
 40
0.2187499999999983
 40
0.2187499999999983
 40
0.2499999999999979
 40
0.2499999999999979
 40
0.2812499999999974
 40
0.2812499999999974
 40
0.3124999999999969
 40
0.3124999999999969
 40
0.3749999999999964
 40
0.3749999999999964
 40
0.4062499999999962
 40
0.4062499999999962
 40
0.4374999999999959
 40
0.4374999999999959
 40
0.4687499999999956
 40
0.4687499999999956
 40
0.4999999999999953
 40
0.4999999999999953
 40
0.5624999999999954
 40
0.5624999999999954
 40
0.5937499999999958
 40
0.5937499999999958
 40
0.6249999999999961
 40
0.6249999999999961
 40
0.6562499999999964
 40
0.6562499999999964
 40
0.6874999999999968
 40
0.6874999999999968
 40
0.7187499999999971
 40
0.7187499999999971
 40
0.7499999999999976
 40
0.7499999999999976
 40
0.7812499999999979
 40
0.7812499999999979
 40
0.8124999999999982
 40
0.8124999999999982
 40
0.8749999999999988
 40
0.8749999999999988
 40
0.9062499999999991
 40
0.9062499999999991
 40
0.9374999999999994
 40
0.9374999999999994
 40
0.9687499999999998
 40
0.9687499999999998
 40
1.0
 40
1.0
 40
1.03125
 40
1.03125
 10
206.8613170306286
 20
111.6484802203331
 30
0.0
 10
207.1934046685009
 20
111.6484802203331
 30
0.0
 10
207.3565013990779
 20
111.6650538643886
 30
0.0
 10
207.6770977039864
 20
111.7295424352171
 30
0.0
 10
207.8362999072928
 20
111.7782864606756
 30
0.0
 10
208.138610409007
 20
111.9038640042455
 30
0.0
 10
208.2818619832514
 20
111.9802383325662
 30
0.0
 10
208.5529728243186
 20
112.1588221229957
 30
0.0
 10
208.6806548194474
 20
112.2614240474821
 30
0.0
 10
209.0246549076626
 20
112.5938609698246
 30
0.0
 10
209.2106565362469
 20
112.8571173111212
 30
0.0
 10
209.3981430494285
 20
113.27166163743
 30
0.0
 10
209.4466149941807
 20
113.415418549408
 30
0.0
 10
209.5111769735943
 20
113.704034016876
 30
0.0
 10
209.5272554738143
 20
113.8472434379163
 30
0.0
 10
209.527465202728
 20
114.1312662781548
 30
0.0
 10
209.5110336553171
 20
114.2732322825328
 30
0.0
 10
209.4468649651648
 20
114.5427420708269
 30
0.0
 10
209.3993960023733
 20
114.6716600797291
 30
0.0
 10
209.2102725184191
 20
115.0418530522716
 30
0.0
 10
209.026132626053
 20
115.2570253873821
 30
0.0
 10
208.679397042249
 20
115.5225292012704
 30
0.0
 10
208.5540800860972
 20
115.6001405152207
 30
0.0
 10
208.2840205832973
 20
115.7354043745534
 30
0.0
 10
208.1376472074162
 20
115.7933745453142
 30
0.0
 10
207.8362293043626
 20
115.8852544209586
 30
0.0
 10
207.6803771429236
 20
115.9198520767788
 30
0.0
 10
207.3580340816073
 20
115.9667136937927
 30
0.0
 10
207.1920826145378
 20
115.9785560077248
 30
0.0
 10
206.7011612469865
 20
115.9787091961942
 30
0.0
 10
206.3706782598838
 20
115.931456923384
 30
0.0
 10
205.9187687622852
 20
115.7939840647912
 30
0.0
 10
205.7724715449059
 20
115.7361897599271
 30
0.0
 10
205.5015879823496
 20
115.6007148723782
 30
0.0
 10
205.3762314601917
 20
115.5231060665692
 30
0.0
 10
205.1454538187025
 20
115.3466279309289
 30
0.0
 10
205.0406659386325
 20
115.2477437688882
 30
0.0
 10
204.8600023144504
 20
115.0352860285907
 30
0.0
 10
204.7828138172551
 20
114.9208129067595
 30
0.0
 10
204.6559504129638
 20
114.6732708570662
 30
0.0
 10
204.6082890590315
 20
114.5439638115034
 30
0.0
 10
204.5440586919689
 20
114.2753756503704
 30
0.0
 10
204.5274254780898
 20
114.1342301068714
 30
0.0
 10
204.5272966030784
 20
113.8487417838298
 30
0.0
 10
204.5433775822072
 20
113.7054757960063
 30
0.0
 10
204.6073449946756
 20
113.4181390723622
 30
0.0
 10
204.6559090449193
 20
113.2733707526315
 30
0.0
 10
204.8436398869618
 20
112.8576036729198
 30
0.0
 10
205.0295857244575
 20
112.5944757472678
 30
0.0
 10
205.3733609465619
 20
112.2620316200089
 30
0.0
 10
205.5005362509294
 20
112.1597059642859
 30
0.0
 10
205.772178660204
 20
111.9806024704237
 30
0.0
 10
205.9153378311512
 20
111.9042879225413
 30
0.0
 10
206.216464773689
 20
111.7789976886469
 30
0.0
 10
206.3759810023805
 20
111.7299420873328
 30
0.0
 10
206.6978468946123
 20
111.6650602466019
 30
0.0
 10
206.8613170306286
 20
111.6484802203331
 30
0.0
 10
207.1934046685009
 20
111.6484802203331
 30
0.0
  0
LINE
  5
12D
330
1F
100
AcDbEntity
  8
0
  6
HIDDEN
 62
     7
370
     0
100
AcDbLine
 10
185.8273608496
 20
87.4310451251
 30
0.0
 11
185.8273608496
 21
102.4687522876
 31
0.0
  0
LINE
  5
12E
330
1F
100
AcDbEntity
  8
0
  6
HIDDEN
 62
     7
370
     0
100
AcDbLine
 10
185.8273608496
 20
116.5125269391
 30
0.0
 11
185.8273608496
 21
131.5502341016
 31
0.0
  0
CIRCLE
  5
12F
330
1F
100
AcDbEntity
  8
0
  6
HIDDEN
 62
     7
370
     0
100
AcDbCircle
 10
170.5273608496
 20
109.4906396133
 30
0.0
 40
4.049999999999997
  0
LINE
  5
130
330
1F
100
AcDbEntity
  8
0
  6
HIDDEN
 62
     7
370
     0
100
AcDbLine
 10
149.5575892892
 20
124.8035906563
 30
0.0
 11
149.5575892892
 21
94.1776885704
 31
0.0
  0
LINE
  5
131
330
1F
100
AcDbEntity
  8
0
  6
HIDDEN
 62
     7
370
     0
100
AcDbLine
 10
148.0273608496
 20
93.2942107689
 30
0.0
 11
148.0273608496
 21
125.6681547028
 31
0.0
  0
LINE
  5
132
330
1F
100
AcDbEntity
  8
0
  6
HIDDEN
 62
     7
370
     0
100
AcDbLine
 10
156.0575892892
 20
123.8370497749
 30
0.0
 11
156.0575892892
 21
95.1442294518
 31
0.0
  0
LINE
  5
133
330
1F
100
AcDbEntity
  8
0
  6
HIDDEN
 62
     7
370
     0
100
AcDbLine
 10
161.8575892892
 20
123.4906396133
 30
0.0
 11
161.8575892892
 21
95.4906396133
 31
0.0
  0
LINE
  5
134
330
1F
100
AcDbEntity
  8
0
  6
HIDDEN
 62
     7
370
     0
100
AcDbLine
 10
154.4575892892
 20
123.4906396133
 30
0.0
 11
154.4575892892
 21
95.4906396133
 31
0.0
  0
LINE
  5
135
330
1F
100
AcDbEntity
  8
0
  6
HIDDEN
 62
     7
370
     0
100
AcDbLine
 10
155.4575892892
 20
123.4906396133
 30
0.0
 11
155.4575892892
 21
95.4906396133
 31
0.0
  0
SPLINE
  5
136
330
1F
100
AcDbEntity
  8
0
  6
HIDDEN
 62
     7
370
     0
100
AcDbSpline
210
0.0
220
0.0
230
1.0
 70
     8
 71
     3
 72
    10
 73
     6
 74
     0
 42
0.00000001
 43
0.00000001
 12
1.0
 22
0.0
 32
0.0
 13
1.0
 23
0.0
 33
0.0
 40
0.0
 40
0.0
 40
0.0
 40
0.0
 40
0.5
 40
0.5
 40
1.0
 40
1.0
 40
1.0
 40
1.0
 10
174.5273608495647
 20
110.1250684903691
 30
0.0
 10
174.5605082676412
 20
109.9160778893611
 30
0.0
 10
174.5773671130028
 20
109.7045154233395
 30
0.0
 10
174.5773545826552
 20
109.2765266573718
 30
0.0
 10
174.5604396249148
 20
109.0647685529561
 30
0.0
 10
174.5273608495647
 20
108.856210736324
 30
0.0
  0
LINE
  5
137
330
1F
100
AcDbEntity
  8
0
  6
HIDDEN
 62
     7
370
     0
100
AcDbLine
 10
175.0273608496
 20
122.9906396133
 30
0.0
 11
175.0273608496
 21
95.9906396133
 31
0.0
  0
SPLINE
  5
138
330
1F
100
AcDbEntity
  8
0
  6
HIDDEN
 62
     7
370
     0
100
AcDbSpline
210
0.0
220
0.0
230
1.0
 70
     8
 71
     3
 72
    10
 73
     6
 74
     0
 42
0.00000001
 43
0.00000001
 12
1.0
 22
0.0
 32
0.0
 13
1.0
 23
0.0
 33
0.0
 40
0.0
 40
0.0
 40
0.0
 40
0.0
 40
0.5
 40
0.5
 40
1.0
 40
1.0
 40
1.0
 40
1.0
 10
174.5273608495647
 20
108.856210736324
 30
0.0
 10
174.5605498120385
 20
109.0654632699065
 30
0.0
 10
174.5772505882931
 20
109.2762800308054
 30
0.0
 10
174.5774700287377
 20
109.7008123120088
 30
0.0
 10
174.5605903133443
 20
109.9155606007814
 30
0.0
 10
174.5273608495647
 20
110.1250684903691
 30
0.0
  0
SPLINE
  5
139
330
1F
100
AcDbEntity
  8
0
  6
HIDDEN
 62
     7
370
     0
100
AcDbSpline
210
0.0
220
0.0
230
1.0
 70
     8
 71
     3
 72
    68
 73
    64
 74
     0
 42
0.00000001
 43
0.00000001
 12
1.0
 22
0.0
 32
0.0
 13
1.0
 23
0.0
 33
0.0
 40
0.0
 40
0.0
 40
0.0
 40
0.0
 40
0.0312499999999997
 40
0.0312499999999997
 40
0.0624999999999995
 40
0.0624999999999995
 40
0.0937499999999992
 40
0.0937499999999992
 40
0.1249999999999989
 40
0.1249999999999989
 40
0.1562499999999986
 40
0.1562499999999986
 40
0.1874999999999983
 40
0.1874999999999983
 40
0.218749999999998
 40
0.218749999999998
 40
0.2499999999999977
 40
0.2499999999999977
 40
0.2812499999999976
 40
0.2812499999999976
 40
0.3124999999999976
 40
0.3124999999999976
 40
0.3437499999999976
 40
0.3437499999999976
 40
0.3749999999999975
 40
0.3749999999999975
 40
0.4062499999999974
 40
0.4062499999999974
 40
0.4374999999999974
 40
0.4374999999999974
 40
0.4687499999999974
 40
0.4687499999999974
 40
0.4999999999999973
 40
0.4999999999999973
 40
0.5624999999999972
 40
0.5624999999999972
 40
0.5937499999999973
 40
0.5937499999999973
 40
0.6249999999999973
 40
0.6249999999999973
 40
0.6562499999999974
 40
0.6562499999999974
 40
0.6874999999999976
 40
0.6874999999999976
 40
0.7187499999999976
 40
0.7187499999999976
 40
0.7499999999999977
 40
0.7499999999999977
 40
0.781249999999998
 40
0.781249999999998
 40
0.8124999999999982
 40
0.8124999999999982
 40
0.8437499999999986
 40
0.8437499999999986
 40
0.8749999999999988
 40
0.8749999999999988
 40
0.9062499999999991
 40
0.9062499999999991
 40
0.9374999999999994
 40
0.9374999999999994
 40
0.9687499999999997
 40
0.9687499999999997
 40
1.0
 40
1.0
 40
1.0
 40
1.0
 10
174.5273608495647
 20
108.856210736324
 30
0.0
 10
174.487345897215
 20
108.6039211335084
 30
0.0
 10
174.4244040958037
 20
108.3599222831326
 30
0.0
 10
174.2550174337317
 20
107.8875038940701
 30
0.0
 10
174.1473238711462
 20
107.6570905079102
 30
0.0
 10
173.8920391026083
 20
107.2223859121131
 30
0.0
 10
173.7459998721361
 20
107.0197439454617
 30
0.0
 10
173.4177784355768
 20
106.6427546547039
 30
0.0
 10
173.2335311478018
 20
106.4670967011266
 30
0.0
 10
172.8405709804935
 20
106.1568387321803
 30
0.0
 10
172.6312763835344
 20
106.0208935245304
 30
0.0
 10
172.186390956597
 20
105.7875034291246
 30
0.0
 10
171.949593364098
 20
105.6902568227102
 30
0.0
 10
171.4688582951787
 20
105.5435853648388
 30
0.0
 10
171.2226152019959
 20
105.4926930198964
 30
0.0
 10
170.7178984220165
 20
105.4371656696609
 30
0.0
 10
170.46170372108
 20
105.433340782591
 30
0.0
 10
169.9593249718799
 20
105.4727645652354
 30
0.0
 10
169.7100752726963
 20
105.5157920144466
 30
0.0
 10
169.2185474752175
 20
105.6494969838979
 30
0.0
 10
168.9832518739917
 20
105.7381668298031
 30
0.0
 10
168.5323379793296
 20
105.9571981935805
 30
0.0
 10
168.3147256288662
 20
106.0891997592641
 30
0.0
 10
167.9115184593179
 20
106.388557040267
 30
0.0
 10
167.7259069668835
 20
106.5551759677049
 30
0.0
 10
167.385918896481
 20
106.9222873931323
 30
0.0
 10
167.2308459656581
 20
107.124591138673
 30
0.0
 10
166.9645028889947
 20
107.5486718182671
 30
0.0
 10
166.851518788278
 20
107.7718314237333
 30
0.0
 10
166.6666635313471
 20
108.2411866653274
 30
0.0
 10
166.5955227698437
 20
108.4873971686629
 30
0.0
 10
166.5015623585555
 20
108.9819229950341
 30
0.0
 10
166.4775530285991
 20
109.2328539901261
 30
0.0
 10
166.4769799079265
 20
109.9970993696823
 30
0.0
 10
166.5723790192451
 20
110.4993236717333
 30
0.0
 10
166.8502428114463
 20
111.2068881780056
 30
0.0
 10
166.9634047675268
 20
111.4305944417465
 30
0.0
 10
167.2295359495707
 20
111.854864353067
 30
0.0
 10
167.3843637237704
 20
112.0571163151231
 30
0.0
 10
167.7245448295582
 20
112.4248270564913
 30
0.0
 10
167.9100472865079
 20
112.5914439317406
 30
0.0
 10
168.3123410875673
 20
112.890493310536
 30
0.0
 10
168.5303491358193
 20
113.0229500185645
 30
0.0
 10
168.9809475029696
 20
113.2421564192691
 30
0.0
 10
169.2154965018503
 20
113.3306415492728
 30
0.0
 10
169.7039564954027
 20
113.4641277792114
 30
0.0
 10
169.9562218911165
 20
113.5080694917052
 30
0.0
 10
170.4584025292768
 20
113.5478784881787
 30
0.0
 10
170.7108846466285
 20
113.5445342753652
 30
0.0
 10
171.218749689698
 20
113.4893549553747
 30
0.0
 10
171.4662951628818
 20
113.4383090269052
 30
0.0
 10
171.9472627003525
 20
113.2918986386697
 30
0.0
 10
172.1832225654578
 20
113.1952524338961
 30
0.0
 10
172.6297930149794
 20
112.961347489583
 30
0.0
 10
172.8394378775529
 20
112.8252224757565
 30
0.0
 10
173.2324245843073
 20
112.5151682114275
 30
0.0
 10
173.4168204881223
 20
112.3395109638523
 30
0.0
 10
173.7453709059827
 20
111.9623710411879
 30
0.0
 10
173.8913130025059
 20
111.7599048359181
 30
0.0
 10
174.146198357708
 20
111.3263285377847
 30
0.0
 10
174.2545096705164
 20
111.0950366942032
 30
0.0
 10
174.4243446479333
 20
110.62167701407
 30
0.0
 10
174.4873400090704
 20
110.3773952172492
 30
0.0
 10
174.5273608495647
 20
110.1250684903691
 30
0.0
  0
SPLINE
  5
13A
330
1F
100
AcDbEntity
  8
0
  6
HIDDEN
 62
     7
370
     0
100
AcDbSpline
210
0.0
220
0.0
230
1.0
 70
     8
 71
     3
 72
    68
 73
    64
 74
     0
 42
0.00000001
 43
0.00000001
 12
1.0
 22
0.0
 32
0.0
 13
1.0
 23
0.0
 33
0.0
 40
0.0
 40
0.0
 40
0.0
 40
0.0
 40
0.0312500000000002
 40
0.0312500000000002
 40
0.0625000000000003
 40
0.0625000000000003
 40
0.0937500000000005
 40
0.0937500000000005
 40
0.1250000000000007
 40
0.1250000000000007
 40
0.1562500000000008
 40
0.1562500000000008
 40
0.187500000000001
 40
0.187500000000001
 40
0.2187500000000012
 40
0.2187500000000012
 40
0.2500000000000013
 40
0.2500000000000013
 40
0.2812500000000013
 40
0.2812500000000013
 40
0.3125000000000012
 40
0.3125000000000012
 40
0.3437500000000012
 40
0.3437500000000012
 40
0.3750000000000011
 40
0.3750000000000011
 40
0.4062500000000011
 40
0.4062500000000011
 40
0.437500000000001
 40
0.437500000000001
 40
0.4687500000000009
 40
0.4687500000000009
 40
0.5000000000000009
 40
0.5000000000000009
 40
0.5625000000000008
 40
0.5625000000000008
 40
0.5937500000000007
 40
0.5937500000000007
 40
0.6250000000000007
 40
0.6250000000000007
 40
0.6562500000000006
 40
0.6562500000000006
 40
0.6875000000000006
 40
0.6875000000000006
 40
0.7187500000000004
 40
0.7187500000000004
 40
0.7500000000000004
 40
0.7500000000000004
 40
0.7812500000000003
 40
0.7812500000000003
 40
0.8125000000000003
 40
0.8125000000000003
 40
0.8437500000000002
 40
0.8437500000000002
 40
0.8750000000000002
 40
0.8750000000000002
 40
0.9062500000000001
 40
0.9062500000000001
 40
0.9375000000000001
 40
0.9375000000000001
 40
0.96875
 40
0.96875
 40
1.0
 40
1.0
 40
1.0
 40
1.0
 10
174.5273608495647
 20
110.1250684903691
 30
0.0
 10
174.4873458972151
 20
110.3773580931847
 30
0.0
 10
174.4244040958037
 20
110.6213569435605
 30
0.0
 10
174.2550174337316
 20
111.093775332623
 30
0.0
 10
174.1473238711461
 20
111.324188718783
 30
0.0
 10
173.8920391026083
 20
111.75889331458
 30
0.0
 10
173.7459998721361
 20
111.9615352812314
 30
0.0
 10
173.4177784355768
 20
112.3385245719892
 30
0.0
 10
173.2335311478018
 20
112.5141825255666
 30
0.0
 10
172.8405709804935
 20
112.8244404945128
 30
0.0
 10
172.6312763835344
 20
112.9603857021627
 30
0.0
 10
172.186390956597
 20
113.1937757975685
 30
0.0
 10
171.949593364098
 20
113.291022403983
 30
0.0
 10
171.4688582951787
 20
113.4376938618543
 30
0.0
 10
171.2226152019959
 20
113.4885862067967
 30
0.0
 10
170.7178984220165
 20
113.5441135570322
 30
0.0
 10
170.46170372108
 20
113.5479384441021
 30
0.0
 10
169.9593249718799
 20
113.5085146614577
 30
0.0
 10
169.7100752726963
 20
113.4654872122465
 30
0.0
 10
169.2185474752175
 20
113.3317822427952
 30
0.0
 10
168.9832518739917
 20
113.24311239689
 30
0.0
 10
168.5323379793296
 20
113.0240810331126
 30
0.0
 10
168.3147256288662
 20
112.892079467429
 30
0.0
 10
167.9115184593179
 20
112.5927221864261
 30
0.0
 10
167.7259069668835
 20
112.4261032589883
 30
0.0
 10
167.385918896481
 20
112.0589918335608
 30
0.0
 10
167.2308459656581
 20
111.8566880880201
 30
0.0
 10
166.9645028889947
 20
111.4326074084261
 30
0.0
 10
166.851518788278
 20
111.2094478029599
 30
0.0
 10
166.6666635313471
 20
110.7400925613657
 30
0.0
 10
166.5955227698437
 20
110.4938820580302
 30
0.0
 10
166.5015623585555
 20
109.999356231659
 30
0.0
 10
166.4775530285991
 20
109.748425236567
 30
0.0
 10
166.4769799079265
 20
108.9841798570108
 30
0.0
 10
166.5723790192451
 20
108.4819555549599
 30
0.0
 10
166.8502428114463
 20
107.7743910486875
 30
0.0
 10
166.9634047675268
 20
107.5506847849466
 30
0.0
 10
167.2295359495707
 20
107.1264148736261
 30
0.0
 10
167.3843637237704
 20
106.92416291157
 30
0.0
 10
167.7245448295582
 20
106.5564521702018
 30
0.0
 10
167.910047286508
 20
106.3898352949525
 30
0.0
 10
168.3123410875673
 20
106.0907859161571
 30
0.0
 10
168.5303491358193
 20
105.9583292081287
 30
0.0
 10
168.9809475029696
 20
105.739122807424
 30
0.0
 10
169.2154965018503
 20
105.6506376774203
 30
0.0
 10
169.7039564954027
 20
105.5171514474817
 30
0.0
 10
169.9562218911165
 20
105.4732097349879
 30
0.0
 10
170.4584025292768
 20
105.4334007385145
 30
0.0
 10
170.7108846466285
 20
105.436744951328
 30
0.0
 10
171.218749689698
 20
105.4919242713185
 30
0.0
 10
171.4662951628818
 20
105.5429701997879
 30
0.0
 10
171.9472627003525
 20
105.6893805880235
 30
0.0
 10
172.1832225654578
 20
105.7860267927971
 30
0.0
 10
172.6297930149794
 20
106.0199317371101
 30
0.0
 10
172.8394378775529
 20
106.1560567509366
 30
0.0
 10
173.2324245843073
 20
106.4661110152657
 30
0.0
 10
173.4168204881223
 20
106.6417682628408
 30
0.0
 10
173.7453709059827
 20
107.0189081855052
 30
0.0
 10
173.8913130025059
 20
107.2213743907751
 30
0.0
 10
174.1461983577081
 20
107.6549506889084
 30
0.0
 10
174.2545096705164
 20
107.8862425324899
 30
0.0
 10
174.4243446479333
 20
108.3596022126232
 30
0.0
 10
174.4873400090704
 20
108.603884009444
 30
0.0
 10
174.5273608495647
 20
108.856210736324
 30
0.0
  0
LINE
  5
13B
330
1F
100
AcDbEntity
  8
0
  6
HIDDEN
 62
     7
370
     0
100
AcDbLine
 10
176.2773608496
 20
118.4906396133
 30
0.0
 11
176.2773608496
 21
100.4906396133
 31
0.0
  0
LINE
  5
13C
330
1F
100
AcDbEntity
  8
0
  6
HIDDEN
 62
     7
370
     0
100
AcDbLine
 10
175.0273608496
 20
99.2406396133
 30
0.0
 11
175.0273608496
 21
119.7406396133
 31
0.0
  0
LINE
  5
13D
330
1F
100
AcDbEntity
  8
0
  6
HIDDEN
 62
     7
370
     0
100
AcDbLine
 10
234.3748819937
 20
101.699140589
 30
0.0
 11
241.6195927426
 21
108.8337879029
 31
0.0
  0
LINE
  5
13E
330
1F
100
AcDbEntity
  8
0
  6
HIDDEN
 62
     7
370
     0
100
AcDbLine
 10
213.0273608496
 20
100.4906396133
 30
0.0
 11
213.0273608496
 21
118.4906396133
 31
0.0
  0
LWPOLYLINE
  5
13F
330
1F
100
AcDbEntity
  8
0
  6
HIDDEN
 62
     7
370
     0
100
AcDbPolyline
 90
       31
 70
   128
 43
0.0
 10
226.7432044858
 20
134.5432195638
 10
226.8404229335
 20
133.8262480566
 10
227.0839647887
 20
133.1406116447
 10
227.4631861037
 20
132.5162759293
 10
227.9615130873
 20
131.9805273771
 10
228.5571664592
 20
131.5567807706
 10
229.2241133087
 20
131.2635558699
 10
229.9332048581
 20
131.1136680102
 10
230.6534504041
 20
131.1136680102
 10
231.3533717603
 20
131.2635558699
 10
232.0023790047
 20
131.5567807706
 10
232.5721074065
 20
131.9805273771
 10
233.0376571007
 20
132.5162759293
 10
233.3786813318
 20
133.1406116447
 10
233.5802757043
 20
133.8262480566
 10
233.6336295768
 20
134.5432195638
 10
233.5364111291
 20
135.2601910709
 10
233.2928692739
 20
135.9458274828
 10
232.9136479589
 20
136.5701631982
 10
232.4153209753
 20
137.1059117504
 10
231.8196676034
 20
137.5296583569
 10
231.1527207539
 20
137.8228832576
 10
230.4436292045
 20
137.9727711173
 10
229.7233836585
 20
137.9727711173
 10
229.0234623023
 20
137.8228832576
 10
228.3744550579
 20
137.5296583569
 10
227.8047266561
 20
137.1059117504
 10
227.3391769619
 20
136.5701631982
 10
226.9981527309
 20
135.9458274828
 10
226.7965583584
 20
135.2601910709
 10
226.7432044858
 20
134.5432195638
  0
SPLINE
  5
140
330
1F
100
AcDbEntity
  8
0
  6
HIDDEN
 62
     7
370
     0
100
AcDbSpline
210
0.0
220
0.0
230
1.0
 70
     8
 71
     3
 72
    14
 73
    10
 74
     0
 42
0.00000001
 43
0.00000001
 12
1.0
 22
0.0
 32
0.0
 13
1.0
 23
0.0
 33
0.0
 40
0.0
 40
0.0
 40
0.0
 40
0.0
 40
0.25
 40
0.25
 40
0.5
 40
0.5
 40
0.75
 40
0.75
 40
1.0
 40
1.0
 40
1.0
 40
1.0
 10
226.1178440212477
 20
132.3079718578566
 30
0.0
 10
225.9692566403098
 20
132.6302820381096
 30
0.0
 10
225.8167168401897
 20
132.9092106571976
 30
0.0
 10
225.5065298129684
 20
133.3941858271092
 30
0.0
 10
225.3496605030099
 20
133.5986781454843
 30
0.0
 10
225.0347319988081
 20
133.9335803745235
 30
0.0
 10
224.8764011189838
 20
134.0646111878876
 30
0.0
 10
224.5558426838555
 20
134.2456722271059
 30
0.0
 10
224.3938669210034
 20
134.2966906306933
 30
0.0
 10
224.2259596878748
 20
134.2904068055958
 30
0.0
  0
SPLINE
  5
141
330
1F
100
AcDbEntity
  8
0
  6
HIDDEN
 62
     7
370
     0
100
AcDbSpline
210
0.0
220
0.0
230
1.0
 70
     8
 71
     3
 72
     8
 73
     4
 74
     0
 42
0.00000001
 43
0.00000001
 12
1.0
 22
0.0
 32
0.0
 13
1.0
 23
0.0
 33
0.0
 40
0.0
 40
0.0
 40
0.0
 40
0.0
 40
1.0
 40
1.0
 40
1.0
 40
1.0
 10
226.7070147152016
 20
135.9160093050928
 30
0.0
 10
226.5019172448954
 20
134.7139076340287
 30
0.0
 10
226.3050307846707
 20
133.5112613956447
 30
0.0
 10
226.1178440212477
 20
132.3079718578566
 30
0.0
  0
LINE
  5
142
330
1F
100
AcDbEntity
  8
0
  6
HIDDEN
 62
     7
370
     0
100
AcDbLine
 10
226.7070147152
 20
150.9912439866
 30
0.0
 11
226.7070147152
 21
135.9160093051
 31
0.0
  0
LINE
  5
143
330
1F
100
AcDbEntity
  8
0
  6
HIDDEN
 62
     7
370
     0
100
AcDbLine
 10
243.4641188579
 20
141.516333208
 30
0.0
 11
241.8630826598
 21
139.9396203472
 31
0.0
  0
SPLINE
  5
144
330
1F
100
AcDbEntity
  8
0
  6
HIDDEN
 62
     7
370
     0
100
AcDbSpline
210
0.0
220
0.0
230
1.0
 70
     8
 71
     3
 72
     8
 73
     4
 74
     0
 42
0.00000001
 43
0.00000001
 12
1.0
 22
0.0
 32
0.0
 13
1.0
 23
0.0
 33
0.0
 40
0.000000000000001
 40
0.000000000000001
 40
0.000000000000001
 40
0.000000000000001
 40
0.0010321265112759
 40
0.0010321265112759
 40
0.0010321265112759
 40
0.0010321265112759
 10
226.7070147151995
 20
135.9160093050932
 30
0.0
 10
226.9149881828087
 20
136.1900750851562
 30
0.0
 10
227.1241837954643
 20
136.4632172562593
 30
0.0
 10
227.3345215867966
 20
136.7354727035297
 30
0.0
  0
LINE
  5
145
330
1F
100
AcDbEntity
  8
0
  6
HIDDEN
 62
     7
370
     0
100
AcDbLine
 10
227.3345215868
 20
136.7354727035
 30
0.0
 11
227.3345215868
 21
151.5177847711
 31
0.0
  0
SPLINE
  5
146
330
1F
100
AcDbEntity
  8
0
  6
HIDDEN
 62
     7
370
     0
100
AcDbSpline
210
0.0
220
0.0
230
1.0
 70
     8
 71
     3
 72
     8
 73
     4
 74
     0
 42
0.00000001
 43
0.00000001
 12
1.0
 22
0.0
 32
0.0
 13
1.0
 23
0.0
 33
0.0
 40
0.0
 40
0.0
 40
0.0
 40
0.0
 40
1.0
 40
1.0
 40
1.0
 40
1.0
 10
238.8702325320539
 20
139.2994919188196
 30
0.0
 10
238.6272550988347
 20
138.9290728156621
 30
0.0
 10
238.3842776656154
 20
138.5533093345312
 30
0.0
 10
238.1413002323961
 20
138.1724405437493
 30
0.0
  0
SPLINE
  5
147
330
1F
100
AcDbEntity
  8
0
  6
HIDDEN
 62
     7
370
     0
100
AcDbSpline
210
0.0
220
0.0
230
1.0
 70
     8
 71
     3
 72
    39
 73
    35
 74
     0
 42
0.00000001
 43
0.00000001
 12
1.0
 22
0.0
 32
0.0
 13
1.0
 23
0.0
 33
0.0
 40
0.0
 40
0.0
 40
0.0
 40
0.0
 40
0.0219114361492384
 40
0.0439479250443201
 40
0.0661106714327892
 40
0.0884008533463357
 40
0.1108196224854892
 40
0.1333681046074703
 40
0.1560473999164441
 40
0.1788585834555698
 40
0.2018027055001846
 40
0.2248807919515859
 40
0.2480938447308318
 40
0.2714428421720682
 40
0.2949287394149092
 40
0.3185524687954344
 40
0.3423149402353883
 40
0.3662170416292143
 40
0.3902596392285762
 40
0.4144435780240341
 40
0.4387696821236119
 40
0.4632387551279616
 40
0.4878515805018982
 40
0.5313138404484771
 40
0.5753866617615169
 40
0.620073425081452
 40
0.6653772686557831
 40
0.7113010994195138
 40
0.7578476035168923
 40
0.8050192562882992
 40
0.8528183317462896
 40
0.9012469115647541
 40
0.9503068936047135
 40
1.0
 40
1.0
 40
1.0
 40
1.0
 10
248.432806743461
 20
152.4329792205412
 30
0.0
 10
248.3917534179936
 20
152.3878564427266
 30
0.0
 10
248.3094124678993
 20
152.2973533627971
 30
0.0
 10
248.1792579714837
 20
152.1508426332404
 30
0.0
 10
248.0438127775561
 20
151.9959141280492
 30
0.0
 10
247.9026170699041
 20
151.8317536188474
 30
0.0
 10
247.7557951306751
 20
151.6585056913667
 30
0.0
 10
247.6033133839044
 20
151.4760590208602
 30
0.0
 10
247.4451809166862
 20
151.2843747540272
 30
0.0
 10
247.2813952847851
 20
151.0833978485721
 30
0.0
 10
247.1119571600329
 20
150.8730811265754
 30
0.0
 10
246.9368663714226
 20
150.6533788640369
 30
0.0
 10
246.7561229751946
 20
150.4242486142398
 30
0.0
 10
246.5697269655142
 20
150.1856508055039
 30
0.0
 10
246.3776783530859
 20
149.9375489404667
 30
0.0
 10
246.1799771424412
 20
149.6799096321904
 30
0.0
 10
245.9766233436719
 20
149.4127026855569
 30
0.0
 10
245.7676169482846
 20
149.1359011606625
 30
0.0
 10
245.5529580147793
 20
148.8494814611486
 30
0.0
 10
245.332646347971
 20
148.5534233383105
 30
0.0
 10
245.1066827060245
 20
148.2477102074604
 30
0.0
 10
244.8750642561147
 20
147.9323282874002
 30
0.0
 10
244.5776984503995
 20
147.5249266117213
 30
0.0
 10
244.2084066707228
 20
147.0150225434643
 30
0.0
 10
243.7600320694902
 20
146.3901063638694
 30
0.0
 10
243.2926533831971
 20
145.7328726087333
 30
0.0
 10
242.8062686901024
 20
145.0431320159147
 30
0.0
 10
242.3008773566054
 20
144.3207355568397
 30
0.0
 10
241.7764837772735
 20
143.5655950906321
 30
0.0
 10
241.2330704460968
 20
142.7776327739726
 30
0.0
 10
240.6707039600645
 20
141.9569794676194
 30
0.0
 10
240.0891305557366
 20
141.1032312463346
 30
0.0
 10
239.4893157236321
 20
140.2182890439955
 30
0.0
 10
239.0774737277057
 20
139.6070638532109
 30
0.0
 10
238.870232532054
 20
139.2994919188196
 30
0.0
  0
ELLIPSE
  5
148
330
1F
100
AcDbEntity
  8
0
  6
HIDDEN
 62
     7
370
     0
100
AcDbEllipse
 10
401.711304926
 20
104.5551523711
 30
0.0
 11
324.8651955789974
 21
-10.17813109169387
 31
0.0
210
0.0
220
0.0
230
1.0
 40
0.1506209821
 41
2.066870668286137
 42
2.117189999147112
  0
SPLINE
  5
149
330
1F
100
AcDbEntity
  8
0
  6
HIDDEN
 62
     7
370
     0
100
AcDbSpline
210
0.0
220
0.0
230
1.0
 70
     8
 71
     3
 72
     8
 73
     4
 74
     0
 42
0.00000001
 43
0.00000001
 12
1.0
 22
0.0
 32
0.0
 13
1.0
 23
0.0
 33
0.0
 40
0.0
 40
0.0
 40
0.0
 40
0.0
 40
1.0
 40
1.0
 40
1.0
 40
1.0
 10
227.3345215867966
 20
136.7354727035297
 30
0.0
 10
230.9359095373943
 20
137.2215075730401
 30
0.0
 10
234.5382846569449
 20
137.7001566579933
 30
0.0
 10
238.1414190813949
 20
138.1724561614525
 30
0.0
  0
ELLIPSE
  5
14A
330
1F
100
AcDbEntity
  8
0
  6
HIDDEN
 62
     7
370
     0
100
AcDbEllipse
 10
210.1434840395
 20
111.6664453677
 30
0.0
 11
24.94820542485843
 21
40.50210807924768
 31
0.0
210
0.0
220
0.0
230
1.0
 40
0.0513278518
 41
0.0381453393643741
 42
0.1946940561962696
  0
SPLINE
  5
14B
330
1F
100
AcDbEntity
  8
0
  6
HIDDEN
 62
     7
370
     0
100
AcDbSpline
210
0.0
220
0.0
230
1.0
 70
     8
 71
     3
 72
    36
 73
    32
 74
     0
 42
0.00000001
 43
0.00000001
 12
1.0
 22
0.0
 32
0.0
 13
1.0
 23
0.0
 33
0.0
 40
0.0
 40
0.0
 40
0.0
 40
0.0
 40
0.1249999999999994
 40
0.1249999999999994
 40
0.2499999999999987
 40
0.2499999999999987
 40
0.3124999999999987
 40
0.3124999999999987
 40
0.3749999999999987
 40
0.3749999999999987
 40
0.4374999999999987
 40
0.4374999999999987
 40
0.4687499999999989
 40
0.4687499999999989
 40
0.499999999999999
 40
0.499999999999999
 40
0.5312499999999991
 40
0.5312499999999991
 40
0.5624999999999991
 40
0.5624999999999991
 40
0.6249999999999993
 40
0.6249999999999993
 40
0.6874999999999997
 40
0.6874999999999997
 40
0.7499999999999999
 40
0.7499999999999999
 40
0.8749999999999999
 40
0.8749999999999999
 40
0.9375
 40
0.9375
 40
1.0
 40
1.0
 40
1.0
 40
1.0
 10
228.9137191155029
 20
137.5171117320284
 30
0.0
 10
229.0100893036617
 20
137.6120178404864
 30
0.0
 10
229.1757404152772
 20
137.707946891082
 30
0.0
 10
229.578692239893
 20
137.8825638093032
 30
0.0
 10
229.8176826613424
 20
137.9623506401896
 30
0.0
 10
230.2326689110761
 20
138.0511304977426
 30
0.0
 10
230.380673419681
 20
138.0755041579397
 30
0.0
 10
230.702275345903
 20
138.1061908739015
 30
0.0
 10
230.8741452381843
 20
138.1125556660723
 30
0.0
 10
231.2471575040037
 20
138.0915117907235
 30
0.0
 10
231.4509331714167
 20
138.0649658604639
 30
0.0
 10
231.7879602550659
 20
137.9680813157857
 30
0.0
 10
231.9049400030286
 20
137.9260169898131
 30
0.0
 10
232.1432845324572
 20
137.814230797186
 30
0.0
 10
232.2659578463868
 20
137.7430721972451
 30
0.0
 10
232.4937728788807
 20
137.5755856150506
 30
0.0
 10
232.5964718807868
 20
137.4811190497636
 30
0.0
 10
232.7691167370256
 20
137.289956888835
 30
0.0
 10
232.8394852563126
 20
137.1939989462713
 30
0.0
 10
233.0168720770019
 20
136.9116099687913
 30
0.0
 10
233.0897652998345
 20
136.7339567043439
 30
0.0
 10
233.1932100263442
 20
136.404301682773
 30
0.0
 10
233.2234301980494
 20
136.2502046152123
 30
0.0
 10
233.2598885686014
 20
135.9566994217355
 30
0.0
 10
233.2655857593504
 20
135.8174041912407
 30
0.0
 10
233.2577575789947
 20
135.4265167230998
 30
0.0
 10
233.2205580821494
 20
135.1975718459168
 30
0.0
 10
233.1361953715546
 20
134.9063825528891
 30
0.0
 10
233.1030318797698
 20
134.8182967514737
 30
0.0
 10
233.0267623228348
 20
134.6651898777375
 30
0.0
 10
232.983536660136
 20
134.6000815318011
 30
0.0
 10
232.9350814419988
 20
134.5523624573056
 30
0.0
  0
ELLIPSE
  5
14C
330
1F
100
AcDbEntity
  8
0
  6
HIDDEN
 62
     7
370
     0
100
AcDbEllipse
 10
234.1744217363
 20
140.1295132738
 30
0.0
 11
3.82038260335844
 21
0.8609686982684083
 31
0.0
210
0.0
220
0.0
230
1.0
 40
0.1511474516
 41
6.044622274064022
 42
9.186214927653653
  0
SPLINE
  5
14D
330
1F
100
AcDbEntity
  8
0
  6
HIDDEN
 62
     7
370
     0
100
AcDbSpline
210
0.0
220
0.0
230
1.0
 70
     8
 71
     3
 72
    18
 73
    14
 74
     0
 42
0.00000001
 43
0.00000001
 12
1.0
 22
0.0
 32
0.0
 13
1.0
 23
0.0
 33
0.0
 40
0.0
 40
0.0
 40
0.0
 40
0.0
 40
0.2500000000000048
 40
0.2500000000000048
 40
0.3750000000000044
 40
0.3750000000000044
 40
0.5000000000000041
 40
0.5000000000000041
 40
0.6250000000000037
 40
0.6250000000000037
 40
0.7500000000000034
 40
0.7500000000000034
 40
1.0
 40
1.0
 40
1.0
 40
1.0
 10
224.2259596878748
 20
134.2904068055958
 30
0.0
 10
224.2023133941913
 20
134.2895218575745
 30
0.0
 10
224.1656589860499
 20
134.2810149938665
 30
0.0
 10
224.0721525149474
 20
134.2392951186393
 30
0.0
 10
224.0337891675875
 20
134.2199975395906
 30
0.0
 10
223.9421665210493
 20
134.167195974897
 30
0.0
 10
223.8884097516762
 20
134.1332028574472
 30
0.0
 10
223.7760293151429
 20
134.0554700701634
 30
0.0
 10
223.7188134343569
 20
134.0127846326718
 30
0.0
 10
223.61218100905
 20
133.9289623878038
 30
0.0
 10
223.5618249521414
 20
133.887222999694
 30
0.0
 10
223.4193313735638
 20
133.7648714295518
 30
0.0
 10
223.3369484179423
 20
133.6884684068651
 30
0.0
 10
223.2600338615857
 20
133.6142956350276
 30
0.0
  0
SPLINE
  5
14E
330
1F
100
AcDbEntity
  8
0
  6
HIDDEN
 62
     7
370
     0
100
AcDbSpline
210
0.0
220
0.0
230
1.0
 70
     8
 71
     3
 72
    12
 73
     8
 74
     0
 42
0.00000001
 43
0.00000001
 12
1.0
 22
0.0
 32
0.0
 13
1.0
 23
0.0
 33
0.0
 40
0.0
 40
0.0
 40
0.0
 40
0.0
 40
0.2499999999999998
 40
0.2499999999999998
 40
0.4999999999999996
 40
0.4999999999999996
 40
1.0
 40
1.0
 40
1.0
 40
1.0
 10
223.2600338615858
 20
125.3790730319819
 30
0.0
 10
223.379363617942
 20
125.3244619999766
 30
0.0
 10
223.4943352174765
 20
125.2731972568257
 30
0.0
 10
223.7058719264716
 20
125.1801694349003
 30
0.0
 10
223.8019564714845
 20
125.1385079227911
 30
0.0
 10
224.0539555902249
 20
125.0250801157563
 30
0.0
 10
224.1722373861956
 20
124.9645848059175
 30
0.0
 10
224.2259596878748
 20
124.9105203442248
 30
0.0
  0
SPLINE
  5
14F
330
1F
100
AcDbEntity
  8
0
  6
HIDDEN
 62
     7
370
     0
100
AcDbSpline
210
0.0
220
0.0
230
1.0
 70
     8
 71
     3
 72
     8
 73
     4
 74
     0
 42
0.00000001
 43
0.00000001
 12
1.0
 22
0.0
 32
0.0
 13
1.0
 23
0.0
 33
0.0
 40
0.0
 40
0.0
 40
0.0
 40
0.0
 40
1.0
 40
1.0
 40
1.0
 40
1.0
 10
224.2259596878748
 20
124.9105203442248
 30
0.0
 10
224.4812922431788
 20
124.6535615631667
 30
0.0
 10
224.7550995190465
 20
124.4726606846266
 30
0.0
 10
225.0454024425199
 20
124.3918622675165
 30
0.0
  0
ELLIPSE
  5
150
330
1F
100
AcDbEntity
  8
0
  6
HIDDEN
 62
     7
370
     0
100
AcDbEllipse
 10
224.0619053448
 20
128.509783356
 30
0.0
 11
3.085533036944611
 21
3.038656856958568
 31
0.0
210
0.0
220
0.0
230
1.0
 40
0.9698463104
 41
4.182537941134152
 42
6.588777724785237
  0
LINE
  5
151
330
1F
100
AcDbEntity
  8
0
  6
HIDDEN
 62
     7
370
     0
100
AcDbLine
 10
232.935081442
 20
134.5523624573
 30
0.0
 11
232.2071769818
 21
133.8355165014
 31
0.0
  0
LINE
  5
152
330
1F
100
AcDbEntity
  8
0
  6
HIDDEN
 62
     7
370
     0
100
AcDbLine
 10
228.1858146553
 20
136.8002657761
 30
0.0
 11
228.9137191155
 21
137.517111732
 31
0.0
  0
ELLIPSE
  5
153
330
1F
100
AcDbEntity
  8
0
  6
HIDDEN
 62
     7
370
     0
100
AcDbEllipse
 10
228.6737484807
 20
133.0515622319
 30
0.0
 11
3.169172162258377
 21
-2.762630819038748
 31
0.0
210
0.0
220
0.0
230
1.0
 40
0.8059898683
 41
1.034452344719973
 42
2.309576185958375
  0
LWPOLYLINE
  5
154
330
1F
100
AcDbEntity
  8
0
  6
HIDDEN
 62
     7
370
     0
100
AcDbPolyline
 90
       34
 70
   128
 43
0.0
 10
225.9811251307
 20
134.4712923115
 10
226.0797930959
 20
133.6881458744
 10
226.3243176932
 20
132.9333043901
 10
226.7058611665
 20
132.2340497964
 10
227.2106335405
 20
131.6156549763
 10
227.8203910265
 20
131.1004703298
 10
228.5130954003
 20
130.7071159723
 10
229.2637105208
 20
130.4498087551
 10
230.0451072021
 20
130.3378484316
 10
230.8290437321
 20
130.3752815394
 10
231.587186602
 20
130.5607551487
 10
232.2921345533
 20
130.8875657597
 10
232.9184089303
 20
131.3439015857
 10
233.4433745451
 20
131.9132694608
 10
233.8480577729
 20
132.5750909467
 10
234.1178323072
 20
133.3054460903
 10
234.2429477935
 20
134.077937954
 10
234.2188822322
 20
134.864646669
 10
234.0465054153
 20
135.6371385327
 10
233.7320474902
 20
136.3674936763
 10
233.2868737856
 20
137.0293151622
 10
232.7270740389
 20
137.5986830373
 10
232.0728808718
 20
138.0550188633
 10
231.3479385295
 20
138.3818294743
 10
230.5784483174
 20
138.5673030835
 10
229.7922216164
 20
138.6047361914
 10
229.017674708
 20
138.4927758679
 10
228.2828017357
 20
138.2354686507
 10
227.6141629233
 20
137.8421142932
 10
227.0359246195
 20
137.3269296467
 10
226.5689858634
 20
136.7085348266
 10
226.2302230381
 20
136.0092802329
 10
226.0318799148
 20
135.2544387485
 10
225.9811251307
 20
134.4712923115
  0
LINE
  5
155
330
1F
100
AcDbEntity
  8
0
  6
HIDDEN
 62
     7
370
     0
100
AcDbLine
 10
232.2071769818
 20
133.8355165014
 30
0.0
 11
234.6968976687
 21
137.5410071122
 31
0.0
  0
LINE
  5
156
330
1F
100
AcDbEntity
  8
0
  6
HIDDEN
 62
     7
370
     0
100
AcDbLine
 10
239.1238934554
 20
142.9706696493
 30
0.0
 11
238.5858987335
 21
142.440848276
 31
0.0
  0
LINE
  5
157
330
1F
100
AcDbEntity
  8
0
  6
HIDDEN
 62
     7
370
     0
100
AcDbLine
 10
236.7402923576
 20
139.6704626772
 30
0.0
 11
239.1238934554
 21
142.9706696493
 31
0.0
  0
LINE
  5
158
330
1F
100
AcDbEntity
  8
0
  6
HIDDEN
 62
     7
370
     0
100
AcDbLine
 10
237.9173568768
 20
140.8296449415
 30
0.0
 11
236.7402923576
 21
139.6704626772
 31
0.0
  0
ARC
  5
159
330
1F
100
AcDbEntity
  8
0
  6
HIDDEN
 62
     7
370
     0
100
AcDbCircle
 10
238.2639198695
 20
146.0138548886
 30
0.0
 40
3.162361612659514
100
AcDbArc
 50
285.7797590675
 51
181.4212513275
  0
LINE
  5
15A
330
1F
100
AcDbEntity
  8
0
  6
HIDDEN
 62
     7
370
     0
100
AcDbLine
 10
235.1025311289
 20
145.935418924
 30
0.0
 11
230.3345279476
 21
139.3338959778
 31
0.0
  0
LINE
  5
15B
330
1F
100
AcDbEntity
  8
0
  6
HIDDEN
 62
     7
370
     0
100
AcDbLine
 10
248.7014781514
 20
151.9988581235
 30
0.0
 11
248.432639863
 21
152.435235362
 31
0.0
  0
LINE
  5
15C
330
1F
100
AcDbEntity
  8
0
  6
HIDDEN
 62
     7
370
     0
100
AcDbLine
 10
243.5041969181
 20
143.2447220534
 30
0.0
 11
248.7014751608
 21
151.9988599589
 31
0.0
  0
LINE
  5
15D
330
1F
100
AcDbEntity
  8
0
  6
HIDDEN
 62
     7
370
     0
100
AcDbLine
 10
234.2181460683
 20
151.651084295
 30
0.0
 11
229.3385472492
 21
143.4320359794
 31
0.0
  0
ARC
  5
15E
330
1F
100
AcDbEntity
  8
0
  6
HIDDEN
 62
     7
370
     0
100
AcDbCircle
 10
264.7367273879
 20
130.641937375
 30
0.0
 40
24.69110227998455
100
AcDbArc
 50
149.3083190652
 51
157.879233025
  0
LINE
  5
15F
330
1F
100
AcDbEntity
  8
0
  6
HIDDEN
 62
     7
370
     0
100
AcDbLine
 10
224.0453928735
 20
139.0034571264
 30
0.0
 11
230.3345279476
 21
139.3338959778
 31
0.0
  0
LINE
  5
160
330
1F
100
AcDbEntity
  8
0
  6
HIDDEN
 62
     7
370
     0
100
AcDbLine
 10
236.7402923576
 20
139.6704626772
 30
0.0
 11
241.8630826598
 21
139.9396203472
 31
0.0
  0
ARC
  5
161
330
1F
100
AcDbEntity
  8
0
  6
HIDDEN
 62
     7
370
     0
100
AcDbCircle
 10
223.9485506814
 20
141.1447816632
 30
0.0
 40
2.143513280161277
100
AcDbArc
 50
186.1735290539
 51
272.5894582914
  0
LINE
  5
162
330
1F
100
AcDbEntity
  8
0
  6
HIDDEN
 62
     7
370
     0
100
AcDbLine
 10
230.3345279476
 20
139.3338959778
 30
0.0
 11
230.4314865957
 21
139.4293816062
 31
0.0
  0
LINE
  5
163
330
1F
100
AcDbEntity
  8
0
  6
HIDDEN
 62
     7
370
     0
100
AcDbLine
 10
149.5273608496
 20
130.6490030096
 30
0.0
 11
149.5273608496
 21
124.5946924421
 31
0.0
  0
LINE
  5
164
330
1F
100
AcDbEntity
  8
0
  6
HIDDEN
 62
     7
370
     0
100
AcDbLine
 10
148.0273608496
 20
129.7829776058
 30
0.0
 11
148.0273608496
 21
124.1616797402
 31
0.0
  0
LINE
  5
165
330
1F
100
AcDbEntity
  8
0
  6
HIDDEN
 62
     7
370
     0
100
AcDbLine
 10
183.8273608496
 20
131.5107383979
 30
0.0
 11
183.8273608496
 21
125.0255601362
 31
0.0
  0
SPLINE
  5
166
330
1F
100
AcDbEntity
  8
0
  6
HIDDEN
 62
     7
370
     0
100
AcDbSpline
210
0.0
220
0.0
230
1.0
 70
     8
 71
     3
 72
    16
 73
    12
 74
     0
 42
0.00000001
 43
0.00000001
 12
1.0
 22
0.0
 32
0.0
 13
1.0
 23
0.0
 33
0.0
 40
0.0
 40
0.0
 40
0.0
 40
0.0
 40
0.2499999999999998
 40
0.2499999999999998
 40
0.3749999999999997
 40
0.3749999999999997
 40
0.4999999999999996
 40
0.4999999999999996
 40
0.7499999999999998
 40
0.7499999999999998
 40
1.0
 40
1.0
 40
1.0
 40
1.0
 10
184.706040506005
 20
131.2607205683487
 30
0.0
 10
184.5448080285206
 20
131.162704955294
 30
0.0
 10
184.424328188881
 20
130.9759689236179
 30
0.0
 10
184.3019476715676
 20
130.562929116059
 30
0.0
 10
184.2709700111702
 20
130.4029286168261
 30
0.0
 10
184.2293562735422
 20
130.0361229657349
 30
0.0
 10
184.2191203606094
 20
129.8327858131109
 30
0.0
 10
184.2189319635533
 20
129.1654985464842
 30
0.0
 10
184.2590766661909
 20
128.6446840825962
 30
0.0
 10
184.4232304211305
 20
127.4473250671185
 30
0.0
 10
184.5447820715401
 20
126.7890554128225
 30
0.0
 10
184.706040506005
 20
126.0745462395876
 30
0.0
  0
LINE
  5
167
330
1F
100
AcDbEntity
  8
0
  6
HIDDEN
 62
     7
370
     0
100
AcDbLine
 10
149.5273608496
 20
94.3865867846
 30
0.0
 11
149.5273608496
 21
88.3322762171
 31
0.0
  0
LINE
  5
168
330
1F
100
AcDbEntity
  8
0
  6
HIDDEN
 62
     7
370
     0
100
AcDbLine
 10
148.0273608496
 20
94.8195994865
 30
0.0
 11
148.0273608496
 21
89.1983016208
 31
0.0
  0
LINE
  5
169
330
1F
100
AcDbEntity
  8
0
  6
HIDDEN
 62
     7
370
     0
100
AcDbLine
 10
183.8273608496
 20
93.9557190905
 30
0.0
 11
183.8273608496
 21
87.4705408288
 31
0.0
  0
SPLINE
  5
16A
330
1F
100
AcDbEntity
  8
0
  6
HIDDEN
 62
     7
370
     0
100
AcDbSpline
210
0.0
220
0.0
230
1.0
 70
     8
 71
     3
 72
    16
 73
    12
 74
     0
 42
0.00000001
 43
0.00000001
 12
1.0
 22
0.0
 32
0.0
 13
1.0
 23
0.0
 33
0.0
 40
0.0
 40
0.0
 40
0.0
 40
0.0
 40
0.2499999999999999
 40
0.2499999999999999
 40
0.3750000000000001
 40
0.3750000000000001
 40
0.5000000000000003
 40
0.5000000000000003
 40
0.7500000000000001
 40
0.7500000000000001
 40
1.0
 40
1.0
 40
1.0
 40
1.0
 10
184.7060405060051
 20
92.9067329871055
 30
0.0
 10
184.5448080285206
 20
92.1923388249134
 30
0.0
 10
184.424328188881
 20
91.53899656220473
 30
0.0
 10
184.3019476715677
 20
90.65074132040085
 30
0.0
 10
184.2709700111702
 20
90.370060784049
 30
0.0
 10
184.2293562735423
 20
89.84102679420904
 30
0.0
 10
184.2191203606095
 20
89.59770581563058
 30
0.0
 10
184.2189319635533
 20
88.92968312511736
 30
0.0
 10
184.2590766661909
 20
88.56600221569789
 30
0.0
 10
184.4232304211305
 20
88.00611134314957
 30
0.0
 10
184.5447820715401
 20
87.81859005103243
 30
0.0
 10
184.7060405060051
 20
87.72055865834447
 30
0.0
  0
SPLINE
  5
16B
330
1F
100
AcDbEntity
  8
0
  6
HIDDEN
 62
     7
370
     0
100
AcDbSpline
210
0.0
220
0.0
230
1.0
 70
     8
 71
     3
 72
    10
 73
     6
 74
     0
 42
0.00000001
 43
0.00000001
 12
1.0
 22
0.0
 32
0.0
 13
1.0
 23
0.0
 33
0.0
 40
0.0
 40
0.0
 40
0.0
 40
0.0
 40
0.5
 40
0.5
 40
1.0
 40
1.0
 40
1.0
 40
1.0
 10
238.5858987334589
 20
142.4408482760123
 30
0.0
 10
238.5117196402403
 20
142.3677961298992
 30
0.0
 10
238.3901442504522
 20
142.2827786977175
 30
0.0
 10
238.1044005507788
 20
142.1098567578919
 30
0.0
 10
237.9382887513398
 20
142.0214768726188
 30
0.0
 10
237.7542971919688
 20
141.9376386762897
 30
0.0
  0
ARC
  5
16C
330
1F
100
AcDbEntity
  8
0
  6
HIDDEN
 62
     7
370
     0
100
AcDbCircle
 10
237.3050073175
 20
145.0696476255
 30
0.0
 40
3.16407039258194
100
AcDbArc
 50
278.163445628
 51
189.037564767
  0
SPLINE
  5
16D
330
1F
100
AcDbEntity
  8
0
  6
HIDDEN
 62
     7
370
     0
100
AcDbSpline
210
0.0
220
0.0
230
1.0
 70
     8
 71
     3
 72
    10
 73
     6
 74
     0
 42
0.00000001
 43
0.00000001
 12
1.0
 22
0.0
 32
0.0
 13
1.0
 23
0.0
 33
0.0
 40
0.0
 40
0.0
 40
0.0
 40
0.0
 40
0.5
 40
0.5
 40
1.0
 40
1.0
 40
1.0
 40
1.0
 10
234.180217069974
 20
144.5726291569208
 30
0.0
 10
234.2298830486808
 20
144.7555283536649
 30
0.0
 10
234.2894772782828
 20
144.9224516854188
 30
0.0
 10
234.4197572487888
 20
145.2099809998044
 30
0.0
 10
234.4902701758724
 20
145.3324595905708
 30
0.0
 10
234.5645364069627
 20
145.4055975507357
 30
0.0
  0
LINE
  5
16E
330
1F
100
AcDbEntity
  8
0
  6
HIDDEN
 62
     7
370
     0
100
AcDbLine
 10
234.564536407
 20
145.4055975507
 30
0.0
 11
235.1025311289
 21
145.935418924
 31
0.0
  0
ELLIPSE
  5
16F
330
1F
100
AcDbEntity
  8
0
  6
HIDDEN
 62
     7
370
     0
100
AcDbEllipse
 10
235.1817395731
 20
142.1675481945
 30
0.0
 11
1.651289096608423
 21
2.41722275566886
 31
0.0
210
0.0
220
0.0
230
1.0
 40
0.8531826433
 41
5.157827243241142
 42
7.347151613784245
  0
LWPOLYLINE
  5
170
330
1F
100
AcDbEntity
  8
0
  6
HIDDEN
 62
     7
370
     0
100
AcDbPolyline
 90
       13
 70
   128
 43
0.0
 10
234.6968976687
 20
137.5410071122
 10
234.8704194036
 20
137.9517408779
 10
234.8950913206
 20
138.435505198
 10
234.7692320693
 20
138.9593323336
 10
234.5014187497
 20
139.487524331
 10
234.1099023968
 20
139.9840857785
 10
233.6213642033
 20
140.4151768342
 10
233.0690972395
 20
140.7514193548
 10
232.4907375864
 20
140.9698989684
 10
231.9256994986
 20
141.0557266502
 10
231.4124893881
 20
141.0030533857
 10
230.9860816756
 20
140.8154687708
 10
230.6755353422
 20
140.5057563869
  0
SPLINE
  5
171
330
1F
100
AcDbEntity
  8
0
  6
HIDDEN
 62
     7
370
     0
100
AcDbSpline
210
0.0
220
0.0
230
1.0
 70
     8
 71
     3
 72
    38
 73
    34
 74
     0
 42
0.00000001
 43
0.00000001
 12
1.0
 22
0.0
 32
0.0
 13
1.0
 23
0.0
 33
0.0
 40
0.0
 40
0.0
 40
0.0
 40
0.0
 40
0.0261938907437067
 40
0.0522908435691622
 40
0.0782966330763797
 40
0.1042170947939545
 40
0.1300581220577777
 40
0.1558256627065463
 40
0.1815257156006759
 40
0.2071643269724933
 40
0.232747586616799
 40
0.2582816239321099
 40
0.2837726038240307
 40
0.3092267224832922
 40
0.3346502030520127
 40
0.3600492911926399
 40
0.3854302505748498
 40
0.4107993582963751
 40
0.4361629002542752
 40
0.461527166483615
 40
0.4868984464807768
 40
0.5122830245287726
 40
0.5581471040060194
 40
0.6035830821920004
 40
0.6486301122299147
 40
0.6933283693643324
 40
0.7377189758095074
 40
0.7818439139327994
 40
0.8257459282635371
 40
0.8694684171486214
 40
0.9130553151847788
 40
0.9565509678482405
 40
0.9999999999999999
 40
0.9999999999999999
 40
0.9999999999999999
 40
0.9999999999999999
 10
239.1417669606024
 20
138.9485672092399
 30
0.0
 10
239.2511391047137
 20
139.1103130908243
 30
0.0
 10
239.4694786303116
 20
139.4332062675059
 30
0.0
 10
239.7927296315204
 20
139.9094421929418
 30
0.0
 10
240.1120513435209
 20
140.3785420566527
 30
0.0
 10
240.4271878621072
 20
140.8399991560258
 30
0.0
 10
240.7382073258956
 20
141.2939484371753
 30
0.0
 10
241.0450914852092
 20
141.7403537871298
 30
0.0
 10
241.347845127486
 20
142.1792247104918
 30
0.0
 10
241.6464668942729
 20
142.6105585431451
 30
0.0
 10
241.9409570671935
 20
143.0343558693947
 30
0.0
 10
242.231315490462
 20
143.4506164081643
 30
0.0
 10
242.5175421259303
 20
143.8593401119246
 30
0.0
 10
242.7996369051757
 20
144.2605268737492
 30
0.0
 10
243.0775997697608
 20
144.6541766066482
 30
0.0
 10
243.3514306596245
 20
145.0402892213821
 30
0.0
 10
243.6211295212486
 20
145.4188646389923
 30
0.0
 10
243.8866962884491
 20
145.7899027656647
 30
0.0
 10
244.1481309527996
 20
146.1534035833801
 30
0.0
 10
244.4054333028939
 20
146.5093668150116
 30
0.0
 10
244.6586038986196
 20
146.857793175772
 30
0.0
 10
244.9745426043735
 20
147.290256820364
 30
0.0
 10
245.3468184635259
 20
147.7957946302137
 30
0.0
 10
245.7671332324708
 20
148.3601798741
 30
0.0
 10
246.1686672702804
 20
148.8926736579702
 30
0.0
 10
246.5514173315283
 20
149.3932713113041
 30
0.0
 10
246.9153797911686
 20
149.8619667552122
 30
0.0
 10
247.2605618086896
 20
150.298772488979
 30
0.0
 10
247.5869282395673
 20
150.7036291582948
 30
0.0
 10
247.8946016775197
 20
151.0767453412429
 30
0.0
 10
248.1831195135193
 20
151.4173358368554
 30
0.0
 10
248.4541952033842
 20
151.7283109365108
 30
0.0
 10
248.6190578940789
 20
151.9086878616075
 30
0.0
 10
248.7014450390072
 20
151.9988279643017
 30
0.0
  0
LINE
  5
172
330
1F
100
AcDbEntity
  8
0
  6
HIDDEN
 62
     7
370
     0
100
AcDbLine
 10
230.6755353422
 20
140.5057563869
 30
0.0
 11
228.1858146553
 21
136.8002657761
 31
0.0
  0
LINE
  5
173
330
1F
100
AcDbEntity
  8
0
  6
HIDDEN
 62
     7
370
     0
100
AcDbLine
 10
148.0273608496
 20
124.1616797402
 30
0.0
 11
148.0273608496
 21
112.3926269463
 31
0.0
  0
LINE
  5
174
330
1F
100
AcDbEntity
  8
0
  6
HIDDEN
 62
     7
370
     0
100
AcDbLine
 10
148.0273608496
 20
106.5886522804
 30
0.0
 11
148.0273608496
 21
94.8195994865
 31
0.0
  0
LINE
  5
175
330
1F
100
AcDbEntity
  8
0
  6
HIDDEN
 62
     7
370
     0
100
AcDbLine
 10
149.5273608496
 20
105.5254287165
 30
0.0
 11
149.5273608496
 21
94.3865867846
 31
0.0
  0
LINE
  5
176
330
1F
100
AcDbEntity
  8
0
  6
HIDDEN
 62
     7
370
     0
100
AcDbLine
 10
149.5273608496
 20
124.5946924421
 30
0.0
 11
149.5273608496
 21
113.4558505102
 31
0.0
  0
LINE
  5
177
330
1F
100
AcDbEntity
  8
0
  6
HIDDEN
 62
     7
370
     0
100
AcDbLine
 10
185.8273608496
 20
124.5283467758
 30
0.0
 11
185.8273608496
 21
94.4529324509
 31
0.0
  0
LINE
  5
178
330
1F
100
AcDbEntity
  8
0
  6
HIDDEN
 62
     7
370
     0
100
AcDbLine
 10
183.8273608496
 20
125.0255601362
 30
0.0
 11
183.8273608496
 21
93.9557190905
 31
0.0
  0
SPLINE
  5
179
330
1F
100
AcDbEntity
  8
0
  6
HIDDEN
 62
     7
370
     0
100
AcDbSpline
210
0.0
220
0.0
230
1.0
 70
     8
 71
     3
 72
     8
 73
     4
 74
     0
 42
0.00000001
 43
0.00000001
 12
1.0
 22
0.0
 32
0.0
 13
1.0
 23
0.0
 33
0.0
 40
0.0000249638557296
 40
0.0000249638557296
 40
0.0000249638557296
 40
0.0000249638557296
 40
0.0049776420541172
 40
0.0049776420541172
 40
0.0049776420541172
 40
0.0049776420541172
 10
149.5273608495647
 20
105.52542871651
 30
0.0
 10
151.1773370840743
 20
105.4841494787418
 30
0.0
 10
152.8273384038193
 20
105.4439277975023
 30
0.0
 10
154.4773608495647
 20
105.4046785602473
 30
0.0
  0
SPLINE
  5
17A
330
1F
100
AcDbEntity
  8
0
  6
HIDDEN
 62
     7
370
     0
100
AcDbSpline
210
0.0
220
0.0
230
1.0
 70
     8
 71
     3
 72
     8
 73
     4
 74
     0
 42
0.00000001
 43
0.00000001
 12
1.0
 22
0.0
 32
0.0
 13
1.0
 23
0.0
 33
0.0
 40
0.0000249631533153
 40
0.0000249631533153
 40
0.0000249631533153
 40
0.0000249631533153
 40
0.0049776413517029
 40
0.0049776413517029
 40
0.0049776413517029
 40
0.0049776413517029
 10
154.4773608495647
 20
113.5766006664458
 30
0.0
 10
152.8273384038193
 20
113.5373514291908
 30
0.0
 10
151.1773370840743
 20
113.4971297479513
 30
0.0
 10
149.5273608495647
 20
113.4558505101831
 30
0.0
  0
SPLINE
  5
17B
330
1F
100
AcDbEntity
  8
0
  6
HIDDEN
 62
     7
370
     0
100
AcDbSpline
210
0.0
220
0.0
230
1.0
 70
     8
 71
     3
 72
     8
 73
     4
 74
     0
 42
0.00000001
 43
0.00000001
 12
1.0
 22
0.0
 32
0.0
 13
1.0
 23
0.0
 33
0.0
 40
0.0
 40
0.0
 40
0.0
 40
0.0
 40
1.0
 40
1.0
 40
1.0
 40
1.0
 10
148.0273608495647
 20
106.5886522803642
 30
0.0
 10
148.4941214609419
 20
106.1732890347421
 30
0.0
 10
148.9998690077212
 20
105.8286986054381
 30
0.0
 10
149.5273608495647
 20
105.52542871651
 30
0.0
  0
SPLINE
  5
17C
330
1F
100
AcDbEntity
  8
0
  6
HIDDEN
 62
     7
370
     0
100
AcDbSpline
210
0.0
220
0.0
230
1.0
 70
     8
 71
     3
 72
     8
 73
     4
 74
     0
 42
0.00000001
 43
0.00000001
 12
1.0
 22
0.0
 32
0.0
 13
1.0
 23
0.0
 33
0.0
 40
0.0
 40
0.0
 40
0.0
 40
0.0
 40
1.0
 40
1.0
 40
1.0
 40
1.0
 10
149.5273608495647
 20
113.4558505101831
 30
0.0
 10
148.9998690077212
 20
113.152580621255
 30
0.0
 10
148.4941214609419
 20
112.807990191951
 30
0.0
 10
148.0273608495647
 20
112.3926269463289
 30
0.0
  0
LINE
  5
17D
330
1F
100
AcDbEntity
  8
0
  6
HIDDEN
 62
     7
370
     0
100
AcDbLine
 10
148.0273608496
 20
106.5886522804
 30
0.0
 11
148.0273608496
 21
112.3926269463
 31
0.0
  0
LINE
  5
17E
330
1F
100
AcDbEntity
  8
0
  6
HIDDEN
 62
     7
370
     0
100
AcDbLine
 10
154.4773608496
 20
105.4046785602
 30
0.0
 11
154.4773608496
 21
113.5766006664
 31
0.0
  0
SPLINE
  5
17F
330
1F
100
AcDbEntity
  8
0
  6
HIDDEN
 62
     7
370
     0
100
AcDbSpline
210
0.0
220
0.0
230
1.0
 70
     8
 71
     3
 72
    24
 73
    20
 74
     0
 42
0.00000001
 43
0.00000001
 12
1.0
 22
0.0
 32
0.0
 13
1.0
 23
0.0
 33
0.0
 40
0.0
 40
0.0
 40
0.0
 40
0.0
 40
0.1249999999999999
 40
0.1249999999999999
 40
0.2499999999999998
 40
0.2499999999999998
 40
0.3749999999999998
 40
0.3749999999999998
 40
0.4374999999999998
 40
0.4374999999999998
 40
0.4999999999999998
 40
0.4999999999999998
 40
0.6249999999999998
 40
0.6249999999999998
 40
0.7499999999999998
 40
0.7499999999999998
 40
0.875
 40
0.875
 40
1.0
 40
1.0
 40
1.0
 40
1.0
 10
154.4773608495647
 20
105.4046785602473
 30
0.0
 10
154.7151644818398
 20
105.7036856625774
 30
0.0
 10
154.9452501430511
 20
106.0080235138962
 30
0.0
 10
155.3800035416609
 20
106.6337570512922
 30
0.0
 10
155.5849363339471
 20
106.9549817786197
 30
0.0
 10
155.9500382844458
 20
107.6269075493524
 30
0.0
 10
156.1118386702373
 20
107.9822227812313
 30
0.0
 10
156.283698874817
 20
108.5324540025837
 30
0.0
 10
156.3292840664772
 20
108.7188577875642
 30
0.0
 10
156.391758806052
 20
109.0989922896605
 30
0.0
 10
156.4084299518005
 20
109.2946620819464
 30
0.0
 10
156.408950994977
 20
109.8731424606208
 30
0.0
 10
156.3445086940903
 20
110.2510542995896
 30
0.0
 10
156.1146596007169
 20
110.993022324688
 30
0.0
 10
155.9561389230538
 20
111.341737784849
 30
0.0
 10
155.5919045931536
 20
112.0148301825821
 30
0.0
 10
155.3851683530901
 20
112.3397826698238
 30
0.0
 10
154.9472304073497
 20
112.9707064802856
 30
0.0
 10
154.7159576800701
 20
113.2765962206262
 30
0.0
 10
154.4773608495648
 20
113.5766006664457
 30
0.0
  0
SPLINE
  5
180
330
1F
100
AcDbEntity
  8
0
  6
HIDDEN
 62
     7
370
     0
100
AcDbSpline
210
0.0
220
0.0
230
1.0
 70
     8
 71
     3
 72
    70
 73
    66
 74
     0
 42
0.00000001
 43
0.00000001
 12
1.0
 22
0.0
 32
0.0
 13
1.0
 23
0.0
 33
0.0
 40
-0.0312500000000001
 40
-0.0312500000000001
 40
0.0
 40
0.0
 40
0.03125
 40
0.03125
 40
0.0625
 40
0.0625
 40
0.09375
 40
0.09375
 40
0.125
 40
0.125
 40
0.15625
 40
0.15625
 40
0.1875
 40
0.1875
 40
0.2187499999999999
 40
0.2187499999999999
 40
0.2499999999999999
 40
0.2499999999999999
 40
0.2812499999999999
 40
0.2812499999999999
 40
0.3124999999999999
 40
0.3124999999999999
 40
0.3437499999999999
 40
0.3437499999999999
 40
0.375
 40
0.375
 40
0.4062500000000001
 40
0.4062500000000001
 40
0.4375
 40
0.4375
 40
0.4687500000000001
 40
0.4687500000000001
 40
0.5000000000000001
 40
0.5000000000000001
 40
0.5312500000000001
 40
0.5312500000000001
 40
0.5625000000000001
 40
0.5625000000000001
 40
0.5937500000000001
 40
0.5937500000000001
 40
0.625
 40
0.625
 40
0.65625
 40
0.65625
 40
0.6875
 40
0.6875
 40
0.71875
 40
0.71875
 40
0.75
 40
0.75
 40
0.78125
 40
0.78125
 40
0.8125
 40
0.8125
 40
0.84375
 40
0.84375
 40
0.8749999999999999
 40
0.8749999999999999
 40
0.9062499999999999
 40
0.9062499999999999
 40
0.9374999999999999
 40
0.9374999999999999
 40
0.9687499999999999
 40
0.9687499999999999
 40
1.0
 40
1.0
 40
1.03125
 40
1.03125
 10
167.5844384059436
 20
112.3968493006639
 30
0.0
 10
168.0161168278954
 20
112.7463688952834
 30
0.0
 10
168.2458990004445
 20
112.8979683310368
 30
0.0
 10
168.7318514158607
 20
113.1574617995047
 30
0.0
 10
168.989858833632
 20
113.2655069055038
 30
0.0
 10
169.5139844872432
 20
113.4307438805304
 30
0.0
 10
169.7819514986726
 20
113.4892486823922
 30
0.0
 10
170.3296847064716
 20
113.558088109051
 30
0.0
 10
170.608145513401
 20
113.5676903632469
 30
0.0
 10
171.1553487076182
 20
113.5378642857145
 30
0.0
 10
171.4267364256861
 20
113.4988574656721
 30
0.0
 10
171.9649434218926
 20
113.3708871084639
 30
0.0
 10
172.2266060135512
 20
113.2828575042063
 30
0.0
 10
172.726460451984
 20
113.0625882488941
 30
0.0
 10
172.9665054456486
 20
112.9297845802719
 30
0.0
 10
173.4231752462829
 20
112.6167892560235
 30
0.0
 10
173.6329784181133
 20
112.4413581092876
 30
0.0
 10
174.015900907489
 20
112.0527910801914
 30
0.0
 10
174.1905191700291
 20
111.8373253903247
 30
0.0
 10
174.491822233562
 20
111.3753348001413
 30
0.0
 10
174.6169356738031
 20
111.1323019719071
 30
0.0
 10
174.8153797503637
 20
110.6217249144652
 30
0.0
 10
174.8888395339428
 20
110.3507535083357
 30
0.0
 10
174.9740371845876
 20
109.807643035438
 30
0.0
 10
174.9872044893447
 20
109.5337533798568
 30
0.0
 10
174.9531650526745
 20
108.981183216977
 30
0.0
 10
174.9056173726736
 20
108.7070184244005
 30
0.0
 10
174.754825713532
 20
108.1793922845756
 30
0.0
 10
174.6497909271762
 20
107.9205227946277
 30
0.0
 10
174.3904161537988
 20
107.4343998419008
 30
0.0
 10
174.2370988413899
 20
107.207287941246
 30
0.0
 10
173.8849561380737
 20
106.7836249264175
 30
0.0
 10
173.6866250348652
 20
106.5886701620802
 30
0.0
 10
173.2613573008444
 20
106.24384691843
 30
0.0
 10
173.0314945628874
 20
106.0911630516415
 30
0.0
 10
172.5443169432502
 20
105.8296689002825
 30
0.0
 10
172.2918104515955
 20
105.7231415514725
 30
0.0
 10
171.7697442408602
 20
105.556133961757
 30
0.0
 10
171.4973827538286
 20
105.4954543526161
 30
0.0
 10
170.9510737987175
 20
105.4245626510386
 30
0.0
 10
170.6772640594016
 20
105.4137199120623
 30
0.0
 10
170.128339654298
 20
105.4408463037041
 30
0.0
 10
169.8509840815377
 20
105.4796825646388
 30
0.0
 10
169.3157015353372
 20
105.6049151876295
 30
0.0
 10
169.0556852811699
 20
105.691014275636
 30
0.0
 10
168.5512639794447
 20
105.9113457629088
 30
0.0
 10
168.3063216819889
 20
106.0466705886474
 30
0.0
 10
167.8538023758235
 20
106.3560196079163
 30
0.0
 10
167.6433548557868
 20
106.5310133891621
 30
0.0
 10
167.2558452458667
 20
106.924043299237
 30
0.0
 10
167.0809532865549
 20
107.1408573264367
 30
0.0
 10
166.7823227090547
 20
107.5994346635584
 30
0.0
 10
166.6562710302637
 20
107.8435337485276
 30
0.0
 10
166.4554436564576
 20
108.3622773799099
 30
0.0
 10
166.3842709669604
 20
108.6275050044639
 30
0.0
 10
166.2991760351689
 20
109.1694448091883
 30
0.0
 10
166.2857504353569
 20
109.4497476904507
 30
0.0
 10
166.3196112342466
 20
109.9999268254302
 30
0.0
 10
166.3658888657893
 20
110.2705163998124
 30
0.0
 10
166.5169826768574
 20
110.8027295526117
 30
0.0
 10
166.6215214461634
 20
111.0610130349949
 30
0.0
 10
166.8789851807958
 20
111.5459869750818
 30
0.0
 10
167.0343322181902
 20
111.7772760037509
 30
0.0
 10
167.3876616873007
 20
112.2030044048795
 30
0.0
 10
167.5844384059436
 20
112.3968493006639
 30
0.0
 10
168.0161168278954
 20
112.7463688952834
 30
0.0
  0
CIRCLE
  5
181
330
1F
100
AcDbEntity
  8
0
  6
HIDDEN
 62
     7
370
     0
100
AcDbCircle
 10
170.5273608496
 20
109.4906396133
 30
0.0
 40
4.049999999999997
  0
SPLINE
  5
182
330
1F
100
AcDbEntity
  8
0
  6
HIDDEN
 62
     7
370
     0
100
AcDbSpline
210
0.0
220
0.0
230
1.0
 70
     8
 71
     3
 72
    10
 73
     6
 74
     0
 42
0.00000001
 43
0.00000001
 12
1.0
 22
0.0
 32
0.0
 13
1.0
 23
0.0
 33
0.0
 40
0.0
 40
0.0
 40
0.0
 40
0.0
 40
0.5
 40
0.5
 40
1.0
 40
1.0
 40
1.0
 40
1.0
 10
223.260033861586
 20
85.78362269798188
 30
0.0
 10
223.4410739233484
 20
86.05243951680994
 30
0.0
 10
223.6020107607022
 20
86.29565476276944
 30
0.0
 10
223.8940070469627
 20
86.74403622723409
 30
0.0
 10
224.0258401763127
 20
86.95032024904552
 30
0.0
 10
224.1260592653702
 20
87.11519764463267
 30
0.0
  0
LINE
  5
183
330
1F
100
AcDbEntity
  8
0
  6
HIDDEN
 62
     7
370
     0
100
AcDbLine
 10
224.1260592654
 20
87.1151976446
 30
0.0
 11
224.1260592654
 21
109.4906396133
 31
0.0
  0
ELLIPSE
  5
184
330
1F
100
AcDbEntity
  8
0
  6
HIDDEN
 62
     7
370
     0
100
AcDbEllipse
 10
240.0029593873
 20
109.4906396133
 30
0.0
 11
1.010221271312048
 21
31.99952009247672
 31
0.0
210
0.0
220
0.0
230
1.0
 40
0.1734804855
 41
1.576273031568479
 42
1.822229732070942
  0
ELLIPSE
  5
185
330
1F
100
AcDbEntity
  8
0
  6
HIDDEN
 62
     7
370
     0
100
AcDbEllipse
 10
241.6266332228
 20
109.4906396133
 30
0.0
 11
23.41817040774274
 21
31.9908401602968
 31
0.0
210
0.0
220
0.0
230
1.0
 40
0.0326926316
 41
1.84068036094619
 42
2.369047093415218
  0
SPLINE
  5
186
330
1F
100
AcDbEntity
  8
0
  6
HIDDEN
 62
     7
370
     0
100
AcDbSpline
210
0.0
220
0.0
230
1.0
 70
     8
 71
     3
 72
     8
 73
     4
 74
     0
 42
0.00000001
 43
0.00000001
 12
1.0
 22
0.0
 32
0.0
 13
1.0
 23
0.0
 33
0.0
 40
0.0
 40
0.0
 40
0.0
 40
0.0
 40
1.0
 40
1.0
 40
1.0
 40
1.0
 10
238.2721744631591
 20
137.6035306273059
 30
0.0
 10
238.5528755815739
 20
138.057102757607
 30
0.0
 10
238.8428224290251
 20
138.5055959576693
 30
0.0
 10
239.1417669606024
 20
138.9485672092399
 30
0.0
  0
CIRCLE
  5
187
330
1F
100
AcDbEntity
  8
0
  6
HIDDEN
 62
     7
370
     0
100
AcDbCircle
 10
198.0273608496
 20
109.4906396133
 30
0.0
 40
2.0
  0
LINE
  5
188
330
1F
100
AcDbEntity
  8
0
  6
HIDDEN
 62
     7
370
     0
100
AcDbLine
 10
238.1413001049
 20
138.172440342
 30
0.0
 11
238.2721744764
 21
137.6035305097
 31
0.0
  0
SPLINE
  5
189
330
1F
100
AcDbEntity
  8
0
  6
HIDDEN
 62
     7
370
     0
100
AcDbSpline
210
0.0
220
0.0
230
1.0
 70
     8
 71
     3
 72
     8
 73
     4
 74
     0
 42
0.00000001
 43
0.00000001
 12
1.0
 22
0.0
 32
0.0
 13
1.0
 23
0.0
 33
0.0
 40
0.0
 40
0.0
 40
0.0
 40
0.0
 40
1.0
 40
1.0
 40
1.0
 40
1.0
 10
225.0454024425199
 20
124.3918622675165
 30
0.0
 10
224.6330234543418
 20
120.7460921073579
 30
0.0
 10
224.3458581611554
 20
117.0920175747012
 30
0.0
 10
224.2259596878748
 20
113.4268496390494
 30
0.0
  0
SPLINE
  5
18A
330
1F
100
AcDbEntity
  8
0
  6
HIDDEN
 62
     7
370
     0
100
AcDbSpline
210
0.0
220
0.0
230
1.0
 70
     8
 71
     3
 72
    10
 73
     6
 74
     0
 42
0.00000001
 43
0.00000001
 12
1.0
 22
0.0
 32
0.0
 13
1.0
 23
0.0
 33
0.0
 40
0.0
 40
0.0
 40
0.0
 40
0.0
 40
0.5
 40
0.5
 40
1.0
 40
1.0
 40
1.0
 40
1.0
 10
224.2259596878748
 20
113.4268496390494
 30
0.0
 10
224.2045008193624
 20
112.77087500772
 30
0.0
 10
224.1779731548592
 20
112.114964013537
 30
0.0
 10
224.1385592049362
 20
110.8029707619281
 30
0.0
 10
224.1260592653702
 20
110.1468836540509
 30
0.0
 10
224.1260592653702
 20
109.4906396133466
 30
0.0
  0
ELLIPSE
  5
18B
330
1F
100
AcDbEntity
  8
0
  6
HIDDEN
 62
     7
370
     0
100
AcDbEllipse
 10
261.3358826132
 20
125.44724349
 30
0.0
 11
19.10091880013363
 21
18.81073292402901
 31
0.0
210
0.0
220
0.0
230
1.0
 40
0.9698463104
 41
1.870042383841803
 42
2.348540373423703
  0
LINE
  5
18C
330
1F
100
AcDbEntity
  8
0
  6
HIDDEN
 62
     7
370
     0
100
AcDbLine
 10
234.9347907042
 20
125.44724349
 30
0.0
 11
234.446217702
 21
109.4906396133
 31
0.0
  0
LINE
  5
18D
330
1F
100
AcDbEntity
  8
0
  6
HIDDEN
 62
     7
370
     0
100
AcDbLine
 10
204.0273608496
 20
125.2403599326
 30
0.0
 11
204.0273608496
 21
121.7406396133
 31
0.0
  0
LINE
  5
18E
330
1F
100
AcDbEntity
  8
0
  6
HIDDEN
 62
     7
370
     0
100
AcDbLine
 10
210.0273608496
 20
122.384092741
 30
0.0
 11
210.0273608496
 21
125.2406183578
 31
0.0
  0
LINE
  5
18F
330
1F
100
AcDbEntity
  8
0
  6
HIDDEN
 62
     7
370
     0
100
AcDbLine
 10
186.0273608496
 20
85.2406396133
 30
0.0
 11
186.1202540684
 21
85.3335328322
 31
0.0
  0
LINE
  5
190
330
1F
100
AcDbEntity
  8
0
  6
HIDDEN
 62
     7
370
     0
100
AcDbLine
 10
186.1202540684
 20
133.6477463945
 30
0.0
 11
186.0273608496
 21
133.7406396133
 31
0.0
  0
ARC
  5
191
330
1F
100
AcDbEntity
  8
0
  6
HIDDEN
 62
     7
370
     0
100
AcDbCircle
 10
185.4131472872
 20
86.0406396133
 30
0.0
 40
1.000000000000008
100
AcDbArc
 50
315.0
 51
0.0
  0
ARC
  5
192
330
1F
100
AcDbEntity
  8
0
  6
HIDDEN
 62
     7
370
     0
100
AcDbCircle
 10
185.4131472872
 20
86.0406396133
 30
0.0
 40
1.0
100
AcDbArc
 50
0.0
 51
52.1052014664
  0
ARC
  5
193
330
1F
100
AcDbEntity
  8
0
  6
HIDDEN
 62
     7
370
     0
100
AcDbCircle
 10
185.4131472872
 20
132.9406396133
 30
0.0
 40
1.000000000000008
100
AcDbArc
 50
351.8087250651
 51
45.0
  0
ARC
  5
194
330
1F
100
AcDbEntity
  8
0
  6
HIDDEN
 62
     7
370
     0
100
AcDbCircle
 10
185.4131472872
 20
132.9406396133
 30
0.0
 40
1.000000000000006
100
AcDbArc
 50
307.8947985336
 51
351.8087250651
  0
LINE
  5
195
330
1F
100
AcDbEntity
  8
0
  6
HIDDEN
 62
     7
370
     0
100
AcDbLine
 10
186.4131472872
 20
86.0406396133
 30
0.0
 11
186.4131472872
 21
132.9406396133
 31
0.0
  0
LINE
  5
196
330
1F
100
AcDbEntity
  8
0
  6
HIDDEN
 62
     7
370
     0
100
AcDbLine
 10
186.4131472872
 20
86.0406396133
 30
0.0
 11
186.4131472872
 21
132.9406396133
 31
0.0
  0
LINE
  5
197
330
1F
100
AcDbEntity
  8
0
  6
HIDDEN
 62
     7
370
     0
100
AcDbLine
 10
216.4219638355
 20
131.2119414252
 30
0.0
 11
207.5695185495
 21
124.4523387096
 31
0.0
  0
LINE
  5
198
330
1F
100
AcDbEntity
  8
0
  6
HIDDEN
 62
     7
370
     0
100
AcDbLine
 10
209.0442483262
 20
119.2874290949
 30
0.0
 11
216.3237410403
 21
124.8459473493
 31
0.0
  0
LINE
  5
199
330
1F
100
AcDbEntity
  8
0
  6
HIDDEN
 62
     7
370
     0
100
AcDbLine
 10
204.5273608496
 20
121.5904244586
 30
0.0
 11
204.5273608496
 21
113.9896794483
 31
0.0
  0
LINE
  5
19A
330
1F
100
AcDbEntity
  8
0
  6
HIDDEN
 62
     7
370
     0
100
AcDbLine
 10
209.5273608496
 20
113.9894148204
 30
0.0
 11
209.5273608496
 21
120.3127239942
 31
0.0
  0
LINE
  5
19B
330
1F
100
AcDbEntity
  8
0
  6
HIDDEN
 62
     7
370
     0
100
AcDbLine
 10
148.0273608496
 20
93.2942107689
 30
0.0
 11
149.5575892892
 21
94.1776885704
 31
0.0
  0
LINE
  5
19C
330
1F
100
AcDbEntity
  8
0
  6
HIDDEN
 62
     7
370
     0
100
AcDbLine
 10
149.5575892892
 20
124.8035906563
 30
0.0
 11
148.0273608496
 21
125.6870684578
 31
0.0
  0
ARC
  5
19D
330
1F
100
AcDbEntity
  8
0
  6
HIDDEN
 62
     7
370
     0
100
AcDbCircle
 10
159.0291621645
 20
95.4906396133
 30
0.0
 40
2.0
100
AcDbArc
 50
270.0
 51
315.0
  0
ARC
  5
19E
330
1F
100
AcDbEntity
  8
0
  6
HIDDEN
 62
     7
370
     0
100
AcDbCircle
 10
159.0291621645
 20
123.4906396133
 30
0.0
 40
2.0
100
AcDbArc
 50
45.0
 51
90.0
  0
LINE
  5
19F
330
1F
100
AcDbEntity
  8
0
  6
HIDDEN
 62
     7
370
     0
100
AcDbLine
 10
158.0273608496
 20
93.4906396133
 30
0.0
 11
159.0291621645
 21
93.4906396133
 31
0.0
  0
LINE
  5
1A0
330
1F
100
AcDbEntity
  8
0
  6
HIDDEN
 62
     7
370
     0
100
AcDbLine
 10
159.0291621645
 20
125.4906396133
 30
0.0
 11
158.0273608496
 21
125.4906396133
 31
0.0
  0
ARC
  5
1A1
330
1F
100
AcDbEntity
  8
0
  6
HIDDEN
 62
     7
370
     0
100
AcDbCircle
 10
158.0273608496
 20
95.4906396133
 30
0.0
 40
2.000000000000004
100
AcDbArc
 50
189.9742217944
 51
270.0
  0
ARC
  5
1A2
330
1F
100
AcDbEntity
  8
0
  6
HIDDEN
 62
     7
370
     0
100
AcDbCircle
 10
158.0273608496
 20
123.4906396133
 30
0.0
 40
2.000000000000014
100
AcDbArc
 50
90.0
 51
170.0257782056
  0
LINE
  5
1A3
330
1F
100
AcDbEntity
  8
0
  6
HIDDEN
 62
     7
370
     0
100
AcDbLine
 10
160.4433757268
 20
94.076426051
 30
0.0
 11
161.8575892892
 21
95.4906396133
 31
0.0
  0
LINE
  5
1A4
330
1F
100
AcDbEntity
  8
0
  6
HIDDEN
 62
     7
370
     0
100
AcDbLine
 10
161.8575892892
 20
123.4906396133
 30
0.0
 11
160.4433757268
 21
124.9048531757
 31
0.0
  0
LINE
  5
1A5
330
1F
100
AcDbEntity
  8
0
  6
HIDDEN
 62
     7
370
     0
100
AcDbLine
 10
149.5575892892
 20
94.1776885704
 30
0.0
 11
154.4575892892
 21
95.4906396133
 31
0.0
  0
LINE
  5
1A6
330
1F
100
AcDbEntity
  8
0
  6
HIDDEN
 62
     7
370
     0
100
AcDbLine
 10
154.4575892892
 20
123.4906396133
 30
0.0
 11
149.5575892892
 21
124.8035906563
 31
0.0
  0
LINE
  5
1A7
330
1F
100
AcDbEntity
  8
0
  6
HIDDEN
 62
     7
370
     0
100
AcDbLine
 10
156.0575892892
 20
123.8370497749
 30
0.0
 11
155.4575892892
 21
123.4906396133
 31
0.0
  0
LINE
  5
1A8
330
1F
100
AcDbEntity
  8
0
  6
HIDDEN
 62
     7
370
     0
100
AcDbLine
 10
155.4575892892
 20
95.4906396133
 30
0.0
 11
156.0575892892
 21
95.1442294518
 31
0.0
  0
ARC
  5
1A9
330
1F
100
AcDbEntity
  8
0
  6
HIDDEN
 62
     7
370
     0
100
AcDbCircle
 10
174.5273608496
 20
95.9906396133
 30
0.0
 40
0.5
100
AcDbArc
 50
270.0
 51
0.0
  0
ARC
  5
1AA
330
1F
100
AcDbEntity
  8
0
  6
HIDDEN
 62
     7
370
     0
100
AcDbCircle
 10
174.5273608496
 20
122.9906396133
 30
0.0
 40
0.5
100
AcDbArc
 50
0.0
 51
90.0
  0
LINE
  5
1AB
330
1F
100
AcDbEntity
  8
0
  6
HIDDEN
 62
     7
370
     0
100
AcDbLine
 10
154.4575892892
 20
95.4906396133
 30
0.0
 11
155.4575892892
 21
95.4906396133
 31
0.0
  0
LINE
  5
1AC
330
1F
100
AcDbEntity
  8
0
  6
HIDDEN
 62
     7
370
     0
100
AcDbLine
 10
155.4575892892
 20
123.4906396133
 30
0.0
 11
154.4575892892
 21
123.4906396133
 31
0.0
  0
LINE
  5
1AD
330
1F
100
AcDbEntity
  8
0
  6
HIDDEN
 62
     7
370
     0
100
AcDbLine
 10
161.8575892892
 20
95.4906396133
 30
0.0
 11
174.5273608496
 21
95.4906396133
 31
0.0
  0
LINE
  5
1AE
330
1F
100
AcDbEntity
  8
0
  6
HIDDEN
 62
     7
370
     0
100
AcDbLine
 10
174.5273608496
 20
123.4906396133
 30
0.0
 11
161.8575892892
 21
123.4906396133
 31
0.0
  0
LINE
  5
1AF
330
1F
100
AcDbEntity
  8
0
  6
HIDDEN
 62
     7
370
     0
100
AcDbLine
 10
175.0273608496
 20
99.2406396133
 30
0.0
 11
176.2773608496
 21
100.4906396133
 31
0.0
  0
LINE
  5
1B0
330
1F
100
AcDbEntity
  8
0
  6
HIDDEN
 62
     7
370
     0
100
AcDbLine
 10
176.2773608496
 20
118.4906396133
 30
0.0
 11
175.0273608496
 21
119.7406396133
 31
0.0
  0
LINE
  5
1B1
330
1F
100
AcDbEntity
  8
0
  6
HIDDEN
 62
     7
370
     0
100
AcDbLine
 10
213.0273608496
 20
100.4906396133
 30
0.0
 11
218.4351064208
 21
109.4906396133
 31
0.0
  0
LINE
  5
1B2
330
1F
100
AcDbEntity
  8
0
  6
HIDDEN
 62
     7
370
     0
100
AcDbLine
 10
218.4351064208
 20
109.4906396133
 30
0.0
 11
213.0273608496
 21
118.4906396133
 31
0.0
  0
LINE
  5
1B3
330
1F
100
AcDbEntity
  8
0
  6
HIDDEN
 62
     7
370
     0
100
AcDbLine
 10
213.0273608496
 20
118.4906396133
 30
0.0
 11
176.2773608496
 21
118.4906396133
 31
0.0
  0
LINE
  5
1B4
330
1F
100
AcDbEntity
  8
0
  6
HIDDEN
 62
     7
370
     0
100
AcDbLine
 10
176.2773608496
 20
100.4906396133
 30
0.0
 11
213.0273608496
 21
100.4906396133
 31
0.0
  0
LINE
  5
1B5
330
1F
100
AcDbEntity
  8
0
  6
HIDDEN
 62
     7
370
     0
100
AcDbLine
 10
228.5277626225
 20
137.820086696
 30
0.0
 11
227.7325585802
 21
137.03696359
 31
0.0
  0
LINE
  5
1B6
330
1F
100
AcDbEntity
  8
0
  6
HIDDEN
 62
     7
370
     0
100
AcDbLine
 10
232.6442754824
 20
132.0494755375
 30
0.0
 11
233.4394795246
 21
132.8325986436
 31
0.0
  0
LINE
  5
1B7
330
1F
100
AcDbEntity
  8
0
  6
HIDDEN
 62
     7
370
     0
100
AcDbLine
 10
232.9776535052
 20
134.6003241296
 30
0.0
 11
237.9533064659
 21
140.8692628075
 31
0.0
  0
LINE
  5
1B8
330
1F
100
AcDbEntity
  8
0
  6
HIDDEN
 62
     7
370
     0
100
AcDbLine
 10
227.168350044
 20
137.463785143
 30
0.0
 11
223.2062639873
 21
133.5618920763
 31
0.0
  0
LINE
  5
1B9
330
1F
100
AcDbEntity
  8
0
  6
HIDDEN
 62
     7
370
     0
100
AcDbLine
 10
227.0089354861
 20
125.5172905245
 30
0.0
 11
233.0624103265
 21
131.47879948
 31
0.0
  0
LINE
  5
1BA
330
1F
100
AcDbEntity
  8
0
  6
HIDDEN
 62
     7
370
     0
100
AcDbLine
 10
236.0030821948
 20
148.3048124853
 30
0.0
 11
235.0306523998
 21
147.347156084
 31
0.0
  0
LINE
  5
1BB
330
1F
100
AcDbEntity
  8
0
  6
HIDDEN
 62
     7
370
     0
100
AcDbLine
 10
239.521364996
 20
142.7871670074
 30
0.0
 11
240.493794791
 21
143.7448234088
 31
0.0
  0
LINE
  5
1BC
330
1F
100
AcDbEntity
  8
0
  6
HIDDEN
 62
     7
370
     0
100
AcDbLine
 10
234.5212171377
 20
145.3566944565
 30
0.0
 11
230.7280406095
 21
140.5775848124
 31
0.0
  0
LINE
  5
1BD
330
1F
100
AcDbEntity
  8
VERMASSUNG
  6
CENTERX2
100
AcDbLine
 10
251.0273608496
 20
154.4906396133
 30
0.0
 11
262.7680254464
 21
154.4906396133
 31
0.0
  0
LINE
  5
1BE
330
1F
100
AcDbEntity
  8
VERMASSUNG
  6
CENTERX2
100
AcDbLine
 10
251.0273608496
 20
154.4906396133
 30
0.0
 11
251.0273608496
 21
109.4906396133
 31
0.0
  0
LINE
  5
1BF
330
1F
100
AcDbEntity
  8
VERMASSUNG
  6
CENTERX2
100
AcDbLine
 10
143.5534669369
 20
109.4906396133
 30
0.0
 11
251.0273608496
 21
109.4906396133
 31
0.0
  0
LINE
  5
1C0
330
1F
100
AcDbEntity
  8
VERMASSUNG
100
AcDbLine
 10
251.0273608496
 20
154.4906396133
 30
0.0
 11
251.0273608496
 21
164.2306797758
 31
0.0
  0
DIMENSION
  5
1C1
330
1F
100
AcDbEntity
  8
VERMASSUNG
100
AcDbDimension
  2
_D
 10
236.3452256694
 20
153.7427134826
 30
0.0
 11
243.1544556224
 21
161.9842433859
 31
0.0
 70
   162
  1
<>
 71
     1
 42
-1.0
  3
SLDDIMSTYLE0
100
AcDb2LineAngularDimension
 13
251.0273608496
 23
164.2306797758
 33
0.0
 14
251.0273608496
 24
154.4906396133
 34
0.0
 15
250.6025282414
 25
154.4918096031
 35
0.0
 16
243.1544556224
 26
161.9842433859
 36
0.0
  0
DIMENSION
  5
1CB
330
1F
100
AcDbEntity
  8
VERMASSUNG
100
AcDbDimension
  2
_D_1
 10
186.0273608496
 20
170.8544563158
 30
0.0
 11
218.5273608496
 21
170.8544563158
 31
0.0
 70
   160
  1
<>
 71
     2
 42
-1.0
  3
SLDDIMSTYLE1
100
AcDbAlignedDimension
 13
251.0273608496
 23
154.4906396133
 33
0.0
 14
186.0273608496
 24
140.4906396133
 34
0.0
100
AcDbRotatedDimension
  0
DIMENSION
  5
1D8
330
1F
100
AcDbEntity
  8
VERMASSUNG
100
AcDbDimension
  2
_D_2
 10
148.0273608496
 20
176.8544563158
 30
0.0
 11
199.5273608496
 21
176.8544563158
 31
0.0
 70
   160
  1
<>
 71
     2
 42
-1.0
  3
SLDDIMSTYLE2
100
AcDbAlignedDimension
 13
251.0273608496
 23
154.4906396133
 33
0.0
 14
148.0273608496
 24
129.7829776058
 34
0.0
100
AcDbRotatedDimension
  0
DIMENSION
  5
1E3
330
1F
100
AcDbEntity
  8
VERMASSUNG
100
AcDbDimension
  2
_D_3
 10
260.1567585574
 20
109.4906396133
 30
0.0
 11
260.1567585574
 21
131.9906396133
 31
0.0
 70
   160
  1
<>
 71
     2
 42
-1.0
  3
SLDDIMSTYLE1
100
AcDbAlignedDimension
 13
251.0273608496
 23
154.4906396133
 33
0.0
 14
251.0273608496
 24
109.4906396133
 34
0.0
 50
90.0
100
AcDbRotatedDimension
  0
DIMENSION
  5
1EF
330
1F
100
AcDbEntity
  8
VERMASSUNG
100
AcDbDimension
  2
_D_4
 10
138.0273608496
 20
77.9906396133
 30
0.0
 11
138.0273608496
 21
109.4906396133
 31
0.0
 70
   160
  1
PSC%%c<>
 71
     2
 42
-1.0
  3
SLDDIMSTYLE2
100
AcDbAlignedDimension
 13
186.5273608496
 23
140.9906396133
 33
0.0
 14
186.5273608496
 24
77.9906396133
 34
0.0
 50
90.0
100
AcDbRotatedDimension
  0
LINE
  5
1FB
330
1F
100
AcDbEntity
  8
0
  6
Continuous
 62
     7
370
    15
100
AcDbLine
 10
85.4316900357
 20
153.4062503738
 30
0.0
 11
79.2731658792
 21
154.4921650452
 31
0.0
  0
LINE
  5
1FC
330
1F
100
AcDbEntity
  8
0
  6
Continuous
 62
     7
370
    15
100
AcDbLine
 10
76.9175195007
 20
152.3553087277
 30
0.0
 11
76.4678173571
 21
151.788572864
 31
0.0
  0
SPLINE
  5
1FD
330
1F
100
AcDbEntity
  8
0
  6
Continuous
 62
     7
370
    15
100
AcDbSpline
210
0.0
220
0.0
230
1.0
 70
     8
 71
     3
 72
     9
 73
     5
 74
     0
 42
0.00000001
 43
0.00000001
 12
1.0
 22
0.0
 32
0.0
 13
1.0
 23
0.0
 33
0.0
 40
0.0
 40
0.0
 40
0.0
 40
0.0
 40
0.5717711839062288
 40
1.0
 40
1.0
 40
1.0
 40
1.0
 10
76.99353591192914
 20
152.4471669358773
 30
0.0
 10
76.99544801241551
 20
152.4448510717361
 30
0.0
 10
76.99879218319603
 20
152.440800737955
 30
0.0
 10
76.9498016536416
 20
152.3747498024447
 30
0.0
 10
76.9288224971707
 20
152.3464648885293
 30
0.0
  0
LINE
  5
1FE
330
1F
100
AcDbEntity
  8
0
  6
Continuous
 62
     7
370
    15
100
AcDbLine
 10
74.2171306035
 20
143.1196919543
 30
0.0
 11
74.4641587942
 21
142.3784709436
 31
0.0
  0
SPLINE
  5
1FF
330
1F
100
AcDbEntity
  8
0
  6
Continuous
 62
     7
370
    15
100
AcDbSpline
210
0.0
220
0.0
230
1.0
 70
     8
 71
     3
 72
    11
 73
     7
 74
     0
 42
0.00000001
 43
0.00000001
 12
1.0
 22
0.0
 32
0.0
 13
1.0
 23
0.0
 33
0.0
 40
0.0
 40
0.0
 40
0.0
 40
0.0
 40
0.0455125484443492
 40
0.3839516993078564
 40
0.7107057369896325
 40
1.0
 40
1.0
 40
1.0
 40
1.0
 10
74.47266782287909
 20
142.3818013531728
 30
0.0
 10
74.47689126701843
 20
142.3736320427209
 30
0.0
 10
74.51252096936761
 20
142.3047143323888
 30
0.0
 10
74.50649536727326
 20
142.1971673169453
 30
0.0
 10
74.5005134547106
 20
142.1177148929623
 30
0.0
 10
74.49933756258753
 20
142.1175505533764
 30
0.0
 10
74.49878536750032
 20
142.1174733800454
 30
0.0
  0
LINE
  5
200
330
1F
100
AcDbEntity
  8
0
  6
Continuous
 62
     7
370
    15
100
AcDbLine
 10
73.0188313744
 20
140.8169223828
 30
0.0
 11
73.3223233244
 21
140.7634085877
 31
0.0
  0
LINE
  5
201
330
1F
100
AcDbEntity
  8
0
  6
Continuous
 62
     7
370
    15
100
AcDbLine
 10
88.0206955469
 20
152.8548403544
 30
0.0
 11
85.4594047985
 21
153.3064684732
 31
0.0
  0
LINE
  5
202
330
1F
100
AcDbEntity
  8
0
  6
Continuous
 62
     7
370
    15
100
AcDbLine
 10
88.2787585131
 20
152.4935728771
 30
0.0
 11
88.0481285847
 21
152.8340942127
 31
0.0
  0
LINE
  5
203
330
1F
100
AcDbEntity
  8
0
  6
Continuous
 62
     7
370
    15
100
AcDbLine
 10
84.6424137114
 20
139.9961198581
 30
0.0
 11
84.9548021204
 21
140.2221760613
 31
0.0
  0
LINE
  5
204
330
1F
100
AcDbEntity
  8
0
  6
Continuous
 62
     7
370
    15
100
AcDbLine
 10
76.7746734771
 20
149.3746555311
 30
0.0
 11
76.7094937025
 21
149.383264677
 31
0.0
  0
SPLINE
  5
205
330
1F
100
AcDbEntity
  8
0
  6
Continuous
 62
     7
370
    15
100
AcDbSpline
210
0.0
220
0.0
230
1.0
 70
     8
 71
     3
 72
    39
 73
    35
 74
     0
 42
0.00000001
 43
0.00000001
 12
1.0
 22
0.0
 32
0.0
 13
1.0
 23
0.0
 33
0.0
 40
0.0
 40
0.0
 40
0.0
 40
0.0
 40
0.0219114361492384
 40
0.0439479250443201
 40
0.0661106714327892
 40
0.0884008533463357
 40
0.1108196224854892
 40
0.1333681046074703
 40
0.1560473999164441
 40
0.1788585834555698
 40
0.2018027055001846
 40
0.2248807919515859
 40
0.2480938447308318
 40
0.2714428421720682
 40
0.2949287394149092
 40
0.3185524687954344
 40
0.3423149402353883
 40
0.3662170416292143
 40
0.3902596392285762
 40
0.4144435780240341
 40
0.4387696821236119
 40
0.4632387551279616
 40
0.4878515805018982
 40
0.5313138404484771
 40
0.5753866617615169
 40
0.620073425081452
 40
0.6653772686557831
 40
0.7113010994195138
 40
0.7578476035168923
 40
0.8050192562882992
 40
0.8528183317462896
 40
0.9012469115647541
 40
0.9503068936047135
 40
1.0
 40
1.0
 40
1.0
 40
1.0
 10
88.34209378973736
 20
152.4329792205412
 30
0.0
 10
88.53629778569248
 20
152.3878564427266
 30
0.0
 10
88.92581413685325
 20
152.2973533627971
 30
0.0
 10
89.50791462604582
 20
152.1508426332404
 30
0.0
 10
90.09032994994949
 20
151.9959141280492
 30
0.0
 10
90.67263723315028
 20
151.8317536188474
 30
0.0
 10
91.25475114560712
 20
151.6585056913667
 30
0.0
 10
91.83649216443003
 20
151.4760590208602
 30
0.0
 10
92.4177032929664
 20
151.2843747540272
 30
0.0
 10
92.99821855528756
 20
151.0833978485721
 30
0.0
 10
93.57787155363278
 20
150.8730811265754
 30
0.0
 10
94.1564932002286
 20
150.6533788640369
 30
0.0
 10
94.73391237754507
 20
150.4242486142398
 30
0.0
 10
95.30995580954618
 20
150.1856508055039
 30
0.0
 10
95.8844481486438
 20
149.9375489404667
 30
0.0
 10
96.4572120072002
 20
149.6799096321904
 30
0.0
 10
97.02806800544386
 20
149.4127026855569
 30
0.0
 10
97.59683482186878
 20
149.1359011606625
 30
0.0
 10
98.16332922930397
 20
148.8494814611486
 30
0.0
 10
98.72736619878346
 20
148.5534233383105
 30
0.0
 10
99.28875875700521
 20
148.2477102074604
 30
0.0
 10
99.84731878183597
 20
147.9323282874002
 30
0.0
 10
100.5435822436313
 20
147.5249266117213
 30
0.0
 10
101.3738621901612
 20
147.0150225434643
 30
0.0
 10
102.3317849787322
 20
146.3901063638694
 30
0.0
 10
103.281058374283
 20
145.7328726087333
 30
0.0
 10
104.2203900017095
 20
145.0431320159147
 30
0.0
 10
105.1484616797745
 20
144.3207355568397
 30
0.0
 10
106.0639419494562
 20
143.5655950906321
 30
0.0
 10
106.9654103090687
 20
142.7776327739726
 30
0.0
 10
107.8516624419646
 20
141.9569794676194
 30
0.0
 10
108.720553653687
 20
141.1032312463346
 30
0.0
 10
109.5734099454331
 20
140.2182890439955
 30
0.0
 10
110.1197960857005
 20
139.6070638532109
 30
0.0
 10
110.3947406472472
 20
139.2994919188196
 30
0.0
  0
LINE
  5
206
330
1F
100
AcDbEntity
  8
0
  6
Continuous
 62
     7
370
    15
100
AcDbLine
 10
110.3947406507
 20
139.2994924349
 30
0.0
 11
110.2041622496
 21
138.9485663635
 31
0.0
  0
SPLINE
  5
207
330
1F
100
AcDbEntity
  8
0
  6
Continuous
 62
     7
370
    15
100
AcDbSpline
210
0.0
220
0.0
230
1.0
 70
     8
 71
     3
 72
    38
 73
    34
 74
     0
 42
0.00000001
 43
0.00000001
 12
1.0
 22
0.0
 32
0.0
 13
1.0
 23
0.0
 33
0.0
 40
0.0
 40
0.0
 40
0.0
 40
0.0
 40
0.0261938907437067
 40
0.0522908435691622
 40
0.0782966330763797
 40
0.1042170947939545
 40
0.1300581220577777
 40
0.1558256627065463
 40
0.1815257156006759
 40
0.2071643269724933
 40
0.232747586616799
 40
0.2582816239321099
 40
0.2837726038240307
 40
0.3092267224832922
 40
0.3346502030520127
 40
0.3600492911926399
 40
0.3854302505748498
 40
0.4107993582963751
 40
0.4361629002542752
 40
0.461527166483615
 40
0.4868984464807768
 40
0.5122830245287726
 40
0.5581471040060194
 40
0.6035830821920004
 40
0.6486301122299147
 40
0.6933283693643324
 40
0.7377189758095074
 40
0.7818439139327994
 40
0.8257459282635371
 40
0.8694684171486214
 40
0.9130553151847788
 40
0.9565509678482405
 40
0.9999999999999999
 40
0.9999999999999999
 40
0.9999999999999999
 40
0.9999999999999999
 10
110.2041613749118
 20
138.9485672092399
 30
0.0
 10
110.0614795315553
 20
139.1103130908243
 30
0.0
 10
109.7766438794517
 20
139.4332062675059
 30
0.0
 10
109.3392941698946
 20
139.9094421929418
 30
0.0
 10
108.8955885799806
 20
140.3785420566527
 30
0.0
 10
108.4447497050992
 20
140.8399991560258
 30
0.0
 10
107.9869847876625
 20
141.2939484371753
 30
0.0
 10
107.5222385803706
 20
141.7403537871298
 30
0.0
 10
107.0505258455869
 20
142.1792247104918
 30
0.0
 10
106.5718426790532
 20
142.6105585431451
 30
0.0
 10
106.0861901674402
 20
143.0343558693947
 30
0.0
 10
105.5935680747775
 20
143.4506164081643
 30
0.0
 10
105.0939765278266
 20
143.8593401119246
 30
0.0
 10
104.5874155661227
 20
144.2605268737492
 30
0.0
 10
104.0738852609694
 20
144.6541766066482
 30
0.0
 10
103.5533856871017
 20
145.0402892213821
 30
0.0
 10
103.0259169159564
 20
145.4188646389923
 30
0.0
 10
102.4914790690784
 20
145.7899027656647
 30
0.0
 10
101.9500721093022
 20
146.1534035833801
 30
0.0
 10
101.4016966201126
 20
146.5093668150116
 30
0.0
 10
100.8463508939398
 20
146.857793175772
 30
0.0
 10
100.1329808412545
 20
147.290256820364
 30
0.0
 10
99.25738992173159
 20
147.7957946302137
 30
0.0
 10
98.213466737394
 20
148.3601798741
 30
0.0
 10
97.15836969950415
 20
148.8926736579702
 30
0.0
 10
96.09210415962524
 20
149.3932713113041
 30
0.0
 10
95.01466862624054
 20
149.8619667552122
 30
0.0
 10
93.92607032038191
 20
150.298772488979
 30
0.0
 10
92.82629114318686
 20
150.7036291582948
 30
0.0
 10
91.71540751944006
 20
151.0767453412429
 30
0.0
 10
90.5931472717762
 20
151.4173358368554
 30
0.0
 10
89.46053574573303
 20
151.7283109365108
 30
0.0
 10
88.69587717820329
 20
151.9086878616075
 30
0.0
 10
88.31375290279387
 20
151.9988279643017
 30
0.0
  0
LINE
  5
208
330
1F
100
AcDbEntity
  8
0
  6
Continuous
 62
     7
370
    15
100
AcDbLine
 10
88.3136048785
 20
151.9988580508
 30
0.0
 11
88.3424153424
 21
152.4352348311
 31
0.0
  0
LINE
  5
209
330
1F
100
AcDbEntity
  8
0
  6
Continuous
 62
     7
370
    15
100
AcDbLine
 10
88.2593031845
 20
151.8067262036
 30
0.0
 11
88.3136048785
 21
151.9988617761
 31
0.0
  0
ARC
  5
20A
330
1F
100
AcDbEntity
  8
0
  6
Continuous
 62
     7
370
    15
100
AcDbCircle
 10
191.251069619
 20
113.5175126034
 30
0.0
 40
109.5231265622855
100
AcDbArc
 50
164.2509759211
 51
166.0398587491
  0
ELLIPSE
  5
20B
330
1F
100
AcDbEntity
  8
0
  6
Continuous
 62
     7
370
    15
100
AcDbEllipse
 10
107.3439667557
 20
104.5551523711
 30
0.0
 11
56.41287731831186
 21
-9.947112330615127
 31
0.0
210
0.0
220
0.0
230
1.0
 40
0.8682237535
 41
2.06215169948872
 42
2.062911739103624
  0
ARC
  5
20C
330
1F
100
AcDbEntity
  8
0
  6
Continuous
 62
     7
370
    15
100
AcDbCircle
 10
212.3650337442
 20
107.7738823963
 30
0.0
 40
140.4574215857727
100
AcDbArc
 50
166.0997307909
 51
170.0553219232
  0
LINE
  5
20D
330
1F
100
AcDbEntity
  8
0
  6
Continuous
 62
     7
370
    15
100
AcDbLine
 10
76.0208581912
 20
141.5163344605
 30
0.0
 11
84.9628412968
 21
139.9396202428
 31
0.0
  0
SPLINE
  5
20E
330
1F
100
AcDbEntity
  8
0
  6
Continuous
 62
     7
370
    15
100
AcDbSpline
210
0.0
220
0.0
230
1.0
 70
     8
 71
     3
 72
     8
 73
     4
 74
     0
 42
0.00000001
 43
0.00000001
 12
1.0
 22
0.0
 32
0.0
 13
1.0
 23
0.0
 33
0.0
 40
0.0
 40
0.0
 40
0.0
 40
0.0
 40
1.0
 40
1.0
 40
1.0
 40
1.0
 10
111.3534275311075
 20
137.6035306273059
 30
0.0
 10
110.9696197863572
 20
138.057102757607
 30
0.0
 10
110.5865719102236
 20
138.5055959576693
 30
0.0
 10
110.2041613749117
 20
138.9485672092399
 30
0.0
  0
LINE
  5
20F
330
1F
100
AcDbEntity
  8
0
  6
Continuous
 62
     7
370
    15
100
AcDbLine
 10
111.3534292078
 20
137.6035298122
 30
0.0
 11
111.3534292078
 21
125.447242604
 31
0.0
  0
LWPOLYLINE
  5
210
330
1F
100
AcDbEntity
  8
0
  6
Continuous
 62
     7
370
    15
100
AcDbPolyline
 90
       31
 70
   128
 43
0.0
 10
72.0779436513
 20
135.3263418091
 10
71.9689286186
 20
134.6093705756
 10
71.8916381582
 20
133.9237346215
 10
71.8494492455
 20
133.2993983192
 10
71.8442063651
 20
132.7636512829
 10
71.8761381565
 20
132.3399032367
 10
71.9438499643
 20
132.0466781867
 10
72.044381114
 20
131.8967911316
 10
72.1733390226
 20
131.8967911316
 10
72.3250873259
 20
132.0466781867
 10
72.4929936102
 20
132.3399032367
 10
72.669719985
 20
132.7636512829
 10
72.8475420608
 20
133.2993983192
 10
73.018688882
 20
133.9237346215
 10
73.1756800658
 20
134.6093705756
 10
73.311654093
 20
135.3263418091
 10
73.42066866
 20
136.0433149052
 10
73.4979595861
 20
136.7289508594
 10
73.5401484988
 20
137.3532871617
 10
73.5453913792
 20
137.889034198
 10
73.5134591221
 20
138.3127822442
 10
73.4457477799
 20
138.6060072941
 10
73.3452161646
 20
138.7558943493
 10
73.216258256
 20
138.7558943493
 10
73.0645104184
 20
138.6060072941
 10
72.8966036684
 20
138.3127822442
 10
72.7198777593
 20
137.889034198
 10
72.5420552178
 20
137.3532871617
 10
72.3709088622
 20
136.7289508594
 10
72.2139176785
 20
136.0433149052
 10
72.0779436513
 20
135.3263418091
  0
ARC
  5
211
330
1F
100
AcDbEntity
  8
0
  6
Continuous
 62
     7
370
    15
100
AcDbCircle
 10
79.3534276879
 20
109.4906396133
 30
0.0
 40
31.5
100
AcDbArc
 50
236.293605732
 51
236.7964107229
  0
ARC
  5
212
330
1F
100
AcDbEntity
  8
0
  6
Continuous
 62
     7
370
    15
100
AcDbCircle
 10
79.3534276879
 20
109.4906396133
 30
0.0
 40
31.49999999999998
100
AcDbArc
 50
103.1930714942
 51
103.706394268
  0
SPLINE
  5
213
330
1F
100
AcDbEntity
  8
0
  6
Continuous
 62
     7
370
    15
100
AcDbSpline
210
0.0
220
0.0
230
1.0
 70
     8
 71
     3
 72
    10
 73
     6
 74
     0
 42
0.00000001
 43
0.00000001
 12
1.0
 22
0.0
 32
0.0
 13
1.0
 23
0.0
 33
0.0
 40
0.0
 40
0.0
 40
0.0
 40
0.0
 40
0.5
 40
0.5
 40
1.0
 40
1.0
 40
1.0
 40
1.0
 10
72.16408383526509
 20
140.1592446512061
 30
0.0
 10
72.2073851336829
 20
140.1693953549374
 30
0.0
 10
72.26293450072264
 20
140.264522840157
 30
0.0
 10
72.37750536337947
 20
140.567148247536
 30
0.0
 10
72.43438976394468
 20
140.7679519206485
 30
0.0
 10
72.48377177915617
 20
140.991458286225
 30
0.0
  0
LINE
  5
214
330
1F
100
AcDbEntity
  8
0
  6
Continuous
 62
     7
370
    15
100
AcDbLine
 10
72.4837716541
 20
140.9914596839
 30
0.0
 11
72.4920720666
 21
141.0290255112
 31
0.0
  0
LWPOLYLINE
  5
215
330
1F
100
AcDbEntity
  8
0
  6
Continuous
 62
     7
370
    15
100
AcDbPolyline
 90
        9
 70
   128
 43
0.0
 10
72.4920720666
 20
141.0290255112
 10
72.5003957621
 20
140.9187680943
 10
72.5128219335
 20
140.8227226598
 10
72.5292486011
 20
140.741675244
 10
72.5495411887
 20
140.6762945367
 10
72.5735320582
 20
140.6271169794
 10
72.6010242349
 20
140.594548629
 10
72.6317918732
 20
140.5788558436
 10
72.6655816532
 20
140.5801708711
  0
LINE
  5
216
330
1F
100
AcDbEntity
  8
0
  6
Continuous
 62
     7
370
    15
100
AcDbLine
 10
74.017990554
 20
132.0304880751
 30
0.0
 11
69.9277866504
 21
108.8337879296
 31
0.0
  0
LINE
  5
217
330
1F
100
AcDbEntity
  8
0
  6
Continuous
 62
     7
370
    15
100
AcDbLine
 10
69.9277866504
 20
108.8337879296
 30
0.0
 11
62.1035342908
 21
83.1336445076
 31
0.0
  0
LINE
  5
218
330
1F
100
AcDbEntity
  8
0
  6
Continuous
 62
     7
370
    15
100
AcDbLine
 10
72.6655816532
 20
140.5801708711
 30
0.0
 11
76.0208581912
 21
141.5163344605
 31
0.0
  0
LINE
  5
219
330
1F
100
AcDbEntity
  8
0
  6
Continuous
 62
     7
370
    15
100
AcDbLine
 10
111.3534292078
 20
125.447242604
 30
0.0
 11
111.3534292078
 21
109.4906396133
 31
0.0
  0
ARC
  5
21A
330
1F
100
AcDbEntity
  8
0
  6
Continuous
 62
     7
370
    15
100
AcDbCircle
 10
79.3534276879
 20
109.4906396133
 30
0.0
 40
31.99999999999999
100
AcDbArc
 50
345.9077191182
 51
0.0
  0
LINE
  5
21B
330
1F
100
AcDbEntity
  8
0
  6
Continuous
 62
     7
370
    15
100
AcDbLine
 10
110.390382061
 20
101.6991404717
 30
0.0
 11
69.9277866504
 21
108.8337879296
 31
0.0
  0
ARC
  5
21C
330
1F
100
AcDbEntity
  8
0
  6
Continuous
 62
     7
370
    15
100
AcDbCircle
 10
79.3534276879
 20
109.4906396133
 30
0.0
 40
31.5
100
AcDbArc
 50
236.7964107229
 51
311.1835743998
  0
ARC
  5
21D
330
1F
100
AcDbEntity
  8
0
  6
Continuous
 62
     7
370
    15
100
AcDbCircle
 10
79.3534276879
 20
109.4906396133
 30
0.0
 40
32.00000000000001
100
AcDbArc
 50
315.6345353127
 51
345.9077191182
  0
SPLINE
  5
21E
330
1F
100
AcDbEntity
  8
0
  6
Continuous
 62
     7
370
    15
100
AcDbSpline
210
0.0
220
0.0
230
1.0
 70
     8
 71
     3
 72
    10
 73
     6
 74
     0
 42
0.00000001
 43
0.00000001
 12
1.0
 22
0.0
 32
0.0
 13
1.0
 23
0.0
 33
0.0
 40
0.0
 40
0.0
 40
0.0
 40
0.0
 40
0.5
 40
0.5
 40
1.0
 40
1.0
 40
1.0
 40
1.0
 10
100.0953501874089
 20
85.78362269798188
 30
0.0
 10
100.4025948447569
 20
86.05243951680994
 30
0.0
 10
100.7375964630544
 20
86.29565476276944
 30
0.0
 10
101.4488520623322
 20
86.74403622723409
 30
0.0
 10
101.8259676893139
 20
86.95032024904552
 30
0.0
 10
102.2300444986491
 20
87.11519764463267
 30
0.0
  0
LINE
  5
21F
330
1F
100
AcDbEntity
  8
0
  6
Continuous
 62
     7
370
    15
100
AcDbLine
 10
111.3534292078
 20
138.1724412454
 30
0.0
 11
111.3534292078
 21
137.6035298122
 31
0.0
  0
SPLINE
  5
220
330
1F
100
AcDbEntity
  8
0
  6
Continuous
 62
     7
370
    15
100
AcDbSpline
210
0.0
220
0.0
230
1.0
 70
     8
 71
     3
 72
     8
 73
     4
 74
     0
 42
0.00000001
 43
0.00000001
 12
1.0
 22
0.0
 32
0.0
 13
1.0
 23
0.0
 33
0.0
 40
0.0
 40
0.0
 40
0.0
 40
0.0
 40
1.0
 40
1.0
 40
1.0
 40
1.0
 10
110.3947406472473
 20
139.2994919188196
 30
0.0
 10
110.7209804120016
 20
138.9290728156621
 30
0.0
 10
111.0405995726594
 20
138.5533093345312
 30
0.0
 10
111.3534277228383
 20
138.1724405437493
 30
0.0
  0
LINE
  5
221
330
1F
100
AcDbEntity
  8
0
  6
Continuous
 62
     7
370
    15
100
AcDbLine
 10
74.0515274799
 20
144.9131435616
 30
0.0
 11
73.3328714839
 21
144.7126298112
 31
0.0
  0
ARC
  5
222
330
1F
100
AcDbEntity
  8
0
  6
Continuous
 62
     7
370
    15
100
AcDbCircle
 10
73.3639828958
 20
144.6064897599
 30
0.0
 40
0.1106057432568468
100
AcDbArc
 50
106.3367372493
 51
122.337885694
  0
SPLINE
  5
223
330
1F
100
AcDbEntity
  8
0
  6
Continuous
 62
     7
370
    15
100
AcDbSpline
210
0.0
220
0.0
230
1.0
 70
     8
 71
     3
 72
     8
 73
     4
 74
     0
 42
0.00000001
 43
0.00000001
 12
1.0
 22
0.0
 32
0.0
 13
1.0
 23
0.0
 33
0.0
 40
0.0
 40
0.0
 40
0.0
 40
0.0
 40
1.0
 40
1.0
 40
1.0
 40
1.0
 10
73.30481850575312
 20
144.6999400287031
 30
0.0
 10
73.75049645132147
 20
146.7092343868914
 30
0.0
 10
74.19697391194148
 20
148.7167612497058
 30
0.0
 10
74.64395981164053
 20
150.7231641015109
 30
0.0
  0
SPLINE
  5
224
330
1F
100
AcDbEntity
  8
0
  6
Continuous
 62
     7
370
    15
100
AcDbSpline
210
0.0
220
0.0
230
1.0
 70
     8
 71
     3
 72
     8
 73
     4
 74
     0
 42
0.00000001
 43
0.00000001
 12
1.0
 22
0.0
 32
0.0
 13
1.0
 23
0.0
 33
0.0
 40
0.0
 40
0.0
 40
0.0
 40
0.0
 40
0.0008623686098218
 40
0.0008623686098218
 40
0.0008623686098218
 40
0.0008623686098218
 10
74.85383143207525
 20
151.2762180303828
 30
0.0
 10
74.78387714598814
 20
151.0920327017066
 30
0.0
 10
74.71391993514891
 20
150.9076834657791
 30
0.0
 10
74.64395981164053
 20
150.7231641015109
 30
0.0
  0
ELLIPSE
  5
225
330
1F
100
AcDbEntity
  8
0
  6
Continuous
 62
     7
370
    15
100
AcDbEllipse
 10
110.3551252589
 20
104.0242038838
 30
0.0
 11
62.48164629808523
 21
-11.01720004143568
 31
0.0
210
0.0
220
0.0
230
1.0
 40
0.8682237535
 41
2.296791037230591
 42
2.319079682663683
  0
SPLINE
  5
226
330
1F
100
AcDbEntity
  8
0
  6
Continuous
 62
     7
370
    15
100
AcDbSpline
210
0.0
220
0.0
230
1.0
 70
     8
 71
     3
 72
     8
 73
     4
 74
     0
 42
0.00000001
 43
0.00000001
 12
1.0
 22
0.0
 32
0.0
 13
1.0
 23
0.0
 33
0.0
 40
0.0
 40
0.0
 40
0.0
 40
0.0
 40
1.0
 40
1.0
 40
1.0
 40
1.0
 10
72.57310160405541
 20
141.0108066110448
 30
0.0
 10
72.54609127522515
 20
141.0168811470356
 30
0.0
 10
72.51908147647808
 20
141.0229541788819
 30
0.0
 10
72.49207219259564
 20
141.0290256583724
 30
0.0
  0
LINE
  5
227
330
1F
100
AcDbEntity
  8
0
  6
Continuous
 62
     7
370
    15
100
AcDbLine
 10
72.992343629
 20
140.946264462
 30
0.0
 11
72.5731017872
 21
141.0108051164
 31
0.0
  0
LINE
  5
228
330
1F
100
AcDbEntity
  8
0
  6
Continuous
 62
     7
370
    15
100
AcDbLine
 10
73.304818651
 20
144.6999414725
 30
0.0
 11
73.9606797567
 21
144.5916994376
 31
0.0
  0
SPLINE
  5
229
330
1F
100
AcDbEntity
  8
0
  6
Continuous
 62
     7
370
    15
100
AcDbSpline
210
0.0
220
0.0
230
1.0
 70
     8
 71
     3
 72
    16
 73
    12
 74
     0
 42
0.00000001
 43
0.00000001
 12
1.0
 22
0.0
 32
0.0
 13
1.0
 23
0.0
 33
0.0
 40
0.0
 40
0.0
 40
0.0
 40
0.0
 40
0.25
 40
0.25
 40
0.5
 40
0.5
 40
0.75
 40
0.75
 40
0.875
 40
0.875
 40
1.0
 40
1.0
 40
1.0
 40
1.0
 10
65.17245472753353
 20
127.0835335191109
 30
0.0
 10
65.33224721790687
 20
127.3226638065845
 30
0.0
 10
65.4719836756488
 20
127.5710239517151
 30
0.0
 10
65.70840098268812
 20
128.088184471895
 30
0.0
 10
65.80555566521778
 20
128.3572241042961
 30
0.0
 10
65.93845204661395
 20
128.9230569768714
 30
0.0
 10
65.9718675552202
 20
129.2110043944305
 30
0.0
 10
65.94756962448932
 20
129.6450647323391
 30
0.0
 10
65.92705154898474
 20
129.7869238062392
 30
0.0
 10
65.85791497869737
 20
130.0644605647848
 30
0.0
 10
65.80871820605677
 20
130.2010569126387
 30
0.0
 10
65.74497599593137
 20
130.3304629799199
 30
0.0
  0
SPLINE
  5
22A
330
1F
100
AcDbEntity
  8
0
  6
Continuous
 62
     7
370
    15
100
AcDbSpline
210
0.0
220
0.0
230
1.0
 70
     8
 71
     3
 72
    20
 73
    16
 74
     0
 42
0.00000001
 43
0.00000001
 12
1.0
 22
0.0
 32
0.0
 13
1.0
 23
0.0
 33
0.0
 40
0.0
 40
0.0
 40
0.0
 40
0.0
 40
0.2499999999999997
 40
0.2499999999999997
 40
0.3749999999999997
 40
0.3749999999999997
 40
0.4999999999999998
 40
0.4999999999999998
 40
0.6249999999999998
 40
0.6249999999999998
 40
0.7499999999999999
 40
0.7499999999999999
 40
0.8749999999999999
 40
0.8749999999999999
 40
1.0
 40
1.0
 40
1.0
 40
1.0
 10
67.19416862646142
 20
138.5492427985691
 30
0.0
 10
67.74367729794318
 20
138.7791787748608
 30
0.0
 10
68.27530485899511
 20
138.983303703286
 30
0.0
 10
69.0389263420738
 20
139.2552842797986
 30
0.0
 10
69.28955783383134
 20
139.3407762889901
 30
0.0
 10
69.7632185168014
 20
139.4963061456673
 30
0.0
 10
69.98742092218879
 20
139.5668176337856
 30
0.0
 10
70.40915322204012
 20
139.6949194645841
 30
0.0
 10
70.60670280446054
 20
139.7525109312902
 30
0.0
 10
70.9721454308628
 20
139.8557538001605
 30
0.0
 10
71.1374505071646
 20
139.9006675669119
 30
0.0
 10
71.42472086205002
 20
139.976828113071
 30
0.0
 10
71.54808071409624
 20
140.008464839657
 30
0.0
 10
71.7523769606512
 20
140.059989062867
 30
0.0
 10
71.83332231491777
 20
140.0798758252743
 30
0.0
 10
71.88961071800715
 20
140.0936041141849
 30
0.0
  0
SPLINE
  5
22B
330
1F
100
AcDbEntity
  8
0
  6
Continuous
 62
     7
370
    15
100
AcDbSpline
210
0.0
220
0.0
230
1.0
 70
     8
 71
     3
 72
    20
 73
    16
 74
     0
 42
0.00000001
 43
0.00000001
 12
1.0
 22
0.0
 32
0.0
 13
1.0
 23
0.0
 33
0.0
 40
0.0
 40
0.0
 40
0.0
 40
0.0
 40
0.2499999999999988
 40
0.2499999999999988
 40
0.374999999999999
 40
0.374999999999999
 40
0.4999999999999992
 40
0.4999999999999992
 40
0.6249999999999994
 40
0.6249999999999994
 40
0.7499999999999996
 40
0.7499999999999996
 40
0.8749999999999998
 40
0.8749999999999998
 40
1.0
 40
1.0
 40
1.0
 40
1.0
 10
61.87290365362944
 20
83.28603544754344
 30
0.0
 10
61.77677868867476
 20
83.35015833028397
 30
0.0
 10
61.60266079467181
 20
83.4666131622829
 30
0.0
 10
61.23399434230407
 20
83.72324636646027
 30
0.0
 10
61.09462138454398
 20
83.82157023948666
 30
0.0
 10
60.79045436133457
 20
84.04066610804186
 30
0.0
 10
60.62500448347826
 20
84.16188819948769
 30
0.0
 10
60.26915209236293
 20
84.42891762736663
 30
0.0
 10
60.07960931004962
 20
84.57414691180438
 30
0.0
 10
59.68912220876665
 20
84.88115417720476
 30
0.0
 10
59.48690845016191
 20
85.0438725508052
 30
0.0
 10
59.07046925517594
 20
85.38826206153765
 30
0.0
 10
58.85566853328564
 20
85.57048708031175
 30
0.0
 10
58.42464144580002
 20
85.94668637696982
 30
0.0
 10
58.20734401364719
 20
86.14151614645006
 30
0.0
 10
57.98883404738991
 20
86.3431961567827
 30
0.0
  0
ELLIPSE
  5
22C
330
1F
100
AcDbEntity
  8
0
  6
Continuous
 62
     7
370
    15
100
AcDbEllipse
 10
62.8183253416
 20
128.0289443872
 30
0.0
 11
2.571047329688624
 21
2.781564288285864
 31
0.0
210
0.0
220
0.0
230
1.0
 40
0.6444261125
 41
6.040334251967655
 42
11.23646746075323
  0
ARC
  5
22D
330
1F
100
AcDbEntity
  8
0
  6
Continuous
 62
     7
370
    15
100
AcDbCircle
 10
79.3534276879
 20
109.4906396133
 30
0.0
 40
31.49999999999999
100
AcDbArc
 50
112.7063463226
 51
227.2936536774
  0
LINE
  5
22E
330
1F
100
AcDbEntity
  8
0
  6
Continuous
 62
     7
370
    15
100
AcDbLine
 10
73.0247396848
 20
140.8172800107
 30
0.0
 11
75.7095540746
 21
141.5663725597
 31
0.0
  0
ARC
  5
22F
330
1F
100
AcDbEntity
  8
0
  6
Continuous
 62
     7
370
    15
100
AcDbCircle
 10
73.8782036503
 20
141.0638916533
 30
0.0
 40
0.8883794474523729
100
AcDbArc
 50
156.3901832941
 51
196.1168500041
  0
LINE
  5
230
330
1F
100
AcDbEntity
  8
0
  6
Continuous
 62
     7
370
    15
100
AcDbLine
 10
76.4947877603
 20
153.5579926235
 30
0.0
 11
73.0641867838
 21
141.4196929795
 31
0.0
  0
ARC
  5
231
330
1F
100
AcDbEntity
  8
0
  6
Continuous
 62
     7
370
    15
100
AcDbCircle
 10
76.8291033748
 20
153.5125095603
 30
0.0
 40
0.3373953750046562
100
AcDbArc
 50
136.9762613168
 51
172.2525736568
  0
LINE
  5
232
330
1F
100
AcDbEntity
  8
0
  6
Continuous
 62
     7
370
    15
100
AcDbLine
 10
79.2672580271
 20
154.4918111426
 30
0.0
 11
76.5824433754
 21
153.7427148683
 31
0.0
  0
ARC
  5
233
330
1F
100
AcDbEntity
  8
0
  6
Continuous
 62
     7
370
    15
100
AcDbCircle
 10
78.4137850902
 20
154.2452001267
 30
0.0
 40
0.8883878922855527
100
AcDbArc
 50
336.390377236
 51
16.1166505496
  0
LINE
  5
234
330
1F
100
AcDbEntity
  8
0
  6
Continuous
 62
     7
370
    15
100
AcDbLine
 10
75.7972099225
 20
141.7510985298
 30
0.0
 11
79.2278108991
 21
153.8893981738
 31
0.0
  0
ARC
  5
235
330
1F
100
AcDbEntity
  8
0
  6
Continuous
 62
     7
370
    15
100
AcDbCircle
 10
75.462900564
 20
141.7965742928
 30
0.0
 40
0.3373881921884966
100
AcDbArc
 50
316.9759532954
 51
352.2536588431
  0
ARC
  5
236
330
1F
100
AcDbEntity
  8
0
  6
Continuous
 62
     7
370
    15
100
AcDbCircle
 10
78.4532815398
 20
154.2378511408
 30
0.0
 40
0.8439678135500115
100
AcDbArc
 50
336.390421912
 51
16.1165811547
  0
LINE
  5
237
330
1F
100
AcDbEntity
  8
0
  6
Continuous
 62
     7
370
    15
100
AcDbLine
 10
79.2640804564
 20
154.472130434
 30
0.0
 11
76.5792657028
 21
153.7230341596
 31
0.0
  0
ARC
  5
238
330
1F
100
AcDbEntity
  8
0
  6
Continuous
 62
     7
370
    15
100
AcDbCircle
 10
76.8135536651
 20
153.5043570415
 30
0.0
 40
0.3204848377912592
100
AcDbArc
 50
136.9738422625
 51
172.2543455892
  0
LINE
  5
239
330
1F
100
AcDbEntity
  8
0
  6
Continuous
 62
     7
370
    15
100
AcDbLine
 10
76.4959928918
 20
153.5475506348
 30
0.0
 11
73.0653919152
 21
141.4092472655
 31
0.0
  0
ARC
  5
23A
330
1F
100
AcDbEntity
  8
0
  6
Continuous
 62
     7
370
    15
100
AcDbCircle
 10
73.8387068199
 20
141.0712365218
 30
0.0
 40
0.8439592435016021
100
AcDbArc
 50
156.3901849921
 51
196.1167658505
  0
LINE
  5
23B
330
1F
100
AcDbEntity
  8
0
  6
Continuous
 62
     7
370
    15
100
AcDbLine
 10
73.0279168918
 20
140.836956994
 30
0.0
 11
75.7127317472
 21
141.5860532684
 31
0.0
  0
ARC
  5
23C
330
1F
100
AcDbEntity
  8
0
  6
Continuous
 62
     7
370
    15
100
AcDbCircle
 10
75.4784325436
 20
141.8047348039
 30
0.0
 40
0.3204960697951248
100
AcDbArc
 50
316.9746361916
 51
352.2544938428
  0
LINE
  5
23D
330
1F
100
AcDbEntity
  8
0
  6
Continuous
 62
     7
370
    15
100
AcDbLine
 10
75.7960045582
 20
141.7615405185
 30
0.0
 11
79.2266056949
 21
153.8998401625
 31
0.0
  0
ARC
  5
23E
330
1F
100
AcDbEntity
  8
0
  6
Continuous
 62
     7
370
    15
100
AcDbCircle
 10
84.4856037218
 20
153.1743484541
 30
0.0
 40
0.9740933289953009
100
AcDbArc
 50
337.6211939975
 51
13.7726291307
  0
LINE
  5
23F
330
1F
100
AcDbEntity
  8
0
  6
Continuous
 62
     7
370
    15
100
AcDbLine
 10
81.9557338825
 20
140.6651819957
 30
0.0
 11
85.3863350919
 21
152.8034835023
 31
0.0
  0
LINE
  5
240
330
1F
100
AcDbEntity
  8
0
  6
Continuous
 62
     7
370
    15
100
AcDbLine
 10
76.9465616311
 20
152.8553656203
 30
0.0
 11
76.7316696572
 21
153.3116280002
 31
0.0
  0
ARC
  5
241
330
1F
100
AcDbEntity
  8
0
  6
Continuous
 62
     7
370
    15
100
AcDbCircle
 10
75.8824663234
 20
151.6282407386
 30
0.0
 40
2.220986295435059
100
AcDbArc
 50
336.390509052
 51
16.1165246669
  0
LINE
  5
242
330
1F
100
AcDbEntity
  8
0
  6
Continuous
 62
     7
370
    15
100
AcDbLine
 10
75.9975646495
 20
143.9453690214
 30
0.0
 11
77.91754807
 21
150.7387339038
 31
0.0
  0
LINE
  5
243
330
1F
100
AcDbEntity
  8
0
  6
Continuous
 62
     7
370
    15
100
AcDbLine
 10
74.2758313998
 20
143.0643192393
 30
0.0
 11
75.778425379
 21
143.4835634095
 31
0.0
  0
ARC
  5
244
330
1F
100
AcDbEntity
  8
0
  6
Continuous
 62
     7
370
    15
100
AcDbCircle
 10
76.4095330621
 20
143.6808460832
 30
0.0
 40
2.220988098372487
100
AcDbArc
 50
156.3905123119
 51
196.116494947
  0
LINE
  5
245
330
1F
100
AcDbEntity
  8
0
  6
Continuous
 62
     7
370
    15
100
AcDbLine
 10
76.2944328005
 20
151.3637184066
 30
0.0
 11
74.3744496128
 21
144.5703535242
 31
0.0
  0
ARC
  5
246
330
1F
100
AcDbEntity
  8
0
  6
Continuous
 62
     7
370
    15
100
AcDbCircle
 10
77.1301490282
 20
151.2500449873
 30
0.0
 40
0.8434116784752368
100
AcDbArc
 50
136.9745762144
 51
172.2542116034
  0
LINE
  5
247
330
1F
100
AcDbEntity
  8
0
  6
Continuous
 62
     7
370
    15
100
AcDbLine
 10
78.0161659338
 20
152.2447681887
 30
0.0
 11
76.513572071
 21
151.8255240185
 31
0.0
  0
ARC
  5
248
330
1F
100
AcDbEntity
  8
0
  6
Continuous
 62
     7
370
    15
100
AcDbCircle
 10
75.1618484218
 20
144.0590424407
 30
0.0
 40
0.8434116784752436
100
AcDbArc
 50
316.9745762144
 51
352.2542116034
  0
LWPOLYLINE
  5
249
330
1F
100
AcDbEntity
  8
0
  6
Continuous
 62
     7
370
    15
100
AcDbPolyline
 90
       27
 70
   128
 43
0.0
 10
76.3014715037
 20
146.3074936432
 10
76.4427608217
 20
146.8625358207
 10
76.5668034426
 20
147.463607685
 10
76.6663902311
 20
148.0757771892
 10
76.7357339489
 20
148.6634640855
 10
76.7708045303
 20
149.1925186379
 10
76.7695633101
 20
149.6321923
 10
76.7320831644
 20
149.9569295806
 10
76.6605417582
 20
150.1478618843
 10
76.5590969811
 20
150.1938915712
 10
76.4336443378
 20
150.092343883
 10
76.29147492
 20
149.8491196794
 10
76.1408509559
 20
149.4783527119
 10
75.9905259463
 20
149.0015975101
 10
75.8492366283
 20
148.4465516073
 10
75.7251942403
 20
147.845479743
 10
75.6256072189
 20
147.2333102388
 10
75.5562635011
 20
146.6456233425
 10
75.5211931526
 20
146.1165687902
 10
75.5224341399
 20
145.6768988533
 10
75.5599142856
 20
145.3521578474
 10
75.6314556918
 20
145.1612255437
 10
75.7329004689
 20
145.1151958568
 10
75.8583531122
 20
145.216743545
 10
76.00052253
 20
145.4599677486
 10
76.1511464941
 20
145.8307347161
 10
76.3014715037
 20
146.3074936432
  0
ARC
  5
24A
330
1F
100
AcDbEntity
  8
0
  6
Continuous
 62
     7
370
    15
100
AcDbCircle
 10
81.5644491149
 20
140.7307098524
 30
0.0
 40
0.396733751246666
100
AcDbArc
 50
321.5588857098
 51
350.4929859461
  0
LINE
  5
24B
330
1F
100
AcDbEntity
  8
0
  6
Continuous
 62
     7
370
    15
100
AcDbLine
 10
74.3809670082
 20
142.1631193621
 30
0.0
 11
73.3010686806
 21
141.1733283562
 31
0.0
  0
LINE
  5
24C
330
1F
100
AcDbEntity
  8
0
  6
Continuous
 62
     7
370
    15
100
AcDbLine
 10
74.3809670082
 20
142.1631193621
 30
0.0
 11
74.505757714
 21
142.1979396505
 31
0.0
  0
SPLINE
  5
24D
330
1F
100
AcDbEntity
  8
0
  6
Continuous
 62
     7
370
    15
100
AcDbSpline
210
0.0
220
0.0
230
1.0
 70
     8
 71
     3
 72
     9
 73
     5
 74
     0
 42
0.00000001
 43
0.00000001
 12
1.0
 22
0.0
 32
0.0
 13
1.0
 23
0.0
 33
0.0
 40
0.0
 40
0.0
 40
0.0
 40
0.0
 40
0.5008703264360761
 40
0.9999999999999999
 40
0.9999999999999999
 40
0.9999999999999999
 40
0.9999999999999999
 10
76.94656163108004
 20
152.8553656203313
 30
0.0
 10
76.9715586792862
 20
152.7868419126858
 30
0.0
 10
77.02146590454353
 20
152.6500326348572
 30
0.0
 10
76.99517192204287
 20
152.5175531233241
 30
0.0
 10
76.98204781514062
 20
152.4514286679787
 30
0.0
  0
LINE
  5
24E
330
1F
100
AcDbEntity
  8
0
  6
Continuous
 62
     7
370
    15
100
AcDbLine
 10
74.4520762808
 20
142.4147217435
 30
0.0
 11
74.3809670082
 21
142.1631193621
 31
0.0
  0
LINE
  5
24F
330
1F
100
AcDbEntity
  8
0
  6
Continuous
 62
     7
370
    15
100
AcDbLine
 10
82.0294930006
 20
140.9261590702
 30
0.0
 11
85.1141509472
 21
151.840428905
 31
0.0
  0
LINE
  5
250
330
1F
100
AcDbEntity
  8
0
  6
Continuous
 62
     7
370
    15
100
AcDbLine
 10
84.822650241
 20
140.4336514784
 30
0.0
 11
87.9073088861
 21
151.3479194505
 31
0.0
  0
LINE
  5
251
330
1F
100
AcDbEntity
  8
0
  6
Continuous
 62
     7
370
    15
100
AcDbLine
 10
88.1801845378
 20
151.4532520337
 30
0.0
 11
85.307495842
 21
141.2889837188
 31
0.0
  0
ARC
  5
252
330
1F
100
AcDbEntity
  8
0
  6
Continuous
 62
     7
370
    15
100
AcDbCircle
 10
85.6554588272
 20
152.2750837946
 30
0.0
 40
2.435254074785092
100
AcDbArc
 50
337.6213450399
 51
13.7725521006
  0
ARC
  5
253
330
1F
100
AcDbEntity
  8
0
  6
Continuous
 62
     7
370
    15
100
AcDbCircle
 10
88.1127360579
 20
152.4030955426
 30
0.0
 40
0.1890756559346747
100
AcDbArc
 50
5.7378811068
 51
28.5890793255
  0
LWPOLYLINE
  5
254
330
1F
100
AcDbEntity
  8
0
  6
Continuous
 62
     7
370
    15
100
AcDbPolyline
 90
        3
 70
   128
 43
0.0
 10
88.2572561375
 20
151.7950623197
 10
88.2231483108
 20
151.6242912871
 10
88.1801845378
 20
151.4532520337
  0
ARC
  5
255
330
1F
100
AcDbEntity
  8
0
  6
Continuous
 62
     7
370
    15
100
AcDbCircle
 10
83.5233740861
 20
140.7228703457
 30
0.0
 40
1.33107703760389
100
AcDbArc
 50
326.9393560285
 51
347.4505676597
  0
LWPOLYLINE
  5
256
330
1F
100
AcDbEntity
  8
0
  6
Continuous
 62
     7
370
    15
100
AcDbPolyline
 90
       31
 70
   128
 43
0.0
 10
72.7582929528
 20
137.9904589517
 10
72.9337643704
 20
138.3874799026
 10
73.0987919367
 20
138.650714503
 10
73.2461625582
 20
138.7686571939
 10
73.3694366052
 20
138.7361558986
 10
73.463225445
 20
138.5546280903
 10
73.5234303272
 20
138.2320086373
 10
73.5474202654
 20
137.7823996259
 10
73.5341461248
 20
137.2254463745
 10
73.4841885849
 20
136.5854955179
 10
73.3997311315
 20
135.8905128104
 10
73.2844645961
 20
135.1708724064
 10
73.143426968
 20
134.458026932
 10
72.9827822058
 20
133.7831309897
 10
72.8095510847
 20
133.1756814284
 10
72.6313047915
 20
132.6622265292
 10
72.4558333739
 20
132.2652055783
 10
72.2908058076
 20
132.0019709779
 10
72.1434347204
 20
131.8840264244
 10
72.0201611391
 20
131.9165295822
 10
71.9263722992
 20
132.0980573905
 10
71.8661674171
 20
132.420674981
 10
71.8421774789
 20
132.870285855
 10
71.8554516195
 20
133.4272391064
 10
71.9054086937
 20
134.0671899629
 10
71.9898661471
 20
134.7621726704
 10
72.1051326825
 20
135.4818130744
 10
72.2461703106
 20
136.1946585489
 10
72.4068155384
 20
136.8695544911
 10
72.5800466596
 20
137.4770040525
 10
72.7582929528
 20
137.9904589517
  0
LWPOLYLINE
  5
257
330
1F
100
AcDbEntity
  8
0
  6
Continuous
 62
     7
370
    15
100
AcDbPolyline
 90
       24
 70
   128
 43
0.0
 10
72.7310811042
 20
136.8486947281
 10
72.8608790657
 20
137.1298069967
 10
72.9783598206
 20
137.2771664424
 10
73.0748099147
 20
137.2798412008
 10
73.1430763251
 20
137.1376338316
 10
73.1780963822
 20
136.8610906316
 10
73.1772721617
 20
136.4707230491
 10
73.140665131
 20
135.9954821778
 10
73.0709900952
 20
135.4706129891
 10
72.9734149634
 20
134.9350447667
 10
72.8551761119
 20
134.4284984184
 10
72.7250424086
 20
133.9885397715
 10
72.5926660805
 20
133.6478005064
 10
72.4678641989
 20
133.4315492672
 10
72.3598931788
 20
133.3558290166
 10
72.2767605319
 20
133.4262519044
 10
72.224632079
 20
133.6375950737
 10
72.2073737404
 20
133.9741843653
 10
72.2262651532
 20
134.4110584719
 10
72.2799056082
 20
134.9158148182
 10
72.3643169611
 20
135.4510179622
 10
72.4732383958
 20
135.976973073
 10
72.598592086
 20
136.4546763612
 10
72.7310811042
 20
136.8486947281
  0
SPLINE
  5
258
330
1F
100
AcDbEntity
  8
0
  6
Continuous
 62
     7
370
    15
100
AcDbSpline
210
0.0
220
0.0
230
1.0
 70
     8
 71
     3
 72
     9
 73
     5
 74
     0
 42
0.00000001
 43
0.00000001
 12
1.0
 22
0.0
 32
0.0
 13
1.0
 23
0.0
 33
0.0
 40
0.0
 40
0.0
 40
0.0
 40
0.0
 40
0.749956422425943
 40
1.0
 40
1.0
 40
1.0
 40
1.0
 10
73.16134421740128
 20
136.3103493017716
 30
0.0
 10
73.08423609605684
 20
136.1940235623979
 30
0.0
 10
72.98141929358847
 20
136.038913564143
 30
0.0
 10
72.81341002525265
 20
135.9121909850694
 30
0.0
 10
72.77140038673235
 20
135.8805048180384
 30
0.0
  0
SPLINE
  5
259
330
1F
100
AcDbEntity
  8
0
  6
Continuous
 62
     7
370
    15
100
AcDbSpline
210
0.0
220
0.0
230
1.0
 70
     8
 71
     3
 72
    10
 73
     6
 74
     0
 42
0.00000001
 43
0.00000001
 12
1.0
 22
0.0
 32
0.0
 13
1.0
 23
0.0
 33
0.0
 40
0.0
 40
0.0
 40
0.0
 40
0.0
 40
0.4391158031492169
 40
0.7513674894596328
 40
1.0
 40
1.0
 40
1.0
 40
1.0
 10
72.77140038673235
 20
135.8805048180384
 30
0.0
 10
72.8370094917817
 20
135.6219243623495
 30
0.0
 10
72.94927269932985
 20
135.1794694417547
 30
0.0
 10
72.78885439133983
 20
134.5933466297468
 30
0.0
 10
72.61207337853062
 20
134.3187065920071
 30
0.0
 10
72.53370870490028
 20
134.1969623131318
 30
0.0
  0
LINE
  5
25A
330
1F
100
AcDbEntity
  8
0
  6
Continuous
 62
     7
370
    15
100
AcDbLine
 10
72.5337087049
 20
134.1969623131
 30
0.0
 11
72.7221632249
 21
134.0085315419
 31
0.0
  0
LINE
  5
25B
330
1F
100
AcDbEntity
  8
0
  6
Continuous
 62
     7
370
    15
100
AcDbLine
 10
72.7778018324
 20
134.1539221717
 30
0.0
 11
72.5337087049
 21
134.1969623131
 31
0.0
  0
LINE
  5
25C
330
1F
100
AcDbEntity
  8
0
  6
Continuous
 62
     7
370
    15
100
AcDbLine
 10
73.120263113
 20
135.818990962
 30
0.0
 11
72.7714003867
 21
135.880504818
 31
0.0
  0
ELLIPSE
  5
25D
330
1F
100
AcDbEntity
  8
0
  6
Continuous
 62
     7
370
    15
100
AcDbEllipse
 10
76.3035555076
 20
147.06647289
 30
0.0
 11
0.4089826913515395
 21
2.316322506802891
 31
0.0
210
0.0
220
0.0
230
1.0
 40
0.1735685188
 41
6.114229248047931
 42
7.453964338347919
  0
INSERT
  5
269
330
1F
100
AcDbEntity
  8
VERMASSUNG
100
AcDbBlockReference
  2
SW_CENTERMARKSYMBOL_0
 10
79.3534276879
 20
109.4906396133
 30
0.0
  0
OLE2FRAME
  5
26A
330
1F
100
AcDbEntity
  8
0
100
AcDbOle2Frame
 70
     2
  3
Paintbrush-Bild
 10
13.8511154363
 20
38.264191557
 30
0.0
 11
51.6290888628
 21
31.9806341108
 31
0.0
 71
     2
 72
     0
 73
     1
 90
    12928
310
80552BED0767C5B32B40DDAF6807D121434000000000000000006FFBDDFB85D0
310
4940DDAF6807D121434000000000000000006FFBDDFB85D04940416F4BD60AFB
310
3F4000000000000000002BED0767C5B32B40416F4BD60AFB3F40000000000000
310
0000000000000100000000010000010000000100000000000100000000320000
310
D0CF11E0A1B11AE1000000000000000000000000000000003E000300FEFF0900
310
0600000000000000000000000100000001000000000000000010000002000000
310
01000000FEFFFFFF0000000000000000FFFFFFFFFFFFFFFFFFFFFFFFFFFFFFFF
310
FFFFFFFFFFFFFFFFFFFFFFFFFFFFFFFFFFFFFFFFFFFFFFFFFFFFFFFFFFFFFFFF
310
FFFFFFFFFFFFFFFFFFFFFFFFFFFFFFFFFFFFFFFFFFFFFFFFFFFFFFFFFFFFFFFF
310
FFFFFFFFFFFFFFFFFFFFFFFFFFFFFFFFFFFFFFFFFFFFFFFFFFFFFFFFFFFFFFFF
310
FFFFFFFFFFFFFFFFFFFFFFFFFFFFFFFFFFFFFFFFFFFFFFFFFFFFFFFFFFFFFFFF
310
FFFFFFFFFFFFFFFFFFFFFFFFFFFFFFFFFFFFFFFFFFFFFFFFFFFFFFFFFFFFFFFF
310
FFFFFFFFFFFFFFFFFFFFFFFFFFFFFFFFFFFFFFFFFFFFFFFFFFFFFFFFFFFFFFFF
310
FFFFFFFFFFFFFFFFFFFFFFFFFFFFFFFFFFFFFFFFFFFFFFFFFFFFFFFFFFFFFFFF
310
FFFFFFFFFFFFFFFFFFFFFFFFFFFFFFFFFFFFFFFFFFFFFFFFFFFFFFFFFFFFFFFF
310
FFFFFFFFFFFFFFFFFFFFFFFFFFFFFFFFFFFFFFFFFFFFFFFFFFFFFFFFFFFFFFFF
310
FFFFFFFFFFFFFFFFFFFFFFFFFFFFFFFFFFFFFFFFFFFFFFFFFFFFFFFFFFFFFFFF
310
FFFFFFFFFFFFFFFFFFFFFFFFFFFFFFFFFFFFFFFFFFFFFFFFFFFFFFFFFFFFFFFF
310
FFFFFFFFFFFFFFFFFFFFFFFFFFFFFFFFFFFFFFFFFFFFFFFFFFFFFFFFFFFFFFFF
310
FFFFFFFFFFFFFFFFFFFFFFFFFFFFFFFFFFFFFFFFFFFFFFFFFFFFFFFFFFFFFFFF
310
FDFFFFFFFEFFFFFFFEFFFFFFFEFFFFFF05000000060000000700000008000000
310
090000000A0000000B0000000C0000000D0000000E0000000F00000010000000
310
11000000120000001300000014000000150000001600000017000000FEFFFFFF
310
FFFFFFFFFFFFFFFFFFFFFFFFFFFFFFFFFFFFFFFFFFFFFFFFFFFFFFFFFFFFFFFF
310
FFFFFFFFFFFFFFFFFFFFFFFFFFFFFFFFFFFFFFFFFFFFFFFFFFFFFFFFFFFFFFFF
310
FFFFFFFFFFFFFFFFFFFFFFFFFFFFFFFFFFFFFFFFFFFFFFFFFFFFFFFFFFFFFFFF
310
FFFFFFFFFFFFFFFFFFFFFFFFFFFFFFFFFFFFFFFFFFFFFFFFFFFFFFFFFFFFFFFF
310
FFFFFFFFFFFFFFFFFFFFFFFFFFFFFFFFFFFFFFFFFFFFFFFFFFFFFFFFFFFFFFFF
310
FFFFFFFFFFFFFFFFFFFFFFFFFFFFFFFFFFFFFFFFFFFFFFFFFFFFFFFFFFFFFFFF
310
FFFFFFFFFFFFFFFFFFFFFFFFFFFFFFFFFFFFFFFFFFFFFFFFFFFFFFFFFFFFFFFF
310
FFFFFFFFFFFFFFFFFFFFFFFFFFFFFFFFFFFFFFFFFFFFFFFFFFFFFFFFFFFFFFFF
310
FFFFFFFFFFFFFFFFFFFFFFFFFFFFFFFFFFFFFFFFFFFFFFFFFFFFFFFFFFFFFFFF
310
FFFFFFFFFFFFFFFFFFFFFFFFFFFFFFFFFFFFFFFFFFFFFFFFFFFFFFFFFFFFFFFF
310
FFFFFFFFFFFFFFFFFFFFFFFFFFFFFFFFFFFFFFFFFFFFFFFFFFFFFFFFFFFFFFFF
310
FFFFFFFFFFFFFFFFFFFFFFFFFFFFFFFFFFFFFFFFFFFFFFFFFFFFFFFFFFFFFFFF
310
FFFFFFFFFFFFFFFFFFFFFFFFFFFFFFFFFFFFFFFFFFFFFFFFFFFFFFFFFFFFFFFF
310
52006F006F007400200045006E00740072007900000000000000000000000000
310
0000000000000000000000000000000000000000000000000000000000000000
310
16000500FFFFFFFFFFFFFFFF020000000A00030000000000C000000000000046
310
000000000000000000000000A0E83D64B438CD0103000000C000000000000000
310
01004F006C006500000000000000000000000000000000000000000000000000
310
0000000000000000000000000000000000000000000000000000000000000000
310
0A000200FFFFFFFFFFFFFFFFFFFFFFFF00000000000000000000000000000000
310
0000000000000000000000000000000000000000000000001400000000000000
310
010043006F006D0070004F0062006A0000000000000000000000000000000000
310
0000000000000000000000000000000000000000000000000000000000000000
310
120002010100000003000000FFFFFFFF00000000000000000000000000000000
310
0000000000000000000000000000000000000000010000004D00000000000000
310
01004F006C006500310030004E00610074006900760065000000000000000000
310
0000000000000000000000000000000000000000000000000000000000000000
310
1A000200FFFFFFFFFFFFFFFFFFFFFFFF00000000000000000000000000000000
310
0000000000000000000000000000000000000000040000002426000000000000
310
FEFFFFFF02000000FEFFFFFFFFFFFFFFFFFFFFFFFFFFFFFFFFFFFFFFFFFFFFFF
310
FFFFFFFFFFFFFFFFFFFFFFFFFFFFFFFFFFFFFFFFFFFFFFFFFFFFFFFFFFFFFFFF
310
FFFFFFFFFFFFFFFFFFFFFFFFFFFFFFFFFFFFFFFFFFFFFFFFFFFFFFFFFFFFFFFF
310
FFFFFFFFFFFFFFFFFFFFFFFFFFFFFFFFFFFFFFFFFFFFFFFFFFFFFFFFFFFFFFFF
310
FFFFFFFFFFFFFFFFFFFFFFFFFFFFFFFFFFFFFFFFFFFFFFFFFFFFFFFFFFFFFFFF
310
FFFFFFFFFFFFFFFFFFFFFFFFFFFFFFFFFFFFFFFFFFFFFFFFFFFFFFFFFFFFFFFF
310
FFFFFFFFFFFFFFFFFFFFFFFFFFFFFFFFFFFFFFFFFFFFFFFFFFFFFFFFFFFFFFFF
310
FFFFFFFFFFFFFFFFFFFFFFFFFFFFFFFFFFFFFFFFFFFFFFFFFFFFFFFFFFFFFFFF
310
FFFFFFFFFFFFFFFFFFFFFFFFFFFFFFFFFFFFFFFFFFFFFFFFFFFFFFFFFFFFFFFF
310
FFFFFFFFFFFFFFFFFFFFFFFFFFFFFFFFFFFFFFFFFFFFFFFFFFFFFFFFFFFFFFFF
310
FFFFFFFFFFFFFFFFFFFFFFFFFFFFFFFFFFFFFFFFFFFFFFFFFFFFFFFFFFFFFFFF
310
FFFFFFFFFFFFFFFFFFFFFFFFFFFFFFFFFFFFFFFFFFFFFFFFFFFFFFFFFFFFFFFF
310
FFFFFFFFFFFFFFFFFFFFFFFFFFFFFFFFFFFFFFFFFFFFFFFFFFFFFFFFFFFFFFFF
310
FFFFFFFFFFFFFFFFFFFFFFFFFFFFFFFFFFFFFFFFFFFFFFFFFFFFFFFFFFFFFFFF
310
FFFFFFFFFFFFFFFFFFFFFFFFFFFFFFFFFFFFFFFFFFFFFFFFFFFFFFFFFFFFFFFF
310
FFFFFFFFFFFFFFFFFFFFFFFFFFFFFFFFFFFFFFFFFFFFFFFFFFFFFFFFFFFFFFFF
310
0100000200000000000000000000000000000000000000000000000000000000
310
0000000000000000000000000000000000000000000000000000000000000000
310
0100FEFF030A0000FFFFFFFF0A00030000000000C00000000000004607000000
310
5042727573680007000000504272757368000700000050427275736800F439B2
310
7100000000000000000000000000000000000000000000000000000000000000
310
0000000000000000000000000000000000000000000000000000000000000000
310
0000000000000000000000000000000000000000000000000000000000000000
310
0000000000000000000000000000000000000000000000000000000000000000
310
0000000000000000000000000000000000000000000000000000000000000000
310
0000000000000000000000000000000000000000000000000000000000000000
310
0000000000000000000000000000000000000000000000000000000000000000
310
0000000000000000000000000000000000000000000000000000000000000000
310
0000000000000000000000000000000000000000000000000000000000000000
310
0000000000000000000000000000000000000000000000000000000000000000
310
0000000000000000000000000000000000000000000000000000000000000000
310
0000000000000000000000000000000000000000000000000000000000000000
310
20260000424D0E260000000000003E00000028000000B40200006E0000000100
310
01000000000000000000130B0000130B00000200000002000000000000FFFFFF
310
FFFFFFFFFFFFFFFFFFFFFFFFFFFFFFFFFFFFFFFFFFFFFFFFFFFFFFFFFFFFFFFF
310
FFFFFFFFFFFFFFFFFFFFFFFFFFFFFFFFFFFFFFFFFFFFFFFFFFFFFFFFFFFFFFFF
310
FFFFFFFFFFFFFFFFFFFFFFFFFFFFFFFFFFFFFFFFFFFFFFFFF000FFFFFFFFFFFF
310
FFFFFFFFFFFFFFFFFFFFFFFFFFFFFFFFFFFFFFFFFFFFFFFFFFFFFFFFFFFFFFFF
310
FFFFFFFFFFFFFFFFFFFFFFFFFFFFFFFFFFFFFFFFFFFFFFFFFFFFFFFFFFFFFFFF
310
FFFFFFFFFFFFFFFFFFFFFFFFFFFFFFFFF000FFFFFFFFFFFFFFFFFFFFFFFFFFFF
310
FFFFFFFFFFFFFFFFFFFFFFFFFFFFFFFFFFFFFFFFFFFFFFFFFFFFFFFFFFFFFFFF
310
FFFFFFFFFFFFFFFFFFFFFFFFFFFFFFFFFFFFFFFFFFFFFFFFFFFFFFFFFFFFFFFF
310
FFFFFFFFFFFFFFFFF000FFFFFFFFFFFFFFFFFFFFFFFFFFFFFFFFFFFFFFFFFFFF
310
FFFFFFFFFFFFFFFFFFFFFFFFFFFFFFFFFFFFFFFFFFFFFFFFFFFFFFFFFFFFFFFF
310
FFFFFFFFFFFFFFFFFFFFFFFFFFFFFFFFFFFFFFFFFFFFFFFFFFFFFFFFFFFFFFFF
310
F000FFFFFFFFFFFFFFFFFFFFFFFFFFFFFFFFFFFFFFFFFFFFFFFFFFFFFFFFFFFF
310
FFFFFFFFFFFFFFFFFFFFFFFFFFFFFFFFFFFFFFFFFFFFFFFFFFFFFFFFFFFFFFFF
310
FFFFFFFFFFFFFFFFFFFFFFFFFFFFFFFFFFFFFFFFFFFFFFFFF000FFFFFFFFFFFF
310
FFFFFFFFFFFFFFFFFFFFFFFFFFFFFFFFFFFFFFFFFFFFFFFFFFFFFFFFFFFFFFFF
310
FFFFFFFFFFFFFFFFFFFFFFFFFFFFFFFFFFFFFFFFFFFFFFFFFFFFFFFFFFFFFFFF
310
FFFFFFFFFFFFFFFFFFFFFFFFFFFFFFFFF000FFFFFFFFFFFFFFFFFFFFFFFFFFFF
310
FFFFFFFFFFFFFFFFFFFFFFFFFFFFFFFFFFFFFFFFFFFFFFFFFFFFFFFFFFFFFFFF
310
FFFFFFFFFFFFFFFFFFFFFFFFFFFFFFFFFFFFFFFFFFFFFFFFFFFFFFFFFFFFFFFF
310
FFFFFFFFFFFFFFFFF000FFFFFFFFFFFFFFFFFFFFFFFFFFFFFFFFFFFFFFFFFFFF
310
FFFFFFFFFFFFFFFFFFFFFFFFFFFFFFFFFFFFFFFFFFFFFFFFFFFFFFFFFFFFFFFF
310
FFFFFFFFFFFFFFFFFFFFFFFFFFFFFFFFFFFFFFFFFFFFFFFFFFFFFFFFFFFFFFFF
310
F000FFFFFFFFFFFFFFFFFFFFFFFFFFFFFFFFFFFFFFFFFFFFFFFFFFFFFFFFFFFF
310
FFFFFFFFFFFFFFFFFFFFFFFFFFFFFFFFFFFFFFFFFFFFFFFFFFFFFFFFFFFFFFFF
310
FFFFFFFFFFFFFFFFFFFFFFFFFFFFFFFFFFFFFFFFFFFFFFFFF000FFFFFFFFFFFF
310
FFFFFFFFFFFFFFFFFFFFFFFFFFFFFFFFFFFFFFFFFFFFFFFFFFFFFFFFFFFFFFFF
310
FFFFFFFFFFFFFFFFFFFFFFFFFFFFFFFFFFFFFFFFFFFFFFFFFFFFFFFFFFFFFFFF
310
FFFFFFFFFFFFFFFFFFFFFFFFFFFFFFFFF000FFFFFFFFFFFFFFFFFFFFFFFFFFFF
310
FFFFFFFFFFFFFFFFFFFFFFFFFFFFFFFFFFFFFFFFFFFFFFFFFFFFFFFFFFFFFFFF
310
FFFFFFFFFFFFFFFFFFFFFFFFFFFFFFFFFFFFFFFFFFFFFFFFFFFFFFFFFFFFFFFF
310
FFFFFFFFFFFFFFFFF000FFFFFFFFFFFFFFFFFFFFFFFFFFFFFFFFFFFFFFFFFFFF
310
FFFFFFFFFFFFFFFFFFFFFFFFFFFFFFFFFFFFFFFFFFFFFFFFFFFFFFFFFFFFFFFF
310
FFFFFFFFFFFFFFFFFFFFFFFFFFFFFFFFFFFFFFFFFFFFFFFFFFFFFFFFFFFFFFFF
310
F000FFFFFFFFFFFFFFFFFFFFFFFFFFFFFFFFFFFFFFFFFFFFFFFFFFFFFFFFFFFF
310
FFFFFFFFFFFFFFFFFFFFFFFFFFFFFFFFFFFFFFFFFFFFFFFFFFFFFFFFFFFFFFFF
310
FFFFFFFFFFFFFFFFFFFFFFFFFFFFFFFFFFFFFFFFFFFFFFFFF000FFFFFFFFFFFF
310
FFFFFFFFFFFFFFFFFFFFFFFFFFFFFFFFFFFFFFFFFFFFFFFFFFFFFFFFFFFFFFFF
310
FFFFFFFFFFFFFFFFFFFFFFFFFFFFFFFFFFFFFFFFFFFFFFFFFFFFFFFFFFFFFFFF
310
FFFFFFFFFFFFFFFFFFFFFFFFFFFFFFFFF000FFFFFFFFFFFFFFFFFFFFFFFFFFFF
310
FFFFFFFFFFFFFFFFFFFFFFFFFFFFFFFFFFFFFFFFFFFFFFFFFFFFFFFFFFFFFFFF
310
FFFFFFFFFFFFFFFFFFFFFFFFFFFFFFFFFFFFFFFFFFFFFFFFFFFFFFFFFFFFFFFF
310
FFFFFFFFFFFFFFFFF000FFFFFFFFFFFFFFFFFFFFFFFFFFFFFFFFFFFFFFFFFFFF
310
FFFFFFFFFFFFFFFFFFFFFFFFFFFFFFFFFFFFFFFFFFFFFFFFFFFFFFFFFFFFFFFF
310
FFFFFFFFFFFFFFFFFFFFFFFFFFFFFFFFFFFFFFFFFFFFFFFFFFFFFFFFFFFFFFFF
310
F000FFFFFFFFFFFFFFFFFFFFFFFFFFFFFFFFFFFFFFFFFFFFFFFFFFFFFFFFFFFF
310
FFFFFFFFFFFFFFFFFFFFFFFFFFFFFFFFFFFFFFFFFFFFFFFFFFFFFFFFFFFFFFFF
310
FFFFFFFFFFFFFFFFFFFFFFFFFFFFFFFFFFFFFFFFFFFFFFFFF000FFFFFFFFFFFF
310
FFFFFFFFFFFFFFFFFFFFFFFFFFFFFFFFFFFFFFFFFFFFFFFFFFFFFFFFFFFFFFFF
310
FFFFFFFFFFFFFFFFFFFFFFFFFFFFFFFFFFFFFFFFFFFFFFFFFFFFFFFFFFFFFFFF
310
FFFFFFFFFFFFFFFFFFFFFFFFFFFFFFFFF000FFFFFFFFFFFFFFFFFFFFFFFFFFFF
310
FFFFFFFFFFFFFFFFFFFFFFFFFFFFFFFFFFFFFFFFFFFFFFFFFFFFFFFFFFFFFFFF
310
FFFFFFFFFFFFFFFFFFFFFFFFFFFFFFFFFFFFFFFFFFFFFFFFFFFFFFFFFFFFFFFF
310
FFFFFFFFFFFFFFFFF000FFFFF80003FFFFFFFFFFFFFFFFFFFFFFFFFFFFFFFFFF
310
FFFFF00007FFFFFFFFFF00007FFFFFF800000000000000007FFFFFFFFFFFFFFF
310
FFFFFFFC001FFFFFFFFFFFFFFC001FFFFFFFFFFFFFFFFFFFFFFFFFFE0007FFFF
310
F000FFFF8000007FFFFFFFF8000FFFFFC0007FFFFF80007FFFFF0000007FFFFF
310
FFF8000007FFFFF800000000000000007FFFFFF0001FFFFFFFFFFFC00001FFFF
310
FFFFFFFFC00001FFFFFFFF000000000003FFFFE000007FFFF000FFFE0000000F
310
FFFFFFF0000FFFFF80007FFFFF80007FFFFC0000001FFFFFFFC0000001FFFFF8
310
00000000000000007FFFFFF0001FFFFFFFFFFE0000003FFFFFFFFFFE0000003F
310
FFFFFF000000000003FFFF0000000FFFF000FFF800000003FFFFFFF00007FFFF
310
80007FFFFF80007FFFF000000007FFFFFF000000003FFFF80000000000000000
310
7FFFFFF0001FFFFFFFFFF80000000FFFFFFFFFF80000000FFFFFFF0000000000
310
03FFFC00000003FFF000FFE000000000FFFFFFF00007FFFF80003FFFFF80007F
310
FFC000000001FFFFFC000000001FFFF800000000000000007FFFFFF0001FFFFF
310
FFFFE000000003FFFFFFFFE000000003FFFFFF000000000003FFF000000000FF
310
F000FF80000000007FFFFFF00007FFFF80003FFFFF80007FFF8000000000FFFF
310
F80000000007FFF800000000000000007FFFFFF0001FFFFFFFFFC000000001FF
310
FFFFFFC000000001FFFFFF000000000003FFC0000000007FF000FF0000000000
310
3FFFFFE00007FFFF00003FFFFF80007FFE00000000003FFFF00000000003FFF8
310
00000000000000007FFFFFF0001FFFFFFFFF8000000000FFFFFFFF8000000000
310
FFFFFF000000000003FF80000000003FF000FE00000000001FFFFFE00003FFFF
310
00003FFFFF80007FFC00000000001FFFE00000000001FFF8000001FFFE000000
310
7FFFFFF0001FFFFFFFFE00000000003FFFFFFE00000000003FFFFF0000000000
310
03FF00000000001FF000FC00000000000FFFFFE00003FFFF00001FFFFF80007F
310
F800000000001FFFC00000000000FFF8000001FFFE0000007FFFFFF0001FFFFF
310
FFFC00000000001FFFFFFC00000000001FFFFF000000000003FE00000000000F
310
F000F8000000000007FFFFE00003FFFF00001FFFFF80007FF800000000000FFF
310
800000000000FFF8000001FFFE0000007FFFFFF0001FFFFFFFF800000000000F
310
FFFFF800000000000FFFFF000000000003FC000000000007F000F80000000000
310
03FFFFC00003FFFE00001FFFFF80007FF0000000000007FF0000000000007FF8
310
000001FFFE0000007FFFFFF0001FFFFFFFF0000000000007FFFFF00000000000
310
07FFFF000000000003F8000000000003F000F0000000000003FFFFC00001FFFE
310
00001FFFFF80007FE0000000000007FE0000000000003FF8000001FFFE000000
310
7FFFFFF0001FFFFFFFF0000000000007FFFFF0000000000007FFFF0000000000
310
03F800001F800003F000E00001FFF00001FFFFC00001FFFE00000FFFFF80007F
310
E00001FFE00003FE00001FFF00003FF8000001FFFE0000007FFFFFF0001FFFFF
310
FFE000003E000003FFFFE000003E000003FFFF000000000003F00001FFF80001
310
F000E00007FFFC0001FFFFC00001FFFE00000FFFFF80007FC0000FFFFC0003FC
310
0000FFFFC0001FF8000001FFFE0000007FFFFFF0001FFFFFFFC00003FFE00001
310
FFFFC00003FFE00001FFFF0001FFFFFFFFF00007FFFE0001F000E0000FFFFF00
310
00FFFF800001FFFC00000FFFFF80007FC0001FFFFE0001FC0001FFFFE0001FF8
310
000001FFFE0000007FFFFFF0001FFFFFFF80000FFFF80000FFFF80000FFFF800
310
00FFFF0003FFFFFFFFE0000FFFFF8000F000C0003FFFFF8000FFFF800000FFFC
310
000007FFFF80007F80003FFFFF0001FC0003FFFFF0001FF8000001FFFE000000
310
7FFFFFF0001FFFFFFF80003FFFFE0000FFFF80003FFFFE0000FFFF0003FFFFFF
310
FFE0003FFFFF8000F000C0003FFFFF8000FFFF800000FFFC000007FFFF80007F
310
80007FFFFF8001F80007FFFFF8000FF8000001FFFE0000007FFFFFF0001FFFFF
310
FF00007FFFFF00007FFF00007FFFFF00007FFF0003FFFFFFFFE0003FFFFFC000
310
F000C0007FFFFFC000FFFF000000FFFC000007FFFF80007F8000FFFFFF8000F8
310
000FFFFFF8000FF8000001FFFE0000007FFFFFF0001FFFFFFF0000FFFFFF8000
310
7FFF0000FFFFFF80007FFF0003FFFFFFFFC0007FFFFFC00070008000FFFFFFC0
310
00FFFF000000FFF8000007FFFF80007F8000FFFFFF8000F8000FFFFFF8000FF8
310
000001FFFE0000007FFFFFF0001FFFFFFE0001FFFFFFC0003FFE0001FFFFFFC0
310
003FFF0003FFFFFFFFC0007FFFFFE00070008000FFFFFFC0007FFF0000007FF8
310
000003FFFF80007F0001FFFFFF8000F8000FFFFFF8000FF8000001FFFE000000
310
7FFFFFF0001FFFFFFE0001FFFFFFC0003FFE0001FFFFFFC0003FFF0003FFFFFF
310
FFC000FFFFFFE00070008000FFFFFFC0007FFF0000007FF8000003FFFF80007F
310
0001FFFFFF8000F8001FFFFFF8000FF8000001FFFE0000007FFFFFF0001FFFFF
310
FE0003FFFFFFE0003FFE0003FFFFFFE0003FFF0003FFFFFFFFC000FFFFFFE000
310
70008000FFFFFFC0007FFE0000007FF8000003FFFF80007F0001FFFFFF8000F0
310
001FFFFFF8000FF8000001FFFE0000007FFFFFF0001FFFFFFC0003FFFFFFE000
310
1FFC0003FFFFFFE0001FFF0003FFFFFFFFC000FFFFFFC00070008000FFFFFF80
310
007FFE0000007FF0000003FFFF80007F0001FFFFFF0000F0001FFFFFF8000FF8
310
000001FFFE0000007FFFFFF0001FFFFFFC0007FFFFFFF0001FFC0007FFFFFFF0
310
001FFF0003FFFFFFFFC000FFFFFFC00070008001FFFFFF0000FFFE0000003FF0
310
000001FFFF80007F0001FFFFFF0000F8001FFFFFF0000FF8000001FFFE000000
310
7FFFFFF0001FFFFFFC0007FFFFFFF0001FFC0007FFFFFFF0001FFF0003FFFFFF
310
FFC001FFFFFF80007000FFFFFFFFFE0000FFFE0008003FF0008001FFFF80007F
310
FFFFFFFFFC0000FFFFFFFFFFE0000FF8000001FFFE0000007FFFFFF0001FFFFF
310
F8000FFFFFFFF8000FF8000FFFFFFFF8000FFF0003FFFFFFFFFFFFFFFFFF0000
310
7000FFFFFFFFFC0000FFFC0008003FF0008001FFFF80007FFFFFFFFFF80001FF
310
FFFFFFFF80000FF8000001FFFE0000007FFFFFF0001FFFFFF8000FFFFFFFF800
310
0FF8000FFFFFFFF8000FFF0003FFFFFFFFFFFFFFFFFE0000F000FFFFFFFFE000
310
00FFFC000C003FE000C001FFFF80007FFFFFFFFFC00001FFFFFFFFFE00001FF8
310
000001FFFE0000007FFFFFF0001FFFFFF8000FFFFFFFF8000FF8000FFFFFFFF8
310
000FFF0003FFFFFFFFFFFFFFFFF00000F000FFFFFFFE000001FFFC000C001FE0
310
00C000FFFF80007FFFFFFFFE000001FFFFFFFFE000001FF80FFFFFFFFFFFFFC0
310
7FFFFFF0001FFFFFF8000FFFFFFFF8000FF8000FFFFFFFF8000FFF0003FFFFFF
310
FFFFFFFFFF800000F000FFFFFFC0000001FFFC001C001FE001C000FFFF80007F
310
FFFFFF80000003FFFFFFF80000001FF80FFFFFFFFFFFFFC07FFFFFF0001FFFFF
310
F8001FFFFFFFFC000FF8001FFFFFFFFC000FFF0003FFFFFFFFFFFFFFF0000001
310
F000FFFFF800000001FFF8001C001FE001C000FFFF80007FFFFFF800000003FF
310
FFFF800000003FF80FFFFFFFFFFFFFC07FFFFFF0001FFFFFF8001FFFFFFFFC00
310
0FF8001FFFFFFFFC000FFF0003FFFFFFFFFFFFFE00000001F000FFFFC0000000
310
03FFF8001E001FC001E000FFFF80007FFFFF8000000007FFFFFC000000003FF8
310
0FFFFFFFFFFFFFC07FFFFFF0001FFFFFF8001FFFFFFFFC000FF8001FFFFFFFFC
310
000FFF0003FFFFFFFFFFFFE000000003F000FFFE0000000007FFF8001E000FC0
310
01E0007FFF80007FFFFE0000000007FFFFE0000000007FF80FFFFFFFFFFFFFC0
310
7FFFFFF0001FFFFFF0001FFFFFFFFC0007F0001FFFFFFFFC0007FF0003FFFFFF
310
FFFFFF0000000003F000FFF80000000007FFF8001E000FC003E0007FFF80007F
310
FFF0000000000FFFFF8000000000FFF80FFFFFFFFFFFFFC07FFFFFF0001FFFFF
310
F0001FFFFFFFFC0007F0001FFFFFFFFC0007FF0003FFFFFFFFFFFC0000000007
310
F000FFE0000000000FFFF0003E000FC003E0007FFF80007FFFC0000000001FFF
310
FE0000000001FFF80FFFFFFFFFFFFFC07FFFFFF0001FFFFFF0001FFFFFFFFC00
310
07F0001FFFFFFFFC0007FF0003FFFFFFFFFFF0000000000FF000FFC000000000
310
1FFFF0003F000F8003F0003FFF80007FFF80000000003FFFF80000000003FFF8
310
0FFFFFFFFFFFFFC07FFFFFF0001FFFFFF0001FFFFFFFFC0007F0001FFFFFFFFC
310
0007FF0003FFFFFFFFFFE0000000001FF000FF00000000007FFFF0003F000780
310
03F0003FFF80007FFF00000000007FFFF00000000007FFF80FFFFFFFFFFFFFC0
310
7FFFFFF0001FFFFFF0001FFFFFFFFC0007F0001FFFFFFFFC0007FF0003FFFFFF
310
FFFF80000000007FF000FE0000000000FFFFE0003F00078007F0003FFF80007F
310
FE0000000001FFFFE0000000001FFFF80FFFFFFFFFFFFFC07FFFFFF0001FFFFF
310
F0001FFFFFFFFC0007F0001FFFFFFFFC0007FF0003FFFFFFFFFF0000000000FF
310
F000FC0000000003FFFFE0007F00078007F0003FFF80007FFC0000000007FFFF
310
C0000000007FFFF80FFFFFFFFFFFFFC07FFFFFF0001FFFFFF8001FFFFFFFFC00
310
0FF8001FFFFFFFFC000FFF0003FFFFFFFFFE0000000003FFF000FC000000000F
310
FFFFE0007F80070007F8001FFF80007FF8000000001FFFFF8000000001FFFFF8
310
0FFFFFFFFFFFFFC07FFFFFF0001FFFFFF8001FFFFFFFFC000FF8001FFFFFFFFC
310
000FFF0003FFFFFFFFFC000000000FFFF000F8000000007FFFFFE0007F800700
310
07F8001FFF80007FF000000000FFFFFF800000000FFFFFF80FFFFFFFFFFFFFC0
310
7FFFFFF0001FFFFFF8000FFFFFFFF8000FF8000FFFFFFFF8000FFF0003FFFFFF
310
FFFC000000007FFFF000F800000007FFFFFFC0007F8003000FF8001FFF80007F
310
F000000007FFFFFF000000007FFFFFF80FFFFFFFFFFFFFC07FFFFFF0001FFFFF
310
F8000FFFFFFFF8000FF8000FFFFFFFF8000FFF0003FFFFFFFFF80000000FFFFF
310
F000F0000000FFFFFFFFC000FF8003000FF8001FFF80007FE0000000FFFFFFFF
310
0000000FFFFFFFF8000001FFFE0000007FFFFFF0001FFFFFF8000FFFFFFFF800
310
0FF8000FFFFFFFF8000FFF0003FFFFFFFFF8000000FFFFFFF000F000000FFFFF
310
FFFFC000FFC002000FF8000FFF80007FE000001FFFFFFFFE000001FFFFFFFFF8
310
000001FFFE0000007FFFFFF0001FFFFFF8000FFFFFFFF8000FF8000FFFFFFFF8
310
000FFF0003FFFFFFFFF000001FFFFFFFF000E00000FFFFFFFFFFC000FFC00200
310
0FFC000FFF80007FE00001FFFFFFFFFE00001FFFFFFFFFF8000001FFFE000000
310
7FFFFFF0001FFFFFFC000FFFFFFFF8001FFC000FFFFFFFF8001FFF0003FFFFFF
310
FFF00001FFFFFFFFF000E00007FFFFFFFFFF8000FFC000001FFC000FFF80007F
310
C0000FFFFFFFFFFE0000FFFFFFFFFFF8000001FFFE0000007FFFFFF0001FFFFF
310
FC0007FFFFFFF0001FFC0007FFFFFFF0001FFF0003FFFFFFFFF00007FFFFFFFF
310
F000E0001FFFFFFFFFFF8000FFC000001FFC000FFF80007FC0003FFFFFFFFFFE
310
0001FFFFFFFFFFF8000001FFFE0000007FFFFFF0001FFFFFFC0007FFFFFFF000
310
1FFC0007FFFFFFF0001FFF0003FFFFFFFFF0001FFFFFFFFFF000E0003FFFFF00
310
03FF8001FFE000001FFC0007FF80007FC0007FFFFF0007FC0003FFFFF0003FF8
310
000001FFFE0000007FFFFFF0001FFFFFFC0003FFFFFFE0001FFC0003FFFFFFE0
310
001FFF0003FFFFFFFFF0003FFFFFFFFFF000E0003FFFFF0001FF8001FFE00000
310
1FFE0007FF80007FC0007FFFFE0003FC0007FFFFE0003FF8000001FFFE000000
310
7FFFFFF0001FFFFFFE0003FFFFFFE0003FFE0003FFFFFFE0003FFF0003FFFFFF
310
FFF0003FFFFF8001F000E0003FFFFF0001FF0001FFE000001FFE0007FF80007F
310
C0007FFFFE0003FC0007FFFFE0003FF8000001FFFE0000007FFFFFF0001FFFFF
310
FE0001FFFFFFC0003FFE0001FFFFFFC0003FFF0003FFFFFFFFF0003FFFFF0001
310
F000E0003FFFFF0003FF0001FFE000003FFE0007FF80007FC0007FFFFE0003FC
310
0007FFFFE0003FF8000001FFFE0000007FFFFFF0001FFFFFFF0001FFFFFFC000
310
7FFF0001FFFFFFC0007FFF0003FFFFFFFFF0003FFFFF0001F000E0003FFFFE00
310
03FF0003FFF000003FFE0003FF80007FC0007FFFFC0003FE0007FFFFE0003FF8
310
000001FFFE0000007FFFFFF0001FFFFFFF0000FFFFFF80007FFF0000FFFFFF80
310
007FFF0003FFFFFFFFF0003FFFFF0001F000E0003FFFFE0003FF0003FFF00000
310
3FFF0003FF80007FC0007FFFFC0007FE0007FFFFC0003FF8000001FFFE000000
310
7FFFFFF0001FFFFFFF80007FFFFF0000FFFF80007FFFFF0000FFFF0003FFFFFF
310
FFF0003FFFFF0003F000E0003FFFFC0003FE0003FFF000003FFF0003FF80007F
310
E0003FFFF80007FE0003FFFFC0007FF8000001FFFE0000007FFFFFF0001FFFFF
310
FF80003FFFFE0000FFFF80003FFFFE0000FFFF0003FFFFFFFFF0001FFFFE0003
310
F000F0001FFFF80003FE0003FFF000007FFF0001FF80007FE0003FFFF00007FE
310
0001FFFF80007FF8000001FFFE0000007FFFFFF0001FFFFFFFC0000FFFF80001
310
FFFFC0000FFFF80001FFFF0003FFFFFFFFF0001FFFFC0003F000F0000FFFF000
310
07FE0007FFF800007FFF0001FF80007FE0001FFFE00007FF0000FFFE00007FF8
310
000001FFFE0000007FFFFFF0001FFFFFFFC00003FFE00001FFFFC00003FFE000
310
01FFFF0003FFFFFFFFF8000FFFF80003F000F00003FFC00007FC0007FFF80000
310
7FFF8001FF80007FF00007FF80000FFF00007FF80000FFF8000001FFFE000000
310
7F80000000000001FFE000003E000003FFFFE000003E000003FFFF0003FFFFFF
310
FFF80003FFE00007F000F800000000000FFC0007FFF800007FFF8001FF80007F
310
F000000000000FFF000000000000FFF8000001FFFE0000007F80000000000001
310
FFF0000000000007FFFFF0000000000007FFFF0003FFFFFFFFFC00007E000007
310
F000F800000000000FFC0007FFF80000FFFF8000FF80007FF800000000001FFF
310
800000000001FFF8000001FFFE0000007F80000000000001FFF800000000000F
310
FFFFF800000000000FFFFF0003FFFFFFFFFC00000000000FF000FC0000000000
310
1FFC0007FFFC0000FFFF8000FF80007FF800000000003FFFC00000000001FFF8
310
000001FFFE0000007F80000000000001FFF800000000000FFFFFF80000000000
310
0FFFFF0003FFFFFFFFFE00000000001FF000FE00000000003FF8000FFFFC0000
310
FFFF8000FF80007FFC00000000003FFFC00000000003FFF8000001FFFE000000
310
7F80000000000001FFFC00000000001FFFFFFC00000000001FFFFF0003FFFFFF
310
FFFF00000000001FF000FF00000000003FF8000FFFFC0000FFFFC000FF80007F
310
FE00000000007FFFE00000000007FFF8000001FFFE0000007F80000000000001
310
FFFE00000000003FFFFFFE00000000003FFFFF0003FFFFFFFFFF80000000003F
310
F000FF80000000007FF8000FFFFC0001FFFFC0007F80007FFF0000000000FFFF
310
F0000000000FFFF800000000000000007F80000000000001FFFF8000000000FF
310
FFFFFF8000000000FFFFFF0003FFFFFFFFFFC0000000007FF000FFC000000000
310
FFF8000FFFFE0001FFFFC0007F80007FFF8000000001FFFFF8000000001FFFF8
310
00000000000000007F80000000000001FFFFC000000001FFFFFFFFC000000001
310
FFFFFF0003FFFFFFFFFFE000000000FFF000FFE000000003FFF0001FFFFE0001
310
FFFFC0007F80007FFFC000000007FFFFFE000000003FFFF80000000000000000
310
7F80000000000001FFFFE000000003FFFFFFFFE000000003FFFFFF0003FFFFFF
310
FFFFF000000003FFF000FFF80000000FFFF0001FFFFE0001FFFFE0007F80007F
310
FFF00000000FFFFFFF00000000FFFFF800000000000000007F80000000000001
310
FFFFF80000000FFFFFFFFFF80000000FFFFFFF0003FFFFFFFFFFFC0000000FFF
310
F000FFFE0000003FFFF0001FFFFE0003FFFFE0003F80007FFFFC0000003FFFFF
310
FFC0000003FFFFF800000000000000007F80000000000001FFFFFE0000003FFF
310
FFFFFFFE0000003FFFFFFF0003FFFFFFFFFFFF0000003FFFF000FFFF800000FF
310
FFF0001FFFFF0003FFFFE0003F80007FFFFF000001FFFFFFFFF800001FFFFFF8
310
00000000000000007F80000000000001FFFFFFC00001FFFFFFFFFFFFC00001FF
310
FFFFFF0003FFFFFFFFFFFFC00000FFFFF000FFFFF8000FFFFFFFFFFFFFFFFFFF
310
FFFFFFFFFFFFFFFFFFFFF0001FFFFFFFFFFF0000FFFFFFF80000000000000000
310
7FFFFFFFFFFFFFFFFFFFFFFC001FFFFFFFFFFFFFFC001FFFFFFFFFFFFFFFFFFF
310
FFFFFFFC001FFFFFF000FFFFFFFFFFFFFFFFFFFFFFFFFFFFFFFFFFFFFFFFFFFF
310
FFFFFFFFFFFFFFFFFFFFFFFFFFFFFFFFFFFFFFFFFFFFFFFFFFFFFFFFFFFFFFFF
310
FFFFFFFFFFFFFFFFFFFFFFFFFFFFFFFFFFFFFFFFFFFFFFFFFFFFFFFFFFFFFFFF
310
F000FFFFFFFFFFFFFFFFFFFFFFFFFFFFFFFFFFFFFFFFFFFFFFFFFFFFFFFFFFFF
310
FFFFFFFFFFFFFFFFFFFFFFFFFFFFFFFFFFFFFFFFFFFFFFFFFFFFFFFFFFFFFFFF
310
FFFFFFFFFFFFFFFFFFFFFFFFFFFFFFFFFFFFFFFFFFFFFFFFF000FFFFFFFFFFFF
310
FFFFFFFFFFFFFFFFFFFFFFFFFFFFFFFFFFFFFFFFFFFFFFFFFFFFFFFFFFFFFFFF
310
FFFFFFFFFFFFFFFFFFFFFFFFFFFFFFFFFFFFFFFFFFFFFFFFFFFFFFFFFFFFFFFF
310
FFFFFFFFFFFFFFFFFFFFFFFFFFFFFFFFF000FFFFFFFFFFFFFFFFFFFFFFFFFFFF
310
FFFFFFFFFFFFFFFFFFFFFFFFFFFFFFFFFFFFFFFFFFFFFFFFFFFFFFFFFFFFFFFF
310
FFFFFFFFFFFFFFFFFFFFFFFFFFFFFFFFFFFFFFFFFFFFFFFFFFFFFFFFFFFFFFFF
310
FFFFFFFFFFFFFFFFF000FFFFFFFFFFFFFFFFFFFFFFFFFFFFFFFFFFFFFFFFFFFF
310
FFFFFFFFFFFFFFFFFFFFFFFFFFFFFFFFFFFFFFFFFFFFFFFFFFFFFFFFFFFFFFFF
310
FFFFFFFFFFFFFFFFFFFFFFFFFFFFFFFFFFFFFFFFFFFFFFFFFFFFFFFFFFFFFFFF
310
F000FFFFFFFFFFFFFFFFFFFFFFFFFFFFFFFFFFFFFFFFFFFFFFFFFFFFFFFFFFFF
310
FFFFFFFFFFFFFFFFFFFFFFFFFFFFFFFFFFFFFFFFFFFFFFFFFFFFFFFFFFFFFFFF
310
FFFFFFFFFFFFFFFFFFFFFFFFFFFFFFFFFFFFFFFFFFFFFFFFF000FFFFFFFFFFFF
310
FFFFFFFFFFFFFFFFFFFFFFFFFFFFFFFFFFFFFFFFFFFFFFFFFFFFFFFFFFFFFFFF
310
FFFFFFFFFFFFFFFFFFFFFFFFFFFFFFFFFFFFFFFFFFFFFFFFFFFFFFFFFFFFFFFF
310
FFFFFFFFFFFFFFFFFFFFFFFFFFFFFFFFF000FFFFFFFFFFFFFFFFFFFFFFFFFFFF
310
FFFFFFFFFFFFFFFFFFFFFFFFFFFFFFFFFFFFFFFFFFFFFFFFFFFFFFFFFFFFFFFF
310
FFFFFFFFFFFFFFFFFFFFFFFFFFFFFFFFFFFFFFFFFFFFFFFFFFFFFFFFFFFFFFFF
310
FFFFFFFFFFFFFFFFF000FFFFFFFFFFFFFFFFFFFFFFFFFFFFFFFFFFFFFFFFFFFF
310
FFFFFFFFFFFFFFFFFFFFFFFFFFFFFFFFFFFFFFFFFFFFFFFFFFFFFFFFFFFFFFFF
310
FFFFFFFFFFFFFFFFFFFFFFFFFFFFFFFFFFFFFFFFFFFFFFFFFFFFFFFFFFFFFFFF
310
F000FFFFFFFFFFFFFFFFFFFFFFFFFFFFFFFFFFFFFFFFFFFFFFFFFFFFFFFFFFFF
310
FFFFFFFFFFFFFFFFFFFFFFFFFFFFFFFFFFFFFFFFFFFFFFFFFFFFFFFFFFFFFFFF
310
FFFFFFFFFFFFFFFFFFFFFFFFFFFFFFFFFFFFFFFFFFFFFFFFF000FFFFFFFFFFFF
310
FFFFFFFFFFFFFFFFFFFFFFFFFFFFFFFFFFFFFFFFFFFFFFFFFFFFFFFFFFFFFFFF
310
FFFFFFFFFFFFFFFFFFFFFFFFFFFFFFFFFFFFFFFFFFFFFFFFFFFFFFFFFFFFFFFF
310
FFFFFFFFFFFFFFFFFFFFFFFFFFFFFFFFF000FFFFFFFFFFFFFFFFFFFFFFFFFFFF
310
FFFFFFFFFFFFFFFFFFFFFFFFFFFFFFFFFFFFFFFFFFFFFFFFFFFFFFFFFFFFFFFF
310
FFFFFFFFFFFFFFFFFFFFFFFFFFFFFFFFFFFFFFFFFFFFFFFFFFFFFFFFFFFFFFFF
310
FFFFFFFFFFFFFFFFF000FFFFFFFFFFFFFFFFFFFFFFFFFFFFFFFFFFFFFFFFFFFF
310
FFFFFFFFFFFFFFFFFFFFFFFFFFFFFFFFFFFFFFFFFFFFFFFFFFFFFFFFFFFFFFFF
310
FFFFFFFFFFFFFFFFFFFFFFFFFFFFFFFFFFFFFFFFFFFFFFFFFFFFFFFFFFFFFFFF
310
F000FFFFFFFFFFFFFFFFFFFFFFFFFFFFFFFFFFFFFFFFFFFFFFFFFFFFFFFFFFFF
310
FFFFFFFFFFFFFFFFFFFFFFFFFFFFFFFFFFFFFFFFFFFFFFFFFFFFFFFFFFFFFFFF
310
FFFFFFFFFFFFFFFFFFFFFFFFFFFFFFFFFFFFFFFFFFFFFFFFF000FFFFFFFFFFFF
310
FFFFFFFFFFFFFFFFFFFFFFFFFFFFFFFFFFFFFFFFFFFFFFFFFFFFFFFFFFFFFFFF
310
FFFFFFFFFFFFFFFFFFFFFFFFFFFFFFFFFFFFFFFFFFFFFFFFFFFFFFFFFFFFFFFF
310
FFFFFFFFFFFFFFFFFFFFFFFFFFFFFFFFF000FFFFFFFFFFFFFFFFFFFFFFFFFFFF
310
FFFFFFFFFFFFFFFFFFFFFFFFFFFFFFFFFFFFFFFFFFFFFFFFFFFFFFFFFFFFFFFF
310
FFFFFFFFFFFFFFFFFFFFFFFFFFFFFFFFFFFFFFFFFFFFFFFFFFFFFFFFFFFFFFFF
310
FFFFFFFFFFFFFFFFF000FFFFFFFFFFFFFFFFFFFFFFFFFFFFFFFFFFFFFFFFFFFF
310
FFFFFFFFFFFFFFFFFFFFFFFFFFFFFFFFFFFFFFFFFFFFFFFFFFFFFFFFFFFFFFFF
310
FFFFFFFFFFFFFFFFFFFFFFFFFFFFFFFFFFFFFFFFFFFFFFFFFFFFFFFFFFFFFFFF
310
F000FFFFFFFFFFFFFFFFFFFFFFFFFFFFFFFFFFFFFFFFFFFFFFFFFFFFFFFFFFFF
310
FFFFFFFFFFFFFFFFFFFFFFFFFFFFFFFFFFFFFFFFFFFFFFFFFFFFFFFFFFFFFFFF
310
FFFFFFFFFFFFFFFFFFFFFFFFFFFFFFFFFFFFFFFFFFFFFFFFF000FFFFFFFFFFFF
310
FFFFFFFFFFFFFFFFFFFFFFFFFFFFFFFFFFFFFFFFFFFFFFFFFFFFFFFFFFFFFFFF
310
FFFFFFFFFFFFFFFFFFFFFFFFFFFFFFFFFFFFFFFFFFFFFFFFFFFFFFFFFFFFFFFF
310
FFFFFFFFFFFFFFFFFFFFFFFFFFFFFFFFF000FFFFFFFFFFFFFFFFFFFFFFFFFFFF
310
FFFFFFFFFFFFFFFFFFFFFFFFFFFFFFFFFFFFFFFFFFFFFFFFFFFFFFFFFFFFFFFF
310
FFFFFFFFFFFFFFFFFFFFFFFFFFFFFFFFFFFFFFFFFFFFFFFFFFFFFFFFFFFFFFFF
310
FFFFFFFFFFFFFFFFF000FFFFFFFFFFFFFFFFFFFFFFFFFFFFFFFFFFFFFFFFFFFF
310
FFFFFFFFFFFFFFFFFFFFFFFFFFFFFFFFFFFFFFFFFFFFFFFFFFFFFFFFFFFFFFFF
310
FFFFFFFFFFFFFFFFFFFFFFFFFFFFFFFFFFFFFFFFFFFFFFFFFFFFFFFFFFFFFFFF
310
F000FFFFFFFFFFFFFFFFFFFFFFFFFFFFFFFFFFFFFFFFFFFFFFFFFFFFFFFFFFFF
310
FFFFFFFFFFFFFFFFFFFFFFFFFFFFFFFFFFFFFFFFFFFFFFFFFFFFFFFFFFFFFFFF
310
FFFFFFFFFFFFFFFFFFFFFFFFFFFFFFFFFFFFFFFFFFFFFFFFF000FFFFFFFFFFFF
310
FFFFFFFFFFFFFFFFFFFFFFFFFFFFFFFFFFFFFFFFFFFFFFFFFFFFFFFFFFFFFFFF
310
FFFFFFFFFFFFFFFFFFFFFFFFFFFFFFFFFFFFFFFFFFFFFFFFFFFFFFFFFFFFFFFF
310
FFFFFFFFFFFFFFFFFFFFFFFFFFFFFFFFF0000000000000000000000000000000
310
0000000000000000000000000000000000000000000000000000000000000000
310
0000000000000000000000000000000000000000000000000000000000000000
310
0000000000000000000000000000000000000000000000000000000000000000
310
0000000000000000000000000000000000000000000000000000000000000000
310
0000000000000000000000000000000000000000000000000000000000000000
310
0000000000000000000000000000000000000000000000000000000000000000
310
0000000000000000000000000000000000000000000000000000000000000000
310
0000000000000000000000000000000000000000000000000000000000000000
310
0000000000000000000000000000000000000000000000000000000000000000
310
0000000000000000000000000000000000000000000000000000000000000000
310
0000000000000000000000000000000000000000000000000000000000000000
310
0000000000000000000000000000000000000000000000000000000000000000
310
0000000000000000000000000000000000000000000000000000000000000000
310
0000000000000000000000000000000000000000000000000000000000000000
310
0000000000000000000000000000000000000000000000000000000000000000
  1
OLE
  0
ENDSEC
  0
SECTION
  2
OBJECTS
  0
DICTIONARY
  5
C
330
0
100
AcDbDictionary
281
     1
  3
ACAD_GROUP
350
D
  3
ACAD_LAYOUT
350
1A
  3
ACAD_MLINESTYLE
350
17
  3
ACAD_PLOTSETTINGS
350
19
  3
ACAD_PLOTSTYLENAME
350
E
  0
DICTIONARY
  5
D
102
{ACAD_REACTORS
330
C
102
}
330
C
100
AcDbDictionary
281
     1
  0
DICTIONARY
  5
1A
102
{ACAD_REACTORS
330
C
102
}
330
C
100
AcDbDictionary
281
     1
  3
Layout1
350
1E
  3
Layout2
350
26
  3
Model
350
22
  0
DICTIONARY
  5
17
102
{ACAD_REACTORS
330
C
102
}
330
C
100
AcDbDictionary
281
     1
  3
Standard
350
18
  0
DICTIONARY
  5
19
102
{ACAD_REACTORS
330
C
102
}
330
C
100
AcDbDictionary
281
     1
  0
ACDBDICTIONARYWDFLT
  5
E
102
{ACAD_REACTORS
330
C
102
}
330
C
100
AcDbDictionary
281
     1
  3
Normal
350
F
100
AcDbDictionaryWithDefault
340
F
  0
LAYOUT
  5
1E
102
{ACAD_REACTORS
330
1A
102
}
330
1A
100
AcDbPlotSettings
  1

  2
none_device
  4

  6

 40
0.0
 41
0.0
 42
0.0
 43
0.0
 44
0.0
 45
0.0
 46
0.0
 47
0.0
 48
0.0
 49
0.0
140
0.0
141
0.0
142
1.0
143
1.0
 70
   688
 72
     0
 73
     0
 74
     5
  7

 75
    16
147
1.0
148
0.0
149
0.0
100
AcDbLayout
  1
Layout1
 70
     1
 71
     1
 10
0.0
 20
0.0
 11
420.0
 21
297.0
 12
0.0
 22
0.0
 32
0.0
 14
1.0000000000E+20
 24
1.0000000000E+20
 34
1.0000000000E+20
 15
-1.0000000000E+20
 25
-1.0000000000E+20
 35
-1.0000000000E+20
146
0.0
 13
0.0
 23
0.0
 33
0.0
 16
1.0
 26
0.0
 36
0.0
 17
0.0
 27
1.0
 37
0.0
 76
     0
330
1B
  0
LAYOUT
  5
26
102
{ACAD_REACTORS
330
1A
102
}
330
1A
100
AcDbPlotSettings
  1

  2
none_device
  4

  6

 40
0.0
 41
0.0
 42
0.0
 43
0.0
 44
0.0
 45
0.0
 46
0.0
 47
0.0
 48
0.0
 49
0.0
140
0.0
141
0.0
142
1.0
143
1.0
 70
   688
 72
     0
 73
     0
 74
     5
  7

 75
    16
147
1.0
148
0.0
149
0.0
100
AcDbLayout
  1
Layout2
 70
     1
 71
     2
 10
0.0
 20
0.0
 11
0.0
 21
0.0
 12
0.0
 22
0.0
 32
0.0
 14
0.0
 24
0.0
 34
0.0
 15
0.0
 25
0.0
 35
0.0
146
0.0
 13
0.0
 23
0.0
 33
0.0
 16
1.0
 26
0.0
 36
0.0
 17
0.0
 27
1.0
 37
0.0
 76
     0
330
23
  0
LAYOUT
  5
22
102
{ACAD_REACTORS
330
1A
102
}
330
1A
100
AcDbPlotSettings
  1

  2
none_device
  4

  6

 40
0.0
 41
0.0
 42
0.0
 43
0.0
 44
0.0
 45
0.0
 46
0.0
 47
0.0
 48
0.0
 49
0.0
140
0.0
141
0.0
142
1.0
143
1.0
 70
  1712
 72
     0
 73
     0
 74
     0
  7

 75
     0
147
1.0
148
0.0
149
0.0
100
AcDbLayout
  1
Model
 70
     1
 71
     0
 10
0.0
 20
0.0
 11
297.0
 21
210.0
 12
0.0
 22
0.0
 32
0.0
 14
0.0
 24
0.0
 34
0.0
 15
297.0
 25
210.0
 35
0.0
146
0.0
 13
0.0
 23
0.0
 33
0.0
 16
1.0
 26
0.0
 36
0.0
 17
0.0
 27
1.0
 37
0.0
 76
     0
330
1F
331
29
  0
MLINESTYLE
  5
18
102
{ACAD_REACTORS
330
17
102
}
330
17
100
AcDbMlineStyle
  2
Standard
 70
     0
  3

 62
   256
 51
90.0
 52
90.0
 71
     2
 49
0.5
 62
   256
  6
BYLAYER
 49
-0.5
 62
   256
  6
BYLAYER
  0
ACDBPLACEHOLDER
  5
F
102
{ACAD_REACTORS
330
E
102
}
330
E
  0
ENDSEC
  0
EOF
