  0
SECTION
  2
HEADER
  9
$ACADVER
  1
AC1015
  9
$ACADMAINTVER
 70
     6
  9
$DWGCODEPAGE
  3
ANSI_1252
  9
$INSBASE
 10
0.0
 20
0.0
 30
0.0
  9
$EXTMIN
 10
0.0
 20
0.0
 30
0.0
  9
$EXTMAX
 10
297.0
 20
210.0
 30
0.0
  9
$LIMMIN
 10
0.0
 20
0.0
  9
$LIMMAX
 10
297.0
 20
210.0
  9
$ORTHOMODE
 70
     0
  9
$REGENMODE
 70
     1
  9
$FILLMODE
 70
     1
  9
$QTEXTMODE
 70
     0
  9
$MIRRTEXT
 70
     1
  9
$LTSCALE
 40
1.0
  9
$ATTMODE
 70
     1
  9
$TEXTSIZE
 40
2.0
  9
$TRACEWID
 40
1.0
  9
$TEXTSTYLE
  7
Standard
  9
$CLAYER
  8
0
  9
$CELTYPE
  6
ByLayer
  9
$CECOLOR
 62
   256
  9
$CELTSCALE
 40
1.0
  9
$DISPSILH
 70
     0
  9
$DIMSCALE
 40
1.0
  9
$DIMASZ
 40
3.0
  9
$DIMEXO
 40
0.0
  9
$DIMDLI
 40
3.75
  9
$DIMRND
 40
0.0
  9
$DIMDLE
 40
0.0
  9
$DIMEXE
 40
1.0
  9
$DIMTP
 40
0.0
  9
$DIMTM
 40
0.0
  9
$DIMTXT
 40
2.0
  9
$DIMCEN
 40
2.5
  9
$DIMTSZ
 40
0.0
  9
$DIMTOL
 70
     0
  9
$DIMLIM
 70
     0
  9
$DIMTIH
 70
     1
  9
$DIMTOH
 70
     1
  9
$DIMSE1
 70
     0
  9
$DIMSE2
 70
     0
  9
$DIMTAD
 70
     1
  9
$DIMZIN
 70
     0
  9
$DIMBLK
  1

  9
$DIMASO
 70
     1
  9
$DIMSHO
 70
     1
  9
$DIMPOST
  1

  9
$DIMAPOST
  1

  9
$DIMALT
 70
     0
  9
$DIMALTD
 70
     3
  9
$DIMALTF
 40
0.0393700787
  9
$DIMLFAC
 40
1.0
  9
$DIMTOFL
 70
     1
  9
$DIMTVP
 40
0.0
  9
$DIMTIX
 70
     0
  9
$DIMSOXD
 70
     0
  9
$DIMSAH
 70
     0
  9
$DIMBLK1
  1

  9
$DIMBLK2
  1

  9
$DIMSTYLE
  2
ISO-25
  9
$DIMCLRD
 70
     0
  9
$DIMCLRE
 70
     0
  9
$DIMCLRT
 70
     0
  9
$DIMTFAC
 40
1.0
  9
$DIMGAP
 40
1.524
  9
$DIMJUST
 70
     0
  9
$DIMSD1
 70
     0
  9
$DIMSD2
 70
     0
  9
$DIMTOLJ
 70
     0
  9
$DIMTZIN
 70
     0
  9
$DIMALTZ
 70
     0
  9
$DIMALTTZ
 70
     0
  9
$DIMUPT
 70
     0
  9
$DIMDEC
 70
     2
  9
$DIMTDEC
 70
     3
  9
$DIMALTU
 70
     2
  9
$DIMALTTD
 70
     3
  9
$DIMTXSTY
  7
Standard
  9
$DIMAUNIT
 70
     0
  9
$DIMADEC
 70
     2
  9
$DIMALTRND
 40
0.0
  9
$DIMAZIN
 70
     0
  9
$DIMDSEP
 70
    44
  9
$DIMATFIT
 70
     3
  9
$DIMFRAC
 70
     0
  9
$DIMLDRBLK
  1

  9
$DIMLUNIT
 70
     2
  9
$DIMLWD
 70
    -2
  9
$DIMLWE
 70
    -2
  9
$DIMTMOVE
 70
     0
  9
$LUNITS
 70
     2
  9
$LUPREC
 70
     2
  9
$SKETCHINC
 40
1.0
  9
$FILLETRAD
 40
10.0
  9
$AUNITS
 70
     0
  9
$AUPREC
 70
     2
  9
$MENU
  1
.
  9
$ELEVATION
 40
0.0
  9
$PELEVATION
 40
0.0
  9
$THICKNESS
 40
0.0
  9
$LIMCHECK
 70
     0
  9
$CHAMFERA
 40
10.0
  9
$CHAMFERB
 40
10.0
  9
$CHAMFERC
 40
20.0
  9
$CHAMFERD
 40
0.0
  9
$SKPOLY
 70
     0
  9
$TDCREATE
 40
2456071.66378243
  9
$TDUCREATE
 40
2456071.580449097
  9
$TDUPDATE
 40
2456071.663783877
  9
$TDUUPDATE
 40
2456071.580450544
  9
$TDINDWG
 40
0.0000000116
  9
$TDUSRTIMER
 40
0.0000000116
  9
$USRTIMER
 70
     1
  9
$ANGBASE
 50
0.0
  9
$ANGDIR
 70
     0
  9
$PDMODE
 70
     0
  9
$PDSIZE
 40
-1.0
  9
$PLINEWID
 40
0.0
  9
$SPLFRAME
 70
     0
  9
$SPLINETYPE
 70
     6
  9
$SPLINESEGS
 70
     8
  9
$HANDSEED
  5
257
  9
$SURFTAB1
 70
     6
  9
$SURFTAB2
 70
     6
  9
$SURFTYPE
 70
     6
  9
$SURFU
 70
     6
  9
$SURFV
 70
     6
  9
$UCSBASE
  2

  9
$UCSNAME
  2

  9
$UCSORG
 10
0.0
 20
0.0
 30
0.0
  9
$UCSXDIR
 10
1.0
 20
0.0
 30
0.0
  9
$UCSYDIR
 10
0.0
 20
1.0
 30
0.0
  9
$UCSORTHOREF
  2

  9
$UCSORTHOVIEW
 70
     0
  9
$UCSORGTOP
 10
0.0
 20
0.0
 30
0.0
  9
$UCSORGBOTTOM
 10
0.0
 20
0.0
 30
0.0
  9
$UCSORGLEFT
 10
0.0
 20
0.0
 30
0.0
  9
$UCSORGRIGHT
 10
0.0
 20
0.0
 30
0.0
  9
$UCSORGFRONT
 10
0.0
 20
0.0
 30
0.0
  9
$UCSORGBACK
 10
0.0
 20
0.0
 30
0.0
  9
$PUCSBASE
  2

  9
$PUCSNAME
  2

  9
$PUCSORG
 10
0.0
 20
0.0
 30
0.0
  9
$PUCSXDIR
 10
1.0
 20
0.0
 30
0.0
  9
$PUCSYDIR
 10
0.0
 20
1.0
 30
0.0
  9
$PUCSORTHOREF
  2

  9
$PUCSORTHOVIEW
 70
     0
  9
$PUCSORGTOP
 10
0.0
 20
0.0
 30
0.0
  9
$PUCSORGBOTTOM
 10
0.0
 20
0.0
 30
0.0
  9
$PUCSORGLEFT
 10
0.0
 20
0.0
 30
0.0
  9
$PUCSORGRIGHT
 10
0.0
 20
0.0
 30
0.0
  9
$PUCSORGFRONT
 10
0.0
 20
0.0
 30
0.0
  9
$PUCSORGBACK
 10
0.0
 20
0.0
 30
0.0
  9
$USERI1
 70
     0
  9
$USERI2
 70
     0
  9
$USERI3
 70
     0
  9
$USERI4
 70
     0
  9
$USERI5
 70
     0
  9
$USERR1
 40
0.0
  9
$USERR2
 40
0.0
  9
$USERR3
 40
0.0
  9
$USERR4
 40
0.0
  9
$USERR5
 40
0.0
  9
$WORLDVIEW
 70
     1
  9
$SHADEDGE
 70
     3
  9
$SHADEDIF
 70
    70
  9
$TILEMODE
 70
     1
  9
$MAXACTVP
 70
    64
  9
$PINSBASE
 10
0.0
 20
0.0
 30
0.0
  9
$PLIMCHECK
 70
     0
  9
$PEXTMIN
 10
1.0000000000E+20
 20
1.0000000000E+20
 30
1.0000000000E+20
  9
$PEXTMAX
 10
-1.0000000000E+20
 20
-1.0000000000E+20
 30
-1.0000000000E+20
  9
$PLIMMIN
 10
0.0
 20
0.0
  9
$PLIMMAX
 10
420.0
 20
297.0
  9
$UNITMODE
 70
     0
  9
$VISRETAIN
 70
     1
  9
$PLINEGEN
 70
     0
  9
$PSLTSCALE
 70
     1
  9
$TREEDEPTH
 70
  3020
  9
$CMLSTYLE
  2
Standard
  9
$CMLJUST
 70
     0
  9
$CMLSCALE
 40
20.0
  9
$PROXYGRAPHICS
 70
     1
  9
$MEASUREMENT
 70
     1
  9
$CELWEIGHT
370
    -1
  9
$ENDCAPS
280
     0
  9
$JOINSTYLE
280
     0
  9
$LWDISPLAY
290
     1
  9
$INSUNITS
 70
     4
  9
$HYPERLINKBASE
  1

  9
$STYLESHEET
  1

  9
$XEDIT
290
     1
  9
$CEPSNTYPE
380
     0
  9
$PSTYLEMODE
290
     1
  9
$FINGERPRINTGUID
  2
{5E64B135-3EBD-4C27-99FB-049BDDA0BFC5}
  9
$VERSIONGUID
  2
{FAEB1C32-E019-11D5-929B-00C0DF256EC4}
  9
$EXTNAMES
290
     1
  9
$PSVPSCALE
 40
0.0
  9
$OLESTARTUP
290
     0
  0
ENDSEC
  0
SECTION
  2
CLASSES
  0
CLASS
  1
ACDBDICTIONARYWDFLT
  2
AcDbDictionaryWithDefault
  3
ObjectDBX Classes
 90
        0
280
     0
281
     0
  0
CLASS
  1
VISUALSTYLE
  2
AcDbVisualStyle
  3
ObjectDBX Classes
 90
     4095
280
     0
281
     0
  0
CLASS
  1
MATERIAL
  2
AcDbMaterial
  3
ObjectDBX Classes
 90
     1153
280
     0
281
     0
  0
CLASS
  1
ACDBPLACEHOLDER
  2
AcDbPlaceHolder
  3
ObjectDBX Classes
 90
        0
280
     0
281
     0
  0
CLASS
  1
LAYOUT
  2
AcDbLayout
  3
ObjectDBX Classes
 90
        0
280
     0
281
     0
  0
ENDSEC
  0
SECTION
  2
TABLES
  0
TABLE
  2
VPORT
  5
8
330
0
100
AcDbSymbolTable
 70
     1
  0
VPORT
  5
29
330
8
100
AcDbSymbolTableRecord
100
AcDbViewportTableRecord
  2
*Active
 70
     0
 10
0.0
 20
0.0
 11
1.0
 21
1.0
 12
148.5
 22
105.0
 13
0.0
 23
0.0
 14
10.0
 24
10.0
 15
10.0
 25
10.0
 16
0.0
 26
0.0
 36
1.0
 17
0.0
 27
0.0
 37
0.0
 40
210.0
 41
1.4142857143
 42
50.0
 43
0.0
 44
0.0
 50
0.0
 51
0.0
 71
     0
 72
  2000
 73
     1
 74
     3
 75
     0
 76
     0
 77
     0
 78
     0
281
     0
 65
     1
110
0.0
120
0.0
130
0.0
111
1.0
121
0.0
131
0.0
112
0.0
122
1.0
132
0.0
 79
     0
146
0.0
  0
ENDTAB
  0
TABLE
  2
LTYPE
  5
5
330
0
100
AcDbSymbolTable
 70
     6
  0
LTYPE
  5
14
330
5
100
AcDbSymbolTableRecord
100
AcDbLinetypeTableRecord
  2
ByBlock
 70
     0
  3

 72
    65
 73
     0
 40
0.0
  0
LTYPE
  5
15
330
5
100
AcDbSymbolTableRecord
100
AcDbLinetypeTableRecord
  2
ByLayer
 70
     0
  3

 72
    65
 73
     0
 40
0.0
  0
LTYPE
  5
16
330
5
100
AcDbSymbolTableRecord
100
AcDbLinetypeTableRecord
  2
Continuous
 70
     0
  3
Solid line
 72
    65
 73
     0
 40
0.0
  0
LTYPE
  5
3F
330
5
100
AcDbSymbolTableRecord
100
AcDbLinetypeTableRecord
  2
HIDDEN
 70
     0
  3
Hidden __ __ __ __ __ __ __ __ __ __ __ __ __ __
 72
    65
 73
     2
 40
1.905
 49
1.27
 74
     0
 49
-0.635
 74
     0
  0
LTYPE
  5
40
330
5
100
AcDbSymbolTableRecord
100
AcDbLinetypeTableRecord
  2
PHANTOM
 70
     0
  3
Phantom ______  __  __  ______  __  __  ______
 72
    65
 73
     6
 40
12.7
 49
6.35
 74
     0
 49
-1.27
 74
     0
 49
1.27
 74
     0
 49
-1.27
 74
     0
 49
1.27
 74
     0
 49
-1.27
 74
     0
  0
LTYPE
  5
41
330
5
100
AcDbSymbolTableRecord
100
AcDbLinetypeTableRecord
  2
CENTER
 70
     0
  3
Center ____ _ ____ _ ____ _ ____ _ ____ _ ____
 72
    65
 73
     4
 40
10.16
 49
6.35
 74
     0
 49
-1.27
 74
     0
 49
1.27
 74
     0
 49
-1.27
 74
     0
  0
LTYPE
  5
42
330
5
100
AcDbSymbolTableRecord
100
AcDbLinetypeTableRecord
  2
CENTERX2
 70
     0
  3
Center (2x) ________  __  ________  __  _____
 72
    65
 73
     4
 40
20.32
 49
12.7
 74
     0
 49
-2.54
 74
     0
 49
2.54
 74
     0
 49
-2.54
 74
     0
  0
LTYPE
  5
43
330
5
100
AcDbSymbolTableRecord
100
AcDbLinetypeTableRecord
  2
DOT2
 70
     0
  3
Dot (.5x) ........................................
 72
    65
 73
     2
 40
0.635
 49
0.0
 74
     0
 49
-0.635
 74
     0
  0
ENDTAB
  0
TABLE
  2
LAYER
  5
2
330
0
100
AcDbSymbolTable
 70
     5
  0
LAYER
  5
10
330
2
100
AcDbSymbolTableRecord
100
AcDbLayerTableRecord
  2
0
 70
     0
 62
     7
  6
Continuous
370
    -3
390
F
  0
LAYER
  5
44
330
2
100
AcDbSymbolTableRecord
100
AcDbLayerTableRecord
  2
FORMAT
 70
     0
 62
     7
  6
Continuous
370
    -3
390
F
  0
LAYER
  5
45
330
2
100
AcDbSymbolTableRecord
100
AcDbLayerTableRecord
  2
VERMASSUNG
 70
     0
 62
     7
  6
Continuous
370
    -3
390
F
  0
LAYER
  5
46
330
2
100
AcDbSymbolTableRecord
100
AcDbLayerTableRecord
  2
KOPF_DÜNN
 70
     0
 62
     7
  6
Continuous
370
    -3
390
F
  0
LAYER
  5
47
330
2
100
AcDbSymbolTableRecord
100
AcDbLayerTableRecord
  2
KOPF_DICK
 70
     0
 62
     7
  6
Continuous
370
    15
390
F
  0
ENDTAB
  0
TABLE
  2
STYLE
  5
3
330
0
100
AcDbSymbolTable
 70
     2
  0
STYLE
  5
11
330
3
100
AcDbSymbolTableRecord
100
AcDbTextStyleTableRecord
  2
Standard
 70
     0
 40
0.0
 41
1.0
 50
0.0
 71
     0
 42
2.0
  3
txt
  4

  0
STYLE
  5
48
330
3
100
AcDbSymbolTableRecord
100
AcDbTextStyleTableRecord
  2
SLDTEXTSTYLE0
 70
     0
 40
0.0
 41
0.7
 50
0.0
 71
     0
 42
0.2
  3
TXT
  4

  0
ENDTAB
  0
TABLE
  2
VIEW
  5
6
330
0
100
AcDbSymbolTable
 70
     0
  0
ENDTAB
  0
TABLE
  2
UCS
  5
7
330
0
100
AcDbSymbolTable
 70
     0
  0
ENDTAB
  0
TABLE
  2
APPID
  5
9
330
0
100
AcDbSymbolTable
 70
     1
  0
APPID
  5
12
330
9
100
AcDbSymbolTableRecord
100
AcDbRegAppTableRecord
  2
ACAD
 70
     0
  0
ENDTAB
  0
TABLE
  2
DIMSTYLE
  5
A
330
0
100
AcDbSymbolTable
 70
     5
100
AcDbDimStyleTable
  0
DIMSTYLE
105
27
330
A
100
AcDbSymbolTableRecord
100
AcDbDimStyleTableRecord
  2
ISO-25
 70
     0
 41
2.5
 42
0.625
 43
3.75
 44
1.25
 73
     0
 74
     0
 77
     1
 78
     8
140
2.5
141
2.5
143
0.0393700787
147
0.625
171
     3
172
     1
178
     0
271
     2
272
     2
274
     3
278
    44
283
     0
284
     8
340
11
  0
DIMSTYLE
105
1A7
102
{ACAD_REACTORS
330
1A6
102
}
330
A
100
AcDbSymbolTableRecord
100
AcDbDimStyleTableRecord
  2
SLDDIMSTYLE0
 70
     0
 41
3.0
 44
0.0
 73
     0
 74
     0
 77
     1
 78
    12
 79
     3
140
2.0
147
0.5
173
     1
178
     0
179
     1
272
     3
276
     2
284
    12
340
48
  0
DIMSTYLE
105
1B0
102
{ACAD_REACTORS
330
1AF
330
1C7
102
}
330
A
100
AcDbSymbolTableRecord
100
AcDbDimStyleTableRecord
  2
SLDDIMSTYLE1
 70
     0
 41
3.0
 44
0.0
 45
0.000000001
 47
0.1
 48
0.1
 71
     1
 73
     0
 74
     0
 77
     1
 78
    12
 79
     3
140
2.0
147
0.5
173
     1
178
     0
271
     2
272
     1
276
     2
284
     8
340
48
  0
DIMSTYLE
105
1BD
102
{ACAD_REACTORS
330
1BC
330
1D3
102
}
330
A
100
AcDbSymbolTableRecord
100
AcDbDimStyleTableRecord
  2
SLDDIMSTYLE2
 70
     0
 41
3.0
 44
0.0
 45
0.000000001
 73
     0
 74
     0
 77
     1
 78
    12
 79
     3
140
2.0
147
0.5
173
     1
178
     0
271
     2
272
     3
276
     2
284
    12
340
48
  0
DIMSTYLE
105
23C
102
{ACAD_REACTORS
330
23B
102
}
330
A
100
AcDbSymbolTableRecord
100
AcDbDimStyleTableRecord
  2
SLDDIMSTYLE3
 70
     0
 41
3.0
 44
0.0
 45
0.000000001
 73
     0
 74
     0
 77
     1
 78
    12
 79
     3
140
2.0
147
0.5
172
     1
173
     1
178
     0
271
     2
272
     3
276
     2
284
    12
289
     0
340
48
  0
ENDTAB
  0
TABLE
  2
BLOCK_RECORD
  5
1
330
0
100
AcDbSymbolTable
 70
     8
  0
BLOCK_RECORD
  5
1F
330
1
100
AcDbSymbolTableRecord
100
AcDbBlockTableRecord
  2
*Model_Space
340
22
  0
BLOCK_RECORD
  5
1B
330
1
100
AcDbSymbolTableRecord
100
AcDbBlockTableRecord
  2
*Paper_Space
340
1E
  0
BLOCK_RECORD
  5
23
330
1
100
AcDbSymbolTableRecord
100
AcDbBlockTableRecord
  2
*Paper_Space0
340
26
  0
BLOCK_RECORD
  5
1A8
330
1
100
AcDbSymbolTableRecord
100
AcDbBlockTableRecord
  2
_D
340
0
  0
BLOCK_RECORD
  5
1B1
330
1
100
AcDbSymbolTableRecord
100
AcDbBlockTableRecord
  2
_D_1
340
0
  0
BLOCK_RECORD
  5
1BE
330
1
100
AcDbSymbolTableRecord
100
AcDbBlockTableRecord
  2
_D_2
340
0
  0
BLOCK_RECORD
  5
1C8
330
1
100
AcDbSymbolTableRecord
100
AcDbBlockTableRecord
  2
_D_3
340
0
  0
BLOCK_RECORD
  5
1D4
330
1
100
AcDbSymbolTableRecord
100
AcDbBlockTableRecord
  2
_D_4
340
0
  0
BLOCK_RECORD
  5
23D
330
1
100
AcDbSymbolTableRecord
100
AcDbBlockTableRecord
  2
_D_5
340
0
  0
BLOCK_RECORD
  5
24A
330
1
100
AcDbSymbolTableRecord
100
AcDbBlockTableRecord
  2
SW_CENTERMARKSYMBOL_0
340
0
102
{BLKREFS
331
255
102
}
  0
ENDTAB
  0
ENDSEC
  0
SECTION
  2
BLOCKS
  0
BLOCK
  5
20
330
1F
100
AcDbEntity
  8
0
100
AcDbBlockBegin
  2
*Model_Space
 70
     0
 10
0.0
 20
0.0
 30
0.0
  3
*Model_Space
  1

  0
ENDBLK
  5
21
330
1F
100
AcDbEntity
  8
0
100
AcDbBlockEnd
  0
BLOCK
  5
1C
330
1B
100
AcDbEntity
 67
     1
  8
0
100
AcDbBlockBegin
  2
*Paper_Space
 70
     0
 10
0.0
 20
0.0
 30
0.0
  3
*Paper_Space
  1

  0
ENDBLK
  5
1D
330
1B
100
AcDbEntity
 67
     1
  8
0
100
AcDbBlockEnd
  0
BLOCK
  5
24
330
23
100
AcDbEntity
  8
0
100
AcDbBlockBegin
  2
*Paper_Space0
 70
     0
 10
0.0
 20
0.0
 30
0.0
  3
*Paper_Space0
  1

  0
ENDBLK
  5
25
330
23
100
AcDbEntity
  8
0
100
AcDbBlockEnd
  0
BLOCK
  5
1A9
330
1A8
100
AcDbEntity
  8
0
100
AcDbBlockBegin
  2
_D
 70
     0
 10
0.0
 20
0.0
 30
0.0
  3
_D
  1

  0
ARC
  5
1AB
330
1A8
100
AcDbEntity
  8
VERMASSUNG
100
AcDbCircle
 10
257.7581010388
 20
150.3346382416
 30
0.0
 40
13.16738074550696
100
AcDbArc
 50
252.5435011747
 51
0.0
  0
SOLID
  5
1AC
330
1A8
100
AcDbEntity
  8
VERMASSUNG
100
AcDbTrace
 10
253.8081289098
 20
137.7736814358
 30
0.0
 11
256.666454891
 21
136.7575748543
 31
0.0
 12
256.838784774
 22
137.6409221311
 32
0.0
 13
256.838784774
 23
137.6409221311
 33
0.0
  0
SOLID
  5
1AD
330
1A8
100
AcDbEntity
  8
VERMASSUNG
100
AcDbTrace
 10
270.9254817843
 20
150.3346382416
 30
0.0
 11
270.1429858192
 21
147.4037339333
 31
0.0
 12
271.0373463189
 22
147.3031392187
 32
0.0
 13
271.0373463189
 23
147.3031392187
 33
0.0
  0
MTEXT
  5
1AE
330
1A8
100
AcDbEntity
  8
VERMASSUNG
100
AcDbMText
 10
260.4754970591
 20
139.1942667744
 30
0.1
 40
2.0
 41
0.0
 71
     1
 72
     1
  1
107.5°
  7
SLDTEXTSTYLE0
 11
0.8062200735720622
 21
0.5916157477361963
 31
0.0
 73
     1
 44
1.0
  0
ENDBLK
  5
1AA
330
1A8
100
AcDbEntity
  8
0
100
AcDbBlockEnd
  0
BLOCK
  5
1B2
330
1B1
100
AcDbEntity
  8
0
100
AcDbBlockBegin
  2
_D_1
 70
     0
 10
0.0
 20
0.0
 30
0.0
  3
_D_1
  1

  0
SOLID
  5
1B4
330
1B1
100
AcDbEntity
  8
VERMASSUNG
100
AcDbTrace
 10
192.6103317434
 20
155.7368849945
 30
0.0
 11
195.6103317434
 21
155.2868849945
 31
0.0
 12
195.6103317434
 22
156.1868849945
 32
0.0
 13
195.6103317434
 23
156.1868849945
 33
0.0
  0
SOLID
  5
1B5
330
1B1
100
AcDbEntity
  8
VERMASSUNG
100
AcDbTrace
 10
257.6103317434
 20
155.7368849945
 30
0.0
 11
254.6103317434
 21
156.1868849945
 31
0.0
 12
254.6103317434
 22
155.2868849945
 32
0.0
 13
254.6103317434
 23
155.2868849945
 33
0.0
  0
LINE
  5
1B6
330
1B1
100
AcDbEntity
  8
VERMASSUNG
100
AcDbLine
 10
192.6103317434
 20
136.3346382416
 30
0.0
 11
192.6103317434
 21
156.7368849945
 31
0.0
  0
LINE
  5
1B7
330
1B1
100
AcDbEntity
  8
VERMASSUNG
100
AcDbLine
 10
257.6103317434
 20
150.3346382416
 30
0.0
 11
257.6103317434
 21
156.7368849945
 31
0.0
  0
LINE
  5
1B8
330
1B1
100
AcDbEntity
  8
VERMASSUNG
100
AcDbLine
 10
192.6103317434
 20
155.7368849945
 30
0.0
 11
257.6103317434
 21
155.7368849945
 31
0.0
  0
MTEXT
  5
1B9
330
1B1
100
AcDbEntity
  8
VERMASSUNG
100
AcDbMText
 10
220.5603315564
 20
158.3150203577
 30
0.1
 40
2.0
 41
0.0
 71
     1
 72
     1
  1
65
  7
SLDTEXTSTYLE0
 73
     1
 44
1.0
  0
MTEXT
  5
1BA
330
1B1
100
AcDbEntity
  8
VERMASSUNG
100
AcDbMText
 10
226.3478316585
 20
158.3150203577
 30
0.1
 40
2.0
 41
0.0
 71
     1
 72
     1
  1

  7
SLDTEXTSTYLE0
 73
     1
 44
1.0
  0
MTEXT
  5
1BB
330
1B1
100
AcDbEntity
  8
VERMASSUNG
100
AcDbMText
 10
226.3603319483
 20
157.8204864949
 30
0.1
 40
1.5
 41
0.0
 71
     1
 72
     1
  1
±0.1
  7
SLDTEXTSTYLE0
 73
     1
 44
1.0
  0
ENDBLK
  5
1B3
330
1B1
100
AcDbEntity
  8
0
100
AcDbBlockEnd
  0
BLOCK
  5
1BF
330
1BE
100
AcDbEntity
  8
0
100
AcDbBlockBegin
  2
_D_2
 70
     0
 10
0.0
 20
0.0
 30
0.0
  3
_D_2
  1

  0
SOLID
  5
1C1
330
1BE
100
AcDbEntity
  8
VERMASSUNG
100
AcDbTrace
 10
154.6103317434
 20
164.2710098861
 30
0.0
 11
157.6103317434
 21
163.8210098861
 31
0.0
 12
157.6103317434
 22
164.7210098861
 32
0.0
 13
157.6103317434
 23
164.7210098861
 33
0.0
  0
SOLID
  5
1C2
330
1BE
100
AcDbEntity
  8
VERMASSUNG
100
AcDbTrace
 10
257.6103317434
 20
164.2710098861
 30
0.0
 11
254.6103317434
 21
164.7210098861
 31
0.0
 12
254.6103317434
 22
163.8210098861
 32
0.0
 13
254.6103317434
 23
163.8210098861
 33
0.0
  0
LINE
  5
1C3
330
1BE
100
AcDbEntity
  8
VERMASSUNG
100
AcDbLine
 10
154.6103317434
 20
125.6269762341
 30
0.0
 11
154.6103317434
 21
165.2710098861
 31
0.0
  0
LINE
  5
1C4
330
1BE
100
AcDbEntity
  8
VERMASSUNG
100
AcDbLine
 10
257.6103317434
 20
150.3346382416
 30
0.0
 11
257.6103317434
 21
165.2710098861
 31
0.0
  0
LINE
  5
1C5
330
1BE
100
AcDbEntity
  8
VERMASSUNG
100
AcDbLine
 10
154.6103317434
 20
164.2710098861
 30
0.0
 11
257.6103317434
 21
164.2710098861
 31
0.0
  0
MTEXT
  5
1C6
330
1BE
100
AcDbEntity
  8
VERMASSUNG
100
AcDbMText
 10
203.3103316104
 20
166.8491452492
 30
0.1
 40
2.0
 41
0.0
 71
     1
 72
     1
  1
103
  7
SLDTEXTSTYLE0
 73
     1
 44
1.0
  0
ENDBLK
  5
1C0
330
1BE
100
AcDbEntity
  8
0
100
AcDbBlockEnd
  0
BLOCK
  5
1C9
330
1C8
100
AcDbEntity
  8
0
100
AcDbBlockBegin
  2
_D_3
 70
     0
 10
0.0
 20
0.0
 30
0.0
  3
_D_3
  1

  0
SOLID
  5
1CB
330
1C8
100
AcDbEntity
  8
VERMASSUNG
100
AcDbTrace
 10
275.6551153265
 20
150.3346382416
 30
0.0
 11
275.2051153265
 21
147.3346382416
 31
0.0
 12
276.1051153265
 22
147.3346382416
 32
0.0
 13
276.1051153265
 23
147.3346382416
 33
0.0
  0
SOLID
  5
1CC
330
1C8
100
AcDbEntity
  8
VERMASSUNG
100
AcDbTrace
 10
275.6551153265
 20
105.3346382416
 30
0.0
 11
276.1051153265
 21
108.3346382416
 31
0.0
 12
275.2051153265
 22
108.3346382416
 32
0.0
 13
275.2051153265
 23
108.3346382416
 33
0.0
  0
LINE
  5
1CD
330
1C8
100
AcDbEntity
  8
VERMASSUNG
100
AcDbLine
 10
257.6103317434
 20
150.3346382416
 30
0.0
 11
276.6551153265
 21
150.3346382416
 31
0.0
  0
LINE
  5
1CE
330
1C8
100
AcDbEntity
  8
VERMASSUNG
100
AcDbLine
 10
257.6103317434
 20
105.3346382416
 30
0.0
 11
276.6551153265
 21
105.3346382416
 31
0.0
  0
LINE
  5
1CF
330
1C8
100
AcDbEntity
  8
VERMASSUNG
100
AcDbLine
 10
275.6551153265
 20
150.3346382416
 30
0.0
 11
275.6551153265
 21
105.3346382416
 31
0.0
  0
MTEXT
  5
1D0
330
1C8
100
AcDbEntity
  8
VERMASSUNG
100
AcDbMText
 10
273.0769799633
 20
123.1846382245
 30
0.1
 40
2.0
 41
0.0
 71
     1
 72
     1
  1
45
  7
SLDTEXTSTYLE0
 11
-7.044195017643634E-15
 21
1.0
 31
0.0
 73
     1
 44
1.0
  0
MTEXT
  5
1D1
330
1C8
100
AcDbEntity
  8
VERMASSUNG
100
AcDbMText
 10
273.0769799633
 20
129.1721384525
 30
0.1
 40
2.0
 41
0.0
 71
     1
 72
     1
  1

  7
SLDTEXTSTYLE0
 11
-7.044195017643634E-15
 21
1.0
 31
0.0
 73
     1
 44
1.0
  0
MTEXT
  5
1D2
330
1C8
100
AcDbEntity
  8
VERMASSUNG
100
AcDbMText
 10
273.5715138261
 20
129.1846382767
 30
0.1
 40
1.5
 41
0.0
 71
     1
 72
     1
  1
±0.1
  7
SLDTEXTSTYLE0
 11
-7.044195017643634E-15
 21
1.0
 31
0.0
 73
     1
 44
1.0
  0
ENDBLK
  5
1CA
330
1C8
100
AcDbEntity
  8
0
100
AcDbBlockEnd
  0
BLOCK
  5
1D5
330
1D4
100
AcDbEntity
  8
0
100
AcDbBlockBegin
  2
_D_4
 70
     0
 10
0.0
 20
0.0
 30
0.0
  3
_D_4
  1

  0
SOLID
  5
1D7
330
1D4
100
AcDbEntity
  8
VERMASSUNG
100
AcDbTrace
 10
149.1698257831
 20
136.8346382416
 30
0.0
 11
148.7198257831
 21
133.8346382416
 31
0.0
 12
149.6198257831
 22
133.8346382416
 32
0.0
 13
149.6198257831
 23
133.8346382416
 33
0.0
  0
SOLID
  5
1D8
330
1D4
100
AcDbEntity
  8
VERMASSUNG
100
AcDbTrace
 10
149.1698257831
 20
73.8346382416
 30
0.0
 11
149.6198257831
 21
76.8346382416
 31
0.0
 12
148.7198257831
 22
76.8346382416
 32
0.0
 13
148.7198257831
 23
76.8346382416
 33
0.0
  0
LINE
  5
1D9
330
1D4
100
AcDbEntity
  8
VERMASSUNG
100
AcDbLine
 10
193.1103317434
 20
136.8346382416
 30
0.0
 11
148.1698257831
 21
136.8346382416
 31
0.0
  0
LINE
  5
1DA
330
1D4
100
AcDbEntity
  8
VERMASSUNG
100
AcDbLine
 10
193.1103317434
 20
73.8346382416
 30
0.0
 11
148.1698257831
 21
73.8346382416
 31
0.0
  0
LINE
  5
1DB
330
1D4
100
AcDbEntity
  8
VERMASSUNG
100
AcDbLine
 10
149.1698257831
 20
136.8346382416
 30
0.0
 11
149.1698257831
 21
73.8346382416
 31
0.0
  0
MTEXT
  5
1DC
330
1D4
100
AcDbEntity
  8
VERMASSUNG
100
AcDbMText
 10
146.3916902941
 20
98.9296381324
 30
1.4570763991
 40
2.0
 41
0.0
 71
     1
 72
     1
  1
PSC
  7
SLDTEXTSTYLE0
 11
-7.044195017643634E-15
 21
1.0
 31
0.0
 73
     1
 44
1.0
  0
MTEXT
  5
1DD
330
1D4
100
AcDbEntity
  8
VERMASSUNG
100
AcDbMText
 10
146.5916903036
 20
103.5296382345
 30
1.4570763991
 40
2.0
 41
0.0
 71
     1
 72
     1
  1
%%c
  7
SLDTEXTSTYLE0
 11
-7.044195017643634E-15
 21
1.0
 31
0.0
 73
     1
 44
1.0
  0
MTEXT
  5
1DE
330
1D4
100
AcDbEntity
  8
VERMASSUNG
100
AcDbMText
 10
146.3916902941
 20
107.1396387144
 30
1.4570763991
 40
2.0
 41
0.0
 71
     1
 72
     1
  1
63
  7
SLDTEXTSTYLE0
 11
-7.044195017643634E-15
 21
1.0
 31
0.0
 73
     1
 44
1.0
  0
ENDBLK
  5
1D6
330
1D4
100
AcDbEntity
  8
0
100
AcDbBlockEnd
  0
BLOCK
  5
23E
330
23D
100
AcDbEntity
  8
0
100
AcDbBlockBegin
  2
_D_5
 70
     0
 10
0.0
 20
0.0
 30
0.0
  3
_D_5
  1

  0
SOLID
  5
240
330
23D
100
AcDbEntity
  8
VERMASSUNG
100
AcDbTrace
 10
100.3807450825
 20
78.9524869931
 30
0.0
 11
101.9273114599
 21
76.34276815
 31
0.0
 12
102.6249350941
 22
76.9113816083
 32
0.0
 13
102.6249350941
 23
76.9113816083
 33
0.0
  0
SOLID
  5
241
330
23D
100
AcDbEntity
  8
VERMASSUNG
100
AcDbTrace
 10
49.8373265626
 20
140.9634766992
 30
0.0
 11
48.2907601852
 21
143.5731955423
 31
0.0
 12
47.593136551
 22
143.004582084
 32
0.0
 13
47.593136551
 23
143.004582084
 33
0.0
  0
LINE
  5
242
330
23D
100
AcDbEntity
  8
VERMASSUNG
100
AcDbLine
 10
100.3026646662
 20
78.8888458357
 30
0.0
 11
101.1558824538
 21
79.5842797246
 31
0.0
  0
LINE
  5
243
330
23D
100
AcDbEntity
  8
VERMASSUNG
100
AcDbLine
 10
49.7592461463
 20
140.8998355417
 30
0.0
 11
50.6124639339
 21
141.5952694307
 31
0.0
  0
LINE
  5
244
330
23D
100
AcDbEntity
  8
VERMASSUNG
100
AcDbLine
 10
100.3807450825
 20
78.9524869931
 30
0.0
 11
104.1715014715
 21
74.3016627652
 31
0.0
  0
LINE
  5
245
330
23D
100
AcDbEntity
  8
VERMASSUNG
100
AcDbLine
 10
100.3807450825
 20
78.9524869931
 30
0.0
 11
49.8373265626
 21
140.9634766992
 31
0.0
  0
LINE
  5
246
330
23D
100
AcDbEntity
  8
VERMASSUNG
100
AcDbLine
 10
49.8373265626
 20
140.9634766992
 30
0.0
 11
39.3455864084
 21
153.8356410631
 31
0.0
  0
MTEXT
  5
247
330
23D
100
AcDbEntity
  8
VERMASSUNG
100
AcDbMText
 10
41.3439955669
 20
155.4644883199
 30
0.1
 40
2.0
 41
0.0
 71
     1
 72
     1
  1
%%c
  7
SLDTEXTSTYLE0
 11
0.631792731498436
 21
-0.7751373713257188
 31
0.0
 73
     1
 44
1.0
  0
MTEXT
  5
248
330
23D
100
AcDbEntity
  8
VERMASSUNG
100
AcDbMText
 10
43.7797948183
 20
152.7926009506
 30
0.1
 40
2.0
 41
0.0
 71
     1
 72
     1
  1
80
  7
SLDTEXTSTYLE0
 11
0.631792731498436
 21
-0.7751373713257188
 31
0.0
 73
     1
 44
1.0
  0
MTEXT
  5
249
330
23D
100
AcDbEntity
  8
VERMASSUNG
100
AcDbMText
 10
47.4362956105
 20
148.306492974
 30
0.1
 40
2.0
 41
0.0
 71
     1
 72
     1
  1
min.
  7
SLDTEXTSTYLE0
 11
0.631792731498436
 21
-0.7751373713257188
 31
0.0
 73
     1
 44
1.0
  0
ENDBLK
  5
23F
330
23D
100
AcDbEntity
  8
0
100
AcDbBlockEnd
  0
BLOCK
  5
24B
330
24A
100
AcDbEntity
  8
0
100
AcDbBlockBegin
  2
SW_CENTERMARKSYMBOL_0
 70
     0
 10
0.0
 20
0.0
 30
0.0
  3
SW_CENTERMARKSYMBOL_0
  1

  0
LINE
  5
24D
330
24A
100
AcDbEntity
  8
VERMASSUNG
 62
     0
100
AcDbLine
 10
0.0
 20
0.0
 30
0.0
 11
0.0
 21
2.5
 31
0.0
  0
LINE
  5
24E
330
24A
100
AcDbEntity
  8
VERMASSUNG
 62
     0
100
AcDbLine
 10
0.0
 20
0.0
 30
0.0
 11
-2.5
 21
0.0
 31
0.0
  0
LINE
  5
24F
330
24A
100
AcDbEntity
  8
VERMASSUNG
 62
     0
100
AcDbLine
 10
0.0
 20
0.0
 30
0.0
 11
0.0
 21
-2.5
 31
0.0
  0
LINE
  5
250
330
24A
100
AcDbEntity
  8
VERMASSUNG
 62
     0
100
AcDbLine
 10
0.0
 20
0.0
 30
0.0
 11
2.5
 21
0.0
 31
0.0
  0
LINE
  5
251
330
24A
100
AcDbEntity
  8
VERMASSUNG
 62
     0
100
AcDbLine
 10
0.0
 20
5.0
 30
0.0
 11
0.0
 21
52.3507158658
 31
0.0
  0
LINE
  5
252
330
24A
100
AcDbEntity
  8
VERMASSUNG
 62
     0
100
AcDbLine
 10
-5.0
 20
0.0
 30
0.0
 11
-34.0
 21
0.0
 31
0.0
  0
LINE
  5
253
330
24A
100
AcDbEntity
  8
VERMASSUNG
 62
     0
100
AcDbLine
 10
0.0
 20
-5.0
 30
0.0
 11
0.0
 21
-34.0
 31
0.0
  0
LINE
  5
254
330
24A
100
AcDbEntity
  8
VERMASSUNG
 62
     0
100
AcDbLine
 10
5.0
 20
0.0
 30
0.0
 11
34.0
 21
0.0
 31
0.0
  0
ENDBLK
  5
24C
330
24A
100
AcDbEntity
  8
0
100
AcDbBlockEnd
  0
ENDSEC
  0
SECTION
  2
ENTITIES
  0
MTEXT
  5
49
330
1F
100
AcDbEntity
  8
KOPF_DÜNN
100
AcDbMText
 10
13.8892156294
 20
23.8442973028
 30
0.0
 40
3.0
 41
0.0
 71
     1
 72
     1
  1
PS6.PDF.RHA.065
  7
SLDTEXTSTYLE0
 73
     1
 44
1.0
  0
MTEXT
  5
4A
330
1F
100
AcDbEntity
  8
VERMASSUNG
100
AcDbMText
 10
13.9329988022
 20
28.8834360957
 30
0.0
 40
3.0
 41
0.0
 71
     1
 72
     1
  1
Klemmhalter rechts_Turning tool right 107.5° /55°
  7
SLDTEXTSTYLE0
 73
     1
 44
1.0
  0
MTEXT
  5
4B
330
1F
100
AcDbEntity
  8
VERMASSUNG
100
AcDbMText
 10
98.8601118557
 20
13.8365368179
 30
0.0
 40
2.0
 41
0.0
 71
     1
 72
     1
  1
Datum: 23.05.2012
  7
SLDTEXTSTYLE0
 73
     1
 44
1.0
  0
MTEXT
  5
4C
330
1F
100
AcDbEntity
  8
VERMASSUNG
100
AcDbMText
 10
13.933048693
 20
18.0482802738
 30
0.0
 40
2.0
 41
0.0
 71
     1
 72
     1
  1
PSC ø63 / DN..15 06..
  7
SLDTEXTSTYLE0
 73
     1
 44
1.0
  0
MTEXT
  5
4D
330
1F
100
AcDbEntity
  8
VERMASSUNG
100
AcDbMText
 10
13.9808475933
 20
13.9090973692
 30
0.0
 40
2.0
 41
0.0
 71
     1
 72
     1
  1
Gewicht: 1271g
  7
SLDTEXTSTYLE0
 73
     1
 44
1.0
  0
LINE
  5
4E
330
1F
100
AcDbEntity
  8
0
  6
Continuous
 62
     7
370
    15
100
AcDbLine
 10
252.6541733438
 20
135.5469306893
 30
0.0
 11
253.2444157893
 21
136.1282044984
 31
0.0
  0
LINE
  5
4F
330
1F
100
AcDbEntity
  8
0
  6
Continuous
 62
     7
370
    15
100
AcDbLine
 10
243.3082097465
 20
146.2948979772
 30
0.0
 11
242.2055424446
 21
145.2089833058
 31
0.0
  0
LINE
  5
50
330
1F
100
AcDbEntity
  8
0
  6
Continuous
 62
     7
370
    15
100
AcDbLine
 10
246.4852378959
 20
142.3716345764
 30
0.0
 11
245.7904191012
 21
141.813038472
 31
0.0
  0
ARC
  5
51
330
1F
100
AcDbEntity
  8
0
  6
Continuous
 62
     7
370
    15
100
AcDbCircle
 10
213.6103317434
 20
118.9787606542
 30
0.0
 40
2.499999999999996
100
AcDbArc
 50
111.6085190543
 51
158.6286669097
  0
ARC
  5
52
330
1F
100
AcDbEntity
  8
0
  6
Continuous
 62
     7
370
    15
100
AcDbCircle
 10
213.6103317434
 20
118.9787606542
 30
0.0
 40
2.500000000000003
100
AcDbArc
 50
21.3713330902
 51
111.6085190543
  0
ARC
  5
53
330
1F
100
AcDbEntity
  8
0
  6
Continuous
 62
     7
370
    15
100
AcDbCircle
 10
193.1103317434
 20
74.3346382416
 30
0.0
 40
0.5000000000000142
100
AcDbArc
 50
180.0
 51
270.0
  0
ARC
  5
54
330
1F
100
AcDbEntity
  8
0
  6
Continuous
 62
     7
370
    15
100
AcDbCircle
 10
193.1103317434
 20
136.3346382416
 30
0.0
 40
0.5
100
AcDbArc
 50
90.0
 51
180.0
  0
LINE
  5
55
330
1F
100
AcDbEntity
  8
0
  6
Continuous
 62
     7
370
    15
100
AcDbLine
 10
229.8430064017
 20
136.8346387483
 30
0.0
 11
193.1103317671
 21
136.8346387483
 31
0.0
  0
LINE
  5
56
330
1F
100
AcDbEntity
  8
0
  6
Continuous
 62
     7
370
    15
100
AcDbLine
 10
193.1103317671
 20
73.834637735
 30
0.0
 11
229.8430064017
 21
73.834637735
 31
0.0
  0
LWPOLYLINE
  5
57
330
1F
100
AcDbEntity
  8
0
  6
Continuous
 62
     7
370
    15
100
AcDbPolyline
 90
        3
 70
   128
 43
0.0
 10
192.4103317484
 20
82.7948177196
 10
192.5357866836
 20
82.7265163846
 10
192.6103317434
 20
82.6737774498
  0
LWPOLYLINE
  5
58
330
1F
100
AcDbEntity
  8
0
  6
Continuous
 62
     7
370
    15
100
AcDbPolyline
 90
        3
 70
   128
 43
0.0
 10
192.6103317434
 20
127.9954990334
 10
192.5357866836
 20
127.9427600987
 10
192.4103317484
 20
127.8744587637
  0
ARC
  5
59
330
1F
100
AcDbEntity
  8
0
  6
Continuous
 62
     7
370
    15
100
AcDbCircle
 10
229.8430047554
 20
137.8346382416
 30
0.0
 40
1.000000000000023
100
AcDbArc
 50
270.0
 51
345.0
  0
ARC
  5
5A
330
1F
100
AcDbEntity
  8
0
  6
Continuous
 62
     7
370
    15
100
AcDbCircle
 10
229.8430047554
 20
72.8346382416
 30
0.0
 40
0.999999999999994
100
AcDbArc
 50
30.0
 51
90.0
  0
LINE
  5
5B
330
1F
100
AcDbEntity
  8
0
  6
Continuous
 62
     7
370
    15
100
AcDbLine
 10
230.7090283627
 20
73.3346367217
 30
0.0
 11
230.9941211039
 21
73.3346367217
 31
0.0
  0
LINE
  5
5C
330
1F
100
AcDbEntity
  8
0
  6
Continuous
 62
     7
370
    15
100
AcDbLine
 10
231.8626688117
 20
141.508417759
 30
0.0
 11
230.8089294726
 21
137.5758187808
 31
0.0
  0
LINE
  5
5D
330
1F
100
AcDbEntity
  8
0
  6
Continuous
 62
     7
370
    15
100
AcDbLine
 10
242.6254161889
 20
145.2295580841
 30
0.0
 11
231.8639540369
 21
141.5240900553
 31
0.0
  0
LINE
  5
5E
330
1F
100
AcDbEntity
  8
0
  6
Continuous
 62
     7
370
    15
100
AcDbLine
 10
239.4542441959
 20
132.101920057
 30
0.0
 11
253.0835130507
 21
136.0342619903
 31
0.0
  0
ARC
  5
5F
330
1F
100
AcDbEntity
  8
0
  6
Continuous
 62
     7
370
    15
100
AcDbCircle
 10
239.3464076851
 20
132.4925780824
 30
0.0
 40
0.4052683133776243
100
AcDbArc
 50
163.2284778568
 51
285.4315350697
  0
LINE
  5
60
330
1F
100
AcDbEntity
  8
0
  6
Continuous
 62
     7
370
    15
100
AcDbLine
 10
243.2127752597
 20
146.1385587193
 30
0.0
 11
238.9583782548
 21
132.6095206625
 31
0.0
  0
ARC
  5
61
330
1F
100
AcDbEntity
  8
0
  6
Continuous
 62
     7
370
    15
100
AcDbCircle
 10
243.5733089681
 20
146.0257152357
 30
0.0
 40
0.3777806330468423
100
AcDbArc
 50
106.0104179528
 51
162.6203962544
  0
LINE
  5
62
330
1F
100
AcDbEntity
  8
0
  6
Continuous
 62
     7
370
    15
100
AcDbLine
 10
257.0983776147
 20
150.3211842812
 30
0.0
 11
243.4691124851
 21
146.388842348
 31
0.0
  0
ARC
  5
63
330
1F
100
AcDbEntity
  8
0
  6
Continuous
 62
     7
370
    15
100
AcDbCircle
 10
257.2062131913
 20
149.9305196478
 30
0.0
 40
0.4052744346737159
100
AcDbArc
 50
343.2297143832
 51
105.4311591931
  0
LINE
  5
64
330
1F
100
AcDbEntity
  8
0
  6
Continuous
 62
     7
370
    15
100
AcDbLine
 10
253.3398502761
 20
136.284545619
 30
0.0
 11
257.5942510063
 21
149.8135836757
 31
0.0
  0
ARC
  5
65
330
1F
100
AcDbEntity
  8
0
  6
Continuous
 62
     7
370
    15
100
AcDbCircle
 10
252.9793075993
 20
136.3973982878
 30
0.0
 40
0.3777919356604798
100
AcDbArc
 50
286.0113411161
 51
342.6194730911
  0
ARC
  5
66
330
1F
100
AcDbEntity
  8
0
  6
Continuous
 62
     7
370
    15
100
AcDbCircle
 10
257.2068068552
 20
149.9311019919
 30
0.0
 40
0.3850133440950468
100
AcDbArc
 50
343.2299424762
 51
105.4303063613
  0
LINE
  5
67
330
1F
100
AcDbEntity
  8
0
  6
Continuous
 62
     7
370
    15
100
AcDbLine
 10
257.1043678815
 20
150.3022374548
 30
0.0
 11
243.4750990266
 21
146.3698955215
 31
0.0
  0
ARC
  5
68
330
1F
100
AcDbEntity
  8
0
  6
Continuous
 62
     7
370
    15
100
AcDbCircle
 10
243.574102461
 20
146.0249106868
 30
0.0
 40
0.3589097605245318
100
AcDbArc
 50
106.0123722381
 51
162.6191044494
  0
LINE
  5
69
330
1F
100
AcDbEntity
  8
0
  6
Continuous
 62
     7
370
    15
100
AcDbLine
 10
243.2315805251
 20
146.1321251429
 30
0.0
 11
238.9771835202
 21
132.6030889488
 31
0.0
  0
ARC
  5
6A
330
1F
100
AcDbEntity
  8
0
  6
Continuous
 62
     7
370
    15
100
AcDbCircle
 10
239.3458112217
 20
132.491991783
 30
0.0
 40
0.385005146161351
100
AcDbArc
 50
163.2282224803
 51
285.4317946349
  0
LINE
  5
6B
330
1F
100
AcDbEntity
  8
0
  6
Continuous
 62
     7
370
    15
100
AcDbLine
 10
239.4482576543
 20
132.1208668835
 30
0.0
 11
253.0775227839
 21
136.0532088168
 31
0.0
  0
ARC
  5
6C
330
1F
100
AcDbEntity
  8
0
  6
Continuous
 62
     7
370
    15
100
AcDbCircle
 10
252.9785368668
 20
136.3981810769
 30
0.0
 40
0.3588928420824732
100
AcDbArc
 50
286.0102379274
 51
342.6203625192
  0
LINE
  5
6D
330
1F
100
AcDbEntity
  8
0
  6
Continuous
 62
     7
370
    15
100
AcDbLine
 10
253.3210450107
 20
136.2909791953
 30
0.0
 11
257.5754457409
 21
149.8200135268
 31
0.0
  0
LINE
  5
6E
330
1F
100
AcDbEntity
  8
0
  6
Continuous
 62
     7
370
    15
100
AcDbLine
 10
240.7068656081
 20
133.8196737654
 30
0.0
 11
239.2963812942
 21
132.4433447755
 31
0.0
  0
LINE
  5
6F
330
1F
100
AcDbEntity
  8
0
  6
Continuous
 62
     7
370
    15
100
AcDbLine
 10
240.7068656081
 20
133.8196737654
 30
0.0
 11
241.340358674
 21
134.002449546
 31
0.0
  0
LINE
  5
70
330
1F
100
AcDbEntity
  8
0
  6
Continuous
 62
     7
370
    15
100
AcDbLine
 10
252.5418781931
 20
136.6815181411
 30
0.0
 11
252.925650149
 21
136.3756867088
 31
0.0
  0
LINE
  5
71
330
1F
100
AcDbEntity
  8
0
  6
Continuous
 62
     7
370
    15
100
AcDbLine
 10
242.1101079578
 20
145.0526440478
 30
0.0
 11
242.1099254185
 21
145.0520629026
 31
0.0
  0
LINE
  5
72
330
1F
100
AcDbEntity
  8
0
  6
Continuous
 62
     7
370
    15
100
AcDbLine
 10
239.1322338277
 20
135.5829654224
 30
0.0
 11
237.9132890398
 21
131.7067114599
 31
0.0
  0
LINE
  5
73
330
1F
100
AcDbEntity
  8
0
  6
Continuous
 62
     7
370
    15
100
AcDbLine
 10
243.8479000026
 20
145.5812143124
 30
0.0
 11
243.5507820243
 21
145.9723809696
 31
0.0
  0
LINE
  5
74
330
1F
100
AcDbEntity
  8
0
  6
Continuous
 62
     7
370
    15
100
AcDbLine
 10
240.9046114678
 20
134.4485064931
 30
0.0
 11
240.7068656081
 21
133.8196737654
 31
0.0
  0
ARC
  5
75
330
1F
100
AcDbEntity
  8
0
  6
Continuous
 62
     7
370
    15
100
AcDbCircle
 10
243.3017115211
 20
136.3545906032
 30
0.0
 40
1.013172691933935
100
AcDbArc
 50
163.2284871343
 51
285.4316138472
  0
ARC
  5
76
330
1F
100
AcDbEntity
  8
0
  6
Continuous
 62
     7
370
    15
100
AcDbCircle
 10
241.3570125842
 20
134.4545945362
 30
0.0
 40
0.1683206888453535
100
AcDbArc
 50
43.8896379813
 51
44.6796677475
  0
SPLINE
  5
77
330
1F
100
AcDbEntity
  8
0
  6
Continuous
 62
     7
370
    15
100
AcDbSpline
210
0.0
220
0.0
230
1.0
 70
     8
 71
     3
 72
    14
 73
    10
 74
     0
 42
0.00000001
 43
0.00000001
 12
1.0
 22
0.0
 32
0.0
 13
1.0
 23
0.0
 33
0.0
 40
0.0
 40
0.0
 40
0.0
 40
0.0
 40
0.2210583422941149
 40
0.346082667760412
 40
0.4396022512840086
 40
0.5338916881985815
 40
0.6146551541843512
 40
0.7517269712497895
 40
1.0
 40
1.0
 40
1.0
 40
1.0
 10
241.4766968483097
 20
134.572947952851
 30
0.0
 10
241.4340904965398
 20
134.6139454474058
 30
0.0
 10
241.3673872012421
 20
134.6781299615019
 30
0.0
 10
241.2637561858331
 20
134.7349774078276
 30
0.0
 10
241.1817396532485
 20
134.7528716949314
 30
0.0
 10
241.1107210343952
 20
134.7403663859526
 30
0.0
 10
241.0408234479916
 20
134.6979251560938
 30
0.0
 10
240.9616079577734
 20
134.6040959954865
 30
0.0
 10
240.926944630649
 20
134.5094717507744
 30
0.0
 10
240.9046114677555
 20
134.448506493076
 30
0.0
  0
SPLINE
  5
78
330
1F
100
AcDbEntity
  8
0
  6
Continuous
 62
     7
370
    15
100
AcDbSpline
210
0.0
220
0.0
230
1.0
 70
     8
 71
     3
 72
    14
 73
    10
 74
     0
 42
0.00000001
 43
0.00000001
 12
1.0
 22
0.0
 32
0.0
 13
1.0
 23
0.0
 33
0.0
 40
0.0
 40
0.0
 40
0.0
 40
0.0
 40
0.2234965393540742
 40
0.3567619905680397
 40
0.4531196791845249
 40
0.5344619193164029
 40
0.6157308884867806
 40
0.7396142378733874
 40
1.0
 40
1.0
 40
1.0
 40
1.0
 10
241.3403586739666
 20
134.0024495459639
 30
0.0
 10
241.3956622701213
 20
134.0210669443857
 30
0.0
 10
241.4839420309924
 20
134.0507854364006
 30
0.0
 10
241.5803278310618
 20
134.1201032138436
 30
0.0
 10
241.6295997366755
 20
134.1852505249911
 30
0.0
 10
241.6490447696482
 20
134.2512347897589
 30
0.0
 10
241.6439394140799
 20
134.3275953582292
 30
0.0
 10
241.5952046865502
 20
134.4435846123828
 30
0.0
 10
241.5255298962746
 20
134.5197057784047
 30
0.0
 10
241.4783173495896
 20
134.5712864733779
 30
0.0
  0
LINE
  5
79
330
1F
100
AcDbEntity
  8
0
  6
Continuous
 62
     7
370
    15
100
AcDbLine
 10
243.5713046486
 20
135.3779440708
 30
0.0
 11
251.1991122061
 21
137.5787356831
 31
0.0
  0
LINE
  5
7A
330
1F
100
AcDbEntity
  8
0
  6
Continuous
 62
     7
370
    15
100
AcDbLine
 10
244.7126702661
 20
144.2186595834
 30
0.0
 11
242.3316360706
 21
136.6469474472
 31
0.0
  0
ARC
  5
7B
330
1F
100
AcDbEntity
  8
0
  6
Continuous
 62
     7
370
    15
100
AcDbCircle
 10
245.6140108002
 20
143.9365487135
 30
0.0
 40
0.9444582052068529
100
AcDbArc
 50
106.0109330651
 51
162.6203846269
  0
LINE
  5
7C
330
1F
100
AcDbEntity
  8
0
  6
Continuous
 62
     7
370
    15
100
AcDbLine
 10
252.981317162
 20
147.0451602675
 30
0.0
 11
245.3535096044
 21
144.8443705178
 31
0.0
  0
ARC
  5
7D
330
1F
100
AcDbEntity
  8
0
  6
Continuous
 62
     7
370
    15
100
AcDbCircle
 10
253.2509081989
 20
146.068508416
 30
0.0
 40
1.013177263000196
100
AcDbArc
 50
343.2287691861
 51
105.4314198501
  0
LINE
  5
7E
330
1F
100
AcDbEntity
  8
0
  6
Continuous
 62
     7
370
    15
100
AcDbLine
 10
251.8399552697
 20
138.2044428922
 30
0.0
 11
254.2209894652
 21
145.7761550284
 31
0.0
  0
ARC
  5
7F
330
1F
100
AcDbEntity
  8
0
  6
Continuous
 62
     7
370
    15
100
AcDbCircle
 10
250.9386296529
 20
138.4865454398
 30
0.0
 40
0.9444414831176096
100
AcDbArc
 50
286.0100475541
 51
342.6205961403
  0
LWPOLYLINE
  5
80
330
1F
100
AcDbEntity
  8
0
  6
Continuous
 62
     7
370
    15
100
AcDbPolyline
 90
       27
 70
   128
 43
0.0
 10
250.7021733815
 20
140.3817037083
 10
250.812501579
 20
140.9808272458
 10
250.7754349405
 20
141.5933581031
 10
250.5931304092
 20
142.1837011314
 10
250.2761789853
 20
142.7175501324
 10
249.8430059547
 20
143.1638697125
 10
249.3187793786
 20
143.4967318512
 10
248.7339684064
 20
143.6967873908
 10
248.1225625867
 20
143.752405975
 10
247.5200900132
 20
143.6603652276
 10
246.9615646893
 20
143.4260034896
 10
246.47945252
 20
143.062947873
 10
246.1017639631
 20
142.5922946967
 10
245.8504521543
 20
142.0413987673
 10
245.7401239568
 20
141.4422752298
 10
245.77718687
 20
140.8297443725
 10
245.9594951266
 20
140.2394013442
 10
246.2764428252
 20
139.7055560685
 10
246.7096195811
 20
139.2592327632
 10
247.2338461572
 20
138.9263706244
 10
247.8186534042
 20
138.7263188101
 10
248.4300629491
 20
138.6706965006
 10
249.0325355226
 20
138.7627409733
 10
249.5910571212
 20
138.997098986
 10
250.0731730158
 20
139.3601546026
 10
250.4508615727
 20
139.8308077789
 10
250.7021733815
 20
140.3817037083
  0
LWPOLYLINE
  5
81
330
1F
100
AcDbEntity
  8
0
  6
Continuous
 62
     7
370
    15
100
AcDbPolyline
 90
        3
 70
   128
 43
0.0
 10
246.9609872693
 20
142.6640363372
 10
246.4174227113
 20
142.5744505561
 10
246.0034013981
 20
142.4167329408
  0
SPLINE
  5
82
330
1F
100
AcDbEntity
  8
0
  6
Continuous
 62
     7
370
    15
100
AcDbSpline
210
0.0
220
0.0
230
1.0
 70
     8
 71
     3
 72
    11
 73
     7
 74
     0
 42
0.00000001
 43
0.00000001
 12
1.0
 22
0.0
 32
0.0
 13
1.0
 23
0.0
 33
0.0
 40
0.0
 40
0.0
 40
0.0
 40
0.0
 40
0.3280467139735113
 40
0.655705785042437
 40
0.9906986144447405
 40
0.9999999999999999
 40
0.9999999999999999
 40
0.9999999999999999
 40
0.9999999999999999
 10
252.5418781930573
 20
136.6815181411349
 30
0.0
 10
252.4848197415465
 20
136.7297870656561
 30
0.0
 10
252.3707702627757
 20
136.8262678767668
 30
0.0
 10
252.2016818822068
 20
137.0037182946654
 30
0.0
 10
252.1035701207263
 20
137.1239783924966
 30
0.0
 10
252.0603814573579
 20
137.1825555250717
 30
0.0
 10
252.0592146808274
 20
137.1841380334937
 30
0.0
  0
LINE
  5
83
330
1F
100
AcDbEntity
  8
0
  6
Continuous
 62
     7
370
    15
100
AcDbLine
 10
255.5679240519
 20
148.3298117257
 30
0.0
 11
257.1800508792
 21
149.9047229029
 31
0.0
  0
LINE
  5
84
330
1F
100
AcDbEntity
  8
0
  6
Continuous
 62
     7
370
    15
100
AcDbLine
 10
255.3701781923
 20
147.7009827233
 30
0.0
 11
255.5679240519
 21
148.3298117257
 31
0.0
  0
SPLINE
  5
85
330
1F
100
AcDbEntity
  8
0
  6
Continuous
 62
     7
370
    15
100
AcDbSpline
210
0.0
220
0.0
230
1.0
 70
     8
 71
     3
 72
    11
 73
     7
 74
     0
 42
0.00000001
 43
0.00000001
 12
1.0
 22
0.0
 32
0.0
 13
1.0
 23
0.0
 33
0.0
 40
0.0
 40
0.0
 40
0.0
 40
0.0
 40
0.3280461796738717
 40
0.6557026121074537
 40
0.9906973391335053
 40
1.0
 40
1.0
 40
1.0
 40
1.0
 10
243.8479000026352
 20
145.5812143124186
 30
0.0
 10
243.8948609242613
 20
145.5230012053235
 30
0.0
 10
243.9887269738761
 20
145.4066441533404
 30
0.0
 10
244.1621674429003
 20
145.2334806419932
 30
0.0
 10
244.2799964033559
 20
145.1326355370362
 30
0.0
 10
244.3375106353018
 20
145.088166663447
 30
0.0
 10
244.3390646273262
 20
145.0869651473605
 30
0.0
  0
LINE
  5
86
330
1F
100
AcDbEntity
  8
0
  6
Continuous
 62
     7
370
    15
100
AcDbLine
 10
255.5679240519
 20
148.3298117257
 30
0.0
 11
254.9344309861
 21
148.1470378078
 31
0.0
  0
ARC
  5
87
330
1F
100
AcDbEntity
  8
0
  6
Continuous
 62
     7
370
    15
100
AcDbCircle
 10
242.471331482
 20
144.9394394089
 30
0.0
 40
0.3785468593305631
100
AcDbArc
 50
134.5981303177
 51
162.5994153117
  0
LWPOLYLINE
  5
88
330
1F
100
AcDbEntity
  8
0
  6
Continuous
 62
     7
370
    15
100
AcDbPolyline
 90
        9
 70
   128
 43
0.0
 10
254.7980928117
 20
147.5765394009
 10
254.7978879208
 20
147.5767480172
 10
254.7976867551
 20
147.5769529081
 10
254.7974818641
 20
147.5771615244
 10
254.7972806985
 20
147.5773701407
 10
254.7970758075
 20
147.5775787569
 10
254.7968746418
 20
147.5777836479
 10
254.7966697508
 20
147.5779922641
 10
254.7964685852
 20
147.5782008804
  0
SPLINE
  5
89
330
1F
100
AcDbEntity
  8
0
  6
Continuous
 62
     7
370
    15
100
AcDbSpline
210
0.0
220
0.0
230
1.0
 70
     8
 71
     3
 72
    14
 73
    10
 74
     0
 42
0.00000001
 43
0.00000001
 12
1.0
 22
0.0
 32
0.0
 13
1.0
 23
0.0
 33
0.0
 40
0.0
 40
0.0
 40
0.0
 40
0.0
 40
0.2234996052269393
 40
0.3567650087118504
 40
0.4531243554412716
 40
0.5344651598194576
 40
0.6157317651224787
 40
0.739619266576451
 40
1.0
 40
1.0
 40
1.0
 40
1.0
 10
254.9344309860833
 20
148.1470378078067
 30
0.0
 10
254.8791259103963
 20
148.1284213638831
 30
0.0
 10
254.79084425196
 20
148.0987045517581
 30
0.0
 10
254.6944580054727
 20
148.0293858719572
 30
0.0
 10
254.6451853353501
 20
147.964237797216
 30
0.0
 10
254.6257460154128
 20
147.8982524483807
 30
0.0
 10
254.6308503955589
 20
147.8218924254142
 30
0.0
 10
254.6795832976424
 20
147.7059025392241
 30
0.0
 10
254.7492573455816
 20
147.6297809700554
 30
0.0
 10
254.79646858517
 20
147.5782008803927
 30
0.0
  0
SPLINE
  5
8A
330
1F
100
AcDbEntity
  8
0
  6
Continuous
 62
     7
370
    15
100
AcDbSpline
210
0.0
220
0.0
230
1.0
 70
     8
 71
     3
 72
    14
 73
    10
 74
     0
 42
0.00000001
 43
0.00000001
 12
1.0
 22
0.0
 32
0.0
 13
1.0
 23
0.0
 33
0.0
 40
0.0
 40
0.0
 40
0.0
 40
0.0
 40
0.2210598385781856
 40
0.3460778684581872
 40
0.43959790800924
 40
0.5338873102756333
 40
0.6146518204836036
 40
0.7517249816162974
 40
1.0
 40
1.0
 40
1.0
 40
1.0
 10
254.7980928117402
 20
147.5765394009196
 30
0.0
 10
254.8406987683748
 20
147.5355405364338
 30
0.0
 10
254.9074000685774
 20
147.4713552021744
 30
0.0
 10
255.0110318732614
 20
147.4145124645955
 30
0.0
 10
255.0930458695399
 20
147.3966151458076
 30
0.0
 10
255.1640656359879
 20
147.4091204953886
 30
0.0
 10
255.2339615476867
 20
147.4515654153626
 30
0.0
 10
255.3131843489033
 20
147.5453890420258
 30
0.0
 10
255.3478460750951
 20
147.6400158518353
 30
0.0
 10
255.3701781922944
 20
147.7009827233397
 30
0.0
  0
LWPOLYLINE
  5
8B
330
1F
100
AcDbEntity
  8
0
  6
Continuous
 62
     7
370
    15
100
AcDbPolyline
 90
        3
 70
   128
 43
0.0
 10
237.6931467349
 20
132.10449237
 10
237.649016946
 20
131.8417718596
 10
237.6525596971
 20
131.7246226556
  0
LINE
  5
8C
330
1F
100
AcDbEntity
  8
0
  6
Continuous
 62
     7
370
    15
100
AcDbLine
 10
239.1322338277
 20
135.5829654224
 30
0.0
 11
238.1932557816
 21
132.5970018245
 31
0.0
  0
LINE
  5
8D
330
1F
100
AcDbEntity
  8
0
  6
Continuous
 62
     7
370
    15
100
AcDbLine
 10
238.6321285063
 20
135.0904559679
 30
0.0
 11
237.6931467349
 21
132.10449237
 31
0.0
  0
LWPOLYLINE
  5
8E
330
1F
100
AcDbEntity
  8
0
  6
Continuous
 62
     7
370
    15
100
AcDbPolyline
 90
       31
 70
   128
 43
0.0
 10
244.829420864
 20
124.6104096956
 10
244.2692862147
 20
124.1742545701
 10
243.6271392995
 20
123.8669758625
 10
242.9310539061
 20
123.7020013816
 10
242.2114470297
 20
123.6865432895
 10
241.4997675711
 20
123.8212777264
 10
240.8271254295
 20
124.1003131456
 10
240.2229131455
 20
124.5114566721
 10
239.7135430271
 20
125.0367393679
 10
239.3212699587
 20
125.6532022692
 10
239.0632414514
 20
126.3339040763
 10
238.9507376844
 20
127.049094621
 10
238.9886723155
 20
127.7675168551
 10
239.1753838653
 20
128.4577721692
 10
239.5027213985
 20
129.0896950252
 10
239.9563686246
 20
129.6356623955
 10
240.5165069992
 20
130.071817521
 10
241.1586501891
 20
130.3790962286
 10
241.8547393078
 20
130.5440707095
 10
242.5743461842
 20
130.5595288015
 10
243.2860219175
 20
130.4247943647
 10
243.9586640591
 20
130.1457589454
 10
244.5628763432
 20
129.734615419
 10
245.0722501868
 20
129.2093327231
 10
245.4645232553
 20
128.5928698219
 10
245.7225480372
 20
127.9121680147
 10
245.8350555295
 20
127.19697747
 10
245.7971208984
 20
126.478555236
 10
245.6104056234
 20
125.7882999219
 10
245.2830718154
 20
125.1563789285
 10
244.829420864
 20
124.6104096956
  0
LWPOLYLINE
  5
8F
330
1F
100
AcDbEntity
  8
0
  6
Continuous
 62
     7
370
    15
100
AcDbPolyline
 90
       24
 70
   128
 43
0.0
 10
243.7851959163
 20
125.6872495599
 10
243.3576965028
 20
125.3763629086
 10
242.8586417133
 20
125.1950195021
 10
242.3250460321
 20
125.1566676385
 10
241.7964832181
 20
125.2641515769
 10
241.3121507758
 20
125.5095010586
 10
240.9079754049
 20
125.8745199032
 10
240.6139270658
 20
126.3321345634
 10
240.4518173331
 20
126.8484076447
 10
240.4336677188
 20
127.3850487507
 10
240.5608267779
 20
127.9022568799
 10
240.8238620752
 20
128.361672718
 10
241.2032642657
 20
128.7292266227
 10
241.6708962316
 20
128.9776550568
 10
242.1920755202
 20
129.0885364599
 10
242.7281485194
 20
129.053645391
 10
243.2393589312
 20
128.8755690641
 10
243.6877907509
 20
128.5675154961
 10
244.0401845867
 20
128.1523318924
 10
244.2704075271
 20
127.6608096398
 10
244.3613828415
 20
127.1294044293
 10
244.3063677544
 20
126.5975261069
 10
244.109434008
 20
126.1046217717
 10
243.7851959163
 20
125.6872495599
  0
SPLINE
  5
90
330
1F
100
AcDbEntity
  8
0
  6
Continuous
 62
     7
370
    15
100
AcDbSpline
210
0.0
220
0.0
230
1.0
 70
     8
 71
     3
 72
    11
 73
     7
 74
     0
 42
0.00000001
 43
0.00000001
 12
1.0
 22
0.0
 32
0.0
 13
1.0
 23
0.0
 33
0.0
 40
0.0
 40
0.0
 40
0.0
 40
0.0
 40
0.1081098988196455
 40
0.4711576953064796
 40
0.8135801120715652
 40
0.9999999999999999
 40
0.9999999999999999
 40
0.9999999999999999
 40
0.9999999999999999
 10
241.9053958052761
 20
128.7384672052705
 30
0.0
 10
241.8597531290228
 20
128.6941721222019
 30
0.0
 10
241.6608361160024
 20
128.5011281042179
 30
0.0
 10
241.3002887956311
 20
128.1514887110477
 30
0.0
 10
240.9390182113097
 20
127.8017657632228
 30
0.0
 10
240.7614720552761
 20
127.630139746772
 30
0.0
 10
240.6988860363133
 20
127.5696406103217
 30
0.0
  0
SPLINE
  5
91
330
1F
100
AcDbEntity
  8
0
  6
Continuous
 62
     7
370
    15
100
AcDbSpline
210
0.0
220
0.0
230
1.0
 70
     8
 71
     3
 72
    10
 73
     6
 74
     0
 42
0.00000001
 43
0.00000001
 12
1.0
 22
0.0
 32
0.0
 13
1.0
 23
0.0
 33
0.0
 40
0.0
 40
0.0
 40
0.0
 40
0.0
 40
0.439116949704277
 40
0.7513665812214325
 40
1.0
 40
1.0
 40
1.0
 40
1.0
 10
240.6988860363133
 20
127.5696406103217
 30
0.0
 10
240.7441763222931
 20
127.3142508799294
 30
0.0
 10
240.8216718673004
 20
126.8772572527574
 30
0.0
 10
240.9922598345232
 20
126.2990697695451
 30
0.0
 10
241.0945262317369
 20
126.0283815527142
 30
0.0
 10
241.1398598248131
 20
125.9083883799159
 30
0.0
  0
SPLINE
  5
92
330
1F
100
AcDbEntity
  8
0
  6
Continuous
 62
     7
370
    15
100
AcDbSpline
210
0.0
220
0.0
230
1.0
 70
     8
 71
     3
 72
    10
 73
     6
 74
     0
 42
0.00000001
 43
0.00000001
 12
1.0
 22
0.0
 32
0.0
 13
1.0
 23
0.0
 33
0.0
 40
0.0
 40
0.0
 40
0.0
 40
0.0
 40
0.4391163737159922
 40
0.7513655712910962
 40
1.0
 40
1.0
 40
1.0
 40
1.0
 10
241.1398598248131
 20
125.9083883799159
 30
0.0
 10
241.3578695375103
 20
125.8203252586503
 30
0.0
 10
241.7309027517845
 20
125.6696417465337
 30
0.0
 10
242.3311146487709
 20
125.5076547443482
 30
0.0
 10
242.6472152415008
 20
125.4441236275199
 30
0.0
 10
242.7873396569855
 20
125.4159608818137
 30
0.0
  0
SPLINE
  5
93
330
1F
100
AcDbEntity
  8
0
  6
Continuous
 62
     7
370
    15
100
AcDbSpline
210
0.0
220
0.0
230
1.0
 70
     8
 71
     3
 72
    11
 73
     7
 74
     0
 42
0.00000001
 43
0.00000001
 12
1.0
 22
0.0
 32
0.0
 13
1.0
 23
0.0
 33
0.0
 40
0.0
 40
0.0
 40
0.0
 40
0.0
 40
0.1864189253289822
 40
0.5288417472362611
 40
0.8918899732685142
 40
1.0
 40
1.0
 40
1.0
 40
1.0
 10
242.7873396569855
 20
125.4159608818137
 30
0.0
 10
242.8499242885265
 20
125.4764601093837
 30
0.0
 10
243.0274672382882
 20
125.6480870896279
 30
0.0
 10
243.3887391833201
 20
125.9978087666522
 30
0.0
 10
243.7492859805351
 20
126.3474483892379
 30
0.0
 10
243.9482030186473
 20
126.5404923962187
 30
0.0
 10
243.9938457006581
 20
126.5847874767625
 30
0.0
  0
SPLINE
  5
94
330
1F
100
AcDbEntity
  8
0
  6
Continuous
 62
     7
370
    15
100
AcDbSpline
210
0.0
220
0.0
230
1.0
 70
     8
 71
     3
 72
    10
 73
     6
 74
     0
 42
0.00000001
 43
0.00000001
 12
1.0
 22
0.0
 32
0.0
 13
1.0
 23
0.0
 33
0.0
 40
0.0
 40
0.0
 40
0.0
 40
0.0
 40
0.4391165807107772
 40
0.751366771305891
 40
1.0
 40
1.0
 40
1.0
 40
1.0
 10
243.9938457006581
 20
126.5847874767625
 30
0.0
 10
243.9128780359189
 20
126.8050400163289
 30
0.0
 10
243.7743352991886
 20
127.1819113229375
 30
0.0
 10
243.6308800558058
 20
127.786821826654
 30
0.0
 10
243.5768337492883
 20
128.104996499977
 30
0.0
 10
243.5528756374485
 20
128.2460397071683
 30
0.0
  0
SPLINE
  5
95
330
1F
100
AcDbEntity
  8
0
  6
Continuous
 62
     7
370
    15
100
AcDbSpline
210
0.0
220
0.0
230
1.0
 70
     8
 71
     3
 72
    10
 73
     6
 74
     0
 42
0.00000001
 43
0.00000001
 12
1.0
 22
0.0
 32
0.0
 13
1.0
 23
0.0
 33
0.0
 40
0.0
 40
0.0
 40
0.0
 40
0.0
 40
0.4391163048390539
 40
0.7513665250016742
 40
1.0
 40
1.0
 40
1.0
 40
1.0
 10
243.5528756374485
 20
128.2460397071683
 30
0.0
 10
243.2991865656748
 20
128.2989654884506
 30
0.0
 10
242.8651023055619
 20
128.3895261438554
 30
0.0
 10
242.2920272809232
 20
128.5782371076631
 30
0.0
 10
242.0241450188536
 20
128.6892544554537
 30
0.0
 10
241.9053958052762
 20
128.7384672052705
 30
0.0
  0
LINE
  5
96
330
1F
100
AcDbEntity
  8
0
  6
Continuous
 62
     7
370
    15
100
AcDbLine
 10
241.2573331291
 20
128.1002486087
 30
0.0
 11
241.9053958053
 21
128.7384672053
 31
0.0
  0
LINE
  5
97
330
1F
100
AcDbEntity
  8
0
  6
Continuous
 62
     7
370
    15
100
AcDbLine
 10
241.2573331291
 20
128.1002486087
 30
0.0
 11
240.6540782446
 21
127.5158362425
 31
0.0
  0
LINE
  5
98
330
1F
100
AcDbEntity
  8
0
  6
Continuous
 62
     7
370
    15
100
AcDbLine
 10
243.3457830245
 20
125.9465688802
 30
0.0
 11
243.1252979929
 21
126.7771949954
 31
0.0
  0
LINE
  5
99
330
1F
100
AcDbEntity
  8
0
  6
Continuous
 62
     7
370
    15
100
AcDbLine
 10
243.1252979929
 20
126.7771949954
 30
0.0
 11
242.9048129613
 21
127.6078211106
 31
0.0
  0
LINE
  5
9A
330
1F
100
AcDbEntity
  8
0
  6
Continuous
 62
     7
370
    15
100
AcDbLine
 10
242.9048129613
 20
127.6078211106
 30
0.0
 11
243.5528756374
 21
128.2460397072
 31
0.0
  0
LINE
  5
9B
330
1F
100
AcDbEntity
  8
0
  6
Continuous
 62
     7
370
    15
100
AcDbLine
 10
242.9048129613
 20
127.6078211106
 30
0.0
 11
242.0810730452
 21
127.8540348596
 31
0.0
  0
LINE
  5
9C
330
1F
100
AcDbEntity
  8
0
  6
Continuous
 62
     7
370
    15
100
AcDbLine
 10
242.0810730452
 20
127.8540348596
 30
0.0
 11
241.2573331291
 21
128.1002486087
 31
0.0
  0
ARC
  5
9D
330
1F
100
AcDbEntity
  8
0
  6
Continuous
 62
     7
370
    15
100
AcDbCircle
 10
241.6556805385
 20
126.4693061418
 30
0.0
 40
1.448596702625572
100
AcDbArc
 50
72.9228968516
 51
133.7433620218
  0
ARC
  5
9E
330
1F
100
AcDbEntity
  8
0
  6
Continuous
 62
     7
370
    15
100
AcDbCircle
 10
241.6379454406
 20
126.3796096738
 30
0.0
 40
1.539575169562557
100
AcDbArc
 50
14.9658647318
 51
73.272237377
  0
ARC
  5
9F
330
1F
100
AcDbEntity
  8
0
  6
Continuous
 62
     7
370
    15
100
AcDbCircle
 10
241.7296341049
 20
126.395434868
 30
0.0
 40
1.44693416683261
100
AcDbArc
 50
314.4292285398
 51
15.2980785479
  0
ELLIPSE
  5
A0
330
1F
100
AcDbEntity
  8
0
  6
Continuous
 62
     7
370
    15
100
AcDbEllipse
 10
247.9665293189
 20
140.5472416059
 30
0.0
 11
-1.621902103311015
 21
1.701233089551749
 31
0.0
210
0.0
220
0.0
230
1.0
 40
0.9707799176
 41
5.117145645766817
 42
6.806833927922982
  0
ELLIPSE
  5
A1
330
1F
100
AcDbEntity
  8
0
  6
Continuous
 62
     7
370
    15
100
AcDbEllipse
 10
247.9665293189
 20
140.5472416059
 30
0.0
 11
-1.621902103311015
 21
1.701233089551749
 31
0.0
210
0.0
220
0.0
230
1.0
 40
0.9707799176
 41
3.344223947466205
 42
5.11714564576684
  0
LINE
  5
A2
330
1F
100
AcDbEntity
  8
0
  6
Continuous
 62
     7
370
    15
100
AcDbLine
 10
246.184416979
 20
142.1297924555
 30
0.0
 11
245.872956633
 21
142.0247355438
 31
0.0
  0
ARC
  5
A3
330
1F
100
AcDbEntity
  8
0
  6
Continuous
 62
     7
370
    15
100
AcDbCircle
 10
213.5988252549
 20
120.2665392886
 30
0.0
 40
3.030888980479209
100
AcDbArc
 50
6.4831608512
 51
169.1888509917
  0
LWPOLYLINE
  5
A4
330
1F
100
AcDbEntity
  8
0
  6
Continuous
 62
     7
370
    15
100
AcDbPolyline
 90
       18
 70
   128
 43
0.0
 10
210.8570103789
 20
120.0086004994
 10
210.7775536621
 20
120.3378369994
 10
210.7631274754
 20
120.9127871282
 10
210.9021925623
 20
121.4751196987
 10
211.1872555012
 20
121.9945220239
 10
211.6029476071
 20
122.4429892338
 10
212.1268575335
 20
122.7963479198
 10
212.7307401294
 20
123.0355469472
 10
213.3820438081
 20
123.1476912237
 10
214.0456539834
 20
123.1267327405
 10
214.6857966924
 20
122.9738058485
 10
215.2679608459
 20
122.6971508897
 10
215.760760873
 20
122.3116857893
 10
216.137629866
 20
121.8381883539
 10
216.378253817
 20
121.3021842725
 10
216.4696575398
 20
120.732573416
 10
216.4069124753
 20
120.1600605584
 10
216.3131376052
 20
119.8689291216
  0
LWPOLYLINE
  5
A5
330
1F
100
AcDbEntity
  8
0
  6
Continuous
 62
     7
370
    15
100
AcDbPolyline
 90
       26
 70
   128
 43
0.0
 10
214.6501717413
 20
118.7098646499
 10
214.0521099115
 20
118.5477688871
 10
213.4262909437
 20
118.5195721648
 10
212.8120352769
 20
118.627043996
 10
212.2479387814
 20
118.8634332232
 10
211.7694475943
 20
119.2138861827
 10
211.4066248083
 20
119.6563826836
 10
211.1822692001
 20
120.1631180904
 10
211.1104791308
 20
120.7022542096
 10
211.1957622016
 20
121.2399141825
 10
211.4327633077
 20
121.7423142828
 10
211.806586876
 20
122.177888263
 10
212.2937486762
 20
122.5192645527
 10
212.8636342729
 20
122.7449966557
 10
213.4804399008
 20
122.8409005291
 10
214.1054057771
 20
122.8009467907
 10
214.6992636168
 20
122.6276500113
 10
215.2247009123
 20
122.3318973518
 10
215.6487004155
 20
121.932272423
 10
215.9446225757
 20
121.4538836814
 10
216.0938726062
 20
120.9267904944
 10
216.0870720888
 20
120.3841144181
 10
215.9246494317
 20
119.859951172
 10
215.6168100679
 20
119.3872369788
 10
215.1828957045
 20
118.9956735782
 10
214.6501717413
 20
118.7098646499
  0
LINE
  5
A6
330
1F
100
AcDbEntity
  8
0
  6
Continuous
 62
     7
370
    15
100
AcDbLine
 10
192.6103317434
 20
74.3346387483
 30
0.0
 11
192.6103317434
 21
136.334637735
 31
0.0
  0
ELLIPSE
  5
A7
330
1F
100
AcDbEntity
  8
0
  6
Continuous
 62
     7
370
    15
100
AcDbEllipse
 10
228.1816471038
 20
105.3346382416
 30
0.0
 11
-1.574944762879738
 21
31.49727103316098
 31
0.0
210
0.0
220
0.0
230
1.0
 40
0.263265937
 41
0.3831372891034009
 42
2.383063083438689
  0
ELLIPSE
  5
A8
330
1F
100
AcDbEntity
  8
0
  6
Continuous
 62
     7
370
    15
100
AcDbEllipse
 10
222.9558233318
 20
123.8729430155
 30
0.0
 11
0.2010024897830647
 21
3.237295024094621
 31
0.0
210
0.0
220
0.0
230
1.0
 40
0.2319071678
 41
5.517514468475292
 42
10.71364767726115
  0
SPLINE
  5
A9
330
1F
100
AcDbEntity
  8
0
  6
Continuous
 62
     7
370
    15
100
AcDbSpline
210
0.0
220
0.0
230
1.0
 70
     8
 71
     3
 72
    68
 73
    64
 74
     0
 42
0.00000001
 43
0.00000001
 12
1.0
 22
0.0
 32
0.0
 13
1.0
 23
0.0
 33
0.0
 40
-0.0625000000000004
 40
-0.0625000000000004
 40
0.0
 40
0.0
 40
0.0312500000000003
 40
0.0312500000000003
 40
0.0625000000000007
 40
0.0625000000000007
 40
0.093750000000001
 40
0.093750000000001
 40
0.1250000000000013
 40
0.1250000000000013
 40
0.1562500000000016
 40
0.1562500000000016
 40
0.1875000000000019
 40
0.1875000000000019
 40
0.2187500000000023
 40
0.2187500000000023
 40
0.2500000000000026
 40
0.2500000000000026
 40
0.2812500000000024
 40
0.2812500000000024
 40
0.3125000000000023
 40
0.3125000000000023
 40
0.3437500000000021
 40
0.3437500000000021
 40
0.3750000000000019
 40
0.3750000000000019
 40
0.4062500000000017
 40
0.4062500000000017
 40
0.4375000000000016
 40
0.4375000000000016
 40
0.4687500000000014
 40
0.4687500000000014
 40
0.5000000000000012
 40
0.5000000000000012
 40
0.5312500000000011
 40
0.5312500000000011
 40
0.562500000000001
 40
0.562500000000001
 40
0.5937500000000009
 40
0.5937500000000009
 40
0.6250000000000008
 40
0.6250000000000008
 40
0.6562500000000007
 40
0.6562500000000007
 40
0.6875000000000006
 40
0.6875000000000006
 40
0.7187500000000004
 40
0.7187500000000004
 40
0.7500000000000002
 40
0.7500000000000002
 40
0.7812500000000001
 40
0.7812500000000001
 40
0.8125
 40
0.8125
 40
0.8437499999999999
 40
0.8437499999999999
 40
0.8749999999999998
 40
0.8749999999999998
 40
0.9062499999999997
 40
0.9062499999999997
 40
0.9374999999999996
 40
0.9374999999999996
 40
1.0
 40
1.0
 40
1.03125
 40
1.03125
 10
213.2137021230262
 20
123.6111231732614
 30
0.0
 10
213.808646553581
 20
123.6111231732614
 30
0.0
 10
214.0036247998306
 20
123.5952011196643
 30
0.0
 10
214.3871880249762
 20
123.5327280982161
 30
0.0
 10
214.5777688004384
 20
123.4854106250859
 30
0.0
 10
214.9410180872252
 20
123.3616226325102
 30
0.0
 10
215.1132848262211
 20
123.2857550918906
 30
0.0
 10
215.4393065429291
 20
123.105870144
 30
0.0
 10
215.5935819097057
 20
123.0009366949874
 30
0.0
 10
215.8701448309568
 20
122.7707129337389
 30
0.0
 10
215.9942877212722
 20
122.6446221539428
 30
0.0
 10
216.2136024936431
 20
122.369354884225
 30
0.0
 10
216.3067329490464
 20
122.2222490451578
 30
0.0
 10
216.4563872795726
 20
121.9162593826834
 30
0.0
 10
216.5140342495644
 20
121.7551124891997
 30
0.0
 10
216.5911408113868
 20
121.423306893771
 30
0.0
 10
216.6102245927302
 20
121.2555904679389
 30
0.0
 10
216.6104380028076
 20
120.9165181606031
 30
0.0
 10
216.5909427123082
 20
120.7433578362605
 30
0.0
 10
216.5143728378311
 20
120.4064996319134
 30
0.0
 10
216.457719596622
 20
120.2418813461282
 30
0.0
 10
216.3074436458126
 20
119.9205976445326
 30
0.0
 10
216.2135599834001
 20
119.7645702388696
 30
0.0
 10
215.9964947833037
 20
119.4745200195979
 30
0.0
 10
215.872563527029
 20
119.3386636194087
 30
0.0
 10
215.5926066818767
 20
119.086548243535
 30
0.0
 10
215.4411475309749
 20
118.9744209329923
 30
0.0
 10
215.1164145220272
 20
118.7776002368713
 30
0.0
 10
214.9410500832108
 20
118.6921808135288
 30
0.0
 10
214.577733064311
 20
118.5550652795605
 30
0.0
 10
214.3907416113204
 20
118.5032368365206
 30
0.0
 10
214.0061701129638
 20
118.4330476560961
 30
0.0
 10
213.8072622598444
 20
118.4150364836766
 30
0.0
 10
213.4155988601478
 20
118.4149053852314
 30
0.0
 10
213.2208911237609
 20
118.4322035639806
 30
0.0
 10
212.8337740601059
 20
118.5022186424749
 30
0.0
 10
212.644303057379
 20
118.5547184043028
 30
0.0
 10
212.2831705593614
 20
118.6906695109809
 30
0.0
 10
212.1087513100011
 20
118.7751088955825
 30
0.0
 10
211.7805532721972
 20
118.9735586621904
 30
0.0
 10
211.6294750347467
 20
119.0856176483178
 30
0.0
 10
211.3526389417191
 20
119.3342368263978
 30
0.0
 10
211.2258751252066
 20
119.4724700043782
 30
0.0
 10
211.0078705870496
 20
119.7633176666539
 30
0.0
 10
210.9155894075196
 20
119.9163464671
 30
0.0
 10
210.7647097203542
 20
120.2373132973568
 30
0.0
 10
210.7067632858841
 20
120.4050925287932
 30
0.0
 10
210.6301511034694
 20
120.7408003614124
 30
0.0
 10
210.6105230834541
 20
120.9105261178402
 30
0.0
 10
210.6101431602089
 20
121.2537690864145
 30
0.0
 10
210.6294555007136
 20
121.4220296481235
 30
0.0
 10
210.7053761173903
 20
121.7506912438481
 30
0.0
 10
210.7628818863564
 20
121.9130033735964
 30
0.0
 10
210.9132420329455
 20
122.2212408524169
 30
0.0
 10
211.0052613208369
 20
122.3665840609369
 30
0.0
 10
211.222605335827
 20
122.6403888679657
 30
0.0
 10
211.3491247559585
 20
122.7693901051907
 30
0.0
 10
211.6255583754183
 20
122.9998294883354
 30
0.0
 10
211.7763879654946
 20
123.1027873605301
 30
0.0
 10
212.1038995577348
 20
123.2841679008178
 30
0.0
 10
212.2784480908229
 20
123.361060538899
 30
0.0
 10
212.8196529591945
 20
123.5459513316345
 30
0.0
 10
213.2137021230262
 20
123.6111231732614
 30
0.0
 10
213.808646553581
 20
123.6111231732614
 30
0.0
  0
SPLINE
  5
AA
330
1F
100
AcDbEntity
  8
0
  6
Continuous
 62
     7
370
    15
100
AcDbSpline
210
0.0
220
0.0
230
1.0
 70
     8
 71
     3
 72
    12
 73
     8
 74
     0
 42
0.00000001
 43
0.00000001
 12
1.0
 22
0.0
 32
0.0
 13
1.0
 23
0.0
 33
0.0
 40
0.0
 40
0.0
 40
0.0
 40
0.0
 40
0.5000000000000019
 40
0.5000000000000019
 40
0.7500000000000009
 40
0.7500000000000009
 40
1.0
 40
1.0
 40
1.0
 40
1.0
 10
202.7050758550702
 20
115.2440075623182
 30
0.0
 10
202.7357980969893
 20
115.131451762909
 30
0.0
 10
202.7786353115245
 20
115.0186939031694
 30
0.0
 10
202.8780623357243
 20
114.869153017373
 30
0.0
 10
202.9178145305409
 20
114.8218602856661
 30
0.0
 10
203.0158559873992
 20
114.7481239923447
 30
0.0
 10
203.0754120429866
 20
114.722704672969
 30
0.0
 10
203.1380885569625
 20
114.722704672969
 30
0.0
  0
LINE
  5
AB
330
1F
100
AcDbEntity
  8
0
  6
Continuous
 62
     7
370
    15
100
AcDbLine
 10
203.1380887398
 20
114.7227050699
 30
0.0
 11
206.0825749556
 21
114.7227050699
 31
0.0
  0
SPLINE
  5
AC
330
1F
100
AcDbEntity
  8
0
  6
Continuous
 62
     7
370
    15
100
AcDbSpline
210
0.0
220
0.0
230
1.0
 70
     8
 71
     3
 72
    12
 73
     8
 74
     0
 42
0.00000001
 43
0.00000001
 12
1.0
 22
0.0
 32
0.0
 13
1.0
 23
0.0
 33
0.0
 40
0.0
 40
0.0
 40
0.0
 40
0.0
 40
0.2500000000000005
 40
0.2500000000000005
 40
0.500000000000001
 40
0.500000000000001
 40
1.0
 40
1.0
 40
1.0
 40
1.0
 10
206.0825749298296
 20
114.722704672969
 30
0.0
 10
206.1456549683229
 20
114.722704672969
 30
0.0
 10
206.2048035905043
 20
114.7480689921839
 30
0.0
 10
206.3032761405734
 20
114.8222338525568
 30
0.0
 10
206.3423127525581
 20
114.868754193111
 30
0.0
 10
206.4422092193372
 20
115.0188965359562
 30
0.0
 10
206.4846301004038
 20
115.1305897429284
 30
0.0
 10
206.5155876317218
 20
115.2440075623181
 30
0.0
  0
ELLIPSE
  5
AD
330
1F
100
AcDbEntity
  8
0
  6
Continuous
 62
     7
370
    15
100
AcDbEllipse
 10
190.263177554
 20
105.3346382416
 30
0.0
 11
14.75368316065601
 21
31.09325491558116
 31
0.0
210
0.0
220
0.0
230
1.0
 40
0.3419987131
 41
5.19328173740862
 42
6.124043104552323
  0
SPLINE
  5
AE
330
1F
100
AcDbEntity
  8
0
  6
Continuous
 62
     7
370
    15
100
AcDbSpline
210
0.0
220
0.0
230
1.0
 70
     8
 71
     3
 72
    12
 73
     8
 74
     0
 42
0.00000001
 43
0.00000001
 12
1.0
 22
0.0
 32
0.0
 13
1.0
 23
0.0
 33
0.0
 40
0.0
 40
0.0
 40
0.0
 40
0.0
 40
0.4999999999999982
 40
0.4999999999999982
 40
0.7499999999999991
 40
0.7499999999999991
 40
1.0
 40
1.0
 40
1.0
 40
1.0
 10
206.5155876317218
 20
135.2353807017502
 30
0.0
 10
206.4848653898027
 20
135.2726826847033
 30
0.0
 10
206.4420281752675
 20
135.3092945167497
 30
0.0
 10
206.3426011510677
 20
135.3570593000349
 30
0.0
 10
206.3028489562511
 20
135.3720168155172
 30
0.0
 10
206.2048074993928
 20
135.3952067612864
 30
0.0
 10
206.1452514438054
 20
135.4031302005061
 30
0.0
 10
206.0825749298296
 20
135.4031302005061
 30
0.0
  0
LINE
  5
AF
330
1F
100
AcDbEntity
  8
0
  6
Continuous
 62
     7
370
    15
100
AcDbLine
 10
206.0825749556
 20
135.4031307585
 30
0.0
 11
203.1380887398
 21
135.4031307585
 31
0.0
  0
SPLINE
  5
B0
330
1F
100
AcDbEntity
  8
0
  6
Continuous
 62
     7
370
    15
100
AcDbSpline
210
0.0
220
0.0
230
1.0
 70
     8
 71
     3
 72
    12
 73
     8
 74
     0
 42
0.00000001
 43
0.00000001
 12
1.0
 22
0.0
 32
0.0
 13
1.0
 23
0.0
 33
0.0
 40
0.0
 40
0.0
 40
0.0
 40
0.0
 40
0.2499999999999977
 40
0.2499999999999977
 40
0.4999999999999954
 40
0.4999999999999954
 40
1.0
 40
1.0
 40
1.0
 40
1.0
 10
203.1380885569625
 20
135.4031302005062
 30
0.0
 10
203.0750085184691
 20
135.4031302005062
 30
0.0
 10
203.0158598962877
 20
135.3952242742937
 30
0.0
 10
202.9173873462186
 20
135.3718991128574
 30
0.0
 10
202.8783507342339
 20
135.3571863230257
 30
0.0
 10
202.7784542674549
 20
135.3092305222948
 30
0.0
 10
202.7360333863882
 20
135.2729683657147
 30
0.0
 10
202.7050758550702
 20
135.2353807017502
 30
0.0
  0
ELLIPSE
  5
B1
330
1F
100
AcDbEntity
  8
0
  6
Continuous
 62
     7
370
    15
100
AcDbEllipse
 10
218.9574859328
 20
105.3346382416
 30
0.0
 11
-14.75368316065601
 21
31.09325491558116
 31
0.0
210
0.0
220
0.0
230
1.0
 40
0.3419987131
 41
0.1591422026273069
 42
1.089903569770978
  0
SPLINE
  5
B2
330
1F
100
AcDbEntity
  8
0
  6
Continuous
 62
     7
370
    15
100
AcDbSpline
210
0.0
220
0.0
230
1.0
 70
     8
 71
     3
 72
    12
 73
     8
 74
     0
 42
0.00000001
 43
0.00000001
 12
1.0
 22
0.0
 32
0.0
 13
1.0
 23
0.0
 33
0.0
 40
0.0
 40
0.0
 40
0.0
 40
0.0
 40
0.5000000000000037
 40
0.5000000000000037
 40
0.7500000000000018
 40
0.7500000000000018
 40
1.0
 40
1.0
 40
1.0
 40
1.0
 10
202.7050758550702
 20
75.43389578151583
 30
0.0
 10
202.7362210530323
 20
75.39608025859563
 30
0.0
 10
202.7784953193668
 20
75.36001340051202
 30
0.0
 10
202.8784408531921
 20
75.31205333550075
 30
0.0
 10
202.9181711578962
 20
75.2971923616031
 30
0.0
 10
203.0150592079023
 20
75.27424121547196
 30
0.0
 10
203.0751244496489
 20
75.26614628275993
 30
0.0
 10
203.1380885569624
 20
75.26614628275993
 30
0.0
  0
LINE
  5
B3
330
1F
100
AcDbEntity
  8
0
  6
Continuous
 62
     7
370
    15
100
AcDbLine
 10
203.1380887398
 20
75.2661457248
 30
0.0
 11
206.0825749556
 21
75.2661457248
 31
0.0
  0
SPLINE
  5
B4
330
1F
100
AcDbEntity
  8
0
  6
Continuous
 62
     7
370
    15
100
AcDbSpline
210
0.0
220
0.0
230
1.0
 70
     8
 71
     3
 72
    12
 73
     8
 74
     0
 42
0.00000001
 43
0.00000001
 12
1.0
 22
0.0
 32
0.0
 13
1.0
 23
0.0
 33
0.0
 40
0.0
 40
0.0
 40
0.0
 40
0.0
 40
0.2499999999999977
 40
0.2499999999999977
 40
0.4999999999999953
 40
0.4999999999999953
 40
1.0
 40
1.0
 40
1.0
 40
1.0
 10
206.0825749298296
 20
75.26614628275996
 30
0.0
 10
206.1456318847274
 20
75.26614628275998
 30
0.0
 10
206.2047620344729
 20
75.27404661383953
 30
0.0
 10
206.3032095850062
 20
75.29735736184458
 30
0.0
 10
206.3422418231943
 20
75.3120624881282
 30
0.0
 10
206.4421317076512
 20
75.35999601631485
 30
0.0
 10
206.4844306812606
 20
75.39606598907959
 30
0.0
 10
206.5155876317218
 20
75.43389578151583
 30
0.0
  0
ELLIPSE
  5
B5
330
1F
100
AcDbEntity
  8
0
  6
Continuous
 62
     7
370
    15
100
AcDbEllipse
 10
190.263177554
 20
105.3346382416
 30
0.0
 11
-14.75368316065618
 21
31.09325491558116
 31
0.0
210
0.0
220
0.0
230
1.0
 40
0.3419987131
 41
3.300734856217121
 42
4.231496223360772
  0
SPLINE
  5
B6
330
1F
100
AcDbEntity
  8
0
  6
Continuous
 62
     7
370
    15
100
AcDbSpline
210
0.0
220
0.0
230
1.0
 70
     8
 71
     3
 72
    12
 73
     8
 74
     0
 42
0.00000001
 43
0.00000001
 12
1.0
 22
0.0
 32
0.0
 13
1.0
 23
0.0
 33
0.0
 40
0.0
 40
0.0
 40
0.0
 40
0.0
 40
0.5000000000000027
 40
0.5000000000000027
 40
0.7500000000000013
 40
0.7500000000000013
 40
1.0
 40
1.0
 40
1.0
 40
1.0
 10
206.5155876317218
 20
95.4252689209477
 30
0.0
 10
206.4844424337597
 20
95.539374286813
 30
0.0
 10
206.4421681674253
 20
95.65048061403178
 30
0.0
 10
206.3422226335999
 20
95.80063822146207
 30
0.0
 10
206.3024923288959
 20
95.84763091307943
 30
0.0
 10
206.2056042788897
 20
95.9206064976179
 30
0.0
 10
206.1455390371431
 20
95.94657181029692
 30
0.0
 10
206.0825749298296
 20
95.94657181029692
 30
0.0
  0
LINE
  5
B7
330
1F
100
AcDbEntity
  8
0
  6
Continuous
 62
     7
370
    15
100
AcDbLine
 10
206.0825749556
 20
95.9465714134
 30
0.0
 11
203.1380887398
 21
95.9465714134
 31
0.0
  0
SPLINE
  5
B8
330
1F
100
AcDbEntity
  8
0
  6
Continuous
 62
     7
370
    15
100
AcDbSpline
210
0.0
220
0.0
230
1.0
 70
     8
 71
     3
 72
    12
 73
     8
 74
     0
 42
0.00000001
 43
0.00000001
 12
1.0
 22
0.0
 32
0.0
 13
1.0
 23
0.0
 33
0.0
 40
0.0
 40
0.0
 40
0.0
 40
0.0
 40
0.2500000000000001
 40
0.2500000000000001
 40
0.5000000000000001
 40
0.5000000000000001
 40
1.0
 40
1.0
 40
1.0
 40
1.0
 10
203.1380885569624
 20
95.94657181029683
 30
0.0
 10
203.0750316020646
 20
95.94657181029683
 30
0.0
 10
203.0159014523191
 20
95.9212254569161
 30
0.0
 10
202.9174539017858
 20
95.84710607477662
 30
0.0
 10
202.8784216635977
 20
95.8006095600786
 30
0.0
 10
202.7785317791407
 20
95.65053505307003
 30
0.0
 10
202.7362328055314
 20
95.53941734395521
 30
0.0
 10
202.7050758550702
 20
95.42526892094774
 30
0.0
  0
ELLIPSE
  5
B9
330
1F
100
AcDbEntity
  8
0
  6
Continuous
 62
     7
370
    15
100
AcDbEllipse
 10
218.9574859328
 20
105.3346382416
 30
0.0
 11
14.75368316065621
 21
31.09325491558116
 31
0.0
210
0.0
220
0.0
230
1.0
 40
0.3419987131
 41
2.051689083818827
 42
2.982450450962507
  0
ELLIPSE
  5
BA
330
1F
100
AcDbEntity
  8
0
  6
Continuous
 62
     7
370
    15
100
AcDbEllipse
 10
300.199049484
 20
105.3346382416
 30
0.0
 11
178.6426981535722
 21
-5.639730005880694
 31
0.0
210
0.0
220
0.0
230
1.0
 40
0.1734804855
 41
1.981068492791978
 42
1.990027665321728
  0
SPLINE
  5
BB
330
1F
100
AcDbEntity
  8
0
  6
Continuous
 62
     7
370
    15
100
AcDbSpline
210
0.0
220
0.0
230
1.0
 70
     8
 71
     3
 72
    20
 73
    16
 74
     0
 42
0.00000001
 43
0.00000001
 12
1.0
 22
0.0
 32
0.0
 13
1.0
 23
0.0
 33
0.0
 40
0.0
 40
0.0
 40
0.0
 40
0.0
 40
0.2499999999999998
 40
0.2499999999999998
 40
0.3749999999999998
 40
0.3749999999999998
 40
0.4999999999999999
 40
0.4999999999999999
 40
0.6249999999999999
 40
0.6249999999999999
 40
0.7499999999999999
 40
0.7499999999999999
 40
0.875
 40
0.875
 40
1.0
 40
1.0
 40
1.0
 40
1.0
 10
223.6210162440036
 20
134.3932414268556
 30
0.0
 10
223.7553210706535
 20
134.6231774031473
 30
0.0
 10
223.9546932002714
 20
134.8273023315725
 30
0.0
 10
224.3637997305126
 20
135.0992829080852
 30
0.0
 10
224.5202170120905
 20
135.1847749172766
 30
0.0
 10
224.8642751466013
 20
135.3403047739538
 30
0.0
 10
225.0521734330945
 20
135.4108162620721
 30
0.0
 10
225.4606965627668
 20
135.5389180928706
 30
0.0
 10
225.6813000268669
 20
135.5965095595768
 30
0.0
 10
226.1580937259099
 20
135.6997524284471
 30
0.0
 10
226.4115416849614
 20
135.7446661951984
 30
0.0
 10
226.9362645529238
 20
135.8208267413575
 30
0.0
 10
227.2092823117508
 20
135.8524634679436
 30
0.0
 10
227.7773933239637
 20
135.9039876911536
 30
0.0
 10
228.0738242454569
 20
135.9238744535608
 30
0.0
 10
228.3746821357364
 20
135.9376027424715
 30
0.0
  0
SPLINE
  5
BC
330
1F
100
AcDbEntity
  8
0
  6
Continuous
 62
     7
370
    15
100
AcDbSpline
210
0.0
220
0.0
230
1.0
 70
     8
 71
     3
 72
    20
 73
    16
 74
     0
 42
0.00000001
 43
0.00000001
 12
1.0
 22
0.0
 32
0.0
 13
1.0
 23
0.0
 33
0.0
 40
0.0
 40
0.0
 40
0.0
 40
0.0
 40
0.2499999999999978
 40
0.2499999999999978
 40
0.3749999999999982
 40
0.3749999999999982
 40
0.4999999999999986
 40
0.4999999999999986
 40
0.6249999999999989
 40
0.6249999999999989
 40
0.7499999999999992
 40
0.7499999999999992
 40
0.8749999999999997
 40
0.8749999999999997
 40
1.0
 40
1.0
 40
1.0
 40
1.0
 10
228.3746821357364
 20
79.13003407583
 30
0.0
 10
227.7746637377864
 20
79.19415695857053
 30
0.0
 10
227.2102756417262
 20
79.31061179056942
 30
0.0
 10
226.4149012247451
 20
79.56724499474682
 30
0.0
 10
226.1626750532222
 20
79.6655688677732
 30
0.0
 10
225.6905628710084
 20
79.8846647363284
 30
0.0
 10
225.4692922139675
 20
80.00588682777423
 30
0.0
 10
225.0557269581063
 20
80.27291625565317
 30
0.0
 10
224.8648834321688
 20
80.41814554009092
 30
0.0
 10
224.5218565091986
 20
80.7251528054913
 30
0.0
 10
224.3681707111897
 20
80.88787117909175
 30
0.0
 10
224.0945792265288
 20
81.23226068982419
 30
0.0
 10
223.9746222591646
 20
81.41448570859829
 30
0.0
 10
223.7717635906144
 20
81.79068500525638
 30
0.0
 10
223.6880602602959
 20
81.98551477473659
 30
0.0
 10
223.6210162440036
 20
82.18719478506922
 30
0.0
  0
ELLIPSE
  5
BD
330
1F
100
AcDbEntity
  8
0
  6
Continuous
 62
     7
370
    15
100
AcDbEllipse
 10
300.199049484
 20
105.3346382416
 30
0.0
 11
178.6426981535722
 21
-5.639730005880694
 31
0.0
210
0.0
220
0.0
230
1.0
 40
0.1734804855
 41
4.304111051405039
 42
4.313070223934788
  0
SPLINE
  5
BE
330
1F
100
AcDbEntity
  8
0
  6
Continuous
 62
     7
370
    15
100
AcDbSpline
210
0.0
220
0.0
230
1.0
 70
     8
 71
     3
 72
    12
 73
     8
 74
     0
 42
0.00000001
 43
0.00000001
 12
1.0
 22
0.0
 32
0.0
 13
1.0
 23
0.0
 33
0.0
 40
0.0
 40
0.0
 40
0.0
 40
0.0
 40
0.5000000000000004
 40
0.5000000000000004
 40
0.75
 40
0.75
 40
1.0
 40
1.0
 40
1.0
 40
1.0
 10
191.7938194569395
 20
83.47984453915724
 30
0.0
 10
191.8502559578467
 20
83.47842665781549
 30
0.0
 10
191.9193405885354
 20
83.47686232156718
 30
0.0
 10
192.0381428602534
 20
83.47391812959273
 30
0.0
 10
192.0783281357234
 20
83.47287992649537
 30
0.0
 10
192.1517091831273
 20
83.47094603128072
 30
0.0
 10
192.1851187468699
 20
83.47005114399192
 30
0.0
 10
192.2153548545264
 20
83.46926735371959
 30
0.0
  0
SPLINE
  5
BF
330
1F
100
AcDbEntity
  8
0
  6
Continuous
 62
     7
370
    15
100
AcDbSpline
210
0.0
220
0.0
230
1.0
 70
     8
 71
     3
 72
    16
 73
    12
 74
     0
 42
0.00000001
 43
0.00000001
 12
1.0
 22
0.0
 32
0.0
 13
1.0
 23
0.0
 33
0.0
 40
0.0
 40
0.0
 40
0.0
 40
0.0
 40
0.0624999999999998
 40
0.0624999999999998
 40
0.1249999999999997
 40
0.1249999999999997
 40
0.2499999999999993
 40
0.2499999999999993
 40
0.5000000000000007
 40
0.5000000000000007
 40
1.0
 40
1.0
 40
1.0
 40
1.0
 10
192.2153548544892
 20
83.46926735374383
 30
0.0
 10
192.2269352620771
 20
83.46896716263248
 30
0.0
 10
192.2402447888384
 20
83.4676394143735
 30
0.0
 10
192.2695462189245
 20
83.46094073959847
 30
0.0
 10
192.2843603188088
 20
83.4555825564928
 30
0.0
 10
192.3201887205117
 20
83.43853690732544
 30
0.0
 10
192.3343083448747
 20
83.4270743695497
 30
0.0
 10
192.3688124889632
 20
83.39551104417747
 30
0.0
 10
192.3799170396678
 20
83.3776137451322
 30
0.0
 10
192.406093216884
 20
83.32745232751795
 30
0.0
 10
192.410331743396
 20
83.29970791532136
 30
0.0
 10
192.410331743396
 20
83.27504375339181
 30
0.0
  0
LINE
  5
C0
330
1F
100
AcDbEntity
  8
0
  6
Continuous
 62
     7
370
    15
100
AcDbLine
 10
192.4103317484
 20
98.3127510137
 30
0.0
 11
192.4103317484
 21
82.7948177196
 31
0.0
  0
SPLINE
  5
C1
330
1F
100
AcDbEntity
  8
0
  6
Continuous
 62
     7
370
    15
100
AcDbSpline
210
0.0
220
0.0
230
1.0
 70
     8
 71
     3
 72
    16
 73
    12
 74
     0
 42
0.00000001
 43
0.00000001
 12
1.0
 22
0.0
 32
0.0
 13
1.0
 23
0.0
 33
0.0
 40
0.0
 40
0.0
 40
0.0
 40
0.0
 40
0.4999999999999981
 40
0.4999999999999981
 40
0.7499999999999956
 40
0.7499999999999956
 40
0.8749999999999967
 40
0.8749999999999967
 40
0.9374999999999983
 40
0.9374999999999983
 40
1.0
 40
1.0
 40
1.0
 40
1.0
 10
192.410331743396
 20
98.312750915883
 30
0.0
 10
192.410331743396
 20
98.42644346001089
 30
0.0
 10
192.4061854683181
 20
98.5407636213604
 30
0.0
 10
192.3802198729246
 20
98.71381191185749
 30
0.0
 10
192.3687589675472
 20
98.77298741901922
 30
0.0
 10
192.3344472297728
 20
98.85611053848737
 30
0.0
 10
192.3204224938432
 20
98.88423185458805
 30
0.0
 10
192.2843995308093
 20
98.91284766856548
 30
0.0
 10
192.2696450217197
 20
98.91864071646727
 30
0.0
 10
192.2402928605728
 20
98.91704729053022
 30
0.0
 10
192.2269529860687
 20
98.91055088720638
 30
0.0
 10
192.2153548545204
 20
98.90203514100325
 30
0.0
  0
SPLINE
  5
C2
330
1F
100
AcDbEntity
  8
0
  6
Continuous
 62
     7
370
    15
100
AcDbSpline
210
0.0
220
0.0
230
1.0
 70
     8
 71
     3
 72
    12
 73
     8
 74
     0
 42
0.00000001
 43
0.00000001
 12
1.0
 22
0.0
 32
0.0
 13
1.0
 23
0.0
 33
0.0
 40
0.0
 40
0.0
 40
0.0
 40
0.0
 40
0.2500000000000001
 40
0.2500000000000001
 40
0.5000000000000004
 40
0.5000000000000004
 40
1.0
 40
1.0
 40
1.0
 40
1.0
 10
192.2153548545274
 20
98.9020351409941
 30
0.0
 10
192.1851564130868
 20
98.87986240894904
 30
0.0
 10
192.1517890577508
 20
98.8607827530718
 30
0.0
 10
192.0786337819209
 20
98.8356097086291
 30
0.0
 10
192.0383810828969
 20
98.83005317221232
 30
0.0
 10
191.9206523396221
 20
98.84096498319907
 30
0.0
 10
191.8501938915631
 20
98.8829007386099
 30
0.0
 10
191.7938194569448
 20
98.93211252099147
 30
0.0
  0
SPLINE
  5
C3
330
1F
100
AcDbEntity
  8
0
  6
Continuous
 62
     7
370
    15
100
AcDbSpline
210
0.0
220
0.0
230
1.0
 70
     8
 71
     3
 72
    12
 73
     8
 74
     0
 42
0.00000001
 43
0.00000001
 12
1.0
 22
0.0
 32
0.0
 13
1.0
 23
0.0
 33
0.0
 40
0.0
 40
0.0
 40
0.0
 40
0.0
 40
0.5000000000000014
 40
0.5000000000000014
 40
0.7500000000000007
 40
0.7500000000000007
 40
1.0
 40
1.0
 40
1.0
 40
1.0
 10
191.2890113998363
 20
100.148463912872
 30
0.0
 10
191.3327617517208
 20
99.9280169278975
 30
0.0
 10
191.3856519028453
 20
99.71247193809195
 30
0.0
 10
191.497263445987
 20
99.40005786152001
 30
0.0
 10
191.5398227898905
 20
99.29797838590412
 30
0.0
 10
191.6448000252279
 20
99.10353837326235
 30
0.0
 10
191.7063672683225
 20
99.00845347419869
 30
0.0
 10
191.7938194569449
 20
98.93211252099151
 30
0.0
  0
SPLINE
  5
C4
330
1F
100
AcDbEntity
  8
0
  6
Continuous
 62
     7
370
    15
100
AcDbSpline
210
0.0
220
0.0
230
1.0
 70
     8
 71
     3
 72
    12
 73
     8
 74
     0
 42
0.00000001
 43
0.00000001
 12
1.0
 22
0.0
 32
0.0
 13
1.0
 23
0.0
 33
0.0
 40
0.0
 40
0.0
 40
0.0
 40
0.0
 40
0.2500000000000008
 40
0.2500000000000008
 40
0.5000000000000016
 40
0.5000000000000016
 40
1.0
 40
1.0
 40
1.0
 40
1.0
 10
191.7938194569448
 20
111.7371639622747
 30
0.0
 10
191.7053260493769
 20
111.6599140821664
 30
0.0
 10
191.645268008611
 20
111.5665947582771
 30
0.0
 10
191.5394197356284
 20
111.3705617053077
 30
0.0
 10
191.496886214351
 20
111.268235347096
 30
0.0
 10
191.3857349075273
 20
110.9568909413201
 30
0.0
 10
191.3328040504795
 20
110.7414726881421
 30
0.0
 10
191.2890113998363
 20
110.5208125703942
 30
0.0
  0
SPLINE
  5
C5
330
1F
100
AcDbEntity
  8
0
  6
Continuous
 62
     7
370
    15
100
AcDbSpline
210
0.0
220
0.0
230
1.0
 70
     8
 71
     3
 72
    12
 73
     8
 74
     0
 42
0.00000001
 43
0.00000001
 12
1.0
 22
0.0
 32
0.0
 13
1.0
 23
0.0
 33
0.0
 40
0.0
 40
0.0
 40
0.0
 40
0.0
 40
0.4999999999999998
 40
0.4999999999999998
 40
0.7499999999999997
 40
0.7499999999999997
 40
1.0
 40
1.0
 40
1.0
 40
1.0
 10
191.7938194569448
 20
111.7371639622747
 30
0.0
 10
191.8501280052404
 20
111.7863182295185
 30
0.0
 10
191.9204026659585
 20
111.8282755481223
 30
0.0
 10
192.0384405802821
 20
111.8392352256547
 30
0.0
 10
192.0786168211361
 20
111.8337264674073
 30
0.0
 10
192.152573915814
 20
111.8081692386184
 30
0.0
 10
192.1851903035254
 20
111.7893891907791
 30
0.0
 10
192.2153548545212
 20
111.7672413422624
 30
0.0
  0
SPLINE
  5
C6
330
1F
100
AcDbEntity
  8
0
  6
Continuous
 62
     7
370
    15
100
AcDbSpline
210
0.0
220
0.0
230
1.0
 70
     8
 71
     3
 72
    16
 73
    12
 74
     0
 42
0.00000001
 43
0.00000001
 12
1.0
 22
0.0
 32
0.0
 13
1.0
 23
0.0
 33
0.0
 40
0.0
 40
0.0
 40
0.0
 40
0.0
 40
0.0625
 40
0.0625
 40
0.125
 40
0.125
 40
0.2500000000000032
 40
0.2500000000000032
 40
0.5000000000000044
 40
0.5000000000000044
 40
1.0
 40
1.0
 40
1.0
 40
1.0
 10
192.2153548544894
 20
111.7672413422078
 30
0.0
 10
192.2269677543288
 20
111.7587147526126
 30
0.0
 10
192.2403189387612
 20
111.7522144910798
 30
0.0
 10
192.2697187783804
 20
111.7506450939623
 30
0.0
 10
192.2845595029357
 20
111.7565284845929
 30
0.0
 10
192.3203927109043
 20
111.7850761206434
 30
0.0
 10
192.3345059187259
 20
111.8132431399492
 30
0.0
 10
192.3689972899448
 20
111.8969973983712
 30
0.0
 10
192.3800813610552
 20
111.9547108119926
 30
0.0
 10
192.4062041788511
 20
112.1283013486384
 30
0.0
 10
192.410331743396
 20
112.2433294012804
 30
0.0
 10
192.410331743396
 20
112.3565255673832
 30
0.0
  0
LINE
  5
C7
330
1F
100
AcDbEntity
  8
0
  6
Continuous
 62
     7
370
    15
100
AcDbLine
 10
192.4103317484
 20
127.8744587637
 30
0.0
 11
192.4103317484
 21
112.3565254695
 31
0.0
  0
SPLINE
  5
C8
330
1F
100
AcDbEntity
  8
0
  6
Continuous
 62
     7
370
    15
100
AcDbSpline
210
0.0
220
0.0
230
1.0
 70
     8
 71
     3
 72
    16
 73
    12
 74
     0
 42
0.00000001
 43
0.00000001
 12
1.0
 22
0.0
 32
0.0
 13
1.0
 23
0.0
 33
0.0
 40
0.0
 40
0.0
 40
0.0
 40
0.0
 40
0.499999999999997
 40
0.499999999999997
 40
0.7499999999999957
 40
0.7499999999999957
 40
0.8749999999999951
 40
0.8749999999999951
 40
0.9374999999999974
 40
0.9374999999999974
 40
1.0
 40
1.0
 40
1.0
 40
1.0
 10
192.410331743396
 20
127.3942327298744
 30
0.0
 10
192.410331743396
 20
127.3695615738314
 30
0.0
 10
192.406166044936
 20
127.3419797424402
 30
0.0
 10
192.3799077166111
 20
127.2916368716169
 30
0.0
 10
192.3684039348735
 20
127.273347373555
 30
0.0
 10
192.334273175527
 20
127.2421923425179
 30
0.0
 10
192.3198512888563
 20
127.2305529673062
 30
0.0
 10
192.2842843204184
 20
127.2136709413752
 30
0.0
 10
192.2693325521238
 20
127.2082818375675
 30
0.0
 10
192.240328733764
 20
127.201661341623
 30
0.0
 10
192.2269133797548
 20
127.2003087534166
 30
0.0
 10
192.2153548545182
 20
127.2000091295449
 30
0.0
  0
SPLINE
  5
C9
330
1F
100
AcDbEntity
  8
0
  6
Continuous
 62
     7
370
    15
100
AcDbSpline
210
0.0
220
0.0
230
1.0
 70
     8
 71
     3
 72
    12
 73
     8
 74
     0
 42
0.00000001
 43
0.00000001
 12
1.0
 22
0.0
 32
0.0
 13
1.0
 23
0.0
 33
0.0
 40
0.0
 40
0.0
 40
0.0
 40
0.0
 40
0.2499999999999999
 40
0.2499999999999999
 40
0.4999999999999998
 40
0.4999999999999998
 40
1.0
 40
1.0
 40
1.0
 40
1.0
 10
192.2153548545274
 20
127.2000091295467
 30
0.0
 10
192.1851670779778
 20
127.1992265921291
 30
0.0
 10
192.1518132738861
 20
127.1983332603106
 30
0.0
 10
192.0786870706901
 20
127.196405951507
 30
0.0
 10
192.038451867666
 20
127.1953664202943
 30
0.0
 10
191.9207602375329
 20
127.1924485369471
 30
0.0
 10
191.8503795643728
 20
127.1908529308769
 30
0.0
 10
191.7938194569422
 20
127.189431944109
 30
0.0
  0
SPLINE
  5
CA
330
1F
100
AcDbEntity
  8
0
  6
Continuous
 62
     7
370
    15
100
AcDbSpline
210
0.0
220
0.0
230
1.0
 70
     8
 71
     3
 72
    16
 73
    12
 74
     0
 42
0.00000001
 43
0.00000001
 12
1.0
 22
0.0
 32
0.0
 13
1.0
 23
0.0
 33
0.0
 40
0.0
 40
0.0
 40
0.0
 40
0.0
 40
0.2499999999999999
 40
0.2499999999999999
 40
0.3749999999999999
 40
0.3749999999999999
 40
0.4999999999999999
 40
0.4999999999999999
 40
0.7499999999999999
 40
0.7499999999999999
 40
1.0
 40
1.0
 40
1.0
 40
1.0
 10
191.2890113998364
 20
110.5208125703942
 30
0.0
 10
191.1277789223519
 20
109.7084027951474
 30
0.0
 10
191.0072990827123
 20
108.8683245007626
 30
0.0
 10
190.884918565399
 20
107.5670294513998
 30
0.0
 10
190.8539409050015
 20
107.1263484158151
 30
0.0
 10
190.8123271673735
 20
106.2305087748839
 30
0.0
 10
190.8020912544407
 20
105.7838506436815
 30
0.0
 10
190.8019028573846
 20
104.4485406865416
 30
0.0
 10
190.8420475600223
 20
103.564045313234
 30
0.0
 10
191.0062013149618
 20
101.806795425208
 30
0.0
 10
191.1277529653713
 20
100.9610044787949
 30
0.0
 10
191.2890113998364
 20
100.148463912872
 30
0.0
  0
LINE
  5
CB
330
1F
100
AcDbEntity
  8
0
  6
Continuous
 62
     7
370
    15
100
AcDbLine
 10
190.4103317553
 20
111.819816377
 30
0.0
 11
190.4103317553
 21
98.8494601063
 31
0.0
  0
LINE
  5
CC
330
1F
100
AcDbEntity
  8
0
  6
Continuous
 62
     7
370
    15
100
AcDbLine
 10
156.1103322798
 20
111.3889488354
 30
0.0
 11
156.1103322798
 21
99.2803276479
 31
0.0
  0
LINE
  5
CD
330
1F
100
AcDbEntity
  8
0
  6
Continuous
 62
     7
370
    15
100
AcDbLine
 10
154.6103329653
 20
110.9559359923
 30
0.0
 11
154.6103329653
 21
99.713340491
 31
0.0
  0
SPLINE
  5
CE
330
1F
100
AcDbEntity
  8
0
  6
Continuous
 62
     7
370
    15
100
AcDbSpline
210
0.0
220
0.0
230
1.0
 70
     8
 71
     3
 72
    16
 73
    12
 74
     0
 42
0.00000001
 43
0.00000001
 12
1.0
 22
0.0
 32
0.0
 13
1.0
 23
0.0
 33
0.0
 40
0.0
 40
0.0
 40
0.0
 40
0.0
 40
0.2499999999999993
 40
0.2499999999999993
 40
0.4999999999999986
 40
0.4999999999999986
 40
0.7499999999999978
 40
0.7499999999999978
 40
0.8749999999999989
 40
0.8749999999999989
 40
1.0
 40
1.0
 40
1.0
 40
1.0
 10
223.6210162440036
 20
122.9275321473975
 30
0.0
 10
223.6520555708297
 20
123.166662434871
 30
0.0
 10
223.6810134327716
 20
123.4150225800016
 30
0.0
 10
223.7269486638777
 20
123.9321831001813
 30
0.0
 10
223.7440583967135
 20
124.2012227325824
 30
0.0
 10
223.7554076646388
 20
124.7670556051575
 30
0.0
 10
223.7490307211768
 20
125.0550030227166
 30
0.0
 10
223.7157905484813
 20
125.4890633606251
 30
0.0
 10
223.7010481225302
 20
125.6309224345251
 30
0.0
 10
223.6651818920256
 20
125.9084591930706
 30
0.0
 10
223.6438575596456
 20
126.0450555409245
 30
0.0
 10
223.6210162440036
 20
126.1744616082057
 30
0.0
  0
LINE
  5
CF
330
1F
100
AcDbEntity
  8
0
  6
Continuous
 62
     7
370
    15
100
AcDbLine
 10
190.4103317553
 20
111.819816377
 30
0.0
 11
190.4103317553
 21
127.3547379262
 31
0.0
  0
ARC
  5
D0
330
1F
100
AcDbEntity
  8
0
  6
Continuous
 62
     7
370
    15
100
AcDbCircle
 10
190.6102686543
 20
127.3597601373
 30
0.0
 40
0.2000000000000066
100
AcDbArc
 50
181.4391666667
 51
271.4391666667
  0
LINE
  5
D1
330
1F
100
AcDbEntity
  8
0
  6
Continuous
 62
     7
370
    15
100
AcDbLine
 10
156.1103322798
 20
111.3889488354
 30
0.0
 11
156.1103322798
 21
126.4930019117
 31
0.0
  0
LINE
  5
D2
330
1F
100
AcDbEntity
  8
0
  6
Continuous
 62
     7
370
    15
100
AcDbLine
 10
156.1103322798
 20
126.4930019117
 30
0.0
 11
190.4103317553
 21
127.3547379262
 31
0.0
  0
LINE
  5
D3
330
1F
100
AcDbEntity
  8
0
  6
Continuous
 62
     7
370
    15
100
AcDbLine
 10
156.1103322798
 20
84.1762745715
 30
0.0
 11
156.1103322798
 21
99.2803276479
 31
0.0
  0
LINE
  5
D4
330
1F
100
AcDbEntity
  8
0
  6
Continuous
 62
     7
370
    15
100
AcDbLine
 10
190.4103317553
 20
83.314538557
 30
0.0
 11
190.4103317553
 21
98.8494601063
 31
0.0
  0
LINE
  5
D5
330
1F
100
AcDbEntity
  8
0
  6
Continuous
 62
     7
370
    15
100
AcDbLine
 10
156.1103322798
 20
84.1762745715
 30
0.0
 11
190.4103317553
 21
83.314538557
 31
0.0
  0
ARC
  5
D6
330
1F
100
AcDbEntity
  8
0
  6
Continuous
 62
     7
370
    15
100
AcDbCircle
 10
190.6102686543
 20
83.3095163459
 30
0.0
 40
0.1999999999999924
100
AcDbArc
 50
88.5608333333
 51
178.5608333333
  0
LINE
  5
D7
330
1F
100
AcDbEntity
  8
0
  6
Continuous
 62
     7
370
    15
100
AcDbLine
 10
190.6152918724
 20
127.1598232872
 30
0.0
 11
191.7938194726
 21
127.1894318945
 31
0.0
  0
LINE
  5
D8
330
1F
100
AcDbEntity
  8
0
  6
Continuous
 62
     7
370
    15
100
AcDbLine
 10
190.6152918724
 20
83.509453196
 30
0.0
 11
191.7938194726
 21
83.4798445887
 31
0.0
  0
LINE
  5
D9
330
1F
100
AcDbEntity
  8
0
  6
Continuous
 62
     7
370
    15
100
AcDbLine
 10
154.6103329653
 20
125.6269762255
 30
0.0
 11
156.1103322798
 21
126.4930019117
 31
0.0
  0
LINE
  5
DA
330
1F
100
AcDbEntity
  8
0
  6
Continuous
 62
     7
370
    15
100
AcDbLine
 10
154.6103329653
 20
110.9559359923
 30
0.0
 11
154.6103329653
 21
125.6269762255
 31
0.0
  0
LINE
  5
DB
330
1F
100
AcDbEntity
  8
0
  6
Continuous
 62
     7
370
    15
100
AcDbLine
 10
154.6103329653
 20
85.0423002578
 30
0.0
 11
156.1103322798
 21
84.1762745715
 31
0.0
  0
LINE
  5
DC
330
1F
100
AcDbEntity
  8
0
  6
Continuous
 62
     7
370
    15
100
AcDbLine
 10
154.6103329653
 20
85.0423002578
 30
0.0
 11
154.6103329653
 21
99.713340491
 31
0.0
  0
LINE
  5
DD
330
1F
100
AcDbEntity
  8
0
  6
Continuous
 62
     7
370
    15
100
AcDbLine
 10
240.1810706848
 20
136.6158673502
 30
0.0
 11
237.2326859528
 21
135.7651935853
 31
0.0
  0
ARC
  5
DE
330
1F
100
AcDbEntity
  8
0
  6
Continuous
 62
     7
370
    15
100
AcDbCircle
 10
237.8932654082
 20
133.7857997144
 30
0.0
 40
2.086711602720489
100
AcDbArc
 50
108.4553056252
 51
286.6232123026
  0
LINE
  5
DF
330
1F
100
AcDbEntity
  8
0
  6
Continuous
 62
     7
370
    15
100
AcDbLine
 10
238.4902247483
 20
131.7862985618
 30
0.0
 11
252.7669118041
 21
135.9054340012
 31
0.0
  0
LINE
  5
E0
330
1F
100
AcDbEntity
  8
0
  6
Continuous
 62
     7
370
    15
100
AcDbLine
 10
252.7669118041
 20
135.9054340012
 30
0.0
 11
234.5468261534
 21
77.9653551019
 31
0.0
  0
ELLIPSE
  5
E1
330
1F
100
AcDbEntity
  8
0
  6
Continuous
 62
     7
370
    15
100
AcDbEllipse
 10
300.199049484
 20
105.3346382416
 30
0.0
 11
181.4782965369623
 21
-5.729249529783575
 31
0.0
210
0.0
220
0.0
230
1.0
 40
0.1734804855
 41
4.32492658927978
 42
4.347712687697615
  0
SPLINE
  5
E2
330
1F
100
AcDbEntity
  8
0
  6
Continuous
 62
     7
370
    15
100
AcDbSpline
210
0.0
220
0.0
230
1.0
 70
     8
 71
     3
 72
    12
 73
     8
 74
     0
 42
0.00000001
 43
0.00000001
 12
1.0
 22
0.0
 32
0.0
 13
1.0
 23
0.0
 33
0.0
 40
0.0
 40
0.0
 40
0.0
 40
0.0
 40
0.4999999999999971
 40
0.4999999999999971
 40
0.7499999999999986
 40
0.7499999999999986
 40
1.0
 40
1.0
 40
1.0
 40
1.0
 10
230.7090301592015
 20
78.350239457736
 30
0.0
 10
230.6247126438828
 20
78.51457895275026
 30
0.0
 10
230.5026995087679
 20
78.66117259468419
 30
0.0
 10
230.2775494597831
 20
78.827155204002
 30
0.0
 10
230.1973886983564
 20
78.87237555612624
 30
0.0
 10
230.0262393105655
 20
78.94140270431755
 30
0.0
 10
229.9352306330956
 20
78.96479127788949
 30
0.0
 10
229.8430047554174
 20
78.97447681266517
 30
0.0
  0
SPLINE
  5
E3
330
1F
100
AcDbEntity
  8
0
  6
Continuous
 62
     7
370
    15
100
AcDbSpline
210
0.0
220
0.0
230
1.0
 70
     8
 71
     3
 72
    10
 73
     6
 74
     0
 42
0.00000001
 43
0.00000001
 12
1.0
 22
0.0
 32
0.0
 13
1.0
 23
0.0
 33
0.0
 40
0.0
 40
0.0
 40
0.0
 40
0.0
 40
0.5
 40
0.5
 40
1.0
 40
1.0
 40
1.0
 40
1.0
 10
229.843004755417
 20
136.0032432794927
 30
0.0
 10
230.0748513113334
 20
136.013393983224
 30
0.0
 10
230.2914190352733
 20
136.1085214684436
 30
0.0
 10
230.6332834684104
 20
136.4111468758226
 30
0.0
 10
230.7532367887263
 20
136.6119505489351
 30
0.0
 10
230.8089305817061
 20
136.8354569145116
 30
0.0
  0
SPLINE
  5
E4
330
1F
100
AcDbEntity
  8
0
  6
Continuous
 62
     7
370
    15
100
AcDbSpline
210
0.0
220
0.0
230
1.0
 70
     8
 71
     3
 72
     8
 73
     4
 74
     0
 42
0.00000001
 43
0.00000001
 12
1.0
 22
0.0
 32
0.0
 13
1.0
 23
0.0
 33
0.0
 40
0.0
 40
0.0
 40
0.0
 40
0.0
 40
1.0
 40
1.0
 40
1.0
 40
1.0
 10
230.8089305817061
 20
136.8354569145116
 30
0.0
 10
231.1736849981223
 20
138.299263374428
 30
0.0
 10
231.5429268265656
 20
139.7617918068762
 30
0.0
 10
231.9152926010449
 20
141.2234305307755
 30
0.0
  0
ELLIPSE
  5
E5
330
1F
100
AcDbEntity
  8
0
  6
Continuous
 62
     7
370
    15
100
AcDbEllipse
 10
283.2212996113
 20
116.9030154527
 30
0.0
 11
169.2855753305249
 21
53.48856631298462
 31
0.0
210
0.0
220
0.0
230
1.0
 40
0.2239254004
 41
1.740053155001814
 42
1.807284578712107
  0
LINE
  5
E6
330
1F
100
AcDbEntity
  8
0
  6
Continuous
 62
     7
370
    15
100
AcDbLine
 10
242.8988785738
 20
145.2585259415
 30
0.0
 11
240.1810706848
 21
136.6158673502
 31
0.0
  0
LWPOLYLINE
  5
E7
330
1F
100
AcDbEntity
  8
0
  6
Continuous
 62
     7
370
    15
100
AcDbPolyline
 90
       31
 70
   128
 43
0.0
 10
238.9476829464
 20
127.1230360455
 10
239.0449018473
 20
126.406064812
 10
239.2884427005
 20
125.7204288579
 10
239.6676660771
 20
125.0960925556
 10
240.1659907097
 20
124.5603436566
 10
240.761646002
 20
124.1365974731
 10
241.4285921747
 20
123.8433724232
 10
242.1376825565
 20
123.693485368
 10
242.8579301829
 20
123.693485368
 10
243.5578489
 20
123.8433724232
 10
244.2068577999
 20
124.1365974731
 10
244.7765850717
 20
124.5603436566
 10
245.2421346003
 20
125.0960925556
 10
245.5831588501
 20
125.7204288579
 10
245.7847529346
 20
126.406064812
 10
245.8381102676
 20
127.1230360455
 10
245.7408913666
 20
127.840007279
 10
245.4973467881
 20
128.5256432332
 10
245.1181271369
 20
129.1499795354
 10
244.6197987789
 20
129.6857284344
 10
244.0241472119
 20
130.1094746179
 10
243.3572010392
 20
130.4026996679
 10
242.6481069321
 20
130.5525885857
 10
241.9278630311
 20
130.5525885857
 10
241.2279405886
 20
130.4026996679
 10
240.578935414
 20
130.1094746179
 10
240.0092044169
 20
129.6857284344
 10
239.5436548883
 20
129.1499795354
 10
239.2026306385
 20
128.5256432332
 10
239.001036554
 20
127.840007279
 10
238.9476829464
 20
127.1230360455
  0
LINE
  5
E8
330
1F
100
AcDbEntity
  8
0
  6
Continuous
 62
     7
370
    15
100
AcDbLine
 10
230.7090283627
 20
78.350239057
 30
0.0
 11
230.7090283627
 21
73.3346367217
 31
0.0
  0
ELLIPSE
  5
E9
330
1F
100
AcDbEntity
  8
0
  6
Continuous
 62
     7
370
    15
100
AcDbEllipse
 10
241.94081412
 20
105.3346382416
 30
0.0
 11
11.07892454872075
 21
31.97838338560522
 31
0.0
210
0.0
220
0.0
230
1.0
 40
0.1061482562
 41
3.178351197301706
 42
3.723037119961774
  0
SPLINE
  5
EA
330
1F
100
AcDbEntity
  8
0
  6
Continuous
 62
     7
370
    15
100
AcDbSpline
210
0.0
220
0.0
230
1.0
 70
     8
 71
     3
 72
    10
 73
     6
 74
     0
 42
0.00000001
 43
0.00000001
 12
1.0
 22
0.0
 32
0.0
 13
1.0
 23
0.0
 33
0.0
 40
0.0
 40
0.0
 40
0.0
 40
0.0
 40
0.4947992656200529
 40
0.9895979865082939
 40
1.0
 40
1.0
 40
1.0
 40
1.0
 10
231.9152922624714
 20
141.2234293259227
 30
0.0
 10
231.906102126203
 20
141.3196901969257
 30
0.0
 10
231.8877218637838
 20
141.5122118329568
 30
0.0
 10
231.8706673570056
 20
141.5769065149853
 30
0.0
 10
231.8634397506146
 20
141.5096388776537
 30
0.0
 10
231.8632909351952
 20
141.5082538462722
 30
0.0
  0
LINE
  5
EB
330
1F
100
AcDbEntity
  8
0
  6
Continuous
 62
     7
370
    15
100
AcDbLine
 10
238.5800340468
 20
135.0391531325
 30
0.0
 11
240.1810706848
 21
136.6158673502
 31
0.0
  0
LINE
  5
EC
330
1F
100
AcDbEntity
  8
0
  6
Continuous
 62
     7
370
    15
100
AcDbLine
 10
238.5800340468
 20
135.0391531325
 30
0.0
 11
235.8342268759
 21
134.2469291724
 31
0.0
  0
ELLIPSE
  5
ED
330
1F
100
AcDbEntity
  8
0
  6
Continuous
 62
     7
370
    15
100
AcDbEllipse
 10
226.2213915912
 20
97.2763731664
 30
0.0
 11
16.73790244551478
 21
47.96626505218654
 31
0.0
210
0.0
220
0.0
230
1.0
 40
0.0882384119
 41
0.0138933650999471
 42
0.0694161694933627
  0
LINE
  5
EE
330
1F
100
AcDbEntity
  8
0
  6
HIDDEN
 62
     7
370
     0
100
AcDbLine
 10
192.6103317434
 20
136.334637735
 30
0.0
 11
192.6103317434
 21
74.3346387483
 31
0.0
  0
SPLINE
  5
EF
330
1F
100
AcDbEntity
  8
0
  6
HIDDEN
 62
     7
370
     0
100
AcDbSpline
210
0.0
220
0.0
230
1.0
 70
     8
 71
     3
 72
    60
 73
    56
 74
     0
 42
0.00000001
 43
0.00000001
 12
1.0
 22
0.0
 32
0.0
 13
1.0
 23
0.0
 33
0.0
 40
-0.0625000000000004
 40
-0.0625000000000004
 40
0.0
 40
0.0
 40
0.0312499999999999
 40
0.0312499999999999
 40
0.0624999999999998
 40
0.0624999999999998
 40
0.0937499999999997
 40
0.0937499999999997
 40
0.1249999999999996
 40
0.1249999999999996
 40
0.1874999999999992
 40
0.1874999999999992
 40
0.2499999999999987
 40
0.2499999999999987
 40
0.2812499999999987
 40
0.2812499999999987
 40
0.3124999999999987
 40
0.3124999999999987
 40
0.3437499999999986
 40
0.3437499999999986
 40
0.3749999999999986
 40
0.3749999999999986
 40
0.4062499999999985
 40
0.4062499999999985
 40
0.4374999999999985
 40
0.4374999999999985
 40
0.4687499999999984
 40
0.4687499999999984
 40
0.4999999999999984
 40
0.4999999999999984
 40
0.5624999999999983
 40
0.5624999999999983
 40
0.6249999999999982
 40
0.6249999999999982
 40
0.6562499999999984
 40
0.6562499999999984
 40
0.6874999999999986
 40
0.6874999999999986
 40
0.7187499999999987
 40
0.7187499999999987
 40
0.7499999999999988
 40
0.7499999999999988
 40
0.7812499999999989
 40
0.7812499999999989
 40
0.812499999999999
 40
0.812499999999999
 40
0.8437499999999991
 40
0.8437499999999991
 40
0.8749999999999992
 40
0.8749999999999992
 40
0.9062499999999994
 40
0.9062499999999994
 40
0.9374999999999996
 40
0.9374999999999996
 40
1.0
 40
1.0
 40
1.03125
 40
1.03125
 10
206.610331743396
 20
105.0703077165464
 30
0.0
 10
206.610331743396
 20
105.4668035041765
 30
0.0
 10
206.5973598849072
 20
105.5967535651806
 30
0.0
 10
206.5465397152148
 20
105.8524064985407
 30
0.0
 10
206.5080723917479
 20
105.97943600509
 30
0.0
 10
206.4076741556757
 20
106.2216241362145
 30
0.0
 10
206.3462411247026
 20
106.3364856287674
 30
0.0
 10
206.2011062931577
 20
106.5538658245915
 30
0.0
 10
206.1166511757498
 20
106.6567633917902
 30
0.0
 10
205.8399317253915
 20
106.9334304307979
 30
0.0
 10
205.6168548334734
 20
107.0824285212779
 30
0.0
 10
205.1355714712531
 20
107.2819396617426
 30
0.0
 10
204.8723410522621
 20
107.3344977647393
 30
0.0
 10
204.4809388505742
 20
107.3347080471174
 30
0.0
 10
204.3484158224653
 20
107.3217222763902
 30
0.0
 10
204.0918853692243
 20
107.2706951281764
 30
0.0
 10
203.9671985349277
 20
107.232939929026
 30
0.0
 10
203.7250192726922
 20
107.1328015961173
 30
0.0
 10
203.6079257405421
 20
107.0701959287058
 30
0.0
 10
203.3912107371866
 20
106.9254626354408
 30
0.0
 10
203.2901919103239
 20
106.8428352881612
 30
0.0
 10
203.1034070228717
 20
106.6562302349097
 30
0.0
 10
203.0205501416756
 20
106.5551151710335
 30
0.0
 10
202.8756658766017
 20
106.3385823670436
 30
0.0
 10
202.8130283687808
 20
106.2217121594425
 30
0.0
 10
202.7125795453811
 20
105.9794142887924
 30
0.0
 10
202.6747284443638
 20
105.8547502903314
 30
0.0
 10
202.6235068791075
 20
105.5984632462675
 30
0.0
 10
202.6103787524902
 20
105.4658912505219
 30
0.0
 10
202.61023811215
 20
105.074287057748
 30
0.0
 10
202.6625628615218
 20
104.811121726424
 30
0.0
 10
202.8616739235791
 20
104.3296163572509
 30
0.0
 10
203.0105362600364
 20
104.1063648177668
 30
0.0
 10
203.2868572193618
 20
103.8295085188779
 30
0.0
 10
203.3896208677354
 20
103.7449950720342
 30
0.0
 10
203.6070044251149
 20
103.599577798594
 30
0.0
 10
203.7218031930713
 20
103.5380665995356
 30
0.0
 10
203.9636799164954
 20
103.4375367512807
 30
0.0
 10
204.0908335244956
 20
103.3988917280627
 30
0.0
 10
204.3464995339282
 20
103.3478354005118
 30
0.0
 10
204.4763655716842
 20
103.3347705419661
 30
0.0
 10
204.7403180984158
 20
103.3345079211682
 30
0.0
 10
204.8707224218399
 20
103.3473849214122
 30
0.0
 10
205.1263731852192
 20
103.397970925218
 30
0.0
 10
205.2532387343336
 20
103.4362472898399
 30
0.0
 10
205.4957591922795
 20
103.5365181573199
 30
0.0
 10
205.6106858309398
 20
103.5978741814608
 30
0.0
 10
205.8280572997718
 20
103.7427204766336
 30
0.0
 10
205.9310711124341
 20
103.8270979911282
 30
0.0
 10
206.115771658016
 20
104.0115053113165
 30
0.0
 10
206.1986013922726
 20
104.1120783745859
 30
0.0
 10
206.3448538308701
 20
104.3303045151649
 30
0.0
 10
206.4072223116625
 20
104.4468596250862
 30
0.0
 10
206.5571784632292
 20
104.8077092191199
 30
0.0
 10
206.610331743396
 20
105.0703077165464
 30
0.0
 10
206.610331743396
 20
105.4668035041765
 30
0.0
  0
SPLINE
  5
F0
330
1F
100
AcDbEntity
  8
0
  6
HIDDEN
 62
     7
370
     0
100
AcDbSpline
210
0.0
220
0.0
230
1.0
 70
     8
 71
     3
 72
    12
 73
     8
 74
     0
 42
0.00000001
 43
0.00000001
 12
1.0
 22
0.0
 32
0.0
 13
1.0
 23
0.0
 33
0.0
 40
0.0
 40
0.0
 40
0.0
 40
0.0
 40
0.5000000000000009
 40
0.5000000000000009
 40
0.7500000000000004
 40
0.7500000000000004
 40
1.0
 40
1.0
 40
1.0
 40
1.0
 10
202.7050758550702
 20
95.42526892094786
 30
0.0
 10
202.7357980969893
 20
95.53782472035704
 30
0.0
 10
202.7786353115245
 20
95.65058258009662
 30
0.0
 10
202.8780623357243
 20
95.800123465893
 30
0.0
 10
202.9178145305409
 20
95.84741619759984
 30
0.0
 10
203.0158559873992
 20
95.9211524909213
 30
0.0
 10
203.0754120429866
 20
95.94657181029702
 30
0.0
 10
203.1380885569625
 20
95.94657181029702
 30
0.0
  0
LINE
  5
F1
330
1F
100
AcDbEntity
  8
0
  6
HIDDEN
 62
     7
370
     0
100
AcDbLine
 10
203.1380887398
 20
95.9465714134
 30
0.0
 11
206.0825749556
 21
95.9465714134
 31
0.0
  0
SPLINE
  5
F2
330
1F
100
AcDbEntity
  8
0
  6
HIDDEN
 62
     7
370
     0
100
AcDbSpline
210
0.0
220
0.0
230
1.0
 70
     8
 71
     3
 72
    12
 73
     8
 74
     0
 42
0.00000001
 43
0.00000001
 12
1.0
 22
0.0
 32
0.0
 13
1.0
 23
0.0
 33
0.0
 40
0.0
 40
0.0
 40
0.0
 40
0.0
 40
0.2500000000000014
 40
0.2500000000000014
 40
0.5000000000000028
 40
0.5000000000000028
 40
1.0
 40
1.0
 40
1.0
 40
1.0
 10
206.0825749298296
 20
95.94657181029702
 30
0.0
 10
206.1456549683229
 20
95.94657181029702
 30
0.0
 10
206.2048035905043
 20
95.92120749108204
 30
0.0
 10
206.3032761405734
 20
95.84704263070913
 30
0.0
 10
206.3423127525581
 20
95.80052229015504
 30
0.0
 10
206.4422092193371
 20
95.65037994730979
 30
0.0
 10
206.4846301004038
 20
95.53868674033767
 30
0.0
 10
206.5155876317218
 20
95.42526892094791
 30
0.0
  0
ELLIPSE
  5
F3
330
1F
100
AcDbEntity
  8
0
  6
HIDDEN
 62
     7
370
     0
100
AcDbEllipse
 10
190.263177554
 20
105.3346382416
 30
0.0
 11
-14.7536831606561
 21
31.09325491558116
 31
0.0
210
0.0
220
0.0
230
1.0
 40
0.3419987131
 41
3.30073485621713
 42
4.23149622336078
  0
SPLINE
  5
F4
330
1F
100
AcDbEntity
  8
0
  6
HIDDEN
 62
     7
370
     0
100
AcDbSpline
210
0.0
220
0.0
230
1.0
 70
     8
 71
     3
 72
    12
 73
     8
 74
     0
 42
0.00000001
 43
0.00000001
 12
1.0
 22
0.0
 32
0.0
 13
1.0
 23
0.0
 33
0.0
 40
0.0
 40
0.0
 40
0.0
 40
0.0
 40
0.4999999999999991
 40
0.4999999999999991
 40
0.7499999999999996
 40
0.7499999999999996
 40
1.0
 40
1.0
 40
1.0
 40
1.0
 10
206.5155876317218
 20
75.43389578151591
 30
0.0
 10
206.4848653898027
 20
75.39659379856285
 30
0.0
 10
206.4420281752675
 20
75.35998196651647
 30
0.0
 10
206.3426011510677
 20
75.31221718323128
 30
0.0
 10
206.3028489562511
 20
75.2972596677489
 30
0.0
 10
206.2048074993928
 20
75.27406972197977
 30
0.0
 10
206.1452514438054
 20
75.26614628276003
 30
0.0
 10
206.0825749298296
 20
75.26614628276005
 30
0.0
  0
LINE
  5
F5
330
1F
100
AcDbEntity
  8
0
  6
HIDDEN
 62
     7
370
     0
100
AcDbLine
 10
206.0825749556
 20
75.2661457248
 30
0.0
 11
203.1380887398
 21
75.2661457248
 31
0.0
  0
SPLINE
  5
F6
330
1F
100
AcDbEntity
  8
0
  6
HIDDEN
 62
     7
370
     0
100
AcDbSpline
210
0.0
220
0.0
230
1.0
 70
     8
 71
     3
 72
    12
 73
     8
 74
     0
 42
0.00000001
 43
0.00000001
 12
1.0
 22
0.0
 32
0.0
 13
1.0
 23
0.0
 33
0.0
 40
0.0
 40
0.0
 40
0.0
 40
0.0
 40
0.2499999999999986
 40
0.2499999999999986
 40
0.4999999999999972
 40
0.4999999999999972
 40
1.0
 40
1.0
 40
1.0
 40
1.0
 10
203.1380885569624
 20
75.26614628276005
 30
0.0
 10
203.0750085184691
 20
75.26614628276003
 30
0.0
 10
203.0158598962877
 20
75.27405220897249
 30
0.0
 10
202.9173873462186
 20
75.29737737040873
 30
0.0
 10
202.8783507342339
 20
75.31209016024042
 30
0.0
 10
202.7784542674549
 20
75.36004596097133
 30
0.0
 10
202.7360333863882
 20
75.39630811755141
 30
0.0
 10
202.7050758550702
 20
75.4338957815159
 30
0.0
  0
ELLIPSE
  5
F7
330
1F
100
AcDbEntity
  8
0
  6
HIDDEN
 62
     7
370
     0
100
AcDbEllipse
 10
218.9574859328
 20
105.3346382416
 30
0.0
 11
14.75368316065612
 21
31.09325491558116
 31
0.0
210
0.0
220
0.0
230
1.0
 40
0.3419987131
 41
2.051689083818823
 42
2.9824504509625
  0
SPLINE
  5
F8
330
1F
100
AcDbEntity
  8
0
  6
HIDDEN
 62
     7
370
     0
100
AcDbSpline
210
0.0
220
0.0
230
1.0
 70
     8
 71
     3
 72
    12
 73
     8
 74
     0
 42
0.00000001
 43
0.00000001
 12
1.0
 22
0.0
 32
0.0
 13
1.0
 23
0.0
 33
0.0
 40
0.0
 40
0.0
 40
0.0
 40
0.0
 40
0.5000000000000037
 40
0.5000000000000037
 40
0.7500000000000018
 40
0.7500000000000018
 40
1.0
 40
1.0
 40
1.0
 40
1.0
 10
202.7050758550702
 20
135.2353807017504
 30
0.0
 10
202.7357980969893
 20
135.2726826847035
 30
0.0
 10
202.7786353115245
 20
135.3092945167499
 30
0.0
 10
202.8780623357243
 20
135.3570593000351
 30
0.0
 10
202.9178145305409
 20
135.3720168155174
 30
0.0
 10
203.0158559873992
 20
135.3952067612866
 30
0.0
 10
203.0754120429866
 20
135.4031302005063
 30
0.0
 10
203.1380885569625
 20
135.4031302005063
 30
0.0
  0
LINE
  5
F9
330
1F
100
AcDbEntity
  8
0
  6
HIDDEN
 62
     7
370
     0
100
AcDbLine
 10
203.1380887398
 20
135.4031307585
 30
0.0
 11
206.0825749556
 21
135.4031307585
 31
0.0
  0
SPLINE
  5
FA
330
1F
100
AcDbEntity
  8
0
  6
HIDDEN
 62
     7
370
     0
100
AcDbSpline
210
0.0
220
0.0
230
1.0
 70
     8
 71
     3
 72
    12
 73
     8
 74
     0
 42
0.00000001
 43
0.00000001
 12
1.0
 22
0.0
 32
0.0
 13
1.0
 23
0.0
 33
0.0
 40
0.0
 40
0.0
 40
0.0
 40
0.0
 40
0.2500000000000018
 40
0.2500000000000018
 40
0.5000000000000037
 40
0.5000000000000037
 40
1.0
 40
1.0
 40
1.0
 40
1.0
 10
206.0825749298296
 20
135.4031302005063
 30
0.0
 10
206.1456549683229
 20
135.4031302005064
 30
0.0
 10
206.2048035905043
 20
135.3952242742939
 30
0.0
 10
206.3032761405734
 20
135.3718991128576
 30
0.0
 10
206.3423127525581
 20
135.357186323026
 30
0.0
 10
206.4422092193371
 20
135.309230522295
 30
0.0
 10
206.4846301004038
 20
135.272968365715
 30
0.0
 10
206.5155876317218
 20
135.2353807017504
 30
0.0
  0
ELLIPSE
  5
FB
330
1F
100
AcDbEntity
  8
0
  6
HIDDEN
 62
     7
370
     0
100
AcDbEllipse
 10
190.263177554
 20
105.3346382416
 30
0.0
 11
14.75368316065624
 21
31.09325491558116
 31
0.0
210
0.0
220
0.0
230
1.0
 40
0.3419987131
 41
5.193281737408637
 42
6.12404310455234
  0
SPLINE
  5
FC
330
1F
100
AcDbEntity
  8
0
  6
HIDDEN
 62
     7
370
     0
100
AcDbSpline
210
0.0
220
0.0
230
1.0
 70
     8
 71
     3
 72
    12
 73
     8
 74
     0
 42
0.00000001
 43
0.00000001
 12
1.0
 22
0.0
 32
0.0
 13
1.0
 23
0.0
 33
0.0
 40
0.0
 40
0.0
 40
0.0
 40
0.0
 40
0.499999999999999
 40
0.499999999999999
 40
0.7499999999999994
 40
0.7499999999999994
 40
1.0
 40
1.0
 40
1.0
 40
1.0
 10
206.5155876317218
 20
115.2440075623187
 30
0.0
 10
206.4848653898026
 20
115.1314517629095
 30
0.0
 10
206.4420281752675
 20
115.01869390317
 30
0.0
 10
206.3426011510677
 20
114.8691530173736
 30
0.0
 10
206.3028489562511
 20
114.8218602856668
 30
0.0
 10
206.2048074993928
 20
114.7481239923453
 30
0.0
 10
206.1452514438054
 20
114.7227046729696
 30
0.0
 10
206.0825749298296
 20
114.7227046729696
 30
0.0
  0
LINE
  5
FD
330
1F
100
AcDbEntity
  8
0
  6
HIDDEN
 62
     7
370
     0
100
AcDbLine
 10
206.0825749556
 20
114.7227050699
 30
0.0
 11
203.1380887398
 21
114.7227050699
 31
0.0
  0
SPLINE
  5
FE
330
1F
100
AcDbEntity
  8
0
  6
HIDDEN
 62
     7
370
     0
100
AcDbSpline
210
0.0
220
0.0
230
1.0
 70
     8
 71
     3
 72
    12
 73
     8
 74
     0
 42
0.00000001
 43
0.00000001
 12
1.0
 22
0.0
 32
0.0
 13
1.0
 23
0.0
 33
0.0
 40
0.0
 40
0.0
 40
0.0
 40
0.0
 40
0.2499999999999995
 40
0.2499999999999995
 40
0.499999999999999
 40
0.499999999999999
 40
1.0
 40
1.0
 40
1.0
 40
1.0
 10
203.1380885569625
 20
114.7227046729696
 30
0.0
 10
203.0750085184691
 20
114.7227046729696
 30
0.0
 10
203.0158598962877
 20
114.7480689921846
 30
0.0
 10
202.9173873462186
 20
114.8222338525574
 30
0.0
 10
202.8783507342339
 20
114.8687541931116
 30
0.0
 10
202.7784542674548
 20
115.0188965359568
 30
0.0
 10
202.7360333863882
 20
115.1305897429289
 30
0.0
 10
202.7050758550702
 20
115.2440075623187
 30
0.0
  0
ELLIPSE
  5
FF
330
1F
100
AcDbEntity
  8
0
  6
HIDDEN
 62
     7
370
     0
100
AcDbEllipse
 10
218.9574859328
 20
105.3346382416
 30
0.0
 11
-14.75368316065621
 21
31.09325491558116
 31
0.0
210
0.0
220
0.0
230
1.0
 40
0.3419987131
 41
0.1591422026272854
 42
1.089903569770961
  0
LWPOLYLINE
  5
100
330
1F
100
AcDbEntity
  8
0
  6
HIDDEN
 62
     7
370
     0
100
AcDbPolyline
 90
       20
 70
   128
 43
0.0
 10
216.1656012082
 20
116.2234084643
 10
215.7483537937
 20
115.7621001787
 10
215.2223446662
 20
115.3935050554
 10
214.6143288607
 20
115.1363752745
 10
213.9552411878
 20
115.0037893988
 10
213.2786055351
 20
115.0024939291
 10
212.61884731
 20
115.1325540579
 10
212.0095257903
 20
115.3873527385
 10
211.4816372538
 20
115.7539287544
 10
211.0620373184
 20
116.2136351652
 10
210.7720718974
 20
116.7430845983
 10
210.6264912779
 20
117.3153450675
 10
210.6326994741
 20
117.9013043604
 10
210.7903816992
 20
118.4711545668
 10
211.0915174032
 20
118.9959073402
 10
211.5207863295
 20
119.4488672502
 10
212.0563526893
 20
119.8069933764
 10
212.6709715718
 20
120.0520662553
 10
213.333374753
 20
120.1716192029
 10
214.0098688448
 20
120.1595706827
  0
SPLINE
  5
101
330
1F
100
AcDbEntity
  8
0
  6
HIDDEN
 62
     7
370
     0
100
AcDbSpline
210
0.0
220
0.0
230
1.0
 70
     8
 71
     3
 72
    30
 73
    26
 74
     0
 42
0.00000001
 43
0.00000001
 12
1.0
 22
0.0
 32
0.0
 13
1.0
 23
0.0
 33
0.0
 40
0.0
 40
0.0
 40
0.0
 40
0.0
 40
0.1250000000000009
 40
0.1250000000000009
 40
0.2500000000000018
 40
0.2500000000000018
 40
0.3125000000000018
 40
0.3125000000000018
 40
0.3750000000000017
 40
0.3750000000000017
 40
0.4375000000000017
 40
0.4375000000000017
 40
0.5000000000000017
 40
0.5000000000000017
 40
0.5625000000000016
 40
0.5625000000000016
 40
0.6250000000000014
 40
0.6250000000000014
 40
0.7500000000000011
 40
0.7500000000000011
 40
0.812500000000001
 40
0.812500000000001
 40
0.8750000000000008
 40
0.8750000000000008
 40
1.0
 40
1.0
 40
1.0
 40
1.0
 10
214.0098679897119
 20
120.1595708797635
 30
0.0
 10
214.11593797298
 20
120.2906384678542
 30
0.0
 10
214.2750220564224
 20
120.3949632645398
 30
0.0
 10
214.6542989805095
 20
120.5294276014886
 30
0.0
 10
214.8674015377092
 20
120.5566033809562
 30
0.0
 10
215.2019516346729
 20
120.5157854023451
 30
0.0
 10
215.3133929211511
 20
120.4886943524031
 30
0.0
 10
215.5339204573242
 20
120.4044064182658
 30
0.0
 10
215.644187363808
 20
120.3461272695055
 30
0.0
 10
215.8499528260417
 20
120.2012863130556
 30
0.0
 10
215.946475069157
 20
120.1147112546342
 30
0.0
 10
216.1250867447253
 20
119.9118241808721
 30
0.0
 10
216.2055972520298
 20
119.7967325762
 30
0.0
 10
216.3436923145223
 20
119.5493000941666
 30
0.0
 10
216.4027350113411
 20
119.4142743655296
 30
0.0
 10
216.4973615420785
 20
119.1346604422129
 30
0.0
 10
216.5333391917014
 20
118.9900775890781
 30
0.0
 10
216.6111053798318
 20
118.5437926056142
 30
0.0
 10
216.6211856345175
 20
118.2405509535357
 30
0.0
 10
216.5895052341388
 20
117.7882546335679
 30
0.0
 10
216.5708378590781
 20
117.6368000745069
 30
0.0
 10
216.5203593969515
 20
117.3410067008026
 30
0.0
 10
216.4885210191904
 20
117.1957315667423
 30
0.0
 10
216.375981002737
 20
116.7669383560315
 30
0.0
 10
216.2764244659052
 20
116.4887317444581
 30
0.0
 10
216.1656019046607
 20
116.2234087230702
 30
0.0
  0
LINE
  5
102
330
1F
100
AcDbEntity
  8
0
  6
HIDDEN
 62
     7
370
     0
100
AcDbLine
 10
192.6103317434
 20
81.0846375264
 30
0.0
 11
192.6103317434
 21
129.5846389569
 31
0.0
  0
SPLINE
  5
103
330
1F
100
AcDbEntity
  8
0
  6
HIDDEN
 62
     7
370
     0
100
AcDbSpline
210
0.0
220
0.0
230
1.0
 70
     8
 71
     3
 72
    12
 73
     8
 74
     0
 42
0.00000001
 43
0.00000001
 12
1.0
 22
0.0
 32
0.0
 13
1.0
 23
0.0
 33
0.0
 40
0.0
 40
0.0
 40
0.0
 40
0.0
 40
0.5000000000000007
 40
0.5000000000000007
 40
0.7500000000000002
 40
0.7500000000000002
 40
1.0
 40
1.0
 40
1.0
 40
1.0
 10
191.793819456949
 20
120.786906223464
 30
0.0
 10
191.8502256356292
 20
120.7390838498042
 30
0.0
 10
191.920388537101
 20
120.6988130028656
 30
0.0
 10
192.0383992504902
 20
120.6907671343886
 30
0.0
 10
192.0786050340857
 20
120.6973297327275
 30
0.0
 10
192.1523257308187
 20
120.7247118271811
 30
0.0
 10
192.1851864526053
 20
120.7444733177115
 30
0.0
 10
192.2153548545345
 20
120.7674060288995
 30
0.0
  0
SPLINE
  5
104
330
1F
100
AcDbEntity
  8
0
  6
HIDDEN
 62
     7
370
     0
100
AcDbSpline
210
0.0
220
0.0
230
1.0
 70
     8
 71
     3
 72
    16
 73
    12
 74
     0
 42
0.00000001
 43
0.00000001
 12
1.0
 22
0.0
 32
0.0
 13
1.0
 23
0.0
 33
0.0
 40
0.0
 40
0.0
 40
0.0
 40
0.0
 40
0.0624999999999968
 40
0.0624999999999968
 40
0.1249999999999936
 40
0.1249999999999936
 40
0.2499999999999954
 40
0.2499999999999954
 40
0.4999999999999951
 40
0.4999999999999951
 40
1.0
 40
1.0
 40
1.0
 40
1.0
 10
192.2153548544893
 20
120.7674060289476
 30
0.0
 10
192.2269677543287
 20
120.776233651929
 30
0.0
 10
192.2403189387612
 20
120.784068033811
 30
0.0
 10
192.2697187783803
 20
120.7923781598834
 30
0.0
 10
192.2845595029357
 20
120.7918823406483
 30
0.0
 10
192.3203927109043
 20
120.780431369679
 30
0.0
 10
192.3345059187259
 20
120.7637508688203
 30
0.0
 10
192.3689972899448
 20
120.7116301830633
 30
0.0
 10
192.3800813610552
 20
120.6718406890383
 30
0.0
 10
192.4062041788511
 20
120.5485040569412
 30
0.0
 10
192.410331743396
 20
120.4610826464425
 30
0.0
 10
192.410331743396
 20
120.3723454041243
 30
0.0
  0
LINE
  5
105
330
1F
100
AcDbEntity
  8
0
  6
HIDDEN
 62
     7
370
     0
100
AcDbLine
 10
192.4103317484
 20
90.2969311885
 30
0.0
 11
192.4103317484
 21
120.3723452948
 31
0.0
  0
SPLINE
  5
106
330
1F
100
AcDbEntity
  8
0
  6
HIDDEN
 62
     7
370
     0
100
AcDbSpline
210
0.0
220
0.0
230
1.0
 70
     8
 71
     3
 72
    16
 73
    12
 74
     0
 42
0.00000001
 43
0.00000001
 12
1.0
 22
0.0
 32
0.0
 13
1.0
 23
0.0
 33
0.0
 40
0.0
 40
0.0
 40
0.0
 40
0.0
 40
0.5000000000000011
 40
0.5000000000000011
 40
0.7499999999999966
 40
0.7499999999999966
 40
0.8749999999999973
 40
0.8749999999999973
 40
0.9374999999999988
 40
0.9374999999999988
 40
1.0
 40
1.0
 40
1.0
 40
1.0
 10
192.410331743396
 20
90.29693107914194
 30
0.0
 10
192.410331743396
 20
90.20780471395318
 30
0.0
 10
192.4061854683181
 20
90.12094334633977
 30
0.0
 10
192.3802198729245
 20
89.99796109984572
 30
0.0
 10
192.3687589675471
 20
89.95718980461444
 30
0.0
 10
192.3344472297728
 20
89.90548548461466
 30
0.0
 10
192.3204224938431
 20
89.88881511802425
 30
0.0
 10
192.2843995308093
 20
89.87736289756751
 30
0.0
 10
192.2696450217196
 20
89.87690985129248
 30
0.0
 10
192.2402928605728
 20
89.88522517250865
 30
0.0
 10
192.2269529860687
 20
89.89305405758697
 30
0.0
 10
192.2153548545203
 20
89.90187045434958
 30
0.0
  0
SPLINE
  5
107
330
1F
100
AcDbEntity
  8
0
  6
HIDDEN
 62
     7
370
     0
100
AcDbSpline
210
0.0
220
0.0
230
1.0
 70
     8
 71
     3
 72
    12
 73
     8
 74
     0
 42
0.00000001
 43
0.00000001
 12
1.0
 22
0.0
 32
0.0
 13
1.0
 23
0.0
 33
0.0
 40
0.0
 40
0.0
 40
0.0
 40
0.0
 40
0.2500000000000006
 40
0.2500000000000006
 40
0.5000000000000011
 40
0.5000000000000011
 40
1.0
 40
1.0
 40
1.0
 40
1.0
 10
192.2153548545274
 20
89.90187045435852
 30
0.0
 10
192.1851630128102
 20
89.92482098345633
 30
0.0
 10
192.1518040433956
 20
89.94479045748055
 30
0.0
 10
192.078666758815
 20
89.97189159110604
 30
0.0
 10
192.038424886161
 20
89.97849233175145
 30
0.0
 10
191.9207191091925
 20
89.97052345724474
 30
0.0
 10
191.8503086314131
 20
89.93026299907689
 30
0.0
 10
191.7938194569448
 20
89.88237025979873
 30
0.0
  0
SPLINE
  5
108
330
1F
100
AcDbEntity
  8
0
  6
HIDDEN
 62
     7
370
     0
100
AcDbSpline
210
0.0
220
0.0
230
1.0
 70
     8
 71
     3
 72
    12
 73
     8
 74
     0
 42
0.00000001
 43
0.00000001
 12
1.0
 22
0.0
 32
0.0
 13
1.0
 23
0.0
 33
0.0
 40
0.0
 40
0.0
 40
0.0
 40
0.0
 40
0.2499999999999956
 40
0.2499999999999956
 40
0.4999999999999939
 40
0.4999999999999939
 40
1.0
 40
1.0
 40
1.0
 40
1.0
 10
191.7938194569444
 20
89.88237025979893
 30
0.0
 10
191.7056655192067
 20
89.80763145194484
 30
0.0
 10
191.645312094578
 20
89.71665095146246
 30
0.0
 10
191.5390501365112
 20
89.52773712870986
 30
0.0
 10
191.4968179699491
 20
89.43123266916926
 30
0.0
 10
191.3857472746319
 20
89.14046491500213
 30
0.0
 10
191.3328104982051
 20
88.94479810045839
 30
0.0
 10
191.2890113998363
 20
88.75073161539207
 30
0.0
  0
SPLINE
  5
109
330
1F
100
AcDbEntity
  8
0
  6
HIDDEN
 62
     7
370
     0
100
AcDbSpline
210
0.0
220
0.0
230
1.0
 70
     8
 71
     3
 72
    12
 73
     8
 74
     0
 42
0.00000001
 43
0.00000001
 12
1.0
 22
0.0
 32
0.0
 13
1.0
 23
0.0
 33
0.0
 40
0.0
 40
0.0
 40
0.0
 40
0.0
 40
0.5000000000000007
 40
0.5000000000000007
 40
0.7500000000000004
 40
0.7500000000000004
 40
1.0
 40
1.0
 40
1.0
 40
1.0
 10
191.2890113998363
 20
83.564557286631
 30
0.0
 10
191.3327579406729
 20
83.53796311598983
 30
0.0
 10
191.3856422959044
 20
83.5182028906641
 30
0.0
 10
191.4972093832406
 20
83.49775190043502
 30
0.0
 10
191.5397929797836
 20
83.49249167577858
 30
0.0
 10
191.6447097068654
 20
83.48460888185592
 30
0.0
 10
191.7062433147102
 20
83.48204475667679
 30
0.0
 10
191.7938194569363
 20
83.47984453915713
 30
0.0
  0
LINE
  5
10A
330
1F
100
AcDbEntity
  8
0
  6
HIDDEN
 62
     7
370
     0
100
AcDbLine
 10
192.4103317484
 20
82.7948177196
 30
0.0
 11
192.4103317484
 21
83.2750430293
 31
0.0
  0
LINE
  5
10B
330
1F
100
AcDbEntity
  8
0
  6
HIDDEN
 62
     7
370
     0
100
AcDbLine
 10
192.4103317484
 20
127.394233454
 30
0.0
 11
192.4103317484
 21
127.8744587637
 31
0.0
  0
SPLINE
  5
10C
330
1F
100
AcDbEntity
  8
0
  6
HIDDEN
 62
     7
370
     0
100
AcDbSpline
210
0.0
220
0.0
230
1.0
 70
     8
 71
     3
 72
    12
 73
     8
 74
     0
 42
0.00000001
 43
0.00000001
 12
1.0
 22
0.0
 32
0.0
 13
1.0
 23
0.0
 33
0.0
 40
0.0
 40
0.0
 40
0.0
 40
0.0
 40
0.2500000000000001
 40
0.2500000000000001
 40
0.5000000000000001
 40
0.5000000000000001
 40
1.0
 40
1.0
 40
1.0
 40
1.0
 10
191.7938194569443
 20
127.189431944109
 30
0.0
 10
191.7051347970879
 20
127.187203876768
 30
0.0
 10
191.6452163813645
 20
127.1847020927377
 30
0.0
 10
191.5395571540438
 20
127.1767706569017
 30
0.0
 10
191.4969159159288
 20
127.1714785020049
 30
0.0
 10
191.3857265738263
 20
127.1510735615177
 30
0.0
 10
191.3327998917053
 20
127.1313388699308
 30
0.0
 10
191.2890113998363
 20
127.1047191966352
 30
0.0
  0
SPLINE
  5
10D
330
1F
100
AcDbEntity
  8
0
  6
HIDDEN
 62
     7
370
     0
100
AcDbSpline
210
0.0
220
0.0
230
1.0
 70
     8
 71
     3
 72
    12
 73
     8
 74
     0
 42
0.00000001
 43
0.00000001
 12
1.0
 22
0.0
 32
0.0
 13
1.0
 23
0.0
 33
0.0
 40
0.0
 40
0.0
 40
0.0
 40
0.0
 40
0.4999999999999982
 40
0.4999999999999982
 40
0.7499999999999991
 40
0.7499999999999991
 40
1.0
 40
1.0
 40
1.0
 40
1.0
 10
191.2890113998348
 20
121.9185448678744
 30
0.0
 10
191.3327728761335
 20
121.7246450799123
 30
0.0
 10
191.3856791917865
 20
121.5287887159754
 30
0.0
 10
191.4973903894339
 20
121.2366465694765
 30
0.0
 10
191.5399098330203
 20
121.1399286327785
 30
0.0
 10
191.6450331755877
 20
120.9532041963541
 30
0.0
 10
191.7065991393054
 20
120.8608534880844
 30
0.0
 10
191.7938194569481
 20
120.7869062234647
 30
0.0
  0
LWPOLYLINE
  5
10E
330
1F
100
AcDbEntity
  8
0
  6
HIDDEN
 62
     7
370
     0
100
AcDbPolyline
 90
       16
 70
   128
 43
0.0
 10
215.2833965862
 20
115.8256536312
 10
214.7676413203
 20
115.5153155289
 10
214.178851738
 20
115.3260856829
 10
213.5541857475
 20
115.2699055112
 10
212.9330606455
 20
115.3503214903
 10
212.3546776617
 20
115.5622588433
 10
211.8555353278
 20
115.8923419155
 10
211.4671309734
 20
116.3197398148
 10
211.2139770085
 20
116.8174833022
 10
211.1120512033
 20
117.3541588671
 10
211.1677815462
 20
117.8958998955
 10
211.3776532257
 20
118.4085184671
 10
211.7284228349
 20
118.859665092
 10
212.1979528362
 20
119.2208692394
 10
212.7566141332
 20
119.4693367891
 10
213.3691505784
 20
119.5893879942
  0
SPLINE
  5
10F
330
1F
100
AcDbEntity
  8
0
  6
HIDDEN
 62
     7
370
     0
100
AcDbSpline
210
0.0
220
0.0
230
1.0
 70
     8
 71
     3
 72
     8
 73
     4
 74
     0
 42
0.00000001
 43
0.00000001
 12
1.0
 22
0.0
 32
0.0
 13
1.0
 23
0.0
 33
0.0
 40
0.0
 40
0.0
 40
0.0
 40
0.0
 40
1.0
 40
1.0
 40
1.0
 40
1.0
 10
215.747032566274
 20
115.8491338209962
 30
0.0
 10
215.5928374157922
 20
115.8394213878084
 30
0.0
 10
215.4383437138643
 20
115.8313295588677
 30
0.0
 10
215.2833972884556
 20
115.825653755539
 30
0.0
  0
SPLINE
  5
110
330
1F
100
AcDbEntity
  8
0
  6
HIDDEN
 62
     7
370
     0
100
AcDbSpline
210
0.0
220
0.0
230
1.0
 70
     8
 71
     3
 72
     8
 73
     4
 74
     0
 42
0.00000001
 43
0.00000001
 12
1.0
 22
0.0
 32
0.0
 13
1.0
 23
0.0
 33
0.0
 40
0.0
 40
0.0
 40
0.0
 40
0.0
 40
1.0
 40
1.0
 40
1.0
 40
1.0
 10
216.1656019046637
 20
116.2234087230697
 30
0.0
 10
216.0287062775993
 20
116.0928878796726
 30
0.0
 10
215.8891090985816
 20
115.9680107525032
 30
0.0
 10
215.747032566274
 20
115.8491338209962
 30
0.0
  0
SPLINE
  5
111
330
1F
100
AcDbEntity
  8
0
  6
HIDDEN
 62
     7
370
     0
100
AcDbSpline
210
0.0
220
0.0
230
1.0
 70
     8
 71
     3
 72
     8
 73
     4
 74
     0
 42
0.00000001
 43
0.00000001
 12
1.0
 22
0.0
 32
0.0
 13
1.0
 23
0.0
 33
0.0
 40
0.0
 40
0.0
 40
0.0
 40
0.0
 40
1.0
 40
1.0
 40
1.0
 40
1.0
 10
213.3691511921024
 20
119.5893880416433
 30
0.0
 10
213.579501757026
 20
119.7818424933274
 30
0.0
 10
213.7926291333222
 20
119.9738820199468
 30
0.0
 10
214.009867989711
 20
120.1595708797646
 30
0.0
  0
LWPOLYLINE
  5
112
330
1F
100
AcDbEntity
  8
0
  6
HIDDEN
 62
     7
370
     0
100
AcDbPolyline
 90
        9
 70
   128
 43
0.0
 10
215.440760299
 20
115.0622773878
 10
215.5416355724
 20
115.0847185365
 10
215.6260506505
 20
115.1305405385
 10
215.6930388207
 20
115.1992144025
 10
215.7418270851
 20
115.2899512983
 10
215.7718566502
 20
115.4017081446
 10
215.782781064
 20
115.5331997163
 10
215.7744736666
 20
115.6829154081
 10
215.7470331782
 20
115.8491341359
  0
SPLINE
  5
113
330
1F
100
AcDbEntity
  8
0
  6
HIDDEN
 62
     7
370
     0
100
AcDbSpline
210
0.0
220
0.0
230
1.0
 70
     8
 71
     3
 72
    36
 73
    32
 74
     0
 42
0.00000001
 43
0.00000001
 12
1.0
 22
0.0
 32
0.0
 13
1.0
 23
0.0
 33
0.0
 40
0.0
 40
0.0
 40
0.0
 40
0.0
 40
0.0624999999999998
 40
0.0624999999999998
 40
0.1249999999999997
 40
0.1249999999999997
 40
0.1874999999999996
 40
0.1874999999999996
 40
0.2499999999999994
 40
0.2499999999999994
 40
0.3124999999999992
 40
0.3124999999999992
 40
0.3749999999999991
 40
0.3749999999999991
 40
0.4374999999999989
 40
0.4374999999999989
 40
0.4999999999999988
 40
0.4999999999999988
 40
0.6249999999999982
 40
0.6249999999999982
 40
0.6874999999999986
 40
0.6874999999999986
 40
0.7499999999999988
 40
0.7499999999999988
 40
0.8124999999999991
 40
0.8124999999999991
 40
0.8749999999999994
 40
0.8749999999999994
 40
0.9374999999999997
 40
0.9374999999999997
 40
1.0
 40
1.0
 40
1.0
 40
1.0
 10
215.4407608192274
 20
115.062277106051
 30
0.0
 10
215.5539641107923
 20
115.1555145524014
 30
0.0
 10
215.6491768131287
 20
115.242299165814
 30
0.0
 10
215.8128047388889
 20
115.413283285633
 30
0.0
 10
215.8815100814386
 20
115.49834039262
 30
0.0
 10
215.991027903654
 20
115.668722103423
 30
0.0
 10
216.0325096913041
 20
115.7544601612556
 30
0.0
 10
216.0906646850002
 20
115.9336865850579
 30
0.0
 10
216.1072588826398
 20
116.0280495177041
 30
0.0
 10
216.1126221537904
 20
116.2246548903916
 30
0.0
 10
216.1017257311024
 20
116.3268373946957
 30
0.0
 10
216.0495305545445
 20
116.5435622979053
 30
0.0
 10
216.0077553434402
 20
116.6581301253758
 30
0.0
 10
215.893610770591
 20
116.892306479891
 30
0.0
 10
215.8193921189359
 20
117.0152520501551
 30
0.0
 10
215.644919666174
 20
117.2587822219087
 30
0.0
 10
215.5444042373929
 20
117.3803645337428
 30
0.0
 10
215.208962439767
 20
117.7414688665448
 30
0.0
 10
214.9527796934278
 20
117.9630504258664
 30
0.0
 10
214.5759750163577
 20
118.255009165071
 30
0.0
 10
214.4502916969627
 20
118.34672341069
 30
0.0
 10
214.2109979710623
 20
118.5165381423482
 30
0.0
 10
214.0960782088852
 20
118.5955783994033
 30
0.0
 10
213.8783636756532
 20
118.7475881012208
 30
0.0
 10
213.7754262411669
 20
118.820604381513
 30
0.0
 10
213.5938889301926
 20
118.9629779699314
 30
0.0
 10
213.5141725470273
 20
119.0328494778559
 30
0.0
 10
213.3891497204213
 20
119.1805949815283
 30
0.0
 10
213.3462580011617
 20
119.2565688872121
 30
0.0
 10
213.3156334591797
 20
119.4194843817022
 30
0.0
 10
213.3291724902286
 20
119.5046876844021
 30
0.0
 10
213.3691511920979
 20
119.5893880416393
 30
0.0
  0
SPLINE
  5
114
330
1F
100
AcDbEntity
  8
0
  6
HIDDEN
 62
     7
370
     0
100
AcDbSpline
210
0.0
220
0.0
230
1.0
 70
     8
 71
     3
 72
    10
 73
     6
 74
     0
 42
0.00000001
 43
0.00000001
 12
1.0
 22
0.0
 32
0.0
 13
1.0
 23
0.0
 33
0.0
 40
0.0
 40
0.0
 40
0.0
 40
0.0
 40
0.5
 40
0.5
 40
1.0
 40
1.0
 40
1.0
 40
1.0
 10
215.2833972884556
 20
115.825653755539
 30
0.0
 10
215.2569297194366
 20
115.6549698325548
 30
0.0
 10
215.260811384459
 20
115.5053930402165
 30
0.0
 10
215.3234690847702
 20
115.2526593019897
 30
0.0
 10
215.3786084130091
 20
115.1500308461078
 30
0.0
 10
215.4407608192302
 20
115.0622771060531
 30
0.0
  0
SPLINE
  5
115
330
1F
100
AcDbEntity
  8
0
  6
HIDDEN
 62
     7
370
     0
100
AcDbSpline
210
0.0
220
0.0
230
1.0
 70
     8
 71
     3
 72
    62
 73
    58
 74
     0
 42
0.00000001
 43
0.00000001
 12
1.0
 22
0.0
 32
0.0
 13
1.0
 23
0.0
 33
0.0
 40
-0.0312499999999999
 40
-0.0312499999999999
 40
0.0
 40
0.0
 40
0.0312499999999998
 40
0.0312499999999998
 40
0.0624999999999997
 40
0.0624999999999997
 40
0.0937499999999995
 40
0.0937499999999995
 40
0.1249999999999993
 40
0.1249999999999993
 40
0.1874999999999994
 40
0.1874999999999994
 40
0.2187499999999996
 40
0.2187499999999996
 40
0.2499999999999998
 40
0.2499999999999998
 40
0.28125
 40
0.28125
 40
0.3125000000000002
 40
0.3125000000000002
 40
0.3750000000000004
 40
0.3750000000000004
 40
0.4062500000000006
 40
0.4062500000000006
 40
0.4375000000000008
 40
0.4375000000000008
 40
0.4687500000000009
 40
0.4687500000000009
 40
0.5000000000000011
 40
0.5000000000000011
 40
0.5625000000000014
 40
0.5625000000000014
 40
0.5937500000000012
 40
0.5937500000000012
 40
0.6250000000000011
 40
0.6250000000000011
 40
0.6562500000000009
 40
0.6562500000000009
 40
0.6875000000000008
 40
0.6875000000000008
 40
0.7187500000000007
 40
0.7187500000000007
 40
0.7500000000000006
 40
0.7500000000000006
 40
0.7812500000000006
 40
0.7812500000000006
 40
0.8125000000000004
 40
0.8125000000000004
 40
0.8750000000000002
 40
0.8750000000000002
 40
0.9062500000000002
 40
0.9062500000000002
 40
0.9375000000000001
 40
0.9375000000000001
 40
0.9687500000000001
 40
0.9687500000000001
 40
1.0
 40
1.0
 40
1.03125
 40
1.03125
 10
213.7763755623322
 20
111.8226058675418
 30
0.0
 10
213.4442879244598
 20
111.8226058675418
 30
0.0
 10
213.2811911938828
 20
111.8108147268699
 30
0.0
 10
212.9605948889743
 20
111.7644460831342
 30
0.0
 10
212.8013926856678
 20
111.7292614204335
 30
0.0
 10
212.4990821839538
 20
111.6370495699957
 30
0.0
 10
212.3558306097093
 20
111.5803621178722
 30
0.0
 10
212.0847197686421
 20
111.4448143285454
 30
0.0
 10
211.9570377735133
 20
111.3656013747204
 30
0.0
 10
211.6130376852981
 20
111.1020820631205
 30
0.0
 10
211.4270360567138
 20
110.8845609834515
 30
0.0
 10
211.2395495435321
 20
110.5183784801594
 30
0.0
 10
211.1910775987801
 20
110.3877112815434
 30
0.0
 10
211.1265156193664
 20
110.1167081409736
 30
0.0
 10
211.1104371191464
 20
109.9780051460271
 30
0.0
 10
211.1102273902328
 20
109.6940405638092
 30
0.0
 10
211.1266589376436
 20
109.5474709548573
 30
0.0
 10
211.190827627796
 20
109.2604557754361
 30
0.0
 10
211.2382965905874
 20
109.1187079120657
 30
0.0
 10
211.4274200745416
 20
108.6997169095349
 30
0.0
 10
211.6115599669077
 20
108.4392050027188
 30
0.0
 10
211.9582955507117
 20
108.1042485911296
 30
0.0
 10
212.0836125068635
 20
108.0036963950035
 30
0.0
 10
212.3536720096634
 20
107.825514335315
 30
0.0
 10
212.5000453855446
 20
107.7474238902407
 30
0.0
 10
212.8014632885981
 20
107.6222945292567
 30
0.0
 10
212.9573154500371
 20
107.5743667638198
 30
0.0
 10
213.2796585113535
 20
107.5091972200527
 30
0.0
 10
213.445609978423
 20
107.4925506138615
 30
0.0
 10
213.9365313459742
 20
107.4923360271128
 30
0.0
 10
214.2670143330769
 20
107.5593600022249
 30
0.0
 10
214.7189238306755
 20
107.7465998809825
 30
0.0
 10
214.8652210480548
 20
107.8244681736282
 30
0.0
 10
215.1361046106111
 20
108.0029512624942
 30
0.0
 10
215.261461132769
 20
108.1035039176449
 30
0.0
 10
215.4922387742582
 20
108.3261802608991
 30
0.0
 10
215.5970266543282
 20
108.4482297783748
 30
0.0
 10
215.7776902785103
 20
108.7028885729974
 30
0.0
 10
215.8548787757057
 20
108.8366671095572
 30
0.0
 10
215.9817421799969
 20
109.1169292803185
 30
0.0
 10
216.0294035339292
 20
109.2591174316382
 30
0.0
 10
216.0936339009918
 20
109.5452251534898
 30
0.0
 10
216.1102671148709
 20
109.6910297957414
 30
0.0
 10
216.1103959898823
 20
109.9765539173948
 30
0.0
 10
216.0943150107535
 20
110.1153134990478
 30
0.0
 10
216.0303475982851
 20
110.3851970322567
 30
0.0
 10
215.9817835480414
 20
110.5168459455936
 30
0.0
 10
215.7940527059989
 20
110.8841766604992
 30
0.0
 10
215.6081068685032
 20
111.1015794140089
 30
0.0
 10
215.2643316463989
 20
111.3651273873714
 30
0.0
 10
215.1371563420313
 20
111.4441373438126
 30
0.0
 10
214.8655139327567
 20
111.5800918250115
 30
0.0
 10
214.7223547618096
 20
111.6367344647939
 30
0.0
 10
214.4212278192718
 20
111.728742950916
 30
0.0
 10
214.2617115905802
 20
111.7641580271361
 30
0.0
 10
213.9398456983484
 20
111.8108108312618
 30
0.0
 10
213.7763755623322
 20
111.8226058675418
 30
0.0
 10
213.4442879244598
 20
111.8226058675418
 30
0.0
  0
LINE
  5
116
330
1F
100
AcDbEntity
  8
0
  6
HIDDEN
 62
     7
370
     0
100
AcDbLine
 10
192.4103317484
 20
83.2750430293
 30
0.0
 11
192.4103317484
 21
98.3127510137
 31
0.0
  0
LINE
  5
117
330
1F
100
AcDbEntity
  8
0
  6
HIDDEN
 62
     7
370
     0
100
AcDbLine
 10
192.4103317484
 20
112.3565254695
 30
0.0
 11
192.4103317484
 21
127.394233454
 31
0.0
  0
CIRCLE
  5
118
330
1F
100
AcDbEntity
  8
0
  6
HIDDEN
 62
     7
370
     0
100
AcDbCircle
 10
177.1103317434
 20
105.3346382416
 30
0.0
 40
4.050000000000011
  0
SPLINE
  5
119
330
1F
100
AcDbEntity
  8
0
  6
HIDDEN
 62
     7
370
     0
100
AcDbSpline
210
0.0
220
0.0
230
1.0
 70
     8
 71
     3
 72
    18
 73
    14
 74
     0
 42
0.00000001
 43
0.00000001
 12
1.0
 22
0.0
 32
0.0
 13
1.0
 23
0.0
 33
0.0
 40
0.0
 40
0.0
 40
0.0
 40
0.0
 40
0.1249999999999999
 40
0.1249999999999999
 40
0.2499999999999997
 40
0.2499999999999997
 40
0.4999999999999998
 40
0.4999999999999998
 40
0.7499999999999998
 40
0.7499999999999998
 40
0.8749999999999999
 40
0.8749999999999999
 40
1.0
 40
1.0
 40
1.0
 40
1.0
 10
230.7090301592015
 20
73.45213805225431
 30
0.0
 10
230.672760912281
 20
73.57082673854076
 30
0.0
 10
230.6377243681275
 20
73.69285525642613
 30
0.0
 10
230.5756155028578
 20
73.95836252176416
 30
0.0
 10
230.5484211387225
 20
74.1015204951736
 30
0.0
 10
230.4819813185599
 20
74.57181124659694
 30
0.0
 10
230.4581316192858
 20
74.94044139680412
 30
0.0
 10
230.4579010773416
 20
75.80564817245083
 30
0.0
 10
230.4815745339432
 20
76.29965232313441
 30
0.0
 10
230.5480657616938
 20
77.11890207386075
 30
0.0
 10
230.5753424987018
 20
77.40507936990029
 30
0.0
 10
230.6375982652179
 20
77.9962893085821
 30
0.0
 10
230.6727016340657
 20
78.30171782741782
 30
0.0
 10
230.7090301592001
 20
78.61016121683281
 30
0.0
  0
LINE
  5
11A
330
1F
100
AcDbEntity
  8
0
  6
HIDDEN
 62
     7
370
     0
100
AcDbLine
 10
230.7090283627
 20
78.6101618744
 30
0.0
 11
230.7090283627
 21
105.3346382416
 31
0.0
  0
SPLINE
  5
11B
330
1F
100
AcDbEntity
  8
0
  6
HIDDEN
 62
     7
370
     0
100
AcDbSpline
210
0.0
220
0.0
230
1.0
 70
     8
 71
     3
 72
    10
 73
     6
 74
     0
 42
0.00000001
 43
0.00000001
 12
1.0
 22
0.0
 32
0.0
 13
1.0
 23
0.0
 33
0.0
 40
0.0
 40
0.0
 40
0.0
 40
0.0
 40
0.5
 40
0.5
 40
1.0
 40
1.0
 40
1.0
 40
1.0
 10
230.8089305817061
 20
109.2708482673359
 30
0.0
 10
230.7875649351235
 20
108.6177233305758
 30
0.0
 10
230.760997760475
 20
107.9605024511646
 30
0.0
 10
230.7215445723828
 20
106.6476988761885
 30
0.0
 10
230.7090301592015
 20
105.9911078601508
 30
0.0
 10
230.7090301592015
 20
105.3346382416331
 30
0.0
  0
LINE
  5
11C
330
1F
100
AcDbEntity
  8
0
  6
HIDDEN
 62
     7
370
     0
100
AcDbLine
 10
230.7090283627
 20
73.3346367217
 30
0.0
 11
230.7090283627
 21
73.4521398283
 31
0.0
  0
ELLIPSE
  5
11D
330
1F
100
AcDbEntity
  8
0
  6
HIDDEN
 62
     7
370
     0
100
AcDbEllipse
 10
241.94081412
 20
105.3346382416
 30
0.0
 11
11.07892454872075
 21
31.97838338560522
 31
0.0
210
0.0
220
0.0
230
1.0
 40
0.1061482562
 41
3.092629340245651
 42
3.178351197301706
  0
LINE
  5
11E
330
1F
100
AcDbEntity
  8
0
  6
HIDDEN
 62
     7
370
     0
100
AcDbLine
 10
156.1405592853
 20
120.6475892998
 30
0.0
 11
156.1405592853
 21
90.0216871835
 31
0.0
  0
LINE
  5
11F
330
1F
100
AcDbEntity
  8
0
  6
HIDDEN
 62
     7
370
     0
100
AcDbLine
 10
154.6103329653
 20
89.1382085122
 30
0.0
 11
154.6103329653
 21
121.5121528096
 31
0.0
  0
LINE
  5
120
330
1F
100
AcDbEntity
  8
0
  6
HIDDEN
 62
     7
370
     0
100
AcDbLine
 10
162.6405594194
 20
119.681048762
 30
0.0
 11
162.6405594194
 21
90.9882277213
 31
0.0
  0
LINE
  5
121
330
1F
100
AcDbEntity
  8
0
  6
HIDDEN
 62
     7
370
     0
100
AcDbLine
 10
168.4405607427
 20
119.3346386738
 30
0.0
 11
168.4405607427
 21
91.3346378095
 31
0.0
  0
LINE
  5
122
330
1F
100
AcDbEntity
  8
0
  6
HIDDEN
 62
     7
370
     0
100
AcDbLine
 10
161.0405602748
 20
119.3346386738
 30
0.0
 11
161.0405602748
 21
91.3346378095
 31
0.0
  0
LINE
  5
123
330
1F
100
AcDbEntity
  8
0
  6
HIDDEN
 62
     7
370
     0
100
AcDbLine
 10
162.0405604387
 20
119.3346386738
 30
0.0
 11
162.0405604387
 21
91.3346378095
 31
0.0
  0
SPLINE
  5
124
330
1F
100
AcDbEntity
  8
0
  6
HIDDEN
 62
     7
370
     0
100
AcDbSpline
210
0.0
220
0.0
230
1.0
 70
     8
 71
     3
 72
    10
 73
     6
 74
     0
 42
0.00000001
 43
0.00000001
 12
1.0
 22
0.0
 32
0.0
 13
1.0
 23
0.0
 33
0.0
 40
0.0
 40
0.0
 40
0.0
 40
0.0
 40
0.5
 40
0.5
 40
1.0
 40
1.0
 40
1.0
 40
1.0
 10
181.110331743396
 20
105.9690671186556
 30
0.0
 10
181.1434791614725
 20
105.7600765176476
 30
0.0
 10
181.1603380068341
 20
105.548514051626
 30
0.0
 10
181.1603254764864
 20
105.1205252856584
 30
0.0
 10
181.143410518746
 20
104.9087671812427
 30
0.0
 10
181.110331743396
 20
104.7002093646106
 30
0.0
  0
LINE
  5
125
330
1F
100
AcDbEntity
  8
0
  6
HIDDEN
 62
     7
370
     0
100
AcDbLine
 10
181.610331803
 20
118.8346385918
 30
0.0
 11
181.610331803
 21
91.8346378915
 31
0.0
  0
SPLINE
  5
126
330
1F
100
AcDbEntity
  8
0
  6
HIDDEN
 62
     7
370
     0
100
AcDbSpline
210
0.0
220
0.0
230
1.0
 70
     8
 71
     3
 72
    10
 73
     6
 74
     0
 42
0.00000001
 43
0.00000001
 12
1.0
 22
0.0
 32
0.0
 13
1.0
 23
0.0
 33
0.0
 40
0.0
 40
0.0
 40
0.0
 40
0.0
 40
0.5
 40
0.5
 40
1.0
 40
1.0
 40
1.0
 40
1.0
 10
181.110331743396
 20
104.7002093646106
 30
0.0
 10
181.1435207058697
 20
104.9094618981931
 30
0.0
 10
181.1602214821244
 20
105.120278659092
 30
0.0
 10
181.1604409225691
 20
105.5448109402953
 30
0.0
 10
181.1435612071757
 20
105.7595592290679
 30
0.0
 10
181.110331743396
 20
105.9690671186556
 30
0.0
  0
SPLINE
  5
127
330
1F
100
AcDbEntity
  8
0
  6
HIDDEN
 62
     7
370
     0
100
AcDbSpline
210
0.0
220
0.0
230
1.0
 70
     8
 71
     3
 72
    68
 73
    64
 74
     0
 42
0.00000001
 43
0.00000001
 12
1.0
 22
0.0
 32
0.0
 13
1.0
 23
0.0
 33
0.0
 40
0.0
 40
0.0
 40
0.0
 40
0.0
 40
0.0312500000000001
 40
0.0312500000000001
 40
0.0625000000000002
 40
0.0625000000000002
 40
0.0937500000000003
 40
0.0937500000000003
 40
0.1250000000000004
 40
0.1250000000000004
 40
0.1562500000000006
 40
0.1562500000000006
 40
0.1875000000000007
 40
0.1875000000000007
 40
0.2187500000000008
 40
0.2187500000000008
 40
0.2500000000000009
 40
0.2500000000000009
 40
0.281250000000001
 40
0.281250000000001
 40
0.3125000000000011
 40
0.3125000000000011
 40
0.3437500000000012
 40
0.3437500000000012
 40
0.3750000000000013
 40
0.3750000000000013
 40
0.4062500000000014
 40
0.4062500000000014
 40
0.4375000000000016
 40
0.4375000000000016
 40
0.4687500000000017
 40
0.4687500000000017
 40
0.5000000000000018
 40
0.5000000000000018
 40
0.562500000000002
 40
0.562500000000002
 40
0.5937500000000021
 40
0.5937500000000021
 40
0.6250000000000022
 40
0.6250000000000022
 40
0.6562500000000023
 40
0.6562500000000023
 40
0.6875000000000024
 40
0.6875000000000024
 40
0.7187500000000026
 40
0.7187500000000026
 40
0.7500000000000027
 40
0.7500000000000027
 40
0.7812500000000023
 40
0.7812500000000023
 40
0.812500000000002
 40
0.812500000000002
 40
0.8437500000000017
 40
0.8437500000000017
 40
0.8750000000000013
 40
0.8750000000000013
 40
0.906250000000001
 40
0.906250000000001
 40
0.9375000000000007
 40
0.9375000000000007
 40
0.9687500000000003
 40
0.9687500000000003
 40
1.0
 40
1.0
 40
1.0
 40
1.0
 10
181.110331743396
 20
104.7002093646106
 30
0.0
 10
181.0703167910463
 20
104.447919761795
 30
0.0
 10
181.007374989635
 20
104.2039209114192
 30
0.0
 10
180.837988327563
 20
103.7315025223567
 30
0.0
 10
180.7302947649775
 20
103.5010891361967
 30
0.0
 10
180.4750099964396
 20
103.0663845403996
 30
0.0
 10
180.3289707659674
 20
102.8637425737483
 30
0.0
 10
180.0007493294081
 20
102.4867532829905
 30
0.0
 10
179.8165020416331
 20
102.3110953294131
 30
0.0
 10
179.4235418743249
 20
102.0008373604669
 30
0.0
 10
179.2142472773657
 20
101.864892152817
 30
0.0
 10
178.7693618504283
 20
101.6315020574111
 30
0.0
 10
178.5325642579293
 20
101.5342554509967
 30
0.0
 10
178.05182918901
 20
101.3875839931254
 30
0.0
 10
177.8055860958272
 20
101.3366916481829
 30
0.0
 10
177.3008693158478
 20
101.2811642979475
 30
0.0
 10
177.0446746149113
 20
101.2773394108775
 30
0.0
 10
176.5422958657112
 20
101.3167631935219
 30
0.0
 10
176.2930461665276
 20
101.3597906427332
 30
0.0
 10
175.8015183690489
 20
101.4934956121845
 30
0.0
 10
175.566222767823
 20
101.5821654580897
 30
0.0
 10
175.1153088731609
 20
101.8011968218671
 30
0.0
 10
174.8976965226975
 20
101.9331983875506
 30
0.0
 10
174.4944893531492
 20
102.2325556685535
 30
0.0
 10
174.3088778607148
 20
102.3991745959914
 30
0.0
 10
173.9688897903123
 20
102.7662860214189
 30
0.0
 10
173.8138168594894
 20
102.9685897669596
 30
0.0
 10
173.547473782826
 20
103.3926704465536
 30
0.0
 10
173.4344896821092
 20
103.6158300520198
 30
0.0
 10
173.2496344251784
 20
104.085185293614
 30
0.0
 10
173.178493663675
 20
104.3313957969495
 30
0.0
 10
173.0845332523868
 20
104.8259216233206
 30
0.0
 10
173.0605239224304
 20
105.0768526184126
 30
0.0
 10
173.0599508017579
 20
105.8410979979689
 30
0.0
 10
173.1553499130765
 20
106.3433223000198
 30
0.0
 10
173.4332137052776
 20
107.0508868062922
 30
0.0
 10
173.5463756613581
 20
107.274593070033
 30
0.0
 10
173.812506843402
 20
107.6988629813536
 30
0.0
 10
173.9673346176017
 20
107.9011149434097
 30
0.0
 10
174.3075157233895
 20
108.2688256847778
 30
0.0
 10
174.4930181803393
 20
108.4354425600272
 30
0.0
 10
174.8953119813986
 20
108.7344919388226
 30
0.0
 10
175.1133200296506
 20
108.866948646851
 30
0.0
 10
175.5639183968009
 20
109.0861550475557
 30
0.0
 10
175.7984673956817
 20
109.1746401775593
 30
0.0
 10
176.286927389234
 20
109.308126407498
 30
0.0
 10
176.5391927849479
 20
109.3520681199917
 30
0.0
 10
177.0413734231081
 20
109.3918771164652
 30
0.0
 10
177.2938555404598
 20
109.3885329036517
 30
0.0
 10
177.8017205835293
 20
109.3333535836612
 30
0.0
 10
178.0492660567131
 20
109.2823076551918
 30
0.0
 10
178.5302335941838
 20
109.1358972669562
 30
0.0
 10
178.7661934592891
 20
109.0392510621826
 30
0.0
 10
179.2127639088107
 20
108.8053461178695
 30
0.0
 10
179.4224087713842
 20
108.669221104043
 30
0.0
 10
179.8153954781387
 20
108.359166839714
 30
0.0
 10
179.9997913819537
 20
108.1835095921388
 30
0.0
 10
180.328341799814
 20
107.8063696694744
 30
0.0
 10
180.4742838963372
 20
107.6039034642046
 30
0.0
 10
180.7291692515394
 20
107.1703271660712
 30
0.0
 10
180.8374805643477
 20
106.9390353224897
 30
0.0
 10
181.0073155417646
 20
106.4656756423565
 30
0.0
 10
181.0703109029017
 20
106.2213938455357
 30
0.0
 10
181.110331743396
 20
105.9690671186556
 30
0.0
  0
SPLINE
  5
128
330
1F
100
AcDbEntity
  8
0
  6
HIDDEN
 62
     7
370
     0
100
AcDbSpline
210
0.0
220
0.0
230
1.0
 70
     8
 71
     3
 72
    68
 73
    64
 74
     0
 42
0.00000001
 43
0.00000001
 12
1.0
 22
0.0
 32
0.0
 13
1.0
 23
0.0
 33
0.0
 40
0.0
 40
0.0
 40
0.0
 40
0.0
 40
0.0312499999999999
 40
0.0312499999999999
 40
0.0624999999999998
 40
0.0624999999999998
 40
0.0937499999999997
 40
0.0937499999999997
 40
0.1249999999999996
 40
0.1249999999999996
 40
0.1562499999999995
 40
0.1562499999999995
 40
0.1874999999999994
 40
0.1874999999999994
 40
0.2187499999999993
 40
0.2187499999999993
 40
0.2499999999999991
 40
0.2499999999999991
 40
0.281249999999999
 40
0.281249999999999
 40
0.3124999999999989
 40
0.3124999999999989
 40
0.3437499999999988
 40
0.3437499999999988
 40
0.3749999999999987
 40
0.3749999999999987
 40
0.4062499999999986
 40
0.4062499999999986
 40
0.4374999999999984
 40
0.4374999999999984
 40
0.4687499999999983
 40
0.4687499999999983
 40
0.4999999999999982
 40
0.4999999999999982
 40
0.5624999999999979
 40
0.5624999999999979
 40
0.5937499999999978
 40
0.5937499999999978
 40
0.6249999999999977
 40
0.6249999999999977
 40
0.6562499999999976
 40
0.6562499999999976
 40
0.6874999999999974
 40
0.6874999999999974
 40
0.7187499999999973
 40
0.7187499999999973
 40
0.7499999999999973
 40
0.7499999999999973
 40
0.7812499999999977
 40
0.7812499999999977
 40
0.812499999999998
 40
0.812499999999998
 40
0.8437499999999983
 40
0.8437499999999983
 40
0.8749999999999987
 40
0.8749999999999987
 40
0.906249999999999
 40
0.906249999999999
 40
0.9374999999999993
 40
0.9374999999999993
 40
0.9687499999999997
 40
0.9687499999999997
 40
1.0
 40
1.0
 40
1.0
 40
1.0
 10
181.110331743396
 20
105.9690671186556
 30
0.0
 10
181.0703167910463
 20
106.2213567214712
 30
0.0
 10
181.007374989635
 20
106.465355571847
 30
0.0
 10
180.837988327563
 20
106.9377739609096
 30
0.0
 10
180.7302947649775
 20
107.1681873470695
 30
0.0
 10
180.4750099964396
 20
107.6028919428666
 30
0.0
 10
180.3289707659673
 20
107.8055339095179
 30
0.0
 10
180.0007493294081
 20
108.1825232002757
 30
0.0
 10
179.8165020416331
 20
108.3581811538531
 30
0.0
 10
179.4235418743248
 20
108.6684391227993
 30
0.0
 10
179.2142472773657
 20
108.8043843304493
 30
0.0
 10
178.7693618504283
 20
109.0377744258551
 30
0.0
 10
178.5325642579293
 20
109.1350210322695
 30
0.0
 10
178.05182918901
 20
109.2816924901409
 30
0.0
 10
177.8055860958272
 20
109.3325848350833
 30
0.0
 10
177.3008693158478
 20
109.3881121853188
 30
0.0
 10
177.0446746149113
 20
109.3919370723887
 30
0.0
 10
176.5422958657112
 20
109.3525132897443
 30
0.0
 10
176.2930461665276
 20
109.309485840533
 30
0.0
 10
175.8015183690489
 20
109.1757808710817
 30
0.0
 10
175.566222767823
 20
109.0871110251766
 30
0.0
 10
175.1153088731609
 20
108.8680796613991
 30
0.0
 10
174.8976965226975
 20
108.7360780957156
 30
0.0
 10
174.4944893531492
 20
108.4367208147127
 30
0.0
 10
174.3088778607148
 20
108.2701018872748
 30
0.0
 10
173.9688897903123
 20
107.9029904618473
 30
0.0
 10
173.8138168594894
 20
107.7006867163066
 30
0.0
 10
173.547473782826
 20
107.2766060367126
 30
0.0
 10
173.4344896821092
 20
107.0534464312464
 30
0.0
 10
173.2496344251784
 20
106.5840911896523
 30
0.0
 10
173.178493663675
 20
106.3378806863168
 30
0.0
 10
173.0845332523868
 20
105.8433548599456
 30
0.0
 10
173.0605239224304
 20
105.5924238648536
 30
0.0
 10
173.0599508017579
 20
104.8281784852974
 30
0.0
 10
173.1553499130765
 20
104.3259541832464
 30
0.0
 10
173.4332137052776
 20
103.618389676974
 30
0.0
 10
173.5463756613581
 20
103.3946834132332
 30
0.0
 10
173.812506843402
 20
102.9704135019126
 30
0.0
 10
173.9673346176017
 20
102.7681615398566
 30
0.0
 10
174.3075157233895
 20
102.4004507984884
 30
0.0
 10
174.4930181803393
 20
102.233833923239
 30
0.0
 10
174.8953119813986
 20
101.9347845444436
 30
0.0
 10
175.1133200296506
 20
101.8023278364152
 30
0.0
 10
175.5639183968009
 20
101.5831214357105
 30
0.0
 10
175.7984673956817
 20
101.4946363057069
 30
0.0
 10
176.286927389234
 20
101.3611500757683
 30
0.0
 10
176.5391927849479
 20
101.3172083632745
 30
0.0
 10
177.0413734231081
 20
101.277399366801
 30
0.0
 10
177.2938555404598
 20
101.2807435796145
 30
0.0
 10
177.8017205835293
 20
101.335922899605
 30
0.0
 10
178.0492660567131
 20
101.3869688280744
 30
0.0
 10
178.5302335941838
 20
101.53337921631
 30
0.0
 10
178.7661934592891
 20
101.6300254210836
 30
0.0
 10
179.2127639088107
 20
101.8639303653967
 30
0.0
 10
179.4224087713842
 20
102.0000553792232
 30
0.0
 10
179.8153954781387
 20
102.3101096435523
 30
0.0
 10
179.9997913819537
 20
102.4857668911274
 30
0.0
 10
180.328341799814
 20
102.8629068137918
 30
0.0
 10
180.4742838963372
 20
103.0653730190617
 30
0.0
 10
180.7291692515394
 20
103.498949317195
 30
0.0
 10
180.8374805643477
 20
103.7302411607765
 30
0.0
 10
181.0073155417646
 20
104.2036008409098
 30
0.0
 10
181.0703109029017
 20
104.4478826377306
 30
0.0
 10
181.110331743396
 20
104.7002093646106
 30
0.0
  0
LINE
  5
129
330
1F
100
AcDbEntity
  8
0
  6
HIDDEN
 62
     7
370
     0
100
AcDbLine
 10
182.8603315422
 20
114.3346378542
 30
0.0
 11
182.8603315422
 21
96.3346386291
 31
0.0
  0
LINE
  5
12A
330
1F
100
AcDbEntity
  8
0
  6
HIDDEN
 62
     7
370
     0
100
AcDbLine
 10
181.610331803
 20
95.0846379585
 30
0.0
 11
181.610331803
 21
115.5846385248
 31
0.0
  0
LINE
  5
12B
330
1F
100
AcDbEntity
  8
0
  6
HIDDEN
 62
     7
370
     0
100
AcDbLine
 10
219.6103324438
 20
96.3346386291
 30
0.0
 11
219.6103324438
 21
114.3346378542
 31
0.0
  0
LWPOLYLINE
  5
12C
330
1F
100
AcDbEntity
  8
0
  6
HIDDEN
 62
     7
370
     0
100
AcDbPolyline
 90
       31
 70
   128
 43
0.0
 10
238.152478754
 20
126.3399129696
 10
238.2496976549
 20
125.6229417361
 10
238.4932385081
 20
124.9373057819
 10
238.8724618847
 20
124.3129694797
 10
239.3707865173
 20
123.7772205807
 10
239.9664418096
 20
123.3534743972
 10
240.6333879823
 20
123.0602493472
 10
241.3424783641
 20
122.910362292
 10
242.0627259905
 20
122.910362292
 10
242.7626484329
 20
123.0602493472
 10
243.4116536075
 20
123.3534743972
 10
243.9813808793
 20
123.7772205807
 10
244.4469304079
 20
124.3129694797
 10
244.7879546577
 20
124.9373057819
 10
244.9895487422
 20
125.6229417361
 10
245.0429060752
 20
126.3399129696
 10
244.9456871742
 20
127.0568842031
 10
244.7021425957
 20
127.7425201572
 10
244.3229229445
 20
128.3668564595
 10
243.8245945865
 20
128.9026053585
 10
243.2289430195
 20
129.326351542
 10
242.5619968468
 20
129.619576592
 10
241.8529027397
 20
129.7694636471
 10
241.1326588387
 20
129.7694636471
 10
240.4327363962
 20
129.619576592
 10
239.7837312216
 20
129.326351542
 10
239.2140002245
 20
128.9026053585
 10
238.7484506959
 20
128.3668564595
 10
238.4074264461
 20
127.7425201572
 10
238.2058323616
 20
127.0568842031
 10
238.152478754
 20
126.3399129696
  0
SPLINE
  5
12D
330
1F
100
AcDbEntity
  8
0
  6
HIDDEN
 62
     7
370
     0
100
AcDbSpline
210
0.0
220
0.0
230
1.0
 70
     8
 71
     3
 72
     8
 73
     4
 74
     0
 42
0.00000001
 43
0.00000001
 12
1.0
 22
0.0
 32
0.0
 13
1.0
 23
0.0
 33
0.0
 40
0.0
 40
0.0
 40
0.0
 40
0.0
 40
1.0
 40
1.0
 40
1.0
 40
1.0
 10
231.4722623638294
 20
118.7977003241633
 30
0.0
 10
231.1438540376308
 20
115.6371904138426
 30
0.0
 10
230.9133518751008
 20
112.4628953875188
 30
0.0
 10
230.8089305817061
 20
109.2708482673359
 30
0.0
  0
SPLINE
  5
12E
330
1F
100
AcDbEntity
  8
0
  6
HIDDEN
 62
     7
370
     0
100
AcDbSpline
210
0.0
220
0.0
230
1.0
 70
     8
 71
     3
 72
    22
 73
    18
 74
     0
 42
0.00000001
 43
0.00000001
 12
1.0
 22
0.0
 32
0.0
 13
1.0
 23
0.0
 33
0.0
 40
0.0
 40
0.0
 40
0.0
 40
0.0
 40
0.1250000000000004
 40
0.1250000000000004
 40
0.2500000000000007
 40
0.2500000000000007
 40
0.3749999999999998
 40
0.3749999999999998
 40
0.499999999999999
 40
0.499999999999999
 40
0.6249999999999992
 40
0.6249999999999992
 40
0.7499999999999994
 40
0.7499999999999994
 40
0.8749999999999998
 40
0.8749999999999998
 40
1.0
 40
1.0
 40
1.0
 40
1.0
 10
231.9022677697452
 20
122.5176680079745
 30
0.0
 10
231.8540602508082
 20
122.4239841091518
 30
0.0
 10
231.8064366046662
 20
122.3194843400935
 30
0.0
 10
231.7129024480069
 20
122.0797971044083
 30
0.0
 10
231.6662682650175
 20
121.9419908303377
 30
0.0
 10
231.5809674249949
 20
121.6367239621504
 30
0.0
 10
231.541411345736
 20
121.4652167032404
 30
0.0
 10
231.4767737740353
 20
121.1080720651505
 30
0.0
 10
231.4510142459738
 20
120.9187944722585
 30
0.0
 10
231.4150747043792
 20
120.5470533649579
 30
0.0
 10
231.4044638387902
 20
120.3621463106678
 30
0.0
 10
231.3951174677301
 20
120.011218199462
 30
0.0
 10
231.3961316754916
 20
119.8439105691764
 30
0.0
 10
231.4063962099193
 20
119.5207545724613
 30
0.0
 10
231.4156791554327
 20
119.3661746368876
 30
0.0
 10
231.4399392448425
 20
119.0726141565403
 30
0.0
 10
231.4549747137084
 20
118.9325951132774
 30
0.0
 10
231.4722623638293
 20
118.7977003241633
 30
0.0
  0
SPLINE
  5
12F
330
1F
100
AcDbEntity
  8
0
  6
HIDDEN
 62
     7
370
     0
100
AcDbSpline
210
0.0
220
0.0
230
1.0
 70
     8
 71
     3
 72
     8
 73
     4
 74
     0
 42
0.00000001
 43
0.00000001
 12
1.0
 22
0.0
 32
0.0
 13
1.0
 23
0.0
 33
0.0
 40
0.0
 40
0.0
 40
0.0
 40
0.0
 40
1.0
 40
1.0
 40
1.0
 40
1.0
 10
231.9860553065096
 20
123.1691484852515
 30
0.0
 10
231.9577351185413
 20
122.9520433799461
 30
0.0
 10
231.9298023724234
 20
122.7348837231123
 30
0.0
 10
231.9022677697452
 20
122.5176680079745
 30
0.0
  0
SPLINE
  5
130
330
1F
100
AcDbEntity
  8
0
  6
HIDDEN
 62
     7
370
     0
100
AcDbSpline
210
0.0
220
0.0
230
1.0
 70
     8
 71
     3
 72
    20
 73
    16
 74
     0
 42
0.00000001
 43
0.00000001
 12
1.0
 22
0.0
 32
0.0
 13
1.0
 23
0.0
 33
0.0
 40
0.0
 40
0.0
 40
0.0
 40
0.0
 40
0.0571512021532177
 40
0.0765373458475461
 40
0.1546783817539368
 40
0.2371484947284896
 40
0.3196199304024325
 40
0.4043951879908967
 40
0.4891724279815238
 40
0.5733585109298215
 40
0.6575466312956186
 40
0.7439825183043731
 40
0.8304205542119171
 40
0.9149541484699284
 40
1.0
 40
1.0
 40
1.0
 40
1.0
 10
231.8632909351952
 20
141.5082538462722
 30
0.0
 10
231.8579968083675
 20
141.457462691423
 30
0.0
 10
231.850906871486
 20
141.3894427716623
 30
0.0
 10
231.8362867088172
 20
141.2726018877007
 30
0.0
 10
231.8227772414306
 20
140.8952124424819
 30
0.0
 10
231.8075841039747
 20
140.2134269385588
 30
0.0
 10
231.7972253384984
 20
139.240019694115
 30
0.0
 10
231.7924199433274
 20
138.0117006671166
 30
0.0
 10
231.794188946306
 20
136.5303058625199
 30
0.0
 10
231.8032993140546
 20
134.8212385834861
 30
0.0
 10
231.8205178855987
 20
132.8845328159316
 30
0.0
 10
231.8468236078038
 20
130.7236086184652
 30
0.0
 10
231.88298238813
 20
128.3647859201974
 30
0.0
 10
231.9282061083371
 20
125.8552467957374
 30
0.0
 10
231.966732677516
 20
124.0663161671075
 30
0.0
 10
231.9860541516907
 20
123.1691488958442
 30
0.0
  0
ARC
  5
131
330
1F
100
AcDbEntity
  8
0
  6
HIDDEN
 62
     7
370
     0
100
AcDbCircle
 10
236.2922294018
 20
132.209086623
 30
0.0
 40
2.086712501200899
100
AcDbArc
 50
108.4553156754
 51
286.6231868379
  0
LINE
  5
132
330
1F
100
AcDbEntity
  8
0
  6
HIDDEN
 62
     7
370
     0
100
AcDbLine
 10
252.7669118041
 20
135.9054340012
 30
0.0
 11
251.1658751661
 21
134.3287216462
 31
0.0
  0
LINE
  5
133
330
1F
100
AcDbEntity
  8
0
  6
HIDDEN
 62
     7
370
     0
100
AcDbLine
 10
235.8342268759
 20
134.2469291724
 30
0.0
 11
235.6316493148
 21
134.1884812302
 31
0.0
  0
ELLIPSE
  5
134
330
1F
100
AcDbEntity
  8
0
  6
HIDDEN
 62
     7
370
     0
100
AcDbEllipse
 10
226.2213915912
 20
97.2763731664
 30
0.0
 11
16.73790244551478
 21
47.96626505218654
 31
0.0
210
0.0
220
0.0
230
1.0
 40
0.0882384119
 41
0.0694161694933627
 42
0.2413618362919688
  0
LINE
  5
135
330
1F
100
AcDbEntity
  8
0
  6
HIDDEN
 62
     7
370
     0
100
AcDbLine
 10
231.9860541517
 20
123.1691488958
 30
0.0
 11
232.6125324959
 21
123.3848618306
 31
0.0
  0
SPLINE
  5
136
330
1F
100
AcDbEntity
  8
0
  6
HIDDEN
 62
     7
370
     0
100
AcDbSpline
210
0.0
220
0.0
230
1.0
 70
     8
 71
     3
 72
    18
 73
    14
 74
     0
 42
0.00000001
 43
0.00000001
 12
1.0
 22
0.0
 32
0.0
 13
1.0
 23
0.0
 33
0.0
 40
0.0
 40
0.0
 40
0.0
 40
0.0
 40
0.2500000000000032
 40
0.2500000000000032
 40
0.3750000000000029
 40
0.3750000000000029
 40
0.5000000000000028
 40
0.5000000000000028
 40
0.7500000000000013
 40
0.7500000000000013
 40
0.8750000000000007
 40
0.8750000000000007
 40
1.0
 40
1.0
 40
1.0
 40
1.0
 10
232.6125317268607
 20
123.3848616158533
 30
0.0
 10
232.8370196277543
 20
123.5982178365815
 30
0.0
 10
233.0807079627009
 20
123.7919976998734
 30
0.0
 10
233.480747770095
 20
124.0480737341062
 30
0.0
 10
233.6209108190151
 20
124.128041428879
 30
0.0
 10
233.9073246833495
 20
124.2710429667829
 30
0.0
 10
234.0539396561973
 20
124.3344491383117
 30
0.0
 10
234.504674272922
 20
124.4988144148577
 30
0.0
 10
234.8237147295256
 20
124.5736051588076
 30
0.0
 10
235.2939385921406
 20
124.6207659008949
 30
0.0
 10
235.4504076499373
 20
124.6261989748166
 30
0.0
 10
235.7628504922074
 20
124.6161104559906
 30
0.0
 10
235.9185267665628
 20
124.6003750920821
 30
0.0
 10
236.0688285429555
 20
124.5749600493599
 30
0.0
  0
LINE
  5
137
330
1F
100
AcDbEntity
  8
0
  6
HIDDEN
 62
     7
370
     0
100
AcDbLine
 10
236.0688270325
 20
124.5749598331
 30
0.0
 11
245.4050229186
 21
127.7896692939
 31
0.0
  0
SPLINE
  5
138
330
1F
100
AcDbEntity
  8
0
  6
HIDDEN
 62
     7
370
     0
100
AcDbSpline
210
0.0
220
0.0
230
1.0
 70
     8
 71
     3
 72
    27
 73
    23
 74
     0
 42
0.00000001
 43
0.00000001
 12
1.0
 22
0.0
 32
0.0
 13
1.0
 23
0.0
 33
0.0
 40
0.0
 40
0.0
 40
0.0
 40
0.0
 40
0.0190821056765342
 40
0.038274358586819
 40
0.0575784508275704
 40
0.0769960452576105
 40
0.0965287757477405
 40
0.1161782474477301
 40
0.1748822792479535
 40
0.2347723216706176
 40
0.2946863885357702
 40
0.3559507187998707
 40
0.4797500466553659
 40
0.6061830789854509
 40
0.6574860302205136
 40
0.7351749984497754
 40
0.8005689268820108
 40
0.8665251935105107
 40
0.8994730226683146
 40
0.9330149707872925
 40
0.966180855086948
 40
1.0
 40
1.0
 40
1.0
 40
1.0
 10
255.0039485214753
 20
148.1578786356779
 30
0.0
 10
254.957993036105
 20
148.0888954295374
 30
0.0
 10
254.8658167974912
 20
147.950530826959
 30
0.0
 10
254.7237044077091
 20
147.7303354865405
 30
0.0
 10
254.5782972568289
 20
147.5001248800845
 30
0.0
 10
254.4293510086787
 20
147.2589949050628
 30
0.0
 10
254.2769415135717
 20
147.0071577157258
 30
0.0
 10
254.0181013363649
 20
146.571074598275
 30
0.0
 10
253.6408122635187
 20
145.9124125927246
 30
0.0
 10
253.1327570688593
 20
144.9831033004066
 30
0.0
 10
252.597762684552
 20
143.9643546424396
 30
0.0
 10
251.8496381623073
 20
142.4883269206339
 30
0.0
 10
250.8551576714787
 20
140.4329466873176
 30
0.0
 10
249.8474258349679
 20
138.2404286624124
 30
0.0
 10
248.9728523871539
 20
136.2784004400281
 30
0.0
 10
248.2965607380742
 20
134.7300111957037
 30
0.0
 10
247.558720799581
 20
133.0053003492409
 30
0.0
 10
246.9721852891068
 20
131.6097381137886
 30
0.0
 10
246.4960551429901
 20
130.4625517983793
 30
0.0
 10
246.1362301223591
 20
129.5883302143736
 30
0.0
 10
245.7719211769462
 20
128.6966339918151
 30
0.0
 10
245.5281190559137
 20
128.0939521637664
 30
0.0
 10
245.4050291751118
 20
127.7896724714411
 30
0.0
  0
ELLIPSE
  5
139
330
1F
100
AcDbEntity
  8
0
  6
HIDDEN
 62
     7
370
     0
100
AcDbEllipse
 10
243.5707862013
 20
103.2502488045
 30
0.0
 11
169.2855753305248
 21
53.48856631298459
 31
0.0
210
0.0
220
0.0
230
1.0
 40
0.2239254004
 41
1.432740743414256
 42
1.512584683809794
  0
SPLINE
  5
13A
330
1F
100
AcDbEntity
  8
0
  6
HIDDEN
 62
     7
370
     0
100
AcDbSpline
210
0.0
220
0.0
230
1.0
 70
     8
 71
     3
 72
    40
 73
    36
 74
     0
 42
0.00000001
 43
0.00000001
 12
1.0
 22
0.0
 32
0.0
 13
1.0
 23
0.0
 33
0.0
 40
0.0
 40
0.0
 40
0.0
 40
0.0
 40
0.0624999999999975
 40
0.0624999999999975
 40
0.1249999999999951
 40
0.1249999999999951
 40
0.24999999999999
 40
0.24999999999999
 40
0.3124999999999875
 40
0.3124999999999875
 40
0.374999999999985
 40
0.374999999999985
 40
0.4062499999999832
 40
0.4062499999999832
 40
0.4374999999999815
 40
0.4374999999999815
 40
0.4687499999999796
 40
0.4687499999999796
 40
0.4999999999999779
 40
0.4999999999999779
 40
0.5156249999999776
 40
0.5156249999999776
 40
0.5312499999999775
 40
0.5312499999999775
 40
0.5624999999999786
 40
0.5624999999999786
 40
0.6249999999999816
 40
0.6249999999999816
 40
0.6874999999999847
 40
0.6874999999999847
 40
0.7499999999999878
 40
0.7499999999999878
 40
0.8749999999999939
 40
0.8749999999999939
 40
1.0
 40
1.0
 40
1.0
 40
1.0
 10
239.3989239645524
 20
129.2162319740348
 30
0.0
 10
239.4471442408594
 20
129.2637196759944
 30
0.0
 10
239.5121513783621
 20
129.314951146464
 30
0.0
 10
239.6674134871687
 20
129.4220470690684
 30
0.0
 10
239.7581715231074
 20
129.478110279236
 30
0.0
 10
240.0588686095941
 20
129.6462966311808
 30
0.0
 10
240.2964352425602
 20
129.7593579339548
 30
0.0
 10
240.7114684288564
 20
129.9112058602229
 30
0.0
 10
240.8598622320768
 20
129.9588559805158
 30
0.0
 10
241.1836453014436
 20
130.0423729046059
 30
0.0
 10
241.3603892942834
 20
130.0787946778538
 30
0.0
 10
241.6530002015669
 20
130.1138829953629
 30
0.0
 10
241.7548329043271
 20
130.1222521893577
 30
0.0
 10
241.9707958287321
 20
130.1288325508375
 30
0.0
 10
242.0849981625549
 20
130.1270123298636
 30
0.0
 10
242.3247702695079
 20
130.1071248675175
 30
0.0
 10
242.4532303529938
 20
130.0886676485594
 30
0.0
 10
242.7161907709714
 20
130.026790401664
 30
0.0
 10
242.8532433075361
 20
129.9820342280775
 30
0.0
 10
243.0444460795562
 20
129.8969450921398
 30
0.0
 10
243.1072420991287
 20
129.8650343035522
 30
0.0
 10
243.2242889262234
 20
129.797906938711
 30
0.0
 10
243.2789167097712
 20
129.7626399543326
 30
0.0
 10
243.4329249928263
 20
129.6525622019354
 30
0.0
 10
243.519428381806
 20
129.5755415906612
 30
0.0
 10
243.7371810702913
 20
129.3509076234376
 30
0.0
 10
243.8366830687113
 20
129.2023257648586
 30
0.0
 10
243.9900585142537
 20
128.9175356872093
 30
0.0
 10
244.0426503981991
 20
128.7819644225276
 30
0.0
 10
244.1208272036246
 20
128.5210247910617
 30
0.0
 10
244.145937433931
 20
128.3952880853392
 30
0.0
 10
244.191177814755
 20
128.0371042269112
 30
0.0
 10
244.1826523728045
 20
127.8235403202087
 30
0.0
 10
244.1129260786819
 20
127.457814240546
 30
0.0
 10
244.052231441371
 20
127.3043398232646
 30
0.0
 10
243.9546924836952
 20
127.2082827015247
 30
0.0
  0
ELLIPSE
  5
13B
330
1F
100
AcDbEntity
  8
0
  6
HIDDEN
 62
     7
370
     0
100
AcDbEllipse
 10
244.1608032696
 20
132.7511468802
 30
0.0
 11
3.681011334679027
 21
1.562788524614234
 31
0.0
210
0.0
220
0.0
230
1.0
 40
0.1034916655
 41
6.026985703243906
 42
9.168578356833248
  0
ELLIPSE
  5
13C
330
1F
100
AcDbEntity
  8
0
  6
HIDDEN
 62
     7
370
     0
100
AcDbEllipse
 10
235.4981244362
 20
120.3330116599
 30
0.0
 11
3.085533036944611
 21
3.038656856958596
 31
0.0
210
0.0
220
0.0
230
1.0
 40
0.9698463104
 41
2.716804823305807
 42
6.957381688889692
  0
ELLIPSE
  5
13D
330
1F
100
AcDbEntity
  8
0
  6
HIDDEN
 62
     7
370
     0
100
AcDbEllipse
 10
235.4981244362
 20
120.3330116599
 30
0.0
 11
3.085533036944611
 21
3.038656856958596
 31
0.0
210
0.0
220
0.0
230
1.0
 40
0.9698463104
 41
1.551069434007767
 42
1.810733223169032
  0
LINE
  5
13E
330
1F
100
AcDbEntity
  8
0
  6
HIDDEN
 62
     7
370
     0
100
AcDbLine
 10
243.9546928996
 20
127.2082818634
 30
0.0
 11
243.2267898018
 21
126.4914372898
 31
0.0
  0
LINE
  5
13F
330
1F
100
AcDbEntity
  8
0
  6
HIDDEN
 62
     7
370
     0
100
AcDbLine
 10
238.6710205371
 20
128.4993855245
 30
0.0
 11
239.3989236349
 21
129.2162319608
 31
0.0
  0
ELLIPSE
  5
140
330
1F
100
AcDbEntity
  8
0
  6
HIDDEN
 62
     7
370
     0
100
AcDbEllipse
 10
240.0830233686
 20
124.8482556753
 30
0.0
 11
3.458945724495293
 21
-2.4243669210082
 31
0.0
210
0.0
220
0.0
230
1.0
 40
0.8084582345
 41
1.174293335611477
 42
2.449417176849874
  0
LWPOLYLINE
  5
141
330
1F
100
AcDbEntity
  8
0
  6
HIDDEN
 62
     7
370
     0
100
AcDbPolyline
 90
       34
 70
   128
 43
0.0
 10
237.3903998429
 20
126.2679850645
 10
237.4890678817
 20
125.4848396368
 10
237.7335922116
 20
124.7299971021
 10
238.115136444
 20
124.0307433493
 10
238.6199095542
 20
123.412348885
 10
239.2296650702
 20
122.8971635885
 10
239.9223716253
 20
122.5038101859
 10
240.6729840929
 20
122.2465025223
 10
241.4543823594
 20
122.1345426477
 10
242.2383175487
 20
122.1719743646
 10
242.9964625532
 20
122.357449118
 10
243.7014104122
 20
122.6842595227
 10
244.3276838655
 20
123.1405945457
 10
244.852648049
 20
123.709962327
 10
245.2573337847
 20
124.3717843629
 10
245.5271081323
 20
125.1021387018
 10
245.652222007
 20
125.8746316619
 10
245.6281566316
 20
126.6613403298
 10
245.4557799989
 20
127.4338314272
 10
245.1413207943
 20
128.1641876287
 10
244.6961486036
 20
128.826007802
 10
244.1363492304
 20
129.3953755833
 10
243.4821547264
 20
129.851712469
 10
242.7572132343
 20
130.1785228736
 10
241.9877247209
 20
130.3639957644
 10
241.2014947528
 20
130.4014293439
 10
240.4269510204
 20
130.2894694693
 10
239.6920779044
 20
130.0321618057
 10
239.0234367246
 20
129.6388084031
 10
238.4452008897
 20
129.1236231066
 10
237.9782618279
 20
128.5052286423
 10
237.6394988293
 20
127.8059730269
 10
237.4411531979
 20
127.0511323548
 10
237.3903998429
 20
126.2679850645
  0
LINE
  5
142
330
1F
100
AcDbEntity
  8
0
  6
HIDDEN
 62
     7
370
     0
100
AcDbLine
 10
243.2267898018
 20
126.4914372898
 30
0.0
 11
244.6425193245
 21
130.8195857293
 31
0.0
  0
LINE
  5
143
330
1F
100
AcDbEntity
  8
0
  6
HIDDEN
 62
     7
370
     0
100
AcDbLine
 10
248.1528827244
 20
136.7806779183
 30
0.0
 11
247.6148874754
 21
136.2508578188
 31
0.0
  0
LINE
  5
144
330
1F
100
AcDbEntity
  8
0
  6
HIDDEN
 62
     7
370
     0
100
AcDbLine
 10
246.5855860407
 20
133.0072084404
 30
0.0
 11
248.1528827244
 21
136.7806779183
 31
0.0
  0
LINE
  5
145
330
1F
100
AcDbEntity
  8
0
  6
HIDDEN
 62
     7
370
     0
100
AcDbLine
 10
247.7626511151
 20
134.1663902588
 30
0.0
 11
246.5855860407
 21
133.0072084404
 31
0.0
  0
ARC
  5
146
330
1F
100
AcDbEntity
  8
0
  6
HIDDEN
 62
     7
370
     0
100
AcDbCircle
 10
246.6600888988
 20
139.5659186328
 30
0.0
 40
3.160063170839961
100
AcDbArc
 50
298.1897870826
 51
194.2393497473
  0
LINE
  5
147
330
1F
100
AcDbEntity
  8
0
  6
HIDDEN
 62
     7
370
     0
100
AcDbLine
 10
243.5971134597
 20
138.7886280156
 30
0.0
 11
240.4619985515
 21
131.2404187358
 31
0.0
  0
LINE
  5
148
330
1F
100
AcDbEntity
  8
0
  6
HIDDEN
 62
     7
370
     0
100
AcDbLine
 10
255.3880074317
 20
147.7551633454
 30
0.0
 11
255.0039486283
 21
148.1578746773
 31
0.0
  0
LINE
  5
149
330
1F
100
AcDbEntity
  8
0
  6
HIDDEN
 62
     7
370
     0
100
AcDbLine
 10
241.4624513382
 20
144.2052783407
 30
0.0
 11
238.5800340468
 21
135.0391531325
 31
0.0
  0
LINE
  5
14A
330
1F
100
AcDbEntity
  8
0
  6
HIDDEN
 62
     7
370
     0
100
AcDbLine
 10
236.8891881103
 20
130.2095843441
 30
0.0
 11
240.4619985515
 21
131.2404187358
 31
0.0
  0
LINE
  5
14B
330
1F
100
AcDbEntity
  8
0
  6
HIDDEN
 62
     7
370
     0
100
AcDbLine
 10
246.5855860407
 20
133.0072084404
 30
0.0
 11
251.1658751661
 21
134.3287216462
 31
0.0
  0
LINE
  5
14C
330
1F
100
AcDbEntity
  8
0
  6
HIDDEN
 62
     7
370
     0
100
AcDbLine
 10
251.1658751661
 20
134.3287216462
 30
0.0
 11
255.3880074317
 21
147.7551633454
 31
0.0
  0
LINE
  5
14D
330
1F
100
AcDbEntity
  8
0
  6
HIDDEN
 62
     7
370
     0
100
AcDbLine
 10
240.4619985515
 20
131.2404187358
 30
0.0
 11
240.5589566821
 21
131.3359035141
 31
0.0
  0
SPLINE
  5
14E
330
1F
100
AcDbEntity
  8
0
  6
HIDDEN
 62
     7
370
     0
100
AcDbSpline
210
0.0
220
0.0
230
1.0
 70
     8
 71
     3
 72
    16
 73
    12
 74
     0
 42
0.00000001
 43
0.00000001
 12
1.0
 22
0.0
 32
0.0
 13
1.0
 23
0.0
 33
0.0
 40
0.0
 40
0.0
 40
0.0
 40
0.0
 40
0.2500000000000002
 40
0.2500000000000002
 40
0.3750000000000003
 40
0.3750000000000003
 40
0.5000000000000004
 40
0.5000000000000004
 40
0.7500000000000002
 40
0.7500000000000002
 40
1.0
 40
1.0
 40
1.0
 40
1.0
 10
191.2890113998364
 20
127.1047191966352
 30
0.0
 10
191.1277789223519
 20
127.0067035835805
 30
0.0
 10
191.0072990827123
 20
126.8199675519044
 30
0.0
 10
190.884918565399
 20
126.4069277443455
 30
0.0
 10
190.8539409050015
 20
126.2469272451126
 30
0.0
 10
190.8123271673735
 20
125.8801215940215
 30
0.0
 10
190.8020912544407
 20
125.6767844413975
 30
0.0
 10
190.8019028573846
 20
125.0094971747708
 30
0.0
 10
190.8420475600223
 20
124.4886827108827
 30
0.0
 10
191.0062013149618
 20
123.2913236954051
 30
0.0
 10
191.1277529653713
 20
122.6330540411091
 30
0.0
 10
191.2890113998364
 20
121.9185448678742
 30
0.0
  0
LINE
  5
14F
330
1F
100
AcDbEntity
  8
0
  6
HIDDEN
 62
     7
370
     0
100
AcDbLine
 10
156.1103322798
 20
126.4930019117
 30
0.0
 11
156.1103322798
 21
120.4386908523
 31
0.0
  0
LINE
  5
150
330
1F
100
AcDbEntity
  8
0
  6
HIDDEN
 62
     7
370
     0
100
AcDbLine
 10
190.4103317553
 20
127.3547379262
 30
0.0
 11
190.4103317553
 21
120.8695588596
 31
0.0
  0
LINE
  5
151
330
1F
100
AcDbEntity
  8
0
  6
HIDDEN
 62
     7
370
     0
100
AcDbLine
 10
154.6103329653
 20
125.6269762255
 30
0.0
 11
154.6103329653
 21
120.0056780092
 31
0.0
  0
SPLINE
  5
152
330
1F
100
AcDbEntity
  8
0
  6
HIDDEN
 62
     7
370
     0
100
AcDbSpline
210
0.0
220
0.0
230
1.0
 70
     8
 71
     3
 72
    16
 73
    12
 74
     0
 42
0.00000001
 43
0.00000001
 12
1.0
 22
0.0
 32
0.0
 13
1.0
 23
0.0
 33
0.0
 40
0.0
 40
0.0
 40
0.0
 40
0.0
 40
0.2499999999999994
 40
0.2499999999999994
 40
0.3749999999999994
 40
0.3749999999999994
 40
0.4999999999999993
 40
0.4999999999999993
 40
0.7499999999999997
 40
0.7499999999999997
 40
1.0
 40
1.0
 40
1.0
 40
1.0
 10
191.2890113998364
 20
88.75073161539207
 30
0.0
 10
191.1277789223519
 20
88.03633745319995
 30
0.0
 10
191.0072990827123
 20
87.38299519049127
 30
0.0
 10
190.884918565399
 20
86.4947399486874
 30
0.0
 10
190.8539409050015
 20
86.21405941233553
 30
0.0
 10
190.8123271673735
 20
85.68502542249557
 30
0.0
 10
190.8020912544407
 20
85.4417044439171
 30
0.0
 10
190.8019028573846
 20
84.77368175340388
 30
0.0
 10
190.8420475600223
 20
84.4100008439844
 30
0.0
 10
191.0062013149618
 20
83.85010997143608
 30
0.0
 10
191.1277529653713
 20
83.66258867931894
 30
0.0
 10
191.2890113998364
 20
83.564557286631
 30
0.0
  0
LINE
  5
153
330
1F
100
AcDbEntity
  8
0
  6
HIDDEN
 62
     7
370
     0
100
AcDbLine
 10
156.1103322798
 20
90.2305856309
 30
0.0
 11
156.1103322798
 21
84.1762745715
 31
0.0
  0
LINE
  5
154
330
1F
100
AcDbEntity
  8
0
  6
HIDDEN
 62
     7
370
     0
100
AcDbLine
 10
190.4103317553
 20
89.7997176237
 30
0.0
 11
190.4103317553
 21
83.314538557
 31
0.0
  0
LINE
  5
155
330
1F
100
AcDbEntity
  8
0
  6
HIDDEN
 62
     7
370
     0
100
AcDbLine
 10
154.6103329653
 20
90.6635984741
 30
0.0
 11
154.6103329653
 21
85.0423002578
 31
0.0
  0
SPLINE
  5
156
330
1F
100
AcDbEntity
  8
0
  6
HIDDEN
 62
     7
370
     0
100
AcDbSpline
210
0.0
220
0.0
230
1.0
 70
     8
 71
     3
 72
    10
 73
     6
 74
     0
 42
0.00000001
 43
0.00000001
 12
1.0
 22
0.0
 32
0.0
 13
1.0
 23
0.0
 33
0.0
 40
0.0
 40
0.0
 40
0.0
 40
0.0
 40
0.5
 40
0.5
 40
1.0
 40
1.0
 40
1.0
 40
1.0
 10
247.6148867164604
 20
136.2508570575531
 30
0.0
 10
247.5407076232417
 20
136.17780491144
 30
0.0
 10
247.4236011204258
 20
136.0821707235521
 30
0.0
 10
247.1492699882389
 20
135.8781485235281
 30
0.0
 10
246.9902261973243
 20
135.768894708418
 30
0.0
 10
246.8129919287877
 20
135.659983237594
 30
0.0
  0
ARC
  5
157
330
1F
100
AcDbEntity
  8
0
  6
HIDDEN
 62
     7
370
     0
100
AcDbCircle
 10
245.6992463504
 20
138.6187237993
 30
0.0
 40
3.16141936800885
100
AcDbArc
 50
290.6276372346
 51
201.8015401103
  0
SPLINE
  5
158
330
1F
100
AcDbEntity
  8
0
  6
HIDDEN
 62
     7
370
     0
100
AcDbSpline
210
0.0
220
0.0
230
1.0
 70
     8
 71
     3
 72
    10
 73
     6
 74
     0
 42
0.00000001
 43
0.00000001
 12
1.0
 22
0.0
 32
0.0
 13
1.0
 23
0.0
 33
0.0
 40
0.0
 40
0.0
 40
0.0
 40
0.0
 40
0.5
 40
0.5
 40
1.0
 40
1.0
 40
1.0
 40
1.0
 10
242.7639457641596
 20
137.444595266599
 30
0.0
 10
242.7889994898044
 20
137.6206052325595
 30
0.0
 10
242.8273687903316
 20
137.7830574613911
 30
0.0
 10
242.9255779582545
 20
138.0646979935245
 30
0.0
 10
242.9848519662267
 20
138.185668369899
 30
0.0
 10
243.0591181973171
 20
138.2588063300639
 30
0.0
  0
LINE
  5
159
330
1F
100
AcDbEntity
  8
0
  6
HIDDEN
 62
     7
370
     0
100
AcDbLine
 10
243.0591182107
 20
138.2588060535
 30
0.0
 11
243.5971134597
 21
138.7886280156
 31
0.0
  0
ELLIPSE
  5
15A
330
1F
100
AcDbEntity
  8
0
  6
HIDDEN
 62
     7
370
     0
100
AcDbEllipse
 10
244.2719656607
 20
135.3087390937
 30
0.0
 11
0.9785571450900932
 21
2.771894816581181
 31
0.0
210
0.0
220
0.0
230
1.0
 40
0.8461473042
 41
5.124380805701883
 42
7.313705176244973
  0
LWPOLYLINE
  5
15B
330
1F
100
AcDbEntity
  8
0
  6
HIDDEN
 62
     7
370
     0
100
AcDbPolyline
 90
       13
 70
   128
 43
0.0
 10
244.6425193245
 20
130.8195857293
 10
244.7025300259
 20
131.2745498456
 10
244.6032175118
 20
131.7669270522
 10
244.3513469094
 20
132.2631636597
 10
243.9640880818
 20
132.7294433452
 10
243.4678272599
 20
133.1339875198
 10
242.8963863546
 20
133.4492290355
 10
242.2887095505
 20
133.6536841429
 10
241.6862034494
 20
133.7334183938
 10
241.1299319262
 20
133.6829984523
 10
240.6578072602
 20
133.5058627612
 10
240.3019936079
 20
133.2140793986
 10
240.0867500598
 20
132.8275358267
  0
SPLINE
  5
15C
330
1F
100
AcDbEntity
  8
0
  6
HIDDEN
 62
     7
370
     0
100
AcDbSpline
210
0.0
220
0.0
230
1.0
 70
     8
 71
     3
 72
    30
 73
    26
 74
     0
 42
0.00000001
 43
0.00000001
 12
1.0
 22
0.0
 32
0.0
 13
1.0
 23
0.0
 33
0.0
 40
0.0
 40
0.0
 40
0.0
 40
0.0
 40
0.022419229087825
 40
0.0447738852872323
 40
0.0670675975709623
 40
0.0893040247498192
 40
0.1114868539802435
 40
0.1336197992055528
 40
0.1666930384035575
 40
0.1996443268381048
 40
0.2650962939524213
 40
0.3299489973343949
 40
0.3941769958090129
 40
0.4577588949152299
 40
0.520678630745806
 40
0.5829245430320911
 40
0.64449090440926
 40
0.7053768994194062
 40
0.7655878986032894
 40
0.8251347761856284
 40
0.8840345280262986
 40
0.9132444790690063
 40
0.9423148370153892
 40
0.9712174738714295
 40
1.0
 40
1.0
 40
1.0
 40
1.0
 10
245.5921698242822
 20
127.1148487827328
 30
0.0
 10
245.6753879463785
 20
127.3191175338621
 30
0.0
 10
245.8415845019319
 20
127.7270666919264
 30
0.0
 10
246.0898660929695
 20
128.3325479614965
 30
0.0
 10
246.3369288322737
 20
128.9321371130846
 30
0.0
 10
246.5827280026318
 20
129.5254429989926
 30
0.0
 10
246.827275737739
 20
130.112570002516
 30
0.0
 10
247.1108211145973
 20
130.7896042731219
 30
0.0
 10
247.4325849064442
 20
131.5525616066085
 30
0.0
 10
247.9100186239748
 20
132.6749720650892
 30
0.0
 10
248.4980045833945
 20
134.0390648344254
 30
0.0
 10
249.1895336235091
 20
135.6135884820723
 30
0.0
 10
249.8641073139646
 20
137.1190768984749
 30
0.0
 10
250.5203138501543
 20
138.5523412464136
 30
0.0
 10
251.1568154241213
 20
139.9104987093092
 30
0.0
 10
251.7722782652182
 20
141.1906530898664
 30
0.0
 10
252.365449934954
 20
142.390241719048
 30
0.0
 10
252.9350853007715
 20
143.5067002729768
 30
0.0
 10
253.4800210997709
 20
144.5377738612577
 30
0.0
 10
253.9991195093015
 20
145.4812969826789
 30
0.0
 10
254.4103544820651
 20
146.1948044002261
 30
0.0
 10
254.7252622931753
 20
146.7196909445217
 30
0.0
 10
254.9535574378903
 20
147.0888094356322
 30
0.0
 10
255.1751395306364
 20
147.4363830490403
 30
0.0
 10
255.3171525431228
 20
147.649051225912
 30
0.0
 10
255.3880112012423
 20
147.7551639079401
 30
0.0
  0
LINE
  5
15D
330
1F
100
AcDbEntity
  8
0
  6
HIDDEN
 62
     7
370
     0
100
AcDbLine
 10
240.0867500598
 20
132.8275358267
 30
0.0
 11
238.6710205371
 21
128.4993855245
 31
0.0
  0
LINE
  5
15E
330
1F
100
AcDbEntity
  8
0
  6
HIDDEN
 62
     7
370
     0
100
AcDbLine
 10
154.6103329653
 20
120.0056780092
 30
0.0
 11
154.6103329653
 21
108.2366256471
 31
0.0
  0
LINE
  5
15F
330
1F
100
AcDbEntity
  8
0
  6
HIDDEN
 62
     7
370
     0
100
AcDbLine
 10
154.6103329653
 20
102.4326508361
 30
0.0
 11
154.6103329653
 21
90.6635984741
 31
0.0
  0
LINE
  5
160
330
1F
100
AcDbEntity
  8
0
  6
HIDDEN
 62
     7
370
     0
100
AcDbLine
 10
156.1103322798
 20
101.3694271408
 30
0.0
 11
156.1103322798
 21
90.2305856309
 31
0.0
  0
LINE
  5
161
330
1F
100
AcDbEntity
  8
0
  6
HIDDEN
 62
     7
370
     0
100
AcDbLine
 10
156.1103322798
 20
120.4386908523
 30
0.0
 11
156.1103322798
 21
109.2998493425
 31
0.0
  0
LINE
  5
162
330
1F
100
AcDbEntity
  8
0
  6
HIDDEN
 62
     7
370
     0
100
AcDbLine
 10
192.4103317484
 20
120.3723452948
 30
0.0
 11
192.4103317484
 21
90.2969311885
 31
0.0
  0
LINE
  5
163
330
1F
100
AcDbEntity
  8
0
  6
HIDDEN
 62
     7
370
     0
100
AcDbLine
 10
190.4103317553
 20
120.8695588596
 30
0.0
 11
190.4103317553
 21
89.7997176237
 31
0.0
  0
ELLIPSE
  5
164
330
1F
100
AcDbEntity
  8
0
  6
HIDDEN
 62
     7
370
     0
100
AcDbEllipse
 10
241.94081412
 20
105.3346382416
 30
0.0
 11
11.07892454872075
 21
31.97838338560522
 31
0.0
210
0.0
220
0.0
230
1.0
 40
0.1061482562
 41
1.607554870506684
 42
2.595941965698168
  0
SPLINE
  5
165
330
1F
100
AcDbEntity
  8
0
  6
HIDDEN
 62
     7
370
     0
100
AcDbSpline
210
0.0
220
0.0
230
1.0
 70
     8
 71
     3
 72
    24
 73
    20
 74
     0
 42
0.00000001
 43
0.00000001
 12
1.0
 22
0.0
 32
0.0
 13
1.0
 23
0.0
 33
0.0
 40
0.0
 40
0.0
 40
0.0
 40
0.0
 40
0.125
 40
0.125
 40
0.25
 40
0.25
 40
0.375
 40
0.375
 40
0.4375
 40
0.4375
 40
0.5
 40
0.5
 40
0.625
 40
0.625
 40
0.75
 40
0.75
 40
0.875
 40
0.875
 40
1.0
 40
1.0
 40
1.0
 40
1.0
 10
161.060331743396
 20
101.2486771885339
 30
0.0
 10
161.2981353756711
 20
101.547684290864
 30
0.0
 10
161.5282210368824
 20
101.8520221421827
 30
0.0
 10
161.9629744354922
 20
102.4777556795787
 30
0.0
 10
162.1679072277784
 20
102.7989804069062
 30
0.0
 10
162.5330091782771
 20
103.470906177639
 30
0.0
 10
162.6948095640686
 20
103.8262214095178
 30
0.0
 10
162.8666697686483
 20
104.3764526308703
 30
0.0
 10
162.9122549603084
 20
104.5628564158507
 30
0.0
 10
162.9747296998833
 20
104.942990917947
 30
0.0
 10
162.9914008456317
 20
105.1386607102329
 30
0.0
 10
162.9919218888082
 20
105.7171410889073
 30
0.0
 10
162.9274795879216
 20
106.0950529278761
 30
0.0
 10
162.6976304945482
 20
106.8370209529745
 30
0.0
 10
162.5391098168851
 20
107.1857364131355
 30
0.0
 10
162.1748754869849
 20
107.8588288108687
 30
0.0
 10
161.9681392469214
 20
108.1837812981103
 30
0.0
 10
161.530201301181
 20
108.8147051085721
 30
0.0
 10
161.2989285739014
 20
109.1205948489127
 30
0.0
 10
161.0603317433961
 20
109.4205992947322
 30
0.0
  0
LINE
  5
166
330
1F
100
AcDbEntity
  8
0
  6
HIDDEN
 62
     7
370
     0
100
AcDbLine
 10
161.0603303904
 20
101.248676978
 30
0.0
 11
161.0603303904
 21
109.4205995053
 31
0.0
  0
SPLINE
  5
167
330
1F
100
AcDbEntity
  8
0
  6
HIDDEN
 62
     7
370
     0
100
AcDbSpline
210
0.0
220
0.0
230
1.0
 70
     8
 71
     3
 72
     8
 73
     4
 74
     0
 42
0.00000001
 43
0.00000001
 12
1.0
 22
0.0
 32
0.0
 13
1.0
 23
0.0
 33
0.0
 40
0.0000249638557296
 40
0.0000249638557296
 40
0.0000249638557296
 40
0.0000249638557296
 40
0.0049776420541172
 40
0.0049776420541172
 40
0.0049776420541172
 40
0.0049776420541172
 10
156.110331743396
 20
101.3694273447966
 30
0.0
 10
157.7603079779056
 20
101.3281481070284
 30
0.0
 10
159.4103092976506
 20
101.2879264257889
 30
0.0
 10
161.060331743396
 20
101.2486771885339
 30
0.0
  0
SPLINE
  5
168
330
1F
100
AcDbEntity
  8
0
  6
HIDDEN
 62
     7
370
     0
100
AcDbSpline
210
0.0
220
0.0
230
1.0
 70
     8
 71
     3
 72
     8
 73
     4
 74
     0
 42
0.00000001
 43
0.00000001
 12
1.0
 22
0.0
 32
0.0
 13
1.0
 23
0.0
 33
0.0
 40
0.0000249631533153
 40
0.0000249631533153
 40
0.0000249631533153
 40
0.0000249631533153
 40
0.0049776413517029
 40
0.0049776413517029
 40
0.0049776413517029
 40
0.0049776413517029
 10
161.060331743396
 20
109.4205992947323
 30
0.0
 10
159.4103092976506
 20
109.3813500574773
 30
0.0
 10
157.7603079779055
 20
109.3411283762378
 30
0.0
 10
156.110331743396
 20
109.2998491384696
 30
0.0
  0
SPLINE
  5
169
330
1F
100
AcDbEntity
  8
0
  6
HIDDEN
 62
     7
370
     0
100
AcDbSpline
210
0.0
220
0.0
230
1.0
 70
     8
 71
     3
 72
     8
 73
     4
 74
     0
 42
0.00000001
 43
0.00000001
 12
1.0
 22
0.0
 32
0.0
 13
1.0
 23
0.0
 33
0.0
 40
0.0
 40
0.0
 40
0.0
 40
0.0
 40
1.0
 40
1.0
 40
1.0
 40
1.0
 10
154.6103317433938
 20
102.4326509086528
 30
0.0
 10
155.0770923547716
 20
102.0172876630297
 30
0.0
 10
155.5828399015517
 20
101.6726972337251
 30
0.0
 10
156.110331743396
 20
101.3694273447966
 30
0.0
  0
SPLINE
  5
16A
330
1F
100
AcDbEntity
  8
0
  6
HIDDEN
 62
     7
370
     0
100
AcDbSpline
210
0.0
220
0.0
230
1.0
 70
     8
 71
     3
 72
     8
 73
     4
 74
     0
 42
0.00000001
 43
0.00000001
 12
1.0
 22
0.0
 32
0.0
 13
1.0
 23
0.0
 33
0.0
 40
0.0
 40
0.0
 40
0.0
 40
0.0
 40
1.0
 40
1.0
 40
1.0
 40
1.0
 10
156.110331743396
 20
109.2998491384696
 30
0.0
 10
155.5828399015525
 20
108.9965792495416
 30
0.0
 10
155.0770923547732
 20
108.6519888202376
 30
0.0
 10
154.610331743396
 20
108.2366255746154
 30
0.0
  0
LINE
  5
16B
330
1F
100
AcDbEntity
  8
0
  6
HIDDEN
 62
     7
370
     0
100
AcDbLine
 10
154.6103329653
 20
102.4326508361
 30
0.0
 11
154.6103329653
 21
108.2366256471
 31
0.0
  0
SPLINE
  5
16C
330
1F
100
AcDbEntity
  8
0
  6
HIDDEN
 62
     7
370
     0
100
AcDbSpline
210
0.0
220
0.0
230
1.0
 70
     8
 71
     3
 72
    70
 73
    66
 74
     0
 42
0.00000001
 43
0.00000001
 12
1.0
 22
0.0
 32
0.0
 13
1.0
 23
0.0
 33
0.0
 40
-0.0312499999999999
 40
-0.0312499999999999
 40
0.0
 40
0.0
 40
0.03125
 40
0.03125
 40
0.0625
 40
0.0625
 40
0.09375
 40
0.09375
 40
0.125
 40
0.125
 40
0.1562500000000001
 40
0.1562500000000001
 40
0.1875000000000001
 40
0.1875000000000001
 40
0.2187500000000001
 40
0.2187500000000001
 40
0.2500000000000001
 40
0.2500000000000001
 40
0.2812500000000001
 40
0.2812500000000001
 40
0.3125000000000001
 40
0.3125000000000001
 40
0.3437500000000001
 40
0.3437500000000001
 40
0.3750000000000001
 40
0.3750000000000001
 40
0.4062500000000001
 40
0.4062500000000001
 40
0.4375000000000001
 40
0.4375000000000001
 40
0.4687500000000001
 40
0.4687500000000001
 40
0.5000000000000001
 40
0.5000000000000001
 40
0.5312500000000001
 40
0.5312500000000001
 40
0.5625000000000001
 40
0.5625000000000001
 40
0.5937500000000001
 40
0.5937500000000001
 40
0.6250000000000001
 40
0.6250000000000001
 40
0.6562500000000001
 40
0.6562500000000001
 40
0.6875000000000001
 40
0.6875000000000001
 40
0.7187500000000001
 40
0.7187500000000001
 40
0.7500000000000001
 40
0.7500000000000001
 40
0.7812500000000001
 40
0.7812500000000001
 40
0.8125000000000001
 40
0.8125000000000001
 40
0.8437500000000001
 40
0.8437500000000001
 40
0.8750000000000001
 40
0.8750000000000001
 40
0.9062500000000001
 40
0.9062500000000001
 40
0.9375000000000001
 40
0.9375000000000001
 40
0.9687500000000001
 40
0.9687500000000001
 40
1.0
 40
1.0
 40
1.03125
 40
1.03125
 10
174.167409299775
 20
108.2408479289505
 30
0.0
 10
174.5990877217267
 20
108.59036752357
 30
0.0
 10
174.8288698942758
 20
108.7419669593233
 30
0.0
 10
175.3148223096921
 20
109.0014604277912
 30
0.0
 10
175.5728297274633
 20
109.1095055337903
 30
0.0
 10
176.0969553810746
 20
109.2747425088169
 30
0.0
 10
176.3649223925039
 20
109.3332473106787
 30
0.0
 10
176.9126556003029
 20
109.4020867373376
 30
0.0
 10
177.1911164072323
 20
109.4116889915334
 30
0.0
 10
177.7383196014495
 20
109.3818629140011
 30
0.0
 10
178.0097073195174
 20
109.3428560939586
 30
0.0
 10
178.5479143157239
 20
109.2148857367504
 30
0.0
 10
178.8095769073824
 20
109.1268561324929
 30
0.0
 10
179.3094313458153
 20
108.9065868771807
 30
0.0
 10
179.5494763394799
 20
108.7737832085585
 30
0.0
 10
180.0061461401142
 20
108.46078788431
 30
0.0
 10
180.2159493119446
 20
108.2853567375741
 30
0.0
 10
180.5988718013203
 20
107.8967897084779
 30
0.0
 10
180.7734900638605
 20
107.6813240186113
 30
0.0
 10
181.0747931273933
 20
107.2193334284278
 30
0.0
 10
181.1999065676343
 20
106.9763006001936
 30
0.0
 10
181.3983506441949
 20
106.4657235427517
 30
0.0
 10
181.471810427774
 20
106.1947521366223
 30
0.0
 10
181.557008078419
 20
105.6516416637245
 30
0.0
 10
181.570175383176
 20
105.3777520081433
 30
0.0
 10
181.5361359465058
 20
104.8251818452635
 30
0.0
 10
181.4885882665049
 20
104.551017052687
 30
0.0
 10
181.3377966073633
 20
104.0233909128621
 30
0.0
 10
181.2327618210075
 20
103.7645214229142
 30
0.0
 10
180.9733870476301
 20
103.2783984701874
 30
0.0
 10
180.8200697352212
 20
103.0512865695325
 30
0.0
 10
180.467927031905
 20
102.627623554704
 30
0.0
 10
180.2695959286965
 20
102.4326687903668
 30
0.0
 10
179.8443281946757
 20
102.0878455467166
 30
0.0
 10
179.6144654567187
 20
101.935161679928
 30
0.0
 10
179.1272878370815
 20
101.6736675285691
 30
0.0
 10
178.8747813454269
 20
101.5671401797591
 30
0.0
 10
178.3527151346915
 20
101.4001325900436
 30
0.0
 10
178.0803536476599
 20
101.3394529809026
 30
0.0
 10
177.5340446925488
 20
101.2685612793251
 30
0.0
 10
177.2602349532329
 20
101.2577185403489
 30
0.0
 10
176.7113105481293
 20
101.2848449319906
 30
0.0
 10
176.433954975369
 20
101.3236811929254
 30
0.0
 10
175.8986724291685
 20
101.448913815916
 30
0.0
 10
175.6386561750012
 20
101.5350129039226
 30
0.0
 10
175.134234873276
 20
101.7553443911953
 30
0.0
 10
174.8892925758203
 20
101.8906692169339
 30
0.0
 10
174.4367732696549
 20
102.2000182362029
 30
0.0
 10
174.2263257496181
 20
102.3750120174486
 30
0.0
 10
173.838816139698
 20
102.7680419275235
 30
0.0
 10
173.6639241803862
 20
102.9848559547232
 30
0.0
 10
173.365293602886
 20
103.443433291845
 30
0.0
 10
173.239241924095
 20
103.6875323768142
 30
0.0
 10
173.038414550289
 20
104.2062760081964
 30
0.0
 10
172.9672418607917
 20
104.4715036327504
 30
0.0
 10
172.8821469290003
 20
105.0134434374748
 30
0.0
 10
172.8687213291883
 20
105.2937463187373
 30
0.0
 10
172.9025821280779
 20
105.8439254537167
 30
0.0
 10
172.9488597596207
 20
106.114515028099
 30
0.0
 10
173.0999535706887
 20
106.6467281808982
 30
0.0
 10
173.2044923399947
 20
106.9050116632814
 30
0.0
 10
173.4619560746271
 20
107.3899856033683
 30
0.0
 10
173.6173031120215
 20
107.6212746320374
 30
0.0
 10
173.970632581132
 20
108.047003033166
 30
0.0
 10
174.167409299775
 20
108.2408479289505
 30
0.0
 10
174.5990877217267
 20
108.59036752357
 30
0.0
  0
CIRCLE
  5
16D
330
1F
100
AcDbEntity
  8
0
  6
HIDDEN
 62
     7
370
     0
100
AcDbCircle
 10
177.1103317434
 20
105.3346382416
 30
0.0
 40
4.049999999999997
  0
CIRCLE
  5
16E
330
1F
100
AcDbEntity
  8
0
  6
HIDDEN
 62
     7
370
     0
100
AcDbCircle
 10
204.6103317434
 20
105.3346382416
 30
0.0
 40
2.0
  0
SPLINE
  5
16F
330
1F
100
AcDbEntity
  8
0
  6
HIDDEN
 62
     7
370
     0
100
AcDbSpline
210
0.0
220
0.0
230
1.0
 70
     8
 71
     3
 72
     9
 73
     5
 74
     0
 42
0.00000001
 43
0.00000001
 12
1.0
 22
0.0
 32
0.0
 13
1.0
 23
0.0
 33
0.0
 40
0.0
 40
0.0
 40
0.0
 40
0.0
 40
0.4999998408454305
 40
1.0
 40
1.0
 40
1.0
 40
1.0
 10
245.4050243738988
 20
127.7896678122094
 30
0.0
 10
245.4367959089805
 20
127.6773590371255
 30
0.0
 10
245.5003389993704
 20
127.4527414154598
 30
0.0
 10
245.5615569508943
 20
127.227478984702
 30
0.0
 10
245.5921659363993
 20
127.1148477334716
 30
0.0
  0
LINE
  5
170
330
1F
100
AcDbEntity
  8
0
  6
HIDDEN
 62
     7
370
     0
100
AcDbLine
 10
245.5921703273
 20
127.1148497201
 30
0.0
 11
238.1415040487
 21
105.3346382416
 31
0.0
  0
LINE
  5
171
330
1F
100
AcDbEntity
  8
0
  6
HIDDEN
 62
     7
370
     0
100
AcDbLine
 10
216.610331952
 20
118.2143507488
 30
0.0
 11
216.610331952
 21
121.0828466303
 31
0.0
  0
LINE
  5
172
330
1F
100
AcDbEntity
  8
0
  6
HIDDEN
 62
     7
370
     0
100
AcDbLine
 10
210.6103309685
 20
121.0845565386
 30
0.0
 11
210.6103309685
 21
117.5846379213
 31
0.0
  0
LINE
  5
173
330
1F
100
AcDbEntity
  8
0
  6
HIDDEN
 62
     7
370
     0
100
AcDbLine
 10
192.6103317434
 20
81.0846375264
 30
0.0
 11
192.7032249638
 21
81.1775313653
 31
0.0
  0
LINE
  5
174
330
1F
100
AcDbEntity
  8
0
  6
HIDDEN
 62
     7
370
     0
100
AcDbLine
 10
192.7032249638
 20
129.491745118
 30
0.0
 11
192.6103317434
 21
129.5846389569
 31
0.0
  0
ARC
  5
175
330
1F
100
AcDbEntity
  8
0
  6
HIDDEN
 62
     7
370
     0
100
AcDbCircle
 10
191.996118181
 20
81.8846382416
 30
0.0
 40
1.0
100
AcDbArc
 50
315.0
 51
0.0
  0
ARC
  5
176
330
1F
100
AcDbEntity
  8
0
  6
HIDDEN
 62
     7
370
     0
100
AcDbCircle
 10
191.996118181
 20
81.8846382416
 30
0.0
 40
1.0
100
AcDbArc
 50
0.0
 51
52.1052014664
  0
ARC
  5
177
330
1F
100
AcDbEntity
  8
0
  6
HIDDEN
 62
     7
370
     0
100
AcDbCircle
 10
191.996118181
 20
128.7846382416
 30
0.0
 40
1.000000000000006
100
AcDbArc
 50
351.8087250651
 51
45.0
  0
ARC
  5
178
330
1F
100
AcDbEntity
  8
0
  6
HIDDEN
 62
     7
370
     0
100
AcDbCircle
 10
191.996118181
 20
128.7846382416
 30
0.0
 40
1.000000000000006
100
AcDbArc
 50
307.8947985336
 51
351.8087250651
  0
LINE
  5
179
330
1F
100
AcDbEntity
  8
0
  6
HIDDEN
 62
     7
370
     0
100
AcDbLine
 10
192.9961181792
 20
81.88463803
 30
0.0
 11
192.9961181792
 21
128.7846384532
 31
0.0
  0
LINE
  5
17A
330
1F
100
AcDbEntity
  8
0
  6
HIDDEN
 62
     7
370
     0
100
AcDbLine
 10
192.9961181792
 20
81.88463803
 30
0.0
 11
192.9961181792
 21
128.7846384532
 31
0.0
  0
LINE
  5
17B
330
1F
100
AcDbEntity
  8
0
  6
HIDDEN
 62
     7
370
     0
100
AcDbLine
 10
215.627218529
 20
115.1314280889
 30
0.0
 11
222.9067114437
 21
120.6899458505
 31
0.0
  0
LINE
  5
17C
330
1F
100
AcDbEntity
  8
0
  6
HIDDEN
 62
     7
370
     0
100
AcDbLine
 10
223.0049343104
 20
127.055939842
 30
0.0
 11
214.1620059753
 21
120.3036034442
 31
0.0
  0
LINE
  5
17D
330
1F
100
AcDbEntity
  8
0
  6
HIDDEN
 62
     7
370
     0
100
AcDbLine
 10
216.1103309387
 20
109.8323125354
 30
0.0
 11
216.1103309387
 21
116.161426153
 31
0.0
  0
LINE
  5
17E
330
1F
100
AcDbEntity
  8
0
  6
HIDDEN
 62
     7
370
     0
100
AcDbLine
 10
211.1103319818
 20
117.4344230406
 30
0.0
 11
211.1103319818
 21
109.8306729421
 31
0.0
  0
LINE
  5
17F
330
1F
100
AcDbEntity
  8
0
  6
HIDDEN
 62
     7
370
     0
100
AcDbLine
 10
154.6103329653
 20
89.1382085122
 30
0.0
 11
156.1405592853
 21
90.0216871835
 31
0.0
  0
LINE
  5
180
330
1F
100
AcDbEntity
  8
0
  6
HIDDEN
 62
     7
370
     0
100
AcDbLine
 10
156.1405592853
 20
120.6475892998
 30
0.0
 11
154.6103329653
 21
121.5310679711
 31
0.0
  0
ARC
  5
181
330
1F
100
AcDbEntity
  8
0
  6
HIDDEN
 62
     7
370
     0
100
AcDbCircle
 10
165.6121330583
 20
91.3346382416
 30
0.0
 40
2.000000000000014
100
AcDbArc
 50
270.0
 51
315.0
  0
ARC
  5
182
330
1F
100
AcDbEntity
  8
0
  6
HIDDEN
 62
     7
370
     0
100
AcDbCircle
 10
165.6121330583
 20
119.3346382416
 30
0.0
 40
2.0
100
AcDbArc
 50
45.0
 51
90.0
  0
LINE
  5
183
330
1F
100
AcDbEntity
  8
0
  6
HIDDEN
 62
     7
370
     0
100
AcDbLine
 10
164.6103308791
 20
89.3346374817
 30
0.0
 11
165.6121322209
 21
89.3346374817
 31
0.0
  0
LINE
  5
184
330
1F
100
AcDbEntity
  8
0
  6
HIDDEN
 62
     7
370
     0
100
AcDbLine
 10
165.6121322209
 20
121.3346390016
 30
0.0
 11
164.6103308791
 21
121.3346390016
 31
0.0
  0
ARC
  5
185
330
1F
100
AcDbEntity
  8
0
  6
HIDDEN
 62
     7
370
     0
100
AcDbCircle
 10
164.6103317434
 20
91.3346382416
 30
0.0
 40
2.000000000000027
100
AcDbArc
 50
189.9742217944
 51
270.0
  0
ARC
  5
186
330
1F
100
AcDbEntity
  8
0
  6
HIDDEN
 62
     7
370
     0
100
AcDbCircle
 10
164.6103317434
 20
119.3346382416
 30
0.0
 40
2.000000000000022
100
AcDbArc
 50
90.0
 51
170.0257782056
  0
LINE
  5
187
330
1F
100
AcDbEntity
  8
0
  6
HIDDEN
 62
     7
370
     0
100
AcDbLine
 10
167.0263474131
 20
89.9204244799
 30
0.0
 11
168.4405607427
 21
91.3346378095
 31
0.0
  0
LINE
  5
188
330
1F
100
AcDbEntity
  8
0
  6
HIDDEN
 62
     7
370
     0
100
AcDbLine
 10
168.4405607427
 20
119.3346386738
 30
0.0
 11
167.0263474131
 21
120.7488520033
 31
0.0
  0
LINE
  5
189
330
1F
100
AcDbEntity
  8
0
  6
HIDDEN
 62
     7
370
     0
100
AcDbLine
 10
156.1405592853
 20
90.0216871835
 30
0.0
 11
161.0405602748
 21
91.3346378095
 31
0.0
  0
LINE
  5
18A
330
1F
100
AcDbEntity
  8
0
  6
HIDDEN
 62
     7
370
     0
100
AcDbLine
 10
161.0405602748
 20
119.3346386738
 30
0.0
 11
156.1405592853
 21
120.6475892998
 31
0.0
  0
LINE
  5
18B
330
1F
100
AcDbEntity
  8
0
  6
HIDDEN
 62
     7
370
     0
100
AcDbLine
 10
162.6405594194
 20
119.681048762
 30
0.0
 11
162.0405604387
 21
119.3346386738
 31
0.0
  0
LINE
  5
18C
330
1F
100
AcDbEntity
  8
0
  6
HIDDEN
 62
     7
370
     0
100
AcDbLine
 10
162.0405604387
 20
91.3346378095
 30
0.0
 11
162.6405594194
 21
90.9882277213
 31
0.0
  0
ARC
  5
18D
330
1F
100
AcDbEntity
  8
0
  6
HIDDEN
 62
     7
370
     0
100
AcDbCircle
 10
181.1103317434
 20
91.8346382416
 30
0.0
 40
0.5000000000000142
100
AcDbArc
 50
270.0
 51
360.0
  0
ARC
  5
18E
330
1F
100
AcDbEntity
  8
0
  6
HIDDEN
 62
     7
370
     0
100
AcDbCircle
 10
181.1103317434
 20
118.8346382416
 30
0.0
 40
0.5000000000000142
100
AcDbArc
 50
0.0
 51
90.0
  0
LINE
  5
18F
330
1F
100
AcDbEntity
  8
0
  6
HIDDEN
 62
     7
370
     0
100
AcDbLine
 10
161.0405602748
 20
91.3346378095
 30
0.0
 11
162.0405604387
 21
91.3346378095
 31
0.0
  0
LINE
  5
190
330
1F
100
AcDbEntity
  8
0
  6
HIDDEN
 62
     7
370
     0
100
AcDbLine
 10
162.0405604387
 20
119.3346386738
 30
0.0
 11
161.0405602748
 21
119.3346386738
 31
0.0
  0
LINE
  5
191
330
1F
100
AcDbEntity
  8
0
  6
HIDDEN
 62
     7
370
     0
100
AcDbLine
 10
168.4405607427
 20
91.3346378095
 30
0.0
 11
181.110331721
 21
91.3346378095
 31
0.0
  0
LINE
  5
192
330
1F
100
AcDbEntity
  8
0
  6
HIDDEN
 62
     7
370
     0
100
AcDbLine
 10
181.110331721
 20
119.3346386738
 30
0.0
 11
168.4405607427
 21
119.3346386738
 31
0.0
  0
LINE
  5
193
330
1F
100
AcDbEntity
  8
0
  6
HIDDEN
 62
     7
370
     0
100
AcDbLine
 10
181.610331803
 20
95.0846379585
 30
0.0
 11
182.8603315422
 21
96.3346386291
 31
0.0
  0
LINE
  5
194
330
1F
100
AcDbEntity
  8
0
  6
HIDDEN
 62
     7
370
     0
100
AcDbLine
 10
182.8603315422
 20
114.3346378542
 30
0.0
 11
181.610331803
 21
115.5846385248
 31
0.0
  0
LINE
  5
195
330
1F
100
AcDbEntity
  8
0
  6
HIDDEN
 62
     7
370
     0
100
AcDbLine
 10
219.6103324438
 20
114.3346378542
 30
0.0
 11
182.8603315422
 21
114.3346378542
 31
0.0
  0
LINE
  5
196
330
1F
100
AcDbEntity
  8
0
  6
HIDDEN
 62
     7
370
     0
100
AcDbLine
 10
182.8603315422
 20
96.3346386291
 30
0.0
 11
219.6103324438
 21
96.3346386291
 31
0.0
  0
LINE
  5
197
330
1F
100
AcDbEntity
  8
0
  6
HIDDEN
 62
     7
370
     0
100
AcDbLine
 10
219.6103324438
 20
96.3346386291
 30
0.0
 11
225.0180774624
 21
105.3346382416
 31
0.0
  0
LINE
  5
198
330
1F
100
AcDbEntity
  8
0
  6
HIDDEN
 62
     7
370
     0
100
AcDbLine
 10
225.0180774624
 20
105.3346382416
 30
0.0
 11
219.6103324438
 21
114.3346378542
 31
0.0
  0
LINE
  5
199
330
1F
100
AcDbEntity
  8
0
  6
HIDDEN
 62
     7
370
     0
100
AcDbLine
 10
239.9370380932
 20
129.6167807616
 30
0.0
 11
239.1418339008
 21
128.8336576856
 31
0.0
  0
LINE
  5
19A
330
1F
100
AcDbEntity
  8
0
  6
HIDDEN
 62
     7
370
     0
100
AcDbLine
 10
244.0535509283
 20
123.8461682535
 30
0.0
 11
244.8487551207
 21
124.6292913295
 31
0.0
  0
LINE
  5
19B
330
1F
100
AcDbEntity
  8
0
  6
HIDDEN
 62
     7
370
     0
100
AcDbLine
 10
236.3879391247
 20
135.2719912268
 30
0.0
 11
234.7869024867
 21
133.6952788718
 31
0.0
  0
LINE
  5
19C
330
1F
100
AcDbEntity
  8
0
  6
HIDDEN
 62
     7
370
     0
100
AcDbLine
 10
244.0555588597
 20
127.3513590879
 30
0.0
 11
247.8316323156
 21
134.251203943
 31
0.0
  0
LINE
  5
19D
330
1F
100
AcDbEntity
  8
0
  6
HIDDEN
 62
     7
370
     0
100
AcDbLine
 10
232.5583108956
 20
123.3326127715
 30
0.0
 11
232.5510950083
 21
123.3255049176
 31
0.0
  0
LINE
  5
19E
330
1F
100
AcDbEntity
  8
0
  6
HIDDEN
 62
     7
370
     0
100
AcDbLine
 10
238.577623784
 20
129.2604790963
 30
0.0
 11
232.5583108956
 21
123.3326127715
 31
0.0
  0
LINE
  5
19F
330
1F
100
AcDbEntity
  8
0
  6
HIDDEN
 62
     7
370
     0
100
AcDbLine
 10
238.4451561863
 20
117.3405187167
 30
0.0
 11
244.471684962
 21
123.2754928953
 31
0.0
  0
LINE
  5
1A0
330
1F
100
AcDbEntity
  8
0
  6
HIDDEN
 62
     7
370
     0
100
AcDbLine
 10
244.3760902876
 20
141.8618211485
 30
0.0
 11
243.4036591345
 21
140.9041644968
 31
0.0
  0
LINE
  5
1A1
330
1F
100
AcDbEntity
  8
0
  6
HIDDEN
 62
     7
370
     0
100
AcDbLine
 10
247.8943699295
 20
136.3441744782
 30
0.0
 11
248.8668010825
 21
137.3018311299
 31
0.0
  0
LINE
  5
1A2
330
1F
100
AcDbEntity
  8
0
  6
HIDDEN
 62
     7
370
     0
100
AcDbLine
 10
242.9513492877
 20
138.1031224466
 30
0.0
 11
240.1715711946
 21
133.0237580426
 31
0.0
  0
LINE
  5
1A3
330
1F
100
AcDbEntity
  8
VERMASSUNG
  6
CENTERX2
100
AcDbLine
 10
151.0815550895
 20
105.3346382416
 30
0.0
 11
257.6103317434
 21
105.3346382416
 31
0.0
  0
LINE
  5
1A4
330
1F
100
AcDbEntity
  8
VERMASSUNG
  6
CENTERX2
100
AcDbLine
 10
257.6103317434
 20
150.3346382416
 30
0.0
 11
257.6103317434
 21
105.3346382416
 31
0.0
  0
LINE
  5
1A5
330
1F
100
AcDbEntity
  8
VERMASSUNG
  6
CENTERX2
100
AcDbLine
 10
257.6103317434
 20
150.3346382416
 30
0.0
 11
275.9811118285
 21
150.3346382416
 31
0.0
  0
DIMENSION
  5
1A6
330
1F
100
AcDbEntity
  8
VERMASSUNG
100
AcDbDimension
  2
_D
 10
257.6103317434
 20
150.3346382416
 30
0.0
 11
265.5481308443
 21
139.7188315682
 31
0.0
 70
   162
  1
<>
 71
     1
 42
-1.0
  3
SLDDIMSTYLE0
100
AcDb2LineAngularDimension
 13
253.3398489079
 23
136.2845456433
 33
0.0
 14
257.594247459
 24
149.8135819731
 34
0.0
 15
275.9811118285
 25
150.3346382416
 35
0.0
 16
265.5481308443
 26
139.7188315682
 36
0.0
  0
DIMENSION
  5
1AF
330
1F
100
AcDbEntity
  8
VERMASSUNG
100
AcDbDimension
  2
_D_1
 10
257.6103317434
 20
155.7368849945
 30
0.0
 11
225.1103317434
 21
155.7368849945
 31
0.0
 70
   160
  1
<>
 71
     2
 42
-1.0
  3
SLDDIMSTYLE1
100
AcDbAlignedDimension
 13
192.6103317434
 23
136.3346382416
 33
0.0
 14
257.6103317434
 24
150.3346382416
 34
0.0
100
AcDbRotatedDimension
  0
DIMENSION
  5
1BC
330
1F
100
AcDbEntity
  8
VERMASSUNG
100
AcDbDimension
  2
_D_2
 10
257.6103317434
 20
164.2710098861
 30
0.0
 11
206.1103317434
 21
164.2710098861
 31
0.0
 70
   160
  1
<>
 71
     2
 42
-1.0
  3
SLDDIMSTYLE2
100
AcDbAlignedDimension
 13
154.6103317434
 23
125.6269762341
 33
0.0
 14
257.6103317434
 24
150.3346382416
 34
0.0
 50
0.0
100
AcDbRotatedDimension
  0
DIMENSION
  5
1C7
330
1F
100
AcDbEntity
  8
VERMASSUNG
100
AcDbDimension
  2
_D_3
 10
275.6551153265
 20
105.3346382416
 30
0.0
 11
275.6551153265
 21
127.8346382416
 31
0.0
 70
   160
  1
<>
 71
     2
 42
-1.0
  3
SLDDIMSTYLE1
100
AcDbAlignedDimension
 13
257.6103317434
 23
150.3346382416
 33
0.0
 14
257.6103317434
 24
105.3346382416
 34
0.0
 50
90.0
100
AcDbRotatedDimension
  0
DIMENSION
  5
1D3
330
1F
100
AcDbEntity
  8
VERMASSUNG
100
AcDbDimension
  2
_D_4
 10
149.1698257831
 20
73.8346382416
 30
0.0
 11
149.1698257831
 21
105.3346382416
 31
0.0
 70
   160
  1
PSC%%c<>
 71
     2
 42
-1.0
  3
SLDDIMSTYLE2
100
AcDbAlignedDimension
 13
193.1103317434
 23
136.8346382416
 33
0.0
 14
193.1103317434
 24
73.8346382416
 34
0.0
 50
90.0
100
AcDbRotatedDimension
  0
LINE
  5
1DF
330
1F
100
AcDbEntity
  8
0
  6
Continuous
 62
     7
370
    15
100
AcDbLine
 10
81.109217754
 20
149.2502490021
 30
0.0
 11
74.9506935975
 21
150.3361636735
 31
0.0
  0
SPLINE
  5
1E0
330
1F
100
AcDbEntity
  8
0
  6
Continuous
 62
     7
370
    15
100
AcDbSpline
210
0.0
220
0.0
230
1.0
 70
     8
 71
     3
 72
    15
 73
    11
 74
     0
 42
0.00000001
 43
0.00000001
 12
1.0
 22
0.0
 32
0.0
 13
1.0
 23
0.0
 33
0.0
 40
0.0
 40
0.0
 40
0.0
 40
0.0
 40
0.2628828025585402
 40
0.489649129208299
 40
0.6781175035511201
 40
0.82677842724054
 40
0.9301432286392256
 40
0.9708993347329671
 40
0.9992540989921735
 40
1.0
 40
1.0
 40
1.0
 40
1.0
 10
70.06073828259605
 20
134.5357434786402
 30
0.0
 10
70.07651292070736
 20
134.4776720943345
 30
0.0
 10
70.10589497894627
 20
134.3695075340039
 30
0.0
 10
70.09877770126053
 20
134.2133693225911
 30
0.0
 10
70.06898248796438
 20
134.0877847233064
 30
0.0
 10
70.03025479396081
 20
133.9958319616151
 30
0.0
 10
69.99622980131159
 20
133.9370348752614
 30
0.0
 10
69.97727130569412
 20
133.9087917102556
 30
0.0
 10
69.97102909328595
 20
133.8999696366166
 30
0.0
 10
69.96953672462806
 20
133.8979001638833
 30
0.0
 10
69.96949847260612
 20
133.8978471196734
 30
0.0
  0
LINE
  5
1E1
330
1F
100
AcDbEntity
  8
0
  6
Continuous
 62
     7
370
    15
100
AcDbLine
 10
69.7655849292
 20
135.3967549242
 30
0.0
 11
70.0538111053
 21
134.5319120176
 31
0.0
  0
LINE
  5
1E2
330
1F
100
AcDbEntity
  8
0
  6
Continuous
 62
     7
370
    15
100
AcDbLine
 10
68.5308444447
 20
132.0869406648
 30
0.0
 11
68.8421473972
 21
132.0320485122
 31
0.0
  0
LINE
  5
1E3
330
1F
100
AcDbEntity
  8
0
  6
Continuous
 62
     7
370
    15
100
AcDbLine
 10
83.6898786149
 20
148.4682211615
 30
0.0
 11
81.1203908309
 21
148.9212909676
 31
0.0
  0
LINE
  5
1E4
330
1F
100
AcDbEntity
  8
0
  6
Continuous
 62
     7
370
    15
100
AcDbLine
 10
83.9479406498
 20
148.1069499589
 30
0.0
 11
83.7173116527
 21
148.4474712945
 31
0.0
  0
LINE
  5
1E5
330
1F
100
AcDbEntity
  8
0
  6
Continuous
 62
     7
370
    15
100
AcDbLine
 10
72.3685034684
 20
142.8578259386
 30
0.0
 11
72.3139312252
 21
142.864710275
 31
0.0
  0
LINE
  5
1E6
330
1F
100
AcDbEntity
  8
0
  6
Continuous
 62
     7
370
    15
100
AcDbLine
 10
68.5549293778
 20
132.101920057
 30
0.0
 11
71.688588396
 21
136.0342619903
 31
0.0
  0
LWPOLYLINE
  5
1E7
330
1F
100
AcDbEntity
  8
0
  6
Continuous
 62
     7
370
    15
100
AcDbPolyline
 90
        9
 70
   128
 43
0.0
 10
68.5556497558
 20
132.6095206625
 10
68.5339592531
 20
132.5044339485
 10
68.5171721637
 20
132.3976037986
 10
68.5065294749
 20
132.2969278283
 10
68.5028176888
 20
132.2098454423
 10
68.5063106141
 20
132.1427939422
 10
68.5167512059
 20
132.1007298268
 10
68.5333664663
 20
132.0867618508
 10
68.5549293778
 20
132.101920057
  0
LINE
  5
1E8
330
1F
100
AcDbEntity
  8
0
  6
Continuous
 62
     7
370
    15
100
AcDbLine
 10
71.7029214505
 20
146.1385587193
 30
0.0
 11
68.5556497558
 21
132.6095206625
 31
0.0
  0
ARC
  5
1E9
330
1F
100
AcDbEntity
  8
0
  6
Continuous
 62
     7
370
    15
100
AcDbCircle
 10
72.466198823
 20
146.0053379611
 30
0.0
 40
0.7748161832780338
100
AcDbArc
 50
150.3327707852
 51
170.0994513558
  0
LINE
  5
1EA
330
1F
100
AcDbEntity
  8
0
  6
Continuous
 62
     7
370
    15
100
AcDbLine
 10
74.926608417
 20
150.3211842812
 30
0.0
 11
71.7929496098
 21
146.388842348
 31
0.0
  0
LWPOLYLINE
  5
1EB
330
1F
100
AcDbEntity
  8
0
  6
Continuous
 62
     7
370
    15
100
AcDbPolyline
 90
        9
 70
   128
 43
0.0
 10
74.9258883737
 20
149.8135836757
 10
74.9475788255
 20
149.9186703898
 10
74.9643657767
 20
150.0255005396
 10
74.975008509
 20
150.12617651
 10
74.9787204116
 20
150.213258896
 10
74.9752271479
 20
150.2803103961
 10
74.9647869018
 20
150.3223726488
 10
74.9481713067
 20
150.3363424874
 10
74.926608417
 20
150.3211842812
  0
LINE
  5
1EC
330
1F
100
AcDbEntity
  8
0
  6
Continuous
 62
     7
370
    15
100
AcDbLine
 10
71.7786165554
 20
136.284545619
 30
0.0
 11
74.9258883737
 21
149.8135836757
 31
0.0
  0
ARC
  5
1ED
330
1F
100
AcDbEntity
  8
0
  6
Continuous
 62
     7
370
    15
100
AcDbCircle
 10
71.0153594499
 20
136.417759087
 30
0.0
 40
0.7747949645146435
100
AcDbArc
 50
330.3324974001
 51
350.0997247409
  0
LWPOLYLINE
  5
1EE
330
1F
100
AcDbEntity
  8
0
  6
Continuous
 62
     7
370
    15
100
AcDbPolyline
 90
        9
 70
   128
 43
0.0
 10
74.923655666
 20
149.8200135268
 10
74.9442616
 20
149.9198475815
 10
74.960209204
 20
150.0213356651
 10
74.9703197983
 20
150.1169787682
 10
74.9738461093
 20
150.1997062899
 10
74.9705275087
 20
150.2634050287
 10
74.9606092725
 20
150.3033662177
 10
74.9448244535
 20
150.3166357018
 10
74.9243397079
 20
150.3022374548
  0
LINE
  5
1EF
330
1F
100
AcDbEntity
  8
0
  6
Continuous
 62
     7
370
    15
100
AcDbLine
 10
74.9243397079
 20
150.3022374548
 30
0.0
 11
71.790680908
 21
146.3698955215
 31
0.0
  0
ARC
  5
1F0
330
1F
100
AcDbEntity
  8
0
  6
Continuous
 62
     7
370
    15
100
AcDbCircle
 10
72.4303097505
 20
146.0055521359
 30
0.0
 40
0.7361189841457987
100
AcDbArc
 50
150.3334307153
 51
170.0989939937
  0
LINE
  5
1F1
330
1F
100
AcDbEntity
  8
0
  6
Continuous
 62
     7
370
    15
100
AcDbLine
 10
71.7051542963
 20
146.1321251429
 30
0.0
 11
68.5578821361
 21
132.6030889488
 31
0.0
  0
LWPOLYLINE
  5
1F2
330
1F
100
AcDbEntity
  8
0
  6
Continuous
 62
     7
370
    15
100
AcDbPolyline
 90
        9
 70
   128
 43
0.0
 10
68.5578821361
 20
132.6030889488
 10
68.5372761584
 20
132.5032548941
 10
68.5213286563
 20
132.4017668105
 10
68.5112182185
 20
132.3061237074
 10
68.5076917655
 20
132.2233961857
 10
68.5110105335
 20
132.1596974469
 10
68.5209286533
 20
132.1197362579
 10
68.5367136396
 20
132.1064667739
 10
68.5571980796
 20
132.1208668835
  0
LINE
  5
1F3
330
1F
100
AcDbEntity
  8
0
  6
Continuous
 62
     7
370
    15
100
AcDbLine
 10
68.5571980796
 20
132.1208668835
 30
0.0
 11
71.6908570978
 21
136.0532088168
 31
0.0
  0
ARC
  5
1F4
330
1F
100
AcDbEntity
  8
0
  6
Continuous
 62
     7
370
    15
100
AcDbCircle
 10
71.0512844145
 20
136.4175320018
 30
0.0
 40
0.7360601880222002
100
AcDbArc
 50
330.3326333593
 51
350.0997913497
  0
LINE
  5
1F5
330
1F
100
AcDbEntity
  8
0
  6
Continuous
 62
     7
370
    15
100
AcDbLine
 10
71.7763837095
 20
136.2909791953
 30
0.0
 11
74.923655666
 21
149.8200135268
 31
0.0
  0
ARC
  5
1F6
330
1F
100
AcDbEntity
  8
0
  6
Continuous
 62
     7
370
    15
100
AcDbCircle
 10
80.4062003495
 20
149.0217404219
 30
0.0
 40
0.7392223225996334
100
AcDbArc
 50
336.5585407542
 51
18.0062199465
  0
LINE
  5
1F7
330
1F
100
AcDbEntity
  8
0
  6
Continuous
 62
     7
370
    15
100
AcDbLine
 10
77.9371405154
 20
135.1986309476
 30
0.0
 11
81.0844124428
 21
148.7276690043
 31
0.0
  0
LINE
  5
1F8
330
1F
100
AcDbEntity
  8
0
  6
Continuous
 62
     7
370
    15
100
AcDbLine
 10
72.2018339805
 20
145.5812143124
 30
0.0
 11
71.9603532127
 21
145.9723809696
 31
0.0
  0
LWPOLYLINE
  5
1F9
330
1F
100
AcDbEntity
  8
0
  6
Continuous
 62
     7
370
    15
100
AcDbPolyline
 90
        9
 70
   128
 43
0.0
 10
73.6100090801
 20
145.7761550284
 10
73.6642352206
 20
146.0388774015
 10
73.7062025949
 20
146.3059509135
 10
73.7328094331
 20
146.557642702
 10
73.7420891312
 20
146.7753449417
 10
73.733356003
 20
146.9429718293
 10
73.7072553386
 20
147.0481330491
 10
73.6657163727
 20
147.0830576457
 10
73.6118092102
 20
147.0451602675
  0
LINE
  5
1FA
330
1F
100
AcDbEntity
  8
0
  6
Continuous
 62
     7
370
    15
100
AcDbLine
 10
74.0495036955
 20
147.5967640019
 30
0.0
 11
73.6118092102
 21
147.0451602675
 31
0.0
  0
LINE
  5
1FB
330
1F
100
AcDbEntity
  8
0
  6
Continuous
 62
     7
370
    15
100
AcDbLine
 10
71.8485947366
 20
138.2044428922
 30
0.0
 11
73.6100090801
 21
145.7761550284
 31
0.0
  0
LINE
  5
1FC
330
1F
100
AcDbEntity
  8
0
  6
Continuous
 62
     7
370
    15
100
AcDbLine
 10
69.8697286792
 20
135.3779440708
 30
0.0
 11
71.6235243383
 21
137.5787356831
 31
0.0
  0
LWPOLYLINE
  5
1FD
330
1F
100
AcDbEntity
  8
0
  6
Continuous
 62
     7
370
    15
100
AcDbPolyline
 90
        9
 70
   128
 43
0.0
 10
69.8715289257
 20
136.6469474472
 10
69.8173026688
 20
136.3842269368
 10
69.7753354109
 20
136.1171515621
 10
69.7487284563
 20
135.8654616363
 10
69.7394487582
 20
135.6477575339
 10
69.7481817699
 20
135.4801306463
 10
69.7742825508
 20
135.3749694265
 10
69.8158214002
 20
135.3400466926
 10
69.8697286792
 20
135.3779440708
  0
LINE
  5
1FE
330
1F
100
AcDbEntity
  8
0
  6
Continuous
 62
     7
370
    15
100
AcDbLine
 10
71.6329432692
 20
144.2186595834
 30
0.0
 11
69.8715289257
 21
136.6469474472
 31
0.0
  0
ARC
  5
1FF
330
1F
100
AcDbEntity
  8
0
  6
Continuous
 62
     7
370
    15
100
AcDbCircle
 10
73.5411324707
 20
143.8856120636
 30
0.0
 40
1.937035538974837
100
AcDbArc
 50
150.3327734445
 51
170.0995573421
  0
LINE
  5
200
330
1F
100
AcDbEntity
  8
0
  6
Continuous
 62
     7
370
    15
100
AcDbLine
 10
73.6118092102
 20
147.0451602675
 30
0.0
 11
71.8580136675
 21
144.8443705178
 31
0.0
  0
ARC
  5
201
330
1F
100
AcDbEntity
  8
0
  6
Continuous
 62
     7
370
    15
100
AcDbCircle
 10
69.9404923213
 20
138.5374649027
 30
0.0
 40
1.93694565926701
100
AcDbArc
 50
330.3322542045
 51
350.0998592903
  0
LWPOLYLINE
  5
202
330
1F
100
AcDbEntity
  8
0
  6
Continuous
 62
     7
370
    15
100
AcDbPolyline
 90
       27
 70
   128
 43
0.0
 10
72.028787494
 20
140.3817037083
 10
72.1541833266
 20
140.9808272458
 10
72.2555528994
 20
141.5933581031
 10
72.3270051315
 20
142.1837011314
 10
72.3643874883
 20
142.7175501324
 10
72.3655274271
 20
143.1638697125
 10
72.3303585912
 20
143.4967318512
 10
72.2609250009
 20
143.6967873908
 10
72.1612618438
 20
143.752405975
 10
72.0371610153
 20
143.6603652276
 10
71.8958351429
 20
143.4260034896
 10
71.7454973276
 20
143.062947873
 10
71.5948847722
 20
142.5922946967
 10
71.4527505118
 20
142.0413987673
 10
71.3273546792
 20
141.4422752298
 10
71.2259851064
 20
140.8297443725
 10
71.1545328743
 20
140.2394013442
 10
71.1171505175
 20
139.7055560685
 10
71.1160105787
 20
139.2592327632
 10
71.1511794146
 20
138.9263706244
 10
71.220613005
 20
138.7263188101
 10
71.320276162
 20
138.6706965006
 10
71.4443769905
 20
138.7627409733
 10
71.5857028629
 20
138.997098986
 10
71.7360406782
 20
139.3601546026
 10
71.8866532336
 20
139.8308077789
 10
72.028787494
 20
140.3817037083
  0
ARC
  5
203
330
1F
100
AcDbEntity
  8
0
  6
Continuous
 62
     7
370
    15
100
AcDbCircle
 10
77.1738678262
 20
135.3318500211
 30
0.0
 40
0.7748112799822792
100
AcDbArc
 50
330.3327076119
 51
350.0995145291
  0
LINE
  5
204
330
1F
100
AcDbEntity
  8
0
  6
Continuous
 62
     7
370
    15
100
AcDbLine
 10
69.9069671466
 20
133.8196737654
 30
0.0
 11
68.8130812853
 21
132.4433447755
 31
0.0
  0
LINE
  5
205
330
1F
100
AcDbEntity
  8
0
  6
Continuous
 62
     7
370
    15
100
AcDbLine
 10
69.9069671466
 20
133.8196737654
 30
0.0
 11
70.0526204094
 21
134.002449546
 31
0.0
  0
SPLINE
  5
206
330
1F
100
AcDbEntity
  8
0
  6
Continuous
 62
     7
370
    15
100
AcDbSpline
210
0.0
220
0.0
230
1.0
 70
     8
 71
     3
 72
     9
 73
     5
 74
     0
 42
0.00000001
 43
0.00000001
 12
1.0
 22
0.0
 32
0.0
 13
1.0
 23
0.0
 33
0.0
 40
0.0
 40
0.0
 40
0.0
 40
0.0
 40
0.9719834500784836
 40
1.0
 40
1.0
 40
1.0
 40
1.0
 10
70.08055310169357
 20
134.0348372198187
 30
0.0
 10
70.00158666920481
 20
133.9357455032546
 30
0.0
 10
69.92034410022652
 20
133.8337975569638
 30
0.0
 10
69.94748438304242
 20
133.868403328939
 30
0.0
 10
69.94824476013082
 20
133.8693728632771
 30
0.0
  0
LINE
  5
207
330
1F
100
AcDbEntity
  8
0
  6
Continuous
 62
     7
370
    15
100
AcDbLine
 10
69.9701829947
 20
133.8973423428
 30
0.0
 11
70.0526204094
 21
134.002449546
 31
0.0
  0
LINE
  5
208
330
1F
100
AcDbEntity
  8
0
  6
Continuous
 62
     7
370
    15
100
AcDbLine
 10
72.2957080364
 20
145.3959742523
 30
0.0
 11
71.8580136675
 21
144.8443705178
 31
0.0
  0
LINE
  5
209
330
1F
100
AcDbEntity
  8
0
  6
Continuous
 62
     7
370
    15
100
AcDbLine
 10
77.7866958308
 20
134.8725320734
 30
0.0
 11
77.8471123561
 21
134.9483473189
 31
0.0
  0
SPLINE
  5
20A
330
1F
100
AcDbEntity
  8
0
  6
Continuous
 62
     7
370
    15
100
AcDbSpline
210
0.0
220
0.0
230
1.0
 70
     8
 71
     3
 72
     9
 73
     5
 74
     0
 42
0.00000001
 43
0.00000001
 12
1.0
 22
0.0
 32
0.0
 13
1.0
 23
0.0
 33
0.0
 40
0.0
 40
0.0
 40
0.0
 40
0.0
 40
0.785794084540988
 40
1.0
 40
1.0
 40
1.0
 40
1.0
 10
72.20183398047584
 20
145.5812143124186
 30
0.0
 10
72.23450288681313
 20
145.5223930720255
 30
0.0
 10
72.27607727249506
 20
145.4475372776763
 30
0.0
 10
72.26945010492962
 20
145.3763443133589
 30
0.0
 10
72.26803052643436
 20
145.3610943592631
 30
0.0
  0
LINE
  5
20B
330
1F
100
AcDbEntity
  8
0
  6
Continuous
 62
     7
370
    15
100
AcDbLine
 10
70.0532527774
 20
134.4485064931
 30
0.0
 11
69.9069671466
 21
133.8196737654
 31
0.0
  0
LINE
  5
20C
330
1F
100
AcDbEntity
  8
0
  6
Continuous
 62
     7
370
    15
100
AcDbLine
 10
70.0734801724
 20
134.5270318873
 30
0.0
 11
70.0532527774
 21
134.4485064931
 31
0.0
  0
LINE
  5
20D
330
1F
100
AcDbEntity
  8
0
  6
Continuous
 62
     7
370
    15
100
AcDbLine
 10
78.0048080854
 20
135.4895109273
 30
0.0
 11
80.8347080968
 21
147.6542750336
 31
0.0
  0
LINE
  5
20E
330
1F
100
AcDbEntity
  8
0
  6
Continuous
 62
     7
370
    15
100
AcDbLine
 10
80.7979655586
 20
134.9970014728
 30
0.0
 11
83.62786557
 21
147.1617655791
 31
0.0
  0
LINE
  5
20F
330
1F
100
AcDbEntity
  8
0
  6
Continuous
 62
     7
370
    15
100
AcDbLine
 10
83.8853287644
 20
147.2069570757
 30
0.0
 11
81.055428753
 21
135.0421929694
 31
0.0
  0
ARC
  5
210
330
1F
100
AcDbEntity
  8
0
  6
Continuous
 62
     7
370
    15
100
AcDbCircle
 10
81.9323114551
 20
147.8969473868
 30
0.0
 40
1.848079015339529
100
AcDbArc
 50
336.5587424562
 51
18.0060618332
  0
LWPOLYLINE
  5
211
330
1F
100
AcDbEntity
  8
0
  6
Continuous
 62
     7
370
    15
100
AcDbPolyline
 90
        3
 70
   128
 43
0.0
 10
83.952277819
 20
147.5749002732
 10
83.9232866786
 20
147.3908597566
 10
83.8853287644
 20
147.2069570757
  0
ARC
  5
212
330
1F
100
AcDbEntity
  8
0
  6
Continuous
 62
     7
370
    15
100
AcDbCircle
 10
78.8209074213
 20
135.3497178084
 30
0.0
 40
2.008274804740612
100
AcDbArc
 50
331.1298815025
 51
349.8845898538
  0
ARC
  5
213
330
1F
100
AcDbEntity
  8
0
  6
Continuous
 62
     7
370
    15
100
AcDbCircle
 10
79.7196975685
 20
135.2753257258
 30
0.0
 40
1.355923552210505
100
AcDbArc
 50
330.3327843441
 51
350.0995693369
  0
LINE
  5
214
330
1F
100
AcDbEntity
  8
0
  6
Continuous
 62
     7
370
    15
100
AcDbLine
 10
80.897879707
 20
134.6041956879
 30
0.0
 11
80.7020654104
 21
134.3584736771
 31
0.0
  0
LWPOLYLINE
  5
215
330
1F
100
AcDbEntity
  8
0
  6
Continuous
 62
     7
370
    15
100
AcDbPolyline
 90
       31
 70
   128
 43
0.0
 10
68.516022446
 20
124.6104096956
 10
68.3388252876
 20
124.1742545701
 10
68.169669634
 20
123.8669758625
 10
68.0159478582
 20
123.7020013816
 10
67.8843789868
 20
123.6865432895
 10
67.780712074
 20
123.8212777264
 10
67.7094789355
 20
124.1003131456
 10
67.6737925171
 20
124.5114566721
 10
67.6752123184
 20
125.0367393679
 10
67.7136759407
 20
125.6532022692
 10
67.7875032782
 20
126.3339040763
 10
67.8934668324
 20
127.049094621
 10
68.0269360676
 20
127.7675168551
 10
68.182077179
 20
128.4577721692
 10
68.3521106041
 20
129.0896950252
 10
68.5296039231
 20
129.6356623955
 10
68.7068010814
 20
130.071817521
 10
68.875956735
 20
130.3790962286
 10
69.0296785108
 20
130.5440707095
 10
69.1612473823
 20
130.5595288015
 10
69.264914295
 20
130.4247943647
 10
69.3361474335
 20
130.1457589454
 10
69.3718338519
 20
129.734615419
 10
69.3704140506
 20
129.2093327231
 10
69.3319504283
 20
128.5928698219
 10
69.2581230908
 20
127.9121680147
 10
69.1521595366
 20
127.19697747
 10
69.0186903014
 20
126.478555236
 10
68.86354919
 20
125.7882999219
 10
68.6935157649
 20
125.1563789285
 10
68.516022446
 20
124.6104096956
  0
LWPOLYLINE
  5
216
330
1F
100
AcDbEntity
  8
0
  6
Continuous
 62
     7
370
    15
100
AcDbPolyline
 90
       24
 70
   128
 43
0.0
 10
68.518932829
 20
125.6872495599
 10
68.3875725738
 20
125.3763629086
 10
68.2662421971
 20
125.1950195021
 10
68.1639410689
 20
125.1566676385
 10
68.0882557429
 20
125.2641515769
 10
68.0447993002
 20
125.5095010586
 10
68.0367950484
 20
125.8745199032
 10
68.0648367054
 20
126.3321345634
 10
68.1268441624
 20
126.8484076447
 10
68.2182190142
 20
127.3850487507
 10
68.3321840263
 20
127.9022568799
 10
68.4602874465
 20
128.361672718
 10
68.5930279217
 20
128.7292266227
 10
68.7205609068
 20
128.9776550568
 10
68.8334278896
 20
129.0885364599
 10
68.9232576772
 20
129.053645391
 10
68.9833885192
 20
128.8755690641
 10
69.0093607775
 20
128.5675154961
 10
68.9992480114
 20
128.1523318924
 10
68.953800401
 20
127.6608096398
 10
68.8763879373
 20
127.1294044293
 10
68.7727526895
 20
126.5975261069
 10
68.6505808629
 20
126.1046217717
 10
68.518932829
 20
125.6872495599
  0
SPLINE
  5
217
330
1F
100
AcDbEntity
  8
0
  6
Continuous
 62
     7
370
    15
100
AcDbSpline
210
0.0
220
0.0
230
1.0
 70
     8
 71
     3
 72
     9
 73
     5
 74
     0
 42
0.00000001
 43
0.00000001
 12
1.0
 22
0.0
 32
0.0
 13
1.0
 23
0.0
 33
0.0
 40
0.0
 40
0.0
 40
0.0
 40
0.0
 40
0.6123972478048799
 40
1.0
 40
1.0
 40
1.0
 40
1.0
 10
68.98824536645907
 20
128.094547051891
 30
0.0
 10
68.92940354370438
 20
127.9769451567118
 30
0.0
 10
68.83331914266309
 20
127.7849098469505
 30
0.0
 10
68.64682127173587
 20
127.6297723363854
 30
0.0
 10
68.57453418368596
 20
127.5696406103217
 30
0.0
  0
SPLINE
  5
218
330
1F
100
AcDbEntity
  8
0
  6
Continuous
 62
     7
370
    15
100
AcDbSpline
210
0.0
220
0.0
230
1.0
 70
     8
 71
     3
 72
    10
 73
     6
 74
     0
 42
0.00000001
 43
0.00000001
 12
1.0
 22
0.0
 32
0.0
 13
1.0
 23
0.0
 33
0.0
 40
0.0
 40
0.0
 40
0.0
 40
0.0
 40
0.439116949704277
 40
0.7513665812214325
 40
1.0
 40
1.0
 40
1.0
 40
1.0
 10
68.57453418368596
 20
127.5696406103217
 30
0.0
 10
68.64353987914471
 20
127.3142508799293
 30
0.0
 10
68.76161451396936
 20
126.8772572527574
 30
0.0
 10
68.60964166668893
 20
126.2990697695451
 30
0.0
 10
68.43706605951056
 20
126.0283815527142
 30
0.0
 10
68.36056515047449
 20
125.9083883799159
 30
0.0
  0
LINE
  5
219
330
1F
100
AcDbEntity
  8
0
  6
Continuous
 62
     7
370
    15
100
AcDbLine
 10
68.3605651505
 20
125.9083883799
 30
0.0
 11
68.5420603625
 21
125.7605725862
 31
0.0
  0
LINE
  5
21A
330
1F
100
AcDbEntity
  8
0
  6
Continuous
 62
     7
370
    15
100
AcDbLine
 10
68.5806441254
 20
125.8695820309
 30
0.0
 11
68.3605651505
 21
125.9083883799
 31
0.0
  0
LINE
  5
21B
330
1F
100
AcDbEntity
  8
0
  6
Continuous
 62
     7
370
    15
100
AcDbLine
 10
68.9340442553
 20
127.506249208
 30
0.0
 11
68.5745341837
 21
127.5696406103
 31
0.0
  0
ELLIPSE
  5
21C
330
1F
100
AcDbEntity
  8
0
  6
Continuous
 62
     7
370
    15
100
AcDbEllipse
 10
71.9084275538
 20
140.5472416059
 30
0.0
 11
0.4089517120485198
 21
2.316946833593505
 31
0.0
210
0.0
220
0.0
230
1.0
 40
0.1734786117
 41
6.147489047610079
 42
7.679743207987094
  0
SPLINE
  5
21D
330
1F
100
AcDbEntity
  8
0
  6
Continuous
 62
     7
370
    15
100
AcDbSpline
210
0.0
220
0.0
230
1.0
 70
     8
 71
     3
 72
    27
 73
    23
 74
     0
 42
0.00000001
 43
0.00000001
 12
1.0
 22
0.0
 32
0.0
 13
1.0
 23
0.0
 33
0.0
 40
0.0
 40
0.0
 40
0.0
 40
0.0
 40
0.0190821056765342
 40
0.038274358586819
 40
0.0575784508275704
 40
0.0769960452576105
 40
0.0965287757477405
 40
0.1161782474477301
 40
0.1748822792479535
 40
0.2347723216706176
 40
0.2946863885357702
 40
0.3559507187998707
 40
0.4797500466553659
 40
0.6061830789854509
 40
0.6574860302205136
 40
0.7351749984497754
 40
0.8005689268820108
 40
0.8665251935105107
 40
0.8994730226683146
 40
0.9330149707872925
 40
0.966180855086948
 40
1.0
 40
1.0
 40
1.0
 40
1.0
 10
83.99645657931735
 20
148.1578786356779
 30
0.0
 10
84.18841458369138
 20
148.0888954295374
 30
0.0
 10
84.57343862755548
 20
147.950530826959
 30
0.0
 10
85.14737420051553
 20
147.7303354865405
 30
0.0
 10
85.72058197289783
 20
147.5001248800845
 30
0.0
 10
86.29254223173676
 20
147.2589949050628
 30
0.0
 10
86.86321013356945
 20
147.0071577157258
 30
0.0
 10
87.80833856317037
 20
146.5710745982749
 30
0.0
 10
89.11995086693655
 20
145.9124125927245
 30
0.0
 10
90.76517932106101
 20
144.9831033004066
 30
0.0
 10
92.38230665509084
 20
143.9643546424396
 30
0.0
 10
94.49684105030138
 20
142.4883269206339
 30
0.0
 10
97.04019579541107
 20
140.4329466873176
 30
0.0
 10
99.30332924580631
 20
138.2404286624124
 30
0.0
 10
101.0978240027349
 20
136.2784004400281
 30
0.0
 10
102.3961803437755
 20
134.7300111957037
 30
0.0
 10
103.7113559339447
 20
133.0053003492409
 30
0.0
 10
104.6865672519739
 20
131.6097381137886
 30
0.0
 10
105.4372599566911
 20
130.4625517983793
 30
0.0
 10
105.9838083263972
 20
129.5883302143736
 30
0.0
 10
106.5182620685435
 20
128.6966339918151
 30
0.0
 10
106.8589498063425
 20
128.0939521637664
 30
0.0
 10
107.0309549261453
 20
127.7896724714411
 30
0.0
  0
SPLINE
  5
21E
330
1F
100
AcDbEntity
  8
0
  6
Continuous
 62
     7
370
    15
100
AcDbSpline
210
0.0
220
0.0
230
1.0
 70
    24
 71
     3
 72
     9
 73
     5
 74
     0
 42
0.00000001
 43
0.00000001
 12
1.0
 22
0.0
 32
0.0
 13
1.0
 23
0.0
 33
0.0
 40
0.0
 40
0.0
 40
0.0
 40
0.0
 40
0.4999998408454305
 40
1.0
 40
1.0
 40
1.0
 40
1.0
 10
107.0309554062237
 20
127.7896678122094
 30
0.0
 10
107.0309554062237
 20
127.6773590371255
 30
0.0
 10
107.0309554062237
 20
127.4527414154598
 30
0.0
 10
107.0309554062237
 20
127.227478984702
 30
0.0
 10
107.0309554062237
 20
127.1148477334716
 30
0.0
  0
SPLINE
  5
21F
330
1F
100
AcDbEntity
  8
0
  6
Continuous
 62
     7
370
    15
100
AcDbSpline
210
0.0
220
0.0
230
1.0
 70
     8
 71
     3
 72
    30
 73
    26
 74
     0
 42
0.00000001
 43
0.00000001
 12
1.0
 22
0.0
 32
0.0
 13
1.0
 23
0.0
 33
0.0
 40
0.0
 40
0.0
 40
0.0
 40
0.0
 40
0.022419229087825
 40
0.0447738852872323
 40
0.0670675975709623
 40
0.0893040247498192
 40
0.1114868539802435
 40
0.1336197992055528
 40
0.1666930384035575
 40
0.1996443268381048
 40
0.2650962939524213
 40
0.3299489973343949
 40
0.3941769958090129
 40
0.4577588949152299
 40
0.520678630745806
 40
0.5829245430320911
 40
0.64449090440926
 40
0.7053768994194062
 40
0.7655878986032894
 40
0.8251347761856284
 40
0.8840345280262986
 40
0.9132444790690063
 40
0.9423148370153892
 40
0.9712174738714295
 40
1.0
 40
1.0
 40
1.0
 40
1.0
 10
107.0309520465379
 20
127.1148487827327
 30
0.0
 10
106.918586255783
 20
127.319117533862
 30
0.0
 10
106.6941783153601
 20
127.7270666919264
 30
0.0
 10
106.3475382774616
 20
128.3325479614965
 30
0.0
 10
105.9941875593614
 20
128.9321371130845
 30
0.0
 10
105.6333758081888
 20
129.5254429989926
 30
0.0
 10
105.2653015793919
 20
130.112570002516
 30
0.0
 10
104.8278102121568
 20
130.7896042731219
 30
0.0
 10
104.3159853911574
 20
131.5525616066085
 30
0.0
 10
103.5286857106266
 20
132.6749720650892
 30
0.0
 10
102.5065935215292
 20
134.0390648344254
 30
0.0
 10
101.2187014312493
 20
135.6135884820723
 30
0.0
 10
99.87471064619699
 20
137.1190768984749
 30
0.0
 10
98.47732442652364
 20
138.5523412464136
 30
0.0
 10
97.02950450599397
 20
139.9104987093092
 30
0.0
 10
95.53414006085396
 20
141.1906530898663
 30
0.0
 10
93.99439621288556
 20
142.390241719048
 30
0.0
 10
92.41337178106619
 20
143.5067002729768
 30
0.0
 10
90.7943675801221
 20
144.5377738612576
 30
0.0
 10
89.14072770317338
 20
145.4812969826789
 30
0.0
 10
87.73284785455313
 20
146.1948044002261
 30
0.0
 10
86.59283092204609
 20
146.7196909445216
 30
0.0
 10
85.73351236949867
 20
147.0888094356321
 30
0.0
 10
84.86865925633798
 20
147.4363830490403
 30
0.0
 10
84.28528938029545
 20
147.649051225912
 30
0.0
 10
83.99421178198313
 20
147.7551639079401
 30
0.0
  0
LINE
  5
220
330
1F
100
AcDbEntity
  8
0
  6
Continuous
 62
     7
370
    15
100
AcDbLine
 10
83.9942124806
 20
147.7551633454
 30
0.0
 11
83.9964560367
 21
148.1578746773
 31
0.0
  0
ARC
  5
221
330
1F
100
AcDbEntity
  8
0
  6
Continuous
 62
     7
370
    15
100
AcDbCircle
 10
75.0309554062
 20
105.3346382416
 30
0.0
 40
32.00000000000001
100
AcDbArc
 50
303.3695909203
 51
0.0
  0
SPLINE
  5
222
330
1F
100
AcDbEntity
  8
0
  6
Continuous
 62
     7
370
    15
100
AcDbSpline
210
0.0
220
0.0
230
1.0
 70
     8
 71
     3
 72
    18
 73
    14
 74
     0
 42
0.00000001
 43
0.00000001
 12
1.0
 22
0.0
 32
0.0
 13
1.0
 23
0.0
 33
0.0
 40
0.0
 40
0.0
 40
0.0
 40
0.0
 40
0.1249999999999999
 40
0.1249999999999999
 40
0.2499999999999997
 40
0.2499999999999997
 40
0.4999999999999998
 40
0.4999999999999998
 40
0.7499999999999998
 40
0.7499999999999998
 40
0.8749999999999999
 40
0.8749999999999999
 40
1.0
 40
1.0
 40
1.0
 40
1.0
 10
77.77069657543362
 20
73.45213805225431
 30
0.0
 10
78.41814691619741
 20
73.57082673854075
 30
0.0
 10
79.06483754655585
 20
73.69285525642613
 30
0.0
 10
80.35294257386465
 20
73.95836252176413
 30
0.0
 10
80.99446066370734
 20
74.10152049517359
 30
0.0
 10
82.90907224186464
 20
74.57181124659692
 30
0.0
 10
84.17205726383492
 20
74.94044139680409
 30
0.0
 10
86.6668604514084
 20
75.80564817245082
 30
0.0
 10
87.89080938042136
 20
76.2996523231344
 30
0.0
 10
89.69123014875682
 20
77.11890207386074
 30
0.0
 10
90.28603277406609
 20
77.40507936990028
 30
0.0
 10
91.46509146290053
 20
77.9962893085821
 30
0.0
 10
92.04944087930244
 20
78.3017178274178
 30
0.0
 10
92.63215785806689
 20
78.6101612168328
 30
0.0
  0
ARC
  5
223
330
1F
100
AcDbEntity
  8
0
  6
Continuous
 62
     7
370
    15
100
AcDbCircle
 10
75.0309554062
 20
105.3346382416
 30
0.0
 40
32.00000000000005
100
AcDbArc
 50
238.7917954714
 51
274.9115006213
  0
LINE
  5
224
330
1F
100
AcDbEntity
  8
0
  6
Continuous
 62
     7
370
    15
100
AcDbLine
 10
71.9288242183
 20
135.9054340012
 30
0.0
 11
58.4501725755
 21
77.9653551019
 31
0.0
  0
LINE
  5
225
330
1F
100
AcDbEntity
  8
0
  6
Continuous
 62
     7
370
    15
100
AcDbLine
 10
71.9288242183
 20
135.9054340012
 30
0.0
 11
80.8708070911
 21
134.3287216462
 31
0.0
  0
LINE
  5
226
330
1F
100
AcDbEntity
  8
0
  6
Continuous
 62
     7
370
    15
100
AcDbLine
 10
80.8708070911
 20
134.3287216462
 30
0.0
 11
80.966152171
 21
134.7385762222
 31
0.0
  0
LINE
  5
227
330
1F
100
AcDbEntity
  8
0
  6
Continuous
 62
     7
370
    15
100
AcDbLine
 10
83.952277819
 20
147.5749002732
 30
0.0
 11
83.9942124806
 21
147.7551633454
 31
0.0
  0
LINE
  5
228
330
1F
100
AcDbEntity
  8
0
  6
Continuous
 62
     7
370
    15
100
AcDbLine
 10
107.0309569261
 20
127.1148497201
 30
0.0
 11
107.0309569261
 21
105.3346382416
 31
0.0
  0
ELLIPSE
  5
229
330
1F
100
AcDbEntity
  8
0
  6
Continuous
 62
     7
370
    15
100
AcDbEllipse
 10
74.0309554062
 20
103.2502488045
 30
0.0
 11
37.22569084473221
 21
65.0212910439411
 31
0.0
210
0.0
220
0.0
230
1.0
 40
0.2251141219
 41
0.9443745117055216
 42
0.945546406924045
  0
LINE
  5
22A
330
1F
100
AcDbEntity
  8
0
  6
Continuous
 62
     7
370
    15
100
AcDbLine
 10
69.3586137279
 20
136.0611883886
 30
0.0
 11
69.1227381251
 21
135.7651935853
 31
0.0
  0
LWPOLYLINE
  5
22B
330
1F
100
AcDbEntity
  8
0
  6
Continuous
 62
     7
370
    15
100
AcDbPolyline
 90
       12
 70
   128
 43
0.0
 10
69.1227381251
 20
135.7651935853
 10
68.9854667656
 20
135.5244578756
 10
68.8400174625
 20
135.1420512385
 10
68.6981737747
 20
134.6489550508
 10
68.5714272916
 20
134.085117463
 10
68.4700463101
 20
133.4962142594
 10
68.4022432327
 20
132.9299589581
 10
68.3735119312
 20
132.4322229214
 10
68.3861802466
 20
132.0433324165
 10
68.4392209298
 20
131.7947922237
 10
68.5283373244
 20
131.7067356742
 10
68.6463098175
 20
131.7862985618
  0
ARC
  5
22C
330
1F
100
AcDbEntity
  8
0
  6
Continuous
 62
     7
370
    15
100
AcDbCircle
 10
75.0309554062
 20
105.3346382416
 30
0.0
 40
32.0
100
AcDbArc
 50
237.4862482005
 51
238.7917954714
  0
SPLINE
  5
22D
330
1F
100
AcDbEntity
  8
0
  6
Continuous
 62
     7
370
    15
100
AcDbSpline
210
0.0
220
0.0
230
1.0
 70
     8
 71
     3
 72
    12
 73
     8
 74
     0
 42
0.00000001
 43
0.00000001
 12
1.0
 22
0.0
 32
0.0
 13
1.0
 23
0.0
 33
0.0
 40
0.0
 40
0.0
 40
0.0
 40
0.0
 40
0.4999999999999971
 40
0.4999999999999971
 40
0.7499999999999986
 40
0.7499999999999986
 40
1.0
 40
1.0
 40
1.0
 40
1.0
 10
57.83089080542615
 20
78.35023945773598
 30
0.0
 10
57.84477148507062
 20
78.51457895275024
 30
0.0
 10
57.84877380028974
 20
78.66117259468417
 30
0.0
 10
57.8377285473679
 20
78.82715520400197
 30
0.0
 10
57.83134956296752
 20
78.87237555612623
 30
0.0
 10
57.81287710857157
 20
78.94140270431754
 30
0.0
 10
57.80070630457367
 20
78.96479127788947
 30
0.0
 10
57.78590134894038
 20
78.97447681266516
 30
0.0
  0
ARC
  5
22E
330
1F
100
AcDbEntity
  8
0
  6
Continuous
 62
     7
370
    15
100
AcDbCircle
 10
75.0309554062
 20
105.3346382416
 30
0.0
 40
31.50000000000002
100
AcDbArc
 50
236.293605732
 51
236.8069285058
  0
ARC
  5
22F
330
1F
100
AcDbEntity
  8
0
  6
Continuous
 62
     7
370
    15
100
AcDbCircle
 10
75.0309554062
 20
105.3346382416
 30
0.0
 40
31.5
100
AcDbArc
 50
103.1930714942
 51
103.706394268
  0
SPLINE
  5
230
330
1F
100
AcDbEntity
  8
0
  6
Continuous
 62
     7
370
    15
100
AcDbSpline
210
0.0
220
0.0
230
1.0
 70
     8
 71
     3
 72
    10
 73
     6
 74
     0
 42
0.00000001
 43
0.00000001
 12
1.0
 22
0.0
 32
0.0
 13
1.0
 23
0.0
 33
0.0
 40
0.0
 40
0.0
 40
0.0
 40
0.0
 40
0.5
 40
0.5
 40
1.0
 40
1.0
 40
1.0
 40
1.0
 10
67.84161155356419
 20
136.0032432794927
 30
0.0
 10
67.88491285198202
 20
136.013393983224
 30
0.0
 10
67.94046221902174
 20
136.1085214684436
 30
0.0
 10
68.05503308167859
 20
136.4111468758225
 30
0.0
 10
68.1119174822438
 20
136.6119505489351
 30
0.0
 10
68.16129949745527
 20
136.8354569145115
 30
0.0
  0
SPLINE
  5
231
330
1F
100
AcDbEntity
  8
0
  6
Continuous
 62
     7
370
    15
100
AcDbSpline
210
0.0
220
0.0
230
1.0
 70
     8
 71
     3
 72
     8
 73
     4
 74
     0
 42
0.00000001
 43
0.00000001
 12
1.0
 22
0.0
 32
0.0
 13
1.0
 23
0.0
 33
0.0
 40
0.0
 40
0.0
 40
0.0
 40
0.0
 40
1.0
 40
1.0
 40
1.0
 40
1.0
 10
68.16129949745527
 20
136.8354569145115
 30
0.0
 10
68.48471629448404
 20
138.299263374428
 30
0.0
 10
68.80871119893666
 20
139.7617918068762
 30
0.0
 10
69.13310855727232
 20
141.2234305307755
 30
0.0
  0
LWPOLYLINE
  5
232
330
1F
100
AcDbEntity
  8
0
  6
Continuous
 62
     7
370
    15
100
AcDbPolyline
 90
       31
 70
   128
 43
0.0
 10
67.9059577308
 20
127.1230360455
 10
67.7969431638
 20
126.406064812
 10
67.7196522377
 20
125.7204288579
 10
67.6774637907
 20
125.0960925556
 10
67.6722209103
 20
124.5603436566
 10
67.7041527017
 20
124.1365974731
 10
67.7718640439
 20
123.8433724232
 10
67.8723956592
 20
123.693485368
 10
68.0013535678
 20
123.693485368
 10
68.1531018711
 20
123.8433724232
 10
68.3210081554
 20
124.1365974731
 10
68.4977340646
 20
124.5603436566
 10
68.675556606
 20
125.0960925556
 10
68.8467029616
 20
125.7204288579
 10
69.0036941453
 20
126.406064812
 10
69.1396686382
 20
127.1230360455
 10
69.2486832052
 20
127.840007279
 10
69.3259741313
 20
128.5256432332
 10
69.3681625783
 20
129.1499795354
 10
69.3734054587
 20
129.6857284344
 10
69.3414736673
 20
130.1094746179
 10
69.2737623251
 20
130.4026996679
 10
69.1732307098
 20
130.5525885857
 10
69.0442728012
 20
130.5525885857
 10
68.8925244979
 20
130.4026996679
 10
68.7246182136
 20
130.1094746179
 10
68.5478923045
 20
129.6857284344
 10
68.370069763
 20
129.1499795354
 10
68.1989234074
 20
128.5256432332
 10
68.0419322237
 20
127.840007279
 10
67.9059577308
 20
127.1230360455
  0
LINE
  5
233
330
1F
100
AcDbEntity
  8
0
  6
Continuous
 62
     7
370
    15
100
AcDbLine
 10
68.6463098175
 20
131.7862985618
 30
0.0
 11
71.9288242183
 21
135.9054340012
 31
0.0
  0
ELLIPSE
  5
234
330
1F
100
AcDbEntity
  8
0
  6
Continuous
 62
     7
370
    15
100
AcDbEllipse
 10
74.0309554062
 20
116.9030154527
 30
0.0
 11
37.22569084473221
 21
65.02129104394112
 31
0.0
210
0.0
220
0.0
230
1.0
 40
0.2251141219
 41
1.263662988015199
 42
1.318918347003374
  0
SPLINE
  5
235
330
1F
100
AcDbEntity
  8
0
  6
Continuous
 62
     7
370
    15
100
AcDbSpline
210
0.0
220
0.0
230
1.0
 70
     8
 71
     3
 72
    16
 73
    12
 74
     0
 42
0.00000001
 43
0.00000001
 12
1.0
 22
0.0
 32
0.0
 13
1.0
 23
0.0
 33
0.0
 40
0.0
 40
0.0
 40
0.0
 40
0.0
 40
0.2499999999999993
 40
0.2499999999999993
 40
0.4999999999999986
 40
0.4999999999999986
 40
0.7499999999999978
 40
0.7499999999999978
 40
0.8749999999999989
 40
0.8749999999999989
 40
1.0
 40
1.0
 40
1.0
 40
1.0
 10
60.84998244583259
 20
122.9275321473975
 30
0.0
 10
61.00977493620584
 20
123.166662434871
 30
0.0
 10
61.14951139394775
 20
123.4150225800016
 30
0.0
 10
61.38592870098696
 20
123.9321831001813
 30
0.0
 10
61.48308338351659
 20
124.2012227325824
 30
0.0
 10
61.61597976491268
 20
124.7670556051575
 30
0.0
 10
61.64939527351895
 20
125.0550030227166
 30
0.0
 10
61.62509734278808
 20
125.4890633606251
 30
0.0
 10
61.60457926728352
 20
125.6309224345251
 30
0.0
 10
61.5354426969962
 20
125.9084591930706
 30
0.0
 10
61.48624592435561
 20
126.0450555409245
 30
0.0
 10
61.42250371423026
 20
126.1744616082057
 30
0.0
  0
SPLINE
  5
236
330
1F
100
AcDbEntity
  8
0
  6
Continuous
 62
     7
370
    15
100
AcDbSpline
210
0.0
220
0.0
230
1.0
 70
     8
 71
     3
 72
    20
 73
    16
 74
     0
 42
0.00000001
 43
0.00000001
 12
1.0
 22
0.0
 32
0.0
 13
1.0
 23
0.0
 33
0.0
 40
0.0
 40
0.0
 40
0.0
 40
0.0
 40
0.2499999999999998
 40
0.2499999999999998
 40
0.3749999999999998
 40
0.3749999999999998
 40
0.4999999999999999
 40
0.4999999999999999
 40
0.6249999999999999
 40
0.6249999999999999
 40
0.7499999999999999
 40
0.7499999999999999
 40
0.875
 40
0.875
 40
1.0
 40
1.0
 40
1.0
 40
1.0
 10
62.87169634476047
 20
134.3932414268556
 30
0.0
 10
63.42120501624224
 20
134.6231774031473
 30
0.0
 10
63.95283257729417
 20
134.8273023315725
 30
0.0
 10
64.71645406037284
 20
135.0992829080852
 30
0.0
 10
64.96708555213038
 20
135.1847749172766
 30
0.0
 10
65.44074623510046
 20
135.3403047739538
 30
0.0
 10
65.66494864048784
 20
135.4108162620721
 30
0.0
 10
66.08668094033916
 20
135.5389180928706
 30
0.0
 10
66.28423052275959
 20
135.5965095595768
 30
0.0
 10
66.64967314916184
 20
135.6997524284471
 30
0.0
 10
66.81497822546365
 20
135.7446661951984
 30
0.0
 10
67.10224858034908
 20
135.8208267413575
 30
0.0
 10
67.22560843239529
 20
135.8524634679436
 30
0.0
 10
67.42990467895024
 20
135.9039876911536
 30
0.0
 10
67.5108500332168
 20
135.9238744535608
 30
0.0
 10
67.5671384363062
 20
135.9376027424714
 30
0.0
  0
SPLINE
  5
237
330
1F
100
AcDbEntity
  8
0
  6
Continuous
 62
     7
370
    15
100
AcDbSpline
210
0.0
220
0.0
230
1.0
 70
     8
 71
     3
 72
    20
 73
    16
 74
     0
 42
0.00000001
 43
0.00000001
 12
1.0
 22
0.0
 32
0.0
 13
1.0
 23
0.0
 33
0.0
 40
0.0
 40
0.0
 40
0.0
 40
0.0
 40
0.2499999999999978
 40
0.2499999999999978
 40
0.3749999999999982
 40
0.3749999999999982
 40
0.4999999999999986
 40
0.4999999999999986
 40
0.6249999999999989
 40
0.6249999999999989
 40
0.7499999999999992
 40
0.7499999999999992
 40
0.8749999999999997
 40
0.8749999999999997
 40
1.0
 40
1.0
 40
1.0
 40
1.0
 10
57.55043137192852
 20
79.13003407582997
 30
0.0
 10
57.45430640697383
 20
79.19415695857052
 30
0.0
 10
57.28018851297087
 20
79.31061179056941
 30
0.0
 10
56.91152206060314
 20
79.5672449947468
 30
0.0
 10
56.77214910284305
 20
79.66556886777319
 30
0.0
 10
56.46798207963365
 20
79.88466473632839
 30
0.0
 10
56.30253220177732
 20
80.00588682777422
 30
0.0
 10
55.946679810662
 20
80.27291625565316
 30
0.0
 10
55.75713702834868
 20
80.4181455400909
 30
0.0
 10
55.36664992706572
 20
80.72515280549129
 30
0.0
 10
55.16443616846098
 20
80.88787117909172
 30
0.0
 10
54.747996973475
 20
81.23226068982417
 30
0.0
 10
54.53319625158471
 20
81.41448570859828
 30
0.0
 10
54.1021691640991
 20
81.79068500525636
 30
0.0
 10
53.88487173194626
 20
81.98551477473659
 30
0.0
 10
53.66636176568897
 20
82.18719478506922
 30
0.0
  0
ELLIPSE
  5
238
330
1F
100
AcDbEntity
  8
0
  6
Continuous
 62
     7
370
    15
100
AcDbEllipse
 10
58.4958530599
 20
123.8729430155
 30
0.0
 11
2.57104732968864
 21
2.781564288285879
 31
0.0
210
0.0
220
0.0
230
1.0
 40
0.6444261125
 41
6.040334251967526
 42
11.23646746075339
  0
ARC
  5
239
330
1F
100
AcDbEntity
  8
0
  6
Continuous
 62
     7
370
    15
100
AcDbCircle
 10
75.0309554062
 20
105.3346382416
 30
0.0
 40
31.50000000000002
100
AcDbArc
 50
112.7063463226
 51
227.2936536774
  0
CIRCLE
  5
23A
330
1F
100
AcDbEntity
  8
VERMASSUNG
  6
CENTERX2
100
AcDbCircle
 10
75.0309554062
 20
109.8943406887
 30
0.0
 40
39.99999999999999
  0
DIMENSION
  5
23B
330
1F
100
AcDbEntity
  8
VERMASSUNG
100
AcDbDimension
  2
_D_5
 10
49.8373265626
 20
140.9634766992
 30
0.0
 11
43.708115046
 21
148.4833177269
 31
0.0
 70
   160
  1
%%c<> min. 
 71
     2
 42
-1.0
  3
SLDDIMSTYLE3
100
AcDbAlignedDimension
 13
100.3026646662
 23
78.8888458357
 33
0.0
 14
49.7592461463
 24
140.8998355417
 34
0.0
 50
-50.8174887916
100
AcDbRotatedDimension
  0
INSERT
  5
255
330
1F
100
AcDbEntity
  8
VERMASSUNG
100
AcDbBlockReference
  2
SW_CENTERMARKSYMBOL_0
 10
75.0309554062
 20
105.3346382416
 30
0.0
  0
OLE2FRAME
  5
256
330
1F
100
AcDbEntity
  8
0
100
AcDbOle2Frame
 70
     2
  3
Paintbrush-Bild
 10
13.8511154363
 20
38.264191557
 30
0.0
 11
51.6290888628
 21
31.9806341108
 31
0.0
 71
     2
 72
     0
 73
     1
 90
    12928
310
80552BED0767C5B32B40DDAF6807D121434000000000000000006FFBDDFB85D0
310
4940DDAF6807D121434000000000000000006FFBDDFB85D04940416F4BD60AFB
310
3F4000000000000000002BED0767C5B32B40416F4BD60AFB3F40000000000000
310
0000000000000100000000010000010000000100000000000100000000320000
310
D0CF11E0A1B11AE1000000000000000000000000000000003E000300FEFF0900
310
0600000000000000000000000100000001000000000000000010000002000000
310
01000000FEFFFFFF0000000000000000FFFFFFFFFFFFFFFFFFFFFFFFFFFFFFFF
310
FFFFFFFFFFFFFFFFFFFFFFFFFFFFFFFFFFFFFFFFFFFFFFFFFFFFFFFFFFFFFFFF
310
FFFFFFFFFFFFFFFFFFFFFFFFFFFFFFFFFFFFFFFFFFFFFFFFFFFFFFFFFFFFFFFF
310
FFFFFFFFFFFFFFFFFFFFFFFFFFFFFFFFFFFFFFFFFFFFFFFFFFFFFFFFFFFFFFFF
310
FFFFFFFFFFFFFFFFFFFFFFFFFFFFFFFFFFFFFFFFFFFFFFFFFFFFFFFFFFFFFFFF
310
FFFFFFFFFFFFFFFFFFFFFFFFFFFFFFFFFFFFFFFFFFFFFFFFFFFFFFFFFFFFFFFF
310
FFFFFFFFFFFFFFFFFFFFFFFFFFFFFFFFFFFFFFFFFFFFFFFFFFFFFFFFFFFFFFFF
310
FFFFFFFFFFFFFFFFFFFFFFFFFFFFFFFFFFFFFFFFFFFFFFFFFFFFFFFFFFFFFFFF
310
FFFFFFFFFFFFFFFFFFFFFFFFFFFFFFFFFFFFFFFFFFFFFFFFFFFFFFFFFFFFFFFF
310
FFFFFFFFFFFFFFFFFFFFFFFFFFFFFFFFFFFFFFFFFFFFFFFFFFFFFFFFFFFFFFFF
310
FFFFFFFFFFFFFFFFFFFFFFFFFFFFFFFFFFFFFFFFFFFFFFFFFFFFFFFFFFFFFFFF
310
FFFFFFFFFFFFFFFFFFFFFFFFFFFFFFFFFFFFFFFFFFFFFFFFFFFFFFFFFFFFFFFF
310
FFFFFFFFFFFFFFFFFFFFFFFFFFFFFFFFFFFFFFFFFFFFFFFFFFFFFFFFFFFFFFFF
310
FFFFFFFFFFFFFFFFFFFFFFFFFFFFFFFFFFFFFFFFFFFFFFFFFFFFFFFFFFFFFFFF
310
FDFFFFFFFEFFFFFFFEFFFFFFFEFFFFFF05000000060000000700000008000000
310
090000000A0000000B0000000C0000000D0000000E0000000F00000010000000
310
11000000120000001300000014000000150000001600000017000000FEFFFFFF
310
FFFFFFFFFFFFFFFFFFFFFFFFFFFFFFFFFFFFFFFFFFFFFFFFFFFFFFFFFFFFFFFF
310
FFFFFFFFFFFFFFFFFFFFFFFFFFFFFFFFFFFFFFFFFFFFFFFFFFFFFFFFFFFFFFFF
310
FFFFFFFFFFFFFFFFFFFFFFFFFFFFFFFFFFFFFFFFFFFFFFFFFFFFFFFFFFFFFFFF
310
FFFFFFFFFFFFFFFFFFFFFFFFFFFFFFFFFFFFFFFFFFFFFFFFFFFFFFFFFFFFFFFF
310
FFFFFFFFFFFFFFFFFFFFFFFFFFFFFFFFFFFFFFFFFFFFFFFFFFFFFFFFFFFFFFFF
310
FFFFFFFFFFFFFFFFFFFFFFFFFFFFFFFFFFFFFFFFFFFFFFFFFFFFFFFFFFFFFFFF
310
FFFFFFFFFFFFFFFFFFFFFFFFFFFFFFFFFFFFFFFFFFFFFFFFFFFFFFFFFFFFFFFF
310
FFFFFFFFFFFFFFFFFFFFFFFFFFFFFFFFFFFFFFFFFFFFFFFFFFFFFFFFFFFFFFFF
310
FFFFFFFFFFFFFFFFFFFFFFFFFFFFFFFFFFFFFFFFFFFFFFFFFFFFFFFFFFFFFFFF
310
FFFFFFFFFFFFFFFFFFFFFFFFFFFFFFFFFFFFFFFFFFFFFFFFFFFFFFFFFFFFFFFF
310
FFFFFFFFFFFFFFFFFFFFFFFFFFFFFFFFFFFFFFFFFFFFFFFFFFFFFFFFFFFFFFFF
310
FFFFFFFFFFFFFFFFFFFFFFFFFFFFFFFFFFFFFFFFFFFFFFFFFFFFFFFFFFFFFFFF
310
FFFFFFFFFFFFFFFFFFFFFFFFFFFFFFFFFFFFFFFFFFFFFFFFFFFFFFFFFFFFFFFF
310
52006F006F007400200045006E00740072007900000000000000000000000000
310
0000000000000000000000000000000000000000000000000000000000000000
310
16000500FFFFFFFFFFFFFFFF020000000A00030000000000C000000000000046
310
000000000000000000000000F0E955C3EB38CD0103000000C000000000000000
310
01004F006C006500000000000000000000000000000000000000000000000000
310
0000000000000000000000000000000000000000000000000000000000000000
310
0A000200FFFFFFFFFFFFFFFFFFFFFFFF00000000000000000000000000000000
310
0000000000000000000000000000000000000000000000001400000000000000
310
010043006F006D0070004F0062006A0000000000000000000000000000000000
310
0000000000000000000000000000000000000000000000000000000000000000
310
120002010100000003000000FFFFFFFF00000000000000000000000000000000
310
0000000000000000000000000000000000000000010000004D00000000000000
310
01004F006C006500310030004E00610074006900760065000000000000000000
310
0000000000000000000000000000000000000000000000000000000000000000
310
1A000200FFFFFFFFFFFFFFFFFFFFFFFF00000000000000000000000000000000
310
0000000000000000000000000000000000000000040000002426000000000000
310
FEFFFFFF02000000FEFFFFFFFFFFFFFFFFFFFFFFFFFFFFFFFFFFFFFFFFFFFFFF
310
FFFFFFFFFFFFFFFFFFFFFFFFFFFFFFFFFFFFFFFFFFFFFFFFFFFFFFFFFFFFFFFF
310
FFFFFFFFFFFFFFFFFFFFFFFFFFFFFFFFFFFFFFFFFFFFFFFFFFFFFFFFFFFFFFFF
310
FFFFFFFFFFFFFFFFFFFFFFFFFFFFFFFFFFFFFFFFFFFFFFFFFFFFFFFFFFFFFFFF
310
FFFFFFFFFFFFFFFFFFFFFFFFFFFFFFFFFFFFFFFFFFFFFFFFFFFFFFFFFFFFFFFF
310
FFFFFFFFFFFFFFFFFFFFFFFFFFFFFFFFFFFFFFFFFFFFFFFFFFFFFFFFFFFFFFFF
310
FFFFFFFFFFFFFFFFFFFFFFFFFFFFFFFFFFFFFFFFFFFFFFFFFFFFFFFFFFFFFFFF
310
FFFFFFFFFFFFFFFFFFFFFFFFFFFFFFFFFFFFFFFFFFFFFFFFFFFFFFFFFFFFFFFF
310
FFFFFFFFFFFFFFFFFFFFFFFFFFFFFFFFFFFFFFFFFFFFFFFFFFFFFFFFFFFFFFFF
310
FFFFFFFFFFFFFFFFFFFFFFFFFFFFFFFFFFFFFFFFFFFFFFFFFFFFFFFFFFFFFFFF
310
FFFFFFFFFFFFFFFFFFFFFFFFFFFFFFFFFFFFFFFFFFFFFFFFFFFFFFFFFFFFFFFF
310
FFFFFFFFFFFFFFFFFFFFFFFFFFFFFFFFFFFFFFFFFFFFFFFFFFFFFFFFFFFFFFFF
310
FFFFFFFFFFFFFFFFFFFFFFFFFFFFFFFFFFFFFFFFFFFFFFFFFFFFFFFFFFFFFFFF
310
FFFFFFFFFFFFFFFFFFFFFFFFFFFFFFFFFFFFFFFFFFFFFFFFFFFFFFFFFFFFFFFF
310
FFFFFFFFFFFFFFFFFFFFFFFFFFFFFFFFFFFFFFFFFFFFFFFFFFFFFFFFFFFFFFFF
310
FFFFFFFFFFFFFFFFFFFFFFFFFFFFFFFFFFFFFFFFFFFFFFFFFFFFFFFFFFFFFFFF
310
0100000200000000000000000000000000000000000000000000000000000000
310
0000000000000000000000000000000000000000000000000000000000000000
310
0100FEFF030A0000FFFFFFFF0A00030000000000C00000000000004607000000
310
5042727573680007000000504272757368000700000050427275736800F439B2
310
7100000000000000000000000000000000000000000000000000000000000000
310
0000000000000000000000000000000000000000000000000000000000000000
310
0000000000000000000000000000000000000000000000000000000000000000
310
0000000000000000000000000000000000000000000000000000000000000000
310
0000000000000000000000000000000000000000000000000000000000000000
310
0000000000000000000000000000000000000000000000000000000000000000
310
0000000000000000000000000000000000000000000000000000000000000000
310
0000000000000000000000000000000000000000000000000000000000000000
310
0000000000000000000000000000000000000000000000000000000000000000
310
0000000000000000000000000000000000000000000000000000000000000000
310
0000000000000000000000000000000000000000000000000000000000000000
310
0000000000000000000000000000000000000000000000000000000000000000
310
20260000424D0E260000000000003E00000028000000B40200006E0000000100
310
01000000000000000000130B0000130B00000200000002000000000000FFFFFF
310
FFFFFFFFFFFFFFFFFFFFFFFFFFFFFFFFFFFFFFFFFFFFFFFFFFFFFFFFFFFFFFFF
310
FFFFFFFFFFFFFFFFFFFFFFFFFFFFFFFFFFFFFFFFFFFFFFFFFFFFFFFFFFFFFFFF
310
FFFFFFFFFFFFFFFFFFFFFFFFFFFFFFFFFFFFFFFFFFFFFFFFF000FFFFFFFFFFFF
310
FFFFFFFFFFFFFFFFFFFFFFFFFFFFFFFFFFFFFFFFFFFFFFFFFFFFFFFFFFFFFFFF
310
FFFFFFFFFFFFFFFFFFFFFFFFFFFFFFFFFFFFFFFFFFFFFFFFFFFFFFFFFFFFFFFF
310
FFFFFFFFFFFFFFFFFFFFFFFFFFFFFFFFF000FFFFFFFFFFFFFFFFFFFFFFFFFFFF
310
FFFFFFFFFFFFFFFFFFFFFFFFFFFFFFFFFFFFFFFFFFFFFFFFFFFFFFFFFFFFFFFF
310
FFFFFFFFFFFFFFFFFFFFFFFFFFFFFFFFFFFFFFFFFFFFFFFFFFFFFFFFFFFFFFFF
310
FFFFFFFFFFFFFFFFF000FFFFFFFFFFFFFFFFFFFFFFFFFFFFFFFFFFFFFFFFFFFF
310
FFFFFFFFFFFFFFFFFFFFFFFFFFFFFFFFFFFFFFFFFFFFFFFFFFFFFFFFFFFFFFFF
310
FFFFFFFFFFFFFFFFFFFFFFFFFFFFFFFFFFFFFFFFFFFFFFFFFFFFFFFFFFFFFFFF
310
F000FFFFFFFFFFFFFFFFFFFFFFFFFFFFFFFFFFFFFFFFFFFFFFFFFFFFFFFFFFFF
310
FFFFFFFFFFFFFFFFFFFFFFFFFFFFFFFFFFFFFFFFFFFFFFFFFFFFFFFFFFFFFFFF
310
FFFFFFFFFFFFFFFFFFFFFFFFFFFFFFFFFFFFFFFFFFFFFFFFF000FFFFFFFFFFFF
310
FFFFFFFFFFFFFFFFFFFFFFFFFFFFFFFFFFFFFFFFFFFFFFFFFFFFFFFFFFFFFFFF
310
FFFFFFFFFFFFFFFFFFFFFFFFFFFFFFFFFFFFFFFFFFFFFFFFFFFFFFFFFFFFFFFF
310
FFFFFFFFFFFFFFFFFFFFFFFFFFFFFFFFF000FFFFFFFFFFFFFFFFFFFFFFFFFFFF
310
FFFFFFFFFFFFFFFFFFFFFFFFFFFFFFFFFFFFFFFFFFFFFFFFFFFFFFFFFFFFFFFF
310
FFFFFFFFFFFFFFFFFFFFFFFFFFFFFFFFFFFFFFFFFFFFFFFFFFFFFFFFFFFFFFFF
310
FFFFFFFFFFFFFFFFF000FFFFFFFFFFFFFFFFFFFFFFFFFFFFFFFFFFFFFFFFFFFF
310
FFFFFFFFFFFFFFFFFFFFFFFFFFFFFFFFFFFFFFFFFFFFFFFFFFFFFFFFFFFFFFFF
310
FFFFFFFFFFFFFFFFFFFFFFFFFFFFFFFFFFFFFFFFFFFFFFFFFFFFFFFFFFFFFFFF
310
F000FFFFFFFFFFFFFFFFFFFFFFFFFFFFFFFFFFFFFFFFFFFFFFFFFFFFFFFFFFFF
310
FFFFFFFFFFFFFFFFFFFFFFFFFFFFFFFFFFFFFFFFFFFFFFFFFFFFFFFFFFFFFFFF
310
FFFFFFFFFFFFFFFFFFFFFFFFFFFFFFFFFFFFFFFFFFFFFFFFF000FFFFFFFFFFFF
310
FFFFFFFFFFFFFFFFFFFFFFFFFFFFFFFFFFFFFFFFFFFFFFFFFFFFFFFFFFFFFFFF
310
FFFFFFFFFFFFFFFFFFFFFFFFFFFFFFFFFFFFFFFFFFFFFFFFFFFFFFFFFFFFFFFF
310
FFFFFFFFFFFFFFFFFFFFFFFFFFFFFFFFF000FFFFFFFFFFFFFFFFFFFFFFFFFFFF
310
FFFFFFFFFFFFFFFFFFFFFFFFFFFFFFFFFFFFFFFFFFFFFFFFFFFFFFFFFFFFFFFF
310
FFFFFFFFFFFFFFFFFFFFFFFFFFFFFFFFFFFFFFFFFFFFFFFFFFFFFFFFFFFFFFFF
310
FFFFFFFFFFFFFFFFF000FFFFFFFFFFFFFFFFFFFFFFFFFFFFFFFFFFFFFFFFFFFF
310
FFFFFFFFFFFFFFFFFFFFFFFFFFFFFFFFFFFFFFFFFFFFFFFFFFFFFFFFFFFFFFFF
310
FFFFFFFFFFFFFFFFFFFFFFFFFFFFFFFFFFFFFFFFFFFFFFFFFFFFFFFFFFFFFFFF
310
F000FFFFFFFFFFFFFFFFFFFFFFFFFFFFFFFFFFFFFFFFFFFFFFFFFFFFFFFFFFFF
310
FFFFFFFFFFFFFFFFFFFFFFFFFFFFFFFFFFFFFFFFFFFFFFFFFFFFFFFFFFFFFFFF
310
FFFFFFFFFFFFFFFFFFFFFFFFFFFFFFFFFFFFFFFFFFFFFFFFF000FFFFFFFFFFFF
310
FFFFFFFFFFFFFFFFFFFFFFFFFFFFFFFFFFFFFFFFFFFFFFFFFFFFFFFFFFFFFFFF
310
FFFFFFFFFFFFFFFFFFFFFFFFFFFFFFFFFFFFFFFFFFFFFFFFFFFFFFFFFFFFFFFF
310
FFFFFFFFFFFFFFFFFFFFFFFFFFFFFFFFF000FFFFFFFFFFFFFFFFFFFFFFFFFFFF
310
FFFFFFFFFFFFFFFFFFFFFFFFFFFFFFFFFFFFFFFFFFFFFFFFFFFFFFFFFFFFFFFF
310
FFFFFFFFFFFFFFFFFFFFFFFFFFFFFFFFFFFFFFFFFFFFFFFFFFFFFFFFFFFFFFFF
310
FFFFFFFFFFFFFFFFF000FFFFFFFFFFFFFFFFFFFFFFFFFFFFFFFFFFFFFFFFFFFF
310
FFFFFFFFFFFFFFFFFFFFFFFFFFFFFFFFFFFFFFFFFFFFFFFFFFFFFFFFFFFFFFFF
310
FFFFFFFFFFFFFFFFFFFFFFFFFFFFFFFFFFFFFFFFFFFFFFFFFFFFFFFFFFFFFFFF
310
F000FFFFFFFFFFFFFFFFFFFFFFFFFFFFFFFFFFFFFFFFFFFFFFFFFFFFFFFFFFFF
310
FFFFFFFFFFFFFFFFFFFFFFFFFFFFFFFFFFFFFFFFFFFFFFFFFFFFFFFFFFFFFFFF
310
FFFFFFFFFFFFFFFFFFFFFFFFFFFFFFFFFFFFFFFFFFFFFFFFF000FFFFFFFFFFFF
310
FFFFFFFFFFFFFFFFFFFFFFFFFFFFFFFFFFFFFFFFFFFFFFFFFFFFFFFFFFFFFFFF
310
FFFFFFFFFFFFFFFFFFFFFFFFFFFFFFFFFFFFFFFFFFFFFFFFFFFFFFFFFFFFFFFF
310
FFFFFFFFFFFFFFFFFFFFFFFFFFFFFFFFF000FFFFFFFFFFFFFFFFFFFFFFFFFFFF
310
FFFFFFFFFFFFFFFFFFFFFFFFFFFFFFFFFFFFFFFFFFFFFFFFFFFFFFFFFFFFFFFF
310
FFFFFFFFFFFFFFFFFFFFFFFFFFFFFFFFFFFFFFFFFFFFFFFFFFFFFFFFFFFFFFFF
310
FFFFFFFFFFFFFFFFF000FFFFF80003FFFFFFFFFFFFFFFFFFFFFFFFFFFFFFFFFF
310
FFFFF00007FFFFFFFFFF00007FFFFFF800000000000000007FFFFFFFFFFFFFFF
310
FFFFFFFC001FFFFFFFFFFFFFFC001FFFFFFFFFFFFFFFFFFFFFFFFFFE0007FFFF
310
F000FFFF8000007FFFFFFFF8000FFFFFC0007FFFFF80007FFFFF0000007FFFFF
310
FFF8000007FFFFF800000000000000007FFFFFF0001FFFFFFFFFFFC00001FFFF
310
FFFFFFFFC00001FFFFFFFF000000000003FFFFE000007FFFF000FFFE0000000F
310
FFFFFFF0000FFFFF80007FFFFF80007FFFFC0000001FFFFFFFC0000001FFFFF8
310
00000000000000007FFFFFF0001FFFFFFFFFFE0000003FFFFFFFFFFE0000003F
310
FFFFFF000000000003FFFF0000000FFFF000FFF800000003FFFFFFF00007FFFF
310
80007FFFFF80007FFFF000000007FFFFFF000000003FFFF80000000000000000
310
7FFFFFF0001FFFFFFFFFF80000000FFFFFFFFFF80000000FFFFFFF0000000000
310
03FFFC00000003FFF000FFE000000000FFFFFFF00007FFFF80003FFFFF80007F
310
FFC000000001FFFFFC000000001FFFF800000000000000007FFFFFF0001FFFFF
310
FFFFE000000003FFFFFFFFE000000003FFFFFF000000000003FFF000000000FF
310
F000FF80000000007FFFFFF00007FFFF80003FFFFF80007FFF8000000000FFFF
310
F80000000007FFF800000000000000007FFFFFF0001FFFFFFFFFC000000001FF
310
FFFFFFC000000001FFFFFF000000000003FFC0000000007FF000FF0000000000
310
3FFFFFE00007FFFF00003FFFFF80007FFE00000000003FFFF00000000003FFF8
310
00000000000000007FFFFFF0001FFFFFFFFF8000000000FFFFFFFF8000000000
310
FFFFFF000000000003FF80000000003FF000FE00000000001FFFFFE00003FFFF
310
00003FFFFF80007FFC00000000001FFFE00000000001FFF8000001FFFE000000
310
7FFFFFF0001FFFFFFFFE00000000003FFFFFFE00000000003FFFFF0000000000
310
03FF00000000001FF000FC00000000000FFFFFE00003FFFF00001FFFFF80007F
310
F800000000001FFFC00000000000FFF8000001FFFE0000007FFFFFF0001FFFFF
310
FFFC00000000001FFFFFFC00000000001FFFFF000000000003FE00000000000F
310
F000F8000000000007FFFFE00003FFFF00001FFFFF80007FF800000000000FFF
310
800000000000FFF8000001FFFE0000007FFFFFF0001FFFFFFFF800000000000F
310
FFFFF800000000000FFFFF000000000003FC000000000007F000F80000000000
310
03FFFFC00003FFFE00001FFFFF80007FF0000000000007FF0000000000007FF8
310
000001FFFE0000007FFFFFF0001FFFFFFFF0000000000007FFFFF00000000000
310
07FFFF000000000003F8000000000003F000F0000000000003FFFFC00001FFFE
310
00001FFFFF80007FE0000000000007FE0000000000003FF8000001FFFE000000
310
7FFFFFF0001FFFFFFFF0000000000007FFFFF0000000000007FFFF0000000000
310
03F800001F800003F000E00001FFF00001FFFFC00001FFFE00000FFFFF80007F
310
E00001FFE00003FE00001FFF00003FF8000001FFFE0000007FFFFFF0001FFFFF
310
FFE000003E000003FFFFE000003E000003FFFF000000000003F00001FFF80001
310
F000E00007FFFC0001FFFFC00001FFFE00000FFFFF80007FC0000FFFFC0003FC
310
0000FFFFC0001FF8000001FFFE0000007FFFFFF0001FFFFFFFC00003FFE00001
310
FFFFC00003FFE00001FFFF0001FFFFFFFFF00007FFFE0001F000E0000FFFFF00
310
00FFFF800001FFFC00000FFFFF80007FC0001FFFFE0001FC0001FFFFE0001FF8
310
000001FFFE0000007FFFFFF0001FFFFFFF80000FFFF80000FFFF80000FFFF800
310
00FFFF0003FFFFFFFFE0000FFFFF8000F000C0003FFFFF8000FFFF800000FFFC
310
000007FFFF80007F80003FFFFF0001FC0003FFFFF0001FF8000001FFFE000000
310
7FFFFFF0001FFFFFFF80003FFFFE0000FFFF80003FFFFE0000FFFF0003FFFFFF
310
FFE0003FFFFF8000F000C0003FFFFF8000FFFF800000FFFC000007FFFF80007F
310
80007FFFFF8001F80007FFFFF8000FF8000001FFFE0000007FFFFFF0001FFFFF
310
FF00007FFFFF00007FFF00007FFFFF00007FFF0003FFFFFFFFE0003FFFFFC000
310
F000C0007FFFFFC000FFFF000000FFFC000007FFFF80007F8000FFFFFF8000F8
310
000FFFFFF8000FF8000001FFFE0000007FFFFFF0001FFFFFFF0000FFFFFF8000
310
7FFF0000FFFFFF80007FFF0003FFFFFFFFC0007FFFFFC00070008000FFFFFFC0
310
00FFFF000000FFF8000007FFFF80007F8000FFFFFF8000F8000FFFFFF8000FF8
310
000001FFFE0000007FFFFFF0001FFFFFFE0001FFFFFFC0003FFE0001FFFFFFC0
310
003FFF0003FFFFFFFFC0007FFFFFE00070008000FFFFFFC0007FFF0000007FF8
310
000003FFFF80007F0001FFFFFF8000F8000FFFFFF8000FF8000001FFFE000000
310
7FFFFFF0001FFFFFFE0001FFFFFFC0003FFE0001FFFFFFC0003FFF0003FFFFFF
310
FFC000FFFFFFE00070008000FFFFFFC0007FFF0000007FF8000003FFFF80007F
310
0001FFFFFF8000F8001FFFFFF8000FF8000001FFFE0000007FFFFFF0001FFFFF
310
FE0003FFFFFFE0003FFE0003FFFFFFE0003FFF0003FFFFFFFFC000FFFFFFE000
310
70008000FFFFFFC0007FFE0000007FF8000003FFFF80007F0001FFFFFF8000F0
310
001FFFFFF8000FF8000001FFFE0000007FFFFFF0001FFFFFFC0003FFFFFFE000
310
1FFC0003FFFFFFE0001FFF0003FFFFFFFFC000FFFFFFC00070008000FFFFFF80
310
007FFE0000007FF0000003FFFF80007F0001FFFFFF0000F0001FFFFFF8000FF8
310
000001FFFE0000007FFFFFF0001FFFFFFC0007FFFFFFF0001FFC0007FFFFFFF0
310
001FFF0003FFFFFFFFC000FFFFFFC00070008001FFFFFF0000FFFE0000003FF0
310
000001FFFF80007F0001FFFFFF0000F8001FFFFFF0000FF8000001FFFE000000
310
7FFFFFF0001FFFFFFC0007FFFFFFF0001FFC0007FFFFFFF0001FFF0003FFFFFF
310
FFC001FFFFFF80007000FFFFFFFFFE0000FFFE0008003FF0008001FFFF80007F
310
FFFFFFFFFC0000FFFFFFFFFFE0000FF8000001FFFE0000007FFFFFF0001FFFFF
310
F8000FFFFFFFF8000FF8000FFFFFFFF8000FFF0003FFFFFFFFFFFFFFFFFF0000
310
7000FFFFFFFFFC0000FFFC0008003FF0008001FFFF80007FFFFFFFFFF80001FF
310
FFFFFFFF80000FF8000001FFFE0000007FFFFFF0001FFFFFF8000FFFFFFFF800
310
0FF8000FFFFFFFF8000FFF0003FFFFFFFFFFFFFFFFFE0000F000FFFFFFFFE000
310
00FFFC000C003FE000C001FFFF80007FFFFFFFFFC00001FFFFFFFFFE00001FF8
310
000001FFFE0000007FFFFFF0001FFFFFF8000FFFFFFFF8000FF8000FFFFFFFF8
310
000FFF0003FFFFFFFFFFFFFFFFF00000F000FFFFFFFE000001FFFC000C001FE0
310
00C000FFFF80007FFFFFFFFE000001FFFFFFFFE000001FF80FFFFFFFFFFFFFC0
310
7FFFFFF0001FFFFFF8000FFFFFFFF8000FF8000FFFFFFFF8000FFF0003FFFFFF
310
FFFFFFFFFF800000F000FFFFFFC0000001FFFC001C001FE001C000FFFF80007F
310
FFFFFF80000003FFFFFFF80000001FF80FFFFFFFFFFFFFC07FFFFFF0001FFFFF
310
F8001FFFFFFFFC000FF8001FFFFFFFFC000FFF0003FFFFFFFFFFFFFFF0000001
310
F000FFFFF800000001FFF8001C001FE001C000FFFF80007FFFFFF800000003FF
310
FFFF800000003FF80FFFFFFFFFFFFFC07FFFFFF0001FFFFFF8001FFFFFFFFC00
310
0FF8001FFFFFFFFC000FFF0003FFFFFFFFFFFFFE00000001F000FFFFC0000000
310
03FFF8001E001FC001E000FFFF80007FFFFF8000000007FFFFFC000000003FF8
310
0FFFFFFFFFFFFFC07FFFFFF0001FFFFFF8001FFFFFFFFC000FF8001FFFFFFFFC
310
000FFF0003FFFFFFFFFFFFE000000003F000FFFE0000000007FFF8001E000FC0
310
01E0007FFF80007FFFFE0000000007FFFFE0000000007FF80FFFFFFFFFFFFFC0
310
7FFFFFF0001FFFFFF0001FFFFFFFFC0007F0001FFFFFFFFC0007FF0003FFFFFF
310
FFFFFF0000000003F000FFF80000000007FFF8001E000FC003E0007FFF80007F
310
FFF0000000000FFFFF8000000000FFF80FFFFFFFFFFFFFC07FFFFFF0001FFFFF
310
F0001FFFFFFFFC0007F0001FFFFFFFFC0007FF0003FFFFFFFFFFFC0000000007
310
F000FFE0000000000FFFF0003E000FC003E0007FFF80007FFFC0000000001FFF
310
FE0000000001FFF80FFFFFFFFFFFFFC07FFFFFF0001FFFFFF0001FFFFFFFFC00
310
07F0001FFFFFFFFC0007FF0003FFFFFFFFFFF0000000000FF000FFC000000000
310
1FFFF0003F000F8003F0003FFF80007FFF80000000003FFFF80000000003FFF8
310
0FFFFFFFFFFFFFC07FFFFFF0001FFFFFF0001FFFFFFFFC0007F0001FFFFFFFFC
310
0007FF0003FFFFFFFFFFE0000000001FF000FF00000000007FFFF0003F000780
310
03F0003FFF80007FFF00000000007FFFF00000000007FFF80FFFFFFFFFFFFFC0
310
7FFFFFF0001FFFFFF0001FFFFFFFFC0007F0001FFFFFFFFC0007FF0003FFFFFF
310
FFFF80000000007FF000FE0000000000FFFFE0003F00078007F0003FFF80007F
310
FE0000000001FFFFE0000000001FFFF80FFFFFFFFFFFFFC07FFFFFF0001FFFFF
310
F0001FFFFFFFFC0007F0001FFFFFFFFC0007FF0003FFFFFFFFFF0000000000FF
310
F000FC0000000003FFFFE0007F00078007F0003FFF80007FFC0000000007FFFF
310
C0000000007FFFF80FFFFFFFFFFFFFC07FFFFFF0001FFFFFF8001FFFFFFFFC00
310
0FF8001FFFFFFFFC000FFF0003FFFFFFFFFE0000000003FFF000FC000000000F
310
FFFFE0007F80070007F8001FFF80007FF8000000001FFFFF8000000001FFFFF8
310
0FFFFFFFFFFFFFC07FFFFFF0001FFFFFF8001FFFFFFFFC000FF8001FFFFFFFFC
310
000FFF0003FFFFFFFFFC000000000FFFF000F8000000007FFFFFE0007F800700
310
07F8001FFF80007FF000000000FFFFFF800000000FFFFFF80FFFFFFFFFFFFFC0
310
7FFFFFF0001FFFFFF8000FFFFFFFF8000FF8000FFFFFFFF8000FFF0003FFFFFF
310
FFFC000000007FFFF000F800000007FFFFFFC0007F8003000FF8001FFF80007F
310
F000000007FFFFFF000000007FFFFFF80FFFFFFFFFFFFFC07FFFFFF0001FFFFF
310
F8000FFFFFFFF8000FF8000FFFFFFFF8000FFF0003FFFFFFFFF80000000FFFFF
310
F000F0000000FFFFFFFFC000FF8003000FF8001FFF80007FE0000000FFFFFFFF
310
0000000FFFFFFFF8000001FFFE0000007FFFFFF0001FFFFFF8000FFFFFFFF800
310
0FF8000FFFFFFFF8000FFF0003FFFFFFFFF8000000FFFFFFF000F000000FFFFF
310
FFFFC000FFC002000FF8000FFF80007FE000001FFFFFFFFE000001FFFFFFFFF8
310
000001FFFE0000007FFFFFF0001FFFFFF8000FFFFFFFF8000FF8000FFFFFFFF8
310
000FFF0003FFFFFFFFF000001FFFFFFFF000E00000FFFFFFFFFFC000FFC00200
310
0FFC000FFF80007FE00001FFFFFFFFFE00001FFFFFFFFFF8000001FFFE000000
310
7FFFFFF0001FFFFFFC000FFFFFFFF8001FFC000FFFFFFFF8001FFF0003FFFFFF
310
FFF00001FFFFFFFFF000E00007FFFFFFFFFF8000FFC000001FFC000FFF80007F
310
C0000FFFFFFFFFFE0000FFFFFFFFFFF8000001FFFE0000007FFFFFF0001FFFFF
310
FC0007FFFFFFF0001FFC0007FFFFFFF0001FFF0003FFFFFFFFF00007FFFFFFFF
310
F000E0001FFFFFFFFFFF8000FFC000001FFC000FFF80007FC0003FFFFFFFFFFE
310
0001FFFFFFFFFFF8000001FFFE0000007FFFFFF0001FFFFFFC0007FFFFFFF000
310
1FFC0007FFFFFFF0001FFF0003FFFFFFFFF0001FFFFFFFFFF000E0003FFFFF00
310
03FF8001FFE000001FFC0007FF80007FC0007FFFFF0007FC0003FFFFF0003FF8
310
000001FFFE0000007FFFFFF0001FFFFFFC0003FFFFFFE0001FFC0003FFFFFFE0
310
001FFF0003FFFFFFFFF0003FFFFFFFFFF000E0003FFFFF0001FF8001FFE00000
310
1FFE0007FF80007FC0007FFFFE0003FC0007FFFFE0003FF8000001FFFE000000
310
7FFFFFF0001FFFFFFE0003FFFFFFE0003FFE0003FFFFFFE0003FFF0003FFFFFF
310
FFF0003FFFFF8001F000E0003FFFFF0001FF0001FFE000001FFE0007FF80007F
310
C0007FFFFE0003FC0007FFFFE0003FF8000001FFFE0000007FFFFFF0001FFFFF
310
FE0001FFFFFFC0003FFE0001FFFFFFC0003FFF0003FFFFFFFFF0003FFFFF0001
310
F000E0003FFFFF0003FF0001FFE000003FFE0007FF80007FC0007FFFFE0003FC
310
0007FFFFE0003FF8000001FFFE0000007FFFFFF0001FFFFFFF0001FFFFFFC000
310
7FFF0001FFFFFFC0007FFF0003FFFFFFFFF0003FFFFF0001F000E0003FFFFE00
310
03FF0003FFF000003FFE0003FF80007FC0007FFFFC0003FE0007FFFFE0003FF8
310
000001FFFE0000007FFFFFF0001FFFFFFF0000FFFFFF80007FFF0000FFFFFF80
310
007FFF0003FFFFFFFFF0003FFFFF0001F000E0003FFFFE0003FF0003FFF00000
310
3FFF0003FF80007FC0007FFFFC0007FE0007FFFFC0003FF8000001FFFE000000
310
7FFFFFF0001FFFFFFF80007FFFFF0000FFFF80007FFFFF0000FFFF0003FFFFFF
310
FFF0003FFFFF0003F000E0003FFFFC0003FE0003FFF000003FFF0003FF80007F
310
E0003FFFF80007FE0003FFFFC0007FF8000001FFFE0000007FFFFFF0001FFFFF
310
FF80003FFFFE0000FFFF80003FFFFE0000FFFF0003FFFFFFFFF0001FFFFE0003
310
F000F0001FFFF80003FE0003FFF000007FFF0001FF80007FE0003FFFF00007FE
310
0001FFFF80007FF8000001FFFE0000007FFFFFF0001FFFFFFFC0000FFFF80001
310
FFFFC0000FFFF80001FFFF0003FFFFFFFFF0001FFFFC0003F000F0000FFFF000
310
07FE0007FFF800007FFF0001FF80007FE0001FFFE00007FF0000FFFE00007FF8
310
000001FFFE0000007FFFFFF0001FFFFFFFC00003FFE00001FFFFC00003FFE000
310
01FFFF0003FFFFFFFFF8000FFFF80003F000F00003FFC00007FC0007FFF80000
310
7FFF8001FF80007FF00007FF80000FFF00007FF80000FFF8000001FFFE000000
310
7F80000000000001FFE000003E000003FFFFE000003E000003FFFF0003FFFFFF
310
FFF80003FFE00007F000F800000000000FFC0007FFF800007FFF8001FF80007F
310
F000000000000FFF000000000000FFF8000001FFFE0000007F80000000000001
310
FFF0000000000007FFFFF0000000000007FFFF0003FFFFFFFFFC00007E000007
310
F000F800000000000FFC0007FFF80000FFFF8000FF80007FF800000000001FFF
310
800000000001FFF8000001FFFE0000007F80000000000001FFF800000000000F
310
FFFFF800000000000FFFFF0003FFFFFFFFFC00000000000FF000FC0000000000
310
1FFC0007FFFC0000FFFF8000FF80007FF800000000003FFFC00000000001FFF8
310
000001FFFE0000007F80000000000001FFF800000000000FFFFFF80000000000
310
0FFFFF0003FFFFFFFFFE00000000001FF000FE00000000003FF8000FFFFC0000
310
FFFF8000FF80007FFC00000000003FFFC00000000003FFF8000001FFFE000000
310
7F80000000000001FFFC00000000001FFFFFFC00000000001FFFFF0003FFFFFF
310
FFFF00000000001FF000FF00000000003FF8000FFFFC0000FFFFC000FF80007F
310
FE00000000007FFFE00000000007FFF8000001FFFE0000007F80000000000001
310
FFFE00000000003FFFFFFE00000000003FFFFF0003FFFFFFFFFF80000000003F
310
F000FF80000000007FF8000FFFFC0001FFFFC0007F80007FFF0000000000FFFF
310
F0000000000FFFF800000000000000007F80000000000001FFFF8000000000FF
310
FFFFFF8000000000FFFFFF0003FFFFFFFFFFC0000000007FF000FFC000000000
310
FFF8000FFFFE0001FFFFC0007F80007FFF8000000001FFFFF8000000001FFFF8
310
00000000000000007F80000000000001FFFFC000000001FFFFFFFFC000000001
310
FFFFFF0003FFFFFFFFFFE000000000FFF000FFE000000003FFF0001FFFFE0001
310
FFFFC0007F80007FFFC000000007FFFFFE000000003FFFF80000000000000000
310
7F80000000000001FFFFE000000003FFFFFFFFE000000003FFFFFF0003FFFFFF
310
FFFFF000000003FFF000FFF80000000FFFF0001FFFFE0001FFFFE0007F80007F
310
FFF00000000FFFFFFF00000000FFFFF800000000000000007F80000000000001
310
FFFFF80000000FFFFFFFFFF80000000FFFFFFF0003FFFFFFFFFFFC0000000FFF
310
F000FFFE0000003FFFF0001FFFFE0003FFFFE0003F80007FFFFC0000003FFFFF
310
FFC0000003FFFFF800000000000000007F80000000000001FFFFFE0000003FFF
310
FFFFFFFE0000003FFFFFFF0003FFFFFFFFFFFF0000003FFFF000FFFF800000FF
310
FFF0001FFFFF0003FFFFE0003F80007FFFFF000001FFFFFFFFF800001FFFFFF8
310
00000000000000007F80000000000001FFFFFFC00001FFFFFFFFFFFFC00001FF
310
FFFFFF0003FFFFFFFFFFFFC00000FFFFF000FFFFF8000FFFFFFFFFFFFFFFFFFF
310
FFFFFFFFFFFFFFFFFFFFF0001FFFFFFFFFFF0000FFFFFFF80000000000000000
310
7FFFFFFFFFFFFFFFFFFFFFFC001FFFFFFFFFFFFFFC001FFFFFFFFFFFFFFFFFFF
310
FFFFFFFC001FFFFFF000FFFFFFFFFFFFFFFFFFFFFFFFFFFFFFFFFFFFFFFFFFFF
310
FFFFFFFFFFFFFFFFFFFFFFFFFFFFFFFFFFFFFFFFFFFFFFFFFFFFFFFFFFFFFFFF
310
FFFFFFFFFFFFFFFFFFFFFFFFFFFFFFFFFFFFFFFFFFFFFFFFFFFFFFFFFFFFFFFF
310
F000FFFFFFFFFFFFFFFFFFFFFFFFFFFFFFFFFFFFFFFFFFFFFFFFFFFFFFFFFFFF
310
FFFFFFFFFFFFFFFFFFFFFFFFFFFFFFFFFFFFFFFFFFFFFFFFFFFFFFFFFFFFFFFF
310
FFFFFFFFFFFFFFFFFFFFFFFFFFFFFFFFFFFFFFFFFFFFFFFFF000FFFFFFFFFFFF
310
FFFFFFFFFFFFFFFFFFFFFFFFFFFFFFFFFFFFFFFFFFFFFFFFFFFFFFFFFFFFFFFF
310
FFFFFFFFFFFFFFFFFFFFFFFFFFFFFFFFFFFFFFFFFFFFFFFFFFFFFFFFFFFFFFFF
310
FFFFFFFFFFFFFFFFFFFFFFFFFFFFFFFFF000FFFFFFFFFFFFFFFFFFFFFFFFFFFF
310
FFFFFFFFFFFFFFFFFFFFFFFFFFFFFFFFFFFFFFFFFFFFFFFFFFFFFFFFFFFFFFFF
310
FFFFFFFFFFFFFFFFFFFFFFFFFFFFFFFFFFFFFFFFFFFFFFFFFFFFFFFFFFFFFFFF
310
FFFFFFFFFFFFFFFFF000FFFFFFFFFFFFFFFFFFFFFFFFFFFFFFFFFFFFFFFFFFFF
310
FFFFFFFFFFFFFFFFFFFFFFFFFFFFFFFFFFFFFFFFFFFFFFFFFFFFFFFFFFFFFFFF
310
FFFFFFFFFFFFFFFFFFFFFFFFFFFFFFFFFFFFFFFFFFFFFFFFFFFFFFFFFFFFFFFF
310
F000FFFFFFFFFFFFFFFFFFFFFFFFFFFFFFFFFFFFFFFFFFFFFFFFFFFFFFFFFFFF
310
FFFFFFFFFFFFFFFFFFFFFFFFFFFFFFFFFFFFFFFFFFFFFFFFFFFFFFFFFFFFFFFF
310
FFFFFFFFFFFFFFFFFFFFFFFFFFFFFFFFFFFFFFFFFFFFFFFFF000FFFFFFFFFFFF
310
FFFFFFFFFFFFFFFFFFFFFFFFFFFFFFFFFFFFFFFFFFFFFFFFFFFFFFFFFFFFFFFF
310
FFFFFFFFFFFFFFFFFFFFFFFFFFFFFFFFFFFFFFFFFFFFFFFFFFFFFFFFFFFFFFFF
310
FFFFFFFFFFFFFFFFFFFFFFFFFFFFFFFFF000FFFFFFFFFFFFFFFFFFFFFFFFFFFF
310
FFFFFFFFFFFFFFFFFFFFFFFFFFFFFFFFFFFFFFFFFFFFFFFFFFFFFFFFFFFFFFFF
310
FFFFFFFFFFFFFFFFFFFFFFFFFFFFFFFFFFFFFFFFFFFFFFFFFFFFFFFFFFFFFFFF
310
FFFFFFFFFFFFFFFFF000FFFFFFFFFFFFFFFFFFFFFFFFFFFFFFFFFFFFFFFFFFFF
310
FFFFFFFFFFFFFFFFFFFFFFFFFFFFFFFFFFFFFFFFFFFFFFFFFFFFFFFFFFFFFFFF
310
FFFFFFFFFFFFFFFFFFFFFFFFFFFFFFFFFFFFFFFFFFFFFFFFFFFFFFFFFFFFFFFF
310
F000FFFFFFFFFFFFFFFFFFFFFFFFFFFFFFFFFFFFFFFFFFFFFFFFFFFFFFFFFFFF
310
FFFFFFFFFFFFFFFFFFFFFFFFFFFFFFFFFFFFFFFFFFFFFFFFFFFFFFFFFFFFFFFF
310
FFFFFFFFFFFFFFFFFFFFFFFFFFFFFFFFFFFFFFFFFFFFFFFFF000FFFFFFFFFFFF
310
FFFFFFFFFFFFFFFFFFFFFFFFFFFFFFFFFFFFFFFFFFFFFFFFFFFFFFFFFFFFFFFF
310
FFFFFFFFFFFFFFFFFFFFFFFFFFFFFFFFFFFFFFFFFFFFFFFFFFFFFFFFFFFFFFFF
310
FFFFFFFFFFFFFFFFFFFFFFFFFFFFFFFFF000FFFFFFFFFFFFFFFFFFFFFFFFFFFF
310
FFFFFFFFFFFFFFFFFFFFFFFFFFFFFFFFFFFFFFFFFFFFFFFFFFFFFFFFFFFFFFFF
310
FFFFFFFFFFFFFFFFFFFFFFFFFFFFFFFFFFFFFFFFFFFFFFFFFFFFFFFFFFFFFFFF
310
FFFFFFFFFFFFFFFFF000FFFFFFFFFFFFFFFFFFFFFFFFFFFFFFFFFFFFFFFFFFFF
310
FFFFFFFFFFFFFFFFFFFFFFFFFFFFFFFFFFFFFFFFFFFFFFFFFFFFFFFFFFFFFFFF
310
FFFFFFFFFFFFFFFFFFFFFFFFFFFFFFFFFFFFFFFFFFFFFFFFFFFFFFFFFFFFFFFF
310
F000FFFFFFFFFFFFFFFFFFFFFFFFFFFFFFFFFFFFFFFFFFFFFFFFFFFFFFFFFFFF
310
FFFFFFFFFFFFFFFFFFFFFFFFFFFFFFFFFFFFFFFFFFFFFFFFFFFFFFFFFFFFFFFF
310
FFFFFFFFFFFFFFFFFFFFFFFFFFFFFFFFFFFFFFFFFFFFFFFFF000FFFFFFFFFFFF
310
FFFFFFFFFFFFFFFFFFFFFFFFFFFFFFFFFFFFFFFFFFFFFFFFFFFFFFFFFFFFFFFF
310
FFFFFFFFFFFFFFFFFFFFFFFFFFFFFFFFFFFFFFFFFFFFFFFFFFFFFFFFFFFFFFFF
310
FFFFFFFFFFFFFFFFFFFFFFFFFFFFFFFFF000FFFFFFFFFFFFFFFFFFFFFFFFFFFF
310
FFFFFFFFFFFFFFFFFFFFFFFFFFFFFFFFFFFFFFFFFFFFFFFFFFFFFFFFFFFFFFFF
310
FFFFFFFFFFFFFFFFFFFFFFFFFFFFFFFFFFFFFFFFFFFFFFFFFFFFFFFFFFFFFFFF
310
FFFFFFFFFFFFFFFFF000FFFFFFFFFFFFFFFFFFFFFFFFFFFFFFFFFFFFFFFFFFFF
310
FFFFFFFFFFFFFFFFFFFFFFFFFFFFFFFFFFFFFFFFFFFFFFFFFFFFFFFFFFFFFFFF
310
FFFFFFFFFFFFFFFFFFFFFFFFFFFFFFFFFFFFFFFFFFFFFFFFFFFFFFFFFFFFFFFF
310
F000FFFFFFFFFFFFFFFFFFFFFFFFFFFFFFFFFFFFFFFFFFFFFFFFFFFFFFFFFFFF
310
FFFFFFFFFFFFFFFFFFFFFFFFFFFFFFFFFFFFFFFFFFFFFFFFFFFFFFFFFFFFFFFF
310
FFFFFFFFFFFFFFFFFFFFFFFFFFFFFFFFFFFFFFFFFFFFFFFFF000FFFFFFFFFFFF
310
FFFFFFFFFFFFFFFFFFFFFFFFFFFFFFFFFFFFFFFFFFFFFFFFFFFFFFFFFFFFFFFF
310
FFFFFFFFFFFFFFFFFFFFFFFFFFFFFFFFFFFFFFFFFFFFFFFFFFFFFFFFFFFFFFFF
310
FFFFFFFFFFFFFFFFFFFFFFFFFFFFFFFFF000FFFFFFFFFFFFFFFFFFFFFFFFFFFF
310
FFFFFFFFFFFFFFFFFFFFFFFFFFFFFFFFFFFFFFFFFFFFFFFFFFFFFFFFFFFFFFFF
310
FFFFFFFFFFFFFFFFFFFFFFFFFFFFFFFFFFFFFFFFFFFFFFFFFFFFFFFFFFFFFFFF
310
FFFFFFFFFFFFFFFFF000FFFFFFFFFFFFFFFFFFFFFFFFFFFFFFFFFFFFFFFFFFFF
310
FFFFFFFFFFFFFFFFFFFFFFFFFFFFFFFFFFFFFFFFFFFFFFFFFFFFFFFFFFFFFFFF
310
FFFFFFFFFFFFFFFFFFFFFFFFFFFFFFFFFFFFFFFFFFFFFFFFFFFFFFFFFFFFFFFF
310
F000FFFFFFFFFFFFFFFFFFFFFFFFFFFFFFFFFFFFFFFFFFFFFFFFFFFFFFFFFFFF
310
FFFFFFFFFFFFFFFFFFFFFFFFFFFFFFFFFFFFFFFFFFFFFFFFFFFFFFFFFFFFFFFF
310
FFFFFFFFFFFFFFFFFFFFFFFFFFFFFFFFFFFFFFFFFFFFFFFFF000FFFFFFFFFFFF
310
FFFFFFFFFFFFFFFFFFFFFFFFFFFFFFFFFFFFFFFFFFFFFFFFFFFFFFFFFFFFFFFF
310
FFFFFFFFFFFFFFFFFFFFFFFFFFFFFFFFFFFFFFFFFFFFFFFFFFFFFFFFFFFFFFFF
310
FFFFFFFFFFFFFFFFFFFFFFFFFFFFFFFFF0000000000000000000000000000000
310
0000000000000000000000000000000000000000000000000000000000000000
310
0000000000000000000000000000000000000000000000000000000000000000
310
0000000000000000000000000000000000000000000000000000000000000000
310
0000000000000000000000000000000000000000000000000000000000000000
310
0000000000000000000000000000000000000000000000000000000000000000
310
0000000000000000000000000000000000000000000000000000000000000000
310
0000000000000000000000000000000000000000000000000000000000000000
310
0000000000000000000000000000000000000000000000000000000000000000
310
0000000000000000000000000000000000000000000000000000000000000000
310
0000000000000000000000000000000000000000000000000000000000000000
310
0000000000000000000000000000000000000000000000000000000000000000
310
0000000000000000000000000000000000000000000000000000000000000000
310
0000000000000000000000000000000000000000000000000000000000000000
310
0000000000000000000000000000000000000000000000000000000000000000
310
0000000000000000000000000000000000000000000000000000000000000000
  1
OLE
  0
ENDSEC
  0
SECTION
  2
OBJECTS
  0
DICTIONARY
  5
C
330
0
100
AcDbDictionary
281
     1
  3
ACAD_GROUP
350
D
  3
ACAD_LAYOUT
350
1A
  3
ACAD_MLINESTYLE
350
17
  3
ACAD_PLOTSETTINGS
350
19
  3
ACAD_PLOTSTYLENAME
350
E
  0
DICTIONARY
  5
D
102
{ACAD_REACTORS
330
C
102
}
330
C
100
AcDbDictionary
281
     1
  0
DICTIONARY
  5
1A
102
{ACAD_REACTORS
330
C
102
}
330
C
100
AcDbDictionary
281
     1
  3
Layout1
350
1E
  3
Layout2
350
26
  3
Model
350
22
  0
DICTIONARY
  5
17
102
{ACAD_REACTORS
330
C
102
}
330
C
100
AcDbDictionary
281
     1
  3
Standard
350
18
  0
DICTIONARY
  5
19
102
{ACAD_REACTORS
330
C
102
}
330
C
100
AcDbDictionary
281
     1
  0
ACDBDICTIONARYWDFLT
  5
E
102
{ACAD_REACTORS
330
C
102
}
330
C
100
AcDbDictionary
281
     1
  3
Normal
350
F
100
AcDbDictionaryWithDefault
340
F
  0
LAYOUT
  5
1E
102
{ACAD_REACTORS
330
1A
102
}
330
1A
100
AcDbPlotSettings
  1

  2
none_device
  4

  6

 40
0.0
 41
0.0
 42
0.0
 43
0.0
 44
0.0
 45
0.0
 46
0.0
 47
0.0
 48
0.0
 49
0.0
140
0.0
141
0.0
142
1.0
143
1.0
 70
   688
 72
     0
 73
     0
 74
     5
  7

 75
    16
147
1.0
148
0.0
149
0.0
100
AcDbLayout
  1
Layout1
 70
     1
 71
     1
 10
0.0
 20
0.0
 11
420.0
 21
297.0
 12
0.0
 22
0.0
 32
0.0
 14
1.0000000000E+20
 24
1.0000000000E+20
 34
1.0000000000E+20
 15
-1.0000000000E+20
 25
-1.0000000000E+20
 35
-1.0000000000E+20
146
0.0
 13
0.0
 23
0.0
 33
0.0
 16
1.0
 26
0.0
 36
0.0
 17
0.0
 27
1.0
 37
0.0
 76
     0
330
1B
  0
LAYOUT
  5
26
102
{ACAD_REACTORS
330
1A
102
}
330
1A
100
AcDbPlotSettings
  1

  2
none_device
  4

  6

 40
0.0
 41
0.0
 42
0.0
 43
0.0
 44
0.0
 45
0.0
 46
0.0
 47
0.0
 48
0.0
 49
0.0
140
0.0
141
0.0
142
1.0
143
1.0
 70
   688
 72
     0
 73
     0
 74
     5
  7

 75
    16
147
1.0
148
0.0
149
0.0
100
AcDbLayout
  1
Layout2
 70
     1
 71
     2
 10
0.0
 20
0.0
 11
0.0
 21
0.0
 12
0.0
 22
0.0
 32
0.0
 14
0.0
 24
0.0
 34
0.0
 15
0.0
 25
0.0
 35
0.0
146
0.0
 13
0.0
 23
0.0
 33
0.0
 16
1.0
 26
0.0
 36
0.0
 17
0.0
 27
1.0
 37
0.0
 76
     0
330
23
  0
LAYOUT
  5
22
102
{ACAD_REACTORS
330
1A
102
}
330
1A
100
AcDbPlotSettings
  1

  2
none_device
  4

  6

 40
0.0
 41
0.0
 42
0.0
 43
0.0
 44
0.0
 45
0.0
 46
0.0
 47
0.0
 48
0.0
 49
0.0
140
0.0
141
0.0
142
1.0
143
1.0
 70
  1712
 72
     0
 73
     0
 74
     0
  7

 75
     0
147
1.0
148
0.0
149
0.0
100
AcDbLayout
  1
Model
 70
     1
 71
     0
 10
0.0
 20
0.0
 11
297.0
 21
210.0
 12
0.0
 22
0.0
 32
0.0
 14
0.0
 24
0.0
 34
0.0
 15
297.0
 25
210.0
 35
0.0
146
0.0
 13
0.0
 23
0.0
 33
0.0
 16
1.0
 26
0.0
 36
0.0
 17
0.0
 27
1.0
 37
0.0
 76
     0
330
1F
331
29
  0
MLINESTYLE
  5
18
102
{ACAD_REACTORS
330
17
102
}
330
17
100
AcDbMlineStyle
  2
Standard
 70
     0
  3

 62
   256
 51
90.0
 52
90.0
 71
     2
 49
0.5
 62
   256
  6
BYLAYER
 49
-0.5
 62
   256
  6
BYLAYER
  0
ACDBPLACEHOLDER
  5
F
102
{ACAD_REACTORS
330
E
102
}
330
E
  0
ENDSEC
  0
EOF
