  0
SECTION
  2
HEADER
  9
$ACADVER
  1
AC1015
  9
$ACADMAINTVER
 70
     6
  9
$DWGCODEPAGE
  3
ANSI_1252
  9
$INSBASE
 10
0.0
 20
0.0
 30
0.0
  9
$EXTMIN
 10
0.0
 20
0.0
 30
0.0
  9
$EXTMAX
 10
297.0
 20
210.0
 30
0.0
  9
$LIMMIN
 10
0.0
 20
0.0
  9
$LIMMAX
 10
297.0
 20
210.0
  9
$ORTHOMODE
 70
     0
  9
$REGENMODE
 70
     1
  9
$FILLMODE
 70
     1
  9
$QTEXTMODE
 70
     0
  9
$MIRRTEXT
 70
     1
  9
$LTSCALE
 40
1.0
  9
$ATTMODE
 70
     1
  9
$TEXTSIZE
 40
2.0
  9
$TRACEWID
 40
1.0
  9
$TEXTSTYLE
  7
Standard
  9
$CLAYER
  8
0
  9
$CELTYPE
  6
ByLayer
  9
$CECOLOR
 62
   256
  9
$CELTSCALE
 40
1.0
  9
$DISPSILH
 70
     0
  9
$DIMSCALE
 40
1.0
  9
$DIMASZ
 40
3.0
  9
$DIMEXO
 40
0.0
  9
$DIMDLI
 40
3.75
  9
$DIMRND
 40
0.0
  9
$DIMDLE
 40
0.0
  9
$DIMEXE
 40
1.0
  9
$DIMTP
 40
0.0
  9
$DIMTM
 40
0.0
  9
$DIMTXT
 40
2.0
  9
$DIMCEN
 40
2.5
  9
$DIMTSZ
 40
0.0
  9
$DIMTOL
 70
     0
  9
$DIMLIM
 70
     0
  9
$DIMTIH
 70
     1
  9
$DIMTOH
 70
     1
  9
$DIMSE1
 70
     0
  9
$DIMSE2
 70
     0
  9
$DIMTAD
 70
     1
  9
$DIMZIN
 70
     0
  9
$DIMBLK
  1

  9
$DIMASO
 70
     1
  9
$DIMSHO
 70
     1
  9
$DIMPOST
  1

  9
$DIMAPOST
  1

  9
$DIMALT
 70
     0
  9
$DIMALTD
 70
     3
  9
$DIMALTF
 40
0.0393700787
  9
$DIMLFAC
 40
1.0
  9
$DIMTOFL
 70
     1
  9
$DIMTVP
 40
0.0
  9
$DIMTIX
 70
     0
  9
$DIMSOXD
 70
     0
  9
$DIMSAH
 70
     0
  9
$DIMBLK1
  1

  9
$DIMBLK2
  1

  9
$DIMSTYLE
  2
ISO-25
  9
$DIMCLRD
 70
     0
  9
$DIMCLRE
 70
     0
  9
$DIMCLRT
 70
     0
  9
$DIMTFAC
 40
1.0
  9
$DIMGAP
 40
1.524
  9
$DIMJUST
 70
     0
  9
$DIMSD1
 70
     0
  9
$DIMSD2
 70
     0
  9
$DIMTOLJ
 70
     0
  9
$DIMTZIN
 70
     0
  9
$DIMALTZ
 70
     0
  9
$DIMALTTZ
 70
     0
  9
$DIMUPT
 70
     0
  9
$DIMDEC
 70
     2
  9
$DIMTDEC
 70
     3
  9
$DIMALTU
 70
     2
  9
$DIMALTTD
 70
     3
  9
$DIMTXSTY
  7
Standard
  9
$DIMAUNIT
 70
     0
  9
$DIMADEC
 70
     2
  9
$DIMALTRND
 40
0.0
  9
$DIMAZIN
 70
     0
  9
$DIMDSEP
 70
    44
  9
$DIMATFIT
 70
     3
  9
$DIMFRAC
 70
     0
  9
$DIMLDRBLK
  1

  9
$DIMLUNIT
 70
     2
  9
$DIMLWD
 70
    -2
  9
$DIMLWE
 70
    -2
  9
$DIMTMOVE
 70
     0
  9
$LUNITS
 70
     2
  9
$LUPREC
 70
     2
  9
$SKETCHINC
 40
1.0
  9
$FILLETRAD
 40
10.0
  9
$AUNITS
 70
     0
  9
$AUPREC
 70
     2
  9
$MENU
  1
.
  9
$ELEVATION
 40
0.0
  9
$PELEVATION
 40
0.0
  9
$THICKNESS
 40
0.0
  9
$LIMCHECK
 70
     0
  9
$CHAMFERA
 40
10.0
  9
$CHAMFERB
 40
10.0
  9
$CHAMFERC
 40
20.0
  9
$CHAMFERD
 40
0.0
  9
$SKPOLY
 70
     0
  9
$TDCREATE
 40
2456079.685555706
  9
$TDUCREATE
 40
2456079.602222373
  9
$TDUPDATE
 40
2456079.685556979
  9
$TDUUPDATE
 40
2456079.602223646
  9
$TDINDWG
 40
0.0000000116
  9
$TDUSRTIMER
 40
0.0000000116
  9
$USRTIMER
 70
     1
  9
$ANGBASE
 50
0.0
  9
$ANGDIR
 70
     0
  9
$PDMODE
 70
     0
  9
$PDSIZE
 40
-1.0
  9
$PLINEWID
 40
0.0
  9
$SPLFRAME
 70
     0
  9
$SPLINETYPE
 70
     6
  9
$SPLINESEGS
 70
     8
  9
$HANDSEED
  5
2F7
  9
$SURFTAB1
 70
     6
  9
$SURFTAB2
 70
     6
  9
$SURFTYPE
 70
     6
  9
$SURFU
 70
     6
  9
$SURFV
 70
     6
  9
$UCSBASE
  2

  9
$UCSNAME
  2

  9
$UCSORG
 10
0.0
 20
0.0
 30
0.0
  9
$UCSXDIR
 10
1.0
 20
0.0
 30
0.0
  9
$UCSYDIR
 10
0.0
 20
1.0
 30
0.0
  9
$UCSORTHOREF
  2

  9
$UCSORTHOVIEW
 70
     0
  9
$UCSORGTOP
 10
0.0
 20
0.0
 30
0.0
  9
$UCSORGBOTTOM
 10
0.0
 20
0.0
 30
0.0
  9
$UCSORGLEFT
 10
0.0
 20
0.0
 30
0.0
  9
$UCSORGRIGHT
 10
0.0
 20
0.0
 30
0.0
  9
$UCSORGFRONT
 10
0.0
 20
0.0
 30
0.0
  9
$UCSORGBACK
 10
0.0
 20
0.0
 30
0.0
  9
$PUCSBASE
  2

  9
$PUCSNAME
  2

  9
$PUCSORG
 10
0.0
 20
0.0
 30
0.0
  9
$PUCSXDIR
 10
1.0
 20
0.0
 30
0.0
  9
$PUCSYDIR
 10
0.0
 20
1.0
 30
0.0
  9
$PUCSORTHOREF
  2

  9
$PUCSORTHOVIEW
 70
     0
  9
$PUCSORGTOP
 10
0.0
 20
0.0
 30
0.0
  9
$PUCSORGBOTTOM
 10
0.0
 20
0.0
 30
0.0
  9
$PUCSORGLEFT
 10
0.0
 20
0.0
 30
0.0
  9
$PUCSORGRIGHT
 10
0.0
 20
0.0
 30
0.0
  9
$PUCSORGFRONT
 10
0.0
 20
0.0
 30
0.0
  9
$PUCSORGBACK
 10
0.0
 20
0.0
 30
0.0
  9
$USERI1
 70
     0
  9
$USERI2
 70
     0
  9
$USERI3
 70
     0
  9
$USERI4
 70
     0
  9
$USERI5
 70
     0
  9
$USERR1
 40
0.0
  9
$USERR2
 40
0.0
  9
$USERR3
 40
0.0
  9
$USERR4
 40
0.0
  9
$USERR5
 40
0.0
  9
$WORLDVIEW
 70
     1
  9
$SHADEDGE
 70
     3
  9
$SHADEDIF
 70
    70
  9
$TILEMODE
 70
     1
  9
$MAXACTVP
 70
    64
  9
$PINSBASE
 10
0.0
 20
0.0
 30
0.0
  9
$PLIMCHECK
 70
     0
  9
$PEXTMIN
 10
1.0000000000E+20
 20
1.0000000000E+20
 30
1.0000000000E+20
  9
$PEXTMAX
 10
-1.0000000000E+20
 20
-1.0000000000E+20
 30
-1.0000000000E+20
  9
$PLIMMIN
 10
0.0
 20
0.0
  9
$PLIMMAX
 10
420.0
 20
297.0
  9
$UNITMODE
 70
     0
  9
$VISRETAIN
 70
     1
  9
$PLINEGEN
 70
     0
  9
$PSLTSCALE
 70
     1
  9
$TREEDEPTH
 70
  3020
  9
$CMLSTYLE
  2
Standard
  9
$CMLJUST
 70
     0
  9
$CMLSCALE
 40
20.0
  9
$PROXYGRAPHICS
 70
     1
  9
$MEASUREMENT
 70
     1
  9
$CELWEIGHT
370
    -1
  9
$ENDCAPS
280
     0
  9
$JOINSTYLE
280
     0
  9
$LWDISPLAY
290
     1
  9
$INSUNITS
 70
     4
  9
$HYPERLINKBASE
  1

  9
$STYLESHEET
  1

  9
$XEDIT
290
     1
  9
$CEPSNTYPE
380
     0
  9
$PSTYLEMODE
290
     1
  9
$FINGERPRINTGUID
  2
{C6142216-AB85-4CEC-BEE1-631016C88C30}
  9
$VERSIONGUID
  2
{FAEB1C32-E019-11D5-929B-00C0DF256EC4}
  9
$EXTNAMES
290
     1
  9
$PSVPSCALE
 40
0.0
  9
$OLESTARTUP
290
     0
  0
ENDSEC
  0
SECTION
  2
CLASSES
  0
CLASS
  1
ACDBDICTIONARYWDFLT
  2
AcDbDictionaryWithDefault
  3
ObjectDBX Classes
 90
        0
280
     0
281
     0
  0
CLASS
  1
VISUALSTYLE
  2
AcDbVisualStyle
  3
ObjectDBX Classes
 90
     4095
280
     0
281
     0
  0
CLASS
  1
MATERIAL
  2
AcDbMaterial
  3
ObjectDBX Classes
 90
     1153
280
     0
281
     0
  0
CLASS
  1
ACDBPLACEHOLDER
  2
AcDbPlaceHolder
  3
ObjectDBX Classes
 90
        0
280
     0
281
     0
  0
CLASS
  1
LAYOUT
  2
AcDbLayout
  3
ObjectDBX Classes
 90
        0
280
     0
281
     0
  0
ENDSEC
  0
SECTION
  2
TABLES
  0
TABLE
  2
VPORT
  5
8
330
0
100
AcDbSymbolTable
 70
     1
  0
VPORT
  5
29
330
8
100
AcDbSymbolTableRecord
100
AcDbViewportTableRecord
  2
*Active
 70
     0
 10
0.0
 20
0.0
 11
1.0
 21
1.0
 12
148.5
 22
105.0
 13
0.0
 23
0.0
 14
10.0
 24
10.0
 15
10.0
 25
10.0
 16
0.0
 26
0.0
 36
1.0
 17
0.0
 27
0.0
 37
0.0
 40
210.0
 41
1.4142857143
 42
50.0
 43
0.0
 44
0.0
 50
0.0
 51
0.0
 71
     0
 72
  2000
 73
     1
 74
     3
 75
     0
 76
     0
 77
     0
 78
     0
281
     0
 65
     1
110
0.0
120
0.0
130
0.0
111
1.0
121
0.0
131
0.0
112
0.0
122
1.0
132
0.0
 79
     0
146
0.0
  0
ENDTAB
  0
TABLE
  2
LTYPE
  5
5
330
0
100
AcDbSymbolTable
 70
     6
  0
LTYPE
  5
14
330
5
100
AcDbSymbolTableRecord
100
AcDbLinetypeTableRecord
  2
ByBlock
 70
     0
  3

 72
    65
 73
     0
 40
0.0
  0
LTYPE
  5
15
330
5
100
AcDbSymbolTableRecord
100
AcDbLinetypeTableRecord
  2
ByLayer
 70
     0
  3

 72
    65
 73
     0
 40
0.0
  0
LTYPE
  5
16
330
5
100
AcDbSymbolTableRecord
100
AcDbLinetypeTableRecord
  2
Continuous
 70
     0
  3
Solid line
 72
    65
 73
     0
 40
0.0
  0
LTYPE
  5
3F
330
5
100
AcDbSymbolTableRecord
100
AcDbLinetypeTableRecord
  2
HIDDEN
 70
     0
  3
Hidden __ __ __ __ __ __ __ __ __ __ __ __ __ __
 72
    65
 73
     2
 40
1.905
 49
1.27
 74
     0
 49
-0.635
 74
     0
  0
LTYPE
  5
40
330
5
100
AcDbSymbolTableRecord
100
AcDbLinetypeTableRecord
  2
PHANTOM
 70
     0
  3
Phantom ______  __  __  ______  __  __  ______
 72
    65
 73
     6
 40
12.7
 49
6.35
 74
     0
 49
-1.27
 74
     0
 49
1.27
 74
     0
 49
-1.27
 74
     0
 49
1.27
 74
     0
 49
-1.27
 74
     0
  0
LTYPE
  5
41
330
5
100
AcDbSymbolTableRecord
100
AcDbLinetypeTableRecord
  2
CENTER
 70
     0
  3
Center ____ _ ____ _ ____ _ ____ _ ____ _ ____
 72
    65
 73
     4
 40
10.16
 49
6.35
 74
     0
 49
-1.27
 74
     0
 49
1.27
 74
     0
 49
-1.27
 74
     0
  0
LTYPE
  5
42
330
5
100
AcDbSymbolTableRecord
100
AcDbLinetypeTableRecord
  2
CENTERX2
 70
     0
  3
Center (2x) ________  __  ________  __  _____
 72
    65
 73
     4
 40
20.32
 49
12.7
 74
     0
 49
-2.54
 74
     0
 49
2.54
 74
     0
 49
-2.54
 74
     0
  0
LTYPE
  5
43
330
5
100
AcDbSymbolTableRecord
100
AcDbLinetypeTableRecord
  2
DOT2
 70
     0
  3
Dot (.5x) ........................................
 72
    65
 73
     2
 40
0.635
 49
0.0
 74
     0
 49
-0.635
 74
     0
  0
ENDTAB
  0
TABLE
  2
LAYER
  5
2
330
0
100
AcDbSymbolTable
 70
     5
  0
LAYER
  5
10
330
2
100
AcDbSymbolTableRecord
100
AcDbLayerTableRecord
  2
0
 70
     0
 62
     7
  6
Continuous
370
    -3
390
F
  0
LAYER
  5
44
330
2
100
AcDbSymbolTableRecord
100
AcDbLayerTableRecord
  2
FORMAT
 70
     0
 62
     7
  6
Continuous
370
    -3
390
F
  0
LAYER
  5
45
330
2
100
AcDbSymbolTableRecord
100
AcDbLayerTableRecord
  2
VERMASSUNG
 70
     0
 62
     7
  6
Continuous
370
    -3
390
F
  0
LAYER
  5
46
330
2
100
AcDbSymbolTableRecord
100
AcDbLayerTableRecord
  2
KOPF_DÜNN
 70
     0
 62
     7
  6
Continuous
370
    -3
390
F
  0
LAYER
  5
47
330
2
100
AcDbSymbolTableRecord
100
AcDbLayerTableRecord
  2
KOPF_DICK
 70
     0
 62
     7
  6
Continuous
370
    15
390
F
  0
ENDTAB
  0
TABLE
  2
STYLE
  5
3
330
0
100
AcDbSymbolTable
 70
     3
  0
STYLE
  5
11
330
3
100
AcDbSymbolTableRecord
100
AcDbTextStyleTableRecord
  2
Standard
 70
     0
 40
0.0
 41
1.0
 50
0.0
 71
     0
 42
2.0
  3
txt
  4

  0
STYLE
  5
48
330
3
100
AcDbSymbolTableRecord
100
AcDbTextStyleTableRecord
  2
SLDTEXTSTYLE0
 70
     0
 40
0.0
 41
0.7
 50
0.0
 71
     0
 42
0.2
  3
TXT
  4

  0
STYLE
  5
4C
330
3
100
AcDbSymbolTableRecord
100
AcDbTextStyleTableRecord
  2
SLDTEXTSTYLE1
 70
     0
 40
0.0
 41
0.6466666667
 50
0.0
 71
     0
 42
0.2
  3
TXT
  4

  0
ENDTAB
  0
TABLE
  2
VIEW
  5
6
330
0
100
AcDbSymbolTable
 70
     0
  0
ENDTAB
  0
TABLE
  2
UCS
  5
7
330
0
100
AcDbSymbolTable
 70
     0
  0
ENDTAB
  0
TABLE
  2
APPID
  5
9
330
0
100
AcDbSymbolTable
 70
     1
  0
APPID
  5
12
330
9
100
AcDbSymbolTableRecord
100
AcDbRegAppTableRecord
  2
ACAD
 70
     0
  0
ENDTAB
  0
TABLE
  2
DIMSTYLE
  5
A
330
0
100
AcDbSymbolTable
 70
     2
100
AcDbDimStyleTable
  0
DIMSTYLE
105
27
330
A
100
AcDbSymbolTableRecord
100
AcDbDimStyleTableRecord
  2
ISO-25
 70
     0
 41
2.5
 42
0.625
 43
3.75
 44
1.25
 73
     0
 74
     0
 77
     1
 78
     8
140
2.5
141
2.5
143
0.0393700787
147
0.625
171
     3
172
     1
178
     0
271
     2
272
     2
274
     3
278
    44
283
     0
284
     8
340
11
  0
DIMSTYLE
105
19E
102
{ACAD_REACTORS
330
19D
330
2E2
330
2EC
102
}
330
A
100
AcDbSymbolTableRecord
100
AcDbDimStyleTableRecord
  2
SLDDIMSTYLE0
 70
     0
 41
3.0
 44
0.0
 45
0.000000001
 73
     0
 74
     0
 77
     1
 78
    12
 79
     3
140
2.0
147
0.5
173
     1
178
     0
271
     2
272
     3
276
     2
284
    12
340
48
  0
ENDTAB
  0
TABLE
  2
BLOCK_RECORD
  5
1
330
0
100
AcDbSymbolTable
 70
     4
  0
BLOCK_RECORD
  5
1F
330
1
100
AcDbSymbolTableRecord
100
AcDbBlockTableRecord
  2
*Model_Space
340
22
  0
BLOCK_RECORD
  5
1B
330
1
100
AcDbSymbolTableRecord
100
AcDbBlockTableRecord
  2
*Paper_Space
340
1E
  0
BLOCK_RECORD
  5
23
330
1
100
AcDbSymbolTableRecord
100
AcDbBlockTableRecord
  2
*Paper_Space0
340
26
  0
BLOCK_RECORD
  5
19F
330
1
100
AcDbSymbolTableRecord
100
AcDbBlockTableRecord
  2
_D
340
0
  0
BLOCK_RECORD
  5
2E3
330
1
100
AcDbSymbolTableRecord
100
AcDbBlockTableRecord
  2
_D_1
340
0
  0
BLOCK_RECORD
  5
2ED
330
1
100
AcDbSymbolTableRecord
100
AcDbBlockTableRecord
  2
_D_2
340
0
  0
ENDTAB
  0
ENDSEC
  0
SECTION
  2
BLOCKS
  0
BLOCK
  5
20
330
1F
100
AcDbEntity
  8
0
100
AcDbBlockBegin
  2
*Model_Space
 70
     0
 10
0.0
 20
0.0
 30
0.0
  3
*Model_Space
  1

  0
ENDBLK
  5
21
330
1F
100
AcDbEntity
  8
0
100
AcDbBlockEnd
  0
BLOCK
  5
1C
330
1B
100
AcDbEntity
 67
     1
  8
0
100
AcDbBlockBegin
  2
*Paper_Space
 70
     0
 10
0.0
 20
0.0
 30
0.0
  3
*Paper_Space
  1

  0
ENDBLK
  5
1D
330
1B
100
AcDbEntity
 67
     1
  8
0
100
AcDbBlockEnd
  0
BLOCK
  5
24
330
23
100
AcDbEntity
  8
0
100
AcDbBlockBegin
  2
*Paper_Space0
 70
     0
 10
0.0
 20
0.0
 30
0.0
  3
*Paper_Space0
  1

  0
ENDBLK
  5
25
330
23
100
AcDbEntity
  8
0
100
AcDbBlockEnd
  0
BLOCK
  5
1A0
330
19F
100
AcDbEntity
  8
0
100
AcDbBlockBegin
  2
_D
 70
     0
 10
0.0
 20
0.0
 30
0.0
  3
_D
  1

  0
SOLID
  5
1A2
330
19F
100
AcDbEntity
  8
VERMASSUNG
100
AcDbTrace
 10
68.0579447403
 20
101.370937923
 30
0.0
 11
67.6079447403
 21
98.370937923
 31
0.0
 12
68.5079447403
 22
98.370937923
 32
0.0
 13
68.5079447403
 23
98.370937923
 33
0.0
  0
SOLID
  5
1A3
330
19F
100
AcDbEntity
  8
VERMASSUNG
100
AcDbTrace
 10
68.0579447403
 20
38.370937923
 30
0.0
 11
68.5079447403
 21
41.370937923
 31
0.0
 12
67.6079447403
 22
41.370937923
 32
0.0
 13
67.6079447403
 23
41.370937923
 33
0.0
  0
LINE
  5
1A4
330
19F
100
AcDbEntity
  8
VERMASSUNG
100
AcDbLine
 10
116.5579447403
 20
101.370937923
 30
0.0
 11
67.0579447403
 21
101.370937923
 31
0.0
  0
LINE
  5
1A5
330
19F
100
AcDbEntity
  8
VERMASSUNG
100
AcDbLine
 10
116.5579447403
 20
38.370937923
 30
0.0
 11
67.0579447403
 21
38.370937923
 31
0.0
  0
LINE
  5
1A6
330
19F
100
AcDbEntity
  8
VERMASSUNG
100
AcDbLine
 10
68.0579447403
 20
101.370937923
 30
0.0
 11
68.0579447403
 21
38.370937923
 31
0.0
  0
MTEXT
  5
1A7
330
19F
100
AcDbEntity
  8
VERMASSUNG
100
AcDbMText
 10
65.2798092513
 20
63.4659378138
 30
0.1
 40
2.0
 41
0.0
 71
     1
 72
     1
  1
PSC
  7
SLDTEXTSTYLE0
 11
-7.044195017643634E-15
 21
1.0
 31
0.0
 73
     1
 44
1.0
  0
MTEXT
  5
1A8
330
19F
100
AcDbEntity
  8
VERMASSUNG
100
AcDbMText
 10
65.4798092608
 20
68.0659379159
 30
0.1
 40
2.0
 41
0.0
 71
     1
 72
     1
  1
%%c
  7
SLDTEXTSTYLE0
 11
-7.044195017643634E-15
 21
1.0
 31
0.0
 73
     1
 44
1.0
  0
MTEXT
  5
1A9
330
19F
100
AcDbEntity
  8
VERMASSUNG
100
AcDbMText
 10
65.2798092513
 20
71.6759383958
 30
0.1
 40
2.0
 41
0.0
 71
     1
 72
     1
  1
63
  7
SLDTEXTSTYLE0
 11
-7.044195017643634E-15
 21
1.0
 31
0.0
 73
     1
 44
1.0
  0
ENDBLK
  5
1A1
330
19F
100
AcDbEntity
  8
0
100
AcDbBlockEnd
  0
BLOCK
  5
2E4
330
2E3
100
AcDbEntity
  8
0
100
AcDbBlockBegin
  2
_D_1
 70
     0
 10
0.0
 20
0.0
 30
0.0
  3
_D_1
  1

  0
SOLID
  5
2E6
330
2E3
100
AcDbEntity
  8
VERMASSUNG
100
AcDbTrace
 10
116.0579447403
 20
190.7753759453
 30
0.0
 11
119.0579447403
 21
190.3253759453
 31
0.0
 12
119.0579447403
 22
191.2253759453
 32
0.0
 13
119.0579447403
 23
191.2253759453
 33
0.0
  0
SOLID
  5
2E7
330
2E3
100
AcDbEntity
  8
VERMASSUNG
100
AcDbTrace
 10
246.0579447403
 20
190.7753759453
 30
0.0
 11
243.0579447403
 21
191.2253759453
 31
0.0
 12
243.0579447403
 22
190.3253759453
 32
0.0
 13
243.0579447403
 23
190.3253759453
 33
0.0
  0
LINE
  5
2E8
330
2E3
100
AcDbEntity
  8
VERMASSUNG
100
AcDbLine
 10
116.0579447403
 20
180.2753759453
 30
0.0
 11
116.0579447403
 21
191.7753759453
 31
0.0
  0
LINE
  5
2E9
330
2E3
100
AcDbEntity
  8
VERMASSUNG
100
AcDbLine
 10
246.0579447403
 20
154.4154906837
 30
0.0
 11
246.0579447403
 21
191.7753759453
 31
0.0
  0
LINE
  5
2EA
330
2E3
100
AcDbEntity
  8
VERMASSUNG
100
AcDbLine
 10
116.0579447403
 20
190.7753759453
 30
0.0
 11
246.0579447403
 21
190.7753759453
 31
0.0
  0
MTEXT
  5
2EB
330
2E3
100
AcDbEntity
  8
VERMASSUNG
100
AcDbMText
 10
178.2579446073
 20
193.3535113085
 30
0.1
 40
2.0
 41
0.0
 71
     1
 72
     1
  1
130
  7
SLDTEXTSTYLE0
 73
     1
 44
1.0
  0
ENDBLK
  5
2E5
330
2E3
100
AcDbEntity
  8
0
100
AcDbBlockEnd
  0
BLOCK
  5
2EE
330
2ED
100
AcDbEntity
  8
0
100
AcDbBlockBegin
  2
_D_2
 70
     0
 10
0.0
 20
0.0
 30
0.0
  3
_D_2
  1

  0
SOLID
  5
2F0
330
2ED
100
AcDbEntity
  8
VERMASSUNG
100
AcDbTrace
 10
78.0579447403
 20
196.7753759453
 30
0.0
 11
81.0579447403
 21
196.3253759453
 31
0.0
 12
81.0579447403
 22
197.2253759453
 32
0.0
 13
81.0579447403
 23
197.2253759453
 33
0.0
  0
SOLID
  5
2F1
330
2ED
100
AcDbEntity
  8
VERMASSUNG
100
AcDbTrace
 10
246.0579447403
 20
196.7753759453
 30
0.0
 11
243.0579447403
 21
197.2253759453
 31
0.0
 12
243.0579447403
 22
196.3253759453
 32
0.0
 13
243.0579447403
 23
196.3253759453
 33
0.0
  0
LINE
  5
2F2
330
2ED
100
AcDbEntity
  8
VERMASSUNG
100
AcDbLine
 10
78.0579447403
 20
169.4614917143
 30
0.0
 11
78.0579447403
 21
197.7753759453
 31
0.0
  0
LINE
  5
2F3
330
2ED
100
AcDbEntity
  8
VERMASSUNG
100
AcDbLine
 10
246.0579447403
 20
154.4154906837
 30
0.0
 11
246.0579447403
 21
197.7753759453
 31
0.0
  0
LINE
  5
2F4
330
2ED
100
AcDbEntity
  8
VERMASSUNG
100
AcDbLine
 10
78.0579447403
 20
196.7753759453
 30
0.0
 11
246.0579447403
 21
196.7753759453
 31
0.0
  0
MTEXT
  5
2F5
330
2ED
100
AcDbEntity
  8
VERMASSUNG
100
AcDbMText
 10
159.2579446073
 20
199.3535113085
 30
0.1
 40
2.0
 41
0.0
 71
     1
 72
     1
  1
168
  7
SLDTEXTSTYLE0
 73
     1
 44
1.0
  0
ENDBLK
  5
2EF
330
2ED
100
AcDbEntity
  8
0
100
AcDbBlockEnd
  0
ENDSEC
  0
SECTION
  2
ENTITIES
  0
MTEXT
  5
49
330
1F
100
AcDbEntity
  8
KOPF_DÜNN
100
AcDbMText
 10
13.8892156294
 20
23.8442973028
 30
0.0
 40
3.0
 41
0.0
 71
     1
 72
     1
  1
PS6.PDF.NNA.130
  7
SLDTEXTSTYLE0
 73
     1
 44
1.0
  0
MTEXT
  5
4A
330
1F
100
AcDbEntity
  8
VERMASSUNG
100
AcDbMText
 10
13.9329988022
 20
28.8834360957
 30
0.0
 40
3.0
 41
0.0
 71
     1
 72
     1
  1
Klemmhalter_Turning tool neutral
  7
SLDTEXTSTYLE0
 73
     1
 44
1.0
  0
MTEXT
  5
4B
330
1F
100
AcDbEntity
  8
VERMASSUNG
100
AcDbMText
 10
98.8601118557
 20
13.8365368179
 30
0.0
 40
2.0
 41
0.0
 71
     1
 72
     1
  1
Datum: 31.05.2012
  7
SLDTEXTSTYLE0
 73
     1
 44
1.0
  0
MTEXT
  5
4D
330
1F
100
AcDbEntity
  8
VERMASSUNG
100
AcDbMText
 10
13.933048693
 20
18.0482802738
 30
0.0
 40
2.0
 41
0.0
 71
     1
 72
     1
  1
PSC ø63 / DN.. 15 06 .. / 62.5° / 55° / 62.5°
  7
SLDTEXTSTYLE1
 73
     1
 44
1.0
  0
MTEXT
  5
4E
330
1F
100
AcDbEntity
  8
VERMASSUNG
100
AcDbMText
 10
13.9808475933
 20
13.9090973692
 30
0.0
 40
2.0
 41
0.0
 71
     1
 72
     1
  1
Gewicht: 2398g
  7
SLDTEXTSTYLE0
 73
     1
 44
1.0
  0
LINE
  5
4F
330
1F
100
AcDbEntity
  8
0
  6
Continuous
 62
     7
370
    15
100
AcDbLine
 10
183.3277224825
 20
101.370937923
 30
0.0
 11
116.5579447403
 21
101.370937923
 31
0.0
  0
LINE
  5
50
330
1F
100
AcDbEntity
  8
0
  6
Continuous
 62
     7
370
    15
100
AcDbLine
 10
116.5579447403
 20
38.370937923
 30
0.0
 11
183.3277224825
 21
38.370937923
 31
0.0
  0
ARC
  5
51
330
1F
100
AcDbEntity
  8
0
  6
Continuous
 62
     7
370
    15
100
AcDbCircle
 10
116.5579447403
 20
38.870937923
 30
0.0
 40
0.5000000000000284
100
AcDbArc
 50
180.0
 51
270.0
  0
ARC
  5
52
330
1F
100
AcDbEntity
  8
0
  6
Continuous
 62
     7
370
    15
100
AcDbCircle
 10
116.5579447403
 20
100.870937923
 30
0.0
 40
0.5000000000000142
100
AcDbArc
 50
90.0
 51
180.0
  0
LWPOLYLINE
  5
53
330
1F
100
AcDbEntity
  8
0
  6
Continuous
 62
     7
370
    15
100
AcDbPolyline
 90
        3
 70
   128
 43
0.0
 10
115.8579447403
 20
47.3311176441
 10
115.9833996838
 20
47.2628155292
 10
116.0579447403
 20
47.2100777711
  0
LWPOLYLINE
  5
54
330
1F
100
AcDbEntity
  8
0
  6
Continuous
 62
     7
370
    15
100
AcDbPolyline
 90
        3
 70
   128
 43
0.0
 10
116.0579447403
 20
92.531798075
 10
115.9833996838
 20
92.4790603168
 10
115.8579447403
 20
92.4107582019
  0
LINE
  5
55
330
1F
100
AcDbEntity
  8
0
  6
Continuous
 62
     7
370
    15
100
AcDbLine
 10
231.4566497513
 20
62.8394445073
 30
0.0
 11
231.6320761229
 21
62.8394445073
 31
0.0
  0
LINE
  5
56
330
1F
100
AcDbEntity
  8
0
  6
Continuous
 62
     7
370
    15
100
AcDbLine
 10
231.6320761229
 20
76.9024313388
 30
0.0
 11
231.4566497513
 21
76.9024313388
 31
0.0
  0
LINE
  5
57
330
1F
100
AcDbEntity
  8
0
  6
Continuous
 62
     7
370
    15
100
AcDbLine
 10
232.6651160375
 20
71.9344393289
 30
0.0
 11
231.8626990321
 21
72.0621963145
 31
0.0
  0
LINE
  5
58
330
1F
100
AcDbEntity
  8
0
  6
Continuous
 62
     7
370
    15
100
AcDbLine
 10
232.9757229752
 20
76.9788605069
 30
0.0
 11
231.873057047
 21
76.9788605069
 31
0.0
  0
LINE
  5
59
330
1F
100
AcDbEntity
  8
0
  6
Continuous
 62
     7
370
    15
100
AcDbLine
 10
231.873057047
 20
62.7630153392
 30
0.0
 11
232.9757229752
 21
62.7630153392
 31
0.0
  0
SPLINE
  5
5A
330
1F
100
AcDbEntity
  8
0
  6
Continuous
 62
     7
370
    15
100
AcDbSpline
210
0.0
220
0.0
230
1.0
 70
     8
 71
     3
 72
    12
 73
     8
 74
     0
 42
0.00000001
 43
0.00000001
 12
1.0
 22
0.0
 32
0.0
 13
1.0
 23
0.0
 33
0.0
 40
0.0
 40
0.0
 40
0.0
 40
0.0
 40
0.5000000000000047
 40
0.5000000000000047
 40
0.7500000000000023
 40
0.7500000000000023
 40
1.0
 40
1.0
 40
1.0
 40
1.0
 10
126.15268885197
 20
79.78030724370844
 30
0.0
 10
126.1834110938891
 20
79.66775144429924
 30
0.0
 10
126.2262483084243
 20
79.55499358455968
 30
0.0
 10
126.3256753326241
 20
79.40545269876331
 30
0.0
 10
126.3654275274407
 20
79.35815996705651
 30
0.0
 10
126.4634689842989
 20
79.28442367373506
 30
0.0
 10
126.5230250398863
 20
79.25900435435932
 30
0.0
 10
126.5857015538622
 20
79.25900435435932
 30
0.0
  0
LINE
  5
5B
330
1F
100
AcDbEntity
  8
0
  6
Continuous
 62
     7
370
    15
100
AcDbLine
 10
126.5857015539
 20
79.2590043544
 30
0.0
 11
129.5301879267
 21
79.2590043544
 31
0.0
  0
SPLINE
  5
5C
330
1F
100
AcDbEntity
  8
0
  6
Continuous
 62
     7
370
    15
100
AcDbSpline
210
0.0
220
0.0
230
1.0
 70
     8
 71
     3
 72
    12
 73
     8
 74
     0
 42
0.00000001
 43
0.00000001
 12
1.0
 22
0.0
 32
0.0
 13
1.0
 23
0.0
 33
0.0
 40
0.0
 40
0.0
 40
0.0
 40
0.0
 40
0.2500000000000009
 40
0.2500000000000009
 40
0.5000000000000018
 40
0.5000000000000018
 40
1.0
 40
1.0
 40
1.0
 40
1.0
 10
129.5301879267293
 20
79.2590043543593
 30
0.0
 10
129.5932679652226
 20
79.2590043543593
 30
0.0
 10
129.652416587404
 20
79.28436867357429
 30
0.0
 10
129.7508891374731
 20
79.3585335339472
 30
0.0
 10
129.7899257494578
 20
79.40505387450126
 30
0.0
 10
129.8898222162368
 20
79.55519621734652
 30
0.0
 10
129.9322430973035
 20
79.66688942431864
 30
0.0
 10
129.9632006286215
 20
79.78030724370842
 30
0.0
  0
ELLIPSE
  5
5D
330
1F
100
AcDbEntity
  8
0
  6
Continuous
 62
     7
370
    15
100
AcDbEllipse
 10
113.7107905509
 20
69.870937923
 30
0.0
 11
14.75368316065602
 21
31.09325491558116
 31
0.0
210
0.0
220
0.0
230
1.0
 40
0.3419987131
 41
5.193281737408619
 42
6.124043104552319
  0
SPLINE
  5
5E
330
1F
100
AcDbEntity
  8
0
  6
Continuous
 62
     7
370
    15
100
AcDbSpline
210
0.0
220
0.0
230
1.0
 70
     8
 71
     3
 72
    12
 73
     8
 74
     0
 42
0.00000001
 43
0.00000001
 12
1.0
 22
0.0
 32
0.0
 13
1.0
 23
0.0
 33
0.0
 40
0.0
 40
0.0
 40
0.0
 40
0.0
 40
0.5000000000000018
 40
0.5000000000000018
 40
0.7500000000000009
 40
0.7500000000000009
 40
1.0
 40
1.0
 40
1.0
 40
1.0
 10
129.9632006286215
 20
99.77168038314052
 30
0.0
 10
129.9324783867023
 20
99.80898236609357
 30
0.0
 10
129.8896411721672
 20
99.84559419813996
 30
0.0
 10
129.7902141479674
 20
99.89335898142515
 30
0.0
 10
129.7504619531508
 20
99.90831649690753
 30
0.0
 10
129.6524204962925
 20
99.93150644267665
 30
0.0
 10
129.5928644407051
 20
99.93942988189646
 30
0.0
 10
129.5301879267293
 20
99.93942988189646
 30
0.0
  0
LINE
  5
5F
330
1F
100
AcDbEntity
  8
0
  6
Continuous
 62
     7
370
    15
100
AcDbLine
 10
129.5301879267
 20
99.9394298819
 30
0.0
 11
126.5857015539
 21
99.9394298819
 31
0.0
  0
SPLINE
  5
60
330
1F
100
AcDbEntity
  8
0
  6
Continuous
 62
     7
370
    15
100
AcDbSpline
210
0.0
220
0.0
230
1.0
 70
     8
 71
     3
 72
    12
 73
     8
 74
     0
 42
0.00000001
 43
0.00000001
 12
1.0
 22
0.0
 32
0.0
 13
1.0
 23
0.0
 33
0.0
 40
0.0
 40
0.0
 40
0.0
 40
0.0
 40
0.2500000000000009
 40
0.2500000000000009
 40
0.5000000000000018
 40
0.5000000000000018
 40
1.0
 40
1.0
 40
1.0
 40
1.0
 10
126.5857015538622
 20
99.93942988189644
 30
0.0
 10
126.5226215153688
 20
99.93942988189646
 30
0.0
 10
126.4634728931875
 20
99.93152395568393
 30
0.0
 10
126.3650003431184
 20
99.9081987942477
 30
0.0
 10
126.3259637311337
 20
99.893486004416
 30
0.0
 10
126.2260672643546
 20
99.84553020368509
 30
0.0
 10
126.183646383288
 20
99.80926804710504
 30
0.0
 10
126.15268885197
 20
99.77168038314053
 30
0.0
  0
ELLIPSE
  5
61
330
1F
100
AcDbEntity
  8
0
  6
Continuous
 62
     7
370
    15
100
AcDbEllipse
 10
142.4050989297
 20
69.870937923
 30
0.0
 11
-14.75368316065606
 21
31.09325491558114
 31
0.0
210
0.0
220
0.0
230
1.0
 40
0.3419987131
 41
0.159142202627301
 42
1.089903569770978
  0
SPLINE
  5
62
330
1F
100
AcDbEntity
  8
0
  6
Continuous
 62
     7
370
    15
100
AcDbSpline
210
0.0
220
0.0
230
1.0
 70
     8
 71
     3
 72
    12
 73
     8
 74
     0
 42
0.00000001
 43
0.00000001
 12
1.0
 22
0.0
 32
0.0
 13
1.0
 23
0.0
 33
0.0
 40
0.0
 40
0.0
 40
0.0
 40
0.0
 40
0.5000000000000019
 40
0.5000000000000019
 40
0.7500000000000009
 40
0.7500000000000009
 40
1.0
 40
1.0
 40
1.0
 40
1.0
 10
126.15268885197
 20
39.97019546290613
 30
0.0
 10
126.183411093889
 20
39.93289347995307
 30
0.0
 10
126.2262483084243
 20
39.8962816479067
 30
0.0
 10
126.325675332624
 20
39.84851686462149
 30
0.0
 10
126.3654275274407
 20
39.83355934913914
 30
0.0
 10
126.4634689842989
 20
39.81036940337
 30
0.0
 10
126.5230250398863
 20
39.80244596415027
 30
0.0
 10
126.5857015538621
 20
39.80244596415027
 30
0.0
  0
LINE
  5
63
330
1F
100
AcDbEntity
  8
0
  6
Continuous
 62
     7
370
    15
100
AcDbLine
 10
126.5857015539
 20
39.8024459642
 30
0.0
 11
129.5301879267
 21
39.8024459642
 31
0.0
  0
SPLINE
  5
64
330
1F
100
AcDbEntity
  8
0
  6
Continuous
 62
     7
370
    15
100
AcDbSpline
210
0.0
220
0.0
230
1.0
 70
     8
 71
     3
 72
    12
 73
     8
 74
     0
 42
0.00000001
 43
0.00000001
 12
1.0
 22
0.0
 32
0.0
 13
1.0
 23
0.0
 33
0.0
 40
0.0
 40
0.0
 40
0.0
 40
0.0
 40
0.2499999999999995
 40
0.2499999999999995
 40
0.499999999999999
 40
0.499999999999999
 40
1.0
 40
1.0
 40
1.0
 40
1.0
 10
129.5301879267293
 20
39.80244596415029
 30
0.0
 10
129.5932679652226
 20
39.80244596415029
 30
0.0
 10
129.652416587404
 20
39.81035189036271
 30
0.0
 10
129.7508891374731
 20
39.83367705179896
 30
0.0
 10
129.7899257494578
 20
39.84838984163063
 30
0.0
 10
129.8898222162368
 20
39.89634564236158
 30
0.0
 10
129.9322430973036
 20
39.9326077989416
 30
0.0
 10
129.9632006286215
 20
39.97019546290613
 30
0.0
  0
ELLIPSE
  5
65
330
1F
100
AcDbEntity
  8
0
  6
Continuous
 62
     7
370
    15
100
AcDbEllipse
 10
113.7107905509
 20
69.870937923
 30
0.0
 11
-14.75368316065618
 21
31.09325491558114
 31
0.0
210
0.0
220
0.0
230
1.0
 40
0.3419987131
 41
3.300734856217121
 42
4.231496223360772
  0
SPLINE
  5
66
330
1F
100
AcDbEntity
  8
0
  6
Continuous
 62
     7
370
    15
100
AcDbSpline
210
0.0
220
0.0
230
1.0
 70
     8
 71
     3
 72
    12
 73
     8
 74
     0
 42
0.00000001
 43
0.00000001
 12
1.0
 22
0.0
 32
0.0
 13
1.0
 23
0.0
 33
0.0
 40
0.0
 40
0.0
 40
0.0
 40
0.0
 40
0.4999999999999971
 40
0.4999999999999971
 40
0.7499999999999986
 40
0.7499999999999986
 40
1.0
 40
1.0
 40
1.0
 40
1.0
 10
129.9632006286215
 20
59.961568602338
 30
0.0
 10
129.9324783867023
 20
60.07412440174716
 30
0.0
 10
129.8896411721672
 20
60.18688226148676
 30
0.0
 10
129.7902141479674
 20
60.33642314728309
 30
0.0
 10
129.7504619531508
 20
60.38371587898994
 30
0.0
 10
129.6524204962925
 20
60.45745217231135
 30
0.0
 10
129.5928644407051
 20
60.48287149168714
 30
0.0
 10
129.5301879267293
 20
60.48287149168714
 30
0.0
  0
LINE
  5
67
330
1F
100
AcDbEntity
  8
0
  6
Continuous
 62
     7
370
    15
100
AcDbLine
 10
129.5301879267
 20
60.4828714917
 30
0.0
 11
126.5857015539
 21
60.4828714917
 31
0.0
  0
SPLINE
  5
68
330
1F
100
AcDbEntity
  8
0
  6
Continuous
 62
     7
370
    15
100
AcDbSpline
210
0.0
220
0.0
230
1.0
 70
     8
 71
     3
 72
    12
 73
     8
 74
     0
 42
0.00000001
 43
0.00000001
 12
1.0
 22
0.0
 32
0.0
 13
1.0
 23
0.0
 33
0.0
 40
0.0
 40
0.0
 40
0.0
 40
0.0
 40
0.25
 40
0.25
 40
0.5
 40
0.5
 40
1.0
 40
1.0
 40
1.0
 40
1.0
 10
126.5857015538622
 20
60.48287149168713
 30
0.0
 10
126.5226215153688
 20
60.48287149168713
 30
0.0
 10
126.4634728931874
 20
60.45750717247208
 30
0.0
 10
126.3650003431183
 20
60.3833423120992
 30
0.0
 10
126.3259637311336
 20
60.33682197154508
 30
0.0
 10
126.2260672643545
 20
60.18667962869986
 30
0.0
 10
126.183646383288
 20
60.07498642172772
 30
0.0
 10
126.15268885197
 20
59.96156860233797
 30
0.0
  0
ELLIPSE
  5
69
330
1F
100
AcDbEntity
  8
0
  6
Continuous
 62
     7
370
    15
100
AcDbEllipse
 10
142.4050989297
 20
69.870937923
 30
0.0
 11
14.75368316065621
 21
31.09325491558114
 31
0.0
210
0.0
220
0.0
230
1.0
 40
0.3419987131
 41
2.051689083818827
 42
2.982450450962504
  0
ELLIPSE
  5
6A
330
1F
100
AcDbEntity
  8
0
  6
Continuous
 62
     7
370
    15
100
AcDbEllipse
 10
200.2441601782
 20
69.870937923
 30
0.0
 11
-2.842170943040400E-14
 21
31.49999999999998
 31
0.0
210
0.0
220
0.0
230
1.0
 40
0.2679491924
 41
0.5621849307386938
 42
2.57940772285108
  0
ELLIPSE
  5
6B
330
1F
100
AcDbEntity
  8
0
  6
Continuous
 62
     7
370
    15
100
AcDbEllipse
 10
244.772138222
 20
69.870937923
 30
0.0
 11
61.6842815204739
 21
31.41939029509007
 31
0.0
210
0.0
220
0.0
230
1.0
 40
0.0365099643
 41
3.213148651838492
 42
3.77533358257705
  0
ELLIPSE
  5
6C
330
1F
100
AcDbEntity
  8
0
  6
Continuous
 62
     7
370
    15
100
AcDbEllipse
 10
244.772138222
 20
69.870937923
 30
0.0
 11
61.68428152047378
 21
-31.41939029508999
 31
0.0
210
0.0
220
0.0
230
1.0
 40
0.0365099643
 41
2.507851724602776
 42
3.07003665534145
  0
SPLINE
  5
6D
330
1F
100
AcDbEntity
  8
0
  6
Continuous
 62
     7
370
    15
100
AcDbSpline
210
0.0
220
0.0
230
1.0
 70
     8
 71
     3
 72
    68
 73
    64
 74
     0
 42
0.00000001
 43
0.00000001
 12
1.0
 22
0.0
 32
0.0
 13
1.0
 23
0.0
 33
0.0
 40
-0.0625
 40
-0.0625
 40
0.0
 40
0.0
 40
0.03125
 40
0.03125
 40
0.0625
 40
0.0625
 40
0.09375
 40
0.09375
 40
0.125
 40
0.125
 40
0.15625
 40
0.15625
 40
0.1875
 40
0.1875
 40
0.21875
 40
0.21875
 40
0.25
 40
0.25
 40
0.28125
 40
0.28125
 40
0.3125
 40
0.3125
 40
0.34375
 40
0.34375
 40
0.375
 40
0.375
 40
0.40625
 40
0.40625
 40
0.4375
 40
0.4375
 40
0.46875
 40
0.46875
 40
0.5
 40
0.5
 40
0.53125
 40
0.53125
 40
0.5625
 40
0.5625
 40
0.59375
 40
0.59375
 40
0.625
 40
0.625
 40
0.65625
 40
0.65625
 40
0.6875
 40
0.6875
 40
0.71875
 40
0.71875
 40
0.75
 40
0.75
 40
0.78125
 40
0.78125
 40
0.8125
 40
0.8125
 40
0.84375
 40
0.84375
 40
0.875
 40
0.875
 40
0.90625
 40
0.90625
 40
0.9375
 40
0.9375
 40
1.0
 40
1.0
 40
1.03125
 40
1.03125
 10
183.4545743606656
 20
66.87093792302342
 30
0.0
 10
182.8596299301109
 20
66.87093792302342
 30
0.0
 10
182.6646516838613
 20
66.89040860866642
 30
0.0
 10
182.2810884587156
 20
66.96667747675652
 30
0.0
 10
182.0905076832535
 20
67.02440942224692
 30
0.0
 10
181.7272583964667
 20
67.17502753515474
 30
0.0
 10
181.5549916574707
 20
67.26718047445853
 30
0.0
 10
181.2289699407628
 20
67.48488008575215
 30
0.0
 10
181.0746945739862
 20
67.61151987349366
 30
0.0
 10
180.7981316527351
 20
67.88813789427688
 30
0.0
 10
180.6739887624197
 20
68.03909283242602
 30
0.0
 10
180.4546739900487
 20
68.36698182615582
 30
0.0
 10
180.3615435346454
 20
68.54143133385071
 30
0.0
 10
180.2118892041193
 20
68.90236416874065
 30
0.0
 10
180.1542422341275
 20
69.09151668892703
 30
0.0
 10
180.077135672305
 20
69.47881166188711
 30
0.0
 10
180.0580518909616
 20
69.67353340351306
 30
0.0
 10
180.0578384808842
 20
70.06507211385244
 30
0.0
 10
180.0773337713837
 20
70.26393856876919
 30
0.0
 10
180.1539036458608
 20
70.64877889480887
 30
0.0
 10
180.2105568870699
 20
70.83583851233033
 30
0.0
 10
180.3608328378792
 20
71.19918418023106
 30
0.0
 10
180.4547165002917
 20
71.37472826594012
 30
0.0
 10
180.6717817003881
 20
71.69971035610057
 30
0.0
 10
180.7957129566629
 20
71.85122320160782
 30
0.0
 10
181.0756698018152
 20
72.13142647546702
 30
0.0
 10
181.227128952717
 20
72.25553056050995
 30
0.0
 10
181.5518619616647
 20
72.47283783630093
 30
0.0
 10
181.7272264004811
 20
72.56683518770065
 30
0.0
 10
182.0905434193809
 20
72.71748109780671
 30
0.0
 10
182.2775348723714
 20
72.77428289517492
 30
0.0
 10
182.6621063707282
 20
72.85116670190084
 30
0.0
 10
182.8610142238475
 20
72.87086599407807
 30
0.0
 10
183.2526776235441
 20
72.87100944950276
 30
0.0
 10
183.447385359931
 20
72.85209060513107
 30
0.0
 10
183.834502423586
 20
72.77539888416277
 30
0.0
 10
184.0239734263129
 20
72.71786084802157
 30
0.0
 10
184.3851059243305
 20
72.56849695938938
 30
0.0
 10
184.5595251736908
 20
72.47558487685554
 30
0.0
 10
184.8877232114947
 20
72.25648614060331
 30
0.0
 10
185.0388014489452
 20
72.13245336328461
 30
0.0
 10
185.3156375419728
 20
71.85615040535295
 30
0.0
 10
185.4424013584854
 20
71.70200184828495
 30
0.0
 10
185.6604058966422
 20
71.37613704344906
 30
0.0
 10
185.7526870761723
 20
71.20397541391281
 30
0.0
 10
185.9035667633377
 20
70.84102065705228
 30
0.0
 10
185.9615131978078
 20
70.6503785005862
 30
0.0
 10
186.0381253802225
 20
70.26686816285893
 30
0.0
 10
186.0577534002378
 20
70.0719747651354
 30
0.0
 10
186.0581333234829
 20
69.67565281487889
 30
0.0
 10
186.0388209829783
 20
69.48029058063642
 30
0.0
 10
185.9629003663016
 20
69.09668904104767
 30
0.0
 10
185.9053945973355
 20
68.90619618734343
 30
0.0
 10
185.7550344507464
 20
68.54262907388484
 30
0.0
 10
185.663015162855
 20
68.37026925660741
 30
0.0
 10
185.4456711478649
 20
68.04414812793134
 30
0.0
 10
185.3191517277333
 20
67.88972339567668
 30
0.0
 10
185.0427181082736
 20
67.61285406249647
 30
0.0
 10
184.8918885181972
 20
67.48860482783724
 30
0.0
 10
184.5643769259571
 20
67.26910725464269
 30
0.0
 10
184.3898283928689
 20
67.17570997622151
 30
0.0
 10
183.8486235244973
 20
66.95074990560617
 30
0.0
 10
183.4545743606656
 20
66.87093792302342
 30
0.0
 10
182.8596299301109
 20
66.87093792302342
 30
0.0
  0
LINE
  5
6E
330
1F
100
AcDbEntity
  8
0
  6
Continuous
 62
     7
370
    15
100
AcDbLine
 10
116.0579447403
 20
38.870937923
 30
0.0
 11
116.0579447403
 21
100.8709379207
 31
0.0
  0
ELLIPSE
  5
6F
330
1F
100
AcDbEntity
  8
0
  6
Continuous
 62
     7
370
    15
100
AcDbEllipse
 10
195.8751469301
 20
69.870937923
 30
0.0
 11
0.0
 21
2.5
 31
0.0
210
0.0
220
0.0
230
1.0
 40
0.3086063289
 41
0.0
 42
6.283185307179586
  0
LINE
  5
70
330
1F
100
AcDbEntity
  8
0
  6
Continuous
 62
     7
370
    15
100
AcDbLine
 10
197.0686292409
 20
44.3440308701
 30
0.0
 11
195.7451223255
 21
43.2190246606
 31
0.0
  0
LINE
  5
71
330
1F
100
AcDbEntity
  8
0
  6
Continuous
 62
     7
370
    15
100
AcDbLine
 10
197.0686292409
 20
95.397844976
 30
0.0
 11
195.7451223255
 21
96.5228511854
 31
0.0
  0
SPLINE
  5
72
330
1F
100
AcDbEntity
  8
0
  6
Continuous
 62
     7
370
    15
100
AcDbSpline
210
0.0
220
0.0
230
1.0
 70
     8
 71
     3
 72
    12
 73
     8
 74
     0
 42
0.00000001
 43
0.00000001
 12
1.0
 22
0.0
 32
0.0
 13
1.0
 23
0.0
 33
0.0
 40
0.0
 40
0.0
 40
0.0
 40
0.0
 40
0.4999999999999998
 40
0.4999999999999998
 40
0.7499999999999997
 40
0.7499999999999997
 40
1.0
 40
1.0
 40
1.0
 40
1.0
 10
115.2414324538392
 20
48.01614422054756
 30
0.0
 10
115.2978689547464
 20
48.01472633920582
 30
0.0
 10
115.3669535854351
 20
48.01316200295751
 30
0.0
 10
115.4857558571531
 20
48.01021781098306
 30
0.0
 10
115.5259411326231
 20
48.00917960788567
 30
0.0
 10
115.599322180027
 20
48.00724571267104
 30
0.0
 10
115.6327317437696
 20
48.00635082538223
 30
0.0
 10
115.6629678514261
 20
48.0055670351099
 30
0.0
  0
SPLINE
  5
73
330
1F
100
AcDbEntity
  8
0
  6
Continuous
 62
     7
370
    15
100
AcDbSpline
210
0.0
220
0.0
230
1.0
 70
     8
 71
     3
 72
    16
 73
    12
 74
     0
 42
0.00000001
 43
0.00000001
 12
1.0
 22
0.0
 32
0.0
 13
1.0
 23
0.0
 33
0.0
 40
0.0
 40
0.0
 40
0.0
 40
0.0
 40
0.0624999999999978
 40
0.0624999999999978
 40
0.1249999999999956
 40
0.1249999999999956
 40
0.249999999999998
 40
0.249999999999998
 40
0.4999999999999998
 40
0.4999999999999998
 40
1.0
 40
1.0
 40
1.0
 40
1.0
 10
115.6629678513889
 20
48.00556703513414
 30
0.0
 10
115.6745482589768
 20
48.00526684402278
 30
0.0
 10
115.6878577857381
 20
48.00393909576379
 30
0.0
 10
115.7171592158242
 20
47.99724042098879
 30
0.0
 10
115.7319733157085
 20
47.99188223788309
 30
0.0
 10
115.7678017174114
 20
47.97483658871575
 30
0.0
 10
115.7819213417744
 20
47.96337405094002
 30
0.0
 10
115.8164254858629
 20
47.93181072556776
 30
0.0
 10
115.8275300365675
 20
47.91391342652249
 30
0.0
 10
115.8537062137837
 20
47.86375200890824
 30
0.0
 10
115.8579447402957
 20
47.83600759671167
 30
0.0
 10
115.8579447402957
 20
47.81134343478213
 30
0.0
  0
LINE
  5
74
330
1F
100
AcDbEntity
  8
0
  6
Continuous
 62
     7
370
    15
100
AcDbLine
 10
115.8579447403
 20
62.8490505973
 30
0.0
 11
115.8579447403
 21
47.3311176441
 31
0.0
  0
SPLINE
  5
75
330
1F
100
AcDbEntity
  8
0
  6
Continuous
 62
     7
370
    15
100
AcDbSpline
210
0.0
220
0.0
230
1.0
 70
     8
 71
     3
 72
    16
 73
    12
 74
     0
 42
0.00000001
 43
0.00000001
 12
1.0
 22
0.0
 32
0.0
 13
1.0
 23
0.0
 33
0.0
 40
0.0
 40
0.0
 40
0.0
 40
0.0
 40
0.4999999999999986
 40
0.4999999999999986
 40
0.7500000000000012
 40
0.7500000000000012
 40
0.875
 40
0.875
 40
0.9375
 40
0.9375
 40
1.0
 40
1.0
 40
1.0
 40
1.0
 10
115.8579447402957
 20
62.84905059727335
 30
0.0
 10
115.8579447402957
 20
62.96274314140124
 30
0.0
 10
115.8537984652177
 20
63.07706330275074
 30
0.0
 10
115.8278328698242
 20
63.25011159324785
 30
0.0
 10
115.8163719644468
 20
63.30928710040958
 30
0.0
 10
115.7820602266725
 20
63.39241021987772
 30
0.0
 10
115.7680354907429
 20
63.42053153597842
 30
0.0
 10
115.732012527709
 20
63.44914734995585
 30
0.0
 10
115.7172580186193
 20
63.45494039785768
 30
0.0
 10
115.6879058574725
 20
63.45334697192064
 30
0.0
 10
115.6745659829683
 20
63.44685056859681
 30
0.0
 10
115.66296785142
 20
63.43833482239368
 30
0.0
  0
SPLINE
  5
76
330
1F
100
AcDbEntity
  8
0
  6
Continuous
 62
     7
370
    15
100
AcDbSpline
210
0.0
220
0.0
230
1.0
 70
     8
 71
     3
 72
    12
 73
     8
 74
     0
 42
0.00000001
 43
0.00000001
 12
1.0
 22
0.0
 32
0.0
 13
1.0
 23
0.0
 33
0.0
 40
0.0
 40
0.0
 40
0.0
 40
0.0
 40
0.2500000000000001
 40
0.2500000000000001
 40
0.5000000000000001
 40
0.5000000000000001
 40
1.0
 40
1.0
 40
1.0
 40
1.0
 10
115.6629678514271
 20
63.4383348223845
 30
0.0
 10
115.6327694099865
 20
63.41616209033945
 30
0.0
 10
115.5994020546505
 20
63.39708243446222
 30
0.0
 10
115.5262467788206
 20
63.37190939001952
 30
0.0
 10
115.4859940797966
 20
63.36635285360273
 30
0.0
 10
115.3682653365218
 20
63.37726466458948
 30
0.0
 10
115.2978068884629
 20
63.41920042000028
 30
0.0
 10
115.2414324538446
 20
63.46841220238183
 30
0.0
  0
SPLINE
  5
77
330
1F
100
AcDbEntity
  8
0
  6
Continuous
 62
     7
370
    15
100
AcDbSpline
210
0.0
220
0.0
230
1.0
 70
     8
 71
     3
 72
    12
 73
     8
 74
     0
 42
0.00000001
 43
0.00000001
 12
1.0
 22
0.0
 32
0.0
 13
1.0
 23
0.0
 33
0.0
 40
0.0
 40
0.0
 40
0.0
 40
0.0
 40
0.4999999999999978
 40
0.4999999999999978
 40
0.7499999999999989
 40
0.7499999999999989
 40
1.0
 40
1.0
 40
1.0
 40
1.0
 10
114.736624396736
 20
64.68476359426232
 30
0.0
 10
114.7803747486205
 20
64.46431660928779
 30
0.0
 10
114.8332648997449
 20
64.24877161948224
 30
0.0
 10
114.9448764428866
 20
63.93635754291032
 30
0.0
 10
114.9874357867901
 20
63.83427806729441
 30
0.0
 10
115.0924130221276
 20
63.63983805465265
 30
0.0
 10
115.1539802652222
 20
63.54475315558898
 30
0.0
 10
115.2414324538445
 20
63.46841220238179
 30
0.0
  0
SPLINE
  5
78
330
1F
100
AcDbEntity
  8
0
  6
Continuous
 62
     7
370
    15
100
AcDbSpline
210
0.0
220
0.0
230
1.0
 70
     8
 71
     3
 72
    12
 73
     8
 74
     0
 42
0.00000001
 43
0.00000001
 12
1.0
 22
0.0
 32
0.0
 13
1.0
 23
0.0
 33
0.0
 40
0.0
 40
0.0
 40
0.0
 40
0.0
 40
0.2499999999999992
 40
0.2499999999999992
 40
0.4999999999999983
 40
0.4999999999999983
 40
1.0
 40
1.0
 40
1.0
 40
1.0
 10
115.2414324538444
 20
76.27346364366497
 30
0.0
 10
115.1529390462766
 20
76.19621376355667
 30
0.0
 10
115.0928810055107
 20
76.10289443966747
 30
0.0
 10
114.9870327325281
 20
75.90686138669801
 30
0.0
 10
114.9444992112506
 20
75.80453502848626
 30
0.0
 10
114.833347904427
 20
75.49319062271039
 30
0.0
 10
114.7804170473792
 20
75.27777236953239
 30
0.0
 10
114.736624396736
 20
75.05711225178452
 30
0.0
  0
SPLINE
  5
79
330
1F
100
AcDbEntity
  8
0
  6
Continuous
 62
     7
370
    15
100
AcDbSpline
210
0.0
220
0.0
230
1.0
 70
     8
 71
     3
 72
    12
 73
     8
 74
     0
 42
0.00000001
 43
0.00000001
 12
1.0
 22
0.0
 32
0.0
 13
1.0
 23
0.0
 33
0.0
 40
0.0
 40
0.0
 40
0.0
 40
0.0
 40
0.5000000000000002
 40
0.5000000000000002
 40
0.7500000000000001
 40
0.7500000000000001
 40
1.0
 40
1.0
 40
1.0
 40
1.0
 10
115.2414324538445
 20
76.27346364366494
 30
0.0
 10
115.2977410021401
 20
76.32261791090878
 30
0.0
 10
115.3680156628582
 20
76.36457522951251
 30
0.0
 10
115.4860535771818
 20
76.37553490704494
 30
0.0
 10
115.5262298180357
 20
76.37002614879756
 30
0.0
 10
115.6001869127137
 20
76.34446892000861
 30
0.0
 10
115.6328033004251
 20
76.3256888721693
 30
0.0
 10
115.6629678514208
 20
76.30354102365258
 30
0.0
  0
SPLINE
  5
7A
330
1F
100
AcDbEntity
  8
0
  6
Continuous
 62
     7
370
    15
100
AcDbSpline
210
0.0
220
0.0
230
1.0
 70
     8
 71
     3
 72
    16
 73
    12
 74
     0
 42
0.00000001
 43
0.00000001
 12
1.0
 22
0.0
 32
0.0
 13
1.0
 23
0.0
 33
0.0
 40
0.0
 40
0.0
 40
0.0
 40
0.0
 40
0.0624999999999993
 40
0.0624999999999993
 40
0.1249999999999986
 40
0.1249999999999986
 40
0.2499999999999991
 40
0.2499999999999991
 40
0.4999999999999983
 40
0.4999999999999983
 40
1.0
 40
1.0
 40
1.0
 40
1.0
 10
115.662967851389
 20
76.30354102359803
 30
0.0
 10
115.6745807512284
 20
76.29501443400278
 30
0.0
 10
115.6879319356609
 20
76.28851417247002
 30
0.0
 10
115.71733177528
 20
76.28694477535245
 30
0.0
 10
115.7321724998354
 20
76.2928281659831
 30
0.0
 10
115.768005707804
 20
76.32137580203361
 30
0.0
 10
115.7821189156255
 20
76.34954282133943
 30
0.0
 10
115.8166102868444
 20
76.43329707976136
 30
0.0
 10
115.8276943579548
 20
76.4910104933828
 30
0.0
 10
115.8538171757508
 20
76.66460103002866
 30
0.0
 10
115.8579447402957
 20
76.77962908267061
 30
0.0
 10
115.8579447402957
 20
76.89282524877346
 30
0.0
  0
LINE
  5
7B
330
1F
100
AcDbEntity
  8
0
  6
Continuous
 62
     7
370
    15
100
AcDbLine
 10
115.8579447403
 20
92.4107582019
 30
0.0
 11
115.8579447403
 21
76.8928252488
 31
0.0
  0
SPLINE
  5
7C
330
1F
100
AcDbEntity
  8
0
  6
Continuous
 62
     7
370
    15
100
AcDbSpline
210
0.0
220
0.0
230
1.0
 70
     8
 71
     3
 72
    16
 73
    12
 74
     0
 42
0.00000001
 43
0.00000001
 12
1.0
 22
0.0
 32
0.0
 13
1.0
 23
0.0
 33
0.0
 40
0.0
 40
0.0
 40
0.0
 40
0.0
 40
0.5000000000000002
 40
0.5000000000000002
 40
0.7500000000000006
 40
0.7500000000000006
 40
0.8749999999999967
 40
0.8749999999999967
 40
0.9374999999999984
 40
0.9374999999999984
 40
1.0
 40
1.0
 40
1.0
 40
1.0
 10
115.8579447402957
 20
91.93053241126468
 30
0.0
 10
115.8579447402957
 20
91.90586125522174
 30
0.0
 10
115.8537790418357
 20
91.8782794238305
 30
0.0
 10
115.8275207135107
 20
91.82793655300716
 30
0.0
 10
115.8160169317731
 20
91.80964705494526
 30
0.0
 10
115.7818861724266
 20
91.77849202390823
 30
0.0
 10
115.7674642857559
 20
91.76685264869647
 30
0.0
 10
115.7318973173181
 20
91.74997062276542
 30
0.0
 10
115.7169455490234
 20
91.74458151895774
 30
0.0
 10
115.6879417306636
 20
91.73796102301327
 30
0.0
 10
115.6745263766544
 20
91.73660843480683
 30
0.0
 10
115.6629678514178
 20
91.73630881093521
 30
0.0
  0
SPLINE
  5
7D
330
1F
100
AcDbEntity
  8
0
  6
Continuous
 62
     7
370
    15
100
AcDbSpline
210
0.0
220
0.0
230
1.0
 70
     8
 71
     3
 72
    12
 73
     8
 74
     0
 42
0.00000001
 43
0.00000001
 12
1.0
 22
0.0
 32
0.0
 13
1.0
 23
0.0
 33
0.0
 40
0.0
 40
0.0
 40
0.0
 40
0.0
 40
0.2499999999999999
 40
0.2499999999999999
 40
0.4999999999999998
 40
0.4999999999999998
 40
1.0
 40
1.0
 40
1.0
 40
1.0
 10
115.6629678514271
 20
91.73630881093698
 30
0.0
 10
115.6327800748774
 20
91.73552627351938
 30
0.0
 10
115.5994262707858
 20
91.73463294170088
 30
0.0
 10
115.5263000675898
 20
91.73270563289728
 30
0.0
 10
115.4860648645656
 20
91.73166610168461
 30
0.0
 10
115.3683732344326
 20
91.72874821833736
 30
0.0
 10
115.2979925612726
 20
91.72715261226715
 30
0.0
 10
115.2414324538419
 20
91.72573162549928
 30
0.0
  0
SPLINE
  5
7E
330
1F
100
AcDbEntity
  8
0
  6
Continuous
 62
     7
370
    15
100
AcDbSpline
210
0.0
220
0.0
230
1.0
 70
     8
 71
     3
 72
    16
 73
    12
 74
     0
 42
0.00000001
 43
0.00000001
 12
1.0
 22
0.0
 32
0.0
 13
1.0
 23
0.0
 33
0.0
 40
0.0
 40
0.0
 40
0.0
 40
0.0
 40
0.2500000000000002
 40
0.2500000000000002
 40
0.3750000000000001
 40
0.3750000000000001
 40
0.5000000000000001
 40
0.5000000000000001
 40
0.75
 40
0.75
 40
1.0
 40
1.0
 40
1.0
 40
1.0
 10
114.736624396736
 20
75.05711225178452
 30
0.0
 10
114.5753919192515
 20
74.24470247653768
 30
0.0
 10
114.4549120796119
 20
73.40462418215293
 30
0.0
 10
114.3325315622986
 20
72.10332913279015
 30
0.0
 10
114.3015539019011
 20
71.66264809720538
 30
0.0
 10
114.2599401642732
 20
70.76680845627423
 30
0.0
 10
114.2497042513404
 20
70.3201503250718
 30
0.0
 10
114.2495158542843
 20
68.98484036793188
 30
0.0
 10
114.2896605569219
 20
68.10034499462435
 30
0.0
 10
114.4538143118614
 20
66.34309510659833
 30
0.0
 10
114.575365962271
 20
65.49730416018521
 30
0.0
 10
114.736624396736
 20
64.68476359426232
 30
0.0
  0
LINE
  5
7F
330
1F
100
AcDbEntity
  8
0
  6
Continuous
 62
     7
370
    15
100
AcDbLine
 10
113.8579447403
 20
76.3561161847
 30
0.0
 11
113.8579447403
 21
63.3857596613
 31
0.0
  0
LINE
  5
80
330
1F
100
AcDbEntity
  8
0
  6
Continuous
 62
     7
370
    15
100
AcDbLine
 10
79.5579447403
 20
75.9252484906
 30
0.0
 11
79.5579447403
 21
63.8166273555
 31
0.0
  0
LINE
  5
81
330
1F
100
AcDbEntity
  8
0
  6
Continuous
 62
     7
370
    15
100
AcDbLine
 10
78.0579447403
 20
75.4922357887
 30
0.0
 11
78.0579447403
 21
64.2496400574
 31
0.0
  0
LINE
  5
82
330
1F
100
AcDbEntity
  8
0
  6
Continuous
 62
     7
370
    15
100
AcDbLine
 10
113.8579447403
 20
76.3561161847
 30
0.0
 11
113.8579447403
 21
91.8910367076
 31
0.0
  0
ARC
  5
83
330
1F
100
AcDbEntity
  8
0
  6
Continuous
 62
     7
370
    15
100
AcDbCircle
 10
114.0578816512
 20
91.8960598187
 30
0.0
 40
0.199999999999992
100
AcDbArc
 50
181.4391666667
 51
271.4391666667
  0
LINE
  5
84
330
1F
100
AcDbEntity
  8
0
  6
Continuous
 62
     7
370
    15
100
AcDbLine
 10
79.5579447403
 20
75.9252484906
 30
0.0
 11
79.5579447403
 21
91.0293013193
 31
0.0
  0
LINE
  5
85
330
1F
100
AcDbEntity
  8
0
  6
Continuous
 62
     7
370
    15
100
AcDbLine
 10
79.5579447403
 20
91.0293013193
 30
0.0
 11
113.8579447403
 21
91.8910367076
 31
0.0
  0
LINE
  5
86
330
1F
100
AcDbEntity
  8
0
  6
Continuous
 62
     7
370
    15
100
AcDbLine
 10
79.5579447403
 20
48.7125745267
 30
0.0
 11
79.5579447403
 21
63.8166273555
 31
0.0
  0
LINE
  5
87
330
1F
100
AcDbEntity
  8
0
  6
Continuous
 62
     7
370
    15
100
AcDbLine
 10
113.8579447403
 20
47.8508391385
 30
0.0
 11
113.8579447403
 21
63.3857596613
 31
0.0
  0
LINE
  5
88
330
1F
100
AcDbEntity
  8
0
  6
Continuous
 62
     7
370
    15
100
AcDbLine
 10
79.5579447403
 20
48.7125745267
 30
0.0
 11
113.8579447403
 21
47.8508391385
 31
0.0
  0
ARC
  5
89
330
1F
100
AcDbEntity
  8
0
  6
Continuous
 62
     7
370
    15
100
AcDbCircle
 10
114.0578816512
 20
47.8458160273
 30
0.0
 40
0.2000000000000061
100
AcDbArc
 50
88.5608333333
 51
178.5608333333
  0
LINE
  5
8A
330
1F
100
AcDbEntity
  8
0
  6
Continuous
 62
     7
370
    15
100
AcDbLine
 10
114.0629047624
 20
91.6961229078
 30
0.0
 11
115.2414324538
 21
91.7257316255
 31
0.0
  0
LINE
  5
8B
330
1F
100
AcDbEntity
  8
0
  6
Continuous
 62
     7
370
    15
100
AcDbLine
 10
114.0629047624
 20
48.0457529383
 30
0.0
 11
115.2414324538
 21
48.0161442205
 31
0.0
  0
LINE
  5
8C
330
1F
100
AcDbEntity
  8
0
  6
Continuous
 62
     7
370
    15
100
AcDbLine
 10
78.0579447403
 20
90.1632759155
 30
0.0
 11
79.5579447403
 21
91.0293013193
 31
0.0
  0
LINE
  5
8D
330
1F
100
AcDbEntity
  8
0
  6
Continuous
 62
     7
370
    15
100
AcDbLine
 10
78.0579447403
 20
75.4922357887
 30
0.0
 11
78.0579447403
 21
90.1632759155
 31
0.0
  0
LINE
  5
8E
330
1F
100
AcDbEntity
  8
0
  6
Continuous
 62
     7
370
    15
100
AcDbLine
 10
78.0579447403
 20
49.5785999305
 30
0.0
 11
79.5579447403
 21
48.7125745267
 31
0.0
  0
LINE
  5
8F
330
1F
100
AcDbEntity
  8
0
  6
Continuous
 62
     7
370
    15
100
AcDbLine
 10
78.0579447403
 20
49.5785999305
 30
0.0
 11
78.0579447403
 21
64.2496400574
 31
0.0
  0
ELLIPSE
  5
90
330
1F
100
AcDbEntity
  8
0
  6
Continuous
 62
     7
370
    15
100
AcDbEllipse
 10
202.8641841986
 20
47.1747946996
 30
0.0
 11
5.99592241988168
 21
3.093852800366548
 31
0.0
210
0.0
220
0.0
230
1.0
 40
0.0714855773
 41
1.708459923939386
 42
2.842923937735675
  0
ELLIPSE
  5
91
330
1F
100
AcDbEntity
  8
0
  6
Continuous
 62
     7
370
    15
100
AcDbEllipse
 10
202.8641841986
 20
92.5670811464
 30
0.0
 11
5.995922419881707
 21
-3.093852800366548
 31
0.0
210
0.0
220
0.0
230
1.0
 40
0.0714855773
 41
3.440261369444125
 42
4.574725383240215
  0
LINE
  5
92
330
1F
100
AcDbEntity
  8
0
  6
Continuous
 62
     7
370
    15
100
AcDbLine
 10
223.8575812218
 20
72.2384400114
 30
0.0
 11
221.112378965
 21
73.6895474358
 31
0.0
  0
ARC
  5
93
330
1F
100
AcDbEntity
  8
0
  6
Continuous
 62
     7
370
    15
100
AcDbCircle
 10
220.1693001706
 20
71.8207436362
 30
0.0
 40
2.09328097823181
100
AcDbArc
 50
63.2225239253
 51
242.4928161531
  0
LINE
  5
94
330
1F
100
AcDbEntity
  8
0
  6
Continuous
 62
     7
370
    15
100
AcDbLine
 10
219.2024977851
 20
69.9641019365
 30
0.0
 11
232.0687804337
 21
63.1630153392
 31
0.0
  0
LINE
  5
95
330
1F
100
AcDbEntity
  8
0
  6
Continuous
 62
     7
370
    15
100
AcDbLine
 10
232.0687804337
 20
76.5788605069
 30
0.0
 11
223.8575812218
 21
72.2384400114
 31
0.0
  0
CIRCLE
  5
96
330
1F
100
AcDbEntity
  8
0
  6
Continuous
 62
     7
370
    15
100
AcDbCircle
 10
218.767776153
 20
63.9089879401
 30
0.0
 40
3.486282358365924
  0
LINE
  5
97
330
1F
100
AcDbEntity
  8
0
  6
Continuous
 62
     7
370
    15
100
AcDbLine
 10
232.0687804337
 20
63.1630153392
 30
0.0
 11
201.8222951326
 21
47.1747946996
 31
0.0
  0
LINE
  5
98
330
1F
100
AcDbEntity
  8
0
  6
Continuous
 62
     7
370
    15
100
AcDbLine
 10
232.0687804337
 20
76.5788605069
 30
0.0
 11
201.8222951326
 21
92.5670811464
 31
0.0
  0
LINE
  5
99
330
1F
100
AcDbEntity
  8
0
  6
Continuous
 62
     7
370
    15
100
AcDbLine
 10
219.5113427669
 20
73.6895474358
 30
0.0
 11
219.356920276
 21
73.7631218278
 31
0.0
  0
LINE
  5
9A
330
1F
100
AcDbEntity
  8
0
  6
Continuous
 62
     7
370
    15
100
AcDbLine
 10
222.2565450237
 20
72.2384400114
 30
0.0
 11
223.8575812218
 21
72.2384400114
 31
0.0
  0
LINE
  5
9B
330
1F
100
AcDbEntity
  8
0
  6
Continuous
 62
     7
370
    15
100
AcDbLine
 10
222.2565450237
 20
72.2384400114
 30
0.0
 11
219.5113427669
 21
73.6895474358
 31
0.0
  0
LINE
  5
9C
330
1F
100
AcDbEntity
  8
0
  6
Continuous
 62
     7
370
    15
100
AcDbLine
 10
222.8087462286
 20
72.2384400114
 30
0.0
 11
220.0079556967
 21
70.7579487562
 31
0.0
  0
ARC
  5
9D
330
1F
100
AcDbEntity
  8
0
  6
Continuous
 62
     7
370
    15
100
AcDbCircle
 10
219.9748375619
 20
69.8790195312
 30
0.0
 40
0.995286366290011
100
AcDbArc
 50
117.9823958742
 51
157.9379682414
  0
LINE
  5
9E
330
1F
100
AcDbEntity
  8
0
  6
Continuous
 62
     7
370
    15
100
AcDbLine
 10
222.308639477
 20
72.2384400114
 30
0.0
 11
219.507848945
 21
70.7579487562
 31
0.0
  0
LWPOLYLINE
  5
9F
330
1F
100
AcDbEntity
  8
0
  6
Continuous
 62
     7
370
    15
100
AcDbPolyline
 90
        3
 70
   128
 43
0.0
 10
233.9161916914
 20
71.4046307632
 10
233.9972105189
 20
71.270937923
 10
234.0687118833
 20
71.1368826426
  0
LWPOLYLINE
  5
A0
330
1F
100
AcDbEntity
  8
0
  6
Continuous
 62
     7
370
    15
100
AcDbPolyline
 90
        3
 70
   128
 43
0.0
 10
232.1081147077
 20
72.2958610504
 10
232.1082034042
 20
72.2958090536
 10
232.1627304094
 20
72.2629879818
  0
CIRCLE
  5
A1
330
1F
100
AcDbEntity
  8
0
  6
Continuous
 62
     7
370
    15
100
AcDbCircle
 10
218.7279369381
 20
63.9402278863
 30
0.0
 40
3.460362982432157
  0
CIRCLE
  5
A2
330
1F
100
AcDbEntity
  8
0
  6
Continuous
 62
     7
370
    15
100
AcDbCircle
 10
218.7295559319
 20
63.9208451316
 30
0.0
 40
1.979751063281438
  0
SPLINE
  5
A3
330
1F
100
AcDbEntity
  8
0
  6
Continuous
 62
     7
370
    15
100
AcDbSpline
210
0.0
220
0.0
230
1.0
 70
     8
 71
     3
 72
    11
 73
     7
 74
     0
 42
0.00000001
 43
0.00000001
 12
1.0
 22
0.0
 32
0.0
 13
1.0
 23
0.0
 33
0.0
 40
0.0
 40
0.0
 40
0.0
 40
0.0
 40
0.1081100880371337
 40
0.4711580666043651
 40
0.813580843083581
 40
1.0
 40
1.0
 40
1.0
 40
1.0
 10
217.6490678662187
 20
62.52256185395008
 30
0.0
 10
217.7014107083283
 20
62.51516153367702
 30
0.0
 10
217.9295277391873
 20
62.48290995886641
 30
0.0
 10
218.3819618483295
 20
62.42150996772125
 30
0.0
 10
218.9288766232316
 20
62.35291948250554
 30
0.0
 10
219.233681139631
 20
62.31649028086037
 30
0.0
 10
219.3411261007495
 20
62.30364882365174
 30
0.0
  0
SPLINE
  5
A4
330
1F
100
AcDbEntity
  8
0
  6
Continuous
 62
     7
370
    15
100
AcDbSpline
210
0.0
220
0.0
230
1.0
 70
     8
 71
     3
 72
    11
 73
     7
 74
     0
 42
0.00000001
 43
0.00000001
 12
1.0
 22
0.0
 32
0.0
 13
1.0
 23
0.0
 33
0.0
 40
0.0
 40
0.0
 40
0.0
 40
0.0
 40
0.2164499953511733
 40
0.4402998152333217
 40
0.7518914760010381
 40
0.9999999999999999
 40
0.9999999999999999
 40
0.9999999999999999
 40
0.9999999999999999
 10
219.3411261007495
 20
62.30364882365174
 30
0.0
 10
219.4024336036184
 20
62.39807601053263
 30
0.0
 10
219.5271445427055
 20
62.59015858770804
 30
0.0
 10
219.778193916583
 20
62.94661665521113
 30
0.0
 10
220.0742980967418
 20
63.32899114635094
 30
0.0
 10
220.2818527226949
 20
63.57369084354014
 30
0.0
 10
220.3738592527906
 20
63.68216334782906
 30
0.0
  0
SPLINE
  5
A5
330
1F
100
AcDbEntity
  8
0
  6
Continuous
 62
     7
370
    15
100
AcDbSpline
210
0.0
220
0.0
230
1.0
 70
     8
 71
     3
 72
    10
 73
     6
 74
     0
 42
0.00000001
 43
0.00000001
 12
1.0
 22
0.0
 32
0.0
 13
1.0
 23
0.0
 33
0.0
 40
0.0
 40
0.0
 40
0.0
 40
0.0
 40
0.4391165375903683
 40
0.7513669429073225
 40
1.0
 40
1.0
 40
1.0
 40
1.0
 10
220.3738592527906
 20
63.68216334782906
 30
0.0
 10
220.261632118757
 20
63.91084741716663
 30
0.0
 10
220.0696016407595
 20
64.30214593444103
 30
0.0
 10
219.8483934917829
 20
64.87096744050733
 30
0.0
 10
219.7556474169347
 20
65.15408722441933
 30
0.0
 10
219.714534170301
 20
65.27959090230465
 30
0.0
  0
SPLINE
  5
A6
330
1F
100
AcDbEntity
  8
0
  6
Continuous
 62
     7
370
    15
100
AcDbSpline
210
0.0
220
0.0
230
1.0
 70
     8
 71
     3
 72
    11
 73
     7
 74
     0
 42
0.00000001
 43
0.00000001
 12
1.0
 22
0.0
 32
0.0
 13
1.0
 23
0.0
 33
0.0
 40
0.0
 40
0.0
 40
0.0
 40
0.0
 40
0.1864191569163751
 40
0.5288419333956562
 40
0.8918899119628614
 40
1.0
 40
1.0
 40
1.0
 40
1.0
 10
219.714534170301
 20
65.27959090230465
 30
0.0
 10
219.6070892091826
 20
65.29243235951326
 30
0.0
 10
219.3022846927831
 20
65.32886156115836
 30
0.0
 10
218.7553699178811
 20
65.39745204637423
 30
0.0
 10
218.3029358087388
 20
65.45885203751929
 30
0.0
 10
218.0748187778798
 20
65.49110361232987
 30
0.0
 10
218.0224759357702
 20
65.49850393260292
 30
0.0
  0
SPLINE
  5
A7
330
1F
100
AcDbEntity
  8
0
  6
Continuous
 62
     7
370
    15
100
AcDbSpline
210
0.0
220
0.0
230
1.0
 70
     8
 71
     3
 72
    10
 73
     6
 74
     0
 42
0.00000001
 43
0.00000001
 12
1.0
 22
0.0
 32
0.0
 13
1.0
 23
0.0
 33
0.0
 40
0.0
 40
0.0
 40
0.0
 40
0.0
 40
0.4391165375904081
 40
0.7513669429073507
 40
1.0
 40
1.0
 40
1.0
 40
1.0
 10
218.0224759357702
 20
65.49850393260292
 30
0.0
 10
217.8567925578967
 20
65.30115895120039
 30
0.0
 10
217.5732937541249
 20
64.96348436443085
 30
0.0
 10
217.2191202384844
 20
64.4726147124208
 30
0.0
 10
217.060193251916
 20
64.22829393986926
 30
0.0
 10
216.9897427837291
 20
64.11998940842567
 30
0.0
  0
SPLINE
  5
A8
330
1F
100
AcDbEntity
  8
0
  6
Continuous
 62
     7
370
    15
100
AcDbSpline
210
0.0
220
0.0
230
1.0
 70
     8
 71
     3
 72
    10
 73
     6
 74
     0
 42
0.00000001
 43
0.00000001
 12
1.0
 22
0.0
 32
0.0
 13
1.0
 23
0.0
 33
0.0
 40
0.0
 40
0.0
 40
0.0
 40
0.0
 40
0.4391165375904381
 40
0.7513669429073858
 40
1.0
 40
1.0
 40
1.0
 40
1.0
 10
216.9897427837291
 20
64.11998940842567
 30
0.0
 10
217.0662905865715
 20
63.89130533908806
 30
0.0
 10
217.197270596852
 20
63.50000682181363
 30
0.0
 10
217.4456152427528
 20
62.93118531574731
 30
0.0
 10
217.5865798915731
 20
62.64806553183536
 30
0.0
 10
217.6490678662187
 20
62.52256185395008
 30
0.0
  0
LINE
  5
A9
330
1F
100
AcDbEntity
  8
0
  6
Continuous
 62
     7
370
    15
100
AcDbLine
 10
219.0664703486
 20
65.2795909023
 30
0.0
 11
219.7145341703
 21
65.2795909023
 31
0.0
  0
LINE
  5
AA
330
1F
100
AcDbEntity
  8
0
  6
Continuous
 62
     7
370
    15
100
AcDbLine
 10
219.0664703486
 20
65.2795909023
 30
0.0
 11
218.2204412313
 21
65.3890474175
 31
0.0
  0
LINE
  5
AB
330
1F
100
AcDbEntity
  8
0
  6
Continuous
 62
     7
370
    15
100
AcDbLine
 10
218.2204412313
 20
65.3890474175
 30
0.0
 11
217.9606682697
 21
65.4226560044
 31
0.0
  0
LINE
  5
AC
330
1F
100
AcDbEntity
  8
0
  6
Continuous
 62
     7
370
    15
100
AcDbLine
 10
218.6930622791
 20
62.3036488237
 30
0.0
 11
219.2094288551
 21
62.9929060857
 31
0.0
  0
LINE
  5
AD
330
1F
100
AcDbEntity
  8
0
  6
Continuous
 62
     7
370
    15
100
AcDbLine
 10
219.2094288551
 20
62.9929060857
 30
0.0
 11
219.7257954311
 21
63.6821633478
 31
0.0
  0
LINE
  5
AE
330
1F
100
AcDbEntity
  8
0
  6
Continuous
 62
     7
370
    15
100
AcDbLine
 10
219.7257954311
 20
63.6821633478
 30
0.0
 11
220.3738592528
 21
63.6821633478
 31
0.0
  0
LINE
  5
AF
330
1F
100
AcDbEntity
  8
0
  6
Continuous
 62
     7
370
    15
100
AcDbLine
 10
219.7257954311
 20
63.6821633478
 30
0.0
 11
219.3961328899
 21
64.4808771251
 31
0.0
  0
LINE
  5
B0
330
1F
100
AcDbEntity
  8
0
  6
Continuous
 62
     7
370
    15
100
AcDbLine
 10
219.3961328899
 20
64.4808771251
 30
0.0
 11
219.0664703486
 21
65.2795909023
 31
0.0
  0
ARC
  5
B1
330
1F
100
AcDbEntity
  8
0
  6
Continuous
 62
     7
370
    15
100
AcDbCircle
 10
217.9924578902
 20
63.9013051465
 30
0.0
 40
1.518620157578524
100
AcDbArc
 50
323.2607699085
 51
22.4355410829
  0
ARC
  5
B2
330
1F
100
AcDbEntity
  8
0
  6
Continuous
 62
     7
370
    15
100
AcDbCircle
 10
218.0281973453
 20
63.8740804472
 30
0.0
 40
1.473694722510217
100
AcDbArc
 50
280.061783807
 51
323.2778200452
  0
LWPOLYLINE
  5
B3
330
1F
100
AcDbEntity
  8
0
  6
Continuous
 62
     7
370
    15
100
AcDbPolyline
 90
        3
 70
   128
 43
0.0
 10
217.9340331672
 20
65.3976558221
 10
218.0275753845
 20
65.4010633286
 10
218.2204412313
 20
65.3890474175
  0
ARC
  5
B4
330
1F
100
AcDbEntity
  8
0
  6
Continuous
 62
     7
370
    15
100
AcDbCircle
 10
218.0253224866
 20
63.9213584062
 30
0.0
 40
1.480602025646677
100
AcDbArc
 50
22.2036314677
 51
82.4273405958
  0
ELLIPSE
  5
B5
330
1F
100
AcDbEntity
  8
0
  6
Continuous
 62
     7
370
    15
100
AcDbEllipse
 10
232.303696689
 20
69.6123835512
 30
0.0
 11
0.0793419451684656
 21
2.349171028772048
 31
0.0
210
0.0
220
0.0
230
1.0
 40
0.9857309248
 41
5.138853383767564
 42
6.855090201137836
  0
ELLIPSE
  5
B6
330
1F
100
AcDbEntity
  8
0
  6
Continuous
 62
     7
370
    15
100
AcDbEllipse
 10
232.303696689
 20
69.6123835512
 30
0.0
 11
0.0793419451684656
 21
2.349171028772048
 31
0.0
210
0.0
220
0.0
230
1.0
 40
0.9857309248
 41
3.361755438960432
 42
5.138853383767574
  0
LINE
  5
B7
330
1F
100
AcDbEntity
  8
0
  6
Continuous
 62
     7
370
    15
100
AcDbLine
 10
231.7782802104
 20
72.0740456291
 30
0.0
 11
231.8626990321
 21
72.0621963145
 31
0.0
  0
SPLINE
  5
B8
330
1F
100
AcDbEntity
  8
0
  6
Continuous
 62
     7
370
    15
100
AcDbSpline
210
0.0
220
0.0
230
1.0
 70
     8
 71
     3
 72
    15
 73
    11
 74
     0
 42
0.00000001
 43
0.00000001
 12
1.0
 22
0.0
 32
0.0
 13
1.0
 23
0.0
 33
0.0
 40
0.0
 40
0.0
 40
0.0
 40
0.0
 40
0.0566800452482563
 40
0.2102845435897459
 40
0.3586578750726747
 40
0.5080593821325303
 40
0.6606988404769141
 40
0.8144587579056619
 40
0.9630256732176367
 40
1.0
 40
1.0
 40
1.0
 40
1.0
 10
233.1736068546224
 20
71.70513399703347
 30
0.0
 10
233.1558933129473
 20
71.72122662816358
 30
0.0
 10
233.0901755808922
 20
71.78093073703522
 30
0.0
 10
232.9683495814208
 20
71.86947207271085
 30
0.0
 10
232.8095825996266
 20
71.97037394503525
 30
0.0
 10
232.6441452988413
 20
72.05617274764737
 30
0.0
 10
232.4717113682305
 20
72.12865974437213
 30
0.0
 10
232.2958573964742
 20
72.18421610150237
 30
0.0
 10
232.1631239403819
 20
72.21753934547402
 30
0.0
 10
232.0905295048242
 20
72.22747908207019
 30
0.0
 10
232.0760630155812
 20
72.22945985499642
 30
0.0
  0
LINE
  5
B9
330
1F
100
AcDbEntity
  8
0
  6
Continuous
 62
     7
370
    15
100
AcDbLine
 10
220.1037943838
 20
69.5161335898
 30
0.0
 11
232.7938295295
 21
62.8082110059
 31
0.0
  0
ARC
  5
BA
330
1F
100
AcDbEntity
  8
0
  6
Continuous
 62
     7
370
    15
100
AcDbCircle
 10
220.29404692
 20
69.870937923
 30
0.0
 40
0.4025942652865997
100
AcDbArc
 50
118.2010186808
 51
241.7989813192
  0
LINE
  5
BB
330
1F
100
AcDbEntity
  8
0
  6
Continuous
 62
     7
370
    15
100
AcDbLine
 10
232.7938295295
 20
76.9336648401
 30
0.0
 11
220.1037943838
 21
70.2257422563
 31
0.0
  0
ARC
  5
BC
330
1F
100
AcDbEntity
  8
0
  6
Continuous
 62
     7
370
    15
100
AcDbCircle
 10
232.9757229752
 20
76.5901253557
 30
0.0
 40
0.3887217552078505
100
AcDbArc
 50
62.1001756221
 51
117.8998243779
  0
LINE
  5
BD
330
1F
100
AcDbEntity
  8
0
  6
Continuous
 62
     7
370
    15
100
AcDbLine
 10
245.8476515666
 20
70.2257422563
 30
0.0
 11
233.1576164209
 21
76.9336648401
 31
0.0
  0
ARC
  5
BE
330
1F
100
AcDbEntity
  8
0
  6
Continuous
 62
     7
370
    15
100
AcDbCircle
 10
245.6573990303
 20
69.870937923
 30
0.0
 40
0.4025942652865209
100
AcDbArc
 50
298.2010186808
 51
61.7989813192
  0
LINE
  5
BF
330
1F
100
AcDbEntity
  8
0
  6
Continuous
 62
     7
370
    15
100
AcDbLine
 10
233.1576164209
 20
62.8082110059
 30
0.0
 11
245.8476515666
 21
69.5161335898
 31
0.0
  0
ARC
  5
C0
330
1F
100
AcDbEntity
  8
0
  6
Continuous
 62
     7
370
    15
100
AcDbCircle
 10
232.9757229752
 20
63.1517504904
 30
0.0
 40
0.3887217552080138
100
AcDbArc
 50
242.1001756221
 51
297.8998243779
  0
ARC
  5
C1
330
1F
100
AcDbEntity
  8
0
  6
Continuous
 62
     7
370
    15
100
AcDbCircle
 10
245.6578169849
 20
69.870937923
 30
0.0
 40
0.3824645520222171
100
AcDbArc
 50
298.2010186808
 51
61.7989813192
  0
LINE
  5
C2
330
1F
100
AcDbEntity
  8
0
  6
Continuous
 62
     7
370
    15
100
AcDbLine
 10
245.8385568943
 20
70.2080020396
 30
0.0
 11
233.1485217484
 21
76.9159246232
 31
0.0
  0
ARC
  5
C3
330
1F
100
AcDbEntity
  8
0
  6
Continuous
 62
     7
370
    15
100
AcDbCircle
 10
232.9757229749
 20
76.5895621118
 30
0.0
 40
0.3692856686140587
100
AcDbArc
 50
62.1001756889
 51
117.8998242242
  0
LINE
  5
C4
330
1F
100
AcDbEntity
  8
0
  6
Continuous
 62
     7
370
    15
100
AcDbLine
 10
232.8029242018
 20
76.9159246235
 30
0.0
 11
220.1128890561
 21
70.2080020396
 31
0.0
  0
ARC
  5
C5
330
1F
100
AcDbEntity
  8
0
  6
Continuous
 62
     7
370
    15
100
AcDbCircle
 10
220.2936289655
 20
69.870937923
 30
0.0
 40
0.3824645520222574
100
AcDbArc
 50
118.2010186808
 51
241.7989813192
  0
LINE
  5
C6
330
1F
100
AcDbEntity
  8
0
  6
Continuous
 62
     7
370
    15
100
AcDbLine
 10
220.1128890561
 20
69.5338738064
 30
0.0
 11
232.8029242018
 21
62.8259512226
 31
0.0
  0
ARC
  5
C7
330
1F
100
AcDbEntity
  8
0
  6
Continuous
 62
     7
370
    15
100
AcDbCircle
 10
232.9757229752
 20
63.1523137328
 30
0.0
 40
0.3692856674475755
100
AcDbArc
 50
242.1001756221
 51
297.8998243779
  0
LINE
  5
C8
330
1F
100
AcDbEntity
  8
0
  6
Continuous
 62
     7
370
    15
100
AcDbLine
 10
233.1485217486
 20
62.8259512226
 30
0.0
 11
245.8385568943
 21
69.5338738064
 31
0.0
  0
LWPOLYLINE
  5
C9
330
1F
100
AcDbEntity
  8
0
  6
Continuous
 62
     7
370
    15
100
AcDbPolyline
 90
        3
 70
   128
 43
0.0
 10
219.0011284556
 20
70.2257422563
 10
218.9137391017
 20
70.1628835521
 10
218.9057844646
 20
70.1551028667
  0
LINE
  5
CA
330
1F
100
AcDbEntity
  8
0
  6
Continuous
 62
     7
370
    15
100
AcDbLine
 10
220.2475906171
 20
69.870937923
 30
0.0
 11
220.1128890561
 21
69.5338738064
 31
0.0
  0
LINE
  5
CB
330
1F
100
AcDbEntity
  8
0
  6
Continuous
 62
     7
370
    15
100
AcDbLine
 10
220.2475906171
 20
69.870937923
 30
0.0
 11
220.1128890561
 21
70.2080020396
 31
0.0
  0
LINE
  5
CC
330
1F
100
AcDbEntity
  8
0
  6
Continuous
 62
     7
370
    15
100
AcDbLine
 10
232.9376257628
 20
63.1630153392
 30
0.0
 11
232.8029242018
 21
62.8259512226
 31
0.0
  0
LINE
  5
CD
330
1F
100
AcDbEntity
  8
0
  6
Continuous
 62
     7
370
    15
100
AcDbLine
 10
222.291578555
 20
69.870937923
 30
0.0
 11
220.2475906171
 21
69.870937923
 31
0.0
  0
LINE
  5
CE
330
1F
100
AcDbEntity
  8
0
  6
Continuous
 62
     7
370
    15
100
AcDbLine
 10
222.291578555
 20
69.870937923
 30
0.0
 11
222.881413746
 21
69.5591524352
 31
0.0
  0
LINE
  5
CF
330
1F
100
AcDbEntity
  8
0
  6
Continuous
 62
     7
370
    15
100
AcDbLine
 10
232.8943008124
 20
63.6502066651
 30
0.0
 11
232.9376257628
 21
63.1630153392
 31
0.0
  0
LINE
  5
D0
330
1F
100
AcDbEntity
  8
0
  6
Continuous
 62
     7
370
    15
100
AcDbLine
 10
231.5443629371
 20
62.88580949
 30
0.0
 11
231.6911636013
 21
62.8082110059
 31
0.0
  0
LINE
  5
D1
330
1F
100
AcDbEntity
  8
0
  6
Continuous
 62
     7
370
    15
100
AcDbLine
 10
231.6911636013
 20
76.9336648401
 30
0.0
 11
231.5443629371
 21
76.856066356
 31
0.0
  0
LINE
  5
D2
330
1F
100
AcDbEntity
  8
0
  6
Continuous
 62
     7
370
    15
100
AcDbLine
 10
222.8087462286
 20
72.2384400114
 30
0.0
 11
219.0011284556
 21
70.2257422563
 31
0.0
  0
LINE
  5
D3
330
1F
100
AcDbEntity
  8
0
  6
Continuous
 62
     7
370
    15
100
AcDbLine
 10
232.9376257628
 20
76.5788605069
 30
0.0
 11
232.8029242018
 21
76.9159246235
 31
0.0
  0
LINE
  5
D4
330
1F
100
AcDbEntity
  8
0
  6
Continuous
 62
     7
370
    15
100
AcDbLine
 10
232.8943008124
 20
76.0916691809
 30
0.0
 11
232.9376257628
 21
76.5788605069
 31
0.0
  0
LINE
  5
D5
330
1F
100
AcDbEntity
  8
0
  6
Continuous
 62
     7
370
    15
100
AcDbLine
 10
222.881413746
 20
70.1827234109
 30
0.0
 11
222.291578555
 21
69.870937923
 31
0.0
  0
ARC
  5
D6
330
1F
100
AcDbEntity
  8
0
  6
Continuous
 62
     7
370
    15
100
AcDbCircle
 10
225.8944665779
 20
69.870937923
 30
0.0
 40
1.006485663216394
100
AcDbArc
 50
118.2010186808
 51
241.7989813192
  0
LINE
  5
D7
330
1F
100
AcDbEntity
  8
0
  6
Continuous
 62
     7
370
    15
100
AcDbLine
 10
223.3852531837
 20
69.872099241
 30
0.0
 11
223.3852531837
 21
69.869776605
 31
0.0
  0
SPLINE
  5
D8
330
1F
100
AcDbEntity
  8
0
  6
Continuous
 62
     7
370
    15
100
AcDbSpline
210
0.0
220
0.0
230
1.0
 70
     8
 71
     3
 72
    14
 73
    10
 74
     0
 42
0.00000001
 43
0.00000001
 12
1.0
 22
0.0
 32
0.0
 13
1.0
 23
0.0
 33
0.0
 40
0.0
 40
0.0
 40
0.0
 40
0.0
 40
0.2210591904779659
 40
0.3460797326519397
 40
0.439601624413183
 40
0.5338897453200012
 40
0.6146561933588002
 40
0.7517253237593875
 40
1.0
 40
1.0
 40
1.0
 40
1.0
 10
223.3852531837432
 20
69.87209924100235
 30
0.0
 10
223.3833964746253
 20
69.93119845746503
 30
0.0
 10
223.3804896993234
 20
70.02372137401566
 30
0.0
 10
223.3455534097581
 20
70.13679294545354
 30
0.0
 10
223.2986772087212
 20
70.20689311782174
 30
0.0
 10
223.2382181436282
 20
70.24755970337557
 30
0.0
 10
223.1573326652674
 20
70.26602614796508
 30
0.0
 10
223.0332154300305
 20
70.25422978942454
 30
0.0
 10
222.9408951452783
 20
70.21074220051182
 30
0.0
 10
222.8814137460388
 20
70.18272341087071
 30
0.0
  0
SPLINE
  5
D9
330
1F
100
AcDbEntity
  8
0
  6
Continuous
 62
     7
370
    15
100
AcDbSpline
210
0.0
220
0.0
230
1.0
 70
     8
 71
     3
 72
    14
 73
    10
 74
     0
 42
0.00000001
 43
0.00000001
 12
1.0
 22
0.0
 32
0.0
 13
1.0
 23
0.0
 33
0.0
 40
0.0
 40
0.0
 40
0.0
 40
0.0
 40
0.2234968253973337
 40
0.3567622963774836
 40
0.4531212562341052
 40
0.5344619041500319
 40
0.6157317558035266
 40
0.7396161778922187
 40
0.9999999999999999
 40
0.9999999999999999
 40
0.9999999999999999
 40
0.9999999999999999
 10
222.8814137460388
 20
69.55915243517607
 30
0.0
 10
222.9347943631891
 20
69.53383707425489
 30
0.0
 10
223.0200044842846
 20
69.49342680766696
 30
0.0
 10
223.1392011945757
 20
69.47568779013157
 30
0.0
 10
223.2212175333551
 20
69.48787856322383
 30
0.0
 10
223.2821612685773
 20
69.52150777382906
 30
0.0
 10
223.3326366276431
 20
69.57971028182337
 30
0.0
 10
223.3795404647753
 20
69.69674776093596
 30
0.0
 10
223.3829457381035
 20
69.79988787883259
 30
0.0
 10
223.3852531837432
 20
69.86977660504449
 30
0.0
  0
LINE
  5
DA
330
1F
100
AcDbEntity
  8
0
  6
Continuous
 62
     7
370
    15
100
AcDbLine
 10
225.4188352374
 20
68.9839270898
 30
0.0
 11
232.5209893609
 21
65.2297452068
 31
0.0
  0
LINE
  5
DB
330
1F
100
AcDbEntity
  8
0
  6
Continuous
 62
     7
370
    15
100
AcDbLine
 10
232.5209893609
 20
74.5121306393
 30
0.0
 11
225.4188352374
 21
70.7579487562
 31
0.0
  0
ARC
  5
DC
330
1F
100
AcDbEntity
  8
0
  6
Continuous
 62
     7
370
    15
100
AcDbCircle
 10
232.9757229752
 20
73.6532819281
 30
0.0
 40
0.9718043880198952
100
AcDbArc
 50
62.1001756221
 51
117.8998243779
  0
LINE
  5
DD
330
1F
100
AcDbEntity
  8
0
  6
Continuous
 62
     7
370
    15
100
AcDbLine
 10
240.532610713
 20
70.7579487562
 30
0.0
 11
233.4304565895
 21
74.5121306393
 31
0.0
  0
ARC
  5
DE
330
1F
100
AcDbEntity
  8
0
  6
Continuous
 62
     7
370
    15
100
AcDbCircle
 10
240.0569793728
 20
69.8709379229
 30
0.0
 40
1.006485663199403
100
AcDbArc
 50
298.2010186666
 51
61.7989813402
  0
LINE
  5
DF
330
1F
100
AcDbEntity
  8
0
  6
Continuous
 62
     7
370
    15
100
AcDbLine
 10
233.4304565895
 20
65.2297452068
 30
0.0
 11
240.5326107131
 21
68.9839270896
 31
0.0
  0
ARC
  5
E0
330
1F
100
AcDbEntity
  8
0
  6
Continuous
 62
     7
370
    15
100
AcDbCircle
 10
232.9757229752
 20
66.0885939179
 30
0.0
 40
0.9718043880200703
100
AcDbArc
 50
242.1001756221
 51
297.8998243779
  0
CIRCLE
  5
E1
330
1F
100
AcDbEntity
  8
0
  6
Continuous
 62
     7
370
    15
100
AcDbCircle
 10
232.9603536391
 20
69.8406986492
 30
0.0
 40
2.551943258927535
  0
ARC
  5
E2
330
1F
100
AcDbEntity
  8
0
  6
Continuous
 62
     7
370
    15
100
AcDbCircle
 10
231.855206512
 20
69.9040101113
 30
0.0
 40
2.549795760080839
100
AcDbArc
 50
27.210200072
 51
77.1013531846
  0
SPLINE
  5
E3
330
1F
100
AcDbEntity
  8
0
  6
Continuous
 62
     7
370
    15
100
AcDbSpline
210
0.0
220
0.0
230
1.0
 70
     8
 71
     3
 72
    11
 73
     7
 74
     0
 42
0.00000001
 43
0.00000001
 12
1.0
 22
0.0
 32
0.0
 13
1.0
 23
0.0
 33
0.0
 40
0.0
 40
0.0
 40
0.0
 40
0.0
 40
0.3280455501579929
 40
0.6557028173711927
 40
0.9906967996087599
 40
1.0
 40
1.0
 40
1.0
 40
1.0
 10
232.8943008124048
 20
63.65020666511449
 30
0.0
 10
232.8892516246381
 20
63.72463506775404
 30
0.0
 10
232.8791592254501
 20
63.87340377770816
 30
0.0
 10
232.8813411162967
 20
64.11848326058146
 30
0.0
 10
232.8911816031238
 20
64.27301357969444
 30
0.0
 10
232.8983567118121
 20
64.34505476997174
 30
0.0
 10
232.8985505893031
 20
64.3470013837211
 30
0.0
  0
LINE
  5
E4
330
1F
100
AcDbEntity
  8
0
  6
Continuous
 62
     7
370
    15
100
AcDbLine
 10
243.3820303111
 20
69.870937923
 30
0.0
 11
245.6276609085
 21
69.870937923
 31
0.0
  0
LINE
  5
E5
330
1F
100
AcDbEntity
  8
0
  6
Continuous
 62
     7
370
    15
100
AcDbLine
 10
245.6276609085
 20
69.870937923
 30
0.0
 11
245.8385568943
 21
69.5338738064
 31
0.0
  0
LINE
  5
E6
330
1F
100
AcDbEntity
  8
0
  6
Continuous
 62
     7
370
    15
100
AcDbLine
 10
232.9376257628
 20
63.1630153392
 30
0.0
 11
233.1485217486
 21
62.8259512226
 31
0.0
  0
LINE
  5
E7
330
1F
100
AcDbEntity
  8
0
  6
Continuous
 62
     7
370
    15
100
AcDbLine
 10
242.7921951201
 20
69.5591524352
 30
0.0
 11
243.3820303111
 21
69.870937923
 31
0.0
  0
SPLINE
  5
E8
330
1F
100
AcDbEntity
  8
0
  6
Continuous
 62
     7
370
    15
100
AcDbSpline
210
0.0
220
0.0
230
1.0
 70
     8
 71
     3
 72
    11
 73
     7
 74
     0
 42
0.00000001
 43
0.00000001
 12
1.0
 22
0.0
 32
0.0
 13
1.0
 23
0.0
 33
0.0
 40
0.0
 40
0.0
 40
0.0
 40
0.0
 40
0.3280455501580202
 40
0.6557028173712005
 40
0.9906967996087771
 40
1.0
 40
1.0
 40
1.0
 40
1.0
 10
232.8943008124048
 20
76.09166918093241
 30
0.0
 10
232.8892516246381
 20
76.01724077829284
 30
0.0
 10
232.8791592254503
 20
75.86847206833875
 30
0.0
 10
232.8813411162963
 20
75.62339258546544
 30
0.0
 10
232.8911816031244
 20
75.46886226635243
 30
0.0
 10
232.8983567118121
 20
75.39682107607516
 30
0.0
 10
232.8985505893031
 20
75.39487446232579
 30
0.0
  0
LINE
  5
E9
330
1F
100
AcDbEntity
  8
0
  6
Continuous
 62
     7
370
    15
100
AcDbLine
 10
232.9376257628
 20
76.5788605069
 30
0.0
 11
233.1485217484
 21
76.9159246232
 31
0.0
  0
LINE
  5
EA
330
1F
100
AcDbEntity
  8
0
  6
Continuous
 62
     7
370
    15
100
AcDbLine
 10
245.6276609085
 20
69.870937923
 30
0.0
 11
245.8385568943
 21
70.2080020396
 31
0.0
  0
LINE
  5
EB
330
1F
100
AcDbEntity
  8
0
  6
Continuous
 62
     7
370
    15
100
AcDbLine
 10
243.3820303111
 20
69.870937923
 30
0.0
 11
242.7921951201
 21
70.1827234109
 31
0.0
  0
ARC
  5
EC
330
1F
100
AcDbEntity
  8
0
  6
Continuous
 62
     7
370
    15
100
AcDbCircle
 10
231.8731859828
 20
76.5897216625
 30
0.0
 40
0.3891388657717714
100
AcDbArc
 50
90.0189841721
 51
117.8887889731
  0
ARC
  5
ED
330
1F
100
AcDbEntity
  8
0
  6
Continuous
 62
     7
370
    15
100
AcDbCircle
 10
231.8731859828
 20
63.1521541836
 30
0.0
 40
0.389138865772648
100
AcDbArc
 50
242.1112110269
 51
269.9810158279
  0
LINE
  5
EE
330
1F
100
AcDbEntity
  8
0
  6
Continuous
 62
     7
370
    15
100
AcDbLine
 10
242.2883556824
 20
69.869776605
 30
0.0
 11
242.2883556824
 21
69.872099241
 31
0.0
  0
SPLINE
  5
EF
330
1F
100
AcDbEntity
  8
0
  6
Continuous
 62
     7
370
    15
100
AcDbSpline
210
0.0
220
0.0
230
1.0
 70
     8
 71
     3
 72
    14
 73
    10
 74
     0
 42
0.00000001
 43
0.00000001
 12
1.0
 22
0.0
 32
0.0
 13
1.0
 23
0.0
 33
0.0
 40
0.0
 40
0.0
 40
0.0
 40
0.0
 40
0.2234968253974305
 40
0.3567622963774866
 40
0.4531212562341726
 40
0.5344619041500596
 40
0.6157317558035493
 40
0.7396161778922224
 40
0.9999999999999999
 40
0.9999999999999999
 40
0.9999999999999999
 40
0.9999999999999999
 10
242.7921951200844
 20
70.18272341087082
 30
0.0
 10
242.7388145029342
 20
70.208038771792
 30
0.0
 10
242.6536043818387
 20
70.24844903837996
 30
0.0
 10
242.5344076715475
 20
70.26618805591532
 30
0.0
 10
242.4523913327682
 20
70.25399728282308
 30
0.0
 10
242.3914475975459
 20
70.22036807221785
 30
0.0
 10
242.3409722384801
 20
70.16216556422354
 30
0.0
 10
242.294068401348
 20
70.04512808511095
 30
0.0
 10
242.2906631280197
 20
69.94198796721432
 30
0.0
 10
242.2883556823801
 20
69.87209924100242
 30
0.0
  0
SPLINE
  5
F0
330
1F
100
AcDbEntity
  8
0
  6
Continuous
 62
     7
370
    15
100
AcDbSpline
210
0.0
220
0.0
230
1.0
 70
     8
 71
     3
 72
    14
 73
    10
 74
     0
 42
0.00000001
 43
0.00000001
 12
1.0
 22
0.0
 32
0.0
 13
1.0
 23
0.0
 33
0.0
 40
0.0
 40
0.0
 40
0.0
 40
0.0
 40
0.2210591904779697
 40
0.3460797326519375
 40
0.4396016244131448
 40
0.5338897453199744
 40
0.6146561933587761
 40
0.7517253237593788
 40
1.0
 40
1.0
 40
1.0
 40
1.0
 10
242.2883556823801
 20
69.86977660504452
 30
0.0
 10
242.2902123914979
 20
69.81067738858185
 30
0.0
 10
242.2931191667998
 20
69.71815447203123
 30
0.0
 10
242.3280554563651
 20
69.60508290059336
 30
0.0
 10
242.374931657402
 20
69.53498272822515
 30
0.0
 10
242.435390722495
 20
69.49431614267134
 30
0.0
 10
242.5162762008558
 20
69.47584969808179
 30
0.0
 10
242.6403934360927
 20
69.48764605662234
 30
0.0
 10
242.7327137208449
 20
69.53113364553505
 30
0.0
 10
242.7921951200845
 20
69.55915243517619
 30
0.0
  0
LINE
  5
F1
330
1F
100
AcDbEntity
  8
0
  6
Continuous
 62
     7
370
    15
100
AcDbLine
 10
185.5814445754
 20
68.2486097867
 30
0.0
 11
185.5034091101
 21
68.1332083652
 31
0.0
  0
LWPOLYLINE
  5
F2
330
1F
100
AcDbEntity
  8
0
  6
Continuous
 62
     7
370
    15
100
AcDbPolyline
 90
        3
 70
   128
 43
0.0
 10
183.5904295291
 20
66.918572778
 10
182.9147172785
 20
66.8743588912
 10
182.28338863
 20
66.9726517343
  0
LINE
  5
F3
330
1F
100
AcDbEntity
  8
0
  6
Continuous
 62
     7
370
    15
100
AcDbLine
 10
185.8146612658
 20
68.6875047826
 30
0.0
 11
185.5814445754
 21
68.2486097867
 31
0.0
  0
CIRCLE
  5
F4
330
1F
100
AcDbEntity
  8
0
  6
Continuous
 62
     7
370
    15
100
AcDbCircle
 10
183.0579447403
 20
69.870937923
 30
0.0
 40
2.860000000000047
  0
CIRCLE
  5
F5
330
1F
100
AcDbEntity
  8
0
  6
Continuous
 62
     7
370
    15
100
AcDbCircle
 10
183.0579447403
 20
69.870937923
 30
0.0
 40
2.500000000000037
  0
SPLINE
  5
F6
330
1F
100
AcDbEntity
  8
0
  6
HIDDEN
 62
     7
370
     0
100
AcDbSpline
210
0.0
220
0.0
230
1.0
 70
     8
 71
     3
 72
    60
 73
    56
 74
     0
 42
0.00000001
 43
0.00000001
 12
1.0
 22
0.0
 32
0.0
 13
1.0
 23
0.0
 33
0.0
 40
-0.0624999999999999
 40
-0.0624999999999999
 40
0.0
 40
0.0
 40
0.0312499999999999
 40
0.0312499999999999
 40
0.0624999999999997
 40
0.0624999999999997
 40
0.0937499999999996
 40
0.0937499999999996
 40
0.1249999999999994
 40
0.1249999999999994
 40
0.1874999999999992
 40
0.1874999999999992
 40
0.249999999999999
 40
0.249999999999999
 40
0.2812499999999989
 40
0.2812499999999989
 40
0.3124999999999988
 40
0.3124999999999988
 40
0.3437499999999987
 40
0.3437499999999987
 40
0.3749999999999987
 40
0.3749999999999987
 40
0.4062499999999986
 40
0.4062499999999986
 40
0.4374999999999985
 40
0.4374999999999985
 40
0.4687499999999984
 40
0.4687499999999984
 40
0.4999999999999983
 40
0.4999999999999983
 40
0.5624999999999986
 40
0.5624999999999986
 40
0.6249999999999989
 40
0.6249999999999989
 40
0.656249999999999
 40
0.656249999999999
 40
0.687499999999999
 40
0.687499999999999
 40
0.7187499999999991
 40
0.7187499999999991
 40
0.7499999999999992
 40
0.7499999999999992
 40
0.7812499999999993
 40
0.7812499999999993
 40
0.8124999999999993
 40
0.8124999999999993
 40
0.8437499999999996
 40
0.8437499999999996
 40
0.8749999999999998
 40
0.8749999999999998
 40
0.90625
 40
0.90625
 40
0.9375000000000001
 40
0.9375000000000001
 40
1.0
 40
1.0
 40
1.03125
 40
1.03125
 10
127.7936141932368
 20
67.8709379230234
 30
0.0
 10
128.1901100138252
 20
67.8709379230234
 30
0.0
 10
128.3200600572043
 20
67.88390978315928
 30
0.0
 10
128.5757129162475
 20
67.93472993214498
 30
0.0
 10
128.7027423656432
 20
67.97319723455642
 30
0.0
 10
128.944930326733
 20
68.07359536586594
 30
0.0
 10
129.0597917494577
 20
68.13502832793091
 30
0.0
 10
129.2771718847156
 20
68.28016304190076
 30
0.0
 10
129.3800694198404
 20
68.36461807950039
 30
0.0
 10
129.6567365017009
 20
68.64133739412313
 30
0.0
 10
129.805734827677
 20
68.86441445047954
 30
0.0
 10
130.0052461695277
 20
69.34569813583921
 30
0.0
 10
130.0578042707393
 20
69.60892860870729
 30
0.0
 10
130.0580145421567
 20
70.0003309029626
 30
0.0
 10
130.0450287629585
 20
70.13285394004478
 30
0.0
 10
129.9940015978536
 20
70.38938440762647
 30
0.0
 10
129.9562463791827
 20
70.5140712896539
 30
0.0
 10
129.856107961197
 20
70.7562506759376
 30
0.0
 10
129.793502204692
 20
70.87334432131391
 30
0.0
 10
129.6487687695764
 20
71.0900594130394
 30
0.0
 10
129.5661413659616
 20
71.19107823323121
 30
0.0
 10
129.379536308851
 20
71.3778630128102
 30
0.0
 10
129.2784211859443
 20
71.46071989035894
 30
0.0
 10
129.0618884600717
 20
71.60560401929972
 30
0.0
 10
128.9450183524341
 20
71.66824144188563
 30
0.0
 10
128.7027206369847
 20
71.76869016589276
 30
0.0
 10
128.578056719519
 20
71.80654123647508
 30
0.0
 10
128.3217697986833
 20
71.85776277603472
 30
0.0
 10
128.1891977846408
 20
71.87089091173914
 30
0.0
 10
127.7975935855779
 20
71.8710315586136
 30
0.0
 10
127.5344283580476
 20
71.81870682391138
 30
0.0
 10
127.0529231945491
 20
71.6195959188401
 30
0.0
 10
126.8296718458657
 20
71.4707338146845
 30
0.0
 10
126.5528154450606
 20
71.19441293380635
 30
0.0
 10
126.4683019157968
 20
71.09164925526261
 30
0.0
 10
126.322884513004
 20
70.87426562313374
 30
0.0
 10
126.2613732436511
 20
70.75946678177196
 30
0.0
 10
126.1608432913625
 20
70.51758989111795
 30
0.0
 10
126.1221982442628
 20
70.3904362211137
 30
0.0
 10
126.0711418917917
 20
70.13477010415174
 30
0.0
 10
126.0580770337718
 20
70.00490402128403
 30
0.0
 10
126.0578144264832
 20
69.74095143584596
 30
0.0
 10
126.0706914250835
 20
69.61054719085094
 30
0.0
 10
126.1212774517384
 20
69.35489636882934
 30
0.0
 10
126.1595538451278
 20
69.22803074722414
 30
0.0
 10
126.2598248125481
 20
68.98551014336685
 30
0.0
 10
126.3211809022668
 20
68.8705834430207
 30
0.0
 10
126.4660273096071
 20
68.65321192403341
 30
0.0
 10
126.5504048998074
 20
68.55019808345028
 30
0.0
 10
126.7348123160068
 20
68.36549756143799
 30
0.0
 10
126.8353853785403
 20
68.28266789335431
 30
0.0
 10
127.0536113943343
 20
68.13641562269089
 30
0.0
 10
127.1701664332461
 20
68.07404720863805
 30
0.0
 10
127.5310157862998
 20
67.92409120972272
 30
0.0
 10
127.7936141932368
 20
67.8709379230234
 30
0.0
 10
128.1901100138252
 20
67.8709379230234
 30
0.0
  0
SPLINE
  5
F7
330
1F
100
AcDbEntity
  8
0
  6
HIDDEN
 62
     7
370
     0
100
AcDbSpline
210
0.0
220
0.0
230
1.0
 70
     8
 71
     3
 72
    12
 73
     8
 74
     0
 42
0.00000001
 43
0.00000001
 12
1.0
 22
0.0
 32
0.0
 13
1.0
 23
0.0
 33
0.0
 40
0.0
 40
0.0
 40
0.0
 40
0.0
 40
0.4999999999999982
 40
0.4999999999999982
 40
0.7499999999999991
 40
0.7499999999999991
 40
1.0
 40
1.0
 40
1.0
 40
1.0
 10
126.15268885197
 20
59.96156860233818
 30
0.0
 10
126.1834110938891
 20
60.07412440174739
 30
0.0
 10
126.2262483084243
 20
60.18688226148694
 30
0.0
 10
126.3256753326241
 20
60.33642314728333
 30
0.0
 10
126.3654275274407
 20
60.38371587899011
 30
0.0
 10
126.4634689842989
 20
60.45745217231155
 30
0.0
 10
126.5230250398863
 20
60.48287149168733
 30
0.0
 10
126.5857015538622
 20
60.48287149168733
 30
0.0
  0
LINE
  5
F8
330
1F
100
AcDbEntity
  8
0
  6
HIDDEN
 62
     7
370
     0
100
AcDbLine
 10
126.5857015539
 20
60.4828714917
 30
0.0
 11
129.5301879267
 21
60.4828714917
 31
0.0
  0
SPLINE
  5
F9
330
1F
100
AcDbEntity
  8
0
  6
HIDDEN
 62
     7
370
     0
100
AcDbSpline
210
0.0
220
0.0
230
1.0
 70
     8
 71
     3
 72
    12
 73
     8
 74
     0
 42
0.00000001
 43
0.00000001
 12
1.0
 22
0.0
 32
0.0
 13
1.0
 23
0.0
 33
0.0
 40
0.0
 40
0.0
 40
0.0
 40
0.0
 40
0.2499999999999986
 40
0.2499999999999986
 40
0.4999999999999971
 40
0.4999999999999971
 40
1.0
 40
1.0
 40
1.0
 40
1.0
 10
129.5301879267293
 20
60.48287149168733
 30
0.0
 10
129.5932679652226
 20
60.48287149168733
 30
0.0
 10
129.652416587404
 20
60.45750717247236
 30
0.0
 10
129.7508891374731
 20
60.38334231209945
 30
0.0
 10
129.7899257494578
 20
60.33682197154535
 30
0.0
 10
129.8898222162368
 20
60.18667962870011
 30
0.0
 10
129.9322430973036
 20
60.07498642172798
 30
0.0
 10
129.9632006286215
 20
59.9615686023382
 30
0.0
  0
ELLIPSE
  5
FA
330
1F
100
AcDbEntity
  8
0
  6
HIDDEN
 62
     7
370
     0
100
AcDbEllipse
 10
113.7107905509
 20
69.870937923
 30
0.0
 11
-14.75368316065611
 21
31.09325491558117
 31
0.0
210
0.0
220
0.0
230
1.0
 40
0.3419987131
 41
3.300734856217133
 42
4.23149622336078
  0
SPLINE
  5
FB
330
1F
100
AcDbEntity
  8
0
  6
HIDDEN
 62
     7
370
     0
100
AcDbSpline
210
0.0
220
0.0
230
1.0
 70
     8
 71
     3
 72
    12
 73
     8
 74
     0
 42
0.00000001
 43
0.00000001
 12
1.0
 22
0.0
 32
0.0
 13
1.0
 23
0.0
 33
0.0
 40
0.0
 40
0.0
 40
0.0
 40
0.0
 40
0.4999999999999971
 40
0.4999999999999971
 40
0.7499999999999986
 40
0.7499999999999986
 40
1.0
 40
1.0
 40
1.0
 40
1.0
 10
129.9632006286215
 20
39.97019546290621
 30
0.0
 10
129.9324783867024
 20
39.93289347995317
 30
0.0
 10
129.8896411721673
 20
39.89628164790678
 30
0.0
 10
129.7902141479674
 20
39.84851686462157
 30
0.0
 10
129.7504619531508
 20
39.83355934913918
 30
0.0
 10
129.6524204962926
 20
39.81036940337005
 30
0.0
 10
129.5928644407051
 20
39.80244596415028
 30
0.0
 10
129.5301879267293
 20
39.80244596415029
 30
0.0
  0
LINE
  5
FC
330
1F
100
AcDbEntity
  8
0
  6
HIDDEN
 62
     7
370
     0
100
AcDbLine
 10
129.5301879267
 20
39.8024459642
 30
0.0
 11
126.5857015539
 21
39.8024459642
 31
0.0
  0
SPLINE
  5
FD
330
1F
100
AcDbEntity
  8
0
  6
HIDDEN
 62
     7
370
     0
100
AcDbSpline
210
0.0
220
0.0
230
1.0
 70
     8
 71
     3
 72
    12
 73
     8
 74
     0
 42
0.00000001
 43
0.00000001
 12
1.0
 22
0.0
 32
0.0
 13
1.0
 23
0.0
 33
0.0
 40
0.0
 40
0.0
 40
0.0
 40
0.0
 40
0.2500000000000023
 40
0.2500000000000023
 40
0.5000000000000047
 40
0.5000000000000047
 40
1.0
 40
1.0
 40
1.0
 40
1.0
 10
126.5857015538622
 20
39.80244596415037
 30
0.0
 10
126.5226215153688
 20
39.80244596415037
 30
0.0
 10
126.4634728931874
 20
39.81035189036279
 30
0.0
 10
126.3650003431183
 20
39.83367705179904
 30
0.0
 10
126.3259637311336
 20
39.84838984163073
 30
0.0
 10
126.2260672643546
 20
39.89634564236166
 30
0.0
 10
126.183646383288
 20
39.93260779894171
 30
0.0
 10
126.15268885197
 20
39.97019546290621
 30
0.0
  0
ELLIPSE
  5
FE
330
1F
100
AcDbEntity
  8
0
  6
HIDDEN
 62
     7
370
     0
100
AcDbEllipse
 10
142.4050989297
 20
69.870937923
 30
0.0
 11
14.75368316065612
 21
31.09325491558116
 31
0.0
210
0.0
220
0.0
230
1.0
 40
0.3419987131
 41
2.05168908381882
 42
2.982450450962495
  0
SPLINE
  5
FF
330
1F
100
AcDbEntity
  8
0
  6
HIDDEN
 62
     7
370
     0
100
AcDbSpline
210
0.0
220
0.0
230
1.0
 70
     8
 71
     3
 72
    12
 73
     8
 74
     0
 42
0.00000001
 43
0.00000001
 12
1.0
 22
0.0
 32
0.0
 13
1.0
 23
0.0
 33
0.0
 40
0.0
 40
0.0
 40
0.0
 40
0.0
 40
0.4999999999999953
 40
0.4999999999999953
 40
0.7499999999999977
 40
0.7499999999999977
 40
1.0
 40
1.0
 40
1.0
 40
1.0
 10
126.15268885197
 20
99.77168038314073
 30
0.0
 10
126.183411093889
 20
99.80898236609379
 30
0.0
 10
126.2262483084243
 20
99.84559419814016
 30
0.0
 10
126.325675332624
 20
99.8933589814254
 30
0.0
 10
126.3654275274407
 20
99.90831649690773
 30
0.0
 10
126.4634689842989
 20
99.93150644267688
 30
0.0
 10
126.5230250398863
 20
99.93942988189666
 30
0.0
 10
126.5857015538622
 20
99.93942988189664
 30
0.0
  0
LINE
  5
100
330
1F
100
AcDbEntity
  8
0
  6
HIDDEN
 62
     7
370
     0
100
AcDbLine
 10
126.5857015539
 20
99.9394298819
 30
0.0
 11
129.5301879267
 21
99.9394298819
 31
0.0
  0
SPLINE
  5
101
330
1F
100
AcDbEntity
  8
0
  6
HIDDEN
 62
     7
370
     0
100
AcDbSpline
210
0.0
220
0.0
230
1.0
 70
     8
 71
     3
 72
    12
 73
     8
 74
     0
 42
0.00000001
 43
0.00000001
 12
1.0
 22
0.0
 32
0.0
 13
1.0
 23
0.0
 33
0.0
 40
0.0
 40
0.0
 40
0.0
 40
0.0
 40
0.2499999999999995
 40
0.2499999999999995
 40
0.499999999999999
 40
0.499999999999999
 40
1.0
 40
1.0
 40
1.0
 40
1.0
 10
129.5301879267293
 20
99.93942988189663
 30
0.0
 10
129.5932679652226
 20
99.93942988189661
 30
0.0
 10
129.652416587404
 20
99.93152395568416
 30
0.0
 10
129.7508891374731
 20
99.9081987942479
 30
0.0
 10
129.7899257494578
 20
99.89348600441622
 30
0.0
 10
129.8898222162368
 20
99.84553020368529
 30
0.0
 10
129.9322430973036
 20
99.80926804710525
 30
0.0
 10
129.9632006286215
 20
99.77168038314073
 30
0.0
  0
ELLIPSE
  5
102
330
1F
100
AcDbEntity
  8
0
  6
HIDDEN
 62
     7
370
     0
100
AcDbEllipse
 10
113.7107905509
 20
69.870937923
 30
0.0
 11
14.75368316065626
 21
31.09325491558114
 31
0.0
210
0.0
220
0.0
230
1.0
 40
0.3419987131
 41
5.193281737408638
 42
6.124043104552341
  0
SPLINE
  5
103
330
1F
100
AcDbEntity
  8
0
  6
HIDDEN
 62
     7
370
     0
100
AcDbSpline
210
0.0
220
0.0
230
1.0
 70
     8
 71
     3
 72
    12
 73
     8
 74
     0
 42
0.00000001
 43
0.00000001
 12
1.0
 22
0.0
 32
0.0
 13
1.0
 23
0.0
 33
0.0
 40
0.0
 40
0.0
 40
0.0
 40
0.0
 40
0.5000000000000028
 40
0.5000000000000028
 40
0.7500000000000013
 40
0.7500000000000013
 40
1.0
 40
1.0
 40
1.0
 40
1.0
 10
129.9632006286215
 20
79.78030724370906
 30
0.0
 10
129.9324783867023
 20
79.66775144429988
 30
0.0
 10
129.8896411721672
 20
79.55499358456031
 30
0.0
 10
129.7902141479674
 20
79.40545269876398
 30
0.0
 10
129.7504619531508
 20
79.35815996705712
 30
0.0
 10
129.6524204962925
 20
79.28442367373573
 30
0.0
 10
129.5928644407051
 20
79.25900435435993
 30
0.0
 10
129.5301879267293
 20
79.25900435435993
 30
0.0
  0
LINE
  5
104
330
1F
100
AcDbEntity
  8
0
  6
HIDDEN
 62
     7
370
     0
100
AcDbLine
 10
129.5301879267
 20
79.2590043544
 30
0.0
 11
126.5857015539
 21
79.2590043544
 31
0.0
  0
SPLINE
  5
105
330
1F
100
AcDbEntity
  8
0
  6
HIDDEN
 62
     7
370
     0
100
AcDbSpline
210
0.0
220
0.0
230
1.0
 70
     8
 71
     3
 72
    12
 73
     8
 74
     0
 42
0.00000001
 43
0.00000001
 12
1.0
 22
0.0
 32
0.0
 13
1.0
 23
0.0
 33
0.0
 40
0.0
 40
0.0
 40
0.0
 40
0.0
 40
0.2500000000000014
 40
0.2500000000000014
 40
0.5000000000000028
 40
0.5000000000000028
 40
1.0
 40
1.0
 40
1.0
 40
1.0
 10
126.5857015538622
 20
79.25900435435993
 30
0.0
 10
126.5226215153688
 20
79.25900435435993
 30
0.0
 10
126.4634728931874
 20
79.28436867357497
 30
0.0
 10
126.3650003431183
 20
79.35853353394783
 30
0.0
 10
126.3259637311336
 20
79.40505387450195
 30
0.0
 10
126.2260672643546
 20
79.55519621734716
 30
0.0
 10
126.183646383288
 20
79.6668894243193
 30
0.0
 10
126.15268885197
 20
79.78030724370903
 30
0.0
  0
ELLIPSE
  5
106
330
1F
100
AcDbEntity
  8
0
  6
HIDDEN
 62
     7
370
     0
100
AcDbEllipse
 10
142.4050989297
 20
69.870937923
 30
0.0
 11
-14.7536831606563
 21
31.09325491558117
 31
0.0
210
0.0
220
0.0
230
1.0
 40
0.3419987131
 41
0.1591422026272828
 42
1.089903569770961
  0
ELLIPSE
  5
107
330
1F
100
AcDbEntity
  8
0
  6
HIDDEN
 62
     7
370
     0
100
AcDbEllipse
 10
244.772138222
 20
69.870937923
 30
0.0
 11
61.6842815204739
 21
31.41939029509007
 31
0.0
210
0.0
220
0.0
230
1.0
 40
0.0365099643
 41
1.651147650121176
 42
3.213148651838492
  0
ELLIPSE
  5
108
330
1F
100
AcDbEntity
  8
0
  6
HIDDEN
 62
     7
370
     0
100
AcDbEllipse
 10
244.231721579
 20
69.870937923
 30
0.0
 11
1.421085471520200E-13
 21
31.49999999999998
 31
0.0
210
0.0
220
0.0
230
1.0
 40
0.1763269807
 41
1.562001001716919
 42
1.579591651872876
  0
ELLIPSE
  5
109
330
1F
100
AcDbEntity
  8
0
  6
HIDDEN
 62
     7
370
     0
100
AcDbEllipse
 10
244.772138222
 20
69.870937923
 30
0.0
 11
61.68428152047378
 21
-31.41939029508999
 31
0.0
210
0.0
220
0.0
230
1.0
 40
0.0365099643
 41
3.07003665534145
 42
4.632037657058411
  0
SPLINE
  5
10A
330
1F
100
AcDbEntity
  8
0
  6
HIDDEN
 62
     7
370
     0
100
AcDbSpline
210
0.0
220
0.0
230
1.0
 70
     8
 71
     3
 72
    70
 73
    66
 74
     0
 42
0.00000001
 43
0.00000001
 12
1.0
 22
0.0
 32
0.0
 13
1.0
 23
0.0
 33
0.0
 40
-0.03125
 40
-0.03125
 40
0.0
 40
0.0
 40
0.03125
 40
0.03125
 40
0.0625
 40
0.0625
 40
0.09375
 40
0.09375
 40
0.125
 40
0.125
 40
0.15625
 40
0.15625
 40
0.1875
 40
0.1875
 40
0.21875
 40
0.21875
 40
0.25
 40
0.25
 40
0.28125
 40
0.28125
 40
0.3125
 40
0.3125
 40
0.34375
 40
0.34375
 40
0.375
 40
0.375
 40
0.40625
 40
0.40625
 40
0.4375
 40
0.4375
 40
0.46875
 40
0.46875
 40
0.5
 40
0.5
 40
0.53125
 40
0.53125
 40
0.5625
 40
0.5625
 40
0.59375
 40
0.59375
 40
0.625
 40
0.625
 40
0.65625
 40
0.65625
 40
0.6875
 40
0.6875
 40
0.71875
 40
0.71875
 40
0.75
 40
0.75
 40
0.78125
 40
0.78125
 40
0.8125
 40
0.8125
 40
0.84375
 40
0.84375
 40
0.875
 40
0.875
 40
0.90625
 40
0.90625
 40
0.9375
 40
0.9375
 40
0.96875
 40
0.96875
 40
1.0
 40
1.0
 40
1.03125
 40
1.03125
 10
208.2044617664884
 20
64.17846510187677
 30
0.0
 10
208.2233431667506
 20
63.62368765437751
 30
0.0
 10
208.260855261537
 20
63.35284445325365
 30
0.0
 10
208.3875823022678
 20
62.8231542364914
 30
0.0
 10
208.4780311129303
 20
62.56189957206539
 30
0.0
 10
208.7062262534047
 20
62.06401556281406
 30
0.0
 10
208.8426885097435
 20
61.82871152038127
 30
0.0
 10
209.158631567826
 20
61.38394170394653
 30
0.0
 10
209.3399276039613
 20
61.1731993468157
 30
0.0
 10
209.7331628164315
 20
60.79248267538834
 30
0.0
 10
209.945983737271
 20
60.62063764098765
 30
0.0
 10
210.4047022365477
 20
60.31415600006519
 30
0.0
 10
210.6512688026862
 20
60.17992832194331
 30
0.0
 10
211.1583744485797
 20
59.96098519023509
 30
0.0
 10
211.4212624457048
 20
59.87446659920954
 30
0.0
 10
211.9669720895864
 20
59.75001112334931
 30
0.0
 10
212.247535997344
 20
59.713271423
 30
0.0
 10
212.8034374211423
 20
59.69406663329838
 30
0.0
 10
213.0817106541601
 20
59.71081498360886
 30
0.0
 10
213.6389547778998
 20
59.80141323981264
 30
0.0
 10
213.9078063165323
 20
59.87368554359877
 30
0.0
 10
214.4251991638839
 20
60.07043455493525
 30
0.0
 10
214.6767660435023
 20
60.1969819233551
 30
0.0
 10
215.1416325034404
 20
60.49536289837759
 30
0.0
 10
215.3554533438653
 20
60.66643168217026
 30
0.0
 10
215.7465587258519
 20
61.05220017208824
 30
0.0
 10
215.9222531565429
 20
61.26635365028695
 30
0.0
 10
216.2224192642585
 20
61.71984397787934
 30
0.0
 10
216.3497551201462
 20
61.96288264769313
 30
0.0
 10
216.5535600108999
 20
62.47226082742652
 30
0.0
 10
216.6285277121708
 20
62.73382916941245
 30
0.0
 10
216.7267777869249
 20
63.27043824595936
 30
0.0
 10
216.749690677293
 20
63.54822794145083
 30
0.0
 10
216.7411698598164
 20
64.09701080326643
 30
0.0
 10
216.7105454954262
 20
64.36958022944242
 30
0.0
 10
216.5961832882651
 20
64.91096551827107
 30
0.0
 10
216.5119112619979
 20
65.17886515638682
 30
0.0
 10
216.2965701288103
 20
65.68796067697119
 30
0.0
 10
216.1650066190188
 20
65.93213570507345
 30
0.0
 10
215.8520656766858
 20
66.39860634005326
 30
0.0
 10
215.6748362923502
 20
66.61445167877251
 30
0.0
 10
215.283080954497
 20
67.0088612221245
 30
0.0
 10
215.065907789361
 20
67.18949198272476
 30
0.0
 10
214.6016286864776
 20
67.50496165657906
 30
0.0
 10
214.3572263398202
 20
67.63864744855914
 30
0.0
 10
213.8443172046716
 20
67.85861619713927
 30
0.0
 10
213.5730021317862
 20
67.94515854241023
 30
0.0
 10
213.0265190197302
 20
68.06270015225164
 30
0.0
 10
212.7497814199546
 20
68.0949352401746
 30
0.0
 10
212.1892263824253
 20
68.10563850666875
 30
0.0
 10
211.9061132435918
 20
68.08334891050964
 30
0.0
 10
211.3573380248489
 20
67.98586104657637
 30
0.0
 10
211.0885268970679
 20
67.91088099738747
 30
0.0
 10
210.5626447664152
 20
67.70575747380065
 30
0.0
 10
210.3132965910602
 20
67.57846816700263
 30
0.0
 10
209.8449871029206
 20
67.27764621819219
 30
0.0
 10
209.6231563075535
 20
67.10158090962688
 30
0.0
 10
209.2225669084592
 20
66.710009346084
 30
0.0
 10
209.0448765811197
 20
66.49656341427276
 30
0.0
 10
208.7347142534137
 20
66.03457921383148
 30
0.0
 10
208.6021027269268
 20
65.7839732036145
 30
0.0
 10
208.3956678102097
 20
65.27022324286321
 30
0.0
 10
208.3197527945113
 20
65.00464160124604
 30
0.0
 10
208.2235446627963
 20
64.45593207914845
 30
0.0
 10
208.2044617664884
 20
64.17846510187677
 30
0.0
 10
208.2233431667506
 20
63.62368765437751
 30
0.0
  0
LINE
  5
10B
330
1F
100
AcDbEntity
  8
0
  6
HIDDEN
 62
     7
370
     0
100
AcDbLine
 10
116.0579447403
 20
38.870937923
 30
0.0
 11
116.0579447403
 21
100.870937923
 31
0.0
  0
CIRCLE
  5
10C
330
1F
100
AcDbEntity
  8
0
  6
HIDDEN
 62
     7
370
     0
100
AcDbCircle
 10
183.0579447403
 20
69.870937923
 30
0.0
 40
2.5
  0
CIRCLE
  5
10D
330
1F
100
AcDbEntity
  8
0
  6
HIDDEN
 62
     7
370
     0
100
AcDbCircle
 10
183.0579447403
 20
69.870937923
 30
0.0
 40
3.0
  0
LINE
  5
10E
330
1F
100
AcDbEntity
  8
0
  6
HIDDEN
 62
     7
370
     0
100
AcDbLine
 10
116.0579447403
 20
45.620937923
 30
0.0
 11
116.0579447403
 21
94.120937923
 31
0.0
  0
SPLINE
  5
10F
330
1F
100
AcDbEntity
  8
0
  6
HIDDEN
 62
     7
370
     0
100
AcDbSpline
210
0.0
220
0.0
230
1.0
 70
     8
 71
     3
 72
    12
 73
     8
 74
     0
 42
0.00000001
 43
0.00000001
 12
1.0
 22
0.0
 32
0.0
 13
1.0
 23
0.0
 33
0.0
 40
0.0
 40
0.0
 40
0.0
 40
0.0
 40
0.5000000000000001
 40
0.5000000000000001
 40
0.7500000000000002
 40
0.7500000000000002
 40
1.0
 40
1.0
 40
1.0
 40
1.0
 10
115.2414324538403
 20
85.32320590486141
 30
0.0
 10
115.297838632521
 20
85.27538353119937
 30
0.0
 10
115.368001533993
 20
85.23511268425821
 30
0.0
 10
115.486012247385
 20
85.22706681577851
 30
0.0
 10
115.5262180309816
 20
85.2336294141169
 30
0.0
 10
115.5999387277167
 20
85.26101150857052
 30
0.0
 10
115.6327994495041
 20
85.2807729991013
 30
0.0
 10
115.6629678514341
 20
85.30370571028992
 30
0.0
  0
SPLINE
  5
110
330
1F
100
AcDbEntity
  8
0
  6
HIDDEN
 62
     7
370
     0
100
AcDbSpline
210
0.0
220
0.0
230
1.0
 70
     8
 71
     3
 72
    16
 73
    12
 74
     0
 42
0.00000001
 43
0.00000001
 12
1.0
 22
0.0
 32
0.0
 13
1.0
 23
0.0
 33
0.0
 40
0.0
 40
0.0
 40
0.0
 40
0.0
 40
0.062500000000002
 40
0.062500000000002
 40
0.1250000000000039
 40
0.1250000000000039
 40
0.2500000000000079
 40
0.2500000000000079
 40
0.5000000000000052
 40
0.5000000000000052
 40
1.0
 40
1.0
 40
1.0
 40
1.0
 10
115.662967851389
 20
85.30370571033798
 30
0.0
 10
115.6745807512284
 20
85.31253333331938
 30
0.0
 10
115.6879319356609
 20
85.32036771520133
 30
0.0
 10
115.71733177528
 20
85.3286778412737
 30
0.0
 10
115.7321724998354
 20
85.32818202203867
 30
0.0
 10
115.768005707804
 20
85.3167310510693
 30
0.0
 10
115.7821189156256
 20
85.30005055021063
 30
0.0
 10
115.8166102868445
 20
85.24792986445358
 30
0.0
 10
115.8276943579549
 20
85.20814037042858
 30
0.0
 10
115.8538171757509
 20
85.08480373833146
 30
0.0
 10
115.8579447402957
 20
84.99738232783282
 30
0.0
 10
115.8579447402957
 20
84.90864508551462
 30
0.0
  0
LINE
  5
111
330
1F
100
AcDbEntity
  8
0
  6
HIDDEN
 62
     7
370
     0
100
AcDbLine
 10
115.8579447403
 20
54.8332307605
 30
0.0
 11
115.8579447403
 21
84.9086450855
 31
0.0
  0
SPLINE
  5
112
330
1F
100
AcDbEntity
  8
0
  6
HIDDEN
 62
     7
370
     0
100
AcDbSpline
210
0.0
220
0.0
230
1.0
 70
     8
 71
     3
 72
    16
 73
    12
 74
     0
 42
0.00000001
 43
0.00000001
 12
1.0
 22
0.0
 32
0.0
 13
1.0
 23
0.0
 33
0.0
 40
0.0
 40
0.0
 40
0.0
 40
0.0
 40
0.5000000000000032
 40
0.5000000000000032
 40
0.7500000000000049
 40
0.7500000000000049
 40
0.8750000000000057
 40
0.8750000000000057
 40
0.9375000000000028
 40
0.9375000000000028
 40
1.0
 40
1.0
 40
1.0
 40
1.0
 10
115.8579447402957
 20
54.83323076053222
 30
0.0
 10
115.8579447402957
 20
54.74410439534347
 30
0.0
 10
115.8537984652178
 20
54.65724302773005
 30
0.0
 10
115.8278328698243
 20
54.53426078123601
 30
0.0
 10
115.8163719644468
 20
54.49348948600471
 30
0.0
 10
115.7820602266725
 20
54.44178516600494
 30
0.0
 10
115.7680354907428
 20
54.42511479941449
 30
0.0
 10
115.7320125277091
 20
54.41366257895776
 30
0.0
 10
115.7172580186193
 20
54.41320953268275
 30
0.0
 10
115.6879058574725
 20
54.42152485389893
 30
0.0
 10
115.6745659829683
 20
54.42935373897725
 30
0.0
 10
115.66296785142
 20
54.43817013573988
 30
0.0
  0
SPLINE
  5
113
330
1F
100
AcDbEntity
  8
0
  6
HIDDEN
 62
     7
370
     0
100
AcDbSpline
210
0.0
220
0.0
230
1.0
 70
     8
 71
     3
 72
    12
 73
     8
 74
     0
 42
0.00000001
 43
0.00000001
 12
1.0
 22
0.0
 32
0.0
 13
1.0
 23
0.0
 33
0.0
 40
0.0
 40
0.0
 40
0.0
 40
0.0
 40
0.25
 40
0.25
 40
0.5
 40
0.5
 40
1.0
 40
1.0
 40
1.0
 40
1.0
 10
115.6629678514271
 20
54.43817013574877
 30
0.0
 10
115.6327760097099
 20
54.4611206648466
 30
0.0
 10
115.5994170402953
 20
54.48109013887078
 30
0.0
 10
115.5262797557147
 20
54.50819127249628
 30
0.0
 10
115.4860378830607
 20
54.51479201314169
 30
0.0
 10
115.3683321060922
 20
54.50682313863498
 30
0.0
 10
115.2979216283128
 20
54.46656268046713
 30
0.0
 10
115.2414324538445
 20
54.41866994118899
 30
0.0
  0
SPLINE
  5
114
330
1F
100
AcDbEntity
  8
0
  6
HIDDEN
 62
     7
370
     0
100
AcDbSpline
210
0.0
220
0.0
230
1.0
 70
     8
 71
     3
 72
    12
 73
     8
 74
     0
 42
0.00000001
 43
0.00000001
 12
1.0
 22
0.0
 32
0.0
 13
1.0
 23
0.0
 33
0.0
 40
0.0
 40
0.0
 40
0.0
 40
0.0
 40
0.2500000000000023
 40
0.2500000000000023
 40
0.5000000000000047
 40
0.5000000000000047
 40
1.0
 40
1.0
 40
1.0
 40
1.0
 10
115.2414324538441
 20
54.41866994118924
 30
0.0
 10
115.1532785161064
 20
54.34393113333514
 30
0.0
 10
115.0929250914776
 20
54.25295063285275
 30
0.0
 10
114.9866631334108
 20
54.06403681010013
 30
0.0
 10
114.9444309668487
 20
53.96753235055956
 30
0.0
 10
114.8333602715316
 20
53.67676459639241
 30
0.0
 10
114.7804234951048
 20
53.48109778184866
 30
0.0
 10
114.736624396736
 20
53.28703129678235
 30
0.0
  0
SPLINE
  5
115
330
1F
100
AcDbEntity
  8
0
  6
HIDDEN
 62
     7
370
     0
100
AcDbSpline
210
0.0
220
0.0
230
1.0
 70
     8
 71
     3
 72
    12
 73
     8
 74
     0
 42
0.00000001
 43
0.00000001
 12
1.0
 22
0.0
 32
0.0
 13
1.0
 23
0.0
 33
0.0
 40
0.0
 40
0.0
 40
0.0
 40
0.0
 40
0.4999999999999991
 40
0.4999999999999991
 40
0.7499999999999996
 40
0.7499999999999996
 40
1.0
 40
1.0
 40
1.0
 40
1.0
 10
114.736624396736
 20
48.1008569680213
 30
0.0
 10
114.7803709375726
 20
48.07426279738012
 30
0.0
 10
114.8332552928041
 20
48.05450257205439
 30
0.0
 10
114.9448223801403
 20
48.0340515818253
 30
0.0
 10
114.9874059766832
 20
48.02879135716886
 30
0.0
 10
115.092322703765
 20
48.02090856324622
 30
0.0
 10
115.1538563116098
 20
48.01834443806707
 30
0.0
 10
115.2414324538359
 20
48.01614422054742
 30
0.0
  0
LINE
  5
116
330
1F
100
AcDbEntity
  8
0
  6
HIDDEN
 62
     7
370
     0
100
AcDbLine
 10
115.8579447403
 20
47.3311176441
 30
0.0
 11
115.8579447403
 21
47.8113434348
 31
0.0
  0
LINE
  5
117
330
1F
100
AcDbEntity
  8
0
  6
HIDDEN
 62
     7
370
     0
100
AcDbLine
 10
115.8579447403
 20
91.9305324113
 30
0.0
 11
115.8579447403
 21
92.4107582019
 31
0.0
  0
SPLINE
  5
118
330
1F
100
AcDbEntity
  8
0
  6
HIDDEN
 62
     7
370
     0
100
AcDbSpline
210
0.0
220
0.0
230
1.0
 70
     8
 71
     3
 72
    12
 73
     8
 74
     0
 42
0.00000001
 43
0.00000001
 12
1.0
 22
0.0
 32
0.0
 13
1.0
 23
0.0
 33
0.0
 40
0.0
 40
0.0
 40
0.0
 40
0.0
 40
0.2500000000000001
 40
0.2500000000000001
 40
0.5000000000000001
 40
0.5000000000000001
 40
1.0
 40
1.0
 40
1.0
 40
1.0
 10
115.2414324538439
 20
91.72573162549932
 30
0.0
 10
115.1527477939876
 20
91.72350355815834
 30
0.0
 10
115.0928293782642
 20
91.72100177412801
 30
0.0
 10
114.9871701509435
 20
91.713070338292
 30
0.0
 10
114.9445289128285
 20
91.70777818339516
 30
0.0
 10
114.833339570726
 20
91.68737324290801
 30
0.0
 10
114.780412888605
 20
91.66763855132115
 30
0.0
 10
114.736624396736
 20
91.64101887802553
 30
0.0
  0
SPLINE
  5
119
330
1F
100
AcDbEntity
  8
0
  6
HIDDEN
 62
     7
370
     0
100
AcDbSpline
210
0.0
220
0.0
230
1.0
 70
     8
 71
     3
 72
    12
 73
     8
 74
     0
 42
0.00000001
 43
0.00000001
 12
1.0
 22
0.0
 32
0.0
 13
1.0
 23
0.0
 33
0.0
 40
0.0
 40
0.0
 40
0.0
 40
0.0
 40
0.4999999999999991
 40
0.4999999999999991
 40
0.7499999999999997
 40
0.7499999999999997
 40
1.0
 40
1.0
 40
1.0
 40
1.0
 10
114.7366243967344
 20
86.45484454926462
 30
0.0
 10
114.7803858730329
 20
86.2609447613038
 30
0.0
 10
114.8332921886855
 20
86.06508839736821
 30
0.0
 10
114.9450033863317
 20
85.77294625087112
 30
0.0
 10
114.9875228299177
 20
85.67622831417377
 30
0.0
 10
115.0926461724836
 20
85.48950387775022
 30
0.0
 10
115.1542121362004
 20
85.39715316948093
 30
0.0
 10
115.2414324538411
 20
85.32320590486067
 30
0.0
  0
ARC
  5
11A
330
1F
100
AcDbEntity
  8
0
  6
HIDDEN
 62
     7
370
     0
100
AcDbCircle
 10
183.2884850613
 20
67.6199190129
 30
0.0
 40
0.248854828139478
100
AcDbArc
 50
257.3188891218
 51
294.376341564
  0
ARC
  5
11B
330
1F
100
AcDbEntity
  8
0
  6
HIDDEN
 62
     7
370
     0
100
AcDbCircle
 10
183.2884850613
 20
72.1219568332
 30
0.0
 40
0.2488548281378433
100
AcDbArc
 50
65.6236584358
 51
102.6811108782
  0
ARC
  5
11C
330
1F
100
AcDbEntity
  8
0
  6
HIDDEN
 62
     7
370
     0
100
AcDbCircle
 10
183.0579447403
 20
69.870937923
 30
0.0
 40
2.500000000000126
100
AcDbArc
 50
277.6603231745
 51
82.3396768255
  0
ARC
  5
11D
330
1F
100
AcDbEntity
  8
0
  6
HIDDEN
 62
     7
370
     0
100
AcDbCircle
 10
183.0579447403
 20
69.870937923
 30
0.0
 40
2.500000000000116
100
AcDbArc
 50
274.0349075115
 51
85.9650924885
  0
LINE
  5
11E
330
1F
100
AcDbEntity
  8
0
  6
HIDDEN
 62
     7
370
     0
100
AcDbLine
 10
115.8579447403
 20
47.8113434348
 30
0.0
 11
115.8579447403
 21
62.8490505973
 31
0.0
  0
LINE
  5
11F
330
1F
100
AcDbEntity
  8
0
  6
HIDDEN
 62
     7
370
     0
100
AcDbLine
 10
115.8579447403
 20
76.8928252488
 30
0.0
 11
115.8579447403
 21
91.9305324113
 31
0.0
  0
SPLINE
  5
120
330
1F
100
AcDbEntity
  8
0
  6
HIDDEN
 62
     7
370
     0
100
AcDbSpline
210
0.0
220
0.0
230
1.0
 70
     8
 71
     3
 72
     8
 73
     4
 74
     0
 42
0.00000001
 43
0.00000001
 12
1.0
 22
0.0
 32
0.0
 13
1.0
 23
0.0
 33
0.0
 40
0.0
 40
0.0
 40
0.0
 40
0.0
 40
1.0
 40
1.0
 40
1.0
 40
1.0
 10
183.2338553094556
 20
72.36474133782136
 30
0.0
 10
183.277471317175
 20
72.36166470527812
 30
0.0
 10
183.330753509641
 20
72.35675661619764
 30
0.0
 10
183.3911945056953
 20
72.3486272889168
 30
0.0
  0
SPLINE
  5
121
330
1F
100
AcDbEntity
  8
0
  6
HIDDEN
 62
     7
370
     0
100
AcDbSpline
210
0.0
220
0.0
230
1.0
 70
     8
 71
     3
 72
     8
 73
     4
 74
     0
 42
0.00000001
 43
0.00000001
 12
1.0
 22
0.0
 32
0.0
 13
1.0
 23
0.0
 33
0.0
 40
0.0
 40
0.0
 40
0.0
 40
0.0
 40
1.0
 40
1.0
 40
1.0
 40
1.0
 10
183.3911945056954
 20
67.39324855713001
 30
0.0
 10
183.3303698982541
 20
67.38506763403315
 30
0.0
 10
183.2773928149697
 20
67.38020560329629
 30
0.0
 10
183.2338553094557
 20
67.37713450822547
 30
0.0
  0
CIRCLE
  5
122
330
1F
100
AcDbEntity
  8
0
  6
HIDDEN
 62
     7
370
     0
100
AcDbCircle
 10
100.5579447403
 20
69.870937923
 30
0.0
 40
4.050000000000011
  0
LINE
  5
123
330
1F
100
AcDbEntity
  8
0
  6
HIDDEN
 62
     7
370
     0
100
AcDbLine
 10
79.5881731799
 20
85.1838889659
 30
0.0
 11
79.5881731799
 21
54.5579868801
 31
0.0
  0
LINE
  5
124
330
1F
100
AcDbEntity
  8
0
  6
HIDDEN
 62
     7
370
     0
100
AcDbLine
 10
78.0579447403
 20
53.6745090786
 30
0.0
 11
78.0579447403
 21
86.0427727564
 31
0.0
  0
LINE
  5
125
330
1F
100
AcDbEntity
  8
0
  6
HIDDEN
 62
     7
370
     0
100
AcDbLine
 10
86.0881731799
 20
84.2173480845
 30
0.0
 11
86.0881731799
 21
55.5245277615
 31
0.0
  0
LINE
  5
126
330
1F
100
AcDbEntity
  8
0
  6
HIDDEN
 62
     7
370
     0
100
AcDbLine
 10
91.8881731799
 20
83.870937923
 30
0.0
 11
91.8881731799
 21
55.870937923
 31
0.0
  0
LINE
  5
127
330
1F
100
AcDbEntity
  8
0
  6
HIDDEN
 62
     7
370
     0
100
AcDbLine
 10
84.4881731799
 20
83.870937923
 30
0.0
 11
84.4881731799
 21
55.870937923
 31
0.0
  0
LINE
  5
128
330
1F
100
AcDbEntity
  8
0
  6
HIDDEN
 62
     7
370
     0
100
AcDbLine
 10
85.4881731799
 20
83.870937923
 30
0.0
 11
85.4881731799
 21
55.870937923
 31
0.0
  0
SPLINE
  5
129
330
1F
100
AcDbEntity
  8
0
  6
HIDDEN
 62
     7
370
     0
100
AcDbSpline
210
0.0
220
0.0
230
1.0
 70
     8
 71
     3
 72
    10
 73
     6
 74
     0
 42
0.00000001
 43
0.00000001
 12
1.0
 22
0.0
 32
0.0
 13
1.0
 23
0.0
 33
0.0
 40
0.0
 40
0.0
 40
0.0
 40
0.0
 40
0.5
 40
0.5
 40
1.0
 40
1.0
 40
1.0
 40
1.0
 10
104.5579447402957
 20
70.50536680004595
 30
0.0
 10
104.5910921583721
 20
70.29637619903792
 30
0.0
 10
104.6079510037338
 20
70.08481373301629
 30
0.0
 10
104.6079384733861
 20
69.65682496704866
 30
0.0
 10
104.5910235156457
 20
69.44506686263296
 30
0.0
 10
104.5579447402957
 20
69.23650904600086
 30
0.0
  0
LINE
  5
12A
330
1F
100
AcDbEntity
  8
0
  6
HIDDEN
 62
     7
370
     0
100
AcDbLine
 10
105.0579447403
 20
83.370937923
 30
0.0
 11
105.0579447403
 21
56.370937923
 31
0.0
  0
SPLINE
  5
12B
330
1F
100
AcDbEntity
  8
0
  6
HIDDEN
 62
     7
370
     0
100
AcDbSpline
210
0.0
220
0.0
230
1.0
 70
     8
 71
     3
 72
    10
 73
     6
 74
     0
 42
0.00000001
 43
0.00000001
 12
1.0
 22
0.0
 32
0.0
 13
1.0
 23
0.0
 33
0.0
 40
0.0
 40
0.0
 40
0.0
 40
0.0
 40
0.5
 40
0.5
 40
1.0
 40
1.0
 40
1.0
 40
1.0
 10
104.5579447402957
 20
69.23650904600089
 30
0.0
 10
104.5911337027694
 20
69.44576157958336
 30
0.0
 10
104.607834479024
 20
69.65657834048233
 30
0.0
 10
104.6080539194687
 20
70.08111062168564
 30
0.0
 10
104.5911742040753
 20
70.29585891045826
 30
0.0
 10
104.5579447402957
 20
70.50536680004595
 30
0.0
  0
SPLINE
  5
12C
330
1F
100
AcDbEntity
  8
0
  6
HIDDEN
 62
     7
370
     0
100
AcDbSpline
210
0.0
220
0.0
230
1.0
 70
     8
 71
     3
 72
    66
 73
    62
 74
     0
 42
0.00000001
 43
0.00000001
 12
1.0
 22
0.0
 32
0.0
 13
1.0
 23
0.0
 33
0.0
 40
0.0
 40
0.0
 40
0.0
 40
0.0
 40
0.03125
 40
0.03125
 40
0.0625
 40
0.0625
 40
0.09375
 40
0.09375
 40
0.1249999999999999
 40
0.1249999999999999
 40
0.1562499999999999
 40
0.1562499999999999
 40
0.1874999999999999
 40
0.1874999999999999
 40
0.2187499999999999
 40
0.2187499999999999
 40
0.2499999999999999
 40
0.2499999999999999
 40
0.28125
 40
0.28125
 40
0.3125
 40
0.3125
 40
0.3437500000000001
 40
0.3437500000000001
 40
0.3750000000000001
 40
0.3750000000000001
 40
0.4374999999999999
 40
0.4374999999999999
 40
0.4687499999999998
 40
0.4687499999999998
 40
0.4999999999999997
 40
0.4999999999999997
 40
0.5312499999999997
 40
0.5312499999999997
 40
0.5624999999999996
 40
0.5624999999999996
 40
0.5937499999999994
 40
0.5937499999999994
 40
0.6249999999999993
 40
0.6249999999999993
 40
0.687499999999999
 40
0.687499999999999
 40
0.7187499999999991
 40
0.7187499999999991
 40
0.7499999999999992
 40
0.7499999999999992
 40
0.7812499999999993
 40
0.7812499999999993
 40
0.8124999999999994
 40
0.8124999999999994
 40
0.8437499999999996
 40
0.8437499999999996
 40
0.8749999999999996
 40
0.8749999999999996
 40
0.9062499999999997
 40
0.9062499999999997
 40
0.9374999999999998
 40
0.9374999999999998
 40
0.9687499999999999
 40
0.9687499999999999
 40
1.0
 40
1.0
 40
1.0
 40
1.0
 10
104.5579447402957
 20
69.23650904600086
 30
0.0
 10
104.5182745791294
 20
68.98639331134227
 30
0.0
 10
104.455798371286
 20
68.7427725283397
 30
0.0
 10
104.285855249927
 20
68.26822044368822
 30
0.0
 10
104.1773870716042
 20
68.03657130630553
 30
0.0
 10
103.923716145305
 20
67.60447668942177
 30
0.0
 10
103.7778473238404
 20
67.40150099518254
 30
0.0
 10
103.4472019027553
 20
67.02171268845912
 30
0.0
 10
103.2643457963442
 20
66.84767622128784
 30
0.0
 10
102.8728996005887
 20
66.5384160569035
 30
0.0
 10
102.6627520555323
 20
66.40156574280287
 30
0.0
 10
102.2137230820458
 20
66.1661902606106
 30
0.0
 10
101.9814233449149
 20
66.0710472294826
 30
0.0
 10
101.5014897451193
 20
65.924397229639
 30
0.0
 10
101.2514332829015
 20
65.87267152460987
 30
0.0
 10
100.7462783395742
 20
65.81734803173063
 30
0.0
 10
100.4942282328886
 20
65.8135871938938
 30
0.0
 10
99.99116144044734
 20
65.85286482469657
 30
0.0
 10
99.73765394965761
 20
65.89685885538951
 30
0.0
 10
99.25067163139335
 20
66.02942540374767
 30
0.0
 10
99.01569327848725
 20
66.11761561498258
 30
0.0
 10
98.56243490840357
 20
66.33768044156113
 30
0.0
 10
98.34495042620989
 20
66.46982487998712
 30
0.0
 10
97.94371793826092
 20
66.76759585467023
 30
0.0
 10
97.7575625987987
 20
66.93426496442665
 30
0.0
 10
97.2432066055269
 20
67.48981131685913
 30
0.0
 10
96.97465543575167
 20
67.91651873303782
 30
0.0
 10
96.69619332032529
 20
68.62447086653228
 30
0.0
 10
96.62652476044683
 20
68.866079771458
 30
0.0
 10
96.53238260586703
 20
69.3603965783937
 30
0.0
 10
96.5080232634142
 20
69.6160015610339
 30
0.0
 10
96.50786660329456
 20
70.12337326475632
 30
0.0
 10
96.53141599718728
 20
70.37423724779882
 30
0.0
 10
96.62509898966827
 20
70.8704219054711
 30
0.0
 10
96.6962858257773
 20
71.11726943434752
 30
0.0
 10
96.88015044517051
 20
71.58545853559808
 30
0.0
 10
96.99297411569255
 20
71.80924178805563
 30
0.0
 10
97.26083000796334
 20
72.23632834942643
 30
0.0
 10
97.41488978585767
 20
72.43725072543056
 30
0.0
 10
97.92306343850926
 20
72.98685254174467
 30
0.0
 10
98.33489422585241
 20
73.29305674059171
 30
0.0
 10
99.0096609614168
 20
73.62165852550648
 30
0.0
 10
99.24753466880631
 20
73.711472219008
 30
0.0
 10
99.73711126358522
 20
73.84499260780143
 30
0.0
 10
99.9857285344469
 20
73.88830056161066
 30
0.0
 10
100.4906410874738
 20
73.92828979024785
 30
0.0
 10
100.7481780281038
 20
73.92432400434492
 30
0.0
 10
101.2496681478875
 20
73.86939339425612
 30
0.0
 10
101.4962530692164
 20
73.81888633099884
 30
0.0
 10
101.9810664835579
 20
73.67112787301436
 30
0.0
 10
102.2161020282206
 20
73.57440340290293
 30
0.0
 10
102.6594811490318
 20
73.34205976976324
 30
0.0
 10
102.8706643100691
 20
73.205234294794
 30
0.0
 10
103.266749572904
 20
72.8922920039039
 30
0.0
 10
103.4473520010898
 20
72.7198141619373
 30
0.0
 10
103.7752344228136
 20
72.34355136675885
 30
0.0
 10
103.9237562105888
 20
72.13746151299041
 30
0.0
 10
104.1784266382657
 20
71.70340261951968
 30
0.0
 10
104.2844913623792
 20
71.47670211273832
 30
0.0
 10
104.4543892702853
 20
71.00378759718464
 30
0.0
 10
104.5183762387317
 20
70.7548415827806
 30
0.0
 10
104.5579447402957
 20
70.50536680004595
 30
0.0
  0
SPLINE
  5
12D
330
1F
100
AcDbEntity
  8
0
  6
HIDDEN
 62
     7
370
     0
100
AcDbSpline
210
0.0
220
0.0
230
1.0
 70
     8
 71
     3
 72
    70
 73
    66
 74
     0
 42
0.00000001
 43
0.00000001
 12
1.0
 22
0.0
 32
0.0
 13
1.0
 23
0.0
 33
0.0
 40
0.0
 40
0.0
 40
0.0
 40
0.0
 40
0.0312499999999999
 40
0.0312499999999999
 40
0.0624999999999999
 40
0.0624999999999999
 40
0.0937499999999998
 40
0.0937499999999998
 40
0.1249999999999998
 40
0.1249999999999998
 40
0.1562499999999998
 40
0.1562499999999998
 40
0.1874999999999997
 40
0.1874999999999997
 40
0.2187499999999997
 40
0.2187499999999997
 40
0.2499999999999997
 40
0.2499999999999997
 40
0.2812499999999996
 40
0.2812499999999996
 40
0.3124999999999996
 40
0.3124999999999996
 40
0.3437499999999995
 40
0.3437499999999995
 40
0.3749999999999994
 40
0.3749999999999994
 40
0.4062499999999993
 40
0.4062499999999993
 40
0.4374999999999993
 40
0.4374999999999993
 40
0.4687499999999992
 40
0.4687499999999992
 40
0.4999999999999992
 40
0.4999999999999992
 40
0.5312499999999991
 40
0.5312499999999991
 40
0.5624999999999991
 40
0.5624999999999991
 40
0.593749999999999
 40
0.593749999999999
 40
0.624999999999999
 40
0.624999999999999
 40
0.6562499999999989
 40
0.6562499999999989
 40
0.6874999999999989
 40
0.6874999999999989
 40
0.7187499999999988
 40
0.7187499999999988
 40
0.7499999999999987
 40
0.7499999999999987
 40
0.7812499999999989
 40
0.7812499999999989
 40
0.812499999999999
 40
0.812499999999999
 40
0.8437499999999992
 40
0.8437499999999992
 40
0.8749999999999993
 40
0.8749999999999993
 40
0.9062499999999996
 40
0.9062499999999996
 40
0.9374999999999997
 40
0.9374999999999997
 40
0.9687499999999999
 40
0.9687499999999999
 40
1.0
 40
1.0
 40
1.0
 40
1.0
 10
104.5579447402957
 20
70.50536680004596
 30
0.0
 10
104.5184555999374
 20
70.75434121964442
 30
0.0
 10
104.4546632140876
 20
71.00306417582334
 30
0.0
 10
104.2840737920982
 20
71.4778252885793
 30
0.0
 10
104.1777099081445
 20
71.70478475531357
 30
0.0
 10
103.9231443795035
 20
72.13834292940145
 30
0.0
 10
103.7742440206229
 20
72.34486362653703
 30
0.0
 10
103.4458729628736
 20
72.72133439165313
 30
0.0
 10
103.2652120380468
 20
72.89363462817856
 30
0.0
 10
102.869663240052
 20
73.20589656905074
 30
0.0
 10
102.6576026747657
 20
73.34317665628554
 30
0.0
 10
102.2145989421217
 20
73.57505753746905
 30
0.0
 10
101.9819378995586
 20
73.67088304555651
 30
0.0
 10
101.4947770965888
 20
73.81931538574061
 30
0.0
 10
101.2473347332606
 20
73.86982753400115
 30
0.0
 10
100.7448245550091
 20
73.92451074437972
 30
0.0
 10
100.4871807230934
 20
73.92820778299497
 30
0.0
 10
99.98303810960813
 20
73.88789306700446
 30
0.0
 10
99.73516134685798
 20
73.84452034224907
 30
0.0
 10
99.24770501020826
 20
73.71145892994379
 30
0.0
 10
99.0083462724186
 20
73.62114500567041
 30
0.0
 10
98.55780888867197
 20
73.40148535216696
 30
0.0
 10
98.34388555910525
 20
73.27154596196378
 30
0.0
 10
97.93883703022881
 20
72.97036817637448
 30
0.0
 10
97.75202818580361
 20
72.80206858303
 30
0.0
 10
97.41360728561297
 20
72.43566727090455
 30
0.0
 10
97.26025905352382
 20
72.23558028585468
 30
0.0
 10
96.99207170592021
 20
71.80763973165327
 30
0.0
 10
96.87948594032255
 20
71.58391938747206
 30
0.0
 10
96.69628916811565
 20
71.11712445901844
 30
0.0
 10
96.62525101923103
 20
70.8712304113935
 30
0.0
 10
96.53126034282782
 20
70.3734095432966
 30
0.0
 10
96.50789523623877
 20
70.12268046848637
 30
0.0
 10
96.50799440047045
 20
69.6176050600596
 30
0.0
 10
96.5322470646557
 20
69.36105652903595
 30
0.0
 10
96.62671843844235
 20
68.86511459101915
 30
0.0
 10
96.69654212279644
 20
68.62356943275957
 30
0.0
 10
96.88154886061781
 20
68.15324421900614
 30
0.0
 10
96.99661623323647
 20
67.92620238910472
 30
0.0
 10
97.26296563613624
 20
67.50278046727195
 30
0.0
 10
97.41515221345313
 20
67.30398179539996
 30
0.0
 10
97.75876328069678
 20
66.93308295993235
 30
0.0
 10
97.94506426856518
 20
66.76648552109829
 30
0.0
 10
98.34593809479469
 20
66.46920370712283
 30
0.0
 10
98.56255484801814
 20
66.33757641281028
 30
0.0
 10
99.01676409786735
 20
66.11714162974069
 30
0.0
 10
99.25157974045275
 20
66.02918106143024
 30
0.0
 10
99.73665994014432
 20
65.89712658207463
 30
0.0
 10
99.98990948338707
 20
65.85298621516766
 30
0.0
 10
100.4947289476319
 20
65.81352449285512
 30
0.0
 10
100.7466165199597
 20
65.817440230505
 30
0.0
 10
101.2493520460213
 20
65.87238862092859
 30
0.0
 10
101.5012140821227
 20
65.92428383056085
 30
0.0
 10
101.9825583405602
 20
66.07142326102728
 30
0.0
 10
102.2148043135462
 20
66.16672474373254
 30
0.0
 10
102.6624832015298
 20
66.401457156642
 30
0.0
 10
102.8741694029022
 20
66.53928458113741
 30
0.0
 10
103.2657755445102
 20
66.84894139524351
 30
0.0
 10
103.4480505508723
 20
67.02253992484351
 30
0.0
 10
103.7790480508039
 20
67.40302864280324
 30
0.0
 10
103.9247431256773
 20
67.60605629008927
 30
0.0
 10
104.177772876986
 20
68.03739914791238
 30
0.0
 10
104.2859424968766
 20
68.26832824151609
 30
0.0
 10
104.4562067457425
 20
68.74404910808927
 30
0.0
 10
104.5184474692172
 20
68.98748336316073
 30
0.0
 10
104.5579447402957
 20
69.23650904600088
 30
0.0
  0
LINE
  5
12E
330
1F
100
AcDbEntity
  8
0
  6
HIDDEN
 62
     7
370
     0
100
AcDbLine
 10
106.3079447403
 20
78.870937923
 30
0.0
 11
106.3079447403
 21
60.870937923
 31
0.0
  0
LINE
  5
12F
330
1F
100
AcDbEntity
  8
0
  6
HIDDEN
 62
     7
370
     0
100
AcDbLine
 10
105.0579447403
 20
59.620937923
 30
0.0
 11
105.0579447403
 21
80.120937923
 31
0.0
  0
LINE
  5
130
330
1F
100
AcDbEntity
  8
0
  6
HIDDEN
 62
     7
370
     0
100
AcDbLine
 10
143.0579447403
 20
60.870937923
 30
0.0
 11
143.0579447403
 21
78.870937923
 31
0.0
  0
LINE
  5
131
330
1F
100
AcDbEntity
  8
0
  6
HIDDEN
 62
     7
370
     0
100
AcDbLine
 10
145.9120326807
 20
65.620937923
 30
0.0
 11
145.9120326807
 21
74.120937923
 31
0.0
  0
CIRCLE
  5
132
330
1F
100
AcDbEntity
  8
0
  6
HIDDEN
 62
     7
370
     0
100
AcDbCircle
 10
217.9725721108
 20
63.9089879401
 30
0.0
 40
3.486282358365896
  0
ARC
  5
133
330
1F
100
AcDbEntity
  8
0
  6
HIDDEN
 62
     7
370
     0
100
AcDbCircle
 10
218.5704115528
 20
71.8214604755
 30
0.0
 40
2.094909253094346
100
AcDbArc
 50
67.9486081054
 51
242.449774805
  0
LINE
  5
134
330
1F
100
AcDbEntity
  8
0
  6
HIDDEN
 62
     7
370
     0
100
AcDbLine
 10
232.0687804337
 20
63.1630153392
 30
0.0
 11
230.4677442356
 21
63.1630153392
 31
0.0
  0
LINE
  5
135
330
1F
100
AcDbEntity
  8
0
  6
HIDDEN
 62
     7
370
     0
100
AcDbLine
 10
187.0579447403
 20
65.620937923
 30
0.0
 11
187.0579447403
 21
74.120937923
 31
0.0
  0
SPLINE
  5
136
330
1F
100
AcDbEntity
  8
0
  6
HIDDEN
 62
     7
370
     0
100
AcDbSpline
210
0.0
220
0.0
230
1.0
 70
     8
 71
     3
 72
    60
 73
    56
 74
     0
 42
0.00000001
 43
0.00000001
 12
1.0
 22
0.0
 32
0.0
 13
1.0
 23
0.0
 33
0.0
 40
-0.0312500000000002
 40
-0.0312500000000002
 40
0.0
 40
0.0
 40
0.0312499999999979
 40
0.0312499999999979
 40
0.0624999999999958
 40
0.0624999999999958
 40
0.1249999999999939
 40
0.1249999999999939
 40
0.1562499999999938
 40
0.1562499999999938
 40
0.1874999999999938
 40
0.1874999999999938
 40
0.2187499999999938
 40
0.2187499999999938
 40
0.2499999999999937
 40
0.2499999999999937
 40
0.3124999999999936
 40
0.3124999999999936
 40
0.3749999999999935
 40
0.3749999999999935
 40
0.4062499999999934
 40
0.4062499999999934
 40
0.4374999999999934
 40
0.4374999999999934
 40
0.4687499999999934
 40
0.4687499999999934
 40
0.4999999999999933
 40
0.4999999999999933
 40
0.5312499999999933
 40
0.5312499999999933
 40
0.5624999999999933
 40
0.5624999999999933
 40
0.6249999999999932
 40
0.6249999999999932
 40
0.6562499999999941
 40
0.6562499999999941
 40
0.6874999999999949
 40
0.6874999999999949
 40
0.7187499999999957
 40
0.7187499999999957
 40
0.7499999999999964
 40
0.7499999999999964
 40
0.7812499999999972
 40
0.7812499999999972
 40
0.812499999999998
 40
0.812499999999998
 40
0.8749999999999987
 40
0.8749999999999987
 40
0.9062499999999991
 40
0.9062499999999991
 40
0.9374999999999994
 40
0.9374999999999994
 40
0.9687499999999998
 40
0.9687499999999998
 40
1.0
 40
1.0
 40
1.031249999999998
 40
1.031249999999998
 10
182.8884171437253
 20
67.37093792302345
 30
0.0
 10
183.2274723368664
 20
67.37093792302345
 30
0.0
 10
183.393070184574
 20
67.38798888765409
 30
0.0
 10
183.7171902612466
 20
67.45376181881619
 30
0.0
 10
183.8770003255722
 20
67.50333432095734
 30
0.0
 10
184.3263419281136
 20
67.69223095624464
 30
0.0
 10
184.5960246678891
 20
67.87456928393114
 30
0.0
 10
184.9342094566466
 20
68.21114121382027
 30
0.0
 10
185.0377758902704
 20
68.3359580667011
 30
0.0
 10
185.2182273525703
 20
68.60244528338002
 30
0.0
 10
185.2953493188326
 20
68.74373465609177
 30
0.0
 10
185.4227672036398
 20
69.04378547643175
 30
0.0
 10
185.473231396441
 20
69.2046854331219
 30
0.0
 10
185.5400728091234
 20
69.52955505644863
 30
0.0
 10
185.5573910106724
 20
69.69476493431857
 30
0.0
 10
185.5590134026059
 20
70.19916020777144
 30
0.0
 10
185.4905254320622
 20
70.53462138661598
 30
0.0
 10
185.2364751256914
 20
71.14055594499261
 30
0.0
 10
185.0518922263361
 20
71.41220037449759
 30
0.0
 10
184.7145237559129
 20
71.75005343181202
 30
0.0
 10
184.5905345869461
 20
71.85259466233657
 30
0.0
 10
184.3243658417286
 20
72.03241257343375
 30
0.0
 10
184.1838291609045
 20
72.1089119108226
 30
0.0
 10
183.8861708256065
 20
72.23529509786948
 30
0.0
 10
183.7267034480641
 20
72.28556014546439
 30
0.0
 10
183.4010860639305
 20
72.35285103962033
 30
0.0
 10
183.2351190815434
 20
72.3704001694559
 30
0.0
 10
182.8962858354803
 20
72.3714516036562
 30
0.0
 10
182.7292951566451
 20
72.35479841449055
 30
0.0
 10
182.4036702428544
 20
72.28951154644339
 30
0.0
 10
182.2435390702973
 20
72.24017033748586
 30
0.0
 10
181.7928339109391
 20
72.05166484442037
 30
0.0
 10
181.5225754097883
 20
71.86957313734506
 30
0.0
 10
181.1828606808865
 20
71.5321227999701
 30
0.0
 10
181.078902037011
 20
71.40690567726935
 30
0.0
 10
180.8985929443894
 20
71.14097996367553
 30
0.0
 10
180.8211592357969
 20
70.99951150055163
 30
0.0
 10
180.6929103809522
 20
70.69767862732914
 30
0.0
 10
180.6425950900355
 20
70.53691100945656
 30
0.0
 10
180.5758468435441
 20
70.21244065479392
 30
0.0
 10
180.5583733343479
 20
70.04669472944367
 30
0.0
 10
180.5575315518175
 20
69.70759302619716
 30
0.0
 10
180.5742916493494
 20
69.54050235351085
 30
0.0
 10
180.6400437928533
 20
69.21407008995243
 30
0.0
 10
180.6898986536269
 20
69.0528272001881
 30
0.0
 10
180.8808634391943
 20
68.59888969201197
 30
0.0
 10
181.0661595721643
 20
68.3267044050179
 30
0.0
 10
181.4050484729842
 20
67.98854575930265
 30
0.0
 10
181.5302303953874
 20
67.88555152454848
 30
0.0
 10
181.7961655313606
 20
67.70677907978032
 30
0.0
 10
181.9370211147595
 20
67.63040908704403
 30
0.0
 10
182.2366877112436
 20
67.5040885126525
 30
0.0
 10
182.3970658933783
 20
67.4541850649599
 30
0.0
 10
182.7218030334269
 20
67.38810406225774
 30
0.0
 10
182.8884171437253
 20
67.37093792302345
 30
0.0
 10
183.2274723368664
 20
67.37093792302345
 30
0.0
  0
LINE
  5
137
330
1F
100
AcDbEntity
  8
0
  6
HIDDEN
 62
     7
370
     0
100
AcDbLine
 10
232.0687804337
 20
76.5788605069
 30
0.0
 11
230.4677442356
 21
76.5788605069
 31
0.0
  0
SPLINE
  5
138
330
1F
100
AcDbEntity
  8
0
  6
HIDDEN
 62
     7
370
     0
100
AcDbSpline
210
0.0
220
0.0
230
1.0
 70
     8
 71
     3
 72
    40
 73
    36
 74
     0
 42
0.00000001
 43
0.00000001
 12
1.0
 22
0.0
 32
0.0
 13
1.0
 23
0.0
 33
0.0
 40
0.0
 40
0.0
 40
0.0
 40
0.0
 40
0.1249999999999994
 40
0.1249999999999994
 40
0.2499999999999988
 40
0.2499999999999988
 40
0.3124999999999992
 40
0.3124999999999992
 40
0.3749999999999996
 40
0.3749999999999996
 40
0.4062500000000006
 40
0.4062500000000006
 40
0.4375000000000015
 40
0.4375000000000015
 40
0.4687500000000026
 40
0.4687500000000026
 40
0.4843750000000031
 40
0.4843750000000031
 40
0.5000000000000036
 40
0.5000000000000036
 40
0.5312500000000033
 40
0.5312500000000033
 40
0.562500000000003
 40
0.562500000000003
 40
0.5937500000000028
 40
0.5937500000000028
 40
0.6250000000000026
 40
0.6250000000000026
 40
0.6875000000000021
 40
0.6875000000000021
 40
0.7500000000000016
 40
0.7500000000000016
 40
0.8750000000000008
 40
0.8750000000000008
 40
1.0
 40
1.0
 40
1.0
 40
1.0
 10
218.879532708055
 20
67.50229635950045
 30
0.0
 10
218.9760250215382
 20
67.50229635950042
 30
0.0
 10
219.1293871311067
 20
67.468011263604
 30
0.0
 10
219.4988206445057
 20
67.34763613123953
 30
0.0
 10
219.714088299408
 20
67.26145807512658
 30
0.0
 10
220.0672932171076
 20
67.07868155782771
 30
0.0
 10
220.1904719970658
 20
67.00858101440363
 30
0.0
 10
220.4486826717836
 20
66.84103901668819
 30
0.0
 10
220.5844531160889
 20
66.74320484103005
 30
0.0
 10
220.7929984401749
 20
66.56617616491273
 30
0.0
 10
220.863522462164
 20
66.50195019518911
 30
0.0
 10
221.0070109417555
 20
66.35825145915479
 30
0.0
 10
221.0807668192689
 20
66.27796527348815
 30
0.0
 10
221.227898603719
 20
66.09670126096609
 30
0.0
 10
221.3006909787395
 20
65.99667474904174
 30
0.0
 10
221.4058060755532
 20
65.82562121117984
 30
0.0
 10
221.4392912889452
 20
65.76641805709197
 30
0.0
 10
221.5025947242271
 20
65.64288904583425
 30
0.0
 10
221.5326605038226
 20
65.5778114132603
 30
0.0
 10
221.6123149776682
 20
65.38370951916693
 30
0.0
 10
221.6530492444336
 20
65.25121403841631
 30
0.0
 10
221.7078300636466
 20
65.00443306646466
 30
0.0
 10
221.7227990860858
 20
64.88891711486798
 30
0.0
 10
221.7365208979267
 20
64.67809895762082
 30
0.0
 10
221.7354894937581
 20
64.58018287445884
 30
0.0
 10
221.7236947691472
 20
64.39998647433771
 30
0.0
 10
221.7129725609867
 20
64.31719559254286
 30
0.0
 10
221.6714196696158
 20
64.08400110941365
 30
0.0
 10
221.6310855696587
 20
63.94789935211359
 30
0.0
 10
221.5397105095326
 20
63.70574718878238
 30
0.0
 10
221.4883927285167
 20
63.59931110006544
 30
0.0
 10
221.3261793794409
 20
63.31275351500235
 30
0.0
 10
221.2065081053273
 20
63.16374661409435
 30
0.0
 10
220.9733209022974
 20
62.94899840339137
 30
0.0
 10
220.8605947267929
 20
62.88289869694401
 30
0.0
 10
220.7638807637672
 20
62.882898696944
 30
0.0
  0
ELLIPSE
  5
139
330
1F
100
AcDbEntity
  8
0
  6
HIDDEN
 62
     7
370
     0
100
AcDbEllipse
 10
224.4158668081
 20
66.6987462606
 30
0.0
 11
3.476472107873434
 21
-1.479748949970869
 31
0.0
210
0.0
220
0.0
230
1.0
 40
0.0819499016
 41
6.092982334712508
 42
9.234574988301642
  0
LINE
  5
13A
330
1F
100
AcDbEntity
  8
0
  6
HIDDEN
 62
     7
370
     0
100
AcDbLine
 10
220.7638807638
 20
62.8828986969
 30
0.0
 11
220.0359763035
 21
62.8828986969
 31
0.0
  0
LINE
  5
13B
330
1F
100
AcDbEntity
  8
0
  6
HIDDEN
 62
     7
370
     0
100
AcDbLine
 10
220.0359763035
 20
62.8828986969
 30
0.0
 11
224.4102158963
 21
64.9945601953
 31
0.0
  0
LINE
  5
13C
330
1F
100
AcDbEntity
  8
0
  6
HIDDEN
 62
     7
370
     0
100
AcDbLine
 10
230.4456184497
 20
66.7968295343
 30
0.0
 11
229.9076237277
 21
66.7968295343
 31
0.0
  0
LINE
  5
13D
330
1F
100
AcDbEntity
  8
0
  6
HIDDEN
 62
     7
370
     0
100
AcDbLine
 10
226.6296530906
 20
65.1918212467
 30
0.0
 11
230.4456184497
 21
66.7968295343
 31
0.0
  0
LINE
  5
13E
330
1F
100
AcDbEntity
  8
0
  6
HIDDEN
 62
     7
370
     0
100
AcDbLine
 10
227.8067176098
 20
65.1918212467
 30
0.0
 11
226.6296530906
 21
65.1918212467
 31
0.0
  0
LINE
  5
13F
330
1F
100
AcDbEntity
  8
0
  6
HIDDEN
 62
     7
370
     0
100
AcDbLine
 10
218.1516282478
 20
67.5022963595
 30
0.0
 11
218.8795327081
 21
67.5022963595
 31
0.0
  0
ELLIPSE
  5
140
330
1F
100
AcDbEntity
  8
0
  6
HIDDEN
 62
     7
370
     0
100
AcDbEllipse
 10
216.4184573144
 20
63.9010763781
 30
0.0
 11
-0.7805620055364386
 21
4.144830946102623
 31
0.0
210
0.0
220
0.0
230
1.0
 40
0.8692588716
 41
4.305264950631788
 42
5.580388791870185
  0
CIRCLE
  5
141
330
1F
100
AcDbEntity
  8
0
  6
HIDDEN
 62
     7
370
     0
100
AcDbCircle
 10
217.9046230306
 20
63.9099191131
 30
0.0
 40
4.180735926059898
  0
ARC
  5
142
330
1F
100
AcDbEntity
  8
0
  6
HIDDEN
 62
     7
370
     0
100
AcDbCircle
 10
231.3316556357
 20
69.8522936142
 30
0.0
 40
3.181339755285459
100
AcDbArc
 50
253.8286608262
 51
150.5544704241
  0
LINE
  5
143
330
1F
100
AcDbEntity
  8
0
  6
HIDDEN
 62
     7
370
     0
100
AcDbLine
 10
228.5612703939
 20
71.4162271968
 30
0.0
 11
220.9280573583
 21
68.2056712745
 31
0.0
  0
LINE
  5
144
330
1F
100
AcDbEntity
  8
0
  6
HIDDEN
 62
     7
370
     0
100
AcDbLine
 10
242.6336582939
 20
69.5938887551
 30
0.0
 11
242.6336582939
 21
70.147987091
 31
0.0
  0
LINE
  5
145
330
1F
100
AcDbEntity
  8
0
  6
HIDDEN
 62
     7
370
     0
100
AcDbLine
 10
230.4677442356
 20
76.5788605069
 30
0.0
 11
222.2565450237
 21
72.2384400114
 31
0.0
  0
LINE
  5
146
330
1F
100
AcDbEntity
  8
0
  6
HIDDEN
 62
     7
370
     0
100
AcDbLine
 10
217.601461587
 20
69.9641019365
 30
0.0
 11
220.9280573583
 21
68.2056712745
 31
0.0
  0
LINE
  5
147
330
1F
100
AcDbEntity
  8
0
  6
HIDDEN
 62
     7
370
     0
100
AcDbLine
 10
226.6296530906
 20
65.1918212467
 30
0.0
 11
230.4677442356
 21
63.1630153392
 31
0.0
  0
LINE
  5
148
330
1F
100
AcDbEntity
  8
0
  6
HIDDEN
 62
     7
370
     0
100
AcDbLine
 10
230.4677442356
 20
63.1630153392
 30
0.0
 11
242.6336582939
 21
69.5938887551
 31
0.0
  0
LINE
  5
149
330
1F
100
AcDbEntity
  8
0
  6
HIDDEN
 62
     7
370
     0
100
AcDbLine
 10
230.4677442356
 20
76.5788605069
 30
0.0
 11
242.6336582939
 21
70.147987091
 31
0.0
  0
LINE
  5
14A
330
1F
100
AcDbEntity
  8
0
  6
HIDDEN
 62
     7
370
     0
100
AcDbLine
 10
220.9280573583
 20
68.2056712745
 30
0.0
 11
221.0250160065
 21
68.2056712745
 31
0.0
  0
LINE
  5
14B
330
1F
100
AcDbEntity
  8
0
  6
HIDDEN
 62
     7
370
     0
100
AcDbLine
 10
79.5579447403
 20
54.7668850943
 30
0.0
 11
79.5579447403
 21
48.7125745267
 31
0.0
  0
LINE
  5
14C
330
1F
100
AcDbEntity
  8
0
  6
HIDDEN
 62
     7
370
     0
100
AcDbLine
 10
78.0579447403
 20
55.1998977962
 30
0.0
 11
78.0579447403
 21
49.5785999305
 31
0.0
  0
LINE
  5
14D
330
1F
100
AcDbEntity
  8
0
  6
HIDDEN
 62
     7
370
     0
100
AcDbLine
 10
79.5579447403
 20
91.0293013193
 30
0.0
 11
79.5579447403
 21
84.9749907518
 31
0.0
  0
LINE
  5
14E
330
1F
100
AcDbEntity
  8
0
  6
HIDDEN
 62
     7
370
     0
100
AcDbLine
 10
78.0579447403
 20
90.1632759155
 30
0.0
 11
78.0579447403
 21
84.5419780499
 31
0.0
  0
SPLINE
  5
14F
330
1F
100
AcDbEntity
  8
0
  6
HIDDEN
 62
     7
370
     0
100
AcDbSpline
210
0.0
220
0.0
230
1.0
 70
     8
 71
     3
 72
    16
 73
    12
 74
     0
 42
0.00000001
 43
0.00000001
 12
1.0
 22
0.0
 32
0.0
 13
1.0
 23
0.0
 33
0.0
 40
0.0
 40
0.0
 40
0.0
 40
0.0
 40
0.2500000000000002
 40
0.2500000000000002
 40
0.3750000000000001
 40
0.3750000000000001
 40
0.5000000000000001
 40
0.5000000000000001
 40
0.75
 40
0.75
 40
1.0
 40
1.0
 40
1.0
 40
1.0
 10
114.736624396736
 20
53.28703129678235
 30
0.0
 10
114.5753919192516
 20
52.57263713459023
 30
0.0
 10
114.4549120796119
 20
51.91929487188155
 30
0.0
 10
114.3325315622986
 20
51.03103963007769
 30
0.0
 10
114.3015539019011
 20
50.75035909372584
 30
0.0
 10
114.2599401642732
 20
50.22132510388585
 30
0.0
 10
114.2497042513404
 20
49.97800412530739
 30
0.0
 10
114.2495158542843
 20
49.30998143479418
 30
0.0
 10
114.2896605569219
 20
48.94630052537472
 30
0.0
 10
114.4538143118614
 20
48.38640965282639
 30
0.0
 10
114.575365962271
 20
48.19888836070925
 30
0.0
 10
114.736624396736
 20
48.1008569680213
 30
0.0
  0
LINE
  5
150
330
1F
100
AcDbEntity
  8
0
  6
HIDDEN
 62
     7
370
     0
100
AcDbLine
 10
113.8579447403
 20
54.3360174001
 30
0.0
 11
113.8579447403
 21
47.8508391385
 31
0.0
  0
LINE
  5
151
330
1F
100
AcDbEntity
  8
0
  6
HIDDEN
 62
     7
370
     0
100
AcDbLine
 10
113.8579447403
 20
91.8910367076
 30
0.0
 11
113.8579447403
 21
85.4058584459
 31
0.0
  0
SPLINE
  5
152
330
1F
100
AcDbEntity
  8
0
  6
HIDDEN
 62
     7
370
     0
100
AcDbSpline
210
0.0
220
0.0
230
1.0
 70
     8
 71
     3
 72
    16
 73
    12
 74
     0
 42
0.00000001
 43
0.00000001
 12
1.0
 22
0.0
 32
0.0
 13
1.0
 23
0.0
 33
0.0
 40
0.0
 40
0.0
 40
0.0
 40
0.0
 40
0.2499999999999997
 40
0.2499999999999997
 40
0.3749999999999997
 40
0.3749999999999997
 40
0.4999999999999998
 40
0.4999999999999998
 40
0.7499999999999999
 40
0.7499999999999999
 40
1.0
 40
1.0
 40
1.0
 40
1.0
 10
114.736624396736
 20
91.64101887802553
 30
0.0
 10
114.5753919192515
 20
91.54300326497082
 30
0.0
 10
114.4549120796119
 20
91.35626723329476
 30
0.0
 10
114.3325315622986
 20
90.94322742573588
 30
0.0
 10
114.3015539019011
 20
90.78322692650295
 30
0.0
 10
114.2599401642732
 20
90.41642127541179
 30
0.0
 10
114.2497042513404
 20
90.21308412278779
 30
0.0
 10
114.2495158542843
 20
89.54579685616112
 30
0.0
 10
114.2896605569219
 20
89.02498239227305
 30
0.0
 10
114.4538143118614
 20
87.82762337679536
 30
0.0
 10
114.575365962271
 20
87.16935372249935
 30
0.0
 10
114.736624396736
 20
86.45484454926442
 30
0.0
  0
SPLINE
  5
153
330
1F
100
AcDbEntity
  8
0
  6
HIDDEN
 62
     7
370
     0
100
AcDbSpline
210
0.0
220
0.0
230
1.0
 70
     8
 71
     3
 72
    10
 73
     6
 74
     0
 42
0.00000001
 43
0.00000001
 12
1.0
 22
0.0
 32
0.0
 13
1.0
 23
0.0
 33
0.0
 40
0.0
 40
0.0
 40
0.0
 40
0.0
 40
0.5
 40
0.5
 40
1.0
 40
1.0
 40
1.0
 40
1.0
 10
229.9076237276677
 20
66.79682953428703
 30
0.0
 10
229.833444634449
 20
66.79682953428706
 30
0.0
 10
229.7116269592131
 20
66.81065530978177
 30
0.0
 10
229.429039924793
 20
66.85719753698805
 30
0.0
 10
229.2664103410617
 20
66.89056645553815
 30
0.0
 10
229.0905928930148
 20
66.93688526723436
 30
0.0
  0
ARC
  5
154
330
1F
100
AcDbEntity
  8
0
  6
HIDDEN
 62
     7
370
     0
100
AcDbCircle
 10
230.3658964813
 20
69.8514914269
 30
0.0
 40
3.181403512339059
100
AcDbArc
 50
246.3679263409
 51
158.0152049094
  0
SPLINE
  5
155
330
1F
100
AcDbEntity
  8
0
  6
HIDDEN
 62
     7
370
     0
100
AcDbSpline
210
0.0
220
0.0
230
1.0
 70
     8
 71
     3
 72
    10
 73
     6
 74
     0
 42
0.00000001
 43
0.00000001
 12
1.0
 22
0.0
 32
0.0
 13
1.0
 23
0.0
 33
0.0
 40
0.0
 40
0.0
 40
0.0
 40
0.0
 40
0.5
 40
0.5
 40
1.0
 40
1.0
 40
1.0
 40
1.0
 10
227.4158343455268
 20
71.04248332601887
 30
0.0
 10
227.528720938951
 20
71.15048843005847
 30
0.0
 10
227.6414430464217
 20
71.23948746873883
 30
0.0
 10
227.8511781266507
 20
71.37152190341709
 30
0.0
 10
227.9490094408627
 20
71.41622719684327
 30
0.0
 10
228.0232756719531
 20
71.41622719684341
 30
0.0
  0
LINE
  5
156
330
1F
100
AcDbEntity
  8
0
  6
HIDDEN
 62
     7
370
     0
100
AcDbLine
 10
228.023275672
 20
71.4162271968
 30
0.0
 11
228.5612703939
 21
71.4162271968
 31
0.0
  0
LINE
  5
157
330
1F
100
AcDbEntity
  8
0
  6
HIDDEN
 62
     7
370
     0
100
AcDbLine
 10
238.6776365193
 20
69.5938887551
 30
0.0
 11
242.6336582939
 21
69.5938887551
 31
0.0
  0
LINE
  5
158
330
1F
100
AcDbEntity
  8
0
  6
HIDDEN
 62
     7
370
     0
100
AcDbLine
 10
242.6336582939
 20
70.147987091
 30
0.0
 11
238.6776365193
 21
70.147987091
 31
0.0
  0
ELLIPSE
  5
159
330
1F
100
AcDbEntity
  8
0
  6
HIDDEN
 62
     7
370
     0
100
AcDbEllipse
 10
226.9956593278
 20
68.4607525926
 30
0.0
 11
2.713728266941331
 21
1.223760679025872
 31
0.0
210
0.0
220
0.0
230
1.0
 40
0.8377797594
 41
5.158083190168425
 42
7.347407560711574
  0
LWPOLYLINE
  5
15A
330
1F
100
AcDbEntity
  8
0
  6
HIDDEN
 62
     7
370
     0
100
AcDbPolyline
 90
       12
 70
   128
 43
0.0
 10
224.4102158963
 20
64.9945601953
 10
224.8349320475
 20
65.3115746604
 10
225.1489108856
 20
65.7900245618
 10
225.3267157125
 20
66.3911487341
 10
225.3539418384
 20
67.0662476719
 10
225.2283835647
 20
67.760628874
 10
224.9602128759
 20
68.4180377053
 10
224.5711553664
 20
68.9852148119
 10
224.0927301617
 20
69.4162108778
 10
223.5636964266
 20
69.676109165
 10
223.0269133282
 20
69.7438542599
 10
222.5258678406
 20
69.6139578579
  0
LINE
  5
15B
330
1F
100
AcDbEntity
  8
0
  6
HIDDEN
 62
     7
370
     0
100
AcDbLine
 10
222.5258678406
 20
69.6139578579
 30
0.0
 11
218.1516282478
 21
67.5022963595
 31
0.0
  0
LINE
  5
15C
330
1F
100
AcDbEntity
  8
0
  6
HIDDEN
 62
     7
370
     0
100
AcDbLine
 10
78.0579447403
 20
84.5419780499
 30
0.0
 11
78.0579447403
 21
72.772925256
 31
0.0
  0
LINE
  5
15D
330
1F
100
AcDbEntity
  8
0
  6
HIDDEN
 62
     7
370
     0
100
AcDbLine
 10
78.0579447403
 20
66.96895059
 30
0.0
 11
78.0579447403
 21
55.1998977962
 31
0.0
  0
LINE
  5
15E
330
1F
100
AcDbEntity
  8
0
  6
HIDDEN
 62
     7
370
     0
100
AcDbLine
 10
79.5579447403
 20
65.9057270262
 30
0.0
 11
79.5579447403
 21
54.7668850943
 31
0.0
  0
LINE
  5
15F
330
1F
100
AcDbEntity
  8
0
  6
HIDDEN
 62
     7
370
     0
100
AcDbLine
 10
79.5579447403
 20
84.9749907518
 30
0.0
 11
79.5579447403
 21
73.8361488199
 31
0.0
  0
LINE
  5
160
330
1F
100
AcDbEntity
  8
0
  6
HIDDEN
 62
     7
370
     0
100
AcDbLine
 10
115.8579447403
 20
84.9086450855
 30
0.0
 11
115.8579447403
 21
54.8332307605
 31
0.0
  0
LINE
  5
161
330
1F
100
AcDbEntity
  8
0
  6
HIDDEN
 62
     7
370
     0
100
AcDbLine
 10
113.8579447403
 20
85.4058584459
 30
0.0
 11
113.8579447403
 21
54.3360174001
 31
0.0
  0
SPLINE
  5
162
330
1F
100
AcDbEntity
  8
0
  6
HIDDEN
 62
     7
370
     0
100
AcDbSpline
210
0.0
220
0.0
230
1.0
 70
     8
 71
     3
 72
    24
 73
    20
 74
     0
 42
0.00000001
 43
0.00000001
 12
1.0
 22
0.0
 32
0.0
 13
1.0
 23
0.0
 33
0.0
 40
0.0
 40
0.0
 40
0.0
 40
0.0
 40
0.125
 40
0.125
 40
0.2499999999999999
 40
0.2499999999999999
 40
0.3749999999999999
 40
0.3749999999999999
 40
0.4374999999999998
 40
0.4374999999999998
 40
0.4999999999999998
 40
0.4999999999999998
 40
0.6249999999999999
 40
0.6249999999999999
 40
0.7499999999999998
 40
0.7499999999999998
 40
0.8749999999999999
 40
0.8749999999999999
 40
1.0
 40
1.0
 40
1.0
 40
1.0
 10
84.50794474029566
 20
65.78497686992414
 30
0.0
 10
84.74574837257076
 20
66.08398397225427
 30
0.0
 10
84.97583403378205
 20
66.38832182357302
 30
0.0
 10
85.41058743239185
 20
67.014055360969
 30
0.0
 10
85.61552022467802
 20
67.33528008829651
 30
0.0
 10
85.98062217517672
 20
68.00720585902927
 30
0.0
 10
86.14242256096823
 20
68.36252109090813
 30
0.0
 10
86.31428276554794
 20
68.91275231226058
 30
0.0
 10
86.35986795720808
 20
69.09915609724106
 30
0.0
 10
86.42234269678293
 20
69.4792905993373
 30
0.0
 10
86.43901384253138
 20
69.6749603916232
 30
0.0
 10
86.43953488570789
 20
70.25344077029762
 30
0.0
 10
86.37509258482119
 20
70.63135260926641
 30
0.0
 10
86.14524349144787
 20
71.37332063436484
 30
0.0
 10
85.98672281378475
 20
71.72203609452579
 30
0.0
 10
85.6224884838846
 20
72.39512849225893
 30
0.0
 10
85.41575224382102
 20
72.72008097950058
 30
0.0
 10
84.97781429808066
 20
73.35100478996237
 30
0.0
 10
84.7465415708011
 20
73.656894530303
 30
0.0
 10
84.50794474029577
 20
73.9568989761225
 30
0.0
  0
LINE
  5
163
330
1F
100
AcDbEntity
  8
0
  6
HIDDEN
 62
     7
370
     0
100
AcDbLine
 10
84.5079447403
 20
65.7849768699
 30
0.0
 11
84.5079447403
 21
73.9568989761
 31
0.0
  0
SPLINE
  5
164
330
1F
100
AcDbEntity
  8
0
  6
HIDDEN
 62
     7
370
     0
100
AcDbSpline
210
0.0
220
0.0
230
1.0
 70
     8
 71
     3
 72
     8
 73
     4
 74
     0
 42
0.00000001
 43
0.00000001
 12
1.0
 22
0.0
 32
0.0
 13
1.0
 23
0.0
 33
0.0
 40
0.0000249638557296
 40
0.0000249638557296
 40
0.0000249638557296
 40
0.0000249638557296
 40
0.0049776420541173
 40
0.0049776420541173
 40
0.0049776420541173
 40
0.0049776420541173
 10
79.55794474029564
 20
65.90572702618694
 30
0.0
 10
81.20792097480519
 20
65.86444778841872
 30
0.0
 10
82.85792229455025
 20
65.82422610717927
 30
0.0
 10
84.50794474029567
 20
65.78497686992422
 30
0.0
  0
SPLINE
  5
165
330
1F
100
AcDbEntity
  8
0
  6
HIDDEN
 62
     7
370
     0
100
AcDbSpline
210
0.0
220
0.0
230
1.0
 70
     8
 71
     3
 72
     8
 73
     4
 74
     0
 42
0.00000001
 43
0.00000001
 12
1.0
 22
0.0
 32
0.0
 13
1.0
 23
0.0
 33
0.0
 40
0.0000249631533152
 40
0.0000249631533152
 40
0.0000249631533152
 40
0.0000249631533152
 40
0.0049776413517028
 40
0.0049776413517028
 40
0.0049776413517028
 40
0.0049776413517028
 10
84.50794474029568
 20
73.9568989761226
 30
0.0
 10
82.85792229455025
 20
73.91764973886758
 30
0.0
 10
81.20792097480519
 20
73.87742805762814
 30
0.0
 10
79.55794474029565
 20
73.83614881985989
 30
0.0
  0
SPLINE
  5
166
330
1F
100
AcDbEntity
  8
0
  6
HIDDEN
 62
     7
370
     0
100
AcDbSpline
210
0.0
220
0.0
230
1.0
 70
     8
 71
     3
 72
     8
 73
     4
 74
     0
 42
0.00000001
 43
0.00000001
 12
1.0
 22
0.0
 32
0.0
 13
1.0
 23
0.0
 33
0.0
 40
0.0
 40
0.0
 40
0.0
 40
0.0
 40
1.0
 40
1.0
 40
1.0
 40
1.0
 10
78.05794474029346
 20
66.96895059004312
 30
0.0
 10
78.52470535167124
 20
66.55358734442007
 30
0.0
 10
79.03045289845134
 20
66.20899691511549
 30
0.0
 10
79.55794474029571
 20
65.90572702618691
 30
0.0
  0
SPLINE
  5
167
330
1F
100
AcDbEntity
  8
0
  6
HIDDEN
 62
     7
370
     0
100
AcDbSpline
210
0.0
220
0.0
230
1.0
 70
     8
 71
     3
 72
     8
 73
     4
 74
     0
 42
0.00000001
 43
0.00000001
 12
1.0
 22
0.0
 32
0.0
 13
1.0
 23
0.0
 33
0.0
 40
0.0
 40
0.0
 40
0.0
 40
0.0
 40
1.0
 40
1.0
 40
1.0
 40
1.0
 10
79.55794474029571
 20
73.83614881985991
 30
0.0
 10
79.03045289845218
 20
73.53287893093183
 30
0.0
 10
78.52470535167288
 20
73.18828850162787
 30
0.0
 10
78.05794474029574
 20
72.77292525600572
 30
0.0
  0
LINE
  5
168
330
1F
100
AcDbEntity
  8
0
  6
HIDDEN
 62
     7
370
     0
100
AcDbLine
 10
78.0579447403
 20
66.96895059
 30
0.0
 11
78.0579447403
 21
72.772925256
 31
0.0
  0
SPLINE
  5
169
330
1F
100
AcDbEntity
  8
0
  6
HIDDEN
 62
     7
370
     0
100
AcDbSpline
210
0.0
220
0.0
230
1.0
 70
     8
 71
     3
 72
    72
 73
    68
 74
     0
 42
0.00000001
 43
0.00000001
 12
1.0
 22
0.0
 32
0.0
 13
1.0
 23
0.0
 33
0.0
 40
-0.03125
 40
-0.03125
 40
0.0
 40
0.0
 40
0.0312500000000002
 40
0.0312500000000002
 40
0.0625000000000004
 40
0.0625000000000004
 40
0.0937500000000005
 40
0.0937500000000005
 40
0.1250000000000007
 40
0.1250000000000007
 40
0.1562500000000007
 40
0.1562500000000007
 40
0.1875000000000007
 40
0.1875000000000007
 40
0.2187500000000007
 40
0.2187500000000007
 40
0.2500000000000007
 40
0.2500000000000007
 40
0.2812500000000007
 40
0.2812500000000007
 40
0.3125000000000007
 40
0.3125000000000007
 40
0.3437500000000008
 40
0.3437500000000008
 40
0.3750000000000008
 40
0.3750000000000008
 40
0.3906250000000008
 40
0.3906250000000008
 40
0.4062500000000007
 40
0.4062500000000007
 40
0.4375000000000007
 40
0.4375000000000007
 40
0.4687500000000007
 40
0.4687500000000007
 40
0.5000000000000007
 40
0.5000000000000007
 40
0.5312500000000007
 40
0.5312500000000007
 40
0.5625000000000006
 40
0.5625000000000006
 40
0.5937500000000006
 40
0.5937500000000006
 40
0.6250000000000004
 40
0.6250000000000004
 40
0.6562500000000004
 40
0.6562500000000004
 40
0.6875000000000004
 40
0.6875000000000004
 40
0.7187500000000003
 40
0.7187500000000003
 40
0.7500000000000003
 40
0.7500000000000003
 40
0.7812500000000003
 40
0.7812500000000003
 40
0.8125000000000002
 40
0.8125000000000002
 40
0.8437500000000002
 40
0.8437500000000002
 40
0.8750000000000001
 40
0.8750000000000001
 40
0.9062500000000001
 40
0.9062500000000001
 40
0.9375000000000001
 40
0.9375000000000001
 40
0.96875
 40
0.96875
 40
1.0
 40
1.0
 40
1.03125
 40
1.03125
 10
97.18189105912084
 20
72.31177157283824
 30
0.0
 10
97.55632127899472
 20
72.72212737332339
 30
0.0
 10
97.76117388026039
 20
72.90577645598181
 30
0.0
 10
98.20404207710737
 20
73.23273135947714
 30
0.0
 10
98.44399749442564
 20
73.37650956765697
 30
0.0
 10
98.93960847720018
 20
73.61402692310286
 30
0.0
 10
99.19687476835468
 20
73.70934648800058
 30
0.0
 10
99.73022853619173
 20
73.85343202063507
 30
0.0
 10
100.00450867609
 20
73.90116802760465
 30
0.0
 10
100.5509372106696
 20
73.94675016813848
 30
0.0
 10
100.8255135291373
 20
73.94531640806623
 30
0.0
 10
101.377480703408
 20
73.89240309997538
 30
0.0
 10
101.6480976659797
 20
73.84143337377122
 30
0.0
 10
102.1743828370589
 20
73.69282674682763
 30
0.0
 10
102.4320144004665
 20
73.59454137607052
 30
0.0
 10
102.92794056514
 20
73.35028801688482
 30
0.0
 10
103.1609242429316
 20
73.20720788586263
 30
0.0
 10
103.5972575182566
 20
72.8793493353938
 30
0.0
 10
103.8025387721149
 20
72.69235569769359
 30
0.0
 10
104.1705730699751
 20
72.2829250778706
 30
0.0
 10
104.3320880599603
 20
72.0628196368861
 30
0.0
 10
104.6092457431074
 20
71.59106955544809
 30
0.0
 10
104.7256399225411
 20
71.33605302900688
 30
0.0
 10
104.8989139591877
 20
70.81481520560989
 30
0.0
 10
104.9573605136535
 20
70.54733108782897
 30
0.0
 10
105.0012252391294
 20
70.13541542849651
 30
0.0
 10
105.0084054557588
 20
69.99570812542103
 30
0.0
 10
105.0074374284633
 20
69.71958506995861
 30
0.0
 10
104.9994346390497
 20
69.58240850362783
 30
0.0
 10
104.9533619071373
 20
69.17347506236457
 30
0.0
 10
104.8924270746853
 20
68.90154881336036
 30
0.0
 10
104.7143069182767
 20
68.37836829690528
 30
0.0
 10
104.5987390069344
 20
68.1296562965419
 30
0.0
 10
104.3168922229951
 20
67.65677177154993
 30
0.0
 10
104.1500222775804
 20
67.43316255431783
 30
0.0
 10
103.7806967227816
 20
67.0285051661302
 30
0.0
 10
103.5759115664842
 20
66.84409157796067
 30
0.0
 10
103.131258618968
 20
66.51506554306627
 30
0.0
 10
102.8964094894572
 20
66.37389746707805
 30
0.0
 10
102.4029997269802
 20
66.13548793829756
 30
0.0
 10
102.1417127732755
 20
66.03770538189268
 30
0.0
 10
101.6109744927628
 20
65.89237735370254
 30
0.0
 10
101.3413347918656
 20
65.84408796350759
 30
0.0
 10
100.7935834521204
 20
65.79567273972096
 30
0.0
 10
100.5136794102618
 20
65.79613092535689
 30
0.0
 10
99.9666015024268
 20
65.84628278095907
 30
0.0
 10
99.69699639773935
 20
65.89545634799109
 30
0.0
 10
99.16584164108329
 20
66.04313087129812
 30
0.0
 10
98.90454682463977
 20
66.1422860356637
 30
0.0
 10
98.41223284646439
 20
66.38329880614042
 30
0.0
 10
98.17827597088575
 20
66.52578693076515
 30
0.0
 10
97.73610735035528
 20
66.85727435975008
 30
0.0
 10
97.53091381924364
 20
67.04470798773845
 30
0.0
 10
97.16521960288566
 20
67.45161170678887
 30
0.0
 10
97.00244898049733
 20
67.67279078145782
 30
0.0
 10
96.72149654973177
 20
68.15253811067309
 30
0.0
 10
96.60829269745824
 20
68.4025500774834
 30
0.0
 10
96.43568397331933
 20
68.92262528750382
 30
0.0
 10
96.37607769064293
 20
69.19635675213357
 30
0.0
 10
96.31818592057307
 20
69.74497440203203
 30
0.0
 10
96.31897545943306
 20
70.01931426592361
 30
0.0
 10
96.38016593504948
 20
70.56805621706258
 30
0.0
 10
96.44129465878348
 20
70.8411215309197
 30
0.0
 10
96.61737434441329
 20
71.36128677968809
 30
0.0
 10
96.73370493940324
 20
71.61360591324699
 30
0.0
 10
97.01690616914397
 20
72.09001025465398
 30
0.0
 10
97.18189105912084
 20
72.31177157283824
 30
0.0
 10
97.55632127899472
 20
72.72212737332339
 30
0.0
  0
CIRCLE
  5
16A
330
1F
100
AcDbEntity
  8
0
  6
HIDDEN
 62
     7
370
     0
100
AcDbCircle
 10
100.5579447403
 20
69.870937923
 30
0.0
 40
4.050000000000011
  0
CIRCLE
  5
16B
330
1F
100
AcDbEntity
  8
0
  6
HIDDEN
 62
     7
370
     0
100
AcDbCircle
 10
128.0579447403
 20
69.870937923
 30
0.0
 40
2.000000000000014
  0
LINE
  5
16C
330
1F
100
AcDbEntity
  8
0
  6
HIDDEN
 62
     7
370
     0
100
AcDbLine
 10
116.0579447403
 20
45.620937923
 30
0.0
 11
116.1508379591
 21
45.7138311418
 31
0.0
  0
LINE
  5
16D
330
1F
100
AcDbEntity
  8
0
  6
HIDDEN
 62
     7
370
     0
100
AcDbLine
 10
116.1508379591
 20
94.0280447042
 30
0.0
 11
116.0579447403
 21
94.120937923
 31
0.0
  0
ARC
  5
16E
330
1F
100
AcDbEntity
  8
0
  6
HIDDEN
 62
     7
370
     0
100
AcDbCircle
 10
115.4437311779
 20
46.420937923
 30
0.0
 40
1.000000000000003
100
AcDbArc
 50
315.0
 51
0.0
  0
ARC
  5
16F
330
1F
100
AcDbEntity
  8
0
  6
HIDDEN
 62
     7
370
     0
100
AcDbCircle
 10
115.4437311779
 20
46.420937923
 30
0.0
 40
1.0
100
AcDbArc
 50
0.0
 51
52.1052014664
  0
ARC
  5
170
330
1F
100
AcDbEntity
  8
0
  6
HIDDEN
 62
     7
370
     0
100
AcDbCircle
 10
115.4437311779
 20
93.320937923
 30
0.0
 40
1.000000000000008
100
AcDbArc
 50
351.8087250651
 51
45.0
  0
ARC
  5
171
330
1F
100
AcDbEntity
  8
0
  6
HIDDEN
 62
     7
370
     0
100
AcDbCircle
 10
115.4437311779
 20
93.320937923
 30
0.0
 40
0.9999999999999964
100
AcDbArc
 50
307.8947985336
 51
351.8087250651
  0
LINE
  5
172
330
1F
100
AcDbEntity
  8
0
  6
HIDDEN
 62
     7
370
     0
100
AcDbLine
 10
116.4437311779
 20
46.420937923
 30
0.0
 11
116.4437311779
 21
93.320937923
 31
0.0
  0
LINE
  5
173
330
1F
100
AcDbEntity
  8
0
  6
HIDDEN
 62
     7
370
     0
100
AcDbLine
 10
116.4437311779
 20
46.420937923
 30
0.0
 11
116.4437311779
 21
93.320937923
 31
0.0
  0
LINE
  5
174
330
1F
100
AcDbEntity
  8
0
  6
HIDDEN
 62
     7
370
     0
100
AcDbLine
 10
183.2882146648
 20
67.370937923
 30
0.0
 11
195.8751469301
 21
67.370937923
 31
0.0
  0
LINE
  5
175
330
1F
100
AcDbEntity
  8
0
  6
HIDDEN
 62
     7
370
     0
100
AcDbLine
 10
195.8751469301
 20
72.370937923
 30
0.0
 11
183.2882146648
 21
72.370937923
 31
0.0
  0
LINE
  5
176
330
1F
100
AcDbEntity
  8
0
  6
HIDDEN
 62
     7
370
     0
100
AcDbLine
 10
78.0579447403
 20
53.6745090786
 30
0.0
 11
79.5881731799
 21
54.5579868801
 31
0.0
  0
LINE
  5
177
330
1F
100
AcDbEntity
  8
0
  6
HIDDEN
 62
     7
370
     0
100
AcDbLine
 10
79.5881731799
 20
85.1838889659
 30
0.0
 11
78.0579447403
 21
86.0673667675
 31
0.0
  0
LINE
  5
178
330
1F
100
AcDbEntity
  8
0
  6
HIDDEN
 62
     7
370
     0
100
AcDbLine
 10
88.0579447403
 20
53.870937923
 30
0.0
 11
89.0597460552
 21
53.870937923
 31
0.0
  0
LINE
  5
179
330
1F
100
AcDbEntity
  8
0
  6
HIDDEN
 62
     7
370
     0
100
AcDbLine
 10
89.0597460552
 20
85.870937923
 30
0.0
 11
88.0579447403
 21
85.870937923
 31
0.0
  0
ARC
  5
17A
330
1F
100
AcDbEntity
  8
0
  6
HIDDEN
 62
     7
370
     0
100
AcDbCircle
 10
89.0597460552
 20
55.870937923
 30
0.0
 40
2.000000000000021
100
AcDbArc
 50
270.0
 51
315.0
  0
ARC
  5
17B
330
1F
100
AcDbEntity
  8
0
  6
HIDDEN
 62
     7
370
     0
100
AcDbCircle
 10
89.0597460552
 20
83.870937923
 30
0.0
 40
2.000000000000014
100
AcDbArc
 50
45.0
 51
90.0
  0
ARC
  5
17C
330
1F
100
AcDbEntity
  8
0
  6
HIDDEN
 62
     7
370
     0
100
AcDbCircle
 10
88.0579447403
 20
55.870937923
 30
0.0
 40
2.000000000000009
100
AcDbArc
 50
189.9742217944
 51
270.0
  0
ARC
  5
17D
330
1F
100
AcDbEntity
  8
0
  6
HIDDEN
 62
     7
370
     0
100
AcDbCircle
 10
88.0579447403
 20
83.870937923
 30
0.0
 40
2.000000000000005
100
AcDbArc
 50
90.0
 51
170.0257782056
  0
LINE
  5
17E
330
1F
100
AcDbEntity
  8
0
  6
HIDDEN
 62
     7
370
     0
100
AcDbLine
 10
90.4739596176
 20
54.4567243607
 30
0.0
 11
91.8881731799
 21
55.870937923
 31
0.0
  0
LINE
  5
17F
330
1F
100
AcDbEntity
  8
0
  6
HIDDEN
 62
     7
370
     0
100
AcDbLine
 10
91.8881731799
 20
83.870937923
 30
0.0
 11
90.4739596176
 21
85.2851514854
 31
0.0
  0
LINE
  5
180
330
1F
100
AcDbEntity
  8
0
  6
HIDDEN
 62
     7
370
     0
100
AcDbLine
 10
79.5881731799
 20
54.5579868801
 30
0.0
 11
84.4881731799
 21
55.870937923
 31
0.0
  0
LINE
  5
181
330
1F
100
AcDbEntity
  8
0
  6
HIDDEN
 62
     7
370
     0
100
AcDbLine
 10
84.4881731799
 20
83.870937923
 30
0.0
 11
79.5881731799
 21
85.1838889659
 31
0.0
  0
LINE
  5
182
330
1F
100
AcDbEntity
  8
0
  6
HIDDEN
 62
     7
370
     0
100
AcDbLine
 10
86.0881731799
 20
84.2173480845
 30
0.0
 11
85.4881731799
 21
83.870937923
 31
0.0
  0
LINE
  5
183
330
1F
100
AcDbEntity
  8
0
  6
HIDDEN
 62
     7
370
     0
100
AcDbLine
 10
85.4881731799
 20
55.870937923
 30
0.0
 11
86.0881731799
 21
55.5245277615
 31
0.0
  0
ARC
  5
184
330
1F
100
AcDbEntity
  8
0
  6
HIDDEN
 62
     7
370
     0
100
AcDbCircle
 10
104.5579447403
 20
56.370937923
 30
0.0
 40
0.5000000000000071
100
AcDbArc
 50
270.0
 51
0.0
  0
ARC
  5
185
330
1F
100
AcDbEntity
  8
0
  6
HIDDEN
 62
     7
370
     0
100
AcDbCircle
 10
104.5579447403
 20
83.370937923
 30
0.0
 40
0.5000000000000142
100
AcDbArc
 50
0.0
 51
90.0
  0
LINE
  5
186
330
1F
100
AcDbEntity
  8
0
  6
HIDDEN
 62
     7
370
     0
100
AcDbLine
 10
91.8881731799
 20
55.870937923
 30
0.0
 11
104.5579447403
 21
55.870937923
 31
0.0
  0
LINE
  5
187
330
1F
100
AcDbEntity
  8
0
  6
HIDDEN
 62
     7
370
     0
100
AcDbLine
 10
104.5579447403
 20
83.870937923
 30
0.0
 11
91.8881731799
 21
83.870937923
 31
0.0
  0
LINE
  5
188
330
1F
100
AcDbEntity
  8
0
  6
HIDDEN
 62
     7
370
     0
100
AcDbLine
 10
84.4881731799
 20
55.870937923
 30
0.0
 11
85.4881731799
 21
55.870937923
 31
0.0
  0
LINE
  5
189
330
1F
100
AcDbEntity
  8
0
  6
HIDDEN
 62
     7
370
     0
100
AcDbLine
 10
85.4881731799
 20
83.870937923
 30
0.0
 11
84.4881731799
 21
83.870937923
 31
0.0
  0
LINE
  5
18A
330
1F
100
AcDbEntity
  8
0
  6
HIDDEN
 62
     7
370
     0
100
AcDbLine
 10
105.0579447403
 20
59.620937923
 30
0.0
 11
106.3079447403
 21
60.870937923
 31
0.0
  0
LINE
  5
18B
330
1F
100
AcDbEntity
  8
0
  6
HIDDEN
 62
     7
370
     0
100
AcDbLine
 10
106.3079447403
 20
78.870937923
 30
0.0
 11
105.0579447403
 21
80.120937923
 31
0.0
  0
LINE
  5
18C
330
1F
100
AcDbEntity
  8
0
  6
HIDDEN
 62
     7
370
     0
100
AcDbLine
 10
143.0579447403
 20
78.870937923
 30
0.0
 11
106.3079447403
 21
78.870937923
 31
0.0
  0
LINE
  5
18D
330
1F
100
AcDbEntity
  8
0
  6
HIDDEN
 62
     7
370
     0
100
AcDbLine
 10
106.3079447403
 20
60.870937923
 30
0.0
 11
143.0579447403
 21
60.870937923
 31
0.0
  0
LINE
  5
18E
330
1F
100
AcDbEntity
  8
0
  6
HIDDEN
 62
     7
370
     0
100
AcDbLine
 10
143.0579447403
 20
60.870937923
 30
0.0
 11
145.9120326807
 21
65.620937923
 31
0.0
  0
LINE
  5
18F
330
1F
100
AcDbEntity
  8
0
  6
HIDDEN
 62
     7
370
     0
100
AcDbLine
 10
145.9120326807
 20
74.120937923
 30
0.0
 11
143.0579447403
 21
78.870937923
 31
0.0
  0
LINE
  5
190
330
1F
100
AcDbEntity
  8
0
  6
HIDDEN
 62
     7
370
     0
100
AcDbLine
 10
218.7283299072
 20
67.4010763781
 30
0.0
 11
217.933125865
 21
67.4010763781
 31
0.0
  0
LINE
  5
191
330
1F
100
AcDbEntity
  8
0
  6
HIDDEN
 62
     7
370
     0
100
AcDbLine
 10
217.933125865
 20
60.4010763781
 30
0.0
 11
218.7283299072
 21
60.4010763781
 31
0.0
  0
LINE
  5
192
330
1F
100
AcDbEntity
  8
0
  6
HIDDEN
 62
     7
370
     0
100
AcDbLine
 10
220.1574383751
 20
73.9268246861
 30
0.0
 11
218.556402177
 21
73.9268246861
 31
0.0
  0
LINE
  5
193
330
1F
100
AcDbEntity
  8
0
  6
HIDDEN
 62
     7
370
     0
100
AcDbLine
 10
187.0579447403
 20
65.620937923
 30
0.0
 11
189.6116023712
 21
69.870937923
 31
0.0
  0
LINE
  5
194
330
1F
100
AcDbEntity
  8
0
  6
HIDDEN
 62
     7
370
     0
100
AcDbLine
 10
189.6116023712
 20
69.870937923
 30
0.0
 11
187.0579447403
 21
74.120937923
 31
0.0
  0
LINE
  5
195
330
1F
100
AcDbEntity
  8
0
  6
HIDDEN
 62
     7
370
     0
100
AcDbLine
 10
187.0579447403
 20
74.120937923
 30
0.0
 11
145.9120326807
 21
74.120937923
 31
0.0
  0
LINE
  5
196
330
1F
100
AcDbEntity
  8
0
  6
HIDDEN
 62
     7
370
     0
100
AcDbLine
 10
145.9120326807
 20
65.620937923
 30
0.0
 11
187.0579447403
 21
65.620937923
 31
0.0
  0
LINE
  5
197
330
1F
100
AcDbEntity
  8
0
  6
HIDDEN
 62
     7
370
     0
100
AcDbLine
 10
220.8540921734
 20
62.9001339493
 30
0.0
 11
227.8659156557
 21
65.1988890826
 31
0.0
  0
LINE
  5
198
330
1F
100
AcDbEntity
  8
0
  6
HIDDEN
 62
     7
370
     0
100
AcDbLine
 10
217.8600890189
 20
68.1010763781
 30
0.0
 11
212.378033514
 21
68.1010763781
 31
0.0
  0
LINE
  5
199
330
1F
100
AcDbEntity
  8
0
  6
HIDDEN
 62
     7
370
     0
100
AcDbLine
 10
212.6753285692
 20
59.7010763781
 30
0.0
 11
217.8600890189
 21
59.7010763781
 31
0.0
  0
LINE
  5
19A
330
1F
100
AcDbEntity
  8
0
  6
HIDDEN
 62
     7
370
     0
100
AcDbLine
 10
231.320855842
 20
73.070937923
 30
0.0
 11
230.3484260471
 21
73.070937923
 31
0.0
  0
LINE
  5
19B
330
1F
100
AcDbEntity
  8
0
  6
HIDDEN
 62
     7
370
     0
100
AcDbLine
 10
230.3484260471
 20
66.670937923
 30
0.0
 11
231.320855842
 21
66.670937923
 31
0.0
  0
LINE
  5
19C
330
1F
100
AcDbEntity
  8
0
  6
HIDDEN
 62
     7
370
     0
100
AcDbLine
 10
227.9135602045
 20
71.3925977372
 30
0.0
 11
222.6892274141
 21
69.6798532777
 31
0.0
  0
DIMENSION
  5
19D
330
1F
100
AcDbEntity
  8
VERMASSUNG
100
AcDbDimension
  2
_D
 10
68.0579447403
 20
38.370937923
 30
0.0
 11
68.0579447403
 21
69.870937923
 31
0.0
 70
   160
  1
PSC%%c<>
 71
     2
 42
-1.0
  3
SLDDIMSTYLE0
100
AcDbAlignedDimension
 13
116.5579447403
 23
101.370937923
 33
0.0
 14
116.5579447403
 24
38.370937923
 34
0.0
 50
90.0
100
AcDbRotatedDimension
  0
LINE
  5
1AA
330
1F
100
AcDbEntity
  8
VERMASSUNG
  6
CENTERX2
370
     0
100
AcDbLine
 10
73.1450507096
 20
69.870937923
 30
0.0
 11
252.5075753833
 21
69.870937923
 31
0.0
  0
LINE
  5
1AB
330
1F
100
AcDbEntity
  8
0
  6
CENTERX2
 62
     7
100
AcDbLine
 10
246.0579447403
 20
149.2753759453
 30
0.0
 11
167.2220907785
 21
149.2753759453
 31
0.0
  0
LINE
  5
1AC
330
1F
100
AcDbEntity
  8
0
  6
CENTERX2
 62
     7
100
AcDbLine
 10
246.0579447403
 20
149.2753759453
 30
0.0
 11
167.2220907785
 21
149.2753759453
 31
0.0
  0
LINE
  5
1AD
330
1F
100
AcDbEntity
  8
0
  6
CENTERX2
 62
     7
100
AcDbLine
 10
116.0579447403
 20
149.2753759453
 30
0.0
 11
249.4769004604
 21
149.2753759453
 31
0.0
  0
POINT
  5
1AE
330
1F
100
AcDbEntity
  8
0
  6
Continuous
 62
     7
100
AcDbPoint
 10
246.0579447403
 20
149.2753759453
 30
0.0
  0
LINE
  5
1AF
330
1F
100
AcDbEntity
  8
0
  6
Continuous
 62
     7
370
    15
100
AcDbLine
 10
180.09601442
 20
180.7753759453
 30
0.0
 11
116.5579447403
 21
180.7753759453
 31
0.0
  0
LINE
  5
1B0
330
1F
100
AcDbEntity
  8
0
  6
Continuous
 62
     7
370
    15
100
AcDbLine
 10
191.8037606166
 20
180.7753759453
 30
0.0
 11
186.0561129473
 21
180.7753759453
 31
0.0
  0
LINE
  5
1B1
330
1F
100
AcDbEntity
  8
0
  6
Continuous
 62
     7
370
    15
100
AcDbLine
 10
130.0324127166
 20
117.7753759453
 30
0.0
 11
238.6774216867
 21
117.7753759453
 31
0.0
  0
LINE
  5
1B2
330
1F
100
AcDbEntity
  8
0
  6
Continuous
 62
     7
370
    15
100
AcDbLine
 10
116.5579447403
 20
117.7753759453
 30
0.0
 11
126.0604707093
 21
117.7753759453
 31
0.0
  0
ARC
  5
1B3
330
1F
100
AcDbEntity
  8
0
  6
Continuous
 62
     7
370
    15
100
AcDbCircle
 10
116.5579447403
 20
118.2753759453
 30
0.0
 40
0.5000000000000284
100
AcDbArc
 50
180.0
 51
270.0
  0
ARC
  5
1B4
330
1F
100
AcDbEntity
  8
0
  6
Continuous
 62
     7
370
    15
100
AcDbCircle
 10
116.5579447403
 20
180.2753759453
 30
0.0
 40
0.5000000000000284
100
AcDbArc
 50
90.0
 51
180.0
  0
LWPOLYLINE
  5
1B5
330
1F
100
AcDbEntity
  8
0
  6
Continuous
 62
     7
370
    15
100
AcDbPolyline
 90
        3
 70
   128
 43
0.0
 10
115.8579447403
 20
126.7355556665
 10
115.9833996838
 20
126.6672535515
 10
116.0579447403
 20
126.6145157934
  0
ARC
  5
1B6
330
1F
100
AcDbEntity
  8
0
  6
Continuous
 62
     7
370
    15
100
AcDbCircle
 10
115.4437311779
 20
172.7253759453
 30
0.0
 40
0.9999999999999989
100
AcDbArc
 50
225.0
 51
307.8947985336
  0
ARC
  5
1B7
330
1F
100
AcDbEntity
  8
0
  6
Continuous
 62
     7
370
    15
100
AcDbCircle
 10
114.0578816512
 20
128.6502540497
 30
0.0
 40
0.199999999999991
100
AcDbArc
 50
88.5608333333
 51
178.5608333333
  0
LINE
  5
1B8
330
1F
100
AcDbEntity
  8
0
  6
Continuous
 62
     7
370
    15
100
AcDbLine
 10
104.9962344462
 20
128.8779141684
 30
0.0
 11
113.8579447403
 21
128.6552771608
 31
0.0
  0
LINE
  5
1B9
330
1F
100
AcDbEntity
  8
0
  6
Continuous
 62
     7
370
    15
100
AcDbLine
 10
86.4238521457
 20
129.3445170568
 30
0.0
 11
96.3272582109
 21
129.0957090256
 31
0.0
  0
ARC
  5
1BA
330
1F
100
AcDbEntity
  8
0
  6
Continuous
 62
     7
370
    15
100
AcDbCircle
 10
115.6579447403
 20
128.6100548955
 30
0.0
 40
0.2000000000000028
100
AcDbArc
 50
360.0
 51
88.5608333333
  0
LINE
  5
1BB
330
1F
100
AcDbEntity
  8
0
  6
Continuous
 62
     7
370
    15
100
AcDbLine
 10
114.0629047624
 20
128.8501909606
 30
0.0
 11
115.6629678514
 21
128.8099918064
 31
0.0
  0
LINE
  5
1BC
330
1F
100
AcDbEntity
  8
0
  6
Continuous
 62
     7
370
    15
100
AcDbLine
 10
113.8579447403
 20
172.6954747299
 30
0.0
 11
79.5579447403
 21
171.8337393416
 31
0.0
  0
ARC
  5
1BD
330
1F
100
AcDbEntity
  8
0
  6
Continuous
 62
     7
370
    15
100
AcDbCircle
 10
114.0578816512
 20
172.700497841
 30
0.0
 40
0.2000000000000045
100
AcDbArc
 50
181.4391666666
 51
271.4391666667
  0
LINE
  5
1BE
330
1F
100
AcDbEntity
  8
0
  6
Continuous
 62
     7
370
    15
100
AcDbLine
 10
114.2636838894
 20
172.5056052006
 30
0.0
 11
114.0629047624
 21
172.5005609301
 31
0.0
  0
LINE
  5
1BF
330
1F
100
AcDbEntity
  8
0
  6
Continuous
 62
     7
370
    15
100
AcDbLine
 10
79.5579447403
 20
171.8337393416
 30
0.0
 11
78.0579447403
 21
170.9677139378
 31
0.0
  0
LINE
  5
1C0
330
1F
100
AcDbEntity
  8
0
  6
Continuous
 62
     7
370
    15
100
AcDbLine
 10
114.7366243967
 20
172.0182691642
 30
0.0
 11
114.2738793006
 21
172.4810142602
 31
0.0
  0
LINE
  5
1C1
330
1F
100
AcDbEntity
  8
0
  6
Continuous
 62
     7
370
    15
100
AcDbLine
 10
243.7681257843
 20
140.3168994465
 30
0.0
 11
244.268232536
 21
143.1531457752
 31
0.0
  0
LINE
  5
1C2
330
1F
100
AcDbEntity
  8
0
  6
Continuous
 62
     7
370
    15
100
AcDbLine
 10
243.4205890051
 20
140.0735515739
 30
0.0
 11
243.7681257843
 21
140.3168994465
 31
0.0
  0
LINE
  5
1C3
330
1F
100
AcDbEntity
  8
0
  6
Continuous
 62
     7
370
    15
100
AcDbLine
 10
219.8917647283
 20
153.8993337295
 30
0.0
 11
219.8379337932
 21
153.5940433262
 31
0.0
  0
LINE
  5
1C4
330
1F
100
AcDbEntity
  8
0
  6
Continuous
 62
     7
370
    15
100
AcDbLine
 10
244.9570152939
 20
143.0316947911
 30
0.0
 11
246.0596812221
 21
149.2852240228
 31
0.0
  0
SPLINE
  5
1C5
330
1F
100
AcDbEntity
  8
0
  6
Continuous
 62
     7
370
    15
100
AcDbSpline
210
0.0
220
0.0
230
1.0
 70
     8
 71
     3
 72
    12
 73
     8
 74
     0
 42
0.00000001
 43
0.00000001
 12
1.0
 22
0.0
 32
0.0
 13
1.0
 23
0.0
 33
0.0
 40
0.0
 40
0.0
 40
0.0
 40
0.0
 40
0.2145432287860192
 40
0.429075972969525
 40
0.6438807193373989
 40
0.858863303039401
 40
1.0
 40
1.0
 40
1.0
 40
1.0
 10
128.0579447402957
 20
117.8389321261048
 30
0.0
 10
128.2824642146327
 20
117.8374956419929
 30
0.0
 10
128.7314921911709
 20
117.8346227439693
 30
0.0
 10
129.3314656519038
 20
117.8144393138564
 30
0.0
 10
129.7796708167823
 20
117.7925819713387
 30
0.0
 10
130.0342066095885
 20
117.776900262194
 30
0.0
 10
130.032921879203
 20
117.7769588905223
 30
0.0
 10
130.0324127166473
 20
117.7769821260196
 30
0.0
  0
LINE
  5
1C6
330
1F
100
AcDbEntity
  8
0
  6
Continuous
 62
     7
370
    15
100
AcDbLine
 10
128.1659634658
 20
117.837796183
 30
0.0
 11
127.6164481523
 21
117.8356862159
 31
0.0
  0
SPLINE
  5
1C7
330
1F
100
AcDbEntity
  8
0
  6
Continuous
 62
     7
370
    15
100
AcDbSpline
210
0.0
220
0.0
230
1.0
 70
     8
 71
     3
 72
    13
 73
     9
 74
     0
 42
0.00000001
 43
0.00000001
 12
1.0
 22
0.0
 32
0.0
 13
1.0
 23
0.0
 33
0.0
 40
0.0
 40
0.0
 40
0.0
 40
0.0
 40
0.0049179255614479
 40
0.2191931427808439
 40
0.4334667238125088
 40
0.6481145414637588
 40
0.8629308137743966
 40
1.0
 40
1.0
 40
1.0
 40
1.0
 10
126.0604707093019
 20
117.7755321150204
 30
0.0
 10
126.0596302907276
 20
117.7754801653767
 30
0.0
 10
126.0221726297157
 20
117.7731647570745
 30
0.0
 10
126.1561835208811
 20
117.7817130498351
 30
0.0
 10
126.4703155360145
 20
117.7998087846442
 30
0.0
 10
126.9894493199298
 20
117.8224859803917
 30
0.0
 10
127.5470746215271
 20
117.8368274924277
 30
0.0
 10
127.9147319654571
 20
117.8383421318619
 30
0.0
 10
128.0579447402957
 20
117.8389321261048
 30
0.0
  0
SPLINE
  5
1C8
330
1F
100
AcDbEntity
  8
0
  6
Continuous
 62
     7
370
    15
100
AcDbSpline
210
0.0
220
0.0
230
1.0
 70
     8
 71
     3
 72
    12
 73
     8
 74
     0
 42
0.00000001
 43
0.00000001
 12
1.0
 22
0.0
 32
0.0
 13
1.0
 23
0.0
 33
0.0
 40
0.0
 40
0.0
 40
0.0
 40
0.0
 40
0.4999999999999982
 40
0.4999999999999982
 40
0.7499999999999991
 40
0.7499999999999991
 40
1.0
 40
1.0
 40
1.0
 40
1.0
 10
126.15268885197
 20
119.3746334852239
 30
0.0
 10
126.1834110938891
 20
119.3373315022708
 30
0.0
 10
126.2262483084243
 20
119.3007196702245
 30
0.0
 10
126.3256753326241
 20
119.2529548869393
 30
0.0
 10
126.3654275274408
 20
119.2379973714569
 30
0.0
 10
126.463468984299
 20
119.2148074256878
 30
0.0
 10
126.5230250398863
 20
119.2068839864679
 30
0.0
 10
126.5857015538622
 20
119.2068839864679
 30
0.0
  0
LINE
  5
1C9
330
1F
100
AcDbEntity
  8
0
  6
Continuous
 62
     7
370
    15
100
AcDbLine
 10
126.5857015539
 20
119.2068839865
 30
0.0
 11
129.5301879267
 21
119.2068839865
 31
0.0
  0
SPLINE
  5
1CA
330
1F
100
AcDbEntity
  8
0
  6
Continuous
 62
     7
370
    15
100
AcDbSpline
210
0.0
220
0.0
230
1.0
 70
     8
 71
     3
 72
    12
 73
     8
 74
     0
 42
0.00000001
 43
0.00000001
 12
1.0
 22
0.0
 32
0.0
 13
1.0
 23
0.0
 33
0.0
 40
0.0
 40
0.0
 40
0.0
 40
0.0
 40
0.2499999999999986
 40
0.2499999999999986
 40
0.4999999999999971
 40
0.4999999999999971
 40
1.0
 40
1.0
 40
1.0
 40
1.0
 10
129.5301879267293
 20
119.206883986468
 30
0.0
 10
129.5932679652227
 20
119.2068839864679
 30
0.0
 10
129.6524165874041
 20
119.2147899126805
 30
0.0
 10
129.7508891374731
 20
119.2381150741167
 30
0.0
 10
129.7899257494579
 20
119.2528278639484
 30
0.0
 10
129.8898222162368
 20
119.3007836646793
 30
0.0
 10
129.9322430973036
 20
119.3370458212594
 30
0.0
 10
129.9632006286215
 20
119.3746334852239
 30
0.0
  0
ELLIPSE
  5
1CB
330
1F
100
AcDbEntity
  8
0
  6
Continuous
 62
     7
370
    15
100
AcDbEllipse
 10
113.7107905509
 20
149.2753759453
 30
0.0
 11
-14.75368316065621
 21
31.09325491558113
 31
0.0
210
0.0
220
0.0
230
1.0
 40
0.3419987131
 41
3.300734856217123
 42
4.231496223360768
  0
SPLINE
  5
1CC
330
1F
100
AcDbEntity
  8
0
  6
Continuous
 62
     7
370
    15
100
AcDbSpline
210
0.0
220
0.0
230
1.0
 70
     8
 71
     3
 72
    12
 73
     8
 74
     0
 42
0.00000001
 43
0.00000001
 12
1.0
 22
0.0
 32
0.0
 13
1.0
 23
0.0
 33
0.0
 40
0.0
 40
0.0
 40
0.0
 40
0.0
 40
0.4999999999999971
 40
0.4999999999999971
 40
0.7499999999999986
 40
0.7499999999999986
 40
1.0
 40
1.0
 40
1.0
 40
1.0
 10
129.9632006286215
 20
139.3660066246556
 30
0.0
 10
129.9324783867024
 20
139.4785624240648
 30
0.0
 10
129.8896411721673
 20
139.5913202838044
 30
0.0
 10
129.7902141479675
 20
139.7408611696008
 30
0.0
 10
129.7504619531508
 20
139.7881539013077
 30
0.0
 10
129.6524204962926
 20
139.8618901946291
 30
0.0
 10
129.5928644407051
 20
139.8873095140048
 30
0.0
 10
129.5301879267293
 20
139.8873095140048
 30
0.0
  0
LINE
  5
1CD
330
1F
100
AcDbEntity
  8
0
  6
Continuous
 62
     7
370
    15
100
AcDbLine
 10
129.5301879267
 20
139.887309514
 30
0.0
 11
126.5857015539
 21
139.887309514
 31
0.0
  0
SPLINE
  5
1CE
330
1F
100
AcDbEntity
  8
0
  6
Continuous
 62
     7
370
    15
100
AcDbSpline
210
0.0
220
0.0
230
1.0
 70
     8
 71
     3
 72
    12
 73
     8
 74
     0
 42
0.00000001
 43
0.00000001
 12
1.0
 22
0.0
 32
0.0
 13
1.0
 23
0.0
 33
0.0
 40
0.0
 40
0.0
 40
0.0
 40
0.0
 40
0.2500000000000023
 40
0.2500000000000023
 40
0.5000000000000047
 40
0.5000000000000047
 40
1.0
 40
1.0
 40
1.0
 40
1.0
 10
126.5857015538622
 20
139.8873095140048
 30
0.0
 10
126.5226215153688
 20
139.8873095140048
 30
0.0
 10
126.4634728931874
 20
139.8619451947898
 30
0.0
 10
126.3650003431184
 20
139.7877803344169
 30
0.0
 10
126.3259637311337
 20
139.7412599938627
 30
0.0
 10
126.2260672643546
 20
139.5911176510175
 30
0.0
 10
126.183646383288
 20
139.4794244440454
 30
0.0
 10
126.15268885197
 20
139.3660066246556
 30
0.0
  0
ELLIPSE
  5
1CF
330
1F
100
AcDbEntity
  8
0
  6
Continuous
 62
     7
370
    15
100
AcDbEllipse
 10
142.4050989297
 20
149.2753759453
 30
0.0
 11
14.75368316065618
 21
31.09325491558116
 31
0.0
210
0.0
220
0.0
230
1.0
 40
0.3419987131
 41
2.051689083818828
 42
2.982450450962501
  0
SPLINE
  5
1D0
330
1F
100
AcDbEntity
  8
0
  6
Continuous
 62
     7
370
    15
100
AcDbSpline
210
0.0
220
0.0
230
1.0
 70
     8
 71
     3
 72
    12
 73
     8
 74
     0
 42
0.00000001
 43
0.00000001
 12
1.0
 22
0.0
 32
0.0
 13
1.0
 23
0.0
 33
0.0
 40
0.0
 40
0.0
 40
0.0
 40
0.0
 40
0.5000000000000019
 40
0.5000000000000019
 40
0.7500000000000009
 40
0.7500000000000009
 40
1.0
 40
1.0
 40
1.0
 40
1.0
 10
126.15268885197
 20
159.1847452660265
 30
0.0
 10
126.183411093889
 20
159.0721894666173
 30
0.0
 10
126.2262483084243
 20
158.9594316068778
 30
0.0
 10
126.3256753326241
 20
158.8098907210814
 30
0.0
 10
126.3654275274407
 20
158.7625979893746
 30
0.0
 10
126.4634689842989
 20
158.6888616960532
 30
0.0
 10
126.5230250398863
 20
158.6634423766774
 30
0.0
 10
126.5857015538622
 20
158.6634423766774
 30
0.0
  0
LINE
  5
1D1
330
1F
100
AcDbEntity
  8
0
  6
Continuous
 62
     7
370
    15
100
AcDbLine
 10
126.5857015539
 20
158.6634423767
 30
0.0
 11
129.5301879267
 21
158.6634423767
 31
0.0
  0
SPLINE
  5
1D2
330
1F
100
AcDbEntity
  8
0
  6
Continuous
 62
     7
370
    15
100
AcDbSpline
210
0.0
220
0.0
230
1.0
 70
     8
 71
     3
 72
    12
 73
     8
 74
     0
 42
0.00000001
 43
0.00000001
 12
1.0
 22
0.0
 32
0.0
 13
1.0
 23
0.0
 33
0.0
 40
0.0
 40
0.0
 40
0.0
 40
0.0
 40
0.2499999999999995
 40
0.2499999999999995
 40
0.499999999999999
 40
0.499999999999999
 40
1.0
 40
1.0
 40
1.0
 40
1.0
 10
129.5301879267293
 20
158.6634423766774
 30
0.0
 10
129.5932679652226
 20
158.6634423766774
 30
0.0
 10
129.652416587404
 20
158.6888066958923
 30
0.0
 10
129.7508891374731
 20
158.7629715562653
 30
0.0
 10
129.7899257494578
 20
158.8094918968193
 30
0.0
 10
129.8898222162368
 20
158.9596342396646
 30
0.0
 10
129.9322430973036
 20
159.0713274466367
 30
0.0
 10
129.9632006286215
 20
159.1847452660265
 30
0.0
  0
ELLIPSE
  5
1D3
330
1F
100
AcDbEntity
  8
0
  6
Continuous
 62
     7
370
    15
100
AcDbEllipse
 10
113.7107905509
 20
149.2753759453
 30
0.0
 11
14.75368316065617
 21
31.09325491558116
 31
0.0
210
0.0
220
0.0
230
1.0
 40
0.3419987131
 41
5.193281737408629
 42
6.124043104552335
  0
SPLINE
  5
1D4
330
1F
100
AcDbEntity
  8
0
  6
Continuous
 62
     7
370
    15
100
AcDbSpline
210
0.0
220
0.0
230
1.0
 70
     8
 71
     3
 72
    12
 73
     8
 74
     0
 42
0.00000001
 43
0.00000001
 12
1.0
 22
0.0
 32
0.0
 13
1.0
 23
0.0
 33
0.0
 40
0.0
 40
0.0
 40
0.0
 40
0.0
 40
0.4999999999999971
 40
0.4999999999999971
 40
0.7499999999999986
 40
0.7499999999999986
 40
1.0
 40
1.0
 40
1.0
 40
1.0
 10
129.9632006286215
 20
179.1761184054585
 30
0.0
 10
129.9324783867023
 20
179.2134203884115
 30
0.0
 10
129.8896411721673
 20
179.2500322204579
 30
0.0
 10
129.7902141479674
 20
179.2977970037431
 30
0.0
 10
129.7504619531508
 20
179.3127545192254
 30
0.0
 10
129.6524204962925
 20
179.3359444649946
 30
0.0
 10
129.5928644407051
 20
179.3438679042143
 30
0.0
 10
129.5301879267293
 20
179.3438679042143
 30
0.0
  0
LINE
  5
1D5
330
1F
100
AcDbEntity
  8
0
  6
Continuous
 62
     7
370
    15
100
AcDbLine
 10
129.5301879267
 20
179.3438679042
 30
0.0
 11
126.5857015539
 21
179.3438679042
 31
0.0
  0
SPLINE
  5
1D6
330
1F
100
AcDbEntity
  8
0
  6
Continuous
 62
     7
370
    15
100
AcDbSpline
210
0.0
220
0.0
230
1.0
 70
     8
 71
     3
 72
    12
 73
     8
 74
     0
 42
0.00000001
 43
0.00000001
 12
1.0
 22
0.0
 32
0.0
 13
1.0
 23
0.0
 33
0.0
 40
0.0
 40
0.0
 40
0.0
 40
0.0
 40
0.25
 40
0.25
 40
0.5
 40
0.5
 40
1.0
 40
1.0
 40
1.0
 40
1.0
 10
126.5857015538622
 20
179.3438679042143
 30
0.0
 10
126.5226215153688
 20
179.3438679042144
 30
0.0
 10
126.4634728931875
 20
179.3359619780018
 30
0.0
 10
126.3650003431183
 20
179.3126368165656
 30
0.0
 10
126.3259637311337
 20
179.2979240267339
 30
0.0
 10
126.2260672643546
 20
179.249968226003
 30
0.0
 10
126.183646383288
 20
179.2137060694229
 30
0.0
 10
126.15268885197
 20
179.1761184054585
 30
0.0
  0
ELLIPSE
  5
1D7
330
1F
100
AcDbEntity
  8
0
  6
Continuous
 62
     7
370
    15
100
AcDbEllipse
 10
142.4050989297
 20
149.2753759453
 30
0.0
 11
-14.75368316065618
 21
31.09325491558116
 31
0.0
210
0.0
220
0.0
230
1.0
 40
0.3419987131
 41
0.1591422026272961
 42
1.08990356977097
  0
LINE
  5
1D8
330
1F
100
AcDbEntity
  8
0
  6
Continuous
 62
     7
370
    15
100
AcDbLine
 10
195.7451223255
 20
166.0660137966
 30
0.0
 11
191.8037606166
 21
180.7753759453
 31
0.0
  0
ELLIPSE
  5
1D9
330
1F
100
AcDbEntity
  8
0
  6
Continuous
 62
     7
370
    15
100
AcDbEllipse
 10
244.772138222
 20
149.2753759453
 30
0.0
 11
61.66454471312073
 21
3.819263116778871
 31
0.0
210
0.0
220
0.0
230
1.0
 40
0.5070597189
 41
2.457862224163383
 42
4.582048156619007
  0
LINE
  5
1DA
330
1F
100
AcDbEntity
  8
0
  6
Continuous
 62
     7
370
    15
100
AcDbLine
 10
238.6774216867
 20
117.7753759453
 30
0.0
 11
238.6776365193
 21
117.7765943219
 31
0.0
  0
SPLINE
  5
1DB
330
1F
100
AcDbEntity
  8
0
  6
Continuous
 62
     7
370
    15
100
AcDbSpline
210
0.0
220
0.0
230
1.0
 70
     8
 71
     3
 72
    70
 73
    66
 74
     0
 42
0.00000001
 43
0.00000001
 12
1.0
 22
0.0
 32
0.0
 13
1.0
 23
0.0
 33
0.0
 40
-0.03125
 40
-0.03125
 40
0.0
 40
0.0
 40
0.03125
 40
0.03125
 40
0.0625
 40
0.0625
 40
0.09375
 40
0.09375
 40
0.125
 40
0.125
 40
0.15625
 40
0.15625
 40
0.1875
 40
0.1875
 40
0.21875
 40
0.21875
 40
0.25
 40
0.25
 40
0.28125
 40
0.28125
 40
0.3125
 40
0.3125
 40
0.34375
 40
0.34375
 40
0.375
 40
0.375
 40
0.40625
 40
0.40625
 40
0.4375
 40
0.4375
 40
0.46875
 40
0.46875
 40
0.5
 40
0.5
 40
0.53125
 40
0.53125
 40
0.5625
 40
0.5625
 40
0.59375
 40
0.59375
 40
0.625
 40
0.625
 40
0.65625
 40
0.65625
 40
0.6875
 40
0.6875
 40
0.71875
 40
0.71875
 40
0.75
 40
0.75
 40
0.78125
 40
0.78125
 40
0.8125
 40
0.8125
 40
0.84375
 40
0.84375
 40
0.875
 40
0.875
 40
0.90625
 40
0.90625
 40
0.9375
 40
0.9375
 40
0.96875
 40
0.96875
 40
1.0
 40
1.0
 40
1.03125
 40
1.03125
 10
208.2044617664885
 20
118.2927103997583
 30
0.0
 10
208.2233431667507
 20
118.3997921417944
 30
0.0
 10
208.260855261537
 20
118.4559338519639
 30
0.0
 10
208.3875823022679
 20
118.5727327605021
 30
0.0
 10
208.4780311129304
 20
118.6340033238592
 30
0.0
 10
208.7062262534048
 20
118.7570581508437
 30
0.0
 10
208.8426885097436
 20
118.8184275499735
 30
0.0
 10
209.158631567826
 20
118.9393576461837
 30
0.0
 10
209.3399276039614
 20
118.9993340231454
 30
0.0
 10
209.7331628164316
 20
119.1113075670323
 30
0.0
 10
209.9459837372711
 20
119.1637880612306
 30
0.0
 10
210.4047022365477
 20
119.2596517413949
 30
0.0
 10
210.6512688026863
 20
119.3029285759374
 30
0.0
 10
211.1583744485798
 20
119.3746049647493
 30
0.0
 10
211.4212624457048
 20
119.4035686172697
 30
0.0
 10
211.9669720895864
 20
119.4455058033359
 30
0.0
 10
212.247535997344
 20
119.4580669754906
 30
0.0
 10
212.8034374211423
 20
119.4646162488557
 30
0.0
 10
213.0817106541602
 20
119.4588672669084
 30
0.0
 10
213.6389547778999
 20
119.4281489289283
 30
0.0
 10
213.9078063165323
 20
119.4037224455522
 30
0.0
 10
214.425199163884
 20
119.3385946941536
 30
0.0
 10
214.6767660435023
 20
119.2972326918259
 30
0.0
 10
215.1416325034404
 20
119.2025794247473
 30
0.0
 10
215.3554533438654
 20
119.1495135418492
 30
0.0
 10
215.746558725852
 20
119.0343378485386
 30
0.0
 10
215.9222531565429
 20
118.9724642618848
 30
0.0
 10
216.2224192642586
 20
118.8473461948066
 30
0.0
 10
216.3497551201462
 20
118.7830556386413
 30
0.0
 10
216.5535600109
 20
118.6554720728737
 30
0.0
 10
216.6285277121708
 20
118.5933411404306
 30
0.0
 10
216.726777786925
 20
118.4734444288974
 30
0.0
 10
216.7496906772931
 20
118.4151829581124
 30
0.0
 10
216.7411698598164
 20
118.3078132654043
 30
0.0
 10
216.7105454954262
 20
118.2582771808884
 30
0.0
 10
216.5961832882651
 20
118.1671129597511
 30
0.0
 10
216.5119112619979
 20
118.1257281202651
 30
0.0
 10
216.2965701288103
 20
118.0532874848827
 30
0.0
 10
216.1650066190188
 20
118.0217201726142
 30
0.0
 10
215.8520656766859
 20
117.9664622712747
 30
0.0
 10
215.6748362923502
 20
117.9435302069309
 30
0.0
 10
215.283080954497
 20
117.9050431929985
 30
0.0
 10
215.0659077893611
 20
117.8893139323569
 30
0.0
 10
214.6016286864776
 20
117.8639576819093
 30
0.0
 10
214.3572263398202
 20
117.8543792876715
 30
0.0
 10
213.8443172046717
 20
117.8395251854968
 30
0.0
 10
213.5730021317862
 20
117.8342430147162
 30
0.0
 10
213.0265190197302
 20
117.8272640409934
 30
0.0
 10
212.7497814199546
 20
117.8254817769776
 30
0.0
 10
212.1892263824253
 20
117.8248791813571
 30
0.0
 10
211.9061132435919
 20
117.8261007613976
 30
0.0
 10
211.357338024849
 20
117.8317936233004
 30
0.0
 10
211.0885268970679
 20
117.8362483960815
 30
0.0
 10
210.5626447664152
 20
117.8497087633599
 30
0.0
 10
210.3132965910603
 20
117.8585437885819
 30
0.0
 10
209.8449871029206
 20
117.8819435353305
 30
0.0
 10
209.6231563075535
 20
117.8967313523735
 30
0.0
 10
209.2225669084592
 20
117.9337549711332
 30
0.0
 10
209.0448765811197
 20
117.9557708664896
 30
0.0
 10
208.7347142534138
 20
118.0089975577675
 30
0.0
 10
208.6021027269268
 20
118.0405559002529
 30
0.0
 10
208.3956678102097
 20
118.1120852285619
 30
0.0
 10
208.3197527945113
 20
118.1522898170159
 30
0.0
 10
208.2235446627963
 20
118.243053412967
 30
0.0
 10
208.2044617664885
 20
118.2927103997583
 30
0.0
 10
208.2233431667507
 20
118.3997921417944
 30
0.0
  0
SPLINE
  5
1DC
330
1F
100
AcDbEntity
  8
0
  6
Continuous
 62
     7
370
    15
100
AcDbSpline
210
0.0
220
0.0
230
1.0
 70
     8
 71
     3
 72
    12
 73
     8
 74
     0
 42
0.00000001
 43
0.00000001
 12
1.0
 22
0.0
 32
0.0
 13
1.0
 23
0.0
 33
0.0
 40
0.0
 40
0.0
 40
0.0
 40
0.0
 40
0.2141747890913854
 40
0.4283259989818235
 40
0.6430886615499617
 40
0.8582535777417961
 40
1.0
 40
1.0
 40
1.0
 40
1.0
 10
183.0579447402959
 20
180.6321933858915
 30
0.0
 10
182.7216383624905
 20
180.6354256116129
 30
0.0
 10
182.0490626319457
 20
180.6418897072093
 30
0.0
 10
181.1500870869933
 20
180.6872775423897
 30
0.0
 10
180.4772922040594
 20
180.7364892176913
 30
0.0
 10
180.0941146472503
 20
180.7718920083485
 30
0.0
 10
180.0954743983429
 20
180.7718145006141
 30
0.0
 10
180.0960144200002
 20
180.7717837186162
 30
0.0
  0
LINE
  5
1DD
330
1F
100
AcDbEntity
  8
0
  6
Continuous
 62
     7
370
    15
100
AcDbLine
 10
182.8921712589
 20
180.6348108632
 30
0.0
 11
183.7233656288
 21
180.6394006022
 31
0.0
  0
SPLINE
  5
1DE
330
1F
100
AcDbEntity
  8
0
  6
Continuous
 62
     7
370
    15
100
AcDbSpline
210
0.0
220
0.0
230
1.0
 70
     8
 71
     3
 72
    13
 73
     9
 74
     0
 42
0.00000001
 43
0.00000001
 12
1.0
 22
0.0
 32
0.0
 13
1.0
 23
0.0
 33
0.0
 40
0.0
 40
0.0
 40
0.0
 40
0.0
 40
0.0023487427557824
 40
0.2161447202157625
 40
0.4299226567237578
 40
0.6445342926370043
 40
0.8595427887072524
 40
1.0
 40
1.0
 40
1.0
 40
1.0
 10
186.0561129472827
 20
180.7752062122061
 30
0.0
 10
186.0567231042056
 20
180.7752627437286
 30
0.0
 10
186.1128732283824
 20
180.7804650972406
 30
0.0
 10
185.9146112136267
 20
180.7615070488398
 30
0.0
 10
185.4494729423898
 20
180.7211844520122
 30
0.0
 10
184.6751466956976
 20
180.6700614560585
 30
0.0
 10
183.8354838556781
 20
180.6371302937035
 30
0.0
 10
183.2781623824118
 20
180.6335916360582
 30
0.0
 10
183.0579447402959
 20
180.6321933858915
 30
0.0
  0
LINE
  5
1DF
330
1F
100
AcDbEntity
  8
0
  6
Continuous
 62
     7
370
    15
100
AcDbLine
 10
116.0579447403
 20
149.2753759453
 30
0.0
 11
116.0579447403
 21
180.2753759453
 31
0.0
  0
LINE
  5
1E0
330
1F
100
AcDbEntity
  8
0
  6
Continuous
 62
     7
370
    15
100
AcDbLine
 10
116.0579447403
 20
118.2753759453
 30
0.0
 11
116.0579447403
 21
149.2753759453
 31
0.0
  0
LINE
  5
1E1
330
1F
100
AcDbEntity
  8
0
  6
Continuous
 62
     7
370
    15
100
AcDbLine
 10
197.0686292409
 20
161.1266187442
 30
0.0
 11
195.7451223255
 21
166.0660137966
 31
0.0
  0
ARC
  5
1E2
330
1F
100
AcDbEntity
  8
0
  6
Continuous
 62
     7
370
    15
100
AcDbCircle
 10
202.8641841986
 20
162.6795330148
 30
0.0
 40
5.999999999999983
100
AcDbArc
 50
195.0
 51
260.0
  0
LINE
  5
1E3
330
1F
100
AcDbEntity
  8
0
  6
Continuous
 62
     7
370
    15
100
AcDbLine
 10
232.0687804337
 20
151.4374150666
 30
0.0
 11
201.8222951326
 21
156.7706864968
 31
0.0
  0
LINE
  5
1E4
330
1F
100
AcDbEntity
  8
0
  6
Continuous
 62
     7
370
    15
100
AcDbLine
 10
232.0687804337
 20
151.4374150666
 30
0.0
 11
230.4677442356
 21
142.3574875837
 31
0.0
  0
LINE
  5
1E5
330
1F
100
AcDbEntity
  8
0
  6
Continuous
 62
     7
370
    15
100
AcDbLine
 10
230.4677442356
 20
142.3574875837
 30
0.0
 11
230.787661088
 21
142.301077611
 31
0.0
  0
LINE
  5
1E6
330
1F
100
AcDbEntity
  8
0
  6
Continuous
 62
     7
370
    15
100
AcDbLine
 10
238.6776365193
 20
117.7765943219
 30
0.0
 11
242.6336582939
 21
140.2123086902
 31
0.0
  0
LINE
  5
1E7
330
1F
100
AcDbEntity
  8
0
  6
Continuous
 62
     7
370
    15
100
AcDbLine
 10
115.8579447403
 20
132.4851745916
 30
0.0
 11
115.8579447403
 21
126.7355556665
 31
0.0
  0
SPLINE
  5
1E8
330
1F
100
AcDbEntity
  8
0
  6
Continuous
 62
     7
370
    15
100
AcDbSpline
210
0.0
220
0.0
230
1.0
 70
     8
 71
     3
 72
    16
 73
    12
 74
     0
 42
0.00000001
 43
0.00000001
 12
1.0
 22
0.0
 32
0.0
 13
1.0
 23
0.0
 33
0.0
 40
0.0
 40
0.0
 40
0.0
 40
0.0
 40
0.5000000000000032
 40
0.5000000000000032
 40
0.7500000000000049
 40
0.7500000000000049
 40
0.8750000000000057
 40
0.8750000000000057
 40
0.9375000000000028
 40
0.9375000000000028
 40
1.0
 40
1.0
 40
1.0
 40
1.0
 10
115.8579447402958
 20
132.4851745916
 30
0.0
 10
115.8579447402958
 20
132.5649983025805
 30
0.0
 10
115.8537984652178
 20
132.6468544204646
 30
0.0
 10
115.8278328698243
 20
132.7756695415486
 30
0.0
 10
115.8163719644468
 20
132.8204602132501
 30
0.0
 10
115.7820602266725
 20
132.8865910209815
 30
0.0
 10
115.7680354907428
 20
132.9094380791846
 30
0.0
 10
115.7320125277091
 20
132.9358688324268
 30
0.0
 10
115.7172580186193
 20
132.9422965015691
 30
0.0
 10
115.6879058574725
 20
132.9452574247242
 30
0.0
 10
115.6745659829684
 20
132.9422760332161
 30
0.0
 10
115.66296785142
 20
132.9375330455348
 30
0.0
  0
SPLINE
  5
1E9
330
1F
100
AcDbEntity
  8
0
  6
Continuous
 62
     7
370
    15
100
AcDbSpline
210
0.0
220
0.0
230
1.0
 70
     8
 71
     3
 72
    12
 73
     8
 74
     0
 42
0.00000001
 43
0.00000001
 12
1.0
 22
0.0
 32
0.0
 13
1.0
 23
0.0
 33
0.0
 40
0.0
 40
0.0
 40
0.0
 40
0.0
 40
0.25
 40
0.25
 40
0.5
 40
0.5
 40
1.0
 40
1.0
 40
1.0
 40
1.0
 10
115.6629678514271
 20
132.9375330455294
 30
0.0
 10
115.6327760097099
 20
132.9251862694348
 30
0.0
 10
115.5994170402953
 20
132.914688582965
 30
0.0
 10
115.5262797557147
 20
132.9012675283858
 30
0.0
 10
115.4860378830607
 20
132.8986571171389
 30
0.0
 10
115.3683321060922
 20
132.906627569881
 30
0.0
 10
115.2979216283129
 20
132.9317153274989
 30
0.0
 10
115.2414324538446
 20
132.9610049698271
 30
0.0
  0
SPLINE
  5
1EA
330
1F
100
AcDbEntity
  8
0
  6
Continuous
 62
     7
370
    15
100
AcDbSpline
210
0.0
220
0.0
230
1.0
 70
     8
 71
     3
 72
    12
 73
     8
 74
     0
 42
0.00000001
 43
0.00000001
 12
1.0
 22
0.0
 32
0.0
 13
1.0
 23
0.0
 33
0.0
 40
0.0
 40
0.0
 40
0.0
 40
0.0
 40
0.2500000000000023
 40
0.2500000000000023
 40
0.5000000000000047
 40
0.5000000000000047
 40
1.0
 40
1.0
 40
1.0
 40
1.0
 10
115.2414324538441
 20
132.961004969827
 30
0.0
 10
115.1532785161064
 20
133.0067127949186
 30
0.0
 10
115.0929250914777
 20
133.0621300332379
 30
0.0
 10
114.9866631334109
 20
133.1804227602932
 30
0.0
 10
114.9444309668488
 20
133.2422178757021
 30
0.0
 10
114.8333602715316
 20
133.433638502217
 30
0.0
 10
114.7804234951048
 20
133.5693851671025
 30
0.0
 10
114.736624396736
 20
133.7121747009163
 30
0.0
  0
SPLINE
  5
1EB
330
1F
100
AcDbEntity
  8
0
  6
Continuous
 62
     7
370
    15
100
AcDbSpline
210
0.0
220
0.0
230
1.0
 70
     8
 71
     3
 72
    12
 73
     8
 74
     0
 42
0.00000001
 43
0.00000001
 12
1.0
 22
0.0
 32
0.0
 13
1.0
 23
0.0
 33
0.0
 40
0.0
 40
0.0
 40
0.0
 40
0.0
 40
0.4999999999999991
 40
0.4999999999999991
 40
0.7499999999999996
 40
0.7499999999999996
 40
1.0
 40
1.0
 40
1.0
 40
1.0
 10
114.736624396736
 20
142.6948921352398
 30
0.0
 10
114.7803709375726
 20
142.9340660622864
 30
0.0
 10
114.8332552928041
 20
143.1715089172023
 30
0.0
 10
114.9448223801403
 20
143.5203469536179
 30
0.0
 10
114.9874059766832
 20
143.6352558612284
 30
0.0
 10
115.092322703765
 20
143.8551383061385
 30
0.0
 10
115.1538563116098
 20
143.9634992271529
 30
0.0
 10
115.241432453836
 20
144.050504814752
 30
0.0
  0
SPLINE
  5
1EC
330
1F
100
AcDbEntity
  8
0
  6
Continuous
 62
     7
370
    15
100
AcDbSpline
210
0.0
220
0.0
230
1.0
 70
     8
 71
     3
 72
    12
 73
     8
 74
     0
 42
0.00000001
 43
0.00000001
 12
1.0
 22
0.0
 32
0.0
 13
1.0
 23
0.0
 33
0.0
 40
0.0
 40
0.0
 40
0.0
 40
0.0
 40
0.4999999999999998
 40
0.4999999999999998
 40
0.7499999999999997
 40
0.7499999999999997
 40
1.0
 40
1.0
 40
1.0
 40
1.0
 10
115.2414324538392
 20
144.0505048147521
 30
0.0
 10
115.2978689547464
 20
144.106573634394
 30
0.0
 10
115.3669535854351
 20
144.1536863131483
 30
0.0
 10
115.4857558571531
 20
144.1650067596441
 30
0.0
 10
115.5259411326232
 20
144.1580058691526
 30
0.0
 10
115.599322180027
 20
144.1277945724938
 30
0.0
 10
115.6327317437696
 20
144.1052157621122
 30
0.0
 10
115.6629678514261
 20
144.0791284407581
 30
0.0
  0
SPLINE
  5
1ED
330
1F
100
AcDbEntity
  8
0
  6
Continuous
 62
     7
370
    15
100
AcDbSpline
210
0.0
220
0.0
230
1.0
 70
     8
 71
     3
 72
    16
 73
    12
 74
     0
 42
0.00000001
 43
0.00000001
 12
1.0
 22
0.0
 32
0.0
 13
1.0
 23
0.0
 33
0.0
 40
0.0
 40
0.0
 40
0.0
 40
0.0
 40
0.0624999999999978
 40
0.0624999999999978
 40
0.1249999999999956
 40
0.1249999999999956
 40
0.249999999999998
 40
0.249999999999998
 40
0.4999999999999998
 40
0.4999999999999998
 40
1.0
 40
1.0
 40
1.0
 40
1.0
 10
115.6629678513889
 20
144.0791284407012
 30
0.0
 10
115.6745482589768
 20
144.0691370152913
 30
0.0
 10
115.6878577857381
 20
144.0608796089097
 30
0.0
 10
115.7171592158242
 20
144.0551303240975
 30
0.0
 10
115.7319733157085
 20
144.0587406228056
 30
0.0
 10
115.7678017174114
 20
144.0816610820883
 30
0.0
 10
115.7819213417744
 20
144.1074565903338
 30
0.0
 10
115.8164254858629
 20
144.1856116147528
 30
0.0
 10
115.8275300365675
 20
144.2417544574888
 30
0.0
 10
115.8537062137837
 20
144.4126605130226
 30
0.0
 10
115.8579447402957
 20
144.5298756056014
 30
0.0
 10
115.8579447402957
 20
144.6474402048231
 30
0.0
  0
LINE
  5
1EE
330
1F
100
AcDbEntity
  8
0
  6
Continuous
 62
     7
370
    15
100
AcDbLine
 10
115.8579447403
 20
170.6935130396
 30
0.0
 11
115.8579447403
 21
144.6474402048
 31
0.0
  0
SPLINE
  5
1EF
330
1F
100
AcDbEntity
  8
0
  6
Continuous
 62
     7
370
    15
100
AcDbSpline
210
0.0
220
0.0
230
1.0
 70
     8
 71
     3
 72
    16
 73
    12
 74
     0
 42
0.00000001
 43
0.00000001
 12
1.0
 22
0.0
 32
0.0
 13
1.0
 23
0.0
 33
0.0
 40
0.0
 40
0.0
 40
0.0
 40
0.0
 40
0.4999999999999986
 40
0.4999999999999986
 40
0.7500000000000012
 40
0.7500000000000012
 40
0.875
 40
0.875
 40
0.9375
 40
0.9375
 40
1.0
 40
1.0
 40
1.0
 40
1.0
 10
115.8579447402957
 20
170.6935130396003
 30
0.0
 10
115.8579447402957
 20
170.7307868805105
 30
0.0
 10
115.8537984652178
 20
170.7650829725292
 30
0.0
 10
115.8278328698243
 20
170.8071811616655
 30
0.0
 10
115.8163719644469
 20
170.8200948032302
 30
0.0
 10
115.7820602266725
 20
170.8318066539697
 30
0.0
 10
115.7680354907429
 20
170.8348200858259
 30
0.0
 10
115.7320125277091
 20
170.8315226230501
 30
0.0
 10
115.7172580186194
 20
170.8287011380622
 30
0.0
 10
115.6879058574725
 20
170.8200193970708
 30
0.0
 10
115.6745659829684
 20
170.8147300794637
 30
0.0
 10
115.66296785142
 20
170.8094663497381
 30
0.0
  0
SPLINE
  5
1F0
330
1F
100
AcDbEntity
  8
0
  6
Continuous
 62
     7
370
    15
100
AcDbSpline
210
0.0
220
0.0
230
1.0
 70
     8
 71
     3
 72
    12
 73
     8
 74
     0
 42
0.00000001
 43
0.00000001
 12
1.0
 22
0.0
 32
0.0
 13
1.0
 23
0.0
 33
0.0
 40
0.0
 40
0.0
 40
0.0
 40
0.0
 40
0.2500000000000001
 40
0.2500000000000001
 40
0.5000000000000001
 40
0.5000000000000001
 40
1.0
 40
1.0
 40
1.0
 40
1.0
 10
115.6629678514271
 20
170.8094663497331
 30
0.0
 10
115.6327694099865
 20
170.7957610013137
 30
0.0
 10
115.5994020546505
 20
170.7837133958633
 30
0.0
 10
115.5262467788206
 20
170.7669534076337
 30
0.0
 10
115.4859940797967
 20
170.7625445180927
 30
0.0
 10
115.3682653365218
 20
170.7654742831903
 30
0.0
 10
115.2978068884629
 20
170.787841043446
 30
0.0
 10
115.2414324538446
 20
170.8146180514517
 30
0.0
  0
SPLINE
  5
1F1
330
1F
100
AcDbEntity
  8
0
  6
Continuous
 62
     7
370
    15
100
AcDbSpline
210
0.0
220
0.0
230
1.0
 70
     8
 71
     3
 72
    12
 73
     8
 74
     0
 42
0.00000001
 43
0.00000001
 12
1.0
 22
0.0
 32
0.0
 13
1.0
 23
0.0
 33
0.0
 40
0.0
 40
0.0
 40
0.0
 40
0.0
 40
0.4999999999999978
 40
0.4999999999999978
 40
0.7499999999999989
 40
0.7499999999999989
 40
1.0
 40
1.0
 40
1.0
 40
1.0
 10
114.736624396736
 20
171.4190609998675
 30
0.0
 10
114.7803747486205
 20
171.3224968521091
 30
0.0
 10
114.833264899745
 20
171.2208725889234
 30
0.0
 10
114.9448764428867
 20
171.0641181247403
 30
0.0
 10
114.9874357867902
 20
171.0112515550668
 30
0.0
 10
115.0924130221276
 20
170.9080954407524
 30
0.0
 10
115.1539802652222
 20
170.8561565248875
 30
0.0
 10
115.2414324538446
 20
170.8146180514517
 30
0.0
  0
SPLINE
  5
1F2
330
1F
100
AcDbEntity
  8
0
  6
Continuous
 62
     7
370
    15
100
AcDbSpline
210
0.0
220
0.0
230
1.0
 70
     8
 71
     3
 72
    16
 73
    12
 74
     0
 42
0.00000001
 43
0.00000001
 12
1.0
 22
0.0
 32
0.0
 13
1.0
 23
0.0
 33
0.0
 40
0.0
 40
0.0
 40
0.0
 40
0.0
 40
0.2500000000000002
 40
0.2500000000000002
 40
0.3750000000000001
 40
0.3750000000000001
 40
0.5000000000000001
 40
0.5000000000000001
 40
0.75
 40
0.75
 40
1.0
 40
1.0
 40
1.0
 40
1.0
 10
114.736624396736
 20
133.7121747009163
 30
0.0
 10
114.5753919192516
 20
134.2378090439292
 30
0.0
 10
114.4549120796119
 20
134.8306405714882
 30
0.0
 10
114.3325315622986
 20
135.8204122626131
 30
0.0
 10
114.3015539019012
 20
136.1672159084373
 30
0.0
 10
114.2599401642732
 20
136.8962045076774
 30
0.0
 10
114.2497042513404
 20
137.2714794597666
 30
0.0
 10
114.2495158542843
 20
138.4276795059866
 30
0.0
 10
114.2896605569219
 20
139.2390355187863
 30
0.0
 10
114.4538143118615
 20
140.9448797645742
 30
0.0
 10
114.575365962271
 20
141.8132495572711
 30
0.0
 10
114.736624396736
 20
142.6948921352398
 30
0.0
  0
LINE
  5
1F3
330
1F
100
AcDbEntity
  8
0
  6
Continuous
 62
     7
370
    15
100
AcDbLine
 10
79.5579447403
 20
144.0505048147
 30
0.0
 11
79.5579447403
 21
170.2114917143
 31
0.0
  0
LINE
  5
1F4
330
1F
100
AcDbEntity
  8
0
  6
Continuous
 62
     7
370
    15
100
AcDbLine
 10
113.8579447403
 20
144.0505048147
 30
0.0
 11
113.8579447403
 21
170.9577764519
 31
0.0
  0
LINE
  5
1F5
330
1F
100
AcDbEntity
  8
0
  6
Continuous
 62
     7
370
    15
100
AcDbLine
 10
79.5579447403
 20
133.564131307
 30
0.0
 11
79.5579447403
 21
144.0505048147
 31
0.0
  0
LINE
  5
1F6
330
1F
100
AcDbEntity
  8
0
  6
Continuous
 62
     7
370
    15
100
AcDbLine
 10
113.8579447403
 20
132.8178465694
 30
0.0
 11
113.8579447403
 21
144.0505048147
 31
0.0
  0
LINE
  5
1F7
330
1F
100
AcDbEntity
  8
0
  6
Continuous
 62
     7
370
    15
100
AcDbLine
 10
78.0579447403
 20
144.0505048147
 30
0.0
 11
78.0579447403
 21
169.4614917143
 31
0.0
  0
LINE
  5
1F8
330
1F
100
AcDbEntity
  8
0
  6
Continuous
 62
     7
370
    15
100
AcDbLine
 10
78.0579447403
 20
134.314131307
 30
0.0
 11
78.0579447403
 21
144.0505048147
 31
0.0
  0
LINE
  5
1F9
330
1F
100
AcDbEntity
  8
0
  6
Continuous
 62
     7
370
    15
100
AcDbLine
 10
113.8579447403
 20
128.6552771608
 30
0.0
 11
113.8579447403
 21
132.8178465694
 31
0.0
  0
SPLINE
  5
1FA
330
1F
100
AcDbEntity
  8
0
  6
Continuous
 62
     7
370
    15
100
AcDbSpline
210
0.0
220
0.0
230
1.0
 70
     8
 71
     3
 72
     8
 73
     4
 74
     0
 42
0.00000001
 43
0.00000001
 12
1.0
 22
0.0
 32
0.0
 13
1.0
 23
0.0
 33
0.0
 40
0.0000249638557296
 40
0.0000249638557296
 40
0.0000249638557296
 40
0.0000249638557296
 40
0.0049776420541173
 40
0.0049776420541173
 40
0.0049776420541173
 40
0.0049776420541173
 10
79.55794474029567
 20
129.778386332139
 30
0.0
 10
81.20792097480522
 20
129.742037119201
 30
0.0
 10
82.85792229455028
 20
129.7056125330689
 30
0.0
 10
84.5079447402957
 20
129.6691126548581
 30
0.0
  0
LINE
  5
1FB
330
1F
100
AcDbEntity
  8
0
  6
Continuous
 62
     7
370
    15
100
AcDbLine
 10
79.5579447403
 20
129.7783863321
 30
0.0
 11
79.5579447403
 21
133.564131307
 31
0.0
  0
SPLINE
  5
1FC
330
1F
100
AcDbEntity
  8
0
  6
Continuous
 62
     7
370
    15
100
AcDbSpline
210
0.0
220
0.0
230
1.0
 70
     8
 71
     3
 72
    12
 73
     8
 74
     0
 42
0.00000001
 43
0.00000001
 12
1.0
 22
0.0
 32
0.0
 13
1.0
 23
0.0
 33
0.0
 40
0.0
 40
0.0
 40
0.0
 40
0.0
 40
0.3217007750382301
 40
0.6482385293902523
 40
0.7953300047197329
 40
0.9461094724574252
 40
1.0
 40
1.0
 40
1.0
 40
1.0
 10
84.5079447402957
 20
129.669112654858
 30
0.0
 10
84.80663709388672
 20
129.6128341892402
 30
0.0
 10
85.40851283387819
 20
129.4994310748583
 30
0.0
 10
86.02241773887742
 20
129.4044315877095
 30
0.0
 10
86.33065330254105
 20
129.3593468696313
 30
0.0
 10
86.4432033972493
 20
129.3435678288637
 30
0.0
 10
86.42792051703555
 20
129.3457156352307
 30
0.0
 10
86.42389646614347
 20
129.3462811622783
 30
0.0
  0
SPLINE
  5
1FD
330
1F
100
AcDbEntity
  8
0
  6
Continuous
 62
     7
370
    15
100
AcDbSpline
210
0.0
220
0.0
230
1.0
 70
     8
 71
     3
 72
    27
 73
    23
 74
     0
 42
0.00000001
 43
0.00000001
 12
1.0
 22
0.0
 32
0.0
 13
1.0
 23
0.0
 33
0.0
 40
0.0
 40
0.0
 40
0.0
 40
0.0
 40
0.0322524045785731
 40
0.081643099925108
 40
0.1290586612648776
 40
0.1777432041577058
 40
0.2272475226158286
 40
0.2780116234121242
 40
0.3309569209659113
 40
0.3852748754781255
 40
0.4412837295085791
 40
0.4988337213646158
 40
0.5562818536597499
 40
0.6154087749742447
 40
0.6725513772536975
 40
0.7314550518215082
 40
0.7867561477595317
 40
0.8438515416930674
 40
0.8960134612747852
 40
0.9498846523531252
 40
0.9989419924478999
 40
0.9999999999999999
 40
0.9999999999999999
 40
0.9999999999999999
 40
0.9999999999999999
 10
104.9962703996221
 20
128.8793452388208
 30
0.0
 10
104.9962281494507
 20
128.8793535771941
 30
0.0
 10
104.9961211982012
 20
128.8793746847876
 30
0.0
 10
104.8725179587953
 20
128.897566200182
 30
0.0
 10
104.6465967851944
 20
128.9296627814026
 30
0.0
 10
104.3233838178399
 20
128.9731924215925
 30
0.0
 10
103.9081531340391
 20
129.0248486859994
 30
0.0
 10
103.4041393988708
 20
129.0811157999881
 30
0.0
 10
102.8177517247883
 20
129.1375706011677
 30
0.0
 10
102.1575474928567
 20
129.1893820698536
 30
0.0
 10
101.4394076018419
 20
129.2315007993952
 30
0.0
 10
100.6862916905252
 20
129.2594986571954
 30
0.0
 10
99.9183602078536
 20
129.2709989668159
 30
0.0
 10
99.17245020255675
 20
129.2655393718398
 30
0.0
 10
98.46337615808719
 20
129.2452773561444
 30
0.0
 10
97.83294583915352
 20
129.2148688930356
 30
0.0
 10
97.28639377328093
 20
129.1792139056524
 30
0.0
 10
96.860331337139
 20
129.1454137193641
 30
0.0
 10
96.54571203737868
 20
129.1171387183526
 30
0.0
 10
96.37659499896914
 20
129.1007791701987
 30
0.0
 10
96.30798218400436
 20
129.0939572745116
 30
0.0
 10
96.3268633229124
 20
129.095817824138
 30
0.0
 10
96.32726193109325
 20
129.0958571030346
 30
0.0
  0
SPLINE
  5
1FE
330
1F
100
AcDbEntity
  8
0
  6
Continuous
 62
     7
370
    15
100
AcDbSpline
210
0.0
220
0.0
230
1.0
 70
     8
 71
     3
 72
     8
 73
     4
 74
     0
 42
0.00000001
 43
0.00000001
 12
1.0
 22
0.0
 32
0.0
 13
1.0
 23
0.0
 33
0.0
 40
0.0
 40
0.0
 40
0.0
 40
0.0
 40
1.0
 40
1.0
 40
1.0
 40
1.0
 10
78.0579447402935
 20
130.5268966316969
 30
0.0
 10
78.52470535167127
 20
130.2973671393128
 30
0.0
 10
79.03045289845137
 20
130.0454363642214
 30
0.0
 10
79.55794474029574
 20
129.778386332139
 30
0.0
  0
LINE
  5
1FF
330
1F
100
AcDbEntity
  8
0
  6
Continuous
 62
     7
370
    15
100
AcDbLine
 10
78.0579447403
 20
130.5268966317
 30
0.0
 11
78.0579447403
 21
134.314131307
 31
0.0
  0
LINE
  5
200
330
1F
100
AcDbEntity
  8
0
  6
Continuous
 62
     7
370
    15
100
AcDbLine
 10
113.8579447403
 20
172.6954747299
 30
0.0
 11
113.8579447403
 21
170.9577764519
 31
0.0
  0
LINE
  5
201
330
1F
100
AcDbEntity
  8
0
  6
Continuous
 62
     7
370
    15
100
AcDbLine
 10
79.5579447403
 20
171.8337393416
 30
0.0
 11
79.5579447403
 21
170.2114917143
 31
0.0
  0
SPLINE
  5
202
330
1F
100
AcDbEntity
  8
0
  6
Continuous
 62
     7
370
    15
100
AcDbSpline
210
0.0
220
0.0
230
1.0
 70
     8
 71
     3
 72
    11
 73
     7
 74
     0
 42
0.00000001
 43
0.00000001
 12
1.0
 22
0.0
 32
0.0
 13
1.0
 23
0.0
 33
0.0
 40
0.0
 40
0.0
 40
0.0
 40
0.0
 40
0.1208994205875785
 40
0.5020312010339276
 40
0.7494858902525195
 40
1.0
 40
1.0
 40
1.0
 40
1.0
 10
114.2645356945895
 20
172.4717004552359
 30
0.0
 10
114.2603703311657
 20
172.4810809611608
 30
0.0
 10
114.2430737850595
 20
172.5200332293598
 30
0.0
 10
114.3416820821926
 20
172.297944380871
 30
0.0
 10
114.5128026326421
 20
171.9146769443245
 30
0.0
 10
114.6617121852195
 20
171.5849415906691
 30
0.0
 10
114.7366243967361
 20
171.4190609998675
 30
0.0
  0
LINE
  5
203
330
1F
100
AcDbEntity
  8
0
  6
Continuous
 62
     7
370
    15
100
AcDbLine
 10
78.0579447403
 20
170.9677139378
 30
0.0
 11
78.0579447403
 21
169.4614917143
 31
0.0
  0
LINE
  5
204
330
1F
100
AcDbEntity
  8
0
  6
Continuous
 62
     7
370
    15
100
AcDbLine
 10
231.8276839096
 20
142.4223215106
 30
0.0
 11
243.2380516456
 21
140.4103658189
 31
0.0
  0
LINE
  5
205
330
1F
100
AcDbEntity
  8
0
  6
Continuous
 62
     7
370
    15
100
AcDbLine
 10
232.3277906612
 20
145.2585678393
 30
0.0
 11
243.7381583973
 21
143.2466121476
 31
0.0
  0
LINE
  5
206
330
1F
100
AcDbEntity
  8
0
  6
Continuous
 62
     7
370
    15
100
AcDbLine
 10
243.049537108
 20
140.1389780346
 30
0.0
 11
231.639169372
 21
142.1509337263
 31
0.0
  0
LINE
  5
207
330
1F
100
AcDbEntity
  8
0
  6
Continuous
 62
     7
370
    15
100
AcDbLine
 10
230.918216681
 20
142.5826851211
 30
0.0
 11
231.8276839096
 21
142.4223215106
 31
0.0
  0
LINE
  5
208
330
1F
100
AcDbEntity
  8
0
  6
Continuous
 62
     7
370
    15
100
AcDbLine
 10
231.639169372
 20
142.1509337263
 30
0.0
 11
231.002542312
 21
142.2631882536
 31
0.0
  0
LINE
  5
209
330
1F
100
AcDbEntity
  8
0
  6
Continuous
 62
     7
370
    15
100
AcDbLine
 10
230.5198386889
 20
142.6529299096
 30
0.0
 11
230.918216681
 21
142.5826851211
 31
0.0
  0
LINE
  5
20A
330
1F
100
AcDbEntity
  8
0
  6
Continuous
 62
     7
370
    15
100
AcDbLine
 10
231.0199454405
 20
145.4891762383
 30
0.0
 11
231.4183234327
 21
145.4189314497
 31
0.0
  0
LINE
  5
20B
330
1F
100
AcDbEntity
  8
0
  6
Continuous
 62
     7
370
    15
100
AcDbLine
 10
231.002542312
 20
142.2631882536
 30
0.0
 11
230.787661088
 21
142.301077611
 31
0.0
  0
LINE
  5
20C
330
1F
100
AcDbEntity
  8
0
  6
Continuous
 62
     7
370
    15
100
AcDbLine
 10
243.2380516456
 20
140.4103658189
 30
0.0
 11
243.7681257843
 21
140.3168994465
 31
0.0
  0
LINE
  5
20D
330
1F
100
AcDbEntity
  8
0
  6
Continuous
 62
     7
370
    15
100
AcDbLine
 10
243.4205890051
 20
140.0735515739
 30
0.0
 11
243.049537108
 21
140.1389780346
 31
0.0
  0
LINE
  5
20E
330
1F
100
AcDbEntity
  8
0
  6
Continuous
 62
     7
370
    15
100
AcDbLine
 10
220.1037943838
 20
153.8619471806
 30
0.0
 11
232.7938295295
 21
151.6243515982
 31
0.0
  0
LINE
  5
20F
330
1F
100
AcDbEntity
  8
0
  6
Continuous
 62
     7
370
    15
100
AcDbLine
 10
231.0199454405
 20
145.4891762383
 30
0.0
 11
231.6911636013
 21
145.3708223666
 31
0.0
  0
LINE
  5
210
330
1F
100
AcDbEntity
  8
0
  6
Continuous
 62
     7
370
    15
100
AcDbLine
 10
232.7938295295
 20
151.6243515982
 30
0.0
 11
233.1576164209
 21
151.5602061541
 31
0.0
  0
LINE
  5
211
330
1F
100
AcDbEntity
  8
0
  6
Continuous
 62
     7
370
    15
100
AcDbLine
 10
231.6911636013
 20
145.3708223666
 30
0.0
 11
232.0549504927
 21
145.3066769224
 31
0.0
  0
LINE
  5
212
330
1F
100
AcDbEntity
  8
0
  6
Continuous
 62
     7
370
    15
100
AcDbLine
 10
233.1576164209
 20
151.5602061541
 30
0.0
 11
245.8476515666
 21
149.3226105717
 31
0.0
  0
LINE
  5
213
330
1F
100
AcDbEntity
  8
0
  6
Continuous
 62
     7
370
    15
100
AcDbLine
 10
232.0549504927
 20
145.3066769224
 30
0.0
 11
244.7449856384
 21
143.0690813401
 31
0.0
  0
LINE
  5
214
330
1F
100
AcDbEntity
  8
0
  6
Continuous
 62
     7
370
    15
100
AcDbLine
 10
219.8917647283
 20
153.8993337295
 30
0.0
 11
220.1037943838
 21
153.8619471806
 31
0.0
  0
LINE
  5
215
330
1F
100
AcDbEntity
  8
0
  6
Continuous
 62
     7
370
    15
100
AcDbLine
 10
245.8476515666
 20
149.3226105717
 30
0.0
 11
246.0596812221
 21
149.2852240228
 31
0.0
  0
LINE
  5
216
330
1F
100
AcDbEntity
  8
0
  6
Continuous
 62
     7
370
    15
100
AcDbLine
 10
244.7449856384
 20
143.0690813401
 30
0.0
 11
244.9570152939
 21
143.0316947911
 31
0.0
  0
SPLINE
  5
217
330
1F
100
AcDbEntity
  8
0
  6
HIDDEN
 62
     7
370
     0
100
AcDbSpline
210
0.0
220
0.0
230
1.0
 70
     8
 71
     3
 72
    13
 73
     9
 74
     0
 42
0.00000001
 43
0.00000001
 12
1.0
 22
0.0
 32
0.0
 13
1.0
 23
0.0
 33
0.0
 40
0.0
 40
0.0
 40
0.0
 40
0.0
 40
0.0761164884459534
 40
0.297975769298126
 40
0.5199990703375968
 40
0.7424126710791833
 40
0.9648351027984804
 40
1.0
 40
1.0
 40
1.0
 40
1.0
 10
130.0324127166473
 20
117.7769821260196
 30
0.0
 10
130.0394156429969
 20
117.7765430638398
 30
0.0
 10
130.0668302335668
 20
117.7748242524039
 30
0.0
 10
129.8818955208723
 20
117.7864819586132
 30
0.0
 10
129.4968564828314
 20
117.8074264594506
 30
0.0
 10
128.9344994644724
 20
117.8279458534603
 30
0.0
 10
128.4604751282066
 20
117.8393103843215
 30
0.0
 10
128.201339703524
 20
117.8379780663118
 30
0.0
 10
128.165963465848
 20
117.8377961830413
 30
0.0
  0
SPLINE
  5
218
330
1F
100
AcDbEntity
  8
0
  6
HIDDEN
 62
     7
370
     0
100
AcDbSpline
210
0.0
220
0.0
230
1.0
 70
     8
 71
     3
 72
    12
 73
     8
 74
     0
 42
0.00000001
 43
0.00000001
 12
1.0
 22
0.0
 32
0.0
 13
1.0
 23
0.0
 33
0.0
 40
0.0
 40
0.0
 40
0.0
 40
0.0
 40
0.0052223885075467
 40
0.2549596236360393
 40
0.505045018635257
 40
0.7554851589211133
 40
1.0
 40
1.0
 40
1.0
 40
1.0
 10
127.616448152293
 20
117.8356862159201
 30
0.0
 10
127.6117825582242
 20
117.8356692007924
 30
0.0
 10
127.3840059180733
 20
117.8348385137331
 30
0.0
 10
126.9651149176934
 20
117.8205794895573
 30
0.0
 10
126.4591878136295
 20
117.7995754465072
 30
0.0
 10
126.1214153448468
 20
117.7794417146785
 30
0.0
 10
126.0806228066865
 20
117.7768248724935
 30
0.0
 10
126.0604707093019
 20
117.7755321150204
 30
0.0
  0
SPLINE
  5
219
330
1F
100
AcDbEntity
  8
0
  6
HIDDEN
 62
     7
370
     0
100
AcDbSpline
210
0.0
220
0.0
230
1.0
 70
     8
 71
     3
 72
    12
 73
     8
 74
     0
 42
0.00000001
 43
0.00000001
 12
1.0
 22
0.0
 32
0.0
 13
1.0
 23
0.0
 33
0.0
 40
0.0
 40
0.0
 40
0.0
 40
0.0
 40
0.4999999999999953
 40
0.4999999999999953
 40
0.7499999999999977
 40
0.7499999999999977
 40
1.0
 40
1.0
 40
1.0
 40
1.0
 10
126.15268885197
 20
139.3660066246561
 30
0.0
 10
126.1834110938891
 20
139.4785624240653
 30
0.0
 10
126.2262483084243
 20
139.5913202838049
 30
0.0
 10
126.3256753326241
 20
139.7408611696012
 30
0.0
 10
126.3654275274408
 20
139.788153901308
 30
0.0
 10
126.4634689842989
 20
139.8618901946295
 30
0.0
 10
126.5230250398864
 20
139.8873095140052
 30
0.0
 10
126.5857015538622
 20
139.8873095140052
 30
0.0
  0
LINE
  5
21A
330
1F
100
AcDbEntity
  8
0
  6
HIDDEN
 62
     7
370
     0
100
AcDbLine
 10
126.5857015539
 20
139.887309514
 30
0.0
 11
129.5301879267
 21
139.887309514
 31
0.0
  0
SPLINE
  5
21B
330
1F
100
AcDbEntity
  8
0
  6
HIDDEN
 62
     7
370
     0
100
AcDbSpline
210
0.0
220
0.0
230
1.0
 70
     8
 71
     3
 72
    12
 73
     8
 74
     0
 42
0.00000001
 43
0.00000001
 12
1.0
 22
0.0
 32
0.0
 13
1.0
 23
0.0
 33
0.0
 40
0.0
 40
0.0
 40
0.0
 40
0.0
 40
0.2499999999999995
 40
0.2499999999999995
 40
0.499999999999999
 40
0.499999999999999
 40
1.0
 40
1.0
 40
1.0
 40
1.0
 10
129.5301879267293
 20
139.8873095140052
 30
0.0
 10
129.5932679652227
 20
139.8873095140052
 30
0.0
 10
129.6524165874041
 20
139.8619451947903
 30
0.0
 10
129.7508891374731
 20
139.7877803344173
 30
0.0
 10
129.7899257494578
 20
139.7412599938633
 30
0.0
 10
129.8898222162368
 20
139.591117651018
 30
0.0
 10
129.9322430973036
 20
139.4794244440459
 30
0.0
 10
129.9632006286215
 20
139.3660066246561
 30
0.0
  0
ELLIPSE
  5
21C
330
1F
100
AcDbEntity
  8
0
  6
HIDDEN
 62
     7
370
     0
100
AcDbEllipse
 10
113.7107905509
 20
149.2753759453
 30
0.0
 11
-14.75368316065611
 21
31.09325491558113
 31
0.0
210
0.0
220
0.0
230
1.0
 40
0.3419987131
 41
3.300734856217133
 42
4.23149622336078
  0
SPLINE
  5
21D
330
1F
100
AcDbEntity
  8
0
  6
HIDDEN
 62
     7
370
     0
100
AcDbSpline
210
0.0
220
0.0
230
1.0
 70
     8
 71
     3
 72
    12
 73
     8
 74
     0
 42
0.00000001
 43
0.00000001
 12
1.0
 22
0.0
 32
0.0
 13
1.0
 23
0.0
 33
0.0
 40
0.0
 40
0.0
 40
0.0
 40
0.0
 40
0.5000000000000028
 40
0.5000000000000028
 40
0.7500000000000013
 40
0.7500000000000013
 40
1.0
 40
1.0
 40
1.0
 40
1.0
 10
129.9632006286215
 20
119.374633485224
 30
0.0
 10
129.9324783867023
 20
119.337331502271
 30
0.0
 10
129.8896411721673
 20
119.3007196702246
 30
0.0
 10
129.7902141479674
 20
119.2529548869394
 30
0.0
 10
129.7504619531508
 20
119.2379973714571
 30
0.0
 10
129.6524204962926
 20
119.2148074256879
 30
0.0
 10
129.5928644407052
 20
119.2068839864681
 30
0.0
 10
129.5301879267293
 20
119.2068839864681
 30
0.0
  0
LINE
  5
21E
330
1F
100
AcDbEntity
  8
0
  6
HIDDEN
 62
     7
370
     0
100
AcDbLine
 10
129.5301879267
 20
119.2068839865
 30
0.0
 11
126.5857015539
 21
119.2068839865
 31
0.0
  0
SPLINE
  5
21F
330
1F
100
AcDbEntity
  8
0
  6
HIDDEN
 62
     7
370
     0
100
AcDbSpline
210
0.0
220
0.0
230
1.0
 70
     8
 71
     3
 72
    12
 73
     8
 74
     0
 42
0.00000001
 43
0.00000001
 12
1.0
 22
0.0
 32
0.0
 13
1.0
 23
0.0
 33
0.0
 40
0.0
 40
0.0
 40
0.0
 40
0.0
 40
0.2500000000000014
 40
0.2500000000000014
 40
0.5000000000000028
 40
0.5000000000000028
 40
1.0
 40
1.0
 40
1.0
 40
1.0
 10
126.5857015538622
 20
119.2068839864681
 30
0.0
 10
126.5226215153688
 20
119.2068839864681
 30
0.0
 10
126.4634728931875
 20
119.2147899126806
 30
0.0
 10
126.3650003431183
 20
119.2381150741169
 30
0.0
 10
126.3259637311337
 20
119.2528278639486
 30
0.0
 10
126.2260672643546
 20
119.3007836646795
 30
0.0
 10
126.183646383288
 20
119.3370458212595
 30
0.0
 10
126.15268885197
 20
119.374633485224
 30
0.0
  0
ELLIPSE
  5
220
330
1F
100
AcDbEntity
  8
0
  6
HIDDEN
 62
     7
370
     0
100
AcDbEllipse
 10
142.4050989297
 20
149.2753759453
 30
0.0
 11
14.75368316065607
 21
31.09325491558113
 31
0.0
210
0.0
220
0.0
230
1.0
 40
0.3419987131
 41
2.051689083818816
 42
2.982450450962491
  0
SPLINE
  5
221
330
1F
100
AcDbEntity
  8
0
  6
HIDDEN
 62
     7
370
     0
100
AcDbSpline
210
0.0
220
0.0
230
1.0
 70
     8
 71
     3
 72
    12
 73
     8
 74
     0
 42
0.00000001
 43
0.00000001
 12
1.0
 22
0.0
 32
0.0
 13
1.0
 23
0.0
 33
0.0
 40
0.0
 40
0.0
 40
0.0
 40
0.0
 40
0.5000000000000047
 40
0.5000000000000047
 40
0.7500000000000023
 40
0.7500000000000023
 40
1.0
 40
1.0
 40
1.0
 40
1.0
 10
126.15268885197
 20
179.1761184054585
 30
0.0
 10
126.1834110938891
 20
179.2134203884116
 30
0.0
 10
126.2262483084243
 20
179.250032220458
 30
0.0
 10
126.3256753326241
 20
179.2977970037432
 30
0.0
 10
126.3654275274407
 20
179.3127545192255
 30
0.0
 10
126.4634689842989
 20
179.3359444649947
 30
0.0
 10
126.5230250398863
 20
179.3438679042145
 30
0.0
 10
126.5857015538622
 20
179.3438679042145
 30
0.0
  0
LINE
  5
222
330
1F
100
AcDbEntity
  8
0
  6
HIDDEN
 62
     7
370
     0
100
AcDbLine
 10
126.5857015539
 20
179.3438679042
 30
0.0
 11
129.5301879267
 21
179.3438679042
 31
0.0
  0
SPLINE
  5
223
330
1F
100
AcDbEntity
  8
0
  6
HIDDEN
 62
     7
370
     0
100
AcDbSpline
210
0.0
220
0.0
230
1.0
 70
     8
 71
     3
 72
    12
 73
     8
 74
     0
 42
0.00000001
 43
0.00000001
 12
1.0
 22
0.0
 32
0.0
 13
1.0
 23
0.0
 33
0.0
 40
0.0
 40
0.0
 40
0.0
 40
0.0
 40
0.2500000000000009
 40
0.2500000000000009
 40
0.5000000000000018
 40
0.5000000000000018
 40
1.0
 40
1.0
 40
1.0
 40
1.0
 10
129.5301879267293
 20
179.3438679042145
 30
0.0
 10
129.5932679652227
 20
179.3438679042145
 30
0.0
 10
129.652416587404
 20
179.3359619780019
 30
0.0
 10
129.7508891374731
 20
179.3126368165657
 30
0.0
 10
129.7899257494578
 20
179.297924026734
 30
0.0
 10
129.8898222162368
 20
179.2499682260031
 30
0.0
 10
129.9322430973036
 20
179.2137060694231
 30
0.0
 10
129.9632006286215
 20
179.1761184054585
 30
0.0
  0
ELLIPSE
  5
224
330
1F
100
AcDbEntity
  8
0
  6
HIDDEN
 62
     7
370
     0
100
AcDbEllipse
 10
113.7107905509
 20
149.2753759453
 30
0.0
 11
14.75368316065628
 21
31.09325491558116
 31
0.0
210
0.0
220
0.0
230
1.0
 40
0.3419987131
 41
5.193281737408643
 42
6.124043104552345
  0
SPLINE
  5
225
330
1F
100
AcDbEntity
  8
0
  6
HIDDEN
 62
     7
370
     0
100
AcDbSpline
210
0.0
220
0.0
230
1.0
 70
     8
 71
     3
 72
    12
 73
     8
 74
     0
 42
0.00000001
 43
0.00000001
 12
1.0
 22
0.0
 32
0.0
 13
1.0
 23
0.0
 33
0.0
 40
0.0
 40
0.0
 40
0.0
 40
0.0
 40
0.5000000000000018
 40
0.5000000000000018
 40
0.7500000000000009
 40
0.7500000000000009
 40
1.0
 40
1.0
 40
1.0
 40
1.0
 10
129.9632006286215
 20
159.1847452660269
 30
0.0
 10
129.9324783867024
 20
159.0721894666178
 30
0.0
 10
129.8896411721673
 20
158.9594316068782
 30
0.0
 10
129.7902141479674
 20
158.8098907210818
 30
0.0
 10
129.7504619531508
 20
158.762597989375
 30
0.0
 10
129.6524204962926
 20
158.6888616960536
 30
0.0
 10
129.5928644407052
 20
158.6634423766778
 30
0.0
 10
129.5301879267293
 20
158.6634423766778
 30
0.0
  0
LINE
  5
226
330
1F
100
AcDbEntity
  8
0
  6
HIDDEN
 62
     7
370
     0
100
AcDbLine
 10
129.5301879267
 20
158.6634423767
 30
0.0
 11
126.5857015539
 21
158.6634423767
 31
0.0
  0
SPLINE
  5
227
330
1F
100
AcDbEntity
  8
0
  6
HIDDEN
 62
     7
370
     0
100
AcDbSpline
210
0.0
220
0.0
230
1.0
 70
     8
 71
     3
 72
    12
 73
     8
 74
     0
 42
0.00000001
 43
0.00000001
 12
1.0
 22
0.0
 32
0.0
 13
1.0
 23
0.0
 33
0.0
 40
0.0
 40
0.0
 40
0.0
 40
0.0
 40
0.2500000000000009
 40
0.2500000000000009
 40
0.5000000000000018
 40
0.5000000000000018
 40
1.0
 40
1.0
 40
1.0
 40
1.0
 10
126.5857015538622
 20
158.6634423766778
 30
0.0
 10
126.5226215153689
 20
158.6634423766778
 30
0.0
 10
126.4634728931875
 20
158.6888066958928
 30
0.0
 10
126.3650003431184
 20
158.7629715562657
 30
0.0
 10
126.3259637311337
 20
158.8094918968198
 30
0.0
 10
126.2260672643546
 20
158.959634239665
 30
0.0
 10
126.183646383288
 20
159.0713274466372
 30
0.0
 10
126.15268885197
 20
159.1847452660269
 30
0.0
  0
ELLIPSE
  5
228
330
1F
100
AcDbEntity
  8
0
  6
HIDDEN
 62
     7
370
     0
100
AcDbEllipse
 10
142.4050989297
 20
149.2753759453
 30
0.0
 11
-14.75368316065632
 21
31.09325491558116
 31
0.0
210
0.0
220
0.0
230
1.0
 40
0.3419987131
 41
0.1591422026272798
 42
1.089903569770956
  0
LINE
  5
229
330
1F
100
AcDbEntity
  8
0
  6
HIDDEN
 62
     7
370
     0
100
AcDbLine
 10
191.8037606166
 20
180.7753759453
 30
0.0
 11
195.7451223255
 21
166.0660137966
 31
0.0
  0
LINE
  5
22A
330
1F
100
AcDbEntity
  8
0
  6
HIDDEN
 62
     7
370
     0
100
AcDbLine
 10
238.6776365193
 20
117.7765943219
 30
0.0
 11
238.6774216867
 21
117.7753759453
 31
0.0
  0
ELLIPSE
  5
22B
330
1F
100
AcDbEntity
  8
0
  6
HIDDEN
 62
     7
370
     0
100
AcDbEllipse
 10
244.772138222
 20
149.2753759453
 30
0.0
 11
61.66454471312073
 21
3.819263116778871
 31
0.0
210
0.0
220
0.0
230
1.0
 40
0.5070597189
 41
2.457862224163379
 42
4.582048156619005
  0
SPLINE
  5
22C
330
1F
100
AcDbEntity
  8
0
  6
HIDDEN
 62
     7
370
     0
100
AcDbSpline
210
0.0
220
0.0
230
1.0
 70
     8
 71
     3
 72
    13
 73
     9
 74
     0
 42
0.00000001
 43
0.00000001
 12
1.0
 22
0.0
 32
0.0
 13
1.0
 23
0.0
 33
0.0
 40
0.0
 40
0.0
 40
0.0
 40
0.0
 40
0.0753554907791472
 40
0.2968077583434718
 40
0.518622057333108
 40
0.7413136548691409
 40
0.9640361091348932
 40
1.0
 40
1.0
 40
1.0
 40
1.0
 10
180.0960144200002
 20
180.7717837186162
 30
0.0
 10
180.0855232856965
 20
180.7727703886595
 30
0.0
 10
180.0442011468187
 20
180.7766566525632
 30
0.0
 10
180.3197207561981
 20
180.7506000585086
 30
0.0
 10
180.8942038977117
 20
180.7036188709629
 30
0.0
 10
181.7357074763352
 20
180.6572845084256
 30
0.0
 10
182.4476612689642
 20
180.6314716294352
 30
0.0
 10
182.8379160545303
 20
180.634403289009
 30
0.0
 10
182.8921712588805
 20
180.6348108632276
 30
0.0
  0
SPLINE
  5
22D
330
1F
100
AcDbEntity
  8
0
  6
HIDDEN
 62
     7
370
     0
100
AcDbSpline
210
0.0
220
0.0
230
1.0
 70
     8
 71
     3
 72
    12
 73
     8
 74
     0
 42
0.00000001
 43
0.00000001
 12
1.0
 22
0.0
 32
0.0
 13
1.0
 23
0.0
 33
0.0
 40
0.0
 40
0.0
 40
0.0
 40
0.0
 40
0.0023187507144173
 40
0.2515426697206134
 40
0.5015431503304592
 40
0.7523509855933208
 40
1.0
 40
1.0
 40
1.0
 40
1.0
 10
183.7233656287958
 20
180.6394006021941
 30
0.0
 10
183.7264715190851
 20
180.6394173470715
 30
0.0
 10
184.0634046487978
 20
180.6412338645348
 30
0.0
 10
184.6876679349285
 20
180.6731318171803
 30
0.0
 10
185.4484394807622
 20
180.7202893693792
 30
0.0
 10
185.960250341705
 20
180.7659876837928
 30
0.0
 10
186.024294031318
 20
180.7721463790299
 30
0.0
 10
186.0561129472827
 20
180.7752062122061
 30
0.0
  0
LINE
  5
22E
330
1F
100
AcDbEntity
  8
0
  6
HIDDEN
 62
     7
370
     0
100
AcDbLine
 10
116.0579447403
 20
180.2753759453
 30
0.0
 11
116.0579447403
 21
118.2753759453
 31
0.0
  0
LINE
  5
22F
330
1F
100
AcDbEntity
  8
0
  6
HIDDEN
 62
     7
370
     0
100
AcDbLine
 10
230.787661088
 20
142.301077611
 30
0.0
 11
242.6336582939
 21
140.2123086902
 31
0.0
  0
LINE
  5
230
330
1F
100
AcDbEntity
  8
0
  6
HIDDEN
 62
     7
370
     0
100
AcDbLine
 10
116.0579447403
 20
125.0497940817
 30
0.0
 11
116.0579447403
 21
173.500957809
 31
0.0
  0
SPLINE
  5
231
330
1F
100
AcDbEntity
  8
0
  6
HIDDEN
 62
     7
370
     0
100
AcDbSpline
210
0.0
220
0.0
230
1.0
 70
     8
 71
     3
 72
    12
 73
     8
 74
     0
 42
0.00000001
 43
0.00000001
 12
1.0
 22
0.0
 32
0.0
 13
1.0
 23
0.0
 33
0.0
 40
0.0
 40
0.0
 40
0.0
 40
0.0
 40
0.5000000000000001
 40
0.5000000000000001
 40
0.7500000000000002
 40
0.7500000000000002
 40
1.0
 40
1.0
 40
1.0
 40
1.0
 10
115.2414324538403
 20
132.9610049698293
 30
0.0
 10
115.297838632521
 20
132.9317583608243
 30
0.0
 10
115.3680015339931
 20
132.906671484891
 30
0.0
 10
115.486012247385
 20
132.8986481140116
 30
0.0
 10
115.5262180309816
 20
132.9012376349922
 30
0.0
 10
115.5999387277167
 20
132.914802997997
 30
0.0
 10
115.6327994495042
 20
132.9251958549925
 30
0.0
 10
115.6629678514342
 20
132.9375330455244
 30
0.0
  0
SPLINE
  5
232
330
1F
100
AcDbEntity
  8
0
  6
HIDDEN
 62
     7
370
     0
100
AcDbSpline
210
0.0
220
0.0
230
1.0
 70
     8
 71
     3
 72
    16
 73
    12
 74
     0
 42
0.00000001
 43
0.00000001
 12
1.0
 22
0.0
 32
0.0
 13
1.0
 23
0.0
 33
0.0
 40
0.0
 40
0.0
 40
0.0
 40
0.0
 40
0.062500000000002
 40
0.062500000000002
 40
0.1250000000000039
 40
0.1250000000000039
 40
0.2500000000000079
 40
0.2500000000000079
 40
0.5000000000000052
 40
0.5000000000000052
 40
1.0
 40
1.0
 40
1.0
 40
1.0
 10
115.6629678513891
 20
132.9375330455805
 30
0.0
 10
115.6745807512284
 20
132.9422820726721
 30
0.0
 10
115.6879319356609
 20
132.9452647456751
 30
0.0
 10
115.7173317752801
 20
132.9422790758468
 30
0.0
 10
115.7321724998354
 20
132.9357717828869
 30
0.0
 10
115.768005707804
 20
132.9094190333416
 30
0.0
 10
115.7821189156256
 20
132.8865250526456
 30
0.0
 10
115.8166102868445
 20
132.8199058573064
 30
0.0
 10
115.8276943579549
 20
132.7762366226123
 30
0.0
 10
115.8538171757509
 20
132.646999974232
 30
0.0
 10
115.8579447402958
 20
132.5646497948019
 30
0.0
 10
115.8579447402957
 20
132.4851745916
 30
0.0
  0
LINE
  5
233
330
1F
100
AcDbEntity
  8
0
  6
HIDDEN
 62
     7
370
     0
100
AcDbLine
 10
115.8579447403
 20
126.7355556665
 30
0.0
 11
115.8579447403
 21
132.4851745916
 31
0.0
  0
SPLINE
  5
234
330
1F
100
AcDbEntity
  8
0
  6
HIDDEN
 62
     7
370
     0
100
AcDbSpline
210
0.0
220
0.0
230
1.0
 70
     8
 71
     3
 72
    12
 73
     8
 74
     0
 42
0.00000001
 43
0.00000001
 12
1.0
 22
0.0
 32
0.0
 13
1.0
 23
0.0
 33
0.0
 40
0.0
 40
0.0
 40
0.0
 40
0.0
 40
0.2499999999999992
 40
0.2499999999999992
 40
0.4999999999999983
 40
0.4999999999999983
 40
1.0
 40
1.0
 40
1.0
 40
1.0
 10
115.2414324538445
 20
170.8146180514517
 30
0.0
 10
115.1529390462766
 20
170.8566510882163
 30
0.0
 10
115.0928810055107
 20
170.9076404483788
 30
0.0
 10
114.9870327325281
 20
171.0116427476825
 30
0.0
 10
114.9444992112507
 20
171.0646178775252
 30
0.0
 10
114.833347904427
 20
171.2208163963396
 30
0.0
 10
114.7804170473792
 20
171.3224034918636
 30
0.0
 10
114.736624396736
 20
171.4190609998675
 30
0.0
  0
SPLINE
  5
235
330
1F
100
AcDbEntity
  8
0
  6
HIDDEN
 62
     7
370
     0
100
AcDbSpline
210
0.0
220
0.0
230
1.0
 70
     8
 71
     3
 72
    12
 73
     8
 74
     0
 42
0.00000001
 43
0.00000001
 12
1.0
 22
0.0
 32
0.0
 13
1.0
 23
0.0
 33
0.0
 40
0.0
 40
0.0
 40
0.0
 40
0.0
 40
0.5000000000000002
 40
0.5000000000000002
 40
0.7500000000000001
 40
0.7500000000000001
 40
1.0
 40
1.0
 40
1.0
 40
1.0
 10
115.2414324538445
 20
170.8146180514517
 30
0.0
 10
115.2977410021401
 20
170.7878723384577
 30
0.0
 10
115.3680156628582
 20
170.765487952994
 30
0.0
 10
115.4860535771818
 20
170.7625393123051
 30
0.0
 10
115.5262298180357
 20
170.7669183035545
 30
0.0
 10
115.6001869127137
 20
170.7839247522132
 30
0.0
 10
115.6328033004251
 20
170.7957763822575
 30
0.0
 10
115.6629678514208
 20
170.8094663497384
 30
0.0
  0
SPLINE
  5
236
330
1F
100
AcDbEntity
  8
0
  6
HIDDEN
 62
     7
370
     0
100
AcDbSpline
210
0.0
220
0.0
230
1.0
 70
     8
 71
     3
 72
    16
 73
    12
 74
     0
 42
0.00000001
 43
0.00000001
 12
1.0
 22
0.0
 32
0.0
 13
1.0
 23
0.0
 33
0.0
 40
0.0
 40
0.0
 40
0.0
 40
0.0
 40
0.0624999999999993
 40
0.0624999999999993
 40
0.1249999999999986
 40
0.1249999999999986
 40
0.2499999999999991
 40
0.2499999999999991
 40
0.4999999999999983
 40
0.4999999999999983
 40
1.0
 40
1.0
 40
1.0
 40
1.0
 10
115.6629678513891
 20
170.8094663497421
 30
0.0
 10
115.6745807512284
 20
170.8147367819533
 30
0.0
 10
115.6879319356609
 20
170.8200302191844
 30
0.0
 10
115.7173317752801
 20
170.8287198343859
 30
0.0
 10
115.7321724998354
 20
170.8315440888126
 30
0.0
 10
115.768005707804
 20
170.8348036318278
 30
0.0
 10
115.7821189156256
 20
170.8318048846843
 30
0.0
 10
115.8166102868445
 20
170.8199766444257
 30
0.0
 10
115.8276943579548
 20
170.8073525491434
 30
0.0
 10
115.8538171757508
 20
170.7651582167202
 30
0.0
 10
115.8579447402957
 20
170.7306241441088
 30
0.0
 10
115.8579447402957
 20
170.6935130396003
 30
0.0
  0
LINE
  5
237
330
1F
100
AcDbEntity
  8
0
  6
HIDDEN
 62
     7
370
     0
100
AcDbLine
 10
115.8579447403
 20
144.6474402048
 30
0.0
 11
115.8579447403
 21
170.6935130396
 31
0.0
  0
SPLINE
  5
238
330
1F
100
AcDbEntity
  8
0
  6
HIDDEN
 62
     7
370
     0
100
AcDbSpline
210
0.0
220
0.0
230
1.0
 70
     8
 71
     3
 72
    16
 73
    12
 74
     0
 42
0.00000001
 43
0.00000001
 12
1.0
 22
0.0
 32
0.0
 13
1.0
 23
0.0
 33
0.0
 40
0.0
 40
0.0
 40
0.0
 40
0.0
 40
0.5000000000000002
 40
0.5000000000000002
 40
0.7500000000000006
 40
0.7500000000000006
 40
0.8749999999999967
 40
0.8749999999999967
 40
0.9374999999999984
 40
0.9374999999999984
 40
1.0
 40
1.0
 40
1.0
 40
1.0
 10
115.8579447402957
 20
144.6474402048231
 30
0.0
 10
115.8579447402957
 20
144.5298422673455
 30
0.0
 10
115.8537790418357
 20
144.4132078676847
 30
0.0
 10
115.8275207135108
 20
144.2416577145222
 30
0.0
 10
115.8160169317732
 20
144.1845124140875
 30
0.0
 10
115.7818861724267
 20
144.1074647409617
 30
0.0
 10
115.7674642857559
 20
144.0813544634538
 30
0.0
 10
115.7318973173181
 20
144.058737851447
 30
0.0
 10
115.7169455490234
 20
144.0551555247693
 30
0.0
 10
115.6879417306637
 20
144.0608799361606
 30
0.0
 10
115.6745263766544
 20
144.0691558951523
 30
0.0
 10
115.6629678514178
 20
144.0791284407478
 30
0.0
  0
SPLINE
  5
239
330
1F
100
AcDbEntity
  8
0
  6
HIDDEN
 62
     7
370
     0
100
AcDbSpline
210
0.0
220
0.0
230
1.0
 70
     8
 71
     3
 72
    12
 73
     8
 74
     0
 42
0.00000001
 43
0.00000001
 12
1.0
 22
0.0
 32
0.0
 13
1.0
 23
0.0
 33
0.0
 40
0.0
 40
0.0
 40
0.0
 40
0.0
 40
0.2499999999999999
 40
0.2499999999999999
 40
0.4999999999999998
 40
0.4999999999999998
 40
1.0
 40
1.0
 40
1.0
 40
1.0
 10
115.6629678514271
 20
144.0791284407611
 30
0.0
 10
115.6327800748775
 20
144.1051740626635
 30
0.0
 10
115.5994262707858
 20
144.1277142953373
 30
0.0
 10
115.5263000675898
 20
144.1578952803978
 30
0.0
 10
115.4860648645657
 20
144.164920014876
 30
0.0
 10
115.3683732344326
 20
144.1540509762837
 30
0.0
 10
115.2979925612726
 20
144.1066964356199
 30
0.0
 10
115.241432453842
 20
144.0505048147462
 30
0.0
  0
SPLINE
  5
23A
330
1F
100
AcDbEntity
  8
0
  6
HIDDEN
 62
     7
370
     0
100
AcDbSpline
210
0.0
220
0.0
230
1.0
 70
     8
 71
     3
 72
    12
 73
     8
 74
     0
 42
0.00000001
 43
0.00000001
 12
1.0
 22
0.0
 32
0.0
 13
1.0
 23
0.0
 33
0.0
 40
0.0
 40
0.0
 40
0.0
 40
0.0
 40
0.2500000000000001
 40
0.2500000000000001
 40
0.5000000000000001
 40
0.5000000000000001
 40
1.0
 40
1.0
 40
1.0
 40
1.0
 10
115.241432453844
 20
144.0505048147443
 30
0.0
 10
115.1527477939876
 20
143.9623979314603
 30
0.0
 10
115.0928293782642
 20
143.8561533704721
 30
0.0
 10
114.9871701509435
 20
143.6348083166289
 30
0.0
 10
114.9445289128285
 20
143.5194877771731
 30
0.0
 10
114.833339570726
 20
143.1716552109148
 30
0.0
 10
114.780412888605
 20
142.9342954196932
 30
0.0
 10
114.736624396736
 20
142.6948921352399
 30
0.0
  0
SPLINE
  5
23B
330
1F
100
AcDbEntity
  8
0
  6
HIDDEN
 62
     7
370
     0
100
AcDbSpline
210
0.0
220
0.0
230
1.0
 70
     8
 71
     3
 72
    12
 73
     8
 74
     0
 42
0.00000001
 43
0.00000001
 12
1.0
 22
0.0
 32
0.0
 13
1.0
 23
0.0
 33
0.0
 40
0.0
 40
0.0
 40
0.0
 40
0.0
 40
0.4999999999999991
 40
0.4999999999999991
 40
0.7499999999999997
 40
0.7499999999999997
 40
1.0
 40
1.0
 40
1.0
 40
1.0
 10
114.7366243967345
 20
133.7121747009152
 30
0.0
 10
114.7803858730329
 20
133.5695078188926
 30
0.0
 10
114.8332921886856
 20
133.433601417903
 30
0.0
 10
114.9450033863318
 20
133.2413091300077
 30
0.0
 10
114.9875228299177
 20
133.179409414208
 30
0.0
 10
115.0926461724836
 20
133.0624971593649
 30
0.0
 10
115.1542121362005
 20
133.0062287128121
 30
0.0
 10
115.2414324538411
 20
132.9610049698288
 30
0.0
  0
LINE
  5
23C
330
1F
100
AcDbEntity
  8
0
  6
HIDDEN
 62
     7
370
     0
100
AcDbLine
 10
115.8579447403
 20
144.6474402048
 30
0.0
 11
115.8579447403
 21
170.6935130396
 31
0.0
  0
LINE
  5
23D
330
1F
100
AcDbEntity
  8
0
  6
HIDDEN
 62
     7
370
     0
100
AcDbLine
 10
79.5881731799
 20
133.9624249024
 30
0.0
 11
79.5881731799
 21
164.5883269883
 31
0.0
  0
LINE
  5
23E
330
1F
100
AcDbEntity
  8
0
  6
HIDDEN
 62
     7
370
     0
100
AcDbLine
 10
78.0579447403
 20
133.0850967711
 30
0.0
 11
78.0579447403
 21
165.4656551195
 31
0.0
  0
LINE
  5
23F
330
1F
100
AcDbEntity
  8
0
  6
HIDDEN
 62
     7
370
     0
100
AcDbLine
 10
86.0881731799
 20
134.9289657838
 30
0.0
 11
86.0881731799
 21
163.6217861069
 31
0.0
  0
LINE
  5
240
330
1F
100
AcDbEntity
  8
0
  6
HIDDEN
 62
     7
370
     0
100
AcDbLine
 10
113.8579447403
 20
132.8178465694
 30
0.0
 11
113.8579447403
 21
128.6552771608
 31
0.0
  0
LINE
  5
241
330
1F
100
AcDbEntity
  8
0
  6
HIDDEN
 62
     7
370
     0
100
AcDbLine
 10
79.5579447403
 20
133.564131307
 30
0.0
 11
79.5579447403
 21
129.7783863321
 31
0.0
  0
SPLINE
  5
242
330
1F
100
AcDbEntity
  8
0
  6
HIDDEN
 62
     7
370
     0
100
AcDbSpline
210
0.0
220
0.0
230
1.0
 70
     8
 71
     3
 72
     8
 73
     4
 74
     0
 42
0.00000001
 43
0.00000001
 12
1.0
 22
0.0
 32
0.0
 13
1.0
 23
0.0
 33
0.0
 40
0.0000249631533152
 40
0.0000249631533152
 40
0.0000249631533152
 40
0.0000249631533152
 40
0.0049776413517028
 40
0.0049776413517028
 40
0.0049776413517028
 40
0.0049776413517028
 10
84.50794474029571
 20
129.6691126548581
 30
0.0
 10
82.85792229455028
 20
129.7056125330689
 30
0.0
 10
81.20792097480522
 20
129.742037119201
 30
0.0
 10
79.55794474029568
 20
129.778386332139
 30
0.0
  0
SPLINE
  5
243
330
1F
100
AcDbEntity
  8
0
  6
HIDDEN
 62
     7
370
     0
100
AcDbSpline
210
0.0
220
0.0
230
1.0
 70
     8
 71
     3
 72
    12
 73
     8
 74
     0
 42
0.00000001
 43
0.00000001
 12
1.0
 22
0.0
 32
0.0
 13
1.0
 23
0.0
 33
0.0
 40
0.0
 40
0.0
 40
0.0
 40
0.0
 40
0.0935650969290616
 40
0.2465637248281237
 40
0.4594929404502474
 40
0.6775099591433663
 40
1.0
 40
1.0
 40
1.0
 40
1.0
 10
86.42389646614347
 20
129.3462811622783
 30
0.0
 10
86.42465506555564
 20
129.3461727333131
 30
0.0
 10
86.42665413468353
 20
129.3458870001665
 30
0.0
 10
86.25548960474464
 20
129.3700383493154
 30
0.0
 10
85.90582528809219
 20
129.4222492981004
 30
0.0
 10
85.31098276651703
 20
129.5177543509885
 30
0.0
 10
84.80802890716441
 20
129.6125521570582
 30
0.0
 10
84.50794474029571
 20
129.6691126548583
 30
0.0
  0
SPLINE
  5
244
330
1F
100
AcDbEntity
  8
0
  6
HIDDEN
 62
     7
370
     0
100
AcDbSpline
210
0.0
220
0.0
230
1.0
 70
     8
 71
     3
 72
    23
 73
    19
 74
     0
 42
0.00000001
 43
0.00000001
 12
1.0
 22
0.0
 32
0.0
 13
1.0
 23
0.0
 33
0.0
 40
0.0
 40
0.0
 40
0.0
 40
0.0
 40
0.0590543542813692
 40
0.0605265748706881
 40
0.1193586220126314
 40
0.1882688117775006
 40
0.259014467457414
 40
0.3309448053364099
 40
0.4048654755148605
 40
0.4784639153686768
 40
0.5542036025367563
 40
0.6275546244683792
 40
0.7031937148771812
 40
0.7736970554037209
 40
0.846553230587109
 40
0.9121236125012535
 40
0.979858775900585
 40
1.0
 40
1.0
 40
1.0
 40
1.0
 10
97.36910616905782
 20
129.1839418215965
 30
0.0
 10
97.50708738184335
 20
129.193796166246
 30
0.0
 10
97.64850845583598
 20
129.2038961789629
 30
0.0
 10
97.98364050231994
 20
129.2205233813041
 30
0.0
 10
98.33349692563208
 20
129.2399986911895
 30
0.0
 10
98.95235194090182
 20
129.2603636128624
 30
0.0
 10
99.64722264910398
 20
129.2706881770928
 30
0.0
 10
100.3874333219207
 20
129.2659249746463
 30
0.0
 10
101.1439571057601
 20
129.2445004592704
 30
0.0
 10
101.8998833876279
 20
129.2064388334671
 30
0.0
 10
102.6189306290275
 20
129.1547959714104
 30
0.0
 10
103.2873416298029
 20
129.0935110500609
 30
0.0
 10
103.8642335336822
 20
129.0303140359135
 30
0.0
 10
104.3433616473167
 20
128.9707852371427
 30
0.0
 10
104.6957589706248
 20
128.922857509414
 30
0.0
 10
104.9170374253529
 20
128.8910854210937
 30
0.0
 10
105.0134933069153
 20
128.8768000197999
 30
0.0
 10
104.9994818244102
 20
128.8788706511501
 30
0.0
 10
104.9962703996221
 20
128.8793452388208
 30
0.0
  0
SPLINE
  5
245
330
1F
100
AcDbEntity
  8
0
  6
HIDDEN
 62
     7
370
     0
100
AcDbSpline
210
0.0
220
0.0
230
1.0
 70
     8
 71
     3
 72
    12
 73
     8
 74
     0
 42
0.00000001
 43
0.00000001
 12
1.0
 22
0.0
 32
0.0
 13
1.0
 23
0.0
 33
0.0
 40
0.0
 40
0.0
 40
0.0
 40
0.0
 40
0.2248154263062811
 40
0.4418133834437002
 40
0.6648545650420576
 40
0.8312150911298793
 40
1.0
 40
1.0
 40
1.0
 40
1.0
 10
96.32726193109325
 20
129.0958571030346
 30
0.0
 10
96.33761660311069
 20
129.0968928534515
 30
0.0
 10
96.35796588586962
 20
129.0989283383097
 30
0.0
 10
96.52694305904265
 20
129.1153528569324
 30
0.0
 10
96.76619064738131
 20
129.1370123419625
 30
0.0
 10
97.05226753494783
 20
129.1609508091304
 30
0.0
 10
97.2629851929353
 20
129.1762412812511
 30
0.0
 10
97.36910616905782
 20
129.1839418215965
 30
0.0
  0
LINE
  5
246
330
1F
100
AcDbEntity
  8
0
  6
HIDDEN
 62
     7
370
     0
100
AcDbLine
 10
115.8579447403
 20
132.4851745916
 30
0.0
 11
115.8579447403
 21
128.6100548955
 31
0.0
  0
LINE
  5
247
330
1F
100
AcDbEntity
  8
0
  6
HIDDEN
 62
     7
370
     0
100
AcDbLine
 10
91.8881731799
 20
135.2753759453
 30
0.0
 11
91.8881731799
 21
163.2753759453
 31
0.0
  0
LINE
  5
248
330
1F
100
AcDbEntity
  8
0
  6
HIDDEN
 62
     7
370
     0
100
AcDbLine
 10
84.4881731799
 20
135.2753759453
 30
0.0
 11
84.4881731799
 21
163.2753759453
 31
0.0
  0
LINE
  5
249
330
1F
100
AcDbEntity
  8
0
  6
HIDDEN
 62
     7
370
     0
100
AcDbLine
 10
85.4881731799
 20
135.2753759453
 30
0.0
 11
85.4881731799
 21
163.2753759453
 31
0.0
  0
SPLINE
  5
24A
330
1F
100
AcDbEntity
  8
0
  6
HIDDEN
 62
     7
370
     0
100
AcDbSpline
210
0.0
220
0.0
230
1.0
 70
    11
 71
     3
 72
    66
 73
    62
 74
     0
 42
0.00000001
 43
0.00000001
 12
1.0
 22
0.0
 32
0.0
 13
1.0
 23
0.0
 33
0.0
 40
0.0
 40
0.0
 40
0.0
 40
0.0
 40
0.03125
 40
0.03125
 40
0.0625
 40
0.0625
 40
0.09375
 40
0.09375
 40
0.1249999999999999
 40
0.1249999999999999
 40
0.1562499999999999
 40
0.1562499999999999
 40
0.1874999999999999
 40
0.1874999999999999
 40
0.2187499999999999
 40
0.2187499999999999
 40
0.2499999999999999
 40
0.2499999999999999
 40
0.28125
 40
0.28125
 40
0.3125
 40
0.3125
 40
0.3437500000000001
 40
0.3437500000000001
 40
0.3750000000000001
 40
0.3750000000000001
 40
0.4374999999999999
 40
0.4374999999999999
 40
0.4687499999999998
 40
0.4687499999999998
 40
0.4999999999999997
 40
0.4999999999999997
 40
0.5312499999999997
 40
0.5312499999999997
 40
0.5624999999999996
 40
0.5624999999999996
 40
0.5937499999999994
 40
0.5937499999999994
 40
0.6249999999999993
 40
0.6249999999999993
 40
0.687499999999999
 40
0.687499999999999
 40
0.7187499999999991
 40
0.7187499999999991
 40
0.7499999999999992
 40
0.7499999999999992
 40
0.7812499999999993
 40
0.7812499999999993
 40
0.8124999999999994
 40
0.8124999999999994
 40
0.8437499999999996
 40
0.8437499999999996
 40
0.8749999999999996
 40
0.8749999999999996
 40
0.9062499999999997
 40
0.9062499999999997
 40
0.9374999999999998
 40
0.9374999999999998
 40
0.9687499999999999
 40
0.9687499999999999
 40
1.0
 40
1.0
 40
1.0
 40
1.0
 10
104.5579447402957
 20
135.2897583329509
 30
0.0
 10
104.5182745791294
 20
135.3011043205979
 30
0.0
 10
104.455798371286
 20
135.3188690953768
 30
0.0
 10
104.285855249927
 20
135.3653746048561
 30
0.0
 10
104.1773870716043
 20
135.3943529747311
 30
0.0
 10
103.923716145305
 20
135.4583265833495
 30
0.0
 10
103.7778473238404
 20
135.4935295212874
 30
0.0
 10
103.4472019027553
 20
135.5670089689465
 30
0.0
 10
103.2643457963442
 20
135.6047834903212
 30
0.0
 10
102.8728996005888
 20
135.6768647253487
 30
0.0
 10
102.6627520555324
 20
135.711516604632
 30
0.0
 10
102.2137230820458
 20
135.7739068290828
 30
0.0
 10
101.981423344915
 20
135.8007088659081
 30
0.0
 10
101.5014897451194
 20
135.8429287096408
 30
0.0
 10
101.2514332829015
 20
135.8584202563929
 30
0.0
 10
100.7462783395742
 20
135.8750310563059
 30
0.0
 10
100.4942282328886
 20
135.8761847109699
 30
0.0
 10
99.99116144044737
 20
135.8643540137014
 30
0.0
 10
99.73765394965764
 20
135.8510897346344
 30
0.0
 10
99.25067163139337
 20
135.8125550571683
 30
0.0
 10
99.01569327848728
 20
135.7873976584842
 30
0.0
 10
98.5624349084036
 20
135.7280855083404
 30
0.0
 10
98.34495042620992
 20
135.6939230992513
 30
0.0
 10
97.94371793826095
 20
135.6228047827775
 30
0.0
 10
97.75756259879873
 20
135.5855394908876
 30
0.0
 10
97.24320660552692
 20
135.4741833538593
 30
0.0
 10
96.9746554357517
 20
135.4043440633937
 30
0.0
 10
96.69619332032532
 20
135.3289556219346
 30
0.0
 10
96.62652476044686
 20
135.3092910669764
 30
0.0
 10
96.53238260586706
 20
135.2824986761774
 30
0.0
 10
96.50802326341423
 20
135.2753986609566
 30
0.0
 10
96.50786660329459
 20
135.275353341424
 30
0.0
 10
96.53141599718731
 20
135.2822198537622
 30
0.0
 10
96.6250989896683
 20
135.3088889359875
 30
0.0
 10
96.69628582577732
 20
135.3289757744905
 30
0.0
 10
96.88015044517054
 20
135.3787634433434
 30
0.0
 10
96.99297411569258
 20
135.408520417459
 30
0.0
 10
97.26083000796336
 20
135.4749544939855
 30
0.0
 10
97.4148897858577
 20
135.5113304819793
 30
0.0
 10
97.92306343850929
 20
135.6214127200352
 30
0.0
 10
98.33489422585244
 20
135.6981680093573
 30
0.0
 10
99.00966096141683
 20
135.7866783396887
 30
0.0
 10
99.24753466880634
 20
135.8122734153949
 30
0.0
 10
99.73711126358525
 20
135.851079957362
 30
0.0
 10
99.98572853444693
 20
135.8641406003607
 30
0.0
 10
100.4906410874738
 20
135.876184481902
 30
0.0
 10
100.7481780281039
 20
135.8749698462008
 30
0.0
 10
101.2496681478876
 20
135.8584770416936
 30
0.0
 10
101.4962530692165
 20
135.8433390888094
 30
0.0
 10
101.9810664835579
 20
135.8007899742899
 30
0.0
 10
102.2161020282207
 20
135.7735691147966
 30
0.0
 10
102.6594811490318
 20
135.7119782377207
 30
0.0
 10
102.8706643100691
 20
135.6772775155342
 30
0.0
 10
103.2667495729041
 20
135.6043396744703
 30
0.0
 10
103.4473520010898
 20
135.566961597814
 30
0.0
 10
103.7752344228137
 20
135.4941240970512
 30
0.0
 10
103.9237562105888
 20
135.4583211169887
 30
0.0
 10
104.1784266382657
 20
135.3940861475713
 30
0.0
 10
104.2844913623792
 20
135.3657399529371
 30
0.0
 10
104.4543892702853
 20
135.3192624573422
 30
0.0
 10
104.5183762387317
 20
135.3010752451276
 30
0.0
 10
104.5579447402957
 20
135.289758332951
 30
0.0
  0
SPLINE
  5
24B
330
1F
100
AcDbEntity
  8
0
  6
HIDDEN
 62
     7
370
     0
100
AcDbSpline
210
0.0
220
0.0
230
1.0
 70
    11
 71
     3
 72
    70
 73
    66
 74
     0
 42
0.00000001
 43
0.00000001
 12
1.0
 22
0.0
 32
0.0
 13
1.0
 23
0.0
 33
0.0
 40
0.0
 40
0.0
 40
0.0
 40
0.0
 40
0.0312499999999999
 40
0.0312499999999999
 40
0.0624999999999999
 40
0.0624999999999999
 40
0.0937499999999998
 40
0.0937499999999998
 40
0.1249999999999998
 40
0.1249999999999998
 40
0.1562499999999998
 40
0.1562499999999998
 40
0.1874999999999997
 40
0.1874999999999997
 40
0.2187499999999997
 40
0.2187499999999997
 40
0.2499999999999997
 40
0.2499999999999997
 40
0.2812499999999996
 40
0.2812499999999996
 40
0.3124999999999996
 40
0.3124999999999996
 40
0.3437499999999995
 40
0.3437499999999995
 40
0.3749999999999994
 40
0.3749999999999994
 40
0.4062499999999993
 40
0.4062499999999993
 40
0.4374999999999993
 40
0.4374999999999993
 40
0.4687499999999992
 40
0.4687499999999992
 40
0.4999999999999992
 40
0.4999999999999992
 40
0.5312499999999991
 40
0.5312499999999991
 40
0.5624999999999991
 40
0.5624999999999991
 40
0.593749999999999
 40
0.593749999999999
 40
0.624999999999999
 40
0.624999999999999
 40
0.6562499999999989
 40
0.6562499999999989
 40
0.6874999999999989
 40
0.6874999999999989
 40
0.7187499999999988
 40
0.7187499999999988
 40
0.7499999999999987
 40
0.7499999999999987
 40
0.7812499999999989
 40
0.7812499999999989
 40
0.812499999999999
 40
0.812499999999999
 40
0.8437499999999992
 40
0.8437499999999992
 40
0.8749999999999993
 40
0.8749999999999993
 40
0.9062499999999996
 40
0.9062499999999996
 40
0.9374999999999997
 40
0.9374999999999997
 40
0.9687499999999999
 40
0.9687499999999999
 40
1.0
 40
1.0
 40
1.0
 40
1.0
 10
104.5579447402957
 20
163.2609935577314
 30
0.0
 10
104.5184555999374
 20
163.2496993435029
 30
0.0
 10
104.4546632140876
 20
163.2315639672095
 30
0.0
 10
104.2840737920982
 20
163.1848981135696
 30
0.0
 10
104.1777099081446
 20
163.1564792618813
 30
0.0
 10
103.9231443795035
 20
163.0922821846486
 30
0.0
 10
103.7742440206229
 20
163.0563938116539
 30
0.0
 10
103.4458729628736
 20
162.9834758059986
 30
0.0
 10
103.2652120380468
 20
162.9461113533265
 30
0.0
 10
102.8696632400521
 20
162.8733078761823
 30
0.0
 10
102.6576026747657
 20
162.8384856717034
 30
0.0
 10
102.2145989421217
 20
162.7770012235063
 30
0.0
 10
101.9819378995586
 20
162.7500329678324
 30
0.0
 10
101.4947770965888
 20
162.707288698927
 30
0.0
 10
101.2473347332606
 20
162.6921451855829
 30
0.0
 10
100.7448245550091
 20
162.6757252821549
 30
0.0
 10
100.4871807230934
 20
162.6745925065464
 30
0.0
 10
99.98303810960815
 20
162.6867336149417
 30
0.0
 10
99.735161346858
 20
162.6998104937726
 30
0.0
 10
99.24770501020829
 20
162.7384810323151
 30
0.0
 10
99.00834627241863
 20
162.7642188969556
 30
0.0
 10
98.557808888672
 20
162.82337108066
 30
0.0
 10
98.34388555910527
 20
162.856975029268
 30
0.0
 10
97.93883703022884
 20
162.9288553852363
 30
0.0
 10
97.75202818580364
 20
162.9663722705934
 30
0.0
 10
97.413607285613
 20
163.0397164924294
 30
0.0
 10
97.26025905352385
 20
163.0759323227203
 30
0.0
 10
96.99207170592024
 20
163.1424620103285
 30
0.0
 10
96.87948594032258
 20
163.1721663729204
 30
0.0
 10
96.69628916811568
 20
163.2217772303719
 30
0.0
 10
96.62525101923106
 20
163.241819670281
 30
0.0
 10
96.53126034282785
 20
163.2685763532185
 30
0.0
 10
96.5078952362388
 20
163.2753902661574
 30
0.0
 10
96.50799440047048
 20
163.2753615793623
 30
0.0
 10
96.53224706465573
 20
163.2682916986251
 30
0.0
 10
96.62671843844238
 20
163.2414057942006
 30
0.0
 10
96.69654212279647
 20
163.2217016432353
 30
0.0
 10
96.88154886061784
 20
163.1716148955545
 30
0.0
 10
96.9966162332365
 20
163.1413023300334
 30
0.0
 10
97.26296563613627
 20
163.0752940997129
 30
0.0
 10
97.41515221345315
 20
163.039332878594
 30
0.0
 10
97.75876328069681
 20
162.9649625876552
 30
0.0
 10
97.9450642685652
 20
162.9276918813134
 30
0.0
 10
98.34593809479472
 20
162.8566704144186
 30
0.0
 10
98.56255484801817
 20
162.8226408687135
 30
0.0
 10
99.01676409786738
 20
162.7632239521371
 30
0.0
 10
99.25157974045278
 20
162.7381257453763
 30
0.0
 10
99.73665994014435
 20
162.6997400415839
 30
0.0
 10
99.9899094833871
 20
162.6864343934944
 30
0.0
 10
100.4947289476319
 20
162.6745483407966
 30
0.0
 10
100.7466165199597
 20
162.6757483035675
 30
0.0
 10
101.2493520460213
 20
162.6922469054826
 30
0.0
 10
101.5012140821228
 20
162.7077913108949
 30
0.0
 10
101.9825583405602
 20
162.7501505041822
 30
0.0
 10
102.2148043135463
 20
162.7769887101442
 30
0.0
 10
102.6624832015298
 20
162.8392045250613
 30
0.0
 10
102.8741694029022
 20
162.8741023262803
 30
0.0
 10
103.2657755445102
 20
162.9462504660233
 30
0.0
 10
103.4480505508723
 20
162.9839198252131
 30
0.0
 10
103.7790480508039
 20
163.0575009718751
 30
0.0
 10
103.9247431256773
 20
163.0926782771869
 30
0.0
 10
104.177772876986
 20
163.1565022721562
 30
0.0
 10
104.2859424968767
 20
163.1853997625623
 30
0.0
 10
104.4562067457425
 20
163.2319959511197
 30
0.0
 10
104.5184474692172
 20
163.249697018051
 30
0.0
 10
104.5579447402957
 20
163.2609935577314
 30
0.0
  0
SPLINE
  5
24C
330
1F
100
AcDbEntity
  8
0
  6
HIDDEN
 62
     7
370
     0
100
AcDbSpline
210
0.0
220
0.0
230
1.0
 70
    11
 71
     3
 72
    10
 73
     6
 74
     0
 42
0.00000001
 43
0.00000001
 12
1.0
 22
0.0
 32
0.0
 13
1.0
 23
0.0
 33
0.0
 40
0.0
 40
0.0
 40
0.0
 40
0.0
 40
0.5
 40
0.5
 40
1.0
 40
1.0
 40
1.0
 40
1.0
 10
104.5579447402957
 20
163.2609935577314
 30
0.0
 10
104.5911337027694
 20
163.2704858700178
 30
0.0
 10
104.607834479024
 20
163.2728488427306
 30
0.0
 10
104.6080539194687
 20
163.2728902807211
 30
0.0
 10
104.5911742040753
 20
163.2704974537196
 30
0.0
 10
104.5579447402957
 20
163.2609935577314
 30
0.0
  0
SPLINE
  5
24D
330
1F
100
AcDbEntity
  8
0
  6
HIDDEN
 62
     7
370
     0
100
AcDbSpline
210
0.0
220
0.0
230
1.0
 70
    11
 71
     3
 72
    10
 73
     6
 74
     0
 42
0.00000001
 43
0.00000001
 12
1.0
 22
0.0
 32
0.0
 13
1.0
 23
0.0
 33
0.0
 40
0.0
 40
0.0
 40
0.0
 40
0.0
 40
0.5
 40
0.5
 40
1.0
 40
1.0
 40
1.0
 40
1.0
 10
104.5579447402957
 20
135.2897583329509
 30
0.0
 10
104.5910921583721
 20
135.2802779026989
 30
0.0
 10
104.6079510037338
 20
135.2778810440394
 30
0.0
 10
104.6079384733861
 20
135.2778834101918
 30
0.0
 10
104.5910235156457
 20
135.2802975350751
 30
0.0
 10
104.5579447402957
 20
135.2897583329509
 30
0.0
  0
LINE
  5
24E
330
1F
100
AcDbEntity
  8
0
  6
HIDDEN
 62
     7
370
     0
100
AcDbLine
 10
105.0579447403
 20
135.7753759453
 30
0.0
 11
105.0579447403
 21
162.7753759453
 31
0.0
  0
LINE
  5
24F
330
1F
100
AcDbEntity
  8
0
  6
HIDDEN
 62
     7
370
     0
100
AcDbLine
 10
220.7638807638
 20
141.8685221318
 30
0.0
 11
220.0359763035
 21
137.7403708001
 31
0.0
  0
SPLINE
  5
250
330
1F
100
AcDbEntity
  8
0
  6
HIDDEN
 62
     7
370
     0
100
AcDbSpline
210
0.0
220
0.0
230
1.0
 70
     8
 71
     3
 72
    40
 73
    36
 74
     0
 42
0.00000001
 43
0.00000001
 12
1.0
 22
0.0
 32
0.0
 13
1.0
 23
0.0
 33
0.0
 40
0.0
 40
0.0
 40
0.0
 40
0.0
 40
0.1249999999999994
 40
0.1249999999999994
 40
0.2499999999999988
 40
0.2499999999999988
 40
0.3124999999999992
 40
0.3124999999999992
 40
0.3749999999999996
 40
0.3749999999999996
 40
0.4062500000000006
 40
0.4062500000000006
 40
0.4375000000000015
 40
0.4375000000000015
 40
0.4687500000000026
 40
0.4687500000000026
 40
0.4843750000000031
 40
0.4843750000000031
 40
0.5000000000000036
 40
0.5000000000000036
 40
0.5312500000000033
 40
0.5312500000000033
 40
0.562500000000003
 40
0.562500000000003
 40
0.5937500000000028
 40
0.5937500000000028
 40
0.6250000000000026
 40
0.6250000000000026
 40
0.6875000000000021
 40
0.6875000000000021
 40
0.7500000000000016
 40
0.7500000000000016
 40
0.8750000000000008
 40
0.8750000000000008
 40
1.0
 40
1.0
 40
1.0
 40
1.0
 10
218.879532708055
 20
142.2007835350543
 30
0.0
 10
218.9760250215382
 20
142.7480186382445
 30
0.0
 10
219.1293871311067
 20
143.2790392807555
 30
0.0
 10
219.4988206445058
 20
144.3225061555892
 30
0.0
 10
219.714088299408
 20
144.8292474351775
 30
0.0
 10
220.0672932171076
 20
145.5577339784704
 30
0.0
 10
220.1904719970658
 20
145.7957065390461
 30
0.0
 10
220.4486826717837
 20
146.2592551881237
 30
0.0
 10
220.5844531160889
 20
146.486087488715
 30
0.0
 10
220.7929984401749
 20
146.8000686761122
 30
0.0
 10
220.8635224621641
 20
146.9006575946746
 30
0.0
 10
221.0070109417556
 20
147.0902917941184
 30
0.0
 10
221.0807668192689
 20
147.180340619651
 30
0.0
 10
221.227898603719
 20
147.3373940387622
 30
0.0
 10
221.3006909787395
 20
147.4040237220828
 30
0.0
 10
221.4058060755532
 20
147.4730563153928
 30
0.0
 10
221.4392912889453
 20
147.4902367838556
 30
0.0
 10
221.5025947242271
 20
147.5109914834715
 30
0.0
 10
221.5326605038227
 20
147.5143770637397
 30
0.0
 10
221.6123149776682
 20
147.5015079373919
 30
0.0
 10
221.6530492444336
 20
147.4614920041755
 30
0.0
 10
221.7078300636467
 20
147.3381484194048
 30
0.0
 10
221.7227990860858
 20
147.2556557220663
 30
0.0
 10
221.7365208979267
 20
147.0725765419414
 30
0.0
 10
221.7354894937582
 20
146.9698260897782
 30
0.0
 10
221.7236947691472
 20
146.7559538640168
 30
0.0
 10
221.7129725609867
 20
146.6444227800374
 30
0.0
 10
221.6714196696159
 20
146.30021520326
 30
0.0
 10
221.6310855696587
 20
146.0566571901691
 30
0.0
 10
221.5397105095326
 20
145.5631011039199
 30
0.0
 10
221.4883927285167
 20
145.3121375947726
 30
0.0
 10
221.326179379441
 20
144.548979834351
 30
0.0
 10
221.2065081053273
 20
144.0245710179069
 30
0.0
 10
220.9733209022974
 20
142.9560111026274
 30
0.0
 10
220.860594726793
 20
142.4170142719971
 30
0.0
 10
220.7638807637673
 20
141.8685221317865
 30
0.0
  0
LINE
  5
251
330
1F
100
AcDbEntity
  8
0
  6
HIDDEN
 62
     7
370
     0
100
AcDbLine
 10
218.1516282478
 20
138.0726322033
 30
0.0
 11
218.8795327081
 21
142.2007835351
 31
0.0
  0
ELLIPSE
  5
252
330
1F
100
AcDbEntity
  8
0
  6
HIDDEN
 62
     7
370
     0
100
AcDbEllipse
 10
216.4184573144
 20
140.6897579878
 30
0.0
 11
3.633080354321095
 21
-3.410468302316048
 31
0.0
210
0.0
220
0.0
230
1.0
 40
0.1833745429
 41
5.372304092507859
 42
6.647427933746208
  0
LINE
  5
253
330
1F
100
AcDbEntity
  8
0
  6
HIDDEN
 62
     7
370
     0
100
AcDbLine
 10
221.9962815815
 20
148.136335318
 30
0.0
 11
213.7238964562
 21
149.5949800104
 31
0.0
  0
LINE
  5
254
330
1F
100
AcDbEntity
  8
0
  6
HIDDEN
 62
     7
370
     0
100
AcDbLine
 10
106.3079447403
 20
140.2753759453
 30
0.0
 11
106.3079447403
 21
158.2753759453
 31
0.0
  0
LINE
  5
255
330
1F
100
AcDbEntity
  8
0
  6
HIDDEN
 62
     7
370
     0
100
AcDbLine
 10
105.0579447403
 20
139.0492710611
 30
0.0
 11
105.0579447403
 21
159.5014808295
 31
0.0
  0
LINE
  5
256
330
1F
100
AcDbEntity
  8
0
  6
HIDDEN
 62
     7
370
     0
100
AcDbLine
 10
221.3799530005
 20
148.6721015796
 30
0.0
 11
214.4862987294
 21
149.8876388233
 31
0.0
  0
LINE
  5
257
330
1F
100
AcDbEntity
  8
0
  6
HIDDEN
 62
     7
370
     0
100
AcDbLine
 10
215.2815027717
 20
154.397465051
 30
0.0
 11
222.1751570428
 21
153.1819278074
 31
0.0
  0
LINE
  5
258
330
1F
100
AcDbEntity
  8
0
  6
HIDDEN
 62
     7
370
     0
100
AcDbLine
 10
143.0579447403
 20
140.2753759453
 30
0.0
 11
143.0579447403
 21
158.2753759453
 31
0.0
  0
LINE
  5
259
330
1F
100
AcDbEntity
  8
0
  6
HIDDEN
 62
     7
370
     0
100
AcDbLine
 10
145.9120326807
 20
145.0253759453
 30
0.0
 11
145.9120326807
 21
153.5253759453
 31
0.0
  0
ELLIPSE
  5
25A
330
1F
100
AcDbEntity
  8
0
  6
HIDDEN
 62
     7
370
     0
100
AcDbEllipse
 10
224.4158668081
 20
147.1495914008
 30
0.0
 11
2.880650777134037
 21
4.965821622052688
 31
0.0
210
0.0
220
0.0
230
1.0
 40
0.392679857
 41
5.463045346628993
 42
8.604638000218767
  0
LINE
  5
25B
330
1F
100
AcDbEntity
  8
0
  6
HIDDEN
 62
     7
370
     0
100
AcDbLine
 10
220.0359763035
 20
137.7403708001
 30
0.0
 11
224.4102158963
 21
133.189693824
 31
0.0
  0
LINE
  5
25C
330
1F
100
AcDbEntity
  8
0
  6
HIDDEN
 62
     7
370
     0
100
AcDbLine
 10
227.8067176098
 20
149.7097112155
 30
0.0
 11
226.6296530906
 21
143.034246607
 31
0.0
  0
LINE
  5
25D
330
1F
100
AcDbEntity
  8
0
  6
HIDDEN
 62
     7
370
     0
100
AcDbLine
 10
219.2024977851
 20
153.706087839
 30
0.0
 11
232.0687804337
 21
151.4374150666
 31
0.0
  0
LINE
  5
25E
330
1F
100
AcDbEntity
  8
0
  6
HIDDEN
 62
     7
370
     0
100
AcDbLine
 10
217.601461587
 20
144.6261603561
 30
0.0
 11
220.9280573583
 21
144.0395917677
 31
0.0
  0
LINE
  5
25F
330
1F
100
AcDbEntity
  8
0
  6
HIDDEN
 62
     7
370
     0
100
AcDbLine
 10
226.6296530906
 20
143.034246607
 30
0.0
 11
230.4677442356
 21
142.3574875837
 31
0.0
  0
LINE
  5
260
330
1F
100
AcDbEntity
  8
0
  6
HIDDEN
 62
     7
370
     0
100
AcDbLine
 10
226.6296530906
 20
143.034246607
 30
0.0
 11
230.4456184497
 21
142.3613889567
 31
0.0
  0
LINE
  5
261
330
1F
100
AcDbEntity
  8
0
  6
HIDDEN
 62
     7
370
     0
100
AcDbLine
 10
113.8579447403
 20
170.9577764519
 30
0.0
 11
113.8579447403
 21
172.6954747299
 31
0.0
  0
LINE
  5
262
330
1F
100
AcDbEntity
  8
0
  6
HIDDEN
 62
     7
370
     0
100
AcDbLine
 10
79.5579447403
 20
170.2114917143
 30
0.0
 11
79.5579447403
 21
171.8337393416
 31
0.0
  0
SPLINE
  5
263
330
1F
100
AcDbEntity
  8
0
  6
HIDDEN
 62
     7
370
     0
100
AcDbSpline
210
0.0
220
0.0
230
1.0
 70
     8
 71
     3
 72
    10
 73
     6
 74
     0
 42
0.00000001
 43
0.00000001
 12
1.0
 22
0.0
 32
0.0
 13
1.0
 23
0.0
 33
0.0
 40
0.0
 40
0.0
 40
0.0
 40
0.0
 40
0.3700749405053251
 40
0.7506758864502945
 40
1.0
 40
1.0
 40
1.0
 40
1.0
 10
114.7366243967361
 20
171.4190609998675
 30
0.0
 10
114.6311839929922
 20
171.6528730043999
 30
0.0
 10
114.4173041543841
 20
172.127147305506
 30
0.0
 10
114.2656649810586
 20
172.469239209118
 30
0.0
 10
114.2648559204782
 20
172.4710025324793
 30
0.0
 10
114.2645356945895
 20
172.4717004552359
 30
0.0
  0
LINE
  5
264
330
1F
100
AcDbEntity
  8
0
  6
HIDDEN
 62
     7
370
     0
100
AcDbLine
 10
78.0579447403
 20
169.4614917143
 30
0.0
 11
78.0579447403
 21
170.9677139378
 31
0.0
  0
SPLINE
  5
265
330
1F
100
AcDbEntity
  8
0
  6
HIDDEN
 62
     7
370
     0
100
AcDbSpline
210
0.0
220
0.0
230
1.0
 70
     8
 71
     3
 72
    10
 73
     6
 74
     0
 42
0.00000001
 43
0.00000001
 12
1.0
 22
0.0
 32
0.0
 13
1.0
 23
0.0
 33
0.0
 40
0.0
 40
0.0
 40
0.0
 40
0.0
 40
0.5
 40
0.5
 40
1.0
 40
1.0
 40
1.0
 40
1.0
 10
227.4158343455268
 20
137.2092326134568
 30
0.0
 10
227.5287209389511
 20
137.6047448268438
 30
0.0
 10
227.6414430464217
 20
138.0032599664056
 30
0.0
 10
227.8511781266508
 20
138.8113909619123
 30
0.0
 10
227.9490094408627
 20
139.2213459479724
 30
0.0
 10
228.0232756719531
 20
139.6425306741665
 30
0.0
  0
LINE
  5
266
330
1F
100
AcDbEntity
  8
0
  6
HIDDEN
 62
     7
370
     0
100
AcDbLine
 10
227.4158343455
 20
137.2092326135
 30
0.0
 11
229.8949104603
 21
136.7721046072
 31
0.0
  0
SPLINE
  5
267
330
1F
100
AcDbEntity
  8
0
  6
HIDDEN
 62
     7
370
     0
100
AcDbSpline
210
0.0
220
0.0
230
1.0
 70
     8
 71
     3
 72
    10
 73
     6
 74
     0
 42
0.00000001
 43
0.00000001
 12
1.0
 22
0.0
 32
0.0
 13
1.0
 23
0.0
 33
0.0
 40
0.0
 40
0.0
 40
0.0
 40
0.0
 40
0.5
 40
0.5
 40
1.0
 40
1.0
 40
1.0
 40
1.0
 10
229.9076237276677
 20
139.3102692709017
 30
0.0
 10
229.833444634449
 20
138.889578728135
 30
0.0
 10
229.7116269592132
 20
138.4832609516148
 30
0.0
 10
229.429039924793
 20
137.6879705078874
 30
0.0
 10
229.2664103410617
 20
137.2982875323919
 30
0.0
 10
229.0905928930148
 20
136.9139274953625
 30
0.0
  0
LWPOLYLINE
  5
268
330
1F
100
AcDbEntity
  8
0
  6
HIDDEN
 62
     7
370
     0
100
AcDbPolyline
 90
       12
 70
   128
 43
0.0
 10
224.4102158963
 20
133.189693824
 10
224.8349320475
 20
132.7148719104
 10
225.1489108856
 20
132.2919761658
 10
225.3267157125
 20
131.9552670883
 10
225.3539418384
 20
131.732022845
 10
225.2283835647
 20
131.6403293567
 10
224.9602128759
 20
131.6876150846
 10
224.5711553664
 20
131.8700492201
 10
224.0927301617
 20
132.1728520347
 10
223.5636964266
 20
132.5714922451
 10
223.0269133282
 20
133.0336743922
 10
222.5258678406
 20
133.5219552273
  0
LINE
  5
269
330
1F
100
AcDbEntity
  8
0
  6
HIDDEN
 62
     7
370
     0
100
AcDbLine
 10
96.5079447403
 20
129.277619965
 30
0.0
 11
104.6079447403
 21
129.277619965
 31
0.0
  0
SPLINE
  5
26A
330
1F
100
AcDbEntity
  8
0
  6
HIDDEN
 62
     7
370
     0
100
AcDbSpline
210
0.0
220
0.0
230
1.0
 70
     8
 71
     3
 72
    60
 73
    56
 74
     0
 42
0.00000001
 43
0.00000001
 12
1.0
 22
0.0
 32
0.0
 13
1.0
 23
0.0
 33
0.0
 40
-0.0312500000000002
 40
-0.0312500000000002
 40
0.0
 40
0.0
 40
0.0312499999999979
 40
0.0312499999999979
 40
0.0624999999999958
 40
0.0624999999999958
 40
0.1249999999999939
 40
0.1249999999999939
 40
0.1562499999999938
 40
0.1562499999999938
 40
0.1874999999999938
 40
0.1874999999999938
 40
0.2187499999999938
 40
0.2187499999999938
 40
0.2499999999999937
 40
0.2499999999999937
 40
0.3124999999999936
 40
0.3124999999999936
 40
0.3749999999999935
 40
0.3749999999999935
 40
0.4062499999999934
 40
0.4062499999999934
 40
0.4374999999999934
 40
0.4374999999999934
 40
0.4687499999999934
 40
0.4687499999999934
 40
0.4999999999999933
 40
0.4999999999999933
 40
0.5312499999999933
 40
0.5312499999999933
 40
0.5624999999999933
 40
0.5624999999999933
 40
0.6249999999999932
 40
0.6249999999999932
 40
0.6562499999999941
 40
0.6562499999999941
 40
0.6874999999999949
 40
0.6874999999999949
 40
0.7187499999999957
 40
0.7187499999999957
 40
0.7499999999999964
 40
0.7499999999999964
 40
0.7812499999999972
 40
0.7812499999999972
 40
0.812499999999998
 40
0.812499999999998
 40
0.8749999999999987
 40
0.8749999999999987
 40
0.9062499999999991
 40
0.9062499999999991
 40
0.9374999999999994
 40
0.9374999999999994
 40
0.9687499999999998
 40
0.9687499999999998
 40
1.0
 40
1.0
 40
1.031249999999998
 40
1.031249999999998
 10
182.8884171437253
 20
152.7123077165581
 30
0.0
 10
183.2274723368664
 20
152.712307716558
 30
0.0
 10
183.393070184574
 20
152.7248808289752
 30
0.0
 10
183.7171902612467
 20
152.7712849166541
 30
0.0
 10
183.8770003255723
 20
152.8056123795351
 30
0.0
 10
184.3263419281137
 20
152.9275260441484
 30
0.0
 10
184.5960246678891
 20
153.03542288699
 30
0.0
 10
184.9342094566466
 20
153.1898120568082
 30
0.0
 10
185.0377758902704
 20
153.2410105378993
 30
0.0
 10
185.2182273525704
 20
153.3341131016718
 30
0.0
 10
185.2953493188327
 20
153.376068167502
 30
0.0
 10
185.4227672036398
 20
153.4469563096598
 30
0.0
 10
185.473231396441
 20
153.4760150350494
 30
0.0
 10
185.5400728091234
 20
153.5148003025733
 30
0.0
 10
185.5573910106725
 20
153.5250502231223
 30
0.0
 10
185.5590134026059
 20
153.5260045680899
 30
0.0
 10
185.4905254320622
 20
153.4847489321389
 30
0.0
 10
185.2364751256914
 20
153.3432214143972
 30
0.0
 10
185.0518922263361
 20
153.2437932353355
 30
0.0
 10
184.7145237559129
 20
153.0893969648943
 30
0.0
 10
184.5905345869461
 20
153.0365113088758
 30
0.0
 10
184.3243658417286
 20
152.9361313306311
 30
0.0
 10
184.1838291609046
 20
152.8891858238694
 30
0.0
 10
183.8861708256066
 20
152.8077921945915
 30
0.0
 10
183.7267034480641
 20
152.773060003927
 30
0.0
 10
183.4010860639305
 20
152.7256370271226
 30
0.0
 10
183.2351190815434
 20
152.7126988718741
 30
0.0
 10
182.8962858354803
 20
152.7119340716615
 30
0.0
 10
182.7292951566451
 20
152.7242212317446
 30
0.0
 10
182.4036702428544
 20
152.7703149117204
 30
0.0
 10
182.2435390702973
 20
152.8045166608995
 30
0.0
 10
181.7928339109391
 20
152.9263094958318
 30
0.0
 10
181.5225754097883
 20
153.034264213572
 30
0.0
 10
181.1828606808865
 20
153.1892341106106
 30
0.0
 10
181.0789020370111
 20
153.240617988945
 30
0.0
 10
180.8985929443895
 20
153.3336187450543
 30
0.0
 10
180.8211592357969
 20
153.3757259324787
 30
0.0
 10
180.6929103809523
 20
153.4470720206513
 30
0.0
 10
180.6425950900355
 20
153.4760515018256
 30
0.0
 10
180.5758468435441
 20
153.514782881092
 30
0.0
 10
180.5583733343479
 20
153.5251238316964
 30
0.0
 10
180.5575315518175
 20
153.525618996893
 30
0.0
 10
180.5742916493494
 20
153.5156962357107
 30
0.0
 10
180.6400437928534
 20
153.4775216449089
 30
0.0
 10
180.6898986536269
 20
153.4487854553263
 30
0.0
 10
180.8808634391944
 20
153.3424389728084
 30
0.0
 10
181.0661595721643
 20
153.2426578558204
 30
0.0
 10
181.4050484729842
 20
153.0877860060245
 30
0.0
 10
181.5302303953874
 20
153.0345288689251
 30
0.0
 10
181.7961655313607
 20
152.9345297211958
 30
0.0
 10
181.9370211147595
 20
152.8876023348033
 30
0.0
 10
182.2366877112436
 20
152.8061227250194
 30
0.0
 10
182.3970658933783
 20
152.7715796734685
 30
0.0
 10
182.7218030334269
 20
152.7249659072591
 30
0.0
 10
182.8884171437253
 20
152.7123077165581
 30
0.0
 10
183.2274723368664
 20
152.712307716558
 30
0.0
  0
LINE
  5
26B
330
1F
100
AcDbEntity
  8
0
  6
HIDDEN
 62
     7
370
     0
100
AcDbLine
 10
187.0579447403
 20
145.0253759453
 30
0.0
 11
187.0579447403
 21
153.5253759453
 31
0.0
  0
SPLINE
  5
26C
330
1F
100
AcDbEntity
  8
0
  6
HIDDEN
 62
     7
370
     0
100
AcDbSpline
210
0.0
220
0.0
230
1.0
 70
     8
 71
     3
 72
     8
 73
     4
 74
     0
 42
0.00000001
 43
0.00000001
 12
1.0
 22
0.0
 32
0.0
 13
1.0
 23
0.0
 33
0.0
 40
0.0
 40
0.0
 40
0.0
 40
0.0
 40
1.0
 40
1.0
 40
1.0
 40
1.0
 10
79.55794474029574
 20
129.778386332139
 30
0.0
 10
79.03045289845221
 20
130.045436364221
 30
0.0
 10
78.5247053516729
 20
130.297367139312
 30
0.0
 10
78.05794474029575
 20
130.5268966316958
 30
0.0
  0
LINE
  5
26D
330
1F
100
AcDbEntity
  8
0
  6
HIDDEN
 62
     7
370
     0
100
AcDbLine
 10
84.5079447403
 20
129.6691126549
 30
0.0
 11
84.5079447403
 21
131.2753759453
 31
0.0
  0
LINE
  5
26E
330
1F
100
AcDbEntity
  8
0
  6
HIDDEN
 62
     7
370
     0
100
AcDbLine
 10
78.0579447403
 20
130.5268966317
 30
0.0
 11
78.0579447403
 21
131.2753759453
 31
0.0
  0
LINE
  5
26F
330
1F
100
AcDbEntity
  8
0
  6
HIDDEN
 62
     7
370
     0
100
AcDbLine
 10
96.5079447403
 20
166.7753759453
 30
0.0
 11
104.6079447403
 21
166.7753759453
 31
0.0
  0
LINE
  5
270
330
1F
100
AcDbEntity
  8
0
  6
HIDDEN
 62
     7
370
     0
100
AcDbLine
 10
227.4158343455
 20
137.2092326135
 30
0.0
 11
233.4998108567
 21
136.1364634045
 31
0.0
  0
LINE
  5
271
330
1F
100
AcDbEntity
  8
0
  6
HIDDEN
 62
     7
370
     0
100
AcDbLine
 10
228.023275672
 20
139.6425306742
 30
0.0
 11
228.5612703939
 21
142.69365036
 31
0.0
  0
LINE
  5
272
330
1F
100
AcDbEntity
  8
0
  6
HIDDEN
 62
     7
370
     0
100
AcDbLine
 10
228.5612703939
 20
142.69365036
 30
0.0
 11
234.454494831
 21
141.6545158884
 31
0.0
  0
LINE
  5
273
330
1F
100
AcDbEntity
  8
0
  6
HIDDEN
 62
     7
370
     0
100
AcDbLine
 10
230.4456184497
 20
142.3613889567
 30
0.0
 11
229.9076237277
 21
139.3102692709
 31
0.0
  0
LINE
  5
274
330
1F
100
AcDbEntity
  8
0
  6
HIDDEN
 62
     7
370
     0
100
AcDbLine
 10
180.0579447403
 20
173.7753759453
 30
0.0
 11
186.0579447403
 21
173.7753759453
 31
0.0
  0
LINE
  5
275
330
1F
100
AcDbEntity
  8
0
  6
HIDDEN
 62
     7
370
     0
100
AcDbLine
 10
180.5579447403
 20
173.4749456358
 30
0.0
 11
185.5579447403
 21
173.4749456358
 31
0.0
  0
LINE
  5
276
330
1F
100
AcDbEntity
  8
0
  6
HIDDEN
 62
     7
370
     0
100
AcDbLine
 10
183.3911945057
 20
169.987436935
 30
0.0
 11
185.5579447403
 21
171.561673128
 31
0.0
  0
SPLINE
  5
277
330
1F
100
AcDbEntity
  8
0
  6
HIDDEN
 62
     7
370
     0
100
AcDbSpline
210
0.0
220
0.0
230
1.0
 70
     8
 71
     3
 72
     8
 73
     4
 74
     0
 42
0.00000001
 43
0.00000001
 12
1.0
 22
0.0
 32
0.0
 13
1.0
 23
0.0
 33
0.0
 40
0.0
 40
0.0
 40
0.0
 40
0.0
 40
1.0
 40
1.0
 40
1.0
 40
1.0
 10
183.2338553094557
 20
169.5031966810048
 30
0.0
 10
183.2774713171751
 20
169.6664928168639
 30
0.0
 10
183.3307535096411
 20
169.829521079142
 30
0.0
 10
183.3911945056954
 20
169.987436935024
 30
0.0
  0
LINE
  5
278
330
1F
100
AcDbEntity
  8
0
  6
HIDDEN
 62
     7
370
     0
100
AcDbLine
 10
183.2338553095
 20
169.503196681
 30
0.0
 11
185.5579447403
 21
166.3043620068
 31
0.0
  0
SPLINE
  5
279
330
1F
100
AcDbEntity
  8
0
  6
HIDDEN
 62
     7
370
     0
100
AcDbSpline
210
0.0
220
0.0
230
1.0
 70
     8
 71
     3
 72
     8
 73
     4
 74
     0
 42
0.00000001
 43
0.00000001
 12
1.0
 22
0.0
 32
0.0
 13
1.0
 23
0.0
 33
0.0
 40
0.0
 40
0.0
 40
0.0
 40
0.0
 40
1.0
 40
1.0
 40
1.0
 40
1.0
 10
183.3911945056954
 20
169.987436935024
 30
0.0
 10
183.3303698982542
 20
169.8285188071007
 30
0.0
 10
183.2773928149697
 20
169.6661989085613
 30
0.0
 10
183.2338553094557
 20
169.5031966810048
 30
0.0
  0
LINE
  5
27A
330
1F
100
AcDbEntity
  8
0
  6
HIDDEN
 62
     7
370
     0
100
AcDbLine
 10
183.3911945057
 20
169.987436935
 30
0.0
 11
183.2338553095
 21
169.503196681
 31
0.0
  0
LINE
  5
27B
330
1F
100
AcDbEntity
  8
0
  6
HIDDEN
 62
     7
370
     0
100
AcDbLine
 10
183.2338553095
 20
169.503196681
 30
0.0
 11
183.3911945057
 21
169.987436935
 31
0.0
  0
LINE
  5
27C
330
1F
100
AcDbEntity
  8
0
  6
HIDDEN
 62
     7
370
     0
100
AcDbLine
 10
195.103631108
 20
168.4600916131
 30
0.0
 11
196.6466627523
 21
162.7014191188
 31
0.0
  0
LINE
  5
27D
330
1F
100
AcDbEntity
  8
0
  6
HIDDEN
 62
     7
370
     0
100
AcDbLine
 10
228.5612703939
 20
142.69365036
 30
0.0
 11
220.9280573583
 21
144.0395917677
 31
0.0
  0
LINE
  5
27E
330
1F
100
AcDbEntity
  8
0
  6
HIDDEN
 62
     7
370
     0
100
AcDbLine
 10
220.9280573583
 20
144.0395917677
 30
0.0
 11
221.0250160065
 21
144.589471586
 31
0.0
  0
LINE
  5
27F
330
1F
100
AcDbEntity
  8
0
  6
HIDDEN
 62
     7
370
     0
100
AcDbLine
 10
222.5258678406
 20
133.5219552273
 30
0.0
 11
218.1516282478
 21
138.0726322033
 31
0.0
  0
LINE
  5
280
330
1F
100
AcDbEntity
  8
0
  6
HIDDEN
 62
     7
370
     0
100
AcDbLine
 10
126.0579447403
 20
118.2753759453
 30
0.0
 11
130.0579447403
 21
118.2753759453
 31
0.0
  0
LINE
  5
281
330
1F
100
AcDbEntity
  8
0
  6
HIDDEN
 62
     7
370
     0
100
AcDbLine
 10
219.5113427669
 20
144.2893967741
 30
0.0
 11
216.4883058956
 21
144.8224397382
 31
0.0
  0
LINE
  5
282
330
1F
100
AcDbEntity
  8
0
  6
HIDDEN
 62
     7
370
     0
100
AcDbLine
 10
221.112378965
 20
153.369324257
 30
0.0
 11
218.1120583459
 21
153.8983617329
 31
0.0
  0
LINE
  5
283
330
1F
100
AcDbEntity
  8
0
  6
HIDDEN
 62
     7
370
     0
100
AcDbLine
 10
242.6336582939
 20
140.2123086902
 30
0.0
 11
238.6776365193
 21
117.7765943219
 31
0.0
  0
LINE
  5
284
330
1F
100
AcDbEntity
  8
0
  6
HIDDEN
 62
     7
370
     0
100
AcDbLine
 10
230.4677442356
 20
142.3574875837
 30
0.0
 11
242.6336582939
 21
140.2123086902
 31
0.0
  0
LINE
  5
285
330
1F
100
AcDbEntity
  8
0
  6
HIDDEN
 62
     7
370
     0
100
AcDbLine
 10
232.0687804337
 20
151.4374150666
 30
0.0
 11
201.8222951326
 21
156.7706864968
 31
0.0
  0
ARC
  5
286
330
1F
100
AcDbEntity
  8
0
  6
HIDDEN
 62
     7
370
     0
100
AcDbCircle
 10
202.8641841986
 20
162.6795330148
 30
0.0
 40
6.000000000000016
100
AcDbArc
 50
195.0
 51
260.0
  0
LINE
  5
287
330
1F
100
AcDbEntity
  8
0
  6
HIDDEN
 62
     7
370
     0
100
AcDbLine
 10
197.0686292409
 20
161.1266187442
 30
0.0
 11
195.7451223255
 21
166.0660137966
 31
0.0
  0
LINE
  5
288
330
1F
100
AcDbEntity
  8
0
  6
HIDDEN
 62
     7
370
     0
100
AcDbLine
 10
222.2565450237
 20
143.8053435487
 30
0.0
 11
223.8575812218
 21
152.8852710316
 31
0.0
  0
LINE
  5
289
330
1F
100
AcDbEntity
  8
0
  6
HIDDEN
 62
     7
370
     0
100
AcDbLine
 10
222.2565450237
 20
143.8053435487
 30
0.0
 11
219.5113427669
 21
144.2893967741
 31
0.0
  0
LINE
  5
28A
330
1F
100
AcDbEntity
  8
0
  6
HIDDEN
 62
     7
370
     0
100
AcDbLine
 10
223.8575812218
 20
152.8852710316
 30
0.0
 11
221.112378965
 21
153.369324257
 31
0.0
  0
LINE
  5
28B
330
1F
100
AcDbEntity
  8
0
  6
HIDDEN
 62
     7
370
     0
100
AcDbLine
 10
232.0687804337
 20
151.4374150666
 30
0.0
 11
230.4677442356
 21
142.3574875837
 31
0.0
  0
LINE
  5
28C
330
1F
100
AcDbEntity
  8
0
  6
HIDDEN
 62
     7
370
     0
100
AcDbLine
 10
230.4677442356
 20
142.3574875837
 30
0.0
 11
222.2565450237
 21
143.8053435487
 31
0.0
  0
LINE
  5
28D
330
1F
100
AcDbEntity
  8
0
  6
HIDDEN
 62
     7
370
     0
100
AcDbLine
 10
232.0687804337
 20
151.4374150666
 30
0.0
 11
223.8575812218
 21
152.8852710316
 31
0.0
  0
LINE
  5
28E
330
1F
100
AcDbEntity
  8
0
  6
HIDDEN
 62
     7
370
     0
100
AcDbLine
 10
78.0579447403
 20
134.314131307
 30
0.0
 11
78.0579447403
 21
130.5268966317
 31
0.0
  0
LINE
  5
28F
330
1F
100
AcDbEntity
  8
0
  6
HIDDEN
 62
     7
370
     0
100
AcDbLine
 10
78.0579447403
 20
169.4614917143
 30
0.0
 11
78.0579447403
 21
144.0505048147
 31
0.0
  0
LINE
  5
290
330
1F
100
AcDbEntity
  8
0
  6
HIDDEN
 62
     7
370
     0
100
AcDbLine
 10
79.5579447403
 20
170.2114917143
 30
0.0
 11
79.5579447403
 21
144.0505048147
 31
0.0
  0
LINE
  5
291
330
1F
100
AcDbEntity
  8
0
  6
HIDDEN
 62
     7
370
     0
100
AcDbLine
 10
115.8579447403
 20
170.6935130396
 30
0.0
 11
115.8579447403
 21
144.6474402048
 31
0.0
  0
LINE
  5
292
330
1F
100
AcDbEntity
  8
0
  6
HIDDEN
 62
     7
370
     0
100
AcDbLine
 10
113.8579447403
 20
170.9577764519
 30
0.0
 11
113.8579447403
 21
144.0505048147
 31
0.0
  0
LINE
  5
293
330
1F
100
AcDbEntity
  8
0
  6
HIDDEN
 62
     7
370
     0
100
AcDbLine
 10
78.0579447403
 20
144.0505048147
 30
0.0
 11
78.0579447403
 21
134.314131307
 31
0.0
  0
LINE
  5
294
330
1F
100
AcDbEntity
  8
0
  6
HIDDEN
 62
     7
370
     0
100
AcDbLine
 10
79.5579447403
 20
144.0505048147
 30
0.0
 11
79.5579447403
 21
133.564131307
 31
0.0
  0
LINE
  5
295
330
1F
100
AcDbEntity
  8
0
  6
HIDDEN
 62
     7
370
     0
100
AcDbLine
 10
113.8579447403
 20
144.0505048147
 30
0.0
 11
113.8579447403
 21
132.8178465694
 31
0.0
  0
SPLINE
  5
296
330
1F
100
AcDbEntity
  8
0
  6
HIDDEN
 62
     7
370
     0
100
AcDbSpline
210
0.0
220
0.0
230
1.0
 70
     8
 71
     3
 72
    16
 73
    12
 74
     0
 42
0.00000001
 43
0.00000001
 12
1.0
 22
0.0
 32
0.0
 13
1.0
 23
0.0
 33
0.0
 40
0.0
 40
0.0
 40
0.0
 40
0.0
 40
0.2499999999999997
 40
0.2499999999999997
 40
0.3749999999999997
 40
0.3749999999999997
 40
0.4999999999999998
 40
0.4999999999999998
 40
0.7499999999999999
 40
0.7499999999999999
 40
1.0
 40
1.0
 40
1.0
 40
1.0
 10
114.736624396736
 20
142.6948921352399
 30
0.0
 10
114.5753919192516
 20
141.8133914709597
 30
0.0
 10
114.4549120796119
 20
140.9511647103085
 30
0.0
 10
114.3325315622986
 20
139.6870272602992
 30
0.0
 10
114.3015539019012
 20
139.2705489625585
 30
0.0
 10
114.2599401642732
 20
138.4478977882716
 30
0.0
 10
114.2497042513404
 20
138.0495381635044
 30
0.0
 10
114.2495158542843
 20
136.8929135201055
 30
0.0
 10
114.2896605569219
 20
136.1722786072769
 30
0.0
 10
114.4538143118615
 20
134.8344767654091
 30
0.0
 10
114.575365962271
 20
134.2378936663367
 30
0.0
 10
114.736624396736
 20
133.7121747009162
 30
0.0
  0
LINE
  5
297
330
1F
100
AcDbEntity
  8
0
  6
HIDDEN
 62
     7
370
     0
100
AcDbLine
 10
116.0579447403
 20
125.0253759453
 30
0.0
 11
116.1508379591
 21
125.1182691642
 31
0.0
  0
LINE
  5
298
330
1F
100
AcDbEntity
  8
0
  6
HIDDEN
 62
     7
370
     0
100
AcDbLine
 10
116.1508379591
 20
173.4324827265
 30
0.0
 11
116.0579447403
 21
173.5253759453
 31
0.0
  0
ARC
  5
299
330
1F
100
AcDbEntity
  8
0
  6
HIDDEN
 62
     7
370
     0
100
AcDbCircle
 10
115.4437311779
 20
125.8253759453
 30
0.0
 40
0.999999999999998
100
AcDbArc
 50
315.0
 51
0.0
  0
ARC
  5
29A
330
1F
100
AcDbEntity
  8
0
  6
HIDDEN
 62
     7
370
     0
100
AcDbCircle
 10
115.4437311779
 20
125.8253759453
 30
0.0
 40
0.9999999999999877
100
AcDbArc
 50
0.0
 51
52.1052014664
  0
ARC
  5
29B
330
1F
100
AcDbEntity
  8
0
  6
HIDDEN
 62
     7
370
     0
100
AcDbCircle
 10
115.4437311779
 20
172.7253759453
 30
0.0
 40
1.000000000000008
100
AcDbArc
 50
343.125
 51
45.0
  0
ARC
  5
29C
330
1F
100
AcDbEntity
  8
0
  6
HIDDEN
 62
     7
370
     0
100
AcDbCircle
 10
115.4437311779
 20
172.7253759453
 30
0.0
 40
1.000000000000008
100
AcDbArc
 50
307.8947985336
 51
343.125
  0
LINE
  5
29D
330
1F
100
AcDbEntity
  8
0
  6
HIDDEN
 62
     7
370
     0
100
AcDbLine
 10
116.4437311779
 20
125.8253759453
 30
0.0
 11
116.4437311779
 21
172.7253759453
 31
0.0
  0
LINE
  5
29E
330
1F
100
AcDbEntity
  8
0
  6
HIDDEN
 62
     7
370
     0
100
AcDbLine
 10
116.4437311779
 20
125.8253759453
 30
0.0
 11
116.4437311779
 21
172.7253759453
 31
0.0
  0
LINE
  5
29F
330
1F
100
AcDbEntity
  8
0
  6
HIDDEN
 62
     7
370
     0
100
AcDbLine
 10
78.0579447403
 20
133.0789471009
 30
0.0
 11
79.5881731799
 21
133.9624249024
 31
0.0
  0
LINE
  5
2A0
330
1F
100
AcDbEntity
  8
0
  6
HIDDEN
 62
     7
370
     0
100
AcDbLine
 10
79.5881731799
 20
164.5883269883
 30
0.0
 11
78.0579447403
 21
165.4718047898
 31
0.0
  0
LINE
  5
2A1
330
1F
100
AcDbEntity
  8
0
  6
HIDDEN
 62
     7
370
     0
100
AcDbLine
 10
88.0579447403
 20
133.2753759453
 30
0.0
 11
89.0597460552
 21
133.2753759453
 31
0.0
  0
LINE
  5
2A2
330
1F
100
AcDbEntity
  8
0
  6
HIDDEN
 62
     7
370
     0
100
AcDbLine
 10
89.0597460552
 20
165.2753759453
 30
0.0
 11
88.0579447403
 21
165.2753759453
 31
0.0
  0
ARC
  5
2A3
330
1F
100
AcDbEntity
  8
0
  6
HIDDEN
 62
     7
370
     0
100
AcDbCircle
 10
89.0597460552
 20
135.2753759453
 30
0.0
 40
2.000000000000006
100
AcDbArc
 50
270.0
 51
315.0
  0
ARC
  5
2A4
330
1F
100
AcDbEntity
  8
0
  6
HIDDEN
 62
     7
370
     0
100
AcDbCircle
 10
89.0597460552
 20
163.2753759453
 30
0.0
 40
2.000000000000057
100
AcDbArc
 50
45.0
 51
90.0
  0
ARC
  5
2A5
330
1F
100
AcDbEntity
  8
0
  6
HIDDEN
 62
     7
370
     0
100
AcDbCircle
 10
88.0579447403
 20
135.2753759453
 30
0.0
 40
2.000000000000057
100
AcDbArc
 50
189.9742217944
 51
270.0
  0
ARC
  5
2A6
330
1F
100
AcDbEntity
  8
0
  6
HIDDEN
 62
     7
370
     0
100
AcDbCircle
 10
88.0579447403
 20
163.2753759453
 30
0.0
 40
2.000000000000028
100
AcDbArc
 50
90.0
 51
170.0257782056
  0
LINE
  5
2A7
330
1F
100
AcDbEntity
  8
0
  6
HIDDEN
 62
     7
370
     0
100
AcDbLine
 10
90.4739596176
 20
133.861162383
 30
0.0
 11
91.8881731799
 21
135.2753759453
 31
0.0
  0
LINE
  5
2A8
330
1F
100
AcDbEntity
  8
0
  6
HIDDEN
 62
     7
370
     0
100
AcDbLine
 10
91.8881731799
 20
163.2753759453
 30
0.0
 11
90.4739596176
 21
164.6895895077
 31
0.0
  0
LINE
  5
2A9
330
1F
100
AcDbEntity
  8
0
  6
HIDDEN
 62
     7
370
     0
100
AcDbLine
 10
79.5881731799
 20
133.9624249024
 30
0.0
 11
84.4881731799
 21
135.2753759453
 31
0.0
  0
LINE
  5
2AA
330
1F
100
AcDbEntity
  8
0
  6
HIDDEN
 62
     7
370
     0
100
AcDbLine
 10
84.4881731799
 20
163.2753759453
 30
0.0
 11
79.5881731799
 21
164.5883269883
 31
0.0
  0
LINE
  5
2AB
330
1F
100
AcDbEntity
  8
0
  6
HIDDEN
 62
     7
370
     0
100
AcDbLine
 10
86.0881731799
 20
163.6217861069
 30
0.0
 11
85.4881731799
 21
163.2753759453
 31
0.0
  0
LINE
  5
2AC
330
1F
100
AcDbEntity
  8
0
  6
HIDDEN
 62
     7
370
     0
100
AcDbLine
 10
85.4881731799
 20
135.2753759453
 30
0.0
 11
86.0881731799
 21
134.9289657838
 31
0.0
  0
LINE
  5
2AD
330
1F
100
AcDbEntity
  8
0
  6
HIDDEN
 62
     7
370
     0
100
AcDbLine
 10
84.4881731799
 20
135.2753759453
 30
0.0
 11
85.4881731799
 21
135.2753759453
 31
0.0
  0
LINE
  5
2AE
330
1F
100
AcDbEntity
  8
0
  6
HIDDEN
 62
     7
370
     0
100
AcDbLine
 10
85.4881731799
 20
163.2753759453
 30
0.0
 11
84.4881731799
 21
163.2753759453
 31
0.0
  0
LINE
  5
2AF
330
1F
100
AcDbEntity
  8
0
  6
HIDDEN
 62
     7
370
     0
100
AcDbLine
 10
91.8881731799
 20
135.2753759453
 30
0.0
 11
96.5108425109
 21
135.2753759453
 31
0.0
  0
LINE
  5
2B0
330
1F
100
AcDbEntity
  8
0
  6
HIDDEN
 62
     7
370
     0
100
AcDbLine
 10
96.5223205563
 20
163.2753759453
 30
0.0
 11
91.8881731799
 21
163.2753759453
 31
0.0
  0
ARC
  5
2B1
330
1F
100
AcDbEntity
  8
0
  6
HIDDEN
 62
     7
370
     0
100
AcDbCircle
 10
104.5579447403
 20
135.7753759453
 30
0.0
 40
0.5000000000000057
100
AcDbArc
 50
275.6408087552
 51
0.0
  0
ARC
  5
2B2
330
1F
100
AcDbEntity
  8
0
  6
HIDDEN
 62
     7
370
     0
100
AcDbCircle
 10
104.5579447403
 20
162.7753759453
 30
0.0
 40
0.5000000000000233
100
AcDbArc
 50
0.0
 51
84.9755685961
  0
LINE
  5
2B3
330
1F
100
AcDbEntity
  8
0
  6
HIDDEN
 62
     7
370
     0
100
AcDbLine
 10
213.7238964562
 20
149.5949800104
 30
0.0
 11
208.2139024666
 21
118.3462512708
 31
0.0
  0
LINE
  5
2B4
330
1F
100
AcDbEntity
  8
0
  6
HIDDEN
 62
     7
370
     0
100
AcDbLine
 10
221.6112854456
 20
145.9529137313
 30
0.0
 11
221.9962815815
 21
148.136335318
 31
0.0
  0
LINE
  5
2B5
330
1F
100
AcDbEntity
  8
0
  6
HIDDEN
 62
     7
370
     0
100
AcDbLine
 10
216.7433961403
 20
118.3457416147
 30
0.0
 11
220.1001619993
 21
137.3829068031
 31
0.0
  0
LINE
  5
2B6
330
1F
100
AcDbEntity
  8
0
  6
HIDDEN
 62
     7
370
     0
100
AcDbLine
 10
105.0579447403
 20
139.0253759453
 30
0.0
 11
106.3079447403
 21
140.2753759453
 31
0.0
  0
LINE
  5
2B7
330
1F
100
AcDbEntity
  8
0
  6
HIDDEN
 62
     7
370
     0
100
AcDbLine
 10
106.3079447403
 20
158.2753759453
 30
0.0
 11
105.0579447403
 21
159.5253759453
 31
0.0
  0
LINE
  5
2B8
330
1F
100
AcDbEntity
  8
0
  6
HIDDEN
 62
     7
370
     0
100
AcDbLine
 10
221.9962815815
 20
148.136335318
 30
0.0
 11
221.3799530005
 21
148.6721015796
 31
0.0
  0
LINE
  5
2B9
330
1F
100
AcDbEntity
  8
0
  6
HIDDEN
 62
     7
370
     0
100
AcDbLine
 10
214.4862987294
 20
149.8876388233
 30
0.0
 11
213.7238964562
 21
149.5949800104
 31
0.0
  0
LINE
  5
2BA
330
1F
100
AcDbEntity
  8
0
  6
HIDDEN
 62
     7
370
     0
100
AcDbLine
 10
215.2815027717
 20
154.397465051
 30
0.0
 11
214.4862987294
 21
149.8876388233
 31
0.0
  0
LINE
  5
2BB
330
1F
100
AcDbEntity
  8
0
  6
HIDDEN
 62
     7
370
     0
100
AcDbLine
 10
221.3799530005
 20
148.6721015796
 30
0.0
 11
222.1751570428
 21
153.1819278074
 31
0.0
  0
LINE
  5
2BC
330
1F
100
AcDbEntity
  8
0
  6
HIDDEN
 62
     7
370
     0
100
AcDbLine
 10
143.0579447403
 20
158.2753759453
 30
0.0
 11
106.3079447403
 21
158.2753759453
 31
0.0
  0
LINE
  5
2BD
330
1F
100
AcDbEntity
  8
0
  6
HIDDEN
 62
     7
370
     0
100
AcDbLine
 10
106.3079447403
 20
140.2753759453
 30
0.0
 11
143.0579447403
 21
140.2753759453
 31
0.0
  0
LINE
  5
2BE
330
1F
100
AcDbEntity
  8
0
  6
HIDDEN
 62
     7
370
     0
100
AcDbLine
 10
143.0579447403
 20
140.2753759453
 30
0.0
 11
145.9120326807
 21
145.0253759453
 31
0.0
  0
LINE
  5
2BF
330
1F
100
AcDbEntity
  8
0
  6
HIDDEN
 62
     7
370
     0
100
AcDbLine
 10
145.9120326807
 20
153.5253759453
 30
0.0
 11
143.0579447403
 21
158.2753759453
 31
0.0
  0
LINE
  5
2C0
330
1F
100
AcDbEntity
  8
0
  6
HIDDEN
 62
     7
370
     0
100
AcDbLine
 10
224.048825618
 20
150.4822360338
 30
0.0
 11
221.120586626
 21
147.2220617431
 31
0.0
  0
LINE
  5
2C1
330
1F
100
AcDbEntity
  8
0
  6
HIDDEN
 62
     7
370
     0
100
AcDbLine
 10
225.3279550291
 20
131.6852787961
 30
0.0
 11
229.8965974719
 21
136.7718071415
 31
0.0
  0
LINE
  5
2C2
330
1F
100
AcDbEntity
  8
0
  6
HIDDEN
 62
     7
370
     0
100
AcDbLine
 10
105.0012468818
 20
128.8843178235
 30
0.0
 11
104.6079447403
 21
129.277619965
 31
0.0
  0
LINE
  5
2C3
330
1F
100
AcDbEntity
  8
0
  6
HIDDEN
 62
     7
370
     0
100
AcDbLine
 10
96.5079447403
 20
129.277619965
 30
0.0
 11
96.3267200856
 21
129.0963953103
 31
0.0
  0
LINE
  5
2C4
330
1F
100
AcDbEntity
  8
0
  6
HIDDEN
 62
     7
370
     0
100
AcDbLine
 10
180.5590906843
 20
153.5253759453
 30
0.0
 11
145.9120326807
 21
153.5253759453
 31
0.0
  0
LINE
  5
2C5
330
1F
100
AcDbEntity
  8
0
  6
HIDDEN
 62
     7
370
     0
100
AcDbLine
 10
187.0579447403
 20
153.5253759453
 30
0.0
 11
185.5515155094
 21
153.5253759453
 31
0.0
  0
LINE
  5
2C6
330
1F
100
AcDbEntity
  8
0
  6
HIDDEN
 62
     7
370
     0
100
AcDbLine
 10
145.9120326807
 20
145.0253759453
 30
0.0
 11
187.0579447403
 21
145.0253759453
 31
0.0
  0
LINE
  5
2C7
330
1F
100
AcDbEntity
  8
0
  6
HIDDEN
 62
     7
370
     0
100
AcDbLine
 10
187.0579447403
 20
145.0253759453
 30
0.0
 11
189.6116023712
 21
149.2753759453
 31
0.0
  0
LINE
  5
2C8
330
1F
100
AcDbEntity
  8
0
  6
HIDDEN
 62
     7
370
     0
100
AcDbLine
 10
189.6116023712
 20
149.2753759453
 30
0.0
 11
187.0579447403
 21
153.5253759453
 31
0.0
  0
LINE
  5
2C9
330
1F
100
AcDbEntity
  8
0
  6
HIDDEN
 62
     7
370
     0
100
AcDbLine
 10
84.5079447403
 20
131.2753759453
 30
0.0
 11
78.0579447403
 21
131.2753759453
 31
0.0
  0
LINE
  5
2CA
330
1F
100
AcDbEntity
  8
0
  6
HIDDEN
 62
     7
370
     0
100
AcDbLine
 10
86.4304700996
 20
129.3528505861
 30
0.0
 11
84.5079447403
 21
131.2753759453
 31
0.0
  0
LINE
  5
2CB
330
1F
100
AcDbEntity
  8
0
  6
HIDDEN
 62
     7
370
     0
100
AcDbLine
 10
104.6079447403
 20
163.2716357196
 30
0.0
 11
104.6079447403
 21
166.7753759453
 31
0.0
  0
LINE
  5
2CC
330
1F
100
AcDbEntity
  8
0
  6
HIDDEN
 62
     7
370
     0
100
AcDbLine
 10
96.5079447403
 20
166.7753759453
 30
0.0
 11
96.5079447403
 21
163.2712249458
 31
0.0
  0
LINE
  5
2CD
330
1F
100
AcDbEntity
  8
0
  6
HIDDEN
 62
     7
370
     0
100
AcDbLine
 10
104.6079447403
 20
129.277619965
 30
0.0
 11
104.6079447403
 21
135.2780116144
 31
0.0
  0
LINE
  5
2CE
330
1F
100
AcDbEntity
  8
0
  6
HIDDEN
 62
     7
370
     0
100
AcDbLine
 10
96.5079447403
 20
135.2762136583
 30
0.0
 11
96.5079447403
 21
129.277619965
 31
0.0
  0
LINE
  5
2CF
330
1F
100
AcDbEntity
  8
0
  6
HIDDEN
 62
     7
370
     0
100
AcDbLine
 10
104.6079447403
 20
166.7753759453
 30
0.0
 11
100.5579447403
 21
169.2088614524
 31
0.0
  0
LINE
  5
2D0
330
1F
100
AcDbEntity
  8
0
  6
HIDDEN
 62
     7
370
     0
100
AcDbLine
 10
100.5579447403
 20
169.2088614524
 30
0.0
 11
96.5079447403
 21
166.7753759453
 31
0.0
  0
LINE
  5
2D1
330
1F
100
AcDbEntity
  8
0
  6
HIDDEN
 62
     7
370
     0
100
AcDbLine
 10
233.4998108567
 20
136.1364634045
 30
0.0
 11
234.4722406516
 21
141.6513868214
 31
0.0
  0
LINE
  5
2D2
330
1F
100
AcDbEntity
  8
0
  6
HIDDEN
 62
     7
370
     0
100
AcDbLine
 10
180.0579447403
 20
180.7753759453
 30
0.0
 11
180.0579447403
 21
173.7753759453
 31
0.0
  0
LINE
  5
2D3
330
1F
100
AcDbEntity
  8
0
  6
HIDDEN
 62
     7
370
     0
100
AcDbLine
 10
186.0579447403
 20
173.7753759453
 30
0.0
 11
186.0579447403
 21
180.7753759453
 31
0.0
  0
LINE
  5
2D4
330
1F
100
AcDbEntity
  8
0
  6
HIDDEN
 62
     7
370
     0
100
AcDbLine
 10
180.0579447403
 20
173.7753759453
 30
0.0
 11
180.5579447403
 21
173.4749456358
 31
0.0
  0
LINE
  5
2D5
330
1F
100
AcDbEntity
  8
0
  6
HIDDEN
 62
     7
370
     0
100
AcDbLine
 10
185.5579447403
 20
173.4749456358
 30
0.0
 11
186.0579447403
 21
173.7753759453
 31
0.0
  0
LINE
  5
2D6
330
1F
100
AcDbEntity
  8
0
  6
HIDDEN
 62
     7
370
     0
100
AcDbLine
 10
180.5579447403
 20
173.4749456358
 30
0.0
 11
180.5579447403
 21
153.5247078415
 31
0.0
  0
LINE
  5
2D7
330
1F
100
AcDbEntity
  8
0
  6
HIDDEN
 62
     7
370
     0
100
AcDbLine
 10
185.5579447403
 20
171.561673128
 30
0.0
 11
185.5579447403
 21
173.4749456358
 31
0.0
  0
LINE
  5
2D8
330
1F
100
AcDbEntity
  8
0
  6
HIDDEN
 62
     7
370
     0
100
AcDbLine
 10
185.5579447403
 20
153.5216081236
 30
0.0
 11
185.5579447403
 21
166.3043620068
 31
0.0
  0
LINE
  5
2D9
330
1F
100
AcDbEntity
  8
0
  6
HIDDEN
 62
     7
370
     0
100
AcDbLine
 10
185.5579447403
 20
166.3043620068
 30
0.0
 11
196.6466627523
 21
162.7014191188
 31
0.0
  0
LINE
  5
2DA
330
1F
100
AcDbEntity
  8
0
  6
HIDDEN
 62
     7
370
     0
100
AcDbLine
 10
195.103631108
 20
168.4600916131
 30
0.0
 11
185.5579447403
 21
171.561673128
 31
0.0
  0
LINE
  5
2DB
330
1F
100
AcDbEntity
  8
0
  6
HIDDEN
 62
     7
370
     0
100
AcDbLine
 10
130.0579447403
 20
118.2753759453
 30
0.0
 11
128.0579447403
 21
119.4770971834
 31
0.0
  0
LINE
  5
2DC
330
1F
100
AcDbEntity
  8
0
  6
HIDDEN
 62
     7
370
     0
100
AcDbLine
 10
128.0579447403
 20
119.4770971834
 30
0.0
 11
126.0579447403
 21
118.2753759453
 31
0.0
  0
LINE
  5
2DD
330
1F
100
AcDbEntity
  8
0
  6
HIDDEN
 62
     7
370
     0
100
AcDbLine
 10
126.0579447403
 20
118.2753759453
 30
0.0
 11
126.0579447403
 21
117.7753759453
 31
0.0
  0
LINE
  5
2DE
330
1F
100
AcDbEntity
  8
0
  6
HIDDEN
 62
     7
370
     0
100
AcDbLine
 10
130.0579447403
 20
117.7753759453
 30
0.0
 11
130.0579447403
 21
118.2753759453
 31
0.0
  0
LINE
  5
2DF
330
1F
100
AcDbEntity
  8
0
  6
HIDDEN
 62
     7
370
     0
100
AcDbLine
 10
218.0893420937
 20
153.9023672211
 30
0.0
 11
216.4883058956
 21
144.8224397382
 31
0.0
  0
LINE
  5
2E0
330
1F
100
AcDbEntity
  8
VERMASSUNG
  6
CENTERX2
100
AcDbLine
 10
73.8079338804
 20
149.2753759453
 30
0.0
 11
249.4769004604
 21
149.2753759453
 31
0.0
  0
LINE
  5
2E1
330
1F
100
AcDbEntity
  8
VERMASSUNG
100
AcDbLine
 10
246.0579447403
 20
149.2753759453
 30
0.0
 11
246.0579447403
 21
154.4154906837
 31
0.0
  0
DIMENSION
  5
2E2
330
1F
100
AcDbEntity
  8
VERMASSUNG
100
AcDbDimension
  2
_D_1
 10
246.0579447403
 20
190.7753759453
 30
0.0
 11
181.0579447403
 21
190.7753759453
 31
0.0
 70
   160
  1
<>
 71
     2
 42
-1.0
  3
SLDDIMSTYLE0
100
AcDbAlignedDimension
 13
116.0579447403
 23
180.2753759453
 33
0.0
 14
246.0579447403
 24
154.4154906837
 34
0.0
100
AcDbRotatedDimension
  0
DIMENSION
  5
2EC
330
1F
100
AcDbEntity
  8
VERMASSUNG
100
AcDbDimension
  2
_D_2
 10
246.0579447403
 20
196.7753759453
 30
0.0
 11
162.0579447403
 21
196.7753759453
 31
0.0
 70
   160
  1
<>
 71
     2
 42
-1.0
  3
SLDDIMSTYLE0
100
AcDbAlignedDimension
 13
78.0579447403
 23
169.4614917143
 33
0.0
 14
246.0579447403
 24
154.4154906837
 34
0.0
 50
0.0
100
AcDbRotatedDimension
  0
OLE2FRAME
  5
2F6
330
1F
100
AcDbEntity
  8
0
100
AcDbOle2Frame
 70
     2
  3
Paintbrush-Bild
 10
13.8511154363
 20
38.264191557
 30
0.0
 11
51.6290888628
 21
31.9806341108
 31
0.0
 71
     2
 72
     0
 73
     1
 90
    12928
310
80552BED0767C5B32B40DDAF6807D121434000000000000000006FFBDDFB85D0
310
4940DDAF6807D121434000000000000000006FFBDDFB85D04940416F4BD60AFB
310
3F4000000000000000002BED0767C5B32B40416F4BD60AFB3F40000000000000
310
0000000000000100000000010000010000000100000000000100000000320000
310
D0CF11E0A1B11AE1000000000000000000000000000000003E000300FEFF0900
310
0600000000000000000000000100000001000000000000000010000002000000
310
01000000FEFFFFFF0000000000000000FFFFFFFFFFFFFFFFFFFFFFFFFFFFFFFF
310
FFFFFFFFFFFFFFFFFFFFFFFFFFFFFFFFFFFFFFFFFFFFFFFFFFFFFFFFFFFFFFFF
310
FFFFFFFFFFFFFFFFFFFFFFFFFFFFFFFFFFFFFFFFFFFFFFFFFFFFFFFFFFFFFFFF
310
FFFFFFFFFFFFFFFFFFFFFFFFFFFFFFFFFFFFFFFFFFFFFFFFFFFFFFFFFFFFFFFF
310
FFFFFFFFFFFFFFFFFFFFFFFFFFFFFFFFFFFFFFFFFFFFFFFFFFFFFFFFFFFFFFFF
310
FFFFFFFFFFFFFFFFFFFFFFFFFFFFFFFFFFFFFFFFFFFFFFFFFFFFFFFFFFFFFFFF
310
FFFFFFFFFFFFFFFFFFFFFFFFFFFFFFFFFFFFFFFFFFFFFFFFFFFFFFFFFFFFFFFF
310
FFFFFFFFFFFFFFFFFFFFFFFFFFFFFFFFFFFFFFFFFFFFFFFFFFFFFFFFFFFFFFFF
310
FFFFFFFFFFFFFFFFFFFFFFFFFFFFFFFFFFFFFFFFFFFFFFFFFFFFFFFFFFFFFFFF
310
FFFFFFFFFFFFFFFFFFFFFFFFFFFFFFFFFFFFFFFFFFFFFFFFFFFFFFFFFFFFFFFF
310
FFFFFFFFFFFFFFFFFFFFFFFFFFFFFFFFFFFFFFFFFFFFFFFFFFFFFFFFFFFFFFFF
310
FFFFFFFFFFFFFFFFFFFFFFFFFFFFFFFFFFFFFFFFFFFFFFFFFFFFFFFFFFFFFFFF
310
FFFFFFFFFFFFFFFFFFFFFFFFFFFFFFFFFFFFFFFFFFFFFFFFFFFFFFFFFFFFFFFF
310
FFFFFFFFFFFFFFFFFFFFFFFFFFFFFFFFFFFFFFFFFFFFFFFFFFFFFFFFFFFFFFFF
310
FDFFFFFFFEFFFFFFFEFFFFFFFEFFFFFF05000000060000000700000008000000
310
090000000A0000000B0000000C0000000D0000000E0000000F00000010000000
310
11000000120000001300000014000000150000001600000017000000FEFFFFFF
310
FFFFFFFFFFFFFFFFFFFFFFFFFFFFFFFFFFFFFFFFFFFFFFFFFFFFFFFFFFFFFFFF
310
FFFFFFFFFFFFFFFFFFFFFFFFFFFFFFFFFFFFFFFFFFFFFFFFFFFFFFFFFFFFFFFF
310
FFFFFFFFFFFFFFFFFFFFFFFFFFFFFFFFFFFFFFFFFFFFFFFFFFFFFFFFFFFFFFFF
310
FFFFFFFFFFFFFFFFFFFFFFFFFFFFFFFFFFFFFFFFFFFFFFFFFFFFFFFFFFFFFFFF
310
FFFFFFFFFFFFFFFFFFFFFFFFFFFFFFFFFFFFFFFFFFFFFFFFFFFFFFFFFFFFFFFF
310
FFFFFFFFFFFFFFFFFFFFFFFFFFFFFFFFFFFFFFFFFFFFFFFFFFFFFFFFFFFFFFFF
310
FFFFFFFFFFFFFFFFFFFFFFFFFFFFFFFFFFFFFFFFFFFFFFFFFFFFFFFFFFFFFFFF
310
FFFFFFFFFFFFFFFFFFFFFFFFFFFFFFFFFFFFFFFFFFFFFFFFFFFFFFFFFFFFFFFF
310
FFFFFFFFFFFFFFFFFFFFFFFFFFFFFFFFFFFFFFFFFFFFFFFFFFFFFFFFFFFFFFFF
310
FFFFFFFFFFFFFFFFFFFFFFFFFFFFFFFFFFFFFFFFFFFFFFFFFFFFFFFFFFFFFFFF
310
FFFFFFFFFFFFFFFFFFFFFFFFFFFFFFFFFFFFFFFFFFFFFFFFFFFFFFFFFFFFFFFF
310
FFFFFFFFFFFFFFFFFFFFFFFFFFFFFFFFFFFFFFFFFFFFFFFFFFFFFFFFFFFFFFFF
310
FFFFFFFFFFFFFFFFFFFFFFFFFFFFFFFFFFFFFFFFFFFFFFFFFFFFFFFFFFFFFFFF
310
52006F006F007400200045006E00740072007900000000000000000000000000
310
0000000000000000000000000000000000000000000000000000000000000000
310
16000500FFFFFFFFFFFFFFFF020000000A00030000000000C000000000000046
310
000000000000000000000000B0A4EB77393FCD0103000000C000000000000000
310
01004F006C006500000000000000000000000000000000000000000000000000
310
0000000000000000000000000000000000000000000000000000000000000000
310
0A000200FFFFFFFFFFFFFFFFFFFFFFFF00000000000000000000000000000000
310
0000000000000000000000000000000000000000000000001400000000000000
310
010043006F006D0070004F0062006A0000000000000000000000000000000000
310
0000000000000000000000000000000000000000000000000000000000000000
310
120002010100000003000000FFFFFFFF00000000000000000000000000000000
310
0000000000000000000000000000000000000000010000004D00000000000000
310
01004F006C006500310030004E00610074006900760065000000000000000000
310
0000000000000000000000000000000000000000000000000000000000000000
310
1A000200FFFFFFFFFFFFFFFFFFFFFFFF00000000000000000000000000000000
310
0000000000000000000000000000000000000000040000002426000000000000
310
FEFFFFFF02000000FEFFFFFFFFFFFFFFFFFFFFFFFFFFFFFFFFFFFFFFFFFFFFFF
310
FFFFFFFFFFFFFFFFFFFFFFFFFFFFFFFFFFFFFFFFFFFFFFFFFFFFFFFFFFFFFFFF
310
FFFFFFFFFFFFFFFFFFFFFFFFFFFFFFFFFFFFFFFFFFFFFFFFFFFFFFFFFFFFFFFF
310
FFFFFFFFFFFFFFFFFFFFFFFFFFFFFFFFFFFFFFFFFFFFFFFFFFFFFFFFFFFFFFFF
310
FFFFFFFFFFFFFFFFFFFFFFFFFFFFFFFFFFFFFFFFFFFFFFFFFFFFFFFFFFFFFFFF
310
FFFFFFFFFFFFFFFFFFFFFFFFFFFFFFFFFFFFFFFFFFFFFFFFFFFFFFFFFFFFFFFF
310
FFFFFFFFFFFFFFFFFFFFFFFFFFFFFFFFFFFFFFFFFFFFFFFFFFFFFFFFFFFFFFFF
310
FFFFFFFFFFFFFFFFFFFFFFFFFFFFFFFFFFFFFFFFFFFFFFFFFFFFFFFFFFFFFFFF
310
FFFFFFFFFFFFFFFFFFFFFFFFFFFFFFFFFFFFFFFFFFFFFFFFFFFFFFFFFFFFFFFF
310
FFFFFFFFFFFFFFFFFFFFFFFFFFFFFFFFFFFFFFFFFFFFFFFFFFFFFFFFFFFFFFFF
310
FFFFFFFFFFFFFFFFFFFFFFFFFFFFFFFFFFFFFFFFFFFFFFFFFFFFFFFFFFFFFFFF
310
FFFFFFFFFFFFFFFFFFFFFFFFFFFFFFFFFFFFFFFFFFFFFFFFFFFFFFFFFFFFFFFF
310
FFFFFFFFFFFFFFFFFFFFFFFFFFFFFFFFFFFFFFFFFFFFFFFFFFFFFFFFFFFFFFFF
310
FFFFFFFFFFFFFFFFFFFFFFFFFFFFFFFFFFFFFFFFFFFFFFFFFFFFFFFFFFFFFFFF
310
FFFFFFFFFFFFFFFFFFFFFFFFFFFFFFFFFFFFFFFFFFFFFFFFFFFFFFFFFFFFFFFF
310
FFFFFFFFFFFFFFFFFFFFFFFFFFFFFFFFFFFFFFFFFFFFFFFFFFFFFFFFFFFFFFFF
310
0100000200000000000000000000000000000000000000000000000000000000
310
0000000000000000000000000000000000000000000000000000000000000000
310
0100FEFF030A0000FFFFFFFF0A00030000000000C00000000000004607000000
310
5042727573680007000000504272757368000700000050427275736800F439B2
310
7100000000000000000000000000000000000000000000000000000000000000
310
0000000000000000000000000000000000000000000000000000000000000000
310
0000000000000000000000000000000000000000000000000000000000000000
310
0000000000000000000000000000000000000000000000000000000000000000
310
0000000000000000000000000000000000000000000000000000000000000000
310
0000000000000000000000000000000000000000000000000000000000000000
310
0000000000000000000000000000000000000000000000000000000000000000
310
0000000000000000000000000000000000000000000000000000000000000000
310
0000000000000000000000000000000000000000000000000000000000000000
310
0000000000000000000000000000000000000000000000000000000000000000
310
0000000000000000000000000000000000000000000000000000000000000000
310
0000000000000000000000000000000000000000000000000000000000000000
310
20260000424D0E260000000000003E00000028000000B40200006E0000000100
310
01000000000000000000130B0000130B00000200000002000000000000FFFFFF
310
FFFFFFFFFFFFFFFFFFFFFFFFFFFFFFFFFFFFFFFFFFFFFFFFFFFFFFFFFFFFFFFF
310
FFFFFFFFFFFFFFFFFFFFFFFFFFFFFFFFFFFFFFFFFFFFFFFFFFFFFFFFFFFFFFFF
310
FFFFFFFFFFFFFFFFFFFFFFFFFFFFFFFFFFFFFFFFFFFFFFFFF000FFFFFFFFFFFF
310
FFFFFFFFFFFFFFFFFFFFFFFFFFFFFFFFFFFFFFFFFFFFFFFFFFFFFFFFFFFFFFFF
310
FFFFFFFFFFFFFFFFFFFFFFFFFFFFFFFFFFFFFFFFFFFFFFFFFFFFFFFFFFFFFFFF
310
FFFFFFFFFFFFFFFFFFFFFFFFFFFFFFFFF000FFFFFFFFFFFFFFFFFFFFFFFFFFFF
310
FFFFFFFFFFFFFFFFFFFFFFFFFFFFFFFFFFFFFFFFFFFFFFFFFFFFFFFFFFFFFFFF
310
FFFFFFFFFFFFFFFFFFFFFFFFFFFFFFFFFFFFFFFFFFFFFFFFFFFFFFFFFFFFFFFF
310
FFFFFFFFFFFFFFFFF000FFFFFFFFFFFFFFFFFFFFFFFFFFFFFFFFFFFFFFFFFFFF
310
FFFFFFFFFFFFFFFFFFFFFFFFFFFFFFFFFFFFFFFFFFFFFFFFFFFFFFFFFFFFFFFF
310
FFFFFFFFFFFFFFFFFFFFFFFFFFFFFFFFFFFFFFFFFFFFFFFFFFFFFFFFFFFFFFFF
310
F000FFFFFFFFFFFFFFFFFFFFFFFFFFFFFFFFFFFFFFFFFFFFFFFFFFFFFFFFFFFF
310
FFFFFFFFFFFFFFFFFFFFFFFFFFFFFFFFFFFFFFFFFFFFFFFFFFFFFFFFFFFFFFFF
310
FFFFFFFFFFFFFFFFFFFFFFFFFFFFFFFFFFFFFFFFFFFFFFFFF000FFFFFFFFFFFF
310
FFFFFFFFFFFFFFFFFFFFFFFFFFFFFFFFFFFFFFFFFFFFFFFFFFFFFFFFFFFFFFFF
310
FFFFFFFFFFFFFFFFFFFFFFFFFFFFFFFFFFFFFFFFFFFFFFFFFFFFFFFFFFFFFFFF
310
FFFFFFFFFFFFFFFFFFFFFFFFFFFFFFFFF000FFFFFFFFFFFFFFFFFFFFFFFFFFFF
310
FFFFFFFFFFFFFFFFFFFFFFFFFFFFFFFFFFFFFFFFFFFFFFFFFFFFFFFFFFFFFFFF
310
FFFFFFFFFFFFFFFFFFFFFFFFFFFFFFFFFFFFFFFFFFFFFFFFFFFFFFFFFFFFFFFF
310
FFFFFFFFFFFFFFFFF000FFFFFFFFFFFFFFFFFFFFFFFFFFFFFFFFFFFFFFFFFFFF
310
FFFFFFFFFFFFFFFFFFFFFFFFFFFFFFFFFFFFFFFFFFFFFFFFFFFFFFFFFFFFFFFF
310
FFFFFFFFFFFFFFFFFFFFFFFFFFFFFFFFFFFFFFFFFFFFFFFFFFFFFFFFFFFFFFFF
310
F000FFFFFFFFFFFFFFFFFFFFFFFFFFFFFFFFFFFFFFFFFFFFFFFFFFFFFFFFFFFF
310
FFFFFFFFFFFFFFFFFFFFFFFFFFFFFFFFFFFFFFFFFFFFFFFFFFFFFFFFFFFFFFFF
310
FFFFFFFFFFFFFFFFFFFFFFFFFFFFFFFFFFFFFFFFFFFFFFFFF000FFFFFFFFFFFF
310
FFFFFFFFFFFFFFFFFFFFFFFFFFFFFFFFFFFFFFFFFFFFFFFFFFFFFFFFFFFFFFFF
310
FFFFFFFFFFFFFFFFFFFFFFFFFFFFFFFFFFFFFFFFFFFFFFFFFFFFFFFFFFFFFFFF
310
FFFFFFFFFFFFFFFFFFFFFFFFFFFFFFFFF000FFFFFFFFFFFFFFFFFFFFFFFFFFFF
310
FFFFFFFFFFFFFFFFFFFFFFFFFFFFFFFFFFFFFFFFFFFFFFFFFFFFFFFFFFFFFFFF
310
FFFFFFFFFFFFFFFFFFFFFFFFFFFFFFFFFFFFFFFFFFFFFFFFFFFFFFFFFFFFFFFF
310
FFFFFFFFFFFFFFFFF000FFFFFFFFFFFFFFFFFFFFFFFFFFFFFFFFFFFFFFFFFFFF
310
FFFFFFFFFFFFFFFFFFFFFFFFFFFFFFFFFFFFFFFFFFFFFFFFFFFFFFFFFFFFFFFF
310
FFFFFFFFFFFFFFFFFFFFFFFFFFFFFFFFFFFFFFFFFFFFFFFFFFFFFFFFFFFFFFFF
310
F000FFFFFFFFFFFFFFFFFFFFFFFFFFFFFFFFFFFFFFFFFFFFFFFFFFFFFFFFFFFF
310
FFFFFFFFFFFFFFFFFFFFFFFFFFFFFFFFFFFFFFFFFFFFFFFFFFFFFFFFFFFFFFFF
310
FFFFFFFFFFFFFFFFFFFFFFFFFFFFFFFFFFFFFFFFFFFFFFFFF000FFFFFFFFFFFF
310
FFFFFFFFFFFFFFFFFFFFFFFFFFFFFFFFFFFFFFFFFFFFFFFFFFFFFFFFFFFFFFFF
310
FFFFFFFFFFFFFFFFFFFFFFFFFFFFFFFFFFFFFFFFFFFFFFFFFFFFFFFFFFFFFFFF
310
FFFFFFFFFFFFFFFFFFFFFFFFFFFFFFFFF000FFFFFFFFFFFFFFFFFFFFFFFFFFFF
310
FFFFFFFFFFFFFFFFFFFFFFFFFFFFFFFFFFFFFFFFFFFFFFFFFFFFFFFFFFFFFFFF
310
FFFFFFFFFFFFFFFFFFFFFFFFFFFFFFFFFFFFFFFFFFFFFFFFFFFFFFFFFFFFFFFF
310
FFFFFFFFFFFFFFFFF000FFFFFFFFFFFFFFFFFFFFFFFFFFFFFFFFFFFFFFFFFFFF
310
FFFFFFFFFFFFFFFFFFFFFFFFFFFFFFFFFFFFFFFFFFFFFFFFFFFFFFFFFFFFFFFF
310
FFFFFFFFFFFFFFFFFFFFFFFFFFFFFFFFFFFFFFFFFFFFFFFFFFFFFFFFFFFFFFFF
310
F000FFFFFFFFFFFFFFFFFFFFFFFFFFFFFFFFFFFFFFFFFFFFFFFFFFFFFFFFFFFF
310
FFFFFFFFFFFFFFFFFFFFFFFFFFFFFFFFFFFFFFFFFFFFFFFFFFFFFFFFFFFFFFFF
310
FFFFFFFFFFFFFFFFFFFFFFFFFFFFFFFFFFFFFFFFFFFFFFFFF000FFFFFFFFFFFF
310
FFFFFFFFFFFFFFFFFFFFFFFFFFFFFFFFFFFFFFFFFFFFFFFFFFFFFFFFFFFFFFFF
310
FFFFFFFFFFFFFFFFFFFFFFFFFFFFFFFFFFFFFFFFFFFFFFFFFFFFFFFFFFFFFFFF
310
FFFFFFFFFFFFFFFFFFFFFFFFFFFFFFFFF000FFFFFFFFFFFFFFFFFFFFFFFFFFFF
310
FFFFFFFFFFFFFFFFFFFFFFFFFFFFFFFFFFFFFFFFFFFFFFFFFFFFFFFFFFFFFFFF
310
FFFFFFFFFFFFFFFFFFFFFFFFFFFFFFFFFFFFFFFFFFFFFFFFFFFFFFFFFFFFFFFF
310
FFFFFFFFFFFFFFFFF000FFFFF80003FFFFFFFFFFFFFFFFFFFFFFFFFFFFFFFFFF
310
FFFFF00007FFFFFFFFFF00007FFFFFF800000000000000007FFFFFFFFFFFFFFF
310
FFFFFFFC001FFFFFFFFFFFFFFC001FFFFFFFFFFFFFFFFFFFFFFFFFFE0007FFFF
310
F000FFFF8000007FFFFFFFF8000FFFFFC0007FFFFF80007FFFFF0000007FFFFF
310
FFF8000007FFFFF800000000000000007FFFFFF0001FFFFFFFFFFFC00001FFFF
310
FFFFFFFFC00001FFFFFFFF000000000003FFFFE000007FFFF000FFFE0000000F
310
FFFFFFF0000FFFFF80007FFFFF80007FFFFC0000001FFFFFFFC0000001FFFFF8
310
00000000000000007FFFFFF0001FFFFFFFFFFE0000003FFFFFFFFFFE0000003F
310
FFFFFF000000000003FFFF0000000FFFF000FFF800000003FFFFFFF00007FFFF
310
80007FFFFF80007FFFF000000007FFFFFF000000003FFFF80000000000000000
310
7FFFFFF0001FFFFFFFFFF80000000FFFFFFFFFF80000000FFFFFFF0000000000
310
03FFFC00000003FFF000FFE000000000FFFFFFF00007FFFF80003FFFFF80007F
310
FFC000000001FFFFFC000000001FFFF800000000000000007FFFFFF0001FFFFF
310
FFFFE000000003FFFFFFFFE000000003FFFFFF000000000003FFF000000000FF
310
F000FF80000000007FFFFFF00007FFFF80003FFFFF80007FFF8000000000FFFF
310
F80000000007FFF800000000000000007FFFFFF0001FFFFFFFFFC000000001FF
310
FFFFFFC000000001FFFFFF000000000003FFC0000000007FF000FF0000000000
310
3FFFFFE00007FFFF00003FFFFF80007FFE00000000003FFFF00000000003FFF8
310
00000000000000007FFFFFF0001FFFFFFFFF8000000000FFFFFFFF8000000000
310
FFFFFF000000000003FF80000000003FF000FE00000000001FFFFFE00003FFFF
310
00003FFFFF80007FFC00000000001FFFE00000000001FFF8000001FFFE000000
310
7FFFFFF0001FFFFFFFFE00000000003FFFFFFE00000000003FFFFF0000000000
310
03FF00000000001FF000FC00000000000FFFFFE00003FFFF00001FFFFF80007F
310
F800000000001FFFC00000000000FFF8000001FFFE0000007FFFFFF0001FFFFF
310
FFFC00000000001FFFFFFC00000000001FFFFF000000000003FE00000000000F
310
F000F8000000000007FFFFE00003FFFF00001FFFFF80007FF800000000000FFF
310
800000000000FFF8000001FFFE0000007FFFFFF0001FFFFFFFF800000000000F
310
FFFFF800000000000FFFFF000000000003FC000000000007F000F80000000000
310
03FFFFC00003FFFE00001FFFFF80007FF0000000000007FF0000000000007FF8
310
000001FFFE0000007FFFFFF0001FFFFFFFF0000000000007FFFFF00000000000
310
07FFFF000000000003F8000000000003F000F0000000000003FFFFC00001FFFE
310
00001FFFFF80007FE0000000000007FE0000000000003FF8000001FFFE000000
310
7FFFFFF0001FFFFFFFF0000000000007FFFFF0000000000007FFFF0000000000
310
03F800001F800003F000E00001FFF00001FFFFC00001FFFE00000FFFFF80007F
310
E00001FFE00003FE00001FFF00003FF8000001FFFE0000007FFFFFF0001FFFFF
310
FFE000003E000003FFFFE000003E000003FFFF000000000003F00001FFF80001
310
F000E00007FFFC0001FFFFC00001FFFE00000FFFFF80007FC0000FFFFC0003FC
310
0000FFFFC0001FF8000001FFFE0000007FFFFFF0001FFFFFFFC00003FFE00001
310
FFFFC00003FFE00001FFFF0001FFFFFFFFF00007FFFE0001F000E0000FFFFF00
310
00FFFF800001FFFC00000FFFFF80007FC0001FFFFE0001FC0001FFFFE0001FF8
310
000001FFFE0000007FFFFFF0001FFFFFFF80000FFFF80000FFFF80000FFFF800
310
00FFFF0003FFFFFFFFE0000FFFFF8000F000C0003FFFFF8000FFFF800000FFFC
310
000007FFFF80007F80003FFFFF0001FC0003FFFFF0001FF8000001FFFE000000
310
7FFFFFF0001FFFFFFF80003FFFFE0000FFFF80003FFFFE0000FFFF0003FFFFFF
310
FFE0003FFFFF8000F000C0003FFFFF8000FFFF800000FFFC000007FFFF80007F
310
80007FFFFF8001F80007FFFFF8000FF8000001FFFE0000007FFFFFF0001FFFFF
310
FF00007FFFFF00007FFF00007FFFFF00007FFF0003FFFFFFFFE0003FFFFFC000
310
F000C0007FFFFFC000FFFF000000FFFC000007FFFF80007F8000FFFFFF8000F8
310
000FFFFFF8000FF8000001FFFE0000007FFFFFF0001FFFFFFF0000FFFFFF8000
310
7FFF0000FFFFFF80007FFF0003FFFFFFFFC0007FFFFFC00070008000FFFFFFC0
310
00FFFF000000FFF8000007FFFF80007F8000FFFFFF8000F8000FFFFFF8000FF8
310
000001FFFE0000007FFFFFF0001FFFFFFE0001FFFFFFC0003FFE0001FFFFFFC0
310
003FFF0003FFFFFFFFC0007FFFFFE00070008000FFFFFFC0007FFF0000007FF8
310
000003FFFF80007F0001FFFFFF8000F8000FFFFFF8000FF8000001FFFE000000
310
7FFFFFF0001FFFFFFE0001FFFFFFC0003FFE0001FFFFFFC0003FFF0003FFFFFF
310
FFC000FFFFFFE00070008000FFFFFFC0007FFF0000007FF8000003FFFF80007F
310
0001FFFFFF8000F8001FFFFFF8000FF8000001FFFE0000007FFFFFF0001FFFFF
310
FE0003FFFFFFE0003FFE0003FFFFFFE0003FFF0003FFFFFFFFC000FFFFFFE000
310
70008000FFFFFFC0007FFE0000007FF8000003FFFF80007F0001FFFFFF8000F0
310
001FFFFFF8000FF8000001FFFE0000007FFFFFF0001FFFFFFC0003FFFFFFE000
310
1FFC0003FFFFFFE0001FFF0003FFFFFFFFC000FFFFFFC00070008000FFFFFF80
310
007FFE0000007FF0000003FFFF80007F0001FFFFFF0000F0001FFFFFF8000FF8
310
000001FFFE0000007FFFFFF0001FFFFFFC0007FFFFFFF0001FFC0007FFFFFFF0
310
001FFF0003FFFFFFFFC000FFFFFFC00070008001FFFFFF0000FFFE0000003FF0
310
000001FFFF80007F0001FFFFFF0000F8001FFFFFF0000FF8000001FFFE000000
310
7FFFFFF0001FFFFFFC0007FFFFFFF0001FFC0007FFFFFFF0001FFF0003FFFFFF
310
FFC001FFFFFF80007000FFFFFFFFFE0000FFFE0008003FF0008001FFFF80007F
310
FFFFFFFFFC0000FFFFFFFFFFE0000FF8000001FFFE0000007FFFFFF0001FFFFF
310
F8000FFFFFFFF8000FF8000FFFFFFFF8000FFF0003FFFFFFFFFFFFFFFFFF0000
310
7000FFFFFFFFFC0000FFFC0008003FF0008001FFFF80007FFFFFFFFFF80001FF
310
FFFFFFFF80000FF8000001FFFE0000007FFFFFF0001FFFFFF8000FFFFFFFF800
310
0FF8000FFFFFFFF8000FFF0003FFFFFFFFFFFFFFFFFE0000F000FFFFFFFFE000
310
00FFFC000C003FE000C001FFFF80007FFFFFFFFFC00001FFFFFFFFFE00001FF8
310
000001FFFE0000007FFFFFF0001FFFFFF8000FFFFFFFF8000FF8000FFFFFFFF8
310
000FFF0003FFFFFFFFFFFFFFFFF00000F000FFFFFFFE000001FFFC000C001FE0
310
00C000FFFF80007FFFFFFFFE000001FFFFFFFFE000001FF80FFFFFFFFFFFFFC0
310
7FFFFFF0001FFFFFF8000FFFFFFFF8000FF8000FFFFFFFF8000FFF0003FFFFFF
310
FFFFFFFFFF800000F000FFFFFFC0000001FFFC001C001FE001C000FFFF80007F
310
FFFFFF80000003FFFFFFF80000001FF80FFFFFFFFFFFFFC07FFFFFF0001FFFFF
310
F8001FFFFFFFFC000FF8001FFFFFFFFC000FFF0003FFFFFFFFFFFFFFF0000001
310
F000FFFFF800000001FFF8001C001FE001C000FFFF80007FFFFFF800000003FF
310
FFFF800000003FF80FFFFFFFFFFFFFC07FFFFFF0001FFFFFF8001FFFFFFFFC00
310
0FF8001FFFFFFFFC000FFF0003FFFFFFFFFFFFFE00000001F000FFFFC0000000
310
03FFF8001E001FC001E000FFFF80007FFFFF8000000007FFFFFC000000003FF8
310
0FFFFFFFFFFFFFC07FFFFFF0001FFFFFF8001FFFFFFFFC000FF8001FFFFFFFFC
310
000FFF0003FFFFFFFFFFFFE000000003F000FFFE0000000007FFF8001E000FC0
310
01E0007FFF80007FFFFE0000000007FFFFE0000000007FF80FFFFFFFFFFFFFC0
310
7FFFFFF0001FFFFFF0001FFFFFFFFC0007F0001FFFFFFFFC0007FF0003FFFFFF
310
FFFFFF0000000003F000FFF80000000007FFF8001E000FC003E0007FFF80007F
310
FFF0000000000FFFFF8000000000FFF80FFFFFFFFFFFFFC07FFFFFF0001FFFFF
310
F0001FFFFFFFFC0007F0001FFFFFFFFC0007FF0003FFFFFFFFFFFC0000000007
310
F000FFE0000000000FFFF0003E000FC003E0007FFF80007FFFC0000000001FFF
310
FE0000000001FFF80FFFFFFFFFFFFFC07FFFFFF0001FFFFFF0001FFFFFFFFC00
310
07F0001FFFFFFFFC0007FF0003FFFFFFFFFFF0000000000FF000FFC000000000
310
1FFFF0003F000F8003F0003FFF80007FFF80000000003FFFF80000000003FFF8
310
0FFFFFFFFFFFFFC07FFFFFF0001FFFFFF0001FFFFFFFFC0007F0001FFFFFFFFC
310
0007FF0003FFFFFFFFFFE0000000001FF000FF00000000007FFFF0003F000780
310
03F0003FFF80007FFF00000000007FFFF00000000007FFF80FFFFFFFFFFFFFC0
310
7FFFFFF0001FFFFFF0001FFFFFFFFC0007F0001FFFFFFFFC0007FF0003FFFFFF
310
FFFF80000000007FF000FE0000000000FFFFE0003F00078007F0003FFF80007F
310
FE0000000001FFFFE0000000001FFFF80FFFFFFFFFFFFFC07FFFFFF0001FFFFF
310
F0001FFFFFFFFC0007F0001FFFFFFFFC0007FF0003FFFFFFFFFF0000000000FF
310
F000FC0000000003FFFFE0007F00078007F0003FFF80007FFC0000000007FFFF
310
C0000000007FFFF80FFFFFFFFFFFFFC07FFFFFF0001FFFFFF8001FFFFFFFFC00
310
0FF8001FFFFFFFFC000FFF0003FFFFFFFFFE0000000003FFF000FC000000000F
310
FFFFE0007F80070007F8001FFF80007FF8000000001FFFFF8000000001FFFFF8
310
0FFFFFFFFFFFFFC07FFFFFF0001FFFFFF8001FFFFFFFFC000FF8001FFFFFFFFC
310
000FFF0003FFFFFFFFFC000000000FFFF000F8000000007FFFFFE0007F800700
310
07F8001FFF80007FF000000000FFFFFF800000000FFFFFF80FFFFFFFFFFFFFC0
310
7FFFFFF0001FFFFFF8000FFFFFFFF8000FF8000FFFFFFFF8000FFF0003FFFFFF
310
FFFC000000007FFFF000F800000007FFFFFFC0007F8003000FF8001FFF80007F
310
F000000007FFFFFF000000007FFFFFF80FFFFFFFFFFFFFC07FFFFFF0001FFFFF
310
F8000FFFFFFFF8000FF8000FFFFFFFF8000FFF0003FFFFFFFFF80000000FFFFF
310
F000F0000000FFFFFFFFC000FF8003000FF8001FFF80007FE0000000FFFFFFFF
310
0000000FFFFFFFF8000001FFFE0000007FFFFFF0001FFFFFF8000FFFFFFFF800
310
0FF8000FFFFFFFF8000FFF0003FFFFFFFFF8000000FFFFFFF000F000000FFFFF
310
FFFFC000FFC002000FF8000FFF80007FE000001FFFFFFFFE000001FFFFFFFFF8
310
000001FFFE0000007FFFFFF0001FFFFFF8000FFFFFFFF8000FF8000FFFFFFFF8
310
000FFF0003FFFFFFFFF000001FFFFFFFF000E00000FFFFFFFFFFC000FFC00200
310
0FFC000FFF80007FE00001FFFFFFFFFE00001FFFFFFFFFF8000001FFFE000000
310
7FFFFFF0001FFFFFFC000FFFFFFFF8001FFC000FFFFFFFF8001FFF0003FFFFFF
310
FFF00001FFFFFFFFF000E00007FFFFFFFFFF8000FFC000001FFC000FFF80007F
310
C0000FFFFFFFFFFE0000FFFFFFFFFFF8000001FFFE0000007FFFFFF0001FFFFF
310
FC0007FFFFFFF0001FFC0007FFFFFFF0001FFF0003FFFFFFFFF00007FFFFFFFF
310
F000E0001FFFFFFFFFFF8000FFC000001FFC000FFF80007FC0003FFFFFFFFFFE
310
0001FFFFFFFFFFF8000001FFFE0000007FFFFFF0001FFFFFFC0007FFFFFFF000
310
1FFC0007FFFFFFF0001FFF0003FFFFFFFFF0001FFFFFFFFFF000E0003FFFFF00
310
03FF8001FFE000001FFC0007FF80007FC0007FFFFF0007FC0003FFFFF0003FF8
310
000001FFFE0000007FFFFFF0001FFFFFFC0003FFFFFFE0001FFC0003FFFFFFE0
310
001FFF0003FFFFFFFFF0003FFFFFFFFFF000E0003FFFFF0001FF8001FFE00000
310
1FFE0007FF80007FC0007FFFFE0003FC0007FFFFE0003FF8000001FFFE000000
310
7FFFFFF0001FFFFFFE0003FFFFFFE0003FFE0003FFFFFFE0003FFF0003FFFFFF
310
FFF0003FFFFF8001F000E0003FFFFF0001FF0001FFE000001FFE0007FF80007F
310
C0007FFFFE0003FC0007FFFFE0003FF8000001FFFE0000007FFFFFF0001FFFFF
310
FE0001FFFFFFC0003FFE0001FFFFFFC0003FFF0003FFFFFFFFF0003FFFFF0001
310
F000E0003FFFFF0003FF0001FFE000003FFE0007FF80007FC0007FFFFE0003FC
310
0007FFFFE0003FF8000001FFFE0000007FFFFFF0001FFFFFFF0001FFFFFFC000
310
7FFF0001FFFFFFC0007FFF0003FFFFFFFFF0003FFFFF0001F000E0003FFFFE00
310
03FF0003FFF000003FFE0003FF80007FC0007FFFFC0003FE0007FFFFE0003FF8
310
000001FFFE0000007FFFFFF0001FFFFFFF0000FFFFFF80007FFF0000FFFFFF80
310
007FFF0003FFFFFFFFF0003FFFFF0001F000E0003FFFFE0003FF0003FFF00000
310
3FFF0003FF80007FC0007FFFFC0007FE0007FFFFC0003FF8000001FFFE000000
310
7FFFFFF0001FFFFFFF80007FFFFF0000FFFF80007FFFFF0000FFFF0003FFFFFF
310
FFF0003FFFFF0003F000E0003FFFFC0003FE0003FFF000003FFF0003FF80007F
310
E0003FFFF80007FE0003FFFFC0007FF8000001FFFE0000007FFFFFF0001FFFFF
310
FF80003FFFFE0000FFFF80003FFFFE0000FFFF0003FFFFFFFFF0001FFFFE0003
310
F000F0001FFFF80003FE0003FFF000007FFF0001FF80007FE0003FFFF00007FE
310
0001FFFF80007FF8000001FFFE0000007FFFFFF0001FFFFFFFC0000FFFF80001
310
FFFFC0000FFFF80001FFFF0003FFFFFFFFF0001FFFFC0003F000F0000FFFF000
310
07FE0007FFF800007FFF0001FF80007FE0001FFFE00007FF0000FFFE00007FF8
310
000001FFFE0000007FFFFFF0001FFFFFFFC00003FFE00001FFFFC00003FFE000
310
01FFFF0003FFFFFFFFF8000FFFF80003F000F00003FFC00007FC0007FFF80000
310
7FFF8001FF80007FF00007FF80000FFF00007FF80000FFF8000001FFFE000000
310
7F80000000000001FFE000003E000003FFFFE000003E000003FFFF0003FFFFFF
310
FFF80003FFE00007F000F800000000000FFC0007FFF800007FFF8001FF80007F
310
F000000000000FFF000000000000FFF8000001FFFE0000007F80000000000001
310
FFF0000000000007FFFFF0000000000007FFFF0003FFFFFFFFFC00007E000007
310
F000F800000000000FFC0007FFF80000FFFF8000FF80007FF800000000001FFF
310
800000000001FFF8000001FFFE0000007F80000000000001FFF800000000000F
310
FFFFF800000000000FFFFF0003FFFFFFFFFC00000000000FF000FC0000000000
310
1FFC0007FFFC0000FFFF8000FF80007FF800000000003FFFC00000000001FFF8
310
000001FFFE0000007F80000000000001FFF800000000000FFFFFF80000000000
310
0FFFFF0003FFFFFFFFFE00000000001FF000FE00000000003FF8000FFFFC0000
310
FFFF8000FF80007FFC00000000003FFFC00000000003FFF8000001FFFE000000
310
7F80000000000001FFFC00000000001FFFFFFC00000000001FFFFF0003FFFFFF
310
FFFF00000000001FF000FF00000000003FF8000FFFFC0000FFFFC000FF80007F
310
FE00000000007FFFE00000000007FFF8000001FFFE0000007F80000000000001
310
FFFE00000000003FFFFFFE00000000003FFFFF0003FFFFFFFFFF80000000003F
310
F000FF80000000007FF8000FFFFC0001FFFFC0007F80007FFF0000000000FFFF
310
F0000000000FFFF800000000000000007F80000000000001FFFF8000000000FF
310
FFFFFF8000000000FFFFFF0003FFFFFFFFFFC0000000007FF000FFC000000000
310
FFF8000FFFFE0001FFFFC0007F80007FFF8000000001FFFFF8000000001FFFF8
310
00000000000000007F80000000000001FFFFC000000001FFFFFFFFC000000001
310
FFFFFF0003FFFFFFFFFFE000000000FFF000FFE000000003FFF0001FFFFE0001
310
FFFFC0007F80007FFFC000000007FFFFFE000000003FFFF80000000000000000
310
7F80000000000001FFFFE000000003FFFFFFFFE000000003FFFFFF0003FFFFFF
310
FFFFF000000003FFF000FFF80000000FFFF0001FFFFE0001FFFFE0007F80007F
310
FFF00000000FFFFFFF00000000FFFFF800000000000000007F80000000000001
310
FFFFF80000000FFFFFFFFFF80000000FFFFFFF0003FFFFFFFFFFFC0000000FFF
310
F000FFFE0000003FFFF0001FFFFE0003FFFFE0003F80007FFFFC0000003FFFFF
310
FFC0000003FFFFF800000000000000007F80000000000001FFFFFE0000003FFF
310
FFFFFFFE0000003FFFFFFF0003FFFFFFFFFFFF0000003FFFF000FFFF800000FF
310
FFF0001FFFFF0003FFFFE0003F80007FFFFF000001FFFFFFFFF800001FFFFFF8
310
00000000000000007F80000000000001FFFFFFC00001FFFFFFFFFFFFC00001FF
310
FFFFFF0003FFFFFFFFFFFFC00000FFFFF000FFFFF8000FFFFFFFFFFFFFFFFFFF
310
FFFFFFFFFFFFFFFFFFFFF0001FFFFFFFFFFF0000FFFFFFF80000000000000000
310
7FFFFFFFFFFFFFFFFFFFFFFC001FFFFFFFFFFFFFFC001FFFFFFFFFFFFFFFFFFF
310
FFFFFFFC001FFFFFF000FFFFFFFFFFFFFFFFFFFFFFFFFFFFFFFFFFFFFFFFFFFF
310
FFFFFFFFFFFFFFFFFFFFFFFFFFFFFFFFFFFFFFFFFFFFFFFFFFFFFFFFFFFFFFFF
310
FFFFFFFFFFFFFFFFFFFFFFFFFFFFFFFFFFFFFFFFFFFFFFFFFFFFFFFFFFFFFFFF
310
F000FFFFFFFFFFFFFFFFFFFFFFFFFFFFFFFFFFFFFFFFFFFFFFFFFFFFFFFFFFFF
310
FFFFFFFFFFFFFFFFFFFFFFFFFFFFFFFFFFFFFFFFFFFFFFFFFFFFFFFFFFFFFFFF
310
FFFFFFFFFFFFFFFFFFFFFFFFFFFFFFFFFFFFFFFFFFFFFFFFF000FFFFFFFFFFFF
310
FFFFFFFFFFFFFFFFFFFFFFFFFFFFFFFFFFFFFFFFFFFFFFFFFFFFFFFFFFFFFFFF
310
FFFFFFFFFFFFFFFFFFFFFFFFFFFFFFFFFFFFFFFFFFFFFFFFFFFFFFFFFFFFFFFF
310
FFFFFFFFFFFFFFFFFFFFFFFFFFFFFFFFF000FFFFFFFFFFFFFFFFFFFFFFFFFFFF
310
FFFFFFFFFFFFFFFFFFFFFFFFFFFFFFFFFFFFFFFFFFFFFFFFFFFFFFFFFFFFFFFF
310
FFFFFFFFFFFFFFFFFFFFFFFFFFFFFFFFFFFFFFFFFFFFFFFFFFFFFFFFFFFFFFFF
310
FFFFFFFFFFFFFFFFF000FFFFFFFFFFFFFFFFFFFFFFFFFFFFFFFFFFFFFFFFFFFF
310
FFFFFFFFFFFFFFFFFFFFFFFFFFFFFFFFFFFFFFFFFFFFFFFFFFFFFFFFFFFFFFFF
310
FFFFFFFFFFFFFFFFFFFFFFFFFFFFFFFFFFFFFFFFFFFFFFFFFFFFFFFFFFFFFFFF
310
F000FFFFFFFFFFFFFFFFFFFFFFFFFFFFFFFFFFFFFFFFFFFFFFFFFFFFFFFFFFFF
310
FFFFFFFFFFFFFFFFFFFFFFFFFFFFFFFFFFFFFFFFFFFFFFFFFFFFFFFFFFFFFFFF
310
FFFFFFFFFFFFFFFFFFFFFFFFFFFFFFFFFFFFFFFFFFFFFFFFF000FFFFFFFFFFFF
310
FFFFFFFFFFFFFFFFFFFFFFFFFFFFFFFFFFFFFFFFFFFFFFFFFFFFFFFFFFFFFFFF
310
FFFFFFFFFFFFFFFFFFFFFFFFFFFFFFFFFFFFFFFFFFFFFFFFFFFFFFFFFFFFFFFF
310
FFFFFFFFFFFFFFFFFFFFFFFFFFFFFFFFF000FFFFFFFFFFFFFFFFFFFFFFFFFFFF
310
FFFFFFFFFFFFFFFFFFFFFFFFFFFFFFFFFFFFFFFFFFFFFFFFFFFFFFFFFFFFFFFF
310
FFFFFFFFFFFFFFFFFFFFFFFFFFFFFFFFFFFFFFFFFFFFFFFFFFFFFFFFFFFFFFFF
310
FFFFFFFFFFFFFFFFF000FFFFFFFFFFFFFFFFFFFFFFFFFFFFFFFFFFFFFFFFFFFF
310
FFFFFFFFFFFFFFFFFFFFFFFFFFFFFFFFFFFFFFFFFFFFFFFFFFFFFFFFFFFFFFFF
310
FFFFFFFFFFFFFFFFFFFFFFFFFFFFFFFFFFFFFFFFFFFFFFFFFFFFFFFFFFFFFFFF
310
F000FFFFFFFFFFFFFFFFFFFFFFFFFFFFFFFFFFFFFFFFFFFFFFFFFFFFFFFFFFFF
310
FFFFFFFFFFFFFFFFFFFFFFFFFFFFFFFFFFFFFFFFFFFFFFFFFFFFFFFFFFFFFFFF
310
FFFFFFFFFFFFFFFFFFFFFFFFFFFFFFFFFFFFFFFFFFFFFFFFF000FFFFFFFFFFFF
310
FFFFFFFFFFFFFFFFFFFFFFFFFFFFFFFFFFFFFFFFFFFFFFFFFFFFFFFFFFFFFFFF
310
FFFFFFFFFFFFFFFFFFFFFFFFFFFFFFFFFFFFFFFFFFFFFFFFFFFFFFFFFFFFFFFF
310
FFFFFFFFFFFFFFFFFFFFFFFFFFFFFFFFF000FFFFFFFFFFFFFFFFFFFFFFFFFFFF
310
FFFFFFFFFFFFFFFFFFFFFFFFFFFFFFFFFFFFFFFFFFFFFFFFFFFFFFFFFFFFFFFF
310
FFFFFFFFFFFFFFFFFFFFFFFFFFFFFFFFFFFFFFFFFFFFFFFFFFFFFFFFFFFFFFFF
310
FFFFFFFFFFFFFFFFF000FFFFFFFFFFFFFFFFFFFFFFFFFFFFFFFFFFFFFFFFFFFF
310
FFFFFFFFFFFFFFFFFFFFFFFFFFFFFFFFFFFFFFFFFFFFFFFFFFFFFFFFFFFFFFFF
310
FFFFFFFFFFFFFFFFFFFFFFFFFFFFFFFFFFFFFFFFFFFFFFFFFFFFFFFFFFFFFFFF
310
F000FFFFFFFFFFFFFFFFFFFFFFFFFFFFFFFFFFFFFFFFFFFFFFFFFFFFFFFFFFFF
310
FFFFFFFFFFFFFFFFFFFFFFFFFFFFFFFFFFFFFFFFFFFFFFFFFFFFFFFFFFFFFFFF
310
FFFFFFFFFFFFFFFFFFFFFFFFFFFFFFFFFFFFFFFFFFFFFFFFF000FFFFFFFFFFFF
310
FFFFFFFFFFFFFFFFFFFFFFFFFFFFFFFFFFFFFFFFFFFFFFFFFFFFFFFFFFFFFFFF
310
FFFFFFFFFFFFFFFFFFFFFFFFFFFFFFFFFFFFFFFFFFFFFFFFFFFFFFFFFFFFFFFF
310
FFFFFFFFFFFFFFFFFFFFFFFFFFFFFFFFF000FFFFFFFFFFFFFFFFFFFFFFFFFFFF
310
FFFFFFFFFFFFFFFFFFFFFFFFFFFFFFFFFFFFFFFFFFFFFFFFFFFFFFFFFFFFFFFF
310
FFFFFFFFFFFFFFFFFFFFFFFFFFFFFFFFFFFFFFFFFFFFFFFFFFFFFFFFFFFFFFFF
310
FFFFFFFFFFFFFFFFF000FFFFFFFFFFFFFFFFFFFFFFFFFFFFFFFFFFFFFFFFFFFF
310
FFFFFFFFFFFFFFFFFFFFFFFFFFFFFFFFFFFFFFFFFFFFFFFFFFFFFFFFFFFFFFFF
310
FFFFFFFFFFFFFFFFFFFFFFFFFFFFFFFFFFFFFFFFFFFFFFFFFFFFFFFFFFFFFFFF
310
F000FFFFFFFFFFFFFFFFFFFFFFFFFFFFFFFFFFFFFFFFFFFFFFFFFFFFFFFFFFFF
310
FFFFFFFFFFFFFFFFFFFFFFFFFFFFFFFFFFFFFFFFFFFFFFFFFFFFFFFFFFFFFFFF
310
FFFFFFFFFFFFFFFFFFFFFFFFFFFFFFFFFFFFFFFFFFFFFFFFF000FFFFFFFFFFFF
310
FFFFFFFFFFFFFFFFFFFFFFFFFFFFFFFFFFFFFFFFFFFFFFFFFFFFFFFFFFFFFFFF
310
FFFFFFFFFFFFFFFFFFFFFFFFFFFFFFFFFFFFFFFFFFFFFFFFFFFFFFFFFFFFFFFF
310
FFFFFFFFFFFFFFFFFFFFFFFFFFFFFFFFF000FFFFFFFFFFFFFFFFFFFFFFFFFFFF
310
FFFFFFFFFFFFFFFFFFFFFFFFFFFFFFFFFFFFFFFFFFFFFFFFFFFFFFFFFFFFFFFF
310
FFFFFFFFFFFFFFFFFFFFFFFFFFFFFFFFFFFFFFFFFFFFFFFFFFFFFFFFFFFFFFFF
310
FFFFFFFFFFFFFFFFF000FFFFFFFFFFFFFFFFFFFFFFFFFFFFFFFFFFFFFFFFFFFF
310
FFFFFFFFFFFFFFFFFFFFFFFFFFFFFFFFFFFFFFFFFFFFFFFFFFFFFFFFFFFFFFFF
310
FFFFFFFFFFFFFFFFFFFFFFFFFFFFFFFFFFFFFFFFFFFFFFFFFFFFFFFFFFFFFFFF
310
F000FFFFFFFFFFFFFFFFFFFFFFFFFFFFFFFFFFFFFFFFFFFFFFFFFFFFFFFFFFFF
310
FFFFFFFFFFFFFFFFFFFFFFFFFFFFFFFFFFFFFFFFFFFFFFFFFFFFFFFFFFFFFFFF
310
FFFFFFFFFFFFFFFFFFFFFFFFFFFFFFFFFFFFFFFFFFFFFFFFF000FFFFFFFFFFFF
310
FFFFFFFFFFFFFFFFFFFFFFFFFFFFFFFFFFFFFFFFFFFFFFFFFFFFFFFFFFFFFFFF
310
FFFFFFFFFFFFFFFFFFFFFFFFFFFFFFFFFFFFFFFFFFFFFFFFFFFFFFFFFFFFFFFF
310
FFFFFFFFFFFFFFFFFFFFFFFFFFFFFFFFF0000000000000000000000000000000
310
0000000000000000000000000000000000000000000000000000000000000000
310
0000000000000000000000000000000000000000000000000000000000000000
310
0000000000000000000000000000000000000000000000000000000000000000
310
0000000000000000000000000000000000000000000000000000000000000000
310
0000000000000000000000000000000000000000000000000000000000000000
310
0000000000000000000000000000000000000000000000000000000000000000
310
0000000000000000000000000000000000000000000000000000000000000000
310
0000000000000000000000000000000000000000000000000000000000000000
310
0000000000000000000000000000000000000000000000000000000000000000
310
0000000000000000000000000000000000000000000000000000000000000000
310
0000000000000000000000000000000000000000000000000000000000000000
310
0000000000000000000000000000000000000000000000000000000000000000
310
0000000000000000000000000000000000000000000000000000000000000000
310
0000000000000000000000000000000000000000000000000000000000000000
310
0000000000000000000000000000000000000000000000000000000000000000
  1
OLE
  0
ENDSEC
  0
SECTION
  2
OBJECTS
  0
DICTIONARY
  5
C
330
0
100
AcDbDictionary
281
     1
  3
ACAD_GROUP
350
D
  3
ACAD_LAYOUT
350
1A
  3
ACAD_MLINESTYLE
350
17
  3
ACAD_PLOTSETTINGS
350
19
  3
ACAD_PLOTSTYLENAME
350
E
  0
DICTIONARY
  5
D
102
{ACAD_REACTORS
330
C
102
}
330
C
100
AcDbDictionary
281
     1
  0
DICTIONARY
  5
1A
102
{ACAD_REACTORS
330
C
102
}
330
C
100
AcDbDictionary
281
     1
  3
Layout1
350
1E
  3
Layout2
350
26
  3
Model
350
22
  0
DICTIONARY
  5
17
102
{ACAD_REACTORS
330
C
102
}
330
C
100
AcDbDictionary
281
     1
  3
Standard
350
18
  0
DICTIONARY
  5
19
102
{ACAD_REACTORS
330
C
102
}
330
C
100
AcDbDictionary
281
     1
  0
ACDBDICTIONARYWDFLT
  5
E
102
{ACAD_REACTORS
330
C
102
}
330
C
100
AcDbDictionary
281
     1
  3
Normal
350
F
100
AcDbDictionaryWithDefault
340
F
  0
LAYOUT
  5
1E
102
{ACAD_REACTORS
330
1A
102
}
330
1A
100
AcDbPlotSettings
  1

  2
none_device
  4

  6

 40
0.0
 41
0.0
 42
0.0
 43
0.0
 44
0.0
 45
0.0
 46
0.0
 47
0.0
 48
0.0
 49
0.0
140
0.0
141
0.0
142
1.0
143
1.0
 70
   688
 72
     0
 73
     0
 74
     5
  7

 75
    16
147
1.0
148
0.0
149
0.0
100
AcDbLayout
  1
Layout1
 70
     1
 71
     1
 10
0.0
 20
0.0
 11
420.0
 21
297.0
 12
0.0
 22
0.0
 32
0.0
 14
1.0000000000E+20
 24
1.0000000000E+20
 34
1.0000000000E+20
 15
-1.0000000000E+20
 25
-1.0000000000E+20
 35
-1.0000000000E+20
146
0.0
 13
0.0
 23
0.0
 33
0.0
 16
1.0
 26
0.0
 36
0.0
 17
0.0
 27
1.0
 37
0.0
 76
     0
330
1B
  0
LAYOUT
  5
26
102
{ACAD_REACTORS
330
1A
102
}
330
1A
100
AcDbPlotSettings
  1

  2
none_device
  4

  6

 40
0.0
 41
0.0
 42
0.0
 43
0.0
 44
0.0
 45
0.0
 46
0.0
 47
0.0
 48
0.0
 49
0.0
140
0.0
141
0.0
142
1.0
143
1.0
 70
   688
 72
     0
 73
     0
 74
     5
  7

 75
    16
147
1.0
148
0.0
149
0.0
100
AcDbLayout
  1
Layout2
 70
     1
 71
     2
 10
0.0
 20
0.0
 11
0.0
 21
0.0
 12
0.0
 22
0.0
 32
0.0
 14
0.0
 24
0.0
 34
0.0
 15
0.0
 25
0.0
 35
0.0
146
0.0
 13
0.0
 23
0.0
 33
0.0
 16
1.0
 26
0.0
 36
0.0
 17
0.0
 27
1.0
 37
0.0
 76
     0
330
23
  0
LAYOUT
  5
22
102
{ACAD_REACTORS
330
1A
102
}
330
1A
100
AcDbPlotSettings
  1

  2
none_device
  4

  6

 40
0.0
 41
0.0
 42
0.0
 43
0.0
 44
0.0
 45
0.0
 46
0.0
 47
0.0
 48
0.0
 49
0.0
140
0.0
141
0.0
142
1.0
143
1.0
 70
  1712
 72
     0
 73
     0
 74
     0
  7

 75
     0
147
1.0
148
0.0
149
0.0
100
AcDbLayout
  1
Model
 70
     1
 71
     0
 10
0.0
 20
0.0
 11
297.0
 21
210.0
 12
0.0
 22
0.0
 32
0.0
 14
0.0
 24
0.0
 34
0.0
 15
297.0
 25
210.0
 35
0.0
146
0.0
 13
0.0
 23
0.0
 33
0.0
 16
1.0
 26
0.0
 36
0.0
 17
0.0
 27
1.0
 37
0.0
 76
     0
330
1F
331
29
  0
MLINESTYLE
  5
18
102
{ACAD_REACTORS
330
17
102
}
330
17
100
AcDbMlineStyle
  2
Standard
 70
     0
  3

 62
   256
 51
90.0
 52
90.0
 71
     2
 49
0.5
 62
   256
  6
BYLAYER
 49
-0.5
 62
   256
  6
BYLAYER
  0
ACDBPLACEHOLDER
  5
F
102
{ACAD_REACTORS
330
E
102
}
330
E
  0
ENDSEC
  0
EOF
