  0
SECTION
  2
HEADER
  9
$ACADVER
  1
AC1015
  9
$ACADMAINTVER
 70
     6
  9
$DWGCODEPAGE
  3
ANSI_1252
  9
$INSBASE
 10
0.0
 20
0.0
 30
0.0
  9
$EXTMIN
 10
0.0
 20
0.0
 30
0.0
  9
$EXTMAX
 10
297.0
 20
210.0
 30
0.0
  9
$LIMMIN
 10
0.0
 20
0.0
  9
$LIMMAX
 10
297.0
 20
210.0
  9
$ORTHOMODE
 70
     0
  9
$REGENMODE
 70
     1
  9
$FILLMODE
 70
     1
  9
$QTEXTMODE
 70
     0
  9
$MIRRTEXT
 70
     1
  9
$LTSCALE
 40
1.0
  9
$ATTMODE
 70
     1
  9
$TEXTSIZE
 40
2.0
  9
$TRACEWID
 40
1.0
  9
$TEXTSTYLE
  7
Standard
  9
$CLAYER
  8
0
  9
$CELTYPE
  6
ByLayer
  9
$CECOLOR
 62
   256
  9
$CELTSCALE
 40
1.0
  9
$DISPSILH
 70
     0
  9
$DIMSCALE
 40
1.0
  9
$DIMASZ
 40
3.0
  9
$DIMEXO
 40
0.0
  9
$DIMDLI
 40
3.75
  9
$DIMRND
 40
0.0
  9
$DIMDLE
 40
0.0
  9
$DIMEXE
 40
1.0
  9
$DIMTP
 40
0.0
  9
$DIMTM
 40
0.0
  9
$DIMTXT
 40
2.0
  9
$DIMCEN
 40
2.5
  9
$DIMTSZ
 40
0.0
  9
$DIMTOL
 70
     0
  9
$DIMLIM
 70
     0
  9
$DIMTIH
 70
     1
  9
$DIMTOH
 70
     1
  9
$DIMSE1
 70
     0
  9
$DIMSE2
 70
     0
  9
$DIMTAD
 70
     1
  9
$DIMZIN
 70
     0
  9
$DIMBLK
  1

  9
$DIMASO
 70
     1
  9
$DIMSHO
 70
     1
  9
$DIMPOST
  1

  9
$DIMAPOST
  1

  9
$DIMALT
 70
     0
  9
$DIMALTD
 70
     3
  9
$DIMALTF
 40
0.0393700787
  9
$DIMLFAC
 40
1.0
  9
$DIMTOFL
 70
     1
  9
$DIMTVP
 40
0.0
  9
$DIMTIX
 70
     0
  9
$DIMSOXD
 70
     0
  9
$DIMSAH
 70
     0
  9
$DIMBLK1
  1

  9
$DIMBLK2
  1

  9
$DIMSTYLE
  2
ISO-25
  9
$DIMCLRD
 70
     0
  9
$DIMCLRE
 70
     0
  9
$DIMCLRT
 70
     0
  9
$DIMTFAC
 40
1.0
  9
$DIMGAP
 40
1.524
  9
$DIMJUST
 70
     0
  9
$DIMSD1
 70
     0
  9
$DIMSD2
 70
     0
  9
$DIMTOLJ
 70
     0
  9
$DIMTZIN
 70
     0
  9
$DIMALTZ
 70
     0
  9
$DIMALTTZ
 70
     0
  9
$DIMUPT
 70
     0
  9
$DIMDEC
 70
     2
  9
$DIMTDEC
 70
     3
  9
$DIMALTU
 70
     2
  9
$DIMALTTD
 70
     3
  9
$DIMTXSTY
  7
Standard
  9
$DIMAUNIT
 70
     0
  9
$DIMADEC
 70
     2
  9
$DIMALTRND
 40
0.0
  9
$DIMAZIN
 70
     0
  9
$DIMDSEP
 70
    44
  9
$DIMATFIT
 70
     3
  9
$DIMFRAC
 70
     0
  9
$DIMLDRBLK
  1

  9
$DIMLUNIT
 70
     2
  9
$DIMLWD
 70
    -2
  9
$DIMLWE
 70
    -2
  9
$DIMTMOVE
 70
     0
  9
$LUNITS
 70
     2
  9
$LUPREC
 70
     2
  9
$SKETCHINC
 40
1.0
  9
$FILLETRAD
 40
10.0
  9
$AUNITS
 70
     0
  9
$AUPREC
 70
     2
  9
$MENU
  1
.
  9
$ELEVATION
 40
0.0
  9
$PELEVATION
 40
0.0
  9
$THICKNESS
 40
0.0
  9
$LIMCHECK
 70
     0
  9
$CHAMFERA
 40
10.0
  9
$CHAMFERB
 40
10.0
  9
$CHAMFERC
 40
20.0
  9
$CHAMFERD
 40
0.0
  9
$SKPOLY
 70
     0
  9
$TDCREATE
 40
2456087.67227897
  9
$TDUCREATE
 40
2456087.588945637
  9
$TDUPDATE
 40
2456087.672280417
  9
$TDUUPDATE
 40
2456087.588947083
  9
$TDINDWG
 40
0.0000000116
  9
$TDUSRTIMER
 40
0.0000000116
  9
$USRTIMER
 70
     1
  9
$ANGBASE
 50
0.0
  9
$ANGDIR
 70
     0
  9
$PDMODE
 70
     0
  9
$PDSIZE
 40
-1.0
  9
$PLINEWID
 40
0.0
  9
$SPLFRAME
 70
     0
  9
$SPLINETYPE
 70
     6
  9
$SPLINESEGS
 70
     8
  9
$HANDSEED
  5
264
  9
$SURFTAB1
 70
     6
  9
$SURFTAB2
 70
     6
  9
$SURFTYPE
 70
     6
  9
$SURFU
 70
     6
  9
$SURFV
 70
     6
  9
$UCSBASE
  2

  9
$UCSNAME
  2

  9
$UCSORG
 10
0.0
 20
0.0
 30
0.0
  9
$UCSXDIR
 10
1.0
 20
0.0
 30
0.0
  9
$UCSYDIR
 10
0.0
 20
1.0
 30
0.0
  9
$UCSORTHOREF
  2

  9
$UCSORTHOVIEW
 70
     0
  9
$UCSORGTOP
 10
0.0
 20
0.0
 30
0.0
  9
$UCSORGBOTTOM
 10
0.0
 20
0.0
 30
0.0
  9
$UCSORGLEFT
 10
0.0
 20
0.0
 30
0.0
  9
$UCSORGRIGHT
 10
0.0
 20
0.0
 30
0.0
  9
$UCSORGFRONT
 10
0.0
 20
0.0
 30
0.0
  9
$UCSORGBACK
 10
0.0
 20
0.0
 30
0.0
  9
$PUCSBASE
  2

  9
$PUCSNAME
  2

  9
$PUCSORG
 10
0.0
 20
0.0
 30
0.0
  9
$PUCSXDIR
 10
1.0
 20
0.0
 30
0.0
  9
$PUCSYDIR
 10
0.0
 20
1.0
 30
0.0
  9
$PUCSORTHOREF
  2

  9
$PUCSORTHOVIEW
 70
     0
  9
$PUCSORGTOP
 10
0.0
 20
0.0
 30
0.0
  9
$PUCSORGBOTTOM
 10
0.0
 20
0.0
 30
0.0
  9
$PUCSORGLEFT
 10
0.0
 20
0.0
 30
0.0
  9
$PUCSORGRIGHT
 10
0.0
 20
0.0
 30
0.0
  9
$PUCSORGFRONT
 10
0.0
 20
0.0
 30
0.0
  9
$PUCSORGBACK
 10
0.0
 20
0.0
 30
0.0
  9
$USERI1
 70
     0
  9
$USERI2
 70
     0
  9
$USERI3
 70
     0
  9
$USERI4
 70
     0
  9
$USERI5
 70
     0
  9
$USERR1
 40
0.0
  9
$USERR2
 40
0.0
  9
$USERR3
 40
0.0
  9
$USERR4
 40
0.0
  9
$USERR5
 40
0.0
  9
$WORLDVIEW
 70
     1
  9
$SHADEDGE
 70
     3
  9
$SHADEDIF
 70
    70
  9
$TILEMODE
 70
     1
  9
$MAXACTVP
 70
    64
  9
$PINSBASE
 10
0.0
 20
0.0
 30
0.0
  9
$PLIMCHECK
 70
     0
  9
$PEXTMIN
 10
1.0000000000E+20
 20
1.0000000000E+20
 30
1.0000000000E+20
  9
$PEXTMAX
 10
-1.0000000000E+20
 20
-1.0000000000E+20
 30
-1.0000000000E+20
  9
$PLIMMIN
 10
0.0
 20
0.0
  9
$PLIMMAX
 10
420.0
 20
297.0
  9
$UNITMODE
 70
     0
  9
$VISRETAIN
 70
     1
  9
$PLINEGEN
 70
     0
  9
$PSLTSCALE
 70
     1
  9
$TREEDEPTH
 70
  3020
  9
$CMLSTYLE
  2
Standard
  9
$CMLJUST
 70
     0
  9
$CMLSCALE
 40
20.0
  9
$PROXYGRAPHICS
 70
     1
  9
$MEASUREMENT
 70
     1
  9
$CELWEIGHT
370
    -1
  9
$ENDCAPS
280
     0
  9
$JOINSTYLE
280
     0
  9
$LWDISPLAY
290
     1
  9
$INSUNITS
 70
     4
  9
$HYPERLINKBASE
  1

  9
$STYLESHEET
  1

  9
$XEDIT
290
     1
  9
$CEPSNTYPE
380
     0
  9
$PSTYLEMODE
290
     1
  9
$FINGERPRINTGUID
  2
{EB916C72-7803-4A22-A2D5-71A97569802D}
  9
$VERSIONGUID
  2
{FAEB1C32-E019-11D5-929B-00C0DF256EC4}
  9
$EXTNAMES
290
     1
  9
$PSVPSCALE
 40
0.0
  9
$OLESTARTUP
290
     0
  0
ENDSEC
  0
SECTION
  2
CLASSES
  0
CLASS
  1
ACDBDICTIONARYWDFLT
  2
AcDbDictionaryWithDefault
  3
ObjectDBX Classes
 90
        0
280
     0
281
     0
  0
CLASS
  1
VISUALSTYLE
  2
AcDbVisualStyle
  3
ObjectDBX Classes
 90
     4095
280
     0
281
     0
  0
CLASS
  1
MATERIAL
  2
AcDbMaterial
  3
ObjectDBX Classes
 90
     1153
280
     0
281
     0
  0
CLASS
  1
ACDBPLACEHOLDER
  2
AcDbPlaceHolder
  3
ObjectDBX Classes
 90
        0
280
     0
281
     0
  0
CLASS
  1
LAYOUT
  2
AcDbLayout
  3
ObjectDBX Classes
 90
        0
280
     0
281
     0
  0
ENDSEC
  0
SECTION
  2
TABLES
  0
TABLE
  2
VPORT
  5
8
330
0
100
AcDbSymbolTable
 70
     1
  0
VPORT
  5
29
330
8
100
AcDbSymbolTableRecord
100
AcDbViewportTableRecord
  2
*Active
 70
     0
 10
0.0
 20
0.0
 11
1.0
 21
1.0
 12
148.5
 22
105.0
 13
0.0
 23
0.0
 14
10.0
 24
10.0
 15
10.0
 25
10.0
 16
0.0
 26
0.0
 36
1.0
 17
0.0
 27
0.0
 37
0.0
 40
210.0
 41
1.4142857143
 42
50.0
 43
0.0
 44
0.0
 50
0.0
 51
0.0
 71
     0
 72
  2000
 73
     1
 74
     3
 75
     0
 76
     0
 77
     0
 78
     0
281
     0
 65
     1
110
0.0
120
0.0
130
0.0
111
1.0
121
0.0
131
0.0
112
0.0
122
1.0
132
0.0
 79
     0
146
0.0
  0
ENDTAB
  0
TABLE
  2
LTYPE
  5
5
330
0
100
AcDbSymbolTable
 70
     6
  0
LTYPE
  5
14
330
5
100
AcDbSymbolTableRecord
100
AcDbLinetypeTableRecord
  2
ByBlock
 70
     0
  3

 72
    65
 73
     0
 40
0.0
  0
LTYPE
  5
15
330
5
100
AcDbSymbolTableRecord
100
AcDbLinetypeTableRecord
  2
ByLayer
 70
     0
  3

 72
    65
 73
     0
 40
0.0
  0
LTYPE
  5
16
330
5
100
AcDbSymbolTableRecord
100
AcDbLinetypeTableRecord
  2
Continuous
 70
     0
  3
Solid line
 72
    65
 73
     0
 40
0.0
  0
LTYPE
  5
3F
330
5
100
AcDbSymbolTableRecord
100
AcDbLinetypeTableRecord
  2
HIDDEN
 70
     0
  3
Hidden __ __ __ __ __ __ __ __ __ __ __ __ __ __
 72
    65
 73
     2
 40
1.905
 49
1.27
 74
     0
 49
-0.635
 74
     0
  0
LTYPE
  5
40
330
5
100
AcDbSymbolTableRecord
100
AcDbLinetypeTableRecord
  2
PHANTOM
 70
     0
  3
Phantom ______  __  __  ______  __  __  ______
 72
    65
 73
     6
 40
12.7
 49
6.35
 74
     0
 49
-1.27
 74
     0
 49
1.27
 74
     0
 49
-1.27
 74
     0
 49
1.27
 74
     0
 49
-1.27
 74
     0
  0
LTYPE
  5
41
330
5
100
AcDbSymbolTableRecord
100
AcDbLinetypeTableRecord
  2
CENTER
 70
     0
  3
Center ____ _ ____ _ ____ _ ____ _ ____ _ ____
 72
    65
 73
     4
 40
10.16
 49
6.35
 74
     0
 49
-1.27
 74
     0
 49
1.27
 74
     0
 49
-1.27
 74
     0
  0
LTYPE
  5
42
330
5
100
AcDbSymbolTableRecord
100
AcDbLinetypeTableRecord
  2
CENTERX2
 70
     0
  3
Center (2x) ________  __  ________  __  _____
 72
    65
 73
     4
 40
20.32
 49
12.7
 74
     0
 49
-2.54
 74
     0
 49
2.54
 74
     0
 49
-2.54
 74
     0
  0
LTYPE
  5
43
330
5
100
AcDbSymbolTableRecord
100
AcDbLinetypeTableRecord
  2
DOT2
 70
     0
  3
Dot (.5x) ........................................
 72
    65
 73
     2
 40
0.635
 49
0.0
 74
     0
 49
-0.635
 74
     0
  0
ENDTAB
  0
TABLE
  2
LAYER
  5
2
330
0
100
AcDbSymbolTable
 70
     5
  0
LAYER
  5
10
330
2
100
AcDbSymbolTableRecord
100
AcDbLayerTableRecord
  2
0
 70
     0
 62
     7
  6
Continuous
370
    -3
390
F
  0
LAYER
  5
44
330
2
100
AcDbSymbolTableRecord
100
AcDbLayerTableRecord
  2
FORMAT
 70
     0
 62
     7
  6
Continuous
370
    -3
390
F
  0
LAYER
  5
45
330
2
100
AcDbSymbolTableRecord
100
AcDbLayerTableRecord
  2
VERMASSUNG
 70
     0
 62
     7
  6
Continuous
370
    -3
390
F
  0
LAYER
  5
46
330
2
100
AcDbSymbolTableRecord
100
AcDbLayerTableRecord
  2
KOPF_DÜNN
 70
     0
 62
     7
  6
Continuous
370
    -3
390
F
  0
LAYER
  5
47
330
2
100
AcDbSymbolTableRecord
100
AcDbLayerTableRecord
  2
KOPF_DICK
 70
     0
 62
     7
  6
Continuous
370
    15
390
F
  0
ENDTAB
  0
TABLE
  2
STYLE
  5
3
330
0
100
AcDbSymbolTable
 70
     2
  0
STYLE
  5
11
330
3
100
AcDbSymbolTableRecord
100
AcDbTextStyleTableRecord
  2
Standard
 70
     0
 40
0.0
 41
1.0
 50
0.0
 71
     0
 42
2.0
  3
txt
  4

  0
STYLE
  5
48
330
3
100
AcDbSymbolTableRecord
100
AcDbTextStyleTableRecord
  2
SLDTEXTSTYLE0
 70
     0
 40
0.0
 41
0.7
 50
0.0
 71
     0
 42
0.2
  3
TXT
  4

  0
ENDTAB
  0
TABLE
  2
VIEW
  5
6
330
0
100
AcDbSymbolTable
 70
     0
  0
ENDTAB
  0
TABLE
  2
UCS
  5
7
330
0
100
AcDbSymbolTable
 70
     0
  0
ENDTAB
  0
TABLE
  2
APPID
  5
9
330
0
100
AcDbSymbolTable
 70
     1
  0
APPID
  5
12
330
9
100
AcDbSymbolTableRecord
100
AcDbRegAppTableRecord
  2
ACAD
 70
     0
  0
ENDTAB
  0
TABLE
  2
DIMSTYLE
  5
A
330
0
100
AcDbSymbolTable
 70
     5
100
AcDbDimStyleTable
  0
DIMSTYLE
105
27
330
A
100
AcDbSymbolTableRecord
100
AcDbDimStyleTableRecord
  2
ISO-25
 70
     0
 41
2.5
 42
0.625
 43
3.75
 44
1.25
 73
     0
 74
     0
 77
     1
 78
     8
140
2.5
141
2.5
143
0.0393700787
147
0.625
171
     3
172
     1
178
     0
271
     2
272
     2
274
     3
278
    44
283
     0
284
     8
340
11
  0
DIMSTYLE
105
1B0
102
{ACAD_REACTORS
330
1AF
330
1BA
330
1C4
330
1D7
330
1E3
102
}
330
A
100
AcDbSymbolTableRecord
100
AcDbDimStyleTableRecord
  2
SLDDIMSTYLE0
 70
     0
 41
3.0
 44
0.0
 45
0.000000001
 73
     0
 74
     0
 77
     1
 78
    12
 79
     3
140
2.0
147
0.5
173
     1
178
     0
271
     2
272
     3
276
     2
284
    12
340
48
  0
DIMSTYLE
105
1CF
102
{ACAD_REACTORS
330
1CE
102
}
330
A
100
AcDbSymbolTableRecord
100
AcDbDimStyleTableRecord
  2
SLDDIMSTYLE1
 70
     0
 41
3.0
 44
0.0
 73
     0
 74
     0
 77
     1
 78
    12
 79
     3
140
2.0
147
0.5
173
     1
178
     0
179
     1
272
     3
276
     2
284
    12
340
48
  0
DIMSTYLE
105
23E
102
{ACAD_REACTORS
330
23D
102
}
330
A
100
AcDbSymbolTableRecord
100
AcDbDimStyleTableRecord
  2
SLDDIMSTYLE2
 70
     0
 41
3.0
 44
0.0
 73
     0
 74
     0
 77
     1
 78
    12
 79
     3
140
2.0
147
0.5
173
     1
178
     0
179
     2
272
     3
276
     2
284
    12
340
48
  0
DIMSTYLE
105
249
102
{ACAD_REACTORS
330
248
102
}
330
A
100
AcDbSymbolTableRecord
100
AcDbDimStyleTableRecord
  2
SLDDIMSTYLE3
 70
     0
 41
3.0
 44
0.0
 45
0.000000001
 73
     0
 74
     0
 77
     1
 78
    12
 79
     3
140
2.0
147
0.5
172
     1
173
     1
178
     0
271
     2
272
     3
276
     2
284
    12
289
     0
340
48
  0
ENDTAB
  0
TABLE
  2
BLOCK_RECORD
  5
1
330
0
100
AcDbSymbolTable
 70
    10
  0
BLOCK_RECORD
  5
1F
330
1
100
AcDbSymbolTableRecord
100
AcDbBlockTableRecord
  2
*Model_Space
340
22
  0
BLOCK_RECORD
  5
1B
330
1
100
AcDbSymbolTableRecord
100
AcDbBlockTableRecord
  2
*Paper_Space
340
1E
  0
BLOCK_RECORD
  5
23
330
1
100
AcDbSymbolTableRecord
100
AcDbBlockTableRecord
  2
*Paper_Space0
340
26
  0
BLOCK_RECORD
  5
1B1
330
1
100
AcDbSymbolTableRecord
100
AcDbBlockTableRecord
  2
_D
340
0
  0
BLOCK_RECORD
  5
1BB
330
1
100
AcDbSymbolTableRecord
100
AcDbBlockTableRecord
  2
_D_1
340
0
  0
BLOCK_RECORD
  5
1C5
330
1
100
AcDbSymbolTableRecord
100
AcDbBlockTableRecord
  2
_D_2
340
0
  0
BLOCK_RECORD
  5
1D0
330
1
100
AcDbSymbolTableRecord
100
AcDbBlockTableRecord
  2
_D_3
340
0
  0
BLOCK_RECORD
  5
1D8
330
1
100
AcDbSymbolTableRecord
100
AcDbBlockTableRecord
  2
_D_4
340
0
  0
BLOCK_RECORD
  5
1E4
330
1
100
AcDbSymbolTableRecord
100
AcDbBlockTableRecord
  2
_D_5
340
0
  0
BLOCK_RECORD
  5
23F
330
1
100
AcDbSymbolTableRecord
100
AcDbBlockTableRecord
  2
_D_6
340
0
  0
BLOCK_RECORD
  5
24A
330
1
100
AcDbSymbolTableRecord
100
AcDbBlockTableRecord
  2
_D_7
340
0
  0
BLOCK_RECORD
  5
257
330
1
100
AcDbSymbolTableRecord
100
AcDbBlockTableRecord
  2
SW_CENTERMARKSYMBOL_0
340
0
102
{BLKREFS
331
262
102
}
  0
ENDTAB
  0
ENDSEC
  0
SECTION
  2
BLOCKS
  0
BLOCK
  5
20
330
1F
100
AcDbEntity
  8
0
100
AcDbBlockBegin
  2
*Model_Space
 70
     0
 10
0.0
 20
0.0
 30
0.0
  3
*Model_Space
  1

  0
ENDBLK
  5
21
330
1F
100
AcDbEntity
  8
0
100
AcDbBlockEnd
  0
BLOCK
  5
1C
330
1B
100
AcDbEntity
 67
     1
  8
0
100
AcDbBlockBegin
  2
*Paper_Space
 70
     0
 10
0.0
 20
0.0
 30
0.0
  3
*Paper_Space
  1

  0
ENDBLK
  5
1D
330
1B
100
AcDbEntity
 67
     1
  8
0
100
AcDbBlockEnd
  0
BLOCK
  5
24
330
23
100
AcDbEntity
  8
0
100
AcDbBlockBegin
  2
*Paper_Space0
 70
     0
 10
0.0
 20
0.0
 30
0.0
  3
*Paper_Space0
  1

  0
ENDBLK
  5
25
330
23
100
AcDbEntity
  8
0
100
AcDbBlockEnd
  0
BLOCK
  5
1B2
330
1B1
100
AcDbEntity
  8
0
100
AcDbBlockBegin
  2
_D
 70
     0
 10
0.0
 20
0.0
 30
0.0
  3
_D
  1

  0
SOLID
  5
1B4
330
1B1
100
AcDbEntity
  8
VERMASSUNG
100
AcDbTrace
 10
81.7207567277
 20
124.8615180648
 30
0.0
 11
84.7207567277
 21
124.4115180648
 31
0.0
 12
84.7207567277
 22
125.3115180648
 32
0.0
 13
84.7207567277
 23
125.3115180648
 33
0.0
  0
SOLID
  5
1B5
330
1B1
100
AcDbEntity
  8
VERMASSUNG
100
AcDbTrace
 10
261.7207567277
 20
124.8615180648
 30
0.0
 11
258.7207567277
 21
125.3115180648
 31
0.0
 12
258.7207567277
 22
124.4115180648
 32
0.0
 13
258.7207567277
 23
124.4115180648
 33
0.0
  0
LINE
  5
1B6
330
1B1
100
AcDbEntity
  8
VERMASSUNG
100
AcDbLine
 10
81.7207567277
 20
132.3855594428
 30
0.0
 11
81.7207567277
 21
123.8615180648
 31
0.0
  0
LINE
  5
1B7
330
1B1
100
AcDbEntity
  8
VERMASSUNG
100
AcDbLine
 10
261.7207567277
 20
136.3855594428
 30
0.0
 11
261.7207567277
 21
123.8615180648
 31
0.0
  0
LINE
  5
1B8
330
1B1
100
AcDbEntity
  8
VERMASSUNG
100
AcDbLine
 10
81.7207567277
 20
124.8615180648
 30
0.0
 11
261.7207567277
 21
124.8615180648
 31
0.0
  0
MTEXT
  5
1B9
330
1B1
100
AcDbEntity
  8
VERMASSUNG
100
AcDbMText
 10
168.9207565947
 20
127.4396534279
 30
0.1
 40
2.0
 41
0.0
 71
     1
 72
     1
  1
180
  7
SLDTEXTSTYLE0
 73
     1
 44
1.0
  0
ENDBLK
  5
1B3
330
1B1
100
AcDbEntity
  8
0
100
AcDbBlockEnd
  0
BLOCK
  5
1BC
330
1BB
100
AcDbEntity
  8
0
100
AcDbBlockBegin
  2
_D_1
 70
     0
 10
0.0
 20
0.0
 30
0.0
  3
_D_1
  1

  0
SOLID
  5
1BE
330
1BB
100
AcDbEntity
  8
VERMASSUNG
100
AcDbTrace
 10
261.7207567277
 20
115.8855594428
 30
0.0
 11
258.7207567277
 21
116.3355594428
 31
0.0
 12
258.7207567277
 22
115.4355594428
 32
0.0
 13
258.7207567277
 23
115.4355594428
 33
0.0
  0
SOLID
  5
1BF
330
1BB
100
AcDbEntity
  8
VERMASSUNG
100
AcDbTrace
 10
43.7207567277
 20
115.8855594428
 30
0.0
 11
46.7207567277
 21
115.4355594428
 31
0.0
 12
46.7207567277
 22
116.3355594428
 32
0.0
 13
46.7207567277
 23
116.3355594428
 33
0.0
  0
LINE
  5
1C0
330
1BB
100
AcDbEntity
  8
VERMASSUNG
100
AcDbLine
 10
261.7207567277
 20
136.3855594428
 30
0.0
 11
261.7207567277
 21
114.8855594428
 31
0.0
  0
LINE
  5
1C1
330
1BB
100
AcDbEntity
  8
VERMASSUNG
100
AcDbLine
 10
43.7207567277
 20
143.0932214503
 30
0.0
 11
43.7207567277
 21
114.8855594428
 31
0.0
  0
LINE
  5
1C2
330
1BB
100
AcDbEntity
  8
VERMASSUNG
100
AcDbLine
 10
261.7207567277
 20
115.8855594428
 30
0.0
 11
43.7207567277
 21
115.8855594428
 31
0.0
  0
MTEXT
  5
1C3
330
1BB
100
AcDbEntity
  8
VERMASSUNG
100
AcDbMText
 10
149.9207565947
 20
118.463694806
 30
0.1
 40
2.0
 41
0.0
 71
     1
 72
     1
  1
218
  7
SLDTEXTSTYLE0
 73
     1
 44
1.0
  0
ENDBLK
  5
1BD
330
1BB
100
AcDbEntity
  8
0
100
AcDbBlockEnd
  0
BLOCK
  5
1C6
330
1C5
100
AcDbEntity
  8
0
100
AcDbBlockBegin
  2
_D_2
 70
     0
 10
0.0
 20
0.0
 30
0.0
  3
_D_2
  1

  0
SOLID
  5
1C8
330
1C5
100
AcDbEntity
  8
VERMASSUNG
100
AcDbTrace
 10
280.5479797995
 20
163.3855594428
 30
0.0
 11
280.0979797995
 21
160.3855594428
 31
0.0
 12
280.9979797995
 22
160.3855594428
 32
0.0
 13
280.9979797995
 23
160.3855594428
 33
0.0
  0
SOLID
  5
1C9
330
1C5
100
AcDbEntity
  8
VERMASSUNG
100
AcDbTrace
 10
280.5479797995
 20
136.3855594428
 30
0.0
 11
280.9979797995
 21
139.3855594428
 31
0.0
 12
280.0979797995
 22
139.3855594428
 32
0.0
 13
280.0979797995
 23
139.3855594428
 33
0.0
  0
LINE
  5
1CA
330
1C5
100
AcDbEntity
  8
VERMASSUNG
100
AcDbLine
 10
261.7207567277
 20
163.3855594428
 30
0.0
 11
281.5479797995
 21
163.3855594428
 31
0.0
  0
LINE
  5
1CB
330
1C5
100
AcDbEntity
  8
VERMASSUNG
100
AcDbLine
 10
261.7207567277
 20
136.3855594428
 30
0.0
 11
281.5479797995
 21
136.3855594428
 31
0.0
  0
LINE
  5
1CC
330
1C5
100
AcDbEntity
  8
VERMASSUNG
100
AcDbLine
 10
280.5479797995
 20
163.3855594428
 30
0.0
 11
280.5479797995
 21
136.3855594428
 31
0.0
  0
MTEXT
  5
1CD
330
1C5
100
AcDbEntity
  8
VERMASSUNG
100
AcDbMText
 10
277.9698444363
 20
147.5855593918
 30
0.1
 40
2.0
 41
0.0
 71
     1
 72
     1
  1
27
  7
SLDTEXTSTYLE0
 11
-7.044195017643634E-15
 21
1.0
 31
0.0
 73
     1
 44
1.0
  0
ENDBLK
  5
1C7
330
1C5
100
AcDbEntity
  8
0
100
AcDbBlockEnd
  0
BLOCK
  5
1D1
330
1D0
100
AcDbEntity
  8
0
100
AcDbBlockBegin
  2
_D_3
 70
     0
 10
0.0
 20
0.0
 30
0.0
  3
_D_3
  1

  0
ARC
  5
1D3
330
1D0
100
AcDbEntity
  8
VERMASSUNG
100
AcDbCircle
 10
261.8659438669
 20
136.3855594428
 30
0.0
 40
12.57905896899149
100
AcDbArc
 50
0.0
 51
107.5093669553
  0
SOLID
  5
1D4
330
1D0
100
AcDbEntity
  8
VERMASSUNG
100
AcDbTrace
 10
274.4450028359
 20
136.3855594428
 30
0.0
 11
274.5415473089
 21
139.4175850306
 31
0.0
 12
273.6477065484
 22
139.3124722584
 32
0.0
 13
273.6477065484
 23
139.3124722584
 33
0.0
  0
SOLID
  5
1D5
330
1D0
100
AcDbEntity
  8
VERMASSUNG
100
AcDbTrace
 10
258.0813866357
 20
148.381802651
 30
0.0
 11
261.112565002
 21
148.5020428766
 31
0.0
 12
260.9438852033
 22
149.3860944166
 32
0.0
 13
260.9438852033
 23
149.3860944166
 33
0.0
  0
MTEXT
  5
1D6
330
1D0
100
AcDbEntity
  8
VERMASSUNG
100
AcDbMText
 10
267.2789710169
 20
151.2112019883
 30
0.1
 40
2.0
 41
0.0
 71
     1
 72
     1
  1
107.5°
  7
SLDTEXTSTYLE0
 11
0.8064929364690351
 21
-0.591243725907982
 31
0.0
 73
     1
 44
1.0
  0
ENDBLK
  5
1D2
330
1D0
100
AcDbEntity
  8
0
100
AcDbBlockEnd
  0
BLOCK
  5
1D9
330
1D8
100
AcDbEntity
  8
0
100
AcDbBlockBegin
  2
_D_4
 70
     0
 10
0.0
 20
0.0
 30
0.0
  3
_D_4
  1

  0
SOLID
  5
1DB
330
1D8
100
AcDbEntity
  8
VERMASSUNG
100
AcDbTrace
 10
33.7207067277
 20
194.8855594428
 30
0.0
 11
33.2707067277
 21
191.8855594428
 31
0.0
 12
34.1707067277
 22
191.8855594428
 32
0.0
 13
34.1707067277
 23
191.8855594428
 33
0.0
  0
SOLID
  5
1DC
330
1D8
100
AcDbEntity
  8
VERMASSUNG
100
AcDbTrace
 10
33.7207067277
 20
131.8855594428
 30
0.0
 11
34.1707067277
 21
134.8855594428
 31
0.0
 12
33.2707067277
 22
134.8855594428
 32
0.0
 13
33.2707067277
 23
134.8855594428
 33
0.0
  0
LINE
  5
1DD
330
1D8
100
AcDbEntity
  8
VERMASSUNG
100
AcDbLine
 10
82.2207567277
 20
194.8855594428
 30
0.0
 11
32.7207067277
 21
194.8855594428
 31
0.0
  0
LINE
  5
1DE
330
1D8
100
AcDbEntity
  8
VERMASSUNG
100
AcDbLine
 10
82.2207567277
 20
131.8855594428
 30
0.0
 11
32.7207067277
 21
131.8855594428
 31
0.0
  0
LINE
  5
1DF
330
1D8
100
AcDbEntity
  8
VERMASSUNG
100
AcDbLine
 10
33.7207067277
 20
194.8855594428
 30
0.0
 11
33.7207067277
 21
131.8855594428
 31
0.0
  0
MTEXT
  5
1E0
330
1D8
100
AcDbEntity
  8
VERMASSUNG
100
AcDbMText
 10
30.9425712387
 20
156.9805593336
 30
0.1
 40
2.0
 41
0.0
 71
     1
 72
     1
  1
PSC
  7
SLDTEXTSTYLE0
 11
-7.044195017643634E-15
 21
1.0
 31
0.0
 73
     1
 44
1.0
  0
MTEXT
  5
1E1
330
1D8
100
AcDbEntity
  8
VERMASSUNG
100
AcDbMText
 10
31.1425712482
 20
161.5805594357
 30
0.1
 40
2.0
 41
0.0
 71
     1
 72
     1
  1
%%c
  7
SLDTEXTSTYLE0
 11
-7.044195017643634E-15
 21
1.0
 31
0.0
 73
     1
 44
1.0
  0
MTEXT
  5
1E2
330
1D8
100
AcDbEntity
  8
VERMASSUNG
100
AcDbMText
 10
30.9425712387
 20
165.1905599157
 30
0.1
 40
2.0
 41
0.0
 71
     1
 72
     1
  1
63
  7
SLDTEXTSTYLE0
 11
-7.044195017643634E-15
 21
1.0
 31
0.0
 73
     1
 44
1.0
  0
ENDBLK
  5
1DA
330
1D8
100
AcDbEntity
  8
0
100
AcDbBlockEnd
  0
BLOCK
  5
1E5
330
1E4
100
AcDbEntity
  8
0
100
AcDbBlockBegin
  2
_D_5
 70
     0
 10
0.0
 20
0.0
 30
0.0
  3
_D_5
  1

  0
SOLID
  5
1E7
330
1E4
100
AcDbEntity
  8
VERMASSUNG
100
AcDbTrace
 10
130.253074767
 20
143.3855594428
 30
0.0
 11
130.703074767
 21
146.3855594428
 31
0.0
 12
129.803074767
 22
146.3855594428
 32
0.0
 13
129.803074767
 23
146.3855594428
 33
0.0
  0
SOLID
  5
1E8
330
1E4
100
AcDbEntity
  8
VERMASSUNG
100
AcDbTrace
 10
130.253074767
 20
183.3855594428
 30
0.0
 11
129.803074767
 21
180.3855594428
 31
0.0
 12
130.703074767
 22
180.3855594428
 32
0.0
 13
130.703074767
 23
180.3855594428
 33
0.0
  0
LINE
  5
1E9
330
1E4
100
AcDbEntity
  8
VERMASSUNG
100
AcDbLine
 10
130.253074767
 20
143.3855594428
 30
0.0
 11
130.253074767
 21
183.3855594428
 31
0.0
  0
MTEXT
  5
1EA
330
1E4
100
AcDbEntity
  8
VERMASSUNG
100
AcDbMText
 10
127.6749392875
 20
149.6627675992
 30
0.1
 40
2.0
 41
0.0
 71
     1
 72
     1
  1
%%c
  7
SLDTEXTSTYLE0
 11
6.123233995736766E-17
 21
1.0
 31
0.0
 73
     1
 44
1.0
  0
MTEXT
  5
1EB
330
1E4
100
AcDbEntity
  8
VERMASSUNG
100
AcDbMText
 10
127.474939278
 20
153.2727676135
 30
0.1
 40
2.0
 41
0.0
 71
     1
 72
     1
  1
40
  7
SLDTEXTSTYLE0
 11
6.123233995736766E-17
 21
1.0
 31
0.0
 73
     1
 44
1.0
  0
ENDBLK
  5
1E6
330
1E4
100
AcDbEntity
  8
0
100
AcDbBlockEnd
  0
BLOCK
  5
240
330
23F
100
AcDbEntity
  8
0
100
AcDbBlockBegin
  2
_D_6
 70
     0
 10
0.0
 20
0.0
 30
0.0
  3
_D_6
  1

  0
ARC
  5
242
330
23F
100
AcDbEntity
  8
VERMASSUNG
100
AcDbCircle
 10
174.7868392691
 20
33.8588175416
 30
0.0
 40
64.18972166472761
100
AcDbArc
 50
90.0
 51
102.0
  0
SOLID
  5
243
330
23F
100
AcDbEntity
  8
VERMASSUNG
100
AcDbTrace
 10
174.7868392691
 20
98.0485392063
 30
0.0
 11
171.7771500513
 21
98.4283691849
 31
0.0
 12
171.798164253
 22
97.5286145498
 32
0.0
 13
171.798164253
 23
97.5286145498
 33
0.0
  0
SOLID
  5
244
330
23F
100
AcDbEntity
  8
VERMASSUNG
100
AcDbTrace
 10
161.4410457047
 20
96.6458397797
 30
0.0
 11
164.4725094154
 21
96.7586572003
 31
0.0
 12
164.3059948989
 22
97.643119136
 32
0.0
 13
164.3059948989
 23
97.643119136
 33
0.0
  0
LINE
  5
245
330
23F
100
AcDbEntity
  8
VERMASSUNG
100
AcDbLine
 10
174.7868392691
 20
94.7029450378
 30
0.0
 11
174.7868392691
 21
99.0485392063
 31
0.0
  0
LINE
  5
246
330
23F
100
AcDbEntity
  8
VERMASSUNG
100
AcDbLine
 10
162.3967076218
 20
92.1498039496
 30
0.0
 11
161.2331340138
 21
97.6239873804
 31
0.0
  0
MTEXT
  5
247
330
23F
100
AcDbEntity
  8
VERMASSUNG
100
AcDbMText
 10
165.1224885911
 20
99.9786864044
 30
0.1
 40
2.0
 41
0.0
 71
     1
 72
     1
  1
12°
  7
SLDTEXTSTYLE0
 11
0.9945218953682722
 21
0.1045284632676642
 31
0.0
 73
     1
 44
1.0
  0
ENDBLK
  5
241
330
23F
100
AcDbEntity
  8
0
100
AcDbBlockEnd
  0
BLOCK
  5
24B
330
24A
100
AcDbEntity
  8
0
100
AcDbBlockBegin
  2
_D_7
 70
     0
 10
0.0
 20
0.0
 30
0.0
  3
_D_7
  1

  0
SOLID
  5
24D
330
24A
100
AcDbEntity
  8
VERMASSUNG
100
AcDbTrace
 10
190.1027590609
 20
78.6179319178
 30
0.0
 11
192.2963334946
 21
80.7133390867
 31
0.0
 12
191.5850053771
 22
81.2647121992
 32
0.0
 13
191.5850053771
 23
81.2647121992
 33
0.0
  0
SOLID
  5
24E
330
24A
100
AcDbEntity
  8
VERMASSUNG
100
AcDbTrace
 10
159.4709194773
 20
39.0997031654
 30
0.0
 11
157.2773450435
 21
37.0042959965
 31
0.0
 12
157.9886731611
 22
36.452922884
 32
0.0
 13
157.9886731611
 23
36.452922884
 33
0.0
  0
LINE
  5
24F
330
24A
100
AcDbEntity
  8
VERMASSUNG
100
AcDbLine
 10
190.1027590609
 20
78.6179319178
 30
0.0
 11
189.3123944858
 21
79.2305687094
 31
0.0
  0
LINE
  5
250
330
24A
100
AcDbEntity
  8
VERMASSUNG
100
AcDbLine
 10
159.4709194773
 20
39.0997031654
 30
0.0
 11
158.6805549023
 21
39.712339957
 31
0.0
  0
LINE
  5
251
330
24A
100
AcDbEntity
  8
VERMASSUNG
100
AcDbLine
 10
190.1027590609
 20
78.6179319178
 30
0.0
 11
193.7785798109
 21
83.3601193681
 31
0.0
  0
LINE
  5
252
330
24A
100
AcDbEntity
  8
VERMASSUNG
100
AcDbLine
 10
190.1027590609
 20
78.6179319178
 30
0.0
 11
159.4709194773
 21
39.0997031654
 31
0.0
  0
LINE
  5
253
330
24A
100
AcDbEntity
  8
VERMASSUNG
100
AcDbLine
 10
159.4709194773
 20
39.0997031654
 30
0.0
 11
146.549075083
 21
22.4291926893
 31
0.0
  0
MTEXT
  5
254
330
24A
100
AcDbEntity
  8
VERMASSUNG
100
AcDbMText
 10
144.5114081303
 20
24.008653338
 30
0.1
 40
2.0
 41
0.0
 71
     1
 72
     1
  1
%%c
  7
SLDTEXTSTYLE0
 11
0.612636791670648
 21
0.7903645750484362
 31
0.0
 73
     1
 44
1.0
  0
MTEXT
  5
255
330
24A
100
AcDbEntity
  8
VERMASSUNG
100
AcDbMText
 10
146.5649540345
 20
26.9843968294
 30
0.1
 40
2.0
 41
0.0
 71
     1
 72
     1
  1
50
  7
SLDTEXTSTYLE0
 11
0.612636791670648
 21
0.7903645750484362
 31
0.0
 73
     1
 44
1.0
  0
MTEXT
  5
256
330
24A
100
AcDbEntity
  8
VERMASSUNG
100
AcDbMText
 10
150.1105898141
 20
31.5586322562
 30
0.1
 40
2.0
 41
0.0
 71
     1
 72
     1
  1
min.
  7
SLDTEXTSTYLE0
 11
0.612636791670648
 21
0.7903645750484362
 31
0.0
 73
     1
 44
1.0
  0
ENDBLK
  5
24C
330
24A
100
AcDbEntity
  8
0
100
AcDbBlockEnd
  0
BLOCK
  5
258
330
257
100
AcDbEntity
  8
0
100
AcDbBlockBegin
  2
SW_CENTERMARKSYMBOL_0
 70
     0
 10
0.0
 20
0.0
 30
0.0
  3
SW_CENTERMARKSYMBOL_0
  1

  0
LINE
  5
25A
330
257
100
AcDbEntity
  8
VERMASSUNG
 62
     0
100
AcDbLine
 10
0.0
 20
0.0
 30
0.0
 11
0.0
 21
2.5
 31
0.0
  0
LINE
  5
25B
330
257
100
AcDbEntity
  8
VERMASSUNG
 62
     0
100
AcDbLine
 10
0.0
 20
0.0
 30
0.0
 11
-2.5
 21
0.0
 31
0.0
  0
LINE
  5
25C
330
257
100
AcDbEntity
  8
VERMASSUNG
 62
     0
100
AcDbLine
 10
0.0
 20
0.0
 30
0.0
 11
0.0
 21
-2.5
 31
0.0
  0
LINE
  5
25D
330
257
100
AcDbEntity
  8
VERMASSUNG
 62
     0
100
AcDbLine
 10
0.0
 20
0.0
 30
0.0
 11
2.5
 21
0.0
 31
0.0
  0
LINE
  5
25E
330
257
100
AcDbEntity
  8
VERMASSUNG
 62
     0
100
AcDbLine
 10
0.0
 20
5.0
 30
0.0
 11
0.0
 21
34.0
 31
0.0
  0
LINE
  5
25F
330
257
100
AcDbEntity
  8
VERMASSUNG
 62
     0
100
AcDbLine
 10
-5.0
 20
0.0
 30
0.0
 11
-34.0
 21
0.0
 31
0.0
  0
LINE
  5
260
330
257
100
AcDbEntity
  8
VERMASSUNG
 62
     0
100
AcDbLine
 10
0.0
 20
-5.0
 30
0.0
 11
0.0
 21
-34.0
 31
0.0
  0
LINE
  5
261
330
257
100
AcDbEntity
  8
VERMASSUNG
 62
     0
100
AcDbLine
 10
5.0
 20
0.0
 30
0.0
 11
34.0
 21
0.0
 31
0.0
  0
ENDBLK
  5
259
330
257
100
AcDbEntity
  8
0
100
AcDbBlockEnd
  0
ENDSEC
  0
SECTION
  2
ENTITIES
  0
MTEXT
  5
49
330
1F
100
AcDbEntity
  8
KOPF_DÜNN
100
AcDbMText
 10
13.8892156294
 20
23.8442973028
 30
0.0
 40
3.0
 41
0.0
 71
     1
 72
     1
  1
PS6.PDF.LQC.180
  7
SLDTEXTSTYLE0
 73
     1
 44
1.0
  0
MTEXT
  5
4A
330
1F
100
AcDbEntity
  8
VERMASSUNG
100
AcDbMText
 10
13.9329988022
 20
28.8834360957
 30
0.0
 40
3.0
 41
0.0
 71
     1
 72
     1
  1
Bohrstange links_Boring bar left
  7
SLDTEXTSTYLE0
 73
     1
 44
1.0
  0
MTEXT
  5
4B
330
1F
100
AcDbEntity
  8
VERMASSUNG
100
AcDbMText
 10
98.8601118557
 20
13.8365368179
 30
0.0
 40
2.0
 41
0.0
 71
     1
 72
     1
  1
Datum: 08.06.2012
  7
SLDTEXTSTYLE0
 73
     1
 44
1.0
  0
MTEXT
  5
4C
330
1F
100
AcDbEntity
  8
VERMASSUNG
100
AcDbMText
 10
13.933048693
 20
18.0482802738
 30
0.0
 40
2.0
 41
0.0
 71
     1
 72
     1
  1
PSC ø63 / Wp.: DN..15 06..
  7
SLDTEXTSTYLE0
 73
     1
 44
1.0
  0
MTEXT
  5
4D
330
1F
100
AcDbEntity
  8
VERMASSUNG
100
AcDbMText
 10
13.9808475933
 20
13.9090973692
 30
0.0
 40
2.0
 41
0.0
 71
     1
 72
     1
  1
Gewicht: 2096g
  7
SLDTEXTSTYLE0
 73
     1
 44
1.0
  0
ARC
  5
4E
330
1F
100
AcDbEntity
  8
0
  6
Continuous
 62
     7
370
    15
100
AcDbCircle
 10
102.7207567277
 20
132.8855594428
 30
0.0
 40
1.000000000000028
100
AcDbArc
 50
270.0
 51
360.0
  0
ARC
  5
4F
330
1F
100
AcDbEntity
  8
0
  6
Continuous
 62
     7
370
    15
100
AcDbCircle
 10
102.7207567277
 20
193.8855594428
 30
0.0
 40
1.000000000000028
100
AcDbArc
 50
0.0
 51
90.0
  0
LINE
  5
50
330
1F
100
AcDbEntity
  8
0
  6
Continuous
 62
     7
370
    15
100
AcDbLine
 10
82.2207567515
 20
131.8855589362
 30
0.0
 11
102.7207564446
 21
131.8855589362
 31
0.0
  0
LINE
  5
51
330
1F
100
AcDbEntity
  8
0
  6
Continuous
 62
     7
370
    15
100
AcDbLine
 10
102.7207564446
 20
194.8855599495
 30
0.0
 11
82.2207567515
 21
194.8855599495
 31
0.0
  0
ARC
  5
52
330
1F
100
AcDbEntity
  8
0
  6
Continuous
 62
     7
370
    15
100
AcDbCircle
 10
82.2207567277
 20
132.3855594428
 30
0.0
 40
0.5000000000000284
100
AcDbArc
 50
180.0
 51
270.0
  0
ARC
  5
53
330
1F
100
AcDbEntity
  8
0
  6
Continuous
 62
     7
370
    15
100
AcDbCircle
 10
82.2207567277
 20
194.3855594428
 30
0.0
 40
0.5000000000000284
100
AcDbArc
 50
90.0
 51
180.0
  0
LWPOLYLINE
  5
54
330
1F
100
AcDbEntity
  8
0
  6
Continuous
 62
     7
370
    15
100
AcDbPolyline
 90
        3
 70
   128
 43
0.0
 10
81.5207567328
 20
140.8457389208
 10
81.646211668
 20
140.7774375858
 10
81.7207567277
 20
140.724698651
  0
LWPOLYLINE
  5
55
330
1F
100
AcDbEntity
  8
0
  6
Continuous
 62
     7
370
    15
100
AcDbPolyline
 90
        3
 70
   128
 43
0.0
 10
81.7207567277
 20
186.0464202346
 10
81.646211668
 20
185.9936812999
 10
81.5207567328
 20
185.9253799649
  0
ARC
  5
56
330
1F
100
AcDbEntity
  8
0
  6
Continuous
 62
     7
370
    15
100
AcDbCircle
 10
107.7207567277
 20
139.3855594428
 30
0.0
 40
3.999999999999986
100
AcDbArc
 50
90.0
 51
180.0
  0
ARC
  5
57
330
1F
100
AcDbEntity
  8
0
  6
Continuous
 62
     7
370
    15
100
AcDbCircle
 10
107.7207567277
 20
187.3855594428
 30
0.0
 40
3.999999999999986
100
AcDbArc
 50
180.0
 51
270.0
  0
LINE
  5
58
330
1F
100
AcDbEntity
  8
0
  6
Continuous
 62
     7
370
    15
100
AcDbLine
 10
107.7207572642
 20
143.3855598899
 30
0.0
 11
235.3065483156
 21
143.3855598899
 31
0.0
  0
LINE
  5
59
330
1F
100
AcDbEntity
  8
0
  6
Continuous
 62
     7
370
    15
100
AcDbLine
 10
235.3065483156
 20
183.3855589958
 30
0.0
 11
107.7207572642
 21
183.3855589958
 31
0.0
  0
ARC
  5
5A
330
1F
100
AcDbEntity
  8
0
  6
Continuous
 62
     7
370
    15
100
AcDbCircle
 10
235.3065431654
 20
142.3855594428
 30
0.0
 40
1.000000000000088
100
AcDbArc
 50
45.0
 51
90.0
  0
ARC
  5
5B
330
1F
100
AcDbEntity
  8
0
  6
Continuous
 62
     7
370
    15
100
AcDbCircle
 10
235.3065431654
 20
184.3855594428
 30
0.0
 40
1.000000000000088
100
AcDbArc
 50
270.0
 51
315.0
  0
LINE
  5
5C
330
1F
100
AcDbEntity
  8
0
  6
Continuous
 62
     7
370
    15
100
AcDbLine
 10
246.010693151
 20
183.8855600091
 30
0.0
 11
236.220749456
 21
183.8855600091
 31
0.0
  0
LINE
  5
5D
330
1F
100
AcDbEntity
  8
0
  6
Continuous
 62
     7
370
    15
100
AcDbLine
 10
236.220749456
 20
183.8855600091
 30
0.0
 11
236.0136531177
 21
183.6784524949
 31
0.0
  0
LINE
  5
5E
330
1F
100
AcDbEntity
  8
0
  6
Continuous
 62
     7
370
    15
100
AcDbLine
 10
236.0136531177
 20
143.0926663907
 30
0.0
 11
236.6949193063
 21
142.4113964768
 31
0.0
  0
LINE
  5
5F
330
1F
100
AcDbEntity
  8
0
  6
Continuous
 62
     7
370
    15
100
AcDbLine
 10
256.6472314182
 20
151.890506606
 30
0.0
 11
256.5181277576
 21
152.1458799126
 31
0.0
  0
LINE
  5
60
330
1F
100
AcDbEntity
  8
0
  6
Continuous
 62
     7
370
    15
100
AcDbLine
 10
257.4262343231
 20
150.4419395806
 30
0.0
 11
256.7624769988
 21
151.754946086
 31
0.0
  0
LINE
  5
61
330
1F
100
AcDbEntity
  8
0
  6
Continuous
 62
     7
370
    15
100
AcDbLine
 10
247.0318399253
 20
141.0204755249
 30
0.0
 11
247.2166143241
 21
140.6549519034
 31
0.0
  0
LINE
  5
62
330
1F
100
AcDbEntity
  8
0
  6
Continuous
 62
     7
370
    15
100
AcDbLine
 10
103.7207566085
 20
193.8855597856
 30
0.0
 11
103.7207566085
 21
132.8855591001
 31
0.0
  0
SPLINE
  5
63
330
1F
100
AcDbEntity
  8
0
  6
Continuous
 62
     7
370
    15
100
AcDbSpline
210
0.0
220
0.0
230
1.0
 70
     8
 71
     3
 72
    12
 73
     8
 74
     0
 42
0.00000001
 43
0.00000001
 12
1.0
 22
0.0
 32
0.0
 13
1.0
 23
0.0
 33
0.0
 40
0.0
 40
0.0
 40
0.0
 40
0.0
 40
0.25
 40
0.25
 40
0.5
 40
0.5
 40
1.0
 40
1.0
 40
1.0
 40
1.0
 10
92.24851354130158
 20
172.7736258741828
 30
0.0
 10
92.18543350280822
 20
172.7736258741828
 30
0.0
 10
92.12628488062688
 20
172.7989901933978
 30
0.0
 10
92.02781233055777
 20
172.8731550537707
 30
0.0
 10
91.98877571857305
 20
172.9196753943249
 30
0.0
 10
91.888879251794
 20
173.0698177371701
 30
0.0
 10
91.84645837072735
 20
173.1815109441422
 30
0.0
 10
91.81550083940937
 20
173.294928763532
 30
0.0
  0
LINE
  5
64
330
1F
100
AcDbEntity
  8
0
  6
Continuous
 62
     7
370
    15
100
AcDbLine
 10
95.1929999399
 20
172.7736262711
 30
0.0
 11
92.2485137242
 21
172.7736262711
 31
0.0
  0
SPLINE
  5
65
330
1F
100
AcDbEntity
  8
0
  6
Continuous
 62
     7
370
    15
100
AcDbSpline
210
0.0
220
0.0
230
1.0
 70
     8
 71
     3
 72
    12
 73
     8
 74
     0
 42
0.00000001
 43
0.00000001
 12
1.0
 22
0.0
 32
0.0
 13
1.0
 23
0.0
 33
0.0
 40
0.0
 40
0.0
 40
0.0
 40
0.0
 40
0.499999999999999
 40
0.499999999999999
 40
0.7499999999999994
 40
0.7499999999999994
 40
1.0
 40
1.0
 40
1.0
 40
1.0
 10
95.62601261606086
 20
173.2949287635319
 30
0.0
 10
95.59529037414177
 20
173.1823729641228
 30
0.0
 10
95.5524531596066
 20
173.0696151043832
 30
0.0
 10
95.45302613540679
 20
172.9200742185868
 30
0.0
 10
95.41327394059017
 20
172.87278148688
 30
0.0
 10
95.31523248373193
 20
172.7990451935586
 30
0.0
 10
95.2556764281445
 20
172.7736258741828
 30
0.0
 10
95.19299991416868
 20
172.7736258741828
 30
0.0
  0
ELLIPSE
  5
66
330
1F
100
AcDbEntity
  8
0
  6
Continuous
 62
     7
370
    15
100
AcDbEllipse
 10
79.3736025384
 20
163.3855594428
 30
0.0
 11
14.75368316065603
 21
31.09325491558118
 31
0.0
210
0.0
220
0.0
230
1.0
 40
0.3419987131
 41
5.193281737408618
 42
6.124043104552322
  0
SPLINE
  5
67
330
1F
100
AcDbEntity
  8
0
  6
Continuous
 62
     7
370
    15
100
AcDbSpline
210
0.0
220
0.0
230
1.0
 70
     8
 71
     3
 72
    12
 73
     8
 74
     0
 42
0.00000001
 43
0.00000001
 12
1.0
 22
0.0
 32
0.0
 13
1.0
 23
0.0
 33
0.0
 40
0.0
 40
0.0
 40
0.0
 40
0.0
 40
0.25
 40
0.25
 40
0.5
 40
0.5
 40
1.0
 40
1.0
 40
1.0
 40
1.0
 10
95.19299991416868
 20
193.45405140172
 30
0.0
 10
95.25607995266205
 20
193.45405140172
 30
0.0
 10
95.3152285748434
 20
193.4461454755075
 30
0.0
 10
95.41370112491249
 20
193.4228203140713
 30
0.0
 10
95.45273773689718
 20
193.4081075242396
 30
0.0
 10
95.55263420367625
 20
193.3601517235086
 30
0.0
 10
95.5950550847429
 20
193.3238895669286
 30
0.0
 10
95.62601261606088
 20
193.2863019029641
 30
0.0
  0
LINE
  5
68
330
1F
100
AcDbEntity
  8
0
  6
Continuous
 62
     7
370
    15
100
AcDbLine
 10
92.2485137242
 20
193.4540519597
 30
0.0
 11
95.1929999399
 21
193.4540519597
 31
0.0
  0
SPLINE
  5
69
330
1F
100
AcDbEntity
  8
0
  6
Continuous
 62
     7
370
    15
100
AcDbSpline
210
0.0
220
0.0
230
1.0
 70
     8
 71
     3
 72
    12
 73
     8
 74
     0
 42
0.00000001
 43
0.00000001
 12
1.0
 22
0.0
 32
0.0
 13
1.0
 23
0.0
 33
0.0
 40
0.0
 40
0.0
 40
0.0
 40
0.0
 40
0.5000000000000064
 40
0.5000000000000064
 40
0.7500000000000032
 40
0.7500000000000032
 40
1.0
 40
1.0
 40
1.0
 40
1.0
 10
91.81550083940938
 20
193.2863019029641
 30
0.0
 10
91.84622308132849
 20
193.3236038859172
 30
0.0
 10
91.88906029586364
 20
193.3602157179635
 30
0.0
 10
91.98848732006347
 20
193.4079805012487
 30
0.0
 10
92.02823951488013
 20
193.4229380167311
 30
0.0
 10
92.12628097173834
 20
193.4461279625002
 30
0.0
 10
92.18583702732575
 20
193.45405140172
 30
0.0
 10
92.24851354130158
 20
193.45405140172
 30
0.0
  0
ELLIPSE
  5
6A
330
1F
100
AcDbEntity
  8
0
  6
Continuous
 62
     7
370
    15
100
AcDbEllipse
 10
108.0679109171
 20
163.3855594428
 30
0.0
 11
-14.75368316065605
 21
31.09325491558118
 31
0.0
210
0.0
220
0.0
230
1.0
 40
0.3419987131
 41
0.1591422026273011
 42
1.089903569770978
  0
SPLINE
  5
6B
330
1F
100
AcDbEntity
  8
0
  6
Continuous
 62
     7
370
    15
100
AcDbSpline
210
0.0
220
0.0
230
1.0
 70
     8
 71
     3
 72
    12
 73
     8
 74
     0
 42
0.00000001
 43
0.00000001
 12
1.0
 22
0.0
 32
0.0
 13
1.0
 23
0.0
 33
0.0
 40
0.0
 40
0.0
 40
0.0
 40
0.0
 40
0.25
 40
0.25
 40
0.5
 40
0.5
 40
1.0
 40
1.0
 40
1.0
 40
1.0
 10
92.24851354130158
 20
133.3170674839738
 30
0.0
 10
92.18545658640376
 20
133.3170674839738
 30
0.0
 10
92.12632643665816
 20
133.3249678150534
 30
0.0
 10
92.02787888612492
 20
133.3482785630584
 30
0.0
 10
91.98884664793677
 20
133.3629836893421
 30
0.0
 10
91.88895676347988
 20
133.4109172175287
 30
0.0
 10
91.84665778987055
 20
133.4469871902934
 30
0.0
 10
91.81550083940928
 20
133.4848169827296
 30
0.0
  0
LINE
  5
6C
330
1F
100
AcDbEntity
  8
0
  6
Continuous
 62
     7
370
    15
100
AcDbLine
 10
95.1929999399
 20
133.317066926
 30
0.0
 11
92.2485137242
 21
133.317066926
 31
0.0
  0
SPLINE
  5
6D
330
1F
100
AcDbEntity
  8
0
  6
Continuous
 62
     7
370
    15
100
AcDbSpline
210
0.0
220
0.0
230
1.0
 70
     8
 71
     3
 72
    12
 73
     8
 74
     0
 42
0.00000001
 43
0.00000001
 12
1.0
 22
0.0
 32
0.0
 13
1.0
 23
0.0
 33
0.0
 40
0.0
 40
0.0
 40
0.0
 40
0.0
 40
0.4999999999999936
 40
0.4999999999999936
 40
0.7499999999999968
 40
0.7499999999999968
 40
1.0
 40
1.0
 40
1.0
 40
1.0
 10
95.6260126160609
 20
133.4848169827296
 30
0.0
 10
95.5948674180988
 20
133.4470014598094
 30
0.0
 10
95.55259315176434
 20
133.4109346017259
 30
0.0
 10
95.4526476179391
 20
133.3629745367146
 30
0.0
 10
95.41291731323504
 20
133.348113562817
 30
0.0
 10
95.31602926322886
 20
133.3251624166858
 30
0.0
 10
95.25596402148226
 20
133.3170674839737
 30
0.0
 10
95.1929999141687
 20
133.3170674839737
 30
0.0
  0
ELLIPSE
  5
6E
330
1F
100
AcDbEntity
  8
0
  6
Continuous
 62
     7
370
    15
100
AcDbEllipse
 10
79.3736025384
 20
163.3855594428
 30
0.0
 11
-14.75368316065617
 21
31.09325491558119
 31
0.0
210
0.0
220
0.0
230
1.0
 40
0.3419987131
 41
3.300734856217124
 42
4.231496223360773
  0
SPLINE
  5
6F
330
1F
100
AcDbEntity
  8
0
  6
Continuous
 62
     7
370
    15
100
AcDbSpline
210
0.0
220
0.0
230
1.0
 70
     8
 71
     3
 72
    12
 73
     8
 74
     0
 42
0.00000001
 43
0.00000001
 12
1.0
 22
0.0
 32
0.0
 13
1.0
 23
0.0
 33
0.0
 40
0.0
 40
0.0
 40
0.0
 40
0.0
 40
0.2499999999999977
 40
0.2499999999999977
 40
0.4999999999999953
 40
0.4999999999999953
 40
1.0
 40
1.0
 40
1.0
 40
1.0
 10
95.19299991416868
 20
153.9974930115107
 30
0.0
 10
95.2560568690665
 20
153.9974930115107
 30
0.0
 10
95.31518701881205
 20
153.97214665813
 30
0.0
 10
95.41363456934538
 20
153.8980272759905
 30
0.0
 10
95.45266680753345
 20
153.8515307612925
 30
0.0
 10
95.55255669199042
 20
153.7014562542839
 30
0.0
 10
95.59485566559971
 20
153.5903385451691
 30
0.0
 10
95.62601261606096
 20
153.4761901221616
 30
0.0
  0
LINE
  5
70
330
1F
100
AcDbEntity
  8
0
  6
Continuous
 62
     7
370
    15
100
AcDbLine
 10
92.2485137242
 20
153.9974926146
 30
0.0
 11
95.1929999399
 21
153.9974926146
 31
0.0
  0
SPLINE
  5
71
330
1F
100
AcDbEntity
  8
0
  6
Continuous
 62
     7
370
    15
100
AcDbSpline
210
0.0
220
0.0
230
1.0
 70
     8
 71
     3
 72
    12
 73
     8
 74
     0
 42
0.00000001
 43
0.00000001
 12
1.0
 22
0.0
 32
0.0
 13
1.0
 23
0.0
 33
0.0
 40
0.0
 40
0.0
 40
0.0
 40
0.0
 40
0.4999999999999972
 40
0.4999999999999972
 40
0.7499999999999986
 40
0.7499999999999986
 40
1.0
 40
1.0
 40
1.0
 40
1.0
 10
91.81550083940934
 20
153.4761901221615
 30
0.0
 10
91.84664603737144
 20
153.5902954880269
 30
0.0
 10
91.88892030370586
 20
153.7014018152457
 30
0.0
 10
91.9888658375312
 20
153.8515594226759
 30
0.0
 10
92.02859614223523
 20
153.8985521142933
 30
0.0
 10
92.12548419224146
 20
153.9715276988318
 30
0.0
 10
92.1855494339881
 20
153.9974930115108
 30
0.0
 10
92.24851354130153
 20
153.9974930115108
 30
0.0
  0
ELLIPSE
  5
72
330
1F
100
AcDbEntity
  8
0
  6
Continuous
 62
     7
370
    15
100
AcDbEllipse
 10
108.0679109171
 20
163.3855594428
 30
0.0
 11
14.75368316065619
 21
31.09325491558119
 31
0.0
210
0.0
220
0.0
230
1.0
 40
0.3419987131
 41
2.051689083818825
 42
2.982450450962504
  0
LINE
  5
73
330
1F
100
AcDbEntity
  8
0
  6
Continuous
 62
     7
370
    15
100
AcDbLine
 10
81.7207567277
 20
132.3855599495
 30
0.0
 11
81.7207567277
 21
194.3855589362
 31
0.0
  0
SPLINE
  5
74
330
1F
100
AcDbEntity
  8
0
  6
Continuous
 62
     7
370
    15
100
AcDbSpline
210
0.0
220
0.0
230
1.0
 70
     8
 71
     3
 72
    12
 73
     8
 74
     0
 42
0.00000001
 43
0.00000001
 12
1.0
 22
0.0
 32
0.0
 13
1.0
 23
0.0
 33
0.0
 40
0.0
 40
0.0
 40
0.0
 40
0.0
 40
0.5
 40
0.5
 40
0.75
 40
0.75
 40
1.0
 40
1.0
 40
1.0
 40
1.0
 10
80.90424444127872
 20
141.5307657403711
 30
0.0
 10
80.9606809421859
 20
141.5293478590294
 30
0.0
 10
81.0297655728746
 20
141.527783522781
 30
0.0
 10
81.14856784459256
 20
141.5248393308066
 30
0.0
 10
81.18875312006264
 20
141.5238011277092
 30
0.0
 10
81.26213416746643
 20
141.5218672324946
 30
0.0
 10
81.29554373120904
 20
141.5209723452058
 30
0.0
 10
81.32577983886547
 20
141.5201885549334
 30
0.0
  0
SPLINE
  5
75
330
1F
100
AcDbEntity
  8
0
  6
Continuous
 62
     7
370
    15
100
AcDbSpline
210
0.0
220
0.0
230
1.0
 70
     8
 71
     3
 72
    16
 73
    12
 74
     0
 42
0.00000001
 43
0.00000001
 12
1.0
 22
0.0
 32
0.0
 13
1.0
 23
0.0
 33
0.0
 40
0.0
 40
0.0
 40
0.0
 40
0.0
 40
0.0625000000000011
 40
0.0625000000000011
 40
0.1250000000000022
 40
0.1250000000000022
 40
0.2500000000000046
 40
0.2500000000000046
 40
0.5000000000000044
 40
0.5000000000000044
 40
1.0
 40
1.0
 40
1.0
 40
1.0
 10
81.32577983882825
 20
141.5201885549577
 30
0.0
 10
81.33736024641621
 20
141.5198883638463
 30
0.0
 10
81.3506697731775
 20
141.5185606155873
 30
0.0
 10
81.37997120326362
 20
141.5118619408124
 30
0.0
 10
81.394785303148
 20
141.5065037577066
 30
0.0
 10
81.43061370485083
 20
141.4894581085393
 30
0.0
 10
81.44473332921388
 20
141.4779955707635
 30
0.0
 10
81.47923747330235
 20
141.4464322453913
 30
0.0
 10
81.49034202400695
 20
141.428534946346
 30
0.0
 10
81.51651820122312
 20
141.3783735287318
 30
0.0
 10
81.52075672773515
 20
141.3506291165352
 30
0.0
 10
81.52075672773513
 20
141.3259649546057
 30
0.0
  0
LINE
  5
76
330
1F
100
AcDbEntity
  8
0
  6
Continuous
 62
     7
370
    15
100
AcDbLine
 10
81.5207567328
 20
156.363672215
 30
0.0
 11
81.5207567328
 21
140.8457389208
 31
0.0
  0
SPLINE
  5
77
330
1F
100
AcDbEntity
  8
0
  6
Continuous
 62
     7
370
    15
100
AcDbSpline
210
0.0
220
0.0
230
1.0
 70
     8
 71
     3
 72
    16
 73
    12
 74
     0
 42
0.00000001
 43
0.00000001
 12
1.0
 22
0.0
 32
0.0
 13
1.0
 23
0.0
 33
0.0
 40
0.0
 40
0.0
 40
0.0
 40
0.0
 40
0.4999999999999982
 40
0.4999999999999982
 40
0.7499999999999991
 40
0.7499999999999991
 40
0.8749999999999979
 40
0.8749999999999979
 40
0.937499999999999
 40
0.937499999999999
 40
1.0
 40
1.0
 40
1.0
 40
1.0
 10
81.52075672773513
 20
156.3636721170969
 30
0.0
 10
81.52075672773513
 20
156.4773646612248
 30
0.0
 10
81.51661045265719
 20
156.5916848225743
 30
0.0
 10
81.49064485726369
 20
156.7647331130713
 30
0.0
 10
81.47918395188627
 20
156.8239086202331
 30
0.0
 10
81.44487221411192
 20
156.9070317397012
 30
0.0
 10
81.43084747818232
 20
156.9351530558019
 30
0.0
 10
81.39482451514854
 20
156.9637688697794
 30
0.0
 10
81.3800700060588
 20
156.9695619176812
 30
0.0
 10
81.35071784491194
 20
156.9679684917442
 30
0.0
 10
81.33737797040781
 20
156.9614720884204
 30
0.0
 10
81.32577983885948
 20
156.9529563422172
 30
0.0
  0
SPLINE
  5
78
330
1F
100
AcDbEntity
  8
0
  6
Continuous
 62
     7
370
    15
100
AcDbSpline
210
0.0
220
0.0
230
1.0
 70
     8
 71
     3
 72
    12
 73
     8
 74
     0
 42
0.00000001
 43
0.00000001
 12
1.0
 22
0.0
 32
0.0
 13
1.0
 23
0.0
 33
0.0
 40
0.0
 40
0.0
 40
0.0
 40
0.0
 40
0.2500000000000001
 40
0.2500000000000001
 40
0.5000000000000001
 40
0.5000000000000001
 40
1.0
 40
1.0
 40
1.0
 40
1.0
 10
81.32577983886652
 20
156.9529563422081
 30
0.0
 10
81.29558139742588
 20
156.930783610163
 30
0.0
 10
81.26221404208988
 20
156.9117039542858
 30
0.0
 10
81.18905876625999
 20
156.8865309098431
 30
0.0
 10
81.14880606723607
 20
156.8809743734263
 30
0.0
 10
81.03107732396124
 20
156.8918861844131
 30
0.0
 10
80.96061887590236
 20
156.9338219398239
 30
0.0
 10
80.90424444128409
 20
156.9830337222054
 30
0.0
  0
SPLINE
  5
79
330
1F
100
AcDbEntity
  8
0
  6
Continuous
 62
     7
370
    15
100
AcDbSpline
210
0.0
220
0.0
230
1.0
 70
     8
 71
     3
 72
    12
 73
     8
 74
     0
 42
0.00000001
 43
0.00000001
 12
1.0
 22
0.0
 32
0.0
 13
1.0
 23
0.0
 33
0.0
 40
0.0
 40
0.0
 40
0.0
 40
0.0
 40
0.4999999999999984
 40
0.4999999999999984
 40
0.7499999999999992
 40
0.7499999999999992
 40
1.0
 40
1.0
 40
1.0
 40
1.0
 10
80.39943638417549
 20
158.199385114086
 30
0.0
 10
80.44318673605993
 20
157.9789381291114
 30
0.0
 10
80.49607688718443
 20
157.7633931393059
 30
0.0
 10
80.6076884303261
 20
157.4509790627339
 30
0.0
 10
80.65024777422964
 20
157.348899587118
 30
0.0
 10
80.75522500956708
 20
157.1544595744762
 30
0.0
 10
80.81679225266167
 20
157.0593746754125
 30
0.0
 10
80.90424444128405
 20
156.9830337222054
 30
0.0
  0
SPLINE
  5
7A
330
1F
100
AcDbEntity
  8
0
  6
Continuous
 62
     7
370
    15
100
AcDbSpline
210
0.0
220
0.0
230
1.0
 70
     8
 71
     3
 72
    12
 73
     8
 74
     0
 42
0.00000001
 43
0.00000001
 12
1.0
 22
0.0
 32
0.0
 13
1.0
 23
0.0
 33
0.0
 40
0.0
 40
0.0
 40
0.0
 40
0.0
 40
0.2499999999999989
 40
0.2499999999999989
 40
0.4999999999999978
 40
0.4999999999999978
 40
1.0
 40
1.0
 40
1.0
 40
1.0
 10
80.90424444128391
 20
169.7880851634885
 30
0.0
 10
80.81575103371604
 20
169.7108352833802
 30
0.0
 10
80.75569299295016
 20
169.617515959491
 30
0.0
 10
80.64984471996759
 20
169.4214829065216
 30
0.0
 10
80.60731119869011
 20
169.3191565483098
 30
0.0
 10
80.49615989186645
 20
169.0078121425339
 30
0.0
 10
80.44322903481867
 20
168.7923938893559
 30
0.0
 10
80.39943638417547
 20
168.571733771608
 30
0.0
  0
SPLINE
  5
7B
330
1F
100
AcDbEntity
  8
0
  6
Continuous
 62
     7
370
    15
100
AcDbSpline
210
0.0
220
0.0
230
1.0
 70
     8
 71
     3
 72
    12
 73
     8
 74
     0
 42
0.00000001
 43
0.00000001
 12
1.0
 22
0.0
 32
0.0
 13
1.0
 23
0.0
 33
0.0
 40
0.0
 40
0.0
 40
0.0
 40
0.0
 40
0.4999999999999996
 40
0.4999999999999996
 40
0.7499999999999997
 40
0.7499999999999997
 40
1.0
 40
1.0
 40
1.0
 40
1.0
 10
80.90424444128395
 20
169.7880851634885
 30
0.0
 10
80.9605529895796
 20
169.8372394307324
 30
0.0
 10
81.03082765029768
 20
169.879196749336
 30
0.0
 10
81.14886556462125
 20
169.8901564268685
 30
0.0
 10
81.18904180547518
 20
169.8846476686211
 30
0.0
 10
81.26299890015315
 20
169.8590904398322
 30
0.0
 10
81.29561528786452
 20
169.8403103919929
 30
0.0
 10
81.32577983886027
 20
169.8181625434762
 30
0.0
  0
SPLINE
  5
7C
330
1F
100
AcDbEntity
  8
0
  6
Continuous
 62
     7
370
    15
100
AcDbSpline
210
0.0
220
0.0
230
1.0
 70
     8
 71
     3
 72
    16
 73
    12
 74
     0
 42
0.00000001
 43
0.00000001
 12
1.0
 22
0.0
 32
0.0
 13
1.0
 23
0.0
 33
0.0
 40
0.0
 40
0.0
 40
0.0
 40
0.0
 40
0.0625000000000004
 40
0.0625000000000004
 40
0.1250000000000008
 40
0.1250000000000008
 40
0.2500000000000002
 40
0.2500000000000002
 40
0.4999999999999989
 40
0.4999999999999989
 40
1.0
 40
1.0
 40
1.0
 40
1.0
 10
81.32577983882854
 20
169.8181625434217
 30
0.0
 10
81.33739273866789
 20
169.8096359538264
 30
0.0
 10
81.35074392310037
 20
169.8031356922936
 30
0.0
 10
81.38014376271956
 20
169.8015662951761
 30
0.0
 10
81.39498448727484
 20
169.8074496858067
 30
0.0
 10
81.4308176952434
 20
169.8359973218573
 30
0.0
 10
81.44493090306499
 20
169.8641643411631
 30
0.0
 10
81.47942227428386
 20
169.947918599585
 30
0.0
 10
81.49050634539427
 20
170.0056320132065
 30
0.0
 10
81.51662916319026
 20
170.1792225498523
 30
0.0
 10
81.52075672773513
 20
170.2942506024942
 30
0.0
 10
81.52075672773513
 20
170.4074467685971
 30
0.0
  0
LINE
  5
7D
330
1F
100
AcDbEntity
  8
0
  6
Continuous
 62
     7
370
    15
100
AcDbLine
 10
81.5207567328
 20
185.9253799649
 30
0.0
 11
81.5207567328
 21
170.4074466707
 31
0.0
  0
SPLINE
  5
7E
330
1F
100
AcDbEntity
  8
0
  6
Continuous
 62
     7
370
    15
100
AcDbSpline
210
0.0
220
0.0
230
1.0
 70
     8
 71
     3
 72
    16
 73
    12
 74
     0
 42
0.00000001
 43
0.00000001
 12
1.0
 22
0.0
 32
0.0
 13
1.0
 23
0.0
 33
0.0
 40
0.0
 40
0.0
 40
0.0
 40
0.0
 40
0.4999999999999962
 40
0.4999999999999962
 40
0.7499999999999963
 40
0.7499999999999963
 40
0.8749999999999973
 40
0.8749999999999973
 40
0.9374999999999987
 40
0.9374999999999987
 40
1.0
 40
1.0
 40
1.0
 40
1.0
 10
81.52075672773512
 20
185.4451539310882
 30
0.0
 10
81.52075672773512
 20
185.4204827750453
 30
0.0
 10
81.51659102927513
 20
185.3929009436541
 30
0.0
 10
81.49033270095019
 20
185.3425580728307
 30
0.0
 10
81.4788289192126
 20
185.3242685747688
 30
0.0
 10
81.44469815986609
 20
185.2931135437318
 30
0.0
 10
81.43027627319537
 20
185.28147416852
 30
0.0
 10
81.39470930475757
 20
185.264592142589
 30
0.0
 10
81.37975753646289
 20
185.2592030387814
 30
0.0
 10
81.35075371810319
 20
185.2525825428368
 30
0.0
 10
81.33733836409391
 20
185.2512299546304
 30
0.0
 10
81.32577983885733
 20
185.2509303307588
 30
0.0
  0
SPLINE
  5
7F
330
1F
100
AcDbEntity
  8
0
  6
Continuous
 62
     7
370
    15
100
AcDbSpline
210
0.0
220
0.0
230
1.0
 70
     8
 71
     3
 72
    12
 73
     8
 74
     0
 42
0.00000001
 43
0.00000001
 12
1.0
 22
0.0
 32
0.0
 13
1.0
 23
0.0
 33
0.0
 40
0.0
 40
0.0
 40
0.0
 40
0.0
 40
0.25
 40
0.25
 40
0.5
 40
0.5
 40
1.0
 40
1.0
 40
1.0
 40
1.0
 10
81.32577983886658
 20
185.2509303307605
 30
0.0
 10
81.29559206231693
 20
185.250147793343
 30
0.0
 10
81.26223825822522
 20
185.2492544615244
 30
0.0
 10
81.18911205502928
 20
185.2473271527209
 30
0.0
 10
81.14887685200512
 20
185.2462876215082
 30
0.0
 10
81.031185221872
 20
185.2433697381609
 30
0.0
 10
80.96080454871199
 20
185.2417741320907
 30
0.0
 10
80.90424444128139
 20
185.2403531453228
 30
0.0
  0
SPLINE
  5
80
330
1F
100
AcDbEntity
  8
0
  6
Continuous
 62
     7
370
    15
100
AcDbSpline
210
0.0
220
0.0
230
1.0
 70
     8
 71
     3
 72
    16
 73
    12
 74
     0
 42
0.00000001
 43
0.00000001
 12
1.0
 22
0.0
 32
0.0
 13
1.0
 23
0.0
 33
0.0
 40
0.0
 40
0.0
 40
0.0
 40
0.0
 40
0.2500000000000001
 40
0.2500000000000001
 40
0.375
 40
0.375
 40
0.5
 40
0.5
 40
0.75
 40
0.75
 40
1.0
 40
1.0
 40
1.0
 40
1.0
 10
80.39943638417552
 20
168.571733771608
 30
0.0
 10
80.23820390669107
 20
167.7593239963612
 30
0.0
 10
80.11772406705144
 20
166.9192457019764
 30
0.0
 10
79.99534354973811
 20
165.6179506526136
 30
0.0
 10
79.96436588934066
 20
165.1772696170289
 30
0.0
 10
79.92275215171271
 20
164.2814299760978
 30
0.0
 10
79.9125162387799
 20
163.8347718448953
 30
0.0
 10
79.91232784172378
 20
162.4994618877554
 30
0.0
 10
79.95247254436138
 20
161.6149665144479
 30
0.0
 10
80.11662629930096
 20
159.857716626422
 30
0.0
 10
80.23817794971052
 20
159.0119256800089
 30
0.0
 10
80.39943638417552
 20
158.199385114086
 30
0.0
  0
LINE
  5
81
330
1F
100
AcDbEntity
  8
0
  6
Continuous
 62
     7
370
    15
100
AcDbLine
 10
79.5207567397
 20
169.8707375782
 30
0.0
 11
79.5207567397
 21
156.9003813075
 31
0.0
  0
LINE
  5
82
330
1F
100
AcDbEntity
  8
0
  6
Continuous
 62
     7
370
    15
100
AcDbLine
 10
45.2207572642
 20
169.4398700366
 30
0.0
 11
45.2207572642
 21
157.3312488491
 31
0.0
  0
LINE
  5
83
330
1F
100
AcDbEntity
  8
0
  6
Continuous
 62
     7
370
    15
100
AcDbLine
 10
43.7207579496
 20
169.0068571935
 30
0.0
 11
43.7207579496
 21
157.7642616922
 31
0.0
  0
LINE
  5
84
330
1F
100
AcDbEntity
  8
0
  6
Continuous
 62
     7
370
    15
100
AcDbLine
 10
79.5207567397
 20
169.8707375782
 30
0.0
 11
79.5207567397
 21
185.4056591274
 31
0.0
  0
ARC
  5
85
330
1F
100
AcDbEntity
  8
0
  6
Continuous
 62
     7
370
    15
100
AcDbCircle
 10
79.7206936387
 20
185.4106813385
 30
0.0
 40
0.2000000000000059
100
AcDbArc
 50
181.4391666667
 51
271.4391666667
  0
LINE
  5
86
330
1F
100
AcDbEntity
  8
0
  6
Continuous
 62
     7
370
    15
100
AcDbLine
 10
45.2207572642
 20
169.4398700366
 30
0.0
 11
45.2207572642
 21
184.543923113
 31
0.0
  0
LINE
  5
87
330
1F
100
AcDbEntity
  8
0
  6
Continuous
 62
     7
370
    15
100
AcDbLine
 10
45.2207572642
 20
184.543923113
 30
0.0
 11
79.5207567397
 21
185.4056591274
 31
0.0
  0
LINE
  5
88
330
1F
100
AcDbEntity
  8
0
  6
Continuous
 62
     7
370
    15
100
AcDbLine
 10
45.2207572642
 20
142.2271957727
 30
0.0
 11
45.2207572642
 21
157.3312488491
 31
0.0
  0
LINE
  5
89
330
1F
100
AcDbEntity
  8
0
  6
Continuous
 62
     7
370
    15
100
AcDbLine
 10
79.5207567397
 20
141.3654597583
 30
0.0
 11
79.5207567397
 21
156.9003813075
 31
0.0
  0
LINE
  5
8A
330
1F
100
AcDbEntity
  8
0
  6
Continuous
 62
     7
370
    15
100
AcDbLine
 10
45.2207572642
 20
142.2271957727
 30
0.0
 11
79.5207567397
 21
141.3654597583
 31
0.0
  0
ARC
  5
8B
330
1F
100
AcDbEntity
  8
0
  6
Continuous
 62
     7
370
    15
100
AcDbCircle
 10
79.7206936387
 20
141.3604375472
 30
0.0
 40
0.2000000000000347
100
AcDbArc
 50
88.5608333333
 51
178.5608333333
  0
LINE
  5
8C
330
1F
100
AcDbEntity
  8
0
  6
Continuous
 62
     7
370
    15
100
AcDbLine
 10
79.7257168568
 20
185.2107444884
 30
0.0
 11
80.9042444569
 21
185.2403530957
 31
0.0
  0
LINE
  5
8D
330
1F
100
AcDbEntity
  8
0
  6
Continuous
 62
     7
370
    15
100
AcDbLine
 10
79.7257168568
 20
141.5603743972
 30
0.0
 11
80.9042444569
 21
141.53076579
 31
0.0
  0
LINE
  5
8E
330
1F
100
AcDbEntity
  8
0
  6
Continuous
 62
     7
370
    15
100
AcDbLine
 10
43.7207579496
 20
183.6778974267
 30
0.0
 11
45.2207572642
 21
184.543923113
 31
0.0
  0
LINE
  5
8F
330
1F
100
AcDbEntity
  8
0
  6
Continuous
 62
     7
370
    15
100
AcDbLine
 10
43.7207579496
 20
169.0068571935
 30
0.0
 11
43.7207579496
 21
183.6778974267
 31
0.0
  0
LINE
  5
90
330
1F
100
AcDbEntity
  8
0
  6
Continuous
 62
     7
370
    15
100
AcDbLine
 10
43.7207579496
 20
143.093221459
 30
0.0
 11
45.2207572642
 21
142.2271957727
 31
0.0
  0
LINE
  5
91
330
1F
100
AcDbEntity
  8
0
  6
Continuous
 62
     7
370
    15
100
AcDbLine
 10
43.7207579496
 20
143.093221459
 30
0.0
 11
43.7207579496
 21
157.7642616922
 31
0.0
  0
ELLIPSE
  5
92
330
1F
100
AcDbEntity
  8
0
  6
Continuous
 62
     7
370
    15
100
AcDbEllipse
 10
231.0734586026
 20
163.3855594428
 30
0.0
 11
1.195939561569872
 21
19.99755988885704
 31
0.0
210
0.0
220
0.0
230
1.0
 40
0.2612235458
 41
0.917191022825328
 42
2.674522679105907
  0
ELLIPSE
  5
93
330
1F
100
AcDbEntity
  8
0
  6
Continuous
 62
     7
370
    15
100
AcDbEllipse
 10
227.4958678479
 20
157.0479897107
 30
0.0
 11
-0.05076165780209863
 21
2.949955390980818
 31
0.0
210
0.0
220
0.0
230
1.0
 40
0.2406504161
 41
5.988515567160939
 42
9.576681568662659
  0
SPLINE
  5
94
330
1F
100
AcDbEntity
  8
0
  6
Continuous
 62
     7
370
    15
100
AcDbSpline
210
0.0
220
0.0
230
1.0
 70
     8
 71
     3
 72
    20
 73
    16
 74
     0
 42
0.00000001
 43
0.00000001
 12
1.0
 22
0.0
 32
0.0
 13
1.0
 23
0.0
 33
0.0
 40
0.0
 40
0.0
 40
0.0
 40
0.0
 40
0.1250000000000006
 40
0.1250000000000006
 40
0.2500000000000011
 40
0.2500000000000011
 40
0.3750000000000017
 40
0.3750000000000017
 40
0.5000000000000022
 40
0.5000000000000022
 40
0.6250000000000028
 40
0.6250000000000028
 40
0.7500000000000033
 40
0.7500000000000033
 40
1.0
 40
1.0
 40
1.0
 40
1.0
 10
232.8218524973292
 20
143.8729393319108
 30
0.0
 10
232.4927278096906
 20
143.8812922048841
 30
0.0
 10
232.1721715743598
 20
143.8960848691308
 30
0.0
 10
231.5473595435505
 20
143.9395710353701
 30
0.0
 10
231.2416743735872
 20
143.9684449051728
 30
0.0
 10
230.6534383480696
 20
144.0428077632894
 30
0.0
 10
230.3765037820635
 20
144.0875261503616
 30
0.0
 10
229.8549312401474
 20
144.1947892891131
 30
0.0
 10
229.6086784107595
 20
144.2578883817848
 30
0.0
 10
229.156548121293
 20
144.4036093228418
 30
0.0
 10
228.9524183157358
 20
144.4854314563873
 30
0.0
 10
228.5840543718417
 20
144.6693773304978
 30
0.0
 10
228.4188968519582
 20
144.7723196606564
 30
0.0
 10
227.9880106390031
 20
145.109808996651
 30
0.0
 10
227.7869039553637
 20
145.3703414732897
 30
0.0
 10
227.6534683192007
 20
145.6705780364797
 30
0.0
  0
ELLIPSE
  5
95
330
1F
100
AcDbEntity
  8
0
  6
Continuous
 62
     7
370
    15
100
AcDbEllipse
 10
312.2607102775
 20
163.3855594428
 30
0.0
 11
190.2867990447082
 21
4.202620746254837
 31
0.0
210
0.0
220
0.0
230
1.0
 40
0.1027578619
 41
4.279462374324327
 42
4.293785385167692
  0
ELLIPSE
  5
96
330
1F
100
AcDbEntity
  8
0
  6
Continuous
 62
     7
370
    15
100
AcDbEllipse
 10
312.2607102775
 20
163.3855594428
 30
0.0
 11
190.2867990447082
 21
4.202620746254837
 31
0.0
210
0.0
220
0.0
230
1.0
 40
0.1027578619
 41
1.984860967305838
 42
1.999183978149206
  0
SPLINE
  5
97
330
1F
100
AcDbEntity
  8
0
  6
Continuous
 62
     7
370
    15
100
AcDbSpline
210
0.0
220
0.0
230
1.0
 70
     8
 71
     3
 72
    18
 73
    14
 74
     0
 42
0.00000001
 43
0.00000001
 12
1.0
 22
0.0
 32
0.0
 13
1.0
 23
0.0
 33
0.0
 40
0.0
 40
0.0
 40
0.0
 40
0.0
 40
0.2499999999999946
 40
0.2499999999999946
 40
0.3749999999999939
 40
0.3749999999999939
 40
0.4999999999999933
 40
0.4999999999999933
 40
0.6249999999999927
 40
0.6249999999999927
 40
0.7499999999999921
 40
0.7499999999999921
 40
1.0
 40
1.0
 40
1.0
 40
1.0
 10
227.6534683192006
 20
175.7931468918312
 30
0.0
 10
227.7870309588902
 20
176.3009416052311
 30
0.0
 10
227.9882318467488
 20
176.7683318681609
 30
0.0
 10
228.4178412287482
 20
177.4093764483188
 30
0.0
 10
228.5838714411548
 20
177.6137454254899
 30
0.0
 10
228.9518068393387
 20
177.9883599284304
 30
0.0
 10
229.1546730882121
 20
178.1605229592274
 30
0.0
 10
229.6005612422971
 20
178.4759836455332
 30
0.0
 10
229.8451350104372
 20
178.6200577537645
 30
0.0
 10
230.3724162632322
 20
178.8758746509864
 30
0.0
 10
230.6494275881536
 20
178.9851903915101
 30
0.0
 10
231.5201757573812
 20
179.262495761554
 30
0.0
 10
232.162259745944
 20
179.3807530709851
 30
0.0
 10
232.8218524973292
 20
179.4263202788582
 30
0.0
  0
SPLINE
  5
98
330
1F
100
AcDbEntity
  8
0
  6
Continuous
 62
     7
370
    15
100
AcDbSpline
210
0.0
220
0.0
230
1.0
 70
     8
 71
     3
 72
    30
 73
    26
 74
     0
 42
0.00000001
 43
0.00000001
 12
1.0
 22
0.0
 32
0.0
 13
1.0
 23
0.0
 33
0.0
 40
0.0
 40
0.0
 40
0.0
 40
0.0
 40
0.1250000000000026
 40
0.1250000000000026
 40
0.1875000000000039
 40
0.1875000000000039
 40
0.2500000000000051
 40
0.2500000000000051
 40
0.3750000000000051
 40
0.3750000000000051
 40
0.5000000000000052
 40
0.5000000000000052
 40
0.5625000000000043
 40
0.5625000000000043
 40
0.6250000000000034
 40
0.6250000000000034
 40
0.6875000000000026
 40
0.6875000000000026
 40
0.7500000000000013
 40
0.7500000000000013
 40
0.8749999999999988
 40
0.8749999999999988
 40
0.9374999999999994
 40
0.9374999999999994
 40
1.0
 40
1.0
 40
1.0
 40
1.0
 10
227.6534683192005
 20
159.8743442121881
 30
0.0
 10
227.7335616462248
 20
159.7768259980917
 30
0.0
 10
227.8253195248846
 20
159.6229322959878
 30
0.0
 10
227.9702881993429
 20
159.3426954668592
 30
0.0
 10
228.0200937671335
 20
159.2400391250068
 30
0.0
 10
228.1187601307862
 20
159.0240047136628
 30
0.0
 10
228.1678837139198
 20
158.9101594651542
 30
0.0
 10
228.3128042616532
 20
158.5528594937097
 30
0.0
 10
228.406493603668
 20
158.2941852039525
 30
0.0
 10
228.57342306776
 20
157.7317217684422
 30
0.0
 10
228.6451859759882
 20
157.4346460103785
 30
0.0
 10
228.7122997133215
 20
156.9561210191557
 30
0.0
 10
228.7275320884551
 20
156.7910156291612
 30
0.0
 10
228.7366593939913
 20
156.4563545682782
 30
0.0
 10
228.7304524895037
 20
156.2834311456212
 30
0.0
 10
228.6900246317149
 20
155.9397918737597
 30
0.0
 10
228.6558216883165
 20
155.769385414007
 30
0.0
 10
228.5598627177768
 20
155.4404927240316
 30
0.0
 10
228.5002083315897
 20
155.2880244025452
 30
0.0
 10
228.2973062167108
 20
154.8623969359561
 30
0.0
 10
228.139908207551
 20
154.6383608733659
 30
0.0
 10
227.9329210499982
 20
154.3883963916163
 30
0.0
 10
227.8673947234205
 20
154.3182904197836
 30
0.0
 10
227.750538183845
 20
154.2062962675572
 30
0.0
 10
227.6985773855699
 20
154.1636493236501
 30
0.0
 10
227.6534683192007
 20
154.1338520999544
 30
0.0
  0
LWPOLYLINE
  5
99
330
1F
100
AcDbEntity
  8
0
  6
Continuous
 62
     7
370
    15
100
AcDbPolyline
 90
       26
 70
   128
 43
0.0
 10
246.4452557149
 20
155.7075228648
 10
247.4345587078
 20
155.8520631971
 10
248.3617089572
 20
156.233363423
 10
249.1684429231
 20
156.8274657348
 10
249.804066855
 20
157.5970408613
 10
250.2286307397
 20
158.4937326716
 10
250.4154913011
 20
159.4611989441
 10
250.3528766218
 20
160.4386506243
 10
250.0447355094
 20
161.3646707138
 10
249.5104245725
 20
162.1810736707
 10
248.7835161271
 20
162.8365620728
 10
247.9096822324
 20
163.2899492489
 10
246.9438336673
 20
163.512747111
 10
245.9466628614
 20
163.490956491
 10
244.9808142963
 20
163.2259465569
 10
244.1069953027
 20
162.7343688616
 10
243.3800868574
 20
162.0471110674
 10
242.8457759204
 20
161.2073561283
 10
242.5376199069
 20
160.2678686487
 10
242.4750052276
 20
159.2876805099
 10
242.661865789
 20
158.3283805395
 10
243.0864445749
 20
157.4502444001
 10
243.7220685068
 20
156.7084496947
 10
244.5287875715
 20
156.1496049272
 10
245.455937821
 20
155.8088251496
 10
246.4452557149
 20
155.7075228648
  0
SPLINE
  5
9A
330
1F
100
AcDbEntity
  8
0
  6
Continuous
 62
     7
370
    15
100
AcDbSpline
210
0.0
220
0.0
230
1.0
 70
     8
 71
     3
 72
    10
 73
     6
 74
     0
 42
0.00000001
 43
0.00000001
 12
1.0
 22
0.0
 32
0.0
 13
1.0
 23
0.0
 33
0.0
 40
0.0
 40
0.0
 40
0.0
 40
0.0
 40
0.5
 40
0.5
 40
1.0
 40
1.0
 40
1.0
 40
1.0
 10
236.0136499465486
 20
143.4833095042284
 30
0.0
 10
235.9233075303954
 20
143.5815139986991
 30
0.0
 10
235.8160379404286
 20
143.6617749642228
 30
0.0
 10
235.5744856646652
 20
143.7761648483639
 30
0.0
 10
235.4428033017657
 20
143.8088717576369
 30
0.0
 10
235.3065431653621
 20
143.8120884894642
 30
0.0
  0
SPLINE
  5
9B
330
1F
100
AcDbEntity
  8
0
  6
Continuous
 62
     7
370
    15
100
AcDbSpline
210
0.0
220
0.0
230
1.0
 70
     8
 71
     3
 72
     8
 73
     4
 74
     0
 42
0.00000001
 43
0.00000001
 12
1.0
 22
0.0
 32
0.0
 13
1.0
 23
0.0
 33
0.0
 40
0.0
 40
0.0
 40
0.0
 40
0.0
 40
1.0
 40
1.0
 40
1.0
 40
1.0
 10
235.3065431653621
 20
179.5957640263667
 30
0.0
 10
235.5787225836597
 20
179.6140849900132
 30
0.0
 10
235.8331273919209
 20
179.7513246801383
 30
0.0
 10
236.0136499465491
 20
179.9554469710143
 30
0.0
  0
SPLINE
  5
9C
330
1F
100
AcDbEntity
  8
0
  6
Continuous
 62
     7
370
    15
100
AcDbSpline
210
0.0
220
0.0
230
1.0
 70
     8
 71
     3
 72
     8
 73
     4
 74
     0
 42
0.00000001
 43
0.00000001
 12
1.0
 22
0.0
 32
0.0
 13
1.0
 23
0.0
 33
0.0
 40
0.0
 40
0.0
 40
0.0
 40
0.0
 40
1.0
 40
1.0
 40
1.0
 40
1.0
 10
236.0136499465486
 20
179.9554469710147
 30
0.0
 10
236.08263094827
 20
180.0334458677581
 30
0.0
 10
236.1516671351202
 20
180.1113962522195
 30
0.0
 10
236.2207567277353
 20
180.1892996886068
 30
0.0
  0
ELLIPSE
  5
9D
330
1F
100
AcDbEntity
  8
0
  6
Continuous
 62
     7
370
    15
100
AcDbEllipse
 10
312.2607102775
 20
163.3855594428
 30
0.0
 11
195.043969020826
 21
4.307686264911182
 31
0.0
210
0.0
220
0.0
230
1.0
 40
0.1027578619
 41
1.907537067288508
 42
1.969005939912356
  0
LINE
  5
9E
330
1F
100
AcDbEntity
  8
0
  6
Continuous
 62
     7
370
    15
100
AcDbLine
 10
256.8938307348
 20
150.7789097833
 30
0.0
 11
247.3979316535
 21
180.8789024236
 31
0.0
  0
LINE
  5
9F
330
1F
100
AcDbEntity
  8
0
  6
Continuous
 62
     7
370
    15
100
AcDbLine
 10
242.4902640167
 20
155.0323614957
 30
0.0
 11
256.8938307348
 21
150.7789097833
 31
0.0
  0
ARC
  5
A0
330
1F
100
AcDbEntity
  8
0
  6
Continuous
 62
     7
370
    15
100
AcDbCircle
 10
241.8510858635
 20
153.0627911754
 30
0.0
 40
2.070689730055015
100
AcDbArc
 50
72.0203692788
 51
251.9158862242
  0
LINE
  5
A1
330
1F
100
AcDbEntity
  8
0
  6
Continuous
 62
     7
370
    15
100
AcDbLine
 10
244.182916719
 20
150.2159783723
 30
0.0
 11
241.2083171192
 21
151.0943897175
 31
0.0
  0
LINE
  5
A2
330
1F
100
AcDbEntity
  8
0
  6
Continuous
 62
     7
370
    15
100
AcDbLine
 10
247.0882855239
 20
141.0065783294
 30
0.0
 11
244.182916719
 21
150.2159783723
 31
0.0
  0
ARC
  5
A3
330
1F
100
AcDbEntity
  8
0
  6
Continuous
 62
     7
370
    15
100
AcDbCircle
 10
240.8405048351
 20
115.7069462222
 30
0.0
 40
26.05966516085038
100
AcDbArc
 50
76.1282687929
 51
91.2766065216
  0
LINE
  5
A4
330
1F
100
AcDbEntity
  8
0
  6
Continuous
 62
     7
370
    15
100
AcDbLine
 10
237.6687548938
 20
141.7035205396
 30
0.0
 11
240.2599178138
 21
141.7601430895
 31
0.0
  0
SPLINE
  5
A5
330
1F
100
AcDbEntity
  8
0
  6
Continuous
 62
     7
370
    15
100
AcDbSpline
210
0.0
220
0.0
230
1.0
 70
     8
 71
     3
 72
     8
 73
     4
 74
     0
 42
0.00000001
 43
0.00000001
 12
1.0
 22
0.0
 32
0.0
 13
1.0
 23
0.0
 33
0.0
 40
0.0
 40
0.0
 40
0.0
 40
0.0
 40
1.0
 40
1.0
 40
1.0
 40
1.0
 10
237.6687523821994
 20
141.7035203818289
 30
0.0
 10
237.1141003034527
 20
142.2940600310041
 30
0.0
 10
236.562141646016
 20
142.8870851351983
 30
0.0
 10
236.0136499465487
 20
143.4833095042285
 30
0.0
  0
ELLIPSE
  5
A6
330
1F
100
AcDbEntity
  8
0
  6
Continuous
 62
     7
370
    15
100
AcDbEllipse
 10
252.6719384403
 20
163.3855594428
 30
0.0
 11
-6.669703807742933
 21
20.49869244577133
 31
0.0
210
0.0
220
0.0
230
1.0
 40
0.0347142918
 41
5.723440995332882
 42
6.271890723418976
  0
LINE
  5
A7
330
1F
100
AcDbEntity
  8
0
  6
Continuous
 62
     7
370
    15
100
AcDbLine
 10
236.220749456
 20
183.8855600091
 30
0.0
 11
236.220749456
 21
180.1892990353
 31
0.0
  0
SPLINE
  5
A8
330
1F
100
AcDbEntity
  8
0
  6
Continuous
 62
     7
370
    15
100
AcDbSpline
210
0.0
220
0.0
230
1.0
 70
     8
 71
     3
 72
     9
 73
     5
 74
     0
 42
0.00000001
 43
0.00000001
 12
1.0
 22
0.0
 32
0.0
 13
1.0
 23
0.0
 33
0.0
 40
0.0
 40
0.0
 40
0.0
 40
0.0
 40
0.3205022048711221
 40
0.9999999999999999
 40
0.9999999999999999
 40
0.9999999999999999
 40
0.9999999999999999
 10
236.7110870662133
 20
142.4275679620196
 30
0.0
 10
236.7828349472172
 20
142.3485865068456
 30
0.0
 10
237.0066957503989
 20
142.1021562047334
 30
0.0
 10
237.4008964128475
 20
141.8648021181255
 30
0.0
 10
237.6687548938195
 20
141.7035205396106
 30
0.0
  0
LINE
  5
A9
330
1F
100
AcDbEntity
  8
0
  6
Continuous
 62
     7
370
    15
100
AcDbLine
 10
239.7698484245
 20
153.2089902194
 30
0.0
 11
240.2445696178
 21
153.0008340361
 31
0.0
  0
LINE
  5
AA
330
1F
100
AcDbEntity
  8
0
  6
Continuous
 62
     7
370
    15
100
AcDbLine
 10
240.2445696178
 20
153.0008340361
 30
0.0
 11
243.2191543165
 21
152.1224226909
 31
0.0
  0
LINE
  5
AB
330
1F
100
AcDbEntity
  8
0
  6
Continuous
 62
     7
370
    15
100
AcDbLine
 10
243.2191543165
 20
152.1224226909
 30
0.0
 11
244.182916719
 21
150.2159783723
 31
0.0
  0
ARC
  5
AC
330
1F
100
AcDbEntity
  8
0
  6
Continuous
 62
     7
370
    15
100
AcDbCircle
 10
251.2538782606
 20
147.6602212649
 30
0.0
 40
3.271958886454521
100
AcDbArc
 50
266.6230406575
 51
327.012297632
  0
LWPOLYLINE
  5
AD
330
1F
100
AcDbEntity
  8
0
  6
Continuous
 62
     7
370
    15
100
AcDbPolyline
 90
        3
 70
   128
 43
0.0
 10
254.1662774864
 20
147.3427029433
 10
253.8566462579
 20
146.5572999897
 10
253.7084244075
 20
146.3169442596
  0
ARC
  5
AE
330
1F
100
AcDbEntity
  8
0
  6
Continuous
 62
     7
370
    15
100
AcDbCircle
 10
251.0018229485
 20
148.0743404775
 30
0.0
 40
3.189720315278989
100
AcDbArc
 50
246.6387354195
 51
274.0517822949
  0
LWPOLYLINE
  5
AF
330
1F
100
AcDbEntity
  8
0
  6
Continuous
 62
     7
370
    15
100
AcDbPolyline
 90
       24
 70
   128
 43
0.0
 10
247.0557711902
 20
163.0039010944
 10
247.9576788726
 20
162.7366218473
 10
248.7474255147
 20
162.2382054212
 10
249.3664346519
 20
161.5456170276
 10
249.7687958064
 20
160.7102228901
 10
249.9246619525
 20
159.7939802906
 10
249.8224697891
 20
158.8648428316
 10
249.4698040071
 20
157.9917200016
 10
248.8928310457
 20
157.2393682892
 10
248.1343172374
 20
156.6635850923
 10
247.2505442682
 20
156.3070743451
 10
246.3070474449
 20
156.1962762954
 10
245.3738026205
 20
156.3394084679
 10
244.5200107875
 20
156.725855648
 10
243.8090167823
 20
157.326956849
 10
243.293526012
 20
158.0981310563
 10
243.0117897573
 20
158.9821834224
 10
242.9847143474
 20
159.9135481393
 10
243.2142667356
 20
160.8231504088
 10
243.6834595981
 20
161.6435287161
 10
244.3574838224
 20
162.3138396409
 10
245.1863460126
 20
162.7843691259
 10
246.1085639778
 20
163.0202203106
 10
247.0557711902
 20
163.0039010944
  0
LWPOLYLINE
  5
B0
330
1F
100
AcDbEntity
  8
0
  6
Continuous
 62
     7
370
    15
100
AcDbPolyline
 90
       19
 70
   128
 43
0.0
 10
246.7941217008
 20
161.5537063791
 10
247.4428288522
 20
161.3343773516
 10
247.971209127
 20
160.9082828382
 10
248.3155451599
 20
160.3268162454
 10
248.4342925134
 20
159.6601105867
 10
248.3131311717
 20
158.9885806771
 10
247.966679174
 20
158.3932234081
 10
247.4367193761
 20
157.9458467769
 10
246.7871777597
 20
157.7004111478
 10
246.0963897291
 20
157.6865204716
 10
245.4476825776
 20
157.9058492663
 10
244.9192874017
 20
158.3319437796
 10
244.5749513688
 20
158.9134103725
 10
244.4562040153
 20
159.5801160312
 10
244.577365357
 20
160.2516457079
 10
244.9238173547
 20
160.8470034426
 10
245.4537771526
 20
161.2943800738
 10
246.1033336702
 20
161.53981547
 10
246.7941217008
 20
161.5537063791
  0
SPLINE
  5
B1
330
1F
100
AcDbEntity
  8
0
  6
Continuous
 62
     7
370
    15
100
AcDbSpline
210
0.0
220
0.0
230
1.0
 70
     8
 71
     3
 72
    11
 73
     7
 74
     0
 42
0.00000001
 43
0.00000001
 12
1.0
 22
0.0
 32
0.0
 13
1.0
 23
0.0
 33
0.0
 40
0.0
 40
0.0
 40
0.0
 40
0.0
 40
0.1081141674063023
 40
0.4711590002120691
 40
0.8135775976402548
 40
1.0
 40
1.0
 40
1.0
 40
1.0
 10
245.3076563659112
 20
158.3553698020269
 30
0.0
 10
245.3620643941988
 20
158.3523609007184
 30
0.0
 10
245.599173302555
 20
158.3392481795431
 30
0.0
 10
246.0614861565244
 20
158.2926712145447
 30
0.0
 10
246.6029238044547
 20
158.1912253962783
 30
0.0
 10
246.8991164714959
 20
158.1202841426891
 30
0.0
 10
247.0035277190606
 20
158.0952765526463
 30
0.0
  0
SPLINE
  5
B2
330
1F
100
AcDbEntity
  8
0
  6
Continuous
 62
     7
370
    15
100
AcDbSpline
210
0.0
220
0.0
230
1.0
 70
     8
 71
     3
 72
    10
 73
     6
 74
     0
 42
0.00000001
 43
0.00000001
 12
1.0
 22
0.0
 32
0.0
 13
1.0
 23
0.0
 33
0.0
 40
0.0
 40
0.0
 40
0.0
 40
0.0
 40
0.4391167234612264
 40
0.7513658734562023
 40
1.0
 40
1.0
 40
1.0
 40
1.0
 10
247.0035277190606
 20
158.0952765526463
 30
0.0
 10
247.151633253129
 20
158.3055081074478
 30
0.0
 10
247.4050543551354
 20
158.6652320882526
 30
0.0
 10
247.8083205741935
 20
159.119165037025
 30
0.0
 10
248.0194890450716
 20
159.3244317104076
 30
0.0
 10
248.1130979838769
 20
159.4154244395186
 30
0.0
  0
SPLINE
  5
B3
330
1F
100
AcDbEntity
  8
0
  6
Continuous
 62
     7
370
    15
100
AcDbSpline
210
0.0
220
0.0
230
1.0
 70
     8
 71
     3
 72
    10
 73
     6
 74
     0
 42
0.00000001
 43
0.00000001
 12
1.0
 22
0.0
 32
0.0
 13
1.0
 23
0.0
 33
0.0
 40
0.0
 40
0.0
 40
0.0
 40
0.0
 40
0.4391165135185931
 40
0.7513667425941217
 40
1.0
 40
1.0
 40
1.0
 40
1.0
 10
248.1130979838769
 20
159.4154244395186
 30
0.0
 10
248.0184297268512
 20
159.6628908157831
 30
0.0
 10
247.8564440630954
 20
160.0863274193066
 30
0.0
 10
247.6558505477546
 20
160.6328732548677
 30
0.0
 10
247.566454809728
 20
160.8842384723812
 30
0.0
 10
247.5268266978661
 20
160.9956658086022
 30
0.0
  0
SPLINE
  5
B4
330
1F
100
AcDbEntity
  8
0
  6
Continuous
 62
     7
370
    15
100
AcDbSpline
210
0.0
220
0.0
230
1.0
 70
     8
 71
     3
 72
    11
 73
     7
 74
     0
 42
0.00000001
 43
0.00000001
 12
1.0
 22
0.0
 32
0.0
 13
1.0
 23
0.0
 33
0.0
 40
0.0
 40
0.0
 40
0.0
 40
0.0
 40
0.1864224882728271
 40
0.5288409945142538
 40
0.8918858475147627
 40
1.0
 40
1.0
 40
1.0
 40
1.0
 10
247.5268266978661
 20
160.9956658086022
 30
0.0
 10
247.4224154684442
 20
161.0206735883984
 30
0.0
 10
247.1262229923245
 20
161.091615346877
 30
0.0
 10
246.5847849527011
 20
161.1930606304507
 30
0.0
 10
246.1224723318334
 20
161.2396374394291
 30
0.0
 10
245.8853633758217
 20
161.2527505365242
 30
0.0
 10
245.8309553447167
 20
161.255759523644
 30
0.0
  0
SPLINE
  5
B5
330
1F
100
AcDbEntity
  8
0
  6
Continuous
 62
     7
370
    15
100
AcDbSpline
210
0.0
220
0.0
230
1.0
 70
     8
 71
     3
 72
    10
 73
     6
 74
     0
 42
0.00000001
 43
0.00000001
 12
1.0
 22
0.0
 32
0.0
 13
1.0
 23
0.0
 33
0.0
 40
0.0
 40
0.0
 40
0.0
 40
0.0
 40
0.4391151177864722
 40
0.7513686581585931
 40
1.0
 40
1.0
 40
1.0
 40
1.0
 10
245.8309553447167
 20
161.255759523644
 30
0.0
 10
245.6613758869276
 20
161.0880116520086
 30
0.0
 10
245.3712089478058
 20
160.8009787348658
 30
0.0
 10
244.9842611271131
 20
160.3147452947184
 30
0.0
 10
244.8021237018258
 20
160.052057122744
 30
0.0
 10
244.7213850799004
 20
159.9356116367717
 30
0.0
  0
SPLINE
  5
B6
330
1F
100
AcDbEntity
  8
0
  6
Continuous
 62
     7
370
    15
100
AcDbSpline
210
0.0
220
0.0
230
1.0
 70
     8
 71
     3
 72
    10
 73
     6
 74
     0
 42
0.00000001
 43
0.00000001
 12
1.0
 22
0.0
 32
0.0
 13
1.0
 23
0.0
 33
0.0
 40
0.0
 40
0.0
 40
0.0
 40
0.0
 40
0.4391175338474874
 40
0.7513680968837465
 40
1.0
 40
1.0
 40
1.0
 40
1.0
 10
244.7213850799004
 20
159.9356116367717
 30
0.0
 10
244.794577162601
 20
159.7306304684732
 30
0.0
 10
244.9198151493509
 20
159.3798899526665
 30
0.0
 10
245.1367492519792
 20
158.8010329956003
 30
0.0
 10
245.255164449021
 20
158.4922495069136
 30
0.0
 10
245.3076563659112
 20
158.3553698020269
 30
0.0
  0
LINE
  5
B7
330
1F
100
AcDbEntity
  8
0
  6
Continuous
 62
     7
370
    15
100
AcDbLine
 10
247.723000485
 20
160.1871106414
 30
0.0
 11
248.1130979839
 21
159.4154244395
 31
0.0
  0
LINE
  5
B8
330
1F
100
AcDbEntity
  8
0
  6
Continuous
 62
     7
370
    15
100
AcDbLine
 10
247.723000485
 20
160.1871106414
 30
0.0
 11
247.4298499408
 21
160.9772314424
 31
0.0
  0
LINE
  5
B9
330
1F
100
AcDbEntity
  8
0
  6
Continuous
 62
     7
370
    15
100
AcDbLine
 10
246.613415319
 20
158.8669625217
 30
0.0
 11
247.0035277191
 21
158.0952765526
 31
0.0
  0
LINE
  5
BA
330
1F
100
AcDbEntity
  8
0
  6
Continuous
 62
     7
370
    15
100
AcDbLine
 10
246.613415319
 20
158.8669625217
 30
0.0
 11
247.1682004514
 21
159.527036698
 31
0.0
  0
LINE
  5
BB
330
1F
100
AcDbEntity
  8
0
  6
Continuous
 62
     7
370
    15
100
AcDbLine
 10
247.1682004514
 20
159.527036698
 30
0.0
 11
247.723000485
 21
160.1871106414
 31
0.0
  0
LINE
  5
BC
330
1F
100
AcDbEntity
  8
0
  6
Continuous
 62
     7
370
    15
100
AcDbLine
 10
244.917558867
 20
159.1270562368
 30
0.0
 11
245.7654796424
 21
158.9970096121
 31
0.0
  0
LINE
  5
BD
330
1F
100
AcDbEntity
  8
0
  6
Continuous
 62
     7
370
    15
100
AcDbLine
 10
245.7654796424
 20
158.9970096121
 30
0.0
 11
246.613415319
 21
158.8669625217
 31
0.0
  0
ARC
  5
BE
330
1F
100
AcDbEntity
  8
0
  6
Continuous
 62
     7
370
    15
100
AcDbCircle
 10
246.0543806917
 20
160.4766974265
 30
0.0
 40
1.463711022113831
100
AcDbArc
 50
319.5485539042
 51
19.9964743417
  0
ARC
  5
BF
330
1F
100
AcDbEntity
  8
0
  6
Continuous
 62
     7
370
    15
100
AcDbCircle
 10
245.9937090596
 20
160.5141679961
 30
0.0
 40
1.534228871126287
100
AcDbArc
 50
261.4450196804
 51
319.9537694523
  0
ARC
  5
C0
330
1F
100
AcDbEntity
  8
0
  6
Continuous
 62
     7
370
    15
100
AcDbCircle
 10
245.9808663774
 20
160.4365496442
 30
0.0
 40
1.455564134549143
100
AcDbArc
 50
219.4223825969
 51
261.4904216059
  0
LINE
  5
C1
330
1F
100
AcDbEntity
  8
0
  6
Continuous
 62
     7
370
    15
100
AcDbLine
 10
242.2992460313
 20
155.07907943
 30
0.0
 11
242.3114649835
 21
155.0369957568
 31
0.0
  0
LINE
  5
C2
330
1F
100
AcDbEntity
  8
0
  6
Continuous
 62
     7
370
    15
100
AcDbLine
 10
247.0833830419
 20
141.6860712799
 30
0.0
 11
259.4471894088
 21
138.034973863
 31
0.0
  0
LINE
  5
C3
330
1F
100
AcDbEntity
  8
0
  6
Continuous
 62
     7
370
    15
100
AcDbLine
 10
242.6124982419
 20
154.4414904075
 30
0.0
 11
243.5515545192
 21
151.4648856702
 31
0.0
  0
LINE
  5
C4
330
1F
100
AcDbEntity
  8
0
  6
Continuous
 62
     7
370
    15
100
AcDbLine
 10
242.3114649835
 20
155.0369957568
 30
0.0
 11
243.2505212608
 21
152.0603910195
 31
0.0
  0
ARC
  5
C5
330
1F
100
AcDbEntity
  8
0
  6
Continuous
 62
     7
370
    15
100
AcDbCircle
 10
255.6746007036
 20
151.7196633601
 30
0.0
 40
0.9450917629409752
100
AcDbArc
 50
26.8065139138
 51
38.9477047084
  0
LINE
  5
C6
330
1F
100
AcDbEntity
  8
0
  6
Continuous
 62
     7
370
    15
100
AcDbLine
 10
242.9386846605
 20
154.1985130044
 30
0.0
 11
247.1934281173
 21
140.7118817898
 31
0.0
  0
ARC
  5
C7
330
1F
100
AcDbEntity
  8
0
  6
Continuous
 62
     7
370
    15
100
AcDbCircle
 10
243.3252388152
 20
154.311375925
 30
0.0
 40
0.402693622272839
100
AcDbArc
 50
73.3020594706
 51
196.2763167084
  0
LINE
  5
C8
330
1F
100
AcDbEntity
  8
0
  6
Continuous
 62
     7
370
    15
100
AcDbLine
 10
257.1913473192
 20
150.6365226688
 30
0.0
 11
243.4409431997
 21
154.6970890941
 31
0.0
  0
ARC
  5
C9
330
1F
100
AcDbEntity
  8
0
  6
Continuous
 62
     7
370
    15
100
AcDbCircle
 10
257.0845961545
 20
150.2688287674
 30
0.0
 40
0.3828767638057571
100
AcDbArc
 50
17.6643147989
 51
73.8106037029
  0
LINE
  5
CA
330
1F
100
AcDbEntity
  8
0
  6
Continuous
 62
     7
370
    15
100
AcDbLine
 10
261.7041639867
 20
136.8983784797
 30
0.0
 11
257.4494205299
 21
150.385008763
 31
0.0
  0
ARC
  5
CB
330
1F
100
AcDbEntity
  8
0
  6
Continuous
 62
     7
370
    15
100
AcDbCircle
 10
261.3176101273
 20
136.7855152615
 30
0.0
 40
0.4026934221288025
100
AcDbArc
 50
253.3020070509
 51
16.276369128
  0
LINE
  5
CC
330
1F
100
AcDbEntity
  8
0
  6
Continuous
 62
     7
370
    15
100
AcDbLine
 10
247.451501328
 20
140.4603688153
 30
0.0
 11
261.2019054475
 21
136.3998023899
 31
0.0
  0
ARC
  5
CD
330
1F
100
AcDbEntity
  8
0
  6
Continuous
 62
     7
370
    15
100
AcDbCircle
 10
247.5582520178
 20
140.8280626595
 30
0.0
 40
0.3828765765285828
100
AcDbArc
 50
197.664461017
 51
253.8106695736
  0
ARC
  5
CE
330
1F
100
AcDbEntity
  8
0
  6
Continuous
 62
     7
370
    15
100
AcDbCircle
 10
261.3179326163
 20
136.7849762185
 30
0.0
 40
0.3825520110506304
100
AcDbArc
 50
253.3019783612
 51
16.2775489417
  0
LINE
  5
CF
330
1F
100
AcDbEntity
  8
0
  6
Continuous
 62
     7
370
    15
100
AcDbLine
 10
261.685150105
 20
136.8922019484
 30
0.0
 11
257.4304066482
 21
150.3788322317
 31
0.0
  0
ARC
  5
D0
330
1F
100
AcDbEntity
  8
0
  6
Continuous
 62
     7
370
    15
100
AcDbCircle
 10
257.0838344402
 20
150.2684728543
 30
0.0
 40
0.3637189678287345
100
AcDbArc
 50
17.6630942177
 51
73.81163906
  0
LINE
  5
D1
330
1F
100
AcDbEntity
  8
0
  6
Continuous
 62
     7
370
    15
100
AcDbLine
 10
257.1852378431
 20
150.6177704888
 30
0.0
 11
243.4348337236
 21
154.6783369141
 31
0.0
  0
ARC
  5
D2
330
1F
100
AcDbEntity
  8
0
  6
Continuous
 62
     7
370
    15
100
AcDbCircle
 10
243.3249172733
 20
154.3119147345
 30
0.0
 40
0.3825530548032036
100
AcDbArc
 50
73.3022195247
 51
196.2774204347
  0
LINE
  5
D3
330
1F
100
AcDbEntity
  8
0
  6
Continuous
 62
     7
370
    15
100
AcDbLine
 10
242.9576985422
 20
154.2046895357
 30
0.0
 11
247.212441999
 21
140.7180583211
 31
0.0
  0
ARC
  5
D4
330
1F
100
AcDbEntity
  8
0
  6
Continuous
 62
     7
370
    15
100
AcDbCircle
 10
247.5590202328
 20
140.8284238813
 30
0.0
 40
0.3637265855660839
100
AcDbArc
 50
197.6637342525
 51
253.8109990252
  0
LINE
  5
D5
330
1F
100
AcDbEntity
  8
0
  6
Continuous
 62
     7
370
    15
100
AcDbLine
 10
247.4576108041
 20
140.479120064
 30
0.0
 11
261.2080149236
 21
136.4185555013
 31
0.0
  0
LINE
  5
D6
330
1F
100
AcDbEntity
  8
0
  6
Continuous
 62
     7
370
    15
100
AcDbLine
 10
256.5275899949
 20
151.9495301055
 30
0.0
 11
256.5242074314
 21
151.9505266207
 31
0.0
  0
LINE
  5
D7
330
1F
100
AcDbEntity
  8
0
  6
Continuous
 62
     7
370
    15
100
AcDbLine
 10
244.7568051401
 20
153.00459006
 30
0.0
 11
243.2959250989
 21
154.3674083533
 31
0.0
  0
LINE
  5
D8
330
1F
100
AcDbEntity
  8
0
  6
Continuous
 62
     7
370
    15
100
AcDbLine
 10
256.675409514
 20
150.016128655
 30
0.0
 11
257.0463143173
 21
150.3068428593
 31
0.0
  0
LINE
  5
D9
330
1F
100
AcDbEntity
  8
0
  6
Continuous
 62
     7
370
    15
100
AcDbLine
 10
245.3959308448
 20
152.8158547463
 30
0.0
 11
244.7568051401
 21
153.00459006
 31
0.0
  0
LINE
  5
DA
330
1F
100
AcDbEntity
  8
0
  6
Continuous
 62
     7
370
    15
100
AcDbLine
 10
244.7568051401
 20
153.00459006
 30
0.0
 11
244.9545584503
 21
152.3777289422
 31
0.0
  0
LINE
  5
DB
330
1F
100
AcDbEntity
  8
0
  6
Continuous
 62
     7
370
    15
100
AcDbLine
 10
247.8694192949
 20
141.2746707084
 30
0.0
 11
247.5506685558
 21
140.8807771387
 31
0.0
  0
LINE
  5
DC
330
1F
100
AcDbEntity
  8
0
  6
Continuous
 62
     7
370
    15
100
AcDbLine
 10
242.4199752393
 20
155.051784228
 30
0.0
 11
243.5515545192
 21
151.4648856702
 31
0.0
  0
SPLINE
  5
DD
330
1F
100
AcDbEntity
  8
0
  6
Continuous
 62
     7
370
    15
100
AcDbSpline
210
0.0
220
0.0
230
1.0
 70
     8
 71
     3
 72
    14
 73
    10
 74
     0
 42
0.00000001
 43
0.00000001
 12
1.0
 22
0.0
 32
0.0
 13
1.0
 23
0.0
 33
0.0
 40
0.0
 40
0.0
 40
0.0
 40
0.0
 40
0.2210634726025807
 40
0.3460783981661608
 40
0.4396029264788439
 40
0.5338914294115813
 40
0.6146571384949655
 40
0.7517299094588389
 40
1.0
 40
1.0
 40
1.0
 40
1.0
 10
245.5334983649651
 20
152.2492651002695
 30
0.0
 10
245.5740170304681
 20
152.2920705734373
 30
0.0
 10
245.6374496486569
 20
152.3590832255606
 30
0.0
 10
245.6926731062687
 20
152.462691481963
 30
0.0
 10
245.7090586288415
 20
152.544348575242
 30
0.0
 10
245.6949430483234
 20
152.614722048797
 30
0.0
 10
245.6506362772026
 20
152.6836219821427
 30
0.0
 10
245.5542297035253
 20
152.7611405871138
 30
0.0
 10
245.4579574682622
 20
152.7944159654055
 30
0.0
 10
245.3959308448235
 20
152.8158547463109
 30
0.0
  0
ARC
  5
DE
330
1F
100
AcDbEntity
  8
0
  6
Continuous
 62
     7
370
    15
100
AcDbCircle
 10
247.2989770745
 20
150.4320371735
 30
0.0
 40
1.006736328557417
100
AcDbArc
 50
73.3023152914
 51
196.2760180781
  0
LWPOLYLINE
  5
DF
330
1F
100
AcDbEntity
  8
0
  6
Continuous
 62
     7
370
    15
100
AcDbPolyline
 90
        9
 70
   128
 43
0.0
 10
245.533498365
 20
152.2492651003
 10
245.5332897487
 20
152.2490611406
 10
245.5330960336
 20
152.248857181
 10
245.5328874174
 20
152.2486532213
 10
245.5326788011
 20
152.2484492617
 10
245.5324701848
 20
152.2482453021
 10
245.5322615686
 20
152.2480413424
 10
245.5320678535
 20
152.2478373828
 10
245.5318592372
 20
152.2476334231
  0
SPLINE
  5
E0
330
1F
100
AcDbEntity
  8
0
  6
Continuous
 62
     7
370
    15
100
AcDbSpline
210
0.0
220
0.0
230
1.0
 70
     8
 71
     3
 72
    14
 73
    10
 74
     0
 42
0.00000001
 43
0.00000001
 12
1.0
 22
0.0
 32
0.0
 13
1.0
 23
0.0
 33
0.0
 40
0.0
 40
0.0
 40
0.0
 40
0.0
 40
0.2234942506632486
 40
0.3567675347595768
 40
0.4531166585624503
 40
0.534470140624093
 40
0.615724044144531
 40
0.7396164759158761
 40
1.0
 40
1.0
 40
1.0
 40
1.0
 10
244.9545584502617
 20
152.3777289422442
 30
0.0
 10
244.9745074379828
 20
152.3230346412822
 30
0.0
 10
245.0063523339883
 20
152.2357252323747
 30
0.0
 10
245.0783728246969
 20
152.1408651206347
 30
0.0
 10
245.14517987557
 20
152.0927147009303
 30
0.0
 10
245.2122180080641
 20
152.0742144743861
 30
0.0
 10
245.2892216407076
 20
152.0802102719652
 30
0.0
 10
245.4053358912286
 20
152.1300091702004
 30
0.0
 10
245.4807553665285
 20
152.2001239728653
 30
0.0
 10
245.5318592372338
 20
152.2476334231188
 30
0.0
  0
LINE
  5
E1
330
1F
100
AcDbEntity
  8
0
  6
Continuous
 62
     7
370
    15
100
AcDbLine
 10
246.3325880351
 20
150.1498842718
 30
0.0
 11
248.7138233962
 21
142.6019040974
 31
0.0
  0
LINE
  5
E2
330
1F
100
AcDbEntity
  8
0
  6
Continuous
 62
     7
370
    15
100
AcDbLine
 10
255.2838347736
 20
149.1237716856
 30
0.0
 11
247.5882343831
 21
151.3963235649
 31
0.0
  0
ARC
  5
E3
330
1F
100
AcDbEntity
  8
0
  6
Continuous
 62
     7
370
    15
100
AcDbCircle
 10
255.0170219404
 20
148.2045926864
 30
0.0
 40
0.9571202225920252
100
AcDbArc
 50
17.6622079235
 51
73.8134144252
  0
LINE
  5
E4
330
1F
100
AcDbEntity
  8
0
  6
Continuous
 62
     7
370
    15
100
AcDbLine
 10
258.3102606121
 20
140.9470072123
 30
0.0
 11
255.929025251
 21
148.4949873867
 31
0.0
  0
ARC
  5
E5
330
1F
100
AcDbEntity
  8
0
  6
Continuous
 62
     7
370
    15
100
AcDbCircle
 10
257.3438718681
 20
140.6648540131
 30
0.0
 40
1.006736128415648
100
AcDbArc
 50
253.3022943241
 51
16.2760390454
  0
LINE
  5
E6
330
1F
100
AcDbEntity
  8
0
  6
Continuous
 62
     7
370
    15
100
AcDbLine
 10
249.3590138736
 20
141.9731197985
 30
0.0
 11
257.0546142641
 21
139.7005679192
 31
0.0
  0
ARC
  5
E7
330
1F
100
AcDbEntity
  8
0
  6
Continuous
 62
     7
370
    15
100
AcDbCircle
 10
249.6258219693
 20
142.8922939365
 30
0.0
 40
0.9571142334327306
100
AcDbArc
 50
197.6620166826
 51
253.8136056661
  0
LWPOLYLINE
  5
E8
330
1F
100
AcDbEntity
  8
0
  6
Continuous
 62
     7
370
    15
100
AcDbPolyline
 90
       21
 70
   128
 43
0.0
 10
251.533942658
 20
143.1294052037
 10
252.3271165672
 20
143.0249555143
 10
253.1197391334
 20
143.167522374
 10
253.8342051092
 20
143.5431489827
 10
254.4005982461
 20
144.1150704505
 10
254.7634564224
 20
144.8272993895
 10
254.8872850719
 20
145.6101188543
 10
254.7599397483
 20
146.3869014861
 10
254.3939076248
 20
147.0816103848
 10
253.8249961915
 20
147.6262422385
 10
253.1089059892
 20
147.9674853491
 10
252.31573208
 20
148.0719359698
 10
251.5231095138
 20
147.9293691101
 10
250.808643538
 20
147.5537425013
 10
250.2422504011
 20
146.9818210336
 10
249.8793922248
 20
146.2695920946
 10
249.7555635753
 20
145.4867726298
 10
249.8829088989
 20
144.709989998
 10
250.2489410224
 20
144.0152810993
 10
250.8178524557
 20
143.4706492456
 10
251.533942658
 20
143.1294052037
  0
ARC
  5
E9
330
1F
100
AcDbEntity
  8
0
  6
Continuous
 62
     7
370
    15
100
AcDbCircle
 10
251.6194866599
 20
146.9322986792
 30
0.0
 40
2.600188517375
100
AcDbArc
 50
253.2514566525
 51
8.5261150203
  0
LWPOLYLINE
  5
EA
330
1F
100
AcDbEntity
  8
0
  6
Continuous
 62
     7
370
    15
100
AcDbPolyline
 90
        3
 70
   128
 43
0.0
 10
249.7881524148
 20
145.0920948865
 10
250.1540951314
 20
144.783655751
 10
250.8701853338
 20
144.4424135717
  0
LINE
  5
EB
330
1F
100
AcDbEntity
  8
0
  6
Continuous
 62
     7
370
    15
100
AcDbLine
 10
259.7187928739
 20
138.4231379362
 30
0.0
 11
261.3010577741
 21
136.820212576
 31
0.0
  0
LINE
  5
EC
330
1F
100
AcDbEntity
  8
0
  6
Continuous
 62
     7
370
    15
100
AcDbLine
 10
259.7187928739
 20
138.4231379362
 30
0.0
 11
259.5210395637
 21
139.0499981227
 31
0.0
  0
ARC
  5
ED
330
1F
100
AcDbEntity
  8
0
  6
Continuous
 62
     7
370
    15
100
AcDbCircle
 10
256.4198426983
 20
151.5804049199
 30
0.0
 40
0.3845294300368312
100
AcDbArc
 50
26.9947253789
 51
73.7275245324
  0
SPLINE
  5
EE
330
1F
100
AcDbEntity
  8
0
  6
Continuous
 62
     7
370
    15
100
AcDbSpline
210
0.0
220
0.0
230
1.0
 70
     8
 71
     3
 72
    11
 73
     7
 74
     0
 42
0.00000001
 43
0.00000001
 12
1.0
 22
0.0
 32
0.0
 13
1.0
 23
0.0
 33
0.0
 40
0.0
 40
0.0
 40
0.0
 40
0.0
 40
0.3280441333786414
 40
0.6557079400377114
 40
0.9906994920880576
 40
0.9999999999999999
 40
0.9999999999999999
 40
0.9999999999999999
 40
0.9999999999999999
 10
256.67540951399
 20
150.0161286549856
 30
0.0
 10
256.6196893411234
 20
149.9698471596882
 30
0.0
 10
256.5083135960596
 20
149.8773378267801
 30
0.0
 10
256.3361654370677
 20
149.7025427466246
 30
0.0
 10
256.2326804193446
 20
149.5822670386378
 30
0.0
 10
256.1860339611448
 20
149.5230933380564
 30
0.0
 10
256.1847738805214
 20
149.5214948537042
 30
0.0
  0
SPLINE
  5
EF
330
1F
100
AcDbEntity
  8
0
  6
Continuous
 62
     7
370
    15
100
AcDbSpline
210
0.0
220
0.0
230
1.0
 70
     8
 71
     3
 72
    11
 73
     7
 74
     0
 42
0.00000001
 43
0.00000001
 12
1.0
 22
0.0
 32
0.0
 13
1.0
 23
0.0
 33
0.0
 40
0.0
 40
0.0
 40
0.0
 40
0.0
 40
0.3280398657931948
 40
0.6557034037416468
 40
0.9906977166240151
 40
1.0
 40
1.0
 40
1.0
 40
1.0
 10
247.8694192948739
 20
141.2746707083871
 30
0.0
 10
247.9190573391599
 20
141.3329777662879
 30
0.0
 10
248.0182764828904
 20
141.4495249921419
 30
0.0
 10
248.1930617433135
 20
141.6191152718897
 30
0.0
 10
248.3083698015135
 20
141.7159694319943
 30
0.0
 10
248.3636718630156
 20
141.7580469668874
 30
0.0
 10
248.365166026632
 20
141.7591838272502
 30
0.0
  0
LINE
  5
F0
330
1F
100
AcDbEntity
  8
0
  6
Continuous
 62
     7
370
    15
100
AcDbLine
 10
259.0796820703
 20
138.6118723186
 30
0.0
 11
259.7187928739
 21
138.4231379362
 31
0.0
  0
LWPOLYLINE
  5
F1
330
1F
100
AcDbEntity
  8
0
  6
Continuous
 62
     7
370
    15
100
AcDbPolyline
 90
        9
 70
   128
 43
0.0
 10
258.942099649
 20
139.178462896
 10
258.9423082652
 20
139.1786659243
 10
258.9425168815
 20
139.1788708152
 10
258.9427254978
 20
139.1790738436
 10
258.9429192129
 20
139.1792787345
 10
258.9431278291
 20
139.1794817629
 10
258.9433364454
 20
139.1796866538
 10
258.9435450616
 20
139.1798915448
 10
258.9437387767
 20
139.1800945731
  0
SPLINE
  5
F2
330
1F
100
AcDbEntity
  8
0
  6
Continuous
 62
     7
370
    15
100
AcDbSpline
210
0.0
220
0.0
230
1.0
 70
     8
 71
     3
 72
    14
 73
    10
 74
     0
 42
0.00000001
 43
0.00000001
 12
1.0
 22
0.0
 32
0.0
 13
1.0
 23
0.0
 33
0.0
 40
0.0
 40
0.0
 40
0.0
 40
0.0
 40
0.2234941125352517
 40
0.3567552975319613
 40
0.4531189366998998
 40
0.5344541592908462
 40
0.6157261881700534
 40
0.7396179261423094
 40
1.0
 40
1.0
 40
1.0
 40
1.0
 10
259.5210395636955
 20
139.0499981226613
 30
0.0
 10
259.5010879652586
 20
139.1046904768867
 30
0.0
 10
259.4692399744733
 20
139.1919938375126
 30
0.0
 10
259.3972401949276
 20
139.2868729925992
 30
0.0
 10
259.3304233418659
 20
139.3350060892965
 30
0.0
 10
259.2633864342943
 20
139.3535160436137
 30
0.0
 10
259.1863805535826
 20
139.3475185586557
 30
0.0
 10
259.0702624280879
 20
139.2977196064092
 30
0.0
 10
258.9948427710649
 20
139.2276043388435
 30
0.0
 10
258.9437387767235
 20
139.1800945731093
 30
0.0
  0
SPLINE
  5
F3
330
1F
100
AcDbEntity
  8
0
  6
Continuous
 62
     7
370
    15
100
AcDbSpline
210
0.0
220
0.0
230
1.0
 70
     8
 71
     3
 72
    14
 73
    10
 74
     0
 42
0.00000001
 43
0.00000001
 12
1.0
 22
0.0
 32
0.0
 13
1.0
 23
0.0
 33
0.0
 40
0.0
 40
0.0
 40
0.0
 40
0.0
 40
0.2210523153258774
 40
0.3460760833735896
 40
0.4395989380374231
 40
0.5338866575218123
 40
0.6146517921170528
 40
0.7517111680500173
 40
1.0
 40
1.0
 40
1.0
 40
1.0
 10
258.9420996489922
 20
139.1784628959586
 30
0.0
 10
258.9015918244224
 20
139.1356546210101
 30
0.0
 10
258.8381734012658
 20
139.0686346483474
 30
0.0
 10
258.7829154628029
 20
138.965041890689
 30
0.0
 10
258.7665602759253
 20
138.8833771140581
 30
0.0
 10
258.7806682893049
 20
138.813005771646
 30
0.0
 10
258.8249766592691
 20
138.7441110927612
 30
0.0
 10
258.9213699348061
 20
138.666578516485
 30
0.0
 10
259.0176479202485
 20
138.6333087831962
 30
0.0
 10
259.079682070295
 20
138.6118723185946
 30
0.0
  0
ELLIPSE
  5
F4
330
1F
100
AcDbEntity
  8
0
  6
Continuous
 62
     7
370
    15
100
AcDbEllipse
 10
251.5594045757
 20
147.1775340179
 30
0.0
 11
2.09333716601634
 21
1.067951011005476
 31
0.0
210
0.0
220
0.0
230
1.0
 40
0.9741101241
 41
4.637848694747089
 42
5.984033319622702
  0
ELLIPSE
  5
F5
330
1F
100
AcDbEntity
  8
0
  6
Continuous
 62
     7
370
    15
100
AcDbEllipse
 10
251.5594045757
 20
147.1775340179
 30
0.0
 11
2.09333716601634
 21
1.067951011005476
 31
0.0
210
0.0
220
0.0
230
1.0
 40
0.9741101241
 41
3.373915654343227
 42
4.637848694747094
  0
LINE
  5
F6
330
1F
100
AcDbEntity
  8
0
  6
HIDDEN
 62
     7
370
     0
100
AcDbLine
 10
103.7207566085
 20
132.8855591001
 30
0.0
 11
103.7207566085
 21
193.8855597856
 31
0.0
  0
SPLINE
  5
F7
330
1F
100
AcDbEntity
  8
0
  6
HIDDEN
 62
     7
370
     0
100
AcDbSpline
210
0.0
220
0.0
230
1.0
 70
     8
 71
     3
 72
    60
 73
    56
 74
     0
 42
0.00000001
 43
0.00000001
 12
1.0
 22
0.0
 32
0.0
 13
1.0
 23
0.0
 33
0.0
 40
-0.0624999999999998
 40
-0.0624999999999998
 40
0.0
 40
0.0
 40
0.03125
 40
0.03125
 40
0.0625
 40
0.0625
 40
0.09375
 40
0.09375
 40
0.125
 40
0.125
 40
0.1874999999999998
 40
0.1874999999999998
 40
0.2499999999999995
 40
0.2499999999999995
 40
0.2812499999999996
 40
0.2812499999999996
 40
0.3124999999999997
 40
0.3124999999999997
 40
0.3437499999999998
 40
0.3437499999999998
 40
0.3749999999999998
 40
0.3749999999999998
 40
0.4062499999999999
 40
0.4062499999999999
 40
0.4375000000000001
 40
0.4375000000000001
 40
0.4687500000000001
 40
0.4687500000000001
 40
0.5000000000000002
 40
0.5000000000000002
 40
0.5625000000000003
 40
0.5625000000000003
 40
0.6250000000000004
 40
0.6250000000000004
 40
0.6562500000000004
 40
0.6562500000000004
 40
0.6875000000000004
 40
0.6875000000000004
 40
0.7187500000000004
 40
0.7187500000000004
 40
0.7500000000000003
 40
0.7500000000000003
 40
0.7812500000000003
 40
0.7812500000000003
 40
0.8125000000000003
 40
0.8125000000000003
 40
0.8437500000000003
 40
0.8437500000000003
 40
0.8750000000000003
 40
0.8750000000000003
 40
0.9062500000000003
 40
0.9062500000000003
 40
0.9375000000000002
 40
0.9375000000000002
 40
1.0
 40
1.0
 40
1.03125
 40
1.03125
 10
91.72075672773514
 20
163.1212289177603
 30
0.0
 10
91.72075672773512
 20
163.5177247053903
 30
0.0
 10
91.73372858622396
 20
163.6476747663944
 30
0.0
 10
91.78454875591633
 20
163.9033276997546
 30
0.0
 10
91.82301607938327
 20
164.0303572063038
 30
0.0
 10
91.92341431545536
 20
164.2725453374284
 30
0.0
 10
91.98484734642855
 20
164.3874068299812
 30
0.0
 10
92.12998217797349
 20
164.6047870258054
 30
0.0
 10
92.21443729538134
 20
164.707684593004
 30
0.0
 10
92.49115674573966
 20
164.9843516320118
 30
0.0
 10
92.71423363765773
 20
165.1333497224918
 30
0.0
 10
93.19551699987804
 20
165.3328608629565
 30
0.0
 10
93.45874741886904
 20
165.3854189659532
 30
0.0
 10
93.85014962055698
 20
165.3856292483313
 30
0.0
 10
93.98267264866583
 20
165.3726434776041
 30
0.0
 10
94.2392031019069
 20
165.3216163293903
 30
0.0
 10
94.36388993620348
 20
165.2838611302399
 30
0.0
 10
94.606069198439
 20
165.1837227973312
 30
0.0
 10
94.7231627305891
 20
165.1211171299196
 30
0.0
 10
94.93987773394453
 20
164.9763838366547
 30
0.0
 10
95.04089656080725
 20
164.8937564893751
 30
0.0
 10
95.2276814482594
 20
164.7071514361236
 30
0.0
 10
95.3105383294556
 20
164.6060363722474
 30
0.0
 10
95.45542259452941
 20
164.3895035682575
 30
0.0
 10
95.51806010235036
 20
164.2726333606564
 30
0.0
 10
95.61850892575013
 20
164.0303354900063
 30
0.0
 10
95.65636002676739
 20
163.9056714915453
 30
0.0
 10
95.70758159202371
 20
163.6493844474814
 30
0.0
 10
95.72070971864093
 20
163.5168124517358
 30
0.0
 10
95.72085035898118
 20
163.1252082589618
 30
0.0
 10
95.66852560960933
 20
162.8620429276379
 30
0.0
 10
95.46941454755206
 20
162.3805375584647
 30
0.0
 10
95.32055221109478
 20
162.1572860189806
 30
0.0
 10
95.0442312517693
 20
161.8804297200918
 30
0.0
 10
94.94146760339572
 20
161.7959162732481
 30
0.0
 10
94.72408404601626
 20
161.6504989998078
 30
0.0
 10
94.60928527805982
 20
161.5889878007494
 30
0.0
 10
94.3674085546358
 20
161.4884579524946
 30
0.0
 10
94.24025494663557
 20
161.4498129292766
 30
0.0
 10
93.98458893720297
 20
161.3987566017256
 30
0.0
 10
93.85472289944697
 20
161.38569174318
 30
0.0
 10
93.59077037271531
 20
161.385429122382
 30
0.0
 10
93.46036604929125
 20
161.3983061226261
 30
0.0
 10
93.20471528591193
 20
161.4488921264319
 30
0.0
 10
93.07784973679756
 20
161.4871684910537
 30
0.0
 10
92.83532927885166
 20
161.5874393585338
 30
0.0
 10
92.72040264019134
 20
161.6487953826746
 30
0.0
 10
92.50303117135932
 20
161.7936416778474
 30
0.0
 10
92.4000173586971
 20
161.8780191923421
 30
0.0
 10
92.21531681311515
 20
162.0624265125303
 30
0.0
 10
92.13248707885857
 20
162.1629995757998
 30
0.0
 10
91.98623464026106
 20
162.3812257163788
 30
0.0
 10
91.92386615946867
 20
162.4977808263
 30
0.0
 10
91.77391000790193
 20
162.8586304203338
 30
0.0
 10
91.72075672773514
 20
163.1212289177603
 30
0.0
 10
91.72075672773512
 20
163.5177247053903
 30
0.0
  0
SPLINE
  5
F8
330
1F
100
AcDbEntity
  8
0
  6
HIDDEN
 62
     7
370
     0
100
AcDbSpline
210
0.0
220
0.0
230
1.0
 70
     8
 71
     3
 72
    12
 73
     8
 74
     0
 42
0.00000001
 43
0.00000001
 12
1.0
 22
0.0
 32
0.0
 13
1.0
 23
0.0
 33
0.0
 40
0.0
 40
0.0
 40
0.0
 40
0.0
 40
0.2499999999999991
 40
0.2499999999999991
 40
0.4999999999999982
 40
0.4999999999999982
 40
1.0
 40
1.0
 40
1.0
 40
1.0
 10
92.24851354130158
 20
153.9974930115109
 30
0.0
 10
92.18543350280822
 20
153.9974930115109
 30
0.0
 10
92.12628488062687
 20
153.9721286922959
 30
0.0
 10
92.0278123305578
 20
153.8979638319229
 30
0.0
 10
91.98877571857308
 20
153.8514434913689
 30
0.0
 10
91.88887925179408
 20
153.7013011485236
 30
0.0
 10
91.84645837072736
 20
153.5896079415515
 30
0.0
 10
91.81550083940941
 20
153.4761901221618
 30
0.0
  0
LINE
  5
F9
330
1F
100
AcDbEntity
  8
0
  6
HIDDEN
 62
     7
370
     0
100
AcDbLine
 10
95.1929999399
 20
153.9974926146
 30
0.0
 11
92.2485137242
 21
153.9974926146
 31
0.0
  0
SPLINE
  5
FA
330
1F
100
AcDbEntity
  8
0
  6
HIDDEN
 62
     7
370
     0
100
AcDbSpline
210
0.0
220
0.0
230
1.0
 70
     8
 71
     3
 72
    12
 73
     8
 74
     0
 42
0.00000001
 43
0.00000001
 12
1.0
 22
0.0
 32
0.0
 13
1.0
 23
0.0
 33
0.0
 40
0.0
 40
0.0
 40
0.0
 40
0.0
 40
0.4999999999999982
 40
0.4999999999999982
 40
0.7499999999999991
 40
0.7499999999999991
 40
1.0
 40
1.0
 40
1.0
 40
1.0
 10
95.62601261606089
 20
153.4761901221618
 30
0.0
 10
95.59529037414183
 20
153.588745921571
 30
0.0
 10
95.5524531596066
 20
153.7015037813105
 30
0.0
 10
95.45302613540683
 20
153.8510446671069
 30
0.0
 10
95.41327394059016
 20
153.8983373988137
 30
0.0
 10
95.31523248373196
 20
153.9720736921352
 30
0.0
 10
95.25567642814453
 20
153.9974930115109
 30
0.0
 10
95.19299991416871
 20
153.9974930115109
 30
0.0
  0
ELLIPSE
  5
FB
330
1F
100
AcDbEntity
  8
0
  6
HIDDEN
 62
     7
370
     0
100
AcDbEllipse
 10
79.3736025384
 20
163.3855594428
 30
0.0
 11
-14.7536831606561
 21
31.09325491558119
 31
0.0
210
0.0
220
0.0
230
1.0
 40
0.3419987131
 41
3.30073485621713
 42
4.231496223360782
  0
SPLINE
  5
FC
330
1F
100
AcDbEntity
  8
0
  6
HIDDEN
 62
     7
370
     0
100
AcDbSpline
210
0.0
220
0.0
230
1.0
 70
     8
 71
     3
 72
    12
 73
     8
 74
     0
 42
0.00000001
 43
0.00000001
 12
1.0
 22
0.0
 32
0.0
 13
1.0
 23
0.0
 33
0.0
 40
0.0
 40
0.0
 40
0.0
 40
0.0
 40
0.25
 40
0.25
 40
0.5
 40
0.5
 40
1.0
 40
1.0
 40
1.0
 40
1.0
 10
95.19299991416868
 20
133.3170674839738
 30
0.0
 10
95.25607995266205
 20
133.3170674839738
 30
0.0
 10
95.3152285748434
 20
133.3249734101863
 30
0.0
 10
95.4137011249125
 20
133.3482985716226
 30
0.0
 10
95.45273773689719
 20
133.3630113614543
 30
0.0
 10
95.55263420367629
 20
133.4109671621852
 30
0.0
 10
95.5950550847429
 20
133.4472293187652
 30
0.0
 10
95.62601261606089
 20
133.4848169827297
 30
0.0
  0
LINE
  5
FD
330
1F
100
AcDbEntity
  8
0
  6
HIDDEN
 62
     7
370
     0
100
AcDbLine
 10
92.2485137242
 20
133.317066926
 30
0.0
 11
95.1929999399
 21
133.317066926
 31
0.0
  0
SPLINE
  5
FE
330
1F
100
AcDbEntity
  8
0
  6
HIDDEN
 62
     7
370
     0
100
AcDbSpline
210
0.0
220
0.0
230
1.0
 70
     8
 71
     3
 72
    12
 73
     8
 74
     0
 42
0.00000001
 43
0.00000001
 12
1.0
 22
0.0
 32
0.0
 13
1.0
 23
0.0
 33
0.0
 40
0.0
 40
0.0
 40
0.0
 40
0.0
 40
0.5000000000000028
 40
0.5000000000000028
 40
0.7500000000000013
 40
0.7500000000000013
 40
1.0
 40
1.0
 40
1.0
 40
1.0
 10
91.81550083940942
 20
133.4848169827297
 30
0.0
 10
91.84622308132856
 20
133.4475149997767
 30
0.0
 10
91.88906029586366
 20
133.4109031677303
 30
0.0
 10
91.9884873200635
 20
133.3631383844451
 30
0.0
 10
92.02823951488011
 20
133.3481808689628
 30
0.0
 10
92.12628097173835
 20
133.3249909231936
 30
0.0
 10
92.18583702732573
 20
133.3170674839738
 30
0.0
 10
92.24851354130156
 20
133.3170674839739
 30
0.0
  0
ELLIPSE
  5
FF
330
1F
100
AcDbEntity
  8
0
  6
HIDDEN
 62
     7
370
     0
100
AcDbEllipse
 10
108.0679109171
 20
163.3855594428
 30
0.0
 11
14.75368316065611
 21
31.09325491558118
 31
0.0
210
0.0
220
0.0
230
1.0
 40
0.3419987131
 41
2.051689083818817
 42
2.982450450962499
  0
SPLINE
  5
100
330
1F
100
AcDbEntity
  8
0
  6
HIDDEN
 62
     7
370
     0
100
AcDbSpline
210
0.0
220
0.0
230
1.0
 70
     8
 71
     3
 72
    12
 73
     8
 74
     0
 42
0.00000001
 43
0.00000001
 12
1.0
 22
0.0
 32
0.0
 13
1.0
 23
0.0
 33
0.0
 40
0.0
 40
0.0
 40
0.0
 40
0.0
 40
0.2499999999999991
 40
0.2499999999999991
 40
0.4999999999999982
 40
0.4999999999999982
 40
1.0
 40
1.0
 40
1.0
 40
1.0
 10
92.24851354130158
 20
193.4540514017202
 30
0.0
 10
92.18543350280821
 20
193.4540514017202
 30
0.0
 10
92.12628488062688
 20
193.4461454755077
 30
0.0
 10
92.0278123305578
 20
193.4228203140715
 30
0.0
 10
91.9887757185731
 20
193.4081075242398
 30
0.0
 10
91.88887925179402
 20
193.3601517235089
 30
0.0
 10
91.84645837072738
 20
193.3238895669288
 30
0.0
 10
91.81550083940938
 20
193.2863019029643
 30
0.0
  0
LINE
  5
101
330
1F
100
AcDbEntity
  8
0
  6
HIDDEN
 62
     7
370
     0
100
AcDbLine
 10
95.1929999399
 20
193.4540519597
 30
0.0
 11
92.2485137242
 21
193.4540519597
 31
0.0
  0
SPLINE
  5
102
330
1F
100
AcDbEntity
  8
0
  6
HIDDEN
 62
     7
370
     0
100
AcDbSpline
210
0.0
220
0.0
230
1.0
 70
     8
 71
     3
 72
    12
 73
     8
 74
     0
 42
0.00000001
 43
0.00000001
 12
1.0
 22
0.0
 32
0.0
 13
1.0
 23
0.0
 33
0.0
 40
0.0
 40
0.0
 40
0.0
 40
0.0
 40
0.4999999999999982
 40
0.4999999999999982
 40
0.7499999999999991
 40
0.7499999999999991
 40
1.0
 40
1.0
 40
1.0
 40
1.0
 10
95.62601261606088
 20
193.2863019029643
 30
0.0
 10
95.59529037414177
 20
193.3236038859174
 30
0.0
 10
95.55245315960661
 20
193.3602157179637
 30
0.0
 10
95.45302613540679
 20
193.4079805012489
 30
0.0
 10
95.41327394059017
 20
193.4229380167313
 30
0.0
 10
95.31523248373193
 20
193.4461279625004
 30
0.0
 10
95.2556764281445
 20
193.4540514017202
 30
0.0
 10
95.19299991416868
 20
193.4540514017202
 30
0.0
  0
ELLIPSE
  5
103
330
1F
100
AcDbEntity
  8
0
  6
HIDDEN
 62
     7
370
     0
100
AcDbEllipse
 10
79.3736025384
 20
163.3855594428
 30
0.0
 11
14.75368316065624
 21
31.09325491558118
 31
0.0
210
0.0
220
0.0
230
1.0
 40
0.3419987131
 41
5.193281737408638
 42
6.124043104552346
  0
SPLINE
  5
104
330
1F
100
AcDbEntity
  8
0
  6
HIDDEN
 62
     7
370
     0
100
AcDbSpline
210
0.0
220
0.0
230
1.0
 70
     8
 71
     3
 72
    12
 73
     8
 74
     0
 42
0.00000001
 43
0.00000001
 12
1.0
 22
0.0
 32
0.0
 13
1.0
 23
0.0
 33
0.0
 40
0.0
 40
0.0
 40
0.0
 40
0.0
 40
0.25
 40
0.25
 40
0.5
 40
0.5
 40
1.0
 40
1.0
 40
1.0
 40
1.0
 10
95.19299991416868
 20
172.7736258741835
 30
0.0
 10
95.25607995266205
 20
172.7736258741835
 30
0.0
 10
95.31522857484342
 20
172.7989901933985
 30
0.0
 10
95.41370112491252
 20
172.8731550537714
 30
0.0
 10
95.45273773689719
 20
172.9196753943255
 30
0.0
 10
95.55263420367626
 20
173.0698177371707
 30
0.0
 10
95.5950550847429
 20
173.1815109441429
 30
0.0
 10
95.62601261606088
 20
173.2949287635326
 30
0.0
  0
LINE
  5
105
330
1F
100
AcDbEntity
  8
0
  6
HIDDEN
 62
     7
370
     0
100
AcDbLine
 10
92.2485137242
 20
172.7736262711
 30
0.0
 11
95.1929999399
 21
172.7736262711
 31
0.0
  0
SPLINE
  5
106
330
1F
100
AcDbEntity
  8
0
  6
HIDDEN
 62
     7
370
     0
100
AcDbSpline
210
0.0
220
0.0
230
1.0
 70
     8
 71
     3
 72
    12
 73
     8
 74
     0
 42
0.00000001
 43
0.00000001
 12
1.0
 22
0.0
 32
0.0
 13
1.0
 23
0.0
 33
0.0
 40
0.0
 40
0.0
 40
0.0
 40
0.0
 40
0.5000000000000018
 40
0.5000000000000018
 40
0.7500000000000009
 40
0.7500000000000009
 40
1.0
 40
1.0
 40
1.0
 40
1.0
 10
91.81550083940938
 20
173.2949287635326
 30
0.0
 10
91.84622308132849
 20
173.1823729641234
 30
0.0
 10
91.88906029586364
 20
173.0696151043838
 30
0.0
 10
91.98848732006347
 20
172.9200742185875
 30
0.0
 10
92.02823951488011
 20
172.8727814868807
 30
0.0
 10
92.12628097173835
 20
172.7990451935593
 30
0.0
 10
92.18583702732575
 20
172.7736258741835
 30
0.0
 10
92.24851354130159
 20
172.7736258741835
 30
0.0
  0
ELLIPSE
  5
107
330
1F
100
AcDbEntity
  8
0
  6
HIDDEN
 62
     7
370
     0
100
AcDbEllipse
 10
108.0679109171
 20
163.3855594428
 30
0.0
 11
-14.75368316065624
 21
31.09325491558118
 31
0.0
210
0.0
220
0.0
230
1.0
 40
0.3419987131
 41
0.1591422026272847
 42
1.08990356977096
  0
LINE
  5
108
330
1F
100
AcDbEntity
  8
0
  6
HIDDEN
 62
     7
370
     0
100
AcDbLine
 10
81.7207567277
 20
194.3855589362
 30
0.0
 11
81.7207567277
 21
132.3855599495
 31
0.0
  0
LINE
  5
109
330
1F
100
AcDbEntity
  8
0
  6
HIDDEN
 62
     7
370
     0
100
AcDbLine
 10
81.7207567277
 20
139.1355587276
 30
0.0
 11
81.7207567277
 21
187.605415109
 31
0.0
  0
SPLINE
  5
10A
330
1F
100
AcDbEntity
  8
0
  6
HIDDEN
 62
     7
370
     0
100
AcDbSpline
210
0.0
220
0.0
230
1.0
 70
     8
 71
     3
 72
    12
 73
     8
 74
     0
 42
0.00000001
 43
0.00000001
 12
1.0
 22
0.0
 32
0.0
 13
1.0
 23
0.0
 33
0.0
 40
0.0
 40
0.0
 40
0.0
 40
0.0
 40
0.5000000000000008
 40
0.5000000000000008
 40
0.7500000000000003
 40
0.7500000000000003
 40
1.0
 40
1.0
 40
1.0
 40
1.0
 10
80.90424444127976
 20
178.8378274246849
 30
0.0
 10
80.96065061996043
 20
178.7900050510229
 30
0.0
 10
81.03081352143249
 20
178.7497342040817
 30
0.0
 10
81.14882423482437
 20
178.741688335602
 30
0.0
 10
81.18903001842104
 20
178.7482509339404
 30
0.0
 10
81.26275071515616
 20
178.775633028394
 30
0.0
 10
81.29561143694363
 20
178.7953945189248
 30
0.0
 10
81.32577983887363
 20
178.8183272301134
 30
0.0
  0
SPLINE
  5
10B
330
1F
100
AcDbEntity
  8
0
  6
HIDDEN
 62
     7
370
     0
100
AcDbSpline
210
0.0
220
0.0
230
1.0
 70
     8
 71
     3
 72
    16
 73
    12
 74
     0
 42
0.00000001
 43
0.00000001
 12
1.0
 22
0.0
 32
0.0
 13
1.0
 23
0.0
 33
0.0
 40
0.0
 40
0.0
 40
0.0
 40
0.0
 40
0.0624999999999995
 40
0.0624999999999995
 40
0.1249999999999991
 40
0.1249999999999991
 40
0.2499999999999982
 40
0.2499999999999982
 40
0.5000000000000004
 40
0.5000000000000004
 40
1.0
 40
1.0
 40
1.0
 40
1.0
 10
81.3257798388285
 20
178.8183272301615
 30
0.0
 10
81.33739273866786
 20
178.8271548531429
 30
0.0
 10
81.35074392310034
 20
178.8349892350248
 30
0.0
 10
81.3801437627195
 20
178.8432993610972
 30
0.0
 10
81.39498448727481
 20
178.8428035418622
 30
0.0
 10
81.43081769524339
 20
178.8313525708928
 30
0.0
 10
81.44493090306497
 20
178.8146720700342
 30
0.0
 10
81.47942227428386
 20
178.7625513842771
 30
0.0
 10
81.49050634539427
 20
178.7227618902521
 30
0.0
 10
81.51662916319026
 20
178.599425258155
 30
0.0
 10
81.52075672773513
 20
178.5120038476564
 30
0.0
 10
81.52075672773513
 20
178.4232666053381
 30
0.0
  0
LINE
  5
10C
330
1F
100
AcDbEntity
  8
0
  6
HIDDEN
 62
     7
370
     0
100
AcDbLine
 10
81.5207567328
 20
148.3478523897
 30
0.0
 11
81.5207567328
 21
178.423266496
 31
0.0
  0
SPLINE
  5
10D
330
1F
100
AcDbEntity
  8
0
  6
HIDDEN
 62
     7
370
     0
100
AcDbSpline
210
0.0
220
0.0
230
1.0
 70
     8
 71
     3
 72
    16
 73
    12
 74
     0
 42
0.00000001
 43
0.00000001
 12
1.0
 22
0.0
 32
0.0
 13
1.0
 23
0.0
 33
0.0
 40
0.0
 40
0.0
 40
0.0
 40
0.0
 40
0.5000000000000057
 40
0.5000000000000057
 40
0.750000000000006
 40
0.750000000000006
 40
0.8750000000000062
 40
0.8750000000000062
 40
0.9375000000000032
 40
0.9375000000000032
 40
1.0
 40
1.0
 40
1.0
 40
1.0
 10
81.52075672773513
 20
148.3478522803558
 30
0.0
 10
81.52075672773513
 20
148.258725915167
 30
0.0
 10
81.51661045265719
 20
148.1718645475537
 30
0.0
 10
81.49064485726366
 20
148.0488823010596
 30
0.0
 10
81.47918395188623
 20
148.0081110058283
 30
0.0
 10
81.44487221411191
 20
147.9564066858285
 30
0.0
 10
81.43084747818227
 20
147.9397363192382
 30
0.0
 10
81.39482451514851
 20
147.9282840987814
 30
0.0
 10
81.38007000605883
 20
147.9278310525063
 30
0.0
 10
81.35071784491193
 20
147.9361463737225
 30
0.0
 10
81.33737797040783
 20
147.9439752588008
 30
0.0
 10
81.32577983885949
 20
147.9527916555634
 30
0.0
  0
SPLINE
  5
10E
330
1F
100
AcDbEntity
  8
0
  6
HIDDEN
 62
     7
370
     0
100
AcDbSpline
210
0.0
220
0.0
230
1.0
 70
     8
 71
     3
 72
    12
 73
     8
 74
     0
 42
0.00000001
 43
0.00000001
 12
1.0
 22
0.0
 32
0.0
 13
1.0
 23
0.0
 33
0.0
 40
0.0
 40
0.0
 40
0.0
 40
0.0
 40
0.2499999999999997
 40
0.2499999999999997
 40
0.4999999999999993
 40
0.4999999999999993
 40
1.0
 40
1.0
 40
1.0
 40
1.0
 10
81.32577983886655
 20
147.9527916555723
 30
0.0
 10
81.29558799714935
 20
147.9757421846701
 30
0.0
 10
81.26222902773478
 20
147.9957116586943
 30
0.0
 10
81.18909174315418
 20
148.0228127923198
 30
0.0
 10
81.14884987050021
 20
148.0294135329652
 30
0.0
 10
81.03114409353171
 20
148.0214446584585
 30
0.0
 10
80.96073361575236
 20
147.9811842002907
 30
0.0
 10
80.90424444128406
 20
147.9332914610126
 30
0.0
  0
SPLINE
  5
10F
330
1F
100
AcDbEntity
  8
0
  6
HIDDEN
 62
     7
370
     0
100
AcDbSpline
210
0.0
220
0.0
230
1.0
 70
     8
 71
     3
 72
    12
 73
     8
 74
     0
 42
0.00000001
 43
0.00000001
 12
1.0
 22
0.0
 32
0.0
 13
1.0
 23
0.0
 33
0.0
 40
0.0
 40
0.0
 40
0.0
 40
0.0
 40
0.2499999999999986
 40
0.2499999999999986
 40
0.4999999999999972
 40
0.4999999999999972
 40
1.0
 40
1.0
 40
1.0
 40
1.0
 10
80.90424444128364
 20
147.9332914610128
 30
0.0
 10
80.81609050354588
 20
147.8585526531587
 30
0.0
 10
80.75573707891716
 20
147.7675721526763
 30
0.0
 10
80.6494751208503
 20
147.5786583299237
 30
0.0
 10
80.60724295428822
 20
147.4821538703831
 30
0.0
 10
80.49617225897104
 20
147.1913861162159
 30
0.0
 10
80.44323548254425
 20
146.9957193016722
 30
0.0
 10
80.39943638417547
 20
146.8016528166058
 30
0.0
  0
SPLINE
  5
110
330
1F
100
AcDbEntity
  8
0
  6
HIDDEN
 62
     7
370
     0
100
AcDbSpline
210
0.0
220
0.0
230
1.0
 70
     8
 71
     3
 72
    12
 73
     8
 74
     0
 42
0.00000001
 43
0.00000001
 12
1.0
 22
0.0
 32
0.0
 13
1.0
 23
0.0
 33
0.0
 40
0.0
 40
0.0
 40
0.0
 40
0.0
 40
0.4999999999999998
 40
0.4999999999999998
 40
0.7499999999999999
 40
0.7499999999999999
 40
1.0
 40
1.0
 40
1.0
 40
1.0
 10
80.39943638417547
 20
141.6154784878449
 30
0.0
 10
80.44318292501207
 20
141.5888843172037
 30
0.0
 10
80.49606728024357
 20
141.5691240918779
 30
0.0
 10
80.60763436757975
 20
141.5486731016489
 30
0.0
 10
80.65021796412272
 20
141.5434128769924
 30
0.0
 10
80.75513469120452
 20
141.5355300830698
 30
0.0
 10
80.81666829904933
 20
141.5329659578906
 30
0.0
 10
80.90424444127548
 20
141.530765740371
 30
0.0
  0
LINE
  5
111
330
1F
100
AcDbEntity
  8
0
  6
HIDDEN
 62
     7
370
     0
100
AcDbLine
 10
81.5207567328
 20
140.8457389208
 30
0.0
 11
81.5207567328
 21
141.3259642305
 31
0.0
  0
LINE
  5
112
330
1F
100
AcDbEntity
  8
0
  6
HIDDEN
 62
     7
370
     0
100
AcDbLine
 10
81.5207567328
 20
185.4451546552
 30
0.0
 11
81.5207567328
 21
185.9253799649
 31
0.0
  0
SPLINE
  5
113
330
1F
100
AcDbEntity
  8
0
  6
HIDDEN
 62
     7
370
     0
100
AcDbSpline
210
0.0
220
0.0
230
1.0
 70
     8
 71
     3
 72
    12
 73
     8
 74
     0
 42
0.00000001
 43
0.00000001
 12
1.0
 22
0.0
 32
0.0
 13
1.0
 23
0.0
 33
0.0
 40
0.0
 40
0.0
 40
0.0
 40
0.0
 40
0.2500000000000004
 40
0.2500000000000004
 40
0.5000000000000009
 40
0.5000000000000009
 40
1.0
 40
1.0
 40
1.0
 40
1.0
 10
80.90424444128338
 20
185.2403531453229
 30
0.0
 10
80.81555978142703
 20
185.2381250779819
 30
0.0
 10
80.75564136570362
 20
185.2356232939516
 30
0.0
 10
80.64998213838288
 20
185.2276918581155
 30
0.0
 10
80.60734090026794
 20
185.2223997032187
 30
0.0
 10
80.49615155816541
 20
185.2019947627316
 30
0.0
 10
80.44322487604444
 20
185.1822600711447
 30
0.0
 10
80.39943638417546
 20
185.1556403978491
 30
0.0
  0
SPLINE
  5
114
330
1F
100
AcDbEntity
  8
0
  6
HIDDEN
 62
     7
370
     0
100
AcDbSpline
210
0.0
220
0.0
230
1.0
 70
     8
 71
     3
 72
    12
 73
     8
 74
     0
 42
0.00000001
 43
0.00000001
 12
1.0
 22
0.0
 32
0.0
 13
1.0
 23
0.0
 33
0.0
 40
0.0
 40
0.0
 40
0.0
 40
0.0
 40
0.5000000000000042
 40
0.5000000000000042
 40
0.7500000000000036
 40
0.7500000000000036
 40
1.0
 40
1.0
 40
1.0
 40
1.0
 10
80.39943638417388
 20
179.9694660690883
 30
0.0
 10
80.44319786047234
 20
179.7755662811275
 30
0.0
 10
80.496104176125
 20
179.5797099171918
 30
0.0
 10
80.6078153737712
 20
179.2875677706947
 30
0.0
 10
80.65033481735712
 20
179.1908498339974
 30
0.0
 10
80.75545815992302
 20
179.0041253975738
 30
0.0
 10
80.8170241236399
 20
178.9117746893045
 30
0.0
 10
80.9042444412805
 20
178.8378274246842
 30
0.0
  0
LINE
  5
115
330
1F
100
AcDbEntity
  8
0
  6
HIDDEN
 62
     7
370
     0
100
AcDbLine
 10
103.7207566085
 20
139.3855592342
 30
0.0
 11
103.7207566085
 21
187.3855596515
 31
0.0
  0
LINE
  5
116
330
1F
100
AcDbEntity
  8
0
  6
HIDDEN
 62
     7
370
     0
100
AcDbLine
 10
81.5207567328
 20
141.3259642305
 30
0.0
 11
81.5207567328
 21
156.363672215
 31
0.0
  0
LINE
  5
117
330
1F
100
AcDbEntity
  8
0
  6
HIDDEN
 62
     7
370
     0
100
AcDbLine
 10
81.5207567328
 20
170.4074466707
 30
0.0
 11
81.5207567328
 21
185.4451546552
 31
0.0
  0
SPLINE
  5
118
330
1F
100
AcDbEntity
  8
0
  6
HIDDEN
 62
     7
370
     0
100
AcDbSpline
210
0.0
220
0.0
230
1.0
 70
     8
 71
     3
 72
    70
 73
    66
 74
     0
 42
0.00000001
 43
0.00000001
 12
1.0
 22
0.0
 32
0.0
 13
1.0
 23
0.0
 33
0.0
 40
-0.0312499999999999
 40
-0.0312499999999999
 40
0.0
 40
0.0
 40
0.03125
 40
0.03125
 40
0.0625000000000001
 40
0.0625000000000001
 40
0.0937500000000001
 40
0.0937500000000001
 40
0.1250000000000002
 40
0.1250000000000002
 40
0.1562500000000002
 40
0.1562500000000002
 40
0.1875000000000002
 40
0.1875000000000002
 40
0.2187500000000003
 40
0.2187500000000003
 40
0.2500000000000003
 40
0.2500000000000003
 40
0.2812500000000004
 40
0.2812500000000004
 40
0.3125000000000004
 40
0.3125000000000004
 40
0.3437500000000004
 40
0.3437500000000004
 40
0.3750000000000005
 40
0.3750000000000005
 40
0.4062500000000006
 40
0.4062500000000006
 40
0.4375000000000006
 40
0.4375000000000006
 40
0.4687500000000006
 40
0.4687500000000006
 40
0.5000000000000007
 40
0.5000000000000007
 40
0.5312500000000007
 40
0.5312500000000007
 40
0.5625000000000008
 40
0.5625000000000008
 40
0.5937500000000008
 40
0.5937500000000008
 40
0.6250000000000009
 40
0.6250000000000009
 40
0.6562500000000008
 40
0.6562500000000008
 40
0.6875000000000007
 40
0.6875000000000007
 40
0.7187500000000007
 40
0.7187500000000007
 40
0.7500000000000006
 40
0.7500000000000006
 40
0.7812500000000004
 40
0.7812500000000004
 40
0.8125000000000004
 40
0.8125000000000004
 40
0.8437500000000003
 40
0.8437500000000003
 40
0.8750000000000002
 40
0.8750000000000002
 40
0.9062500000000002
 40
0.9062500000000002
 40
0.9375000000000001
 40
0.9375000000000001
 40
0.9687500000000001
 40
0.9687500000000001
 40
1.0
 40
1.0
 40
1.03125
 40
1.03125
 10
217.9192513999035
 20
166.385559442847
 30
0.0
 10
217.5222620555665
 20
166.385559442847
 30
0.0
 10
217.3271411924029
 20
166.3660540753579
 30
0.0
 10
216.9433534594893
 20
166.2896816170335
 30
0.0
 10
216.7526767504977
 20
166.2318672537524
 30
0.0
 10
216.3895162325524
 20
166.0811940139146
 30
0.0
 10
216.2173182428455
 20
165.9890323792628
 30
0.0
 10
215.8914274190966
 20
165.7713408429449
 30
0.0
 10
215.7373461059964
 20
165.6448199698576
 30
0.0
 10
215.4610585778612
 20
165.3684714668134
 30
0.0
 10
215.3369764826173
 20
165.2176306910979
 30
0.0
 10
215.1176539388804
 20
164.889803168557
 30
0.0
 10
215.0246287099514
 20
164.715616401233
 30
0.0
 10
214.8749162246791
 20
164.3547599546066
 30
0.0
 10
214.8171677976019
 20
164.165414845192
 30
0.0
 10
214.7399918599947
 20
163.7780437444483
 30
0.0
 10
214.7208680900811
 20
163.5832112425247
 30
0.0
 10
214.7206463259712
 20
163.1913027840958
 30
0.0
 10
214.740185681699
 20
162.9922216373779
 30
0.0
 10
214.8168348456311
 20
162.607256100751
 30
0.0
 10
214.8735440083151
 20
162.4201151369253
 30
0.0
 10
215.0240065870825
 20
162.0565591959119
 30
0.0
 10
215.1178177562166
 20
161.8812840043663
 30
0.0
 10
215.3347980428623
 20
161.5565331887034
 30
0.0
 10
215.4590002237056
 20
161.4047673552841
 30
0.0
 10
215.7384786469718
 20
161.1251051990727
 30
0.0
 10
215.8896740179898
 20
161.0011783783013
 30
0.0
 10
216.2142423816468
 20
160.7839154480001
 30
0.0
 10
216.389739904927
 20
160.6898219077421
 30
0.0
 10
216.752717960892
 20
160.5392447050395
 30
0.0
 10
216.9397018937187
 20
160.4823740100791
 30
0.0
 10
217.3246650916685
 20
160.4053507711909
 30
0.0
 10
217.5236846115088
 20
160.3856350750962
 30
0.0
 10
217.915519400838
 20
160.3854842550584
 30
0.0
 10
218.1104345455235
 20
160.404415061736
 30
0.0
 10
218.4982089228599
 20
160.4813144967377
 30
0.0
 10
218.6872955368859
 20
160.5388075851389
 30
0.0
 10
219.0484558067322
 20
160.6882629139889
 30
0.0
 10
219.2232700631006
 20
160.7814806665053
 30
0.0
 10
219.5507552866855
 20
161.0002129542664
 30
0.0
 10
219.7016712326422
 20
161.124096402544
 30
0.0
 10
219.9784729821179
 20
161.4003756546036
 30
0.0
 10
220.1051725344962
 20
161.5544749882788
 30
0.0
 10
220.3228753851684
 20
161.8798079653675
 30
0.0
 10
220.4152024155068
 20
162.0518877255453
 30
0.0
 10
220.5663190728533
 20
162.4152539476925
 30
0.0
 10
220.6241873914273
 20
162.6055964275118
 30
0.0
 10
220.7008783295678
 20
162.989166755668
 30
0.0
 10
220.7205878436373
 20
163.1847276853572
 30
0.0
 10
220.7209234633035
 20
163.581313568066
 30
0.0
 10
220.70162175978
 20
163.7763893975125
 30
0.0
 10
220.6255778121451
 20
164.1603619081881
 30
0.0
 10
220.5678546669519
 20
164.3512868478114
 30
0.0
 10
220.4175959174378
 20
164.7143387627778
 30
0.0
 10
220.325601310199
 20
164.8866397263015
 30
0.0
 10
220.1080232411295
 20
165.2129663242483
 30
0.0
 10
219.9817021630846
 20
165.3670424302846
 30
0.0
 10
219.705692013905
 20
165.6434746318764
 30
0.0
 10
219.5549168035078
 20
165.7677516504386
 30
0.0
 10
219.2268871562029
 20
165.9875882724168
 30
0.0
 10
219.0532110341732
 20
166.0805039614757
 30
0.0
 10
218.6924750728656
 20
166.2305416738932
 30
0.0
 10
218.5030409020941
 20
166.2885066378778
 30
0.0
 10
218.1153934045522
 20
166.3660514894561
 30
0.0
 10
217.9192513999035
 20
166.385559442847
 30
0.0
 10
217.5222620555665
 20
166.385559442847
 30
0.0
  0
CIRCLE
  5
119
330
1F
100
AcDbEntity
  8
0
  6
HIDDEN
 62
     7
370
     0
100
AcDbCircle
 10
217.7207567277
 20
163.3855594428
 30
0.0
 40
2.500000000000028
  0
LWPOLYLINE
  5
11A
330
1F
100
AcDbEntity
  8
0
  6
HIDDEN
 62
     7
370
     0
100
AcDbPolyline
 90
        9
 70
   128
 43
0.0
 10
216.4937280002
 20
161.2073989691
 10
216.4088211837
 20
161.1764657883
 10
216.3337491336
 20
161.1637907209
 10
216.2691078964
 20
161.169482266
 10
216.2154935184
 20
161.193491762
 10
216.1733381334
 20
161.2356131537
 10
216.1429993692
 20
161.2954853209
 10
216.1247603479
 20
161.3725946391
 10
216.1187700811
 20
161.466280335
  0
SPLINE
  5
11B
330
1F
100
AcDbEntity
  8
0
  6
HIDDEN
 62
     7
370
     0
100
AcDbSpline
210
0.0
220
0.0
230
1.0
 70
     8
 71
     3
 72
    80
 73
    76
 74
     0
 42
0.00000001
 43
0.00000001
 12
1.0
 22
0.0
 32
0.0
 13
1.0
 23
0.0
 33
0.0
 40
0.0
 40
0.0
 40
0.0
 40
0.0
 40
0.0156249999999979
 40
0.0156249999999979
 40
0.0312499999999958
 40
0.0312499999999958
 40
0.0624999999999957
 40
0.0624999999999957
 40
0.0937499999999956
 40
0.0937499999999956
 40
0.1249999999999956
 40
0.1249999999999956
 40
0.1562499999999955
 40
0.1562499999999955
 40
0.1874999999999954
 40
0.1874999999999954
 40
0.2187499999999953
 40
0.2187499999999953
 40
0.2499999999999952
 40
0.2499999999999952
 40
0.2812499999999951
 40
0.2812499999999951
 40
0.3124999999999949
 40
0.3124999999999949
 40
0.3437499999999948
 40
0.3437499999999948
 40
0.3749999999999948
 40
0.3749999999999948
 40
0.4062499999999947
 40
0.4062499999999947
 40
0.4374999999999946
 40
0.4374999999999946
 40
0.4531249999999947
 40
0.4531249999999947
 40
0.4687499999999948
 40
0.4687499999999948
 40
0.4843749999999949
 40
0.4843749999999949
 40
0.499999999999995
 40
0.499999999999995
 40
0.5312499999999949
 40
0.5312499999999949
 40
0.5624999999999947
 40
0.5624999999999947
 40
0.5937499999999946
 40
0.5937499999999946
 40
0.6249999999999944
 40
0.6249999999999944
 40
0.6562499999999943
 40
0.6562499999999943
 40
0.6874999999999941
 40
0.6874999999999941
 40
0.718749999999994
 40
0.718749999999994
 40
0.7343749999999926
 40
0.7343749999999926
 40
0.7499999999999911
 40
0.7499999999999911
 40
0.7812499999999918
 40
0.7812499999999918
 40
0.8124999999999923
 40
0.8124999999999923
 40
0.843749999999993
 40
0.843749999999993
 40
0.8749999999999937
 40
0.8749999999999937
 40
0.9062499999999943
 40
0.9062499999999943
 40
0.9374999999999949
 40
0.9374999999999949
 40
0.9687499999999956
 40
0.9687499999999956
 40
0.9843749999999978
 40
0.9843749999999978
 40
1.0
 40
1.0
 40
1.0
 40
1.0
 10
216.4937210751452
 20
161.207398863993
 30
0.0
 10
216.5739618753483
 20
161.1621963552352
 30
0.0
 10
216.6555249689592
 20
161.1220606156807
 30
0.0
 10
216.8215156849003
 20
161.0511406313717
 30
0.0
 10
216.9064013244192
 20
161.0203111801703
 30
0.0
 10
217.156073948088
 20
160.9439555383633
 30
0.0
 10
217.321193151559
 20
160.9121169681208
 30
0.0
 10
217.6518087614615
 20
160.8810006183965
 30
0.0
 10
217.8149746625935
 20
160.8819449635045
 30
0.0
 10
218.1416324737201
 20
160.9157768437375
 30
0.0
 10
218.3067701194515
 20
160.9493196032915
 30
0.0
 10
218.6299533204528
 20
161.0505995273668
 30
0.0
 10
218.7872493930448
 20
161.1176714459198
 30
0.0
 10
219.0932698923845
 20
161.2886736127098
 30
0.0
 10
219.2404487849252
 20
161.392463246201
 30
0.0
 10
219.5083369841857
 20
161.6287289944202
 30
0.0
 10
219.6329006954718
 20
161.7647406452909
 30
0.0
 10
219.8481352812647
 20
162.0598111191273
 30
0.0
 10
219.937963704467
 20
162.2165176492976
 30
0.0
 10
220.0830593215016
 20
162.5475905005719
 30
0.0
 10
220.1357287389114
 20
162.7165210528941
 30
0.0
 10
220.2046908058044
 20
163.0542383330433
 30
0.0
 10
220.2207635596851
 20
163.2234087303124
 30
0.0
 10
220.2207498913502
 20
163.5479207536631
 30
0.0
 10
220.2046948029042
 20
163.7066387209265
 30
0.0
 10
220.1476021335295
 20
164.0048022388977
 30
0.0
 10
220.1067261483586
 20
164.1449177729338
 30
0.0
 10
220.0073893830022
 20
164.4057487632619
 30
0.0
 10
219.9488153487002
 20
164.5256004676971
 30
0.0
 10
219.8314621464539
 20
164.7304986207243
 30
0.0
 10
219.7712902003107
 20
164.8169326352566
 30
0.0
 10
219.7186590745446
 20
164.8886447355496
 30
0.0
 10
219.7085882948622
 20
164.9016501959391
 30
0.0
 10
219.7057375420044
 20
164.9053807079505
 30
0.0
 10
219.7129459745252
 20
164.8960648192627
 30
0.0
 10
219.7381374471503
 20
164.8622515299588
 30
0.0
 10
219.7561748288692
 20
164.8375645378013
 30
0.0
 10
219.7963527478204
 20
164.7795274495112
 30
0.0
 10
219.8186073290642
 20
164.7460351692306
 30
0.0
 10
219.88732587188
 20
164.6359447970243
 30
0.0
 10
219.9355664283922
 20
164.5499356090975
 30
0.0
 10
220.0258776294226
 20
164.3589922834994
 30
0.0
 10
220.0675534865738
 20
164.2551271009527
 30
0.0
 10
220.1383192813312
 20
164.0328570859519
 30
0.0
 10
220.1675902648408
 20
163.9142714959056
 30
0.0
 10
220.2089196687974
 20
163.6604702867197
 30
0.0
 10
220.2210578802762
 20
163.5238564313871
 30
0.0
 10
220.2204441654939
 20
163.2365808405299
 30
0.0
 10
220.2080193666859
 20
163.0867788052046
 30
0.0
 10
220.1494171533475
 20
162.7712681099973
 30
0.0
 10
220.1039441658831
 20
162.6102045730159
 30
0.0
 10
219.9723511282177
 20
162.2850685545463
 30
0.0
 10
219.8868941096419
 20
162.1242713099501
 30
0.0
 10
219.7330786331079
 20
161.8993527691211
 30
0.0
 10
219.6765944468654
 20
161.8257733296495
 30
0.0
 10
219.5583678062944
 20
161.6880850169858
 30
0.0
 10
219.4964896001696
 20
161.6235751819324
 30
0.0
 10
219.3031438382076
 20
161.4420280918182
 30
0.0
 10
219.1651353221215
 20
161.338551004389
 30
0.0
 10
218.8876272951386
 20
161.1686051920859
 30
0.0
 10
218.7447409071838
 20
161.0999770351415
 30
0.0
 10
218.4645503287883
 20
160.9940742095231
 30
0.0
 10
218.3260471810662
 20
160.9558892274414
 30
0.0
 10
218.05046845103
 20
160.9034305042048
 30
0.0
 10
217.913009945804
 20
160.8893489861689
 30
0.0
 10
217.6445459189392
 20
160.8831166649778
 30
0.0
 10
217.5126489930524
 20
160.8906964591208
 30
0.0
 10
217.2494061411695
 20
160.9268039118219
 30
0.0
 10
217.118325856257
 20
160.9551049077863
 30
0.0
 10
216.8478586902312
 20
161.0386292738754
 30
0.0
 10
216.7089025894353
 20
161.0934520653132
 30
0.0
 10
216.4880847477528
 20
161.2089976939865
 30
0.0
 10
216.4139205207204
 20
161.2524141018655
 30
0.0
 10
216.2636459841262
 20
161.3520997804551
 30
0.0
 10
216.1894110300104
 20
161.4073158785285
 30
0.0
 10
216.1187680190437
 20
161.466280365374
 30
0.0
  0
CIRCLE
  5
11C
330
1F
100
AcDbEntity
  8
0
  6
HIDDEN
 62
     7
370
     0
100
AcDbCircle
 10
66.2207567277
 20
163.3855594428
 30
0.0
 40
4.050000000000011
  0
SPLINE
  5
11D
330
1F
100
AcDbEntity
  8
0
  6
HIDDEN
 62
     7
370
     0
100
AcDbSpline
210
0.0
220
0.0
230
1.0
 70
     8
 71
     3
 72
    10
 73
     6
 74
     0
 42
0.00000001
 43
0.00000001
 12
1.0
 22
0.0
 32
0.0
 13
1.0
 23
0.0
 33
0.0
 40
0.0
 40
0.0
 40
0.0
 40
0.0
 40
0.5
 40
0.5
 40
1.0
 40
1.0
 40
1.0
 40
1.0
 10
216.1187680190438
 20
161.466280365374
 30
0.0
 10
216.1482573868021
 20
161.4416661054002
 30
0.0
 10
216.1920108545233
 20
161.4059589329272
 30
0.0
 10
216.3162318486057
 20
161.3159720473395
 30
0.0
 10
216.3966207155143
 20
161.2620989647585
 30
0.0
 10
216.4937210751454
 20
161.207398863993
 30
0.0
  0
LINE
  5
11E
330
1F
100
AcDbEntity
  8
0
  6
HIDDEN
 62
     7
370
     0
100
AcDbLine
 10
45.2509842697
 20
178.698510501
 30
0.0
 11
45.2509842697
 21
148.0726083847
 31
0.0
  0
LINE
  5
11F
330
1F
100
AcDbEntity
  8
0
  6
HIDDEN
 62
     7
370
     0
100
AcDbLine
 10
43.7207579496
 20
147.1891297134
 30
0.0
 11
43.7207579496
 21
179.5512685659
 31
0.0
  0
LINE
  5
120
330
1F
100
AcDbEntity
  8
0
  6
HIDDEN
 62
     7
370
     0
100
AcDbLine
 10
51.7509844038
 20
177.7319699632
 30
0.0
 11
51.7509844038
 21
149.0391489225
 31
0.0
  0
LINE
  5
121
330
1F
100
AcDbEntity
  8
0
  6
HIDDEN
 62
     7
370
     0
100
AcDbLine
 10
57.550985727
 20
177.385559875
 30
0.0
 11
57.550985727
 21
149.3855590107
 31
0.0
  0
LINE
  5
122
330
1F
100
AcDbEntity
  8
0
  6
HIDDEN
 62
     7
370
     0
100
AcDbLine
 10
50.1509852591
 20
177.385559875
 30
0.0
 11
50.1509852591
 21
149.3855590107
 31
0.0
  0
LINE
  5
123
330
1F
100
AcDbEntity
  8
0
  6
HIDDEN
 62
     7
370
     0
100
AcDbLine
 10
51.150985423
 20
177.385559875
 30
0.0
 11
51.150985423
 21
149.3855590107
 31
0.0
  0
SPLINE
  5
124
330
1F
100
AcDbEntity
  8
0
  6
HIDDEN
 62
     7
370
     0
100
AcDbSpline
210
0.0
220
0.0
230
1.0
 70
     8
 71
     3
 72
    10
 73
     6
 74
     0
 42
0.00000001
 43
0.00000001
 12
1.0
 22
0.0
 32
0.0
 13
1.0
 23
0.0
 33
0.0
 40
0.0
 40
0.0
 40
0.0
 40
0.0
 40
0.5
 40
0.5
 40
1.0
 40
1.0
 40
1.0
 40
1.0
 10
70.22075672773515
 20
164.0199883198695
 30
0.0
 10
70.25390414581159
 20
163.8109977188615
 30
0.0
 10
70.27076299117324
 20
163.5994352528398
 30
0.0
 10
70.27075046082557
 20
163.1714464868722
 30
0.0
 10
70.25383550308518
 20
162.9596883824565
 30
0.0
 10
70.22075672773515
 20
162.7511305658244
 30
0.0
  0
LINE
  5
125
330
1F
100
AcDbEntity
  8
0
  6
HIDDEN
 62
     7
370
     0
100
AcDbLine
 10
70.7207567873
 20
176.8855588617
 30
0.0
 11
70.7207567873
 21
149.8855590927
 31
0.0
  0
SPLINE
  5
126
330
1F
100
AcDbEntity
  8
0
  6
HIDDEN
 62
     7
370
     0
100
AcDbSpline
210
0.0
220
0.0
230
1.0
 70
     8
 71
     3
 72
    10
 73
     6
 74
     0
 42
0.00000001
 43
0.00000001
 12
1.0
 22
0.0
 32
0.0
 13
1.0
 23
0.0
 33
0.0
 40
0.0
 40
0.0
 40
0.0
 40
0.0
 40
0.5
 40
0.5
 40
1.0
 40
1.0
 40
1.0
 40
1.0
 10
70.22075672773514
 20
162.7511305658244
 30
0.0
 10
70.25394569020885
 20
162.9603830994069
 30
0.0
 10
70.2706464664635
 20
163.1711998603059
 30
0.0
 10
70.27086590690816
 20
163.5957321415092
 30
0.0
 10
70.25398619151476
 20
163.8104804302818
 30
0.0
 10
70.22075672773515
 20
164.0199883198695
 30
0.0
  0
SPLINE
  5
127
330
1F
100
AcDbEntity
  8
0
  6
HIDDEN
 62
     7
370
     0
100
AcDbSpline
210
0.0
220
0.0
230
1.0
 70
     8
 71
     3
 72
    68
 73
    64
 74
     0
 42
0.00000001
 43
0.00000001
 12
1.0
 22
0.0
 32
0.0
 13
1.0
 23
0.0
 33
0.0
 40
0.0
 40
0.0
 40
0.0
 40
0.0
 40
0.0312499999999996
 40
0.0312499999999996
 40
0.0624999999999993
 40
0.0624999999999993
 40
0.0937499999999989
 40
0.0937499999999989
 40
0.1249999999999986
 40
0.1249999999999986
 40
0.1562499999999982
 40
0.1562499999999982
 40
0.1874999999999979
 40
0.1874999999999979
 40
0.2187499999999975
 40
0.2187499999999975
 40
0.2499999999999972
 40
0.2499999999999972
 40
0.2812499999999973
 40
0.2812499999999973
 40
0.3124999999999973
 40
0.3124999999999973
 40
0.3437499999999974
 40
0.3437499999999974
 40
0.3749999999999975
 40
0.3749999999999975
 40
0.4062499999999976
 40
0.4062499999999976
 40
0.4374999999999977
 40
0.4374999999999977
 40
0.4687499999999978
 40
0.4687499999999978
 40
0.4999999999999979
 40
0.4999999999999979
 40
0.5624999999999981
 40
0.5624999999999981
 40
0.5937499999999981
 40
0.5937499999999981
 40
0.6249999999999983
 40
0.6249999999999983
 40
0.6562499999999986
 40
0.6562499999999986
 40
0.6874999999999988
 40
0.6874999999999988
 40
0.718749999999999
 40
0.718749999999999
 40
0.7499999999999991
 40
0.7499999999999991
 40
0.7812499999999993
 40
0.7812499999999993
 40
0.8124999999999996
 40
0.8124999999999996
 40
0.8437499999999997
 40
0.8437499999999997
 40
0.8749999999999998
 40
0.8749999999999998
 40
0.9062499999999999
 40
0.9062499999999999
 40
0.9374999999999999
 40
0.9374999999999999
 40
0.96875
 40
0.96875
 40
1.0
 40
1.0
 40
1.0
 40
1.0
 10
70.22075672773515
 20
162.7511305658244
 30
0.0
 10
70.18074177538546
 20
162.4988409630088
 30
0.0
 10
70.11779997397414
 20
162.254842112633
 30
0.0
 10
69.94841331190207
 20
161.7824237235705
 30
0.0
 10
69.8407197493166
 20
161.5520103374106
 30
0.0
 10
69.58543498077871
 20
161.1173057416135
 30
0.0
 10
69.43939575030647
 20
160.9146637749622
 30
0.0
 10
69.11117431374723
 20
160.5376744842044
 30
0.0
 10
68.92692702597222
 20
160.362016530627
 30
0.0
 10
68.53396685866394
 20
160.0517585616807
 30
0.0
 10
68.32467226170479
 20
159.9158133540308
 30
0.0
 10
67.87978683476743
 20
159.682423258625
 30
0.0
 10
67.64298924226841
 20
159.5851766522106
 30
0.0
 10
67.16225417334914
 20
159.4385051943392
 30
0.0
 10
66.91601108016637
 20
159.3876128493968
 30
0.0
 10
66.41129430018697
 20
159.3320854991613
 30
0.0
 10
66.15509959925046
 20
159.3282606120914
 30
0.0
 10
65.65272085005033
 20
159.3676843947358
 30
0.0
 10
65.40347115086672
 20
159.4107118439471
 30
0.0
 10
64.91194335338795
 20
159.5444168133984
 30
0.0
 10
64.6766477521621
 20
159.6330866593035
 30
0.0
 10
64.22573385749996
 20
159.852118023081
 30
0.0
 10
64.0081215070366
 20
159.9841195887645
 30
0.0
 10
63.60491433748831
 20
160.2834768697674
 30
0.0
 10
63.4193028450539
 20
160.4500957972053
 30
0.0
 10
63.07931477465142
 20
160.8172072226328
 30
0.0
 10
62.92424184382853
 20
161.0195109681734
 30
0.0
 10
62.65789876716518
 20
161.4435916477675
 30
0.0
 10
62.54491466644839
 20
161.6667512532337
 30
0.0
 10
62.3600594095175
 20
162.1361064948278
 30
0.0
 10
62.2889186480141
 20
162.3823169981633
 30
0.0
 10
62.19495823672594
 20
162.8768428245345
 30
0.0
 10
62.17094890676955
 20
163.1277738196265
 30
0.0
 10
62.17037578609697
 20
163.8920191991827
 30
0.0
 10
62.2657748974156
 20
164.3942435012337
 30
0.0
 10
62.54363868961671
 20
165.1018080075061
 30
0.0
 10
62.65680064569726
 20
165.3255142712469
 30
0.0
 10
62.92293182774112
 20
165.7497841825675
 30
0.0
 10
63.07775960194084
 20
165.9520361446235
 30
0.0
 10
63.41794070772866
 20
166.3197468859917
 30
0.0
 10
63.60344316467837
 20
166.4863637612411
 30
0.0
 10
64.00573696573773
 20
166.7854131400364
 30
0.0
 10
64.22374501398971
 20
166.9178698480649
 30
0.0
 10
64.67434338114
 20
167.1370762487695
 30
0.0
 10
64.90889238002077
 20
167.2255613787732
 30
0.0
 10
65.3973523735731
 20
167.3590476087118
 30
0.0
 10
65.64961776928698
 20
167.4029893212056
 30
0.0
 10
66.15179840744727
 20
167.4427983176791
 30
0.0
 10
66.40428052479898
 20
167.4394541048656
 30
0.0
 10
66.91214556786849
 20
167.3842747848751
 30
0.0
 10
67.15969104105227
 20
167.3332288564056
 30
0.0
 10
67.64065857852297
 20
167.1868184681701
 30
0.0
 10
67.87661844362822
 20
167.0901722633965
 30
0.0
 10
68.32318889314982
 20
166.8562673190834
 30
0.0
 10
68.53283375572329
 20
166.7201423052569
 30
0.0
 10
68.92582046247774
 20
166.4100880409278
 30
0.0
 10
69.11021636629275
 20
166.2344307933527
 30
0.0
 10
69.43876678415315
 20
165.8572908706883
 30
0.0
 10
69.58470888067632
 20
165.6548246654184
 30
0.0
 10
69.8395942358785
 20
165.2212483672851
 30
0.0
 10
69.9479055486868
 20
164.9899565237035
 30
0.0
 10
70.11774052610377
 20
164.5165968435703
 30
0.0
 10
70.18073588724081
 20
164.2723150467496
 30
0.0
 10
70.22075672773515
 20
164.0199883198695
 30
0.0
  0
SPLINE
  5
128
330
1F
100
AcDbEntity
  8
0
  6
HIDDEN
 62
     7
370
     0
100
AcDbSpline
210
0.0
220
0.0
230
1.0
 70
     8
 71
     3
 72
    68
 73
    64
 74
     0
 42
0.00000001
 43
0.00000001
 12
1.0
 22
0.0
 32
0.0
 13
1.0
 23
0.0
 33
0.0
 40
0.0
 40
0.0
 40
0.0
 40
0.0
 40
0.0312500000000002
 40
0.0312500000000002
 40
0.0625000000000003
 40
0.0625000000000003
 40
0.0937500000000005
 40
0.0937500000000005
 40
0.1250000000000007
 40
0.1250000000000007
 40
0.1562500000000008
 40
0.1562500000000008
 40
0.187500000000001
 40
0.187500000000001
 40
0.2187500000000012
 40
0.2187500000000012
 40
0.2500000000000013
 40
0.2500000000000013
 40
0.2812500000000013
 40
0.2812500000000013
 40
0.3125000000000012
 40
0.3125000000000012
 40
0.3437500000000012
 40
0.3437500000000012
 40
0.3750000000000011
 40
0.3750000000000011
 40
0.4062500000000011
 40
0.4062500000000011
 40
0.437500000000001
 40
0.437500000000001
 40
0.4687500000000009
 40
0.4687500000000009
 40
0.5000000000000009
 40
0.5000000000000009
 40
0.5625000000000008
 40
0.5625000000000008
 40
0.5937500000000007
 40
0.5937500000000007
 40
0.6250000000000007
 40
0.6250000000000007
 40
0.6562500000000006
 40
0.6562500000000006
 40
0.6875000000000006
 40
0.6875000000000006
 40
0.7187500000000004
 40
0.7187500000000004
 40
0.7500000000000004
 40
0.7500000000000004
 40
0.7812500000000003
 40
0.7812500000000003
 40
0.8125000000000003
 40
0.8125000000000003
 40
0.8437500000000002
 40
0.8437500000000002
 40
0.8750000000000002
 40
0.8750000000000002
 40
0.9062500000000001
 40
0.9062500000000001
 40
0.9375000000000001
 40
0.9375000000000001
 40
0.96875
 40
0.96875
 40
1.0
 40
1.0
 40
1.0
 40
1.0
 10
70.22075672773515
 20
164.0199883198695
 30
0.0
 10
70.18074177538546
 20
164.2722779226851
 30
0.0
 10
70.11779997397413
 20
164.5162767730609
 30
0.0
 10
69.94841331190209
 20
164.9886951621234
 30
0.0
 10
69.8407197493166
 20
165.2191085482833
 30
0.0
 10
69.58543498077873
 20
165.6538131440804
 30
0.0
 10
69.43939575030649
 20
165.8564551107317
 30
0.0
 10
69.11117431374724
 20
166.2334444014896
 30
0.0
 10
68.92692702597226
 20
166.4091023550669
 30
0.0
 10
68.53396685866397
 20
166.7193603240132
 30
0.0
 10
68.32467226170483
 20
166.8553055316631
 30
0.0
 10
67.87978683476747
 20
167.0886956270689
 30
0.0
 10
67.64298924226844
 20
167.1859422334833
 30
0.0
 10
67.16225417334915
 20
167.3326136913547
 30
0.0
 10
66.91601108016637
 20
167.3835060362971
 30
0.0
 10
66.41129430018691
 20
167.4390333865326
 30
0.0
 10
66.15509959925045
 20
167.4428582736026
 30
0.0
 10
65.65272085005036
 20
167.4034344909581
 30
0.0
 10
65.40347115086678
 20
167.3604070417469
 30
0.0
 10
64.91194335338801
 20
167.2267020722956
 30
0.0
 10
64.67664775216217
 20
167.1380322263904
 30
0.0
 10
64.22573385750005
 20
166.919000862613
 30
0.0
 10
64.00812150703666
 20
166.7869992969295
 30
0.0
 10
63.60491433748835
 20
166.4876420159266
 30
0.0
 10
63.41930284505394
 20
166.3210230884887
 30
0.0
 10
63.07931477465142
 20
165.9539116630612
 30
0.0
 10
62.92424184382853
 20
165.7516079175205
 30
0.0
 10
62.65789876716517
 20
165.3275272379265
 30
0.0
 10
62.54491466644838
 20
165.1043676324603
 30
0.0
 10
62.3600594095175
 20
164.6350123908661
 30
0.0
 10
62.2889186480141
 20
164.3888018875306
 30
0.0
 10
62.19495823672594
 20
163.8942760611594
 30
0.0
 10
62.17094890676955
 20
163.6433450660674
 30
0.0
 10
62.17037578609697
 20
162.8790996865112
 30
0.0
 10
62.26577489741558
 20
162.3768753844602
 30
0.0
 10
62.54363868961669
 20
161.6693108781879
 30
0.0
 10
62.65680064569726
 20
161.445604614447
 30
0.0
 10
62.92293182774112
 20
161.0213347031265
 30
0.0
 10
63.07775960194084
 20
160.8190827410704
 30
0.0
 10
63.41794070772868
 20
160.4513719997022
 30
0.0
 10
63.60344316467839
 20
160.2847551244529
 30
0.0
 10
64.00573696573774
 20
159.9857057456575
 30
0.0
 10
64.22374501398974
 20
159.8532490376291
 30
0.0
 10
64.67434338114003
 20
159.6340426369244
 30
0.0
 10
64.90889238002079
 20
159.5455575069208
 30
0.0
 10
65.39735237357313
 20
159.4120712769821
 30
0.0
 10
65.64961776928699
 20
159.3681295644884
 30
0.0
 10
66.15179840744726
 20
159.3283205680148
 30
0.0
 10
66.40428052479895
 20
159.3316647808284
 30
0.0
 10
66.91214556786844
 20
159.3868441008189
 30
0.0
 10
67.15969104105226
 20
159.4378900292883
 30
0.0
 10
67.64065857852296
 20
159.5843004175238
 30
0.0
 10
67.87661844362822
 20
159.6809466222975
 30
0.0
 10
68.32318889314982
 20
159.9148515666105
 30
0.0
 10
68.53283375572329
 20
160.050976580437
 30
0.0
 10
68.92582046247774
 20
160.3610308447661
 30
0.0
 10
69.11021636629275
 20
160.5366880923412
 30
0.0
 10
69.43876678415316
 20
160.9138280150056
 30
0.0
 10
69.58470888067633
 20
161.1162942202755
 30
0.0
 10
69.83959423587851
 20
161.5498705184089
 30
0.0
 10
69.9479055486868
 20
161.7811623619904
 30
0.0
 10
70.11774052610377
 20
162.2545220421236
 30
0.0
 10
70.18073588724081
 20
162.4988038389444
 30
0.0
 10
70.22075672773515
 20
162.7511305658245
 30
0.0
  0
SPLINE
  5
129
330
1F
100
AcDbEntity
  8
0
  6
HIDDEN
 62
     7
370
     0
100
AcDbSpline
210
0.0
220
0.0
230
1.0
 70
     8
 71
     3
 72
    52
 73
    48
 74
     0
 42
0.00000001
 43
0.00000001
 12
1.0
 22
0.0
 32
0.0
 13
1.0
 23
0.0
 33
0.0
 40
0.0
 40
0.0
 40
0.0
 40
0.0
 40
0.062500000000002
 40
0.062500000000002
 40
0.093750000000003
 40
0.093750000000003
 40
0.1250000000000039
 40
0.1250000000000039
 40
0.1562500000000049
 40
0.1562500000000049
 40
0.1875000000000059
 40
0.1875000000000059
 40
0.2500000000000064
 40
0.2500000000000064
 40
0.312500000000007
 40
0.312500000000007
 40
0.3437500000000056
 40
0.3437500000000056
 40
0.3750000000000041
 40
0.3750000000000041
 40
0.4375000000000012
 40
0.4375000000000012
 40
0.468750000000002
 40
0.468750000000002
 40
0.5000000000000029
 40
0.5000000000000029
 40
0.5625000000000047
 40
0.5625000000000047
 40
0.5937500000000054
 40
0.5937500000000054
 40
0.6250000000000063
 40
0.6250000000000063
 40
0.687500000000008
 40
0.687500000000008
 40
0.7187500000000072
 40
0.7187500000000072
 40
0.7500000000000063
 40
0.7500000000000063
 40
0.8125000000000046
 40
0.8125000000000046
 40
0.8437500000000038
 40
0.8437500000000038
 40
0.875000000000003
 40
0.875000000000003
 40
0.9375000000000014
 40
0.9375000000000014
 40
1.0
 40
1.0
 40
1.0
 40
1.0
 10
239.8357104754976
 20
163.385559442847
 30
0.0
 10
239.6701316840835
 20
163.7069758966477
 30
0.0
 10
239.5465324328954
 20
164.0417764693231
 30
0.0
 10
239.4244916646497
 20
164.5640816420335
 30
0.0
 10
239.3944248503616
 20
164.7429318781993
 30
0.0
 10
239.3579876796915
 20
165.0992043497713
 30
0.0
 10
239.3513553991853
 20
165.2768609507807
 30
0.0
 10
239.3610545744949
 20
165.6312236036078
 30
0.0
 10
239.3773837680564
 20
165.8079296924875
 30
0.0
 10
239.4338972668345
 20
166.1603757385329
 30
0.0
 10
239.4742067404493
 20
166.3355073832049
 30
0.0
 10
239.6274707571155
 20
166.8435130652469
 30
0.0
 10
239.7743013749038
 20
167.1667117013116
 30
0.0
 10
240.1521808691999
 20
167.7683894437428
 30
0.0
 10
240.377131896151
 20
168.0385055327963
 30
0.0
 10
240.7672248854031
 20
168.3998697620487
 30
0.0
 10
240.906373316321
 20
168.5128440485675
 30
0.0
 10
241.1947448194827
 20
168.717952104558
 30
0.0
 10
241.3448647144016
 20
168.8109890494765
 30
0.0
 10
241.8128398522957
 20
169.0621598003447
 30
0.0
 10
242.1518152702671
 20
169.1927926887432
 30
0.0
 10
242.6695398361214
 20
169.3225983920901
 30
0.0
 10
242.8445572443372
 20
169.3553908389314
 30
0.0
 10
243.1995447697472
 20
169.3998293179112
 30
0.0
 10
243.3808110805733
 20
169.4114126877683
 30
0.0
 10
243.9194426997308
 20
169.4128388154141
 30
0.0
 10
244.2731898905357
 20
169.3707975840216
 30
0.0
 10
244.7957220196634
 20
169.2422386244423
 30
0.0
 10
244.9681094424055
 20
169.1882323681489
 30
0.0
 10
245.3002699358585
 20
169.0609858208599
 30
0.0
 10
245.4613203856252
 20
168.9874685910196
 30
0.0
 10
245.9294857746362
 20
168.7371590128397
 30
0.0
 10
246.2237884788072
 20
168.5278796759964
 30
0.0
 10
246.6110617896788
 20
168.1692602158236
 30
0.0
 10
246.7321328509038
 20
168.0418111441669
 30
0.0
 10
246.9581111177787
 20
167.7707643165255
 30
0.0
 10
247.0636015584064
 20
167.6260882505815
 30
0.0
 10
247.3476029333264
 20
167.1779017788935
 30
0.0
 10
247.4962159694808
 20
166.8589966041038
 30
0.0
 10
247.6580625421568
 20
166.3497378035004
 30
0.0
 10
247.7012463178283
 20
166.1756691735308
 30
0.0
 10
247.7647518647962
 20
165.8267835920108
 30
0.0
 10
247.7854465828757
 20
165.6508600545253
 30
0.0
 10
247.814603833566
 20
165.1186421989789
 30
0.0
 10
247.7889902886415
 20
164.7553158495694
 30
0.0
 10
247.6517719913539
 20
164.0560201739986
 30
0.0
 10
247.5397861639571
 20
163.7126711182088
 30
0.0
 10
247.3855698094413
 20
163.385559442847
 30
0.0
  0
ELLIPSE
  5
12A
330
1F
100
AcDbEntity
  8
0
  6
HIDDEN
 62
     7
370
     0
100
AcDbEllipse
 10
252.6719384403
 20
163.3855594428
 30
0.0
 11
-6.669703807742933
 21
20.49869244577133
 31
0.0
210
0.0
220
0.0
230
1.0
 40
0.0347142918
 41
6.271890723418976
 42
7.842687050213507
  0
LINE
  5
12B
330
1F
100
AcDbEntity
  8
0
  6
HIDDEN
 62
     7
370
     0
100
AcDbLine
 10
236.220749456
 20
163.3855594428
 30
0.0
 11
236.220749456
 21
183.8855600091
 31
0.0
  0
SPLINE
  5
12C
330
1F
100
AcDbEntity
  8
0
  6
HIDDEN
 62
     7
370
     0
100
AcDbSpline
210
0.0
220
0.0
230
1.0
 70
     8
 71
     3
 72
    12
 73
     8
 74
     0
 42
0.00000001
 43
0.00000001
 12
1.0
 22
0.0
 32
0.0
 13
1.0
 23
0.0
 33
0.0
 40
0.0
 40
0.0
 40
0.0
 40
0.0
 40
0.2500000000000003
 40
0.2500000000000003
 40
0.500000000000001
 40
0.500000000000001
 40
1.0
 40
1.0
 40
1.0
 40
1.0
 10
240.4373402792734
 20
146.0619967693859
 30
0.0
 10
240.2255300281961
 20
146.8435296485382
 30
0.0
 10
240.0021909458953
 20
147.6521963958255
 30
0.0
 10
239.530790328701
 20
149.3227991232243
 30
0.0
 10
239.2809894232635
 20
150.1905053572247
 30
0.0
 10
238.510553178509
 20
152.8069343433118
 30
0.0
 10
237.9657301767733
 20
154.582045556795
 30
0.0
 10
237.3829357501697
 20
156.385559442847
 30
0.0
  0
SPLINE
  5
12D
330
1F
100
AcDbEntity
  8
0
  6
HIDDEN
 62
     7
370
     0
100
AcDbSpline
210
0.0
220
0.0
230
1.0
 70
     8
 71
     3
 72
    12
 73
     8
 74
     0
 42
0.00000001
 43
0.00000001
 12
1.0
 22
0.0
 32
0.0
 13
1.0
 23
0.0
 33
0.0
 40
0.0
 40
0.0
 40
0.0
 40
0.0
 40
0.2500000000000001
 40
0.2500000000000001
 40
0.5000000000000002
 40
0.5000000000000002
 40
1.0
 40
1.0
 40
1.0
 40
1.0
 10
236.2207567277353
 20
163.385559442847
 30
0.0
 10
236.2207567277353
 20
162.7888910469673
 30
0.0
 10
236.2472139318698
 20
162.1875092026681
 30
0.0
 10
236.350615546184
 20
160.9999874162769
 30
0.0
 10
236.4273622526904
 20
160.4117180868118
 30
0.0
 10
236.7264937949999
 20
158.6620152313352
 30
0.0
 10
237.017743883153
 20
157.5156811001117
 30
0.0
 10
237.3829357501697
 20
156.385559442847
 30
0.0
  0
SPLINE
  5
12E
330
1F
100
AcDbEntity
  8
0
  6
HIDDEN
 62
     7
370
     0
100
AcDbSpline
210
0.0
220
0.0
230
1.0
 70
     8
 71
     3
 72
    12
 73
     8
 74
     0
 42
0.00000001
 43
0.00000001
 12
1.0
 22
0.0
 32
0.0
 13
1.0
 23
0.0
 33
0.0
 40
0.0
 40
0.0
 40
0.0
 40
0.0
 40
0.2011056393873633
 40
0.4042369666760283
 40
0.6542850235102488
 40
0.9120863668443568
 40
1.0
 40
1.0
 40
1.0
 40
1.0
 10
238.4361348929802
 20
145.3678632261445
 30
0.0
 10
238.07281952421
 20
145.1804852516106
 30
0.0
 10
237.3425291998518
 20
144.803841890051
 30
0.0
 10
236.5296434885217
 20
144.166828108046
 30
0.0
 10
236.1292874296073
 20
143.4556996972338
 30
0.0
 10
236.2604141862462
 20
142.8529140004819
 30
0.0
 10
236.6197178867787
 20
142.513802391109
 30
0.0
 10
236.7110870662133
 20
142.4275679620196
 30
0.0
  0
SPLINE
  5
12F
330
1F
100
AcDbEntity
  8
0
  6
HIDDEN
 62
     7
370
     0
100
AcDbSpline
210
0.0
220
0.0
230
1.0
 70
     8
 71
     3
 72
     8
 73
     4
 74
     0
 42
0.00000001
 43
0.00000001
 12
1.0
 22
0.0
 32
0.0
 13
1.0
 23
0.0
 33
0.0
 40
0.0
 40
0.0
 40
0.0
 40
0.0
 40
1.0
 40
1.0
 40
1.0
 40
1.0
 10
240.4373402792735
 20
146.0619967693858
 30
0.0
 10
239.6854533138265
 20
145.8835942354674
 30
0.0
 10
239.0114665736068
 20
145.6455656136353
 30
0.0
 10
238.4361288612779
 20
145.367863531734
 30
0.0
  0
LINE
  5
130
330
1F
100
AcDbEntity
  8
0
  6
HIDDEN
 62
     7
370
     0
100
AcDbLine
 10
71.9707565266
 20
172.3855590554
 30
0.0
 11
71.9707565266
 21
154.3855598303
 31
0.0
  0
LINE
  5
131
330
1F
100
AcDbEntity
  8
0
  6
HIDDEN
 62
     7
370
     0
100
AcDbLine
 10
70.7207567873
 20
153.1355591597
 30
0.0
 11
70.7207567873
 21
173.6054835947
 31
0.0
  0
LINE
  5
132
330
1F
100
AcDbEntity
  8
0
  6
HIDDEN
 62
     7
370
     0
100
AcDbLine
 10
97.7207574877
 20
172.3855590554
 30
0.0
 11
97.7207574877
 21
154.3855598303
 31
0.0
  0
LINE
  5
133
330
1F
100
AcDbEntity
  8
0
  6
HIDDEN
 62
     7
370
     0
100
AcDbLine
 10
100.5748439464
 20
167.6355596738
 30
0.0
 11
100.5748439464
 21
159.1355592119
 31
0.0
  0
LWPOLYLINE
  5
134
330
1F
100
AcDbEntity
  8
0
  6
HIDDEN
 62
     7
370
     0
100
AcDbPolyline
 90
       24
 70
   128
 43
0.0
 10
246.3929824415
 20
156.299983255
 10
247.3320983234
 20
156.4474581847
 10
248.2015661779
 20
156.8379026013
 10
248.9368937793
 20
157.4423584262
 10
249.4835577789
 20
158.2159959818
 10
249.8010121169
 20
159.1014383467
 10
249.8656980577
 20
160.0330158709
 10
249.6728323284
 20
160.9416381562
 10
249.2367200437
 20
161.7599166803
 10
248.5896967235
 20
162.4271635538
 10
247.7797441068
 20
162.8938919622
 10
246.8669585767
 20
163.1254869154
 10
245.9190063062
 20
163.1047720603
 10
245.0062207761
 20
162.8332837009
 10
244.1962830606
 20
162.3311568856
 10
243.5492597404
 20
161.635632032
 10
243.1131325546
 20
160.7982931765
 10
242.9202668252
 20
159.8812417234
 10
242.9849676671
 20
158.952490996
 10
243.3024071041
 20
158.0809230091
 10
243.8490711036
 20
157.3311771373
 10
244.584398705
 20
156.7588589261
 10
245.4538665595
 20
156.4064143332
 10
246.3929824415
 20
156.299983255
  0
LWPOLYLINE
  5
135
330
1F
100
AcDbEntity
  8
0
  6
HIDDEN
 62
     7
370
     0
100
AcDbPolyline
 90
       24
 70
   128
 43
0.0
 10
245.9665708127
 20
157.1434914241
 10
246.9056866947
 20
157.2909663538
 10
247.7751545492
 20
157.6814107703
 10
248.5104821506
 20
158.2858665953
 10
249.0571461502
 20
159.0595041508
 10
249.3746004882
 20
159.9449462829
 10
249.439286429
 20
160.8765240399
 10
249.2464206996
 20
161.7851463253
 10
248.810308415
 20
162.6034248494
 10
248.1632850948
 20
163.2706716938
 10
247.3533324781
 20
163.7374001312
 10
246.440546948
 20
163.9689950844
 10
245.4925946775
 20
163.9482802003
 10
244.5798091474
 20
163.6767918409
 10
243.7698714319
 20
163.1746650256
 10
243.1228481117
 20
162.479140201
 10
242.6867209258
 20
161.6418012291
 10
242.4938551965
 20
160.7247498924
 10
242.5585560384
 20
159.7959993979
 10
242.8759954753
 20
158.9244311782
 10
243.4226594749
 20
158.1746853063
 10
244.1579870763
 20
157.6023670951
 10
245.0274549308
 20
157.2499225022
 10
245.9665708127
 20
157.1434914241
  0
ARC
  5
136
330
1F
100
AcDbEntity
  8
0
  6
HIDDEN
 62
     7
370
     0
100
AcDbCircle
 10
240.8848024293
 20
154.9624547775
 30
0.0
 40
2.07792213256711
100
AcDbArc
 50
72.0115724748
 51
237.5494435992
  0
LINE
  5
137
330
1F
100
AcDbEntity
  8
0
  6
HIDDEN
 62
     7
370
     0
100
AcDbLine
 10
255.9300832334
 20
152.6853541019
 30
0.0
 11
256.8938307348
 21
150.7789097833
 31
0.0
  0
LINE
  5
138
330
1F
100
AcDbEntity
  8
0
  6
HIDDEN
 62
     7
370
     0
100
AcDbLine
 10
221.7207573238
 20
167.6355596738
 30
0.0
 11
221.7207573238
 21
159.1355592119
 31
0.0
  0
SPLINE
  5
139
330
1F
100
AcDbEntity
  8
0
  6
HIDDEN
 62
     7
370
     0
100
AcDbSpline
210
0.0
220
0.0
230
1.0
 70
     8
 71
     3
 72
    60
 73
    56
 74
     0
 42
0.00000001
 43
0.00000001
 12
1.0
 22
0.0
 32
0.0
 13
1.0
 23
0.0
 33
0.0
 40
-0.0312499999999996
 40
-0.0312499999999996
 40
0.0
 40
0.0
 40
0.0312500000000014
 40
0.0312500000000014
 40
0.0625000000000028
 40
0.0625000000000028
 40
0.125000000000001
 40
0.125000000000001
 40
0.1562500000000001
 40
0.1562500000000001
 40
0.1874999999999992
 40
0.1874999999999992
 40
0.2187499999999983
 40
0.2187499999999983
 40
0.2499999999999973
 40
0.2499999999999973
 40
0.3124999999999955
 40
0.3124999999999955
 40
0.3749999999999937
 40
0.3749999999999937
 40
0.4062499999999927
 40
0.4062499999999927
 40
0.4374999999999918
 40
0.4374999999999918
 40
0.4687499999999909
 40
0.4687499999999909
 40
0.49999999999999
 40
0.49999999999999
 40
0.5312499999999891
 40
0.5312499999999891
 40
0.5624999999999881
 40
0.5624999999999881
 40
0.624999999999991
 40
0.624999999999991
 40
0.6562499999999923
 40
0.6562499999999923
 40
0.6874999999999936
 40
0.6874999999999936
 40
0.7187499999999949
 40
0.7187499999999949
 40
0.7499999999999962
 40
0.7499999999999962
 40
0.7812499999999976
 40
0.7812499999999976
 40
0.8124999999999988
 40
0.8124999999999988
 40
0.8750000000000016
 40
0.8750000000000016
 40
0.9062500000000012
 40
0.9062500000000012
 40
0.9375000000000008
 40
0.9375000000000008
 40
0.9687500000000004
 40
0.9687500000000004
 40
1.0
 40
1.0
 40
1.031250000000001
 40
1.031250000000001
 10
217.5512291311645
 20
165.885559442847
 30
0.0
 10
217.8902843243058
 20
165.885559442847
 30
0.0
 10
218.0558821720133
 20
165.8685084782163
 30
0.0
 10
218.380002248686
 20
165.8027355470542
 30
0.0
 10
218.5398123130115
 20
165.753163044913
 30
0.0
 10
218.989153915553
 20
165.5642664096257
 30
0.0
 10
219.2588366553283
 20
165.3819280819392
 30
0.0
 10
219.5970214440859
 20
165.0453561520501
 30
0.0
 10
219.7005878777098
 20
164.9205392991693
 30
0.0
 10
219.8810393400096
 20
164.6540520824904
 30
0.0
 10
219.958161306272
 20
164.5127627097786
 30
0.0
 10
220.0855791910792
 20
164.2127118894387
 30
0.0
 10
220.1360433838803
 20
164.0518119327485
 30
0.0
 10
220.2028847965627
 20
163.7269423094218
 30
0.0
 10
220.2202029981118
 20
163.5617324315518
 30
0.0
 10
220.2218253900452
 20
163.057337158099
 30
0.0
 10
220.1533374195015
 20
162.7218759792544
 30
0.0
 10
219.8992871131306
 20
162.1159414208778
 30
0.0
 10
219.7147042137755
 20
161.8442969913728
 30
0.0
 10
219.3773357433522
 20
161.5064439340583
 30
0.0
 10
219.2533465743853
 20
161.4039027035338
 30
0.0
 10
218.9871778291678
 20
161.2240847924366
 30
0.0
 10
218.8466411483438
 20
161.1475854550478
 30
0.0
 10
218.5489828130459
 20
161.0212022680009
 30
0.0
 10
218.3895154355034
 20
160.970937220406
 30
0.0
 10
218.0638980513697
 20
160.9036463262501
 30
0.0
 10
217.8979310689826
 20
160.8860971964145
 30
0.0
 10
217.5590978229195
 20
160.8850457622142
 30
0.0
 10
217.3921071440842
 20
160.9016989513799
 30
0.0
 10
217.0664822302936
 20
160.9669858194271
 30
0.0
 10
216.9063510577366
 20
161.0163270283846
 30
0.0
 10
216.4556458983784
 20
161.20483252145
 30
0.0
 10
216.1853873972275
 20
161.3869242285253
 30
0.0
 10
215.8456726683258
 20
161.7243745659003
 30
0.0
 10
215.7417140244504
 20
161.8495916886011
 30
0.0
 10
215.5614049318288
 20
162.1155174021949
 30
0.0
 10
215.4839712232362
 20
162.2569858653188
 30
0.0
 10
215.3557223683915
 20
162.5588187385413
 30
0.0
 10
215.3054070774749
 20
162.7195863564139
 30
0.0
 10
215.2386588309834
 20
163.0440567110765
 30
0.0
 10
215.2211853217872
 20
163.2098026364267
 30
0.0
 10
215.2203435392569
 20
163.5489043396732
 30
0.0
 10
215.2371036367887
 20
163.7159950123595
 30
0.0
 10
215.3028557802926
 20
164.042427275918
 30
0.0
 10
215.3527106410662
 20
164.2036701656823
 30
0.0
 10
215.5436754266337
 20
164.6576076738584
 30
0.0
 10
215.7289715596037
 20
164.9297929608525
 30
0.0
 10
216.0678604604235
 20
165.2679516065677
 30
0.0
 10
216.1930423828267
 20
165.3709458413219
 30
0.0
 10
216.4589775187999
 20
165.54971828609
 30
0.0
 10
216.5998331021987
 20
165.6260882788263
 30
0.0
 10
216.8994996986828
 20
165.7524088532178
 30
0.0
 10
217.0598778808175
 20
165.8023123009104
 30
0.0
 10
217.3846150208662
 20
165.8683933036126
 30
0.0
 10
217.5512291311645
 20
165.885559442847
 30
0.0
 10
217.8902843243058
 20
165.885559442847
 30
0.0
  0
SPLINE
  5
13A
330
1F
100
AcDbEntity
  8
0
  6
HIDDEN
 62
     7
370
     0
100
AcDbSpline
210
0.0
220
0.0
230
1.0
 70
     8
 71
     3
 72
    60
 73
    56
 74
     0
 42
0.00000001
 43
0.00000001
 12
1.0
 22
0.0
 32
0.0
 13
1.0
 23
0.0
 33
0.0
 40
-0.0312500000000002
 40
-0.0312500000000002
 40
0.0
 40
0.0
 40
0.0312499999999985
 40
0.0312499999999985
 40
0.062499999999997
 40
0.062499999999997
 40
0.1249999999999939
 40
0.1249999999999939
 40
0.1562499999999923
 40
0.1562499999999923
 40
0.1874999999999908
 40
0.1874999999999908
 40
0.2187499999999892
 40
0.2187499999999892
 40
0.2499999999999877
 40
0.2499999999999877
 40
0.3124999999999846
 40
0.3124999999999846
 40
0.3749999999999816
 40
0.3749999999999816
 40
0.4062499999999818
 40
0.4062499999999818
 40
0.4374999999999821
 40
0.4374999999999821
 40
0.4687499999999823
 40
0.4687499999999823
 40
0.4999999999999826
 40
0.4999999999999826
 40
0.5312499999999828
 40
0.5312499999999828
 40
0.5624999999999831
 40
0.5624999999999831
 40
0.6249999999999836
 40
0.6249999999999836
 40
0.6562499999999856
 40
0.6562499999999856
 40
0.6874999999999875
 40
0.6874999999999875
 40
0.7187499999999893
 40
0.7187499999999893
 40
0.7499999999999912
 40
0.7499999999999912
 40
0.7812499999999932
 40
0.7812499999999932
 40
0.8124999999999951
 40
0.8124999999999951
 40
0.874999999999999
 40
0.874999999999999
 40
0.9062499999999992
 40
0.9062499999999992
 40
0.9374999999999994
 40
0.9374999999999994
 40
0.9687499999999998
 40
0.9687499999999998
 40
1.0
 40
1.0
 40
1.031249999999998
 40
1.031249999999998
 10
217.8902843243056
 20
165.885559442847
 30
0.0
 10
217.5512291311644
 20
165.885559442847
 30
0.0
 10
217.385631283457
 20
165.8685084782163
 30
0.0
 10
217.0615112067845
 20
165.8027355470542
 30
0.0
 10
216.9017011424588
 20
165.753163044913
 30
0.0
 10
216.4523595399174
 20
165.5642664096257
 30
0.0
 10
216.1826768001419
 20
165.3819280819392
 30
0.0
 10
215.8444920113845
 20
165.04535615205
 30
0.0
 10
215.7409255777606
 20
164.9205392991692
 30
0.0
 10
215.5604741154606
 20
164.6540520824903
 30
0.0
 10
215.4833521491983
 20
164.5127627097785
 30
0.0
 10
215.3559342643911
 20
164.2127118894386
 30
0.0
 10
215.3054700715901
 20
164.0518119327484
 30
0.0
 10
215.2386286589076
 20
163.7269423094217
 30
0.0
 10
215.2213104573586
 20
163.5617324315518
 30
0.0
 10
215.2196880654251
 20
163.0573371580989
 30
0.0
 10
215.2881760359689
 20
162.7218759792543
 30
0.0
 10
215.5422263423397
 20
162.1159414208777
 30
0.0
 10
215.7268092416952
 20
161.8442969913727
 30
0.0
 10
216.0641777121182
 20
161.5064439340584
 30
0.0
 10
216.1881668810849
 20
161.4039027035339
 30
0.0
 10
216.4543356263024
 20
161.2240847924367
 30
0.0
 10
216.5948723071264
 20
161.1475854550479
 30
0.0
 10
216.8925306424245
 20
161.021202268001
 30
0.0
 10
217.0519980199669
 20
160.970937220406
 30
0.0
 10
217.3776154041005
 20
160.9036463262501
 30
0.0
 10
217.5435823864875
 20
160.8860971964145
 30
0.0
 10
217.8824156325504
 20
160.8850457622142
 30
0.0
 10
218.0494063113858
 20
160.9016989513798
 30
0.0
 10
218.3750312251766
 20
160.966985819427
 30
0.0
 10
218.5351623977337
 20
161.0163270283845
 30
0.0
 10
218.9858675570918
 20
161.20483252145
 30
0.0
 10
219.2561260582426
 20
161.3869242285253
 30
0.0
 10
219.5958407871446
 20
161.7243745659003
 30
0.0
 10
219.69979943102
 20
161.8495916886011
 30
0.0
 10
219.8801085236416
 20
162.1155174021948
 30
0.0
 10
219.9575422322342
 20
162.2569858653187
 30
0.0
 10
220.0857910870787
 20
162.5588187385412
 30
0.0
 10
220.1361063779956
 20
162.7195863564138
 30
0.0
 10
220.2028546244869
 20
163.0440567110765
 30
0.0
 10
220.2203281336831
 20
163.2098026364267
 30
0.0
 10
220.2211699162135
 20
163.5489043396732
 30
0.0
 10
220.2044098186817
 20
163.7159950123596
 30
0.0
 10
220.1386576751777
 20
164.042427275918
 30
0.0
 10
220.0888028144041
 20
164.2036701656823
 30
0.0
 10
219.8978380288365
 20
164.6576076738585
 30
0.0
 10
219.7125418958667
 20
164.9297929608525
 30
0.0
 10
219.3736529950469
 20
165.2679516065677
 30
0.0
 10
219.2484710726436
 20
165.3709458413219
 30
0.0
 10
218.9825359366702
 20
165.5497182860901
 30
0.0
 10
218.8416803532715
 20
165.6260882788264
 30
0.0
 10
218.5420137567872
 20
165.7524088532179
 30
0.0
 10
218.3816355746526
 20
165.8023123009106
 30
0.0
 10
218.0568984346038
 20
165.8683933036127
 30
0.0
 10
217.8902843243056
 20
165.885559442847
 30
0.0
 10
217.5512291311644
 20
165.885559442847
 30
0.0
  0
SPLINE
  5
13B
330
1F
100
AcDbEntity
  8
0
  6
HIDDEN
 62
     7
370
     0
100
AcDbSpline
210
0.0
220
0.0
230
1.0
 70
     8
 71
     3
 72
    34
 73
    30
 74
     0
 42
0.00000001
 43
0.00000001
 12
1.0
 22
0.0
 32
0.0
 13
1.0
 23
0.0
 33
0.0
 40
0.0
 40
0.0
 40
0.0
 40
0.0
 40
0.1249999999999971
 40
0.1249999999999971
 40
0.2499999999999943
 40
0.2499999999999943
 40
0.3124999999999928
 40
0.3124999999999928
 40
0.3749999999999913
 40
0.3749999999999913
 40
0.4374999999999898
 40
0.4374999999999898
 40
0.468749999999989
 40
0.468749999999989
 40
0.4999999999999882
 40
0.4999999999999882
 40
0.5312499999999876
 40
0.5312499999999876
 40
0.5624999999999868
 40
0.5624999999999868
 40
0.6249999999999887
 40
0.6249999999999887
 40
0.6874999999999906
 40
0.6874999999999906
 40
0.7499999999999925
 40
0.7499999999999925
 40
0.8749999999999963
 40
0.8749999999999963
 40
1.0
 40
1.0
 40
1.0
 40
1.0
 10
244.2160808555186
 20
157.9727375398403
 30
0.0
 10
244.2748617280714
 20
157.856460297831
 30
0.0
 10
244.3991497559632
 20
157.7261403943301
 30
0.0
 10
244.7267623583939
 20
157.4607225292055
 30
0.0
 10
244.9328055238108
 20
157.3245671967882
 30
0.0
 10
245.3023435716447
 20
157.1403133818794
 30
0.0
 10
245.435973132239
 20
157.0820940497777
 30
0.0
 10
245.731145838104
 20
156.978082944724
 30
0.0
 10
245.8929460231217
 20
156.9319520697655
 30
0.0
 10
246.2548417002992
 20
156.8667197301124
 30
0.0
 10
246.4538077294737
 20
156.8463803817451
 30
0.0
 10
246.801285671501
 20
156.8651854413397
 30
0.0
 10
246.9238874943922
 20
156.8800061669871
 30
0.0
 10
247.1842561146341
 20
156.937371751326
 30
0.0
 10
247.3168868503168
 20
156.9793005974497
 30
0.0
 10
247.575317170807
 20
157.0918968087194
 30
0.0
 10
247.6959222353005
 20
157.1606215700958
 30
0.0
 10
247.9067148232947
 20
157.3065100179451
 30
0.0
 10
247.998544682516
 20
157.3841485257061
 30
0.0
 10
248.237623683198
 20
157.6157235805649
 30
0.0
 10
248.3531811339496
 20
157.7702261217202
 30
0.0
 10
248.5392747887796
 20
158.0660346140418
 30
0.0
 10
248.609141416554
 20
158.2078045643497
 30
0.0
 10
248.7228709136817
 20
158.4819706332623
 30
0.0
 10
248.7662500168342
 20
158.6143202795812
 30
0.0
 10
248.8677910040729
 20
158.9968060271036
 30
0.0
 10
248.8969825474415
 20
159.2272596232885
 30
0.0
 10
248.903326725828
 20
159.6281444490158
 30
0.0
 10
248.8809968884732
 20
159.799763164508
 30
0.0
 10
248.8224572645927
 20
159.9155631810352
 30
0.0
  0
ELLIPSE
  5
13C
330
1F
100
AcDbEntity
  8
0
  6
HIDDEN
 62
     7
370
     0
100
AcDbEllipse
 10
248.6035294208
 20
154.2036333958
 30
0.0
 11
3.43428158799253
 21
-1.718550178042051
 31
0.0
210
0.0
220
0.0
230
1.0
 40
0.1647216549
 41
3.359868973054554
 42
6.501461626643976
  0
LINE
  5
13D
330
1F
100
AcDbEntity
  8
0
  6
HIDDEN
 62
     7
370
     0
100
AcDbLine
 10
247.0882855239
 20
141.0065783294
 30
0.0
 11
246.1245231214
 21
142.9130217167
 31
0.0
  0
ELLIPSE
  5
13E
330
1F
100
AcDbEntity
  8
0
  6
HIDDEN
 62
     7
370
     0
100
AcDbEllipse
 10
245.054809462
 20
162.370609582
 30
0.0
 11
3.809839114181643
 21
1.769635718921194
 31
0.0
210
0.0
220
0.0
230
1.0
 40
0.816602865
 41
4.03110828591946
 42
5.306232127157853
  0
LINE
  5
13F
330
1F
100
AcDbEntity
  8
0
  6
HIDDEN
 62
     7
370
     0
100
AcDbLine
 10
243.7779180589
 20
158.8394945594
 30
0.0
 11
244.2160867038
 21
157.9727373192
 31
0.0
  0
LINE
  5
140
330
1F
100
AcDbEntity
  8
0
  6
HIDDEN
 62
     7
370
     0
100
AcDbLine
 10
248.8224528613
 20
159.9155632885
 30
0.0
 11
248.3842842164
 21
160.7823202959
 31
0.0
  0
ELLIPSE
  5
141
330
1F
100
AcDbEntity
  8
0
  6
HIDDEN
 62
     7
370
     0
100
AcDbEllipse
 10
243.5685732984
 20
165.3106040832
 30
0.0
 11
1.947843959788401
 21
-3.853122855659165
 31
0.0
210
0.0
220
0.0
230
1.0
 40
0.9727892058
 41
4.720242820793355
 42
6.93204749030448
  0
LWPOLYLINE
  5
142
330
1F
100
AcDbEntity
  8
0
  6
HIDDEN
 62
     7
370
     0
100
AcDbPolyline
 90
       27
 70
   128
 43
0.0
 10
245.9226123872
 20
156.5457569542
 10
246.9222269836
 20
156.6869785184
 10
247.8637568536
 20
157.0587475891
 10
248.6924700323
 20
157.6394584136
 10
249.3602059665
 20
158.3953617247
 10
249.8281620326
 20
159.2825279678
 10
250.0691436115
 20
160.2493974952
 10
250.0691436115
 20
161.2397798909
 10
249.8281620326
 20
162.196117557
 10
249.3602059665
 20
163.0628316362
 10
248.6924700323
 20
163.7895518089
 10
247.8637568536
 20
164.3340437314
 10
246.9222269836
 20
164.6646635946
 10
245.9226123872
 20
164.7621969333
 10
244.9229828897
 20
164.6209753691
 10
243.9814679208
 20
164.2492064148
 10
243.1527547422
 20
163.6684957067
 10
242.4850039068
 20
162.9125921628
 10
242.0170478406
 20
162.0254261526
 10
241.7760662618
 20
161.0585563923
 10
241.7760662618
 20
160.0681739966
 10
242.0170478406
 20
159.1118365633
 10
242.4850039068
 20
158.245122164
 10
243.1527547422
 20
157.5184023114
 10
243.9814679208
 20
156.9739101561
 10
244.9229828897
 20
156.6432901765
 10
245.9226123872
 20
156.5457569542
  0
LINE
  5
143
330
1F
100
AcDbEntity
  8
0
  6
HIDDEN
 62
     7
370
     0
100
AcDbLine
 10
252.880188066
 20
150.2839984479
 30
0.0
 11
251.3090841356
 21
154.0499586718
 31
0.0
  0
LINE
  5
144
330
1F
100
AcDbEntity
  8
0
  6
HIDDEN
 62
     7
370
     0
100
AcDbLine
 10
252.5563411298
 20
150.9246189254
 30
0.0
 11
252.880188066
 21
150.2839984479
 31
0.0
  0
LINE
  5
145
330
1F
100
AcDbEntity
  8
0
  6
HIDDEN
 62
     7
370
     0
100
AcDbLine
 10
252.5563411298
 20
150.9246189254
 30
0.0
 11
250.0623039785
 21
156.5971589754
 31
0.0
  0
LINE
  5
146
330
1F
100
AcDbEntity
  8
0
  6
HIDDEN
 62
     7
370
     0
100
AcDbLine
 10
250.0623039785
 20
156.5971589754
 30
0.0
 11
248.3842842164
 21
160.7823202959
 31
0.0
  0
LINE
  5
147
330
1F
100
AcDbEntity
  8
0
  6
HIDDEN
 62
     7
370
     0
100
AcDbLine
 10
251.3090841356
 20
154.0499586718
 30
0.0
 11
252.0176194492
 21
152.6483619692
 31
0.0
  0
LINE
  5
148
330
1F
100
AcDbEntity
  8
0
  6
HIDDEN
 62
     7
370
     0
100
AcDbLine
 10
245.1310776058
 20
155.8743595252
 30
0.0
 11
248.2738219085
 21
148.3411729442
 31
0.0
  0
ARC
  5
149
330
1F
100
AcDbEntity
  8
0
  6
HIDDEN
 62
     7
370
     0
100
AcDbCircle
 10
251.2191136752
 20
147.4632369971
 30
0.0
 40
3.07335567710062
100
AcDbArc
 50
163.4016733597
 51
267.053708353
  0
ARC
  5
14A
330
1F
100
AcDbEntity
  8
0
  6
HIDDEN
 62
     7
370
     0
100
AcDbCircle
 10
251.4380483576
 20
147.5734199762
 30
0.0
 40
3.070342422199229
100
AcDbArc
 50
326.4997609134
 51
61.98517804
  0
LINE
  5
14B
330
1F
100
AcDbEntity
  8
0
  6
HIDDEN
 62
     7
370
     0
100
AcDbLine
 10
259.3813113752
 20
139.0249064299
 30
0.0
 11
260.0349508109
 21
139.6737607302
 31
0.0
  0
LINE
  5
14C
330
1F
100
AcDbEntity
  8
0
  6
HIDDEN
 62
     7
370
     0
100
AcDbLine
 10
247.2319774213
 20
142.6126701864
 30
0.0
 11
259.3813113752
 21
139.0249064299
 31
0.0
  0
ARC
  5
14D
330
1F
100
AcDbEntity
  8
0
  6
HIDDEN
 62
     7
370
     0
100
AcDbCircle
 10
239.9426748362
 20
117.9274739782
 30
0.0
 40
25.73893634195338
100
AcDbArc
 50
73.5486329506
 51
76.1031324911
  0
LINE
  5
14E
330
1F
100
AcDbEntity
  8
0
  6
HIDDEN
 62
     7
370
     0
100
AcDbLine
 10
243.2191543165
 20
152.1224226909
 30
0.0
 11
246.1245231214
 21
142.9130217167
 31
0.0
  0
LINE
  5
14F
330
1F
100
AcDbEntity
  8
0
  6
HIDDEN
 62
     7
370
     0
100
AcDbLine
 10
245.1310776058
 20
155.8743595252
 30
0.0
 11
241.5265165153
 21
156.9388058143
 31
0.0
  0
LINE
  5
150
330
1F
100
AcDbEntity
  8
0
  6
HIDDEN
 62
     7
370
     0
100
AcDbLine
 10
255.9300832334
 20
152.6853541019
 30
0.0
 11
251.3090841356
 21
154.0499586718
 31
0.0
  0
LINE
  5
151
330
1F
100
AcDbEntity
  8
0
  6
HIDDEN
 62
     7
370
     0
100
AcDbLine
 10
260.0349508109
 20
139.6737607302
 30
0.0
 11
255.9300832334
 21
152.6853541019
 31
0.0
  0
LINE
  5
152
330
1F
100
AcDbEntity
  8
0
  6
HIDDEN
 62
     7
370
     0
100
AcDbLine
 10
245.189430553
 20
155.7589053283
 30
0.0
 11
245.1310776058
 21
155.8743595252
 31
0.0
  0
SPLINE
  5
153
330
1F
100
AcDbEntity
  8
0
  6
HIDDEN
 62
     7
370
     0
100
AcDbSpline
210
0.0
220
0.0
230
1.0
 70
     8
 71
     3
 72
    16
 73
    12
 74
     0
 42
0.00000001
 43
0.00000001
 12
1.0
 22
0.0
 32
0.0
 13
1.0
 23
0.0
 33
0.0
 40
0.0
 40
0.0
 40
0.0
 40
0.0
 40
0.2499999999999996
 40
0.2499999999999996
 40
0.3749999999999998
 40
0.3749999999999998
 40
0.5
 40
0.5
 40
0.75
 40
0.75
 40
1.0
 40
1.0
 40
1.0
 40
1.0
 10
80.39943638417552
 20
185.1556403978491
 30
0.0
 10
80.23820390669107
 20
185.0576247847944
 30
0.0
 10
80.11772406705143
 20
184.8708887531183
 30
0.0
 10
79.99534354973811
 20
184.4578489455594
 30
0.0
 10
79.96436588934066
 20
184.2978484463265
 30
0.0
 10
79.9227521517127
 20
183.9310427952353
 30
0.0
 10
79.91251623877989
 20
183.7277056426113
 30
0.0
 10
79.91232784172377
 20
183.0604183759847
 30
0.0
 10
79.95247254436138
 20
182.5396039120967
 30
0.0
 10
80.11662629930096
 20
181.342244896619
 30
0.0
 10
80.23817794971052
 20
180.683975242323
 30
0.0
 10
80.39943638417552
 20
179.9694660690881
 30
0.0
  0
LINE
  5
154
330
1F
100
AcDbEntity
  8
0
  6
HIDDEN
 62
     7
370
     0
100
AcDbLine
 10
79.5207567397
 20
185.4056591274
 30
0.0
 11
79.5207567397
 21
178.9204800608
 31
0.0
  0
LINE
  5
155
330
1F
100
AcDbEntity
  8
0
  6
HIDDEN
 62
     7
370
     0
100
AcDbLine
 10
45.2207572642
 20
148.2815068322
 30
0.0
 11
45.2207572642
 21
142.2271957727
 31
0.0
  0
LINE
  5
156
330
1F
100
AcDbEntity
  8
0
  6
HIDDEN
 62
     7
370
     0
100
AcDbLine
 10
43.7207579496
 20
148.7145196753
 30
0.0
 11
43.7207579496
 21
143.093221459
 31
0.0
  0
LINE
  5
157
330
1F
100
AcDbEntity
  8
0
  6
HIDDEN
 62
     7
370
     0
100
AcDbLine
 10
79.5207567397
 20
147.8506388249
 30
0.0
 11
79.5207567397
 21
141.3654597583
 31
0.0
  0
LINE
  5
158
330
1F
100
AcDbEntity
  8
0
  6
HIDDEN
 62
     7
370
     0
100
AcDbLine
 10
45.2207572642
 20
184.543923113
 30
0.0
 11
45.2207572642
 21
178.4896120535
 31
0.0
  0
SPLINE
  5
159
330
1F
100
AcDbEntity
  8
0
  6
HIDDEN
 62
     7
370
     0
100
AcDbSpline
210
0.0
220
0.0
230
1.0
 70
     8
 71
     3
 72
    16
 73
    12
 74
     0
 42
0.00000001
 43
0.00000001
 12
1.0
 22
0.0
 32
0.0
 13
1.0
 23
0.0
 33
0.0
 40
0.0
 40
0.0
 40
0.0
 40
0.0
 40
0.2499999999999998
 40
0.2499999999999998
 40
0.3749999999999997
 40
0.3749999999999997
 40
0.4999999999999996
 40
0.4999999999999996
 40
0.7499999999999998
 40
0.7499999999999998
 40
1.0
 40
1.0
 40
1.0
 40
1.0
 10
80.3994363841755
 20
146.8016528166058
 30
0.0
 10
80.23820390669106
 20
146.0872586544137
 30
0.0
 10
80.11772406705143
 20
145.4339163917051
 30
0.0
 10
79.99534354973811
 20
144.5456611499012
 30
0.0
 10
79.96436588934066
 20
144.2649806135494
 30
0.0
 10
79.9227521517127
 20
143.7359466237094
 30
0.0
 10
79.91251623877989
 20
143.4926256451309
 30
0.0
 10
79.91232784172378
 20
142.8246029546177
 30
0.0
 10
79.95247254436138
 20
142.4609220451983
 30
0.0
 10
80.11662629930096
 20
141.90103117265
 30
0.0
 10
80.23817794971052
 20
141.7135098805328
 30
0.0
 10
80.39943638417552
 20
141.6154784878449
 30
0.0
  0
LINE
  5
15A
330
1F
100
AcDbEntity
  8
0
  6
HIDDEN
 62
     7
370
     0
100
AcDbLine
 10
43.7207579496
 20
183.6778974267
 30
0.0
 11
43.7207579496
 21
178.0565992104
 31
0.0
  0
SPLINE
  5
15B
330
1F
100
AcDbEntity
  8
0
  6
HIDDEN
 62
     7
370
     0
100
AcDbSpline
210
0.0
220
0.0
230
1.0
 70
     8
 71
     3
 72
    12
 73
     8
 74
     0
 42
0.00000001
 43
0.00000001
 12
1.0
 22
0.0
 32
0.0
 13
1.0
 23
0.0
 33
0.0
 40
0.0
 40
0.0
 40
0.0
 40
0.0
 40
0.2499999999999998
 40
0.2499999999999998
 40
0.4999999999999996
 40
0.4999999999999996
 40
1.0
 40
1.0
 40
1.0
 40
1.0
 10
247.9499664119132
 20
148.9817936543655
 30
0.0
 10
247.9209959960417
 20
149.0391014130142
 30
0.0
 10
247.898652349892
 20
149.1165209624265
 30
0.0
 10
247.8628783349611
 20
149.2934286651085
 30
0.0
 10
247.8496189183104
 20
149.3932414250851
 30
0.0
 10
247.8236213967669
 20
149.7148177430334
 30
0.0
 10
247.8240289931603
 20
149.9579508963754
 30
0.0
 10
247.8515631807679
 20
150.2199211917878
 30
0.0
  0
ARC
  5
15C
330
1F
100
AcDbEntity
  8
0
  6
HIDDEN
 62
     7
370
     0
100
AcDbCircle
 10
250.680502379
 20
148.8129134956
 30
0.0
 40
3.159516288987589
100
AcDbArc
 50
153.5559367399
 51
72.1811658383
  0
SPLINE
  5
15D
330
1F
100
AcDbEntity
  8
0
  6
HIDDEN
 62
     7
370
     0
100
AcDbSpline
210
0.0
220
0.0
230
1.0
 70
     8
 71
     3
 72
    12
 73
     8
 74
     0
 42
0.00000001
 43
0.00000001
 12
1.0
 22
0.0
 32
0.0
 13
1.0
 23
0.0
 33
0.0
 40
0.0
 40
0.0
 40
0.0
 40
0.0
 40
0.4999999999999969
 40
0.4999999999999969
 40
0.7499999999999984
 40
0.7499999999999984
 40
1.0
 40
1.0
 40
1.0
 40
1.0
 10
251.6473479118205
 20
151.8208645904689
 30
0.0
 10
251.86866319373
 20
151.6638512258936
 30
0.0
 10
252.0577781429467
 20
151.5006527605791
 30
0.0
 10
252.292525173313
 20
151.2671204629871
 30
0.0
 10
252.3623739026896
 20
151.1911753069616
 30
0.0
 10
252.4796236263137
 20
151.0486315124641
 30
0.0
 10
252.5273724051148
 20
150.9819270542105
 30
0.0
 10
252.5563428209865
 20
150.9246192955619
 30
0.0
  0
LINE
  5
15E
330
1F
100
AcDbEntity
  8
0
  6
HIDDEN
 62
     7
370
     0
100
AcDbLine
 10
248.2738219085
 20
148.3411729442
 30
0.0
 11
247.9499600711
 21
148.9817934217
 31
0.0
  0
ELLIPSE
  5
15F
330
1F
100
AcDbEntity
  8
0
  6
HIDDEN
 62
     7
370
     0
100
AcDbEllipse
 10
249.1094680558
 20
152.5544484527
 30
0.0
 11
-1.101654435681354
 21
2.719284888726065
 31
0.0
210
0.0
220
0.0
230
1.0
 40
0.8519509261
 41
2.185216307007226
 42
4.122186332629439
  0
LWPOLYLINE
  5
160
330
1F
100
AcDbEntity
  8
0
  6
HIDDEN
 62
     7
370
     0
100
AcDbPolyline
 90
       11
 70
   128
 43
0.0
 10
245.4559229198
 20
154.6543330061
 10
245.763408381
 20
154.2161150011
 10
246.2662480655
 20
153.9158808174
 10
246.9152234378
 20
153.7830211329
 10
247.6468108478
 20
153.8305390733
 10
248.3893804136
 20
154.0537854763
 10
249.070259172
 20
154.4309049951
 10
249.6227942291
 20
154.9249846595
 10
249.9928943696
 20
155.4876599567
 10
250.1443348709
 20
156.0638520042
 10
250.0623039785
 20
156.5971589754
  0
LINE
  5
161
330
1F
100
AcDbEntity
  8
0
  6
HIDDEN
 62
     7
370
     0
100
AcDbLine
 10
259.1396741453
 20
139.5028965654
 30
0.0
 11
259.3813113752
 21
139.0249064299
 31
0.0
  0
LINE
  5
162
330
1F
100
AcDbEntity
  8
0
  6
HIDDEN
 62
     7
370
     0
100
AcDbLine
 10
260.0349508109
 20
139.6737607302
 30
0.0
 11
259.6384756151
 21
140.4580628606
 31
0.0
  0
LINE
  5
163
330
1F
100
AcDbEntity
  8
0
  6
HIDDEN
 62
     7
370
     0
100
AcDbLine
 10
243.7779180589
 20
158.8394945594
 30
0.0
 11
245.4559229198
 21
154.6543330061
 31
0.0
  0
ELLIPSE
  5
164
330
1F
100
AcDbEntity
  8
0
  6
HIDDEN
 62
     7
370
     0
100
AcDbEllipse
 10
278.9663273547
 20
156.3855594428
 30
0.0
 11
20.24470092004526
 21
19.74465004528247
 31
0.0
210
0.0
220
0.0
230
1.0
 40
0.1573605504
 41
2.652040986247114
 42
2.735709843470619
  0
ELLIPSE
  5
165
330
1F
100
AcDbEntity
  8
0
  6
HIDDEN
 62
     7
370
     0
100
AcDbEllipse
 10
201.4288571016
 20
156.3855594428
 30
0.0
 11
62.39078444610111
 21
-19.74575069221083
 31
0.0
210
0.0
220
0.0
230
1.0
 40
0.0509512444
 41
0.4062286750551601
 42
0.7872641368513537
  0
SPLINE
  5
166
330
1F
100
AcDbEntity
  8
0
  6
HIDDEN
 62
     7
370
     0
100
AcDbSpline
210
0.0
220
0.0
230
1.0
 70
     8
 71
     3
 72
    10
 73
     6
 74
     0
 42
0.00000001
 43
0.00000001
 12
1.0
 22
0.0
 32
0.0
 13
1.0
 23
0.0
 33
0.0
 40
0.0
 40
0.0
 40
0.0
 40
0.0
 40
0.5
 40
0.5
 40
1.0
 40
1.0
 40
1.0
 40
1.0
 10
246.1761315940253
 20
144.7012866852824
 30
0.0
 10
245.2596856480685
 20
145.0433434792625
 30
0.0
 10
244.3225770526613
 20
145.3297791924508
 30
0.0
 10
242.409389630915
 20
145.7858439691803
 30
0.0
 10
241.4333256971464
 20
145.9555817730236
 30
0.0
 10
240.4373402792733
 20
146.0619967693858
 30
0.0
  0
ELLIPSE
  5
167
330
1F
100
AcDbEntity
  8
0
  6
HIDDEN
 62
     7
370
     0
100
AcDbEllipse
 10
254.9273164156
 20
156.3855594428
 30
0.0
 11
-6.507028105115041
 21
19.99872433733779
 31
0.0
210
0.0
220
0.0
230
1.0
 40
0.0347142918
 41
1.559501743033904
 42
2.480779163451675
  0
CIRCLE
  5
168
330
1F
100
AcDbEntity
  8
0
  6
HIDDEN
 62
     7
370
     0
100
AcDbCircle
 10
217.7207567277
 20
163.3855594428
 30
0.0
 40
2.5
  0
CIRCLE
  5
169
330
1F
100
AcDbEntity
  8
0
  6
HIDDEN
 62
     7
370
     0
100
AcDbCircle
 10
217.7207567277
 20
163.3855594428
 30
0.0
 40
3.000000000000028
  0
LINE
  5
16A
330
1F
100
AcDbEntity
  8
0
  6
HIDDEN
 62
     7
370
     0
100
AcDbLine
 10
43.7207579496
 20
178.0565992104
 30
0.0
 11
43.7207579496
 21
166.2875468483
 31
0.0
  0
LINE
  5
16B
330
1F
100
AcDbEntity
  8
0
  6
HIDDEN
 62
     7
370
     0
100
AcDbLine
 10
43.7207579496
 20
160.4835720374
 30
0.0
 11
43.7207579496
 21
148.7145196753
 31
0.0
  0
LINE
  5
16C
330
1F
100
AcDbEntity
  8
0
  6
HIDDEN
 62
     7
370
     0
100
AcDbLine
 10
45.2207572642
 20
159.420348342
 30
0.0
 11
45.2207572642
 21
148.2815068322
 31
0.0
  0
LINE
  5
16D
330
1F
100
AcDbEntity
  8
0
  6
HIDDEN
 62
     7
370
     0
100
AcDbLine
 10
45.2207572642
 20
178.4896120535
 30
0.0
 11
45.2207572642
 21
167.3507705437
 31
0.0
  0
LINE
  5
16E
330
1F
100
AcDbEntity
  8
0
  6
HIDDEN
 62
     7
370
     0
100
AcDbLine
 10
81.5207567328
 20
178.423266496
 30
0.0
 11
81.5207567328
 21
148.3478523897
 31
0.0
  0
LINE
  5
16F
330
1F
100
AcDbEntity
  8
0
  6
HIDDEN
 62
     7
370
     0
100
AcDbLine
 10
79.5207567397
 20
178.9204800608
 30
0.0
 11
79.5207567397
 21
147.8506388249
 31
0.0
  0
SPLINE
  5
170
330
1F
100
AcDbEntity
  8
0
  6
HIDDEN
 62
     7
370
     0
100
AcDbSpline
210
0.0
220
0.0
230
1.0
 70
     8
 71
     3
 72
     8
 73
     4
 74
     0
 42
0.00000001
 43
0.00000001
 12
1.0
 22
0.0
 32
0.0
 13
1.0
 23
0.0
 33
0.0
 40
0.0000249638557296
 40
0.0000249638557296
 40
0.0000249638557296
 40
0.0000249638557296
 40
0.0049776420541172
 40
0.0049776420541172
 40
0.0049776420541172
 40
0.0049776420541172
 10
45.22075672773515
 20
159.4203485460104
 30
0.0
 10
46.8707329622447
 20
159.3790693082422
 30
0.0
 10
48.52073428198975
 20
159.3388476270028
 30
0.0
 10
50.17075672773519
 20
159.2995983897478
 30
0.0
  0
SPLINE
  5
171
330
1F
100
AcDbEntity
  8
0
  6
HIDDEN
 62
     7
370
     0
100
AcDbSpline
210
0.0
220
0.0
230
1.0
 70
     8
 71
     3
 72
     8
 73
     4
 74
     0
 42
0.00000001
 43
0.00000001
 12
1.0
 22
0.0
 32
0.0
 13
1.0
 23
0.0
 33
0.0
 40
0.0000249631533153
 40
0.0000249631533153
 40
0.0000249631533153
 40
0.0000249631533153
 40
0.0049776413517029
 40
0.0049776413517029
 40
0.0049776413517029
 40
0.0049776413517029
 10
50.17075672773512
 20
167.4715204959462
 30
0.0
 10
48.5207342819897
 20
167.4322712586911
 30
0.0
 10
46.87073296224467
 20
167.3920495774517
 30
0.0
 10
45.22075672773515
 20
167.3507703396835
 30
0.0
  0
SPLINE
  5
172
330
1F
100
AcDbEntity
  8
0
  6
HIDDEN
 62
     7
370
     0
100
AcDbSpline
210
0.0
220
0.0
230
1.0
 70
     8
 71
     3
 72
     8
 73
     4
 74
     0
 42
0.00000001
 43
0.00000001
 12
1.0
 22
0.0
 32
0.0
 13
1.0
 23
0.0
 33
0.0
 40
0.0
 40
0.0
 40
0.0
 40
0.0
 40
1.0
 40
1.0
 40
1.0
 40
1.0
 10
43.72075672773294
 20
160.4835721098667
 30
0.0
 10
44.18751733911072
 20
160.0682088642436
 30
0.0
 10
44.69326488589081
 20
159.723618434939
 30
0.0
 10
45.22075672773518
 20
159.4203485460104
 30
0.0
  0
SPLINE
  5
173
330
1F
100
AcDbEntity
  8
0
  6
HIDDEN
 62
     7
370
     0
100
AcDbSpline
210
0.0
220
0.0
230
1.0
 70
     8
 71
     3
 72
     8
 73
     4
 74
     0
 42
0.00000001
 43
0.00000001
 12
1.0
 22
0.0
 32
0.0
 13
1.0
 23
0.0
 33
0.0
 40
0.0
 40
0.0
 40
0.0
 40
0.0
 40
1.0
 40
1.0
 40
1.0
 40
1.0
 10
45.22075672773518
 20
167.3507703396835
 30
0.0
 10
44.69326488589167
 20
167.0475004507554
 30
0.0
 10
44.18751733911233
 20
166.7029100214514
 30
0.0
 10
43.72075672773518
 20
166.2875467758293
 30
0.0
  0
LINE
  5
174
330
1F
100
AcDbEntity
  8
0
  6
HIDDEN
 62
     7
370
     0
100
AcDbLine
 10
43.7207579496
 20
160.4835720374
 30
0.0
 11
43.7207579496
 21
166.2875468483
 31
0.0
  0
LINE
  5
175
330
1F
100
AcDbEntity
  8
0
  6
HIDDEN
 62
     7
370
     0
100
AcDbLine
 10
50.1707553747
 20
159.2995981792
 30
0.0
 11
50.1707553747
 21
167.4715207065
 31
0.0
  0
SPLINE
  5
176
330
1F
100
AcDbEntity
  8
0
  6
HIDDEN
 62
     7
370
     0
100
AcDbSpline
210
0.0
220
0.0
230
1.0
 70
     8
 71
     3
 72
    24
 73
    20
 74
     0
 42
0.00000001
 43
0.00000001
 12
1.0
 22
0.0
 32
0.0
 13
1.0
 23
0.0
 33
0.0
 40
0.0
 40
0.0
 40
0.0
 40
0.0
 40
0.1249999999999999
 40
0.1249999999999999
 40
0.2499999999999999
 40
0.2499999999999999
 40
0.3749999999999998
 40
0.3749999999999998
 40
0.4374999999999998
 40
0.4374999999999998
 40
0.4999999999999998
 40
0.4999999999999998
 40
0.6249999999999998
 40
0.6249999999999998
 40
0.7499999999999998
 40
0.7499999999999998
 40
0.8749999999999998
 40
0.8749999999999998
 40
1.0
 40
1.0
 40
1.0
 40
1.0
 10
50.17075672773513
 20
159.2995983897478
 30
0.0
 10
50.40856036001022
 20
159.5986054920779
 30
0.0
 10
50.6386460212215
 20
159.9029433433966
 30
0.0
 10
51.07339941983133
 20
160.5286768807926
 30
0.0
 10
51.2783322121175
 20
160.8499016081201
 30
0.0
 10
51.64343416261619
 20
161.5218273788529
 30
0.0
 10
51.80523454840768
 20
161.8771426107317
 30
0.0
 10
51.9770947529874
 20
162.4273738320842
 30
0.0
 10
52.02267994464751
 20
162.6137776170647
 30
0.0
 10
52.08515468422238
 20
162.9939121191609
 30
0.0
 10
52.10182582997084
 20
163.1895819114468
 30
0.0
 10
52.10234687314731
 20
163.7680622901212
 30
0.0
 10
52.03790457226064
 20
164.1459741290899
 30
0.0
 10
51.8080554788873
 20
164.8879421541884
 30
0.0
 10
51.64953480122421
 20
165.2366576143493
 30
0.0
 10
51.28530047132403
 20
165.9097500120825
 30
0.0
 10
51.07856423126047
 20
166.2347024993241
 30
0.0
 10
50.64062628552007
 20
166.8656263097859
 30
0.0
 10
50.40935355824053
 20
167.1715160501266
 30
0.0
 10
50.1707567277352
 20
167.4715204959461
 30
0.0
  0
SPLINE
  5
177
330
1F
100
AcDbEntity
  8
0
  6
HIDDEN
 62
     7
370
     0
100
AcDbSpline
210
0.0
220
0.0
230
1.0
 70
     8
 71
     3
 72
    72
 73
    68
 74
     0
 42
0.00000001
 43
0.00000001
 12
1.0
 22
0.0
 32
0.0
 13
1.0
 23
0.0
 33
0.0
 40
-0.03125
 40
-0.03125
 40
0.0
 40
0.0
 40
0.0312499999999998
 40
0.0312499999999998
 40
0.0624999999999995
 40
0.0624999999999995
 40
0.0937499999999993
 40
0.0937499999999993
 40
0.1249999999999991
 40
0.1249999999999991
 40
0.156249999999999
 40
0.156249999999999
 40
0.1874999999999989
 40
0.1874999999999989
 40
0.2187499999999989
 40
0.2187499999999989
 40
0.2499999999999988
 40
0.2499999999999988
 40
0.2812499999999988
 40
0.2812499999999988
 40
0.3124999999999988
 40
0.3124999999999988
 40
0.3437499999999988
 40
0.3437499999999988
 40
0.3749999999999988
 40
0.3749999999999988
 40
0.3906249999999988
 40
0.3906249999999988
 40
0.4062499999999988
 40
0.4062499999999988
 40
0.4374999999999988
 40
0.4374999999999988
 40
0.4687499999999989
 40
0.4687499999999989
 40
0.499999999999999
 40
0.499999999999999
 40
0.5312499999999991
 40
0.5312499999999991
 40
0.5624999999999992
 40
0.5624999999999992
 40
0.5937499999999993
 40
0.5937499999999993
 40
0.6249999999999994
 40
0.6249999999999994
 40
0.6562499999999996
 40
0.6562499999999996
 40
0.6874999999999997
 40
0.6874999999999997
 40
0.7187499999999998
 40
0.7187499999999998
 40
0.7499999999999998
 40
0.7499999999999998
 40
0.7812499999999999
 40
0.7812499999999999
 40
0.8125
 40
0.8125
 40
0.84375
 40
0.84375
 40
0.875
 40
0.875
 40
0.90625
 40
0.90625
 40
0.9375
 40
0.9375
 40
0.96875
 40
0.96875
 40
1.0
 40
1.0
 40
1.03125
 40
1.03125
 10
62.84470304656033
 20
165.8263930926618
 30
0.0
 10
63.21913326643422
 20
166.236748893147
 30
0.0
 10
63.42398586769985
 20
166.4203979758054
 30
0.0
 10
63.86685406454684
 20
166.7473528793008
 30
0.0
 10
64.10680948186513
 20
166.8911310874806
 30
0.0
 10
64.60242046463965
 20
167.1286484429265
 30
0.0
 10
64.85968675579413
 20
167.2239680078242
 30
0.0
 10
65.39304052363117
 20
167.3680535404587
 30
0.0
 10
65.66732066352948
 20
167.4157895474283
 30
0.0
 10
66.21374919810904
 20
167.4613716879621
 30
0.0
 10
66.48832551657681
 20
167.4599379278899
 30
0.0
 10
67.04029269084755
 20
167.407024619799
 30
0.0
 10
67.31090965341923
 20
167.3560548935948
 30
0.0
 10
67.83719482449841
 20
167.2074482666512
 30
0.0
 10
68.09482638790601
 20
167.1091628958941
 30
0.0
 10
68.59075255257952
 20
166.8649095367084
 30
0.0
 10
68.82373623037117
 20
166.7218294056862
 30
0.0
 10
69.26006950569617
 20
166.3939708552174
 30
0.0
 10
69.46535075955444
 20
166.2069772175172
 30
0.0
 10
69.83338505741463
 20
165.7975465976942
 30
0.0
 10
69.99490004739981
 20
165.5774411567097
 30
0.0
 10
70.27205773054695
 20
165.1056910752716
 30
0.0
 10
70.38845190998063
 20
164.8506745488304
 30
0.0
 10
70.56172594662726
 20
164.3294367254335
 30
0.0
 10
70.62017250109304
 20
164.0619526076525
 30
0.0
 10
70.66403722656892
 20
163.6500369483201
 30
0.0
 10
70.67121744319827
 20
163.5103296452446
 30
0.0
 10
70.67024941590283
 20
163.2342065897822
 30
0.0
 10
70.66224662648919
 20
163.0970300234514
 30
0.0
 10
70.61617389457679
 20
162.6880965821881
 30
0.0
 10
70.55523906212476
 20
162.4161703331839
 30
0.0
 10
70.37711890571624
 20
161.8929898167288
 30
0.0
 10
70.26155099437386
 20
161.6442778163654
 30
0.0
 10
69.97970421043458
 20
161.1713932913735
 30
0.0
 10
69.81283426501993
 20
160.9477840741413
 30
0.0
 10
69.44350871022114
 20
160.5431266859537
 30
0.0
 10
69.23872355392365
 20
160.3587130977841
 30
0.0
 10
68.79407060640743
 20
160.0296870628898
 30
0.0
 10
68.55922147689665
 20
159.8885189869016
 30
0.0
 10
68.06581171441962
 20
159.6501094581211
 30
0.0
 10
67.80452476071497
 20
159.5523269017162
 30
0.0
 10
67.27378648020232
 20
159.4069988735261
 30
0.0
 10
67.00414677930507
 20
159.3587094833311
 30
0.0
 10
66.45639543955988
 20
159.3102942595445
 30
0.0
 10
66.17649139770128
 20
159.3107524451804
 30
0.0
 10
65.62941348986625
 20
159.3609043007826
 30
0.0
 10
65.35980838517882
 20
159.4100778678146
 30
0.0
 10
64.82865362852274
 20
159.5577523911216
 30
0.0
 10
64.56735881207922
 20
159.6569075554872
 30
0.0
 10
64.07504483390385
 20
159.897920325964
 30
0.0
 10
63.84108795832523
 20
160.0404084505887
 30
0.0
 10
63.39891933779477
 20
160.3718958795736
 30
0.0
 10
63.19372580668309
 20
160.559329507562
 30
0.0
 10
62.8280315903251
 20
160.9662332266124
 30
0.0
 10
62.66526096793675
 20
161.1874123012814
 30
0.0
 10
62.38430853717119
 20
161.6671596304967
 30
0.0
 10
62.27110468489767
 20
161.9171715973069
 30
0.0
 10
62.09849596075875
 20
162.4372468073273
 30
0.0
 10
62.03888967808236
 20
162.7109782719571
 30
0.0
 10
61.98099790801251
 20
163.2595959218556
 30
0.0
 10
61.9817874468725
 20
163.5339357857472
 30
0.0
 10
62.04297792248889
 20
164.0826777368862
 30
0.0
 10
62.10410664622292
 20
164.3557430507433
 30
0.0
 10
62.28018633185273
 20
164.8759082995117
 30
0.0
 10
62.39651692684267
 20
165.1282274330706
 30
0.0
 10
62.67971815658339
 20
165.6046317744776
 30
0.0
 10
62.84470304656033
 20
165.8263930926618
 30
0.0
 10
63.21913326643422
 20
166.236748893147
 30
0.0
  0
CIRCLE
  5
178
330
1F
100
AcDbEntity
  8
0
  6
HIDDEN
 62
     7
370
     0
100
AcDbCircle
 10
66.2207567277
 20
163.3855594428
 30
0.0
 40
4.050000000000011
  0
LINE
  5
179
330
1F
100
AcDbEntity
  8
0
  6
HIDDEN
 62
     7
370
     0
100
AcDbLine
 10
251.8850587192
 20
163.3855594428
 30
0.0
 11
254.1596315685
 21
156.3855592268
 31
0.0
  0
CIRCLE
  5
17A
330
1F
100
AcDbEntity
  8
0
  6
HIDDEN
 62
     7
370
     0
100
AcDbCircle
 10
93.7207567277
 20
163.3855594428
 30
0.0
 40
2.0
  0
LINE
  5
17B
330
1F
100
AcDbEntity
  8
0
  6
HIDDEN
 62
     7
370
     0
100
AcDbLine
 10
81.7207567277
 20
139.1355587276
 30
0.0
 11
81.8136499482
 21
139.2284525665
 31
0.0
  0
LINE
  5
17C
330
1F
100
AcDbEntity
  8
0
  6
HIDDEN
 62
     7
370
     0
100
AcDbLine
 10
81.8136499482
 20
187.5426663192
 30
0.0
 11
81.7207567277
 21
187.6355601581
 31
0.0
  0
ARC
  5
17D
330
1F
100
AcDbEntity
  8
0
  6
HIDDEN
 62
     7
370
     0
100
AcDbCircle
 10
81.1065431654
 20
139.9355594428
 30
0.0
 40
1.000000000000008
100
AcDbArc
 50
315.0
 51
0.0
  0
ARC
  5
17E
330
1F
100
AcDbEntity
  8
0
  6
HIDDEN
 62
     7
370
     0
100
AcDbCircle
 10
81.1065431654
 20
139.9355594428
 30
0.0
 40
0.9999999999999858
100
AcDbArc
 50
0.0
 51
52.1052014663
  0
ARC
  5
17F
330
1F
100
AcDbEntity
  8
0
  6
HIDDEN
 62
     7
370
     0
100
AcDbCircle
 10
81.1065431654
 20
186.8355594428
 30
0.0
 40
1.000000000000028
100
AcDbArc
 50
351.8087250651
 51
45.0
  0
ARC
  5
180
330
1F
100
AcDbEntity
  8
0
  6
HIDDEN
 62
     7
370
     0
100
AcDbCircle
 10
81.1065431654
 20
186.8355594428
 30
0.0
 40
1.000000000000002
100
AcDbArc
 50
307.8947985337
 51
351.8087250651
  0
LINE
  5
181
330
1F
100
AcDbEntity
  8
0
  6
HIDDEN
 62
     7
370
     0
100
AcDbLine
 10
82.1065431635
 20
139.9355592313
 30
0.0
 11
82.1065431635
 21
186.8355596544
 31
0.0
  0
LINE
  5
182
330
1F
100
AcDbEntity
  8
0
  6
HIDDEN
 62
     7
370
     0
100
AcDbLine
 10
82.1065431635
 20
139.9355592313
 30
0.0
 11
82.1065431635
 21
186.8355596544
 31
0.0
  0
LINE
  5
183
330
1F
100
AcDbEntity
  8
0
  6
HIDDEN
 62
     7
370
     0
100
AcDbLine
 10
227.5560371461
 20
159.9640127843
 30
0.0
 11
219.7078041616
 21
164.9032342121
 31
0.0
  0
LINE
  5
184
330
1F
100
AcDbEntity
  8
0
  6
HIDDEN
 62
     7
370
     0
100
AcDbLine
 10
216.2211112562
 20
161.189785331
 30
0.0
 11
227.4357102695
 21
154.1319662811
 31
0.0
  0
LINE
  5
185
330
1F
100
AcDbEntity
  8
0
  6
HIDDEN
 62
     7
370
     0
100
AcDbLine
 10
43.7207579496
 20
147.1891297134
 30
0.0
 11
45.2509842697
 21
148.0726083847
 31
0.0
  0
LINE
  5
186
330
1F
100
AcDbEntity
  8
0
  6
HIDDEN
 62
     7
370
     0
100
AcDbLine
 10
45.2509842697
 20
178.698510501
 30
0.0
 11
43.7207579496
 21
179.5819891723
 31
0.0
  0
ARC
  5
187
330
1F
100
AcDbEntity
  8
0
  6
HIDDEN
 62
     7
370
     0
100
AcDbCircle
 10
54.7225580426
 20
149.3855594428
 30
0.0
 40
2.000000000000026
100
AcDbArc
 50
270.0
 51
315.0
  0
ARC
  5
188
330
1F
100
AcDbEntity
  8
0
  6
HIDDEN
 62
     7
370
     0
100
AcDbCircle
 10
54.7225580426
 20
177.3855594428
 30
0.0
 40
2.000000000000028
100
AcDbArc
 50
45.0
 51
90.0
  0
ARC
  5
189
330
1F
100
AcDbEntity
  8
0
  6
HIDDEN
 62
     7
370
     0
100
AcDbCircle
 10
53.7207567277
 20
149.3855594428
 30
0.0
 40
2.000000000000023
100
AcDbArc
 50
189.9742217944
 51
270.0
  0
ARC
  5
18A
330
1F
100
AcDbEntity
  8
0
  6
HIDDEN
 62
     7
370
     0
100
AcDbCircle
 10
53.7207567277
 20
177.3855594428
 30
0.0
 40
2.000000000000028
100
AcDbArc
 50
90.0
 51
170.0257782056
  0
LINE
  5
18B
330
1F
100
AcDbEntity
  8
0
  6
HIDDEN
 62
     7
370
     0
100
AcDbLine
 10
53.7207558635
 20
147.3855586829
 30
0.0
 11
54.7225572052
 21
147.3855586829
 31
0.0
  0
LINE
  5
18C
330
1F
100
AcDbEntity
  8
0
  6
HIDDEN
 62
     7
370
     0
100
AcDbLine
 10
54.7225572052
 20
179.3855602028
 30
0.0
 11
53.7207558635
 21
179.3855602028
 31
0.0
  0
LINE
  5
18D
330
1F
100
AcDbEntity
  8
0
  6
HIDDEN
 62
     7
370
     0
100
AcDbLine
 10
56.1367723974
 20
147.9713456812
 30
0.0
 11
57.550985727
 21
149.3855590107
 31
0.0
  0
LINE
  5
18E
330
1F
100
AcDbEntity
  8
0
  6
HIDDEN
 62
     7
370
     0
100
AcDbLine
 10
57.550985727
 20
177.385559875
 30
0.0
 11
56.1367723974
 21
178.7997732045
 31
0.0
  0
LINE
  5
18F
330
1F
100
AcDbEntity
  8
0
  6
HIDDEN
 62
     7
370
     0
100
AcDbLine
 10
45.2509842697
 20
148.0726083847
 30
0.0
 11
50.1509852591
 21
149.3855590107
 31
0.0
  0
LINE
  5
190
330
1F
100
AcDbEntity
  8
0
  6
HIDDEN
 62
     7
370
     0
100
AcDbLine
 10
50.1509852591
 20
177.385559875
 30
0.0
 11
45.2509842697
 21
178.698510501
 31
0.0
  0
LINE
  5
191
330
1F
100
AcDbEntity
  8
0
  6
HIDDEN
 62
     7
370
     0
100
AcDbLine
 10
51.7509844038
 20
177.7319699632
 30
0.0
 11
51.150985423
 21
177.385559875
 31
0.0
  0
LINE
  5
192
330
1F
100
AcDbEntity
  8
0
  6
HIDDEN
 62
     7
370
     0
100
AcDbLine
 10
51.150985423
 20
149.3855590107
 30
0.0
 11
51.7509844038
 21
149.0391489225
 31
0.0
  0
ARC
  5
193
330
1F
100
AcDbEntity
  8
0
  6
HIDDEN
 62
     7
370
     0
100
AcDbCircle
 10
70.2207567277
 20
149.8855594428
 30
0.0
 40
0.5000000000000284
100
AcDbArc
 50
270.0
 51
360.0
  0
ARC
  5
194
330
1F
100
AcDbEntity
  8
0
  6
HIDDEN
 62
     7
370
     0
100
AcDbCircle
 10
70.2207567277
 20
176.8855594428
 30
0.0
 40
0.5000000000000284
100
AcDbArc
 50
0.0
 51
90.0
  0
LINE
  5
195
330
1F
100
AcDbEntity
  8
0
  6
HIDDEN
 62
     7
370
     0
100
AcDbLine
 10
50.1509852591
 20
149.3855590107
 30
0.0
 11
51.150985423
 21
149.3855590107
 31
0.0
  0
LINE
  5
196
330
1F
100
AcDbEntity
  8
0
  6
HIDDEN
 62
     7
370
     0
100
AcDbLine
 10
51.150985423
 20
177.385559875
 30
0.0
 11
50.1509852591
 21
177.385559875
 31
0.0
  0
LINE
  5
197
330
1F
100
AcDbEntity
  8
0
  6
HIDDEN
 62
     7
370
     0
100
AcDbLine
 10
57.550985727
 20
149.3855590107
 30
0.0
 11
70.2207567054
 21
149.3855590107
 31
0.0
  0
LINE
  5
198
330
1F
100
AcDbEntity
  8
0
  6
HIDDEN
 62
     7
370
     0
100
AcDbLine
 10
70.2207567054
 20
177.385559875
 30
0.0
 11
57.550985727
 21
177.385559875
 31
0.0
  0
LINE
  5
199
330
1F
100
AcDbEntity
  8
0
  6
HIDDEN
 62
     7
370
     0
100
AcDbLine
 10
70.7207567873
 20
153.1355591597
 30
0.0
 11
71.9707565266
 21
154.3855598303
 31
0.0
  0
LINE
  5
19A
330
1F
100
AcDbEntity
  8
0
  6
HIDDEN
 62
     7
370
     0
100
AcDbLine
 10
71.9707565266
 20
172.3855590554
 30
0.0
 11
70.7207567873
 21
173.635559726
 31
0.0
  0
LINE
  5
19B
330
1F
100
AcDbEntity
  8
0
  6
HIDDEN
 62
     7
370
     0
100
AcDbLine
 10
71.9707565266
 20
154.3855598303
 30
0.0
 11
97.7207574877
 21
154.3855598303
 31
0.0
  0
LINE
  5
19C
330
1F
100
AcDbEntity
  8
0
  6
HIDDEN
 62
     7
370
     0
100
AcDbLine
 10
97.7207574877
 20
172.3855590554
 30
0.0
 11
71.9707565266
 21
172.3855590554
 31
0.0
  0
LINE
  5
19D
330
1F
100
AcDbEntity
  8
0
  6
HIDDEN
 62
     7
370
     0
100
AcDbLine
 10
97.7207574877
 20
154.3855598303
 30
0.0
 11
100.5748439464
 21
159.1355592119
 31
0.0
  0
LINE
  5
19E
330
1F
100
AcDbEntity
  8
0
  6
HIDDEN
 62
     7
370
     0
100
AcDbLine
 10
100.5748439464
 20
167.6355596738
 30
0.0
 11
97.7207574877
 21
172.3855590554
 31
0.0
  0
LINE
  5
19F
330
1F
100
AcDbEntity
  8
0
  6
HIDDEN
 62
     7
370
     0
100
AcDbLine
 10
249.5165489498
 20
161.3025342686
 30
0.0
 11
249.090137321
 21
162.1460425541
 31
0.0
  0
LINE
  5
1A0
330
1F
100
AcDbEntity
  8
0
  6
HIDDEN
 62
     7
370
     0
100
AcDbLine
 10
242.8430043044
 20
158.9879734548
 30
0.0
 11
243.2694159332
 21
158.1444652857
 31
0.0
  0
LINE
  5
1A1
330
1F
100
AcDbEntity
  8
0
  6
HIDDEN
 62
     7
370
     0
100
AcDbLine
 10
239.0113942209
 20
154.0223989742
 30
0.0
 11
239.9751566234
 21
152.1159546556
 31
0.0
  0
LINE
  5
1A2
330
1F
100
AcDbEntity
  8
0
  6
HIDDEN
 62
     7
370
     0
100
AcDbLine
 10
100.5748439464
 20
159.1355592119
 30
0.0
 11
221.7207573238
 21
159.1355592119
 31
0.0
  0
LINE
  5
1A3
330
1F
100
AcDbEntity
  8
0
  6
HIDDEN
 62
     7
370
     0
100
AcDbLine
 10
221.7207573238
 20
167.6355596738
 30
0.0
 11
100.5748439464
 21
167.6355596738
 31
0.0
  0
LINE
  5
1A4
330
1F
100
AcDbEntity
  8
0
  6
HIDDEN
 62
     7
370
     0
100
AcDbLine
 10
221.7207573238
 20
159.1355592119
 30
0.0
 11
224.2744140211
 21
163.3855594428
 31
0.0
  0
LINE
  5
1A5
330
1F
100
AcDbEntity
  8
0
  6
HIDDEN
 62
     7
370
     0
100
AcDbLine
 10
224.2744140211
 20
163.3855594428
 30
0.0
 11
221.7207573238
 21
167.6355596738
 31
0.0
  0
LINE
  5
1A6
330
1F
100
AcDbEntity
  8
0
  6
HIDDEN
 62
     7
370
     0
100
AcDbLine
 10
252.0271859947
 20
152.6281410935
 30
0.0
 11
248.835178453
 21
159.8881817064
 31
0.0
  0
LINE
  5
1A7
330
1F
100
AcDbEntity
  8
0
  6
HIDDEN
 62
     7
370
     0
100
AcDbLine
 10
249.6708802762
 20
162.5488185547
 30
0.0
 11
247.3544649663
 21
167.1310363909
 31
0.0
  0
LINE
  5
1A8
330
1F
100
AcDbEntity
  8
0
  6
HIDDEN
 62
     7
370
     0
100
AcDbLine
 10
239.8203037563
 20
163.415762505
 30
0.0
 11
242.174329597
 21
158.759135391
 31
0.0
  0
LINE
  5
1A9
330
1F
100
AcDbEntity
  8
0
  6
HIDDEN
 62
     7
370
     0
100
AcDbLine
 10
254.1811041418
 20
148.9626789572
 30
0.0
 11
253.522562224
 21
150.2653468507
 31
0.0
  0
LINE
  5
1AA
330
1F
100
AcDbEntity
  8
0
  6
HIDDEN
 62
     7
370
     0
100
AcDbLine
 10
247.8109024349
 20
147.3779684039
 30
0.0
 11
248.4694443527
 21
146.0753014418
 31
0.0
  0
LINE
  5
1AB
330
1F
100
AcDbEntity
  8
0
  6
HIDDEN
 62
     7
370
     0
100
AcDbLine
 10
245.4705409589
 20
154.6195332067
 30
0.0
 11
247.9492895189
 21
148.9817934217
 31
0.0
  0
LINE
  5
1AC
330
1F
100
AcDbEntity
  8
VERMASSUNG
  6
CENTERX2
100
AcDbLine
 10
39.5503093024
 20
163.3855594428
 30
0.0
 11
261.7207567277
 21
163.3855594428
 31
0.0
  0
LINE
  5
1AD
330
1F
100
AcDbEntity
  8
VERMASSUNG
  6
CENTERX2
100
AcDbLine
 10
261.7207567277
 20
163.3855594428
 30
0.0
 11
261.7207567277
 21
136.3855594428
 31
0.0
  0
LINE
  5
1AE
330
1F
100
AcDbEntity
  8
VERMASSUNG
  6
CENTERX2
100
AcDbLine
 10
261.7207567277
 20
136.3855594428
 30
0.0
 11
281.4864594635
 21
136.3855594428
 31
0.0
  0
DIMENSION
  5
1AF
330
1F
100
AcDbEntity
  8
VERMASSUNG
100
AcDbDimension
  2
_D
 10
261.7207567277
 20
124.8615180648
 30
0.0
 11
171.7207567277
 21
124.8615180648
 31
0.0
 70
   160
  1
<>
 71
     2
 42
-1.0
  3
SLDDIMSTYLE0
100
AcDbAlignedDimension
 13
81.7207567277
 23
132.3855594428
 33
0.0
 14
261.7207567277
 24
136.3855594428
 34
0.0
100
AcDbRotatedDimension
  0
DIMENSION
  5
1BA
330
1F
100
AcDbEntity
  8
VERMASSUNG
100
AcDbDimension
  2
_D_1
 10
43.7207567277
 20
115.8855594428
 30
0.0
 11
152.7207567277
 21
115.8855594428
 31
0.0
 70
   160
  1
<>
 71
     2
 42
-1.0
  3
SLDDIMSTYLE0
100
AcDbAlignedDimension
 13
261.7207567277
 23
136.3855594428
 33
0.0
 14
43.7207567277
 24
143.0932214503
 34
0.0
100
AcDbRotatedDimension
  0
DIMENSION
  5
1C4
330
1F
100
AcDbEntity
  8
VERMASSUNG
100
AcDbDimension
  2
_D_2
 10
280.5479797995
 20
136.3855594428
 30
0.0
 11
280.5479797995
 21
149.8855594428
 31
0.0
 70
   160
  1
<>
 71
     2
 42
-1.0
  3
SLDDIMSTYLE0
100
AcDbAlignedDimension
 13
261.7207567277
 23
163.3855594428
 33
0.0
 14
261.7207567277
 24
136.3855594428
 34
0.0
 50
90.0
100
AcDbRotatedDimension
  0
DIMENSION
  5
1CE
330
1F
100
AcDbEntity
  8
VERMASSUNG
100
AcDbDimension
  2
_D_3
 10
257.4494179625
 20
150.3850092193
 30
0.0
 11
269.3032335601
 21
146.5304816488
 31
0.0
 70
   162
  1
<>
 71
     1
 42
-1.0
  3
SLDDIMSTYLE1
100
AcDb2LineAngularDimension
 13
261.7207567277
 23
136.3855594428
 33
0.0
 14
281.4864594635
 24
136.3855594428
 34
0.0
 15
261.7041605142
 25
136.8983783347
 35
0.0
 16
269.3032335601
 26
146.5304816488
 36
0.0
  0
DIMENSION
  5
1D7
330
1F
100
AcDbEntity
  8
VERMASSUNG
100
AcDbDimension
  2
_D_4
 10
33.7207067277
 20
131.8855594428
 30
0.0
 11
33.7207067277
 21
163.3855594428
 31
0.0
 70
   160
  1
PSC%%c<>
 71
     2
 42
-1.0
  3
SLDDIMSTYLE0
100
AcDbAlignedDimension
 13
82.2207567277
 23
194.8855594428
 33
0.0
 14
82.2207567277
 24
131.8855594428
 34
0.0
 50
90.0
100
AcDbRotatedDimension
  0
DIMENSION
  5
1E3
330
1F
100
AcDbEntity
  8
VERMASSUNG
100
AcDbDimension
  2
_D_5
 10
130.253074767
 20
183.3855594428
 30
0.0
 11
130.253074767
 21
153.8677677204
 31
0.0
 70
   160
  1
%%c<>
 71
     2
 42
-1.0
  3
SLDDIMSTYLE0
100
AcDbAlignedDimension
 13
107.7207567277
 23
143.3855594428
 33
0.0
 14
107.7207567277
 24
183.3855594428
 34
0.0
 50
90.0
100
AcDbRotatedDimension
  0
LINE
  5
1EC
330
1F
100
AcDbEntity
  8
0
  6
Continuous
 62
     7
370
    15
100
AcDbLine
 10
167.9084944613
 20
60.5749965664
 30
0.0
 11
167.7539126091
 21
60.3340587016
 31
0.0
  0
LINE
  5
1ED
330
1F
100
AcDbEntity
  8
0
  6
Continuous
 62
     7
370
    15
100
AcDbLine
 10
169.2012335248
 20
53.5249499856
 30
0.0
 11
169.4404488504
 21
53.3677161923
 31
0.0
  0
LINE
  5
1EE
330
1F
100
AcDbEntity
  8
0
  6
Continuous
 62
     7
370
    15
100
AcDbLine
 10
180.8841993175
 20
35.3402001104
 30
0.0
 11
183.55233372
 21
35.9073308548
 31
0.0
  0
LINE
  5
1EF
330
1F
100
AcDbEntity
  8
0
  6
Continuous
 62
     7
370
    15
100
AcDbLine
 10
183.5619282052
 20
35.9150328925
 30
0.0
 11
183.7885133996
 21
36.2681978634
 31
0.0
  0
LINE
  5
1F0
330
1F
100
AcDbEntity
  8
0
  6
Continuous
 62
     7
370
    15
100
AcDbLine
 10
174.7343453777
 20
33.7009736589
 30
0.0
 11
180.9115569182
 21
35.0139801642
 31
0.0
  0
LINE
  5
1F1
330
1F
100
AcDbEntity
  8
0
  6
Continuous
 62
     7
370
    15
100
AcDbLine
 10
173.5898705507
 20
36.9898070833
 30
0.0
 11
174.0768511505
 21
36.4383821628
 31
0.0
  0
LINE
  5
1F2
330
1F
100
AcDbEntity
  8
0
  6
Continuous
 62
     7
370
    15
100
AcDbLine
 10
170.2733413391
 20
49.5692258021
 30
0.0
 11
170.0107987113
 21
48.7339440054
 31
0.0
  0
LINE
  5
1F3
330
1F
100
AcDbEntity
  8
0
  6
Continuous
 62
     7
370
    15
100
AcDbLine
 10
169.2115460597
 20
52.0961554042
 30
0.0
 11
168.9035502337
 21
52.0306890151
 31
0.0
  0
LINE
  5
1F4
330
1F
100
AcDbEntity
  8
0
  6
Continuous
 62
     7
370
    15
100
AcDbLine
 10
180.4862819686
 20
50.0027396968
 30
0.0
 11
171.5171652455
 21
48.0962953782
 31
0.0
  0
LINE
  5
1F5
330
1F
100
AcDbEntity
  8
0
  6
Continuous
 62
     7
370
    15
100
AcDbLine
 10
171.5171652455
 20
48.0962953782
 30
0.0
 11
164.0988575369
 21
78.1962880185
 31
0.0
  0
ARC
  5
1F6
330
1F
100
AcDbEntity
  8
0
  6
Continuous
 62
     7
370
    15
100
AcDbCircle
 10
174.7868392691
 20
60.7029450378
 30
0.0
 40
20.50000000000005
100
AcDbArc
 50
0.0
 51
121.4238546944
  0
LINE
  5
1F7
330
1F
100
AcDbEntity
  8
0
  6
Continuous
 62
     7
370
    15
100
AcDbLine
 10
195.2868398353
 20
60.7029450378
 30
0.0
 11
195.2868398353
 21
53.7029448217
 31
0.0
  0
ARC
  5
1F8
330
1F
100
AcDbEntity
  8
0
  6
Continuous
 62
     7
370
    15
100
AcDbCircle
 10
175.2868392691
 20
53.7029450378
 30
0.0
 40
20.00000000000003
100
AcDbArc
 50
307.2146920494
 51
0.0
  0
LINE
  5
1F9
330
1F
100
AcDbEntity
  8
0
  6
Continuous
 62
     7
370
    15
100
AcDbLine
 10
183.7013406753
 20
36.9929065248
 30
0.0
 11
187.3829063102
 21
37.7754484555
 31
0.0
  0
LINE
  5
1FA
330
1F
100
AcDbEntity
  8
0
  6
Continuous
 62
     7
370
    15
100
AcDbLine
 10
180.5869760997
 20
49.5941694146
 30
0.0
 11
180.4862819686
 21
50.0027396968
 31
0.0
  0
ARC
  5
1FB
330
1F
100
AcDbEntity
  8
0
  6
Continuous
 62
     7
370
    15
100
AcDbCircle
 10
175.2868392691
 20
53.7029450378
 30
0.0
 40
20.00000000000003
100
AcDbArc
 50
302.4208196538
 51
307.2146920494
  0
LINE
  5
1FC
330
1F
100
AcDbEntity
  8
0
  6
Continuous
 62
     7
370
    15
100
AcDbLine
 10
186.0095109865
 20
36.8202821603
 30
0.0
 11
183.7983584106
 21
36.3502864978
 31
0.0
  0
LWPOLYLINE
  5
1FD
330
1F
100
AcDbEntity
  8
0
  6
Continuous
 62
     7
370
    15
100
AcDbPolyline
 90
       26
 70
   128
 43
0.0
 10
169.3468318395
 20
53.0249084598
 10
169.4224128574
 20
53.169448792
 10
169.4409890175
 20
53.5507490179
 10
169.4013938382
 20
54.1448513298
 10
169.3061144166
 20
54.9144264562
 10
169.161138691
 20
55.8111182666
 10
168.9755749963
 20
56.778584539
 10
168.7610830255
 20
57.7560362192
 10
168.5311408788
 20
58.6820563088
 10
168.3001956977
 20
59.4984592656
 10
168.0827593505
 20
60.1539476677
 10
167.8924938738
 20
60.6073348438
 10
167.7413546555
 20
60.8301327059
 10
167.6388379261
 20
60.808342086
 10
167.5913851783
 20
60.5433321519
 10
167.6019780412
 20
60.0517544565
 10
167.6699515507
 20
59.3644966623
 10
167.7910337299
 20
58.5247417232
 10
167.9576170705
 20
57.5852542436
 10
168.1592349037
 20
56.6050661048
 10
168.3832179829
 20
55.6457661344
 10
168.6154930927
 20
54.767629995
 10
168.8414654769
 20
54.0258352897
 10
169.0469366573
 20
53.4669905221
 10
169.218995709
 20
53.1262107445
 10
169.3468318395
 20
53.0249084598
  0
SPLINE
  5
1FE
330
1F
100
AcDbEntity
  8
0
  6
Continuous
 62
     7
370
    15
100
AcDbSpline
210
0.0
220
0.0
230
1.0
 70
     8
 71
     3
 72
    10
 73
     6
 74
     0
 42
0.00000001
 43
0.00000001
 12
1.0
 22
0.0
 32
0.0
 13
1.0
 23
0.0
 33
0.0
 40
0.0
 40
0.0
 40
0.0
 40
0.0
 40
0.5
 40
0.5
 40
1.0
 40
1.0
 40
1.0
 40
1.0
 10
170.8242690714868
 20
40.80069509916436
 30
0.0
 10
170.793687559013
 20
40.89889959363509
 30
0.0
 10
170.7651011971506
 20
40.97916055915879
 30
0.0
 10
170.7148315227087
 20
41.09355044329986
 30
0.0
 10
170.6937298782908
 20
41.12625735257284
 30
0.0
 10
170.678404672181
 20
41.12947408440016
 30
0.0
  0
ARC
  5
1FF
330
1F
100
AcDbEntity
  8
0
  6
Continuous
 62
     7
370
    15
100
AcDbCircle
 10
174.7868392691
 20
60.7029450378
 30
0.0
 40
20.00000000000006
100
AcDbArc
 50
257.3251641078
 51
258.1458121791
  0
ARC
  5
200
330
1F
100
AcDbEntity
  8
0
  6
Continuous
 62
     7
370
    15
100
AcDbCircle
 10
174.7868392691
 20
60.7029450378
 30
0.0
 40
20.00000000000001
100
AcDbArc
 50
125.8541878209
 51
126.6748358922
  0
SPLINE
  5
201
330
1F
100
AcDbEntity
  8
0
  6
Continuous
 62
     7
370
    15
100
AcDbSpline
210
0.0
220
0.0
230
1.0
 70
     8
 71
     3
 72
     8
 73
     4
 74
     0
 42
0.00000001
 43
0.00000001
 12
1.0
 22
0.0
 32
0.0
 13
1.0
 23
0.0
 33
0.0
 40
0.0
 40
0.0
 40
0.0
 40
0.0
 40
1.0
 40
1.0
 40
1.0
 40
1.0
 10
163.0723496361418
 20
76.91314962130261
 30
0.0
 10
163.0977017067981
 20
76.93147058494917
 30
0.0
 10
163.0958668986366
 20
77.06871027507421
 30
0.0
 10
163.071876934791
 20
77.27283256595018
 30
0.0
  0
SPLINE
  5
202
330
1F
100
AcDbEntity
  8
0
  6
Continuous
 62
     7
370
    15
100
AcDbSpline
210
0.0
220
0.0
230
1.0
 70
     8
 71
     3
 72
     8
 73
     4
 74
     0
 42
0.00000001
 43
0.00000001
 12
1.0
 22
0.0
 32
0.0
 13
1.0
 23
0.0
 33
0.0
 40
0.0
 40
0.0
 40
0.0
 40
0.0
 40
1.0
 40
1.0
 40
1.0
 40
1.0
 10
163.0718769347909
 20
77.27283256595068
 30
0.0
 10
163.0627099265977
 20
77.35083146269402
 30
0.0
 10
163.0535591597789
 20
77.42878184715552
 30
0.0
 10
163.0444241106549
 20
77.50668528354277
 30
0.0
  0
ARC
  5
203
330
1F
100
AcDbEntity
  8
0
  6
Continuous
 62
     7
370
    15
100
AcDbCircle
 10
174.7868392691
 20
60.7029450378
 30
0.0
 40
20.50000000000004
100
AcDbArc
 50
121.4238546944
 51
124.9457616672
  0
ARC
  5
204
330
1F
100
AcDbEntity
  8
0
  6
Continuous
 62
     7
370
    15
100
AcDbCircle
 10
182.6586289103
 20
53.2102984656
 30
0.0
 40
13.77124915179653
100
AcDbArc
 50
187.7864665089
 51
199.9034252204
  0
LWPOLYLINE
  5
205
330
1F
100
AcDbEntity
  8
0
  6
Continuous
 62
     7
370
    15
100
AcDbPolyline
 90
        4
 70
   128
 43
0.0
 10
168.9342089072
 20
52.0372054791
 10
168.9296840764
 20
52.2663955829
 10
168.9707330502
 20
52.4317612192
 10
169.0653693937
 20
52.3497470906
  0
ARC
  5
206
330
1F
100
AcDbEntity
  8
0
  6
Continuous
 62
     7
370
    15
100
AcDbCircle
 10
171.6667572922
 20
38.5098928714
 30
0.0
 40
0.5679861722967572
100
AcDbArc
 50
43.0202515511
 51
92.0125556323
  0
LINE
  5
207
330
1F
100
AcDbEntity
  8
0
  6
Continuous
 62
     7
370
    15
100
AcDbLine
 10
171.3804196175
 20
39.0209061345
 30
0.0
 11
171.6468104701
 21
39.0775286844
 31
0.0
  0
SPLINE
  5
208
330
1F
100
AcDbEntity
  8
0
  6
Continuous
 62
     7
370
    15
100
AcDbSpline
210
0.0
220
0.0
230
1.0
 70
     8
 71
     3
 72
     8
 73
     4
 74
     0
 42
0.00000001
 43
0.00000001
 12
1.0
 22
0.0
 32
0.0
 13
1.0
 23
0.0
 33
0.0
 40
0.0
 40
0.0
 40
0.0
 40
0.0
 40
1.0
 40
1.0
 40
1.0
 40
1.0
 10
171.38041953499
 20
39.02090597676482
 30
0.0
 10
171.1952978014251
 20
39.61144562594006
 30
0.0
 10
171.009937182473
 20
40.20447073013427
 30
0.0
 10
170.8242690714868
 20
40.80069509916448
 30
0.0
  0
LINE
  5
209
330
1F
100
AcDbEntity
  8
0
  6
Continuous
 62
     7
370
    15
100
AcDbLine
 10
169.0653693937
 20
52.3497470906
 30
0.0
 11
171.5171652455
 21
48.0962953782
 31
0.0
  0
SPLINE
  5
20A
330
1F
100
AcDbEntity
  8
0
  6
Continuous
 62
     7
370
    15
100
AcDbSpline
210
0.0
220
0.0
230
1.0
 70
     8
 71
     3
 72
    30
 73
    26
 74
     0
 42
0.00000001
 43
0.00000001
 12
1.0
 22
0.0
 32
0.0
 13
1.0
 23
0.0
 33
0.0
 40
0.0
 40
0.0
 40
0.0
 40
0.0
 40
0.1250000000000026
 40
0.1250000000000026
 40
0.1875000000000039
 40
0.1875000000000039
 40
0.2500000000000051
 40
0.2500000000000051
 40
0.3750000000000051
 40
0.3750000000000051
 40
0.5000000000000052
 40
0.5000000000000052
 40
0.5625000000000043
 40
0.5625000000000043
 40
0.6250000000000034
 40
0.6250000000000034
 40
0.6875000000000026
 40
0.6875000000000026
 40
0.7500000000000013
 40
0.7500000000000013
 40
0.8749999999999988
 40
0.8749999999999988
 40
0.9374999999999994
 40
0.9374999999999994
 40
1.0
 40
1.0
 40
1.0
 40
1.0
 10
162.4844476929116
 20
57.19172980712402
 30
0.0
 10
162.8107660750665
 20
57.09421159302764
 30
0.0
 10
163.1034259676934
 20
56.94031789092375
 30
0.0
 10
163.5138252751874
 20
56.66008106179517
 30
0.0
 10
163.64596803747
 20
56.55742471994275
 30
0.0
 10
163.8961148753715
 20
56.34139030859875
 30
0.0
 10
164.014883299445
 20
56.22754506009009
 30
0.0
 10
164.3549323918272
 20
55.87024508864571
 30
0.0
 10
164.5604092251211
 20
55.61157079888838
 30
0.0
 10
164.930534957292
 20
55.04910736337816
 30
0.0
 10
165.0913713513988
 20
54.75203160531441
 30
0.0
 10
165.2824513690352
 20
54.27350661409162
 30
0.0
 10
165.337309663706
 20
54.10840122409711
 30
0.0
 10
165.420313683875
 20
53.77374016321412
 30
0.0
 10
165.4491467365825
 20
53.60081674055711
 30
0.0
 10
165.4689699765216
 20
53.25717746869566
 30
0.0
 10
165.4599855347642
 20
53.08677100894288
 30
0.0
 10
165.3958995033208
 20
52.75787831896753
 30
0.0
 10
165.3422987600851
 20
52.60540999748113
 30
0.0
 10
165.1166433231596
 20
52.17978253089201
 30
0.0
 10
164.887196426178
 20
51.95574646830185
 30
0.0
 10
164.4821478639946
 20
51.70578198655225
 30
0.0
 10
164.3350264841363
 20
51.63567601471959
 30
0.0
 10
164.0296484355195
 20
51.5236818624932
 30
0.0
 10
163.8704037148605
 20
51.48103491858605
 30
0.0
 10
163.7046269585818
 20
51.45123769489038
 30
0.0
  0
SPLINE
  5
20B
330
1F
100
AcDbEntity
  8
0
  6
Continuous
 62
     7
370
    15
100
AcDbSpline
210
0.0
220
0.0
230
1.0
 70
     8
 71
     3
 72
    20
 73
    16
 74
     0
 42
0.00000001
 43
0.00000001
 12
1.0
 22
0.0
 32
0.0
 13
1.0
 23
0.0
 33
0.0
 40
0.0
 40
0.0
 40
0.0
 40
0.0
 40
0.1250000000000006
 40
0.1250000000000006
 40
0.2500000000000011
 40
0.2500000000000011
 40
0.3750000000000017
 40
0.3750000000000017
 40
0.5000000000000022
 40
0.5000000000000022
 40
0.6250000000000028
 40
0.6250000000000028
 40
0.7500000000000033
 40
0.7500000000000033
 40
1.0
 40
1.0
 40
1.0
 40
1.0
 10
170.3984846336605
 20
41.19032492684675
 30
0.0
 10
170.3613439623374
 20
41.1986777998201
 30
0.0
 10
170.2958056865657
 20
41.2134704640668
 30
0.0
 10
170.1111001130674
 20
41.25695663030601
 30
0.0
 10
169.991184005991
 20
41.28583050010874
 30
0.0
 10
169.6995409846742
 20
41.36019335822533
 30
0.0
 10
169.530917742259
 20
41.40491174529751
 30
0.0
 10
169.1518467260036
 20
41.51217488404907
 30
0.0
 10
168.9396413098055
 20
41.57527397672077
 30
0.0
 10
168.4826268807822
 20
41.72099491777777
 30
0.0
 10
168.2402129645029
 20
41.80281705132325
 30
0.0
 10
167.7315092970866
 20
41.98676292543372
 30
0.0
 10
167.4632470237493
 20
42.08970525559234
 30
0.0
 10
166.6414270702087
 20
42.4271945915869
 30
0.0
 10
166.0764825802176
 20
42.68772706822561
 30
0.0
 10
165.503551393985
 20
42.98796363141562
 30
0.0
  0
SPLINE
  5
20C
330
1F
100
AcDbEntity
  8
0
  6
Continuous
 62
     7
370
    15
100
AcDbSpline
210
0.0
220
0.0
230
1.0
 70
     8
 71
     3
 72
    18
 73
    14
 74
     0
 42
0.00000001
 43
0.00000001
 12
1.0
 22
0.0
 32
0.0
 13
1.0
 23
0.0
 33
0.0
 40
0.0
 40
0.0
 40
0.0
 40
0.0
 40
0.2499999999999946
 40
0.2499999999999946
 40
0.3749999999999939
 40
0.3749999999999939
 40
0.4999999999999933
 40
0.4999999999999933
 40
0.6249999999999927
 40
0.6249999999999927
 40
0.7499999999999921
 40
0.7499999999999921
 40
1.0
 40
1.0
 40
1.0
 40
1.0
 10
159.1008017294234
 20
73.11053248676707
 30
0.0
 10
159.5024651384716
 20
73.61832720016702
 30
0.0
 10
159.912348254299
 20
74.08571746309681
 30
0.0
 10
160.5243069980919
 20
74.72676204325475
 30
0.0
 10
160.7286835680715
 20
74.93113102042581
 30
0.0
 10
161.118216951936
 20
75.30574552336635
 30
0.0
 10
161.3051230634196
 20
75.47790855416336
 30
0.0
 10
161.6591846368416
 20
75.79336924046915
 30
0.0
 10
161.8272881229803
 20
75.93744334870041
 30
0.0
 10
162.1341700073703
 20
76.19326024592232
 30
0.0
 10
162.2699010690451
 20
76.30257598644599
 30
0.0
 10
162.6208290897172
 20
76.57988135648988
 30
0.0
 10
162.7801910572481
 20
76.69813866592101
 30
0.0
 10
162.8413802238334
 20
76.7437058737942
 30
0.0
  0
ELLIPSE
  5
20D
330
1F
100
AcDbEntity
  8
0
  6
Continuous
 62
     7
370
    15
100
AcDbEllipse
 10
162.4838947875
 20
54.3653753056
 30
0.0
 11
-2.143417157302565
 21
2.483736727519315
 31
0.0
210
0.0
220
0.0
230
1.0
 40
0.7425888588
 41
5.422747723453325
 42
9.010913724955065
  0
ARC
  5
20E
330
1F
100
AcDbEntity
  8
0
  6
Continuous
 62
     7
370
    15
100
AcDbCircle
 10
174.7868392691
 20
60.7029450378
 30
0.0
 40
20.00000000000002
100
AcDbArc
 50
141.6561564452
 51
242.3438435548
  0
CIRCLE
  5
20F
330
1F
100
AcDbEntity
  8
0
  6
Continuous
 62
     7
370
    15
100
AcDbCircle
 10
174.7868392691
 20
60.7029450378
 30
0.0
 40
31.50000000000005
  0
LWPOLYLINE
  5
210
330
1F
100
AcDbEntity
  8
0
  6
Continuous
 62
     7
370
    15
100
AcDbPolyline
 90
       24
 70
   128
 43
0.0
 10
167.8615399711
 20
60.3212866893
 10
168.0152654722
 20
60.0540074422
 10
168.2060673907
 20
59.5555910161
 10
168.4197952114
 20
58.8630026225
 10
168.640597824
 20
58.027608485
 10
168.8520988524
 20
57.1113658855
 10
169.0386124961
 20
56.1822284265
 10
169.1863062866
 20
55.3091055965
 10
169.2842260077
 20
54.5567538841
 10
169.3251092061
 20
53.9809706873
 10
169.3059244268
 20
53.62445994
 10
169.2280937992
 20
53.5136618903
 10
169.0973901264
 20
53.6567940629
 10
168.9235070795
 20
54.0432412429
 10
168.719340682
 20
54.6443424439
 10
168.5000328421
 20
55.4155166513
 10
168.2818491086
 20
56.2995690173
 10
168.0809702799
 20
57.2309337343
 10
167.9122956544
 20
58.1405360038
 10
167.7883342914
 20
58.960914311
 10
167.7182802074
 20
59.6312252358
 10
167.7073292509
 20
60.1017547208
 10
167.7562930696
 20
60.3376059055
 10
167.8615399711
 20
60.3212866893
  0
LWPOLYLINE
  5
211
330
1F
100
AcDbEntity
  8
0
  6
Continuous
 62
     7
370
    15
100
AcDbPolyline
 90
       19
 70
   128
 43
0.0
 10
168.1416738853
 20
58.871091974
 10
168.2579988688
 20
58.6517629465
 10
168.4053443447
 20
58.2256684332
 10
168.5659383498
 20
57.6442018403
 10
168.7204107717
 20
56.9774961817
 10
168.8501295708
 20
56.3059662721
 10
168.9394494593
 20
55.710609003
 10
168.9775968976
 20
55.2632323718
 10
168.9599706866
 20
55.0177967428
 10
168.8886965699
 20
55.0039060666
 10
168.7723715864
 20
55.2232348612
 10
168.6250261105
 20
55.6493293746
 10
168.4644321054
 20
56.2307959674
 10
168.3099596836
 20
56.8975016261
 10
168.1802408844
 20
57.5690313029
 10
168.0909209959
 20
58.1643890376
 10
168.0527735576
 20
58.6117656688
 10
168.0703997686
 20
58.857201065
 10
168.1416738853
 20
58.871091974
  0
LINE
  5
212
330
1F
100
AcDbEntity
  8
0
  6
Continuous
 62
     7
370
    15
100
AcDbLine
 10
168.9438252784
 20
55.6741589001
 30
0.0
 11
168.937222667
 21
55.672755397
 31
0.0
  0
LINE
  5
213
330
1F
100
AcDbEntity
  8
0
  6
Continuous
 62
     7
370
    15
100
AcDbLine
 10
168.6541392542
 20
57.2776123202
 30
0.0
 11
168.5383344144
 21
57.2529972317
 31
0.0
  0
LINE
  5
214
330
1F
100
AcDbEntity
  8
0
  6
Continuous
 62
     7
370
    15
100
AcDbLine
 10
180.5792703368
 20
36.5988006136
 30
0.0
 11
177.5905947275
 21
48.725434511
 31
0.0
  0
ARC
  5
215
330
1F
100
AcDbEntity
  8
0
  6
Continuous
 62
     7
370
    15
100
AcDbCircle
 10
179.7891751278
 20
36.0609669149
 30
0.0
 40
3.766293486859112
100
AcDbArc
 50
357.6621203332
 51
17.5126308311
  0
LINE
  5
216
330
1F
100
AcDbEntity
  8
0
  6
Continuous
 62
     7
370
    15
100
AcDbLine
 10
183.3809033111
 20
37.1943050316
 30
0.0
 11
180.3922277018
 21
49.3209398603
 31
0.0
  0
ARC
  5
217
330
1F
100
AcDbEntity
  8
0
  6
Continuous
 62
     7
370
    15
100
AcDbCircle
 10
181.4616696968
 20
36.395645894
 30
0.0
 40
2.330331439481742
100
AcDbArc
 50
356.8648753866
 51
19.2436029946
  0
LINE
  5
218
330
1F
100
AcDbEntity
  8
0
  6
Continuous
 62
     7
370
    15
100
AcDbLine
 10
180.6731201783
 20
49.290323562
 30
0.0
 11
183.6617957875
 21
37.1636887333
 31
0.0
  0
ARC
  5
219
330
1F
100
AcDbEntity
  8
0
  6
Continuous
 62
     7
370
    15
100
AcDbCircle
 10
177.212122169
 20
48.646706179
 30
0.0
 40
3.250794096397494
100
AcDbArc
 50
11.97037103
 51
23.4561336913
  0
ARC
  5
21A
330
1F
100
AcDbEntity
  8
0
  6
Continuous
 62
     7
370
    15
100
AcDbCircle
 10
178.5289215817
 20
48.8411575462
 30
0.0
 40
2.190739083365403
100
AcDbArc
 50
11.831222668
 51
23.9502449875
  0
LINE
  5
21B
330
1F
100
AcDbEntity
  8
0
  6
Continuous
 62
     7
370
    15
100
AcDbLine
 10
180.3863380179
 20
49.9814962289
 30
0.0
 11
180.5310343467
 21
49.73047313
 31
0.0
  0
LINE
  5
21C
330
1F
100
AcDbEntity
  8
0
  6
Continuous
 62
     7
370
    15
100
AcDbLine
 10
168.9721221179
 20
51.5158985993
 30
0.0
 11
172.2959762979
 21
38.0292673847
 31
0.0
  0
LWPOLYLINE
  5
21D
330
1F
100
AcDbEntity
  8
0
  6
Continuous
 62
     7
370
    15
100
AcDbPolyline
 90
        9
 70
   128
 43
0.0
 10
168.9201152027
 20
52.0144746891
 10
168.9052182324
 20
52.030729062
 10
168.8963445909
 20
52.0180621436
 10
168.8941499293
 20
51.9774108446
 10
168.8987967633
 20
51.9117786801
 10
168.9099419005
 20
51.8260187721
 10
168.9267611205
 20
51.7264669082
 10
168.9480115734
 20
51.6204823992
 10
168.9721221179
 20
51.5158985993
  0
LINE
  5
21E
330
1F
100
AcDbEntity
  8
0
  6
Continuous
 62
     7
370
    15
100
AcDbLine
 10
171.2607274372
 20
47.9539082637
 30
0.0
 11
168.9201152027
 21
52.0144746891
 31
0.0
  0
ARC
  5
21F
330
1F
100
AcDbEntity
  8
0
  6
Continuous
 62
     7
370
    15
100
AcDbCircle
 10
170.1167099201
 20
47.4457424546
 30
0.0
 40
1.251802128579705
100
AcDbArc
 50
11.8310173312
 51
23.9505092176
  0
LINE
  5
220
330
1F
100
AcDbEntity
  8
0
  6
Continuous
 62
     7
370
    15
100
AcDbLine
 10
174.6657732279
 20
34.2157640746
 30
0.0
 11
171.3419194408
 21
47.7023943579
 31
0.0
  0
LWPOLYLINE
  5
221
330
1F
100
AcDbEntity
  8
0
  6
Continuous
 62
     7
370
    15
100
AcDbPolyline
 90
        9
 70
   128
 43
0.0
 10
174.717780165
 20
33.7171879849
 10
174.7326773171
 20
33.7009345433
 10
174.7415510786
 20
33.7136005303
 10
174.7437455911
 20
33.7542527607
 10
174.7390986589
 20
33.8198830625
 10
174.7279537327
 20
33.9056448331
 10
174.7111345308
 20
34.0051957658
 10
174.689884158
 20
34.1111802748
 10
174.6657732279
 20
34.2157640746
  0
LINE
  5
222
330
1F
100
AcDbEntity
  8
0
  6
Continuous
 62
     7
370
    15
100
AcDbLine
 10
172.3771683015
 20
37.7777544102
 30
0.0
 11
174.717780165
 21
33.7171879849
 31
0.0
  0
ARC
  5
223
330
1F
100
AcDbEntity
  8
0
  6
Continuous
 62
     7
370
    15
100
AcDbCircle
 10
173.521156643
 20
38.2859117514
 30
0.0
 40
1.251772027489337
100
AcDbArc
 50
191.8309534898
 51
203.9506971077
  0
LWPOLYLINE
  5
224
330
1F
100
AcDbEntity
  8
0
  6
Continuous
 62
     7
370
    15
100
AcDbPolyline
 90
        9
 70
   128
 43
0.0
 10
174.714450192
 20
33.7359410962
 10
174.7286024862
 20
33.720499768
 10
174.7370325598
 20
33.7325324556
 10
174.7391173472
 20
33.7711506775
 10
174.7347027582
 20
33.8335008612
 10
174.7241150793
 20
33.9149729601
 10
174.7081368436
 20
34.0095469049
 10
174.6879489861
 20
34.1102321884
 10
174.6650436022
 20
34.2095875433
  0
LINE
  5
225
330
1F
100
AcDbEntity
  8
0
  6
Continuous
 62
     7
370
    15
100
AcDbLine
 10
174.6650436022
 20
34.2095875433
 30
0.0
 11
171.3411897495
 21
47.6962178266
 31
0.0
  0
ARC
  5
226
330
1F
100
AcDbEntity
  8
0
  6
Continuous
 62
     7
370
    15
100
AcDbCircle
 10
170.1772496611
 20
47.4524016626
 30
0.0
 40
1.189202611549471
100
AcDbArc
 50
11.8309575362
 51
23.950547315
  0
LINE
  5
227
330
1F
100
AcDbEntity
  8
0
  6
Continuous
 62
     7
370
    15
100
AcDbLine
 10
171.2640573811
 20
47.9351560837
 30
0.0
 11
168.9234451465
 21
51.995722509
 31
0.0
  0
LWPOLYLINE
  5
228
330
1F
100
AcDbEntity
  8
0
  6
Continuous
 62
     7
370
    15
100
AcDbPolyline
 90
        9
 70
   128
 43
0.0
 10
168.9234451465
 20
51.995722509
 10
168.9092932343
 20
52.0111638373
 10
168.9008629024
 20
51.9991302183
 10
168.8987781368
 20
51.9605110651
 10
168.9031926058
 20
51.8981618127
 10
168.9137803465
 20
51.8166887826
 10
168.9297585823
 20
51.7221148378
 10
168.949946396
 20
51.6214295542
 10
168.9728518091
 20
51.5220751306
  0
LINE
  5
229
330
1F
100
AcDbEntity
  8
0
  6
Continuous
 62
     7
370
    15
100
AcDbLine
 10
168.9728518091
 20
51.5220751306
 30
0.0
 11
172.2967057563
 21
38.035443916
 31
0.0
  0
ARC
  5
22A
330
1F
100
AcDbEntity
  8
0
  6
Continuous
 62
     7
370
    15
100
AcDbCircle
 10
173.4607394546
 20
38.2792902985
 30
0.0
 40
1.189300428426936
100
AcDbArc
 50
191.8314578051
 51
203.9500470461
  0
LINE
  5
22B
330
1F
100
AcDbEntity
  8
0
  6
Continuous
 62
     7
370
    15
100
AcDbLine
 10
172.3738381248
 20
37.7965056589
 30
0.0
 11
174.714450192
 21
33.7359410962
 31
0.0
  0
LINE
  5
22C
330
1F
100
AcDbEntity
  8
0
  6
Continuous
 62
     7
370
    15
100
AcDbLine
 10
180.8429845683
 20
35.52877058
 30
0.0
 11
177.5191308539
 21
49.0154017946
 31
0.0
  0
ARC
  5
22D
330
1F
100
AcDbEntity
  8
0
  6
Continuous
 62
     7
370
    15
100
AcDbCircle
 10
179.4063107808
 20
35.0754370289
 30
0.0
 40
1.506500209146461
100
AcDbArc
 50
357.6620007473
 51
17.5127694497
  0
LINE
  5
22E
330
1F
100
AcDbEntity
  8
0
  6
Continuous
 62
     7
370
    15
100
AcDbLine
 10
172.6986594573
 20
38.5305275461
 30
0.0
 11
172.5239920039
 21
38.1981627336
 31
0.0
  0
LINE
  5
22F
330
1F
100
AcDbEntity
  8
0
  6
Continuous
 62
     7
370
    15
100
AcDbLine
 10
173.4405275043
 20
38.2643928072
 30
0.0
 11
171.5802865643
 21
45.8123729816
 31
0.0
  0
LINE
  5
230
330
1F
100
AcDbEntity
  8
0
  6
Continuous
 62
     7
370
    15
100
AcDbLine
 10
170.1973682344
 20
47.4672698668
 30
0.0
 11
172.0576089416
 21
39.9192896923
 31
0.0
  0
LWPOLYLINE
  5
231
330
1F
100
AcDbEntity
  8
0
  6
Continuous
 62
     7
370
    15
100
AcDbPolyline
 90
        9
 70
   128
 43
0.0
 10
170.0673504807
 20
48.7137091598
 10
170.0301078223
 20
48.7543446264
 10
170.0079232529
 20
48.7226777962
 10
170.0024372972
 20
48.6210490829
 10
170.014054615
 20
48.4569705343
 10
170.0419169925
 20
48.2425689018
 10
170.0839648098
 20
47.9936906388
 10
170.137090709
 20
47.7287293664
 10
170.1973682344
 20
47.4672698668
  0
LINE
  5
232
330
1F
100
AcDbEntity
  8
0
  6
Continuous
 62
     7
370
    15
100
AcDbLine
 10
171.3773066718
 20
46.4411572805
 30
0.0
 11
170.0673504807
 21
48.7137091598
 31
0.0
  0
ARC
  5
233
330
1F
100
AcDbEntity
  8
0
  6
Continuous
 62
     7
370
    15
100
AcDbCircle
 10
168.5172338936
 20
45.1707334927
 30
0.0
 40
3.12953557215111
100
AcDbArc
 50
11.8310833318
 51
23.9504488129
  0
LWPOLYLINE
  5
234
330
1F
100
AcDbEntity
  8
0
  6
Continuous
 62
     7
370
    15
100
AcDbPolyline
 90
        9
 70
   128
 43
0.0
 10
173.5705449087
 20
37.0179535142
 10
173.6077878
 20
36.9773180476
 10
173.6299721366
 20
37.0089848778
 10
173.6354584414
 20
37.1106126598
 10
173.6238411236
 20
37.2746912083
 10
173.5959787462
 20
37.4890928409
 10
173.5539308125
 20
37.7379720351
 10
173.5008049132
 20
38.0029333076
 10
173.4405275043
 20
38.2643928072
  0
LINE
  5
235
330
1F
100
AcDbEntity
  8
0
  6
Continuous
 62
     7
370
    15
100
AcDbLine
 10
172.2605888341
 20
39.2905053934
 30
0.0
 11
173.5705449087
 21
37.0179535142
 31
0.0
  0
ARC
  5
236
330
1F
100
AcDbEntity
  8
0
  6
Continuous
 62
     7
370
    15
100
AcDbCircle
 10
175.1206076115
 20
40.560911749
 30
0.0
 40
3.129479144443872
100
AcDbArc
 50
191.8309736603
 51
203.9505584844
  0
LWPOLYLINE
  5
237
330
1F
100
AcDbEntity
  8
0
  6
Continuous
 62
     7
370
    15
100
AcDbPolyline
 90
       21
 70
   128
 43
0.0
 10
172.2485142369
 20
40.4467907986
 10
172.3559441585
 20
40.3423411092
 10
172.4108093027
 20
40.4849079689
 10
172.4077387322
 20
40.8605345777
 10
172.3470332641
 20
41.4324560454
 10
172.2346349694
 20
42.1446849844
 10
172.0815464929
 20
42.9275044492
 10
171.9027530476
 20
43.7042870811
 10
171.7157560475
 20
44.3989959797
 10
171.538860172
 20
44.9436278334
 10
171.389381269
 20
45.284870944
 10
171.2819513474
 20
45.3893215647
 10
171.227086436
 20
45.246754705
 10
171.2301567737
 20
44.8711280963
 10
171.2908624746
 20
44.2992066285
 10
171.4032605365
 20
43.5869776896
 10
171.556349013
 20
42.8041582248
 10
171.735142691
 20
42.0273755929
 10
171.9221396912
 20
41.3326666942
 10
172.0990353338
 20
40.7880348405
 10
172.2485142369
 20
40.4467907986
  0
LWPOLYLINE
  5
238
330
1F
100
AcDbEntity
  8
0
  6
Continuous
 62
     7
370
    15
100
AcDbPolyline
 90
        3
 70
   128
 43
0.0
 10
174.1188480942
 20
36.3821675321
 10
174.0969040971
 20
36.4174776962
 10
174.0438350667
 20
36.4861031315
  0
ARC
  5
239
330
1F
100
AcDbEntity
  8
0
  6
Continuous
 62
     7
370
    15
100
AcDbCircle
 10
176.2938990379
 20
48.7587426941
 30
0.0
 40
1.251825425840802
100
AcDbArc
 50
11.8311305292
 51
23.9503960195
  0
LINE
  5
23A
330
1F
100
AcDbEntity
  8
0
  6
Continuous
 62
     7
370
    15
100
AcDbLine
 10
177.4379388504
 20
49.2669157004
 30
0.0
 11
177.3928120807
 21
49.3452026761
 31
0.0
  0
LINE
  5
23B
330
1F
100
AcDbEntity
  8
VERMASSUNG
100
AcDbLine
 10
174.7868392691
 20
33.8588175416
 30
0.0
 11
162.3967076218
 21
92.1498039496
 31
0.0
  0
CIRCLE
  5
23C
330
1F
100
AcDbEntity
  8
VERMASSUNG
100
AcDbCircle
 10
174.7868392691
 20
58.8588175416
 30
0.0
 40
25.00000000000003
  0
DIMENSION
  5
23D
330
1F
100
AcDbEntity
  8
VERMASSUNG
100
AcDbDimension
  2
_D_6
 10
162.3967076218
 20
92.1498039496
 30
0.0
 11
168.0771863059
 21
97.6969011947
 31
0.0
 70
   162
  1
<>
 71
     1
 42
-1.0
  3
SLDDIMSTYLE2
100
AcDb2LineAngularDimension
 13
174.7868392691
 23
94.7029450378
 33
0.0
 14
174.7868392691
 24
26.7029450378
 34
0.0
 15
174.7868392691
 25
33.8588175416
 35
0.0
 16
168.0771863059
 26
97.6969011947
 36
0.0
  0
DIMENSION
  5
248
330
1F
100
AcDbEntity
  8
VERMASSUNG
100
AcDbDimension
  2
_D_7
 10
159.4709194773
 20
39.0997031654
 30
0.0
 11
150.7793319613
 21
27.8866598631
 31
0.0
 70
   160
  1
%%c<> min. 
 71
     2
 42
-1.0
  3
SLDDIMSTYLE3
100
AcDbAlignedDimension
 13
190.1027590609
 23
78.6179319178
 33
0.0
 14
159.4709194773
 24
39.0997031654
 34
0.0
 50
52.2195946585
100
AcDbRotatedDimension
  0
INSERT
  5
262
330
1F
100
AcDbEntity
  8
VERMASSUNG
100
AcDbBlockReference
  2
SW_CENTERMARKSYMBOL_0
 10
174.7868392691
 20
60.7029450378
 30
0.0
  0
OLE2FRAME
  5
263
330
1F
100
AcDbEntity
  8
0
100
AcDbOle2Frame
 70
     2
  3
Paintbrush-Bild
 10
13.8511154363
 20
38.264191557
 30
0.0
 11
51.6290888628
 21
31.9806341108
 31
0.0
 71
     2
 72
     0
 73
     1
 90
    12928
310
80552BED0767C5B32B40DDAF6807D121434000000000000000006FFBDDFB85D0
310
4940DDAF6807D121434000000000000000006FFBDDFB85D04940416F4BD60AFB
310
3F4000000000000000002BED0767C5B32B40416F4BD60AFB3F40000000000000
310
0000000000000100000000010000010000000100000000000100000000320000
310
D0CF11E0A1B11AE1000000000000000000000000000000003E000300FEFF0900
310
0600000000000000000000000100000001000000000000000010000002000000
310
01000000FEFFFFFF0000000000000000FFFFFFFFFFFFFFFFFFFFFFFFFFFFFFFF
310
FFFFFFFFFFFFFFFFFFFFFFFFFFFFFFFFFFFFFFFFFFFFFFFFFFFFFFFFFFFFFFFF
310
FFFFFFFFFFFFFFFFFFFFFFFFFFFFFFFFFFFFFFFFFFFFFFFFFFFFFFFFFFFFFFFF
310
FFFFFFFFFFFFFFFFFFFFFFFFFFFFFFFFFFFFFFFFFFFFFFFFFFFFFFFFFFFFFFFF
310
FFFFFFFFFFFFFFFFFFFFFFFFFFFFFFFFFFFFFFFFFFFFFFFFFFFFFFFFFFFFFFFF
310
FFFFFFFFFFFFFFFFFFFFFFFFFFFFFFFFFFFFFFFFFFFFFFFFFFFFFFFFFFFFFFFF
310
FFFFFFFFFFFFFFFFFFFFFFFFFFFFFFFFFFFFFFFFFFFFFFFFFFFFFFFFFFFFFFFF
310
FFFFFFFFFFFFFFFFFFFFFFFFFFFFFFFFFFFFFFFFFFFFFFFFFFFFFFFFFFFFFFFF
310
FFFFFFFFFFFFFFFFFFFFFFFFFFFFFFFFFFFFFFFFFFFFFFFFFFFFFFFFFFFFFFFF
310
FFFFFFFFFFFFFFFFFFFFFFFFFFFFFFFFFFFFFFFFFFFFFFFFFFFFFFFFFFFFFFFF
310
FFFFFFFFFFFFFFFFFFFFFFFFFFFFFFFFFFFFFFFFFFFFFFFFFFFFFFFFFFFFFFFF
310
FFFFFFFFFFFFFFFFFFFFFFFFFFFFFFFFFFFFFFFFFFFFFFFFFFFFFFFFFFFFFFFF
310
FFFFFFFFFFFFFFFFFFFFFFFFFFFFFFFFFFFFFFFFFFFFFFFFFFFFFFFFFFFFFFFF
310
FFFFFFFFFFFFFFFFFFFFFFFFFFFFFFFFFFFFFFFFFFFFFFFFFFFFFFFFFFFFFFFF
310
FDFFFFFFFEFFFFFFFEFFFFFFFEFFFFFF05000000060000000700000008000000
310
090000000A0000000B0000000C0000000D0000000E0000000F00000010000000
310
11000000120000001300000014000000150000001600000017000000FEFFFFFF
310
FFFFFFFFFFFFFFFFFFFFFFFFFFFFFFFFFFFFFFFFFFFFFFFFFFFFFFFFFFFFFFFF
310
FFFFFFFFFFFFFFFFFFFFFFFFFFFFFFFFFFFFFFFFFFFFFFFFFFFFFFFFFFFFFFFF
310
FFFFFFFFFFFFFFFFFFFFFFFFFFFFFFFFFFFFFFFFFFFFFFFFFFFFFFFFFFFFFFFF
310
FFFFFFFFFFFFFFFFFFFFFFFFFFFFFFFFFFFFFFFFFFFFFFFFFFFFFFFFFFFFFFFF
310
FFFFFFFFFFFFFFFFFFFFFFFFFFFFFFFFFFFFFFFFFFFFFFFFFFFFFFFFFFFFFFFF
310
FFFFFFFFFFFFFFFFFFFFFFFFFFFFFFFFFFFFFFFFFFFFFFFFFFFFFFFFFFFFFFFF
310
FFFFFFFFFFFFFFFFFFFFFFFFFFFFFFFFFFFFFFFFFFFFFFFFFFFFFFFFFFFFFFFF
310
FFFFFFFFFFFFFFFFFFFFFFFFFFFFFFFFFFFFFFFFFFFFFFFFFFFFFFFFFFFFFFFF
310
FFFFFFFFFFFFFFFFFFFFFFFFFFFFFFFFFFFFFFFFFFFFFFFFFFFFFFFFFFFFFFFF
310
FFFFFFFFFFFFFFFFFFFFFFFFFFFFFFFFFFFFFFFFFFFFFFFFFFFFFFFFFFFFFFFF
310
FFFFFFFFFFFFFFFFFFFFFFFFFFFFFFFFFFFFFFFFFFFFFFFFFFFFFFFFFFFFFFFF
310
FFFFFFFFFFFFFFFFFFFFFFFFFFFFFFFFFFFFFFFFFFFFFFFFFFFFFFFFFFFFFFFF
310
FFFFFFFFFFFFFFFFFFFFFFFFFFFFFFFFFFFFFFFFFFFFFFFFFFFFFFFFFFFFFFFF
310
52006F006F007400200045006E00740072007900000000000000000000000000
310
0000000000000000000000000000000000000000000000000000000000000000
310
16000500FFFFFFFFFFFFFFFF020000000A00030000000000C000000000000046
310
00000000000000000000000040D6801F8045CD0103000000C000000000000000
310
01004F006C006500000000000000000000000000000000000000000000000000
310
0000000000000000000000000000000000000000000000000000000000000000
310
0A000200FFFFFFFFFFFFFFFFFFFFFFFF00000000000000000000000000000000
310
0000000000000000000000000000000000000000000000001400000000000000
310
010043006F006D0070004F0062006A0000000000000000000000000000000000
310
0000000000000000000000000000000000000000000000000000000000000000
310
120002010100000003000000FFFFFFFF00000000000000000000000000000000
310
0000000000000000000000000000000000000000010000004D00000000000000
310
01004F006C006500310030004E00610074006900760065000000000000000000
310
0000000000000000000000000000000000000000000000000000000000000000
310
1A000200FFFFFFFFFFFFFFFFFFFFFFFF00000000000000000000000000000000
310
0000000000000000000000000000000000000000040000002426000000000000
310
FEFFFFFF02000000FEFFFFFFFFFFFFFFFFFFFFFFFFFFFFFFFFFFFFFFFFFFFFFF
310
FFFFFFFFFFFFFFFFFFFFFFFFFFFFFFFFFFFFFFFFFFFFFFFFFFFFFFFFFFFFFFFF
310
FFFFFFFFFFFFFFFFFFFFFFFFFFFFFFFFFFFFFFFFFFFFFFFFFFFFFFFFFFFFFFFF
310
FFFFFFFFFFFFFFFFFFFFFFFFFFFFFFFFFFFFFFFFFFFFFFFFFFFFFFFFFFFFFFFF
310
FFFFFFFFFFFFFFFFFFFFFFFFFFFFFFFFFFFFFFFFFFFFFFFFFFFFFFFFFFFFFFFF
310
FFFFFFFFFFFFFFFFFFFFFFFFFFFFFFFFFFFFFFFFFFFFFFFFFFFFFFFFFFFFFFFF
310
FFFFFFFFFFFFFFFFFFFFFFFFFFFFFFFFFFFFFFFFFFFFFFFFFFFFFFFFFFFFFFFF
310
FFFFFFFFFFFFFFFFFFFFFFFFFFFFFFFFFFFFFFFFFFFFFFFFFFFFFFFFFFFFFFFF
310
FFFFFFFFFFFFFFFFFFFFFFFFFFFFFFFFFFFFFFFFFFFFFFFFFFFFFFFFFFFFFFFF
310
FFFFFFFFFFFFFFFFFFFFFFFFFFFFFFFFFFFFFFFFFFFFFFFFFFFFFFFFFFFFFFFF
310
FFFFFFFFFFFFFFFFFFFFFFFFFFFFFFFFFFFFFFFFFFFFFFFFFFFFFFFFFFFFFFFF
310
FFFFFFFFFFFFFFFFFFFFFFFFFFFFFFFFFFFFFFFFFFFFFFFFFFFFFFFFFFFFFFFF
310
FFFFFFFFFFFFFFFFFFFFFFFFFFFFFFFFFFFFFFFFFFFFFFFFFFFFFFFFFFFFFFFF
310
FFFFFFFFFFFFFFFFFFFFFFFFFFFFFFFFFFFFFFFFFFFFFFFFFFFFFFFFFFFFFFFF
310
FFFFFFFFFFFFFFFFFFFFFFFFFFFFFFFFFFFFFFFFFFFFFFFFFFFFFFFFFFFFFFFF
310
FFFFFFFFFFFFFFFFFFFFFFFFFFFFFFFFFFFFFFFFFFFFFFFFFFFFFFFFFFFFFFFF
310
0100000200000000000000000000000000000000000000000000000000000000
310
0000000000000000000000000000000000000000000000000000000000000000
310
0100FEFF030A0000FFFFFFFF0A00030000000000C00000000000004607000000
310
5042727573680007000000504272757368000700000050427275736800F439B2
310
7100000000000000000000000000000000000000000000000000000000000000
310
0000000000000000000000000000000000000000000000000000000000000000
310
0000000000000000000000000000000000000000000000000000000000000000
310
0000000000000000000000000000000000000000000000000000000000000000
310
0000000000000000000000000000000000000000000000000000000000000000
310
0000000000000000000000000000000000000000000000000000000000000000
310
0000000000000000000000000000000000000000000000000000000000000000
310
0000000000000000000000000000000000000000000000000000000000000000
310
0000000000000000000000000000000000000000000000000000000000000000
310
0000000000000000000000000000000000000000000000000000000000000000
310
0000000000000000000000000000000000000000000000000000000000000000
310
0000000000000000000000000000000000000000000000000000000000000000
310
20260000424D0E260000000000003E00000028000000B40200006E0000000100
310
01000000000000000000130B0000130B00000200000002000000000000FFFFFF
310
FFFFFFFFFFFFFFFFFFFFFFFFFFFFFFFFFFFFFFFFFFFFFFFFFFFFFFFFFFFFFFFF
310
FFFFFFFFFFFFFFFFFFFFFFFFFFFFFFFFFFFFFFFFFFFFFFFFFFFFFFFFFFFFFFFF
310
FFFFFFFFFFFFFFFFFFFFFFFFFFFFFFFFFFFFFFFFFFFFFFFFF000FFFFFFFFFFFF
310
FFFFFFFFFFFFFFFFFFFFFFFFFFFFFFFFFFFFFFFFFFFFFFFFFFFFFFFFFFFFFFFF
310
FFFFFFFFFFFFFFFFFFFFFFFFFFFFFFFFFFFFFFFFFFFFFFFFFFFFFFFFFFFFFFFF
310
FFFFFFFFFFFFFFFFFFFFFFFFFFFFFFFFF000FFFFFFFFFFFFFFFFFFFFFFFFFFFF
310
FFFFFFFFFFFFFFFFFFFFFFFFFFFFFFFFFFFFFFFFFFFFFFFFFFFFFFFFFFFFFFFF
310
FFFFFFFFFFFFFFFFFFFFFFFFFFFFFFFFFFFFFFFFFFFFFFFFFFFFFFFFFFFFFFFF
310
FFFFFFFFFFFFFFFFF000FFFFFFFFFFFFFFFFFFFFFFFFFFFFFFFFFFFFFFFFFFFF
310
FFFFFFFFFFFFFFFFFFFFFFFFFFFFFFFFFFFFFFFFFFFFFFFFFFFFFFFFFFFFFFFF
310
FFFFFFFFFFFFFFFFFFFFFFFFFFFFFFFFFFFFFFFFFFFFFFFFFFFFFFFFFFFFFFFF
310
F000FFFFFFFFFFFFFFFFFFFFFFFFFFFFFFFFFFFFFFFFFFFFFFFFFFFFFFFFFFFF
310
FFFFFFFFFFFFFFFFFFFFFFFFFFFFFFFFFFFFFFFFFFFFFFFFFFFFFFFFFFFFFFFF
310
FFFFFFFFFFFFFFFFFFFFFFFFFFFFFFFFFFFFFFFFFFFFFFFFF000FFFFFFFFFFFF
310
FFFFFFFFFFFFFFFFFFFFFFFFFFFFFFFFFFFFFFFFFFFFFFFFFFFFFFFFFFFFFFFF
310
FFFFFFFFFFFFFFFFFFFFFFFFFFFFFFFFFFFFFFFFFFFFFFFFFFFFFFFFFFFFFFFF
310
FFFFFFFFFFFFFFFFFFFFFFFFFFFFFFFFF000FFFFFFFFFFFFFFFFFFFFFFFFFFFF
310
FFFFFFFFFFFFFFFFFFFFFFFFFFFFFFFFFFFFFFFFFFFFFFFFFFFFFFFFFFFFFFFF
310
FFFFFFFFFFFFFFFFFFFFFFFFFFFFFFFFFFFFFFFFFFFFFFFFFFFFFFFFFFFFFFFF
310
FFFFFFFFFFFFFFFFF000FFFFFFFFFFFFFFFFFFFFFFFFFFFFFFFFFFFFFFFFFFFF
310
FFFFFFFFFFFFFFFFFFFFFFFFFFFFFFFFFFFFFFFFFFFFFFFFFFFFFFFFFFFFFFFF
310
FFFFFFFFFFFFFFFFFFFFFFFFFFFFFFFFFFFFFFFFFFFFFFFFFFFFFFFFFFFFFFFF
310
F000FFFFFFFFFFFFFFFFFFFFFFFFFFFFFFFFFFFFFFFFFFFFFFFFFFFFFFFFFFFF
310
FFFFFFFFFFFFFFFFFFFFFFFFFFFFFFFFFFFFFFFFFFFFFFFFFFFFFFFFFFFFFFFF
310
FFFFFFFFFFFFFFFFFFFFFFFFFFFFFFFFFFFFFFFFFFFFFFFFF000FFFFFFFFFFFF
310
FFFFFFFFFFFFFFFFFFFFFFFFFFFFFFFFFFFFFFFFFFFFFFFFFFFFFFFFFFFFFFFF
310
FFFFFFFFFFFFFFFFFFFFFFFFFFFFFFFFFFFFFFFFFFFFFFFFFFFFFFFFFFFFFFFF
310
FFFFFFFFFFFFFFFFFFFFFFFFFFFFFFFFF000FFFFFFFFFFFFFFFFFFFFFFFFFFFF
310
FFFFFFFFFFFFFFFFFFFFFFFFFFFFFFFFFFFFFFFFFFFFFFFFFFFFFFFFFFFFFFFF
310
FFFFFFFFFFFFFFFFFFFFFFFFFFFFFFFFFFFFFFFFFFFFFFFFFFFFFFFFFFFFFFFF
310
FFFFFFFFFFFFFFFFF000FFFFFFFFFFFFFFFFFFFFFFFFFFFFFFFFFFFFFFFFFFFF
310
FFFFFFFFFFFFFFFFFFFFFFFFFFFFFFFFFFFFFFFFFFFFFFFFFFFFFFFFFFFFFFFF
310
FFFFFFFFFFFFFFFFFFFFFFFFFFFFFFFFFFFFFFFFFFFFFFFFFFFFFFFFFFFFFFFF
310
F000FFFFFFFFFFFFFFFFFFFFFFFFFFFFFFFFFFFFFFFFFFFFFFFFFFFFFFFFFFFF
310
FFFFFFFFFFFFFFFFFFFFFFFFFFFFFFFFFFFFFFFFFFFFFFFFFFFFFFFFFFFFFFFF
310
FFFFFFFFFFFFFFFFFFFFFFFFFFFFFFFFFFFFFFFFFFFFFFFFF000FFFFFFFFFFFF
310
FFFFFFFFFFFFFFFFFFFFFFFFFFFFFFFFFFFFFFFFFFFFFFFFFFFFFFFFFFFFFFFF
310
FFFFFFFFFFFFFFFFFFFFFFFFFFFFFFFFFFFFFFFFFFFFFFFFFFFFFFFFFFFFFFFF
310
FFFFFFFFFFFFFFFFFFFFFFFFFFFFFFFFF000FFFFFFFFFFFFFFFFFFFFFFFFFFFF
310
FFFFFFFFFFFFFFFFFFFFFFFFFFFFFFFFFFFFFFFFFFFFFFFFFFFFFFFFFFFFFFFF
310
FFFFFFFFFFFFFFFFFFFFFFFFFFFFFFFFFFFFFFFFFFFFFFFFFFFFFFFFFFFFFFFF
310
FFFFFFFFFFFFFFFFF000FFFFFFFFFFFFFFFFFFFFFFFFFFFFFFFFFFFFFFFFFFFF
310
FFFFFFFFFFFFFFFFFFFFFFFFFFFFFFFFFFFFFFFFFFFFFFFFFFFFFFFFFFFFFFFF
310
FFFFFFFFFFFFFFFFFFFFFFFFFFFFFFFFFFFFFFFFFFFFFFFFFFFFFFFFFFFFFFFF
310
F000FFFFFFFFFFFFFFFFFFFFFFFFFFFFFFFFFFFFFFFFFFFFFFFFFFFFFFFFFFFF
310
FFFFFFFFFFFFFFFFFFFFFFFFFFFFFFFFFFFFFFFFFFFFFFFFFFFFFFFFFFFFFFFF
310
FFFFFFFFFFFFFFFFFFFFFFFFFFFFFFFFFFFFFFFFFFFFFFFFF000FFFFFFFFFFFF
310
FFFFFFFFFFFFFFFFFFFFFFFFFFFFFFFFFFFFFFFFFFFFFFFFFFFFFFFFFFFFFFFF
310
FFFFFFFFFFFFFFFFFFFFFFFFFFFFFFFFFFFFFFFFFFFFFFFFFFFFFFFFFFFFFFFF
310
FFFFFFFFFFFFFFFFFFFFFFFFFFFFFFFFF000FFFFFFFFFFFFFFFFFFFFFFFFFFFF
310
FFFFFFFFFFFFFFFFFFFFFFFFFFFFFFFFFFFFFFFFFFFFFFFFFFFFFFFFFFFFFFFF
310
FFFFFFFFFFFFFFFFFFFFFFFFFFFFFFFFFFFFFFFFFFFFFFFFFFFFFFFFFFFFFFFF
310
FFFFFFFFFFFFFFFFF000FFFFF80003FFFFFFFFFFFFFFFFFFFFFFFFFFFFFFFFFF
310
FFFFF00007FFFFFFFFFF00007FFFFFF800000000000000007FFFFFFFFFFFFFFF
310
FFFFFFFC001FFFFFFFFFFFFFFC001FFFFFFFFFFFFFFFFFFFFFFFFFFE0007FFFF
310
F000FFFF8000007FFFFFFFF8000FFFFFC0007FFFFF80007FFFFF0000007FFFFF
310
FFF8000007FFFFF800000000000000007FFFFFF0001FFFFFFFFFFFC00001FFFF
310
FFFFFFFFC00001FFFFFFFF000000000003FFFFE000007FFFF000FFFE0000000F
310
FFFFFFF0000FFFFF80007FFFFF80007FFFFC0000001FFFFFFFC0000001FFFFF8
310
00000000000000007FFFFFF0001FFFFFFFFFFE0000003FFFFFFFFFFE0000003F
310
FFFFFF000000000003FFFF0000000FFFF000FFF800000003FFFFFFF00007FFFF
310
80007FFFFF80007FFFF000000007FFFFFF000000003FFFF80000000000000000
310
7FFFFFF0001FFFFFFFFFF80000000FFFFFFFFFF80000000FFFFFFF0000000000
310
03FFFC00000003FFF000FFE000000000FFFFFFF00007FFFF80003FFFFF80007F
310
FFC000000001FFFFFC000000001FFFF800000000000000007FFFFFF0001FFFFF
310
FFFFE000000003FFFFFFFFE000000003FFFFFF000000000003FFF000000000FF
310
F000FF80000000007FFFFFF00007FFFF80003FFFFF80007FFF8000000000FFFF
310
F80000000007FFF800000000000000007FFFFFF0001FFFFFFFFFC000000001FF
310
FFFFFFC000000001FFFFFF000000000003FFC0000000007FF000FF0000000000
310
3FFFFFE00007FFFF00003FFFFF80007FFE00000000003FFFF00000000003FFF8
310
00000000000000007FFFFFF0001FFFFFFFFF8000000000FFFFFFFF8000000000
310
FFFFFF000000000003FF80000000003FF000FE00000000001FFFFFE00003FFFF
310
00003FFFFF80007FFC00000000001FFFE00000000001FFF8000001FFFE000000
310
7FFFFFF0001FFFFFFFFE00000000003FFFFFFE00000000003FFFFF0000000000
310
03FF00000000001FF000FC00000000000FFFFFE00003FFFF00001FFFFF80007F
310
F800000000001FFFC00000000000FFF8000001FFFE0000007FFFFFF0001FFFFF
310
FFFC00000000001FFFFFFC00000000001FFFFF000000000003FE00000000000F
310
F000F8000000000007FFFFE00003FFFF00001FFFFF80007FF800000000000FFF
310
800000000000FFF8000001FFFE0000007FFFFFF0001FFFFFFFF800000000000F
310
FFFFF800000000000FFFFF000000000003FC000000000007F000F80000000000
310
03FFFFC00003FFFE00001FFFFF80007FF0000000000007FF0000000000007FF8
310
000001FFFE0000007FFFFFF0001FFFFFFFF0000000000007FFFFF00000000000
310
07FFFF000000000003F8000000000003F000F0000000000003FFFFC00001FFFE
310
00001FFFFF80007FE0000000000007FE0000000000003FF8000001FFFE000000
310
7FFFFFF0001FFFFFFFF0000000000007FFFFF0000000000007FFFF0000000000
310
03F800001F800003F000E00001FFF00001FFFFC00001FFFE00000FFFFF80007F
310
E00001FFE00003FE00001FFF00003FF8000001FFFE0000007FFFFFF0001FFFFF
310
FFE000003E000003FFFFE000003E000003FFFF000000000003F00001FFF80001
310
F000E00007FFFC0001FFFFC00001FFFE00000FFFFF80007FC0000FFFFC0003FC
310
0000FFFFC0001FF8000001FFFE0000007FFFFFF0001FFFFFFFC00003FFE00001
310
FFFFC00003FFE00001FFFF0001FFFFFFFFF00007FFFE0001F000E0000FFFFF00
310
00FFFF800001FFFC00000FFFFF80007FC0001FFFFE0001FC0001FFFFE0001FF8
310
000001FFFE0000007FFFFFF0001FFFFFFF80000FFFF80000FFFF80000FFFF800
310
00FFFF0003FFFFFFFFE0000FFFFF8000F000C0003FFFFF8000FFFF800000FFFC
310
000007FFFF80007F80003FFFFF0001FC0003FFFFF0001FF8000001FFFE000000
310
7FFFFFF0001FFFFFFF80003FFFFE0000FFFF80003FFFFE0000FFFF0003FFFFFF
310
FFE0003FFFFF8000F000C0003FFFFF8000FFFF800000FFFC000007FFFF80007F
310
80007FFFFF8001F80007FFFFF8000FF8000001FFFE0000007FFFFFF0001FFFFF
310
FF00007FFFFF00007FFF00007FFFFF00007FFF0003FFFFFFFFE0003FFFFFC000
310
F000C0007FFFFFC000FFFF000000FFFC000007FFFF80007F8000FFFFFF8000F8
310
000FFFFFF8000FF8000001FFFE0000007FFFFFF0001FFFFFFF0000FFFFFF8000
310
7FFF0000FFFFFF80007FFF0003FFFFFFFFC0007FFFFFC00070008000FFFFFFC0
310
00FFFF000000FFF8000007FFFF80007F8000FFFFFF8000F8000FFFFFF8000FF8
310
000001FFFE0000007FFFFFF0001FFFFFFE0001FFFFFFC0003FFE0001FFFFFFC0
310
003FFF0003FFFFFFFFC0007FFFFFE00070008000FFFFFFC0007FFF0000007FF8
310
000003FFFF80007F0001FFFFFF8000F8000FFFFFF8000FF8000001FFFE000000
310
7FFFFFF0001FFFFFFE0001FFFFFFC0003FFE0001FFFFFFC0003FFF0003FFFFFF
310
FFC000FFFFFFE00070008000FFFFFFC0007FFF0000007FF8000003FFFF80007F
310
0001FFFFFF8000F8001FFFFFF8000FF8000001FFFE0000007FFFFFF0001FFFFF
310
FE0003FFFFFFE0003FFE0003FFFFFFE0003FFF0003FFFFFFFFC000FFFFFFE000
310
70008000FFFFFFC0007FFE0000007FF8000003FFFF80007F0001FFFFFF8000F0
310
001FFFFFF8000FF8000001FFFE0000007FFFFFF0001FFFFFFC0003FFFFFFE000
310
1FFC0003FFFFFFE0001FFF0003FFFFFFFFC000FFFFFFC00070008000FFFFFF80
310
007FFE0000007FF0000003FFFF80007F0001FFFFFF0000F0001FFFFFF8000FF8
310
000001FFFE0000007FFFFFF0001FFFFFFC0007FFFFFFF0001FFC0007FFFFFFF0
310
001FFF0003FFFFFFFFC000FFFFFFC00070008001FFFFFF0000FFFE0000003FF0
310
000001FFFF80007F0001FFFFFF0000F8001FFFFFF0000FF8000001FFFE000000
310
7FFFFFF0001FFFFFFC0007FFFFFFF0001FFC0007FFFFFFF0001FFF0003FFFFFF
310
FFC001FFFFFF80007000FFFFFFFFFE0000FFFE0008003FF0008001FFFF80007F
310
FFFFFFFFFC0000FFFFFFFFFFE0000FF8000001FFFE0000007FFFFFF0001FFFFF
310
F8000FFFFFFFF8000FF8000FFFFFFFF8000FFF0003FFFFFFFFFFFFFFFFFF0000
310
7000FFFFFFFFFC0000FFFC0008003FF0008001FFFF80007FFFFFFFFFF80001FF
310
FFFFFFFF80000FF8000001FFFE0000007FFFFFF0001FFFFFF8000FFFFFFFF800
310
0FF8000FFFFFFFF8000FFF0003FFFFFFFFFFFFFFFFFE0000F000FFFFFFFFE000
310
00FFFC000C003FE000C001FFFF80007FFFFFFFFFC00001FFFFFFFFFE00001FF8
310
000001FFFE0000007FFFFFF0001FFFFFF8000FFFFFFFF8000FF8000FFFFFFFF8
310
000FFF0003FFFFFFFFFFFFFFFFF00000F000FFFFFFFE000001FFFC000C001FE0
310
00C000FFFF80007FFFFFFFFE000001FFFFFFFFE000001FF80FFFFFFFFFFFFFC0
310
7FFFFFF0001FFFFFF8000FFFFFFFF8000FF8000FFFFFFFF8000FFF0003FFFFFF
310
FFFFFFFFFF800000F000FFFFFFC0000001FFFC001C001FE001C000FFFF80007F
310
FFFFFF80000003FFFFFFF80000001FF80FFFFFFFFFFFFFC07FFFFFF0001FFFFF
310
F8001FFFFFFFFC000FF8001FFFFFFFFC000FFF0003FFFFFFFFFFFFFFF0000001
310
F000FFFFF800000001FFF8001C001FE001C000FFFF80007FFFFFF800000003FF
310
FFFF800000003FF80FFFFFFFFFFFFFC07FFFFFF0001FFFFFF8001FFFFFFFFC00
310
0FF8001FFFFFFFFC000FFF0003FFFFFFFFFFFFFE00000001F000FFFFC0000000
310
03FFF8001E001FC001E000FFFF80007FFFFF8000000007FFFFFC000000003FF8
310
0FFFFFFFFFFFFFC07FFFFFF0001FFFFFF8001FFFFFFFFC000FF8001FFFFFFFFC
310
000FFF0003FFFFFFFFFFFFE000000003F000FFFE0000000007FFF8001E000FC0
310
01E0007FFF80007FFFFE0000000007FFFFE0000000007FF80FFFFFFFFFFFFFC0
310
7FFFFFF0001FFFFFF0001FFFFFFFFC0007F0001FFFFFFFFC0007FF0003FFFFFF
310
FFFFFF0000000003F000FFF80000000007FFF8001E000FC003E0007FFF80007F
310
FFF0000000000FFFFF8000000000FFF80FFFFFFFFFFFFFC07FFFFFF0001FFFFF
310
F0001FFFFFFFFC0007F0001FFFFFFFFC0007FF0003FFFFFFFFFFFC0000000007
310
F000FFE0000000000FFFF0003E000FC003E0007FFF80007FFFC0000000001FFF
310
FE0000000001FFF80FFFFFFFFFFFFFC07FFFFFF0001FFFFFF0001FFFFFFFFC00
310
07F0001FFFFFFFFC0007FF0003FFFFFFFFFFF0000000000FF000FFC000000000
310
1FFFF0003F000F8003F0003FFF80007FFF80000000003FFFF80000000003FFF8
310
0FFFFFFFFFFFFFC07FFFFFF0001FFFFFF0001FFFFFFFFC0007F0001FFFFFFFFC
310
0007FF0003FFFFFFFFFFE0000000001FF000FF00000000007FFFF0003F000780
310
03F0003FFF80007FFF00000000007FFFF00000000007FFF80FFFFFFFFFFFFFC0
310
7FFFFFF0001FFFFFF0001FFFFFFFFC0007F0001FFFFFFFFC0007FF0003FFFFFF
310
FFFF80000000007FF000FE0000000000FFFFE0003F00078007F0003FFF80007F
310
FE0000000001FFFFE0000000001FFFF80FFFFFFFFFFFFFC07FFFFFF0001FFFFF
310
F0001FFFFFFFFC0007F0001FFFFFFFFC0007FF0003FFFFFFFFFF0000000000FF
310
F000FC0000000003FFFFE0007F00078007F0003FFF80007FFC0000000007FFFF
310
C0000000007FFFF80FFFFFFFFFFFFFC07FFFFFF0001FFFFFF8001FFFFFFFFC00
310
0FF8001FFFFFFFFC000FFF0003FFFFFFFFFE0000000003FFF000FC000000000F
310
FFFFE0007F80070007F8001FFF80007FF8000000001FFFFF8000000001FFFFF8
310
0FFFFFFFFFFFFFC07FFFFFF0001FFFFFF8001FFFFFFFFC000FF8001FFFFFFFFC
310
000FFF0003FFFFFFFFFC000000000FFFF000F8000000007FFFFFE0007F800700
310
07F8001FFF80007FF000000000FFFFFF800000000FFFFFF80FFFFFFFFFFFFFC0
310
7FFFFFF0001FFFFFF8000FFFFFFFF8000FF8000FFFFFFFF8000FFF0003FFFFFF
310
FFFC000000007FFFF000F800000007FFFFFFC0007F8003000FF8001FFF80007F
310
F000000007FFFFFF000000007FFFFFF80FFFFFFFFFFFFFC07FFFFFF0001FFFFF
310
F8000FFFFFFFF8000FF8000FFFFFFFF8000FFF0003FFFFFFFFF80000000FFFFF
310
F000F0000000FFFFFFFFC000FF8003000FF8001FFF80007FE0000000FFFFFFFF
310
0000000FFFFFFFF8000001FFFE0000007FFFFFF0001FFFFFF8000FFFFFFFF800
310
0FF8000FFFFFFFF8000FFF0003FFFFFFFFF8000000FFFFFFF000F000000FFFFF
310
FFFFC000FFC002000FF8000FFF80007FE000001FFFFFFFFE000001FFFFFFFFF8
310
000001FFFE0000007FFFFFF0001FFFFFF8000FFFFFFFF8000FF8000FFFFFFFF8
310
000FFF0003FFFFFFFFF000001FFFFFFFF000E00000FFFFFFFFFFC000FFC00200
310
0FFC000FFF80007FE00001FFFFFFFFFE00001FFFFFFFFFF8000001FFFE000000
310
7FFFFFF0001FFFFFFC000FFFFFFFF8001FFC000FFFFFFFF8001FFF0003FFFFFF
310
FFF00001FFFFFFFFF000E00007FFFFFFFFFF8000FFC000001FFC000FFF80007F
310
C0000FFFFFFFFFFE0000FFFFFFFFFFF8000001FFFE0000007FFFFFF0001FFFFF
310
FC0007FFFFFFF0001FFC0007FFFFFFF0001FFF0003FFFFFFFFF00007FFFFFFFF
310
F000E0001FFFFFFFFFFF8000FFC000001FFC000FFF80007FC0003FFFFFFFFFFE
310
0001FFFFFFFFFFF8000001FFFE0000007FFFFFF0001FFFFFFC0007FFFFFFF000
310
1FFC0007FFFFFFF0001FFF0003FFFFFFFFF0001FFFFFFFFFF000E0003FFFFF00
310
03FF8001FFE000001FFC0007FF80007FC0007FFFFF0007FC0003FFFFF0003FF8
310
000001FFFE0000007FFFFFF0001FFFFFFC0003FFFFFFE0001FFC0003FFFFFFE0
310
001FFF0003FFFFFFFFF0003FFFFFFFFFF000E0003FFFFF0001FF8001FFE00000
310
1FFE0007FF80007FC0007FFFFE0003FC0007FFFFE0003FF8000001FFFE000000
310
7FFFFFF0001FFFFFFE0003FFFFFFE0003FFE0003FFFFFFE0003FFF0003FFFFFF
310
FFF0003FFFFF8001F000E0003FFFFF0001FF0001FFE000001FFE0007FF80007F
310
C0007FFFFE0003FC0007FFFFE0003FF8000001FFFE0000007FFFFFF0001FFFFF
310
FE0001FFFFFFC0003FFE0001FFFFFFC0003FFF0003FFFFFFFFF0003FFFFF0001
310
F000E0003FFFFF0003FF0001FFE000003FFE0007FF80007FC0007FFFFE0003FC
310
0007FFFFE0003FF8000001FFFE0000007FFFFFF0001FFFFFFF0001FFFFFFC000
310
7FFF0001FFFFFFC0007FFF0003FFFFFFFFF0003FFFFF0001F000E0003FFFFE00
310
03FF0003FFF000003FFE0003FF80007FC0007FFFFC0003FE0007FFFFE0003FF8
310
000001FFFE0000007FFFFFF0001FFFFFFF0000FFFFFF80007FFF0000FFFFFF80
310
007FFF0003FFFFFFFFF0003FFFFF0001F000E0003FFFFE0003FF0003FFF00000
310
3FFF0003FF80007FC0007FFFFC0007FE0007FFFFC0003FF8000001FFFE000000
310
7FFFFFF0001FFFFFFF80007FFFFF0000FFFF80007FFFFF0000FFFF0003FFFFFF
310
FFF0003FFFFF0003F000E0003FFFFC0003FE0003FFF000003FFF0003FF80007F
310
E0003FFFF80007FE0003FFFFC0007FF8000001FFFE0000007FFFFFF0001FFFFF
310
FF80003FFFFE0000FFFF80003FFFFE0000FFFF0003FFFFFFFFF0001FFFFE0003
310
F000F0001FFFF80003FE0003FFF000007FFF0001FF80007FE0003FFFF00007FE
310
0001FFFF80007FF8000001FFFE0000007FFFFFF0001FFFFFFFC0000FFFF80001
310
FFFFC0000FFFF80001FFFF0003FFFFFFFFF0001FFFFC0003F000F0000FFFF000
310
07FE0007FFF800007FFF0001FF80007FE0001FFFE00007FF0000FFFE00007FF8
310
000001FFFE0000007FFFFFF0001FFFFFFFC00003FFE00001FFFFC00003FFE000
310
01FFFF0003FFFFFFFFF8000FFFF80003F000F00003FFC00007FC0007FFF80000
310
7FFF8001FF80007FF00007FF80000FFF00007FF80000FFF8000001FFFE000000
310
7F80000000000001FFE000003E000003FFFFE000003E000003FFFF0003FFFFFF
310
FFF80003FFE00007F000F800000000000FFC0007FFF800007FFF8001FF80007F
310
F000000000000FFF000000000000FFF8000001FFFE0000007F80000000000001
310
FFF0000000000007FFFFF0000000000007FFFF0003FFFFFFFFFC00007E000007
310
F000F800000000000FFC0007FFF80000FFFF8000FF80007FF800000000001FFF
310
800000000001FFF8000001FFFE0000007F80000000000001FFF800000000000F
310
FFFFF800000000000FFFFF0003FFFFFFFFFC00000000000FF000FC0000000000
310
1FFC0007FFFC0000FFFF8000FF80007FF800000000003FFFC00000000001FFF8
310
000001FFFE0000007F80000000000001FFF800000000000FFFFFF80000000000
310
0FFFFF0003FFFFFFFFFE00000000001FF000FE00000000003FF8000FFFFC0000
310
FFFF8000FF80007FFC00000000003FFFC00000000003FFF8000001FFFE000000
310
7F80000000000001FFFC00000000001FFFFFFC00000000001FFFFF0003FFFFFF
310
FFFF00000000001FF000FF00000000003FF8000FFFFC0000FFFFC000FF80007F
310
FE00000000007FFFE00000000007FFF8000001FFFE0000007F80000000000001
310
FFFE00000000003FFFFFFE00000000003FFFFF0003FFFFFFFFFF80000000003F
310
F000FF80000000007FF8000FFFFC0001FFFFC0007F80007FFF0000000000FFFF
310
F0000000000FFFF800000000000000007F80000000000001FFFF8000000000FF
310
FFFFFF8000000000FFFFFF0003FFFFFFFFFFC0000000007FF000FFC000000000
310
FFF8000FFFFE0001FFFFC0007F80007FFF8000000001FFFFF8000000001FFFF8
310
00000000000000007F80000000000001FFFFC000000001FFFFFFFFC000000001
310
FFFFFF0003FFFFFFFFFFE000000000FFF000FFE000000003FFF0001FFFFE0001
310
FFFFC0007F80007FFFC000000007FFFFFE000000003FFFF80000000000000000
310
7F80000000000001FFFFE000000003FFFFFFFFE000000003FFFFFF0003FFFFFF
310
FFFFF000000003FFF000FFF80000000FFFF0001FFFFE0001FFFFE0007F80007F
310
FFF00000000FFFFFFF00000000FFFFF800000000000000007F80000000000001
310
FFFFF80000000FFFFFFFFFF80000000FFFFFFF0003FFFFFFFFFFFC0000000FFF
310
F000FFFE0000003FFFF0001FFFFE0003FFFFE0003F80007FFFFC0000003FFFFF
310
FFC0000003FFFFF800000000000000007F80000000000001FFFFFE0000003FFF
310
FFFFFFFE0000003FFFFFFF0003FFFFFFFFFFFF0000003FFFF000FFFF800000FF
310
FFF0001FFFFF0003FFFFE0003F80007FFFFF000001FFFFFFFFF800001FFFFFF8
310
00000000000000007F80000000000001FFFFFFC00001FFFFFFFFFFFFC00001FF
310
FFFFFF0003FFFFFFFFFFFFC00000FFFFF000FFFFF8000FFFFFFFFFFFFFFFFFFF
310
FFFFFFFFFFFFFFFFFFFFF0001FFFFFFFFFFF0000FFFFFFF80000000000000000
310
7FFFFFFFFFFFFFFFFFFFFFFC001FFFFFFFFFFFFFFC001FFFFFFFFFFFFFFFFFFF
310
FFFFFFFC001FFFFFF000FFFFFFFFFFFFFFFFFFFFFFFFFFFFFFFFFFFFFFFFFFFF
310
FFFFFFFFFFFFFFFFFFFFFFFFFFFFFFFFFFFFFFFFFFFFFFFFFFFFFFFFFFFFFFFF
310
FFFFFFFFFFFFFFFFFFFFFFFFFFFFFFFFFFFFFFFFFFFFFFFFFFFFFFFFFFFFFFFF
310
F000FFFFFFFFFFFFFFFFFFFFFFFFFFFFFFFFFFFFFFFFFFFFFFFFFFFFFFFFFFFF
310
FFFFFFFFFFFFFFFFFFFFFFFFFFFFFFFFFFFFFFFFFFFFFFFFFFFFFFFFFFFFFFFF
310
FFFFFFFFFFFFFFFFFFFFFFFFFFFFFFFFFFFFFFFFFFFFFFFFF000FFFFFFFFFFFF
310
FFFFFFFFFFFFFFFFFFFFFFFFFFFFFFFFFFFFFFFFFFFFFFFFFFFFFFFFFFFFFFFF
310
FFFFFFFFFFFFFFFFFFFFFFFFFFFFFFFFFFFFFFFFFFFFFFFFFFFFFFFFFFFFFFFF
310
FFFFFFFFFFFFFFFFFFFFFFFFFFFFFFFFF000FFFFFFFFFFFFFFFFFFFFFFFFFFFF
310
FFFFFFFFFFFFFFFFFFFFFFFFFFFFFFFFFFFFFFFFFFFFFFFFFFFFFFFFFFFFFFFF
310
FFFFFFFFFFFFFFFFFFFFFFFFFFFFFFFFFFFFFFFFFFFFFFFFFFFFFFFFFFFFFFFF
310
FFFFFFFFFFFFFFFFF000FFFFFFFFFFFFFFFFFFFFFFFFFFFFFFFFFFFFFFFFFFFF
310
FFFFFFFFFFFFFFFFFFFFFFFFFFFFFFFFFFFFFFFFFFFFFFFFFFFFFFFFFFFFFFFF
310
FFFFFFFFFFFFFFFFFFFFFFFFFFFFFFFFFFFFFFFFFFFFFFFFFFFFFFFFFFFFFFFF
310
F000FFFFFFFFFFFFFFFFFFFFFFFFFFFFFFFFFFFFFFFFFFFFFFFFFFFFFFFFFFFF
310
FFFFFFFFFFFFFFFFFFFFFFFFFFFFFFFFFFFFFFFFFFFFFFFFFFFFFFFFFFFFFFFF
310
FFFFFFFFFFFFFFFFFFFFFFFFFFFFFFFFFFFFFFFFFFFFFFFFF000FFFFFFFFFFFF
310
FFFFFFFFFFFFFFFFFFFFFFFFFFFFFFFFFFFFFFFFFFFFFFFFFFFFFFFFFFFFFFFF
310
FFFFFFFFFFFFFFFFFFFFFFFFFFFFFFFFFFFFFFFFFFFFFFFFFFFFFFFFFFFFFFFF
310
FFFFFFFFFFFFFFFFFFFFFFFFFFFFFFFFF000FFFFFFFFFFFFFFFFFFFFFFFFFFFF
310
FFFFFFFFFFFFFFFFFFFFFFFFFFFFFFFFFFFFFFFFFFFFFFFFFFFFFFFFFFFFFFFF
310
FFFFFFFFFFFFFFFFFFFFFFFFFFFFFFFFFFFFFFFFFFFFFFFFFFFFFFFFFFFFFFFF
310
FFFFFFFFFFFFFFFFF000FFFFFFFFFFFFFFFFFFFFFFFFFFFFFFFFFFFFFFFFFFFF
310
FFFFFFFFFFFFFFFFFFFFFFFFFFFFFFFFFFFFFFFFFFFFFFFFFFFFFFFFFFFFFFFF
310
FFFFFFFFFFFFFFFFFFFFFFFFFFFFFFFFFFFFFFFFFFFFFFFFFFFFFFFFFFFFFFFF
310
F000FFFFFFFFFFFFFFFFFFFFFFFFFFFFFFFFFFFFFFFFFFFFFFFFFFFFFFFFFFFF
310
FFFFFFFFFFFFFFFFFFFFFFFFFFFFFFFFFFFFFFFFFFFFFFFFFFFFFFFFFFFFFFFF
310
FFFFFFFFFFFFFFFFFFFFFFFFFFFFFFFFFFFFFFFFFFFFFFFFF000FFFFFFFFFFFF
310
FFFFFFFFFFFFFFFFFFFFFFFFFFFFFFFFFFFFFFFFFFFFFFFFFFFFFFFFFFFFFFFF
310
FFFFFFFFFFFFFFFFFFFFFFFFFFFFFFFFFFFFFFFFFFFFFFFFFFFFFFFFFFFFFFFF
310
FFFFFFFFFFFFFFFFFFFFFFFFFFFFFFFFF000FFFFFFFFFFFFFFFFFFFFFFFFFFFF
310
FFFFFFFFFFFFFFFFFFFFFFFFFFFFFFFFFFFFFFFFFFFFFFFFFFFFFFFFFFFFFFFF
310
FFFFFFFFFFFFFFFFFFFFFFFFFFFFFFFFFFFFFFFFFFFFFFFFFFFFFFFFFFFFFFFF
310
FFFFFFFFFFFFFFFFF000FFFFFFFFFFFFFFFFFFFFFFFFFFFFFFFFFFFFFFFFFFFF
310
FFFFFFFFFFFFFFFFFFFFFFFFFFFFFFFFFFFFFFFFFFFFFFFFFFFFFFFFFFFFFFFF
310
FFFFFFFFFFFFFFFFFFFFFFFFFFFFFFFFFFFFFFFFFFFFFFFFFFFFFFFFFFFFFFFF
310
F000FFFFFFFFFFFFFFFFFFFFFFFFFFFFFFFFFFFFFFFFFFFFFFFFFFFFFFFFFFFF
310
FFFFFFFFFFFFFFFFFFFFFFFFFFFFFFFFFFFFFFFFFFFFFFFFFFFFFFFFFFFFFFFF
310
FFFFFFFFFFFFFFFFFFFFFFFFFFFFFFFFFFFFFFFFFFFFFFFFF000FFFFFFFFFFFF
310
FFFFFFFFFFFFFFFFFFFFFFFFFFFFFFFFFFFFFFFFFFFFFFFFFFFFFFFFFFFFFFFF
310
FFFFFFFFFFFFFFFFFFFFFFFFFFFFFFFFFFFFFFFFFFFFFFFFFFFFFFFFFFFFFFFF
310
FFFFFFFFFFFFFFFFFFFFFFFFFFFFFFFFF000FFFFFFFFFFFFFFFFFFFFFFFFFFFF
310
FFFFFFFFFFFFFFFFFFFFFFFFFFFFFFFFFFFFFFFFFFFFFFFFFFFFFFFFFFFFFFFF
310
FFFFFFFFFFFFFFFFFFFFFFFFFFFFFFFFFFFFFFFFFFFFFFFFFFFFFFFFFFFFFFFF
310
FFFFFFFFFFFFFFFFF000FFFFFFFFFFFFFFFFFFFFFFFFFFFFFFFFFFFFFFFFFFFF
310
FFFFFFFFFFFFFFFFFFFFFFFFFFFFFFFFFFFFFFFFFFFFFFFFFFFFFFFFFFFFFFFF
310
FFFFFFFFFFFFFFFFFFFFFFFFFFFFFFFFFFFFFFFFFFFFFFFFFFFFFFFFFFFFFFFF
310
F000FFFFFFFFFFFFFFFFFFFFFFFFFFFFFFFFFFFFFFFFFFFFFFFFFFFFFFFFFFFF
310
FFFFFFFFFFFFFFFFFFFFFFFFFFFFFFFFFFFFFFFFFFFFFFFFFFFFFFFFFFFFFFFF
310
FFFFFFFFFFFFFFFFFFFFFFFFFFFFFFFFFFFFFFFFFFFFFFFFF000FFFFFFFFFFFF
310
FFFFFFFFFFFFFFFFFFFFFFFFFFFFFFFFFFFFFFFFFFFFFFFFFFFFFFFFFFFFFFFF
310
FFFFFFFFFFFFFFFFFFFFFFFFFFFFFFFFFFFFFFFFFFFFFFFFFFFFFFFFFFFFFFFF
310
FFFFFFFFFFFFFFFFFFFFFFFFFFFFFFFFF000FFFFFFFFFFFFFFFFFFFFFFFFFFFF
310
FFFFFFFFFFFFFFFFFFFFFFFFFFFFFFFFFFFFFFFFFFFFFFFFFFFFFFFFFFFFFFFF
310
FFFFFFFFFFFFFFFFFFFFFFFFFFFFFFFFFFFFFFFFFFFFFFFFFFFFFFFFFFFFFFFF
310
FFFFFFFFFFFFFFFFF000FFFFFFFFFFFFFFFFFFFFFFFFFFFFFFFFFFFFFFFFFFFF
310
FFFFFFFFFFFFFFFFFFFFFFFFFFFFFFFFFFFFFFFFFFFFFFFFFFFFFFFFFFFFFFFF
310
FFFFFFFFFFFFFFFFFFFFFFFFFFFFFFFFFFFFFFFFFFFFFFFFFFFFFFFFFFFFFFFF
310
F000FFFFFFFFFFFFFFFFFFFFFFFFFFFFFFFFFFFFFFFFFFFFFFFFFFFFFFFFFFFF
310
FFFFFFFFFFFFFFFFFFFFFFFFFFFFFFFFFFFFFFFFFFFFFFFFFFFFFFFFFFFFFFFF
310
FFFFFFFFFFFFFFFFFFFFFFFFFFFFFFFFFFFFFFFFFFFFFFFFF000FFFFFFFFFFFF
310
FFFFFFFFFFFFFFFFFFFFFFFFFFFFFFFFFFFFFFFFFFFFFFFFFFFFFFFFFFFFFFFF
310
FFFFFFFFFFFFFFFFFFFFFFFFFFFFFFFFFFFFFFFFFFFFFFFFFFFFFFFFFFFFFFFF
310
FFFFFFFFFFFFFFFFFFFFFFFFFFFFFFFFF0000000000000000000000000000000
310
0000000000000000000000000000000000000000000000000000000000000000
310
0000000000000000000000000000000000000000000000000000000000000000
310
0000000000000000000000000000000000000000000000000000000000000000
310
0000000000000000000000000000000000000000000000000000000000000000
310
0000000000000000000000000000000000000000000000000000000000000000
310
0000000000000000000000000000000000000000000000000000000000000000
310
0000000000000000000000000000000000000000000000000000000000000000
310
0000000000000000000000000000000000000000000000000000000000000000
310
0000000000000000000000000000000000000000000000000000000000000000
310
0000000000000000000000000000000000000000000000000000000000000000
310
0000000000000000000000000000000000000000000000000000000000000000
310
0000000000000000000000000000000000000000000000000000000000000000
310
0000000000000000000000000000000000000000000000000000000000000000
310
0000000000000000000000000000000000000000000000000000000000000000
310
0000000000000000000000000000000000000000000000000000000000000000
  1
OLE
  0
ENDSEC
  0
SECTION
  2
OBJECTS
  0
DICTIONARY
  5
C
330
0
100
AcDbDictionary
281
     1
  3
ACAD_GROUP
350
D
  3
ACAD_LAYOUT
350
1A
  3
ACAD_MLINESTYLE
350
17
  3
ACAD_PLOTSETTINGS
350
19
  3
ACAD_PLOTSTYLENAME
350
E
  0
DICTIONARY
  5
D
102
{ACAD_REACTORS
330
C
102
}
330
C
100
AcDbDictionary
281
     1
  0
DICTIONARY
  5
1A
102
{ACAD_REACTORS
330
C
102
}
330
C
100
AcDbDictionary
281
     1
  3
Layout1
350
1E
  3
Layout2
350
26
  3
Model
350
22
  0
DICTIONARY
  5
17
102
{ACAD_REACTORS
330
C
102
}
330
C
100
AcDbDictionary
281
     1
  3
Standard
350
18
  0
DICTIONARY
  5
19
102
{ACAD_REACTORS
330
C
102
}
330
C
100
AcDbDictionary
281
     1
  0
ACDBDICTIONARYWDFLT
  5
E
102
{ACAD_REACTORS
330
C
102
}
330
C
100
AcDbDictionary
281
     1
  3
Normal
350
F
100
AcDbDictionaryWithDefault
340
F
  0
LAYOUT
  5
1E
102
{ACAD_REACTORS
330
1A
102
}
330
1A
100
AcDbPlotSettings
  1

  2
none_device
  4

  6

 40
0.0
 41
0.0
 42
0.0
 43
0.0
 44
0.0
 45
0.0
 46
0.0
 47
0.0
 48
0.0
 49
0.0
140
0.0
141
0.0
142
1.0
143
1.0
 70
   688
 72
     0
 73
     0
 74
     5
  7

 75
    16
147
1.0
148
0.0
149
0.0
100
AcDbLayout
  1
Layout1
 70
     1
 71
     1
 10
0.0
 20
0.0
 11
420.0
 21
297.0
 12
0.0
 22
0.0
 32
0.0
 14
1.0000000000E+20
 24
1.0000000000E+20
 34
1.0000000000E+20
 15
-1.0000000000E+20
 25
-1.0000000000E+20
 35
-1.0000000000E+20
146
0.0
 13
0.0
 23
0.0
 33
0.0
 16
1.0
 26
0.0
 36
0.0
 17
0.0
 27
1.0
 37
0.0
 76
     0
330
1B
  0
LAYOUT
  5
26
102
{ACAD_REACTORS
330
1A
102
}
330
1A
100
AcDbPlotSettings
  1

  2
none_device
  4

  6

 40
0.0
 41
0.0
 42
0.0
 43
0.0
 44
0.0
 45
0.0
 46
0.0
 47
0.0
 48
0.0
 49
0.0
140
0.0
141
0.0
142
1.0
143
1.0
 70
   688
 72
     0
 73
     0
 74
     5
  7

 75
    16
147
1.0
148
0.0
149
0.0
100
AcDbLayout
  1
Layout2
 70
     1
 71
     2
 10
0.0
 20
0.0
 11
0.0
 21
0.0
 12
0.0
 22
0.0
 32
0.0
 14
0.0
 24
0.0
 34
0.0
 15
0.0
 25
0.0
 35
0.0
146
0.0
 13
0.0
 23
0.0
 33
0.0
 16
1.0
 26
0.0
 36
0.0
 17
0.0
 27
1.0
 37
0.0
 76
     0
330
23
  0
LAYOUT
  5
22
102
{ACAD_REACTORS
330
1A
102
}
330
1A
100
AcDbPlotSettings
  1

  2
none_device
  4

  6

 40
0.0
 41
0.0
 42
0.0
 43
0.0
 44
0.0
 45
0.0
 46
0.0
 47
0.0
 48
0.0
 49
0.0
140
0.0
141
0.0
142
1.0
143
1.0
 70
  1712
 72
     0
 73
     0
 74
     0
  7

 75
     0
147
1.0
148
0.0
149
0.0
100
AcDbLayout
  1
Model
 70
     1
 71
     0
 10
0.0
 20
0.0
 11
297.0
 21
210.0
 12
0.0
 22
0.0
 32
0.0
 14
0.0
 24
0.0
 34
0.0
 15
297.0
 25
210.0
 35
0.0
146
0.0
 13
0.0
 23
0.0
 33
0.0
 16
1.0
 26
0.0
 36
0.0
 17
0.0
 27
1.0
 37
0.0
 76
     0
330
1F
331
29
  0
MLINESTYLE
  5
18
102
{ACAD_REACTORS
330
17
102
}
330
17
100
AcDbMlineStyle
  2
Standard
 70
     0
  3

 62
   256
 51
90.0
 52
90.0
 71
     2
 49
0.5
 62
   256
  6
BYLAYER
 49
-0.5
 62
   256
  6
BYLAYER
  0
ACDBPLACEHOLDER
  5
F
102
{ACAD_REACTORS
330
E
102
}
330
E
  0
ENDSEC
  0
EOF
