  0
SECTION
  2
HEADER
  9
$ACADVER
  1
AC1015
  9
$ACADMAINTVER
 70
     6
  9
$DWGCODEPAGE
  3
ANSI_1252
  9
$INSBASE
 10
0.0
 20
0.0
 30
0.0
  9
$EXTMIN
 10
0.0
 20
0.0
 30
0.0
  9
$EXTMAX
 10
297.0
 20
210.0
 30
0.0
  9
$LIMMIN
 10
0.0
 20
0.0
  9
$LIMMAX
 10
297.0
 20
210.0
  9
$ORTHOMODE
 70
     0
  9
$REGENMODE
 70
     1
  9
$FILLMODE
 70
     1
  9
$QTEXTMODE
 70
     0
  9
$MIRRTEXT
 70
     1
  9
$LTSCALE
 40
1.0
  9
$ATTMODE
 70
     1
  9
$TEXTSIZE
 40
2.0
  9
$TRACEWID
 40
1.0
  9
$TEXTSTYLE
  7
Standard
  9
$CLAYER
  8
0
  9
$CELTYPE
  6
ByLayer
  9
$CECOLOR
 62
   256
  9
$CELTSCALE
 40
1.0
  9
$DISPSILH
 70
     0
  9
$DIMSCALE
 40
1.0
  9
$DIMASZ
 40
3.0
  9
$DIMEXO
 40
0.0
  9
$DIMDLI
 40
3.75
  9
$DIMRND
 40
0.0
  9
$DIMDLE
 40
0.0
  9
$DIMEXE
 40
1.0
  9
$DIMTP
 40
0.0
  9
$DIMTM
 40
0.0
  9
$DIMTXT
 40
2.0
  9
$DIMCEN
 40
2.5
  9
$DIMTSZ
 40
0.0
  9
$DIMTOL
 70
     0
  9
$DIMLIM
 70
     0
  9
$DIMTIH
 70
     1
  9
$DIMTOH
 70
     1
  9
$DIMSE1
 70
     0
  9
$DIMSE2
 70
     0
  9
$DIMTAD
 70
     1
  9
$DIMZIN
 70
     0
  9
$DIMBLK
  1

  9
$DIMASO
 70
     1
  9
$DIMSHO
 70
     1
  9
$DIMPOST
  1

  9
$DIMAPOST
  1

  9
$DIMALT
 70
     0
  9
$DIMALTD
 70
     3
  9
$DIMALTF
 40
0.0393700787
  9
$DIMLFAC
 40
1.0
  9
$DIMTOFL
 70
     1
  9
$DIMTVP
 40
0.0
  9
$DIMTIX
 70
     0
  9
$DIMSOXD
 70
     0
  9
$DIMSAH
 70
     0
  9
$DIMBLK1
  1

  9
$DIMBLK2
  1

  9
$DIMSTYLE
  2
ISO-25
  9
$DIMCLRD
 70
     0
  9
$DIMCLRE
 70
     0
  9
$DIMCLRT
 70
     0
  9
$DIMTFAC
 40
1.0
  9
$DIMGAP
 40
1.524
  9
$DIMJUST
 70
     0
  9
$DIMSD1
 70
     0
  9
$DIMSD2
 70
     0
  9
$DIMTOLJ
 70
     0
  9
$DIMTZIN
 70
     0
  9
$DIMALTZ
 70
     0
  9
$DIMALTTZ
 70
     0
  9
$DIMUPT
 70
     0
  9
$DIMDEC
 70
     2
  9
$DIMTDEC
 70
     3
  9
$DIMALTU
 70
     2
  9
$DIMALTTD
 70
     3
  9
$DIMTXSTY
  7
Standard
  9
$DIMAUNIT
 70
     0
  9
$DIMADEC
 70
     2
  9
$DIMALTRND
 40
0.0
  9
$DIMAZIN
 70
     0
  9
$DIMDSEP
 70
    44
  9
$DIMATFIT
 70
     3
  9
$DIMFRAC
 70
     0
  9
$DIMLDRBLK
  1

  9
$DIMLUNIT
 70
     2
  9
$DIMLWD
 70
    -2
  9
$DIMLWE
 70
    -2
  9
$DIMTMOVE
 70
     0
  9
$LUNITS
 70
     2
  9
$LUPREC
 70
     2
  9
$SKETCHINC
 40
1.0
  9
$FILLETRAD
 40
10.0
  9
$AUNITS
 70
     0
  9
$AUPREC
 70
     2
  9
$MENU
  1
.
  9
$ELEVATION
 40
0.0
  9
$PELEVATION
 40
0.0
  9
$THICKNESS
 40
0.0
  9
$LIMCHECK
 70
     0
  9
$CHAMFERA
 40
10.0
  9
$CHAMFERB
 40
10.0
  9
$CHAMFERC
 40
20.0
  9
$CHAMFERD
 40
0.0
  9
$SKPOLY
 70
     0
  9
$TDCREATE
 40
2456087.646800938
  9
$TDUCREATE
 40
2456087.563467604
  9
$TDUPDATE
 40
2456087.646802384
  9
$TDUUPDATE
 40
2456087.563469051
  9
$TDINDWG
 40
0.0000000116
  9
$TDUSRTIMER
 40
0.0000000116
  9
$USRTIMER
 70
     1
  9
$ANGBASE
 50
0.0
  9
$ANGDIR
 70
     0
  9
$PDMODE
 70
     0
  9
$PDSIZE
 40
-1.0
  9
$PLINEWID
 40
0.0
  9
$SPLFRAME
 70
     0
  9
$SPLINETYPE
 70
     6
  9
$SPLINESEGS
 70
     8
  9
$HANDSEED
  5
268
  9
$SURFTAB1
 70
     6
  9
$SURFTAB2
 70
     6
  9
$SURFTYPE
 70
     6
  9
$SURFU
 70
     6
  9
$SURFV
 70
     6
  9
$UCSBASE
  2

  9
$UCSNAME
  2

  9
$UCSORG
 10
0.0
 20
0.0
 30
0.0
  9
$UCSXDIR
 10
1.0
 20
0.0
 30
0.0
  9
$UCSYDIR
 10
0.0
 20
1.0
 30
0.0
  9
$UCSORTHOREF
  2

  9
$UCSORTHOVIEW
 70
     0
  9
$UCSORGTOP
 10
0.0
 20
0.0
 30
0.0
  9
$UCSORGBOTTOM
 10
0.0
 20
0.0
 30
0.0
  9
$UCSORGLEFT
 10
0.0
 20
0.0
 30
0.0
  9
$UCSORGRIGHT
 10
0.0
 20
0.0
 30
0.0
  9
$UCSORGFRONT
 10
0.0
 20
0.0
 30
0.0
  9
$UCSORGBACK
 10
0.0
 20
0.0
 30
0.0
  9
$PUCSBASE
  2

  9
$PUCSNAME
  2

  9
$PUCSORG
 10
0.0
 20
0.0
 30
0.0
  9
$PUCSXDIR
 10
1.0
 20
0.0
 30
0.0
  9
$PUCSYDIR
 10
0.0
 20
1.0
 30
0.0
  9
$PUCSORTHOREF
  2

  9
$PUCSORTHOVIEW
 70
     0
  9
$PUCSORGTOP
 10
0.0
 20
0.0
 30
0.0
  9
$PUCSORGBOTTOM
 10
0.0
 20
0.0
 30
0.0
  9
$PUCSORGLEFT
 10
0.0
 20
0.0
 30
0.0
  9
$PUCSORGRIGHT
 10
0.0
 20
0.0
 30
0.0
  9
$PUCSORGFRONT
 10
0.0
 20
0.0
 30
0.0
  9
$PUCSORGBACK
 10
0.0
 20
0.0
 30
0.0
  9
$USERI1
 70
     0
  9
$USERI2
 70
     0
  9
$USERI3
 70
     0
  9
$USERI4
 70
     0
  9
$USERI5
 70
     0
  9
$USERR1
 40
0.0
  9
$USERR2
 40
0.0
  9
$USERR3
 40
0.0
  9
$USERR4
 40
0.0
  9
$USERR5
 40
0.0
  9
$WORLDVIEW
 70
     1
  9
$SHADEDGE
 70
     3
  9
$SHADEDIF
 70
    70
  9
$TILEMODE
 70
     1
  9
$MAXACTVP
 70
    64
  9
$PINSBASE
 10
0.0
 20
0.0
 30
0.0
  9
$PLIMCHECK
 70
     0
  9
$PEXTMIN
 10
1.0000000000E+20
 20
1.0000000000E+20
 30
1.0000000000E+20
  9
$PEXTMAX
 10
-1.0000000000E+20
 20
-1.0000000000E+20
 30
-1.0000000000E+20
  9
$PLIMMIN
 10
0.0
 20
0.0
  9
$PLIMMAX
 10
420.0
 20
297.0
  9
$UNITMODE
 70
     0
  9
$VISRETAIN
 70
     1
  9
$PLINEGEN
 70
     0
  9
$PSLTSCALE
 70
     1
  9
$TREEDEPTH
 70
  3020
  9
$CMLSTYLE
  2
Standard
  9
$CMLJUST
 70
     0
  9
$CMLSCALE
 40
20.0
  9
$PROXYGRAPHICS
 70
     1
  9
$MEASUREMENT
 70
     1
  9
$CELWEIGHT
370
    -1
  9
$ENDCAPS
280
     0
  9
$JOINSTYLE
280
     0
  9
$LWDISPLAY
290
     1
  9
$INSUNITS
 70
     4
  9
$HYPERLINKBASE
  1

  9
$STYLESHEET
  1

  9
$XEDIT
290
     1
  9
$CEPSNTYPE
380
     0
  9
$PSTYLEMODE
290
     1
  9
$FINGERPRINTGUID
  2
{CA54E462-27A7-47B2-BFC6-090FD918355E}
  9
$VERSIONGUID
  2
{FAEB1C32-E019-11D5-929B-00C0DF256EC4}
  9
$EXTNAMES
290
     1
  9
$PSVPSCALE
 40
0.0
  9
$OLESTARTUP
290
     0
  0
ENDSEC
  0
SECTION
  2
CLASSES
  0
CLASS
  1
ACDBDICTIONARYWDFLT
  2
AcDbDictionaryWithDefault
  3
ObjectDBX Classes
 90
        0
280
     0
281
     0
  0
CLASS
  1
VISUALSTYLE
  2
AcDbVisualStyle
  3
ObjectDBX Classes
 90
     4095
280
     0
281
     0
  0
CLASS
  1
MATERIAL
  2
AcDbMaterial
  3
ObjectDBX Classes
 90
     1153
280
     0
281
     0
  0
CLASS
  1
ACDBPLACEHOLDER
  2
AcDbPlaceHolder
  3
ObjectDBX Classes
 90
        0
280
     0
281
     0
  0
CLASS
  1
LAYOUT
  2
AcDbLayout
  3
ObjectDBX Classes
 90
        0
280
     0
281
     0
  0
ENDSEC
  0
SECTION
  2
TABLES
  0
TABLE
  2
VPORT
  5
8
330
0
100
AcDbSymbolTable
 70
     1
  0
VPORT
  5
29
330
8
100
AcDbSymbolTableRecord
100
AcDbViewportTableRecord
  2
*Active
 70
     0
 10
0.0
 20
0.0
 11
1.0
 21
1.0
 12
148.5
 22
105.0
 13
0.0
 23
0.0
 14
10.0
 24
10.0
 15
10.0
 25
10.0
 16
0.0
 26
0.0
 36
1.0
 17
0.0
 27
0.0
 37
0.0
 40
210.0
 41
1.4142857143
 42
50.0
 43
0.0
 44
0.0
 50
0.0
 51
0.0
 71
     0
 72
  2000
 73
     1
 74
     3
 75
     0
 76
     0
 77
     0
 78
     0
281
     0
 65
     1
110
0.0
120
0.0
130
0.0
111
1.0
121
0.0
131
0.0
112
0.0
122
1.0
132
0.0
 79
     0
146
0.0
  0
ENDTAB
  0
TABLE
  2
LTYPE
  5
5
330
0
100
AcDbSymbolTable
 70
     6
  0
LTYPE
  5
14
330
5
100
AcDbSymbolTableRecord
100
AcDbLinetypeTableRecord
  2
ByBlock
 70
     0
  3

 72
    65
 73
     0
 40
0.0
  0
LTYPE
  5
15
330
5
100
AcDbSymbolTableRecord
100
AcDbLinetypeTableRecord
  2
ByLayer
 70
     0
  3

 72
    65
 73
     0
 40
0.0
  0
LTYPE
  5
16
330
5
100
AcDbSymbolTableRecord
100
AcDbLinetypeTableRecord
  2
Continuous
 70
     0
  3
Solid line
 72
    65
 73
     0
 40
0.0
  0
LTYPE
  5
3F
330
5
100
AcDbSymbolTableRecord
100
AcDbLinetypeTableRecord
  2
HIDDEN
 70
     0
  3
Hidden __ __ __ __ __ __ __ __ __ __ __ __ __ __
 72
    65
 73
     2
 40
1.905
 49
1.27
 74
     0
 49
-0.635
 74
     0
  0
LTYPE
  5
40
330
5
100
AcDbSymbolTableRecord
100
AcDbLinetypeTableRecord
  2
PHANTOM
 70
     0
  3
Phantom ______  __  __  ______  __  __  ______
 72
    65
 73
     6
 40
12.7
 49
6.35
 74
     0
 49
-1.27
 74
     0
 49
1.27
 74
     0
 49
-1.27
 74
     0
 49
1.27
 74
     0
 49
-1.27
 74
     0
  0
LTYPE
  5
41
330
5
100
AcDbSymbolTableRecord
100
AcDbLinetypeTableRecord
  2
CENTER
 70
     0
  3
Center ____ _ ____ _ ____ _ ____ _ ____ _ ____
 72
    65
 73
     4
 40
10.16
 49
6.35
 74
     0
 49
-1.27
 74
     0
 49
1.27
 74
     0
 49
-1.27
 74
     0
  0
LTYPE
  5
42
330
5
100
AcDbSymbolTableRecord
100
AcDbLinetypeTableRecord
  2
CENTERX2
 70
     0
  3
Center (2x) ________  __  ________  __  _____
 72
    65
 73
     4
 40
20.32
 49
12.7
 74
     0
 49
-2.54
 74
     0
 49
2.54
 74
     0
 49
-2.54
 74
     0
  0
LTYPE
  5
43
330
5
100
AcDbSymbolTableRecord
100
AcDbLinetypeTableRecord
  2
DOT2
 70
     0
  3
Dot (.5x) ........................................
 72
    65
 73
     2
 40
0.635
 49
0.0
 74
     0
 49
-0.635
 74
     0
  0
ENDTAB
  0
TABLE
  2
LAYER
  5
2
330
0
100
AcDbSymbolTable
 70
     5
  0
LAYER
  5
10
330
2
100
AcDbSymbolTableRecord
100
AcDbLayerTableRecord
  2
0
 70
     0
 62
     7
  6
Continuous
370
    -3
390
F
  0
LAYER
  5
44
330
2
100
AcDbSymbolTableRecord
100
AcDbLayerTableRecord
  2
FORMAT
 70
     0
 62
     7
  6
Continuous
370
    -3
390
F
  0
LAYER
  5
45
330
2
100
AcDbSymbolTableRecord
100
AcDbLayerTableRecord
  2
VERMASSUNG
 70
     0
 62
     7
  6
Continuous
370
    -3
390
F
  0
LAYER
  5
46
330
2
100
AcDbSymbolTableRecord
100
AcDbLayerTableRecord
  2
KOPF_DÜNN
 70
     0
 62
     7
  6
Continuous
370
    -3
390
F
  0
LAYER
  5
47
330
2
100
AcDbSymbolTableRecord
100
AcDbLayerTableRecord
  2
KOPF_DICK
 70
     0
 62
     7
  6
Continuous
370
    15
390
F
  0
ENDTAB
  0
TABLE
  2
STYLE
  5
3
330
0
100
AcDbSymbolTable
 70
     2
  0
STYLE
  5
11
330
3
100
AcDbSymbolTableRecord
100
AcDbTextStyleTableRecord
  2
Standard
 70
     0
 40
0.0
 41
1.0
 50
0.0
 71
     0
 42
2.0
  3
txt
  4

  0
STYLE
  5
48
330
3
100
AcDbSymbolTableRecord
100
AcDbTextStyleTableRecord
  2
SLDTEXTSTYLE0
 70
     0
 40
0.0
 41
0.7
 50
0.0
 71
     0
 42
0.2
  3
TXT
  4

  0
ENDTAB
  0
TABLE
  2
VIEW
  5
6
330
0
100
AcDbSymbolTable
 70
     0
  0
ENDTAB
  0
TABLE
  2
UCS
  5
7
330
0
100
AcDbSymbolTable
 70
     0
  0
ENDTAB
  0
TABLE
  2
APPID
  5
9
330
0
100
AcDbSymbolTable
 70
     1
  0
APPID
  5
12
330
9
100
AcDbSymbolTableRecord
100
AcDbRegAppTableRecord
  2
ACAD
 70
     0
  0
ENDTAB
  0
TABLE
  2
DIMSTYLE
  5
A
330
0
100
AcDbSymbolTable
 70
     5
100
AcDbDimStyleTable
  0
DIMSTYLE
105
27
330
A
100
AcDbSymbolTableRecord
100
AcDbDimStyleTableRecord
  2
ISO-25
 70
     0
 41
2.5
 42
0.625
 43
3.75
 44
1.25
 73
     0
 74
     0
 77
     1
 78
     8
140
2.5
141
2.5
143
0.0393700787
147
0.625
171
     3
172
     1
178
     0
271
     2
272
     2
274
     3
278
    44
283
     0
284
     8
340
11
  0
DIMSTYLE
105
1AF
102
{ACAD_REACTORS
330
1AE
102
}
330
A
100
AcDbSymbolTableRecord
100
AcDbDimStyleTableRecord
  2
SLDDIMSTYLE0
 70
     0
 41
3.0
 44
0.0
 73
     0
 74
     0
 77
     1
 78
    12
 79
     3
140
2.0
147
0.5
173
     1
178
     0
179
     1
272
     3
276
     2
284
    12
340
48
  0
DIMSTYLE
105
1B8
102
{ACAD_REACTORS
330
1B7
330
1C2
330
1CC
330
1D6
330
1E2
102
}
330
A
100
AcDbSymbolTableRecord
100
AcDbDimStyleTableRecord
  2
SLDDIMSTYLE1
 70
     0
 41
3.0
 44
0.0
 45
0.000000001
 73
     0
 74
     0
 77
     1
 78
    12
 79
     3
140
2.0
147
0.5
173
     1
178
     0
271
     2
272
     3
276
     2
284
    12
340
48
  0
DIMSTYLE
105
242
102
{ACAD_REACTORS
330
241
102
}
330
A
100
AcDbSymbolTableRecord
100
AcDbDimStyleTableRecord
  2
SLDDIMSTYLE2
 70
     0
 41
3.0
 44
0.0
 73
     0
 74
     0
 77
     1
 78
    12
 79
     3
140
2.0
147
0.5
173
     1
178
     0
179
     2
272
     3
276
     2
284
    12
340
48
  0
DIMSTYLE
105
24D
102
{ACAD_REACTORS
330
24C
102
}
330
A
100
AcDbSymbolTableRecord
100
AcDbDimStyleTableRecord
  2
SLDDIMSTYLE3
 70
     0
 41
3.0
 44
0.0
 45
0.000000001
 73
     0
 74
     0
 77
     1
 78
    12
 79
     3
140
2.0
147
0.5
172
     1
173
     1
178
     0
271
     2
272
     3
276
     2
284
    12
289
     0
340
48
  0
ENDTAB
  0
TABLE
  2
BLOCK_RECORD
  5
1
330
0
100
AcDbSymbolTable
 70
    10
  0
BLOCK_RECORD
  5
1F
330
1
100
AcDbSymbolTableRecord
100
AcDbBlockTableRecord
  2
*Model_Space
340
22
  0
BLOCK_RECORD
  5
1B
330
1
100
AcDbSymbolTableRecord
100
AcDbBlockTableRecord
  2
*Paper_Space
340
1E
  0
BLOCK_RECORD
  5
23
330
1
100
AcDbSymbolTableRecord
100
AcDbBlockTableRecord
  2
*Paper_Space0
340
26
  0
BLOCK_RECORD
  5
1B0
330
1
100
AcDbSymbolTableRecord
100
AcDbBlockTableRecord
  2
_D
340
0
  0
BLOCK_RECORD
  5
1B9
330
1
100
AcDbSymbolTableRecord
100
AcDbBlockTableRecord
  2
_D_1
340
0
  0
BLOCK_RECORD
  5
1C3
330
1
100
AcDbSymbolTableRecord
100
AcDbBlockTableRecord
  2
_D_2
340
0
  0
BLOCK_RECORD
  5
1CD
330
1
100
AcDbSymbolTableRecord
100
AcDbBlockTableRecord
  2
_D_3
340
0
  0
BLOCK_RECORD
  5
1D7
330
1
100
AcDbSymbolTableRecord
100
AcDbBlockTableRecord
  2
_D_4
340
0
  0
BLOCK_RECORD
  5
1E3
330
1
100
AcDbSymbolTableRecord
100
AcDbBlockTableRecord
  2
_D_5
340
0
  0
BLOCK_RECORD
  5
243
330
1
100
AcDbSymbolTableRecord
100
AcDbBlockTableRecord
  2
_D_6
340
0
  0
BLOCK_RECORD
  5
24E
330
1
100
AcDbSymbolTableRecord
100
AcDbBlockTableRecord
  2
_D_7
340
0
  0
BLOCK_RECORD
  5
25B
330
1
100
AcDbSymbolTableRecord
100
AcDbBlockTableRecord
  2
SW_CENTERMARKSYMBOL_0
340
0
102
{BLKREFS
331
266
102
}
  0
ENDTAB
  0
ENDSEC
  0
SECTION
  2
BLOCKS
  0
BLOCK
  5
20
330
1F
100
AcDbEntity
  8
0
100
AcDbBlockBegin
  2
*Model_Space
 70
     0
 10
0.0
 20
0.0
 30
0.0
  3
*Model_Space
  1

  0
ENDBLK
  5
21
330
1F
100
AcDbEntity
  8
0
100
AcDbBlockEnd
  0
BLOCK
  5
1C
330
1B
100
AcDbEntity
 67
     1
  8
0
100
AcDbBlockBegin
  2
*Paper_Space
 70
     0
 10
0.0
 20
0.0
 30
0.0
  3
*Paper_Space
  1

  0
ENDBLK
  5
1D
330
1B
100
AcDbEntity
 67
     1
  8
0
100
AcDbBlockEnd
  0
BLOCK
  5
24
330
23
100
AcDbEntity
  8
0
100
AcDbBlockBegin
  2
*Paper_Space0
 70
     0
 10
0.0
 20
0.0
 30
0.0
  3
*Paper_Space0
  1

  0
ENDBLK
  5
25
330
23
100
AcDbEntity
  8
0
100
AcDbBlockEnd
  0
BLOCK
  5
1B1
330
1B0
100
AcDbEntity
  8
0
100
AcDbBlockBegin
  2
_D
 70
     0
 10
0.0
 20
0.0
 30
0.0
  3
_D
  1

  0
ARC
  5
1B3
330
1B0
100
AcDbEntity
  8
VERMASSUNG
100
AcDbCircle
 10
273.3704684874
 20
95.5333089956
 30
0.0
 40
10.12634640618637
100
AcDbArc
 50
0.0
 51
107.5093669553
  0
SOLID
  5
1B4
330
1B0
100
AcDbEntity
  8
VERMASSUNG
100
AcDbTrace
 10
283.4968148936
 20
95.5333089956
 30
0.0
 11
283.5116196271
 21
98.5668351319
 31
0.0
 12
282.6209359557
 22
98.4376740013
 32
0.0
 13
282.6209359557
 23
98.4376740013
 33
0.0
  0
SOLID
  5
1B5
330
1B0
100
AcDbEntity
  8
VERMASSUNG
100
AcDbTrace
 10
270.3238385597
 20
105.1904792655
 30
0.0
 11
273.357156317
 21
105.2289939769
 31
0.0
 12
273.2123605102
 22
106.117269933
 32
0.0
 13
273.2123605102
 23
106.117269933
 33
0.0
  0
MTEXT
  5
1B6
330
1B0
100
AcDbEntity
  8
VERMASSUNG
100
AcDbMText
 10
277.3333447232
 20
108.380856184
 30
0.1
 40
2.0
 41
0.0
 71
     1
 72
     1
  1
107.5°
  7
SLDTEXTSTYLE0
 11
0.8064929364690397
 21
-0.5912437259079756
 31
0.0
 73
     1
 44
1.0
  0
ENDBLK
  5
1B2
330
1B0
100
AcDbEntity
  8
0
100
AcDbBlockEnd
  0
BLOCK
  5
1BA
330
1B9
100
AcDbEntity
  8
0
100
AcDbBlockBegin
  2
_D_1
 70
     0
 10
0.0
 20
0.0
 30
0.0
  3
_D_1
  1

  0
SOLID
  5
1BC
330
1B9
100
AcDbEntity
  8
VERMASSUNG
100
AcDbTrace
 10
289.7223180434
 20
122.5333089956
 30
0.0
 11
289.2723180434
 21
119.5333089956
 31
0.0
 12
290.1723180434
 22
119.5333089956
 32
0.0
 13
290.1723180434
 23
119.5333089956
 33
0.0
  0
SOLID
  5
1BD
330
1B9
100
AcDbEntity
  8
VERMASSUNG
100
AcDbTrace
 10
289.7223180434
 20
95.5333089956
 30
0.0
 11
290.1723180434
 21
98.5333089956
 31
0.0
 12
289.2723180434
 22
98.5333089956
 32
0.0
 13
289.2723180434
 23
98.5333089956
 33
0.0
  0
LINE
  5
1BE
330
1B9
100
AcDbEntity
  8
VERMASSUNG
100
AcDbLine
 10
273.2252813482
 20
122.5333089956
 30
0.0
 11
290.7223180434
 21
122.5333089956
 31
0.0
  0
LINE
  5
1BF
330
1B9
100
AcDbEntity
  8
VERMASSUNG
100
AcDbLine
 10
273.2252813482
 20
95.5333089956
 30
0.0
 11
290.7223180434
 21
95.5333089956
 31
0.0
  0
LINE
  5
1C0
330
1B9
100
AcDbEntity
  8
VERMASSUNG
100
AcDbLine
 10
289.7223180434
 20
122.5333089956
 30
0.0
 11
289.7223180434
 21
95.5333089956
 31
0.0
  0
MTEXT
  5
1C1
330
1B9
100
AcDbEntity
  8
VERMASSUNG
100
AcDbMText
 10
287.1441826802
 20
106.7333089446
 30
0.1
 40
2.0
 41
0.0
 71
     1
 72
     1
  1
27
  7
SLDTEXTSTYLE0
 11
-7.044195017643634E-15
 21
1.0
 31
0.0
 73
     1
 44
1.0
  0
ENDBLK
  5
1BB
330
1B9
100
AcDbEntity
  8
0
100
AcDbBlockEnd
  0
BLOCK
  5
1C4
330
1C3
100
AcDbEntity
  8
0
100
AcDbBlockBegin
  2
_D_2
 70
     0
 10
0.0
 20
0.0
 30
0.0
  3
_D_2
  1

  0
SOLID
  5
1C6
330
1C3
100
AcDbEntity
  8
VERMASSUNG
100
AcDbTrace
 10
133.2252813482
 20
81.0333089956
 30
0.0
 11
136.2252813482
 21
80.5833089956
 31
0.0
 12
136.2252813482
 22
81.4833089956
 32
0.0
 13
136.2252813482
 23
81.4833089956
 33
0.0
  0
SOLID
  5
1C7
330
1C3
100
AcDbEntity
  8
VERMASSUNG
100
AcDbTrace
 10
273.2252813482
 20
81.0333089956
 30
0.0
 11
270.2252813482
 21
81.4833089956
 31
0.0
 12
270.2252813482
 22
80.5833089956
 32
0.0
 13
270.2252813482
 23
80.5833089956
 33
0.0
  0
LINE
  5
1C8
330
1C3
100
AcDbEntity
  8
VERMASSUNG
100
AcDbLine
 10
133.2252813482
 20
91.5333089956
 30
0.0
 11
133.2252813482
 21
80.0333089956
 31
0.0
  0
LINE
  5
1C9
330
1C3
100
AcDbEntity
  8
VERMASSUNG
100
AcDbLine
 10
273.2252813482
 20
95.5333089956
 30
0.0
 11
273.2252813482
 21
80.0333089956
 31
0.0
  0
LINE
  5
1CA
330
1C3
100
AcDbEntity
  8
VERMASSUNG
100
AcDbLine
 10
133.2252813482
 20
81.0333089956
 30
0.0
 11
273.2252813482
 21
81.0333089956
 31
0.0
  0
MTEXT
  5
1CB
330
1C3
100
AcDbEntity
  8
VERMASSUNG
100
AcDbMText
 10
200.3252811523
 20
83.6114443587
 30
0.1
 40
2.0
 41
0.0
 71
     1
 72
     1
  1
140
  7
SLDTEXTSTYLE0
 73
     1
 44
1.0
  0
ENDBLK
  5
1C5
330
1C3
100
AcDbEntity
  8
0
100
AcDbBlockEnd
  0
BLOCK
  5
1CE
330
1CD
100
AcDbEntity
  8
0
100
AcDbBlockBegin
  2
_D_3
 70
     0
 10
0.0
 20
0.0
 30
0.0
  3
_D_3
  1

  0
SOLID
  5
1D0
330
1CD
100
AcDbEntity
  8
VERMASSUNG
100
AcDbTrace
 10
273.2252813482
 20
71.458499559
 30
0.0
 11
270.2252813482
 21
71.908499559
 31
0.0
 12
270.2252813482
 22
71.008499559
 32
0.0
 13
270.2252813482
 23
71.008499559
 33
0.0
  0
SOLID
  5
1D1
330
1CD
100
AcDbEntity
  8
VERMASSUNG
100
AcDbTrace
 10
95.2252813482
 20
71.458499559
 30
0.0
 11
98.2252813482
 21
71.008499559
 31
0.0
 12
98.2252813482
 22
71.908499559
 32
0.0
 13
98.2252813482
 23
71.908499559
 33
0.0
  0
LINE
  5
1D2
330
1CD
100
AcDbEntity
  8
VERMASSUNG
100
AcDbLine
 10
273.2252813482
 20
95.5333089956
 30
0.0
 11
273.2252813482
 21
70.458499559
 31
0.0
  0
LINE
  5
1D3
330
1CD
100
AcDbEntity
  8
VERMASSUNG
100
AcDbLine
 10
95.2252813482
 20
102.2409710031
 30
0.0
 11
95.2252813482
 21
70.458499559
 31
0.0
  0
LINE
  5
1D4
330
1CD
100
AcDbEntity
  8
VERMASSUNG
100
AcDbLine
 10
273.2252813482
 20
71.458499559
 30
0.0
 11
95.2252813482
 21
71.458499559
 31
0.0
  0
MTEXT
  5
1D5
330
1CD
100
AcDbEntity
  8
VERMASSUNG
100
AcDbMText
 10
181.4252812152
 20
74.0366349221
 30
0.1
 40
2.0
 41
0.0
 71
     1
 72
     1
  1
178
  7
SLDTEXTSTYLE0
 73
     1
 44
1.0
  0
ENDBLK
  5
1CF
330
1CD
100
AcDbEntity
  8
0
100
AcDbBlockEnd
  0
BLOCK
  5
1D8
330
1D7
100
AcDbEntity
  8
0
100
AcDbBlockBegin
  2
_D_4
 70
     0
 10
0.0
 20
0.0
 30
0.0
  3
_D_4
  1

  0
SOLID
  5
1DA
330
1D7
100
AcDbEntity
  8
VERMASSUNG
100
AcDbTrace
 10
83.0093342418
 20
154.0333089956
 30
0.0
 11
82.5593342418
 21
151.0333089956
 31
0.0
 12
83.4593342418
 22
151.0333089956
 32
0.0
 13
83.4593342418
 23
151.0333089956
 33
0.0
  0
SOLID
  5
1DB
330
1D7
100
AcDbEntity
  8
VERMASSUNG
100
AcDbTrace
 10
83.0093342418
 20
91.0333089956
 30
0.0
 11
83.4593342418
 21
94.0333089956
 31
0.0
 12
82.5593342418
 22
94.0333089956
 32
0.0
 13
82.5593342418
 23
94.0333089956
 33
0.0
  0
LINE
  5
1DC
330
1D7
100
AcDbEntity
  8
VERMASSUNG
100
AcDbLine
 10
133.7252813482
 20
154.0333089956
 30
0.0
 11
82.0093342418
 21
154.0333089956
 31
0.0
  0
LINE
  5
1DD
330
1D7
100
AcDbEntity
  8
VERMASSUNG
100
AcDbLine
 10
133.7252813482
 20
91.0333089956
 30
0.0
 11
82.0093342418
 21
91.0333089956
 31
0.0
  0
LINE
  5
1DE
330
1D7
100
AcDbEntity
  8
VERMASSUNG
100
AcDbLine
 10
83.0093342418
 20
154.0333089956
 30
0.0
 11
83.0093342418
 21
91.0333089956
 31
0.0
  0
MTEXT
  5
1DF
330
1D7
100
AcDbEntity
  8
VERMASSUNG
100
AcDbMText
 10
80.2311987527
 20
116.1283088864
 30
0.1
 40
2.0
 41
0.0
 71
     1
 72
     1
  1
PSC
  7
SLDTEXTSTYLE0
 11
-7.044195017643634E-15
 21
1.0
 31
0.0
 73
     1
 44
1.0
  0
MTEXT
  5
1E0
330
1D7
100
AcDbEntity
  8
VERMASSUNG
100
AcDbMText
 10
80.4311987622
 20
120.7283089885
 30
0.1
 40
2.0
 41
0.0
 71
     1
 72
     1
  1
%%c
  7
SLDTEXTSTYLE0
 11
-7.044195017643634E-15
 21
1.0
 31
0.0
 73
     1
 44
1.0
  0
MTEXT
  5
1E1
330
1D7
100
AcDbEntity
  8
VERMASSUNG
100
AcDbMText
 10
80.2311987527
 20
124.3383094684
 30
0.1
 40
2.0
 41
0.0
 71
     1
 72
     1
  1
63
  7
SLDTEXTSTYLE0
 11
-7.044195017643634E-15
 21
1.0
 31
0.0
 73
     1
 44
1.0
  0
ENDBLK
  5
1D9
330
1D7
100
AcDbEntity
  8
0
100
AcDbBlockEnd
  0
BLOCK
  5
1E4
330
1E3
100
AcDbEntity
  8
0
100
AcDbBlockBegin
  2
_D_5
 70
     0
 10
0.0
 20
0.0
 30
0.0
  3
_D_5
  1

  0
SOLID
  5
1E6
330
1E3
100
AcDbEntity
  8
VERMASSUNG
100
AcDbTrace
 10
177.0188827071
 20
142.5333089956
 30
0.0
 11
176.5688827071
 21
139.5333089956
 31
0.0
 12
177.4688827071
 22
139.5333089956
 32
0.0
 13
177.4688827071
 23
139.5333089956
 33
0.0
  0
SOLID
  5
1E7
330
1E3
100
AcDbEntity
  8
VERMASSUNG
100
AcDbTrace
 10
177.0188827071
 20
102.5333089956
 30
0.0
 11
177.4688827071
 21
105.5333089956
 31
0.0
 12
176.5688827071
 22
105.5333089956
 32
0.0
 13
176.5688827071
 23
105.5333089956
 33
0.0
  0
LINE
  5
1E8
330
1E3
100
AcDbEntity
  8
VERMASSUNG
100
AcDbLine
 10
177.0188827071
 20
142.5333089956
 30
0.0
 11
177.0188827071
 21
102.5333089956
 31
0.0
  0
MTEXT
  5
1E9
330
1E3
100
AcDbEntity
  8
VERMASSUNG
100
AcDbMText
 10
174.4407472275
 20
107.8033136977
 30
0.1
 40
2.0
 41
0.0
 71
     1
 72
     1
  1
%%c
  7
SLDTEXTSTYLE0
 11
-7.044195017643634E-15
 21
1.0
 31
0.0
 73
     1
 44
1.0
  0
MTEXT
  5
1EA
330
1E3
100
AcDbEntity
  8
VERMASSUNG
100
AcDbMText
 10
174.240747218
 20
111.413313712
 30
0.1
 40
2.0
 41
0.0
 71
     1
 72
     1
  1
40
  7
SLDTEXTSTYLE0
 11
-7.044195017643634E-15
 21
1.0
 31
0.0
 73
     1
 44
1.0
  0
ENDBLK
  5
1E5
330
1E3
100
AcDbEntity
  8
0
100
AcDbBlockEnd
  0
BLOCK
  5
244
330
243
100
AcDbEntity
  8
0
100
AcDbBlockBegin
  2
_D_6
 70
     0
 10
0.0
 20
0.0
 30
0.0
  3
_D_6
  1

  0
ARC
  5
246
330
243
100
AcDbEntity
  8
VERMASSUNG
100
AcDbCircle
 10
42.2056102108
 20
95.6891814994
 30
0.0
 40
64.84908039656617
100
AcDbArc
 50
90.0
 51
102.0
  0
SOLID
  5
247
330
243
100
AcDbEntity
  8
VERMASSUNG
100
AcDbTrace
 10
42.2056102108
 20
160.538261896
 30
0.0
 11
39.19601113
 21
160.9188054187
 31
0.0
 12
39.2168120119
 22
160.0190458267
 32
0.0
 13
39.2168120119
 23
160.0190458267
 33
0.0
  0
SOLID
  5
248
330
243
100
AcDbEntity
  8
VERMASSUNG
100
AcDbTrace
 10
28.7227282576
 20
159.1211538991
 30
0.0
 11
31.7541651357
 21
159.2346900337
 31
0.0
 12
31.5874409304
 22
160.1191124664
 32
0.0
 13
31.5874409304
 23
160.1191124664
 33
0.0
  0
LINE
  5
249
330
243
100
AcDbEntity
  8
VERMASSUNG
100
AcDbLine
 10
42.2056102108
 20
156.5333089956
 30
0.0
 11
42.2056102108
 21
161.538261896
 31
0.0
  0
LINE
  5
24A
330
243
100
AcDbEntity
  8
VERMASSUNG
100
AcDbLine
 10
29.8154785635
 20
153.9801679074
 30
0.0
 11
28.5148165667
 21
160.0993014998
 31
0.0
  0
MTEXT
  5
24B
330
243
100
AcDbEntity
  8
VERMASSUNG
100
AcDbMText
 10
32.4723377779
 20
162.464797058
 30
0.1
 40
2.0
 41
0.0
 71
     1
 72
     1
  1
12°
  7
SLDTEXTSTYLE0
 11
0.9945218953682723
 21
0.1045284632676638
 31
0.0
 73
     1
 44
1.0
  0
ENDBLK
  5
245
330
243
100
AcDbEntity
  8
0
100
AcDbBlockEnd
  0
BLOCK
  5
24F
330
24E
100
AcDbEntity
  8
0
100
AcDbBlockBegin
  2
_D_7
 70
     0
 10
0.0
 20
0.0
 30
0.0
  3
_D_7
  1

  0
SOLID
  5
251
330
24E
100
AcDbEntity
  8
VERMASSUNG
100
AcDbTrace
 10
57.3998811031
 20
140.5419931907
 30
0.0
 11
59.5805442206
 21
142.6508337176
 31
0.0
 12
58.8658429997
 22
143.1978274697
 32
0.0
 13
58.8658429997
 23
143.1978274697
 33
0.0
  0
SOLID
  5
252
330
24E
100
AcDbEntity
  8
VERMASSUNG
100
AcDbTrace
 10
27.0113393185
 20
100.8363698081
 30
0.0
 11
24.830676201
 21
98.7275292812
 31
0.0
 12
25.5453774219
 22
98.180535529
 32
0.0
 13
25.5453774219
 23
98.180535529
 33
0.0
  0
LINE
  5
253
330
24E
100
AcDbEntity
  8
VERMASSUNG
100
AcDbLine
 10
57.3998811031
 20
140.5419931907
 30
0.0
 11
56.6057686354
 21
141.1497640264
 31
0.0
  0
LINE
  5
254
330
24E
100
AcDbEntity
  8
VERMASSUNG
100
AcDbLine
 10
27.0113393185
 20
100.8363698081
 30
0.0
 11
26.2172268508
 21
101.4441406438
 31
0.0
  0
LINE
  5
255
330
24E
100
AcDbEntity
  8
VERMASSUNG
100
AcDbLine
 10
57.3998811031
 20
140.5419931907
 30
0.0
 11
61.0465061172
 21
145.3066679966
 31
0.0
  0
LINE
  5
256
330
24E
100
AcDbEntity
  8
VERMASSUNG
100
AcDbLine
 10
57.3998811031
 20
140.5419931907
 30
0.0
 11
27.0113393185
 21
100.8363698081
 31
0.0
  0
LINE
  5
257
330
24E
100
AcDbEntity
  8
VERMASSUNG
100
AcDbLine
 10
27.0113393185
 20
100.8363698081
 30
0.0
 11
14.4488850186
 21
84.422285752
 31
0.0
  0
MTEXT
  5
258
330
24E
100
AcDbEntity
  8
VERMASSUNG
100
AcDbMText
 10
12.401555491
 20
85.9892013069
 30
0.1
 40
2.0
 41
0.0
 71
     1
 72
     1
  1
%%c
  7
SLDTEXTSTYLE0
 11
0.60777083569208
 21
0.7941124676531346
 31
0.0
 73
     1
 44
1.0
  0
MTEXT
  5
259
330
24E
100
AcDbEntity
  8
VERMASSUNG
100
AcDbMText
 10
14.4367857155
 20
88.9775014994
 30
0.1
 40
2.0
 41
0.0
 71
     1
 72
     1
  1
50
  7
SLDTEXTSTYLE0
 11
0.60777083569208
 21
0.7941124676531346
 31
0.0
 73
     1
 44
1.0
  0
MTEXT
  5
25A
330
24E
100
AcDbEntity
  8
VERMASSUNG
100
AcDbMText
 10
17.9542597721
 20
93.5734278568
 30
0.1
 40
2.0
 41
0.0
 71
     1
 72
     1
  1
min.
  7
SLDTEXTSTYLE0
 11
0.60777083569208
 21
0.7941124676531346
 31
0.0
 73
     1
 44
1.0
  0
ENDBLK
  5
250
330
24E
100
AcDbEntity
  8
0
100
AcDbBlockEnd
  0
BLOCK
  5
25C
330
25B
100
AcDbEntity
  8
0
100
AcDbBlockBegin
  2
SW_CENTERMARKSYMBOL_0
 70
     0
 10
0.0
 20
0.0
 30
0.0
  3
SW_CENTERMARKSYMBOL_0
  1

  0
LINE
  5
25E
330
25B
100
AcDbEntity
  8
VERMASSUNG
 62
     0
100
AcDbLine
 10
0.0
 20
0.0
 30
0.0
 11
0.0
 21
2.5
 31
0.0
  0
LINE
  5
25F
330
25B
100
AcDbEntity
  8
VERMASSUNG
 62
     0
100
AcDbLine
 10
0.0
 20
0.0
 30
0.0
 11
-2.5
 21
0.0
 31
0.0
  0
LINE
  5
260
330
25B
100
AcDbEntity
  8
VERMASSUNG
 62
     0
100
AcDbLine
 10
0.0
 20
0.0
 30
0.0
 11
0.0
 21
-2.5
 31
0.0
  0
LINE
  5
261
330
25B
100
AcDbEntity
  8
VERMASSUNG
 62
     0
100
AcDbLine
 10
0.0
 20
0.0
 30
0.0
 11
2.5
 21
0.0
 31
0.0
  0
LINE
  5
262
330
25B
100
AcDbEntity
  8
VERMASSUNG
 62
     0
100
AcDbLine
 10
0.0
 20
5.0
 30
0.0
 11
0.0
 21
34.0
 31
0.0
  0
LINE
  5
263
330
25B
100
AcDbEntity
  8
VERMASSUNG
 62
     0
100
AcDbLine
 10
-5.0
 20
0.0
 30
0.0
 11
-34.0
 21
0.0
 31
0.0
  0
LINE
  5
264
330
25B
100
AcDbEntity
  8
VERMASSUNG
 62
     0
100
AcDbLine
 10
0.0
 20
-5.0
 30
0.0
 11
0.0
 21
-34.0
 31
0.0
  0
LINE
  5
265
330
25B
100
AcDbEntity
  8
VERMASSUNG
 62
     0
100
AcDbLine
 10
5.0
 20
0.0
 30
0.0
 11
34.0
 21
0.0
 31
0.0
  0
ENDBLK
  5
25D
330
25B
100
AcDbEntity
  8
0
100
AcDbBlockEnd
  0
ENDSEC
  0
SECTION
  2
ENTITIES
  0
MTEXT
  5
49
330
1F
100
AcDbEntity
  8
KOPF_DÜNN
100
AcDbMText
 10
13.8892156294
 20
23.8442973028
 30
0.0
 40
3.0
 41
0.0
 71
     1
 72
     1
  1
PS6.PDF.LQC.140
  7
SLDTEXTSTYLE0
 73
     1
 44
1.0
  0
MTEXT
  5
4A
330
1F
100
AcDbEntity
  8
VERMASSUNG
100
AcDbMText
 10
13.9329988022
 20
28.8834360957
 30
0.0
 40
3.0
 41
0.0
 71
     1
 72
     1
  1
Bohrstange links_Boring bar left
  7
SLDTEXTSTYLE0
 73
     1
 44
1.0
  0
MTEXT
  5
4B
330
1F
100
AcDbEntity
  8
VERMASSUNG
100
AcDbMText
 10
98.8601118557
 20
13.8365368179
 30
0.0
 40
2.0
 41
0.0
 71
     1
 72
     1
  1
Datum: 08.06.2012
  7
SLDTEXTSTYLE0
 73
     1
 44
1.0
  0
MTEXT
  5
4C
330
1F
100
AcDbEntity
  8
VERMASSUNG
100
AcDbMText
 10
13.933048693
 20
18.0482802738
 30
0.0
 40
2.0
 41
0.0
 71
     1
 72
     1
  1
PSC ø63 / Wp.: DN..15 06..
  7
SLDTEXTSTYLE0
 73
     1
 44
1.0
  0
MTEXT
  5
4D
330
1F
100
AcDbEntity
  8
VERMASSUNG
100
AcDbMText
 10
13.9808475933
 20
13.9090973692
 30
0.0
 40
2.0
 41
0.0
 71
     1
 72
     1
  1
Gewicht: 1719g
  7
SLDTEXTSTYLE0
 73
     1
 44
1.0
  0
LINE
  5
4E
330
1F
100
AcDbEntity
  8
0
  6
Continuous
 62
     7
370
    15
100
AcDbLine
 10
268.1517494821
 20
111.0382561588
 30
0.0
 11
268.0226458215
 21
111.2936294653
 31
0.0
  0
LINE
  5
4F
330
1F
100
AcDbEntity
  8
0
  6
Continuous
 62
     7
370
    15
100
AcDbLine
 10
268.930752387
 20
109.5896891334
 30
0.0
 11
268.2669950628
 21
110.9026956388
 31
0.0
  0
LINE
  5
50
330
1F
100
AcDbEntity
  8
0
  6
Continuous
 62
     7
370
    15
100
AcDbLine
 10
258.5363579893
 20
100.1682250776
 30
0.0
 11
258.7211472893
 21
99.8027014562
 31
0.0
  0
ARC
  5
51
330
1F
100
AcDbEntity
  8
0
  6
Continuous
 62
     7
370
    15
100
AcDbCircle
 10
154.2252813482
 20
92.0333089956
 30
0.0
 40
1.0
100
AcDbArc
 50
270.0
 51
0.0
  0
ARC
  5
52
330
1F
100
AcDbEntity
  8
0
  6
Continuous
 62
     7
370
    15
100
AcDbCircle
 10
154.2252813482
 20
153.0333089956
 30
0.0
 40
1.0
100
AcDbArc
 50
0.0
 51
90.0
  0
ARC
  5
53
330
1F
100
AcDbEntity
  8
0
  6
Continuous
 62
     7
370
    15
100
AcDbCircle
 10
133.7252813482
 20
91.5333089956
 30
0.0
 40
0.5
100
AcDbArc
 50
180.0
 51
270.0
  0
ARC
  5
54
330
1F
100
AcDbEntity
  8
0
  6
Continuous
 62
     7
370
    15
100
AcDbCircle
 10
133.7252813482
 20
153.5333089956
 30
0.0
 40
0.5
100
AcDbArc
 50
90.0
 51
180.0
  0
LINE
  5
55
330
1F
100
AcDbEntity
  8
0
  6
Continuous
 62
     7
370
    15
100
AcDbLine
 10
133.725281372
 20
91.033308489
 30
0.0
 11
154.2252810651
 21
91.033308489
 31
0.0
  0
LINE
  5
56
330
1F
100
AcDbEntity
  8
0
  6
Continuous
 62
     7
370
    15
100
AcDbLine
 10
154.2252810651
 20
154.0333095022
 30
0.0
 11
133.725281372
 21
154.0333095022
 31
0.0
  0
LWPOLYLINE
  5
57
330
1F
100
AcDbEntity
  8
0
  6
Continuous
 62
     7
370
    15
100
AcDbPolyline
 90
        3
 70
   128
 43
0.0
 10
133.0252813533
 20
99.9934884735
 10
133.1507362884
 20
99.9251871386
 10
133.2252813482
 20
99.8724482038
  0
LWPOLYLINE
  5
58
330
1F
100
AcDbEntity
  8
0
  6
Continuous
 62
     7
370
    15
100
AcDbPolyline
 90
        3
 70
   128
 43
0.0
 10
133.2252813482
 20
145.1941697874
 10
133.1507362884
 20
145.1414308527
 10
133.0252813533
 20
145.0731295177
  0
ARC
  5
59
330
1F
100
AcDbEntity
  8
0
  6
Continuous
 62
     7
370
    15
100
AcDbCircle
 10
159.2252813482
 20
98.5333089956
 30
0.0
 40
4.0
100
AcDbArc
 50
90.0
 51
180.0
  0
ARC
  5
5A
330
1F
100
AcDbEntity
  8
0
  6
Continuous
 62
     7
370
    15
100
AcDbCircle
 10
159.2252813482
 20
146.5333089956
 30
0.0
 40
4.000000000000028
100
AcDbArc
 50
180.0
 51
270.0
  0
LINE
  5
5B
330
1F
100
AcDbEntity
  8
0
  6
Continuous
 62
     7
370
    15
100
AcDbLine
 10
159.2252818846
 20
102.5333094426
 30
0.0
 11
246.8110663795
 21
102.5333094426
 31
0.0
  0
LINE
  5
5C
330
1F
100
AcDbEntity
  8
0
  6
Continuous
 62
     7
370
    15
100
AcDbLine
 10
246.8110663795
 20
142.5333085486
 30
0.0
 11
159.2252818846
 21
142.5333085486
 31
0.0
  0
ARC
  5
5D
330
1F
100
AcDbEntity
  8
0
  6
Continuous
 62
     7
370
    15
100
AcDbCircle
 10
246.8110677858
 20
101.5333089956
 30
0.0
 40
1.0
100
AcDbArc
 50
45.0
 51
90.0
  0
ARC
  5
5E
330
1F
100
AcDbEntity
  8
0
  6
Continuous
 62
     7
370
    15
100
AcDbCircle
 10
246.8110677858
 20
143.5333089956
 30
0.0
 40
1.0
100
AcDbArc
 50
270.0
 51
315.0
  0
LINE
  5
5F
330
1F
100
AcDbEntity
  8
0
  6
Continuous
 62
     7
370
    15
100
AcDbLine
 10
257.5152186656
 20
143.0333095619
 30
0.0
 11
247.7252824211
 21
143.0333095619
 31
0.0
  0
LINE
  5
60
330
1F
100
AcDbEntity
  8
0
  6
Continuous
 62
     7
370
    15
100
AcDbLine
 10
247.7252824211
 20
143.0333095619
 30
0.0
 11
247.5181711817
 21
142.8262020477
 31
0.0
  0
LINE
  5
61
330
1F
100
AcDbEntity
  8
0
  6
Continuous
 62
     7
370
    15
100
AcDbLine
 10
247.5181711817
 20
102.2404159435
 30
0.0
 11
248.1994448209
 21
101.5591460296
 31
0.0
  0
ARC
  5
62
330
1F
100
AcDbEntity
  8
0
  6
Continuous
 62
     7
370
    15
100
AcDbCircle
 10
262.6261300549
 20
107.1139545158
 30
0.0
 40
3.220819304887792
100
AcDbArc
 50
312.3801162309
 51
344.034300127
  0
ARC
  5
63
330
1F
100
AcDbEntity
  8
0
  6
Continuous
 62
     7
370
    15
100
AcDbCircle
 10
262.5917962628
 20
107.1028969842
 30
0.0
 40
3.22785114166477
100
AcDbArc
 50
249.6214241227
 51
288.2230999864
  0
LINE
  5
64
330
1F
100
AcDbEntity
  8
0
  6
Continuous
 62
     7
370
    15
100
AcDbLine
 10
261.3399071598
 20
104.7107416221
 30
0.0
 11
261.2624062204
 21
104.7477095404
 31
0.0
  0
LWPOLYLINE
  5
65
330
1F
100
AcDbEntity
  8
0
  6
Continuous
 62
     7
370
    15
100
AcDbPolyline
 90
       27
 70
   128
 43
0.0
 10
258.5602892542
 20
122.1516506471
 10
259.3626571798
 20
121.9275448953
 10
260.0829048061
 20
121.5198098931
 10
260.6791896724
 20
120.9521417755
 10
261.1168367767
 20
120.2575312478
 10
261.3704396391
 20
119.4763467197
 10
261.4252461099
 20
118.6539874894
 10
261.2780673408
 20
117.83824647
 10
260.9374565983
 20
117.0765312404
 10
260.4232175255
 20
116.4131101237
 10
259.7652269506
 20
115.886538943
 10
259.0017361545
 20
115.5274195612
 10
258.1771058941
 20
115.3566229173
 10
257.3392583036
 20
115.3840750472
 10
256.5368978286
 20
115.6081810609
 10
255.8166427517
 20
116.0159159468
 10
255.2203653359
 20
116.5835840643
 10
254.7827033305
 20
117.2781947085
 10
254.5291079187
 20
118.0593792365
 10
254.4743014478
 20
118.881738234
 10
254.621480217
 20
119.6974792534
 10
254.9620909595
 20
120.459194483
 10
255.4763300323
 20
121.1226155997
 10
256.1343206072
 20
121.6491870714
 10
256.8978114033
 20
122.008306395
 10
257.7224491143
 20
122.1791029516
 10
258.5602892542
 20
122.1516506471
  0
LWPOLYLINE
  5
66
330
1F
100
AcDbEntity
  8
0
  6
Continuous
 62
     7
370
    15
100
AcDbPolyline
 90
       20
 70
   128
 43
0.0
 10
258.2986397648
 20
120.7014559318
 10
258.9155627393
 20
120.4991715045
 10
259.4278348589
 20
120.1092728429
 10
259.7799343967
 20
119.5740114913
 10
259.9336994791
 20
118.9513916166
 10
259.8724855089
 20
118.3088833482
 10
259.6029086017
 20
117.7161128276
 10
259.1541899347
 20
117.237315701
 10
258.5749668979
 20
116.9243773461
 10
257.9279808306
 20
116.8112090805
 10
257.2833565974
 20
116.910074094
 10
256.7109508419
 20
117.2102598489
 10
256.2727896476
 20
117.6792361789
 10
256.0163630152
 20
118.2661817425
 10
255.9694467091
 20
118.9074925628
 10
256.137129476
 20
119.5336721853
 10
256.5012393498
 20
120.0768644472
 10
257.0223180556
 20
120.4782060363
 10
257.6439050936
 20
120.6942055856
 10
258.2986397648
 20
120.7014559318
  0
SPLINE
  5
67
330
1F
100
AcDbEntity
  8
0
  6
Continuous
 62
     7
370
    15
100
AcDbSpline
210
0.0
220
0.0
230
1.0
 70
     8
 71
     3
 72
    11
 73
     7
 74
     0
 42
0.00000001
 43
0.00000001
 12
1.0
 22
0.0
 32
0.0
 13
1.0
 23
0.0
 33
0.0
 40
0.0
 40
0.0
 40
0.0
 40
0.0
 40
0.1081079346635645
 40
0.4711591665144855
 40
0.8135801763761767
 40
1.0
 40
1.0
 40
1.0
 40
1.0
 10
256.8121893310312
 20
117.5031193547868
 30
0.0
 10
256.8665922615335
 20
117.5001103888701
 30
0.0
 10
257.1036927062987
 20
117.486996625502
 30
0.0
 10
257.5660112464788
 20
117.4404213100539
 30
0.0
 10
258.1074472187588
 20
117.3389761809156
 30
0.0
 10
258.403636973516
 20
117.2680337665649
 30
0.0
 10
258.5080457830194
 20
117.2430261054062
 30
0.0
  0
SPLINE
  5
68
330
1F
100
AcDbEntity
  8
0
  6
Continuous
 62
     7
370
    15
100
AcDbSpline
210
0.0
220
0.0
230
1.0
 70
     8
 71
     3
 72
    10
 73
     6
 74
     0
 42
0.00000001
 43
0.00000001
 12
1.0
 22
0.0
 32
0.0
 13
1.0
 23
0.0
 33
0.0
 40
0.0
 40
0.0
 40
0.0
 40
0.0
 40
0.4391143682786259
 40
0.7513672069940464
 40
0.9999999999999999
 40
0.9999999999999999
 40
0.9999999999999999
 40
0.9999999999999999
 10
258.5080457830194
 20
117.2430261054062
 30
0.0
 10
258.6561497430711
 20
117.4532589483772
 30
0.0
 10
258.9095699607812
 20
117.8129877011865
 30
0.0
 10
259.3128536296656
 20
118.2669107821292
 30
0.0
 10
259.524022658147
 20
118.472180696568
 30
0.0
 10
259.6176309489969
 20
118.5631739922785
 30
0.0
  0
SPLINE
  5
69
330
1F
100
AcDbEntity
  8
0
  6
Continuous
 62
     7
370
    15
100
AcDbSpline
210
0.0
220
0.0
230
1.0
 70
     8
 71
     3
 72
    10
 73
     6
 74
     0
 42
0.00000001
 43
0.00000001
 12
1.0
 22
0.0
 32
0.0
 13
1.0
 23
0.0
 33
0.0
 40
0.0
 40
0.0
 40
0.0
 40
0.0
 40
0.4391181575005187
 40
0.7513674713525736
 40
1.0
 40
1.0
 40
1.0
 40
1.0
 10
259.6176309489969
 20
118.5631739922785
 30
0.0
 10
259.5229563658961
 20
118.8106398726416
 30
0.0
 10
259.3609603270378
 20
119.2340744530581
 30
0.0
 10
259.1603690016009
 20
119.7806229573551
 30
0.0
 10
259.070972993436
 20
120.0319880711281
 30
0.0
 10
259.031344761825
 20
120.1434153613621
 30
0.0
  0
SPLINE
  5
6A
330
1F
100
AcDbEntity
  8
0
  6
Continuous
 62
     7
370
    15
100
AcDbSpline
210
0.0
220
0.0
230
1.0
 70
     8
 71
     3
 72
    11
 73
     7
 74
     0
 42
0.00000001
 43
0.00000001
 12
1.0
 22
0.0
 32
0.0
 13
1.0
 23
0.0
 33
0.0
 40
0.0
 40
0.0
 40
0.0
 40
0.0
 40
0.1864159852875104
 40
0.5288409094288928
 40
0.8918920988911581
 40
1.0
 40
1.0
 40
1.0
 40
1.0
 10
259.031344761825
 20
120.1434153613621
 30
0.0
 10
258.9269384785872
 20
120.1684233502878
 30
0.0
 10
258.6307497494266
 20
120.23936816538
 30
0.0
 10
258.0893120859803
 20
120.3408095520828
 30
0.0
 10
257.6269917522611
 20
120.3873859443445
 30
0.0
 10
257.3898912462705
 20
120.400500035683
 30
0.0
 10
257.3354883098368
 20
120.4035090764039
 30
0.0
  0
SPLINE
  5
6B
330
1F
100
AcDbEntity
  8
0
  6
Continuous
 62
     7
370
    15
100
AcDbSpline
210
0.0
220
0.0
230
1.0
 70
     8
 71
     3
 72
    10
 73
     6
 74
     0
 42
0.00000001
 43
0.00000001
 12
1.0
 22
0.0
 32
0.0
 13
1.0
 23
0.0
 33
0.0
 40
0.0
 40
0.0
 40
0.0
 40
0.0
 40
0.4391156005461135
 40
0.7513675910913882
 40
1.0
 40
1.0
 40
1.0
 40
1.0
 10
257.3354883098368
 20
120.4035090764039
 30
0.0
 10
257.1659056498347
 20
120.2357617749321
 30
0.0
 10
256.8757339625202
 20
119.9487305565873
 30
0.0
 10
256.4887876782117
 20
119.4624925467886
 30
0.0
 10
256.3066446607316
 20
119.1998063845836
 30
0.0
 10
256.2259031438593
 20
119.0833611895316
 30
0.0
  0
SPLINE
  5
6C
330
1F
100
AcDbEntity
  8
0
  6
Continuous
 62
     7
370
    15
100
AcDbSpline
210
0.0
220
0.0
230
1.0
 70
     8
 71
     3
 72
    10
 73
     6
 74
     0
 42
0.00000001
 43
0.00000001
 12
1.0
 22
0.0
 32
0.0
 13
1.0
 23
0.0
 33
0.0
 40
0.0
 40
0.0
 40
0.0
 40
0.0
 40
0.4391162602645156
 40
0.7513673571941455
 40
0.9999999999999999
 40
0.9999999999999999
 40
0.9999999999999999
 40
0.9999999999999999
 10
256.2259031438593
 20
119.0833611895316
 30
0.0
 10
256.2990943485493
 20
118.8783796796731
 30
0.0
 10
256.4243310728843
 20
118.5276379074524
 30
0.0
 10
256.641274165424
 20
117.9487822718284
 30
0.0
 10
256.7596949155543
 20
117.639999041541
 30
0.0
 10
256.8121893310312
 20
117.5031193547868
 30
0.0
  0
LINE
  5
6D
330
1F
100
AcDbEntity
  8
0
  6
Continuous
 62
     7
370
    15
100
AcDbLine
 10
259.2275185489
 20
119.3348601942
 30
0.0
 11
259.617630949
 21
118.5631739923
 31
0.0
  0
LINE
  5
6E
330
1F
100
AcDbEntity
  8
0
  6
Continuous
 62
     7
370
    15
100
AcDbLine
 10
259.2275185489
 20
119.3348601942
 30
0.0
 11
258.9343829059
 21
120.1249809952
 31
0.0
  0
LINE
  5
6F
330
1F
100
AcDbEntity
  8
0
  6
Continuous
 62
     7
370
    15
100
AcDbLine
 10
258.1179408335
 20
118.0147120745
 30
0.0
 11
258.508045783
 21
117.2430261054
 31
0.0
  0
LINE
  5
70
330
1F
100
AcDbEntity
  8
0
  6
Continuous
 62
     7
370
    15
100
AcDbLine
 10
258.1179408335
 20
118.0147120745
 30
0.0
 11
258.6727334165
 21
118.6747862508
 31
0.0
  0
LINE
  5
71
330
1F
100
AcDbEntity
  8
0
  6
Continuous
 62
     7
370
    15
100
AcDbLine
 10
258.6727334165
 20
118.6747862508
 30
0.0
 11
259.2275185489
 21
119.3348601942
 31
0.0
  0
LINE
  5
72
330
1F
100
AcDbEntity
  8
0
  6
Continuous
 62
     7
370
    15
100
AcDbLine
 10
256.5260572338
 20
118.2588592187
 30
0.0
 11
257.2700126076
 21
118.1447591648
 31
0.0
  0
LINE
  5
73
330
1F
100
AcDbEntity
  8
0
  6
Continuous
 62
     7
370
    15
100
AcDbLine
 10
257.2700126076
 20
118.1447591648
 30
0.0
 11
258.1179408335
 21
118.0147120745
 31
0.0
  0
ARC
  5
74
330
1F
100
AcDbEntity
  8
0
  6
Continuous
 62
     7
370
    15
100
AcDbCircle
 10
257.5588659129
 20
119.6244555934
 30
0.0
 40
1.463752942212459
100
AcDbArc
 50
319.5495098341
 51
19.9955184118
  0
ARC
  5
75
330
1F
100
AcDbEntity
  8
0
  6
Continuous
 62
     7
370
    15
100
AcDbCircle
 10
257.4982279455
 20
119.6619548097
 30
0.0
 40
1.534263623129333
100
AcDbArc
 50
261.4457466021
 51
319.9530425306
  0
ARC
  5
76
330
1F
100
AcDbEntity
  8
0
  6
Continuous
 62
     7
370
    15
100
AcDbCircle
 10
257.4854541644
 20
119.5844284448
 30
0.0
 40
1.455700072142711
100
AcDbArc
 50
219.4245696409
 51
261.4890403634
  0
LINE
  5
77
330
1F
100
AcDbEntity
  8
0
  6
Continuous
 62
     7
370
    15
100
AcDbLine
 10
253.8037715459
 20
114.2268289828
 30
0.0
 11
253.8159830475
 21
114.1847453096
 31
0.0
  0
LINE
  5
78
330
1F
100
AcDbEntity
  8
0
  6
Continuous
 62
     7
370
    15
100
AcDbLine
 10
254.1170312071
 20
113.5892399603
 30
0.0
 11
255.0560800338
 21
110.6126352229
 31
0.0
  0
LINE
  5
79
330
1F
100
AcDbEntity
  8
0
  6
Continuous
 62
     7
370
    15
100
AcDbLine
 10
253.8159830475
 20
114.1847453096
 30
0.0
 11
254.7550393247
 21
111.2081405723
 31
0.0
  0
ARC
  5
7A
330
1F
100
AcDbEntity
  8
0
  6
Continuous
 62
     7
370
    15
100
AcDbCircle
 10
267.1670396318
 20
110.8596717273
 30
0.0
 40
0.9593650349928795
100
AcDbArc
 50
26.8938187681
 51
38.8532254565
  0
LINE
  5
7B
330
1F
100
AcDbEntity
  8
0
  6
Continuous
 62
     7
370
    15
100
AcDbLine
 10
254.443210175
 20
113.3462625572
 30
0.0
 11
258.6979610824
 21
99.8596313425
 31
0.0
  0
ARC
  5
7C
330
1F
100
AcDbEntity
  8
0
  6
Continuous
 62
     7
370
    15
100
AcDbCircle
 10
254.8297619433
 20
113.4591278819
 30
0.0
 40
0.4026920052523253
100
AcDbArc
 50
73.3016359534
 51
196.2767402256
  0
LINE
  5
7D
330
1F
100
AcDbEntity
  8
0
  6
Continuous
 62
     7
370
    15
100
AcDbLine
 10
268.6958653831
 20
109.7842722216
 30
0.0
 11
254.9454687142
 21
113.8448386469
 31
0.0
  0
ARC
  5
7E
330
1F
100
AcDbEntity
  8
0
  6
Continuous
 62
     7
370
    15
100
AcDbCircle
 10
268.5891142184
 20
109.4165783202
 30
0.0
 40
0.3828767638058199
100
AcDbArc
 50
17.6643147989
 51
73.8106037029
  0
LINE
  5
7F
330
1F
100
AcDbEntity
  8
0
  6
Continuous
 62
     7
370
    15
100
AcDbLine
 10
273.2086820507
 20
96.0461280324
 30
0.0
 11
268.9539385938
 21
109.5327583157
 31
0.0
  0
ARC
  5
80
330
1F
100
AcDbEntity
  8
0
  6
Continuous
 62
     7
370
    15
100
AcDbCircle
 10
272.8221329642
 20
95.9332600062
 30
0.0
 40
0.4026901881741595
100
AcDbArc
 50
253.3011600277
 51
16.2772161513
  0
LINE
  5
81
330
1F
100
AcDbEntity
  8
0
  6
Continuous
 62
     7
370
    15
100
AcDbLine
 10
258.9560342932
 20
99.608118368
 30
0.0
 11
272.7064235115
 21
95.5475519427
 31
0.0
  0
ARC
  5
82
330
1F
100
AcDbEntity
  8
0
  6
Continuous
 62
     7
370
    15
100
AcDbCircle
 10
259.0627309012
 20
99.97575672
 30
0.0
 40
0.3828082078380662
100
AcDbArc
 50
197.6590031911
 51
253.8161273995
  0
ARC
  5
83
330
1F
100
AcDbEntity
  8
0
  6
Continuous
 62
     7
370
    15
100
AcDbCircle
 10
272.8224532416
 20
95.9327347441
 30
0.0
 40
0.3825613414861049
100
AcDbArc
 50
253.3019970669
 51
16.2757409376
  0
LINE
  5
84
330
1F
100
AcDbEntity
  8
0
  6
Continuous
 62
     7
370
    15
100
AcDbLine
 10
273.1896830702
 20
96.0399515011
 30
0.0
 11
268.9349396133
 21
109.5265817844
 31
0.0
  0
ARC
  5
85
330
1F
100
AcDbEntity
  8
0
  6
Continuous
 62
     7
370
    15
100
AcDbCircle
 10
268.5883450596
 20
109.4161931538
 30
0.0
 40
0.3637491366939997
100
AcDbArc
 50
17.6664168357
 51
73.811797571
  0
LINE
  5
86
330
1F
100
AcDbEntity
  8
0
  6
Continuous
 62
     7
370
    15
100
AcDbLine
 10
268.689755907
 20
109.7655200415
 30
0.0
 11
254.9393666887
 21
113.8260864669
 31
0.0
  0
ARC
  5
87
330
1F
100
AcDbEntity
  8
0
  6
Continuous
 62
     7
370
    15
100
AcDbCircle
 10
254.829443369
 20
113.4596654309
 30
0.0
 40
0.382553933227378
100
AcDbArc
 50
73.3011848528
 51
196.2775604503
  0
LINE
  5
88
330
1F
100
AcDbEntity
  8
0
  6
Continuous
 62
     7
370
    15
100
AcDbLine
 10
254.4622240567
 20
113.3524390885
 30
0.0
 11
258.716960063
 21
99.8658078738
 31
0.0
  0
ARC
  5
89
330
1F
100
AcDbEntity
  8
0
  6
Continuous
 62
     7
370
    15
100
AcDbCircle
 10
259.0635200261
 20
99.9761610097
 30
0.0
 40
0.363705406354273
100
AcDbArc
 50
197.662742612
 51
253.8154717947
  0
LINE
  5
8A
330
1F
100
AcDbEntity
  8
0
  6
Continuous
 62
     7
370
    15
100
AcDbLine
 10
258.9621437692
 20
99.6268696167
 30
0.0
 11
272.7125329876
 21
95.5663050541
 31
0.0
  0
LINE
  5
8B
330
1F
100
AcDbEntity
  8
0
  6
Continuous
 62
     7
370
    15
100
AcDbLine
 10
268.0321080589
 20
111.0972796583
 30
0.0
 11
268.0287403965
 21
111.0982761734
 31
0.0
  0
LINE
  5
8C
330
1F
100
AcDbEntity
  8
0
  6
Continuous
 62
     7
370
    15
100
AcDbLine
 10
256.2613306546
 20
112.1523396128
 30
0.0
 11
254.8004431629
 21
113.5151579061
 31
0.0
  0
LINE
  5
8D
330
1F
100
AcDbEntity
  8
0
  6
Continuous
 62
     7
370
    15
100
AcDbLine
 10
268.1799275779
 20
109.1638782077
 30
0.0
 11
268.5508472824
 21
109.4545924121
 31
0.0
  0
LINE
  5
8E
330
1F
100
AcDbEntity
  8
0
  6
Continuous
 62
     7
370
    15
100
AcDbLine
 10
256.9004489088
 20
111.9636042991
 30
0.0
 11
256.2613306546
 21
112.1523396128
 31
0.0
  0
LINE
  5
8F
330
1F
100
AcDbEntity
  8
0
  6
Continuous
 62
     7
370
    15
100
AcDbLine
 10
256.2613306546
 20
112.1523396128
 30
0.0
 11
256.4590914154
 21
111.525478495
 31
0.0
  0
LINE
  5
90
330
1F
100
AcDbEntity
  8
0
  6
Continuous
 62
     7
370
    15
100
AcDbLine
 10
259.3739373588
 20
100.4224202611
 30
0.0
 11
259.0551866197
 21
100.0285266914
 31
0.0
  0
LINE
  5
91
330
1F
100
AcDbEntity
  8
0
  6
Continuous
 62
     7
370
    15
100
AcDbLine
 10
253.9244933033
 20
114.1995337808
 30
0.0
 11
255.0560800338
 21
110.6126352229
 31
0.0
  0
SPLINE
  5
92
330
1F
100
AcDbEntity
  8
0
  6
Continuous
 62
     7
370
    15
100
AcDbSpline
210
0.0
220
0.0
230
1.0
 70
     8
 71
     3
 72
    14
 73
    10
 74
     0
 42
0.00000001
 43
0.00000001
 12
1.0
 22
0.0
 32
0.0
 13
1.0
 23
0.0
 33
0.0
 40
0.0
 40
0.0
 40
0.0
 40
0.0
 40
0.221057672179933
 40
0.3460810155235333
 40
0.4396024446665824
 40
0.5338910286656905
 40
0.6146568071889607
 40
0.7517296960038097
 40
1.0
 40
1.0
 40
1.0
 40
1.0
 10
257.0380238795046
 20
111.3970146530294
 30
0.0
 10
257.0785347827712
 20
111.43982243964
 30
0.0
 10
257.1419573928259
 20
111.5068409788131
 30
0.0
 10
257.1972152490173
 20
111.6104354581446
 30
0.0
 10
257.2135708331968
 20
111.6921001645766
 30
0.0
 10
257.1994623735637
 20
111.762471334908
 30
0.0
 10
257.1551537802725
 20
111.8313716534807
 30
0.0
 10
257.0587480994238
 20
111.908890069698
 30
0.0
 10
256.9624756622858
 20
111.9421654906683
 30
0.0
 10
256.9004489087824
 20
111.9636042990708
 30
0.0
  0
ARC
  5
93
330
1F
100
AcDbEntity
  8
0
  6
Continuous
 62
     7
370
    15
100
AcDbCircle
 10
258.8034932575
 20
109.5798001741
 30
0.0
 40
1.006723988174784
100
AcDbArc
 50
73.3019928515
 51
196.2770204512
  0
ARC
  5
94
330
1F
100
AcDbEntity
  8
0
  6
Continuous
 62
     7
370
    15
100
AcDbCircle
 10
256.8568946773
 20
111.5781513569
 30
0.0
 40
0.2561606788546625
100
AcDbArc
 50
314.4803193153
 51
314.9988135491
  0
SPLINE
  5
95
330
1F
100
AcDbEntity
  8
0
  6
Continuous
 62
     7
370
    15
100
AcDbSpline
210
0.0
220
0.0
230
1.0
 70
     8
 71
     3
 72
    14
 73
    10
 74
     0
 42
0.00000001
 43
0.00000001
 12
1.0
 22
0.0
 32
0.0
 13
1.0
 23
0.0
 33
0.0
 40
0.0
 40
0.0
 40
0.0
 40
0.0
 40
0.2234968068010223
 40
0.35676033114635
 40
0.453125618136519
 40
0.5344622497780623
 40
0.6157356178263187
 40
0.7396207932796963
 40
1.0
 40
1.0
 40
1.0
 40
1.0
 10
256.4590914153818
 20
111.5254784950041
 30
0.0
 10
256.4790430843742
 20
111.4707864644293
 30
0.0
 10
256.5108912532073
 20
111.3834834410965
 30
0.0
 10
256.582890749281
 20
111.2886045915729
 30
0.0
 10
256.6497076686508
 20
111.2404714107381
 30
0.0
 10
256.7167444618974
 20
111.2219616468915
 30
0.0
 10
256.793748340031
 20
111.2279581782212
 30
0.0
 10
256.9098607291104
 20
111.277759977279
 30
0.0
 10
256.9852757541622
 20
111.3478736488721
 30
0.0
 10
257.0363773011927
 20
111.3953829758787
 30
0.0
  0
LINE
  5
96
330
1F
100
AcDbEntity
  8
0
  6
Continuous
 62
     7
370
    15
100
AcDbLine
 10
257.8371210003
 20
109.2976338246
 30
0.0
 11
260.2183414602
 21
101.7496536502
 31
0.0
  0
LINE
  5
97
330
1F
100
AcDbEntity
  8
0
  6
Continuous
 62
     7
370
    15
100
AcDbLine
 10
266.7883528375
 20
108.2715212383
 30
0.0
 11
259.0927524471
 21
110.5440731176
 31
0.0
  0
ARC
  5
98
330
1F
100
AcDbEntity
  8
0
  6
Continuous
 62
     7
370
    15
100
AcDbCircle
 10
266.5214990596
 20
107.352278612
 30
0.0
 40
0.9571927417073022
100
AcDbArc
 50
17.6648227651
 51
73.8121224183
  0
LINE
  5
99
330
1F
100
AcDbEntity
  8
0
  6
Continuous
 62
     7
370
    15
100
AcDbLine
 10
269.814778676
 20
100.094756765
 30
0.0
 11
267.4335582161
 21
107.6427369394
 31
0.0
  0
ARC
  5
9A
330
1F
100
AcDbEntity
  8
0
  6
Continuous
 62
     7
370
    15
100
AcDbCircle
 10
268.8484058825
 20
99.8125874976
 30
0.0
 40
1.006725320815435
100
AcDbArc
 50
253.3011620615
 51
16.277171308
  0
LINE
  5
9B
330
1F
100
AcDbEntity
  8
0
  6
Continuous
 62
     7
370
    15
100
AcDbLine
 10
260.8635319376
 20
101.1208693513
 30
0.0
 11
268.559132328
 21
98.848317472
 31
0.0
  0
ARC
  5
9C
330
1F
100
AcDbEntity
  8
0
  6
Continuous
 62
     7
370
    15
100
AcDbCircle
 10
261.1303935655
 20
102.0400984183
 30
0.0
 40
0.9571819085593949
100
AcDbArc
 50
197.6641774696
 51
253.811444879
  0
LWPOLYLINE
  5
9D
330
1F
100
AcDbEntity
  8
0
  6
Continuous
 62
     7
370
    15
100
AcDbPolyline
 90
       23
 70
   128
 43
0.0
 10
263.0384756231
 20
102.2771547564
 10
263.7583656215
 20
102.1719730475
 10
264.4837392473
 20
102.2712874242
 10
265.1558263206
 20
102.5670549848
 10
265.7201779985
 20
103.0353109368
 10
266.1310626173
 20
103.6381225117
 10
266.355205884
 20
104.3266530165
 10
266.3744283819
 20
105.0451218166
 10
266.1872101927
 20
105.735323114
 10
265.8086759948
 20
106.3413403013
 10
265.2695221805
 20
106.8140759149
 10
264.6134240532
 20
107.1152349018
 10
263.8935191536
 20
107.2204175421
 10
263.1681455278
 20
107.1211022341
 10
262.4960733557
 20
106.8253356048
 10
261.9317216778
 20
106.3570796528
 10
261.520837059
 20
105.7542680779
 10
261.2966937923
 20
105.0657375731
 10
261.2774563932
 20
104.347268773
 10
261.4646894836
 20
103.6570674756
 10
261.8432087803
 20
103.0510502883
 10
262.3823625946
 20
102.5783146747
 10
263.0384756231
 20
102.2771547564
  0
ARC
  5
9E
330
1F
100
AcDbEntity
  8
0
  6
Continuous
 62
     7
370
    15
100
AcDbCircle
 10
263.1202925562
 20
106.0843392346
 30
0.0
 40
2.603227888907259
100
AcDbArc
 50
253.3572236097
 51
8.4206025232
  0
LWPOLYLINE
  5
9F
330
1F
100
AcDbEntity
  8
0
  6
Continuous
 62
     7
370
    15
100
AcDbPolyline
 90
        3
 70
   128
 43
0.0
 10
261.29268538
 20
104.2398444393
 10
261.7186052704
 20
103.8913211801
 10
262.3747182989
 20
103.5901631244
  0
LINE
  5
A0
330
1F
100
AcDbEntity
  8
0
  6
Continuous
 62
     7
370
    15
100
AcDbLine
 10
271.223325839
 20
97.570887489
 30
0.0
 11
272.8055907392
 21
95.9679621288
 31
0.0
  0
LINE
  5
A1
330
1F
100
AcDbEntity
  8
0
  6
Continuous
 62
     7
370
    15
100
AcDbLine
 10
271.223325839
 20
97.570887489
 30
0.0
 11
271.0255576277
 21
98.1977476754
 31
0.0
  0
ARC
  5
A2
330
1F
100
AcDbEntity
  8
0
  6
Continuous
 62
     7
370
    15
100
AcDbCircle
 10
267.9244547912
 20
110.7282679772
 30
0.0
 40
0.3843941294744156
100
AcDbArc
 50
26.9860120062
 51
73.7362379051
  0
SPLINE
  5
A3
330
1F
100
AcDbEntity
  8
0
  6
Continuous
 62
     7
370
    15
100
AcDbSpline
210
0.0
220
0.0
230
1.0
 70
     8
 71
     3
 72
    11
 73
     7
 74
     0
 42
0.00000001
 43
0.00000001
 12
1.0
 22
0.0
 32
0.0
 13
1.0
 23
0.0
 33
0.0
 40
0.0
 40
0.0
 40
0.0
 40
0.0
 40
0.3280488898505854
 40
0.6557029479791524
 40
0.9906993572354557
 40
1.0
 40
1.0
 40
1.0
 40
1.0
 10
268.1799275779489
 20
109.1638782077455
 30
0.0
 10
268.124206538986
 20
109.1175976088559
 30
0.0
 10
268.0128315255571
 20
109.025092113288
 30
0.0
 10
267.8406990401452
 20
108.8502868399133
 30
0.0
 10
267.7372133706711
 20
108.7300166051585
 30
0.0
 10
267.6905669259021
 20
108.6708428911782
 30
0.0
 10
267.6893068456415
 20
108.6692444064641
 30
0.0
  0
SPLINE
  5
A4
330
1F
100
AcDbEntity
  8
0
  6
Continuous
 62
     7
370
    15
100
AcDbSpline
210
0.0
220
0.0
230
1.0
 70
     8
 71
     3
 72
    11
 73
     7
 74
     0
 42
0.00000001
 43
0.00000001
 12
1.0
 22
0.0
 32
0.0
 13
1.0
 23
0.0
 33
0.0
 40
0.0
 40
0.0
 40
0.0
 40
0.0
 40
0.3280535870277372
 40
0.655702935375678
 40
0.9906977039695973
 40
1.0
 40
1.0
 40
1.0
 40
1.0
 10
259.3739373588327
 20
100.422420261147
 30
0.0
 10
259.4235818920214
 20
100.4807258759833
 30
0.0
 10
259.522809784733
 20
100.5972652595133
 30
0.0
 10
259.6975787119057
 20
100.766870493918
 30
0.0
 10
259.8128878828041
 20
100.8637189676483
 30
0.0
 10
259.8681899274304
 20
100.9057965191973
 30
0.0
 10
259.8696840905909
 20
100.9069333800101
 30
0.0
  0
LINE
  5
A5
330
1F
100
AcDbEntity
  8
0
  6
Continuous
 62
     7
370
    15
100
AcDbLine
 10
270.5842001343
 20
97.7596218714
 30
0.0
 11
271.223325839
 21
97.570887489
 31
0.0
  0
LWPOLYLINE
  5
A6
330
1F
100
AcDbEntity
  8
0
  6
Continuous
 62
     7
370
    15
100
AcDbPolyline
 90
        9
 70
   128
 43
0.0
 10
270.4466326141
 20
98.3262124487
 10
270.4468263292
 20
98.326415477
 10
270.4470349455
 20
98.326620368
 10
270.4472435617
 20
98.3268233963
 10
270.447452178
 20
98.3270282873
 10
270.4476607942
 20
98.3272313156
 10
270.4478545093
 20
98.3274362066
 10
270.4480631256
 20
98.3276410975
 10
270.4482717418
 20
98.3278441259
  0
SPLINE
  5
A7
330
1F
100
AcDbEntity
  8
0
  6
Continuous
 62
     7
370
    15
100
AcDbSpline
210
0.0
220
0.0
230
1.0
 70
     8
 71
     3
 72
    14
 73
    10
 74
     0
 42
0.00000001
 43
0.00000001
 12
1.0
 22
0.0
 32
0.0
 13
1.0
 23
0.0
 33
0.0
 40
0.0
 40
0.0
 40
0.0
 40
0.0
 40
0.2234979893757251
 40
0.3567614859874911
 40
0.4531267967272318
 40
0.5344634301995623
 40
0.6157368688639642
 40
0.7396134094248397
 40
1.0
 40
1.0
 40
1.0
 40
1.0
 10
271.0255576276545
 20
98.1977476754212
 30
0.0
 10
271.0056060263641
 20
98.25244003733063
 30
0.0
 10
270.973758031024
 20
98.33974341022214
 30
0.0
 10
270.9017582733966
 20
98.43462250628404
 30
0.0
 10
270.8349413698573
 20
98.4827557389146
 30
0.0
 10
270.7679046105826
 20
98.50126529387653
 30
0.0
 10
270.6909027650254
 20
98.49526986104844
 30
0.0
 10
270.5747932806944
 20
98.44546247970837
 30
0.0
 10
270.4993762580268
 20
98.3753524720513
 30
0.0
 10
270.4482717418436
 20
98.32784412586923
 30
0.0
  0
SPLINE
  5
A8
330
1F
100
AcDbEntity
  8
0
  6
Continuous
 62
     7
370
    15
100
AcDbSpline
210
0.0
220
0.0
230
1.0
 70
     8
 71
     3
 72
    14
 73
    10
 74
     0
 42
0.00000001
 43
0.00000001
 12
1.0
 22
0.0
 32
0.0
 13
1.0
 23
0.0
 33
0.0
 40
0.0
 40
0.0
 40
0.0
 40
0.0
 40
0.2210623025292612
 40
0.3460849431014268
 40
0.4396069543677741
 40
0.5338938235570576
 40
0.614658229805075
 40
0.7517302638066469
 40
1.0
 40
1.0
 40
1.0
 40
1.0
 10
270.4466326141123
 20
98.32621244871851
 30
0.0
 10
270.4061186364068
 20
98.28340512967503
 30
0.0
 10
270.3426918218456
 20
98.21638796570825
 30
0.0
 10
270.2874337185353
 20
98.112791333575
 30
0.0
 10
270.271078226889
 20
98.03112661895571
 30
0.0
 10
270.2851866259655
 20
97.96075560667887
 30
0.0
 10
270.329495621268
 20
97.89185640750361
 30
0.0
 10
270.4259011416852
 20
97.81433791848299
 30
0.0
 10
270.5221734053696
 20
97.78106141032939
 30
0.0
 10
270.5842001342539
 20
97.75962187135454
 30
0.0
  0
ELLIPSE
  5
A9
330
1F
100
AcDbEntity
  8
0
  6
Continuous
 62
     7
370
    15
100
AcDbEllipse
 10
263.0908194451
 20
106.2720906891
 30
0.0
 11
2.09333716601634
 21
1.067951011005505
 31
0.0
210
0.0
220
0.0
230
1.0
 40
0.9741101241
 41
4.637848694747071
 42
6.00109651500656
  0
ELLIPSE
  5
AA
330
1F
100
AcDbEntity
  8
0
  6
Continuous
 62
     7
370
    15
100
AcDbEllipse
 10
263.0908194451
 20
106.2720906891
 30
0.0
 11
2.09333716601634
 21
1.067951011005505
 31
0.0
210
0.0
220
0.0
230
1.0
 40
0.9741101241
 41
3.354814873773984
 42
4.637848694747073
  0
LINE
  5
AB
330
1F
100
AcDbEntity
  8
0
  6
Continuous
 62
     7
370
    15
100
AcDbLine
 10
155.225281229
 20
153.0333093383
 30
0.0
 11
155.225281229
 21
92.0333086529
 31
0.0
  0
LINE
  5
AC
330
1F
100
AcDbEntity
  8
0
  6
Continuous
 62
     7
370
    15
100
AcDbLine
 10
133.2252813482
 20
91.5333095022
 30
0.0
 11
133.2252813482
 21
153.533308489
 31
0.0
  0
SPLINE
  5
AD
330
1F
100
AcDbEntity
  8
0
  6
Continuous
 62
     7
370
    15
100
AcDbSpline
210
0.0
220
0.0
230
1.0
 70
     8
 71
     3
 72
    12
 73
     8
 74
     0
 42
0.00000001
 43
0.00000001
 12
1.0
 22
0.0
 32
0.0
 13
1.0
 23
0.0
 33
0.0
 40
0.0
 40
0.0
 40
0.0
 40
0.0
 40
0.2500000000000009
 40
0.2500000000000009
 40
0.5000000000000019
 40
0.5000000000000019
 40
1.0
 40
1.0
 40
1.0
 40
1.0
 10
143.7530381617714
 20
131.9213754269427
 30
0.0
 10
143.6899581232781
 20
131.9213754269427
 30
0.0
 10
143.6308095010966
 20
131.9467397461576
 30
0.0
 10
143.5323369510276
 20
132.0209046065306
 30
0.0
 10
143.4933003390428
 20
132.0674249470847
 30
0.0
 10
143.3934038722638
 20
132.2175672899299
 30
0.0
 10
143.3509829911972
 20
132.3292604969021
 30
0.0
 10
143.3200254598792
 20
132.4426783162919
 30
0.0
  0
LINE
  5
AE
330
1F
100
AcDbEntity
  8
0
  6
Continuous
 62
     7
370
    15
100
AcDbLine
 10
146.6975245604
 20
131.9213758239
 30
0.0
 11
143.7530383447
 21
131.9213758239
 31
0.0
  0
SPLINE
  5
AF
330
1F
100
AcDbEntity
  8
0
  6
Continuous
 62
     7
370
    15
100
AcDbSpline
210
0.0
220
0.0
230
1.0
 70
     8
 71
     3
 72
    12
 73
     8
 74
     0
 42
0.00000001
 43
0.00000001
 12
1.0
 22
0.0
 32
0.0
 13
1.0
 23
0.0
 33
0.0
 40
0.0
 40
0.0
 40
0.0
 40
0.0
 40
0.4999999999999991
 40
0.4999999999999991
 40
0.7499999999999996
 40
0.7499999999999996
 40
1.0
 40
1.0
 40
1.0
 40
1.0
 10
147.1305372365308
 20
132.4426783162918
 30
0.0
 10
147.0998149946117
 20
132.3301225168827
 30
0.0
 10
147.0569777800765
 20
132.2173646571431
 30
0.0
 10
146.9575507558767
 20
132.0678237713467
 30
0.0
 10
146.9177985610601
 20
132.0205310396398
 30
0.0
 10
146.8197571042018
 20
131.9467947463184
 30
0.0
 10
146.7602010486144
 20
131.9213754269427
 30
0.0
 10
146.6975245346385
 20
131.9213754269427
 30
0.0
  0
ELLIPSE
  5
B0
330
1F
100
AcDbEntity
  8
0
  6
Continuous
 62
     7
370
    15
100
AcDbEllipse
 10
130.8781271588
 20
122.5333089956
 30
0.0
 11
14.75368316065607
 21
31.09325491558116
 31
0.0
210
0.0
220
0.0
230
1.0
 40
0.3419987131
 41
5.193281737408619
 42
6.124043104552324
  0
SPLINE
  5
B1
330
1F
100
AcDbEntity
  8
0
  6
Continuous
 62
     7
370
    15
100
AcDbSpline
210
0.0
220
0.0
230
1.0
 70
     8
 71
     3
 72
    12
 73
     8
 74
     0
 42
0.00000001
 43
0.00000001
 12
1.0
 22
0.0
 32
0.0
 13
1.0
 23
0.0
 33
0.0
 40
0.0
 40
0.0
 40
0.0
 40
0.0
 40
0.2500000000000013
 40
0.2500000000000013
 40
0.5000000000000027
 40
0.5000000000000027
 40
1.0
 40
1.0
 40
1.0
 40
1.0
 10
146.6975245346385
 20
152.6018009544799
 30
0.0
 10
146.7606045731319
 20
152.6018009544799
 30
0.0
 10
146.8197531953133
 20
152.5938950282674
 30
0.0
 10
146.9182257453824
 20
152.5705698668312
 30
0.0
 10
146.9572623573671
 20
152.5558570769995
 30
0.0
 10
147.0571588241462
 20
152.5079012762686
 30
0.0
 10
147.0995797052128
 20
152.4716391196885
 30
0.0
 10
147.1305372365308
 20
152.434051455724
 30
0.0
  0
LINE
  5
B2
330
1F
100
AcDbEntity
  8
0
  6
Continuous
 62
     7
370
    15
100
AcDbLine
 10
143.7530383447
 20
152.6018015125
 30
0.0
 11
146.6975245604
 21
152.6018015125
 31
0.0
  0
SPLINE
  5
B3
330
1F
100
AcDbEntity
  8
0
  6
Continuous
 62
     7
370
    15
100
AcDbSpline
210
0.0
220
0.0
230
1.0
 70
     8
 71
     3
 72
    12
 73
     8
 74
     0
 42
0.00000001
 43
0.00000001
 12
1.0
 22
0.0
 32
0.0
 13
1.0
 23
0.0
 33
0.0
 40
0.0
 40
0.0
 40
0.0
 40
0.0
 40
0.5000000000000047
 40
0.5000000000000047
 40
0.7500000000000023
 40
0.7500000000000023
 40
1.0
 40
1.0
 40
1.0
 40
1.0
 10
143.3200254598792
 20
152.434051455724
 30
0.0
 10
143.3507477017983
 20
152.4713534386771
 30
0.0
 10
143.3935849163335
 20
152.5079652707234
 30
0.0
 10
143.4930119405333
 20
152.5557300540086
 30
0.0
 10
143.5327641353499
 20
152.570687569491
 30
0.0
 10
143.6308055922081
 20
152.5938775152601
 30
0.0
 10
143.6903616477956
 20
152.6018009544799
 30
0.0
 10
143.7530381617714
 20
152.6018009544799
 30
0.0
  0
ELLIPSE
  5
B4
330
1F
100
AcDbEntity
  8
0
  6
Continuous
 62
     7
370
    15
100
AcDbEllipse
 10
159.5724355376
 20
122.5333089956
 30
0.0
 11
-14.7536831606561
 21
31.09325491558116
 31
0.0
210
0.0
220
0.0
230
1.0
 40
0.3419987131
 41
0.1591422026272993
 42
1.089903569770978
  0
SPLINE
  5
B5
330
1F
100
AcDbEntity
  8
0
  6
Continuous
 62
     7
370
    15
100
AcDbSpline
210
0.0
220
0.0
230
1.0
 70
     8
 71
     3
 72
    12
 73
     8
 74
     0
 42
0.00000001
 43
0.00000001
 12
1.0
 22
0.0
 32
0.0
 13
1.0
 23
0.0
 33
0.0
 40
0.0
 40
0.0
 40
0.0
 40
0.0
 40
0.2500000000000001
 40
0.2500000000000001
 40
0.5000000000000001
 40
0.5000000000000001
 40
1.0
 40
1.0
 40
1.0
 40
1.0
 10
143.7530381617714
 20
92.4648170367337
 30
0.0
 10
143.6899812068736
 20
92.4648170367337
 30
0.0
 10
143.630851057128
 20
92.47271736781326
 30
0.0
 10
143.5324035065947
 20
92.49602811581829
 30
0.0
 10
143.4933712684067
 20
92.51073324210194
 30
0.0
 10
143.3934813839497
 20
92.55866677028858
 30
0.0
 10
143.3511824103404
 20
92.59473674305333
 30
0.0
 10
143.3200254598792
 20
92.63256653548956
 30
0.0
  0
LINE
  5
B6
330
1F
100
AcDbEntity
  8
0
  6
Continuous
 62
     7
370
    15
100
AcDbLine
 10
146.6975245604
 20
92.4648164787
 30
0.0
 11
143.7530383447
 21
92.4648164787
 31
0.0
  0
SPLINE
  5
B7
330
1F
100
AcDbEntity
  8
0
  6
Continuous
 62
     7
370
    15
100
AcDbSpline
210
0.0
220
0.0
230
1.0
 70
     8
 71
     3
 72
    12
 73
     8
 74
     0
 42
0.00000001
 43
0.00000001
 12
1.0
 22
0.0
 32
0.0
 13
1.0
 23
0.0
 33
0.0
 40
0.0
 40
0.0
 40
0.0
 40
0.0
 40
0.5
 40
0.5
 40
0.75
 40
0.75
 40
1.0
 40
1.0
 40
1.0
 40
1.0
 10
147.1305372365308
 20
92.63256653548957
 30
0.0
 10
147.0993920385687
 20
92.59475101256938
 30
0.0
 10
147.0571177722342
 20
92.55868415448576
 30
0.0
 10
146.9571722384089
 20
92.5107240894745
 30
0.0
 10
146.9174419337049
 20
92.49586311557684
 30
0.0
 10
146.8205538836987
 20
92.47291196944569
 30
0.0
 10
146.7604886419521
 20
92.46481703673365
 30
0.0
 10
146.6975245346385
 20
92.46481703673365
 30
0.0
  0
ELLIPSE
  5
B8
330
1F
100
AcDbEntity
  8
0
  6
Continuous
 62
     7
370
    15
100
AcDbEllipse
 10
130.8781271588
 20
122.5333089956
 30
0.0
 11
-14.75368316065618
 21
31.09325491558116
 31
0.0
210
0.0
220
0.0
230
1.0
 40
0.3419987131
 41
3.300734856217124
 42
4.231496223360772
  0
SPLINE
  5
B9
330
1F
100
AcDbEntity
  8
0
  6
Continuous
 62
     7
370
    15
100
AcDbSpline
210
0.0
220
0.0
230
1.0
 70
     8
 71
     3
 72
    12
 73
     8
 74
     0
 42
0.00000001
 43
0.00000001
 12
1.0
 22
0.0
 32
0.0
 13
1.0
 23
0.0
 33
0.0
 40
0.0
 40
0.0
 40
0.0
 40
0.0
 40
0.2500000000000004
 40
0.2500000000000004
 40
0.5000000000000009
 40
0.5000000000000009
 40
1.0
 40
1.0
 40
1.0
 40
1.0
 10
146.6975245346385
 20
113.1452425642706
 30
0.0
 10
146.7605814895363
 20
113.1452425642706
 30
0.0
 10
146.8197116392819
 20
113.1198962108899
 30
0.0
 10
146.9181591898152
 20
113.0457768287504
 30
0.0
 10
146.9571914280033
 20
112.9992803140524
 30
0.0
 10
147.0570813124603
 20
112.8492058070438
 30
0.0
 10
147.0993802860696
 20
112.738088097929
 30
0.0
 10
147.1305372365308
 20
112.6239396749215
 30
0.0
  0
LINE
  5
BA
330
1F
100
AcDbEntity
  8
0
  6
Continuous
 62
     7
370
    15
100
AcDbLine
 10
143.7530383447
 20
113.1452421674
 30
0.0
 11
146.6975245604
 21
113.1452421674
 31
0.0
  0
SPLINE
  5
BB
330
1F
100
AcDbEntity
  8
0
  6
Continuous
 62
     7
370
    15
100
AcDbSpline
210
0.0
220
0.0
230
1.0
 70
     8
 71
     3
 72
    12
 73
     8
 74
     0
 42
0.00000001
 43
0.00000001
 12
1.0
 22
0.0
 32
0.0
 13
1.0
 23
0.0
 33
0.0
 40
0.0
 40
0.0
 40
0.0
 40
0.0
 40
0.5000000000000019
 40
0.5000000000000019
 40
0.7500000000000009
 40
0.7500000000000009
 40
1.0
 40
1.0
 40
1.0
 40
1.0
 10
143.3200254598792
 20
112.6239396749214
 30
0.0
 10
143.3511706578413
 20
112.7380450407868
 30
0.0
 10
143.3934449241758
 20
112.8491513680055
 30
0.0
 10
143.493390458001
 20
112.9993089754358
 30
0.0
 10
143.5331207627051
 20
113.0463016670532
 30
0.0
 10
143.6300088127113
 20
113.1192772515917
 30
0.0
 10
143.6900740544579
 20
113.1452425642707
 30
0.0
 10
143.7530381617714
 20
113.1452425642707
 30
0.0
  0
ELLIPSE
  5
BC
330
1F
100
AcDbEntity
  8
0
  6
Continuous
 62
     7
370
    15
100
AcDbEllipse
 10
159.5724355376
 20
122.5333089956
 30
0.0
 11
14.75368316065624
 21
31.09325491558116
 31
0.0
210
0.0
220
0.0
230
1.0
 40
0.3419987131
 41
2.051689083818829
 42
2.982450450962509
  0
SPLINE
  5
BD
330
1F
100
AcDbEntity
  8
0
  6
Continuous
 62
     7
370
    15
100
AcDbSpline
210
0.0
220
0.0
230
1.0
 70
     8
 71
     3
 72
    12
 73
     8
 74
     0
 42
0.00000001
 43
0.00000001
 12
1.0
 22
0.0
 32
0.0
 13
1.0
 23
0.0
 33
0.0
 40
0.0
 40
0.0
 40
0.0
 40
0.0
 40
0.4999999999999997
 40
0.4999999999999997
 40
0.7499999999999998
 40
0.7499999999999998
 40
1.0
 40
1.0
 40
1.0
 40
1.0
 10
132.4087690617485
 20
100.678515293131
 30
0.0
 10
132.4652055626557
 20
100.6770974117892
 30
0.0
 10
132.5342901933444
 20
100.6755330755409
 30
0.0
 10
132.6530924650623
 20
100.6725888835665
 30
0.0
 10
132.6932777405324
 20
100.6715506804691
 30
0.0
 10
132.7666587879363
 20
100.6696167852545
 30
0.0
 10
132.8000683516789
 20
100.6687218979657
 30
0.0
 10
132.8303044593354
 20
100.6679381076933
 30
0.0
  0
SPLINE
  5
BE
330
1F
100
AcDbEntity
  8
0
  6
Continuous
 62
     7
370
    15
100
AcDbSpline
210
0.0
220
0.0
230
1.0
 70
     8
 71
     3
 72
    16
 73
    12
 74
     0
 42
0.00000001
 43
0.00000001
 12
1.0
 22
0.0
 32
0.0
 13
1.0
 23
0.0
 33
0.0
 40
0.0
 40
0.0
 40
0.0
 40
0.0
 40
0.0624999999999994
 40
0.0624999999999994
 40
0.1249999999999988
 40
0.1249999999999988
 40
0.2500000000000011
 40
0.2500000000000011
 40
0.5000000000000008
 40
0.5000000000000008
 40
1.0
 40
1.0
 40
1.0
 40
1.0
 10
132.8303044592981
 20
100.6679381077176
 30
0.0
 10
132.8418848668861
 20
100.6676379166062
 30
0.0
 10
132.8551943936473
 20
100.6663101683472
 30
0.0
 10
132.8844958237335
 20
100.6596114935722
 30
0.0
 10
132.8993099236177
 20
100.6542533104665
 30
0.0
 10
132.9351383253206
 20
100.6372076612992
 30
0.0
 10
132.9492579496836
 20
100.6257451235234
 30
0.0
 10
132.9837620937722
 20
100.5941817981512
 30
0.0
 10
132.9948666444768
 20
100.5762844991059
 30
0.0
 10
133.021042821693
 20
100.5261230814917
 30
0.0
 10
133.025281348205
 20
100.4983786692951
 30
0.0
 10
133.025281348205
 20
100.4737145073656
 30
0.0
  0
LINE
  5
BF
330
1F
100
AcDbEntity
  8
0
  6
Continuous
 62
     7
370
    15
100
AcDbLine
 10
133.0252813533
 20
115.5114217677
 30
0.0
 11
133.0252813533
 21
99.9934884735
 31
0.0
  0
SPLINE
  5
C0
330
1F
100
AcDbEntity
  8
0
  6
Continuous
 62
     7
370
    15
100
AcDbSpline
210
0.0
220
0.0
230
1.0
 70
     8
 71
     3
 72
    16
 73
    12
 74
     0
 42
0.00000001
 43
0.00000001
 12
1.0
 22
0.0
 32
0.0
 13
1.0
 23
0.0
 33
0.0
 40
0.0
 40
0.0
 40
0.0
 40
0.0
 40
0.4999999999999979
 40
0.4999999999999979
 40
0.7499999999999986
 40
0.7499999999999986
 40
0.8749999999999998
 40
0.8749999999999998
 40
0.9374999999999999
 40
0.9374999999999999
 40
1.0
 40
1.0
 40
1.0
 40
1.0
 10
133.025281348205
 20
115.5114216698567
 30
0.0
 10
133.025281348205
 20
115.6251142139846
 30
0.0
 10
133.021135073127
 20
115.7394343753341
 30
0.0
 10
132.9951694777335
 20
115.9124826658312
 30
0.0
 10
132.9837085723561
 20
115.9716581729929
 30
0.0
 10
132.9493968345817
 20
116.0547812924611
 30
0.0
 10
132.9353720986522
 20
116.0829026085618
 30
0.0
 10
132.8993491356183
 20
116.1115184225392
 30
0.0
 10
132.8845946265287
 20
116.117311470441
 30
0.0
 10
132.8552424653818
 20
116.115718044504
 30
0.0
 10
132.8419025908777
 20
116.1092216411802
 30
0.0
 10
132.8303044593293
 20
116.1007058949771
 30
0.0
  0
SPLINE
  5
C1
330
1F
100
AcDbEntity
  8
0
  6
Continuous
 62
     7
370
    15
100
AcDbSpline
210
0.0
220
0.0
230
1.0
 70
     8
 71
     3
 72
    12
 73
     8
 74
     0
 42
0.00000001
 43
0.00000001
 12
1.0
 22
0.0
 32
0.0
 13
1.0
 23
0.0
 33
0.0
 40
0.0
 40
0.0
 40
0.0
 40
0.0
 40
0.2499999999999999
 40
0.2499999999999999
 40
0.4999999999999999
 40
0.4999999999999999
 40
1.0
 40
1.0
 40
1.0
 40
1.0
 10
132.8303044593364
 20
116.1007058949679
 30
0.0
 10
132.8001060178958
 20
116.0785331629228
 30
0.0
 10
132.7667386625598
 20
116.0594535070456
 30
0.0
 10
132.6935833867299
 20
116.0342804626029
 30
0.0
 10
132.6533306877059
 20
116.0287239261861
 30
0.0
 10
132.5356019444311
 20
116.0396357371729
 30
0.0
 10
132.4651434963722
 20
116.0815714925837
 30
0.0
 10
132.4087690617539
 20
116.1307832749652
 30
0.0
  0
SPLINE
  5
C2
330
1F
100
AcDbEntity
  8
0
  6
Continuous
 62
     7
370
    15
100
AcDbSpline
210
0.0
220
0.0
230
1.0
 70
     8
 71
     3
 72
    12
 73
     8
 74
     0
 42
0.00000001
 43
0.00000001
 12
1.0
 22
0.0
 32
0.0
 13
1.0
 23
0.0
 33
0.0
 40
0.0
 40
0.0
 40
0.0
 40
0.0
 40
0.4999999999999986
 40
0.4999999999999986
 40
0.7499999999999993
 40
0.7499999999999993
 40
1.0
 40
1.0
 40
1.0
 40
1.0
 10
131.9039610046453
 20
117.3471346668459
 30
0.0
 10
131.9477113565298
 20
117.1266876818713
 30
0.0
 10
132.0006015076543
 20
116.9111426920658
 30
0.0
 10
132.112213050796
 20
116.5987286154938
 30
0.0
 10
132.1547723946995
 20
116.4966491398779
 30
0.0
 10
132.2597496300369
 20
116.3022091272361
 30
0.0
 10
132.3213168731315
 20
116.2071242281724
 30
0.0
 10
132.4087690617539
 20
116.1307832749653
 30
0.0
  0
SPLINE
  5
C3
330
1F
100
AcDbEntity
  8
0
  6
Continuous
 62
     7
370
    15
100
AcDbSpline
210
0.0
220
0.0
230
1.0
 70
     8
 71
     3
 72
    12
 73
     8
 74
     0
 42
0.00000001
 43
0.00000001
 12
1.0
 22
0.0
 32
0.0
 13
1.0
 23
0.0
 33
0.0
 40
0.0
 40
0.0
 40
0.0
 40
0.0
 40
0.2500000000000004
 40
0.2500000000000004
 40
0.5000000000000008
 40
0.5000000000000008
 40
1.0
 40
1.0
 40
1.0
 40
1.0
 10
132.4087690617538
 20
128.9358347162484
 30
0.0
 10
132.3202756541859
 20
128.8585848361401
 30
0.0
 10
132.26021761342
 20
128.7652655122509
 30
0.0
 10
132.1543693404375
 20
128.5692324592814
 30
0.0
 10
132.11183581916
 20
128.4669061010696
 30
0.0
 10
132.0006845123363
 20
128.1555616952937
 30
0.0
 10
131.9477536552885
 20
127.9401434421157
 30
0.0
 10
131.9039610046453
 20
127.7194833243678
 30
0.0
  0
SPLINE
  5
C4
330
1F
100
AcDbEntity
  8
0
  6
Continuous
 62
     7
370
    15
100
AcDbSpline
210
0.0
220
0.0
230
1.0
 70
     8
 71
     3
 72
    12
 73
     8
 74
     0
 42
0.00000001
 43
0.00000001
 12
1.0
 22
0.0
 32
0.0
 13
1.0
 23
0.0
 33
0.0
 40
0.0
 40
0.0
 40
0.0
 40
0.0
 40
0.4999999999999993
 40
0.4999999999999993
 40
0.7499999999999997
 40
0.7499999999999997
 40
1.0
 40
1.0
 40
1.0
 40
1.0
 10
132.4087690617538
 20
128.9358347162484
 30
0.0
 10
132.4650776100494
 20
128.9849889834923
 30
0.0
 10
132.5353522707675
 20
129.026946302096
 30
0.0
 10
132.6533901850911
 20
129.0379059796284
 30
0.0
 10
132.693566425945
 20
129.032397221381
 30
0.0
 10
132.767523520623
 20
129.0068399925921
 30
0.0
 10
132.8001399083344
 20
128.9880599447528
 30
0.0
 10
132.8303044593301
 20
128.9659120962361
 30
0.0
  0
SPLINE
  5
C5
330
1F
100
AcDbEntity
  8
0
  6
Continuous
 62
     7
370
    15
100
AcDbSpline
210
0.0
220
0.0
230
1.0
 70
     8
 71
     3
 72
    16
 73
    12
 74
     0
 42
0.00000001
 43
0.00000001
 12
1.0
 22
0.0
 32
0.0
 13
1.0
 23
0.0
 33
0.0
 40
0.0
 40
0.0
 40
0.0
 40
0.0
 40
0.0624999999999991
 40
0.0624999999999991
 40
0.1249999999999981
 40
0.1249999999999981
 40
0.2499999999999984
 40
0.2499999999999984
 40
0.4999999999999989
 40
0.4999999999999989
 40
1.0
 40
1.0
 40
1.0
 40
1.0
 10
132.8303044592984
 20
128.9659120961816
 30
0.0
 10
132.8419173591377
 20
128.9573855065863
 30
0.0
 10
132.8552685435702
 20
128.9508852450536
 30
0.0
 10
132.8846683831894
 20
128.9493158479361
 30
0.0
 10
132.8995091077447
 20
128.9551992385666
 30
0.0
 10
132.9353423157133
 20
128.9837468746172
 30
0.0
 10
132.9494555235348
 20
129.011913893923
 30
0.0
 10
132.9839468947537
 20
129.0956681523449
 30
0.0
 10
132.9950309658641
 20
129.1533815659663
 30
0.0
 10
133.0211537836601
 20
129.3269721026122
 30
0.0
 10
133.025281348205
 20
129.4420001552541
 30
0.0
 10
133.025281348205
 20
129.555196321357
 30
0.0
  0
LINE
  5
C6
330
1F
100
AcDbEntity
  8
0
  6
Continuous
 62
     7
370
    15
100
AcDbLine
 10
133.0252813533
 20
145.0731295177
 30
0.0
 11
133.0252813533
 21
129.5551962235
 31
0.0
  0
SPLINE
  5
C7
330
1F
100
AcDbEntity
  8
0
  6
Continuous
 62
     7
370
    15
100
AcDbSpline
210
0.0
220
0.0
230
1.0
 70
     8
 71
     3
 72
    16
 73
    12
 74
     0
 42
0.00000001
 43
0.00000001
 12
1.0
 22
0.0
 32
0.0
 13
1.0
 23
0.0
 33
0.0
 40
0.0
 40
0.0
 40
0.0
 40
0.0
 40
0.5000000000000007
 40
0.5000000000000007
 40
0.750000000000003
 40
0.750000000000003
 40
0.8750000000000042
 40
0.8750000000000042
 40
0.9375000000000021
 40
0.9375000000000021
 40
1.0
 40
1.0
 40
1.0
 40
1.0
 10
133.025281348205
 20
144.5929034838481
 30
0.0
 10
133.025281348205
 20
144.5682323278052
 30
0.0
 10
133.021115649745
 20
144.5406504964139
 30
0.0
 10
132.9948573214201
 20
144.4903076255906
 30
0.0
 10
132.9833535396825
 20
144.4720181275287
 30
0.0
 10
132.9492227803359
 20
144.4408630964917
 30
0.0
 10
132.9348008936652
 20
144.42922372128
 30
0.0
 10
132.8992339252274
 20
144.4123416953489
 30
0.0
 10
132.8842821569327
 20
144.4069525915412
 30
0.0
 10
132.855278338573
 20
144.4003320955968
 30
0.0
 10
132.8418629845637
 20
144.3989795073903
 30
0.0
 10
132.8303044593272
 20
144.3986798835187
 30
0.0
  0
SPLINE
  5
C8
330
1F
100
AcDbEntity
  8
0
  6
Continuous
 62
     7
370
    15
100
AcDbSpline
210
0.0
220
0.0
230
1.0
 70
     8
 71
     3
 72
    12
 73
     8
 74
     0
 42
0.00000001
 43
0.00000001
 12
1.0
 22
0.0
 32
0.0
 13
1.0
 23
0.0
 33
0.0
 40
0.0
 40
0.0
 40
0.0
 40
0.0
 40
0.2499999999999999
 40
0.2499999999999999
 40
0.4999999999999998
 40
0.4999999999999998
 40
1.0
 40
1.0
 40
1.0
 40
1.0
 10
132.8303044593364
 20
144.3986798835204
 30
0.0
 10
132.8001166827868
 20
144.3978973461028
 30
0.0
 10
132.766762878695
 20
144.3970040142843
 30
0.0
 10
132.6936366754991
 20
144.3950767054807
 30
0.0
 10
132.6534014724749
 20
144.3940371742681
 30
0.0
 10
132.5357098423419
 20
144.3911192909208
 30
0.0
 10
132.4653291691818
 20
144.3895236848506
 30
0.0
 10
132.4087690617512
 20
144.3881026980827
 30
0.0
  0
SPLINE
  5
C9
330
1F
100
AcDbEntity
  8
0
  6
Continuous
 62
     7
370
    15
100
AcDbSpline
210
0.0
220
0.0
230
1.0
 70
     8
 71
     3
 72
    16
 73
    12
 74
     0
 42
0.00000001
 43
0.00000001
 12
1.0
 22
0.0
 32
0.0
 13
1.0
 23
0.0
 33
0.0
 40
0.0
 40
0.0
 40
0.0
 40
0.0
 40
0.25
 40
0.25
 40
0.375
 40
0.375
 40
0.5
 40
0.5
 40
0.75
 40
0.75
 40
1.0
 40
1.0
 40
1.0
 40
1.0
 10
131.9039610046453
 20
127.7194833243678
 30
0.0
 10
131.7427285271609
 20
126.907073549121
 30
0.0
 10
131.6222486875212
 20
126.0669952547363
 30
0.0
 10
131.4998681702079
 20
124.7657002053735
 30
0.0
 10
131.4688905098105
 20
124.3250191697888
 30
0.0
 10
131.4272767721825
 20
123.4291795288576
 30
0.0
 10
131.4170408592497
 20
122.9825213976552
 30
0.0
 10
131.4168524621936
 20
121.6472114405153
 30
0.0
 10
131.4569971648312
 20
120.7627160672078
 30
0.0
 10
131.6211509197708
 20
119.0054661791818
 30
0.0
 10
131.7427025701803
 20
118.1596752327687
 30
0.0
 10
131.9039610046453
 20
117.3471346668459
 30
0.0
  0
LINE
  5
CA
330
1F
100
AcDbEntity
  8
0
  6
Continuous
 62
     7
370
    15
100
AcDbLine
 10
131.0252813601
 20
129.0184871309
 30
0.0
 11
131.0252813601
 21
116.0481308603
 31
0.0
  0
LINE
  5
CB
330
1F
100
AcDbEntity
  8
0
  6
Continuous
 62
     7
370
    15
100
AcDbLine
 10
96.7252818846
 20
128.5876195894
 30
0.0
 11
96.7252818846
 21
116.4789984019
 31
0.0
  0
LINE
  5
CC
330
1F
100
AcDbEntity
  8
0
  6
Continuous
 62
     7
370
    15
100
AcDbLine
 10
95.2252825701
 20
128.1546067462
 30
0.0
 11
95.2252825701
 21
116.912011245
 31
0.0
  0
LINE
  5
CD
330
1F
100
AcDbEntity
  8
0
  6
Continuous
 62
     7
370
    15
100
AcDbLine
 10
131.0252813601
 20
129.0184871309
 30
0.0
 11
131.0252813601
 21
144.5534086802
 31
0.0
  0
ARC
  5
CE
330
1F
100
AcDbEntity
  8
0
  6
Continuous
 62
     7
370
    15
100
AcDbCircle
 10
131.2252182591
 20
144.5584308913
 30
0.0
 40
0.1999999999999775
100
AcDbArc
 50
181.4391666667
 51
271.4391666667
  0
LINE
  5
CF
330
1F
100
AcDbEntity
  8
0
  6
Continuous
 62
     7
370
    15
100
AcDbLine
 10
96.7252818846
 20
128.5876195894
 30
0.0
 11
96.7252818846
 21
143.6916726657
 31
0.0
  0
LINE
  5
D0
330
1F
100
AcDbEntity
  8
0
  6
Continuous
 62
     7
370
    15
100
AcDbLine
 10
96.7252818846
 20
143.6916726657
 30
0.0
 11
131.0252813601
 21
144.5534086802
 31
0.0
  0
LINE
  5
D1
330
1F
100
AcDbEntity
  8
0
  6
Continuous
 62
     7
370
    15
100
AcDbLine
 10
96.7252818846
 20
101.3749453255
 30
0.0
 11
96.7252818846
 21
116.4789984019
 31
0.0
  0
LINE
  5
D2
330
1F
100
AcDbEntity
  8
0
  6
Continuous
 62
     7
370
    15
100
AcDbLine
 10
131.0252813601
 20
100.513209311
 30
0.0
 11
131.0252813601
 21
116.0481308603
 31
0.0
  0
LINE
  5
D3
330
1F
100
AcDbEntity
  8
0
  6
Continuous
 62
     7
370
    15
100
AcDbLine
 10
96.7252818846
 20
101.3749453255
 30
0.0
 11
131.0252813601
 21
100.513209311
 31
0.0
  0
ARC
  5
D4
330
1F
100
AcDbEntity
  8
0
  6
Continuous
 62
     7
370
    15
100
AcDbCircle
 10
131.2252182591
 20
100.5081870999
 30
0.0
 40
0.1999999999999917
100
AcDbArc
 50
88.5608333333
 51
178.5608333333
  0
LINE
  5
D5
330
1F
100
AcDbEntity
  8
0
  6
Continuous
 62
     7
370
    15
100
AcDbLine
 10
131.2302414772
 20
144.3584940412
 30
0.0
 11
132.4087690774
 21
144.3881026485
 31
0.0
  0
LINE
  5
D6
330
1F
100
AcDbEntity
  8
0
  6
Continuous
 62
     7
370
    15
100
AcDbLine
 10
131.2302414772
 20
100.70812395
 30
0.0
 11
132.4087690774
 21
100.6785153427
 31
0.0
  0
LINE
  5
D7
330
1F
100
AcDbEntity
  8
0
  6
Continuous
 62
     7
370
    15
100
AcDbLine
 10
95.2252825701
 20
142.8256469795
 30
0.0
 11
96.7252818846
 21
143.6916726657
 31
0.0
  0
LINE
  5
D8
330
1F
100
AcDbEntity
  8
0
  6
Continuous
 62
     7
370
    15
100
AcDbLine
 10
95.2252825701
 20
128.1546067462
 30
0.0
 11
95.2252825701
 21
142.8256469795
 31
0.0
  0
LINE
  5
D9
330
1F
100
AcDbEntity
  8
0
  6
Continuous
 62
     7
370
    15
100
AcDbLine
 10
95.2252825701
 20
102.2409710118
 30
0.0
 11
96.7252818846
 21
101.3749453255
 31
0.0
  0
LINE
  5
DA
330
1F
100
AcDbEntity
  8
0
  6
Continuous
 62
     7
370
    15
100
AcDbLine
 10
95.2252825701
 20
102.2409710118
 30
0.0
 11
95.2252825701
 21
116.912011245
 31
0.0
  0
ELLIPSE
  5
DB
330
1F
100
AcDbEntity
  8
0
  6
Continuous
 62
     7
370
    15
100
AcDbEllipse
 10
242.577983223
 20
122.5333089956
 30
0.0
 11
1.195939561569901
 21
19.99755988885701
 31
0.0
210
0.0
220
0.0
230
1.0
 40
0.2612235458
 41
0.9171910228253373
 42
2.674522679105887
  0
SPLINE
  5
DC
330
1F
100
AcDbEntity
  8
0
  6
Continuous
 62
     7
370
    15
100
AcDbSpline
210
0.0
220
0.0
230
1.0
 70
     8
 71
     3
 72
    20
 73
    16
 74
     0
 42
0.00000001
 43
0.00000001
 12
1.0
 22
0.0
 32
0.0
 13
1.0
 23
0.0
 33
0.0
 40
0.0
 40
0.0
 40
0.0
 40
0.0
 40
0.1250000000000004
 40
0.1250000000000004
 40
0.2500000000000008
 40
0.2500000000000008
 40
0.3750000000000012
 40
0.3750000000000012
 40
0.5000000000000016
 40
0.5000000000000016
 40
0.625000000000002
 40
0.625000000000002
 40
0.7500000000000023
 40
0.7500000000000023
 40
1.0
 40
1.0
 40
1.0
 40
1.0
 10
244.326377117799
 20
103.0206888846707
 30
0.0
 10
243.9972524301604
 20
103.0290417576441
 30
0.0
 10
243.6766961948297
 20
103.0438344218907
 30
0.0
 10
243.0518841640204
 20
103.0873205881299
 30
0.0
 10
242.7461989940571
 20
103.1161944579327
 30
0.0
 10
242.1579629685396
 20
103.1905573160492
 30
0.0
 10
241.8810284025334
 20
103.2352757031214
 30
0.0
 10
241.3594558606172
 20
103.342538841873
 30
0.0
 10
241.1132030312294
 20
103.4056379345447
 30
0.0
 10
240.6610727417628
 20
103.5513588756017
 30
0.0
 10
240.4569429362056
 20
103.6331810091472
 30
0.0
 10
240.0885789923113
 20
103.8171268832577
 30
0.0
 10
239.9234214724279
 20
103.9200692134163
 30
0.0
 10
239.4925352594729
 20
104.2575585494108
 30
0.0
 10
239.2914285758336
 20
104.5180910260496
 30
0.0
 10
239.1579929396705
 20
104.8183275892396
 30
0.0
  0
ELLIPSE
  5
DD
330
1F
100
AcDbEntity
  8
0
  6
Continuous
 62
     7
370
    15
100
AcDbEllipse
 10
323.765234898
 20
122.5333089956
 30
0.0
 11
190.2867990447083
 21
4.202620746254794
 31
0.0
210
0.0
220
0.0
230
1.0
 40
0.1027578619
 41
4.279462374324327
 42
4.293785385167695
  0
ELLIPSE
  5
DE
330
1F
100
AcDbEntity
  8
0
  6
Continuous
 62
     7
370
    15
100
AcDbEllipse
 10
323.765234898
 20
122.5333089956
 30
0.0
 11
190.2867990447083
 21
4.202620746254794
 31
0.0
210
0.0
220
0.0
230
1.0
 40
0.1027578619
 41
1.984860967305837
 42
1.999183978149206
  0
SPLINE
  5
DF
330
1F
100
AcDbEntity
  8
0
  6
Continuous
 62
     7
370
    15
100
AcDbSpline
210
0.0
220
0.0
230
1.0
 70
     8
 71
     3
 72
    18
 73
    14
 74
     0
 42
0.00000001
 43
0.00000001
 12
1.0
 22
0.0
 32
0.0
 13
1.0
 23
0.0
 33
0.0
 40
0.0
 40
0.0
 40
0.0
 40
0.0
 40
0.2500000000000012
 40
0.2500000000000012
 40
0.3750000000000018
 40
0.3750000000000018
 40
0.5000000000000023
 40
0.5000000000000023
 40
0.6250000000000029
 40
0.6250000000000029
 40
0.7500000000000036
 40
0.7500000000000036
 40
1.0
 40
1.0
 40
1.0
 40
1.0
 10
239.1579929396705
 20
134.940896444591
 30
0.0
 10
239.29155557936
 20
135.4486911579909
 30
0.0
 10
239.4927564672186
 20
135.9160814209208
 30
0.0
 10
239.922365849218
 20
136.5571260010787
 30
0.0
 10
240.0883960616246
 20
136.7614949782497
 30
0.0
 10
240.4563314598085
 20
137.1361094811903
 30
0.0
 10
240.6591977086819
 20
137.3082725119873
 30
0.0
 10
241.1050858627669
 20
137.6237331982931
 30
0.0
 10
241.3496596309069
 20
137.7678073065243
 30
0.0
 10
241.876940883702
 20
138.0236242037463
 30
0.0
 10
242.1539522086234
 20
138.1329399442699
 30
0.0
 10
243.0247003778511
 20
138.4102453143138
 30
0.0
 10
243.6667843664139
 20
138.5285026237449
 30
0.0
 10
244.326377117799
 20
138.5740698316181
 30
0.0
  0
ELLIPSE
  5
E0
330
1F
100
AcDbEntity
  8
0
  6
Continuous
 62
     7
370
    15
100
AcDbEllipse
 10
239.0003924683
 20
116.1957392635
 30
0.0
 11
-0.0507616578020702
 21
2.949955390980818
 31
0.0
210
0.0
220
0.0
230
1.0
 40
0.2406504161
 41
5.988515567160977
 42
9.576681568662696
  0
SPLINE
  5
E1
330
1F
100
AcDbEntity
  8
0
  6
Continuous
 62
     7
370
    15
100
AcDbSpline
210
0.0
220
0.0
230
1.0
 70
     8
 71
     3
 72
    30
 73
    26
 74
     0
 42
0.00000001
 43
0.00000001
 12
1.0
 22
0.0
 32
0.0
 13
1.0
 23
0.0
 33
0.0
 40
0.0
 40
0.0
 40
0.0
 40
0.0
 40
0.1249999999999977
 40
0.1249999999999977
 40
0.1874999999999968
 40
0.1874999999999968
 40
0.2499999999999959
 40
0.2499999999999959
 40
0.3749999999999955
 40
0.3749999999999955
 40
0.4999999999999951
 40
0.4999999999999951
 40
0.5624999999999952
 40
0.5624999999999952
 40
0.6249999999999951
 40
0.6249999999999951
 40
0.6874999999999951
 40
0.6874999999999951
 40
0.7499999999999953
 40
0.7499999999999953
 40
0.874999999999998
 40
0.874999999999998
 40
0.937499999999999
 40
0.937499999999999
 40
1.0
 40
1.0
 40
1.0
 40
1.0
 10
239.1579929396705
 20
119.022093764948
 30
0.0
 10
239.2380862666948
 20
118.9245755508516
 30
0.0
 10
239.3298441453545
 20
118.7706818487476
 30
0.0
 10
239.4748128198127
 20
118.4904450196191
 30
0.0
 10
239.5246183876034
 20
118.3877886777667
 30
0.0
 10
239.623284751256
 20
118.1717542664227
 30
0.0
 10
239.6724083343897
 20
118.057909017914
 30
0.0
 10
239.8173288821231
 20
117.7006090464696
 30
0.0
 10
239.9110182241378
 20
117.4419347567123
 30
0.0
 10
240.0779476882298
 20
116.8794713212021
 30
0.0
 10
240.149710596458
 20
116.5823955631383
 30
0.0
 10
240.2168243337914
 20
116.1038705719155
 30
0.0
 10
240.2320567089249
 20
115.9387651819211
 30
0.0
 10
240.2411840144611
 20
115.604104121038
 30
0.0
 10
240.2349771099735
 20
115.431180698381
 30
0.0
 10
240.1945492521847
 20
115.0875414265196
 30
0.0
 10
240.1603463087862
 20
114.9171349667668
 30
0.0
 10
240.0643873382467
 20
114.5882422767914
 30
0.0
 10
240.0047329520595
 20
114.4357739553051
 30
0.0
 10
239.8018308371808
 20
114.0101464887159
 30
0.0
 10
239.6444328280209
 20
113.7861104261257
 30
0.0
 10
239.437445670468
 20
113.5361459443761
 30
0.0
 10
239.3719193438903
 20
113.4660399725434
 30
0.0
 10
239.2550628043148
 20
113.354045820317
 30
0.0
 10
239.2031020060396
 20
113.31139887641
 30
0.0
 10
239.1579929396705
 20
113.2816016527143
 30
0.0
  0
LWPOLYLINE
  5
E2
330
1F
100
AcDbEntity
  8
0
  6
Continuous
 62
     7
370
    15
100
AcDbPolyline
 90
       28
 70
   128
 43
0.0
 10
257.9497737789
 20
114.8552724176
 10
258.867178669
 20
114.9807844327
 10
259.7351415062
 20
115.3104586543
 10
260.5068428421
 20
115.8265226536
 10
261.1406935358
 20
116.5011550316
 10
261.6025252247
 20
117.2979862445
 10
261.8674231672
 20
118.174058573
 10
261.9211269521
 20
119.0821434853
 10
261.7607457542
 20
119.9732853116
 10
261.3948924446
 20
120.799442359
 10
260.843325963
 20
121.5160764537
 10
260.135774126
 20
122.084553716
 10
259.310354104
 20
122.4742272994
 10
258.4116054678
 20
122.6640898081
 10
257.4879495406
 20
122.6439057196
 10
256.5891860032
 20
122.414763157
 10
255.7637808823
 20
121.9890152702
 10
255.0562215948
 20
121.3896142567
 10
254.5046476626
 20
120.6488738085
 10
254.1388092541
 20
119.8067278151
 10
253.9784206056
 20
118.9085761567
 10
254.0321243906
 20
118.002838643
 10
254.2970297837
 20
117.1383435854
 10
254.7588614726
 20
116.3616969266
 10
255.3927121663
 20
115.7147667387
 10
256.1644135022
 20
115.2324301206
 10
257.0323614383
 20
114.9406891332
 10
257.9497737789
 20
114.8552724176
  0
SPLINE
  5
E3
330
1F
100
AcDbEntity
  8
0
  6
Continuous
 62
     7
370
    15
100
AcDbSpline
210
0.0
220
0.0
230
1.0
 70
     8
 71
     3
 72
    10
 73
     6
 74
     0
 42
0.00000001
 43
0.00000001
 12
1.0
 22
0.0
 32
0.0
 13
1.0
 23
0.0
 33
0.0
 40
0.0
 40
0.0
 40
0.0
 40
0.0
 40
0.5
 40
0.5
 40
1.0
 40
1.0
 40
1.0
 40
1.0
 10
247.5181745670184
 20
102.6310590569884
 30
0.0
 10
247.4278321508653
 20
102.7292635514591
 30
0.0
 10
247.3205625608984
 20
102.8095245169828
 30
0.0
 10
247.0790102851349
 20
102.9239144011239
 30
0.0
 10
246.9473279222352
 20
102.9566213103968
 30
0.0
 10
246.8110677858319
 20
102.959838042224
 30
0.0
  0
SPLINE
  5
E4
330
1F
100
AcDbEntity
  8
0
  6
Continuous
 62
     7
370
    15
100
AcDbSpline
210
0.0
220
0.0
230
1.0
 70
     8
 71
     3
 72
     8
 73
     4
 74
     0
 42
0.00000001
 43
0.00000001
 12
1.0
 22
0.0
 32
0.0
 13
1.0
 23
0.0
 33
0.0
 40
0.0
 40
0.0
 40
0.0
 40
0.0
 40
1.0
 40
1.0
 40
1.0
 40
1.0
 10
246.8110677858319
 20
138.7435135791266
 30
0.0
 10
247.0832472041294
 20
138.7618345427731
 30
0.0
 10
247.3376520123907
 20
138.8990742328979
 30
0.0
 10
247.5181745670191
 20
139.1031965237741
 30
0.0
  0
SPLINE
  5
E5
330
1F
100
AcDbEntity
  8
0
  6
Continuous
 62
     7
370
    15
100
AcDbSpline
210
0.0
220
0.0
230
1.0
 70
     8
 71
     3
 72
     8
 73
     4
 74
     0
 42
0.00000001
 43
0.00000001
 12
1.0
 22
0.0
 32
0.0
 13
1.0
 23
0.0
 33
0.0
 40
0.0
 40
0.0
 40
0.0
 40
0.0
 40
1.0
 40
1.0
 40
1.0
 40
1.0
 10
247.5181745670184
 20
139.1031965237747
 30
0.0
 10
247.5871555687398
 20
139.181195420518
 30
0.0
 10
247.6561917555899
 20
139.2591458049795
 30
0.0
 10
247.725281348205
 20
139.3370492413667
 30
0.0
  0
ELLIPSE
  5
E6
330
1F
100
AcDbEntity
  8
0
  6
Continuous
 62
     7
370
    15
100
AcDbEllipse
 10
323.765234898
 20
122.5333089956
 30
0.0
 11
195.043969020826
 21
4.307686264911182
 31
0.0
210
0.0
220
0.0
230
1.0
 40
0.1027578619
 41
1.907537067288508
 42
1.969005939912357
  0
LINE
  5
E7
330
1F
100
AcDbEntity
  8
0
  6
Continuous
 62
     7
370
    15
100
AcDbLine
 10
268.3983487987
 20
109.926659336
 30
0.0
 11
258.9024497175
 21
140.0266519763
 31
0.0
  0
LINE
  5
E8
330
1F
100
AcDbEntity
  8
0
  6
Continuous
 62
     7
370
    15
100
AcDbLine
 10
253.9947895312
 20
114.1801110485
 30
0.0
 11
268.3983487987
 21
109.926659336
 31
0.0
  0
ARC
  5
E9
330
1F
100
AcDbEntity
  8
0
  6
Continuous
 62
     7
370
    15
100
AcDbCircle
 10
253.3525236021
 20
112.211547117
 30
0.0
 40
2.070688164861139
100
AcDbArc
 50
71.9305073149
 51
252.0059442197
  0
LINE
  5
EA
330
1F
100
AcDbEntity
  8
0
  6
Continuous
 62
     7
370
    15
100
AcDbLine
 10
255.687434783
 20
109.3637279251
 30
0.0
 11
252.7128500843
 21
110.2421392702
 31
0.0
  0
LINE
  5
EB
330
1F
100
AcDbEntity
  8
0
  6
Continuous
 62
     7
370
    15
100
AcDbLine
 10
258.5928035879
 20
100.1543278822
 30
0.0
 11
255.687434783
 21
109.3637279251
 31
0.0
  0
ARC
  5
EC
330
1F
100
AcDbEntity
  8
0
  6
Continuous
 62
     7
370
    15
100
AcDbCircle
 10
252.345024795
 20
74.8547072146
 30
0.0
 40
26.05965360026872
100
AcDbArc
 50
76.1282668098
 51
91.2765948724
  0
LINE
  5
ED
330
1F
100
AcDbEntity
  8
0
  6
Continuous
 62
     7
370
    15
100
AcDbLine
 10
249.1732804084
 20
100.8512700924
 30
0.0
 11
251.7644433284
 21
100.9078926423
 31
0.0
  0
SPLINE
  5
EE
330
1F
100
AcDbEntity
  8
0
  6
Continuous
 62
     7
370
    15
100
AcDbSpline
210
0.0
220
0.0
230
1.0
 70
     8
 71
     3
 72
     8
 73
     4
 74
     0
 42
0.00000001
 43
0.00000001
 12
1.0
 22
0.0
 32
0.0
 13
1.0
 23
0.0
 33
0.0
 40
0.0
 40
0.0
 40
0.0
 40
0.0
 40
1.0
 40
1.0
 40
1.0
 40
1.0
 10
249.1732770026691
 20
100.8512699345887
 30
0.0
 10
248.6186249239225
 20
101.441809583764
 30
0.0
 10
248.0666662664857
 20
102.0348346879582
 30
0.0
 10
247.5181745670184
 20
102.6310590569884
 30
0.0
  0
ELLIPSE
  5
EF
330
1F
100
AcDbEntity
  8
0
  6
Continuous
 62
     7
370
    15
100
AcDbEllipse
 10
264.1764630608
 20
122.5333089956
 30
0.0
 11
-6.669703807742962
 21
20.49869244577135
 31
0.0
210
0.0
220
0.0
230
1.0
 40
0.0347142918
 41
5.723440995332937
 42
6.271890723419028
  0
LINE
  5
F0
330
1F
100
AcDbEntity
  8
0
  6
Continuous
 62
     7
370
    15
100
AcDbLine
 10
247.7252824211
 20
143.0333095619
 30
0.0
 11
247.7252824211
 21
139.337048588
 31
0.0
  0
SPLINE
  5
F1
330
1F
100
AcDbEntity
  8
0
  6
Continuous
 62
     7
370
    15
100
AcDbSpline
210
0.0
220
0.0
230
1.0
 70
     8
 71
     3
 72
     9
 73
     5
 74
     0
 42
0.00000001
 43
0.00000001
 12
1.0
 22
0.0
 32
0.0
 13
1.0
 23
0.0
 33
0.0
 40
0.0
 40
0.0
 40
0.0
 40
0.0
 40
0.3205022048711221
 40
0.9999999999999999
 40
0.9999999999999999
 40
0.9999999999999999
 40
0.9999999999999999
 10
248.2156125807527
 20
101.5753175147795
 30
0.0
 10
248.2873604617567
 20
101.4963360596055
 30
0.0
 10
248.5112212649384
 20
101.2499057574933
 30
0.0
 10
248.9054219273869
 20
101.0125516708854
 30
0.0
 10
249.1732804083589
 20
100.8512700923705
 30
0.0
  0
LINE
  5
F2
330
1F
100
AcDbEntity
  8
0
  6
Continuous
 62
     7
370
    15
100
AcDbLine
 10
251.274373939
 20
112.3567397722
 30
0.0
 11
251.7490951323
 21
112.1485835888
 31
0.0
  0
LINE
  5
F3
330
1F
100
AcDbEntity
  8
0
  6
Continuous
 62
     7
370
    15
100
AcDbLine
 10
251.7490951323
 20
112.1485835888
 30
0.0
 11
254.723679831
 21
111.2701722437
 31
0.0
  0
LINE
  5
F4
330
1F
100
AcDbEntity
  8
0
  6
Continuous
 62
     7
370
    15
100
AcDbLine
 10
254.723679831
 20
111.2701722437
 30
0.0
 11
255.687434783
 21
109.3637279251
 31
0.0
  0
ARC
  5
F5
330
1F
100
AcDbEntity
  8
0
  6
Continuous
 62
     7
370
    15
100
AcDbCircle
 10
262.7579374064
 20
106.8088786253
 30
0.0
 40
3.272838125235822
100
AcDbArc
 50
266.6319968804
 51
327.0033414091
  0
LINE
  5
F6
330
1F
100
AcDbEntity
  8
0
  6
HIDDEN
 62
     7
370
     0
100
AcDbLine
 10
155.225281229
 20
92.0333086529
 30
0.0
 11
155.225281229
 21
153.0333093383
 31
0.0
  0
LINE
  5
F7
330
1F
100
AcDbEntity
  8
0
  6
HIDDEN
 62
     7
370
     0
100
AcDbLine
 10
133.2252813482
 20
153.533308489
 30
0.0
 11
133.2252813482
 21
91.5333095022
 31
0.0
  0
SPLINE
  5
F8
330
1F
100
AcDbEntity
  8
0
  6
HIDDEN
 62
     7
370
     0
100
AcDbSpline
210
0.0
220
0.0
230
1.0
 70
     8
 71
     3
 72
    60
 73
    56
 74
     0
 42
0.00000001
 43
0.00000001
 12
1.0
 22
0.0
 32
0.0
 13
1.0
 23
0.0
 33
0.0
 40
-0.0624999999999999
 40
-0.0624999999999999
 40
0.0
 40
0.0
 40
0.0312499999999998
 40
0.0312499999999998
 40
0.0624999999999997
 40
0.0624999999999997
 40
0.0937499999999995
 40
0.0937499999999995
 40
0.1249999999999994
 40
0.1249999999999994
 40
0.1874999999999991
 40
0.1874999999999991
 40
0.2499999999999987
 40
0.2499999999999987
 40
0.2812499999999988
 40
0.2812499999999988
 40
0.3124999999999988
 40
0.3124999999999988
 40
0.3437499999999989
 40
0.3437499999999989
 40
0.3749999999999989
 40
0.3749999999999989
 40
0.4062499999999991
 40
0.4062499999999991
 40
0.4374999999999991
 40
0.4374999999999991
 40
0.4687499999999992
 40
0.4687499999999992
 40
0.4999999999999992
 40
0.4999999999999992
 40
0.5624999999999993
 40
0.5624999999999993
 40
0.6249999999999994
 40
0.6249999999999994
 40
0.6562499999999996
 40
0.6562499999999996
 40
0.6874999999999996
 40
0.6874999999999996
 40
0.7187499999999997
 40
0.7187499999999997
 40
0.7499999999999997
 40
0.7499999999999997
 40
0.7812499999999998
 40
0.7812499999999998
 40
0.8124999999999999
 40
0.8124999999999999
 40
0.8437499999999999
 40
0.8437499999999999
 40
0.875
 40
0.875
 40
0.90625
 40
0.90625
 40
0.9375000000000001
 40
0.9375000000000001
 40
1.0
 40
1.0
 40
1.03125
 40
1.03125
 10
143.225281348205
 20
122.2689784705201
 30
0.0
 10
143.225281348205
 20
122.6654742581502
 30
0.0
 10
143.2382532066938
 20
122.7954243191543
 30
0.0
 10
143.2890733763862
 20
123.0510772525144
 30
0.0
 10
143.3275406998531
 20
123.1781067590638
 30
0.0
 10
143.4279389359252
 20
123.4202948901883
 30
0.0
 10
143.4893719668984
 20
123.5351563827411
 30
0.0
 10
143.6345067984433
 20
123.7525365785653
 30
0.0
 10
143.7189619158512
 20
123.8554341457639
 30
0.0
 10
143.9956813662095
 20
124.1321011847717
 30
0.0
 10
144.2187582581275
 20
124.2810992752517
 30
0.0
 10
144.7000416203479
 20
124.4806104157164
 30
0.0
 10
144.9632720393389
 20
124.5331685187131
 30
0.0
 10
145.3546742410268
 20
124.5333788010911
 30
0.0
 10
145.4871972691357
 20
124.520393030364
 30
0.0
 10
145.7437277223767
 20
124.4693658821502
 30
0.0
 10
145.8684145566733
 20
124.4316106829998
 30
0.0
 10
146.1105938189089
 20
124.3314723500911
 30
0.0
 10
146.2276873510589
 20
124.2688666826795
 30
0.0
 10
146.4444023544144
 20
124.1241333894146
 30
0.0
 10
146.5454211812771
 20
124.041506042135
 30
0.0
 10
146.7322060687293
 20
123.8549009888834
 30
0.0
 10
146.8150629499254
 20
123.7537859250073
 30
0.0
 10
146.9599472149993
 20
123.5372531210174
 30
0.0
 10
147.0225847228202
 20
123.4203829134163
 30
0.0
 10
147.12303354622
 20
123.1780850427661
 30
0.0
 10
147.1608846472372
 20
123.0534210443052
 30
0.0
 10
147.2121062124935
 20
122.7971340002413
 30
0.0
 10
147.2252343391108
 20
122.6645620044957
 30
0.0
 10
147.225374979451
 20
122.2729578117217
 30
0.0
 10
147.1730502300792
 20
122.0097924803978
 30
0.0
 10
146.9739391680219
 20
121.5282871112246
 30
0.0
 10
146.8250768315646
 20
121.3050355717405
 30
0.0
 10
146.5487558722392
 20
121.0281792728517
 30
0.0
 10
146.4459922238656
 20
120.943665826008
 30
0.0
 10
146.2286086664861
 20
120.7982485525677
 30
0.0
 10
146.1138098985296
 20
120.7367373535093
 30
0.0
 10
145.8719331751056
 20
120.6362075052545
 30
0.0
 10
145.7447795671054
 20
120.5975624820365
 30
0.0
 10
145.4891135576728
 20
120.5465061544855
 30
0.0
 10
145.3592475199168
 20
120.5334412959399
 30
0.0
 10
145.0952949931851
 20
120.5331786751419
 30
0.0
 10
144.9648906697611
 20
120.546055675386
 30
0.0
 10
144.7092399063818
 20
120.5966416791918
 30
0.0
 10
144.5823743572674
 20
120.6349180438136
 30
0.0
 10
144.3398538993215
 20
120.7351889112936
 30
0.0
 10
144.2249272606612
 20
120.7965449354345
 30
0.0
 10
144.0075557918292
 20
120.9413912306073
 30
0.0
 10
143.9045419791669
 20
121.025768745102
 30
0.0
 10
143.719841433585
 20
121.2101760652902
 30
0.0
 10
143.6370116993284
 20
121.3107491285597
 30
0.0
 10
143.4907592607309
 20
121.5289752691387
 30
0.0
 10
143.4283907799385
 20
121.6455303790599
 30
0.0
 10
143.2784346283717
 20
122.0063799730937
 30
0.0
 10
143.225281348205
 20
122.2689784705201
 30
0.0
 10
143.225281348205
 20
122.6654742581502
 30
0.0
  0
SPLINE
  5
F9
330
1F
100
AcDbEntity
  8
0
  6
HIDDEN
 62
     7
370
     0
100
AcDbSpline
210
0.0
220
0.0
230
1.0
 70
     8
 71
     3
 72
    12
 73
     8
 74
     0
 42
0.00000001
 43
0.00000001
 12
1.0
 22
0.0
 32
0.0
 13
1.0
 23
0.0
 33
0.0
 40
0.0
 40
0.0
 40
0.0
 40
0.0
 40
0.25
 40
0.25
 40
0.5
 40
0.5
 40
1.0
 40
1.0
 40
1.0
 40
1.0
 10
143.7530381617714
 20
113.1452425642708
 30
0.0
 10
143.6899581232781
 20
113.1452425642708
 30
0.0
 10
143.6308095010966
 20
113.1198782450559
 30
0.0
 10
143.5323369510276
 20
113.0457133846829
 30
0.0
 10
143.4933003390428
 20
112.9991930441288
 30
0.0
 10
143.3934038722638
 20
112.8490507012836
 30
0.0
 10
143.3509829911972
 20
112.7373574943114
 30
0.0
 10
143.3200254598792
 20
112.6239396749217
 30
0.0
  0
LINE
  5
FA
330
1F
100
AcDbEntity
  8
0
  6
HIDDEN
 62
     7
370
     0
100
AcDbLine
 10
146.6975245604
 20
113.1452421674
 30
0.0
 11
143.7530383447
 21
113.1452421674
 31
0.0
  0
SPLINE
  5
FB
330
1F
100
AcDbEntity
  8
0
  6
HIDDEN
 62
     7
370
     0
100
AcDbSpline
210
0.0
220
0.0
230
1.0
 70
     8
 71
     3
 72
    12
 73
     8
 74
     0
 42
0.00000001
 43
0.00000001
 12
1.0
 22
0.0
 32
0.0
 13
1.0
 23
0.0
 33
0.0
 40
0.0
 40
0.0
 40
0.0
 40
0.0
 40
0.5
 40
0.5
 40
0.75
 40
0.75
 40
1.0
 40
1.0
 40
1.0
 40
1.0
 10
147.1305372365308
 20
112.6239396749217
 30
0.0
 10
147.0998149946117
 20
112.7364954743308
 30
0.0
 10
147.0569777800765
 20
112.8492533340704
 30
0.0
 10
146.9575507558767
 20
112.9987942198668
 30
0.0
 10
146.91779856106
 20
113.0460869515737
 30
0.0
 10
146.8197571042018
 20
113.1198232448951
 30
0.0
 10
146.7602010486144
 20
113.1452425642708
 30
0.0
 10
146.6975245346385
 20
113.1452425642708
 30
0.0
  0
ELLIPSE
  5
FC
330
1F
100
AcDbEntity
  8
0
  6
HIDDEN
 62
     7
370
     0
100
AcDbEllipse
 10
130.8781271588
 20
122.5333089956
 30
0.0
 11
-14.75368316065611
 21
31.09325491558116
 31
0.0
210
0.0
220
0.0
230
1.0
 40
0.3419987131
 41
3.30073485621713
 42
4.231496223360779
  0
SPLINE
  5
FD
330
1F
100
AcDbEntity
  8
0
  6
HIDDEN
 62
     7
370
     0
100
AcDbSpline
210
0.0
220
0.0
230
1.0
 70
     8
 71
     3
 72
    12
 73
     8
 74
     0
 42
0.00000001
 43
0.00000001
 12
1.0
 22
0.0
 32
0.0
 13
1.0
 23
0.0
 33
0.0
 40
0.0
 40
0.0
 40
0.0
 40
0.0
 40
0.2499999999999996
 40
0.2499999999999996
 40
0.4999999999999991
 40
0.4999999999999991
 40
1.0
 40
1.0
 40
1.0
 40
1.0
 10
146.6975245346385
 20
92.46481703673376
 30
0.0
 10
146.7606045731319
 20
92.46481703673378
 30
0.0
 10
146.8197531953133
 20
92.47272296294621
 30
0.0
 10
146.9182257453824
 20
92.49604812438244
 30
0.0
 10
146.9572623573671
 20
92.51076091421415
 30
0.0
 10
147.0571588241461
 20
92.55871671494508
 30
0.0
 10
147.0995797052128
 20
92.59497887152513
 30
0.0
 10
147.1305372365308
 20
92.63256653548964
 30
0.0
  0
LINE
  5
FE
330
1F
100
AcDbEntity
  8
0
  6
HIDDEN
 62
     7
370
     0
100
AcDbLine
 10
143.7530383447
 20
92.4648164787
 30
0.0
 11
146.6975245604
 21
92.4648164787
 31
0.0
  0
SPLINE
  5
FF
330
1F
100
AcDbEntity
  8
0
  6
HIDDEN
 62
     7
370
     0
100
AcDbSpline
210
0.0
220
0.0
230
1.0
 70
     8
 71
     3
 72
    12
 73
     8
 74
     0
 42
0.00000001
 43
0.00000001
 12
1.0
 22
0.0
 32
0.0
 13
1.0
 23
0.0
 33
0.0
 40
0.0
 40
0.0
 40
0.0
 40
0.0
 40
0.4999999999999971
 40
0.4999999999999971
 40
0.7499999999999986
 40
0.7499999999999986
 40
1.0
 40
1.0
 40
1.0
 40
1.0
 10
143.3200254598792
 20
92.63256653548963
 30
0.0
 10
143.3507477017983
 20
92.59526455253658
 30
0.0
 10
143.3935849163335
 20
92.5586527204902
 30
0.0
 10
143.4930119405333
 20
92.510887937205
 30
0.0
 10
143.5327641353499
 20
92.49593042172262
 30
0.0
 10
143.6308055922081
 20
92.47274047595347
 30
0.0
 10
143.6903616477956
 20
92.46481703673378
 30
0.0
 10
143.7530381617714
 20
92.46481703673378
 30
0.0
  0
ELLIPSE
  5
100
330
1F
100
AcDbEntity
  8
0
  6
HIDDEN
 62
     7
370
     0
100
AcDbEllipse
 10
159.5724355376
 20
122.5333089956
 30
0.0
 11
14.75368316065615
 21
31.09325491558116
 31
0.0
210
0.0
220
0.0
230
1.0
 40
0.3419987131
 41
2.05168908381882
 42
2.982450450962501
  0
SPLINE
  5
101
330
1F
100
AcDbEntity
  8
0
  6
HIDDEN
 62
     7
370
     0
100
AcDbSpline
210
0.0
220
0.0
230
1.0
 70
     8
 71
     3
 72
    12
 73
     8
 74
     0
 42
0.00000001
 43
0.00000001
 12
1.0
 22
0.0
 32
0.0
 13
1.0
 23
0.0
 33
0.0
 40
0.0
 40
0.0
 40
0.0
 40
0.0
 40
0.2500000000000009
 40
0.2500000000000009
 40
0.5000000000000019
 40
0.5000000000000019
 40
1.0
 40
1.0
 40
1.0
 40
1.0
 10
143.7530381617714
 20
152.6018009544801
 30
0.0
 10
143.6899581232781
 20
152.6018009544801
 30
0.0
 10
143.6308095010966
 20
152.5938950282676
 30
0.0
 10
143.5323369510276
 20
152.5705698668314
 30
0.0
 10
143.4933003390428
 20
152.5558570769997
 30
0.0
 10
143.3934038722638
 20
152.5079012762688
 30
0.0
 10
143.3509829911972
 20
152.4716391196887
 30
0.0
 10
143.3200254598792
 20
152.4340514557242
 30
0.0
  0
LINE
  5
102
330
1F
100
AcDbEntity
  8
0
  6
HIDDEN
 62
     7
370
     0
100
AcDbLine
 10
146.6975245604
 20
152.6018015125
 30
0.0
 11
143.7530383447
 21
152.6018015125
 31
0.0
  0
SPLINE
  5
103
330
1F
100
AcDbEntity
  8
0
  6
HIDDEN
 62
     7
370
     0
100
AcDbSpline
210
0.0
220
0.0
230
1.0
 70
     8
 71
     3
 72
    12
 73
     8
 74
     0
 42
0.00000001
 43
0.00000001
 12
1.0
 22
0.0
 32
0.0
 13
1.0
 23
0.0
 33
0.0
 40
0.0
 40
0.0
 40
0.0
 40
0.0
 40
0.5000000000000019
 40
0.5000000000000019
 40
0.7500000000000009
 40
0.7500000000000009
 40
1.0
 40
1.0
 40
1.0
 40
1.0
 10
147.1305372365308
 20
152.4340514557242
 30
0.0
 10
147.0998149946117
 20
152.4713534386772
 30
0.0
 10
147.0569777800765
 20
152.5079652707236
 30
0.0
 10
146.9575507558767
 20
152.5557300540088
 30
0.0
 10
146.91779856106
 20
152.5706875694912
 30
0.0
 10
146.8197571042018
 20
152.5938775152603
 30
0.0
 10
146.7602010486144
 20
152.6018009544801
 30
0.0
 10
146.6975245346385
 20
152.6018009544801
 30
0.0
  0
ELLIPSE
  5
104
330
1F
100
AcDbEntity
  8
0
  6
HIDDEN
 62
     7
370
     0
100
AcDbEllipse
 10
130.8781271588
 20
122.5333089956
 30
0.0
 11
14.75368316065627
 21
31.09325491558116
 31
0.0
210
0.0
220
0.0
230
1.0
 40
0.3419987131
 41
5.193281737408637
 42
6.124043104552343
  0
SPLINE
  5
105
330
1F
100
AcDbEntity
  8
0
  6
HIDDEN
 62
     7
370
     0
100
AcDbSpline
210
0.0
220
0.0
230
1.0
 70
     8
 71
     3
 72
    12
 73
     8
 74
     0
 42
0.00000001
 43
0.00000001
 12
1.0
 22
0.0
 32
0.0
 13
1.0
 23
0.0
 33
0.0
 40
0.0
 40
0.0
 40
0.0
 40
0.0
 40
0.2499999999999996
 40
0.2499999999999996
 40
0.4999999999999991
 40
0.4999999999999991
 40
1.0
 40
1.0
 40
1.0
 40
1.0
 10
146.6975245346385
 20
131.9213754269433
 30
0.0
 10
146.7606045731319
 20
131.9213754269433
 30
0.0
 10
146.8197531953133
 20
131.9467397461583
 30
0.0
 10
146.9182257453824
 20
132.0209046065312
 30
0.0
 10
146.9572623573671
 20
132.0674249470853
 30
0.0
 10
147.0571588241462
 20
132.2175672899306
 30
0.0
 10
147.0995797052128
 20
132.3292604969027
 30
0.0
 10
147.1305372365308
 20
132.4426783162925
 30
0.0
  0
LINE
  5
106
330
1F
100
AcDbEntity
  8
0
  6
HIDDEN
 62
     7
370
     0
100
AcDbLine
 10
143.7530383447
 20
131.9213758239
 30
0.0
 11
146.6975245604
 21
131.9213758239
 31
0.0
  0
SPLINE
  5
107
330
1F
100
AcDbEntity
  8
0
  6
HIDDEN
 62
     7
370
     0
100
AcDbSpline
210
0.0
220
0.0
230
1.0
 70
     8
 71
     3
 72
    12
 73
     8
 74
     0
 42
0.00000001
 43
0.00000001
 12
1.0
 22
0.0
 32
0.0
 13
1.0
 23
0.0
 33
0.0
 40
0.0
 40
0.0
 40
0.0
 40
0.0
 40
0.4999999999999981
 40
0.4999999999999981
 40
0.749999999999999
 40
0.749999999999999
 40
1.0
 40
1.0
 40
1.0
 40
1.0
 10
143.3200254598792
 20
132.4426783162925
 30
0.0
 10
143.3507477017983
 20
132.3301225168833
 30
0.0
 10
143.3935849163335
 20
132.2173646571437
 30
0.0
 10
143.4930119405333
 20
132.0678237713473
 30
0.0
 10
143.5327641353499
 20
132.0205310396405
 30
0.0
 10
143.6308055922081
 20
131.946794746319
 30
0.0
 10
143.6903616477956
 20
131.9213754269433
 30
0.0
 10
143.7530381617714
 20
131.9213754269433
 30
0.0
  0
ELLIPSE
  5
108
330
1F
100
AcDbEntity
  8
0
  6
HIDDEN
 62
     7
370
     0
100
AcDbEllipse
 10
159.5724355376
 20
122.5333089956
 30
0.0
 11
-14.75368316065629
 21
31.09325491558118
 31
0.0
210
0.0
220
0.0
230
1.0
 40
0.3419987131
 41
0.1591422026272815
 42
1.089903569770961
  0
LINE
  5
109
330
1F
100
AcDbEntity
  8
0
  6
HIDDEN
 62
     7
370
     0
100
AcDbLine
 10
133.2252813482
 20
98.2833082804
 30
0.0
 11
133.2252813482
 21
146.7833097109
 31
0.0
  0
SPLINE
  5
10A
330
1F
100
AcDbEntity
  8
0
  6
HIDDEN
 62
     7
370
     0
100
AcDbSpline
210
0.0
220
0.0
230
1.0
 70
     8
 71
     3
 72
    12
 73
     8
 74
     0
 42
0.00000001
 43
0.00000001
 12
1.0
 22
0.0
 32
0.0
 13
1.0
 23
0.0
 33
0.0
 40
0.0
 40
0.0
 40
0.0
 40
0.0
 40
0.4999999999999996
 40
0.4999999999999996
 40
0.7499999999999998
 40
0.7499999999999998
 40
1.0
 40
1.0
 40
1.0
 40
1.0
 10
132.4087690617496
 20
137.9855769774448
 30
0.0
 10
132.4651752404303
 20
137.9377546037828
 30
0.0
 10
132.5353381419023
 20
137.8974837568416
 30
0.0
 10
132.6533488552943
 20
137.8894378883619
 30
0.0
 10
132.6935546388909
 20
137.8960004867003
 30
0.0
 10
132.767275335626
 20
137.9233825811539
 30
0.0
 10
132.8001360574135
 20
137.9431440716847
 30
0.0
 10
132.8303044593435
 20
137.9660767828733
 30
0.0
  0
SPLINE
  5
10B
330
1F
100
AcDbEntity
  8
0
  6
HIDDEN
 62
     7
370
     0
100
AcDbSpline
210
0.0
220
0.0
230
1.0
 70
     8
 71
     3
 72
    16
 73
    12
 74
     0
 42
0.00000001
 43
0.00000001
 12
1.0
 22
0.0
 32
0.0
 13
1.0
 23
0.0
 33
0.0
 40
0.0
 40
0.0
 40
0.0
 40
0.0
 40
0.0624999999999996
 40
0.0624999999999996
 40
0.1249999999999991
 40
0.1249999999999991
 40
0.2500000000000002
 40
0.2500000000000002
 40
0.4999999999999983
 40
0.4999999999999983
 40
1.0
 40
1.0
 40
1.0
 40
1.0
 10
132.8303044592983
 20
137.9660767829214
 30
0.0
 10
132.8419173591377
 20
137.9749044059028
 30
0.0
 10
132.8552685435702
 20
137.9827387877847
 30
0.0
 10
132.8846683831893
 20
137.9910489138571
 30
0.0
 10
132.8995091077446
 20
137.990553094622
 30
0.0
 10
132.9353423157133
 20
137.9791021236527
 30
0.0
 10
132.9494555235348
 20
137.962421622794
 30
0.0
 10
132.9839468947537
 20
137.910300937037
 30
0.0
 10
132.9950309658641
 20
137.870511443012
 30
0.0
 10
133.0211537836601
 20
137.7471748109149
 30
0.0
 10
133.025281348205
 20
137.6597534004163
 30
0.0
 10
133.025281348205
 20
137.571016158098
 30
0.0
  0
LINE
  5
10C
330
1F
100
AcDbEntity
  8
0
  6
HIDDEN
 62
     7
370
     0
100
AcDbLine
 10
133.0252813533
 20
107.4956019425
 30
0.0
 11
133.0252813533
 21
137.5710160487
 31
0.0
  0
SPLINE
  5
10D
330
1F
100
AcDbEntity
  8
0
  6
HIDDEN
 62
     7
370
     0
100
AcDbSpline
210
0.0
220
0.0
230
1.0
 70
     8
 71
     3
 72
    16
 73
    12
 74
     0
 42
0.00000001
 43
0.00000001
 12
1.0
 22
0.0
 32
0.0
 13
1.0
 23
0.0
 33
0.0
 40
0.0
 40
0.0
 40
0.0
 40
0.0
 40
0.5000000000000074
 40
0.5000000000000074
 40
0.750000000000006
 40
0.750000000000006
 40
0.8750000000000021
 40
0.8750000000000021
 40
0.9375000000000011
 40
0.9375000000000011
 40
1.0
 40
1.0
 40
1.0
 40
1.0
 10
133.025281348205
 20
107.4956018331157
 30
0.0
 10
133.025281348205
 20
107.406475467927
 30
0.0
 10
133.0211350731271
 20
107.3196141003135
 30
0.0
 10
132.9951694777335
 20
107.1966318538195
 30
0.0
 10
132.9837085723561
 20
107.1558605585882
 30
0.0
 10
132.9493968345817
 20
107.1041562385884
 30
0.0
 10
132.9353720986521
 20
107.087485871998
 30
0.0
 10
132.8993491356183
 20
107.0760336515413
 30
0.0
 10
132.8845946265286
 20
107.0755806052663
 30
0.0
 10
132.8552424653818
 20
107.0838959264824
 30
0.0
 10
132.8419025908777
 20
107.0917248115607
 30
0.0
 10
132.8303044593294
 20
107.1005412083233
 30
0.0
  0
SPLINE
  5
10E
330
1F
100
AcDbEntity
  8
0
  6
HIDDEN
 62
     7
370
     0
100
AcDbSpline
210
0.0
220
0.0
230
1.0
 70
     8
 71
     3
 72
    12
 73
     8
 74
     0
 42
0.00000001
 43
0.00000001
 12
1.0
 22
0.0
 32
0.0
 13
1.0
 23
0.0
 33
0.0
 40
0.0
 40
0.0
 40
0.0
 40
0.0
 40
0.2500000000000001
 40
0.2500000000000001
 40
0.4999999999999999
 40
0.4999999999999999
 40
1.0
 40
1.0
 40
1.0
 40
1.0
 10
132.8303044593364
 20
107.1005412083322
 30
0.0
 10
132.8001126176192
 20
107.1234917374301
 30
0.0
 10
132.7667536482046
 20
107.1434612114542
 30
0.0
 10
132.693616363624
 20
107.1705623450797
 30
0.0
 10
132.65337449097
 20
107.1771630857252
 30
0.0
 10
132.5356687140016
 20
107.1691942112185
 30
0.0
 10
132.4652582362222
 20
107.1289337530506
 30
0.0
 10
132.4087690617539
 20
107.0810410137725
 30
0.0
  0
SPLINE
  5
10F
330
1F
100
AcDbEntity
  8
0
  6
HIDDEN
 62
     7
370
     0
100
AcDbSpline
210
0.0
220
0.0
230
1.0
 70
     8
 71
     3
 72
    12
 73
     8
 74
     0
 42
0.00000001
 43
0.00000001
 12
1.0
 22
0.0
 32
0.0
 13
1.0
 23
0.0
 33
0.0
 40
0.0
 40
0.0
 40
0.0
 40
0.0
 40
0.2500000000000028
 40
0.2500000000000028
 40
0.5000000000000031
 40
0.5000000000000031
 40
1.0
 40
1.0
 40
1.0
 40
1.0
 10
132.4087690617535
 20
107.0810410137727
 30
0.0
 10
132.3206151240157
 20
107.0063022059186
 30
0.0
 10
132.260261699387
 20
106.9153217054362
 30
0.0
 10
132.1539997413201
 20
106.7264078826836
 30
0.0
 10
132.1117675747581
 20
106.629903423143
 30
0.0
 10
132.0006968794409
 20
106.3391356689758
 30
0.0
 10
131.9477601030141
 20
106.1434688544321
 30
0.0
 10
131.9039610046453
 20
105.9494023693657
 30
0.0
  0
SPLINE
  5
110
330
1F
100
AcDbEntity
  8
0
  6
HIDDEN
 62
     7
370
     0
100
AcDbSpline
210
0.0
220
0.0
230
1.0
 70
     8
 71
     3
 72
    12
 73
     8
 74
     0
 42
0.00000001
 43
0.00000001
 12
1.0
 22
0.0
 32
0.0
 13
1.0
 23
0.0
 33
0.0
 40
0.0
 40
0.0
 40
0.0
 40
0.0
 40
0.4999999999999989
 40
0.4999999999999989
 40
0.7499999999999994
 40
0.7499999999999994
 40
1.0
 40
1.0
 40
1.0
 40
1.0
 10
131.9039610046453
 20
100.7632280406048
 30
0.0
 10
131.9477075454819
 20
100.7366338699636
 30
0.0
 10
132.0005919007134
 20
100.7168736446378
 30
0.0
 10
132.1121589880496
 20
100.6964226544088
 30
0.0
 10
132.1547425845926
 20
100.6911624297523
 30
0.0
 10
132.2596593116744
 20
100.6832796358297
 30
0.0
 10
132.3211929195191
 20
100.6807155106505
 30
0.0
 10
132.4087690617453
 20
100.6785152931309
 30
0.0
  0
LINE
  5
111
330
1F
100
AcDbEntity
  8
0
  6
HIDDEN
 62
     7
370
     0
100
AcDbLine
 10
133.0252813533
 20
99.9934884735
 30
0.0
 11
133.0252813533
 21
100.4737137833
 31
0.0
  0
LINE
  5
112
330
1F
100
AcDbEntity
  8
0
  6
HIDDEN
 62
     7
370
     0
100
AcDbLine
 10
133.0252813533
 20
144.5929042079
 30
0.0
 11
133.0252813533
 21
145.0731295177
 31
0.0
  0
SPLINE
  5
113
330
1F
100
AcDbEntity
  8
0
  6
HIDDEN
 62
     7
370
     0
100
AcDbSpline
210
0.0
220
0.0
230
1.0
 70
     8
 71
     3
 72
    12
 73
     8
 74
     0
 42
0.00000001
 43
0.00000001
 12
1.0
 22
0.0
 32
0.0
 13
1.0
 23
0.0
 33
0.0
 40
0.0
 40
0.0
 40
0.0
 40
0.0
 40
0.2500000000000004
 40
0.2500000000000004
 40
0.5000000000000008
 40
0.5000000000000008
 40
1.0
 40
1.0
 40
1.0
 40
1.0
 10
132.4087690617533
 20
144.3881026980827
 30
0.0
 10
132.3200844018969
 20
144.3858746307418
 30
0.0
 10
132.2601659861735
 20
144.3833728467114
 30
0.0
 10
132.1545067588528
 20
144.3754414108754
 30
0.0
 10
132.1118655207378
 20
144.3701492559786
 30
0.0
 10
132.0006761786353
 20
144.3497443154914
 30
0.0
 10
131.9477494965143
 20
144.3300096239046
 30
0.0
 10
131.9039610046453
 20
144.303389950609
 30
0.0
  0
SPLINE
  5
114
330
1F
100
AcDbEntity
  8
0
  6
HIDDEN
 62
     7
370
     0
100
AcDbSpline
210
0.0
220
0.0
230
1.0
 70
     8
 71
     3
 72
    12
 73
     8
 74
     0
 42
0.00000001
 43
0.00000001
 12
1.0
 22
0.0
 32
0.0
 13
1.0
 23
0.0
 33
0.0
 40
0.0
 40
0.0
 40
0.0
 40
0.0
 40
0.5000000000000042
 40
0.5000000000000042
 40
0.7500000000000034
 40
0.7500000000000034
 40
1.0
 40
1.0
 40
1.0
 40
1.0
 10
131.9039610046437
 20
139.1172156218482
 30
0.0
 10
131.9477224809422
 20
138.9233158338873
 30
0.0
 10
132.0006287965949
 20
138.7274594699518
 30
0.0
 10
132.1123399942411
 20
138.4353173234546
 30
0.0
 10
132.154859437827
 20
138.3385993867572
 30
0.0
 10
132.2599827803929
 20
138.1518749503337
 30
0.0
 10
132.3215487441098
 20
138.0595242420644
 30
0.0
 10
132.4087690617504
 20
137.9855769774441
 30
0.0
  0
LINE
  5
115
330
1F
100
AcDbEntity
  8
0
  6
HIDDEN
 62
     7
370
     0
100
AcDbLine
 10
155.225281229
 20
98.533308787
 30
0.0
 11
155.225281229
 21
146.5333092042
 31
0.0
  0
LINE
  5
116
330
1F
100
AcDbEntity
  8
0
  6
HIDDEN
 62
     7
370
     0
100
AcDbLine
 10
133.0252813533
 20
100.4737137833
 30
0.0
 11
133.0252813533
 21
115.5114217677
 31
0.0
  0
LINE
  5
117
330
1F
100
AcDbEntity
  8
0
  6
HIDDEN
 62
     7
370
     0
100
AcDbLine
 10
133.0252813533
 20
129.5551962235
 30
0.0
 11
133.0252813533
 21
144.5929042079
 31
0.0
  0
SPLINE
  5
118
330
1F
100
AcDbEntity
  8
0
  6
HIDDEN
 62
     7
370
     0
100
AcDbSpline
210
0.0
220
0.0
230
1.0
 70
     8
 71
     3
 72
    70
 73
    66
 74
     0
 42
0.00000001
 43
0.00000001
 12
1.0
 22
0.0
 32
0.0
 13
1.0
 23
0.0
 33
0.0
 40
-0.03125
 40
-0.03125
 40
0.0
 40
0.0
 40
0.03125
 40
0.03125
 40
0.0625
 40
0.0625
 40
0.09375
 40
0.09375
 40
0.125
 40
0.125
 40
0.15625
 40
0.15625
 40
0.1875
 40
0.1875
 40
0.21875
 40
0.21875
 40
0.25
 40
0.25
 40
0.28125
 40
0.28125
 40
0.3125
 40
0.3125
 40
0.34375
 40
0.34375
 40
0.375
 40
0.375
 40
0.40625
 40
0.40625
 40
0.4375
 40
0.4375
 40
0.46875
 40
0.46875
 40
0.5
 40
0.5
 40
0.53125
 40
0.53125
 40
0.5625
 40
0.5625
 40
0.59375
 40
0.59375
 40
0.625
 40
0.625
 40
0.65625
 40
0.65625
 40
0.6875
 40
0.6875
 40
0.71875
 40
0.71875
 40
0.75
 40
0.75
 40
0.78125
 40
0.78125
 40
0.8125
 40
0.8125
 40
0.84375
 40
0.84375
 40
0.875
 40
0.875
 40
0.90625
 40
0.90625
 40
0.9375
 40
0.9375
 40
0.96875
 40
0.96875
 40
1.0
 40
1.0
 40
1.03125
 40
1.03125
 10
229.4237760203735
 20
125.5333089956069
 30
0.0
 10
229.0267866760365
 20
125.5333089956069
 30
0.0
 10
228.8316658128729
 20
125.5138036281178
 30
0.0
 10
228.4478780799593
 20
125.4374311697934
 30
0.0
 10
228.2572013709677
 20
125.3796168065124
 30
0.0
 10
227.8940408530223
 20
125.2289435666745
 30
0.0
 10
227.7218428633154
 20
125.1367819320227
 30
0.0
 10
227.3959520395665
 20
124.9190903957048
 30
0.0
 10
227.2418707264662
 20
124.7925695226174
 30
0.0
 10
226.965583198331
 20
124.5162210195733
 30
0.0
 10
226.8415011030872
 20
124.3653802438578
 30
0.0
 10
226.6221785593502
 20
124.0375527213169
 30
0.0
 10
226.5291533304213
 20
123.8633659539929
 30
0.0
 10
226.3794408451489
 20
123.5025095073665
 30
0.0
 10
226.3216924180717
 20
123.3131643979519
 30
0.0
 10
226.2445164804645
 20
122.9257932972082
 30
0.0
 10
226.2253927105509
 20
122.7309607952846
 30
0.0
 10
226.225170946441
 20
122.3390523368557
 30
0.0
 10
226.2447103021688
 20
122.1399711901378
 30
0.0
 10
226.3213594661009
 20
121.7550056535109
 30
0.0
 10
226.3780686287849
 20
121.5678646896852
 30
0.0
 10
226.5285312075523
 20
121.2043087486717
 30
0.0
 10
226.6223423766864
 20
121.0290335571261
 30
0.0
 10
226.8393226633322
 20
120.7042827414632
 30
0.0
 10
226.9635248441755
 20
120.5525169080438
 30
0.0
 10
227.2430032674417
 20
120.2728547518325
 30
0.0
 10
227.3941986384597
 20
120.1489279310611
 30
0.0
 10
227.7187670021167
 20
119.93166500076
 30
0.0
 10
227.8942645253969
 20
119.837571460502
 30
0.0
 10
228.2572425813619
 20
119.6869942577993
 30
0.0
 10
228.4442265141886
 20
119.6301235628389
 30
0.0
 10
228.8291897121385
 20
119.5531003239507
 30
0.0
 10
229.0282092319788
 20
119.5333846278561
 30
0.0
 10
229.4200440213081
 20
119.5332338078183
 30
0.0
 10
229.6149591659935
 20
119.5521646144959
 30
0.0
 10
230.00273354333
 20
119.6290640494976
 30
0.0
 10
230.1918201573559
 20
119.6865571378988
 30
0.0
 10
230.5529804272022
 20
119.8360124667489
 30
0.0
 10
230.7277946835705
 20
119.9292302192652
 30
0.0
 10
231.0552799071554
 20
120.1479625070263
 30
0.0
 10
231.2061958531121
 20
120.2718459553039
 30
0.0
 10
231.4829976025877
 20
120.5481252073635
 30
0.0
 10
231.609697154966
 20
120.7022245410387
 30
0.0
 10
231.8274000056381
 20
121.0275575181275
 30
0.0
 10
231.9197270359766
 20
121.1996372783052
 30
0.0
 10
232.0708436933232
 20
121.5630035004525
 30
0.0
 10
232.1287120118972
 20
121.7533459802717
 30
0.0
 10
232.2054029500377
 20
122.1369163084279
 30
0.0
 10
232.2251124641071
 20
122.3324772381171
 30
0.0
 10
232.2254480837734
 20
122.7290631208258
 30
0.0
 10
232.2061463802499
 20
122.9241389502724
 30
0.0
 10
232.130102432615
 20
123.308111460948
 30
0.0
 10
232.0723792874217
 20
123.4990364005713
 30
0.0
 10
231.9221205379076
 20
123.8620883155377
 30
0.0
 10
231.8301259306688
 20
124.0343892790613
 30
0.0
 10
231.6125478615994
 20
124.3607158770081
 30
0.0
 10
231.4862267835543
 20
124.5147919830445
 30
0.0
 10
231.2102166343747
 20
124.7912241846363
 30
0.0
 10
231.0594414239776
 20
124.9155012031985
 30
0.0
 10
230.7314117766726
 20
125.1353378251766
 30
0.0
 10
230.557735654643
 20
125.2282535142356
 30
0.0
 10
230.1969996933354
 20
125.3782912266531
 30
0.0
 10
230.0075655225637
 20
125.4362561906376
 30
0.0
 10
229.6199180250221
 20
125.5138010422159
 30
0.0
 10
229.4237760203735
 20
125.5333089956069
 30
0.0
 10
229.0267866760365
 20
125.5333089956069
 30
0.0
  0
CIRCLE
  5
119
330
1F
100
AcDbEntity
  8
0
  6
HIDDEN
 62
     7
370
     0
100
AcDbCircle
 10
229.2252813482
 20
122.5333089956
 30
0.0
 40
2.5
  0
LWPOLYLINE
  5
11A
330
1F
100
AcDbEntity
  8
0
  6
HIDDEN
 62
     7
370
     0
100
AcDbPolyline
 90
        9
 70
   128
 43
0.0
 10
227.9982460642
 20
120.3551485219
 10
227.9133541488
 20
120.3242153411
 10
227.8382671976
 20
120.3115402737
 10
227.7736408615
 20
120.3172318188
 10
227.7200115824
 20
120.3412413147
 10
227.6778561973
 20
120.3833627065
 10
227.6475323343
 20
120.4432348737
 10
227.6292858624
 20
120.5203441919
 10
227.6232955956
 20
120.6140298878
  0
SPLINE
  5
11B
330
1F
100
AcDbEntity
  8
0
  6
HIDDEN
 62
     7
370
     0
100
AcDbSpline
210
0.0
220
0.0
230
1.0
 70
     8
 71
     3
 72
    80
 73
    76
 74
     0
 42
0.00000001
 43
0.00000001
 12
1.0
 22
0.0
 32
0.0
 13
1.0
 23
0.0
 33
0.0
 40
0.0
 40
0.0
 40
0.0
 40
0.0
 40
0.0156250000000002
 40
0.0156250000000002
 40
0.0312500000000003
 40
0.0312500000000003
 40
0.0625000000000007
 40
0.0625000000000007
 40
0.093750000000001
 40
0.093750000000001
 40
0.1250000000000013
 40
0.1250000000000013
 40
0.1562500000000017
 40
0.1562500000000017
 40
0.187500000000002
 40
0.187500000000002
 40
0.2187500000000023
 40
0.2187500000000023
 40
0.2500000000000027
 40
0.2500000000000027
 40
0.281250000000003
 40
0.281250000000003
 40
0.3125000000000033
 40
0.3125000000000033
 40
0.3437500000000037
 40
0.3437500000000037
 40
0.375000000000004
 40
0.375000000000004
 40
0.4062500000000043
 40
0.4062500000000043
 40
0.4375000000000047
 40
0.4375000000000047
 40
0.4531250000000047
 40
0.4531250000000047
 40
0.4687500000000047
 40
0.4687500000000047
 40
0.4843750000000047
 40
0.4843750000000047
 40
0.5000000000000047
 40
0.5000000000000047
 40
0.5312500000000053
 40
0.5312500000000053
 40
0.562500000000006
 40
0.562500000000006
 40
0.5937500000000067
 40
0.5937500000000067
 40
0.6250000000000073
 40
0.6250000000000073
 40
0.656250000000008
 40
0.656250000000008
 40
0.6875000000000087
 40
0.6875000000000087
 40
0.7187500000000093
 40
0.7187500000000093
 40
0.7343750000000097
 40
0.7343750000000097
 40
0.7500000000000099
 40
0.7500000000000099
 40
0.7812500000000089
 40
0.7812500000000089
 40
0.8125000000000079
 40
0.8125000000000079
 40
0.8437500000000069
 40
0.8437500000000069
 40
0.8750000000000059
 40
0.8750000000000059
 40
0.9062500000000049
 40
0.9062500000000049
 40
0.9375000000000039
 40
0.9375000000000039
 40
0.9687500000000029
 40
0.9687500000000029
 40
0.9843750000000014
 40
0.9843750000000014
 40
1.0
 40
1.0
 40
1.0
 40
1.0
 10
227.9982456956159
 20
120.3551484167532
 30
0.0
 10
228.0784864958188
 20
120.3099459079955
 30
0.0
 10
228.1600495894295
 20
120.2698101684403
 30
0.0
 10
228.3260403053705
 20
120.1988901841315
 30
0.0
 10
228.4109259448894
 20
120.16806073293
 30
0.0
 10
228.6605985685581
 20
120.0917050911231
 30
0.0
 10
228.825717772029
 20
120.0598665208807
 30
0.0
 10
229.1563333819316
 20
120.0287501711564
 30
0.0
 10
229.3194992830635
 20
120.0296945162643
 30
0.0
 10
229.6461570941902
 20
120.0635263964974
 30
0.0
 10
229.8112947399216
 20
120.0970691560514
 30
0.0
 10
230.1344779409229
 20
120.1983490801268
 30
0.0
 10
230.291774013515
 20
120.2654209986798
 30
0.0
 10
230.5977945128546
 20
120.4364231654699
 30
0.0
 10
230.7449734053953
 20
120.5402127989611
 30
0.0
 10
231.0128616046559
 20
120.7764785471804
 30
0.0
 10
231.137425315942
 20
120.9124901980511
 30
0.0
 10
231.3526599017348
 20
121.2075606718876
 30
0.0
 10
231.442488324937
 20
121.3642672020578
 30
0.0
 10
231.5875839419716
 20
121.6953400533321
 30
0.0
 10
231.6402533593813
 20
121.8642706056544
 30
0.0
 10
231.7092154262743
 20
122.2019878858035
 30
0.0
 10
231.7252881801549
 20
122.3711582830726
 30
0.0
 10
231.7252745118199
 20
122.6956703064233
 30
0.0
 10
231.709219423374
 20
122.8543882736866
 30
0.0
 10
231.6521267539994
 20
123.1525517916579
 30
0.0
 10
231.6112507688283
 20
123.2926673256939
 30
0.0
 10
231.5119140034719
 20
123.553498316022
 30
0.0
 10
231.4533399691699
 20
123.6733500204571
 30
0.0
 10
231.3359867669237
 20
123.8782481734842
 30
0.0
 10
231.2758148207805
 20
123.9646821880165
 30
0.0
 10
231.2231836950146
 20
124.0363942883093
 30
0.0
 10
231.2131129153321
 20
124.0493997486988
 30
0.0
 10
231.2102621624745
 20
124.0531302607101
 30
0.0
 10
231.2174705949953
 20
124.0438143720222
 30
0.0
 10
231.2426620676204
 20
124.0100010827183
 30
0.0
 10
231.2606994493392
 20
123.9853140905608
 30
0.0
 10
231.3008773682905
 20
123.9272770022707
 30
0.0
 10
231.3231319495343
 20
123.8937847219901
 30
0.0
 10
231.3918504923501
 20
123.7836943497838
 30
0.0
 10
231.4400910488623
 20
123.697685161857
 30
0.0
 10
231.5304022498926
 20
123.5067418362589
 30
0.0
 10
231.5720781070438
 20
123.4028766537122
 30
0.0
 10
231.6428439018012
 20
123.1806066387114
 30
0.0
 10
231.6721148853106
 20
123.062021048665
 30
0.0
 10
231.7134442892672
 20
122.8082198394792
 30
0.0
 10
231.725582500746
 20
122.6716059841466
 30
0.0
 10
231.7249687859637
 20
122.3843303932894
 30
0.0
 10
231.7125439871556
 20
122.2345283579641
 30
0.0
 10
231.6539417738172
 20
121.9190176627567
 30
0.0
 10
231.6084687863528
 20
121.7579541257753
 30
0.0
 10
231.4768757486873
 20
121.4328181073058
 30
0.0
 10
231.3914187301115
 20
121.2720208627096
 30
0.0
 10
231.2376032535774
 20
121.0471023218807
 30
0.0
 10
231.1811190673351
 20
120.9735228824091
 30
0.0
 10
231.062892426764
 20
120.8358345697454
 30
0.0
 10
231.0010142206392
 20
120.771324734692
 30
0.0
 10
230.8076684586772
 20
120.5897776445778
 30
0.0
 10
230.6696599425911
 20
120.4863005571486
 30
0.0
 10
230.3921519156081
 20
120.3163547448457
 30
0.0
 10
230.2492655276534
 20
120.2477265879013
 30
0.0
 10
229.9690749492578
 20
120.1418237622828
 30
0.0
 10
229.8305718015357
 20
120.1036387802011
 30
0.0
 10
229.5549930714994
 20
120.0511800569646
 30
0.0
 10
229.4175345662734
 20
120.0370985389287
 30
0.0
 10
229.1490705394086
 20
120.0308662177377
 30
0.0
 10
229.0171736135218
 20
120.0384460118807
 30
0.0
 10
228.753930761639
 20
120.0745534645819
 30
0.0
 10
228.6228504767265
 20
120.1028544605462
 30
0.0
 10
228.3523833107006
 20
120.1863788266354
 30
0.0
 10
228.2134272099046
 20
120.2412016180733
 30
0.0
 10
227.9926093682222
 20
120.3567472467467
 30
0.0
 10
227.9184451411896
 20
120.4001636546256
 30
0.0
 10
227.7681706045954
 20
120.4998493332153
 30
0.0
 10
227.6939356504801
 20
120.5550654312885
 30
0.0
 10
227.6232926395134
 20
120.6140299181341
 30
0.0
  0
CIRCLE
  5
11C
330
1F
100
AcDbEntity
  8
0
  6
HIDDEN
 62
     7
370
     0
100
AcDbCircle
 10
117.7252813482
 20
122.5333089956
 30
0.0
 40
4.049999999999997
  0
SPLINE
  5
11D
330
1F
100
AcDbEntity
  8
0
  6
HIDDEN
 62
     7
370
     0
100
AcDbSpline
210
0.0
220
0.0
230
1.0
 70
     8
 71
     3
 72
    10
 73
     6
 74
     0
 42
0.00000001
 43
0.00000001
 12
1.0
 22
0.0
 32
0.0
 13
1.0
 23
0.0
 33
0.0
 40
0.0
 40
0.0
 40
0.0
 40
0.0
 40
0.4999999999999987
 40
0.4999999999999987
 40
1.0
 40
1.0
 40
1.0
 40
1.0
 10
227.6232926395134
 20
120.6140299181341
 30
0.0
 10
227.6527820072717
 20
120.5894156581602
 30
0.0
 10
227.6965354749929
 20
120.5537084856872
 30
0.0
 10
227.8207564690756
 20
120.4637216000993
 30
0.0
 10
227.9011453359844
 20
120.4098485175181
 30
0.0
 10
227.9982456956157
 20
120.3551484167526
 30
0.0
  0
LINE
  5
11E
330
1F
100
AcDbEntity
  8
0
  6
HIDDEN
 62
     7
370
     0
100
AcDbLine
 10
96.7555088901
 20
137.8462600538
 30
0.0
 11
96.7555088901
 21
107.2203579375
 31
0.0
  0
LINE
  5
11F
330
1F
100
AcDbEntity
  8
0
  6
HIDDEN
 62
     7
370
     0
100
AcDbLine
 10
95.2252825701
 20
106.3368792661
 30
0.0
 11
95.2252825701
 21
138.7297387251
 31
0.0
  0
LINE
  5
120
330
1F
100
AcDbEntity
  8
0
  6
HIDDEN
 62
     7
370
     0
100
AcDbLine
 10
103.2555090242
 20
136.879719516
 30
0.0
 11
103.2555090242
 21
108.1868984752
 31
0.0
  0
LINE
  5
121
330
1F
100
AcDbEntity
  8
0
  6
HIDDEN
 62
     7
370
     0
100
AcDbLine
 10
109.0555103475
 20
136.5333094277
 30
0.0
 11
109.0555103475
 21
108.5333085635
 31
0.0
  0
LINE
  5
122
330
1F
100
AcDbEntity
  8
0
  6
HIDDEN
 62
     7
370
     0
100
AcDbLine
 10
101.6555098796
 20
136.5333094277
 30
0.0
 11
101.6555098796
 21
108.5333085635
 31
0.0
  0
LINE
  5
123
330
1F
100
AcDbEntity
  8
0
  6
HIDDEN
 62
     7
370
     0
100
AcDbLine
 10
102.6555100435
 20
136.5333094277
 30
0.0
 11
102.6555100435
 21
108.5333085635
 31
0.0
  0
SPLINE
  5
124
330
1F
100
AcDbEntity
  8
0
  6
HIDDEN
 62
     7
370
     0
100
AcDbSpline
210
0.0
220
0.0
230
1.0
 70
     8
 71
     3
 72
    10
 73
     6
 74
     0
 42
0.00000001
 43
0.00000001
 12
1.0
 22
0.0
 32
0.0
 13
1.0
 23
0.0
 33
0.0
 40
0.0
 40
0.0
 40
0.0
 40
0.0
 40
0.5
 40
0.5
 40
1.0
 40
1.0
 40
1.0
 40
1.0
 10
121.725281348205
 20
123.1677378726294
 30
0.0
 10
121.7584287662814
 20
122.9587472716214
 30
0.0
 10
121.7752876116431
 20
122.7471848055997
 30
0.0
 10
121.7752750812954
 20
122.3191960396321
 30
0.0
 10
121.758360123555
 20
122.1074379352164
 30
0.0
 10
121.725281348205
 20
121.8988801185843
 30
0.0
  0
LINE
  5
125
330
1F
100
AcDbEntity
  8
0
  6
HIDDEN
 62
     7
370
     0
100
AcDbLine
 10
122.2252814078
 20
136.0333093458
 30
0.0
 11
122.2252814078
 21
109.0333086454
 31
0.0
  0
SPLINE
  5
126
330
1F
100
AcDbEntity
  8
0
  6
HIDDEN
 62
     7
370
     0
100
AcDbSpline
210
0.0
220
0.0
230
1.0
 70
     8
 71
     3
 72
    10
 73
     6
 74
     0
 42
0.00000001
 43
0.00000001
 12
1.0
 22
0.0
 32
0.0
 13
1.0
 23
0.0
 33
0.0
 40
0.0
 40
0.0
 40
0.0
 40
0.0
 40
0.5
 40
0.5
 40
1.0
 40
1.0
 40
1.0
 40
1.0
 10
121.725281348205
 20
121.8988801185843
 30
0.0
 10
121.7584703106787
 20
122.1081326521668
 30
0.0
 10
121.7751710869334
 20
122.3189494130658
 30
0.0
 10
121.775390527378
 20
122.7434816942691
 30
0.0
 10
121.7585108119846
 20
122.9582299830417
 30
0.0
 10
121.725281348205
 20
123.1677378726294
 30
0.0
  0
SPLINE
  5
127
330
1F
100
AcDbEntity
  8
0
  6
HIDDEN
 62
     7
370
     0
100
AcDbSpline
210
0.0
220
0.0
230
1.0
 70
     8
 71
     3
 72
    68
 73
    64
 74
     0
 42
0.00000001
 43
0.00000001
 12
1.0
 22
0.0
 32
0.0
 13
1.0
 23
0.0
 33
0.0
 40
0.0
 40
0.0
 40
0.0
 40
0.0
 40
0.0312500000000003
 40
0.0312500000000003
 40
0.0625000000000005
 40
0.0625000000000005
 40
0.0937500000000007
 40
0.0937500000000007
 40
0.1250000000000009
 40
0.1250000000000009
 40
0.1562500000000011
 40
0.1562500000000011
 40
0.1875000000000013
 40
0.1875000000000013
 40
0.2187500000000016
 40
0.2187500000000016
 40
0.2500000000000018
 40
0.2500000000000018
 40
0.2812500000000018
 40
0.2812500000000018
 40
0.3125000000000018
 40
0.3125000000000018
 40
0.3437500000000019
 40
0.3437500000000019
 40
0.3750000000000019
 40
0.3750000000000019
 40
0.4062500000000019
 40
0.4062500000000019
 40
0.4375000000000019
 40
0.4375000000000019
 40
0.4687500000000019
 40
0.4687500000000019
 40
0.5000000000000019
 40
0.5000000000000019
 40
0.562500000000002
 40
0.562500000000002
 40
0.5937500000000019
 40
0.5937500000000019
 40
0.6250000000000018
 40
0.6250000000000018
 40
0.6562500000000018
 40
0.6562500000000018
 40
0.6875000000000017
 40
0.6875000000000017
 40
0.7187500000000016
 40
0.7187500000000016
 40
0.7500000000000014
 40
0.7500000000000014
 40
0.7812500000000013
 40
0.7812500000000013
 40
0.8125000000000011
 40
0.8125000000000011
 40
0.8437500000000009
 40
0.8437500000000009
 40
0.8750000000000008
 40
0.8750000000000008
 40
0.9062500000000006
 40
0.9062500000000006
 40
0.9375000000000003
 40
0.9375000000000003
 40
0.9687500000000002
 40
0.9687500000000002
 40
1.0
 40
1.0
 40
1.0
 40
1.0
 10
121.725281348205
 20
121.8988801185843
 30
0.0
 10
121.6852663958553
 20
121.6465905157687
 30
0.0
 10
121.622324594444
 20
121.4025916653929
 30
0.0
 10
121.4529379323719
 20
120.9301732763304
 30
0.0
 10
121.3452443697864
 20
120.6997598901705
 30
0.0
 10
121.0899596012486
 20
120.2650552943734
 30
0.0
 10
120.9439203707763
 20
120.0624133277221
 30
0.0
 10
120.6156989342171
 20
119.6854240369642
 30
0.0
 10
120.4314516464421
 20
119.5097660833869
 30
0.0
 10
120.0384914791338
 20
119.1995081144406
 30
0.0
 10
119.8291968821746
 20
119.0635629067907
 30
0.0
 10
119.3843114552373
 20
118.8301728113849
 30
0.0
 10
119.1475138627383
 20
118.7329262049705
 30
0.0
 10
118.666778793819
 20
118.5862547470991
 30
0.0
 10
118.4205357006362
 20
118.5353624021567
 30
0.0
 10
117.9158189206568
 20
118.4798350519212
 30
0.0
 10
117.6596242197203
 20
118.4760101648513
 30
0.0
 10
117.1572454705202
 20
118.5154339474957
 30
0.0
 10
116.9079957713366
 20
118.5584613967069
 30
0.0
 10
116.4164679738578
 20
118.6921663661582
 30
0.0
 10
116.181172372632
 20
118.7808362120634
 30
0.0
 10
115.7302584779698
 20
118.9998675758408
 30
0.0
 10
115.5126461275065
 20
119.1318691415244
 30
0.0
 10
115.1094389579582
 20
119.4312264225273
 30
0.0
 10
114.9238274655238
 20
119.5978453499652
 30
0.0
 10
114.5838393951213
 20
119.9649567753926
 30
0.0
 10
114.4287664642984
 20
120.1672605209333
 30
0.0
 10
114.162423387635
 20
120.5913412005274
 30
0.0
 10
114.0494392869182
 20
120.8145008059936
 30
0.0
 10
113.8645840299873
 20
121.2838560475877
 30
0.0
 10
113.7934432684839
 20
121.5300665509232
 30
0.0
 10
113.6994828571958
 20
122.0245923772944
 30
0.0
 10
113.6754735272394
 20
122.2755233723864
 30
0.0
 10
113.6749004065668
 20
123.0397687519426
 30
0.0
 10
113.7702995178854
 20
123.5419930539936
 30
0.0
 10
114.0481633100866
 20
124.2495575602659
 30
0.0
 10
114.1613252661671
 20
124.4732638240068
 30
0.0
 10
114.427456448211
 20
124.8975337353273
 30
0.0
 10
114.5822842224107
 20
125.0997856973834
 30
0.0
 10
114.9224653281985
 20
125.4674964387516
 30
0.0
 10
115.1079677851482
 20
125.6341133140009
 30
0.0
 10
115.5102615862076
 20
125.9331626927963
 30
0.0
 10
115.7282696344596
 20
126.0656194008248
 30
0.0
 10
116.1788680016099
 20
126.2848258015295
 30
0.0
 10
116.4134170004906
 20
126.3733109315331
 30
0.0
 10
116.901876994043
 20
126.5067971614717
 30
0.0
 10
117.1541423897568
 20
126.5507388739655
 30
0.0
 10
117.6563230279171
 20
126.590547870439
 30
0.0
 10
117.9088051452688
 20
126.5872036576255
 30
0.0
 10
118.4166701883383
 20
126.5320243376349
 30
0.0
 10
118.6642156615221
 20
126.4809784091655
 30
0.0
 10
119.1451831989928
 20
126.33456802093
 30
0.0
 10
119.3811430640981
 20
126.2379218161563
 30
0.0
 10
119.8277135136197
 20
126.0040168718433
 30
0.0
 10
120.0373583761931
 20
125.8678918580168
 30
0.0
 10
120.4303450829476
 20
125.5578375936877
 30
0.0
 10
120.6147409867626
 20
125.3821803461126
 30
0.0
 10
120.943291404623
 20
125.0050404234482
 30
0.0
 10
121.0892335011462
 20
124.8025742181783
 30
0.0
 10
121.3441188563483
 20
124.368997920045
 30
0.0
 10
121.4524301691567
 20
124.1377060764634
 30
0.0
 10
121.6222651465736
 20
123.6643463963302
 30
0.0
 10
121.6852605077107
 20
123.4200645995094
 30
0.0
 10
121.725281348205
 20
123.1677378726294
 30
0.0
  0
SPLINE
  5
128
330
1F
100
AcDbEntity
  8
0
  6
HIDDEN
 62
     7
370
     0
100
AcDbSpline
210
0.0
220
0.0
230
1.0
 70
     8
 71
     3
 72
    68
 73
    64
 74
     0
 42
0.00000001
 43
0.00000001
 12
1.0
 22
0.0
 32
0.0
 13
1.0
 23
0.0
 33
0.0
 40
0.0
 40
0.0
 40
0.0
 40
0.0
 40
0.0312500000000003
 40
0.0312500000000003
 40
0.0625000000000005
 40
0.0625000000000005
 40
0.0937500000000007
 40
0.0937500000000007
 40
0.1250000000000009
 40
0.1250000000000009
 40
0.1562500000000011
 40
0.1562500000000011
 40
0.1875000000000013
 40
0.1875000000000013
 40
0.2187500000000016
 40
0.2187500000000016
 40
0.2500000000000018
 40
0.2500000000000018
 40
0.2812500000000018
 40
0.2812500000000018
 40
0.3125000000000018
 40
0.3125000000000018
 40
0.3437500000000019
 40
0.3437500000000019
 40
0.3750000000000019
 40
0.3750000000000019
 40
0.4062500000000019
 40
0.4062500000000019
 40
0.4375000000000019
 40
0.4375000000000019
 40
0.4687500000000019
 40
0.4687500000000019
 40
0.5000000000000019
 40
0.5000000000000019
 40
0.562500000000002
 40
0.562500000000002
 40
0.5937500000000019
 40
0.5937500000000019
 40
0.6250000000000018
 40
0.6250000000000018
 40
0.6562500000000018
 40
0.6562500000000018
 40
0.6875000000000017
 40
0.6875000000000017
 40
0.7187500000000016
 40
0.7187500000000016
 40
0.7500000000000014
 40
0.7500000000000014
 40
0.7812500000000013
 40
0.7812500000000013
 40
0.8125000000000011
 40
0.8125000000000011
 40
0.8437500000000009
 40
0.8437500000000009
 40
0.8750000000000008
 40
0.8750000000000008
 40
0.9062500000000006
 40
0.9062500000000006
 40
0.9375000000000003
 40
0.9375000000000003
 40
0.9687500000000002
 40
0.9687500000000002
 40
1.0
 40
1.0
 40
1.0
 40
1.0
 10
121.725281348205
 20
123.1677378726294
 30
0.0
 10
121.6852663958553
 20
123.420027475445
 30
0.0
 10
121.622324594444
 20
123.6640263258208
 30
0.0
 10
121.4529379323719
 20
124.1364447148833
 30
0.0
 10
121.3452443697864
 20
124.3668581010432
 30
0.0
 10
121.0899596012486
 20
124.8015626968403
 30
0.0
 10
120.9439203707763
 20
125.0042046634917
 30
0.0
 10
120.6156989342171
 20
125.3811939542495
 30
0.0
 10
120.4314516464421
 20
125.5568519078268
 30
0.0
 10
120.0384914791338
 20
125.8671098767731
 30
0.0
 10
119.8291968821746
 20
126.003055084423
 30
0.0
 10
119.3843114552373
 20
126.2364451798288
 30
0.0
 10
119.1475138627383
 20
126.3336917862432
 30
0.0
 10
118.666778793819
 20
126.4803632441146
 30
0.0
 10
118.4205357006362
 20
126.531255589057
 30
0.0
 10
117.9158189206568
 20
126.5867829392925
 30
0.0
 10
117.6596242197203
 20
126.5906078263624
 30
0.0
 10
117.1572454705202
 20
126.551184043718
 30
0.0
 10
116.9079957713366
 20
126.5081565945068
 30
0.0
 10
116.4164679738578
 20
126.3744516250555
 30
0.0
 10
116.181172372632
 20
126.2857817791503
 30
0.0
 10
115.7302584779698
 20
126.0667504153729
 30
0.0
 10
115.5126461275065
 20
125.9347488496893
 30
0.0
 10
115.1094389579582
 20
125.6353915686864
 30
0.0
 10
114.9238274655238
 20
125.4687726412486
 30
0.0
 10
114.5838393951213
 20
125.1016612158211
 30
0.0
 10
114.4287664642984
 20
124.8993574702804
 30
0.0
 10
114.162423387635
 20
124.4752767906864
 30
0.0
 10
114.0494392869182
 20
124.2521171852202
 30
0.0
 10
113.8645840299873
 20
123.782761943626
 30
0.0
 10
113.7934432684839
 20
123.5365514402905
 30
0.0
 10
113.6994828571958
 20
123.0420256139193
 30
0.0
 10
113.6754735272394
 20
122.7910946188273
 30
0.0
 10
113.6749004065668
 20
122.0268492392711
 30
0.0
 10
113.7702995178854
 20
121.5246249372202
 30
0.0
 10
114.0481633100866
 20
120.8170604309478
 30
0.0
 10
114.1613252661671
 20
120.5933541672069
 30
0.0
 10
114.427456448211
 20
120.1690842558864
 30
0.0
 10
114.5822842224107
 20
119.9668322938303
 30
0.0
 10
114.9224653281985
 20
119.5991215524621
 30
0.0
 10
115.1079677851482
 20
119.4325046772128
 30
0.0
 10
115.5102615862076
 20
119.1334552984174
 30
0.0
 10
115.7282696344596
 20
119.0009985903889
 30
0.0
 10
116.1788680016099
 20
118.7817921896843
 30
0.0
 10
116.4134170004906
 20
118.6933070596806
 30
0.0
 10
116.901876994043
 20
118.559820829742
 30
0.0
 10
117.1541423897568
 20
118.5158791172482
 30
0.0
 10
117.6563230279171
 20
118.4760701207748
 30
0.0
 10
117.9088051452688
 20
118.4794143335883
 30
0.0
 10
118.4166701883383
 20
118.5345936535788
 30
0.0
 10
118.6642156615221
 20
118.5856395820482
 30
0.0
 10
119.1451831989928
 20
118.7320499702838
 30
0.0
 10
119.3811430640981
 20
118.8286961750574
 30
0.0
 10
119.8277135136197
 20
119.0626011193704
 30
0.0
 10
120.0373583761931
 20
119.1987261331969
 30
0.0
 10
120.4303450829476
 20
119.508780397526
 30
0.0
 10
120.6147409867626
 20
119.6844376451011
 30
0.0
 10
120.943291404623
 20
120.0615775677655
 30
0.0
 10
121.0892335011462
 20
120.2640437730354
 30
0.0
 10
121.3441188563483
 20
120.6976200711687
 30
0.0
 10
121.4524301691567
 20
120.9289119147503
 30
0.0
 10
121.6222651465736
 20
121.4022715948835
 30
0.0
 10
121.6852605077107
 20
121.6465533917043
 30
0.0
 10
121.725281348205
 20
121.8988801185843
 30
0.0
  0
SPLINE
  5
129
330
1F
100
AcDbEntity
  8
0
  6
HIDDEN
 62
     7
370
     0
100
AcDbSpline
210
0.0
220
0.0
230
1.0
 70
     8
 71
     3
 72
    52
 73
    48
 74
     0
 42
0.00000001
 43
0.00000001
 12
1.0
 22
0.0
 32
0.0
 13
1.0
 23
0.0
 33
0.0
 40
0.0
 40
0.0
 40
0.0
 40
0.0
 40
0.0625000000000034
 40
0.0625000000000034
 40
0.0937500000000049
 40
0.0937500000000049
 40
0.1250000000000064
 40
0.1250000000000064
 40
0.1562500000000077
 40
0.1562500000000077
 40
0.1875000000000092
 40
0.1875000000000092
 40
0.2500000000000113
 40
0.2500000000000113
 40
0.3125000000000134
 40
0.3125000000000134
 40
0.3437500000000145
 40
0.3437500000000145
 40
0.3750000000000155
 40
0.3750000000000155
 40
0.4375000000000153
 40
0.4375000000000153
 40
0.4687500000000153
 40
0.4687500000000153
 40
0.5000000000000152
 40
0.5000000000000152
 40
0.5625000000000127
 40
0.5625000000000127
 40
0.5937500000000125
 40
0.5937500000000125
 40
0.6250000000000124
 40
0.6250000000000124
 40
0.6875000000000101
 40
0.6875000000000101
 40
0.7187500000000091
 40
0.7187500000000091
 40
0.750000000000008
 40
0.750000000000008
 40
0.812500000000006
 40
0.812500000000006
 40
0.8437500000000049
 40
0.8437500000000049
 40
0.8750000000000038
 40
0.8750000000000038
 40
0.9375000000000019
 40
0.9375000000000019
 40
1.0
 40
1.0
 40
1.0
 40
1.0
 10
251.3402350959678
 20
122.5333089956069
 30
0.0
 10
251.1746563045537
 20
122.8547254494075
 30
0.0
 10
251.0510570533655
 20
123.1895260220829
 30
0.0
 10
250.9290162851199
 20
123.7118311947934
 30
0.0
 10
250.8989494708317
 20
123.8906814309592
 30
0.0
 10
250.8625123001617
 20
124.2469539025312
 30
0.0
 10
250.8558800196555
 20
124.4246105035406
 30
0.0
 10
250.865579194965
 20
124.7789731563676
 30
0.0
 10
250.8819083885265
 20
124.9556792452474
 30
0.0
 10
250.9384218873046
 20
125.3081252912928
 30
0.0
 10
250.9787313609194
 20
125.4832569359647
 30
0.0
 10
251.1319953775856
 20
125.9912626180067
 30
0.0
 10
251.2788259953738
 20
126.3144612540714
 30
0.0
 10
251.6567054896699
 20
126.9161389965026
 30
0.0
 10
251.8816565166209
 20
127.1862550855561
 30
0.0
 10
252.2717495058732
 20
127.5476193148086
 30
0.0
 10
252.410897936791
 20
127.6605936013274
 30
0.0
 10
252.6992694399527
 20
127.8657016573179
 30
0.0
 10
252.8493893348716
 20
127.9587386022364
 30
0.0
 10
253.3173644727657
 20
128.2099093531047
 30
0.0
 10
253.6563398907371
 20
128.3405422415032
 30
0.0
 10
254.1740644565915
 20
128.47034794485
 30
0.0
 10
254.3490818648073
 20
128.5031403916914
 30
0.0
 10
254.7040693902173
 20
128.5475788706712
 30
0.0
 10
254.8853357010433
 20
128.5591622405282
 30
0.0
 10
255.4239673202008
 20
128.5605883681741
 30
0.0
 10
255.7777145110057
 20
128.5185471367815
 30
0.0
 10
256.3002466401334
 20
128.3899881772023
 30
0.0
 10
256.4726340628755
 20
128.3359819209089
 30
0.0
 10
256.8047945563284
 20
128.2087353736199
 30
0.0
 10
256.9658450060951
 20
128.1352181437796
 30
0.0
 10
257.4340103951062
 20
127.8849085655998
 30
0.0
 10
257.7283130992772
 20
127.6756292287564
 30
0.0
 10
258.1155864101488
 20
127.3170097685837
 30
0.0
 10
258.2366574713738
 20
127.1895606969269
 30
0.0
 10
258.4626357382488
 20
126.9185138692856
 30
0.0
 10
258.5681261788766
 20
126.7738378033415
 30
0.0
 10
258.8521275537965
 20
126.3256513316535
 30
0.0
 10
259.0007405899508
 20
126.0067461568638
 30
0.0
 10
259.1625871626268
 20
125.4974873562605
 30
0.0
 10
259.2057709382984
 20
125.3234187262907
 30
0.0
 10
259.2692764852663
 20
124.9745331447708
 30
0.0
 10
259.2899712033457
 20
124.7986096072853
 30
0.0
 10
259.319128454036
 20
124.2663917517389
 30
0.0
 10
259.2935149091117
 20
123.9030654023293
 30
0.0
 10
259.156296611824
 20
123.2037697267584
 30
0.0
 10
259.0443107844268
 20
122.8604206709688
 30
0.0
 10
258.890094429911
 20
122.5333089956068
 30
0.0
  0
ELLIPSE
  5
12A
330
1F
100
AcDbEntity
  8
0
  6
HIDDEN
 62
     7
370
     0
100
AcDbEllipse
 10
264.1764630608
 20
122.5333089956
 30
0.0
 11
-6.669703807742962
 21
20.49869244577135
 31
0.0
210
0.0
220
0.0
230
1.0
 40
0.0347142918
 41
6.271890723419028
 42
7.842687050213508
  0
LINE
  5
12B
330
1F
100
AcDbEntity
  8
0
  6
HIDDEN
 62
     7
370
     0
100
AcDbLine
 10
247.7252824211
 20
122.5333089956
 30
0.0
 11
247.7252824211
 21
143.0333095619
 31
0.0
  0
SPLINE
  5
12C
330
1F
100
AcDbEntity
  8
0
  6
HIDDEN
 62
     7
370
     0
100
AcDbSpline
210
0.0
220
0.0
230
1.0
 70
     8
 71
     3
 72
    12
 73
     8
 74
     0
 42
0.00000001
 43
0.00000001
 12
1.0
 22
0.0
 32
0.0
 13
1.0
 23
0.0
 33
0.0
 40
0.0
 40
0.0
 40
0.0
 40
0.0
 40
0.2499999999999997
 40
0.2499999999999997
 40
0.4999999999999998
 40
0.4999999999999998
 40
1.0
 40
1.0
 40
1.0
 40
1.0
 10
251.9418648997431
 20
105.2097463221459
 30
0.0
 10
251.7300546486658
 20
105.9912792012981
 30
0.0
 10
251.506715566365
 20
106.7999459485854
 30
0.0
 10
251.0353149491709
 20
108.4705486759842
 30
0.0
 10
250.7855140437332
 20
109.3382549099845
 30
0.0
 10
250.0150777989786
 20
111.9546838960716
 30
0.0
 10
249.470254797243
 20
113.7297951095548
 30
0.0
 10
248.8874603706394
 20
115.5333089956069
 30
0.0
  0
SPLINE
  5
12D
330
1F
100
AcDbEntity
  8
0
  6
HIDDEN
 62
     7
370
     0
100
AcDbSpline
210
0.0
220
0.0
230
1.0
 70
     8
 71
     3
 72
    12
 73
     8
 74
     0
 42
0.00000001
 43
0.00000001
 12
1.0
 22
0.0
 32
0.0
 13
1.0
 23
0.0
 33
0.0
 40
0.0
 40
0.0
 40
0.0
 40
0.0
 40
0.2500000000000001
 40
0.2500000000000001
 40
0.5
 40
0.5
 40
1.0
 40
1.0
 40
1.0
 40
1.0
 10
247.725281348205
 20
122.5333089956069
 30
0.0
 10
247.725281348205
 20
121.9366405997272
 30
0.0
 10
247.7517385523395
 20
121.3352587554279
 30
0.0
 10
247.8551401666537
 20
120.1477369690367
 30
0.0
 10
247.9318868731602
 20
119.5594676395717
 30
0.0
 10
248.2310184154697
 20
117.8097647840951
 30
0.0
 10
248.5222685036227
 20
116.6634306528716
 30
0.0
 10
248.8874603706394
 20
115.5333089956069
 30
0.0
  0
SPLINE
  5
12E
330
1F
100
AcDbEntity
  8
0
  6
HIDDEN
 62
     7
370
     0
100
AcDbSpline
210
0.0
220
0.0
230
1.0
 70
     8
 71
     3
 72
    12
 73
     8
 74
     0
 42
0.00000001
 43
0.00000001
 12
1.0
 22
0.0
 32
0.0
 13
1.0
 23
0.0
 33
0.0
 40
0.0
 40
0.0
 40
0.0
 40
0.0
 40
0.2011054898851795
 40
0.4042367188734479
 40
0.6542849358564955
 40
0.9120863524415228
 40
1.0
 40
1.0
 40
1.0
 40
1.0
 10
249.9406529569391
 20
104.5156127789044
 30
0.0
 10
249.577339538661
 20
104.328234806523
 30
0.0
 10
248.847053039713
 20
103.9515914001801
 30
0.0
 10
248.0341836845178
 20
103.3145771911603
 30
0.0
 10
247.6337958648395
 20
102.6034494831209
 30
0.0
 10
247.7649409015452
 20
102.0006635801169
 30
0.0
 10
248.1242436512948
 20
101.6615519431496
 30
0.0
 10
248.2156125807527
 20
101.5753175147795
 30
0.0
  0
SPLINE
  5
12F
330
1F
100
AcDbEntity
  8
0
  6
HIDDEN
 62
     7
370
     0
100
AcDbSpline
210
0.0
220
0.0
230
1.0
 70
     8
 71
     3
 72
     8
 73
     4
 74
     0
 42
0.00000001
 43
0.00000001
 12
1.0
 22
0.0
 32
0.0
 13
1.0
 23
0.0
 33
0.0
 40
0.0
 40
0.0
 40
0.0
 40
0.0
 40
1.0
 40
1.0
 40
1.0
 40
1.0
 10
251.9418648997432
 20
105.2097463221458
 30
0.0
 10
251.1899779342961
 20
105.0313437882274
 30
0.0
 10
250.5159911940765
 20
104.7933151663954
 30
0.0
 10
249.9406534817477
 20
104.515613084494
 30
0.0
  0
LINE
  5
130
330
1F
100
AcDbEntity
  8
0
  6
HIDDEN
 62
     7
370
     0
100
AcDbLine
 10
123.475281147
 20
131.5333086082
 30
0.0
 11
123.475281147
 21
113.533309383
 31
0.0
  0
LINE
  5
131
330
1F
100
AcDbEntity
  8
0
  6
HIDDEN
 62
     7
370
     0
100
AcDbLine
 10
122.2252814078
 20
112.2833087125
 30
0.0
 11
122.2252814078
 21
132.7833092787
 31
0.0
  0
LINE
  5
132
330
1F
100
AcDbEntity
  8
0
  6
HIDDEN
 62
     7
370
     0
100
AcDbLine
 10
149.2252821082
 20
131.5333086082
 30
0.0
 11
149.2252821082
 21
113.533309383
 31
0.0
  0
LINE
  5
133
330
1F
100
AcDbEntity
  8
0
  6
HIDDEN
 62
     7
370
     0
100
AcDbLine
 10
152.0793685668
 20
126.7833092266
 30
0.0
 11
152.0793685668
 21
118.2833087646
 31
0.0
  0
LWPOLYLINE
  5
134
330
1F
100
AcDbEntity
  8
0
  6
HIDDEN
 62
     7
370
     0
100
AcDbPolyline
 90
       27
 70
   128
 43
0.0
 10
257.897507956
 20
115.4477328078
 10
258.7305201196
 20
115.5654170566
 10
259.5151258611
 20
115.8752247707
 10
260.2057201767
 20
116.359150225
 10
260.7621742391
 20
116.9890698061
 10
261.1521376276
 20
117.7283750863
 10
261.352960577
 20
118.5340999641
 10
261.352960577
 20
119.359418472
 10
261.1521376276
 20
120.1563663331
 10
260.7621742391
 20
120.8786281773
 10
260.2057201767
 20
121.4842282484
 10
259.5151258611
 20
121.9379715754
 10
258.7305201196
 20
122.2134881087
 10
257.897507956
 20
122.2947658667
 10
257.0644957924
 20
122.1770812831
 10
256.2798900509
 20
121.8672737728
 10
255.5892957353
 20
121.3833482021
 10
255.0328491235
 20
120.7534286209
 10
254.6428782844
 20
120.0141235736
 10
254.4420627856
 20
119.2083986958
 10
254.4420627856
 20
118.3830799551
 10
254.6428782844
 20
117.5861318612
 10
255.0328491235
 20
116.8638702498
 10
255.5892957353
 20
116.2582702951
 10
256.2798900509
 20
115.8045271427
 10
257.0644957924
 20
115.5290102602
 10
257.897507956
 20
115.4477328078
  0
LWPOLYLINE
  5
135
330
1F
100
AcDbEntity
  8
0
  6
HIDDEN
 62
     7
370
     0
100
AcDbPolyline
 90
       27
 70
   128
 43
0.0
 10
257.4710963273
 20
116.2912409768
 10
258.3041084909
 20
116.4089252257
 10
259.0887142324
 20
116.7187329398
 10
259.779308548
 20
117.2026583941
 10
260.3357626104
 20
117.8325779752
 10
260.7257259989
 20
118.5718832553
 10
260.9265489483
 20
119.3776079004
 10
260.9265489483
 20
120.202926641
 10
260.7257259989
 20
120.9998746186
 10
260.3357626104
 20
121.7221362881
 10
259.779308548
 20
122.327736432
 10
259.0887142324
 20
122.7814797153
 10
258.3041084909
 20
123.0569962777
 10
257.4710963273
 20
123.1382740212
 10
256.6380841636
 20
123.0205894522
 10
255.8534784221
 20
122.7107819418
 10
255.1628841066
 20
122.2268563711
 10
254.6064300442
 20
121.5969367318
 10
254.2164666557
 20
120.8576317427
 10
254.0156511569
 20
120.0519068648
 10
254.0156511569
 20
119.226588357
 10
254.2164666557
 20
118.4296400302
 10
254.6064300442
 20
117.7073784188
 10
255.1628841066
 20
117.1017784641
 10
255.8534784221
 20
116.6480353118
 10
256.6380841636
 20
116.3725184293
 10
257.4710963273
 20
116.2912409768
  0
ARC
  5
136
330
1F
100
AcDbEntity
  8
0
  6
HIDDEN
 62
     7
370
     0
100
AcDbCircle
 10
252.3921678598
 20
114.1088655107
 30
0.0
 40
2.078318515772051
100
AcDbArc
 50
72.09763106
 51
237.4635723614
  0
LINE
  5
137
330
1F
100
AcDbEntity
  8
0
  6
HIDDEN
 62
     7
370
     0
100
AcDbLine
 10
267.4346012974
 20
111.8331036546
 30
0.0
 11
268.3983487987
 21
109.926659336
 31
0.0
  0
LINE
  5
138
330
1F
100
AcDbEntity
  8
0
  6
HIDDEN
 62
     7
370
     0
100
AcDbLine
 10
233.2252828383
 20
126.7833092266
 30
0.0
 11
233.2252828383
 21
118.2833087646
 31
0.0
  0
SPLINE
  5
139
330
1F
100
AcDbEntity
  8
0
  6
HIDDEN
 62
     7
370
     0
100
AcDbSpline
210
0.0
220
0.0
230
1.0
 70
     8
 71
     3
 72
    60
 73
    56
 74
     0
 42
0.00000001
 43
0.00000001
 12
1.0
 22
0.0
 32
0.0
 13
1.0
 23
0.0
 33
0.0
 40
-0.03125
 40
-0.03125
 40
0.0
 40
0.0
 40
0.0312499999999997
 40
0.0312499999999997
 40
0.0624999999999994
 40
0.0624999999999994
 40
0.1249999999999964
 40
0.1249999999999964
 40
0.1562499999999959
 40
0.1562499999999959
 40
0.1874999999999953
 40
0.1874999999999953
 40
0.2187499999999947
 40
0.2187499999999947
 40
0.2499999999999941
 40
0.2499999999999941
 40
0.312499999999993
 40
0.312499999999993
 40
0.3749999999999917
 40
0.3749999999999917
 40
0.4062499999999911
 40
0.4062499999999911
 40
0.4374999999999906
 40
0.4374999999999906
 40
0.46874999999999
 40
0.46874999999999
 40
0.4999999999999893
 40
0.4999999999999893
 40
0.5312499999999888
 40
0.5312499999999888
 40
0.5624999999999882
 40
0.5624999999999882
 40
0.6249999999999895
 40
0.6249999999999895
 40
0.6562499999999909
 40
0.6562499999999909
 40
0.6874999999999923
 40
0.6874999999999923
 40
0.7187499999999938
 40
0.7187499999999938
 40
0.7499999999999952
 40
0.7499999999999952
 40
0.7812499999999967
 40
0.7812499999999967
 40
0.8124999999999981
 40
0.8124999999999981
 40
0.8749999999999999
 40
0.8749999999999999
 40
0.90625
 40
0.90625
 40
0.9375
 40
0.9375
 40
0.96875
 40
0.96875
 40
1.0
 40
1.0
 40
1.03125
 40
1.03125
 10
229.0557537516344
 20
125.0333089956069
 30
0.0
 10
229.3948089447756
 20
125.0333089956069
 30
0.0
 10
229.5604067924831
 20
125.0162580309762
 30
0.0
 10
229.8845268691558
 20
124.9504850998141
 30
0.0
 10
230.0443369334813
 20
124.9009125976729
 30
0.0
 10
230.4936785360228
 20
124.7120159623856
 30
0.0
 10
230.7633612757982
 20
124.5296776346991
 30
0.0
 10
231.1015460645557
 20
124.19310570481
 30
0.0
 10
231.2051124981796
 20
124.0682888519292
 30
0.0
 10
231.3855639604795
 20
123.8018016352502
 30
0.0
 10
231.4626859267418
 20
123.6605122625385
 30
0.0
 10
231.590103811549
 20
123.3604614421985
 30
0.0
 10
231.6405680043501
 20
123.1995614855084
 30
0.0
 10
231.7074094170326
 20
122.8746918621816
 30
0.0
 10
231.7247276185816
 20
122.7094819843117
 30
0.0
 10
231.726350010515
 20
122.2050867108588
 30
0.0
 10
231.6578620399713
 20
121.8696255320143
 30
0.0
 10
231.4038117336005
 20
121.2636909736377
 30
0.0
 10
231.2192288342451
 20
120.9920465441327
 30
0.0
 10
230.8818603638221
 20
120.6541934868183
 30
0.0
 10
230.7578711948552
 20
120.5516522562937
 30
0.0
 10
230.4917024496377
 20
120.3718343451965
 30
0.0
 10
230.3511657688137
 20
120.2953350078077
 30
0.0
 10
230.0535074335158
 20
120.1689518207608
 30
0.0
 10
229.8940400559732
 20
120.1186867731659
 30
0.0
 10
229.5684226718397
 20
120.0513958790099
 30
0.0
 10
229.4024556894526
 20
120.0338467491744
 30
0.0
 10
229.0636224433895
 20
120.0327953149741
 30
0.0
 10
228.8966317645543
 20
120.0494485041397
 30
0.0
 10
228.5710068507635
 20
120.1147353721869
 30
0.0
 10
228.4108756782065
 20
120.1640765811444
 30
0.0
 10
227.9601705188482
 20
120.3525820742099
 30
0.0
 10
227.6899120176975
 20
120.5346737812852
 30
0.0
 10
227.3501972887956
 20
120.8721241186602
 30
0.0
 10
227.2462386449202
 20
120.9973412413609
 30
0.0
 10
227.0659295522986
 20
121.2632669549547
 30
0.0
 10
226.9884958437059
 20
121.4047354180786
 30
0.0
 10
226.8602469888614
 20
121.7065682913011
 30
0.0
 10
226.8099316979447
 20
121.8673359091737
 30
0.0
 10
226.7431834514532
 20
122.1918062638363
 30
0.0
 10
226.7257099422571
 20
122.3575521891866
 30
0.0
 10
226.7248681597266
 20
122.6966538924331
 30
0.0
 10
226.7416282572586
 20
122.8637445651194
 30
0.0
 10
226.8073804007624
 20
123.1901768286778
 30
0.0
 10
226.8572352615361
 20
123.3514197184421
 30
0.0
 10
227.0482000471036
 20
123.8053572266183
 30
0.0
 10
227.2334961800734
 20
124.0775425136123
 30
0.0
 10
227.5723850808933
 20
124.4157011593276
 30
0.0
 10
227.6975670032966
 20
124.5186953940818
 30
0.0
 10
227.9635021392697
 20
124.6974678388499
 30
0.0
 10
228.1043577226686
 20
124.7738378315862
 30
0.0
 10
228.4040243191527
 20
124.9001584059777
 30
0.0
 10
228.5644025012874
 20
124.9500618536704
 30
0.0
 10
228.8891396413361
 20
125.0161428563725
 30
0.0
 10
229.0557537516344
 20
125.0333089956069
 30
0.0
 10
229.3948089447756
 20
125.0333089956069
 30
0.0
  0
SPLINE
  5
13A
330
1F
100
AcDbEntity
  8
0
  6
HIDDEN
 62
     7
370
     0
100
AcDbSpline
210
0.0
220
0.0
230
1.0
 70
     8
 71
     3
 72
    60
 73
    56
 74
     0
 42
0.00000001
 43
0.00000001
 12
1.0
 22
0.0
 32
0.0
 13
1.0
 23
0.0
 33
0.0
 40
-0.03125
 40
-0.03125
 40
0.0
 40
0.0
 40
0.0312499999999997
 40
0.0312499999999997
 40
0.0624999999999994
 40
0.0624999999999994
 40
0.1249999999999964
 40
0.1249999999999964
 40
0.1562499999999959
 40
0.1562499999999959
 40
0.1874999999999953
 40
0.1874999999999953
 40
0.2187499999999947
 40
0.2187499999999947
 40
0.2499999999999941
 40
0.2499999999999941
 40
0.312499999999993
 40
0.312499999999993
 40
0.3749999999999917
 40
0.3749999999999917
 40
0.4062499999999911
 40
0.4062499999999911
 40
0.4374999999999906
 40
0.4374999999999906
 40
0.46874999999999
 40
0.46874999999999
 40
0.4999999999999893
 40
0.4999999999999893
 40
0.5312499999999888
 40
0.5312499999999888
 40
0.5624999999999882
 40
0.5624999999999882
 40
0.6249999999999895
 40
0.6249999999999895
 40
0.6562499999999909
 40
0.6562499999999909
 40
0.6874999999999923
 40
0.6874999999999923
 40
0.7187499999999938
 40
0.7187499999999938
 40
0.7499999999999952
 40
0.7499999999999952
 40
0.7812499999999967
 40
0.7812499999999967
 40
0.8124999999999981
 40
0.8124999999999981
 40
0.8749999999999999
 40
0.8749999999999999
 40
0.90625
 40
0.90625
 40
0.9375
 40
0.9375
 40
0.96875
 40
0.96875
 40
1.0
 40
1.0
 40
1.03125
 40
1.03125
 10
229.3948089447756
 20
125.0333089956069
 30
0.0
 10
229.0557537516344
 20
125.0333089956069
 30
0.0
 10
228.8901559039269
 20
125.0162580309762
 30
0.0
 10
228.5660358272543
 20
124.9504850998141
 30
0.0
 10
228.4062257629286
 20
124.9009125976729
 30
0.0
 10
227.9568841603872
 20
124.7120159623856
 30
0.0
 10
227.6872014206118
 20
124.5296776346991
 30
0.0
 10
227.3490166318543
 20
124.19310570481
 30
0.0
 10
227.2454501982305
 20
124.0682888519292
 30
0.0
 10
227.0649987359305
 20
123.8018016352502
 30
0.0
 10
226.9878767696682
 20
123.6605122625385
 30
0.0
 10
226.8604588848611
 20
123.3604614421985
 30
0.0
 10
226.8099946920599
 20
123.1995614855084
 30
0.0
 10
226.7431532793775
 20
122.8746918621816
 30
0.0
 10
226.7258350778284
 20
122.7094819843117
 30
0.0
 10
226.7242126858951
 20
122.2050867108588
 30
0.0
 10
226.7927006564386
 20
121.8696255320143
 30
0.0
 10
227.0467509628095
 20
121.2636909736377
 30
0.0
 10
227.2313338621649
 20
120.9920465441327
 30
0.0
 10
227.568702332588
 20
120.6541934868183
 30
0.0
 10
227.6926915015549
 20
120.5516522562937
 30
0.0
 10
227.9588602467723
 20
120.3718343451965
 30
0.0
 10
228.0993969275963
 20
120.2953350078077
 30
0.0
 10
228.3970552628943
 20
120.1689518207608
 30
0.0
 10
228.5565226404369
 20
120.1186867731659
 30
0.0
 10
228.8821400245704
 20
120.0513958790099
 30
0.0
 10
229.0481070069575
 20
120.0338467491744
 30
0.0
 10
229.3869402530205
 20
120.0327953149741
 30
0.0
 10
229.5539309318557
 20
120.0494485041397
 30
0.0
 10
229.8795558456465
 20
120.1147353721869
 30
0.0
 10
230.0396870182035
 20
120.1640765811444
 30
0.0
 10
230.4903921775618
 20
120.3525820742099
 30
0.0
 10
230.7606506787126
 20
120.5346737812852
 30
0.0
 10
231.1003654076144
 20
120.8721241186602
 30
0.0
 10
231.2043240514898
 20
120.9973412413609
 30
0.0
 10
231.3846331441114
 20
121.2632669549547
 30
0.0
 10
231.462066852704
 20
121.4047354180786
 30
0.0
 10
231.5903157075486
 20
121.7065682913011
 30
0.0
 10
231.6406309984654
 20
121.8673359091737
 30
0.0
 10
231.7073792449567
 20
122.1918062638363
 30
0.0
 10
231.7248527541529
 20
122.3575521891866
 30
0.0
 10
231.7256945366833
 20
122.6966538924331
 30
0.0
 10
231.7089344391514
 20
122.8637445651194
 30
0.0
 10
231.6431822956475
 20
123.1901768286778
 30
0.0
 10
231.593327434874
 20
123.3514197184421
 30
0.0
 10
231.4023626493065
 20
123.8053572266183
 30
0.0
 10
231.2170665163366
 20
124.0775425136123
 30
0.0
 10
230.8781776155166
 20
124.4157011593276
 30
0.0
 10
230.7529956931135
 20
124.5186953940818
 30
0.0
 10
230.4870605571402
 20
124.6974678388499
 30
0.0
 10
230.3462049737414
 20
124.7738378315862
 30
0.0
 10
230.0465383772572
 20
124.9001584059777
 30
0.0
 10
229.8861601951226
 20
124.9500618536704
 30
0.0
 10
229.5614230550739
 20
125.0161428563725
 30
0.0
 10
229.3948089447756
 20
125.0333089956069
 30
0.0
 10
229.0557537516344
 20
125.0333089956069
 30
0.0
  0
SPLINE
  5
13B
330
1F
100
AcDbEntity
  8
0
  6
HIDDEN
 62
     7
370
     0
100
AcDbSpline
210
0.0
220
0.0
230
1.0
 70
     8
 71
     3
 72
    34
 73
    30
 74
     0
 42
0.00000001
 43
0.00000001
 12
1.0
 22
0.0
 32
0.0
 13
1.0
 23
0.0
 33
0.0
 40
0.0
 40
0.0
 40
0.0
 40
0.0
 40
0.1249999999999999
 40
0.1249999999999999
 40
0.2499999999999997
 40
0.2499999999999997
 40
0.3124999999999996
 40
0.3124999999999996
 40
0.3749999999999995
 40
0.3749999999999995
 40
0.4374999999999994
 40
0.4374999999999994
 40
0.4687499999999981
 40
0.4687499999999981
 40
0.4999999999999968
 40
0.4999999999999968
 40
0.5312499999999956
 40
0.5312499999999956
 40
0.5624999999999942
 40
0.5624999999999942
 40
0.6249999999999951
 40
0.6249999999999951
 40
0.6874999999999959
 40
0.6874999999999959
 40
0.7499999999999968
 40
0.7499999999999968
 40
0.8749999999999983
 40
0.8749999999999983
 40
1.0
 40
1.0
 40
1.0
 40
1.0
 10
255.720605475988
 20
117.1204870926005
 30
0.0
 10
255.7793863485407
 20
117.0042098505912
 30
0.0
 10
255.9036743764325
 20
116.8738899470903
 30
0.0
 10
256.2312869788632
 20
116.6084720819657
 30
0.0
 10
256.4373301442801
 20
116.4723167495484
 30
0.0
 10
256.8068681921141
 20
116.2880629346395
 30
0.0
 10
256.9404977527083
 20
116.2298436025378
 30
0.0
 10
257.2356704585732
 20
116.1258324974841
 30
0.0
 10
257.3974706435909
 20
116.0797016225255
 30
0.0
 10
257.7593663207683
 20
116.0144692828724
 30
0.0
 10
257.9583323499429
 20
115.994129934505
 30
0.0
 10
258.3058102919703
 20
116.0129349940995
 30
0.0
 10
258.4284121148613
 20
116.0277557197468
 30
0.0
 10
258.6887807351031
 20
116.0851213040856
 30
0.0
 10
258.821411470786
 20
116.1270501502093
 30
0.0
 10
259.0798417912763
 20
116.239646361479
 30
0.0
 10
259.2004468557699
 20
116.3083711228554
 30
0.0
 10
259.4112394437641
 20
116.4542595707046
 30
0.0
 10
259.5030693029854
 20
116.5318980784656
 30
0.0
 10
259.7421483036675
 20
116.7634731333244
 30
0.0
 10
259.8577057544193
 20
116.9179756744796
 30
0.0
 10
260.0437994092493
 20
117.2137841668013
 30
0.0
 10
260.1136660370237
 20
117.3555541171091
 30
0.0
 10
260.2273955341514
 20
117.6297201860217
 30
0.0
 10
260.2707746373039
 20
117.7620698323406
 30
0.0
 10
260.3723156245426
 20
118.144555579863
 30
0.0
 10
260.4015071679113
 20
118.3750091760479
 30
0.0
 10
260.4078513462977
 20
118.7758940017751
 30
0.0
 10
260.3855215089429
 20
118.9475127172674
 30
0.0
 10
260.3269818850624
 20
119.0633127337946
 30
0.0
  0
ELLIPSE
  5
13C
330
1F
100
AcDbEntity
  8
0
  6
HIDDEN
 62
     7
370
     0
100
AcDbEllipse
 10
260.1080540413
 20
113.3513829485
 30
0.0
 11
3.434281587992587
 21
-1.718550178042051
 31
0.0
210
0.0
220
0.0
230
1.0
 40
0.1647216549
 41
3.359868973054384
 42
6.501461626644133
  0
LINE
  5
13D
330
1F
100
AcDbEntity
  8
0
  6
HIDDEN
 62
     7
370
     0
100
AcDbLine
 10
258.5928035879
 20
100.1543278822
 30
0.0
 11
257.6290486359
 21
102.0607712694
 31
0.0
  0
ELLIPSE
  5
13E
330
1F
100
AcDbEntity
  8
0
  6
HIDDEN
 62
     7
370
     0
100
AcDbEllipse
 10
256.5593340825
 20
121.5183591348
 30
0.0
 11
3.809839114181557
 21
1.769635718921222
 31
0.0
210
0.0
220
0.0
230
1.0
 40
0.816602865
 41
4.03110828591928
 42
5.306232127157695
  0
LINE
  5
13F
330
1F
100
AcDbEntity
  8
0
  6
HIDDEN
 62
     7
370
     0
100
AcDbLine
 10
255.2824361229
 20
117.9872441121
 30
0.0
 11
255.7206047678
 21
117.120486872
 31
0.0
  0
LINE
  5
140
330
1F
100
AcDbEntity
  8
0
  6
HIDDEN
 62
     7
370
     0
100
AcDbLine
 10
260.3269858265
 20
119.0633128413
 30
0.0
 11
259.8888171816
 21
119.9300698486
 31
0.0
  0
ELLIPSE
  5
141
330
1F
100
AcDbEntity
  8
0
  6
HIDDEN
 62
     7
370
     0
100
AcDbEllipse
 10
255.0730979189
 20
124.4583536359
 30
0.0
 11
1.947843959788458
 21
-3.853122855659152
 31
0.0
210
0.0
220
0.0
230
1.0
 40
0.9727892058
 41
4.720242820793384
 42
6.932047490304429
  0
LWPOLYLINE
  5
142
330
1F
100
AcDbEntity
  8
0
  6
HIDDEN
 62
     7
370
     0
100
AcDbPolyline
 90
       29
 70
   128
 43
0.0
 10
257.4271304512
 20
115.6935065069
 10
258.3566052818
 20
115.8168192037
 10
259.2394543791
 20
116.1399518155
 10
260.0314510965
 20
116.6467011922
 10
260.6928391361
 20
117.3116566629
 10
261.1904783153
 20
118.1014745512
 10
261.499394288
 20
118.9765503646
 10
261.6041196489
 20
119.8930039086
 10
261.499394288
 20
120.8048802351
 10
261.1904783153
 20
121.666454374
 10
260.6928391361
 20
122.4345232318
 10
260.0314510965
 20
123.0705726908
 10
259.2394543791
 20
123.5427085326
 10
258.3566052818
 20
123.8272558681
 10
257.4271304512
 20
123.9099464861
 10
256.4976630711
 20
123.7866336728
 10
255.6148065233
 20
123.463501061
 10
254.8228172564
 20
122.9567517426
 10
254.1614292168
 20
122.291796301
 10
253.6637900376
 20
121.5019783254
 10
253.3548666143
 20
120.6269027448
 10
253.2501412534
 20
119.7104493172
 10
253.3548666143
 20
118.7985727579
 10
253.6637900376
 20
117.9369987936
 10
254.1614292168
 20
117.1689300814
 10
254.8228172564
 20
116.5328805351
 10
255.6148065233
 20
116.0607446932
 10
256.4976630711
 20
115.7761972413
 10
257.4271304512
 20
115.6935065069
  0
LINE
  5
143
330
1F
100
AcDbEntity
  8
0
  6
HIDDEN
 62
     7
370
     0
100
AcDbLine
 10
264.3847210312
 20
109.4317480006
 30
0.0
 11
262.8136021995
 21
113.1977082246
 31
0.0
  0
LINE
  5
144
330
1F
100
AcDbEntity
  8
0
  6
HIDDEN
 62
     7
370
     0
100
AcDbLine
 10
264.0608740949
 20
110.0723684781
 30
0.0
 11
264.3847210312
 21
109.4317480006
 31
0.0
  0
LINE
  5
145
330
1F
100
AcDbEntity
  8
0
  6
HIDDEN
 62
     7
370
     0
100
AcDbLine
 10
261.5668220424
 20
115.7449085281
 30
0.0
 11
259.8888171816
 21
119.9300698486
 31
0.0
  0
LINE
  5
146
330
1F
100
AcDbEntity
  8
0
  6
HIDDEN
 62
     7
370
     0
100
AcDbLine
 10
262.8136021995
 20
113.1977082246
 30
0.0
 11
263.5221524143
 21
111.796111522
 31
0.0
  0
LINE
  5
147
330
1F
100
AcDbEntity
  8
0
  6
HIDDEN
 62
     7
370
     0
100
AcDbLine
 10
256.6355956697
 20
115.022109078
 30
0.0
 11
259.7783399725
 21
107.488922497
 31
0.0
  0
ARC
  5
148
330
1F
100
AcDbEntity
  8
0
  6
HIDDEN
 62
     7
370
     0
100
AcDbCircle
 10
262.7209837974
 20
106.6091167152
 30
0.0
 40
3.071353267530824
100
AcDbArc
 50
163.3541344757
 51
267.1012472371
  0
ARC
  5
149
330
1F
100
AcDbEntity
  8
0
  6
HIDDEN
 62
     7
370
     0
100
AcDbCircle
 10
262.9449854308
 20
106.7217884107
 30
0.0
 40
3.068667394457603
100
AcDbArc
 50
326.4651962844
 51
62.0193785122
  0
LINE
  5
14A
330
1F
100
AcDbEntity
  8
0
  6
HIDDEN
 62
     7
370
     0
100
AcDbLine
 10
270.8858294391
 20
98.1726559826
 30
0.0
 11
271.5394837761
 21
98.821510283
 31
0.0
  0
LINE
  5
14B
330
1F
100
AcDbEntity
  8
0
  6
HIDDEN
 62
     7
370
     0
100
AcDbLine
 10
258.7364954853
 20
101.7604197391
 30
0.0
 11
270.8858294391
 21
98.1726559826
 31
0.0
  0
ARC
  5
14C
330
1F
100
AcDbEntity
  8
0
  6
HIDDEN
 62
     7
370
     0
100
AcDbCircle
 10
251.4460020493
 20
77.0709860107
 30
0.0
 40
25.74333763076605
100
AcDbArc
 50
73.5487619799
 51
76.1028087019
  0
LINE
  5
14D
330
1F
100
AcDbEntity
  8
0
  6
HIDDEN
 62
     7
370
     0
100
AcDbLine
 10
254.723679831
 20
111.2701722437
 30
0.0
 11
257.6290486359
 21
102.0607712694
 31
0.0
  0
LINE
  5
14E
330
1F
100
AcDbEntity
  8
0
  6
HIDDEN
 62
     7
370
     0
100
AcDbLine
 10
256.6355956697
 20
115.022109078
 30
0.0
 11
253.0310345793
 21
116.0865553671
 31
0.0
  0
LINE
  5
14F
330
1F
100
AcDbEntity
  8
0
  6
HIDDEN
 62
     7
370
     0
100
AcDbLine
 10
267.4346012974
 20
111.8331036546
 30
0.0
 11
262.8136021995
 21
113.1977082246
 31
0.0
  0
LINE
  5
150
330
1F
100
AcDbEntity
  8
0
  6
HIDDEN
 62
     7
370
     0
100
AcDbLine
 10
271.5394837761
 20
98.821510283
 30
0.0
 11
267.4346012974
 21
111.8331036546
 31
0.0
  0
LINE
  5
151
330
1F
100
AcDbEntity
  8
0
  6
HIDDEN
 62
     7
370
     0
100
AcDbLine
 10
256.6939635181
 20
114.906654881
 30
0.0
 11
256.6355956697
 21
115.022109078
 31
0.0
  0
LINE
  5
152
330
1F
100
AcDbEntity
  8
0
  6
HIDDEN
 62
     7
370
     0
100
AcDbLine
 10
96.7252818846
 20
107.4292563849
 30
0.0
 11
96.7252818846
 21
101.3749453255
 31
0.0
  0
LINE
  5
153
330
1F
100
AcDbEntity
  8
0
  6
HIDDEN
 62
     7
370
     0
100
AcDbLine
 10
95.2252825701
 20
107.862269228
 30
0.0
 11
95.2252825701
 21
102.2409710118
 31
0.0
  0
LINE
  5
154
330
1F
100
AcDbEntity
  8
0
  6
HIDDEN
 62
     7
370
     0
100
AcDbLine
 10
131.0252813601
 20
106.9983883777
 30
0.0
 11
131.0252813601
 21
100.513209311
 31
0.0
  0
SPLINE
  5
155
330
1F
100
AcDbEntity
  8
0
  6
HIDDEN
 62
     7
370
     0
100
AcDbSpline
210
0.0
220
0.0
230
1.0
 70
     8
 71
     3
 72
    16
 73
    12
 74
     0
 42
0.00000001
 43
0.00000001
 12
1.0
 22
0.0
 32
0.0
 13
1.0
 23
0.0
 33
0.0
 40
0.0
 40
0.0
 40
0.0
 40
0.0
 40
0.2499999999999999
 40
0.2499999999999999
 40
0.3750000000000001
 40
0.3750000000000001
 40
0.5000000000000003
 40
0.5000000000000003
 40
0.7500000000000001
 40
0.7500000000000001
 40
1.0
 40
1.0
 40
1.0
 40
1.0
 10
131.9039610046453
 20
105.9494023693657
 30
0.0
 10
131.7427285271609
 20
105.2350082071736
 30
0.0
 10
131.6222486875212
 20
104.581665944465
 30
0.0
 10
131.4998681702079
 20
103.6934107026611
 30
0.0
 10
131.4688905098105
 20
103.4127301663093
 30
0.0
 10
131.4272767721825
 20
102.8836961764693
 30
0.0
 10
131.4170408592497
 20
102.6403751978908
 30
0.0
 10
131.4168524621936
 20
101.9723525073776
 30
0.0
 10
131.4569971648312
 20
101.6086715979582
 30
0.0
 10
131.6211509197708
 20
101.0487807254098
 30
0.0
 10
131.7427025701803
 20
100.8612594332927
 30
0.0
 10
131.9039610046453
 20
100.7632280406048
 30
0.0
  0
LINE
  5
156
330
1F
100
AcDbEntity
  8
0
  6
HIDDEN
 62
     7
370
     0
100
AcDbLine
 10
96.7252818846
 20
143.6916726657
 30
0.0
 11
96.7252818846
 21
137.6373616063
 31
0.0
  0
LINE
  5
157
330
1F
100
AcDbEntity
  8
0
  6
HIDDEN
 62
     7
370
     0
100
AcDbLine
 10
131.0252813601
 20
144.5534086802
 30
0.0
 11
131.0252813601
 21
138.0682296135
 31
0.0
  0
SPLINE
  5
158
330
1F
100
AcDbEntity
  8
0
  6
HIDDEN
 62
     7
370
     0
100
AcDbSpline
210
0.0
220
0.0
230
1.0
 70
     8
 71
     3
 72
    16
 73
    12
 74
     0
 42
0.00000001
 43
0.00000001
 12
1.0
 22
0.0
 32
0.0
 13
1.0
 23
0.0
 33
0.0
 40
0.0
 40
0.0
 40
0.0
 40
0.0
 40
0.2499999999999994
 40
0.2499999999999994
 40
0.3749999999999992
 40
0.3749999999999992
 40
0.499999999999999
 40
0.499999999999999
 40
0.7499999999999994
 40
0.7499999999999994
 40
1.0
 40
1.0
 40
1.0
 40
1.0
 10
131.9039610046453
 20
144.303389950609
 30
0.0
 10
131.7427285271609
 20
144.2053743375542
 30
0.0
 10
131.6222486875212
 20
144.0186383058782
 30
0.0
 10
131.4998681702079
 20
143.6055984983193
 30
0.0
 10
131.4688905098105
 20
143.4455979990863
 30
0.0
 10
131.4272767721825
 20
143.0787923479952
 30
0.0
 10
131.4170408592497
 20
142.8754551953712
 30
0.0
 10
131.4168524621936
 20
142.2081679287446
 30
0.0
 10
131.4569971648312
 20
141.6873534648565
 30
0.0
 10
131.6211509197708
 20
140.4899944493789
 30
0.0
 10
131.7427025701803
 20
139.8317247950829
 30
0.0
 10
131.9039610046453
 20
139.117215621848
 30
0.0
  0
LINE
  5
159
330
1F
100
AcDbEntity
  8
0
  6
HIDDEN
 62
     7
370
     0
100
AcDbLine
 10
95.2252825701
 20
142.8256469795
 30
0.0
 11
95.2252825701
 21
137.2043487632
 31
0.0
  0
SPLINE
  5
15A
330
1F
100
AcDbEntity
  8
0
  6
HIDDEN
 62
     7
370
     0
100
AcDbSpline
210
0.0
220
0.0
230
1.0
 70
     8
 71
     3
 72
    12
 73
     8
 74
     0
 42
0.00000001
 43
0.00000001
 12
1.0
 22
0.0
 32
0.0
 13
1.0
 23
0.0
 33
0.0
 40
0.0
 40
0.0
 40
0.0
 40
0.0
 40
0.2500000000000001
 40
0.2500000000000001
 40
0.5000000000000001
 40
0.5000000000000001
 40
1.0
 40
1.0
 40
1.0
 40
1.0
 10
259.4544910323827
 20
108.1295432071248
 30
0.0
 10
259.4255206165111
 20
108.1868509657735
 30
0.0
 10
259.4031769703617
 20
108.2642705151858
 30
0.0
 10
259.3674029554308
 20
108.4411782178678
 30
0.0
 10
259.3541435387801
 20
108.5409909778445
 30
0.0
 10
259.3281460172366
 20
108.8625672957929
 30
0.0
 10
259.32855361363
 20
109.105700449135
 30
0.0
 10
259.3560878012376
 20
109.3676707445475
 30
0.0
  0
ARC
  5
15B
330
1F
100
AcDbEntity
  8
0
  6
HIDDEN
 62
     7
370
     0
100
AcDbCircle
 10
262.1852755086
 20
107.9600672944
 30
0.0
 40
3.160009998343674
100
AcDbArc
 50
153.5483245278
 51
72.1886169702
  0
SPLINE
  5
15C
330
1F
100
AcDbEntity
  8
0
  6
HIDDEN
 62
     7
370
     0
100
AcDbSpline
210
0.0
220
0.0
230
1.0
 70
     8
 71
     3
 72
    12
 73
     8
 74
     0
 42
0.00000001
 43
0.00000001
 12
1.0
 22
0.0
 32
0.0
 13
1.0
 23
0.0
 33
0.0
 40
0.0
 40
0.0
 40
0.0
 40
0.0
 40
0.5
 40
0.5
 40
0.75
 40
0.75
 40
1.0
 40
1.0
 40
1.0
 40
1.0
 10
263.15187253229
 20
110.9686141432289
 30
0.0
 10
263.3731878141994
 20
110.8116007786536
 30
0.0
 10
263.5623027634161
 20
110.6484023133392
 30
0.0
 10
263.7970497937824
 20
110.4148700157472
 30
0.0
 10
263.866898523159
 20
110.3389248597218
 30
0.0
 10
263.9841482467831
 20
110.1963810652243
 30
0.0
 10
264.0318970255842
 20
110.1296766069707
 30
0.0
 10
264.0608674414558
 20
110.0723688483221
 30
0.0
  0
LINE
  5
15D
330
1F
100
AcDbEntity
  8
0
  6
HIDDEN
 62
     7
370
     0
100
AcDbLine
 10
259.7783399725
 20
107.488922497
 30
0.0
 11
259.4544930362
 21
108.1295429745
 31
0.0
  0
ELLIPSE
  5
15E
330
1F
100
AcDbEntity
  8
0
  6
HIDDEN
 62
     7
370
     0
100
AcDbEllipse
 10
260.6139926763
 20
111.7021980054
 30
0.0
 11
-1.101654435681326
 21
2.719284888726094
 31
0.0
210
0.0
220
0.0
230
1.0
 40
0.8519509261
 41
2.185216307007313
 42
4.122186332629517
  0
LWPOLYLINE
  5
15F
330
1F
100
AcDbEntity
  8
0
  6
HIDDEN
 62
     7
370
     0
100
AcDbPolyline
 90
       12
 70
   128
 43
0.0
 10
256.9604484343
 20
113.8020825588
 10
257.2313142919
 20
113.3985591137
 10
257.6668230796
 20
113.1064246424
 10
258.2316888475
 20
112.9493468457
 10
258.8801724815
 20
112.9400503837
 10
259.5597101354
 20
113.0792886966
 10
260.215271821
 20
113.3557816052
 10
260.7937199974
 20
113.747128939
 10
261.2482352161
 20
114.2216266149
 10
261.5419520044
 20
114.7408338279
 10
261.6511030102
 20
115.2626869285
 10
261.5668220424
 20
115.7449085281
  0
LINE
  5
160
330
1F
100
AcDbEntity
  8
0
  6
HIDDEN
 62
     7
370
     0
100
AcDbLine
 10
270.6442071104
 20
98.6506461182
 30
0.0
 11
270.8858294391
 21
98.1726559826
 31
0.0
  0
LINE
  5
161
330
1F
100
AcDbEntity
  8
0
  6
HIDDEN
 62
     7
370
     0
100
AcDbLine
 10
271.5394837761
 20
98.821510283
 30
0.0
 11
271.142993679
 21
99.6058124133
 31
0.0
  0
LINE
  5
162
330
1F
100
AcDbEntity
  8
0
  6
HIDDEN
 62
     7
370
     0
100
AcDbLine
 10
255.2824361229
 20
117.9872441121
 30
0.0
 11
256.9604484343
 21
113.8020825588
 31
0.0
  0
ELLIPSE
  5
163
330
1F
100
AcDbEntity
  8
0
  6
HIDDEN
 62
     7
370
     0
100
AcDbEllipse
 10
290.4708519752
 20
115.5333089956
 30
0.0
 11
20.24470092004617
 21
19.74465004528244
 31
0.0
210
0.0
220
0.0
230
1.0
 40
0.1573605504
 41
2.652040986247144
 42
2.735709843470619
  0
ELLIPSE
  5
164
330
1F
100
AcDbEntity
  8
0
  6
HIDDEN
 62
     7
370
     0
100
AcDbEllipse
 10
212.9333817221
 20
115.5333089956
 30
0.0
 11
62.39078444610139
 21
-19.74575069221092
 31
0.0
210
0.0
220
0.0
230
1.0
 40
0.0509512444
 41
0.4062286750551307
 42
0.7872641368513492
  0
SPLINE
  5
165
330
1F
100
AcDbEntity
  8
0
  6
HIDDEN
 62
     7
370
     0
100
AcDbSpline
210
0.0
220
0.0
230
1.0
 70
     8
 71
     3
 72
    10
 73
     6
 74
     0
 42
0.00000001
 43
0.00000001
 12
1.0
 22
0.0
 32
0.0
 13
1.0
 23
0.0
 33
0.0
 40
0.0
 40
0.0
 40
0.0
 40
0.0
 40
0.5
 40
0.5
 40
1.0
 40
1.0
 40
1.0
 40
1.0
 10
257.6806562144953
 20
103.8490362380422
 30
0.0
 10
256.7642102685385
 20
104.1910930320224
 30
0.0
 10
255.8271016731313
 20
104.4775287452109
 30
0.0
 10
253.9139142513849
 20
104.9335935219404
 30
0.0
 10
252.9378503176163
 20
105.1033313257836
 30
0.0
 10
251.9418648997431
 20
105.2097463221458
 30
0.0
  0
ELLIPSE
  5
166
330
1F
100
AcDbEntity
  8
0
  6
HIDDEN
 62
     7
370
     0
100
AcDbEllipse
 10
266.431841036
 20
115.5333089956
 30
0.0
 11
-6.507028105114955
 21
19.99872433733773
 31
0.0
210
0.0
220
0.0
230
1.0
 40
0.0347142918
 41
1.559501743033907
 42
2.4807791634518
  0
CIRCLE
  5
167
330
1F
100
AcDbEntity
  8
0
  6
HIDDEN
 62
     7
370
     0
100
AcDbCircle
 10
229.2252813482
 20
122.5333089956
 30
0.0
 40
2.499999999999972
  0
CIRCLE
  5
168
330
1F
100
AcDbEntity
  8
0
  6
HIDDEN
 62
     7
370
     0
100
AcDbCircle
 10
229.2252813482
 20
122.5333089956
 30
0.0
 40
3.0
  0
LINE
  5
169
330
1F
100
AcDbEntity
  8
0
  6
HIDDEN
 62
     7
370
     0
100
AcDbLine
 10
95.2252825701
 20
137.2043487632
 30
0.0
 11
95.2252825701
 21
125.4352964011
 31
0.0
  0
LINE
  5
16A
330
1F
100
AcDbEntity
  8
0
  6
HIDDEN
 62
     7
370
     0
100
AcDbLine
 10
95.2252825701
 20
119.6313215901
 30
0.0
 11
95.2252825701
 21
107.862269228
 31
0.0
  0
LINE
  5
16B
330
1F
100
AcDbEntity
  8
0
  6
HIDDEN
 62
     7
370
     0
100
AcDbLine
 10
96.7252818846
 20
118.5680978947
 30
0.0
 11
96.7252818846
 21
107.4292563849
 31
0.0
  0
LINE
  5
16C
330
1F
100
AcDbEntity
  8
0
  6
HIDDEN
 62
     7
370
     0
100
AcDbLine
 10
96.7252818846
 20
137.6373616063
 30
0.0
 11
96.7252818846
 21
126.4985200965
 31
0.0
  0
LINE
  5
16D
330
1F
100
AcDbEntity
  8
0
  6
HIDDEN
 62
     7
370
     0
100
AcDbLine
 10
133.0252813533
 20
137.5710160487
 30
0.0
 11
133.0252813533
 21
107.4956019425
 31
0.0
  0
LINE
  5
16E
330
1F
100
AcDbEntity
  8
0
  6
HIDDEN
 62
     7
370
     0
100
AcDbLine
 10
131.0252813601
 20
138.0682296135
 30
0.0
 11
131.0252813601
 21
106.9983883777
 31
0.0
  0
SPLINE
  5
16F
330
1F
100
AcDbEntity
  8
0
  6
HIDDEN
 62
     7
370
     0
100
AcDbSpline
210
0.0
220
0.0
230
1.0
 70
     8
 71
     3
 72
    24
 73
    20
 74
     0
 42
0.00000001
 43
0.00000001
 12
1.0
 22
0.0
 32
0.0
 13
1.0
 23
0.0
 33
0.0
 40
0.0
 40
0.0
 40
0.0
 40
0.0
 40
0.125
 40
0.125
 40
0.2499999999999999
 40
0.2499999999999999
 40
0.3749999999999999
 40
0.3749999999999999
 40
0.4374999999999998
 40
0.4374999999999998
 40
0.4999999999999998
 40
0.4999999999999998
 40
0.6249999999999999
 40
0.6249999999999999
 40
0.7499999999999998
 40
0.7499999999999998
 40
0.8749999999999999
 40
0.8749999999999999
 40
1.0
 40
1.0
 40
1.0
 40
1.0
 10
101.675281348205
 20
118.4473479425076
 30
0.0
 10
101.9130849804801
 20
118.7463550448377
 30
0.0
 10
102.1431706416914
 20
119.0506928961565
 30
0.0
 10
102.5779240403012
 20
119.6764264335525
 30
0.0
 10
102.7828568325874
 20
119.99765116088
 30
0.0
 10
103.1479587830861
 20
120.6695769316127
 30
0.0
 10
103.3097591688775
 20
121.0248921634916
 30
0.0
 10
103.4816193734573
 20
121.575123384844
 30
0.0
 10
103.5272045651174
 20
121.7615271698245
 30
0.0
 10
103.5896793046923
 20
122.1416616719208
 30
0.0
 10
103.6063504504407
 20
122.3373314642067
 30
0.0
 10
103.6068714936172
 20
122.9158118428811
 30
0.0
 10
103.5424291927305
 20
123.2937236818499
 30
0.0
 10
103.3125800993572
 20
124.0356917069483
 30
0.0
 10
103.1540594216941
 20
124.3844071671093
 30
0.0
 10
102.7898250917939
 20
125.0574995648424
 30
0.0
 10
102.5830888517303
 20
125.382452052084
 30
0.0
 10
102.14515090599
 20
126.0133758625458
 30
0.0
 10
101.9138781787104
 20
126.3192656028865
 30
0.0
 10
101.6752813482051
 20
126.619270048706
 30
0.0
  0
LINE
  5
170
330
1F
100
AcDbEntity
  8
0
  6
HIDDEN
 62
     7
370
     0
100
AcDbLine
 10
101.6752799952
 20
118.447347732
 30
0.0
 11
101.6752799952
 21
126.6192702592
 31
0.0
  0
SPLINE
  5
171
330
1F
100
AcDbEntity
  8
0
  6
HIDDEN
 62
     7
370
     0
100
AcDbSpline
210
0.0
220
0.0
230
1.0
 70
     8
 71
     3
 72
     8
 73
     4
 74
     0
 42
0.00000001
 43
0.00000001
 12
1.0
 22
0.0
 32
0.0
 13
1.0
 23
0.0
 33
0.0
 40
0.0000249638557296
 40
0.0000249638557296
 40
0.0000249638557296
 40
0.0000249638557296
 40
0.0049776420541172
 40
0.0049776420541172
 40
0.0049776420541172
 40
0.0049776420541172
 10
96.72528134820499
 20
118.5680980987703
 30
0.0
 10
98.37525758271453
 20
118.5268188610021
 30
0.0
 10
100.0252589024596
 20
118.4865971797626
 30
0.0
 10
101.675281348205
 20
118.4473479425076
 30
0.0
  0
SPLINE
  5
172
330
1F
100
AcDbEntity
  8
0
  6
HIDDEN
 62
     7
370
     0
100
AcDbSpline
210
0.0
220
0.0
230
1.0
 70
     8
 71
     3
 72
     8
 73
     4
 74
     0
 42
0.00000001
 43
0.00000001
 12
1.0
 22
0.0
 32
0.0
 13
1.0
 23
0.0
 33
0.0
 40
0.0000249631533153
 40
0.0000249631533153
 40
0.0000249631533153
 40
0.0000249631533153
 40
0.0049776413517029
 40
0.0049776413517029
 40
0.0049776413517029
 40
0.0049776413517029
 10
101.675281348205
 20
126.6192700487061
 30
0.0
 10
100.0252589024596
 20
126.5800208114511
 30
0.0
 10
98.37525758271453
 20
126.5397991302116
 30
0.0
 10
96.72528134820499
 20
126.4985198924434
 30
0.0
  0
SPLINE
  5
173
330
1F
100
AcDbEntity
  8
0
  6
HIDDEN
 62
     7
370
     0
100
AcDbSpline
210
0.0
220
0.0
230
1.0
 70
     8
 71
     3
 72
     8
 73
     4
 74
     0
 42
0.00000001
 43
0.00000001
 12
1.0
 22
0.0
 32
0.0
 13
1.0
 23
0.0
 33
0.0
 40
0.0
 40
0.0
 40
0.0
 40
0.0
 40
1.0
 40
1.0
 40
1.0
 40
1.0
 10
95.22528134820274
 20
119.6313216626265
 30
0.0
 10
95.69204195958054
 20
119.2159584170035
 30
0.0
 10
96.19778950636059
 20
118.8713679876989
 30
0.0
 10
96.72528134820499
 20
118.5680980987703
 30
0.0
  0
SPLINE
  5
174
330
1F
100
AcDbEntity
  8
0
  6
HIDDEN
 62
     7
370
     0
100
AcDbSpline
210
0.0
220
0.0
230
1.0
 70
     8
 71
     3
 72
     8
 73
     4
 74
     0
 42
0.00000001
 43
0.00000001
 12
1.0
 22
0.0
 32
0.0
 13
1.0
 23
0.0
 33
0.0
 40
0.0
 40
0.0
 40
0.0
 40
0.0
 40
1.0
 40
1.0
 40
1.0
 40
1.0
 10
96.72528134820499
 20
126.4985198924434
 30
0.0
 10
96.19778950636146
 20
126.1952500035153
 30
0.0
 10
95.69204195958216
 20
125.8506595742113
 30
0.0
 10
95.22528134820497
 20
125.4352963285892
 30
0.0
  0
LINE
  5
175
330
1F
100
AcDbEntity
  8
0
  6
HIDDEN
 62
     7
370
     0
100
AcDbLine
 10
95.2252825701
 20
119.6313215901
 30
0.0
 11
95.2252825701
 21
125.4352964011
 31
0.0
  0
SPLINE
  5
176
330
1F
100
AcDbEntity
  8
0
  6
HIDDEN
 62
     7
370
     0
100
AcDbSpline
210
0.0
220
0.0
230
1.0
 70
     8
 71
     3
 72
    72
 73
    68
 74
     0
 42
0.00000001
 43
0.00000001
 12
1.0
 22
0.0
 32
0.0
 13
1.0
 23
0.0
 33
0.0
 40
-0.03125
 40
-0.03125
 40
0.0
 40
0.0
 40
0.03125
 40
0.03125
 40
0.0625
 40
0.0625
 40
0.09375
 40
0.09375
 40
0.125
 40
0.125
 40
0.15625
 40
0.15625
 40
0.1875
 40
0.1875
 40
0.21875
 40
0.21875
 40
0.25
 40
0.25
 40
0.28125
 40
0.28125
 40
0.3125
 40
0.3125
 40
0.34375
 40
0.34375
 40
0.375
 40
0.375
 40
0.390625
 40
0.390625
 40
0.40625
 40
0.40625
 40
0.4375
 40
0.4375
 40
0.46875
 40
0.46875
 40
0.5
 40
0.5
 40
0.53125
 40
0.53125
 40
0.5625
 40
0.5625
 40
0.59375
 40
0.59375
 40
0.625
 40
0.625
 40
0.65625
 40
0.65625
 40
0.6875
 40
0.6875
 40
0.71875
 40
0.71875
 40
0.75
 40
0.75
 40
0.78125
 40
0.78125
 40
0.8125
 40
0.8125
 40
0.84375
 40
0.84375
 40
0.875
 40
0.875
 40
0.90625
 40
0.90625
 40
0.9375
 40
0.9375
 40
0.96875
 40
0.96875
 40
1.0
 40
1.0
 40
1.03125
 40
1.03125
 10
114.3492276670302
 20
124.9741426454217
 30
0.0
 10
114.7236578869041
 20
125.3844984459068
 30
0.0
 10
114.9285104881697
 20
125.5681475285653
 30
0.0
 10
115.3713786850167
 20
125.8951024320606
 30
0.0
 10
115.611334102335
 20
126.0388806402405
 30
0.0
 10
116.1069450851095
 20
126.2763979956864
 30
0.0
 10
116.364211376264
 20
126.3717175605841
 30
0.0
 10
116.8975651441011
 20
126.5158030932186
 30
0.0
 10
117.1718452839993
 20
126.5635391001882
 30
0.0
 10
117.7182738185789
 20
126.609121240722
 30
0.0
 10
117.9928501370466
 20
126.6076874806498
 30
0.0
 10
118.5448173113174
 20
126.5547741725589
 30
0.0
 10
118.8154342738891
 20
126.5038044463547
 30
0.0
 10
119.3417194449683
 20
126.3551978194111
 30
0.0
 10
119.5993510083759
 20
126.256912448654
 30
0.0
 10
120.0952771730494
 20
126.0126590894683
 30
0.0
 10
120.328260850841
 20
125.8695789584461
 30
0.0
 10
120.764594126166
 20
125.5417204079773
 30
0.0
 10
120.9698753800243
 20
125.3547267702771
 30
0.0
 10
121.3379096778845
 20
124.9452961504541
 30
0.0
 10
121.4994246678697
 20
124.7251907094696
 30
0.0
 10
121.7765823510168
 20
124.2534406280316
 30
0.0
 10
121.8929765304505
 20
123.9984241015903
 30
0.0
 10
122.0662505670971
 20
123.4771862781933
 30
0.0
 10
122.1246971215629
 20
123.2097021604124
 30
0.0
 10
122.1685618470388
 20
122.79778650108
 30
0.0
 10
122.1757420636681
 20
122.6580791980044
 30
0.0
 10
122.1747740363727
 20
122.381956142542
 30
0.0
 10
122.1667712469591
 20
122.2447795762112
 30
0.0
 10
122.1206985150466
 20
121.835846134948
 30
0.0
 10
122.0597636825946
 20
121.5639198859438
 30
0.0
 10
121.8816435261861
 20
121.0407393694887
 30
0.0
 10
121.7660756148437
 20
120.7920273691253
 30
0.0
 10
121.4842288309044
 20
120.3191428441333
 30
0.0
 10
121.3173588854898
 20
120.0955336269012
 30
0.0
 10
120.948033330691
 20
119.6908762387136
 30
0.0
 10
120.7432481743935
 20
119.506462650544
 30
0.0
 10
120.2985952268773
 20
119.1774366156496
 30
0.0
 10
120.0637460973665
 20
119.0362685396614
 30
0.0
 10
119.5703363348895
 20
118.7978590108809
 30
0.0
 10
119.3090493811848
 20
118.7000764544761
 30
0.0
 10
118.7783111006722
 20
118.5547484262859
 30
0.0
 10
118.5086713997749
 20
118.506459036091
 30
0.0
 10
117.9609200600297
 20
118.4580438123043
 30
0.0
 10
117.6810160181711
 20
118.4585019979403
 30
0.0
 10
117.1339381103361
 20
118.5086538535425
 30
0.0
 10
116.8643330056486
 20
118.5578274205745
 30
0.0
 10
116.3331782489926
 20
118.7055019438815
 30
0.0
 10
116.071883432549
 20
118.8046571082471
 30
0.0
 10
115.5795694543736
 20
119.0456698787238
 30
0.0
 10
115.345612578795
 20
119.1881580033485
 30
0.0
 10
114.9034439582645
 20
119.5196454323335
 30
0.0
 10
114.6982504271529
 20
119.7070790603219
 30
0.0
 10
114.3325562107949
 20
120.1139827793723
 30
0.0
 10
114.1697855884066
 20
120.3351618540413
 30
0.0
 10
113.888833157641
 20
120.8149091832565
 30
0.0
 10
113.7756293053675
 20
121.0649211500668
 30
0.0
 10
113.6030205812286
 20
121.5849963600872
 30
0.0
 10
113.5434142985522
 20
121.858727824717
 30
0.0
 10
113.4855225284823
 20
122.4073454746155
 30
0.0
 10
113.4863120673423
 20
122.6816853385071
 30
0.0
 10
113.5475025429587
 20
123.230427289646
 30
0.0
 10
113.6086312666927
 20
123.5034926035032
 30
0.0
 10
113.7847109523226
 20
124.0236578522716
 30
0.0
 10
113.9010415473125
 20
124.2759769858305
 30
0.0
 10
114.1842427770532
 20
124.7523813272375
 30
0.0
 10
114.3492276670302
 20
124.9741426454217
 30
0.0
 10
114.7236578869041
 20
125.3844984459068
 30
0.0
  0
CIRCLE
  5
177
330
1F
100
AcDbEntity
  8
0
  6
HIDDEN
 62
     7
370
     0
100
AcDbCircle
 10
117.7252813482
 20
122.5333089956
 30
0.0
 40
4.049999999999997
  0
LINE
  5
178
330
1F
100
AcDbEntity
  8
0
  6
HIDDEN
 62
     7
370
     0
100
AcDbLine
 10
263.3895767832
 20
122.5333089956
 30
0.0
 11
265.6641496324
 21
115.5333087795
 31
0.0
  0
CIRCLE
  5
179
330
1F
100
AcDbEntity
  8
0
  6
HIDDEN
 62
     7
370
     0
100
AcDbCircle
 10
145.2252813482
 20
122.5333089956
 30
0.0
 40
2.0
  0
LINE
  5
17A
330
1F
100
AcDbEntity
  8
0
  6
HIDDEN
 62
     7
370
     0
100
AcDbLine
 10
133.2252813482
 20
98.2833082804
 30
0.0
 11
133.3181745686
 21
98.3762021192
 31
0.0
  0
LINE
  5
17B
330
1F
100
AcDbEntity
  8
0
  6
HIDDEN
 62
     7
370
     0
100
AcDbLine
 10
133.3181745686
 20
146.690415872
 30
0.0
 11
133.2252813482
 21
146.7833097109
 31
0.0
  0
ARC
  5
17C
330
1F
100
AcDbEntity
  8
0
  6
HIDDEN
 62
     7
370
     0
100
AcDbCircle
 10
132.6110677858
 20
99.0833089956
 30
0.0
 40
0.999999999999998
100
AcDbArc
 50
315.0
 51
0.0
  0
ARC
  5
17D
330
1F
100
AcDbEntity
  8
0
  6
HIDDEN
 62
     7
370
     0
100
AcDbCircle
 10
132.6110677858
 20
99.0833089956
 30
0.0
 40
0.9999999999999989
100
AcDbArc
 50
0.0
 51
52.1052014664
  0
ARC
  5
17E
330
1F
100
AcDbEntity
  8
0
  6
HIDDEN
 62
     7
370
     0
100
AcDbCircle
 10
132.6110677858
 20
145.9833089956
 30
0.0
 40
1.000000000000008
100
AcDbArc
 50
351.8087250651
 51
45.0
  0
ARC
  5
17F
330
1F
100
AcDbEntity
  8
0
  6
HIDDEN
 62
     7
370
     0
100
AcDbCircle
 10
132.6110677858
 20
145.9833089956
 30
0.0
 40
0.9999999999999989
100
AcDbArc
 50
307.8947985336
 51
351.8087250651
  0
LINE
  5
180
330
1F
100
AcDbEntity
  8
0
  6
HIDDEN
 62
     7
370
     0
100
AcDbLine
 10
133.611067784
 20
99.083308784
 30
0.0
 11
133.611067784
 21
145.9833092072
 31
0.0
  0
LINE
  5
181
330
1F
100
AcDbEntity
  8
0
  6
HIDDEN
 62
     7
370
     0
100
AcDbLine
 10
133.611067784
 20
99.083308784
 30
0.0
 11
133.611067784
 21
145.9833092072
 31
0.0
  0
LINE
  5
182
330
1F
100
AcDbEntity
  8
0
  6
HIDDEN
 62
     7
370
     0
100
AcDbLine
 10
239.0605552101
 20
119.1117623371
 30
0.0
 11
231.2123296761
 21
124.0509837649
 31
0.0
  0
LINE
  5
183
330
1F
100
AcDbEntity
  8
0
  6
HIDDEN
 62
     7
370
     0
100
AcDbLine
 10
227.7256367707
 20
120.3375348837
 30
0.0
 11
238.9402283334
 21
113.2797158339
 31
0.0
  0
LINE
  5
184
330
1F
100
AcDbEntity
  8
0
  6
HIDDEN
 62
     7
370
     0
100
AcDbLine
 10
95.2252825701
 20
106.3368792661
 30
0.0
 11
96.7555088901
 21
107.2203579375
 31
0.0
  0
LINE
  5
185
330
1F
100
AcDbEntity
  8
0
  6
HIDDEN
 62
     7
370
     0
100
AcDbLine
 10
96.7555088901
 20
137.8462600538
 30
0.0
 11
95.2252825701
 21
138.7297387251
 31
0.0
  0
LINE
  5
186
330
1F
100
AcDbEntity
  8
0
  6
HIDDEN
 62
     7
370
     0
100
AcDbLine
 10
105.2252804839
 20
106.5333082356
 30
0.0
 11
106.2270818257
 21
106.5333082356
 31
0.0
  0
LINE
  5
187
330
1F
100
AcDbEntity
  8
0
  6
HIDDEN
 62
     7
370
     0
100
AcDbLine
 10
106.2270818257
 20
138.5333097556
 30
0.0
 11
105.2252804839
 21
138.5333097556
 31
0.0
  0
ARC
  5
188
330
1F
100
AcDbEntity
  8
0
  6
HIDDEN
 62
     7
370
     0
100
AcDbCircle
 10
105.2252813482
 20
108.5333089956
 30
0.0
 40
2.000000000000001
100
AcDbArc
 50
189.9742217944
 51
270.0
  0
ARC
  5
189
330
1F
100
AcDbEntity
  8
0
  6
HIDDEN
 62
     7
370
     0
100
AcDbCircle
 10
105.2252813482
 20
136.5333089956
 30
0.0
 40
2.000000000000004
100
AcDbArc
 50
90.0
 51
170.0257782056
  0
ARC
  5
18A
330
1F
100
AcDbEntity
  8
0
  6
HIDDEN
 62
     7
370
     0
100
AcDbCircle
 10
106.2270826631
 20
108.5333089956
 30
0.0
 40
2.0
100
AcDbArc
 50
270.0
 51
315.0
  0
ARC
  5
18B
330
1F
100
AcDbEntity
  8
0
  6
HIDDEN
 62
     7
370
     0
100
AcDbCircle
 10
106.2270826631
 20
136.5333089956
 30
0.0
 40
2.000000000000026
100
AcDbArc
 50
45.0
 51
90.0
  0
LINE
  5
18C
330
1F
100
AcDbEntity
  8
0
  6
HIDDEN
 62
     7
370
     0
100
AcDbLine
 10
107.6412970179
 20
107.1190952339
 30
0.0
 11
109.0555103475
 21
108.5333085635
 31
0.0
  0
LINE
  5
18D
330
1F
100
AcDbEntity
  8
0
  6
HIDDEN
 62
     7
370
     0
100
AcDbLine
 10
109.0555103475
 20
136.5333094277
 30
0.0
 11
107.6412970179
 21
137.9475227573
 31
0.0
  0
LINE
  5
18E
330
1F
100
AcDbEntity
  8
0
  6
HIDDEN
 62
     7
370
     0
100
AcDbLine
 10
96.7555088901
 20
107.2203579375
 30
0.0
 11
101.6555098796
 21
108.5333085635
 31
0.0
  0
LINE
  5
18F
330
1F
100
AcDbEntity
  8
0
  6
HIDDEN
 62
     7
370
     0
100
AcDbLine
 10
101.6555098796
 20
136.5333094277
 30
0.0
 11
96.7555088901
 21
137.8462600538
 31
0.0
  0
LINE
  5
190
330
1F
100
AcDbEntity
  8
0
  6
HIDDEN
 62
     7
370
     0
100
AcDbLine
 10
103.2555090242
 20
136.879719516
 30
0.0
 11
102.6555100435
 21
136.5333094277
 31
0.0
  0
LINE
  5
191
330
1F
100
AcDbEntity
  8
0
  6
HIDDEN
 62
     7
370
     0
100
AcDbLine
 10
102.6555100435
 20
108.5333085635
 30
0.0
 11
103.2555090242
 21
108.1868984752
 31
0.0
  0
ARC
  5
192
330
1F
100
AcDbEntity
  8
0
  6
HIDDEN
 62
     7
370
     0
100
AcDbCircle
 10
121.7252813482
 20
109.0333089956
 30
0.0
 40
0.5
100
AcDbArc
 50
270.0
 51
0.0
  0
ARC
  5
193
330
1F
100
AcDbEntity
  8
0
  6
HIDDEN
 62
     7
370
     0
100
AcDbCircle
 10
121.7252813482
 20
136.0333089956
 30
0.0
 40
0.5
100
AcDbArc
 50
0.0
 51
90.0
  0
LINE
  5
194
330
1F
100
AcDbEntity
  8
0
  6
HIDDEN
 62
     7
370
     0
100
AcDbLine
 10
109.0555103475
 20
108.5333085635
 30
0.0
 11
121.7252813259
 21
108.5333085635
 31
0.0
  0
LINE
  5
195
330
1F
100
AcDbEntity
  8
0
  6
HIDDEN
 62
     7
370
     0
100
AcDbLine
 10
121.7252813259
 20
136.5333094277
 30
0.0
 11
109.0555103475
 21
136.5333094277
 31
0.0
  0
LINE
  5
196
330
1F
100
AcDbEntity
  8
0
  6
HIDDEN
 62
     7
370
     0
100
AcDbLine
 10
101.6555098796
 20
108.5333085635
 30
0.0
 11
102.6555100435
 21
108.5333085635
 31
0.0
  0
LINE
  5
197
330
1F
100
AcDbEntity
  8
0
  6
HIDDEN
 62
     7
370
     0
100
AcDbLine
 10
102.6555100435
 20
136.5333094277
 30
0.0
 11
101.6555098796
 21
136.5333094277
 31
0.0
  0
LINE
  5
198
330
1F
100
AcDbEntity
  8
0
  6
HIDDEN
 62
     7
370
     0
100
AcDbLine
 10
122.2252814078
 20
112.2833087125
 30
0.0
 11
123.475281147
 21
113.533309383
 31
0.0
  0
LINE
  5
199
330
1F
100
AcDbEntity
  8
0
  6
HIDDEN
 62
     7
370
     0
100
AcDbLine
 10
123.475281147
 20
131.5333086082
 30
0.0
 11
122.2252814078
 21
132.7833092787
 31
0.0
  0
LINE
  5
19A
330
1F
100
AcDbEntity
  8
0
  6
HIDDEN
 62
     7
370
     0
100
AcDbLine
 10
149.2252821082
 20
113.533309383
 30
0.0
 11
152.0793685668
 21
118.2833087646
 31
0.0
  0
LINE
  5
19B
330
1F
100
AcDbEntity
  8
0
  6
HIDDEN
 62
     7
370
     0
100
AcDbLine
 10
152.0793685668
 20
126.7833092266
 30
0.0
 11
149.2252821082
 21
131.5333086082
 31
0.0
  0
LINE
  5
19C
330
1F
100
AcDbEntity
  8
0
  6
HIDDEN
 62
     7
370
     0
100
AcDbLine
 10
123.475281147
 20
113.533309383
 30
0.0
 11
149.2252821082
 21
113.533309383
 31
0.0
  0
LINE
  5
19D
330
1F
100
AcDbEntity
  8
0
  6
HIDDEN
 62
     7
370
     0
100
AcDbLine
 10
149.2252821082
 20
131.5333086082
 30
0.0
 11
123.475281147
 21
131.5333086082
 31
0.0
  0
LINE
  5
19E
330
1F
100
AcDbEntity
  8
0
  6
HIDDEN
 62
     7
370
     0
100
AcDbLine
 10
261.0210670137
 20
120.4502838214
 30
0.0
 11
260.594655385
 21
121.2937921069
 31
0.0
  0
LINE
  5
19F
330
1F
100
AcDbEntity
  8
0
  6
HIDDEN
 62
     7
370
     0
100
AcDbLine
 10
254.347529819
 20
118.1357230076
 30
0.0
 11
254.7739488983
 21
117.2922148385
 31
0.0
  0
LINE
  5
1A0
330
1F
100
AcDbEntity
  8
0
  6
HIDDEN
 62
     7
370
     0
100
AcDbLine
 10
250.515927186
 20
113.170148527
 30
0.0
 11
251.4796821379
 21
111.2637042084
 31
0.0
  0
LINE
  5
1A1
330
1F
100
AcDbEntity
  8
0
  6
HIDDEN
 62
     7
370
     0
100
AcDbLine
 10
152.0793685668
 20
118.2833087646
 30
0.0
 11
233.2252828383
 21
118.2833087646
 31
0.0
  0
LINE
  5
1A2
330
1F
100
AcDbEntity
  8
0
  6
HIDDEN
 62
     7
370
     0
100
AcDbLine
 10
233.2252828383
 20
126.7833092266
 30
0.0
 11
152.0793685668
 21
126.7833092266
 31
0.0
  0
LINE
  5
1A3
330
1F
100
AcDbEntity
  8
0
  6
HIDDEN
 62
     7
370
     0
100
AcDbLine
 10
233.2252828383
 20
118.2833087646
 30
0.0
 11
235.7789395356
 21
122.5333089956
 31
0.0
  0
LINE
  5
1A4
330
1F
100
AcDbEntity
  8
0
  6
HIDDEN
 62
     7
370
     0
100
AcDbLine
 10
235.7789395356
 20
122.5333089956
 30
0.0
 11
233.2252828383
 21
126.7833092266
 31
0.0
  0
LINE
  5
1A5
330
1F
100
AcDbEntity
  8
0
  6
HIDDEN
 62
     7
370
     0
100
AcDbLine
 10
263.5317189598
 20
111.7758906462
 30
0.0
 11
260.339696517
 21
119.0359312591
 31
0.0
  0
LINE
  5
1A6
330
1F
100
AcDbEntity
  8
0
  6
HIDDEN
 62
     7
370
     0
100
AcDbLine
 10
261.1754132414
 20
121.6965681074
 30
0.0
 11
258.8589830303
 21
126.2787859437
 31
0.0
  0
LINE
  5
1A7
330
1F
100
AcDbEntity
  8
0
  6
HIDDEN
 62
     7
370
     0
100
AcDbLine
 10
251.3248218202
 20
122.5635120577
 30
0.0
 11
253.6788551116
 21
117.9068849438
 31
0.0
  0
LINE
  5
1A8
330
1F
100
AcDbEntity
  8
0
  6
HIDDEN
 62
     7
370
     0
100
AcDbLine
 10
265.6856222057
 20
108.11042851
 30
0.0
 11
265.0270951891
 21
109.4130964034
 31
0.0
  0
LINE
  5
1A9
330
1F
100
AcDbEntity
  8
0
  6
HIDDEN
 62
     7
370
     0
100
AcDbLine
 10
259.3154354
 20
106.5257179567
 30
0.0
 11
259.9739624166
 21
105.2230509945
 31
0.0
  0
LINE
  5
1AA
330
1F
100
AcDbEntity
  8
0
  6
HIDDEN
 62
     7
370
     0
100
AcDbLine
 10
256.975073924
 20
113.7672827595
 30
0.0
 11
259.4538075828
 21
108.1295429745
 31
0.0
  0
LINE
  5
1AB
330
1F
100
AcDbEntity
  8
VERMASSUNG
  6
CENTERX2
100
AcDbLine
 10
87.1801242923
 20
122.5333089956
 30
0.0
 11
273.2252813482
 21
122.5333089956
 31
0.0
  0
LINE
  5
1AC
330
1F
100
AcDbEntity
  8
VERMASSUNG
  6
CENTERX2
100
AcDbLine
 10
273.2252813482
 20
122.5333089956
 30
0.0
 11
273.2252813482
 21
95.5333089956
 31
0.0
  0
LINE
  5
1AD
330
1F
100
AcDbEntity
  8
VERMASSUNG
  6
CENTERX2
100
AcDbLine
 10
273.2252813482
 20
95.5333089956
 30
0.0
 11
292.990984084
 21
95.5333089956
 31
0.0
  0
DIMENSION
  5
1AE
330
1F
100
AcDbEntity
  8
VERMASSUNG
100
AcDbDimension
  2
_D
 10
268.953942583
 20
109.5327587721
 30
0.0
 11
279.3576072664
 21
103.7001358444
 31
0.0
 70
   162
  1
<>
 71
     1
 42
-1.0
  3
SLDDIMSTYLE0
100
AcDb2LineAngularDimension
 13
273.2252813482
 23
95.5333089956
 33
0.0
 14
292.990984084
 24
95.5333089956
 34
0.0
 15
273.2086851347
 25
96.0461278875
 35
0.0
 16
279.3576072664
 26
103.7001358444
 36
0.0
  0
DIMENSION
  5
1B7
330
1F
100
AcDbEntity
  8
VERMASSUNG
100
AcDbDimension
  2
_D_1
 10
289.7223180434
 20
95.5333089956
 30
0.0
 11
289.7223180434
 21
109.0333089956
 31
0.0
 70
   160
  1
<>
 71
     2
 42
-1.0
  3
SLDDIMSTYLE1
100
AcDbAlignedDimension
 13
273.2252813482
 23
122.5333089956
 33
0.0
 14
273.2252813482
 24
95.5333089956
 34
0.0
 50
90.0
100
AcDbRotatedDimension
  0
DIMENSION
  5
1C2
330
1F
100
AcDbEntity
  8
VERMASSUNG
100
AcDbDimension
  2
_D_2
 10
273.2252813482
 20
81.0333089956
 30
0.0
 11
203.2252813482
 21
81.0333089956
 31
0.0
 70
   160
  1
<>
 71
     2
 42
-1.0
  3
SLDDIMSTYLE1
100
AcDbAlignedDimension
 13
133.2252813482
 23
91.5333089956
 33
0.0
 14
273.2252813482
 24
95.5333089956
 34
0.0
100
AcDbRotatedDimension
  0
DIMENSION
  5
1CC
330
1F
100
AcDbEntity
  8
VERMASSUNG
100
AcDbDimension
  2
_D_3
 10
95.2252813482
 20
71.458499559
 30
0.0
 11
184.2252813482
 21
71.458499559
 31
0.0
 70
   160
  1
<>
 71
     2
 42
-1.0
  3
SLDDIMSTYLE1
100
AcDbAlignedDimension
 13
273.2252813482
 23
95.5333089956
 33
0.0
 14
95.2252813482
 24
102.2409710031
 34
0.0
100
AcDbRotatedDimension
  0
DIMENSION
  5
1D6
330
1F
100
AcDbEntity
  8
VERMASSUNG
100
AcDbDimension
  2
_D_4
 10
83.0093342418
 20
91.0333089956
 30
0.0
 11
83.0093342418
 21
122.5333089956
 31
0.0
 70
   160
  1
PSC%%c<>
 71
     2
 42
-1.0
  3
SLDDIMSTYLE1
100
AcDbAlignedDimension
 13
133.7252813482
 23
154.0333089956
 33
0.0
 14
133.7252813482
 24
91.0333089956
 34
0.0
 50
90.0
100
AcDbRotatedDimension
  0
DIMENSION
  5
1E2
330
1F
100
AcDbEntity
  8
VERMASSUNG
100
AcDbDimension
  2
_D_5
 10
177.0188827071
 20
102.5333089956
 30
0.0
 11
177.0188827071
 21
112.0083138188
 31
0.0
 70
   160
  1
%%c<>
 71
     2
 42
-1.0
  3
SLDDIMSTYLE1
100
AcDbAlignedDimension
 13
159.2252813482
 23
142.5333089956
 33
0.0
 14
159.2252813482
 24
102.5333089956
 34
0.0
 50
90.0
100
AcDbRotatedDimension
  0
LINE
  5
1EB
330
1F
100
AcDbEntity
  8
0
  6
Continuous
 62
     7
370
    15
100
AcDbLine
 10
35.3272652121
 20
122.4053605245
 30
0.0
 11
35.1726836859
 21
122.1644226714
 31
0.0
  0
LINE
  5
1EC
330
1F
100
AcDbEntity
  8
0
  6
Continuous
 62
     7
370
    15
100
AcDbLine
 10
36.6200044684
 20
115.35531374
 30
0.0
 11
36.8592199731
 21
115.1980800297
 31
0.0
  0
LINE
  5
1ED
330
1F
100
AcDbEntity
  8
0
  6
Continuous
 62
     7
370
    15
100
AcDbLine
 10
48.3029704074
 20
97.1705647816
 30
0.0
 11
50.9711043823
 21
97.7376941654
 31
0.0
  0
LINE
  5
1EE
330
1F
100
AcDbEntity
  8
0
  6
Continuous
 62
     7
370
    15
100
AcDbLine
 10
50.9806991086
 20
97.7453961165
 30
0.0
 11
51.2072839452
 21
98.09856163
 31
0.0
  0
LINE
  5
1EF
330
1F
100
AcDbEntity
  8
0
  6
Continuous
 62
     7
370
    15
100
AcDbLine
 10
42.1531163178
 20
95.5313378287
 30
0.0
 11
48.3303277748
 21
96.8443446567
 31
0.0
  0
LINE
  5
1F0
330
1F
100
AcDbEntity
  8
0
  6
Continuous
 62
     7
370
    15
100
AcDbLine
 10
41.0086414924
 20
98.8201701282
 30
0.0
 11
41.4956220896
 21
98.268745813
 31
0.0
  0
LINE
  5
1F1
330
1F
100
AcDbEntity
  8
0
  6
Continuous
 62
     7
370
    15
100
AcDbLine
 10
37.692495581
 20
111.4008098914
 30
0.0
 11
37.429569654
 21
110.5643076835
 31
0.0
  0
LINE
  5
1F2
330
1F
100
AcDbEntity
  8
0
  6
Continuous
 62
     7
370
    15
100
AcDbLine
 10
36.6303168085
 20
113.92651918
 30
0.0
 11
36.3223211227
 21
113.861052676
 31
0.0
  0
LWPOLYLINE
  5
1F3
330
1F
100
AcDbEntity
  8
0
  6
Continuous
 62
     7
370
    15
100
AcDbPolyline
 90
       27
 70
   128
 43
0.0
 10
35.2803111224
 20
122.1516506452
 10
35.4141620193
 20
121.9275448821
 10
35.5782214615
 20
121.519809887
 10
35.7629549105
 20
120.9521417358
 10
35.9576263297
 20
120.257531238
 10
36.1509221238
 20
119.4763466311
 10
36.331608644
 20
118.6539875247
 10
36.4891850464
 20
117.8382464412
 10
36.6144935632
 20
117.0765312871
 10
36.700251719
 20
116.4131101784
 10
36.7414755615
 20
115.8865387386
 10
36.7357693107
 20
115.5274193857
 10
36.6834645933
 20
115.3566228313
 10
36.5876011693
 20
115.3840751501
 10
36.4537502723
 20
115.6081809133
 10
36.2896908302
 20
116.0159159084
 10
36.1049573812
 20
116.5835840596
 10
35.910285962
 20
117.2781945573
 10
35.7169901678
 20
118.0593791643
 10
35.5363036477
 20
118.8817382706
 10
35.3787272453
 20
119.6974793542
 10
35.2534187285
 20
120.4591945083
 10
35.1676605727
 20
121.122615617
 10
35.1264367302
 20
121.6491870567
 10
35.132142981
 20
122.0083064096
 10
35.1844476984
 20
122.1791029641
 10
35.2803111224
 20
122.1516506452
  0
LWPOLYLINE
  5
1F4
330
1F
100
AcDbEntity
  8
0
  6
Continuous
 62
     7
370
    15
100
AcDbPolyline
 90
       20
 70
   128
 43
0.0
 10
35.5604447039
 20
120.7014558963
 10
35.6697318778
 20
120.4991714154
 10
35.807651851
 20
120.1092727927
 10
35.9592588544
 20
119.5740115936
 10
36.1081239166
 20
118.9513916747
 10
36.2381151985
 20
118.3088835651
 10
36.3351461274
 20
117.7161129879
 10
36.3887018968
 20
117.2373158331
 10
36.3929789079
 20
116.9243772015
 10
36.3475136803
 20
116.8112088498
 10
36.2572330768
 20
116.9100743248
 10
36.1319204017
 20
117.2102600182
 10
35.9851552278
 20
117.6792361523
 10
35.8328418388
 20
118.2661818861
 10
35.691485754
 20
118.9074925418
 10
35.5764050985
 20
119.533672159
 10
35.5000706469
 20
120.07686446
 10
35.4707544216
 20
120.4782061305
 10
35.4916332904
 20
120.694205573
 10
35.5604447039
 20
120.7014558963
  0
LINE
  5
1F5
330
1F
100
AcDbEntity
  8
0
  6
Continuous
 62
     7
370
    15
100
AcDbLine
 10
36.3625963362
 20
117.5045230408
 30
0.0
 11
36.3559934568
 21
117.5031195554
 31
0.0
  0
LINE
  5
1F6
330
1F
100
AcDbEntity
  8
0
  6
Continuous
 62
     7
370
    15
100
AcDbLine
 10
36.0729102486
 20
119.1079761798
 30
0.0
 11
35.9571055226
 21
119.0833611254
 31
0.0
  0
LINE
  5
1F7
330
1F
100
AcDbEntity
  8
0
  6
Continuous
 62
     7
370
    15
100
AcDbLine
 10
44.8114251191
 20
111.1755331444
 30
0.0
 11
44.8063857901
 21
111.1845830669
 31
0.0
  0
LINE
  5
1F8
330
1F
100
AcDbEntity
  8
0
  6
Continuous
 62
     7
370
    15
100
AcDbLine
 10
47.9980410986
 20
98.4291638533
 30
0.0
 11
45.0093657658
 21
110.5557983461
 31
0.0
  0
ARC
  5
1F9
330
1F
100
AcDbEntity
  8
0
  6
Continuous
 62
     7
370
    15
100
AcDbCircle
 10
47.2079731663
 20
97.8913348326
 30
0.0
 40
3.766266321327964
100
AcDbArc
 50
357.6620333144
 51
17.5127032143
  0
LINE
  5
1FA
330
1F
100
AcDbEntity
  8
0
  6
Continuous
 62
     7
370
    15
100
AcDbLine
 10
50.7996740114
 20
99.0246693123
 30
0.0
 11
47.8109986786
 21
111.1513038051
 31
0.0
  0
ARC
  5
1FB
330
1F
100
AcDbEntity
  8
0
  6
Continuous
 62
     7
370
    15
100
AcDbCircle
 10
48.8804602548
 20
98.2260129158
 30
0.0
 40
2.330311635042996
100
AcDbArc
 50
356.8647685607
 51
19.243697769
  0
LINE
  5
1FC
330
1F
100
AcDbEntity
  8
0
  6
Continuous
 62
     7
370
    15
100
AcDbLine
 10
48.0918910444
 20
111.1206873599
 30
0.0
 11
51.0805663772
 21
98.9940528671
 31
0.0
  0
ARC
  5
1FD
330
1F
100
AcDbEntity
  8
0
  6
Continuous
 62
     7
370
    15
100
AcDbCircle
 10
44.6309326347
 20
110.4770823951
 30
0.0
 40
3.250752920996873
100
AcDbArc
 50
11.9703038025
 51
23.4562159094
  0
ARC
  5
1FE
330
1F
100
AcDbEntity
  8
0
  6
Continuous
 62
     7
370
    15
100
AcDbCircle
 10
45.9477489684
 20
110.6715383688
 30
0.0
 40
2.190680272921078
100
AcDbArc
 50
11.8310899438
 51
23.9504334544
  0
LINE
  5
1FF
330
1F
100
AcDbEntity
  8
0
  6
Continuous
 62
     7
370
    15
100
AcDbLine
 10
47.8051087745
 20
111.8118602489
 30
0.0
 11
47.9498050614
 21
111.5608366645
 31
0.0
  0
LINE
  5
200
330
1F
100
AcDbEntity
  8
0
  6
Continuous
 62
     7
370
    15
100
AcDbLine
 10
36.3908932711
 20
113.3462626172
 30
0.0
 11
39.7147471459
 21
99.8596317326
 31
0.0
  0
LWPOLYLINE
  5
201
330
1F
100
AcDbEntity
  8
0
  6
Continuous
 62
     7
370
    15
100
AcDbPolyline
 90
        9
 70
   128
 43
0.0
 10
36.3388863368
 20
113.8448385425
 10
36.3239891819
 20
113.8610925739
 10
36.3151154197
 20
113.8484258079
 10
36.3129209075
 20
113.8077744415
 10
36.3175678412
 20
113.7421430062
 10
36.3287127671
 20
113.6563823034
 10
36.3455319668
 20
113.5568308831
 10
36.3667823378
 20
113.4508465637
 10
36.3908932711
 20
113.3462626172
  0
LINE
  5
202
330
1F
100
AcDbEntity
  8
0
  6
Continuous
 62
     7
370
    15
100
AcDbLine
 10
38.6794983044
 20
109.7842726604
 30
0.0
 11
36.3388863368
 21
113.8448385425
 31
0.0
  0
ARC
  5
203
330
1F
100
AcDbEntity
  8
0
  6
Continuous
 62
     7
370
    15
100
AcDbCircle
 10
37.5354662512
 20
109.2761022057
 30
0.0
 40
1.251817298810895
100
AcDbArc
 50
11.8310899438
 51
23.9504334544
  0
LINE
  5
204
330
1F
100
AcDbEntity
  8
0
  6
Continuous
 62
     7
370
    15
100
AcDbLine
 10
42.0845441694
 20
96.0461278875
 30
0.0
 11
38.7606902946
 21
109.5327587721
 31
0.0
  0
LWPOLYLINE
  5
205
330
1F
100
AcDbEntity
  8
0
  6
Continuous
 62
     7
370
    15
100
AcDbPolyline
 90
        9
 70
   128
 43
0.0
 10
42.1365511037
 20
95.5475519622
 10
42.1514482586
 20
95.5312979308
 10
42.1603220208
 20
95.5439646968
 10
42.162516533
 20
95.5846160632
 10
42.1578695993
 20
95.6502474985
 10
42.1467246734
 20
95.7360082013
 10
42.1299054738
 20
95.8355596216
 10
42.1086551027
 20
95.941543941
 10
42.0845441694
 20
96.0461278875
  0
LINE
  5
206
330
1F
100
AcDbEntity
  8
0
  6
Continuous
 62
     7
370
    15
100
AcDbLine
 10
39.7959391361
 20
99.6081178443
 30
0.0
 11
42.1365511037
 21
95.5475519622
 31
0.0
  0
ARC
  5
207
330
1F
100
AcDbEntity
  8
0
  6
Continuous
 62
     7
370
    15
100
AcDbCircle
 10
40.9399711893
 20
100.116288299
 30
0.0
 40
1.251817298813645
100
AcDbArc
 50
191.8310899438
 51
203.9504334544
  0
LWPOLYLINE
  5
208
330
1F
100
AcDbEntity
  8
0
  6
Continuous
 62
     7
370
    15
100
AcDbPolyline
 90
        9
 70
   128
 43
0.0
 10
42.1332211305
 20
95.5663042076
 10
42.1473734276
 20
95.5508628776
 10
42.1558035017
 20
95.5628963054
 10
42.1578882883
 20
95.6015151034
 10
42.1534737013
 20
95.663864967
 10
42.1428860217
 20
95.7453376347
 10
42.126907782
 20
95.8399114839
 10
42.1067199295
 20
95.9405965873
 10
42.0838145428
 20
96.0399513365
  0
LINE
  5
209
330
1F
100
AcDbEntity
  8
0
  6
Continuous
 62
     7
370
    15
100
AcDbLine
 10
42.0838145428
 20
96.0399513365
 30
0.0
 11
38.7599606682
 21
109.526582221
 31
0.0
  0
ARC
  5
20A
330
1F
100
AcDbEntity
  8
0
  6
Continuous
 62
     7
370
    15
100
AcDbCircle
 10
37.5959978355
 20
109.2827584852
 30
0.0
 40
1.189226425069539
100
AcDbArc
 50
11.8310899261
 51
23.9504335316
  0
LINE
  5
20B
330
1F
100
AcDbEntity
  8
0
  6
Continuous
 62
     7
370
    15
100
AcDbLine
 10
38.6828282773
 20
109.765520415
 30
0.0
 11
36.3422163097
 21
113.8260862971
 31
0.0
  0
LWPOLYLINE
  5
20C
330
1F
100
AcDbEntity
  8
0
  6
Continuous
 62
     7
370
    15
100
AcDbPolyline
 90
        9
 70
   128
 43
0.0
 10
36.3422163097
 20
113.8260862971
 10
36.3280640126
 20
113.841527627
 10
36.3196339385
 20
113.8294941993
 10
36.3175491519
 20
113.7908754012
 10
36.3219637389
 20
113.7285255377
 10
36.3325514185
 20
113.64705287
 10
36.3485296582
 20
113.5524790207
 10
36.3687175107
 20
113.4517939173
 10
36.3916228973
 20
113.3524391681
  0
LINE
  5
20D
330
1F
100
AcDbEntity
  8
0
  6
Continuous
 62
     7
370
    15
100
AcDbLine
 10
36.3916228973
 20
113.3524391681
 30
0.0
 11
39.7154767721
 21
99.8658082835
 31
0.0
  0
ARC
  5
20E
330
1F
100
AcDbEntity
  8
0
  6
Continuous
 62
     7
370
    15
100
AcDbCircle
 10
40.8794396133
 20
100.1096320216
 30
0.0
 40
1.189226433872017
100
AcDbArc
 50
191.8310899438
 51
203.9504334544
  0
LINE
  5
20F
330
1F
100
AcDbEntity
  8
0
  6
Continuous
 62
     7
370
    15
100
AcDbLine
 10
39.7926091629
 20
99.6268700896
 30
0.0
 11
42.1332211305
 21
95.5663042076
 31
0.0
  0
LINE
  5
210
330
1F
100
AcDbEntity
  8
0
  6
Continuous
 62
     7
370
    15
100
AcDbLine
 10
48.2617556264
 20
97.3591347155
 30
0.0
 11
44.9379017517
 21
110.8457656001
 31
0.0
  0
ARC
  5
211
330
1F
100
AcDbEntity
  8
0
  6
Continuous
 62
     7
370
    15
100
AcDbCircle
 10
46.8250752884
 20
96.9058009236
 30
0.0
 40
1.50650652853188
100
AcDbArc
 50
357.6620333144
 51
17.5127032143
  0
LINE
  5
212
330
1F
100
AcDbEntity
  8
0
  6
Continuous
 62
     7
370
    15
100
AcDbLine
 10
42.1565692175
 20
95.6287597003
 30
0.0
 11
42.1332211305
 21
95.5663042076
 31
0.0
  0
LINE
  5
213
330
1F
100
AcDbEntity
  8
0
  6
Continuous
 62
     7
370
    15
100
AcDbLine
 10
39.9427629154
 20
100.0285272615
 30
0.0
 11
39.7926091629
 21
99.6268700896
 31
0.0
  0
LINE
  5
214
330
1F
100
AcDbEntity
  8
0
  6
Continuous
 62
     7
370
    15
100
AcDbLine
 10
40.1174303521
 20
100.3608907855
 30
0.0
 11
39.9427629154
 21
100.0285272615
 31
0.0
  0
LINE
  5
215
330
1F
100
AcDbEntity
  8
0
  6
Continuous
 62
     7
370
    15
100
AcDbLine
 10
40.8592984648
 20
100.0947568125
 30
0.0
 11
38.9990575567
 21
107.6427367866
 31
0.0
  0
LINE
  5
216
330
1F
100
AcDbEntity
  8
0
  6
Continuous
 62
     7
370
    15
100
AcDbLine
 10
37.6161389754
 20
109.2976336921
 30
0.0
 11
39.4763798834
 21
101.7496537181
 31
0.0
  0
LWPOLYLINE
  5
217
330
1F
100
AcDbEntity
  8
0
  6
Continuous
 62
     7
370
    15
100
AcDbPolyline
 90
        9
 70
   128
 43
0.0
 10
37.4861216395
 20
110.5440735052
 10
37.4488787523
 20
110.5847085839
 10
37.4266943468
 20
110.5530416688
 10
37.4212080664
 20
110.4514132529
 10
37.4328254005
 20
110.2873346646
 10
37.4606877153
 20
110.0729329075
 10
37.5027357145
 20
109.8240543569
 10
37.5558616421
 20
109.5590935584
 10
37.6161389754
 20
109.2976336921
  0
LINE
  5
218
330
1F
100
AcDbEntity
  8
0
  6
Continuous
 62
     7
370
    15
100
AcDbLine
 10
38.7960775811
 20
108.2715215073
 30
0.0
 11
37.4861216395
 21
110.5440735052
 31
0.0
  0
ARC
  5
219
330
1F
100
AcDbEntity
  8
0
  6
Continuous
 62
     7
370
    15
100
AcDbCircle
 10
35.9359974482
 20
107.0010953706
 30
0.0
 40
3.129543247032334
100
AcDbArc
 50
11.8310899438
 51
23.9504334544
  0
LWPOLYLINE
  5
21A
330
1F
100
AcDbEntity
  8
0
  6
Continuous
 62
     7
370
    15
100
AcDbPolyline
 90
        9
 70
   128
 43
0.0
 10
40.9893158009
 20
98.8483169992
 10
41.0265586881
 20
98.8076819204
 10
41.0487430936
 20
98.8393488356
 10
41.054229374
 20
98.9409772515
 10
41.0426120398
 20
99.1050558398
 10
41.014749725
 20
99.319457597
 10
40.9727017257
 20
99.5683361477
 10
40.919575798
 20
99.8332969462
 10
40.8592984648
 20
100.0947568125
  0
LINE
  5
21B
330
1F
100
AcDbEntity
  8
0
  6
Continuous
 62
     7
370
    15
100
AcDbLine
 10
39.6793598591
 20
101.1208689973
 30
0.0
 11
40.9893158009
 21
98.8483169992
 31
0.0
  0
ARC
  5
21C
330
1F
100
AcDbEntity
  8
0
  6
Continuous
 62
     7
370
    15
100
AcDbCircle
 10
42.539439992
 20
102.391295134
 30
0.0
 40
3.12954324703233
100
AcDbArc
 50
191.8310899438
 51
203.9504334544
  0
LWPOLYLINE
  5
21D
330
1F
100
AcDbEntity
  8
0
  6
Continuous
 62
     7
370
    15
100
AcDbPolyline
 90
       23
 70
   128
 43
0.0
 10
39.6672852521
 20
102.2771556037
 10
39.766997416
 20
102.1719731071
 10
39.8238305677
 20
102.2712880767
 10
39.8331804233
 20
102.5670546041
 10
39.794289513
 20
103.0353114443
 10
39.7103085472
 20
103.6381232131
 10
39.5880411642
 20
104.3266536858
 10
39.4373927402
 20
105.0451222185
 10
39.2705679146
 20
105.7353227636
 10
39.1010818427
 20
106.3413393776
 10
38.942665278
 20
106.8140761987
 10
38.8081521884
 20
107.115234901
 10
38.7084400245
 20
107.2204173976
 10
38.6516068728
 20
107.121102428
 10
38.6422570172
 20
106.8253359006
 10
38.6811479275
 20
106.3570790604
 10
38.7651288933
 20
105.7542672916
 10
38.8873962763
 20
105.0657368189
 10
39.0380447003
 20
104.3472682862
 10
39.2048695259
 20
103.6570677411
 10
39.3743555978
 20
103.0510511271
 10
39.5327721625
 20
102.578314306
 10
39.6672852521
 20
102.2771556037
  0
LWPOLYLINE
  5
21E
330
1F
100
AcDbEntity
  8
0
  6
Continuous
 62
     7
370
    15
100
AcDbPolyline
 90
        3
 70
   128
 43
0.0
 10
41.5376190115
 20
98.2125317087
 10
41.5156750442
 20
98.247841857
 10
41.4626059983
 20
98.3164662148
  0
ARC
  5
21F
330
1F
100
AcDbEntity
  8
0
  6
Continuous
 62
     7
370
    15
100
AcDbCircle
 10
43.7126777083
 20
110.5891090337
 30
0.0
 40
1.251817298812084
100
AcDbArc
 50
11.8310899438
 51
23.9504334544
  0
LINE
  5
220
330
1F
100
AcDbEntity
  8
0
  6
Continuous
 62
     7
370
    15
100
AcDbLine
 10
44.8567097614
 20
111.0972794884
 30
0.0
 11
44.811583043
 21
111.1755667122
 31
0.0
  0
LINE
  5
221
330
1F
100
AcDbEntity
  8
0
  6
Continuous
 62
     7
370
    15
100
AcDbLine
 10
39.9427629154
 20
100.0285272615
 30
0.0
 11
39.7154767721
 21
99.8658082835
 31
0.0
  0
LINE
  5
222
330
1F
100
AcDbEntity
  8
0
  6
Continuous
 62
     7
370
    15
100
AcDbLine
 10
36.5499151436
 20
113.4657639496
 30
0.0
 11
36.3916228973
 21
113.3524391681
 31
0.0
  0
LINE
  5
223
330
1F
100
AcDbEntity
  8
0
  6
Continuous
 62
     7
370
    15
100
AcDbLine
 10
47.9050527176
 20
111.8331039898
 30
0.0
 11
38.9359362397
 21
109.9266594301
 31
0.0
  0
LINE
  5
224
330
1F
100
AcDbEntity
  8
0
  6
Continuous
 62
     7
370
    15
100
AcDbLine
 10
38.9359362397
 20
109.9266594301
 30
0.0
 11
31.5176286017
 21
140.0266519901
 31
0.0
  0
ARC
  5
225
330
1F
100
AcDbEntity
  8
0
  6
Continuous
 62
     7
370
    15
100
AcDbCircle
 10
42.2056102108
 20
122.5333089956
 30
0.0
 40
20.50000000000002
100
AcDbArc
 50
0.0
 51
121.4238546944
  0
LINE
  5
226
330
1F
100
AcDbEntity
  8
0
  6
Continuous
 62
     7
370
    15
100
AcDbLine
 10
62.7056102108
 20
122.5333089956
 30
0.0
 11
62.7056102108
 21
115.5333089956
 31
0.0
  0
ARC
  5
227
330
1F
100
AcDbEntity
  8
0
  6
Continuous
 62
     7
370
    15
100
AcDbCircle
 10
42.7056102108
 20
115.5333089956
 30
0.0
 40
20.00000000000001
100
AcDbArc
 50
307.2146920494
 51
0.0
  0
LINE
  5
228
330
1F
100
AcDbEntity
  8
0
  6
Continuous
 62
     7
370
    15
100
AcDbLine
 10
51.120111732
 20
98.823270963
 30
0.0
 11
54.8016771083
 21
99.605811841
 31
0.0
  0
LINE
  5
229
330
1F
100
AcDbEntity
  8
0
  6
Continuous
 62
     7
370
    15
100
AcDbLine
 10
48.0057472419
 20
111.4245331163
 30
0.0
 11
47.9050527176
 21
111.8331039898
 31
0.0
  0
ARC
  5
22A
330
1F
100
AcDbEntity
  8
0
  6
Continuous
 62
     7
370
    15
100
AcDbCircle
 10
42.7056102108
 20
115.5333089956
 30
0.0
 40
20.00000000000001
100
AcDbArc
 50
302.4208196538
 51
307.2146920494
  0
LINE
  5
22B
330
1F
100
AcDbEntity
  8
0
  6
Continuous
 62
     7
370
    15
100
AcDbLine
 10
53.428281497
 20
98.6506456841
 30
0.0
 11
51.2171296108
 21
98.1806508419
 31
0.0
  0
LWPOLYLINE
  5
22C
330
1F
100
AcDbEntity
  8
0
  6
Continuous
 62
     7
370
    15
100
AcDbPolyline
 90
       28
 70
   128
 43
0.0
 10
36.7656029092
 20
114.8552724948
 10
36.8375023644
 20
114.9807844879
 10
36.8606914091
 20
115.3104588584
 10
36.8339199158
 20
115.8265227756
 10
36.7586311428
 20
116.5011551
 10
36.6388839272
 20
117.2979862286
 10
36.4811338725
 20
118.1740587889
 10
36.2938853249
 20
119.0821434823
 10
36.0872329022
 20
119.9732852281
 10
35.8723172898
 20
120.7994423441
 10
35.6607246441
 20
121.5160764862
 10
35.4638619794
 20
122.0845537225
 10
35.2923422128
 20
122.4742272979
 10
35.1554120195
 20
122.6640898091
 10
35.0604533416
 20
122.643905719
 10
35.012585426
 20
122.4147631571
 10
35.0143888443
 20
121.9890152583
 10
35.0657663739
 20
121.389614202
 10
35.1639482389
 20
120.6488738542
 10
35.3036414294
 20
119.8067277189
 10
35.4773150494
 20
118.9085761122
 10
35.6756063092
 20
118.0028386197
 10
35.8878252755
 20
117.138343784
 10
36.102531169
 20
116.3616967455
 10
36.3081491394
 20
115.7147667471
 10
36.4935942686
 20
115.2324299524
 10
36.6488691618
 20
114.940689263
 10
36.7656029092
 20
114.8552724948
  0
SPLINE
  5
22D
330
1F
100
AcDbEntity
  8
0
  6
Continuous
 62
     7
370
    15
100
AcDbSpline
210
0.0
220
0.0
230
1.0
 70
     8
 71
     3
 72
    10
 73
     6
 74
     0
 42
0.00000001
 43
0.00000001
 12
1.0
 22
0.0
 32
0.0
 13
1.0
 23
0.0
 33
0.0
 40
0.0
 40
0.0
 40
0.0
 40
0.0
 40
0.5
 40
0.5
 40
1.0
 40
1.0
 40
1.0
 40
1.0
 10
38.24304001318378
 20
102.6310590569884
 30
0.0
 10
38.21245850070989
 20
102.7292635514592
 30
0.0
 10
38.18387213884748
 20
102.8095245169828
 30
0.0
 10
38.13360246440559
 20
102.9239144011239
 30
0.0
 10
38.11250081998769
 20
102.9566213103968
 30
0.0
 10
38.09717561387796
 20
102.9598380422241
 30
0.0
  0
ARC
  5
22E
330
1F
100
AcDbEntity
  8
0
  6
Continuous
 62
     7
370
    15
100
AcDbCircle
 10
42.2056102108
 20
122.5333089956
 30
0.0
 40
20.00000000000002
100
AcDbArc
 50
257.3251641078
 51
258.1458121791
  0
ARC
  5
22F
330
1F
100
AcDbEntity
  8
0
  6
Continuous
 62
     7
370
    15
100
AcDbCircle
 10
42.2056102108
 20
122.5333089956
 30
0.0
 40
19.99999999999999
100
AcDbArc
 50
125.8541878209
 51
126.6748358922
  0
SPLINE
  5
230
330
1F
100
AcDbEntity
  8
0
  6
Continuous
 62
     7
370
    15
100
AcDbSpline
210
0.0
220
0.0
230
1.0
 70
     8
 71
     3
 72
     8
 73
     4
 74
     0
 42
0.00000001
 43
0.00000001
 12
1.0
 22
0.0
 32
0.0
 13
1.0
 23
0.0
 33
0.0
 40
0.0
 40
0.0
 40
0.0
 40
0.0
 40
1.0
 40
1.0
 40
1.0
 40
1.0
 10
30.49112057783878
 20
138.7435135791266
 30
0.0
 10
30.51647264849506
 20
138.7618345427731
 30
0.0
 10
30.51463784033358
 20
138.899074232898
 30
0.0
 10
30.49064787648802
 20
139.1031965237741
 30
0.0
  0
SPLINE
  5
231
330
1F
100
AcDbEntity
  8
0
  6
Continuous
 62
     7
370
    15
100
AcDbSpline
210
0.0
220
0.0
230
1.0
 70
     8
 71
     3
 72
     8
 73
     4
 74
     0
 42
0.00000001
 43
0.00000001
 12
1.0
 22
0.0
 32
0.0
 13
1.0
 23
0.0
 33
0.0
 40
0.0
 40
0.0
 40
0.0
 40
0.0
 40
1.0
 40
1.0
 40
1.0
 40
1.0
 10
30.49064787648782
 20
139.1031965237747
 30
0.0
 10
30.48148086829467
 20
139.181195420518
 30
0.0
 10
30.47233010147582
 20
139.2591458049795
 30
0.0
 10
30.46319505235189
 20
139.3370492413667
 30
0.0
  0
ARC
  5
232
330
1F
100
AcDbEntity
  8
0
  6
Continuous
 62
     7
370
    15
100
AcDbCircle
 10
42.2056102108
 20
122.5333089956
 30
0.0
 40
20.50000000000002
100
AcDbArc
 50
121.4238546944
 51
124.9457616672
  0
ARC
  5
233
330
1F
100
AcDbEntity
  8
0
  6
Continuous
 62
     7
370
    15
100
AcDbCircle
 10
49.8583397923
 20
114.9866731858
 30
0.0
 40
13.54691512671354
100
AcDbArc
 50
187.6857524428
 51
200.0041355178
  0
LWPOLYLINE
  5
234
330
1F
100
AcDbEntity
  8
0
  6
Continuous
 62
     7
370
    15
100
AcDbPolyline
 90
        4
 70
   128
 43
0.0
 10
36.3529798825
 20
113.8675693965
 10
36.3520397766
 20
114.1490861711
 10
36.3966973191
 20
114.2651285336
 10
36.4841402906
 20
114.1801107148
  0
ARC
  5
235
330
1F
100
AcDbEntity
  8
0
  6
Continuous
 62
     7
370
    15
100
AcDbCircle
 10
39.0855239965
 20
100.3402495373
 30
0.0
 40
0.5679937435035951
100
AcDbArc
 50
43.0204420386
 51
92.0121014966
  0
LINE
  5
236
330
1F
100
AcDbEntity
  8
0
  6
Continuous
 62
     7
370
    15
100
AcDbLine
 10
38.7991904767
 20
100.8512699346
 30
0.0
 11
39.0655814077
 21
100.9078930749
 31
0.0
  0
SPLINE
  5
237
330
1F
100
AcDbEntity
  8
0
  6
Continuous
 62
     7
370
    15
100
AcDbSpline
210
0.0
220
0.0
230
1.0
 70
     8
 71
     3
 72
     8
 73
     4
 74
     0
 42
0.00000001
 43
0.00000001
 12
1.0
 22
0.0
 32
0.0
 13
1.0
 23
0.0
 33
0.0
 40
0.0
 40
0.0
 40
0.0
 40
0.0
 40
1.0
 40
1.0
 40
1.0
 40
1.0
 10
38.7991904766869
 20
100.8512699345887
 30
0.0
 10
38.61406874312207
 20
101.441809583764
 30
0.0
 10
38.42870812416995
 20
102.0348346879582
 30
0.0
 10
38.24304001318378
 20
102.6310590569884
 30
0.0
  0
LINE
  5
238
330
1F
100
AcDbEntity
  8
0
  6
Continuous
 62
     7
370
    15
100
AcDbLine
 10
36.4841402906
 20
114.1801107148
 30
0.0
 11
38.9359362397
 21
109.9266594301
 31
0.0
  0
SPLINE
  5
239
330
1F
100
AcDbEntity
  8
0
  6
Continuous
 62
     7
370
    15
100
AcDbSpline
210
0.0
220
0.0
230
1.0
 70
     8
 71
     3
 72
    30
 73
    26
 74
     0
 42
0.00000001
 43
0.00000001
 12
1.0
 22
0.0
 32
0.0
 13
1.0
 23
0.0
 33
0.0
 40
0.0
 40
0.0
 40
0.0
 40
0.0
 40
0.1249999999999977
 40
0.1249999999999977
 40
0.1874999999999968
 40
0.1874999999999968
 40
0.2499999999999959
 40
0.2499999999999959
 40
0.3749999999999955
 40
0.3749999999999955
 40
0.4999999999999951
 40
0.4999999999999951
 40
0.5624999999999952
 40
0.5624999999999952
 40
0.6249999999999951
 40
0.6249999999999951
 40
0.6874999999999951
 40
0.6874999999999951
 40
0.7499999999999953
 40
0.7499999999999953
 40
0.874999999999998
 40
0.874999999999998
 40
0.937499999999999
 40
0.937499999999999
 40
1.0
 40
1.0
 40
1.0
 40
1.0
 10
29.90321863460857
 20
119.022093764948
 30
0.0
 10
30.22953701676347
 20
118.9245755508516
 30
0.0
 10
30.52219690939026
 20
118.7706818487476
 30
0.0
 10
30.93259621688425
 20
118.4904450196191
 30
0.0
 10
31.06473897916689
 20
118.3877886777667
 30
0.0
 10
31.31488581706843
 20
118.1717542664227
 30
0.0
 10
31.43365424114194
 20
118.057909017914
 30
0.0
 10
31.7737033335241
 20
117.7006090464696
 30
0.0
 10
31.97918016681801
 20
117.4419347567123
 30
0.0
 10
32.34930589898889
 20
116.8794713212021
 30
0.0
 10
32.51014229309573
 20
116.5823955631383
 30
0.0
 10
32.70122231073219
 20
116.1038705719155
 30
0.0
 10
32.75608060540289
 20
115.9387651819211
 30
0.0
 10
32.83908462557196
 20
115.6041041210381
 30
0.0
 10
32.86791767827944
 20
115.4311806983811
 30
0.0
 10
32.88774091821863
 20
115.0875414265196
 30
0.0
 10
32.87875647646118
 20
114.9171349667668
 30
0.0
 10
32.81467044501785
 20
114.5882422767915
 30
0.0
 10
32.76106970178215
 20
114.4357739553051
 30
0.0
 10
32.53541426485663
 20
114.0101464887159
 30
0.0
 10
32.30596736787493
 20
113.7861104261257
 30
0.0
 10
31.90091880569162
 20
113.5361459443761
 30
0.0
 10
31.75379742583322
 20
113.4660399725434
 30
0.0
 10
31.44841937721643
 20
113.354045820317
 30
0.0
 10
31.28917465655743
 20
113.31139887641
 30
0.0
 10
31.12339790027876
 20
113.2816016527143
 30
0.0
  0
SPLINE
  5
23A
330
1F
100
AcDbEntity
  8
0
  6
Continuous
 62
     7
370
    15
100
AcDbSpline
210
0.0
220
0.0
230
1.0
 70
     8
 71
     3
 72
    20
 73
    16
 74
     0
 42
0.00000001
 43
0.00000001
 12
1.0
 22
0.0
 32
0.0
 13
1.0
 23
0.0
 33
0.0
 40
0.0
 40
0.0
 40
0.0
 40
0.0
 40
0.1250000000000004
 40
0.1250000000000004
 40
0.2500000000000008
 40
0.2500000000000008
 40
0.3750000000000012
 40
0.3750000000000012
 40
0.5000000000000016
 40
0.5000000000000016
 40
0.625000000000002
 40
0.625000000000002
 40
0.7500000000000023
 40
0.7500000000000023
 40
1.0
 40
1.0
 40
1.0
 40
1.0
 10
37.81725557535746
 20
103.0206888846707
 30
0.0
 10
37.78011490403431
 20
103.0290417576441
 30
0.0
 10
37.71457662826263
 20
103.0438344218907
 30
0.0
 10
37.52987105476438
 20
103.0873205881299
 30
0.0
 10
37.40995494768794
 20
103.1161944579327
 30
0.0
 10
37.11831192637123
 20
103.1905573160492
 30
0.0
 10
36.949688683956
 20
103.2352757031214
 30
0.0
 10
36.5706176677006
 20
103.342538841873
 30
0.0
 10
36.35841225150244
 20
103.4056379345447
 30
0.0
 10
35.90139782247916
 20
103.5513588756017
 30
0.0
 10
35.65898390619979
 20
103.6331810091472
 30
0.0
 10
35.15028023878352
 20
103.8171268832577
 30
0.0
 10
34.88201796544624
 20
103.9200692134163
 30
0.0
 10
34.06019801190556
 20
104.2575585494108
 30
0.0
 10
33.49525352191451
 20
104.5180910260496
 30
0.0
 10
32.92232233568192
 20
104.8183275892396
 30
0.0
  0
SPLINE
  5
23B
330
1F
100
AcDbEntity
  8
0
  6
Continuous
 62
     7
370
    15
100
AcDbSpline
210
0.0
220
0.0
230
1.0
 70
     8
 71
     3
 72
    18
 73
    14
 74
     0
 42
0.00000001
 43
0.00000001
 12
1.0
 22
0.0
 32
0.0
 13
1.0
 23
0.0
 33
0.0
 40
0.0
 40
0.0
 40
0.0
 40
0.0
 40
0.2500000000000012
 40
0.2500000000000012
 40
0.3750000000000018
 40
0.3750000000000018
 40
0.5000000000000023
 40
0.5000000000000023
 40
0.6250000000000029
 40
0.6250000000000029
 40
0.7500000000000036
 40
0.7500000000000036
 40
1.0
 40
1.0
 40
1.0
 40
1.0
 10
26.51957267112034
 20
134.940896444591
 30
0.0
 10
26.92123608016862
 20
135.4486911579909
 30
0.0
 10
27.33111919599589
 20
135.9160814209208
 30
0.0
 10
27.94307793978885
 20
136.5571260010787
 30
0.0
 10
28.14745450976838
 20
136.7614949782497
 30
0.0
 10
28.53698789363296
 20
137.1361094811903
 30
0.0
 10
28.72389400511648
 20
137.3082725119873
 30
0.0
 10
29.07795557853856
 20
137.6237331982931
 30
0.0
 10
29.24605906467713
 20
137.7678073065243
 30
0.0
 10
29.55294094906719
 20
138.0236242037463
 30
0.0
 10
29.688672010742
 20
138.13293994427
 30
0.0
 10
30.0396000314141
 20
138.4102453143139
 30
0.0
 10
30.19896199894502
 20
138.5285026237449
 30
0.0
 10
30.26015116553036
 20
138.5740698316181
 30
0.0
  0
ELLIPSE
  5
23C
330
1F
100
AcDbEntity
  8
0
  6
Continuous
 62
     7
370
    15
100
AcDbEllipse
 10
29.9026657292
 20
116.1957392635
 30
0.0
 11
-2.143417157302583
 21
2.483736727519315
 31
0.0
210
0.0
220
0.0
230
1.0
 40
0.7425888588
 41
5.42274772345333
 42
9.010913724955056
  0
ARC
  5
23D
330
1F
100
AcDbEntity
  8
0
  6
Continuous
 62
     7
370
    15
100
AcDbCircle
 10
42.2056102108
 20
122.5333089956
 30
0.0
 40
20.00000000000003
100
AcDbArc
 50
141.6561564452
 51
242.3438435548
  0
CIRCLE
  5
23E
330
1F
100
AcDbEntity
  8
0
  6
Continuous
 62
     7
370
    15
100
AcDbCircle
 10
42.2056102108
 20
122.5333089956
 30
0.0
 40
31.5
  0
LINE
  5
23F
330
1F
100
AcDbEntity
  8
VERMASSUNG
100
AcDbLine
 10
42.2056102108
 20
95.6891814994
 30
0.0
 11
29.8154785635
 21
153.9801679074
 31
0.0
  0
CIRCLE
  5
240
330
1F
100
AcDbEntity
  8
VERMASSUNG
  6
CENTERX2
100
AcDbCircle
 10
42.2056102108
 20
120.6891814994
 30
0.0
 40
24.99999999999999
  0
DIMENSION
  5
241
330
1F
100
AcDbEntity
  8
VERMASSUNG
100
AcDbDimension
  2
_D_6
 10
29.8154785635
 20
153.9801679074
 30
0.0
 11
35.4270354926
 21
160.1830118483
 31
0.0
 70
   162
  1
<>
 71
     1
 42
-1.0
  3
SLDDIMSTYLE2
100
AcDb2LineAngularDimension
 13
42.2056102108
 23
156.5333089956
 33
0.0
 14
42.2056102108
 24
88.5333089956
 34
0.0
 15
42.2056102108
 25
95.6891814994
 35
0.0
 16
35.4270354926
 26
160.1830118483
 36
0.0
  0
DIMENSION
  5
24C
330
1F
100
AcDbEntity
  8
VERMASSUNG
100
AcDbDimension
  2
_D_7
 10
27.0113393185
 20
100.8363698081
 30
0.0
 11
18.6455424722
 21
89.9056321232
 31
0.0
 70
   160
  1
%%c<> min. 
 71
     2
 42
-1.0
  3
SLDDIMSTYLE3
100
AcDbAlignedDimension
 13
57.3998811031
 23
140.5419931907
 33
0.0
 14
27.0113393185
 24
100.8363698081
 34
0.0
 50
52.5715061812
100
AcDbRotatedDimension
  0
INSERT
  5
266
330
1F
100
AcDbEntity
  8
VERMASSUNG
100
AcDbBlockReference
  2
SW_CENTERMARKSYMBOL_0
 10
42.2056102108
 20
122.5333089956
 30
0.0
  0
OLE2FRAME
  5
267
330
1F
100
AcDbEntity
  8
0
100
AcDbOle2Frame
 70
     2
  3
Paintbrush-Bild
 10
13.8511154363
 20
38.264191557
 30
0.0
 11
51.6290888628
 21
31.9806341108
 31
0.0
 71
     2
 72
     0
 73
     1
 90
    12928
310
80552BED0767C5B32B40DDAF6807D121434000000000000000006FFBDDFB85D0
310
4940DDAF6807D121434000000000000000006FFBDDFB85D04940416F4BD60AFB
310
3F4000000000000000002BED0767C5B32B40416F4BD60AFB3F40000000000000
310
0000000000000100000000010000010000000100000000000100000000320000
310
D0CF11E0A1B11AE1000000000000000000000000000000003E000300FEFF0900
310
0600000000000000000000000100000001000000000000000010000002000000
310
01000000FEFFFFFF0000000000000000FFFFFFFFFFFFFFFFFFFFFFFFFFFFFFFF
310
FFFFFFFFFFFFFFFFFFFFFFFFFFFFFFFFFFFFFFFFFFFFFFFFFFFFFFFFFFFFFFFF
310
FFFFFFFFFFFFFFFFFFFFFFFFFFFFFFFFFFFFFFFFFFFFFFFFFFFFFFFFFFFFFFFF
310
FFFFFFFFFFFFFFFFFFFFFFFFFFFFFFFFFFFFFFFFFFFFFFFFFFFFFFFFFFFFFFFF
310
FFFFFFFFFFFFFFFFFFFFFFFFFFFFFFFFFFFFFFFFFFFFFFFFFFFFFFFFFFFFFFFF
310
FFFFFFFFFFFFFFFFFFFFFFFFFFFFFFFFFFFFFFFFFFFFFFFFFFFFFFFFFFFFFFFF
310
FFFFFFFFFFFFFFFFFFFFFFFFFFFFFFFFFFFFFFFFFFFFFFFFFFFFFFFFFFFFFFFF
310
FFFFFFFFFFFFFFFFFFFFFFFFFFFFFFFFFFFFFFFFFFFFFFFFFFFFFFFFFFFFFFFF
310
FFFFFFFFFFFFFFFFFFFFFFFFFFFFFFFFFFFFFFFFFFFFFFFFFFFFFFFFFFFFFFFF
310
FFFFFFFFFFFFFFFFFFFFFFFFFFFFFFFFFFFFFFFFFFFFFFFFFFFFFFFFFFFFFFFF
310
FFFFFFFFFFFFFFFFFFFFFFFFFFFFFFFFFFFFFFFFFFFFFFFFFFFFFFFFFFFFFFFF
310
FFFFFFFFFFFFFFFFFFFFFFFFFFFFFFFFFFFFFFFFFFFFFFFFFFFFFFFFFFFFFFFF
310
FFFFFFFFFFFFFFFFFFFFFFFFFFFFFFFFFFFFFFFFFFFFFFFFFFFFFFFFFFFFFFFF
310
FFFFFFFFFFFFFFFFFFFFFFFFFFFFFFFFFFFFFFFFFFFFFFFFFFFFFFFFFFFFFFFF
310
FDFFFFFFFEFFFFFFFEFFFFFFFEFFFFFF05000000060000000700000008000000
310
090000000A0000000B0000000C0000000D0000000E0000000F00000010000000
310
11000000120000001300000014000000150000001600000017000000FEFFFFFF
310
FFFFFFFFFFFFFFFFFFFFFFFFFFFFFFFFFFFFFFFFFFFFFFFFFFFFFFFFFFFFFFFF
310
FFFFFFFFFFFFFFFFFFFFFFFFFFFFFFFFFFFFFFFFFFFFFFFFFFFFFFFFFFFFFFFF
310
FFFFFFFFFFFFFFFFFFFFFFFFFFFFFFFFFFFFFFFFFFFFFFFFFFFFFFFFFFFFFFFF
310
FFFFFFFFFFFFFFFFFFFFFFFFFFFFFFFFFFFFFFFFFFFFFFFFFFFFFFFFFFFFFFFF
310
FFFFFFFFFFFFFFFFFFFFFFFFFFFFFFFFFFFFFFFFFFFFFFFFFFFFFFFFFFFFFFFF
310
FFFFFFFFFFFFFFFFFFFFFFFFFFFFFFFFFFFFFFFFFFFFFFFFFFFFFFFFFFFFFFFF
310
FFFFFFFFFFFFFFFFFFFFFFFFFFFFFFFFFFFFFFFFFFFFFFFFFFFFFFFFFFFFFFFF
310
FFFFFFFFFFFFFFFFFFFFFFFFFFFFFFFFFFFFFFFFFFFFFFFFFFFFFFFFFFFFFFFF
310
FFFFFFFFFFFFFFFFFFFFFFFFFFFFFFFFFFFFFFFFFFFFFFFFFFFFFFFFFFFFFFFF
310
FFFFFFFFFFFFFFFFFFFFFFFFFFFFFFFFFFFFFFFFFFFFFFFFFFFFFFFFFFFFFFFF
310
FFFFFFFFFFFFFFFFFFFFFFFFFFFFFFFFFFFFFFFFFFFFFFFFFFFFFFFFFFFFFFFF
310
FFFFFFFFFFFFFFFFFFFFFFFFFFFFFFFFFFFFFFFFFFFFFFFFFFFFFFFFFFFFFFFF
310
FFFFFFFFFFFFFFFFFFFFFFFFFFFFFFFFFFFFFFFFFFFFFFFFFFFFFFFFFFFFFFFF
310
52006F006F007400200045006E00740072007900000000000000000000000000
310
0000000000000000000000000000000000000000000000000000000000000000
310
16000500FFFFFFFFFFFFFFFF020000000A00030000000000C000000000000046
310
000000000000000000000000E0CE6CFF7A45CD0103000000C000000000000000
310
01004F006C006500000000000000000000000000000000000000000000000000
310
0000000000000000000000000000000000000000000000000000000000000000
310
0A000200FFFFFFFFFFFFFFFFFFFFFFFF00000000000000000000000000000000
310
0000000000000000000000000000000000000000000000001400000000000000
310
010043006F006D0070004F0062006A0000000000000000000000000000000000
310
0000000000000000000000000000000000000000000000000000000000000000
310
120002010100000003000000FFFFFFFF00000000000000000000000000000000
310
0000000000000000000000000000000000000000010000004D00000000000000
310
01004F006C006500310030004E00610074006900760065000000000000000000
310
0000000000000000000000000000000000000000000000000000000000000000
310
1A000200FFFFFFFFFFFFFFFFFFFFFFFF00000000000000000000000000000000
310
0000000000000000000000000000000000000000040000002426000000000000
310
FEFFFFFF02000000FEFFFFFFFFFFFFFFFFFFFFFFFFFFFFFFFFFFFFFFFFFFFFFF
310
FFFFFFFFFFFFFFFFFFFFFFFFFFFFFFFFFFFFFFFFFFFFFFFFFFFFFFFFFFFFFFFF
310
FFFFFFFFFFFFFFFFFFFFFFFFFFFFFFFFFFFFFFFFFFFFFFFFFFFFFFFFFFFFFFFF
310
FFFFFFFFFFFFFFFFFFFFFFFFFFFFFFFFFFFFFFFFFFFFFFFFFFFFFFFFFFFFFFFF
310
FFFFFFFFFFFFFFFFFFFFFFFFFFFFFFFFFFFFFFFFFFFFFFFFFFFFFFFFFFFFFFFF
310
FFFFFFFFFFFFFFFFFFFFFFFFFFFFFFFFFFFFFFFFFFFFFFFFFFFFFFFFFFFFFFFF
310
FFFFFFFFFFFFFFFFFFFFFFFFFFFFFFFFFFFFFFFFFFFFFFFFFFFFFFFFFFFFFFFF
310
FFFFFFFFFFFFFFFFFFFFFFFFFFFFFFFFFFFFFFFFFFFFFFFFFFFFFFFFFFFFFFFF
310
FFFFFFFFFFFFFFFFFFFFFFFFFFFFFFFFFFFFFFFFFFFFFFFFFFFFFFFFFFFFFFFF
310
FFFFFFFFFFFFFFFFFFFFFFFFFFFFFFFFFFFFFFFFFFFFFFFFFFFFFFFFFFFFFFFF
310
FFFFFFFFFFFFFFFFFFFFFFFFFFFFFFFFFFFFFFFFFFFFFFFFFFFFFFFFFFFFFFFF
310
FFFFFFFFFFFFFFFFFFFFFFFFFFFFFFFFFFFFFFFFFFFFFFFFFFFFFFFFFFFFFFFF
310
FFFFFFFFFFFFFFFFFFFFFFFFFFFFFFFFFFFFFFFFFFFFFFFFFFFFFFFFFFFFFFFF
310
FFFFFFFFFFFFFFFFFFFFFFFFFFFFFFFFFFFFFFFFFFFFFFFFFFFFFFFFFFFFFFFF
310
FFFFFFFFFFFFFFFFFFFFFFFFFFFFFFFFFFFFFFFFFFFFFFFFFFFFFFFFFFFFFFFF
310
FFFFFFFFFFFFFFFFFFFFFFFFFFFFFFFFFFFFFFFFFFFFFFFFFFFFFFFFFFFFFFFF
310
0100000200000000000000000000000000000000000000000000000000000000
310
0000000000000000000000000000000000000000000000000000000000000000
310
0100FEFF030A0000FFFFFFFF0A00030000000000C00000000000004607000000
310
5042727573680007000000504272757368000700000050427275736800F439B2
310
7100000000000000000000000000000000000000000000000000000000000000
310
0000000000000000000000000000000000000000000000000000000000000000
310
0000000000000000000000000000000000000000000000000000000000000000
310
0000000000000000000000000000000000000000000000000000000000000000
310
0000000000000000000000000000000000000000000000000000000000000000
310
0000000000000000000000000000000000000000000000000000000000000000
310
0000000000000000000000000000000000000000000000000000000000000000
310
0000000000000000000000000000000000000000000000000000000000000000
310
0000000000000000000000000000000000000000000000000000000000000000
310
0000000000000000000000000000000000000000000000000000000000000000
310
0000000000000000000000000000000000000000000000000000000000000000
310
0000000000000000000000000000000000000000000000000000000000000000
310
20260000424D0E260000000000003E00000028000000B40200006E0000000100
310
01000000000000000000130B0000130B00000200000002000000000000FFFFFF
310
FFFFFFFFFFFFFFFFFFFFFFFFFFFFFFFFFFFFFFFFFFFFFFFFFFFFFFFFFFFFFFFF
310
FFFFFFFFFFFFFFFFFFFFFFFFFFFFFFFFFFFFFFFFFFFFFFFFFFFFFFFFFFFFFFFF
310
FFFFFFFFFFFFFFFFFFFFFFFFFFFFFFFFFFFFFFFFFFFFFFFFF000FFFFFFFFFFFF
310
FFFFFFFFFFFFFFFFFFFFFFFFFFFFFFFFFFFFFFFFFFFFFFFFFFFFFFFFFFFFFFFF
310
FFFFFFFFFFFFFFFFFFFFFFFFFFFFFFFFFFFFFFFFFFFFFFFFFFFFFFFFFFFFFFFF
310
FFFFFFFFFFFFFFFFFFFFFFFFFFFFFFFFF000FFFFFFFFFFFFFFFFFFFFFFFFFFFF
310
FFFFFFFFFFFFFFFFFFFFFFFFFFFFFFFFFFFFFFFFFFFFFFFFFFFFFFFFFFFFFFFF
310
FFFFFFFFFFFFFFFFFFFFFFFFFFFFFFFFFFFFFFFFFFFFFFFFFFFFFFFFFFFFFFFF
310
FFFFFFFFFFFFFFFFF000FFFFFFFFFFFFFFFFFFFFFFFFFFFFFFFFFFFFFFFFFFFF
310
FFFFFFFFFFFFFFFFFFFFFFFFFFFFFFFFFFFFFFFFFFFFFFFFFFFFFFFFFFFFFFFF
310
FFFFFFFFFFFFFFFFFFFFFFFFFFFFFFFFFFFFFFFFFFFFFFFFFFFFFFFFFFFFFFFF
310
F000FFFFFFFFFFFFFFFFFFFFFFFFFFFFFFFFFFFFFFFFFFFFFFFFFFFFFFFFFFFF
310
FFFFFFFFFFFFFFFFFFFFFFFFFFFFFFFFFFFFFFFFFFFFFFFFFFFFFFFFFFFFFFFF
310
FFFFFFFFFFFFFFFFFFFFFFFFFFFFFFFFFFFFFFFFFFFFFFFFF000FFFFFFFFFFFF
310
FFFFFFFFFFFFFFFFFFFFFFFFFFFFFFFFFFFFFFFFFFFFFFFFFFFFFFFFFFFFFFFF
310
FFFFFFFFFFFFFFFFFFFFFFFFFFFFFFFFFFFFFFFFFFFFFFFFFFFFFFFFFFFFFFFF
310
FFFFFFFFFFFFFFFFFFFFFFFFFFFFFFFFF000FFFFFFFFFFFFFFFFFFFFFFFFFFFF
310
FFFFFFFFFFFFFFFFFFFFFFFFFFFFFFFFFFFFFFFFFFFFFFFFFFFFFFFFFFFFFFFF
310
FFFFFFFFFFFFFFFFFFFFFFFFFFFFFFFFFFFFFFFFFFFFFFFFFFFFFFFFFFFFFFFF
310
FFFFFFFFFFFFFFFFF000FFFFFFFFFFFFFFFFFFFFFFFFFFFFFFFFFFFFFFFFFFFF
310
FFFFFFFFFFFFFFFFFFFFFFFFFFFFFFFFFFFFFFFFFFFFFFFFFFFFFFFFFFFFFFFF
310
FFFFFFFFFFFFFFFFFFFFFFFFFFFFFFFFFFFFFFFFFFFFFFFFFFFFFFFFFFFFFFFF
310
F000FFFFFFFFFFFFFFFFFFFFFFFFFFFFFFFFFFFFFFFFFFFFFFFFFFFFFFFFFFFF
310
FFFFFFFFFFFFFFFFFFFFFFFFFFFFFFFFFFFFFFFFFFFFFFFFFFFFFFFFFFFFFFFF
310
FFFFFFFFFFFFFFFFFFFFFFFFFFFFFFFFFFFFFFFFFFFFFFFFF000FFFFFFFFFFFF
310
FFFFFFFFFFFFFFFFFFFFFFFFFFFFFFFFFFFFFFFFFFFFFFFFFFFFFFFFFFFFFFFF
310
FFFFFFFFFFFFFFFFFFFFFFFFFFFFFFFFFFFFFFFFFFFFFFFFFFFFFFFFFFFFFFFF
310
FFFFFFFFFFFFFFFFFFFFFFFFFFFFFFFFF000FFFFFFFFFFFFFFFFFFFFFFFFFFFF
310
FFFFFFFFFFFFFFFFFFFFFFFFFFFFFFFFFFFFFFFFFFFFFFFFFFFFFFFFFFFFFFFF
310
FFFFFFFFFFFFFFFFFFFFFFFFFFFFFFFFFFFFFFFFFFFFFFFFFFFFFFFFFFFFFFFF
310
FFFFFFFFFFFFFFFFF000FFFFFFFFFFFFFFFFFFFFFFFFFFFFFFFFFFFFFFFFFFFF
310
FFFFFFFFFFFFFFFFFFFFFFFFFFFFFFFFFFFFFFFFFFFFFFFFFFFFFFFFFFFFFFFF
310
FFFFFFFFFFFFFFFFFFFFFFFFFFFFFFFFFFFFFFFFFFFFFFFFFFFFFFFFFFFFFFFF
310
F000FFFFFFFFFFFFFFFFFFFFFFFFFFFFFFFFFFFFFFFFFFFFFFFFFFFFFFFFFFFF
310
FFFFFFFFFFFFFFFFFFFFFFFFFFFFFFFFFFFFFFFFFFFFFFFFFFFFFFFFFFFFFFFF
310
FFFFFFFFFFFFFFFFFFFFFFFFFFFFFFFFFFFFFFFFFFFFFFFFF000FFFFFFFFFFFF
310
FFFFFFFFFFFFFFFFFFFFFFFFFFFFFFFFFFFFFFFFFFFFFFFFFFFFFFFFFFFFFFFF
310
FFFFFFFFFFFFFFFFFFFFFFFFFFFFFFFFFFFFFFFFFFFFFFFFFFFFFFFFFFFFFFFF
310
FFFFFFFFFFFFFFFFFFFFFFFFFFFFFFFFF000FFFFFFFFFFFFFFFFFFFFFFFFFFFF
310
FFFFFFFFFFFFFFFFFFFFFFFFFFFFFFFFFFFFFFFFFFFFFFFFFFFFFFFFFFFFFFFF
310
FFFFFFFFFFFFFFFFFFFFFFFFFFFFFFFFFFFFFFFFFFFFFFFFFFFFFFFFFFFFFFFF
310
FFFFFFFFFFFFFFFFF000FFFFFFFFFFFFFFFFFFFFFFFFFFFFFFFFFFFFFFFFFFFF
310
FFFFFFFFFFFFFFFFFFFFFFFFFFFFFFFFFFFFFFFFFFFFFFFFFFFFFFFFFFFFFFFF
310
FFFFFFFFFFFFFFFFFFFFFFFFFFFFFFFFFFFFFFFFFFFFFFFFFFFFFFFFFFFFFFFF
310
F000FFFFFFFFFFFFFFFFFFFFFFFFFFFFFFFFFFFFFFFFFFFFFFFFFFFFFFFFFFFF
310
FFFFFFFFFFFFFFFFFFFFFFFFFFFFFFFFFFFFFFFFFFFFFFFFFFFFFFFFFFFFFFFF
310
FFFFFFFFFFFFFFFFFFFFFFFFFFFFFFFFFFFFFFFFFFFFFFFFF000FFFFFFFFFFFF
310
FFFFFFFFFFFFFFFFFFFFFFFFFFFFFFFFFFFFFFFFFFFFFFFFFFFFFFFFFFFFFFFF
310
FFFFFFFFFFFFFFFFFFFFFFFFFFFFFFFFFFFFFFFFFFFFFFFFFFFFFFFFFFFFFFFF
310
FFFFFFFFFFFFFFFFFFFFFFFFFFFFFFFFF000FFFFFFFFFFFFFFFFFFFFFFFFFFFF
310
FFFFFFFFFFFFFFFFFFFFFFFFFFFFFFFFFFFFFFFFFFFFFFFFFFFFFFFFFFFFFFFF
310
FFFFFFFFFFFFFFFFFFFFFFFFFFFFFFFFFFFFFFFFFFFFFFFFFFFFFFFFFFFFFFFF
310
FFFFFFFFFFFFFFFFF000FFFFF80003FFFFFFFFFFFFFFFFFFFFFFFFFFFFFFFFFF
310
FFFFF00007FFFFFFFFFF00007FFFFFF800000000000000007FFFFFFFFFFFFFFF
310
FFFFFFFC001FFFFFFFFFFFFFFC001FFFFFFFFFFFFFFFFFFFFFFFFFFE0007FFFF
310
F000FFFF8000007FFFFFFFF8000FFFFFC0007FFFFF80007FFFFF0000007FFFFF
310
FFF8000007FFFFF800000000000000007FFFFFF0001FFFFFFFFFFFC00001FFFF
310
FFFFFFFFC00001FFFFFFFF000000000003FFFFE000007FFFF000FFFE0000000F
310
FFFFFFF0000FFFFF80007FFFFF80007FFFFC0000001FFFFFFFC0000001FFFFF8
310
00000000000000007FFFFFF0001FFFFFFFFFFE0000003FFFFFFFFFFE0000003F
310
FFFFFF000000000003FFFF0000000FFFF000FFF800000003FFFFFFF00007FFFF
310
80007FFFFF80007FFFF000000007FFFFFF000000003FFFF80000000000000000
310
7FFFFFF0001FFFFFFFFFF80000000FFFFFFFFFF80000000FFFFFFF0000000000
310
03FFFC00000003FFF000FFE000000000FFFFFFF00007FFFF80003FFFFF80007F
310
FFC000000001FFFFFC000000001FFFF800000000000000007FFFFFF0001FFFFF
310
FFFFE000000003FFFFFFFFE000000003FFFFFF000000000003FFF000000000FF
310
F000FF80000000007FFFFFF00007FFFF80003FFFFF80007FFF8000000000FFFF
310
F80000000007FFF800000000000000007FFFFFF0001FFFFFFFFFC000000001FF
310
FFFFFFC000000001FFFFFF000000000003FFC0000000007FF000FF0000000000
310
3FFFFFE00007FFFF00003FFFFF80007FFE00000000003FFFF00000000003FFF8
310
00000000000000007FFFFFF0001FFFFFFFFF8000000000FFFFFFFF8000000000
310
FFFFFF000000000003FF80000000003FF000FE00000000001FFFFFE00003FFFF
310
00003FFFFF80007FFC00000000001FFFE00000000001FFF8000001FFFE000000
310
7FFFFFF0001FFFFFFFFE00000000003FFFFFFE00000000003FFFFF0000000000
310
03FF00000000001FF000FC00000000000FFFFFE00003FFFF00001FFFFF80007F
310
F800000000001FFFC00000000000FFF8000001FFFE0000007FFFFFF0001FFFFF
310
FFFC00000000001FFFFFFC00000000001FFFFF000000000003FE00000000000F
310
F000F8000000000007FFFFE00003FFFF00001FFFFF80007FF800000000000FFF
310
800000000000FFF8000001FFFE0000007FFFFFF0001FFFFFFFF800000000000F
310
FFFFF800000000000FFFFF000000000003FC000000000007F000F80000000000
310
03FFFFC00003FFFE00001FFFFF80007FF0000000000007FF0000000000007FF8
310
000001FFFE0000007FFFFFF0001FFFFFFFF0000000000007FFFFF00000000000
310
07FFFF000000000003F8000000000003F000F0000000000003FFFFC00001FFFE
310
00001FFFFF80007FE0000000000007FE0000000000003FF8000001FFFE000000
310
7FFFFFF0001FFFFFFFF0000000000007FFFFF0000000000007FFFF0000000000
310
03F800001F800003F000E00001FFF00001FFFFC00001FFFE00000FFFFF80007F
310
E00001FFE00003FE00001FFF00003FF8000001FFFE0000007FFFFFF0001FFFFF
310
FFE000003E000003FFFFE000003E000003FFFF000000000003F00001FFF80001
310
F000E00007FFFC0001FFFFC00001FFFE00000FFFFF80007FC0000FFFFC0003FC
310
0000FFFFC0001FF8000001FFFE0000007FFFFFF0001FFFFFFFC00003FFE00001
310
FFFFC00003FFE00001FFFF0001FFFFFFFFF00007FFFE0001F000E0000FFFFF00
310
00FFFF800001FFFC00000FFFFF80007FC0001FFFFE0001FC0001FFFFE0001FF8
310
000001FFFE0000007FFFFFF0001FFFFFFF80000FFFF80000FFFF80000FFFF800
310
00FFFF0003FFFFFFFFE0000FFFFF8000F000C0003FFFFF8000FFFF800000FFFC
310
000007FFFF80007F80003FFFFF0001FC0003FFFFF0001FF8000001FFFE000000
310
7FFFFFF0001FFFFFFF80003FFFFE0000FFFF80003FFFFE0000FFFF0003FFFFFF
310
FFE0003FFFFF8000F000C0003FFFFF8000FFFF800000FFFC000007FFFF80007F
310
80007FFFFF8001F80007FFFFF8000FF8000001FFFE0000007FFFFFF0001FFFFF
310
FF00007FFFFF00007FFF00007FFFFF00007FFF0003FFFFFFFFE0003FFFFFC000
310
F000C0007FFFFFC000FFFF000000FFFC000007FFFF80007F8000FFFFFF8000F8
310
000FFFFFF8000FF8000001FFFE0000007FFFFFF0001FFFFFFF0000FFFFFF8000
310
7FFF0000FFFFFF80007FFF0003FFFFFFFFC0007FFFFFC00070008000FFFFFFC0
310
00FFFF000000FFF8000007FFFF80007F8000FFFFFF8000F8000FFFFFF8000FF8
310
000001FFFE0000007FFFFFF0001FFFFFFE0001FFFFFFC0003FFE0001FFFFFFC0
310
003FFF0003FFFFFFFFC0007FFFFFE00070008000FFFFFFC0007FFF0000007FF8
310
000003FFFF80007F0001FFFFFF8000F8000FFFFFF8000FF8000001FFFE000000
310
7FFFFFF0001FFFFFFE0001FFFFFFC0003FFE0001FFFFFFC0003FFF0003FFFFFF
310
FFC000FFFFFFE00070008000FFFFFFC0007FFF0000007FF8000003FFFF80007F
310
0001FFFFFF8000F8001FFFFFF8000FF8000001FFFE0000007FFFFFF0001FFFFF
310
FE0003FFFFFFE0003FFE0003FFFFFFE0003FFF0003FFFFFFFFC000FFFFFFE000
310
70008000FFFFFFC0007FFE0000007FF8000003FFFF80007F0001FFFFFF8000F0
310
001FFFFFF8000FF8000001FFFE0000007FFFFFF0001FFFFFFC0003FFFFFFE000
310
1FFC0003FFFFFFE0001FFF0003FFFFFFFFC000FFFFFFC00070008000FFFFFF80
310
007FFE0000007FF0000003FFFF80007F0001FFFFFF0000F0001FFFFFF8000FF8
310
000001FFFE0000007FFFFFF0001FFFFFFC0007FFFFFFF0001FFC0007FFFFFFF0
310
001FFF0003FFFFFFFFC000FFFFFFC00070008001FFFFFF0000FFFE0000003FF0
310
000001FFFF80007F0001FFFFFF0000F8001FFFFFF0000FF8000001FFFE000000
310
7FFFFFF0001FFFFFFC0007FFFFFFF0001FFC0007FFFFFFF0001FFF0003FFFFFF
310
FFC001FFFFFF80007000FFFFFFFFFE0000FFFE0008003FF0008001FFFF80007F
310
FFFFFFFFFC0000FFFFFFFFFFE0000FF8000001FFFE0000007FFFFFF0001FFFFF
310
F8000FFFFFFFF8000FF8000FFFFFFFF8000FFF0003FFFFFFFFFFFFFFFFFF0000
310
7000FFFFFFFFFC0000FFFC0008003FF0008001FFFF80007FFFFFFFFFF80001FF
310
FFFFFFFF80000FF8000001FFFE0000007FFFFFF0001FFFFFF8000FFFFFFFF800
310
0FF8000FFFFFFFF8000FFF0003FFFFFFFFFFFFFFFFFE0000F000FFFFFFFFE000
310
00FFFC000C003FE000C001FFFF80007FFFFFFFFFC00001FFFFFFFFFE00001FF8
310
000001FFFE0000007FFFFFF0001FFFFFF8000FFFFFFFF8000FF8000FFFFFFFF8
310
000FFF0003FFFFFFFFFFFFFFFFF00000F000FFFFFFFE000001FFFC000C001FE0
310
00C000FFFF80007FFFFFFFFE000001FFFFFFFFE000001FF80FFFFFFFFFFFFFC0
310
7FFFFFF0001FFFFFF8000FFFFFFFF8000FF8000FFFFFFFF8000FFF0003FFFFFF
310
FFFFFFFFFF800000F000FFFFFFC0000001FFFC001C001FE001C000FFFF80007F
310
FFFFFF80000003FFFFFFF80000001FF80FFFFFFFFFFFFFC07FFFFFF0001FFFFF
310
F8001FFFFFFFFC000FF8001FFFFFFFFC000FFF0003FFFFFFFFFFFFFFF0000001
310
F000FFFFF800000001FFF8001C001FE001C000FFFF80007FFFFFF800000003FF
310
FFFF800000003FF80FFFFFFFFFFFFFC07FFFFFF0001FFFFFF8001FFFFFFFFC00
310
0FF8001FFFFFFFFC000FFF0003FFFFFFFFFFFFFE00000001F000FFFFC0000000
310
03FFF8001E001FC001E000FFFF80007FFFFF8000000007FFFFFC000000003FF8
310
0FFFFFFFFFFFFFC07FFFFFF0001FFFFFF8001FFFFFFFFC000FF8001FFFFFFFFC
310
000FFF0003FFFFFFFFFFFFE000000003F000FFFE0000000007FFF8001E000FC0
310
01E0007FFF80007FFFFE0000000007FFFFE0000000007FF80FFFFFFFFFFFFFC0
310
7FFFFFF0001FFFFFF0001FFFFFFFFC0007F0001FFFFFFFFC0007FF0003FFFFFF
310
FFFFFF0000000003F000FFF80000000007FFF8001E000FC003E0007FFF80007F
310
FFF0000000000FFFFF8000000000FFF80FFFFFFFFFFFFFC07FFFFFF0001FFFFF
310
F0001FFFFFFFFC0007F0001FFFFFFFFC0007FF0003FFFFFFFFFFFC0000000007
310
F000FFE0000000000FFFF0003E000FC003E0007FFF80007FFFC0000000001FFF
310
FE0000000001FFF80FFFFFFFFFFFFFC07FFFFFF0001FFFFFF0001FFFFFFFFC00
310
07F0001FFFFFFFFC0007FF0003FFFFFFFFFFF0000000000FF000FFC000000000
310
1FFFF0003F000F8003F0003FFF80007FFF80000000003FFFF80000000003FFF8
310
0FFFFFFFFFFFFFC07FFFFFF0001FFFFFF0001FFFFFFFFC0007F0001FFFFFFFFC
310
0007FF0003FFFFFFFFFFE0000000001FF000FF00000000007FFFF0003F000780
310
03F0003FFF80007FFF00000000007FFFF00000000007FFF80FFFFFFFFFFFFFC0
310
7FFFFFF0001FFFFFF0001FFFFFFFFC0007F0001FFFFFFFFC0007FF0003FFFFFF
310
FFFF80000000007FF000FE0000000000FFFFE0003F00078007F0003FFF80007F
310
FE0000000001FFFFE0000000001FFFF80FFFFFFFFFFFFFC07FFFFFF0001FFFFF
310
F0001FFFFFFFFC0007F0001FFFFFFFFC0007FF0003FFFFFFFFFF0000000000FF
310
F000FC0000000003FFFFE0007F00078007F0003FFF80007FFC0000000007FFFF
310
C0000000007FFFF80FFFFFFFFFFFFFC07FFFFFF0001FFFFFF8001FFFFFFFFC00
310
0FF8001FFFFFFFFC000FFF0003FFFFFFFFFE0000000003FFF000FC000000000F
310
FFFFE0007F80070007F8001FFF80007FF8000000001FFFFF8000000001FFFFF8
310
0FFFFFFFFFFFFFC07FFFFFF0001FFFFFF8001FFFFFFFFC000FF8001FFFFFFFFC
310
000FFF0003FFFFFFFFFC000000000FFFF000F8000000007FFFFFE0007F800700
310
07F8001FFF80007FF000000000FFFFFF800000000FFFFFF80FFFFFFFFFFFFFC0
310
7FFFFFF0001FFFFFF8000FFFFFFFF8000FF8000FFFFFFFF8000FFF0003FFFFFF
310
FFFC000000007FFFF000F800000007FFFFFFC0007F8003000FF8001FFF80007F
310
F000000007FFFFFF000000007FFFFFF80FFFFFFFFFFFFFC07FFFFFF0001FFFFF
310
F8000FFFFFFFF8000FF8000FFFFFFFF8000FFF0003FFFFFFFFF80000000FFFFF
310
F000F0000000FFFFFFFFC000FF8003000FF8001FFF80007FE0000000FFFFFFFF
310
0000000FFFFFFFF8000001FFFE0000007FFFFFF0001FFFFFF8000FFFFFFFF800
310
0FF8000FFFFFFFF8000FFF0003FFFFFFFFF8000000FFFFFFF000F000000FFFFF
310
FFFFC000FFC002000FF8000FFF80007FE000001FFFFFFFFE000001FFFFFFFFF8
310
000001FFFE0000007FFFFFF0001FFFFFF8000FFFFFFFF8000FF8000FFFFFFFF8
310
000FFF0003FFFFFFFFF000001FFFFFFFF000E00000FFFFFFFFFFC000FFC00200
310
0FFC000FFF80007FE00001FFFFFFFFFE00001FFFFFFFFFF8000001FFFE000000
310
7FFFFFF0001FFFFFFC000FFFFFFFF8001FFC000FFFFFFFF8001FFF0003FFFFFF
310
FFF00001FFFFFFFFF000E00007FFFFFFFFFF8000FFC000001FFC000FFF80007F
310
C0000FFFFFFFFFFE0000FFFFFFFFFFF8000001FFFE0000007FFFFFF0001FFFFF
310
FC0007FFFFFFF0001FFC0007FFFFFFF0001FFF0003FFFFFFFFF00007FFFFFFFF
310
F000E0001FFFFFFFFFFF8000FFC000001FFC000FFF80007FC0003FFFFFFFFFFE
310
0001FFFFFFFFFFF8000001FFFE0000007FFFFFF0001FFFFFFC0007FFFFFFF000
310
1FFC0007FFFFFFF0001FFF0003FFFFFFFFF0001FFFFFFFFFF000E0003FFFFF00
310
03FF8001FFE000001FFC0007FF80007FC0007FFFFF0007FC0003FFFFF0003FF8
310
000001FFFE0000007FFFFFF0001FFFFFFC0003FFFFFFE0001FFC0003FFFFFFE0
310
001FFF0003FFFFFFFFF0003FFFFFFFFFF000E0003FFFFF0001FF8001FFE00000
310
1FFE0007FF80007FC0007FFFFE0003FC0007FFFFE0003FF8000001FFFE000000
310
7FFFFFF0001FFFFFFE0003FFFFFFE0003FFE0003FFFFFFE0003FFF0003FFFFFF
310
FFF0003FFFFF8001F000E0003FFFFF0001FF0001FFE000001FFE0007FF80007F
310
C0007FFFFE0003FC0007FFFFE0003FF8000001FFFE0000007FFFFFF0001FFFFF
310
FE0001FFFFFFC0003FFE0001FFFFFFC0003FFF0003FFFFFFFFF0003FFFFF0001
310
F000E0003FFFFF0003FF0001FFE000003FFE0007FF80007FC0007FFFFE0003FC
310
0007FFFFE0003FF8000001FFFE0000007FFFFFF0001FFFFFFF0001FFFFFFC000
310
7FFF0001FFFFFFC0007FFF0003FFFFFFFFF0003FFFFF0001F000E0003FFFFE00
310
03FF0003FFF000003FFE0003FF80007FC0007FFFFC0003FE0007FFFFE0003FF8
310
000001FFFE0000007FFFFFF0001FFFFFFF0000FFFFFF80007FFF0000FFFFFF80
310
007FFF0003FFFFFFFFF0003FFFFF0001F000E0003FFFFE0003FF0003FFF00000
310
3FFF0003FF80007FC0007FFFFC0007FE0007FFFFC0003FF8000001FFFE000000
310
7FFFFFF0001FFFFFFF80007FFFFF0000FFFF80007FFFFF0000FFFF0003FFFFFF
310
FFF0003FFFFF0003F000E0003FFFFC0003FE0003FFF000003FFF0003FF80007F
310
E0003FFFF80007FE0003FFFFC0007FF8000001FFFE0000007FFFFFF0001FFFFF
310
FF80003FFFFE0000FFFF80003FFFFE0000FFFF0003FFFFFFFFF0001FFFFE0003
310
F000F0001FFFF80003FE0003FFF000007FFF0001FF80007FE0003FFFF00007FE
310
0001FFFF80007FF8000001FFFE0000007FFFFFF0001FFFFFFFC0000FFFF80001
310
FFFFC0000FFFF80001FFFF0003FFFFFFFFF0001FFFFC0003F000F0000FFFF000
310
07FE0007FFF800007FFF0001FF80007FE0001FFFE00007FF0000FFFE00007FF8
310
000001FFFE0000007FFFFFF0001FFFFFFFC00003FFE00001FFFFC00003FFE000
310
01FFFF0003FFFFFFFFF8000FFFF80003F000F00003FFC00007FC0007FFF80000
310
7FFF8001FF80007FF00007FF80000FFF00007FF80000FFF8000001FFFE000000
310
7F80000000000001FFE000003E000003FFFFE000003E000003FFFF0003FFFFFF
310
FFF80003FFE00007F000F800000000000FFC0007FFF800007FFF8001FF80007F
310
F000000000000FFF000000000000FFF8000001FFFE0000007F80000000000001
310
FFF0000000000007FFFFF0000000000007FFFF0003FFFFFFFFFC00007E000007
310
F000F800000000000FFC0007FFF80000FFFF8000FF80007FF800000000001FFF
310
800000000001FFF8000001FFFE0000007F80000000000001FFF800000000000F
310
FFFFF800000000000FFFFF0003FFFFFFFFFC00000000000FF000FC0000000000
310
1FFC0007FFFC0000FFFF8000FF80007FF800000000003FFFC00000000001FFF8
310
000001FFFE0000007F80000000000001FFF800000000000FFFFFF80000000000
310
0FFFFF0003FFFFFFFFFE00000000001FF000FE00000000003FF8000FFFFC0000
310
FFFF8000FF80007FFC00000000003FFFC00000000003FFF8000001FFFE000000
310
7F80000000000001FFFC00000000001FFFFFFC00000000001FFFFF0003FFFFFF
310
FFFF00000000001FF000FF00000000003FF8000FFFFC0000FFFFC000FF80007F
310
FE00000000007FFFE00000000007FFF8000001FFFE0000007F80000000000001
310
FFFE00000000003FFFFFFE00000000003FFFFF0003FFFFFFFFFF80000000003F
310
F000FF80000000007FF8000FFFFC0001FFFFC0007F80007FFF0000000000FFFF
310
F0000000000FFFF800000000000000007F80000000000001FFFF8000000000FF
310
FFFFFF8000000000FFFFFF0003FFFFFFFFFFC0000000007FF000FFC000000000
310
FFF8000FFFFE0001FFFFC0007F80007FFF8000000001FFFFF8000000001FFFF8
310
00000000000000007F80000000000001FFFFC000000001FFFFFFFFC000000001
310
FFFFFF0003FFFFFFFFFFE000000000FFF000FFE000000003FFF0001FFFFE0001
310
FFFFC0007F80007FFFC000000007FFFFFE000000003FFFF80000000000000000
310
7F80000000000001FFFFE000000003FFFFFFFFE000000003FFFFFF0003FFFFFF
310
FFFFF000000003FFF000FFF80000000FFFF0001FFFFE0001FFFFE0007F80007F
310
FFF00000000FFFFFFF00000000FFFFF800000000000000007F80000000000001
310
FFFFF80000000FFFFFFFFFF80000000FFFFFFF0003FFFFFFFFFFFC0000000FFF
310
F000FFFE0000003FFFF0001FFFFE0003FFFFE0003F80007FFFFC0000003FFFFF
310
FFC0000003FFFFF800000000000000007F80000000000001FFFFFE0000003FFF
310
FFFFFFFE0000003FFFFFFF0003FFFFFFFFFFFF0000003FFFF000FFFF800000FF
310
FFF0001FFFFF0003FFFFE0003F80007FFFFF000001FFFFFFFFF800001FFFFFF8
310
00000000000000007F80000000000001FFFFFFC00001FFFFFFFFFFFFC00001FF
310
FFFFFF0003FFFFFFFFFFFFC00000FFFFF000FFFFF8000FFFFFFFFFFFFFFFFFFF
310
FFFFFFFFFFFFFFFFFFFFF0001FFFFFFFFFFF0000FFFFFFF80000000000000000
310
7FFFFFFFFFFFFFFFFFFFFFFC001FFFFFFFFFFFFFFC001FFFFFFFFFFFFFFFFFFF
310
FFFFFFFC001FFFFFF000FFFFFFFFFFFFFFFFFFFFFFFFFFFFFFFFFFFFFFFFFFFF
310
FFFFFFFFFFFFFFFFFFFFFFFFFFFFFFFFFFFFFFFFFFFFFFFFFFFFFFFFFFFFFFFF
310
FFFFFFFFFFFFFFFFFFFFFFFFFFFFFFFFFFFFFFFFFFFFFFFFFFFFFFFFFFFFFFFF
310
F000FFFFFFFFFFFFFFFFFFFFFFFFFFFFFFFFFFFFFFFFFFFFFFFFFFFFFFFFFFFF
310
FFFFFFFFFFFFFFFFFFFFFFFFFFFFFFFFFFFFFFFFFFFFFFFFFFFFFFFFFFFFFFFF
310
FFFFFFFFFFFFFFFFFFFFFFFFFFFFFFFFFFFFFFFFFFFFFFFFF000FFFFFFFFFFFF
310
FFFFFFFFFFFFFFFFFFFFFFFFFFFFFFFFFFFFFFFFFFFFFFFFFFFFFFFFFFFFFFFF
310
FFFFFFFFFFFFFFFFFFFFFFFFFFFFFFFFFFFFFFFFFFFFFFFFFFFFFFFFFFFFFFFF
310
FFFFFFFFFFFFFFFFFFFFFFFFFFFFFFFFF000FFFFFFFFFFFFFFFFFFFFFFFFFFFF
310
FFFFFFFFFFFFFFFFFFFFFFFFFFFFFFFFFFFFFFFFFFFFFFFFFFFFFFFFFFFFFFFF
310
FFFFFFFFFFFFFFFFFFFFFFFFFFFFFFFFFFFFFFFFFFFFFFFFFFFFFFFFFFFFFFFF
310
FFFFFFFFFFFFFFFFF000FFFFFFFFFFFFFFFFFFFFFFFFFFFFFFFFFFFFFFFFFFFF
310
FFFFFFFFFFFFFFFFFFFFFFFFFFFFFFFFFFFFFFFFFFFFFFFFFFFFFFFFFFFFFFFF
310
FFFFFFFFFFFFFFFFFFFFFFFFFFFFFFFFFFFFFFFFFFFFFFFFFFFFFFFFFFFFFFFF
310
F000FFFFFFFFFFFFFFFFFFFFFFFFFFFFFFFFFFFFFFFFFFFFFFFFFFFFFFFFFFFF
310
FFFFFFFFFFFFFFFFFFFFFFFFFFFFFFFFFFFFFFFFFFFFFFFFFFFFFFFFFFFFFFFF
310
FFFFFFFFFFFFFFFFFFFFFFFFFFFFFFFFFFFFFFFFFFFFFFFFF000FFFFFFFFFFFF
310
FFFFFFFFFFFFFFFFFFFFFFFFFFFFFFFFFFFFFFFFFFFFFFFFFFFFFFFFFFFFFFFF
310
FFFFFFFFFFFFFFFFFFFFFFFFFFFFFFFFFFFFFFFFFFFFFFFFFFFFFFFFFFFFFFFF
310
FFFFFFFFFFFFFFFFFFFFFFFFFFFFFFFFF000FFFFFFFFFFFFFFFFFFFFFFFFFFFF
310
FFFFFFFFFFFFFFFFFFFFFFFFFFFFFFFFFFFFFFFFFFFFFFFFFFFFFFFFFFFFFFFF
310
FFFFFFFFFFFFFFFFFFFFFFFFFFFFFFFFFFFFFFFFFFFFFFFFFFFFFFFFFFFFFFFF
310
FFFFFFFFFFFFFFFFF000FFFFFFFFFFFFFFFFFFFFFFFFFFFFFFFFFFFFFFFFFFFF
310
FFFFFFFFFFFFFFFFFFFFFFFFFFFFFFFFFFFFFFFFFFFFFFFFFFFFFFFFFFFFFFFF
310
FFFFFFFFFFFFFFFFFFFFFFFFFFFFFFFFFFFFFFFFFFFFFFFFFFFFFFFFFFFFFFFF
310
F000FFFFFFFFFFFFFFFFFFFFFFFFFFFFFFFFFFFFFFFFFFFFFFFFFFFFFFFFFFFF
310
FFFFFFFFFFFFFFFFFFFFFFFFFFFFFFFFFFFFFFFFFFFFFFFFFFFFFFFFFFFFFFFF
310
FFFFFFFFFFFFFFFFFFFFFFFFFFFFFFFFFFFFFFFFFFFFFFFFF000FFFFFFFFFFFF
310
FFFFFFFFFFFFFFFFFFFFFFFFFFFFFFFFFFFFFFFFFFFFFFFFFFFFFFFFFFFFFFFF
310
FFFFFFFFFFFFFFFFFFFFFFFFFFFFFFFFFFFFFFFFFFFFFFFFFFFFFFFFFFFFFFFF
310
FFFFFFFFFFFFFFFFFFFFFFFFFFFFFFFFF000FFFFFFFFFFFFFFFFFFFFFFFFFFFF
310
FFFFFFFFFFFFFFFFFFFFFFFFFFFFFFFFFFFFFFFFFFFFFFFFFFFFFFFFFFFFFFFF
310
FFFFFFFFFFFFFFFFFFFFFFFFFFFFFFFFFFFFFFFFFFFFFFFFFFFFFFFFFFFFFFFF
310
FFFFFFFFFFFFFFFFF000FFFFFFFFFFFFFFFFFFFFFFFFFFFFFFFFFFFFFFFFFFFF
310
FFFFFFFFFFFFFFFFFFFFFFFFFFFFFFFFFFFFFFFFFFFFFFFFFFFFFFFFFFFFFFFF
310
FFFFFFFFFFFFFFFFFFFFFFFFFFFFFFFFFFFFFFFFFFFFFFFFFFFFFFFFFFFFFFFF
310
F000FFFFFFFFFFFFFFFFFFFFFFFFFFFFFFFFFFFFFFFFFFFFFFFFFFFFFFFFFFFF
310
FFFFFFFFFFFFFFFFFFFFFFFFFFFFFFFFFFFFFFFFFFFFFFFFFFFFFFFFFFFFFFFF
310
FFFFFFFFFFFFFFFFFFFFFFFFFFFFFFFFFFFFFFFFFFFFFFFFF000FFFFFFFFFFFF
310
FFFFFFFFFFFFFFFFFFFFFFFFFFFFFFFFFFFFFFFFFFFFFFFFFFFFFFFFFFFFFFFF
310
FFFFFFFFFFFFFFFFFFFFFFFFFFFFFFFFFFFFFFFFFFFFFFFFFFFFFFFFFFFFFFFF
310
FFFFFFFFFFFFFFFFFFFFFFFFFFFFFFFFF000FFFFFFFFFFFFFFFFFFFFFFFFFFFF
310
FFFFFFFFFFFFFFFFFFFFFFFFFFFFFFFFFFFFFFFFFFFFFFFFFFFFFFFFFFFFFFFF
310
FFFFFFFFFFFFFFFFFFFFFFFFFFFFFFFFFFFFFFFFFFFFFFFFFFFFFFFFFFFFFFFF
310
FFFFFFFFFFFFFFFFF000FFFFFFFFFFFFFFFFFFFFFFFFFFFFFFFFFFFFFFFFFFFF
310
FFFFFFFFFFFFFFFFFFFFFFFFFFFFFFFFFFFFFFFFFFFFFFFFFFFFFFFFFFFFFFFF
310
FFFFFFFFFFFFFFFFFFFFFFFFFFFFFFFFFFFFFFFFFFFFFFFFFFFFFFFFFFFFFFFF
310
F000FFFFFFFFFFFFFFFFFFFFFFFFFFFFFFFFFFFFFFFFFFFFFFFFFFFFFFFFFFFF
310
FFFFFFFFFFFFFFFFFFFFFFFFFFFFFFFFFFFFFFFFFFFFFFFFFFFFFFFFFFFFFFFF
310
FFFFFFFFFFFFFFFFFFFFFFFFFFFFFFFFFFFFFFFFFFFFFFFFF000FFFFFFFFFFFF
310
FFFFFFFFFFFFFFFFFFFFFFFFFFFFFFFFFFFFFFFFFFFFFFFFFFFFFFFFFFFFFFFF
310
FFFFFFFFFFFFFFFFFFFFFFFFFFFFFFFFFFFFFFFFFFFFFFFFFFFFFFFFFFFFFFFF
310
FFFFFFFFFFFFFFFFFFFFFFFFFFFFFFFFF000FFFFFFFFFFFFFFFFFFFFFFFFFFFF
310
FFFFFFFFFFFFFFFFFFFFFFFFFFFFFFFFFFFFFFFFFFFFFFFFFFFFFFFFFFFFFFFF
310
FFFFFFFFFFFFFFFFFFFFFFFFFFFFFFFFFFFFFFFFFFFFFFFFFFFFFFFFFFFFFFFF
310
FFFFFFFFFFFFFFFFF000FFFFFFFFFFFFFFFFFFFFFFFFFFFFFFFFFFFFFFFFFFFF
310
FFFFFFFFFFFFFFFFFFFFFFFFFFFFFFFFFFFFFFFFFFFFFFFFFFFFFFFFFFFFFFFF
310
FFFFFFFFFFFFFFFFFFFFFFFFFFFFFFFFFFFFFFFFFFFFFFFFFFFFFFFFFFFFFFFF
310
F000FFFFFFFFFFFFFFFFFFFFFFFFFFFFFFFFFFFFFFFFFFFFFFFFFFFFFFFFFFFF
310
FFFFFFFFFFFFFFFFFFFFFFFFFFFFFFFFFFFFFFFFFFFFFFFFFFFFFFFFFFFFFFFF
310
FFFFFFFFFFFFFFFFFFFFFFFFFFFFFFFFFFFFFFFFFFFFFFFFF000FFFFFFFFFFFF
310
FFFFFFFFFFFFFFFFFFFFFFFFFFFFFFFFFFFFFFFFFFFFFFFFFFFFFFFFFFFFFFFF
310
FFFFFFFFFFFFFFFFFFFFFFFFFFFFFFFFFFFFFFFFFFFFFFFFFFFFFFFFFFFFFFFF
310
FFFFFFFFFFFFFFFFFFFFFFFFFFFFFFFFF0000000000000000000000000000000
310
0000000000000000000000000000000000000000000000000000000000000000
310
0000000000000000000000000000000000000000000000000000000000000000
310
0000000000000000000000000000000000000000000000000000000000000000
310
0000000000000000000000000000000000000000000000000000000000000000
310
0000000000000000000000000000000000000000000000000000000000000000
310
0000000000000000000000000000000000000000000000000000000000000000
310
0000000000000000000000000000000000000000000000000000000000000000
310
0000000000000000000000000000000000000000000000000000000000000000
310
0000000000000000000000000000000000000000000000000000000000000000
310
0000000000000000000000000000000000000000000000000000000000000000
310
0000000000000000000000000000000000000000000000000000000000000000
310
0000000000000000000000000000000000000000000000000000000000000000
310
0000000000000000000000000000000000000000000000000000000000000000
310
0000000000000000000000000000000000000000000000000000000000000000
310
0000000000000000000000000000000000000000000000000000000000000000
  1
OLE
  0
ENDSEC
  0
SECTION
  2
OBJECTS
  0
DICTIONARY
  5
C
330
0
100
AcDbDictionary
281
     1
  3
ACAD_GROUP
350
D
  3
ACAD_LAYOUT
350
1A
  3
ACAD_MLINESTYLE
350
17
  3
ACAD_PLOTSETTINGS
350
19
  3
ACAD_PLOTSTYLENAME
350
E
  0
DICTIONARY
  5
D
102
{ACAD_REACTORS
330
C
102
}
330
C
100
AcDbDictionary
281
     1
  0
DICTIONARY
  5
1A
102
{ACAD_REACTORS
330
C
102
}
330
C
100
AcDbDictionary
281
     1
  3
Layout1
350
1E
  3
Layout2
350
26
  3
Model
350
22
  0
DICTIONARY
  5
17
102
{ACAD_REACTORS
330
C
102
}
330
C
100
AcDbDictionary
281
     1
  3
Standard
350
18
  0
DICTIONARY
  5
19
102
{ACAD_REACTORS
330
C
102
}
330
C
100
AcDbDictionary
281
     1
  0
ACDBDICTIONARYWDFLT
  5
E
102
{ACAD_REACTORS
330
C
102
}
330
C
100
AcDbDictionary
281
     1
  3
Normal
350
F
100
AcDbDictionaryWithDefault
340
F
  0
LAYOUT
  5
1E
102
{ACAD_REACTORS
330
1A
102
}
330
1A
100
AcDbPlotSettings
  1

  2
none_device
  4

  6

 40
0.0
 41
0.0
 42
0.0
 43
0.0
 44
0.0
 45
0.0
 46
0.0
 47
0.0
 48
0.0
 49
0.0
140
0.0
141
0.0
142
1.0
143
1.0
 70
   688
 72
     0
 73
     0
 74
     5
  7

 75
    16
147
1.0
148
0.0
149
0.0
100
AcDbLayout
  1
Layout1
 70
     1
 71
     1
 10
0.0
 20
0.0
 11
420.0
 21
297.0
 12
0.0
 22
0.0
 32
0.0
 14
1.0000000000E+20
 24
1.0000000000E+20
 34
1.0000000000E+20
 15
-1.0000000000E+20
 25
-1.0000000000E+20
 35
-1.0000000000E+20
146
0.0
 13
0.0
 23
0.0
 33
0.0
 16
1.0
 26
0.0
 36
0.0
 17
0.0
 27
1.0
 37
0.0
 76
     0
330
1B
  0
LAYOUT
  5
26
102
{ACAD_REACTORS
330
1A
102
}
330
1A
100
AcDbPlotSettings
  1

  2
none_device
  4

  6

 40
0.0
 41
0.0
 42
0.0
 43
0.0
 44
0.0
 45
0.0
 46
0.0
 47
0.0
 48
0.0
 49
0.0
140
0.0
141
0.0
142
1.0
143
1.0
 70
   688
 72
     0
 73
     0
 74
     5
  7

 75
    16
147
1.0
148
0.0
149
0.0
100
AcDbLayout
  1
Layout2
 70
     1
 71
     2
 10
0.0
 20
0.0
 11
0.0
 21
0.0
 12
0.0
 22
0.0
 32
0.0
 14
0.0
 24
0.0
 34
0.0
 15
0.0
 25
0.0
 35
0.0
146
0.0
 13
0.0
 23
0.0
 33
0.0
 16
1.0
 26
0.0
 36
0.0
 17
0.0
 27
1.0
 37
0.0
 76
     0
330
23
  0
LAYOUT
  5
22
102
{ACAD_REACTORS
330
1A
102
}
330
1A
100
AcDbPlotSettings
  1

  2
none_device
  4

  6

 40
0.0
 41
0.0
 42
0.0
 43
0.0
 44
0.0
 45
0.0
 46
0.0
 47
0.0
 48
0.0
 49
0.0
140
0.0
141
0.0
142
1.0
143
1.0
 70
  1712
 72
     0
 73
     0
 74
     0
  7

 75
     0
147
1.0
148
0.0
149
0.0
100
AcDbLayout
  1
Model
 70
     1
 71
     0
 10
0.0
 20
0.0
 11
297.0
 21
210.0
 12
0.0
 22
0.0
 32
0.0
 14
0.0
 24
0.0
 34
0.0
 15
297.0
 25
210.0
 35
0.0
146
0.0
 13
0.0
 23
0.0
 33
0.0
 16
1.0
 26
0.0
 36
0.0
 17
0.0
 27
1.0
 37
0.0
 76
     0
330
1F
331
29
  0
MLINESTYLE
  5
18
102
{ACAD_REACTORS
330
17
102
}
330
17
100
AcDbMlineStyle
  2
Standard
 70
     0
  3

 62
   256
 51
90.0
 52
90.0
 71
     2
 49
0.5
 62
   256
  6
BYLAYER
 49
-0.5
 62
   256
  6
BYLAYER
  0
ACDBPLACEHOLDER
  5
F
102
{ACAD_REACTORS
330
E
102
}
330
E
  0
ENDSEC
  0
EOF
