  0
SECTION
  2
HEADER
  9
$ACADVER
  1
AC1015
  9
$ACADMAINTVER
 70
     6
  9
$DWGCODEPAGE
  3
ANSI_1252
  9
$INSBASE
 10
0.0
 20
0.0
 30
0.0
  9
$EXTMIN
 10
0.0
 20
0.0
 30
0.0
  9
$EXTMAX
 10
297.0
 20
210.0
 30
0.0
  9
$LIMMIN
 10
0.0
 20
0.0
  9
$LIMMAX
 10
297.0
 20
210.0
  9
$ORTHOMODE
 70
     0
  9
$REGENMODE
 70
     1
  9
$FILLMODE
 70
     1
  9
$QTEXTMODE
 70
     0
  9
$MIRRTEXT
 70
     1
  9
$LTSCALE
 40
1.0
  9
$ATTMODE
 70
     1
  9
$TEXTSIZE
 40
2.0
  9
$TRACEWID
 40
1.0
  9
$TEXTSTYLE
  7
Standard
  9
$CLAYER
  8
0
  9
$CELTYPE
  6
ByLayer
  9
$CECOLOR
 62
   256
  9
$CELTSCALE
 40
1.0
  9
$DISPSILH
 70
     0
  9
$DIMSCALE
 40
1.0
  9
$DIMASZ
 40
3.0
  9
$DIMEXO
 40
0.0
  9
$DIMDLI
 40
3.75
  9
$DIMRND
 40
0.0
  9
$DIMDLE
 40
0.0
  9
$DIMEXE
 40
1.0
  9
$DIMTP
 40
0.0
  9
$DIMTM
 40
0.0
  9
$DIMTXT
 40
2.0
  9
$DIMCEN
 40
2.5
  9
$DIMTSZ
 40
0.0
  9
$DIMTOL
 70
     0
  9
$DIMLIM
 70
     0
  9
$DIMTIH
 70
     1
  9
$DIMTOH
 70
     1
  9
$DIMSE1
 70
     0
  9
$DIMSE2
 70
     0
  9
$DIMTAD
 70
     1
  9
$DIMZIN
 70
     0
  9
$DIMBLK
  1

  9
$DIMASO
 70
     1
  9
$DIMSHO
 70
     1
  9
$DIMPOST
  1

  9
$DIMAPOST
  1

  9
$DIMALT
 70
     0
  9
$DIMALTD
 70
     3
  9
$DIMALTF
 40
0.0393700787
  9
$DIMLFAC
 40
1.0
  9
$DIMTOFL
 70
     1
  9
$DIMTVP
 40
0.0
  9
$DIMTIX
 70
     0
  9
$DIMSOXD
 70
     0
  9
$DIMSAH
 70
     0
  9
$DIMBLK1
  1

  9
$DIMBLK2
  1

  9
$DIMSTYLE
  2
ISO-25
  9
$DIMCLRD
 70
     0
  9
$DIMCLRE
 70
     0
  9
$DIMCLRT
 70
     0
  9
$DIMTFAC
 40
1.0
  9
$DIMGAP
 40
1.524
  9
$DIMJUST
 70
     0
  9
$DIMSD1
 70
     0
  9
$DIMSD2
 70
     0
  9
$DIMTOLJ
 70
     0
  9
$DIMTZIN
 70
     0
  9
$DIMALTZ
 70
     0
  9
$DIMALTTZ
 70
     0
  9
$DIMUPT
 70
     0
  9
$DIMDEC
 70
     2
  9
$DIMTDEC
 70
     3
  9
$DIMALTU
 70
     2
  9
$DIMALTTD
 70
     3
  9
$DIMTXSTY
  7
Standard
  9
$DIMAUNIT
 70
     0
  9
$DIMADEC
 70
     2
  9
$DIMALTRND
 40
0.0
  9
$DIMAZIN
 70
     0
  9
$DIMDSEP
 70
    44
  9
$DIMATFIT
 70
     3
  9
$DIMFRAC
 70
     0
  9
$DIMLDRBLK
  1

  9
$DIMLUNIT
 70
     2
  9
$DIMLWD
 70
    -2
  9
$DIMLWE
 70
    -2
  9
$DIMTMOVE
 70
     0
  9
$LUNITS
 70
     2
  9
$LUPREC
 70
     2
  9
$SKETCHINC
 40
1.0
  9
$FILLETRAD
 40
10.0
  9
$AUNITS
 70
     0
  9
$AUPREC
 70
     2
  9
$MENU
  1
.
  9
$ELEVATION
 40
0.0
  9
$PELEVATION
 40
0.0
  9
$THICKNESS
 40
0.0
  9
$LIMCHECK
 70
     0
  9
$CHAMFERA
 40
10.0
  9
$CHAMFERB
 40
10.0
  9
$CHAMFERC
 40
20.0
  9
$CHAMFERD
 40
0.0
  9
$SKPOLY
 70
     0
  9
$TDCREATE
 40
2456071.452716771
  9
$TDUCREATE
 40
2456071.369383438
  9
$TDUPDATE
 40
2456071.452718217
  9
$TDUUPDATE
 40
2456071.369384884
  9
$TDINDWG
 40
0.0000000116
  9
$TDUSRTIMER
 40
0.0000000116
  9
$USRTIMER
 70
     1
  9
$ANGBASE
 50
0.0
  9
$ANGDIR
 70
     0
  9
$PDMODE
 70
     0
  9
$PDSIZE
 40
-1.0
  9
$PLINEWID
 40
0.0
  9
$SPLFRAME
 70
     0
  9
$SPLINETYPE
 70
     6
  9
$SPLINESEGS
 70
     8
  9
$HANDSEED
  5
25B
  9
$SURFTAB1
 70
     6
  9
$SURFTAB2
 70
     6
  9
$SURFTYPE
 70
     6
  9
$SURFU
 70
     6
  9
$SURFV
 70
     6
  9
$UCSBASE
  2

  9
$UCSNAME
  2

  9
$UCSORG
 10
0.0
 20
0.0
 30
0.0
  9
$UCSXDIR
 10
1.0
 20
0.0
 30
0.0
  9
$UCSYDIR
 10
0.0
 20
1.0
 30
0.0
  9
$UCSORTHOREF
  2

  9
$UCSORTHOVIEW
 70
     0
  9
$UCSORGTOP
 10
0.0
 20
0.0
 30
0.0
  9
$UCSORGBOTTOM
 10
0.0
 20
0.0
 30
0.0
  9
$UCSORGLEFT
 10
0.0
 20
0.0
 30
0.0
  9
$UCSORGRIGHT
 10
0.0
 20
0.0
 30
0.0
  9
$UCSORGFRONT
 10
0.0
 20
0.0
 30
0.0
  9
$UCSORGBACK
 10
0.0
 20
0.0
 30
0.0
  9
$PUCSBASE
  2

  9
$PUCSNAME
  2

  9
$PUCSORG
 10
0.0
 20
0.0
 30
0.0
  9
$PUCSXDIR
 10
1.0
 20
0.0
 30
0.0
  9
$PUCSYDIR
 10
0.0
 20
1.0
 30
0.0
  9
$PUCSORTHOREF
  2

  9
$PUCSORTHOVIEW
 70
     0
  9
$PUCSORGTOP
 10
0.0
 20
0.0
 30
0.0
  9
$PUCSORGBOTTOM
 10
0.0
 20
0.0
 30
0.0
  9
$PUCSORGLEFT
 10
0.0
 20
0.0
 30
0.0
  9
$PUCSORGRIGHT
 10
0.0
 20
0.0
 30
0.0
  9
$PUCSORGFRONT
 10
0.0
 20
0.0
 30
0.0
  9
$PUCSORGBACK
 10
0.0
 20
0.0
 30
0.0
  9
$USERI1
 70
     0
  9
$USERI2
 70
     0
  9
$USERI3
 70
     0
  9
$USERI4
 70
     0
  9
$USERI5
 70
     0
  9
$USERR1
 40
0.0
  9
$USERR2
 40
0.0
  9
$USERR3
 40
0.0
  9
$USERR4
 40
0.0
  9
$USERR5
 40
0.0
  9
$WORLDVIEW
 70
     1
  9
$SHADEDGE
 70
     3
  9
$SHADEDIF
 70
    70
  9
$TILEMODE
 70
     1
  9
$MAXACTVP
 70
    64
  9
$PINSBASE
 10
0.0
 20
0.0
 30
0.0
  9
$PLIMCHECK
 70
     0
  9
$PEXTMIN
 10
1.0000000000E+20
 20
1.0000000000E+20
 30
1.0000000000E+20
  9
$PEXTMAX
 10
-1.0000000000E+20
 20
-1.0000000000E+20
 30
-1.0000000000E+20
  9
$PLIMMIN
 10
0.0
 20
0.0
  9
$PLIMMAX
 10
420.0
 20
297.0
  9
$UNITMODE
 70
     0
  9
$VISRETAIN
 70
     1
  9
$PLINEGEN
 70
     0
  9
$PSLTSCALE
 70
     1
  9
$TREEDEPTH
 70
  3020
  9
$CMLSTYLE
  2
Standard
  9
$CMLJUST
 70
     0
  9
$CMLSCALE
 40
20.0
  9
$PROXYGRAPHICS
 70
     1
  9
$MEASUREMENT
 70
     1
  9
$CELWEIGHT
370
    -1
  9
$ENDCAPS
280
     0
  9
$JOINSTYLE
280
     0
  9
$LWDISPLAY
290
     1
  9
$INSUNITS
 70
     4
  9
$HYPERLINKBASE
  1

  9
$STYLESHEET
  1

  9
$XEDIT
290
     1
  9
$CEPSNTYPE
380
     0
  9
$PSTYLEMODE
290
     1
  9
$FINGERPRINTGUID
  2
{97957C52-CAF1-4961-ADD8-21FE967E1051}
  9
$VERSIONGUID
  2
{FAEB1C32-E019-11D5-929B-00C0DF256EC4}
  9
$EXTNAMES
290
     1
  9
$PSVPSCALE
 40
0.0
  9
$OLESTARTUP
290
     0
  0
ENDSEC
  0
SECTION
  2
CLASSES
  0
CLASS
  1
ACDBDICTIONARYWDFLT
  2
AcDbDictionaryWithDefault
  3
ObjectDBX Classes
 90
        0
280
     0
281
     0
  0
CLASS
  1
VISUALSTYLE
  2
AcDbVisualStyle
  3
ObjectDBX Classes
 90
     4095
280
     0
281
     0
  0
CLASS
  1
MATERIAL
  2
AcDbMaterial
  3
ObjectDBX Classes
 90
     1153
280
     0
281
     0
  0
CLASS
  1
ACDBPLACEHOLDER
  2
AcDbPlaceHolder
  3
ObjectDBX Classes
 90
        0
280
     0
281
     0
  0
CLASS
  1
LAYOUT
  2
AcDbLayout
  3
ObjectDBX Classes
 90
        0
280
     0
281
     0
  0
ENDSEC
  0
SECTION
  2
TABLES
  0
TABLE
  2
VPORT
  5
8
330
0
100
AcDbSymbolTable
 70
     1
  0
VPORT
  5
29
330
8
100
AcDbSymbolTableRecord
100
AcDbViewportTableRecord
  2
*Active
 70
     0
 10
0.0
 20
0.0
 11
1.0
 21
1.0
 12
148.5
 22
105.0
 13
0.0
 23
0.0
 14
10.0
 24
10.0
 15
10.0
 25
10.0
 16
0.0
 26
0.0
 36
1.0
 17
0.0
 27
0.0
 37
0.0
 40
210.0
 41
1.4142857143
 42
50.0
 43
0.0
 44
0.0
 50
0.0
 51
0.0
 71
     0
 72
  2000
 73
     1
 74
     3
 75
     0
 76
     0
 77
     0
 78
     0
281
     0
 65
     1
110
0.0
120
0.0
130
0.0
111
1.0
121
0.0
131
0.0
112
0.0
122
1.0
132
0.0
 79
     0
146
0.0
  0
ENDTAB
  0
TABLE
  2
LTYPE
  5
5
330
0
100
AcDbSymbolTable
 70
     6
  0
LTYPE
  5
14
330
5
100
AcDbSymbolTableRecord
100
AcDbLinetypeTableRecord
  2
ByBlock
 70
     0
  3

 72
    65
 73
     0
 40
0.0
  0
LTYPE
  5
15
330
5
100
AcDbSymbolTableRecord
100
AcDbLinetypeTableRecord
  2
ByLayer
 70
     0
  3

 72
    65
 73
     0
 40
0.0
  0
LTYPE
  5
16
330
5
100
AcDbSymbolTableRecord
100
AcDbLinetypeTableRecord
  2
Continuous
 70
     0
  3
Solid line
 72
    65
 73
     0
 40
0.0
  0
LTYPE
  5
3F
330
5
100
AcDbSymbolTableRecord
100
AcDbLinetypeTableRecord
  2
HIDDEN
 70
     0
  3
Hidden __ __ __ __ __ __ __ __ __ __ __ __ __ __
 72
    65
 73
     2
 40
1.905
 49
1.27
 74
     0
 49
-0.635
 74
     0
  0
LTYPE
  5
40
330
5
100
AcDbSymbolTableRecord
100
AcDbLinetypeTableRecord
  2
PHANTOM
 70
     0
  3
Phantom ______  __  __  ______  __  __  ______
 72
    65
 73
     6
 40
12.7
 49
6.35
 74
     0
 49
-1.27
 74
     0
 49
1.27
 74
     0
 49
-1.27
 74
     0
 49
1.27
 74
     0
 49
-1.27
 74
     0
  0
LTYPE
  5
41
330
5
100
AcDbSymbolTableRecord
100
AcDbLinetypeTableRecord
  2
CENTER
 70
     0
  3
Center ____ _ ____ _ ____ _ ____ _ ____ _ ____
 72
    65
 73
     4
 40
10.16
 49
6.35
 74
     0
 49
-1.27
 74
     0
 49
1.27
 74
     0
 49
-1.27
 74
     0
  0
LTYPE
  5
42
330
5
100
AcDbSymbolTableRecord
100
AcDbLinetypeTableRecord
  2
CENTERX2
 70
     0
  3
Center (2x) ________  __  ________  __  _____
 72
    65
 73
     4
 40
20.32
 49
12.7
 74
     0
 49
-2.54
 74
     0
 49
2.54
 74
     0
 49
-2.54
 74
     0
  0
LTYPE
  5
43
330
5
100
AcDbSymbolTableRecord
100
AcDbLinetypeTableRecord
  2
DOT2
 70
     0
  3
Dot (.5x) ........................................
 72
    65
 73
     2
 40
0.635
 49
0.0
 74
     0
 49
-0.635
 74
     0
  0
ENDTAB
  0
TABLE
  2
LAYER
  5
2
330
0
100
AcDbSymbolTable
 70
     5
  0
LAYER
  5
10
330
2
100
AcDbSymbolTableRecord
100
AcDbLayerTableRecord
  2
0
 70
     0
 62
     7
  6
Continuous
370
    -3
390
F
  0
LAYER
  5
44
330
2
100
AcDbSymbolTableRecord
100
AcDbLayerTableRecord
  2
FORMAT
 70
     0
 62
     7
  6
Continuous
370
    -3
390
F
  0
LAYER
  5
45
330
2
100
AcDbSymbolTableRecord
100
AcDbLayerTableRecord
  2
VERMASSUNG
 70
     0
 62
     7
  6
Continuous
370
    -3
390
F
  0
LAYER
  5
46
330
2
100
AcDbSymbolTableRecord
100
AcDbLayerTableRecord
  2
KOPF_DÜNN
 70
     0
 62
     7
  6
Continuous
370
    -3
390
F
  0
LAYER
  5
47
330
2
100
AcDbSymbolTableRecord
100
AcDbLayerTableRecord
  2
KOPF_DICK
 70
     0
 62
     7
  6
Continuous
370
    15
390
F
  0
ENDTAB
  0
TABLE
  2
STYLE
  5
3
330
0
100
AcDbSymbolTable
 70
     2
  0
STYLE
  5
11
330
3
100
AcDbSymbolTableRecord
100
AcDbTextStyleTableRecord
  2
Standard
 70
     0
 40
0.0
 41
1.0
 50
0.0
 71
     0
 42
2.0
  3
txt
  4

  0
STYLE
  5
48
330
3
100
AcDbSymbolTableRecord
100
AcDbTextStyleTableRecord
  2
SLDTEXTSTYLE0
 70
     0
 40
0.0
 41
0.7
 50
0.0
 71
     0
 42
0.2
  3
TXT
  4

  0
ENDTAB
  0
TABLE
  2
VIEW
  5
6
330
0
100
AcDbSymbolTable
 70
     0
  0
ENDTAB
  0
TABLE
  2
UCS
  5
7
330
0
100
AcDbSymbolTable
 70
     0
  0
ENDTAB
  0
TABLE
  2
APPID
  5
9
330
0
100
AcDbSymbolTable
 70
     1
  0
APPID
  5
12
330
9
100
AcDbSymbolTableRecord
100
AcDbRegAppTableRecord
  2
ACAD
 70
     0
  0
ENDTAB
  0
TABLE
  2
DIMSTYLE
  5
A
330
0
100
AcDbSymbolTable
 70
     4
100
AcDbDimStyleTable
  0
DIMSTYLE
105
27
330
A
100
AcDbSymbolTableRecord
100
AcDbDimStyleTableRecord
  2
ISO-25
 70
     0
 41
2.5
 42
0.625
 43
3.75
 44
1.25
 73
     0
 74
     0
 77
     1
 78
     8
140
2.5
141
2.5
143
0.0393700787
147
0.625
171
     3
172
     1
178
     0
271
     2
272
     2
274
     3
278
    44
283
     0
284
     8
340
11
  0
DIMSTYLE
105
1B4
102
{ACAD_REACTORS
330
1B3
102
}
330
A
100
AcDbSymbolTableRecord
100
AcDbDimStyleTableRecord
  2
SLDDIMSTYLE0
 70
     0
 41
3.0
 44
0.0
 73
     0
 74
     0
 77
     1
 78
    12
 79
     3
140
2.0
147
0.5
173
     1
178
     0
179
     1
272
     3
276
     2
284
    12
340
48
  0
DIMSTYLE
105
1BE
102
{ACAD_REACTORS
330
1BD
330
1CA
102
}
330
A
100
AcDbSymbolTableRecord
100
AcDbDimStyleTableRecord
  2
SLDDIMSTYLE1
 70
     0
 41
3.0
 44
0.0
 45
0.000000001
 47
0.1
 48
0.1
 71
     1
 73
     0
 74
     0
 77
     1
 78
    12
 79
     3
140
2.0
147
0.5
173
     1
178
     0
271
     2
272
     1
276
     2
284
     8
340
48
  0
DIMSTYLE
105
1D7
102
{ACAD_REACTORS
330
1D6
330
1E1
102
}
330
A
100
AcDbSymbolTableRecord
100
AcDbDimStyleTableRecord
  2
SLDDIMSTYLE2
 70
     0
 41
3.0
 44
0.0
 45
0.000000001
 73
     0
 74
     0
 77
     1
 78
    12
 79
     3
140
2.0
147
0.5
173
     1
178
     0
271
     2
272
     3
276
     2
284
    12
340
48
  0
ENDTAB
  0
TABLE
  2
BLOCK_RECORD
  5
1
330
0
100
AcDbSymbolTable
 70
     7
  0
BLOCK_RECORD
  5
1F
330
1
100
AcDbSymbolTableRecord
100
AcDbBlockTableRecord
  2
*Model_Space
340
22
  0
BLOCK_RECORD
  5
1B
330
1
100
AcDbSymbolTableRecord
100
AcDbBlockTableRecord
  2
*Paper_Space
340
1E
  0
BLOCK_RECORD
  5
23
330
1
100
AcDbSymbolTableRecord
100
AcDbBlockTableRecord
  2
*Paper_Space0
340
26
  0
BLOCK_RECORD
  5
1B5
330
1
100
AcDbSymbolTableRecord
100
AcDbBlockTableRecord
  2
_D
340
0
  0
BLOCK_RECORD
  5
1BF
330
1
100
AcDbSymbolTableRecord
100
AcDbBlockTableRecord
  2
_D_1
340
0
  0
BLOCK_RECORD
  5
1CB
330
1
100
AcDbSymbolTableRecord
100
AcDbBlockTableRecord
  2
_D_2
340
0
  0
BLOCK_RECORD
  5
1D8
330
1
100
AcDbSymbolTableRecord
100
AcDbBlockTableRecord
  2
_D_3
340
0
  0
BLOCK_RECORD
  5
1E2
330
1
100
AcDbSymbolTableRecord
100
AcDbBlockTableRecord
  2
_D_4
340
0
  0
BLOCK_RECORD
  5
24E
330
1
100
AcDbSymbolTableRecord
100
AcDbBlockTableRecord
  2
SW_CENTERMARKSYMBOL_0
340
0
102
{BLKREFS
331
259
102
}
  0
ENDTAB
  0
ENDSEC
  0
SECTION
  2
BLOCKS
  0
BLOCK
  5
20
330
1F
100
AcDbEntity
  8
0
100
AcDbBlockBegin
  2
*Model_Space
 70
     0
 10
0.0
 20
0.0
 30
0.0
  3
*Model_Space
  1

  0
ENDBLK
  5
21
330
1F
100
AcDbEntity
  8
0
100
AcDbBlockEnd
  0
BLOCK
  5
1C
330
1B
100
AcDbEntity
 67
     1
  8
0
100
AcDbBlockBegin
  2
*Paper_Space
 70
     0
 10
0.0
 20
0.0
 30
0.0
  3
*Paper_Space
  1

  0
ENDBLK
  5
1D
330
1B
100
AcDbEntity
 67
     1
  8
0
100
AcDbBlockEnd
  0
BLOCK
  5
24
330
23
100
AcDbEntity
  8
0
100
AcDbBlockBegin
  2
*Paper_Space0
 70
     0
 10
0.0
 20
0.0
 30
0.0
  3
*Paper_Space0
  1

  0
ENDBLK
  5
25
330
23
100
AcDbEntity
  8
0
100
AcDbBlockEnd
  0
BLOCK
  5
1B6
330
1B5
100
AcDbEntity
  8
0
100
AcDbBlockBegin
  2
_D
 70
     0
 10
0.0
 20
0.0
 30
0.0
  3
_D
  1

  0
ARC
  5
1B8
330
1B5
100
AcDbEntity
  8
VERMASSUNG
100
AcDbCircle
 10
243.4135354038
 20
96.9588440632
 30
0.0
 40
13.72078784203176
100
AcDbArc
 50
176.9923752066
 51
270.0
  0
SOLID
  5
1B9
330
1B5
100
AcDbEntity
  8
VERMASSUNG
100
AcDbTrace
 10
229.7116471079
 20
97.6787580381
 30
0.0
 11
229.4276564316
 21
94.658518098
 31
0.0
 12
230.3262887665
 22
94.7081157454
 32
0.0
 13
230.3262887665
 23
94.7081157454
 33
0.0
  0
SOLID
  5
1BA
330
1B5
100
AcDbEntity
  8
VERMASSUNG
100
AcDbTrace
 10
243.4135354038
 20
83.2380562211
 30
0.0
 11
240.4792345309
 21
84.0077174368
 31
0.0
 12
240.382554995
 22
83.1129252445
 32
0.0
 13
240.382554995
 23
83.1129252445
 33
0.0
  0
LINE
  5
1BB
330
1B5
100
AcDbEntity
  8
VERMASSUNG
100
AcDbLine
 10
243.4135354038
 20
92.49240004
 30
0.0
 11
243.4135354038
 21
82.2380562211
 31
0.0
  0
MTEXT
  5
1BC
330
1B5
100
AcDbEntity
  8
VERMASSUNG
100
AcDbMText
 10
233.3343420992
 20
91.3930047079
 30
0.1
 40
2.0
 41
0.0
 71
     1
 72
     1
  1
93°
  7
SLDTEXTSTYLE0
 11
0.6883063085752942
 21
-0.7254201717456249
 31
0.0
 73
     1
 44
1.0
  0
ENDBLK
  5
1B7
330
1B5
100
AcDbEntity
  8
0
100
AcDbBlockEnd
  0
BLOCK
  5
1C0
330
1BF
100
AcDbEntity
  8
0
100
AcDbBlockBegin
  2
_D_1
 70
     0
 10
0.0
 20
0.0
 30
0.0
  3
_D_1
  1

  0
SOLID
  5
1C2
330
1BF
100
AcDbEntity
  8
VERMASSUNG
100
AcDbTrace
 10
178.4135354038
 20
74.3218416062
 30
0.0
 11
181.4135354038
 21
73.8718416062
 31
0.0
 12
181.4135354038
 22
74.7718416062
 32
0.0
 13
181.4135354038
 23
74.7718416062
 33
0.0
  0
SOLID
  5
1C3
330
1BF
100
AcDbEntity
  8
VERMASSUNG
100
AcDbTrace
 10
243.4135354038
 20
74.3218416062
 30
0.0
 11
240.4135354038
 21
74.7718416062
 31
0.0
 12
240.4135354038
 22
73.8718416062
 32
0.0
 13
240.4135354038
 23
73.8718416062
 33
0.0
  0
LINE
  5
1C4
330
1BF
100
AcDbEntity
  8
VERMASSUNG
100
AcDbLine
 10
178.4135354038
 20
110.9823352779
 30
0.0
 11
178.4135354038
 21
73.3218416062
 31
0.0
  0
LINE
  5
1C5
330
1BF
100
AcDbEntity
  8
VERMASSUNG
100
AcDbLine
 10
243.4135354038
 20
96.9823352779
 30
0.0
 11
243.4135354038
 21
73.3218416062
 31
0.0
  0
LINE
  5
1C6
330
1BF
100
AcDbEntity
  8
VERMASSUNG
100
AcDbLine
 10
178.4135354038
 20
74.3218416062
 30
0.0
 11
243.4135354038
 21
74.3218416062
 31
0.0
  0
MTEXT
  5
1C7
330
1BF
100
AcDbEntity
  8
VERMASSUNG
100
AcDbMText
 10
206.3635352168
 20
76.8999769693
 30
0.1
 40
2.0
 41
0.0
 71
     1
 72
     1
  1
65
  7
SLDTEXTSTYLE0
 73
     1
 44
1.0
  0
MTEXT
  5
1C8
330
1BF
100
AcDbEntity
  8
VERMASSUNG
100
AcDbMText
 10
212.1510353189
 20
76.8999769693
 30
0.1
 40
2.0
 41
0.0
 71
     1
 72
     1
  1

  7
SLDTEXTSTYLE0
 73
     1
 44
1.0
  0
MTEXT
  5
1C9
330
1BF
100
AcDbEntity
  8
VERMASSUNG
100
AcDbMText
 10
212.1635356087
 20
76.4054431066
 30
0.1
 40
1.5
 41
0.0
 71
     1
 72
     1
  1
±0.1
  7
SLDTEXTSTYLE0
 73
     1
 44
1.0
  0
ENDBLK
  5
1C1
330
1BF
100
AcDbEntity
  8
0
100
AcDbBlockEnd
  0
BLOCK
  5
1CC
330
1CB
100
AcDbEntity
  8
0
100
AcDbBlockBegin
  2
_D_2
 70
     0
 10
0.0
 20
0.0
 30
0.0
  3
_D_2
  1

  0
SOLID
  5
1CE
330
1CB
100
AcDbEntity
  8
VERMASSUNG
100
AcDbTrace
 10
254.4177809565
 20
96.9823352779
 30
0.0
 11
254.8677809565
 21
99.9823352779
 31
0.0
 12
253.9677809565
 22
99.9823352779
 32
0.0
 13
253.9677809565
 23
99.9823352779
 33
0.0
  0
SOLID
  5
1CF
330
1CB
100
AcDbEntity
  8
VERMASSUNG
100
AcDbTrace
 10
254.4177809565
 20
141.9823352779
 30
0.0
 11
253.9677809565
 21
138.9823352779
 31
0.0
 12
254.8677809565
 22
138.9823352779
 32
0.0
 13
254.8677809565
 23
138.9823352779
 33
0.0
  0
LINE
  5
1D0
330
1CB
100
AcDbEntity
  8
VERMASSUNG
100
AcDbLine
 10
243.4135354038
 20
96.9823352779
 30
0.0
 11
255.4177809565
 21
96.9823352779
 31
0.0
  0
LINE
  5
1D1
330
1CB
100
AcDbEntity
  8
VERMASSUNG
100
AcDbLine
 10
243.4135354038
 20
141.9823352779
 30
0.0
 11
255.4177809565
 21
141.9823352779
 31
0.0
  0
LINE
  5
1D2
330
1CB
100
AcDbEntity
  8
VERMASSUNG
100
AcDbLine
 10
254.4177809565
 20
96.9823352779
 30
0.0
 11
254.4177809565
 21
141.9823352779
 31
0.0
  0
MTEXT
  5
1D3
330
1CB
100
AcDbEntity
  8
VERMASSUNG
100
AcDbMText
 10
251.8396455934
 20
114.8323352608
 30
0.1
 40
2.0
 41
0.0
 71
     1
 72
     1
  1
45
  7
SLDTEXTSTYLE0
 11
6.123233995736766E-17
 21
1.0
 31
0.0
 73
     1
 44
1.0
  0
MTEXT
  5
1D4
330
1CB
100
AcDbEntity
  8
VERMASSUNG
100
AcDbMText
 10
251.8396455934
 20
120.8198354888
 30
0.1
 40
2.0
 41
0.0
 71
     1
 72
     1
  1

  7
SLDTEXTSTYLE0
 11
6.123233995736766E-17
 21
1.0
 31
0.0
 73
     1
 44
1.0
  0
MTEXT
  5
1D5
330
1CB
100
AcDbEntity
  8
VERMASSUNG
100
AcDbMText
 10
252.3341794562
 20
120.832335313
 30
0.1
 40
1.5
 41
0.0
 71
     1
 72
     1
  1
±0.1
  7
SLDTEXTSTYLE0
 11
6.123233995736766E-17
 21
1.0
 31
0.0
 73
     1
 44
1.0
  0
ENDBLK
  5
1CD
330
1CB
100
AcDbEntity
  8
0
100
AcDbBlockEnd
  0
BLOCK
  5
1D9
330
1D8
100
AcDbEntity
  8
0
100
AcDbBlockBegin
  2
_D_3
 70
     0
 10
0.0
 20
0.0
 30
0.0
  3
_D_3
  1

  0
SOLID
  5
1DB
330
1D8
100
AcDbEntity
  8
VERMASSUNG
100
AcDbTrace
 10
140.4135354038
 20
66.0126385049
 30
0.0
 11
143.4135354038
 21
65.5626385049
 31
0.0
 12
143.4135354038
 22
66.4626385049
 32
0.0
 13
143.4135354038
 23
66.4626385049
 33
0.0
  0
SOLID
  5
1DC
330
1D8
100
AcDbEntity
  8
VERMASSUNG
100
AcDbTrace
 10
243.4135354038
 20
66.0126385049
 30
0.0
 11
240.4135354038
 21
66.4626385049
 31
0.0
 12
240.4135354038
 22
65.5626385049
 32
0.0
 13
240.4135354038
 23
65.5626385049
 33
0.0
  0
LINE
  5
1DD
330
1D8
100
AcDbEntity
  8
VERMASSUNG
100
AcDbLine
 10
140.4135354038
 20
121.6899972854
 30
0.0
 11
140.4135354038
 21
65.0126385049
 31
0.0
  0
LINE
  5
1DE
330
1D8
100
AcDbEntity
  8
VERMASSUNG
100
AcDbLine
 10
243.4135354038
 20
96.9823352779
 30
0.0
 11
243.4135354038
 21
65.0126385049
 31
0.0
  0
LINE
  5
1DF
330
1D8
100
AcDbEntity
  8
VERMASSUNG
100
AcDbLine
 10
140.4135354038
 20
66.0126385049
 30
0.0
 11
243.4135354038
 21
66.0126385049
 31
0.0
  0
MTEXT
  5
1E0
330
1D8
100
AcDbEntity
  8
VERMASSUNG
100
AcDbMText
 10
189.1135352709
 20
68.5907738681
 30
0.1
 40
2.0
 41
0.0
 71
     1
 72
     1
  1
103
  7
SLDTEXTSTYLE0
 73
     1
 44
1.0
  0
ENDBLK
  5
1DA
330
1D8
100
AcDbEntity
  8
0
100
AcDbBlockEnd
  0
BLOCK
  5
1E3
330
1E2
100
AcDbEntity
  8
0
100
AcDbBlockBegin
  2
_D_4
 70
     0
 10
0.0
 20
0.0
 30
0.0
  3
_D_4
  1

  0
SOLID
  5
1E5
330
1E2
100
AcDbEntity
  8
VERMASSUNG
100
AcDbTrace
 10
126.2937237506
 20
173.4823352779
 30
0.0
 11
125.8437237506
 21
170.4823352779
 31
0.0
 12
126.7437237506
 22
170.4823352779
 32
0.0
 13
126.7437237506
 23
170.4823352779
 33
0.0
  0
SOLID
  5
1E6
330
1E2
100
AcDbEntity
  8
VERMASSUNG
100
AcDbTrace
 10
126.2937237506
 20
110.4823352779
 30
0.0
 11
126.7437237506
 21
113.4823352779
 31
0.0
 12
125.8437237506
 22
113.4823352779
 32
0.0
 13
125.8437237506
 23
113.4823352779
 33
0.0
  0
LINE
  5
1E7
330
1E2
100
AcDbEntity
  8
VERMASSUNG
100
AcDbLine
 10
178.9135354038
 20
173.4823352779
 30
0.0
 11
125.2937237506
 21
173.4823352779
 31
0.0
  0
LINE
  5
1E8
330
1E2
100
AcDbEntity
  8
VERMASSUNG
100
AcDbLine
 10
178.9135354038
 20
110.4823352779
 30
0.0
 11
125.2937237506
 21
110.4823352779
 31
0.0
  0
LINE
  5
1E9
330
1E2
100
AcDbEntity
  8
VERMASSUNG
100
AcDbLine
 10
126.2937237506
 20
173.4823352779
 30
0.0
 11
126.2937237506
 21
110.4823352779
 31
0.0
  0
MTEXT
  5
1EA
330
1E2
100
AcDbEntity
  8
VERMASSUNG
100
AcDbMText
 10
123.5155882615
 20
135.5773351687
 30
0.4674154055
 40
2.0
 41
0.0
 71
     1
 72
     1
  1
PSC
  7
SLDTEXTSTYLE0
 11
-7.044195017643634E-15
 21
1.0
 31
0.0
 73
     1
 44
1.0
  0
MTEXT
  5
1EB
330
1E2
100
AcDbEntity
  8
VERMASSUNG
100
AcDbMText
 10
123.715588271
 20
140.1773352708
 30
0.4674154055
 40
2.0
 41
0.0
 71
     1
 72
     1
  1
%%c
  7
SLDTEXTSTYLE0
 11
-7.044195017643634E-15
 21
1.0
 31
0.0
 73
     1
 44
1.0
  0
MTEXT
  5
1EC
330
1E2
100
AcDbEntity
  8
VERMASSUNG
100
AcDbMText
 10
123.5155882615
 20
143.7873357508
 30
0.4674154055
 40
2.0
 41
0.0
 71
     1
 72
     1
  1
63
  7
SLDTEXTSTYLE0
 11
-7.044195017643634E-15
 21
1.0
 31
0.0
 73
     1
 44
1.0
  0
ENDBLK
  5
1E4
330
1E2
100
AcDbEntity
  8
0
100
AcDbBlockEnd
  0
BLOCK
  5
24F
330
24E
100
AcDbEntity
  8
0
100
AcDbBlockBegin
  2
SW_CENTERMARKSYMBOL_0
 70
     0
 10
0.0
 20
0.0
 30
0.0
  3
SW_CENTERMARKSYMBOL_0
  1

  0
LINE
  5
251
330
24E
100
AcDbEntity
  8
VERMASSUNG
 62
     0
100
AcDbLine
 10
0.0
 20
0.0
 30
0.0
 11
0.0
 21
2.5
 31
0.0
  0
LINE
  5
252
330
24E
100
AcDbEntity
  8
VERMASSUNG
 62
     0
100
AcDbLine
 10
0.0
 20
0.0
 30
0.0
 11
-2.5
 21
0.0
 31
0.0
  0
LINE
  5
253
330
24E
100
AcDbEntity
  8
VERMASSUNG
 62
     0
100
AcDbLine
 10
0.0
 20
0.0
 30
0.0
 11
0.0
 21
-2.5
 31
0.0
  0
LINE
  5
254
330
24E
100
AcDbEntity
  8
VERMASSUNG
 62
     0
100
AcDbLine
 10
0.0
 20
0.0
 30
0.0
 11
2.5
 21
0.0
 31
0.0
  0
LINE
  5
255
330
24E
100
AcDbEntity
  8
VERMASSUNG
 62
     0
100
AcDbLine
 10
0.0
 20
5.0
 30
0.0
 11
0.0
 21
34.0
 31
0.0
  0
LINE
  5
256
330
24E
100
AcDbEntity
  8
VERMASSUNG
 62
     0
100
AcDbLine
 10
-5.0
 20
0.0
 30
0.0
 11
-34.0
 21
0.0
 31
0.0
  0
LINE
  5
257
330
24E
100
AcDbEntity
  8
VERMASSUNG
 62
     0
100
AcDbLine
 10
0.0
 20
-5.0
 30
0.0
 11
0.0
 21
-49.3696832394
 31
0.0
  0
LINE
  5
258
330
24E
100
AcDbEntity
  8
VERMASSUNG
 62
     0
100
AcDbLine
 10
5.0
 20
0.0
 30
0.0
 11
34.0
 21
0.0
 31
0.0
  0
ENDBLK
  5
250
330
24E
100
AcDbEntity
  8
0
100
AcDbBlockEnd
  0
ENDSEC
  0
SECTION
  2
ENTITIES
  0
MTEXT
  5
49
330
1F
100
AcDbEntity
  8
KOPF_DÜNN
100
AcDbMText
 10
13.8892156294
 20
23.8442973028
 30
0.0
 40
3.0
 41
0.0
 71
     1
 72
     1
  1
PS6.PDF.LJA.065
  7
SLDTEXTSTYLE0
 73
     1
 44
1.0
  0
MTEXT
  5
4A
330
1F
100
AcDbEntity
  8
VERMASSUNG
100
AcDbMText
 10
13.9329988022
 20
28.8834360957
 30
0.0
 40
3.0
 41
0.0
 71
     1
 72
     1
  1
Klemmhalter links_Turning tool left 55°/93°
  7
SLDTEXTSTYLE0
 73
     1
 44
1.0
  0
MTEXT
  5
4B
330
1F
100
AcDbEntity
  8
VERMASSUNG
100
AcDbMText
 10
98.8601118557
 20
13.8365368179
 30
0.0
 40
2.0
 41
0.0
 71
     1
 72
     1
  1
Datum: 23.05.2012
  7
SLDTEXTSTYLE0
 73
     1
 44
1.0
  0
MTEXT
  5
4C
330
1F
100
AcDbEntity
  8
VERMASSUNG
100
AcDbMText
 10
13.933048693
 20
18.0482802738
 30
0.0
 40
2.0
 41
0.0
 71
     1
 72
     1
  1
PSC ø63 / DN..15 06 ..
  7
SLDTEXTSTYLE0
 73
     1
 44
1.0
  0
MTEXT
  5
4D
330
1F
100
AcDbEntity
  8
VERMASSUNG
100
AcDbMText
 10
13.9808475933
 20
13.9090973692
 30
0.0
 40
2.0
 41
0.0
 71
     1
 72
     1
  1
Gewicht: 1292g
  7
SLDTEXTSTYLE0
 73
     1
 44
1.0
  0
LINE
  5
4E
330
1F
100
AcDbEntity
  8
0
  6
Continuous
 62
     7
370
    15
100
AcDbLine
 10
236.0955839332
 20
109.7980324711
 30
0.0
 11
235.7948375221
 21
110.0942116763
 31
0.0
  0
LINE
  5
4F
330
1F
100
AcDbEntity
  8
0
  6
Continuous
 62
     7
370
    15
100
AcDbLine
 10
227.3807105895
 20
98.9247445549
 30
0.0
 11
228.4833778914
 21
97.8388298835
 31
0.0
  0
LINE
  5
50
330
1F
100
AcDbEntity
  8
0
  6
Continuous
 62
     7
370
    15
100
AcDbLine
 10
229.8355390605
 20
103.0846123184
 30
0.0
 11
230.2137156304
 21
102.7434800352
 31
0.0
  0
LINE
  5
51
330
1F
100
AcDbEntity
  8
0
  6
Continuous
 62
     7
370
    15
100
AcDbLine
 10
210.9719430383
 20
173.4823357846
 30
0.0
 11
178.9135354276
 21
173.4823357846
 31
0.0
  0
LINE
  5
52
330
1F
100
AcDbEntity
  8
0
  6
Continuous
 62
     7
370
    15
100
AcDbLine
 10
178.9135354276
 20
110.4823347713
 30
0.0
 11
214.6548134562
 21
110.4823347713
 31
0.0
  0
ARC
  5
53
330
1F
100
AcDbEntity
  8
0
  6
Continuous
 62
     7
370
    15
100
AcDbCircle
 10
178.9135354038
 20
110.9823352779
 30
0.0
 40
0.5
100
AcDbArc
 50
180.0
 51
270.0
  0
ARC
  5
54
330
1F
100
AcDbEntity
  8
0
  6
Continuous
 62
     7
370
    15
100
AcDbCircle
 10
178.9135354038
 20
172.9823352779
 30
0.0
 40
0.5
100
AcDbArc
 50
90.0
 51
180.0
  0
LWPOLYLINE
  5
55
330
1F
100
AcDbEntity
  8
0
  6
Continuous
 62
     7
370
    15
100
AcDbPolyline
 90
        3
 70
   128
 43
0.0
 10
178.2135354089
 20
119.4425147559
 10
178.3389903441
 20
119.3742134209
 10
178.4135354038
 20
119.3214744861
  0
LWPOLYLINE
  5
56
330
1F
100
AcDbEntity
  8
0
  6
Continuous
 62
     7
370
    15
100
AcDbPolyline
 90
        3
 70
   128
 43
0.0
 10
178.4135354038
 20
164.6431960697
 10
178.3389903441
 20
164.590457135
 10
178.2135354089
 20
164.5221558
  0
LINE
  5
57
330
1F
100
AcDbEntity
  8
0
  6
Continuous
 62
     7
370
    15
100
AcDbLine
 10
217.1429162201
 20
107.7602576996
 30
0.0
 11
219.2180668291
 21
100.0156883682
 31
0.0
  0
LINE
  5
58
330
1F
100
AcDbEntity
  8
0
  6
Continuous
 62
     7
370
    15
100
AcDbLine
 10
219.2264375564
 20
99.9804843749
 30
0.0
 11
227.5621545788
 21
99.1043668772
 31
0.0
  0
ARC
  5
59
330
1F
100
AcDbEntity
  8
0
  6
Continuous
 62
     7
370
    15
100
AcDbCircle
 10
199.4134306598
 20
130.1359897878
 30
0.0
 40
2.710590650398634
100
AcDbArc
 50
224.828873109
 51
315.2880894957
  0
ARC
  5
5A
330
1F
100
AcDbEntity
  8
0
  6
Continuous
 62
     7
370
    15
100
AcDbCircle
 10
199.4134817198
 20
130.4279029416
 30
0.0
 40
3.301025455688115
100
AcDbArc
 50
227.7514251395
 51
312.3038192404
  0
LINE
  5
5B
330
1F
100
AcDbEntity
  8
0
  6
Continuous
 62
     7
370
    15
100
AcDbLine
 10
221.2173146483
 20
110.0532819118
 30
0.0
 11
228.4237471696
 21
97.9149822678
 31
0.0
  0
ARC
  5
5C
330
1F
100
AcDbEntity
  8
0
  6
Continuous
 62
     7
370
    15
100
AcDbCircle
 10
221.5690697688
 20
110.2521642725
 30
0.0
 40
0.4040864490110758
100
AcDbArc
 50
86.9944390112
 51
209.4838197857
  0
LINE
  5
5D
330
1F
100
AcDbEntity
  8
0
  6
Continuous
 62
     7
370
    15
100
AcDbLine
 10
235.8475615557
 20
109.9066023315
 30
0.0
 11
221.5902571853
 21
110.6556948806
 31
0.0
  0
ARC
  5
5E
330
1F
100
AcDbEntity
  8
0
  6
Continuous
 62
     7
370
    15
100
AcDbCircle
 10
235.8292570999
 20
109.5275691883
 30
0.0
 40
0.3794748697170179
100
AcDbArc
 50
30.7999602269
 51
87.235191897
  0
LINE
  5
5F
330
1F
100
AcDbEntity
  8
0
  6
Continuous
 62
     7
370
    15
100
AcDbLine
 10
243.3616471764
 20
97.5835767175
 30
0.0
 11
236.1552109297
 21
109.7218763615
 31
0.0
  0
ARC
  5
60
330
1F
100
AcDbEntity
  8
0
  6
Continuous
 62
     7
370
    15
100
AcDbCircle
 10
243.009885465
 20
97.384698306
 30
0.0
 40
0.4040902426201913
100
AcDbArc
 50
266.9948741196
 51
29.4828723907
  0
LINE
  5
61
330
1F
100
AcDbEntity
  8
0
  6
Continuous
 62
     7
370
    15
100
AcDbLine
 10
228.7314002689
 20
97.730260023
 30
0.0
 11
242.988700914
 21
96.9811637486
 31
0.0
  0
ARC
  5
62
330
1F
100
AcDbEntity
  8
0
  6
Continuous
 62
     7
370
    15
100
AcDbCircle
 10
228.7497058077
 20
98.1093054621
 30
0.0
 40
0.379487203477412
100
AcDbArc
 50
210.8016662463
 51
267.2351181275
  0
ARC
  5
63
330
1F
100
AcDbEntity
  8
0
  6
Continuous
 62
     7
370
    15
100
AcDbCircle
 10
243.0104622655
 20
97.3841980467
 30
0.0
 40
0.3838817243319839
100
AcDbArc
 50
266.9941924479
 51
29.4835861488
  0
LINE
  5
64
330
1F
100
AcDbEntity
  8
0
  6
Continuous
 62
     7
370
    15
100
AcDbLine
 10
243.3446300503
 20
97.5731347288
 30
0.0
 11
236.138197529
 21
109.7114343728
 31
0.0
  0
ARC
  5
65
330
1F
100
AcDbEntity
  8
0
  6
Continuous
 62
     7
370
    15
100
AcDbCircle
 10
235.8285499055
 20
109.5268513283
 30
0.0
 40
0.3604893216542634
100
AcDbArc
 50
30.7994558973
 51
87.2371675568
  0
LINE
  5
66
330
1F
100
AcDbEntity
  8
0
  6
Continuous
 62
     7
370
    15
100
AcDbLine
 10
235.8459261533
 20
109.8869216229
 30
0.0
 11
221.5886255082
 21
110.6360178973
 31
0.0
  0
ARC
  5
67
330
1F
100
AcDbEntity
  8
0
  6
Continuous
 62
     7
370
    15
100
AcDbCircle
 10
221.5684984695
 20
110.2526626762
 30
0.0
 40
0.3838832155861748
100
AcDbArc
 50
86.9945980558
 51
209.4831805409
  0
LINE
  5
68
330
1F
100
AcDbEntity
  8
0
  6
Continuous
 62
     7
370
    15
100
AcDbLine
 10
221.2343280491
 20
110.0637276258
 30
0.0
 11
228.4407642957
 21
97.9254242565
 31
0.0
  0
ARC
  5
69
330
1F
100
AcDbEntity
  8
0
  6
Continuous
 62
     7
370
    15
100
AcDbCircle
 10
228.7504108395
 20
98.1100127776
 30
0.0
 40
0.3604911984983145
100
AcDbArc
 50
210.8002914479
 51
267.2367609777
  0
LINE
  5
6A
330
1F
100
AcDbEntity
  8
0
  6
Continuous
 62
     7
370
    15
100
AcDbLine
 10
228.7330319461
 20
97.7499407317
 30
0.0
 11
242.9903325912
 21
97.0008444573
 31
0.0
  0
LINE
  5
6B
330
1F
100
AcDbEntity
  8
0
  6
Continuous
 62
     7
370
    15
100
AcDbLine
 10
223.2325439628
 20
109.3098555292
 30
0.0
 11
221.5195139226
 21
110.2996465351
 31
0.0
  0
LINE
  5
6C
330
1F
100
AcDbEntity
  8
0
  6
Continuous
 62
     7
370
    15
100
AcDbLine
 10
235.4774427887
 20
109.1796231057
 30
0.0
 11
235.776818293
 21
109.5505502607
 31
0.0
  0
LINE
  5
6D
330
1F
100
AcDbEntity
  8
0
  6
Continuous
 62
     7
370
    15
100
AcDbLine
 10
223.8952246782
 20
109.2750352408
 30
0.0
 11
223.2325439628
 21
109.3098555292
 31
0.0
  0
LINE
  5
6E
330
1F
100
AcDbEntity
  8
0
  6
Continuous
 62
     7
370
    15
100
AcDbLine
 10
223.2325439628
 20
109.3098555292
 30
0.0
 11
223.5674997147
 21
108.7456640388
 31
0.0
  0
LINE
  5
6F
330
1F
100
AcDbEntity
  8
0
  6
Continuous
 62
     7
370
    15
100
AcDbLine
 10
228.9386754211
 20
98.617609271
 30
0.0
 11
228.7259501692
 21
98.1613468911
 31
0.0
  0
LINE
  5
70
330
1F
100
AcDbEntity
  8
0
  6
Continuous
 62
     7
370
    15
100
AcDbLine
 10
220.3326774117
 20
110.7719556029
 30
0.0
 11
222.2769213196
 21
107.4971255447
 31
0.0
  0
LINE
  5
71
330
1F
100
AcDbEntity
  8
0
  6
Continuous
 62
     7
370
    15
100
AcDbLine
 10
227.2395220872
 20
99.1382744695
 30
0.0
 11
227.321083593
 21
99.0008969392
 31
0.0
  0
SPLINE
  5
72
330
1F
100
AcDbEntity
  8
0
  6
Continuous
 62
     7
370
    15
100
AcDbSpline
210
0.0
220
0.0
230
1.0
 70
     8
 71
     3
 72
    14
 73
    10
 74
     0
 42
0.00000001
 43
0.00000001
 12
1.0
 22
0.0
 32
0.0
 13
1.0
 23
0.0
 33
0.0
 40
0.0
 40
0.0
 40
0.0
 40
0.0
 40
0.2210561620428944
 40
0.346077360161095
 40
0.4396019915018913
 40
0.5338908366188723
 40
0.6146537757371858
 40
0.7517249858121487
 40
1.0
 40
1.0
 40
1.0
 40
1.0
 10
224.1580662604523
 20
108.755498805188
 30
0.0
 10
224.1875555175774
 20
108.806612495771
 30
0.0
 10
224.2337228090233
 20
108.8866342013032
 30
0.0
 10
224.2636044114807
 20
109.0003642815582
 30
0.0
 10
224.2608034149245
 20
109.0836784164973
 30
0.0
 10
224.231047509736
 20
109.1489022472277
 30
0.0
 10
224.1723478511533
 20
109.2056489827638
 30
0.0
 10
224.0611840353291
 20
109.2586597931537
 30
0.0
 10
223.9602533723595
 20
109.2686187663306
 30
0.0
 10
223.8952246781541
 20
109.2750352407921
 30
0.0
  0
ARC
  5
73
330
1F
100
AcDbEntity
  8
0
  6
Continuous
 62
     7
370
    15
100
AcDbCircle
 10
226.3118974113
 20
107.3998199919
 30
0.0
 40
1.010224804220168
100
AcDbArc
 50
86.994947602
 51
209.4830672522
  0
LWPOLYLINE
  5
74
330
1F
100
AcDbEntity
  8
0
  6
Continuous
 62
     7
370
    15
100
AcDbPolyline
 90
        9
 70
   128
 43
0.0
 10
224.1580662605
 20
108.7554988052
 10
224.1579135236
 20
108.755252936
 10
224.1577607866
 20
108.7550033416
 10
224.1576080497
 20
108.7547574724
 10
224.1574553128
 20
108.7545116033
 10
224.1573025759
 20
108.7542657341
 10
224.157149839
 20
108.7540198649
 10
224.1569971021
 20
108.7537739958
 10
224.1568443652
 20
108.7535244013
  0
SPLINE
  5
75
330
1F
100
AcDbEntity
  8
0
  6
Continuous
 62
     7
370
    15
100
AcDbSpline
210
0.0
220
0.0
230
1.0
 70
     8
 71
     3
 72
    14
 73
    10
 74
     0
 42
0.00000001
 43
0.00000001
 12
1.0
 22
0.0
 32
0.0
 13
1.0
 23
0.0
 33
0.0
 40
0.0
 40
0.0
 40
0.0
 40
0.0
 40
0.2234943729699155
 40
0.356762312851853
 40
0.4531211974527973
 40
0.5344645153183525
 40
0.6157321248045885
 40
0.7396188718354391
 40
1.0
 40
1.0
 40
1.0
 40
1.0
 10
223.5674997147275
 20
108.7456640388001
 30
0.0
 10
223.5993375694276
 20
108.697067890492
 30
0.0
 10
223.6501600869171
 20
108.6194942404905
 30
0.0
 10
223.7416408164116
 20
108.543909425292
 30
0.0
 10
223.8174097515557
 20
108.5126131376178
 30
0.0
 10
223.8866235997272
 20
108.510216576303
 30
0.0
 10
223.9599003819409
 20
108.5339948572684
 30
0.0
 10
224.0610759369495
 20
108.6095363454887
 30
0.0
 10
224.1181623983511
 20
108.6953659736789
 30
0.0
 10
224.1568443652344
 20
108.7535244013298
 30
0.0
  0
LINE
  5
76
330
1F
100
AcDbEntity
  8
0
  6
Continuous
 62
     7
370
    15
100
AcDbLine
 10
225.4324955221
 20
106.9026213671
 30
0.0
 11
229.4656773385
 21
100.1092564847
 31
0.0
  0
LINE
  5
77
330
1F
100
AcDbEntity
  8
0
  6
Continuous
 62
     7
370
    15
100
AcDbLine
 10
234.3441536006
 20
107.9894114818
 30
0.0
 11
226.3648574527
 21
108.4086556519
 31
0.0
  0
ARC
  5
78
330
1F
100
AcDbEntity
  8
0
  6
Continuous
 62
     7
370
    15
100
AcDbCircle
 10
234.298404928
 20
107.0418264438
 30
0.0
 40
0.9486887504645617
100
AcDbArc
 50
30.800711588
 51
87.2359503133
  0
LINE
  5
79
330
1F
100
AcDbEntity
  8
0
  6
Continuous
 62
     7
370
    15
100
AcDbLine
 10
239.1464625772
 20
100.7342409874
 30
0.0
 11
235.1132844862
 21
107.5276058699
 31
0.0
  0
ARC
  5
7A
330
1F
100
AcDbEntity
  8
0
  6
Continuous
 62
     7
370
    15
100
AcDbCircle
 10
238.2670647812
 20
100.2370399597
 30
0.0
 40
1.010222423829044
100
AcDbArc
 50
266.9949196243
 51
29.4833001446
  0
LINE
  5
7B
330
1F
100
AcDbEntity
  8
0
  6
Continuous
 62
     7
370
    15
100
AcDbLine
 10
230.2348082241
 20
99.6474508728
 30
0.0
 11
238.2141043719
 21
99.2282067026
 31
0.0
  0
ARC
  5
7C
330
1F
100
AcDbEntity
  8
0
  6
Continuous
 62
     7
370
    15
100
AcDbCircle
 10
230.2805490281
 20
100.5950228058
 30
0.0
 40
0.9486752813308694
100
AcDbArc
 50
210.800275083
 51
267.2363868182
  0
LWPOLYLINE
  5
7D
330
1F
100
AcDbEntity
  8
0
  6
Continuous
 62
     7
370
    15
100
AcDbPolyline
 90
       27
 70
   128
 43
0.0
 10
232.0789126035
 20
101.2799215104
 10
232.690996426
 20
101.3218459274
 10
233.2797413048
 20
101.5088666762
 10
233.810937899
 20
101.8301096345
 10
234.2537110027
 20
102.2669036473
 10
234.5823337611
 20
102.7938683118
 10
234.7777028855
 20
103.3803780164
 10
234.8284636911
 20
103.9923463549
 10
234.7316694733
 20
104.5942079808
 10
234.4929416951
 20
105.1509824182
 10
234.1261607882
 20
105.6303117956
 10
233.652635413
 20
106.0043458427
 10
233.0998917397
 20
106.2513400401
 10
232.5000454959
 20
106.3569408442
 10
231.8879653987
 20
106.3150164272
 10
231.2992205199
 20
106.1279956783
 10
230.7680239257
 20
105.80675272
 10
230.3252470967
 20
105.3699587072
 10
229.9966280636
 20
104.8429903175
 10
229.8012589391
 20
104.2564806129
 10
229.7504981335
 20
103.6445159997
 10
229.8472923514
 20
103.0426543738
 10
230.0860164043
 20
102.4858799364
 10
230.4528010365
 20
102.0065468337
 10
230.9263226863
 20
101.6325165118
 10
231.4790700849
 20
101.3855223145
 10
232.0789126035
 20
101.2799215104
  0
LWPOLYLINE
  5
7E
330
1F
100
AcDbEntity
  8
0
  6
Continuous
 62
     7
370
    15
100
AcDbPolyline
 90
        3
 70
   128
 43
0.0
 10
230.0165695425
 20
102.613251337
 10
230.376402783
 20
102.4714369859
 10
230.7432209429
 20
102.3889814104
  0
LINE
  5
7F
330
1F
100
AcDbEntity
  8
0
  6
Continuous
 62
     7
370
    15
100
AcDbLine
 10
241.0685819861
 20
98.6006256725
 30
0.0
 11
242.9832545396
 21
97.4122506167
 31
0.0
  0
LINE
  5
80
330
1F
100
AcDbEntity
  8
0
  6
Continuous
 62
     7
370
    15
100
AcDbLine
 10
241.0685819861
 20
98.6006256725
 30
0.0
 11
240.7336262342
 21
99.1648134376
 31
0.0
  0
SPLINE
  5
81
330
1F
100
AcDbEntity
  8
0
  6
Continuous
 62
     7
370
    15
100
AcDbSpline
210
0.0
220
0.0
230
1.0
 70
     8
 71
     3
 72
    11
 73
     7
 74
     0
 42
0.00000001
 43
0.00000001
 12
1.0
 22
0.0
 32
0.0
 13
1.0
 23
0.0
 33
0.0
 40
0.0
 40
0.0
 40
0.0
 40
0.0
 40
0.3280476048302102
 40
0.6557009334779796
 40
0.9906979647491624
 40
1.0
 40
1.0
 40
1.0
 40
1.0
 10
235.4774427887155
 20
109.1796231056679
 30
0.0
 10
235.4332763368188
 20
109.1214102861229
 30
0.0
 10
235.3449965161141
 20
109.0050546122693
 30
0.0
 10
235.2183725474463
 20
108.7948511330332
 30
0.0
 10
235.1470072686978
 20
108.6539650037261
 30
0.0
 10
235.116311718693
 20
108.585747536058
 30
0.0
 10
235.115482407446
 20
108.5839044834603
 30
0.0
  0
SPLINE
  5
82
330
1F
100
AcDbEntity
  8
0
  6
Continuous
 62
     7
370
    15
100
AcDbSpline
210
0.0
220
0.0
230
1.0
 70
     8
 71
     3
 72
    11
 73
     7
 74
     0
 42
0.00000001
 43
0.00000001
 12
1.0
 22
0.0
 32
0.0
 13
1.0
 23
0.0
 33
0.0
 40
0.0
 40
0.0
 40
0.0
 40
0.0
 40
0.3280454200254532
 40
0.6557033540922593
 40
0.9906997787999897
 40
1.0
 40
1.0
 40
1.0
 40
1.0
 10
228.9386754211141
 20
98.61760927095301
 30
0.0
 10
228.9727420836687
 20
98.6857674952972
 30
0.0
 10
229.0408351693704
 20
98.82200343575938
 30
0.0
 10
229.171823910738
 20
99.02790360918475
 30
0.0
 10
229.2628802314478
 20
99.14941688280071
 30
0.0
 10
229.3079166551855
 20
99.203496358466
 30
0.0
 10
229.3091331895543
 20
99.20495716586001
 30
0.0
  0
LINE
  5
83
330
1F
100
AcDbEntity
  8
0
  6
Continuous
 62
     7
370
    15
100
AcDbLine
 10
240.4058975455
 20
98.6354422356
 30
0.0
 11
241.0685819861
 21
98.6006256725
 31
0.0
  0
ARC
  5
84
330
1F
100
AcDbEntity
  8
0
  6
Continuous
 62
     7
370
    15
100
AcDbCircle
 10
227.6447896766
 20
99.192937405
 30
0.0
 40
0.3763843369018581
100
AcDbArc
 50
210.6787768852
 51
225.4428123041
  0
ARC
  5
85
330
1F
100
AcDbEntity
  8
0
  6
Continuous
 62
     7
370
    15
100
AcDbCircle
 10
240.2640664306
 20
99.0816827903
 30
0.0
 40
0.1414740887680533
100
AcDbArc
 50
147.8564103225
 51
148.7959840293
  0
SPLINE
  5
86
330
1F
100
AcDbEntity
  8
0
  6
Continuous
 62
     7
370
    15
100
AcDbSpline
210
0.0
220
0.0
230
1.0
 70
     8
 71
     3
 72
    14
 73
    10
 74
     0
 42
0.00000001
 43
0.00000001
 12
1.0
 22
0.0
 32
0.0
 13
1.0
 23
0.0
 33
0.0
 40
0.0
 40
0.0
 40
0.0
 40
0.0
 40
0.223500190300165
 40
0.3567649453239944
 40
0.4531235676114049
 40
0.5344621040448243
 40
0.6157339721840766
 40
0.7396166140435574
 40
1.0
 40
1.0
 40
1.0
 40
1.0
 10
240.7336262341691
 20
99.16481343760378
 30
0.0
 10
240.7017875955989
 20
99.21341151257704
 30
0.0
 10
240.6509647746722
 20
99.29098679131573
 30
0.0
 10
240.5594804152214
 20
99.36656771891624
 30
0.0
 10
240.4837135445688
 20
99.3978642628974
 30
0.0
 10
240.4145002234908
 20
99.40026012534439
 30
0.0
 10
240.3412233070073
 20
99.37648448686659
 30
0.0
 10
240.2400501337821
 20
99.30093800463207
 30
0.0
 10
240.1829616899543
 20
99.2151107072444
 30
0.0
 10
240.1442778583718
 20
99.15695307507403
 30
0.0
  0
SPLINE
  5
87
330
1F
100
AcDbEntity
  8
0
  6
Continuous
 62
     7
370
    15
100
AcDbSpline
210
0.0
220
0.0
230
1.0
 70
     8
 71
     3
 72
    14
 73
    10
 74
     0
 42
0.00000001
 43
0.00000001
 12
1.0
 22
0.0
 32
0.0
 13
1.0
 23
0.0
 33
0.0
 40
0.0
 40
0.0
 40
0.0
 40
0.0
 40
0.2210581852095183
 40
0.3460792853367523
 40
0.4396038957359299
 40
0.5338886741959938
 40
0.6146579505258861
 40
0.7517251314594748
 40
1.0
 40
1.0
 40
1.0
 40
1.0
 10
240.1430596884442
 20
99.15497867121584
 30
0.0
 10
240.1135687721973
 20
99.10386514625732
 30
0.0
 10
240.0673990490135
 20
99.02384398724925
 30
0.0
 10
240.0375180860885
 20
98.91011328104152
 30
0.0
 10
240.0403181547847
 20
98.8267997410702
 30
0.0
 10
240.0700765112845
 20
98.76157706149588
 30
0.0
 10
240.12877614777
 20
98.70483008968161
 30
0.0
 10
240.239938373905
 20
98.65181649172439
 30
0.0
 10
240.3408685187209
 20
98.64185828317649
 30
0.0
 10
240.4058975454522
 20
98.63544223561175
 30
0.0
  0
LINE
  5
88
330
1F
100
AcDbEntity
  8
0
  6
Continuous
 62
     7
370
    15
100
AcDbLine
 10
220.128617185
 20
110.7826769884
 30
0.0
 11
220.18629958
 21
110.6686551656
 31
0.0
  0
LINE
  5
89
330
1F
100
AcDbEntity
  8
0
  6
Continuous
 62
     7
370
    15
100
AcDbLine
 10
220.6864049014
 20
110.1761457111
 30
0.0
 11
222.2769213196
 21
107.4971255447
 31
0.0
  0
LINE
  5
8A
330
1F
100
AcDbEntity
  8
0
  6
Continuous
 62
     7
370
    15
100
AcDbLine
 10
220.18629958
 20
110.6686551656
 30
0.0
 11
221.7768159982
 21
107.9896349992
 31
0.0
  0
LWPOLYLINE
  5
8B
330
1F
100
AcDbEntity
  8
0
  6
Continuous
 62
     7
370
    15
100
AcDbPolyline
 90
       31
 70
   128
 43
0.0
 10
221.2637690183
 20
118.8107483621
 10
221.8770970877
 20
119.207769313
 10
222.5556661662
 20
119.4710039134
 10
223.2698154923
 20
119.5889484669
 10
223.9883345839
 20
119.5564453091
 10
224.6798192438
 20
119.3749175008
 10
225.3140499171
 20
119.0522999103
 10
225.863310444
 20
118.6026890363
 10
226.3035876032
 20
118.0457357849
 10
226.6156477209
 20
117.4057849283
 10
226.7858487841
 20
116.7108022208
 10
226.8067476627
 20
115.9911618169
 10
226.6774391111
 20
115.2783163424
 10
226.4035706695
 20
114.6034204002
 10
225.9971116956
 20
113.9959708388
 10
225.4758243736
 20
113.4825159396
 10
224.8624925789
 20
113.0854949887
 10
224.1839272257
 20
112.8222603883
 10
223.4697778996
 20
112.7043176974
 10
222.751258808
 20
112.7368189926
 10
222.0597741481
 20
112.9183468009
 10
221.4255397495
 20
113.240966254
 10
220.8762829479
 20
113.6905752654
 10
220.4360020634
 20
114.2475285168
 10
220.1239419457
 20
114.8874793734
 10
219.9537446078
 20
115.5824620809
 10
219.9328420039
 20
116.3021024848
 10
220.0621505555
 20
117.0149479593
 10
220.3360227224
 20
117.6898439015
 10
220.7424816962
 20
118.2972934629
 10
221.2637690183
 20
118.8107483621
  0
LWPOLYLINE
  5
8C
330
1F
100
AcDbEntity
  8
0
  6
Continuous
 62
     7
370
    15
100
AcDbPolyline
 90
       24
 70
   128
 43
0.0
 10
222.1663509783
 20
117.6689841385
 10
222.6316434618
 20
117.9500982697
 10
223.1516828116
 20
118.0974558528
 10
223.6879010972
 20
118.1001306112
 10
224.200523394
 20
117.957923242
 10
224.6515368398
 20
117.681380042
 10
225.0074883279
 20
117.2910124595
 10
225.2419767257
 20
116.8157715882
 10
225.3376198288
 20
116.2909023996
 10
225.2873135086
 20
115.7553341772
 10
225.0947942313
 20
115.2487878288
 10
224.7743410345
 20
114.8088291819
 10
224.3497212704
 20
114.4680899168
 10
223.8524210926
 20
114.2518405403
 10
223.3193283256
 20
114.1761184271
 10
222.7899794754
 20
114.2465413149
 10
222.303631651
 20
114.4578844841
 10
221.8963568386
 20
114.7944737758
 10
221.5983596917
 20
115.2313478823
 10
221.4317423578
 20
115.7361042286
 10
221.4088616248
 20
116.2713073726
 10
221.5314124998
 20
116.797264346
 10
221.7903089997
 20
117.2749657716
 10
222.1663509783
 20
117.6689841385
  0
SPLINE
  5
8D
330
1F
100
AcDbEntity
  8
0
  6
Continuous
 62
     7
370
    15
100
AcDbSpline
210
0.0
220
0.0
230
1.0
 70
     8
 71
     3
 72
    11
 73
     7
 74
     0
 42
0.00000001
 43
0.00000001
 12
1.0
 22
0.0
 32
0.0
 13
1.0
 23
0.0
 33
0.0
 40
0.0
 40
0.0
 40
0.0
 40
0.0
 40
0.1081111470154567
 40
0.4711578215517929
 40
0.8135812380226531
 40
0.9999999999999999
 40
0.9999999999999999
 40
0.9999999999999999
 40
0.9999999999999999
 10
223.5506949301911
 20
114.5089097852934
 30
0.0
 10
223.5914855111941
 20
114.5503229592217
 30
0.0
 10
223.7692544260168
 20
114.7308051883929
 30
0.0
 10
224.1258344264376
 20
115.056532093573
 30
0.0
 10
224.5656732209467
 20
115.3795339054386
 30
0.0
 10
224.8136070627441
 20
115.5369724296038
 30
0.0
 10
224.9010046299649
 20
115.5924700732458
 30
0.0
  0
SPLINE
  5
8E
330
1F
100
AcDbEntity
  8
0
  6
Continuous
 62
     7
370
    15
100
AcDbSpline
210
0.0
220
0.0
230
1.0
 70
     8
 71
     3
 72
    10
 73
     6
 74
     0
 42
0.00000001
 43
0.00000001
 12
1.0
 22
0.0
 32
0.0
 13
1.0
 23
0.0
 33
0.0
 40
0.0
 40
0.0
 40
0.0
 40
0.0
 40
0.4391159758689146
 40
0.7513673544942021
 40
1.0
 40
1.0
 40
1.0
 40
1.0
 10
224.9010046299649
 20
115.5924700732458
 30
0.0
 10
224.8506063307393
 20
115.8510503913686
 30
0.0
 10
224.7643702590835
 20
116.2935048230655
 30
0.0
 10
224.6969510670322
 20
116.8796287009738
 30
0.0
 10
224.6807551140647
 20
117.15426836248
 30
0.0
 10
224.6735756572438
 20
117.2760125781525
 30
0.0
  0
SPLINE
  5
8F
330
1F
100
AcDbEntity
  8
0
  6
Continuous
 62
     7
370
    15
100
AcDbSpline
210
0.0
220
0.0
230
1.0
 70
     8
 71
     3
 72
    10
 73
     6
 74
     0
 42
0.00000001
 43
0.00000001
 12
1.0
 22
0.0
 32
0.0
 13
1.0
 23
0.0
 33
0.0
 40
0.0
 40
0.0
 40
0.0
 40
0.0
 40
0.439117611476377
 40
0.7513676368617866
 40
0.9999999999999999
 40
0.9999999999999999
 40
0.9999999999999999
 40
0.9999999999999999
 10
224.6735756572438
 20
117.2760125781525
 30
0.0
 10
224.4298699427442
 20
117.3794742182098
 30
0.0
 10
224.0128687066114
 20
117.5565058971131
 30
0.0
 10
223.4646256633066
 20
117.7567888761519
 30
0.0
 10
223.2091058293996
 20
117.8393847644442
 30
0.0
 10
223.0958369847489
 20
117.875998520397
 30
0.0
  0
SPLINE
  5
90
330
1F
100
AcDbEntity
  8
0
  6
Continuous
 62
     7
370
    15
100
AcDbSpline
210
0.0
220
0.0
230
1.0
 70
     8
 71
     3
 72
    11
 73
     7
 74
     0
 42
0.00000001
 43
0.00000001
 12
1.0
 22
0.0
 32
0.0
 13
1.0
 23
0.0
 33
0.0
 40
0.0
 40
0.0
 40
0.0
 40
0.0
 40
0.1864191384359334
 40
0.5288413974013626
 40
0.8918901134697973
 40
1.0
 40
1.0
 40
1.0
 40
1.0
 10
223.0958369847489
 20
117.875998520397
 30
0.0
 10
223.0084393214293
 20
117.8205010081305
 30
0.0
 10
222.7605060738702
 20
117.6630634071117
 30
0.0
 10
222.3206710749366
 20
117.3400572713215
 30
0.0
 10
221.9640856217009
 20
117.0143366347872
 30
0.0
 10
221.7863202378626
 20
116.8338515175597
 30
0.0
 10
221.7455310102654
 20
116.7924382324446
 30
0.0
  0
SPLINE
  5
91
330
1F
100
AcDbEntity
  8
0
  6
Continuous
 62
     7
370
    15
100
AcDbSpline
210
0.0
220
0.0
230
1.0
 70
     8
 71
     3
 72
    10
 73
     6
 74
     0
 42
0.00000001
 43
0.00000001
 12
1.0
 22
0.0
 32
0.0
 13
1.0
 23
0.0
 33
0.0
 40
0.0
 40
0.0
 40
0.0
 40
0.0
 40
0.4391157409087498
 40
0.7513671444630872
 40
1.0
 40
1.0
 40
1.0
 40
1.0
 10
221.7455310102654
 20
116.7924382324446
 30
0.0
 10
221.7602489974407
 20
116.5689952770179
 30
0.0
 10
221.7854328179371
 20
116.186663969509
 30
0.0
 10
221.8799838656439
 20
115.57381531428
 30
0.0
 10
221.9444035545505
 20
115.2516898480796
 30
0.0
 10
221.9729599829865
 20
115.1088957275379
 30
0.0
  0
SPLINE
  5
92
330
1F
100
AcDbEntity
  8
0
  6
Continuous
 62
     7
370
    15
100
AcDbSpline
210
0.0
220
0.0
230
1.0
 70
     8
 71
     3
 72
    10
 73
     6
 74
     0
 42
0.00000001
 43
0.00000001
 12
1.0
 22
0.0
 32
0.0
 13
1.0
 23
0.0
 33
0.0
 40
0.0
 40
0.0
 40
0.0
 40
0.0
 40
0.4391166424764328
 40
0.751368394375007
 40
1.0
 40
1.0
 40
1.0
 40
1.0
 10
221.9729599829865
 20
115.1088957275379
 30
0.0
 10
222.1809850482308
 20
115.0405712139462
 30
0.0
 10
222.5369347985769
 20
114.9236617755237
 30
0.0
 10
223.1123139377571
 20
114.6966563237247
 30
0.0
 10
223.4160521193894
 20
114.5665736030432
 30
0.0
 10
223.5506949301911
 20
114.5089097852934
 30
0.0
  0
LINE
  5
93
330
1F
100
AcDbEntity
  8
0
  6
Continuous
 62
     7
370
    15
100
AcDbLine
 10
221.8914320048
 20
115.5316714729
 30
0.0
 11
222.1137647804
 21
115.4471222843
 31
0.0
  0
LINE
  5
94
330
1F
100
AcDbEntity
  8
0
  6
Continuous
 62
     7
370
    15
100
AcDbLine
 10
222.1137647804
 20
115.4471222843
 30
0.0
 11
222.902632254
 21
115.1471283819
 31
0.0
  0
LINE
  5
95
330
1F
100
AcDbEntity
  8
0
  6
Continuous
 62
     7
370
    15
100
AcDbLine
 10
222.902632254
 20
115.1471283819
 30
0.0
 11
223.5506949302
 21
114.5089097853
 31
0.0
  0
LINE
  5
96
330
1F
100
AcDbEntity
  8
0
  6
Continuous
 62
     7
370
    15
100
AcDbLine
 10
224.2529419538
 20
116.2306868072
 30
0.0
 11
224.90100463
 21
115.5924700732
 31
0.0
  0
LINE
  5
97
330
1F
100
AcDbEntity
  8
0
  6
Continuous
 62
     7
370
    15
100
AcDbLine
 10
224.2529419538
 20
116.2306868072
 30
0.0
 11
224.1392237421
 21
117.072458991
 31
0.0
  0
LINE
  5
98
330
1F
100
AcDbEntity
  8
0
  6
Continuous
 62
     7
370
    15
100
AcDbLine
 10
224.1392237421
 20
117.072458991
 30
0.0
 11
224.0785201367
 21
117.5218370344
 31
0.0
  0
LINE
  5
99
330
1F
100
AcDbEntity
  8
0
  6
Continuous
 62
     7
370
    15
100
AcDbLine
 10
222.902632254
 20
115.1471283819
 30
0.0
 11
223.5777852412
 21
115.6889085258
 31
0.0
  0
LINE
  5
9A
330
1F
100
AcDbEntity
  8
0
  6
Continuous
 62
     7
370
    15
100
AcDbLine
 10
223.5777852412
 20
115.6889085258
 30
0.0
 11
224.2529419538
 21
116.2306868072
 31
0.0
  0
ARC
  5
9B
330
1F
100
AcDbEntity
  8
0
  6
Continuous
 62
     7
370
    15
100
AcDbCircle
 10
222.714840362
 20
116.8814449126
 30
0.0
 40
1.437134089666988
100
AcDbArc
 50
7.6379671236
 51
29.6681209767
  0
ARC
  5
9C
330
1F
100
AcDbEntity
  8
0
  6
Continuous
 62
     7
370
    15
100
AcDbCircle
 10
222.6310952997
 20
116.8787608391
 30
0.0
 40
1.520516482242815
100
AcDbArc
 50
308.507038573
 51
7.3187794762
  0
ARC
  5
9D
330
1F
100
AcDbEntity
  8
0
  6
Continuous
 62
     7
370
    15
100
AcDbCircle
 10
222.6342664227
 20
116.8487040775
 30
0.0
 40
1.495109856340728
100
AcDbArc
 50
249.6266499816
 51
309.1291015573
  0
LWPOLYLINE
  5
9E
330
1F
100
AcDbEntity
  8
0
  6
Continuous
 62
     7
370
    15
100
AcDbPolyline
 90
        3
 70
   128
 43
0.0
 10
222.1137647804
 20
115.4471222843
 10
221.9402221318
 20
115.5267801668
 10
221.8649675425
 20
115.5706827129
  0
ELLIPSE
  5
9F
330
1F
100
AcDbEntity
  8
0
  6
Continuous
 62
     7
370
    15
100
AcDbEllipse
 10
231.791364259
 20
104.4851891048
 30
0.0
 11
1.636441407150699
 21
1.686705215780748
 31
0.0
210
0.0
220
0.0
230
1.0
 40
0.9711043057
 41
4.542334012156848
 42
6.227598874547259
  0
ELLIPSE
  5
A0
330
1F
100
AcDbEntity
  8
0
  6
Continuous
 62
     7
370
    15
100
AcDbEllipse
 10
231.791364259
 20
104.4851891048
 30
0.0
 11
1.636441407150699
 21
1.686705215780748
 31
0.0
210
0.0
220
0.0
230
1.0
 40
0.9711043057
 41
2.888309246408101
 42
4.542334012156865
  0
SPLINE
  5
A1
330
1F
100
AcDbEntity
  8
0
  6
Continuous
 62
     7
370
    15
100
AcDbSpline
210
0.0
220
0.0
230
1.0
 70
     8
 71
     3
 72
    12
 73
     8
 74
     0
 42
0.00000001
 43
0.00000001
 12
1.0
 22
0.0
 32
0.0
 13
1.0
 23
0.0
 33
0.0
 40
0.0
 40
0.0
 40
0.0
 40
0.0
 40
0.5000000000000029
 40
0.5000000000000029
 40
0.7500000000000014
 40
0.7500000000000014
 40
1.0
 40
1.0
 40
1.0
 40
1.0
 10
188.5082795155172
 20
151.8917045986228
 30
0.0
 10
188.5390017574363
 20
151.7791487992136
 30
0.0
 10
188.5818389719715
 20
151.666390939474
 30
0.0
 10
188.6812659961713
 20
151.5168500536776
 30
0.0
 10
188.7210181909879
 20
151.4695573219707
 30
0.0
 10
188.8190596478462
 20
151.3958210286493
 30
0.0
 10
188.8786157034336
 20
151.3704017092736
 30
0.0
 10
188.9412922174094
 20
151.3704017092736
 30
0.0
  0
LINE
  5
A2
330
1F
100
AcDbEntity
  8
0
  6
Continuous
 62
     7
370
    15
100
AcDbLine
 10
188.9412924003
 20
151.3704021062
 30
0.0
 11
191.885778616
 21
151.3704021062
 31
0.0
  0
SPLINE
  5
A3
330
1F
100
AcDbEntity
  8
0
  6
Continuous
 62
     7
370
    15
100
AcDbSpline
210
0.0
220
0.0
230
1.0
 70
     8
 71
     3
 72
    12
 73
     8
 74
     0
 42
0.00000001
 43
0.00000001
 12
1.0
 22
0.0
 32
0.0
 13
1.0
 23
0.0
 33
0.0
 40
0.0
 40
0.0
 40
0.0
 40
0.0
 40
0.2499999999999977
 40
0.2499999999999977
 40
0.4999999999999953
 40
0.4999999999999953
 40
1.0
 40
1.0
 40
1.0
 40
1.0
 10
191.8857785902765
 20
151.3704017092736
 30
0.0
 10
191.9488586287699
 20
151.3704017092736
 30
0.0
 10
192.0080072509513
 20
151.3957660284885
 30
0.0
 10
192.1064798010204
 20
151.4699308888614
 30
0.0
 10
192.1455164130051
 20
151.5164512294155
 30
0.0
 10
192.2454128797842
 20
151.6665935722608
 30
0.0
 10
192.2878337608508
 20
151.7782867792329
 30
0.0
 10
192.3187912921688
 20
151.8917045986227
 30
0.0
  0
ELLIPSE
  5
A4
330
1F
100
AcDbEntity
  8
0
  6
Continuous
 62
     7
370
    15
100
AcDbEllipse
 10
176.0663812145
 20
141.9823352779
 30
0.0
 11
14.75368316065604
 21
31.09325491558116
 31
0.0
210
0.0
220
0.0
230
1.0
 40
0.3419987131
 41
5.193281737408618
 42
6.124043104552319
  0
SPLINE
  5
A5
330
1F
100
AcDbEntity
  8
0
  6
Continuous
 62
     7
370
    15
100
AcDbSpline
210
0.0
220
0.0
230
1.0
 70
     8
 71
     3
 72
    12
 73
     8
 74
     0
 42
0.00000001
 43
0.00000001
 12
1.0
 22
0.0
 32
0.0
 13
1.0
 23
0.0
 33
0.0
 40
0.0
 40
0.0
 40
0.0
 40
0.0
 40
0.4999999999999982
 40
0.4999999999999982
 40
0.7499999999999991
 40
0.7499999999999991
 40
1.0
 40
1.0
 40
1.0
 40
1.0
 10
192.3187912921688
 20
171.8830777380548
 30
0.0
 10
192.2880690502497
 20
171.9203797210079
 30
0.0
 10
192.2452318357145
 20
171.9569915530543
 30
0.0
 10
192.1458048115147
 20
172.0047563363395
 30
0.0
 10
192.1060526166981
 20
172.0197138518218
 30
0.0
 10
192.0080111598398
 20
172.042903797591
 30
0.0
 10
191.9484551042524
 20
172.0508272368107
 30
0.0
 10
191.8857785902765
 20
172.0508272368107
 30
0.0
  0
LINE
  5
A6
330
1F
100
AcDbEntity
  8
0
  6
Continuous
 62
     7
370
    15
100
AcDbLine
 10
191.885778616
 20
172.0508277948
 30
0.0
 11
188.9412924003
 21
172.0508277948
 31
0.0
  0
SPLINE
  5
A7
330
1F
100
AcDbEntity
  8
0
  6
Continuous
 62
     7
370
    15
100
AcDbSpline
210
0.0
220
0.0
230
1.0
 70
     8
 71
     3
 72
    12
 73
     8
 74
     0
 42
0.00000001
 43
0.00000001
 12
1.0
 22
0.0
 32
0.0
 13
1.0
 23
0.0
 33
0.0
 40
0.0
 40
0.0
 40
0.0
 40
0.0
 40
0.2500000000000023
 40
0.2500000000000023
 40
0.5000000000000046
 40
0.5000000000000046
 40
1.0
 40
1.0
 40
1.0
 40
1.0
 10
188.9412922174095
 20
172.0508272368107
 30
0.0
 10
188.8782121789161
 20
172.0508272368107
 30
0.0
 10
188.8190635567347
 20
172.0429213105983
 30
0.0
 10
188.7205910066656
 20
172.019596149162
 30
0.0
 10
188.6815543946809
 20
172.0048833593303
 30
0.0
 10
188.5816579279019
 20
171.9569275585994
 30
0.0
 10
188.5392370468352
 20
171.9206654020193
 30
0.0
 10
188.5082795155172
 20
171.8830777380548
 30
0.0
  0
ELLIPSE
  5
A8
330
1F
100
AcDbEntity
  8
0
  6
Continuous
 62
     7
370
    15
100
AcDbEllipse
 10
204.7606895932
 20
141.9823352779
 30
0.0
 11
-14.75368316065607
 21
31.09325491558116
 31
0.0
210
0.0
220
0.0
230
1.0
 40
0.3419987131
 41
0.1591422026273017
 42
1.089903569770977
  0
SPLINE
  5
A9
330
1F
100
AcDbEntity
  8
0
  6
Continuous
 62
     7
370
    15
100
AcDbSpline
210
0.0
220
0.0
230
1.0
 70
     8
 71
     3
 72
    12
 73
     8
 74
     0
 42
0.00000001
 43
0.00000001
 12
1.0
 22
0.0
 32
0.0
 13
1.0
 23
0.0
 33
0.0
 40
0.0
 40
0.0
 40
0.0
 40
0.0
 40
0.4999999999999953
 40
0.4999999999999953
 40
0.7499999999999977
 40
0.7499999999999977
 40
1.0
 40
1.0
 40
1.0
 40
1.0
 10
188.5082795155172
 20
112.0815928178205
 30
0.0
 10
188.5394247134793
 20
112.0437772949003
 30
0.0
 10
188.5816989798137
 20
112.0077104368166
 30
0.0
 10
188.681644513639
 20
111.9597503718053
 30
0.0
 10
188.7213748183431
 20
111.9448893979077
 30
0.0
 10
188.8182628683493
 20
111.9219382517766
 30
0.0
 10
188.8783281100959
 20
111.9138433190646
 30
0.0
 10
188.9412922174094
 20
111.9138433190646
 30
0.0
  0
LINE
  5
AA
330
1F
100
AcDbEntity
  8
0
  6
Continuous
 62
     7
370
    15
100
AcDbLine
 10
188.9412924003
 20
111.9138427611
 30
0.0
 11
191.885778616
 21
111.9138427611
 31
0.0
  0
SPLINE
  5
AB
330
1F
100
AcDbEntity
  8
0
  6
Continuous
 62
     7
370
    15
100
AcDbSpline
210
0.0
220
0.0
230
1.0
 70
     8
 71
     3
 72
    12
 73
     8
 74
     0
 42
0.00000001
 43
0.00000001
 12
1.0
 22
0.0
 32
0.0
 13
1.0
 23
0.0
 33
0.0
 40
0.0
 40
0.0
 40
0.0
 40
0.0
 40
0.2500000000000023
 40
0.2500000000000023
 40
0.5000000000000047
 40
0.5000000000000047
 40
1.0
 40
1.0
 40
1.0
 40
1.0
 10
191.8857785902765
 20
111.9138433190646
 30
0.0
 10
191.9488355451744
 20
111.9138433190646
 30
0.0
 10
192.00796569492
 20
111.9217436501441
 30
0.0
 10
192.1064132454532
 20
111.9450543981492
 30
0.0
 10
192.1454454836413
 20
111.9597595244328
 30
0.0
 10
192.2453353680983
 20
112.0076930526194
 30
0.0
 10
192.2876343417076
 20
112.0437630253842
 30
0.0
 10
192.3187912921688
 20
112.0815928178205
 30
0.0
  0
ELLIPSE
  5
AC
330
1F
100
AcDbEntity
  8
0
  6
Continuous
 62
     7
370
    15
100
AcDbEllipse
 10
176.0663812145
 20
141.9823352779
 30
0.0
 11
-14.75368316065618
 21
31.09325491558116
 31
0.0
210
0.0
220
0.0
230
1.0
 40
0.3419987131
 41
3.300734856217123
 42
4.231496223360772
  0
SPLINE
  5
AD
330
1F
100
AcDbEntity
  8
0
  6
Continuous
 62
     7
370
    15
100
AcDbSpline
210
0.0
220
0.0
230
1.0
 70
     8
 71
     3
 72
    12
 73
     8
 74
     0
 42
0.00000001
 43
0.00000001
 12
1.0
 22
0.0
 32
0.0
 13
1.0
 23
0.0
 33
0.0
 40
0.0
 40
0.0
 40
0.0
 40
0.0
 40
0.5000000000000037
 40
0.5000000000000037
 40
0.7500000000000018
 40
0.7500000000000018
 40
1.0
 40
1.0
 40
1.0
 40
1.0
 10
192.3187912921688
 20
132.0729659572523
 30
0.0
 10
192.2876460942067
 20
132.1870713231176
 30
0.0
 10
192.2453718278722
 20
132.2981776503364
 30
0.0
 10
192.145426294047
 20
132.4483352577667
 30
0.0
 10
192.1056959893429
 20
132.495327949384
 30
0.0
 10
192.0088079393367
 20
132.5683035339225
 30
0.0
 10
191.9487426975901
 20
132.5942688466015
 30
0.0
 10
191.8857785902765
 20
132.5942688466015
 30
0.0
  0
LINE
  5
AE
330
1F
100
AcDbEntity
  8
0
  6
Continuous
 62
     7
370
    15
100
AcDbLine
 10
191.885778616
 20
132.5942684497
 30
0.0
 11
188.9412924003
 21
132.5942684497
 31
0.0
  0
SPLINE
  5
AF
330
1F
100
AcDbEntity
  8
0
  6
Continuous
 62
     7
370
    15
100
AcDbSpline
210
0.0
220
0.0
230
1.0
 70
     8
 71
     3
 72
    12
 73
     8
 74
     0
 42
0.00000001
 43
0.00000001
 12
1.0
 22
0.0
 32
0.0
 13
1.0
 23
0.0
 33
0.0
 40
0.0
 40
0.0
 40
0.0
 40
0.0
 40
0.2499999999999996
 40
0.2499999999999996
 40
0.4999999999999991
 40
0.4999999999999991
 40
1.0
 40
1.0
 40
1.0
 40
1.0
 10
188.9412922174095
 20
132.5942688466014
 30
0.0
 10
188.8782352625116
 20
132.5942688466014
 30
0.0
 10
188.819105112766
 20
132.5689224932208
 30
0.0
 10
188.7206575622328
 20
132.4948031110812
 30
0.0
 10
188.6816253240447
 20
132.4483065963832
 30
0.0
 10
188.5817354395877
 20
132.2982320893746
 30
0.0
 10
188.5394364659784
 20
132.1871143802598
 30
0.0
 10
188.5082795155172
 20
132.0729659572523
 30
0.0
  0
ELLIPSE
  5
B0
330
1F
100
AcDbEntity
  8
0
  6
Continuous
 62
     7
370
    15
100
AcDbEllipse
 10
204.7606895932
 20
141.9823352779
 30
0.0
 11
14.75368316065621
 21
31.09325491558116
 31
0.0
210
0.0
220
0.0
230
1.0
 40
0.3419987131
 41
2.051689083818829
 42
2.982450450962507
  0
ELLIPSE
  5
B1
330
1F
100
AcDbEntity
  8
0
  6
Continuous
 62
     7
370
    15
100
AcDbEllipse
 10
286.0022531445
 20
141.9823352779
 30
0.0
 11
178.6426981535721
 21
5.639730005880667
 31
0.0
210
0.0
220
0.0
230
1.0
 40
0.1734804855
 41
1.97041000443026
 42
1.979074255774563
  0
SPLINE
  5
B2
330
1F
100
AcDbEntity
  8
0
  6
Continuous
 62
     7
370
    15
100
AcDbSpline
210
0.0
220
0.0
230
1.0
 70
     8
 71
     3
 72
    20
 73
    16
 74
     0
 42
0.00000001
 43
0.00000001
 12
1.0
 22
0.0
 32
0.0
 13
1.0
 23
0.0
 33
0.0
 40
0.0
 40
0.0
 40
0.0
 40
0.0
 40
0.2500000000000017
 40
0.2500000000000017
 40
0.3750000000000014
 40
0.3750000000000014
 40
0.5000000000000011
 40
0.5000000000000011
 40
0.6250000000000009
 40
0.6250000000000009
 40
0.7500000000000006
 40
0.7500000000000006
 40
0.8750000000000003
 40
0.8750000000000003
 40
1.0
 40
1.0
 40
1.0
 40
1.0
 10
214.1778857961834
 20
168.1869394437409
 30
0.0
 10
213.5778673982334
 20
168.1228165610003
 30
0.0
 10
213.0134793021732
 20
168.0063617290014
 30
0.0
 10
212.2181048851921
 20
167.749728524824
 30
0.0
 10
211.9658787136693
 20
167.6514046517976
 30
0.0
 10
211.4937665314554
 20
167.4323087832424
 30
0.0
 10
211.2724958744145
 20
167.3110866917966
 30
0.0
 10
210.8589306185533
 20
167.0440572639176
 30
0.0
 10
210.6680870926158
 20
166.8988279794799
 30
0.0
 10
210.3250601696456
 20
166.5918207140795
 30
0.0
 10
210.1713743716367
 20
166.4291023404791
 30
0.0
 10
209.8977828869758
 20
166.0847128297466
 30
0.0
 10
209.7778259196116
 20
165.9024878109725
 30
0.0
 10
209.5749672510614
 20
165.5262885143144
 30
0.0
 10
209.4912639207429
 20
165.3314587448342
 30
0.0
 10
209.4242199044505
 20
165.1297787345016
 30
0.0
  0
ELLIPSE
  5
B3
330
1F
100
AcDbEntity
  8
0
  6
Continuous
 62
     7
370
    15
100
AcDbEllipse
 10
213.9848507642
 20
141.9823352779
 30
0.0
 11
1.574944762879795
 21
31.49727103316099
 31
0.0
210
0.0
220
0.0
230
1.0
 40
0.263265937
 41
0.7585295701511107
 42
2.758455364486397
  0
SPLINE
  5
B4
330
1F
100
AcDbEntity
  8
0
  6
Continuous
 62
     7
370
    15
100
AcDbSpline
210
0.0
220
0.0
230
1.0
 70
     8
 71
     3
 72
    20
 73
    16
 74
     0
 42
0.00000001
 43
0.00000001
 12
1.0
 22
0.0
 32
0.0
 13
1.0
 23
0.0
 33
0.0
 40
0.0
 40
0.0
 40
0.0
 40
0.0
 40
0.2500000000000003
 40
0.2500000000000003
 40
0.3750000000000003
 40
0.3750000000000003
 40
0.5000000000000002
 40
0.5000000000000002
 40
0.6250000000000001
 40
0.6250000000000001
 40
0.7500000000000001
 40
0.7500000000000001
 40
0.875
 40
0.875
 40
1.0
 40
1.0
 40
1.0
 40
1.0
 10
209.4242199044505
 20
112.9237320927152
 30
0.0
 10
209.5585247311005
 20
112.6937961164235
 30
0.0
 10
209.7578968607184
 20
112.4896711879983
 30
0.0
 10
210.1670033909596
 20
112.2176906114857
 30
0.0
 10
210.3234206725375
 20
112.1321986022942
 30
0.0
 10
210.6674788070483
 20
111.976668745617
 30
0.0
 10
210.8553770935415
 20
111.9061572574987
 30
0.0
 10
211.2639002232138
 20
111.7780554267002
 30
0.0
 10
211.4845036873139
 20
111.720463959994
 30
0.0
 10
211.9612973863569
 20
111.6172210911238
 30
0.0
 10
212.2147453454084
 20
111.5723073243723
 30
0.0
 10
212.7394682133708
 20
111.4961467782133
 30
0.0
 10
213.0124859721978
 20
111.4645100516272
 30
0.0
 10
213.5805969844106
 20
111.4129858284172
 30
0.0
 10
213.8770279059039
 20
111.39309906601
 30
0.0
 10
214.1778857961834
 20
111.3793707770994
 30
0.0
  0
ELLIPSE
  5
B5
330
1F
100
AcDbEntity
  8
0
  6
Continuous
 62
     7
370
    15
100
AcDbEllipse
 10
286.0022531445
 20
141.9823352779
 30
0.0
 11
178.6426981535721
 21
5.639730005880667
 31
0.0
210
0.0
220
0.0
230
1.0
 40
0.1734804855
 41
4.293157641857874
 42
4.302116814387623
  0
SPLINE
  5
B6
330
1F
100
AcDbEntity
  8
0
  6
Continuous
 62
     7
370
    15
100
AcDbSpline
210
0.0
220
0.0
230
1.0
 70
     8
 71
     3
 72
     9
 73
     5
 74
     0
 42
0.00000001
 43
0.00000001
 12
1.0
 22
0.0
 32
0.0
 13
1.0
 23
0.0
 33
0.0
 40
0.0
 40
0.0
 40
0.0
 40
0.0
 40
0.5812051272911666
 40
1.0
 40
1.0
 40
1.0
 40
1.0
 10
215.6462100621415
 20
110.6746081794728
 30
0.0
 10
215.4138418406026
 20
110.6095755426645
 30
0.0
 10
215.0140376912107
 20
110.4976827981677
 30
0.0
 10
214.7608480004756
 20
110.4967901888373
 30
0.0
 10
214.654813456173
 20
110.4964163686264
 30
0.0
  0
ELLIPSE
  5
B7
330
1F
100
AcDbEntity
  8
0
  6
Continuous
 62
     7
370
    15
100
AcDbEllipse
 10
232.9063892892
 20
141.9823352779
 30
0.0
 11
178.6426981535718
 21
5.639730005880666
 31
0.0
210
0.0
220
0.0
230
1.0
 40
0.1734804855
 41
4.607772946539714
 42
4.610144320648629
  0
ELLIPSE
  5
B8
330
1F
100
AcDbEntity
  8
0
  6
Continuous
 62
     7
370
    15
100
AcDbEllipse
 10
233.9929737468
 20
141.9823352779
 30
0.0
 11
-23.0522614951218
 21
31.49098328279274
 31
0.0
210
0.0
220
0.0
230
1.0
 40
0.0326926316
 41
5.679634665922687
 42
6.259257973531203
  0
SPLINE
  5
B9
330
1F
100
AcDbEntity
  8
0
  6
Continuous
 62
     7
370
    15
100
AcDbSpline
210
0.0
220
0.0
230
1.0
 70
     8
 71
     3
 72
    68
 73
    64
 74
     0
 42
0.00000001
 43
0.00000001
 12
1.0
 22
0.0
 32
0.0
 13
1.0
 23
0.0
 33
0.0
 40
-0.0624999999999994
 40
-0.0624999999999994
 40
0.0
 40
0.0
 40
0.0312500000000001
 40
0.0312500000000001
 40
0.0625000000000001
 40
0.0625000000000001
 40
0.0937500000000002
 40
0.0937500000000002
 40
0.1250000000000002
 40
0.1250000000000002
 40
0.1562500000000003
 40
0.1562500000000003
 40
0.1875000000000004
 40
0.1875000000000004
 40
0.2187500000000004
 40
0.2187500000000004
 40
0.2500000000000005
 40
0.2500000000000005
 40
0.2812500000000006
 40
0.2812500000000006
 40
0.3125000000000006
 40
0.3125000000000006
 40
0.3437500000000007
 40
0.3437500000000007
 40
0.3750000000000008
 40
0.3750000000000008
 40
0.4062500000000008
 40
0.4062500000000008
 40
0.4375000000000009
 40
0.4375000000000009
 40
0.4687500000000009
 40
0.4687500000000009
 40
0.500000000000001
 40
0.500000000000001
 40
0.5312500000000011
 40
0.5312500000000011
 40
0.5625000000000011
 40
0.5625000000000011
 40
0.5937500000000012
 40
0.5937500000000012
 40
0.6250000000000012
 40
0.6250000000000012
 40
0.6562500000000013
 40
0.6562500000000013
 40
0.6875000000000013
 40
0.6875000000000013
 40
0.7187500000000014
 40
0.7187500000000014
 40
0.7500000000000016
 40
0.7500000000000016
 40
0.7812500000000013
 40
0.7812500000000013
 40
0.8125000000000012
 40
0.8125000000000012
 40
0.843750000000001
 40
0.843750000000001
 40
0.8750000000000009
 40
0.8750000000000009
 40
0.9062500000000007
 40
0.9062500000000007
 40
0.9375000000000006
 40
0.9375000000000006
 40
1.0
 40
1.0
 40
1.03125
 40
1.03125
 10
199.0169057834732
 20
123.7058503463092
 30
0.0
 10
199.6118502140279
 20
123.7058503463092
 30
0.0
 10
199.8068284602776
 20
123.7217723999064
 30
0.0
 10
200.1903916854232
 20
123.7842454213545
 30
0.0
 10
200.3809724608854
 20
123.8315628944848
 30
0.0
 10
200.7442217476722
 20
123.9553508870605
 30
0.0
 10
200.9164884866681
 20
124.03121842768
 30
0.0
 10
201.2425102033761
 20
124.2111033755706
 30
0.0
 10
201.3967855701527
 20
124.3160368245832
 30
0.0
 10
201.6733484914038
 20
124.5462605858317
 30
0.0
 10
201.7974913817192
 20
124.6723513656279
 30
0.0
 10
202.0168061540901
 20
124.9476186353456
 30
0.0
 10
202.1099366094934
 20
125.0947244744128
 30
0.0
 10
202.2595909400196
 20
125.4007141368873
 30
0.0
 10
202.3172379100114
 20
125.5618610303709
 30
0.0
 10
202.3943444718338
 20
125.8936666257997
 30
0.0
 10
202.4134282531772
 20
126.0613830516318
 30
0.0
 10
202.4136416632546
 20
126.4004553589675
 30
0.0
 10
202.3941463727552
 20
126.5736156833101
 30
0.0
 10
202.3175764982781
 20
126.9104738876572
 30
0.0
 10
202.260923257069
 20
127.0750921734425
 30
0.0
 10
202.1106473062596
 20
127.3963758750381
 30
0.0
 10
202.0167636438471
 20
127.5524032807011
 30
0.0
 10
201.7996984437507
 20
127.8424534999727
 30
0.0
 10
201.675767187476
 20
127.9783099001619
 30
0.0
 10
201.3958103423237
 20
128.2304252760356
 30
0.0
 10
201.2443511914219
 20
128.3425525865783
 30
0.0
 10
200.9196181824742
 20
128.5393732826994
 30
0.0
 10
200.7442537436577
 20
128.6247927060418
 30
0.0
 10
200.380936724758
 20
128.7619082400101
 30
0.0
 10
200.1939452717674
 20
128.8137366830501
 30
0.0
 10
199.8093737734107
 20
128.8839258634746
 30
0.0
 10
199.6104659202913
 20
128.9019370358941
 30
0.0
 10
199.2188025205947
 20
128.9020681343393
 30
0.0
 10
199.0240947842079
 20
128.8847699555901
 30
0.0
 10
198.6369777205529
 20
128.8147548770958
 30
0.0
 10
198.447506717826
 20
128.7622551152678
 30
0.0
 10
198.0863742198084
 20
128.6263040085897
 30
0.0
 10
197.9119549704481
 20
128.5418646239881
 30
0.0
 10
197.5837569326442
 20
128.3434148573802
 30
0.0
 10
197.4326786951936
 20
128.2313558712528
 30
0.0
 10
197.155842602166
 20
127.9827366931729
 30
0.0
 10
197.0290787856535
 20
127.8445035151924
 30
0.0
 10
196.8110742474966
 20
127.5536558529167
 30
0.0
 10
196.7187930679665
 20
127.4006270524707
 30
0.0
 10
196.5679133808011
 20
127.0796602222138
 30
0.0
 10
196.5099669463311
 20
126.9118809907775
 30
0.0
 10
196.4333547639164
 20
126.5761731581583
 30
0.0
 10
196.413726743901
 20
126.4064474017305
 30
0.0
 10
196.4133468206559
 20
126.0632044331561
 30
0.0
 10
196.4326591611605
 20
125.8949438714472
 30
0.0
 10
196.5085797778373
 20
125.5662822757225
 30
0.0
 10
196.5660855468034
 20
125.4039701459743
 30
0.0
 10
196.7164456933925
 20
125.0957326671538
 30
0.0
 10
196.8084649812839
 20
124.9503894586338
 30
0.0
 10
197.0258089962739
 20
124.676584651605
 30
0.0
 10
197.1523284164055
 20
124.54758341438
 30
0.0
 10
197.4287620358653
 20
124.3171440312352
 30
0.0
 10
197.5795916259416
 20
124.2141861590406
 30
0.0
 10
197.9071032181818
 20
124.0328056187528
 30
0.0
 10
198.0816517512699
 20
123.9559129806716
 30
0.0
 10
198.6228566196415
 20
123.7710221879361
 30
0.0
 10
199.0169057834732
 20
123.7058503463092
 30
0.0
 10
199.6118502140279
 20
123.7058503463092
 30
0.0
  0
ELLIPSE
  5
BA
330
1F
100
AcDbEntity
  8
0
  6
Continuous
 62
     7
370
    15
100
AcDbEllipse
 10
208.7590269922
 20
123.4440305041
 30
0.0
 11
-0.2010024897830363
 21
3.237295024094608
 31
0.0
210
0.0
220
0.0
230
1.0
 40
0.2319071678
 41
4.994315590687782
 42
10.1904487994738
  0
LINE
  5
BB
330
1F
100
AcDbEntity
  8
0
  6
Continuous
 62
     7
370
    15
100
AcDbLine
 10
178.4135354038
 20
110.9823357846
 30
0.0
 11
178.4135354038
 21
172.9823347713
 31
0.0
  0
SPLINE
  5
BC
330
1F
100
AcDbEntity
  8
0
  6
Continuous
 62
     7
370
    15
100
AcDbSpline
210
0.0
220
0.0
230
1.0
 70
     8
 71
     3
 72
    12
 73
     8
 74
     0
 42
0.00000001
 43
0.00000001
 12
1.0
 22
0.0
 32
0.0
 13
1.0
 23
0.0
 33
0.0
 40
0.0
 40
0.0
 40
0.0
 40
0.0
 40
0.254683677633082
 40
0.5083848102176759
 40
0.7227839229708019
 40
0.9382048212165742
 40
1.0
 40
1.0
 40
1.0
 40
1.0
 10
199.813072505231
 20
127.1574028368223
 30
0.0
 10
199.9463759855207
 20
127.0439728854144
 30
0.0
 10
200.2124686741385
 20
126.8175505844039
 30
0.0
 10
200.824647978763
 20
126.7368051922815
 30
0.0
 10
201.4053996125217
 20
126.9155091760672
 30
0.0
 10
201.8129095194573
 20
127.2097963004313
 30
0.0
 10
201.9564083564539
 20
127.4754742653264
 30
0.0
 10
201.988396170373
 20
127.5346974442828
 30
0.0
  0
ARC
  5
BD
330
1F
100
AcDbEntity
  8
0
  6
Continuous
 62
     7
370
    15
100
AcDbCircle
 10
199.390824512
 20
130.3812411501
 30
0.0
 40
3.25137306965595
100
AcDbArc
 50
227.5759966325
 51
277.4619410695
  0
SPLINE
  5
BE
330
1F
100
AcDbEntity
  8
0
  6
Continuous
 62
     7
370
    15
100
AcDbSpline
210
0.0
220
0.0
230
1.0
 70
     8
 71
     3
 72
    12
 73
     8
 74
     0
 42
0.00000001
 43
0.00000001
 12
1.0
 22
0.0
 32
0.0
 13
1.0
 23
0.0
 33
0.0
 40
0.0
 40
0.0
 40
0.0
 40
0.0
 40
0.5
 40
0.5
 40
0.75
 40
0.75
 40
1.0
 40
1.0
 40
1.0
 40
1.0
 10
177.5970231173865
 20
120.1275415754618
 30
0.0
 10
177.6534596182937
 20
120.1261236941201
 30
0.0
 10
177.7225442489824
 20
120.1245593578718
 30
0.0
 10
177.8413465207004
 20
120.1216151658973
 30
0.0
 10
177.8815317961705
 20
120.1205769628
 30
0.0
 10
177.9549128435743
 20
120.1186430675853
 30
0.0
 10
177.9883224073169
 20
120.1177481802965
 30
0.0
 10
178.0185585149734
 20
120.1169643900242
 30
0.0
  0
SPLINE
  5
BF
330
1F
100
AcDbEntity
  8
0
  6
Continuous
 62
     7
370
    15
100
AcDbSpline
210
0.0
220
0.0
230
1.0
 70
     8
 71
     3
 72
    16
 73
    12
 74
     0
 42
0.00000001
 43
0.00000001
 12
1.0
 22
0.0
 32
0.0
 13
1.0
 23
0.0
 33
0.0
 40
0.0
 40
0.0
 40
0.0
 40
0.0
 40
0.0625000000000004
 40
0.0625000000000004
 40
0.1250000000000007
 40
0.1250000000000007
 40
0.2500000000000014
 40
0.2500000000000014
 40
0.500000000000001
 40
0.500000000000001
 40
1.0
 40
1.0
 40
1.0
 40
1.0
 10
178.0185585149362
 20
120.1169643900484
 30
0.0
 10
178.0301389225241
 20
120.1166641989371
 30
0.0
 10
178.0434484492854
 20
120.1153364506781
 30
0.0
 10
178.0727498793715
 20
120.1086377759031
 30
0.0
 10
178.0875639792558
 20
120.1032795927974
 30
0.0
 10
178.1233923809586
 20
120.08623394363
 30
0.0
 10
178.1375120053217
 20
120.0747714058543
 30
0.0
 10
178.1720161494102
 20
120.0432080804821
 30
0.0
 10
178.1831207001148
 20
120.0253107814368
 30
0.0
 10
178.209296877331
 20
119.9751493638226
 30
0.0
 10
178.213535403843
 20
119.947404951626
 30
0.0
 10
178.213535403843
 20
119.9227407896964
 30
0.0
  0
LINE
  5
C0
330
1F
100
AcDbEntity
  8
0
  6
Continuous
 62
     7
370
    15
100
AcDbLine
 10
178.2135354089
 20
134.96044805
 30
0.0
 11
178.2135354089
 21
119.4425147559
 31
0.0
  0
SPLINE
  5
C1
330
1F
100
AcDbEntity
  8
0
  6
Continuous
 62
     7
370
    15
100
AcDbSpline
210
0.0
220
0.0
230
1.0
 70
     8
 71
     3
 72
    16
 73
    12
 74
     0
 42
0.00000001
 43
0.00000001
 12
1.0
 22
0.0
 32
0.0
 13
1.0
 23
0.0
 33
0.0
 40
0.0
 40
0.0
 40
0.0
 40
0.0
 40
0.4999999999999978
 40
0.4999999999999978
 40
0.7499999999999984
 40
0.7499999999999984
 40
0.8749999999999988
 40
0.8749999999999988
 40
0.9374999999999993
 40
0.9374999999999993
 40
1.0
 40
1.0
 40
1.0
 40
1.0
 10
178.213535403843
 20
134.9604479521876
 30
0.0
 10
178.213535403843
 20
135.0741404963155
 30
0.0
 10
178.2093891287651
 20
135.188460657665
 30
0.0
 10
178.1834235333715
 20
135.3615089481621
 30
0.0
 10
178.1719626279941
 20
135.4206844553239
 30
0.0
 10
178.1376508902197
 20
135.503807574792
 30
0.0
 10
178.1236261542902
 20
135.5319288908927
 30
0.0
 10
178.0876031912563
 20
135.5605447048701
 30
0.0
 10
178.0728486821667
 20
135.5663377527719
 30
0.0
 10
178.0434965210198
 20
135.5647443268348
 30
0.0
 10
178.0301566465157
 20
135.558247923511
 30
0.0
 10
178.0185585149674
 20
135.5497321773079
 30
0.0
  0
SPLINE
  5
C2
330
1F
100
AcDbEntity
  8
0
  6
Continuous
 62
     7
370
    15
100
AcDbSpline
210
0.0
220
0.0
230
1.0
 70
     8
 71
     3
 72
    12
 73
     8
 74
     0
 42
0.00000001
 43
0.00000001
 12
1.0
 22
0.0
 32
0.0
 13
1.0
 23
0.0
 33
0.0
 40
0.0
 40
0.0
 40
0.0
 40
0.0
 40
0.2499999999999998
 40
0.2499999999999998
 40
0.4999999999999999
 40
0.4999999999999999
 40
1.0
 40
1.0
 40
1.0
 40
1.0
 10
178.0185585149744
 20
135.5497321772987
 30
0.0
 10
177.9883600735338
 20
135.5275594452536
 30
0.0
 10
177.9549927181978
 20
135.5084797893764
 30
0.0
 10
177.8818374423679
 20
135.4833067449337
 30
0.0
 10
177.8415847433439
 20
135.4777502085169
 30
0.0
 10
177.7238560000691
 20
135.4886620195037
 30
0.0
 10
177.6533975520101
 20
135.5305977749145
 30
0.0
 10
177.5970231173919
 20
135.579809557296
 30
0.0
  0
SPLINE
  5
C3
330
1F
100
AcDbEntity
  8
0
  6
Continuous
 62
     7
370
    15
100
AcDbSpline
210
0.0
220
0.0
230
1.0
 70
     8
 71
     3
 72
    12
 73
     8
 74
     0
 42
0.00000001
 43
0.00000001
 12
1.0
 22
0.0
 32
0.0
 13
1.0
 23
0.0
 33
0.0
 40
0.0
 40
0.0
 40
0.0
 40
0.0
 40
0.5000000000000008
 40
0.5000000000000008
 40
0.7500000000000003
 40
0.7500000000000003
 40
1.0
 40
1.0
 40
1.0
 40
1.0
 10
177.0922150602833
 20
136.7961609491767
 30
0.0
 10
177.1359654121678
 20
136.5757139642021
 30
0.0
 10
177.1888555632923
 20
136.3601689743965
 30
0.0
 10
177.300467106434
 20
136.0477548978246
 30
0.0
 10
177.3430264503375
 20
135.9456754222087
 30
0.0
 10
177.448003685675
 20
135.7512354095669
 30
0.0
 10
177.5095709287695
 20
135.6561505105033
 30
0.0
 10
177.5970231173919
 20
135.5798095572961
 30
0.0
  0
SPLINE
  5
C4
330
1F
100
AcDbEntity
  8
0
  6
Continuous
 62
     7
370
    15
100
AcDbSpline
210
0.0
220
0.0
230
1.0
 70
     8
 71
     3
 72
    12
 73
     8
 74
     0
 42
0.00000001
 43
0.00000001
 12
1.0
 22
0.0
 32
0.0
 13
1.0
 23
0.0
 33
0.0
 40
0.0
 40
0.0
 40
0.0
 40
0.0
 40
0.2499999999999988
 40
0.2499999999999988
 40
0.4999999999999977
 40
0.4999999999999977
 40
1.0
 40
1.0
 40
1.0
 40
1.0
 10
177.5970231173918
 20
148.3848609985793
 30
0.0
 10
177.5085297098239
 20
148.307611118471
 30
0.0
 10
177.448471669058
 20
148.2142917945817
 30
0.0
 10
177.3426233960755
 20
148.0182587416123
 30
0.0
 10
177.300089874798
 20
147.9159323834005
 30
0.0
 10
177.1889385679743
 20
147.6045879776246
 30
0.0
 10
177.1360077109265
 20
147.3891697244466
 30
0.0
 10
177.0922150602833
 20
147.1685096066988
 30
0.0
  0
SPLINE
  5
C5
330
1F
100
AcDbEntity
  8
0
  6
Continuous
 62
     7
370
    15
100
AcDbSpline
210
0.0
220
0.0
230
1.0
 70
     8
 71
     3
 72
    12
 73
     8
 74
     0
 42
0.00000001
 43
0.00000001
 12
1.0
 22
0.0
 32
0.0
 13
1.0
 23
0.0
 33
0.0
 40
0.0
 40
0.0
 40
0.0
 40
0.0
 40
0.5000000000000004
 40
0.5000000000000004
 40
0.7500000000000004
 40
0.7500000000000004
 40
1.0
 40
1.0
 40
1.0
 40
1.0
 10
177.5970231173918
 20
148.3848609985793
 30
0.0
 10
177.6533316656874
 20
148.4340152658231
 30
0.0
 10
177.7236063264055
 20
148.4759725844269
 30
0.0
 10
177.8416442407291
 20
148.4869322619593
 30
0.0
 10
177.881820481583
 20
148.481423503712
 30
0.0
 10
177.955777576261
 20
148.455866274923
 30
0.0
 10
177.9883939639724
 20
148.4370862270837
 30
0.0
 10
178.0185585149682
 20
148.414938378567
 30
0.0
  0
SPLINE
  5
C6
330
1F
100
AcDbEntity
  8
0
  6
Continuous
 62
     7
370
    15
100
AcDbSpline
210
0.0
220
0.0
230
1.0
 70
     8
 71
     3
 72
    16
 73
    12
 74
     0
 42
0.00000001
 43
0.00000001
 12
1.0
 22
0.0
 32
0.0
 13
1.0
 23
0.0
 33
0.0
 40
0.0
 40
0.0
 40
0.0
 40
0.0
 40
0.0624999999999987
 40
0.0624999999999987
 40
0.1249999999999974
 40
0.1249999999999974
 40
0.2499999999999959
 40
0.2499999999999959
 40
0.4999999999999961
 40
0.4999999999999961
 40
1.0
 40
1.0
 40
1.0
 40
1.0
 10
178.0185585149364
 20
148.4149383785124
 30
0.0
 10
178.0301714147758
 20
148.4064117889172
 30
0.0
 10
178.0435225992083
 20
148.3999115273844
 30
0.0
 10
178.0729224388275
 20
148.3983421302669
 30
0.0
 10
178.0877631633827
 20
148.4042255208975
 30
0.0
 10
178.1235963713513
 20
148.4327731569481
 30
0.0
 10
178.1377095791728
 20
148.4609401762538
 30
0.0
 10
178.1722009503917
 20
148.5446944346758
 30
0.0
 10
178.1832850215021
 20
148.6024078482972
 30
0.0
 10
178.2094078392981
 20
148.775998384943
 30
0.0
 10
178.213535403843
 20
148.891026437585
 30
0.0
 10
178.213535403843
 20
149.0042226036878
 30
0.0
  0
LINE
  5
C7
330
1F
100
AcDbEntity
  8
0
  6
Continuous
 62
     7
370
    15
100
AcDbLine
 10
178.2135354089
 20
164.5221558
 30
0.0
 11
178.2135354089
 21
149.0042225058
 31
0.0
  0
SPLINE
  5
C8
330
1F
100
AcDbEntity
  8
0
  6
Continuous
 62
     7
370
    15
100
AcDbSpline
210
0.0
220
0.0
230
1.0
 70
     8
 71
     3
 72
    16
 73
    12
 74
     0
 42
0.00000001
 43
0.00000001
 12
1.0
 22
0.0
 32
0.0
 13
1.0
 23
0.0
 33
0.0
 40
0.0
 40
0.0
 40
0.0
 40
0.0
 40
0.4999999999999957
 40
0.4999999999999957
 40
0.7499999999999951
 40
0.7499999999999951
 40
0.8749999999999959
 40
0.8749999999999959
 40
0.9374999999999979
 40
0.9374999999999979
 40
1.0
 40
1.0
 40
1.0
 40
1.0
 10
178.213535403843
 20
164.041929766179
 30
0.0
 10
178.213535403843
 20
164.0172586101361
 30
0.0
 10
178.209369705383
 20
163.9896767787448
 30
0.0
 10
178.1831113770581
 20
163.9393339079215
 30
0.0
 10
178.1716075953205
 20
163.9210444098596
 30
0.0
 10
178.137476835974
 20
163.8898893788225
 30
0.0
 10
178.1230549493033
 20
163.8782500036108
 30
0.0
 10
178.0874879808654
 20
163.8613679776797
 30
0.0
 10
178.0725362125708
 20
163.8559788738721
 30
0.0
 10
178.043532394211
 20
163.8493583779276
 30
0.0
 10
178.0301170402018
 20
163.8480057897212
 30
0.0
 10
178.0185585149652
 20
163.8477061658495
 30
0.0
  0
SPLINE
  5
C9
330
1F
100
AcDbEntity
  8
0
  6
Continuous
 62
     7
370
    15
100
AcDbSpline
210
0.0
220
0.0
230
1.0
 70
     8
 71
     3
 72
    12
 73
     8
 74
     0
 42
0.00000001
 43
0.00000001
 12
1.0
 22
0.0
 32
0.0
 13
1.0
 23
0.0
 33
0.0
 40
0.0
 40
0.0
 40
0.0
 40
0.0
 40
0.2500000000000001
 40
0.2500000000000001
 40
0.5000000000000002
 40
0.5000000000000002
 40
1.0
 40
1.0
 40
1.0
 40
1.0
 10
178.0185585149744
 20
163.8477061658513
 30
0.0
 10
177.9883707384248
 20
163.8469236284337
 30
0.0
 10
177.9550169343331
 20
163.8460302966152
 30
0.0
 10
177.8818907311371
 20
163.8441029878116
 30
0.0
 10
177.8416555281129
 20
163.8430634565989
 30
0.0
 10
177.7239638979798
 20
163.8401455732517
 30
0.0
 10
177.6535832248198
 20
163.8385499671815
 30
0.0
 10
177.5970231173892
 20
163.8371289804136
 30
0.0
  0
SPLINE
  5
CA
330
1F
100
AcDbEntity
  8
0
  6
Continuous
 62
     7
370
    15
100
AcDbSpline
210
0.0
220
0.0
230
1.0
 70
     8
 71
     3
 72
    16
 73
    12
 74
     0
 42
0.00000001
 43
0.00000001
 12
1.0
 22
0.0
 32
0.0
 13
1.0
 23
0.0
 33
0.0
 40
0.0
 40
0.0
 40
0.0
 40
0.0
 40
0.2499999999999998
 40
0.2499999999999998
 40
0.3749999999999998
 40
0.3749999999999998
 40
0.4999999999999999
 40
0.4999999999999999
 40
0.7499999999999999
 40
0.7499999999999999
 40
1.0
 40
1.0
 40
1.0
 40
1.0
 10
177.0922150602833
 20
147.1685096066988
 30
0.0
 10
176.9309825827989
 20
146.356099831452
 30
0.0
 10
176.8105027431592
 20
145.5160215370672
 30
0.0
 10
176.6881222258459
 20
144.2147264877044
 30
0.0
 10
176.6571445654485
 20
143.7740454521197
 30
0.0
 10
176.6155308278205
 20
142.8782058111885
 30
0.0
 10
176.6052949148877
 20
142.4315476799861
 30
0.0
 10
176.6051065178316
 20
141.0962377228462
 30
0.0
 10
176.6452512204692
 20
140.2117423495386
 30
0.0
 10
176.8094049754088
 20
138.4544924615126
 30
0.0
 10
176.9309566258183
 20
137.6087015150995
 30
0.0
 10
177.0922150602833
 20
136.7961609491767
 30
0.0
  0
LINE
  5
CB
330
1F
100
AcDbEntity
  8
0
  6
Continuous
 62
     7
370
    15
100
AcDbLine
 10
176.2135354158
 20
148.4675134133
 30
0.0
 11
176.2135354158
 21
135.4971571426
 31
0.0
  0
LINE
  5
CC
330
1F
100
AcDbEntity
  8
0
  6
Continuous
 62
     7
370
    15
100
AcDbLine
 10
141.9135359403
 20
148.0366458717
 30
0.0
 11
141.9135359403
 21
135.9280246842
 31
0.0
  0
LINE
  5
CD
330
1F
100
AcDbEntity
  8
0
  6
Continuous
 62
     7
370
    15
100
AcDbLine
 10
140.4135366257
 20
147.6036330286
 30
0.0
 11
140.4135366257
 21
136.3610375273
 31
0.0
  0
SPLINE
  5
CE
330
1F
100
AcDbEntity
  8
0
  6
Continuous
 62
     7
370
    15
100
AcDbSpline
210
0.0
220
0.0
230
1.0
 70
     8
 71
     3
 72
    16
 73
    12
 74
     0
 42
0.00000001
 43
0.00000001
 12
1.0
 22
0.0
 32
0.0
 13
1.0
 23
0.0
 33
0.0
 40
0.0
 40
0.0
 40
0.0
 40
0.0
 40
0.2500000000000008
 40
0.2500000000000008
 40
0.5000000000000016
 40
0.5000000000000016
 40
0.7500000000000023
 40
0.7500000000000023
 40
0.8750000000000011
 40
0.8750000000000011
 40
1.0
 40
1.0
 40
1.0
 40
1.0
 10
209.4242199044505
 20
124.3894413721726
 30
0.0
 10
209.4552592312767
 20
124.1503110846992
 30
0.0
 10
209.4842170932186
 20
123.9019509395686
 30
0.0
 10
209.5301523243247
 20
123.3847904193889
 30
0.0
 10
209.5472620571605
 20
123.1157507869879
 30
0.0
 10
209.5586113250858
 20
122.5499179144128
 30
0.0
 10
209.5522343816238
 20
122.2619704968538
 30
0.0
 10
209.5189942089283
 20
121.8279101589453
 30
0.0
 10
209.5042517829772
 20
121.6860510850453
 30
0.0
 10
209.4683855524726
 20
121.4085143264998
 30
0.0
 10
209.4470612200926
 20
121.2719179786459
 30
0.0
 10
209.4242199044505
 20
121.1425119113647
 30
0.0
  0
LINE
  5
CF
330
1F
100
AcDbEntity
  8
0
  6
Continuous
 62
     7
370
    15
100
AcDbLine
 10
176.2135354158
 20
148.4675134133
 30
0.0
 11
176.2135354158
 21
164.0024349625
 31
0.0
  0
ARC
  5
D0
330
1F
100
AcDbEntity
  8
0
  6
Continuous
 62
     7
370
    15
100
AcDbCircle
 10
176.4134723148
 20
164.0074571736
 30
0.0
 40
0.2000000000000066
100
AcDbArc
 50
181.4391666667
 51
271.4391666667
  0
LINE
  5
D1
330
1F
100
AcDbEntity
  8
0
  6
Continuous
 62
     7
370
    15
100
AcDbLine
 10
141.9135359403
 20
148.0366458717
 30
0.0
 11
141.9135359403
 21
163.140698948
 31
0.0
  0
LINE
  5
D2
330
1F
100
AcDbEntity
  8
0
  6
Continuous
 62
     7
370
    15
100
AcDbLine
 10
141.9135359403
 20
163.140698948
 30
0.0
 11
176.2135354158
 21
164.0024349625
 31
0.0
  0
LINE
  5
D3
330
1F
100
AcDbEntity
  8
0
  6
Continuous
 62
     7
370
    15
100
AcDbLine
 10
141.9135359403
 20
120.8239716078
 30
0.0
 11
141.9135359403
 21
135.9280246842
 31
0.0
  0
LINE
  5
D4
330
1F
100
AcDbEntity
  8
0
  6
Continuous
 62
     7
370
    15
100
AcDbLine
 10
176.2135354158
 20
119.9622355933
 30
0.0
 11
176.2135354158
 21
135.4971571426
 31
0.0
  0
LINE
  5
D5
330
1F
100
AcDbEntity
  8
0
  6
Continuous
 62
     7
370
    15
100
AcDbLine
 10
141.9135359403
 20
120.8239716078
 30
0.0
 11
176.2135354158
 21
119.9622355933
 31
0.0
  0
ARC
  5
D6
330
1F
100
AcDbEntity
  8
0
  6
Continuous
 62
     7
370
    15
100
AcDbCircle
 10
176.4134723148
 20
119.9572133822
 30
0.0
 40
0.2000000000000055
100
AcDbArc
 50
88.5608333333
 51
178.5608333333
  0
LINE
  5
D7
330
1F
100
AcDbEntity
  8
0
  6
Continuous
 62
     7
370
    15
100
AcDbLine
 10
176.4184955329
 20
163.8075203235
 30
0.0
 11
177.597023133
 21
163.8371289308
 31
0.0
  0
LINE
  5
D8
330
1F
100
AcDbEntity
  8
0
  6
Continuous
 62
     7
370
    15
100
AcDbLine
 10
176.4184955329
 20
120.1571502323
 30
0.0
 11
177.597023133
 21
120.127541625
 31
0.0
  0
LINE
  5
D9
330
1F
100
AcDbEntity
  8
0
  6
Continuous
 62
     7
370
    15
100
AcDbLine
 10
140.4135366257
 20
162.2746732618
 30
0.0
 11
141.9135359403
 21
163.140698948
 31
0.0
  0
LINE
  5
DA
330
1F
100
AcDbEntity
  8
0
  6
Continuous
 62
     7
370
    15
100
AcDbLine
 10
140.4135366257
 20
147.6036330286
 30
0.0
 11
140.4135366257
 21
162.2746732618
 31
0.0
  0
LINE
  5
DB
330
1F
100
AcDbEntity
  8
0
  6
Continuous
 62
     7
370
    15
100
AcDbLine
 10
140.4135366257
 20
121.6899972941
 30
0.0
 11
141.9135359403
 21
120.8239716078
 31
0.0
  0
LINE
  5
DC
330
1F
100
AcDbEntity
  8
0
  6
Continuous
 62
     7
370
    15
100
AcDbLine
 10
140.4135366257
 20
121.6899972941
 30
0.0
 11
140.4135366257
 21
136.3610375273
 31
0.0
  0
ARC
  5
DD
330
1F
100
AcDbEntity
  8
0
  6
Continuous
 62
     7
370
    15
100
AcDbCircle
 10
217.9287987941
 20
108.7765971622
 30
0.0
 40
2.118751326597479
100
AcDbArc
 50
87.1917248568
 51
128.0985714168
  0
LINE
  5
DE
330
1F
100
AcDbEntity
  8
0
  6
Continuous
 62
     7
370
    15
100
AcDbLine
 10
216.612133133
 20
110.4815152074
 30
0.0
 11
216.6214947876
 21
110.4439493801
 31
0.0
  0
SPLINE
  5
DF
330
1F
100
AcDbEntity
  8
0
  6
Continuous
 62
     7
370
    15
100
AcDbSpline
210
0.0
220
0.0
230
1.0
 70
     8
 71
     3
 72
    10
 73
     6
 74
     0
 42
0.00000001
 43
0.00000001
 12
1.0
 22
0.0
 32
0.0
 13
1.0
 23
0.0
 33
0.0
 40
0.0
 40
0.0
 40
0.0
 40
0.0
 40
0.5
 40
0.5
 40
1.0
 40
1.0
 40
1.0
 40
1.0
 10
215.646208415864
 20
111.3137302400782
 30
0.0
 10
215.8780549717804
 20
111.3035795363468
 30
0.0
 10
216.0946226957202
 20
111.2084520511273
 30
0.0
 10
216.4364871288574
 20
110.9058266437483
 30
0.0
 10
216.5564404491733
 20
110.7050229706357
 30
0.0
 10
216.6121342421531
 20
110.4815166050593
 30
0.0
  0
LINE
  5
E0
330
1F
100
AcDbEntity
  8
0
  6
Continuous
 62
     7
370
    15
100
AcDbLine
 10
234.0057668563
 20
142.6117152158
 30
0.0
 11
215.5977812883
 21
168.3374099965
 31
0.0
  0
LINE
  5
E1
330
1F
100
AcDbEntity
  8
0
  6
Continuous
 62
     7
370
    15
100
AcDbLine
 10
234.0057668563
 20
119.4424868162
 30
0.0
 11
234.0057668563
 21
142.6117152158
 31
0.0
  0
ARC
  5
E2
330
1F
100
AcDbEntity
  8
0
  6
Continuous
 62
     7
370
    15
100
AcDbCircle
 10
259.1810787397
 20
119.4155754546
 30
0.0
 40
25.17532626691598
100
AcDbArc
 50
179.9387532175
 51
202.068971101
  0
LINE
  5
E3
330
1F
100
AcDbEntity
  8
0
  6
Continuous
 62
     7
370
    15
100
AcDbLine
 10
218.0326049503
 20
110.8928040202
 30
0.0
 11
235.8502921935
 21
109.9566404308
 31
0.0
  0
LWPOLYLINE
  5
E4
330
1F
100
AcDbEntity
  8
0
  6
Continuous
 62
     7
370
    15
100
AcDbPolyline
 90
       31
 70
   128
 43
0.0
 10
226.8150066313
 20
116.1466330822
 10
226.7177914556
 20
115.429659986
 10
226.4742468771
 20
114.7440240319
 10
226.0950272258
 20
114.1196877296
 10
225.5966988679
 20
113.5839406933
 10
225.0010473009
 20
113.1601926471
 10
224.3341011282
 20
112.8669675971
 10
223.6250070211
 20
112.717080542
 10
222.9047631201
 20
112.717080542
 10
222.2048406776
 20
112.8669675971
 10
221.555835503
 20
113.1601926471
 10
220.9861045059
 20
113.5839406933
 10
220.5205549773
 20
114.1196877296
 10
220.1795307275
 20
114.7440240319
 10
219.977936643
 20
115.429659986
 10
219.9245830353
 20
116.1466330822
 10
220.0218019363
 20
116.8636043157
 10
220.2653427895
 20
117.5492402698
 10
220.644566166
 20
118.1735765721
 10
221.1428907987
 20
118.7093236084
 10
221.738546091
 20
119.1330716546
 10
222.4054922637
 20
119.4262967046
 10
223.1145826455
 20
119.5761837597
 10
223.8348302718
 20
119.5761837597
 10
224.534748989
 20
119.4262967046
 10
225.1837578889
 20
119.1330716546
 10
225.7534851607
 20
118.7093236084
 10
226.2190346893
 20
118.1735765721
 10
226.5600589391
 20
117.5492402698
 10
226.7616530236
 20
116.8636043157
 10
226.8150066313
 20
116.1466330822
  0
SPLINE
  5
E5
330
1F
100
AcDbEntity
  8
0
  6
Continuous
 62
     7
370
    15
100
AcDbSpline
210
0.0
220
0.0
230
1.0
 70
     8
 71
     3
 72
    12
 73
     8
 74
     0
 42
0.00000001
 43
0.00000001
 12
1.0
 22
0.0
 32
0.0
 13
1.0
 23
0.0
 33
0.0
 40
0.0
 40
0.0
 40
0.0
 40
0.0
 40
0.2499999999999996
 40
0.2499999999999996
 40
0.4999999999999991
 40
0.4999999999999991
 40
1.0
 40
1.0
 40
1.0
 40
1.0
 10
216.6121342421531
 20
110.4621682802385
 30
0.0
 10
216.579553670368
 20
110.5257382245453
 30
0.0
 10
216.528382150687
 20
110.5743356408777
 30
0.0
 10
216.4019891825474
 20
110.6524275175979
 30
0.0
 10
216.326333824102
 20
110.6814385772492
 30
0.0
 10
216.0707388199075
 20
110.7379070081894
 30
0.0
 10
215.8620260677138
 20
110.7341312044984
 30
0.0
 10
215.6462084158641
 20
110.6746096444442
 30
0.0
  0
SPLINE
  5
E6
330
1F
100
AcDbEntity
  8
0
  6
Continuous
 62
     7
370
    15
100
AcDbSpline
210
0.0
220
0.0
230
1.0
 70
     8
 71
     3
 72
     8
 73
     4
 74
     0
 42
0.00000001
 43
0.00000001
 12
1.0
 22
0.0
 32
0.0
 13
1.0
 23
0.0
 33
0.0
 40
0.0
 40
0.0
 40
0.0
 40
0.0
 40
1.0
 40
1.0
 40
1.0
 40
1.0
 10
216.6214964270474
 20
110.4439492329119
 30
0.0
 10
216.6183682758964
 20
110.4500207124023
 30
0.0
 10
216.6152475350473
 20
110.4560937442487
 30
0.0
 10
216.6121342421528
 20
110.4621682802395
 30
0.0
  0
ARC
  5
E7
330
1F
100
AcDbEntity
  8
0
  6
Continuous
 62
     7
370
    15
100
AcDbCircle
 10
217.7973258115
 20
108.8075157817
 30
0.0
 40
2.049991432411982
100
AcDbArc
 50
262.9477343797
 51
266.9939774344
  0
SPLINE
  5
E8
330
1F
100
AcDbEntity
  8
0
  6
Continuous
 62
     7
370
    15
100
AcDbSpline
210
0.0
220
0.0
230
1.0
 70
     8
 71
     3
 72
     8
 73
     4
 74
     0
 42
0.00000001
 43
0.00000001
 12
1.0
 22
0.0
 32
0.0
 13
1.0
 23
0.0
 33
0.0
 40
0.0
 40
0.0
 40
0.0
 40
0.0
 40
1.0
 40
1.0
 40
1.0
 40
1.0
 10
217.4152425778393
 20
107.0307517970961
 30
0.0
 10
217.4562389590423
 20
106.9433104886983
 30
0.0
 10
217.4996992809619
 20
106.8575642838274
 30
0.0
 10
217.5456390568117
 20
106.7730348625812
 30
0.0
  0
SPLINE
  5
E9
330
1F
100
AcDbEntity
  8
0
  6
Continuous
 62
     7
370
    15
100
AcDbSpline
210
0.0
220
0.0
230
1.0
 70
     8
 71
     3
 72
     8
 73
     4
 74
     0
 42
0.00000001
 43
0.00000001
 12
1.0
 22
0.0
 32
0.0
 13
1.0
 23
0.0
 33
0.0
 40
0.0
 40
0.0
 40
0.0
 40
0.0
 40
1.0
 40
1.0
 40
1.0
 40
1.0
 10
217.5456390568117
 20
106.7730348625812
 30
0.0
 10
218.1078654532045
 20
104.5597029978231
 30
0.0
 10
218.6775965782351
 20
102.3485085007243
 30
0.0
 10
219.2518933287229
 20
100.1386143064969
 30
0.0
  0
LINE
  5
EA
330
1F
100
AcDbEntity
  8
0
  6
Continuous
 62
     7
370
    15
100
AcDbLine
 10
223.3257581767
 20
106.4642254795
 30
0.0
 11
217.6898223635
 21
106.76034508
 31
0.0
  0
LINE
  5
EB
330
1F
100
AcDbEntity
  8
0
  6
Continuous
 62
     7
370
    15
100
AcDbLine
 10
227.6757237788
 20
99.137279817
 30
0.0
 11
223.3257581767
 21
106.4642254795
 31
0.0
  0
ELLIPSE
  5
EC
330
1F
100
AcDbEntity
  8
0
  6
Continuous
 62
     7
370
    15
100
AcDbEllipse
 10
273.0876403361
 20
134.5397755697
 30
0.0
 11
205.5866910030579
 21
-15.14624514566741
 31
0.0
210
0.0
220
0.0
230
1.0
 40
0.1916117708
 41
4.461578677878415
 42
4.503800984486615
  0
LINE
  5
ED
330
1F
100
AcDbEntity
  8
0
  6
Continuous
 62
     7
370
    15
100
AcDbLine
 10
217.0398933169
 20
108.2870845283
 30
0.0
 11
216.612133133
 21
109.8583821739
 31
0.0
  0
SPLINE
  5
EE
330
1F
100
AcDbEntity
  8
0
  6
Continuous
 62
     7
370
    15
100
AcDbSpline
210
0.0
220
0.0
230
1.0
 70
     8
 71
     3
 72
     8
 73
     4
 74
     0
 42
0.00000001
 43
0.00000001
 12
1.0
 22
0.0
 32
0.0
 13
1.0
 23
0.0
 33
0.0
 40
0.0
 40
0.0
 40
0.0
 40
0.0
 40
1.0
 40
1.0
 40
1.0
 40
1.0
 10
217.0398933446097
 20
108.2870855309101
 30
0.0
 10
217.087925683633
 20
107.8738655812065
 30
0.0
 10
217.2164088270353
 20
107.4548449198004
 30
0.0
 10
217.4152425778393
 20
107.0307517970961
 30
0.0
  0
SPLINE
  5
EF
330
1F
100
AcDbEntity
  8
0
  6
Continuous
 62
     7
370
    15
100
AcDbSpline
210
0.0
220
0.0
230
1.0
 70
     8
 71
     3
 72
     9
 73
     5
 74
     0
 42
0.00000001
 43
0.00000001
 12
1.0
 22
0.0
 32
0.0
 13
1.0
 23
0.0
 33
0.0
 40
0.0
 40
0.0
 40
0.0
 40
0.0
 40
0.5957463290686449
 40
1.0
 40
1.0
 40
1.0
 40
1.0
 10
219.2237106438828
 20
100.0172008360852
 30
0.0
 10
219.2299393641867
 20
99.99896686143032
 30
0.0
 10
219.2403946871992
 20
99.96835991722418
 30
0.0
 10
219.2485825082671
 20
100.0896026697217
 30
0.0
 10
219.2518924649907
 20
100.1386154974926
 30
0.0
  0
LINE
  5
F0
330
1F
100
AcDbEntity
  8
0
  6
Continuous
 62
     7
370
    15
100
AcDbLine
 10
221.7247215387
 20
108.0409396972
 30
0.0
 11
217.0398933169
 21
108.2870845283
 31
0.0
  0
LINE
  5
F1
330
1F
100
AcDbEntity
  8
0
  6
Continuous
 62
     7
370
    15
100
AcDbLine
 10
221.7247215387
 20
108.0409396972
 30
0.0
 11
223.3257581767
 21
106.4642254795
 31
0.0
  0
ELLIPSE
  5
F2
330
1F
100
AcDbEntity
  8
0
  6
Continuous
 62
     7
370
    15
100
AcDbEllipse
 10
201.1764297664
 20
142.0979483637
 30
0.0
 11
-26.47939638412695
 21
42.97612200538407
 31
0.0
210
0.0
220
0.0
230
1.0
 40
0.047805889
 41
3.104742027244042
 42
3.151971012744618
  0
SPLINE
  5
F3
330
1F
100
AcDbEntity
  8
0
  6
Continuous
 62
     7
370
    15
100
AcDbSpline
210
0.0
220
0.0
230
1.0
 70
     8
 71
     3
 72
    10
 73
     6
 74
     0
 42
0.00000001
 43
0.00000001
 12
1.0
 22
0.0
 32
0.0
 13
1.0
 23
0.0
 33
0.0
 40
0.0
 40
0.0
 40
0.0
 40
0.0
 40
0.5
 40
0.5
 40
1.0
 40
1.0
 40
1.0
 40
1.0
 10
216.6121342421531
 20
109.8583816468868
 30
0.0
 10
216.5547072206608
 20
110.0694231184805
 30
0.0
 10
216.4280221207508
 20
110.2530836903295
 30
0.0
 10
216.0806852905212
 20
110.5112393871483
 30
0.0
 10
215.8665620601836
 20
110.5805663364617
 30
0.0
 10
215.6462084158653
 20
110.5775336901571
 30
0.0
  0
SPLINE
  5
F4
330
1F
100
AcDbEntity
  8
0
  6
HIDDEN
 62
     7
370
     0
100
AcDbSpline
210
0.0
220
0.0
230
1.0
 70
     8
 71
     3
 72
    60
 73
    56
 74
     0
 42
0.00000001
 43
0.00000001
 12
1.0
 22
0.0
 32
0.0
 13
1.0
 23
0.0
 33
0.0
 40
-0.0625000000000001
 40
-0.0625000000000001
 40
0.0
 40
0.0
 40
0.0312500000000001
 40
0.0312500000000001
 40
0.0625000000000002
 40
0.0625000000000002
 40
0.0937500000000003
 40
0.0937500000000003
 40
0.1250000000000004
 40
0.1250000000000004
 40
0.1875000000000002
 40
0.1875000000000002
 40
0.2500000000000001
 40
0.2500000000000001
 40
0.2812499999999999
 40
0.2812499999999999
 40
0.3124999999999999
 40
0.3124999999999999
 40
0.3437499999999998
 40
0.3437499999999998
 40
0.3749999999999997
 40
0.3749999999999997
 40
0.4062499999999996
 40
0.4062499999999996
 40
0.4374999999999996
 40
0.4374999999999996
 40
0.4687499999999994
 40
0.4687499999999994
 40
0.4999999999999994
 40
0.4999999999999994
 40
0.5624999999999992
 40
0.5624999999999992
 40
0.6249999999999991
 40
0.6249999999999991
 40
0.6562499999999992
 40
0.6562499999999992
 40
0.6874999999999992
 40
0.6874999999999992
 40
0.7187499999999993
 40
0.7187499999999993
 40
0.7499999999999994
 40
0.7499999999999994
 40
0.7812499999999996
 40
0.7812499999999996
 40
0.8124999999999996
 40
0.8124999999999996
 40
0.8437499999999997
 40
0.8437499999999997
 40
0.8749999999999998
 40
0.8749999999999998
 40
0.9062499999999999
 40
0.9062499999999999
 40
0.9374999999999999
 40
0.9374999999999999
 40
1.0
 40
1.0
 40
1.03125
 40
1.03125
 10
188.413535403843
 20
142.2466658030244
 30
0.0
 10
188.413535403843
 20
141.8501700153944
 30
0.0
 10
188.4265072623318
 20
141.7202199543902
 30
0.0
 10
188.4773274320242
 20
141.4645670210301
 30
0.0
 10
188.5157947554911
 20
141.3375375144808
 30
0.0
 10
188.6161929915632
 20
141.0953493833563
 30
0.0
 10
188.6776260225364
 20
140.9804878908035
 30
0.0
 10
188.8227608540813
 20
140.7631076949793
 30
0.0
 10
188.9072159714892
 20
140.6602101277807
 30
0.0
 10
189.1839354218475
 20
140.3835430887729
 30
0.0
 10
189.4070123137656
 20
140.2345449982929
 30
0.0
 10
189.8882956759859
 20
140.0350338578282
 30
0.0
 10
190.1515260949769
 20
139.9824757548315
 30
0.0
 10
190.5429282966648
 20
139.9822654724534
 30
0.0
 10
190.6754513247737
 20
139.9952512431806
 30
0.0
 10
190.9319817780147
 20
140.0462783913944
 30
0.0
 10
191.0566686123113
 20
140.0840335905448
 30
0.0
 10
191.2988478745469
 20
140.1841719234535
 30
0.0
 10
191.415941406697
 20
140.246777590865
 30
0.0
 10
191.6326564100524
 20
140.39151088413
 30
0.0
 10
191.7336752369151
 20
140.4741382314096
 30
0.0
 10
191.9204601243673
 20
140.6607432846611
 30
0.0
 10
192.0033170055634
 20
140.7618583485373
 30
0.0
 10
192.1482012706373
 20
140.9783911525272
 30
0.0
 10
192.2108387784582
 20
141.0952613601283
 30
0.0
 10
192.311287601858
 20
141.3375592307785
 30
0.0
 10
192.3491387028752
 20
141.4622232292394
 30
0.0
 10
192.4003602681316
 20
141.7185102733033
 30
0.0
 10
192.4134883947488
 20
141.8510822690488
 30
0.0
 10
192.413629035089
 20
142.2426864618229
 30
0.0
 10
192.3613042857172
 20
142.5058517931468
 30
0.0
 10
192.1621932236599
 20
142.9873571623199
 30
0.0
 10
192.0133308872026
 20
143.2106087018041
 30
0.0
 10
191.7370099278772
 20
143.4874650006929
 30
0.0
 10
191.6342462795036
 20
143.5719784475366
 30
0.0
 10
191.4168627221241
 20
143.7173957209769
 30
0.0
 10
191.3020639541677
 20
143.7789069200352
 30
0.0
 10
191.0601872307437
 20
143.8794367682901
 30
0.0
 10
190.9330336227434
 20
143.9180817915081
 30
0.0
 10
190.6773676133108
 20
143.9691381190591
 30
0.0
 10
190.5475015755548
 20
143.9822029776047
 30
0.0
 10
190.2835490488232
 20
143.9824655984026
 30
0.0
 10
190.1531447253991
 20
143.9695885981586
 30
0.0
 10
189.8974939620198
 20
143.9190025943528
 30
0.0
 10
189.7706284129054
 20
143.880726229731
 30
0.0
 10
189.5281079549595
 20
143.7804553622509
 30
0.0
 10
189.4131813162992
 20
143.71909933811
 30
0.0
 10
189.1958098474672
 20
143.5742530429372
 30
0.0
 10
189.092796034805
 20
143.4898755284426
 30
0.0
 10
188.908095489223
 20
143.3054682082544
 30
0.0
 10
188.8252657549664
 20
143.2048951449849
 30
0.0
 10
188.6790133163689
 20
142.9866690044059
 30
0.0
 10
188.6166448355765
 20
142.8701138944846
 30
0.0
 10
188.4666886840098
 20
142.5092643004509
 30
0.0
 10
188.413535403843
 20
142.2466658030244
 30
0.0
 10
188.413535403843
 20
141.8501700153944
 30
0.0
  0
SPLINE
  5
F5
330
1F
100
AcDbEntity
  8
0
  6
HIDDEN
 62
     7
370
     0
100
AcDbSpline
210
0.0
220
0.0
230
1.0
 70
     8
 71
     3
 72
    12
 73
     8
 74
     0
 42
0.00000001
 43
0.00000001
 12
1.0
 22
0.0
 32
0.0
 13
1.0
 23
0.0
 33
0.0
 40
0.0
 40
0.0
 40
0.0
 40
0.0
 40
0.4999999999999971
 40
0.4999999999999971
 40
0.7499999999999986
 40
0.7499999999999986
 40
1.0
 40
1.0
 40
1.0
 40
1.0
 10
188.5082795155172
 20
132.0729659572525
 30
0.0
 10
188.5390017574363
 20
132.1855217566617
 30
0.0
 10
188.5818389719715
 20
132.2982796164013
 30
0.0
 10
188.6812659961712
 20
132.4478205021976
 30
0.0
 10
188.7210181909879
 20
132.4951132339045
 30
0.0
 10
188.8190596478461
 20
132.568849527226
 30
0.0
 10
188.8786157034336
 20
132.5942688466016
 30
0.0
 10
188.9412922174095
 20
132.5942688466016
 30
0.0
  0
LINE
  5
F6
330
1F
100
AcDbEntity
  8
0
  6
HIDDEN
 62
     7
370
     0
100
AcDbLine
 10
188.9412924003
 20
132.5942684497
 30
0.0
 11
191.885778616
 21
132.5942684497
 31
0.0
  0
SPLINE
  5
F7
330
1F
100
AcDbEntity
  8
0
  6
HIDDEN
 62
     7
370
     0
100
AcDbSpline
210
0.0
220
0.0
230
1.0
 70
     8
 71
     3
 72
    12
 73
     8
 74
     0
 42
0.00000001
 43
0.00000001
 12
1.0
 22
0.0
 32
0.0
 13
1.0
 23
0.0
 33
0.0
 40
0.0
 40
0.0
 40
0.0
 40
0.0
 40
0.2499999999999986
 40
0.2499999999999986
 40
0.4999999999999972
 40
0.4999999999999972
 40
1.0
 40
1.0
 40
1.0
 40
1.0
 10
191.8857785902765
 20
132.5942688466016
 30
0.0
 10
191.9488586287699
 20
132.5942688466016
 30
0.0
 10
192.0080072509514
 20
132.5689045273867
 30
0.0
 10
192.1064798010204
 20
132.4947396670138
 30
0.0
 10
192.1455164130051
 20
132.4482193264597
 30
0.0
 10
192.2454128797842
 20
132.2980769836144
 30
0.0
 10
192.2878337608508
 20
132.1863837766423
 30
0.0
 10
192.3187912921688
 20
132.0729659572525
 30
0.0
  0
ELLIPSE
  5
F8
330
1F
100
AcDbEntity
  8
0
  6
HIDDEN
 62
     7
370
     0
100
AcDbEllipse
 10
176.0663812145
 20
141.9823352779
 30
0.0
 11
-14.7536831606561
 21
31.09325491558116
 31
0.0
210
0.0
220
0.0
230
1.0
 40
0.3419987131
 41
3.300734856217131
 42
4.23149622336078
  0
SPLINE
  5
F9
330
1F
100
AcDbEntity
  8
0
  6
HIDDEN
 62
     7
370
     0
100
AcDbSpline
210
0.0
220
0.0
230
1.0
 70
     8
 71
     3
 72
    12
 73
     8
 74
     0
 42
0.00000001
 43
0.00000001
 12
1.0
 22
0.0
 32
0.0
 13
1.0
 23
0.0
 33
0.0
 40
0.0
 40
0.0
 40
0.0
 40
0.0
 40
0.5000000000000064
 40
0.5000000000000064
 40
0.7500000000000032
 40
0.7500000000000032
 40
1.0
 40
1.0
 40
1.0
 40
1.0
 10
192.3187912921688
 20
112.0815928178205
 30
0.0
 10
192.2880690502497
 20
112.0442908348674
 30
0.0
 10
192.2452318357145
 20
112.0076790028211
 30
0.0
 10
192.1458048115148
 20
111.9599142195359
 30
0.0
 10
192.1060526166981
 20
111.9449567040535
 30
0.0
 10
192.0080111598399
 20
111.9217667582843
 30
0.0
 10
191.9484551042524
 20
111.9138433190647
 30
0.0
 10
191.8857785902765
 20
111.9138433190647
 30
0.0
  0
LINE
  5
FA
330
1F
100
AcDbEntity
  8
0
  6
HIDDEN
 62
     7
370
     0
100
AcDbLine
 10
191.885778616
 20
111.9138427611
 30
0.0
 11
188.9412924003
 21
111.9138427611
 31
0.0
  0
SPLINE
  5
FB
330
1F
100
AcDbEntity
  8
0
  6
HIDDEN
 62
     7
370
     0
100
AcDbSpline
210
0.0
220
0.0
230
1.0
 70
     8
 71
     3
 72
    12
 73
     8
 74
     0
 42
0.00000001
 43
0.00000001
 12
1.0
 22
0.0
 32
0.0
 13
1.0
 23
0.0
 33
0.0
 40
0.0
 40
0.0
 40
0.0
 40
0.0
 40
0.2499999999999995
 40
0.2499999999999995
 40
0.499999999999999
 40
0.499999999999999
 40
1.0
 40
1.0
 40
1.0
 40
1.0
 10
188.9412922174094
 20
111.9138433190647
 30
0.0
 10
188.8782121789161
 20
111.9138433190647
 30
0.0
 10
188.8190635567347
 20
111.9217492452771
 30
0.0
 10
188.7205910066656
 20
111.9450744067133
 30
0.0
 10
188.6815543946809
 20
111.959787196545
 30
0.0
 10
188.5816579279019
 20
112.0077429972759
 30
0.0
 10
188.5392370468352
 20
112.044005153856
 30
0.0
 10
188.5082795155172
 20
112.0815928178205
 30
0.0
  0
ELLIPSE
  5
FC
330
1F
100
AcDbEntity
  8
0
  6
HIDDEN
 62
     7
370
     0
100
AcDbEllipse
 10
204.7606895932
 20
141.9823352779
 30
0.0
 11
14.75368316065612
 21
31.09325491558116
 31
0.0
210
0.0
220
0.0
230
1.0
 40
0.3419987131
 41
2.051689083818822
 42
2.982450450962501
  0
SPLINE
  5
FD
330
1F
100
AcDbEntity
  8
0
  6
HIDDEN
 62
     7
370
     0
100
AcDbSpline
210
0.0
220
0.0
230
1.0
 70
     8
 71
     3
 72
    12
 73
     8
 74
     0
 42
0.00000001
 43
0.00000001
 12
1.0
 22
0.0
 32
0.0
 13
1.0
 23
0.0
 33
0.0
 40
0.0
 40
0.0
 40
0.0
 40
0.0
 40
0.5000000000000019
 40
0.5000000000000019
 40
0.7500000000000009
 40
0.7500000000000009
 40
1.0
 40
1.0
 40
1.0
 40
1.0
 10
188.5082795155172
 20
171.8830777380551
 30
0.0
 10
188.5390017574363
 20
171.9203797210081
 30
0.0
 10
188.5818389719715
 20
171.9569915530545
 30
0.0
 10
188.6812659961712
 20
172.0047563363397
 30
0.0
 10
188.7210181909879
 20
172.0197138518221
 30
0.0
 10
188.8190596478462
 20
172.0429037975912
 30
0.0
 10
188.8786157034336
 20
172.0508272368109
 30
0.0
 10
188.9412922174094
 20
172.0508272368109
 30
0.0
  0
LINE
  5
FE
330
1F
100
AcDbEntity
  8
0
  6
HIDDEN
 62
     7
370
     0
100
AcDbLine
 10
188.9412924003
 20
172.0508277948
 30
0.0
 11
191.885778616
 21
172.0508277948
 31
0.0
  0
SPLINE
  5
FF
330
1F
100
AcDbEntity
  8
0
  6
HIDDEN
 62
     7
370
     0
100
AcDbSpline
210
0.0
220
0.0
230
1.0
 70
     8
 71
     3
 72
    12
 73
     8
 74
     0
 42
0.00000001
 43
0.00000001
 12
1.0
 22
0.0
 32
0.0
 13
1.0
 23
0.0
 33
0.0
 40
0.0
 40
0.0
 40
0.0
 40
0.0
 40
0.2499999999999986
 40
0.2499999999999986
 40
0.4999999999999972
 40
0.4999999999999972
 40
1.0
 40
1.0
 40
1.0
 40
1.0
 10
191.8857785902765
 20
172.0508272368109
 30
0.0
 10
191.9488586287699
 20
172.0508272368109
 30
0.0
 10
192.0080072509514
 20
172.0429213105985
 30
0.0
 10
192.1064798010204
 20
172.0195961491622
 30
0.0
 10
192.1455164130051
 20
172.0048833593305
 30
0.0
 10
192.2454128797842
 20
171.9569275585996
 30
0.0
 10
192.2878337608508
 20
171.9206654020196
 30
0.0
 10
192.3187912921688
 20
171.8830777380551
 30
0.0
  0
ELLIPSE
  5
100
330
1F
100
AcDbEntity
  8
0
  6
HIDDEN
 62
     7
370
     0
100
AcDbEllipse
 10
176.0663812145
 20
141.9823352779
 30
0.0
 11
14.75368316065624
 21
31.09325491558116
 31
0.0
210
0.0
220
0.0
230
1.0
 40
0.3419987131
 41
5.193281737408638
 42
6.124043104552341
  0
SPLINE
  5
101
330
1F
100
AcDbEntity
  8
0
  6
HIDDEN
 62
     7
370
     0
100
AcDbSpline
210
0.0
220
0.0
230
1.0
 70
     8
 71
     3
 72
    12
 73
     8
 74
     0
 42
0.00000001
 43
0.00000001
 12
1.0
 22
0.0
 32
0.0
 13
1.0
 23
0.0
 33
0.0
 40
0.0
 40
0.0
 40
0.0
 40
0.0
 40
0.5
 40
0.5
 40
0.75
 40
0.75
 40
1.0
 40
1.0
 40
1.0
 40
1.0
 10
192.3187912921688
 20
151.8917045986233
 30
0.0
 10
192.2880690502497
 20
151.7791487992141
 30
0.0
 10
192.2452318357145
 20
151.6663909394745
 30
0.0
 10
192.1458048115148
 20
151.5168500536782
 30
0.0
 10
192.1060526166981
 20
151.4695573219713
 30
0.0
 10
192.0080111598399
 20
151.3958210286499
 30
0.0
 10
191.9484551042524
 20
151.3704017092742
 30
0.0
 10
191.8857785902765
 20
151.3704017092742
 30
0.0
  0
LINE
  5
102
330
1F
100
AcDbEntity
  8
0
  6
HIDDEN
 62
     7
370
     0
100
AcDbLine
 10
191.885778616
 20
151.3704021062
 30
0.0
 11
188.9412924003
 21
151.3704021062
 31
0.0
  0
SPLINE
  5
103
330
1F
100
AcDbEntity
  8
0
  6
HIDDEN
 62
     7
370
     0
100
AcDbSpline
210
0.0
220
0.0
230
1.0
 70
     8
 71
     3
 72
    12
 73
     8
 74
     0
 42
0.00000001
 43
0.00000001
 12
1.0
 22
0.0
 32
0.0
 13
1.0
 23
0.0
 33
0.0
 40
0.0
 40
0.0
 40
0.0
 40
0.0
 40
0.2499999999999991
 40
0.2499999999999991
 40
0.4999999999999982
 40
0.4999999999999982
 40
1.0
 40
1.0
 40
1.0
 40
1.0
 10
188.9412922174095
 20
151.3704017092742
 30
0.0
 10
188.8782121789161
 20
151.3704017092742
 30
0.0
 10
188.8190635567347
 20
151.3957660284891
 30
0.0
 10
188.7205910066656
 20
151.4699308888621
 30
0.0
 10
188.6815543946809
 20
151.5164512294162
 30
0.0
 10
188.5816579279019
 20
151.6665935722614
 30
0.0
 10
188.5392370468352
 20
151.7782867792336
 30
0.0
 10
188.5082795155172
 20
151.8917045986233
 30
0.0
  0
ELLIPSE
  5
104
330
1F
100
AcDbEntity
  8
0
  6
HIDDEN
 62
     7
370
     0
100
AcDbEllipse
 10
204.7606895932
 20
141.9823352779
 30
0.0
 11
-14.75368316065624
 21
31.09325491558116
 31
0.0
210
0.0
220
0.0
230
1.0
 40
0.3419987131
 41
0.1591422026272845
 42
1.089903569770961
  0
SPLINE
  5
105
330
1F
100
AcDbEntity
  8
0
  6
HIDDEN
 62
     7
370
     0
100
AcDbSpline
210
0.0
220
0.0
230
1.0
 70
     8
 71
     3
 72
     9
 73
     5
 74
     0
 42
0.00000001
 43
0.00000001
 12
1.0
 22
0.0
 32
0.0
 13
1.0
 23
0.0
 33
0.0
 40
0.0
 40
0.0
 40
0.0
 40
0.0
 40
0.275123734486922
 40
0.9999999999999999
 40
0.9999999999999999
 40
0.9999999999999999
 40
0.9999999999999999
 10
214.654813456173
 20
110.4964163686264
 30
0.0
 10
214.6072904241353
 20
110.4920169610127
 30
0.0
 10
214.4345571187869
 20
110.4760263100353
 30
0.0
 10
214.3006845765777
 20
110.5239605528125
 30
0.0
 10
214.2036435481263
 20
110.558706947707
 30
0.0
  0
ELLIPSE
  5
106
330
1F
100
AcDbEntity
  8
0
  6
HIDDEN
 62
     7
370
     0
100
AcDbEllipse
 10
232.9063892892
 20
141.9823352779
 30
0.0
 11
178.6426981535718
 21
5.639730005880666
 31
0.0
210
0.0
220
0.0
230
1.0
 40
0.1734804855
 41
4.602028054902418
 42
4.607772946539714
  0
SPLINE
  5
107
330
1F
100
AcDbEntity
  8
0
  6
HIDDEN
 62
     7
370
     0
100
AcDbSpline
210
0.0
220
0.0
230
1.0
 70
     8
 71
     3
 72
    28
 73
    24
 74
     0
 42
0.00000001
 43
0.00000001
 12
1.0
 22
0.0
 32
0.0
 13
1.0
 23
0.0
 33
0.0
 40
0.0
 40
0.0
 40
0.0
 40
0.0
 40
0.1249999999999996
 40
0.1249999999999996
 40
0.2499999999999993
 40
0.2499999999999993
 40
0.3749999999999989
 40
0.3749999999999989
 40
0.4999999999999986
 40
0.4999999999999986
 40
0.562499999999999
 40
0.562499999999999
 40
0.6249999999999996
 40
0.6249999999999996
 40
0.7499999999999997
 40
0.7499999999999997
 40
0.8124999999999999
 40
0.8124999999999999
 40
0.8749999999999999
 40
0.8749999999999999
 40
0.9375
 40
0.9375
 40
1.0
 40
1.0
 40
1.0
 40
1.0
 10
215.646208415864
 20
117.8586792562568
 30
0.0
 10
215.3677698837523
 20
118.1271922490036
 30
0.0
 10
215.1187554641771
 20
118.4103972163881
 30
0.0
 10
214.6693447454894
 20
119.0052424739668
 30
0.0
 10
214.4691525986906
 20
119.3169206384438
 30
0.0
 10
214.1182271284512
 20
119.9710347373336
 30
0.0
 10
213.9667960839713
 20
120.3155237585317
 30
0.0
 10
213.7255344696547
 20
121.030583933372
 30
0.0
 10
213.6361206677315
 20
121.3985536703616
 30
0.0
 10
213.5583862499889
 20
121.9677786088157
 30
0.0
 10
213.5419510595996
 20
122.1604088934578
 30
0.0
 10
213.5310617904405
 20
122.5519045419753
 30
0.0
 10
213.5367567626955
 20
122.7512691888621
 30
0.0
 10
213.5918981988528
 20
123.3473407976182
 30
0.0
 10
213.677812601708
 20
123.7458015928591
 30
0.0
 10
213.911430393846
 20
124.3394027287805
 30
0.0
 10
214.0053965115188
 20
124.5321546969334
 30
0.0
 10
214.2300515790021
 20
124.9049194082908
 30
0.0
 10
214.3614054223454
 20
125.0857991918435
 30
0.0
 10
214.6657596638334
 20
125.427156315599
 30
0.0
 10
214.8353063089998
 20
125.5839936611764
 30
0.0
 10
215.2127249789966
 20
125.865898079861
 30
0.0
 10
215.4222186537008
 20
125.9913933782337
 30
0.0
 10
215.646208415864
 20
126.0939018593024
 30
0.0
  0
ELLIPSE
  5
108
330
1F
100
AcDbEntity
  8
0
  6
HIDDEN
 62
     7
370
     0
100
AcDbEllipse
 10
233.9929737468
 20
141.9823352779
 30
0.0
 11
-23.0522614951218
 21
31.49098328279274
 31
0.0
210
0.0
220
0.0
230
1.0
 40
0.0326926316
 41
6.259257973531203
 42
6.979465476252354
  0
LINE
  5
109
330
1F
100
AcDbEntity
  8
0
  6
HIDDEN
 62
     7
370
     0
100
AcDbLine
 10
178.4135354038
 20
172.9823347713
 30
0.0
 11
178.4135354038
 21
110.9823357846
 31
0.0
  0
SPLINE
  5
10A
330
1F
100
AcDbEntity
  8
0
  6
HIDDEN
 62
     7
370
     0
100
AcDbSpline
210
0.0
220
0.0
230
1.0
 70
     8
 71
     3
 72
    12
 73
     8
 74
     0
 42
0.00000001
 43
0.00000001
 12
1.0
 22
0.0
 32
0.0
 13
1.0
 23
0.0
 33
0.0
 40
0.0
 40
0.0
 40
0.0
 40
0.0
 40
0.1197030936822002
 40
0.3015489976767202
 40
0.5759134691718534
 40
0.9489205294638132
 40
1.0
 40
1.0
 40
1.0
 40
1.0
 10
201.988396170373
 20
127.5346974442828
 30
0.0
 10
202.0644354426709
 20
127.6521121357392
 30
0.0
 10
202.2559891079954
 20
127.9478963250365
 30
0.0
 10
202.4215660699004
 20
128.6617949857789
 30
0.0
 10
202.4248724818639
 20
129.71442454174
 30
0.0
 10
202.184398538714
 20
130.5685882936943
 30
0.0
 10
201.9919807913899
 20
131.0371310196983
 30
0.0
 10
201.9688048686934
 20
131.0935650552738
 30
0.0
  0
LWPOLYLINE
  5
10B
330
1F
100
AcDbEntity
  8
0
  6
HIDDEN
 62
     7
370
     0
100
AcDbPolyline
 90
       16
 70
   128
 43
0.0
 10
201.9688048687
 20
131.0935650553
 10
201.5515574541
 20
131.5548733409
 10
201.0255483266
 20
131.9234684642
 10
200.4175325211
 20
132.1805982451
 10
199.7584448483
 20
132.3131841208
 10
199.0818091955
 20
132.3144795905
 10
198.4220509704
 20
132.1844194616
 10
197.8127294507
 20
131.9296207811
 10
197.2848409142
 20
131.5630447651
 10
196.8652409788
 20
131.1033383544
 10
196.5752755579
 20
130.5738889213
 10
196.4296949383
 20
130.0016284521
 10
196.4359031346
 20
129.4156691591
 10
196.5935853597
 20
128.8458189528
 10
196.8947210636
 20
128.3210661794
 10
197.1974102136
 20
127.981166036
  0
LINE
  5
10C
330
1F
100
AcDbEntity
  8
0
  6
HIDDEN
 62
     7
370
     0
100
AcDbLine
 10
178.4135354038
 20
117.7323345627
 30
0.0
 11
178.4135354038
 21
166.2323359932
 31
0.0
  0
SPLINE
  5
10D
330
1F
100
AcDbEntity
  8
0
  6
HIDDEN
 62
     7
370
     0
100
AcDbSpline
210
0.0
220
0.0
230
1.0
 70
     8
 71
     3
 72
    12
 73
     8
 74
     0
 42
0.00000001
 43
0.00000001
 12
1.0
 22
0.0
 32
0.0
 13
1.0
 23
0.0
 33
0.0
 40
0.0
 40
0.0
 40
0.0
 40
0.0
 40
0.5000000000000008
 40
0.5000000000000008
 40
0.7500000000000003
 40
0.7500000000000003
 40
1.0
 40
1.0
 40
1.0
 40
1.0
 10
177.5970231173876
 20
157.4346032597757
 30
0.0
 10
177.6534292960683
 20
157.3867808861137
 30
0.0
 10
177.7235921975404
 20
157.3465100391725
 30
0.0
 10
177.8416029109323
 20
157.3384641706928
 30
0.0
 10
177.8818086945289
 20
157.3450267690311
 30
0.0
 10
177.955529391264
 20
157.3724088634847
 30
0.0
 10
177.9883901130515
 20
157.3921703540155
 30
0.0
 10
178.0185585149815
 20
157.4151030652041
 30
0.0
  0
SPLINE
  5
10E
330
1F
100
AcDbEntity
  8
0
  6
HIDDEN
 62
     7
370
     0
100
AcDbSpline
210
0.0
220
0.0
230
1.0
 70
     8
 71
     3
 72
    16
 73
    12
 74
     0
 42
0.00000001
 43
0.00000001
 12
1.0
 22
0.0
 32
0.0
 13
1.0
 23
0.0
 33
0.0
 40
0.0
 40
0.0
 40
0.0
 40
0.0
 40
0.0624999999999928
 40
0.0624999999999928
 40
0.1249999999999855
 40
0.1249999999999855
 40
0.2499999999999791
 40
0.2499999999999791
 40
0.499999999999981
 40
0.499999999999981
 40
1.0
 40
1.0
 40
1.0
 40
1.0
 10
178.0185585149364
 20
157.4151030652522
 30
0.0
 10
178.0301714147757
 20
157.4239306882336
 30
0.0
 10
178.0435225992082
 20
157.4317650701155
 30
0.0
 10
178.0729224388273
 20
157.4400751961879
 30
0.0
 10
178.0877631633826
 20
157.4395793769529
 30
0.0
 10
178.1235963713512
 20
157.4281284059836
 30
0.0
 10
178.1377095791728
 20
157.4114479051249
 30
0.0
 10
178.1722009503917
 20
157.3593272193679
 30
0.0
 10
178.1832850215021
 20
157.3195377253429
 30
0.0
 10
178.2094078392981
 20
157.1962010932458
 30
0.0
 10
178.213535403843
 20
157.1087796827471
 30
0.0
 10
178.213535403843
 20
157.0200424404289
 30
0.0
  0
LINE
  5
10F
330
1F
100
AcDbEntity
  8
0
  6
HIDDEN
 62
     7
370
     0
100
AcDbLine
 10
178.2135354089
 20
126.9446282248
 30
0.0
 11
178.2135354089
 21
157.0200423311
 31
0.0
  0
SPLINE
  5
110
330
1F
100
AcDbEntity
  8
0
  6
HIDDEN
 62
     7
370
     0
100
AcDbSpline
210
0.0
220
0.0
230
1.0
 70
     8
 71
     3
 72
    16
 73
    12
 74
     0
 42
0.00000001
 43
0.00000001
 12
1.0
 22
0.0
 32
0.0
 13
1.0
 23
0.0
 33
0.0
 40
0.0
 40
0.0
 40
0.0
 40
0.0
 40
0.5000000000000062
 40
0.5000000000000062
 40
0.7500000000000093
 40
0.7500000000000093
 40
0.8750000000000056
 40
0.8750000000000056
 40
0.9375000000000028
 40
0.9375000000000028
 40
1.0
 40
1.0
 40
1.0
 40
1.0
 10
178.213535403843
 20
126.9446281154465
 30
0.0
 10
178.213535403843
 20
126.8555017502578
 30
0.0
 10
178.2093891287651
 20
126.7686403826444
 30
0.0
 10
178.1834235333715
 20
126.6456581361503
 30
0.0
 10
178.171962627994
 20
126.6048868409191
 30
0.0
 10
178.1376508902197
 20
126.5531825209193
 30
0.0
 10
178.1236261542901
 20
126.5365121543288
 30
0.0
 10
178.0876031912563
 20
126.5250599338721
 30
0.0
 10
178.0728486821666
 20
126.5246068875971
 30
0.0
 10
178.0434965210198
 20
126.5329222088133
 30
0.0
 10
178.0301566465157
 20
126.5407510938916
 30
0.0
 10
178.0185585149673
 20
126.5495674906542
 30
0.0
  0
SPLINE
  5
111
330
1F
100
AcDbEntity
  8
0
  6
HIDDEN
 62
     7
370
     0
100
AcDbSpline
210
0.0
220
0.0
230
1.0
 70
     8
 71
     3
 72
    12
 73
     8
 74
     0
 42
0.00000001
 43
0.00000001
 12
1.0
 22
0.0
 32
0.0
 13
1.0
 23
0.0
 33
0.0
 40
0.0
 40
0.0
 40
0.0
 40
0.0
 40
0.2499999999999998
 40
0.2499999999999998
 40
0.4999999999999996
 40
0.4999999999999996
 40
1.0
 40
1.0
 40
1.0
 40
1.0
 10
178.0185585149744
 20
126.5495674906631
 30
0.0
 10
177.9883666732572
 20
126.5725180197609
 30
0.0
 10
177.9550077038426
 20
126.5924874937851
 30
0.0
 10
177.881870419262
 20
126.6195886274106
 30
0.0
 10
177.841628546608
 20
126.626189368056
 30
0.0
 10
177.7239227696396
 20
126.6182204935493
 30
0.0
 10
177.6535122918601
 20
126.5779600353815
 30
0.0
 10
177.5970231173918
 20
126.5300672961033
 30
0.0
  0
SPLINE
  5
112
330
1F
100
AcDbEntity
  8
0
  6
HIDDEN
 62
     7
370
     0
100
AcDbSpline
210
0.0
220
0.0
230
1.0
 70
     8
 71
     3
 72
    12
 73
     8
 74
     0
 42
0.00000001
 43
0.00000001
 12
1.0
 22
0.0
 32
0.0
 13
1.0
 23
0.0
 33
0.0
 40
0.0
 40
0.0
 40
0.0
 40
0.0
 40
0.2500000000000007
 40
0.2500000000000007
 40
0.4999999999999986
 40
0.4999999999999986
 40
1.0
 40
1.0
 40
1.0
 40
1.0
 10
177.5970231173915
 20
126.5300672961035
 30
0.0
 10
177.5088691796537
 20
126.4553284882494
 30
0.0
 10
177.448515755025
 20
126.3643479877671
 30
0.0
 10
177.3422537969582
 20
126.1754341650145
 30
0.0
 10
177.3000216303961
 20
126.0789297054739
 30
0.0
 10
177.1889509350789
 20
125.7881619513067
 30
0.0
 10
177.1360141586521
 20
125.592495136763
 30
0.0
 10
177.0922150602834
 20
125.3984286516967
 30
0.0
  0
SPLINE
  5
113
330
1F
100
AcDbEntity
  8
0
  6
HIDDEN
 62
     7
370
     0
100
AcDbSpline
210
0.0
220
0.0
230
1.0
 70
     8
 71
     3
 72
    12
 73
     8
 74
     0
 42
0.00000001
 43
0.00000001
 12
1.0
 22
0.0
 32
0.0
 13
1.0
 23
0.0
 33
0.0
 40
0.0
 40
0.0
 40
0.0
 40
0.0
 40
0.4999999999999998
 40
0.4999999999999998
 40
0.7499999999999999
 40
0.7499999999999999
 40
1.0
 40
1.0
 40
1.0
 40
1.0
 10
177.0922150602834
 20
120.2122543229356
 30
0.0
 10
177.1359616011199
 20
120.1856601522944
 30
0.0
 10
177.1888459563515
 20
120.1658999269687
 30
0.0
 10
177.3004130436876
 20
120.1454489367396
 30
0.0
 10
177.3429966402306
 20
120.1401887120832
 30
0.0
 10
177.4479133673124
 20
120.1323059181605
 30
0.0
 10
177.5094469751572
 20
120.1297417929814
 30
0.0
 10
177.5970231173833
 20
120.1275415754617
 30
0.0
  0
LINE
  5
114
330
1F
100
AcDbEntity
  8
0
  6
HIDDEN
 62
     7
370
     0
100
AcDbLine
 10
178.2135354089
 20
119.4425147559
 30
0.0
 11
178.2135354089
 21
119.9227400656
 31
0.0
  0
LINE
  5
115
330
1F
100
AcDbEntity
  8
0
  6
HIDDEN
 62
     7
370
     0
100
AcDbLine
 10
178.2135354089
 20
164.0419304903
 30
0.0
 11
178.2135354089
 21
164.5221558
 31
0.0
  0
SPLINE
  5
116
330
1F
100
AcDbEntity
  8
0
  6
HIDDEN
 62
     7
370
     0
100
AcDbSpline
210
0.0
220
0.0
230
1.0
 70
     8
 71
     3
 72
    12
 73
     8
 74
     0
 42
0.00000001
 43
0.00000001
 12
1.0
 22
0.0
 32
0.0
 13
1.0
 23
0.0
 33
0.0
 40
0.0
 40
0.0
 40
0.0
 40
0.0
 40
0.25
 40
0.25
 40
0.5
 40
0.5
 40
1.0
 40
1.0
 40
1.0
 40
1.0
 10
177.5970231173913
 20
163.8371289804136
 30
0.0
 10
177.5083384575349
 20
163.8349009130726
 30
0.0
 10
177.4484200418115
 20
163.8323991290423
 30
0.0
 10
177.3427608144908
 20
163.8244676932063
 30
0.0
 10
177.3001195763759
 20
163.8191755383094
 30
0.0
 10
177.1889302342733
 20
163.7987705978223
 30
0.0
 10
177.1360035521523
 20
163.7790359062354
 30
0.0
 10
177.0922150602834
 20
163.7524162329398
 30
0.0
  0
SPLINE
  5
117
330
1F
100
AcDbEntity
  8
0
  6
HIDDEN
 62
     7
370
     0
100
AcDbSpline
210
0.0
220
0.0
230
1.0
 70
     8
 71
     3
 72
    12
 73
     8
 74
     0
 42
0.00000001
 43
0.00000001
 12
1.0
 22
0.0
 32
0.0
 13
1.0
 23
0.0
 33
0.0
 40
0.0
 40
0.0
 40
0.0
 40
0.0
 40
0.500000000000002
 40
0.500000000000002
 40
0.7500000000000011
 40
0.7500000000000011
 40
1.0
 40
1.0
 40
1.0
 40
1.0
 10
177.0922150602818
 20
158.566241904179
 30
0.0
 10
177.1359765365802
 20
158.3723421162181
 30
0.0
 10
177.1888828522329
 20
158.1764857522826
 30
0.0
 10
177.3005940498791
 20
157.8843436057854
 30
0.0
 10
177.343113493465
 20
157.7876256690881
 30
0.0
 10
177.448236836031
 20
157.6009012326645
 30
0.0
 10
177.5098027997478
 20
157.5085505243952
 30
0.0
 10
177.5970231173885
 20
157.434603259775
 30
0.0
  0
SPLINE
  5
118
330
1F
100
AcDbEntity
  8
0
  6
HIDDEN
 62
     7
370
     0
100
AcDbSpline
210
0.0
220
0.0
230
1.0
 70
     8
 71
     3
 72
     8
 73
     4
 74
     0
 42
0.00000001
 43
0.00000001
 12
1.0
 22
0.0
 32
0.0
 13
1.0
 23
0.0
 33
0.0
 40
0.0
 40
0.0
 40
0.0
 40
0.0
 40
1.0
 40
1.0
 40
1.0
 40
1.0
 10
199.1723548525386
 20
127.7275854779368
 30
0.0
 10
199.3827054174651
 20
127.53513102625
 30
0.0
 10
199.5958327937642
 20
127.3430914996277
 30
0.0
 10
199.813071650156
 20
127.1574026398073
 30
0.0
  0
SPLINE
  5
119
330
1F
100
AcDbEntity
  8
0
  6
HIDDEN
 62
     7
370
     0
100
AcDbSpline
210
0.0
220
0.0
230
1.0
 70
     8
 71
     3
 72
     8
 73
     4
 74
     0
 42
0.00000001
 43
0.00000001
 12
1.0
 22
0.0
 32
0.0
 13
1.0
 23
0.0
 33
0.0
 40
0.0
 40
0.0
 40
0.0
 40
0.0
 40
1.0
 40
1.0
 40
1.0
 40
1.0
 10
201.9688055651019
 20
131.0935647965091
 30
0.0
 10
201.8319099380404
 20
131.2240856399032
 30
0.0
 10
201.6923127590256
 20
131.3489627670698
 30
0.0
 10
201.550236226721
 20
131.4678396985743
 30
0.0
  0
SPLINE
  5
11A
330
1F
100
AcDbEntity
  8
0
  6
HIDDEN
 62
     7
370
     0
100
AcDbSpline
210
0.0
220
0.0
230
1.0
 70
     8
 71
     3
 72
     8
 73
     4
 74
     0
 42
0.00000001
 43
0.00000001
 12
1.0
 22
0.0
 32
0.0
 13
1.0
 23
0.0
 33
0.0
 40
0.0
 40
0.0
 40
0.0
 40
0.0
 40
1.0
 40
1.0
 40
1.0
 40
1.0
 10
201.550236226721
 20
131.4678396985743
 30
0.0
 10
201.3960410762393
 20
131.4775521317621
 30
0.0
 10
201.2415473743115
 20
131.4856439607028
 30
0.0
 10
201.0866009489029
 20
131.4913197640315
 30
0.0
  0
LWPOLYLINE
  5
11B
330
1F
100
AcDbEntity
  8
0
  6
HIDDEN
 62
     7
370
     0
100
AcDbPolyline
 90
       16
 70
   128
 43
0.0
 10
201.0866002467
 20
131.4913198884
 10
200.5708449807
 20
131.8016579907
 10
199.9820553985
 20
131.9908878367
 10
199.357389408
 20
132.0470680083
 10
198.7362643059
 20
131.9666520293
 10
198.1578813221
 20
131.7547146763
 10
197.6587389883
 20
131.4246316041
 10
197.2703346338
 20
130.9972337048
 10
197.0171806689
 20
130.4994902174
 10
196.9152548637
 20
129.9628146525
 10
196.9709852066
 20
129.421073624
 10
197.1808568861
 20
128.9084550525
 10
197.5316264954
 20
128.4573084275
 10
198.0011564966
 20
128.0961042802
 10
198.5598177936
 20
127.8476367305
 10
199.1723542389
 20
127.7275855254
  0
SPLINE
  5
11C
330
1F
100
AcDbEntity
  8
0
  6
HIDDEN
 62
     7
370
     0
100
AcDbSpline
210
0.0
220
0.0
230
1.0
 70
     8
 71
     3
 72
    36
 73
    32
 74
     0
 42
0.00000001
 43
0.00000001
 12
1.0
 22
0.0
 32
0.0
 13
1.0
 23
0.0
 33
0.0
 40
0.0
 40
0.0
 40
0.0
 40
0.0
 40
0.0624999999999998
 40
0.0624999999999998
 40
0.1249999999999997
 40
0.1249999999999997
 40
0.1874999999999996
 40
0.1874999999999996
 40
0.2499999999999994
 40
0.2499999999999994
 40
0.3124999999999992
 40
0.3124999999999992
 40
0.3749999999999991
 40
0.3749999999999991
 40
0.4374999999999989
 40
0.4374999999999989
 40
0.4999999999999988
 40
0.4999999999999988
 40
0.6249999999999989
 40
0.6249999999999989
 40
0.6874999999999991
 40
0.6874999999999991
 40
0.7499999999999992
 40
0.7499999999999992
 40
0.8124999999999994
 40
0.8124999999999994
 40
0.8749999999999997
 40
0.8749999999999997
 40
0.9374999999999998
 40
0.9374999999999998
 40
1.0
 40
1.0
 40
1.0
 40
1.0
 10
201.2439644796736
 20
132.2546964135194
 30
0.0
 10
201.3571677712382
 20
132.1614589671691
 30
0.0
 10
201.4523804735786
 20
132.0746743537535
 30
0.0
 10
201.616008399338
 20
131.9036902339349
 30
0.0
 10
201.6847137418874
 20
131.8186331269479
 30
0.0
 10
201.7942315641023
 20
131.6482514161451
 30
0.0
 10
201.835713351752
 20
131.5625133583126
 30
0.0
 10
201.8938683454477
 20
131.3832869345103
 30
0.0
 10
201.910462543087
 20
131.2889240018642
 30
0.0
 10
201.9158258142372
 20
131.0923186291768
 30
0.0
 10
201.904929391549
 20
130.9901361248726
 30
0.0
 10
201.8527342149908
 20
130.7734112216632
 30
0.0
 10
201.8109590038864
 20
130.6588433941927
 30
0.0
 10
201.6968144310369
 20
130.4246670396776
 30
0.0
 10
201.6225957793817
 20
130.3017214694136
 30
0.0
 10
201.4481233266197
 20
130.0581912976602
 30
0.0
 10
201.3476078978385
 20
129.9366089858263
 30
0.0
 10
201.0121661002128
 20
129.5755046530248
 30
0.0
 10
200.7559833538738
 20
129.3539230937035
 30
0.0
 10
200.3791786768039
 20
129.0619643544992
 30
0.0
 10
200.2534953574091
 20
128.9702501088802
 30
0.0
 10
200.0142016315089
 20
128.8004353772222
 30
0.0
 10
199.8992818693319
 20
128.7213951201672
 30
0.0
 10
199.6815673361001
 20
128.5693854183499
 30
0.0
 10
199.5786299016138
 20
128.4963691380578
 30
0.0
 10
199.3970925906397
 20
128.3539955496395
 30
0.0
 10
199.3173762074743
 20
128.2841240417151
 30
0.0
 10
199.1923533808682
 20
128.1363785380429
 30
0.0
 10
199.1494616616085
 20
128.0604046323592
 30
0.0
 10
199.1188371196262
 20
127.8974891378693
 30
0.0
 10
199.1323761506751
 20
127.8122858351688
 30
0.0
 10
199.1723548525443
 20
127.7275854779316
 30
0.0
  0
LWPOLYLINE
  5
11D
330
1F
100
AcDbEntity
  8
0
  6
HIDDEN
 62
     7
370
     0
100
AcDbPolyline
 90
        9
 70
   128
 43
0.0
 10
201.2439639595
 20
132.2546961318
 10
201.3448392328
 20
132.232254983
 10
201.429254311
 20
132.186432981
 10
201.4962424811
 20
132.117759117
 10
201.5450307455
 20
132.0270222212
 10
201.5750603106
 20
131.9152653749
 10
201.5859847244
 20
131.7837738033
 10
201.577677327
 20
131.6340581115
 10
201.5502368387
 20
131.4678393836
  0
SPLINE
  5
11E
330
1F
100
AcDbEntity
  8
0
  6
HIDDEN
 62
     7
370
     0
100
AcDbSpline
210
0.0
220
0.0
230
1.0
 70
     8
 71
     3
 72
    10
 73
     6
 74
     0
 42
0.00000001
 43
0.00000001
 12
1.0
 22
0.0
 32
0.0
 13
1.0
 23
0.0
 33
0.0
 40
0.0
 40
0.0
 40
0.0
 40
0.0
 40
0.5
 40
0.5
 40
1.0
 40
1.0
 40
1.0
 40
1.0
 10
201.0866009489029
 20
131.4913197640315
 30
0.0
 10
201.060133379884
 20
131.6620036870147
 30
0.0
 10
201.0640150449062
 20
131.8115804793522
 30
0.0
 10
201.1266727452164
 20
132.064314217578
 30
0.0
 10
201.1818120734547
 20
132.1669426734596
 30
0.0
 10
201.2439644796752
 20
132.2546964135141
 30
0.0
  0
SPLINE
  5
11F
330
1F
100
AcDbEntity
  8
0
  6
HIDDEN
 62
     7
370
     0
100
AcDbSpline
210
0.0
220
0.0
230
1.0
 70
     8
 71
     3
 72
    62
 73
    58
 74
     0
 42
0.00000001
 43
0.00000001
 12
1.0
 22
0.0
 32
0.0
 13
1.0
 23
0.0
 33
0.0
 40
-0.0312500000000002
 40
-0.0312500000000002
 40
0.0
 40
0.0
 40
0.0312499999999995
 40
0.0312499999999995
 40
0.0624999999999989
 40
0.0624999999999989
 40
0.0937499999999984
 40
0.0937499999999984
 40
0.1249999999999978
 40
0.1249999999999978
 40
0.1874999999999972
 40
0.1874999999999972
 40
0.218749999999997
 40
0.218749999999997
 40
0.2499999999999968
 40
0.2499999999999968
 40
0.2812499999999968
 40
0.2812499999999968
 40
0.3124999999999968
 40
0.3124999999999968
 40
0.3749999999999972
 40
0.3749999999999972
 40
0.4062499999999974
 40
0.4062499999999974
 40
0.4374999999999976
 40
0.4374999999999976
 40
0.4687499999999978
 40
0.4687499999999978
 40
0.4999999999999979
 40
0.4999999999999979
 40
0.5624999999999976
 40
0.5624999999999976
 40
0.5937499999999977
 40
0.5937499999999977
 40
0.6249999999999978
 40
0.6249999999999978
 40
0.6562499999999979
 40
0.6562499999999979
 40
0.687499999999998
 40
0.687499999999998
 40
0.7187499999999981
 40
0.7187499999999981
 40
0.7499999999999982
 40
0.7499999999999982
 40
0.7812499999999984
 40
0.7812499999999984
 40
0.8124999999999986
 40
0.8124999999999986
 40
0.8749999999999991
 40
0.8749999999999991
 40
0.9062499999999993
 40
0.9062499999999993
 40
0.9374999999999996
 40
0.9374999999999996
 40
0.9687499999999998
 40
0.9687499999999998
 40
1.0
 40
1.0
 40
1.03125
 40
1.03125
 10
199.5795792227792
 20
135.494367652029
 30
0.0
 10
199.2474915849068
 20
135.494367652029
 30
0.0
 10
199.0843948543298
 20
135.5061587927009
 30
0.0
 10
198.7637985494213
 20
135.5525274364366
 30
0.0
 10
198.6045963461148
 20
135.5877120991373
 30
0.0
 10
198.3022858444007
 20
135.679923949575
 30
0.0
 10
198.1590342701563
 20
135.7366114016986
 30
0.0
 10
197.8879234290891
 20
135.8721591910254
 30
0.0
 10
197.7602414339603
 20
135.9513721448504
 30
0.0
 10
197.4162413457451
 20
136.2148914564502
 30
0.0
 10
197.2302397171608
 20
136.4324125361193
 30
0.0
 10
197.0427532039791
 20
136.7985950394113
 30
0.0
 10
196.9942812592271
 20
136.9292622380273
 30
0.0
 10
196.9297192798134
 20
137.2002653785972
 30
0.0
 10
196.9136407795934
 20
137.3389683735437
 30
0.0
 10
196.9134310506797
 20
137.6229329557616
 30
0.0
 10
196.9298625980906
 20
137.7695025647135
 30
0.0
 10
196.994031288243
 20
138.0565177441347
 30
0.0
 10
197.0415002510344
 20
138.1982656075051
 30
0.0
 10
197.2306237349886
 20
138.6172566100358
 30
0.0
 10
197.4147636273547
 20
138.8777685168519
 30
0.0
 10
197.7614992111587
 20
139.2127249284411
 30
0.0
 10
197.8868161673105
 20
139.3132771245673
 30
0.0
 10
198.1568756701104
 20
139.4914591842558
 30
0.0
 10
198.3032490459915
 20
139.5695496293301
 30
0.0
 10
198.6046669490451
 20
139.694678990314
 30
0.0
 10
198.7605191104841
 20
139.742606755751
 30
0.0
 10
199.0828621718005
 20
139.8077762995181
 30
0.0
 10
199.24881363887
 20
139.8244229057093
 30
0.0
 10
199.7397350064212
 20
139.824637492458
 30
0.0
 10
200.0702179935239
 20
139.7576135173459
 30
0.0
 10
200.5221274911225
 20
139.5703736385883
 30
0.0
 10
200.6684247085018
 20
139.4925053459426
 30
0.0
 10
200.9393082710581
 20
139.3140222570766
 30
0.0
 10
201.064664793216
 20
139.2134696019258
 30
0.0
 10
201.2954424347052
 20
138.9907932586717
 30
0.0
 10
201.4002303147752
 20
138.8687437411959
 30
0.0
 10
201.5808939389573
 20
138.6140849465734
 30
0.0
 10
201.6580824361527
 20
138.4803064100136
 30
0.0
 10
201.7849458404439
 20
138.2000442392523
 30
0.0
 10
201.8326071943762
 20
138.0578560879326
 30
0.0
 10
201.8968375614388
 20
137.771748366081
 30
0.0
 10
201.9134707753179
 20
137.6259437238294
 30
0.0
 10
201.9135996503293
 20
137.340419602176
 30
0.0
 10
201.8975186712005
 20
137.201660020523
 30
0.0
 10
201.8335512587321
 20
136.9317764873141
 30
0.0
 10
201.7849872084884
 20
136.8001275739772
 30
0.0
 10
201.5972563664459
 20
136.4327968590716
 30
0.0
 10
201.4113105289503
 20
136.2153941055618
 30
0.0
 10
201.0675353068459
 20
135.9518461321994
 30
0.0
 10
200.9403600024783
 20
135.8728361757582
 30
0.0
 10
200.6687175932037
 20
135.7368816945593
 30
0.0
 10
200.5255584222566
 20
135.6802390547769
 30
0.0
 10
200.2244314797187
 20
135.5882305686548
 30
0.0
 10
200.0649152510272
 20
135.5528154924347
 30
0.0
 10
199.7430493587954
 20
135.506162688309
 30
0.0
 10
199.5795792227792
 20
135.494367652029
 30
0.0
 10
199.2474915849068
 20
135.494367652029
 30
0.0
  0
LINE
  5
120
330
1F
100
AcDbEntity
  8
0
  6
HIDDEN
 62
     7
370
     0
100
AcDbLine
 10
178.2135354089
 20
119.9227400656
 30
0.0
 11
178.2135354089
 21
134.96044805
 31
0.0
  0
LINE
  5
121
330
1F
100
AcDbEntity
  8
0
  6
HIDDEN
 62
     7
370
     0
100
AcDbLine
 10
178.2135354089
 20
149.0042225058
 30
0.0
 11
178.2135354089
 21
164.0419304903
 31
0.0
  0
CIRCLE
  5
122
330
1F
100
AcDbEntity
  8
0
  6
HIDDEN
 62
     7
370
     0
100
AcDbCircle
 10
162.9135354038
 20
141.9823352779
 30
0.0
 40
4.049999999999983
  0
LINE
  5
123
330
1F
100
AcDbEntity
  8
0
  6
HIDDEN
 62
     7
370
     0
100
AcDbLine
 10
141.9437629458
 20
157.2952863361
 30
0.0
 11
141.9437629458
 21
126.6693842198
 31
0.0
  0
LINE
  5
124
330
1F
100
AcDbEntity
  8
0
  6
HIDDEN
 62
     7
370
     0
100
AcDbLine
 10
140.4135366257
 20
125.7859055485
 30
0.0
 11
140.4135366257
 21
158.1598498459
 31
0.0
  0
LINE
  5
125
330
1F
100
AcDbEntity
  8
0
  6
HIDDEN
 62
     7
370
     0
100
AcDbLine
 10
148.4437630799
 20
156.3287457983
 30
0.0
 11
148.4437630799
 21
127.6359247576
 31
0.0
  0
LINE
  5
126
330
1F
100
AcDbEntity
  8
0
  6
HIDDEN
 62
     7
370
     0
100
AcDbLine
 10
154.2437644031
 20
155.9823357101
 30
0.0
 11
154.2437644031
 21
127.9823348458
 31
0.0
  0
LINE
  5
127
330
1F
100
AcDbEntity
  8
0
  6
HIDDEN
 62
     7
370
     0
100
AcDbLine
 10
146.8437639352
 20
155.9823357101
 30
0.0
 11
146.8437639352
 21
127.9823348458
 31
0.0
  0
LINE
  5
128
330
1F
100
AcDbEntity
  8
0
  6
HIDDEN
 62
     7
370
     0
100
AcDbLine
 10
147.8437640991
 20
155.9823357101
 30
0.0
 11
147.8437640991
 21
127.9823348458
 31
0.0
  0
SPLINE
  5
129
330
1F
100
AcDbEntity
  8
0
  6
HIDDEN
 62
     7
370
     0
100
AcDbSpline
210
0.0
220
0.0
230
1.0
 70
     8
 71
     3
 72
    10
 73
     6
 74
     0
 42
0.00000001
 43
0.00000001
 12
1.0
 22
0.0
 32
0.0
 13
1.0
 23
0.0
 33
0.0
 40
0.0
 40
0.0
 40
0.0
 40
0.0
 40
0.5
 40
0.5
 40
1.0
 40
1.0
 40
1.0
 40
1.0
 10
166.913535403843
 20
142.6167641549602
 30
0.0
 10
166.9466828219195
 20
142.4077735539522
 30
0.0
 10
166.9635416672811
 20
142.1962110879306
 30
0.0
 10
166.9635291369334
 20
141.768222321963
 30
0.0
 10
166.946614179193
 20
141.5564642175473
 30
0.0
 10
166.913535403843
 20
141.3479064009153
 30
0.0
  0
LINE
  5
12A
330
1F
100
AcDbEntity
  8
0
  6
HIDDEN
 62
     7
370
     0
100
AcDbLine
 10
167.4135354634
 20
155.4823356281
 30
0.0
 11
167.4135354634
 21
128.4823349278
 31
0.0
  0
SPLINE
  5
12B
330
1F
100
AcDbEntity
  8
0
  6
HIDDEN
 62
     7
370
     0
100
AcDbSpline
210
0.0
220
0.0
230
1.0
 70
     8
 71
     3
 72
    10
 73
     6
 74
     0
 42
0.00000001
 43
0.00000001
 12
1.0
 22
0.0
 32
0.0
 13
1.0
 23
0.0
 33
0.0
 40
0.0
 40
0.0
 40
0.0
 40
0.0
 40
0.5
 40
0.5
 40
1.0
 40
1.0
 40
1.0
 40
1.0
 10
166.913535403843
 20
141.3479064009153
 30
0.0
 10
166.9467243663167
 20
141.5571589344977
 30
0.0
 10
166.9634251425714
 20
141.7679756953966
 30
0.0
 10
166.963644583016
 20
142.1925079765999
 30
0.0
 10
166.9467648676226
 20
142.4072562653725
 30
0.0
 10
166.913535403843
 20
142.6167641549602
 30
0.0
  0
SPLINE
  5
12C
330
1F
100
AcDbEntity
  8
0
  6
HIDDEN
 62
     7
370
     0
100
AcDbSpline
210
0.0
220
0.0
230
1.0
 70
     8
 71
     3
 72
    68
 73
    64
 74
     0
 42
0.00000001
 43
0.00000001
 12
1.0
 22
0.0
 32
0.0
 13
1.0
 23
0.0
 33
0.0
 40
0.0
 40
0.0
 40
0.0
 40
0.0
 40
0.0312500000000002
 40
0.0312500000000002
 40
0.0625000000000003
 40
0.0625000000000003
 40
0.0937500000000005
 40
0.0937500000000005
 40
0.1250000000000006
 40
0.1250000000000006
 40
0.1562500000000008
 40
0.1562500000000008
 40
0.1875000000000009
 40
0.1875000000000009
 40
0.2187500000000011
 40
0.2187500000000011
 40
0.2500000000000013
 40
0.2500000000000013
 40
0.2812500000000012
 40
0.2812500000000012
 40
0.3125000000000012
 40
0.3125000000000012
 40
0.3437500000000011
 40
0.3437500000000011
 40
0.375000000000001
 40
0.375000000000001
 40
0.4062500000000009
 40
0.4062500000000009
 40
0.4375000000000009
 40
0.4375000000000009
 40
0.4687500000000009
 40
0.4687500000000009
 40
0.5000000000000009
 40
0.5000000000000009
 40
0.5625000000000009
 40
0.5625000000000009
 40
0.5937500000000008
 40
0.5937500000000008
 40
0.6250000000000008
 40
0.6250000000000008
 40
0.6562500000000007
 40
0.6562500000000007
 40
0.6875000000000007
 40
0.6875000000000007
 40
0.7187500000000006
 40
0.7187500000000006
 40
0.7500000000000004
 40
0.7500000000000004
 40
0.7812500000000004
 40
0.7812500000000004
 40
0.8125000000000003
 40
0.8125000000000003
 40
0.8437500000000003
 40
0.8437500000000003
 40
0.8750000000000002
 40
0.8750000000000002
 40
0.9062500000000002
 40
0.9062500000000002
 40
0.9375000000000001
 40
0.9375000000000001
 40
0.9687500000000001
 40
0.9687500000000001
 40
1.0
 40
1.0
 40
1.0
 40
1.0
 10
166.913535403843
 20
141.3479064009153
 30
0.0
 10
166.8735204514933
 20
141.0956167980997
 30
0.0
 10
166.810578650082
 20
140.8516179477239
 30
0.0
 10
166.64119198801
 20
140.3791995586614
 30
0.0
 10
166.5334984254245
 20
140.1487861725014
 30
0.0
 10
166.2782136568866
 20
139.7140815767043
 30
0.0
 10
166.1321744264144
 20
139.511439610053
 30
0.0
 10
165.8039529898551
 20
139.1344503192951
 30
0.0
 10
165.6197057020802
 20
138.9587923657178
 30
0.0
 10
165.2267455347719
 20
138.6485343967715
 30
0.0
 10
165.0174509378127
 20
138.5125891891216
 30
0.0
 10
164.5725655108753
 20
138.2791990937158
 30
0.0
 10
164.3357679183763
 20
138.1819524873014
 30
0.0
 10
163.855032849457
 20
138.03528102943
 30
0.0
 10
163.6087897562742
 20
137.9843886844876
 30
0.0
 10
163.1040729762948
 20
137.9288613342521
 30
0.0
 10
162.8478782753583
 20
137.9250364471822
 30
0.0
 10
162.3454995261582
 20
137.9644602298266
 30
0.0
 10
162.0962498269746
 20
138.0074876790378
 30
0.0
 10
161.6047220294959
 20
138.1411926484891
 30
0.0
 10
161.36942642827
 20
138.2298624943943
 30
0.0
 10
160.9185125336079
 20
138.4488938581717
 30
0.0
 10
160.7009001831445
 20
138.5808954238552
 30
0.0
 10
160.2976930135962
 20
138.8802527048581
 30
0.0
 10
160.1120815211618
 20
139.046871632296
 30
0.0
 10
159.7720934507593
 20
139.4139830577235
 30
0.0
 10
159.6170205199364
 20
139.6162868032642
 30
0.0
 10
159.350677443273
 20
140.0403674828582
 30
0.0
 10
159.2376933425562
 20
140.2635270883244
 30
0.0
 10
159.0528380856254
 20
140.7328823299186
 30
0.0
 10
158.981697324122
 20
140.9790928332541
 30
0.0
 10
158.8877369128338
 20
141.4736186596252
 30
0.0
 10
158.8637275828774
 20
141.7245496547173
 30
0.0
 10
158.8631544622048
 20
142.4887950342735
 30
0.0
 10
158.9585535735235
 20
142.9910193363244
 30
0.0
 10
159.2364173657246
 20
143.6985838425968
 30
0.0
 10
159.3495793218051
 20
143.9222901063376
 30
0.0
 10
159.615710503849
 20
144.3465600176582
 30
0.0
 10
159.7705382780487
 20
144.5488119797143
 30
0.0
 10
160.1107193838365
 20
144.9165227210825
 30
0.0
 10
160.2962218407863
 20
145.0831395963318
 30
0.0
 10
160.6985156418456
 20
145.3821889751272
 30
0.0
 10
160.9165236900976
 20
145.5146456831556
 30
0.0
 10
161.3671220572479
 20
145.7338520838603
 30
0.0
 10
161.6016710561287
 20
145.822337213864
 30
0.0
 10
162.090131049681
 20
145.9558234438026
 30
0.0
 10
162.3423964453949
 20
145.9997651562963
 30
0.0
 10
162.8445770835552
 20
146.0395741527698
 30
0.0
 10
163.0970592009069
 20
146.0362299399563
 30
0.0
 10
163.6049242439763
 20
145.9810506199658
 30
0.0
 10
163.8524697171602
 20
145.9300046914964
 30
0.0
 10
164.3334372546309
 20
145.7835943032608
 30
0.0
 10
164.5693971197362
 20
145.6869480984872
 30
0.0
 10
165.0159675692577
 20
145.4530431541741
 30
0.0
 10
165.2256124318312
 20
145.3169181403476
 30
0.0
 10
165.6185991385857
 20
145.0068638760185
 30
0.0
 10
165.8029950424007
 20
144.8312066284434
 30
0.0
 10
166.1315454602611
 20
144.454066705779
 30
0.0
 10
166.2774875567842
 20
144.2516005005091
 30
0.0
 10
166.5323729119864
 20
143.8180242023758
 30
0.0
 10
166.6406842247947
 20
143.5867323587943
 30
0.0
 10
166.8105192022117
 20
143.113372678661
 30
0.0
 10
166.8735145633487
 20
142.8690908818402
 30
0.0
 10
166.913535403843
 20
142.6167641549602
 30
0.0
  0
SPLINE
  5
12D
330
1F
100
AcDbEntity
  8
0
  6
HIDDEN
 62
     7
370
     0
100
AcDbSpline
210
0.0
220
0.0
230
1.0
 70
     8
 71
     3
 72
    68
 73
    64
 74
     0
 42
0.00000001
 43
0.00000001
 12
1.0
 22
0.0
 32
0.0
 13
1.0
 23
0.0
 33
0.0
 40
0.0
 40
0.0
 40
0.0
 40
0.0
 40
0.0312500000000003
 40
0.0312500000000003
 40
0.0625000000000006
 40
0.0625000000000006
 40
0.0937500000000009
 40
0.0937500000000009
 40
0.1250000000000011
 40
0.1250000000000011
 40
0.1562500000000014
 40
0.1562500000000014
 40
0.1875000000000017
 40
0.1875000000000017
 40
0.218750000000002
 40
0.218750000000002
 40
0.2500000000000022
 40
0.2500000000000022
 40
0.2812500000000023
 40
0.2812500000000023
 40
0.3125000000000023
 40
0.3125000000000023
 40
0.3437500000000024
 40
0.3437500000000024
 40
0.3750000000000024
 40
0.3750000000000024
 40
0.4062500000000026
 40
0.4062500000000026
 40
0.4375000000000026
 40
0.4375000000000026
 40
0.4687500000000026
 40
0.4687500000000026
 40
0.5000000000000027
 40
0.5000000000000027
 40
0.5625000000000028
 40
0.5625000000000028
 40
0.5937500000000029
 40
0.5937500000000029
 40
0.6250000000000029
 40
0.6250000000000029
 40
0.656250000000003
 40
0.656250000000003
 40
0.687500000000003
 40
0.687500000000003
 40
0.7187500000000031
 40
0.7187500000000031
 40
0.7500000000000031
 40
0.7500000000000031
 40
0.7812500000000028
 40
0.7812500000000028
 40
0.8125000000000024
 40
0.8125000000000024
 40
0.843750000000002
 40
0.843750000000002
 40
0.8750000000000017
 40
0.8750000000000017
 40
0.9062500000000012
 40
0.9062500000000012
 40
0.9375000000000009
 40
0.9375000000000009
 40
0.9687500000000004
 40
0.9687500000000004
 40
1.0
 40
1.0
 40
1.0
 40
1.0
 10
166.913535403843
 20
142.6167641549602
 30
0.0
 10
166.8735204514933
 20
142.8690537577758
 30
0.0
 10
166.810578650082
 20
143.1130526081516
 30
0.0
 10
166.64119198801
 20
143.5854709972141
 30
0.0
 10
166.5334984254245
 20
143.815884383374
 30
0.0
 10
166.2782136568866
 20
144.2505889791711
 30
0.0
 10
166.1321744264144
 20
144.4532309458225
 30
0.0
 10
165.8039529898551
 20
144.8302202365803
 30
0.0
 10
165.6197057020802
 20
145.0058781901577
 30
0.0
 10
165.2267455347719
 20
145.3161361591039
 30
0.0
 10
165.0174509378127
 20
145.4520813667538
 30
0.0
 10
164.5725655108753
 20
145.6854714621597
 30
0.0
 10
164.3357679183763
 20
145.7827180685741
 30
0.0
 10
163.855032849457
 20
145.9293895264455
 30
0.0
 10
163.6087897562742
 20
145.9802818713879
 30
0.0
 10
163.1040729762948
 20
146.0358092216234
 30
0.0
 10
162.8478782753583
 20
146.0396341086933
 30
0.0
 10
162.3454995261582
 20
146.0002103260489
 30
0.0
 10
162.0962498269746
 20
145.9571828768376
 30
0.0
 10
161.6047220294959
 20
145.8234779073864
 30
0.0
 10
161.36942642827
 20
145.7348080614812
 30
0.0
 10
160.9185125336079
 20
145.5157766977037
 30
0.0
 10
160.7009001831445
 20
145.3837751320202
 30
0.0
 10
160.2976930135962
 20
145.0844178510173
 30
0.0
 10
160.1120815211618
 20
144.9177989235795
 30
0.0
 10
159.7720934507593
 20
144.550687498152
 30
0.0
 10
159.6170205199364
 20
144.3483837526113
 30
0.0
 10
159.350677443273
 20
143.9243030730172
 30
0.0
 10
159.2376933425562
 20
143.701143467551
 30
0.0
 10
159.0528380856254
 20
143.2317882259569
 30
0.0
 10
158.981697324122
 20
142.9855777226213
 30
0.0
 10
158.8877369128338
 20
142.4910518962502
 30
0.0
 10
158.8637275828774
 20
142.2401209011582
 30
0.0
 10
158.8631544622048
 20
141.4758755216019
 30
0.0
 10
158.9585535735235
 20
140.973651219551
 30
0.0
 10
159.2364173657246
 20
140.2660867132786
 30
0.0
 10
159.3495793218051
 20
140.0423804495378
 30
0.0
 10
159.615710503849
 20
139.6181105382172
 30
0.0
 10
159.7705382780487
 20
139.4158585761612
 30
0.0
 10
160.1107193838366
 20
139.048147834793
 30
0.0
 10
160.2962218407863
 20
138.8815309595437
 30
0.0
 10
160.6985156418456
 20
138.5824815807482
 30
0.0
 10
160.9165236900976
 20
138.4500248727198
 30
0.0
 10
161.3671220572479
 20
138.2308184720151
 30
0.0
 10
161.6016710561287
 20
138.1423333420115
 30
0.0
 10
162.090131049681
 20
138.0088471120729
 30
0.0
 10
162.3423964453949
 20
137.9649053995791
 30
0.0
 10
162.8445770835552
 20
137.9250964031056
 30
0.0
 10
163.0970592009069
 20
137.9284406159191
 30
0.0
 10
163.6049242439763
 20
137.9836199359096
 30
0.0
 10
163.8524697171602
 20
138.034665864379
 30
0.0
 10
164.3334372546309
 20
138.1810762526146
 30
0.0
 10
164.5693971197361
 20
138.2777224573883
 30
0.0
 10
165.0159675692577
 20
138.5116274017013
 30
0.0
 10
165.2256124318312
 20
138.6477524155278
 30
0.0
 10
165.6185991385857
 20
138.9578066798569
 30
0.0
 10
165.8029950424007
 20
139.133463927432
 30
0.0
 10
166.131545460261
 20
139.5106038500965
 30
0.0
 10
166.2774875567842
 20
139.7130700553663
 30
0.0
 10
166.5323729119864
 20
140.1466463534996
 30
0.0
 10
166.6406842247947
 20
140.3779381970812
 30
0.0
 10
166.8105192022116
 20
140.8512978772144
 30
0.0
 10
166.8735145633487
 20
141.0955796740352
 30
0.0
 10
166.913535403843
 20
141.3479064009153
 30
0.0
  0
LINE
  5
12E
330
1F
100
AcDbEntity
  8
0
  6
HIDDEN
 62
     7
370
     0
100
AcDbLine
 10
168.6635352027
 20
150.9823348905
 30
0.0
 11
168.6635352027
 21
132.9823356654
 31
0.0
  0
LINE
  5
12F
330
1F
100
AcDbEntity
  8
0
  6
HIDDEN
 62
     7
370
     0
100
AcDbLine
 10
167.4135354634
 20
131.7323349948
 30
0.0
 11
167.4135354634
 21
152.2323355611
 31
0.0
  0
LINE
  5
130
330
1F
100
AcDbEntity
  8
0
  6
HIDDEN
 62
     7
370
     0
100
AcDbLine
 10
226.7607067999
 20
149.7467068556
 30
0.0
 11
234.0057668563
 21
142.6117152158
 31
0.0
  0
LINE
  5
131
330
1F
100
AcDbEntity
  8
0
  6
HIDDEN
 62
     7
370
     0
100
AcDbLine
 10
205.4135361042
 20
132.9823356654
 30
0.0
 11
205.4135361042
 21
150.9823348905
 31
0.0
  0
LWPOLYLINE
  5
132
330
1F
100
AcDbEntity
  8
0
  6
HIDDEN
 62
     7
370
     0
100
AcDbPolyline
 90
       31
 70
   128
 43
0.0
 10
226.0198024389
 20
116.9297561581
 10
225.9225872632
 20
116.212783062
 10
225.6790426847
 20
115.5271471079
 10
225.2998230334
 20
114.9028108056
 10
224.8014946755
 20
114.3670637692
 10
224.2058431085
 20
113.9433157231
 10
223.5388969358
 20
113.6500925358
 10
222.8298028287
 20
113.500203618
 10
222.1095589277
 20
113.500203618
 10
221.4096364852
 20
113.6500925358
 10
220.7606313106
 20
113.9433157231
 10
220.1909003135
 20
114.3670637692
 10
219.7253507849
 20
114.9028108056
 10
219.3843265351
 20
115.5271471079
 10
219.1827324506
 20
116.212783062
 10
219.1293788429
 20
116.9297561581
 10
219.2265977439
 20
117.6467273916
 10
219.4701385971
 20
118.3323633458
 10
219.8493619736
 20
118.956699648
 10
220.3476866063
 20
119.4924466844
 10
220.9433418986
 20
119.9161947305
 10
221.6102880713
 20
120.2094197805
 10
222.3193784531
 20
120.3593068357
 10
223.0396260794
 20
120.3593068357
 10
223.7395447966
 20
120.2094197805
 10
224.3885536965
 20
119.9161947305
 10
224.9582809683
 20
119.4924466844
 10
225.4238304969
 20
118.956699648
 10
225.7648547467
 20
118.3323633458
 10
225.9664488312
 20
117.6467273916
 10
226.0198024389
 20
116.9297561581
  0
SPLINE
  5
133
330
1F
100
AcDbEntity
  8
0
  6
HIDDEN
 62
     7
370
     0
100
AcDbSpline
210
0.0
220
0.0
230
1.0
 70
     8
 71
     3
 72
    14
 73
    10
 74
     0
 42
0.00000001
 43
0.00000001
 12
1.0
 22
0.0
 32
0.0
 13
1.0
 23
0.0
 33
0.0
 40
0.0
 40
0.0
 40
0.0
 40
0.0
 40
0.25
 40
0.25
 40
0.5
 40
0.5
 40
0.75
 40
0.75
 40
1.0
 40
1.0
 40
1.0
 40
1.0
 10
218.5040185755259
 20
119.1650030334277
 30
0.0
 10
218.355431194588
 20
118.8426928531747
 30
0.0
 10
218.202891394468
 20
118.5637642340867
 30
0.0
 10
217.8927043672466
 20
118.0787890641752
 30
0.0
 10
217.7358350572882
 20
117.8742967458001
 30
0.0
 10
217.4209065530864
 20
117.5393945167609
 30
0.0
 10
217.2625756732621
 20
117.4083637033967
 30
0.0
 10
216.9420172381338
 20
117.2273026641785
 30
0.0
 10
216.7800414752816
 20
117.1762842605911
 30
0.0
 10
216.6121342421531
 20
117.1825680856886
 30
0.0
  0
SPLINE
  5
134
330
1F
100
AcDbEntity
  8
0
  6
HIDDEN
 62
     7
370
     0
100
AcDbSpline
210
0.0
220
0.0
230
1.0
 70
     8
 71
     3
 72
    19
 73
    15
 74
     0
 42
0.00000001
 43
0.00000001
 12
1.0
 22
0.0
 32
0.0
 13
1.0
 23
0.0
 33
0.0
 40
0.0
 40
0.0
 40
0.0
 40
0.0
 40
0.0882888900107134
 40
0.1765774541654952
 40
0.2674330498226291
 40
0.3582882182592466
 40
0.4465117073734856
 40
0.5347348637176055
 40
0.6255568633478583
 40
0.7163785447240237
 40
0.8039970799531011
 40
0.8916154334422235
 40
0.9818036651662607
 40
1.0
 40
1.0
 40
1.0
 40
1.0
 10
218.7659879502011
 20
117.519385793351
 30
0.0
 10
218.7825701176494
 20
116.6124789823912
 30
0.0
 10
218.8157343913447
 20
114.7986687076762
 30
0.0
 10
218.8654951754191
 20
112.2695920110126
 30
0.0
 10
218.9147614007655
 20
109.904822234885
 30
0.0
 10
218.9625749328406
 20
107.7621763133802
 30
0.0
 10
219.0080201217862
 20
105.8709565978697
 30
0.0
 10
219.0512018479688
 20
104.2193164845199
 30
0.0
 10
219.0920557088793
 20
102.8108684468314
 30
0.0
 10
219.1296557855918
 20
101.6784179638291
 30
0.0
 10
219.1634763104732
 20
100.8273221236425
 30
0.0
 10
219.1932670797586
 20
100.275183645073
 30
0.0
 10
219.2133814168453
 20
100.0074544949543
 30
0.0
 10
219.2222257905465
 20
100.0157997741187
 30
0.0
 10
219.2237106438828
 20
100.0172008360852
 30
0.0
  0
SPLINE
  5
135
330
1F
100
AcDbEntity
  8
0
  6
HIDDEN
 62
     7
370
     0
100
AcDbSpline
210
0.0
220
0.0
230
1.0
 70
     8
 71
     3
 72
     8
 73
     4
 74
     0
 42
0.00000001
 43
0.00000001
 12
1.0
 22
0.0
 32
0.0
 13
1.0
 23
0.0
 33
0.0
 40
0.0
 40
0.0
 40
0.0
 40
0.0
 40
1.0
 40
1.0
 40
1.0
 40
1.0
 10
218.7659879396196
 20
117.519385830099
 30
0.0
 10
218.6767656628259
 20
118.0676574981844
 30
0.0
 10
218.5893933743594
 20
118.6161896432687
 30
0.0
 10
218.5040185755259
 20
119.1650030334277
 30
0.0
  0
LINE
  5
136
330
1F
100
AcDbEntity
  8
0
  6
HIDDEN
 62
     7
370
     0
100
AcDbLine
 10
234.2492555555
 20
111.5333546485
 30
0.0
 11
235.8502921935
 21
109.9566404308
 31
0.0
  0
ELLIPSE
  5
137
330
1F
100
AcDbEntity
  8
0
  6
HIDDEN
 62
     7
370
     0
100
AcDbEllipse
 10
224.972094676
 20
139.5969232007
 30
0.0
 11
205.5866910030576
 21
-15.14624514566738
 31
0.0
210
0.0
220
0.0
230
1.0
 40
0.1916117708
 41
4.734269372440079
 42
4.803760390345953
  0
SPLINE
  5
138
330
1F
100
AcDbEntity
  8
0
  6
HIDDEN
 62
     7
370
     0
100
AcDbSpline
210
0.0
220
0.0
230
1.0
 70
     8
 71
     3
 72
    25
 73
    21
 74
     0
 42
0.00000001
 43
0.00000001
 12
1.0
 22
0.0
 32
0.0
 13
1.0
 23
0.0
 33
0.0
 40
0.0
 40
0.0
 40
0.0
 40
0.0
 40
0.0269165784447903
 40
0.0535945829302645
 40
0.0800346866418091
 40
0.1062375811015853
 40
0.1322039767842883
 40
0.1979524158137239
 40
0.2623461652386787
 40
0.3269804113647083
 40
0.3903776045717913
 40
0.5162648693955465
 40
0.6400608661597863
 40
0.7014203863840655
 40
0.7618679414637054
 40
0.8222293818735131
 40
0.881788921105487
 40
0.9214998428575547
 40
0.9609002880403401
 40
1.0
 40
1.0
 40
1.0
 40
1.0
 10
231.7141005332031
 20
111.723895848903
 30
0.0
 10
231.817388701797
 20
111.569480810831
 30
0.0
 10
232.0230495486528
 20
111.2620193858731
 30
0.0
 10
232.3271483370484
 20
110.8089112732408
 30
0.0
 10
232.6262737257629
 20
110.3643341246271
 30
0.0
 10
232.9202144201168
 20
109.9286894894465
 30
0.0
 10
233.3573804247214
 20
109.2825807003364
 30
0.0
 10
233.9271149271832
 20
108.4448228954293
 30
0.0
 10
234.620730666335
 20
107.4328670617386
 30
0.0
 10
235.2878345829781
 20
106.4677090928571
 30
0.0
 10
236.1426398944129
 20
105.2422592302044
 30
0.0
 10
237.1472552914979
 20
103.8236487192902
 30
0.0
 10
238.0714497603002
 20
102.549923757098
 30
0.0
 10
238.7522363437835
 20
101.6324457505643
 30
0.0
 10
239.2320757767312
 20
100.9969338489057
 30
0.0
 10
239.681062345059
 20
100.4140725352791
 30
0.0
 10
240.054479944799
 20
99.94049869972635
 30
0.0
 10
240.360372920791
 20
99.56146648833744
 30
0.0
 10
240.6093675045941
 20
99.25888838548185
 30
0.0
 10
240.76373353336
 20
99.07700394832106
 30
0.0
 10
240.840620860479
 20
98.98641012836184
 30
0.0
  0
SPLINE
  5
139
330
1F
100
AcDbEntity
  8
0
  6
HIDDEN
 62
     7
370
     0
100
AcDbSpline
210
0.0
220
0.0
230
1.0
 70
     8
 71
     3
 72
    16
 73
    12
 74
     0
 42
0.00000001
 43
0.00000001
 12
1.0
 22
0.0
 32
0.0
 13
1.0
 23
0.0
 33
0.0
 40
0.0
 40
0.0
 40
0.0
 40
0.0
 40
0.0820043478517283
 40
0.1649776566724163
 40
0.2489257876463562
 40
0.3724850969406815
 40
0.4983482969725133
 40
0.622258867743997
 40
0.7486082450642558
 40
0.8729808642539839
 40
1.0
 40
1.0
 40
1.0
 40
1.0
 10
229.0370860491564
 20
116.4398498983206
 30
0.0
 10
229.102507136088
 20
116.302424727744
 30
0.0
 10
229.2341223235957
 20
116.025950574806
 30
0.0
 10
229.438519570112
 20
115.6144941836933
 30
0.0
 10
229.6818371213795
 20
115.1392920901385
 30
0.0
 10
229.968358134735
 20
114.6016047329225
 30
0.0
 10
230.2983044001114
 20
114.009599689582
 30
0.0
 10
230.6394041165964
 20
113.4233469432882
 30
0.0
 10
230.9874972041181
 20
112.8497529641485
 30
0.0
 10
231.3458240553351
 20
112.2808732190228
 30
0.0
 10
231.5904831710729
 20
111.910853431837
 30
0.0
 10
231.7141005484263
 20
111.7238958540546
 30
0.0
  0
LINE
  5
13A
330
1F
100
AcDbEntity
  8
0
  6
HIDDEN
 62
     7
370
     0
100
AcDbLine
 10
218.7659879502
 20
117.5193857934
 30
0.0
 11
229.0370864149
 21
116.4398506816
 31
0.0
  0
ELLIPSE
  5
13B
330
1F
100
AcDbEntity
  8
0
  6
HIDDEN
 62
     7
370
     0
100
AcDbEllipse
 10
201.1764297664
 20
142.0979483637
 30
0.0
 11
-26.47939638412695
 21
42.97612200538407
 31
0.0
210
0.0
220
0.0
230
1.0
 40
0.047805889
 41
2.921502624790856
 42
3.104742027244042
  0
SPLINE
  5
13C
330
1F
100
AcDbEntity
  8
0
  6
HIDDEN
 62
     7
370
     0
100
AcDbSpline
210
0.0
220
0.0
230
1.0
 70
     8
 71
     3
 72
    36
 73
    32
 74
     0
 42
0.00000001
 43
0.00000001
 12
1.0
 22
0.0
 32
0.0
 13
1.0
 23
0.0
 33
0.0
 40
0.0
 40
0.0
 40
0.0
 40
0.0
 40
0.1250000000000026
 40
0.1250000000000026
 40
0.2500000000000052
 40
0.2500000000000052
 40
0.3125000000000061
 40
0.3125000000000061
 40
0.375000000000007
 40
0.375000000000007
 40
0.437500000000008
 40
0.437500000000008
 40
0.4687500000000078
 40
0.4687500000000078
 40
0.5000000000000075
 40
0.5000000000000075
 40
0.5312500000000073
 40
0.5312500000000073
 40
0.5625000000000071
 40
0.5625000000000071
 40
0.6250000000000061
 40
0.6250000000000061
 40
0.6875000000000052
 40
0.6875000000000052
 40
0.7500000000000042
 40
0.7500000000000042
 40
0.8750000000000023
 40
0.8750000000000023
 40
0.9375000000000011
 40
0.9375000000000011
 40
1.0
 40
1.0
 40
1.0
 40
1.0
 10
221.2998936697813
 20
113.9558631592559
 30
0.0
 10
221.39626385794
 20
113.8609570507979
 30
0.0
 10
221.5619149695556
 20
113.7650280002023
 30
0.0
 10
221.9648667941713
 20
113.5904110819811
 30
0.0
 10
222.2038572156207
 20
113.5106242510947
 30
0.0
 10
222.6188434653544
 20
113.4218443935417
 30
0.0
 10
222.7668479739593
 20
113.3974707333446
 30
0.0
 10
223.0884499001813
 20
113.3667840173829
 30
0.0
 10
223.2603197924626
 20
113.360419225212
 30
0.0
 10
223.6333320582821
 20
113.3814631005609
 30
0.0
 10
223.837107725695
 20
113.4080090308204
 30
0.0
 10
224.1741348093442
 20
113.5048935754986
 30
0.0
 10
224.291114557307
 20
113.5469579014712
 30
0.0
 10
224.5294590867356
 20
113.6587440940983
 30
0.0
 10
224.6521324006652
 20
113.7299026940392
 30
0.0
 10
224.879947433159
 20
113.8973892762337
 30
0.0
 10
224.9826464350651
 20
113.9918558415207
 30
0.0
 10
225.1552912913039
 20
114.1830180024493
 30
0.0
 10
225.2256598105909
 20
114.278975945013
 30
0.0
 10
225.4030466312802
 20
114.561364922493
 30
0.0
 10
225.4759398541128
 20
114.7390181869404
 30
0.0
 10
225.5793845806225
 20
115.0686732085113
 30
0.0
 10
225.6096047523277
 20
115.222770276072
 30
0.0
 10
225.6460631228798
 20
115.5162754695487
 30
0.0
 10
225.6517603136287
 20
115.6555707000436
 30
0.0
 10
225.643932133273
 20
116.0464581681844
 30
0.0
 10
225.6067326364277
 20
116.2754030453675
 30
0.0
 10
225.522369925833
 20
116.5665923383951
 30
0.0
 10
225.4892064340481
 20
116.6546781398106
 30
0.0
 10
225.4129368771131
 20
116.8077850135467
 30
0.0
 10
225.3697112144143
 20
116.8728933594832
 30
0.0
 10
225.3212559962771
 20
116.9206124339786
 30
0.0
  0
ELLIPSE
  5
13D
330
1F
100
AcDbEntity
  8
0
  6
HIDDEN
 62
     7
370
     0
100
AcDbEllipse
 10
226.5605962906
 20
111.3434616174
 30
0.0
 11
3.820382603358382
 21
-0.8609686982684224
 31
0.0
210
0.0
220
0.0
230
1.0
 40
0.1511474516
 41
3.380155686705591
 42
6.521748340295217
  0
ELLIPSE
  5
13E
330
1F
100
AcDbEntity
  8
0
  6
HIDDEN
 62
     7
370
     0
100
AcDbEllipse
 10
221.059923035
 20
118.4214126594
 30
0.0
 11
3.169172162258377
 21
2.762630819038733
 31
0.0
210
0.0
220
0.0
230
1.0
 40
0.8059898683
 41
3.973609121221212
 42
5.248732962459622
  0
LINE
  5
13F
330
1F
100
AcDbEntity
  8
0
  6
HIDDEN
 62
     7
370
     0
100
AcDbLine
 10
220.5719900604
 20
114.6727089371
 30
0.0
 11
221.2998931583
 21
113.9558625008
 31
0.0
  0
LINE
  5
140
330
1F
100
AcDbEntity
  8
0
  6
HIDDEN
 62
     7
370
     0
100
AcDbLine
 10
225.3212546285
 20
116.9206124331
 30
0.0
 11
224.5933515307
 21
117.6374588694
 31
0.0
  0
SPLINE
  5
141
330
1F
100
AcDbEntity
  8
0
  6
HIDDEN
 62
     7
370
     0
100
AcDbSpline
210
0.0
220
0.0
230
1.0
 70
     8
 71
     3
 72
    14
 73
    10
 74
     0
 42
0.00000001
 43
0.00000001
 12
1.0
 22
0.0
 32
0.0
 13
1.0
 23
0.0
 33
0.0
 40
0.0
 40
0.0
 40
0.0
 40
0.0
 40
0.2500000000000004
 40
0.2500000000000004
 40
0.5000000000000009
 40
0.5000000000000009
 40
0.7500000000000004
 40
0.7500000000000004
 40
1.0
 40
1.0
 40
1.0
 40
1.0
 10
215.646208415864
 20
126.0939018593024
 30
0.0
 10
215.767008435273
 20
126.1491857543477
 30
0.0
 10
215.8792745449741
 20
126.1992285569411
 30
0.0
 10
216.0898445093775
 20
126.2918428573492
 30
0.0
 10
216.1869708044876
 20
126.3339588613154
 30
0.0
 10
216.3551140394589
 20
126.4096140729884
 30
0.0
 10
216.4274839279107
 20
126.4438457314942
 30
0.0
 10
216.5417050694822
 20
126.5062157025707
 30
0.0
 10
216.5849110455621
 20
126.5350579645737
 30
0.0
 10
216.6121342421541
 20
126.5624545470597
 30
0.0
  0
SPLINE
  5
142
330
1F
100
AcDbEntity
  8
0
  6
HIDDEN
 62
     7
370
     0
100
AcDbSpline
210
0.0
220
0.0
230
1.0
 70
     8
 71
     3
 72
    18
 73
    14
 74
     0
 42
0.00000001
 43
0.00000001
 12
1.0
 22
0.0
 32
0.0
 13
1.0
 23
0.0
 33
0.0
 40
0.0
 40
0.0
 40
0.0
 40
0.0
 40
0.2500000000000078
 40
0.2500000000000078
 40
0.375000000000009
 40
0.375000000000009
 40
0.5000000000000102
 40
0.5000000000000102
 40
0.6250000000000113
 40
0.6250000000000113
 40
0.7500000000000125
 40
0.7500000000000125
 40
1.0
 40
1.0
 40
1.0
 40
1.0
 10
216.6121342421531
 20
117.1825680856886
 30
0.0
 10
216.5884879484696
 20
117.1834530337099
 30
0.0
 10
216.5518335403282
 20
117.1919598974179
 30
0.0
 10
216.4583270692257
 20
117.2336797726451
 30
0.0
 10
216.4199637218658
 20
117.2529773516938
 30
0.0
 10
216.3283410753276
 20
117.3057789163874
 30
0.0
 10
216.2745843059546
 20
117.3397720338371
 30
0.0
 10
216.1622038694212
 20
117.417504821121
 30
0.0
 10
216.1049879886352
 20
117.4601902586126
 30
0.0
 10
215.9983555633283
 20
117.5440125034806
 30
0.0
 10
215.9479995064197
 20
117.5857518915904
 30
0.0
 10
215.8055059278421
 20
117.7081034617325
 30
0.0
 10
215.7231229722206
 20
117.7845064844193
 30
0.0
 10
215.646208415864
 20
117.8586792562568
 30
0.0
  0
ELLIPSE
  5
143
330
1F
100
AcDbEntity
  8
0
  6
HIDDEN
 62
     7
370
     0
100
AcDbEllipse
 10
216.4480798991
 20
122.9631915353
 30
0.0
 11
-3.08553303694461
 21
3.038656856958581
 31
0.0
210
0.0
220
0.0
230
1.0
 40
0.9698463104
 41
2.836000235984129
 42
5.242240019635261
  0
SPLINE
  5
144
330
1F
100
AcDbEntity
  8
0
  6
HIDDEN
 62
     7
370
     0
100
AcDbSpline
210
0.0
220
0.0
230
1.0
 70
     8
 71
     3
 72
     8
 73
     4
 74
     0
 42
0.00000001
 43
0.00000001
 12
1.0
 22
0.0
 32
0.0
 13
1.0
 23
0.0
 33
0.0
 40
0.0
 40
0.0
 40
0.0
 40
0.0
 40
1.0
 40
1.0
 40
1.0
 40
1.0
 10
216.6121342421531
 20
126.5624545470596
 30
0.0
 10
216.867466797457
 20
126.8194133281176
 30
0.0
 10
217.1412740733248
 20
127.0003142066577
 30
0.0
 10
217.4315769967982
 20
127.0811126237678
 30
0.0
  0
LWPOLYLINE
  5
145
330
1F
100
AcDbEntity
  8
0
  6
HIDDEN
 62
     7
370
     0
100
AcDbPolyline
 90
       34
 70
   128
 43
0.0
 10
226.635808992
 20
117.0016822006
 10
226.5371409532
 20
116.2185367729
 10
226.2926166233
 20
115.4636942382
 10
225.9110723909
 20
114.7644404854
 10
225.406303006
 20
114.1460460211
 10
224.7965437647
 20
113.6308607246
 10
224.1038409349
 20
113.2375054593
 10
223.3532247421
 20
112.9801996584
 10
222.5718264755
 20
112.8682379211
 10
221.7878912862
 20
112.9056715007
 10
221.029750007
 20
113.0911462541
 10
220.324802148
 20
113.4179566587
 10
219.6985249695
 20
113.8742916818
 10
219.1735607859
 20
114.4436594631
 10
218.7688787755
 20
115.105481499
 10
218.4991044279
 20
115.8358358379
 10
218.373986828
 20
116.608328798
 10
218.3980522033
 20
117.3950374658
 10
218.570428836
 20
118.1675285633
 10
218.8848880407
 20
118.8978847648
 10
219.3300602313
 20
119.5597049381
 10
219.8898596045
 20
120.1290727194
 10
220.5440541085
 20
120.585409605
 10
221.2689956006
 20
120.9122200097
 10
222.0384878393
 20
121.0976929004
 10
222.8247140821
 20
121.13512648
 10
223.5992615398
 20
121.0231666054
 10
224.3341346558
 20
120.7658589418
 10
225.0027721103
 20
120.3725036766
 10
225.5810116705
 20
119.8573202427
 10
226.0479507323
 20
119.2389257784
 10
226.3867137309
 20
118.5396701629
 10
226.585055637
 20
117.7848294909
 10
226.635808992
 20
117.0016822006
  0
LINE
  5
146
330
1F
100
AcDbEntity
  8
0
  6
HIDDEN
 62
     7
370
     0
100
AcDbLine
 10
229.1264673051
 20
111.8025124605
 30
0.0
 11
231.5100682255
 21
108.5023057248
 31
0.0
  0
LINE
  5
147
330
1F
100
AcDbEntity
  8
0
  6
HIDDEN
 62
     7
370
     0
100
AcDbLine
 10
230.9720729765
 20
109.0321276869
 30
0.0
 11
231.5100682255
 21
108.5023057248
 31
0.0
  0
LINE
  5
148
330
1F
100
AcDbEntity
  8
0
  6
HIDDEN
 62
     7
370
     0
100
AcDbLine
 10
227.0830710705
 20
113.9319684888
 30
0.0
 11
224.5933515307
 21
117.6374588694
 31
0.0
  0
LINE
  5
149
330
1F
100
AcDbEntity
  8
0
  6
HIDDEN
 62
     7
370
     0
100
AcDbLine
 10
229.1264673051
 20
111.8025124605
 30
0.0
 11
230.3035323795
 21
110.6433306421
 31
0.0
  0
LINE
  5
14A
330
1F
100
AcDbEntity
  8
0
  6
HIDDEN
 62
     7
370
     0
100
AcDbLine
 10
227.4887067553
 20
105.5375557925
 30
0.0
 11
222.720703977
 21
112.1390794004
 31
0.0
  0
ARC
  5
14B
330
1F
100
AcDbEntity
  8
0
  6
HIDDEN
 62
     7
370
     0
100
AcDbCircle
 10
230.6500950977
 20
105.4591207944
 30
0.0
 40
3.162361190760051
100
AcDbArc
 50
178.5787659993
 51
74.2202473996
  0
LINE
  5
14C
330
1F
100
AcDbEntity
  8
0
  6
HIDDEN
 62
     7
370
     0
100
AcDbLine
 10
235.8903725918
 20
108.2282510187
 30
0.0
 11
241.1137399551
 21
99.4301695909
 31
0.0
  0
LINE
  5
14D
330
1F
100
AcDbEntity
  8
0
  6
HIDDEN
 62
     7
370
     0
100
AcDbLine
 10
240.8406202968
 20
98.9864130105
 30
0.0
 11
241.1137399551
 21
99.4301695909
 31
0.0
  0
LINE
  5
14E
330
1F
100
AcDbEntity
  8
0
  6
HIDDEN
 62
     7
370
     0
100
AcDbLine
 10
221.7247215387
 20
108.0409396972
 30
0.0
 11
226.5685488757
 21
99.8821441616
 31
0.0
  0
ARC
  5
14F
330
1F
100
AcDbEntity
  8
0
  6
HIDDEN
 62
     7
370
     0
100
AcDbCircle
 10
257.122890313
 20
120.8310431811
 30
0.0
 40
24.69109513711505
100
AcDbArc
 50
202.1207876405
 51
210.6917109687
  0
LINE
  5
150
330
1F
100
AcDbEntity
  8
0
  6
HIDDEN
 62
     7
370
     0
100
AcDbLine
 10
222.720703977
 20
112.1390794004
 30
0.0
 11
216.4315683123
 21
112.4695182379
 31
0.0
  0
LINE
  5
151
330
1F
100
AcDbEntity
  8
0
  6
HIDDEN
 62
     7
370
     0
100
AcDbLine
 10
234.2492555555
 20
111.5333546485
 30
0.0
 11
229.1264673051
 21
111.8025124605
 31
0.0
  0
ARC
  5
152
330
1F
100
AcDbEntity
  8
0
  6
HIDDEN
 62
     7
370
     0
100
AcDbCircle
 10
216.3347268544
 20
110.3281928178
 30
0.0
 40
2.143514129259621
100
AcDbArc
 50
87.4105623812
 51
173.8264566471
  0
LINE
  5
153
330
1F
100
AcDbEntity
  8
0
  6
HIDDEN
 62
     7
370
     0
100
AcDbLine
 10
222.8176621076
 20
112.0435927595
 30
0.0
 11
222.720703977
 21
112.1390794004
 31
0.0
  0
LINE
  5
154
330
1F
100
AcDbEntity
  8
0
  6
HIDDEN
 62
     7
370
     0
100
AcDbLine
 10
176.2135354158
 20
164.0024349625
 30
0.0
 11
176.2135354158
 21
157.5172558959
 31
0.0
  0
LINE
  5
155
330
1F
100
AcDbEntity
  8
0
  6
HIDDEN
 62
     7
370
     0
100
AcDbLine
 10
141.9135359403
 20
163.140698948
 30
0.0
 11
141.9135359403
 21
157.0863878886
 31
0.0
  0
LINE
  5
156
330
1F
100
AcDbEntity
  8
0
  6
HIDDEN
 62
     7
370
     0
100
AcDbLine
 10
140.4135366257
 20
162.2746732618
 30
0.0
 11
140.4135366257
 21
156.6533750455
 31
0.0
  0
SPLINE
  5
157
330
1F
100
AcDbEntity
  8
0
  6
HIDDEN
 62
     7
370
     0
100
AcDbSpline
210
0.0
220
0.0
230
1.0
 70
     8
 71
     3
 72
    16
 73
    12
 74
     0
 42
0.00000001
 43
0.00000001
 12
1.0
 22
0.0
 32
0.0
 13
1.0
 23
0.0
 33
0.0
 40
0.0
 40
0.0
 40
0.0
 40
0.0
 40
0.2499999999999994
 40
0.2499999999999994
 40
0.3749999999999996
 40
0.3749999999999996
 40
0.4999999999999997
 40
0.4999999999999997
 40
0.7499999999999998
 40
0.7499999999999998
 40
1.0
 40
1.0
 40
1.0
 40
1.0
 10
177.0922150602834
 20
163.7524162329398
 30
0.0
 10
176.9309825827989
 20
163.6544006198851
 30
0.0
 10
176.8105027431593
 20
163.4676645882091
 30
0.0
 10
176.6881222258459
 20
163.0546247806501
 30
0.0
 10
176.6571445654485
 20
162.8946242814172
 30
0.0
 10
176.6155308278205
 20
162.5278186303261
 30
0.0
 10
176.6052949148877
 20
162.3244814777021
 30
0.0
 10
176.6051065178316
 20
161.6571942110754
 30
0.0
 10
176.6452512204692
 20
161.1363797471873
 30
0.0
 10
176.8094049754088
 20
159.9390207317097
 30
0.0
 10
176.9309566258183
 20
159.2807510774137
 30
0.0
 10
177.0922150602833
 20
158.5662419041788
 30
0.0
  0
LINE
  5
158
330
1F
100
AcDbEntity
  8
0
  6
HIDDEN
 62
     7
370
     0
100
AcDbLine
 10
141.9135359403
 20
126.8782826672
 30
0.0
 11
141.9135359403
 21
120.8239716078
 31
0.0
  0
LINE
  5
159
330
1F
100
AcDbEntity
  8
0
  6
HIDDEN
 62
     7
370
     0
100
AcDbLine
 10
140.4135366257
 20
127.3112955104
 30
0.0
 11
140.4135366257
 21
121.6899972941
 31
0.0
  0
SPLINE
  5
15A
330
1F
100
AcDbEntity
  8
0
  6
HIDDEN
 62
     7
370
     0
100
AcDbSpline
210
0.0
220
0.0
230
1.0
 70
     8
 71
     3
 72
    16
 73
    12
 74
     0
 42
0.00000001
 43
0.00000001
 12
1.0
 22
0.0
 32
0.0
 13
1.0
 23
0.0
 33
0.0
 40
0.0
 40
0.0
 40
0.0
 40
0.0
 40
0.2500000000000008
 40
0.2500000000000008
 40
0.3750000000000007
 40
0.3750000000000007
 40
0.5000000000000006
 40
0.5000000000000006
 40
0.7500000000000003
 40
0.7500000000000003
 40
1.0
 40
1.0
 40
1.0
 40
1.0
 10
177.0922150602833
 20
125.3984286516967
 30
0.0
 10
176.9309825827989
 20
124.6840344895045
 30
0.0
 10
176.8105027431593
 20
124.0306922267959
 30
0.0
 10
176.6881222258459
 20
123.142436984992
 30
0.0
 10
176.6571445654485
 20
122.8617564486402
 30
0.0
 10
176.6155308278205
 20
122.3327224588002
 30
0.0
 10
176.6052949148877
 20
122.0894014802217
 30
0.0
 10
176.6051065178316
 20
121.4213787897085
 30
0.0
 10
176.6452512204692
 20
121.057697880289
 30
0.0
 10
176.8094049754088
 20
120.4978070077407
 30
0.0
 10
176.9309566258183
 20
120.3102857156236
 30
0.0
 10
177.0922150602833
 20
120.2122543229356
 30
0.0
  0
LINE
  5
15B
330
1F
100
AcDbEntity
  8
0
  6
HIDDEN
 62
     7
370
     0
100
AcDbLine
 10
176.2135354158
 20
126.44741466
 30
0.0
 11
176.2135354158
 21
119.9622355933
 31
0.0
  0
SPLINE
  5
15C
330
1F
100
AcDbEntity
  8
0
  6
HIDDEN
 62
     7
370
     0
100
AcDbSpline
210
0.0
220
0.0
230
1.0
 70
     8
 71
     3
 72
    10
 73
     6
 74
     0
 42
0.00000001
 43
0.00000001
 12
1.0
 22
0.0
 32
0.0
 13
1.0
 23
0.0
 33
0.0
 40
0.0
 40
0.0
 40
0.0
 40
0.0
 40
0.5
 40
0.5
 40
1.0
 40
1.0
 40
1.0
 40
1.0
 10
226.5663916242523
 20
106.9003457343636
 30
0.0
 10
226.616057602959
 20
106.7174465376194
 30
0.0
 10
226.6756518325611
 20
106.5505232058655
 30
0.0
 10
226.805931803067
 20
106.26299389148
 30
0.0
 10
226.8764447301506
 20
106.1405153007134
 30
0.0
 10
226.950710961241
 20
106.0673773405485
 30
0.0
  0
ARC
  5
15D
330
1F
100
AcDbEntity
  8
0
  6
HIDDEN
 62
     7
370
     0
100
AcDbCircle
 10
229.6911825079
 20
106.4033269814
 30
0.0
 40
3.164070679355902
100
AcDbArc
 50
170.9624403729
 51
81.8365493462
  0
SPLINE
  5
15E
330
1F
100
AcDbEntity
  8
0
  6
HIDDEN
 62
     7
370
     0
100
AcDbSpline
210
0.0
220
0.0
230
1.0
 70
     8
 71
     3
 72
    10
 73
     6
 74
     0
 42
0.00000001
 43
0.00000001
 12
1.0
 22
0.0
 32
0.0
 13
1.0
 23
0.0
 33
0.0
 40
0.0
 40
0.0
 40
0.0
 40
0.0
 40
0.5
 40
0.5
 40
1.0
 40
1.0
 40
1.0
 40
1.0
 10
230.9720732877371
 20
109.032126615272
 30
0.0
 10
230.8978941945185
 20
109.1051787613851
 30
0.0
 10
230.7763188047304
 20
109.1901961935668
 30
0.0
 10
230.4905751050571
 20
109.3631181333924
 30
0.0
 10
230.324463305618
 20
109.4514980186655
 30
0.0
 10
230.140471746247
 20
109.5353362149946
 30
0.0
  0
LINE
  5
15F
330
1F
100
AcDbEntity
  8
0
  6
HIDDEN
 62
     7
370
     0
100
AcDbLine
 10
227.4887067553
 20
105.5375557925
 30
0.0
 11
226.9507115062
 21
106.0673777546
 31
0.0
  0
ELLIPSE
  5
160
330
1F
100
AcDbEntity
  8
0
  6
HIDDEN
 62
     7
370
     0
100
AcDbEllipse
 10
227.5679141274
 20
109.3054266968
 30
0.0
 11
-1.651289096608366
 21
2.417222755668845
 31
0.0
210
0.0
220
0.0
230
1.0
 40
0.8531826433
 41
2.077626346985168
 42
4.266950717528273
  0
LWPOLYLINE
  5
161
330
1F
100
AcDbEntity
  8
0
  6
HIDDEN
 62
     7
370
     0
100
AcDbPolyline
 90
       13
 70
   128
 43
0.0
 10
227.0830710705
 20
113.9319684888
 10
227.2565950926
 20
113.5212347443
 10
227.2812676903
 20
113.0374704088
 10
227.1554050323
 20
112.5136424388
 10
226.8875939127
 20
111.9854502912
 10
226.4960770782
 20
111.4888895835
 10
226.0075387832
 20
111.0577971275
 10
225.455271947
 20
110.7215542878
 10
224.8769131776
 20
110.5030771877
 10
224.311872321
 20
110.4172464992
 10
223.7986651536
 20
110.469922104
 10
223.3722572502
 20
110.6575053717
 10
223.0617096003
 20
110.9672185565
  0
SPLINE
  5
162
330
1F
100
AcDbEntity
  8
0
  6
HIDDEN
 62
     7
370
     0
100
AcDbSpline
210
0.0
220
0.0
230
1.0
 70
     8
 71
     3
 72
    27
 73
    23
 74
     0
 42
0.00000001
 43
0.00000001
 12
1.0
 22
0.0
 32
0.0
 13
1.0
 23
0.0
 33
0.0
 40
0.0
 40
0.0
 40
0.0
 40
0.0
 40
0.0235066169965924
 40
0.0470664887622166
 40
0.0706862975460261
 40
0.0943726748700864
 40
0.1181321965166756
 40
0.1778255073392171
 40
0.2379933209464452
 40
0.2986229816337639
 40
0.3597630336109762
 40
0.4835447364373011
 40
0.5552344530545265
 40
0.6094617801839728
 40
0.6823765774470786
 40
0.7375244012016781
 40
0.8023582876943881
 40
0.8349661904741197
 40
0.8677227722248368
 40
0.9115800608253496
 40
0.9556651775841819
 40
1.0
 40
1.0
 40
1.0
 40
1.0
 10
241.1137397127303
 20
99.4301697569296
 30
0.0
 10
241.0677209460129
 20
99.48386625929376
 30
0.0
 10
240.975579156028
 20
99.59138091465479
 30
0.0
 10
240.8312250066628
 20
99.76311161909163
 30
0.0
 10
240.6822022882061
 20
99.94269735417039
 30
0.0
 10
240.5280756129681
 20
100.1308842505512
 30
0.0
 10
240.2889382690444
 20
100.4263418966351
 30
0.0
 10
239.9525480383234
 20
100.8498958360599
 30
0.0
 10
239.5026536040901
 20
101.4297199192766
 30
0.0
 10
239.0229502490871
 20
102.0603981469853
 30
0.0
 10
238.3417494085333
 20
102.9716269818483
 30
0.0
 10
237.5788790422303
 20
104.0151054067143
 30
0.0
 10
236.7905809395224
 20
105.114370092049
 30
0.0
 10
236.1407982452889
 20
106.0303194013566
 30
0.0
 10
235.5257146560945
 20
106.9059730580953
 30
0.0
 10
234.8558456034434
 20
107.8682595181916
 30
0.0
 10
234.3126147216692
 20
108.6547167007019
 30
0.0
 10
233.8405538759307
 20
109.3421563740709
 30
0.0
 10
233.4399105773547
 20
109.9277756156611
 30
0.0
 10
232.9912516361625
 20
110.5864083829608
 30
0.0
 10
232.493061522195
 20
111.3209072904457
 30
0.0
 10
232.1544932575893
 20
111.8228684389644
 30
0.0
 10
231.9847310520614
 20
112.0745578043603
 30
0.0
  0
LINE
  5
163
330
1F
100
AcDbEntity
  8
0
  6
HIDDEN
 62
     7
370
     0
100
AcDbLine
 10
220.5719900604
 20
114.6727089371
 30
0.0
 11
223.0617096003
 21
110.9672185565
 31
0.0
  0
LINE
  5
164
330
1F
100
AcDbEntity
  8
0
  6
HIDDEN
 62
     7
370
     0
100
AcDbLine
 10
140.4135366257
 20
156.6533750455
 30
0.0
 11
140.4135366257
 21
144.8843226834
 31
0.0
  0
LINE
  5
165
330
1F
100
AcDbEntity
  8
0
  6
HIDDEN
 62
     7
370
     0
100
AcDbLine
 10
140.4135366257
 20
139.0803478724
 30
0.0
 11
140.4135366257
 21
127.3112955104
 31
0.0
  0
LINE
  5
166
330
1F
100
AcDbEntity
  8
0
  6
HIDDEN
 62
     7
370
     0
100
AcDbLine
 10
141.9135359403
 20
138.0171241771
 30
0.0
 11
141.9135359403
 21
126.8782826672
 31
0.0
  0
LINE
  5
167
330
1F
100
AcDbEntity
  8
0
  6
HIDDEN
 62
     7
370
     0
100
AcDbLine
 10
141.9135359403
 20
157.0863878886
 30
0.0
 11
141.9135359403
 21
145.9475463788
 31
0.0
  0
LINE
  5
168
330
1F
100
AcDbEntity
  8
0
  6
HIDDEN
 62
     7
370
     0
100
AcDbLine
 10
178.2135354089
 20
157.0200423311
 30
0.0
 11
178.2135354089
 21
126.9446282248
 31
0.0
  0
LINE
  5
169
330
1F
100
AcDbEntity
  8
0
  6
HIDDEN
 62
     7
370
     0
100
AcDbLine
 10
176.2135354158
 20
157.5172558959
 30
0.0
 11
176.2135354158
 21
126.44741466
 31
0.0
  0
SPLINE
  5
16A
330
1F
100
AcDbEntity
  8
0
  6
HIDDEN
 62
     7
370
     0
100
AcDbSpline
210
0.0
220
0.0
230
1.0
 70
     8
 71
     3
 72
    24
 73
    20
 74
     0
 42
0.00000001
 43
0.00000001
 12
1.0
 22
0.0
 32
0.0
 13
1.0
 23
0.0
 33
0.0
 40
0.0
 40
0.0
 40
0.0
 40
0.0
 40
0.125
 40
0.125
 40
0.2499999999999999
 40
0.2499999999999999
 40
0.3749999999999999
 40
0.3749999999999999
 40
0.4374999999999999
 40
0.4374999999999999
 40
0.4999999999999999
 40
0.4999999999999999
 40
0.6249999999999999
 40
0.6249999999999999
 40
0.7499999999999998
 40
0.7499999999999998
 40
0.8749999999999999
 40
0.8749999999999999
 40
1.0
 40
1.0
 40
1.0
 40
1.0
 10
146.863535403843
 20
137.8963742248385
 30
0.0
 10
147.1013390361181
 20
138.1953813271686
 30
0.0
 10
147.3314246973294
 20
138.4997191784873
 30
0.0
 10
147.7661780959392
 20
139.1254527158833
 30
0.0
 10
147.9711108882254
 20
139.4466774432108
 30
0.0
 10
148.3362128387241
 20
140.1186032139436
 30
0.0
 10
148.4980132245156
 20
140.4739184458225
 30
0.0
 10
148.6698734290953
 20
141.0241496671749
 30
0.0
 10
148.7154586207554
 20
141.2105534521554
 30
0.0
 10
148.7779333603303
 20
141.5906879542516
 30
0.0
 10
148.7946045060788
 20
141.7863577465375
 30
0.0
 10
148.7951255492552
 20
142.3648381252119
 30
0.0
 10
148.7306832483686
 20
142.7427499641807
 30
0.0
 10
148.5008341549952
 20
143.4847179892792
 30
0.0
 10
148.3423134773321
 20
143.8334334494401
 30
0.0
 10
147.9780791474319
 20
144.5065258471733
 30
0.0
 10
147.7713429073683
 20
144.8314783344149
 30
0.0
 10
147.333404961628
 20
145.4624021448767
 30
0.0
 10
147.1021322343484
 20
145.7682918852173
 30
0.0
 10
146.8635354038431
 20
146.0682963310369
 30
0.0
  0
LINE
  5
16B
330
1F
100
AcDbEntity
  8
0
  6
HIDDEN
 62
     7
370
     0
100
AcDbLine
 10
146.8635340508
 20
137.8963740143
 30
0.0
 11
146.8635340508
 21
146.0682965416
 31
0.0
  0
SPLINE
  5
16C
330
1F
100
AcDbEntity
  8
0
  6
HIDDEN
 62
     7
370
     0
100
AcDbSpline
210
0.0
220
0.0
230
1.0
 70
     8
 71
     3
 72
     8
 73
     4
 74
     0
 42
0.00000001
 43
0.00000001
 12
1.0
 22
0.0
 32
0.0
 13
1.0
 23
0.0
 33
0.0
 40
0.0000249638557296
 40
0.0000249638557296
 40
0.0000249638557296
 40
0.0000249638557296
 40
0.0049776420541172
 40
0.0049776420541172
 40
0.0049776420541172
 40
0.0049776420541172
 10
141.913535403843
 20
138.0171243811012
 30
0.0
 10
143.5635116383526
 20
137.975845143333
 30
0.0
 10
145.2135129580976
 20
137.9356234620935
 30
0.0
 10
146.863535403843
 20
137.8963742248385
 30
0.0
  0
SPLINE
  5
16D
330
1F
100
AcDbEntity
  8
0
  6
HIDDEN
 62
     7
370
     0
100
AcDbSpline
210
0.0
220
0.0
230
1.0
 70
     8
 71
     3
 72
     8
 73
     4
 74
     0
 42
0.00000001
 43
0.00000001
 12
1.0
 22
0.0
 32
0.0
 13
1.0
 23
0.0
 33
0.0
 40
0.0000249631533153
 40
0.0000249631533153
 40
0.0000249631533153
 40
0.0000249631533153
 40
0.0049776413517029
 40
0.0049776413517029
 40
0.0049776413517029
 40
0.0049776413517029
 10
146.863535403843
 20
146.068296331037
 30
0.0
 10
145.2135129580976
 20
146.0290470937819
 30
0.0
 10
143.5635116383525
 20
145.9888254125425
 30
0.0
 10
141.913535403843
 20
145.9475461747743
 30
0.0
  0
SPLINE
  5
16E
330
1F
100
AcDbEntity
  8
0
  6
HIDDEN
 62
     7
370
     0
100
AcDbSpline
210
0.0
220
0.0
230
1.0
 70
     8
 71
     3
 72
     8
 73
     4
 74
     0
 42
0.00000001
 43
0.00000001
 12
1.0
 22
0.0
 32
0.0
 13
1.0
 23
0.0
 33
0.0
 40
0.0
 40
0.0
 40
0.0
 40
0.0
 40
1.0
 40
1.0
 40
1.0
 40
1.0
 10
140.413535403843
 20
139.0803479449553
 30
0.0
 10
140.8802960152202
 20
138.6649846993332
 30
0.0
 10
141.3860435619995
 20
138.3203942700292
 30
0.0
 10
141.913535403843
 20
138.0171243811012
 30
0.0
  0
SPLINE
  5
16F
330
1F
100
AcDbEntity
  8
0
  6
HIDDEN
 62
     7
370
     0
100
AcDbSpline
210
0.0
220
0.0
230
1.0
 70
     8
 71
     3
 72
     8
 73
     4
 74
     0
 42
0.00000001
 43
0.00000001
 12
1.0
 22
0.0
 32
0.0
 13
1.0
 23
0.0
 33
0.0
 40
0.0
 40
0.0
 40
0.0
 40
0.0
 40
1.0
 40
1.0
 40
1.0
 40
1.0
 10
141.913535403843
 20
145.9475461747743
 30
0.0
 10
141.3860435619995
 20
145.6442762858462
 30
0.0
 10
140.8802960152202
 20
145.2996858565422
 30
0.0
 10
140.413535403843
 20
144.8843226109201
 30
0.0
  0
LINE
  5
170
330
1F
100
AcDbEntity
  8
0
  6
HIDDEN
 62
     7
370
     0
100
AcDbLine
 10
140.4135366257
 20
139.0803478724
 30
0.0
 11
140.4135366257
 21
144.8843226834
 31
0.0
  0
SPLINE
  5
171
330
1F
100
AcDbEntity
  8
0
  6
HIDDEN
 62
     7
370
     0
100
AcDbSpline
210
0.0
220
0.0
230
1.0
 70
     8
 71
     3
 72
    72
 73
    68
 74
     0
 42
0.00000001
 43
0.00000001
 12
1.0
 22
0.0
 32
0.0
 13
1.0
 23
0.0
 33
0.0
 40
-0.03125
 40
-0.03125
 40
0.0
 40
0.0
 40
0.0312499999999999
 40
0.0312499999999999
 40
0.0624999999999999
 40
0.0624999999999999
 40
0.0937499999999998
 40
0.0937499999999998
 40
0.1249999999999998
 40
0.1249999999999998
 40
0.1562499999999997
 40
0.1562499999999997
 40
0.1874999999999996
 40
0.1874999999999996
 40
0.2187499999999996
 40
0.2187499999999996
 40
0.2499999999999995
 40
0.2499999999999995
 40
0.2812499999999994
 40
0.2812499999999994
 40
0.3124999999999994
 40
0.3124999999999994
 40
0.3437499999999993
 40
0.3437499999999993
 40
0.3749999999999992
 40
0.3749999999999992
 40
0.3906249999999992
 40
0.3906249999999992
 40
0.4062499999999992
 40
0.4062499999999992
 40
0.4374999999999992
 40
0.4374999999999992
 40
0.4687499999999992
 40
0.4687499999999992
 40
0.4999999999999992
 40
0.4999999999999992
 40
0.5312499999999992
 40
0.5312499999999992
 40
0.5624999999999993
 40
0.5624999999999993
 40
0.5937499999999993
 40
0.5937499999999993
 40
0.6249999999999994
 40
0.6249999999999994
 40
0.6562499999999994
 40
0.6562499999999994
 40
0.6874999999999996
 40
0.6874999999999996
 40
0.7187499999999996
 40
0.7187499999999996
 40
0.7499999999999996
 40
0.7499999999999996
 40
0.7812499999999997
 40
0.7812499999999997
 40
0.8124999999999997
 40
0.8124999999999997
 40
0.8437499999999998
 40
0.8437499999999998
 40
0.8749999999999998
 40
0.8749999999999998
 40
0.9062499999999999
 40
0.9062499999999999
 40
0.9374999999999999
 40
0.9374999999999999
 40
0.96875
 40
0.96875
 40
1.0
 40
1.0
 40
1.03125
 40
1.03125
 10
159.5374817226682
 20
144.4231689277526
 30
0.0
 10
159.9119119425421
 20
144.8335247282377
 30
0.0
 10
160.1167645438077
 20
145.0171738108962
 30
0.0
 10
160.5596327406546
 20
145.3441287143915
 30
0.0
 10
160.7995881579729
 20
145.4879069225713
 30
0.0
 10
161.2951991407475
 20
145.7254242780172
 30
0.0
 10
161.552465431902
 20
145.820743842915
 30
0.0
 10
162.0858191997391
 20
145.9648293755494
 30
0.0
 10
162.3600993396373
 20
146.012565382519
 30
0.0
 10
162.9065278742169
 20
146.0581475230528
 30
0.0
 10
163.1811041926847
 20
146.0567137629806
 30
0.0
 10
163.7330713669554
 20
146.0038004548898
 30
0.0
 10
164.0036883295271
 20
145.9528307286856
 30
0.0
 10
164.5299735006063
 20
145.804224101742
 30
0.0
 10
164.7876050640139
 20
145.7059387309849
 30
0.0
 10
165.2835312286874
 20
145.4616853717991
 30
0.0
 10
165.516514906479
 20
145.318605240777
 30
0.0
 10
165.952848181804
 20
144.9907466903082
 30
0.0
 10
166.1581294356623
 20
144.8037530526079
 30
0.0
 10
166.5261637335225
 20
144.3943224327849
 30
0.0
 10
166.6876787235077
 20
144.1742169918004
 30
0.0
 10
166.9648364066548
 20
143.7024669103624
 30
0.0
 10
167.0812305860885
 20
143.4474503839212
 30
0.0
 10
167.2545046227352
 20
142.9262125605242
 30
0.0
 10
167.3129511772009
 20
142.6587284427433
 30
0.0
 10
167.3568159026768
 20
142.2468127834108
 30
0.0
 10
167.3639961193062
 20
142.1071054803353
 30
0.0
 10
167.3630280920107
 20
141.8309824248729
 30
0.0
 10
167.3550253025971
 20
141.6938058585421
 30
0.0
 10
167.3089525706847
 20
141.2848724172788
 30
0.0
 10
167.2480177382326
 20
141.0129461682746
 30
0.0
 10
167.0698975818241
 20
140.4897656518195
 30
0.0
 10
166.9543296704817
 20
140.2410536514562
 30
0.0
 10
166.6724828865425
 20
139.7681691264642
 30
0.0
 10
166.5056129411278
 20
139.544559909232
 30
0.0
 10
166.136287386329
 20
139.1399025210444
 30
0.0
 10
165.9315022300315
 20
138.9554889328749
 30
0.0
 10
165.4868492825153
 20
138.6264628979805
 30
0.0
 10
165.2520001530045
 20
138.4852948219923
 30
0.0
 10
164.7585903905275
 20
138.2468852932118
 30
0.0
 10
164.4973034368228
 20
138.1491027368069
 30
0.0
 10
163.9665651563102
 20
138.0037747086168
 30
0.0
 10
163.6969254554129
 20
137.9554853184218
 30
0.0
 10
163.1491741156677
 20
137.9070700946352
 30
0.0
 10
162.8692700738091
 20
137.9075282802712
 30
0.0
 10
162.3221921659741
 20
137.9576801358733
 30
0.0
 10
162.0525870612867
 20
138.0068537029053
 30
0.0
 10
161.5214323046306
 20
138.1545282262124
 30
0.0
 10
161.260137488187
 20
138.2536833905779
 30
0.0
 10
160.7678235100117
 20
138.4946961610547
 30
0.0
 10
160.533866634433
 20
138.6371842856794
 30
0.0
 10
160.0916980139025
 20
138.9686717146643
 30
0.0
 10
159.8865044827909
 20
139.1561053426527
 30
0.0
 10
159.5208102664329
 20
139.5630090617031
 30
0.0
 10
159.3580396440445
 20
139.7841881363721
 30
0.0
 10
159.077087213279
 20
140.2639354655874
 30
0.0
 10
158.9638833610055
 20
140.5139474323977
 30
0.0
 10
158.7912746368665
 20
141.0340226424181
 30
0.0
 10
158.7316683541902
 20
141.3077541070479
 30
0.0
 10
158.6737765841204
 20
141.8563717569463
 30
0.0
 10
158.6745661229803
 20
142.1307116208379
 30
0.0
 10
158.7357565985967
 20
142.6794535719769
 30
0.0
 10
158.7968853223308
 20
142.9525188858341
 30
0.0
 10
158.9729650079605
 20
143.4726841346024
 30
0.0
 10
159.0892956029505
 20
143.7250032681613
 30
0.0
 10
159.3724968326912
 20
144.2014076095683
 30
0.0
 10
159.5374817226682
 20
144.4231689277526
 30
0.0
 10
159.9119119425421
 20
144.8335247282377
 30
0.0
  0
CIRCLE
  5
172
330
1F
100
AcDbEntity
  8
0
  6
HIDDEN
 62
     7
370
     0
100
AcDbCircle
 10
162.9135354038
 20
141.9823352779
 30
0.0
 40
4.049999999999983
  0
SPLINE
  5
173
330
1F
100
AcDbEntity
  8
0
  6
HIDDEN
 62
     7
370
     0
100
AcDbSpline
210
0.0
220
0.0
230
1.0
 70
     8
 71
     3
 72
    10
 73
     6
 74
     0
 42
0.00000001
 43
0.00000001
 12
1.0
 22
0.0
 32
0.0
 13
1.0
 23
0.0
 33
0.0
 40
0.0
 40
0.0
 40
0.0
 40
0.0
 40
0.5
 40
0.5
 40
1.0
 40
1.0
 40
1.0
 40
1.0
 10
216.5122338196485
 20
164.3286867920897
 30
0.0
 10
216.4127786559265
 20
164.4922554937368
 30
0.0
 10
216.2812289807304
 20
164.6981129672296
 30
0.0
 10
215.9889843712829
 20
165.1467927481748
 30
0.0
 10
215.8277846832823
 20
165.3903578781257
 30
0.0
 10
215.646208415864
 20
165.6599052764755
 30
0.0
  0
LINE
  5
174
330
1F
100
AcDbEntity
  8
0
  6
HIDDEN
 62
     7
370
     0
100
AcDbLine
 10
216.5122320231
 20
164.3286865736
 30
0.0
 11
216.5122320231
 21
141.9823352779
 31
0.0
  0
ELLIPSE
  5
175
330
1F
100
AcDbEntity
  8
0
  6
HIDDEN
 62
     7
370
     0
100
AcDbEllipse
 10
232.3891339416
 20
141.9823352779
 30
0.0
 11
-1.010221271312133
 21
31.99952009247673
 31
0.0
210
0.0
220
0.0
230
1.0
 40
0.1734804855
 41
1.320236859947945
 42
1.565319622021314
  0
ELLIPSE
  5
176
330
1F
100
AcDbEntity
  8
0
  6
HIDDEN
 62
     7
370
     0
100
AcDbEllipse
 10
233.9929737468
 20
141.9823352779
 30
0.0
 11
-23.41817040774291
 21
31.99084016029755
 31
0.0
210
0.0
220
0.0
230
1.0
 40
0.0326926316
 41
0.7738163946792564
 42
1.30178623107271
  0
LINE
  5
177
330
1F
100
AcDbEntity
  8
0
  6
HIDDEN
 62
     7
370
     0
100
AcDbLine
 10
231.9847298142
 20
112.0745573725
 30
0.0
 11
231.7141023751
 21
111.7238957967
 31
0.0
  0
SPLINE
  5
178
330
1F
100
AcDbEntity
  8
0
  6
HIDDEN
 62
     7
370
     0
100
AcDbSpline
210
0.0
220
0.0
230
1.0
 70
     8
 71
     3
 72
    15
 73
    11
 74
     0
 42
0.00000001
 43
0.00000001
 12
1.0
 22
0.0
 32
0.0
 13
1.0
 23
0.0
 33
0.0
 40
0.0
 40
0.0
 40
0.0
 40
0.0
 40
0.1020164045245739
 40
0.2032044418042031
 40
0.3035730022525469
 40
0.4031311958178783
 40
0.5018883567077159
 40
0.6705600187454535
 40
0.8365792905450071
 40
0.9999999999999999
 40
0.9999999999999999
 40
0.9999999999999999
 40
0.9999999999999999
 10
231.9847310466727
 20
112.0745578151006
 30
0.0
 10
231.8796349922445
 20
112.2318396610138
 30
0.0
 10
231.6702962572101
 20
112.5451262334398
 30
0.0
 10
231.3642296016131
 20
113.0225382551022
 30
0.0
 10
231.0657796270693
 20
113.5028893816835
 30
0.0
 10
230.7755357762061
 20
113.9867687339318
 30
0.0
 10
230.4261106149011
 20
114.5900752437233
 30
0.0
 10
230.0259244343243
 20
115.3172258620621
 30
0.0
 10
229.5833776531664
 20
116.171925630598
 30
0.0
 10
229.3078071918492
 20
116.7542261897677
 30
0.0
 10
229.1711087859005
 20
117.0430799291748
 30
0.0
  0
CIRCLE
  5
179
330
1F
100
AcDbEntity
  8
0
  6
HIDDEN
 62
     7
370
     0
100
AcDbCircle
 10
190.4135354038
 20
141.9823352779
 30
0.0
 40
2.0
  0
SPLINE
  5
17A
330
1F
100
AcDbEntity
  8
0
  6
HIDDEN
 62
     7
370
     0
100
AcDbSpline
210
0.0
220
0.0
230
1.0
 70
     8
 71
     3
 72
     8
 73
     4
 74
     0
 42
0.00000001
 43
0.00000001
 12
1.0
 22
0.0
 32
0.0
 13
1.0
 23
0.0
 33
0.0
 40
0.0
 40
0.0
 40
0.0
 40
0.0
 40
1.0
 40
1.0
 40
1.0
 40
1.0
 10
217.4315769967982
 20
127.0811126237678
 30
0.0
 10
217.0203525471137
 20
130.7166757120103
 30
0.0
 10
216.732404377343
 20
134.3695960100072
 30
0.0
 10
216.6121342421531
 20
138.0461252522348
 30
0.0
  0
LINE
  5
17B
330
1F
100
AcDbEntity
  8
0
  6
HIDDEN
 62
     7
370
     0
100
AcDbLine
 10
229.1711074587
 20
117.043079489
 30
0.0
 11
229.0370864149
 21
116.4398506816
 31
0.0
  0
SPLINE
  5
17C
330
1F
100
AcDbEntity
  8
0
  6
HIDDEN
 62
     7
370
     0
100
AcDbSpline
210
0.0
220
0.0
230
1.0
 70
     8
 71
     3
 72
    10
 73
     6
 74
     0
 42
0.00000001
 43
0.00000001
 12
1.0
 22
0.0
 32
0.0
 13
1.0
 23
0.0
 33
0.0
 40
0.0
 40
0.0
 40
0.0
 40
0.0
 40
0.5
 40
0.5
 40
1.0
 40
1.0
 40
1.0
 40
1.0
 10
216.6121342421531
 20
138.0461252522348
 30
0.0
 10
216.5906753769587
 20
138.7020997821353
 30
0.0
 10
216.5641477208989
 20
139.358010567997
 30
0.0
 10
216.5247337699396
 20
140.6700036905851
 30
0.0
 10
216.5122338196485
 20
141.3260908858995
 30
0.0
 10
216.5122338196485
 20
141.9823352779377
 30
0.0
  0
ELLIPSE
  5
17D
330
1F
100
AcDbEntity
  8
0
  6
HIDDEN
 62
     7
370
     0
100
AcDbEllipse
 10
253.7220571675
 20
126.0257314013
 30
0.0
 11
19.1009188001336
 21
-18.81073292402903
 31
0.0
210
0.0
220
0.0
230
1.0
 40
0.9698463104
 41
3.934644933755896
 42
4.281814789433477
  0
LINE
  5
17E
330
1F
100
AcDbEntity
  8
0
  6
HIDDEN
 62
     7
370
     0
100
AcDbLine
 10
227.3209643837
 20
126.0257322873
 30
0.0
 11
226.8323925611
 21
141.9823352779
 31
0.0
  0
LINE
  5
17F
330
1F
100
AcDbEntity
  8
0
  6
HIDDEN
 62
     7
370
     0
100
AcDbLine
 10
202.4135356125
 20
126.2341268893
 30
0.0
 11
202.4135356125
 21
129.1026227708
 31
0.0
  0
LINE
  5
180
330
1F
100
AcDbEntity
  8
0
  6
HIDDEN
 62
     7
370
     0
100
AcDbLine
 10
196.413534629
 20
129.7323355983
 30
0.0
 11
196.413534629
 21
126.232416981
 31
0.0
  0
LINE
  5
181
330
1F
100
AcDbEntity
  8
0
  6
HIDDEN
 62
     7
370
     0
100
AcDbLine
 10
178.4135354038
 20
117.7323345627
 30
0.0
 11
178.5064286243
 21
117.8252284016
 31
0.0
  0
LINE
  5
182
330
1F
100
AcDbEntity
  8
0
  6
HIDDEN
 62
     7
370
     0
100
AcDbLine
 10
178.5064286243
 20
166.1394421543
 30
0.0
 11
178.4135354038
 21
166.2323359932
 31
0.0
  0
ARC
  5
183
330
1F
100
AcDbEntity
  8
0
  6
HIDDEN
 62
     7
370
     0
100
AcDbCircle
 10
177.7993218415
 20
118.5323352779
 30
0.0
 40
1.000000000000028
100
AcDbArc
 50
315.0
 51
0.0
  0
ARC
  5
184
330
1F
100
AcDbEntity
  8
0
  6
HIDDEN
 62
     7
370
     0
100
AcDbCircle
 10
177.7993218415
 20
118.5323352779
 30
0.0
 40
1.000000000000028
100
AcDbArc
 50
0.0
 51
52.1052014664
  0
ARC
  5
185
330
1F
100
AcDbEntity
  8
0
  6
HIDDEN
 62
     7
370
     0
100
AcDbCircle
 10
177.7993218415
 20
165.4323352779
 30
0.0
 40
1.00000000000003
100
AcDbArc
 50
351.8087250651
 51
45.0
  0
ARC
  5
186
330
1F
100
AcDbEntity
  8
0
  6
HIDDEN
 62
     7
370
     0
100
AcDbCircle
 10
177.7993218415
 20
165.4323352779
 30
0.0
 40
1.00000000000003
100
AcDbArc
 50
307.8947985336
 51
351.8087250651
  0
LINE
  5
187
330
1F
100
AcDbEntity
  8
0
  6
HIDDEN
 62
     7
370
     0
100
AcDbLine
 10
178.7993218396
 20
118.5323350663
 30
0.0
 11
178.7993218396
 21
165.4323354895
 31
0.0
  0
LINE
  5
188
330
1F
100
AcDbEntity
  8
0
  6
HIDDEN
 62
     7
370
     0
100
AcDbLine
 10
178.7993218396
 20
118.5323350663
 30
0.0
 11
178.7993218396
 21
165.4323354895
 31
0.0
  0
LINE
  5
189
330
1F
100
AcDbEntity
  8
0
  6
HIDDEN
 62
     7
370
     0
100
AcDbLine
 10
208.7099151041
 20
126.6270276691
 30
0.0
 11
201.4304221895
 21
132.1855454306
 31
0.0
  0
LINE
  5
18A
330
1F
100
AcDbEntity
  8
0
  6
HIDDEN
 62
     7
370
     0
100
AcDbLine
 10
199.9652096357
 20
127.0133700754
 30
0.0
 11
208.8081379708
 21
120.2610336776
 31
0.0
  0
LINE
  5
18B
330
1F
100
AcDbEntity
  8
0
  6
HIDDEN
 62
     7
370
     0
100
AcDbLine
 10
201.9135345992
 20
131.1555473666
 30
0.0
 11
201.9135345992
 21
137.4846609841
 31
0.0
  0
LINE
  5
18C
330
1F
100
AcDbEntity
  8
0
  6
HIDDEN
 62
     7
370
     0
100
AcDbLine
 10
196.9135356423
 20
137.4863005775
 30
0.0
 11
196.9135356423
 21
129.882550479
 31
0.0
  0
LINE
  5
18D
330
1F
100
AcDbEntity
  8
0
  6
HIDDEN
 62
     7
370
     0
100
AcDbLine
 10
140.4135366257
 20
125.7859055485
 30
0.0
 11
141.9437629458
 21
126.6693842198
 31
0.0
  0
LINE
  5
18E
330
1F
100
AcDbEntity
  8
0
  6
HIDDEN
 62
     7
370
     0
100
AcDbLine
 10
141.9437629458
 20
157.2952863361
 30
0.0
 11
140.4135366257
 21
158.1787650074
 31
0.0
  0
LINE
  5
18F
330
1F
100
AcDbEntity
  8
0
  6
HIDDEN
 62
     7
370
     0
100
AcDbLine
 10
150.4135345396
 20
125.982334518
 30
0.0
 11
151.4153358813
 21
125.982334518
 31
0.0
  0
LINE
  5
190
330
1F
100
AcDbEntity
  8
0
  6
HIDDEN
 62
     7
370
     0
100
AcDbLine
 10
151.4153358813
 20
157.9823360379
 30
0.0
 11
150.4135345396
 21
157.9823360379
 31
0.0
  0
ARC
  5
191
330
1F
100
AcDbEntity
  8
0
  6
HIDDEN
 62
     7
370
     0
100
AcDbCircle
 10
151.4153367187
 20
127.9823352779
 30
0.0
 40
2.000000000000006
100
AcDbArc
 50
270.0
 51
315.0
  0
ARC
  5
192
330
1F
100
AcDbEntity
  8
0
  6
HIDDEN
 62
     7
370
     0
100
AcDbCircle
 10
151.4153367187
 20
155.9823352779
 30
0.0
 40
2.000000000000036
100
AcDbArc
 50
45.0
 51
90.0
  0
ARC
  5
193
330
1F
100
AcDbEntity
  8
0
  6
HIDDEN
 62
     7
370
     0
100
AcDbCircle
 10
150.4135354038
 20
127.9823352779
 30
0.0
 40
2.000000000000008
100
AcDbArc
 50
189.9742217944
 51
270.0
  0
ARC
  5
194
330
1F
100
AcDbEntity
  8
0
  6
HIDDEN
 62
     7
370
     0
100
AcDbCircle
 10
150.4135354038
 20
155.9823352779
 30
0.0
 40
2.000000000000004
100
AcDbArc
 50
90.0
 51
170.0257782056
  0
LINE
  5
195
330
1F
100
AcDbEntity
  8
0
  6
HIDDEN
 62
     7
370
     0
100
AcDbLine
 10
152.8295510735
 20
126.5681215163
 30
0.0
 11
154.2437644031
 21
127.9823348458
 31
0.0
  0
LINE
  5
196
330
1F
100
AcDbEntity
  8
0
  6
HIDDEN
 62
     7
370
     0
100
AcDbLine
 10
154.2437644031
 20
155.9823357101
 30
0.0
 11
152.8295510735
 21
157.3965490396
 31
0.0
  0
LINE
  5
197
330
1F
100
AcDbEntity
  8
0
  6
HIDDEN
 62
     7
370
     0
100
AcDbLine
 10
141.9437629458
 20
126.6693842198
 30
0.0
 11
146.8437639352
 21
127.9823348458
 31
0.0
  0
LINE
  5
198
330
1F
100
AcDbEntity
  8
0
  6
HIDDEN
 62
     7
370
     0
100
AcDbLine
 10
146.8437639352
 20
155.9823357101
 30
0.0
 11
141.9437629458
 21
157.2952863361
 31
0.0
  0
LINE
  5
199
330
1F
100
AcDbEntity
  8
0
  6
HIDDEN
 62
     7
370
     0
100
AcDbLine
 10
148.4437630799
 20
156.3287457983
 30
0.0
 11
147.8437640991
 21
155.9823357101
 31
0.0
  0
LINE
  5
19A
330
1F
100
AcDbEntity
  8
0
  6
HIDDEN
 62
     7
370
     0
100
AcDbLine
 10
147.8437640991
 20
127.9823348458
 30
0.0
 11
148.4437630799
 21
127.6359247576
 31
0.0
  0
ARC
  5
19B
330
1F
100
AcDbEntity
  8
0
  6
HIDDEN
 62
     7
370
     0
100
AcDbCircle
 10
166.9135354038
 20
128.4823352779
 30
0.0
 40
0.5
100
AcDbArc
 50
270.0
 51
0.0
  0
ARC
  5
19C
330
1F
100
AcDbEntity
  8
0
  6
HIDDEN
 62
     7
370
     0
100
AcDbCircle
 10
166.9135354038
 20
155.4823352779
 30
0.0
 40
0.5
100
AcDbArc
 50
0.0
 51
90.0
  0
LINE
  5
19D
330
1F
100
AcDbEntity
  8
0
  6
HIDDEN
 62
     7
370
     0
100
AcDbLine
 10
154.2437644031
 20
127.9823348458
 30
0.0
 11
166.9135353815
 21
127.9823348458
 31
0.0
  0
LINE
  5
19E
330
1F
100
AcDbEntity
  8
0
  6
HIDDEN
 62
     7
370
     0
100
AcDbLine
 10
166.9135353815
 20
155.9823357101
 30
0.0
 11
154.2437644031
 21
155.9823357101
 31
0.0
  0
LINE
  5
19F
330
1F
100
AcDbEntity
  8
0
  6
HIDDEN
 62
     7
370
     0
100
AcDbLine
 10
146.8437639352
 20
127.9823348458
 30
0.0
 11
147.8437640991
 21
127.9823348458
 31
0.0
  0
LINE
  5
1A0
330
1F
100
AcDbEntity
  8
0
  6
HIDDEN
 62
     7
370
     0
100
AcDbLine
 10
147.8437640991
 20
155.9823357101
 30
0.0
 11
146.8437639352
 21
155.9823357101
 31
0.0
  0
LINE
  5
1A1
330
1F
100
AcDbEntity
  8
0
  6
HIDDEN
 62
     7
370
     0
100
AcDbLine
 10
167.4135354634
 20
131.7323349948
 30
0.0
 11
168.6635352027
 21
132.9823356654
 31
0.0
  0
LINE
  5
1A2
330
1F
100
AcDbEntity
  8
0
  6
HIDDEN
 62
     7
370
     0
100
AcDbLine
 10
168.6635352027
 20
150.9823348905
 30
0.0
 11
167.4135354634
 21
152.2323355611
 31
0.0
  0
LINE
  5
1A3
330
1F
100
AcDbEntity
  8
0
  6
HIDDEN
 62
     7
370
     0
100
AcDbLine
 10
205.4135361042
 20
150.9823348905
 30
0.0
 11
168.6635352027
 21
150.9823348905
 31
0.0
  0
LINE
  5
1A4
330
1F
100
AcDbEntity
  8
0
  6
HIDDEN
 62
     7
370
     0
100
AcDbLine
 10
168.6635352027
 20
132.9823356654
 30
0.0
 11
205.4135361042
 21
132.9823356654
 31
0.0
  0
LINE
  5
1A5
330
1F
100
AcDbEntity
  8
0
  6
HIDDEN
 62
     7
370
     0
100
AcDbLine
 10
205.4135361042
 20
132.9823356654
 30
0.0
 11
210.8212811228
 21
141.9823352779
 31
0.0
  0
LINE
  5
1A6
330
1F
100
AcDbEntity
  8
0
  6
HIDDEN
 62
     7
370
     0
100
AcDbLine
 10
210.8212811228
 20
141.9823352779
 30
0.0
 11
205.4135361042
 21
150.9823348905
 31
0.0
  0
LINE
  5
1A7
330
1F
100
AcDbEntity
  8
0
  6
HIDDEN
 62
     7
370
     0
100
AcDbLine
 10
220.1187339898
 20
114.4360114421
 30
0.0
 11
220.9139381822
 21
113.6528883661
 31
0.0
  0
LINE
  5
1A8
330
1F
100
AcDbEntity
  8
0
  6
HIDDEN
 62
     7
370
     0
100
AcDbLine
 10
225.8256552097
 20
118.6403759356
 30
0.0
 11
225.0304510173
 21
119.4234990115
 31
0.0
  0
LINE
  5
1A9
330
1F
100
AcDbEntity
  8
0
  6
HIDDEN
 62
     7
370
     0
100
AcDbLine
 10
230.3394814309
 20
110.6037121798
 30
0.0
 11
225.3638272461
 21
116.8726511832
 31
0.0
  0
LINE
  5
1AA
330
1F
100
AcDbEntity
  8
0
  6
HIDDEN
 62
     7
370
     0
100
AcDbLine
 10
215.6062414225
 20
117.8974878575
 30
0.0
 11
219.554523873
 21
114.0091900314
 31
0.0
  0
LINE
  5
1AB
330
1F
100
AcDbEntity
  8
0
  6
HIDDEN
 62
     7
370
     0
100
AcDbLine
 10
225.4485850509
 20
119.9941762324
 30
0.0
 11
219.3951112505
 21
125.9556837912
 31
0.0
  0
LINE
  5
1AC
330
1F
100
AcDbEntity
  8
0
  6
HIDDEN
 62
     7
370
     0
100
AcDbLine
 10
232.879969227
 20
107.7281531478
 30
0.0
 11
231.9075380739
 21
108.6858060743
 31
0.0
  0
LINE
  5
1AD
330
1F
100
AcDbEntity
  8
0
  6
HIDDEN
 62
     7
370
     0
100
AcDbLine
 10
227.416827279
 20
104.125819781
 30
0.0
 11
228.389258432
 21
103.1681631292
 31
0.0
  0
LINE
  5
1AE
330
1F
100
AcDbEntity
  8
0
  6
HIDDEN
 62
     7
370
     0
100
AcDbLine
 10
223.1142138418
 20
110.8953893717
 30
0.0
 11
226.8985127386
 21
106.1274666871
 31
0.0
  0
LINE
  5
1AF
330
1F
100
AcDbEntity
  8
VERMASSUNG
  6
CENTERX2
100
AcDbLine
 10
146.0345088701
 20
141.9823352779
 30
0.0
 11
243.4135354038
 21
141.9823352779
 31
0.0
  0
LINE
  5
1B0
330
1F
100
AcDbEntity
  8
VERMASSUNG
  6
CENTERX2
100
AcDbLine
 10
243.4135354038
 20
96.9823352779
 30
0.0
 11
243.4135354038
 21
141.9823352779
 31
0.0
  0
LINE
  5
1B1
330
1F
100
AcDbEntity
  8
VERMASSUNG
  6
CENTERX2
100
AcDbLine
 10
243.4135354038
 20
96.9823352779
 30
0.0
 11
252.051688229
 21
96.9823352779
 31
0.0
  0
LINE
  5
1B2
330
1F
100
AcDbEntity
  8
VERMASSUNG
100
AcDbLine
 10
243.4135354038
 20
96.9823352779
 30
0.0
 11
243.4135354038
 21
92.49240004
 31
0.0
  0
DIMENSION
  5
1B3
330
1F
100
AcDbEntity
  8
VERMASSUNG
100
AcDbDimension
  2
_D
 10
243.4135354038
 20
92.49240004
 30
0.0
 11
233.460199131
 21
87.5147392329
 31
0.0
 70
   162
  1
<>
 71
     1
 42
-1.0
  3
SLDDIMSTYLE0
100
AcDb2LineAngularDimension
 13
228.7314002237
 23
97.7302614087
 33
0.0
 14
242.9887027957
 24
96.9811652882
 34
0.0
 15
243.4135354038
 25
96.9823352779
 35
0.0
 16
233.460199131
 26
87.5147392329
 36
0.0
  0
DIMENSION
  5
1BD
330
1F
100
AcDbEntity
  8
VERMASSUNG
100
AcDbDimension
  2
_D_1
 10
243.4135354038
 20
74.3218416062
 30
0.0
 11
210.9135354038
 21
74.3218416062
 31
0.0
 70
   160
  1
<>
 71
     2
 42
-1.0
  3
SLDDIMSTYLE1
100
AcDbAlignedDimension
 13
178.4135354038
 23
110.9823352779
 33
0.0
 14
243.4135354038
 24
96.9823352779
 34
0.0
100
AcDbRotatedDimension
  0
DIMENSION
  5
1CA
330
1F
100
AcDbEntity
  8
VERMASSUNG
100
AcDbDimension
  2
_D_2
 10
254.4177809565
 20
141.9823352779
 30
0.0
 11
254.4177809565
 21
119.4823352779
 31
0.0
 70
   160
  1
<>
 71
     2
 42
-1.0
  3
SLDDIMSTYLE1
100
AcDbAlignedDimension
 13
243.4135354038
 23
96.9823352779
 33
0.0
 14
243.4135354038
 24
141.9823352779
 34
0.0
 50
90.0
100
AcDbRotatedDimension
  0
DIMENSION
  5
1D6
330
1F
100
AcDbEntity
  8
VERMASSUNG
100
AcDbDimension
  2
_D_3
 10
243.4135354038
 20
66.0126385049
 30
0.0
 11
191.9135354038
 21
66.0126385049
 31
0.0
 70
   160
  1
<>
 71
     2
 42
-1.0
  3
SLDDIMSTYLE2
100
AcDbAlignedDimension
 13
140.4135354038
 23
121.6899972854
 33
0.0
 14
243.4135354038
 24
96.9823352779
 34
0.0
 50
0.0
100
AcDbRotatedDimension
  0
DIMENSION
  5
1E1
330
1F
100
AcDbEntity
  8
VERMASSUNG
100
AcDbDimension
  2
_D_4
 10
126.2937237506
 20
110.4823352779
 30
0.0
 11
126.2937237506
 21
141.9823352779
 31
0.0
 70
   160
  1
PSC%%c<>
 71
     2
 42
-1.0
  3
SLDDIMSTYLE2
100
AcDbAlignedDimension
 13
178.9135354038
 23
173.4823352779
 33
0.0
 14
178.9135354038
 24
110.4823352779
 34
0.0
 50
90.0
100
AcDbRotatedDimension
  0
LINE
  5
1ED
330
1F
100
AcDbEntity
  8
0
  6
Continuous
 62
     7
370
    15
100
AcDbLine
 10
66.010836834
 20
96.9808098461
 30
0.0
 11
72.1693609905
 21
98.0667245175
 31
0.0
  0
LINE
  5
1EE
330
1F
100
AcDbEntity
  8
0
  6
Continuous
 62
     7
370
    15
100
AcDbLine
 10
63.2054883119
 20
99.6844020273
 30
0.0
 11
63.6551904556
 21
99.1176661636
 31
0.0
  0
SPLINE
  5
1EF
330
1F
100
AcDbEntity
  8
0
  6
Continuous
 62
     7
370
    15
100
AcDbSpline
210
0.0
220
0.0
230
1.0
 70
     8
 71
     3
 72
     9
 73
     5
 74
     0
 42
0.00000001
 43
0.00000001
 12
1.0
 22
0.0
 32
0.0
 13
1.0
 23
0.0
 33
0.0
 40
0.0
 40
0.0
 40
0.0
 40
0.0
 40
0.3690443510128351
 40
1.0
 40
1.0
 40
1.0
 40
1.0
 10
63.66572115273314
 20
99.1260368908871
 30
0.0
 10
63.68502654758569
 20
99.10148366647384
 30
0.0
 10
63.7373384033276
 20
99.03495175954762
 30
0.0
 10
63.7349665284473
 20
99.02574786956444
 30
0.0
 10
63.7334699805929
 20
99.0199406231869
 30
0.0
  0
SPLINE
  5
1F0
330
1F
100
AcDbEntity
  8
0
  6
Continuous
 62
     7
370
    15
100
AcDbSpline
210
0.0
220
0.0
230
1.0
 70
     8
 71
     3
 72
    11
 73
     7
 74
     0
 42
0.00000001
 43
0.00000001
 12
1.0
 22
0.0
 32
0.0
 13
1.0
 23
0.0
 33
0.0
 40
0.0
 40
0.0
 40
0.0
 40
0.0
 40
0.0970688587034443
 40
0.5019318596793078
 40
0.868148547652597
 40
0.9999999999999999
 40
0.9999999999999999
 40
0.9999999999999999
 40
0.9999999999999999
 10
61.23711663001316
 20
109.3557473803986
 30
0.0
 10
61.23637922050085
 20
109.3579455204868
 30
0.0
 10
61.23256616106242
 20
109.3693118490609
 30
0.0
 10
61.24250414874282
 20
109.3179608068749
 30
0.0
 10
61.25520262970553
 20
109.2059408854954
 30
0.0
 10
61.21593854308923
 20
109.1158175422512
 30
0.0
 10
61.20554432907241
 20
109.0919595743645
 30
0.0
  0
LINE
  5
1F1
330
1F
100
AcDbEntity
  8
0
  6
Continuous
 62
     7
370
    15
100
AcDbLine
 10
61.201829749
 20
109.0945039476
 30
0.0
 11
60.9548015583
 21
108.353282937
 31
0.0
  0
LINE
  5
1F2
330
1F
100
AcDbEntity
  8
0
  6
Continuous
 62
     7
370
    15
100
AcDbLine
 10
60.0599942792
 20
110.7095663036
 30
0.0
 11
59.7565023292
 21
110.6560525085
 31
0.0
  0
LINE
  5
1F3
330
1F
100
AcDbEntity
  8
0
  6
Continuous
 62
     7
370
    15
100
AcDbLine
 10
72.1970757533
 20
98.1665064181
 30
0.0
 11
74.7583665017
 21
98.6181345369
 31
0.0
  0
LINE
  5
1F4
330
1F
100
AcDbEntity
  8
0
  6
Continuous
 62
     7
370
    15
100
AcDbLine
 10
74.7857995395
 20
98.6388806786
 30
0.0
 11
75.0164294679
 21
98.9794020142
 31
0.0
  0
LINE
  5
1F5
330
1F
100
AcDbEntity
  8
0
  6
Continuous
 62
     7
370
    15
100
AcDbLine
 10
71.6924730752
 20
111.2507988299
 30
0.0
 11
71.3800846662
 21
111.4768550332
 31
0.0
  0
LINE
  5
1F6
330
1F
100
AcDbEntity
  8
0
  6
Continuous
 62
     7
370
    15
100
AcDbLine
 10
63.423114416
 20
102.168395796
 30
0.0
 11
63.5112508264
 21
102.1800373281
 31
0.0
  0
LINE
  5
1F7
330
1F
100
AcDbEntity
  8
0
  6
Continuous
 62
     7
370
    15
100
AcDbLine
 10
59.8018577386
 20
110.0532819118
 30
0.0
 11
63.2324587152
 21
97.9149822678
 31
0.0
  0
ARC
  5
1F8
330
1F
100
AcDbEntity
  8
0
  6
Continuous
 62
     7
370
    15
100
AcDbCircle
 10
60.6158746051
 20
110.4090832379
 30
0.0
 40
0.8883794474523729
100
AcDbArc
 50
163.8831499959
 51
203.6098167059
  0
LINE
  5
1F9
330
1F
100
AcDbEntity
  8
0
  6
Continuous
 62
     7
370
    15
100
AcDbLine
 10
62.4472250294
 20
109.9066023315
 30
0.0
 11
59.7624106396
 21
110.6556948806
 31
0.0
  0
ARC
  5
1FA
330
1F
100
AcDbEntity
  8
0
  6
Continuous
 62
     7
370
    15
100
AcDbCircle
 10
62.2005715188
 20
109.6764005985
 30
0.0
 40
0.3373881921884951
100
AcDbArc
 50
7.7463411569
 51
43.0240467046
  0
LINE
  5
1FB
330
1F
100
AcDbEntity
  8
0
  6
Continuous
 62
     7
370
    15
100
AcDbLine
 10
65.9654818539
 20
97.5835767175
 30
0.0
 11
62.5348808773
 21
109.7218763615
 31
0.0
  0
ARC
  5
1FC
330
1F
100
AcDbEntity
  8
0
  6
Continuous
 62
     7
370
    15
100
AcDbCircle
 10
65.1514560451
 20
97.2277747645
 30
0.0
 40
0.8883878922855413
100
AcDbArc
 50
343.8833494504
 51
23.609622764
  0
LINE
  5
1FD
330
1F
100
AcDbEntity
  8
0
  6
Continuous
 62
     7
370
    15
100
AcDbLine
 10
63.3201143302
 20
97.730260023
 30
0.0
 11
66.0049289819
 21
96.9811637486
 31
0.0
  0
ARC
  5
1FE
330
1F
100
AcDbEntity
  8
0
  6
Continuous
 62
     7
370
    15
100
AcDbCircle
 10
63.5667743296
 20
97.9604653309
 30
0.0
 40
0.3373953750046742
100
AcDbArc
 50
187.7474263432
 51
223.0237386832
  0
ARC
  5
1FF
330
1F
100
AcDbEntity
  8
0
  6
Continuous
 62
     7
370
    15
100
AcDbCircle
 10
65.1909524946
 20
97.2351237505
 30
0.0
 40
0.8439678135500276
100
AcDbArc
 50
343.8834188453
 51
23.6095780881
  0
LINE
  5
200
330
1F
100
AcDbEntity
  8
0
  6
Continuous
 62
     7
370
    15
100
AcDbLine
 10
65.9642766497
 20
97.5731347288
 30
0.0
 11
62.5336755131
 21
109.7114343728
 31
0.0
  0
ARC
  5
201
330
1F
100
AcDbEntity
  8
0
  6
Continuous
 62
     7
370
    15
100
AcDbCircle
 10
62.2161034984
 20
109.6682400874
 30
0.0
 40
0.3204960697951141
100
AcDbArc
 50
7.7455061572
 51
43.0253638084
  0
LINE
  5
202
330
1F
100
AcDbEntity
  8
0
  6
Continuous
 62
     7
370
    15
100
AcDbLine
 10
62.450402702
 20
109.8869216229
 30
0.0
 11
59.7655878466
 21
110.6360178973
 31
0.0
  0
ARC
  5
203
330
1F
100
AcDbEntity
  8
0
  6
Continuous
 62
     7
370
    15
100
AcDbCircle
 10
60.5763777747
 20
110.4017383695
 30
0.0
 40
0.843959243501609
100
AcDbArc
 50
163.8832341495
 51
203.6098150079
  0
LINE
  5
204
330
1F
100
AcDbEntity
  8
0
  6
Continuous
 62
     7
370
    15
100
AcDbLine
 10
59.80306287
 20
110.0637276258
 30
0.0
 11
63.2336638466
 21
97.9254242565
 31
0.0
  0
ARC
  5
205
330
1F
100
AcDbEntity
  8
0
  6
Continuous
 62
     7
370
    15
100
AcDbCircle
 10
63.5512246199
 20
97.9686178498
 30
0.0
 40
0.3204848377912375
100
AcDbArc
 50
187.7456544108
 51
223.0261577375
  0
LINE
  5
206
330
1F
100
AcDbEntity
  8
0
  6
Continuous
 62
     7
370
    15
100
AcDbLine
 10
63.3169366576
 20
97.7499407317
 30
0.0
 11
66.0017514112
 21
97.0008444573
 31
0.0
  0
LINE
  5
207
330
1F
100
AcDbEntity
  8
0
  6
Continuous
 62
     7
370
    15
100
AcDbLine
 10
72.1240060467
 20
98.6694913889
 30
0.0
 11
68.6934048373
 21
110.8077928956
 31
0.0
  0
ARC
  5
208
330
1F
100
AcDbEntity
  8
0
  6
Continuous
 62
     7
370
    15
100
AcDbCircle
 10
71.2232746766
 20
98.2986264372
 30
0.0
 40
0.9740933289953062
100
AcDbArc
 50
346.2273708693
 51
22.3788060025
  0
LINE
  5
209
330
1F
100
AcDbEntity
  8
0
  6
Continuous
 62
     7
370
    15
100
AcDbLine
 10
63.6842325859
 20
98.617609271
 30
0.0
 11
63.469340612
 21
98.1613468911
 31
0.0
  0
ARC
  5
20A
330
1F
100
AcDbEntity
  8
0
  6
Continuous
 62
     7
370
    15
100
AcDbCircle
 10
62.6201372782
 20
99.8447341527
 30
0.0
 40
2.22098629543505
100
AcDbArc
 50
343.8834753331
 51
23.609490948
  0
LINE
  5
20B
330
1F
100
AcDbEntity
  8
0
  6
Continuous
 62
     7
370
    15
100
AcDbLine
 10
64.6552190248
 20
100.7342409874
 30
0.0
 11
62.7352356043
 21
107.5276058699
 31
0.0
  0
LINE
  5
20C
330
1F
100
AcDbEntity
  8
0
  6
Continuous
 62
     7
370
    15
100
AcDbLine
 10
61.1121205676
 20
106.9026213671
 30
0.0
 11
63.0321037553
 21
100.1092564847
 31
0.0
  0
ARC
  5
20D
330
1F
100
AcDbEntity
  8
0
  6
Continuous
 62
     7
370
    15
100
AcDbCircle
 10
63.1472040169
 20
107.7921288081
 30
0.0
 40
2.220988098372487
100
AcDbArc
 50
163.883505053
 51
203.6094876881
  0
LINE
  5
20E
330
1F
100
AcDbEntity
  8
0
  6
Continuous
 62
     7
370
    15
100
AcDbLine
 10
62.5160963338
 20
107.9894114818
 30
0.0
 11
61.0135023546
 21
108.4086556519
 31
0.0
  0
ARC
  5
20F
330
1F
100
AcDbEntity
  8
0
  6
Continuous
 62
     7
370
    15
100
AcDbCircle
 10
61.8995193766
 20
107.4139324506
 30
0.0
 40
0.8434116784752682
100
AcDbArc
 50
7.7457883966
 51
43.0254237856
  0
LINE
  5
210
330
1F
100
AcDbEntity
  8
0
  6
Continuous
 62
     7
370
    15
100
AcDbLine
 10
63.2512430258
 20
99.6474508728
 30
0.0
 11
64.7538368886
 21
99.2282067026
 31
0.0
  0
ARC
  5
211
330
1F
100
AcDbEntity
  8
0
  6
Continuous
 62
     7
370
    15
100
AcDbCircle
 10
63.867819983
 20
100.222929904
 30
0.0
 40
0.8434116784752488
100
AcDbArc
 50
187.7457883966
 51
223.0254237856
  0
LWPOLYLINE
  5
212
330
1F
100
AcDbEntity
  8
0
  6
Continuous
 62
     7
370
    15
100
AcDbPolyline
 90
       27
 70
   128
 43
0.0
 10
63.2935762934
 20
101.2799215104
 10
63.3957749762
 20
101.3218459274
 10
63.468211849
 20
101.5088666762
 10
63.506677334
 20
101.8301096345
 10
63.5089357913
 20
102.2669036473
 10
63.4748561371
 20
102.7938683118
 10
63.406418829
 20
103.3803780164
 10
63.3076013129
 20
103.9923463549
 10
63.1841463566
 20
104.5942079808
 10
63.0432286363
 20
105.1509824182
 10
62.8930382028
 20
105.6303117956
 10
62.7423031785
 20
106.0043458427
 10
62.599784049
 20
106.2513400401
 10
62.4737630662
 20
106.3569408442
 10
62.3715643834
 20
106.3150164272
 10
62.2991275106
 20
106.1279956783
 10
62.2606620256
 20
105.80675272
 10
62.2584035684
 20
105.3699587072
 10
62.2924832225
 20
104.8429903175
 10
62.3609205306
 20
104.2564806129
 10
62.4597382795
 20
103.6445159997
 10
62.583193003
 20
103.0426543738
 10
62.7241107233
 20
102.4858799364
 10
62.8743011568
 20
102.0065468337
 10
63.0250361811
 20
101.6325165118
 10
63.1675555434
 20
101.3855223145
 10
63.2935762934
 20
101.2799215104
  0
ARC
  5
213
330
1F
100
AcDbEntity
  8
0
  6
Continuous
 62
     7
370
    15
100
AcDbCircle
 10
68.3021200697
 20
110.7422650389
 30
0.0
 40
0.396733751246666
100
AcDbArc
 50
9.5070140539
 51
38.4411142902
  0
LINE
  5
214
330
1F
100
AcDbEntity
  8
0
  6
Continuous
 62
     7
370
    15
100
AcDbLine
 10
61.118637963
 20
109.3098555292
 30
0.0
 11
60.0387396354
 21
110.2996465351
 31
0.0
  0
LINE
  5
215
330
1F
100
AcDbEntity
  8
0
  6
Continuous
 62
     7
370
    15
100
AcDbLine
 10
61.2434286688
 20
109.2750352408
 30
0.0
 11
61.118637963
 21
109.3098555292
 31
0.0
  0
SPLINE
  5
216
330
1F
100
AcDbEntity
  8
0
  6
Continuous
 62
     7
370
    15
100
AcDbSpline
210
0.0
220
0.0
230
1.0
 70
     8
 71
     3
 72
     9
 73
     5
 74
     0
 42
0.00000001
 43
0.00000001
 12
1.0
 22
0.0
 32
0.0
 13
1.0
 23
0.0
 33
0.0
 40
0.0
 40
0.0
 40
0.0
 40
0.0
 40
0.5007564307686683
 40
1.0
 40
1.0
 40
1.0
 40
1.0
 10
63.68423258588749
 20
98.61760927095301
 30
0.0
 10
63.70922816747376
 20
98.68613302023219
 30
0.0
 10
63.75914381518277
 20
98.82297349809485
 30
0.0
 10
63.73284113399133
 20
98.95548174175516
 30
0.0
 10
63.71970968955296
 20
99.0216356302727
 30
0.0
  0
LINE
  5
217
330
1F
100
AcDbEntity
  8
0
  6
Continuous
 62
     7
370
    15
100
AcDbLine
 10
61.118637963
 20
109.3098555292
 30
0.0
 11
61.1897472356
 21
109.0582531477
 31
0.0
  0
ARC
  5
218
330
1F
100
AcDbEntity
  8
0
  6
Continuous
 62
     7
370
    15
100
AcDbCircle
 10
72.393129782
 20
99.1978910966
 30
0.0
 40
2.435254074785105
100
AcDbArc
 50
346.2274478994
 51
22.3786549601
  0
LINE
  5
219
330
1F
100
AcDbEntity
  8
0
  6
Continuous
 62
     7
370
    15
100
AcDbLine
 10
71.851821902
 20
99.6325459863
 30
0.0
 11
68.7671639554
 21
110.5468158211
 31
0.0
  0
LINE
  5
21A
330
1F
100
AcDbEntity
  8
0
  6
Continuous
 62
     7
370
    15
100
AcDbLine
 10
74.6449798409
 20
100.1250554408
 30
0.0
 11
71.5603211958
 21
111.0393234129
 31
0.0
  0
LWPOLYLINE
  5
21B
330
1F
100
AcDbEntity
  8
0
  6
Continuous
 62
     7
370
    15
100
AcDbPolyline
 90
        3
 70
   128
 43
0.0
 10
74.9178554926
 20
100.0197228576
 10
74.9608192656
 20
99.8486836041
 10
74.9969741393
 20
99.6662486876
  0
LINE
  5
21C
330
1F
100
AcDbEntity
  8
0
  6
Continuous
 62
     7
370
    15
100
AcDbLine
 10
72.0451667968
 20
110.1839911725
 30
0.0
 11
74.9178554926
 21
100.0197228576
 31
0.0
  0
ARC
  5
21D
330
1F
100
AcDbEntity
  8
0
  6
Continuous
 62
     7
370
    15
100
AcDbCircle
 10
70.4413753945
 20
110.8259271057
 30
0.0
 40
1.139112676707222
100
AcDbArc
 50
10.7973309903
 51
34.8127453215
  0
LWPOLYLINE
  5
21E
330
1F
100
AcDbEntity
  8
0
  6
Continuous
 62
     7
370
    15
100
AcDbPolyline
 90
       31
 70
   128
 43
0.0
 10
58.5856356721
 20
118.8107483621
 10
58.6254450556
 20
119.207769313
 10
58.7005254876
 20
119.4710039134
 10
58.807595453
 20
119.5889484669
 10
58.941975056
 20
119.5564453091
 10
59.097791842
 20
119.3749175008
 10
59.2682355147
 20
119.0522999103
 10
59.4458568905
 20
118.6026890363
 10
59.6228933957
 20
118.0457357849
 10
59.7916076023
 20
117.4057849283
 10
59.944625764
 20
116.7108022208
 10
60.0752600532
 20
115.9911618169
 10
60.1778014626
 20
115.2783163424
 10
60.2477680024
 20
114.6034204002
 10
60.2821021404
 20
113.9959708388
 10
60.2793035161
 20
113.4825159396
 10
60.2394941326
 20
113.0854949887
 10
60.1644141663
 20
112.8222603883
 10
60.0573442008
 20
112.7043176974
 10
59.9229645979
 20
112.7368189926
 10
59.7671478119
 20
112.9183468009
 10
59.5967041392
 20
113.240966254
 10
59.4190822978
 20
113.6905752654
 10
59.2420457926
 20
114.2475285168
 10
59.0733320516
 20
114.8874793734
 10
58.9203138899
 20
115.5824620809
 10
58.7896796007
 20
116.3021024848
 10
58.6871381912
 20
117.0149479593
 10
58.6171711858
 20
117.6898439015
 10
58.5828370478
 20
118.2972934629
 10
58.5856356721
 20
118.8107483621
  0
LWPOLYLINE
  5
21F
330
1F
100
AcDbEntity
  8
0
  6
Continuous
 62
     7
370
    15
100
AcDbPolyline
 90
       24
 70
   128
 43
0.0
 10
58.9485646289
 20
117.6689841385
 10
58.9823064458
 20
117.9500982697
 10
59.04943478
 20
118.0974558528
 10
59.1449712467
 20
118.1001306112
 10
59.261829878
 20
117.957923242
 10
59.3913442519
 20
117.681380042
 10
59.5239087071
 20
117.2910124595
 10
59.6496912714
 20
116.8157715882
 10
59.7593638178
 20
116.2909023996
 10
59.8447921749
 20
115.7553341772
 10
59.8996405553
 20
115.2487878288
 10
59.9198404763
 20
114.8088291819
 10
59.9038948368
 20
114.4680899168
 10
59.8529854853
 20
114.2518405403
 10
59.770888469
 20
114.1761184271
 10
59.663692775
 20
114.2465413149
 10
59.5393477071
 20
114.4578844841
 10
59.4070766185
 20
114.7944737758
 10
59.276688664
 20
115.2313478823
 10
59.1578542318
 20
115.7361042286
 10
59.0593864273
 20
116.2713073726
 10
58.9885886822
 20
116.797264346
 10
58.9507117931
 20
117.2749657716
 10
58.9485646289
 20
117.6689841385
  0
SPLINE
  5
220
330
1F
100
AcDbEntity
  8
0
  6
Continuous
 62
     7
370
    15
100
AcDbSpline
210
0.0
220
0.0
230
1.0
 70
     8
 71
     3
 72
     9
 73
     5
 74
     0
 42
0.00000001
 43
0.00000001
 12
1.0
 22
0.0
 32
0.0
 13
1.0
 23
0.0
 33
0.0
 40
0.0
 40
0.0
 40
0.0
 40
0.0
 40
0.7383199202197165
 40
1.0
 40
1.0
 40
1.0
 40
1.0
 10
59.525871003802
 20
117.2734067375887
 30
0.0
 10
59.4922263467241
 20
117.1540799948893
 30
0.0
 10
59.44665713457569
 20
116.9924607029922
 30
0.0
 10
59.33363274143591
 20
116.833924102666
 30
0.0
 10
59.30405650922197
 20
116.7924382324446
 30
0.0
  0
SPLINE
  5
221
330
1F
100
AcDbEntity
  8
0
  6
Continuous
 62
     7
370
    15
100
AcDbSpline
210
0.0
220
0.0
230
1.0
 70
     8
 71
     3
 72
    10
 73
     6
 74
     0
 42
0.00000001
 43
0.00000001
 12
1.0
 22
0.0
 32
0.0
 13
1.0
 23
0.0
 33
0.0
 40
0.0
 40
0.0
 40
0.0
 40
0.0
 40
0.4391157409087498
 40
0.7513671444630872
 40
1.0
 40
1.0
 40
1.0
 40
1.0
 10
59.30405650922197
 20
116.7924382324446
 30
0.0
 10
59.45201967488993
 20
116.5689952770179
 30
0.0
 10
59.70519816729281
 20
116.186663969509
 30
0.0
 10
59.74962308967407
 20
115.57381531428
 30
0.0
 10
59.67479948993127
 20
115.2516898480796
 30
0.0
 10
59.64163114019769
 20
115.1088957275379
 30
0.0
  0
LINE
  5
222
330
1F
100
AcDbEntity
  8
0
  6
Continuous
 62
     7
370
    15
100
AcDbLine
 10
59.6416311402
 20
115.1088957275
 30
0.0
 11
59.9094380688
 21
114.9559464838
 31
0.0
  0
LINE
  5
223
330
1F
100
AcDbEntity
  8
0
  6
Continuous
 62
     7
370
    15
100
AcDbLine
 10
59.9064545769
 20
115.1555903788
 30
0.0
 11
59.6416311402
 21
115.1088957275
 31
0.0
  0
LINE
  5
224
330
1F
100
AcDbEntity
  8
0
  6
Continuous
 62
     7
370
    15
100
AcDbLine
 10
59.6411203098
 20
116.8518733765
 30
0.0
 11
59.3040565092
 21
116.7924382324
 31
0.0
  0
ELLIPSE
  5
225
330
1F
100
AcDbEntity
  8
0
  6
Continuous
 62
     7
370
    15
100
AcDbEllipse
 10
63.017176127
 20
104.4851891048
 30
0.0
 11
-0.4089826913515324
 21
2.316322506802891
 31
0.0
210
0.0
220
0.0
230
1.0
 40
0.1735685188
 41
2.039026565851843
 42
3.379691594702888
  0
SPLINE
  5
226
330
1F
100
AcDbEntity
  8
0
  6
Continuous
 62
     7
370
    15
100
AcDbSpline
210
0.0
220
0.0
230
1.0
 70
     8
 71
     3
 72
    27
 73
    23
 74
     0
 42
0.00000001
 43
0.00000001
 12
1.0
 22
0.0
 32
0.0
 13
1.0
 23
0.0
 33
0.0
 40
0.0
 40
0.0
 40
0.0
 40
0.0
 40
0.0235066169965924
 40
0.0470664887622166
 40
0.0706862975460261
 40
0.0943726748700864
 40
0.1181321965166756
 40
0.1778255073392171
 40
0.2379933209464452
 40
0.2986229816337639
 40
0.3597630336109762
 40
0.4835447364373011
 40
0.5552344530545265
 40
0.6094617801839728
 40
0.6823765774470786
 40
0.7375244012016781
 40
0.8023582876943881
 40
0.8349661904741197
 40
0.8677227722248368
 40
0.9115800608253496
 40
0.9556651775841819
 40
1.0
 40
1.0
 40
1.0
 40
1.0
 10
75.06369565634759
 20
99.4301697569296
 30
0.0
 10
75.24813697422292
 20
99.48386625929376
 30
0.0
 10
75.61743746592386
 20
99.59138091465479
 30
0.0
 10
76.16747490617115
 20
99.76311161909163
 30
0.0
 10
76.71536410279572
 20
99.94269735417039
 30
0.0
 10
77.26078708932256
 20
100.1308842505512
 30
0.0
 10
78.0769485892019
 20
100.4263418966351
 30
0.0
 10
79.15624350160934
 20
100.8498958360599
 30
0.0
 10
80.48399863133398
 20
101.4297199192766
 30
0.0
 10
81.79197573254257
 20
102.0603981469853
 30
0.0
 10
83.5138831267851
 20
102.9716269818483
 30
0.0
 10
85.24293713325092
 20
104.0151054067143
 30
0.0
 10
86.84762772602042
 20
105.114370092049
 30
0.0
 10
88.0850829588523
 20
106.0303194013566
 30
0.0
 10
89.18179666693136
 20
106.9059730580953
 30
0.0
 10
90.30134967238799
 20
107.8682595181916
 30
0.0
 10
91.15648561451623
 20
108.6547167007019
 30
0.0
 10
91.86477331827132
 20
109.3421563740709
 30
0.0
 10
92.44700367029043
 20
109.9277756156611
 30
0.0
 10
93.07449945455333
 20
110.5864083829608
 30
0.0
 10
93.74394079106274
 20
111.3209072904457
 30
0.0
 10
94.17464607817777
 20
111.8228684389644
 30
0.0
 10
94.39060689647332
 20
112.0745578043603
 30
0.0
  0
LINE
  5
227
330
1F
100
AcDbEntity
  8
0
  6
Continuous
 62
     7
370
    15
100
AcDbLine
 10
94.3906072591
 20
112.0745573725
 30
0.0
 11
94.5895247225
 21
111.7238957967
 31
0.0
  0
LINE
  5
228
330
1F
100
AcDbEntity
  8
0
  6
Continuous
 62
     7
370
    15
100
AcDbLine
 10
75.0930409942
 20
98.9864130105
 30
0.0
 11
75.0636959512
 21
99.4301695909
 31
0.0
  0
SPLINE
  5
229
330
1F
100
AcDbEntity
  8
0
  6
Continuous
 62
     7
370
    15
100
AcDbSpline
210
0.0
220
0.0
230
1.0
 70
     8
 71
     3
 72
    25
 73
    21
 74
     0
 42
0.00000001
 43
0.00000001
 12
1.0
 22
0.0
 32
0.0
 13
1.0
 23
0.0
 33
0.0
 40
0.0
 40
0.0
 40
0.0
 40
0.0
 40
0.0269165784447903
 40
0.0535945829302645
 40
0.0800346866418091
 40
0.1062375811015853
 40
0.1322039767842883
 40
0.1979524158137239
 40
0.2623461652386787
 40
0.3269804113647083
 40
0.3903776045717913
 40
0.5162648693955465
 40
0.6400608661597863
 40
0.7014203863840655
 40
0.7618679414637054
 40
0.8222293818735131
 40
0.881788921105487
 40
0.9214998428575547
 40
0.9609002880403401
 40
1.0
 40
1.0
 40
1.0
 40
1.0
 10
94.58952427159248
 20
111.723895848903
 30
0.0
 10
94.45766234189287
 20
111.569480810831
 30
0.0
 10
94.19510723515351
 20
111.2620193858731
 30
0.0
 10
93.79372300026884
 20
110.8089112732408
 30
0.0
 10
93.3892489362099
 20
110.3643341246271
 30
0.0
 10
92.98120873190848
 20
109.9286894894465
 30
0.0
 10
92.35871335953362
 20
109.2825807003364
 30
0.0
 10
91.51016543195122
 20
108.4448228954293
 30
0.0
 10
90.4085811775719
 20
107.4328670617386
 30
0.0
 10
89.27852255138306
 20
106.4677090928571
 30
0.0
 10
87.73330145870739
 20
105.2422592302044
 30
0.0
 10
85.73000636592977
 20
103.8236487192902
 30
0.0
 10
83.6161581345373
 20
102.549923757098
 30
0.0
 10
81.87902254475114
 20
101.6324457505643
 30
0.0
 10
80.55828100204842
 20
100.9969338489057
 30
0.0
 10
79.22024727872382
 20
100.4140725352791
 30
0.0
 10
78.01078198644805
 20
99.94049869972635
 30
0.0
 10
76.9428445722098
 20
99.56146648833744
 30
0.0
 10
76.02205979593238
 20
99.25888838548185
 30
0.0
 10
75.40192232703392
 20
99.07700394832106
 30
0.0
 10
75.09304146243481
 20
98.98641012836184
 30
0.0
  0
LINE
  5
22A
330
1F
100
AcDbEntity
  8
0
  6
Continuous
 62
     7
370
    15
100
AcDbLine
 10
74.9969741393
 20
99.6662486876
 30
0.0
 11
75.0636959512
 21
99.4301695909
 31
0.0
  0
ARC
  5
22B
330
1F
100
AcDbEntity
  8
0
  6
Continuous
 62
     7
370
    15
100
AcDbCircle
 10
184.2035690205
 20
139.5501983391
 30
0.0
 40
115.9391276175961
100
AcDbArc
 50
193.9840233525
 51
194.6722758271
  0
ELLIPSE
  5
22C
330
1F
100
AcDbEntity
  8
0
  6
Continuous
 62
     7
370
    15
100
AcDbEllipse
 10
65.0910986427
 20
139.5969232007
 30
0.0
 11
-33.74159837278041
 21
37.52397137770694
 31
0.0
210
0.0
220
0.0
230
1.0
 40
0.5725048794
 41
2.388814304287226
 42
2.390482286810828
  0
LINE
  5
22D
330
1F
100
AcDbEntity
  8
0
  6
Continuous
 62
     7
370
    15
100
AcDbLine
 10
71.7005122516
 20
111.5333546485
 30
0.0
 11
62.758529146
 21
109.9566404308
 31
0.0
  0
ARC
  5
22E
330
1F
100
AcDbEntity
  8
0
  6
Continuous
 62
     7
370
    15
100
AcDbCircle
 10
199.102704699
 20
143.6990924949
 30
0.0
 40
140.4574215857727
100
AcDbArc
 50
189.9446780768
 51
193.9002692091
  0
LINE
  5
22F
330
1F
100
AcDbEntity
  8
0
  6
Continuous
 62
     7
370
    15
100
AcDbLine
 10
98.0911001627
 20
117.043079489
 30
0.0
 11
98.0911001627
 21
126.0257322873
 31
0.0
  0
SPLINE
  5
230
330
1F
100
AcDbEntity
  8
0
  6
Continuous
 62
     7
370
    15
100
AcDbSpline
210
0.0
220
0.0
230
1.0
 70
     8
 71
     3
 72
    15
 73
    11
 74
     0
 42
0.00000001
 43
0.00000001
 12
1.0
 22
0.0
 32
0.0
 13
1.0
 23
0.0
 33
0.0
 40
0.0
 40
0.0
 40
0.0
 40
0.0
 40
0.1020164045245739
 40
0.2032044418042031
 40
0.3035730022525469
 40
0.4031311958178783
 40
0.5018883567077159
 40
0.6705600187454535
 40
0.8365792905450071
 40
0.9999999999999999
 40
0.9999999999999999
 40
0.9999999999999999
 40
0.9999999999999999
 10
94.39060687949348
 20
112.0745578151006
 30
0.0
 10
94.52427854184107
 20
112.2318396610138
 30
0.0
 10
94.79053646044707
 20
112.5451262334398
 30
0.0
 10
95.1823435881185
 20
113.0225382551022
 30
0.0
 10
95.56655078612468
 20
113.5028893816835
 30
0.0
 10
95.9427657451494
 20
113.9867687339318
 30
0.0
 10
96.39910108865931
 20
114.5900752437233
 30
0.0
 10
96.92805302963887
 20
115.3172258620621
 30
0.0
 10
97.52233961914034
 20
116.171925630598
 30
0.0
 10
97.9025118779599
 20
116.7542261897677
 30
0.0
 10
98.09109864273205
 20
117.0430799291748
 30
0.0
  0
LWPOLYLINE
  5
231
330
1F
100
AcDbEntity
  8
0
  6
Continuous
 62
     7
370
    15
100
AcDbPolyline
 90
        9
 70
   128
 43
0.0
 10
59.2297430214
 20
110.4439493801
 10
59.2380667169
 20
110.554206797
 10
59.2504928883
 20
110.6502522315
 10
59.2669195559
 20
110.7312996472
 10
59.2872121435
 20
110.7966803546
 10
59.311203013
 20
110.8458579118
 10
59.3386951897
 20
110.8784262623
 10
59.369462828
 20
110.8941190477
 10
59.403252608
 20
110.8928040202
  0
LINE
  5
232
330
1F
100
AcDbEntity
  8
0
  6
Continuous
 62
     7
370
    15
100
AcDbLine
 10
59.2214426089
 20
110.4815152074
 30
0.0
 11
59.2297430214
 21
110.4439493801
 31
0.0
  0
SPLINE
  5
233
330
1F
100
AcDbEntity
  8
0
  6
Continuous
 62
     7
370
    15
100
AcDbSpline
210
0.0
220
0.0
230
1.0
 70
     8
 71
     3
 72
    10
 73
     6
 74
     0
 42
0.00000001
 43
0.00000001
 12
1.0
 22
0.0
 32
0.0
 13
1.0
 23
0.0
 33
0.0
 40
0.0
 40
0.0
 40
0.0
 40
0.0
 40
0.5
 40
0.5
 40
1.0
 40
1.0
 40
1.0
 40
1.0
 10
58.9017547900725
 20
111.3137302400782
 30
0.0
 10
58.94505608849032
 20
111.3035795363468
 30
0.0
 10
59.00060545553004
 20
111.2084520511273
 30
0.0
 10
59.11517631818688
 20
110.9058266437483
 30
0.0
 10
59.17206071875209
 20
110.7050229706357
 30
0.0
 10
59.22144273396358
 20
110.4815166050593
 30
0.0
  0
ARC
  5
234
330
1F
100
AcDbEntity
  8
0
  6
Continuous
 62
     7
370
    15
100
AcDbCircle
 10
66.0910986427
 20
141.9823352779
 30
0.0
 40
31.49999999999999
100
AcDbArc
 50
256.293605732
 51
256.8069285058
  0
ARC
  5
235
330
1F
100
AcDbEntity
  8
0
  6
Continuous
 62
     7
370
    15
100
AcDbCircle
 10
66.0910986427
 20
141.9823352779
 30
0.0
 40
31.5
100
AcDbArc
 50
123.2099692334
 51
123.706394268
  0
LINE
  5
236
330
1F
100
AcDbEntity
  8
0
  6
Continuous
 62
     7
370
    15
100
AcDbLine
 10
56.6703014139
 20
142.6117152158
 30
0.0
 11
48.8382715795
 21
168.3374099965
 31
0.0
  0
LINE
  5
237
330
1F
100
AcDbEntity
  8
0
  6
Continuous
 62
     7
370
    15
100
AcDbLine
 10
60.7556615088
 20
119.4424868162
 30
0.0
 11
56.6703014139
 21
142.6117152158
 31
0.0
  0
LWPOLYLINE
  5
238
330
1F
100
AcDbEntity
  8
0
  6
Continuous
 62
     7
370
    15
100
AcDbPolyline
 90
       31
 70
   128
 43
0.0
 10
60.0493250478
 20
116.1466330822
 10
60.1583396148
 20
115.429659986
 10
60.2356305409
 20
114.7440240319
 10
60.2778194536
 20
114.1196877296
 10
60.283062334
 20
113.5839406933
 10
60.2511300769
 20
113.1601926471
 10
60.1834187348
 20
112.8669675971
 10
60.0828871194
 20
112.717080542
 10
59.9539292108
 20
112.717080542
 10
59.8021813732
 20
112.8669675971
 10
59.6342746232
 20
113.1601926471
 10
59.4575487141
 20
113.5839406933
 10
59.2797261726
 20
114.1196877296
 10
59.1085798171
 20
114.7440240319
 10
58.9515886333
 20
115.429659986
 10
58.8156146061
 20
116.1466330822
 10
58.7065995734
 20
116.8636043157
 10
58.629309113
 20
117.5492402698
 10
58.5871202003
 20
118.1735765721
 10
58.5818773199
 20
118.7093236084
 10
58.6138091114
 20
119.1330716546
 10
58.6815209191
 20
119.4262967046
 10
58.7820520688
 20
119.5761837597
 10
58.9110099774
 20
119.5761837597
 10
59.0627582807
 20
119.4262967046
 10
59.2306645651
 20
119.1330716546
 10
59.4073909398
 20
118.7093236084
 10
59.5852130156
 20
118.1735765721
 10
59.7563598368
 20
117.5492402698
 10
59.9133510206
 20
116.8636043157
 10
60.0493250478
 20
116.1466330822
  0
LINE
  5
239
330
1F
100
AcDbEntity
  8
0
  6
Continuous
 62
     7
370
    15
100
AcDbLine
 10
59.403252608
 20
110.8928040202
 30
0.0
 11
62.758529146
 21
109.9566404308
 31
0.0
  0
LINE
  5
23A
330
1F
100
AcDbEntity
  8
0
  6
Continuous
 62
     7
370
    15
100
AcDbLine
 10
98.0911001627
 20
126.0257322873
 30
0.0
 11
98.0911001627
 21
141.9823352779
 31
0.0
  0
LINE
  5
23B
330
1F
100
AcDbEntity
  8
0
  6
Continuous
 62
     7
370
    15
100
AcDbLine
 10
97.134849808
 20
149.7467068556
 30
0.0
 11
56.6703014139
 21
142.6117152158
 31
0.0
  0
ARC
  5
23C
330
1F
100
AcDbEntity
  8
0
  6
Continuous
 62
     7
370
    15
100
AcDbCircle
 10
66.0910986427
 20
141.9823352779
 30
0.0
 40
32.0
100
AcDbArc
 50
0.0
 51
14.0422078982
  0
ARC
  5
23D
330
1F
100
AcDbEntity
  8
0
  6
Continuous
 62
     7
370
    15
100
AcDbCircle
 10
66.0910986427
 20
141.9823352779
 30
0.0
 40
31.49999999999999
100
AcDbArc
 50
48.7351497204
 51
123.2099692334
  0
SPLINE
  5
23E
330
1F
100
AcDbEntity
  8
0
  6
Continuous
 62
     7
370
    15
100
AcDbSpline
210
0.0
220
0.0
230
1.0
 70
     8
 71
     3
 72
    10
 73
     6
 74
     0
 42
0.00000001
 43
0.00000001
 12
1.0
 22
0.0
 32
0.0
 13
1.0
 23
0.0
 33
0.0
 40
0.0
 40
0.0
 40
0.0
 40
0.0
 40
0.5
 40
0.5
 40
1.0
 40
1.0
 40
1.0
 40
1.0
 10
88.99613245641508
 20
164.3286867920897
 30
0.0
 10
88.59589168528922
 20
164.4922554937368
 30
0.0
 10
88.21933957161175
 20
164.6981129672296
 30
0.0
 10
87.50868787826538
 20
165.1467927481748
 30
0.0
 10
87.17382866343581
 20
165.3903578781257
 30
0.0
 10
86.86662941728373
 20
165.6599052764755
 30
0.0
  0
ARC
  5
23F
330
1F
100
AcDbEntity
  8
0
  6
Continuous
 62
     7
370
    15
100
AcDbCircle
 10
66.0910986427
 20
141.9823352779
 30
0.0
 40
32.00000000000007
100
AcDbArc
 50
14.0422078982
 51
44.2926512338
  0
LINE
  5
240
330
1F
100
AcDbEntity
  8
0
  6
Continuous
 62
     7
370
    15
100
AcDbLine
 10
98.0911001627
 20
117.043079489
 30
0.0
 11
98.0911001627
 21
116.4398506816
 31
0.0
  0
SPLINE
  5
241
330
1F
100
AcDbEntity
  8
0
  6
Continuous
 62
     7
370
    15
100
AcDbSpline
210
0.0
220
0.0
230
1.0
 70
     8
 71
     3
 72
    16
 73
    12
 74
     0
 42
0.00000001
 43
0.00000001
 12
1.0
 22
0.0
 32
0.0
 13
1.0
 23
0.0
 33
0.0
 40
0.0
 40
0.0
 40
0.0
 40
0.0
 40
0.0820043478517283
 40
0.1649776566724163
 40
0.2489257876463562
 40
0.3724850969406815
 40
0.4983482969725133
 40
0.622258867743997
 40
0.7486082450642558
 40
0.8729808642539839
 40
1.0
 40
1.0
 40
1.0
 40
1.0
 10
98.09109862935436
 20
116.4398498983206
 30
0.0
 10
98.00150578016355
 20
116.302424727744
 30
0.0
 10
97.82126145530377
 20
116.025950574806
 30
0.0
 10
97.54492283909349
 20
115.6144941836933
 30
0.0
 10
97.21877120481983
 20
115.1392920901385
 30
0.0
 10
96.83882842605776
 20
114.6016047329225
 30
0.0
 10
96.4061380504769
 20
114.009599689582
 30
0.0
 10
95.96317292488024
 20
113.4233469432882
 30
0.0
 10
95.5149900169198
 20
112.8497529641485
 30
0.0
 10
95.05682402744061
 20
112.2808732190228
 30
0.0
 10
94.74638025573483
 20
111.910853431837
 30
0.0
 10
94.58952427774193
 20
111.7238958540546
 30
0.0
  0
SPLINE
  5
242
330
1F
100
AcDbEntity
  8
0
  6
Continuous
 62
     7
370
    15
100
AcDbSpline
210
0.0
220
0.0
230
1.0
 70
     8
 71
     3
 72
     8
 73
     4
 74
     0
 42
0.00000001
 43
0.00000001
 12
1.0
 22
0.0
 32
0.0
 13
1.0
 23
0.0
 33
0.0
 40
0.0
 40
0.0
 40
0.0
 40
0.0
 40
1.0
 40
1.0
 40
1.0
 40
1.0
 10
60.04248946056052
 20
106.7730348625812
 30
0.0
 10
60.53342459623459
 20
104.5597029978231
 30
0.0
 10
61.02532655628612
 20
102.3485085007243
 30
0.0
 10
61.5178166998954
 20
100.1386143064969
 30
0.0
  0
ARC
  5
243
330
1F
100
AcDbEntity
  8
0
  6
Continuous
 62
     7
370
    15
100
AcDbCircle
 10
60.1016538506
 20
106.8664851314
 30
0.0
 40
0.1106057432568012
100
AcDbArc
 50
237.662114306
 51
253.6632627507
  0
LINE
  5
244
330
1F
100
AcDbEntity
  8
0
  6
Continuous
 62
     7
370
    15
100
AcDbLine
 10
60.7891984347
 20
106.5598313297
 30
0.0
 11
60.0705424387
 21
106.76034508
 31
0.0
  0
ELLIPSE
  5
245
330
1F
100
AcDbEntity
  8
0
  6
Continuous
 62
     7
370
    15
100
AcDbEllipse
 10
65.0910986427
 20
134.5397755697
 30
0.0
 11
-33.74159837278042
 21
37.52397137770697
 31
0.0
210
0.0
220
0.0
230
1.0
 40
0.5725048794
 41
2.048300574343286
 42
2.08107421485229
  0
LINE
  5
246
330
1F
100
AcDbEntity
  8
0
  6
Continuous
 62
     7
370
    15
100
AcDbLine
 10
59.310772742
 20
110.4621697749
 30
0.0
 11
59.7293277335
 21
110.5348390128
 31
0.0
  0
SPLINE
  5
247
330
1F
100
AcDbEntity
  8
0
  6
Continuous
 62
     7
370
    15
100
AcDbSpline
210
0.0
220
0.0
230
1.0
 70
     8
 71
     3
 72
     8
 73
     4
 74
     0
 42
0.00000001
 43
0.00000001
 12
1.0
 22
0.0
 32
0.0
 13
1.0
 23
0.0
 33
0.0
 40
0.0
 40
0.0
 40
0.0
 40
0.0
 40
1.0
 40
1.0
 40
1.0
 40
1.0
 10
59.22974314740306
 20
110.4439492329119
 30
0.0
 10
59.25675243128546
 20
110.4500207124023
 30
0.0
 10
59.28376223003252
 20
110.4560937442487
 30
0.0
 10
59.31077255886274
 20
110.4621682802395
 30
0.0
  0
LINE
  5
248
330
1F
100
AcDbEntity
  8
0
  6
Continuous
 62
     7
370
    15
100
AcDbLine
 10
60.6983507115
 20
106.8812754537
 30
0.0
 11
60.0424896058
 21
106.7730334188
 31
0.0
  0
SPLINE
  5
249
330
1F
100
AcDbEntity
  8
0
  6
Continuous
 62
     7
370
    15
100
AcDbSpline
210
0.0
220
0.0
230
1.0
 70
     8
 71
     3
 72
    16
 73
    12
 74
     0
 42
0.00000001
 43
0.00000001
 12
1.0
 22
0.0
 32
0.0
 13
1.0
 23
0.0
 33
0.0
 40
0.0
 40
0.0
 40
0.0
 40
0.0
 40
0.2500000000000008
 40
0.2500000000000008
 40
0.5000000000000016
 40
0.5000000000000016
 40
0.7500000000000023
 40
0.7500000000000023
 40
0.8750000000000011
 40
0.8750000000000011
 40
1.0
 40
1.0
 40
1.0
 40
1.0
 10
51.91012568234108
 20
124.3894413721726
 30
0.0
 10
52.06991817271431
 20
124.1503110846992
 30
0.0
 10
52.20965463045623
 20
123.9019509395686
 30
0.0
 10
52.44607193749541
 20
123.3847904193889
 30
0.0
 10
52.54322662002502
 20
123.1157507869879
 30
0.0
 10
52.6761230014211
 20
122.5499179144128
 30
0.0
 10
52.70953851002734
 20
122.2619704968538
 30
0.0
 10
52.68524057929649
 20
121.8279101589453
 30
0.0
 10
52.66472250379194
 20
121.6860510850453
 30
0.0
 10
52.59558593350463
 20
121.4085143264998
 30
0.0
 10
52.54638916086401
 20
121.2719179786459
 30
0.0
 10
52.48264695073868
 20
121.1425119113647
 30
0.0
  0
SPLINE
  5
24A
330
1F
100
AcDbEntity
  8
0
  6
Continuous
 62
     7
370
    15
100
AcDbSpline
210
0.0
220
0.0
230
1.0
 70
     8
 71
     3
 72
    20
 73
    16
 74
     0
 42
0.00000001
 43
0.00000001
 12
1.0
 22
0.0
 32
0.0
 13
1.0
 23
0.0
 33
0.0
 40
0.0
 40
0.0
 40
0.0
 40
0.0
 40
0.2500000000000017
 40
0.2500000000000017
 40
0.3750000000000014
 40
0.3750000000000014
 40
0.5000000000000011
 40
0.5000000000000011
 40
0.6250000000000009
 40
0.6250000000000009
 40
0.7500000000000006
 40
0.7500000000000006
 40
0.8750000000000003
 40
0.8750000000000003
 40
1.0
 40
1.0
 40
1.0
 40
1.0
 10
48.61057460843688
 20
168.1869394437409
 30
0.0
 10
48.51444964348219
 20
168.1228165610003
 30
0.0
 10
48.34033174947923
 20
168.0063617290014
 30
0.0
 10
47.9716652971115
 20
167.749728524824
 30
0.0
 10
47.83229233935142
 20
167.6514046517976
 30
0.0
 10
47.528125316142
 20
167.4323087832424
 30
0.0
 10
47.36267543828568
 20
167.3110866917966
 30
0.0
 10
47.00682304717036
 20
167.0440572639176
 30
0.0
 10
46.81728026485704
 20
166.8988279794799
 30
0.0
 10
46.42679316357408
 20
166.5918207140795
 30
0.0
 10
46.22457940496933
 20
166.4291023404791
 30
0.0
 10
45.80814020998336
 20
166.0847128297466
 30
0.0
 10
45.59333948809306
 20
165.9024878109725
 30
0.0
 10
45.16231240060745
 20
165.5262885143144
 30
0.0
 10
44.94501496845463
 20
165.3314587448342
 30
0.0
 10
44.72650500219734
 20
165.1297787345016
 30
0.0
  0
SPLINE
  5
24B
330
1F
100
AcDbEntity
  8
0
  6
Continuous
 62
     7
370
    15
100
AcDbSpline
210
0.0
220
0.0
230
1.0
 70
     8
 71
     3
 72
    20
 73
    16
 74
     0
 42
0.00000001
 43
0.00000001
 12
1.0
 22
0.0
 32
0.0
 13
1.0
 23
0.0
 33
0.0
 40
0.0
 40
0.0
 40
0.0
 40
0.0
 40
0.2500000000000003
 40
0.2500000000000003
 40
0.3750000000000003
 40
0.3750000000000003
 40
0.5000000000000002
 40
0.5000000000000002
 40
0.6250000000000001
 40
0.6250000000000001
 40
0.7500000000000001
 40
0.7500000000000001
 40
0.875
 40
0.875
 40
1.0
 40
1.0
 40
1.0
 40
1.0
 10
53.93183958126883
 20
112.9237320927152
 30
0.0
 10
54.48134825275061
 20
112.6937961164235
 30
0.0
 10
55.01297581380256
 20
112.4896711879983
 30
0.0
 10
55.77659729688121
 20
112.2176906114857
 30
0.0
 10
56.02722878863877
 20
112.1321986022942
 30
0.0
 10
56.50088947160883
 20
111.976668745617
 30
0.0
 10
56.72509187699622
 20
111.9061572574987
 30
0.0
 10
57.14682417684755
 20
111.7780554267002
 30
0.0
 10
57.34437375926796
 20
111.720463959994
 30
0.0
 10
57.70981638567022
 20
111.6172210911238
 30
0.0
 10
57.87512146197204
 20
111.5723073243723
 30
0.0
 10
58.16239181685746
 20
111.4961467782133
 30
0.0
 10
58.28575166890367
 20
111.4645100516272
 30
0.0
 10
58.49004791545863
 20
111.4129858284172
 30
0.0
 10
58.57099326972518
 20
111.39309906601
 30
0.0
 10
58.62728167281458
 20
111.3793707770994
 30
0.0
  0
ELLIPSE
  5
24C
330
1F
100
AcDbEntity
  8
0
  6
Continuous
 62
     7
370
    15
100
AcDbEllipse
 10
49.5559962964
 20
123.4440305041
 30
0.0
 11
-2.571047329688633
 21
2.781564288285822
 31
0.0
210
0.0
220
0.0
230
1.0
 40
0.6444261125
 41
4.471495807195531
 42
9.667629015981507
  0
ARC
  5
24D
330
1F
100
AcDbEntity
  8
0
  6
Continuous
 62
     7
370
    15
100
AcDbCircle
 10
66.0910986427
 20
141.9823352779
 30
0.0
 40
31.50000000000001
100
AcDbArc
 50
132.7063463226
 51
247.2936536774
  0
INSERT
  5
259
330
1F
100
AcDbEntity
  8
VERMASSUNG
100
AcDbBlockReference
  2
SW_CENTERMARKSYMBOL_0
 10
66.0910986427
 20
141.9823352779
 30
0.0
  0
OLE2FRAME
  5
25A
330
1F
100
AcDbEntity
  8
0
100
AcDbOle2Frame
 70
     2
  3
Paintbrush-Bild
 10
13.8511154363
 20
38.264191557
 30
0.0
 11
51.6290888628
 21
31.9806341108
 31
0.0
 71
     2
 72
     0
 73
     1
 90
    12928
310
80552BED0767C5B32B40DDAF6807D121434000000000000000006FFBDDFB85D0
310
4940DDAF6807D121434000000000000000006FFBDDFB85D04940416F4BD60AFB
310
3F4000000000000000002BED0767C5B32B40416F4BD60AFB3F40000000000000
310
0000000000000100000000010000010000000100000000000100000000320000
310
D0CF11E0A1B11AE1000000000000000000000000000000003E000300FEFF0900
310
0600000000000000000000000100000001000000000000000010000002000000
310
01000000FEFFFFFF0000000000000000FFFFFFFFFFFFFFFFFFFFFFFFFFFFFFFF
310
FFFFFFFFFFFFFFFFFFFFFFFFFFFFFFFFFFFFFFFFFFFFFFFFFFFFFFFFFFFFFFFF
310
FFFFFFFFFFFFFFFFFFFFFFFFFFFFFFFFFFFFFFFFFFFFFFFFFFFFFFFFFFFFFFFF
310
FFFFFFFFFFFFFFFFFFFFFFFFFFFFFFFFFFFFFFFFFFFFFFFFFFFFFFFFFFFFFFFF
310
FFFFFFFFFFFFFFFFFFFFFFFFFFFFFFFFFFFFFFFFFFFFFFFFFFFFFFFFFFFFFFFF
310
FFFFFFFFFFFFFFFFFFFFFFFFFFFFFFFFFFFFFFFFFFFFFFFFFFFFFFFFFFFFFFFF
310
FFFFFFFFFFFFFFFFFFFFFFFFFFFFFFFFFFFFFFFFFFFFFFFFFFFFFFFFFFFFFFFF
310
FFFFFFFFFFFFFFFFFFFFFFFFFFFFFFFFFFFFFFFFFFFFFFFFFFFFFFFFFFFFFFFF
310
FFFFFFFFFFFFFFFFFFFFFFFFFFFFFFFFFFFFFFFFFFFFFFFFFFFFFFFFFFFFFFFF
310
FFFFFFFFFFFFFFFFFFFFFFFFFFFFFFFFFFFFFFFFFFFFFFFFFFFFFFFFFFFFFFFF
310
FFFFFFFFFFFFFFFFFFFFFFFFFFFFFFFFFFFFFFFFFFFFFFFFFFFFFFFFFFFFFFFF
310
FFFFFFFFFFFFFFFFFFFFFFFFFFFFFFFFFFFFFFFFFFFFFFFFFFFFFFFFFFFFFFFF
310
FFFFFFFFFFFFFFFFFFFFFFFFFFFFFFFFFFFFFFFFFFFFFFFFFFFFFFFFFFFFFFFF
310
FFFFFFFFFFFFFFFFFFFFFFFFFFFFFFFFFFFFFFFFFFFFFFFFFFFFFFFFFFFFFFFF
310
FDFFFFFFFEFFFFFFFEFFFFFFFEFFFFFF05000000060000000700000008000000
310
090000000A0000000B0000000C0000000D0000000E0000000F00000010000000
310
11000000120000001300000014000000150000001600000017000000FEFFFFFF
310
FFFFFFFFFFFFFFFFFFFFFFFFFFFFFFFFFFFFFFFFFFFFFFFFFFFFFFFFFFFFFFFF
310
FFFFFFFFFFFFFFFFFFFFFFFFFFFFFFFFFFFFFFFFFFFFFFFFFFFFFFFFFFFFFFFF
310
FFFFFFFFFFFFFFFFFFFFFFFFFFFFFFFFFFFFFFFFFFFFFFFFFFFFFFFFFFFFFFFF
310
FFFFFFFFFFFFFFFFFFFFFFFFFFFFFFFFFFFFFFFFFFFFFFFFFFFFFFFFFFFFFFFF
310
FFFFFFFFFFFFFFFFFFFFFFFFFFFFFFFFFFFFFFFFFFFFFFFFFFFFFFFFFFFFFFFF
310
FFFFFFFFFFFFFFFFFFFFFFFFFFFFFFFFFFFFFFFFFFFFFFFFFFFFFFFFFFFFFFFF
310
FFFFFFFFFFFFFFFFFFFFFFFFFFFFFFFFFFFFFFFFFFFFFFFFFFFFFFFFFFFFFFFF
310
FFFFFFFFFFFFFFFFFFFFFFFFFFFFFFFFFFFFFFFFFFFFFFFFFFFFFFFFFFFFFFFF
310
FFFFFFFFFFFFFFFFFFFFFFFFFFFFFFFFFFFFFFFFFFFFFFFFFFFFFFFFFFFFFFFF
310
FFFFFFFFFFFFFFFFFFFFFFFFFFFFFFFFFFFFFFFFFFFFFFFFFFFFFFFFFFFFFFFF
310
FFFFFFFFFFFFFFFFFFFFFFFFFFFFFFFFFFFFFFFFFFFFFFFFFFFFFFFFFFFFFFFF
310
FFFFFFFFFFFFFFFFFFFFFFFFFFFFFFFFFFFFFFFFFFFFFFFFFFFFFFFFFFFFFFFF
310
FFFFFFFFFFFFFFFFFFFFFFFFFFFFFFFFFFFFFFFFFFFFFFFFFFFFFFFFFFFFFFFF
310
52006F006F007400200045006E00740072007900000000000000000000000000
310
0000000000000000000000000000000000000000000000000000000000000000
310
16000500FFFFFFFFFFFFFFFF020000000A00030000000000C000000000000046
310
0000000000000000000000006000CA4DC138CD0103000000C000000000000000
310
01004F006C006500000000000000000000000000000000000000000000000000
310
0000000000000000000000000000000000000000000000000000000000000000
310
0A000200FFFFFFFFFFFFFFFFFFFFFFFF00000000000000000000000000000000
310
0000000000000000000000000000000000000000000000001400000000000000
310
010043006F006D0070004F0062006A0000000000000000000000000000000000
310
0000000000000000000000000000000000000000000000000000000000000000
310
120002010100000003000000FFFFFFFF00000000000000000000000000000000
310
0000000000000000000000000000000000000000010000004D00000000000000
310
01004F006C006500310030004E00610074006900760065000000000000000000
310
0000000000000000000000000000000000000000000000000000000000000000
310
1A000200FFFFFFFFFFFFFFFFFFFFFFFF00000000000000000000000000000000
310
0000000000000000000000000000000000000000040000002426000000000000
310
FEFFFFFF02000000FEFFFFFFFFFFFFFFFFFFFFFFFFFFFFFFFFFFFFFFFFFFFFFF
310
FFFFFFFFFFFFFFFFFFFFFFFFFFFFFFFFFFFFFFFFFFFFFFFFFFFFFFFFFFFFFFFF
310
FFFFFFFFFFFFFFFFFFFFFFFFFFFFFFFFFFFFFFFFFFFFFFFFFFFFFFFFFFFFFFFF
310
FFFFFFFFFFFFFFFFFFFFFFFFFFFFFFFFFFFFFFFFFFFFFFFFFFFFFFFFFFFFFFFF
310
FFFFFFFFFFFFFFFFFFFFFFFFFFFFFFFFFFFFFFFFFFFFFFFFFFFFFFFFFFFFFFFF
310
FFFFFFFFFFFFFFFFFFFFFFFFFFFFFFFFFFFFFFFFFFFFFFFFFFFFFFFFFFFFFFFF
310
FFFFFFFFFFFFFFFFFFFFFFFFFFFFFFFFFFFFFFFFFFFFFFFFFFFFFFFFFFFFFFFF
310
FFFFFFFFFFFFFFFFFFFFFFFFFFFFFFFFFFFFFFFFFFFFFFFFFFFFFFFFFFFFFFFF
310
FFFFFFFFFFFFFFFFFFFFFFFFFFFFFFFFFFFFFFFFFFFFFFFFFFFFFFFFFFFFFFFF
310
FFFFFFFFFFFFFFFFFFFFFFFFFFFFFFFFFFFFFFFFFFFFFFFFFFFFFFFFFFFFFFFF
310
FFFFFFFFFFFFFFFFFFFFFFFFFFFFFFFFFFFFFFFFFFFFFFFFFFFFFFFFFFFFFFFF
310
FFFFFFFFFFFFFFFFFFFFFFFFFFFFFFFFFFFFFFFFFFFFFFFFFFFFFFFFFFFFFFFF
310
FFFFFFFFFFFFFFFFFFFFFFFFFFFFFFFFFFFFFFFFFFFFFFFFFFFFFFFFFFFFFFFF
310
FFFFFFFFFFFFFFFFFFFFFFFFFFFFFFFFFFFFFFFFFFFFFFFFFFFFFFFFFFFFFFFF
310
FFFFFFFFFFFFFFFFFFFFFFFFFFFFFFFFFFFFFFFFFFFFFFFFFFFFFFFFFFFFFFFF
310
FFFFFFFFFFFFFFFFFFFFFFFFFFFFFFFFFFFFFFFFFFFFFFFFFFFFFFFFFFFFFFFF
310
0100000200000000000000000000000000000000000000000000000000000000
310
0000000000000000000000000000000000000000000000000000000000000000
310
0100FEFF030A0000FFFFFFFF0A00030000000000C00000000000004607000000
310
5042727573680007000000504272757368000700000050427275736800F439B2
310
7100000000000000000000000000000000000000000000000000000000000000
310
0000000000000000000000000000000000000000000000000000000000000000
310
0000000000000000000000000000000000000000000000000000000000000000
310
0000000000000000000000000000000000000000000000000000000000000000
310
0000000000000000000000000000000000000000000000000000000000000000
310
0000000000000000000000000000000000000000000000000000000000000000
310
0000000000000000000000000000000000000000000000000000000000000000
310
0000000000000000000000000000000000000000000000000000000000000000
310
0000000000000000000000000000000000000000000000000000000000000000
310
0000000000000000000000000000000000000000000000000000000000000000
310
0000000000000000000000000000000000000000000000000000000000000000
310
0000000000000000000000000000000000000000000000000000000000000000
310
20260000424D0E260000000000003E00000028000000B40200006E0000000100
310
01000000000000000000130B0000130B00000200000002000000000000FFFFFF
310
FFFFFFFFFFFFFFFFFFFFFFFFFFFFFFFFFFFFFFFFFFFFFFFFFFFFFFFFFFFFFFFF
310
FFFFFFFFFFFFFFFFFFFFFFFFFFFFFFFFFFFFFFFFFFFFFFFFFFFFFFFFFFFFFFFF
310
FFFFFFFFFFFFFFFFFFFFFFFFFFFFFFFFFFFFFFFFFFFFFFFFF000FFFFFFFFFFFF
310
FFFFFFFFFFFFFFFFFFFFFFFFFFFFFFFFFFFFFFFFFFFFFFFFFFFFFFFFFFFFFFFF
310
FFFFFFFFFFFFFFFFFFFFFFFFFFFFFFFFFFFFFFFFFFFFFFFFFFFFFFFFFFFFFFFF
310
FFFFFFFFFFFFFFFFFFFFFFFFFFFFFFFFF000FFFFFFFFFFFFFFFFFFFFFFFFFFFF
310
FFFFFFFFFFFFFFFFFFFFFFFFFFFFFFFFFFFFFFFFFFFFFFFFFFFFFFFFFFFFFFFF
310
FFFFFFFFFFFFFFFFFFFFFFFFFFFFFFFFFFFFFFFFFFFFFFFFFFFFFFFFFFFFFFFF
310
FFFFFFFFFFFFFFFFF000FFFFFFFFFFFFFFFFFFFFFFFFFFFFFFFFFFFFFFFFFFFF
310
FFFFFFFFFFFFFFFFFFFFFFFFFFFFFFFFFFFFFFFFFFFFFFFFFFFFFFFFFFFFFFFF
310
FFFFFFFFFFFFFFFFFFFFFFFFFFFFFFFFFFFFFFFFFFFFFFFFFFFFFFFFFFFFFFFF
310
F000FFFFFFFFFFFFFFFFFFFFFFFFFFFFFFFFFFFFFFFFFFFFFFFFFFFFFFFFFFFF
310
FFFFFFFFFFFFFFFFFFFFFFFFFFFFFFFFFFFFFFFFFFFFFFFFFFFFFFFFFFFFFFFF
310
FFFFFFFFFFFFFFFFFFFFFFFFFFFFFFFFFFFFFFFFFFFFFFFFF000FFFFFFFFFFFF
310
FFFFFFFFFFFFFFFFFFFFFFFFFFFFFFFFFFFFFFFFFFFFFFFFFFFFFFFFFFFFFFFF
310
FFFFFFFFFFFFFFFFFFFFFFFFFFFFFFFFFFFFFFFFFFFFFFFFFFFFFFFFFFFFFFFF
310
FFFFFFFFFFFFFFFFFFFFFFFFFFFFFFFFF000FFFFFFFFFFFFFFFFFFFFFFFFFFFF
310
FFFFFFFFFFFFFFFFFFFFFFFFFFFFFFFFFFFFFFFFFFFFFFFFFFFFFFFFFFFFFFFF
310
FFFFFFFFFFFFFFFFFFFFFFFFFFFFFFFFFFFFFFFFFFFFFFFFFFFFFFFFFFFFFFFF
310
FFFFFFFFFFFFFFFFF000FFFFFFFFFFFFFFFFFFFFFFFFFFFFFFFFFFFFFFFFFFFF
310
FFFFFFFFFFFFFFFFFFFFFFFFFFFFFFFFFFFFFFFFFFFFFFFFFFFFFFFFFFFFFFFF
310
FFFFFFFFFFFFFFFFFFFFFFFFFFFFFFFFFFFFFFFFFFFFFFFFFFFFFFFFFFFFFFFF
310
F000FFFFFFFFFFFFFFFFFFFFFFFFFFFFFFFFFFFFFFFFFFFFFFFFFFFFFFFFFFFF
310
FFFFFFFFFFFFFFFFFFFFFFFFFFFFFFFFFFFFFFFFFFFFFFFFFFFFFFFFFFFFFFFF
310
FFFFFFFFFFFFFFFFFFFFFFFFFFFFFFFFFFFFFFFFFFFFFFFFF000FFFFFFFFFFFF
310
FFFFFFFFFFFFFFFFFFFFFFFFFFFFFFFFFFFFFFFFFFFFFFFFFFFFFFFFFFFFFFFF
310
FFFFFFFFFFFFFFFFFFFFFFFFFFFFFFFFFFFFFFFFFFFFFFFFFFFFFFFFFFFFFFFF
310
FFFFFFFFFFFFFFFFFFFFFFFFFFFFFFFFF000FFFFFFFFFFFFFFFFFFFFFFFFFFFF
310
FFFFFFFFFFFFFFFFFFFFFFFFFFFFFFFFFFFFFFFFFFFFFFFFFFFFFFFFFFFFFFFF
310
FFFFFFFFFFFFFFFFFFFFFFFFFFFFFFFFFFFFFFFFFFFFFFFFFFFFFFFFFFFFFFFF
310
FFFFFFFFFFFFFFFFF000FFFFFFFFFFFFFFFFFFFFFFFFFFFFFFFFFFFFFFFFFFFF
310
FFFFFFFFFFFFFFFFFFFFFFFFFFFFFFFFFFFFFFFFFFFFFFFFFFFFFFFFFFFFFFFF
310
FFFFFFFFFFFFFFFFFFFFFFFFFFFFFFFFFFFFFFFFFFFFFFFFFFFFFFFFFFFFFFFF
310
F000FFFFFFFFFFFFFFFFFFFFFFFFFFFFFFFFFFFFFFFFFFFFFFFFFFFFFFFFFFFF
310
FFFFFFFFFFFFFFFFFFFFFFFFFFFFFFFFFFFFFFFFFFFFFFFFFFFFFFFFFFFFFFFF
310
FFFFFFFFFFFFFFFFFFFFFFFFFFFFFFFFFFFFFFFFFFFFFFFFF000FFFFFFFFFFFF
310
FFFFFFFFFFFFFFFFFFFFFFFFFFFFFFFFFFFFFFFFFFFFFFFFFFFFFFFFFFFFFFFF
310
FFFFFFFFFFFFFFFFFFFFFFFFFFFFFFFFFFFFFFFFFFFFFFFFFFFFFFFFFFFFFFFF
310
FFFFFFFFFFFFFFFFFFFFFFFFFFFFFFFFF000FFFFFFFFFFFFFFFFFFFFFFFFFFFF
310
FFFFFFFFFFFFFFFFFFFFFFFFFFFFFFFFFFFFFFFFFFFFFFFFFFFFFFFFFFFFFFFF
310
FFFFFFFFFFFFFFFFFFFFFFFFFFFFFFFFFFFFFFFFFFFFFFFFFFFFFFFFFFFFFFFF
310
FFFFFFFFFFFFFFFFF000FFFFFFFFFFFFFFFFFFFFFFFFFFFFFFFFFFFFFFFFFFFF
310
FFFFFFFFFFFFFFFFFFFFFFFFFFFFFFFFFFFFFFFFFFFFFFFFFFFFFFFFFFFFFFFF
310
FFFFFFFFFFFFFFFFFFFFFFFFFFFFFFFFFFFFFFFFFFFFFFFFFFFFFFFFFFFFFFFF
310
F000FFFFFFFFFFFFFFFFFFFFFFFFFFFFFFFFFFFFFFFFFFFFFFFFFFFFFFFFFFFF
310
FFFFFFFFFFFFFFFFFFFFFFFFFFFFFFFFFFFFFFFFFFFFFFFFFFFFFFFFFFFFFFFF
310
FFFFFFFFFFFFFFFFFFFFFFFFFFFFFFFFFFFFFFFFFFFFFFFFF000FFFFFFFFFFFF
310
FFFFFFFFFFFFFFFFFFFFFFFFFFFFFFFFFFFFFFFFFFFFFFFFFFFFFFFFFFFFFFFF
310
FFFFFFFFFFFFFFFFFFFFFFFFFFFFFFFFFFFFFFFFFFFFFFFFFFFFFFFFFFFFFFFF
310
FFFFFFFFFFFFFFFFFFFFFFFFFFFFFFFFF000FFFFFFFFFFFFFFFFFFFFFFFFFFFF
310
FFFFFFFFFFFFFFFFFFFFFFFFFFFFFFFFFFFFFFFFFFFFFFFFFFFFFFFFFFFFFFFF
310
FFFFFFFFFFFFFFFFFFFFFFFFFFFFFFFFFFFFFFFFFFFFFFFFFFFFFFFFFFFFFFFF
310
FFFFFFFFFFFFFFFFF000FFFFF80003FFFFFFFFFFFFFFFFFFFFFFFFFFFFFFFFFF
310
FFFFF00007FFFFFFFFFF00007FFFFFF800000000000000007FFFFFFFFFFFFFFF
310
FFFFFFFC001FFFFFFFFFFFFFFC001FFFFFFFFFFFFFFFFFFFFFFFFFFE0007FFFF
310
F000FFFF8000007FFFFFFFF8000FFFFFC0007FFFFF80007FFFFF0000007FFFFF
310
FFF8000007FFFFF800000000000000007FFFFFF0001FFFFFFFFFFFC00001FFFF
310
FFFFFFFFC00001FFFFFFFF000000000003FFFFE000007FFFF000FFFE0000000F
310
FFFFFFF0000FFFFF80007FFFFF80007FFFFC0000001FFFFFFFC0000001FFFFF8
310
00000000000000007FFFFFF0001FFFFFFFFFFE0000003FFFFFFFFFFE0000003F
310
FFFFFF000000000003FFFF0000000FFFF000FFF800000003FFFFFFF00007FFFF
310
80007FFFFF80007FFFF000000007FFFFFF000000003FFFF80000000000000000
310
7FFFFFF0001FFFFFFFFFF80000000FFFFFFFFFF80000000FFFFFFF0000000000
310
03FFFC00000003FFF000FFE000000000FFFFFFF00007FFFF80003FFFFF80007F
310
FFC000000001FFFFFC000000001FFFF800000000000000007FFFFFF0001FFFFF
310
FFFFE000000003FFFFFFFFE000000003FFFFFF000000000003FFF000000000FF
310
F000FF80000000007FFFFFF00007FFFF80003FFFFF80007FFF8000000000FFFF
310
F80000000007FFF800000000000000007FFFFFF0001FFFFFFFFFC000000001FF
310
FFFFFFC000000001FFFFFF000000000003FFC0000000007FF000FF0000000000
310
3FFFFFE00007FFFF00003FFFFF80007FFE00000000003FFFF00000000003FFF8
310
00000000000000007FFFFFF0001FFFFFFFFF8000000000FFFFFFFF8000000000
310
FFFFFF000000000003FF80000000003FF000FE00000000001FFFFFE00003FFFF
310
00003FFFFF80007FFC00000000001FFFE00000000001FFF8000001FFFE000000
310
7FFFFFF0001FFFFFFFFE00000000003FFFFFFE00000000003FFFFF0000000000
310
03FF00000000001FF000FC00000000000FFFFFE00003FFFF00001FFFFF80007F
310
F800000000001FFFC00000000000FFF8000001FFFE0000007FFFFFF0001FFFFF
310
FFFC00000000001FFFFFFC00000000001FFFFF000000000003FE00000000000F
310
F000F8000000000007FFFFE00003FFFF00001FFFFF80007FF800000000000FFF
310
800000000000FFF8000001FFFE0000007FFFFFF0001FFFFFFFF800000000000F
310
FFFFF800000000000FFFFF000000000003FC000000000007F000F80000000000
310
03FFFFC00003FFFE00001FFFFF80007FF0000000000007FF0000000000007FF8
310
000001FFFE0000007FFFFFF0001FFFFFFFF0000000000007FFFFF00000000000
310
07FFFF000000000003F8000000000003F000F0000000000003FFFFC00001FFFE
310
00001FFFFF80007FE0000000000007FE0000000000003FF8000001FFFE000000
310
7FFFFFF0001FFFFFFFF0000000000007FFFFF0000000000007FFFF0000000000
310
03F800001F800003F000E00001FFF00001FFFFC00001FFFE00000FFFFF80007F
310
E00001FFE00003FE00001FFF00003FF8000001FFFE0000007FFFFFF0001FFFFF
310
FFE000003E000003FFFFE000003E000003FFFF000000000003F00001FFF80001
310
F000E00007FFFC0001FFFFC00001FFFE00000FFFFF80007FC0000FFFFC0003FC
310
0000FFFFC0001FF8000001FFFE0000007FFFFFF0001FFFFFFFC00003FFE00001
310
FFFFC00003FFE00001FFFF0001FFFFFFFFF00007FFFE0001F000E0000FFFFF00
310
00FFFF800001FFFC00000FFFFF80007FC0001FFFFE0001FC0001FFFFE0001FF8
310
000001FFFE0000007FFFFFF0001FFFFFFF80000FFFF80000FFFF80000FFFF800
310
00FFFF0003FFFFFFFFE0000FFFFF8000F000C0003FFFFF8000FFFF800000FFFC
310
000007FFFF80007F80003FFFFF0001FC0003FFFFF0001FF8000001FFFE000000
310
7FFFFFF0001FFFFFFF80003FFFFE0000FFFF80003FFFFE0000FFFF0003FFFFFF
310
FFE0003FFFFF8000F000C0003FFFFF8000FFFF800000FFFC000007FFFF80007F
310
80007FFFFF8001F80007FFFFF8000FF8000001FFFE0000007FFFFFF0001FFFFF
310
FF00007FFFFF00007FFF00007FFFFF00007FFF0003FFFFFFFFE0003FFFFFC000
310
F000C0007FFFFFC000FFFF000000FFFC000007FFFF80007F8000FFFFFF8000F8
310
000FFFFFF8000FF8000001FFFE0000007FFFFFF0001FFFFFFF0000FFFFFF8000
310
7FFF0000FFFFFF80007FFF0003FFFFFFFFC0007FFFFFC00070008000FFFFFFC0
310
00FFFF000000FFF8000007FFFF80007F8000FFFFFF8000F8000FFFFFF8000FF8
310
000001FFFE0000007FFFFFF0001FFFFFFE0001FFFFFFC0003FFE0001FFFFFFC0
310
003FFF0003FFFFFFFFC0007FFFFFE00070008000FFFFFFC0007FFF0000007FF8
310
000003FFFF80007F0001FFFFFF8000F8000FFFFFF8000FF8000001FFFE000000
310
7FFFFFF0001FFFFFFE0001FFFFFFC0003FFE0001FFFFFFC0003FFF0003FFFFFF
310
FFC000FFFFFFE00070008000FFFFFFC0007FFF0000007FF8000003FFFF80007F
310
0001FFFFFF8000F8001FFFFFF8000FF8000001FFFE0000007FFFFFF0001FFFFF
310
FE0003FFFFFFE0003FFE0003FFFFFFE0003FFF0003FFFFFFFFC000FFFFFFE000
310
70008000FFFFFFC0007FFE0000007FF8000003FFFF80007F0001FFFFFF8000F0
310
001FFFFFF8000FF8000001FFFE0000007FFFFFF0001FFFFFFC0003FFFFFFE000
310
1FFC0003FFFFFFE0001FFF0003FFFFFFFFC000FFFFFFC00070008000FFFFFF80
310
007FFE0000007FF0000003FFFF80007F0001FFFFFF0000F0001FFFFFF8000FF8
310
000001FFFE0000007FFFFFF0001FFFFFFC0007FFFFFFF0001FFC0007FFFFFFF0
310
001FFF0003FFFFFFFFC000FFFFFFC00070008001FFFFFF0000FFFE0000003FF0
310
000001FFFF80007F0001FFFFFF0000F8001FFFFFF0000FF8000001FFFE000000
310
7FFFFFF0001FFFFFFC0007FFFFFFF0001FFC0007FFFFFFF0001FFF0003FFFFFF
310
FFC001FFFFFF80007000FFFFFFFFFE0000FFFE0008003FF0008001FFFF80007F
310
FFFFFFFFFC0000FFFFFFFFFFE0000FF8000001FFFE0000007FFFFFF0001FFFFF
310
F8000FFFFFFFF8000FF8000FFFFFFFF8000FFF0003FFFFFFFFFFFFFFFFFF0000
310
7000FFFFFFFFFC0000FFFC0008003FF0008001FFFF80007FFFFFFFFFF80001FF
310
FFFFFFFF80000FF8000001FFFE0000007FFFFFF0001FFFFFF8000FFFFFFFF800
310
0FF8000FFFFFFFF8000FFF0003FFFFFFFFFFFFFFFFFE0000F000FFFFFFFFE000
310
00FFFC000C003FE000C001FFFF80007FFFFFFFFFC00001FFFFFFFFFE00001FF8
310
000001FFFE0000007FFFFFF0001FFFFFF8000FFFFFFFF8000FF8000FFFFFFFF8
310
000FFF0003FFFFFFFFFFFFFFFFF00000F000FFFFFFFE000001FFFC000C001FE0
310
00C000FFFF80007FFFFFFFFE000001FFFFFFFFE000001FF80FFFFFFFFFFFFFC0
310
7FFFFFF0001FFFFFF8000FFFFFFFF8000FF8000FFFFFFFF8000FFF0003FFFFFF
310
FFFFFFFFFF800000F000FFFFFFC0000001FFFC001C001FE001C000FFFF80007F
310
FFFFFF80000003FFFFFFF80000001FF80FFFFFFFFFFFFFC07FFFFFF0001FFFFF
310
F8001FFFFFFFFC000FF8001FFFFFFFFC000FFF0003FFFFFFFFFFFFFFF0000001
310
F000FFFFF800000001FFF8001C001FE001C000FFFF80007FFFFFF800000003FF
310
FFFF800000003FF80FFFFFFFFFFFFFC07FFFFFF0001FFFFFF8001FFFFFFFFC00
310
0FF8001FFFFFFFFC000FFF0003FFFFFFFFFFFFFE00000001F000FFFFC0000000
310
03FFF8001E001FC001E000FFFF80007FFFFF8000000007FFFFFC000000003FF8
310
0FFFFFFFFFFFFFC07FFFFFF0001FFFFFF8001FFFFFFFFC000FF8001FFFFFFFFC
310
000FFF0003FFFFFFFFFFFFE000000003F000FFFE0000000007FFF8001E000FC0
310
01E0007FFF80007FFFFE0000000007FFFFE0000000007FF80FFFFFFFFFFFFFC0
310
7FFFFFF0001FFFFFF0001FFFFFFFFC0007F0001FFFFFFFFC0007FF0003FFFFFF
310
FFFFFF0000000003F000FFF80000000007FFF8001E000FC003E0007FFF80007F
310
FFF0000000000FFFFF8000000000FFF80FFFFFFFFFFFFFC07FFFFFF0001FFFFF
310
F0001FFFFFFFFC0007F0001FFFFFFFFC0007FF0003FFFFFFFFFFFC0000000007
310
F000FFE0000000000FFFF0003E000FC003E0007FFF80007FFFC0000000001FFF
310
FE0000000001FFF80FFFFFFFFFFFFFC07FFFFFF0001FFFFFF0001FFFFFFFFC00
310
07F0001FFFFFFFFC0007FF0003FFFFFFFFFFF0000000000FF000FFC000000000
310
1FFFF0003F000F8003F0003FFF80007FFF80000000003FFFF80000000003FFF8
310
0FFFFFFFFFFFFFC07FFFFFF0001FFFFFF0001FFFFFFFFC0007F0001FFFFFFFFC
310
0007FF0003FFFFFFFFFFE0000000001FF000FF00000000007FFFF0003F000780
310
03F0003FFF80007FFF00000000007FFFF00000000007FFF80FFFFFFFFFFFFFC0
310
7FFFFFF0001FFFFFF0001FFFFFFFFC0007F0001FFFFFFFFC0007FF0003FFFFFF
310
FFFF80000000007FF000FE0000000000FFFFE0003F00078007F0003FFF80007F
310
FE0000000001FFFFE0000000001FFFF80FFFFFFFFFFFFFC07FFFFFF0001FFFFF
310
F0001FFFFFFFFC0007F0001FFFFFFFFC0007FF0003FFFFFFFFFF0000000000FF
310
F000FC0000000003FFFFE0007F00078007F0003FFF80007FFC0000000007FFFF
310
C0000000007FFFF80FFFFFFFFFFFFFC07FFFFFF0001FFFFFF8001FFFFFFFFC00
310
0FF8001FFFFFFFFC000FFF0003FFFFFFFFFE0000000003FFF000FC000000000F
310
FFFFE0007F80070007F8001FFF80007FF8000000001FFFFF8000000001FFFFF8
310
0FFFFFFFFFFFFFC07FFFFFF0001FFFFFF8001FFFFFFFFC000FF8001FFFFFFFFC
310
000FFF0003FFFFFFFFFC000000000FFFF000F8000000007FFFFFE0007F800700
310
07F8001FFF80007FF000000000FFFFFF800000000FFFFFF80FFFFFFFFFFFFFC0
310
7FFFFFF0001FFFFFF8000FFFFFFFF8000FF8000FFFFFFFF8000FFF0003FFFFFF
310
FFFC000000007FFFF000F800000007FFFFFFC0007F8003000FF8001FFF80007F
310
F000000007FFFFFF000000007FFFFFF80FFFFFFFFFFFFFC07FFFFFF0001FFFFF
310
F8000FFFFFFFF8000FF8000FFFFFFFF8000FFF0003FFFFFFFFF80000000FFFFF
310
F000F0000000FFFFFFFFC000FF8003000FF8001FFF80007FE0000000FFFFFFFF
310
0000000FFFFFFFF8000001FFFE0000007FFFFFF0001FFFFFF8000FFFFFFFF800
310
0FF8000FFFFFFFF8000FFF0003FFFFFFFFF8000000FFFFFFF000F000000FFFFF
310
FFFFC000FFC002000FF8000FFF80007FE000001FFFFFFFFE000001FFFFFFFFF8
310
000001FFFE0000007FFFFFF0001FFFFFF8000FFFFFFFF8000FF8000FFFFFFFF8
310
000FFF0003FFFFFFFFF000001FFFFFFFF000E00000FFFFFFFFFFC000FFC00200
310
0FFC000FFF80007FE00001FFFFFFFFFE00001FFFFFFFFFF8000001FFFE000000
310
7FFFFFF0001FFFFFFC000FFFFFFFF8001FFC000FFFFFFFF8001FFF0003FFFFFF
310
FFF00001FFFFFFFFF000E00007FFFFFFFFFF8000FFC000001FFC000FFF80007F
310
C0000FFFFFFFFFFE0000FFFFFFFFFFF8000001FFFE0000007FFFFFF0001FFFFF
310
FC0007FFFFFFF0001FFC0007FFFFFFF0001FFF0003FFFFFFFFF00007FFFFFFFF
310
F000E0001FFFFFFFFFFF8000FFC000001FFC000FFF80007FC0003FFFFFFFFFFE
310
0001FFFFFFFFFFF8000001FFFE0000007FFFFFF0001FFFFFFC0007FFFFFFF000
310
1FFC0007FFFFFFF0001FFF0003FFFFFFFFF0001FFFFFFFFFF000E0003FFFFF00
310
03FF8001FFE000001FFC0007FF80007FC0007FFFFF0007FC0003FFFFF0003FF8
310
000001FFFE0000007FFFFFF0001FFFFFFC0003FFFFFFE0001FFC0003FFFFFFE0
310
001FFF0003FFFFFFFFF0003FFFFFFFFFF000E0003FFFFF0001FF8001FFE00000
310
1FFE0007FF80007FC0007FFFFE0003FC0007FFFFE0003FF8000001FFFE000000
310
7FFFFFF0001FFFFFFE0003FFFFFFE0003FFE0003FFFFFFE0003FFF0003FFFFFF
310
FFF0003FFFFF8001F000E0003FFFFF0001FF0001FFE000001FFE0007FF80007F
310
C0007FFFFE0003FC0007FFFFE0003FF8000001FFFE0000007FFFFFF0001FFFFF
310
FE0001FFFFFFC0003FFE0001FFFFFFC0003FFF0003FFFFFFFFF0003FFFFF0001
310
F000E0003FFFFF0003FF0001FFE000003FFE0007FF80007FC0007FFFFE0003FC
310
0007FFFFE0003FF8000001FFFE0000007FFFFFF0001FFFFFFF0001FFFFFFC000
310
7FFF0001FFFFFFC0007FFF0003FFFFFFFFF0003FFFFF0001F000E0003FFFFE00
310
03FF0003FFF000003FFE0003FF80007FC0007FFFFC0003FE0007FFFFE0003FF8
310
000001FFFE0000007FFFFFF0001FFFFFFF0000FFFFFF80007FFF0000FFFFFF80
310
007FFF0003FFFFFFFFF0003FFFFF0001F000E0003FFFFE0003FF0003FFF00000
310
3FFF0003FF80007FC0007FFFFC0007FE0007FFFFC0003FF8000001FFFE000000
310
7FFFFFF0001FFFFFFF80007FFFFF0000FFFF80007FFFFF0000FFFF0003FFFFFF
310
FFF0003FFFFF0003F000E0003FFFFC0003FE0003FFF000003FFF0003FF80007F
310
E0003FFFF80007FE0003FFFFC0007FF8000001FFFE0000007FFFFFF0001FFFFF
310
FF80003FFFFE0000FFFF80003FFFFE0000FFFF0003FFFFFFFFF0001FFFFE0003
310
F000F0001FFFF80003FE0003FFF000007FFF0001FF80007FE0003FFFF00007FE
310
0001FFFF80007FF8000001FFFE0000007FFFFFF0001FFFFFFFC0000FFFF80001
310
FFFFC0000FFFF80001FFFF0003FFFFFFFFF0001FFFFC0003F000F0000FFFF000
310
07FE0007FFF800007FFF0001FF80007FE0001FFFE00007FF0000FFFE00007FF8
310
000001FFFE0000007FFFFFF0001FFFFFFFC00003FFE00001FFFFC00003FFE000
310
01FFFF0003FFFFFFFFF8000FFFF80003F000F00003FFC00007FC0007FFF80000
310
7FFF8001FF80007FF00007FF80000FFF00007FF80000FFF8000001FFFE000000
310
7F80000000000001FFE000003E000003FFFFE000003E000003FFFF0003FFFFFF
310
FFF80003FFE00007F000F800000000000FFC0007FFF800007FFF8001FF80007F
310
F000000000000FFF000000000000FFF8000001FFFE0000007F80000000000001
310
FFF0000000000007FFFFF0000000000007FFFF0003FFFFFFFFFC00007E000007
310
F000F800000000000FFC0007FFF80000FFFF8000FF80007FF800000000001FFF
310
800000000001FFF8000001FFFE0000007F80000000000001FFF800000000000F
310
FFFFF800000000000FFFFF0003FFFFFFFFFC00000000000FF000FC0000000000
310
1FFC0007FFFC0000FFFF8000FF80007FF800000000003FFFC00000000001FFF8
310
000001FFFE0000007F80000000000001FFF800000000000FFFFFF80000000000
310
0FFFFF0003FFFFFFFFFE00000000001FF000FE00000000003FF8000FFFFC0000
310
FFFF8000FF80007FFC00000000003FFFC00000000003FFF8000001FFFE000000
310
7F80000000000001FFFC00000000001FFFFFFC00000000001FFFFF0003FFFFFF
310
FFFF00000000001FF000FF00000000003FF8000FFFFC0000FFFFC000FF80007F
310
FE00000000007FFFE00000000007FFF8000001FFFE0000007F80000000000001
310
FFFE00000000003FFFFFFE00000000003FFFFF0003FFFFFFFFFF80000000003F
310
F000FF80000000007FF8000FFFFC0001FFFFC0007F80007FFF0000000000FFFF
310
F0000000000FFFF800000000000000007F80000000000001FFFF8000000000FF
310
FFFFFF8000000000FFFFFF0003FFFFFFFFFFC0000000007FF000FFC000000000
310
FFF8000FFFFE0001FFFFC0007F80007FFF8000000001FFFFF8000000001FFFF8
310
00000000000000007F80000000000001FFFFC000000001FFFFFFFFC000000001
310
FFFFFF0003FFFFFFFFFFE000000000FFF000FFE000000003FFF0001FFFFE0001
310
FFFFC0007F80007FFFC000000007FFFFFE000000003FFFF80000000000000000
310
7F80000000000001FFFFE000000003FFFFFFFFE000000003FFFFFF0003FFFFFF
310
FFFFF000000003FFF000FFF80000000FFFF0001FFFFE0001FFFFE0007F80007F
310
FFF00000000FFFFFFF00000000FFFFF800000000000000007F80000000000001
310
FFFFF80000000FFFFFFFFFF80000000FFFFFFF0003FFFFFFFFFFFC0000000FFF
310
F000FFFE0000003FFFF0001FFFFE0003FFFFE0003F80007FFFFC0000003FFFFF
310
FFC0000003FFFFF800000000000000007F80000000000001FFFFFE0000003FFF
310
FFFFFFFE0000003FFFFFFF0003FFFFFFFFFFFF0000003FFFF000FFFF800000FF
310
FFF0001FFFFF0003FFFFE0003F80007FFFFF000001FFFFFFFFF800001FFFFFF8
310
00000000000000007F80000000000001FFFFFFC00001FFFFFFFFFFFFC00001FF
310
FFFFFF0003FFFFFFFFFFFFC00000FFFFF000FFFFF8000FFFFFFFFFFFFFFFFFFF
310
FFFFFFFFFFFFFFFFFFFFF0001FFFFFFFFFFF0000FFFFFFF80000000000000000
310
7FFFFFFFFFFFFFFFFFFFFFFC001FFFFFFFFFFFFFFC001FFFFFFFFFFFFFFFFFFF
310
FFFFFFFC001FFFFFF000FFFFFFFFFFFFFFFFFFFFFFFFFFFFFFFFFFFFFFFFFFFF
310
FFFFFFFFFFFFFFFFFFFFFFFFFFFFFFFFFFFFFFFFFFFFFFFFFFFFFFFFFFFFFFFF
310
FFFFFFFFFFFFFFFFFFFFFFFFFFFFFFFFFFFFFFFFFFFFFFFFFFFFFFFFFFFFFFFF
310
F000FFFFFFFFFFFFFFFFFFFFFFFFFFFFFFFFFFFFFFFFFFFFFFFFFFFFFFFFFFFF
310
FFFFFFFFFFFFFFFFFFFFFFFFFFFFFFFFFFFFFFFFFFFFFFFFFFFFFFFFFFFFFFFF
310
FFFFFFFFFFFFFFFFFFFFFFFFFFFFFFFFFFFFFFFFFFFFFFFFF000FFFFFFFFFFFF
310
FFFFFFFFFFFFFFFFFFFFFFFFFFFFFFFFFFFFFFFFFFFFFFFFFFFFFFFFFFFFFFFF
310
FFFFFFFFFFFFFFFFFFFFFFFFFFFFFFFFFFFFFFFFFFFFFFFFFFFFFFFFFFFFFFFF
310
FFFFFFFFFFFFFFFFFFFFFFFFFFFFFFFFF000FFFFFFFFFFFFFFFFFFFFFFFFFFFF
310
FFFFFFFFFFFFFFFFFFFFFFFFFFFFFFFFFFFFFFFFFFFFFFFFFFFFFFFFFFFFFFFF
310
FFFFFFFFFFFFFFFFFFFFFFFFFFFFFFFFFFFFFFFFFFFFFFFFFFFFFFFFFFFFFFFF
310
FFFFFFFFFFFFFFFFF000FFFFFFFFFFFFFFFFFFFFFFFFFFFFFFFFFFFFFFFFFFFF
310
FFFFFFFFFFFFFFFFFFFFFFFFFFFFFFFFFFFFFFFFFFFFFFFFFFFFFFFFFFFFFFFF
310
FFFFFFFFFFFFFFFFFFFFFFFFFFFFFFFFFFFFFFFFFFFFFFFFFFFFFFFFFFFFFFFF
310
F000FFFFFFFFFFFFFFFFFFFFFFFFFFFFFFFFFFFFFFFFFFFFFFFFFFFFFFFFFFFF
310
FFFFFFFFFFFFFFFFFFFFFFFFFFFFFFFFFFFFFFFFFFFFFFFFFFFFFFFFFFFFFFFF
310
FFFFFFFFFFFFFFFFFFFFFFFFFFFFFFFFFFFFFFFFFFFFFFFFF000FFFFFFFFFFFF
310
FFFFFFFFFFFFFFFFFFFFFFFFFFFFFFFFFFFFFFFFFFFFFFFFFFFFFFFFFFFFFFFF
310
FFFFFFFFFFFFFFFFFFFFFFFFFFFFFFFFFFFFFFFFFFFFFFFFFFFFFFFFFFFFFFFF
310
FFFFFFFFFFFFFFFFFFFFFFFFFFFFFFFFF000FFFFFFFFFFFFFFFFFFFFFFFFFFFF
310
FFFFFFFFFFFFFFFFFFFFFFFFFFFFFFFFFFFFFFFFFFFFFFFFFFFFFFFFFFFFFFFF
310
FFFFFFFFFFFFFFFFFFFFFFFFFFFFFFFFFFFFFFFFFFFFFFFFFFFFFFFFFFFFFFFF
310
FFFFFFFFFFFFFFFFF000FFFFFFFFFFFFFFFFFFFFFFFFFFFFFFFFFFFFFFFFFFFF
310
FFFFFFFFFFFFFFFFFFFFFFFFFFFFFFFFFFFFFFFFFFFFFFFFFFFFFFFFFFFFFFFF
310
FFFFFFFFFFFFFFFFFFFFFFFFFFFFFFFFFFFFFFFFFFFFFFFFFFFFFFFFFFFFFFFF
310
F000FFFFFFFFFFFFFFFFFFFFFFFFFFFFFFFFFFFFFFFFFFFFFFFFFFFFFFFFFFFF
310
FFFFFFFFFFFFFFFFFFFFFFFFFFFFFFFFFFFFFFFFFFFFFFFFFFFFFFFFFFFFFFFF
310
FFFFFFFFFFFFFFFFFFFFFFFFFFFFFFFFFFFFFFFFFFFFFFFFF000FFFFFFFFFFFF
310
FFFFFFFFFFFFFFFFFFFFFFFFFFFFFFFFFFFFFFFFFFFFFFFFFFFFFFFFFFFFFFFF
310
FFFFFFFFFFFFFFFFFFFFFFFFFFFFFFFFFFFFFFFFFFFFFFFFFFFFFFFFFFFFFFFF
310
FFFFFFFFFFFFFFFFFFFFFFFFFFFFFFFFF000FFFFFFFFFFFFFFFFFFFFFFFFFFFF
310
FFFFFFFFFFFFFFFFFFFFFFFFFFFFFFFFFFFFFFFFFFFFFFFFFFFFFFFFFFFFFFFF
310
FFFFFFFFFFFFFFFFFFFFFFFFFFFFFFFFFFFFFFFFFFFFFFFFFFFFFFFFFFFFFFFF
310
FFFFFFFFFFFFFFFFF000FFFFFFFFFFFFFFFFFFFFFFFFFFFFFFFFFFFFFFFFFFFF
310
FFFFFFFFFFFFFFFFFFFFFFFFFFFFFFFFFFFFFFFFFFFFFFFFFFFFFFFFFFFFFFFF
310
FFFFFFFFFFFFFFFFFFFFFFFFFFFFFFFFFFFFFFFFFFFFFFFFFFFFFFFFFFFFFFFF
310
F000FFFFFFFFFFFFFFFFFFFFFFFFFFFFFFFFFFFFFFFFFFFFFFFFFFFFFFFFFFFF
310
FFFFFFFFFFFFFFFFFFFFFFFFFFFFFFFFFFFFFFFFFFFFFFFFFFFFFFFFFFFFFFFF
310
FFFFFFFFFFFFFFFFFFFFFFFFFFFFFFFFFFFFFFFFFFFFFFFFF000FFFFFFFFFFFF
310
FFFFFFFFFFFFFFFFFFFFFFFFFFFFFFFFFFFFFFFFFFFFFFFFFFFFFFFFFFFFFFFF
310
FFFFFFFFFFFFFFFFFFFFFFFFFFFFFFFFFFFFFFFFFFFFFFFFFFFFFFFFFFFFFFFF
310
FFFFFFFFFFFFFFFFFFFFFFFFFFFFFFFFF000FFFFFFFFFFFFFFFFFFFFFFFFFFFF
310
FFFFFFFFFFFFFFFFFFFFFFFFFFFFFFFFFFFFFFFFFFFFFFFFFFFFFFFFFFFFFFFF
310
FFFFFFFFFFFFFFFFFFFFFFFFFFFFFFFFFFFFFFFFFFFFFFFFFFFFFFFFFFFFFFFF
310
FFFFFFFFFFFFFFFFF000FFFFFFFFFFFFFFFFFFFFFFFFFFFFFFFFFFFFFFFFFFFF
310
FFFFFFFFFFFFFFFFFFFFFFFFFFFFFFFFFFFFFFFFFFFFFFFFFFFFFFFFFFFFFFFF
310
FFFFFFFFFFFFFFFFFFFFFFFFFFFFFFFFFFFFFFFFFFFFFFFFFFFFFFFFFFFFFFFF
310
F000FFFFFFFFFFFFFFFFFFFFFFFFFFFFFFFFFFFFFFFFFFFFFFFFFFFFFFFFFFFF
310
FFFFFFFFFFFFFFFFFFFFFFFFFFFFFFFFFFFFFFFFFFFFFFFFFFFFFFFFFFFFFFFF
310
FFFFFFFFFFFFFFFFFFFFFFFFFFFFFFFFFFFFFFFFFFFFFFFFF000FFFFFFFFFFFF
310
FFFFFFFFFFFFFFFFFFFFFFFFFFFFFFFFFFFFFFFFFFFFFFFFFFFFFFFFFFFFFFFF
310
FFFFFFFFFFFFFFFFFFFFFFFFFFFFFFFFFFFFFFFFFFFFFFFFFFFFFFFFFFFFFFFF
310
FFFFFFFFFFFFFFFFFFFFFFFFFFFFFFFFF000FFFFFFFFFFFFFFFFFFFFFFFFFFFF
310
FFFFFFFFFFFFFFFFFFFFFFFFFFFFFFFFFFFFFFFFFFFFFFFFFFFFFFFFFFFFFFFF
310
FFFFFFFFFFFFFFFFFFFFFFFFFFFFFFFFFFFFFFFFFFFFFFFFFFFFFFFFFFFFFFFF
310
FFFFFFFFFFFFFFFFF000FFFFFFFFFFFFFFFFFFFFFFFFFFFFFFFFFFFFFFFFFFFF
310
FFFFFFFFFFFFFFFFFFFFFFFFFFFFFFFFFFFFFFFFFFFFFFFFFFFFFFFFFFFFFFFF
310
FFFFFFFFFFFFFFFFFFFFFFFFFFFFFFFFFFFFFFFFFFFFFFFFFFFFFFFFFFFFFFFF
310
F000FFFFFFFFFFFFFFFFFFFFFFFFFFFFFFFFFFFFFFFFFFFFFFFFFFFFFFFFFFFF
310
FFFFFFFFFFFFFFFFFFFFFFFFFFFFFFFFFFFFFFFFFFFFFFFFFFFFFFFFFFFFFFFF
310
FFFFFFFFFFFFFFFFFFFFFFFFFFFFFFFFFFFFFFFFFFFFFFFFF000FFFFFFFFFFFF
310
FFFFFFFFFFFFFFFFFFFFFFFFFFFFFFFFFFFFFFFFFFFFFFFFFFFFFFFFFFFFFFFF
310
FFFFFFFFFFFFFFFFFFFFFFFFFFFFFFFFFFFFFFFFFFFFFFFFFFFFFFFFFFFFFFFF
310
FFFFFFFFFFFFFFFFFFFFFFFFFFFFFFFFF0000000000000000000000000000000
310
0000000000000000000000000000000000000000000000000000000000000000
310
0000000000000000000000000000000000000000000000000000000000000000
310
0000000000000000000000000000000000000000000000000000000000000000
310
0000000000000000000000000000000000000000000000000000000000000000
310
0000000000000000000000000000000000000000000000000000000000000000
310
0000000000000000000000000000000000000000000000000000000000000000
310
0000000000000000000000000000000000000000000000000000000000000000
310
0000000000000000000000000000000000000000000000000000000000000000
310
0000000000000000000000000000000000000000000000000000000000000000
310
0000000000000000000000000000000000000000000000000000000000000000
310
0000000000000000000000000000000000000000000000000000000000000000
310
0000000000000000000000000000000000000000000000000000000000000000
310
0000000000000000000000000000000000000000000000000000000000000000
310
0000000000000000000000000000000000000000000000000000000000000000
310
0000000000000000000000000000000000000000000000000000000000000000
  1
OLE
  0
ENDSEC
  0
SECTION
  2
OBJECTS
  0
DICTIONARY
  5
C
330
0
100
AcDbDictionary
281
     1
  3
ACAD_GROUP
350
D
  3
ACAD_LAYOUT
350
1A
  3
ACAD_MLINESTYLE
350
17
  3
ACAD_PLOTSETTINGS
350
19
  3
ACAD_PLOTSTYLENAME
350
E
  0
DICTIONARY
  5
D
102
{ACAD_REACTORS
330
C
102
}
330
C
100
AcDbDictionary
281
     1
  0
DICTIONARY
  5
1A
102
{ACAD_REACTORS
330
C
102
}
330
C
100
AcDbDictionary
281
     1
  3
Layout1
350
1E
  3
Layout2
350
26
  3
Model
350
22
  0
DICTIONARY
  5
17
102
{ACAD_REACTORS
330
C
102
}
330
C
100
AcDbDictionary
281
     1
  3
Standard
350
18
  0
DICTIONARY
  5
19
102
{ACAD_REACTORS
330
C
102
}
330
C
100
AcDbDictionary
281
     1
  0
ACDBDICTIONARYWDFLT
  5
E
102
{ACAD_REACTORS
330
C
102
}
330
C
100
AcDbDictionary
281
     1
  3
Normal
350
F
100
AcDbDictionaryWithDefault
340
F
  0
LAYOUT
  5
1E
102
{ACAD_REACTORS
330
1A
102
}
330
1A
100
AcDbPlotSettings
  1

  2
none_device
  4

  6

 40
0.0
 41
0.0
 42
0.0
 43
0.0
 44
0.0
 45
0.0
 46
0.0
 47
0.0
 48
0.0
 49
0.0
140
0.0
141
0.0
142
1.0
143
1.0
 70
   688
 72
     0
 73
     0
 74
     5
  7

 75
    16
147
1.0
148
0.0
149
0.0
100
AcDbLayout
  1
Layout1
 70
     1
 71
     1
 10
0.0
 20
0.0
 11
420.0
 21
297.0
 12
0.0
 22
0.0
 32
0.0
 14
1.0000000000E+20
 24
1.0000000000E+20
 34
1.0000000000E+20
 15
-1.0000000000E+20
 25
-1.0000000000E+20
 35
-1.0000000000E+20
146
0.0
 13
0.0
 23
0.0
 33
0.0
 16
1.0
 26
0.0
 36
0.0
 17
0.0
 27
1.0
 37
0.0
 76
     0
330
1B
  0
LAYOUT
  5
26
102
{ACAD_REACTORS
330
1A
102
}
330
1A
100
AcDbPlotSettings
  1

  2
none_device
  4

  6

 40
0.0
 41
0.0
 42
0.0
 43
0.0
 44
0.0
 45
0.0
 46
0.0
 47
0.0
 48
0.0
 49
0.0
140
0.0
141
0.0
142
1.0
143
1.0
 70
   688
 72
     0
 73
     0
 74
     5
  7

 75
    16
147
1.0
148
0.0
149
0.0
100
AcDbLayout
  1
Layout2
 70
     1
 71
     2
 10
0.0
 20
0.0
 11
0.0
 21
0.0
 12
0.0
 22
0.0
 32
0.0
 14
0.0
 24
0.0
 34
0.0
 15
0.0
 25
0.0
 35
0.0
146
0.0
 13
0.0
 23
0.0
 33
0.0
 16
1.0
 26
0.0
 36
0.0
 17
0.0
 27
1.0
 37
0.0
 76
     0
330
23
  0
LAYOUT
  5
22
102
{ACAD_REACTORS
330
1A
102
}
330
1A
100
AcDbPlotSettings
  1

  2
none_device
  4

  6

 40
0.0
 41
0.0
 42
0.0
 43
0.0
 44
0.0
 45
0.0
 46
0.0
 47
0.0
 48
0.0
 49
0.0
140
0.0
141
0.0
142
1.0
143
1.0
 70
  1712
 72
     0
 73
     0
 74
     0
  7

 75
     0
147
1.0
148
0.0
149
0.0
100
AcDbLayout
  1
Model
 70
     1
 71
     0
 10
0.0
 20
0.0
 11
297.0
 21
210.0
 12
0.0
 22
0.0
 32
0.0
 14
0.0
 24
0.0
 34
0.0
 15
297.0
 25
210.0
 35
0.0
146
0.0
 13
0.0
 23
0.0
 33
0.0
 16
1.0
 26
0.0
 36
0.0
 17
0.0
 27
1.0
 37
0.0
 76
     0
330
1F
331
29
  0
MLINESTYLE
  5
18
102
{ACAD_REACTORS
330
17
102
}
330
17
100
AcDbMlineStyle
  2
Standard
 70
     0
  3

 62
   256
 51
90.0
 52
90.0
 71
     2
 49
0.5
 62
   256
  6
BYLAYER
 49
-0.5
 62
   256
  6
BYLAYER
  0
ACDBPLACEHOLDER
  5
F
102
{ACAD_REACTORS
330
E
102
}
330
E
  0
ENDSEC
  0
EOF
