  0
SECTION
  2
HEADER
  9
$ACADVER
  1
AC1015
  9
$ACADMAINTVER
 70
     6
  9
$DWGCODEPAGE
  3
ANSI_1252
  9
$INSBASE
 10
0.0
 20
0.0
 30
0.0
  9
$EXTMIN
 10
0.0
 20
0.0
 30
0.0
  9
$EXTMAX
 10
297.0
 20
210.0
 30
0.0
  9
$LIMMIN
 10
0.0
 20
0.0
  9
$LIMMAX
 10
297.0
 20
210.0
  9
$ORTHOMODE
 70
     0
  9
$REGENMODE
 70
     1
  9
$FILLMODE
 70
     1
  9
$QTEXTMODE
 70
     0
  9
$MIRRTEXT
 70
     1
  9
$LTSCALE
 40
1.0
  9
$ATTMODE
 70
     1
  9
$TEXTSIZE
 40
2.0
  9
$TRACEWID
 40
1.0
  9
$TEXTSTYLE
  7
Standard
  9
$CLAYER
  8
0
  9
$CELTYPE
  6
ByLayer
  9
$CECOLOR
 62
   256
  9
$CELTSCALE
 40
1.0
  9
$DISPSILH
 70
     0
  9
$DIMSCALE
 40
1.0
  9
$DIMASZ
 40
3.0
  9
$DIMEXO
 40
0.0
  9
$DIMDLI
 40
3.75
  9
$DIMRND
 40
0.0
  9
$DIMDLE
 40
0.0
  9
$DIMEXE
 40
1.0
  9
$DIMTP
 40
0.0
  9
$DIMTM
 40
0.0
  9
$DIMTXT
 40
2.0
  9
$DIMCEN
 40
2.5
  9
$DIMTSZ
 40
0.0
  9
$DIMTOL
 70
     0
  9
$DIMLIM
 70
     0
  9
$DIMTIH
 70
     1
  9
$DIMTOH
 70
     1
  9
$DIMSE1
 70
     0
  9
$DIMSE2
 70
     0
  9
$DIMTAD
 70
     1
  9
$DIMZIN
 70
     0
  9
$DIMBLK
  1

  9
$DIMASO
 70
     1
  9
$DIMSHO
 70
     1
  9
$DIMPOST
  1

  9
$DIMAPOST
  1

  9
$DIMALT
 70
     0
  9
$DIMALTD
 70
     3
  9
$DIMALTF
 40
0.0393700787
  9
$DIMLFAC
 40
1.0
  9
$DIMTOFL
 70
     1
  9
$DIMTVP
 40
0.0
  9
$DIMTIX
 70
     0
  9
$DIMSOXD
 70
     0
  9
$DIMSAH
 70
     0
  9
$DIMBLK1
  1

  9
$DIMBLK2
  1

  9
$DIMSTYLE
  2
ISO-25
  9
$DIMCLRD
 70
     0
  9
$DIMCLRE
 70
     0
  9
$DIMCLRT
 70
     0
  9
$DIMTFAC
 40
1.0
  9
$DIMGAP
 40
1.524
  9
$DIMJUST
 70
     0
  9
$DIMSD1
 70
     0
  9
$DIMSD2
 70
     0
  9
$DIMTOLJ
 70
     0
  9
$DIMTZIN
 70
     0
  9
$DIMALTZ
 70
     0
  9
$DIMALTTZ
 70
     0
  9
$DIMUPT
 70
     0
  9
$DIMDEC
 70
     2
  9
$DIMTDEC
 70
     3
  9
$DIMALTU
 70
     2
  9
$DIMALTTD
 70
     3
  9
$DIMTXSTY
  7
Standard
  9
$DIMAUNIT
 70
     0
  9
$DIMADEC
 70
     2
  9
$DIMALTRND
 40
0.0
  9
$DIMAZIN
 70
     0
  9
$DIMDSEP
 70
    44
  9
$DIMATFIT
 70
     3
  9
$DIMFRAC
 70
     0
  9
$DIMLDRBLK
  1

  9
$DIMLUNIT
 70
     2
  9
$DIMLWD
 70
    -2
  9
$DIMLWE
 70
    -2
  9
$DIMTMOVE
 70
     0
  9
$LUNITS
 70
     2
  9
$LUPREC
 70
     2
  9
$SKETCHINC
 40
1.0
  9
$FILLETRAD
 40
10.0
  9
$AUNITS
 70
     0
  9
$AUPREC
 70
     2
  9
$MENU
  1
.
  9
$ELEVATION
 40
0.0
  9
$PELEVATION
 40
0.0
  9
$THICKNESS
 40
0.0
  9
$LIMCHECK
 70
     0
  9
$CHAMFERA
 40
10.0
  9
$CHAMFERB
 40
10.0
  9
$CHAMFERC
 40
20.0
  9
$CHAMFERD
 40
0.0
  9
$SKPOLY
 70
     0
  9
$TDCREATE
 40
2456071.66076441
  9
$TDUCREATE
 40
2456071.577431076
  9
$TDUPDATE
 40
2456071.660766042
  9
$TDUUPDATE
 40
2456071.577432708
  9
$TDINDWG
 40
0.0000000116
  9
$TDUSRTIMER
 40
0.0000000116
  9
$USRTIMER
 70
     1
  9
$ANGBASE
 50
0.0
  9
$ANGDIR
 70
     0
  9
$PDMODE
 70
     0
  9
$PDSIZE
 40
-1.0
  9
$PLINEWID
 40
0.0
  9
$SPLFRAME
 70
     0
  9
$SPLINETYPE
 70
     6
  9
$SPLINESEGS
 70
     8
  9
$HANDSEED
  5
258
  9
$SURFTAB1
 70
     6
  9
$SURFTAB2
 70
     6
  9
$SURFTYPE
 70
     6
  9
$SURFU
 70
     6
  9
$SURFV
 70
     6
  9
$UCSBASE
  2

  9
$UCSNAME
  2

  9
$UCSORG
 10
0.0
 20
0.0
 30
0.0
  9
$UCSXDIR
 10
1.0
 20
0.0
 30
0.0
  9
$UCSYDIR
 10
0.0
 20
1.0
 30
0.0
  9
$UCSORTHOREF
  2

  9
$UCSORTHOVIEW
 70
     0
  9
$UCSORGTOP
 10
0.0
 20
0.0
 30
0.0
  9
$UCSORGBOTTOM
 10
0.0
 20
0.0
 30
0.0
  9
$UCSORGLEFT
 10
0.0
 20
0.0
 30
0.0
  9
$UCSORGRIGHT
 10
0.0
 20
0.0
 30
0.0
  9
$UCSORGFRONT
 10
0.0
 20
0.0
 30
0.0
  9
$UCSORGBACK
 10
0.0
 20
0.0
 30
0.0
  9
$PUCSBASE
  2

  9
$PUCSNAME
  2

  9
$PUCSORG
 10
0.0
 20
0.0
 30
0.0
  9
$PUCSXDIR
 10
1.0
 20
0.0
 30
0.0
  9
$PUCSYDIR
 10
0.0
 20
1.0
 30
0.0
  9
$PUCSORTHOREF
  2

  9
$PUCSORTHOVIEW
 70
     0
  9
$PUCSORGTOP
 10
0.0
 20
0.0
 30
0.0
  9
$PUCSORGBOTTOM
 10
0.0
 20
0.0
 30
0.0
  9
$PUCSORGLEFT
 10
0.0
 20
0.0
 30
0.0
  9
$PUCSORGRIGHT
 10
0.0
 20
0.0
 30
0.0
  9
$PUCSORGFRONT
 10
0.0
 20
0.0
 30
0.0
  9
$PUCSORGBACK
 10
0.0
 20
0.0
 30
0.0
  9
$USERI1
 70
     0
  9
$USERI2
 70
     0
  9
$USERI3
 70
     0
  9
$USERI4
 70
     0
  9
$USERI5
 70
     0
  9
$USERR1
 40
0.0
  9
$USERR2
 40
0.0
  9
$USERR3
 40
0.0
  9
$USERR4
 40
0.0
  9
$USERR5
 40
0.0
  9
$WORLDVIEW
 70
     1
  9
$SHADEDGE
 70
     3
  9
$SHADEDIF
 70
    70
  9
$TILEMODE
 70
     1
  9
$MAXACTVP
 70
    64
  9
$PINSBASE
 10
0.0
 20
0.0
 30
0.0
  9
$PLIMCHECK
 70
     0
  9
$PEXTMIN
 10
1.0000000000E+20
 20
1.0000000000E+20
 30
1.0000000000E+20
  9
$PEXTMAX
 10
-1.0000000000E+20
 20
-1.0000000000E+20
 30
-1.0000000000E+20
  9
$PLIMMIN
 10
0.0
 20
0.0
  9
$PLIMMAX
 10
420.0
 20
297.0
  9
$UNITMODE
 70
     0
  9
$VISRETAIN
 70
     1
  9
$PLINEGEN
 70
     0
  9
$PSLTSCALE
 70
     1
  9
$TREEDEPTH
 70
  3020
  9
$CMLSTYLE
  2
Standard
  9
$CMLJUST
 70
     0
  9
$CMLSCALE
 40
20.0
  9
$PROXYGRAPHICS
 70
     1
  9
$MEASUREMENT
 70
     1
  9
$CELWEIGHT
370
    -1
  9
$ENDCAPS
280
     0
  9
$JOINSTYLE
280
     0
  9
$LWDISPLAY
290
     1
  9
$INSUNITS
 70
     4
  9
$HYPERLINKBASE
  1

  9
$STYLESHEET
  1

  9
$XEDIT
290
     1
  9
$CEPSNTYPE
380
     0
  9
$PSTYLEMODE
290
     1
  9
$FINGERPRINTGUID
  2
{99DC7240-3E72-40EF-8DB2-F9C69B65C02A}
  9
$VERSIONGUID
  2
{FAEB1C32-E019-11D5-929B-00C0DF256EC4}
  9
$EXTNAMES
290
     1
  9
$PSVPSCALE
 40
0.0
  9
$OLESTARTUP
290
     0
  0
ENDSEC
  0
SECTION
  2
CLASSES
  0
CLASS
  1
ACDBDICTIONARYWDFLT
  2
AcDbDictionaryWithDefault
  3
ObjectDBX Classes
 90
        0
280
     0
281
     0
  0
CLASS
  1
VISUALSTYLE
  2
AcDbVisualStyle
  3
ObjectDBX Classes
 90
     4095
280
     0
281
     0
  0
CLASS
  1
MATERIAL
  2
AcDbMaterial
  3
ObjectDBX Classes
 90
     1153
280
     0
281
     0
  0
CLASS
  1
ACDBPLACEHOLDER
  2
AcDbPlaceHolder
  3
ObjectDBX Classes
 90
        0
280
     0
281
     0
  0
CLASS
  1
LAYOUT
  2
AcDbLayout
  3
ObjectDBX Classes
 90
        0
280
     0
281
     0
  0
ENDSEC
  0
SECTION
  2
TABLES
  0
TABLE
  2
VPORT
  5
8
330
0
100
AcDbSymbolTable
 70
     1
  0
VPORT
  5
29
330
8
100
AcDbSymbolTableRecord
100
AcDbViewportTableRecord
  2
*Active
 70
     0
 10
0.0
 20
0.0
 11
1.0
 21
1.0
 12
148.5
 22
105.0
 13
0.0
 23
0.0
 14
10.0
 24
10.0
 15
10.0
 25
10.0
 16
0.0
 26
0.0
 36
1.0
 17
0.0
 27
0.0
 37
0.0
 40
210.0
 41
1.4142857143
 42
50.0
 43
0.0
 44
0.0
 50
0.0
 51
0.0
 71
     0
 72
  2000
 73
     1
 74
     3
 75
     0
 76
     0
 77
     0
 78
     0
281
     0
 65
     1
110
0.0
120
0.0
130
0.0
111
1.0
121
0.0
131
0.0
112
0.0
122
1.0
132
0.0
 79
     0
146
0.0
  0
ENDTAB
  0
TABLE
  2
LTYPE
  5
5
330
0
100
AcDbSymbolTable
 70
     6
  0
LTYPE
  5
14
330
5
100
AcDbSymbolTableRecord
100
AcDbLinetypeTableRecord
  2
ByBlock
 70
     0
  3

 72
    65
 73
     0
 40
0.0
  0
LTYPE
  5
15
330
5
100
AcDbSymbolTableRecord
100
AcDbLinetypeTableRecord
  2
ByLayer
 70
     0
  3

 72
    65
 73
     0
 40
0.0
  0
LTYPE
  5
16
330
5
100
AcDbSymbolTableRecord
100
AcDbLinetypeTableRecord
  2
Continuous
 70
     0
  3
Solid line
 72
    65
 73
     0
 40
0.0
  0
LTYPE
  5
3F
330
5
100
AcDbSymbolTableRecord
100
AcDbLinetypeTableRecord
  2
HIDDEN
 70
     0
  3
Hidden __ __ __ __ __ __ __ __ __ __ __ __ __ __
 72
    65
 73
     2
 40
1.905
 49
1.27
 74
     0
 49
-0.635
 74
     0
  0
LTYPE
  5
40
330
5
100
AcDbSymbolTableRecord
100
AcDbLinetypeTableRecord
  2
PHANTOM
 70
     0
  3
Phantom ______  __  __  ______  __  __  ______
 72
    65
 73
     6
 40
12.7
 49
6.35
 74
     0
 49
-1.27
 74
     0
 49
1.27
 74
     0
 49
-1.27
 74
     0
 49
1.27
 74
     0
 49
-1.27
 74
     0
  0
LTYPE
  5
41
330
5
100
AcDbSymbolTableRecord
100
AcDbLinetypeTableRecord
  2
CENTER
 70
     0
  3
Center ____ _ ____ _ ____ _ ____ _ ____ _ ____
 72
    65
 73
     4
 40
10.16
 49
6.35
 74
     0
 49
-1.27
 74
     0
 49
1.27
 74
     0
 49
-1.27
 74
     0
  0
LTYPE
  5
42
330
5
100
AcDbSymbolTableRecord
100
AcDbLinetypeTableRecord
  2
CENTERX2
 70
     0
  3
Center (2x) ________  __  ________  __  _____
 72
    65
 73
     4
 40
20.32
 49
12.7
 74
     0
 49
-2.54
 74
     0
 49
2.54
 74
     0
 49
-2.54
 74
     0
  0
LTYPE
  5
43
330
5
100
AcDbSymbolTableRecord
100
AcDbLinetypeTableRecord
  2
DOT2
 70
     0
  3
Dot (.5x) ........................................
 72
    65
 73
     2
 40
0.635
 49
0.0
 74
     0
 49
-0.635
 74
     0
  0
ENDTAB
  0
TABLE
  2
LAYER
  5
2
330
0
100
AcDbSymbolTable
 70
     5
  0
LAYER
  5
10
330
2
100
AcDbSymbolTableRecord
100
AcDbLayerTableRecord
  2
0
 70
     0
 62
     7
  6
Continuous
370
    -3
390
F
  0
LAYER
  5
44
330
2
100
AcDbSymbolTableRecord
100
AcDbLayerTableRecord
  2
FORMAT
 70
     0
 62
     7
  6
Continuous
370
    -3
390
F
  0
LAYER
  5
45
330
2
100
AcDbSymbolTableRecord
100
AcDbLayerTableRecord
  2
VERMASSUNG
 70
     0
 62
     7
  6
Continuous
370
    -3
390
F
  0
LAYER
  5
46
330
2
100
AcDbSymbolTableRecord
100
AcDbLayerTableRecord
  2
KOPF_DÜNN
 70
     0
 62
     7
  6
Continuous
370
    -3
390
F
  0
LAYER
  5
47
330
2
100
AcDbSymbolTableRecord
100
AcDbLayerTableRecord
  2
KOPF_DICK
 70
     0
 62
     7
  6
Continuous
370
    15
390
F
  0
ENDTAB
  0
TABLE
  2
STYLE
  5
3
330
0
100
AcDbSymbolTable
 70
     2
  0
STYLE
  5
11
330
3
100
AcDbSymbolTableRecord
100
AcDbTextStyleTableRecord
  2
Standard
 70
     0
 40
0.0
 41
1.0
 50
0.0
 71
     0
 42
2.0
  3
txt
  4

  0
STYLE
  5
48
330
3
100
AcDbSymbolTableRecord
100
AcDbTextStyleTableRecord
  2
SLDTEXTSTYLE0
 70
     0
 40
0.0
 41
0.7
 50
0.0
 71
     0
 42
0.2
  3
TXT
  4

  0
ENDTAB
  0
TABLE
  2
VIEW
  5
6
330
0
100
AcDbSymbolTable
 70
     0
  0
ENDTAB
  0
TABLE
  2
UCS
  5
7
330
0
100
AcDbSymbolTable
 70
     0
  0
ENDTAB
  0
TABLE
  2
APPID
  5
9
330
0
100
AcDbSymbolTable
 70
     1
  0
APPID
  5
12
330
9
100
AcDbSymbolTableRecord
100
AcDbRegAppTableRecord
  2
ACAD
 70
     0
  0
ENDTAB
  0
TABLE
  2
DIMSTYLE
  5
A
330
0
100
AcDbSymbolTable
 70
     5
100
AcDbDimStyleTable
  0
DIMSTYLE
105
27
330
A
100
AcDbSymbolTableRecord
100
AcDbDimStyleTableRecord
  2
ISO-25
 70
     0
 41
2.5
 42
0.625
 43
3.75
 44
1.25
 73
     0
 74
     0
 77
     1
 78
     8
140
2.5
141
2.5
143
0.0393700787
147
0.625
171
     3
172
     1
178
     0
271
     2
272
     2
274
     3
278
    44
283
     0
284
     8
340
11
  0
DIMSTYLE
105
1A9
102
{ACAD_REACTORS
330
1A8
102
}
330
A
100
AcDbSymbolTableRecord
100
AcDbDimStyleTableRecord
  2
SLDDIMSTYLE0
 70
     0
 41
3.0
 44
0.0
 73
     0
 74
     0
 77
     1
 78
    12
 79
     3
140
2.0
147
0.5
173
     1
178
     0
179
     1
272
     3
276
     2
284
    12
340
48
  0
DIMSTYLE
105
1B3
102
{ACAD_REACTORS
330
1B2
330
1BF
102
}
330
A
100
AcDbSymbolTableRecord
100
AcDbDimStyleTableRecord
  2
SLDDIMSTYLE1
 70
     0
 41
3.0
 44
0.0
 45
0.000000001
 47
0.1
 48
0.1
 71
     1
 73
     0
 74
     0
 77
     1
 78
    12
 79
     3
140
2.0
147
0.5
173
     1
178
     0
271
     2
272
     1
276
     2
284
     8
340
48
  0
DIMSTYLE
105
1CC
102
{ACAD_REACTORS
330
1CB
330
1D6
102
}
330
A
100
AcDbSymbolTableRecord
100
AcDbDimStyleTableRecord
  2
SLDDIMSTYLE2
 70
     0
 41
3.0
 44
0.0
 45
0.000000001
 73
     0
 74
     0
 77
     1
 78
    12
 79
     3
140
2.0
147
0.5
173
     1
178
     0
271
     2
272
     3
276
     2
284
    12
340
48
  0
DIMSTYLE
105
23D
102
{ACAD_REACTORS
330
23C
102
}
330
A
100
AcDbSymbolTableRecord
100
AcDbDimStyleTableRecord
  2
SLDDIMSTYLE3
 70
     0
 41
3.0
 44
0.0
 45
0.000000001
 73
     0
 74
     0
 77
     1
 78
    12
 79
     3
140
2.0
147
0.5
172
     1
173
     1
178
     0
271
     2
272
     3
276
     2
284
    12
289
     0
340
48
  0
ENDTAB
  0
TABLE
  2
BLOCK_RECORD
  5
1
330
0
100
AcDbSymbolTable
 70
     8
  0
BLOCK_RECORD
  5
1F
330
1
100
AcDbSymbolTableRecord
100
AcDbBlockTableRecord
  2
*Model_Space
340
22
  0
BLOCK_RECORD
  5
1B
330
1
100
AcDbSymbolTableRecord
100
AcDbBlockTableRecord
  2
*Paper_Space
340
1E
  0
BLOCK_RECORD
  5
23
330
1
100
AcDbSymbolTableRecord
100
AcDbBlockTableRecord
  2
*Paper_Space0
340
26
  0
BLOCK_RECORD
  5
1AA
330
1
100
AcDbSymbolTableRecord
100
AcDbBlockTableRecord
  2
_D
340
0
  0
BLOCK_RECORD
  5
1B4
330
1
100
AcDbSymbolTableRecord
100
AcDbBlockTableRecord
  2
_D_1
340
0
  0
BLOCK_RECORD
  5
1C0
330
1
100
AcDbSymbolTableRecord
100
AcDbBlockTableRecord
  2
_D_2
340
0
  0
BLOCK_RECORD
  5
1CD
330
1
100
AcDbSymbolTableRecord
100
AcDbBlockTableRecord
  2
_D_3
340
0
  0
BLOCK_RECORD
  5
1D7
330
1
100
AcDbSymbolTableRecord
100
AcDbBlockTableRecord
  2
_D_4
340
0
  0
BLOCK_RECORD
  5
23E
330
1
100
AcDbSymbolTableRecord
100
AcDbBlockTableRecord
  2
_D_5
340
0
  0
BLOCK_RECORD
  5
24B
330
1
100
AcDbSymbolTableRecord
100
AcDbBlockTableRecord
  2
SW_CENTERMARKSYMBOL_0
340
0
102
{BLKREFS
331
256
102
}
  0
ENDTAB
  0
ENDSEC
  0
SECTION
  2
BLOCKS
  0
BLOCK
  5
20
330
1F
100
AcDbEntity
  8
0
100
AcDbBlockBegin
  2
*Model_Space
 70
     0
 10
0.0
 20
0.0
 30
0.0
  3
*Model_Space
  1

  0
ENDBLK
  5
21
330
1F
100
AcDbEntity
  8
0
100
AcDbBlockEnd
  0
BLOCK
  5
1C
330
1B
100
AcDbEntity
 67
     1
  8
0
100
AcDbBlockBegin
  2
*Paper_Space
 70
     0
 10
0.0
 20
0.0
 30
0.0
  3
*Paper_Space
  1

  0
ENDBLK
  5
1D
330
1B
100
AcDbEntity
 67
     1
  8
0
100
AcDbBlockEnd
  0
BLOCK
  5
24
330
23
100
AcDbEntity
  8
0
100
AcDbBlockBegin
  2
*Paper_Space0
 70
     0
 10
0.0
 20
0.0
 30
0.0
  3
*Paper_Space0
  1

  0
ENDBLK
  5
25
330
23
100
AcDbEntity
  8
0
100
AcDbBlockEnd
  0
BLOCK
  5
1AB
330
1AA
100
AcDbEntity
  8
0
100
AcDbBlockBegin
  2
_D
 70
     0
 10
0.0
 20
0.0
 30
0.0
  3
_D
  1

  0
ARC
  5
1AD
330
1AA
100
AcDbEntity
  8
VERMASSUNG
100
AcDbCircle
 10
254.3840014544
 20
78.3638073474
 30
0.0
 40
11.76582009879019
100
AcDbArc
 50
0.0
 51
107.4564988253
  0
SOLID
  5
1AE
330
1AA
100
AcDbEntity
  8
VERMASSUNG
100
AcDbTrace
 10
266.1498215532
 20
78.3638073474
 30
0.0
 11
266.2228074607
 21
81.3964914815
 31
0.0
 12
265.3298102909
 22
81.2844376783
 32
0.0
 13
265.3298102909
 23
81.2844376783
 33
0.0
  0
SOLID
  5
1AF
330
1AA
100
AcDbEntity
  8
VERMASSUNG
100
AcDbTrace
 10
250.8544717505
 20
89.5877524054
 30
0.0
 11
253.8865807048
 21
89.6816421762
 31
0.0
 12
253.7255911359
 22
90.5671264272
 32
0.0
 13
253.7255911359
 23
90.5671264272
 33
0.0
  0
LINE
  5
1B0
330
1AA
100
AcDbEntity
  8
VERMASSUNG
100
AcDbLine
 10
265.2334304988
 20
78.3638073474
 30
0.0
 11
267.1498215532
 21
78.3638073474
 31
0.0
  0
MTEXT
  5
1B1
330
1AA
100
AcDbEntity
  8
VERMASSUNG
100
AcDbMText
 10
259.322743086
 20
92.5313014512
 30
0.1
 40
2.0
 41
0.0
 71
     1
 72
     1
  1
107.5°
  7
SLDTEXTSTYLE0
 11
0.8062200735720646
 21
-0.591615747736193
 31
0.0
 73
     1
 44
1.0
  0
ENDBLK
  5
1AC
330
1AA
100
AcDbEntity
  8
0
100
AcDbBlockEnd
  0
BLOCK
  5
1B5
330
1B4
100
AcDbEntity
  8
0
100
AcDbBlockBegin
  2
_D_1
 70
     0
 10
0.0
 20
0.0
 30
0.0
  3
_D_1
  1

  0
SOLID
  5
1B7
330
1B4
100
AcDbEntity
  8
VERMASSUNG
100
AcDbTrace
 10
189.236232159
 20
70.7846216197
 30
0.0
 11
192.236232159
 21
70.3346216197
 31
0.0
 12
192.236232159
 22
71.2346216197
 32
0.0
 13
192.236232159
 23
71.2346216197
 33
0.0
  0
SOLID
  5
1B8
330
1B4
100
AcDbEntity
  8
VERMASSUNG
100
AcDbTrace
 10
254.236232159
 20
70.7846216197
 30
0.0
 11
251.236232159
 21
71.2346216197
 31
0.0
 12
251.236232159
 22
70.3346216197
 32
0.0
 13
251.236232159
 23
70.3346216197
 33
0.0
  0
LINE
  5
1B9
330
1B4
100
AcDbEntity
  8
VERMASSUNG
100
AcDbLine
 10
189.236232159
 20
92.3638073474
 30
0.0
 11
189.236232159
 21
69.7846216197
 31
0.0
  0
LINE
  5
1BA
330
1B4
100
AcDbEntity
  8
VERMASSUNG
100
AcDbLine
 10
254.236232159
 20
78.3638073474
 30
0.0
 11
254.236232159
 21
69.7846216197
 31
0.0
  0
LINE
  5
1BB
330
1B4
100
AcDbEntity
  8
VERMASSUNG
100
AcDbLine
 10
189.236232159
 20
70.7846216197
 30
0.0
 11
254.236232159
 21
70.7846216197
 31
0.0
  0
MTEXT
  5
1BC
330
1B4
100
AcDbEntity
  8
VERMASSUNG
100
AcDbMText
 10
217.186231972
 20
73.3627569829
 30
0.1
 40
2.0
 41
0.0
 71
     1
 72
     1
  1
65
  7
SLDTEXTSTYLE0
 73
     1
 44
1.0
  0
MTEXT
  5
1BD
330
1B4
100
AcDbEntity
  8
VERMASSUNG
100
AcDbMText
 10
222.9737320741
 20
73.3627569829
 30
0.1
 40
2.0
 41
0.0
 71
     1
 72
     1
  1

  7
SLDTEXTSTYLE0
 73
     1
 44
1.0
  0
MTEXT
  5
1BE
330
1B4
100
AcDbEntity
  8
VERMASSUNG
100
AcDbMText
 10
222.9862323639
 20
72.8682231201
 30
0.1
 40
1.5
 41
0.0
 71
     1
 72
     1
  1
±0.1
  7
SLDTEXTSTYLE0
 73
     1
 44
1.0
  0
ENDBLK
  5
1B6
330
1B4
100
AcDbEntity
  8
0
100
AcDbBlockEnd
  0
BLOCK
  5
1C1
330
1C0
100
AcDbEntity
  8
0
100
AcDbBlockBegin
  2
_D_2
 70
     0
 10
0.0
 20
0.0
 30
0.0
  3
_D_2
  1

  0
SOLID
  5
1C3
330
1C0
100
AcDbEntity
  8
VERMASSUNG
100
AcDbTrace
 10
273.9120787678
 20
78.3638073474
 30
0.0
 11
274.3620787678
 21
81.3638073474
 31
0.0
 12
273.4620787678
 22
81.3638073474
 32
0.0
 13
273.4620787678
 23
81.3638073474
 33
0.0
  0
SOLID
  5
1C4
330
1C0
100
AcDbEntity
  8
VERMASSUNG
100
AcDbTrace
 10
273.9120787678
 20
123.3638073474
 30
0.0
 11
273.4620787678
 21
120.3638073474
 31
0.0
 12
274.3620787678
 22
120.3638073474
 32
0.0
 13
274.3620787678
 23
120.3638073474
 33
0.0
  0
LINE
  5
1C5
330
1C0
100
AcDbEntity
  8
VERMASSUNG
100
AcDbLine
 10
254.236232159
 20
78.3638073474
 30
0.0
 11
274.9120787678
 21
78.3638073474
 31
0.0
  0
LINE
  5
1C6
330
1C0
100
AcDbEntity
  8
VERMASSUNG
100
AcDbLine
 10
254.236232159
 20
123.3638073474
 30
0.0
 11
274.9120787678
 21
123.3638073474
 31
0.0
  0
LINE
  5
1C7
330
1C0
100
AcDbEntity
  8
VERMASSUNG
100
AcDbLine
 10
273.9120787678
 20
78.3638073474
 30
0.0
 11
273.9120787678
 21
123.3638073474
 31
0.0
  0
MTEXT
  5
1C8
330
1C0
100
AcDbEntity
  8
VERMASSUNG
100
AcDbMText
 10
271.3339434047
 20
96.2138073303
 30
0.1
 40
2.0
 41
0.0
 71
     1
 72
     1
  1
45
  7
SLDTEXTSTYLE0
 11
6.123233995736766E-17
 21
1.0
 31
0.0
 73
     1
 44
1.0
  0
MTEXT
  5
1C9
330
1C0
100
AcDbEntity
  8
VERMASSUNG
100
AcDbMText
 10
271.3339434047
 20
102.2013075583
 30
0.1
 40
2.0
 41
0.0
 71
     1
 72
     1
  1

  7
SLDTEXTSTYLE0
 11
6.123233995736766E-17
 21
1.0
 31
0.0
 73
     1
 44
1.0
  0
MTEXT
  5
1CA
330
1C0
100
AcDbEntity
  8
VERMASSUNG
100
AcDbMText
 10
271.8284772674
 20
102.2138073824
 30
0.1
 40
1.5
 41
0.0
 71
     1
 72
     1
  1
±0.1
  7
SLDTEXTSTYLE0
 11
6.123233995736766E-17
 21
1.0
 31
0.0
 73
     1
 44
1.0
  0
ENDBLK
  5
1C2
330
1C0
100
AcDbEntity
  8
0
100
AcDbBlockEnd
  0
BLOCK
  5
1CE
330
1CD
100
AcDbEntity
  8
0
100
AcDbBlockBegin
  2
_D_3
 70
     0
 10
0.0
 20
0.0
 30
0.0
  3
_D_3
  1

  0
SOLID
  5
1D0
330
1CD
100
AcDbEntity
  8
VERMASSUNG
100
AcDbTrace
 10
151.236232159
 20
62.8140134151
 30
0.0
 11
154.236232159
 21
62.3640134151
 31
0.0
 12
154.236232159
 22
63.2640134151
 32
0.0
 13
154.236232159
 23
63.2640134151
 33
0.0
  0
SOLID
  5
1D1
330
1CD
100
AcDbEntity
  8
VERMASSUNG
100
AcDbTrace
 10
254.236232159
 20
62.8140134151
 30
0.0
 11
251.236232159
 21
63.2640134151
 31
0.0
 12
251.236232159
 22
62.3640134151
 32
0.0
 13
251.236232159
 23
62.3640134151
 33
0.0
  0
LINE
  5
1D2
330
1CD
100
AcDbEntity
  8
VERMASSUNG
100
AcDbLine
 10
151.236232159
 20
103.0714693549
 30
0.0
 11
151.236232159
 21
61.8140134151
 31
0.0
  0
LINE
  5
1D3
330
1CD
100
AcDbEntity
  8
VERMASSUNG
100
AcDbLine
 10
254.236232159
 20
78.3638073474
 30
0.0
 11
254.236232159
 21
61.8140134151
 31
0.0
  0
LINE
  5
1D4
330
1CD
100
AcDbEntity
  8
VERMASSUNG
100
AcDbLine
 10
151.236232159
 20
62.8140134151
 30
0.0
 11
254.236232159
 21
62.8140134151
 31
0.0
  0
MTEXT
  5
1D5
330
1CD
100
AcDbEntity
  8
VERMASSUNG
100
AcDbMText
 10
199.9362320261
 20
65.3921487782
 30
0.1
 40
2.0
 41
0.0
 71
     1
 72
     1
  1
103
  7
SLDTEXTSTYLE0
 73
     1
 44
1.0
  0
ENDBLK
  5
1CF
330
1CD
100
AcDbEntity
  8
0
100
AcDbBlockEnd
  0
BLOCK
  5
1D8
330
1D7
100
AcDbEntity
  8
0
100
AcDbBlockBegin
  2
_D_4
 70
     0
 10
0.0
 20
0.0
 30
0.0
  3
_D_4
  1

  0
SOLID
  5
1DA
330
1D7
100
AcDbEntity
  8
VERMASSUNG
100
AcDbTrace
 10
141.236182159
 20
154.8638073474
 30
0.0
 11
140.786182159
 21
151.8638073474
 31
0.0
 12
141.686182159
 22
151.8638073474
 32
0.0
 13
141.686182159
 23
151.8638073474
 33
0.0
  0
SOLID
  5
1DB
330
1D7
100
AcDbEntity
  8
VERMASSUNG
100
AcDbTrace
 10
141.236182159
 20
91.8638073474
 30
0.0
 11
141.686182159
 21
94.8638073474
 31
0.0
 12
140.786182159
 22
94.8638073474
 32
0.0
 13
140.786182159
 23
94.8638073474
 33
0.0
  0
LINE
  5
1DC
330
1D7
100
AcDbEntity
  8
VERMASSUNG
100
AcDbLine
 10
189.736232159
 20
154.8638073474
 30
0.0
 11
140.236182159
 21
154.8638073474
 31
0.0
  0
LINE
  5
1DD
330
1D7
100
AcDbEntity
  8
VERMASSUNG
100
AcDbLine
 10
189.736232159
 20
91.8638073474
 30
0.0
 11
140.236182159
 21
91.8638073474
 31
0.0
  0
LINE
  5
1DE
330
1D7
100
AcDbEntity
  8
VERMASSUNG
100
AcDbLine
 10
141.236182159
 20
154.8638073474
 30
0.0
 11
141.236182159
 21
91.8638073474
 31
0.0
  0
MTEXT
  5
1DF
330
1D7
100
AcDbEntity
  8
VERMASSUNG
100
AcDbMText
 10
138.45804667
 20
116.9588072382
 30
0.35
 40
2.0
 41
0.0
 71
     1
 72
     1
  1
PSC
  7
SLDTEXTSTYLE0
 11
-7.044195017643634E-15
 21
1.0
 31
0.0
 73
     1
 44
1.0
  0
MTEXT
  5
1E0
330
1D7
100
AcDbEntity
  8
VERMASSUNG
100
AcDbMText
 10
138.6580466795
 20
121.5588073403
 30
0.35
 40
2.0
 41
0.0
 71
     1
 72
     1
  1
%%c
  7
SLDTEXTSTYLE0
 11
-7.044195017643634E-15
 21
1.0
 31
0.0
 73
     1
 44
1.0
  0
MTEXT
  5
1E1
330
1D7
100
AcDbEntity
  8
VERMASSUNG
100
AcDbMText
 10
138.45804667
 20
125.1688078202
 30
0.35
 40
2.0
 41
0.0
 71
     1
 72
     1
  1
63
  7
SLDTEXTSTYLE0
 11
-7.044195017643634E-15
 21
1.0
 31
0.0
 73
     1
 44
1.0
  0
ENDBLK
  5
1D9
330
1D7
100
AcDbEntity
  8
0
100
AcDbBlockEnd
  0
BLOCK
  5
23F
330
23E
100
AcDbEntity
  8
0
100
AcDbBlockBegin
  2
_D_5
 70
     0
 10
0.0
 20
0.0
 30
0.0
  3
_D_5
  1

  0
SOLID
  5
241
330
23E
100
AcDbEntity
  8
VERMASSUNG
100
AcDbTrace
 10
105.562900903
 20
146.8017599595
 30
0.0
 11
108.0024192981
 21
148.6048822516
 31
0.0
 12
107.366023195
 22
149.2412783546
 32
0.0
 13
107.366023195
 23
149.2412783546
 33
0.0
  0
SOLID
  5
242
330
23E
100
AcDbEntity
  8
VERMASSUNG
100
AcDbTrace
 10
48.9943584081
 20
90.2332174646
 30
0.0
 11
46.554840013
 21
88.4300951726
 31
0.0
 12
47.191236116
 22
87.7936990695
 32
0.0
 13
47.191236116
 23
87.7936990695
 33
0.0
  0
LINE
  5
243
330
23E
100
AcDbEntity
  8
VERMASSUNG
100
AcDbLine
 10
105.562900903
 20
146.8017599595
 30
0.0
 11
104.8557941218
 21
147.5088667407
 31
0.0
  0
LINE
  5
244
330
23E
100
AcDbEntity
  8
VERMASSUNG
100
AcDbLine
 10
48.9943584081
 20
90.2332174646
 30
0.0
 11
48.2872516269
 21
90.9403242458
 31
0.0
  0
LINE
  5
245
330
23E
100
AcDbEntity
  8
VERMASSUNG
100
AcDbLine
 10
105.562900903
 20
146.8017599595
 30
0.0
 11
109.8055415901
 21
151.0444006466
 31
0.0
  0
LINE
  5
246
330
23E
100
AcDbEntity
  8
VERMASSUNG
100
AcDbLine
 10
105.562900903
 20
146.8017599595
 30
0.0
 11
48.9943584081
 21
90.2332174646
 31
0.0
  0
LINE
  5
247
330
23E
100
AcDbEntity
  8
VERMASSUNG
100
AcDbLine
 10
48.9943584081
 20
90.2332174646
 30
0.0
 11
35.6425929293
 21
76.8814519858
 31
0.0
  0
MTEXT
  5
248
330
23E
100
AcDbEntity
  8
VERMASSUNG
100
AcDbMText
 10
33.8195758489
 20
78.7044690662
 30
0.1
 40
2.0
 41
0.0
 71
     1
 72
     1
  1
%%c
  7
SLDTEXTSTYLE0
 11
0.7071067811865466
 21
0.7071067811865485
 31
0.0
 73
     1
 44
1.0
  0
MTEXT
  5
249
330
23E
100
AcDbEntity
  8
VERMASSUNG
100
AcDbMText
 10
36.2308099761
 20
81.3985459194
 30
0.1
 40
2.0
 41
0.0
 71
     1
 72
     1
  1
80
  7
SLDTEXTSTYLE0
 11
0.7071067811865466
 21
0.7071067811865485
 31
0.0
 73
     1
 44
1.0
  0
MTEXT
  5
24A
330
23E
100
AcDbEntity
  8
VERMASSUNG
100
AcDbMText
 10
40.3231908737
 20
85.4909268169
 30
0.1
 40
2.0
 41
0.0
 71
     1
 72
     1
  1
min.
  7
SLDTEXTSTYLE0
 11
0.7071067811865466
 21
0.7071067811865485
 31
0.0
 73
     1
 44
1.0
  0
ENDBLK
  5
240
330
23E
100
AcDbEntity
  8
0
100
AcDbBlockEnd
  0
BLOCK
  5
24C
330
24B
100
AcDbEntity
  8
0
100
AcDbBlockBegin
  2
SW_CENTERMARKSYMBOL_0
 70
     0
 10
0.0
 20
0.0
 30
0.0
  3
SW_CENTERMARKSYMBOL_0
  1

  0
LINE
  5
24E
330
24B
100
AcDbEntity
  8
VERMASSUNG
 62
     0
100
AcDbLine
 10
0.0
 20
0.0
 30
0.0
 11
0.0
 21
2.5
 31
0.0
  0
LINE
  5
24F
330
24B
100
AcDbEntity
  8
VERMASSUNG
 62
     0
100
AcDbLine
 10
0.0
 20
0.0
 30
0.0
 11
-2.5
 21
0.0
 31
0.0
  0
LINE
  5
250
330
24B
100
AcDbEntity
  8
VERMASSUNG
 62
     0
100
AcDbLine
 10
0.0
 20
0.0
 30
0.0
 11
0.0
 21
-2.5
 31
0.0
  0
LINE
  5
251
330
24B
100
AcDbEntity
  8
VERMASSUNG
 62
     0
100
AcDbLine
 10
0.0
 20
0.0
 30
0.0
 11
2.5
 21
0.0
 31
0.0
  0
LINE
  5
252
330
24B
100
AcDbEntity
  8
VERMASSUNG
 62
     0
100
AcDbLine
 10
0.0
 20
5.0
 30
0.0
 11
0.0
 21
34.0
 31
0.0
  0
LINE
  5
253
330
24B
100
AcDbEntity
  8
VERMASSUNG
 62
     0
100
AcDbLine
 10
-5.0
 20
0.0
 30
0.0
 11
-34.0
 21
0.0
 31
0.0
  0
LINE
  5
254
330
24B
100
AcDbEntity
  8
VERMASSUNG
 62
     0
100
AcDbLine
 10
0.0
 20
-5.0
 30
0.0
 11
0.0
 21
-44.9351129612
 31
0.0
  0
LINE
  5
255
330
24B
100
AcDbEntity
  8
VERMASSUNG
 62
     0
100
AcDbLine
 10
5.0
 20
0.0
 30
0.0
 11
34.0
 21
0.0
 31
0.0
  0
ENDBLK
  5
24D
330
24B
100
AcDbEntity
  8
0
100
AcDbBlockEnd
  0
ENDSEC
  0
SECTION
  2
ENTITIES
  0
MTEXT
  5
49
330
1F
100
AcDbEntity
  8
KOPF_DÜNN
100
AcDbMText
 10
13.8892156294
 20
23.8442973028
 30
0.0
 40
3.0
 41
0.0
 71
     1
 72
     1
  1
PS6.PDF.LHA.065
  7
SLDTEXTSTYLE0
 73
     1
 44
1.0
  0
MTEXT
  5
4A
330
1F
100
AcDbEntity
  8
VERMASSUNG
100
AcDbMText
 10
13.9329988022
 20
28.8834360957
 30
0.0
 40
3.0
 41
0.0
 71
     1
 72
     1
  1
Klemmhalter links_Turning tool left 107.5° /55°
  7
SLDTEXTSTYLE0
 73
     1
 44
1.0
  0
MTEXT
  5
4B
330
1F
100
AcDbEntity
  8
VERMASSUNG
100
AcDbMText
 10
98.8601118557
 20
13.8365368179
 30
0.0
 40
2.0
 41
0.0
 71
     1
 72
     1
  1
Datum: 23.05.2012
  7
SLDTEXTSTYLE0
 73
     1
 44
1.0
  0
MTEXT
  5
4C
330
1F
100
AcDbEntity
  8
VERMASSUNG
100
AcDbMText
 10
13.933048693
 20
18.0482802738
 30
0.0
 40
2.0
 41
0.0
 71
     1
 72
     1
  1
PSC ø63 / DN..15 06..
  7
SLDTEXTSTYLE0
 73
     1
 44
1.0
  0
MTEXT
  5
4D
330
1F
100
AcDbEntity
  8
VERMASSUNG
100
AcDbMText
 10
13.9808475933
 20
13.9090973692
 30
0.0
 40
2.0
 41
0.0
 71
     1
 72
     1
  1
Gewicht: 1270g
  7
SLDTEXTSTYLE0
 73
     1
 44
1.0
  0
LINE
  5
4E
330
1F
100
AcDbEntity
  8
0
  6
Continuous
 62
     7
370
    15
100
AcDbLine
 10
249.8703162049
 20
92.5702410906
 30
0.0
 11
249.2800737595
 21
93.1515148997
 31
0.0
  0
LINE
  5
4F
330
1F
100
AcDbEntity
  8
0
  6
Continuous
 62
     7
370
    15
100
AcDbLine
 10
238.8314428603
 20
83.4894622832
 30
0.0
 11
239.9341101622
 21
82.4035476118
 31
0.0
  0
LINE
  5
50
330
1F
100
AcDbEntity
  8
0
  6
Continuous
 62
     7
370
    15
100
AcDbLine
 10
242.4163195168
 20
86.885407117
 30
0.0
 11
243.1111383115
 21
86.3268110126
 31
0.0
  0
ARC
  5
51
330
1F
100
AcDbEntity
  8
0
  6
Continuous
 62
     7
370
    15
100
AcDbCircle
 10
210.236232159
 20
109.7138073474
 30
0.0
 40
2.500000000000012
100
AcDbArc
 50
201.3713330903
 51
338.6286669097
  0
LINE
  5
52
330
1F
100
AcDbEntity
  8
0
  6
Continuous
 62
     7
370
    15
100
AcDbLine
 10
226.4689068173
 20
154.863807854
 30
0.0
 11
189.7362321828
 21
154.863807854
 31
0.0
  0
LINE
  5
53
330
1F
100
AcDbEntity
  8
0
  6
Continuous
 62
     7
370
    15
100
AcDbLine
 10
189.7362321828
 20
91.8638068408
 30
0.0
 11
226.4689068173
 21
91.8638068408
 31
0.0
  0
ARC
  5
54
330
1F
100
AcDbEntity
  8
0
  6
Continuous
 62
     7
370
    15
100
AcDbCircle
 10
189.736232159
 20
92.3638073474
 30
0.0
 40
0.5000000000000142
100
AcDbArc
 50
180.0
 51
270.0
  0
ARC
  5
55
330
1F
100
AcDbEntity
  8
0
  6
Continuous
 62
     7
370
    15
100
AcDbCircle
 10
189.736232159
 20
154.3638073474
 30
0.0
 40
0.5
100
AcDbArc
 50
90.0
 51
180.0
  0
LWPOLYLINE
  5
56
330
1F
100
AcDbEntity
  8
0
  6
Continuous
 62
     7
370
    15
100
AcDbPolyline
 90
        3
 70
   128
 43
0.0
 10
189.0362321641
 20
100.8239868253
 10
189.1616870993
 20
100.7556854904
 10
189.236232159
 20
100.7029465556
  0
LWPOLYLINE
  5
57
330
1F
100
AcDbEntity
  8
0
  6
Continuous
 62
     7
370
    15
100
AcDbPolyline
 90
        3
 70
   128
 43
0.0
 10
189.236232159
 20
146.0246681392
 10
189.1616870993
 20
145.9719292045
 10
189.0362321641
 20
145.9036278695
  0
ARC
  5
58
330
1F
100
AcDbEntity
  8
0
  6
Continuous
 62
     7
370
    15
100
AcDbCircle
 10
226.4689051711
 20
155.8638073474
 30
0.0
 40
1.0
100
AcDbArc
 50
270.0
 51
330.0
  0
ARC
  5
59
330
1F
100
AcDbEntity
  8
0
  6
Continuous
 62
     7
370
    15
100
AcDbCircle
 10
226.4689051711
 20
90.8638073474
 30
0.0
 40
1.0
100
AcDbArc
 50
15.0
 51
90.0
  0
LINE
  5
5A
330
1F
100
AcDbEntity
  8
0
  6
Continuous
 62
     7
370
    15
100
AcDbLine
 10
227.6200215196
 20
155.3638088673
 30
0.0
 11
227.3349287783
 21
155.3638088673
 31
0.0
  0
LINE
  5
5B
330
1F
100
AcDbEntity
  8
0
  6
Continuous
 62
     7
370
    15
100
AcDbLine
 10
227.4348298883
 20
91.1226268083
 30
0.0
 11
228.4829850172
 21
87.2108596533
 31
0.0
  0
LINE
  5
5C
330
1F
100
AcDbEntity
  8
0
  6
Continuous
 62
     7
370
    15
100
AcDbLine
 10
228.4859130954
 20
87.1757115394
 30
0.0
 11
239.2513166045
 21
83.4688875049
 31
0.0
  0
LINE
  5
5D
330
1F
100
AcDbEntity
  8
0
  6
Continuous
 62
     7
370
    15
100
AcDbLine
 10
235.5842786705
 20
96.0889249265
 30
0.0
 11
239.8386756753
 21
82.5598868698
 31
0.0
  0
ARC
  5
5E
330
1F
100
AcDbEntity
  8
0
  6
Continuous
 62
     7
370
    15
100
AcDbCircle
 10
235.9723081008
 20
96.2058675066
 30
0.0
 40
0.405268313377607
100
AcDbArc
 50
74.5684649303
 51
196.7715221432
  0
LINE
  5
5F
330
1F
100
AcDbEntity
  8
0
  6
Continuous
 62
     7
370
    15
100
AcDbLine
 10
249.7094134664
 20
92.6641835987
 30
0.0
 11
236.0801446115
 21
96.596525532
 31
0.0
  0
ARC
  5
60
330
1F
100
AcDbEntity
  8
0
  6
Continuous
 62
     7
370
    15
100
AcDbCircle
 10
249.605208015
 20
92.3010473013
 30
0.0
 40
0.3777919356604938
100
AcDbArc
 50
17.3805269089
 51
73.9886588839
  0
LINE
  5
61
330
1F
100
AcDbEntity
  8
0
  6
Continuous
 62
     7
370
    15
100
AcDbLine
 10
254.2201514219
 20
78.8848619133
 30
0.0
 11
249.9657506918
 21
92.41389997
 31
0.0
  0
ARC
  5
62
330
1F
100
AcDbEntity
  8
0
  6
Continuous
 62
     7
370
    15
100
AcDbCircle
 10
253.832113607
 20
78.7679259412
 30
0.0
 40
0.4052744346737211
100
AcDbArc
 50
254.5688408069
 51
16.7702856168
  0
LINE
  5
63
330
1F
100
AcDbEntity
  8
0
  6
Continuous
 62
     7
370
    15
100
AcDbLine
 10
240.0950129007
 20
82.3096032411
 30
0.0
 11
253.7242780303
 21
78.3772613078
 31
0.0
  0
ARC
  5
64
330
1F
100
AcDbEntity
  8
0
  6
Continuous
 62
     7
370
    15
100
AcDbCircle
 10
240.1992093838
 20
82.6727303533
 30
0.0
 40
0.3777806330468775
100
AcDbArc
 50
197.3796037456
 51
253.9895820472
  0
ARC
  5
65
330
1F
100
AcDbEntity
  8
0
  6
Continuous
 62
     7
370
    15
100
AcDbCircle
 10
253.8327072708
 20
78.7673435972
 30
0.0
 40
0.3850133440950196
100
AcDbArc
 50
254.5696936387
 51
16.7700575238
  0
LINE
  5
66
330
1F
100
AcDbEntity
  8
0
  6
Continuous
 62
     7
370
    15
100
AcDbLine
 10
254.2013461565
 20
78.8784320623
 30
0.0
 11
249.9469454264
 21
92.4074663937
 31
0.0
  0
ARC
  5
67
330
1F
100
AcDbEntity
  8
0
  6
Continuous
 62
     7
370
    15
100
AcDbCircle
 10
249.6044372824
 20
92.3002645121
 30
0.0
 40
0.3588928420825088
100
AcDbArc
 50
17.3796374808
 51
73.9897620726
  0
LINE
  5
68
330
1F
100
AcDbEntity
  8
0
  6
Continuous
 62
     7
370
    15
100
AcDbLine
 10
249.7034231996
 20
92.6452367723
 30
0.0
 11
236.07415807
 21
96.5775787055
 31
0.0
  0
ARC
  5
69
330
1F
100
AcDbEntity
  8
0
  6
Continuous
 62
     7
370
    15
100
AcDbCircle
 10
235.9717116374
 20
96.2064538061
 30
0.0
 40
0.3850051461613571
100
AcDbArc
 50
74.5682053651
 51
196.7717775197
  0
LINE
  5
6A
330
1F
100
AcDbEntity
  8
0
  6
Continuous
 62
     7
370
    15
100
AcDbLine
 10
235.6030839359
 20
96.0953566402
 30
0.0
 11
239.8574809407
 21
82.5663204461
 31
0.0
  0
ARC
  5
6B
330
1F
100
AcDbEntity
  8
0
  6
Continuous
 62
     7
370
    15
100
AcDbCircle
 10
240.2000028767
 20
82.6735349022
 30
0.0
 40
0.3589097605245988
100
AcDbArc
 50
197.3808955506
 51
253.9876277619
  0
LINE
  5
6C
330
1F
100
AcDbEntity
  8
0
  6
Continuous
 62
     7
370
    15
100
AcDbLine
 10
240.1009994423
 20
82.3285500675
 30
0.0
 11
253.7302682971
 21
78.3962081343
 31
0.0
  0
LINE
  5
6D
330
1F
100
AcDbEntity
  8
0
  6
Continuous
 62
     7
370
    15
100
AcDbLine
 10
237.3327660238
 20
94.8787718236
 30
0.0
 11
235.9222817098
 21
96.2551008135
 31
0.0
  0
LINE
  5
6E
330
1F
100
AcDbEntity
  8
0
  6
Continuous
 62
     7
370
    15
100
AcDbLine
 10
237.3327660238
 20
94.8787718236
 30
0.0
 11
237.5305118834
 21
94.249939096
 31
0.0
  0
LINE
  5
6F
330
1F
100
AcDbEntity
  8
0
  6
Continuous
 62
     7
370
    15
100
AcDbLine
 10
240.4738004183
 20
83.1172312766
 30
0.0
 11
240.17668244
 21
82.7260646194
 31
0.0
  0
LINE
  5
70
330
1F
100
AcDbEntity
  8
0
  6
Continuous
 62
     7
370
    15
100
AcDbLine
 10
234.5391894554
 20
96.9917341292
 30
0.0
 11
235.7581342434
 21
93.1154801667
 31
0.0
  0
LINE
  5
71
330
1F
100
AcDbEntity
  8
0
  6
Continuous
 62
     7
370
    15
100
AcDbLine
 10
238.7358258342
 20
83.6463826865
 30
0.0
 11
238.7360083734
 21
83.6458015412
 31
0.0
  0
LINE
  5
72
330
1F
100
AcDbEntity
  8
0
  6
Continuous
 62
     7
370
    15
100
AcDbLine
 10
249.1677786087
 20
92.0169274479
 30
0.0
 11
249.5515505647
 21
92.3227588802
 31
0.0
  0
LINE
  5
73
330
1F
100
AcDbEntity
  8
0
  6
Continuous
 62
     7
370
    15
100
AcDbLine
 10
237.9662590896
 20
94.6959960431
 30
0.0
 11
237.3327660238
 21
94.8787718236
 31
0.0
  0
ARC
  5
74
330
1F
100
AcDbEntity
  8
0
  6
Continuous
 62
     7
370
    15
100
AcDbCircle
 10
239.9276119367
 20
92.3438549858
 30
0.0
 40
1.013172691933905
100
AcDbArc
 50
74.5683861528
 51
196.7715128657
  0
ARC
  5
75
330
1F
100
AcDbEntity
  8
0
  6
Continuous
 62
     7
370
    15
100
AcDbCircle
 10
237.9829129999
 20
94.2438510528
 30
0.0
 40
0.168320688845374
100
AcDbArc
 50
315.3203322525
 51
316.1103620187
  0
SPLINE
  5
76
330
1F
100
AcDbEntity
  8
0
  6
Continuous
 62
     7
370
    15
100
AcDbSpline
210
0.0
220
0.0
230
1.0
 70
     8
 71
     3
 72
    14
 73
    10
 74
     0
 42
0.00000001
 43
0.00000001
 12
1.0
 22
0.0
 32
0.0
 13
1.0
 23
0.0
 33
0.0
 40
0.0
 40
0.0
 40
0.0
 40
0.0
 40
0.2210618584790536
 40
0.3460806288764908
 40
0.4396027096425866
 40
0.5338909955332345
 40
0.6146571949260299
 40
0.7517247659874142
 40
0.9999999999999999
 40
0.9999999999999999
 40
0.9999999999999999
 40
0.9999999999999999
 10
238.1042177652429
 20
94.12715911566174
 30
0.0
 10
238.1442089819421
 20
94.17071148830212
 30
0.0
 10
238.2068167312842
 20
94.2388943608073
 30
0.0
 10
238.2612088812294
 20
94.34381509149475
 30
0.0
 10
238.2771661154394
 20
94.4262092420687
 30
0.0
 10
238.2629800181083
 20
94.49689458763228
 30
0.0
 10
238.2188894204159
 20
94.56575166161645
 30
0.0
 10
238.1231929618437
 20
94.64270943732693
 30
0.0
 10
238.0277516473556
 20
94.67511635895073
 30
0.0
 10
237.96625908962
 20
94.69599604307568
 30
0.0
  0
SPLINE
  5
77
330
1F
100
AcDbEntity
  8
0
  6
Continuous
 62
     7
370
    15
100
AcDbSpline
210
0.0
220
0.0
230
1.0
 70
     8
 71
     3
 72
    14
 73
    10
 74
     0
 42
0.00000001
 43
0.00000001
 12
1.0
 22
0.0
 32
0.0
 13
1.0
 23
0.0
 33
0.0
 40
0.0
 40
0.0
 40
0.0
 40
0.0
 40
0.2234979737559944
 40
0.3567606009017273
 40
0.4531193624121915
 40
0.5344625728791645
 40
0.6157327044874348
 40
0.7396147642481992
 40
1.0
 40
1.0
 40
1.0
 40
1.0
 10
237.5305118834089
 20
94.2499390959636
 30
0.0
 10
237.5504361084872
 20
94.19510438869
 30
0.0
 10
237.5822403275231
 20
94.10757400625101
 30
0.0
 10
237.65383426444
 20
94.0128796009545
 30
0.0
 10
237.7201428992008
 20
93.96516971159728
 30
0.0
 10
237.7865876653837
 20
93.9473001055037
 30
0.0
 10
237.8628258618868
 20
93.95420390713176
 30
0.0
 10
237.9776592767994
 20
94.00565868422211
 30
0.0
 10
238.0521328576911
 20
94.07709280995014
 30
0.0
 10
238.1025972639631
 20
94.12549763618863
 30
0.0
  0
LINE
  5
78
330
1F
100
AcDbEntity
  8
0
  6
Continuous
 62
     7
370
    15
100
AcDbLine
 10
238.9575364863
 20
92.0514981419
 30
0.0
 11
241.3385706817
 21
84.4797860056
 31
0.0
  0
LINE
  5
79
330
1F
100
AcDbEntity
  8
0
  6
Continuous
 62
     7
370
    15
100
AcDbLine
 10
247.8250126218
 20
91.119709906
 30
0.0
 11
240.1972050642
 21
93.3205015182
 31
0.0
  0
ARC
  5
7A
330
1F
100
AcDbEntity
  8
0
  6
Continuous
 62
     7
370
    15
100
AcDbCircle
 10
247.5645300685
 20
90.2119001492
 30
0.0
 40
0.9444414831176017
100
AcDbArc
 50
17.3794038597
 51
73.9899524459
  0
LINE
  5
7B
330
1F
100
AcDbEntity
  8
0
  6
Continuous
 62
     7
370
    15
100
AcDbLine
 10
250.8468898808
 20
82.9222905606
 30
0.0
 11
248.4658556854
 21
90.4940026969
 31
0.0
  0
ARC
  5
7C
330
1F
100
AcDbEntity
  8
0
  6
Continuous
 62
     7
370
    15
100
AcDbCircle
 10
249.8768086146
 20
82.6299371731
 30
0.0
 40
1.01317726300023
100
AcDbArc
 50
254.5685801499
 51
16.7712308139
  0
LINE
  5
7D
330
1F
100
AcDbEntity
  8
0
  6
Continuous
 62
     7
370
    15
100
AcDbLine
 10
241.97941002
 20
83.8540750712
 30
0.0
 11
249.6072175776
 21
81.6532853216
 31
0.0
  0
ARC
  5
7E
330
1F
100
AcDbEntity
  8
0
  6
Continuous
 62
     7
370
    15
100
AcDbCircle
 10
242.2399112159
 20
84.7618968755
 30
0.0
 40
0.9444582052068665
100
AcDbArc
 50
197.3796153731
 51
253.9890669349
  0
LWPOLYLINE
  5
7F
330
1F
100
AcDbEntity
  8
0
  6
Continuous
 62
     7
370
    15
100
AcDbPolyline
 90
       27
 70
   128
 43
0.0
 10
244.1297258114
 20
85.0427146226
 10
244.731442151
 20
84.9466058582
 10
245.3430826639
 20
84.9981303483
 10
245.9291006302
 20
85.1942929596
 10
246.4554431712
 20
85.5236905783
 10
246.8915144776
 20
85.9671826631
 10
247.2119788503
 20
86.4989976555
 10
247.398202387
 20
87.0882230967
 10
247.4393705701
 20
87.7006198436
 10
247.3330917632
 20
88.3005927473
 10
247.085535047
 20
88.8532805413
 10
246.7110912179
 20
89.326556322
 10
246.2315234219
 20
89.6929162711
 10
245.6747005557
 20
89.9310740799
 10
245.0729842161
 20
90.0271828443
 10
244.4613437032
 20
89.9756583542
 10
243.8753220116
 20
89.7794957429
 10
243.3489831959
 20
89.4500981241
 10
242.9129081642
 20
89.0066023141
 10
242.5924475168
 20
88.474791047
 10
242.4062202548
 20
87.8855618805
 10
242.3650520717
 20
87.2731688589
 10
242.4713346039
 20
86.6731922299
 10
242.7188913201
 20
86.1205081612
 10
243.0933351492
 20
85.6472323805
 10
243.5729029452
 20
85.2808687061
 10
244.1297258114
 20
85.0427146226
  0
LWPOLYLINE
  5
80
330
1F
100
AcDbEntity
  8
0
  6
Continuous
 62
     7
370
    15
100
AcDbPolyline
 90
        3
 70
   128
 43
0.0
 10
242.6293018138
 20
86.2817126483
 10
243.0270585095
 20
86.128629294
 10
243.586887685
 20
86.0344092518
  0
SPLINE
  5
81
330
1F
100
AcDbEntity
  8
0
  6
Continuous
 62
     7
370
    15
100
AcDbSpline
210
0.0
220
0.0
230
1.0
 70
     8
 71
     3
 72
    11
 73
     7
 74
     0
 42
0.00000001
 43
0.00000001
 12
1.0
 22
0.0
 32
0.0
 13
1.0
 23
0.0
 33
0.0
 40
0.0
 40
0.0
 40
0.0
 40
0.0
 40
0.3280461796738717
 40
0.6557026121074537
 40
0.9906973391335053
 40
1.0
 40
1.0
 40
1.0
 40
1.0
 10
240.4738004182886
 20
83.11723127662098
 30
0.0
 10
240.5207613399147
 20
83.17544438371613
 30
0.0
 10
240.6146273895295
 20
83.29180143569926
 30
0.0
 10
240.7880678585536
 20
83.4649649470464
 30
0.0
 10
240.9058968190093
 20
83.56581005200347
 30
0.0
 10
240.9634110509552
 20
83.61027892559258
 30
0.0
 10
240.9649650429796
 20
83.61148044167912
 30
0.0
  0
LINE
  5
82
330
1F
100
AcDbEntity
  8
0
  6
Continuous
 62
     7
370
    15
100
AcDbLine
 10
252.1938244676
 20
80.3686338633
 30
0.0
 11
253.8059512948
 21
78.7937226862
 31
0.0
  0
LINE
  5
83
330
1F
100
AcDbEntity
  8
0
  6
Continuous
 62
     7
370
    15
100
AcDbLine
 10
251.5603314017
 20
80.5514077812
 30
0.0
 11
252.1938244676
 21
80.3686338633
 31
0.0
  0
SPLINE
  5
84
330
1F
100
AcDbEntity
  8
0
  6
Continuous
 62
     7
370
    15
100
AcDbSpline
210
0.0
220
0.0
230
1.0
 70
     8
 71
     3
 72
    11
 73
     7
 74
     0
 42
0.00000001
 43
0.00000001
 12
1.0
 22
0.0
 32
0.0
 13
1.0
 23
0.0
 33
0.0
 40
0.0
 40
0.0
 40
0.0
 40
0.0
 40
0.3280467139735113
 40
0.655705785042437
 40
0.9906986144447405
 40
0.9999999999999999
 40
0.9999999999999999
 40
0.9999999999999999
 40
0.9999999999999999
 10
249.1677786087106
 20
92.0169274479047
 30
0.0
 10
249.1107201571999
 20
91.9686585233835
 30
0.0
 10
248.9966706784291
 20
91.87217771227284
 30
0.0
 10
248.8275822978602
 20
91.69472729437422
 30
0.0
 10
248.7294705363796
 20
91.57446719654308
 30
0.0
 10
248.6862818730113
 20
91.5158900639679
 30
0.0
 10
248.6851150964807
 20
91.51430755554593
 30
0.0
  0
LINE
  5
85
330
1F
100
AcDbEntity
  8
0
  6
Continuous
 62
     7
370
    15
100
AcDbLine
 10
252.1938244676
 20
80.3686338633
 30
0.0
 11
251.9960786079
 21
80.9974628657
 31
0.0
  0
ARC
  5
86
330
1F
100
AcDbEntity
  8
0
  6
Continuous
 62
     7
370
    15
100
AcDbCircle
 10
239.0972318976
 20
83.7590061801
 30
0.0
 40
0.3785468593305754
100
AcDbArc
 50
197.4005846883
 51
225.4018696823
  0
LWPOLYLINE
  5
87
330
1F
100
AcDbEntity
  8
0
  6
Continuous
 62
     7
370
    15
100
AcDbPolyline
 90
        9
 70
   128
 43
0.0
 10
251.4223690008
 20
81.1202447086
 10
251.4225701665
 20
81.1204533249
 10
251.4227750575
 20
81.1206619412
 10
251.4229762231
 20
81.1208668321
 10
251.4231811141
 20
81.1210754484
 10
251.4233822798
 20
81.1212840646
 10
251.4235871708
 20
81.1214926809
 10
251.4237883364
 20
81.1216975719
 10
251.4239932274
 20
81.1219061881
  0
SPLINE
  5
88
330
1F
100
AcDbEntity
  8
0
  6
Continuous
 62
     7
370
    15
100
AcDbSpline
210
0.0
220
0.0
230
1.0
 70
     8
 71
     3
 72
    14
 73
    10
 74
     0
 42
0.00000001
 43
0.00000001
 12
1.0
 22
0.0
 32
0.0
 13
1.0
 23
0.0
 33
0.0
 40
0.0
 40
0.0
 40
0.0
 40
0.0
 40
0.2234995083136617
 40
0.3567627015230264
 40
0.4531238687455814
 40
0.5344670018549101
 40
0.6157324299351371
 40
0.7396186541044079
 40
1.0
 40
1.0
 40
1.0
 40
1.0
 10
251.9960786079477
 20
80.99746286569989
 30
0.0
 10
251.9761516216276
 20
81.05229634591302
 30
0.0
 10
251.9443430260452
 20
81.13982468403934
 30
0.0
 10
251.8727580533264
 20
81.23452882252566
 30
0.0
 10
251.8064436847082
 20
81.28223277651448
 30
0.0
 10
251.7400004318025
 20
81.30010397237973
 30
0.0
 10
251.6637624573823
 20
81.29319882254211
 30
0.0
 10
251.5489286630453
 20
81.24174757533943
 30
0.0
 10
251.4744561322083
 20
81.17031154633224
 30
0.0
 10
251.4239932273935
 20
81.12190618812001
 30
0.0
  0
SPLINE
  5
89
330
1F
100
AcDbEntity
  8
0
  6
Continuous
 62
     7
370
    15
100
AcDbSpline
210
0.0
220
0.0
230
1.0
 70
     8
 71
     3
 72
    14
 73
    10
 74
     0
 42
0.00000001
 43
0.00000001
 12
1.0
 22
0.0
 32
0.0
 13
1.0
 23
0.0
 33
0.0
 40
0.0
 40
0.0
 40
0.0
 40
0.0
 40
0.2210581822520063
 40
0.3460764985455183
 40
0.4396005786889181
 40
0.5338885611770183
 40
0.6146564052083319
 40
0.7517255259374699
 40
1.0
 40
1.0
 40
1.0
 40
1.0
 10
251.4223690008234
 20
81.1202447086469
 30
0.0
 10
251.3823803021124
 20
81.07669160923682
 30
0.0
 10
251.3197762008287
 20
81.00850727879904
 30
0.0
 10
251.2653766156308
 20
80.90359056851632
 30
0.0
 10
251.2494208020158
 20
80.82119493502007
 30
0.0
 10
251.2636072345831
 20
80.75050916313073
 30
0.0
 10
251.3076964068031
 20
80.68164932589998
 30
0.0
 10
251.4033991040753
 20
80.60469682099203
 30
0.0
 10
251.4988396520841
 20
80.57228835419926
 30
0.0
 10
251.5603314017366
 20
80.55140778123295
 30
0.0
  0
LINE
  5
8A
330
1F
100
AcDbEntity
  8
0
  6
Continuous
 62
     7
370
    15
100
AcDbLine
 10
234.8191561972
 20
96.1014437646
 30
0.0
 11
235.7581342434
 21
93.1154801667
 31
0.0
  0
LWPOLYLINE
  5
8B
330
1F
100
AcDbEntity
  8
0
  6
Continuous
 62
     7
370
    15
100
AcDbPolyline
 90
        3
 70
   128
 43
0.0
 10
234.2784601127
 20
96.9738229334
 10
234.2749173616
 20
96.8566737294
 10
234.3190471505
 20
96.593953219
  0
LINE
  5
8C
330
1F
100
AcDbEntity
  8
0
  6
Continuous
 62
     7
370
    15
100
AcDbLine
 10
234.3190471505
 20
96.593953219
 30
0.0
 11
235.258028922
 21
93.6079896212
 31
0.0
  0
LWPOLYLINE
  5
8D
330
1F
100
AcDbEntity
  8
0
  6
Continuous
 62
     7
370
    15
100
AcDbPolyline
 90
       31
 70
   128
 43
0.0
 10
237.7705211615
 20
98.3243356615
 10
237.129808483
 20
98.6344567656
 10
236.5716556882
 20
99.0731115609
 10
236.1204522525
 20
99.6211297035
 10
235.7959235882
 20
100.2545594394
 10
235.61224815
 20
100.9457162738
 10
235.5774539386
 20
101.6643918276
 10
235.6930645978
 20
102.3791819036
 10
235.9540249085
 20
103.0588406294
 10
236.3489280318
 20
103.6736662656
 10
236.8605221485
 20
104.1967901558
 10
237.4664406156
 20
104.6053446054
 10
238.1402040695
 20
104.8814780235
 10
238.8523678159
 20
105.0131204694
 10
239.5718033289
 20
104.9945182323
 10
240.2670691585
 20
104.8264834255
 10
240.9077818369
 20
104.5163623214
 10
241.465938357
 20
104.0777075261
 10
241.9171380674
 20
103.5296893835
 10
242.241670457
 20
102.8962596476
 10
242.4253458952
 20
102.2051028132
 10
242.4601401066
 20
101.4864253968
 10
242.3445294475
 20
100.7716371834
 10
242.0835691368
 20
100.0919784576
 10
241.6886622881
 20
99.4771509588
 10
241.1770718967
 20
98.9540289312
 10
240.5711534297
 20
98.5454726189
 10
239.8973899757
 20
98.2693410635
 10
239.1852262293
 20
98.1376986176
 10
238.4657907163
 20
98.1563008547
 10
237.7705211615
 20
98.3243356615
  0
LWPOLYLINE
  5
8E
330
1F
100
AcDbEntity
  8
0
  6
Continuous
 62
     7
370
    15
100
AcDbPolyline
 90
       24
 70
   128
 43
0.0
 10
238.3054952001
 20
99.7176519751
 10
237.8366227125
 20
99.9638228834
 10
237.4554249322
 20
100.3295178682
 10
237.1901768123
 20
100.7876130909
 10
237.0605478858
 20
101.3041376293
 10
237.0761531269
 20
101.8407805979
 10
237.2358376955
 20
102.3577409953
 10
237.5277551686
 20
102.8166799962
 10
237.9302541589
 20
103.183561486
 10
238.4134876405
 20
103.4311722189
 10
238.9416108703
 20
103.5411483765
 10
239.4754635965
 20
103.5053352982
 10
239.975442258
 20
103.326389116
 10
240.4044727658
 20
103.0175811767
 10
240.7307374155
 20
102.6018127024
 10
240.9300292706
 20
102.1099216461
 10
240.9875775551
 20
101.5783879131
 10
240.8991093611
 20
101.0466325253
 10
240.67118865
 20
100.5540951311
 10
240.3207133388
 20
100.1373040646
 10
239.8736859535
 20
99.827169922
 10
239.3632504021
 20
99.6466945082
 10
238.8272705351
 20
99.6092627913
 10
238.3054952001
 20
99.7176519751
  0
SPLINE
  5
8F
330
1F
100
AcDbEntity
  8
0
  6
Continuous
 62
     7
370
    15
100
AcDbSpline
210
0.0
220
0.0
230
1.0
 70
     8
 71
     3
 72
    11
 73
     7
 74
     0
 42
0.00000001
 43
0.00000001
 12
1.0
 22
0.0
 32
0.0
 13
1.0
 23
0.0
 33
0.0
 40
0.0
 40
0.0
 40
0.0
 40
0.0
 40
0.1081095181937133
 40
0.4711583071844024
 40
0.8135804345348111
 40
1.0
 40
1.0
 40
1.0
 40
1.0
 10
240.3022172724317
 20
102.7300222933189
 30
0.0
 10
240.2436129006068
 20
102.7540425864509
 30
0.0
 10
239.9882058181967
 20
102.8587268070377
 30
0.0
 10
239.5201113592157
 20
103.0401401857511
 30
0.0
 10
239.0386984394975
 20
103.2019404428143
 30
0.0
 10
238.7973453659904
 20
103.2737588939569
 30
0.0
 10
238.7122670983385
 20
103.2990752875701
 30
0.0
  0
SPLINE
  5
90
330
1F
100
AcDbEntity
  8
0
  6
Continuous
 62
     7
370
    15
100
AcDbSpline
210
0.0
220
0.0
230
1.0
 70
     8
 71
     3
 72
    10
 73
     6
 74
     0
 42
0.00000001
 43
0.00000001
 12
1.0
 22
0.0
 32
0.0
 13
1.0
 23
0.0
 33
0.0
 40
0.0
 40
0.0
 40
0.0
 40
0.0
 40
0.439117207784497
 40
0.7513669061224093
 40
1.0
 40
1.0
 40
1.0
 40
1.0
 10
238.7122670983385
 20
103.2990752875701
 30
0.0
 10
238.5040343663326
 20
103.1579118937879
 30
0.0
 10
238.1477304437648
 20
102.9163693157161
 30
0.0
 10
237.6877217054999
 20
102.5081830576032
 30
0.0
 10
237.4761177752012
 20
102.2879239014388
 30
0.0
 10
237.3823161100458
 20
102.1902854710714
 30
0.0
  0
SPLINE
  5
91
330
1F
100
AcDbEntity
  8
0
  6
Continuous
 62
     7
370
    15
100
AcDbSpline
210
0.0
220
0.0
230
1.0
 70
     8
 71
     3
 72
    10
 73
     6
 74
     0
 42
0.00000001
 43
0.00000001
 12
1.0
 22
0.0
 32
0.0
 13
1.0
 23
0.0
 33
0.0
 40
0.0
 40
0.0
 40
0.0
 40
0.0
 40
0.4391171012406408
 40
0.7513668180733799
 40
1.0
 40
1.0
 40
1.0
 40
1.0
 10
237.3823161100458
 20
102.1902854710714
 30
0.0
 10
237.4016971141409
 20
101.9676572511882
 30
0.0
 10
237.4348596653987
 20
101.5867213761917
 30
0.0
 10
237.541014094385
 20
100.9759029535848
 30
0.0
 10
237.6112044245473
 20
100.6547876556021
 30
0.0
 10
237.6423190211366
 20
100.5124407976762
 30
0.0
  0
SPLINE
  5
92
330
1F
100
AcDbEntity
  8
0
  6
Continuous
 62
     7
370
    15
100
AcDbSpline
210
0.0
220
0.0
230
1.0
 70
     8
 71
     3
 72
    11
 73
     7
 74
     0
 42
0.00000001
 43
0.00000001
 12
1.0
 22
0.0
 32
0.0
 13
1.0
 23
0.0
 33
0.0
 40
0.0
 40
0.0
 40
0.0
 40
0.0
 40
0.186417934549989
 40
0.5288418275150774
 40
0.8918890058364226
 40
1.0
 40
1.0
 40
1.0
 40
1.0
 10
237.6423190211366
 20
100.5124407976762
 30
0.0
 10
237.7273959171225
 20
100.4871242306543
 30
0.0
 10
237.9687472724044
 20
100.4153046409642
 30
0.0
 10
238.4501630035701
 20
100.2535091010142
 30
0.0
 10
238.9182542507473
 20
100.0720865922439
 30
0.0
 10
239.1736635076069
 20
99.96740730041867
 30
0.0
 10
239.2322691952299
 20
99.94338780342495
 30
0.0
  0
SPLINE
  5
93
330
1F
100
AcDbEntity
  8
0
  6
Continuous
 62
     7
370
    15
100
AcDbSpline
210
0.0
220
0.0
230
1.0
 70
     8
 71
     3
 72
    10
 73
     6
 74
     0
 42
0.00000001
 43
0.00000001
 12
1.0
 22
0.0
 32
0.0
 13
1.0
 23
0.0
 33
0.0
 40
0.0
 40
0.0
 40
0.0
 40
0.0
 40
0.4391164893587536
 40
0.7513674778293119
 40
0.9999999999999999
 40
0.9999999999999999
 40
0.9999999999999999
 40
0.9999999999999999
 10
239.2322691952299
 20
99.94338780342495
 30
0.0
 10
239.4048209751553
 20
100.1196890289074
 30
0.0
 10
239.7000724603976
 20
100.4213561499084
 30
0.0
 10
240.187219590427
 20
100.8028145848332
 30
0.0
 10
240.4470409542652
 20
100.9755889449159
 30
0.0
 10
240.5622164582323
 20
101.0521776199237
 30
0.0
  0
SPLINE
  5
94
330
1F
100
AcDbEntity
  8
0
  6
Continuous
 62
     7
370
    15
100
AcDbSpline
210
0.0
220
0.0
230
1.0
 70
     8
 71
     3
 72
    10
 73
     6
 74
     0
 42
0.00000001
 43
0.00000001
 12
1.0
 22
0.0
 32
0.0
 13
1.0
 23
0.0
 33
0.0
 40
0.0
 40
0.0
 40
0.0
 40
0.0
 40
0.4391163211220628
 40
0.7513667867109739
 40
1.0
 40
1.0
 40
1.0
 40
1.0
 10
240.5622164582323
 20
101.0521776199237
 30
0.0
 10
240.5071557731606
 20
101.3099425131748
 30
0.0
 10
240.4129420807368
 20
101.7510009987125
 30
0.0
 10
240.3339275326815
 20
102.3350956797076
 30
0.0
 10
240.3119566910608
 20
102.608725413778
 30
0.0
 10
240.3022172724317
 20
102.7300222933189
 30
0.0
  0
LINE
  5
95
330
1F
100
AcDbEntity
  8
0
  6
Continuous
 62
     7
370
    15
100
AcDbLine
 10
237.5496673261
 20
100.9518741786
 30
0.0
 11
237.7892295693
 21
100.8661328971
 31
0.0
  0
LINE
  5
96
330
1F
100
AcDbEntity
  8
0
  6
Continuous
 62
     7
370
    15
100
AcDbLine
 10
237.7892295693
 20
100.8661328971
 30
0.0
 11
238.5842027937
 21
100.5816064
 31
0.0
  0
LINE
  5
97
330
1F
100
AcDbEntity
  8
0
  6
Continuous
 62
     7
370
    15
100
AcDbLine
 10
238.5842027937
 20
100.5816064
 30
0.0
 11
239.2322691952
 21
99.9433878034
 31
0.0
  0
LINE
  5
98
330
1F
100
AcDbEntity
  8
0
  6
Continuous
 62
     7
370
    15
100
AcDbLine
 10
239.914153782
 20
101.6903962165
 30
0.0
 11
240.5622164582
 21
101.0521776199
 31
0.0
  0
LINE
  5
99
330
1F
100
AcDbEntity
  8
0
  6
Continuous
 62
     7
370
    15
100
AcDbLine
 10
239.914153782
 20
101.6903962165
 30
0.0
 11
239.7841523265
 21
102.5293185532
 31
0.0
  0
LINE
  5
9A
330
1F
100
AcDbEntity
  8
0
  6
Continuous
 62
     7
370
    15
100
AcDbLine
 10
239.7841523265
 20
102.5293185532
 30
0.0
 11
239.7175664877
 21
102.9590252012
 31
0.0
  0
LINE
  5
9B
330
1F
100
AcDbEntity
  8
0
  6
Continuous
 62
     7
370
    15
100
AcDbLine
 10
238.5842027937
 20
100.5816064
 30
0.0
 11
239.2491782879
 21
101.1360003769
 31
0.0
  0
LINE
  5
9C
330
1F
100
AcDbEntity
  8
0
  6
Continuous
 62
     7
370
    15
100
AcDbLine
 10
239.2491782879
 20
101.1360003769
 30
0.0
 11
239.914153782
 21
101.6903962165
 31
0.0
  0
ARC
  5
9D
330
1F
100
AcDbEntity
  8
0
  6
Continuous
 62
     7
370
    15
100
AcDbCircle
 10
238.3651338523
 20
102.3107432348
 30
0.0
 40
1.435753669696695
100
AcDbArc
 50
8.7566059664
 51
29.6104502552
  0
ARC
  5
9E
330
1F
100
AcDbEntity
  8
0
  6
Continuous
 62
     7
370
    15
100
AcDbCircle
 10
238.2817744118
 20
102.3068042661
 30
0.0
 40
1.518766606971227
100
AcDbArc
 50
309.5660100178
 51
8.4247217813
  0
ARC
  5
9F
330
1F
100
AcDbEntity
  8
0
  6
Continuous
 62
     7
370
    15
100
AcDbCircle
 10
238.2828326169
 20
102.2798053492
 30
0.0
 40
1.497368949318892
100
AcDbArc
 50
250.7526542129
 51
310.1928550268
  0
LWPOLYLINE
  5
A0
330
1F
100
AcDbEntity
  8
0
  6
Continuous
 62
     7
370
    15
100
AcDbPolyline
 90
        3
 70
   128
 43
0.0
 10
237.7892295693
 20
100.8661328971
 10
237.6140775954
 20
100.942376551
 10
237.5220293974
 20
100.9944561094
  0
ELLIPSE
  5
A1
330
1F
100
AcDbEntity
  8
0
  6
Continuous
 62
     7
370
    15
100
AcDbEllipse
 10
244.5924297345
 20
88.1512039831
 30
0.0
 11
1.621902103310987
 21
1.701233089551792
 31
0.0
210
0.0
220
0.0
230
1.0
 40
0.9707799176
 41
4.30763231500258
 42
6.080554013603177
  0
ELLIPSE
  5
A2
330
1F
100
AcDbEntity
  8
0
  6
Continuous
 62
     7
370
    15
100
AcDbEllipse
 10
244.5924297345
 20
88.1512039831
 30
0.0
 11
1.621902103310987
 21
1.701233089551792
 31
0.0
210
0.0
220
0.0
230
1.0
 40
0.9707799176
 41
2.617944032587775
 42
4.307632315002603
  0
SPLINE
  5
A3
330
1F
100
AcDbEntity
  8
0
  6
Continuous
 62
     7
370
    15
100
AcDbSpline
210
0.0
220
0.0
230
1.0
 70
     8
 71
     3
 72
     9
 73
     5
 74
     0
 42
0.00000001
 43
0.00000001
 12
1.0
 22
0.0
 32
0.0
 13
1.0
 23
0.0
 33
0.0
 40
0.0
 40
0.0
 40
0.0
 40
0.0
 40
0.8270628298877183
 40
1.0
 40
1.0
 40
1.0
 40
1.0
 10
242.5112846170973
 20
86.68227448760426
 30
0.0
 10
242.5960675959852
 20
86.62391919945892
 30
0.0
 10
242.6985785248097
 20
86.55336193822491
 30
0.0
 10
242.8274959550787
 20
86.5393451367244
 30
0.0
 10
242.8497905706476
 20
86.53692111073887
 30
0.0
  0
ARC
  5
A4
330
1F
100
AcDbEntity
  8
0
  6
Continuous
 62
     7
370
    15
100
AcDbCircle
 10
209.8135734494
 20
108.1698608153
 30
0.0
 40
2.578778259002436
100
AcDbArc
 50
181.9123056615
 51
248.9518980928
  0
ARC
  5
A5
330
1F
100
AcDbEntity
  8
0
  6
Continuous
 62
     7
370
    15
100
AcDbCircle
 10
210.2516915997
 20
108.4770216477
 30
0.0
 40
3.037505354381957
100
AcDbArc
 50
243.3109446436
 51
348.1381059273
  0
ARC
  5
A6
330
1F
100
AcDbEntity
  8
0
  6
Continuous
 62
     7
370
    15
100
AcDbCircle
 10
209.7253656144
 20
108.007597602
 30
0.0
 40
2.338330913965486
100
AcDbArc
 50
158.9793578501
 51
250.643750493
  0
LWPOLYLINE
  5
A7
330
1F
100
AcDbEntity
  8
0
  6
Continuous
 62
     7
370
    15
100
AcDbPolyline
 90
       11
 70
   128
 43
0.0
 10
213.0255727892
 20
108.5609705344
 10
213.0915439551
 20
108.1555769935
 10
213.0523296868
 20
107.5814957887
 10
212.8613005256
 20
107.0307190686
 10
212.5287531739
 20
106.5329420537
 10
212.0726155912
 20
106.1149980098
 10
211.5174765562
 20
105.799421218
 10
210.8932669138
 20
105.6032194912
 10
210.2336353486
 20
105.5369763791
 10
209.5741434818
 20
105.6042569846
 10
208.9503473466
 20
105.8014384627
  0
LWPOLYLINE
  5
A8
330
1F
100
AcDbEntity
  8
0
  6
Continuous
 62
     7
370
    15
100
AcDbPolyline
 90
       26
 70
   128
 43
0.0
 10
209.1122056221
 20
106.0799188137
 10
208.5921793108
 20
106.3827588379
 10
208.1754552995
 20
106.7880834609
 10
207.8882167911
 20
107.2704247355
 10
207.7485128169
 20
107.7994764939
 10
207.7651201611
 20
108.3419942453
 10
207.9369976049
 20
108.8638915837
 10
208.2533455317
 20
109.3323747784
 10
208.69428393
 20
109.7180075169
 10
209.2321096783
 20
109.9965586483
 10
209.8330269431
 20
110.150526759
 10
210.4592799073
 20
110.1702363387
 10
211.0715183293
 20
110.0544505909
 10
211.6312711363
 20
109.810443145
 10
212.1033697253
 20
109.4535463646
 10
212.4581496095
 20
109.0061855659
 10
212.6733167892
 20
108.4964699268
 10
212.7353540485
 20
107.9564266994
 10
212.6403610086
 20
107.4199895531
 10
212.3943093096
 20
106.920863983
 10
212.0126570438
 20
106.4904104143
 10
211.5193857675
 20
106.1556800425
 10
210.9454880332
 20
105.9377021313
 10
210.3270265137
 20
105.8501727104
 10
209.7028597122
 20
105.8985921711
 10
209.1122056221
 20
106.0799188137
  0
ELLIPSE
  5
A9
330
1F
100
AcDbEntity
  8
0
  6
Continuous
 62
     7
370
    15
100
AcDbEllipse
 10
224.8075475194
 20
123.3638073474
 30
0.0
 11
1.574944762879738
 21
31.49727103316098
 31
0.0
210
0.0
220
0.0
230
1.0
 40
0.263265937
 41
0.6903211683826533
 42
2.826663766254842
  0
ELLIPSE
  5
AA
330
1F
100
AcDbEntity
  8
0
  6
Continuous
 62
     7
370
    15
100
AcDbEllipse
 10
219.5817237474
 20
104.8255025735
 30
0.0
 11
-0.2010024897830078
 21
3.237295024094621
 31
0.0
210
0.0
220
0.0
230
1.0
 40
0.2319071678
 41
0.0
 42
6.283185307179586
  0
SPLINE
  5
AB
330
1F
100
AcDbEntity
  8
0
  6
Continuous
 62
     7
370
    15
100
AcDbSpline
210
0.0
220
0.0
230
1.0
 70
     8
 71
     3
 72
    68
 73
    64
 74
     0
 42
0.00000001
 43
0.00000001
 12
1.0
 22
0.0
 32
0.0
 13
1.0
 23
0.0
 33
0.0
 40
-0.0624999999999997
 40
-0.0624999999999997
 40
0.0
 40
0.0
 40
0.0312500000000002
 40
0.0312500000000002
 40
0.0625000000000003
 40
0.0625000000000003
 40
0.0937500000000005
 40
0.0937500000000005
 40
0.1250000000000007
 40
0.1250000000000007
 40
0.1562500000000009
 40
0.1562500000000009
 40
0.1875000000000011
 40
0.1875000000000011
 40
0.2187500000000012
 40
0.2187500000000012
 40
0.2500000000000014
 40
0.2500000000000014
 40
0.2812500000000013
 40
0.2812500000000013
 40
0.3125000000000013
 40
0.3125000000000013
 40
0.3437500000000012
 40
0.3437500000000012
 40
0.3750000000000012
 40
0.3750000000000012
 40
0.4062500000000012
 40
0.4062500000000012
 40
0.4375000000000011
 40
0.4375000000000011
 40
0.4687500000000011
 40
0.4687500000000011
 40
0.500000000000001
 40
0.500000000000001
 40
0.531250000000001
 40
0.531250000000001
 40
0.5625000000000009
 40
0.5625000000000009
 40
0.5937500000000009
 40
0.5937500000000009
 40
0.6250000000000008
 40
0.6250000000000008
 40
0.6562500000000008
 40
0.6562500000000008
 40
0.6875000000000007
 40
0.6875000000000007
 40
0.7187500000000007
 40
0.7187500000000007
 40
0.7500000000000006
 40
0.7500000000000006
 40
0.7812500000000006
 40
0.7812500000000006
 40
0.8125000000000006
 40
0.8125000000000006
 40
0.8437500000000004
 40
0.8437500000000004
 40
0.8750000000000004
 40
0.8750000000000004
 40
0.9062500000000003
 40
0.9062500000000003
 40
0.9375000000000003
 40
0.9375000000000003
 40
1.0
 40
1.0
 40
1.03125
 40
1.03125
 10
210.6328617794196
 20
105.0873224157782
 30
0.0
 10
210.0379173488649
 20
105.0873224157782
 30
0.0
 10
209.8429391026153
 20
105.1032444693753
 30
0.0
 10
209.4593758774697
 20
105.1657174908235
 30
0.0
 10
209.2687951020074
 20
105.2130349639538
 30
0.0
 10
208.9055458152206
 20
105.3368229565295
 30
0.0
 10
208.7332790762247
 20
105.412690497149
 30
0.0
 10
208.4072573595168
 20
105.5925754450396
 30
0.0
 10
208.2529819927402
 20
105.6975088940522
 30
0.0
 10
207.9764190714891
 20
105.9277326553007
 30
0.0
 10
207.8522761811736
 20
106.0538234350969
 30
0.0
 10
207.6329614088027
 20
106.3290907048146
 30
0.0
 10
207.5398309533994
 20
106.4761965438818
 30
0.0
 10
207.3901766228733
 20
106.7821862063563
 30
0.0
 10
207.3325296528814
 20
106.9433330998399
 30
0.0
 10
207.255423091059
 20
107.2751386952686
 30
0.0
 10
207.2363393097156
 20
107.4428551211008
 30
0.0
 10
207.2361258996382
 20
107.7819274284365
 30
0.0
 10
207.2556211901377
 20
107.9550877527791
 30
0.0
 10
207.3321910646147
 20
108.2919459571263
 30
0.0
 10
207.3888443058239
 20
108.4565642429115
 30
0.0
 10
207.5391202566332
 20
108.7778479445071
 30
0.0
 10
207.6330039190457
 20
108.9338753501701
 30
0.0
 10
207.8500691191421
 20
109.2239255694417
 30
0.0
 10
207.9740003754169
 20
109.3597819696309
 30
0.0
 10
208.2539572205691
 20
109.6118973455046
 30
0.0
 10
208.405416371471
 20
109.7240246560473
 30
0.0
 10
208.7301493804187
 20
109.9208453521684
 30
0.0
 10
208.9055138192351
 20
110.0062647755109
 30
0.0
 10
209.2688308381348
 20
110.1433803094791
 30
0.0
 10
209.4558222911254
 20
110.1952087525191
 30
0.0
 10
209.8403937894821
 20
110.2653979329436
 30
0.0
 10
210.0393016426015
 20
110.2834091053631
 30
0.0
 10
210.4309650422981
 20
110.2835402038083
 30
0.0
 10
210.625672778685
 20
110.2662420250591
 30
0.0
 10
211.0127898423399
 20
110.1962269465648
 30
0.0
 10
211.2022608450669
 20
110.1437271847368
 30
0.0
 10
211.5633933430845
 20
110.0077760780588
 30
0.0
 10
211.7378125924448
 20
109.9233366934571
 30
0.0
 10
212.0660106302487
 20
109.7248869268492
 30
0.0
 10
212.2170888676992
 20
109.6128279407218
 30
0.0
 10
212.4939249607268
 20
109.3642087626419
 30
0.0
 10
212.6206887772393
 20
109.2259755846615
 30
0.0
 10
212.8386933153962
 20
108.9351279223858
 30
0.0
 10
212.9309744949263
 20
108.7820991219397
 30
0.0
 10
213.0818541820917
 20
108.4611322916828
 30
0.0
 10
213.1398006165617
 20
108.2933530602465
 30
0.0
 10
213.2164127989764
 20
107.9576452276273
 30
0.0
 10
213.2360408189918
 20
107.7879194711995
 30
0.0
 10
213.2364207422369
 20
107.4446765026251
 30
0.0
 10
213.2171084017323
 20
107.2764159409162
 30
0.0
 10
213.1411877850555
 20
106.9477543451915
 30
0.0
 10
213.0836820160895
 20
106.7854422154433
 30
0.0
 10
212.9333218695003
 20
106.4772047366228
 30
0.0
 10
212.841302581609
 20
106.3318615281027
 30
0.0
 10
212.6239585666189
 20
106.058056721074
 30
0.0
 10
212.4974391464873
 20
105.929055483849
 30
0.0
 10
212.2210055270276
 20
105.6986161007042
 30
0.0
 10
212.0701759369512
 20
105.5956582285095
 30
0.0
 10
211.7426643447111
 20
105.4142776882219
 30
0.0
 10
211.5681158116229
 20
105.3373850501406
 30
0.0
 10
211.0269109432513
 20
105.1524942574051
 30
0.0
 10
210.6328617794196
 20
105.0873224157782
 30
0.0
 10
210.0379173488649
 20
105.0873224157782
 30
0.0
  0
SPLINE
  5
AC
330
1F
100
AcDbEntity
  8
0
  6
Continuous
 62
     7
370
    15
100
AcDbSpline
210
0.0
220
0.0
230
1.0
 70
     8
 71
     3
 72
    12
 73
     8
 74
     0
 42
0.00000001
 43
0.00000001
 12
1.0
 22
0.0
 32
0.0
 13
1.0
 23
0.0
 33
0.0
 40
0.0
 40
0.0
 40
0.0
 40
0.0
 40
0.499999999999999
 40
0.499999999999999
 40
0.7499999999999994
 40
0.7499999999999994
 40
1.0
 40
1.0
 40
1.0
 40
1.0
 10
199.3309762707236
 20
133.2731766680916
 30
0.0
 10
199.3616985126427
 20
133.1606208686824
 30
0.0
 10
199.4045357271779
 20
133.0478630089428
 30
0.0
 10
199.5039627513777
 20
132.8983221231464
 30
0.0
 10
199.5437149461943
 20
132.8510293914396
 30
0.0
 10
199.6417564030525
 20
132.7772930981181
 30
0.0
 10
199.70131245864
 20
132.7518737787424
 30
0.0
 10
199.7639889726158
 20
132.7518737787424
 30
0.0
  0
LINE
  5
AD
330
1F
100
AcDbEntity
  8
0
  6
Continuous
 62
     7
370
    15
100
AcDbLine
 10
199.7639891555
 20
132.7518741757
 30
0.0
 11
202.7084753712
 21
132.7518741757
 31
0.0
  0
SPLINE
  5
AE
330
1F
100
AcDbEntity
  8
0
  6
Continuous
 62
     7
370
    15
100
AcDbSpline
210
0.0
220
0.0
230
1.0
 70
     8
 71
     3
 72
    12
 73
     8
 74
     0
 42
0.00000001
 43
0.00000001
 12
1.0
 22
0.0
 32
0.0
 13
1.0
 23
0.0
 33
0.0
 40
0.0
 40
0.0
 40
0.0
 40
0.0
 40
0.2500000000000005
 40
0.2500000000000005
 40
0.500000000000001
 40
0.500000000000001
 40
1.0
 40
1.0
 40
1.0
 40
1.0
 10
202.708475345483
 20
132.7518737787424
 30
0.0
 10
202.7715553839763
 20
132.7518737787424
 30
0.0
 10
202.8307040061577
 20
132.7772380979573
 30
0.0
 10
202.9291765562268
 20
132.8514029583302
 30
0.0
 10
202.9682131682115
 20
132.8979232988844
 30
0.0
 10
203.0681096349905
 20
133.0480656417296
 30
0.0
 10
203.1105305160572
 20
133.1597588487018
 30
0.0
 10
203.1414880473752
 20
133.2731766680915
 30
0.0
  0
ELLIPSE
  5
AF
330
1F
100
AcDbEntity
  8
0
  6
Continuous
 62
     7
370
    15
100
AcDbEllipse
 10
186.8890779697
 20
123.3638073474
 30
0.0
 11
14.75368316065604
 21
31.09325491558117
 31
0.0
210
0.0
220
0.0
230
1.0
 40
0.3419987131
 41
5.19328173740862
 42
6.124043104552322
  0
SPLINE
  5
B0
330
1F
100
AcDbEntity
  8
0
  6
Continuous
 62
     7
370
    15
100
AcDbSpline
210
0.0
220
0.0
230
1.0
 70
     8
 71
     3
 72
    12
 73
     8
 74
     0
 42
0.00000001
 43
0.00000001
 12
1.0
 22
0.0
 32
0.0
 13
1.0
 23
0.0
 33
0.0
 40
0.0
 40
0.0
 40
0.0
 40
0.0
 40
0.5
 40
0.5
 40
0.75
 40
0.75
 40
1.0
 40
1.0
 40
1.0
 40
1.0
 10
203.1414880473752
 20
153.2645498075237
 30
0.0
 10
203.1107658054561
 20
153.3018517904767
 30
0.0
 10
203.0679285909209
 20
153.3384636225231
 30
0.0
 10
202.9685015667211
 20
153.3862284058083
 30
0.0
 10
202.9287493719045
 20
153.4011859212907
 30
0.0
 10
202.8307079150462
 20
153.4243758670598
 30
0.0
 10
202.7711518594588
 20
153.4322993062795
 30
0.0
 10
202.708475345483
 20
153.4322993062795
 30
0.0
  0
LINE
  5
B1
330
1F
100
AcDbEntity
  8
0
  6
Continuous
 62
     7
370
    15
100
AcDbLine
 10
202.7084753712
 20
153.4322998643
 30
0.0
 11
199.7639891555
 21
153.4322998643
 31
0.0
  0
SPLINE
  5
B2
330
1F
100
AcDbEntity
  8
0
  6
Continuous
 62
     7
370
    15
100
AcDbSpline
210
0.0
220
0.0
230
1.0
 70
     8
 71
     3
 72
    12
 73
     8
 74
     0
 42
0.00000001
 43
0.00000001
 12
1.0
 22
0.0
 32
0.0
 13
1.0
 23
0.0
 33
0.0
 40
0.0
 40
0.0
 40
0.0
 40
0.0
 40
0.2500000000000014
 40
0.2500000000000014
 40
0.5000000000000028
 40
0.5000000000000028
 40
1.0
 40
1.0
 40
1.0
 40
1.0
 10
199.7639889726158
 20
153.4322993062796
 30
0.0
 10
199.7009089341225
 20
153.4322993062796
 30
0.0
 10
199.6417603119411
 20
153.4243933800671
 30
0.0
 10
199.543287761872
 20
153.4010682186308
 30
0.0
 10
199.5042511498873
 20
153.3863554287992
 30
0.0
 10
199.4043546831082
 20
153.3383996280682
 30
0.0
 10
199.3619338020416
 20
153.3021374714882
 30
0.0
 10
199.3309762707236
 20
153.2645498075237
 30
0.0
  0
ELLIPSE
  5
B3
330
1F
100
AcDbEntity
  8
0
  6
Continuous
 62
     7
370
    15
100
AcDbEllipse
 10
215.5833863484
 20
123.3638073474
 30
0.0
 11
-14.75368316065604
 21
31.09325491558116
 31
0.0
210
0.0
220
0.0
230
1.0
 40
0.3419987131
 41
0.1591422026273045
 42
1.089903569770978
  0
SPLINE
  5
B4
330
1F
100
AcDbEntity
  8
0
  6
Continuous
 62
     7
370
    15
100
AcDbSpline
210
0.0
220
0.0
230
1.0
 70
     8
 71
     3
 72
    12
 73
     8
 74
     0
 42
0.00000001
 43
0.00000001
 12
1.0
 22
0.0
 32
0.0
 13
1.0
 23
0.0
 33
0.0
 40
0.0
 40
0.0
 40
0.0
 40
0.0
 40
0.5000000000000047
 40
0.5000000000000047
 40
0.7500000000000023
 40
0.7500000000000023
 40
1.0
 40
1.0
 40
1.0
 40
1.0
 10
199.3309762707236
 20
93.46306488728924
 30
0.0
 10
199.3621214686857
 20
93.42524936436905
 30
0.0
 10
199.4043957350202
 20
93.38918250628545
 30
0.0
 10
199.5043412688455
 20
93.34122244127417
 30
0.0
 10
199.5440715735495
 20
93.32636146737651
 30
0.0
 10
199.6409596235557
 20
93.3034103212454
 30
0.0
 10
199.7010248653023
 20
93.29531538853334
 30
0.0
 10
199.7639889726158
 20
93.29531538853334
 30
0.0
  0
LINE
  5
B5
330
1F
100
AcDbEntity
  8
0
  6
Continuous
 62
     7
370
    15
100
AcDbLine
 10
199.7639891555
 20
93.2953148305
 30
0.0
 11
202.7084753712
 21
93.2953148305
 31
0.0
  0
SPLINE
  5
B6
330
1F
100
AcDbEntity
  8
0
  6
Continuous
 62
     7
370
    15
100
AcDbSpline
210
0.0
220
0.0
230
1.0
 70
     8
 71
     3
 72
    12
 73
     8
 74
     0
 42
0.00000001
 43
0.00000001
 12
1.0
 22
0.0
 32
0.0
 13
1.0
 23
0.0
 33
0.0
 40
0.0
 40
0.0
 40
0.0
 40
0.0
 40
0.2499999999999995
 40
0.2499999999999995
 40
0.499999999999999
 40
0.499999999999999
 40
1.0
 40
1.0
 40
1.0
 40
1.0
 10
202.708475345483
 20
93.2953153885334
 30
0.0
 10
202.7715323003807
 20
93.2953153885334
 30
0.0
 10
202.8306624501263
 20
93.30321571961295
 30
0.0
 10
202.9291100006596
 20
93.326526467618
 30
0.0
 10
202.9681422388477
 20
93.34123159390164
 30
0.0
 10
203.0680321233046
 20
93.38916512208829
 30
0.0
 10
203.110331096914
 20
93.42523509485301
 30
0.0
 10
203.1414880473752
 20
93.46306488728924
 30
0.0
  0
ELLIPSE
  5
B7
330
1F
100
AcDbEntity
  8
0
  6
Continuous
 62
     7
370
    15
100
AcDbEllipse
 10
186.8890779697
 20
123.3638073474
 30
0.0
 11
-14.75368316065618
 21
31.09325491558116
 31
0.0
210
0.0
220
0.0
230
1.0
 40
0.3419987131
 41
3.300734856217122
 42
4.231496223360773
  0
SPLINE
  5
B8
330
1F
100
AcDbEntity
  8
0
  6
Continuous
 62
     7
370
    15
100
AcDbSpline
210
0.0
220
0.0
230
1.0
 70
     8
 71
     3
 72
    12
 73
     8
 74
     0
 42
0.00000001
 43
0.00000001
 12
1.0
 22
0.0
 32
0.0
 13
1.0
 23
0.0
 33
0.0
 40
0.0
 40
0.0
 40
0.0
 40
0.0
 40
0.5000000000000009
 40
0.5000000000000009
 40
0.7500000000000004
 40
0.7500000000000004
 40
1.0
 40
1.0
 40
1.0
 40
1.0
 10
203.1414880473752
 20
113.4544380267211
 30
0.0
 10
203.1103428494131
 20
113.5685433925864
 30
0.0
 10
203.0680685830786
 20
113.6796497198052
 30
0.0
 10
202.9681230492533
 20
113.8298073272355
 30
0.0
 10
202.9283927445493
 20
113.8768000188528
 30
0.0
 10
202.8315046945431
 20
113.9497756033913
 30
0.0
 10
202.7714394527965
 20
113.9757409160703
 30
0.0
 10
202.708475345483
 20
113.9757409160703
 30
0.0
  0
LINE
  5
B9
330
1F
100
AcDbEntity
  8
0
  6
Continuous
 62
     7
370
    15
100
AcDbLine
 10
202.7084753712
 20
113.9757405192
 30
0.0
 11
199.7639891555
 21
113.9757405192
 31
0.0
  0
SPLINE
  5
BA
330
1F
100
AcDbEntity
  8
0
  6
Continuous
 62
     7
370
    15
100
AcDbSpline
210
0.0
220
0.0
230
1.0
 70
     8
 71
     3
 72
    12
 73
     8
 74
     0
 42
0.00000001
 43
0.00000001
 12
1.0
 22
0.0
 32
0.0
 13
1.0
 23
0.0
 33
0.0
 40
0.0
 40
0.0
 40
0.0
 40
0.0
 40
0.2500000000000023
 40
0.2500000000000023
 40
0.5000000000000047
 40
0.5000000000000047
 40
1.0
 40
1.0
 40
1.0
 40
1.0
 10
199.7639889726158
 20
113.9757409160702
 30
0.0
 10
199.700932017718
 20
113.9757409160702
 30
0.0
 10
199.6418018679724
 20
113.9503945626895
 30
0.0
 10
199.5433543174392
 20
113.87627518055
 30
0.0
 10
199.5043220792511
 20
113.829778665852
 30
0.0
 10
199.4044321947941
 20
113.6797041588434
 30
0.0
 10
199.3621332211848
 20
113.5685864497286
 30
0.0
 10
199.3309762707235
 20
113.4544380267211
 30
0.0
  0
ELLIPSE
  5
BB
330
1F
100
AcDbEntity
  8
0
  6
Continuous
 62
     7
370
    15
100
AcDbEllipse
 10
215.5833863484
 20
123.3638073474
 30
0.0
 11
14.75368316065618
 21
31.09325491558116
 31
0.0
210
0.0
220
0.0
230
1.0
 40
0.3419987131
 41
2.051689083818828
 42
2.982450450962504
  0
ELLIPSE
  5
BC
330
1F
100
AcDbEntity
  8
0
  6
Continuous
 62
     7
370
    15
100
AcDbEllipse
 10
296.8249498997
 20
123.3638073474
 30
0.0
 11
178.6426981535721
 21
5.639730005880695
 31
0.0
210
0.0
220
0.0
230
1.0
 40
0.1734804855
 41
1.970115083244813
 42
1.990610517256943
  0
SPLINE
  5
BD
330
1F
100
AcDbEntity
  8
0
  6
Continuous
 62
     7
370
    15
100
AcDbSpline
210
0.0
220
0.0
230
1.0
 70
     8
 71
     3
 72
    20
 73
    16
 74
     0
 42
0.00000001
 43
0.00000001
 12
1.0
 22
0.0
 32
0.0
 13
1.0
 23
0.0
 33
0.0
 40
0.0
 40
0.0
 40
0.0
 40
0.0
 40
0.2499999999999988
 40
0.2499999999999988
 40
0.374999999999999
 40
0.374999999999999
 40
0.4999999999999992
 40
0.4999999999999992
 40
0.6249999999999994
 40
0.6249999999999994
 40
0.7499999999999996
 40
0.7499999999999996
 40
0.8749999999999998
 40
0.8749999999999998
 40
1.0
 40
1.0
 40
1.0
 40
1.0
 10
220.7415744093531
 20
147.9135413600195
 30
0.0
 10
220.8107283307872
 20
148.0980760673715
 30
0.0
 10
220.9134603929873
 20
148.2706567843298
 30
0.0
 10
221.1214528691528
 20
148.512062745086
 30
0.0
 10
221.2006224127947
 20
148.5901376811901
 30
0.0
 10
221.3741061442971
 20
148.7360833406669
 30
0.0
 10
221.4685072446156
 20
148.8042875989898
 30
0.0
 10
221.6729853649064
 20
148.9313442998637
 30
0.0
 10
221.7830534894307
 20
148.9902005782785
 30
0.0
 10
222.0201719633203
 20
149.0982088012441
 30
0.0
 10
222.1462042551747
 20
149.1467382584069
 30
0.0
 10
222.4065480055801
 20
149.2305777580612
 30
0.0
 10
222.5417924344594
 20
149.2663328171102
 30
0.0
 10
222.8228015816864
 20
149.3253861257674
 30
0.0
 10
222.9694232620738
 20
149.3487328983224
 30
0.0
 10
223.1184073552196
 20
149.3650123852222
 30
0.0
  0
SPLINE
  5
BE
330
1F
100
AcDbEntity
  8
0
  6
Continuous
 62
     7
370
    15
100
AcDbSpline
210
0.0
220
0.0
230
1.0
 70
     8
 71
     3
 72
    12
 73
     8
 74
     0
 42
0.00000001
 43
0.00000001
 12
1.0
 22
0.0
 32
0.0
 13
1.0
 23
0.0
 33
0.0
 40
0.0
 40
0.0
 40
0.0
 40
0.0
 40
0.2499999999999999
 40
0.2499999999999999
 40
0.4999999999999998
 40
0.4999999999999998
 40
1.0
 40
1.0
 40
1.0
 40
1.0
 10
223.1184073552196
 20
92.84898186114205
 30
0.0
 10
222.8212892074211
 20
92.86325311399138
 30
0.0
 10
222.5418193281244
 20
92.889062982088
 30
0.0
 10
222.0162280444773
 20
92.96502664359846
 30
0.0
 10
221.780152086022
 20
93.01400751403371
 30
0.0
 10
221.1603207564778
 20
93.19367543879461
 30
0.0
 10
220.8796242811693
 20
93.35460241616336
 30
0.0
 10
220.7415744093531
 20
93.54405318953299
 30
0.0
  0
ELLIPSE
  5
BF
330
1F
100
AcDbEntity
  8
0
  6
Continuous
 62
     7
370
    15
100
AcDbEllipse
 10
296.8249498997
 20
123.3638073474
 30
0.0
 11
178.6426981535721
 21
5.639730005880695
 31
0.0
210
0.0
220
0.0
230
1.0
 40
0.1734804855
 41
4.281621380375494
 42
4.302116814387624
  0
LINE
  5
C0
330
1F
100
AcDbEntity
  8
0
  6
Continuous
 62
     7
370
    15
100
AcDbLine
 10
189.236232159
 20
92.363807854
 30
0.0
 11
189.236232159
 21
154.3638068408
 31
0.0
  0
SPLINE
  5
C1
330
1F
100
AcDbEntity
  8
0
  6
Continuous
 62
     7
370
    15
100
AcDbSpline
210
0.0
220
0.0
230
1.0
 70
     8
 71
     3
 72
    12
 73
     8
 74
     0
 42
0.00000001
 43
0.00000001
 12
1.0
 22
0.0
 32
0.0
 13
1.0
 23
0.0
 33
0.0
 40
0.0
 40
0.0
 40
0.0
 40
0.0
 40
0.5000000000000001
 40
0.5000000000000001
 40
0.7500000000000002
 40
0.7500000000000002
 40
1.0
 40
1.0
 40
1.0
 40
1.0
 10
188.4197198725929
 20
101.5090136449306
 30
0.0
 10
188.4761563735001
 20
101.5075957635889
 30
0.0
 10
188.5452410041888
 20
101.5060314273406
 30
0.0
 10
188.6640432759068
 20
101.5030872353662
 30
0.0
 10
188.7042285513769
 20
101.5020490322688
 30
0.0
 10
188.7776095987807
 20
101.5001151370541
 30
0.0
 10
188.8110191625233
 20
101.4992202497653
 30
0.0
 10
188.8412552701797
 20
101.498436459493
 30
0.0
  0
SPLINE
  5
C2
330
1F
100
AcDbEntity
  8
0
  6
Continuous
 62
     7
370
    15
100
AcDbSpline
210
0.0
220
0.0
230
1.0
 70
     8
 71
     3
 72
    16
 73
    12
 74
     0
 42
0.00000001
 43
0.00000001
 12
1.0
 22
0.0
 32
0.0
 13
1.0
 23
0.0
 33
0.0
 40
0.0
 40
0.0
 40
0.0
 40
0.0
 40
0.0624999999999981
 40
0.0624999999999981
 40
0.1249999999999963
 40
0.1249999999999963
 40
0.2499999999999979
 40
0.2499999999999979
 40
0.5000000000000011
 40
0.5000000000000011
 40
1.0
 40
1.0
 40
1.0
 40
1.0
 10
188.8412552701426
 20
101.4984364595172
 30
0.0
 10
188.8528356777305
 20
101.4981362684059
 30
0.0
 10
188.8661452044917
 20
101.4968085201469
 30
0.0
 10
188.8954466345779
 20
101.4901098453719
 30
0.0
 10
188.9102607344622
 20
101.4847516622662
 30
0.0
 10
188.9460891361651
 20
101.4677060130988
 30
0.0
 10
188.9602087605281
 20
101.4562434753231
 30
0.0
 10
188.9947129046166
 20
101.4246801499509
 30
0.0
 10
189.0058174553212
 20
101.4067828509056
 30
0.0
 10
189.0319936325374
 20
101.3566214332913
 30
0.0
 10
189.0362321590494
 20
101.3288770210948
 30
0.0
 10
189.0362321590494
 20
101.3042128591652
 30
0.0
  0
LINE
  5
C3
330
1F
100
AcDbEntity
  8
0
  6
Continuous
 62
     7
370
    15
100
AcDbLine
 10
189.0362321641
 20
116.3419201195
 30
0.0
 11
189.0362321641
 21
100.8239868253
 31
0.0
  0
SPLINE
  5
C4
330
1F
100
AcDbEntity
  8
0
  6
Continuous
 62
     7
370
    15
100
AcDbSpline
210
0.0
220
0.0
230
1.0
 70
     8
 71
     3
 72
    16
 73
    12
 74
     0
 42
0.00000001
 43
0.00000001
 12
1.0
 22
0.0
 32
0.0
 13
1.0
 23
0.0
 33
0.0
 40
0.0
 40
0.0
 40
0.0
 40
0.0
 40
0.5000000000000022
 40
0.5000000000000022
 40
0.7500000000000017
 40
0.7500000000000017
 40
0.8750000000000014
 40
0.8750000000000014
 40
0.9375000000000007
 40
0.9375000000000007
 40
1.0
 40
1.0
 40
1.0
 40
1.0
 10
189.0362321590494
 20
116.3419200216564
 30
0.0
 10
189.0362321590494
 20
116.4556125657843
 30
0.0
 10
189.0320858839714
 20
116.5699327271338
 30
0.0
 10
189.0061202885779
 20
116.7429810176309
 30
0.0
 10
188.9946593832005
 20
116.8021565247927
 30
0.0
 10
188.9603476454261
 20
116.8852796442608
 30
0.0
 10
188.9463229094965
 20
116.9134009603615
 30
0.0
 10
188.9102999464627
 20
116.9420167743389
 30
0.0
 10
188.895545437373
 20
116.9478098222407
 30
0.0
 10
188.8661932762262
 20
116.9462163963036
 30
0.0
 10
188.8528534017221
 20
116.9397199929798
 30
0.0
 10
188.8412552701737
 20
116.9312042467767
 30
0.0
  0
SPLINE
  5
C5
330
1F
100
AcDbEntity
  8
0
  6
Continuous
 62
     7
370
    15
100
AcDbSpline
210
0.0
220
0.0
230
1.0
 70
     8
 71
     3
 72
    12
 73
     8
 74
     0
 42
0.00000001
 43
0.00000001
 12
1.0
 22
0.0
 32
0.0
 13
1.0
 23
0.0
 33
0.0
 40
0.0
 40
0.0
 40
0.0
 40
0.0
 40
0.2499999999999997
 40
0.2499999999999997
 40
0.4999999999999997
 40
0.4999999999999997
 40
1.0
 40
1.0
 40
1.0
 40
1.0
 10
188.8412552701808
 20
116.9312042467676
 30
0.0
 10
188.8110568287402
 20
116.9090315147225
 30
0.0
 10
188.7776894734042
 20
116.8899518588453
 30
0.0
 10
188.7045341975743
 20
116.8647788144026
 30
0.0
 10
188.6642814985503
 20
116.8592222779858
 30
0.0
 10
188.5465527552755
 20
116.8701340889725
 30
0.0
 10
188.4760943072166
 20
116.9120698443834
 30
0.0
 10
188.4197198725983
 20
116.9612816267649
 30
0.0
  0
SPLINE
  5
C6
330
1F
100
AcDbEntity
  8
0
  6
Continuous
 62
     7
370
    15
100
AcDbSpline
210
0.0
220
0.0
230
1.0
 70
     8
 71
     3
 72
    12
 73
     8
 74
     0
 42
0.00000001
 43
0.00000001
 12
1.0
 22
0.0
 32
0.0
 13
1.0
 23
0.0
 33
0.0
 40
0.0
 40
0.0
 40
0.0
 40
0.0
 40
0.4999999999999987
 40
0.4999999999999987
 40
0.7499999999999993
 40
0.7499999999999993
 40
1.0
 40
1.0
 40
1.0
 40
1.0
 10
187.9149118154897
 20
118.1776330186455
 30
0.0
 10
187.9586621673742
 20
117.9571860336709
 30
0.0
 10
188.0115523184987
 20
117.7416410438653
 30
0.0
 10
188.1231638616404
 20
117.4292269672934
 30
0.0
 10
188.1657232055439
 20
117.3271474916775
 30
0.0
 10
188.2707004408813
 20
117.1327074790358
 30
0.0
 10
188.3322676839759
 20
117.0376225799721
 30
0.0
 10
188.4197198725983
 20
116.9612816267649
 30
0.0
  0
SPLINE
  5
C7
330
1F
100
AcDbEntity
  8
0
  6
Continuous
 62
     7
370
    15
100
AcDbSpline
210
0.0
220
0.0
230
1.0
 70
     8
 71
     3
 72
    12
 73
     8
 74
     0
 42
0.00000001
 43
0.00000001
 12
1.0
 22
0.0
 32
0.0
 13
1.0
 23
0.0
 33
0.0
 40
0.0
 40
0.0
 40
0.0
 40
0.0
 40
0.2500000000000003
 40
0.2500000000000003
 40
0.5000000000000007
 40
0.5000000000000007
 40
1.0
 40
1.0
 40
1.0
 40
1.0
 10
188.4197198725982
 20
129.7663330680481
 30
0.0
 10
188.3312264650303
 20
129.6890831879398
 30
0.0
 10
188.2711684242645
 20
129.5957638640506
 30
0.0
 10
188.1653201512818
 20
129.3997308110811
 30
0.0
 10
188.1227866300044
 20
129.2974044528694
 30
0.0
 10
188.0116353231807
 20
128.9860600470935
 30
0.0
 10
187.9587044661329
 20
128.7706417939155
 30
0.0
 10
187.9149118154897
 20
128.5499816761676
 30
0.0
  0
SPLINE
  5
C8
330
1F
100
AcDbEntity
  8
0
  6
Continuous
 62
     7
370
    15
100
AcDbSpline
210
0.0
220
0.0
230
1.0
 70
     8
 71
     3
 72
    12
 73
     8
 74
     0
 42
0.00000001
 43
0.00000001
 12
1.0
 22
0.0
 32
0.0
 13
1.0
 23
0.0
 33
0.0
 40
0.0
 40
0.0
 40
0.0
 40
0.0
 40
0.5
 40
0.5
 40
0.75
 40
0.75
 40
1.0
 40
1.0
 40
1.0
 40
1.0
 10
188.4197198725982
 20
129.7663330680481
 30
0.0
 10
188.4760284208938
 20
129.8154873352919
 30
0.0
 10
188.5463030816119
 20
129.8574446538957
 30
0.0
 10
188.6643409959355
 20
129.8684043314281
 30
0.0
 10
188.7045172367894
 20
129.8628955731807
 30
0.0
 10
188.7784743314674
 20
129.8373383443918
 30
0.0
 10
188.8110907191788
 20
129.8185582965525
 30
0.0
 10
188.8412552701745
 20
129.7964104480358
 30
0.0
  0
SPLINE
  5
C9
330
1F
100
AcDbEntity
  8
0
  6
Continuous
 62
     7
370
    15
100
AcDbSpline
210
0.0
220
0.0
230
1.0
 70
     8
 71
     3
 72
    16
 73
    12
 74
     0
 42
0.00000001
 43
0.00000001
 12
1.0
 22
0.0
 32
0.0
 13
1.0
 23
0.0
 33
0.0
 40
0.0
 40
0.0
 40
0.0
 40
0.0
 40
0.0625000000000017
 40
0.0625000000000017
 40
0.1250000000000035
 40
0.1250000000000035
 40
0.2500000000000039
 40
0.2500000000000039
 40
0.5000000000000014
 40
0.5000000000000014
 40
1.0
 40
1.0
 40
1.0
 40
1.0
 10
188.8412552701428
 20
129.7964104479813
 30
0.0
 10
188.8528681699821
 20
129.787883858386
 30
0.0
 10
188.8662193544146
 20
129.7813835968532
 30
0.0
 10
188.8956191940338
 20
129.7798141997357
 30
0.0
 10
188.9104599185891
 20
129.7856975903663
 30
0.0
 10
188.9462931265577
 20
129.8142452264168
 30
0.0
 10
188.9604063343793
 20
129.8424122457226
 30
0.0
 10
188.9948977055981
 20
129.9261665041446
 30
0.0
 10
189.0059817767085
 20
129.983879917766
 30
0.0
 10
189.0321045945045
 20
130.1574704544119
 30
0.0
 10
189.0362321590494
 20
130.2724985070538
 30
0.0
 10
189.0362321590494
 20
130.3856946731566
 30
0.0
  0
LINE
  5
CA
330
1F
100
AcDbEntity
  8
0
  6
Continuous
 62
     7
370
    15
100
AcDbLine
 10
189.0362321641
 20
145.9036278695
 30
0.0
 11
189.0362321641
 21
130.3856945753
 31
0.0
  0
SPLINE
  5
CB
330
1F
100
AcDbEntity
  8
0
  6
Continuous
 62
     7
370
    15
100
AcDbSpline
210
0.0
220
0.0
230
1.0
 70
     8
 71
     3
 72
    16
 73
    12
 74
     0
 42
0.00000001
 43
0.00000001
 12
1.0
 22
0.0
 32
0.0
 13
1.0
 23
0.0
 33
0.0
 40
0.0
 40
0.0
 40
0.0
 40
0.0
 40
0.5000000000000054
 40
0.5000000000000054
 40
0.7500000000000043
 40
0.7500000000000043
 40
0.875000000000004
 40
0.875000000000004
 40
0.937500000000002
 40
0.937500000000002
 40
1.0
 40
1.0
 40
1.0
 40
1.0
 10
189.0362321590494
 20
145.4234018356478
 30
0.0
 10
189.0362321590494
 20
145.3987306796049
 30
0.0
 10
189.0320664605894
 20
145.3711488482136
 30
0.0
 10
189.0058081322644
 20
145.3208059773903
 30
0.0
 10
188.9943043505268
 20
145.3025164793284
 30
0.0
 10
188.9601735911803
 20
145.2713614482914
 30
0.0
 10
188.9457517045096
 20
145.2597220730796
 30
0.0
 10
188.9101847360718
 20
145.2428400471485
 30
0.0
 10
188.8952329677771
 20
145.2374509433409
 30
0.0
 10
188.8662291494174
 20
145.2308304473964
 30
0.0
 10
188.8528137954082
 20
145.22947785919
 30
0.0
 10
188.8412552701716
 20
145.2291782353184
 30
0.0
  0
SPLINE
  5
CC
330
1F
100
AcDbEntity
  8
0
  6
Continuous
 62
     7
370
    15
100
AcDbSpline
210
0.0
220
0.0
230
1.0
 70
     8
 71
     3
 72
    12
 73
     8
 74
     0
 42
0.00000001
 43
0.00000001
 12
1.0
 22
0.0
 32
0.0
 13
1.0
 23
0.0
 33
0.0
 40
0.0
 40
0.0
 40
0.0
 40
0.0
 40
0.2499999999999996
 40
0.2499999999999996
 40
0.4999999999999994
 40
0.4999999999999994
 40
1.0
 40
1.0
 40
1.0
 40
1.0
 10
188.8412552701808
 20
145.2291782353201
 30
0.0
 10
188.8110674936312
 20
145.2283956979025
 30
0.0
 10
188.7777136895395
 20
145.227502366084
 30
0.0
 10
188.7045874863435
 20
145.2255750572804
 30
0.0
 10
188.6643522833193
 20
145.2245355260677
 30
0.0
 10
188.5466606531863
 20
145.2216176427205
 30
0.0
 10
188.4762799800262
 20
145.2200220366503
 30
0.0
 10
188.4197198725956
 20
145.2186010498824
 30
0.0
  0
SPLINE
  5
CD
330
1F
100
AcDbEntity
  8
0
  6
Continuous
 62
     7
370
    15
100
AcDbSpline
210
0.0
220
0.0
230
1.0
 70
     8
 71
     3
 72
    16
 73
    12
 74
     0
 42
0.00000001
 43
0.00000001
 12
1.0
 22
0.0
 32
0.0
 13
1.0
 23
0.0
 33
0.0
 40
0.0
 40
0.0
 40
0.0
 40
0.0
 40
0.2500000000000002
 40
0.2500000000000002
 40
0.3750000000000002
 40
0.3750000000000002
 40
0.5000000000000002
 40
0.5000000000000002
 40
0.7500000000000001
 40
0.7500000000000001
 40
1.0
 40
1.0
 40
1.0
 40
1.0
 10
187.9149118154897
 20
128.5499816761676
 30
0.0
 10
187.7536793380052
 20
127.7375719009208
 30
0.0
 10
187.6331994983656
 20
126.897493606536
 30
0.0
 10
187.5108189810523
 20
125.5961985571732
 30
0.0
 10
187.4798413206549
 20
125.1555175215885
 30
0.0
 10
187.4382275830269
 20
124.2596778806573
 30
0.0
 10
187.4279916700941
 20
123.8130197494549
 30
0.0
 10
187.427803273038
 20
122.477709792315
 30
0.0
 10
187.4679479756756
 20
121.5932144190075
 30
0.0
 10
187.6321017306151
 20
119.8359645309814
 30
0.0
 10
187.7536533810247
 20
118.9901735845683
 30
0.0
 10
187.9149118154897
 20
118.1776330186454
 30
0.0
  0
LINE
  5
CE
330
1F
100
AcDbEntity
  8
0
  6
Continuous
 62
     7
370
    15
100
AcDbLine
 10
187.036232171
 20
129.8489854827
 30
0.0
 11
187.036232171
 21
116.8786292121
 31
0.0
  0
LINE
  5
CF
330
1F
100
AcDbEntity
  8
0
  6
Continuous
 62
     7
370
    15
100
AcDbLine
 10
152.7362326955
 20
129.4181179412
 30
0.0
 11
152.7362326955
 21
117.3094967537
 31
0.0
  0
LINE
  5
D0
330
1F
100
AcDbEntity
  8
0
  6
Continuous
 62
     7
370
    15
100
AcDbLine
 10
151.2362333809
 20
128.985105098
 30
0.0
 11
151.2362333809
 21
117.7425095968
 31
0.0
  0
LINE
  5
D1
330
1F
100
AcDbEntity
  8
0
  6
Continuous
 62
     7
370
    15
100
AcDbLine
 10
152.7362326955
 20
102.2054436773
 30
0.0
 11
152.7362326955
 21
117.3094967537
 31
0.0
  0
LINE
  5
D2
330
1F
100
AcDbEntity
  8
0
  6
Continuous
 62
     7
370
    15
100
AcDbLine
 10
187.036232171
 20
101.3437076628
 30
0.0
 11
187.036232171
 21
116.8786292121
 31
0.0
  0
LINE
  5
D3
330
1F
100
AcDbEntity
  8
0
  6
Continuous
 62
     7
370
    15
100
AcDbLine
 10
152.7362326955
 20
102.2054436773
 30
0.0
 11
187.036232171
 21
101.3437076628
 31
0.0
  0
ARC
  5
D4
330
1F
100
AcDbEntity
  8
0
  6
Continuous
 62
     7
370
    15
100
AcDbCircle
 10
187.23616907
 20
101.3386854517
 30
0.0
 40
0.2000000000000055
100
AcDbArc
 50
88.5608333333
 51
178.5608333333
  0
LINE
  5
D5
330
1F
100
AcDbEntity
  8
0
  6
Continuous
 62
     7
370
    15
100
AcDbLine
 10
187.036232171
 20
129.8489854827
 30
0.0
 11
187.036232171
 21
145.383907032
 31
0.0
  0
ARC
  5
D6
330
1F
100
AcDbEntity
  8
0
  6
Continuous
 62
     7
370
    15
100
AcDbCircle
 10
187.23616907
 20
145.3889292431
 30
0.0
 40
0.2000000000000066
100
AcDbArc
 50
181.4391666667
 51
271.4391666667
  0
LINE
  5
D7
330
1F
100
AcDbEntity
  8
0
  6
Continuous
 62
     7
370
    15
100
AcDbLine
 10
152.7362326955
 20
129.4181179412
 30
0.0
 11
152.7362326955
 21
144.5221710175
 31
0.0
  0
LINE
  5
D8
330
1F
100
AcDbEntity
  8
0
  6
Continuous
 62
     7
370
    15
100
AcDbLine
 10
152.7362326955
 20
144.5221710175
 30
0.0
 11
187.036232171
 21
145.383907032
 31
0.0
  0
LINE
  5
D9
330
1F
100
AcDbEntity
  8
0
  6
Continuous
 62
     7
370
    15
100
AcDbLine
 10
187.2411922881
 20
145.188992393
 30
0.0
 11
188.4197198882
 21
145.2186010003
 31
0.0
  0
LINE
  5
DA
330
1F
100
AcDbEntity
  8
0
  6
Continuous
 62
     7
370
    15
100
AcDbLine
 10
187.2411922881
 20
101.5386223018
 30
0.0
 11
188.4197198882
 21
101.5090136945
 31
0.0
  0
LINE
  5
DB
330
1F
100
AcDbEntity
  8
0
  6
Continuous
 62
     7
370
    15
100
AcDbLine
 10
151.2362333809
 20
143.6561453313
 30
0.0
 11
152.7362326955
 21
144.5221710175
 31
0.0
  0
LINE
  5
DC
330
1F
100
AcDbEntity
  8
0
  6
Continuous
 62
     7
370
    15
100
AcDbLine
 10
151.2362333809
 20
128.985105098
 30
0.0
 11
151.2362333809
 21
143.6561453313
 31
0.0
  0
LINE
  5
DD
330
1F
100
AcDbEntity
  8
0
  6
Continuous
 62
     7
370
    15
100
AcDbLine
 10
151.2362333809
 20
103.0714693636
 30
0.0
 11
152.7362326955
 21
102.2054436773
 31
0.0
  0
LINE
  5
DE
330
1F
100
AcDbEntity
  8
0
  6
Continuous
 62
     7
370
    15
100
AcDbLine
 10
151.2362333809
 20
103.0714693636
 30
0.0
 11
151.2362333809
 21
117.7425095968
 31
0.0
  0
SPLINE
  5
DF
330
1F
100
AcDbEntity
  8
0
  6
Continuous
 62
     7
370
    15
100
AcDbSpline
210
0.0
220
0.0
230
1.0
 70
     8
 71
     3
 72
    12
 73
     8
 74
     0
 42
0.00000001
 43
0.00000001
 12
1.0
 22
0.0
 32
0.0
 13
1.0
 23
0.0
 33
0.0
 40
0.0
 40
0.0
 40
0.0
 40
0.0
 40
0.2499999999999915
 40
0.2499999999999915
 40
0.4999999999999891
 40
0.4999999999999891
 40
1.0
 40
1.0
 40
1.0
 40
1.0
 10
227.4348309973595
 20
91.8629886745281
 30
0.0
 10
227.406956797336
 20
91.97485142991397
 30
0.0
 10
227.3635353922935
 20
92.07947755257082
 30
0.0
 10
227.2464391608203
 20
92.27464798066282
 30
0.0
 10
227.1736538272906
 20
92.36285145883384
 30
0.0
 10
226.9200170078185
 20
92.58785419593868
 30
0.0
 10
226.7009998973073
 20
92.68504074042704
 30
0.0
 10
226.4689051710708
 20
92.69520230954909
 30
0.0
  0
SPLINE
  5
E0
330
1F
100
AcDbEntity
  8
0
  6
Continuous
 62
     7
370
    15
100
AcDbSpline
210
0.0
220
0.0
230
1.0
 70
     8
 71
     3
 72
    12
 73
     8
 74
     0
 42
0.00000001
 43
0.00000001
 12
1.0
 22
0.0
 32
0.0
 13
1.0
 23
0.0
 33
0.0
 40
0.0
 40
0.0
 40
0.0
 40
0.0
 40
0.2500000000000025
 40
0.2500000000000025
 40
0.500000000000005
 40
0.500000000000005
 40
1.0
 40
1.0
 40
1.0
 40
1.0
 10
226.4689051710704
 20
149.7239687763766
 30
0.0
 10
226.5610858415515
 20
149.7336495635055
 30
0.0
 10
226.6499201279722
 20
149.7563517586103
 30
0.0
 10
226.8215697193517
 20
149.8251771345168
 30
0.0
 10
226.9034440574837
 20
149.8713493232684
 30
0.0
 10
227.1270940386117
 20
150.0360370289056
 30
0.0
 10
227.2501043304274
 20
150.1828750951545
 30
0.0
 10
227.3349305748549
 20
150.3482061313037
 30
0.0
  0
ELLIPSE
  5
E1
330
1F
100
AcDbEntity
  8
0
  6
Continuous
 62
     7
370
    15
100
AcDbEllipse
 10
296.8249498997
 20
123.3638073474
 30
0.0
 11
181.4782965369622
 21
5.729249529783574
 31
0.0
210
0.0
220
0.0
230
1.0
 40
0.1734804855
 41
1.935472619481988
 42
1.95825871789982
  0
LINE
  5
E2
330
1F
100
AcDbEntity
  8
0
  6
Continuous
 62
     7
370
    15
100
AcDbLine
 10
231.1727265691
 20
150.7330904871
 30
0.0
 11
249.3928122198
 21
92.7930115878
 31
0.0
  0
LINE
  5
E3
330
1F
100
AcDbEntity
  8
0
  6
Continuous
 62
     7
370
    15
100
AcDbLine
 10
249.3928122198
 20
92.7930115878
 30
0.0
 11
235.1161251639
 21
96.9121470272
 31
0.0
  0
ARC
  5
E4
330
1F
100
AcDbEntity
  8
0
  6
Continuous
 62
     7
370
    15
100
AcDbCircle
 10
234.508166527
 20
94.9161222274
 30
0.0
 40
2.086559058821909
100
AcDbArc
 50
73.0600658569
 51
251.8614162153
  0
LINE
  5
E5
330
1F
100
AcDbEntity
  8
0
  6
Continuous
 62
     7
370
    15
100
AcDbLine
 10
233.8585863685
 20
92.9332520038
 30
0.0
 11
236.8069711005
 21
92.0825782388
 31
0.0
  0
LINE
  5
E6
330
1F
100
AcDbEntity
  8
0
  6
Continuous
 62
     7
370
    15
100
AcDbLine
 10
236.8069711005
 20
92.0825782388
 30
0.0
 11
239.5247789895
 21
83.4399196476
 31
0.0
  0
ELLIPSE
  5
E7
330
1F
100
AcDbEntity
  8
0
  6
Continuous
 62
     7
370
    15
100
AcDbEllipse
 10
279.8472000269
 20
111.7954301363
 30
0.0
 11
169.2855753305251
 21
-53.48856631298462
 31
0.0
210
0.0
220
0.0
230
1.0
 40
0.2239254004
 41
4.475900728467486
 42
4.543132152177776
  0
SPLINE
  5
E8
330
1F
100
AcDbEntity
  8
0
  6
Continuous
 62
     7
370
    15
100
AcDbSpline
210
0.0
220
0.0
230
1.0
 70
     8
 71
     3
 72
     8
 73
     4
 74
     0
 42
0.00000001
 43
0.00000001
 12
1.0
 22
0.0
 32
0.0
 13
1.0
 23
0.0
 33
0.0
 40
0.0
 40
0.0
 40
0.0
 40
0.0
 40
1.0
 40
1.0
 40
1.0
 40
1.0
 10
228.5411930166982
 20
87.47501505826415
 30
0.0
 10
228.1688274971505
 20
88.9366527814864
 30
0.0
 10
227.7995856952131
 20
90.39918108516673
 30
0.0
 10
227.4348309973595
 20
91.86298867452808
 30
0.0
  0
LWPOLYLINE
  5
E9
330
1F
100
AcDbEntity
  8
0
  6
Continuous
 62
     7
370
    15
100
AcDbPolyline
 90
       31
 70
   128
 43
0.0
 10
242.4640106832
 20
101.5754095435
 10
242.3667917823
 20
100.85843831
 10
242.1232472037
 20
100.1728023559
 10
241.7440275525
 20
99.5484660536
 10
241.2456991946
 20
99.0127171546
 10
240.6500476276
 20
98.5889709711
 10
239.9831014549
 20
98.2957459211
 10
239.2740073477
 20
98.1458570033
 10
238.5537634467
 20
98.1458570033
 10
237.8538410043
 20
98.2957459211
 10
237.2048358296
 20
98.5889709711
 10
236.6351048326
 20
99.0127171546
 10
236.169555304
 20
99.5484660536
 10
235.8285310542
 20
100.1728023559
 10
235.6269369697
 20
100.85843831
 10
235.573583362
 20
101.5754095435
 10
235.6708022629
 20
102.292380777
 10
235.9143431162
 20
102.9780167311
 10
236.2935664927
 20
103.6023530334
 10
236.7918911254
 20
104.1381019324
 10
237.3875464176
 20
104.5618481159
 10
238.0544925903
 20
104.8550731659
 10
238.7635829722
 20
105.004960221
 10
239.4838305985
 20
105.004960221
 10
240.1837493157
 20
104.8550731659
 10
240.8327582156
 20
104.5618481159
 10
241.4024854874
 20
104.1381019324
 10
241.868035016
 20
103.6023530334
 10
242.2090592658
 20
102.9780167311
 10
242.4106533503
 20
102.292380777
 10
242.4640106832
 20
101.5754095435
  0
LINE
  5
EA
330
1F
100
AcDbEntity
  8
0
  6
Continuous
 62
     7
370
    15
100
AcDbLine
 10
227.3349287783
 20
150.348206532
 30
0.0
 11
227.3349287783
 21
155.3638088673
 31
0.0
  0
ELLIPSE
  5
EB
330
1F
100
AcDbEntity
  8
0
  6
Continuous
 62
     7
370
    15
100
AcDbEllipse
 10
238.5667145356
 20
123.3638073474
 30
0.0
 11
-11.07892454872112
 21
31.97838338560524
 31
0.0
210
0.0
220
0.0
230
1.0
 40
0.1061482562
 41
5.701740840807781
 42
6.246426763467932
  0
SPLINE
  5
EC
330
1F
100
AcDbEntity
  8
0
  6
Continuous
 62
     7
370
    15
100
AcDbSpline
210
0.0
220
0.0
230
1.0
 70
     8
 71
     3
 72
     9
 73
     5
 74
     0
 42
0.00000001
 43
0.00000001
 12
1.0
 22
0.0
 32
0.0
 13
1.0
 23
0.0
 33
0.0
 40
0.0
 40
0.0
 40
0.0
 40
0.0
 40
0.4560354917156372
 40
1.0
 40
1.0
 40
1.0
 40
1.0
 10
228.4894781982015
 20
87.2125993639127
 30
0.0
 10
228.4965768981346
 20
87.19224081860003
 30
0.0
 10
228.5121430109963
 20
87.14759836054026
 30
0.0
 10
228.5309579947428
 20
87.35966146226306
 30
0.0
 10
228.5411926781248
 20
87.47501626311696
 30
0.0
  0
LINE
  5
ED
330
1F
100
AcDbEntity
  8
0
  6
Continuous
 62
     7
370
    15
100
AcDbLine
 10
235.2059344625
 20
93.6592924565
 30
0.0
 11
232.4601272916
 21
94.4515164167
 31
0.0
  0
LINE
  5
EE
330
1F
100
AcDbEntity
  8
0
  6
Continuous
 62
     7
370
    15
100
AcDbLine
 10
235.2059344625
 20
93.6592924565
 30
0.0
 11
236.8069711005
 21
92.0825782388
 31
0.0
  0
ELLIPSE
  5
EF
330
1F
100
AcDbEntity
  8
0
  6
Continuous
 62
     7
370
    15
100
AcDbEllipse
 10
222.8472920068
 20
131.4220724226
 30
0.0
 11
-16.73790244551526
 21
47.96626505218669
 31
0.0
210
0.0
220
0.0
230
1.0
 40
0.0882384119
 41
3.072176484096433
 42
3.127699288489847
  0
SPLINE
  5
F0
330
1F
100
AcDbEntity
  8
0
  6
HIDDEN
 62
     7
370
     0
100
AcDbSpline
210
0.0
220
0.0
230
1.0
 70
     8
 71
     3
 72
    60
 73
    56
 74
     0
 42
0.00000001
 43
0.00000001
 12
1.0
 22
0.0
 32
0.0
 13
1.0
 23
0.0
 33
0.0
 40
-0.0625000000000001
 40
-0.0625000000000001
 40
0.0
 40
0.0
 40
0.03125
 40
0.03125
 40
0.0625000000000001
 40
0.0625000000000001
 40
0.0937500000000002
 40
0.0937500000000002
 40
0.1250000000000002
 40
0.1250000000000002
 40
0.1875000000000003
 40
0.1875000000000003
 40
0.2500000000000004
 40
0.2500000000000004
 40
0.2812500000000004
 40
0.2812500000000004
 40
0.3125000000000005
 40
0.3125000000000005
 40
0.3437500000000005
 40
0.3437500000000005
 40
0.3750000000000006
 40
0.3750000000000006
 40
0.4062500000000006
 40
0.4062500000000006
 40
0.4375000000000007
 40
0.4375000000000007
 40
0.4687500000000007
 40
0.4687500000000007
 40
0.5000000000000007
 40
0.5000000000000007
 40
0.5625000000000007
 40
0.5625000000000007
 40
0.6250000000000006
 40
0.6250000000000006
 40
0.6562500000000006
 40
0.6562500000000006
 40
0.6875000000000004
 40
0.6875000000000004
 40
0.7187500000000004
 40
0.7187500000000004
 40
0.7500000000000003
 40
0.7500000000000003
 40
0.7812500000000002
 40
0.7812500000000002
 40
0.8125000000000002
 40
0.8125000000000002
 40
0.8437500000000001
 40
0.8437500000000001
 40
0.875
 40
0.875
 40
0.90625
 40
0.90625
 40
0.9374999999999999
 40
0.9374999999999999
 40
1.0
 40
1.0
 40
1.03125
 40
1.03125
 10
199.2362321590494
 20
123.6281378724932
 30
0.0
 10
199.2362321590494
 20
123.2316420848632
 30
0.0
 10
199.2492040175382
 20
123.101692023859
 30
0.0
 10
199.3000241872306
 20
122.8460390904989
 30
0.0
 10
199.3384915106975
 20
122.7190095839496
 30
0.0
 10
199.4388897467696
 20
122.4768214528251
 30
0.0
 10
199.5003227777428
 20
122.3619599602722
 30
0.0
 10
199.6454576092877
 20
122.1445797644481
 30
0.0
 10
199.7299127266956
 20
122.0416821972495
 30
0.0
 10
200.0066321770539
 20
121.7650151582417
 30
0.0
 10
200.229709068972
 20
121.6160170677617
 30
0.0
 10
200.7109924311923
 20
121.416505927297
 30
0.0
 10
200.9742228501833
 20
121.3639478243003
 30
0.0
 10
201.3656250518712
 20
121.3637375419222
 30
0.0
 10
201.4981480799801
 20
121.3767233126494
 30
0.0
 10
201.7546785332211
 20
121.4277504608632
 30
0.0
 10
201.8793653675177
 20
121.4655056600136
 30
0.0
 10
202.1215446297533
 20
121.5656439929223
 30
0.0
 10
202.2386381619033
 20
121.6282496603339
 30
0.0
 10
202.4553531652587
 20
121.7729829535988
 30
0.0
 10
202.5563719921215
 20
121.8556103008784
 30
0.0
 10
202.7431568795736
 20
122.0422153541299
 30
0.0
 10
202.8260137607698
 20
122.1433304180061
 30
0.0
 10
202.9708980258436
 20
122.359863221996
 30
0.0
 10
203.0335355336646
 20
122.4767334295971
 30
0.0
 10
203.1339843570644
 20
122.7190313002473
 30
0.0
 10
203.1718354580816
 20
122.8436952987082
 30
0.0
 10
203.2230570233379
 20
123.0999823427721
 30
0.0
 10
203.2361851499552
 20
123.2325543385177
 30
0.0
 10
203.2363257902954
 20
123.6241585312917
 30
0.0
 10
203.1840010409235
 20
123.8873238626156
 30
0.0
 10
202.9848899788663
 20
124.3688292317888
 30
0.0
 10
202.8360276424091
 20
124.5920807712729
 30
0.0
 10
202.5597066830835
 20
124.8689370701617
 30
0.0
 10
202.45694303471
 20
124.9534505170054
 30
0.0
 10
202.2395594773305
 20
125.0988677904457
 30
0.0
 10
202.1247607093741
 20
125.1603789895041
 30
0.0
 10
201.8828839859501
 20
125.2609088377589
 30
0.0
 10
201.7557303779498
 20
125.2995538609769
 30
0.0
 10
201.5000643685172
 20
125.3506101885279
 30
0.0
 10
201.3701983307612
 20
125.3636750470735
 30
0.0
 10
201.1062458040296
 20
125.3639376678714
 30
0.0
 10
200.9758414806055
 20
125.3510606676274
 30
0.0
 10
200.7201907172262
 20
125.3004746638216
 30
0.0
 10
200.5933251681118
 20
125.2621982991998
 30
0.0
 10
200.3508047101659
 20
125.1619274317197
 30
0.0
 10
200.2358780715056
 20
125.1005714075789
 30
0.0
 10
200.0185066026736
 20
124.9557251124061
 30
0.0
 10
199.9154927900114
 20
124.8713475979114
 30
0.0
 10
199.7307922444294
 20
124.6869402777232
 30
0.0
 10
199.6479625101728
 20
124.5863672144537
 30
0.0
 10
199.5017100715753
 20
124.3681410738747
 30
0.0
 10
199.4393415907829
 20
124.2515859639535
 30
0.0
 10
199.2893854392162
 20
123.8907363699197
 30
0.0
 10
199.2362321590494
 20
123.6281378724932
 30
0.0
 10
199.2362321590494
 20
123.2316420848632
 30
0.0
  0
SPLINE
  5
F1
330
1F
100
AcDbEntity
  8
0
  6
HIDDEN
 62
     7
370
     0
100
AcDbSpline
210
0.0
220
0.0
230
1.0
 70
     8
 71
     3
 72
    12
 73
     8
 74
     0
 42
0.00000001
 43
0.00000001
 12
1.0
 22
0.0
 32
0.0
 13
1.0
 23
0.0
 33
0.0
 40
0.0
 40
0.0
 40
0.0
 40
0.0
 40
0.4999999999999936
 40
0.4999999999999936
 40
0.7499999999999968
 40
0.7499999999999968
 40
1.0
 40
1.0
 40
1.0
 40
1.0
 10
199.3309762707236
 20
113.4544380267213
 30
0.0
 10
199.3616985126427
 20
113.5669938261305
 30
0.0
 10
199.4045357271779
 20
113.6797516858701
 30
0.0
 10
199.5039627513777
 20
113.8292925716664
 30
0.0
 10
199.5437149461943
 20
113.8765853033732
 30
0.0
 10
199.6417564030525
 20
113.9503215966947
 30
0.0
 10
199.70131245864
 20
113.9757409160705
 30
0.0
 10
199.7639889726158
 20
113.9757409160704
 30
0.0
  0
LINE
  5
F2
330
1F
100
AcDbEntity
  8
0
  6
HIDDEN
 62
     7
370
     0
100
AcDbLine
 10
199.7639891555
 20
113.9757405192
 30
0.0
 11
202.7084753712
 21
113.9757405192
 31
0.0
  0
SPLINE
  5
F3
330
1F
100
AcDbEntity
  8
0
  6
HIDDEN
 62
     7
370
     0
100
AcDbSpline
210
0.0
220
0.0
230
1.0
 70
     8
 71
     3
 72
    12
 73
     8
 74
     0
 42
0.00000001
 43
0.00000001
 12
1.0
 22
0.0
 32
0.0
 13
1.0
 23
0.0
 33
0.0
 40
0.0
 40
0.0
 40
0.0
 40
0.0
 40
0.25
 40
0.25
 40
0.5
 40
0.5
 40
1.0
 40
1.0
 40
1.0
 40
1.0
 10
202.708475345483
 20
113.9757409160704
 30
0.0
 10
202.7715553839763
 20
113.9757409160704
 30
0.0
 10
202.8307040061577
 20
113.9503765968555
 30
0.0
 10
202.9291765562268
 20
113.8762117364826
 30
0.0
 10
202.9682131682115
 20
113.8296913959285
 30
0.0
 10
203.0681096349905
 20
113.6795490530832
 30
0.0
 10
203.1105305160571
 20
113.5678558461111
 30
0.0
 10
203.1414880473751
 20
113.4544380267213
 30
0.0
  0
ELLIPSE
  5
F4
330
1F
100
AcDbEntity
  8
0
  6
HIDDEN
 62
     7
370
     0
100
AcDbEllipse
 10
186.8890779697
 20
123.3638073474
 30
0.0
 11
-14.7536831606561
 21
31.09325491558119
 31
0.0
210
0.0
220
0.0
230
1.0
 40
0.3419987131
 41
3.300734856217133
 42
4.231496223360782
  0
SPLINE
  5
F5
330
1F
100
AcDbEntity
  8
0
  6
HIDDEN
 62
     7
370
     0
100
AcDbSpline
210
0.0
220
0.0
230
1.0
 70
     8
 71
     3
 72
    12
 73
     8
 74
     0
 42
0.00000001
 43
0.00000001
 12
1.0
 22
0.0
 32
0.0
 13
1.0
 23
0.0
 33
0.0
 40
0.0
 40
0.0
 40
0.0
 40
0.0
 40
0.4999999999999971
 40
0.4999999999999971
 40
0.7499999999999986
 40
0.7499999999999986
 40
1.0
 40
1.0
 40
1.0
 40
1.0
 10
203.1414880473751
 20
93.46306488728932
 30
0.0
 10
203.1107658054561
 20
93.42576290433628
 30
0.0
 10
203.0679285909209
 20
93.38915107228989
 30
0.0
 10
202.9685015667211
 20
93.34138628900467
 30
0.0
 10
202.9287493719044
 20
93.32642877352232
 30
0.0
 10
202.8307079150462
 20
93.30323882775318
 30
0.0
 10
202.7711518594588
 20
93.29531538853344
 30
0.0
 10
202.708475345483
 20
93.29531538853344
 30
0.0
  0
LINE
  5
F6
330
1F
100
AcDbEntity
  8
0
  6
HIDDEN
 62
     7
370
     0
100
AcDbLine
 10
202.7084753712
 20
93.2953148305
 30
0.0
 11
199.7639891555
 21
93.2953148305
 31
0.0
  0
SPLINE
  5
F7
330
1F
100
AcDbEntity
  8
0
  6
HIDDEN
 62
     7
370
     0
100
AcDbSpline
210
0.0
220
0.0
230
1.0
 70
     8
 71
     3
 72
    12
 73
     8
 74
     0
 42
0.00000001
 43
0.00000001
 12
1.0
 22
0.0
 32
0.0
 13
1.0
 23
0.0
 33
0.0
 40
0.0
 40
0.0
 40
0.0
 40
0.0
 40
0.2500000000000009
 40
0.2500000000000009
 40
0.5000000000000019
 40
0.5000000000000019
 40
1.0
 40
1.0
 40
1.0
 40
1.0
 10
199.7639889726158
 20
93.29531538853344
 30
0.0
 10
199.7009089341225
 20
93.29531538853344
 30
0.0
 10
199.6417603119411
 20
93.30322131474591
 30
0.0
 10
199.543287761872
 20
93.32654647618214
 30
0.0
 10
199.5042511498873
 20
93.34125926601384
 30
0.0
 10
199.4043546831082
 20
93.38921506674475
 30
0.0
 10
199.3619338020416
 20
93.42547722332482
 30
0.0
 10
199.3309762707236
 20
93.4630648872893
 30
0.0
  0
ELLIPSE
  5
F8
330
1F
100
AcDbEntity
  8
0
  6
HIDDEN
 62
     7
370
     0
100
AcDbEllipse
 10
215.5833863484
 20
123.3638073474
 30
0.0
 11
14.7536831606561
 21
31.09325491558116
 31
0.0
210
0.0
220
0.0
230
1.0
 40
0.3419987131
 41
2.05168908381882
 42
2.982450450962495
  0
SPLINE
  5
F9
330
1F
100
AcDbEntity
  8
0
  6
HIDDEN
 62
     7
370
     0
100
AcDbSpline
210
0.0
220
0.0
230
1.0
 70
     8
 71
     3
 72
    12
 73
     8
 74
     0
 42
0.00000001
 43
0.00000001
 12
1.0
 22
0.0
 32
0.0
 13
1.0
 23
0.0
 33
0.0
 40
0.0
 40
0.0
 40
0.0
 40
0.0
 40
0.5000000000000028
 40
0.5000000000000028
 40
0.7500000000000013
 40
0.7500000000000013
 40
1.0
 40
1.0
 40
1.0
 40
1.0
 10
199.3309762707236
 20
153.2645498075238
 30
0.0
 10
199.3616985126427
 20
153.3018517904769
 30
0.0
 10
199.4045357271779
 20
153.3384636225233
 30
0.0
 10
199.5039627513777
 20
153.3862284058085
 30
0.0
 10
199.5437149461943
 20
153.4011859212909
 30
0.0
 10
199.6417564030525
 20
153.42437586706
 30
0.0
 10
199.70131245864
 20
153.4322993062797
 30
0.0
 10
199.7639889726158
 20
153.4322993062797
 30
0.0
  0
LINE
  5
FA
330
1F
100
AcDbEntity
  8
0
  6
HIDDEN
 62
     7
370
     0
100
AcDbLine
 10
199.7639891555
 20
153.4322998643
 30
0.0
 11
202.7084753712
 21
153.4322998643
 31
0.0
  0
SPLINE
  5
FB
330
1F
100
AcDbEntity
  8
0
  6
HIDDEN
 62
     7
370
     0
100
AcDbSpline
210
0.0
220
0.0
230
1.0
 70
     8
 71
     3
 72
    12
 73
     8
 74
     0
 42
0.00000001
 43
0.00000001
 12
1.0
 22
0.0
 32
0.0
 13
1.0
 23
0.0
 33
0.0
 40
0.0
 40
0.0
 40
0.0
 40
0.0
 40
0.2500000000000009
 40
0.2500000000000009
 40
0.5000000000000019
 40
0.5000000000000019
 40
1.0
 40
1.0
 40
1.0
 40
1.0
 10
202.708475345483
 20
153.4322993062797
 30
0.0
 10
202.7715553839763
 20
153.4322993062797
 30
0.0
 10
202.8307040061577
 20
153.4243933800673
 30
0.0
 10
202.9291765562268
 20
153.401068218631
 30
0.0
 10
202.9682131682115
 20
153.3863554287994
 30
0.0
 10
203.0681096349905
 20
153.3383996280684
 30
0.0
 10
203.1105305160572
 20
153.3021374714884
 30
0.0
 10
203.1414880473752
 20
153.2645498075239
 30
0.0
  0
ELLIPSE
  5
FC
330
1F
100
AcDbEntity
  8
0
  6
HIDDEN
 62
     7
370
     0
100
AcDbEllipse
 10
186.8890779697
 20
123.3638073474
 30
0.0
 11
14.75368316065624
 21
31.09325491558116
 31
0.0
210
0.0
220
0.0
230
1.0
 40
0.3419987131
 41
5.193281737408639
 42
6.124043104552341
  0
SPLINE
  5
FD
330
1F
100
AcDbEntity
  8
0
  6
HIDDEN
 62
     7
370
     0
100
AcDbSpline
210
0.0
220
0.0
230
1.0
 70
     8
 71
     3
 72
    12
 73
     8
 74
     0
 42
0.00000001
 43
0.00000001
 12
1.0
 22
0.0
 32
0.0
 13
1.0
 23
0.0
 33
0.0
 40
0.0
 40
0.0
 40
0.0
 40
0.0
 40
0.5
 40
0.5
 40
0.75
 40
0.75
 40
1.0
 40
1.0
 40
1.0
 40
1.0
 10
203.1414880473752
 20
133.2731766680921
 30
0.0
 10
203.1107658054561
 20
133.160620868683
 30
0.0
 10
203.0679285909209
 20
133.0478630089434
 30
0.0
 10
202.9685015667211
 20
132.898322123147
 30
0.0
 10
202.9287493719044
 20
132.8510293914402
 30
0.0
 10
202.8307079150462
 20
132.7772930981187
 30
0.0
 10
202.7711518594588
 20
132.751873778743
 30
0.0
 10
202.708475345483
 20
132.751873778743
 30
0.0
  0
LINE
  5
FE
330
1F
100
AcDbEntity
  8
0
  6
HIDDEN
 62
     7
370
     0
100
AcDbLine
 10
202.7084753712
 20
132.7518741757
 30
0.0
 11
199.7639891555
 21
132.7518741757
 31
0.0
  0
SPLINE
  5
FF
330
1F
100
AcDbEntity
  8
0
  6
HIDDEN
 62
     7
370
     0
100
AcDbSpline
210
0.0
220
0.0
230
1.0
 70
     8
 71
     3
 72
    12
 73
     8
 74
     0
 42
0.00000001
 43
0.00000001
 12
1.0
 22
0.0
 32
0.0
 13
1.0
 23
0.0
 33
0.0
 40
0.0
 40
0.0
 40
0.0
 40
0.0
 40
0.25
 40
0.25
 40
0.5
 40
0.5
 40
1.0
 40
1.0
 40
1.0
 40
1.0
 10
199.7639889726158
 20
132.751873778743
 30
0.0
 10
199.7009089341225
 20
132.751873778743
 30
0.0
 10
199.6417603119411
 20
132.777238097958
 30
0.0
 10
199.543287761872
 20
132.8514029583309
 30
0.0
 10
199.5042511498873
 20
132.897923298885
 30
0.0
 10
199.4043546831082
 20
133.0480656417302
 30
0.0
 10
199.3619338020416
 20
133.1597588487024
 30
0.0
 10
199.3309762707236
 20
133.2731766680921
 30
0.0
  0
ELLIPSE
  5
100
330
1F
100
AcDbEntity
  8
0
  6
HIDDEN
 62
     7
370
     0
100
AcDbEllipse
 10
215.5833863484
 20
123.3638073474
 30
0.0
 11
-14.75368316065624
 21
31.09325491558116
 31
0.0
210
0.0
220
0.0
230
1.0
 40
0.3419987131
 41
0.1591422026272858
 42
1.089903569770962
  0
LINE
  5
101
330
1F
100
AcDbEntity
  8
0
  6
HIDDEN
 62
     7
370
     0
100
AcDbLine
 10
189.236232159
 20
154.3638068408
 30
0.0
 11
189.236232159
 21
92.363807854
 31
0.0
  0
LWPOLYLINE
  5
102
330
1F
100
AcDbEntity
  8
0
  6
HIDDEN
 62
     7
370
     0
100
AcDbPolyline
 90
       20
 70
   128
 43
0.0
 10
212.7915016239
 20
112.4750371247
 10
212.3742542093
 20
112.9363454103
 10
211.8482450818
 20
113.3049405336
 10
211.2402292763
 20
113.5620703146
 10
210.5811416035
 20
113.6946561903
 10
209.9045059507
 20
113.69595166
 10
209.2447477256
 20
113.5658915311
 10
208.6354262059
 20
113.3110928506
 10
208.1075376695
 20
112.9445168346
 10
207.687937734
 20
112.4848104238
 10
207.3979723131
 20
111.9553609908
 10
207.2523916935
 20
111.3831005216
 10
207.2585998898
 20
110.7971412286
 10
207.4162821149
 20
110.2272910222
 10
207.7174178188
 20
109.7025382489
 10
208.1466867452
 20
109.2495783389
 10
208.682253105
 20
108.8914522126
 10
209.2968719875
 20
108.6463793337
 10
209.9592751687
 20
108.5268263861
 10
210.6357692604
 20
108.5388749063
  0
SPLINE
  5
103
330
1F
100
AcDbEntity
  8
0
  6
HIDDEN
 62
     7
370
     0
100
AcDbSpline
210
0.0
220
0.0
230
1.0
 70
     8
 71
     3
 72
    26
 73
    22
 74
     0
 42
0.00000001
 43
0.00000001
 12
1.0
 22
0.0
 32
0.0
 13
1.0
 23
0.0
 33
0.0
 40
0.0
 40
0.0
 40
0.0
 40
0.0
 40
0.1250000000000009
 40
0.1250000000000009
 40
0.2500000000000018
 40
0.2500000000000018
 40
0.3125000000000019
 40
0.3125000000000019
 40
0.3750000000000021
 40
0.3750000000000021
 40
0.5000000000000021
 40
0.5000000000000021
 40
0.5625000000000019
 40
0.5625000000000019
 40
0.6250000000000017
 40
0.6250000000000017
 40
0.7500000000000011
 40
0.7500000000000011
 40
0.8750000000000007
 40
0.8750000000000007
 40
1.0
 40
1.0
 40
1.0
 40
1.0
 10
212.7915023203099
 20
112.475036865978
 30
0.0
 10
212.9022619029829
 20
112.2098646231397
 30
0.0
 10
213.0011447823468
 20
111.9339813386371
 30
0.0
 10
213.1518976096805
 20
111.3602554290525
 30
0.0
 10
213.2047645496772
 20
111.0605881248457
 30
0.0
 10
213.2364058890164
 20
110.6111300032445
 30
0.0
 10
213.2392161690877
 20
110.4605878392112
 30
0.0
 10
213.2266173400979
 20
110.1578000691521
 30
0.0
 10
213.2110643447522
 20
110.0063243166728
 30
0.0
 10
213.1343766848032
 20
109.5646067934784
 30
0.0
 10
213.0403077950697
 20
109.2771815649377
 30
0.0
 10
212.8342485546339
 20
108.9059931195904
 30
0.0
 10
212.753455974006
 20
108.7899901224891
 30
0.0
 10
212.5763332174197
 20
108.5876856964831
 30
0.0
 10
212.4799843392347
 20
108.5004972128607
 30
0.0
 10
212.1692893827569
 20
108.2805261348525
 30
0.0
 10
211.9408348147969
 20
108.1968745313418
 30
0.0
 10
211.4971115096989
 20
108.1418826029205
 30
0.0
 10
211.2801513199686
 20
108.1693464575077
 30
0.0
 10
210.9045489460161
 20
108.301888165967
 30
0.0
 10
210.7416296320773
 20
108.4080650755761
 30
0.0
 10
210.6357684053625
 20
108.5388747092761
 30
0.0
  0
LINE
  5
104
330
1F
100
AcDbEntity
  8
0
  6
HIDDEN
 62
     7
370
     0
100
AcDbLine
 10
189.236232159
 20
99.1138066322
 30
0.0
 11
189.236232159
 21
147.6138080627
 31
0.0
  0
SPLINE
  5
105
330
1F
100
AcDbEntity
  8
0
  6
HIDDEN
 62
     7
370
     0
100
AcDbSpline
210
0.0
220
0.0
230
1.0
 70
     8
 71
     3
 72
    12
 73
     8
 74
     0
 42
0.00000001
 43
0.00000001
 12
1.0
 22
0.0
 32
0.0
 13
1.0
 23
0.0
 33
0.0
 40
0.0
 40
0.0
 40
0.0
 40
0.0
 40
0.4999999999999997
 40
0.4999999999999997
 40
0.7499999999999998
 40
0.7499999999999998
 40
1.0
 40
1.0
 40
1.0
 40
1.0
 10
188.419719872594
 20
138.8160753292445
 30
0.0
 10
188.4761260512747
 20
138.7682529555825
 30
0.0
 10
188.5462889527467
 20
138.7279821086413
 30
0.0
 10
188.6642996661386
 20
138.7199362401616
 30
0.0
 10
188.7045054497353
 20
138.7264988384999
 30
0.0
 10
188.7782261464704
 20
138.7538809329535
 30
0.0
 10
188.8110868682579
 20
138.7736424234843
 30
0.0
 10
188.8412552701878
 20
138.7965751346729
 30
0.0
  0
SPLINE
  5
106
330
1F
100
AcDbEntity
  8
0
  6
HIDDEN
 62
     7
370
     0
100
AcDbSpline
210
0.0
220
0.0
230
1.0
 70
     8
 71
     3
 72
    16
 73
    12
 74
     0
 42
0.00000001
 43
0.00000001
 12
1.0
 22
0.0
 32
0.0
 13
1.0
 23
0.0
 33
0.0
 40
0.0
 40
0.0
 40
0.0
 40
0.0
 40
0.0624999999999994
 40
0.0624999999999994
 40
0.1249999999999989
 40
0.1249999999999989
 40
0.2499999999999995
 40
0.2499999999999995
 40
0.5000000000000048
 40
0.5000000000000048
 40
1.0
 40
1.0
 40
1.0
 40
1.0
 10
188.8412552701427
 20
138.7965751347211
 30
0.0
 10
188.8528681699821
 20
138.8054027577024
 30
0.0
 10
188.8662193544146
 20
138.8132371395844
 30
0.0
 10
188.8956191940337
 20
138.8215472656568
 30
0.0
 10
188.910459918589
 20
138.8210514464217
 30
0.0
 10
188.9462931265576
 20
138.8096004754524
 30
0.0
 10
188.9604063343792
 20
138.7929199745937
 30
0.0
 10
188.9948977055981
 20
138.7407992888367
 30
0.0
 10
189.0059817767085
 20
138.7010097948117
 30
0.0
 10
189.0321045945045
 20
138.5776731627146
 30
0.0
 10
189.0362321590494
 20
138.4902517522159
 30
0.0
 10
189.0362321590494
 20
138.4015145098977
 30
0.0
  0
LINE
  5
107
330
1F
100
AcDbEntity
  8
0
  6
HIDDEN
 62
     7
370
     0
100
AcDbLine
 10
189.0362321641
 20
108.3261002943
 30
0.0
 11
189.0362321641
 21
138.4015144005
 31
0.0
  0
SPLINE
  5
108
330
1F
100
AcDbEntity
  8
0
  6
HIDDEN
 62
     7
370
     0
100
AcDbSpline
210
0.0
220
0.0
230
1.0
 70
     8
 71
     3
 72
    16
 73
    12
 74
     0
 42
0.00000001
 43
0.00000001
 12
1.0
 22
0.0
 32
0.0
 13
1.0
 23
0.0
 33
0.0
 40
0.0
 40
0.0
 40
0.0
 40
0.0
 40
0.5000000000000022
 40
0.5000000000000022
 40
0.7499999999999982
 40
0.7499999999999982
 40
0.8749999999999941
 40
0.8749999999999941
 40
0.937499999999997
 40
0.937499999999997
 40
1.0
 40
1.0
 40
1.0
 40
1.0
 10
189.0362321590494
 20
108.3261001849153
 30
0.0
 10
189.0362321590494
 20
108.2369738197266
 30
0.0
 10
189.0320858839714
 20
108.1501124521132
 30
0.0
 10
189.0061202885779
 20
108.0271302056191
 30
0.0
 10
188.9946593832005
 20
107.9863589103878
 30
0.0
 10
188.9603476454261
 20
107.9346545903881
 30
0.0
 10
188.9463229094964
 20
107.9179842237977
 30
0.0
 10
188.9102999464627
 20
107.9065320033409
 30
0.0
 10
188.895545437373
 20
107.9060789570659
 30
0.0
 10
188.8661932762261
 20
107.9143942782821
 30
0.0
 10
188.8528534017221
 20
107.9222231633604
 30
0.0
 10
188.8412552701737
 20
107.931039560123
 30
0.0
  0
SPLINE
  5
109
330
1F
100
AcDbEntity
  8
0
  6
HIDDEN
 62
     7
370
     0
100
AcDbSpline
210
0.0
220
0.0
230
1.0
 70
     8
 71
     3
 72
    12
 73
     8
 74
     0
 42
0.00000001
 43
0.00000001
 12
1.0
 22
0.0
 32
0.0
 13
1.0
 23
0.0
 33
0.0
 40
0.0
 40
0.0
 40
0.0
 40
0.0
 40
0.2499999999999993
 40
0.2499999999999993
 40
0.499999999999999
 40
0.499999999999999
 40
1.0
 40
1.0
 40
1.0
 40
1.0
 10
188.8412552701808
 20
107.9310395601319
 30
0.0
 10
188.8110634284636
 20
107.9539900892297
 30
0.0
 10
188.777704459049
 20
107.9739595632539
 30
0.0
 10
188.7045671744684
 20
108.0010606968794
 30
0.0
 10
188.6643253018144
 20
108.0076614375248
 30
0.0
 10
188.5466195248459
 20
107.9996925630181
 30
0.0
 10
188.4762090470665
 20
107.9594321048503
 30
0.0
 10
188.4197198725982
 20
107.9115393655721
 30
0.0
  0
SPLINE
  5
10A
330
1F
100
AcDbEntity
  8
0
  6
HIDDEN
 62
     7
370
     0
100
AcDbSpline
210
0.0
220
0.0
230
1.0
 70
     8
 71
     3
 72
    12
 73
     8
 74
     0
 42
0.00000001
 43
0.00000001
 12
1.0
 22
0.0
 32
0.0
 13
1.0
 23
0.0
 33
0.0
 40
0.0
 40
0.0
 40
0.0
 40
0.0
 40
0.2499999999999981
 40
0.2499999999999981
 40
0.4999999999999988
 40
0.4999999999999988
 40
1.0
 40
1.0
 40
1.0
 40
1.0
 10
188.4197198725979
 20
107.9115393655724
 30
0.0
 10
188.3315659348601
 20
107.8368005577183
 30
0.0
 10
188.2712125102314
 20
107.7458200572359
 30
0.0
 10
188.1649505521646
 20
107.5569062344833
 30
0.0
 10
188.1227183856025
 20
107.4604017749427
 30
0.0
 10
188.0116476902853
 20
107.1696340207755
 30
0.0
 10
187.9587109138585
 20
106.9739672062318
 30
0.0
 10
187.9149118154897
 20
106.7799007211655
 30
0.0
  0
SPLINE
  5
10B
330
1F
100
AcDbEntity
  8
0
  6
HIDDEN
 62
     7
370
     0
100
AcDbSpline
210
0.0
220
0.0
230
1.0
 70
     8
 71
     3
 72
    12
 73
     8
 74
     0
 42
0.00000001
 43
0.00000001
 12
1.0
 22
0.0
 32
0.0
 13
1.0
 23
0.0
 33
0.0
 40
0.0
 40
0.0
 40
0.0
 40
0.0
 40
0.5000000000000001
 40
0.5000000000000001
 40
0.75
 40
0.75
 40
1.0
 40
1.0
 40
1.0
 40
1.0
 10
187.9149118154897
 20
101.5937263924044
 30
0.0
 10
187.9586583563263
 20
101.5671322217632
 30
0.0
 10
188.0115427115578
 20
101.5473719964375
 30
0.0
 10
188.123109798894
 20
101.5269210062084
 30
0.0
 10
188.165693395437
 20
101.521660781552
 30
0.0
 10
188.2706101225188
 20
101.5137779876293
 30
0.0
 10
188.3321437303636
 20
101.5112138624502
 30
0.0
 10
188.4197198725897
 20
101.5090136449305
 30
0.0
  0
LINE
  5
10C
330
1F
100
AcDbEntity
  8
0
  6
HIDDEN
 62
     7
370
     0
100
AcDbLine
 10
189.0362321641
 20
100.8239868253
 30
0.0
 11
189.0362321641
 21
101.3042121351
 31
0.0
  0
LINE
  5
10D
330
1F
100
AcDbEntity
  8
0
  6
HIDDEN
 62
     7
370
     0
100
AcDbLine
 10
189.0362321641
 20
145.4234025597
 30
0.0
 11
189.0362321641
 21
145.9036278695
 31
0.0
  0
SPLINE
  5
10E
330
1F
100
AcDbEntity
  8
0
  6
HIDDEN
 62
     7
370
     0
100
AcDbSpline
210
0.0
220
0.0
230
1.0
 70
     8
 71
     3
 72
    12
 73
     8
 74
     0
 42
0.00000001
 43
0.00000001
 12
1.0
 22
0.0
 32
0.0
 13
1.0
 23
0.0
 33
0.0
 40
0.0
 40
0.0
 40
0.0
 40
0.0
 40
0.2500000000000004
 40
0.2500000000000004
 40
0.5000000000000009
 40
0.5000000000000009
 40
1.0
 40
1.0
 40
1.0
 40
1.0
 10
188.4197198725977
 20
145.2186010498824
 30
0.0
 10
188.3310352127413
 20
145.2163729825414
 30
0.0
 10
188.2711167970179
 20
145.2138711985111
 30
0.0
 10
188.1654575696972
 20
145.2059397626751
 30
0.0
 10
188.1228163315822
 20
145.2006476077783
 30
0.0
 10
188.0116269894797
 20
145.1802426672911
 30
0.0
 10
187.9587003073587
 20
145.1605079757042
 30
0.0
 10
187.9149118154897
 20
145.1338883024086
 30
0.0
  0
SPLINE
  5
10F
330
1F
100
AcDbEntity
  8
0
  6
HIDDEN
 62
     7
370
     0
100
AcDbSpline
210
0.0
220
0.0
230
1.0
 70
     8
 71
     3
 72
    12
 73
     8
 74
     0
 42
0.00000001
 43
0.00000001
 12
1.0
 22
0.0
 32
0.0
 13
1.0
 23
0.0
 33
0.0
 40
0.0
 40
0.0
 40
0.0
 40
0.0
 40
0.4999999999999953
 40
0.4999999999999953
 40
0.7499999999999977
 40
0.7499999999999977
 40
1.0
 40
1.0
 40
1.0
 40
1.0
 10
187.9149118154882
 20
139.9477139736478
 30
0.0
 10
187.9586732917866
 20
139.7538141856869
 30
0.0
 10
188.0115796074393
 20
139.5579578217513
 30
0.0
 10
188.1232908050855
 20
139.2658156752542
 30
0.0
 10
188.1658102486714
 20
139.1690977385569
 30
0.0
 10
188.2709335912373
 20
138.9823733021333
 30
0.0
 10
188.3324995549542
 20
138.890022593864
 30
0.0
 10
188.4197198725948
 20
138.8160753292438
 30
0.0
  0
SPLINE
  5
110
330
1F
100
AcDbEntity
  8
0
  6
HIDDEN
 62
     7
370
     0
100
AcDbSpline
210
0.0
220
0.0
230
1.0
 70
     8
 71
     3
 72
     8
 73
     4
 74
     0
 42
0.00000001
 43
0.00000001
 12
1.0
 22
0.0
 32
0.0
 13
1.0
 23
0.0
 33
0.0
 40
0.0
 40
0.0
 40
0.0
 40
0.0
 40
1.0
 40
1.0
 40
1.0
 40
1.0
 10
212.3729329819274
 20
112.8493117680432
 30
0.0
 10
212.5142843432296
 20
112.7310415947569
 30
0.0
 10
212.6547109656276
 20
112.6054582926166
 30
0.0
 10
212.791502320309
 20
112.4750368659775
 30
0.0
  0
SPLINE
  5
111
330
1F
100
AcDbEntity
  8
0
  6
HIDDEN
 62
     7
370
     0
100
AcDbSpline
210
0.0
220
0.0
230
1.0
 70
     8
 71
     3
 72
     8
 73
     4
 74
     0
 42
0.00000001
 43
0.00000001
 12
1.0
 22
0.0
 32
0.0
 13
1.0
 23
0.0
 33
0.0
 40
0.0
 40
0.0
 40
0.0
 40
0.0
 40
1.0
 40
1.0
 40
1.0
 40
1.0
 10
211.9092977041092
 20
112.8727918335005
 30
0.0
 10
212.0642722893172
 20
112.8671149986573
 30
0.0
 10
212.2187623764072
 20
112.8590226551948
 30
0.0
 10
212.3729329819274
 20
112.8493117680432
 30
0.0
  0
LWPOLYLINE
  5
112
330
1F
100
AcDbEntity
  8
0
  6
HIDDEN
 62
     7
370
     0
100
AcDbPolyline
 90
       16
 70
   128
 43
0.0
 10
211.9092970019
 20
112.8727919578
 10
211.3935417359
 20
113.1831300601
 10
210.8047521537
 20
113.3723599061
 10
210.1800861632
 20
113.4285400778
 10
209.5589610612
 20
113.3481240988
 10
208.9805780773
 20
113.1361867458
 10
208.4814357435
 20
112.8061036736
 10
208.093031389
 20
112.3787057742
 10
207.8398774242
 20
111.8809622869
 10
207.7379516189
 20
111.3442867219
 10
207.7936819618
 20
110.8025456935
 10
208.0035536414
 20
110.289927122
 10
208.3543232506
 20
109.838780497
 10
208.8238532518
 20
109.4775763497
 10
209.3825145488
 20
109.2291088
 10
209.9950509941
 20
109.1090575948
  0
SPLINE
  5
113
330
1F
100
AcDbEntity
  8
0
  6
HIDDEN
 62
     7
370
     0
100
AcDbSpline
210
0.0
220
0.0
230
1.0
 70
     8
 71
     3
 72
     8
 73
     4
 74
     0
 42
0.00000001
 43
0.00000001
 12
1.0
 22
0.0
 32
0.0
 13
1.0
 23
0.0
 33
0.0
 40
0.0
 40
0.0
 40
0.0
 40
0.0
 40
1.0
 40
1.0
 40
1.0
 40
1.0
 10
210.6357684053621
 20
108.5388747092765
 30
0.0
 10
210.4177861916529
 20
108.725198967271
 30
0.0
 10
210.2053137455442
 20
108.9166839996815
 30
0.0
 10
209.9950516077407
 20
109.1090575474094
 30
0.0
  0
LWPOLYLINE
  5
114
330
1F
100
AcDbEntity
  8
0
  6
HIDDEN
 62
     7
370
     0
100
AcDbPolyline
 90
        9
 70
   128
 43
0.0
 10
212.0666607147
 20
113.6361682013
 10
212.167535988
 20
113.6137270525
 10
212.2519510662
 20
113.5679050505
 10
212.3189392363
 20
113.4992311865
 10
212.3677275007
 20
113.4084942907
 10
212.3977570658
 20
113.2967374444
 10
212.4086814796
 20
113.1652458727
 10
212.4003740822
 20
113.0155301809
 10
212.3729335939
 20
112.8493114531
  0
SPLINE
  5
115
330
1F
100
AcDbEntity
  8
0
  6
HIDDEN
 62
     7
370
     0
100
AcDbSpline
210
0.0
220
0.0
230
1.0
 70
     8
 71
     3
 72
    36
 73
    32
 74
     0
 42
0.00000001
 43
0.00000001
 12
1.0
 22
0.0
 32
0.0
 13
1.0
 23
0.0
 33
0.0
 40
0.0
 40
0.0
 40
0.0
 40
0.0
 40
0.0625000000000002
 40
0.0625000000000002
 40
0.1250000000000003
 40
0.1250000000000003
 40
0.1875000000000005
 40
0.1875000000000005
 40
0.2500000000000007
 40
0.2500000000000007
 40
0.3125000000000008
 40
0.3125000000000008
 40
0.375000000000001
 40
0.375000000000001
 40
0.4375000000000012
 40
0.4375000000000012
 40
0.5000000000000013
 40
0.5000000000000013
 40
0.5625000000000016
 40
0.5625000000000016
 40
0.6250000000000017
 40
0.6250000000000017
 40
0.7500000000000008
 40
0.7500000000000008
 40
0.8125000000000006
 40
0.8125000000000006
 40
0.8750000000000004
 40
0.8750000000000004
 40
0.9375000000000002
 40
0.9375000000000002
 40
1.0
 40
1.0
 40
1.0
 40
1.0
 10
209.9950516077507
 20
109.1090575474006
 30
0.0
 10
209.9551286129667
 20
109.1936398815455
 30
0.0
 10
209.9417128282578
 20
109.2770782527317
 30
0.0
 10
209.9711419356938
 20
109.439226015351
 30
0.0
 10
210.0140939034068
 20
109.5162149249184
 30
0.0
 10
210.1373032460381
 20
109.6628136556672
 30
0.0
 10
210.2181109682914
 20
109.734035621989
 30
0.0
 10
210.3990544716845
 20
109.8761724177945
 30
0.0
 10
210.5000185682462
 20
109.9478576309296
 30
0.0
 10
210.7176939596434
 20
110.0999098563437
 30
0.0
 10
210.8342086616685
 20
110.1800423298857
 30
0.0
 10
211.0724858744675
 20
110.3490495595478
 30
0.0
 10
211.1951973378811
 20
110.4384655003731
 30
0.0
 10
211.446286931166
 20
110.6326204441613
 30
0.0
 10
211.573908531822
 20
110.7369386513279
 30
0.0
 10
211.8200796244819
 20
110.9554094187326
 30
0.0
 10
211.941835923775
 20
111.0726072989592
 30
0.0
 10
212.1633762840126
 20
111.3101735279594
 30
0.0
 10
212.2646381154799
 20
111.4317148060911
 30
0.0
 10
212.4422799131019
 20
111.6783426339031
 30
0.0
 10
212.5152975483365
 20
111.7985598416787
 30
0.0
 10
212.6897933510023
 20
112.1534392587721
 30
0.0
 10
212.7407452792649
 20
112.3730409337383
 30
0.0
 10
212.7334970115814
 20
112.6674479851141
 30
0.0
 10
212.7175949617131
 20
112.7603579922268
 30
0.0
 10
212.6598046535974
 20
112.9408646092206
 30
0.0
 10
212.6177122006119
 20
113.0282105871805
 30
0.0
 10
212.5088503202765
 20
113.1981526573151
 30
0.0
 10
212.4419913588781
 20
113.281421013341
 30
0.0
 10
212.2774178247567
 20
113.453997640819
 30
0.0
 10
212.1796849315411
 20
113.5430789561055
 30
0.0
 10
212.066661234886
 20
113.636168482987
 30
0.0
  0
SPLINE
  5
116
330
1F
100
AcDbEntity
  8
0
  6
HIDDEN
 62
     7
370
     0
100
AcDbSpline
210
0.0
220
0.0
230
1.0
 70
     8
 71
     3
 72
    10
 73
     6
 74
     0
 42
0.00000001
 43
0.00000001
 12
1.0
 22
0.0
 32
0.0
 13
1.0
 23
0.0
 33
0.0
 40
0.0
 40
0.0
 40
0.0
 40
0.0
 40
0.5
 40
0.5
 40
1.0
 40
1.0
 40
1.0
 40
1.0
 10
212.0666612348891
 20
113.6361684829933
 30
0.0
 10
212.0046202757173
 20
113.5485720963875
 30
0.0
 10
211.9497523736978
 20
113.4462692121827
 30
0.0
 10
211.887151355638
 20
113.1958730347165
 30
0.0
 10
211.8826538028981
 20
113.0446128866216
 30
0.0
 10
211.9092977041095
 20
112.8727918335008
 30
0.0
  0
SPLINE
  5
117
330
1F
100
AcDbEntity
  8
0
  6
HIDDEN
 62
     7
370
     0
100
AcDbSpline
210
0.0
220
0.0
230
1.0
 70
     8
 71
     3
 72
    62
 73
    58
 74
     0
 42
0.00000001
 43
0.00000001
 12
1.0
 22
0.0
 32
0.0
 13
1.0
 23
0.0
 33
0.0
 40
-0.0312499999999999
 40
-0.0312499999999999
 40
0.0
 40
0.0
 40
0.0312499999999998
 40
0.0312499999999998
 40
0.0624999999999997
 40
0.0624999999999997
 40
0.0937499999999995
 40
0.0937499999999995
 40
0.1249999999999994
 40
0.1249999999999994
 40
0.1874999999999995
 40
0.1874999999999995
 40
0.2187499999999994
 40
0.2187499999999994
 40
0.2499999999999994
 40
0.2499999999999994
 40
0.2812499999999994
 40
0.2812499999999994
 40
0.3124999999999993
 40
0.3124999999999993
 40
0.3749999999999993
 40
0.3749999999999993
 40
0.4062499999999993
 40
0.4062499999999993
 40
0.4374999999999993
 40
0.4374999999999993
 40
0.4687499999999993
 40
0.4687499999999993
 40
0.4999999999999993
 40
0.4999999999999993
 40
0.5624999999999999
 40
0.5624999999999999
 40
0.59375
 40
0.59375
 40
0.625
 40
0.625
 40
0.6562500000000001
 40
0.6562500000000001
 40
0.6875000000000002
 40
0.6875000000000002
 40
0.7187500000000002
 40
0.7187500000000002
 40
0.7500000000000003
 40
0.7500000000000003
 40
0.7812500000000004
 40
0.7812500000000004
 40
0.8125000000000004
 40
0.8125000000000004
 40
0.8750000000000006
 40
0.8750000000000006
 40
0.9062500000000004
 40
0.9062500000000004
 40
0.9375000000000003
 40
0.9375000000000003
 40
0.9687500000000001
 40
0.9687500000000001
 40
1.0
 40
1.0
 40
1.03125
 40
1.03125
 10
210.0701883401133
 20
116.8758397214978
 30
0.0
 10
210.4022759779857
 20
116.8758397214978
 30
0.0
 10
210.5653727085627
 20
116.8876308621698
 30
0.0
 10
210.8859690134712
 20
116.9339995059055
 30
0.0
 10
211.0451712167777
 20
116.9691841686061
 30
0.0
 10
211.3474817184918
 20
117.0613960190439
 30
0.0
 10
211.4907332927363
 20
117.1180834711674
 30
0.0
 10
211.7618441338034
 20
117.2536312604943
 30
0.0
 10
211.8895261289322
 20
117.3328442143192
 30
0.0
 10
212.2335262171474
 20
117.5963635259191
 30
0.0
 10
212.4195278457317
 20
117.8138846055882
 30
0.0
 10
212.6070143589133
 20
118.1800671088802
 30
0.0
 10
212.6554863036655
 20
118.3107343074962
 30
0.0
 10
212.7200482830792
 20
118.5817374480661
 30
0.0
 10
212.7361267832991
 20
118.7204404430125
 30
0.0
 10
212.7363365122128
 20
119.0044050252305
 30
0.0
 10
212.7199049648019
 20
119.1509746341823
 30
0.0
 10
212.6557362746496
 20
119.4379898136035
 30
0.0
 10
212.6082673118581
 20
119.579737676974
 30
0.0
 10
212.4191438279039
 20
119.9987286795047
 30
0.0
 10
212.2350039355378
 20
120.2592405863208
 30
0.0
 10
211.8882683517338
 20
120.59419699791
 30
0.0
 10
211.7629513955821
 20
120.6947491940361
 30
0.0
 10
211.4928918927822
 20
120.8729312537247
 30
0.0
 10
211.346518516901
 20
120.951021698799
 30
0.0
 10
211.0451006138474
 20
121.0761510597829
 30
0.0
 10
210.8892484524084
 20
121.1240788252199
 30
0.0
 10
210.5669053910921
 20
121.189248368987
 30
0.0
 10
210.4009539240226
 20
121.2058949751782
 30
0.0
 10
209.9100325564714
 20
121.2061095619269
 30
0.0
 10
209.5795495693686
 20
121.1390855868148
 30
0.0
 10
209.12764007177
 20
120.9518457080572
 30
0.0
 10
208.9813428543907
 20
120.8739774154114
 30
0.0
 10
208.7104592918344
 20
120.6954943265455
 30
0.0
 10
208.5851027696766
 20
120.5949416713947
 30
0.0
 10
208.3543251281873
 20
120.3722653281406
 30
0.0
 10
208.2495372481173
 20
120.2502158106648
 30
0.0
 10
208.0688736239352
 20
119.9955570160422
 30
0.0
 10
207.9916851267399
 20
119.8617784794825
 30
0.0
 10
207.8648217224487
 20
119.5815163087211
 30
0.0
 10
207.8171603685163
 20
119.4393281574014
 30
0.0
 10
207.7529300014537
 20
119.1532204355498
 30
0.0
 10
207.7362967875746
 20
119.0074157932983
 30
0.0
 10
207.7361679125632
 20
118.7218916716448
 30
0.0
 10
207.7522488916921
 20
118.5831320899918
 30
0.0
 10
207.8162163041604
 20
118.313248556783
 30
0.0
 10
207.8647803544041
 20
118.1815996434461
 30
0.0
 10
208.0525111964467
 20
117.8142689285405
 30
0.0
 10
208.2384570339423
 20
117.5968661750307
 30
0.0
 10
208.5822322560467
 20
117.3333182016682
 30
0.0
 10
208.7094075604142
 20
117.254308245227
 30
0.0
 10
208.9810499696888
 20
117.1183537640281
 30
0.0
 10
209.124209140636
 20
117.0617111242458
 30
0.0
 10
209.4253360831738
 20
116.9697026381236
 30
0.0
 10
209.5848523118653
 20
116.9342875619036
 30
0.0
 10
209.9067182040971
 20
116.8876347577779
 30
0.0
 10
210.0701883401133
 20
116.8758397214978
 30
0.0
 10
210.4022759779857
 20
116.8758397214978
 30
0.0
  0
LINE
  5
118
330
1F
100
AcDbEntity
  8
0
  6
HIDDEN
 62
     7
370
     0
100
AcDbLine
 10
189.0362321641
 20
101.3042121351
 30
0.0
 11
189.0362321641
 21
116.3419201195
 31
0.0
  0
LINE
  5
119
330
1F
100
AcDbEntity
  8
0
  6
HIDDEN
 62
     7
370
     0
100
AcDbLine
 10
189.0362321641
 20
130.3856945753
 30
0.0
 11
189.0362321641
 21
145.4234025597
 31
0.0
  0
CIRCLE
  5
11A
330
1F
100
AcDbEntity
  8
0
  6
HIDDEN
 62
     7
370
     0
100
AcDbCircle
 10
173.736232159
 20
123.3638073474
 30
0.0
 40
4.050000000000011
  0
SPLINE
  5
11B
330
1F
100
AcDbEntity
  8
0
  6
HIDDEN
 62
     7
370
     0
100
AcDbSpline
210
0.0
220
0.0
230
1.0
 70
     8
 71
     3
 72
    10
 73
     6
 74
     0
 42
0.00000001
 43
0.00000001
 12
1.0
 22
0.0
 32
0.0
 13
1.0
 23
0.0
 33
0.0
 40
0.0
 40
0.0
 40
0.0
 40
0.0
 40
0.5
 40
0.5
 40
1.0
 40
1.0
 40
1.0
 40
1.0
 10
227.4348309973595
 20
119.4275973217036
 30
0.0
 10
227.4134653507769
 20
120.0807222584638
 30
0.0
 10
227.3868981761284
 20
120.737943137875
 30
0.0
 10
227.3474449880361
 20
122.0507467128511
 30
0.0
 10
227.3349305748549
 20
122.7073377288888
 30
0.0
 10
227.3349305748548
 20
123.3638073474065
 30
0.0
  0
LINE
  5
11C
330
1F
100
AcDbEntity
  8
0
  6
HIDDEN
 62
     7
370
     0
100
AcDbLine
 10
227.3349287783
 20
150.0882837146
 30
0.0
 11
227.3349287783
 21
123.3638073474
 31
0.0
  0
SPLINE
  5
11D
330
1F
100
AcDbEntity
  8
0
  6
HIDDEN
 62
     7
370
     0
100
AcDbSpline
210
0.0
220
0.0
230
1.0
 70
     8
 71
     3
 72
    18
 73
    14
 74
     0
 42
0.00000001
 43
0.00000001
 12
1.0
 22
0.0
 32
0.0
 13
1.0
 23
0.0
 33
0.0
 40
0.0
 40
0.0
 40
0.0
 40
0.0
 40
0.1250000000000002
 40
0.1250000000000002
 40
0.2500000000000004
 40
0.2500000000000004
 40
0.5000000000000002
 40
0.5000000000000002
 40
0.75
 40
0.75
 40
0.875
 40
0.875
 40
1.0
 40
1.0
 40
1.0
 40
1.0
 10
227.3349305748549
 20
150.0882843721911
 30
0.0
 10
227.2986613279343
 20
150.3962244663817
 30
0.0
 10
227.2636247837807
 20
150.7010722008798
 30
0.0
 10
227.2015159185109
 20
151.2906609179608
 30
0.0
 10
227.1743215543755
 20
151.575717941851
 30
0.0
 10
227.1078817342128
 20
152.3926888858417
 30
0.0
 10
227.0840320349386
 20
152.8857657656881
 30
0.0
 10
227.0838014929944
 20
153.7521754995224
 30
0.0
 10
227.1074749495961
 20
154.1226525474345
 30
0.0
 10
227.1739661773469
 20
154.5949538629582
 30
0.0
 10
227.2012429143549
 20
154.7388022903259
 30
0.0
 10
227.2634986808712
 20
155.0051642527284
 30
0.0
 10
227.298602049719
 20
155.127424866502
 30
0.0
 10
227.3349305748535
 20
155.2463075367814
 30
0.0
  0
LINE
  5
11E
330
1F
100
AcDbEntity
  8
0
  6
HIDDEN
 62
     7
370
     0
100
AcDbLine
 10
227.3349287783
 20
155.3638088673
 30
0.0
 11
227.3349287783
 21
155.2463057607
 31
0.0
  0
ELLIPSE
  5
11F
330
1F
100
AcDbEntity
  8
0
  6
HIDDEN
 62
     7
370
     0
100
AcDbEllipse
 10
238.5667145356
 20
123.3638073474
 30
0.0
 11
-11.07892454872112
 21
31.97838338560524
 31
0.0
210
0.0
220
0.0
230
1.0
 40
0.1061482562
 41
6.246426763467932
 42
6.332148620524252
  0
LINE
  5
120
330
1F
100
AcDbEntity
  8
0
  6
HIDDEN
 62
     7
370
     0
100
AcDbLine
 10
152.766459701
 20
138.6767584056
 30
0.0
 11
152.766459701
 21
108.0508562893
 31
0.0
  0
LINE
  5
121
330
1F
100
AcDbEntity
  8
0
  6
HIDDEN
 62
     7
370
     0
100
AcDbLine
 10
151.2362333809
 20
107.1673776179
 30
0.0
 11
151.2362333809
 21
139.5413219154
 31
0.0
  0
LINE
  5
122
330
1F
100
AcDbEntity
  8
0
  6
HIDDEN
 62
     7
370
     0
100
AcDbLine
 10
159.2664598351
 20
137.7102178678
 30
0.0
 11
159.2664598351
 21
109.017396827
 31
0.0
  0
LINE
  5
123
330
1F
100
AcDbEntity
  8
0
  6
HIDDEN
 62
     7
370
     0
100
AcDbLine
 10
165.0664611583
 20
137.3638077795
 30
0.0
 11
165.0664611583
 21
109.3638069153
 31
0.0
  0
LINE
  5
124
330
1F
100
AcDbEntity
  8
0
  6
HIDDEN
 62
     7
370
     0
100
AcDbLine
 10
157.6664606904
 20
137.3638077795
 30
0.0
 11
157.6664606904
 21
109.3638069153
 31
0.0
  0
LINE
  5
125
330
1F
100
AcDbEntity
  8
0
  6
HIDDEN
 62
     7
370
     0
100
AcDbLine
 10
158.6664608543
 20
137.3638077795
 30
0.0
 11
158.6664608543
 21
109.3638069153
 31
0.0
  0
SPLINE
  5
126
330
1F
100
AcDbEntity
  8
0
  6
HIDDEN
 62
     7
370
     0
100
AcDbSpline
210
0.0
220
0.0
230
1.0
 70
     8
 71
     3
 72
    10
 73
     6
 74
     0
 42
0.00000001
 43
0.00000001
 12
1.0
 22
0.0
 32
0.0
 13
1.0
 23
0.0
 33
0.0
 40
0.0
 40
0.0
 40
0.0
 40
0.0
 40
0.5
 40
0.5
 40
1.0
 40
1.0
 40
1.0
 40
1.0
 10
177.7362321590494
 20
123.998236224429
 30
0.0
 10
177.7693795771258
 20
123.789245623421
 30
0.0
 10
177.7862384224875
 20
123.5776831573994
 30
0.0
 10
177.7862258921398
 20
123.1496943914318
 30
0.0
 10
177.7693109343994
 20
122.9379362870161
 30
0.0
 10
177.7362321590494
 20
122.7293784703841
 30
0.0
  0
LINE
  5
127
330
1F
100
AcDbEntity
  8
0
  6
HIDDEN
 62
     7
370
     0
100
AcDbLine
 10
178.2362322187
 20
136.8638076976
 30
0.0
 11
178.2362322187
 21
109.8638069972
 31
0.0
  0
SPLINE
  5
128
330
1F
100
AcDbEntity
  8
0
  6
HIDDEN
 62
     7
370
     0
100
AcDbSpline
210
0.0
220
0.0
230
1.0
 70
     8
 71
     3
 72
    10
 73
     6
 74
     0
 42
0.00000001
 43
0.00000001
 12
1.0
 22
0.0
 32
0.0
 13
1.0
 23
0.0
 33
0.0
 40
0.0
 40
0.0
 40
0.0
 40
0.0
 40
0.5
 40
0.5
 40
1.0
 40
1.0
 40
1.0
 40
1.0
 10
177.7362321590494
 20
122.7293784703841
 30
0.0
 10
177.7694211215231
 20
122.9386310039665
 30
0.0
 10
177.7861218977777
 20
123.1494477648655
 30
0.0
 10
177.7863413382224
 20
123.5739800460687
 30
0.0
 10
177.769461622829
 20
123.7887283348413
 30
0.0
 10
177.7362321590494
 20
123.998236224429
 30
0.0
  0
SPLINE
  5
129
330
1F
100
AcDbEntity
  8
0
  6
HIDDEN
 62
     7
370
     0
100
AcDbSpline
210
0.0
220
0.0
230
1.0
 70
     8
 71
     3
 72
    68
 73
    64
 74
     0
 42
0.00000001
 43
0.00000001
 12
1.0
 22
0.0
 32
0.0
 13
1.0
 23
0.0
 33
0.0
 40
0.0
 40
0.0
 40
0.0
 40
0.0
 40
0.0312499999999999
 40
0.0312499999999999
 40
0.0624999999999999
 40
0.0624999999999999
 40
0.0937499999999998
 40
0.0937499999999998
 40
0.1249999999999998
 40
0.1249999999999998
 40
0.1562499999999997
 40
0.1562499999999997
 40
0.1874999999999997
 40
0.1874999999999997
 40
0.2187499999999996
 40
0.2187499999999996
 40
0.2499999999999996
 40
0.2499999999999996
 40
0.2812499999999996
 40
0.2812499999999996
 40
0.3124999999999996
 40
0.3124999999999996
 40
0.3437499999999996
 40
0.3437499999999996
 40
0.3749999999999996
 40
0.3749999999999996
 40
0.4062499999999996
 40
0.4062499999999996
 40
0.4374999999999995
 40
0.4374999999999995
 40
0.4687499999999995
 40
0.4687499999999995
 40
0.4999999999999996
 40
0.4999999999999996
 40
0.5624999999999996
 40
0.5624999999999996
 40
0.5937499999999994
 40
0.5937499999999994
 40
0.6249999999999994
 40
0.6249999999999994
 40
0.6562499999999996
 40
0.6562499999999996
 40
0.6874999999999996
 40
0.6874999999999996
 40
0.7187499999999997
 40
0.7187499999999997
 40
0.7499999999999997
 40
0.7499999999999997
 40
0.7812499999999997
 40
0.7812499999999997
 40
0.8124999999999998
 40
0.8124999999999998
 40
0.8437499999999998
 40
0.8437499999999998
 40
0.8749999999999998
 40
0.8749999999999998
 40
0.9062499999999999
 40
0.9062499999999999
 40
0.9374999999999999
 40
0.9374999999999999
 40
0.96875
 40
0.96875
 40
1.0
 40
1.0
 40
1.0
 40
1.0
 10
177.7362321590494
 20
122.7293784703841
 30
0.0
 10
177.6962172066997
 20
122.4770888675685
 30
0.0
 10
177.6332754052884
 20
122.2330900171927
 30
0.0
 10
177.4638887432163
 20
121.7606716281301
 30
0.0
 10
177.3561951806309
 20
121.5302582419702
 30
0.0
 10
177.100910412093
 20
121.0955536461731
 30
0.0
 10
176.9548711816207
 20
120.8929116795218
 30
0.0
 10
176.6266497450615
 20
120.515922388764
 30
0.0
 10
176.4424024572865
 20
120.3402644351866
 30
0.0
 10
176.0494422899782
 20
120.0300064662403
 30
0.0
 10
175.8401476930191
 20
119.8940612585904
 30
0.0
 10
175.3952622660817
 20
119.6606711631846
 30
0.0
 10
175.1584646735827
 20
119.5634245567702
 30
0.0
 10
174.6777296046634
 20
119.4167530988988
 30
0.0
 10
174.4314865114806
 20
119.3658607539564
 30
0.0
 10
173.9267697315012
 20
119.3103334037209
 30
0.0
 10
173.6705750305647
 20
119.3065085166509
 30
0.0
 10
173.1681962813646
 20
119.3459322992954
 30
0.0
 10
172.918946582181
 20
119.3889597485066
 30
0.0
 10
172.4274187847022
 20
119.5226647179579
 30
0.0
 10
172.1921231834764
 20
119.6113345638631
 30
0.0
 10
171.7412092888142
 20
119.8303659276405
 30
0.0
 10
171.5235969383509
 20
119.962367493324
 30
0.0
 10
171.1203897688026
 20
120.2617247743269
 30
0.0
 10
170.9347782763681
 20
120.4283437017648
 30
0.0
 10
170.5947902059657
 20
120.7954551271923
 30
0.0
 10
170.4397172751428
 20
120.997758872733
 30
0.0
 10
170.1733741984794
 20
121.421839552327
 30
0.0
 10
170.0603900977626
 20
121.6449991577932
 30
0.0
 10
169.8755348408317
 20
122.1143543993874
 30
0.0
 10
169.8043940793283
 20
122.3605649027229
 30
0.0
 10
169.7104336680402
 20
122.855090729094
 30
0.0
 10
169.6864243380838
 20
123.106021724186
 30
0.0
 10
169.6858512174112
 20
123.8702671037423
 30
0.0
 10
169.7812503287298
 20
124.3724914057932
 30
0.0
 10
170.059114120931
 20
125.0800559120656
 30
0.0
 10
170.1722760770115
 20
125.3037621758064
 30
0.0
 10
170.4384072590554
 20
125.728032087127
 30
0.0
 10
170.5932350332551
 20
125.9302840491831
 30
0.0
 10
170.9334161390429
 20
126.2979947905513
 30
0.0
 10
171.1189185959927
 20
126.4646116658006
 30
0.0
 10
171.521212397052
 20
126.763661044596
 30
0.0
 10
171.739220445304
 20
126.8961177526244
 30
0.0
 10
172.1898188124543
 20
127.1153241533291
 30
0.0
 10
172.4243678113351
 20
127.2038092833327
 30
0.0
 10
172.9128278048874
 20
127.3372955132714
 30
0.0
 10
173.1650932006013
 20
127.3812372257651
 30
0.0
 10
173.6672738387615
 20
127.4210462222386
 30
0.0
 10
173.9197559561132
 20
127.4177020094251
 30
0.0
 10
174.4276209991827
 20
127.3625226894346
 30
0.0
 10
174.6751664723665
 20
127.3114767609652
 30
0.0
 10
175.1561340098373
 20
127.1650663727296
 30
0.0
 10
175.3920938749425
 20
127.068420167956
 30
0.0
 10
175.8386643244641
 20
126.834515223643
 30
0.0
 10
176.0483091870376
 20
126.6983902098164
 30
0.0
 10
176.441295893792
 20
126.3883359454873
 30
0.0
 10
176.6256917976071
 20
126.2126786979122
 30
0.0
 10
176.9542422154674
 20
125.8355387752478
 30
0.0
 10
177.1001843119906
 20
125.6330725699779
 30
0.0
 10
177.3550696671928
 20
125.1994962718446
 30
0.0
 10
177.4633809800011
 20
124.968204428263
 30
0.0
 10
177.633215957418
 20
124.4948447481298
 30
0.0
 10
177.6962113185551
 20
124.250562951309
 30
0.0
 10
177.7362321590494
 20
123.998236224429
 30
0.0
  0
SPLINE
  5
12A
330
1F
100
AcDbEntity
  8
0
  6
HIDDEN
 62
     7
370
     0
100
AcDbSpline
210
0.0
220
0.0
230
1.0
 70
     8
 71
     3
 72
    68
 73
    64
 74
     0
 42
0.00000001
 43
0.00000001
 12
1.0
 22
0.0
 32
0.0
 13
1.0
 23
0.0
 33
0.0
 40
0.0
 40
0.0
 40
0.0
 40
0.0
 40
0.0312500000000001
 40
0.0312500000000001
 40
0.0625000000000002
 40
0.0625000000000002
 40
0.0937500000000002
 40
0.0937500000000002
 40
0.1250000000000002
 40
0.1250000000000002
 40
0.1562500000000003
 40
0.1562500000000003
 40
0.1875000000000003
 40
0.1875000000000003
 40
0.2187500000000004
 40
0.2187500000000004
 40
0.2500000000000004
 40
0.2500000000000004
 40
0.2812500000000004
 40
0.2812500000000004
 40
0.3125000000000005
 40
0.3125000000000005
 40
0.3437500000000005
 40
0.3437500000000005
 40
0.3750000000000005
 40
0.3750000000000005
 40
0.4062500000000006
 40
0.4062500000000006
 40
0.4375000000000006
 40
0.4375000000000006
 40
0.4687500000000006
 40
0.4687500000000006
 40
0.5000000000000006
 40
0.5000000000000006
 40
0.5625000000000006
 40
0.5625000000000006
 40
0.5937500000000006
 40
0.5937500000000006
 40
0.6250000000000006
 40
0.6250000000000006
 40
0.6562500000000004
 40
0.6562500000000004
 40
0.6875000000000004
 40
0.6875000000000004
 40
0.7187500000000004
 40
0.7187500000000004
 40
0.7500000000000003
 40
0.7500000000000003
 40
0.7812500000000003
 40
0.7812500000000003
 40
0.8125000000000003
 40
0.8125000000000003
 40
0.8437500000000003
 40
0.8437500000000003
 40
0.8750000000000002
 40
0.8750000000000002
 40
0.9062500000000002
 40
0.9062500000000002
 40
0.9375000000000002
 40
0.9375000000000002
 40
0.9687500000000001
 40
0.9687500000000001
 40
1.0
 40
1.0
 40
1.0
 40
1.0
 10
177.7362321590494
 20
123.998236224429
 30
0.0
 10
177.6962172066997
 20
124.2505258272446
 30
0.0
 10
177.6332754052884
 20
124.4945246776204
 30
0.0
 10
177.4638887432164
 20
124.9669430666829
 30
0.0
 10
177.3561951806309
 20
125.1973564528428
 30
0.0
 10
177.100910412093
 20
125.6320610486399
 30
0.0
 10
176.9548711816207
 20
125.8347030152913
 30
0.0
 10
176.6266497450615
 20
126.2116923060491
 30
0.0
 10
176.4424024572865
 20
126.3873502596265
 30
0.0
 10
176.0494422899782
 20
126.6976082285727
 30
0.0
 10
175.8401476930191
 20
126.8335534362226
 30
0.0
 10
175.3952622660817
 20
127.0669435316285
 30
0.0
 10
175.1584646735827
 20
127.1641901380429
 30
0.0
 10
174.6777296046634
 20
127.3108615959143
 30
0.0
 10
174.4314865114806
 20
127.3617539408567
 30
0.0
 10
173.9267697315012
 20
127.4172812910922
 30
0.0
 10
173.6705750305647
 20
127.4211061781621
 30
0.0
 10
173.1681962813646
 20
127.3816823955177
 30
0.0
 10
172.918946582181
 20
127.3386549463064
 30
0.0
 10
172.4274187847022
 20
127.2049499768552
 30
0.0
 10
172.1921231834764
 20
127.11628013095
 30
0.0
 10
171.7412092888142
 20
126.8972487671726
 30
0.0
 10
171.5235969383509
 20
126.765247201489
 30
0.0
 10
171.1203897688026
 20
126.4658899204861
 30
0.0
 10
170.9347782763681
 20
126.2992709930482
 30
0.0
 10
170.5947902059657
 20
125.9321595676208
 30
0.0
 10
170.4397172751428
 20
125.72985582208
 30
0.0
 10
170.1733741984794
 20
125.305775142486
 30
0.0
 10
170.0603900977626
 20
125.0826155370198
 30
0.0
 10
169.8755348408317
 20
124.6132602954257
 30
0.0
 10
169.8043940793283
 20
124.3670497920902
 30
0.0
 10
169.7104336680402
 20
123.872523965719
 30
0.0
 10
169.6864243380838
 20
123.621592970627
 30
0.0
 10
169.6858512174112
 20
122.8573475910708
 30
0.0
 10
169.7812503287298
 20
122.3551232890198
 30
0.0
 10
170.059114120931
 20
121.6475587827474
 30
0.0
 10
170.1722760770115
 20
121.4238525190066
 30
0.0
 10
170.4384072590554
 20
120.999582607686
 30
0.0
 10
170.5932350332551
 20
120.79733064563
 30
0.0
 10
170.9334161390429
 20
120.4296199042618
 30
0.0
 10
171.1189185959927
 20
120.2630030290124
 30
0.0
 10
171.521212397052
 20
119.963953650217
 30
0.0
 10
171.739220445304
 20
119.8314969421886
 30
0.0
 10
172.1898188124543
 20
119.6122905414839
 30
0.0
 10
172.4243678113351
 20
119.5238054114803
 30
0.0
 10
172.9128278048874
 20
119.3903191815417
 30
0.0
 10
173.1650932006013
 20
119.3463774690479
 30
0.0
 10
173.6672738387615
 20
119.3065684725744
 30
0.0
 10
173.9197559561132
 20
119.3099126853879
 30
0.0
 10
174.4276209991827
 20
119.3650920053784
 30
0.0
 10
174.6751664723665
 20
119.4161379338478
 30
0.0
 10
175.1561340098373
 20
119.5625483220834
 30
0.0
 10
175.3920938749425
 20
119.659194526857
 30
0.0
 10
175.8386643244641
 20
119.8930994711701
 30
0.0
 10
176.0483091870376
 20
120.0292244849966
 30
0.0
 10
176.441295893792
 20
120.3392787493257
 30
0.0
 10
176.6256917976071
 20
120.5149359969008
 30
0.0
 10
176.9542422154674
 20
120.8920759195652
 30
0.0
 10
177.1001843119906
 20
121.0945421248351
 30
0.0
 10
177.3550696671928
 20
121.5281184229685
 30
0.0
 10
177.4633809800011
 20
121.75941026655
 30
0.0
 10
177.633215957418
 20
122.2327699466832
 30
0.0
 10
177.6962113185551
 20
122.477051743504
 30
0.0
 10
177.7362321590494
 20
122.7293784703841
 30
0.0
  0
LINE
  5
12B
330
1F
100
AcDbEntity
  8
0
  6
HIDDEN
 62
     7
370
     0
100
AcDbLine
 10
179.4862319579
 20
132.36380696
 30
0.0
 11
179.4862319579
 21
114.3638077348
 31
0.0
  0
LINE
  5
12C
330
1F
100
AcDbEntity
  8
0
  6
HIDDEN
 62
     7
370
     0
100
AcDbLine
 10
178.2362322187
 20
113.1138070643
 30
0.0
 11
178.2362322187
 21
133.6138076305
 31
0.0
  0
LINE
  5
12D
330
1F
100
AcDbEntity
  8
0
  6
HIDDEN
 62
     7
370
     0
100
AcDbLine
 10
216.2362328594
 20
114.3638077348
 30
0.0
 11
216.2362328594
 21
132.36380696
 31
0.0
  0
LWPOLYLINE
  5
12E
330
1F
100
AcDbEntity
  8
0
  6
HIDDEN
 62
     7
370
     0
100
AcDbPolyline
 90
       31
 70
   128
 43
0.0
 10
241.6688064908
 20
102.3585326195
 10
241.5715875899
 20
101.641561386
 10
241.3280430113
 20
100.9559254318
 10
240.9488233601
 20
100.3315891296
 10
240.4504950022
 20
99.7958402306
 10
239.8548434352
 20
99.3720940471
 10
239.1878972625
 20
99.0788689971
 10
238.4788031553
 20
98.9289819419
 10
237.7585592543
 20
98.9289819419
 10
237.0586368119
 20
99.0788689971
 10
236.4096316372
 20
99.3720940471
 10
235.8399006402
 20
99.7958402306
 10
235.3743511116
 20
100.3315891296
 10
235.0333268618
 20
100.9559254318
 10
234.8317327773
 20
101.641561386
 10
234.7783791696
 20
102.3585326195
 10
234.8755980705
 20
103.075503853
 10
235.1191389238
 20
103.7611398071
 10
235.4983623003
 20
104.3854761094
 10
235.996686933
 20
104.9212250084
 10
236.5923422252
 20
105.3449711919
 10
237.2592883979
 20
105.6381962418
 10
237.9683787798
 20
105.788083297
 10
238.6886264061
 20
105.788083297
 10
239.3885488485
 20
105.6381962418
 10
240.0375540232
 20
105.3449711919
 10
240.607281295
 20
104.9212250084
 10
241.0728308236
 20
104.3854761094
 10
241.4138550734
 20
103.7611398071
 10
241.6154491579
 20
103.075503853
 10
241.6688064908
 20
102.3585326195
  0
SPLINE
  5
12F
330
1F
100
AcDbEntity
  8
0
  6
HIDDEN
 62
     7
370
     0
100
AcDbSpline
210
0.0
220
0.0
230
1.0
 70
     8
 71
     3
 72
    22
 73
    18
 74
     0
 42
0.00000001
 43
0.00000001
 12
1.0
 22
0.0
 32
0.0
 13
1.0
 23
0.0
 33
0.0
 40
0.0
 40
0.0
 40
0.0
 40
0.0
 40
0.1249999999999982
 40
0.1249999999999982
 40
0.2499999999999964
 40
0.2499999999999964
 40
0.3749999999999947
 40
0.3749999999999947
 40
0.4374999999999944
 40
0.4374999999999944
 40
0.4999999999999953
 40
0.4999999999999953
 40
0.6249999999999964
 40
0.6249999999999964
 40
0.7499999999999976
 40
0.7499999999999976
 40
1.0
 40
1.0
 40
1.0
 40
1.0
 10
228.5281681853986
 20
106.1807775810641
 30
0.0
 10
228.4805113299882
 20
106.2733913500139
 30
0.0
 10
228.432947551731
 20
106.3773931588031
 30
0.0
 10
228.3381647009359
 20
106.6202873828113
 30
0.0
 10
228.2921663319238
 20
106.756365285377
 30
0.0
 10
228.206432404643
 20
107.0633783053297
 30
0.0
 10
228.1674757637769
 20
107.2324011193033
 30
0.0
 10
228.1188778484926
 20
107.5008037315622
 30
0.0
 10
228.1040932968326
 20
107.5940973157475
 30
0.0
 10
228.0787000098718
 20
107.7796233447773
 30
0.0
 10
228.0679383769337
 20
107.8725019138662
 30
0.0
 10
228.0409677313411
 20
108.1514596880136
 30
0.0
 10
228.0304066111876
 20
108.335589465804
 30
0.0
 10
228.0210346976157
 20
108.6857210656511
 30
0.0
 10
228.0220610695931
 20
108.8558817673876
 30
0.0
 10
228.0374441361677
 20
109.338876955088
 30
0.0
 10
228.0632928007453
 20
109.6286563230444
 30
0.0
 10
228.0981627794826
 20
109.9007452648773
 30
0.0
  0
SPLINE
  5
130
330
1F
100
AcDbEntity
  8
0
  6
HIDDEN
 62
     7
370
     0
100
AcDbSpline
210
0.0
220
0.0
230
1.0
 70
     8
 71
     3
 72
     8
 73
     4
 74
     0
 42
0.00000001
 43
0.00000001
 12
1.0
 22
0.0
 32
0.0
 13
1.0
 23
0.0
 33
0.0
 40
0.0
 40
0.0
 40
0.0
 40
0.0
 40
1.0
 40
1.0
 40
1.0
 40
1.0
 10
228.0981627794826
 20
109.9007452648773
 30
0.0
 10
227.7697546432648
 20
113.0612533468769
 30
0.0
 10
227.5392523564481
 20
116.2355481933278
 30
0.0
 10
227.4348309973595
 20
119.4275973217036
 30
0.0
  0
SPLINE
  5
131
330
1F
100
AcDbEntity
  8
0
  6
HIDDEN
 62
     7
370
     0
100
AcDbSpline
210
0.0
220
0.0
230
1.0
 70
     8
 71
     3
 72
    19
 73
    15
 74
     0
 42
0.00000001
 43
0.00000001
 12
1.0
 22
0.0
 32
0.0
 13
1.0
 23
0.0
 33
0.0
 40
0.0
 40
0.0
 40
0.0
 40
0.0
 40
0.0880488823220108
 40
0.1760957315433307
 40
0.266582403841
 40
0.3570664018820729
 40
0.4469622366492504
 40
0.5368553569371607
 40
0.6296280206238482
 40
0.7223979105983175
 40
0.8080371737514142
 40
0.8936750822021517
 40
0.9819804389269474
 40
1.0
 40
1.0
 40
1.0
 40
1.0
 10
228.6119545673441
 20
105.5292966931955
 30
0.0
 10
228.5919950091855
 20
104.6010313979626
 30
0.0
 10
228.5520763537463
 20
102.7445222416909
 30
0.0
 10
228.5055761746471
 20
100.1408766237065
 30
0.0
 10
228.4688177107627
 20
97.69466859232469
 30
0.0
 10
228.4425364772553
 20
95.44852847424997
 30
0.0
 10
228.4261205549883
 20
93.44066519149703
 30
0.0
 10
228.4185671774914
 20
91.66677494084044
 30
0.0
 10
228.4192983404
 20
90.15097521863457
 30
0.0
 10
228.4273958346283
 20
88.9500847449422
 30
0.0
 10
228.4411927801336
 20
88.06075568995867
 30
0.0
 10
228.460074817211
 20
87.48734193894755
 30
0.0
 10
228.4763787292426
 20
87.20651198986721
 30
0.0
 10
228.487579869598
 20
87.21171720324597
 30
0.0
 10
228.4894781982015
 20
87.2125993639127
 30
0.0
  0
SPLINE
  5
132
330
1F
100
AcDbEntity
  8
0
  6
HIDDEN
 62
     7
370
     0
100
AcDbSpline
210
0.0
220
0.0
230
1.0
 70
     8
 71
     3
 72
     8
 73
     4
 74
     0
 42
0.00000001
 43
0.00000001
 12
1.0
 22
0.0
 32
0.0
 13
1.0
 23
0.0
 33
0.0
 40
0.0
 40
0.0
 40
0.0
 40
0.0
 40
1.0
 40
1.0
 40
1.0
 40
1.0
 10
228.6119557221629
 20
105.5292971037881
 30
0.0
 10
228.5836355350605
 20
105.746402202455
 30
0.0
 10
228.5557027889264
 20
105.9635618592244
 30
0.0
 10
228.5281681853986
 20
106.1807775810641
 30
0.0
  0
ARC
  5
133
330
1F
100
AcDbEntity
  8
0
  6
HIDDEN
 62
     7
370
     0
100
AcDbCircle
 10
232.9181298174
 20
96.4893589661
 30
0.0
 40
2.086712501200899
100
AcDbArc
 50
73.3768131621
 51
251.5446843246
  0
LINE
  5
134
330
1F
100
AcDbEntity
  8
0
  6
HIDDEN
 62
     7
370
     0
100
AcDbLine
 10
247.7917755817
 20
94.3697239429
 30
0.0
 11
249.3928122198
 21
92.7930115878
 31
0.0
  0
LINE
  5
135
330
1F
100
AcDbEntity
  8
0
  6
HIDDEN
 62
     7
370
     0
100
AcDbLine
 10
232.4601272916
 20
94.4515164167
 30
0.0
 11
232.2575497305
 21
94.5099643588
 31
0.0
  0
SPLINE
  5
136
330
1F
100
AcDbEntity
  8
0
  6
HIDDEN
 62
     7
370
     0
100
AcDbSpline
210
0.0
220
0.0
230
1.0
 70
     8
 71
     3
 72
    18
 73
    14
 74
     0
 42
0.00000001
 43
0.00000001
 12
1.0
 22
0.0
 32
0.0
 13
1.0
 23
0.0
 33
0.0
 40
0.0
 40
0.0
 40
0.0
 40
0.0
 40
0.249999999999997
 40
0.249999999999997
 40
0.3749999999999952
 40
0.3749999999999952
 40
0.4999999999999934
 40
0.4999999999999934
 40
0.7499999999999941
 40
0.7499999999999941
 40
0.874999999999997
 40
0.874999999999997
 40
1.0
 40
1.0
 40
1.0
 40
1.0
 10
229.2384321425131
 20
105.3135839731867
 30
0.0
 10
229.4629200434067
 20
105.1002277524584
 30
0.0
 10
229.7066083783534
 20
104.9064478891664
 30
0.0
 10
230.1066481857475
 20
104.6503718549335
 30
0.0
 10
230.2468112346677
 20
104.5704041601606
 30
0.0
 10
230.5332250990022
 20
104.4274026222566
 30
0.0
 10
230.67984007185
 20
104.3639964507279
 30
0.0
 10
231.1305746885749
 20
104.1996311741818
 30
0.0
 10
231.4496151451786
 20
104.1248404302319
 30
0.0
 10
231.9198390077937
 20
104.0776796881446
 30
0.0
 10
232.0763080655905
 20
104.0722466142229
 30
0.0
 10
232.3887509078607
 20
104.0823351330489
 30
0.0
 10
232.5444271822162
 20
104.0980704969574
 30
0.0
 10
232.6947289586089
 20
104.1234855396797
 30
0.0
  0
LINE
  5
137
330
1F
100
AcDbEntity
  8
0
  6
HIDDEN
 62
     7
370
     0
100
AcDbLine
 10
228.6119545673
 20
105.5292966932
 30
0.0
 11
229.2384329115
 21
105.3135837585
 31
0.0
  0
ELLIPSE
  5
138
330
1F
100
AcDbEntity
  8
0
  6
HIDDEN
 62
     7
370
     0
100
AcDbEllipse
 10
222.8472920068
 20
131.4220724226
 30
0.0
 11
-16.73790244551526
 21
47.96626505218669
 31
0.0
210
0.0
220
0.0
230
1.0
 40
0.0882384119
 41
2.900230817297827
 42
3.072176484096433
  0
ELLIPSE
  5
139
330
1F
100
AcDbEntity
  8
0
  6
HIDDEN
 62
     7
370
     0
100
AcDbEllipse
 10
240.1966866169
 20
125.4481967845
 30
0.0
 11
169.2855753305249
 21
-53.48856631298458
 31
0.0
210
0.0
220
0.0
230
1.0
 40
0.2239254004
 41
4.770600623369795
 42
4.850444563765335
  0
SPLINE
  5
13A
330
1F
100
AcDbEntity
  8
0
  6
HIDDEN
 62
     7
370
     0
100
AcDbSpline
210
0.0
220
0.0
230
1.0
 70
     8
 71
     3
 72
    26
 73
    22
 74
     0
 42
0.00000001
 43
0.00000001
 12
1.0
 22
0.0
 32
0.0
 13
1.0
 23
0.0
 33
0.0
 40
0.0
 40
0.0
 40
0.0
 40
0.0
 40
0.0226182934217911
 40
0.0449468112763217
 40
0.0669858028463376
 40
0.100526365541399
 40
0.1334757931780193
 40
0.1994322711511393
 40
0.2648264091260844
 40
0.3080977199523402
 40
0.3938166924646803
 40
0.5202501299259579
 40
0.6440498544734264
 40
0.7053130203668927
 40
0.7652286398887013
 40
0.8251175432044883
 40
0.8838230941151363
 40
0.9132526159151287
 40
0.9424215894162271
 40
0.9713355050968522
 40
1.0
 40
1.0
 40
1.0
 40
1.0
 10
242.0309295907651
 20
100.9087731175986
 30
0.0
 10
242.1132757586686
 20
100.7050623794079
 30
0.0
 10
242.2769131118086
 20
100.300250754867
 30
0.0
 10
242.5201052414692
 20
99.70258694758542
 30
0.0
 10
242.8023144561411
 20
99.01239911070421
 30
0.0
 10
243.1219460018203
 20
98.23594287527607
 30
0.0
 10
243.5980835077315
 20
97.08869785308374
 30
0.0
 10
244.1846137951102
 20
95.69316661911947
 30
0.0
 10
244.8009982576153
 20
94.25235818620632
 30
0.0
 10
245.4795581127807
 20
92.6908469881494
 30
0.0
 10
246.3583755033398
 20
90.70811297658452
 30
0.0
 10
247.4810374390948
 20
88.26554431925612
 30
0.0
 10
248.4755365534411
 20
86.21012274291722
 30
0.0
 10
249.2236588874878
 20
84.73409880292499
 30
0.0
 10
249.758648450359
 20
83.71536073714883
 30
0.0
 10
250.2667139583927
 20
82.78602434385482
 30
0.0
 10
250.6706747744658
 20
82.08082458235654
 30
0.0
 10
250.9796575977649
 20
81.56264727906238
 30
0.0
 10
251.2042962800275
 20
81.19724852739473
 30
0.0
 10
251.4215462436341
 20
80.85443180402622
 30
0.0
 10
251.5606155148283
 20
80.64488599689759
 30
0.0
 10
251.6298489371288
 20
80.5405669533617
 30
0.0
  0
LINE
  5
13B
330
1F
100
AcDbEntity
  8
0
  6
HIDDEN
 62
     7
370
     0
100
AcDbLine
 10
232.6947274481
 20
104.1234857559
 30
0.0
 11
242.0309233343
 21
100.9087762952
 31
0.0
  0
SPLINE
  5
13C
330
1F
100
AcDbEntity
  8
0
  6
HIDDEN
 62
     7
370
     0
100
AcDbSpline
210
0.0
220
0.0
230
1.0
 70
     8
 71
     3
 72
    40
 73
    36
 74
     0
 42
0.00000001
 43
0.00000001
 12
1.0
 22
0.0
 32
0.0
 13
1.0
 23
0.0
 33
0.0
 40
0.0
 40
0.0
 40
0.0
 40
0.0
 40
0.0624999999999986
 40
0.0624999999999986
 40
0.1249999999999972
 40
0.1249999999999972
 40
0.2499999999999946
 40
0.2499999999999946
 40
0.3124999999999933
 40
0.3124999999999933
 40
0.3749999999999922
 40
0.3749999999999922
 40
0.4062499999999916
 40
0.4062499999999916
 40
0.437499999999991
 40
0.437499999999991
 40
0.4687499999999904
 40
0.4687499999999904
 40
0.4999999999999898
 40
0.4999999999999898
 40
0.5156249999999901
 40
0.5156249999999901
 40
0.5312499999999905
 40
0.5312499999999905
 40
0.5624999999999912
 40
0.5624999999999912
 40
0.6249999999999926
 40
0.6249999999999926
 40
0.687499999999994
 40
0.687499999999994
 40
0.7499999999999953
 40
0.7499999999999953
 40
0.8749999999999977
 40
0.8749999999999977
 40
1.0
 40
1.0
 40
1.0
 40
1.0
 10
236.0248243802055
 20
99.4822136150048
 30
0.0
 10
236.0730446565125
 20
99.43472591304527
 30
0.0
 10
236.1380517940152
 20
99.38349444257567
 30
0.0
 10
236.2933139028217
 20
99.27639851997124
 30
0.0
 10
236.3840719387605
 20
99.22033530980362
 30
0.0
 10
236.6847690252472
 20
99.05214895785878
 30
0.0
 10
236.9223356582133
 20
98.93908765508483
 30
0.0
 10
237.3373688445095
 20
98.78723972881676
 30
0.0
 10
237.4857626477299
 20
98.7395896085238
 30
0.0
 10
237.8095457170967
 20
98.65607268443372
 30
0.0
 10
237.9862897099365
 20
98.6196509111858
 30
0.0
 10
238.27890061722
 20
98.58456259367671
 30
0.0
 10
238.3807333199802
 20
98.5761933996819
 30
0.0
 10
238.5966962443852
 20
98.56961303820212
 30
0.0
 10
238.710898578208
 20
98.57143325917596
 30
0.0
 10
238.950670685161
 20
98.59132072152215
 30
0.0
 10
239.0791307686469
 20
98.60977794048026
 30
0.0
 10
239.3420911866245
 20
98.67165518737556
 30
0.0
 10
239.4791437231892
 20
98.71641136096216
 30
0.0
 10
239.6703464952094
 20
98.80150049689988
 30
0.0
 10
239.7331425147818
 20
98.8334112854874
 30
0.0
 10
239.8501893418765
 20
98.90053865032866
 30
0.0
 10
239.9048171254244
 20
98.93580563470705
 30
0.0
 10
240.0588254084794
 20
99.0458833871042
 30
0.0
 10
240.1453287974592
 20
99.12290399837849
 30
0.0
 10
240.3630814859444
 20
99.34753796560204
 30
0.0
 10
240.4625834843644
 20
99.49611982418104
 30
0.0
 10
240.6159589299068
 20
99.78090990183038
 30
0.0
 10
240.6685508138522
 20
99.91648116651207
 30
0.0
 10
240.7467276192777
 20
100.177420797978
 30
0.0
 10
240.7718378495841
 20
100.3031575037005
 30
0.0
 10
240.8170782304082
 20
100.6613413621285
 30
0.0
 10
240.8085527884575
 20
100.874905268831
 30
0.0
 10
240.738826494335
 20
101.2406313484937
 30
0.0
 10
240.6781318570241
 20
101.3941057657751
 30
0.0
 10
240.5805928993483
 20
101.490162887515
 30
0.0
  0
ELLIPSE
  5
13D
330
1F
100
AcDbEntity
  8
0
  6
HIDDEN
 62
     7
370
     0
100
AcDbEllipse
 10
240.7867036852
 20
95.9472987089
 30
0.0
 11
3.681011334679084
 21
-1.562788524614234
 31
0.0
210
0.0
220
0.0
230
1.0
 40
0.1034916655
 41
3.397792257525698
 42
6.539384911115442
  0
ELLIPSE
  5
13E
330
1F
100
AcDbEntity
  8
0
  6
HIDDEN
 62
     7
370
     0
100
AcDbEllipse
 10
232.1240248519
 20
108.3654339291
 30
0.0
 11
-3.085533036944696
 21
3.038656856958482
 31
0.0
210
0.0
220
0.0
230
1.0
 40
0.9698463104
 41
2.467396271879768
 42
6.707973137463267
  0
ELLIPSE
  5
13F
330
1F
100
AcDbEntity
  8
0
  6
HIDDEN
 62
     7
370
     0
100
AcDbEllipse
 10
232.1240248519
 20
108.3654339291
 30
0.0
 11
-3.085533036944696
 21
3.038656856958482
 31
0.0
210
0.0
220
0.0
230
1.0
 40
0.9698463104
 41
1.330859430420978
 42
1.590523219581829
  0
LINE
  5
140
330
1F
100
AcDbEntity
  8
0
  6
HIDDEN
 62
     7
370
     0
100
AcDbLine
 10
240.5805933153
 20
101.4901637256
 30
0.0
 11
239.8526902174
 21
102.2070082992
 31
0.0
  0
ELLIPSE
  5
141
330
1F
100
AcDbEntity
  8
0
  6
HIDDEN
 62
     7
370
     0
100
AcDbEllipse
 10
236.7089237842
 20
103.8501899137
 30
0.0
 11
3.458945724495238
 21
2.424366921008229
 31
0.0
210
0.0
220
0.0
230
1.0
 40
0.8084582345
 41
3.833768130329748
 42
5.108891971568164
  0
LINE
  5
142
330
1F
100
AcDbEntity
  8
0
  6
HIDDEN
 62
     7
370
     0
100
AcDbLine
 10
235.2969209527
 20
100.1990600645
 30
0.0
 11
236.0248240506
 21
99.4822136283
 31
0.0
  0
LWPOLYLINE
  5
143
330
1F
100
AcDbEntity
  8
0
  6
HIDDEN
 62
     7
370
     0
100
AcDbPolyline
 90
       34
 70
   128
 43
0.0
 10
242.2848093187
 20
102.4304605245
 10
242.1861412798
 20
101.6473132342
 10
241.9416169499
 20
100.8924725622
 10
241.5600727176
 20
100.1932169467
 10
241.0553033327
 20
99.5748224825
 10
240.4455440914
 20
99.0596371859
 10
239.7528412615
 20
98.6662837833
 10
239.0022250687
 20
98.4089761197
 10
238.2208268022
 20
98.2970162451
 10
237.4368916129
 20
98.3344498247
 10
236.6787503337
 20
98.5199227154
 10
235.9738024746
 20
98.8467331201
 10
235.3475252961
 20
99.3030700058
 10
234.8225611126
 20
99.872437787
 10
234.4178791021
 20
100.5342579603
 10
234.1481047546
 20
101.2646141618
 10
234.0229871546
 20
102.0371052593
 10
234.04705253
 20
102.8238139272
 10
234.2194291627
 20
103.5963068873
 10
234.5338883673
 20
104.3266612261
 10
234.979060558
 20
104.9884832621
 10
235.5388599311
 20
105.5578510433
 10
236.1930544352
 20
106.0141860664
 10
236.9179959272
 20
106.340996471
 10
237.687488166
 20
106.5264712244
 10
238.4737144088
 20
106.5639029413
 10
239.2482618665
 20
106.4519430667
 10
239.9831349825
 20
106.1946354031
 10
240.651772437
 20
105.8012820005
 10
241.2300119971
 20
105.286096704
 10
241.696951059
 20
104.6677022397
 10
242.0357140576
 20
103.9684484869
 10
242.2340559637
 20
103.2136059523
 10
242.2848093187
 20
102.4304605245
  0
LINE
  5
144
330
1F
100
AcDbEntity
  8
0
  6
HIDDEN
 62
     7
370
     0
100
AcDbLine
 10
243.2114864563
 20
95.6912371486
 30
0.0
 11
244.7787831401
 21
91.9177676707
 31
0.0
  0
LINE
  5
145
330
1F
100
AcDbEntity
  8
0
  6
HIDDEN
 62
     7
370
     0
100
AcDbLine
 10
244.2407878911
 20
92.4475877702
 30
0.0
 11
244.7787831401
 21
91.9177676707
 31
0.0
  0
LINE
  5
146
330
1F
100
AcDbEntity
  8
0
  6
HIDDEN
 62
     7
370
     0
100
AcDbLine
 10
241.2684197401
 20
97.8788598597
 30
0.0
 11
239.8526902174
 21
102.2070082992
 31
0.0
  0
LINE
  5
147
330
1F
100
AcDbEntity
  8
0
  6
HIDDEN
 62
     7
370
     0
100
AcDbLine
 10
243.2114864563
 20
95.6912371486
 30
0.0
 11
244.3885515307
 21
94.5320553303
 31
0.0
  0
LINE
  5
148
330
1F
100
AcDbEntity
  8
0
  6
HIDDEN
 62
     7
370
     0
100
AcDbLine
 10
240.2230138754
 20
89.9098175734
 30
0.0
 11
237.0878989672
 21
97.4580268532
 31
0.0
  0
ARC
  5
149
330
1F
100
AcDbEntity
  8
0
  6
HIDDEN
 62
     7
370
     0
100
AcDbCircle
 10
243.2859893144
 20
89.1325269562
 30
0.0
 40
3.160063170839961
100
AcDbArc
 50
165.7606502527
 51
61.8102129174
  0
LINE
  5
14A
330
1F
100
AcDbEntity
  8
0
  6
HIDDEN
 62
     7
370
     0
100
AcDbLine
 10
251.629849044
 20
80.5405709118
 30
0.0
 11
252.0139078473
 21
80.9432822436
 31
0.0
  0
LINE
  5
14B
330
1F
100
AcDbEntity
  8
0
  6
HIDDEN
 62
     7
370
     0
100
AcDbLine
 10
235.2059344625
 20
93.6592924565
 30
0.0
 11
238.0883517539
 21
84.4931672484
 31
0.0
  0
LINE
  5
14C
330
1F
100
AcDbEntity
  8
0
  6
HIDDEN
 62
     7
370
     0
100
AcDbLine
 10
237.0878989672
 20
97.4580268532
 30
0.0
 11
233.5150885259
 21
98.4888612449
 31
0.0
  0
LINE
  5
14D
330
1F
100
AcDbEntity
  8
0
  6
HIDDEN
 62
     7
370
     0
100
AcDbLine
 10
247.7917755817
 20
94.3697239429
 30
0.0
 11
243.2114864563
 21
95.6912371486
 31
0.0
  0
LINE
  5
14E
330
1F
100
AcDbEntity
  8
0
  6
HIDDEN
 62
     7
370
     0
100
AcDbLine
 10
247.7917755817
 20
94.3697239429
 30
0.0
 11
252.0139078473
 21
80.9432822436
 31
0.0
  0
LINE
  5
14F
330
1F
100
AcDbEntity
  8
0
  6
HIDDEN
 62
     7
370
     0
100
AcDbLine
 10
237.1848570978
 20
97.3625420749
 30
0.0
 11
237.0878989672
 21
97.4580268532
 31
0.0
  0
LINE
  5
150
330
1F
100
AcDbEntity
  8
0
  6
HIDDEN
 62
     7
370
     0
100
AcDbLine
 10
152.7362326955
 20
108.2597547367
 30
0.0
 11
152.7362326955
 21
102.2054436773
 31
0.0
  0
LINE
  5
151
330
1F
100
AcDbEntity
  8
0
  6
HIDDEN
 62
     7
370
     0
100
AcDbLine
 10
187.036232171
 20
107.8288867295
 30
0.0
 11
187.036232171
 21
101.3437076628
 31
0.0
  0
LINE
  5
152
330
1F
100
AcDbEntity
  8
0
  6
HIDDEN
 62
     7
370
     0
100
AcDbLine
 10
152.7362326955
 20
144.5221710175
 30
0.0
 11
152.7362326955
 21
138.4678599581
 31
0.0
  0
LINE
  5
153
330
1F
100
AcDbEntity
  8
0
  6
HIDDEN
 62
     7
370
     0
100
AcDbLine
 10
187.036232171
 20
145.383907032
 30
0.0
 11
187.036232171
 21
138.8987279653
 31
0.0
  0
SPLINE
  5
154
330
1F
100
AcDbEntity
  8
0
  6
HIDDEN
 62
     7
370
     0
100
AcDbSpline
210
0.0
220
0.0
230
1.0
 70
     8
 71
     3
 72
    16
 73
    12
 74
     0
 42
0.00000001
 43
0.00000001
 12
1.0
 22
0.0
 32
0.0
 13
1.0
 23
0.0
 33
0.0
 40
0.0
 40
0.0
 40
0.0
 40
0.0
 40
0.2500000000000006
 40
0.2500000000000006
 40
0.3750000000000007
 40
0.3750000000000007
 40
0.5000000000000008
 40
0.5000000000000008
 40
0.7500000000000004
 40
0.7500000000000004
 40
1.0
 40
1.0
 40
1.0
 40
1.0
 10
187.9149118154897
 20
106.7799007211655
 30
0.0
 10
187.7536793380052
 20
106.0655065589734
 30
0.0
 10
187.6331994983656
 20
105.4121642962647
 30
0.0
 10
187.5108189810523
 20
104.5239090544608
 30
0.0
 10
187.4798413206549
 20
104.243228518109
 30
0.0
 10
187.4382275830269
 20
103.714194528269
 30
0.0
 10
187.4279916700941
 20
103.4708735496905
 30
0.0
 10
187.427803273038
 20
102.8028508591773
 30
0.0
 10
187.4679479756756
 20
102.4391699497578
 30
0.0
 10
187.6321017306151
 20
101.8792790772095
 30
0.0
 10
187.7536533810247
 20
101.6917577850924
 30
0.0
 10
187.9149118154897
 20
101.5937263924044
 30
0.0
  0
LINE
  5
155
330
1F
100
AcDbEntity
  8
0
  6
HIDDEN
 62
     7
370
     0
100
AcDbLine
 10
151.2362333809
 20
143.6561453313
 30
0.0
 11
151.2362333809
 21
138.034847115
 31
0.0
  0
LINE
  5
156
330
1F
100
AcDbEntity
  8
0
  6
HIDDEN
 62
     7
370
     0
100
AcDbLine
 10
151.2362333809
 20
108.6927675798
 30
0.0
 11
151.2362333809
 21
103.0714693636
 31
0.0
  0
SPLINE
  5
157
330
1F
100
AcDbEntity
  8
0
  6
HIDDEN
 62
     7
370
     0
100
AcDbSpline
210
0.0
220
0.0
230
1.0
 70
     8
 71
     3
 72
    16
 73
    12
 74
     0
 42
0.00000001
 43
0.00000001
 12
1.0
 22
0.0
 32
0.0
 13
1.0
 23
0.0
 33
0.0
 40
0.0
 40
0.0
 40
0.0
 40
0.0
 40
0.2500000000000003
 40
0.2500000000000003
 40
0.3750000000000003
 40
0.3750000000000003
 40
0.5000000000000002
 40
0.5000000000000002
 40
0.7500000000000001
 40
0.7500000000000001
 40
1.0
 40
1.0
 40
1.0
 40
1.0
 10
187.9149118154897
 20
145.1338883024086
 30
0.0
 10
187.7536793380053
 20
145.0358726893539
 30
0.0
 10
187.6331994983656
 20
144.8491366576778
 30
0.0
 10
187.5108189810523
 20
144.436096850119
 30
0.0
 10
187.4798413206549
 20
144.276096350886
 30
0.0
 10
187.4382275830269
 20
143.9092906997949
 30
0.0
 10
187.4279916700941
 20
143.7059535471709
 30
0.0
 10
187.427803273038
 20
143.0386662805442
 30
0.0
 10
187.4679479756756
 20
142.5178518166561
 30
0.0
 10
187.6321017306152
 20
141.3204928011785
 30
0.0
 10
187.7536533810247
 20
140.6622231468824
 30
0.0
 10
187.9149118154897
 20
139.9477139736476
 30
0.0
  0
SPLINE
  5
158
330
1F
100
AcDbEntity
  8
0
  6
HIDDEN
 62
     7
370
     0
100
AcDbSpline
210
0.0
220
0.0
230
1.0
 70
     8
 71
     3
 72
    10
 73
     6
 74
     0
 42
0.00000001
 43
0.00000001
 12
1.0
 22
0.0
 32
0.0
 13
1.0
 23
0.0
 33
0.0
 40
0.0
 40
0.0
 40
0.0
 40
0.0
 40
0.5
 40
0.5
 40
1.0
 40
1.0
 40
1.0
 40
1.0
 10
239.3898461798128
 20
91.25385032244051
 30
0.0
 10
239.4148999054577
 20
91.07784035648001
 30
0.0
 10
239.4532692059848
 20
90.91538812764848
 30
0.0
 10
239.5514783739077
 20
90.63374759551508
 30
0.0
 10
239.61075238188
 20
90.51277721914056
 30
0.0
 10
239.6850186129704
 20
90.43963925897567
 30
0.0
  0
ARC
  5
159
330
1F
100
AcDbEntity
  8
0
  6
HIDDEN
 62
     7
370
     0
100
AcDbCircle
 10
242.3211204738
 20
90.0888569153
 30
0.0
 40
3.154296070151767
100
AcDbArc
 50
158.3253636361
 51
69.245459019
  0
SPLINE
  5
15A
330
1F
100
AcDbEntity
  8
0
  6
HIDDEN
 62
     7
370
     0
100
AcDbSpline
210
0.0
220
0.0
230
1.0
 70
     8
 71
     3
 72
    10
 73
     6
 74
     0
 42
0.00000001
 43
0.00000001
 12
1.0
 22
0.0
 32
0.0
 13
1.0
 23
0.0
 33
0.0
 40
0.0
 40
0.0
 40
0.0
 40
0.0
 40
0.5
 40
0.5
 40
1.0
 40
1.0
 40
1.0
 40
1.0
 10
244.2407871321135
 20
92.44758853148663
 30
0.0
 10
244.1666080388949
 20
92.52064067759976
 30
0.0
 10
244.049501536079
 20
92.61627486548771
 30
0.0
 10
243.7751704038921
 20
92.82029706551165
 30
0.0
 10
243.6161266129776
 20
92.92955088062172
 30
0.0
 10
243.4388923444409
 20
93.03846235144569
 30
0.0
  0
LINE
  5
15B
330
1F
100
AcDbEntity
  8
0
  6
HIDDEN
 62
     7
370
     0
100
AcDbLine
 10
240.2230138754
 20
89.9098175734
 30
0.0
 11
239.6850186264
 21
90.4396395355
 31
0.0
  0
LWPOLYLINE
  5
15C
330
1F
100
AcDbEntity
  8
0
  6
HIDDEN
 62
     7
370
     0
100
AcDbPolyline
 90
       13
 70
   128
 43
0.0
 10
241.2684197401
 20
97.8788598597
 10
241.3284304415
 20
97.4238957435
 10
241.2291179275
 20
96.9315185368
 10
240.9772473251
 20
96.4352819294
 10
240.5899884974
 20
95.9690022439
 10
240.0937276756
 20
95.5644580692
 10
239.5222867703
 20
95.2492165536
 10
238.9146099662
 20
95.0447614461
 10
238.3121038651
 20
94.9650271952
 10
237.7558323418
 20
95.0154471367
 10
237.2837076758
 20
95.1925828278
 10
236.9278940236
 20
95.4843661904
 10
236.7126504754
 20
95.8709097624
  0
ELLIPSE
  5
15D
330
1F
100
AcDbEntity
  8
0
  6
HIDDEN
 62
     7
370
     0
100
AcDbEllipse
 10
240.8978660763
 20
93.3897064953
 30
0.0
 11
-0.9785571450901501
 21
2.771894816581153
 31
0.0
210
0.0
220
0.0
230
1.0
 40
0.8461473042
 41
2.111072784524406
 42
4.300397155067543
  0
SPLINE
  5
15E
330
1F
100
AcDbEntity
  8
0
  6
HIDDEN
 62
     7
370
     0
100
AcDbSpline
210
0.0
220
0.0
230
1.0
 70
     8
 71
     3
 72
    31
 73
    27
 74
     0
 42
0.00000001
 43
0.00000001
 12
1.0
 22
0.0
 32
0.0
 13
1.0
 23
0.0
 33
0.0
 40
0.0
 40
0.0
 40
0.0
 40
0.0
 40
0.0164335135812825
 40
0.0329054960672882
 40
0.0494195443669979
 40
0.0659792279782218
 40
0.0825880869756177
 40
0.0992496300890204
 40
0.1159673328760952
 40
0.1453321847397074
 40
0.1748714700330814
 40
0.2344182114341327
 40
0.2946290729179078
 40
0.3555149286842594
 40
0.4170811492616626
 40
0.4793269191940769
 40
0.5422465111297754
 40
0.6058282648267738
 40
0.6700561164145706
 40
0.7349086714810487
 40
0.8003604889093784
 40
0.8663816561015515
 40
0.8995895076256358
 40
0.932941636454166
 40
0.9663981869407698
 40
1.0
 40
1.0
 40
1.0
 40
1.0
 10
252.0139116168957
 20
80.94328168109952
 30
0.0
 10
251.9736070004673
 20
81.00334544513856
 30
0.0
 10
251.8929034192875
 20
81.12361357535906
 30
0.0
 10
251.7690668915776
 20
81.31331751757996
 30
0.0
 10
251.6430310223167
 20
81.51006971913392
 30
0.0
 10
251.5146036741206
 20
81.71452937179386
 30
0.0
 10
251.3838367202663
 20
81.92651866294662
 30
0.0
 10
251.2507156574665
 20
82.14608689057054
 30
0.0
 10
251.0812485697155
 20
82.43021619831283
 30
0.0
 10
250.8731242909661
 20
82.78666848261463
 30
0.0
 10
250.5397237576567
 20
83.37219129151308
 30
0.0
 10
250.1059174175281
 20
84.16067685037136
 30
0.0
 10
249.5609868333059
 20
85.19174391938793
 30
0.0
 10
248.9913500448591
 20
86.30820425428365
 30
0.0
 10
248.3981787696627
 20
87.50779238020938
 30
0.0
 10
247.7827157947206
 20
88.78794696629771
 30
0.0
 10
247.1462143572314
 20
90.14610411362975
 30
0.0
 10
246.4900074046853
 20
91.5793695315699
 30
0.0
 10
245.8154352642561
 20
93.0848539282588
 30
0.0
 10
245.1239003626299
 20
94.65939278671563
 30
0.0
 10
244.4168308916741
 20
96.29974618087049
 30
0.0
 10
243.8171064681947
 20
97.71584562245295
 30
0.0
 10
243.3309727709056
 20
98.87818285044122
 30
0.0
 10
242.9626749519433
 20
99.76611756108004
 30
0.0
 10
242.5916095999447
 20
100.6673694539023
 30
0.0
 10
242.3427630446633
 20
101.2777469533304
 30
0.0
 10
242.2180702399354
 20
101.5835968063069
 30
0.0
  0
LINE
  5
15F
330
1F
100
AcDbEntity
  8
0
  6
HIDDEN
 62
     7
370
     0
100
AcDbLine
 10
235.2969209527
 20
100.1990600645
 30
0.0
 11
236.7126504754
 21
95.8709097624
 31
0.0
  0
LINE
  5
160
330
1F
100
AcDbEntity
  8
0
  6
HIDDEN
 62
     7
370
     0
100
AcDbLine
 10
151.2362333809
 20
138.034847115
 30
0.0
 11
151.2362333809
 21
126.2657947529
 31
0.0
  0
LINE
  5
161
330
1F
100
AcDbEntity
  8
0
  6
HIDDEN
 62
     7
370
     0
100
AcDbLine
 10
151.2362333809
 20
120.4618199419
 30
0.0
 11
151.2362333809
 21
108.6927675798
 31
0.0
  0
LINE
  5
162
330
1F
100
AcDbEntity
  8
0
  6
HIDDEN
 62
     7
370
     0
100
AcDbLine
 10
152.7362326955
 20
119.3985962465
 30
0.0
 11
152.7362326955
 21
108.2597547367
 31
0.0
  0
LINE
  5
163
330
1F
100
AcDbEntity
  8
0
  6
HIDDEN
 62
     7
370
     0
100
AcDbLine
 10
152.7362326955
 20
138.4678599581
 30
0.0
 11
152.7362326955
 21
127.3290184483
 31
0.0
  0
LINE
  5
164
330
1F
100
AcDbEntity
  8
0
  6
HIDDEN
 62
     7
370
     0
100
AcDbLine
 10
189.0362321641
 20
138.4015144005
 30
0.0
 11
189.0362321641
 21
108.3261002943
 31
0.0
  0
LINE
  5
165
330
1F
100
AcDbEntity
  8
0
  6
HIDDEN
 62
     7
370
     0
100
AcDbLine
 10
187.036232171
 20
138.8987279653
 30
0.0
 11
187.036232171
 21
107.8288867295
 31
0.0
  0
ELLIPSE
  5
166
330
1F
100
AcDbEntity
  8
0
  6
HIDDEN
 62
     7
370
     0
100
AcDbEllipse
 10
238.5667145356
 20
123.3638073474
 30
0.0
 11
-11.07892454872112
 21
31.97838338560524
 31
0.0
210
0.0
220
0.0
230
1.0
 40
0.1061482562
 41
0.5456506878926389
 42
1.53403778308311
  0
SPLINE
  5
167
330
1F
100
AcDbEntity
  8
0
  6
HIDDEN
 62
     7
370
     0
100
AcDbSpline
210
0.0
220
0.0
230
1.0
 70
     8
 71
     3
 72
     8
 73
     4
 74
     0
 42
0.00000001
 43
0.00000001
 12
1.0
 22
0.0
 32
0.0
 13
1.0
 23
0.0
 33
0.0
 40
0.0000249638557296
 40
0.0000249638557296
 40
0.0000249638557296
 40
0.0000249638557296
 40
0.0049776420541172
 40
0.0049776420541172
 40
0.0049776420541172
 40
0.0049776420541172
 10
152.7362321590494
 20
119.39859645057
 30
0.0
 10
154.3862083935589
 20
119.3573172128018
 30
0.0
 10
156.036209713304
 20
119.3170955315623
 30
0.0
 10
157.6862321590494
 20
119.2778462943073
 30
0.0
  0
SPLINE
  5
168
330
1F
100
AcDbEntity
  8
0
  6
HIDDEN
 62
     7
370
     0
100
AcDbSpline
210
0.0
220
0.0
230
1.0
 70
     8
 71
     3
 72
     8
 73
     4
 74
     0
 42
0.00000001
 43
0.00000001
 12
1.0
 22
0.0
 32
0.0
 13
1.0
 23
0.0
 33
0.0
 40
0.0000249631533153
 40
0.0000249631533153
 40
0.0000249631533153
 40
0.0000249631533153
 40
0.0049776413517028
 40
0.0049776413517028
 40
0.0049776413517028
 40
0.0049776413517028
 10
157.6862321590494
 20
127.4497684005058
 30
0.0
 10
156.036209713304
 20
127.4105191632507
 30
0.0
 10
154.386208393559
 20
127.3702974820113
 30
0.0
 10
152.7362321590494
 20
127.3290182442431
 30
0.0
  0
SPLINE
  5
169
330
1F
100
AcDbEntity
  8
0
  6
HIDDEN
 62
     7
370
     0
100
AcDbSpline
210
0.0
220
0.0
230
1.0
 70
     8
 71
     3
 72
     8
 73
     4
 74
     0
 42
0.00000001
 43
0.00000001
 12
1.0
 22
0.0
 32
0.0
 13
1.0
 23
0.0
 33
0.0
 40
0.0
 40
0.0
 40
0.0
 40
0.0
 40
1.0
 40
1.0
 40
1.0
 40
1.0
 10
151.2362321590472
 20
120.4618200144262
 30
0.0
 10
151.7029927704249
 20
120.0464567688031
 30
0.0
 10
152.208740317205
 20
119.7018663394986
 30
0.0
 10
152.7362321590494
 20
119.39859645057
 30
0.0
  0
SPLINE
  5
16A
330
1F
100
AcDbEntity
  8
0
  6
HIDDEN
 62
     7
370
     0
100
AcDbSpline
210
0.0
220
0.0
230
1.0
 70
     8
 71
     3
 72
     8
 73
     4
 74
     0
 42
0.00000001
 43
0.00000001
 12
1.0
 22
0.0
 32
0.0
 13
1.0
 23
0.0
 33
0.0
 40
0.0
 40
0.0
 40
0.0
 40
0.0
 40
1.0
 40
1.0
 40
1.0
 40
1.0
 10
152.7362321590494
 20
127.3290182442431
 30
0.0
 10
152.2087403172059
 20
127.025748355315
 30
0.0
 10
151.7029927704266
 20
126.681157926011
 30
0.0
 10
151.2362321590494
 20
126.2657946803889
 30
0.0
  0
LINE
  5
16B
330
1F
100
AcDbEntity
  8
0
  6
HIDDEN
 62
     7
370
     0
100
AcDbLine
 10
151.2362333809
 20
120.4618199419
 30
0.0
 11
151.2362333809
 21
126.2657947529
 31
0.0
  0
LINE
  5
16C
330
1F
100
AcDbEntity
  8
0
  6
HIDDEN
 62
     7
370
     0
100
AcDbLine
 10
157.686230806
 20
119.2778460838
 30
0.0
 11
157.686230806
 21
127.449768611
 31
0.0
  0
SPLINE
  5
16D
330
1F
100
AcDbEntity
  8
0
  6
HIDDEN
 62
     7
370
     0
100
AcDbSpline
210
0.0
220
0.0
230
1.0
 70
     8
 71
     3
 72
    24
 73
    20
 74
     0
 42
0.00000001
 43
0.00000001
 12
1.0
 22
0.0
 32
0.0
 13
1.0
 23
0.0
 33
0.0
 40
0.0
 40
0.0
 40
0.0
 40
0.0
 40
0.125
 40
0.125
 40
0.25
 40
0.25
 40
0.3749999999999999
 40
0.3749999999999999
 40
0.4374999999999999
 40
0.4374999999999999
 40
0.4999999999999999
 40
0.4999999999999999
 40
0.625
 40
0.625
 40
0.75
 40
0.75
 40
0.875
 40
0.875
 40
1.0
 40
1.0
 40
1.0
 40
1.0
 10
157.6862321590494
 20
119.2778462943073
 30
0.0
 10
157.9240357913245
 20
119.5768533966374
 30
0.0
 10
158.1541214525358
 20
119.8811912479561
 30
0.0
 10
158.5888748511456
 20
120.5069247853521
 30
0.0
 10
158.7938076434318
 20
120.8281495126796
 30
0.0
 10
159.1589095939304
 20
121.5000752834124
 30
0.0
 10
159.320709979722
 20
121.8553905152913
 30
0.0
 10
159.4925701843017
 20
122.4056217366437
 30
0.0
 10
159.5381553759618
 20
122.5920255216242
 30
0.0
 10
159.6006301155367
 20
122.9721600237204
 30
0.0
 10
159.6173012612851
 20
123.1678298160063
 30
0.0
 10
159.6178223044616
 20
123.7463101946807
 30
0.0
 10
159.5533800035749
 20
124.1242220336495
 30
0.0
 10
159.3235309102016
 20
124.866190058748
 30
0.0
 10
159.1650102325385
 20
125.2149055189089
 30
0.0
 10
158.8007759026383
 20
125.8879979166421
 30
0.0
 10
158.5940396625747
 20
126.2129504038837
 30
0.0
 10
158.1561017168344
 20
126.8438742143455
 30
0.0
 10
157.9248289895548
 20
127.1497639546861
 30
0.0
 10
157.6862321590495
 20
127.4497684005056
 30
0.0
  0
SPLINE
  5
16E
330
1F
100
AcDbEntity
  8
0
  6
HIDDEN
 62
     7
370
     0
100
AcDbSpline
210
0.0
220
0.0
230
1.0
 70
     8
 71
     3
 72
    72
 73
    68
 74
     0
 42
0.00000001
 43
0.00000001
 12
1.0
 22
0.0
 32
0.0
 13
1.0
 23
0.0
 33
0.0
 40
-0.03125
 40
-0.03125
 40
0.0
 40
0.0
 40
0.0312499999999998
 40
0.0312499999999998
 40
0.0624999999999996
 40
0.0624999999999996
 40
0.0937499999999994
 40
0.0937499999999994
 40
0.1249999999999992
 40
0.1249999999999992
 40
0.1562499999999993
 40
0.1562499999999993
 40
0.1874999999999993
 40
0.1874999999999993
 40
0.2187499999999993
 40
0.2187499999999993
 40
0.2499999999999993
 40
0.2499999999999993
 40
0.2812499999999993
 40
0.2812499999999993
 40
0.3124999999999994
 40
0.3124999999999994
 40
0.3437499999999994
 40
0.3437499999999994
 40
0.3749999999999994
 40
0.3749999999999994
 40
0.3906249999999994
 40
0.3906249999999994
 40
0.4062499999999994
 40
0.4062499999999994
 40
0.4374999999999995
 40
0.4374999999999995
 40
0.4687499999999995
 40
0.4687499999999995
 40
0.4999999999999996
 40
0.4999999999999996
 40
0.5312499999999996
 40
0.5312499999999996
 40
0.5624999999999996
 40
0.5624999999999996
 40
0.5937499999999997
 40
0.5937499999999997
 40
0.6249999999999997
 40
0.6249999999999997
 40
0.6562499999999997
 40
0.6562499999999997
 40
0.6874999999999997
 40
0.6874999999999997
 40
0.7187499999999998
 40
0.7187499999999998
 40
0.7499999999999998
 40
0.7499999999999998
 40
0.7812499999999998
 40
0.7812499999999998
 40
0.8124999999999998
 40
0.8124999999999998
 40
0.8437499999999999
 40
0.8437499999999999
 40
0.8749999999999999
 40
0.8749999999999999
 40
0.9062499999999999
 40
0.9062499999999999
 40
0.9374999999999999
 40
0.9374999999999999
 40
0.96875
 40
0.96875
 40
1.0
 40
1.0
 40
1.03125
 40
1.03125
 10
170.3601784778746
 20
125.8046409972214
 30
0.0
 10
170.7346086977485
 20
126.2149967977065
 30
0.0
 10
170.9394612990141
 20
126.398645880365
 30
0.0
 10
171.3823294958611
 20
126.7256007838603
 30
0.0
 10
171.6222849131794
 20
126.8693789920402
 30
0.0
 10
172.1178958959539
 20
127.106896347486
 30
0.0
 10
172.3751621871083
 20
127.2022159123838
 30
0.0
 10
172.9085159549454
 20
127.3463014450183
 30
0.0
 10
173.1827960948437
 20
127.3940374519879
 30
0.0
 10
173.7292246294233
 20
127.4396195925217
 30
0.0
 10
174.0038009478911
 20
127.4381858324494
 30
0.0
 10
174.5557681221618
 20
127.3852725243586
 30
0.0
 10
174.8263850847335
 20
127.3343027981544
 30
0.0
 10
175.3526702558127
 20
127.1856961712108
 30
0.0
 10
175.6103018192203
 20
127.0874108004537
 30
0.0
 10
176.1062279838938
 20
126.843157441268
 30
0.0
 10
176.3392116616854
 20
126.7000773102458
 30
0.0
 10
176.7755449370104
 20
126.3722187597769
 30
0.0
 10
176.9808261908687
 20
126.1852251220767
 30
0.0
 10
177.3488604887289
 20
125.7757945022537
 30
0.0
 10
177.5103754787141
 20
125.5556890612693
 30
0.0
 10
177.7875331618612
 20
125.0839389798312
 30
0.0
 10
177.9039273412949
 20
124.82892245339
 30
0.0
 10
178.0772013779415
 20
124.307684629993
 30
0.0
 10
178.1356479324073
 20
124.0402005122121
 30
0.0
 10
178.1795126578832
 20
123.6282848528796
 30
0.0
 10
178.1866928745125
 20
123.4885775498041
 30
0.0
 10
178.1857248472171
 20
123.2124544943417
 30
0.0
 10
178.1777220578035
 20
123.0752779280109
 30
0.0
 10
178.131649325891
 20
122.6663444867476
 30
0.0
 10
178.070714493439
 20
122.3944182377434
 30
0.0
 10
177.8925943370305
 20
121.8712377212883
 30
0.0
 10
177.7770264256881
 20
121.622525720925
 30
0.0
 10
177.4951796417488
 20
121.149641195933
 30
0.0
 10
177.3283096963342
 20
120.9260319787009
 30
0.0
 10
176.9589841415354
 20
120.5213745905132
 30
0.0
 10
176.7541989852379
 20
120.3369610023437
 30
0.0
 10
176.3095460377217
 20
120.0079349674493
 30
0.0
 10
176.0746969082109
 20
119.8667668914611
 30
0.0
 10
175.5812871457339
 20
119.6283573626806
 30
0.0
 10
175.3200001920292
 20
119.5305748062757
 30
0.0
 10
174.7892619115165
 20
119.3852467780856
 30
0.0
 10
174.5196222106193
 20
119.3369573878906
 30
0.0
 10
173.9718708708741
 20
119.288542164104
 30
0.0
 10
173.6919668290155
 20
119.28900034974
 30
0.0
 10
173.1448889211805
 20
119.3391522053421
 30
0.0
 10
172.875283816493
 20
119.3883257723741
 30
0.0
 10
172.344129059837
 20
119.5360002956812
 30
0.0
 10
172.0828342433934
 20
119.6351554600468
 30
0.0
 10
171.590520265218
 20
119.8761682305235
 30
0.0
 10
171.3565633896394
 20
120.0186563551482
 30
0.0
 10
170.914394769109
 20
120.3501437841331
 30
0.0
 10
170.7092012379973
 20
120.5375774121215
 30
0.0
 10
170.3435070216393
 20
120.9444811311719
 30
0.0
 10
170.180736399251
 20
121.1656602058409
 30
0.0
 10
169.8997839684854
 20
121.6454075350562
 30
0.0
 10
169.7865801162119
 20
121.8954195018665
 30
0.0
 10
169.613971392073
 20
122.4154947118869
 30
0.0
 10
169.5543651093966
 20
122.6892261765167
 30
0.0
 10
169.4964733393267
 20
123.2378438264152
 30
0.0
 10
169.4972628781867
 20
123.5121836903067
 30
0.0
 10
169.5584533538031
 20
124.0609256414457
 30
0.0
 10
169.6195820775371
 20
124.3339909553028
 30
0.0
 10
169.7956617631669
 20
124.8541562040712
 30
0.0
 10
169.9119923581569
 20
125.1064753376302
 30
0.0
 10
170.1951935878976
 20
125.5828796790371
 30
0.0
 10
170.3601784778746
 20
125.8046409972214
 30
0.0
 10
170.7346086977485
 20
126.2149967977065
 30
0.0
  0
CIRCLE
  5
16F
330
1F
100
AcDbEntity
  8
0
  6
HIDDEN
 62
     7
370
     0
100
AcDbCircle
 10
173.736232159
 20
123.3638073474
 30
0.0
 40
4.050000000000011
  0
CIRCLE
  5
170
330
1F
100
AcDbEntity
  8
0
  6
HIDDEN
 62
     7
370
     0
100
AcDbCircle
 10
201.236232159
 20
123.3638073474
 30
0.0
 40
1.999999999999972
  0
SPLINE
  5
171
330
1F
100
AcDbEntity
  8
0
  6
HIDDEN
 62
     7
370
     0
100
AcDbSpline
210
0.0
220
0.0
230
1.0
 70
     8
 71
     3
 72
     9
 73
     5
 74
     0
 42
0.00000001
 43
0.00000001
 12
1.0
 22
0.0
 32
0.0
 13
1.0
 23
0.0
 33
0.0
 40
0.0
 40
0.0
 40
0.0
 40
0.0
 40
0.4999997999493228
 40
1.0
 40
1.0
 40
1.0
 40
1.0
 10
242.2180663520525
 20
101.5835978555681
 30
0.0
 10
242.1874573886788
 20
101.4709666852154
 30
0.0
 10
242.126239437438
 20
101.2457042543822
 30
0.0
 10
242.0626963473219
 20
101.0210866326375
 30
0.0
 10
242.030924789552
 20
100.9087777768302
 30
0.0
  0
LINE
  5
172
330
1F
100
AcDbEntity
  8
0
  6
HIDDEN
 62
     7
370
     0
100
AcDbLine
 10
242.218070743
 20
101.5835995942
 30
0.0
 11
234.7674044644
 21
123.3638073474
 31
0.0
  0
LINE
  5
173
330
1F
100
AcDbEntity
  8
0
  6
HIDDEN
 62
     7
370
     0
100
AcDbLine
 10
213.2362323677
 20
107.6138890505
 30
0.0
 11
213.2362323677
 21
110.48065826
 31
0.0
  0
LINE
  5
174
330
1F
100
AcDbEntity
  8
0
  6
HIDDEN
 62
     7
370
     0
100
AcDbLine
 10
207.2362313842
 20
111.1138076678
 30
0.0
 11
207.2362313842
 21
107.6155989587
 31
0.0
  0
LINE
  5
175
330
1F
100
AcDbEntity
  8
0
  6
HIDDEN
 62
     7
370
     0
100
AcDbLine
 10
189.236232159
 20
99.1138066322
 30
0.0
 11
189.3291253795
 21
99.206700471
 31
0.0
  0
LINE
  5
176
330
1F
100
AcDbEntity
  8
0
  6
HIDDEN
 62
     7
370
     0
100
AcDbLine
 10
189.3291253795
 20
147.5209142238
 30
0.0
 11
189.236232159
 21
147.6138080627
 31
0.0
  0
ARC
  5
177
330
1F
100
AcDbEntity
  8
0
  6
HIDDEN
 62
     7
370
     0
100
AcDbCircle
 10
188.6220185967
 20
99.9138073474
 30
0.0
 40
1.0
100
AcDbArc
 50
315.0
 51
0.0
  0
ARC
  5
178
330
1F
100
AcDbEntity
  8
0
  6
HIDDEN
 62
     7
370
     0
100
AcDbCircle
 10
188.6220185967
 20
99.9138073474
 30
0.0
 40
1.0
100
AcDbArc
 50
0.0
 51
52.1052014664
  0
ARC
  5
179
330
1F
100
AcDbEntity
  8
0
  6
HIDDEN
 62
     7
370
     0
100
AcDbCircle
 10
188.6220185967
 20
146.8138073474
 30
0.0
 40
1.000000000000008
100
AcDbArc
 50
351.8087250651
 51
45.0
  0
ARC
  5
17A
330
1F
100
AcDbEntity
  8
0
  6
HIDDEN
 62
     7
370
     0
100
AcDbCircle
 10
188.6220185967
 20
146.8138073474
 30
0.0
 40
0.9999999999999989
100
AcDbArc
 50
307.8947985336
 51
351.8087250651
  0
LINE
  5
17B
330
1F
100
AcDbEntity
  8
0
  6
HIDDEN
 62
     7
370
     0
100
AcDbLine
 10
189.6220185948
 20
99.9138071358
 30
0.0
 11
189.6220185948
 21
146.813807559
 31
0.0
  0
LINE
  5
17C
330
1F
100
AcDbEntity
  8
0
  6
HIDDEN
 62
     7
370
     0
100
AcDbLine
 10
189.6220185948
 20
99.9138071358
 30
0.0
 11
189.6220185948
 21
146.813807559
 31
0.0
  0
LINE
  5
17D
330
1F
100
AcDbEntity
  8
0
  6
HIDDEN
 62
     7
370
     0
100
AcDbLine
 10
219.5326118594
 20
108.0084997386
 30
0.0
 11
212.2531189447
 21
113.5670175001
 31
0.0
  0
LINE
  5
17E
330
1F
100
AcDbEntity
  8
0
  6
HIDDEN
 62
     7
370
     0
100
AcDbLine
 10
210.7795580154
 20
108.4012161165
 30
0.0
 11
219.630834726
 21
101.6425057471
 31
0.0
  0
LINE
  5
17F
330
1F
100
AcDbEntity
  8
0
  6
HIDDEN
 62
     7
370
     0
100
AcDbLine
 10
212.7362313544
 20
112.5378660083
 30
0.0
 11
212.7362313544
 21
118.867772647
 31
0.0
  0
LINE
  5
180
330
1F
100
AcDbEntity
  8
0
  6
HIDDEN
 62
     7
370
     0
100
AcDbLine
 10
207.7362323975
 20
118.8661330536
 30
0.0
 11
207.7362323975
 21
111.2640225485
 31
0.0
  0
LINE
  5
181
330
1F
100
AcDbEntity
  8
0
  6
HIDDEN
 62
     7
370
     0
100
AcDbLine
 10
151.2362333809
 20
107.1673776179
 30
0.0
 11
152.766459701
 21
108.0508562893
 31
0.0
  0
LINE
  5
182
330
1F
100
AcDbEntity
  8
0
  6
HIDDEN
 62
     7
370
     0
100
AcDbLine
 10
152.766459701
 20
138.6767584056
 30
0.0
 11
151.2362333809
 21
139.5602370769
 31
0.0
  0
ARC
  5
183
330
1F
100
AcDbEntity
  8
0
  6
HIDDEN
 62
     7
370
     0
100
AcDbCircle
 10
161.236232159
 20
109.3638073474
 30
0.0
 40
2.0
100
AcDbArc
 50
189.9742217944
 51
270.0
  0
ARC
  5
184
330
1F
100
AcDbEntity
  8
0
  6
HIDDEN
 62
     7
370
     0
100
AcDbCircle
 10
161.236232159
 20
137.3638073474
 30
0.0
 40
2.0
100
AcDbArc
 50
90.0
 51
170.0257782056
  0
LINE
  5
185
330
1F
100
AcDbEntity
  8
0
  6
HIDDEN
 62
     7
370
     0
100
AcDbLine
 10
161.2362312948
 20
107.3638065874
 30
0.0
 11
162.2380326366
 21
107.3638065874
 31
0.0
  0
LINE
  5
186
330
1F
100
AcDbEntity
  8
0
  6
HIDDEN
 62
     7
370
     0
100
AcDbLine
 10
162.2380326366
 20
139.3638081074
 30
0.0
 11
161.2362312948
 21
139.3638081074
 31
0.0
  0
ARC
  5
187
330
1F
100
AcDbEntity
  8
0
  6
HIDDEN
 62
     7
370
     0
100
AcDbCircle
 10
162.2380334739
 20
109.3638073474
 30
0.0
 40
2.0
100
AcDbArc
 50
270.0
 51
315.0
  0
ARC
  5
188
330
1F
100
AcDbEntity
  8
0
  6
HIDDEN
 62
     7
370
     0
100
AcDbCircle
 10
162.2380334739
 20
137.3638073474
 30
0.0
 40
2.0
100
AcDbArc
 50
45.0
 51
90.0
  0
LINE
  5
189
330
1F
100
AcDbEntity
  8
0
  6
HIDDEN
 62
     7
370
     0
100
AcDbLine
 10
163.6522478288
 20
107.9495935857
 30
0.0
 11
165.0664611583
 21
109.3638069153
 31
0.0
  0
LINE
  5
18A
330
1F
100
AcDbEntity
  8
0
  6
HIDDEN
 62
     7
370
     0
100
AcDbLine
 10
165.0664611583
 20
137.3638077795
 30
0.0
 11
163.6522478288
 21
138.7780211091
 31
0.0
  0
LINE
  5
18B
330
1F
100
AcDbEntity
  8
0
  6
HIDDEN
 62
     7
370
     0
100
AcDbLine
 10
152.766459701
 20
108.0508562893
 30
0.0
 11
157.6664606904
 21
109.3638069153
 31
0.0
  0
LINE
  5
18C
330
1F
100
AcDbEntity
  8
0
  6
HIDDEN
 62
     7
370
     0
100
AcDbLine
 10
157.6664606904
 20
137.3638077795
 30
0.0
 11
152.766459701
 21
138.6767584056
 31
0.0
  0
LINE
  5
18D
330
1F
100
AcDbEntity
  8
0
  6
HIDDEN
 62
     7
370
     0
100
AcDbLine
 10
159.2664598351
 20
137.7102178678
 30
0.0
 11
158.6664608543
 21
137.3638077795
 31
0.0
  0
LINE
  5
18E
330
1F
100
AcDbEntity
  8
0
  6
HIDDEN
 62
     7
370
     0
100
AcDbLine
 10
158.6664608543
 20
109.3638069153
 30
0.0
 11
159.2664598351
 21
109.017396827
 31
0.0
  0
ARC
  5
18F
330
1F
100
AcDbEntity
  8
0
  6
HIDDEN
 62
     7
370
     0
100
AcDbCircle
 10
177.736232159
 20
109.8638073474
 30
0.0
 40
0.5000000000000284
100
AcDbArc
 50
270.0
 51
0.0
  0
ARC
  5
190
330
1F
100
AcDbEntity
  8
0
  6
HIDDEN
 62
     7
370
     0
100
AcDbCircle
 10
177.736232159
 20
136.8638073474
 30
0.0
 40
0.5000000000000284
100
AcDbArc
 50
0.0
 51
90.0
  0
LINE
  5
191
330
1F
100
AcDbEntity
  8
0
  6
HIDDEN
 62
     7
370
     0
100
AcDbLine
 10
157.6664606904
 20
109.3638069153
 30
0.0
 11
158.6664608543
 21
109.3638069153
 31
0.0
  0
LINE
  5
192
330
1F
100
AcDbEntity
  8
0
  6
HIDDEN
 62
     7
370
     0
100
AcDbLine
 10
158.6664608543
 20
137.3638077795
 30
0.0
 11
157.6664606904
 21
137.3638077795
 31
0.0
  0
LINE
  5
193
330
1F
100
AcDbEntity
  8
0
  6
HIDDEN
 62
     7
370
     0
100
AcDbLine
 10
165.0664611583
 20
109.3638069153
 30
0.0
 11
177.7362321367
 21
109.3638069153
 31
0.0
  0
LINE
  5
194
330
1F
100
AcDbEntity
  8
0
  6
HIDDEN
 62
     7
370
     0
100
AcDbLine
 10
177.7362321367
 20
137.3638077795
 30
0.0
 11
165.0664611583
 21
137.3638077795
 31
0.0
  0
LINE
  5
195
330
1F
100
AcDbEntity
  8
0
  6
HIDDEN
 62
     7
370
     0
100
AcDbLine
 10
178.2362322187
 20
113.1138070643
 30
0.0
 11
179.4862319579
 21
114.3638077348
 31
0.0
  0
LINE
  5
196
330
1F
100
AcDbEntity
  8
0
  6
HIDDEN
 62
     7
370
     0
100
AcDbLine
 10
179.4862319579
 20
132.36380696
 30
0.0
 11
178.2362322187
 21
133.6138076305
 31
0.0
  0
LINE
  5
197
330
1F
100
AcDbEntity
  8
0
  6
HIDDEN
 62
     7
370
     0
100
AcDbLine
 10
216.2362328594
 20
132.36380696
 30
0.0
 11
179.4862319579
 21
132.36380696
 31
0.0
  0
LINE
  5
198
330
1F
100
AcDbEntity
  8
0
  6
HIDDEN
 62
     7
370
     0
100
AcDbLine
 10
179.4862319579
 20
114.3638077348
 30
0.0
 11
216.2362328594
 21
114.3638077348
 31
0.0
  0
LINE
  5
199
330
1F
100
AcDbEntity
  8
0
  6
HIDDEN
 62
     7
370
     0
100
AcDbLine
 10
216.2362328594
 20
114.3638077348
 30
0.0
 11
221.643977878
 21
123.3638073474
 31
0.0
  0
LINE
  5
19A
330
1F
100
AcDbEntity
  8
0
  6
HIDDEN
 62
     7
370
     0
100
AcDbLine
 10
221.643977878
 20
123.3638073474
 30
0.0
 11
216.2362328594
 21
132.36380696
 31
0.0
  0
LINE
  5
19B
330
1F
100
AcDbEntity
  8
0
  6
HIDDEN
 62
     7
370
     0
100
AcDbLine
 10
235.7677343165
 20
99.8647879034
 30
0.0
 11
236.5629385089
 21
99.0816648275
 31
0.0
  0
LINE
  5
19C
330
1F
100
AcDbEntity
  8
0
  6
HIDDEN
 62
     7
370
     0
100
AcDbLine
 10
241.4746555363
 20
104.0691542596
 30
0.0
 11
240.6794513439
 21
104.8522773355
 31
0.0
  0
LINE
  5
19D
330
1F
100
AcDbEntity
  8
0
  6
HIDDEN
 62
     7
370
     0
100
AcDbLine
 10
231.4128029024
 20
95.0031667173
 30
0.0
 11
233.0138395404
 21
93.4264543623
 31
0.0
  0
LINE
  5
19E
330
1F
100
AcDbEntity
  8
0
  6
HIDDEN
 62
     7
370
     0
100
AcDbLine
 10
244.4575327312
 20
94.447241646
 30
0.0
 11
240.6814592754
 21
101.3470865011
 31
0.0
  0
LINE
  5
19F
330
1F
100
AcDbEntity
  8
0
  6
HIDDEN
 62
     7
370
     0
100
AcDbLine
 10
229.1842187618
 20
105.365825367
 30
0.0
 11
235.2035241996
 21
99.4379664928
 31
0.0
  0
LINE
  5
1A0
330
1F
100
AcDbEntity
  8
0
  6
HIDDEN
 62
     7
370
     0
100
AcDbLine
 10
229.1769954239
 20
105.3729406714
 30
0.0
 11
229.1842187618
 21
105.365825367
 31
0.0
  0
LINE
  5
1A1
330
1F
100
AcDbEntity
  8
0
  6
HIDDEN
 62
     7
370
     0
100
AcDbLine
 10
241.0975853776
 20
105.4229526937
 30
0.0
 11
235.0710566019
 21
111.3579268724
 31
0.0
  0
LINE
  5
1A2
330
1F
100
AcDbEntity
  8
0
  6
HIDDEN
 62
     7
370
     0
100
AcDbLine
 10
245.4927014982
 20
91.3966144591
 30
0.0
 11
244.5202703451
 21
92.3542711109
 31
0.0
  0
LINE
  5
1A3
330
1F
100
AcDbEntity
  8
0
  6
HIDDEN
 62
     7
370
     0
100
AcDbLine
 10
240.0295595502
 20
87.7942810923
 30
0.0
 11
241.0019907033
 21
86.8366244405
 31
0.0
  0
LINE
  5
1A4
330
1F
100
AcDbEntity
  8
0
  6
HIDDEN
 62
     7
370
     0
100
AcDbLine
 10
236.7974716102
 20
95.6746875465
 30
0.0
 11
239.5772497033
 21
90.5953231424
 31
0.0
  0
LINE
  5
1A5
330
1F
100
AcDbEntity
  8
VERMASSUNG
  6
CENTERX2
100
AcDbLine
 10
146.1185412582
 20
123.3638073474
 30
0.0
 11
254.236232159
 21
123.3638073474
 31
0.0
  0
LINE
  5
1A6
330
1F
100
AcDbEntity
  8
VERMASSUNG
  6
CENTERX2
100
AcDbLine
 10
254.236232159
 20
78.3638073474
 30
0.0
 11
254.236232159
 21
123.3638073474
 31
0.0
  0
LINE
  5
1A7
330
1F
100
AcDbEntity
  8
VERMASSUNG
  6
CENTERX2
100
AcDbLine
 10
254.236232159
 20
78.3638073474
 30
0.0
 11
265.2334304988
 21
78.3638073474
 31
0.0
  0
DIMENSION
  5
1A8
330
1F
100
AcDbEntity
  8
VERMASSUNG
100
AcDbDimension
  2
_D
 10
249.9657493235
 20
92.4138999458
 30
0.0
 11
261.3448459099
 21
87.8496476931
 31
0.0
 70
   162
  1
<>
 71
     1
 42
-1.0
  3
SLDDIMSTYLE0
100
AcDb2LineAngularDimension
 13
265.2334304988
 23
78.3638073474
 33
0.0
 14
254.236232159
 24
78.3638073474
 34
0.0
 15
254.2201478747
 25
78.8848636159
 35
0.0
 16
261.3448459099
 26
87.8496476931
 36
0.0
  0
DIMENSION
  5
1B2
330
1F
100
AcDbEntity
  8
VERMASSUNG
100
AcDbDimension
  2
_D_1
 10
254.236232159
 20
70.7846216197
 30
0.0
 11
221.736232159
 21
70.7846216197
 31
0.0
 70
   160
  1
<>
 71
     2
 42
-1.0
  3
SLDDIMSTYLE1
100
AcDbAlignedDimension
 13
189.236232159
 23
92.3638073474
 33
0.0
 14
254.236232159
 24
78.3638073474
 34
0.0
100
AcDbRotatedDimension
  0
DIMENSION
  5
1BF
330
1F
100
AcDbEntity
  8
VERMASSUNG
100
AcDbDimension
  2
_D_2
 10
273.9120787678
 20
123.3638073474
 30
0.0
 11
273.9120787678
 21
100.8638073474
 31
0.0
 70
   160
  1
<>
 71
     2
 42
-1.0
  3
SLDDIMSTYLE1
100
AcDbAlignedDimension
 13
254.236232159
 23
78.3638073474
 33
0.0
 14
254.236232159
 24
123.3638073474
 34
0.0
 50
90.0
100
AcDbRotatedDimension
  0
DIMENSION
  5
1CB
330
1F
100
AcDbEntity
  8
VERMASSUNG
100
AcDbDimension
  2
_D_3
 10
254.236232159
 20
62.8140134151
 30
0.0
 11
202.736232159
 21
62.8140134151
 31
0.0
 70
   160
  1
<>
 71
     2
 42
-1.0
  3
SLDDIMSTYLE2
100
AcDbAlignedDimension
 13
151.236232159
 23
103.0714693549
 33
0.0
 14
254.236232159
 24
78.3638073474
 34
0.0
100
AcDbRotatedDimension
  0
DIMENSION
  5
1D6
330
1F
100
AcDbEntity
  8
VERMASSUNG
100
AcDbDimension
  2
_D_4
 10
141.236182159
 20
91.8638073474
 30
0.0
 11
141.236182159
 21
123.3638073474
 31
0.0
 70
   160
  1
PSC%%c<>
 71
     2
 42
-1.0
  3
SLDDIMSTYLE2
100
AcDbAlignedDimension
 13
189.736232159
 23
154.8638073474
 33
0.0
 14
189.736232159
 24
91.8638073474
 34
0.0
 50
90.0
100
AcDbRotatedDimension
  0
LINE
  5
1E2
330
1F
100
AcDbEntity
  8
0
  6
Continuous
 62
     7
370
    15
100
AcDbLine
 10
77.1983678468
 20
78.3622819155
 30
0.0
 11
83.3568920032
 21
79.448196587
 31
0.0
  0
SPLINE
  5
1E3
330
1F
100
AcDbEntity
  8
0
  6
Continuous
 62
     7
370
    15
100
AcDbSpline
210
0.0
220
0.0
230
1.0
 70
     8
 71
     3
 72
    14
 73
    10
 74
     0
 42
0.00000001
 43
0.00000001
 12
1.0
 22
0.0
 32
0.0
 13
1.0
 23
0.0
 33
0.0
 40
0.0
 40
0.0
 40
0.0
 40
0.0
 40
0.0045542148585832
 40
0.0378985098757818
 40
0.0861130097265623
 40
0.2546641291243048
 40
0.4600385898963892
 40
0.7334957115537694
 40
1.0
 40
1.0
 40
1.0
 40
1.0
 10
72.21722394464294
 20
94.80051092504418
 30
0.0
 10
72.21741663768836
 20
94.80024816116006
 30
0.0
 10
72.2190201587148
 20
94.79806153624948
 30
0.0
 10
72.22761568582347
 20
94.7858277538747
 30
0.0
 10
72.25599315362763
 20
94.74259948574556
 30
0.0
 10
72.30182140150372
 20
94.65473851420721
 30
0.0
 10
72.3428719036176
 20
94.51439980497497
 30
0.0
 10
72.35914045025798
 20
94.34121350764758
 30
0.0
 10
72.31929590349756
 20
94.22391651398004
 30
0.0
 10
72.29963016001264
 20
94.16602320670044
 30
0.0
  0
LINE
  5
1E4
330
1F
100
AcDbEntity
  8
0
  6
Continuous
 62
     7
370
    15
100
AcDbLine
 10
72.3014853546
 20
94.1665335715
 30
0.0
 11
72.0132591785
 21
93.3016906649
 31
0.0
  0
LINE
  5
1E5
330
1F
100
AcDbEntity
  8
0
  6
Continuous
 62
     7
370
    15
100
AcDbLine
 10
71.0898216465
 20
96.6663970768
 30
0.0
 11
70.778518694
 21
96.6115049243
 31
0.0
  0
LINE
  5
1E6
330
1F
100
AcDbEntity
  8
0
  6
Continuous
 62
     7
370
    15
100
AcDbLine
 10
83.3680650802
 20
79.7771546215
 30
0.0
 11
85.9375528642
 21
80.2302244276
 31
0.0
  0
LINE
  5
1E7
330
1F
100
AcDbEntity
  8
0
  6
Continuous
 62
     7
370
    15
100
AcDbLine
 10
85.964985902
 20
80.2509742945
 30
0.0
 11
86.1956148991
 21
80.5914956301
 31
0.0
  0
LINE
  5
1E8
330
1F
100
AcDbEntity
  8
0
  6
Continuous
 62
     7
370
    15
100
AcDbLine
 10
74.5616054745
 20
85.833735314
 30
0.0
 11
74.6161777177
 21
85.8406196505
 31
0.0
  0
LINE
  5
1E9
330
1F
100
AcDbEntity
  8
0
  6
Continuous
 62
     7
370
    15
100
AcDbLine
 10
70.8033240051
 20
96.0889249265
 30
0.0
 11
73.9505956998
 21
82.5598868698
 31
0.0
  0
LWPOLYLINE
  5
1EA
330
1F
100
AcDbEntity
  8
0
  6
Continuous
 62
     7
370
    15
100
AcDbPolyline
 90
        9
 70
   128
 43
0.0
 10
70.8026036271
 20
96.596525532
 10
70.7810407156
 20
96.6116837382
 10
70.7644254552
 20
96.5977157622
 10
70.7539848634
 20
96.5556516468
 10
70.7504919381
 20
96.4886001468
 10
70.7542037242
 20
96.4015177607
 10
70.764846413
 20
96.3008417904
 10
70.7816335024
 20
96.1940116405
 10
70.8033240051
 20
96.0889249265
  0
LINE
  5
1EB
330
1F
100
AcDbEntity
  8
0
  6
Continuous
 62
     7
370
    15
100
AcDbLine
 10
73.9362626453
 20
92.6641835987
 30
0.0
 11
70.8026036271
 21
96.596525532
 31
0.0
  0
ARC
  5
1EC
330
1F
100
AcDbEntity
  8
0
  6
Continuous
 62
     7
370
    15
100
AcDbCircle
 10
73.2630336992
 20
92.2806865021
 30
0.0
 40
0.7747949645146569
100
AcDbArc
 50
9.9002752591
 51
29.6675025999
  0
LINE
  5
1ED
330
1F
100
AcDbEntity
  8
0
  6
Continuous
 62
     7
370
    15
100
AcDbLine
 10
77.173562623
 20
78.8848619133
 30
0.0
 11
74.0262908046
 21
92.41389997
 31
0.0
  0
LWPOLYLINE
  5
1EE
330
1F
100
AcDbEntity
  8
0
  6
Continuous
 62
     7
370
    15
100
AcDbPolyline
 90
        9
 70
   128
 43
0.0
 10
77.1742826663
 20
78.3772613078
 10
77.195845556
 20
78.3621031016
 10
77.2124611511
 20
78.3760729402
 10
77.2229013972
 20
78.418135193
 10
77.2263946609
 20
78.4851866931
 10
77.2226827583
 20
78.5722690791
 10
77.212040026
 20
78.6729450494
 10
77.1952530748
 20
78.7797751993
 10
77.173562623
 20
78.8848619133
  0
LINE
  5
1EF
330
1F
100
AcDbEntity
  8
0
  6
Continuous
 62
     7
370
    15
100
AcDbLine
 10
74.0406238591
 20
82.3096032411
 30
0.0
 11
77.1742826663
 21
78.3772613078
 31
0.0
  0
ARC
  5
1F0
330
1F
100
AcDbEntity
  8
0
  6
Continuous
 62
     7
370
    15
100
AcDbCircle
 10
74.7138730723
 20
82.6931076279
 30
0.0
 40
0.7748161832780338
100
AcDbArc
 50
189.9005486442
 51
209.6672292148
  0
LWPOLYLINE
  5
1F1
330
1F
100
AcDbEntity
  8
0
  6
Continuous
 62
     7
370
    15
100
AcDbPolyline
 90
        9
 70
   128
 43
0.0
 10
77.1720139572
 20
78.3962081343
 10
77.1924987028
 20
78.3818098873
 10
77.2082835218
 20
78.3950793713
 10
77.218201758
 20
78.4350405604
 10
77.2215203586
 20
78.4987392992
 10
77.2179940476
 20
78.5814668208
 10
77.2078834533
 20
78.6771099239
 10
77.1919358493
 20
78.7785980075
 10
77.1713299153
 20
78.8784320623
  0
LINE
  5
1F2
330
1F
100
AcDbEntity
  8
0
  6
Continuous
 62
     7
370
    15
100
AcDbLine
 10
77.1713299153
 20
78.8784320623
 30
0.0
 11
74.0240579588
 21
92.4074663937
 31
0.0
  0
ARC
  5
1F3
330
1F
100
AcDbEntity
  8
0
  6
Continuous
 62
     7
370
    15
100
AcDbCircle
 10
73.2989586638
 20
92.2809135873
 30
0.0
 40
0.7360601880221862
100
AcDbArc
 50
9.9002086503
 51
29.6673666407
  0
LINE
  5
1F4
330
1F
100
AcDbEntity
  8
0
  6
Continuous
 62
     7
370
    15
100
AcDbLine
 10
73.9385313471
 20
92.6452367723
 30
0.0
 11
70.8048723289
 21
96.5775787055
 31
0.0
  0
LWPOLYLINE
  5
1F5
330
1F
100
AcDbEntity
  8
0
  6
Continuous
 62
     7
370
    15
100
AcDbPolyline
 90
        9
 70
   128
 43
0.0
 10
70.8048723289
 20
96.5775787055
 10
70.7843878889
 20
96.5919788152
 10
70.7686029026
 20
96.5787093311
 10
70.7586847828
 20
96.5387481421
 10
70.7553660148
 20
96.4750494033
 10
70.7588924677
 20
96.3923218816
 10
70.7690029056
 20
96.2966787785
 10
70.7849504077
 20
96.1951906949
 10
70.8055563853
 20
96.0953566402
  0
LINE
  5
1F6
330
1F
100
AcDbEntity
  8
0
  6
Continuous
 62
     7
370
    15
100
AcDbLine
 10
70.8055563853
 20
96.0953566402
 30
0.0
 11
73.9528285456
 21
82.5663204461
 31
0.0
  0
ARC
  5
1F7
330
1F
100
AcDbEntity
  8
0
  6
Continuous
 62
     7
370
    15
100
AcDbCircle
 10
74.6779839998
 20
82.6928934532
 30
0.0
 40
0.7361189841457871
100
AcDbArc
 50
189.9010060063
 51
209.6665692847
  0
LINE
  5
1F8
330
1F
100
AcDbEntity
  8
0
  6
Continuous
 62
     7
370
    15
100
AcDbLine
 10
74.0383551573
 20
82.3285500675
 30
0.0
 11
77.1720139572
 21
78.3962081343
 31
0.0
  0
LINE
  5
1F9
330
1F
100
AcDbEntity
  8
0
  6
Continuous
 62
     7
370
    15
100
AcDbLine
 10
83.3320866921
 20
79.9707765847
 30
0.0
 11
80.1848147647
 21
93.4998146415
 31
0.0
  0
ARC
  5
1FA
330
1F
100
AcDbEntity
  8
0
  6
Continuous
 62
     7
370
    15
100
AcDbCircle
 10
82.4403114333
 20
79.6665679618
 30
0.0
 40
0.9422345771934271
100
AcDbArc
 50
346.5993444571
 51
18.8358948422
  0
LINE
  5
1FB
330
1F
100
AcDbEntity
  8
0
  6
Continuous
 62
     7
370
    15
100
AcDbLine
 10
74.4495082298
 20
83.1172312766
 30
0.0
 11
74.208027462
 21
82.7260646194
 31
0.0
  0
LINE
  5
1FC
330
1F
100
AcDbEntity
  8
0
  6
Continuous
 62
     7
370
    15
100
AcDbLine
 10
75.8576833294
 20
82.9222905606
 30
0.0
 11
74.0962689859
 21
90.4940026969
 31
0.0
  0
LINE
  5
1FD
330
1F
100
AcDbEntity
  8
0
  6
Continuous
 62
     7
370
    15
100
AcDbLine
 10
72.119203175
 20
92.0514981419
 30
0.0
 11
73.8806175185
 21
84.4797860056
 31
0.0
  0
LWPOLYLINE
  5
1FE
330
1F
100
AcDbEntity
  8
0
  6
Continuous
 62
     7
370
    15
100
AcDbPolyline
 90
        9
 70
   128
 43
0.0
 10
72.1174029285
 20
93.3205015182
 10
72.0634956495
 20
93.3583988964
 10
72.0219568001
 20
93.3234761625
 10
71.9958560192
 20
93.2183149427
 10
71.9871230075
 20
93.0506880551
 10
71.9964027056
 20
92.8329839528
 10
72.0230096602
 20
92.581294027
 10
72.0649769181
 20
92.3142186522
 10
72.119203175
 20
92.0514981419
  0
LINE
  5
1FF
330
1F
100
AcDbEntity
  8
0
  6
Continuous
 62
     7
370
    15
100
AcDbLine
 10
73.8711985876
 20
91.119709906
 30
0.0
 11
72.1174029285
 21
93.3205015182
 31
0.0
  0
ARC
  5
200
330
1F
100
AcDbEntity
  8
0
  6
Continuous
 62
     7
370
    15
100
AcDbCircle
 10
72.1881665706
 20
90.1609806864
 30
0.0
 40
1.936945659267001
100
AcDbArc
 50
9.9001407097
 51
29.6677457955
  0
LWPOLYLINE
  5
201
330
1F
100
AcDbEntity
  8
0
  6
Continuous
 62
     7
370
    15
100
AcDbPolyline
 90
        9
 70
   128
 43
0.0
 10
75.8594834595
 20
81.6532853216
 10
75.913390622
 20
81.6153879434
 10
75.9549295879
 20
81.6503125399
 10
75.9810302523
 20
81.7554737598
 10
75.9897633805
 20
81.9231006473
 10
75.9804836824
 20
82.1408028871
 10
75.9538768442
 20
82.3924946755
 10
75.9119094699
 20
82.6595681876
 10
75.8576833294
 20
82.9222905606
  0
LINE
  5
202
330
1F
100
AcDbEntity
  8
0
  6
Continuous
 62
     7
370
    15
100
AcDbLine
 10
74.1056879168
 20
83.8540750712
 30
0.0
 11
75.8594834595
 21
81.6532853216
 31
0.0
  0
ARC
  5
203
330
1F
100
AcDbEntity
  8
0
  6
Continuous
 62
     7
370
    15
100
AcDbCircle
 10
75.78880672
 20
84.8128335254
 30
0.0
 40
1.937035538974865
100
AcDbArc
 50
189.9004426579
 51
209.6672265555
  0
LWPOLYLINE
  5
204
330
1F
100
AcDbEntity
  8
0
  6
Continuous
 62
     7
370
    15
100
AcDbPolyline
 90
       27
 70
   128
 43
0.0
 10
74.2811060162
 20
85.0427146226
 10
74.4057882228
 20
84.9466058582
 10
74.5062159957
 20
84.9981303483
 10
74.5765525033
 20
85.1942929596
 10
74.6127104038
 20
85.5236905783
 10
74.6125879349
 20
85.9671826631
 10
74.5761925471
 20
86.4989976555
 10
74.505639507
 20
87.0882230967
 10
74.4050287293
 20
87.7006198436
 10
74.2802075227
 20
88.3005927473
 10
74.1384299589
 20
88.8532805413
 10
73.9879356814
 20
89.326556322
 10
73.8374712062
 20
89.6929162711
 10
73.6957804882
 20
89.9310740799
 10
73.5710982816
 20
90.0271828443
 10
73.4706705087
 20
89.9756583542
 10
73.4003340011
 20
89.7794957429
 10
73.3641761006
 20
89.4500981241
 10
73.3642985695
 20
89.0066023141
 10
73.4006939573
 20
88.474791047
 10
73.4712469974
 20
87.8855618805
 10
73.5718577751
 20
87.2731688589
 10
73.6966789817
 20
86.6731922299
 10
73.8384565455
 20
86.1205081612
 10
73.988950823
 20
85.6472323805
 10
74.1394152982
 20
85.2808687061
 10
74.2811060162
 20
85.0427146226
  0
ARC
  5
205
330
1F
100
AcDbEntity
  8
0
  6
Continuous
 62
     7
370
    15
100
AcDbCircle
 10
79.4215420755
 20
93.3665955679
 30
0.0
 40
0.7748112799822612
100
AcDbArc
 50
9.9004854709
 51
29.6672923881
  0
LINE
  5
206
330
1F
100
AcDbEntity
  8
0
  6
Continuous
 62
     7
370
    15
100
AcDbLine
 10
80.0947866054
 20
93.7500982702
 30
0.0
 11
80.0343700801
 21
93.8259135157
 31
0.0
  0
LINE
  5
207
330
1F
100
AcDbEntity
  8
0
  6
Continuous
 62
     7
370
    15
100
AcDbLine
 10
72.1546413959
 20
94.8787718236
 30
0.0
 11
71.0607555346
 21
96.2551008135
 31
0.0
  0
LINE
  5
208
330
1F
100
AcDbEntity
  8
0
  6
Continuous
 62
     7
370
    15
100
AcDbLine
 10
72.3002946587
 20
94.6959960431
 30
0.0
 11
72.2179168486
 21
94.8010268778
 31
0.0
  0
SPLINE
  5
209
330
1F
100
AcDbEntity
  8
0
  6
Continuous
 62
     7
370
    15
100
AcDbSpline
210
0.0
220
0.0
230
1.0
 70
     8
 71
     3
 72
     9
 73
     5
 74
     0
 42
0.00000001
 43
0.00000001
 12
1.0
 22
0.0
 32
0.0
 13
1.0
 23
0.0
 33
0.0
 40
0.0
 40
0.0
 40
0.0
 40
0.0
 40
0.029422238825958
 40
1.0
 40
1.0
 40
1.0
 40
1.0
 10
72.19603309644143
 20
94.828929302086
 30
0.0
 10
72.19523172531031
 20
94.82995036971187
 30
0.0
 10
72.16799480646606
 20
94.86465431022074
 30
0.0
 10
72.24930727617914
 20
94.76263045459777
 30
0.0
 10
72.32822735098878
 20
94.66360836922085
 30
0.0
  0
LINE
  5
20A
330
1F
100
AcDbEntity
  8
0
  6
Continuous
 62
     7
370
    15
100
AcDbLine
 10
72.3002946587
 20
94.6959960431
 30
0.0
 11
72.1546413959
 21
94.8787718236
 31
0.0
  0
LINE
  5
20B
330
1F
100
AcDbEntity
  8
0
  6
Continuous
 62
     7
370
    15
100
AcDbLine
 10
74.5433822857
 20
83.3024713367
 30
0.0
 11
74.1056879168
 21
83.8540750712
 31
0.0
  0
LINE
  5
20C
330
1F
100
AcDbEntity
  8
0
  6
Continuous
 62
     7
370
    15
100
AcDbLine
 10
72.1546413959
 20
94.8787718236
 30
0.0
 11
72.3009270267
 21
94.249939096
 31
0.0
  0
SPLINE
  5
20D
330
1F
100
AcDbEntity
  8
0
  6
Continuous
 62
     7
370
    15
100
AcDbSpline
210
0.0
220
0.0
230
1.0
 70
     8
 71
     3
 72
     9
 73
     5
 74
     0
 42
0.00000001
 43
0.00000001
 12
1.0
 22
0.0
 32
0.0
 13
1.0
 23
0.0
 33
0.0
 40
0.0
 40
0.0
 40
0.0
 40
0.0
 40
0.785794084540988
 40
1.0
 40
1.0
 40
1.0
 40
1.0
 10
74.44950822977106
 20
83.11723127662098
 30
0.0
 10
74.48217713610835
 20
83.17605251701416
 30
0.0
 10
74.52375152179027
 20
83.25090831136328
 30
0.0
 10
74.51712435422483
 20
83.32210127568067
 30
0.0
 10
74.51570477572957
 20
83.3373512297765
 30
0.0
  0
LINE
  5
20E
330
1F
100
AcDbEntity
  8
0
  6
Continuous
 62
     7
370
    15
100
AcDbLine
 10
72.3009270267
 20
94.249939096
 30
0.0
 11
72.3213211284
 21
94.1697391838
 31
0.0
  0
ARC
  5
20F
330
1F
100
AcDbEntity
  8
0
  6
Continuous
 62
     7
370
    15
100
AcDbCircle
 10
83.646066198
 20
80.7761548421
 30
0.0
 40
2.355621183220118
100
AcDbArc
 50
346.5994963286
 51
18.8356993821
  0
LINE
  5
210
330
1F
100
AcDbEntity
  8
0
  6
Continuous
 62
     7
370
    15
100
AcDbLine
 10
83.0823823461
 20
81.0441705555
 30
0.0
 11
80.2524823347
 21
93.2089346617
 31
0.0
  0
LINE
  5
211
330
1F
100
AcDbEntity
  8
0
  6
Continuous
 62
     7
370
    15
100
AcDbLine
 10
85.8755398193
 20
81.53668001
 30
0.0
 11
83.0456398079
 21
93.7014441162
 31
0.0
  0
LWPOLYLINE
  5
212
330
1F
100
AcDbEntity
  8
0
  6
Continuous
 62
     7
370
    15
100
AcDbPolyline
 90
        3
 70
   128
 43
0.0
 10
86.1330030137
 20
81.4914885133
 10
86.1709609279
 20
81.3075858325
 10
86.1999520683
 20
81.1235453159
  0
LINE
  5
213
330
1F
100
AcDbEntity
  8
0
  6
Continuous
 62
     7
370
    15
100
AcDbLine
 10
83.3031030023
 20
93.6562526196
 30
0.0
 11
86.1330030137
 21
81.4914885133
 31
0.0
  0
ARC
  5
214
330
1F
100
AcDbEntity
  8
0
  6
Continuous
 62
     7
370
    15
100
AcDbCircle
 10
81.0685816706
 20
93.3487277807
 30
0.0
 40
2.008274804740593
100
AcDbArc
 50
10.1154101462
 51
28.8701184975
  0
ARC
  5
215
330
1F
100
AcDbEntity
  8
0
  6
Continuous
 62
     7
370
    15
100
AcDbCircle
 10
81.9673718178
 20
93.4231198632
 30
0.0
 40
1.355923552210505
100
AcDbArc
 50
9.9004306631
 51
29.6672156559
  0
LINE
  5
216
330
1F
100
AcDbEntity
  8
0
  6
Continuous
 62
     7
370
    15
100
AcDbLine
 10
82.9497396597
 20
94.3399719119
 30
0.0
 11
83.1455539563
 21
94.0942499012
 31
0.0
  0
LWPOLYLINE
  5
217
330
1F
100
AcDbEntity
  8
0
  6
Continuous
 62
     7
370
    15
100
AcDbPolyline
 90
       31
 70
   128
 43
0.0
 10
71.1202395731
 20
98.3243356615
 10
70.9508389817
 20
98.6344567656
 10
70.7735566073
 20
99.0731115609
 10
70.5961396569
 20
99.6211297035
 10
70.4263427877
 20
100.2545594394
 10
70.2715863125
 20
100.9457162738
 10
70.1386348927
 20
101.6643918276
 10
70.0332976529
 20
102.3791819036
 10
69.9601795175
 20
103.0588406294
 10
69.9224758544
 20
103.6736662656
 10
69.9218341732
 20
104.1967901558
 10
69.9582828791
 20
104.6053446054
 10
70.030228945
 20
104.8814780235
 10
70.1345272945
 20
105.0131204694
 10
70.2666205005
 20
104.9945182323
 10
70.4207352945
 20
104.8264834255
 10
70.5901358859
 20
104.5163623214
 10
70.7674182603
 20
104.0777075261
 10
70.9448352107
 20
103.5296893835
 10
71.1146320799
 20
102.8962596476
 10
71.2693880895
 20
102.2051028132
 10
71.4023399749
 20
101.4864253968
 10
71.5076772147
 20
100.7716371834
 10
71.5807948844
 20
100.0919784576
 10
71.6184990132
 20
99.4771509588
 10
71.6191406944
 20
98.9540289312
 10
71.5826919885
 20
98.5454726189
 10
71.5107459226
 20
98.2693410635
 10
71.4064475731
 20
98.1376986176
 10
71.2743543671
 20
98.1563008547
 10
71.1202395731
 20
98.3243356615
  0
LWPOLYLINE
  5
218
330
1F
100
AcDbEntity
  8
0
  6
Continuous
 62
     7
370
    15
100
AcDbPolyline
 90
       24
 70
   128
 43
0.0
 10
70.9703459987
 20
99.7176519751
 10
70.8429890336
 20
99.9638228834
 10
70.7102550776
 20
100.3295178682
 10
70.5819882104
 20
100.7876130909
 10
70.4677014263
 20
101.3041376293
 10
70.3758711578
 20
101.8407805979
 10
70.3133077012
 20
102.3577409953
 10
70.2846509056
 20
102.8166799962
 10
70.2920265147
 20
103.183561486
 10
70.3348873766
 20
103.4311722189
 10
70.4100548872
 20
103.5411483765
 10
70.5119536841
 20
103.5053352982
 10
70.6330270158
 20
103.326389116
 10
70.76429507
 20
103.0175811767
 10
70.8960227319
 20
102.6018127024
 10
71.0184394964
 20
102.1099216461
 10
71.122466831
 20
101.5783879131
 10
71.2003896595
 20
101.0466325253
 10
71.2464286597
 20
100.5540951311
 10
71.2571691373
 20
100.1373040646
 10
71.2318148115
 20
99.827169922
 10
71.172245557
 20
99.6466945082
 10
71.0828800337
 20
99.6092627913
 10
70.9703459987
 20
99.7176519751
  0
SPLINE
  5
219
330
1F
100
AcDbEntity
  8
0
  6
Continuous
 62
     7
370
    15
100
AcDbSpline
210
0.0
220
0.0
230
1.0
 70
     8
 71
     3
 72
     9
 73
     5
 74
     0
 42
0.00000001
 43
0.00000001
 12
1.0
 22
0.0
 32
0.0
 13
1.0
 23
0.0
 33
0.0
 40
0.0
 40
0.0
 40
0.0
 40
0.0
 40
0.4231528262834533
 40
1.0
 40
1.0
 40
1.0
 40
1.0
 10
70.859772863367
 20
102.7001063495771
 30
0.0
 10
70.85116829529895
 20
102.6284386028549
 30
0.0
 10
70.83083387346929
 20
102.4590724961656
 30
0.0
 10
70.71319885590772
 20
102.2886139827634
 30
0.0
 10
70.64534142849723
 20
102.1902854710714
 30
0.0
  0
SPLINE
  5
21A
330
1F
100
AcDbEntity
  8
0
  6
Continuous
 62
     7
370
    15
100
AcDbSpline
210
0.0
220
0.0
230
1.0
 70
     8
 71
     3
 72
    10
 73
     6
 74
     0
 42
0.00000001
 43
0.00000001
 12
1.0
 22
0.0
 32
0.0
 13
1.0
 23
0.0
 33
0.0
 40
0.0
 40
0.0
 40
0.0
 40
0.0
 40
0.4391171012406408
 40
0.7513668180733799
 40
1.0
 40
1.0
 40
1.0
 40
1.0
 10
70.64534142849723
 20
102.1902854710714
 30
0.0
 10
70.79399575933051
 20
101.9676572511882
 30
0.0
 10
71.04835599999402
 20
101.5867213761917
 30
0.0
 10
71.09449952042411
 20
100.9759029535848
 30
0.0
 10
71.02053206070075
 20
100.6547876556021
 30
0.0
 10
70.98774310437719
 20
100.5124407976762
 30
0.0
  0
SPLINE
  5
21B
330
1F
100
AcDbEntity
  8
0
  6
Continuous
 62
     7
370
    15
100
AcDbSpline
210
0.0
220
0.0
230
1.0
 70
     8
 71
     3
 72
     9
 73
     5
 74
     0
 42
0.00000001
 43
0.00000001
 12
1.0
 22
0.0
 32
0.0
 13
1.0
 23
0.0
 33
0.0
 40
0.0
 40
0.0
 40
0.0
 40
0.0
 40
0.671609422969585
 40
1.0
 40
1.0
 40
1.0
 40
1.0
 10
70.98774310437719
 20
100.5124407976762
 30
0.0
 10
71.06119608478467
 20
100.4884496317293
 30
0.0
 10
71.17056468191173
 20
100.4527277297928
 30
0.0
 10
71.22739043288968
 20
100.4015469836491
 30
0.0
 10
71.24605147404353
 20
100.3847397088901
 30
0.0
  0
LINE
  5
21C
330
1F
100
AcDbEntity
  8
0
  6
Continuous
 62
     7
370
    15
100
AcDbLine
 10
71.2461827905
 20
100.5580104113
 30
0.0
 11
70.9877431044
 21
100.5124407977
 31
0.0
  0
LINE
  5
21D
330
1F
100
AcDbEntity
  8
0
  6
Continuous
 62
     7
370
    15
100
AcDbLine
 10
70.9863274941
 20
102.2504097938
 30
0.0
 11
70.6453414285
 21
102.1902854711
 31
0.0
  0
ELLIPSE
  5
21E
330
1F
100
AcDbEntity
  8
0
  6
Continuous
 62
     7
370
    15
100
AcDbEllipse
 10
74.1561018031
 20
88.1512039831
 30
0.0
 11
-0.4089517120484913
 21
2.316946833593505
 31
0.0
210
0.0
220
0.0
230
1.0
 40
0.1734786117
 41
1.745034752782086
 42
3.27728891317594
  0
LINE
  5
21F
330
1F
100
AcDbEntity
  8
0
  6
Continuous
 62
     7
370
    15
100
AcDbLine
 10
86.244130286
 20
80.5405709118
 30
0.0
 11
86.2418867299
 21
80.9432822436
 31
0.0
  0
SPLINE
  5
220
330
1F
100
AcDbEntity
  8
0
  6
Continuous
 62
     7
370
    15
100
AcDbSpline
210
0.0
220
0.0
230
1.0
 70
     8
 71
     3
 72
    31
 73
    27
 74
     0
 42
0.00000001
 43
0.00000001
 12
1.0
 22
0.0
 32
0.0
 13
1.0
 23
0.0
 33
0.0
 40
0.0
 40
0.0
 40
0.0
 40
0.0
 40
0.0164335135812825
 40
0.0329054960672882
 40
0.0494195443669979
 40
0.0659792279782218
 40
0.0825880869756177
 40
0.0992496300890204
 40
0.1159673328760952
 40
0.1453321847397074
 40
0.1748714700330814
 40
0.2344182114341327
 40
0.2946290729179078
 40
0.3555149286842594
 40
0.4170811492616626
 40
0.4793269191940769
 40
0.5422465111297754
 40
0.6058282648267738
 40
0.6700561164145706
 40
0.7349086714810487
 40
0.8003604889093784
 40
0.8663816561015515
 40
0.8995895076256358
 40
0.932941636454166
 40
0.9663981869407698
 40
1.0
 40
1.0
 40
1.0
 40
1.0
 10
86.24188603127836
 20
80.94328168109952
 30
0.0
 10
86.40829732625961
 20
81.00334544513856
 30
0.0
 10
86.74150946531155
 20
81.12361357535906
 30
0.0
 10
87.23795169697189
 20
81.31331751757996
 30
0.0
 10
87.73261039278485
 20
81.51006971913392
 30
0.0
 10
88.22520456118825
 20
81.71452937179386
 30
0.0
 10
88.71580961464565
 20
81.92651866294662
 30
0.0
 10
89.2044056693704
 20
82.14608689057054
 30
0.0
 10
89.81311364726893
 20
82.43021619831283
 30
0.0
 10
90.53903570941628
 20
82.78666848261463
 30
0.0
 10
91.66010196453864
 20
83.37219129151308
 30
0.0
 10
93.0420615849152
 20
84.16067685037136
 30
0.0
 10
94.66104064748399
 20
85.19174391938793
 30
0.0
 10
96.24207193013622
 20
86.30820425428365
 30
0.0
 10
97.78181390506127
 20
87.50779238020938
 30
0.0
 10
99.2771788853402
 20
88.78794696629771
 30
0.0
 10
100.724998565586
 20
90.14610411362975
 30
0.0
 10
102.1223852091326
 20
91.5793695315699
 30
0.0
 10
103.4663745206886
 20
93.0848539282588
 30
0.0
 10
104.7542721541588
 20
94.65939278671563
 30
0.0
 10
105.9833840251734
 20
96.29974618087049
 30
0.0
 10
106.9545011020155
 20
97.71584562245295
 30
0.0
 10
107.7000387894839
 20
98.87818285044122
 30
0.0
 10
108.2437114492575
 20
99.76611756108004
 30
0.0
 10
108.7723239915193
 20
100.6673694539023
 30
0.0
 10
109.1096153129917
 20
101.2777469533304
 30
0.0
 10
109.2786262958331
 20
101.5835968063069
 30
0.0
  0
SPLINE
  5
221
330
1F
100
AcDbEntity
  8
0
  6
Continuous
 62
     7
370
    15
100
AcDbSpline
210
0.0
220
0.0
230
1.0
 70
    24
 71
     3
 72
     9
 73
     5
 74
     0
 42
0.00000001
 43
0.00000001
 12
1.0
 22
0.0
 32
0.0
 13
1.0
 23
0.0
 33
0.0
 40
0.0
 40
0.0
 40
0.0
 40
0.0
 40
0.4999997999493228
 40
1.0
 40
1.0
 40
1.0
 40
1.0
 10
109.2786296555189
 20
101.5835978555681
 30
0.0
 10
109.2786296555189
 20
101.4709666852154
 30
0.0
 10
109.2786296555189
 20
101.2457042543822
 30
0.0
 10
109.2786296555189
 20
101.0210866326375
 30
0.0
 10
109.2786296555189
 20
100.9087777768302
 30
0.0
  0
SPLINE
  5
222
330
1F
100
AcDbEntity
  8
0
  6
Continuous
 62
     7
370
    15
100
AcDbSpline
210
0.0
220
0.0
230
1.0
 70
     8
 71
     3
 72
    26
 73
    22
 74
     0
 42
0.00000001
 43
0.00000001
 12
1.0
 22
0.0
 32
0.0
 13
1.0
 23
0.0
 33
0.0
 40
0.0
 40
0.0
 40
0.0
 40
0.0
 40
0.0226182934217911
 40
0.0449468112763217
 40
0.0669858028463376
 40
0.100526365541399
 40
0.1334757931780193
 40
0.1994322711511393
 40
0.2648264091260844
 40
0.3080977199523402
 40
0.3938166924646803
 40
0.5202501299259579
 40
0.6440498544734264
 40
0.7053130203668927
 40
0.7652286398887013
 40
0.8251175432044883
 40
0.8838230941151363
 40
0.9132526159151287
 40
0.9424215894162271
 40
0.9713355050968522
 40
1.0
 40
1.0
 40
1.0
 40
1.0
 10
109.2786291754405
 20
100.9087731175986
 30
0.0
 10
109.1639885530213
 20
100.7050623794079
 30
0.0
 10
108.9361760331116
 20
100.300250754867
 30
0.0
 10
108.5863059420046
 20
99.70258694758542
 30
0.0
 10
108.1706954289214
 20
99.01239911070421
 30
0.0
 10
107.6848740058548
 20
98.23594287527607
 30
0.0
 10
106.9342883423648
 20
97.08869785308374
 30
0.0
 10
105.9590290889362
 20
95.69316661911947
 30
0.0
 10
104.8603589461729
 20
94.25235818620632
 30
0.0
 10
103.5803080014448
 20
92.6908469881494
 30
0.0
 10
101.8091750762187
 20
90.70811297658452
 30
0.0
 10
99.28791078327251
 20
88.26554431925612
 30
0.0
 10
96.74452140424033
 20
86.21012274291722
 30
0.0
 10
94.62999384544767
 20
84.73409880292499
 30
0.0
 10
93.01287745671347
 20
83.71536073714883
 30
0.0
 10
91.36763874841735
 20
82.78602434385482
 30
0.0
 10
89.96323327467684
 20
82.08082458235654
 30
0.0
 10
88.82817575459346
 20
81.56264727906238
 30
0.0
 10
87.97048808230737
 20
81.19724852739473
 30
0.0
 10
87.11082716372073
 20
80.85443180402622
 30
0.0
 10
86.5321940906284
 20
80.64488599689759
 30
0.0
 10
86.24413082861257
 20
80.5405669533617
 30
0.0
  0
LINE
  5
223
330
1F
100
AcDbEntity
  8
0
  6
Continuous
 62
     7
370
    15
100
AcDbLine
 10
83.1184813404
 20
94.3697239429
 30
0.0
 11
74.1764984676
 21
92.7930115878
 31
0.0
  0
LINE
  5
224
330
1F
100
AcDbEntity
  8
0
  6
Continuous
 62
     7
370
    15
100
AcDbLine
 10
60.6978468248
 20
150.7330904871
 30
0.0
 11
74.1764984676
 21
92.7930115878
 31
0.0
  0
ARC
  5
225
330
1F
100
AcDbEntity
  8
0
  6
Continuous
 62
     7
370
    15
100
AcDbCircle
 10
77.2786296555
 20
123.3638073474
 30
0.0
 40
31.99999999999999
100
AcDbArc
 50
85.0884993786
 51
121.2082045286
  0
SPLINE
  5
226
330
1F
100
AcDbEntity
  8
0
  6
Continuous
 62
     7
370
    15
100
AcDbSpline
210
0.0
220
0.0
230
1.0
 70
     8
 71
     3
 72
    18
 73
    14
 74
     0
 42
0.00000001
 43
0.00000001
 12
1.0
 22
0.0
 32
0.0
 13
1.0
 23
0.0
 33
0.0
 40
0.0
 40
0.0
 40
0.0
 40
0.0
 40
0.1250000000000002
 40
0.1250000000000002
 40
0.2500000000000004
 40
0.2500000000000004
 40
0.5000000000000002
 40
0.5000000000000002
 40
0.75
 40
0.75
 40
0.875
 40
0.875
 40
1.0
 40
1.0
 40
1.0
 40
1.0
 10
94.87983210739026
 20
150.0882843721911
 30
0.0
 10
94.29806596330978
 20
150.3962244663817
 30
0.0
 10
93.71482708485354
 20
150.7010722008798
 30
0.0
 10
92.53920222376075
 20
151.2906609179608
 30
0.0
 10
91.94693357012643
 20
151.575717941851
 30
0.0
 10
90.15264558800912
 20
152.3926888858417
 30
0.0
 10
88.93285275972748
 20
152.8857657656881
 30
0.0
 10
86.43846708736599
 20
153.7521754995224
 30
0.0
 10
85.17164514301149
 20
154.1226525474345
 30
0.0
 10
83.25080767865363
 20
154.5949538629582
 30
0.0
 10
82.60660643852131
 20
154.7388022903259
 30
0.0
 10
81.31480154291962
 20
155.0051642527284
 30
0.0
 10
80.66687935400498
 20
155.127424866502
 30
0.0
 10
80.01837082474555
 20
155.2463075367814
 30
0.0
  0
ARC
  5
227
330
1F
100
AcDbEntity
  8
0
  6
Continuous
 62
     7
370
    15
100
AcDbCircle
 10
77.2786296555
 20
123.3638073474
 30
0.0
 40
32.0
100
AcDbArc
 50
0.0
 51
56.6304090796
  0
LINE
  5
228
330
1F
100
AcDbEntity
  8
0
  6
Continuous
 62
     7
370
    15
100
AcDbLine
 10
109.2786311754
 20
101.5835995942
 30
0.0
 11
109.2786311754
 21
123.3638073474
 31
0.0
  0
LINE
  5
229
330
1F
100
AcDbEntity
  8
0
  6
Continuous
 62
     7
370
    15
100
AcDbLine
 10
83.1184813404
 20
94.3697239429
 30
0.0
 11
83.2138264203
 21
93.9598693669
 31
0.0
  0
LINE
  5
22A
330
1F
100
AcDbEntity
  8
0
  6
Continuous
 62
     7
370
    15
100
AcDbLine
 10
86.1999520683
 20
81.1235453159
 30
0.0
 11
86.2418867299
 21
80.9432822436
 31
0.0
  0
ELLIPSE
  5
22B
330
1F
100
AcDbEntity
  8
0
  6
Continuous
 62
     7
370
    15
100
AcDbEllipse
 10
76.2786296555
 20
125.4481967845
 30
0.0
 11
-37.2256908447322
 21
65.02129104394109
 31
0.0
210
0.0
220
0.0
230
1.0
 40
0.2251141219
 41
2.196046246659674
 42
2.197218141884271
  0
SPLINE
  5
22C
330
1F
100
AcDbEntity
  8
0
  6
Continuous
 62
     7
370
    15
100
AcDbSpline
210
0.0
220
0.0
230
1.0
 70
     8
 71
     3
 72
    12
 73
     8
 74
     0
 42
0.00000001
 43
0.00000001
 12
1.0
 22
0.0
 32
0.0
 13
1.0
 23
0.0
 33
0.0
 40
0.0
 40
0.0
 40
0.0
 40
0.0
 40
0.2499999999999915
 40
0.2499999999999915
 40
0.4999999999999891
 40
0.4999999999999891
 40
1.0
 40
1.0
 40
1.0
 40
1.0
 10
70.40897374675045
 20
91.8629886745281
 30
0.0
 10
70.38425852992063
 20
91.97485142991397
 30
0.0
 10
70.35803564458492
 20
92.07947755257082
 30
0.0
 10
70.30265609060208
 20
92.27464798066282
 30
0.0
 10
70.27407143409086
 20
92.36285145883384
 30
0.0
 10
70.18898444164381
 20
92.58785419593868
 30
0.0
 10
70.13263345131668
 20
92.68504074042704
 30
0.0
 10
70.08928580285905
 20
92.69520230954909
 30
0.0
  0
ARC
  5
22D
330
1F
100
AcDbEntity
  8
0
  6
Continuous
 62
     7
370
    15
100
AcDbCircle
 10
77.2786296555
 20
123.3638073474
 30
0.0
 40
31.5
100
AcDbArc
 50
255.6326266377
 51
256.8069285058
  0
ARC
  5
22E
330
1F
100
AcDbEntity
  8
0
  6
Continuous
 62
     7
370
    15
100
AcDbCircle
 10
77.2786296555
 20
123.3638073474
 30
0.0
 40
31.5
100
AcDbArc
 50
123.1930714942
 51
124.3673733623
  0
SPLINE
  5
22F
330
1F
100
AcDbEntity
  8
0
  6
Continuous
 62
     7
370
    15
100
AcDbSpline
210
0.0
220
0.0
230
1.0
 70
     8
 71
     3
 72
    12
 73
     8
 74
     0
 42
0.00000001
 43
0.00000001
 12
1.0
 22
0.0
 32
0.0
 13
1.0
 23
0.0
 33
0.0
 40
0.0
 40
0.0
 40
0.0
 40
0.0
 40
0.2500000000000025
 40
0.2500000000000025
 40
0.500000000000005
 40
0.500000000000005
 40
1.0
 40
1.0
 40
1.0
 40
1.0
 10
60.03357559823513
 20
149.7239687763766
 30
0.0
 10
60.0483732967887
 20
149.7336495635055
 30
0.0
 10
60.06027580939902
 20
149.7563517586103
 30
0.0
 10
60.07887340169899
 20
149.8251771345168
 30
0.0
 10
60.08539136257518
 20
149.8713493232684
 30
0.0
 10
60.09639635914088
 20
150.0360370289056
 30
0.0
 10
60.09252948334439
 20
150.1828750951545
 30
0.0
 10
60.07856505472134
 20
150.3482061313037
 30
0.0
  0
ARC
  5
230
330
1F
100
AcDbEntity
  8
0
  6
Continuous
 62
     7
370
    15
100
AcDbCircle
 10
77.2786296555
 20
123.3638073474
 30
0.0
 40
31.99999999999999
100
AcDbArc
 50
121.2082045286
 51
122.5137517995
  0
LWPOLYLINE
  5
231
330
1F
100
AcDbEntity
  8
0
  6
Continuous
 62
     7
370
    15
100
AcDbPolyline
 90
       12
 70
   128
 43
0.0
 10
70.8939840668
 20
96.9121470272
 10
70.7760115737
 20
96.9917099148
 10
70.6868951791
 20
96.9036533654
 10
70.6338544959
 20
96.6551131725
 10
70.6211861805
 20
96.2662226677
 10
70.649917482
 20
95.7684866309
 10
70.7177205594
 20
95.2022313297
 10
70.8191015409
 20
94.6133281261
 10
70.945848024
 20
94.0494905382
 10
71.0876917118
 20
93.5563943505
 10
71.2331410149
 20
93.1739877134
 10
71.3704123744
 20
92.9332520038
  0
LINE
  5
232
330
1F
100
AcDbEntity
  8
0
  6
Continuous
 62
     7
370
    15
100
AcDbLine
 10
71.3704123744
 20
92.9332520038
 30
0.0
 11
71.6062879772
 21
92.6372572005
 31
0.0
  0
SPLINE
  5
233
330
1F
100
AcDbEntity
  8
0
  6
Continuous
 62
     7
370
    15
100
AcDbSpline
210
0.0
220
0.0
230
1.0
 70
     8
 71
     3
 72
     8
 73
     4
 74
     0
 42
0.00000001
 43
0.00000001
 12
1.0
 22
0.0
 32
0.0
 13
1.0
 23
0.0
 33
0.0
 40
0.0
 40
0.0
 40
0.0
 40
0.0
 40
1.0
 40
1.0
 40
1.0
 40
1.0
 10
71.38078280656747
 20
87.47501505826415
 30
0.0
 10
71.05638567032295
 20
88.9366527814864
 30
0.0
 10
70.7323907933214
 20
90.39918108516673
 30
0.0
 10
70.40897374675045
 20
91.86298867452808
 30
0.0
  0
LWPOLYLINE
  5
234
330
1F
100
AcDbEntity
  8
0
  6
Continuous
 62
     7
370
    15
100
AcDbPolyline
 90
       31
 70
   128
 43
0.0
 10
71.3873428875
 20
101.5754095435
 10
71.4963574545
 20
100.85843831
 10
71.5736483806
 20
100.1728023559
 10
71.6158368276
 20
99.5484660536
 10
71.621079708
 20
99.0127171546
 10
71.5891479166
 20
98.5889709711
 10
71.5214365744
 20
98.2957459211
 10
71.4209049591
 20
98.1458570033
 10
71.2919470505
 20
98.1458570033
 10
71.1401987472
 20
98.2957459211
 10
70.9722924629
 20
98.5889709711
 10
70.7955665538
 20
99.0127171546
 10
70.6177440123
 20
99.5484660536
 10
70.4465976567
 20
100.1728023559
 10
70.289606473
 20
100.85843831
 10
70.1536319801
 20
101.5754095435
 10
70.0446174131
 20
102.292380777
 10
69.967326487
 20
102.9780167311
 10
69.92513804
 20
103.6023530334
 10
69.9198951596
 20
104.1381019324
 10
69.951826951
 20
104.5618481159
 10
70.0195382932
 20
104.8550731659
 10
70.1200699085
 20
105.004960221
 10
70.2490278171
 20
105.004960221
 10
70.4007761204
 20
104.8550731659
 10
70.5686824047
 20
104.5618481159
 10
70.7454083138
 20
104.1381019324
 10
70.9232308553
 20
103.6023530334
 10
71.0943772109
 20
102.9780167311
 10
71.2513683946
 20
102.292380777
 10
71.3873428875
 20
101.5754095435
  0
LINE
  5
235
330
1F
100
AcDbEntity
  8
0
  6
Continuous
 62
     7
370
    15
100
AcDbLine
 10
74.1764984676
 20
92.7930115878
 30
0.0
 11
70.8939840668
 21
96.9121470272
 31
0.0
  0
ELLIPSE
  5
236
330
1F
100
AcDbEntity
  8
0
  6
Continuous
 62
     7
370
    15
100
AcDbEllipse
 10
76.2786296555
 20
111.7954301363
 30
0.0
 11
-37.22569084473218
 21
65.02129104394103
 31
0.0
210
0.0
220
0.0
230
1.0
 40
0.2251141219
 41
1.82267430658642
 42
1.877929665574596
  0
SPLINE
  5
237
330
1F
100
AcDbEntity
  8
0
  6
Continuous
 62
     7
370
    15
100
AcDbSpline
210
0.0
220
0.0
230
1.0
 70
     8
 71
     3
 72
    20
 73
    16
 74
     0
 42
0.00000001
 43
0.00000001
 12
1.0
 22
0.0
 32
0.0
 13
1.0
 23
0.0
 33
0.0
 40
0.0
 40
0.0
 40
0.0
 40
0.0
 40
0.2499999999999988
 40
0.2499999999999988
 40
0.374999999999999
 40
0.374999999999999
 40
0.4999999999999992
 40
0.4999999999999992
 40
0.6249999999999994
 40
0.6249999999999994
 40
0.7499999999999996
 40
0.7499999999999996
 40
0.8749999999999998
 40
0.8749999999999998
 40
1.0
 40
1.0
 40
1.0
 40
1.0
 10
57.54134109021818
 20
147.9135413600195
 30
0.0
 10
57.77086998252766
 20
148.0980760673715
 30
0.0
 10
57.9921192483365
 20
148.2706567843298
 30
0.0
 10
58.30936745075554
 20
148.512062745086
 30
0.0
 10
58.4133901854129
 20
148.5901376811901
 30
0.0
 10
58.61013712678376
 20
148.7360833406669
 30
0.0
 10
58.70327822271513
 20
148.8042875989898
 30
0.0
 10
58.87855437121365
 20
148.9313442998637
 30
0.0
 10
58.96069674070681
 20
148.9902005782785
 30
0.0
 10
59.11274740038021
 20
149.0982088012441
 30
0.0
 10
59.18178370626615
 20
149.1467382584069
 30
0.0
 10
59.30182381591306
 20
149.2305777580612
 30
0.0
 10
59.35345519344492
 20
149.2663328171102
 30
0.0
 10
59.43909119345651
 20
149.3253861257674
 30
0.0
 10
59.47316769024513
 20
149.3487328983224
 30
0.0
 10
59.49697234857848
 20
149.3650123852222
 30
0.0
  0
SPLINE
  5
238
330
1F
100
AcDbEntity
  8
0
  6
Continuous
 62
     7
370
    15
100
AcDbSpline
210
0.0
220
0.0
230
1.0
 70
     8
 71
     3
 72
    12
 73
     8
 74
     0
 42
0.00000001
 43
0.00000001
 12
1.0
 22
0.0
 32
0.0
 13
1.0
 23
0.0
 33
0.0
 40
0.0
 40
0.0
 40
0.0
 40
0.0
 40
0.2499999999999999
 40
0.2499999999999999
 40
0.4999999999999998
 40
0.4999999999999998
 40
1.0
 40
1.0
 40
1.0
 40
1.0
 10
69.46227337251699
 20
92.84898186114205
 30
0.0
 10
69.40655882031379
 20
92.86325311399138
 30
0.0
 10
69.30607093236566
 20
92.889062982088
 30
0.0
 10
69.0211561649514
 20
92.96502664359846
 30
0.0
 10
68.84137609586045
 20
93.01400751403371
 30
0.0
 10
68.2120133715892
 20
93.19367543879461
 30
0.0
 10
67.6847111318169
 20
93.35460241616336
 30
0.0
 10
67.12814878198466
 20
93.54405318953299
 30
0.0
  0
ELLIPSE
  5
239
330
1F
100
AcDbEntity
  8
0
  6
Continuous
 62
     7
370
    15
100
AcDbEllipse
 10
60.7435273092
 20
104.8255025735
 30
0.0
 11
-2.571047329688653
 21
2.78156428828585
 31
0.0
210
0.0
220
0.0
230
1.0
 40
0.6444261125
 41
0.0
 42
6.283185307179586
  0
ARC
  5
23A
330
1F
100
AcDbEntity
  8
0
  6
Continuous
 62
     7
370
    15
100
AcDbCircle
 10
77.2786296555
 20
123.3638073474
 30
0.0
 40
31.5
100
AcDbArc
 50
128.798292774
 51
251.201707226
  0
CIRCLE
  5
23B
330
1F
100
AcDbEntity
  8
VERMASSUNG
  6
CENTERX2
100
AcDbCircle
 10
77.2786296555
 20
118.5174887121
 30
0.0
 40
40.0
  0
DIMENSION
  5
23C
330
1F
100
AcDbEntity
  8
VERMASSUNG
100
AcDbDimension
  2
_D_5
 10
48.9943584081
 20
90.2332174646
 30
0.0
 11
40.5251650593
 21
81.7640241158
 31
0.0
 70
   160
  1
%%c<> min. 
 71
     2
 42
-1.0
  3
SLDDIMSTYLE3
100
AcDbAlignedDimension
 13
105.562900903
 23
146.8017599595
 33
0.0
 14
48.9943584081
 24
90.2332174646
 34
0.0
 50
45.0
100
AcDbRotatedDimension
  0
INSERT
  5
256
330
1F
100
AcDbEntity
  8
VERMASSUNG
100
AcDbBlockReference
  2
SW_CENTERMARKSYMBOL_0
 10
77.2786296555
 20
123.3638073474
 30
0.0
  0
OLE2FRAME
  5
257
330
1F
100
AcDbEntity
  8
0
100
AcDbOle2Frame
 70
     2
  3
Paintbrush-Bild
 10
13.8511154363
 20
38.264191557
 30
0.0
 11
51.6290888628
 21
31.9806341108
 31
0.0
 71
     2
 72
     0
 73
     1
 90
    12928
310
80552BED0767C5B32B40DDAF6807D121434000000000000000006FFBDDFB85D0
310
4940DDAF6807D121434000000000000000006FFBDDFB85D04940416F4BD60AFB
310
3F4000000000000000002BED0767C5B32B40416F4BD60AFB3F40000000000000
310
0000000000000100000000010000010000000100000000000100000000320000
310
D0CF11E0A1B11AE1000000000000000000000000000000003E000300FEFF0900
310
0600000000000000000000000100000001000000000000000010000002000000
310
01000000FEFFFFFF0000000000000000FFFFFFFFFFFFFFFFFFFFFFFFFFFFFFFF
310
FFFFFFFFFFFFFFFFFFFFFFFFFFFFFFFFFFFFFFFFFFFFFFFFFFFFFFFFFFFFFFFF
310
FFFFFFFFFFFFFFFFFFFFFFFFFFFFFFFFFFFFFFFFFFFFFFFFFFFFFFFFFFFFFFFF
310
FFFFFFFFFFFFFFFFFFFFFFFFFFFFFFFFFFFFFFFFFFFFFFFFFFFFFFFFFFFFFFFF
310
FFFFFFFFFFFFFFFFFFFFFFFFFFFFFFFFFFFFFFFFFFFFFFFFFFFFFFFFFFFFFFFF
310
FFFFFFFFFFFFFFFFFFFFFFFFFFFFFFFFFFFFFFFFFFFFFFFFFFFFFFFFFFFFFFFF
310
FFFFFFFFFFFFFFFFFFFFFFFFFFFFFFFFFFFFFFFFFFFFFFFFFFFFFFFFFFFFFFFF
310
FFFFFFFFFFFFFFFFFFFFFFFFFFFFFFFFFFFFFFFFFFFFFFFFFFFFFFFFFFFFFFFF
310
FFFFFFFFFFFFFFFFFFFFFFFFFFFFFFFFFFFFFFFFFFFFFFFFFFFFFFFFFFFFFFFF
310
FFFFFFFFFFFFFFFFFFFFFFFFFFFFFFFFFFFFFFFFFFFFFFFFFFFFFFFFFFFFFFFF
310
FFFFFFFFFFFFFFFFFFFFFFFFFFFFFFFFFFFFFFFFFFFFFFFFFFFFFFFFFFFFFFFF
310
FFFFFFFFFFFFFFFFFFFFFFFFFFFFFFFFFFFFFFFFFFFFFFFFFFFFFFFFFFFFFFFF
310
FFFFFFFFFFFFFFFFFFFFFFFFFFFFFFFFFFFFFFFFFFFFFFFFFFFFFFFFFFFFFFFF
310
FFFFFFFFFFFFFFFFFFFFFFFFFFFFFFFFFFFFFFFFFFFFFFFFFFFFFFFFFFFFFFFF
310
FDFFFFFFFEFFFFFFFEFFFFFFFEFFFFFF05000000060000000700000008000000
310
090000000A0000000B0000000C0000000D0000000E0000000F00000010000000
310
11000000120000001300000014000000150000001600000017000000FEFFFFFF
310
FFFFFFFFFFFFFFFFFFFFFFFFFFFFFFFFFFFFFFFFFFFFFFFFFFFFFFFFFFFFFFFF
310
FFFFFFFFFFFFFFFFFFFFFFFFFFFFFFFFFFFFFFFFFFFFFFFFFFFFFFFFFFFFFFFF
310
FFFFFFFFFFFFFFFFFFFFFFFFFFFFFFFFFFFFFFFFFFFFFFFFFFFFFFFFFFFFFFFF
310
FFFFFFFFFFFFFFFFFFFFFFFFFFFFFFFFFFFFFFFFFFFFFFFFFFFFFFFFFFFFFFFF
310
FFFFFFFFFFFFFFFFFFFFFFFFFFFFFFFFFFFFFFFFFFFFFFFFFFFFFFFFFFFFFFFF
310
FFFFFFFFFFFFFFFFFFFFFFFFFFFFFFFFFFFFFFFFFFFFFFFFFFFFFFFFFFFFFFFF
310
FFFFFFFFFFFFFFFFFFFFFFFFFFFFFFFFFFFFFFFFFFFFFFFFFFFFFFFFFFFFFFFF
310
FFFFFFFFFFFFFFFFFFFFFFFFFFFFFFFFFFFFFFFFFFFFFFFFFFFFFFFFFFFFFFFF
310
FFFFFFFFFFFFFFFFFFFFFFFFFFFFFFFFFFFFFFFFFFFFFFFFFFFFFFFFFFFFFFFF
310
FFFFFFFFFFFFFFFFFFFFFFFFFFFFFFFFFFFFFFFFFFFFFFFFFFFFFFFFFFFFFFFF
310
FFFFFFFFFFFFFFFFFFFFFFFFFFFFFFFFFFFFFFFFFFFFFFFFFFFFFFFFFFFFFFFF
310
FFFFFFFFFFFFFFFFFFFFFFFFFFFFFFFFFFFFFFFFFFFFFFFFFFFFFFFFFFFFFFFF
310
FFFFFFFFFFFFFFFFFFFFFFFFFFFFFFFFFFFFFFFFFFFFFFFFFFFFFFFFFFFFFFFF
310
52006F006F007400200045006E00740072007900000000000000000000000000
310
0000000000000000000000000000000000000000000000000000000000000000
310
16000500FFFFFFFFFFFFFFFF020000000A00030000000000C000000000000046
310
000000000000000000000000A0FEEB27EB38CD0103000000C000000000000000
310
01004F006C006500000000000000000000000000000000000000000000000000
310
0000000000000000000000000000000000000000000000000000000000000000
310
0A000200FFFFFFFFFFFFFFFFFFFFFFFF00000000000000000000000000000000
310
0000000000000000000000000000000000000000000000001400000000000000
310
010043006F006D0070004F0062006A0000000000000000000000000000000000
310
0000000000000000000000000000000000000000000000000000000000000000
310
120002010100000003000000FFFFFFFF00000000000000000000000000000000
310
0000000000000000000000000000000000000000010000004D00000000000000
310
01004F006C006500310030004E00610074006900760065000000000000000000
310
0000000000000000000000000000000000000000000000000000000000000000
310
1A000200FFFFFFFFFFFFFFFFFFFFFFFF00000000000000000000000000000000
310
0000000000000000000000000000000000000000040000002426000000000000
310
FEFFFFFF02000000FEFFFFFFFFFFFFFFFFFFFFFFFFFFFFFFFFFFFFFFFFFFFFFF
310
FFFFFFFFFFFFFFFFFFFFFFFFFFFFFFFFFFFFFFFFFFFFFFFFFFFFFFFFFFFFFFFF
310
FFFFFFFFFFFFFFFFFFFFFFFFFFFFFFFFFFFFFFFFFFFFFFFFFFFFFFFFFFFFFFFF
310
FFFFFFFFFFFFFFFFFFFFFFFFFFFFFFFFFFFFFFFFFFFFFFFFFFFFFFFFFFFFFFFF
310
FFFFFFFFFFFFFFFFFFFFFFFFFFFFFFFFFFFFFFFFFFFFFFFFFFFFFFFFFFFFFFFF
310
FFFFFFFFFFFFFFFFFFFFFFFFFFFFFFFFFFFFFFFFFFFFFFFFFFFFFFFFFFFFFFFF
310
FFFFFFFFFFFFFFFFFFFFFFFFFFFFFFFFFFFFFFFFFFFFFFFFFFFFFFFFFFFFFFFF
310
FFFFFFFFFFFFFFFFFFFFFFFFFFFFFFFFFFFFFFFFFFFFFFFFFFFFFFFFFFFFFFFF
310
FFFFFFFFFFFFFFFFFFFFFFFFFFFFFFFFFFFFFFFFFFFFFFFFFFFFFFFFFFFFFFFF
310
FFFFFFFFFFFFFFFFFFFFFFFFFFFFFFFFFFFFFFFFFFFFFFFFFFFFFFFFFFFFFFFF
310
FFFFFFFFFFFFFFFFFFFFFFFFFFFFFFFFFFFFFFFFFFFFFFFFFFFFFFFFFFFFFFFF
310
FFFFFFFFFFFFFFFFFFFFFFFFFFFFFFFFFFFFFFFFFFFFFFFFFFFFFFFFFFFFFFFF
310
FFFFFFFFFFFFFFFFFFFFFFFFFFFFFFFFFFFFFFFFFFFFFFFFFFFFFFFFFFFFFFFF
310
FFFFFFFFFFFFFFFFFFFFFFFFFFFFFFFFFFFFFFFFFFFFFFFFFFFFFFFFFFFFFFFF
310
FFFFFFFFFFFFFFFFFFFFFFFFFFFFFFFFFFFFFFFFFFFFFFFFFFFFFFFFFFFFFFFF
310
FFFFFFFFFFFFFFFFFFFFFFFFFFFFFFFFFFFFFFFFFFFFFFFFFFFFFFFFFFFFFFFF
310
0100000200000000000000000000000000000000000000000000000000000000
310
0000000000000000000000000000000000000000000000000000000000000000
310
0100FEFF030A0000FFFFFFFF0A00030000000000C00000000000004607000000
310
5042727573680007000000504272757368000700000050427275736800F439B2
310
7100000000000000000000000000000000000000000000000000000000000000
310
0000000000000000000000000000000000000000000000000000000000000000
310
0000000000000000000000000000000000000000000000000000000000000000
310
0000000000000000000000000000000000000000000000000000000000000000
310
0000000000000000000000000000000000000000000000000000000000000000
310
0000000000000000000000000000000000000000000000000000000000000000
310
0000000000000000000000000000000000000000000000000000000000000000
310
0000000000000000000000000000000000000000000000000000000000000000
310
0000000000000000000000000000000000000000000000000000000000000000
310
0000000000000000000000000000000000000000000000000000000000000000
310
0000000000000000000000000000000000000000000000000000000000000000
310
0000000000000000000000000000000000000000000000000000000000000000
310
20260000424D0E260000000000003E00000028000000B40200006E0000000100
310
01000000000000000000130B0000130B00000200000002000000000000FFFFFF
310
FFFFFFFFFFFFFFFFFFFFFFFFFFFFFFFFFFFFFFFFFFFFFFFFFFFFFFFFFFFFFFFF
310
FFFFFFFFFFFFFFFFFFFFFFFFFFFFFFFFFFFFFFFFFFFFFFFFFFFFFFFFFFFFFFFF
310
FFFFFFFFFFFFFFFFFFFFFFFFFFFFFFFFFFFFFFFFFFFFFFFFF000FFFFFFFFFFFF
310
FFFFFFFFFFFFFFFFFFFFFFFFFFFFFFFFFFFFFFFFFFFFFFFFFFFFFFFFFFFFFFFF
310
FFFFFFFFFFFFFFFFFFFFFFFFFFFFFFFFFFFFFFFFFFFFFFFFFFFFFFFFFFFFFFFF
310
FFFFFFFFFFFFFFFFFFFFFFFFFFFFFFFFF000FFFFFFFFFFFFFFFFFFFFFFFFFFFF
310
FFFFFFFFFFFFFFFFFFFFFFFFFFFFFFFFFFFFFFFFFFFFFFFFFFFFFFFFFFFFFFFF
310
FFFFFFFFFFFFFFFFFFFFFFFFFFFFFFFFFFFFFFFFFFFFFFFFFFFFFFFFFFFFFFFF
310
FFFFFFFFFFFFFFFFF000FFFFFFFFFFFFFFFFFFFFFFFFFFFFFFFFFFFFFFFFFFFF
310
FFFFFFFFFFFFFFFFFFFFFFFFFFFFFFFFFFFFFFFFFFFFFFFFFFFFFFFFFFFFFFFF
310
FFFFFFFFFFFFFFFFFFFFFFFFFFFFFFFFFFFFFFFFFFFFFFFFFFFFFFFFFFFFFFFF
310
F000FFFFFFFFFFFFFFFFFFFFFFFFFFFFFFFFFFFFFFFFFFFFFFFFFFFFFFFFFFFF
310
FFFFFFFFFFFFFFFFFFFFFFFFFFFFFFFFFFFFFFFFFFFFFFFFFFFFFFFFFFFFFFFF
310
FFFFFFFFFFFFFFFFFFFFFFFFFFFFFFFFFFFFFFFFFFFFFFFFF000FFFFFFFFFFFF
310
FFFFFFFFFFFFFFFFFFFFFFFFFFFFFFFFFFFFFFFFFFFFFFFFFFFFFFFFFFFFFFFF
310
FFFFFFFFFFFFFFFFFFFFFFFFFFFFFFFFFFFFFFFFFFFFFFFFFFFFFFFFFFFFFFFF
310
FFFFFFFFFFFFFFFFFFFFFFFFFFFFFFFFF000FFFFFFFFFFFFFFFFFFFFFFFFFFFF
310
FFFFFFFFFFFFFFFFFFFFFFFFFFFFFFFFFFFFFFFFFFFFFFFFFFFFFFFFFFFFFFFF
310
FFFFFFFFFFFFFFFFFFFFFFFFFFFFFFFFFFFFFFFFFFFFFFFFFFFFFFFFFFFFFFFF
310
FFFFFFFFFFFFFFFFF000FFFFFFFFFFFFFFFFFFFFFFFFFFFFFFFFFFFFFFFFFFFF
310
FFFFFFFFFFFFFFFFFFFFFFFFFFFFFFFFFFFFFFFFFFFFFFFFFFFFFFFFFFFFFFFF
310
FFFFFFFFFFFFFFFFFFFFFFFFFFFFFFFFFFFFFFFFFFFFFFFFFFFFFFFFFFFFFFFF
310
F000FFFFFFFFFFFFFFFFFFFFFFFFFFFFFFFFFFFFFFFFFFFFFFFFFFFFFFFFFFFF
310
FFFFFFFFFFFFFFFFFFFFFFFFFFFFFFFFFFFFFFFFFFFFFFFFFFFFFFFFFFFFFFFF
310
FFFFFFFFFFFFFFFFFFFFFFFFFFFFFFFFFFFFFFFFFFFFFFFFF000FFFFFFFFFFFF
310
FFFFFFFFFFFFFFFFFFFFFFFFFFFFFFFFFFFFFFFFFFFFFFFFFFFFFFFFFFFFFFFF
310
FFFFFFFFFFFFFFFFFFFFFFFFFFFFFFFFFFFFFFFFFFFFFFFFFFFFFFFFFFFFFFFF
310
FFFFFFFFFFFFFFFFFFFFFFFFFFFFFFFFF000FFFFFFFFFFFFFFFFFFFFFFFFFFFF
310
FFFFFFFFFFFFFFFFFFFFFFFFFFFFFFFFFFFFFFFFFFFFFFFFFFFFFFFFFFFFFFFF
310
FFFFFFFFFFFFFFFFFFFFFFFFFFFFFFFFFFFFFFFFFFFFFFFFFFFFFFFFFFFFFFFF
310
FFFFFFFFFFFFFFFFF000FFFFFFFFFFFFFFFFFFFFFFFFFFFFFFFFFFFFFFFFFFFF
310
FFFFFFFFFFFFFFFFFFFFFFFFFFFFFFFFFFFFFFFFFFFFFFFFFFFFFFFFFFFFFFFF
310
FFFFFFFFFFFFFFFFFFFFFFFFFFFFFFFFFFFFFFFFFFFFFFFFFFFFFFFFFFFFFFFF
310
F000FFFFFFFFFFFFFFFFFFFFFFFFFFFFFFFFFFFFFFFFFFFFFFFFFFFFFFFFFFFF
310
FFFFFFFFFFFFFFFFFFFFFFFFFFFFFFFFFFFFFFFFFFFFFFFFFFFFFFFFFFFFFFFF
310
FFFFFFFFFFFFFFFFFFFFFFFFFFFFFFFFFFFFFFFFFFFFFFFFF000FFFFFFFFFFFF
310
FFFFFFFFFFFFFFFFFFFFFFFFFFFFFFFFFFFFFFFFFFFFFFFFFFFFFFFFFFFFFFFF
310
FFFFFFFFFFFFFFFFFFFFFFFFFFFFFFFFFFFFFFFFFFFFFFFFFFFFFFFFFFFFFFFF
310
FFFFFFFFFFFFFFFFFFFFFFFFFFFFFFFFF000FFFFFFFFFFFFFFFFFFFFFFFFFFFF
310
FFFFFFFFFFFFFFFFFFFFFFFFFFFFFFFFFFFFFFFFFFFFFFFFFFFFFFFFFFFFFFFF
310
FFFFFFFFFFFFFFFFFFFFFFFFFFFFFFFFFFFFFFFFFFFFFFFFFFFFFFFFFFFFFFFF
310
FFFFFFFFFFFFFFFFF000FFFFFFFFFFFFFFFFFFFFFFFFFFFFFFFFFFFFFFFFFFFF
310
FFFFFFFFFFFFFFFFFFFFFFFFFFFFFFFFFFFFFFFFFFFFFFFFFFFFFFFFFFFFFFFF
310
FFFFFFFFFFFFFFFFFFFFFFFFFFFFFFFFFFFFFFFFFFFFFFFFFFFFFFFFFFFFFFFF
310
F000FFFFFFFFFFFFFFFFFFFFFFFFFFFFFFFFFFFFFFFFFFFFFFFFFFFFFFFFFFFF
310
FFFFFFFFFFFFFFFFFFFFFFFFFFFFFFFFFFFFFFFFFFFFFFFFFFFFFFFFFFFFFFFF
310
FFFFFFFFFFFFFFFFFFFFFFFFFFFFFFFFFFFFFFFFFFFFFFFFF000FFFFFFFFFFFF
310
FFFFFFFFFFFFFFFFFFFFFFFFFFFFFFFFFFFFFFFFFFFFFFFFFFFFFFFFFFFFFFFF
310
FFFFFFFFFFFFFFFFFFFFFFFFFFFFFFFFFFFFFFFFFFFFFFFFFFFFFFFFFFFFFFFF
310
FFFFFFFFFFFFFFFFFFFFFFFFFFFFFFFFF000FFFFFFFFFFFFFFFFFFFFFFFFFFFF
310
FFFFFFFFFFFFFFFFFFFFFFFFFFFFFFFFFFFFFFFFFFFFFFFFFFFFFFFFFFFFFFFF
310
FFFFFFFFFFFFFFFFFFFFFFFFFFFFFFFFFFFFFFFFFFFFFFFFFFFFFFFFFFFFFFFF
310
FFFFFFFFFFFFFFFFF000FFFFF80003FFFFFFFFFFFFFFFFFFFFFFFFFFFFFFFFFF
310
FFFFF00007FFFFFFFFFF00007FFFFFF800000000000000007FFFFFFFFFFFFFFF
310
FFFFFFFC001FFFFFFFFFFFFFFC001FFFFFFFFFFFFFFFFFFFFFFFFFFE0007FFFF
310
F000FFFF8000007FFFFFFFF8000FFFFFC0007FFFFF80007FFFFF0000007FFFFF
310
FFF8000007FFFFF800000000000000007FFFFFF0001FFFFFFFFFFFC00001FFFF
310
FFFFFFFFC00001FFFFFFFF000000000003FFFFE000007FFFF000FFFE0000000F
310
FFFFFFF0000FFFFF80007FFFFF80007FFFFC0000001FFFFFFFC0000001FFFFF8
310
00000000000000007FFFFFF0001FFFFFFFFFFE0000003FFFFFFFFFFE0000003F
310
FFFFFF000000000003FFFF0000000FFFF000FFF800000003FFFFFFF00007FFFF
310
80007FFFFF80007FFFF000000007FFFFFF000000003FFFF80000000000000000
310
7FFFFFF0001FFFFFFFFFF80000000FFFFFFFFFF80000000FFFFFFF0000000000
310
03FFFC00000003FFF000FFE000000000FFFFFFF00007FFFF80003FFFFF80007F
310
FFC000000001FFFFFC000000001FFFF800000000000000007FFFFFF0001FFFFF
310
FFFFE000000003FFFFFFFFE000000003FFFFFF000000000003FFF000000000FF
310
F000FF80000000007FFFFFF00007FFFF80003FFFFF80007FFF8000000000FFFF
310
F80000000007FFF800000000000000007FFFFFF0001FFFFFFFFFC000000001FF
310
FFFFFFC000000001FFFFFF000000000003FFC0000000007FF000FF0000000000
310
3FFFFFE00007FFFF00003FFFFF80007FFE00000000003FFFF00000000003FFF8
310
00000000000000007FFFFFF0001FFFFFFFFF8000000000FFFFFFFF8000000000
310
FFFFFF000000000003FF80000000003FF000FE00000000001FFFFFE00003FFFF
310
00003FFFFF80007FFC00000000001FFFE00000000001FFF8000001FFFE000000
310
7FFFFFF0001FFFFFFFFE00000000003FFFFFFE00000000003FFFFF0000000000
310
03FF00000000001FF000FC00000000000FFFFFE00003FFFF00001FFFFF80007F
310
F800000000001FFFC00000000000FFF8000001FFFE0000007FFFFFF0001FFFFF
310
FFFC00000000001FFFFFFC00000000001FFFFF000000000003FE00000000000F
310
F000F8000000000007FFFFE00003FFFF00001FFFFF80007FF800000000000FFF
310
800000000000FFF8000001FFFE0000007FFFFFF0001FFFFFFFF800000000000F
310
FFFFF800000000000FFFFF000000000003FC000000000007F000F80000000000
310
03FFFFC00003FFFE00001FFFFF80007FF0000000000007FF0000000000007FF8
310
000001FFFE0000007FFFFFF0001FFFFFFFF0000000000007FFFFF00000000000
310
07FFFF000000000003F8000000000003F000F0000000000003FFFFC00001FFFE
310
00001FFFFF80007FE0000000000007FE0000000000003FF8000001FFFE000000
310
7FFFFFF0001FFFFFFFF0000000000007FFFFF0000000000007FFFF0000000000
310
03F800001F800003F000E00001FFF00001FFFFC00001FFFE00000FFFFF80007F
310
E00001FFE00003FE00001FFF00003FF8000001FFFE0000007FFFFFF0001FFFFF
310
FFE000003E000003FFFFE000003E000003FFFF000000000003F00001FFF80001
310
F000E00007FFFC0001FFFFC00001FFFE00000FFFFF80007FC0000FFFFC0003FC
310
0000FFFFC0001FF8000001FFFE0000007FFFFFF0001FFFFFFFC00003FFE00001
310
FFFFC00003FFE00001FFFF0001FFFFFFFFF00007FFFE0001F000E0000FFFFF00
310
00FFFF800001FFFC00000FFFFF80007FC0001FFFFE0001FC0001FFFFE0001FF8
310
000001FFFE0000007FFFFFF0001FFFFFFF80000FFFF80000FFFF80000FFFF800
310
00FFFF0003FFFFFFFFE0000FFFFF8000F000C0003FFFFF8000FFFF800000FFFC
310
000007FFFF80007F80003FFFFF0001FC0003FFFFF0001FF8000001FFFE000000
310
7FFFFFF0001FFFFFFF80003FFFFE0000FFFF80003FFFFE0000FFFF0003FFFFFF
310
FFE0003FFFFF8000F000C0003FFFFF8000FFFF800000FFFC000007FFFF80007F
310
80007FFFFF8001F80007FFFFF8000FF8000001FFFE0000007FFFFFF0001FFFFF
310
FF00007FFFFF00007FFF00007FFFFF00007FFF0003FFFFFFFFE0003FFFFFC000
310
F000C0007FFFFFC000FFFF000000FFFC000007FFFF80007F8000FFFFFF8000F8
310
000FFFFFF8000FF8000001FFFE0000007FFFFFF0001FFFFFFF0000FFFFFF8000
310
7FFF0000FFFFFF80007FFF0003FFFFFFFFC0007FFFFFC00070008000FFFFFFC0
310
00FFFF000000FFF8000007FFFF80007F8000FFFFFF8000F8000FFFFFF8000FF8
310
000001FFFE0000007FFFFFF0001FFFFFFE0001FFFFFFC0003FFE0001FFFFFFC0
310
003FFF0003FFFFFFFFC0007FFFFFE00070008000FFFFFFC0007FFF0000007FF8
310
000003FFFF80007F0001FFFFFF8000F8000FFFFFF8000FF8000001FFFE000000
310
7FFFFFF0001FFFFFFE0001FFFFFFC0003FFE0001FFFFFFC0003FFF0003FFFFFF
310
FFC000FFFFFFE00070008000FFFFFFC0007FFF0000007FF8000003FFFF80007F
310
0001FFFFFF8000F8001FFFFFF8000FF8000001FFFE0000007FFFFFF0001FFFFF
310
FE0003FFFFFFE0003FFE0003FFFFFFE0003FFF0003FFFFFFFFC000FFFFFFE000
310
70008000FFFFFFC0007FFE0000007FF8000003FFFF80007F0001FFFFFF8000F0
310
001FFFFFF8000FF8000001FFFE0000007FFFFFF0001FFFFFFC0003FFFFFFE000
310
1FFC0003FFFFFFE0001FFF0003FFFFFFFFC000FFFFFFC00070008000FFFFFF80
310
007FFE0000007FF0000003FFFF80007F0001FFFFFF0000F0001FFFFFF8000FF8
310
000001FFFE0000007FFFFFF0001FFFFFFC0007FFFFFFF0001FFC0007FFFFFFF0
310
001FFF0003FFFFFFFFC000FFFFFFC00070008001FFFFFF0000FFFE0000003FF0
310
000001FFFF80007F0001FFFFFF0000F8001FFFFFF0000FF8000001FFFE000000
310
7FFFFFF0001FFFFFFC0007FFFFFFF0001FFC0007FFFFFFF0001FFF0003FFFFFF
310
FFC001FFFFFF80007000FFFFFFFFFE0000FFFE0008003FF0008001FFFF80007F
310
FFFFFFFFFC0000FFFFFFFFFFE0000FF8000001FFFE0000007FFFFFF0001FFFFF
310
F8000FFFFFFFF8000FF8000FFFFFFFF8000FFF0003FFFFFFFFFFFFFFFFFF0000
310
7000FFFFFFFFFC0000FFFC0008003FF0008001FFFF80007FFFFFFFFFF80001FF
310
FFFFFFFF80000FF8000001FFFE0000007FFFFFF0001FFFFFF8000FFFFFFFF800
310
0FF8000FFFFFFFF8000FFF0003FFFFFFFFFFFFFFFFFE0000F000FFFFFFFFE000
310
00FFFC000C003FE000C001FFFF80007FFFFFFFFFC00001FFFFFFFFFE00001FF8
310
000001FFFE0000007FFFFFF0001FFFFFF8000FFFFFFFF8000FF8000FFFFFFFF8
310
000FFF0003FFFFFFFFFFFFFFFFF00000F000FFFFFFFE000001FFFC000C001FE0
310
00C000FFFF80007FFFFFFFFE000001FFFFFFFFE000001FF80FFFFFFFFFFFFFC0
310
7FFFFFF0001FFFFFF8000FFFFFFFF8000FF8000FFFFFFFF8000FFF0003FFFFFF
310
FFFFFFFFFF800000F000FFFFFFC0000001FFFC001C001FE001C000FFFF80007F
310
FFFFFF80000003FFFFFFF80000001FF80FFFFFFFFFFFFFC07FFFFFF0001FFFFF
310
F8001FFFFFFFFC000FF8001FFFFFFFFC000FFF0003FFFFFFFFFFFFFFF0000001
310
F000FFFFF800000001FFF8001C001FE001C000FFFF80007FFFFFF800000003FF
310
FFFF800000003FF80FFFFFFFFFFFFFC07FFFFFF0001FFFFFF8001FFFFFFFFC00
310
0FF8001FFFFFFFFC000FFF0003FFFFFFFFFFFFFE00000001F000FFFFC0000000
310
03FFF8001E001FC001E000FFFF80007FFFFF8000000007FFFFFC000000003FF8
310
0FFFFFFFFFFFFFC07FFFFFF0001FFFFFF8001FFFFFFFFC000FF8001FFFFFFFFC
310
000FFF0003FFFFFFFFFFFFE000000003F000FFFE0000000007FFF8001E000FC0
310
01E0007FFF80007FFFFE0000000007FFFFE0000000007FF80FFFFFFFFFFFFFC0
310
7FFFFFF0001FFFFFF0001FFFFFFFFC0007F0001FFFFFFFFC0007FF0003FFFFFF
310
FFFFFF0000000003F000FFF80000000007FFF8001E000FC003E0007FFF80007F
310
FFF0000000000FFFFF8000000000FFF80FFFFFFFFFFFFFC07FFFFFF0001FFFFF
310
F0001FFFFFFFFC0007F0001FFFFFFFFC0007FF0003FFFFFFFFFFFC0000000007
310
F000FFE0000000000FFFF0003E000FC003E0007FFF80007FFFC0000000001FFF
310
FE0000000001FFF80FFFFFFFFFFFFFC07FFFFFF0001FFFFFF0001FFFFFFFFC00
310
07F0001FFFFFFFFC0007FF0003FFFFFFFFFFF0000000000FF000FFC000000000
310
1FFFF0003F000F8003F0003FFF80007FFF80000000003FFFF80000000003FFF8
310
0FFFFFFFFFFFFFC07FFFFFF0001FFFFFF0001FFFFFFFFC0007F0001FFFFFFFFC
310
0007FF0003FFFFFFFFFFE0000000001FF000FF00000000007FFFF0003F000780
310
03F0003FFF80007FFF00000000007FFFF00000000007FFF80FFFFFFFFFFFFFC0
310
7FFFFFF0001FFFFFF0001FFFFFFFFC0007F0001FFFFFFFFC0007FF0003FFFFFF
310
FFFF80000000007FF000FE0000000000FFFFE0003F00078007F0003FFF80007F
310
FE0000000001FFFFE0000000001FFFF80FFFFFFFFFFFFFC07FFFFFF0001FFFFF
310
F0001FFFFFFFFC0007F0001FFFFFFFFC0007FF0003FFFFFFFFFF0000000000FF
310
F000FC0000000003FFFFE0007F00078007F0003FFF80007FFC0000000007FFFF
310
C0000000007FFFF80FFFFFFFFFFFFFC07FFFFFF0001FFFFFF8001FFFFFFFFC00
310
0FF8001FFFFFFFFC000FFF0003FFFFFFFFFE0000000003FFF000FC000000000F
310
FFFFE0007F80070007F8001FFF80007FF8000000001FFFFF8000000001FFFFF8
310
0FFFFFFFFFFFFFC07FFFFFF0001FFFFFF8001FFFFFFFFC000FF8001FFFFFFFFC
310
000FFF0003FFFFFFFFFC000000000FFFF000F8000000007FFFFFE0007F800700
310
07F8001FFF80007FF000000000FFFFFF800000000FFFFFF80FFFFFFFFFFFFFC0
310
7FFFFFF0001FFFFFF8000FFFFFFFF8000FF8000FFFFFFFF8000FFF0003FFFFFF
310
FFFC000000007FFFF000F800000007FFFFFFC0007F8003000FF8001FFF80007F
310
F000000007FFFFFF000000007FFFFFF80FFFFFFFFFFFFFC07FFFFFF0001FFFFF
310
F8000FFFFFFFF8000FF8000FFFFFFFF8000FFF0003FFFFFFFFF80000000FFFFF
310
F000F0000000FFFFFFFFC000FF8003000FF8001FFF80007FE0000000FFFFFFFF
310
0000000FFFFFFFF8000001FFFE0000007FFFFFF0001FFFFFF8000FFFFFFFF800
310
0FF8000FFFFFFFF8000FFF0003FFFFFFFFF8000000FFFFFFF000F000000FFFFF
310
FFFFC000FFC002000FF8000FFF80007FE000001FFFFFFFFE000001FFFFFFFFF8
310
000001FFFE0000007FFFFFF0001FFFFFF8000FFFFFFFF8000FF8000FFFFFFFF8
310
000FFF0003FFFFFFFFF000001FFFFFFFF000E00000FFFFFFFFFFC000FFC00200
310
0FFC000FFF80007FE00001FFFFFFFFFE00001FFFFFFFFFF8000001FFFE000000
310
7FFFFFF0001FFFFFFC000FFFFFFFF8001FFC000FFFFFFFF8001FFF0003FFFFFF
310
FFF00001FFFFFFFFF000E00007FFFFFFFFFF8000FFC000001FFC000FFF80007F
310
C0000FFFFFFFFFFE0000FFFFFFFFFFF8000001FFFE0000007FFFFFF0001FFFFF
310
FC0007FFFFFFF0001FFC0007FFFFFFF0001FFF0003FFFFFFFFF00007FFFFFFFF
310
F000E0001FFFFFFFFFFF8000FFC000001FFC000FFF80007FC0003FFFFFFFFFFE
310
0001FFFFFFFFFFF8000001FFFE0000007FFFFFF0001FFFFFFC0007FFFFFFF000
310
1FFC0007FFFFFFF0001FFF0003FFFFFFFFF0001FFFFFFFFFF000E0003FFFFF00
310
03FF8001FFE000001FFC0007FF80007FC0007FFFFF0007FC0003FFFFF0003FF8
310
000001FFFE0000007FFFFFF0001FFFFFFC0003FFFFFFE0001FFC0003FFFFFFE0
310
001FFF0003FFFFFFFFF0003FFFFFFFFFF000E0003FFFFF0001FF8001FFE00000
310
1FFE0007FF80007FC0007FFFFE0003FC0007FFFFE0003FF8000001FFFE000000
310
7FFFFFF0001FFFFFFE0003FFFFFFE0003FFE0003FFFFFFE0003FFF0003FFFFFF
310
FFF0003FFFFF8001F000E0003FFFFF0001FF0001FFE000001FFE0007FF80007F
310
C0007FFFFE0003FC0007FFFFE0003FF8000001FFFE0000007FFFFFF0001FFFFF
310
FE0001FFFFFFC0003FFE0001FFFFFFC0003FFF0003FFFFFFFFF0003FFFFF0001
310
F000E0003FFFFF0003FF0001FFE000003FFE0007FF80007FC0007FFFFE0003FC
310
0007FFFFE0003FF8000001FFFE0000007FFFFFF0001FFFFFFF0001FFFFFFC000
310
7FFF0001FFFFFFC0007FFF0003FFFFFFFFF0003FFFFF0001F000E0003FFFFE00
310
03FF0003FFF000003FFE0003FF80007FC0007FFFFC0003FE0007FFFFE0003FF8
310
000001FFFE0000007FFFFFF0001FFFFFFF0000FFFFFF80007FFF0000FFFFFF80
310
007FFF0003FFFFFFFFF0003FFFFF0001F000E0003FFFFE0003FF0003FFF00000
310
3FFF0003FF80007FC0007FFFFC0007FE0007FFFFC0003FF8000001FFFE000000
310
7FFFFFF0001FFFFFFF80007FFFFF0000FFFF80007FFFFF0000FFFF0003FFFFFF
310
FFF0003FFFFF0003F000E0003FFFFC0003FE0003FFF000003FFF0003FF80007F
310
E0003FFFF80007FE0003FFFFC0007FF8000001FFFE0000007FFFFFF0001FFFFF
310
FF80003FFFFE0000FFFF80003FFFFE0000FFFF0003FFFFFFFFF0001FFFFE0003
310
F000F0001FFFF80003FE0003FFF000007FFF0001FF80007FE0003FFFF00007FE
310
0001FFFF80007FF8000001FFFE0000007FFFFFF0001FFFFFFFC0000FFFF80001
310
FFFFC0000FFFF80001FFFF0003FFFFFFFFF0001FFFFC0003F000F0000FFFF000
310
07FE0007FFF800007FFF0001FF80007FE0001FFFE00007FF0000FFFE00007FF8
310
000001FFFE0000007FFFFFF0001FFFFFFFC00003FFE00001FFFFC00003FFE000
310
01FFFF0003FFFFFFFFF8000FFFF80003F000F00003FFC00007FC0007FFF80000
310
7FFF8001FF80007FF00007FF80000FFF00007FF80000FFF8000001FFFE000000
310
7F80000000000001FFE000003E000003FFFFE000003E000003FFFF0003FFFFFF
310
FFF80003FFE00007F000F800000000000FFC0007FFF800007FFF8001FF80007F
310
F000000000000FFF000000000000FFF8000001FFFE0000007F80000000000001
310
FFF0000000000007FFFFF0000000000007FFFF0003FFFFFFFFFC00007E000007
310
F000F800000000000FFC0007FFF80000FFFF8000FF80007FF800000000001FFF
310
800000000001FFF8000001FFFE0000007F80000000000001FFF800000000000F
310
FFFFF800000000000FFFFF0003FFFFFFFFFC00000000000FF000FC0000000000
310
1FFC0007FFFC0000FFFF8000FF80007FF800000000003FFFC00000000001FFF8
310
000001FFFE0000007F80000000000001FFF800000000000FFFFFF80000000000
310
0FFFFF0003FFFFFFFFFE00000000001FF000FE00000000003FF8000FFFFC0000
310
FFFF8000FF80007FFC00000000003FFFC00000000003FFF8000001FFFE000000
310
7F80000000000001FFFC00000000001FFFFFFC00000000001FFFFF0003FFFFFF
310
FFFF00000000001FF000FF00000000003FF8000FFFFC0000FFFFC000FF80007F
310
FE00000000007FFFE00000000007FFF8000001FFFE0000007F80000000000001
310
FFFE00000000003FFFFFFE00000000003FFFFF0003FFFFFFFFFF80000000003F
310
F000FF80000000007FF8000FFFFC0001FFFFC0007F80007FFF0000000000FFFF
310
F0000000000FFFF800000000000000007F80000000000001FFFF8000000000FF
310
FFFFFF8000000000FFFFFF0003FFFFFFFFFFC0000000007FF000FFC000000000
310
FFF8000FFFFE0001FFFFC0007F80007FFF8000000001FFFFF8000000001FFFF8
310
00000000000000007F80000000000001FFFFC000000001FFFFFFFFC000000001
310
FFFFFF0003FFFFFFFFFFE000000000FFF000FFE000000003FFF0001FFFFE0001
310
FFFFC0007F80007FFFC000000007FFFFFE000000003FFFF80000000000000000
310
7F80000000000001FFFFE000000003FFFFFFFFE000000003FFFFFF0003FFFFFF
310
FFFFF000000003FFF000FFF80000000FFFF0001FFFFE0001FFFFE0007F80007F
310
FFF00000000FFFFFFF00000000FFFFF800000000000000007F80000000000001
310
FFFFF80000000FFFFFFFFFF80000000FFFFFFF0003FFFFFFFFFFFC0000000FFF
310
F000FFFE0000003FFFF0001FFFFE0003FFFFE0003F80007FFFFC0000003FFFFF
310
FFC0000003FFFFF800000000000000007F80000000000001FFFFFE0000003FFF
310
FFFFFFFE0000003FFFFFFF0003FFFFFFFFFFFF0000003FFFF000FFFF800000FF
310
FFF0001FFFFF0003FFFFE0003F80007FFFFF000001FFFFFFFFF800001FFFFFF8
310
00000000000000007F80000000000001FFFFFFC00001FFFFFFFFFFFFC00001FF
310
FFFFFF0003FFFFFFFFFFFFC00000FFFFF000FFFFF8000FFFFFFFFFFFFFFFFFFF
310
FFFFFFFFFFFFFFFFFFFFF0001FFFFFFFFFFF0000FFFFFFF80000000000000000
310
7FFFFFFFFFFFFFFFFFFFFFFC001FFFFFFFFFFFFFFC001FFFFFFFFFFFFFFFFFFF
310
FFFFFFFC001FFFFFF000FFFFFFFFFFFFFFFFFFFFFFFFFFFFFFFFFFFFFFFFFFFF
310
FFFFFFFFFFFFFFFFFFFFFFFFFFFFFFFFFFFFFFFFFFFFFFFFFFFFFFFFFFFFFFFF
310
FFFFFFFFFFFFFFFFFFFFFFFFFFFFFFFFFFFFFFFFFFFFFFFFFFFFFFFFFFFFFFFF
310
F000FFFFFFFFFFFFFFFFFFFFFFFFFFFFFFFFFFFFFFFFFFFFFFFFFFFFFFFFFFFF
310
FFFFFFFFFFFFFFFFFFFFFFFFFFFFFFFFFFFFFFFFFFFFFFFFFFFFFFFFFFFFFFFF
310
FFFFFFFFFFFFFFFFFFFFFFFFFFFFFFFFFFFFFFFFFFFFFFFFF000FFFFFFFFFFFF
310
FFFFFFFFFFFFFFFFFFFFFFFFFFFFFFFFFFFFFFFFFFFFFFFFFFFFFFFFFFFFFFFF
310
FFFFFFFFFFFFFFFFFFFFFFFFFFFFFFFFFFFFFFFFFFFFFFFFFFFFFFFFFFFFFFFF
310
FFFFFFFFFFFFFFFFFFFFFFFFFFFFFFFFF000FFFFFFFFFFFFFFFFFFFFFFFFFFFF
310
FFFFFFFFFFFFFFFFFFFFFFFFFFFFFFFFFFFFFFFFFFFFFFFFFFFFFFFFFFFFFFFF
310
FFFFFFFFFFFFFFFFFFFFFFFFFFFFFFFFFFFFFFFFFFFFFFFFFFFFFFFFFFFFFFFF
310
FFFFFFFFFFFFFFFFF000FFFFFFFFFFFFFFFFFFFFFFFFFFFFFFFFFFFFFFFFFFFF
310
FFFFFFFFFFFFFFFFFFFFFFFFFFFFFFFFFFFFFFFFFFFFFFFFFFFFFFFFFFFFFFFF
310
FFFFFFFFFFFFFFFFFFFFFFFFFFFFFFFFFFFFFFFFFFFFFFFFFFFFFFFFFFFFFFFF
310
F000FFFFFFFFFFFFFFFFFFFFFFFFFFFFFFFFFFFFFFFFFFFFFFFFFFFFFFFFFFFF
310
FFFFFFFFFFFFFFFFFFFFFFFFFFFFFFFFFFFFFFFFFFFFFFFFFFFFFFFFFFFFFFFF
310
FFFFFFFFFFFFFFFFFFFFFFFFFFFFFFFFFFFFFFFFFFFFFFFFF000FFFFFFFFFFFF
310
FFFFFFFFFFFFFFFFFFFFFFFFFFFFFFFFFFFFFFFFFFFFFFFFFFFFFFFFFFFFFFFF
310
FFFFFFFFFFFFFFFFFFFFFFFFFFFFFFFFFFFFFFFFFFFFFFFFFFFFFFFFFFFFFFFF
310
FFFFFFFFFFFFFFFFFFFFFFFFFFFFFFFFF000FFFFFFFFFFFFFFFFFFFFFFFFFFFF
310
FFFFFFFFFFFFFFFFFFFFFFFFFFFFFFFFFFFFFFFFFFFFFFFFFFFFFFFFFFFFFFFF
310
FFFFFFFFFFFFFFFFFFFFFFFFFFFFFFFFFFFFFFFFFFFFFFFFFFFFFFFFFFFFFFFF
310
FFFFFFFFFFFFFFFFF000FFFFFFFFFFFFFFFFFFFFFFFFFFFFFFFFFFFFFFFFFFFF
310
FFFFFFFFFFFFFFFFFFFFFFFFFFFFFFFFFFFFFFFFFFFFFFFFFFFFFFFFFFFFFFFF
310
FFFFFFFFFFFFFFFFFFFFFFFFFFFFFFFFFFFFFFFFFFFFFFFFFFFFFFFFFFFFFFFF
310
F000FFFFFFFFFFFFFFFFFFFFFFFFFFFFFFFFFFFFFFFFFFFFFFFFFFFFFFFFFFFF
310
FFFFFFFFFFFFFFFFFFFFFFFFFFFFFFFFFFFFFFFFFFFFFFFFFFFFFFFFFFFFFFFF
310
FFFFFFFFFFFFFFFFFFFFFFFFFFFFFFFFFFFFFFFFFFFFFFFFF000FFFFFFFFFFFF
310
FFFFFFFFFFFFFFFFFFFFFFFFFFFFFFFFFFFFFFFFFFFFFFFFFFFFFFFFFFFFFFFF
310
FFFFFFFFFFFFFFFFFFFFFFFFFFFFFFFFFFFFFFFFFFFFFFFFFFFFFFFFFFFFFFFF
310
FFFFFFFFFFFFFFFFFFFFFFFFFFFFFFFFF000FFFFFFFFFFFFFFFFFFFFFFFFFFFF
310
FFFFFFFFFFFFFFFFFFFFFFFFFFFFFFFFFFFFFFFFFFFFFFFFFFFFFFFFFFFFFFFF
310
FFFFFFFFFFFFFFFFFFFFFFFFFFFFFFFFFFFFFFFFFFFFFFFFFFFFFFFFFFFFFFFF
310
FFFFFFFFFFFFFFFFF000FFFFFFFFFFFFFFFFFFFFFFFFFFFFFFFFFFFFFFFFFFFF
310
FFFFFFFFFFFFFFFFFFFFFFFFFFFFFFFFFFFFFFFFFFFFFFFFFFFFFFFFFFFFFFFF
310
FFFFFFFFFFFFFFFFFFFFFFFFFFFFFFFFFFFFFFFFFFFFFFFFFFFFFFFFFFFFFFFF
310
F000FFFFFFFFFFFFFFFFFFFFFFFFFFFFFFFFFFFFFFFFFFFFFFFFFFFFFFFFFFFF
310
FFFFFFFFFFFFFFFFFFFFFFFFFFFFFFFFFFFFFFFFFFFFFFFFFFFFFFFFFFFFFFFF
310
FFFFFFFFFFFFFFFFFFFFFFFFFFFFFFFFFFFFFFFFFFFFFFFFF000FFFFFFFFFFFF
310
FFFFFFFFFFFFFFFFFFFFFFFFFFFFFFFFFFFFFFFFFFFFFFFFFFFFFFFFFFFFFFFF
310
FFFFFFFFFFFFFFFFFFFFFFFFFFFFFFFFFFFFFFFFFFFFFFFFFFFFFFFFFFFFFFFF
310
FFFFFFFFFFFFFFFFFFFFFFFFFFFFFFFFF000FFFFFFFFFFFFFFFFFFFFFFFFFFFF
310
FFFFFFFFFFFFFFFFFFFFFFFFFFFFFFFFFFFFFFFFFFFFFFFFFFFFFFFFFFFFFFFF
310
FFFFFFFFFFFFFFFFFFFFFFFFFFFFFFFFFFFFFFFFFFFFFFFFFFFFFFFFFFFFFFFF
310
FFFFFFFFFFFFFFFFF000FFFFFFFFFFFFFFFFFFFFFFFFFFFFFFFFFFFFFFFFFFFF
310
FFFFFFFFFFFFFFFFFFFFFFFFFFFFFFFFFFFFFFFFFFFFFFFFFFFFFFFFFFFFFFFF
310
FFFFFFFFFFFFFFFFFFFFFFFFFFFFFFFFFFFFFFFFFFFFFFFFFFFFFFFFFFFFFFFF
310
F000FFFFFFFFFFFFFFFFFFFFFFFFFFFFFFFFFFFFFFFFFFFFFFFFFFFFFFFFFFFF
310
FFFFFFFFFFFFFFFFFFFFFFFFFFFFFFFFFFFFFFFFFFFFFFFFFFFFFFFFFFFFFFFF
310
FFFFFFFFFFFFFFFFFFFFFFFFFFFFFFFFFFFFFFFFFFFFFFFFF000FFFFFFFFFFFF
310
FFFFFFFFFFFFFFFFFFFFFFFFFFFFFFFFFFFFFFFFFFFFFFFFFFFFFFFFFFFFFFFF
310
FFFFFFFFFFFFFFFFFFFFFFFFFFFFFFFFFFFFFFFFFFFFFFFFFFFFFFFFFFFFFFFF
310
FFFFFFFFFFFFFFFFFFFFFFFFFFFFFFFFF000FFFFFFFFFFFFFFFFFFFFFFFFFFFF
310
FFFFFFFFFFFFFFFFFFFFFFFFFFFFFFFFFFFFFFFFFFFFFFFFFFFFFFFFFFFFFFFF
310
FFFFFFFFFFFFFFFFFFFFFFFFFFFFFFFFFFFFFFFFFFFFFFFFFFFFFFFFFFFFFFFF
310
FFFFFFFFFFFFFFFFF000FFFFFFFFFFFFFFFFFFFFFFFFFFFFFFFFFFFFFFFFFFFF
310
FFFFFFFFFFFFFFFFFFFFFFFFFFFFFFFFFFFFFFFFFFFFFFFFFFFFFFFFFFFFFFFF
310
FFFFFFFFFFFFFFFFFFFFFFFFFFFFFFFFFFFFFFFFFFFFFFFFFFFFFFFFFFFFFFFF
310
F000FFFFFFFFFFFFFFFFFFFFFFFFFFFFFFFFFFFFFFFFFFFFFFFFFFFFFFFFFFFF
310
FFFFFFFFFFFFFFFFFFFFFFFFFFFFFFFFFFFFFFFFFFFFFFFFFFFFFFFFFFFFFFFF
310
FFFFFFFFFFFFFFFFFFFFFFFFFFFFFFFFFFFFFFFFFFFFFFFFF000FFFFFFFFFFFF
310
FFFFFFFFFFFFFFFFFFFFFFFFFFFFFFFFFFFFFFFFFFFFFFFFFFFFFFFFFFFFFFFF
310
FFFFFFFFFFFFFFFFFFFFFFFFFFFFFFFFFFFFFFFFFFFFFFFFFFFFFFFFFFFFFFFF
310
FFFFFFFFFFFFFFFFFFFFFFFFFFFFFFFFF0000000000000000000000000000000
310
0000000000000000000000000000000000000000000000000000000000000000
310
0000000000000000000000000000000000000000000000000000000000000000
310
0000000000000000000000000000000000000000000000000000000000000000
310
0000000000000000000000000000000000000000000000000000000000000000
310
0000000000000000000000000000000000000000000000000000000000000000
310
0000000000000000000000000000000000000000000000000000000000000000
310
0000000000000000000000000000000000000000000000000000000000000000
310
0000000000000000000000000000000000000000000000000000000000000000
310
0000000000000000000000000000000000000000000000000000000000000000
310
0000000000000000000000000000000000000000000000000000000000000000
310
0000000000000000000000000000000000000000000000000000000000000000
310
0000000000000000000000000000000000000000000000000000000000000000
310
0000000000000000000000000000000000000000000000000000000000000000
310
0000000000000000000000000000000000000000000000000000000000000000
310
0000000000000000000000000000000000000000000000000000000000000000
  1
OLE
  0
ENDSEC
  0
SECTION
  2
OBJECTS
  0
DICTIONARY
  5
C
330
0
100
AcDbDictionary
281
     1
  3
ACAD_GROUP
350
D
  3
ACAD_LAYOUT
350
1A
  3
ACAD_MLINESTYLE
350
17
  3
ACAD_PLOTSETTINGS
350
19
  3
ACAD_PLOTSTYLENAME
350
E
  0
DICTIONARY
  5
D
102
{ACAD_REACTORS
330
C
102
}
330
C
100
AcDbDictionary
281
     1
  0
DICTIONARY
  5
1A
102
{ACAD_REACTORS
330
C
102
}
330
C
100
AcDbDictionary
281
     1
  3
Layout1
350
1E
  3
Layout2
350
26
  3
Model
350
22
  0
DICTIONARY
  5
17
102
{ACAD_REACTORS
330
C
102
}
330
C
100
AcDbDictionary
281
     1
  3
Standard
350
18
  0
DICTIONARY
  5
19
102
{ACAD_REACTORS
330
C
102
}
330
C
100
AcDbDictionary
281
     1
  0
ACDBDICTIONARYWDFLT
  5
E
102
{ACAD_REACTORS
330
C
102
}
330
C
100
AcDbDictionary
281
     1
  3
Normal
350
F
100
AcDbDictionaryWithDefault
340
F
  0
LAYOUT
  5
1E
102
{ACAD_REACTORS
330
1A
102
}
330
1A
100
AcDbPlotSettings
  1

  2
none_device
  4

  6

 40
0.0
 41
0.0
 42
0.0
 43
0.0
 44
0.0
 45
0.0
 46
0.0
 47
0.0
 48
0.0
 49
0.0
140
0.0
141
0.0
142
1.0
143
1.0
 70
   688
 72
     0
 73
     0
 74
     5
  7

 75
    16
147
1.0
148
0.0
149
0.0
100
AcDbLayout
  1
Layout1
 70
     1
 71
     1
 10
0.0
 20
0.0
 11
420.0
 21
297.0
 12
0.0
 22
0.0
 32
0.0
 14
1.0000000000E+20
 24
1.0000000000E+20
 34
1.0000000000E+20
 15
-1.0000000000E+20
 25
-1.0000000000E+20
 35
-1.0000000000E+20
146
0.0
 13
0.0
 23
0.0
 33
0.0
 16
1.0
 26
0.0
 36
0.0
 17
0.0
 27
1.0
 37
0.0
 76
     0
330
1B
  0
LAYOUT
  5
26
102
{ACAD_REACTORS
330
1A
102
}
330
1A
100
AcDbPlotSettings
  1

  2
none_device
  4

  6

 40
0.0
 41
0.0
 42
0.0
 43
0.0
 44
0.0
 45
0.0
 46
0.0
 47
0.0
 48
0.0
 49
0.0
140
0.0
141
0.0
142
1.0
143
1.0
 70
   688
 72
     0
 73
     0
 74
     5
  7

 75
    16
147
1.0
148
0.0
149
0.0
100
AcDbLayout
  1
Layout2
 70
     1
 71
     2
 10
0.0
 20
0.0
 11
0.0
 21
0.0
 12
0.0
 22
0.0
 32
0.0
 14
0.0
 24
0.0
 34
0.0
 15
0.0
 25
0.0
 35
0.0
146
0.0
 13
0.0
 23
0.0
 33
0.0
 16
1.0
 26
0.0
 36
0.0
 17
0.0
 27
1.0
 37
0.0
 76
     0
330
23
  0
LAYOUT
  5
22
102
{ACAD_REACTORS
330
1A
102
}
330
1A
100
AcDbPlotSettings
  1

  2
none_device
  4

  6

 40
0.0
 41
0.0
 42
0.0
 43
0.0
 44
0.0
 45
0.0
 46
0.0
 47
0.0
 48
0.0
 49
0.0
140
0.0
141
0.0
142
1.0
143
1.0
 70
  1712
 72
     0
 73
     0
 74
     0
  7

 75
     0
147
1.0
148
0.0
149
0.0
100
AcDbLayout
  1
Model
 70
     1
 71
     0
 10
0.0
 20
0.0
 11
297.0
 21
210.0
 12
0.0
 22
0.0
 32
0.0
 14
0.0
 24
0.0
 34
0.0
 15
297.0
 25
210.0
 35
0.0
146
0.0
 13
0.0
 23
0.0
 33
0.0
 16
1.0
 26
0.0
 36
0.0
 17
0.0
 27
1.0
 37
0.0
 76
     0
330
1F
331
29
  0
MLINESTYLE
  5
18
102
{ACAD_REACTORS
330
17
102
}
330
17
100
AcDbMlineStyle
  2
Standard
 70
     0
  3

 62
   256
 51
90.0
 52
90.0
 71
     2
 49
0.5
 62
   256
  6
BYLAYER
 49
-0.5
 62
   256
  6
BYLAYER
  0
ACDBPLACEHOLDER
  5
F
102
{ACAD_REACTORS
330
E
102
}
330
E
  0
ENDSEC
  0
EOF
