  0
SECTION
  2
HEADER
  9
$ACADVER
  1
AC1015
  9
$ACADMAINTVER
 70
     6
  9
$DWGCODEPAGE
  3
ANSI_1252
  9
$INSBASE
 10
0.0
 20
0.0
 30
0.0
  9
$EXTMIN
 10
0.0
 20
0.0
 30
0.0
  9
$EXTMAX
 10
297.0
 20
210.0
 30
0.0
  9
$LIMMIN
 10
0.0
 20
0.0
  9
$LIMMAX
 10
297.0
 20
210.0
  9
$ORTHOMODE
 70
     0
  9
$REGENMODE
 70
     1
  9
$FILLMODE
 70
     1
  9
$QTEXTMODE
 70
     0
  9
$MIRRTEXT
 70
     1
  9
$LTSCALE
 40
1.0
  9
$ATTMODE
 70
     1
  9
$TEXTSIZE
 40
2.0
  9
$TRACEWID
 40
1.0
  9
$TEXTSTYLE
  7
Standard
  9
$CLAYER
  8
0
  9
$CELTYPE
  6
ByLayer
  9
$CECOLOR
 62
   256
  9
$CELTSCALE
 40
1.0
  9
$DISPSILH
 70
     0
  9
$DIMSCALE
 40
1.0
  9
$DIMASZ
 40
3.0
  9
$DIMEXO
 40
0.0
  9
$DIMDLI
 40
3.75
  9
$DIMRND
 40
0.0
  9
$DIMDLE
 40
0.0
  9
$DIMEXE
 40
1.0
  9
$DIMTP
 40
0.0
  9
$DIMTM
 40
0.0
  9
$DIMTXT
 40
2.0
  9
$DIMCEN
 40
2.5
  9
$DIMTSZ
 40
0.0
  9
$DIMTOL
 70
     0
  9
$DIMLIM
 70
     0
  9
$DIMTIH
 70
     1
  9
$DIMTOH
 70
     1
  9
$DIMSE1
 70
     0
  9
$DIMSE2
 70
     0
  9
$DIMTAD
 70
     1
  9
$DIMZIN
 70
     0
  9
$DIMBLK
  1

  9
$DIMASO
 70
     1
  9
$DIMSHO
 70
     1
  9
$DIMPOST
  1

  9
$DIMAPOST
  1

  9
$DIMALT
 70
     0
  9
$DIMALTD
 70
     3
  9
$DIMALTF
 40
0.0393700787
  9
$DIMLFAC
 40
1.0
  9
$DIMTOFL
 70
     1
  9
$DIMTVP
 40
0.0
  9
$DIMTIX
 70
     0
  9
$DIMSOXD
 70
     0
  9
$DIMSAH
 70
     0
  9
$DIMBLK1
  1

  9
$DIMBLK2
  1

  9
$DIMSTYLE
  2
ISO-25
  9
$DIMCLRD
 70
     0
  9
$DIMCLRE
 70
     0
  9
$DIMCLRT
 70
     0
  9
$DIMTFAC
 40
1.0
  9
$DIMGAP
 40
1.524
  9
$DIMJUST
 70
     0
  9
$DIMSD1
 70
     0
  9
$DIMSD2
 70
     0
  9
$DIMTOLJ
 70
     0
  9
$DIMTZIN
 70
     0
  9
$DIMALTZ
 70
     0
  9
$DIMALTTZ
 70
     0
  9
$DIMUPT
 70
     0
  9
$DIMDEC
 70
     2
  9
$DIMTDEC
 70
     3
  9
$DIMALTU
 70
     2
  9
$DIMALTTD
 70
     3
  9
$DIMTXSTY
  7
Standard
  9
$DIMAUNIT
 70
     0
  9
$DIMADEC
 70
     2
  9
$DIMALTRND
 40
0.0
  9
$DIMAZIN
 70
     0
  9
$DIMDSEP
 70
    44
  9
$DIMATFIT
 70
     3
  9
$DIMFRAC
 70
     0
  9
$DIMLDRBLK
  1

  9
$DIMLUNIT
 70
     2
  9
$DIMLWD
 70
    -2
  9
$DIMLWE
 70
    -2
  9
$DIMTMOVE
 70
     0
  9
$LUNITS
 70
     2
  9
$LUPREC
 70
     2
  9
$SKETCHINC
 40
1.0
  9
$FILLETRAD
 40
10.0
  9
$AUNITS
 70
     0
  9
$AUPREC
 70
     2
  9
$MENU
  1
.
  9
$ELEVATION
 40
0.0
  9
$PELEVATION
 40
0.0
  9
$THICKNESS
 40
0.0
  9
$LIMCHECK
 70
     0
  9
$CHAMFERA
 40
10.0
  9
$CHAMFERB
 40
10.0
  9
$CHAMFERC
 40
20.0
  9
$CHAMFERD
 40
0.0
  9
$SKPOLY
 70
     0
  9
$TDCREATE
 40
2456085.369900949
  9
$TDUCREATE
 40
2456085.286567616
  9
$TDUPDATE
 40
2456085.369902581
  9
$TDUUPDATE
 40
2456085.286569247
  9
$TDINDWG
 40
0.0000000116
  9
$TDUSRTIMER
 40
0.0000000116
  9
$USRTIMER
 70
     1
  9
$ANGBASE
 50
0.0
  9
$ANGDIR
 70
     0
  9
$PDMODE
 70
     0
  9
$PDSIZE
 40
-1.0
  9
$PLINEWID
 40
0.0
  9
$SPLFRAME
 70
     0
  9
$SPLINETYPE
 70
     6
  9
$SPLINESEGS
 70
     8
  9
$HANDSEED
  5
281
  9
$SURFTAB1
 70
     6
  9
$SURFTAB2
 70
     6
  9
$SURFTYPE
 70
     6
  9
$SURFU
 70
     6
  9
$SURFV
 70
     6
  9
$UCSBASE
  2

  9
$UCSNAME
  2

  9
$UCSORG
 10
0.0
 20
0.0
 30
0.0
  9
$UCSXDIR
 10
1.0
 20
0.0
 30
0.0
  9
$UCSYDIR
 10
0.0
 20
1.0
 30
0.0
  9
$UCSORTHOREF
  2

  9
$UCSORTHOVIEW
 70
     0
  9
$UCSORGTOP
 10
0.0
 20
0.0
 30
0.0
  9
$UCSORGBOTTOM
 10
0.0
 20
0.0
 30
0.0
  9
$UCSORGLEFT
 10
0.0
 20
0.0
 30
0.0
  9
$UCSORGRIGHT
 10
0.0
 20
0.0
 30
0.0
  9
$UCSORGFRONT
 10
0.0
 20
0.0
 30
0.0
  9
$UCSORGBACK
 10
0.0
 20
0.0
 30
0.0
  9
$PUCSBASE
  2

  9
$PUCSNAME
  2

  9
$PUCSORG
 10
0.0
 20
0.0
 30
0.0
  9
$PUCSXDIR
 10
1.0
 20
0.0
 30
0.0
  9
$PUCSYDIR
 10
0.0
 20
1.0
 30
0.0
  9
$PUCSORTHOREF
  2

  9
$PUCSORTHOVIEW
 70
     0
  9
$PUCSORGTOP
 10
0.0
 20
0.0
 30
0.0
  9
$PUCSORGBOTTOM
 10
0.0
 20
0.0
 30
0.0
  9
$PUCSORGLEFT
 10
0.0
 20
0.0
 30
0.0
  9
$PUCSORGRIGHT
 10
0.0
 20
0.0
 30
0.0
  9
$PUCSORGFRONT
 10
0.0
 20
0.0
 30
0.0
  9
$PUCSORGBACK
 10
0.0
 20
0.0
 30
0.0
  9
$USERI1
 70
     0
  9
$USERI2
 70
     0
  9
$USERI3
 70
     0
  9
$USERI4
 70
     0
  9
$USERI5
 70
     0
  9
$USERR1
 40
0.0
  9
$USERR2
 40
0.0
  9
$USERR3
 40
0.0
  9
$USERR4
 40
0.0
  9
$USERR5
 40
0.0
  9
$WORLDVIEW
 70
     1
  9
$SHADEDGE
 70
     3
  9
$SHADEDIF
 70
    70
  9
$TILEMODE
 70
     1
  9
$MAXACTVP
 70
    64
  9
$PINSBASE
 10
0.0
 20
0.0
 30
0.0
  9
$PLIMCHECK
 70
     0
  9
$PEXTMIN
 10
1.0000000000E+20
 20
1.0000000000E+20
 30
1.0000000000E+20
  9
$PEXTMAX
 10
-1.0000000000E+20
 20
-1.0000000000E+20
 30
-1.0000000000E+20
  9
$PLIMMIN
 10
0.0
 20
0.0
  9
$PLIMMAX
 10
420.0
 20
297.0
  9
$UNITMODE
 70
     0
  9
$VISRETAIN
 70
     1
  9
$PLINEGEN
 70
     0
  9
$PSLTSCALE
 70
     1
  9
$TREEDEPTH
 70
  3020
  9
$CMLSTYLE
  2
Standard
  9
$CMLJUST
 70
     0
  9
$CMLSCALE
 40
20.0
  9
$PROXYGRAPHICS
 70
     1
  9
$MEASUREMENT
 70
     1
  9
$CELWEIGHT
370
    -1
  9
$ENDCAPS
280
     0
  9
$JOINSTYLE
280
     0
  9
$LWDISPLAY
290
     1
  9
$INSUNITS
 70
     4
  9
$HYPERLINKBASE
  1

  9
$STYLESHEET
  1

  9
$XEDIT
290
     1
  9
$CEPSNTYPE
380
     0
  9
$PSTYLEMODE
290
     1
  9
$FINGERPRINTGUID
  2
{4A3A3F3B-A962-4661-8F8E-50E5FD272F24}
  9
$VERSIONGUID
  2
{FAEB1C32-E019-11D5-929B-00C0DF256EC4}
  9
$EXTNAMES
290
     1
  9
$PSVPSCALE
 40
0.0
  9
$OLESTARTUP
290
     0
  0
ENDSEC
  0
SECTION
  2
CLASSES
  0
CLASS
  1
ACDBDICTIONARYWDFLT
  2
AcDbDictionaryWithDefault
  3
ObjectDBX Classes
 90
        0
280
     0
281
     0
  0
CLASS
  1
VISUALSTYLE
  2
AcDbVisualStyle
  3
ObjectDBX Classes
 90
     4095
280
     0
281
     0
  0
CLASS
  1
MATERIAL
  2
AcDbMaterial
  3
ObjectDBX Classes
 90
     1153
280
     0
281
     0
  0
CLASS
  1
ACDBPLACEHOLDER
  2
AcDbPlaceHolder
  3
ObjectDBX Classes
 90
        0
280
     0
281
     0
  0
CLASS
  1
LAYOUT
  2
AcDbLayout
  3
ObjectDBX Classes
 90
        0
280
     0
281
     0
  0
ENDSEC
  0
SECTION
  2
TABLES
  0
TABLE
  2
VPORT
  5
8
330
0
100
AcDbSymbolTable
 70
     1
  0
VPORT
  5
29
330
8
100
AcDbSymbolTableRecord
100
AcDbViewportTableRecord
  2
*Active
 70
     0
 10
0.0
 20
0.0
 11
1.0
 21
1.0
 12
148.5
 22
105.0
 13
0.0
 23
0.0
 14
10.0
 24
10.0
 15
10.0
 25
10.0
 16
0.0
 26
0.0
 36
1.0
 17
0.0
 27
0.0
 37
0.0
 40
210.0
 41
1.4142857143
 42
50.0
 43
0.0
 44
0.0
 50
0.0
 51
0.0
 71
     0
 72
  2000
 73
     1
 74
     3
 75
     0
 76
     0
 77
     0
 78
     0
281
     0
 65
     1
110
0.0
120
0.0
130
0.0
111
1.0
121
0.0
131
0.0
112
0.0
122
1.0
132
0.0
 79
     0
146
0.0
  0
ENDTAB
  0
TABLE
  2
LTYPE
  5
5
330
0
100
AcDbSymbolTable
 70
     6
  0
LTYPE
  5
14
330
5
100
AcDbSymbolTableRecord
100
AcDbLinetypeTableRecord
  2
ByBlock
 70
     0
  3

 72
    65
 73
     0
 40
0.0
  0
LTYPE
  5
15
330
5
100
AcDbSymbolTableRecord
100
AcDbLinetypeTableRecord
  2
ByLayer
 70
     0
  3

 72
    65
 73
     0
 40
0.0
  0
LTYPE
  5
16
330
5
100
AcDbSymbolTableRecord
100
AcDbLinetypeTableRecord
  2
Continuous
 70
     0
  3
Solid line
 72
    65
 73
     0
 40
0.0
  0
LTYPE
  5
3F
330
5
100
AcDbSymbolTableRecord
100
AcDbLinetypeTableRecord
  2
HIDDEN
 70
     0
  3
Hidden __ __ __ __ __ __ __ __ __ __ __ __ __ __
 72
    65
 73
     2
 40
1.905
 49
1.27
 74
     0
 49
-0.635
 74
     0
  0
LTYPE
  5
40
330
5
100
AcDbSymbolTableRecord
100
AcDbLinetypeTableRecord
  2
PHANTOM
 70
     0
  3
Phantom ______  __  __  ______  __  __  ______
 72
    65
 73
     6
 40
12.7
 49
6.35
 74
     0
 49
-1.27
 74
     0
 49
1.27
 74
     0
 49
-1.27
 74
     0
 49
1.27
 74
     0
 49
-1.27
 74
     0
  0
LTYPE
  5
41
330
5
100
AcDbSymbolTableRecord
100
AcDbLinetypeTableRecord
  2
CENTER
 70
     0
  3
Center ____ _ ____ _ ____ _ ____ _ ____ _ ____
 72
    65
 73
     4
 40
10.16
 49
6.35
 74
     0
 49
-1.27
 74
     0
 49
1.27
 74
     0
 49
-1.27
 74
     0
  0
LTYPE
  5
42
330
5
100
AcDbSymbolTableRecord
100
AcDbLinetypeTableRecord
  2
CENTERX2
 70
     0
  3
Center (2x) ________  __  ________  __  _____
 72
    65
 73
     4
 40
20.32
 49
12.7
 74
     0
 49
-2.54
 74
     0
 49
2.54
 74
     0
 49
-2.54
 74
     0
  0
LTYPE
  5
43
330
5
100
AcDbSymbolTableRecord
100
AcDbLinetypeTableRecord
  2
DOT2
 70
     0
  3
Dot (.5x) ........................................
 72
    65
 73
     2
 40
0.635
 49
0.0
 74
     0
 49
-0.635
 74
     0
  0
ENDTAB
  0
TABLE
  2
LAYER
  5
2
330
0
100
AcDbSymbolTable
 70
     5
  0
LAYER
  5
10
330
2
100
AcDbSymbolTableRecord
100
AcDbLayerTableRecord
  2
0
 70
     0
 62
     7
  6
Continuous
370
    -3
390
F
  0
LAYER
  5
44
330
2
100
AcDbSymbolTableRecord
100
AcDbLayerTableRecord
  2
FORMAT
 70
     0
 62
     7
  6
Continuous
370
    -3
390
F
  0
LAYER
  5
45
330
2
100
AcDbSymbolTableRecord
100
AcDbLayerTableRecord
  2
VERMASSUNG
 70
     0
 62
     7
  6
Continuous
370
    -3
390
F
  0
LAYER
  5
46
330
2
100
AcDbSymbolTableRecord
100
AcDbLayerTableRecord
  2
KOPF_DÜNN
 70
     0
 62
     7
  6
Continuous
370
    -3
390
F
  0
LAYER
  5
47
330
2
100
AcDbSymbolTableRecord
100
AcDbLayerTableRecord
  2
KOPF_DICK
 70
     0
 62
     7
  6
Continuous
370
    15
390
F
  0
ENDTAB
  0
TABLE
  2
STYLE
  5
3
330
0
100
AcDbSymbolTable
 70
     2
  0
STYLE
  5
11
330
3
100
AcDbSymbolTableRecord
100
AcDbTextStyleTableRecord
  2
Standard
 70
     0
 40
0.0
 41
1.0
 50
0.0
 71
     0
 42
2.0
  3
txt
  4

  0
STYLE
  5
48
330
3
100
AcDbSymbolTableRecord
100
AcDbTextStyleTableRecord
  2
SLDTEXTSTYLE0
 70
     0
 40
0.0
 41
0.7
 50
0.0
 71
     0
 42
0.2
  3
TXT
  4

  0
ENDTAB
  0
TABLE
  2
VIEW
  5
6
330
0
100
AcDbSymbolTable
 70
     0
  0
ENDTAB
  0
TABLE
  2
UCS
  5
7
330
0
100
AcDbSymbolTable
 70
     0
  0
ENDTAB
  0
TABLE
  2
APPID
  5
9
330
0
100
AcDbSymbolTable
 70
     1
  0
APPID
  5
12
330
9
100
AcDbSymbolTableRecord
100
AcDbRegAppTableRecord
  2
ACAD
 70
     0
  0
ENDTAB
  0
TABLE
  2
DIMSTYLE
  5
A
330
0
100
AcDbSymbolTable
 70
     5
100
AcDbDimStyleTable
  0
DIMSTYLE
105
27
330
A
100
AcDbSymbolTableRecord
100
AcDbDimStyleTableRecord
  2
ISO-25
 70
     0
 41
2.5
 42
0.625
 43
3.75
 44
1.25
 73
     0
 74
     0
 77
     1
 78
     8
140
2.5
141
2.5
143
0.0393700787
147
0.625
171
     3
172
     1
178
     0
271
     2
272
     2
274
     3
278
    44
283
     0
284
     8
340
11
  0
DIMSTYLE
105
1C5
102
{ACAD_REACTORS
330
1C4
102
}
330
A
100
AcDbSymbolTableRecord
100
AcDbDimStyleTableRecord
  2
SLDDIMSTYLE0
 70
     0
 41
3.0
 44
0.0
 73
     0
 74
     0
 77
     1
 78
    12
 79
     3
140
2.0
147
0.5
173
     1
178
     0
179
     1
272
     3
276
     2
284
    12
340
48
  0
DIMSTYLE
105
1CE
102
{ACAD_REACTORS
330
1CD
330
1D8
330
1E2
330
1EC
330
1F8
102
}
330
A
100
AcDbSymbolTableRecord
100
AcDbDimStyleTableRecord
  2
SLDDIMSTYLE1
 70
     0
 41
3.0
 44
0.0
 45
0.000000001
 73
     0
 74
     0
 77
     1
 78
    12
 79
     3
140
2.0
147
0.5
173
     1
178
     0
271
     2
272
     3
276
     2
284
    12
340
48
  0
DIMSTYLE
105
259
102
{ACAD_REACTORS
330
258
102
}
330
A
100
AcDbSymbolTableRecord
100
AcDbDimStyleTableRecord
  2
SLDDIMSTYLE2
 70
     0
 41
3.0
 44
0.0
 73
     0
 74
     0
 77
     1
 78
    12
 79
     3
140
2.0
147
0.5
173
     1
178
     0
179
     2
272
     3
276
     2
284
    12
340
48
  0
DIMSTYLE
105
266
102
{ACAD_REACTORS
330
265
102
}
330
A
100
AcDbSymbolTableRecord
100
AcDbDimStyleTableRecord
  2
SLDDIMSTYLE3
 70
     0
 41
3.0
 44
0.0
 45
0.000000001
 73
     0
 74
     0
 77
     1
 78
    12
 79
     3
140
2.0
147
0.5
172
     1
173
     1
178
     0
271
     2
272
     3
276
     2
284
    12
289
     0
340
48
  0
ENDTAB
  0
TABLE
  2
BLOCK_RECORD
  5
1
330
0
100
AcDbSymbolTable
 70
    10
  0
BLOCK_RECORD
  5
1F
330
1
100
AcDbSymbolTableRecord
100
AcDbBlockTableRecord
  2
*Model_Space
340
22
  0
BLOCK_RECORD
  5
1B
330
1
100
AcDbSymbolTableRecord
100
AcDbBlockTableRecord
  2
*Paper_Space
340
1E
  0
BLOCK_RECORD
  5
23
330
1
100
AcDbSymbolTableRecord
100
AcDbBlockTableRecord
  2
*Paper_Space0
340
26
  0
BLOCK_RECORD
  5
1C6
330
1
100
AcDbSymbolTableRecord
100
AcDbBlockTableRecord
  2
_D
340
0
  0
BLOCK_RECORD
  5
1CF
330
1
100
AcDbSymbolTableRecord
100
AcDbBlockTableRecord
  2
_D_1
340
0
  0
BLOCK_RECORD
  5
1D9
330
1
100
AcDbSymbolTableRecord
100
AcDbBlockTableRecord
  2
_D_2
340
0
  0
BLOCK_RECORD
  5
1E3
330
1
100
AcDbSymbolTableRecord
100
AcDbBlockTableRecord
  2
_D_3
340
0
  0
BLOCK_RECORD
  5
1ED
330
1
100
AcDbSymbolTableRecord
100
AcDbBlockTableRecord
  2
_D_4
340
0
  0
BLOCK_RECORD
  5
1F9
330
1
100
AcDbSymbolTableRecord
100
AcDbBlockTableRecord
  2
_D_5
340
0
  0
BLOCK_RECORD
  5
25A
330
1
100
AcDbSymbolTableRecord
100
AcDbBlockTableRecord
  2
_D_6
340
0
  0
BLOCK_RECORD
  5
267
330
1
100
AcDbSymbolTableRecord
100
AcDbBlockTableRecord
  2
_D_7
340
0
  0
BLOCK_RECORD
  5
274
330
1
100
AcDbSymbolTableRecord
100
AcDbBlockTableRecord
  2
SW_CENTERMARKSYMBOL_0
340
0
102
{BLKREFS
331
27F
102
}
  0
ENDTAB
  0
ENDSEC
  0
SECTION
  2
BLOCKS
  0
BLOCK
  5
20
330
1F
100
AcDbEntity
  8
0
100
AcDbBlockBegin
  2
*Model_Space
 70
     0
 10
0.0
 20
0.0
 30
0.0
  3
*Model_Space
  1

  0
ENDBLK
  5
21
330
1F
100
AcDbEntity
  8
0
100
AcDbBlockEnd
  0
BLOCK
  5
1C
330
1B
100
AcDbEntity
 67
     1
  8
0
100
AcDbBlockBegin
  2
*Paper_Space
 70
     0
 10
0.0
 20
0.0
 30
0.0
  3
*Paper_Space
  1

  0
ENDBLK
  5
1D
330
1B
100
AcDbEntity
 67
     1
  8
0
100
AcDbBlockEnd
  0
BLOCK
  5
24
330
23
100
AcDbEntity
  8
0
100
AcDbBlockBegin
  2
*Paper_Space0
 70
     0
 10
0.0
 20
0.0
 30
0.0
  3
*Paper_Space0
  1

  0
ENDBLK
  5
25
330
23
100
AcDbEntity
  8
0
100
AcDbBlockEnd
  0
BLOCK
  5
1C7
330
1C6
100
AcDbEntity
  8
0
100
AcDbBlockBegin
  2
_D
 70
     0
 10
0.0
 20
0.0
 30
0.0
  3
_D
  1

  0
ARC
  5
1C9
330
1C6
100
AcDbEntity
  8
VERMASSUNG
100
AcDbCircle
 10
238.3941057075
 20
158.0693965478
 30
0.0
 40
10.8349921553361
100
AcDbArc
 50
264.9722024819
 51
0.0
  0
SOLID
  5
1CA
330
1C6
100
AcDbEntity
  8
VERMASSUNG
100
AcDbTrace
 10
237.4445373477
 20
147.2760942294
 30
0.0
 11
240.46246073
 21
146.9684605858
 31
0.0
 12
240.4199018458
 22
147.8674537678
 32
0.0
 13
240.4199018458
 23
147.8674537678
 33
0.0
  0
SOLID
  5
1CB
330
1C6
100
AcDbEntity
  8
VERMASSUNG
100
AcDbTrace
 10
249.2290978629
 20
158.0693965478
 30
0.0
 11
248.3792555989
 21
155.1573065549
 31
0.0
 12
249.2710599018
 22
155.0361245212
 32
0.0
 13
249.2710599018
 23
155.0361245212
 33
0.0
  0
MTEXT
  5
1CC
330
1C6
100
AcDbEntity
  8
VERMASSUNG
100
AcDbMText
 10
241.8323007928
 20
150.021757156
 30
0.1
 40
2.0
 41
0.0
 71
     1
 72
     1
  1
95°
  7
SLDTEXTSTYLE0
 11
0.7374411991856017
 21
0.6754113396617661
 31
0.0
 73
     1
 44
1.0
  0
ENDBLK
  5
1C8
330
1C6
100
AcDbEntity
  8
0
100
AcDbBlockEnd
  0
BLOCK
  5
1D0
330
1CF
100
AcDbEntity
  8
0
100
AcDbBlockBegin
  2
_D_1
 70
     0
 10
0.0
 20
0.0
 30
0.0
  3
_D_1
  1

  0
SOLID
  5
1D2
330
1CF
100
AcDbEntity
  8
VERMASSUNG
100
AcDbTrace
 10
260.3903774734
 20
131.0693965478
 30
0.0
 11
260.8403774734
 21
134.0693965478
 31
0.0
 12
259.9403774734
 22
134.0693965478
 32
0.0
 13
259.9403774734
 23
134.0693965478
 33
0.0
  0
SOLID
  5
1D3
330
1CF
100
AcDbEntity
  8
VERMASSUNG
100
AcDbTrace
 10
260.3903774734
 20
158.0693965478
 30
0.0
 11
259.9403774734
 21
155.0693965478
 31
0.0
 12
260.8403774734
 22
155.0693965478
 32
0.0
 13
260.8403774734
 23
155.0693965478
 33
0.0
  0
LINE
  5
1D4
330
1CF
100
AcDbEntity
  8
VERMASSUNG
100
AcDbLine
 10
238.357219938
 20
131.0693965478
 30
0.0
 11
261.3903774734
 21
131.0693965478
 31
0.0
  0
LINE
  5
1D5
330
1CF
100
AcDbEntity
  8
VERMASSUNG
100
AcDbLine
 10
238.357219938
 20
158.0693965478
 30
0.0
 11
261.3903774734
 21
158.0693965478
 31
0.0
  0
LINE
  5
1D6
330
1CF
100
AcDbEntity
  8
VERMASSUNG
100
AcDbLine
 10
260.3903774734
 20
131.0693965478
 30
0.0
 11
260.3903774734
 21
158.0693965478
 31
0.0
  0
MTEXT
  5
1D7
330
1CF
100
AcDbEntity
  8
VERMASSUNG
100
AcDbMText
 10
257.8122421103
 20
142.2693964967
 30
0.1
 40
2.0
 41
0.0
 71
     1
 72
     1
  1
27
  7
SLDTEXTSTYLE0
 11
6.123233995736766E-17
 21
1.0
 31
0.0
 73
     1
 44
1.0
  0
ENDBLK
  5
1D1
330
1CF
100
AcDbEntity
  8
0
100
AcDbBlockEnd
  0
BLOCK
  5
1DA
330
1D9
100
AcDbEntity
  8
0
100
AcDbBlockBegin
  2
_D_2
 70
     0
 10
0.0
 20
0.0
 30
0.0
  3
_D_2
  1

  0
SOLID
  5
1DC
330
1D9
100
AcDbEntity
  8
VERMASSUNG
100
AcDbTrace
 10
98.357219938
 20
172.5693965478
 30
0.0
 11
101.357219938
 21
172.1193965478
 31
0.0
 12
101.357219938
 22
173.0193965478
 32
0.0
 13
101.357219938
 23
173.0193965478
 33
0.0
  0
SOLID
  5
1DD
330
1D9
100
AcDbEntity
  8
VERMASSUNG
100
AcDbTrace
 10
238.357219938
 20
172.5693965478
 30
0.0
 11
235.357219938
 21
173.0193965478
 31
0.0
 12
235.357219938
 22
172.1193965478
 32
0.0
 13
235.357219938
 23
172.1193965478
 33
0.0
  0
LINE
  5
1DE
330
1D9
100
AcDbEntity
  8
VERMASSUNG
100
AcDbLine
 10
98.357219938
 20
162.0693965478
 30
0.0
 11
98.357219938
 21
173.5693965478
 31
0.0
  0
LINE
  5
1DF
330
1D9
100
AcDbEntity
  8
VERMASSUNG
100
AcDbLine
 10
238.357219938
 20
158.0693965478
 30
0.0
 11
238.357219938
 21
173.5693965478
 31
0.0
  0
LINE
  5
1E0
330
1D9
100
AcDbEntity
  8
VERMASSUNG
100
AcDbLine
 10
98.357219938
 20
172.5693965478
 30
0.0
 11
238.357219938
 21
172.5693965478
 31
0.0
  0
MTEXT
  5
1E1
330
1D9
100
AcDbEntity
  8
VERMASSUNG
100
AcDbMText
 10
165.4572197421
 20
175.1475319109
 30
0.1
 40
2.0
 41
0.0
 71
     1
 72
     1
  1
140
  7
SLDTEXTSTYLE0
 73
     1
 44
1.0
  0
ENDBLK
  5
1DB
330
1D9
100
AcDbEntity
  8
0
100
AcDbBlockEnd
  0
BLOCK
  5
1E4
330
1E3
100
AcDbEntity
  8
0
100
AcDbBlockBegin
  2
_D_3
 70
     0
 10
0.0
 20
0.0
 30
0.0
  3
_D_3
  1

  0
SOLID
  5
1E6
330
1E3
100
AcDbEntity
  8
VERMASSUNG
100
AcDbTrace
 10
238.357219938
 20
184.5693965478
 30
0.0
 11
235.357219938
 21
185.0193965478
 31
0.0
 12
235.357219938
 22
184.1193965478
 32
0.0
 13
235.357219938
 23
184.1193965478
 33
0.0
  0
SOLID
  5
1E7
330
1E3
100
AcDbEntity
  8
VERMASSUNG
100
AcDbTrace
 10
60.357219938
 20
184.5693965478
 30
0.0
 11
63.357219938
 21
184.1193965478
 31
0.0
 12
63.357219938
 22
185.0193965478
 32
0.0
 13
63.357219938
 23
185.0193965478
 33
0.0
  0
LINE
  5
1E8
330
1E3
100
AcDbEntity
  8
VERMASSUNG
100
AcDbLine
 10
238.357219938
 20
158.0693965478
 30
0.0
 11
238.357219938
 21
185.5693965478
 31
0.0
  0
LINE
  5
1E9
330
1E3
100
AcDbEntity
  8
VERMASSUNG
100
AcDbLine
 10
60.357219938
 20
151.3617345403
 30
0.0
 11
60.357219938
 21
185.5693965478
 31
0.0
  0
LINE
  5
1EA
330
1E3
100
AcDbEntity
  8
VERMASSUNG
100
AcDbLine
 10
238.357219938
 20
184.5693965478
 30
0.0
 11
60.357219938
 21
184.5693965478
 31
0.0
  0
MTEXT
  5
1EB
330
1E3
100
AcDbEntity
  8
VERMASSUNG
100
AcDbMText
 10
146.557219805
 20
187.1475319109
 30
0.1
 40
2.0
 41
0.0
 71
     1
 72
     1
  1
178
  7
SLDTEXTSTYLE0
 73
     1
 44
1.0
  0
ENDBLK
  5
1E5
330
1E3
100
AcDbEntity
  8
0
100
AcDbBlockEnd
  0
BLOCK
  5
1EE
330
1ED
100
AcDbEntity
  8
0
100
AcDbBlockBegin
  2
_D_4
 70
     0
 10
0.0
 20
0.0
 30
0.0
  3
_D_4
  1

  0
SOLID
  5
1F0
330
1ED
100
AcDbEntity
  8
VERMASSUNG
100
AcDbTrace
 10
50.357219938
 20
162.5693965478
 30
0.0
 11
49.907219938
 21
159.5693965478
 31
0.0
 12
50.807219938
 22
159.5693965478
 32
0.0
 13
50.807219938
 23
159.5693965478
 33
0.0
  0
SOLID
  5
1F1
330
1ED
100
AcDbEntity
  8
VERMASSUNG
100
AcDbTrace
 10
50.357219938
 20
99.5693965478
 30
0.0
 11
50.807219938
 21
102.5693965478
 31
0.0
 12
49.907219938
 22
102.5693965478
 32
0.0
 13
49.907219938
 23
102.5693965478
 33
0.0
  0
LINE
  5
1F2
330
1ED
100
AcDbEntity
  8
VERMASSUNG
100
AcDbLine
 10
98.857219938
 20
162.5693965478
 30
0.0
 11
49.357219938
 21
162.5693965478
 31
0.0
  0
LINE
  5
1F3
330
1ED
100
AcDbEntity
  8
VERMASSUNG
100
AcDbLine
 10
98.857219938
 20
99.5693965478
 30
0.0
 11
49.357219938
 21
99.5693965478
 31
0.0
  0
LINE
  5
1F4
330
1ED
100
AcDbEntity
  8
VERMASSUNG
100
AcDbLine
 10
50.357219938
 20
162.5693965478
 30
0.0
 11
50.357219938
 21
99.5693965478
 31
0.0
  0
MTEXT
  5
1F5
330
1ED
100
AcDbEntity
  8
VERMASSUNG
100
AcDbMText
 10
47.579084449
 20
124.6643964385
 30
0.1
 40
2.0
 41
0.0
 71
     1
 72
     1
  1
PSC
  7
SLDTEXTSTYLE0
 11
-7.044195017643634E-15
 21
1.0
 31
0.0
 73
     1
 44
1.0
  0
MTEXT
  5
1F6
330
1ED
100
AcDbEntity
  8
VERMASSUNG
100
AcDbMText
 10
47.7790844585
 20
129.2643965406
 30
0.1
 40
2.0
 41
0.0
 71
     1
 72
     1
  1
%%c
  7
SLDTEXTSTYLE0
 11
-7.044195017643634E-15
 21
1.0
 31
0.0
 73
     1
 44
1.0
  0
MTEXT
  5
1F7
330
1ED
100
AcDbEntity
  8
VERMASSUNG
100
AcDbMText
 10
47.579084449
 20
132.8743970206
 30
0.1
 40
2.0
 41
0.0
 71
     1
 72
     1
  1
63
  7
SLDTEXTSTYLE0
 11
-7.044195017643634E-15
 21
1.0
 31
0.0
 73
     1
 44
1.0
  0
ENDBLK
  5
1EF
330
1ED
100
AcDbEntity
  8
0
100
AcDbBlockEnd
  0
BLOCK
  5
1FA
330
1F9
100
AcDbEntity
  8
0
100
AcDbBlockBegin
  2
_D_5
 70
     0
 10
0.0
 20
0.0
 30
0.0
  3
_D_5
  1

  0
SOLID
  5
1FC
330
1F9
100
AcDbEntity
  8
VERMASSUNG
100
AcDbTrace
 10
142.8402985872
 20
151.0693965478
 30
0.0
 11
142.3902985872
 21
148.0693965478
 31
0.0
 12
143.2902985872
 22
148.0693965478
 32
0.0
 13
143.2902985872
 23
148.0693965478
 33
0.0
  0
SOLID
  5
1FD
330
1F9
100
AcDbEntity
  8
VERMASSUNG
100
AcDbTrace
 10
142.8402985872
 20
111.0693965478
 30
0.0
 11
143.2902985872
 21
114.0693965478
 31
0.0
 12
142.3902985872
 22
114.0693965478
 32
0.0
 13
142.3902985872
 23
114.0693965478
 33
0.0
  0
LINE
  5
1FE
330
1F9
100
AcDbEntity
  8
VERMASSUNG
100
AcDbLine
 10
142.8402985872
 20
151.0693965478
 30
0.0
 11
142.8402985872
 21
111.0693965478
 31
0.0
  0
MTEXT
  5
1FF
330
1F9
100
AcDbEntity
  8
VERMASSUNG
100
AcDbMText
 10
140.2621631077
 20
116.364596216
 30
0.1
 40
2.0
 41
0.0
 71
     1
 72
     1
  1
%%c
  7
SLDTEXTSTYLE0
 11
-7.044195017643634E-15
 21
1.0
 31
0.0
 73
     1
 44
1.0
  0
MTEXT
  5
200
330
1F9
100
AcDbEntity
  8
VERMASSUNG
100
AcDbMText
 10
140.0621630982
 20
119.9745962303
 30
0.1
 40
2.0
 41
0.0
 71
     1
 72
     1
  1
40
  7
SLDTEXTSTYLE0
 11
-7.044195017643634E-15
 21
1.0
 31
0.0
 73
     1
 44
1.0
  0
ENDBLK
  5
1FB
330
1F9
100
AcDbEntity
  8
0
100
AcDbBlockEnd
  0
BLOCK
  5
25B
330
25A
100
AcDbEntity
  8
0
100
AcDbBlockBegin
  2
_D_6
 70
     0
 10
0.0
 20
0.0
 30
0.0
  3
_D_6
  1

  0
ARC
  5
25D
330
25A
100
AcDbEntity
  8
VERMASSUNG
100
AcDbCircle
 10
176.032710762
 20
86.1147748251
 30
0.0
 40
68.30875631039723
100
AcDbArc
 50
262.0
 51
270.0
  0
ARC
  5
25E
330
25A
100
AcDbEntity
  8
VERMASSUNG
100
AcDbCircle
 10
176.032710762
 20
86.1147748251
 30
0.0
 40
68.30875631039723
100
AcDbArc
 50
256.9717847172
 51
262.0
  0
ARC
  5
25F
330
25A
100
AcDbEntity
  8
VERMASSUNG
100
AcDbCircle
 10
176.032710762
 20
86.1147748251
 30
0.0
 40
68.30875631039723
100
AcDbArc
 50
270.0
 51
275.0282152828
  0
SOLID
  5
260
330
25A
100
AcDbEntity
  8
VERMASSUNG
100
AcDbTrace
 10
166.5259693235
 20
18.4707946355
 30
0.0
 11
163.6374333486
 21
19.3975415921
 31
0.0
 12
163.4926509837
 22
18.5092634449
 32
0.0
 13
163.4926509837
 23
18.5092634449
 33
0.0
  0
SOLID
  5
261
330
25A
100
AcDbEntity
  8
VERMASSUNG
100
AcDbTrace
 10
176.032710762
 20
17.8060185147
 30
0.0
 11
179.0418628797
 21
17.4219566288
 31
0.0
 12
179.0221139511
 22
18.3217399248
 32
0.0
 13
179.0221139511
 23
18.3217399248
 33
0.0
  0
LINE
  5
262
330
25A
100
AcDbEntity
  8
VERMASSUNG
100
AcDbLine
 10
167.5795387434
 20
25.9673305864
 30
0.0
 11
166.3867962226
 21
17.4805265667
 31
0.0
  0
LINE
  5
263
330
25A
100
AcDbEntity
  8
VERMASSUNG
100
AcDbLine
 10
176.032710762
 20
25.1567042239
 30
0.0
 11
176.032710762
 21
16.8060185147
 31
0.0
  0
MTEXT
  5
264
330
25A
100
AcDbEntity
  8
VERMASSUNG
100
AcDbMText
 10
169.2529332967
 20
20.6977346245
 30
0.1
 40
2.0
 41
0.0
 71
     1
 72
     1
  1
8°
  7
SLDTEXTSTYLE0
 11
0.9975640502598254
 21
-0.0697564737441088
 31
0.0
 73
     1
 44
1.0
  0
ENDBLK
  5
25C
330
25A
100
AcDbEntity
  8
0
100
AcDbBlockEnd
  0
BLOCK
  5
268
330
267
100
AcDbEntity
  8
0
100
AcDbBlockBegin
  2
_D_7
 70
     0
 10
0.0
 20
0.0
 30
0.0
  3
_D_7
  1

  0
SOLID
  5
26A
330
267
100
AcDbEntity
  8
VERMASSUNG
100
AcDbTrace
 10
195.7198112051
 20
45.7063980078
 30
0.0
 11
197.8049124755
 21
43.5030249818
 31
0.0
 12
198.359614041
 22
44.2117605977
 32
0.0
 13
198.359614041
 23
44.2117605977
 33
0.0
  0
SOLID
  5
26B
330
267
100
AcDbEntity
  8
VERMASSUNG
100
AcDbTrace
 10
156.3456103188
 20
76.5231516423
 30
0.0
 11
154.2605090484
 21
78.7265246684
 31
0.0
 12
153.705807483
 22
78.0177890524
 32
0.0
 13
153.705807483
 23
78.0177890524
 33
0.0
  0
LINE
  5
26C
330
267
100
AcDbEntity
  8
VERMASSUNG
100
AcDbLine
 10
195.7198112051
 20
45.7063980078
 30
0.0
 11
195.1034761324
 21
44.9189139901
 31
0.0
  0
LINE
  5
26D
330
267
100
AcDbEntity
  8
VERMASSUNG
100
AcDbLine
 10
156.3456103188
 20
76.5231516423
 30
0.0
 11
155.7292752461
 21
75.7356676246
 31
0.0
  0
LINE
  5
26E
330
267
100
AcDbEntity
  8
VERMASSUNG
100
AcDbLine
 10
195.7198112051
 20
45.7063980078
 30
0.0
 11
200.4447153114
 21
42.0083875717
 31
0.0
  0
LINE
  5
26F
330
267
100
AcDbEntity
  8
VERMASSUNG
100
AcDbLine
 10
195.7198112051
 20
45.7063980078
 30
0.0
 11
156.3456103188
 21
76.5231516423
 31
0.0
  0
LINE
  5
270
330
267
100
AcDbEntity
  8
VERMASSUNG
100
AcDbLine
 10
156.3456103188
 20
76.5231516423
 30
0.0
 11
140.7213834142
 21
88.751665248
 31
0.0
  0
MTEXT
  5
271
330
267
100
AcDbEntity
  8
VERMASSUNG
100
AcDbMText
 10
142.3103787324
 20
90.7819057337
 30
0.1
 40
2.0
 41
0.0
 71
     1
 72
     1
  1
%%c
  7
SLDTEXTSTYLE0
 11
0.7874840177248287
 21
-0.6163350726901412
 31
0.0
 73
     1
 44
1.0
  0
MTEXT
  5
272
330
267
100
AcDbEntity
  8
VERMASSUNG
100
AcDbMText
 10
145.2764630681
 20
88.7144329235
 30
0.1
 40
2.0
 41
0.0
 71
     1
 72
     1
  1
50
  7
SLDTEXTSTYLE0
 11
0.7874840177248287
 21
-0.6163350726901412
 31
0.0
 73
     1
 44
1.0
  0
MTEXT
  5
273
330
267
100
AcDbEntity
  8
VERMASSUNG
100
AcDbMText
 10
149.8340272677
 20
85.1473933403
 30
0.1
 40
2.0
 41
0.0
 71
     1
 72
     1
  1
min.
  7
SLDTEXTSTYLE0
 11
0.7874840177248287
 21
-0.6163350726901412
 31
0.0
 73
     1
 44
1.0
  0
ENDBLK
  5
269
330
267
100
AcDbEntity
  8
0
100
AcDbBlockEnd
  0
BLOCK
  5
275
330
274
100
AcDbEntity
  8
0
100
AcDbBlockBegin
  2
SW_CENTERMARKSYMBOL_0
 70
     0
 10
0.0
 20
0.0
 30
0.0
  3
SW_CENTERMARKSYMBOL_0
  1

  0
LINE
  5
277
330
274
100
AcDbEntity
  8
VERMASSUNG
 62
     0
100
AcDbLine
 10
0.0
 20
0.0
 30
0.0
 11
0.0
 21
2.5
 31
0.0
  0
LINE
  5
278
330
274
100
AcDbEntity
  8
VERMASSUNG
 62
     0
100
AcDbLine
 10
0.0
 20
0.0
 30
0.0
 11
-2.5
 21
0.0
 31
0.0
  0
LINE
  5
279
330
274
100
AcDbEntity
  8
VERMASSUNG
 62
     0
100
AcDbLine
 10
0.0
 20
0.0
 30
0.0
 11
0.0
 21
-2.5
 31
0.0
  0
LINE
  5
27A
330
274
100
AcDbEntity
  8
VERMASSUNG
 62
     0
100
AcDbLine
 10
0.0
 20
0.0
 30
0.0
 11
2.5
 21
0.0
 31
0.0
  0
LINE
  5
27B
330
274
100
AcDbEntity
  8
VERMASSUNG
 62
     0
100
AcDbLine
 10
0.0
 20
5.0
 30
0.0
 11
0.0
 21
34.0
 31
0.0
  0
LINE
  5
27C
330
274
100
AcDbEntity
  8
VERMASSUNG
 62
     0
100
AcDbLine
 10
-5.0
 20
0.0
 30
0.0
 11
-34.0
 21
0.0
 31
0.0
  0
LINE
  5
27D
330
274
100
AcDbEntity
  8
VERMASSUNG
 62
     0
100
AcDbLine
 10
0.0
 20
-5.0
 30
0.0
 11
0.0
 21
-34.0
 31
0.0
  0
LINE
  5
27E
330
274
100
AcDbEntity
  8
VERMASSUNG
 62
     0
100
AcDbLine
 10
5.0
 20
0.0
 30
0.0
 11
34.0
 21
0.0
 31
0.0
  0
ENDBLK
  5
276
330
274
100
AcDbEntity
  8
0
100
AcDbBlockEnd
  0
ENDSEC
  0
SECTION
  2
ENTITIES
  0
MTEXT
  5
49
330
1F
100
AcDbEntity
  8
KOPF_DÜNN
100
AcDbMText
 10
13.8892156294
 20
23.8442973028
 30
0.0
 40
3.0
 41
0.0
 71
     1
 72
     1
  1
PS6.PCD.RLC.140
  7
SLDTEXTSTYLE0
 73
     1
 44
1.0
  0
MTEXT
  5
4A
330
1F
100
AcDbEntity
  8
VERMASSUNG
100
AcDbMText
 10
13.9329988022
 20
28.8834360957
 30
0.0
 40
3.0
 41
0.0
 71
     1
 72
     1
  1
Bohrstange rechts_Boring bar right
  7
SLDTEXTSTYLE0
 73
     1
 44
1.0
  0
MTEXT
  5
4B
330
1F
100
AcDbEntity
  8
VERMASSUNG
100
AcDbMText
 10
98.8601118557
 20
13.8365368179
 30
0.0
 40
2.0
 41
0.0
 71
     1
 72
     1
  1
Datum: 06.06.2012
  7
SLDTEXTSTYLE0
 73
     1
 44
1.0
  0
MTEXT
  5
4C
330
1F
100
AcDbEntity
  8
VERMASSUNG
100
AcDbMText
 10
13.933048693
 20
18.0482802738
 30
0.0
 40
2.0
 41
0.0
 71
     1
 72
     1
  1
PSC ø63 / Wp.: CN..12 04..
  7
SLDTEXTSTYLE0
 73
     1
 44
1.0
  0
MTEXT
  5
4D
330
1F
100
AcDbEntity
  8
VERMASSUNG
100
AcDbMText
 10
13.9808475933
 20
13.9090973692
 30
0.0
 40
2.0
 41
0.0
 71
     1
 72
     1
  1
Gewicht: 1732g
  7
SLDTEXTSTYLE0
 73
     1
 44
1.0
  0
LINE
  5
4E
330
1F
100
AcDbEntity
  8
0
  6
Continuous
 62
     7
370
    15
100
AcDbLine
 10
236.7336794174
 20
144.8682247845
 30
0.0
 11
237.2312291896
 21
145.5270591376
 31
0.0
  0
LINE
  5
4F
330
1F
100
AcDbEntity
  8
0
  6
Continuous
 62
     7
370
    15
100
AcDbLine
 10
225.668553952
 20
157.0465219391
 30
0.0
 11
225.280393604
 21
156.5325436366
 31
0.0
  0
LINE
  5
50
330
1F
100
AcDbEntity
  8
0
  6
Continuous
 62
     7
370
    15
100
AcDbLine
 10
229.5127853191
 20
152.1256313843
 30
0.0
 11
228.8887097871
 21
151.4785167945
 31
0.0
  0
ARC
  5
51
330
1F
100
AcDbEntity
  8
0
  6
Continuous
 62
     7
370
    15
100
AcDbCircle
 10
119.357219938
 20
100.5693965478
 30
0.0
 40
1.000000000000014
100
AcDbArc
 50
270.0
 51
0.0
  0
ARC
  5
52
330
1F
100
AcDbEntity
  8
0
  6
Continuous
 62
     7
370
    15
100
AcDbCircle
 10
119.357219938
 20
161.5693965478
 30
0.0
 40
1.0
100
AcDbArc
 50
0.0
 51
90.0
  0
LINE
  5
53
330
1F
100
AcDbEntity
  8
0
  6
Continuous
 62
     7
370
    15
100
AcDbLine
 10
98.8572199618
 20
99.5693960411
 30
0.0
 11
119.3572196549
 21
99.5693960411
 31
0.0
  0
LINE
  5
54
330
1F
100
AcDbEntity
  8
0
  6
Continuous
 62
     7
370
    15
100
AcDbLine
 10
119.3572196549
 20
162.5693970544
 30
0.0
 11
98.8572199618
 21
162.5693970544
 31
0.0
  0
ARC
  5
55
330
1F
100
AcDbEntity
  8
0
  6
Continuous
 62
     7
370
    15
100
AcDbCircle
 10
98.857219938
 20
100.0693965478
 30
0.0
 40
0.5
100
AcDbArc
 50
180.0
 51
270.0
  0
ARC
  5
56
330
1F
100
AcDbEntity
  8
0
  6
Continuous
 62
     7
370
    15
100
AcDbCircle
 10
98.857219938
 20
162.0693965478
 30
0.0
 40
0.5
100
AcDbArc
 50
90.0
 51
180.0
  0
LWPOLYLINE
  5
57
330
1F
100
AcDbEntity
  8
0
  6
Continuous
 62
     7
370
    15
100
AcDbPolyline
 90
        3
 70
   128
 43
0.0
 10
98.1572199431
 20
108.5295760257
 10
98.2826748783
 20
108.4612746907
 10
98.357219938
 20
108.408535756
  0
LWPOLYLINE
  5
58
330
1F
100
AcDbEntity
  8
0
  6
Continuous
 62
     7
370
    15
100
AcDbPolyline
 90
        3
 70
   128
 43
0.0
 10
98.357219938
 20
153.7302573396
 10
98.2826748783
 20
153.6775184048
 10
98.1572199431
 20
153.6092170698
  0
ARC
  5
59
330
1F
100
AcDbEntity
  8
0
  6
Continuous
 62
     7
370
    15
100
AcDbCircle
 10
124.357219938
 20
107.0693965478
 30
0.0
 40
4.0
100
AcDbArc
 50
90.0
 51
180.0
  0
ARC
  5
5A
330
1F
100
AcDbEntity
  8
0
  6
Continuous
 62
     7
370
    15
100
AcDbCircle
 10
124.357219938
 20
155.0693965478
 30
0.0
 40
4.0
100
AcDbArc
 50
180.0
 51
270.0
  0
LINE
  5
5B
330
1F
100
AcDbEntity
  8
0
  6
Continuous
 62
     7
370
    15
100
AcDbLine
 10
124.3572204745
 20
111.0693969948
 30
0.0
 11
212.3572199976
 21
111.0693969948
 31
0.0
  0
LINE
  5
5C
330
1F
100
AcDbEntity
  8
0
  6
Continuous
 62
     7
370
    15
100
AcDbLine
 10
212.3572199976
 20
151.0693961007
 30
0.0
 11
124.3572204745
 21
151.0693961007
 31
0.0
  0
LINE
  5
5D
330
1F
100
AcDbEntity
  8
0
  6
Continuous
 62
     7
370
    15
100
AcDbLine
 10
212.8572210109
 20
110.5693959815
 30
0.0
 11
217.2179713285
 21
110.5693959815
 31
0.0
  0
LINE
  5
5E
330
1F
100
AcDbEntity
  8
0
  6
Continuous
 62
     7
370
    15
100
AcDbLine
 10
216.8327092564
 20
155.5448853595
 30
0.0
 11
212.3572199976
 21
151.0693961007
 31
0.0
  0
LINE
  5
5F
330
1F
100
AcDbEntity
  8
0
  6
Continuous
 62
     7
370
    15
100
AcDbLine
 10
212.3572199976
 20
111.0693969948
 30
0.0
 11
212.8572210109
 21
110.5693959815
 31
0.0
  0
LINE
  5
60
330
1F
100
AcDbEntity
  8
0
  6
Continuous
 62
     7
370
    15
100
AcDbLine
 10
219.4741561449
 20
155.9317772461
 30
0.0
 11
217.0452221668
 21
155.6764868272
 31
0.0
  0
LWPOLYLINE
  5
61
330
1F
100
AcDbEntity
  8
0
  6
Continuous
 62
     7
370
    15
100
AcDbPolyline
 90
        3
 70
   128
 43
0.0
 10
229.0769859588
 20
152.2935376687
 10
229.3602719343
 20
152.4093085153
 10
230.0920381582
 20
152.5553287191
  0
LINE
  5
62
330
1F
100
AcDbEntity
  8
0
  6
Continuous
 62
     7
370
    15
100
AcDbLine
 10
233.0783500707
 20
149.4824038071
 30
0.0
 11
233.0485924518
 21
149.2650387061
 31
0.0
  0
CIRCLE
  5
63
330
1F
100
AcDbEntity
  8
0
  6
Continuous
 62
     7
370
    15
100
AcDbCircle
 10
226.9708200816
 20
139.3447374665
 30
0.0
 40
3.476729373667159
  0
CIRCLE
  5
64
330
1F
100
AcDbEntity
  8
0
  6
Continuous
 62
     7
370
    15
100
AcDbCircle
 10
226.9919425908
 20
139.3517005642
 30
0.0
 40
1.984224463590084
  0
SPLINE
  5
65
330
1F
100
AcDbEntity
  8
0
  6
Continuous
 62
     7
370
    15
100
AcDbSpline
210
0.0
220
0.0
230
1.0
 70
     8
 71
     3
 72
    11
 73
     7
 74
     0
 42
0.00000001
 43
0.00000001
 12
1.0
 22
0.0
 32
0.0
 13
1.0
 23
0.0
 33
0.0
 40
0.0
 40
0.0
 40
0.0
 40
0.0
 40
0.1081067367768227
 40
0.4711597234828885
 40
0.8135760726967077
 40
1.0
 40
1.0
 40
1.0
 40
1.0
 10
225.932379010914
 20
137.981845456894
 30
0.0
 10
225.9871170410374
 20
137.9690610517167
 30
0.0
 10
226.2256808521919
 20
137.9133429994675
 30
0.0
 10
226.6907864218139
 20
137.8217427697077
 30
0.0
 10
227.2353359865736
 20
137.7524822442222
 30
0.0
 10
227.5331801251209
 20
137.7271236025692
 30
0.0
 10
227.6381745374185
 20
137.7181843107301
 30
0.0
  0
SPLINE
  5
66
330
1F
100
AcDbEntity
  8
0
  6
Continuous
 62
     7
370
    15
100
AcDbSpline
210
0.0
220
0.0
230
1.0
 70
     8
 71
     3
 72
    10
 73
     6
 74
     0
 42
0.00000001
 43
0.00000001
 12
1.0
 22
0.0
 32
0.0
 13
1.0
 23
0.0
 33
0.0
 40
0.0
 40
0.0
 40
0.0
 40
0.0
 40
0.4391178969527842
 40
0.7513635590080382
 40
1.0
 40
1.0
 40
1.0
 40
1.0
 10
227.6381745374185
 20
137.7181843107301
 30
0.0
 10
227.7792603232226
 20
137.8952331905459
 30
0.0
 10
228.0206686531559
 20
138.1981770636604
 30
0.0
 10
228.4064529381315
 20
138.6847643103531
 30
0.0
 10
228.6089321027929
 20
138.94077535551
 30
0.0
 10
228.6986901795847
 20
139.054263867225
 30
0.0
  0
SPLINE
  5
67
330
1F
100
AcDbEntity
  8
0
  6
Continuous
 62
     7
370
    15
100
AcDbSpline
210
0.0
220
0.0
230
1.0
 70
     8
 71
     3
 72
    10
 73
     6
 74
     0
 42
0.00000001
 43
0.00000001
 12
1.0
 22
0.0
 32
0.0
 13
1.0
 23
0.0
 33
0.0
 40
0.0
 40
0.0
 40
0.0
 40
0.0
 40
0.4391156114399599
 40
0.751366358722148
 40
1.0
 40
1.0
 40
1.0
 40
1.0
 10
228.6986901795847
 20
139.054263867225
 30
0.0
 10
228.5955763536266
 20
139.2690593823506
 30
0.0
 10
228.4191393107941
 20
139.6365938536041
 30
0.0
 10
228.1975307019731
 20
140.2170529639319
 30
0.0
 10
228.0976751296121
 20
140.519799217573
 30
0.0
 10
228.0534102952463
 20
140.6540031729001
 30
0.0
  0
SPLINE
  5
68
330
1F
100
AcDbEntity
  8
0
  6
Continuous
 62
     7
370
    15
100
AcDbSpline
210
0.0
220
0.0
230
1.0
 70
     8
 71
     3
 72
    11
 73
     7
 74
     0
 42
0.00000001
 43
0.00000001
 12
1.0
 22
0.0
 32
0.0
 13
1.0
 23
0.0
 33
0.0
 40
0.0
 40
0.0
 40
0.0
 40
0.0
 40
0.186422504568216
 40
0.5288444569433042
 40
0.891886987307471
 40
1.0
 40
1.0
 40
1.0
 40
1.0
 10
228.0534102952463
 20
140.6540031729001
 30
0.0
 10
227.9484159573863
 20
140.6629424322428
 30
0.0
 10
227.65056740248
 20
140.6883013757004
 30
0.0
 10
227.1060141828326
 20
140.7575572017458
 30
0.0
 10
226.6409130702434
 20
140.8491654485194
 30
0.0
 10
226.4023429978397
 20
140.9048798874095
 30
0.0
 10
226.3475998675806
 20
140.917664319064
 30
0.0
  0
SPLINE
  5
69
330
1F
100
AcDbEntity
  8
0
  6
Continuous
 62
     7
370
    15
100
AcDbSpline
210
0.0
220
0.0
230
1.0
 70
     8
 71
     3
 72
    10
 73
     6
 74
     0
 42
0.00000001
 43
0.00000001
 12
1.0
 22
0.0
 32
0.0
 13
1.0
 23
0.0
 33
0.0
 40
0.0
 40
0.0
 40
0.0
 40
0.0
 40
0.4391165541774486
 40
0.751366861543583
 40
1.0
 40
1.0
 40
1.0
 40
1.0
 10
226.3475998675806
 20
140.917664319064
 30
0.0
 10
226.185040088482
 20
140.7121748139493
 30
0.0
 10
225.9068860770413
 20
140.3605642835118
 30
0.0
 10
225.5374207226867
 20
139.8956189335341
 30
0.0
 10
225.3639720251158
 20
139.6780368479341
 30
0.0
 10
225.2870842254144
 20
139.5815852282304
 30
0.0
  0
SPLINE
  5
6A
330
1F
100
AcDbEntity
  8
0
  6
Continuous
 62
     7
370
    15
100
AcDbSpline
210
0.0
220
0.0
230
1.0
 70
     8
 71
     3
 72
    10
 73
     6
 74
     0
 42
0.00000001
 43
0.00000001
 12
1.0
 22
0.0
 32
0.0
 13
1.0
 23
0.0
 33
0.0
 40
0.0
 40
0.0
 40
0.0
 40
0.0
 40
0.4391181435192604
 40
0.7513653515345111
 40
0.9999999999999999
 40
0.9999999999999999
 40
0.9999999999999999
 40
0.9999999999999999
 10
225.2870842254144
 20
139.5815852282304
 30
0.0
 10
225.368731212744
 20
139.3383520149626
 30
0.0
 10
225.5084355684896
 20
138.9221610388231
 30
0.0
 10
225.7463538784782
 20
138.36331999933
 30
0.0
 10
225.8752433093856
 20
138.0990114296415
 30
0.0
 10
225.932379010914
 20
137.981845456894
 30
0.0
  0
LINE
  5
6B
330
1F
100
AcDbEntity
  8
0
  6
Continuous
 62
     7
370
    15
100
AcDbLine
 10
225.9575023687
 20
140.4011081157
 30
0.0
 11
226.3475998676
 21
140.9176643191
 31
0.0
  0
LINE
  5
6C
330
1F
100
AcDbEntity
  8
0
  6
Continuous
 62
     7
370
    15
100
AcDbLine
 10
225.9575023687
 20
140.4011081157
 30
0.0
 11
225.4272445476
 21
139.7330685703
 31
0.0
  0
LINE
  5
6D
330
1F
100
AcDbEntity
  8
0
  6
Continuous
 62
     7
370
    15
100
AcDbLine
 10
228.3085777795
 20
138.5377076639
 30
0.0
 11
227.9859378374
 21
139.3375777824
 31
0.0
  0
LINE
  5
6E
330
1F
100
AcDbEntity
  8
0
  6
Continuous
 62
     7
370
    15
100
AcDbLine
 10
227.9859378374
 20
139.3375777824
 30
0.0
 11
227.6632978952
 21
140.1374479009
 31
0.0
  0
LINE
  5
6F
330
1F
100
AcDbEntity
  8
0
  6
Continuous
 62
     7
370
    15
100
AcDbLine
 10
227.6632978952
 20
140.1374479009
 30
0.0
 11
228.0534102952
 21
140.6540031729
 31
0.0
  0
LINE
  5
70
330
1F
100
AcDbEntity
  8
0
  6
Continuous
 62
     7
370
    15
100
AcDbLine
 10
227.6632978952
 20
140.1374479009
 30
0.0
 11
226.8104001319
 21
140.2692775426
 31
0.0
  0
LINE
  5
71
330
1F
100
AcDbEntity
  8
0
  6
Continuous
 62
     7
370
    15
100
AcDbLine
 10
226.8104001319
 20
140.2692775426
 30
0.0
 11
225.9575023687
 21
140.4011081157
 31
0.0
  0
ARC
  5
72
330
1F
100
AcDbEntity
  8
0
  6
Continuous
 62
     7
370
    15
100
AcDbCircle
 10
226.6226533698
 20
138.7817603686
 30
0.0
 40
1.472235557532859
100
AcDbArc
 50
321.7182707598
 51
22.1809505685
  0
ARC
  5
73
330
1F
100
AcDbEntity
  8
0
  6
Continuous
 62
     7
370
    15
100
AcDbCircle
 10
226.5795760629
 20
138.8126549263
 30
0.0
 40
1.47479801908218
100
AcDbArc
 50
80.9954832319
 51
141.3842275245
  0
ARC
  5
74
330
1F
100
AcDbEntity
  8
0
  6
Continuous
 62
     7
370
    15
100
AcDbCircle
 10
226.5773145833
 20
138.7677449881
 30
0.0
 40
1.519516003625683
100
AcDbArc
 50
22.0248942001
 51
81.1762998601
  0
LINE
  5
75
330
1F
100
AcDbEntity
  8
0
  6
Continuous
 62
     7
370
    15
100
AcDbLine
 10
224.97505391
 20
144.5052278412
 30
0.0
 11
236.9466915166
 21
145.3730146585
 31
0.0
  0
ARC
  5
76
330
1F
100
AcDbEntity
  8
0
  6
Continuous
 62
     7
370
    15
100
AcDbCircle
 10
224.9461652672
 20
144.9076289765
 30
0.0
 40
0.4034367699728816
100
AcDbArc
 50
175.3044617958
 51
274.1062570504
  0
LINE
  5
77
330
1F
100
AcDbEntity
  8
0
  6
Continuous
 62
     7
370
    15
100
AcDbLine
 10
225.5914702451
 20
156.8457809461
 30
0.0
 11
224.544082526
 21
144.9406546725
 31
0.0
  0
ARC
  5
78
330
1F
100
AcDbEntity
  8
0
  6
Continuous
 62
     7
370
    15
100
AcDbCircle
 10
225.9798185468
 20
156.8116372935
 30
0.0
 40
0.3898463703176335
100
AcDbArc
 50
93.9311433117
 51
174.9754646504
  0
LINE
  5
79
330
1F
100
AcDbEntity
  8
0
  6
Continuous
 62
     7
370
    15
100
AcDbLine
 10
237.9247441328
 20
158.0683541668
 30
0.0
 11
225.953091625
 21
157.2005664183
 31
0.0
  0
ARC
  5
7A
330
1F
100
AcDbEntity
  8
0
  6
Continuous
 62
     7
370
    15
100
AcDbCircle
 10
237.9536253705
 20
157.6659594622
 30
0.0
 40
0.4034298255824327
100
AcDbArc
 50
355.3034644127
 51
94.1052734595
  0
LINE
  5
7B
330
1F
100
AcDbEntity
  8
0
  6
Continuous
 62
     7
370
    15
100
AcDbLine
 10
237.3083277976
 20
145.727801062
 30
0.0
 11
238.3557006156
 21
157.6329273356
 31
0.0
  0
ARC
  5
7C
330
1F
100
AcDbEntity
  8
0
  6
Continuous
 62
     7
370
    15
100
AcDbCircle
 10
236.9199456297
 20
145.761979336
 30
0.0
 40
0.3898831399655392
100
AcDbArc
 50
273.9335656061
 51
354.9708322509
  0
ARC
  5
7D
330
1F
100
AcDbEntity
  8
0
  6
Continuous
 62
     7
370
    15
100
AcDbCircle
 10
237.9539114452
 20
157.666311064
 30
0.0
 40
0.3832713348716475
100
AcDbArc
 50
355.3054501104
 51
94.1053740623
  0
LINE
  5
7E
330
1F
100
AcDbEntity
  8
0
  6
Continuous
 62
     7
370
    15
100
AcDbLine
 10
237.9264726675
 20
158.0485989524
 30
0.0
 11
225.9548201597
 21
157.1808112038
 31
0.0
  0
ARC
  5
7F
330
1F
100
AcDbEntity
  8
0
  6
Continuous
 62
     7
370
    15
100
AcDbCircle
 10
225.9802332836
 20
156.8112991535
 30
0.0
 40
0.3703849108944207
100
AcDbArc
 50
93.9343115342
 51
174.9715241352
  0
LINE
  5
80
330
1F
100
AcDbEntity
  8
0
  6
Continuous
 62
     7
370
    15
100
AcDbLine
 10
225.6112738883
 20
156.8437637014
 30
0.0
 11
224.5639010704
 21
144.9386392904
 31
0.0
  0
ARC
  5
81
330
1F
100
AcDbEntity
  8
0
  6
Continuous
 62
     7
370
    15
100
AcDbCircle
 10
224.9458760263
 20
144.9072614695
 30
0.0
 40
0.3832615746788107
100
AcDbArc
 50
175.3039091225
 51
274.1048298201
  0
LINE
  5
82
330
1F
100
AcDbEntity
  8
0
  6
Continuous
 62
     7
370
    15
100
AcDbLine
 10
224.9733104742
 20
144.5249830557
 30
0.0
 11
236.9449629819
 21
145.3927698729
 31
0.0
  0
ARC
  5
83
330
1F
100
AcDbEntity
  8
0
  6
Continuous
 62
     7
370
    15
100
AcDbCircle
 10
236.919548744
 20
145.7622830588
 30
0.0
 40
0.3703861201567917
100
AcDbArc
 50
273.9344714062
 51
354.9713642632
  0
LINE
  5
84
330
1F
100
AcDbEntity
  8
0
  6
Continuous
 62
     7
370
    15
100
AcDbLine
 10
237.2885092533
 20
145.7298173753
 30
0.0
 11
238.3358969724
 21
157.6349427176
 31
0.0
  0
LINE
  5
85
330
1F
100
AcDbEntity
  8
0
  6
Continuous
 62
     7
370
    15
100
AcDbLine
 10
225.7809981143
 20
145.6998977063
 30
0.0
 11
224.9174460208
 21
144.8699682204
 31
0.0
  0
LINE
  5
86
330
1F
100
AcDbEntity
  8
0
  6
Continuous
 62
     7
370
    15
100
AcDbLine
 10
236.2810417449
 20
146.2645464761
 30
0.0
 11
236.8890985286
 21
145.7377550376
 31
0.0
  0
LINE
  5
87
330
1F
100
AcDbEntity
  8
0
  6
Continuous
 62
     7
370
    15
100
AcDbLine
 10
236.1901893651
 20
144.6954085676
 30
0.0
 11
236.4491417444
 21
144.7141793741
 31
0.0
  0
LINE
  5
88
330
1F
100
AcDbEntity
  8
0
  6
Continuous
 62
     7
370
    15
100
AcDbLine
 10
224.4188829696
 20
148.5141822321
 30
0.0
 11
224.0568741596
 21
144.3994221462
 31
0.0
  0
LINE
  5
89
330
1F
100
AcDbEntity
  8
0
  6
Continuous
 62
     7
370
    15
100
AcDbLine
 10
226.4978631771
 20
156.1489709837
 30
0.0
 11
225.96483374
 21
156.7750935627
 31
0.0
  0
ARC
  5
8A
330
1F
100
AcDbEntity
  8
0
  6
Continuous
 62
     7
370
    15
100
AcDbCircle
 10
227.8212287965
 20
147.7307619384
 30
0.0
 40
1.008595714966333
100
AcDbArc
 50
175.3046675293
 51
274.1051609021
  0
SPLINE
  5
8B
330
1F
100
AcDbEntity
  8
0
  6
Continuous
 62
     7
370
    15
100
AcDbSpline
210
0.0
220
0.0
230
1.0
 70
     8
 71
     3
 72
    11
 73
     7
 74
     0
 42
0.00000001
 43
0.00000001
 12
1.0
 22
0.0
 32
0.0
 13
1.0
 23
0.0
 33
0.0
 40
0.0
 40
0.0
 40
0.0
 40
0.0
 40
0.3367746689724325
 40
0.679010133556358
 40
0.9923652565270338
 40
1.0
 40
1.0
 40
1.0
 40
1.0
 10
225.7809981143457
 20
145.6998977062958
 30
0.0
 10
225.8340561686408
 20
145.751233901093
 30
0.0
 10
225.9410326126919
 20
145.8547387062253
 30
0.0
 10
226.1134015394047
 20
146.0250798365939
 30
0.0
 10
226.2231871443785
 20
146.1351288454744
 30
0.0
 10
226.2739140794618
 20
146.1861705121767
 30
0.0
 10
226.2751206195337
 20
146.1873845381397
 30
0.0
  0
LINE
  5
8C
330
1F
100
AcDbEntity
  8
0
  6
Continuous
 62
     7
370
    15
100
AcDbLine
 10
227.8934314287
 20
146.7247539384
 30
0.0
 11
234.5935299432
 21
147.2104237599
 31
0.0
  0
LINE
  5
8D
330
1F
100
AcDbEntity
  8
0
  6
Continuous
 62
     7
370
    15
100
AcDbLine
 10
227.4021997488
 20
154.4761908425
 30
0.0
 11
226.8160178697
 21
147.8133228792
 31
0.0
  0
ARC
  5
8E
330
1F
100
AcDbEntity
  8
0
  6
Continuous
 62
     7
370
    15
100
AcDbCircle
 10
228.3731230499
 20
154.3907822356
 30
0.0
 40
0.9746726049361326
100
AcDbArc
 50
93.9340105878
 51
174.9728379751
  0
LINE
  5
8F
330
1F
100
AcDbEntity
  8
0
  6
Continuous
 62
     7
370
    15
100
AcDbLine
 10
235.0063517129
 20
155.848826207
 30
0.0
 11
228.3062531984
 21
155.3631582482
 31
0.0
  0
ARC
  5
90
330
1F
100
AcDbEntity
  8
0
  6
Continuous
 62
     7
370
    15
100
AcDbCircle
 10
235.0785559378
 20
154.8428199246
 30
0.0
 40
1.0085941157382
100
AcDbArc
 50
355.304668332
 51
94.1052581328
  0
LINE
  5
91
330
1F
100
AcDbEntity
  8
0
  6
Continuous
 62
     7
370
    15
100
AcDbLine
 10
235.4975833929
 20
148.0973911656
 30
0.0
 11
236.0837652719
 21
154.7602591289
 31
0.0
  0
ARC
  5
92
330
1F
100
AcDbEntity
  8
0
  6
Continuous
 62
     7
370
    15
100
AcDbCircle
 10
234.5266600917
 20
148.1827997724
 30
0.0
 40
0.9746726049361351
100
AcDbArc
 50
273.9340105878
 51
354.9728379751
  0
CIRCLE
  5
93
330
1F
100
AcDbEntity
  8
0
  6
Continuous
 62
     7
370
    15
100
AcDbCircle
 10
231.4634871085
 20
151.2543549228
 30
0.0
 40
2.55267429625111
  0
ARC
  5
94
330
1F
100
AcDbEntity
  8
0
  6
Continuous
 62
     7
370
    15
100
AcDbCircle
 10
230.9295253107
 20
150.5930736863
 30
0.0
 40
2.588729309123558
100
AcDbArc
 50
355.0098024755
 51
132.830450204
  0
LWPOLYLINE
  5
95
330
1F
100
AcDbEntity
  8
0
  6
Continuous
 62
     7
370
    15
100
AcDbPolyline
 90
        3
 70
   128
 43
0.0
 10
233.2326068914
 20
149.4231810046
 10
233.3418920076
 20
149.6622906251
 10
233.5084422863
 20
150.3678922726
  0
LINE
  5
96
330
1F
100
AcDbEntity
  8
0
  6
Continuous
 62
     7
370
    15
100
AcDbLine
 10
236.9720979965
 20
156.6794336958
 30
0.0
 11
237.9364713466
 21
157.6428794486
 31
0.0
  0
SPLINE
  5
97
330
1F
100
AcDbEntity
  8
0
  6
Continuous
 62
     7
370
    15
100
AcDbSpline
210
0.0
220
0.0
230
1.0
 70
     8
 71
     3
 72
    11
 73
     7
 74
     0
 42
0.00000001
 43
0.00000001
 12
1.0
 22
0.0
 32
0.0
 13
1.0
 23
0.0
 33
0.0
 40
0.0
 40
0.0
 40
0.0
 40
0.0
 40
0.0081209594149387
 40
0.3263648425561701
 40
0.662771780993399
 40
1.0
 40
1.0
 40
1.0
 40
1.0
 10
235.7982888257486
 20
146.7644822967905
 30
0.0
 10
235.7993755985052
 20
146.7631498180548
 30
0.0
 10
235.8430507853264
 20
146.7096002076502
 30
0.0
 10
235.9417027229781
 20
146.5953991506244
 30
0.0
 10
236.1095079143814
 20
146.4195056781155
 30
0.0
 10
236.2238173469428
 20
146.3162415092036
 30
0.0
 10
236.2810417449457
 20
146.2645464760917
 30
0.0
  0
ARC
  5
98
330
1F
100
AcDbEntity
  8
0
  6
Continuous
 62
     7
370
    15
100
AcDbCircle
 10
236.4217986609
 20
145.1044926919
 30
0.0
 40
0.3912698944634925
100
AcDbArc
 50
274.0072626656
 51
322.8539427786
  0
SPLINE
  5
99
330
1F
100
AcDbEntity
  8
0
  6
Continuous
 62
     7
370
    15
100
AcDbSpline
210
0.0
220
0.0
230
1.0
 70
     8
 71
     3
 72
    11
 73
     7
 74
     0
 42
0.00000001
 43
0.00000001
 12
1.0
 22
0.0
 32
0.0
 13
1.0
 23
0.0
 33
0.0
 40
0.0
 40
0.0
 40
0.0
 40
0.0
 40
0.3372366153090138
 40
0.6736264169062368
 40
0.9918876065815261
 40
1.0
 40
1.0
 40
1.0
 40
1.0
 10
226.4978631770593
 20
156.1489709837097
 30
0.0
 10
226.5498467067499
 20
156.0903294094439
 30
0.0
 10
226.6536832335504
 20
155.9731935120911
 30
0.0
 10
226.8269179578634
 20
155.8045333452482
 30
0.0
 10
226.9380442810626
 20
155.7067531364154
 30
0.0
 10
226.9897759594701
 20
155.6639333635825
 30
0.0
 10
226.9910618102533
 20
155.6628690285343
 30
0.0
  0
SPLINE
  5
9A
330
1F
100
AcDbEntity
  8
0
  6
Continuous
 62
     7
370
    15
100
AcDbSpline
210
0.0
220
0.0
230
1.0
 70
     8
 71
     3
 72
    11
 73
     7
 74
     0
 42
0.00000001
 43
0.00000001
 12
1.0
 22
0.0
 32
0.0
 13
1.0
 23
0.0
 33
0.0
 40
0.0
 40
0.0
 40
0.0
 40
0.0
 40
0.0076227219827443
 40
0.3209916619984577
 40
0.6632102647532813
 40
0.9999999999999999
 40
0.9999999999999999
 40
0.9999999999999999
 40
0.9999999999999999
 10
236.4937260186655
 20
156.2128075582641
 30
0.0
 10
236.4947384685475
 20
156.2137703227354
 30
0.0
 10
236.5373725789176
 20
156.2543121880233
 30
0.0
 10
236.6345727567112
 20
156.3473529945499
 30
0.0
 10
236.7992355413793
 20
156.5076658642239
 30
0.0
 10
236.9147851288674
 20
156.6224837526256
 30
0.0
 10
236.9720979964716
 20
156.6794336957592
 30
0.0
  0
LINE
  5
9B
330
1F
100
AcDbEntity
  8
0
  6
Continuous
 62
     7
370
    15
100
AcDbLine
 10
228.912730459
 20
151.4398669077
 30
0.0
 11
229.2410775459
 21
151.7803398145
 31
0.0
  0
LINE
  5
9C
330
1F
100
AcDbEntity
  8
0
  6
Continuous
 62
     7
370
    15
100
AcDbLine
 10
229.2410775459
 20
151.7803398145
 30
0.0
 11
228.9197489059
 21
150.9059601648
 31
0.0
  0
LINE
  5
9D
330
1F
100
AcDbEntity
  8
0
  6
Continuous
 62
     7
370
    15
100
AcDbLine
 10
228.9197489059
 20
150.9059601648
 30
0.0
 11
228.9187505281
 21
150.9049263967
 31
0.0
  0
ELLIPSE
  5
9E
330
1F
100
AcDbEntity
  8
0
  6
Continuous
 62
     7
370
    15
100
AcDbEllipse
 10
231.1364104303
 20
150.5679538942
 30
0.0
 11
1.759005141004963
 21
-1.403439041303386
 31
0.0
210
0.0
220
0.0
230
1.0
 40
0.9859532801
 41
0.5282529414980811
 42
3.247423834369561
  0
ELLIPSE
  5
9F
330
1F
100
AcDbEntity
  8
0
  6
Continuous
 62
     7
370
    15
100
AcDbEllipse
 10
231.1364104303
 20
150.5679538942
 30
0.0
 11
1.759005141004963
 21
-1.403439041303386
 31
0.0
210
0.0
220
0.0
230
1.0
 40
0.9859532801
 41
6.27112533440104
 42
6.389016487959356
  0
LINE
  5
A0
330
1F
100
AcDbEntity
  8
0
  6
Continuous
 62
     7
370
    15
100
AcDbLine
 10
233.0317392385
 20
149.3555669857
 30
0.0
 11
233.3530827796
 21
150.2299484981
 31
0.0
  0
LWPOLYLINE
  5
A1
330
1F
100
AcDbEntity
  8
0
  6
Continuous
 62
     7
370
    15
100
AcDbPolyline
 90
        3
 70
   128
 43
0.0
 10
229.0672555006
 20
152.2697908057
 10
229.13320804
 20
152.2948433829
 10
229.929049257
 20
152.4628912283
  0
LWPOLYLINE
  5
A2
330
1F
100
AcDbEntity
  8
0
  6
Continuous
 62
     7
370
    15
100
AcDbPolyline
 90
        3
 70
   128
 43
0.0
 10
233.0413653886
 20
149.3817669524
 10
233.0408140457
 20
149.3728802724
 10
233.030398134
 20
149.2510148508
  0
LINE
  5
A3
330
1F
100
AcDbEntity
  8
0
  6
Continuous
 62
     7
370
    15
100
AcDbLine
 10
120.3572198188
 20
100.569396205
 30
0.0
 11
120.3572198188
 21
161.5693968905
 31
0.0
  0
SPLINE
  5
A4
330
1F
100
AcDbEntity
  8
0
  6
Continuous
 62
     7
370
    15
100
AcDbSpline
210
0.0
220
0.0
230
1.0
 70
     8
 71
     3
 72
    12
 73
     8
 74
     0
 42
0.00000001
 43
0.00000001
 12
1.0
 22
0.0
 32
0.0
 13
1.0
 23
0.0
 33
0.0
 40
0.0
 40
0.0
 40
0.0
 40
0.0
 40
0.2500000000000014
 40
0.2500000000000014
 40
0.5000000000000028
 40
0.5000000000000028
 40
1.0
 40
1.0
 40
1.0
 40
1.0
 10
108.8849767516044
 20
140.4574629790962
 30
0.0
 10
108.8218967131111
 20
140.4574629790962
 30
0.0
 10
108.7627480909297
 20
140.4828272983111
 30
0.0
 10
108.6642755408606
 20
140.5569921586841
 30
0.0
 10
108.6252389288759
 20
140.6035124992382
 30
0.0
 10
108.5253424620968
 20
140.7536548420834
 30
0.0
 10
108.4829215810302
 20
140.8653480490556
 30
0.0
 10
108.4519640497122
 20
140.9787658684454
 30
0.0
  0
LINE
  5
A5
330
1F
100
AcDbEntity
  8
0
  6
Continuous
 62
     7
370
    15
100
AcDbLine
 10
111.8294631502
 20
140.457463376
 30
0.0
 11
108.8849769345
 21
140.457463376
 31
0.0
  0
SPLINE
  5
A6
330
1F
100
AcDbEntity
  8
0
  6
Continuous
 62
     7
370
    15
100
AcDbSpline
210
0.0
220
0.0
230
1.0
 70
     8
 71
     3
 72
    12
 73
     8
 74
     0
 42
0.00000001
 43
0.00000001
 12
1.0
 22
0.0
 32
0.0
 13
1.0
 23
0.0
 33
0.0
 40
0.0
 40
0.0
 40
0.0
 40
0.0
 40
0.499999999999999
 40
0.499999999999999
 40
0.7499999999999994
 40
0.7499999999999994
 40
1.0
 40
1.0
 40
1.0
 40
1.0
 10
112.2624758263638
 20
140.9787658684454
 30
0.0
 10
112.2317535844447
 20
140.8662100690362
 30
0.0
 10
112.1889163699096
 20
140.7534522092966
 30
0.0
 10
112.0894893457098
 20
140.6039113235002
 30
0.0
 10
112.0497371508931
 20
140.5566185917934
 30
0.0
 10
111.9516956940349
 20
140.4828822984719
 30
0.0
 10
111.8921396384474
 20
140.4574629790962
 30
0.0
 10
111.8294631244716
 20
140.4574629790962
 30
0.0
  0
ELLIPSE
  5
A7
330
1F
100
AcDbEntity
  8
0
  6
Continuous
 62
     7
370
    15
100
AcDbEllipse
 10
96.0100657487
 20
131.0693965478
 30
0.0
 11
14.75368316065605
 21
31.09325491558116
 31
0.0
210
0.0
220
0.0
230
1.0
 40
0.3419987131
 41
5.193281737408618
 42
6.124043104552324
  0
SPLINE
  5
A8
330
1F
100
AcDbEntity
  8
0
  6
Continuous
 62
     7
370
    15
100
AcDbSpline
210
0.0
220
0.0
230
1.0
 70
     8
 71
     3
 72
    12
 73
     8
 74
     0
 42
0.00000001
 43
0.00000001
 12
1.0
 22
0.0
 32
0.0
 13
1.0
 23
0.0
 33
0.0
 40
0.0
 40
0.0
 40
0.0
 40
0.0
 40
0.2500000000000009
 40
0.2500000000000009
 40
0.5000000000000019
 40
0.5000000000000019
 40
1.0
 40
1.0
 40
1.0
 40
1.0
 10
111.8294631244716
 20
161.1378885066334
 30
0.0
 10
111.8925431629649
 20
161.1378885066334
 30
0.0
 10
111.9516917851463
 20
161.129982580421
 30
0.0
 10
112.0501643352154
 20
161.1066574189847
 30
0.0
 10
112.0892009472002
 20
161.091944629153
 30
0.0
 10
112.1890974139792
 20
161.0439888284221
 30
0.0
 10
112.2315182950458
 20
161.007726671842
 30
0.0
 10
112.2624758263638
 20
160.9701390078775
 30
0.0
  0
LINE
  5
A9
330
1F
100
AcDbEntity
  8
0
  6
Continuous
 62
     7
370
    15
100
AcDbLine
 10
108.8849769345
 20
161.1378890646
 30
0.0
 11
111.8294631502
 21
161.1378890646
 31
0.0
  0
SPLINE
  5
AA
330
1F
100
AcDbEntity
  8
0
  6
Continuous
 62
     7
370
    15
100
AcDbSpline
210
0.0
220
0.0
230
1.0
 70
     8
 71
     3
 72
    12
 73
     8
 74
     0
 42
0.00000001
 43
0.00000001
 12
1.0
 22
0.0
 32
0.0
 13
1.0
 23
0.0
 33
0.0
 40
0.0
 40
0.0
 40
0.0
 40
0.0
 40
0.4999999999999971
 40
0.4999999999999971
 40
0.7499999999999986
 40
0.7499999999999986
 40
1.0
 40
1.0
 40
1.0
 40
1.0
 10
108.4519640497122
 20
160.9701390078775
 30
0.0
 10
108.4826862916313
 20
161.0074409908306
 30
0.0
 10
108.5255235061665
 20
161.044052822877
 30
0.0
 10
108.6249505303663
 20
161.0918176061622
 30
0.0
 10
108.6647027251829
 20
161.1067751216445
 30
0.0
 10
108.7627441820412
 20
161.1299650674137
 30
0.0
 10
108.8223002376287
 20
161.1378885066334
 30
0.0
 10
108.8849767516045
 20
161.1378885066334
 30
0.0
  0
ELLIPSE
  5
AB
330
1F
100
AcDbEntity
  8
0
  6
Continuous
 62
     7
370
    15
100
AcDbEllipse
 10
124.7043741274
 20
131.0693965478
 30
0.0
 11
-14.75368316065607
 21
31.09325491558116
 31
0.0
210
0.0
220
0.0
230
1.0
 40
0.3419987131
 41
0.1591422026273001
 42
1.089903569770978
  0
SPLINE
  5
AC
330
1F
100
AcDbEntity
  8
0
  6
Continuous
 62
     7
370
    15
100
AcDbSpline
210
0.0
220
0.0
230
1.0
 70
     8
 71
     3
 72
    12
 73
     8
 74
     0
 42
0.00000001
 43
0.00000001
 12
1.0
 22
0.0
 32
0.0
 13
1.0
 23
0.0
 33
0.0
 40
0.0
 40
0.0
 40
0.0
 40
0.0
 40
0.25
 40
0.25
 40
0.5
 40
0.5
 40
1.0
 40
1.0
 40
1.0
 40
1.0
 10
108.8849767516045
 20
101.0009045888873
 30
0.0
 10
108.8218967131111
 20
101.0009045888873
 30
0.0
 10
108.7627480909297
 20
101.0088105150997
 30
0.0
 10
108.6642755408606
 20
101.0321356765359
 30
0.0
 10
108.6252389288759
 20
101.0468484663676
 30
0.0
 10
108.5253424620969
 20
101.0948042670985
 30
0.0
 10
108.4829215810302
 20
101.1310664236786
 30
0.0
 10
108.4519640497123
 20
101.1686540876431
 30
0.0
  0
LINE
  5
AD
330
1F
100
AcDbEntity
  8
0
  6
Continuous
 62
     7
370
    15
100
AcDbLine
 10
111.8294631502
 20
101.0009040309
 30
0.0
 11
108.8849769345
 21
101.0009040309
 31
0.0
  0
SPLINE
  5
AE
330
1F
100
AcDbEntity
  8
0
  6
Continuous
 62
     7
370
    15
100
AcDbSpline
210
0.0
220
0.0
230
1.0
 70
     8
 71
     3
 72
    12
 73
     8
 74
     0
 42
0.00000001
 43
0.00000001
 12
1.0
 22
0.0
 32
0.0
 13
1.0
 23
0.0
 33
0.0
 40
0.0
 40
0.0
 40
0.0
 40
0.0
 40
0.5000000000000018
 40
0.5000000000000018
 40
0.7500000000000009
 40
0.7500000000000009
 40
1.0
 40
1.0
 40
1.0
 40
1.0
 10
112.2624758263638
 20
101.1686540876431
 30
0.0
 10
112.2317535844447
 20
101.13135210469
 30
0.0
 10
112.1889163699096
 20
101.0947402726436
 30
0.0
 10
112.0894893457098
 20
101.0469754893584
 30
0.0
 10
112.0497371508931
 20
101.0320179738761
 30
0.0
 10
111.9516956940349
 20
101.0088280281069
 30
0.0
 10
111.8921396384474
 20
101.0009045888872
 30
0.0
 10
111.8294631244716
 20
101.0009045888872
 30
0.0
  0
ELLIPSE
  5
AF
330
1F
100
AcDbEntity
  8
0
  6
Continuous
 62
     7
370
    15
100
AcDbEllipse
 10
96.0100657487
 20
131.0693965478
 30
0.0
 11
-14.75368316065617
 21
31.09325491558116
 31
0.0
210
0.0
220
0.0
230
1.0
 40
0.3419987131
 41
3.300734856217123
 42
4.231496223360773
  0
SPLINE
  5
B0
330
1F
100
AcDbEntity
  8
0
  6
Continuous
 62
     7
370
    15
100
AcDbSpline
210
0.0
220
0.0
230
1.0
 70
     8
 71
     3
 72
    12
 73
     8
 74
     0
 42
0.00000001
 43
0.00000001
 12
1.0
 22
0.0
 32
0.0
 13
1.0
 23
0.0
 33
0.0
 40
0.0
 40
0.0
 40
0.0
 40
0.0
 40
0.2499999999999991
 40
0.2499999999999991
 40
0.4999999999999982
 40
0.4999999999999982
 40
1.0
 40
1.0
 40
1.0
 40
1.0
 10
111.8294631244716
 20
121.6813301164241
 30
0.0
 10
111.8925431629649
 20
121.6813301164241
 30
0.0
 10
111.9516917851463
 20
121.6559657972092
 30
0.0
 10
112.0501643352154
 20
121.5818009368362
 30
0.0
 10
112.0892009472002
 20
121.5352805962821
 30
0.0
 10
112.1890974139792
 20
121.3851382534369
 30
0.0
 10
112.2315182950458
 20
121.2734450464647
 30
0.0
 10
112.2624758263638
 20
121.160027227075
 30
0.0
  0
LINE
  5
B1
330
1F
100
AcDbEntity
  8
0
  6
Continuous
 62
     7
370
    15
100
AcDbLine
 10
108.8849769345
 20
121.6813297195
 30
0.0
 11
111.8294631502
 21
121.6813297195
 31
0.0
  0
SPLINE
  5
B2
330
1F
100
AcDbEntity
  8
0
  6
Continuous
 62
     7
370
    15
100
AcDbSpline
210
0.0
220
0.0
230
1.0
 70
     8
 71
     3
 72
    12
 73
     8
 74
     0
 42
0.00000001
 43
0.00000001
 12
1.0
 22
0.0
 32
0.0
 13
1.0
 23
0.0
 33
0.0
 40
0.0
 40
0.0
 40
0.0
 40
0.0
 40
0.5000000000000019
 40
0.5000000000000019
 40
0.7500000000000009
 40
0.7500000000000009
 40
1.0
 40
1.0
 40
1.0
 40
1.0
 10
108.4519640497123
 20
121.160027227075
 30
0.0
 10
108.4826862916314
 20
121.2725830264842
 30
0.0
 10
108.5255235061665
 20
121.3853408862237
 30
0.0
 10
108.6249505303663
 20
121.5348817720201
 30
0.0
 10
108.664702725183
 20
121.5821745037269
 30
0.0
 10
108.7627441820412
 20
121.6559107970484
 30
0.0
 10
108.8223002376286
 20
121.6813301164241
 30
0.0
 10
108.8849767516045
 20
121.6813301164241
 30
0.0
  0
ELLIPSE
  5
B3
330
1F
100
AcDbEntity
  8
0
  6
Continuous
 62
     7
370
    15
100
AcDbEllipse
 10
124.7043741274
 20
131.0693965478
 30
0.0
 11
14.75368316065619
 21
31.09325491558119
 31
0.0
210
0.0
220
0.0
230
1.0
 40
0.3419987131
 41
2.051689083818826
 42
2.982450450962504
  0
LINE
  5
B4
330
1F
100
AcDbEntity
  8
0
  6
Continuous
 62
     7
370
    15
100
AcDbLine
 10
98.357219938
 20
100.0693970544
 30
0.0
 11
98.357219938
 21
162.0693960411
 31
0.0
  0
SPLINE
  5
B5
330
1F
100
AcDbEntity
  8
0
  6
Continuous
 62
     7
370
    15
100
AcDbSpline
210
0.0
220
0.0
230
1.0
 70
     8
 71
     3
 72
    12
 73
     8
 74
     0
 42
0.00000001
 43
0.00000001
 12
1.0
 22
0.0
 32
0.0
 13
1.0
 23
0.0
 33
0.0
 40
0.0
 40
0.0
 40
0.0
 40
0.0
 40
0.4999999999999999
 40
0.4999999999999999
 40
0.75
 40
0.75
 40
1.0
 40
1.0
 40
1.0
 40
1.0
 10
97.54070765158151
 20
109.2146028452845
 30
0.0
 10
97.5971441524887
 20
109.2131849639428
 30
0.0
 10
97.66622878317743
 20
109.2116206276944
 30
0.0
 10
97.78503105489536
 20
109.20867643572
 30
0.0
 10
97.82521633036545
 20
109.2076382326226
 30
0.0
 10
97.89859737776929
 20
109.205704337408
 30
0.0
 10
97.93200694151193
 20
109.2048094501192
 30
0.0
 10
97.96224304916836
 20
109.2040256598468
 30
0.0
  0
SPLINE
  5
B6
330
1F
100
AcDbEntity
  8
0
  6
Continuous
 62
     7
370
    15
100
AcDbSpline
210
0.0
220
0.0
230
1.0
 70
     8
 71
     3
 72
    16
 73
    12
 74
     0
 42
0.00000001
 43
0.00000001
 12
1.0
 22
0.0
 32
0.0
 13
1.0
 23
0.0
 33
0.0
 40
0.0
 40
0.0
 40
0.0
 40
0.0
 40
0.0624999999999999
 40
0.0624999999999999
 40
0.1249999999999997
 40
0.1249999999999997
 40
0.2499999999999994
 40
0.2499999999999994
 40
0.5000000000000008
 40
0.5000000000000008
 40
1.0
 40
1.0
 40
1.0
 40
1.0
 10
97.96224304913117
 20
109.2040256598711
 30
0.0
 10
97.97382345671912
 20
109.2037254687597
 30
0.0
 10
97.98713298348036
 20
109.2023977205007
 30
0.0
 10
98.01643441356649
 20
109.1956990457257
 30
0.0
 10
98.03124851345079
 20
109.1903408626201
 30
0.0
 10
98.06707691515365
 20
109.1732952134527
 30
0.0
 10
98.0811965395167
 20
109.1618326756769
 30
0.0
 10
98.11570068360517
 20
109.1302693503047
 30
0.0
 10
98.12680523430978
 20
109.1123720512595
 30
0.0
 10
98.15298141152599
 20
109.0622106336452
 30
0.0
 10
98.157219938038
 20
109.0344662214486
 30
0.0
 10
98.157219938038
 20
109.0098020595191
 30
0.0
  0
LINE
  5
B7
330
1F
100
AcDbEntity
  8
0
  6
Continuous
 62
     7
370
    15
100
AcDbLine
 10
98.1572199431
 20
124.0475093199
 30
0.0
 11
98.1572199431
 21
108.5295760257
 31
0.0
  0
SPLINE
  5
B8
330
1F
100
AcDbEntity
  8
0
  6
Continuous
 62
     7
370
    15
100
AcDbSpline
210
0.0
220
0.0
230
1.0
 70
     8
 71
     3
 72
    16
 73
    12
 74
     0
 42
0.00000001
 43
0.00000001
 12
1.0
 22
0.0
 32
0.0
 13
1.0
 23
0.0
 33
0.0
 40
0.0
 40
0.0
 40
0.0
 40
0.0
 40
0.5000000000000032
 40
0.5000000000000032
 40
0.7500000000000031
 40
0.7500000000000031
 40
0.8750000000000022
 40
0.8750000000000022
 40
0.9375000000000011
 40
0.9375000000000011
 40
1.0
 40
1.0
 40
1.0
 40
1.0
 10
98.157219938038
 20
124.0475092220102
 30
0.0
 10
98.157219938038
 20
124.1612017661381
 30
0.0
 10
98.15307366296005
 20
124.2755219274876
 30
0.0
 10
98.12710806756652
 20
124.4485702179847
 30
0.0
 10
98.11564716218912
 20
124.5077457251464
 30
0.0
 10
98.08133542441475
 20
124.5908688446145
 30
0.0
 10
98.06731068848521
 20
124.6189901607152
 30
0.0
 10
98.03128772545135
 20
124.6476059746927
 30
0.0
 10
98.0165332163617
 20
124.6533990225945
 30
0.0
 10
97.9871810552148
 20
124.6518055966574
 30
0.0
 10
97.97384118071072
 20
124.6453091933336
 30
0.0
 10
97.96224304916237
 20
124.6367934471305
 30
0.0
  0
SPLINE
  5
B9
330
1F
100
AcDbEntity
  8
0
  6
Continuous
 62
     7
370
    15
100
AcDbSpline
210
0.0
220
0.0
230
1.0
 70
     8
 71
     3
 72
    12
 73
     8
 74
     0
 42
0.00000001
 43
0.00000001
 12
1.0
 22
0.0
 32
0.0
 13
1.0
 23
0.0
 33
0.0
 40
0.0
 40
0.0
 40
0.0
 40
0.0
 40
0.2499999999999994
 40
0.2499999999999994
 40
0.4999999999999992
 40
0.4999999999999992
 40
1.0
 40
1.0
 40
1.0
 40
1.0
 10
97.96224304916942
 20
124.6367934471214
 30
0.0
 10
97.93204460772881
 20
124.6146207150763
 30
0.0
 10
97.89867725239283
 20
124.5955410591991
 30
0.0
 10
97.82552197656291
 20
124.5703680147564
 30
0.0
 10
97.78526927753893
 20
124.5648114783396
 30
0.0
 10
97.6675405342641
 20
124.5757232893263
 30
0.0
 10
97.59708208620516
 20
124.6176590447372
 30
0.0
 10
97.54070765158689
 20
124.6668708271187
 30
0.0
  0
SPLINE
  5
BA
330
1F
100
AcDbEntity
  8
0
  6
Continuous
 62
     7
370
    15
100
AcDbSpline
210
0.0
220
0.0
230
1.0
 70
     8
 71
     3
 72
    12
 73
     8
 74
     0
 42
0.00000001
 43
0.00000001
 12
1.0
 22
0.0
 32
0.0
 13
1.0
 23
0.0
 33
0.0
 40
0.0
 40
0.0
 40
0.0
 40
0.0
 40
0.5
 40
0.5
 40
0.75
 40
0.75
 40
1.0
 40
1.0
 40
1.0
 40
1.0
 10
97.0358995944784
 20
125.8832222189993
 30
0.0
 10
97.07964994636284
 20
125.6627752340247
 30
0.0
 10
97.13254009748734
 20
125.4472302442192
 30
0.0
 10
97.244151640629
 20
125.1348161676473
 30
0.0
 10
97.28671098453252
 20
125.0327366920314
 30
0.0
 10
97.39168821986993
 20
124.8382966793896
 30
0.0
 10
97.45325546296452
 20
124.743211780326
 30
0.0
 10
97.5407076515869
 20
124.6668708271188
 30
0.0
  0
SPLINE
  5
BB
330
1F
100
AcDbEntity
  8
0
  6
Continuous
 62
     7
370
    15
100
AcDbSpline
210
0.0
220
0.0
230
1.0
 70
     8
 71
     3
 72
    12
 73
     8
 74
     0
 42
0.00000001
 43
0.00000001
 12
1.0
 22
0.0
 32
0.0
 13
1.0
 23
0.0
 33
0.0
 40
0.0
 40
0.0
 40
0.0
 40
0.0
 40
0.2500000000000003
 40
0.2500000000000003
 40
0.5000000000000007
 40
0.5000000000000007
 40
1.0
 40
1.0
 40
1.0
 40
1.0
 10
97.54070765158679
 20
137.4719222684019
 30
0.0
 10
97.45221424401892
 20
137.3946723882936
 30
0.0
 10
97.39215620325307
 20
137.3013530644044
 30
0.0
 10
97.28630793027048
 20
137.1053200114349
 30
0.0
 10
97.243774408993
 20
137.0029936532232
 30
0.0
 10
97.13262310216938
 20
136.6916492474473
 30
0.0
 10
97.07969224512158
 20
136.4762309942693
 30
0.0
 10
97.0358995944784
 20
136.2555708765215
 30
0.0
  0
SPLINE
  5
BC
330
1F
100
AcDbEntity
  8
0
  6
Continuous
 62
     7
370
    15
100
AcDbSpline
210
0.0
220
0.0
230
1.0
 70
     8
 71
     3
 72
    12
 73
     8
 74
     0
 42
0.00000001
 43
0.00000001
 12
1.0
 22
0.0
 32
0.0
 13
1.0
 23
0.0
 33
0.0
 40
0.0
 40
0.0
 40
0.0
 40
0.0
 40
0.4999999999999998
 40
0.4999999999999998
 40
0.7499999999999999
 40
0.7499999999999999
 40
1.0
 40
1.0
 40
1.0
 40
1.0
 10
97.54070765158676
 20
137.4719222684019
 30
0.0
 10
97.5970161998824
 20
137.5210765356458
 30
0.0
 10
97.66729086060053
 20
137.5630338542495
 30
0.0
 10
97.78532877492408
 20
137.573993531782
 30
0.0
 10
97.82550501577803
 20
137.5684847735346
 30
0.0
 10
97.899462110456
 20
137.5429275447457
 30
0.0
 10
97.93207849816743
 20
137.5241474969064
 30
0.0
 10
97.96224304916318
 20
137.5019996483897
 30
0.0
  0
SPLINE
  5
BD
330
1F
100
AcDbEntity
  8
0
  6
Continuous
 62
     7
370
    15
100
AcDbSpline
210
0.0
220
0.0
230
1.0
 70
     8
 71
     3
 72
    16
 73
    12
 74
     0
 42
0.00000001
 43
0.00000001
 12
1.0
 22
0.0
 32
0.0
 13
1.0
 23
0.0
 33
0.0
 40
0.0
 40
0.0
 40
0.0
 40
0.0
 40
0.0625000000000011
 40
0.0625000000000011
 40
0.1250000000000022
 40
0.1250000000000022
 40
0.2500000000000011
 40
0.2500000000000011
 40
0.5000000000000008
 40
0.5000000000000008
 40
1.0
 40
1.0
 40
1.0
 40
1.0
 10
97.96224304913143
 20
137.5019996483352
 30
0.0
 10
97.97385594897081
 20
137.4934730587399
 30
0.0
 10
97.98720713340329
 20
137.4869727972072
 30
0.0
 10
98.01660697302246
 20
137.4854034000897
 30
0.0
 10
98.03144769757769
 20
137.4912867907203
 30
0.0
 10
98.06728090554626
 20
137.5198344267708
 30
0.0
 10
98.08139411336784
 20
137.5480014460766
 30
0.0
 10
98.11588548458673
 20
137.6317557044985
 30
0.0
 10
98.12696955569712
 20
137.6894691181199
 30
0.0
 10
98.15309237349312
 20
137.8630596547657
 30
0.0
 10
98.157219938038
 20
137.9780877074077
 30
0.0
 10
98.157219938038
 20
138.0912838735105
 30
0.0
  0
LINE
  5
BE
330
1F
100
AcDbEntity
  8
0
  6
Continuous
 62
     7
370
    15
100
AcDbLine
 10
98.1572199431
 20
153.6092170698
 30
0.0
 11
98.1572199431
 21
138.0912837757
 31
0.0
  0
SPLINE
  5
BF
330
1F
100
AcDbEntity
  8
0
  6
Continuous
 62
     7
370
    15
100
AcDbSpline
210
0.0
220
0.0
230
1.0
 70
     8
 71
     3
 72
    16
 73
    12
 74
     0
 42
0.00000001
 43
0.00000001
 12
1.0
 22
0.0
 32
0.0
 13
1.0
 23
0.0
 33
0.0
 40
0.0
 40
0.0
 40
0.0
 40
0.0
 40
0.4999999999999998
 40
0.4999999999999998
 40
0.7499999999999999
 40
0.7499999999999999
 40
0.875
 40
0.875
 40
0.9375
 40
0.9375
 40
1.0
 40
1.0
 40
1.0
 40
1.0
 10
98.157219938038
 20
153.1289910360017
 30
0.0
 10
98.157219938038
 20
153.1043198799587
 30
0.0
 10
98.15305423957801
 20
153.0767380485675
 30
0.0
 10
98.12679591125305
 20
153.0263951777441
 30
0.0
 10
98.11529212951547
 20
153.0081056796822
 30
0.0
 10
98.08116137016893
 20
152.9769506486452
 30
0.0
 10
98.06673948349824
 20
152.9653112734335
 30
0.0
 10
98.03117251506038
 20
152.9484292475024
 30
0.0
 10
98.01622074676578
 20
152.9430401436948
 30
0.0
 10
97.987216928406
 20
152.9364196477503
 30
0.0
 10
97.97380157439679
 20
152.9350670595438
 30
0.0
 10
97.9622430491602
 20
152.9347674356722
 30
0.0
  0
SPLINE
  5
C0
330
1F
100
AcDbEntity
  8
0
  6
Continuous
 62
     7
370
    15
100
AcDbSpline
210
0.0
220
0.0
230
1.0
 70
     8
 71
     3
 72
    12
 73
     8
 74
     0
 42
0.00000001
 43
0.00000001
 12
1.0
 22
0.0
 32
0.0
 13
1.0
 23
0.0
 33
0.0
 40
0.0
 40
0.0
 40
0.0
 40
0.0
 40
0.2499999999999994
 40
0.2499999999999994
 40
0.4999999999999992
 40
0.4999999999999992
 40
1.0
 40
1.0
 40
1.0
 40
1.0
 10
97.96224304916943
 20
152.9347674356739
 30
0.0
 10
97.93205527261978
 20
152.9339848982563
 30
0.0
 10
97.89870146852809
 20
152.9330915664378
 30
0.0
 10
97.82557526533213
 20
152.9311642576343
 30
0.0
 10
97.78534006230795
 20
152.9301247264216
 30
0.0
 10
97.66764843217487
 20
152.9272068430743
 30
0.0
 10
97.59726775901483
 20
152.9256112370041
 30
0.0
 10
97.54070765158423
 20
152.9241902502362
 30
0.0
  0
SPLINE
  5
C1
330
1F
100
AcDbEntity
  8
0
  6
Continuous
 62
     7
370
    15
100
AcDbSpline
210
0.0
220
0.0
230
1.0
 70
     8
 71
     3
 72
    16
 73
    12
 74
     0
 42
0.00000001
 43
0.00000001
 12
1.0
 22
0.0
 32
0.0
 13
1.0
 23
0.0
 33
0.0
 40
0.0
 40
0.0
 40
0.0
 40
0.0
 40
0.2499999999999998
 40
0.2499999999999998
 40
0.3749999999999998
 40
0.3749999999999998
 40
0.4999999999999999
 40
0.4999999999999999
 40
0.7499999999999999
 40
0.7499999999999999
 40
1.0
 40
1.0
 40
1.0
 40
1.0
 10
97.03589959447835
 20
136.2555708765215
 30
0.0
 10
96.87466711699389
 20
135.4431611012746
 30
0.0
 10
96.75418727735428
 20
134.6030828068899
 30
0.0
 10
96.63180676004093
 20
133.3017877575271
 30
0.0
 10
96.60082909964349
 20
132.8611067219423
 30
0.0
 10
96.55921536201554
 20
131.9652670810112
 30
0.0
 10
96.54897944908272
 20
131.5186089498087
 30
0.0
 10
96.5487910520266
 20
130.1832989926689
 30
0.0
 10
96.58893575466422
 20
129.2988036193613
 30
0.0
 10
96.7530895096038
 20
127.5415537313353
 30
0.0
 10
96.87464116001335
 20
126.6957627849221
 30
0.0
 10
97.03589959447835
 20
125.8832222189993
 30
0.0
  0
LINE
  5
C2
330
1F
100
AcDbEntity
  8
0
  6
Continuous
 62
     7
370
    15
100
AcDbLine
 10
96.15721995
 20
137.5545746831
 30
0.0
 11
96.15721995
 21
124.5842184124
 31
0.0
  0
LINE
  5
C3
330
1F
100
AcDbEntity
  8
0
  6
Continuous
 62
     7
370
    15
100
AcDbLine
 10
61.8572204745
 20
137.1237071415
 30
0.0
 11
61.8572204745
 21
125.015085954
 31
0.0
  0
LINE
  5
C4
330
1F
100
AcDbEntity
  8
0
  6
Continuous
 62
     7
370
    15
100
AcDbLine
 10
60.3572211599
 20
136.6906942984
 30
0.0
 11
60.3572211599
 21
125.4480987971
 31
0.0
  0
LINE
  5
C5
330
1F
100
AcDbEntity
  8
0
  6
Continuous
 62
     7
370
    15
100
AcDbLine
 10
96.15721995
 20
137.5545746831
 30
0.0
 11
96.15721995
 21
153.0894962324
 31
0.0
  0
ARC
  5
C6
330
1F
100
AcDbEntity
  8
0
  6
Continuous
 62
     7
370
    15
100
AcDbCircle
 10
96.357156849
 20
153.0945184435
 30
0.0
 40
0.1999999999999782
100
AcDbArc
 50
181.4391666667
 51
271.4391666667
  0
LINE
  5
C7
330
1F
100
AcDbEntity
  8
0
  6
Continuous
 62
     7
370
    15
100
AcDbLine
 10
61.8572204745
 20
137.1237071415
 30
0.0
 11
61.8572204745
 21
152.2277602179
 31
0.0
  0
LINE
  5
C8
330
1F
100
AcDbEntity
  8
0
  6
Continuous
 62
     7
370
    15
100
AcDbLine
 10
61.8572204745
 20
152.2277602179
 30
0.0
 11
96.15721995
 21
153.0894962324
 31
0.0
  0
LINE
  5
C9
330
1F
100
AcDbEntity
  8
0
  6
Continuous
 62
     7
370
    15
100
AcDbLine
 10
61.8572204745
 20
109.9110328776
 30
0.0
 11
61.8572204745
 21
125.015085954
 31
0.0
  0
LINE
  5
CA
330
1F
100
AcDbEntity
  8
0
  6
Continuous
 62
     7
370
    15
100
AcDbLine
 10
96.15721995
 20
109.0492968632
 30
0.0
 11
96.15721995
 21
124.5842184124
 31
0.0
  0
LINE
  5
CB
330
1F
100
AcDbEntity
  8
0
  6
Continuous
 62
     7
370
    15
100
AcDbLine
 10
61.8572204745
 20
109.9110328776
 30
0.0
 11
96.15721995
 21
109.0492968632
 31
0.0
  0
ARC
  5
CC
330
1F
100
AcDbEntity
  8
0
  6
Continuous
 62
     7
370
    15
100
AcDbCircle
 10
96.357156849
 20
109.0442746521
 30
0.0
 40
0.2000000000000059
100
AcDbArc
 50
88.5608333333
 51
178.5608333333
  0
LINE
  5
CD
330
1F
100
AcDbEntity
  8
0
  6
Continuous
 62
     7
370
    15
100
AcDbLine
 10
96.3621800671
 20
152.8945815934
 30
0.0
 11
97.5407076672
 21
152.9241902007
 31
0.0
  0
LINE
  5
CE
330
1F
100
AcDbEntity
  8
0
  6
Continuous
 62
     7
370
    15
100
AcDbLine
 10
96.3621800671
 20
109.2442115022
 30
0.0
 11
97.5407076672
 21
109.2146028949
 31
0.0
  0
LINE
  5
CF
330
1F
100
AcDbEntity
  8
0
  6
Continuous
 62
     7
370
    15
100
AcDbLine
 10
60.3572211599
 20
110.7770585639
 30
0.0
 11
61.8572204745
 21
109.9110328776
 31
0.0
  0
LINE
  5
D0
330
1F
100
AcDbEntity
  8
0
  6
Continuous
 62
     7
370
    15
100
AcDbLine
 10
60.3572211599
 20
110.7770585639
 30
0.0
 11
60.3572211599
 21
125.4480987971
 31
0.0
  0
LINE
  5
D1
330
1F
100
AcDbEntity
  8
0
  6
Continuous
 62
     7
370
    15
100
AcDbLine
 10
60.3572211599
 20
151.3617345316
 30
0.0
 11
61.8572204745
 21
152.2277602179
 31
0.0
  0
LINE
  5
D2
330
1F
100
AcDbEntity
  8
0
  6
Continuous
 62
     7
370
    15
100
AcDbLine
 10
60.3572211599
 20
136.6906942984
 30
0.0
 11
60.3572211599
 21
151.3617345316
 31
0.0
  0
ELLIPSE
  5
D3
330
1F
100
AcDbEntity
  8
0
  6
Continuous
 62
     7
370
    15
100
AcDbEllipse
 10
207.2126236726
 20
131.0693965478
 30
0.0
 11
-0.8021781934011187
 21
19.9988707082226
 31
0.0
210
0.0
220
0.0
230
1.0
 40
0.2649452246
 41
0.4265913240725547
 42
2.414494921006882
  0
ELLIPSE
  5
D4
330
1F
100
AcDbEntity
  8
0
  6
Continuous
 62
     7
370
    15
100
AcDbEllipse
 10
203.6859235081
 20
137.1260230959
 30
0.0
 11
0.1164374532819181
 21
2.987911037318241
 31
0.0
210
0.0
220
0.0
230
1.0
 40
0.240361677
 41
5.464473231300293
 42
10.56495024227894
  0
SPLINE
  5
D5
330
1F
100
AcDbEntity
  8
0
  6
Continuous
 62
     7
370
    15
100
AcDbSpline
210
0.0
220
0.0
230
1.0
 70
     8
 71
     3
 72
    14
 73
    10
 74
     0
 42
0.00000001
 43
0.00000001
 12
1.0
 22
0.0
 32
0.0
 13
1.0
 23
0.0
 33
0.0
 40
0.0
 40
0.0
 40
0.0
 40
0.0
 40
0.25
 40
0.25
 40
0.5
 40
0.5
 40
0.75
 40
0.75
 40
1.0
 40
1.0
 40
1.0
 40
1.0
 10
209.458315707632
 20
113.240659388103
 30
0.0
 10
208.8205505736931
 20
113.2727742744518
 30
0.0
 10
208.2124815114108
 20
113.3512963760462
 30
0.0
 10
207.0552434808392
 20
113.6145933075485
 30
0.0
 10
206.5372844835727
 20
113.7928725898686
 30
0.0
 10
205.6213091662671
 20
114.2619608529302
 30
0.0
 10
205.2453771543494
 20
114.542201097334
 30
0.0
 10
204.6444899845648
 20
115.2050817677607
 30
0.0
 10
204.4302829161476
 20
115.5764339372761
 30
0.0
 10
204.2899315295035
 20
115.9868345926263
 30
0.0
  0
ELLIPSE
  5
D6
330
1F
100
AcDbEntity
  8
0
  6
Continuous
 62
     7
370
    15
100
AcDbEllipse
 10
271.2390655965
 20
131.0693965478
 30
0.0
 11
190.2870637919094
 21
-2.81393529868373
 31
0.0
210
0.0
220
0.0
230
1.0
 40
0.1040588589
 41
4.383264002517432
 42
4.399327322519773
  0
LINE
  5
D7
330
1F
100
AcDbEntity
  8
0
  6
Continuous
 62
     7
370
    15
100
AcDbLine
 10
212.3572199976
 20
150.7640172912
 30
0.0
 11
212.3572199976
 21
151.0693961007
 31
0.0
  0
LINE
  5
D8
330
1F
100
AcDbEntity
  8
0
  6
Continuous
 62
     7
370
    15
100
AcDbLine
 10
212.3572199976
 20
111.0693969948
 30
0.0
 11
212.3572199976
 21
113.0973854286
 31
0.0
  0
ELLIPSE
  5
D9
330
1F
100
AcDbEntity
  8
0
  6
Continuous
 62
     7
370
    15
100
AcDbEllipse
 10
271.2390655965
 20
131.0693965478
 30
0.0
 11
190.2870637919094
 21
-2.81393529868373
 31
0.0
210
0.0
220
0.0
230
1.0
 40
0.1040588589
 41
1.886935594448542
 42
1.902998914450884
  0
SPLINE
  5
DA
330
1F
100
AcDbEntity
  8
0
  6
Continuous
 62
     7
370
    15
100
AcDbSpline
210
0.0
220
0.0
230
1.0
 70
     8
 71
     3
 72
    20
 73
    16
 74
     0
 42
0.00000001
 43
0.00000001
 12
1.0
 22
0.0
 32
0.0
 13
1.0
 23
0.0
 33
0.0
 40
0.0
 40
0.0
 40
0.0
 40
0.0
 40
0.2500000000000022
 40
0.2500000000000022
 40
0.3750000000000018
 40
0.3750000000000018
 40
0.5000000000000014
 40
0.5000000000000014
 40
0.6250000000000011
 40
0.6250000000000011
 40
0.7500000000000007
 40
0.7500000000000007
 40
0.8750000000000003
 40
0.8750000000000003
 40
1.0
 40
1.0
 40
1.0
 40
1.0
 10
204.2899315295035
 20
149.1880574365119
 30
0.0
 10
204.4303412163193
 20
149.452770680023
 30
0.0
 10
204.6431976846494
 20
149.6782480874491
 30
0.0
 10
205.0911388722579
 20
149.9661995409903
 30
0.0
 10
205.2625609336128
 20
150.0535211740821
 30
0.0
 10
205.6394646395377
 20
150.2074584879877
 30
0.0
 10
205.8461771476669
 20
150.274993597333
 30
0.0
 10
206.2978391296572
 20
150.3940996622753
 30
0.0
 10
206.5455732460921
 20
150.4460702547217
 30
0.0
 10
207.066544773559
 20
150.5336101836234
 30
0.0
 10
207.3394874444672
 20
150.569437536302
 30
0.0
 10
207.9101852046784
 20
150.6284912777664
 30
0.0
 10
208.2101382056311
 20
150.6518272148195
 30
0.0
 10
208.825631442836
 20
150.6869910446668
 30
0.0
 10
209.1390875804909
 20
150.6988163676573
 30
0.0
 10
209.458315707632
 20
150.7055520763556
 30
0.0
  0
SPLINE
  5
DB
330
1F
100
AcDbEntity
  8
0
  6
Continuous
 62
     7
370
    15
100
AcDbSpline
210
0.0
220
0.0
230
1.0
 70
     8
 71
     3
 72
    18
 73
    14
 74
     0
 42
0.00000001
 43
0.00000001
 12
1.0
 22
0.0
 32
0.0
 13
1.0
 23
0.0
 33
0.0
 40
0.0
 40
0.0
 40
0.0
 40
0.0
 40
0.1249999999999993
 40
0.1249999999999993
 40
0.2499999999999993
 40
0.2499999999999993
 40
0.3749999999999992
 40
0.3749999999999992
 40
0.4999999999999992
 40
0.4999999999999992
 40
0.7499999999999996
 40
0.7499999999999996
 40
1.0
 40
1.0
 40
1.0
 40
1.0
 10
204.2899315295035
 20
139.1468132322931
 30
0.0
 10
204.3134931573905
 20
139.0189509165087
 30
0.0
 10
204.3355532669619
 20
138.8860493600983
 30
0.0
 10
204.3741887911075
 20
138.610620252761
 30
0.0
 10
204.3908707268047
 20
138.4668364120529
 30
0.0
 10
204.4164534959715
 20
138.1756739804982
 30
0.0
 10
204.4253009745229
 20
138.0298145678143
 30
0.0
 10
204.4353116291472
 20
137.7375726000323
 30
0.0
 10
204.4364384587093
 20
137.5901538961938
 30
0.0
 10
204.4294846410314
 20
137.1582574423933
 30
0.0
 10
204.4114935469907
 20
136.8817678107235
 30
0.0
 10
204.3594736647828
 20
136.3467218883133
 30
0.0
 10
204.3257462799553
 20
136.0920382963709
 30
0.0
 10
204.2899315295035
 20
135.8533235857616
 30
0.0
  0
LINE
  5
DC
330
1F
100
AcDbEntity
  8
0
  6
Continuous
 62
     7
370
    15
100
AcDbLine
 10
224.8850806987
 20
149.1314944995
 30
0.0
 11
225.5385115182
 21
156.5588106585
 31
0.0
  0
LINE
  5
DD
330
1F
100
AcDbEntity
  8
0
  6
Continuous
 62
     7
370
    15
100
AcDbLine
 10
223.5884263551
 20
149.0375054253
 30
0.0
 11
224.8850806987
 21
149.1314944995
 31
0.0
  0
ARC
  5
DE
330
1F
100
AcDbEntity
  8
0
  6
Continuous
 62
     7
370
    15
100
AcDbCircle
 10
223.7891107675
 20
146.7159870964
 30
0.0
 40
2.33017629910039
100
AcDbArc
 50
94.9406699871
 51
275.0891146474
  0
LINE
  5
DF
330
1F
100
AcDbEntity
  8
0
  6
Continuous
 62
     7
370
    15
100
AcDbLine
 10
236.241851691
 20
145.2826717121
 30
0.0
 11
223.995809201
 21
144.3949965013
 31
0.0
  0
LINE
  5
E0
330
1F
100
AcDbEntity
  8
0
  6
Continuous
 62
     7
370
    15
100
AcDbLine
 10
235.4372932947
 20
136.1376423573
 30
0.0
 11
236.241851691
 21
145.2826717121
 31
0.0
  0
LINE
  5
E1
330
1F
100
AcDbEntity
  8
0
  6
Continuous
 62
     7
370
    15
100
AcDbLine
 10
218.497697953
 20
112.2966566307
 30
0.0
 11
235.4372932947
 21
136.1376423573
 31
0.0
  0
ELLIPSE
  5
E2
330
1F
100
AcDbEntity
  8
0
  6
Continuous
 62
     7
370
    15
100
AcDbEllipse
 10
271.2390655965
 20
131.0693965478
 30
0.0
 11
195.0442403867071
 21
-2.884283681150805
 31
0.0
210
0.0
220
0.0
230
1.0
 40
0.1040588589
 41
4.409941788983812
 42
4.440112148992446
  0
SPLINE
  5
E3
330
1F
100
AcDbEntity
  8
0
  6
Continuous
 62
     7
370
    15
100
AcDbSpline
210
0.0
220
0.0
230
1.0
 70
     8
 71
     3
 72
     8
 73
     4
 74
     0
 42
0.00000001
 43
0.00000001
 12
1.0
 22
0.0
 32
0.0
 13
1.0
 23
0.0
 33
0.0
 40
0.0
 40
0.0
 40
0.0
 40
0.0
 40
1.0
 40
1.0
 40
1.0
 40
1.0
 10
212.8572199380378
 20
112.5536504468292
 30
0.0
 10
212.6903596657226
 20
112.7347157954989
 30
0.0
 10
212.5236879527637
 20
112.9159561416795
 30
0.0
 10
212.357219938038
 20
113.0973855354069
 30
0.0
  0
SPLINE
  5
E4
330
1F
100
AcDbEntity
  8
0
  6
Continuous
 62
     7
370
    15
100
AcDbSpline
210
0.0
220
0.0
230
1.0
 70
     8
 71
     3
 72
     8
 73
     4
 74
     0
 42
0.00000001
 43
0.00000001
 12
1.0
 22
0.0
 32
0.0
 13
1.0
 23
0.0
 33
0.0
 40
0.0
 40
0.0
 40
0.0
 40
0.0
 40
1.0
 40
1.0
 40
1.0
 40
1.0
 10
212.357219938038
 20
150.7640174285841
 30
0.0
 10
213.9144277474412
 20
152.4156232265491
 30
0.0
 10
215.4887865186949
 20
154.0508098619234
 30
0.0
 10
217.0718614007002
 20
155.6776522865861
 30
0.0
  0
ELLIPSE
  5
E5
330
1F
100
AcDbEntity
  8
0
  6
Continuous
 62
     7
370
    15
100
AcDbEllipse
 10
249.8623168106
 20
132.9824867519
 30
0.0
 11
217.1628490301413
 21
19.44089462863735
 31
0.0
210
0.0
220
0.0
230
1.0
 40
0.1182598878
 41
1.672446263155184
 42
1.711775786279167
  0
CIRCLE
  5
E6
330
1F
100
AcDbEntity
  8
0
  6
Continuous
 62
     7
370
    15
100
AcDbCircle
 10
226.9612360165
 20
139.3478226165
 30
0.0
 40
3.968709312867701
  0
ELLIPSE
  5
E7
330
1F
100
AcDbEntity
  8
0
  6
Continuous
 62
     7
370
    15
100
AcDbEllipse
 10
231.8106937124
 20
131.0693965478
 30
0.0
 11
14.59302442225288
 21
20.49991501975643
 31
0.0
210
0.0
220
0.0
230
1.0
 40
0.0040448756
 41
3.144472021887485
 42
3.55791399833323
  0
LINE
  5
E8
330
1F
100
AcDbEntity
  8
0
  6
Continuous
 62
     7
370
    15
100
AcDbLine
 10
212.8572210109
 20
112.5536513699
 30
0.0
 11
212.8572210109
 21
110.5693959815
 31
0.0
  0
LINE
  5
E9
330
1F
100
AcDbEntity
  8
0
  6
Continuous
 62
     7
370
    15
100
AcDbLine
 10
216.8723612463
 20
155.5052352322
 30
0.0
 11
216.9723182356
 21
155.6559697909
 31
0.0
  0
LINE
  5
EA
330
1F
100
AcDbEntity
  8
0
  6
Continuous
 62
     7
370
    15
100
AcDbLine
 10
217.0456990039
 20
155.6719531489
 30
0.0
 11
217.0718579924
 21
155.6776528431
 31
0.0
  0
ARC
  5
EB
330
1F
100
AcDbEntity
  8
0
  6
Continuous
 62
     7
370
    15
100
AcDbCircle
 10
223.2587899857
 20
146.0904873726
 30
0.0
 40
2.302169444476061
100
AcDbArc
 50
94.0263520882
 51
132.6006872269
  0
LINE
  5
EC
330
1F
100
AcDbEntity
  8
0
  6
Continuous
 62
     7
370
    15
100
AcDbLine
 10
224.3937894142
 20
148.4809638185
 30
0.0
 11
224.8850806987
 21
149.1314944995
 31
0.0
  0
LINE
  5
ED
330
1F
100
AcDbEntity
  8
0
  6
Continuous
 62
     7
370
    15
100
AcDbLine
 10
224.3937894142
 20
148.4809638185
 30
0.0
 11
224.4160964525
 21
148.4825805945
 31
0.0
  0
LINE
  5
EE
330
1F
100
AcDbEntity
  8
0
  6
Continuous
 62
     7
370
    15
100
AcDbLine
 10
224.3820472991
 20
148.0954614652
 30
0.0
 11
222.7898284233
 21
147.9800463838
 31
0.0
  0
ARC
  5
EF
330
1F
100
AcDbEntity
  8
0
  6
Continuous
 62
     7
370
    15
100
AcDbCircle
 10
223.2405467375
 20
146.3381810405
 30
0.0
 40
2.053806322426588
100
AcDbArc
 50
94.0038572757
 51
142.8585399665
  0
ARC
  5
F0
330
1F
100
AcDbEntity
  8
0
  6
Continuous
 62
     7
370
    15
100
AcDbCircle
 10
222.9344356384
 20
145.9273935465
 30
0.0
 40
2.057740245311972
100
AcDbArc
 50
94.02976904
 51
131.5701133553
  0
LINE
  5
F1
330
1F
100
AcDbEntity
  8
0
  6
Continuous
 62
     7
370
    15
100
AcDbLine
 10
230.056990627
 20
152.5369798017
 30
0.0
 11
229.9169048107
 21
152.5388592107
 31
0.0
  0
LINE
  5
F2
330
1F
100
AcDbEntity
  8
0
  6
HIDDEN
 62
     7
370
     0
100
AcDbLine
 10
120.3572198188
 20
161.5693968905
 30
0.0
 11
120.3572198188
 21
100.569396205
 31
0.0
  0
SPLINE
  5
F3
330
1F
100
AcDbEntity
  8
0
  6
HIDDEN
 62
     7
370
     0
100
AcDbSpline
210
0.0
220
0.0
230
1.0
 70
     8
 71
     3
 72
    60
 73
    56
 74
     0
 42
0.00000001
 43
0.00000001
 12
1.0
 22
0.0
 32
0.0
 13
1.0
 23
0.0
 33
0.0
 40
-0.0624999999999999
 40
-0.0624999999999999
 40
0.0
 40
0.0
 40
0.0312500000000001
 40
0.0312500000000001
 40
0.0625000000000002
 40
0.0625000000000002
 40
0.0937500000000003
 40
0.0937500000000003
 40
0.1250000000000004
 40
0.1250000000000004
 40
0.1875000000000004
 40
0.1875000000000004
 40
0.2500000000000003
 40
0.2500000000000003
 40
0.2812500000000003
 40
0.2812500000000003
 40
0.3125000000000002
 40
0.3125000000000002
 40
0.3437500000000002
 40
0.3437500000000002
 40
0.3750000000000002
 40
0.3750000000000002
 40
0.4062500000000003
 40
0.4062500000000003
 40
0.4375000000000003
 40
0.4375000000000003
 40
0.4687500000000003
 40
0.4687500000000003
 40
0.5000000000000002
 40
0.5000000000000002
 40
0.5625000000000001
 40
0.5625000000000001
 40
0.625
 40
0.625
 40
0.65625
 40
0.65625
 40
0.6875
 40
0.6875
 40
0.71875
 40
0.71875
 40
0.75
 40
0.75
 40
0.7812500000000001
 40
0.7812500000000001
 40
0.8125000000000001
 40
0.8125000000000001
 40
0.8437500000000001
 40
0.8437500000000001
 40
0.8750000000000001
 40
0.8750000000000001
 40
0.9062500000000001
 40
0.9062500000000001
 40
0.9375000000000001
 40
0.9375000000000001
 40
1.0
 40
1.0
 40
1.03125
 40
1.03125
 10
110.6215504850969
 20
129.0693965477604
 30
0.0
 10
110.2250546645085
 20
129.0693965477604
 30
0.0
 10
110.0951046211294
 20
129.0823684078962
 30
0.0
 10
109.8394517620862
 20
129.1331885568819
 30
0.0
 10
109.7124223126906
 20
129.1716558592934
 30
0.0
 10
109.4702343516008
 20
129.2720539906029
 30
0.0
 10
109.3553729288761
 20
129.3334869526679
 30
0.0
 10
109.1379927936182
 20
129.4786216666377
 30
0.0
 10
109.0350952584934
 20
129.5630767042373
 30
0.0
 10
108.7584281766328
 20
129.8397960188601
 30
0.0
 10
108.6094298506567
 20
130.0628730752165
 30
0.0
 10
108.4099185088061
 20
130.5441567605762
 30
0.0
 10
108.3573604075944
 20
130.8073872334442
 30
0.0
 10
108.3571501361771
 20
131.1987895276995
 30
0.0
 10
108.3701359153752
 20
131.3313125647817
 30
0.0
 10
108.4211630804801
 20
131.5878430323634
 30
0.0
 10
108.4589182991511
 20
131.7125299143908
 30
0.0
 10
108.5590567171368
 20
131.9547093006746
 30
0.0
 10
108.6216624736417
 20
132.0718029460509
 30
0.0
 10
108.7663959087574
 20
132.2885180377763
 30
0.0
 10
108.8490233123721
 20
132.3895368579682
 30
0.0
 10
109.0356283694827
 20
132.5763216375472
 30
0.0
 10
109.1367434923894
 20
132.6591785150959
 30
0.0
 10
109.353276218262
 20
132.8040626440367
 30
0.0
 10
109.4701463258996
 20
132.8667000666226
 30
0.0
 10
109.7124440413491
 20
132.9671487906297
 30
0.0
 10
109.8371079588147
 20
133.004999861212
 30
0.0
 10
110.0933948796504
 20
133.0562214007717
 30
0.0
 10
110.2259668936929
 20
133.0693495364761
 30
0.0
 10
110.6175710927559
 20
133.0694901833506
 30
0.0
 10
110.8807363202861
 20
133.0171654486483
 30
0.0
 10
111.3622414837846
 20
132.8180545435771
 30
0.0
 10
111.585492832468
 20
132.6691924394215
 30
0.0
 10
111.8623492332731
 20
132.3928715585433
 30
0.0
 10
111.9468627625369
 20
132.2901078799996
 30
0.0
 10
112.0922801653297
 20
132.0727242478707
 30
0.0
 10
112.1537914346826
 20
131.9579254065089
 30
0.0
 10
112.2543213869712
 20
131.7160485158549
 30
0.0
 10
112.2929664340709
 20
131.5888948458507
 30
0.0
 10
112.344022786542
 20
131.3332287288887
 30
0.0
 10
112.357087644562
 20
131.203362646021
 30
0.0
 10
112.3573502518505
 20
130.9394100605829
 30
0.0
 10
112.3444732532502
 20
130.8090058155879
 30
0.0
 10
112.2938872265954
 20
130.5533549935663
 30
0.0
 10
112.2556108332059
 20
130.4264893719611
 30
0.0
 10
112.1553398657856
 20
130.1839687681038
 30
0.0
 10
112.093983776067
 20
130.0690420677577
 30
0.0
 10
111.9491373687267
 20
129.8516705487704
 30
0.0
 10
111.8647597785263
 20
129.7486567081872
 30
0.0
 10
111.680352362327
 20
129.5639561861749
 30
0.0
 10
111.5797792997934
 20
129.4811265180913
 30
0.0
 10
111.3615532839994
 20
129.3348742474278
 30
0.0
 10
111.2449982450876
 20
129.272505833375
 30
0.0
 10
110.8841488920339
 20
129.1225498344597
 30
0.0
 10
110.6215504850969
 20
129.0693965477604
 30
0.0
 10
110.2250546645085
 20
129.0693965477604
 30
0.0
  0
SPLINE
  5
F4
330
1F
100
AcDbEntity
  8
0
  6
HIDDEN
 62
     7
370
     0
100
AcDbSpline
210
0.0
220
0.0
230
1.0
 70
     8
 71
     3
 72
    12
 73
     8
 74
     0
 42
0.00000001
 43
0.00000001
 12
1.0
 22
0.0
 32
0.0
 13
1.0
 23
0.0
 33
0.0
 40
0.0
 40
0.0
 40
0.0
 40
0.0
 40
0.2499999999999977
 40
0.2499999999999977
 40
0.4999999999999953
 40
0.4999999999999953
 40
1.0
 40
1.0
 40
1.0
 40
1.0
 10
108.8849767516045
 20
121.6813301164243
 30
0.0
 10
108.8218967131111
 20
121.6813301164243
 30
0.0
 10
108.7627480909297
 20
121.6559657972094
 30
0.0
 10
108.6642755408606
 20
121.5818009368365
 30
0.0
 10
108.6252389288759
 20
121.5352805962823
 30
0.0
 10
108.5253424620968
 20
121.3851382534371
 30
0.0
 10
108.4829215810302
 20
121.2734450464649
 30
0.0
 10
108.4519640497122
 20
121.1600272270752
 30
0.0
  0
LINE
  5
F5
330
1F
100
AcDbEntity
  8
0
  6
HIDDEN
 62
     7
370
     0
100
AcDbLine
 10
111.8294631502
 20
121.6813297195
 30
0.0
 11
108.8849769345
 21
121.6813297195
 31
0.0
  0
SPLINE
  5
F6
330
1F
100
AcDbEntity
  8
0
  6
HIDDEN
 62
     7
370
     0
100
AcDbSpline
210
0.0
220
0.0
230
1.0
 70
     8
 71
     3
 72
    12
 73
     8
 74
     0
 42
0.00000001
 43
0.00000001
 12
1.0
 22
0.0
 32
0.0
 13
1.0
 23
0.0
 33
0.0
 40
0.0
 40
0.0
 40
0.0
 40
0.0
 40
0.4999999999999982
 40
0.4999999999999982
 40
0.7499999999999991
 40
0.7499999999999991
 40
1.0
 40
1.0
 40
1.0
 40
1.0
 10
112.2624758263638
 20
121.1600272270752
 30
0.0
 10
112.2317535844447
 20
121.2725830264844
 30
0.0
 10
112.1889163699096
 20
121.385340886224
 30
0.0
 10
112.0894893457097
 20
121.5348817720203
 30
0.0
 10
112.0497371508931
 20
121.5821745037272
 30
0.0
 10
111.9516956940349
 20
121.6559107970486
 30
0.0
 10
111.8921396384474
 20
121.6813301164243
 30
0.0
 10
111.8294631244716
 20
121.6813301164243
 30
0.0
  0
ELLIPSE
  5
F7
330
1F
100
AcDbEntity
  8
0
  6
HIDDEN
 62
     7
370
     0
100
AcDbEllipse
 10
96.0100657487
 20
131.0693965478
 30
0.0
 11
-14.7536831606561
 21
31.09325491558116
 31
0.0
210
0.0
220
0.0
230
1.0
 40
0.3419987131
 41
3.30073485621713
 42
4.23149622336078
  0
SPLINE
  5
F8
330
1F
100
AcDbEntity
  8
0
  6
HIDDEN
 62
     7
370
     0
100
AcDbSpline
210
0.0
220
0.0
230
1.0
 70
     8
 71
     3
 72
    12
 73
     8
 74
     0
 42
0.00000001
 43
0.00000001
 12
1.0
 22
0.0
 32
0.0
 13
1.0
 23
0.0
 33
0.0
 40
0.0
 40
0.0
 40
0.0
 40
0.0
 40
0.2500000000000004
 40
0.2500000000000004
 40
0.5000000000000009
 40
0.5000000000000009
 40
1.0
 40
1.0
 40
1.0
 40
1.0
 10
111.8294631244716
 20
101.0009045888873
 30
0.0
 10
111.8925431629649
 20
101.0009045888873
 30
0.0
 10
111.9516917851464
 20
101.0088105150997
 30
0.0
 10
112.0501643352154
 20
101.032135676536
 30
0.0
 10
112.0892009472002
 20
101.0468484663677
 30
0.0
 10
112.1890974139792
 20
101.0948042670986
 30
0.0
 10
112.2315182950458
 20
101.1310664236786
 30
0.0
 10
112.2624758263638
 20
101.1686540876431
 30
0.0
  0
LINE
  5
F9
330
1F
100
AcDbEntity
  8
0
  6
HIDDEN
 62
     7
370
     0
100
AcDbLine
 10
108.8849769345
 20
101.0009040309
 30
0.0
 11
111.8294631502
 21
101.0009040309
 31
0.0
  0
SPLINE
  5
FA
330
1F
100
AcDbEntity
  8
0
  6
HIDDEN
 62
     7
370
     0
100
AcDbSpline
210
0.0
220
0.0
230
1.0
 70
     8
 71
     3
 72
    12
 73
     8
 74
     0
 42
0.00000001
 43
0.00000001
 12
1.0
 22
0.0
 32
0.0
 13
1.0
 23
0.0
 33
0.0
 40
0.0
 40
0.0
 40
0.0
 40
0.0
 40
0.5000000000000037
 40
0.5000000000000037
 40
0.7500000000000018
 40
0.7500000000000018
 40
1.0
 40
1.0
 40
1.0
 40
1.0
 10
108.4519640497122
 20
101.1686540876431
 30
0.0
 10
108.4826862916313
 20
101.1313521046901
 30
0.0
 10
108.5255235061665
 20
101.0947402726437
 30
0.0
 10
108.6249505303663
 20
101.0469754893585
 30
0.0
 10
108.6647027251829
 20
101.0320179738761
 30
0.0
 10
108.7627441820411
 20
101.008828028107
 30
0.0
 10
108.8223002376286
 20
101.0009045888873
 30
0.0
 10
108.8849767516045
 20
101.0009045888873
 30
0.0
  0
ELLIPSE
  5
FB
330
1F
100
AcDbEntity
  8
0
  6
HIDDEN
 62
     7
370
     0
100
AcDbEllipse
 10
124.7043741274
 20
131.0693965478
 30
0.0
 11
14.75368316065611
 21
31.09325491558116
 31
0.0
210
0.0
220
0.0
230
1.0
 40
0.3419987131
 41
2.05168908381882
 42
2.982450450962497
  0
SPLINE
  5
FC
330
1F
100
AcDbEntity
  8
0
  6
HIDDEN
 62
     7
370
     0
100
AcDbSpline
210
0.0
220
0.0
230
1.0
 70
     8
 71
     3
 72
    12
 73
     8
 74
     0
 42
0.00000001
 43
0.00000001
 12
1.0
 22
0.0
 32
0.0
 13
1.0
 23
0.0
 33
0.0
 40
0.0
 40
0.0
 40
0.0
 40
0.0
 40
0.2499999999999991
 40
0.2499999999999991
 40
0.4999999999999981
 40
0.4999999999999981
 40
1.0
 40
1.0
 40
1.0
 40
1.0
 10
108.8849767516045
 20
161.1378885066336
 30
0.0
 10
108.8218967131111
 20
161.1378885066336
 30
0.0
 10
108.7627480909297
 20
161.1299825804212
 30
0.0
 10
108.6642755408606
 20
161.1066574189849
 30
0.0
 10
108.6252389288759
 20
161.0919446291532
 30
0.0
 10
108.5253424620968
 20
161.0439888284223
 30
0.0
 10
108.4829215810302
 20
161.0077266718422
 30
0.0
 10
108.4519640497122
 20
160.9701390078777
 30
0.0
  0
LINE
  5
FD
330
1F
100
AcDbEntity
  8
0
  6
HIDDEN
 62
     7
370
     0
100
AcDbLine
 10
111.8294631502
 20
161.1378890646
 30
0.0
 11
108.8849769345
 21
161.1378890646
 31
0.0
  0
SPLINE
  5
FE
330
1F
100
AcDbEntity
  8
0
  6
HIDDEN
 62
     7
370
     0
100
AcDbSpline
210
0.0
220
0.0
230
1.0
 70
     8
 71
     3
 72
    12
 73
     8
 74
     0
 42
0.00000001
 43
0.00000001
 12
1.0
 22
0.0
 32
0.0
 13
1.0
 23
0.0
 33
0.0
 40
0.0
 40
0.0
 40
0.0
 40
0.0
 40
0.5
 40
0.5
 40
0.75
 40
0.75
 40
1.0
 40
1.0
 40
1.0
 40
1.0
 10
112.2624758263638
 20
160.9701390078777
 30
0.0
 10
112.2317535844447
 20
161.0074409908308
 30
0.0
 10
112.1889163699095
 20
161.0440528228771
 30
0.0
 10
112.0894893457097
 20
161.0918176061624
 30
0.0
 10
112.0497371508931
 20
161.1067751216447
 30
0.0
 10
111.9516956940349
 20
161.1299650674139
 30
0.0
 10
111.8921396384474
 20
161.1378885066336
 30
0.0
 10
111.8294631244716
 20
161.1378885066336
 30
0.0
  0
ELLIPSE
  5
FF
330
1F
100
AcDbEntity
  8
0
  6
HIDDEN
 62
     7
370
     0
100
AcDbEllipse
 10
96.0100657487
 20
131.0693965478
 30
0.0
 11
14.75368316065627
 21
31.09325491558116
 31
0.0
210
0.0
220
0.0
230
1.0
 40
0.3419987131
 41
5.193281737408638
 42
6.124043104552346
  0
SPLINE
  5
100
330
1F
100
AcDbEntity
  8
0
  6
HIDDEN
 62
     7
370
     0
100
AcDbSpline
210
0.0
220
0.0
230
1.0
 70
     8
 71
     3
 72
    12
 73
     8
 74
     0
 42
0.00000001
 43
0.00000001
 12
1.0
 22
0.0
 32
0.0
 13
1.0
 23
0.0
 33
0.0
 40
0.0
 40
0.0
 40
0.0
 40
0.0
 40
0.2500000000000018
 40
0.2500000000000018
 40
0.5000000000000037
 40
0.5000000000000037
 40
1.0
 40
1.0
 40
1.0
 40
1.0
 10
111.8294631244716
 20
140.4574629790968
 30
0.0
 10
111.8925431629649
 20
140.4574629790968
 30
0.0
 10
111.9516917851463
 20
140.4828272983118
 30
0.0
 10
112.0501643352154
 20
140.5569921586847
 30
0.0
 10
112.0892009472001
 20
140.6035124992388
 30
0.0
 10
112.1890974139792
 20
140.7536548420841
 30
0.0
 10
112.2315182950458
 20
140.8653480490562
 30
0.0
 10
112.2624758263638
 20
140.978765868446
 30
0.0
  0
LINE
  5
101
330
1F
100
AcDbEntity
  8
0
  6
HIDDEN
 62
     7
370
     0
100
AcDbLine
 10
108.8849769345
 20
140.457463376
 30
0.0
 11
111.8294631502
 21
140.457463376
 31
0.0
  0
SPLINE
  5
102
330
1F
100
AcDbEntity
  8
0
  6
HIDDEN
 62
     7
370
     0
100
AcDbSpline
210
0.0
220
0.0
230
1.0
 70
     8
 71
     3
 72
    12
 73
     8
 74
     0
 42
0.00000001
 43
0.00000001
 12
1.0
 22
0.0
 32
0.0
 13
1.0
 23
0.0
 33
0.0
 40
0.0
 40
0.0
 40
0.0
 40
0.0
 40
0.5000000000000047
 40
0.5000000000000047
 40
0.7500000000000023
 40
0.7500000000000023
 40
1.0
 40
1.0
 40
1.0
 40
1.0
 10
108.4519640497122
 20
140.978765868446
 30
0.0
 10
108.4826862916313
 20
140.8662100690368
 30
0.0
 10
108.5255235061665
 20
140.7534522092972
 30
0.0
 10
108.6249505303662
 20
140.6039113235009
 30
0.0
 10
108.6647027251829
 20
140.556618591794
 30
0.0
 10
108.7627441820411
 20
140.4828822984725
 30
0.0
 10
108.8223002376286
 20
140.4574629790969
 30
0.0
 10
108.8849767516044
 20
140.4574629790969
 30
0.0
  0
ELLIPSE
  5
103
330
1F
100
AcDbEntity
  8
0
  6
HIDDEN
 62
     7
370
     0
100
AcDbEllipse
 10
124.7043741274
 20
131.0693965478
 30
0.0
 11
-14.75368316065626
 21
31.09325491558118
 31
0.0
210
0.0
220
0.0
230
1.0
 40
0.3419987131
 41
0.1591422026272824
 42
1.089903569770961
  0
LINE
  5
104
330
1F
100
AcDbEntity
  8
0
  6
HIDDEN
 62
     7
370
     0
100
AcDbLine
 10
98.357219938
 20
162.0693960411
 30
0.0
 11
98.357219938
 21
100.0693970544
 31
0.0
  0
LINE
  5
105
330
1F
100
AcDbEntity
  8
0
  6
HIDDEN
 62
     7
370
     0
100
AcDbLine
 10
98.357219938
 20
106.8193958325
 30
0.0
 11
98.357219938
 21
155.2942664547
 31
0.0
  0
SPLINE
  5
106
330
1F
100
AcDbEntity
  8
0
  6
HIDDEN
 62
     7
370
     0
100
AcDbSpline
210
0.0
220
0.0
230
1.0
 70
     8
 71
     3
 72
    12
 73
     8
 74
     0
 42
0.00000001
 43
0.00000001
 12
1.0
 22
0.0
 32
0.0
 13
1.0
 23
0.0
 33
0.0
 40
0.0
 40
0.0
 40
0.0
 40
0.0
 40
0.4999999999999998
 40
0.4999999999999998
 40
0.7499999999999997
 40
0.7499999999999997
 40
1.0
 40
1.0
 40
1.0
 40
1.0
 10
97.540707651591
 20
146.5216645295912
 30
0.0
 10
97.59711383027125
 20
146.4738421559314
 30
0.0
 10
97.66727673174303
 20
146.4335713089929
 30
0.0
 10
97.7852874451322
 20
146.4255254405159
 30
0.0
 10
97.82549322872767
 20
146.4320880388548
 30
0.0
 10
97.89921392546071
 20
146.4594701333084
 30
0.0
 10
97.93207464724723
 20
146.4792316238388
 30
0.0
 10
97.96224304917651
 20
146.5021643350268
 30
0.0
  0
SPLINE
  5
107
330
1F
100
AcDbEntity
  8
0
  6
HIDDEN
 62
     7
370
     0
100
AcDbSpline
210
0.0
220
0.0
230
1.0
 70
     8
 71
     3
 72
    16
 73
    12
 74
     0
 42
0.00000001
 43
0.00000001
 12
1.0
 22
0.0
 32
0.0
 13
1.0
 23
0.0
 33
0.0
 40
0.0
 40
0.0
 40
0.0
 40
0.0
 40
0.0625000000000024
 40
0.0625000000000024
 40
0.1250000000000049
 40
0.1250000000000049
 40
0.2500000000000078
 40
0.2500000000000078
 40
0.5000000000000034
 40
0.5000000000000034
 40
1.0
 40
1.0
 40
1.0
 40
1.0
 10
97.96224304913137
 20
146.5021643350748
 30
0.0
 10
97.97385594897074
 20
146.5109919580563
 30
0.0
 10
97.98720713340323
 20
146.5188263399382
 30
0.0
 10
98.01660697302238
 20
146.5271364660105
 30
0.0
 10
98.03144769757763
 20
146.5266406467755
 30
0.0
 10
98.06728090554626
 20
146.5151896758061
 30
0.0
 10
98.08139411336786
 20
146.4985091749475
 30
0.0
 10
98.11588548458674
 20
146.4463884891905
 30
0.0
 10
98.12696955569714
 20
146.4065989951654
 30
0.0
 10
98.15309237349315
 20
146.2832623630684
 30
0.0
 10
98.15721993803803
 20
146.1958409525697
 30
0.0
 10
98.15721993803803
 20
146.1071037102515
 30
0.0
  0
LINE
  5
108
330
1F
100
AcDbEntity
  8
0
  6
HIDDEN
 62
     7
370
     0
100
AcDbLine
 10
98.1572199431
 20
116.0316894946
 30
0.0
 11
98.1572199431
 21
146.1071036009
 31
0.0
  0
SPLINE
  5
109
330
1F
100
AcDbEntity
  8
0
  6
HIDDEN
 62
     7
370
     0
100
AcDbSpline
210
0.0
220
0.0
230
1.0
 70
     8
 71
     3
 72
    16
 73
    12
 74
     0
 42
0.00000001
 43
0.00000001
 12
1.0
 22
0.0
 32
0.0
 13
1.0
 23
0.0
 33
0.0
 40
0.0
 40
0.0
 40
0.0
 40
0.0
 40
0.5000000000000024
 40
0.5000000000000024
 40
0.7500000000000012
 40
0.7500000000000012
 40
0.8750000000000006
 40
0.8750000000000006
 40
0.9375000000000003
 40
0.9375000000000003
 40
1.0
 40
1.0
 40
1.0
 40
1.0
 10
98.15721993803803
 20
116.0316893852693
 30
0.0
 10
98.15721993803803
 20
115.9425630200805
 30
0.0
 10
98.15307366296008
 20
115.8557016524671
 30
0.0
 10
98.12710806756652
 20
115.7327194059731
 30
0.0
 10
98.11564716218909
 20
115.6919481107418
 30
0.0
 10
98.08133542441476
 20
115.640243790742
 30
0.0
 10
98.0673106884851
 20
115.6235734241516
 30
0.0
 10
98.03128772545134
 20
115.6121212036949
 30
0.0
 10
98.01653321636161
 20
115.6116681574199
 30
0.0
 10
97.98718105521479
 20
115.619983478636
 30
0.0
 10
97.97384118071074
 20
115.6278123637143
 30
0.0
 10
97.96224304916237
 20
115.6366287604769
 30
0.0
  0
SPLINE
  5
10A
330
1F
100
AcDbEntity
  8
0
  6
HIDDEN
 62
     7
370
     0
100
AcDbSpline
210
0.0
220
0.0
230
1.0
 70
     8
 71
     3
 72
    12
 73
     8
 74
     0
 42
0.00000001
 43
0.00000001
 12
1.0
 22
0.0
 32
0.0
 13
1.0
 23
0.0
 33
0.0
 40
0.0
 40
0.0
 40
0.0
 40
0.0
 40
0.2500000000000002
 40
0.2500000000000002
 40
0.5000000000000003
 40
0.5000000000000003
 40
1.0
 40
1.0
 40
1.0
 40
1.0
 10
97.96224304916944
 20
115.6366287604858
 30
0.0
 10
97.93205120745225
 20
115.6595792895836
 30
0.0
 10
97.8986922380376
 20
115.6795487636078
 30
0.0
 10
97.825554953457
 20
115.7066498972333
 30
0.0
 10
97.78531308080305
 20
115.7132506378787
 30
0.0
 10
97.66760730383454
 20
115.705281763372
 30
0.0
 10
97.59719682605514
 20
115.6650213052041
 30
0.0
 10
97.54070765158684
 20
115.617128565926
 30
0.0
  0
SPLINE
  5
10B
330
1F
100
AcDbEntity
  8
0
  6
HIDDEN
 62
     7
370
     0
100
AcDbSpline
210
0.0
220
0.0
230
1.0
 70
     8
 71
     3
 72
    12
 73
     8
 74
     0
 42
0.00000001
 43
0.00000001
 12
1.0
 22
0.0
 32
0.0
 13
1.0
 23
0.0
 33
0.0
 40
0.0
 40
0.0
 40
0.0
 40
0.0
 40
0.2499999999999994
 40
0.2499999999999994
 40
0.4999999999999989
 40
0.4999999999999989
 40
1.0
 40
1.0
 40
1.0
 40
1.0
 10
97.54070765158652
 20
115.6171285659262
 30
0.0
 10
97.45255371384877
 20
115.5423897580721
 30
0.0
 10
97.39220028922004
 20
115.4514092575897
 30
0.0
 10
97.28593833115322
 20
115.2624954348371
 30
0.0
 10
97.24370616459113
 20
115.1659909752966
 30
0.0
 10
97.13263546927398
 20
114.8752232211294
 30
0.0
 10
97.07969869284719
 20
114.6795564065857
 30
0.0
 10
97.0358995944784
 20
114.4854899215194
 30
0.0
  0
SPLINE
  5
10C
330
1F
100
AcDbEntity
  8
0
  6
HIDDEN
 62
     7
370
     0
100
AcDbSpline
210
0.0
220
0.0
230
1.0
 70
     8
 71
     3
 72
    12
 73
     8
 74
     0
 42
0.00000001
 43
0.00000001
 12
1.0
 22
0.0
 32
0.0
 13
1.0
 23
0.0
 33
0.0
 40
0.0
 40
0.0
 40
0.0
 40
0.0
 40
0.5
 40
0.5
 40
0.75
 40
0.75
 40
1.0
 40
1.0
 40
1.0
 40
1.0
 10
97.0358995944784
 20
109.2993155927583
 30
0.0
 10
97.07964613531497
 20
109.2727214221171
 30
0.0
 10
97.13253049054649
 20
109.2529611967914
 30
0.0
 10
97.24409757788266
 20
109.2325102065623
 30
0.0
 10
97.28668117442562
 20
109.2272499819058
 30
0.0
 10
97.39159790150742
 20
109.2193671879832
 30
0.0
 10
97.4531315093522
 20
109.216803062804
 30
0.0
 10
97.54070765157833
 20
109.2146028452844
 30
0.0
  0
LINE
  5
10D
330
1F
100
AcDbEntity
  8
0
  6
HIDDEN
 62
     7
370
     0
100
AcDbLine
 10
98.1572199431
 20
108.5295760257
 30
0.0
 11
98.1572199431
 21
109.0098013354
 31
0.0
  0
LINE
  5
10E
330
1F
100
AcDbEntity
  8
0
  6
HIDDEN
 62
     7
370
     0
100
AcDbLine
 10
98.1572199431
 20
153.1289917601
 30
0.0
 11
98.1572199431
 21
153.6092170698
 31
0.0
  0
SPLINE
  5
10F
330
1F
100
AcDbEntity
  8
0
  6
HIDDEN
 62
     7
370
     0
100
AcDbSpline
210
0.0
220
0.0
230
1.0
 70
     8
 71
     3
 72
    12
 73
     8
 74
     0
 42
0.00000001
 43
0.00000001
 12
1.0
 22
0.0
 32
0.0
 13
1.0
 23
0.0
 33
0.0
 40
0.0
 40
0.0
 40
0.0
 40
0.0
 40
0.25
 40
0.25
 40
0.5
 40
0.5
 40
1.0
 40
1.0
 40
1.0
 40
1.0
 10
97.5407076515863
 20
152.9241902502363
 30
0.0
 10
97.45202299172995
 20
152.9219621828953
 30
0.0
 10
97.39210457600656
 20
152.9194603988649
 30
0.0
 10
97.28644534868582
 20
152.9115289630289
 30
0.0
 10
97.24380411057088
 20
152.9062368081321
 30
0.0
 10
97.13261476846834
 20
152.885831867645
 30
0.0
 10
97.07968808634737
 20
152.8660971760581
 30
0.0
 10
97.0358995944784
 20
152.8394775027625
 30
0.0
  0
SPLINE
  5
110
330
1F
100
AcDbEntity
  8
0
  6
HIDDEN
 62
     7
370
     0
100
AcDbSpline
210
0.0
220
0.0
230
1.0
 70
     8
 71
     3
 72
    12
 73
     8
 74
     0
 42
0.00000001
 43
0.00000001
 12
1.0
 22
0.0
 32
0.0
 13
1.0
 23
0.0
 33
0.0
 40
0.0
 40
0.0
 40
0.0
 40
0.0
 40
0.4999999999999972
 40
0.4999999999999972
 40
0.7499999999999987
 40
0.7499999999999987
 40
1.0
 40
1.0
 40
1.0
 40
1.0
 10
97.03589959447682
 20
147.6533031740016
 30
0.0
 10
97.07966107077556
 20
147.4594033860395
 30
0.0
 10
97.13256738642859
 20
147.2635470221026
 30
0.0
 10
97.24427858407597
 20
146.9714048756037
 30
0.0
 10
97.28679802766234
 20
146.8746869389058
 30
0.0
 10
97.39192137022975
 20
146.6879625024813
 30
0.0
 10
97.45348733394744
 20
146.5956117942116
 30
0.0
 10
97.54070765159017
 20
146.5216645295919
 30
0.0
  0
LINE
  5
111
330
1F
100
AcDbEntity
  8
0
  6
HIDDEN
 62
     7
370
     0
100
AcDbLine
 10
120.3572198188
 20
107.0693963391
 30
0.0
 11
120.3572198188
 21
155.0693967564
 31
0.0
  0
LINE
  5
112
330
1F
100
AcDbEntity
  8
0
  6
HIDDEN
 62
     7
370
     0
100
AcDbLine
 10
98.1572199431
 20
109.0098013354
 30
0.0
 11
98.1572199431
 21
124.0475093199
 31
0.0
  0
LINE
  5
113
330
1F
100
AcDbEntity
  8
0
  6
HIDDEN
 62
     7
370
     0
100
AcDbLine
 10
98.1572199431
 20
138.0912837757
 30
0.0
 11
98.1572199431
 21
153.1289917601
 31
0.0
  0
LINE
  5
114
330
1F
100
AcDbEntity
  8
0
  6
HIDDEN
 62
     7
370
     0
100
AcDbLine
 10
212.3572199976
 20
151.0693961007
 30
0.0
 11
212.3572199976
 21
111.0693969948
 31
0.0
  0
SPLINE
  5
115
330
1F
100
AcDbEntity
  8
0
  6
HIDDEN
 62
     7
370
     0
100
AcDbSpline
210
0.0
220
0.0
230
1.0
 70
     8
 71
     3
 72
    70
 73
    66
 74
     0
 42
0.00000001
 43
0.00000001
 12
1.0
 22
0.0
 32
0.0
 13
1.0
 23
0.0
 33
0.0
 40
-0.03125
 40
-0.03125
 40
0.0
 40
0.0
 40
0.03125
 40
0.03125
 40
0.0625
 40
0.0625
 40
0.0937500000000001
 40
0.0937500000000001
 40
0.1250000000000001
 40
0.1250000000000001
 40
0.1562500000000001
 40
0.1562500000000001
 40
0.1875
 40
0.1875
 40
0.21875
 40
0.21875
 40
0.2499999999999999
 40
0.2499999999999999
 40
0.2812499999999999
 40
0.2812499999999999
 40
0.3124999999999999
 40
0.3124999999999999
 40
0.3437499999999998
 40
0.3437499999999998
 40
0.3749999999999998
 40
0.3749999999999998
 40
0.4062499999999998
 40
0.4062499999999998
 40
0.4374999999999997
 40
0.4374999999999997
 40
0.4687499999999997
 40
0.4687499999999997
 40
0.4999999999999997
 40
0.4999999999999997
 40
0.5312499999999997
 40
0.5312499999999997
 40
0.5624999999999997
 40
0.5624999999999997
 40
0.5937499999999998
 40
0.5937499999999998
 40
0.6249999999999998
 40
0.6249999999999998
 40
0.6562499999999998
 40
0.6562499999999998
 40
0.6874999999999998
 40
0.6874999999999998
 40
0.7187499999999998
 40
0.7187499999999998
 40
0.7499999999999998
 40
0.7499999999999998
 40
0.7812499999999999
 40
0.7812499999999999
 40
0.8124999999999999
 40
0.8124999999999999
 40
0.8437499999999999
 40
0.8437499999999999
 40
0.8749999999999999
 40
0.8749999999999999
 40
0.9062499999999999
 40
0.9062499999999999
 40
0.9375
 40
0.9375
 40
0.96875
 40
0.96875
 40
1.0
 40
1.0
 40
1.03125
 40
1.03125
 10
194.1587252658695
 20
128.0693965477604
 30
0.0
 10
194.5557146102065
 20
128.0693965477604
 30
0.0
 10
194.7508354733702
 20
128.0889019152494
 30
0.0
 10
195.1346232062837
 20
128.1652743735737
 30
0.0
 10
195.3252999152754
 20
128.2230887368549
 30
0.0
 10
195.6884604332207
 20
128.3737619766927
 30
0.0
 10
195.8606584229276
 20
128.4659236113445
 30
0.0
 10
196.1865492466765
 20
128.6836151476624
 30
0.0
 10
196.3406305597768
 20
128.8101360207498
 30
0.0
 10
196.616918087912
 20
129.0864845237939
 30
0.0
 10
196.7410001831558
 20
129.2373252995094
 30
0.0
 10
196.9603227268928
 20
129.5651528220503
 30
0.0
 10
197.0533479558217
 20
129.7393395893743
 30
0.0
 10
197.2030604410941
 20
130.1001960360007
 30
0.0
 10
197.2608088681713
 20
130.2895411454153
 30
0.0
 10
197.3379848057785
 20
130.6769122461591
 30
0.0
 10
197.3571085756921
 20
130.8717447480827
 30
0.0
 10
197.357330339802
 20
131.2636532065116
 30
0.0
 10
197.3377909840742
 20
131.4627343532295
 30
0.0
 10
197.2611418201421
 20
131.8476998898563
 30
0.0
 10
197.2044326574581
 20
132.034840853682
 30
0.0
 10
197.0539700786908
 20
132.3983967946955
 30
0.0
 10
196.9601589095566
 20
132.5736719862411
 30
0.0
 10
196.7431786229108
 20
132.898422801904
 30
0.0
 10
196.6189764420675
 20
133.0501886353234
 30
0.0
 10
196.3394980188014
 20
133.3298507915347
 30
0.0
 10
196.1883026477834
 20
133.4537776123061
 30
0.0
 10
195.8637342841262
 20
133.6710405426072
 30
0.0
 10
195.6882367608461
 20
133.7651340828652
 30
0.0
 10
195.3252587048811
 20
133.9157112855679
 30
0.0
 10
195.1382747720544
 20
133.9725819805283
 30
0.0
 10
194.7533115741045
 20
134.0496052194165
 30
0.0
 10
194.5542920542643
 20
134.0693209155112
 30
0.0
 10
194.1624572649349
 20
134.0694717355489
 30
0.0
 10
193.9675421202495
 20
134.0505409288713
 30
0.0
 10
193.5797677429131
 20
133.9736414938696
 30
0.0
 10
193.3906811288871
 20
133.9161484054684
 30
0.0
 10
193.0295208590408
 20
133.7666930766184
 30
0.0
 10
192.8547066026725
 20
133.673475324102
 30
0.0
 10
192.5272213790876
 20
133.4547430363409
 30
0.0
 10
192.3763054331309
 20
133.3308595880633
 30
0.0
 10
192.0995036836554
 20
133.0545803360037
 30
0.0
 10
191.972804131277
 20
132.9004810023285
 30
0.0
 10
191.7551012806049
 20
132.5751480252398
 30
0.0
 10
191.6627742502664
 20
132.403068265062
 30
0.0
 10
191.5116575929198
 20
132.0397020429147
 30
0.0
 10
191.4537892743458
 20
131.8493595630955
 30
0.0
 10
191.3770983362054
 20
131.4657892349393
 30
0.0
 10
191.3573888221359
 20
131.2702283052501
 30
0.0
 10
191.3570532024696
 20
130.8736424225414
 30
0.0
 10
191.3763549059932
 20
130.6785665930948
 30
0.0
 10
191.452398853628
 20
130.2945940824193
 30
0.0
 10
191.5101219988212
 20
130.103669142796
 30
0.0
 10
191.6603807483354
 20
129.7406172278296
 30
0.0
 10
191.7523753555742
 20
129.5683162643059
 30
0.0
 10
191.9699534246436
 20
129.2419896663591
 30
0.0
 10
192.0962745026887
 20
129.0879135603227
 30
0.0
 10
192.3722846518683
 20
128.8114813587309
 30
0.0
 10
192.5230598622654
 20
128.6872043401687
 30
0.0
 10
192.8510895095704
 20
128.4673677181906
 30
0.0
 10
193.0247656316
 20
128.3744520291317
 30
0.0
 10
193.3855015929076
 20
128.2244143167141
 30
0.0
 10
193.5749357636792
 20
128.1664493527296
 30
0.0
 10
193.9625832612209
 20
128.0889045011513
 30
0.0
 10
194.1587252658695
 20
128.0693965477604
 30
0.0
 10
194.5557146102065
 20
128.0693965477604
 30
0.0
  0
LWPOLYLINE
  5
116
330
1F
100
AcDbEntity
  8
0
  6
HIDDEN
 62
     7
370
     0
100
AcDbPolyline
 90
       23
 70
   128
 43
0.0
 10
191.2192671931
 20
132.2341165922
 10
191.4230927265
 20
132.2427380781
 10
191.7182847297
 20
132.0792471941
 10
192.0809193885
 20
131.756888686
 10
192.4816339648
 20
131.3017783085
 10
192.8879588282
 20
130.7507863511
 10
193.2669698632
 20
130.1485509447
 10
193.587963227
 20
129.5438615324
 10
193.8249438441
 20
128.9857064092
 10
193.9587041175
 20
128.5193042548
 10
193.9784109032
 20
128.1824399901
 10
193.8824623263
 20
128.0024043934
 10
193.6786442435
 20
127.9937829075
 10
193.3834522402
 20
128.1572737915
 10
193.0208101308
 20
128.4796322414
 10
192.6201030052
 20
128.9347425753
 10
192.2137781417
 20
129.4857345473
 10
191.8347671068
 20
130.0879699828
 10
191.5137662923
 20
130.6926593951
 10
191.2767931259
 20
131.2508144018
 10
191.1430328524
 20
131.7172166144
 10
191.1233260667
 20
132.0540808791
 10
191.2192671931
 20
132.2341165922
  0
SPLINE
  5
117
330
1F
100
AcDbEntity
  8
0
  6
HIDDEN
 62
     7
370
     0
100
AcDbSpline
210
0.0
220
0.0
230
1.0
 70
     8
 71
     3
 72
    76
 73
    72
 74
     0
 42
0.00000001
 43
0.00000001
 12
1.0
 22
0.0
 32
0.0
 13
1.0
 23
0.0
 33
0.0
 40
0.0
 40
0.0
 40
0.0
 40
0.0
 40
0.0156250000000001
 40
0.0156250000000001
 40
0.0312500000000002
 40
0.0312500000000002
 40
0.0468750000000002
 40
0.0468750000000002
 40
0.0625000000000003
 40
0.0625000000000003
 40
0.0937500000000005
 40
0.0937500000000005
 40
0.1250000000000006
 40
0.1250000000000006
 40
0.1562500000000008
 40
0.1562500000000008
 40
0.1875000000000009
 40
0.1875000000000009
 40
0.2187500000000011
 40
0.2187500000000011
 40
0.2500000000000012
 40
0.2500000000000012
 40
0.2812500000000014
 40
0.2812500000000014
 40
0.3125000000000016
 40
0.3125000000000016
 40
0.3437500000000017
 40
0.3437500000000017
 40
0.3750000000000018
 40
0.3750000000000018
 40
0.406250000000002
 40
0.406250000000002
 40
0.4375000000000021
 40
0.4375000000000021
 40
0.4531250000000022
 40
0.4531250000000022
 40
0.4687500000000023
 40
0.4687500000000023
 40
0.5000000000000023
 40
0.5000000000000023
 40
0.5312500000000024
 40
0.5312500000000024
 40
0.5625000000000026
 40
0.5625000000000026
 40
0.5937500000000026
 40
0.5937500000000026
 40
0.6250000000000026
 40
0.6250000000000026
 40
0.6562500000000027
 40
0.6562500000000027
 40
0.6875000000000027
 40
0.6875000000000027
 40
0.7187500000000028
 40
0.7187500000000028
 40
0.7500000000000028
 40
0.7500000000000028
 40
0.8125000000000026
 40
0.8125000000000026
 40
0.8750000000000022
 40
0.8750000000000022
 40
0.9062500000000022
 40
0.9062500000000022
 40
0.9218750000000019
 40
0.9218750000000019
 40
0.9375000000000014
 40
0.9375000000000014
 40
0.9531250000000011
 40
0.9531250000000011
 40
0.9687500000000008
 40
0.9687500000000008
 40
1.0
 40
1.0
 40
1.0
 40
1.0
 10
194.7766011639747
 20
128.6048236867291
 30
0.0
 10
194.8111697876546
 20
128.6107060170943
 30
0.0
 10
194.8383604422551
 20
128.6160832068947
 30
0.0
 10
194.8688872163073
 20
128.6222677956069
 30
0.0
 10
194.8713889023408
 20
128.6227998428891
 30
0.0
 10
194.843321177231
 20
128.617068929885
 30
0.0
 10
194.8125887449987
 20
128.6108523712842
 30
0.0
 10
194.7288997158898
 20
128.5968160413311
 30
0.0
 10
194.676573200254
 20
128.5891713358097
 30
0.0
 10
194.4999658784285
 20
128.5706692659582
 30
0.0
 10
194.361676225579
 20
128.5651303493187
 30
0.0
 10
194.0697817045427
 20
128.5816770472778
 30
0.0
 10
193.9138676433322
 20
128.6037629987597
 30
0.0
 10
193.6013326731673
 20
128.680977719752
 30
0.0
 10
193.4433614054598
 20
128.7358175694764
 30
0.0
 10
193.1266531203921
 20
128.8861802110764
 30
0.0
 10
192.9731671266097
 20
128.9792895990037
 30
0.0
 10
192.6808953801651
 20
129.2055067391248
 30
0.0
 10
192.5419917287586
 20
129.3397570570511
 30
0.0
 10
192.2996332839044
 20
129.6365520410829
 30
0.0
 10
192.1921835040691
 20
129.8041842744711
 30
0.0
 10
192.021965640062
 20
130.1557597377099
 30
0.0
 10
191.9577901784652
 20
130.3414029619169
 30
0.0
 10
191.8744929693134
 20
130.7182489563973
 30
0.0
 10
191.8555402946957
 20
130.9061050132273
 30
0.0
 10
191.8591291581823
 20
131.2806017057548
 30
0.0
 10
191.8815428853621
 20
131.4609861884175
 30
0.0
 10
191.9630439892762
 20
131.8111787544668
 30
0.0
 10
192.0223592801382
 20
131.9801496627949
 30
0.0
 10
192.1731838005246
 20
132.29863683281
 30
0.0
 10
192.2655593421031
 20
132.4507754264041
 30
0.0
 10
192.4881474430785
 20
132.7396718734284
 30
0.0
 10
192.6197388586027
 20
132.8775422978289
 30
0.0
 10
192.8464214760025
 20
133.0636497653415
 30
0.0
 10
192.9274473152593
 20
133.1223763795638
 30
0.0
 10
193.0869268482426
 20
133.2246996375037
 30
0.0
 10
193.1678796260468
 20
133.2700722752005
 30
0.0
 10
193.4006465277841
 20
133.3856399397811
 30
0.0
 10
193.5478318171866
 20
133.4394286311679
 30
0.0
 10
193.834808627268
 20
133.5187327086285
 30
0.0
 10
193.9751146746478
 20
133.5441235813187
 30
0.0
 10
194.2585992221777
 20
133.5715061131747
 30
0.0
 10
194.4017064998411
 20
133.5732978333656
 30
0.0
 10
194.6941145011499
 20
133.5509288879854
 30
0.0
 10
194.8408103579495
 20
133.5269711728006
 30
0.0
 10
195.1376520808739
 20
133.4494088171196
 30
0.0
 10
195.2892335395655
 20
133.3952170262187
 30
0.0
 10
195.5913466889295
 20
133.2499977066572
 30
0.0
 10
195.7404323815038
 20
133.1600549661229
 30
0.0
 10
196.0327142282491
 20
132.9340273877656
 30
0.0
 10
196.1700140990196
 20
132.8021021240866
 30
0.0
 10
196.4181119138086
 20
132.4981076971972
 30
0.0
 10
196.5230764352983
 20
132.332802972616
 30
0.0
 10
196.691102796364
 20
131.9859776760318
 30
0.0
 10
196.7514658354648
 20
131.8098859104808
 30
0.0
 10
196.8713402756093
 20
131.2977615687214
 30
0.0
 10
196.8711858078203
 20
130.9817038743292
 30
0.0
 10
196.7901179178734
 20
130.4300829947081
 30
0.0
 10
196.7066536071078
 20
130.1862197447578
 30
0.0
 10
196.5614082927998
 20
129.8844857264693
 30
0.0
 10
196.5092508797057
 20
129.7939156145774
 30
0.0
 10
196.4363392154106
 20
129.6804094251924
 30
0.0
 10
196.4131573962009
 20
129.6466323510216
 30
0.0
 10
196.3740402980215
 20
129.5917049605356
 30
0.0
 10
196.3579116451889
 20
129.5702564008175
 30
0.0
 10
196.3413260372604
 20
129.5483733808536
 30
0.0
 10
196.3412298461876
 20
129.548219595783
 30
0.0
 10
196.3612218972883
 20
129.5746555059126
 30
0.0
 10
196.3807844664328
 20
129.6006834346513
 30
0.0
 10
196.4563449844271
 20
129.7087347689223
 30
0.0
 10
196.5234856381488
 20
129.8140361912696
 30
0.0
 10
196.5853923852723
 20
129.9357089605539
 30
0.0
  0
SPLINE
  5
118
330
1F
100
AcDbEntity
  8
0
  6
HIDDEN
 62
     7
370
     0
100
AcDbSpline
210
0.0
220
0.0
230
1.0
 70
     8
 71
     3
 72
    10
 73
     6
 74
     0
 42
0.00000001
 43
0.00000001
 12
1.0
 22
0.0
 32
0.0
 13
1.0
 23
0.0
 33
0.0
 40
0.0
 40
0.0
 40
0.0
 40
0.0
 40
0.5
 40
0.5
 40
1.0
 40
1.0
 40
1.0
 40
1.0
 10
196.5853923852723
 20
129.9357089605539
 30
0.0
 10
196.2754038438988
 20
129.7254792607913
 30
0.0
 10
195.9724211050072
 20
129.505727609841
 30
0.0
 10
195.3748625908837
 20
129.0547979655892
 30
0.0
 10
195.0791942239295
 20
128.8251049706265
 30
0.0
 10
194.7766011639747
 20
128.6048236867291
 30
0.0
  0
CIRCLE
  5
119
330
1F
100
AcDbEntity
  8
0
  6
HIDDEN
 62
     7
370
     0
100
AcDbCircle
 10
82.857219938
 20
131.0693965478
 30
0.0
 40
4.050000000000011
  0
ARC
  5
11A
330
1F
100
AcDbEntity
  8
0
  6
HIDDEN
 62
     7
370
     0
100
AcDbCircle
 10
194.357219938
 20
131.0693965478
 30
0.0
 40
2.500000000000003
100
AcDbArc
 50
279.6571697284
 51
333.033141857
  0
LINE
  5
11B
330
1F
100
AcDbEntity
  8
0
  6
HIDDEN
 62
     7
370
     0
100
AcDbLine
 10
61.88744748
 20
146.3823476059
 30
0.0
 11
61.88744748
 21
115.7564454896
 31
0.0
  0
LINE
  5
11C
330
1F
100
AcDbEntity
  8
0
  6
HIDDEN
 62
     7
370
     0
100
AcDbLine
 10
60.3572211599
 20
114.8729668183
 30
0.0
 11
60.3572211599
 21
147.2658262772
 31
0.0
  0
LINE
  5
11D
330
1F
100
AcDbEntity
  8
0
  6
HIDDEN
 62
     7
370
     0
100
AcDbLine
 10
68.3874476141
 20
145.4158070681
 30
0.0
 11
68.3874476141
 21
116.7229860274
 31
0.0
  0
LINE
  5
11E
330
1F
100
AcDbEntity
  8
0
  6
HIDDEN
 62
     7
370
     0
100
AcDbLine
 10
74.1874489373
 20
145.0693969799
 30
0.0
 11
74.1874489373
 21
117.0693961156
 31
0.0
  0
LINE
  5
11F
330
1F
100
AcDbEntity
  8
0
  6
HIDDEN
 62
     7
370
     0
100
AcDbLine
 10
66.7874484694
 20
145.0693969799
 30
0.0
 11
66.7874484694
 21
117.0693961156
 31
0.0
  0
LINE
  5
120
330
1F
100
AcDbEntity
  8
0
  6
HIDDEN
 62
     7
370
     0
100
AcDbLine
 10
67.7874486333
 20
145.0693969799
 30
0.0
 11
67.7874486333
 21
117.0693961156
 31
0.0
  0
SPLINE
  5
121
330
1F
100
AcDbEntity
  8
0
  6
HIDDEN
 62
     7
370
     0
100
AcDbSpline
210
0.0
220
0.0
230
1.0
 70
     8
 71
     3
 72
    10
 73
     6
 74
     0
 42
0.00000001
 43
0.00000001
 12
1.0
 22
0.0
 32
0.0
 13
1.0
 23
0.0
 33
0.0
 40
0.0
 40
0.0
 40
0.0
 40
0.0
 40
0.5
 40
0.5
 40
1.0
 40
1.0
 40
1.0
 40
1.0
 10
86.85721993803801
 20
131.7038254247827
 30
0.0
 10
86.89036735611444
 20
131.4948348237747
 30
0.0
 10
86.90722620147608
 20
131.2832723577532
 30
0.0
 10
86.9072136711284
 20
130.8552835917856
 30
0.0
 10
86.89029871338803
 20
130.6435254873701
 30
0.0
 10
86.85721993803801
 20
130.434967670738
 30
0.0
  0
LINE
  5
122
330
1F
100
AcDbEntity
  8
0
  6
HIDDEN
 62
     7
370
     0
100
AcDbLine
 10
87.3572199976
 20
144.5693968979
 30
0.0
 11
87.3572199976
 21
117.5693961976
 31
0.0
  0
SPLINE
  5
123
330
1F
100
AcDbEntity
  8
0
  6
HIDDEN
 62
     7
370
     0
100
AcDbSpline
210
0.0
220
0.0
230
1.0
 70
     8
 71
     3
 72
    10
 73
     6
 74
     0
 42
0.00000001
 43
0.00000001
 12
1.0
 22
0.0
 32
0.0
 13
1.0
 23
0.0
 33
0.0
 40
0.0
 40
0.0
 40
0.0
 40
0.0
 40
0.5
 40
0.5
 40
1.0
 40
1.0
 40
1.0
 40
1.0
 10
86.85721993803801
 20
130.434967670738
 30
0.0
 10
86.8904089005117
 20
130.6442202043204
 30
0.0
 10
86.90710967676635
 20
130.8550369652193
 30
0.0
 10
86.90732911721099
 20
131.2795692464225
 30
0.0
 10
86.89044940181762
 20
131.4943175351951
 30
0.0
 10
86.85721993803801
 20
131.7038254247827
 30
0.0
  0
SPLINE
  5
124
330
1F
100
AcDbEntity
  8
0
  6
HIDDEN
 62
     7
370
     0
100
AcDbSpline
210
0.0
220
0.0
230
1.0
 70
     8
 71
     3
 72
    66
 73
    62
 74
     0
 42
0.00000001
 43
0.00000001
 12
1.0
 22
0.0
 32
0.0
 13
1.0
 23
0.0
 33
0.0
 40
0.0
 40
0.0
 40
0.0
 40
0.0
 40
0.0312499999999998
 40
0.0312499999999998
 40
0.0624999999999996
 40
0.0624999999999996
 40
0.0937499999999994
 40
0.0937499999999994
 40
0.1249999999999992
 40
0.1249999999999992
 40
0.156249999999999
 40
0.156249999999999
 40
0.1874999999999988
 40
0.1874999999999988
 40
0.2187499999999986
 40
0.2187499999999986
 40
0.2499999999999984
 40
0.2499999999999984
 40
0.2812499999999984
 40
0.2812499999999984
 40
0.3124999999999985
 40
0.3124999999999985
 40
0.3437499999999985
 40
0.3437499999999985
 40
0.3749999999999986
 40
0.3749999999999986
 40
0.4374999999999983
 40
0.4374999999999983
 40
0.4687499999999982
 40
0.4687499999999982
 40
0.4999999999999981
 40
0.4999999999999981
 40
0.531249999999998
 40
0.531249999999998
 40
0.5624999999999979
 40
0.5624999999999979
 40
0.5937499999999979
 40
0.5937499999999979
 40
0.6249999999999978
 40
0.6249999999999978
 40
0.6874999999999979
 40
0.6874999999999979
 40
0.718749999999998
 40
0.718749999999998
 40
0.749999999999998
 40
0.749999999999998
 40
0.7812499999999982
 40
0.7812499999999982
 40
0.8124999999999984
 40
0.8124999999999984
 40
0.8437499999999988
 40
0.8437499999999988
 40
0.874999999999999
 40
0.874999999999999
 40
0.9062499999999992
 40
0.9062499999999992
 40
0.9374999999999994
 40
0.9374999999999994
 40
0.9687499999999998
 40
0.9687499999999998
 40
1.0
 40
1.0
 40
1.0
 40
1.0
 10
86.85721993803803
 20
130.434967670738
 30
0.0
 10
86.81754977687176
 20
130.1848519360794
 30
0.0
 10
86.75507356902834
 20
129.9412311530768
 30
0.0
 10
86.58513044766937
 20
129.4666790684253
 30
0.0
 10
86.47666226934662
 20
129.2350299310426
 30
0.0
 10
86.22299134304738
 20
128.8029353141589
 30
0.0
 10
86.07712252158284
 20
128.5999596199196
 30
0.0
 10
85.74647710049774
 20
128.2201713131962
 30
0.0
 10
85.56362099408663
 20
128.0461348460249
 30
0.0
 10
85.17217479833116
 20
127.7368746816405
 30
0.0
 10
84.9620272532748
 20
127.6000243675399
 30
0.0
 10
84.51299827978825
 20
127.3646488853476
 30
0.0
 10
84.2806985426574
 20
127.2695058542196
 30
0.0
 10
83.80076494286179
 20
127.122855854376
 30
0.0
 10
83.55070848064392
 20
127.0711301493469
 30
0.0
 10
83.04555353731664
 20
127.0158066564676
 30
0.0
 10
82.79350343063106
 20
127.0120458186308
 30
0.0
 10
82.29043663818979
 20
127.0513234494335
 30
0.0
 10
82.03692914740004
 20
127.0953174801265
 30
0.0
 10
81.54994682913576
 20
127.2278840284846
 30
0.0
 10
81.31496847622967
 20
127.3160742397195
 30
0.0
 10
80.86171010614598
 20
127.5361390662981
 30
0.0
 10
80.6442256239523
 20
127.6682835047241
 30
0.0
 10
80.24299313600328
 20
127.9660544794072
 30
0.0
 10
80.05683779654107
 20
128.1327235891636
 30
0.0
 10
79.54248180326924
 20
128.6882699415961
 30
0.0
 10
79.27393063349405
 20
129.1149773577747
 30
0.0
 10
78.99546851806763
 20
129.8229294912692
 30
0.0
 10
78.92579995818917
 20
130.0645383961949
 30
0.0
 10
78.83165780360935
 20
130.5588552031306
 30
0.0
 10
78.80729846115653
 20
130.8144601857709
 30
0.0
 10
78.80714180103689
 20
131.3218318894933
 30
0.0
 10
78.83069119492961
 20
131.5726958725358
 30
0.0
 10
78.9243741874106
 20
132.0688805302081
 30
0.0
 10
78.99556102351963
 20
132.3157280590845
 30
0.0
 10
79.17942564291285
 20
132.7839171603351
 30
0.0
 10
79.29224931343488
 20
133.0077004127926
 30
0.0
 10
79.56010520570567
 20
133.4347869741634
 30
0.0
 10
79.71416498360003
 20
133.6357093501676
 30
0.0
 10
80.22233863625162
 20
134.1853111664817
 30
0.0
 10
80.63416942359477
 20
134.4915153653287
 30
0.0
 10
81.30893615915919
 20
134.8201171502434
 30
0.0
 10
81.54680986654871
 20
134.909930843745
 30
0.0
 10
82.03638646132764
 20
135.0434512325384
 30
0.0
 10
82.28500373218934
 20
135.0867591863476
 30
0.0
 10
82.78991628521624
 20
135.1267484149848
 30
0.0
 10
83.04745322584628
 20
135.1227826290819
 30
0.0
 10
83.54894334563
 20
135.0678520189931
 30
0.0
 10
83.79552826695888
 20
135.0173449557358
 30
0.0
 10
84.28034168130033
 20
134.8695864977513
 30
0.0
 10
84.5153772259631
 20
134.7728620276398
 30
0.0
 10
84.95875634677422
 20
134.5405183945001
 30
0.0
 10
85.16993950781158
 20
134.4036929195309
 30
0.0
 10
85.56602477064648
 20
134.0907506286408
 30
0.0
 10
85.74662719883219
 20
133.9182727866741
 30
0.0
 10
86.07450962055604
 20
133.5420099914957
 30
0.0
 10
86.22303140833121
 20
133.3359201377272
 30
0.0
 10
86.47770183600807
 20
132.9018612442565
 30
0.0
 10
86.58376656012159
 20
132.6751607374751
 30
0.0
 10
86.75366446802764
 20
132.2022462219214
 30
0.0
 10
86.81765143647408
 20
131.9533002075174
 30
0.0
 10
86.85721993803801
 20
131.7038254247827
 30
0.0
  0
SPLINE
  5
125
330
1F
100
AcDbEntity
  8
0
  6
HIDDEN
 62
     7
370
     0
100
AcDbSpline
210
0.0
220
0.0
230
1.0
 70
     8
 71
     3
 72
    70
 73
    66
 74
     0
 42
0.00000001
 43
0.00000001
 12
1.0
 22
0.0
 32
0.0
 13
1.0
 23
0.0
 33
0.0
 40
0.0
 40
0.0
 40
0.0
 40
0.0
 40
0.0312500000000001
 40
0.0312500000000001
 40
0.0625000000000001
 40
0.0625000000000001
 40
0.0937500000000002
 40
0.0937500000000002
 40
0.1250000000000002
 40
0.1250000000000002
 40
0.1562500000000002
 40
0.1562500000000002
 40
0.1875000000000002
 40
0.1875000000000002
 40
0.2187500000000002
 40
0.2187500000000002
 40
0.2500000000000003
 40
0.2500000000000003
 40
0.2812500000000003
 40
0.2812500000000003
 40
0.3125000000000003
 40
0.3125000000000003
 40
0.3437500000000004
 40
0.3437500000000004
 40
0.3750000000000004
 40
0.3750000000000004
 40
0.4062500000000004
 40
0.4062500000000004
 40
0.4375000000000004
 40
0.4375000000000004
 40
0.4687500000000004
 40
0.4687500000000004
 40
0.5000000000000004
 40
0.5000000000000004
 40
0.5312500000000006
 40
0.5312500000000006
 40
0.5625000000000006
 40
0.5625000000000006
 40
0.5937500000000007
 40
0.5937500000000007
 40
0.6250000000000006
 40
0.6250000000000006
 40
0.6562500000000006
 40
0.6562500000000006
 40
0.6875000000000006
 40
0.6875000000000006
 40
0.7187500000000004
 40
0.7187500000000004
 40
0.7500000000000004
 40
0.7500000000000004
 40
0.7812500000000004
 40
0.7812500000000004
 40
0.8125000000000003
 40
0.8125000000000003
 40
0.8437500000000003
 40
0.8437500000000003
 40
0.8750000000000002
 40
0.8750000000000002
 40
0.9062500000000002
 40
0.9062500000000002
 40
0.9375000000000002
 40
0.9375000000000002
 40
0.9687500000000001
 40
0.9687500000000001
 40
1.0
 40
1.0
 40
1.0
 40
1.0
 10
86.85721993803801
 20
131.7038254247827
 30
0.0
 10
86.81773079767973
 20
131.9527998443812
 30
0.0
 10
86.75393841182995
 20
132.2015228005601
 30
0.0
 10
86.5833489898406
 20
132.6762839133161
 30
0.0
 10
86.47698510588694
 20
132.9032433800504
 30
0.0
 10
86.22241957724592
 20
133.3368015541383
 30
0.0
 10
86.07351921836529
 20
133.5433222512738
 30
0.0
 10
85.74514816061598
 20
133.91979301639
 30
0.0
 10
85.5644872357892
 20
134.0920932529154
 30
0.0
 10
85.1689384377945
 20
134.4043551937876
 30
0.0
 10
84.95687787250814
 20
134.5416352810224
 30
0.0
 10
84.51387413986414
 20
134.773516162206
 30
0.0
 10
84.28121309730106
 20
134.8693416702934
 30
0.0
 10
83.79405229433122
 20
135.0177740104775
 30
0.0
 10
83.54660993100306
 20
135.0682861587381
 30
0.0
 10
83.04409975275155
 20
135.1229693691167
 30
0.0
 10
82.78645592083582
 20
135.1266664077319
 30
0.0
 10
82.28231330735056
 20
135.0863516917414
 30
0.0
 10
82.03443654460041
 20
135.0429789669861
 30
0.0
 10
81.5469802079507
 20
134.9099175546808
 30
0.0
 10
81.30762147016104
 20
134.8196036304074
 30
0.0
 10
80.85708408641437
 20
134.599943976904
 30
0.0
 10
80.64316075684764
 20
134.4700045867008
 30
0.0
 10
80.2381122279712
 20
134.1688268011115
 30
0.0
 10
80.051303383546
 20
134.000527207767
 30
0.0
 10
79.71288248335534
 20
133.6341258956415
 30
0.0
 10
79.55953425126619
 20
133.4340389105917
 30
0.0
 10
79.29134690366256
 20
133.0060983563903
 30
0.0
 10
79.17876113806491
 20
132.7823780122091
 30
0.0
 10
78.995564365858
 20
132.3155830837555
 30
0.0
 10
78.92452621697335
 20
132.0696890361305
 30
0.0
 10
78.83053554057015
 20
131.5718681680336
 30
0.0
 10
78.80717043398109
 20
131.3211390932233
 30
0.0
 10
78.8072695982128
 20
130.8160636847966
 30
0.0
 10
78.83152226239807
 20
130.5595151537729
 30
0.0
 10
78.92599363618469
 20
130.0635732157561
 30
0.0
 10
78.99581732053879
 20
129.8220280574965
 30
0.0
 10
79.18082405836014
 20
129.3517028437431
 30
0.0
 10
79.29589143097881
 20
129.1246610138417
 30
0.0
 10
79.5622408338786
 20
128.7012390920089
 30
0.0
 10
79.71442741119547
 20
128.5024404201369
 30
0.0
 10
80.05803847843914
 20
128.1315415846693
 30
0.0
 10
80.24433946630757
 20
127.9649441458352
 30
0.0
 10
80.64521329253708
 20
127.6676623318597
 30
0.0
 10
80.86183004576053
 20
127.5360350375472
 30
0.0
 10
81.31603929560976
 20
127.3156002544776
 30
0.0
 10
81.55085493819519
 20
127.2276396861672
 30
0.0
 10
82.03593513788674
 20
127.0955852068116
 30
0.0
 10
82.2891846811295
 20
127.0514448399046
 30
0.0
 10
82.79400414537436
 20
127.0119831175921
 30
0.0
 10
83.04589171770216
 20
127.015898855242
 30
0.0
 10
83.5486272437637
 20
127.0708472456656
 30
0.0
 10
83.80048927986516
 20
127.1227424552979
 30
0.0
 10
84.28183353830262
 20
127.2698818857643
 30
0.0
 10
84.51407951128868
 20
127.3651833684696
 30
0.0
 10
84.96175839927223
 20
127.5999157813791
 30
0.0
 10
85.17344460064463
 20
127.7377432058744
 30
0.0
 10
85.56505074225264
 20
128.0474000199806
 30
0.0
 10
85.7473257486147
 20
128.2209985495806
 30
0.0
 10
86.07832324854631
 20
128.6014872675403
 30
0.0
 10
86.22401832341968
 20
128.8045149148264
 30
0.0
 10
86.47704807472839
 20
129.2358577726495
 30
0.0
 10
86.58521769461902
 20
129.4667868662532
 30
0.0
 10
86.75548194348482
 20
129.9425077328264
 30
0.0
 10
86.81772266695953
 20
130.1859419878979
 30
0.0
 10
86.85721993803804
 20
130.434967670738
 30
0.0
  0
LINE
  5
126
330
1F
100
AcDbEntity
  8
0
  6
HIDDEN
 62
     7
370
     0
100
AcDbLine
 10
88.6072197369
 20
140.0693961603
 30
0.0
 11
88.6072197369
 21
122.0693969352
 31
0.0
  0
LINE
  5
127
330
1F
100
AcDbEntity
  8
0
  6
HIDDEN
 62
     7
370
     0
100
AcDbLine
 10
87.3572199976
 20
120.8193962646
 30
0.0
 11
87.3572199976
 21
141.2944280727
 31
0.0
  0
LINE
  5
128
330
1F
100
AcDbEntity
  8
0
  6
HIDDEN
 62
     7
370
     0
100
AcDbLine
 10
114.357220698
 20
140.0693961603
 30
0.0
 11
114.357220698
 21
122.0693969352
 31
0.0
  0
LINE
  5
129
330
1F
100
AcDbEntity
  8
0
  6
HIDDEN
 62
     7
370
     0
100
AcDbLine
 10
117.2113071567
 20
135.3193967787
 30
0.0
 11
117.2113071567
 21
126.8193963168
 31
0.0
  0
ELLIPSE
  5
12A
330
1F
100
AcDbEntity
  8
0
  6
HIDDEN
 62
     7
370
     0
100
AcDbEllipse
 10
231.8106937124
 20
131.0693965478
 30
0.0
 11
14.59302442225288
 21
20.49991501975643
 31
0.0
210
0.0
220
0.0
230
1.0
 40
0.0040448756
 41
1.573675695089378
 42
3.144472021887485
  0
LINE
  5
12B
330
1F
100
AcDbEntity
  8
0
  6
HIDDEN
 62
     7
370
     0
100
AcDbLine
 10
212.8572210109
 20
110.5693959815
 30
0.0
 11
212.8572210109
 21
131.0693965478
 31
0.0
  0
SPLINE
  5
12C
330
1F
100
AcDbEntity
  8
0
  6
HIDDEN
 62
     7
370
     0
100
AcDbSpline
210
0.0
220
0.0
230
1.0
 70
     8
 71
     3
 72
    14
 73
    10
 74
     0
 42
0.00000001
 43
0.00000001
 12
1.0
 22
0.0
 32
0.0
 13
1.0
 23
0.0
 33
0.0
 40
0.0
 40
0.0
 40
0.0
 40
0.0
 40
0.4999999999999997
 40
0.4999999999999997
 40
0.6249999999999998
 40
0.6249999999999998
 40
0.7499999999999999
 40
0.7499999999999999
 40
1.0
 40
1.0
 40
1.0
 40
1.0
 10
215.8317374721133
 20
142.506309306788
 30
0.0
 10
214.9636101703528
 20
140.7244587325673
 30
0.0
 10
214.2190677034976
 20
138.8880324981674
 30
0.0
 10
213.5530297542253
 20
136.4756333432855
 30
0.0
 10
213.4335423262878
 20
135.9876041582614
 30
0.0
 10
213.2274278918692
 20
135.0118552631699
 30
0.0
 10
213.1403542206014
 20
134.5225922385584
 30
0.0
 10
212.9297944707359
 20
133.0504019467788
 30
0.0
 10
212.857219938038
 20
132.063051718318
 30
0.0
 10
212.857219938038
 20
131.0693965477604
 30
0.0
  0
SPLINE
  5
12D
330
1F
100
AcDbEntity
  8
0
  6
HIDDEN
 62
     7
370
     0
100
AcDbSpline
210
0.0
220
0.0
230
1.0
 70
     8
 71
     3
 72
    13
 73
     9
 74
     0
 42
0.00000001
 43
0.00000001
 12
1.0
 22
0.0
 32
0.0
 13
1.0
 23
0.0
 33
0.0
 40
0.0
 40
0.0
 40
0.0
 40
0.0
 40
0.1718014753374571
 40
0.348583692681977
 40
0.5204687589903495
 40
0.6973008344580012
 40
0.8698288681061948
 40
1.0
 40
1.0
 40
1.0
 40
1.0
 10
215.8317386543733
 20
142.5063097102302
 30
0.0
 10
215.8192066465784
 20
143.7265922242445
 30
0.0
 10
215.7937793122364
 20
146.2025347853594
 30
0.0
 10
215.8703548642547
 20
149.3325793427729
 30
0.0
 10
216.0308099875672
 20
151.9629352996075
 30
0.0
 10
216.2754929997687
 20
153.9098937012371
 30
0.0
 10
216.5597966343516
 20
155.1576260817793
 30
0.0
 10
216.7783679888405
 20
155.4007035125719
 30
0.0
 10
216.8723612463457
 20
155.5052352322
 30
0.0
  0
LINE
  5
12E
330
1F
100
AcDbEntity
  8
0
  6
HIDDEN
 62
     7
370
     0
100
AcDbLine
 10
216.9723182356
 20
155.6559697909
 30
0.0
 11
217.0456990039
 21
155.6719531489
 31
0.0
  0
LINE
  5
12F
330
1F
100
AcDbEntity
  8
0
  6
HIDDEN
 62
     7
370
     0
100
AcDbLine
 10
198.3572214282
 20
135.3193967787
 30
0.0
 11
198.3572214282
 21
126.8193963168
 31
0.0
  0
SPLINE
  5
130
330
1F
100
AcDbEntity
  8
0
  6
HIDDEN
 62
     7
370
     0
100
AcDbSpline
210
0.0
220
0.0
230
1.0
 70
    11
 71
     3
 72
    29
 73
    25
 74
     0
 42
0.00000001
 43
0.00000001
 12
1.0
 22
0.0
 32
0.0
 13
1.0
 23
0.0
 33
0.0
 40
0.0
 40
0.0
 40
0.0
 40
0.0
 40
0.0350053265828003
 40
0.043330867440898
 40
0.0820514132468374
 40
0.1288667481583609
 40
0.1811805918096805
 40
0.23876393993173
 40
0.2909586827615627
 40
0.3369587169095874
 40
0.3833268971951042
 40
0.4351529821914437
 40
0.4925415553328056
 40
0.536120793076929
 40
0.5797400154753711
 40
0.6236397823146287
 40
0.6752295261809764
 40
0.732781934109669
 40
0.7858310620865606
 40
0.8322040352788297
 40
0.8782344235849489
 40
0.9293470373347614
 40
0.9864260178099904
 40
1.0
 40
1.0
 40
1.0
 40
1.0
 10
194.9086233413202
 20
128.6558608242977
 30
0.0
 10
194.7247602796
 20
128.6034944601024
 30
0.0
 10
194.4971678891725
 20
128.5386734683617
 30
0.0
 10
194.0667399625917
 20
128.62087190664
 30
0.0
 10
193.5582434860823
 20
128.6449900753711
 30
0.0
 10
192.9156197239752
 20
128.9878965076827
 30
0.0
 10
192.3259622125393
 20
129.528746125703
 30
0.0
 10
191.9270072466067
 20
130.2916824588167
 30
0.0
 10
191.8154081470527
 20
131.1355226994562
 30
0.0
 10
191.9626343921828
 20
131.9044579833898
 30
0.0
 10
192.3142965495396
 20
132.5757197824513
 30
0.0
 10
192.8783509211015
 20
133.1427991131318
 30
0.0
 10
193.5989466243035
 20
133.4972776149483
 30
0.0
 10
194.3758752735193
 20
133.6028978209341
 30
0.0
 10
195.078352707085
 20
133.4967903814652
 30
0.0
 10
195.7397538888318
 20
133.1952597813155
 30
0.0
 10
196.3319126362937
 20
132.6778888927644
 30
0.0
 10
196.7576812996072
 20
131.9363098589012
 30
0.0
 10
196.9009924033736
 20
131.090915666973
 30
0.0
 10
196.7773341516638
 20
130.3119477020447
 30
0.0
 10
196.4481042479694
 20
129.6276186793117
 30
0.0
 10
195.9033203935143
 20
129.0614435397848
 30
0.0
 10
195.3551867961627
 20
128.7134859395561
 30
0.0
 10
194.9805913367539
 20
128.6651476658133
 30
0.0
 10
194.9086233413202
 20
128.6558608242977
 30
0.0
  0
SPLINE
  5
131
330
1F
100
AcDbEntity
  8
0
  6
HIDDEN
 62
     7
370
     0
100
AcDbSpline
210
0.0
220
0.0
230
1.0
 70
     8
 71
     3
 72
    60
 73
    56
 74
     0
 42
0.00000001
 43
0.00000001
 12
1.0
 22
0.0
 32
0.0
 13
1.0
 23
0.0
 33
0.0
 40
-0.031249999999999
 40
-0.031249999999999
 40
0.0
 40
0.0
 40
0.0312499999999999
 40
0.0312499999999999
 40
0.0624999999999998
 40
0.0624999999999998
 40
0.1250000000000019
 40
0.1250000000000019
 40
0.1562500000000021
 40
0.1562500000000021
 40
0.1875000000000023
 40
0.1875000000000023
 40
0.2187500000000025
 40
0.2187500000000025
 40
0.2500000000000028
 40
0.2500000000000028
 40
0.3125000000000032
 40
0.3125000000000032
 40
0.3750000000000037
 40
0.3750000000000037
 40
0.4062500000000031
 40
0.4062500000000031
 40
0.4375000000000024
 40
0.4375000000000024
 40
0.4687500000000018
 40
0.4687500000000018
 40
0.5000000000000011
 40
0.5000000000000011
 40
0.5312500000000004
 40
0.5312500000000004
 40
0.5624999999999998
 40
0.5624999999999998
 40
0.6250000000000009
 40
0.6250000000000009
 40
0.6562500000000013
 40
0.6562500000000013
 40
0.6875000000000018
 40
0.6875000000000018
 40
0.7187500000000022
 40
0.7187500000000022
 40
0.7500000000000027
 40
0.7500000000000027
 40
0.7812500000000032
 40
0.7812500000000032
 40
0.8125000000000037
 40
0.8125000000000037
 40
0.8750000000000036
 40
0.8750000000000036
 40
0.9062500000000027
 40
0.9062500000000027
 40
0.9375000000000019
 40
0.9375000000000019
 40
0.968750000000001
 40
0.968750000000001
 40
1.0
 40
1.0
 40
1.03125
 40
1.03125
 10
194.1876923414675
 20
128.5693965477604
 30
0.0
 10
194.5267475346086
 20
128.5693965477604
 30
0.0
 10
194.6923453823161
 20
128.5864475123911
 30
0.0
 10
195.0164654589888
 20
128.6522204435531
 30
0.0
 10
195.1762755233144
 20
128.7017929456943
 30
0.0
 10
195.6256171258558
 20
128.8906895809816
 30
0.0
 10
195.8952998656312
 20
129.0730279086681
 30
0.0
 10
196.2334846543887
 20
129.4095998385572
 30
0.0
 10
196.3370510880126
 20
129.5344166914381
 30
0.0
 10
196.5175025503125
 20
129.800903908117
 30
0.0
 10
196.5946245165748
 20
129.9421932808287
 30
0.0
 10
196.722042401382
 20
130.2422441011687
 30
0.0
 10
196.7725065941831
 20
130.4031440578589
 30
0.0
 10
196.8393480068656
 20
130.7280136811856
 30
0.0
 10
196.8566662084146
 20
130.8932235590555
 30
0.0
 10
196.858288600348
 20
131.3976188325084
 30
0.0
 10
196.7898006298043
 20
131.7330800113529
 30
0.0
 10
196.5357503234336
 20
132.3390145697296
 30
0.0
 10
196.3511674240781
 20
132.6106589992345
 30
0.0
 10
196.013798953655
 20
132.948512056549
 30
0.0
 10
195.8898097846882
 20
133.0510532870735
 30
0.0
 10
195.6236410394707
 20
133.2308711981707
 30
0.0
 10
195.4831043586468
 20
133.3073705355596
 30
0.0
 10
195.1854460233488
 20
133.4337537226064
 30
0.0
 10
195.0259786458062
 20
133.4840187702013
 30
0.0
 10
194.7003612616726
 20
133.5513096643573
 30
0.0
 10
194.5343942792856
 20
133.5688587941929
 30
0.0
 10
194.1955610332225
 20
133.5699102283932
 30
0.0
 10
194.0285703543874
 20
133.5532570392275
 30
0.0
 10
193.7029454405966
 20
133.4879701711804
 30
0.0
 10
193.5428142680395
 20
133.4386289622228
 30
0.0
 10
193.0921091086812
 20
133.2501234691574
 30
0.0
 10
192.8218506075304
 20
133.068031762082
 30
0.0
 10
192.4821358786287
 20
132.7305814247071
 30
0.0
 10
192.3781772347533
 20
132.6053643020063
 30
0.0
 10
192.1978681421316
 20
132.3394385884125
 30
0.0
 10
192.120434433539
 20
132.1979701252886
 30
0.0
 10
191.9921855786945
 20
131.8961372520661
 30
0.0
 10
191.9418702877776
 20
131.7353696341935
 30
0.0
 10
191.8751220412863
 20
131.4108992795309
 30
0.0
 10
191.8576485320901
 20
131.2451533541807
 30
0.0
 10
191.8568067495597
 20
130.9060516509341
 30
0.0
 10
191.8735668470916
 20
130.7389609782478
 30
0.0
 10
191.9393189905955
 20
130.4125287146894
 30
0.0
 10
191.9891738513691
 20
130.2512858249251
 30
0.0
 10
192.1801386369366
 20
129.797348316749
 30
0.0
 10
192.3654347699065
 20
129.5251630297549
 30
0.0
 10
192.7043236707263
 20
129.1870043840396
 30
0.0
 10
192.8295055931296
 20
129.0840101492854
 30
0.0
 10
193.0954407291028
 20
128.9052377045173
 30
0.0
 10
193.2362963125017
 20
128.828867711781
 30
0.0
 10
193.5359629089858
 20
128.7025471373895
 30
0.0
 10
193.6963410911205
 20
128.6526436896968
 30
0.0
 10
194.0210782311691
 20
128.5865626869947
 30
0.0
 10
194.1876923414675
 20
128.5693965477604
 30
0.0
 10
194.5267475346086
 20
128.5693965477604
 30
0.0
  0
CIRCLE
  5
132
330
1F
100
AcDbEntity
  8
0
  6
HIDDEN
 62
     7
370
     0
100
AcDbCircle
 10
226.9164750465
 20
139.2790998203
 30
0.0
 40
3.473035835897123
  0
CIRCLE
  5
133
330
1F
100
AcDbEntity
  8
0
  6
HIDDEN
 62
     7
370
     0
100
AcDbCircle
 10
226.4900637587
 20
138.7144646059
 30
0.0
 40
3.473039038837418
  0
ARC
  5
134
330
1F
100
AcDbEntity
  8
0
  6
HIDDEN
 62
     7
370
     0
100
AcDbCircle
 10
223.3169178088
 20
146.0837443606
 30
0.0
 40
2.346790037635373
100
AcDbArc
 50
133.533925305
 51
274.5854258765
  0
LINE
  5
135
330
1F
100
AcDbEntity
  8
0
  6
HIDDEN
 62
     7
370
     0
100
AcDbLine
 10
236.241851691
 20
145.2826717121
 30
0.0
 11
235.7505604064
 21
144.6321419624
 31
0.0
  0
LINE
  5
136
330
1F
100
AcDbEntity
  8
0
  6
HIDDEN
 62
     7
370
     0
100
AcDbLine
 10
232.9337641036
 20
132.8226209569
 30
0.0
 11
235.4372932947
 21
136.1376423573
 31
0.0
  0
LINE
  5
137
330
1F
100
AcDbEntity
  8
0
  6
HIDDEN
 62
     7
370
     0
100
AcDbLine
 10
224.4160964525
 20
148.4825805945
 30
0.0
 11
224.8968079126
 21
148.5174250973
 31
0.0
  0
LINE
  5
138
330
1F
100
AcDbEntity
  8
0
  6
HIDDEN
 62
     7
370
     0
100
AcDbLine
 10
224.5894863641
 20
148.1104985995
 30
0.0
 11
224.8968079126
 21
148.5174250973
 31
0.0
  0
LINE
  5
139
330
1F
100
AcDbEntity
  8
0
  6
HIDDEN
 62
     7
370
     0
100
AcDbLine
 10
224.5894863641
 20
148.1104985995
 30
0.0
 11
224.3820472991
 21
148.0954614652
 31
0.0
  0
ELLIPSE
  5
13A
330
1F
100
AcDbEntity
  8
0
  6
HIDDEN
 62
     7
370
     0
100
AcDbEllipse
 10
223.4290210182
 20
130.2042354121
 30
0.0
 11
2.733626938423157
 21
26.42588789006402
 31
0.0
210
0.0
220
0.0
230
1.0
 40
0.0894011665
 41
0.2291084880573243
 42
0.3421776936158615
  0
ELLIPSE
  5
13B
330
1F
100
AcDbEntity
  8
0
  6
HIDDEN
 62
     7
370
     0
100
AcDbEllipse
 10
210.3917311193
 20
128.8339610273
 30
0.0
 11
217.1628490301411
 21
19.44089462863732
 31
0.0
210
0.0
220
0.0
230
1.0
 40
0.1182598878
 41
1.490334009997227
 42
1.492657199575179
  0
LINE
  5
13C
330
1F
100
AcDbEntity
  8
0
  6
HIDDEN
 62
     7
370
     0
100
AcDbLine
 10
233.6399152315
 20
144.3780240787
 30
0.0
 11
215.8317386544
 21
142.5063097102
 31
0.0
  0
SPLINE
  5
13D
330
1F
100
AcDbEntity
  8
0
  6
HIDDEN
 62
     7
370
     0
100
AcDbSpline
210
0.0
220
0.0
230
1.0
 70
     8
 71
     3
 72
    25
 73
    21
 74
     0
 42
0.00000001
 43
0.00000001
 12
1.0
 22
0.0
 32
0.0
 13
1.0
 23
0.0
 33
0.0
 40
0.0
 40
0.0
 40
0.0
 40
0.0
 40
0.0245280909099331
 40
0.0492188272889397
 40
0.0740723631050046
 40
0.099088849318621
 40
0.1242684339578751
 40
0.1859259705207205
 40
0.2487810943269741
 40
0.3104435925636783
 40
0.3735337332972645
 40
0.4984810115700287
 40
0.6236251569642254
 40
0.6849228974291246
 40
0.7489625924834806
 40
0.8098132217715862
 40
0.874431994395715
 40
0.9136416546365527
 40
0.9554976562085302
 40
1.0
 40
1.0
 40
1.0
 40
1.0
 10
235.9411072098686
 20
155.8569393610569
 30
0.0
 10
235.9236114043348
 20
155.8016365171139
 30
0.0
 10
235.8885037787958
 20
155.6906641167499
 30
0.0
 10
235.8351644772794
 20
155.5151566998661
 30
0.0
 10
235.7811201565233
 20
155.3322532595109
 30
0.0
 10
235.7263408088767
 20
155.1412627791995
 30
0.0
 10
235.644165557406
 20
154.8466275266948
 30
0.0
 10
235.5329881900996
 20
154.4292356587653
 30
0.0
 10
235.3928615503809
 20
153.8700995057262
 30
0.0
 10
235.2500110256356
 20
153.2673962849904
 30
0.0
 10
235.0580628888335
 20
152.4144520539054
 30
0.0
 10
234.8143759370023
 20
151.2512539586563
 30
0.0
 10
234.5700061968805
 20
149.9801145525294
 30
0.0
 10
234.3732354013949
 20
148.8947825434176
 30
0.0
 10
234.2270970373798
 20
148.0578120613831
 30
0.0
 10
234.0787078516346
 20
147.176846964819
 30
0.0
 10
233.9503163794203
 20
146.3872568196561
 30
0.0
 10
233.8372859836557
 20
145.6719674697522
 30
0.0
 10
233.740270164678
 20
145.0454141644206
 30
0.0
 10
233.674044565459
 20
144.6049864504621
 30
0.0
 10
233.6399170660051
 20
144.3780244184849
 30
0.0
  0
ELLIPSE
  5
13E
330
1F
100
AcDbEntity
  8
0
  6
HIDDEN
 62
     7
370
     0
100
AcDbEllipse
 10
185.7016200715
 20
126.238925787
 30
0.0
 11
217.1628490301411
 21
19.4408946286373
 31
0.0
210
0.0
220
0.0
230
1.0
 40
0.1182598878
 41
1.326763449177638
 42
1.377264804438695
  0
ELLIPSE
  5
13F
330
1F
100
AcDbEntity
  8
0
  6
HIDDEN
 62
     7
370
     0
100
AcDbEllipse
 10
222.9188913528
 20
130.1506186237
 30
0.0
 11
2.73362693842327
 21
26.42588789006401
 31
0.0
210
0.0
220
0.0
230
1.0
 40
0.0894011665
 41
0.0469962348993712
 42
0.2267852984793584
  0
ELLIPSE
  5
140
330
1F
100
AcDbEntity
  8
0
  6
HIDDEN
 62
     7
370
     0
100
AcDbEllipse
 10
229.018567036
 20
145.477166037
 30
0.0
 11
0.9382876123695781
 21
2.751666891553299
 31
0.0
210
0.0
220
0.0
230
1.0
 40
0.8587453104
 41
4.575938033196778
 42
4.684963051302649
  0
ELLIPSE
  5
141
330
1F
100
AcDbEntity
  8
0
  6
HIDDEN
 62
     7
370
     0
100
AcDbEllipse
 10
229.018567036
 20
145.477166037
 30
0.0
 11
0.9382876123695781
 21
2.751666891553299
 31
0.0
210
0.0
220
0.0
230
1.0
 40
0.8587453104
 41
2.217011811208246
 42
2.405553341234549
  0
ELLIPSE
  5
142
330
1F
100
AcDbEntity
  8
0
  6
HIDDEN
 62
     7
370
     0
100
AcDbEllipse
 10
228.5477142588
 20
144.4127693203
 30
0.0
 11
2.967222170038013
 21
0.5785035440251248
 31
0.0
210
0.0
220
0.0
230
1.0
 40
0.1845741307
 41
2.265121822756926
 42
2.853074040823631
  0
ELLIPSE
  5
143
330
1F
100
AcDbEntity
  8
0
  6
HIDDEN
 62
     7
370
     0
100
AcDbEllipse
 10
228.0863647734
 20
143.3698554813
 30
0.0
 11
0.9382876123696063
 21
2.751666891553327
 31
0.0
210
0.0
220
0.0
230
1.0
 40
0.8587453104
 41
1.543370397712854
 42
1.629059593141551
  0
SPLINE
  5
144
330
1F
100
AcDbEntity
  8
0
  6
HIDDEN
 62
     7
370
     0
100
AcDbSpline
210
0.0
220
0.0
230
1.0
 70
     8
 71
     3
 72
    22
 73
    18
 74
     0
 42
0.00000001
 43
0.00000001
 12
1.0
 22
0.0
 32
0.0
 13
1.0
 23
0.0
 33
0.0
 40
0.0
 40
0.0
 40
0.0
 40
0.0
 40
0.1250000000000014
 40
0.1250000000000014
 40
0.2500000000000029
 40
0.2500000000000029
 40
0.5000000000000023
 40
0.5000000000000023
 40
0.6249999999999994
 40
0.6249999999999994
 40
0.7499999999999966
 40
0.7499999999999966
 40
0.8749999999999937
 40
0.8749999999999937
 40
0.9374999999999968
 40
0.9374999999999968
 40
1.0
 40
1.0
 40
1.0
 40
1.0
 10
224.6817300640119
 20
141.8358529699235
 30
0.0
 10
224.711068354319
 20
141.8747010794082
 30
0.0
 10
224.7558629753648
 20
141.9179233056236
 30
0.0
 10
224.8689085539302
 20
142.0101428399093
 30
0.0
 10
224.9374913473313
 20
142.0592801724891
 30
0.0
 10
225.1709862506758
 20
142.2093237094604
 30
0.0
 10
225.362762950507
 20
142.3134905347414
 30
0.0
 10
225.7073523400203
 20
142.459370210711
 30
0.0
 10
225.8319564502381
 20
142.5062761645314
 30
0.0
 10
226.106706061411
 20
142.5922362251753
 30
0.0
 10
226.2567825514399
 20
142.6314032544621
 30
0.0
 10
226.5901791321172
 20
142.6919874555238
 30
0.0
 10
226.774116574705
 20
142.7141591795523
 30
0.0
 10
227.0891385174739
 20
142.7165049344954
 30
0.0
 10
227.2024266342925
 20
142.7119956416837
 30
0.0
 10
227.4470298391298
 20
142.6844512841146
 30
0.0
 10
227.5774673545502
 20
142.6614401990076
 30
0.0
 10
227.7138592468875
 20
142.6242779934362
 30
0.0
  0
SPLINE
  5
145
330
1F
100
AcDbEntity
  8
0
  6
HIDDEN
 62
     7
370
     0
100
AcDbSpline
210
0.0
220
0.0
230
1.0
 70
     8
 71
     3
 72
     8
 73
     4
 74
     0
 42
0.00000001
 43
0.00000001
 12
1.0
 22
0.0
 32
0.0
 13
1.0
 23
0.0
 33
0.0
 40
0.0
 40
0.0
 40
0.0
 40
0.0
 40
1.0
 40
1.0
 40
1.0
 40
1.0
 10
227.7138592468875
 20
142.6242779934362
 30
0.0
 10
227.8511198450279
 20
142.5644723152806
 30
0.0
 10
227.9923291582399
 20
142.5111195393439
 30
0.0
 10
228.1357533640491
 20
142.4652065621133
 30
0.0
  0
SPLINE
  5
146
330
1F
100
AcDbEntity
  8
0
  6
HIDDEN
 62
     7
370
     0
100
AcDbSpline
210
0.0
220
0.0
230
1.0
 70
     8
 71
     3
 72
    22
 73
    18
 74
     0
 42
0.00000001
 43
0.00000001
 12
1.0
 22
0.0
 32
0.0
 13
1.0
 23
0.0
 33
0.0
 40
0.0
 40
0.0
 40
0.0
 40
0.0
 40
0.0624999999999999
 40
0.0624999999999999
 40
0.1249999999999999
 40
0.1249999999999999
 40
0.1874999999999998
 40
0.1874999999999998
 40
0.2499999999999998
 40
0.2499999999999998
 40
0.3749999999999997
 40
0.3749999999999997
 40
0.4999999999999998
 40
0.4999999999999998
 40
0.7499999999999999
 40
0.7499999999999999
 40
1.0
 40
1.0
 40
1.0
 40
1.0
 10
228.1357533640491
 20
142.4652065621133
 30
0.0
 10
228.260187370161
 20
142.4039546762893
 30
0.0
 10
228.3659914038082
 20
142.3382714241006
 30
0.0
 10
228.555019472827
 20
142.2017921498864
 30
0.0
 10
228.6340087768905
 20
142.1339935198706
 30
0.0
 10
228.7737302258979
 20
141.9996967472158
 30
0.0
 10
228.8345501901394
 20
141.9327517702532
 30
0.0
 10
228.9413120059133
 20
141.802917323444
 30
0.0
 10
228.9876153683933
 20
141.739661545824
 30
0.0
 10
229.1118193582235
 20
141.5538406842264
 30
0.0
 10
229.1752845858233
 20
141.4351612112957
 30
0.0
 10
229.2787682204739
 20
141.2065034814983
 30
0.0
 10
229.3183969466397
 20
141.0965650507492
 30
0.0
 10
229.4097649987687
 20
140.785284063771
 30
0.0
 10
229.4359294648374
 20
140.5995085266185
 30
0.0
 10
229.4377523644375
 20
140.2839024205727
 30
0.0
 10
229.4138952398614
 20
140.1527517888112
 30
0.0
 10
229.3544544954517
 20
140.0740437072387
 30
0.0
  0
ELLIPSE
  5
147
330
1F
100
AcDbEntity
  8
0
  6
HIDDEN
 62
     7
370
     0
100
AcDbEllipse
 10
228.2677723684
 20
143.7799404545
 30
0.0
 11
2.967222170038042
 21
0.5785035440250965
 31
0.0
210
0.0
220
0.0
230
1.0
 40
0.1845741307
 41
6.189380907948109
 42
8.359765599910242
  0
LINE
  5
148
330
1F
100
AcDbEntity
  8
0
  6
HIDDEN
 62
     7
370
     0
100
AcDbLine
 10
224.6817245519
 20
141.8358533827
 30
0.0
 11
224.3840887582
 21
141.4417372269
 31
0.0
  0
ELLIPSE
  5
149
330
1F
100
AcDbEntity
  8
0
  6
HIDDEN
 62
     7
370
     0
100
AcDbEllipse
 10
225.7929283204
 20
137.729003262
 30
0.0
 11
3.671213746604395
 21
-2.058398841174011
 31
0.0
210
0.0
220
0.0
230
1.0
 40
0.8772799171
 41
1.104348183353009
 42
2.379472024591377
  0
LINE
  5
14A
330
1F
100
AcDbEntity
  8
0
  6
HIDDEN
 62
     7
370
     0
100
AcDbLine
 10
229.0568097866
 20
139.6799273042
 30
0.0
 11
229.3544604814
 21
140.07404346
 31
0.0
  0
ELLIPSE
  5
14B
330
1F
100
AcDbEntity
  8
0
  6
HIDDEN
 62
     7
370
     0
100
AcDbEllipse
 10
224.4705575639
 20
135.9779944817
 30
0.0
 11
-2.570105550204659
 21
-3.403188827857377
 31
0.0
210
0.0
220
0.0
230
1.0
 40
0.9848432766
 41
0.0
 42
6.283185307179586
  0
ARC
  5
14C
330
1F
100
AcDbEntity
  8
0
  6
HIDDEN
 62
     7
370
     0
100
AcDbCircle
 10
226.453502653
 20
138.6424692738
 30
0.0
 40
4.176516676853156
100
AcDbArc
 50
72.4359483927
 51
66.247404194
  0
ARC
  5
14D
330
1F
100
AcDbEntity
  8
0
  6
HIDDEN
 62
     7
370
     0
100
AcDbCircle
 10
223.2963157572
 20
146.3332955996
 30
0.0
 40
2.101423192609695
100
AcDbArc
 50
143.6704732491
 51
274.4998309537
  0
LINE
  5
14E
330
1F
100
AcDbEntity
  8
0
  6
HIDDEN
 62
     7
370
     0
100
AcDbLine
 10
226.5670343673
 20
144.4634822381
 30
0.0
 11
223.4611853397
 21
144.2383499069
 31
0.0
  0
LINE
  5
14F
330
1F
100
AcDbEntity
  8
0
  6
HIDDEN
 62
     7
370
     0
100
AcDbLine
 10
223.5045328176
 20
143.7444658203
 30
0.0
 11
226.7367585933
 21
143.978760503
 31
0.0
  0
ARC
  5
150
330
1F
100
AcDbEntity
  8
0
  6
HIDDEN
 62
     7
370
     0
100
AcDbCircle
 10
222.9859479023
 20
145.9213861996
 30
0.0
 40
2.096699575220222
100
AcDbArc
 50
132.5143606664
 51
274.5939067637
  0
LINE
  5
151
330
1F
100
AcDbEntity
  8
0
  6
HIDDEN
 62
     7
370
     0
100
AcDbLine
 10
224.8968079126
 20
148.5174250973
 30
0.0
 11
225.554664377
 21
155.9950978679
 31
0.0
  0
LINE
  5
152
330
1F
100
AcDbEntity
  8
0
  6
HIDDEN
 62
     7
370
     0
100
AcDbLine
 10
225.051318053
 20
155.9548014028
 30
0.0
 11
224.3937894142
 21
148.4809638185
 31
0.0
  0
LINE
  5
153
330
1F
100
AcDbEntity
  8
0
  6
HIDDEN
 62
     7
370
     0
100
AcDbLine
 10
231.3549264705
 20
144.5962618289
 30
0.0
 11
231.4358248746
 21
144.8164059965
 31
0.0
  0
LINE
  5
154
330
1F
100
AcDbEntity
  8
0
  6
HIDDEN
 62
     7
370
     0
100
AcDbLine
 10
235.7945784366
 20
145.1323571799
 30
0.0
 11
231.4358248746
 21
144.8164059965
 31
0.0
  0
LINE
  5
155
330
1F
100
AcDbEntity
  8
0
  6
HIDDEN
 62
     7
370
     0
100
AcDbLine
 10
235.7505604064
 20
144.6321419624
 30
0.0
 11
235.7945784366
 21
145.1323571799
 31
0.0
  0
LINE
  5
156
330
1F
100
AcDbEntity
  8
0
  6
HIDDEN
 62
     7
370
     0
100
AcDbLine
 10
231.2319471872
 20
144.3046023322
 30
0.0
 11
235.7505604064
 21
144.6321419624
 31
0.0
  0
LINE
  5
157
330
1F
100
AcDbEntity
  8
0
  6
HIDDEN
 62
     7
370
     0
100
AcDbLine
 10
231.4358248746
 20
144.8164059965
 30
0.0
 11
231.1285182273
 21
144.4094785673
 31
0.0
  0
LINE
  5
158
330
1F
100
AcDbEntity
  8
0
  6
HIDDEN
 62
     7
370
     0
100
AcDbLine
 10
229.0568097866
 20
139.6799273042
 30
0.0
 11
230.1035418546
 21
142.8757085649
 31
0.0
  0
LINE
  5
159
330
1F
100
AcDbEntity
  8
0
  6
HIDDEN
 62
     7
370
     0
100
AcDbLine
 10
232.1808382308
 20
147.3459367824
 30
0.0
 11
231.9399013555
 21
147.0269029213
 31
0.0
  0
SPLINE
  5
15A
330
1F
100
AcDbEntity
  8
0
  6
HIDDEN
 62
     7
370
     0
100
AcDbSpline
210
0.0
220
0.0
230
1.0
 70
     8
 71
     3
 72
     8
 73
     4
 74
     0
 42
0.00000001
 43
0.00000001
 12
1.0
 22
0.0
 32
0.0
 13
1.0
 23
0.0
 33
0.0
 40
0.0
 40
0.0
 40
0.0
 40
0.0
 40
1.0
 40
1.0
 40
1.0
 40
1.0
 10
231.9847421025999
 20
146.739347156838
 30
0.0
 10
232.0472455899761
 20
146.9349996117602
 30
0.0
 10
232.1119827528707
 20
147.1357635928495
 30
0.0
 10
232.1808317389538
 20
147.3459370390327
 30
0.0
  0
LINE
  5
15B
330
1F
100
AcDbEntity
  8
0
  6
HIDDEN
 62
     7
370
     0
100
AcDbLine
 10
231.1285182273
 20
144.4094785673
 30
0.0
 11
231.9847389495
 21
146.7393477631
 31
0.0
  0
LINE
  5
15C
330
1F
100
AcDbEntity
  8
0
  6
HIDDEN
 62
     7
370
     0
100
AcDbLine
 10
235.7945784366
 20
145.1323571799
 30
0.0
 11
235.4872568881
 21
144.7254297508
 31
0.0
  0
LINE
  5
15D
330
1F
100
AcDbEntity
  8
0
  6
HIDDEN
 62
     7
370
     0
100
AcDbLine
 10
236.4217683113
 20
155.3475157542
 30
0.0
 11
235.9411015546
 21
155.8569380266
 31
0.0
  0
ARC
  5
15E
330
1F
100
AcDbEntity
  8
0
  6
HIDDEN
 62
     7
370
     0
100
AcDbCircle
 10
230.6000339871
 20
150.1442607807
 30
0.0
 40
3.675709522020918
100
AcDbArc
 50
292.1305191477
 51
206.5524474746
  0
LINE
  5
15F
330
1F
100
AcDbEntity
  8
0
  6
HIDDEN
 62
     7
370
     0
100
AcDbLine
 10
227.3120179212
 20
148.5011567546
 30
0.0
 11
225.7500036991
 21
144.2507597802
 31
0.0
  0
LINE
  5
160
330
1F
100
AcDbEntity
  8
0
  6
HIDDEN
 62
     7
370
     0
100
AcDbLine
 10
231.1285182273
 20
144.4094785673
 30
0.0
 11
235.4872568881
 21
144.7254297508
 31
0.0
  0
LINE
  5
161
330
1F
100
AcDbEntity
  8
0
  6
HIDDEN
 62
     7
370
     0
100
AcDbLine
 10
225.2114608324
 20
155.1801161093
 30
0.0
 11
224.5894863641
 21
148.1104985995
 31
0.0
  0
LINE
  5
162
330
1F
100
AcDbEntity
  8
0
  6
HIDDEN
 62
     7
370
     0
100
AcDbLine
 10
223.1538786924
 20
143.8314224777
 30
0.0
 11
225.6727560794
 21
144.0140082685
 31
0.0
  0
LINE
  5
163
330
1F
100
AcDbEntity
  8
0
  6
HIDDEN
 62
     7
370
     0
100
AcDbLine
 10
235.4872568881
 20
144.7254297508
 30
0.0
 11
236.4217683113
 21
155.3475157542
 31
0.0
  0
LINE
  5
164
330
1F
100
AcDbEntity
  8
0
  6
HIDDEN
 62
     7
370
     0
100
AcDbLine
 10
61.8572204745
 20
152.2277602179
 30
0.0
 11
61.8572204745
 21
146.1734491585
 31
0.0
  0
LINE
  5
165
330
1F
100
AcDbEntity
  8
0
  6
HIDDEN
 62
     7
370
     0
100
AcDbLine
 10
96.15721995
 20
153.0894962324
 30
0.0
 11
96.15721995
 21
146.6043171657
 31
0.0
  0
SPLINE
  5
166
330
1F
100
AcDbEntity
  8
0
  6
HIDDEN
 62
     7
370
     0
100
AcDbSpline
210
0.0
220
0.0
230
1.0
 70
     8
 71
     3
 72
    16
 73
    12
 74
     0
 42
0.00000001
 43
0.00000001
 12
1.0
 22
0.0
 32
0.0
 13
1.0
 23
0.0
 33
0.0
 40
0.0
 40
0.0
 40
0.0
 40
0.0
 40
0.2499999999999998
 40
0.2499999999999998
 40
0.3749999999999997
 40
0.3749999999999997
 40
0.4999999999999996
 40
0.4999999999999996
 40
0.7499999999999998
 40
0.7499999999999998
 40
1.0
 40
1.0
 40
1.0
 40
1.0
 10
97.03589959447835
 20
152.8394775027625
 30
0.0
 10
96.87466711699389
 20
152.7414618897078
 30
0.0
 10
96.75418727735426
 20
152.5547258580317
 30
0.0
 10
96.63180676004093
 20
152.1416860504728
 30
0.0
 10
96.60082909964349
 20
151.9816855512399
 30
0.0
 10
96.55921536201554
 20
151.6148799001487
 30
0.0
 10
96.54897944908272
 20
151.4115427475247
 30
0.0
 10
96.5487910520266
 20
150.744255480898
 30
0.0
 10
96.5889357546642
 20
150.22344101701
 30
0.0
 10
96.7530895096038
 20
149.0260820015323
 30
0.0
 10
96.87464116001335
 20
148.3678123472363
 30
0.0
 10
97.03589959447835
 20
147.6533031740014
 30
0.0
  0
SPLINE
  5
167
330
1F
100
AcDbEntity
  8
0
  6
HIDDEN
 62
     7
370
     0
100
AcDbSpline
210
0.0
220
0.0
230
1.0
 70
     8
 71
     3
 72
    16
 73
    12
 74
     0
 42
0.00000001
 43
0.00000001
 12
1.0
 22
0.0
 32
0.0
 13
1.0
 23
0.0
 33
0.0
 40
0.0
 40
0.0
 40
0.0
 40
0.0
 40
0.2499999999999997
 40
0.2499999999999997
 40
0.3749999999999999
 40
0.3749999999999999
 40
0.5000000000000001
 40
0.5000000000000001
 40
0.75
 40
0.75
 40
1.0
 40
1.0
 40
1.0
 40
1.0
 10
97.03589959447837
 20
114.4854899215194
 30
0.0
 10
96.8746671169939
 20
113.7710957593273
 30
0.0
 10
96.75418727735428
 20
113.1177534966186
 30
0.0
 10
96.63180676004094
 20
112.2294982548147
 30
0.0
 10
96.60082909964349
 20
111.9488177184628
 30
0.0
 10
96.55921536201554
 20
111.4197837286228
 30
0.0
 10
96.54897944908272
 20
111.1764627500444
 30
0.0
 10
96.5487910520266
 20
110.5084400595311
 30
0.0
 10
96.58893575466422
 20
110.1447591501117
 30
0.0
 10
96.7530895096038
 20
109.5848682775633
 30
0.0
 10
96.87464116001335
 20
109.3973469854462
 30
0.0
 10
97.03589959447835
 20
109.2993155927583
 30
0.0
  0
LINE
  5
168
330
1F
100
AcDbEntity
  8
0
  6
HIDDEN
 62
     7
370
     0
100
AcDbLine
 10
61.8572204745
 20
115.9653439371
 30
0.0
 11
61.8572204745
 21
109.9110328776
 31
0.0
  0
LINE
  5
169
330
1F
100
AcDbEntity
  8
0
  6
HIDDEN
 62
     7
370
     0
100
AcDbLine
 10
96.15721995
 20
115.5344759298
 30
0.0
 11
96.15721995
 21
109.0492968632
 31
0.0
  0
LINE
  5
16A
330
1F
100
AcDbEntity
  8
0
  6
HIDDEN
 62
     7
370
     0
100
AcDbLine
 10
60.3572211599
 20
151.3617345316
 30
0.0
 11
60.3572211599
 21
145.7404363153
 31
0.0
  0
LINE
  5
16B
330
1F
100
AcDbEntity
  8
0
  6
HIDDEN
 62
     7
370
     0
100
AcDbLine
 10
60.3572211599
 20
116.3983567802
 30
0.0
 11
60.3572211599
 21
110.7770585639
 31
0.0
  0
ARC
  5
16C
330
1F
100
AcDbEntity
  8
0
  6
HIDDEN
 62
     7
370
     0
100
AcDbCircle
 10
230.540468942
 20
150.072795088
 30
0.0
 40
3.182226833877089
100
AcDbArc
 50
301.0294392037
 51
197.6536480509
  0
SPLINE
  5
16D
330
1F
100
AcDbEntity
  8
0
  6
HIDDEN
 62
     7
370
     0
100
AcDbSpline
210
0.0
220
0.0
230
1.0
 70
     8
 71
     3
 72
     8
 73
     4
 74
     0
 42
0.00000001
 43
0.00000001
 12
1.0
 22
0.0
 32
0.0
 13
1.0
 23
0.0
 33
0.0
 40
0.0
 40
0.0
 40
0.0
 40
0.0
 40
1.0
 40
1.0
 40
1.0
 40
1.0
 10
227.508107307516
 20
149.107746301715
 30
0.0
 10
227.4392583214328
 20
148.8975728555317
 30
0.0
 10
227.3745211585382
 20
148.6968088744425
 30
0.0
 10
227.3120176711619
 20
148.5011564195203
 30
0.0
  0
SPLINE
  5
16E
330
1F
100
AcDbEntity
  8
0
  6
HIDDEN
 62
     7
370
     0
100
AcDbSpline
210
0.0
220
0.0
230
1.0
 70
     8
 71
     3
 72
    10
 73
     6
 74
     0
 42
0.00000001
 43
0.00000001
 12
1.0
 22
0.0
 32
0.0
 13
1.0
 23
0.0
 33
0.0
 40
0.0
 40
0.0
 40
0.0
 40
0.0
 40
0.5
 40
0.5
 40
1.0
 40
1.0
 40
1.0
 40
1.0
 10
231.2483111499895
 20
146.4403911488663
 30
0.0
 10
231.4117089599755
 20
146.5514701902486
 30
0.0
 10
231.5547307714213
 20
146.6625833695576
 30
0.0
 10
231.7933034662985
 20
146.8671571784708
 30
0.0
 10
231.8905870358378
 20
146.9616113715866
 30
0.0
 10
231.9398951596096
 20
147.0269024083417
 30
0.0
  0
ARC
  5
16F
330
1F
100
AcDbEntity
  8
0
  6
HIDDEN
 62
     7
370
     0
100
AcDbCircle
 10
229.9822674086
 20
149.357687979
 30
0.0
 40
3.180169815205399
100
AcDbArc
 50
293.4597612864
 51
88.6536193539
  0
ARC
  5
170
330
1F
100
AcDbEntity
  8
0
  6
HIDDEN
 62
     7
370
     0
100
AcDbCircle
 10
229.9363799507
 20
149.4088849957
 30
0.0
 40
3.130034802957642
100
AcDbArc
 50
90.3564978027
 51
207.0334527643
  0
SPLINE
  5
171
330
1F
100
AcDbEntity
  8
0
  6
HIDDEN
 62
     7
370
     0
100
AcDbSpline
210
0.0
220
0.0
230
1.0
 70
     8
 71
     3
 72
    10
 73
     6
 74
     0
 42
0.00000001
 43
0.00000001
 12
1.0
 22
0.0
 32
0.0
 13
1.0
 23
0.0
 33
0.0
 40
0.0
 40
0.0
 40
0.0
 40
0.0
 40
0.5
 40
0.5
 40
1.0
 40
1.0
 40
1.0
 40
1.0
 10
227.2671707281718
 20
148.7887116710241
 30
0.0
 10
227.2177746856605
 20
148.7233042172324
 30
0.0
 10
227.1861103623599
 20
148.6054344487143
 30
0.0
 10
227.1465017017288
 20
148.325724962691
 30
0.0
 10
227.139474660279
 20
148.162495048113
 30
0.0
 10
227.1483333651991
 20
147.9862513732435
 30
0.0
  0
LINE
  5
172
330
1F
100
AcDbEntity
  8
0
  6
HIDDEN
 62
     7
370
     0
100
AcDbLine
 10
227.267165426
 20
148.7887119127
 30
0.0
 11
227.5081023014
 21
149.1077457739
 31
0.0
  0
SPLINE
  5
173
330
1F
100
AcDbEntity
  8
0
  6
HIDDEN
 62
     7
370
     0
100
AcDbSpline
210
0.0
220
0.0
230
1.0
 70
     8
 71
     3
 72
    25
 73
    21
 74
     0
 42
0.00000001
 43
0.00000001
 12
1.0
 22
0.0
 32
0.0
 13
1.0
 23
0.0
 33
0.0
 40
0.0
 40
0.0
 40
0.0
 40
0.0
 40
0.0251360526155847
 40
0.0502550180644507
 40
0.0753641177255834
 40
0.1004705814910641
 40
0.1255816415297319
 40
0.1883288995973448
 40
0.2510679709500794
 40
0.3137540139088527
 40
0.3764235232255442
 40
0.5015802348910783
 40
0.626531982811281
 40
0.68891589639852
 40
0.7512790951062587
 40
0.8135379550392667
 40
0.8757712983888825
 40
0.9171943544141165
 40
0.9585923866311995
 40
1.0
 40
1.0
 40
1.0
 40
1.0
 10
234.0164305495743
 20
143.4638253670431
 30
0.0
 10
234.0364873681941
 20
143.5966076021286
 30
0.0
 10
234.0765873710655
 20
143.8620818086364
 30
0.0
 10
234.1370270155958
 20
144.2554576426702
 30
0.0
 10
234.1976439381223
 20
144.6450612892887
 30
0.0
 10
234.2584615163504
 20
145.0305634138913
 30
0.0
 10
234.3499404838884
 20
145.6025538116139
 30
0.0
 10
234.4724919808342
 20
146.350433736094
 30
0.0
 10
234.6263810348696
 20
147.2568092086193
 30
0.0
 10
234.7806995143635
 20
148.1331847527065
 30
0.0
 10
234.9864939637865
 20
149.2585697861114
 30
0.0
 10
235.2433573014144
 20
150.5821950688581
 30
0.0
 10
235.4978819771997
 20
151.7852486549506
 30
0.0
 10
235.6988032328412
 20
152.6692197518239
 30
0.0
 10
235.8478165018329
 20
153.2915260785889
 30
0.0
 10
235.994956770611
 20
153.8723836611031
 30
0.0
 10
236.1238197274819
 20
154.35087986937
 30
0.0
 10
236.2349571844552
 20
154.7408358542075
 30
0.0
 10
236.3291260769533
 20
155.0567362124725
 30
0.0
 10
236.3908832489316
 20
155.2505814243905
 30
0.0
 10
236.4217654077739
 20
155.3475152449253
 30
0.0
  0
LWPOLYLINE
  5
174
330
1F
100
AcDbEntity
  8
0
  6
HIDDEN
 62
     7
370
     0
100
AcDbPolyline
 90
       12
 70
   128
 43
0.0
 10
225.4308208263
 20
144.6375184877
 10
225.6896241939
 20
145.1030261067
 10
226.1167361772
 20
145.4594553632
 10
226.6775562799
 20
145.6779296694
 10
227.3266508615
 20
145.7407511024
 10
228.0114337242
 20
145.6428299842
 10
228.6764278448
 20
145.3920983894
 10
229.2677655256
 20
145.0088693944
 10
229.7375395334
 20
144.5241905002
 10
230.0476774013
 20
143.9773262663
 10
230.1730706727
 20
143.4125825016
 10
230.1035418546
 20
142.8757085649
  0
ELLIPSE
  5
175
330
1F
100
AcDbEntity
  8
0
  6
HIDDEN
 62
     7
370
     0
100
AcDbEllipse
 10
228.7173020067
 20
145.9044179859
 30
0.0
 11
0.9382876123695781
 21
2.751666891553299
 31
0.0
210
0.0
220
0.0
230
1.0
 40
0.8587453104
 41
5.1852860007542
 42
7.326232755440909
  0
LINE
  5
176
330
1F
100
AcDbEntity
  8
0
  6
HIDDEN
 62
     7
370
     0
100
AcDbLine
 10
225.4308208263
 20
144.6375184877
 30
0.0
 11
224.3840887582
 21
141.4417372269
 31
0.0
  0
CIRCLE
  5
177
330
1F
100
AcDbEntity
  8
0
  6
HIDDEN
 62
     7
370
     0
100
AcDbCircle
 10
194.357219938
 20
131.0693965478
 30
0.0
 40
2.5
  0
CIRCLE
  5
178
330
1F
100
AcDbEntity
  8
0
  6
HIDDEN
 62
     7
370
     0
100
AcDbCircle
 10
194.357219938
 20
131.0693965478
 30
0.0
 40
3.0
  0
LINE
  5
179
330
1F
100
AcDbEntity
  8
0
  6
HIDDEN
 62
     7
370
     0
100
AcDbLine
 10
60.3572211599
 20
145.7404363153
 30
0.0
 11
60.3572211599
 21
133.9713839533
 31
0.0
  0
LINE
  5
17A
330
1F
100
AcDbEntity
  8
0
  6
HIDDEN
 62
     7
370
     0
100
AcDbLine
 10
60.3572211599
 20
128.1674091423
 30
0.0
 11
60.3572211599
 21
116.3983567802
 31
0.0
  0
LINE
  5
17B
330
1F
100
AcDbEntity
  8
0
  6
HIDDEN
 62
     7
370
     0
100
AcDbLine
 10
61.8572204745
 20
127.1041854469
 30
0.0
 11
61.8572204745
 21
115.9653439371
 31
0.0
  0
LINE
  5
17C
330
1F
100
AcDbEntity
  8
0
  6
HIDDEN
 62
     7
370
     0
100
AcDbLine
 10
61.8572204745
 20
146.1734491585
 30
0.0
 11
61.8572204745
 21
135.0346076486
 31
0.0
  0
LINE
  5
17D
330
1F
100
AcDbEntity
  8
0
  6
HIDDEN
 62
     7
370
     0
100
AcDbLine
 10
98.1572199431
 20
146.1071036009
 30
0.0
 11
98.1572199431
 21
116.0316894946
 31
0.0
  0
LINE
  5
17E
330
1F
100
AcDbEntity
  8
0
  6
HIDDEN
 62
     7
370
     0
100
AcDbLine
 10
96.15721995
 20
146.6043171657
 30
0.0
 11
96.15721995
 21
115.5344759298
 31
0.0
  0
SPLINE
  5
17F
330
1F
100
AcDbEntity
  8
0
  6
HIDDEN
 62
     7
370
     0
100
AcDbSpline
210
0.0
220
0.0
230
1.0
 70
     8
 71
     3
 72
    24
 73
    20
 74
     0
 42
0.00000001
 43
0.00000001
 12
1.0
 22
0.0
 32
0.0
 13
1.0
 23
0.0
 33
0.0
 40
0.0
 40
0.0
 40
0.0
 40
0.0
 40
0.125
 40
0.125
 40
0.25
 40
0.25
 40
0.375
 40
0.375
 40
0.4375
 40
0.4375
 40
0.5
 40
0.5
 40
0.625
 40
0.625
 40
0.75
 40
0.75
 40
0.875
 40
0.875
 40
1.0
 40
1.0
 40
1.0
 40
1.0
 10
66.807219938038
 20
126.9834354946611
 30
0.0
 10
67.0450235703131
 20
127.2824425969913
 30
0.0
 10
67.27510923152438
 20
127.58678044831
 30
0.0
 10
67.70986263013421
 20
128.212513985706
 30
0.0
 10
67.91479542242037
 20
128.5337387130335
 30
0.0
 10
68.27989737291907
 20
129.2056644837662
 30
0.0
 10
68.44169775871059
 20
129.5609797156451
 30
0.0
 10
68.6135579632903
 20
130.1112109369975
 30
0.0
 10
68.65914315495043
 20
130.297614721978
 30
0.0
 10
68.72161789452528
 20
130.6777492240743
 30
0.0
 10
68.73828904027374
 20
130.8734190163601
 30
0.0
 10
68.73881008345025
 20
131.4518993950346
 30
0.0
 10
68.67436778256354
 20
131.8298112340034
 30
0.0
 10
68.44451868919022
 20
132.5717792591018
 30
0.0
 10
68.2859980115271
 20
132.9204947192628
 30
0.0
 10
67.92176368162693
 20
133.5935871169959
 30
0.0
 10
67.71502744156335
 20
133.9185396042376
 30
0.0
 10
67.27708949582299
 20
134.5494634146994
 30
0.0
 10
67.04581676854343
 20
134.85535315504
 30
0.0
 10
66.80721993803809
 20
135.1553576008595
 30
0.0
  0
LINE
  5
180
330
1F
100
AcDbEntity
  8
0
  6
HIDDEN
 62
     7
370
     0
100
AcDbLine
 10
66.807218585
 20
126.9834352841
 30
0.0
 11
66.807218585
 21
135.1553578114
 31
0.0
  0
SPLINE
  5
181
330
1F
100
AcDbEntity
  8
0
  6
HIDDEN
 62
     7
370
     0
100
AcDbSpline
210
0.0
220
0.0
230
1.0
 70
     8
 71
     3
 72
     8
 73
     4
 74
     0
 42
0.00000001
 43
0.00000001
 12
1.0
 22
0.0
 32
0.0
 13
1.0
 23
0.0
 33
0.0
 40
0.0000249638557296
 40
0.0000249638557296
 40
0.0000249638557296
 40
0.0000249638557296
 40
0.0049776420541172
 40
0.0049776420541172
 40
0.0049776420541172
 40
0.0049776420541172
 10
61.85721993803803
 20
127.1041856509238
 30
0.0
 10
63.50719617254756
 20
127.0629064131556
 30
0.0
 10
65.1571974922926
 20
127.0226847319161
 30
0.0
 10
66.807219938038
 20
126.9834354946611
 30
0.0
  0
SPLINE
  5
182
330
1F
100
AcDbEntity
  8
0
  6
HIDDEN
 62
     7
370
     0
100
AcDbSpline
210
0.0
220
0.0
230
1.0
 70
     8
 71
     3
 72
     8
 73
     4
 74
     0
 42
0.00000001
 43
0.00000001
 12
1.0
 22
0.0
 32
0.0
 13
1.0
 23
0.0
 33
0.0
 40
0.0000249631533153
 40
0.0000249631533153
 40
0.0000249631533153
 40
0.0000249631533153
 40
0.0049776413517028
 40
0.0049776413517028
 40
0.0049776413517028
 40
0.0049776413517028
 10
66.80721993803799
 20
135.1553576008596
 30
0.0
 10
65.15719749229257
 20
135.1161083636046
 30
0.0
 10
63.50719617254752
 20
135.0758866823651
 30
0.0
 10
61.85721993803797
 20
135.0346074445969
 30
0.0
  0
SPLINE
  5
183
330
1F
100
AcDbEntity
  8
0
  6
HIDDEN
 62
     7
370
     0
100
AcDbSpline
210
0.0
220
0.0
230
1.0
 70
     8
 71
     3
 72
     8
 73
     4
 74
     0
 42
0.00000001
 43
0.00000001
 12
1.0
 22
0.0
 32
0.0
 13
1.0
 23
0.0
 33
0.0
 40
0.0
 40
0.0
 40
0.0
 40
0.0
 40
1.0
 40
1.0
 40
1.0
 40
1.0
 10
60.35721993803578
 20
128.16740921478
 30
0.0
 10
60.82398054941357
 20
127.752045969157
 30
0.0
 10
61.32972809619363
 20
127.4074555398524
 30
0.0
 10
61.85721993803803
 20
127.1041856509238
 30
0.0
  0
SPLINE
  5
184
330
1F
100
AcDbEntity
  8
0
  6
HIDDEN
 62
     7
370
     0
100
AcDbSpline
210
0.0
220
0.0
230
1.0
 70
     8
 71
     3
 72
     8
 73
     4
 74
     0
 42
0.00000001
 43
0.00000001
 12
1.0
 22
0.0
 32
0.0
 13
1.0
 23
0.0
 33
0.0
 40
0.0
 40
0.0
 40
0.0
 40
0.0
 40
1.0
 40
1.0
 40
1.0
 40
1.0
 10
61.857219938038
 20
135.0346074445969
 30
0.0
 10
61.32972809619447
 20
134.7313375556688
 30
0.0
 10
60.82398054941518
 20
134.3867471263648
 30
0.0
 10
60.357219938038
 20
133.9713838807427
 30
0.0
  0
LINE
  5
185
330
1F
100
AcDbEntity
  8
0
  6
HIDDEN
 62
     7
370
     0
100
AcDbLine
 10
60.3572211599
 20
128.1674091423
 30
0.0
 11
60.3572211599
 21
133.9713839533
 31
0.0
  0
SPLINE
  5
186
330
1F
100
AcDbEntity
  8
0
  6
HIDDEN
 62
     7
370
     0
100
AcDbSpline
210
0.0
220
0.0
230
1.0
 70
     8
 71
     3
 72
    72
 73
    68
 74
     0
 42
0.00000001
 43
0.00000001
 12
1.0
 22
0.0
 32
0.0
 13
1.0
 23
0.0
 33
0.0
 40
-0.0312500000000001
 40
-0.0312500000000001
 40
0.0
 40
0.0
 40
0.03125
 40
0.03125
 40
0.0625
 40
0.0625
 40
0.09375
 40
0.09375
 40
0.125
 40
0.125
 40
0.15625
 40
0.15625
 40
0.1874999999999999
 40
0.1874999999999999
 40
0.2187499999999999
 40
0.2187499999999999
 40
0.2499999999999999
 40
0.2499999999999999
 40
0.2812499999999999
 40
0.2812499999999999
 40
0.3124999999999999
 40
0.3124999999999999
 40
0.3437499999999999
 40
0.3437499999999999
 40
0.3749999999999999
 40
0.3749999999999999
 40
0.3906249999999999
 40
0.3906249999999999
 40
0.4062499999999999
 40
0.4062499999999999
 40
0.4374999999999999
 40
0.4374999999999999
 40
0.4687499999999999
 40
0.4687499999999999
 40
0.5
 40
0.5
 40
0.53125
 40
0.53125
 40
0.5625
 40
0.5625
 40
0.59375
 40
0.59375
 40
0.625
 40
0.625
 40
0.65625
 40
0.65625
 40
0.6875
 40
0.6875
 40
0.71875
 40
0.71875
 40
0.7499999999999999
 40
0.7499999999999999
 40
0.7812499999999999
 40
0.7812499999999999
 40
0.8124999999999999
 40
0.8124999999999999
 40
0.8437499999999999
 40
0.8437499999999999
 40
0.8749999999999999
 40
0.8749999999999999
 40
0.9062499999999999
 40
0.9062499999999999
 40
0.9374999999999999
 40
0.9374999999999999
 40
0.9687499999999999
 40
0.9687499999999999
 40
1.0
 40
1.0
 40
1.03125
 40
1.03125
 10
79.48116625686319
 20
133.5102301975752
 30
0.0
 10
79.85559647673708
 20
133.9205859980603
 30
0.0
 10
80.06044907800268
 20
134.1042350807189
 30
0.0
 10
80.50331727484966
 20
134.4311899842142
 30
0.0
 10
80.74327269216798
 20
134.574968192394
 30
0.0
 10
81.23888367494251
 20
134.8124855478399
 30
0.0
 10
81.49614996609698
 20
134.9078051127376
 30
0.0
 10
82.02950373393404
 20
135.0518906453721
 30
0.0
 10
82.30378387383233
 20
135.0996266523417
 30
0.0
 10
82.85021240841189
 20
135.1452087928755
 30
0.0
 10
83.12478872687966
 20
135.1437750328033
 30
0.0
 10
83.67675590115037
 20
135.0908617247124
 30
0.0
 10
83.94737286372205
 20
135.0398919985082
 30
0.0
 10
84.47365803480126
 20
134.8912853715647
 30
0.0
 10
84.73128959820887
 20
134.7930000008076
 30
0.0
 10
85.2272157628824
 20
134.5487466416218
 30
0.0
 10
85.46019944067403
 20
134.4056665105996
 30
0.0
 10
85.89653271599902
 20
134.0778079601308
 30
0.0
 10
86.10181396985732
 20
133.8908143224306
 30
0.0
 10
86.46984826771751
 20
133.4813837026076
 30
0.0
 10
86.63136325770269
 20
133.2612782616231
 30
0.0
 10
86.90852094084981
 20
132.7895281801851
 30
0.0
 10
87.02491512028352
 20
132.5345116537438
 30
0.0
 10
87.19818915693014
 20
132.0132738303469
 30
0.0
 10
87.25663571139592
 20
131.7457897125659
 30
0.0
 10
87.3005004368718
 20
131.3338740532335
 30
0.0
 10
87.30768065350117
 20
131.194166750158
 30
0.0
 10
87.30671262620571
 20
130.9180436946955
 30
0.0
 10
87.29870983679207
 20
130.7808671283647
 30
0.0
 10
87.25263710487967
 20
130.3719336871015
 30
0.0
 10
87.19170227242763
 20
130.1000074380973
 30
0.0
 10
87.01358211601912
 20
129.5768269216422
 30
0.0
 10
86.89801420467674
 20
129.3281149212788
 30
0.0
 10
86.61616742073744
 20
128.8552303962869
 30
0.0
 10
86.44929747532278
 20
128.6316211790547
 30
0.0
 10
86.079971920524
 20
128.2269637908671
 30
0.0
 10
85.8751867642265
 20
128.0425502026975
 30
0.0
 10
85.4305338167103
 20
127.7135241678032
 30
0.0
 10
85.19568468719953
 20
127.5723560918149
 30
0.0
 10
84.70227492472252
 20
127.3339465630345
 30
0.0
 10
84.44098797101786
 20
127.2361640066296
 30
0.0
 10
83.91024969050518
 20
127.0908359784395
 30
0.0
 10
83.64060998960794
 20
127.0425465882445
 30
0.0
 10
83.09285864986272
 20
126.9941313644579
 30
0.0
 10
82.8129546080041
 20
126.9945895500938
 30
0.0
 10
82.2658767001691
 20
127.044741405696
 30
0.0
 10
81.99627159548166
 20
127.093914972728
 30
0.0
 10
81.4651168388256
 20
127.241589496035
 30
0.0
 10
81.20382202238204
 20
127.3407446604006
 30
0.0
 10
80.71150804420665
 20
127.5817574308773
 30
0.0
 10
80.47755116862803
 20
127.7242455555021
 30
0.0
 10
80.03538254809756
 20
128.055732984487
 30
0.0
 10
79.83018901698591
 20
128.2431666124754
 30
0.0
 10
79.46449480062792
 20
128.6500703315258
 30
0.0
 10
79.30172417823958
 20
128.8712494061948
 30
0.0
 10
79.02077174747402
 20
129.35099673541
 30
0.0
 10
78.9075678952005
 20
129.6010087022204
 30
0.0
 10
78.73495917106158
 20
130.1210839122407
 30
0.0
 10
78.67535288838519
 20
130.3948153768705
 30
0.0
 10
78.61746111831533
 20
130.943433026769
 30
0.0
 10
78.6182506571753
 20
131.2177728906606
 30
0.0
 10
78.67944113279171
 20
131.7665148417995
 30
0.0
 10
78.74056985652575
 20
132.0395801556567
 30
0.0
 10
78.91664954215555
 20
132.5597454044251
 30
0.0
 10
79.03298013714551
 20
132.812064537984
 30
0.0
 10
79.31618136688624
 20
133.288468879391
 30
0.0
 10
79.48116625686319
 20
133.5102301975752
 30
0.0
 10
79.85559647673708
 20
133.9205859980603
 30
0.0
  0
CIRCLE
  5
187
330
1F
100
AcDbEntity
  8
0
  6
HIDDEN
 62
     7
370
     0
100
AcDbCircle
 10
82.857219938
 20
131.0693965478
 30
0.0
 40
4.050000000000011
  0
SPLINE
  5
188
330
1F
100
AcDbEntity
  8
0
  6
HIDDEN
 62
     7
370
     0
100
AcDbSpline
210
0.0
220
0.0
230
1.0
 70
     8
 71
     3
 72
     9
 73
     5
 74
     0
 42
0.00000001
 43
0.00000001
 12
1.0
 22
0.0
 32
0.0
 13
1.0
 23
0.0
 33
0.0
 40
0.0
 40
0.0
 40
0.0
 40
0.0
 40
0.5000000629276372
 40
1.0
 40
1.0
 40
1.0
 40
1.0
 10
233.6399148432617
 20
144.3780218016701
 30
0.0
 10
233.7041518270196
 20
144.2262670503466
 30
0.0
 10
233.8326257783664
 20
143.9227575858978
 30
0.0
 10
233.95516124322
 20
143.61680234238
 30
0.0
 10
234.0164289679358
 20
143.4638247398741
 30
0.0
  0
LINE
  5
189
330
1F
100
AcDbEntity
  8
0
  6
HIDDEN
 62
     7
370
     0
100
AcDbLine
 10
234.0164377725
 20
143.4638257323
 30
0.0
 11
232.9337641036
 21
132.8226209569
 31
0.0
  0
LINE
  5
18A
330
1F
100
AcDbEntity
  8
0
  6
HIDDEN
 62
     7
370
     0
100
AcDbLine
 10
232.9337641036
 20
132.8226209569
 30
0.0
 11
231.6857620513
 21
131.0693965478
 31
0.0
  0
CIRCLE
  5
18B
330
1F
100
AcDbEntity
  8
0
  6
HIDDEN
 62
     7
370
     0
100
AcDbCircle
 10
110.357219938
 20
131.0693965478
 30
0.0
 40
2.0
  0
LINE
  5
18C
330
1F
100
AcDbEntity
  8
0
  6
HIDDEN
 62
     7
370
     0
100
AcDbLine
 10
98.357219938
 20
106.8193958325
 30
0.0
 11
98.4501131585
 21
106.9122896714
 31
0.0
  0
LINE
  5
18D
330
1F
100
AcDbEntity
  8
0
  6
HIDDEN
 62
     7
370
     0
100
AcDbLine
 10
98.4501131585
 20
155.2265034241
 30
0.0
 11
98.357219938
 21
155.319397263
 31
0.0
  0
ARC
  5
18E
330
1F
100
AcDbEntity
  8
0
  6
HIDDEN
 62
     7
370
     0
100
AcDbCircle
 10
97.7430063757
 20
107.6193965478
 30
0.0
 40
1.000000000000008
100
AcDbArc
 50
315.0
 51
0.0
  0
ARC
  5
18F
330
1F
100
AcDbEntity
  8
0
  6
HIDDEN
 62
     7
370
     0
100
AcDbCircle
 10
97.7430063757
 20
107.6193965478
 30
0.0
 40
0.9999999999999927
100
AcDbArc
 50
0.0
 51
52.1052014664
  0
ARC
  5
190
330
1F
100
AcDbEntity
  8
0
  6
HIDDEN
 62
     7
370
     0
100
AcDbCircle
 10
97.7430063757
 20
154.5193965478
 30
0.0
 40
1.00000000000001
100
AcDbArc
 50
351.8087250651
 51
45.0
  0
ARC
  5
191
330
1F
100
AcDbEntity
  8
0
  6
HIDDEN
 62
     7
370
     0
100
AcDbCircle
 10
97.7430063757
 20
154.5193965478
 30
0.0
 40
1.000000000000026
100
AcDbArc
 50
307.8947985336
 51
351.8087250651
  0
LINE
  5
192
330
1F
100
AcDbEntity
  8
0
  6
HIDDEN
 62
     7
370
     0
100
AcDbLine
 10
98.7430063738
 20
107.6193963362
 30
0.0
 11
98.7430063738
 21
154.5193967594
 31
0.0
  0
LINE
  5
193
330
1F
100
AcDbEntity
  8
0
  6
HIDDEN
 62
     7
370
     0
100
AcDbLine
 10
98.7430063738
 20
107.6193963362
 30
0.0
 11
98.7430063738
 21
154.5193967594
 31
0.0
  0
LINE
  5
194
330
1F
100
AcDbEntity
  8
0
  6
HIDDEN
 62
     7
370
     0
100
AcDbLine
 10
191.2384971416
 20
131.3612204811
 30
0.0
 11
191.8055012262
 21
129.6491692027
 31
0.0
  0
LINE
  5
195
330
1F
100
AcDbEntity
  8
0
  6
HIDDEN
 62
     7
370
     0
100
AcDbLine
 10
191.8055012262
 20
129.6491692027
 30
0.0
 11
193.1037872469
 21
128.3973473308
 31
0.0
  0
LINE
  5
196
330
1F
100
AcDbEntity
  8
0
  6
HIDDEN
 62
     7
370
     0
100
AcDbLine
 10
203.6841183341
 20
140.0787745787
 30
0.0
 11
191.2192671931
 21
132.2341165922
 31
0.0
  0
LINE
  5
197
330
1F
100
AcDbEntity
  8
0
  6
HIDDEN
 62
     7
370
     0
100
AcDbLine
 10
196.3525160587
 20
129.5569134362
 30
0.0
 11
203.6877244151
 21
134.1732716372
 31
0.0
  0
LINE
  5
198
330
1F
100
AcDbEntity
  8
0
  6
HIDDEN
 62
     7
370
     0
100
AcDbLine
 10
193.8824623263
 20
128.0024043934
 30
0.0
 11
194.8656707442
 21
128.6211753448
 31
0.0
  0
LINE
  5
199
330
1F
100
AcDbEntity
  8
0
  6
HIDDEN
 62
     7
370
     0
100
AcDbLine
 10
60.3572211599
 20
114.8729668183
 30
0.0
 11
61.88744748
 21
115.7564454896
 31
0.0
  0
LINE
  5
19A
330
1F
100
AcDbEntity
  8
0
  6
HIDDEN
 62
     7
370
     0
100
AcDbLine
 10
61.88744748
 20
146.3823476059
 30
0.0
 11
60.3572211599
 21
147.2658262772
 31
0.0
  0
ARC
  5
19B
330
1F
100
AcDbEntity
  8
0
  6
HIDDEN
 62
     7
370
     0
100
AcDbCircle
 10
71.3590212529
 20
117.0693965478
 30
0.0
 40
2.0
100
AcDbArc
 50
270.0
 51
315.0
  0
ARC
  5
19C
330
1F
100
AcDbEntity
  8
0
  6
HIDDEN
 62
     7
370
     0
100
AcDbCircle
 10
71.3590212529
 20
145.0693965478
 30
0.0
 40
2.0
100
AcDbArc
 50
45.0
 51
90.0
  0
LINE
  5
19D
330
1F
100
AcDbEntity
  8
0
  6
HIDDEN
 62
     7
370
     0
100
AcDbLine
 10
70.3572190738
 20
115.0693957878
 30
0.0
 11
71.3590204155
 21
115.0693957878
 31
0.0
  0
LINE
  5
19E
330
1F
100
AcDbEntity
  8
0
  6
HIDDEN
 62
     7
370
     0
100
AcDbLine
 10
71.3590204155
 20
147.0693973077
 30
0.0
 11
70.3572190738
 21
147.0693973077
 31
0.0
  0
ARC
  5
19F
330
1F
100
AcDbEntity
  8
0
  6
HIDDEN
 62
     7
370
     0
100
AcDbCircle
 10
70.357219938
 20
117.0693965478
 30
0.0
 40
2.000000000000014
100
AcDbArc
 50
189.9742217944
 51
270.0
  0
ARC
  5
1A0
330
1F
100
AcDbEntity
  8
0
  6
HIDDEN
 62
     7
370
     0
100
AcDbCircle
 10
70.357219938
 20
145.0693965478
 30
0.0
 40
1.999999999999989
100
AcDbArc
 50
90.0
 51
170.0257782056
  0
LINE
  5
1A1
330
1F
100
AcDbEntity
  8
0
  6
HIDDEN
 62
     7
370
     0
100
AcDbLine
 10
72.7732356077
 20
115.6551827861
 30
0.0
 11
74.1874489373
 21
117.0693961156
 31
0.0
  0
LINE
  5
1A2
330
1F
100
AcDbEntity
  8
0
  6
HIDDEN
 62
     7
370
     0
100
AcDbLine
 10
74.1874489373
 20
145.0693969799
 30
0.0
 11
72.7732356077
 21
146.4836103094
 31
0.0
  0
LINE
  5
1A3
330
1F
100
AcDbEntity
  8
0
  6
HIDDEN
 62
     7
370
     0
100
AcDbLine
 10
61.88744748
 20
115.7564454896
 30
0.0
 11
66.7874484694
 21
117.0693961156
 31
0.0
  0
LINE
  5
1A4
330
1F
100
AcDbEntity
  8
0
  6
HIDDEN
 62
     7
370
     0
100
AcDbLine
 10
66.7874484694
 20
145.0693969799
 30
0.0
 11
61.88744748
 21
146.3823476059
 31
0.0
  0
LINE
  5
1A5
330
1F
100
AcDbEntity
  8
0
  6
HIDDEN
 62
     7
370
     0
100
AcDbLine
 10
68.3874476141
 20
145.4158070681
 30
0.0
 11
67.7874486333
 21
145.0693969799
 31
0.0
  0
LINE
  5
1A6
330
1F
100
AcDbEntity
  8
0
  6
HIDDEN
 62
     7
370
     0
100
AcDbLine
 10
67.7874486333
 20
117.0693961156
 30
0.0
 11
68.3874476141
 21
116.7229860274
 31
0.0
  0
ARC
  5
1A7
330
1F
100
AcDbEntity
  8
0
  6
HIDDEN
 62
     7
370
     0
100
AcDbCircle
 10
86.857219938
 20
117.5693965478
 30
0.0
 40
0.5000000000000142
100
AcDbArc
 50
270.0
 51
0.0
  0
ARC
  5
1A8
330
1F
100
AcDbEntity
  8
0
  6
HIDDEN
 62
     7
370
     0
100
AcDbCircle
 10
86.857219938
 20
144.5693965478
 30
0.0
 40
0.5000000000000142
100
AcDbArc
 50
0.0
 51
90.0
  0
LINE
  5
1A9
330
1F
100
AcDbEntity
  8
0
  6
HIDDEN
 62
     7
370
     0
100
AcDbLine
 10
74.1874489373
 20
117.0693961156
 30
0.0
 11
86.8572199157
 21
117.0693961156
 31
0.0
  0
LINE
  5
1AA
330
1F
100
AcDbEntity
  8
0
  6
HIDDEN
 62
     7
370
     0
100
AcDbLine
 10
86.8572199157
 20
145.0693969799
 30
0.0
 11
74.1874489373
 21
145.0693969799
 31
0.0
  0
LINE
  5
1AB
330
1F
100
AcDbEntity
  8
0
  6
HIDDEN
 62
     7
370
     0
100
AcDbLine
 10
66.7874484694
 20
117.0693961156
 30
0.0
 11
67.7874486333
 21
117.0693961156
 31
0.0
  0
LINE
  5
1AC
330
1F
100
AcDbEntity
  8
0
  6
HIDDEN
 62
     7
370
     0
100
AcDbLine
 10
67.7874486333
 20
145.0693969799
 30
0.0
 11
66.7874484694
 21
145.0693969799
 31
0.0
  0
LINE
  5
1AD
330
1F
100
AcDbEntity
  8
0
  6
HIDDEN
 62
     7
370
     0
100
AcDbLine
 10
87.3572199976
 20
120.8193962646
 30
0.0
 11
88.6072197369
 21
122.0693969352
 31
0.0
  0
LINE
  5
1AE
330
1F
100
AcDbEntity
  8
0
  6
HIDDEN
 62
     7
370
     0
100
AcDbLine
 10
88.6072197369
 20
140.0693961603
 30
0.0
 11
87.3572199976
 21
141.3193968309
 31
0.0
  0
LINE
  5
1AF
330
1F
100
AcDbEntity
  8
0
  6
HIDDEN
 62
     7
370
     0
100
AcDbLine
 10
88.6072197369
 20
122.0693969352
 30
0.0
 11
114.357220698
 21
122.0693969352
 31
0.0
  0
LINE
  5
1B0
330
1F
100
AcDbEntity
  8
0
  6
HIDDEN
 62
     7
370
     0
100
AcDbLine
 10
114.357220698
 20
140.0693961603
 30
0.0
 11
88.6072197369
 21
140.0693961603
 31
0.0
  0
LINE
  5
1B1
330
1F
100
AcDbEntity
  8
0
  6
HIDDEN
 62
     7
370
     0
100
AcDbLine
 10
114.357220698
 20
122.0693969352
 30
0.0
 11
117.2113071567
 21
126.8193963168
 31
0.0
  0
LINE
  5
1B2
330
1F
100
AcDbEntity
  8
0
  6
HIDDEN
 62
     7
370
     0
100
AcDbLine
 10
117.2113071567
 20
135.3193967787
 30
0.0
 11
114.357220698
 21
140.0693961603
 31
0.0
  0
LINE
  5
1B3
330
1F
100
AcDbEntity
  8
0
  6
HIDDEN
 62
     7
370
     0
100
AcDbLine
 10
198.3572214282
 20
126.8193963168
 30
0.0
 11
200.9108781254
 21
131.0693965478
 31
0.0
  0
LINE
  5
1B4
330
1F
100
AcDbEntity
  8
0
  6
HIDDEN
 62
     7
370
     0
100
AcDbLine
 10
200.9108781254
 20
131.0693965478
 30
0.0
 11
198.3572214282
 21
135.3193967787
 31
0.0
  0
LINE
  5
1B5
330
1F
100
AcDbEntity
  8
0
  6
HIDDEN
 62
     7
370
     0
100
AcDbLine
 10
117.2113071567
 20
126.8193963168
 30
0.0
 11
198.3572214282
 21
126.8193963168
 31
0.0
  0
LINE
  5
1B6
330
1F
100
AcDbEntity
  8
0
  6
HIDDEN
 62
     7
370
     0
100
AcDbLine
 10
198.3572214282
 20
135.3193967787
 30
0.0
 11
117.2113071567
 21
135.3193967787
 31
0.0
  0
LINE
  5
1B7
330
1F
100
AcDbEntity
  8
0
  6
HIDDEN
 62
     7
370
     0
100
AcDbLine
 10
229.3352230823
 20
136.6118811255
 30
0.0
 11
229.761634711
 21
137.1765131315
 31
0.0
  0
LINE
  5
1B8
330
1F
100
AcDbEntity
  8
0
  6
HIDDEN
 62
     7
370
     0
100
AcDbLine
 10
224.1756215131
 20
141.395098455
 30
0.0
 11
223.7492098844
 21
140.830466449
 31
0.0
  0
LINE
  5
1B9
330
1F
100
AcDbEntity
  8
0
  6
HIDDEN
 62
     7
370
     0
100
AcDbLine
 10
221.9168140924
 20
148.1324889881
 30
0.0
 11
221.4255302584
 21
147.4819601698
 31
0.0
  0
LINE
  5
1BA
330
1F
100
AcDbEntity
  8
0
  6
HIDDEN
 62
     7
370
     0
100
AcDbLine
 10
229.3933972156
 20
140.144793242
 30
0.0
 11
231.2734618223
 21
144.3948316572
 31
0.0
  0
LINE
  5
1BB
330
1F
100
AcDbEntity
  8
0
  6
HIDDEN
 62
     7
370
     0
100
AcDbLine
 10
227.8221591747
 20
133.4468432886
 30
0.0
 11
229.8498644865
 21
136.13180669
 31
0.0
  0
LINE
  5
1BC
330
1F
100
AcDbEntity
  8
0
  6
HIDDEN
 62
     7
370
     0
100
AcDbLine
 10
223.1466516292
 20
141.1941087989
 30
0.0
 11
221.1189463174
 21
138.5091458631
 31
0.0
  0
LINE
  5
1BD
330
1F
100
AcDbEntity
  8
0
  6
HIDDEN
 62
     7
370
     0
100
AcDbLine
 10
221.6033607161
 20
147.5782384349
 30
0.0
 11
221.2960466182
 21
147.1713100744
 31
0.0
  0
LINE
  5
1BE
330
1F
100
AcDbEntity
  8
0
  6
HIDDEN
 62
     7
370
     0
100
AcDbLine
 10
227.9703065193
 20
152.0041664315
 30
0.0
 11
227.4372174776
 21
151.2982723487
 31
0.0
  0
LINE
  5
1BF
330
1F
100
AcDbEntity
  8
0
  6
HIDDEN
 62
     7
370
     0
100
AcDbLine
 10
232.544426564
 20
147.4412799997
 30
0.0
 11
233.0775156057
 21
148.1471740825
 31
0.0
  0
LINE
  5
1C0
330
1F
100
AcDbEntity
  8
0
  6
HIDDEN
 62
     7
370
     0
100
AcDbLine
 10
227.2210165298
 20
148.7016667796
 30
0.0
 11
225.4809036291
 21
144.7679902611
 31
0.0
  0
LINE
  5
1C1
330
1F
100
AcDbEntity
  8
VERMASSUNG
  6
CENTERX2
100
AcDbLine
 10
238.357219938
 20
131.0693965478
 30
0.0
 11
238.357219938
 21
158.0693965478
 31
0.0
  0
LINE
  5
1C2
330
1F
100
AcDbEntity
  8
VERMASSUNG
  6
CENTERX2
100
AcDbLine
 10
57.517859233
 20
131.0693965478
 30
0.0
 11
238.357219938
 21
131.0693965478
 31
0.0
  0
LINE
  5
1C3
330
1F
100
AcDbEntity
  8
VERMASSUNG
  6
CENTERX2
100
AcDbLine
 10
238.357219938
 20
158.0693965478
 30
0.0
 11
258.1229226738
 21
158.0693965478
 31
0.0
  0
DIMENSION
  5
1C4
330
1F
100
AcDbEntity
  8
VERMASSUNG
100
AcDbDimension
  2
_D
 10
238.357219938
 20
158.0693965478
 30
0.0
 11
245.7121822744
 21
150.0792269396
 31
0.0
 70
   162
  1
<>
 71
     1
 42
-1.0
  3
SLDDIMSTYLE0
100
AcDb2LineAngularDimension
 13
237.3083223378
 23
145.7278015048
 33
0.0
 14
238.3557061556
 24
157.6329266837
 34
0.0
 15
258.1229226738
 25
158.0693965478
 35
0.0
 16
245.7121822744
 26
150.0792269396
 36
0.0
  0
DIMENSION
  5
1CD
330
1F
100
AcDbEntity
  8
VERMASSUNG
100
AcDbDimension
  2
_D_1
 10
260.3903774734
 20
158.0693965478
 30
0.0
 11
260.3903774734
 21
144.5693965478
 31
0.0
 70
   160
  1
<>
 71
     2
 42
-1.0
  3
SLDDIMSTYLE1
100
AcDbAlignedDimension
 13
238.357219938
 23
131.0693965478
 33
0.0
 14
238.357219938
 24
158.0693965478
 34
0.0
 50
90.0
100
AcDbRotatedDimension
  0
DIMENSION
  5
1D8
330
1F
100
AcDbEntity
  8
VERMASSUNG
100
AcDbDimension
  2
_D_2
 10
238.357219938
 20
172.5693965478
 30
0.0
 11
168.357219938
 21
172.5693965478
 31
0.0
 70
   160
  1
<>
 71
     2
 42
-1.0
  3
SLDDIMSTYLE1
100
AcDbAlignedDimension
 13
98.357219938
 23
162.0693965478
 33
0.0
 14
238.357219938
 24
158.0693965478
 34
0.0
100
AcDbRotatedDimension
  0
DIMENSION
  5
1E2
330
1F
100
AcDbEntity
  8
VERMASSUNG
100
AcDbDimension
  2
_D_3
 10
60.357219938
 20
184.5693965478
 30
0.0
 11
149.357219938
 21
184.5693965478
 31
0.0
 70
   160
  1
<>
 71
     2
 42
-1.0
  3
SLDDIMSTYLE1
100
AcDbAlignedDimension
 13
238.357219938
 23
158.0693965478
 33
0.0
 14
60.357219938
 24
151.3617345403
 34
0.0
100
AcDbRotatedDimension
  0
DIMENSION
  5
1EC
330
1F
100
AcDbEntity
  8
VERMASSUNG
100
AcDbDimension
  2
_D_4
 10
50.357219938
 20
99.5693965478
 30
0.0
 11
50.357219938
 21
131.0693965478
 31
0.0
 70
   160
  1
PSC%%c<>
 71
     2
 42
-1.0
  3
SLDDIMSTYLE1
100
AcDbAlignedDimension
 13
98.857219938
 23
162.5693965478
 33
0.0
 14
98.857219938
 24
99.5693965478
 34
0.0
 50
90.0
100
AcDbRotatedDimension
  0
DIMENSION
  5
1F8
330
1F
100
AcDbEntity
  8
VERMASSUNG
100
AcDbDimension
  2
_D_5
 10
142.8402985872
 20
111.0693965478
 30
0.0
 11
142.8402985872
 21
120.5695963371
 31
0.0
 70
   160
  1
%%c<>
 71
     2
 42
-1.0
  3
SLDDIMSTYLE1
100
AcDbAlignedDimension
 13
124.357219938
 23
151.0693965478
 33
0.0
 14
124.357219938
 24
111.0693965478
 34
0.0
 50
90.0
100
AcDbRotatedDimension
  0
LINE
  5
201
330
1F
100
AcDbEntity
  8
0
  6
Continuous
 62
     7
370
    15
100
AcDbLine
 10
173.1779819235
 20
71.0679492868
 30
0.0
 11
172.9503173262
 21
70.8944112949
 31
0.0
  0
LINE
  5
202
330
1F
100
AcDbEntity
  8
0
  6
Continuous
 62
     7
370
    15
100
AcDbLine
 10
171.9815013345
 20
64.0009292356
 30
0.0
 11
172.1525133468
 21
63.7713614806
 31
0.0
  0
LINE
  5
203
330
1F
100
AcDbEntity
  8
0
  6
Continuous
 62
     7
370
    15
100
AcDbLine
 10
183.2831669014
 20
84.4268067695
 30
0.0
 11
180.6200467397
 21
84.8010848231
 31
0.0
  0
LINE
  5
204
330
1F
100
AcDbEntity
  8
0
  6
Continuous
 62
     7
370
    15
100
AcDbLine
 10
183.5439437416
 20
84.0832940258
 30
0.0
 11
183.2932754766
 21
84.4197939105
 31
0.0
  0
LINE
  5
205
330
1F
100
AcDbEntity
  8
0
  6
Continuous
 62
     7
370
    15
100
AcDbLine
 10
180.678336357
 20
85.4978258677
 30
0.0
 11
175.9904824646
 21
86.1566620834
 31
0.0
  0
LINE
  5
206
330
1F
100
AcDbEntity
  8
0
  6
Continuous
 62
     7
370
    15
100
AcDbLine
 10
175.0194101475
 20
84.0206458188
 30
0.0
 11
174.5739748582
 21
83.439066536
 31
0.0
  0
LINE
  5
207
330
1F
100
AcDbEntity
  8
0
  6
Continuous
 62
     7
370
    15
100
AcDbLine
 10
175.1349902476
 20
84.2298469461
 30
0.0
 11
175.1288748926
 21
84.2003594108
 31
0.0
  0
LINE
  5
208
330
1F
100
AcDbEntity
  8
0
  6
Continuous
 62
     7
370
    15
100
AcDbLine
 10
173.3016590003
 20
74.8287583656
 30
0.0
 11
173.5807207294
 21
74.1184563331
 31
0.0
  0
SPLINE
  5
209
330
1F
100
AcDbEntity
  8
0
  6
Continuous
 62
     7
370
    15
100
AcDbSpline
210
0.0
220
0.0
230
1.0
 70
     8
 71
     3
 72
    13
 73
     9
 74
     0
 42
0.00000001
 43
0.00000001
 12
1.0
 22
0.0
 32
0.0
 13
1.0
 23
0.0
 33
0.0
 40
0.0
 40
0.0
 40
0.0
 40
0.0
 40
0.0150678943177075
 40
0.2349949284121134
 40
0.4235635900244401
 40
0.5872876286865131
 40
0.7629560606036458
 40
1.0
 40
1.0
 40
1.0
 40
1.0
 10
173.5980754599062
 20
74.12249361647189
 30
0.0
 10
173.6002475965778
 20
74.11878385183488
 30
0.0
 10
173.6341236704937
 20
74.06092733539543
 30
0.0
 10
173.6466199691915
 20
73.9411247011765
 30
0.0
 10
173.6466153408122
 20
73.80387251649897
 30
0.0
 10
173.6277699598417
 20
73.71663457084814
 30
0.0
 10
173.6112809597119
 20
73.66735376944719
 30
0.0
 10
173.6094175248909
 20
73.66373384421837
 30
0.0
 10
173.6083472494122
 20
73.6616547174555
 30
0.0
  0
LINE
  5
20A
330
1F
100
AcDbEntity
  8
0
  6
Continuous
 62
     7
370
    15
100
AcDbLine
 10
172.7022248667
 20
72.5915352769
 30
0.0
 11
172.9994855702
 21
72.5497580088
 31
0.0
  0
LWPOLYLINE
  5
20B
330
1F
100
AcDbEntity
  8
0
  6
Continuous
 62
     7
370
    15
100
AcDbPolyline
 90
       27
 70
   128
 43
0.0
 10
173.0367738634
 20
70.8674411244
 10
173.0909258474
 20
70.6404088951
 10
173.1109674435
 20
70.2275154136
 10
173.0957333345
 20
69.6527571372
 10
173.0461094409
 20
68.9495350189
 10
172.9649791375
 20
68.1587201498
 10
172.8570577104
 20
67.326270505
 10
172.7286171515
 20
66.500564567
 10
172.5871217784
 20
65.7295901283
 10
172.4407951694
 20
65.0581535838
 10
172.2981409982
 20
64.5252759523
 10
172.1674498983
 20
64.1619260378
 10
172.0563168053
 20
63.9892211139
 10
171.9712013725
 20
64.0171971127
 10
171.9170491558
 20
64.244229342
 10
171.8970075596
 20
64.6571223579
 10
171.9122416686
 20
65.2318810999
 10
171.961865795
 20
65.9351027526
 10
172.0429960985
 20
66.7259180873
 10
172.1509172928
 20
67.5583681978
 10
172.2793578517
 20
68.3840732045
 10
172.4208532248
 20
69.1550481088
 10
172.5671798337
 20
69.8264841877
 10
172.7098340049
 20
70.3593618192
 10
172.8405251049
 20
70.7227117337
 10
172.951657965
 20
70.8954171233
 10
173.0367738634
 20
70.8674411244
  0
LWPOLYLINE
  5
20C
330
1F
100
AcDbEntity
  8
0
  6
Continuous
 62
     7
370
    15
100
AcDbPolyline
 90
       20
 70
   128
 43
0.0
 10
172.8084368512
 20
69.3995314605
 10
172.8459284056
 20
69.1946293182
 10
172.8463654287
 20
68.7998379536
 10
172.8097006559
 20
68.257937669
 10
172.7399068765
 20
67.6276530094
 10
172.6445478268
 20
66.9772843785
 10
172.5339565307
 20
66.3773091465
 10
172.4201179456
 20
65.8927443392
 10
172.3153676719
 20
65.5761002518
 10
172.2310576003
 20
65.4616896018
 10
172.1763233069
 20
65.5619110867
 10
172.1570968509
 20
65.8659040883
 10
172.1754611351
 20
66.3407258645
 10
172.2294266217
 20
66.9349222399
 10
172.3131448377
 20
67.5841034345
 10
172.41754377
 20
68.2179196693
 10
172.5313104104
 20
68.767687767
 10
172.6421159107
 20
69.1738310225
 10
172.7379531946
 20
69.3923388563
 10
172.8084368512
 20
69.3995314605
  0
LINE
  5
20D
330
1F
100
AcDbEntity
  8
0
  6
Continuous
 62
     7
370
    15
100
AcDbLine
 10
172.7430489261
 20
67.6521449305
 30
0.0
 11
172.6238820117
 21
67.6688929044
 31
0.0
  0
LINE
  5
20E
330
1F
100
AcDbEntity
  8
0
  6
Continuous
 62
     7
370
    15
100
AcDbLine
 10
181.7925287757
 20
73.7115959592
 30
0.0
 11
183.2349812027
 21
83.3357400216
 31
0.0
  0
LINE
  5
20F
330
1F
100
AcDbEntity
  8
0
  6
Continuous
 62
     7
370
    15
100
AcDbLine
 10
183.5031378429
 20
83.3244561173
 30
0.0
 11
182.0606854159
 21
73.7003129862
 31
0.0
  0
ARC
  5
210
330
1F
100
AcDbEntity
  8
0
  6
Continuous
 62
     7
370
    15
100
AcDbCircle
 10
180.6986276122
 20
83.9943525457
 30
0.0
 40
2.620469422261736
100
AcDbArc
 50
345.4435466697
 51
9.4989363322
  0
ARC
  5
211
330
1F
100
AcDbEntity
  8
0
  6
Continuous
 62
     7
370
    15
100
AcDbCircle
 10
181.4245110277
 20
83.81674871
 30
0.0
 40
2.136127672627677
100
AcDbArc
 50
346.6758278313
 51
7.168032447
  0
ARC
  5
212
330
1F
100
AcDbEntity
  8
0
  6
Continuous
 62
     7
370
    15
100
AcDbCircle
 10
177.7541960981
 20
74.1874661186
 30
0.0
 40
4.066273874703185
100
AcDbArc
 50
340.908021733
 51
353.2793570808
  0
LINE
  5
213
330
1F
100
AcDbEntity
  8
0
  6
Continuous
 62
     7
370
    15
100
AcDbLine
 10
181.6121511508
 20
72.8552895553
 30
0.0
 11
181.9062590946
 21
73.0794346846
 31
0.0
  0
ARC
  5
214
330
1F
100
AcDbEntity
  8
0
  6
Continuous
 62
     7
370
    15
100
AcDbCircle
 10
180.1944214804
 20
73.8348507806
 30
0.0
 40
1.871107023979519
100
AcDbArc
 50
336.1886320496
 51
355.8767161212
  0
LINE
  5
215
330
1F
100
AcDbEntity
  8
0
  6
Continuous
 62
     7
370
    15
100
AcDbLine
 10
172.7060453847
 20
72.5925355173
 30
0.0
 11
174.0986419024
 21
73.4603223346
 31
0.0
  0
ARC
  5
216
330
1F
100
AcDbEntity
  8
0
  6
Continuous
 62
     7
370
    15
100
AcDbCircle
 10
173.5971670008
 20
72.7788965014
 30
0.0
 40
0.9103999950965844
100
AcDbArc
 50
164.1226812205
 51
191.8120732467
  0
LINE
  5
217
330
1F
100
AcDbEntity
  8
0
  6
Continuous
 62
     7
370
    15
100
AcDbLine
 10
174.50582172
 20
84.9330886222
 30
0.0
 11
172.721499053
 21
73.0279623486
 31
0.0
  0
ARC
  5
218
330
1F
100
AcDbEntity
  8
0
  6
Continuous
 62
     7
370
    15
100
AcDbCircle
 10
175.5722346387
 20
84.8562127996
 30
0.0
 40
1.069180249189608
100
AcDbArc
 50
156.1883656158
 51
175.8767810383
  0
LINE
  5
219
330
1F
100
AcDbEntity
  8
0
  6
Continuous
 62
     7
370
    15
100
AcDbLine
 10
175.9866619902
 20
86.155661843
 30
0.0
 11
174.5940654652
 21
85.2878740944
 31
0.0
  0
ARC
  5
21A
330
1F
100
AcDbEntity
  8
0
  6
Continuous
 62
     7
370
    15
100
AcDbCircle
 10
175.0955388585
 20
85.9693010444
 30
0.0
 40
0.9104014406169668
100
AcDbArc
 50
344.1226949599
 51
11.8120422957
  0
LINE
  5
21B
330
1F
100
AcDbEntity
  8
0
  6
Continuous
 62
     7
370
    15
100
AcDbLine
 10
174.1868856477
 20
73.8151087381
 30
0.0
 11
175.9712082564
 21
85.7202350117
 31
0.0
  0
ARC
  5
21C
330
1F
100
AcDbEntity
  8
0
  6
Continuous
 62
     7
370
    15
100
AcDbCircle
 10
173.1204692165
 20
73.8919843012
 30
0.0
 40
1.069183733905875
100
AcDbArc
 50
336.1884086711
 51
355.8768084418
  0
ARC
  5
21D
330
1F
100
AcDbEntity
  8
0
  6
Continuous
 62
     7
370
    15
100
AcDbCircle
 10
175.1375008356
 20
85.9588635092
 30
0.0
 40
0.8648831468225356
100
AcDbArc
 50
344.1227019952
 51
11.8120420731
  0
LINE
  5
21E
330
1F
100
AcDbEntity
  8
0
  6
Continuous
 62
     7
370
    15
100
AcDbLine
 10
175.9840695519
 20
86.1359066285
 30
0.0
 11
174.5914730124
 21
85.2681188799
 31
0.0
  0
ARC
  5
21F
330
1F
100
AcDbEntity
  8
0
  6
Continuous
 62
     7
370
    15
100
AcDbCircle
 10
175.5207352597
 20
84.8580404112
 30
0.0
 40
1.015722735180402
100
AcDbArc
 50
156.1883882032
 51
175.8768473753
  0
LINE
  5
220
330
1F
100
AcDbEntity
  8
0
  6
Continuous
 62
     7
370
    15
100
AcDbLine
 10
174.5076414079
 20
84.9310713775
 30
0.0
 11
172.7233188573
 21
73.0259469665
 31
0.0
  0
ARC
  5
221
330
1F
100
AcDbEntity
  8
0
  6
Continuous
 62
     7
370
    15
100
AcDbCircle
 10
173.5552001611
 20
72.7893343748
 30
0.0
 40
0.8648768826153678
100
AcDbArc
 50
164.1226200282
 51
191.8121643013
  0
LINE
  5
222
330
1F
100
AcDbEntity
  8
0
  6
Continuous
 62
     7
370
    15
100
AcDbLine
 10
172.7086379539
 20
72.6122907318
 30
0.0
 11
174.1012343552
 21
73.4800775491
 31
0.0
  0
ARC
  5
223
330
1F
100
AcDbEntity
  8
0
  6
Continuous
 62
     7
370
    15
100
AcDbCircle
 10
173.1719656733
 20
73.8901576182
 30
0.0
 40
1.015729268146152
100
AcDbArc
 50
336.1884521497
 51
355.8767834288
  0
LINE
  5
224
330
1F
100
AcDbEntity
  8
0
  6
Continuous
 62
     7
370
    15
100
AcDbLine
 10
174.1850659598
 20
73.8171250514
 30
0.0
 11
175.969388503
 21
85.7222503938
 31
0.0
  0
ARC
  5
225
330
1F
100
AcDbEntity
  8
0
  6
Continuous
 62
     7
370
    15
100
AcDbCircle
 10
179.6445289704
 20
85.3248433689
 30
0.0
 40
1.048179687518776
100
AcDbArc
 50
345.4434566239
 51
9.4990550954
  0
LINE
  5
226
330
1F
100
AcDbEntity
  8
0
  6
Continuous
 62
     7
370
    15
100
AcDbLine
 10
178.8747396201
 20
73.156274385
 30
0.0
 11
180.6590621706
 21
85.061398796
 31
0.0
  0
LINE
  5
227
330
1F
100
AcDbEntity
  8
0
  6
Continuous
 62
     7
370
    15
100
AcDbLine
 10
175.0912169807
 20
84.2362786598
 30
0.0
 11
174.7582845271
 21
84.8624012388
 31
0.0
  0
ARC
  5
228
330
1F
100
AcDbEntity
  8
0
  6
Continuous
 62
     7
370
    15
100
AcDbCircle
 10
177.808318408
 20
73.2331500042
 30
0.0
 40
1.069188506538684
100
AcDbArc
 50
336.1884637024
 51
355.876823869
  0
LINE
  5
229
330
1F
100
AcDbEntity
  8
0
  6
Continuous
 62
     7
370
    15
100
AcDbLine
 10
173.6720010519
 20
73.7872053824
 30
0.0
 11
172.9739619766
 21
72.9572758965
 31
0.0
  0
ARC
  5
22A
330
1F
100
AcDbEntity
  8
0
  6
Continuous
 62
     7
370
    15
100
AcDbCircle
 10
173.1371831512
 20
83.4702314842
 30
0.0
 40
2.275991975447851
100
AcDbArc
 50
344.1226222512
 51
11.8121138569
  0
LINE
  5
22B
330
1F
100
AcDbEntity
  8
0
  6
Continuous
 62
     7
370
    15
100
AcDbLine
 10
178.7081525542
 20
72.7526680521
 30
0.0
 11
178.7864958748
 21
72.8014870502
 31
0.0
  0
LINE
  5
22C
330
1F
100
AcDbEntity
  8
0
  6
Continuous
 62
     7
370
    15
100
AcDbLine
 10
174.3277238563
 20
76.1846988417
 30
0.0
 11
175.3263446733
 21
82.847566805
 31
0.0
  0
ARC
  5
22D
330
1F
100
AcDbEntity
  8
0
  6
Continuous
 62
     7
370
    15
100
AcDbCircle
 10
171.6616651039
 20
76.3768907669
 30
0.0
 40
2.672977180410909
100
AcDbArc
 50
336.1884740517
 51
355.8767711723
  0
LINE
  5
22E
330
1F
100
AcDbEntity
  8
0
  6
Continuous
 62
     7
370
    15
100
AcDbLine
 10
173.327728349
 20
74.8120616145
 30
0.0
 11
174.1071143767
 21
75.297731436
 31
0.0
  0
ARC
  5
22F
330
1F
100
AcDbEntity
  8
0
  6
Continuous
 62
     7
370
    15
100
AcDbCircle
 10
175.5555380276
 20
75.2779647058
 30
0.0
 40
2.276005635932157
100
AcDbArc
 50
164.1226894331
 51
191.8120597449
  0
LINE
  5
230
330
1F
100
AcDbEntity
  8
0
  6
Continuous
 62
     7
370
    15
100
AcDbLine
 10
174.3649836278
 20
82.5634985186
 30
0.0
 11
173.3663626362
 21
75.9006305553
 31
0.0
  0
ARC
  5
231
330
1F
100
AcDbEntity
  8
0
  6
Continuous
 62
     7
370
    15
100
AcDbCircle
 10
177.031032062
 20
82.3713091598
 30
0.0
 40
2.672966704448108
100
AcDbArc
 50
156.1884350861
 51
175.8768101379
  0
LINE
  5
232
330
1F
100
AcDbEntity
  8
0
  6
Continuous
 62
     7
370
    15
100
AcDbLine
 10
175.3649790187
 20
83.9361338831
 30
0.0
 11
174.5855931074
 21
83.4504659243
 31
0.0
  0
LWPOLYLINE
  5
233
330
1F
100
AcDbEntity
  8
0
  6
Continuous
 62
     7
370
    15
100
AcDbPolyline
 90
       23
 70
   128
 43
0.0
 10
174.5811016878
 20
79.1140343018
 10
174.6789260648
 20
79.8407043285
 10
174.7498073962
 20
80.5295738347
 10
174.7880033797
 20
81.1248323835
 10
174.7904194633
 20
81.5782560922
 10
174.7568599528
 20
81.8531135984
 10
174.6900437281
 20
81.9271351166
 10
174.5953837523
 20
81.7943247922
 10
174.4805488849
 20
81.4654431261
 10
174.3548423398
 20
80.967131532
 10
174.228448013
 20
80.3397628434
 10
174.1116057962
 20
79.6341611959
 10
174.0137813028
 20
78.9074911691
 10
173.9428999715
 20
78.2186235256
 10
173.9047041044
 20
77.6233649768
 10
173.9022880208
 20
77.1699412681
 10
173.9358472984
 20
76.8950837619
 10
174.0026636396
 20
76.8210622437
 10
174.0973236153
 20
76.9538725681
 10
174.2121584827
 20
77.2827542342
 10
174.3378650278
 20
77.7810658283
 10
174.4642593546
 20
78.4084345169
 10
174.5811016878
 20
79.1140343018
  0
LINE
  5
234
330
1F
100
AcDbEntity
  8
0
  6
Continuous
 62
     7
370
    15
100
AcDbLine
 10
175.0394369589
 20
84.0405723966
 30
0.0
 11
175.0342108423
 21
84.0097623832
 31
0.0
  0
ELLIPSE
  5
235
330
1F
100
AcDbEntity
  8
0
  6
Continuous
 62
     7
370
    15
100
AcDbEllipse
 10
174.6156192575
 20
78.6552615703
 30
0.0
 11
0.3137265769724138
 21
2.230774236460974
 31
0.0
210
0.0
220
0.0
230
1.0
 40
0.1044186664
 41
0.5791202540460152
 42
1.010969843090302
  0
LINE
  5
236
330
1F
100
AcDbEntity
  8
0
  6
Continuous
 62
     7
370
    15
100
AcDbLine
 10
174.5848439748
 20
79.8676474906
 30
0.0
 11
174.4278522089
 21
78.9932678409
 31
0.0
  0
ELLIPSE
  5
237
330
1F
100
AcDbEntity
  8
0
  6
Continuous
 62
     7
370
    15
100
AcDbEllipse
 10
174.6156192575
 20
78.6552615703
 30
0.0
 11
0.3137265769724138
 21
2.230774236460974
 31
0.0
210
0.0
220
0.0
230
1.0
 40
0.1044186664
 41
1.433391603808623
 42
1.516282291572214
  0
SPLINE
  5
238
330
1F
100
AcDbEntity
  8
0
  6
Continuous
 62
     7
370
    15
100
AcDbSpline
210
0.0
220
0.0
230
1.0
 70
    24
 71
     3
 72
     9
 73
     5
 74
     0
 42
0.00000001
 43
0.00000001
 12
1.0
 22
0.0
 32
0.0
 13
1.0
 23
0.0
 33
0.0
 40
0.0
 40
0.0
 40
0.0
 40
0.0
 40
0.5000000629276372
 40
1.0
 40
1.0
 40
1.0
 40
1.0
 10
196.5327107619581
 20
72.46532947779112
 30
0.0
 10
196.5327107619581
 20
72.31357472646759
 30
0.0
 10
196.5327107619581
 20
72.01006526201881
 30
0.0
 10
196.5327107619581
 20
71.704110018501
 30
0.0
 10
196.5327107619581
 20
71.55113241599511
 30
0.0
  0
SPLINE
  5
239
330
1F
100
AcDbEntity
  8
0
  6
Continuous
 62
     7
370
    15
100
AcDbSpline
210
0.0
220
0.0
230
1.0
 70
     8
 71
     3
 72
    25
 73
    21
 74
     0
 42
0.00000001
 43
0.00000001
 12
1.0
 22
0.0
 32
0.0
 13
1.0
 23
0.0
 33
0.0
 40
0.0
 40
0.0
 40
0.0
 40
0.0
 40
0.0251360526155847
 40
0.0502550180644507
 40
0.0753641177255834
 40
0.1004705814910641
 40
0.1255816415297319
 40
0.1883288995973448
 40
0.2510679709500794
 40
0.3137540139088527
 40
0.3764235232255442
 40
0.5015802348910783
 40
0.626531982811281
 40
0.68891589639852
 40
0.7512790951062587
 40
0.8135379550392667
 40
0.8757712983888825
 40
0.9171943544141165
 40
0.9585923866311995
 40
1.0
 40
1.0
 40
1.0
 40
1.0
 10
196.5327089867532
 20
71.55113304316404
 30
0.0
 10
196.4614176453834
 20
71.68391527824954
 30
0.0
 10
196.3188834255848
 20
71.94938948475736
 30
0.0
 10
196.0965713499606
 20
72.34276531879121
 30
0.0
 10
195.8681499624187
 20
72.73236896540969
 30
0.0
 10
195.632999859575
 20
73.11787109001227
 30
0.0
 10
195.2705860415477
 20
73.68986148773494
 30
0.0
 10
194.7646899992317
 20
74.43774141221503
 30
0.0
 10
194.0931561641531
 20
75.34411688474032
 30
0.0
 10
193.3837112957725
 20
76.2204924288275
 30
0.0
 10
192.389622298842
 20
77.34587746223238
 30
0.0
 10
191.059077535735
 20
78.66950274497911
 30
0.0
 10
189.6204235475256
 20
79.87255633107158
 30
0.0
 10
188.4119491545621
 20
80.75652742794492
 30
0.0
 10
187.4788029597959
 20
81.37883375470989
 30
0.0
 10
186.5201327160247
 20
81.95969133722407
 30
0.0
 10
185.6470787477176
 20
82.43818754549099
 30
0.0
 10
184.8689441672083
 20
82.8281435303285
 30
0.0
 10
184.1935335497188
 20
83.1440438885935
 30
0.0
 10
183.735827142856
 20
83.33788910051149
 30
0.0
 10
183.5069474596205
 20
83.43482292104632
 30
0.0
  0
SPLINE
  5
23A
330
1F
100
AcDbEntity
  8
0
  6
Continuous
 62
     7
370
    15
100
AcDbSpline
210
0.0
220
0.0
230
1.0
 70
     8
 71
     3
 72
    25
 73
    21
 74
     0
 42
0.00000001
 43
0.00000001
 12
1.0
 22
0.0
 32
0.0
 13
1.0
 23
0.0
 33
0.0
 40
0.0
 40
0.0
 40
0.0
 40
0.0
 40
0.0245280909099331
 40
0.0492188272889397
 40
0.0740723631050046
 40
0.099088849318621
 40
0.1242684339578751
 40
0.1859259705207205
 40
0.2487810943269741
 40
0.3104435925636783
 40
0.3735337332972645
 40
0.4984810115700287
 40
0.6236251569642254
 40
0.6849228974291246
 40
0.7489625924834806
 40
0.8098132217715862
 40
0.874431994395715
 40
0.9136416546365527
 40
0.9554976562085302
 40
1.0
 40
1.0
 40
1.0
 40
1.0
 10
183.5275273211325
 20
83.94424703717793
 30
0.0
 10
183.6611830641463
 20
83.88894419323486
 30
0.0
 10
183.9293808197617
 20
83.77797179287091
 30
0.0
 10
184.3293417701734
 20
83.60246437598707
 30
0.0
 10
184.7290793530309
 20
83.4195609356319
 30
0.0
 10
185.1281717626523
 20
83.22857045532055
 30
0.0
 10
185.7180064226919
 20
82.93393520281582
 30
0.0
 10
186.495530915435
 20
82.51654333488631
 30
0.0
 10
187.4396656118651
 20
81.95740718184716
 30
0.0
 10
188.3664495649354
 20
81.35470396111144
 30
0.0
 10
189.5650517526299
 20
80.50175973002641
 30
0.0
 10
190.999171876676
 20
79.33856163477734
 30
0.0
 10
192.3235510432774
 20
78.06742222865036
 30
0.0
 10
193.3225603652222
 20
76.98209021953863
 30
0.0
 10
194.0311008424084
 20
76.1451197375041
 30
0.0
 10
194.7164151766669
 20
75.26415464094002
 30
0.0
 10
195.2799465909161
 20
74.47456449577713
 30
0.0
 10
195.7538014730559
 20
73.75927514587323
 30
0.0
 10
196.1469458593803
 20
73.13272184054162
 30
0.0
 10
196.4015220671355
 20
72.69229412658309
 30
0.0
 10
196.5327107538916
 20
72.46533209460594
 30
0.0
  0
LINE
  5
23B
330
1F
100
AcDbEntity
  8
0
  6
Continuous
 62
     7
370
    15
100
AcDbLine
 10
196.5327113282
 20
60.9099286331
 30
0.0
 11
172.9451079734
 21
64.2249500334
 31
0.0
  0
LINE
  5
23C
330
1F
100
AcDbEntity
  8
0
  6
Continuous
 62
     7
370
    15
100
AcDbLine
 10
172.9451079734
 20
64.2249500334
 30
0.0
 11
174.3157514718
 21
73.3699793882
 31
0.0
  0
LINE
  5
23D
330
1F
100
AcDbEntity
  8
0
  6
Continuous
 62
     7
370
    15
100
AcDbLine
 10
174.3157514718
 20
73.3699793882
 30
0.0
 11
178.944514773
 21
72.7194496386
 31
0.0
  0
LINE
  5
23E
330
1F
100
AcDbEntity
  8
0
  6
Continuous
 62
     7
370
    15
100
AcDbLine
 10
178.944514773
 20
72.7194496386
 30
0.0
 11
179.0194864731
 21
73.219664856
 31
0.0
  0
LINE
  5
23F
330
1F
100
AcDbEntity
  8
0
  6
Continuous
 62
     7
370
    15
100
AcDbLine
 10
179.0194864731
 20
73.219664856
 30
0.0
 11
181.9149255168
 21
72.8127374269
 31
0.0
  0
LINE
  5
240
330
1F
100
AcDbEntity
  8
0
  6
Continuous
 62
     7
370
    15
100
AcDbLine
 10
181.9149255168
 20
72.8127374269
 30
0.0
 11
181.9918942053
 21
73.3262780078
 31
0.0
  0
LINE
  5
241
330
1F
100
AcDbEntity
  8
0
  6
Continuous
 62
     7
370
    15
100
AcDbLine
 10
196.5327113282
 20
71.5511334084
 30
0.0
 11
196.5327113282
 21
60.9099286331
 31
0.0
  0
LWPOLYLINE
  5
242
330
1F
100
AcDbEntity
  8
0
  6
Continuous
 62
     7
370
    15
100
AcDbPolyline
 90
        3
 70
   128
 43
0.0
 10
172.8912374817
 20
72.4823041774
 10
172.8224548858
 20
72.5437630854
 10
172.8144634396
 20
72.5757614665
  0
ARC
  5
243
330
1F
100
AcDbEntity
  8
0
  6
Continuous
 62
     7
370
    15
100
AcDbCircle
 10
192.2669299266
 20
72.1162807428
 30
0.0
 40
19.50720759929505
100
AcDbArc
 50
167.691278444
 51
175.2608025947
  0
LINE
  5
244
330
1F
100
AcDbEntity
  8
0
  6
Continuous
 62
     7
370
    15
100
AcDbLine
 10
167.7965558481
 20
40.3839643068
 30
0.0
 11
172.9451079734
 21
64.2249500334
 31
0.0
  0
ARC
  5
245
330
1F
100
AcDbEntity
  8
0
  6
Continuous
 62
     7
370
    15
100
AcDbCircle
 10
176.032710762
 20
59.1567042239
 30
0.0
 40
20.49999999999999
100
AcDbArc
 50
244.5828853812
 51
246.3115196761
  0
SPLINE
  5
246
330
1F
100
AcDbEntity
  8
0
  6
Continuous
 62
     7
370
    15
100
AcDbSpline
210
0.0
220
0.0
230
1.0
 70
     8
 71
     3
 72
     8
 73
     4
 74
     0
 42
0.00000001
 43
0.00000001
 12
1.0
 22
0.0
 32
0.0
 13
1.0
 23
0.0
 33
0.0
 40
0.0
 40
0.0
 40
0.0
 40
0.0
 40
1.0
 40
1.0
 40
1.0
 40
1.0
 10
167.2340093619874
 20
40.64095812295018
 30
0.0
 10
167.2417463626792
 20
40.82202347161991
 30
0.0
 10
167.2495279708208
 20
41.00326381780054
 30
0.0
 10
167.2573577678133
 20
41.18469321152794
 30
0.0
  0
ARC
  5
247
330
1F
100
AcDbEntity
  8
0
  6
Continuous
 62
     7
370
    15
100
AcDbCircle
 10
176.032710762
 20
59.1567042239
 30
0.0
 40
20.0
100
AcDbArc
 50
243.0543608099
 51
243.974721251
  0
ARC
  5
248
330
1F
100
AcDbEntity
  8
0
  6
Continuous
 62
     7
370
    15
100
AcDbCircle
 10
176.032710762
 20
59.1567042239
 30
0.0
 40
20.00000000000001
100
AcDbArc
 50
100.025278749
 51
100.9456391901
  0
SPLINE
  5
249
330
1F
100
AcDbEntity
  8
0
  6
Continuous
 62
     7
370
    15
100
AcDbSpline
210
0.0
220
0.0
230
1.0
 70
     8
 71
     3
 72
     8
 73
     4
 74
     0
 42
0.00000001
 43
0.00000001
 12
1.0
 22
0.0
 32
0.0
 13
1.0
 23
0.0
 33
0.0
 40
0.0
 40
0.0
 40
0.0
 40
0.0
 40
1.0
 40
1.0
 40
1.0
 40
1.0
 10
172.5510576545076
 20
78.85132510470514
 30
0.0
 10
172.9484533182126
 20
80.50293090267007
 30
0.0
 10
173.3453617733942
 20
82.1381175380444
 30
0.0
 10
173.7420226294333
 20
83.76495996270712
 30
0.0
  0
LWPOLYLINE
  5
24A
330
1F
100
AcDbEntity
  8
0
  6
Continuous
 62
     7
370
    15
100
AcDbPolyline
 90
       29
 70
   128
 43
0.0
 10
173.0606799826
 20
71.4033911891
 10
173.1388561308
 20
71.2911304973
 10
173.1851973452
 20
70.985873691
 10
173.1973797429
 20
70.5029289193
 10
173.1747928422
 20
69.8665124319
 10
173.1185686655
 20
69.1085359968
 10
173.0315270249
 20
68.2670096822
 10
172.9180323307
 20
67.38412892
 10
172.7837756623
 20
66.504166457
 10
172.635489085
 20
65.6712464943
 10
172.4806087438
 20
64.9271360554
 10
172.3269004721
 20
64.3091471821
 10
172.1820723612
 20
63.8482682362
 10
172.0533859331
 20
63.567610453
 10
171.9472952534
 20
63.4812465824
 10
171.8691186395
 20
63.5935077399
 10
171.8227774251
 20
63.8987640805
 10
171.8105952602
 20
64.3817088522
 10
171.8331821609
 20
65.0181258052
 10
171.8894061048
 20
65.7761017747
 10
171.9764479783
 20
66.617628555
 10
172.0899426725
 20
67.5005088515
 10
172.2241993409
 20
68.3804717801
 10
172.3724856854
 20
69.2133917428
 10
172.5273662593
 20
69.9575017161
 10
172.6810742982
 20
70.5754910551
 10
172.8259026419
 20
71.036370001
 10
172.9545888372
 20
71.3170277841
 10
173.0606799826
 20
71.4033911891
  0
LINE
  5
24B
330
1F
100
AcDbEntity
  8
0
  6
Continuous
 62
     7
370
    15
100
AcDbLine
 10
174.3157514718
 20
73.3699793882
 30
0.0
 11
172.8912374817
 21
72.4823041774
 31
0.0
  0
ELLIPSE
  5
24C
330
1F
100
AcDbEntity
  8
0
  6
Continuous
 62
     7
370
    15
100
AcDbEllipse
 10
174.032710762
 20
61.069794428
 30
0.0
 11
22.79178641213883
 21
30.85594993360242
 31
0.0
210
0.0
220
0.0
230
1.0
 40
0.4054768606
 41
1.053917419045913
 42
1.079946143511193
  0
LINE
  5
24D
330
1F
100
AcDbEntity
  8
0
  6
Continuous
 62
     7
370
    15
100
AcDbLine
 10
179.0194864731
 20
73.219664856
 30
0.0
 11
178.8701742768
 21
73.1266220055
 31
0.0
  0
LINE
  5
24E
330
1F
100
AcDbEntity
  8
0
  6
Continuous
 62
     7
370
    15
100
AcDbLine
 10
196.5327113282
 20
60.9099286331
 30
0.0
 11
196.5327113282
 21
59.1567042239
 31
0.0
  0
ARC
  5
24F
330
1F
100
AcDbEntity
  8
0
  6
Continuous
 62
     7
370
    15
100
AcDbCircle
 10
176.032710762
 20
59.1567042239
 30
0.0
 40
20.5
100
AcDbArc
 50
246.3115196761
 51
0.0
  0
SPLINE
  5
250
330
1F
100
AcDbEntity
  8
0
  6
Continuous
 62
     7
370
    15
100
AcDbSpline
210
0.0
220
0.0
230
1.0
 70
     8
 71
     3
 72
    18
 73
    14
 74
     0
 42
0.00000001
 43
0.00000001
 12
1.0
 22
0.0
 32
0.0
 13
1.0
 23
0.0
 33
0.0
 40
0.0
 40
0.0
 40
0.0
 40
0.0
 40
0.1249999999999993
 40
0.1249999999999993
 40
0.2499999999999993
 40
0.2499999999999993
 40
0.3749999999999992
 40
0.3749999999999992
 40
0.4999999999999992
 40
0.4999999999999992
 40
0.7499999999999996
 40
0.7499999999999996
 40
1.0
 40
1.0
 40
1.0
 40
1.0
 10
166.1530864926432
 20
67.23412090841407
 30
0.0
 10
166.2239139782641
 20
67.10625859262967
 30
0.0
 10
166.2804981639885
 20
66.97335703621927
 30
0.0
 10
166.3675624590306
 20
66.69792792888197
 30
0.0
 10
166.3981437946535
 20
66.55414408817387
 30
0.0
 10
166.4333602386882
 20
66.26298165661922
 30
0.0
 10
166.4380988217487
 20
66.11712224393528
 30
0.0
 10
166.4255436757016
 20
65.82488027615328
 30
0.0
 10
166.4079630423397
 20
65.67746157231483
 30
0.0
 10
166.3275737307502
 20
65.2455651185143
 30
0.0
 10
166.2383936266517
 20
64.96907548684449
 30
0.0
 10
166.0033745097404
 20
64.43402956443431
 30
0.0
 10
165.8587419192678
 20
64.17934597249186
 30
0.0
 10
165.690216708636
 20
63.94063126188262
 30
0.0
  0
SPLINE
  5
251
330
1F
100
AcDbEntity
  8
0
  6
Continuous
 62
     7
370
    15
100
AcDbSpline
210
0.0
220
0.0
230
1.0
 70
     8
 71
     3
 72
    14
 73
    10
 74
     0
 42
0.00000001
 43
0.00000001
 12
1.0
 22
0.0
 32
0.0
 13
1.0
 23
0.0
 33
0.0
 40
0.0
 40
0.0
 40
0.0
 40
0.0
 40
0.25
 40
0.25
 40
0.5
 40
0.5
 40
0.75
 40
0.75
 40
1.0
 40
1.0
 40
1.0
 40
1.0
 10
166.9698121477259
 20
41.327967064224
 30
0.0
 10
166.9066350239384
 20
41.36008195057276
 30
0.0
 10
166.7512590533355
 20
41.43860405216724
 30
0.0
 10
166.2650977802784
 20
41.7019009836695
 30
0.0
 10
165.9469513409188
 20
41.88018026598961
 30
0.0
 10
165.1832440224894
 20
42.34926852905114
 30
0.0
 10
164.7557021328053
 20
42.62950877345502
 30
0.0
 10
163.8408023945341
 20
43.29238944388169
 30
0.0
 10
163.3694318859399
 20
43.66374161339709
 30
0.0
 10
162.8981637629352
 20
44.07414226874725
 30
0.0
  0
SPLINE
  5
252
330
1F
100
AcDbEntity
  8
0
  6
Continuous
 62
     7
370
    15
100
AcDbSpline
210
0.0
220
0.0
230
1.0
 70
     8
 71
     3
 72
    20
 73
    16
 74
     0
 42
0.00000001
 43
0.00000001
 12
1.0
 22
0.0
 32
0.0
 13
1.0
 23
0.0
 33
0.0
 40
0.0
 40
0.0
 40
0.0
 40
0.0
 40
0.2500000000000022
 40
0.2500000000000022
 40
0.3750000000000018
 40
0.3750000000000018
 40
0.5000000000000014
 40
0.5000000000000014
 40
0.6250000000000011
 40
0.6250000000000011
 40
0.7500000000000007
 40
0.7500000000000007
 40
0.8750000000000003
 40
0.8750000000000003
 40
1.0
 40
1.0
 40
1.0
 40
1.0
 10
167.5642913345545
 20
77.27536511263287
 30
0.0
 10
168.1306602459028
 20
77.54007835614395
 30
0.0
 10
168.6823741556661
 20
77.76555576357012
 30
0.0
 10
169.4760319076868
 20
78.05350721711132
 30
0.0
 10
169.7344867797336
 20
78.14082885020309
 30
0.0
 10
170.2190029665828
 20
78.29476616410865
 30
0.0
 10
170.4475332691834
 20
78.36230127345405
 30
0.0
 10
170.8747057995517
 20
78.4814073383963
 30
0.0
 10
171.0750844612221
 20
78.5333779308427
 30
0.0
 10
171.4307622592821
 20
78.62091785974435
 30
0.0
 10
171.5866839219104
 20
78.65674521242302
 30
0.0
 10
171.8541264849717
 20
78.71579895388743
 30
0.0
 10
171.9662361748313
 20
78.73913489094053
 30
0.0
 10
172.1394097778479
 20
78.77429872078783
 30
0.0
 10
172.200330830911
 20
78.7861240437783
 30
0.0
 10
172.2351594381679
 20
78.79285975247653
 30
0.0
  0
ELLIPSE
  5
253
330
1F
100
AcDbEntity
  8
0
  6
Continuous
 62
     7
370
    15
100
AcDbEllipse
 10
163.5927411341
 20
65.2133307721
 30
0.0
 11
2.13125236105401
 21
2.544070092956133
 31
0.0
210
0.0
220
0.0
230
1.0
 40
0.7353403728
 41
6.007221823235775
 42
11.10769883421446
  0
ARC
  5
254
330
1F
100
AcDbEntity
  8
0
  6
Continuous
 62
     7
370
    15
100
AcDbCircle
 10
176.032710762
 20
59.1567042239
 30
0.0
 40
20.0
100
AcDbArc
 50
115.0507569084
 51
228.9492430916
  0
CIRCLE
  5
255
330
1F
100
AcDbEntity
  8
0
  6
Continuous
 62
     7
370
    15
100
AcDbCircle
 10
176.032710762
 20
59.1567042239
 30
0.0
 40
31.49999999999999
  0
LINE
  5
256
330
1F
100
AcDbEntity
  8
VERMASSUNG
100
AcDbLine
 10
176.032710762
 20
86.1147748251
 30
0.0
 11
167.5795387434
 21
25.9673305864
 31
0.0
  0
CIRCLE
  5
257
330
1F
100
AcDbEntity
  8
VERMASSUNG
  6
CENTERX2
100
AcDbCircle
 10
176.032710762
 20
61.1147748251
 30
0.0
 40
25.0
  0
DIMENSION
  5
258
330
1F
100
AcDbEntity
  8
VERMASSUNG
100
AcDbDimension
  2
_D_6
 10
176.032710762
 20
93.1567042239
 30
0.0
 11
171.2677327959
 21
17.9724152119
 31
0.0
 70
   162
  1
<>
 71
     1
 42
-1.0
  3
SLDDIMSTYLE2
100
AcDb2LineAngularDimension
 13
167.5795387434
 23
25.9673305864
 33
0.0
 14
176.032710762
 24
86.1147748251
 34
0.0
 15
176.032710762
 25
25.1567042239
 35
0.0
 16
171.2677327959
 26
17.9724152119
 36
0.0
  0
DIMENSION
  5
265
330
1F
100
AcDbEntity
  8
VERMASSUNG
100
AcDbDimension
  2
_D_7
 10
156.3456103188
 20
76.5231516423
 30
0.0
 11
146.1589603405
 21
84.4958717402
 31
0.0
 70
   160
  1
%%c<> min. 
 71
     2
 42
-1.0
  3
SLDDIMSTYLE3
100
AcDbAlignedDimension
 13
195.7198112051
 23
45.7063980078
 33
0.0
 14
156.3456103188
 24
76.5231516423
 34
0.0
 50
-38.0489932235
100
AcDbRotatedDimension
  0
INSERT
  5
27F
330
1F
100
AcDbEntity
  8
VERMASSUNG
100
AcDbBlockReference
  2
SW_CENTERMARKSYMBOL_0
 10
176.032710762
 20
59.1567042239
 30
0.0
  0
OLE2FRAME
  5
280
330
1F
100
AcDbEntity
  8
0
100
AcDbOle2Frame
 70
     2
  3
Paintbrush-Bild
 10
13.8511154363
 20
38.264191557
 30
0.0
 11
51.6290888628
 21
31.9806341108
 31
0.0
 71
     2
 72
     0
 73
     1
 90
    12928
310
80552BED0767C5B32B40DDAF6807D121434000000000000000006FFBDDFB85D0
310
4940DDAF6807D121434000000000000000006FFBDDFB85D04940416F4BD60AFB
310
3F4000000000000000002BED0767C5B32B40416F4BD60AFB3F40000000000000
310
0000000000000100000000010000010000000100000000000100000000320000
310
D0CF11E0A1B11AE1000000000000000000000000000000003E000300FEFF0900
310
0600000000000000000000000100000001000000000000000010000002000000
310
01000000FEFFFFFF0000000000000000FFFFFFFFFFFFFFFFFFFFFFFFFFFFFFFF
310
FFFFFFFFFFFFFFFFFFFFFFFFFFFFFFFFFFFFFFFFFFFFFFFFFFFFFFFFFFFFFFFF
310
FFFFFFFFFFFFFFFFFFFFFFFFFFFFFFFFFFFFFFFFFFFFFFFFFFFFFFFFFFFFFFFF
310
FFFFFFFFFFFFFFFFFFFFFFFFFFFFFFFFFFFFFFFFFFFFFFFFFFFFFFFFFFFFFFFF
310
FFFFFFFFFFFFFFFFFFFFFFFFFFFFFFFFFFFFFFFFFFFFFFFFFFFFFFFFFFFFFFFF
310
FFFFFFFFFFFFFFFFFFFFFFFFFFFFFFFFFFFFFFFFFFFFFFFFFFFFFFFFFFFFFFFF
310
FFFFFFFFFFFFFFFFFFFFFFFFFFFFFFFFFFFFFFFFFFFFFFFFFFFFFFFFFFFFFFFF
310
FFFFFFFFFFFFFFFFFFFFFFFFFFFFFFFFFFFFFFFFFFFFFFFFFFFFFFFFFFFFFFFF
310
FFFFFFFFFFFFFFFFFFFFFFFFFFFFFFFFFFFFFFFFFFFFFFFFFFFFFFFFFFFFFFFF
310
FFFFFFFFFFFFFFFFFFFFFFFFFFFFFFFFFFFFFFFFFFFFFFFFFFFFFFFFFFFFFFFF
310
FFFFFFFFFFFFFFFFFFFFFFFFFFFFFFFFFFFFFFFFFFFFFFFFFFFFFFFFFFFFFFFF
310
FFFFFFFFFFFFFFFFFFFFFFFFFFFFFFFFFFFFFFFFFFFFFFFFFFFFFFFFFFFFFFFF
310
FFFFFFFFFFFFFFFFFFFFFFFFFFFFFFFFFFFFFFFFFFFFFFFFFFFFFFFFFFFFFFFF
310
FFFFFFFFFFFFFFFFFFFFFFFFFFFFFFFFFFFFFFFFFFFFFFFFFFFFFFFFFFFFFFFF
310
FDFFFFFFFEFFFFFFFEFFFFFFFEFFFFFF05000000060000000700000008000000
310
090000000A0000000B0000000C0000000D0000000E0000000F00000010000000
310
11000000120000001300000014000000150000001600000017000000FEFFFFFF
310
FFFFFFFFFFFFFFFFFFFFFFFFFFFFFFFFFFFFFFFFFFFFFFFFFFFFFFFFFFFFFFFF
310
FFFFFFFFFFFFFFFFFFFFFFFFFFFFFFFFFFFFFFFFFFFFFFFFFFFFFFFFFFFFFFFF
310
FFFFFFFFFFFFFFFFFFFFFFFFFFFFFFFFFFFFFFFFFFFFFFFFFFFFFFFFFFFFFFFF
310
FFFFFFFFFFFFFFFFFFFFFFFFFFFFFFFFFFFFFFFFFFFFFFFFFFFFFFFFFFFFFFFF
310
FFFFFFFFFFFFFFFFFFFFFFFFFFFFFFFFFFFFFFFFFFFFFFFFFFFFFFFFFFFFFFFF
310
FFFFFFFFFFFFFFFFFFFFFFFFFFFFFFFFFFFFFFFFFFFFFFFFFFFFFFFFFFFFFFFF
310
FFFFFFFFFFFFFFFFFFFFFFFFFFFFFFFFFFFFFFFFFFFFFFFFFFFFFFFFFFFFFFFF
310
FFFFFFFFFFFFFFFFFFFFFFFFFFFFFFFFFFFFFFFFFFFFFFFFFFFFFFFFFFFFFFFF
310
FFFFFFFFFFFFFFFFFFFFFFFFFFFFFFFFFFFFFFFFFFFFFFFFFFFFFFFFFFFFFFFF
310
FFFFFFFFFFFFFFFFFFFFFFFFFFFFFFFFFFFFFFFFFFFFFFFFFFFFFFFFFFFFFFFF
310
FFFFFFFFFFFFFFFFFFFFFFFFFFFFFFFFFFFFFFFFFFFFFFFFFFFFFFFFFFFFFFFF
310
FFFFFFFFFFFFFFFFFFFFFFFFFFFFFFFFFFFFFFFFFFFFFFFFFFFFFFFFFFFFFFFF
310
FFFFFFFFFFFFFFFFFFFFFFFFFFFFFFFFFFFFFFFFFFFFFFFFFFFFFFFFFFFFFFFF
310
52006F006F007400200045006E00740072007900000000000000000000000000
310
0000000000000000000000000000000000000000000000000000000000000000
310
16000500FFFFFFFFFFFFFFFF020000000A00030000000000C000000000000046
310
000000000000000000000000F0CAB2F6B043CD0103000000C000000000000000
310
01004F006C006500000000000000000000000000000000000000000000000000
310
0000000000000000000000000000000000000000000000000000000000000000
310
0A000200FFFFFFFFFFFFFFFFFFFFFFFF00000000000000000000000000000000
310
0000000000000000000000000000000000000000000000001400000000000000
310
010043006F006D0070004F0062006A0000000000000000000000000000000000
310
0000000000000000000000000000000000000000000000000000000000000000
310
120002010100000003000000FFFFFFFF00000000000000000000000000000000
310
0000000000000000000000000000000000000000010000004D00000000000000
310
01004F006C006500310030004E00610074006900760065000000000000000000
310
0000000000000000000000000000000000000000000000000000000000000000
310
1A000200FFFFFFFFFFFFFFFFFFFFFFFF00000000000000000000000000000000
310
0000000000000000000000000000000000000000040000002426000000000000
310
FEFFFFFF02000000FEFFFFFFFFFFFFFFFFFFFFFFFFFFFFFFFFFFFFFFFFFFFFFF
310
FFFFFFFFFFFFFFFFFFFFFFFFFFFFFFFFFFFFFFFFFFFFFFFFFFFFFFFFFFFFFFFF
310
FFFFFFFFFFFFFFFFFFFFFFFFFFFFFFFFFFFFFFFFFFFFFFFFFFFFFFFFFFFFFFFF
310
FFFFFFFFFFFFFFFFFFFFFFFFFFFFFFFFFFFFFFFFFFFFFFFFFFFFFFFFFFFFFFFF
310
FFFFFFFFFFFFFFFFFFFFFFFFFFFFFFFFFFFFFFFFFFFFFFFFFFFFFFFFFFFFFFFF
310
FFFFFFFFFFFFFFFFFFFFFFFFFFFFFFFFFFFFFFFFFFFFFFFFFFFFFFFFFFFFFFFF
310
FFFFFFFFFFFFFFFFFFFFFFFFFFFFFFFFFFFFFFFFFFFFFFFFFFFFFFFFFFFFFFFF
310
FFFFFFFFFFFFFFFFFFFFFFFFFFFFFFFFFFFFFFFFFFFFFFFFFFFFFFFFFFFFFFFF
310
FFFFFFFFFFFFFFFFFFFFFFFFFFFFFFFFFFFFFFFFFFFFFFFFFFFFFFFFFFFFFFFF
310
FFFFFFFFFFFFFFFFFFFFFFFFFFFFFFFFFFFFFFFFFFFFFFFFFFFFFFFFFFFFFFFF
310
FFFFFFFFFFFFFFFFFFFFFFFFFFFFFFFFFFFFFFFFFFFFFFFFFFFFFFFFFFFFFFFF
310
FFFFFFFFFFFFFFFFFFFFFFFFFFFFFFFFFFFFFFFFFFFFFFFFFFFFFFFFFFFFFFFF
310
FFFFFFFFFFFFFFFFFFFFFFFFFFFFFFFFFFFFFFFFFFFFFFFFFFFFFFFFFFFFFFFF
310
FFFFFFFFFFFFFFFFFFFFFFFFFFFFFFFFFFFFFFFFFFFFFFFFFFFFFFFFFFFFFFFF
310
FFFFFFFFFFFFFFFFFFFFFFFFFFFFFFFFFFFFFFFFFFFFFFFFFFFFFFFFFFFFFFFF
310
FFFFFFFFFFFFFFFFFFFFFFFFFFFFFFFFFFFFFFFFFFFFFFFFFFFFFFFFFFFFFFFF
310
0100000200000000000000000000000000000000000000000000000000000000
310
0000000000000000000000000000000000000000000000000000000000000000
310
0100FEFF030A0000FFFFFFFF0A00030000000000C00000000000004607000000
310
5042727573680007000000504272757368000700000050427275736800F439B2
310
7100000000000000000000000000000000000000000000000000000000000000
310
0000000000000000000000000000000000000000000000000000000000000000
310
0000000000000000000000000000000000000000000000000000000000000000
310
0000000000000000000000000000000000000000000000000000000000000000
310
0000000000000000000000000000000000000000000000000000000000000000
310
0000000000000000000000000000000000000000000000000000000000000000
310
0000000000000000000000000000000000000000000000000000000000000000
310
0000000000000000000000000000000000000000000000000000000000000000
310
0000000000000000000000000000000000000000000000000000000000000000
310
0000000000000000000000000000000000000000000000000000000000000000
310
0000000000000000000000000000000000000000000000000000000000000000
310
0000000000000000000000000000000000000000000000000000000000000000
310
20260000424D0E260000000000003E00000028000000B40200006E0000000100
310
01000000000000000000130B0000130B00000200000002000000000000FFFFFF
310
FFFFFFFFFFFFFFFFFFFFFFFFFFFFFFFFFFFFFFFFFFFFFFFFFFFFFFFFFFFFFFFF
310
FFFFFFFFFFFFFFFFFFFFFFFFFFFFFFFFFFFFFFFFFFFFFFFFFFFFFFFFFFFFFFFF
310
FFFFFFFFFFFFFFFFFFFFFFFFFFFFFFFFFFFFFFFFFFFFFFFFF000FFFFFFFFFFFF
310
FFFFFFFFFFFFFFFFFFFFFFFFFFFFFFFFFFFFFFFFFFFFFFFFFFFFFFFFFFFFFFFF
310
FFFFFFFFFFFFFFFFFFFFFFFFFFFFFFFFFFFFFFFFFFFFFFFFFFFFFFFFFFFFFFFF
310
FFFFFFFFFFFFFFFFFFFFFFFFFFFFFFFFF000FFFFFFFFFFFFFFFFFFFFFFFFFFFF
310
FFFFFFFFFFFFFFFFFFFFFFFFFFFFFFFFFFFFFFFFFFFFFFFFFFFFFFFFFFFFFFFF
310
FFFFFFFFFFFFFFFFFFFFFFFFFFFFFFFFFFFFFFFFFFFFFFFFFFFFFFFFFFFFFFFF
310
FFFFFFFFFFFFFFFFF000FFFFFFFFFFFFFFFFFFFFFFFFFFFFFFFFFFFFFFFFFFFF
310
FFFFFFFFFFFFFFFFFFFFFFFFFFFFFFFFFFFFFFFFFFFFFFFFFFFFFFFFFFFFFFFF
310
FFFFFFFFFFFFFFFFFFFFFFFFFFFFFFFFFFFFFFFFFFFFFFFFFFFFFFFFFFFFFFFF
310
F000FFFFFFFFFFFFFFFFFFFFFFFFFFFFFFFFFFFFFFFFFFFFFFFFFFFFFFFFFFFF
310
FFFFFFFFFFFFFFFFFFFFFFFFFFFFFFFFFFFFFFFFFFFFFFFFFFFFFFFFFFFFFFFF
310
FFFFFFFFFFFFFFFFFFFFFFFFFFFFFFFFFFFFFFFFFFFFFFFFF000FFFFFFFFFFFF
310
FFFFFFFFFFFFFFFFFFFFFFFFFFFFFFFFFFFFFFFFFFFFFFFFFFFFFFFFFFFFFFFF
310
FFFFFFFFFFFFFFFFFFFFFFFFFFFFFFFFFFFFFFFFFFFFFFFFFFFFFFFFFFFFFFFF
310
FFFFFFFFFFFFFFFFFFFFFFFFFFFFFFFFF000FFFFFFFFFFFFFFFFFFFFFFFFFFFF
310
FFFFFFFFFFFFFFFFFFFFFFFFFFFFFFFFFFFFFFFFFFFFFFFFFFFFFFFFFFFFFFFF
310
FFFFFFFFFFFFFFFFFFFFFFFFFFFFFFFFFFFFFFFFFFFFFFFFFFFFFFFFFFFFFFFF
310
FFFFFFFFFFFFFFFFF000FFFFFFFFFFFFFFFFFFFFFFFFFFFFFFFFFFFFFFFFFFFF
310
FFFFFFFFFFFFFFFFFFFFFFFFFFFFFFFFFFFFFFFFFFFFFFFFFFFFFFFFFFFFFFFF
310
FFFFFFFFFFFFFFFFFFFFFFFFFFFFFFFFFFFFFFFFFFFFFFFFFFFFFFFFFFFFFFFF
310
F000FFFFFFFFFFFFFFFFFFFFFFFFFFFFFFFFFFFFFFFFFFFFFFFFFFFFFFFFFFFF
310
FFFFFFFFFFFFFFFFFFFFFFFFFFFFFFFFFFFFFFFFFFFFFFFFFFFFFFFFFFFFFFFF
310
FFFFFFFFFFFFFFFFFFFFFFFFFFFFFFFFFFFFFFFFFFFFFFFFF000FFFFFFFFFFFF
310
FFFFFFFFFFFFFFFFFFFFFFFFFFFFFFFFFFFFFFFFFFFFFFFFFFFFFFFFFFFFFFFF
310
FFFFFFFFFFFFFFFFFFFFFFFFFFFFFFFFFFFFFFFFFFFFFFFFFFFFFFFFFFFFFFFF
310
FFFFFFFFFFFFFFFFFFFFFFFFFFFFFFFFF000FFFFFFFFFFFFFFFFFFFFFFFFFFFF
310
FFFFFFFFFFFFFFFFFFFFFFFFFFFFFFFFFFFFFFFFFFFFFFFFFFFFFFFFFFFFFFFF
310
FFFFFFFFFFFFFFFFFFFFFFFFFFFFFFFFFFFFFFFFFFFFFFFFFFFFFFFFFFFFFFFF
310
FFFFFFFFFFFFFFFFF000FFFFFFFFFFFFFFFFFFFFFFFFFFFFFFFFFFFFFFFFFFFF
310
FFFFFFFFFFFFFFFFFFFFFFFFFFFFFFFFFFFFFFFFFFFFFFFFFFFFFFFFFFFFFFFF
310
FFFFFFFFFFFFFFFFFFFFFFFFFFFFFFFFFFFFFFFFFFFFFFFFFFFFFFFFFFFFFFFF
310
F000FFFFFFFFFFFFFFFFFFFFFFFFFFFFFFFFFFFFFFFFFFFFFFFFFFFFFFFFFFFF
310
FFFFFFFFFFFFFFFFFFFFFFFFFFFFFFFFFFFFFFFFFFFFFFFFFFFFFFFFFFFFFFFF
310
FFFFFFFFFFFFFFFFFFFFFFFFFFFFFFFFFFFFFFFFFFFFFFFFF000FFFFFFFFFFFF
310
FFFFFFFFFFFFFFFFFFFFFFFFFFFFFFFFFFFFFFFFFFFFFFFFFFFFFFFFFFFFFFFF
310
FFFFFFFFFFFFFFFFFFFFFFFFFFFFFFFFFFFFFFFFFFFFFFFFFFFFFFFFFFFFFFFF
310
FFFFFFFFFFFFFFFFFFFFFFFFFFFFFFFFF000FFFFFFFFFFFFFFFFFFFFFFFFFFFF
310
FFFFFFFFFFFFFFFFFFFFFFFFFFFFFFFFFFFFFFFFFFFFFFFFFFFFFFFFFFFFFFFF
310
FFFFFFFFFFFFFFFFFFFFFFFFFFFFFFFFFFFFFFFFFFFFFFFFFFFFFFFFFFFFFFFF
310
FFFFFFFFFFFFFFFFF000FFFFFFFFFFFFFFFFFFFFFFFFFFFFFFFFFFFFFFFFFFFF
310
FFFFFFFFFFFFFFFFFFFFFFFFFFFFFFFFFFFFFFFFFFFFFFFFFFFFFFFFFFFFFFFF
310
FFFFFFFFFFFFFFFFFFFFFFFFFFFFFFFFFFFFFFFFFFFFFFFFFFFFFFFFFFFFFFFF
310
F000FFFFFFFFFFFFFFFFFFFFFFFFFFFFFFFFFFFFFFFFFFFFFFFFFFFFFFFFFFFF
310
FFFFFFFFFFFFFFFFFFFFFFFFFFFFFFFFFFFFFFFFFFFFFFFFFFFFFFFFFFFFFFFF
310
FFFFFFFFFFFFFFFFFFFFFFFFFFFFFFFFFFFFFFFFFFFFFFFFF000FFFFFFFFFFFF
310
FFFFFFFFFFFFFFFFFFFFFFFFFFFFFFFFFFFFFFFFFFFFFFFFFFFFFFFFFFFFFFFF
310
FFFFFFFFFFFFFFFFFFFFFFFFFFFFFFFFFFFFFFFFFFFFFFFFFFFFFFFFFFFFFFFF
310
FFFFFFFFFFFFFFFFFFFFFFFFFFFFFFFFF000FFFFFFFFFFFFFFFFFFFFFFFFFFFF
310
FFFFFFFFFFFFFFFFFFFFFFFFFFFFFFFFFFFFFFFFFFFFFFFFFFFFFFFFFFFFFFFF
310
FFFFFFFFFFFFFFFFFFFFFFFFFFFFFFFFFFFFFFFFFFFFFFFFFFFFFFFFFFFFFFFF
310
FFFFFFFFFFFFFFFFF000FFFFF80003FFFFFFFFFFFFFFFFFFFFFFFFFFFFFFFFFF
310
FFFFF00007FFFFFFFFFF00007FFFFFF800000000000000007FFFFFFFFFFFFFFF
310
FFFFFFFC001FFFFFFFFFFFFFFC001FFFFFFFFFFFFFFFFFFFFFFFFFFE0007FFFF
310
F000FFFF8000007FFFFFFFF8000FFFFFC0007FFFFF80007FFFFF0000007FFFFF
310
FFF8000007FFFFF800000000000000007FFFFFF0001FFFFFFFFFFFC00001FFFF
310
FFFFFFFFC00001FFFFFFFF000000000003FFFFE000007FFFF000FFFE0000000F
310
FFFFFFF0000FFFFF80007FFFFF80007FFFFC0000001FFFFFFFC0000001FFFFF8
310
00000000000000007FFFFFF0001FFFFFFFFFFE0000003FFFFFFFFFFE0000003F
310
FFFFFF000000000003FFFF0000000FFFF000FFF800000003FFFFFFF00007FFFF
310
80007FFFFF80007FFFF000000007FFFFFF000000003FFFF80000000000000000
310
7FFFFFF0001FFFFFFFFFF80000000FFFFFFFFFF80000000FFFFFFF0000000000
310
03FFFC00000003FFF000FFE000000000FFFFFFF00007FFFF80003FFFFF80007F
310
FFC000000001FFFFFC000000001FFFF800000000000000007FFFFFF0001FFFFF
310
FFFFE000000003FFFFFFFFE000000003FFFFFF000000000003FFF000000000FF
310
F000FF80000000007FFFFFF00007FFFF80003FFFFF80007FFF8000000000FFFF
310
F80000000007FFF800000000000000007FFFFFF0001FFFFFFFFFC000000001FF
310
FFFFFFC000000001FFFFFF000000000003FFC0000000007FF000FF0000000000
310
3FFFFFE00007FFFF00003FFFFF80007FFE00000000003FFFF00000000003FFF8
310
00000000000000007FFFFFF0001FFFFFFFFF8000000000FFFFFFFF8000000000
310
FFFFFF000000000003FF80000000003FF000FE00000000001FFFFFE00003FFFF
310
00003FFFFF80007FFC00000000001FFFE00000000001FFF8000001FFFE000000
310
7FFFFFF0001FFFFFFFFE00000000003FFFFFFE00000000003FFFFF0000000000
310
03FF00000000001FF000FC00000000000FFFFFE00003FFFF00001FFFFF80007F
310
F800000000001FFFC00000000000FFF8000001FFFE0000007FFFFFF0001FFFFF
310
FFFC00000000001FFFFFFC00000000001FFFFF000000000003FE00000000000F
310
F000F8000000000007FFFFE00003FFFF00001FFFFF80007FF800000000000FFF
310
800000000000FFF8000001FFFE0000007FFFFFF0001FFFFFFFF800000000000F
310
FFFFF800000000000FFFFF000000000003FC000000000007F000F80000000000
310
03FFFFC00003FFFE00001FFFFF80007FF0000000000007FF0000000000007FF8
310
000001FFFE0000007FFFFFF0001FFFFFFFF0000000000007FFFFF00000000000
310
07FFFF000000000003F8000000000003F000F0000000000003FFFFC00001FFFE
310
00001FFFFF80007FE0000000000007FE0000000000003FF8000001FFFE000000
310
7FFFFFF0001FFFFFFFF0000000000007FFFFF0000000000007FFFF0000000000
310
03F800001F800003F000E00001FFF00001FFFFC00001FFFE00000FFFFF80007F
310
E00001FFE00003FE00001FFF00003FF8000001FFFE0000007FFFFFF0001FFFFF
310
FFE000003E000003FFFFE000003E000003FFFF000000000003F00001FFF80001
310
F000E00007FFFC0001FFFFC00001FFFE00000FFFFF80007FC0000FFFFC0003FC
310
0000FFFFC0001FF8000001FFFE0000007FFFFFF0001FFFFFFFC00003FFE00001
310
FFFFC00003FFE00001FFFF0001FFFFFFFFF00007FFFE0001F000E0000FFFFF00
310
00FFFF800001FFFC00000FFFFF80007FC0001FFFFE0001FC0001FFFFE0001FF8
310
000001FFFE0000007FFFFFF0001FFFFFFF80000FFFF80000FFFF80000FFFF800
310
00FFFF0003FFFFFFFFE0000FFFFF8000F000C0003FFFFF8000FFFF800000FFFC
310
000007FFFF80007F80003FFFFF0001FC0003FFFFF0001FF8000001FFFE000000
310
7FFFFFF0001FFFFFFF80003FFFFE0000FFFF80003FFFFE0000FFFF0003FFFFFF
310
FFE0003FFFFF8000F000C0003FFFFF8000FFFF800000FFFC000007FFFF80007F
310
80007FFFFF8001F80007FFFFF8000FF8000001FFFE0000007FFFFFF0001FFFFF
310
FF00007FFFFF00007FFF00007FFFFF00007FFF0003FFFFFFFFE0003FFFFFC000
310
F000C0007FFFFFC000FFFF000000FFFC000007FFFF80007F8000FFFFFF8000F8
310
000FFFFFF8000FF8000001FFFE0000007FFFFFF0001FFFFFFF0000FFFFFF8000
310
7FFF0000FFFFFF80007FFF0003FFFFFFFFC0007FFFFFC00070008000FFFFFFC0
310
00FFFF000000FFF8000007FFFF80007F8000FFFFFF8000F8000FFFFFF8000FF8
310
000001FFFE0000007FFFFFF0001FFFFFFE0001FFFFFFC0003FFE0001FFFFFFC0
310
003FFF0003FFFFFFFFC0007FFFFFE00070008000FFFFFFC0007FFF0000007FF8
310
000003FFFF80007F0001FFFFFF8000F8000FFFFFF8000FF8000001FFFE000000
310
7FFFFFF0001FFFFFFE0001FFFFFFC0003FFE0001FFFFFFC0003FFF0003FFFFFF
310
FFC000FFFFFFE00070008000FFFFFFC0007FFF0000007FF8000003FFFF80007F
310
0001FFFFFF8000F8001FFFFFF8000FF8000001FFFE0000007FFFFFF0001FFFFF
310
FE0003FFFFFFE0003FFE0003FFFFFFE0003FFF0003FFFFFFFFC000FFFFFFE000
310
70008000FFFFFFC0007FFE0000007FF8000003FFFF80007F0001FFFFFF8000F0
310
001FFFFFF8000FF8000001FFFE0000007FFFFFF0001FFFFFFC0003FFFFFFE000
310
1FFC0003FFFFFFE0001FFF0003FFFFFFFFC000FFFFFFC00070008000FFFFFF80
310
007FFE0000007FF0000003FFFF80007F0001FFFFFF0000F0001FFFFFF8000FF8
310
000001FFFE0000007FFFFFF0001FFFFFFC0007FFFFFFF0001FFC0007FFFFFFF0
310
001FFF0003FFFFFFFFC000FFFFFFC00070008001FFFFFF0000FFFE0000003FF0
310
000001FFFF80007F0001FFFFFF0000F8001FFFFFF0000FF8000001FFFE000000
310
7FFFFFF0001FFFFFFC0007FFFFFFF0001FFC0007FFFFFFF0001FFF0003FFFFFF
310
FFC001FFFFFF80007000FFFFFFFFFE0000FFFE0008003FF0008001FFFF80007F
310
FFFFFFFFFC0000FFFFFFFFFFE0000FF8000001FFFE0000007FFFFFF0001FFFFF
310
F8000FFFFFFFF8000FF8000FFFFFFFF8000FFF0003FFFFFFFFFFFFFFFFFF0000
310
7000FFFFFFFFFC0000FFFC0008003FF0008001FFFF80007FFFFFFFFFF80001FF
310
FFFFFFFF80000FF8000001FFFE0000007FFFFFF0001FFFFFF8000FFFFFFFF800
310
0FF8000FFFFFFFF8000FFF0003FFFFFFFFFFFFFFFFFE0000F000FFFFFFFFE000
310
00FFFC000C003FE000C001FFFF80007FFFFFFFFFC00001FFFFFFFFFE00001FF8
310
000001FFFE0000007FFFFFF0001FFFFFF8000FFFFFFFF8000FF8000FFFFFFFF8
310
000FFF0003FFFFFFFFFFFFFFFFF00000F000FFFFFFFE000001FFFC000C001FE0
310
00C000FFFF80007FFFFFFFFE000001FFFFFFFFE000001FF80FFFFFFFFFFFFFC0
310
7FFFFFF0001FFFFFF8000FFFFFFFF8000FF8000FFFFFFFF8000FFF0003FFFFFF
310
FFFFFFFFFF800000F000FFFFFFC0000001FFFC001C001FE001C000FFFF80007F
310
FFFFFF80000003FFFFFFF80000001FF80FFFFFFFFFFFFFC07FFFFFF0001FFFFF
310
F8001FFFFFFFFC000FF8001FFFFFFFFC000FFF0003FFFFFFFFFFFFFFF0000001
310
F000FFFFF800000001FFF8001C001FE001C000FFFF80007FFFFFF800000003FF
310
FFFF800000003FF80FFFFFFFFFFFFFC07FFFFFF0001FFFFFF8001FFFFFFFFC00
310
0FF8001FFFFFFFFC000FFF0003FFFFFFFFFFFFFE00000001F000FFFFC0000000
310
03FFF8001E001FC001E000FFFF80007FFFFF8000000007FFFFFC000000003FF8
310
0FFFFFFFFFFFFFC07FFFFFF0001FFFFFF8001FFFFFFFFC000FF8001FFFFFFFFC
310
000FFF0003FFFFFFFFFFFFE000000003F000FFFE0000000007FFF8001E000FC0
310
01E0007FFF80007FFFFE0000000007FFFFE0000000007FF80FFFFFFFFFFFFFC0
310
7FFFFFF0001FFFFFF0001FFFFFFFFC0007F0001FFFFFFFFC0007FF0003FFFFFF
310
FFFFFF0000000003F000FFF80000000007FFF8001E000FC003E0007FFF80007F
310
FFF0000000000FFFFF8000000000FFF80FFFFFFFFFFFFFC07FFFFFF0001FFFFF
310
F0001FFFFFFFFC0007F0001FFFFFFFFC0007FF0003FFFFFFFFFFFC0000000007
310
F000FFE0000000000FFFF0003E000FC003E0007FFF80007FFFC0000000001FFF
310
FE0000000001FFF80FFFFFFFFFFFFFC07FFFFFF0001FFFFFF0001FFFFFFFFC00
310
07F0001FFFFFFFFC0007FF0003FFFFFFFFFFF0000000000FF000FFC000000000
310
1FFFF0003F000F8003F0003FFF80007FFF80000000003FFFF80000000003FFF8
310
0FFFFFFFFFFFFFC07FFFFFF0001FFFFFF0001FFFFFFFFC0007F0001FFFFFFFFC
310
0007FF0003FFFFFFFFFFE0000000001FF000FF00000000007FFFF0003F000780
310
03F0003FFF80007FFF00000000007FFFF00000000007FFF80FFFFFFFFFFFFFC0
310
7FFFFFF0001FFFFFF0001FFFFFFFFC0007F0001FFFFFFFFC0007FF0003FFFFFF
310
FFFF80000000007FF000FE0000000000FFFFE0003F00078007F0003FFF80007F
310
FE0000000001FFFFE0000000001FFFF80FFFFFFFFFFFFFC07FFFFFF0001FFFFF
310
F0001FFFFFFFFC0007F0001FFFFFFFFC0007FF0003FFFFFFFFFF0000000000FF
310
F000FC0000000003FFFFE0007F00078007F0003FFF80007FFC0000000007FFFF
310
C0000000007FFFF80FFFFFFFFFFFFFC07FFFFFF0001FFFFFF8001FFFFFFFFC00
310
0FF8001FFFFFFFFC000FFF0003FFFFFFFFFE0000000003FFF000FC000000000F
310
FFFFE0007F80070007F8001FFF80007FF8000000001FFFFF8000000001FFFFF8
310
0FFFFFFFFFFFFFC07FFFFFF0001FFFFFF8001FFFFFFFFC000FF8001FFFFFFFFC
310
000FFF0003FFFFFFFFFC000000000FFFF000F8000000007FFFFFE0007F800700
310
07F8001FFF80007FF000000000FFFFFF800000000FFFFFF80FFFFFFFFFFFFFC0
310
7FFFFFF0001FFFFFF8000FFFFFFFF8000FF8000FFFFFFFF8000FFF0003FFFFFF
310
FFFC000000007FFFF000F800000007FFFFFFC0007F8003000FF8001FFF80007F
310
F000000007FFFFFF000000007FFFFFF80FFFFFFFFFFFFFC07FFFFFF0001FFFFF
310
F8000FFFFFFFF8000FF8000FFFFFFFF8000FFF0003FFFFFFFFF80000000FFFFF
310
F000F0000000FFFFFFFFC000FF8003000FF8001FFF80007FE0000000FFFFFFFF
310
0000000FFFFFFFF8000001FFFE0000007FFFFFF0001FFFFFF8000FFFFFFFF800
310
0FF8000FFFFFFFF8000FFF0003FFFFFFFFF8000000FFFFFFF000F000000FFFFF
310
FFFFC000FFC002000FF8000FFF80007FE000001FFFFFFFFE000001FFFFFFFFF8
310
000001FFFE0000007FFFFFF0001FFFFFF8000FFFFFFFF8000FF8000FFFFFFFF8
310
000FFF0003FFFFFFFFF000001FFFFFFFF000E00000FFFFFFFFFFC000FFC00200
310
0FFC000FFF80007FE00001FFFFFFFFFE00001FFFFFFFFFF8000001FFFE000000
310
7FFFFFF0001FFFFFFC000FFFFFFFF8001FFC000FFFFFFFF8001FFF0003FFFFFF
310
FFF00001FFFFFFFFF000E00007FFFFFFFFFF8000FFC000001FFC000FFF80007F
310
C0000FFFFFFFFFFE0000FFFFFFFFFFF8000001FFFE0000007FFFFFF0001FFFFF
310
FC0007FFFFFFF0001FFC0007FFFFFFF0001FFF0003FFFFFFFFF00007FFFFFFFF
310
F000E0001FFFFFFFFFFF8000FFC000001FFC000FFF80007FC0003FFFFFFFFFFE
310
0001FFFFFFFFFFF8000001FFFE0000007FFFFFF0001FFFFFFC0007FFFFFFF000
310
1FFC0007FFFFFFF0001FFF0003FFFFFFFFF0001FFFFFFFFFF000E0003FFFFF00
310
03FF8001FFE000001FFC0007FF80007FC0007FFFFF0007FC0003FFFFF0003FF8
310
000001FFFE0000007FFFFFF0001FFFFFFC0003FFFFFFE0001FFC0003FFFFFFE0
310
001FFF0003FFFFFFFFF0003FFFFFFFFFF000E0003FFFFF0001FF8001FFE00000
310
1FFE0007FF80007FC0007FFFFE0003FC0007FFFFE0003FF8000001FFFE000000
310
7FFFFFF0001FFFFFFE0003FFFFFFE0003FFE0003FFFFFFE0003FFF0003FFFFFF
310
FFF0003FFFFF8001F000E0003FFFFF0001FF0001FFE000001FFE0007FF80007F
310
C0007FFFFE0003FC0007FFFFE0003FF8000001FFFE0000007FFFFFF0001FFFFF
310
FE0001FFFFFFC0003FFE0001FFFFFFC0003FFF0003FFFFFFFFF0003FFFFF0001
310
F000E0003FFFFF0003FF0001FFE000003FFE0007FF80007FC0007FFFFE0003FC
310
0007FFFFE0003FF8000001FFFE0000007FFFFFF0001FFFFFFF0001FFFFFFC000
310
7FFF0001FFFFFFC0007FFF0003FFFFFFFFF0003FFFFF0001F000E0003FFFFE00
310
03FF0003FFF000003FFE0003FF80007FC0007FFFFC0003FE0007FFFFE0003FF8
310
000001FFFE0000007FFFFFF0001FFFFFFF0000FFFFFF80007FFF0000FFFFFF80
310
007FFF0003FFFFFFFFF0003FFFFF0001F000E0003FFFFE0003FF0003FFF00000
310
3FFF0003FF80007FC0007FFFFC0007FE0007FFFFC0003FF8000001FFFE000000
310
7FFFFFF0001FFFFFFF80007FFFFF0000FFFF80007FFFFF0000FFFF0003FFFFFF
310
FFF0003FFFFF0003F000E0003FFFFC0003FE0003FFF000003FFF0003FF80007F
310
E0003FFFF80007FE0003FFFFC0007FF8000001FFFE0000007FFFFFF0001FFFFF
310
FF80003FFFFE0000FFFF80003FFFFE0000FFFF0003FFFFFFFFF0001FFFFE0003
310
F000F0001FFFF80003FE0003FFF000007FFF0001FF80007FE0003FFFF00007FE
310
0001FFFF80007FF8000001FFFE0000007FFFFFF0001FFFFFFFC0000FFFF80001
310
FFFFC0000FFFF80001FFFF0003FFFFFFFFF0001FFFFC0003F000F0000FFFF000
310
07FE0007FFF800007FFF0001FF80007FE0001FFFE00007FF0000FFFE00007FF8
310
000001FFFE0000007FFFFFF0001FFFFFFFC00003FFE00001FFFFC00003FFE000
310
01FFFF0003FFFFFFFFF8000FFFF80003F000F00003FFC00007FC0007FFF80000
310
7FFF8001FF80007FF00007FF80000FFF00007FF80000FFF8000001FFFE000000
310
7F80000000000001FFE000003E000003FFFFE000003E000003FFFF0003FFFFFF
310
FFF80003FFE00007F000F800000000000FFC0007FFF800007FFF8001FF80007F
310
F000000000000FFF000000000000FFF8000001FFFE0000007F80000000000001
310
FFF0000000000007FFFFF0000000000007FFFF0003FFFFFFFFFC00007E000007
310
F000F800000000000FFC0007FFF80000FFFF8000FF80007FF800000000001FFF
310
800000000001FFF8000001FFFE0000007F80000000000001FFF800000000000F
310
FFFFF800000000000FFFFF0003FFFFFFFFFC00000000000FF000FC0000000000
310
1FFC0007FFFC0000FFFF8000FF80007FF800000000003FFFC00000000001FFF8
310
000001FFFE0000007F80000000000001FFF800000000000FFFFFF80000000000
310
0FFFFF0003FFFFFFFFFE00000000001FF000FE00000000003FF8000FFFFC0000
310
FFFF8000FF80007FFC00000000003FFFC00000000003FFF8000001FFFE000000
310
7F80000000000001FFFC00000000001FFFFFFC00000000001FFFFF0003FFFFFF
310
FFFF00000000001FF000FF00000000003FF8000FFFFC0000FFFFC000FF80007F
310
FE00000000007FFFE00000000007FFF8000001FFFE0000007F80000000000001
310
FFFE00000000003FFFFFFE00000000003FFFFF0003FFFFFFFFFF80000000003F
310
F000FF80000000007FF8000FFFFC0001FFFFC0007F80007FFF0000000000FFFF
310
F0000000000FFFF800000000000000007F80000000000001FFFF8000000000FF
310
FFFFFF8000000000FFFFFF0003FFFFFFFFFFC0000000007FF000FFC000000000
310
FFF8000FFFFE0001FFFFC0007F80007FFF8000000001FFFFF8000000001FFFF8
310
00000000000000007F80000000000001FFFFC000000001FFFFFFFFC000000001
310
FFFFFF0003FFFFFFFFFFE000000000FFF000FFE000000003FFF0001FFFFE0001
310
FFFFC0007F80007FFFC000000007FFFFFE000000003FFFF80000000000000000
310
7F80000000000001FFFFE000000003FFFFFFFFE000000003FFFFFF0003FFFFFF
310
FFFFF000000003FFF000FFF80000000FFFF0001FFFFE0001FFFFE0007F80007F
310
FFF00000000FFFFFFF00000000FFFFF800000000000000007F80000000000001
310
FFFFF80000000FFFFFFFFFF80000000FFFFFFF0003FFFFFFFFFFFC0000000FFF
310
F000FFFE0000003FFFF0001FFFFE0003FFFFE0003F80007FFFFC0000003FFFFF
310
FFC0000003FFFFF800000000000000007F80000000000001FFFFFE0000003FFF
310
FFFFFFFE0000003FFFFFFF0003FFFFFFFFFFFF0000003FFFF000FFFF800000FF
310
FFF0001FFFFF0003FFFFE0003F80007FFFFF000001FFFFFFFFF800001FFFFFF8
310
00000000000000007F80000000000001FFFFFFC00001FFFFFFFFFFFFC00001FF
310
FFFFFF0003FFFFFFFFFFFFC00000FFFFF000FFFFF8000FFFFFFFFFFFFFFFFFFF
310
FFFFFFFFFFFFFFFFFFFFF0001FFFFFFFFFFF0000FFFFFFF80000000000000000
310
7FFFFFFFFFFFFFFFFFFFFFFC001FFFFFFFFFFFFFFC001FFFFFFFFFFFFFFFFFFF
310
FFFFFFFC001FFFFFF000FFFFFFFFFFFFFFFFFFFFFFFFFFFFFFFFFFFFFFFFFFFF
310
FFFFFFFFFFFFFFFFFFFFFFFFFFFFFFFFFFFFFFFFFFFFFFFFFFFFFFFFFFFFFFFF
310
FFFFFFFFFFFFFFFFFFFFFFFFFFFFFFFFFFFFFFFFFFFFFFFFFFFFFFFFFFFFFFFF
310
F000FFFFFFFFFFFFFFFFFFFFFFFFFFFFFFFFFFFFFFFFFFFFFFFFFFFFFFFFFFFF
310
FFFFFFFFFFFFFFFFFFFFFFFFFFFFFFFFFFFFFFFFFFFFFFFFFFFFFFFFFFFFFFFF
310
FFFFFFFFFFFFFFFFFFFFFFFFFFFFFFFFFFFFFFFFFFFFFFFFF000FFFFFFFFFFFF
310
FFFFFFFFFFFFFFFFFFFFFFFFFFFFFFFFFFFFFFFFFFFFFFFFFFFFFFFFFFFFFFFF
310
FFFFFFFFFFFFFFFFFFFFFFFFFFFFFFFFFFFFFFFFFFFFFFFFFFFFFFFFFFFFFFFF
310
FFFFFFFFFFFFFFFFFFFFFFFFFFFFFFFFF000FFFFFFFFFFFFFFFFFFFFFFFFFFFF
310
FFFFFFFFFFFFFFFFFFFFFFFFFFFFFFFFFFFFFFFFFFFFFFFFFFFFFFFFFFFFFFFF
310
FFFFFFFFFFFFFFFFFFFFFFFFFFFFFFFFFFFFFFFFFFFFFFFFFFFFFFFFFFFFFFFF
310
FFFFFFFFFFFFFFFFF000FFFFFFFFFFFFFFFFFFFFFFFFFFFFFFFFFFFFFFFFFFFF
310
FFFFFFFFFFFFFFFFFFFFFFFFFFFFFFFFFFFFFFFFFFFFFFFFFFFFFFFFFFFFFFFF
310
FFFFFFFFFFFFFFFFFFFFFFFFFFFFFFFFFFFFFFFFFFFFFFFFFFFFFFFFFFFFFFFF
310
F000FFFFFFFFFFFFFFFFFFFFFFFFFFFFFFFFFFFFFFFFFFFFFFFFFFFFFFFFFFFF
310
FFFFFFFFFFFFFFFFFFFFFFFFFFFFFFFFFFFFFFFFFFFFFFFFFFFFFFFFFFFFFFFF
310
FFFFFFFFFFFFFFFFFFFFFFFFFFFFFFFFFFFFFFFFFFFFFFFFF000FFFFFFFFFFFF
310
FFFFFFFFFFFFFFFFFFFFFFFFFFFFFFFFFFFFFFFFFFFFFFFFFFFFFFFFFFFFFFFF
310
FFFFFFFFFFFFFFFFFFFFFFFFFFFFFFFFFFFFFFFFFFFFFFFFFFFFFFFFFFFFFFFF
310
FFFFFFFFFFFFFFFFFFFFFFFFFFFFFFFFF000FFFFFFFFFFFFFFFFFFFFFFFFFFFF
310
FFFFFFFFFFFFFFFFFFFFFFFFFFFFFFFFFFFFFFFFFFFFFFFFFFFFFFFFFFFFFFFF
310
FFFFFFFFFFFFFFFFFFFFFFFFFFFFFFFFFFFFFFFFFFFFFFFFFFFFFFFFFFFFFFFF
310
FFFFFFFFFFFFFFFFF000FFFFFFFFFFFFFFFFFFFFFFFFFFFFFFFFFFFFFFFFFFFF
310
FFFFFFFFFFFFFFFFFFFFFFFFFFFFFFFFFFFFFFFFFFFFFFFFFFFFFFFFFFFFFFFF
310
FFFFFFFFFFFFFFFFFFFFFFFFFFFFFFFFFFFFFFFFFFFFFFFFFFFFFFFFFFFFFFFF
310
F000FFFFFFFFFFFFFFFFFFFFFFFFFFFFFFFFFFFFFFFFFFFFFFFFFFFFFFFFFFFF
310
FFFFFFFFFFFFFFFFFFFFFFFFFFFFFFFFFFFFFFFFFFFFFFFFFFFFFFFFFFFFFFFF
310
FFFFFFFFFFFFFFFFFFFFFFFFFFFFFFFFFFFFFFFFFFFFFFFFF000FFFFFFFFFFFF
310
FFFFFFFFFFFFFFFFFFFFFFFFFFFFFFFFFFFFFFFFFFFFFFFFFFFFFFFFFFFFFFFF
310
FFFFFFFFFFFFFFFFFFFFFFFFFFFFFFFFFFFFFFFFFFFFFFFFFFFFFFFFFFFFFFFF
310
FFFFFFFFFFFFFFFFFFFFFFFFFFFFFFFFF000FFFFFFFFFFFFFFFFFFFFFFFFFFFF
310
FFFFFFFFFFFFFFFFFFFFFFFFFFFFFFFFFFFFFFFFFFFFFFFFFFFFFFFFFFFFFFFF
310
FFFFFFFFFFFFFFFFFFFFFFFFFFFFFFFFFFFFFFFFFFFFFFFFFFFFFFFFFFFFFFFF
310
FFFFFFFFFFFFFFFFF000FFFFFFFFFFFFFFFFFFFFFFFFFFFFFFFFFFFFFFFFFFFF
310
FFFFFFFFFFFFFFFFFFFFFFFFFFFFFFFFFFFFFFFFFFFFFFFFFFFFFFFFFFFFFFFF
310
FFFFFFFFFFFFFFFFFFFFFFFFFFFFFFFFFFFFFFFFFFFFFFFFFFFFFFFFFFFFFFFF
310
F000FFFFFFFFFFFFFFFFFFFFFFFFFFFFFFFFFFFFFFFFFFFFFFFFFFFFFFFFFFFF
310
FFFFFFFFFFFFFFFFFFFFFFFFFFFFFFFFFFFFFFFFFFFFFFFFFFFFFFFFFFFFFFFF
310
FFFFFFFFFFFFFFFFFFFFFFFFFFFFFFFFFFFFFFFFFFFFFFFFF000FFFFFFFFFFFF
310
FFFFFFFFFFFFFFFFFFFFFFFFFFFFFFFFFFFFFFFFFFFFFFFFFFFFFFFFFFFFFFFF
310
FFFFFFFFFFFFFFFFFFFFFFFFFFFFFFFFFFFFFFFFFFFFFFFFFFFFFFFFFFFFFFFF
310
FFFFFFFFFFFFFFFFFFFFFFFFFFFFFFFFF000FFFFFFFFFFFFFFFFFFFFFFFFFFFF
310
FFFFFFFFFFFFFFFFFFFFFFFFFFFFFFFFFFFFFFFFFFFFFFFFFFFFFFFFFFFFFFFF
310
FFFFFFFFFFFFFFFFFFFFFFFFFFFFFFFFFFFFFFFFFFFFFFFFFFFFFFFFFFFFFFFF
310
FFFFFFFFFFFFFFFFF000FFFFFFFFFFFFFFFFFFFFFFFFFFFFFFFFFFFFFFFFFFFF
310
FFFFFFFFFFFFFFFFFFFFFFFFFFFFFFFFFFFFFFFFFFFFFFFFFFFFFFFFFFFFFFFF
310
FFFFFFFFFFFFFFFFFFFFFFFFFFFFFFFFFFFFFFFFFFFFFFFFFFFFFFFFFFFFFFFF
310
F000FFFFFFFFFFFFFFFFFFFFFFFFFFFFFFFFFFFFFFFFFFFFFFFFFFFFFFFFFFFF
310
FFFFFFFFFFFFFFFFFFFFFFFFFFFFFFFFFFFFFFFFFFFFFFFFFFFFFFFFFFFFFFFF
310
FFFFFFFFFFFFFFFFFFFFFFFFFFFFFFFFFFFFFFFFFFFFFFFFF000FFFFFFFFFFFF
310
FFFFFFFFFFFFFFFFFFFFFFFFFFFFFFFFFFFFFFFFFFFFFFFFFFFFFFFFFFFFFFFF
310
FFFFFFFFFFFFFFFFFFFFFFFFFFFFFFFFFFFFFFFFFFFFFFFFFFFFFFFFFFFFFFFF
310
FFFFFFFFFFFFFFFFFFFFFFFFFFFFFFFFF000FFFFFFFFFFFFFFFFFFFFFFFFFFFF
310
FFFFFFFFFFFFFFFFFFFFFFFFFFFFFFFFFFFFFFFFFFFFFFFFFFFFFFFFFFFFFFFF
310
FFFFFFFFFFFFFFFFFFFFFFFFFFFFFFFFFFFFFFFFFFFFFFFFFFFFFFFFFFFFFFFF
310
FFFFFFFFFFFFFFFFF000FFFFFFFFFFFFFFFFFFFFFFFFFFFFFFFFFFFFFFFFFFFF
310
FFFFFFFFFFFFFFFFFFFFFFFFFFFFFFFFFFFFFFFFFFFFFFFFFFFFFFFFFFFFFFFF
310
FFFFFFFFFFFFFFFFFFFFFFFFFFFFFFFFFFFFFFFFFFFFFFFFFFFFFFFFFFFFFFFF
310
F000FFFFFFFFFFFFFFFFFFFFFFFFFFFFFFFFFFFFFFFFFFFFFFFFFFFFFFFFFFFF
310
FFFFFFFFFFFFFFFFFFFFFFFFFFFFFFFFFFFFFFFFFFFFFFFFFFFFFFFFFFFFFFFF
310
FFFFFFFFFFFFFFFFFFFFFFFFFFFFFFFFFFFFFFFFFFFFFFFFF000FFFFFFFFFFFF
310
FFFFFFFFFFFFFFFFFFFFFFFFFFFFFFFFFFFFFFFFFFFFFFFFFFFFFFFFFFFFFFFF
310
FFFFFFFFFFFFFFFFFFFFFFFFFFFFFFFFFFFFFFFFFFFFFFFFFFFFFFFFFFFFFFFF
310
FFFFFFFFFFFFFFFFFFFFFFFFFFFFFFFFF0000000000000000000000000000000
310
0000000000000000000000000000000000000000000000000000000000000000
310
0000000000000000000000000000000000000000000000000000000000000000
310
0000000000000000000000000000000000000000000000000000000000000000
310
0000000000000000000000000000000000000000000000000000000000000000
310
0000000000000000000000000000000000000000000000000000000000000000
310
0000000000000000000000000000000000000000000000000000000000000000
310
0000000000000000000000000000000000000000000000000000000000000000
310
0000000000000000000000000000000000000000000000000000000000000000
310
0000000000000000000000000000000000000000000000000000000000000000
310
0000000000000000000000000000000000000000000000000000000000000000
310
0000000000000000000000000000000000000000000000000000000000000000
310
0000000000000000000000000000000000000000000000000000000000000000
310
0000000000000000000000000000000000000000000000000000000000000000
310
0000000000000000000000000000000000000000000000000000000000000000
310
0000000000000000000000000000000000000000000000000000000000000000
  1
OLE
  0
ENDSEC
  0
SECTION
  2
OBJECTS
  0
DICTIONARY
  5
C
330
0
100
AcDbDictionary
281
     1
  3
ACAD_GROUP
350
D
  3
ACAD_LAYOUT
350
1A
  3
ACAD_MLINESTYLE
350
17
  3
ACAD_PLOTSETTINGS
350
19
  3
ACAD_PLOTSTYLENAME
350
E
  0
DICTIONARY
  5
D
102
{ACAD_REACTORS
330
C
102
}
330
C
100
AcDbDictionary
281
     1
  0
DICTIONARY
  5
1A
102
{ACAD_REACTORS
330
C
102
}
330
C
100
AcDbDictionary
281
     1
  3
Layout1
350
1E
  3
Layout2
350
26
  3
Model
350
22
  0
DICTIONARY
  5
17
102
{ACAD_REACTORS
330
C
102
}
330
C
100
AcDbDictionary
281
     1
  3
Standard
350
18
  0
DICTIONARY
  5
19
102
{ACAD_REACTORS
330
C
102
}
330
C
100
AcDbDictionary
281
     1
  0
ACDBDICTIONARYWDFLT
  5
E
102
{ACAD_REACTORS
330
C
102
}
330
C
100
AcDbDictionary
281
     1
  3
Normal
350
F
100
AcDbDictionaryWithDefault
340
F
  0
LAYOUT
  5
1E
102
{ACAD_REACTORS
330
1A
102
}
330
1A
100
AcDbPlotSettings
  1

  2
none_device
  4

  6

 40
0.0
 41
0.0
 42
0.0
 43
0.0
 44
0.0
 45
0.0
 46
0.0
 47
0.0
 48
0.0
 49
0.0
140
0.0
141
0.0
142
1.0
143
1.0
 70
   688
 72
     0
 73
     0
 74
     5
  7

 75
    16
147
1.0
148
0.0
149
0.0
100
AcDbLayout
  1
Layout1
 70
     1
 71
     1
 10
0.0
 20
0.0
 11
420.0
 21
297.0
 12
0.0
 22
0.0
 32
0.0
 14
1.0000000000E+20
 24
1.0000000000E+20
 34
1.0000000000E+20
 15
-1.0000000000E+20
 25
-1.0000000000E+20
 35
-1.0000000000E+20
146
0.0
 13
0.0
 23
0.0
 33
0.0
 16
1.0
 26
0.0
 36
0.0
 17
0.0
 27
1.0
 37
0.0
 76
     0
330
1B
  0
LAYOUT
  5
26
102
{ACAD_REACTORS
330
1A
102
}
330
1A
100
AcDbPlotSettings
  1

  2
none_device
  4

  6

 40
0.0
 41
0.0
 42
0.0
 43
0.0
 44
0.0
 45
0.0
 46
0.0
 47
0.0
 48
0.0
 49
0.0
140
0.0
141
0.0
142
1.0
143
1.0
 70
   688
 72
     0
 73
     0
 74
     5
  7

 75
    16
147
1.0
148
0.0
149
0.0
100
AcDbLayout
  1
Layout2
 70
     1
 71
     2
 10
0.0
 20
0.0
 11
0.0
 21
0.0
 12
0.0
 22
0.0
 32
0.0
 14
0.0
 24
0.0
 34
0.0
 15
0.0
 25
0.0
 35
0.0
146
0.0
 13
0.0
 23
0.0
 33
0.0
 16
1.0
 26
0.0
 36
0.0
 17
0.0
 27
1.0
 37
0.0
 76
     0
330
23
  0
LAYOUT
  5
22
102
{ACAD_REACTORS
330
1A
102
}
330
1A
100
AcDbPlotSettings
  1

  2
none_device
  4

  6

 40
0.0
 41
0.0
 42
0.0
 43
0.0
 44
0.0
 45
0.0
 46
0.0
 47
0.0
 48
0.0
 49
0.0
140
0.0
141
0.0
142
1.0
143
1.0
 70
  1712
 72
     0
 73
     0
 74
     0
  7

 75
     0
147
1.0
148
0.0
149
0.0
100
AcDbLayout
  1
Model
 70
     1
 71
     0
 10
0.0
 20
0.0
 11
297.0
 21
210.0
 12
0.0
 22
0.0
 32
0.0
 14
0.0
 24
0.0
 34
0.0
 15
297.0
 25
210.0
 35
0.0
146
0.0
 13
0.0
 23
0.0
 33
0.0
 16
1.0
 26
0.0
 36
0.0
 17
0.0
 27
1.0
 37
0.0
 76
     0
330
1F
331
29
  0
MLINESTYLE
  5
18
102
{ACAD_REACTORS
330
17
102
}
330
17
100
AcDbMlineStyle
  2
Standard
 70
     0
  3

 62
   256
 51
90.0
 52
90.0
 71
     2
 49
0.5
 62
   256
  6
BYLAYER
 49
-0.5
 62
   256
  6
BYLAYER
  0
ACDBPLACEHOLDER
  5
F
102
{ACAD_REACTORS
330
E
102
}
330
E
  0
ENDSEC
  0
EOF
