  0
SECTION
  2
HEADER
  9
$ACADVER
  1
AC1015
  9
$ACADMAINTVER
 70
     6
  9
$DWGCODEPAGE
  3
ANSI_1252
  9
$INSBASE
 10
0.0
 20
0.0
 30
0.0
  9
$EXTMIN
 10
0.0
 20
0.0
 30
0.0
  9
$EXTMAX
 10
297.0
 20
210.0
 30
0.0
  9
$LIMMIN
 10
0.0
 20
0.0
  9
$LIMMAX
 10
297.0
 20
210.0
  9
$ORTHOMODE
 70
     0
  9
$REGENMODE
 70
     1
  9
$FILLMODE
 70
     1
  9
$QTEXTMODE
 70
     0
  9
$MIRRTEXT
 70
     1
  9
$LTSCALE
 40
1.0
  9
$ATTMODE
 70
     1
  9
$TEXTSIZE
 40
2.0
  9
$TRACEWID
 40
1.0
  9
$TEXTSTYLE
  7
Standard
  9
$CLAYER
  8
0
  9
$CELTYPE
  6
ByLayer
  9
$CECOLOR
 62
   256
  9
$CELTSCALE
 40
1.0
  9
$DISPSILH
 70
     0
  9
$DIMSCALE
 40
1.0
  9
$DIMASZ
 40
3.0
  9
$DIMEXO
 40
0.0
  9
$DIMDLI
 40
3.75
  9
$DIMRND
 40
0.0
  9
$DIMDLE
 40
0.0
  9
$DIMEXE
 40
1.0
  9
$DIMTP
 40
0.0
  9
$DIMTM
 40
0.0
  9
$DIMTXT
 40
2.0
  9
$DIMCEN
 40
2.5
  9
$DIMTSZ
 40
0.0
  9
$DIMTOL
 70
     0
  9
$DIMLIM
 70
     0
  9
$DIMTIH
 70
     1
  9
$DIMTOH
 70
     1
  9
$DIMSE1
 70
     0
  9
$DIMSE2
 70
     0
  9
$DIMTAD
 70
     1
  9
$DIMZIN
 70
     0
  9
$DIMBLK
  1

  9
$DIMASO
 70
     1
  9
$DIMSHO
 70
     1
  9
$DIMPOST
  1

  9
$DIMAPOST
  1

  9
$DIMALT
 70
     0
  9
$DIMALTD
 70
     3
  9
$DIMALTF
 40
0.0393700787
  9
$DIMLFAC
 40
1.0
  9
$DIMTOFL
 70
     1
  9
$DIMTVP
 40
0.0
  9
$DIMTIX
 70
     0
  9
$DIMSOXD
 70
     0
  9
$DIMSAH
 70
     0
  9
$DIMBLK1
  1

  9
$DIMBLK2
  1

  9
$DIMSTYLE
  2
ISO-25
  9
$DIMCLRD
 70
     0
  9
$DIMCLRE
 70
     0
  9
$DIMCLRT
 70
     0
  9
$DIMTFAC
 40
1.0
  9
$DIMGAP
 40
1.524
  9
$DIMJUST
 70
     0
  9
$DIMSD1
 70
     0
  9
$DIMSD2
 70
     0
  9
$DIMTOLJ
 70
     0
  9
$DIMTZIN
 70
     0
  9
$DIMALTZ
 70
     0
  9
$DIMALTTZ
 70
     0
  9
$DIMUPT
 70
     0
  9
$DIMDEC
 70
     2
  9
$DIMTDEC
 70
     3
  9
$DIMALTU
 70
     2
  9
$DIMALTTD
 70
     3
  9
$DIMTXSTY
  7
Standard
  9
$DIMAUNIT
 70
     0
  9
$DIMADEC
 70
     2
  9
$DIMALTRND
 40
0.0
  9
$DIMAZIN
 70
     0
  9
$DIMDSEP
 70
    44
  9
$DIMATFIT
 70
     3
  9
$DIMFRAC
 70
     0
  9
$DIMLDRBLK
  1

  9
$DIMLUNIT
 70
     2
  9
$DIMLWD
 70
    -2
  9
$DIMLWE
 70
    -2
  9
$DIMTMOVE
 70
     0
  9
$LUNITS
 70
     2
  9
$LUPREC
 70
     2
  9
$SKETCHINC
 40
1.0
  9
$FILLETRAD
 40
10.0
  9
$AUNITS
 70
     0
  9
$AUPREC
 70
     2
  9
$MENU
  1
.
  9
$ELEVATION
 40
0.0
  9
$PELEVATION
 40
0.0
  9
$THICKNESS
 40
0.0
  9
$LIMCHECK
 70
     0
  9
$CHAMFERA
 40
10.0
  9
$CHAMFERB
 40
10.0
  9
$CHAMFERC
 40
20.0
  9
$CHAMFERD
 40
0.0
  9
$SKPOLY
 70
     0
  9
$TDCREATE
 40
2456085.498558889
  9
$TDUCREATE
 40
2456085.415225556
  9
$TDUPDATE
 40
2456085.498560335
  9
$TDUUPDATE
 40
2456085.415227002
  9
$TDINDWG
 40
0.0000000116
  9
$TDUSRTIMER
 40
0.0000000116
  9
$USRTIMER
 70
     1
  9
$ANGBASE
 50
0.0
  9
$ANGDIR
 70
     0
  9
$PDMODE
 70
     0
  9
$PDSIZE
 40
-1.0
  9
$PLINEWID
 40
0.0
  9
$SPLFRAME
 70
     0
  9
$SPLINETYPE
 70
     6
  9
$SPLINESEGS
 70
     8
  9
$HANDSEED
  5
283
  9
$SURFTAB1
 70
     6
  9
$SURFTAB2
 70
     6
  9
$SURFTYPE
 70
     6
  9
$SURFU
 70
     6
  9
$SURFV
 70
     6
  9
$UCSBASE
  2

  9
$UCSNAME
  2

  9
$UCSORG
 10
0.0
 20
0.0
 30
0.0
  9
$UCSXDIR
 10
1.0
 20
0.0
 30
0.0
  9
$UCSYDIR
 10
0.0
 20
1.0
 30
0.0
  9
$UCSORTHOREF
  2

  9
$UCSORTHOVIEW
 70
     0
  9
$UCSORGTOP
 10
0.0
 20
0.0
 30
0.0
  9
$UCSORGBOTTOM
 10
0.0
 20
0.0
 30
0.0
  9
$UCSORGLEFT
 10
0.0
 20
0.0
 30
0.0
  9
$UCSORGRIGHT
 10
0.0
 20
0.0
 30
0.0
  9
$UCSORGFRONT
 10
0.0
 20
0.0
 30
0.0
  9
$UCSORGBACK
 10
0.0
 20
0.0
 30
0.0
  9
$PUCSBASE
  2

  9
$PUCSNAME
  2

  9
$PUCSORG
 10
0.0
 20
0.0
 30
0.0
  9
$PUCSXDIR
 10
1.0
 20
0.0
 30
0.0
  9
$PUCSYDIR
 10
0.0
 20
1.0
 30
0.0
  9
$PUCSORTHOREF
  2

  9
$PUCSORTHOVIEW
 70
     0
  9
$PUCSORGTOP
 10
0.0
 20
0.0
 30
0.0
  9
$PUCSORGBOTTOM
 10
0.0
 20
0.0
 30
0.0
  9
$PUCSORGLEFT
 10
0.0
 20
0.0
 30
0.0
  9
$PUCSORGRIGHT
 10
0.0
 20
0.0
 30
0.0
  9
$PUCSORGFRONT
 10
0.0
 20
0.0
 30
0.0
  9
$PUCSORGBACK
 10
0.0
 20
0.0
 30
0.0
  9
$USERI1
 70
     0
  9
$USERI2
 70
     0
  9
$USERI3
 70
     0
  9
$USERI4
 70
     0
  9
$USERI5
 70
     0
  9
$USERR1
 40
0.0
  9
$USERR2
 40
0.0
  9
$USERR3
 40
0.0
  9
$USERR4
 40
0.0
  9
$USERR5
 40
0.0
  9
$WORLDVIEW
 70
     1
  9
$SHADEDGE
 70
     3
  9
$SHADEDIF
 70
    70
  9
$TILEMODE
 70
     1
  9
$MAXACTVP
 70
    64
  9
$PINSBASE
 10
0.0
 20
0.0
 30
0.0
  9
$PLIMCHECK
 70
     0
  9
$PEXTMIN
 10
1.0000000000E+20
 20
1.0000000000E+20
 30
1.0000000000E+20
  9
$PEXTMAX
 10
-1.0000000000E+20
 20
-1.0000000000E+20
 30
-1.0000000000E+20
  9
$PLIMMIN
 10
0.0
 20
0.0
  9
$PLIMMAX
 10
420.0
 20
297.0
  9
$UNITMODE
 70
     0
  9
$VISRETAIN
 70
     1
  9
$PLINEGEN
 70
     0
  9
$PSLTSCALE
 70
     1
  9
$TREEDEPTH
 70
  3020
  9
$CMLSTYLE
  2
Standard
  9
$CMLJUST
 70
     0
  9
$CMLSCALE
 40
20.0
  9
$PROXYGRAPHICS
 70
     1
  9
$MEASUREMENT
 70
     1
  9
$CELWEIGHT
370
    -1
  9
$ENDCAPS
280
     0
  9
$JOINSTYLE
280
     0
  9
$LWDISPLAY
290
     1
  9
$INSUNITS
 70
     4
  9
$HYPERLINKBASE
  1

  9
$STYLESHEET
  1

  9
$XEDIT
290
     1
  9
$CEPSNTYPE
380
     0
  9
$PSTYLEMODE
290
     1
  9
$FINGERPRINTGUID
  2
{21651C95-F52D-4161-BC13-F1633F12FE9C}
  9
$VERSIONGUID
  2
{FAEB1C32-E019-11D5-929B-00C0DF256EC4}
  9
$EXTNAMES
290
     1
  9
$PSVPSCALE
 40
0.0
  9
$OLESTARTUP
290
     0
  0
ENDSEC
  0
SECTION
  2
CLASSES
  0
CLASS
  1
ACDBDICTIONARYWDFLT
  2
AcDbDictionaryWithDefault
  3
ObjectDBX Classes
 90
        0
280
     0
281
     0
  0
CLASS
  1
VISUALSTYLE
  2
AcDbVisualStyle
  3
ObjectDBX Classes
 90
     4095
280
     0
281
     0
  0
CLASS
  1
MATERIAL
  2
AcDbMaterial
  3
ObjectDBX Classes
 90
     1153
280
     0
281
     0
  0
CLASS
  1
ACDBPLACEHOLDER
  2
AcDbPlaceHolder
  3
ObjectDBX Classes
 90
        0
280
     0
281
     0
  0
CLASS
  1
LAYOUT
  2
AcDbLayout
  3
ObjectDBX Classes
 90
        0
280
     0
281
     0
  0
ENDSEC
  0
SECTION
  2
TABLES
  0
TABLE
  2
VPORT
  5
8
330
0
100
AcDbSymbolTable
 70
     1
  0
VPORT
  5
29
330
8
100
AcDbSymbolTableRecord
100
AcDbViewportTableRecord
  2
*Active
 70
     0
 10
0.0
 20
0.0
 11
1.0
 21
1.0
 12
148.5
 22
105.0
 13
0.0
 23
0.0
 14
10.0
 24
10.0
 15
10.0
 25
10.0
 16
0.0
 26
0.0
 36
1.0
 17
0.0
 27
0.0
 37
0.0
 40
210.0
 41
1.4142857143
 42
50.0
 43
0.0
 44
0.0
 50
0.0
 51
0.0
 71
     0
 72
  2000
 73
     1
 74
     3
 75
     0
 76
     0
 77
     0
 78
     0
281
     0
 65
     1
110
0.0
120
0.0
130
0.0
111
1.0
121
0.0
131
0.0
112
0.0
122
1.0
132
0.0
 79
     0
146
0.0
  0
ENDTAB
  0
TABLE
  2
LTYPE
  5
5
330
0
100
AcDbSymbolTable
 70
     6
  0
LTYPE
  5
14
330
5
100
AcDbSymbolTableRecord
100
AcDbLinetypeTableRecord
  2
ByBlock
 70
     0
  3

 72
    65
 73
     0
 40
0.0
  0
LTYPE
  5
15
330
5
100
AcDbSymbolTableRecord
100
AcDbLinetypeTableRecord
  2
ByLayer
 70
     0
  3

 72
    65
 73
     0
 40
0.0
  0
LTYPE
  5
16
330
5
100
AcDbSymbolTableRecord
100
AcDbLinetypeTableRecord
  2
Continuous
 70
     0
  3
Solid line
 72
    65
 73
     0
 40
0.0
  0
LTYPE
  5
3F
330
5
100
AcDbSymbolTableRecord
100
AcDbLinetypeTableRecord
  2
HIDDEN
 70
     0
  3
Hidden __ __ __ __ __ __ __ __ __ __ __ __ __ __
 72
    65
 73
     2
 40
1.905
 49
1.27
 74
     0
 49
-0.635
 74
     0
  0
LTYPE
  5
40
330
5
100
AcDbSymbolTableRecord
100
AcDbLinetypeTableRecord
  2
PHANTOM
 70
     0
  3
Phantom ______  __  __  ______  __  __  ______
 72
    65
 73
     6
 40
12.7
 49
6.35
 74
     0
 49
-1.27
 74
     0
 49
1.27
 74
     0
 49
-1.27
 74
     0
 49
1.27
 74
     0
 49
-1.27
 74
     0
  0
LTYPE
  5
41
330
5
100
AcDbSymbolTableRecord
100
AcDbLinetypeTableRecord
  2
CENTER
 70
     0
  3
Center ____ _ ____ _ ____ _ ____ _ ____ _ ____
 72
    65
 73
     4
 40
10.16
 49
6.35
 74
     0
 49
-1.27
 74
     0
 49
1.27
 74
     0
 49
-1.27
 74
     0
  0
LTYPE
  5
42
330
5
100
AcDbSymbolTableRecord
100
AcDbLinetypeTableRecord
  2
CENTERX2
 70
     0
  3
Center (2x) ________  __  ________  __  _____
 72
    65
 73
     4
 40
20.32
 49
12.7
 74
     0
 49
-2.54
 74
     0
 49
2.54
 74
     0
 49
-2.54
 74
     0
  0
LTYPE
  5
43
330
5
100
AcDbSymbolTableRecord
100
AcDbLinetypeTableRecord
  2
DOT2
 70
     0
  3
Dot (.5x) ........................................
 72
    65
 73
     2
 40
0.635
 49
0.0
 74
     0
 49
-0.635
 74
     0
  0
ENDTAB
  0
TABLE
  2
LAYER
  5
2
330
0
100
AcDbSymbolTable
 70
     5
  0
LAYER
  5
10
330
2
100
AcDbSymbolTableRecord
100
AcDbLayerTableRecord
  2
0
 70
     0
 62
     7
  6
Continuous
370
    -3
390
F
  0
LAYER
  5
44
330
2
100
AcDbSymbolTableRecord
100
AcDbLayerTableRecord
  2
FORMAT
 70
     0
 62
     7
  6
Continuous
370
    -3
390
F
  0
LAYER
  5
45
330
2
100
AcDbSymbolTableRecord
100
AcDbLayerTableRecord
  2
VERMASSUNG
 70
     0
 62
     7
  6
Continuous
370
    -3
390
F
  0
LAYER
  5
46
330
2
100
AcDbSymbolTableRecord
100
AcDbLayerTableRecord
  2
KOPF_DÜNN
 70
     0
 62
     7
  6
Continuous
370
    -3
390
F
  0
LAYER
  5
47
330
2
100
AcDbSymbolTableRecord
100
AcDbLayerTableRecord
  2
KOPF_DICK
 70
     0
 62
     7
  6
Continuous
370
    15
390
F
  0
ENDTAB
  0
TABLE
  2
STYLE
  5
3
330
0
100
AcDbSymbolTable
 70
     2
  0
STYLE
  5
11
330
3
100
AcDbSymbolTableRecord
100
AcDbTextStyleTableRecord
  2
Standard
 70
     0
 40
0.0
 41
1.0
 50
0.0
 71
     0
 42
2.0
  3
txt
  4

  0
STYLE
  5
48
330
3
100
AcDbSymbolTableRecord
100
AcDbTextStyleTableRecord
  2
SLDTEXTSTYLE0
 70
     0
 40
0.0
 41
0.7
 50
0.0
 71
     0
 42
0.2
  3
TXT
  4

  0
ENDTAB
  0
TABLE
  2
VIEW
  5
6
330
0
100
AcDbSymbolTable
 70
     0
  0
ENDTAB
  0
TABLE
  2
UCS
  5
7
330
0
100
AcDbSymbolTable
 70
     0
  0
ENDTAB
  0
TABLE
  2
APPID
  5
9
330
0
100
AcDbSymbolTable
 70
     1
  0
APPID
  5
12
330
9
100
AcDbSymbolTableRecord
100
AcDbRegAppTableRecord
  2
ACAD
 70
     0
  0
ENDTAB
  0
TABLE
  2
DIMSTYLE
  5
A
330
0
100
AcDbSymbolTable
 70
     5
100
AcDbDimStyleTable
  0
DIMSTYLE
105
27
330
A
100
AcDbSymbolTableRecord
100
AcDbDimStyleTableRecord
  2
ISO-25
 70
     0
 41
2.5
 42
0.625
 43
3.75
 44
1.25
 73
     0
 74
     0
 77
     1
 78
     8
140
2.5
141
2.5
143
0.0393700787
147
0.625
171
     3
172
     1
178
     0
271
     2
272
     2
274
     3
278
    44
283
     0
284
     8
340
11
  0
DIMSTYLE
105
1C8
102
{ACAD_REACTORS
330
1C7
330
1DB
330
1E5
330
1EF
330
1FB
102
}
330
A
100
AcDbSymbolTableRecord
100
AcDbDimStyleTableRecord
  2
SLDDIMSTYLE0
 70
     0
 41
3.0
 44
0.0
 45
0.000000001
 73
     0
 74
     0
 77
     1
 78
    12
 79
     3
140
2.0
147
0.5
173
     1
178
     0
271
     2
272
     3
276
     2
284
    12
340
48
  0
DIMSTYLE
105
1D3
102
{ACAD_REACTORS
330
1D2
102
}
330
A
100
AcDbSymbolTableRecord
100
AcDbDimStyleTableRecord
  2
SLDDIMSTYLE1
 70
     0
 41
3.0
 44
0.0
 73
     0
 74
     0
 77
     1
 78
    12
 79
     3
140
2.0
147
0.5
173
     1
178
     0
179
     1
272
     3
276
     2
284
    12
340
48
  0
DIMSTYLE
105
25B
102
{ACAD_REACTORS
330
25A
102
}
330
A
100
AcDbSymbolTableRecord
100
AcDbDimStyleTableRecord
  2
SLDDIMSTYLE2
 70
     0
 41
3.0
 44
0.0
 45
0.000000001
 73
     0
 74
     0
 77
     1
 78
    12
 79
     3
140
2.0
147
0.5
172
     1
173
     1
178
     0
271
     2
272
     3
276
     2
284
    12
289
     0
340
48
  0
DIMSTYLE
105
26A
102
{ACAD_REACTORS
330
269
102
}
330
A
100
AcDbSymbolTableRecord
100
AcDbDimStyleTableRecord
  2
SLDDIMSTYLE3
 70
     0
 41
3.0
 44
0.0
 73
     0
 74
     0
 77
     1
 78
    12
 79
     3
140
2.0
147
0.5
173
     1
178
     0
179
     2
272
     3
276
     2
284
    12
340
48
  0
ENDTAB
  0
TABLE
  2
BLOCK_RECORD
  5
1
330
0
100
AcDbSymbolTable
 70
    10
  0
BLOCK_RECORD
  5
1F
330
1
100
AcDbSymbolTableRecord
100
AcDbBlockTableRecord
  2
*Model_Space
340
22
  0
BLOCK_RECORD
  5
1B
330
1
100
AcDbSymbolTableRecord
100
AcDbBlockTableRecord
  2
*Paper_Space
340
1E
  0
BLOCK_RECORD
  5
23
330
1
100
AcDbSymbolTableRecord
100
AcDbBlockTableRecord
  2
*Paper_Space0
340
26
  0
BLOCK_RECORD
  5
1C9
330
1
100
AcDbSymbolTableRecord
100
AcDbBlockTableRecord
  2
_D
340
0
  0
BLOCK_RECORD
  5
1D4
330
1
100
AcDbSymbolTableRecord
100
AcDbBlockTableRecord
  2
_D_1
340
0
  0
BLOCK_RECORD
  5
1DC
330
1
100
AcDbSymbolTableRecord
100
AcDbBlockTableRecord
  2
_D_2
340
0
  0
BLOCK_RECORD
  5
1E6
330
1
100
AcDbSymbolTableRecord
100
AcDbBlockTableRecord
  2
_D_3
340
0
  0
BLOCK_RECORD
  5
1F0
330
1
100
AcDbSymbolTableRecord
100
AcDbBlockTableRecord
  2
_D_4
340
0
  0
BLOCK_RECORD
  5
1FC
330
1
100
AcDbSymbolTableRecord
100
AcDbBlockTableRecord
  2
_D_5
340
0
  0
BLOCK_RECORD
  5
25C
330
1
100
AcDbSymbolTableRecord
100
AcDbBlockTableRecord
  2
_D_6
340
0
  0
BLOCK_RECORD
  5
26B
330
1
100
AcDbSymbolTableRecord
100
AcDbBlockTableRecord
  2
_D_7
340
0
  0
BLOCK_RECORD
  5
276
330
1
100
AcDbSymbolTableRecord
100
AcDbBlockTableRecord
  2
SW_CENTERMARKSYMBOL_0
340
0
102
{BLKREFS
331
281
102
}
  0
ENDTAB
  0
ENDSEC
  0
SECTION
  2
BLOCKS
  0
BLOCK
  5
20
330
1F
100
AcDbEntity
  8
0
100
AcDbBlockBegin
  2
*Model_Space
 70
     0
 10
0.0
 20
0.0
 30
0.0
  3
*Model_Space
  1

  0
ENDBLK
  5
21
330
1F
100
AcDbEntity
  8
0
100
AcDbBlockEnd
  0
BLOCK
  5
1C
330
1B
100
AcDbEntity
 67
     1
  8
0
100
AcDbBlockBegin
  2
*Paper_Space
 70
     0
 10
0.0
 20
0.0
 30
0.0
  3
*Paper_Space
  1

  0
ENDBLK
  5
1D
330
1B
100
AcDbEntity
 67
     1
  8
0
100
AcDbBlockEnd
  0
BLOCK
  5
24
330
23
100
AcDbEntity
  8
0
100
AcDbBlockBegin
  2
*Paper_Space0
 70
     0
 10
0.0
 20
0.0
 30
0.0
  3
*Paper_Space0
  1

  0
ENDBLK
  5
25
330
23
100
AcDbEntity
  8
0
100
AcDbBlockEnd
  0
BLOCK
  5
1CA
330
1C9
100
AcDbEntity
  8
0
100
AcDbBlockBegin
  2
_D
 70
     0
 10
0.0
 20
0.0
 30
0.0
  3
_D
  1

  0
SOLID
  5
1CC
330
1C9
100
AcDbEntity
  8
VERMASSUNG
100
AcDbTrace
 10
275.8144851989
 20
162.8142881932
 30
0.0
 11
275.3644851989
 21
159.8142881932
 31
0.0
 12
276.2644851989
 22
159.8142881932
 32
0.0
 13
276.2644851989
 23
159.8142881932
 33
0.0
  0
SOLID
  5
1CD
330
1C9
100
AcDbEntity
  8
VERMASSUNG
100
AcDbTrace
 10
275.8144851989
 20
135.8142881932
 30
0.0
 11
276.2644851989
 21
138.8142881932
 31
0.0
 12
275.3644851989
 22
138.8142881932
 32
0.0
 13
275.3644851989
 23
138.8142881932
 33
0.0
  0
LINE
  5
1CE
330
1C9
100
AcDbEntity
  8
VERMASSUNG
100
AcDbLine
 10
258.7498559593
 20
162.8142881932
 30
0.0
 11
276.8144851989
 21
162.8142881932
 31
0.0
  0
LINE
  5
1CF
330
1C9
100
AcDbEntity
  8
VERMASSUNG
100
AcDbLine
 10
258.7498559593
 20
135.8142881932
 30
0.0
 11
276.8144851989
 21
135.8142881932
 31
0.0
  0
LINE
  5
1D0
330
1C9
100
AcDbEntity
  8
VERMASSUNG
100
AcDbLine
 10
275.8144851989
 20
162.8142881932
 30
0.0
 11
275.8144851989
 21
135.8142881932
 31
0.0
  0
MTEXT
  5
1D1
330
1C9
100
AcDbEntity
  8
VERMASSUNG
100
AcDbMText
 10
273.2363498358
 20
147.0142881422
 30
0.1
 40
2.0
 41
0.0
 71
     1
 72
     1
  1
27
  7
SLDTEXTSTYLE0
 11
-7.044195017643634E-15
 21
1.0
 31
0.0
 73
     1
 44
1.0
  0
ENDBLK
  5
1CB
330
1C9
100
AcDbEntity
  8
0
100
AcDbBlockEnd
  0
BLOCK
  5
1D5
330
1D4
100
AcDbEntity
  8
0
100
AcDbBlockBegin
  2
_D_1
 70
     0
 10
0.0
 20
0.0
 30
0.0
  3
_D_1
  1

  0
ARC
  5
1D7
330
1D4
100
AcDbEntity
  8
VERMASSUNG
100
AcDbCircle
 10
258.7867417288
 20
135.8142881932
 30
0.0
 40
10.60794060667621
100
AcDbArc
 50
0.0
 51
95.0277975181
  0
SOLID
  5
1D8
330
1D4
100
AcDbEntity
  8
VERMASSUNG
100
AcDbTrace
 10
269.3946823355
 20
135.8142881932
 30
0.0
 11
269.4283089137
 21
138.8476640771
 31
0.0
 12
268.536840981
 22
138.7240318607
 32
0.0
 13
268.536840981
 23
138.7240318607
 33
0.0
  0
SOLID
  5
1D9
330
1D4
100
AcDbEntity
  8
VERMASSUNG
100
AcDbTrace
 10
257.8570719498
 20
146.38141259
 30
0.0
 11
260.8308001831
 21
145.7818791094
 31
0.0
 12
260.8758293016
 22
146.6807519472
 32
0.0
 13
260.8758293016
 23
146.6807519472
 33
0.0
  0
MTEXT
  5
1DA
330
1D4
100
AcDbEntity
  8
VERMASSUNG
100
AcDbMText
 10
265.5541873423
 20
147.4969368863
 30
0.1
 40
2.0
 41
0.0
 71
     1
 72
     1
  1
95°
  7
SLDTEXTSTYLE0
 11
0.7374411991856007
 21
-0.6754113396617674
 31
0.0
 73
     1
 44
1.0
  0
ENDBLK
  5
1D6
330
1D4
100
AcDbEntity
  8
0
100
AcDbBlockEnd
  0
BLOCK
  5
1DD
330
1DC
100
AcDbEntity
  8
0
100
AcDbBlockBegin
  2
_D_2
 70
     0
 10
0.0
 20
0.0
 30
0.0
  3
_D_2
  1

  0
SOLID
  5
1DF
330
1DC
100
AcDbEntity
  8
VERMASSUNG
100
AcDbTrace
 10
40.7498559593
 20
115.3142881932
 30
0.0
 11
43.7498559593
 21
114.8642881932
 31
0.0
 12
43.7498559593
 22
115.7642881932
 32
0.0
 13
43.7498559593
 23
115.7642881932
 33
0.0
  0
SOLID
  5
1E0
330
1DC
100
AcDbEntity
  8
VERMASSUNG
100
AcDbTrace
 10
258.7498559593
 20
115.3142881932
 30
0.0
 11
255.7498559593
 21
115.7642881932
 31
0.0
 12
255.7498559593
 22
114.8642881932
 32
0.0
 13
255.7498559593
 23
114.8642881932
 33
0.0
  0
LINE
  5
1E1
330
1DC
100
AcDbEntity
  8
VERMASSUNG
100
AcDbLine
 10
40.7498559593
 20
142.5219502007
 30
0.0
 11
40.7498559593
 21
114.3142881932
 31
0.0
  0
LINE
  5
1E2
330
1DC
100
AcDbEntity
  8
VERMASSUNG
100
AcDbLine
 10
258.7498559593
 20
135.8142881932
 30
0.0
 11
258.7498559593
 21
114.3142881932
 31
0.0
  0
LINE
  5
1E3
330
1DC
100
AcDbEntity
  8
VERMASSUNG
100
AcDbLine
 10
40.7498559593
 20
115.3142881932
 30
0.0
 11
258.7498559593
 21
115.3142881932
 31
0.0
  0
MTEXT
  5
1E4
330
1DC
100
AcDbEntity
  8
VERMASSUNG
100
AcDbMText
 10
146.9498558263
 20
117.8924235563
 30
0.1
 40
2.0
 41
0.0
 71
     1
 72
     1
  1
218
  7
SLDTEXTSTYLE0
 73
     1
 44
1.0
  0
ENDBLK
  5
1DE
330
1DC
100
AcDbEntity
  8
0
100
AcDbBlockEnd
  0
BLOCK
  5
1E7
330
1E6
100
AcDbEntity
  8
0
100
AcDbBlockBegin
  2
_D_3
 70
     0
 10
0.0
 20
0.0
 30
0.0
  3
_D_3
  1

  0
SOLID
  5
1E9
330
1E6
100
AcDbEntity
  8
VERMASSUNG
100
AcDbTrace
 10
78.7498559593
 20
121.3142881932
 30
0.0
 11
81.7498559593
 21
120.8642881932
 31
0.0
 12
81.7498559593
 22
121.7642881932
 32
0.0
 13
81.7498559593
 23
121.7642881932
 33
0.0
  0
SOLID
  5
1EA
330
1E6
100
AcDbEntity
  8
VERMASSUNG
100
AcDbTrace
 10
258.7498559593
 20
121.3142881932
 30
0.0
 11
255.7498559593
 21
121.7642881932
 31
0.0
 12
255.7498559593
 22
120.8642881932
 32
0.0
 13
255.7498559593
 23
120.8642881932
 33
0.0
  0
LINE
  5
1EB
330
1E6
100
AcDbEntity
  8
VERMASSUNG
100
AcDbLine
 10
78.7498559593
 20
131.8142881932
 30
0.0
 11
78.7498559593
 21
120.3142881932
 31
0.0
  0
LINE
  5
1EC
330
1E6
100
AcDbEntity
  8
VERMASSUNG
100
AcDbLine
 10
258.7498559593
 20
135.8142881932
 30
0.0
 11
258.7498559593
 21
120.3142881932
 31
0.0
  0
LINE
  5
1ED
330
1E6
100
AcDbEntity
  8
VERMASSUNG
100
AcDbLine
 10
78.7498559593
 20
121.3142881932
 30
0.0
 11
258.7498559593
 21
121.3142881932
 31
0.0
  0
MTEXT
  5
1EE
330
1E6
100
AcDbEntity
  8
VERMASSUNG
100
AcDbMText
 10
165.9498558263
 20
123.8924235563
 30
0.1
 40
2.0
 41
0.0
 71
     1
 72
     1
  1
180
  7
SLDTEXTSTYLE0
 73
     1
 44
1.0
  0
ENDBLK
  5
1E8
330
1E6
100
AcDbEntity
  8
0
100
AcDbBlockEnd
  0
BLOCK
  5
1F1
330
1F0
100
AcDbEntity
  8
0
100
AcDbBlockBegin
  2
_D_4
 70
     0
 10
0.0
 20
0.0
 30
0.0
  3
_D_4
  1

  0
SOLID
  5
1F3
330
1F0
100
AcDbEntity
  8
VERMASSUNG
100
AcDbTrace
 10
30.7498059593
 20
194.3142881932
 30
0.0
 11
30.2998059593
 21
191.3142881932
 31
0.0
 12
31.1998059593
 22
191.3142881932
 32
0.0
 13
31.1998059593
 23
191.3142881932
 33
0.0
  0
SOLID
  5
1F4
330
1F0
100
AcDbEntity
  8
VERMASSUNG
100
AcDbTrace
 10
30.7498059593
 20
131.3142881932
 30
0.0
 11
31.1998059593
 21
134.3142881932
 31
0.0
 12
30.2998059593
 22
134.3142881932
 32
0.0
 13
30.2998059593
 23
134.3142881932
 33
0.0
  0
LINE
  5
1F5
330
1F0
100
AcDbEntity
  8
VERMASSUNG
100
AcDbLine
 10
79.2498559593
 20
194.3142881932
 30
0.0
 11
29.7498059593
 21
194.3142881932
 31
0.0
  0
LINE
  5
1F6
330
1F0
100
AcDbEntity
  8
VERMASSUNG
100
AcDbLine
 10
79.2498559593
 20
131.3142881932
 30
0.0
 11
29.7498059593
 21
131.3142881932
 31
0.0
  0
LINE
  5
1F7
330
1F0
100
AcDbEntity
  8
VERMASSUNG
100
AcDbLine
 10
30.7498059593
 20
194.3142881932
 30
0.0
 11
30.7498059593
 21
131.3142881932
 31
0.0
  0
MTEXT
  5
1F8
330
1F0
100
AcDbEntity
  8
VERMASSUNG
100
AcDbMText
 10
27.9716704703
 20
156.409288084
 30
0.1
 40
2.0
 41
0.0
 71
     1
 72
     1
  1
PSC
  7
SLDTEXTSTYLE0
 11
-7.044195017643634E-15
 21
1.0
 31
0.0
 73
     1
 44
1.0
  0
MTEXT
  5
1F9
330
1F0
100
AcDbEntity
  8
VERMASSUNG
100
AcDbMText
 10
28.1716704798
 20
161.009288186
 30
0.1
 40
2.0
 41
0.0
 71
     1
 72
     1
  1
%%c
  7
SLDTEXTSTYLE0
 11
-7.044195017643634E-15
 21
1.0
 31
0.0
 73
     1
 44
1.0
  0
MTEXT
  5
1FA
330
1F0
100
AcDbEntity
  8
VERMASSUNG
100
AcDbMText
 10
27.9716704703
 20
164.619288666
 30
0.1
 40
2.0
 41
0.0
 71
     1
 72
     1
  1
63
  7
SLDTEXTSTYLE0
 11
-7.044195017643634E-15
 21
1.0
 31
0.0
 73
     1
 44
1.0
  0
ENDBLK
  5
1F2
330
1F0
100
AcDbEntity
  8
0
100
AcDbBlockEnd
  0
BLOCK
  5
1FD
330
1FC
100
AcDbEntity
  8
0
100
AcDbBlockBegin
  2
_D_5
 70
     0
 10
0.0
 20
0.0
 30
0.0
  3
_D_5
  1

  0
SOLID
  5
1FF
330
1FC
100
AcDbEntity
  8
VERMASSUNG
100
AcDbTrace
 10
139.3079056121
 20
142.8142881932
 30
0.0
 11
139.7579056121
 21
145.8142881932
 31
0.0
 12
138.8579056121
 22
145.8142881932
 32
0.0
 13
138.8579056121
 23
145.8142881932
 33
0.0
  0
SOLID
  5
200
330
1FC
100
AcDbEntity
  8
VERMASSUNG
100
AcDbTrace
 10
139.3079056121
 20
182.8142881932
 30
0.0
 11
138.8579056121
 21
179.8142881932
 31
0.0
 12
139.7579056121
 22
179.8142881932
 32
0.0
 13
139.7579056121
 23
179.8142881932
 33
0.0
  0
LINE
  5
201
330
1FC
100
AcDbEntity
  8
VERMASSUNG
100
AcDbLine
 10
139.3079056121
 20
142.8142881932
 30
0.0
 11
139.3079056121
 21
182.8142881932
 31
0.0
  0
MTEXT
  5
202
330
1FC
100
AcDbEntity
  8
VERMASSUNG
100
AcDbMText
 10
136.7297701325
 20
148.9680015649
 30
0.1
 40
2.0
 41
0.0
 71
     1
 72
     1
  1
%%c
  7
SLDTEXTSTYLE0
 11
6.123233995736766E-17
 21
1.0
 31
0.0
 73
     1
 44
1.0
  0
MTEXT
  5
203
330
1FC
100
AcDbEntity
  8
VERMASSUNG
100
AcDbMText
 10
136.529770123
 20
152.5780015792
 30
0.1
 40
2.0
 41
0.0
 71
     1
 72
     1
  1
40
  7
SLDTEXTSTYLE0
 11
6.123233995736766E-17
 21
1.0
 31
0.0
 73
     1
 44
1.0
  0
ENDBLK
  5
1FE
330
1FC
100
AcDbEntity
  8
0
100
AcDbBlockEnd
  0
BLOCK
  5
25D
330
25C
100
AcDbEntity
  8
0
100
AcDbBlockBegin
  2
_D_6
 70
     0
 10
0.0
 20
0.0
 30
0.0
  3
_D_6
  1

  0
SOLID
  5
25F
330
25C
100
AcDbEntity
  8
VERMASSUNG
100
AcDbTrace
 10
196.0541726384
 20
80.8734084058
 30
0.0
 11
198.4936910335
 21
82.6765306979
 31
0.0
 12
197.8572949304
 22
83.3129268009
 32
0.0
 13
197.8572949304
 23
83.3129268009
 33
0.0
  0
SOLID
  5
260
330
25C
100
AcDbEntity
  8
VERMASSUNG
100
AcDbTrace
 10
160.698833579
 20
45.5180693465
 30
0.0
 11
158.2593151839
 21
43.7149470545
 31
0.0
 12
158.895711287
 22
43.0785509514
 32
0.0
 13
158.895711287
 23
43.0785509514
 33
0.0
  0
LINE
  5
261
330
25C
100
AcDbEntity
  8
VERMASSUNG
100
AcDbLine
 10
196.0541726384
 20
80.8734084058
 30
0.0
 11
195.3470658572
 21
81.580515187
 31
0.0
  0
LINE
  5
262
330
25C
100
AcDbEntity
  8
VERMASSUNG
100
AcDbLine
 10
160.698833579
 20
45.5180693465
 30
0.0
 11
159.9917267978
 21
46.2251761277
 31
0.0
  0
LINE
  5
263
330
25C
100
AcDbEntity
  8
VERMASSUNG
100
AcDbLine
 10
196.0541726384
 20
80.8734084058
 30
0.0
 11
200.2968133255
 21
85.116049093
 31
0.0
  0
LINE
  5
264
330
25C
100
AcDbEntity
  8
VERMASSUNG
100
AcDbLine
 10
196.0541726384
 20
80.8734084058
 30
0.0
 11
160.698833579
 21
45.5180693465
 31
0.0
  0
LINE
  5
265
330
25C
100
AcDbEntity
  8
VERMASSUNG
100
AcDbLine
 10
160.698833579
 20
45.5180693465
 30
0.0
 11
146.3219523574
 21
31.1411881249
 31
0.0
  0
MTEXT
  5
266
330
25C
100
AcDbEntity
  8
VERMASSUNG
100
AcDbMText
 10
144.498935277
 20
32.9642052053
 30
0.1
 40
2.0
 41
0.0
 71
     1
 72
     1
  1
%%c
  7
SLDTEXTSTYLE0
 11
0.7071067811865454
 21
0.7071067811865497
 31
0.0
 73
     1
 44
1.0
  0
MTEXT
  5
267
330
25C
100
AcDbEntity
  8
VERMASSUNG
100
AcDbMText
 10
146.9101694042
 20
35.6582820584
 30
0.1
 40
2.0
 41
0.0
 71
     1
 72
     1
  1
50
  7
SLDTEXTSTYLE0
 11
0.7071067811865454
 21
0.7071067811865497
 31
0.0
 73
     1
 44
1.0
  0
MTEXT
  5
268
330
25C
100
AcDbEntity
  8
VERMASSUNG
100
AcDbMText
 10
151.0025503018
 20
39.750662956
 30
0.1
 40
2.0
 41
0.0
 71
     1
 72
     1
  1
min.
  7
SLDTEXTSTYLE0
 11
0.7071067811865454
 21
0.7071067811865497
 31
0.0
 73
     1
 44
1.0
  0
ENDBLK
  5
25E
330
25C
100
AcDbEntity
  8
0
100
AcDbBlockEnd
  0
BLOCK
  5
26C
330
26B
100
AcDbEntity
  8
0
100
AcDbBlockBegin
  2
_D_7
 70
     0
 10
0.0
 20
0.0
 30
0.0
  3
_D_7
  1

  0
ARC
  5
26E
330
26B
100
AcDbEntity
  8
VERMASSUNG
100
AcDbCircle
 10
178.3765031087
 20
38.1957388762
 30
0.0
 40
65.4784463036792
100
AcDbArc
 50
90.0
 51
98.0
  0
ARC
  5
26F
330
26B
100
AcDbEntity
  8
VERMASSUNG
100
AcDbCircle
 10
178.3765031087
 20
38.1957388762
 30
0.0
 40
65.47844630367922
100
AcDbArc
 50
84.7548486824
 51
90.0
  0
ARC
  5
270
330
26B
100
AcDbEntity
  8
VERMASSUNG
100
AcDbCircle
 10
178.3765031087
 20
38.1957388762
 30
0.0
 40
65.4784463036792
100
AcDbArc
 50
98.0
 51
103.2451513176
  0
SOLID
  5
271
330
26B
100
AcDbEntity
  8
VERMASSUNG
100
AcDbTrace
 10
178.3765031087
 20
103.6741851799
 30
0.0
 11
181.3654164256
 21
103.1556322086
 31
0.0
 12
181.3860176893
 22
104.0553963932
 32
0.0
 13
181.3860176893
 23
104.0553963932
 33
0.0
  0
SOLID
  5
272
330
26B
100
AcDbEntity
  8
VERMASSUNG
100
AcDbTrace
 10
169.2636646906
 20
103.0369534415
 30
0.0
 11
166.2303841523
 21
102.995611257
 31
0.0
 12
166.3760078976
 22
102.1074706573
 32
0.0
 13
166.3760078976
 23
102.1074706573
 33
0.0
  0
LINE
  5
273
330
26B
100
AcDbEntity
  8
VERMASSUNG
100
AcDbLine
 10
178.3765031087
 20
99.1538094774
 30
0.0
 11
178.3765031087
 21
104.6741851799
 31
0.0
  0
LINE
  5
274
330
26B
100
AcDbEntity
  8
VERMASSUNG
100
AcDbLine
 10
170.4561720269
 20
94.5518228465
 30
0.0
 11
169.1244915896
 21
104.0272215103
 31
0.0
  0
MTEXT
  5
275
330
26B
100
AcDbEntity
  8
VERMASSUNG
100
AcDbMText
 10
171.4344748256
 20
105.9330738729
 30
0.1
 40
2.0
 41
0.0
 71
     1
 72
     1
  1
8°
  7
SLDTEXTSTYLE0
 11
0.9975640502598235
 21
0.06975647374413559
 31
0.0
 73
     1
 44
1.0
  0
ENDBLK
  5
26D
330
26B
100
AcDbEntity
  8
0
100
AcDbBlockEnd
  0
BLOCK
  5
277
330
276
100
AcDbEntity
  8
0
100
AcDbBlockBegin
  2
SW_CENTERMARKSYMBOL_0
 70
     0
 10
0.0
 20
0.0
 30
0.0
  3
SW_CENTERMARKSYMBOL_0
  1

  0
LINE
  5
279
330
276
100
AcDbEntity
  8
VERMASSUNG
 62
     0
100
AcDbLine
 10
0.0
 20
0.0
 30
0.0
 11
0.0
 21
2.5
 31
0.0
  0
LINE
  5
27A
330
276
100
AcDbEntity
  8
VERMASSUNG
 62
     0
100
AcDbLine
 10
0.0
 20
0.0
 30
0.0
 11
-2.5
 21
0.0
 31
0.0
  0
LINE
  5
27B
330
276
100
AcDbEntity
  8
VERMASSUNG
 62
     0
100
AcDbLine
 10
0.0
 20
0.0
 30
0.0
 11
0.0
 21
-2.5
 31
0.0
  0
LINE
  5
27C
330
276
100
AcDbEntity
  8
VERMASSUNG
 62
     0
100
AcDbLine
 10
0.0
 20
0.0
 30
0.0
 11
2.5
 21
0.0
 31
0.0
  0
LINE
  5
27D
330
276
100
AcDbEntity
  8
VERMASSUNG
 62
     0
100
AcDbLine
 10
0.0
 20
5.0
 30
0.0
 11
0.0
 21
34.0
 31
0.0
  0
LINE
  5
27E
330
276
100
AcDbEntity
  8
VERMASSUNG
 62
     0
100
AcDbLine
 10
-5.0
 20
0.0
 30
0.0
 11
-34.0
 21
0.0
 31
0.0
  0
LINE
  5
27F
330
276
100
AcDbEntity
  8
VERMASSUNG
 62
     0
100
AcDbLine
 10
0.0
 20
-5.0
 30
0.0
 11
0.0
 21
-34.0
 31
0.0
  0
LINE
  5
280
330
276
100
AcDbEntity
  8
VERMASSUNG
 62
     0
100
AcDbLine
 10
5.0
 20
0.0
 30
0.0
 11
34.0
 21
0.0
 31
0.0
  0
ENDBLK
  5
278
330
276
100
AcDbEntity
  8
0
100
AcDbBlockEnd
  0
ENDSEC
  0
SECTION
  2
ENTITIES
  0
MTEXT
  5
49
330
1F
100
AcDbEntity
  8
KOPF_DÜNN
100
AcDbMText
 10
13.8892156294
 20
23.8442973028
 30
0.0
 40
3.0
 41
0.0
 71
     1
 72
     1
  1
PS6.PCD.LLC.180
  7
SLDTEXTSTYLE0
 73
     1
 44
1.0
  0
MTEXT
  5
4A
330
1F
100
AcDbEntity
  8
VERMASSUNG
100
AcDbMText
 10
13.9329988022
 20
28.8834360957
 30
0.0
 40
3.0
 41
0.0
 71
     1
 72
     1
  1
Bohrstange links_Boring bar left
  7
SLDTEXTSTYLE0
 73
     1
 44
1.0
  0
MTEXT
  5
4B
330
1F
100
AcDbEntity
  8
VERMASSUNG
100
AcDbMText
 10
98.8601118557
 20
13.8365368179
 30
0.0
 40
2.0
 41
0.0
 71
     1
 72
     1
  1
Datum: 06.06.2012
  7
SLDTEXTSTYLE0
 73
     1
 44
1.0
  0
MTEXT
  5
4C
330
1F
100
AcDbEntity
  8
VERMASSUNG
100
AcDbMText
 10
13.933048693
 20
18.0482802738
 30
0.0
 40
2.0
 41
0.0
 71
     1
 72
     1
  1
PSC ø63 / Wp.: CN..12 04..
  7
SLDTEXTSTYLE0
 73
     1
 44
1.0
  0
MTEXT
  5
4D
330
1F
100
AcDbEntity
  8
VERMASSUNG
100
AcDbMText
 10
13.9808475933
 20
13.9090973692
 30
0.0
 40
2.0
 41
0.0
 71
     1
 72
     1
  1
Gewicht: 2108g
  7
SLDTEXTSTYLE0
 73
     1
 44
1.0
  0
LINE
  5
4E
330
1F
100
AcDbEntity
  8
0
  6
Continuous
 62
     7
370
    15
100
AcDbLine
 10
79.2498559831
 20
131.3142876866
 30
0.0
 11
99.7498556762
 21
131.3142876866
 31
0.0
  0
LINE
  5
4F
330
1F
100
AcDbEntity
  8
0
  6
Continuous
 62
     7
370
    15
100
AcDbLine
 10
99.7498556762
 20
194.3142886998
 30
0.0
 11
79.2498559831
 21
194.3142886998
 31
0.0
  0
ARC
  5
50
330
1F
100
AcDbEntity
  8
0
  6
Continuous
 62
     7
370
    15
100
AcDbCircle
 10
99.7498559593
 20
132.3142881932
 30
0.0
 40
1.0
100
AcDbArc
 50
270.0
 51
0.0
  0
ARC
  5
51
330
1F
100
AcDbEntity
  8
0
  6
Continuous
 62
     7
370
    15
100
AcDbCircle
 10
99.7498559593
 20
193.3142881932
 30
0.0
 40
1.0
100
AcDbArc
 50
0.0
 51
90.0
  0
ARC
  5
52
330
1F
100
AcDbEntity
  8
0
  6
Continuous
 62
     7
370
    15
100
AcDbCircle
 10
79.2498559593
 20
131.8142881932
 30
0.0
 40
0.5
100
AcDbArc
 50
180.0
 51
270.0
  0
ARC
  5
53
330
1F
100
AcDbEntity
  8
0
  6
Continuous
 62
     7
370
    15
100
AcDbCircle
 10
79.2498559593
 20
193.8142881932
 30
0.0
 40
0.5
100
AcDbArc
 50
90.0
 51
180.0
  0
LWPOLYLINE
  5
54
330
1F
100
AcDbEntity
  8
0
  6
Continuous
 62
     7
370
    15
100
AcDbPolyline
 90
        3
 70
   128
 43
0.0
 10
78.5498559644
 20
140.2744676711
 10
78.6753108996
 20
140.2061663361
 10
78.7498559593
 20
140.1534274014
  0
LWPOLYLINE
  5
55
330
1F
100
AcDbEntity
  8
0
  6
Continuous
 62
     7
370
    15
100
AcDbPolyline
 90
        3
 70
   128
 43
0.0
 10
78.7498559593
 20
185.475148985
 10
78.6753108996
 20
185.4224100502
 10
78.5498559644
 20
185.3541087153
  0
ARC
  5
56
330
1F
100
AcDbEntity
  8
0
  6
Continuous
 62
     7
370
    15
100
AcDbCircle
 10
104.7498559593
 20
138.8142881932
 30
0.0
 40
4.0
100
AcDbArc
 50
90.0
 51
180.0
  0
ARC
  5
57
330
1F
100
AcDbEntity
  8
0
  6
Continuous
 62
     7
370
    15
100
AcDbCircle
 10
104.7498559593
 20
186.8142881932
 30
0.0
 40
4.0
100
AcDbArc
 50
180.0
 51
270.0
  0
LINE
  5
58
330
1F
100
AcDbEntity
  8
0
  6
Continuous
 62
     7
370
    15
100
AcDbLine
 10
104.7498564958
 20
142.8142886402
 30
0.0
 11
232.3356475471
 21
142.8142886402
 31
0.0
  0
LINE
  5
59
330
1F
100
AcDbEntity
  8
0
  6
Continuous
 62
     7
370
    15
100
AcDbLine
 10
232.3356475471
 20
182.8142877462
 30
0.0
 11
104.7498564958
 21
182.8142877462
 31
0.0
  0
ARC
  5
5A
330
1F
100
AcDbEntity
  8
0
  6
Continuous
 62
     7
370
    15
100
AcDbCircle
 10
232.3356423969
 20
141.8142881932
 30
0.0
 40
1.0
100
AcDbArc
 50
45.0
 51
90.0
  0
ARC
  5
5B
330
1F
100
AcDbEntity
  8
0
  6
Continuous
 62
     7
370
    15
100
AcDbCircle
 10
232.3356423969
 20
183.8142881932
 30
0.0
 40
1.0
100
AcDbArc
 50
270.0
 51
315.0
  0
LINE
  5
5C
330
1F
100
AcDbEntity
  8
0
  6
Continuous
 62
     7
370
    15
100
AcDbLine
 10
233.2498486876
 20
183.3142887594
 30
0.0
 11
233.0427523493
 21
183.1071812453
 31
0.0
  0
LINE
  5
5D
330
1F
100
AcDbEntity
  8
0
  6
Continuous
 62
     7
370
    15
100
AcDbLine
 10
233.0427523493
 20
142.5213951411
 30
0.0
 11
237.2253443836
 21
138.3387993815
 31
0.0
  0
LINE
  5
5E
330
1F
100
AcDbEntity
  8
0
  6
Continuous
 62
     7
370
    15
100
AcDbLine
 10
237.6105990051
 20
183.3142887594
 30
0.0
 11
233.2498486876
 21
183.3142887594
 31
0.0
  0
LINE
  5
5F
330
1F
100
AcDbEntity
  8
0
  6
Continuous
 62
     7
370
    15
100
AcDbLine
 10
237.4378647446
 20
138.2071979137
 30
0.0
 11
239.8667987226
 21
137.9519074949
 31
0.0
  0
LINE
  5
60
330
1F
100
AcDbEntity
  8
0
  6
Continuous
 62
     7
370
    15
100
AcDbLine
 10
257.6238568663
 20
148.3566256033
 30
0.0
 11
257.126307094
 21
149.0154599564
 31
0.0
  0
LINE
  5
61
330
1F
100
AcDbEntity
  8
0
  6
Continuous
 62
     7
370
    15
100
AcDbLine
 10
245.6730361818
 20
137.3511411043
 30
0.0
 11
246.0611965298
 21
136.8371628018
 31
0.0
  0
LINE
  5
62
330
1F
100
AcDbEntity
  8
0
  6
Continuous
 62
     7
370
    15
100
AcDbLine
 10
249.2810543417
 20
142.4099344554
 30
0.0
 11
249.8898561834
 21
141.7786616625
 31
0.0
  0
SPLINE
  5
63
330
1F
100
AcDbEntity
  8
0
  6
Continuous
 62
     7
370
    15
100
AcDbSpline
210
0.0
220
0.0
230
1.0
 70
     8
 71
     3
 72
    12
 73
     8
 74
     0
 42
0.00000001
 43
0.00000001
 12
1.0
 22
0.0
 32
0.0
 13
1.0
 23
0.0
 33
0.0
 40
0.0
 40
0.0
 40
0.0
 40
0.0
 40
0.2499999999999986
 40
0.2499999999999986
 40
0.4999999999999972
 40
0.4999999999999972
 40
1.0
 40
1.0
 40
1.0
 40
1.0
 10
89.2776127728862
 20
172.2023546245303
 30
0.0
 10
89.21453273439283
 20
172.2023546245303
 30
0.0
 10
89.15538411221138
 20
172.2277189437451
 30
0.0
 10
89.05691156214232
 20
172.301883804118
 30
0.0
 10
89.01787495015759
 20
172.3484041446722
 30
0.0
 10
88.91797848337855
 20
172.4985464875175
 30
0.0
 10
88.87555760231193
 20
172.6102396944896
 30
0.0
 10
88.84460007099396
 20
172.7236575138794
 30
0.0
  0
LINE
  5
64
330
1F
100
AcDbEntity
  8
0
  6
Continuous
 62
     7
370
    15
100
AcDbLine
 10
92.2220991715
 20
172.2023550214
 30
0.0
 11
89.2776129558
 21
172.2023550214
 31
0.0
  0
SPLINE
  5
65
330
1F
100
AcDbEntity
  8
0
  6
Continuous
 62
     7
370
    15
100
AcDbSpline
210
0.0
220
0.0
230
1.0
 70
     8
 71
     3
 72
    12
 73
     8
 74
     0
 42
0.00000001
 43
0.00000001
 12
1.0
 22
0.0
 32
0.0
 13
1.0
 23
0.0
 33
0.0
 40
0.0
 40
0.0
 40
0.0
 40
0.0
 40
0.500000000000001
 40
0.500000000000001
 40
0.7500000000000004
 40
0.7500000000000004
 40
1.0
 40
1.0
 40
1.0
 40
1.0
 10
92.65511184764554
 20
172.7236575138794
 30
0.0
 10
92.62438960572646
 20
172.6111017144702
 30
0.0
 10
92.58155239119131
 20
172.4983438547306
 30
0.0
 10
92.48212536699153
 20
172.3488029689343
 30
0.0
 10
92.44237317217485
 20
172.3015102372274
 30
0.0
 10
92.34433171531663
 20
172.2277739439059
 30
0.0
 10
92.28477565972914
 20
172.2023546245302
 30
0.0
 10
92.22209914575332
 20
172.2023546245303
 30
0.0
  0
ELLIPSE
  5
66
330
1F
100
AcDbEntity
  8
0
  6
Continuous
 62
     7
370
    15
100
AcDbEllipse
 10
76.40270177
 20
162.8142881932
 30
0.0
 11
14.75368316065602
 21
31.09325491558116
 31
0.0
210
0.0
220
0.0
230
1.0
 40
0.3419987131
 41
5.193281737408617
 42
6.12404310455232
  0
SPLINE
  5
67
330
1F
100
AcDbEntity
  8
0
  6
Continuous
 62
     7
370
    15
100
AcDbSpline
210
0.0
220
0.0
230
1.0
 70
     8
 71
     3
 72
    12
 73
     8
 74
     0
 42
0.00000001
 43
0.00000001
 12
1.0
 22
0.0
 32
0.0
 13
1.0
 23
0.0
 33
0.0
 40
0.0
 40
0.0
 40
0.0
 40
0.0
 40
0.2500000000000023
 40
0.2500000000000023
 40
0.5000000000000046
 40
0.5000000000000046
 40
1.0
 40
1.0
 40
1.0
 40
1.0
 10
92.22209914575333
 20
192.8827801520674
 30
0.0
 10
92.2851791842467
 20
192.8827801520674
 30
0.0
 10
92.34432780642813
 20
192.874874225855
 30
0.0
 10
92.44280035649719
 20
192.8515490644187
 30
0.0
 10
92.48183696848193
 20
192.8368362745871
 30
0.0
 10
92.58173343526094
 20
192.7888804738561
 30
0.0
 10
92.62415431632759
 20
192.752618317276
 30
0.0
 10
92.65511184764554
 20
192.7150306533115
 30
0.0
  0
LINE
  5
68
330
1F
100
AcDbEntity
  8
0
  6
Continuous
 62
     7
370
    15
100
AcDbLine
 10
89.2776129558
 20
192.8827807101
 30
0.0
 11
92.2220991715
 21
192.8827807101
 31
0.0
  0
SPLINE
  5
69
330
1F
100
AcDbEntity
  8
0
  6
Continuous
 62
     7
370
    15
100
AcDbSpline
210
0.0
220
0.0
230
1.0
 70
     8
 71
     3
 72
    12
 73
     8
 74
     0
 42
0.00000001
 43
0.00000001
 12
1.0
 22
0.0
 32
0.0
 13
1.0
 23
0.0
 33
0.0
 40
0.0
 40
0.0
 40
0.0
 40
0.0
 40
0.4999999999999971
 40
0.4999999999999971
 40
0.7499999999999986
 40
0.7499999999999986
 40
1.0
 40
1.0
 40
1.0
 40
1.0
 10
88.84460007099396
 20
192.7150306533116
 30
0.0
 10
88.87532231291304
 20
192.7523326362646
 30
0.0
 10
88.9181595274482
 20
192.788944468311
 30
0.0
 10
89.01758655164797
 20
192.8367092515962
 30
0.0
 10
89.05733874646465
 20
192.8516667670786
 30
0.0
 10
89.15538020332284
 20
192.8748567128477
 30
0.0
 10
89.21493625891038
 20
192.8827801520674
 30
0.0
 10
89.2776127728862
 20
192.8827801520674
 30
0.0
  0
ELLIPSE
  5
6A
330
1F
100
AcDbEntity
  8
0
  6
Continuous
 62
     7
370
    15
100
AcDbEllipse
 10
105.0970101487
 20
162.8142881932
 30
0.0
 11
-14.75368316065605
 21
31.09325491558118
 31
0.0
210
0.0
220
0.0
230
1.0
 40
0.3419987131
 41
0.1591422026273057
 42
1.089903569770982
  0
SPLINE
  5
6B
330
1F
100
AcDbEntity
  8
0
  6
Continuous
 62
     7
370
    15
100
AcDbSpline
210
0.0
220
0.0
230
1.0
 70
     8
 71
     3
 72
    12
 73
     8
 74
     0
 42
0.00000001
 43
0.00000001
 12
1.0
 22
0.0
 32
0.0
 13
1.0
 23
0.0
 33
0.0
 40
0.0
 40
0.0
 40
0.0
 40
0.0
 40
0.2499999999999986
 40
0.2499999999999986
 40
0.4999999999999972
 40
0.4999999999999972
 40
1.0
 40
1.0
 40
1.0
 40
1.0
 10
89.27761277288623
 20
132.7457962343213
 30
0.0
 10
89.2145558179884
 20
132.7457962343213
 30
0.0
 10
89.15542566824277
 20
132.7536965654008
 30
0.0
 10
89.05697811770949
 20
132.7770073134058
 30
0.0
 10
89.0179458795214
 20
132.7917124396895
 30
0.0
 10
88.91805599506445
 20
132.8396459678762
 30
0.0
 10
88.8757570214552
 20
132.8757159406409
 30
0.0
 10
88.84460007099396
 20
132.9135457330771
 30
0.0
  0
LINE
  5
6C
330
1F
100
AcDbEntity
  8
0
  6
Continuous
 62
     7
370
    15
100
AcDbLine
 10
92.2220991715
 20
132.7457956763
 30
0.0
 11
89.2776129558
 21
132.7457956763
 31
0.0
  0
SPLINE
  5
6D
330
1F
100
AcDbEntity
  8
0
  6
Continuous
 62
     7
370
    15
100
AcDbSpline
210
0.0
220
0.0
230
1.0
 70
     8
 71
     3
 72
    12
 73
     8
 74
     0
 42
0.00000001
 43
0.00000001
 12
1.0
 22
0.0
 32
0.0
 13
1.0
 23
0.0
 33
0.0
 40
0.0
 40
0.0
 40
0.0
 40
0.0
 40
0.5000000000000001
 40
0.5000000000000001
 40
0.75
 40
0.75
 40
1.0
 40
1.0
 40
1.0
 40
1.0
 10
92.65511184764554
 20
132.9135457330771
 30
0.0
 10
92.62396664968344
 20
132.8757302101569
 30
0.0
 10
92.58169238334906
 20
132.8396633520733
 30
0.0
 10
92.48174684952377
 20
132.7917032870621
 30
0.0
 10
92.44201654481971
 20
132.7768423131644
 30
0.0
 10
92.34512849481352
 20
132.7538911670332
 30
0.0
 10
92.2850632530669
 20
132.7457962343212
 30
0.0
 10
92.22209914575335
 20
132.7457962343213
 30
0.0
  0
ELLIPSE
  5
6E
330
1F
100
AcDbEntity
  8
0
  6
Continuous
 62
     7
370
    15
100
AcDbEllipse
 10
76.40270177
 20
162.8142881932
 30
0.0
 11
-14.75368316065616
 21
31.09325491558118
 31
0.0
210
0.0
220
0.0
230
1.0
 40
0.3419987131
 41
3.300734856217128
 42
4.231496223360773
  0
SPLINE
  5
6F
330
1F
100
AcDbEntity
  8
0
  6
Continuous
 62
     7
370
    15
100
AcDbSpline
210
0.0
220
0.0
230
1.0
 70
     8
 71
     3
 72
    12
 73
     8
 74
     0
 42
0.00000001
 43
0.00000001
 12
1.0
 22
0.0
 32
0.0
 13
1.0
 23
0.0
 33
0.0
 40
0.0
 40
0.0
 40
0.0
 40
0.0
 40
0.2499999999999977
 40
0.2499999999999977
 40
0.4999999999999953
 40
0.4999999999999953
 40
1.0
 40
1.0
 40
1.0
 40
1.0
 10
92.22209914575333
 20
153.4262217618581
 30
0.0
 10
92.28515610065114
 20
153.4262217618581
 30
0.0
 10
92.34428625039673
 20
153.4008754084775
 30
0.0
 10
92.44273380093001
 20
153.326756026338
 30
0.0
 10
92.48176603911811
 20
153.28025951164
 30
0.0
 10
92.58165592357506
 20
153.1301850046314
 30
0.0
 10
92.62395489718433
 20
153.0190672955165
 30
0.0
 10
92.6551118476456
 20
152.904918872509
 30
0.0
  0
LINE
  5
70
330
1F
100
AcDbEntity
  8
0
  6
Continuous
 62
     7
370
    15
100
AcDbLine
 10
89.2776129558
 20
153.4262213649
 30
0.0
 11
92.2220991715
 21
153.4262213649
 31
0.0
  0
SPLINE
  5
71
330
1F
100
AcDbEntity
  8
0
  6
Continuous
 62
     7
370
    15
100
AcDbSpline
210
0.0
220
0.0
230
1.0
 70
     8
 71
     3
 72
    12
 73
     8
 74
     0
 42
0.00000001
 43
0.00000001
 12
1.0
 22
0.0
 32
0.0
 13
1.0
 23
0.0
 33
0.0
 40
0.0
 40
0.0
 40
0.0
 40
0.0
 40
0.5000000000000019
 40
0.5000000000000019
 40
0.7500000000000009
 40
0.7500000000000009
 40
1.0
 40
1.0
 40
1.0
 40
1.0
 10
88.844600070994
 20
152.904918872509
 30
0.0
 10
88.87574526895611
 20
153.0190242383743
 30
0.0
 10
88.91801953529055
 20
153.1301305655931
 30
0.0
 10
89.0179650691158
 20
153.2802881730234
 30
0.0
 10
89.05769537381985
 20
153.3272808646407
 30
0.0
 10
89.15458342382607
 20
153.4002564491793
 30
0.0
 10
89.21464866557267
 20
153.4262217618582
 30
0.0
 10
89.27761277288621
 20
153.4262217618582
 30
0.0
  0
ELLIPSE
  5
72
330
1F
100
AcDbEntity
  8
0
  6
Continuous
 62
     7
370
    15
100
AcDbEllipse
 10
105.0970101487
 20
162.8142881932
 30
0.0
 11
14.75368316065619
 21
31.09325491558115
 31
0.0
210
0.0
220
0.0
230
1.0
 40
0.3419987131
 41
2.051689083818828
 42
2.982450450962506
  0
LINE
  5
73
330
1F
100
AcDbEntity
  8
0
  6
Continuous
 62
     7
370
    15
100
AcDbLine
 10
100.7498558401
 20
193.3142885359
 30
0.0
 11
100.7498558401
 21
132.3142878505
 31
0.0
  0
LINE
  5
74
330
1F
100
AcDbEntity
  8
0
  6
Continuous
 62
     7
370
    15
100
AcDbLine
 10
78.7498559593
 20
131.8142886998
 30
0.0
 11
78.7498559593
 21
193.8142876866
 31
0.0
  0
SPLINE
  5
75
330
1F
100
AcDbEntity
  8
0
  6
Continuous
 62
     7
370
    15
100
AcDbSpline
210
0.0
220
0.0
230
1.0
 70
     8
 71
     3
 72
    12
 73
     8
 74
     0
 42
0.00000001
 43
0.00000001
 12
1.0
 22
0.0
 32
0.0
 13
1.0
 23
0.0
 33
0.0
 40
0.0
 40
0.0
 40
0.0
 40
0.0
 40
0.4999999999999994
 40
0.4999999999999994
 40
0.7499999999999996
 40
0.7499999999999996
 40
1.0
 40
1.0
 40
1.0
 40
1.0
 10
77.93334367286332
 20
140.9594944907185
 30
0.0
 10
77.9897801737705
 20
140.9580766093768
 30
0.0
 10
78.05886480445922
 20
140.9565122731285
 30
0.0
 10
78.17766707617717
 20
140.953568081154
 30
0.0
 10
78.21785235164724
 20
140.9525298780567
 30
0.0
 10
78.29123339905104
 20
140.950595982842
 30
0.0
 10
78.3246429627937
 20
140.9497010955532
 30
0.0
 10
78.35487907045017
 20
140.9489173052809
 30
0.0
  0
SPLINE
  5
76
330
1F
100
AcDbEntity
  8
0
  6
Continuous
 62
     7
370
    15
100
AcDbSpline
210
0.0
220
0.0
230
1.0
 70
     8
 71
     3
 72
    16
 73
    12
 74
     0
 42
0.00000001
 43
0.00000001
 12
1.0
 22
0.0
 32
0.0
 13
1.0
 23
0.0
 33
0.0
 40
0.0
 40
0.0
 40
0.0
 40
0.0
 40
0.0625000000000037
 40
0.0625000000000037
 40
0.1250000000000074
 40
0.1250000000000074
 40
0.2500000000000098
 40
0.2500000000000098
 40
0.5000000000000063
 40
0.5000000000000063
 40
1.0
 40
1.0
 40
1.0
 40
1.0
 10
78.35487907041295
 20
140.9489173053051
 30
0.0
 10
78.3664594780009
 20
140.9486171141938
 30
0.0
 10
78.37976900476212
 20
140.9472893659348
 30
0.0
 10
78.40907043484827
 20
140.9405906911598
 30
0.0
 10
78.42388453473255
 20
140.9352325080541
 30
0.0
 10
78.45971293643542
 20
140.9181868588867
 30
0.0
 10
78.47383256079847
 20
140.906724321111
 30
0.0
 10
78.50833670488697
 20
140.8751609957388
 30
0.0
 10
78.51944125559157
 20
140.8572636966935
 30
0.0
 10
78.54561743280777
 20
140.8071022790793
 30
0.0
 10
78.5498559593198
 20
140.7793578668827
 30
0.0
 10
78.5498559593198
 20
140.7546937049531
 30
0.0
  0
LINE
  5
77
330
1F
100
AcDbEntity
  8
0
  6
Continuous
 62
     7
370
    15
100
AcDbLine
 10
78.5498559644
 20
155.7924009653
 30
0.0
 11
78.5498559644
 21
140.2744676711
 31
0.0
  0
SPLINE
  5
78
330
1F
100
AcDbEntity
  8
0
  6
Continuous
 62
     7
370
    15
100
AcDbSpline
210
0.0
220
0.0
230
1.0
 70
     8
 71
     3
 72
    16
 73
    12
 74
     0
 42
0.00000001
 43
0.00000001
 12
1.0
 22
0.0
 32
0.0
 13
1.0
 23
0.0
 33
0.0
 40
0.0
 40
0.0
 40
0.0
 40
0.0
 40
0.5000000000000007
 40
0.5000000000000007
 40
0.7500000000000028
 40
0.7500000000000028
 40
0.875000000000003
 40
0.875000000000003
 40
0.9375000000000014
 40
0.9375000000000014
 40
1.0
 40
1.0
 40
1.0
 40
1.0
 10
78.5498559593198
 20
155.7924008674443
 30
0.0
 10
78.5498559593198
 20
155.9060934115722
 30
0.0
 10
78.54570968424184
 20
156.0204135729217
 30
0.0
 10
78.51974408884833
 20
156.1934618634187
 30
0.0
 10
78.50828318347092
 20
156.2526373705805
 30
0.0
 10
78.47397144569655
 20
156.3357604900486
 30
0.0
 10
78.459946709767
 20
156.3638818061493
 30
0.0
 10
78.42392374673314
 20
156.3924976201267
 30
0.0
 10
78.4091692376435
 20
156.3982906680285
 30
0.0
 10
78.37981707649662
 20
156.3966972420915
 30
0.0
 10
78.36647720199251
 20
156.3902008387677
 30
0.0
 10
78.35487907044414
 20
156.3816850925646
 30
0.0
  0
SPLINE
  5
79
330
1F
100
AcDbEntity
  8
0
  6
Continuous
 62
     7
370
    15
100
AcDbSpline
210
0.0
220
0.0
230
1.0
 70
     8
 71
     3
 72
    12
 73
     8
 74
     0
 42
0.00000001
 43
0.00000001
 12
1.0
 22
0.0
 32
0.0
 13
1.0
 23
0.0
 33
0.0
 40
0.0
 40
0.0
 40
0.0
 40
0.0
 40
0.2499999999999998
 40
0.2499999999999998
 40
0.4999999999999998
 40
0.4999999999999998
 40
1.0
 40
1.0
 40
1.0
 40
1.0
 10
78.35487907045122
 20
156.3816850925554
 30
0.0
 10
78.3246806290106
 20
156.3595123605104
 30
0.0
 10
78.29131327367462
 20
156.3404327046331
 30
0.0
 10
78.21815799784471
 20
156.3152596601904
 30
0.0
 10
78.17790529882075
 20
156.3097031237737
 30
0.0
 10
78.06017655554591
 20
156.3206149347604
 30
0.0
 10
77.98971810748696
 20
156.3625506901712
 30
0.0
 10
77.93334367286869
 20
156.4117624725528
 30
0.0
  0
SPLINE
  5
7A
330
1F
100
AcDbEntity
  8
0
  6
Continuous
 62
     7
370
    15
100
AcDbSpline
210
0.0
220
0.0
230
1.0
 70
     8
 71
     3
 72
    12
 73
     8
 74
     0
 42
0.00000001
 43
0.00000001
 12
1.0
 22
0.0
 32
0.0
 13
1.0
 23
0.0
 33
0.0
 40
0.0
 40
0.0
 40
0.0
 40
0.0
 40
0.4999999999999993
 40
0.4999999999999993
 40
0.7499999999999997
 40
0.7499999999999997
 40
1.0
 40
1.0
 40
1.0
 40
1.0
 10
77.42853561576015
 20
157.6281138644334
 30
0.0
 10
77.47228596764462
 20
157.4076668794588
 30
0.0
 10
77.5251761187691
 20
157.1921218896533
 30
0.0
 10
77.63678766191077
 20
156.8797078130813
 30
0.0
 10
77.67934700581432
 20
156.7776283374654
 30
0.0
 10
77.78432424115175
 20
156.5831883248237
 30
0.0
 10
77.84589148424634
 20
156.48810342576
 30
0.0
 10
77.93334367286872
 20
156.4117624725528
 30
0.0
  0
SPLINE
  5
7B
330
1F
100
AcDbEntity
  8
0
  6
Continuous
 62
     7
370
    15
100
AcDbSpline
210
0.0
220
0.0
230
1.0
 70
     8
 71
     3
 72
    12
 73
     8
 74
     0
 42
0.00000001
 43
0.00000001
 12
1.0
 22
0.0
 32
0.0
 13
1.0
 23
0.0
 33
0.0
 40
0.0
 40
0.0
 40
0.0
 40
0.0
 40
0.2500000000000004
 40
0.2500000000000004
 40
0.5000000000000008
 40
0.5000000000000008
 40
1.0
 40
1.0
 40
1.0
 40
1.0
 10
77.93334367286859
 20
169.2168139138359
 30
0.0
 10
77.8448502653007
 20
169.1395640337277
 30
0.0
 10
77.78479222453483
 20
169.0462447098384
 30
0.0
 10
77.67894395155226
 20
168.850211656869
 30
0.0
 10
77.63641043027478
 20
168.7478852986572
 30
0.0
 10
77.52525912345114
 20
168.4365408928813
 30
0.0
 10
77.47232826640335
 20
168.2211226397033
 30
0.0
 10
77.42853561576014
 20
168.0004625219554
 30
0.0
  0
SPLINE
  5
7C
330
1F
100
AcDbEntity
  8
0
  6
Continuous
 62
     7
370
    15
100
AcDbSpline
210
0.0
220
0.0
230
1.0
 70
     8
 71
     3
 72
    12
 73
     8
 74
     0
 42
0.00000001
 43
0.00000001
 12
1.0
 22
0.0
 32
0.0
 13
1.0
 23
0.0
 33
0.0
 40
0.0
 40
0.0
 40
0.0
 40
0.0
 40
0.5
 40
0.5
 40
0.75
 40
0.75
 40
1.0
 40
1.0
 40
1.0
 40
1.0
 10
77.93334367286856
 20
169.216813913836
 30
0.0
 10
77.98965222116418
 20
169.2659681810798
 30
0.0
 10
78.05992688188235
 20
169.3079254996836
 30
0.0
 10
78.17796479620586
 20
169.318885177216
 30
0.0
 10
78.21814103705981
 20
169.3133764189687
 30
0.0
 10
78.29209813173773
 20
169.2878191901797
 30
0.0
 10
78.3247145194492
 20
169.2690391423404
 30
0.0
 10
78.35487907044495
 20
169.2468912938237
 30
0.0
  0
SPLINE
  5
7D
330
1F
100
AcDbEntity
  8
0
  6
Continuous
 62
     7
370
    15
100
AcDbSpline
210
0.0
220
0.0
230
1.0
 70
     8
 71
     3
 72
    16
 73
    12
 74
     0
 42
0.00000001
 43
0.00000001
 12
1.0
 22
0.0
 32
0.0
 13
1.0
 23
0.0
 33
0.0
 40
0.0
 40
0.0
 40
0.0
 40
0.0
 40
0.0624999999999984
 40
0.0624999999999984
 40
0.1249999999999968
 40
0.1249999999999968
 40
0.2499999999999958
 40
0.2499999999999958
 40
0.4999999999999972
 40
0.4999999999999972
 40
1.0
 40
1.0
 40
1.0
 40
1.0
 10
78.3548790704132
 20
169.2468912937692
 30
0.0
 10
78.36649197025257
 20
169.2383647041739
 30
0.0
 10
78.37984315468505
 20
169.2318644426412
 30
0.0
 10
78.40924299430422
 20
169.2302950455236
 30
0.0
 10
78.42408371885945
 20
169.2361784361542
 30
0.0
 10
78.45991692682804
 20
169.2647260722048
 30
0.0
 10
78.47403013464962
 20
169.2928930915105
 30
0.0
 10
78.50852150586852
 20
169.3766473499325
 30
0.0
 10
78.5196055769789
 20
169.4343607635539
 30
0.0
 10
78.5457283947749
 20
169.6079513001997
 30
0.0
 10
78.54985595931977
 20
169.7229793528417
 30
0.0
 10
78.54985595931979
 20
169.8361755189445
 30
0.0
  0
LINE
  5
7E
330
1F
100
AcDbEntity
  8
0
  6
Continuous
 62
     7
370
    15
100
AcDbLine
 10
78.5498559644
 20
185.3541087153
 30
0.0
 11
78.5498559644
 21
169.8361754211
 31
0.0
  0
SPLINE
  5
7F
330
1F
100
AcDbEntity
  8
0
  6
Continuous
 62
     7
370
    15
100
AcDbSpline
210
0.0
220
0.0
230
1.0
 70
     8
 71
     3
 72
    16
 73
    12
 74
     0
 42
0.00000001
 43
0.00000001
 12
1.0
 22
0.0
 32
0.0
 13
1.0
 23
0.0
 33
0.0
 40
0.0
 40
0.0
 40
0.0
 40
0.0
 40
0.5000000000000009
 40
0.5000000000000009
 40
0.7499999999999993
 40
0.7499999999999993
 40
0.874999999999997
 40
0.874999999999997
 40
0.9374999999999986
 40
0.9374999999999986
 40
1.0
 40
1.0
 40
1.0
 40
1.0
 10
78.54985595931977
 20
184.8738826814357
 30
0.0
 10
78.54985595931977
 20
184.8492115253927
 30
0.0
 10
78.5456902608598
 20
184.8216296940015
 30
0.0
 10
78.51943193253484
 20
184.7712868231782
 30
0.0
 10
78.50792815079724
 20
184.7529973251163
 30
0.0
 10
78.4737973914507
 20
184.7218422940792
 30
0.0
 10
78.45937550477994
 20
184.7102029188675
 30
0.0
 10
78.42380853634216
 20
184.6933208929364
 30
0.0
 10
78.40885676804754
 20
184.6879317891288
 30
0.0
 10
78.37985294968777
 20
184.6813112931843
 30
0.0
 10
78.36643759567855
 20
184.6799587049778
 30
0.0
 10
78.35487907044198
 20
184.6796590811063
 30
0.0
  0
SPLINE
  5
80
330
1F
100
AcDbEntity
  8
0
  6
Continuous
 62
     7
370
    15
100
AcDbSpline
210
0.0
220
0.0
230
1.0
 70
     8
 71
     3
 72
    12
 73
     8
 74
     0
 42
0.00000001
 43
0.00000001
 12
1.0
 22
0.0
 32
0.0
 13
1.0
 23
0.0
 33
0.0
 40
0.0
 40
0.0
 40
0.0
 40
0.0
 40
0.2500000000000002
 40
0.2500000000000002
 40
0.5000000000000001
 40
0.5000000000000001
 40
1.0
 40
1.0
 40
1.0
 40
1.0
 10
78.35487907045123
 20
184.679659081108
 30
0.0
 10
78.32469129390158
 20
184.6788765436904
 30
0.0
 10
78.29133748980985
 20
184.6779832118719
 30
0.0
 10
78.2182112866139
 20
184.6760559030683
 30
0.0
 10
78.17797608358968
 20
184.6750163718556
 30
0.0
 10
78.06028445345667
 20
184.6720984885084
 30
0.0
 10
77.98990378029657
 20
184.6705028824382
 30
0.0
 10
77.93334367286597
 20
184.6690818956703
 30
0.0
  0
SPLINE
  5
81
330
1F
100
AcDbEntity
  8
0
  6
Continuous
 62
     7
370
    15
100
AcDbSpline
210
0.0
220
0.0
230
1.0
 70
     8
 71
     3
 72
    16
 73
    12
 74
     0
 42
0.00000001
 43
0.00000001
 12
1.0
 22
0.0
 32
0.0
 13
1.0
 23
0.0
 33
0.0
 40
0.0
 40
0.0
 40
0.0
 40
0.0
 40
0.2499999999999998
 40
0.2499999999999998
 40
0.3749999999999998
 40
0.3749999999999998
 40
0.4999999999999999
 40
0.4999999999999999
 40
0.7499999999999999
 40
0.7499999999999999
 40
1.0
 40
1.0
 40
1.0
 40
1.0
 10
77.42853561576011
 20
168.0004625219554
 30
0.0
 10
77.26730313827565
 20
167.1880527467086
 30
0.0
 10
77.14682329863602
 20
166.3479744523239
 30
0.0
 10
77.0244427813227
 20
165.0466794029611
 30
0.0
 10
76.99346512092525
 20
164.6059983673763
 30
0.0
 10
76.9518513832973
 20
163.7101587264452
 30
0.0
 10
76.94161547036447
 20
163.2635005952428
 30
0.0
 10
76.94142707330836
 20
161.9281906381029
 30
0.0
 10
76.98157177594598
 20
161.0436952647954
 30
0.0
 10
77.14572553088556
 20
159.2864453767694
 30
0.0
 10
77.26727718129511
 20
158.4406544303563
 30
0.0
 10
77.4285356157601
 20
157.6281138644334
 30
0.0
  0
LINE
  5
82
330
1F
100
AcDbEntity
  8
0
  6
Continuous
 62
     7
370
    15
100
AcDbLine
 10
76.5498559712
 20
169.2994663285
 30
0.0
 11
76.5498559712
 21
156.3291100579
 31
0.0
  0
LINE
  5
83
330
1F
100
AcDbEntity
  8
0
  6
Continuous
 62
     7
370
    15
100
AcDbLine
 10
42.2498564958
 20
168.8685987869
 30
0.0
 11
42.2498564958
 21
156.7599775994
 31
0.0
  0
LINE
  5
84
330
1F
100
AcDbEntity
  8
0
  6
Continuous
 62
     7
370
    15
100
AcDbLine
 10
40.7498571812
 20
168.4355859438
 30
0.0
 11
40.7498571812
 21
157.1929904426
 31
0.0
  0
LINE
  5
85
330
1F
100
AcDbEntity
  8
0
  6
Continuous
 62
     7
370
    15
100
AcDbLine
 10
76.5498559712
 20
169.2994663285
 30
0.0
 11
76.5498559712
 21
184.8343878778
 31
0.0
  0
ARC
  5
86
330
1F
100
AcDbEntity
  8
0
  6
Continuous
 62
     7
370
    15
100
AcDbCircle
 10
76.7497928703
 20
184.8394100889
 30
0.0
 40
0.2000000000000208
100
AcDbArc
 50
181.4391666667
 51
271.4391666667
  0
LINE
  5
87
330
1F
100
AcDbEntity
  8
0
  6
Continuous
 62
     7
370
    15
100
AcDbLine
 10
42.2498564958
 20
168.8685987869
 30
0.0
 11
42.2498564958
 21
183.9726518633
 31
0.0
  0
LINE
  5
88
330
1F
100
AcDbEntity
  8
0
  6
Continuous
 62
     7
370
    15
100
AcDbLine
 10
42.2498564958
 20
183.9726518633
 30
0.0
 11
76.5498559712
 21
184.8343878778
 31
0.0
  0
LINE
  5
89
330
1F
100
AcDbEntity
  8
0
  6
Continuous
 62
     7
370
    15
100
AcDbLine
 10
42.2498564958
 20
141.6559245231
 30
0.0
 11
42.2498564958
 21
156.7599775994
 31
0.0
  0
LINE
  5
8A
330
1F
100
AcDbEntity
  8
0
  6
Continuous
 62
     7
370
    15
100
AcDbLine
 10
76.5498559712
 20
140.7941885086
 30
0.0
 11
76.5498559712
 21
156.3291100579
 31
0.0
  0
LINE
  5
8B
330
1F
100
AcDbEntity
  8
0
  6
Continuous
 62
     7
370
    15
100
AcDbLine
 10
42.2498564958
 20
141.6559245231
 30
0.0
 11
76.5498559712
 21
140.7941885086
 31
0.0
  0
ARC
  5
8C
330
1F
100
AcDbEntity
  8
0
  6
Continuous
 62
     7
370
    15
100
AcDbCircle
 10
76.7497928703
 20
140.7891662975
 30
0.0
 40
0.199999999999991
100
AcDbArc
 50
88.5608333333
 51
178.5608333333
  0
LINE
  5
8D
330
1F
100
AcDbEntity
  8
0
  6
Continuous
 62
     7
370
    15
100
AcDbLine
 10
76.7548160884
 20
184.6394732388
 30
0.0
 11
77.9333436885
 21
184.6690818461
 31
0.0
  0
LINE
  5
8E
330
1F
100
AcDbEntity
  8
0
  6
Continuous
 62
     7
370
    15
100
AcDbLine
 10
76.7548160884
 20
140.9891031476
 30
0.0
 11
77.9333436885
 21
140.9594945403
 31
0.0
  0
LINE
  5
8F
330
1F
100
AcDbEntity
  8
0
  6
Continuous
 62
     7
370
    15
100
AcDbLine
 10
40.7498571812
 20
142.5219502093
 30
0.0
 11
42.2498564958
 21
141.6559245231
 31
0.0
  0
LINE
  5
90
330
1F
100
AcDbEntity
  8
0
  6
Continuous
 62
     7
370
    15
100
AcDbLine
 10
40.7498571812
 20
142.5219502093
 30
0.0
 11
40.7498571812
 21
157.1929904426
 31
0.0
  0
LINE
  5
91
330
1F
100
AcDbEntity
  8
0
  6
Continuous
 62
     7
370
    15
100
AcDbLine
 10
40.7498571812
 20
183.106626177
 30
0.0
 11
42.2498564958
 21
183.9726518633
 31
0.0
  0
LINE
  5
92
330
1F
100
AcDbEntity
  8
0
  6
Continuous
 62
     7
370
    15
100
AcDbLine
 10
40.7498571812
 20
168.4355859438
 30
0.0
 11
40.7498571812
 21
183.106626177
 31
0.0
  0
ELLIPSE
  5
93
330
1F
100
AcDbEntity
  8
0
  6
Continuous
 62
     7
370
    15
100
AcDbEllipse
 10
227.6052596938
 20
162.8142881932
 30
0.0
 11
0.8021781934011472
 21
19.9988707082226
 31
0.0
210
0.0
220
0.0
230
1.0
 40
0.2649452246
 41
0.7270977325829187
 42
2.715001329517239
  0
ELLIPSE
  5
94
330
1F
100
AcDbEntity
  8
0
  6
Continuous
 62
     7
370
    15
100
AcDbEllipse
 10
224.0785595294
 20
156.757661645
 30
0.0
 11
-0.1164374532819181
 21
2.987911037318241
 31
0.0
210
0.0
220
0.0
230
1.0
 40
0.240361677
 41
5.143013025670178
 42
10.2434900366485
  0
SPLINE
  5
95
330
1F
100
AcDbEntity
  8
0
  6
Continuous
 62
     7
370
    15
100
AcDbSpline
210
0.0
220
0.0
230
1.0
 70
     8
 71
     3
 72
    14
 73
    10
 74
     0
 42
0.00000001
 43
0.00000001
 12
1.0
 22
0.0
 32
0.0
 13
1.0
 23
0.0
 33
0.0
 40
0.0
 40
0.0
 40
0.0
 40
0.0
 40
0.25
 40
0.25
 40
0.5
 40
0.5
 40
0.75
 40
0.75
 40
1.0
 40
1.0
 40
1.0
 40
1.0
 10
229.8509517289135
 20
143.1781326645992
 30
0.0
 10
229.2131865949746
 20
143.1915894993668
 30
0.0
 10
228.6051175326922
 20
143.2242423662197
 30
0.0
 10
227.4478795021206
 20
143.3433354133248
 30
0.0
 10
226.9299205048541
 20
143.4270154152908
 30
0.0
 10
226.0139451875485
 20
143.6674257287162
 30
0.0
 10
225.6380131756309
 20
143.8189634253485
 30
0.0
 10
225.0371260058463
 20
144.2039846781128
 30
0.0
 10
224.8229189374291
 20
144.4310239737726
 30
0.0
 10
224.682567550785
 20
144.6956273044429
 30
0.0
  0
ELLIPSE
  5
96
330
1F
100
AcDbEntity
  8
0
  6
Continuous
 62
     7
370
    15
100
AcDbEllipse
 10
291.6317016177
 20
162.8142881932
 30
0.0
 11
190.2870637919095
 21
2.813935298683703
 31
0.0
210
0.0
220
0.0
230
1.0
 40
0.1040588589
 41
4.380186392728718
 42
4.393959727202543
  0
ELLIPSE
  5
97
330
1F
100
AcDbEntity
  8
0
  6
Continuous
 62
     7
370
    15
100
AcDbEllipse
 10
291.6317016177
 20
162.8142881932
 30
0.0
 11
190.2870637919095
 21
2.813935298683703
 31
0.0
210
0.0
220
0.0
230
1.0
 40
0.1040588589
 41
1.886147970188342
 42
1.89992130466217
  0
SPLINE
  5
98
330
1F
100
AcDbEntity
  8
0
  6
Continuous
 62
     7
370
    15
100
AcDbSpline
210
0.0
220
0.0
230
1.0
 70
     8
 71
     3
 72
    20
 73
    16
 74
     0
 42
0.00000001
 43
0.00000001
 12
1.0
 22
0.0
 32
0.0
 13
1.0
 23
0.0
 33
0.0
 40
0.0
 40
0.0
 40
0.0
 40
0.0
 40
0.2500000000000003
 40
0.2500000000000003
 40
0.3750000000000003
 40
0.3750000000000003
 40
0.5000000000000002
 40
0.5000000000000002
 40
0.6250000000000001
 40
0.6250000000000001
 40
0.7500000000000001
 40
0.7500000000000001
 40
0.875
 40
0.875
 40
1.0
 40
1.0
 40
1.0
 40
1.0
 10
224.682567550785
 20
177.8968501483285
 30
0.0
 10
224.8229772376008
 20
178.3074212788642
 30
0.0
 10
225.0358337059309
 20
178.6762370371771
 30
0.0
 10
225.4837748935394
 20
179.1717954639467
 30
0.0
 10
225.6551969548942
 20
179.3269742225936
 30
0.0
 10
226.0321006608192
 20
179.6084990266203
 30
0.0
 10
226.2388131689483
 20
179.7364094286979
 30
0.0
 10
226.6904751509387
 20
179.9686462334292
 30
0.0
 10
226.9382092673736
 20
180.0738354177281
 30
0.0
 10
227.4591807948405
 20
180.2560222860265
 30
0.0
 10
227.7321234657486
 20
180.3334395826248
 30
0.0
 10
228.3028212259598
 20
180.4639228432115
 30
0.0
 10
228.6027742269126
 20
180.5172564041139
 30
0.0
 10
229.2182674641175
 20
180.5987911608614
 30
0.0
 10
229.5317236017724
 20
180.6269505088741
 30
0.0
 10
229.8509517289135
 20
180.6430253528518
 30
0.0
  0
SPLINE
  5
99
330
1F
100
AcDbEntity
  8
0
  6
Continuous
 62
     7
370
    15
100
AcDbSpline
210
0.0
220
0.0
230
1.0
 70
     8
 71
     3
 72
    14
 73
    10
 74
     0
 42
0.00000001
 43
0.00000001
 12
1.0
 22
0.0
 32
0.0
 13
1.0
 23
0.0
 33
0.0
 40
0.0
 40
0.0
 40
0.0
 40
0.0
 40
0.25
 40
0.25
 40
0.5
 40
0.5
 40
0.75
 40
0.75
 40
1.0
 40
1.0
 40
1.0
 40
1.0
 10
224.682567550785
 20
158.0303611551931
 30
0.0
 10
224.7183777531899
 20
157.7916767585097
 30
0.0
 10
224.7517333348669
 20
157.5397922258906
 30
0.0
 10
224.803628909696
 20
157.0080904706054
 30
0.0
 10
224.82206518473
 20
156.7257017679532
 30
0.0
 10
224.8313955317412
 20
156.1525253993556
 30
0.0
 10
224.8218048294168
 20
155.8538909182735
 30
0.0
 10
224.7712897173207
 20
155.2766506175765
 30
0.0
 10
224.7296884656386
 20
154.9925834367154
 30
0.0
 10
224.682567550785
 20
154.7368715086617
 30
0.0
  0
SPLINE
  5
9A
330
1F
100
AcDbEntity
  8
0
  6
Continuous
 62
     7
370
    15
100
AcDbSpline
210
0.0
220
0.0
230
1.0
 70
     8
 71
     3
 72
     8
 73
     4
 74
     0
 42
0.00000001
 43
0.00000001
 12
1.0
 22
0.0
 32
0.0
 13
1.0
 23
0.0
 33
0.0
 40
0.0
 40
0.0
 40
0.0
 40
0.0
 40
1.0
 40
1.0
 40
1.0
 40
1.0
 10
237.4644974219817
 20
138.2060324543685
 30
0.0
 10
235.9806099778162
 20
139.7309451890934
 30
0.0
 10
234.5044484088513
 20
141.2632613791869
 30
0.0
 10
233.0427491781329
 20
142.8094363584733
 30
0.0
  0
SPLINE
  5
9B
330
1F
100
AcDbEntity
  8
0
  6
Continuous
 62
     7
370
    15
100
AcDbSpline
210
0.0
220
0.0
230
1.0
 70
     8
 71
     3
 72
    10
 73
     6
 74
     0
 42
0.00000001
 43
0.00000001
 12
1.0
 22
0.0
 32
0.0
 13
1.0
 23
0.0
 33
0.0
 40
0.0
 40
0.0
 40
0.0
 40
0.0
 40
0.5
 40
0.5
 40
1.0
 40
1.0
 40
1.0
 40
1.0
 10
233.042749178133
 20
142.8094363584734
 30
0.0
 10
232.9511830763333
 20
142.9062943252686
 30
0.0
 10
232.8429025706538
 20
142.9843149469417
 30
0.0
 10
232.6011632427513
 20
143.0943591336541
 30
0.0
 10
232.4702873550566
 20
143.1250656357153
 30
0.0
 10
232.3356423969464
 20
143.1276918802392
 30
0.0
  0
SPLINE
  5
9C
330
1F
100
AcDbEntity
  8
0
  6
Continuous
 62
     7
370
    15
100
AcDbSpline
210
0.0
220
0.0
230
1.0
 70
     8
 71
     3
 72
     8
 73
     4
 74
     0
 42
0.00000001
 43
0.00000001
 12
1.0
 22
0.0
 32
0.0
 13
1.0
 23
0.0
 33
0.0
 40
0.0
 40
0.0
 40
0.0
 40
0.0
 40
1.0
 40
1.0
 40
1.0
 40
1.0
 10
232.3356423969466
 20
180.7661566688518
 30
0.0
 10
232.6047341625803
 20
180.7792776707196
 30
0.0
 10
232.8597241759346
 20
180.9061418574733
 30
0.0
 10
233.0427491781334
 20
181.1050988573768
 30
0.0
  0
SPLINE
  5
9D
330
1F
100
AcDbEntity
  8
0
  6
Continuous
 62
     7
370
    15
100
AcDbSpline
210
0.0
220
0.0
230
1.0
 70
     8
 71
     3
 72
     8
 73
     4
 74
     0
 42
0.00000001
 43
0.00000001
 12
1.0
 22
0.0
 32
0.0
 13
1.0
 23
0.0
 33
0.0
 40
0.0
 40
0.0
 40
0.0
 40
0.0
 40
1.0
 40
1.0
 40
1.0
 40
1.0
 10
233.0427491781329
 20
181.1050988573773
 30
0.0
 10
233.1117517672699
 20
181.180107997961
 30
0.0
 10
233.180787708063
 20
181.2550861544503
 30
0.0
 10
233.2498559593195
 20
181.3300342941258
 30
0.0
  0
ELLIPSE
  5
9E
330
1F
100
AcDbEntity
  8
0
  6
Continuous
 62
     7
370
    15
100
AcDbEllipse
 10
291.6317016177
 20
162.8142881932
 30
0.0
 11
195.0442403867074
 21
2.884283681150777
 31
0.0
210
0.0
220
0.0
230
1.0
 40
0.1040588589
 41
1.843073158187154
 42
1.873243518195786
  0
LINE
  5
9F
330
1F
100
AcDbEntity
  8
0
  6
Continuous
 62
     7
370
    15
100
AcDbLine
 10
255.8299358725
 20
157.7460423837
 30
0.0
 11
238.8903405308
 21
181.5870281102
 31
0.0
  0
LINE
  5
A0
330
1F
100
AcDbEntity
  8
0
  6
Continuous
 62
     7
370
    15
100
AcDbLine
 10
256.6344793676
 20
148.6010130288
 30
0.0
 11
255.8299358725
 21
157.7460423837
 31
0.0
  0
LINE
  5
A1
330
1F
100
AcDbEntity
  8
0
  6
Continuous
 62
     7
370
    15
100
AcDbLine
 10
244.3884517788
 20
149.4886882397
 30
0.0
 11
256.6344793676
 21
148.6010130288
 31
0.0
  0
ARC
  5
A2
330
1F
100
AcDbEntity
  8
0
  6
Continuous
 62
     7
370
    15
100
AcDbCircle
 10
244.18365389
 20
147.1675308707
 30
0.0
 40
2.33017460866028
100
AcDbArc
 50
84.9577966666
 51
265.0124186989
  0
LINE
  5
A3
330
1F
100
AcDbEntity
  8
0
  6
Continuous
 62
     7
370
    15
100
AcDbLine
 10
245.2777083754
 20
144.7521902414
 30
0.0
 11
243.9810689329
 21
144.8461793157
 31
0.0
  0
LINE
  5
A4
330
1F
100
AcDbEntity
  8
0
  6
Continuous
 62
     7
370
    15
100
AcDbLine
 10
245.931154096
 20
137.3248740824
 30
0.0
 11
245.2777083754
 21
144.7521902414
 31
0.0
  0
ELLIPSE
  5
A5
330
1F
100
AcDbEntity
  8
0
  6
Continuous
 62
     7
370
    15
100
AcDbEllipse
 10
270.2549528318
 20
160.9011979891
 30
0.0
 11
217.1628490301424
 21
-19.44089462863664
 31
0.0
210
0.0
220
0.0
230
1.0
 40
0.1182598878
 41
4.571409520900423
 42
4.610739044024404
  0
CIRCLE
  5
A6
330
1F
100
AcDbEntity
  8
0
  6
Continuous
 62
     7
370
    15
100
AcDbCircle
 10
247.4680841871
 20
154.5089929662
 30
0.0
 40
3.981126580359247
  0
LINE
  5
A7
330
1F
100
AcDbEntity
  8
0
  6
Continuous
 62
     7
370
    15
100
AcDbLine
 10
233.2498486876
 20
183.3142887594
 30
0.0
 11
233.2498486876
 21
181.3300333711
 31
0.0
  0
SPLINE
  5
A8
330
1F
100
AcDbEntity
  8
0
  6
Continuous
 62
     7
370
    15
100
AcDbSpline
210
0.0
220
0.0
230
1.0
 70
     8
 71
     3
 72
     9
 73
     5
 74
     0
 42
0.00000001
 43
0.00000001
 12
1.0
 22
0.0
 32
0.0
 13
1.0
 23
0.0
 33
0.0
 40
0.0
 40
0.0
 40
0.0
 40
0.0
 40
0.5186779828369433
 40
1.0
 40
1.0
 40
1.0
 40
1.0
 10
237.2649963735578
 20
138.3784495087548
 30
0.0
 10
237.2976836059723
 20
138.3171941026288
 30
0.0
 10
237.3607038873341
 20
138.1990949965305
 30
0.0
 10
237.4307691608427
 20
138.2037779089966
 30
0.0
 10
237.464493119621
 20
138.206031897871
 30
0.0
  0
ELLIPSE
  5
A9
330
1F
100
AcDbEntity
  8
0
  6
Continuous
 62
     7
370
    15
100
AcDbEllipse
 10
252.2033297337
 20
162.8142881932
 30
0.0
 11
-14.59302442228556
 21
20.49991501980205
 31
0.0
210
0.0
220
0.0
230
1.0
 40
0.0040448756
 41
5.866863962440873
 42
6.280305938888711
  0
LWPOLYLINE
  5
AA
330
1F
100
AcDbEntity
  8
0
  6
Continuous
 62
     7
370
    15
100
AcDbPolyline
 90
        3
 70
   128
 43
0.0
 10
242.093121612
 20
146.098595837
 10
242.7057530521
 20
145.694420466
 10
243.4897776484
 20
145.4967099967
  0
LINE
  5
AB
330
1F
100
AcDbEntity
  8
0
  6
Continuous
 62
     7
370
    15
100
AcDbLine
 10
244.7746749758
 20
145.7882232757
 30
0.0
 11
243.1824710011
 21
145.9036383571
 31
0.0
  0
LINE
  5
AC
330
1F
100
AcDbEntity
  8
0
  6
Continuous
 62
     7
370
    15
100
AcDbLine
 10
244.8087390303
 20
145.4011041464
 30
0.0
 11
244.786431992
 21
145.4027209224
 31
0.0
  0
LINE
  5
AD
330
1F
100
AcDbEntity
  8
0
  6
Continuous
 62
     7
370
    15
100
AcDbLine
 10
244.786431992
 20
145.4027209224
 30
0.0
 11
245.2777083754
 21
144.7521902414
 31
0.0
  0
ARC
  5
AE
330
1F
100
AcDbEntity
  8
0
  6
Continuous
 62
     7
370
    15
100
AcDbCircle
 10
243.6326839696
 20
147.5445840599
 30
0.0
 40
2.052854207093901
100
AcDbArc
 50
217.1293897403
 51
266.0082130175
  0
LWPOLYLINE
  5
AF
330
1F
100
AcDbEntity
  8
0
  6
Continuous
 62
     7
370
    15
100
AcDbPolyline
 90
        3
 70
   128
 43
0.0
 10
243.1824710011
 20
145.9036383571
 10
242.481848204
 20
146.0803158375
 10
241.9616933702
 20
146.4168045463
  0
LINE
  5
B0
330
1F
100
AcDbEntity
  8
0
  6
Continuous
 62
     7
370
    15
100
AcDbLine
 10
253.5432781815
 20
144.1828243228
 30
0.0
 11
253.5659130453
 21
144.5676691624
 31
0.0
  0
ARC
  5
B1
330
1F
100
AcDbEntity
  8
0
  6
Continuous
 62
     7
370
    15
100
AcDbCircle
 10
253.9571991692
 20
143.4748047692
 30
0.0
 40
0.135519954869303
100
AcDbArc
 50
224.3555819183
 51
249.7367408031
  0
ARC
  5
B2
330
1F
100
AcDbEntity
  8
0
  6
Continuous
 62
     7
370
    15
100
AcDbCircle
 10
251.0483625244
 20
143.6342330591
 30
0.0
 40
2.823401797475686
100
AcDbArc
 50
253.9837742516
 51
354.8350607138
  0
LINE
  5
B3
330
1F
100
AcDbEntity
  8
0
  6
Continuous
 62
     7
370
    15
100
AcDbLine
 10
253.7453677296
 20
143.5322545262
 30
0.0
 11
253.8603003859
 21
143.3800615164
 31
0.0
  0
LINE
  5
B4
330
1F
100
AcDbEntity
  8
0
  6
Continuous
 62
     7
370
    15
100
AcDbLine
 10
253.7270393013
 20
144.0522491725
 30
0.0
 11
253.587519729
 21
144.0624601932
 31
0.0
  0
LINE
  5
B5
330
1F
100
AcDbEntity
  8
0
  6
Continuous
 62
     7
370
    15
100
AcDbLine
 10
253.7270393013
 20
144.0522491725
 30
0.0
 11
253.8347895979
 21
143.9095631035
 31
0.0
  0
LWPOLYLINE
  5
B6
330
1F
100
AcDbEntity
  8
0
  6
Continuous
 62
     7
370
    15
100
AcDbPolyline
 90
        3
 70
   128
 43
0.0
 10
250.171577537
 20
141.5325633975
 10
249.4670208334
 20
141.7167696895
 10
249.4130339264
 20
141.7395125868
  0
CIRCLE
  5
B7
330
1F
100
AcDbEntity
  8
0
  6
Continuous
 62
     7
370
    15
100
AcDbCircle
 10
247.4645688681
 20
154.5169441087
 30
0.0
 40
3.478157853743627
  0
CIRCLE
  5
B8
330
1F
100
AcDbEntity
  8
0
  6
Continuous
 62
     7
370
    15
100
AcDbCircle
 10
247.4421324631
 20
154.5207548912
 30
0.0
 40
1.988807027921565
  0
SPLINE
  5
B9
330
1F
100
AcDbEntity
  8
0
  6
Continuous
 62
     7
370
    15
100
AcDbSpline
210
0.0
220
0.0
230
1.0
 70
     8
 71
     3
 72
    11
 73
     7
 74
     0
 42
0.00000001
 43
0.00000001
 12
1.0
 22
0.0
 32
0.0
 13
1.0
 23
0.0
 33
0.0
 40
0.0
 40
0.0
 40
0.0
 40
0.0
 40
0.1081092286286645
 40
0.4711618702588056
 40
0.8135829927205392
 40
0.9999999999999999
 40
0.9999999999999999
 40
0.9999999999999999
 40
0.9999999999999999
 10
246.2855931161878
 20
153.2296815680547
 30
0.0
 10
246.340069997115
 20
153.2246399755748
 30
0.0
 10
246.5774912554952
 20
153.2026676965008
 30
0.0
 10
247.0404166976729
 20
153.1463722894033
 30
0.0
 10
247.582529461987
 20
153.0504055448795
 30
0.0
 10
247.8790765201152
 20
152.9880137236823
 30
0.0
 10
247.9836102365491
 20
152.9660204218908
 30
0.0
  0
SPLINE
  5
BA
330
1F
100
AcDbEntity
  8
0
  6
Continuous
 62
     7
370
    15
100
AcDbSpline
210
0.0
220
0.0
230
1.0
 70
     8
 71
     3
 72
    10
 73
     6
 74
     0
 42
0.00000001
 43
0.00000001
 12
1.0
 22
0.0
 32
0.0
 13
1.0
 23
0.0
 33
0.0
 40
0.0
 40
0.0
 40
0.0
 40
0.0
 40
0.4391161646423625
 40
0.7513697567861802
 40
1.0
 40
1.0
 40
1.0
 40
1.0
 10
247.9836102365491
 20
152.9660204218908
 30
0.0
 10
248.1303333054164
 20
153.1715109654026
 30
0.0
 10
248.3813905095152
 20
153.5231249394091
 30
0.0
 10
248.7812380387429
 20
153.9880609133746
 30
0.0
 10
248.9906920550585
 20
154.2056472144856
 30
0.0
 10
249.083539450073
 20
154.3020995127244
 30
0.0
  0
SPLINE
  5
BB
330
1F
100
AcDbEntity
  8
0
  6
Continuous
 62
     7
370
    15
100
AcDbSpline
210
0.0
220
0.0
230
1.0
 70
     8
 71
     3
 72
    10
 73
     6
 74
     0
 42
0.00000001
 43
0.00000001
 12
1.0
 22
0.0
 32
0.0
 13
1.0
 23
0.0
 33
0.0
 40
0.0
 40
0.0
 40
0.0
 40
0.0
 40
0.4391146593921828
 40
0.751365406090336
 40
0.9999999999999999
 40
0.9999999999999999
 40
0.9999999999999999
 40
0.9999999999999999
 10
249.083539450073
 20
154.3020995127244
 30
0.0
 10
248.9871837640206
 20
154.5453343939099
 30
0.0
 10
248.8223103587917
 20
154.9615315564694
 30
0.0
 10
248.6175088375719
 20
155.5203613698247
 30
0.0
 10
248.52601139896
 20
155.7846727977924
 30
0.0
 10
248.4854515432355
 20
155.9018392840607
 30
0.0
  0
SPLINE
  5
BC
330
1F
100
AcDbEntity
  8
0
  6
Continuous
 62
     7
370
    15
100
AcDbSpline
210
0.0
220
0.0
230
1.0
 70
     8
 71
     3
 72
    11
 73
     7
 74
     0
 42
0.00000001
 43
0.00000001
 12
1.0
 22
0.0
 32
0.0
 13
1.0
 23
0.0
 33
0.0
 40
0.0
 40
0.0
 40
0.0
 40
0.0
 40
0.1864170410708809
 40
0.5288381121662356
 40
0.891890751311755
 40
1.0
 40
1.0
 40
1.0
 40
1.0
 10
248.4854515432355
 20
155.9018392840607
 30
0.0
 10
248.3809178345347
 20
155.9238325998684
 30
0.0
 10
248.0843708619538
 20
155.9862244474442
 30
0.0
 10
247.5422579392289
 20
156.082190670752
 30
0.0
 10
247.079332521781
 20
156.1384856362182
 30
0.0
 10
246.8419113028303
 20
156.1604586649797
 30
0.0
 10
246.7874344228742
 20
156.1655004302247
 30
0.0
  0
SPLINE
  5
BD
330
1F
100
AcDbEntity
  8
0
  6
Continuous
 62
     7
370
    15
100
AcDbSpline
210
0.0
220
0.0
230
1.0
 70
     8
 71
     3
 72
    10
 73
     6
 74
     0
 42
0.00000001
 43
0.00000001
 12
1.0
 22
0.0
 32
0.0
 13
1.0
 23
0.0
 33
0.0
 40
0.0
 40
0.0
 40
0.0
 40
0.0
 40
0.4391144940680523
 40
0.751366880617481
 40
1.0
 40
1.0
 40
1.0
 40
1.0
 10
246.7874344228742
 20
156.1655004302247
 30
0.0
 10
246.6192354325811
 20
155.9884489913909
 30
0.0
 10
246.3314308796302
 20
155.6854970526539
 30
0.0
 10
245.9479209550335
 20
155.19892910771
 30
0.0
 10
245.7674885193827
 20
154.9429105229844
 30
0.0
 10
245.6875052093503
 20
154.8294208737297
 30
0.0
  0
SPLINE
  5
BE
330
1F
100
AcDbEntity
  8
0
  6
Continuous
 62
     7
370
    15
100
AcDbSpline
210
0.0
220
0.0
230
1.0
 70
     8
 71
     3
 72
    10
 73
     6
 74
     0
 42
0.00000001
 43
0.00000001
 12
1.0
 22
0.0
 32
0.0
 13
1.0
 23
0.0
 33
0.0
 40
0.0
 40
0.0
 40
0.0
 40
0.0
 40
0.4391153814509035
 40
0.7513663654644365
 40
1.0
 40
1.0
 40
1.0
 40
1.0
 10
245.6875052093503
 20
154.8294208737297
 30
0.0
 10
245.7623847254291
 20
154.6146252403971
 30
0.0
 10
245.8905103894811
 20
154.2470903710843
 30
0.0
 10
246.1116528334927
 20
153.6666320207484
 30
0.0
 10
246.2321694848937
 20
153.3638855575895
 30
0.0
 10
246.2855931161878
 20
153.2296815680547
 30
0.0
  0
LINE
  5
BF
330
1F
100
AcDbEntity
  8
0
  6
Continuous
 62
     7
370
    15
100
AcDbLine
 10
248.6934419512
 20
154.8186557161
 30
0.0
 11
249.0835394501
 21
154.3020995127
 31
0.0
  0
LINE
  5
C0
330
1F
100
AcDbEntity
  8
0
  6
Continuous
 62
     7
370
    15
100
AcDbLine
 10
248.6934419512
 20
154.8186557161
 30
0.0
 11
248.3943905472
 21
155.6185253689
 31
0.0
  0
LINE
  5
C1
330
1F
100
AcDbEntity
  8
0
  6
Continuous
 62
     7
370
    15
100
AcDbLine
 10
248.3943905472
 20
155.6185253689
 30
0.0
 11
248.2720222115
 21
155.9458461384
 31
0.0
  0
LINE
  5
C2
330
1F
100
AcDbEntity
  8
0
  6
Continuous
 62
     7
370
    15
100
AcDbLine
 10
247.5935127377
 20
153.4825766253
 30
0.0
 11
247.9836102365
 21
152.9660204219
 31
0.0
  0
LINE
  5
C3
330
1F
100
AcDbEntity
  8
0
  6
Continuous
 62
     7
370
    15
100
AcDbLine
 10
247.5935127377
 20
153.4825766253
 30
0.0
 11
248.1434698938
 21
154.1506161707
 31
0.0
  0
LINE
  5
C4
330
1F
100
AcDbEntity
  8
0
  6
Continuous
 62
     7
370
    15
100
AcDbLine
 10
248.1434698938
 20
154.1506161707
 30
0.0
 11
248.6934419512
 21
154.8186557161
 31
0.0
  0
LINE
  5
C5
330
1F
100
AcDbEntity
  8
0
  6
Continuous
 62
     7
370
    15
100
AcDbLine
 10
246.0947837471
 20
153.7152908536
 30
0.0
 11
246.7445041775
 21
153.6144071983
 31
0.0
  0
LINE
  5
C6
330
1F
100
AcDbEntity
  8
0
  6
Continuous
 62
     7
370
    15
100
AcDbLine
 10
246.7445041775
 20
153.6144071983
 30
0.0
 11
247.5935127377
 21
153.4825766253
 31
0.0
  0
ARC
  5
C7
330
1F
100
AcDbEntity
  8
0
  6
Continuous
 62
     7
370
    15
100
AcDbCircle
 10
246.996556384
 20
155.1020671073
 30
0.0
 40
1.490191089656016
100
AcDbArc
 50
320.3217431627
 51
20.2777760335
  0
ARC
  5
C8
330
1F
100
AcDbEntity
  8
0
  6
Continuous
 62
     7
370
    15
100
AcDbCircle
 10
246.9728275451
 20
155.1117637267
 30
0.0
 40
1.514664363176114
100
AcDbArc
 50
261.3300774408
 51
320.6125372492
  0
ARC
  5
C9
330
1F
100
AcDbEntity
  8
0
  6
Continuous
 62
     7
370
    15
100
AcDbCircle
 10
246.9678556874
 20
155.0656550073
 30
0.0
 40
1.46833446466476
100
AcDbArc
 50
226.5203527781
 51
261.2506514607
  0
ARC
  5
CA
330
1F
100
AcDbEntity
  8
0
  6
Continuous
 62
     7
370
    15
100
AcDbCircle
 10
247.0318083441
 20
155.1095758466
 30
0.0
 40
1.454530809744276
100
AcDbArc
 50
20.4815853083
 51
35.9473898223
  0
LINE
  5
CB
330
1F
100
AcDbEntity
  8
0
  6
Continuous
 62
     7
370
    15
100
AcDbLine
 10
244.9367102026
 20
148.9430300685
 30
0.0
 11
245.9840979218
 21
137.0379037949
 31
0.0
  0
ARC
  5
CC
330
1F
100
AcDbEntity
  8
0
  6
Continuous
 62
     7
370
    15
100
AcDbCircle
 10
245.3388106625
 20
148.976038227
 30
0.0
 40
0.4034529940638513
100
AcDbArc
 50
85.8964311311
 51
184.6928500226
  0
LINE
  5
CD
330
1F
100
AcDbEntity
  8
0
  6
Continuous
 62
     7
370
    15
100
AcDbLine
 10
257.3393340944
 20
148.5106700825
 30
0.0
 11
245.3676815866
 21
149.3784568997
 31
0.0
  0
ARC
  5
CE
330
1F
100
AcDbEntity
  8
0
  6
Continuous
 62
     7
370
    15
100
AcDbCircle
 10
257.3126067537
 20
148.1217406204
 30
0.0
 40
0.389846735547034
100
AcDbArc
 50
5.0244429909
 51
86.0687986713
  0
LINE
  5
CF
330
1F
100
AcDbEntity
  8
0
  6
Continuous
 62
     7
370
    15
100
AcDbLine
 10
258.7483431934
 20
136.2507574054
 30
0.0
 11
257.7009554743
 21
148.155883679
 31
0.0
  0
ARC
  5
D0
330
1F
100
AcDbEntity
  8
0
  6
Continuous
 62
     7
370
    15
100
AcDbCircle
 10
258.3462589145
 20
136.2177332314
 30
0.0
 40
0.4034381779244798
100
AcDbArc
 50
265.8939762485
 51
4.6953049053
  0
LINE
  5
D1
330
1F
100
AcDbEntity
  8
0
  6
Continuous
 62
     7
370
    15
100
AcDbLine
 10
246.3457193016
 20
136.6831183227
 30
0.0
 11
258.3173718094
 21
135.8153305741
 31
0.0
  0
ARC
  5
D2
330
1F
100
AcDbEntity
  8
0
  6
Continuous
 62
     7
370
    15
100
AcDbCircle
 10
246.3724820799
 20
137.0720839948
 30
0.0
 40
0.3898852913307874
100
AcDbArc
 50
185.0294240463
 51
266.0639679915
  0
ARC
  5
D3
330
1F
100
AcDbEntity
  8
0
  6
Continuous
 62
     7
370
    15
100
AcDbCircle
 10
258.3465409488
 20
136.2173728569
 30
0.0
 40
0.3832695811733834
100
AcDbArc
 50
265.896566639
 51
4.6946944183
  0
LINE
  5
D4
330
1F
100
AcDbEntity
  8
0
  6
Continuous
 62
     7
370
    15
100
AcDbLine
 10
258.728524649
 20
136.2487420233
 30
0.0
 11
257.6811369299
 21
148.1538673656
 31
0.0
  0
ARC
  5
D5
330
1F
100
AcDbEntity
  8
0
  6
Continuous
 62
     7
370
    15
100
AcDbCircle
 10
257.3122098686
 20
148.1214368975
 30
0.0
 40
0.3703497155967447
100
AcDbArc
 50
5.0236622193
 51
86.0680173315
  0
LINE
  5
D6
330
1F
100
AcDbEntity
  8
0
  6
Continuous
 62
     7
370
    15
100
AcDbLine
 10
257.3376055597
 20
148.490914868
 30
0.0
 11
245.3659530519
 21
149.3587016853
 31
0.0
  0
ARC
  5
D7
330
1F
100
AcDbEntity
  8
0
  6
Continuous
 62
     7
370
    15
100
AcDbCircle
 10
245.3385127364
 20
148.9764153189
 30
0.0
 40
0.3832699268544854
100
AcDbArc
 50
85.8943803577
 51
184.6947954696
  0
LINE
  5
D8
330
1F
100
AcDbEntity
  8
0
  6
Continuous
 62
     7
370
    15
100
AcDbLine
 10
244.956528747
 20
148.9450454505
 30
0.0
 11
246.0039164661
 21
137.0399210395
 31
0.0
  0
ARC
  5
D9
330
1F
100
AcDbEntity
  8
0
  6
Continuous
 62
     7
370
    15
100
AcDbCircle
 10
246.3728758614
 20
137.0723855875
 30
0.0
 40
0.370384910894426
100
AcDbArc
 50
185.0284758648
 51
266.0656884658
  0
LINE
  5
DA
330
1F
100
AcDbEntity
  8
0
  6
Continuous
 62
     7
370
    15
100
AcDbLine
 10
246.3474627375
 20
136.7028735372
 30
0.0
 11
258.3191152452
 21
135.8350857886
 31
0.0
  0
LINE
  5
DB
330
1F
100
AcDbEntity
  8
0
  6
Continuous
 62
     7
370
    15
100
AcDbLine
 10
256.8417843222
 20
149.1695053669
 30
0.0
 11
256.5828170418
 21
149.1882761734
 31
0.0
  0
LINE
  5
DC
330
1F
100
AcDbEntity
  8
0
  6
Continuous
 62
     7
370
    15
100
AcDbLine
 10
256.6736694216
 20
147.6191382649
 30
0.0
 11
257.2817262053
 21
148.1459297033
 31
0.0
  0
LINE
  5
DD
330
1F
100
AcDbEntity
  8
0
  6
Continuous
 62
     7
370
    15
100
AcDbLine
 10
246.173625791
 20
148.1837870347
 30
0.0
 11
245.3100736975
 21
149.0137165206
 31
0.0
  0
LINE
  5
DE
330
1F
100
AcDbEntity
  8
0
  6
Continuous
 62
     7
370
    15
100
AcDbLine
 10
246.8905057549
 20
137.7347137572
 30
0.0
 11
246.3574614166
 21
137.1085911783
 31
0.0
  0
LINE
  5
DF
330
1F
100
AcDbEntity
  8
0
  6
Continuous
 62
     7
370
    15
100
AcDbLine
 10
244.4495018362
 20
149.4842625948
 30
0.0
 11
244.8115106462
 21
145.3695025088
 31
0.0
  0
ARC
  5
E0
330
1F
100
AcDbEntity
  8
0
  6
Continuous
 62
     7
370
    15
100
AcDbCircle
 10
248.213861309
 20
146.1529180162
 30
0.0
 40
1.008600142829998
100
AcDbArc
 50
85.8951325701
 51
184.6950389985
  0
SPLINE
  5
E1
330
1F
100
AcDbEntity
  8
0
  6
Continuous
 62
     7
370
    15
100
AcDbSpline
210
0.0
220
0.0
230
1.0
 70
     8
 71
     3
 72
    11
 73
     7
 74
     0
 42
0.00000001
 43
0.00000001
 12
1.0
 22
0.0
 32
0.0
 13
1.0
 23
0.0
 33
0.0
 40
0.0
 40
0.0
 40
0.0
 40
0.0
 40
0.3367887381009768
 40
0.6790094874445738
 40
0.992379038201336
 40
1.0
 40
1.0
 40
1.0
 40
1.0
 10
246.1736257909772
 20
148.1837870346589
 30
0.0
 10
246.2266954089376
 20
148.1324563937536
 30
0.0
 10
246.3336905961678
 20
148.0289672083139
 30
0.0
 10
246.5059705391149
 20
147.8585490259321
 30
0.0
 10
246.6159387803425
 20
147.7486497035563
 30
0.0
 10
246.6665467606994
 20
147.6975142612898
 30
0.0
 10
246.6677482961652
 20
147.6963002028151
 30
0.0
  0
LINE
  5
E2
330
1F
100
AcDbEntity
  8
0
  6
Continuous
 62
     7
370
    15
100
AcDbLine
 10
247.2086455463
 20
146.0703618618
 30
0.0
 11
247.7948274254
 21
139.4074938985
 31
0.0
  0
LINE
  5
E3
330
1F
100
AcDbEntity
  8
0
  6
Continuous
 62
     7
370
    15
100
AcDbLine
 10
254.986172521
 20
146.6732609811
 30
0.0
 11
248.2860591053
 21
147.1589308026
 31
0.0
  0
ARC
  5
E4
330
1F
100
AcDbEntity
  8
0
  6
Continuous
 62
     7
370
    15
100
AcDbCircle
 10
254.9193026695
 20
145.7008849685
 30
0.0
 40
0.9746726049361351
100
AcDbArc
 50
5.0271620249
 51
86.0659894122
  0
LINE
  5
E5
330
1F
100
AcDbEntity
  8
0
  6
Continuous
 62
     7
370
    15
100
AcDbLine
 10
256.4764078497
 20
139.1234256121
 30
0.0
 11
255.8902259706
 21
145.7862935754
 31
0.0
  0
ARC
  5
E6
330
1F
100
AcDbEntity
  8
0
  6
Continuous
 62
     7
370
    15
100
AcDbCircle
 10
255.4711985156
 20
139.0408648163
 30
0.0
 40
1.008594115738174
100
AcDbArc
 50
265.8947418672
 51
4.695331668
  0
LINE
  5
E7
330
1F
100
AcDbEntity
  8
0
  6
Continuous
 62
     7
370
    15
100
AcDbLine
 10
248.6988957762
 20
138.5205264928
 30
0.0
 11
255.3989942907
 21
138.0348585339
 31
0.0
  0
ARC
  5
E8
330
1F
100
AcDbEntity
  8
0
  6
Continuous
 62
     7
370
    15
100
AcDbCircle
 10
248.765774017
 20
139.4929273682
 30
0.0
 40
0.9746979847586851
100
AcDbArc
 50
185.0284979461
 51
266.0655976953
  0
CIRCLE
  5
E9
330
1F
100
AcDbEntity
  8
0
  6
Continuous
 62
     7
370
    15
100
AcDbCircle
 10
251.8041289925
 20
142.5992320982
 30
0.0
 40
2.557496340447032
  0
ARC
  5
EA
330
1F
100
AcDbEntity
  8
0
  6
Continuous
 62
     7
370
    15
100
AcDbCircle
 10
251.3207363265
 20
143.2860975005
 30
0.0
 40
2.586505525115182
100
AcDbArc
 50
265.5787957992
 51
27.0039107884
  0
ARC
  5
EB
330
1F
100
AcDbEntity
  8
0
  6
Continuous
 62
     7
370
    15
100
AcDbCircle
 10
251.2987520649
 20
143.2283135349
 30
0.0
 40
2.527259128427877
100
AcDbArc
 50
226.5984483756
 51
265.9747361634
  0
LINE
  5
EC
330
1F
100
AcDbEntity
  8
0
  6
Continuous
 62
     7
370
    15
100
AcDbLine
 10
257.3647256731
 20
137.2042510452
 30
0.0
 11
258.3291139244
 21
136.2408052923
 31
0.0
  0
SPLINE
  5
ED
330
1F
100
AcDbEntity
  8
0
  6
Continuous
 62
     7
370
    15
100
AcDbSpline
210
0.0
220
0.0
230
1.0
 70
     8
 71
     3
 72
    11
 73
     7
 74
     0
 42
0.00000001
 43
0.00000001
 12
1.0
 22
0.0
 32
0.0
 13
1.0
 23
0.0
 33
0.0
 40
0.0
 40
0.0
 40
0.0
 40
0.0
 40
0.3372326598335477
 40
0.6736296897558606
 40
0.9918905009076903
 40
1.0
 40
1.0
 40
1.0
 40
1.0
 10
256.6736694215772
 20
147.619138264863
 30
0.0
 10
256.6164382662117
 20
147.5674474157453
 30
0.0
 10
256.502117768748
 20
147.464193802434
 30
0.0
 10
256.3344120656712
 20
147.2882396817338
 30
0.0
 10
256.2355489932537
 20
147.1741623392314
 30
0.0
 10
256.1920131618214
 20
147.1205349527544
 30
0.0
 10
256.1909314035413
 20
147.1192024441643
 30
0.0
  0
ARC
  5
EE
330
1F
100
AcDbEntity
  8
0
  6
Continuous
 62
     7
370
    15
100
AcDbCircle
 10
256.8143007985
 20
148.7789628234
 30
0.0
 40
0.3915083937627479
100
AcDbArc
 50
37.1617029348
 51
85.9745790003
  0
SPLINE
  5
EF
330
1F
100
AcDbEntity
  8
0
  6
Continuous
 62
     7
370
    15
100
AcDbSpline
210
0.0
220
0.0
230
1.0
 70
     8
 71
     3
 72
    11
 73
     7
 74
     0
 42
0.00000001
 43
0.00000001
 12
1.0
 22
0.0
 32
0.0
 13
1.0
 23
0.0
 33
0.0
 40
0.0
 40
0.0
 40
0.0
 40
0.0
 40
0.0081261291179903
 40
0.3263731713806322
 40
0.6627631785756389
 40
1.0
 40
1.0
 40
1.0
 40
1.0
 10
247.383704388046
 20
138.2208157124205
 30
0.0
 10
247.3824135313457
 20
138.2197514077604
 30
0.0
 10
247.330568306031
 20
138.177005288155
 30
0.0
 10
247.2196137496514
 20
138.0791125211847
 30
0.0
 10
247.0463115196249
 20
137.9105005745469
 30
0.0
 10
246.9424845166458
 20
137.7933584493483
 30
0.0
 10
246.890505754852
 20
137.7347137572451
 30
0.0
  0
SPLINE
  5
F0
330
1F
100
AcDbEntity
  8
0
  6
Continuous
 62
     7
370
    15
100
AcDbSpline
210
0.0
220
0.0
230
1.0
 70
     8
 71
     3
 72
    11
 73
     7
 74
     0
 42
0.00000001
 43
0.00000001
 12
1.0
 22
0.0
 32
0.0
 13
1.0
 23
0.0
 33
0.0
 40
0.0
 40
0.0
 40
0.0
 40
0.0
 40
0.0076343566753267
 40
0.3209911233144858
 40
0.6632245218608651
 40
1.0
 40
1.0
 40
1.0
 40
1.0
 10
256.886353695297
 20
137.6708771826906
 30
0.0
 10
256.8873711577974
 20
137.669914441776
 30
0.0
 10
256.9301509812748
 20
137.6294354203207
 30
0.0
 10
257.0271274003317
 20
137.5362924548004
 30
0.0
 10
257.1918968184764
 20
137.3760362457642
 30
0.0
 10
257.307425597672
 20
137.2612051051631
 30
0.0
 10
257.3647256731031
 20
137.2042510451956
 30
0.0
  0
LINE
  5
F1
330
1F
100
AcDbEntity
  8
0
  6
Continuous
 62
     7
370
    15
100
AcDbLine
 10
249.3091132282
 20
142.96487605
 30
0.0
 11
249.6181484102
 21
142.1239532324
 31
0.0
  0
LINE
  5
F2
330
1F
100
AcDbEntity
  8
0
  6
Continuous
 62
     7
370
    15
100
AcDbLine
 10
249.6181484102
 20
142.1239532324
 30
0.0
 11
249.2898013233
 21
142.4644261392
 31
0.0
  0
ELLIPSE
  5
F3
330
1F
100
AcDbEntity
  8
0
  6
Continuous
 62
     7
370
    15
100
AcDbEllipse
 10
251.5134829045
 20
143.3363392181
 30
0.0
 11
1.759005141004991
 21
1.403439041303329
 31
0.0
210
0.0
220
0.0
230
1.0
 40
0.9859532801
 41
3.035761472810061
 42
5.754932365681507
  0
ELLIPSE
  5
F4
330
1F
100
AcDbEntity
  8
0
  6
Continuous
 62
     7
370
    15
100
AcDbEllipse
 10
251.5134829045
 20
143.3363392181
 30
0.0
 11
1.759005141004991
 21
1.403439041303329
 31
0.0
210
0.0
220
0.0
230
1.0
 40
0.9859532801
 41
6.177354126399864
 42
6.282446911985866
  0
LINE
  5
F5
330
1F
100
AcDbEntity
  8
0
  6
Continuous
 62
     7
370
    15
100
AcDbLine
 10
253.730153644
 20
143.6743445488
 30
0.0
 11
253.4088101028
 21
144.5487260612
 31
0.0
  0
LINE
  5
F6
330
1F
100
AcDbEntity
  8
0
  6
Continuous
 62
     7
370
    15
100
AcDbLine
 10
253.4084822773
 20
144.6437060626
 30
0.0
 11
253.418436253
 21
144.5225260945
 31
0.0
  0
SPLINE
  5
F7
330
1F
100
AcDbEntity
  8
0
  6
HIDDEN
 62
     7
370
     0
100
AcDbSpline
210
0.0
220
0.0
230
1.0
 70
     8
 71
     3
 72
    60
 73
    56
 74
     0
 42
0.00000001
 43
0.00000001
 12
1.0
 22
0.0
 32
0.0
 13
1.0
 23
0.0
 33
0.0
 40
-0.0625000000000001
 40
-0.0625000000000001
 40
0.0
 40
0.0
 40
0.03125
 40
0.03125
 40
0.0625000000000001
 40
0.0625000000000001
 40
0.0937500000000001
 40
0.0937500000000001
 40
0.1250000000000002
 40
0.1250000000000002
 40
0.1875000000000003
 40
0.1875000000000003
 40
0.2500000000000004
 40
0.2500000000000004
 40
0.2812500000000005
 40
0.2812500000000005
 40
0.3125000000000005
 40
0.3125000000000005
 40
0.3437500000000006
 40
0.3437500000000006
 40
0.3750000000000006
 40
0.3750000000000006
 40
0.4062500000000006
 40
0.4062500000000006
 40
0.4375000000000006
 40
0.4375000000000006
 40
0.4687500000000007
 40
0.4687500000000007
 40
0.5000000000000007
 40
0.5000000000000007
 40
0.5625000000000008
 40
0.5625000000000008
 40
0.6250000000000008
 40
0.6250000000000008
 40
0.6562500000000007
 40
0.6562500000000007
 40
0.6875000000000007
 40
0.6875000000000007
 40
0.7187500000000006
 40
0.7187500000000006
 40
0.7500000000000004
 40
0.7500000000000004
 40
0.7812500000000003
 40
0.7812500000000003
 40
0.8125000000000002
 40
0.8125000000000002
 40
0.8437500000000002
 40
0.8437500000000002
 40
0.8750000000000001
 40
0.8750000000000001
 40
0.90625
 40
0.90625
 40
0.9374999999999999
 40
0.9374999999999999
 40
1.0
 40
1.0
 40
1.03125
 40
1.03125
 10
88.74985595931973
 20
162.5499576681077
 30
0.0
 10
88.74985595931975
 20
162.9464534557378
 30
0.0
 10
88.76282781780856
 20
163.0764035167419
 30
0.0
 10
88.81364798750096
 20
163.332056450102
 30
0.0
 10
88.85211531096787
 20
163.4590859566513
 30
0.0
 10
88.95251354704
 20
163.7012740877758
 30
0.0
 10
89.01394657801316
 20
163.8161355803287
 30
0.0
 10
89.15908140955811
 20
164.0335157761529
 30
0.0
 10
89.24353652696597
 20
164.1364133433515
 30
0.0
 10
89.52025597732427
 20
164.4130803823593
 30
0.0
 10
89.74333286924232
 20
164.5620784728392
 30
0.0
 10
90.22461623146263
 20
164.7615896133039
 30
0.0
 10
90.48784665045365
 20
164.8141477163006
 30
0.0
 10
90.87924885214159
 20
164.8143579986787
 30
0.0
 10
91.01177188025046
 20
164.8013722279516
 30
0.0
 10
91.2683023334915
 20
164.7503450797378
 30
0.0
 10
91.39298916778812
 20
164.7125898805874
 30
0.0
 10
91.63516843002361
 20
164.6124515476786
 30
0.0
 10
91.7522619621737
 20
164.5498458802671
 30
0.0
 10
91.96897696552914
 20
164.4051125870021
 30
0.0
 10
92.0699957923919
 20
164.3224852397226
 30
0.0
 10
92.25678067984403
 20
164.135880186471
 30
0.0
 10
92.33963756104022
 20
164.0347651225948
 30
0.0
 10
92.48452182611402
 20
163.818232318605
 30
0.0
 10
92.54715933393499
 20
163.7013621110039
 30
0.0
 10
92.64760815733474
 20
163.4590642403537
 30
0.0
 10
92.685459258352
 20
163.3344002418927
 30
0.0
 10
92.73668082360831
 20
163.0781131978289
 30
0.0
 10
92.74980895022554
 20
162.9455412020833
 30
0.0
 10
92.74994959056579
 20
162.5539370093093
 30
0.0
 10
92.69762484119394
 20
162.2907716779853
 30
0.0
 10
92.49851377913667
 20
161.8092663088122
 30
0.0
 10
92.34965144267943
 20
161.5860147693281
 30
0.0
 10
92.07333048335393
 20
161.3091584704392
 30
0.0
 10
91.97056683498035
 20
161.2246450235955
 30
0.0
 10
91.7531832776009
 20
161.0792277501553
 30
0.0
 10
91.63838450964445
 20
161.0177165510969
 30
0.0
 10
91.39650778622045
 20
160.9171867028421
 30
0.0
 10
91.26935417822023
 20
160.878541679624
 30
0.0
 10
91.01368816878764
 20
160.8274853520731
 30
0.0
 10
90.88382213103162
 20
160.8144204935274
 30
0.0
 10
90.61986960429996
 20
160.8141578727295
 30
0.0
 10
90.48946528087589
 20
160.8270348729735
 30
0.0
 10
90.23381451749657
 20
160.8776208767793
 30
0.0
 10
90.1069489683822
 20
160.9158972414012
 30
0.0
 10
89.86442851043627
 20
161.0161681088812
 30
0.0
 10
89.74950187177596
 20
161.0775241330221
 30
0.0
 10
89.53213040294396
 20
161.2223704281949
 30
0.0
 10
89.42911659028171
 20
161.3067479426895
 30
0.0
 10
89.24441604469976
 20
161.4911552628778
 30
0.0
 10
89.16158631044318
 20
161.5917283261472
 30
0.0
 10
89.01533387184567
 20
161.8099544667262
 30
0.0
 10
88.95296539105328
 20
161.9265095766475
 30
0.0
 10
88.80300923948653
 20
162.2873591706812
 30
0.0
 10
88.74985595931973
 20
162.5499576681077
 30
0.0
 10
88.74985595931975
 20
162.9464534557378
 30
0.0
  0
SPLINE
  5
F8
330
1F
100
AcDbEntity
  8
0
  6
HIDDEN
 62
     7
370
     0
100
AcDbSpline
210
0.0
220
0.0
230
1.0
 70
     8
 71
     3
 72
    12
 73
     8
 74
     0
 42
0.00000001
 43
0.00000001
 12
1.0
 22
0.0
 32
0.0
 13
1.0
 23
0.0
 33
0.0
 40
0.0
 40
0.0
 40
0.0
 40
0.0
 40
0.2500000000000023
 40
0.2500000000000023
 40
0.5000000000000047
 40
0.5000000000000047
 40
1.0
 40
1.0
 40
1.0
 40
1.0
 10
89.2776127728862
 20
153.4262217618584
 30
0.0
 10
89.21453273439285
 20
153.4262217618584
 30
0.0
 10
89.1553841122115
 20
153.4008574426434
 30
0.0
 10
89.05691156214237
 20
153.3266925822705
 30
0.0
 10
89.0178749501577
 20
153.2801722417164
 30
0.0
 10
88.91797848337859
 20
153.1300298988712
 30
0.0
 10
88.875557602312
 20
153.018336691899
 30
0.0
 10
88.844600070994
 20
152.9049188725092
 30
0.0
  0
LINE
  5
F9
330
1F
100
AcDbEntity
  8
0
  6
HIDDEN
 62
     7
370
     0
100
AcDbLine
 10
92.2220991715
 20
153.4262213649
 30
0.0
 11
89.2776129558
 21
153.4262213649
 31
0.0
  0
SPLINE
  5
FA
330
1F
100
AcDbEntity
  8
0
  6
HIDDEN
 62
     7
370
     0
100
AcDbSpline
210
0.0
220
0.0
230
1.0
 70
     8
 71
     3
 72
    12
 73
     8
 74
     0
 42
0.00000001
 43
0.00000001
 12
1.0
 22
0.0
 32
0.0
 13
1.0
 23
0.0
 33
0.0
 40
0.0
 40
0.0
 40
0.0
 40
0.0
 40
0.5
 40
0.5
 40
0.75
 40
0.75
 40
1.0
 40
1.0
 40
1.0
 40
1.0
 10
92.65511184764551
 20
152.9049188725092
 30
0.0
 10
92.62438960572639
 20
153.0174746719184
 30
0.0
 10
92.58155239119128
 20
153.130232531658
 30
0.0
 10
92.48212536699144
 20
153.2797734174543
 30
0.0
 10
92.44237317217483
 20
153.3270661491612
 30
0.0
 10
92.34433171531657
 20
153.4008024424826
 30
0.0
 10
92.28477565972915
 20
153.4262217618584
 30
0.0
 10
92.22209914575333
 20
153.4262217618584
 30
0.0
  0
ELLIPSE
  5
FB
330
1F
100
AcDbEntity
  8
0
  6
HIDDEN
 62
     7
370
     0
100
AcDbEllipse
 10
76.40270177
 20
162.8142881932
 30
0.0
 11
-14.75368316065611
 21
31.09325491558116
 31
0.0
210
0.0
220
0.0
230
1.0
 40
0.3419987131
 41
3.300734856217131
 42
4.231496223360779
  0
SPLINE
  5
FC
330
1F
100
AcDbEntity
  8
0
  6
HIDDEN
 62
     7
370
     0
100
AcDbSpline
210
0.0
220
0.0
230
1.0
 70
     8
 71
     3
 72
    12
 73
     8
 74
     0
 42
0.00000001
 43
0.00000001
 12
1.0
 22
0.0
 32
0.0
 13
1.0
 23
0.0
 33
0.0
 40
0.0
 40
0.0
 40
0.0
 40
0.0
 40
0.2500000000000009
 40
0.2500000000000009
 40
0.5000000000000018
 40
0.5000000000000018
 40
1.0
 40
1.0
 40
1.0
 40
1.0
 10
92.22209914575333
 20
132.7457962343214
 30
0.0
 10
92.2851791842467
 20
132.7457962343214
 30
0.0
 10
92.3443278064281
 20
132.7537021605337
 30
0.0
 10
92.44280035649716
 20
132.77702732197
 30
0.0
 10
92.4818369684819
 20
132.7917401118017
 30
0.0
 10
92.58173343526094
 20
132.8396959125326
 30
0.0
 10
92.6241543163276
 20
132.8759580691127
 30
0.0
 10
92.65511184764554
 20
132.9135457330772
 30
0.0
  0
LINE
  5
FD
330
1F
100
AcDbEntity
  8
0
  6
HIDDEN
 62
     7
370
     0
100
AcDbLine
 10
89.2776129558
 20
132.7457956763
 30
0.0
 11
92.2220991715
 21
132.7457956763
 31
0.0
  0
SPLINE
  5
FE
330
1F
100
AcDbEntity
  8
0
  6
HIDDEN
 62
     7
370
     0
100
AcDbSpline
210
0.0
220
0.0
230
1.0
 70
     8
 71
     3
 72
    12
 73
     8
 74
     0
 42
0.00000001
 43
0.00000001
 12
1.0
 22
0.0
 32
0.0
 13
1.0
 23
0.0
 33
0.0
 40
0.0
 40
0.0
 40
0.0
 40
0.0
 40
0.4999999999999963
 40
0.4999999999999963
 40
0.7499999999999981
 40
0.7499999999999981
 40
1.0
 40
1.0
 40
1.0
 40
1.0
 10
88.84460007099399
 20
132.9135457330772
 30
0.0
 10
88.87532231291306
 20
132.8762437501242
 30
0.0
 10
88.91815952744824
 20
132.8396319180778
 30
0.0
 10
89.01758655164801
 20
132.7918671347925
 30
0.0
 10
89.0573387464647
 20
132.7769096193101
 30
0.0
 10
89.15538020332289
 20
132.753719673541
 30
0.0
 10
89.21493625891038
 20
132.7457962343214
 30
0.0
 10
89.27761277288621
 20
132.7457962343214
 30
0.0
  0
ELLIPSE
  5
FF
330
1F
100
AcDbEntity
  8
0
  6
HIDDEN
 62
     7
370
     0
100
AcDbEllipse
 10
105.0970101487
 20
162.8142881932
 30
0.0
 11
14.75368316065612
 21
31.09325491558116
 31
0.0
210
0.0
220
0.0
230
1.0
 40
0.3419987131
 41
2.05168908381882
 42
2.982450450962497
  0
SPLINE
  5
100
330
1F
100
AcDbEntity
  8
0
  6
HIDDEN
 62
     7
370
     0
100
AcDbSpline
210
0.0
220
0.0
230
1.0
 70
     8
 71
     3
 72
    12
 73
     8
 74
     0
 42
0.00000001
 43
0.00000001
 12
1.0
 22
0.0
 32
0.0
 13
1.0
 23
0.0
 33
0.0
 40
0.0
 40
0.0
 40
0.0
 40
0.0
 40
0.2499999999999996
 40
0.2499999999999996
 40
0.4999999999999991
 40
0.4999999999999991
 40
1.0
 40
1.0
 40
1.0
 40
1.0
 10
89.2776127728862
 20
192.8827801520676
 30
0.0
 10
89.21453273439283
 20
192.8827801520676
 30
0.0
 10
89.15538411221144
 20
192.8748742258552
 30
0.0
 10
89.05691156214235
 20
192.8515490644189
 30
0.0
 10
89.01787495015765
 20
192.8368362745873
 30
0.0
 10
88.91797848337859
 20
192.7888804738563
 30
0.0
 10
88.87555760231197
 20
192.7526183172763
 30
0.0
 10
88.84460007099399
 20
192.7150306533118
 30
0.0
  0
LINE
  5
101
330
1F
100
AcDbEntity
  8
0
  6
HIDDEN
 62
     7
370
     0
100
AcDbLine
 10
92.2220991715
 20
192.8827807101
 30
0.0
 11
89.2776129558
 21
192.8827807101
 31
0.0
  0
SPLINE
  5
102
330
1F
100
AcDbEntity
  8
0
  6
HIDDEN
 62
     7
370
     0
100
AcDbSpline
210
0.0
220
0.0
230
1.0
 70
     8
 71
     3
 72
    12
 73
     8
 74
     0
 42
0.00000001
 43
0.00000001
 12
1.0
 22
0.0
 32
0.0
 13
1.0
 23
0.0
 33
0.0
 40
0.0
 40
0.0
 40
0.0
 40
0.0
 40
0.5
 40
0.5
 40
0.75
 40
0.75
 40
1.0
 40
1.0
 40
1.0
 40
1.0
 10
92.65511184764554
 20
192.7150306533118
 30
0.0
 10
92.62438960572645
 20
192.7523326362648
 30
0.0
 10
92.5815523911913
 20
192.7889444683112
 30
0.0
 10
92.48212536699151
 20
192.8367092515964
 30
0.0
 10
92.44237317217485
 20
192.8516667670788
 30
0.0
 10
92.34433171531661
 20
192.8748567128479
 30
0.0
 10
92.28477565972915
 20
192.8827801520676
 30
0.0
 10
92.22209914575333
 20
192.8827801520676
 30
0.0
  0
ELLIPSE
  5
103
330
1F
100
AcDbEntity
  8
0
  6
HIDDEN
 62
     7
370
     0
100
AcDbEllipse
 10
76.40270177
 20
162.8142881932
 30
0.0
 11
14.75368316065625
 21
31.09325491558116
 31
0.0
210
0.0
220
0.0
230
1.0
 40
0.3419987131
 41
5.193281737408639
 42
6.124043104552341
  0
SPLINE
  5
104
330
1F
100
AcDbEntity
  8
0
  6
HIDDEN
 62
     7
370
     0
100
AcDbSpline
210
0.0
220
0.0
230
1.0
 70
     8
 71
     3
 72
    12
 73
     8
 74
     0
 42
0.00000001
 43
0.00000001
 12
1.0
 22
0.0
 32
0.0
 13
1.0
 23
0.0
 33
0.0
 40
0.0
 40
0.0
 40
0.0
 40
0.0
 40
0.2500000000000001
 40
0.2500000000000001
 40
0.5000000000000001
 40
0.5000000000000001
 40
1.0
 40
1.0
 40
1.0
 40
1.0
 10
92.22209914575333
 20
172.2023546245309
 30
0.0
 10
92.28517918424667
 20
172.2023546245309
 30
0.0
 10
92.34432780642807
 20
172.2277189437459
 30
0.0
 10
92.44280035649714
 20
172.3018838041188
 30
0.0
 10
92.48183696848183
 20
172.3484041446729
 30
0.0
 10
92.58173343526092
 20
172.4985464875181
 30
0.0
 10
92.62415431632755
 20
172.6102396944903
 30
0.0
 10
92.65511184764551
 20
172.72365751388
 30
0.0
  0
LINE
  5
105
330
1F
100
AcDbEntity
  8
0
  6
HIDDEN
 62
     7
370
     0
100
AcDbLine
 10
89.2776129558
 20
172.2023550214
 30
0.0
 11
92.2220991715
 21
172.2023550214
 31
0.0
  0
SPLINE
  5
106
330
1F
100
AcDbEntity
  8
0
  6
HIDDEN
 62
     7
370
     0
100
AcDbSpline
210
0.0
220
0.0
230
1.0
 70
     8
 71
     3
 72
    12
 73
     8
 74
     0
 42
0.00000001
 43
0.00000001
 12
1.0
 22
0.0
 32
0.0
 13
1.0
 23
0.0
 33
0.0
 40
0.0
 40
0.0
 40
0.0
 40
0.0
 40
0.4999999999999971
 40
0.4999999999999971
 40
0.7499999999999986
 40
0.7499999999999986
 40
1.0
 40
1.0
 40
1.0
 40
1.0
 10
88.844600070994
 20
172.72365751388
 30
0.0
 10
88.8753223129131
 20
172.6111017144708
 30
0.0
 10
88.91815952744827
 20
172.4983438547312
 30
0.0
 10
89.01758655164807
 20
172.3488029689349
 30
0.0
 10
89.05733874646472
 20
172.3015102372281
 30
0.0
 10
89.15538020332295
 20
172.2277739439066
 30
0.0
 10
89.21493625891036
 20
172.2023546245309
 30
0.0
 10
89.2776127728862
 20
172.2023546245309
 30
0.0
  0
ELLIPSE
  5
107
330
1F
100
AcDbEntity
  8
0
  6
HIDDEN
 62
     7
370
     0
100
AcDbEllipse
 10
105.0970101487
 20
162.8142881932
 30
0.0
 11
-14.75368316065624
 21
31.09325491558116
 31
0.0
210
0.0
220
0.0
230
1.0
 40
0.3419987131
 41
0.1591422026272868
 42
1.089903569770961
  0
LINE
  5
108
330
1F
100
AcDbEntity
  8
0
  6
HIDDEN
 62
     7
370
     0
100
AcDbLine
 10
100.7498558401
 20
132.3142878505
 30
0.0
 11
100.7498558401
 21
193.3142885359
 31
0.0
  0
LINE
  5
109
330
1F
100
AcDbEntity
  8
0
  6
HIDDEN
 62
     7
370
     0
100
AcDbLine
 10
78.7498559593
 20
193.8142876866
 30
0.0
 11
78.7498559593
 21
131.8142886998
 31
0.0
  0
LINE
  5
10A
330
1F
100
AcDbEntity
  8
0
  6
HIDDEN
 62
     7
370
     0
100
AcDbLine
 10
78.7498559593
 20
138.5642874779
 30
0.0
 11
78.7498559593
 21
187.0341438594
 31
0.0
  0
SPLINE
  5
10B
330
1F
100
AcDbEntity
  8
0
  6
HIDDEN
 62
     7
370
     0
100
AcDbSpline
210
0.0
220
0.0
230
1.0
 70
     8
 71
     3
 72
    12
 73
     8
 74
     0
 42
0.00000001
 43
0.00000001
 12
1.0
 22
0.0
 32
0.0
 13
1.0
 23
0.0
 33
0.0
 40
0.0
 40
0.0
 40
0.0
 40
0.0
 40
0.5000000000000002
 40
0.5000000000000002
 40
0.7500000000000003
 40
0.7500000000000003
 40
1.0
 40
1.0
 40
1.0
 40
1.0
 10
77.93334367287278
 20
178.2665561750253
 30
0.0
 10
77.98974985155301
 20
178.2187338013655
 30
0.0
 10
78.05991275302478
 20
178.1784629544269
 30
0.0
 10
78.17792346641396
 20
178.17041708595
 30
0.0
 10
78.21812925000943
 20
178.1769796842888
 30
0.0
 10
78.29184994674249
 20
178.2043617787424
 30
0.0
 10
78.324710668529
 20
178.2241232692728
 30
0.0
 10
78.35487907045825
 20
178.2470559804608
 30
0.0
  0
SPLINE
  5
10C
330
1F
100
AcDbEntity
  8
0
  6
HIDDEN
 62
     7
370
     0
100
AcDbSpline
210
0.0
220
0.0
230
1.0
 70
     8
 71
     3
 72
    16
 73
    12
 74
     0
 42
0.00000001
 43
0.00000001
 12
1.0
 22
0.0
 32
0.0
 13
1.0
 23
0.0
 33
0.0
 40
0.0
 40
0.0
 40
0.0
 40
0.0
 40
0.0625000000000046
 40
0.0625000000000046
 40
0.1250000000000092
 40
0.1250000000000092
 40
0.25000000000001
 40
0.25000000000001
 40
0.5000000000000118
 40
0.5000000000000118
 40
1.0
 40
1.0
 40
1.0
 40
1.0
 10
78.35487907041312
 20
178.2470559805089
 30
0.0
 10
78.36649197025247
 20
178.2558836034903
 30
0.0
 10
78.37984315468493
 20
178.2637179853722
 30
0.0
 10
78.40924299430411
 20
178.2720281114446
 30
0.0
 10
78.42408371885939
 20
178.2715322922096
 30
0.0
 10
78.45991692682801
 20
178.2600813212402
 30
0.0
 10
78.47403013464962
 20
178.2434008203816
 30
0.0
 10
78.50852150586853
 20
178.1912801346245
 30
0.0
 10
78.51960557697893
 20
178.1514906405995
 30
0.0
 10
78.54572839477493
 20
178.0281540085024
 30
0.0
 10
78.5498559593198
 20
177.9407325980038
 30
0.0
 10
78.5498559593198
 20
177.8519953556855
 30
0.0
  0
LINE
  5
10D
330
1F
100
AcDbEntity
  8
0
  6
HIDDEN
 62
     7
370
     0
100
AcDbLine
 10
78.5498559644
 20
147.7765811401
 30
0.0
 11
78.5498559644
 21
177.8519952463
 31
0.0
  0
SPLINE
  5
10E
330
1F
100
AcDbEntity
  8
0
  6
HIDDEN
 62
     7
370
     0
100
AcDbSpline
210
0.0
220
0.0
230
1.0
 70
     8
 71
     3
 72
    16
 73
    12
 74
     0
 42
0.00000001
 43
0.00000001
 12
1.0
 22
0.0
 32
0.0
 13
1.0
 23
0.0
 33
0.0
 40
0.0
 40
0.0
 40
0.0
 40
0.0
 40
0.4999999999999964
 40
0.4999999999999964
 40
0.7499999999999922
 40
0.7499999999999922
 40
0.8749999999999921
 40
0.8749999999999921
 40
0.9374999999999961
 40
0.9374999999999961
 40
1.0
 40
1.0
 40
1.0
 40
1.0
 10
78.5498559593198
 20
147.7765810307033
 30
0.0
 10
78.5498559593198
 20
147.6874546655145
 30
0.0
 10
78.54570968424186
 20
147.6005932979011
 30
0.0
 10
78.51974408884831
 20
147.4776110514071
 30
0.0
 10
78.50828318347087
 20
147.4368397561757
 30
0.0
 10
78.47397144569652
 20
147.385135436176
 30
0.0
 10
78.4599467097669
 20
147.3684650695856
 30
0.0
 10
78.42392374673308
 20
147.3570128491289
 30
0.0
 10
78.40916923764345
 20
147.3565598028538
 30
0.0
 10
78.37981707649655
 20
147.36487512407
 30
0.0
 10
78.36647720199248
 20
147.3727040091483
 30
0.0
 10
78.35487907044416
 20
147.3815204059109
 30
0.0
  0
SPLINE
  5
10F
330
1F
100
AcDbEntity
  8
0
  6
HIDDEN
 62
     7
370
     0
100
AcDbSpline
210
0.0
220
0.0
230
1.0
 70
     8
 71
     3
 72
    12
 73
     8
 74
     0
 42
0.00000001
 43
0.00000001
 12
1.0
 22
0.0
 32
0.0
 13
1.0
 23
0.0
 33
0.0
 40
0.0
 40
0.0
 40
0.0
 40
0.0
 40
0.2499999999999996
 40
0.2499999999999996
 40
0.4999999999999994
 40
0.4999999999999994
 40
1.0
 40
1.0
 40
1.0
 40
1.0
 10
78.3548790704512
 20
147.3815204059198
 30
0.0
 10
78.32468722873399
 20
147.4044709350176
 30
0.0
 10
78.29132825931939
 20
147.4244404090418
 30
0.0
 10
78.2181909747388
 20
147.4515415426673
 30
0.0
 10
78.17794910208485
 20
147.4581422833127
 30
0.0
 10
78.06024332511632
 20
147.450173408806
 30
0.0
 10
77.98983284733697
 20
147.4099129506382
 30
0.0
 10
77.93334367286866
 20
147.36202021136
 30
0.0
  0
SPLINE
  5
110
330
1F
100
AcDbEntity
  8
0
  6
HIDDEN
 62
     7
370
     0
100
AcDbSpline
210
0.0
220
0.0
230
1.0
 70
     8
 71
     3
 72
    12
 73
     8
 74
     0
 42
0.00000001
 43
0.00000001
 12
1.0
 22
0.0
 32
0.0
 13
1.0
 23
0.0
 33
0.0
 40
0.0
 40
0.0
 40
0.0
 40
0.0
 40
0.2499999999999971
 40
0.2499999999999971
 40
0.4999999999999969
 40
0.4999999999999969
 40
1.0
 40
1.0
 40
1.0
 40
1.0
 10
77.93334367286835
 20
147.3620202113602
 30
0.0
 10
77.84518973513057
 20
147.2872814035061
 30
0.0
 10
77.78483631050183
 20
147.1963009030238
 30
0.0
 10
77.67857435243498
 20
147.0073870802711
 30
0.0
 10
77.63634218587292
 20
146.9108826207306
 30
0.0
 10
77.52527149055574
 20
146.6201148665634
 30
0.0
 10
77.47233471412895
 20
146.4244480520197
 30
0.0
 10
77.42853561576015
 20
146.2303815669534
 30
0.0
  0
SPLINE
  5
111
330
1F
100
AcDbEntity
  8
0
  6
HIDDEN
 62
     7
370
     0
100
AcDbSpline
210
0.0
220
0.0
230
1.0
 70
     8
 71
     3
 72
    12
 73
     8
 74
     0
 42
0.00000001
 43
0.00000001
 12
1.0
 22
0.0
 32
0.0
 13
1.0
 23
0.0
 33
0.0
 40
0.0
 40
0.0
 40
0.0
 40
0.0
 40
0.4999999999999998
 40
0.4999999999999998
 40
0.7499999999999999
 40
0.7499999999999999
 40
1.0
 40
1.0
 40
1.0
 40
1.0
 10
77.42853561576015
 20
141.0442072381923
 30
0.0
 10
77.47228215659675
 20
141.0176130675511
 30
0.0
 10
77.52516651182825
 20
140.9978528422254
 30
0.0
 10
77.63673359916444
 20
140.9774018519963
 30
0.0
 10
77.67931719570741
 20
140.9721416273399
 30
0.0
 10
77.78423392278921
 20
140.9642588334172
 30
0.0
 10
77.84576753063399
 20
140.9616947082381
 30
0.0
 10
77.93334367286016
 20
140.9594944907184
 30
0.0
  0
LINE
  5
112
330
1F
100
AcDbEntity
  8
0
  6
HIDDEN
 62
     7
370
     0
100
AcDbLine
 10
78.5498559644
 20
140.2744676711
 30
0.0
 11
78.5498559644
 21
140.7546929809
 31
0.0
  0
LINE
  5
113
330
1F
100
AcDbEntity
  8
0
  6
HIDDEN
 62
     7
370
     0
100
AcDbLine
 10
78.5498559644
 20
184.8738834055
 30
0.0
 11
78.5498559644
 21
185.3541087153
 31
0.0
  0
SPLINE
  5
114
330
1F
100
AcDbEntity
  8
0
  6
HIDDEN
 62
     7
370
     0
100
AcDbSpline
210
0.0
220
0.0
230
1.0
 70
     8
 71
     3
 72
    12
 73
     8
 74
     0
 42
0.00000001
 43
0.00000001
 12
1.0
 22
0.0
 32
0.0
 13
1.0
 23
0.0
 33
0.0
 40
0.0
 40
0.0
 40
0.0
 40
0.0
 40
0.2500000000000001
 40
0.2500000000000001
 40
0.5
 40
0.5
 40
1.0
 40
1.0
 40
1.0
 40
1.0
 10
77.93334367286809
 20
184.6690818956703
 30
0.0
 10
77.84465901301174
 20
184.6668538283293
 30
0.0
 10
77.78474059728835
 20
184.664352044299
 30
0.0
 10
77.6790813699676
 20
184.656420608463
 30
0.0
 10
77.63644013185265
 20
184.6511284535661
 30
0.0
 10
77.5252507897501
 20
184.630723513079
 30
0.0
 10
77.47232410762913
 20
184.6109888214921
 30
0.0
 10
77.42853561576015
 20
184.5843691481965
 30
0.0
  0
SPLINE
  5
115
330
1F
100
AcDbEntity
  8
0
  6
HIDDEN
 62
     7
370
     0
100
AcDbSpline
210
0.0
220
0.0
230
1.0
 70
     8
 71
     3
 72
    12
 73
     8
 74
     0
 42
0.00000001
 43
0.00000001
 12
1.0
 22
0.0
 32
0.0
 13
1.0
 23
0.0
 33
0.0
 40
0.0
 40
0.0
 40
0.0
 40
0.0
 40
0.4999999999999987
 40
0.4999999999999987
 40
0.749999999999998
 40
0.749999999999998
 40
1.0
 40
1.0
 40
1.0
 40
1.0
 10
77.42853561575858
 20
179.3981948194357
 30
0.0
 10
77.47229709205733
 20
179.2042950314736
 30
0.0
 10
77.52520340771035
 20
179.0084386675368
 30
0.0
 10
77.63691460535773
 20
178.7162965210378
 30
0.0
 10
77.67943404894412
 20
178.6195785843398
 30
0.0
 10
77.78455739151153
 20
178.4328541479154
 30
0.0
 10
77.8461233552292
 20
178.3405034396457
 30
0.0
 10
77.93334367287196
 20
178.266556175026
 30
0.0
  0
LINE
  5
116
330
1F
100
AcDbEntity
  8
0
  6
HIDDEN
 62
     7
370
     0
100
AcDbLine
 10
100.7498558401
 20
186.806828508
 30
0.0
 11
100.7498558401
 21
138.8217478784
 31
0.0
  0
LINE
  5
117
330
1F
100
AcDbEntity
  8
0
  6
HIDDEN
 62
     7
370
     0
100
AcDbLine
 10
78.5498559644
 20
140.7546929809
 30
0.0
 11
78.5498559644
 21
155.7924009653
 31
0.0
  0
LINE
  5
118
330
1F
100
AcDbEntity
  8
0
  6
HIDDEN
 62
     7
370
     0
100
AcDbLine
 10
78.5498559644
 20
169.8361754211
 30
0.0
 11
78.5498559644
 21
184.8738834055
 31
0.0
  0
SPLINE
  5
119
330
1F
100
AcDbEntity
  8
0
  6
HIDDEN
 62
     7
370
     0
100
AcDbSpline
210
0.0
220
0.0
230
1.0
 70
     8
 71
     3
 72
    70
 73
    66
 74
     0
 42
0.00000001
 43
0.00000001
 12
1.0
 22
0.0
 32
0.0
 13
1.0
 23
0.0
 33
0.0
 40
-0.03125
 40
-0.03125
 40
0.0
 40
0.0
 40
0.0312500000000001
 40
0.0312500000000001
 40
0.0625000000000001
 40
0.0625000000000001
 40
0.0937500000000002
 40
0.0937500000000002
 40
0.1250000000000002
 40
0.1250000000000002
 40
0.1562500000000003
 40
0.1562500000000003
 40
0.1875000000000003
 40
0.1875000000000003
 40
0.2187500000000003
 40
0.2187500000000003
 40
0.2500000000000003
 40
0.2500000000000003
 40
0.2812500000000003
 40
0.2812500000000003
 40
0.3125000000000004
 40
0.3125000000000004
 40
0.3437500000000004
 40
0.3437500000000004
 40
0.3750000000000004
 40
0.3750000000000004
 40
0.4062500000000004
 40
0.4062500000000004
 40
0.4375000000000004
 40
0.4375000000000004
 40
0.4687500000000005
 40
0.4687500000000005
 40
0.5000000000000004
 40
0.5000000000000004
 40
0.5312500000000006
 40
0.5312500000000006
 40
0.5625000000000004
 40
0.5625000000000004
 40
0.5937500000000004
 40
0.5937500000000004
 40
0.6250000000000004
 40
0.6250000000000004
 40
0.6562500000000003
 40
0.6562500000000003
 40
0.6875000000000003
 40
0.6875000000000003
 40
0.7187500000000003
 40
0.7187500000000003
 40
0.7500000000000002
 40
0.7500000000000002
 40
0.7812500000000002
 40
0.7812500000000002
 40
0.8125000000000002
 40
0.8125000000000002
 40
0.8437500000000002
 40
0.8437500000000002
 40
0.8750000000000001
 40
0.8750000000000001
 40
0.9062500000000001
 40
0.9062500000000001
 40
0.9375000000000001
 40
0.9375000000000001
 40
0.96875
 40
0.96875
 40
1.0
 40
1.0
 40
1.03125
 40
1.03125
 10
217.7498559593195
 20
162.6157940414062
 30
0.0
 10
217.7498559593195
 20
163.0127823449826
 30
0.0
 10
217.7303506696575
 20
163.2079040477695
 30
0.0
 10
217.6539772259306
 20
163.5916953118542
 30
0.0
 10
217.5961618419298
 20
163.7823747835577
 30
0.0
 10
217.4454836490924
 20
164.1455433084721
 30
0.0
 10
217.3533187550148
 20
164.3177445972142
 30
0.0
 10
217.1356216309513
 20
164.6436383093344
 30
0.0
 10
217.0090968653712
 20
164.7977212592904
 30
0.0
 10
216.7327441737685
 20
165.0740073191609
 30
0.0
 10
216.5819035563849
 20
165.1980862234034
 30
0.0
 10
216.2540820968497
 20
165.4174007865933
 30
0.0
 10
216.0798986003533
 20
165.5104229510192
 30
0.0
 10
215.7190498221404
 20
165.6601306546791
 30
0.0
 10
215.5297094526341
 20
165.7178775675962
 30
0.0
 10
215.1423403017633
 20
165.7950529888652
 30
0.0
 10
214.947509077136
 20
165.8141766467188
 30
0.0
 10
214.5556035975326
 20
165.8143987759082
 30
0.0
 10
214.3565226502529
 20
165.7948598013257
 30
0.0
 10
213.9715579177899
 20
165.7182114638355
 30
0.0
 10
213.7844192686823
 20
165.6615032491406
 30
0.0
 10
213.4208693225614
 20
165.5110447817195
 30
0.0
 10
213.2455994761695
 20
165.4172378577072
 30
0.0
 10
212.9208526345774
 20
165.200264169848
 30
0.0
 10
212.7690842138435
 20
165.0760623606081
 30
0.0
 10
212.489421845704
 20
164.7965890558434
 30
0.0
 10
212.3654924198267
 20
164.6453940879709
 30
0.0
 10
212.1482229162807
 20
164.3208218953452
 30
0.0
 10
212.0541253422925
 20
164.1453196732222
 30
0.0
 10
211.9035433567229
 20
163.7823341263514
 30
0.0
 10
211.8466712025865
 20
163.5953462930658
 30
0.0
 10
211.7696467445435
 20
163.210377227714
 30
0.0
 10
211.7499314906315
 20
163.0113588610852
 30
0.0
 10
211.7497808712863
 20
162.6195238942601
 30
0.0
 10
211.7687117917653
 20
162.4246073672945
 30
0.0
 10
211.8456130178409
 20
162.0368278207714
 30
0.0
 10
211.9031068404585
 20
161.8477407090496
 30
0.0
 10
212.0525659232416
 20
161.4865754810018
 30
0.0
 10
212.145785941153
 20
161.3117589821842
 30
0.0
 10
212.3645266852644
 20
160.9842666239804
 30
0.0
 10
212.4884136569986
 20
160.8333500576377
 30
0.0
 10
212.7646951312978
 20
160.556551789068
 30
0.0
 10
212.918793384703
 20
160.4298558422782
 30
0.0
 10
213.244122893588
 20
160.2121591181829
 30
0.0
 10
213.4161991706485
 20
160.1198354586053
 30
0.0
 10
213.7795573296149
 20
159.9687238312274
 30
0.0
 10
213.9698968473664
 20
159.910856666383
 30
0.0
 10
214.3534618076933
 20
159.8341669668417
 30
0.0
 10
214.5490174309409
 20
159.8144573861527
 30
0.0
 10
214.9456076834464
 20
159.8141211565347
 30
0.0
 10
215.1406835687705
 20
159.8334229615954
 30
0.0
 10
215.5246529552629
 20
159.9094657606966
 30
0.0
 10
215.7155743253443
 20
159.9671874535147
 30
0.0
 10
216.0786197944275
 20
160.1174416542027
 30
0.0
 10
216.2509179487882
 20
160.2094332516473
 30
0.0
 10
216.5772421985211
 20
160.4270060784232
 30
0.0
 10
216.7313162028247
 20
160.5533229076459
 30
0.0
 10
217.0077499150904
 20
160.8293288476306
 30
0.0
 10
217.1320302284629
 20
160.9801042794061
 30
0.0
 10
217.3518751440846
 20
161.3081404447039
 30
0.0
 10
217.4447935646579
 20
161.4818192505514
 30
0.0
 10
217.5948361106178
 20
161.842562862407
 30
0.0
 10
217.6528026288285
 20
162.03200179511
 30
0.0
 10
217.7303480603535
 20
162.419651385085
 30
0.0
 10
217.7498559593195
 20
162.6157940414062
 30
0.0
 10
217.7498559593195
 20
163.0127823449826
 30
0.0
  0
LWPOLYLINE
  5
11A
330
1F
100
AcDbEntity
  8
0
  6
HIDDEN
 62
     7
370
     0
100
AcDbPolyline
 90
       21
 70
   128
 43
0.0
 10
214.2750974535
 20
165.8812803475
 10
214.3743242859
 20
165.6742592136
 10
214.3334951042
 20
165.2803877628
 10
214.1566034197
 20
164.7382213528
 10
213.8609643816
 20
164.1008307019
 10
213.475516045
 20
163.4306081364
 10
213.03798815
 20
162.7931597327
 10
212.5912215351
 20
162.2508833211
 10
212.178921306
 20
161.8568607632
 10
211.8414845108
 20
161.6496616302
 10
211.6119023203
 20
161.6495681487
 10
211.5126754879
 20
161.8565893991
 10
211.5535046696
 20
162.2504607335
 10
211.7304112553
 20
162.7926271981
 10
212.0260502933
 20
163.4300178525
 10
212.41149863
 20
164.1002403598
 10
212.8490116238
 20
164.7376888691
 10
213.2957931398
 20
165.2799651752
 10
213.7080784678
 20
165.673987733
 10
214.0455301641
 20
165.8811869825
 10
214.2750974535
 20
165.8812803475
  0
SPLINE
  5
11B
330
1F
100
AcDbEntity
  8
0
  6
HIDDEN
 62
     7
370
     0
100
AcDbSpline
210
0.0
220
0.0
230
1.0
 70
     8
 71
     3
 72
    82
 73
    78
 74
     0
 42
0.00000001
 43
0.00000001
 12
1.0
 22
0.0
 32
0.0
 13
1.0
 23
0.0
 33
0.0
 40
0.0
 40
0.0
 40
0.0
 40
0.0
 40
0.0156249999999991
 40
0.0156249999999991
 40
0.0312499999999981
 40
0.0312499999999981
 40
0.046874999999997
 40
0.046874999999997
 40
0.0624999999999958
 40
0.0624999999999958
 40
0.0937499999999931
 40
0.0937499999999931
 40
0.1249999999999905
 40
0.1249999999999905
 40
0.1874999999999861
 40
0.1874999999999861
 40
0.2187499999999839
 40
0.2187499999999839
 40
0.2499999999999817
 40
0.2499999999999817
 40
0.2812499999999795
 40
0.2812499999999795
 40
0.2968749999999793
 40
0.2968749999999793
 40
0.3124999999999792
 40
0.3124999999999792
 40
0.3437499999999789
 40
0.3437499999999789
 40
0.3749999999999786
 40
0.3749999999999786
 40
0.4062499999999783
 40
0.4062499999999783
 40
0.437499999999978
 40
0.437499999999978
 40
0.4687499999999777
 40
0.4687499999999777
 40
0.4999999999999774
 40
0.4999999999999774
 40
0.531249999999977
 40
0.531249999999977
 40
0.5468749999999769
 40
0.5468749999999769
 40
0.5624999999999767
 40
0.5624999999999767
 40
0.5781249999999766
 40
0.5781249999999766
 40
0.5937499999999765
 40
0.5937499999999765
 40
0.6249999999999787
 40
0.6249999999999787
 40
0.6562499999999808
 40
0.6562499999999808
 40
0.687499999999983
 40
0.687499999999983
 40
0.7187499999999852
 40
0.7187499999999852
 40
0.7499999999999875
 40
0.7499999999999875
 40
0.7812499999999898
 40
0.7812499999999898
 40
0.812499999999992
 40
0.812499999999992
 40
0.8437499999999942
 40
0.8437499999999942
 40
0.8749999999999964
 40
0.8749999999999964
 40
0.9062499999999987
 40
0.9062499999999987
 40
0.937500000000001
 40
0.937500000000001
 40
0.9531250000000008
 40
0.9531250000000008
 40
0.9687500000000006
 40
0.9687500000000006
 40
0.9843750000000002
 40
0.9843750000000002
 40
1.0
 40
1.0
 40
1.0
 40
1.0
 10
216.9780284065538
 20
163.9479757804008
 30
0.0
 10
216.9468786687462
 20
164.0091981032918
 30
0.0
 10
216.9148229731495
 20
164.0658757533797
 30
0.0
 10
216.8527086783897
 20
164.1676410790602
 30
0.0
 10
216.822390162563
 20
164.2130338617135
 30
0.0
 10
216.772538612894
 20
164.2842005551208
 30
0.0
 10
216.7528351745557
 20
164.310392263752
 30
0.0
 10
216.7336313535625
 20
164.3357638952032
 30
0.0
 10
216.7340433349582
 20
164.3352122125956
 30
0.0
 10
216.7602544477602
 20
164.3006043020397
 30
0.0
 10
216.8063167847623
 20
164.2387591443712
 30
0.0
 10
216.9036967263465
 20
164.0867340928775
 30
0.0
 10
216.9557841404321
 20
163.9959642782858
 30
0.0
 10
217.1006789160002
 20
163.6938002553929
 30
0.0
 10
217.1840421380803
 20
163.4491289778398
 30
0.0
 10
217.2441300541164
 20
163.0337603638817
 30
0.0
 10
217.2537998363852
 20
162.8866669700511
 30
0.0
 10
217.2429830797898
 20
162.5707911952462
 30
0.0
 10
217.2227258705724
 20
162.406972838723
 30
0.0
 10
217.1412416069125
 20
162.0644441557743
 30
0.0
 10
217.0800968726781
 20
161.8885305212412
 30
0.0
 10
216.9532125836576
 20
161.6291797250134
 30
0.0
 10
216.9048531999937
 20
161.5432843293694
 30
0.0
 10
216.7995689287044
 20
161.3796660574713
 30
0.0
 10
216.7422053737646
 20
161.3009770769859
 30
0.0
 10
216.5557222159548
 20
161.0744278660814
 30
0.0
 10
216.4167075385591
 20
160.941919677215
 30
0.0
 10
216.1232523524352
 20
160.7171614935836
 30
0.0
 10
215.9743002448433
 20
160.6282697633465
 30
0.0
 10
215.6723813163071
 20
160.4847201324369
 30
0.0
 10
215.5202287654099
 20
160.4310080573495
 30
0.0
 10
215.2232819837391
 20
160.3547422461386
 30
0.0
 10
215.0767940527441
 20
160.3314508649258
 30
0.0
 10
214.7851948127112
 20
160.3102672505869
 30
0.0
 10
214.6410189114121
 20
160.3125705630152
 30
0.0
 10
214.3565511035645
 20
160.3412843730223
 30
0.0
 10
214.2157520212988
 20
160.3674187344101
 30
0.0
 10
213.9274079195993
 20
160.4486981215842
 30
0.0
 10
213.7807194146658
 20
160.5031126512305
 30
0.0
 10
213.5458295498772
 20
160.6215707211169
 30
0.0
 10
213.4658953950856
 20
160.6670471927345
 30
0.0
 10
213.3051586283399
 20
160.7717289489069
 30
0.0
 10
213.2250634711009
 20
160.8307271381096
 30
0.0
 10
213.0752094522686
 20
160.9555074993526
 30
0.0
 10
213.004269040543
 20
161.0221700428232
 30
0.0
 10
212.8751486071668
 20
161.157715375695
 30
0.0
 10
212.815827598494
 20
161.2275304041001
 30
0.0
 10
212.6506029501825
 20
161.4445434247993
 30
0.0
 10
212.5601099208278
 20
161.5953889274928
 30
0.0
 10
212.4114908312851
 20
161.9127607887243
 30
0.0
 10
212.3529581451873
 20
162.0816127399087
 30
0.0
 10
212.2731172397422
 20
162.429973522403
 30
0.0
 10
212.2515601554537
 20
162.6084579747475
 30
0.0
 10
212.2483428929286
 20
162.9764004417
 30
0.0
 10
212.2676184120567
 20
163.1678339162373
 30
0.0
 10
212.3501614302768
 20
163.5408994968541
 30
0.0
 10
212.4146899669911
 20
163.7280255008112
 30
0.0
 10
212.5843324463218
 20
164.0785761325942
 30
0.0
 10
212.6896804133841
 20
164.2437127092949
 30
0.0
 10
212.9346557367559
 20
164.5442089657457
 30
0.0
 10
213.0703396870761
 20
164.6754519524411
 30
0.0
 10
213.3647361032134
 20
164.9038212586624
 30
0.0
 10
213.5183418785966
 20
164.9968775271195
 30
0.0
 10
213.8328188302913
 20
165.1465330421685
 30
0.0
 10
213.9930019562506
 20
165.2024074227116
 30
0.0
 10
214.3056978988801
 20
165.2797830834138
 30
0.0
 10
214.4612378200318
 20
165.301872810466
 30
0.0
 10
214.7531834358984
 20
165.3185578644383
 30
0.0
 10
214.8908718182897
 20
165.3131192163347
 30
0.0
 10
215.0676644004971
 20
165.2947132139095
 30
0.0
 10
215.1203914353033
 20
165.2870438795587
 30
0.0
 10
215.2044802061034
 20
165.2729736178972
 30
0.0
 10
215.2352985152455
 20
165.2667479640743
 30
0.0
 10
215.2639254327183
 20
165.2609074891634
 30
0.0
 10
215.2617858232834
 20
165.26136121092
 30
0.0
 10
215.2315123952066
 20
165.2674994799505
 30
0.0
 10
215.2038908366062
 20
165.2729642552241
 30
0.0
 10
215.1692371852565
 20
165.2788610542257
 30
0.0
  0
SPLINE
  5
11C
330
1F
100
AcDbEntity
  8
0
  6
HIDDEN
 62
     7
370
     0
100
AcDbSpline
210
0.0
220
0.0
230
1.0
 70
     8
 71
     3
 72
    10
 73
     6
 74
     0
 42
0.00000001
 43
0.00000001
 12
1.0
 22
0.0
 32
0.0
 13
1.0
 23
0.0
 33
0.0
 40
0.0
 40
0.0
 40
0.0
 40
0.0
 40
0.5
 40
0.5
 40
1.0
 40
1.0
 40
1.0
 40
1.0
 10
215.1692371852564
 20
165.2788610542256
 30
0.0
 10
215.4718302452112
 20
165.0585797703283
 30
0.0
 10
215.7674986121654
 20
164.8288867753656
 30
0.0
 10
216.3650571262888
 20
164.3779571311138
 30
0.0
 10
216.6680398651804
 20
164.1582054801635
 30
0.0
 10
216.9780284065539
 20
163.9479757804009
 30
0.0
  0
CIRCLE
  5
11D
330
1F
100
AcDbEntity
  8
0
  6
HIDDEN
 62
     7
370
     0
100
AcDbCircle
 10
63.2498559593
 20
162.8142881932
 30
0.0
 40
4.049999999999983
  0
ARC
  5
11E
330
1F
100
AcDbEntity
  8
0
  6
HIDDEN
 62
     7
370
     0
100
AcDbCircle
 10
214.7498559593
 20
162.8142881932
 30
0.0
 40
2.499999999999987
100
AcDbArc
 50
26.966858143
 51
80.3428302716
  0
LINE
  5
11F
330
1F
100
AcDbEntity
  8
0
  6
HIDDEN
 62
     7
370
     0
100
AcDbLine
 10
42.2800835012
 20
178.1272392513
 30
0.0
 11
42.2800835012
 21
147.501337135
 31
0.0
  0
LINE
  5
120
330
1F
100
AcDbEntity
  8
0
  6
HIDDEN
 62
     7
370
     0
100
AcDbLine
 10
40.7498571812
 20
146.6178584637
 30
0.0
 11
40.7498571812
 21
178.9799973162
 31
0.0
  0
LINE
  5
121
330
1F
100
AcDbEntity
  8
0
  6
HIDDEN
 62
     7
370
     0
100
AcDbLine
 10
48.7800836354
 20
177.1606987136
 30
0.0
 11
48.7800836354
 21
148.4678776728
 31
0.0
  0
LINE
  5
122
330
1F
100
AcDbEntity
  8
0
  6
HIDDEN
 62
     7
370
     0
100
AcDbLine
 10
54.5800849586
 20
176.8142886253
 30
0.0
 11
54.5800849586
 21
148.8142877611
 31
0.0
  0
LINE
  5
123
330
1F
100
AcDbEntity
  8
0
  6
HIDDEN
 62
     7
370
     0
100
AcDbLine
 10
47.1800844907
 20
176.8142886253
 30
0.0
 11
47.1800844907
 21
148.8142877611
 31
0.0
  0
LINE
  5
124
330
1F
100
AcDbEntity
  8
0
  6
HIDDEN
 62
     7
370
     0
100
AcDbLine
 10
48.1800846546
 20
176.8142886253
 30
0.0
 11
48.1800846546
 21
148.8142877611
 31
0.0
  0
SPLINE
  5
125
330
1F
100
AcDbEntity
  8
0
  6
HIDDEN
 62
     7
370
     0
100
AcDbSpline
210
0.0
220
0.0
230
1.0
 70
     8
 71
     3
 72
    10
 73
     6
 74
     0
 42
0.00000001
 43
0.00000001
 12
1.0
 22
0.0
 32
0.0
 13
1.0
 23
0.0
 33
0.0
 40
0.0
 40
0.0
 40
0.0
 40
0.0
 40
0.5
 40
0.5
 40
1.0
 40
1.0
 40
1.0
 40
1.0
 10
67.24985595931985
 20
163.4487170702169
 30
0.0
 10
67.28300337739628
 20
163.2397264692089
 30
0.0
 10
67.29986222275794
 20
163.0281640031873
 30
0.0
 10
67.29984969241026
 20
162.6001752372197
 30
0.0
 10
67.28293473466988
 20
162.388417132804
 30
0.0
 10
67.24985595931985
 20
162.1798593161719
 30
0.0
  0
LINE
  5
126
330
1F
100
AcDbEntity
  8
0
  6
HIDDEN
 62
     7
370
     0
100
AcDbLine
 10
67.7498560189
 20
176.314287612
 30
0.0
 11
67.7498560189
 21
149.314287843
 31
0.0
  0
SPLINE
  5
127
330
1F
100
AcDbEntity
  8
0
  6
HIDDEN
 62
     7
370
     0
100
AcDbSpline
210
0.0
220
0.0
230
1.0
 70
     8
 71
     3
 72
    10
 73
     6
 74
     0
 42
0.00000001
 43
0.00000001
 12
1.0
 22
0.0
 32
0.0
 13
1.0
 23
0.0
 33
0.0
 40
0.0
 40
0.0
 40
0.0
 40
0.0
 40
0.5
 40
0.5
 40
1.0
 40
1.0
 40
1.0
 40
1.0
 10
67.24985595931985
 20
162.1798593161719
 30
0.0
 10
67.28304492179355
 20
162.3891118497544
 30
0.0
 10
67.29974569804821
 20
162.5999286106533
 30
0.0
 10
67.29996513849287
 20
163.0244608918566
 30
0.0
 10
67.28308542309946
 20
163.2392091806292
 30
0.0
 10
67.24985595931985
 20
163.4487170702169
 30
0.0
  0
SPLINE
  5
128
330
1F
100
AcDbEntity
  8
0
  6
HIDDEN
 62
     7
370
     0
100
AcDbSpline
210
0.0
220
0.0
230
1.0
 70
     8
 71
     3
 72
    68
 73
    64
 74
     0
 42
0.00000001
 43
0.00000001
 12
1.0
 22
0.0
 32
0.0
 13
1.0
 23
0.0
 33
0.0
 40
0.0
 40
0.0
 40
0.0
 40
0.0
 40
0.0312499999999999
 40
0.0312499999999999
 40
0.0624999999999999
 40
0.0624999999999999
 40
0.0937499999999998
 40
0.0937499999999998
 40
0.1249999999999998
 40
0.1249999999999998
 40
0.1562499999999997
 40
0.1562499999999997
 40
0.1874999999999996
 40
0.1874999999999996
 40
0.2187499999999996
 40
0.2187499999999996
 40
0.2499999999999995
 40
0.2499999999999995
 40
0.2812499999999997
 40
0.2812499999999997
 40
0.3124999999999998
 40
0.3124999999999998
 40
0.34375
 40
0.34375
 40
0.3750000000000001
 40
0.3750000000000001
 40
0.4062500000000003
 40
0.4062500000000003
 40
0.4375000000000005
 40
0.4375000000000005
 40
0.4687500000000007
 40
0.4687500000000007
 40
0.5000000000000009
 40
0.5000000000000009
 40
0.5625000000000013
 40
0.5625000000000013
 40
0.5937500000000014
 40
0.5937500000000014
 40
0.6250000000000017
 40
0.6250000000000017
 40
0.6562500000000018
 40
0.6562500000000018
 40
0.687500000000002
 40
0.687500000000002
 40
0.7187500000000021
 40
0.7187500000000021
 40
0.7500000000000022
 40
0.7500000000000022
 40
0.781250000000002
 40
0.781250000000002
 40
0.8125000000000017
 40
0.8125000000000017
 40
0.8437500000000014
 40
0.8437500000000014
 40
0.8750000000000011
 40
0.8750000000000011
 40
0.9062500000000009
 40
0.9062500000000009
 40
0.9375000000000006
 40
0.9375000000000006
 40
0.9687500000000003
 40
0.9687500000000003
 40
1.0
 40
1.0
 40
1.0
 40
1.0
 10
67.24985595931979
 20
162.1798593161719
 30
0.0
 10
67.20984100697008
 20
161.9275697133563
 30
0.0
 10
67.14689920555882
 20
161.6835708629805
 30
0.0
 10
66.97751254348677
 20
161.211152473918
 30
0.0
 10
66.86981898090129
 20
160.980739087758
 30
0.0
 10
66.6145342123634
 20
160.5460344919609
 30
0.0
 10
66.46849498189117
 20
160.3433925253096
 30
0.0
 10
66.14027354533194
 20
159.9664032345518
 30
0.0
 10
65.95602625755693
 20
159.7907452809744
 30
0.0
 10
65.56306609024863
 20
159.4804873120281
 30
0.0
 10
65.35377149328947
 20
159.3445421043783
 30
0.0
 10
64.90888606635211
 20
159.1111520089724
 30
0.0
 10
64.67208847385307
 20
159.013905402558
 30
0.0
 10
64.1913534049338
 20
158.8672339446867
 30
0.0
 10
63.94511031175102
 20
158.8163415997442
 30
0.0
 10
63.44039353177158
 20
158.7608142495088
 30
0.0
 10
63.18419883083509
 20
158.7569893624388
 30
0.0
 10
62.68182008163499
 20
158.7964131450832
 30
0.0
 10
62.4325703824514
 20
158.8394405942945
 30
0.0
 10
61.94104258497264
 20
158.9731455637458
 30
0.0
 10
61.7057469837468
 20
159.061815409651
 30
0.0
 10
61.25483308908468
 20
159.2808467734284
 30
0.0
 10
61.03722073862131
 20
159.4128483391119
 30
0.0
 10
60.63401356907303
 20
159.7122056201148
 30
0.0
 10
60.44840207663859
 20
159.8788245475527
 30
0.0
 10
60.1084140062361
 20
160.2459359729802
 30
0.0
 10
59.9533410754132
 20
160.4482397185209
 30
0.0
 10
59.68699799874985
 20
160.8723203981149
 30
0.0
 10
59.57401389803307
 20
161.0954800035811
 30
0.0
 10
59.38915864110218
 20
161.5648352451753
 30
0.0
 10
59.31801787959878
 20
161.8110457485108
 30
0.0
 10
59.22405746831064
 20
162.3055715748819
 30
0.0
 10
59.20004813835423
 20
162.556502569974
 30
0.0
 10
59.19947501768166
 20
163.3207479495302
 30
0.0
 10
59.29487412900028
 20
163.8229722515811
 30
0.0
 10
59.57273792120141
 20
164.5305367578535
 30
0.0
 10
59.68589987728195
 20
164.7542430215943
 30
0.0
 10
59.95203105932581
 20
165.1785129329149
 30
0.0
 10
60.10685883352551
 20
165.380764894971
 30
0.0
 10
60.44703993931334
 20
165.7484756363391
 30
0.0
 10
60.63254239626306
 20
165.9150925115885
 30
0.0
 10
61.03483619732239
 20
166.2141418903839
 30
0.0
 10
61.25284424557438
 20
166.3465985984123
 30
0.0
 10
61.70344261272467
 20
166.565804999117
 30
0.0
 10
61.93799161160543
 20
166.6542901291206
 30
0.0
 10
62.42645160515775
 20
166.7877763590593
 30
0.0
 10
62.67871700087163
 20
166.831718071553
 30
0.0
 10
63.18089763903193
 20
166.8715270680265
 30
0.0
 10
63.43337975638364
 20
166.868182855213
 30
0.0
 10
63.94124479945314
 20
166.8130035352225
 30
0.0
 10
64.18879027263692
 20
166.7619576067531
 30
0.0
 10
64.66975781010761
 20
166.6155472185175
 30
0.0
 10
64.90571767521287
 20
166.5189010137439
 30
0.0
 10
65.3522881247345
 20
166.2849960694309
 30
0.0
 10
65.56193298730796
 20
166.1488710556044
 30
0.0
 10
65.95491969406244
 20
165.8388167912753
 30
0.0
 10
66.13931559787744
 20
165.6631595437002
 30
0.0
 10
66.46786601573784
 20
165.2860196210358
 30
0.0
 10
66.61380811226101
 20
165.0835534157659
 30
0.0
 10
66.86869346746317
 20
164.6499771176325
 30
0.0
 10
66.9770047802715
 20
164.418685274051
 30
0.0
 10
67.14683975768845
 20
163.9453255939178
 30
0.0
 10
67.20983511882547
 20
163.701043797097
 30
0.0
 10
67.2498559593198
 20
163.4487170702169
 30
0.0
  0
SPLINE
  5
129
330
1F
100
AcDbEntity
  8
0
  6
HIDDEN
 62
     7
370
     0
100
AcDbSpline
210
0.0
220
0.0
230
1.0
 70
     8
 71
     3
 72
    68
 73
    64
 74
     0
 42
0.00000001
 43
0.00000001
 12
1.0
 22
0.0
 32
0.0
 13
1.0
 23
0.0
 33
0.0
 40
0.0
 40
0.0
 40
0.0
 40
0.0
 40
0.0312499999999998
 40
0.0312499999999998
 40
0.0624999999999997
 40
0.0624999999999997
 40
0.0937499999999995
 40
0.0937499999999995
 40
0.1249999999999993
 40
0.1249999999999993
 40
0.1562499999999992
 40
0.1562499999999992
 40
0.187499999999999
 40
0.187499999999999
 40
0.2187499999999988
 40
0.2187499999999988
 40
0.2499999999999986
 40
0.2499999999999986
 40
0.2812499999999984
 40
0.2812499999999984
 40
0.3124999999999983
 40
0.3124999999999983
 40
0.3437499999999981
 40
0.3437499999999981
 40
0.3749999999999979
 40
0.3749999999999979
 40
0.4062499999999978
 40
0.4062499999999978
 40
0.4374999999999977
 40
0.4374999999999977
 40
0.4687499999999975
 40
0.4687499999999975
 40
0.4999999999999973
 40
0.4999999999999973
 40
0.562499999999997
 40
0.562499999999997
 40
0.593749999999997
 40
0.593749999999997
 40
0.6249999999999969
 40
0.6249999999999969
 40
0.6562499999999969
 40
0.6562499999999969
 40
0.6874999999999969
 40
0.6874999999999969
 40
0.7187499999999968
 40
0.7187499999999968
 40
0.7499999999999968
 40
0.7499999999999968
 40
0.7812499999999972
 40
0.7812499999999972
 40
0.8124999999999976
 40
0.8124999999999976
 40
0.843749999999998
 40
0.843749999999998
 40
0.8749999999999983
 40
0.8749999999999983
 40
0.9062499999999988
 40
0.9062499999999988
 40
0.9374999999999992
 40
0.9374999999999992
 40
0.9687499999999996
 40
0.9687499999999996
 40
1.0
 40
1.0
 40
1.0
 40
1.0
 10
67.2498559593198
 20
163.4487170702169
 30
0.0
 10
67.20984100697011
 20
163.7010066730325
 30
0.0
 10
67.14689920555884
 20
163.9450055234084
 30
0.0
 10
66.97751254348677
 20
164.4174239124709
 30
0.0
 10
66.8698189809013
 20
164.6478372986308
 30
0.0
 10
66.61453421236341
 20
165.0825418944279
 30
0.0
 10
66.46849498189117
 20
165.2851838610792
 30
0.0
 10
66.14027354533192
 20
165.662173151837
 30
0.0
 10
65.95602625755691
 20
165.8378311054144
 30
0.0
 10
65.56306609024863
 20
166.1480890743607
 30
0.0
 10
65.35377149328946
 20
166.2840342820105
 30
0.0
 10
64.90888606635211
 20
166.5174243774164
 30
0.0
 10
64.67208847385307
 20
166.6146709838308
 30
0.0
 10
64.19135340493382
 20
166.7613424417021
 30
0.0
 10
63.94511031175103
 20
166.8122347866446
 30
0.0
 10
63.44039353177161
 20
166.86776213688
 30
0.0
 10
63.18419883083512
 20
166.87158702395
 30
0.0
 10
62.681820081635
 20
166.8321632413056
 30
0.0
 10
62.43257038245141
 20
166.7891357920943
 30
0.0
 10
61.94104258497266
 20
166.655430822643
 30
0.0
 10
61.70574698374681
 20
166.5667609767378
 30
0.0
 10
61.25483308908468
 20
166.3477296129604
 30
0.0
 10
61.03722073862131
 20
166.2157280472769
 30
0.0
 10
60.63401356907301
 20
165.916370766274
 30
0.0
 10
60.44840207663859
 20
165.7497518388361
 30
0.0
 10
60.10841400623611
 20
165.3826404134086
 30
0.0
 10
59.95334107541321
 20
165.1803366678679
 30
0.0
 10
59.68699799874985
 20
164.7562559882739
 30
0.0
 10
59.57401389803307
 20
164.5330963828077
 30
0.0
 10
59.3891586411022
 20
164.0637411412135
 30
0.0
 10
59.3180178795988
 20
163.817530637878
 30
0.0
 10
59.22405746831064
 20
163.3230048115069
 30
0.0
 10
59.20004813835425
 20
163.0720738164149
 30
0.0
 10
59.19947501768166
 20
162.3078284368586
 30
0.0
 10
59.29487412900028
 20
161.8056041348077
 30
0.0
 10
59.57273792120139
 20
161.0980396285353
 30
0.0
 10
59.68589987728194
 20
160.8743333647945
 30
0.0
 10
59.95203105932581
 20
160.4500634534739
 30
0.0
 10
60.10685883352551
 20
160.2478114914179
 30
0.0
 10
60.44703993931333
 20
159.8801007500497
 30
0.0
 10
60.63254239626305
 20
159.7134838748004
 30
0.0
 10
61.03483619732236
 20
159.414434496005
 30
0.0
 10
61.25284424557437
 20
159.2819777879765
 30
0.0
 10
61.70344261272466
 20
159.0627713872719
 30
0.0
 10
61.93799161160545
 20
158.9742862572682
 30
0.0
 10
62.42645160515778
 20
158.8408000273295
 30
0.0
 10
62.67871700087164
 20
158.7968583148358
 30
0.0
 10
63.18089763903193
 20
158.7570493183623
 30
0.0
 10
63.43337975638361
 20
158.7603935311758
 30
0.0
 10
63.9412447994531
 20
158.8155728511663
 30
0.0
 10
64.18879027263692
 20
158.8666187796357
 30
0.0
 10
64.66975781010764
 20
159.0130291678713
 30
0.0
 10
64.90571767521291
 20
159.1096753726449
 30
0.0
 10
65.35228812473453
 20
159.3435803169579
 30
0.0
 10
65.56193298730797
 20
159.4797053307844
 30
0.0
 10
65.95491969406245
 20
159.7897595951135
 30
0.0
 10
66.13931559787744
 20
159.9654168426887
 30
0.0
 10
66.46786601573784
 20
160.3425567653531
 30
0.0
 10
66.61380811226101
 20
160.5450229706229
 30
0.0
 10
66.86869346746317
 20
160.9785992687563
 30
0.0
 10
66.9770047802715
 20
161.2098911123378
 30
0.0
 10
67.14683975768847
 20
161.6832507924711
 30
0.0
 10
67.20983511882548
 20
161.9275325892918
 30
0.0
 10
67.2498559593198
 20
162.1798593161719
 30
0.0
  0
LINE
  5
12A
330
1F
100
AcDbEntity
  8
0
  6
HIDDEN
 62
     7
370
     0
100
AcDbLine
 10
68.9998557582
 20
171.8142878058
 30
0.0
 11
68.9998557582
 21
153.8142885806
 31
0.0
  0
LINE
  5
12B
330
1F
100
AcDbEntity
  8
0
  6
HIDDEN
 62
     7
370
     0
100
AcDbLine
 10
67.7498560189
 20
152.5642879101
 30
0.0
 11
67.7498560189
 21
173.0342123451
 31
0.0
  0
LINE
  5
12C
330
1F
100
AcDbEntity
  8
0
  6
HIDDEN
 62
     7
370
     0
100
AcDbLine
 10
94.7498567193
 20
171.8142878058
 30
0.0
 11
94.7498567193
 21
153.8142885806
 31
0.0
  0
LINE
  5
12D
330
1F
100
AcDbEntity
  8
0
  6
HIDDEN
 62
     7
370
     0
100
AcDbLine
 10
97.603943178
 20
167.0642884242
 30
0.0
 11
97.603943178
 21
158.5642879622
 31
0.0
  0
SPLINE
  5
12E
330
1F
100
AcDbEntity
  8
0
  6
HIDDEN
 62
     7
370
     0
100
AcDbSpline
210
0.0
220
0.0
230
1.0
 70
     8
 71
     3
 72
    16
 73
    12
 74
     0
 42
0.00000001
 43
0.00000001
 12
1.0
 22
0.0
 32
0.0
 13
1.0
 23
0.0
 33
0.0
 40
0.0
 40
0.0
 40
0.0
 40
0.0
 40
0.2500000000000028
 40
0.2500000000000028
 40
0.3750000000000029
 40
0.3750000000000029
 40
0.500000000000003
 40
0.500000000000003
 40
0.7500000000000016
 40
0.7500000000000016
 40
1.0
 40
1.0
 40
1.0
 40
1.0
 10
236.2243734933949
 20
151.3773754341667
 30
0.0
 10
235.7919581405487
 20
152.2649175529416
 30
0.0
 10
235.38963199491
 20
153.1688215379069
 30
0.0
 10
234.8461521996017
 20
154.5573093539061
 30
0.0
 10
234.6747136200655
 20
155.0266441193946
 30
0.0
 10
234.3571347445401
 20
155.9715903861551
 30
0.0
 10
234.2109310578493
 20
156.4472024974361
 30
0.0
 10
233.8141604362913
 20
157.8844741411071
 30
0.0
 10
233.6054512939455
 20
158.8565733115409
 30
0.0
 10
233.3220012314495
 20
160.8341843018775
 30
0.0
 10
233.2498559593196
 20
161.8254245076679
 30
0.0
 10
233.2498559593196
 20
162.8142881931944
 30
0.0
  0
LINE
  5
12F
330
1F
100
AcDbEntity
  8
0
  6
HIDDEN
 62
     7
370
     0
100
AcDbLine
 10
233.2498486876
 20
162.8142881932
 30
0.0
 11
233.2498486876
 21
183.3142887594
 31
0.0
  0
SPLINE
  5
130
330
1F
100
AcDbEntity
  8
0
  6
HIDDEN
 62
     7
370
     0
100
AcDbSpline
210
0.0
220
0.0
230
1.0
 70
     8
 71
     3
 72
    13
 73
     9
 74
     0
 42
0.00000001
 43
0.00000001
 12
1.0
 22
0.0
 32
0.0
 13
1.0
 23
0.0
 33
0.0
 40
0.0
 40
0.0
 40
0.0
 40
0.0
 40
0.1718014761130438
 40
0.3485836955804523
 40
0.5204687532319002
 40
0.6973008308230393
 40
0.869828866543035
 40
1.0
 40
1.0
 40
1.0
 40
1.0
 10
236.2243737815854
 20
151.3773750307246
 30
0.0
 10
236.2118446896076
 20
150.1570925101599
 30
0.0
 10
236.1864232713363
 20
147.6811499263445
 30
0.0
 10
236.262999684417
 20
144.5511055207923
 30
0.0
 10
236.4234424696249
 20
141.9207493365087
 30
0.0
 10
236.6681288294376
 20
139.9737910568917
 30
0.0
 10
236.9524316365798
 20
138.7260586561198
 30
0.0
 10
237.171003078468
 20
138.482981227464
 30
0.0
 10
237.2649963735578
 20
138.3784495087548
 30
0.0
  0
ELLIPSE
  5
131
330
1F
100
AcDbEntity
  8
0
  6
HIDDEN
 62
     7
370
     0
100
AcDbEllipse
 10
252.2033297337
 20
162.8142881932
 30
0.0
 11
-14.59302442228556
 21
20.49991501980205
 31
0.0
210
0.0
220
0.0
230
1.0
 40
0.0040448756
 41
6.280305938888711
 42
7.85110226568003
  0
LINE
  5
132
330
1F
100
AcDbEntity
  8
0
  6
HIDDEN
 62
     7
370
     0
100
AcDbLine
 10
218.7498565554
 20
167.0642884242
 30
0.0
 11
218.7498565554
 21
158.5642879622
 31
0.0
  0
SPLINE
  5
133
330
1F
100
AcDbEntity
  8
0
  6
HIDDEN
 62
     7
370
     0
100
AcDbSpline
210
0.0
220
0.0
230
1.0
 70
     8
 71
     3
 72
    64
 73
    60
 74
     0
 42
0.00000001
 43
0.00000001
 12
1.0
 22
0.0
 32
0.0
 13
1.0
 23
0.0
 33
0.0
 40
-0.0312499999999999
 40
-0.0312499999999999
 40
0.0
 40
0.0
 40
0.03125
 40
0.03125
 40
0.0625
 40
0.0625
 40
0.125
 40
0.125
 40
0.15625
 40
0.15625
 40
0.1875
 40
0.1875
 40
0.21875
 40
0.21875
 40
0.2500000000000001
 40
0.2500000000000001
 40
0.2812500000000001
 40
0.2812500000000001
 40
0.3125000000000001
 40
0.3125000000000001
 40
0.3437500000000001
 40
0.3437500000000001
 40
0.3750000000000001
 40
0.3750000000000001
 40
0.4062500000000001
 40
0.4062500000000001
 40
0.4375000000000001
 40
0.4375000000000001
 40
0.4687500000000001
 40
0.4687500000000001
 40
0.5
 40
0.5
 40
0.53125
 40
0.53125
 40
0.5625
 40
0.5625
 40
0.625
 40
0.625
 40
0.6562500000000001
 40
0.6562500000000001
 40
0.6875000000000001
 40
0.6875000000000001
 40
0.7187500000000001
 40
0.7187500000000001
 40
0.7500000000000001
 40
0.7500000000000001
 40
0.7812500000000001
 40
0.7812500000000001
 40
0.8125000000000001
 40
0.8125000000000001
 40
0.8437500000000001
 40
0.8437500000000001
 40
0.8750000000000001
 40
0.8750000000000001
 40
0.9375000000000001
 40
0.9375000000000001
 40
0.9687500000000001
 40
0.9687500000000001
 40
1.0
 40
1.0
 40
1.03125
 40
1.03125
 10
217.2498559593196
 20
162.9836791865346
 30
0.0
 10
217.2498559593196
 20
162.6448971998542
 30
0.0
 10
217.2328238359186
 20
162.479045092038
 30
0.0
 10
217.1667616389134
 20
162.1539213640435
 30
0.0
 10
217.1168304893464
 20
161.9931878656346
 30
0.0
 10
216.9260023939797
 20
161.5409133898585
 30
0.0
 10
216.7411199908794
 20
161.2696015077008
 30
0.0
 10
216.4034073974852
 20
160.9325164240172
 30
0.0
 10
216.2788579193059
 20
160.8299088309874
 30
0.0
 10
216.0133735262525
 20
160.6511580988989
 30
0.0
 10
215.8729669691238
 20
160.5749108380589
 30
0.0
 10
215.5748831383331
 20
160.4488031619744
 30
0.0
 10
215.4151297176848
 20
160.3987371704347
 30
0.0
 10
215.0903893360376
 20
160.3320486929717
 30
0.0
 10
214.9236447059019
 20
160.3146034167728
 30
0.0
 10
214.5852578669658
 20
160.3139814164356
 30
0.0
 10
214.41938324424
 20
160.3306668753399
 30
0.0
 10
214.0937272577424
 20
160.3962141263223
 30
0.0
 10
213.934000684134
 20
160.4455717698149
 30
0.0
 10
213.6340572591252
 20
160.5712031334876
 30
0.0
 10
213.4906320731911
 20
160.6486174009365
 30
0.0
 10
213.2239672584865
 20
160.8274720344859
 30
0.0
 10
213.101066382448
 20
160.9282874871057
 30
0.0
 10
212.8744849822242
 20
161.1534181108472
 30
0.0
 10
212.7708553771805
 20
161.2783087561066
 30
0.0
 10
212.5909571132465
 20
161.5435278272372
 30
0.0
 10
212.5134527001031
 20
161.68490250052
 30
0.0
 10
212.3848458917062
 20
161.9874030979493
 30
0.0
 10
212.33487282471
 20
162.1470769040611
 30
0.0
 10
212.268056840006
 20
162.4707949965071
 30
0.0
 10
212.2503791776438
 20
162.6374934726711
 30
0.0
 10
212.2493556042251
 20
162.975962339283
 30
0.0
 10
212.2658574538256
 20
163.1421232888906
 30
0.0
 10
212.3312741970027
 20
163.4686479445966
 30
0.0
 10
212.380921061253
 20
163.6297606302212
 30
0.0
 10
212.5709742920255
 20
164.0830931692431
 30
0.0
 10
212.7555905297136
 20
164.3553125184717
 30
0.0
 10
213.0939072315481
 20
164.6939946741898
 30
0.0
 10
213.2188731868077
 20
164.7971183835596
 30
0.0
 10
213.4837204080562
 20
164.9758673796642
 30
0.0
 10
213.6242690750872
 20
165.0524933211492
 30
0.0
 10
213.9240722631815
 20
165.1795766144979
 30
0.0
 10
214.0836830285668
 20
165.2295892463405
 30
0.0
 10
214.4083364547899
 20
165.2963901207998
 30
0.0
 10
214.5775326083084
 20
165.3140150082324
 30
0.0
 10
214.9141594892343
 20
165.3145549463992
 30
0.0
 10
215.0801233427171
 20
165.2979995884948
 30
0.0
 10
215.4075954371186
 20
165.231989088472
 30
0.0
 10
215.5666006109417
 20
165.1827188439497
 30
0.0
 10
215.8670387680156
 20
165.0567061170758
 30
0.0
 10
216.0111065159321
 20
164.9787649940996
 30
0.0
 10
216.2772963910355
 20
164.7998960386089
 30
0.0
 10
216.4004451633603
 20
164.6987942752762
 30
0.0
 10
216.7418795022917
 20
164.3586566012626
 30
0.0
 10
216.923864700226
 20
164.0923546635055
 30
0.0
 10
217.1172589724112
 20
163.634559459681
 30
0.0
 10
217.1660343209512
 20
163.4772280084929
 30
0.0
 10
217.2323531666997
 20
163.1528361060147
 30
0.0
 10
217.2498559593196
 20
162.9836791865346
 30
0.0
 10
217.2498559593196
 20
162.6448971998542
 30
0.0
  0
SPLINE
  5
134
330
1F
100
AcDbEntity
  8
0
  6
HIDDEN
 62
     7
370
     0
100
AcDbSpline
210
0.0
220
0.0
230
1.0
 70
     8
 71
     3
 72
    60
 73
    56
 74
     0
 42
0.00000001
 43
0.00000001
 12
1.0
 22
0.0
 32
0.0
 13
1.0
 23
0.0
 33
0.0
 40
-0.031249999999998
 40
-0.031249999999998
 40
0.0
 40
0.0
 40
0.0312500000000039
 40
0.0312500000000039
 40
0.0625000000000078
 40
0.0625000000000078
 40
0.125000000000011
 40
0.125000000000011
 40
0.1562500000000125
 40
0.1562500000000125
 40
0.1875000000000141
 40
0.1875000000000141
 40
0.2187500000000157
 40
0.2187500000000157
 40
0.2500000000000173
 40
0.2500000000000173
 40
0.3125000000000205
 40
0.3125000000000205
 40
0.3750000000000236
 40
0.3750000000000236
 40
0.4062500000000235
 40
0.4062500000000235
 40
0.4375000000000234
 40
0.4375000000000234
 40
0.4687500000000232
 40
0.4687500000000232
 40
0.500000000000023
 40
0.500000000000023
 40
0.5312500000000229
 40
0.5312500000000229
 40
0.5625000000000228
 40
0.5625000000000228
 40
0.6250000000000225
 40
0.6250000000000225
 40
0.6562500000000207
 40
0.6562500000000207
 40
0.6875000000000188
 40
0.6875000000000188
 40
0.7187500000000169
 40
0.7187500000000169
 40
0.750000000000015
 40
0.750000000000015
 40
0.7812500000000132
 40
0.7812500000000132
 40
0.8125000000000113
 40
0.8125000000000113
 40
0.8750000000000077
 40
0.8750000000000077
 40
0.9062500000000058
 40
0.9062500000000058
 40
0.9375000000000039
 40
0.9375000000000039
 40
0.968750000000002
 40
0.968750000000002
 40
1.0
 40
1.0
 40
1.031250000000004
 40
1.031250000000004
 10
214.9193835558903
 20
165.3142881931944
 30
0.0
 10
214.580328362749
 20
165.3142881931944
 30
0.0
 10
214.4147305150415
 20
165.2972372285637
 30
0.0
 10
214.0906104383689
 20
165.2314642974016
 30
0.0
 10
213.9308003740432
 20
165.1818917952604
 30
0.0
 10
213.4814587715018
 20
164.992995159973
 30
0.0
 10
213.2117760317266
 20
164.8106568322866
 30
0.0
 10
212.873591242969
 20
164.4740849023974
 30
0.0
 10
212.7700248093452
 20
164.3492680495166
 30
0.0
 10
212.5895733470452
 20
164.0827808328377
 30
0.0
 10
212.512451380783
 20
163.941491460126
 30
0.0
 10
212.3850334959758
 20
163.641440639786
 30
0.0
 10
212.3345693031747
 20
163.4805406830959
 30
0.0
 10
212.2677278904922
 20
163.1556710597692
 30
0.0
 10
212.2504096889432
 20
162.9904611818992
 30
0.0
 10
212.2487872970098
 20
162.4860659084463
 30
0.0
 10
212.3172752675534
 20
162.1506047296019
 30
0.0
 10
212.5713255739242
 20
161.5446701712253
 30
0.0
 10
212.7559084732796
 20
161.2730257417204
 30
0.0
 10
213.0932769437027
 20
160.9351726844059
 30
0.0
 10
213.2172661126695
 20
160.8326314538814
 30
0.0
 10
213.4834348578869
 20
160.6528135427841
 30
0.0
 10
213.6239715387109
 20
160.5763142053953
 30
0.0
 10
213.9216298740089
 20
160.4499310183484
 30
0.0
 10
214.0810972515514
 20
160.3996659707535
 30
0.0
 10
214.4067146356849
 20
160.3323750765975
 30
0.0
 10
214.5726816180719
 20
160.3148259467619
 30
0.0
 10
214.9115148641349
 20
160.3137745125616
 30
0.0
 10
215.0785055429704
 20
160.3304277017272
 30
0.0
 10
215.4041304567612
 20
160.3957145697744
 30
0.0
 10
215.5642616293182
 20
160.4450557787319
 30
0.0
 10
216.0149667886764
 20
160.6335612717973
 30
0.0
 10
216.2852252898274
 20
160.8156529788727
 30
0.0
 10
216.624940018729
 20
161.1531033162476
 30
0.0
 10
216.7288986626046
 20
161.2783204389484
 30
0.0
 10
216.9092077552262
 20
161.5442461525421
 30
0.0
 10
216.9866414638188
 20
161.6857146156661
 30
0.0
 10
217.1148903186633
 20
161.9875474888885
 30
0.0
 10
217.1652056095802
 20
162.1483151067612
 30
0.0
 10
217.2319538560715
 20
162.4727854614238
 30
0.0
 10
217.2494273652678
 20
162.638531386774
 30
0.0
 10
217.2502691477982
 20
162.9776330900206
 30
0.0
 10
217.2335090502663
 20
163.144723762707
 30
0.0
 10
217.1677569067623
 20
163.4711560262654
 30
0.0
 10
217.1179020459887
 20
163.6323989160298
 30
0.0
 10
216.9269372604212
 20
164.0863364242059
 30
0.0
 10
216.7416411274511
 20
164.3585217112
 30
0.0
 10
216.4027522266313
 20
164.6966803569153
 30
0.0
 10
216.277570304228
 20
164.7996745916695
 30
0.0
 10
216.0116351682548
 20
164.9784470364376
 30
0.0
 10
215.870779584856
 20
165.0548170291739
 30
0.0
 10
215.5711129883717
 20
165.1811376035654
 30
0.0
 10
215.4107348062371
 20
165.231041051258
 30
0.0
 10
215.0859976661885
 20
165.2971220539601
 30
0.0
 10
214.9193835558903
 20
165.3142881931944
 30
0.0
 10
214.580328362749
 20
165.3142881931944
 30
0.0
  0
CIRCLE
  5
135
330
1F
100
AcDbEntity
  8
0
  6
HIDDEN
 62
     7
370
     0
100
AcDbCircle
 10
247.4084049297
 20
154.583461491
 30
0.0
 40
3.480674860043249
  0
CIRCLE
  5
136
330
1F
100
AcDbEntity
  8
0
  6
HIDDEN
 62
     7
370
     0
100
AcDbCircle
 10
246.9819915449
 20
155.1480936685
 30
0.0
 40
3.480674664700267
  0
ARC
  5
137
330
1F
100
AcDbEntity
  8
0
  6
HIDDEN
 62
     7
370
     0
100
AcDbCircle
 10
243.7056411428
 20
147.801686554
 30
0.0
 40
2.345365052065502
100
AcDbArc
 50
85.3160884479
 51
226.5647365486
  0
LINE
  5
138
330
1F
100
AcDbEntity
  8
0
  6
HIDDEN
 62
     7
370
     0
100
AcDbLine
 10
256.1432029842
 20
149.2515427785
 30
0.0
 11
256.6344793676
 21
148.6010130288
 31
0.0
  0
LINE
  5
139
330
1F
100
AcDbEntity
  8
0
  6
HIDDEN
 62
     7
370
     0
100
AcDbLine
 10
253.3264066814
 20
161.061063784
 30
0.0
 11
255.8299358725
 21
157.7460423837
 31
0.0
  0
LINE
  5
13A
330
1F
100
AcDbEntity
  8
0
  6
HIDDEN
 62
     7
370
     0
100
AcDbLine
 10
244.9821289419
 20
145.7731861415
 30
0.0
 11
244.7746749758
 21
145.7882232757
 31
0.0
  0
LINE
  5
13B
330
1F
100
AcDbEntity
  8
0
  6
HIDDEN
 62
     7
370
     0
100
AcDbLine
 10
244.9821289419
 20
145.7731861415
 30
0.0
 11
245.2894355892
 21
145.3662596436
 31
0.0
  0
LINE
  5
13C
330
1F
100
AcDbEntity
  8
0
  6
HIDDEN
 62
     7
370
     0
100
AcDbLine
 10
245.2894355892
 20
145.3662596436
 30
0.0
 11
244.8087390303
 21
145.4011041464
 31
0.0
  0
ELLIPSE
  5
13D
330
1F
100
AcDbEntity
  8
0
  6
HIDDEN
 62
     7
370
     0
100
AcDbEllipse
 10
230.7843671406
 20
165.0497237136
 30
0.0
 11
217.1628490301427
 21
-19.44089462863661
 31
0.0
210
0.0
220
0.0
230
1.0
 40
0.1182598878
 41
4.790528107604409
 42
4.792851297182361
  0
ELLIPSE
  5
13E
330
1F
100
AcDbEntity
  8
0
  6
HIDDEN
 62
     7
370
     0
100
AcDbEllipse
 10
243.8216570395
 20
163.6794493289
 30
0.0
 11
-2.733626938423214
 21
26.42588789006402
 31
0.0
210
0.0
220
0.0
230
1.0
 40
0.0894011665
 41
2.799414959973913
 42
2.912484165532438
  0
ELLIPSE
  5
13F
330
1F
100
AcDbEntity
  8
0
  6
HIDDEN
 62
     7
370
     0
100
AcDbEllipse
 10
206.0942560928
 20
167.6447589539
 30
0.0
 11
217.1628490301419
 21
-19.44089462863658
 31
0.0
210
0.0
220
0.0
230
1.0
 40
0.1182598878
 41
4.905920502740896
 42
4.956421858001955
  0
SPLINE
  5
140
330
1F
100
AcDbEntity
  8
0
  6
HIDDEN
 62
     7
370
     0
100
AcDbSpline
210
0.0
220
0.0
230
1.0
 70
     8
 71
     3
 72
    25
 73
    21
 74
     0
 42
0.00000001
 43
0.00000001
 12
1.0
 22
0.0
 32
0.0
 13
1.0
 23
0.0
 33
0.0
 40
0.0
 40
0.0
 40
0.0
 40
0.0
 40
0.0270185465046081
 40
0.053084869378638
 40
0.0781989722667745
 40
0.102360859631035
 40
0.125570536869965
 40
0.1901865522710279
 40
0.2510399464907151
 40
0.3150768732713394
 40
0.3763773896912286
 40
0.501521542705924
 40
0.6264688285871978
 40
0.6895561928358945
 40
0.7512214751778488
 40
0.8140738286454117
 40
0.8757341431482513
 40
0.9176074241654371
 40
0.95902914361093
 40
1.0
 40
1.0
 40
1.0
 40
1.0
 10
254.0325530872866
 20
149.5056603224699
 30
0.0
 10
254.0532573718557
 20
149.3676082179468
 30
0.0
 10
254.0939362529992
 20
149.0963694251864
 30
0.0
 10
254.1541421143349
 20
148.7020168926374
 30
0.0
 10
254.2123254853846
 20
148.3257298529987
 30
0.0
 10
254.2684715185767
 20
147.9675201806452
 30
0.0
 10
254.3554256206963
 20
147.4197762235113
 30
0.0
 10
254.4713413468436
 20
146.7068335632538
 30
0.0
 10
254.6197288250628
 20
145.8259027472782
 30
0.0
 10
254.7658692058222
 20
144.9889132525608
 30
0.0
 10
254.9626400670252
 20
143.9035821592283
 30
0.0
 10
255.2070119302117
 20
142.6324309156877
 30
0.0
 10
255.4506968064252
 20
141.4692419577325
 30
0.0
 10
255.6426448162338
 20
140.6162995590198
 30
0.0
 10
255.7854937092947
 20
140.0135954689242
 30
0.0
 10
255.9256208468779
 20
139.4544837671406
 30
0.0
 10
256.049202091094
 20
138.9904327641608
 30
0.0
 10
256.1554583058703
 20
138.6131888034541
 30
0.0
 10
256.245614747676
 20
138.3070675280601
 30
0.0
 10
256.3044744326487
 20
138.1198445930764
 30
0.0
 10
256.3337432311502
 20
138.0267453798978
 30
0.0
  0
LINE
  5
141
330
1F
100
AcDbEntity
  8
0
  6
HIDDEN
 62
     7
370
     0
100
AcDbLine
 10
254.0325578093
 20
149.5056606623
 30
0.0
 11
236.2243737816
 21
151.3773750307
 31
0.0
  0
ELLIPSE
  5
142
330
1F
100
AcDbEntity
  8
0
  6
HIDDEN
 62
     7
370
     0
100
AcDbEllipse
 10
243.3115273741
 20
163.7330661172
 30
0.0
 11
-2.733626938423214
 21
26.42588789006402
 31
0.0
210
0.0
220
0.0
230
1.0
 40
0.0894011665
 41
2.914807355110393
 42
3.094596418690378
  0
ELLIPSE
  5
143
330
1F
100
AcDbEntity
  8
0
  6
HIDDEN
 62
     7
370
     0
100
AcDbEllipse
 10
248.94035028
 20
149.4709154207
 30
0.0
 11
2.967222170038013
 21
-0.5785035440251248
 31
0.0
210
0.0
220
0.0
230
1.0
 40
0.1845741307
 41
3.430111266355981
 42
4.018063484422751
  0
ELLIPSE
  5
144
330
1F
100
AcDbEntity
  8
0
  6
HIDDEN
 62
     7
370
     0
100
AcDbEllipse
 10
249.4112030573
 20
148.4065187039
 30
0.0
 11
-0.9382876123696349
 21
2.751666891553185
 31
0.0
210
0.0
220
0.0
230
1.0
 40
0.8587453104
 41
0.73603931235517
 42
0.9245808423814524
  0
ELLIPSE
  5
145
330
1F
100
AcDbEntity
  8
0
  6
HIDDEN
 62
     7
370
     0
100
AcDbEllipse
 10
249.4112030573
 20
148.4065187039
 30
0.0
 11
-0.9382876123696349
 21
2.751666891553185
 31
0.0
210
0.0
220
0.0
230
1.0
 40
0.8587453104
 41
4.739814909466737
 42
4.848839927572596
  0
SPLINE
  5
146
330
1F
100
AcDbEntity
  8
0
  6
HIDDEN
 62
     7
370
     0
100
AcDbSpline
210
0.0
220
0.0
230
1.0
 70
     8
 71
     3
 72
    22
 73
    18
 74
     0
 42
0.00000001
 43
0.00000001
 12
1.0
 22
0.0
 32
0.0
 13
1.0
 23
0.0
 33
0.0
 40
0.0
 40
0.0
 40
0.0
 40
0.0
 40
0.1249999999999998
 40
0.1249999999999998
 40
0.2499999999999996
 40
0.2499999999999996
 40
0.4999999999999987
 40
0.4999999999999987
 40
0.624999999999999
 40
0.624999999999999
 40
0.7499999999999992
 40
0.7499999999999992
 40
0.8749999999999994
 40
0.8749999999999994
 40
0.9374999999999998
 40
0.9374999999999998
 40
1.0
 40
1.0
 40
1.0
 40
1.0
 10
249.7470905167311
 20
153.8096410337137
 30
0.0
 10
249.7764288070382
 20
153.770792924229
 30
0.0
 10
249.7968667157017
 20
153.7183872158474
 30
0.0
 10
249.8236787267915
 20
153.593654080522
 30
0.0
 10
249.8299615556343
 20
153.5210270994011
 30
0.0
 10
249.8284988344353
 20
153.2823948760366
 30
0.0
 10
249.8018320241933
 20
153.0958658646121
 30
0.0
 10
249.7105065401313
 20
152.7856283555893
 30
0.0
 10
249.6713164815312
 20
152.6769652645717
 30
0.0
 10
249.5678568515804
 20
152.4484047672831
 30
0.0
 10
249.503725877939
 20
152.3284727155415
 30
0.0
 10
249.3367515879632
 20
152.0792281199653
 30
0.0
 10
249.234163538787
 20
151.9490245030248
 30
0.0
 10
249.0264793660997
 20
151.7495970478052
 30
0.0
 10
248.9469883702501
 20
151.6814206876677
 30
0.0
 10
248.7595440130852
 20
151.5460653476784
 30
0.0
 10
248.6521983895335
 20
151.4794224112617
 30
0.0
 10
248.5283893853309
 20
151.4184781788419
 30
0.0
  0
SPLINE
  5
147
330
1F
100
AcDbEntity
  8
0
  6
HIDDEN
 62
     7
370
     0
100
AcDbSpline
210
0.0
220
0.0
230
1.0
 70
     8
 71
     3
 72
     8
 73
     4
 74
     0
 42
0.00000001
 43
0.00000001
 12
1.0
 22
0.0
 32
0.0
 13
1.0
 23
0.0
 33
0.0
 40
0.0
 40
0.0
 40
0.0
 40
0.0
 40
1.0
 40
1.0
 40
1.0
 40
1.0
 10
248.5283893853309
 20
151.4184781788419
 30
0.0
 10
248.3853729133589
 20
151.3726957254254
 30
0.0
 10
248.2447501883785
 20
151.3196456607503
 30
0.0
 10
248.1064952681683
 20
151.2594067475185
 30
0.0
  0
SPLINE
  5
148
330
1F
100
AcDbEntity
  8
0
  6
HIDDEN
 62
     7
370
     0
100
AcDbSpline
210
0.0
220
0.0
230
1.0
 70
     8
 71
     3
 72
    22
 73
    18
 74
     0
 42
0.00000001
 43
0.00000001
 12
1.0
 22
0.0
 32
0.0
 13
1.0
 23
0.0
 33
0.0
 40
0.0
 40
0.0
 40
0.0
 40
0.0
 40
0.0624999999999979
 40
0.0624999999999979
 40
0.1249999999999958
 40
0.1249999999999958
 40
0.1874999999999938
 40
0.1874999999999938
 40
0.2499999999999917
 40
0.2499999999999917
 40
0.3749999999999948
 40
0.3749999999999948
 40
0.499999999999998
 40
0.499999999999998
 40
0.749999999999999
 40
0.749999999999999
 40
1.0
 40
1.0
 40
1.0
 40
1.0
 10
248.1064952681683
 20
151.2594067475185
 30
0.0
 10
247.9694148540736
 20
151.2220569429144
 30
0.0
 10
247.840853219667
 20
151.199374700649
 30
0.0
 10
247.5942008199542
 20
151.1715845220752
 30
0.0
 10
247.4815813738779
 20
151.1671387739428
 30
0.0
 10
247.2695312477154
 20
151.1688031971885
 30
0.0
 10
247.1696454470454
 20
151.1751554922282
 30
0.0
 10
246.9832041687597
 20
151.1944403154632
 30
0.0
 10
246.8960845169099
 20
151.2073901300523
 30
0.0
 10
246.6477051403901
 20
151.2527317411424
 30
0.0
 10
246.4991932922761
 20
151.291487139596
 30
0.0
 10
246.2243388634022
 20
151.3774958614061
 30
0.0
 10
246.0982842465421
 20
151.4249648585948
 30
0.0
 10
245.7526800599082
 20
151.5714893423632
 30
0.0
 10
245.561858692008
 20
151.6754522972059
 30
0.0
 10
245.2530882605362
 20
151.8739519452016
 30
0.0
 10
245.1338068297003
 20
151.9691236894595
 30
0.0
 10
245.0743660852903
 20
152.0478317710319
 30
0.0
  0
ELLIPSE
  5
149
330
1F
100
AcDbEntity
  8
0
  6
HIDDEN
 62
     7
370
     0
100
AcDbEllipse
 10
248.4790007947
 20
150.5138292596
 30
0.0
 11
-0.938287612369635
 21
2.751666891553214
 31
0.0
210
0.0
220
0.0
230
1.0
 40
0.8587453104
 41
1.512533060448138
 42
1.598222255876905
  0
ELLIPSE
  5
14A
330
1F
100
AcDbEntity
  8
0
  6
HIDDEN
 62
     7
370
     0
100
AcDbEllipse
 10
248.6604083897
 20
150.1037442864
 30
0.0
 11
2.967222170038013
 21
-0.5785035440251248
 31
0.0
210
0.0
220
0.0
230
1.0
 40
0.1845741307
 41
4.206605014449037
 42
6.376989706411094
  0
LINE
  5
14B
330
1F
100
AcDbEntity
  8
0
  6
HIDDEN
 62
     7
370
     0
100
AcDbLine
 10
245.0743671297
 20
152.0478313582
 30
0.0
 11
244.776731336
 21
152.441947514
 31
0.0
  0
LINE
  5
14C
330
1F
100
AcDbEntity
  8
0
  6
HIDDEN
 62
     7
370
     0
100
AcDbLine
 10
249.4494523643
 20
154.2037574368
 30
0.0
 11
249.747088158
 21
153.809641281
 31
0.0
  0
ELLIPSE
  5
14D
330
1F
100
AcDbEntity
  8
0
  6
HIDDEN
 62
     7
370
     0
100
AcDbEllipse
 10
246.1855643416
 20
156.154681479
 30
0.0
 11
3.671213746604366
 21
2.058398841174125
 31
0.0
210
0.0
220
0.0
230
1.0
 40
0.8772799171
 41
3.903713282588265
 42
5.178837123826574
  0
ELLIPSE
  5
14E
330
1F
100
AcDbEntity
  8
0
  6
HIDDEN
 62
     7
370
     0
100
AcDbEllipse
 10
244.8631935852
 20
157.9056902593
 30
0.0
 11
-2.570105550204829
 21
3.403188827857264
 31
0.0
210
0.0
220
0.0
230
1.0
 40
0.9848432766
 41
0.0
 42
6.283185307179586
  0
ARC
  5
14F
330
1F
100
AcDbEntity
  8
0
  6
HIDDEN
 62
     7
370
     0
100
AcDbCircle
 10
246.8448083571
 20
155.2447611988
 30
0.0
 40
4.180300542863299
100
AcDbArc
 50
293.7497922536
 51
287.5668551596
  0
ARC
  5
150
330
1F
100
AcDbEntity
  8
0
  6
HIDDEN
 62
     7
370
     0
100
AcDbCircle
 10
243.6921823791
 20
147.5485919718
 30
0.0
 40
2.102964552805806
100
AcDbArc
 50
85.5915797393
 51
216.2379208344
  0
LINE
  5
151
330
1F
100
AcDbEntity
  8
0
  6
HIDDEN
 62
     7
370
     0
100
AcDbLine
 10
243.8538279175
 20
149.6453348341
 30
0.0
 11
246.959662044
 21
149.4202025028
 31
0.0
  0
LINE
  5
152
330
1F
100
AcDbEntity
  8
0
  6
HIDDEN
 62
     7
370
     0
100
AcDbLine
 10
247.1294011711
 20
149.9049242379
 30
0.0
 11
243.8971604942
 21
150.1392189207
 31
0.0
  0
ARC
  5
153
330
1F
100
AcDbEntity
  8
0
  6
HIDDEN
 62
     7
370
     0
100
AcDbCircle
 10
243.3750554313
 20
147.9638388946
 30
0.0
 40
2.095449257416231
100
AcDbArc
 50
85.306777817
 51
227.5853494397
  0
LINE
  5
154
330
1F
100
AcDbEntity
  8
0
  6
HIDDEN
 62
     7
370
     0
100
AcDbLine
 10
245.9473069548
 20
137.888586873
 30
0.0
 11
245.2894355892
 21
145.3662596436
 31
0.0
  0
LINE
  5
155
330
1F
100
AcDbEntity
  8
0
  6
HIDDEN
 62
     7
370
     0
100
AcDbLine
 10
244.786431992
 20
145.4027209224
 30
0.0
 11
245.4439606308
 21
137.9288833382
 31
0.0
  0
LINE
  5
156
330
1F
100
AcDbEntity
  8
0
  6
HIDDEN
 62
     7
370
     0
100
AcDbLine
 10
251.7475690483
 20
149.287422912
 30
0.0
 11
251.8284674524
 21
149.0672787445
 31
0.0
  0
LINE
  5
157
330
1F
100
AcDbEntity
  8
0
  6
HIDDEN
 62
     7
370
     0
100
AcDbLine
 10
251.8284674524
 20
149.0672787445
 30
0.0
 11
256.1872061132
 21
148.751327561
 31
0.0
  0
LINE
  5
158
330
1F
100
AcDbEntity
  8
0
  6
HIDDEN
 62
     7
370
     0
100
AcDbLine
 10
256.1872061132
 20
148.751327561
 30
0.0
 11
256.1432029842
 21
149.2515427785
 31
0.0
  0
LINE
  5
159
330
1F
100
AcDbEntity
  8
0
  6
HIDDEN
 62
     7
370
     0
100
AcDbLine
 10
256.1432029842
 20
149.2515427785
 30
0.0
 11
251.624589765
 21
149.5790824088
 31
0.0
  0
LINE
  5
15A
330
1F
100
AcDbEntity
  8
0
  6
HIDDEN
 62
     7
370
     0
100
AcDbLine
 10
249.4494523643
 20
154.2037574368
 30
0.0
 11
250.4961844324
 21
151.0079761761
 31
0.0
  0
LINE
  5
15B
330
1F
100
AcDbEntity
  8
0
  6
HIDDEN
 62
     7
370
     0
100
AcDbLine
 10
251.8284674524
 20
149.0672787445
 30
0.0
 11
251.5211608051
 21
149.4742061736
 31
0.0
  0
LINE
  5
15C
330
1F
100
AcDbEntity
  8
0
  6
HIDDEN
 62
     7
370
     0
100
AcDbLine
 10
252.3773815273
 20
147.1443369778
 30
0.0
 11
251.5211608051
 21
149.4742061736
 31
0.0
  0
SPLINE
  5
15D
330
1F
100
AcDbEntity
  8
0
  6
HIDDEN
 62
     7
370
     0
100
AcDbSpline
210
0.0
220
0.0
230
1.0
 70
     8
 71
     3
 72
     8
 73
     4
 74
     0
 42
0.00000001
 43
0.00000001
 12
1.0
 22
0.0
 32
0.0
 13
1.0
 23
0.0
 33
0.0
 40
0.0
 40
0.0
 40
0.0
 40
0.0
 40
1.0
 40
1.0
 40
1.0
 40
1.0
 10
252.5734677602352
 20
146.5377477019223
 30
0.0
 10
252.504618774152
 20
146.7479211481056
 30
0.0
 10
252.4398816112576
 20
146.9486851291948
 30
0.0
 10
252.3773781238814
 20
147.144337584117
 30
0.0
  0
LINE
  5
15E
330
1F
100
AcDbEntity
  8
0
  6
HIDDEN
 62
     7
370
     0
100
AcDbLine
 10
252.5734659075
 20
146.5377479585
 30
0.0
 11
252.3325290321
 21
146.8567818197
 31
0.0
  0
LINE
  5
15F
330
1F
100
AcDbEntity
  8
0
  6
HIDDEN
 62
     7
370
     0
100
AcDbLine
 10
255.8798994659
 20
149.1582549902
 30
0.0
 11
256.1872061132
 21
148.751327561
 31
0.0
  0
LINE
  5
160
330
1F
100
AcDbEntity
  8
0
  6
HIDDEN
 62
     7
370
     0
100
AcDbLine
 10
256.3337441324
 20
138.0267467143
 30
0.0
 11
256.8143959879
 21
138.5361689868
 31
0.0
  0
LINE
  5
161
330
1F
100
AcDbEntity
  8
0
  6
HIDDEN
 62
     7
370
     0
100
AcDbLine
 10
246.1426313757
 20
149.6329249608
 30
0.0
 11
247.704660499
 21
145.3825279864
 31
0.0
  0
ARC
  5
162
330
1F
100
AcDbEntity
  8
0
  6
HIDDEN
 62
     7
370
     0
100
AcDbCircle
 10
250.9940873288
 20
143.7356822913
 30
0.0
 40
3.678645078246585
100
AcDbArc
 50
153.4052442008
 51
67.9117891769
  0
LINE
  5
163
330
1F
100
AcDbEntity
  8
0
  6
HIDDEN
 62
     7
370
     0
100
AcDbLine
 10
255.8798994659
 20
149.1582549902
 30
0.0
 11
251.5211608051
 21
149.4742061736
 31
0.0
  0
LINE
  5
164
330
1F
100
AcDbEntity
  8
0
  6
HIDDEN
 62
     7
370
     0
100
AcDbLine
 10
244.9821289419
 20
145.7731861415
 30
0.0
 11
245.604088509
 21
138.7035686316
 31
0.0
  0
LINE
  5
165
330
1F
100
AcDbEntity
  8
0
  6
HIDDEN
 62
     7
370
     0
100
AcDbLine
 10
246.0653986572
 20
149.8696764725
 30
0.0
 11
243.546506369
 21
150.0522622632
 31
0.0
  0
LINE
  5
166
330
1F
100
AcDbEntity
  8
0
  6
HIDDEN
 62
     7
370
     0
100
AcDbLine
 10
255.8798994659
 20
149.1582549902
 30
0.0
 11
256.8143959879
 21
138.5361689868
 31
0.0
  0
SPLINE
  5
167
330
1F
100
AcDbEntity
  8
0
  6
HIDDEN
 62
     7
370
     0
100
AcDbSpline
210
0.0
220
0.0
230
1.0
 70
     8
 71
     3
 72
    16
 73
    12
 74
     0
 42
0.00000001
 43
0.00000001
 12
1.0
 22
0.0
 32
0.0
 13
1.0
 23
0.0
 33
0.0
 40
0.0
 40
0.0
 40
0.0
 40
0.0
 40
0.25
 40
0.25
 40
0.3749999999999999
 40
0.3749999999999999
 40
0.4999999999999998
 40
0.4999999999999998
 40
0.7499999999999999
 40
0.7499999999999999
 40
1.0
 40
1.0
 40
1.0
 40
1.0
 10
77.42853561576013
 20
146.2303815669534
 30
0.0
 10
77.26730313827566
 20
145.5159874047613
 30
0.0
 10
77.14682329863604
 20
144.8626451420526
 30
0.0
 10
77.02444278132272
 20
143.9743899002487
 30
0.0
 10
76.99346512092525
 20
143.6937093638969
 30
0.0
 10
76.9518513832973
 20
143.1646753740569
 30
0.0
 10
76.94161547036448
 20
142.9213543954784
 30
0.0
 10
76.94142707330836
 20
142.2533317049652
 30
0.0
 10
76.98157177594598
 20
141.8896507955457
 30
0.0
 10
77.14572553088556
 20
141.3297599229974
 30
0.0
 10
77.26727718129511
 20
141.1422386308803
 30
0.0
 10
77.42853561576011
 20
141.0442072381923
 30
0.0
  0
LINE
  5
168
330
1F
100
AcDbEntity
  8
0
  6
HIDDEN
 62
     7
370
     0
100
AcDbLine
 10
76.5498559712
 20
147.2793675753
 30
0.0
 11
76.5498559712
 21
140.7941885086
 31
0.0
  0
LINE
  5
169
330
1F
100
AcDbEntity
  8
0
  6
HIDDEN
 62
     7
370
     0
100
AcDbLine
 10
42.2498564958
 20
147.7102355825
 30
0.0
 11
42.2498564958
 21
141.6559245231
 31
0.0
  0
LINE
  5
16A
330
1F
100
AcDbEntity
  8
0
  6
HIDDEN
 62
     7
370
     0
100
AcDbLine
 10
40.7498571812
 20
148.1432484256
 30
0.0
 11
40.7498571812
 21
142.5219502093
 31
0.0
  0
LINE
  5
16B
330
1F
100
AcDbEntity
  8
0
  6
HIDDEN
 62
     7
370
     0
100
AcDbLine
 10
42.2498564958
 20
183.9726518633
 30
0.0
 11
42.2498564958
 21
177.9183408039
 31
0.0
  0
LINE
  5
16C
330
1F
100
AcDbEntity
  8
0
  6
HIDDEN
 62
     7
370
     0
100
AcDbLine
 10
76.5498559712
 20
184.8343878778
 30
0.0
 11
76.5498559712
 21
178.3492088111
 31
0.0
  0
SPLINE
  5
16D
330
1F
100
AcDbEntity
  8
0
  6
HIDDEN
 62
     7
370
     0
100
AcDbSpline
210
0.0
220
0.0
230
1.0
 70
     8
 71
     3
 72
    16
 73
    12
 74
     0
 42
0.00000001
 43
0.00000001
 12
1.0
 22
0.0
 32
0.0
 13
1.0
 23
0.0
 33
0.0
 40
0.0
 40
0.0
 40
0.0
 40
0.0
 40
0.25
 40
0.25
 40
0.375
 40
0.375
 40
0.5
 40
0.5
 40
0.75
 40
0.75
 40
1.0
 40
1.0
 40
1.0
 40
1.0
 10
77.42853561576011
 20
184.5843691481965
 30
0.0
 10
77.26730313827566
 20
184.4863535351418
 30
0.0
 10
77.14682329863604
 20
184.2996175034658
 30
0.0
 10
77.02444278132272
 20
183.8865776959068
 30
0.0
 10
76.99346512092525
 20
183.7265771966739
 30
0.0
 10
76.95185138329731
 20
183.3597715455828
 30
0.0
 10
76.94161547036448
 20
183.1564343929587
 30
0.0
 10
76.94142707330838
 20
182.4891471263321
 30
0.0
 10
76.981571775946
 20
181.968332662444
 30
0.0
 10
77.14572553088556
 20
180.7709736469664
 30
0.0
 10
77.26727718129511
 20
180.1127039926704
 30
0.0
 10
77.42853561576011
 20
179.3981948194355
 30
0.0
  0
LINE
  5
16E
330
1F
100
AcDbEntity
  8
0
  6
HIDDEN
 62
     7
370
     0
100
AcDbLine
 10
40.7498571812
 20
183.106626177
 30
0.0
 11
40.7498571812
 21
177.4853279608
 31
0.0
  0
ARC
  5
16F
330
1F
100
AcDbEntity
  8
0
  6
HIDDEN
 62
     7
370
     0
100
AcDbCircle
 10
250.932071718
 20
143.8136335717
 30
0.0
 40
3.18040470345381
100
AcDbArc
 50
162.3877756209
 51
58.9292577568
  0
SPLINE
  5
170
330
1F
100
AcDbEntity
  8
0
  6
HIDDEN
 62
     7
370
     0
100
AcDbSpline
210
0.0
220
0.0
230
1.0
 70
     8
 71
     3
 72
     8
 73
     4
 74
     0
 42
0.00000001
 43
0.00000001
 12
1.0
 22
0.0
 32
0.0
 13
1.0
 23
0.0
 33
0.0
 40
0.0
 40
0.0
 40
0.0
 40
0.0
 40
1.0
 40
1.0
 40
1.0
 40
1.0
 10
247.7046536924436
 20
145.3825283214346
 30
0.0
 10
247.7671571798198
 20
145.1868758665124
 30
0.0
 10
247.8318943427141
 20
144.9861118854231
 30
0.0
 10
247.9007433287972
 20
144.7759384392398
 30
0.0
  0
SPLINE
  5
171
330
1F
100
AcDbEntity
  8
0
  6
HIDDEN
 62
     7
370
     0
100
AcDbSpline
210
0.0
220
0.0
230
1.0
 70
     8
 71
     3
 72
    10
 73
     6
 74
     0
 42
0.00000001
 43
0.00000001
 12
1.0
 22
0.0
 32
0.0
 13
1.0
 23
0.0
 33
0.0
 40
0.0
 40
0.0
 40
0.0
 40
0.0
 40
0.5
 40
0.5
 40
1.0
 40
1.0
 40
1.0
 40
1.0
 10
247.6598067494531
 20
145.0949730699308
 30
0.0
 10
247.6104107069418
 20
145.1603805237225
 30
0.0
 10
247.5787463836412
 20
145.2782502922406
 30
0.0
 10
247.5391377230101
 20
145.5579597782638
 30
0.0
 10
247.5321106815604
 20
145.7211896928418
 30
0.0
 10
247.5409693864805
 20
145.8974333677113
 30
0.0
  0
ARC
  5
172
330
1F
100
AcDbEntity
  8
0
  6
HIDDEN
 62
     7
370
     0
100
AcDbCircle
 10
250.3904416575
 20
144.5091346017
 30
0.0
 40
3.169677672060403
100
AcDbArc
 50
154.0240500797
 51
354.0910759646
  0
ARC
  5
173
330
1F
100
AcDbEntity
  8
0
  6
HIDDEN
 62
     7
370
     0
100
AcDbCircle
 10
250.4511567978
 20
144.564733976
 30
0.0
 40
3.114757630518798
100
AcDbArc
 50
0.0539925851
 51
67.5432329435
  0
SPLINE
  5
174
330
1F
100
AcDbEntity
  8
0
  6
HIDDEN
 62
     7
370
     0
100
AcDbSpline
210
0.0
220
0.0
230
1.0
 70
     8
 71
     3
 72
    10
 73
     6
 74
     0
 42
0.00000001
 43
0.00000001
 12
1.0
 22
0.0
 32
0.0
 13
1.0
 23
0.0
 33
0.0
 40
0.0
 40
0.0
 40
0.0
 40
0.0
 40
0.5
 40
0.5
 40
1.0
 40
1.0
 40
1.0
 40
1.0
 10
251.6409471712707
 20
147.4432935920886
 30
0.0
 10
251.8043449812568
 20
147.3322145507063
 30
0.0
 10
251.9473667927026
 20
147.2211013713973
 30
0.0
 10
252.1859394875798
 20
147.0165275624843
 30
0.0
 10
252.2832230571191
 20
146.9220733693684
 30
0.0
 10
252.3325311808908
 20
146.8567823326133
 30
0.0
  0
LINE
  5
175
330
1F
100
AcDbEntity
  8
0
  6
HIDDEN
 62
     7
370
     0
100
AcDbLine
 10
247.6598080038
 20
145.0949728282
 30
0.0
 11
247.9007448792
 21
144.7759389671
 31
0.0
  0
SPLINE
  5
176
330
1F
100
AcDbEntity
  8
0
  6
HIDDEN
 62
     7
370
     0
100
AcDbSpline
210
0.0
220
0.0
230
1.0
 70
     8
 71
     3
 72
    25
 73
    21
 74
     0
 42
0.00000001
 43
0.00000001
 12
1.0
 22
0.0
 32
0.0
 13
1.0
 23
0.0
 33
0.0
 40
0.0
 40
0.0
 40
0.0
 40
0.0
 40
0.0248386206863654
 40
0.049673603649922
 40
0.0745124208139358
 40
0.0993625406430786
 40
0.1242314214189896
 40
0.1864347327401046
 40
0.2487236138697039
 40
0.3110567105601987
 40
0.3734707153072621
 40
0.4984224523302064
 40
0.6235791530806095
 40
0.6862184073149108
 40
0.7489346944276942
 40
0.8116434891636608
 40
0.8744210129003899
 40
0.91625543881592
 40
0.9581039346014601
 40
1.0
 40
1.0
 40
1.0
 40
1.0
 10
256.8144014290551
 20
138.5361694960296
 30
0.0
 10
256.7959059768334
 20
138.5938540115807
 30
0.0
 10
256.7589177811283
 20
138.7092145945375
 30
0.0
 10
256.7028765683502
 20
138.8913238536068
 30
0.0
 10
256.646439916354
 20
139.0800297726584
 30
0.0
 10
256.589566294076
 20
139.2759878845744
 30
0.0
 10
256.5036180626542
 20
139.5805350489028
 30
0.0
 10
256.3876175593315
 20
140.0111858071516
 30
0.0
 10
256.240499805889
 20
140.5919719615699
 30
0.0
 10
256.0914634853327
 20
141.2143596771132
 30
0.0
 10
255.8905424457284
 20
142.0983212776153
 30
0.0
 10
255.6359933571611
 20
143.301489493723
 30
0.0
 10
255.379154790093
 20
144.6249864158569
 30
0.0
 10
255.1733604478562
 20
145.7503624537258
 30
0.0
 10
255.0190664892482
 20
146.626584502164
 30
0.0
 10
254.8651532264199
 20
147.5331189377087
 30
0.0
 10
254.7289904695046
 20
148.3639746510304
 30
0.0
 10
254.6105025872298
 20
149.1084586294829
 30
0.0
 10
254.5094022549925
 20
149.7573103968092
 30
0.0
 10
254.442524461816
 20
150.198926097555
 30
0.0
 10
254.4090665708555
 20
150.4198593739118
 30
0.0
  0
LWPOLYLINE
  5
177
330
1F
100
AcDbEntity
  8
0
  6
HIDDEN
 62
     7
370
     0
100
AcDbPolyline
 90
       11
 70
   128
 43
0.0
 10
245.8234634041
 20
149.2461662533
 10
246.1178656458
 20
148.7395528497
 10
246.6121520638
 20
148.3687588738
 10
247.2579385876
 20
148.1700816917
 10
247.9919995903
 20
148.1629673185
 10
248.7424965738
 20
148.348113315
 10
249.4359519123
 20
148.7073961439
 10
250.0044908165
 20
149.205647202
 10
250.3924723505
 20
149.7940931263
 10
250.5618836521
 20
150.415133478
 10
250.4961844324
 20
151.0079761761
  0
ELLIPSE
  5
178
330
1F
100
AcDbEntity
  8
0
  6
HIDDEN
 62
     7
370
     0
100
AcDbEllipse
 10
249.109938028
 20
147.979266755
 30
0.0
 11
-0.9382876123696349
 21
2.751666891553185
 31
0.0
210
0.0
220
0.0
230
1.0
 40
0.8587453104
 41
2.098545205328551
 42
4.239491960015227
  0
LINE
  5
179
330
1F
100
AcDbEntity
  8
0
  6
HIDDEN
 62
     7
370
     0
100
AcDbLine
 10
245.8234634041
 20
149.2461662533
 30
0.0
 11
244.776731336
 21
152.441947514
 31
0.0
  0
CIRCLE
  5
17A
330
1F
100
AcDbEntity
  8
0
  6
HIDDEN
 62
     7
370
     0
100
AcDbCircle
 10
214.7498559593
 20
162.8142881932
 30
0.0
 40
2.5
  0
CIRCLE
  5
17B
330
1F
100
AcDbEntity
  8
0
  6
HIDDEN
 62
     7
370
     0
100
AcDbCircle
 10
214.7498559593
 20
162.8142881932
 30
0.0
 40
3.0
  0
LINE
  5
17C
330
1F
100
AcDbEntity
  8
0
  6
HIDDEN
 62
     7
370
     0
100
AcDbLine
 10
40.7498571812
 20
177.4853279608
 30
0.0
 11
40.7498571812
 21
165.7162755987
 31
0.0
  0
LINE
  5
17D
330
1F
100
AcDbEntity
  8
0
  6
HIDDEN
 62
     7
370
     0
100
AcDbLine
 10
40.7498571812
 20
159.9123007877
 30
0.0
 11
40.7498571812
 21
148.1432484256
 31
0.0
  0
LINE
  5
17E
330
1F
100
AcDbEntity
  8
0
  6
HIDDEN
 62
     7
370
     0
100
AcDbLine
 10
42.2498564958
 20
158.8490770923
 30
0.0
 11
42.2498564958
 21
147.7102355825
 31
0.0
  0
LINE
  5
17F
330
1F
100
AcDbEntity
  8
0
  6
HIDDEN
 62
     7
370
     0
100
AcDbLine
 10
42.2498564958
 20
177.9183408039
 30
0.0
 11
42.2498564958
 21
166.7794992941
 31
0.0
  0
LINE
  5
180
330
1F
100
AcDbEntity
  8
0
  6
HIDDEN
 62
     7
370
     0
100
AcDbLine
 10
78.5498559644
 20
177.8519952463
 30
0.0
 11
78.5498559644
 21
147.7765811401
 31
0.0
  0
LINE
  5
181
330
1F
100
AcDbEntity
  8
0
  6
HIDDEN
 62
     7
370
     0
100
AcDbLine
 10
76.5498559712
 20
178.3492088111
 30
0.0
 11
76.5498559712
 21
147.2793675753
 31
0.0
  0
SPLINE
  5
182
330
1F
100
AcDbEntity
  8
0
  6
HIDDEN
 62
     7
370
     0
100
AcDbSpline
210
0.0
220
0.0
230
1.0
 70
     8
 71
     3
 72
     8
 73
     4
 74
     0
 42
0.00000001
 43
0.00000001
 12
1.0
 22
0.0
 32
0.0
 13
1.0
 23
0.0
 33
0.0
 40
0.0000249638557296
 40
0.0000249638557296
 40
0.0000249638557296
 40
0.0000249638557296
 40
0.0049776420541172
 40
0.0049776420541172
 40
0.0049776420541172
 40
0.0049776420541172
 10
42.24985595931977
 20
158.8490772963579
 30
0.0
 10
43.89983219382931
 20
158.8077980585896
 30
0.0
 10
45.54983351357436
 20
158.7675763773503
 30
0.0
 10
47.19985595931981
 20
158.7283271400952
 30
0.0
  0
SPLINE
  5
183
330
1F
100
AcDbEntity
  8
0
  6
HIDDEN
 62
     7
370
     0
100
AcDbSpline
210
0.0
220
0.0
230
1.0
 70
     8
 71
     3
 72
     8
 73
     4
 74
     0
 42
0.00000001
 43
0.00000001
 12
1.0
 22
0.0
 32
0.0
 13
1.0
 23
0.0
 33
0.0
 40
0.0000249631533153
 40
0.0000249631533153
 40
0.0000249631533153
 40
0.0000249631533153
 40
0.0049776413517028
 40
0.0049776413517028
 40
0.0049776413517028
 40
0.0049776413517028
 10
47.19985595931986
 20
166.9002492462936
 30
0.0
 10
45.54983351357443
 20
166.8610000090385
 30
0.0
 10
43.89983219382938
 20
166.8207783277992
 30
0.0
 10
42.24985595931984
 20
166.7794990900309
 30
0.0
  0
SPLINE
  5
184
330
1F
100
AcDbEntity
  8
0
  6
HIDDEN
 62
     7
370
     0
100
AcDbSpline
210
0.0
220
0.0
230
1.0
 70
     8
 71
     3
 72
     8
 73
     4
 74
     0
 42
0.00000001
 43
0.00000001
 12
1.0
 22
0.0
 32
0.0
 13
1.0
 23
0.0
 33
0.0
 40
0.0
 40
0.0
 40
0.0
 40
0.0
 40
1.0
 40
1.0
 40
1.0
 40
1.0
 10
40.7498559593176
 20
159.9123008602141
 30
0.0
 10
41.21661657069536
 20
159.4969376145911
 30
0.0
 10
41.72236411747546
 20
159.1523471852865
 30
0.0
 10
42.24985595931982
 20
158.8490772963579
 30
0.0
  0
SPLINE
  5
185
330
1F
100
AcDbEntity
  8
0
  6
HIDDEN
 62
     7
370
     0
100
AcDbSpline
210
0.0
220
0.0
230
1.0
 70
     8
 71
     3
 72
     8
 73
     4
 74
     0
 42
0.00000001
 43
0.00000001
 12
1.0
 22
0.0
 32
0.0
 13
1.0
 23
0.0
 33
0.0
 40
0.0
 40
0.0
 40
0.0
 40
0.0
 40
1.0
 40
1.0
 40
1.0
 40
1.0
 10
42.24985595931986
 20
166.7794990900309
 30
0.0
 10
41.72236411747635
 20
166.4762292011028
 30
0.0
 10
41.216616570697
 20
166.1316387717989
 30
0.0
 10
40.74985595931985
 20
165.7162755261767
 30
0.0
  0
LINE
  5
186
330
1F
100
AcDbEntity
  8
0
  6
HIDDEN
 62
     7
370
     0
100
AcDbLine
 10
40.7498571812
 20
159.9123007877
 30
0.0
 11
40.7498571812
 21
165.7162755987
 31
0.0
  0
LINE
  5
187
330
1F
100
AcDbEntity
  8
0
  6
HIDDEN
 62
     7
370
     0
100
AcDbLine
 10
47.1998546063
 20
158.7283269296
 30
0.0
 11
47.1998546063
 21
166.9002494568
 31
0.0
  0
SPLINE
  5
188
330
1F
100
AcDbEntity
  8
0
  6
HIDDEN
 62
     7
370
     0
100
AcDbSpline
210
0.0
220
0.0
230
1.0
 70
     8
 71
     3
 72
    24
 73
    20
 74
     0
 42
0.00000001
 43
0.00000001
 12
1.0
 22
0.0
 32
0.0
 13
1.0
 23
0.0
 33
0.0
 40
0.0
 40
0.0
 40
0.0
 40
0.0
 40
0.125
 40
0.125
 40
0.25
 40
0.25
 40
0.3750000000000001
 40
0.3750000000000001
 40
0.4375000000000001
 40
0.4375000000000001
 40
0.5000000000000001
 40
0.5000000000000001
 40
0.6250000000000001
 40
0.6250000000000001
 40
0.7500000000000001
 40
0.7500000000000001
 40
0.8750000000000001
 40
0.8750000000000001
 40
1.0
 40
1.0
 40
1.0
 40
1.0
 10
47.19985595931981
 20
158.7283271400952
 30
0.0
 10
47.43765959159489
 20
159.0273342424253
 30
0.0
 10
47.66774525280616
 20
159.3316720937441
 30
0.0
 10
48.102498651416
 20
159.95740563114
 30
0.0
 10
48.30743144370216
 20
160.2786303584676
 30
0.0
 10
48.67253339420085
 20
160.9505561292003
 30
0.0
 10
48.83433377999236
 20
161.3058713610792
 30
0.0
 10
49.00619398457209
 20
161.8561025824316
 30
0.0
 10
49.05177917623222
 20
162.0425063674121
 30
0.0
 10
49.11425391580707
 20
162.4226408695083
 30
0.0
 10
49.13092506155553
 20
162.6183106617942
 30
0.0
 10
49.13144610473201
 20
163.1967910404686
 30
0.0
 10
49.06700380384534
 20
163.5747028794374
 30
0.0
 10
48.83715471047201
 20
164.3166709045358
 30
0.0
 10
48.67863403280889
 20
164.6653863646968
 30
0.0
 10
48.31439970290872
 20
165.3384787624299
 30
0.0
 10
48.10766346284513
 20
165.6634312496716
 30
0.0
 10
47.66972551710477
 20
166.2943550601334
 30
0.0
 10
47.43845278982523
 20
166.600244800474
 30
0.0
 10
47.19985595931991
 20
166.9002492462935
 30
0.0
  0
SPLINE
  5
189
330
1F
100
AcDbEntity
  8
0
  6
HIDDEN
 62
     7
370
     0
100
AcDbSpline
210
0.0
220
0.0
230
1.0
 70
     8
 71
     3
 72
    72
 73
    68
 74
     0
 42
0.00000001
 43
0.00000001
 12
1.0
 22
0.0
 32
0.0
 13
1.0
 23
0.0
 33
0.0
 40
-0.03125
 40
-0.03125
 40
0.0
 40
0.0
 40
0.03125
 40
0.03125
 40
0.0624999999999999
 40
0.0624999999999999
 40
0.0937499999999999
 40
0.0937499999999999
 40
0.1249999999999999
 40
0.1249999999999999
 40
0.1562499999999999
 40
0.1562499999999999
 40
0.1874999999999998
 40
0.1874999999999998
 40
0.2187499999999998
 40
0.2187499999999998
 40
0.2499999999999998
 40
0.2499999999999998
 40
0.2812499999999998
 40
0.2812499999999998
 40
0.3124999999999997
 40
0.3124999999999997
 40
0.3437499999999997
 40
0.3437499999999997
 40
0.3749999999999997
 40
0.3749999999999997
 40
0.3906249999999997
 40
0.3906249999999997
 40
0.4062499999999997
 40
0.4062499999999997
 40
0.4374999999999997
 40
0.4374999999999997
 40
0.4687499999999997
 40
0.4687499999999997
 40
0.4999999999999997
 40
0.4999999999999997
 40
0.5312499999999997
 40
0.5312499999999997
 40
0.5624999999999996
 40
0.5624999999999996
 40
0.5937499999999996
 40
0.5937499999999996
 40
0.6249999999999997
 40
0.6249999999999997
 40
0.6562499999999998
 40
0.6562499999999998
 40
0.6874999999999998
 40
0.6874999999999998
 40
0.7187499999999999
 40
0.7187499999999999
 40
0.75
 40
0.75
 40
0.7812500000000001
 40
0.7812500000000001
 40
0.8125000000000001
 40
0.8125000000000001
 40
0.8437500000000001
 40
0.8437500000000001
 40
0.8750000000000001
 40
0.8750000000000001
 40
0.9062500000000001
 40
0.9062500000000001
 40
0.9375
 40
0.9375
 40
0.96875
 40
0.96875
 40
1.0
 40
1.0
 40
1.03125
 40
1.03125
 10
59.87380227814502
 20
165.2551218430092
 30
0.0
 10
60.24823249801889
 20
165.6654776434944
 30
0.0
 10
60.45308509928449
 20
165.8491267261529
 30
0.0
 10
60.89595329613147
 20
166.1760816296482
 30
0.0
 10
61.13590871344976
 20
166.319859837828
 30
0.0
 10
61.6315196962243
 20
166.5573771932739
 30
0.0
 10
61.88878598737875
 20
166.6526967581717
 30
0.0
 10
62.42213975521581
 20
166.7967822908061
 30
0.0
 10
62.69641989511413
 20
166.8445182977757
 30
0.0
 10
63.24284842969372
 20
166.8901004383096
 30
0.0
 10
63.5174247481615
 20
166.8886666782373
 30
0.0
 10
64.06939192243223
 20
166.8357533701465
 30
0.0
 10
64.3400088850039
 20
166.7847836439423
 30
0.0
 10
64.86629405608309
 20
166.6361770169987
 30
0.0
 10
65.12392561949068
 20
166.5378916462416
 30
0.0
 10
65.61985178416418
 20
166.2936382870559
 30
0.0
 10
65.85283546195583
 20
166.1505581560337
 30
0.0
 10
66.28916873728083
 20
165.8226996055649
 30
0.0
 10
66.49444999113912
 20
165.6357059678647
 30
0.0
 10
66.86248428899931
 20
165.2262753480416
 30
0.0
 10
67.0239992789845
 20
165.0061699070572
 30
0.0
 10
67.30115696213163
 20
164.5344198256191
 30
0.0
 10
67.41755114156534
 20
164.2794032991779
 30
0.0
 10
67.59082517821196
 20
163.7581654757809
 30
0.0
 10
67.64927173267772
 20
163.490681358
 30
0.0
 10
67.69313645815362
 20
163.0787656986675
 30
0.0
 10
67.70031667478298
 20
162.939058395592
 30
0.0
 10
67.69934864748753
 20
162.6629353401296
 30
0.0
 10
67.69134585807387
 20
162.5257587737988
 30
0.0
 10
67.64527312616147
 20
162.1168253325355
 30
0.0
 10
67.58433829370944
 20
161.8448990835313
 30
0.0
 10
67.40621813730093
 20
161.3217185670762
 30
0.0
 10
67.29065022595854
 20
161.0730065667128
 30
0.0
 10
67.00880344201926
 20
160.6001220417209
 30
0.0
 10
66.8419334966046
 20
160.3765128244887
 30
0.0
 10
66.47260794180582
 20
159.9718554363011
 30
0.0
 10
66.26782278550833
 20
159.7874418481316
 30
0.0
 10
65.82316983799213
 20
159.4584158132372
 30
0.0
 10
65.58832070848135
 20
159.317247737249
 30
0.0
 10
65.0949109460043
 20
159.0788382084685
 30
0.0
 10
64.83362399229966
 20
158.9810556520636
 30
0.0
 10
64.30288571178698
 20
158.8357276238735
 30
0.0
 10
64.03324601088974
 20
158.7874382336785
 30
0.0
 10
63.48549467114453
 20
158.7390230098919
 30
0.0
 10
63.20559062928591
 20
158.7394811955278
 30
0.0
 10
62.6585127214509
 20
158.78963305113
 30
0.0
 10
62.38890761676347
 20
158.838806618162
 30
0.0
 10
61.85775286010739
 20
158.9864811414691
 30
0.0
 10
61.59645804366384
 20
159.0856363058346
 30
0.0
 10
61.10414406548846
 20
159.3266490763114
 30
0.0
 10
60.87018718990983
 20
159.4691372009361
 30
0.0
 10
60.42801856937936
 20
159.800624629921
 30
0.0
 10
60.22282503826769
 20
159.9880582579094
 30
0.0
 10
59.85713082190971
 20
160.3949619769598
 30
0.0
 10
59.69436019952136
 20
160.6161410516288
 30
0.0
 10
59.41340776875581
 20
161.0958883808441
 30
0.0
 10
59.3002039164823
 20
161.3459003476544
 30
0.0
 10
59.12759519234337
 20
161.8659755576748
 30
0.0
 10
59.06798890966699
 20
162.1397070223046
 30
0.0
 10
59.01009713959714
 20
162.6883246722031
 30
0.0
 10
59.0108866784571
 20
162.9626645360946
 30
0.0
 10
59.07207715407352
 20
163.5114064872336
 30
0.0
 10
59.13320587780754
 20
163.7844718010907
 30
0.0
 10
59.30928556343736
 20
164.3046370498591
 30
0.0
 10
59.42561615842731
 20
164.556956183418
 30
0.0
 10
59.70881738816805
 20
165.033360524825
 30
0.0
 10
59.87380227814502
 20
165.2551218430092
 30
0.0
 10
60.24823249801889
 20
165.6654776434944
 30
0.0
  0
CIRCLE
  5
18A
330
1F
100
AcDbEntity
  8
0
  6
HIDDEN
 62
     7
370
     0
100
AcDbCircle
 10
63.2498559593
 20
162.8142881932
 30
0.0
 40
4.049999999999983
  0
SPLINE
  5
18B
330
1F
100
AcDbEntity
  8
0
  6
HIDDEN
 62
     7
370
     0
100
AcDbSpline
210
0.0
220
0.0
230
1.0
 70
     8
 71
     3
 72
     9
 73
     5
 74
     0
 42
0.00000001
 43
0.00000001
 12
1.0
 22
0.0
 32
0.0
 13
1.0
 23
0.0
 33
0.0
 40
0.0
 40
0.0
 40
0.0
 40
0.0
 40
0.4999996710308839
 40
1.0
 40
1.0
 40
1.0
 40
1.0
 10
254.4090649892172
 20
150.4198600010807
 30
0.0
 10
254.3477972973767
 20
150.266882479864
 30
0.0
 10
254.2252618330748
 20
149.960927236131
 30
0.0
 10
254.0967878822297
 20
149.6574177714636
 30
0.0
 10
254.0325508645432
 20
149.5056629392847
 30
0.0
  0
LINE
  5
18C
330
1F
100
AcDbEntity
  8
0
  6
HIDDEN
 62
     7
370
     0
100
AcDbLine
 10
253.3264066814
 20
161.061063784
 30
0.0
 11
254.4090654491
 21
150.41985994
 31
0.0
  0
LINE
  5
18D
330
1F
100
AcDbEntity
  8
0
  6
HIDDEN
 62
     7
370
     0
100
AcDbLine
 10
252.078389728
 20
162.8142881932
 30
0.0
 11
253.3264066814
 21
161.061063784
 31
0.0
  0
CIRCLE
  5
18E
330
1F
100
AcDbEntity
  8
0
  6
HIDDEN
 62
     7
370
     0
100
AcDbCircle
 10
90.7498559593
 20
162.8142881932
 30
0.0
 40
2.0
  0
LINE
  5
18F
330
1F
100
AcDbEntity
  8
0
  6
HIDDEN
 62
     7
370
     0
100
AcDbLine
 10
78.7498559593
 20
138.5642874779
 30
0.0
 11
78.8427491797
 21
138.6571813168
 31
0.0
  0
LINE
  5
190
330
1F
100
AcDbEntity
  8
0
  6
HIDDEN
 62
     7
370
     0
100
AcDbLine
 10
78.8427491797
 20
186.9713950696
 30
0.0
 11
78.7498559593
 21
187.0642889085
 31
0.0
  0
ARC
  5
191
330
1F
100
AcDbEntity
  8
0
  6
HIDDEN
 62
     7
370
     0
100
AcDbCircle
 10
78.1356423969
 20
139.3642881932
 30
0.0
 40
0.9999999999999858
100
AcDbArc
 50
315.0
 51
0.0
  0
ARC
  5
192
330
1F
100
AcDbEntity
  8
0
  6
HIDDEN
 62
     7
370
     0
100
AcDbCircle
 10
78.1356423969
 20
139.3642881932
 30
0.0
 40
0.9999999999999901
100
AcDbArc
 50
0.0
 51
52.1052014664
  0
ARC
  5
193
330
1F
100
AcDbEntity
  8
0
  6
HIDDEN
 62
     7
370
     0
100
AcDbCircle
 10
78.1356423969
 20
186.2642881932
 30
0.0
 40
0.9999999999999917
100
AcDbArc
 50
351.8087250651
 51
45.0
  0
ARC
  5
194
330
1F
100
AcDbEntity
  8
0
  6
HIDDEN
 62
     7
370
     0
100
AcDbCircle
 10
78.1356423969
 20
186.2642881932
 30
0.0
 40
0.9999999999999917
100
AcDbArc
 50
307.8947985336
 51
351.8087250651
  0
LINE
  5
195
330
1F
100
AcDbEntity
  8
0
  6
HIDDEN
 62
     7
370
     0
100
AcDbLine
 10
79.1356423951
 20
139.3642879816
 30
0.0
 11
79.1356423951
 21
186.2642884048
 31
0.0
  0
LINE
  5
196
330
1F
100
AcDbEntity
  8
0
  6
HIDDEN
 62
     7
370
     0
100
AcDbLine
 10
79.1356423951
 20
139.3642879816
 30
0.0
 11
79.1356423951
 21
186.2642884048
 31
0.0
  0
LINE
  5
197
330
1F
100
AcDbEntity
  8
0
  6
HIDDEN
 62
     7
370
     0
100
AcDbLine
 10
213.4964223742
 20
165.4863374101
 30
0.0
 11
212.1981289028
 21
164.2345155383
 31
0.0
  0
LINE
  5
198
330
1F
100
AcDbEntity
  8
0
  6
HIDDEN
 62
     7
370
     0
100
AcDbLine
 10
212.1981289028
 20
164.2345155383
 30
0.0
 11
211.6311397194
 21
162.5224642598
 31
0.0
  0
LINE
  5
199
330
1F
100
AcDbEntity
  8
0
  6
HIDDEN
 62
     7
370
     0
100
AcDbLine
 10
215.2570094704
 20
165.2633284943
 30
0.0
 11
214.2750974535
 21
165.8812803475
 31
0.0
  0
LINE
  5
19A
330
1F
100
AcDbEntity
  8
0
  6
HIDDEN
 62
     7
370
     0
100
AcDbLine
 10
224.0803595423
 20
159.7104131038
 30
0.0
 11
216.7496140837
 21
164.3239613882
 31
0.0
  0
LINE
  5
19B
330
1F
100
AcDbEntity
  8
0
  6
HIDDEN
 62
     7
370
     0
100
AcDbLine
 10
211.6119023203
 20
161.6495681487
 30
0.0
 11
224.0767534613
 21
153.8049101623
 31
0.0
  0
LINE
  5
19C
330
1F
100
AcDbEntity
  8
0
  6
HIDDEN
 62
     7
370
     0
100
AcDbLine
 10
40.7498571812
 20
146.6178584637
 30
0.0
 11
42.2800835012
 21
147.501337135
 31
0.0
  0
LINE
  5
19D
330
1F
100
AcDbEntity
  8
0
  6
HIDDEN
 62
     7
370
     0
100
AcDbLine
 10
42.2800835012
 20
178.1272392513
 30
0.0
 11
40.7498571812
 21
179.0107179227
 31
0.0
  0
LINE
  5
19E
330
1F
100
AcDbEntity
  8
0
  6
HIDDEN
 62
     7
370
     0
100
AcDbLine
 10
50.7498550951
 20
146.8142874332
 30
0.0
 11
51.7516564368
 21
146.8142874332
 31
0.0
  0
LINE
  5
19F
330
1F
100
AcDbEntity
  8
0
  6
HIDDEN
 62
     7
370
     0
100
AcDbLine
 10
51.7516564368
 20
178.8142889532
 30
0.0
 11
50.7498550951
 21
178.8142889532
 31
0.0
  0
ARC
  5
1A0
330
1F
100
AcDbEntity
  8
0
  6
HIDDEN
 62
     7
370
     0
100
AcDbCircle
 10
51.7516572742
 20
148.8142881932
 30
0.0
 40
2.0
100
AcDbArc
 50
270.0
 51
315.0
  0
ARC
  5
1A1
330
1F
100
AcDbEntity
  8
0
  6
HIDDEN
 62
     7
370
     0
100
AcDbCircle
 10
51.7516572742
 20
176.8142881932
 30
0.0
 40
2.000000000000011
100
AcDbArc
 50
45.0
 51
90.0
  0
ARC
  5
1A2
330
1F
100
AcDbEntity
  8
0
  6
HIDDEN
 62
     7
370
     0
100
AcDbCircle
 10
50.7498559593
 20
148.8142881932
 30
0.0
 40
2.0
100
AcDbArc
 50
189.9742217944
 51
270.0
  0
ARC
  5
1A3
330
1F
100
AcDbEntity
  8
0
  6
HIDDEN
 62
     7
370
     0
100
AcDbCircle
 10
50.7498559593
 20
176.8142881932
 30
0.0
 40
2.0
100
AcDbArc
 50
90.0
 51
170.0257782056
  0
LINE
  5
1A4
330
1F
100
AcDbEntity
  8
0
  6
HIDDEN
 62
     7
370
     0
100
AcDbLine
 10
53.165871629
 20
147.4000744315
 30
0.0
 11
54.5800849586
 21
148.8142877611
 31
0.0
  0
LINE
  5
1A5
330
1F
100
AcDbEntity
  8
0
  6
HIDDEN
 62
     7
370
     0
100
AcDbLine
 10
54.5800849586
 20
176.8142886253
 30
0.0
 11
53.165871629
 21
178.2285019549
 31
0.0
  0
LINE
  5
1A6
330
1F
100
AcDbEntity
  8
0
  6
HIDDEN
 62
     7
370
     0
100
AcDbLine
 10
42.2800835012
 20
147.501337135
 30
0.0
 11
47.1800844907
 21
148.8142877611
 31
0.0
  0
LINE
  5
1A7
330
1F
100
AcDbEntity
  8
0
  6
HIDDEN
 62
     7
370
     0
100
AcDbLine
 10
47.1800844907
 20
176.8142886253
 30
0.0
 11
42.2800835012
 21
178.1272392513
 31
0.0
  0
LINE
  5
1A8
330
1F
100
AcDbEntity
  8
0
  6
HIDDEN
 62
     7
370
     0
100
AcDbLine
 10
48.7800836354
 20
177.1606987136
 30
0.0
 11
48.1800846546
 21
176.8142886253
 31
0.0
  0
LINE
  5
1A9
330
1F
100
AcDbEntity
  8
0
  6
HIDDEN
 62
     7
370
     0
100
AcDbLine
 10
48.1800846546
 20
148.8142877611
 30
0.0
 11
48.7800836354
 21
148.4678776728
 31
0.0
  0
ARC
  5
1AA
330
1F
100
AcDbEntity
  8
0
  6
HIDDEN
 62
     7
370
     0
100
AcDbCircle
 10
67.2498559593
 20
149.3142881932
 30
0.0
 40
0.5
100
AcDbArc
 50
270.0
 51
0.0
  0
ARC
  5
1AB
330
1F
100
AcDbEntity
  8
0
  6
HIDDEN
 62
     7
370
     0
100
AcDbCircle
 10
67.2498559593
 20
176.3142881932
 30
0.0
 40
0.5
100
AcDbArc
 50
0.0
 51
90.0
  0
LINE
  5
1AC
330
1F
100
AcDbEntity
  8
0
  6
HIDDEN
 62
     7
370
     0
100
AcDbLine
 10
54.5800849586
 20
148.8142877611
 30
0.0
 11
67.249855937
 21
148.8142877611
 31
0.0
  0
LINE
  5
1AD
330
1F
100
AcDbEntity
  8
0
  6
HIDDEN
 62
     7
370
     0
100
AcDbLine
 10
67.249855937
 20
176.8142886253
 30
0.0
 11
54.5800849586
 21
176.8142886253
 31
0.0
  0
LINE
  5
1AE
330
1F
100
AcDbEntity
  8
0
  6
HIDDEN
 62
     7
370
     0
100
AcDbLine
 10
47.1800844907
 20
148.8142877611
 30
0.0
 11
48.1800846546
 21
148.8142877611
 31
0.0
  0
LINE
  5
1AF
330
1F
100
AcDbEntity
  8
0
  6
HIDDEN
 62
     7
370
     0
100
AcDbLine
 10
48.1800846546
 20
176.8142886253
 30
0.0
 11
47.1800844907
 21
176.8142886253
 31
0.0
  0
LINE
  5
1B0
330
1F
100
AcDbEntity
  8
0
  6
HIDDEN
 62
     7
370
     0
100
AcDbLine
 10
67.7498560189
 20
152.5642879101
 30
0.0
 11
68.9998557582
 21
153.8142885806
 31
0.0
  0
LINE
  5
1B1
330
1F
100
AcDbEntity
  8
0
  6
HIDDEN
 62
     7
370
     0
100
AcDbLine
 10
68.9998557582
 20
171.8142878058
 30
0.0
 11
67.7498560189
 21
173.0642884763
 31
0.0
  0
LINE
  5
1B2
330
1F
100
AcDbEntity
  8
0
  6
HIDDEN
 62
     7
370
     0
100
AcDbLine
 10
94.7498567193
 20
153.8142885806
 30
0.0
 11
97.603943178
 21
158.5642879622
 31
0.0
  0
LINE
  5
1B3
330
1F
100
AcDbEntity
  8
0
  6
HIDDEN
 62
     7
370
     0
100
AcDbLine
 10
97.603943178
 20
167.0642884242
 30
0.0
 11
94.7498567193
 21
171.8142878058
 31
0.0
  0
LINE
  5
1B4
330
1F
100
AcDbEntity
  8
0
  6
HIDDEN
 62
     7
370
     0
100
AcDbLine
 10
68.9998557582
 20
153.8142885806
 30
0.0
 11
94.7498567193
 21
153.8142885806
 31
0.0
  0
LINE
  5
1B5
330
1F
100
AcDbEntity
  8
0
  6
HIDDEN
 62
     7
370
     0
100
AcDbLine
 10
94.7498567193
 20
171.8142878058
 30
0.0
 11
68.9998557582
 21
171.8142878058
 31
0.0
  0
LINE
  5
1B6
330
1F
100
AcDbEntity
  8
0
  6
HIDDEN
 62
     7
370
     0
100
AcDbLine
 10
218.7498565554
 20
158.5642879622
 30
0.0
 11
221.3035132526
 21
162.8142881932
 31
0.0
  0
LINE
  5
1B7
330
1F
100
AcDbEntity
  8
0
  6
HIDDEN
 62
     7
370
     0
100
AcDbLine
 10
221.3035132526
 20
162.8142881932
 30
0.0
 11
218.7498565554
 21
167.0642884242
 31
0.0
  0
LINE
  5
1B8
330
1F
100
AcDbEntity
  8
0
  6
HIDDEN
 62
     7
370
     0
100
AcDbLine
 10
97.603943178
 20
158.5642879622
 30
0.0
 11
218.7498565554
 21
158.5642879622
 31
0.0
  0
LINE
  5
1B9
330
1F
100
AcDbEntity
  8
0
  6
HIDDEN
 62
     7
370
     0
100
AcDbLine
 10
218.7498565554
 20
167.0642884242
 30
0.0
 11
97.603943178
 21
167.0642884242
 31
0.0
  0
LINE
  5
1BA
330
1F
100
AcDbEntity
  8
0
  6
HIDDEN
 62
     7
370
     0
100
AcDbLine
 10
244.1418524622
 20
153.0532182919
 30
0.0
 11
244.5682640909
 21
152.4885862859
 31
0.0
  0
LINE
  5
1BB
330
1F
100
AcDbEntity
  8
0
  6
HIDDEN
 62
     7
370
     0
100
AcDbLine
 10
250.1542772888
 20
156.7071716095
 30
0.0
 11
249.7278656601
 21
157.2718036154
 31
0.0
  0
LINE
  5
1BC
330
1F
100
AcDbEntity
  8
0
  6
HIDDEN
 62
     7
370
     0
100
AcDbLine
 10
241.8181653856
 20
146.4017245712
 30
0.0
 11
242.3094566702
 21
145.7511957528
 31
0.0
  0
LINE
  5
1BD
330
1F
100
AcDbEntity
  8
0
  6
HIDDEN
 62
     7
370
     0
100
AcDbLine
 10
251.6661044001
 20
149.4888530838
 30
0.0
 11
249.7851606249
 21
153.7408528643
 31
0.0
  0
LINE
  5
1BE
330
1F
100
AcDbEntity
  8
0
  6
HIDDEN
 62
     7
370
     0
100
AcDbLine
 10
241.5115888952
 20
155.3745388778
 30
0.0
 11
243.5392793058
 21
152.6895759421
 31
0.0
  0
LINE
  5
1BF
330
1F
100
AcDbEntity
  8
0
  6
HIDDEN
 62
     7
370
     0
100
AcDbLine
 10
250.2424921631
 20
157.7518780509
 30
0.0
 11
248.2148017525
 21
160.4368414523
 31
0.0
  0
LINE
  5
1C0
330
1F
100
AcDbEntity
  8
0
  6
HIDDEN
 62
     7
370
     0
100
AcDbLine
 10
241.688689196
 20
146.7123746665
 30
0.0
 11
241.9959958433
 21
146.3054463061
 31
0.0
  0
LINE
  5
1C1
330
1F
100
AcDbEntity
  8
0
  6
HIDDEN
 62
     7
370
     0
100
AcDbLine
 10
253.4701581835
 20
145.7365106585
 30
0.0
 11
252.9370542406
 21
146.4424047413
 31
0.0
  0
LINE
  5
1C2
330
1F
100
AcDbEntity
  8
0
  6
HIDDEN
 62
     7
370
     0
100
AcDbLine
 10
247.8298451542
 20
142.5854123922
 30
0.0
 11
248.3629490971
 21
141.8795183094
 31
0.0
  0
LINE
  5
1C3
330
1F
100
AcDbEntity
  8
0
  6
HIDDEN
 62
     7
370
     0
100
AcDbLine
 10
245.8735313057
 20
149.1156944799
 30
0.0
 11
247.6136591076
 21
145.1820179614
 31
0.0
  0
LINE
  5
1C4
330
1F
100
AcDbEntity
  8
VERMASSUNG
  6
CENTERX2
100
AcDbLine
 10
35.3412096618
 20
162.8142881932
 30
0.0
 11
258.7498559593
 21
162.8142881932
 31
0.0
  0
LINE
  5
1C5
330
1F
100
AcDbEntity
  8
VERMASSUNG
  6
CENTERX2
100
AcDbLine
 10
258.7498559593
 20
162.8142881932
 30
0.0
 11
258.7498559593
 21
135.8142881932
 31
0.0
  0
LINE
  5
1C6
330
1F
100
AcDbEntity
  8
VERMASSUNG
  6
CENTERX2
100
AcDbLine
 10
258.7498559593
 20
135.8142881932
 30
0.0
 11
273.3282436756
 21
135.8142881932
 31
0.0
  0
DIMENSION
  5
1C7
330
1F
100
AcDbEntity
  8
VERMASSUNG
100
AcDbDimension
  2
_D
 10
275.8144851989
 20
135.8142881932
 30
0.0
 11
275.8144851989
 21
149.3142881932
 31
0.0
 70
   160
  1
<>
 71
     2
 42
-1.0
  3
SLDDIMSTYLE0
100
AcDbAlignedDimension
 13
258.7498559593
 23
162.8142881932
 33
0.0
 14
258.7498559593
 24
135.8142881932
 34
0.0
 50
90.0
100
AcDbRotatedDimension
  0
DIMENSION
  5
1D2
330
1F
100
AcDbEntity
  8
VERMASSUNG
100
AcDbDimension
  2
_D_1
 10
258.7483421769
 20
136.2507580572
 30
0.0
 11
265.951465105
 21
143.6370206351
 31
0.0
 70
   162
  1
<>
 71
     1
 42
-1.0
  3
SLDDIMSTYLE1
100
AcDb2LineAngularDimension
 13
258.7498559593
 23
135.8142881932
 33
0.0
 14
273.3282436756
 24
135.8142881932
 34
0.0
 15
257.7009583591
 25
148.1558832362
 35
0.0
 16
265.951465105
 26
143.6370206351
 36
0.0
  0
DIMENSION
  5
1DB
330
1F
100
AcDbEntity
  8
VERMASSUNG
100
AcDbDimension
  2
_D_2
 10
258.7498559593
 20
115.3142881932
 30
0.0
 11
149.7498559593
 21
115.3142881932
 31
0.0
 70
   160
  1
<>
 71
     2
 42
-1.0
  3
SLDDIMSTYLE0
100
AcDbAlignedDimension
 13
40.7498559593
 23
142.5219502007
 33
0.0
 14
258.7498559593
 24
135.8142881932
 34
0.0
 50
0.0
100
AcDbRotatedDimension
  0
DIMENSION
  5
1E5
330
1F
100
AcDbEntity
  8
VERMASSUNG
100
AcDbDimension
  2
_D_3
 10
258.7498559593
 20
121.3142881932
 30
0.0
 11
168.7498559593
 21
121.3142881932
 31
0.0
 70
   160
  1
<>
 71
     2
 42
-1.0
  3
SLDDIMSTYLE0
100
AcDbAlignedDimension
 13
78.7498559593
 23
131.8142881932
 33
0.0
 14
258.7498559593
 24
135.8142881932
 34
0.0
100
AcDbRotatedDimension
  0
DIMENSION
  5
1EF
330
1F
100
AcDbEntity
  8
VERMASSUNG
100
AcDbDimension
  2
_D_4
 10
30.7498059593
 20
131.3142881932
 30
0.0
 11
30.7498059593
 21
162.8142881932
 31
0.0
 70
   160
  1
PSC%%c<>
 71
     2
 42
-1.0
  3
SLDDIMSTYLE0
100
AcDbAlignedDimension
 13
79.2498559593
 23
194.3142881932
 33
0.0
 14
79.2498559593
 24
131.3142881932
 34
0.0
 50
90.0
100
AcDbRotatedDimension
  0
DIMENSION
  5
1FB
330
1F
100
AcDbEntity
  8
VERMASSUNG
100
AcDbDimension
  2
_D_5
 10
139.3079056121
 20
182.8142881932
 30
0.0
 11
139.3079056121
 21
153.173001686
 31
0.0
 70
   160
  1
%%c<>
 71
     2
 42
-1.0
  3
SLDDIMSTYLE0
100
AcDbAlignedDimension
 13
104.7498559593
 23
142.8142881932
 33
0.0
 14
104.7498559593
 24
182.8142881932
 34
0.0
 50
90.0
100
AcDbRotatedDimension
  0
LINE
  5
204
330
1F
100
AcDbEntity
  8
0
  6
Continuous
 62
     7
370
    15
100
AcDbLine
 10
174.4963056936
 20
60.5391522206
 30
0.0
 11
174.3252936813
 21
60.3095844656
 31
0.0
  0
LINE
  5
205
330
1F
100
AcDbEntity
  8
0
  6
Continuous
 62
     7
370
    15
100
AcDbLine
 10
175.2941096729
 20
53.4161024064
 30
0.0
 11
175.5217742703
 21
53.2425644144
 31
0.0
  0
LINE
  5
206
330
1F
100
AcDbEntity
  8
0
  6
Continuous
 62
     7
370
    15
100
AcDbLine
 10
182.9638390864
 20
39.5094288781
 30
0.0
 11
185.6269592481
 21
39.8837069318
 31
0.0
  0
LINE
  5
207
330
1F
100
AcDbEntity
  8
0
  6
Continuous
 62
     7
370
    15
100
AcDbLine
 10
185.6370678234
 20
39.8907197908
 30
0.0
 11
185.8877360883
 21
40.2272196755
 31
0.0
  0
LINE
  5
208
330
1F
100
AcDbEntity
  8
0
  6
Continuous
 62
     7
370
    15
100
AcDbLine
 10
178.3342748113
 20
38.1538516179
 30
0.0
 11
183.0221287037
 21
38.8126878336
 31
0.0
  0
LINE
  5
209
330
1F
100
AcDbEntity
  8
0
  6
Continuous
 62
     7
370
    15
100
AcDbLine
 10
176.917767205
 20
40.8714471653
 30
0.0
 11
177.3632024943
 21
40.2898678824
 31
0.0
  0
SPLINE
  5
20A
330
1F
100
AcDbEntity
  8
0
  6
Continuous
 62
     7
370
    15
100
AcDbSpline
210
0.0
220
0.0
230
1.0
 70
     8
 71
     3
 72
    12
 73
     8
 74
     0
 42
0.00000001
 43
0.00000001
 12
1.0
 22
0.0
 32
0.0
 13
1.0
 23
0.0
 33
0.0
 40
0.0
 40
0.0
 40
0.0
 40
0.0
 40
0.1553991602187764
 40
0.4120058585837514
 40
0.598409229476276
 40
0.8154058096208172
 40
1.0
 40
1.0
 40
1.0
 40
1.0
 10
175.9555193657751
 20
50.64146987050283
 30
0.0
 10
175.9540911821734
 20
50.64446268445283
 30
0.0
 10
175.9503046751536
 20
50.65239745629663
 30
0.0
 10
175.9693936101269
 20
50.60651530529531
 30
0.0
 10
175.99033603467
 20
50.49480376527135
 30
0.0
 10
175.9946708627929
 20
50.34360241217491
 30
0.0
 10
175.9532117952623
 20
50.23777726439352
 30
0.0
 10
175.9341548259135
 20
50.18913394659269
 30
0.0
  0
LINE
  5
20B
330
1F
100
AcDbEntity
  8
0
  6
Continuous
 62
     7
370
    15
100
AcDbLine
 10
175.9250553387
 20
50.1934385195
 30
0.0
 11
175.645451347
 21
49.4817553356
 31
0.0
  0
LINE
  5
20C
330
1F
100
AcDbEntity
  8
0
  6
Continuous
 62
     7
370
    15
100
AcDbLine
 10
175.3432779169
 20
51.7607556924
 30
0.0
 11
175.0460172134
 21
51.7189784244
 31
0.0
  0
SPLINE
  5
20D
330
1F
100
AcDbEntity
  8
0
  6
Continuous
 62
     7
370
    15
100
AcDbSpline
210
0.0
220
0.0
230
1.0
 70
     8
 71
     3
 72
    25
 73
    21
 74
     0
 42
0.00000001
 43
0.00000001
 12
1.0
 22
0.0
 32
0.0
 13
1.0
 23
0.0
 33
0.0
 40
0.0
 40
0.0
 40
0.0
 40
0.0
 40
0.0248386206863654
 40
0.049673603649922
 40
0.0745124208139358
 40
0.0993625406430786
 40
0.1242314214189896
 40
0.1864347327401046
 40
0.2487236138697039
 40
0.3110567105601987
 40
0.3734707153072621
 40
0.4984224523302064
 40
0.6235791530806095
 40
0.6862184073149108
 40
0.7489346944276942
 40
0.8116434891636608
 40
0.8744210129003899
 40
0.91625543881592
 40
0.9581039346014601
 40
1.0
 40
1.0
 40
1.0
 40
1.0
 10
185.8507398063605
 20
40.87569078021916
 30
0.0
 10
185.9882261936213
 20
40.93337529577025
 30
0.0
 10
186.2631788326703
 20
41.04873587872707
 30
0.0
 10
186.6716473753515
 20
41.23084513779638
 30
0.0
 10
187.0771136928472
 20
41.41955105684801
 30
0.0
 10
187.4793037788943
 20
41.61550916876396
 30
0.0
 10
188.0777795199992
 20
41.92005633309243
 30
0.0
 10
188.8637830810576
 20
42.35070709134119
 30
0.0
 10
189.8222872927891
 20
42.93149324575948
 30
0.0
 10
190.7555943235868
 20
43.55388096130274
 30
0.0
 10
191.9640768846515
 20
44.43784256180489
 30
0.0
 10
193.4028697048
 20
45.64101077791259
 30
0.0
 10
194.7332869515444
 20
46.96450770004652
 30
0.0
 10
195.7273847469767
 20
48.08988373791538
 30
0.0
 10
196.4367326632383
 20
48.96610578635352
 30
0.0
 10
197.1083539951696
 20
49.87264022189832
 30
0.0
 10
197.6705351608159
 20
50.70349593521999
 30
0.0
 10
198.1359458424822
 20
51.44797991367241
 30
0.0
 10
198.5179737678979
 20
52.0968316809988
 30
0.0
 10
198.7569468968118
 20
52.53844738174451
 30
0.0
 10
198.8765013334929
 20
52.75938065810134
 30
0.0
  0
SPLINE
  5
20E
330
1F
100
AcDbEntity
  8
0
  6
Continuous
 62
     7
370
    15
100
AcDbSpline
210
0.0
220
0.0
230
1.0
 70
    24
 71
     3
 72
     9
 73
     5
 74
     0
 42
0.00000001
 43
0.00000001
 12
1.0
 22
0.0
 32
0.0
 13
1.0
 23
0.0
 33
0.0
 40
0.0
 40
0.0
 40
0.0
 40
0.0
 40
0.4999996710308839
 40
1.0
 40
1.0
 40
1.0
 40
1.0
 10
198.8765031086977
 20
52.75938128527022
 30
0.0
 10
198.8765031086977
 20
52.60640376405355
 30
0.0
 10
198.8765031086977
 20
52.30044852032056
 30
0.0
 10
198.8765031086977
 20
51.99693905565319
 30
0.0
 10
198.8765031086977
 20
51.84518422347426
 30
0.0
  0
SPLINE
  5
20F
330
1F
100
AcDbEntity
  8
0
  6
Continuous
 62
     7
370
    15
100
AcDbSpline
210
0.0
220
0.0
230
1.0
 70
     8
 71
     3
 72
    25
 73
    21
 74
     0
 42
0.00000001
 43
0.00000001
 12
1.0
 22
0.0
 32
0.0
 13
1.0
 23
0.0
 33
0.0
 40
0.0
 40
0.0
 40
0.0
 40
0.0
 40
0.0270185465046081
 40
0.053084869378638
 40
0.0781989722667745
 40
0.102360859631035
 40
0.125570536869965
 40
0.1901865522710279
 40
0.2510399464907151
 40
0.3150768732713394
 40
0.3763773896912286
 40
0.501521542705924
 40
0.6264688285871978
 40
0.6895561928358945
 40
0.7512214751778488
 40
0.8140738286454117
 40
0.8757341431482513
 40
0.9176074241654371
 40
0.95902914361093
 40
1.0
 40
1.0
 40
1.0
 40
1.0
 10
198.8765031006311
 20
51.84518160665941
 30
0.0
 10
198.79731243112
 20
51.70712950213638
 30
0.0
 10
198.6417220352307
 20
51.43589070937595
 30
0.0
 10
198.4037015139663
 20
51.04153817682695
 30
0.0
 10
198.168498859283
 20
50.66525113718828
 30
0.0
 10
197.936257133057
 20
50.30704146483475
 30
0.0
 10
197.568926020296
 20
49.75929750770091
 30
0.0
 10
197.0602413311048
 20
49.04635484744333
 30
0.0
 10
196.3749070633616
 20
48.16542403146783
 30
0.0
 10
195.6663652149532
 20
47.32843453675041
 30
0.0
 10
194.6673542161869
 20
46.2431034434178
 30
0.0
 10
193.3429643636644
 20
44.97195219987729
 30
0.0
 10
191.9088573774271
 20
43.80876324192211
 30
0.0
 10
190.7102544447522
 20
42.95582084320933
 30
0.0
 10
189.7834896314102
 20
42.35311675311376
 30
0.0
 10
188.8393228314123
 20
41.79400505133015
 30
0.0
 10
187.975150212923
 20
41.32995404835034
 30
0.0
 10
187.2083979082098
 20
40.95271008764369
 30
0.0
 10
186.5426473572117
 20
40.64658881224963
 30
0.0
 10
186.0942777183589
 20
40.45936587726599
 30
0.0
 10
185.8713196678721
 20
40.36626666408741
 30
0.0
  0
LINE
  5
210
330
1F
100
AcDbEntity
  8
0
  6
Continuous
 62
     7
370
    15
100
AcDbLine
 10
184.2587178635
 20
51.4977762744
 30
0.0
 11
181.3632788199
 21
51.0908488452
 31
0.0
  0
LINE
  5
211
330
1F
100
AcDbEntity
  8
0
  6
Continuous
 62
     7
370
    15
100
AcDbLine
 10
181.3632788199
 20
51.0908488452
 30
0.0
 11
181.2883071198
 21
51.5910640627
 31
0.0
  0
LINE
  5
212
330
1F
100
AcDbEntity
  8
0
  6
Continuous
 62
     7
370
    15
100
AcDbLine
 10
181.2883071198
 20
51.5910640627
 30
0.0
 11
176.6595438185
 21
50.940534313
 31
0.0
  0
LINE
  5
213
330
1F
100
AcDbEntity
  8
0
  6
Continuous
 62
     7
370
    15
100
AcDbLine
 10
176.6595438185
 20
50.940534313
 30
0.0
 11
175.2889003201
 21
60.0855636679
 31
0.0
  0
LINE
  5
214
330
1F
100
AcDbEntity
  8
0
  6
Continuous
 62
     7
370
    15
100
AcDbLine
 10
198.8765036749
 20
63.4005850682
 30
0.0
 11
175.2889003201
 21
60.0855636679
 31
0.0
  0
LINE
  5
215
330
1F
100
AcDbEntity
  8
0
  6
Continuous
 62
     7
370
    15
100
AcDbLine
 10
198.8765036749
 20
63.4005850682
 30
0.0
 11
198.8765036749
 21
52.7593812242
 31
0.0
  0
LINE
  5
216
330
1F
100
AcDbEntity
  8
0
  6
Continuous
 62
     7
370
    15
100
AcDbLine
 10
184.2587178635
 20
51.4977762744
 30
0.0
 11
184.335686552
 21
50.9842356935
 31
0.0
  0
SPLINE
  5
217
330
1F
100
AcDbEntity
  8
0
  6
Continuous
 62
     7
370
    15
100
AcDbSpline
210
0.0
220
0.0
230
1.0
 70
     8
 71
     3
 72
     8
 73
     4
 74
     0
 42
0.00000001
 43
0.00000001
 12
1.0
 22
0.0
 32
0.0
 13
1.0
 23
0.0
 33
0.0
 40
0.0
 40
0.0
 40
0.0
 40
0.0
 40
1.0
 40
1.0
 40
1.0
 40
1.0
 10
176.0858149761729
 20
40.54555373855811
 30
0.0
 10
175.7140068762789
 20
42.07046647328297
 30
0.0
 10
175.3419782909995
 20
43.6027826633765
 30
0.0
 10
174.9695369713517
 20
45.14895764266292
 30
0.0
  0
SPLINE
  5
218
330
1F
100
AcDbEntity
  8
0
  6
Continuous
 62
     7
370
    15
100
AcDbSpline
210
0.0
220
0.0
230
1.0
 70
     8
 71
     3
 72
    10
 73
     6
 74
     0
 42
0.00000001
 43
0.00000001
 12
1.0
 22
0.0
 32
0.0
 13
1.0
 23
0.0
 33
0.0
 40
0.0
 40
0.0
 40
0.0
 40
0.0
 40
0.5
 40
0.5
 40
1.0
 40
1.0
 40
1.0
 40
1.0
 10
174.9695369713517
 20
45.14895764266299
 30
0.0
 10
174.9462059063332
 20
45.24581560945818
 30
0.0
 10
174.9237482382505
 20
45.3238362311312
 30
0.0
 10
174.8826250119387
 20
45.43388041784362
 30
0.0
 10
174.8644187001617
 20
45.4645869199049
 30
0.0
 10
174.8497587728076
 20
45.46721316442876
 30
0.0
  0
ARC
  5
219
330
1F
100
AcDbEntity
  8
0
  6
Continuous
 62
     7
370
    15
100
AcDbCircle
 10
178.3765031087
 20
65.1538094774
 30
0.0
 40
20.0
100
AcDbArc
 50
259.0543608099
 51
259.8435147451
  0
ARC
  5
21A
330
1F
100
AcDbEntity
  8
0
  6
Continuous
 62
     7
370
    15
100
AcDbCircle
 10
178.3765031087
 20
65.1538094774
 30
0.0
 40
19.99999999999997
100
AcDbArc
 50
116.1564852549
 51
116.9456391901
  0
SPLINE
  5
21B
330
1F
100
AcDbEntity
  8
0
  6
Continuous
 62
     7
370
    15
100
AcDbSpline
210
0.0
220
0.0
230
1.0
 70
     8
 71
     3
 72
     8
 73
     4
 74
     0
 42
0.00000001
 43
0.00000001
 12
1.0
 22
0.0
 32
0.0
 13
1.0
 23
0.0
 33
0.0
 40
0.0
 40
0.0
 40
0.0
 40
0.0
 40
1.0
 40
1.0
 40
1.0
 40
1.0
 10
169.5600175144999
 20
83.10567795304142
 30
0.0
 10
169.586734112319
 20
83.11879895490912
 30
0.0
 10
169.5959684281283
 20
83.24566314166289
 30
0.0
 10
169.5874325982753
 20
83.44462014156636
 30
0.0
  0
SPLINE
  5
21C
330
1F
100
AcDbEntity
  8
0
  6
Continuous
 62
     7
370
    15
100
AcDbSpline
210
0.0
220
0.0
230
1.0
 70
     8
 71
     3
 72
     8
 73
     4
 74
     0
 42
0.00000001
 43
0.00000001
 12
1.0
 22
0.0
 32
0.0
 13
1.0
 23
0.0
 33
0.0
 40
0.0
 40
0.0
 40
0.0
 40
0.0
 40
1.0
 40
1.0
 40
1.0
 40
1.0
 10
169.5874325982752
 20
83.44462014156684
 30
0.0
 10
169.5842144895293
 20
83.51962928215053
 30
0.0
 10
169.5810042751638
 20
83.59460743863981
 30
0.0
 10
169.577801708727
 20
83.66955557831534
 30
0.0
  0
ARC
  5
21D
330
1F
100
AcDbEntity
  8
0
  6
Continuous
 62
     7
370
    15
100
AcDbCircle
 10
178.3765031087
 20
65.1538094774
 30
0.0
 40
20.49999999999997
100
AcDbArc
 50
113.6884803239
 51
115.4171146188
  0
LINE
  5
21E
330
1F
100
AcDbEntity
  8
0
  6
Continuous
 62
     7
370
    15
100
AcDbLine
 10
175.2889003201
 20
60.0855636679
 30
0.0
 11
170.1403481948
 21
83.9265493944
 31
0.0
  0
ARC
  5
21F
330
1F
100
AcDbEntity
  8
0
  6
Continuous
 62
     7
370
    15
100
AcDbCircle
 10
195.06533154
 20
52.2623691316
 30
0.0
 40
19.9659150902522
100
AcDbArc
 50
184.8262728806
 51
192.2216460808
  0
LWPOLYLINE
  5
220
330
1F
100
AcDbEntity
  8
0
  6
Continuous
 62
     7
370
    15
100
AcDbPolyline
 90
        3
 70
   128
 43
0.0
 10
175.1582557863
 20
51.7347522348
 10
175.1607705901
 20
51.7459420755
 10
175.2350298284
 20
51.8282095239
  0
LWPOLYLINE
  5
221
330
1F
100
AcDbEntity
  8
0
  6
Continuous
 62
     7
370
    15
100
AcDbPolyline
 90
       26
 70
   128
 43
0.0
 10
174.2910876001
 20
60.8292671189
 10
174.4115457932
 20
60.7192937553
 10
174.5594142067
 20
60.3673422977
 10
174.7254017337
 20
59.7955260694
 10
174.8990787255
 20
59.0397750296
 10
175.0695324099
 20
58.1475754537
 10
175.2260525773
 20
57.1749883041
 10
175.3588044612
 20
56.1831232429
 10
175.4594469039
 20
55.234303911
 10
175.5216559923
 20
54.3881489232
 10
175.5415229655
 20
53.6978228286
 10
175.5177993855
 20
53.2067038387
 10
175.4519760671
 20
52.9456494644
 10
175.3481890137
 20
52.9310630903
 10
175.2129593461
 20
53.1638620689
 10
175.0547839856
 20
53.6294162542
 10
174.883602007
 20
54.2984755978
 10
174.7101690217
 20
55.1290001988
 10
174.545382668
 20
56.0688043281
 10
174.3995969246
 20
57.0588374779
 10
174.2819722804
 20
58.0368910253
 10
174.1998994785
 20
58.9415116504
 10
174.158535252
 20
59.7158584081
 10
174.1604789222
 20
60.3112752818
 10
174.2056080202
 20
60.6903515093
 10
174.2910876001
 20
60.8292671189
  0
LINE
  5
222
330
1F
100
AcDbEntity
  8
0
  6
Continuous
 62
     7
370
    15
100
AcDbLine
 10
175.2350298284
 20
51.8282095239
 30
0.0
 11
176.6595438185
 21
50.940534313
 31
0.0
  0
ELLIPSE
  5
223
330
1F
100
AcDbEntity
  8
0
  6
Continuous
 62
     7
370
    15
100
AcDbEllipse
 10
176.3765031087
 20
63.2407192732
 30
0.0
 11
-22.79178641213884
 21
30.85594993360192
 31
0.0
210
0.0
220
0.0
230
1.0
 40
0.4054768606
 41
2.061646510078607
 42
2.087675234543893
  0
LINE
  5
224
330
1F
100
AcDbEntity
  8
0
  6
Continuous
 62
     7
370
    15
100
AcDbLine
 10
181.2139666236
 20
51.1838916957
 30
0.0
 11
181.3632788199
 21
51.0908488452
 31
0.0
  0
ARC
  5
225
330
1F
100
AcDbEntity
  8
0
  6
Continuous
 62
     7
370
    15
100
AcDbCircle
 10
178.3765031087
 20
65.1538094774
 30
0.0
 40
20.5
100
AcDbArc
 50
0.0
 51
113.6884803239
  0
LINE
  5
226
330
1F
100
AcDbEntity
  8
0
  6
Continuous
 62
     7
370
    15
100
AcDbLine
 10
198.8765036749
 20
65.1538094774
 30
0.0
 11
198.8765036749
 21
63.4005850682
 31
0.0
  0
SPLINE
  5
227
330
1F
100
AcDbEntity
  8
0
  6
Continuous
 62
     7
370
    15
100
AcDbSpline
210
0.0
220
0.0
230
1.0
 70
     8
 71
     3
 72
    14
 73
    10
 74
     0
 42
0.00000001
 43
0.00000001
 12
1.0
 22
0.0
 32
0.0
 13
1.0
 23
0.0
 33
0.0
 40
0.0
 40
0.0
 40
0.0
 40
0.0
 40
0.25
 40
0.25
 40
0.5
 40
0.5
 40
0.75
 40
0.75
 40
1.0
 40
1.0
 40
1.0
 40
1.0
 10
168.0340090553756
 20
60.36988243938271
 30
0.0
 10
168.2025128653123
 20
60.13119804269925
 30
0.0
 10
168.3455494292195
 20
59.87931351008014
 30
0.0
 10
168.579842578368
 20
59.34761175479497
 30
0.0
 10
168.6711698707191
 20
59.06522305214281
 30
0.0
 10
168.7781451741232
 20
58.4920466835452
 30
0.0
 10
168.7944603321043
 20
58.19341220246304
 30
0.0
 10
168.7253123950679
 20
57.616171901766
 30
0.0
 10
168.6385267736955
 20
57.33210472090497
 30
0.0
 10
168.4968788393828
 20
57.07639279285132
 30
0.0
  0
SPLINE
  5
228
330
1F
100
AcDbEntity
  8
0
  6
Continuous
 62
     7
370
    15
100
AcDbSpline
210
0.0
220
0.0
230
1.0
 70
     8
 71
     3
 72
    14
 73
    10
 74
     0
 42
0.00000001
 43
0.00000001
 12
1.0
 22
0.0
 32
0.0
 13
1.0
 23
0.0
 33
0.0
 40
0.0
 40
0.0
 40
0.0
 40
0.0
 40
0.25
 40
0.25
 40
0.5
 40
0.5
 40
0.75
 40
0.75
 40
1.0
 40
1.0
 40
1.0
 40
1.0
 10
174.5789517849074
 20
45.51765394878879
 30
0.0
 10
174.5093699733955
 20
45.53111078355637
 30
0.0
 10
174.338369379929
 20
45.56376365040924
 30
0.0
 10
173.7984667000965
 20
45.68285669751436
 30
0.0
 10
173.4435042842653
 20
45.76653669948041
 30
0.0
 10
172.5800834436763
 20
46.00694701290575
 30
0.0
 10
172.091859121753
 20
46.15848470953808
 30
0.0
 10
171.0296863725104
 20
46.54350596230242
 30
0.0
 10
170.4742174279215
 20
46.7705452579622
 30
0.0
 10
169.9080836812941
 20
47.03514858863246
 30
0.0
  0
SPLINE
  5
229
330
1F
100
AcDbEntity
  8
0
  6
Continuous
 62
     7
370
    15
100
AcDbSpline
210
0.0
220
0.0
230
1.0
 70
     8
 71
     3
 72
    20
 73
    16
 74
     0
 42
0.00000001
 43
0.00000001
 12
1.0
 22
0.0
 32
0.0
 13
1.0
 23
0.0
 33
0.0
 40
0.0
 40
0.0
 40
0.0
 40
0.0
 40
0.2500000000000003
 40
0.2500000000000003
 40
0.3750000000000003
 40
0.3750000000000003
 40
0.5000000000000002
 40
0.5000000000000002
 40
0.6250000000000001
 40
0.6250000000000001
 40
0.7500000000000001
 40
0.7500000000000001
 40
0.875
 40
0.875
 40
1.0
 40
1.0
 40
1.0
 40
1.0
 10
165.2419561096748
 20
80.23637143251804
 30
0.0
 10
165.713419991433
 20
80.6469425630538
 30
0.0
 10
166.1816114436255
 20
81.0157583213667
 30
0.0
 10
166.8651540630697
 20
81.51131674813628
 30
0.0
 10
167.089527727646
 20
81.66649550678316
 30
0.0
 10
167.5128437049597
 20
81.94802031080984
 30
0.0
 10
167.7139059322461
 20
82.07593071288747
 30
0.0
 10
168.0917004424437
 20
82.30816751761874
 30
0.0
 10
168.2699917379087
 20
82.41335670191769
 30
0.0
 10
168.5877619067486
 20
82.59554357021607
 30
0.0
 10
168.7277680718419
 20
82.67296086681438
 30
0.0
 10
168.9685729464279
 20
82.8034441274011
 30
0.0
 10
169.0699074410486
 20
82.85677768830342
 30
0.0
 10
169.2266801272967
 20
82.93831244505093
 30
0.0
 10
169.2819817013217
 20
82.96647179306366
 30
0.0
 10
169.3136044944654
 20
82.98254663704131
 30
0.0
  0
ELLIPSE
  5
22A
330
1F
100
AcDbEntity
  8
0
  6
Continuous
 62
     7
370
    15
100
AcDbEllipse
 10
165.9365334808
 20
59.0971829292
 30
0.0
 11
-2.13125236105401
 21
2.544070092956147
 31
0.0
210
0.0
220
0.0
230
1.0
 40
0.7353403728
 41
4.600264433734501
 42
9.700741444713255
  0
ARC
  5
22B
330
1F
100
AcDbEntity
  8
0
  6
Continuous
 62
     7
370
    15
100
AcDbCircle
 10
178.3765031087
 20
65.1538094774
 30
0.0
 40
20.0
100
AcDbArc
 50
131.0507569084
 51
244.9492430916
  0
CIRCLE
  5
22C
330
1F
100
AcDbEntity
  8
0
  6
Continuous
 62
     7
370
    15
100
AcDbCircle
 10
178.3765031087
 20
65.1538094774
 30
0.0
 40
31.49999999999997
  0
LWPOLYLINE
  5
22D
330
1F
100
AcDbEntity
  8
0
  6
Continuous
 62
     7
370
    15
100
AcDbPolyline
 90
       25
 70
   128
 43
0.0
 10
174.4285517434
 20
60.2933165885
 10
174.5564735557
 20
60.0387130201
 10
174.7042474399
 20
59.5680440113
 10
174.8618027723
 20
58.9133847773
 10
175.0184025678
 20
58.1193489291
 10
175.163374568
 20
57.2400495678
 10
175.2868395361
 20
56.3354084536
 10
175.3803829725
 20
55.4670758814
 10
175.4376306726
 20
54.694227156
 10
175.4546808607
 20
54.0695313632
 10
175.4303719445
 20
53.6355592579
 10
175.3663600485
 20
53.4218859196
 10
175.2670079532
 20
53.4430725768
 10
175.1390861409
 20
53.6976766109
 10
174.9913122567
 20
54.1683456197
 10
174.8337569243
 20
54.8230048537
 10
174.6771571289
 20
55.6170402363
 10
174.5321848958
 20
56.4963400632
 10
174.4087201605
 20
57.4009811774
 10
174.3151767242
 20
58.269313284
 10
174.2579287912
 20
59.0421620093
 10
174.2408786031
 20
59.6668582678
 10
174.265187985
 20
60.1008303732
 10
174.3291996482
 20
60.3145037115
 10
174.4285517434
 20
60.2933165885
  0
LWPOLYLINE
  5
22E
330
1F
100
AcDbEntity
  8
0
  6
Continuous
 62
     7
370
    15
100
AcDbPolyline
 90
       19
 70
   128
 43
0.0
 10
174.6082208647
 20
58.8254069246
 10
174.7084779727
 20
58.6032450467
 10
174.8255368384
 20
58.1718103297
 10
174.9452786117
 20
57.5831399567
 10
175.0532603419
 20
56.9082370296
 10
175.1364584143
 20
56.2285047293
 10
175.1848373624
 20
55.6259278476
 10
175.1925624504
 20
55.1731867984
 10
175.1587014242
 20
54.9248887494
 10
175.0873388319
 20
54.9109822407
 10
174.9870817239
 20
55.1331445843
 10
174.8700228582
 20
55.5645788357
 10
174.750281085
 20
56.1532492086
 10
174.6422991219
 20
56.8281526014
 10
174.5591012823
 20
57.5078849018
 10
174.5107221014
 20
58.1104617834
 10
174.5029972463
 20
58.5632028326
 10
174.5368582724
 20
58.8115004159
 10
174.6082208647
 20
58.8254069246
  0
LINE
  5
22F
330
1F
100
AcDbEntity
  8
0
  6
Continuous
 62
     7
370
    15
100
AcDbLine
 10
175.1876320286
 20
55.5698966876
 30
0.0
 11
175.1826978816
 21
55.5692028522
 31
0.0
  0
LINE
  5
230
330
1F
100
AcDbEntity
  8
0
  6
Continuous
 62
     7
370
    15
100
AcDbLine
 10
175.0120481538
 20
57.1854787216
 30
0.0
 11
174.8943895164
 21
57.1689421579
 31
0.0
  0
ARC
  5
231
330
1F
100
AcDbEntity
  8
0
  6
Continuous
 62
     7
370
    15
100
AcDbCircle
 10
183.042419959
 20
40.3161611555
 30
0.0
 40
2.620469422261707
100
AcDbArc
 50
350.5010636678
 51
14.5564533303
  0
LINE
  5
232
330
1F
100
AcDbEntity
  8
0
  6
Continuous
 62
     7
370
    15
100
AcDbLine
 10
185.5787735495
 20
40.9747736797
 30
0.0
 11
184.1363211225
 21
50.5989177421
 31
0.0
  0
ARC
  5
233
330
1F
100
AcDbEntity
  8
0
  6
Continuous
 62
     7
370
    15
100
AcDbCircle
 10
183.7683033745
 20
40.4937649913
 30
0.0
 40
2.136127672627646
100
AcDbArc
 50
352.831967553
 51
13.3241721687
  0
LINE
  5
234
330
1F
100
AcDbEntity
  8
0
  6
Continuous
 62
     7
370
    15
100
AcDbLine
 10
184.4044777627
 20
50.6102007151
 30
0.0
 11
185.8469301897
 21
40.986057584
 31
0.0
  0
ARC
  5
235
330
1F
100
AcDbEntity
  8
0
  6
Continuous
 62
     7
370
    15
100
AcDbCircle
 10
180.6862220187
 20
50.2578392444
 30
0.0
 40
3.466917704179326
100
AcDbArc
 50
5.6459433438
 51
20.1666778424
  0
LINE
  5
236
330
1F
100
AcDbEntity
  8
0
  6
Continuous
 62
     7
370
    15
100
AcDbLine
 10
184.2500514413
 20
51.2310790166
 30
0.0
 11
183.9559434975
 21
51.4552241459
 31
0.0
  0
ARC
  5
237
330
1F
100
AcDbEntity
  8
0
  6
Continuous
 62
     7
370
    15
100
AcDbCircle
 10
182.5382138272
 20
50.4756629207
 30
0.0
 40
1.871107023979465
100
AcDbArc
 50
4.1232838788
 51
23.8113679504
  0
LINE
  5
238
330
1F
100
AcDbEntity
  8
0
  6
Continuous
 62
     7
370
    15
100
AcDbLine
 10
175.0652913998
 20
51.2825513527
 30
0.0
 11
176.8496140667
 21
39.377425079
 31
0.0
  0
ARC
  5
239
330
1F
100
AcDbEntity
  8
0
  6
Continuous
 62
     7
370
    15
100
AcDbCircle
 10
175.9409593476
 20
51.5316171999
 30
0.0
 40
0.9103999950966134
100
AcDbArc
 50
168.1879267533
 51
195.8773187795
  0
LINE
  5
23A
330
1F
100
AcDbEntity
  8
0
  6
Continuous
 62
     7
370
    15
100
AcDbLine
 10
176.4424342491
 20
50.8501913667
 30
0.0
 11
175.0498377315
 21
51.7179781839
 31
0.0
  0
ARC
  5
23B
330
1F
100
AcDbEntity
  8
0
  6
Continuous
 62
     7
370
    15
100
AcDbCircle
 10
175.4642615633
 20
50.4185294
 30
0.0
 40
1.06918373390582
100
AcDbArc
 50
4.1231915582
 51
23.8115913289
  0
LINE
  5
23C
330
1F
100
AcDbEntity
  8
0
  6
Continuous
 62
     7
370
    15
100
AcDbLine
 10
178.3150006031
 20
38.5902786896
 30
0.0
 11
176.5306779944
 21
50.4954049632
 31
0.0
  0
ARC
  5
23D
330
1F
100
AcDbEntity
  8
0
  6
Continuous
 62
     7
370
    15
100
AcDbCircle
 10
177.4393312052
 20
38.3412126568
 30
0.0
 40
0.9104014406169391
100
AcDbArc
 50
348.1879577043
 51
15.8773050401
  0
LINE
  5
23E
330
1F
100
AcDbEntity
  8
0
  6
Continuous
 62
     7
370
    15
100
AcDbLine
 10
176.937857812
 20
39.0226396069
 30
0.0
 11
178.3304543369
 21
38.1548518583
 31
0.0
  0
ARC
  5
23F
330
1F
100
AcDbEntity
  8
0
  6
Continuous
 62
     7
370
    15
100
AcDbCircle
 10
177.9160269854
 20
39.4543009017
 30
0.0
 40
1.069180249189638
100
AcDbArc
 50
184.1232189617
 51
203.8116343842
  0
ARC
  5
240
330
1F
100
AcDbEntity
  8
0
  6
Continuous
 62
     7
370
    15
100
AcDbCircle
 10
177.4812931823
 20
38.3516501921
 30
0.0
 40
0.8648831468225004
100
AcDbArc
 50
348.1879579269
 51
15.8772980048
  0
LINE
  5
241
330
1F
100
AcDbEntity
  8
0
  6
Continuous
 62
     7
370
    15
100
AcDbLine
 10
178.3131808498
 20
38.5882633075
 30
0.0
 11
176.5288583065
 21
50.4933886498
 31
0.0
  0
ARC
  5
242
330
1F
100
AcDbEntity
  8
0
  6
Continuous
 62
     7
370
    15
100
AcDbCircle
 10
175.5157580201
 20
50.4203560831
 30
0.0
 40
1.015729268146149
100
AcDbArc
 50
4.1232165712
 51
23.8115478503
  0
LINE
  5
243
330
1F
100
AcDbEntity
  8
0
  6
Continuous
 62
     7
370
    15
100
AcDbLine
 10
176.4450267019
 20
50.8304361522
 30
0.0
 11
175.0524303007
 21
51.6982229695
 31
0.0
  0
ARC
  5
244
330
1F
100
AcDbEntity
  8
0
  6
Continuous
 62
     7
370
    15
100
AcDbCircle
 10
175.8989925078
 20
51.5211793265
 30
0.0
 40
0.8648768826154205
100
AcDbArc
 50
168.1878356987
 51
195.8773799718
  0
LINE
  5
245
330
1F
100
AcDbEntity
  8
0
  6
Continuous
 62
     7
370
    15
100
AcDbLine
 10
175.0671112041
 20
51.2845667347
 30
0.0
 11
176.8514337546
 21
39.3794423237
 31
0.0
  0
ARC
  5
246
330
1F
100
AcDbEntity
  8
0
  6
Continuous
 62
     7
370
    15
100
AcDbCircle
 10
177.8645276065
 20
39.45247329
 30
0.0
 40
1.015722735180457
100
AcDbArc
 50
184.1231526247
 51
203.8116117968
  0
LINE
  5
247
330
1F
100
AcDbEntity
  8
0
  6
Continuous
 62
     7
370
    15
100
AcDbLine
 10
176.9352653592
 20
39.0423948213
 30
0.0
 11
178.3278618987
 21
38.1746070728
 31
0.0
  0
LINE
  5
248
330
1F
100
AcDbEntity
  8
0
  6
Continuous
 62
     7
370
    15
100
AcDbLine
 10
183.0028545174
 20
39.2491149053
 30
0.0
 11
181.2185319668
 21
51.1542393163
 31
0.0
  0
ARC
  5
249
330
1F
100
AcDbEntity
  8
0
  6
Continuous
 62
     7
370
    15
100
AcDbCircle
 10
181.9883213172
 20
38.9856703323
 30
0.0
 40
1.048179687518773
100
AcDbArc
 50
350.5009449046
 51
14.5565433761
  0
LINE
  5
24A
330
1F
100
AcDbEntity
  8
0
  6
Continuous
 62
     7
370
    15
100
AcDbLine
 10
177.4350093274
 20
40.0742350414
 30
0.0
 11
177.1020768738
 21
39.4481124625
 31
0.0
  0
ARC
  5
24B
330
1F
100
AcDbEntity
  8
0
  6
Continuous
 62
     7
370
    15
100
AcDbCircle
 10
180.1521107547
 20
51.0773636971
 30
0.0
 40
1.069188506538655
100
AcDbArc
 50
4.123176131
 51
23.8115362976
  0
LINE
  5
24C
330
1F
100
AcDbEntity
  8
0
  6
Continuous
 62
     7
370
    15
100
AcDbLine
 10
177.67013702
 20
41.4629468963
 30
0.0
 11
176.671516203
 21
48.1258148596
 31
0.0
  0
LINE
  5
24D
330
1F
100
AcDbEntity
  8
0
  6
Continuous
 62
     7
370
    15
100
AcDbLine
 10
181.1302882216
 20
51.5090266511
 30
0.0
 11
181.0519449009
 21
51.5578456491
 31
0.0
  0
LINE
  5
24E
330
1F
100
AcDbEntity
  8
0
  6
Continuous
 62
     7
370
    15
100
AcDbLine
 10
176.0157933987
 20
50.5233083188
 30
0.0
 11
175.3177543233
 21
51.3532378048
 31
0.0
  0
ARC
  5
24F
330
1F
100
AcDbEntity
  8
0
  6
Continuous
 62
     7
370
    15
100
AcDbCircle
 10
175.480975498
 20
40.8402822171
 30
0.0
 40
2.275991975447822
100
AcDbArc
 50
348.1878861431
 51
15.8773777488
  0
LINE
  5
250
330
1F
100
AcDbEntity
  8
0
  6
Continuous
 62
     7
370
    15
100
AcDbLine
 10
175.7101549829
 20
48.409883146
 30
0.0
 11
176.7087759745
 21
41.7470151827
 31
0.0
  0
ARC
  5
251
330
1F
100
AcDbEntity
  8
0
  6
Continuous
 62
     7
370
    15
100
AcDbCircle
 10
177.8993303744
 20
49.0325489955
 30
0.0
 40
2.276005635932185
100
AcDbArc
 50
168.1879402551
 51
195.8773105669
  0
LINE
  5
252
330
1F
100
AcDbEntity
  8
0
  6
Continuous
 62
     7
370
    15
100
AcDbLine
 10
176.4509067234
 20
49.0127822652
 30
0.0
 11
175.6715206957
 21
49.4984520867
 31
0.0
  0
ARC
  5
253
330
1F
100
AcDbEntity
  8
0
  6
Continuous
 62
     7
370
    15
100
AcDbCircle
 10
174.0054574507
 20
47.9336229344
 30
0.0
 40
2.67297718041088
100
AcDbArc
 50
4.1232288277
 51
23.8115259483
  0
LINE
  5
254
330
1F
100
AcDbEntity
  8
0
  6
Continuous
 62
     7
370
    15
100
AcDbLine
 10
176.9293854541
 20
40.860047777
 30
0.0
 11
177.7087713654
 21
40.3743798181
 31
0.0
  0
ARC
  5
255
330
1F
100
AcDbEntity
  8
0
  6
Continuous
 62
     7
370
    15
100
AcDbCircle
 10
179.3748244087
 20
41.9392045415
 30
0.0
 40
2.672966704448081
100
AcDbArc
 50
184.1231898621
 51
203.8115649139
  0
LWPOLYLINE
  5
256
330
1F
100
AcDbEntity
  8
0
  6
Continuous
 62
     7
370
    15
100
AcDbPolyline
 90
       21
 70
   128
 43
0.0
 10
177.0245705793
 20
42.3879737303
 10
177.1000850077
 20
42.4554480508
 10
177.1354716566
 20
42.7657759085
 10
177.1272668211
 20
43.2885812864
 10
177.0762735341
 20
43.9726880088
 10
176.9874834518
 20
44.7511321202
 10
176.8695877927
 20
45.5477109447
 10
176.7341272735
 20
46.2844541565
 10
176.5943614828
 20
46.8892401352
 10
176.4639716658
 20
47.302870293
 10
176.3557214818
 20
47.484856312
 10
176.2802070535
 20
47.4173819914
 10
176.2448202881
 20
47.1070541337
 10
176.25302524
 20
46.5842487559
 10
176.3040186434
 20
45.9001420334
 10
176.3928086093
 20
45.121697922
 10
176.5107042684
 20
44.3251190975
 10
176.646164904
 20
43.5883777484
 10
176.7859306947
 20
42.983589907
 10
176.9163203954
 20
42.5699597493
 10
177.0245705793
 20
42.3879737303
  0
LINE
  5
257
330
1F
100
AcDbEntity
  8
0
  6
Continuous
 62
     7
370
    15
100
AcDbLine
 10
177.378003189
 20
40.300751318
 30
0.0
 11
177.3832293057
 21
40.2699413046
 31
0.0
  0
LINE
  5
258
330
1F
100
AcDbEntity
  8
VERMASSUNG
100
AcDbLine
 10
178.3765031087
 20
38.1957388762
 30
0.0
 11
170.4561720269
 21
94.5518228465
 31
0.0
  0
CIRCLE
  5
259
330
1F
100
AcDbEntity
  8
VERMASSUNG
  6
CENTERX2
100
AcDbCircle
 10
178.3765031087
 20
63.1957388762
 30
0.0
 40
25.0
  0
DIMENSION
  5
25A
330
1F
100
AcDbEntity
  8
VERMASSUNG
100
AcDbDimension
  2
_D_6
 10
160.698833579
 20
45.5180693465
 30
0.0
 11
151.2045244874
 21
36.0237602549
 31
0.0
 70
   160
  1
%%c<> min. 
 71
     2
 42
-1.0
  3
SLDDIMSTYLE2
100
AcDbAlignedDimension
 13
196.0541726384
 23
80.8734084058
 33
0.0
 14
160.698833579
 24
45.5180693465
 34
0.0
 50
45.0
100
AcDbRotatedDimension
  0
DIMENSION
  5
269
330
1F
100
AcDbEntity
  8
VERMASSUNG
100
AcDbDimension
  2
_D_7
 10
170.4561720269
 20
94.5518228465
 30
0.0
 11
173.8089575883
 21
103.5146829756
 31
0.0
 70
   162
  1
<>
 71
     1
 42
-1.0
  3
SLDDIMSTYLE3
100
AcDb2LineAngularDimension
 13
178.3765031087
 23
99.1538094774
 33
0.0
 14
178.3765031087
 24
31.1538094774
 34
0.0
 15
178.3765031087
 25
38.1957388762
 35
0.0
 16
173.8089575883
 26
103.5146829756
 36
0.0
  0
INSERT
  5
281
330
1F
100
AcDbEntity
  8
VERMASSUNG
100
AcDbBlockReference
  2
SW_CENTERMARKSYMBOL_0
 10
178.3765031087
 20
65.1538094774
 30
0.0
  0
OLE2FRAME
  5
282
330
1F
100
AcDbEntity
  8
0
100
AcDbOle2Frame
 70
     2
  3
Paintbrush-Bild
 10
13.8511154363
 20
38.264191557
 30
0.0
 11
51.6290888628
 21
31.9806341108
 31
0.0
 71
     2
 72
     0
 73
     1
 90
    12928
310
80552BED0767C5B32B40DDAF6807D121434000000000000000006FFBDDFB85D0
310
4940DDAF6807D121434000000000000000006FFBDDFB85D04940416F4BD60AFB
310
3F4000000000000000002BED0767C5B32B40416F4BD60AFB3F40000000000000
310
0000000000000100000000010000010000000100000000000100000000320000
310
D0CF11E0A1B11AE1000000000000000000000000000000003E000300FEFF0900
310
0600000000000000000000000100000001000000000000000010000002000000
310
01000000FEFFFFFF0000000000000000FFFFFFFFFFFFFFFFFFFFFFFFFFFFFFFF
310
FFFFFFFFFFFFFFFFFFFFFFFFFFFFFFFFFFFFFFFFFFFFFFFFFFFFFFFFFFFFFFFF
310
FFFFFFFFFFFFFFFFFFFFFFFFFFFFFFFFFFFFFFFFFFFFFFFFFFFFFFFFFFFFFFFF
310
FFFFFFFFFFFFFFFFFFFFFFFFFFFFFFFFFFFFFFFFFFFFFFFFFFFFFFFFFFFFFFFF
310
FFFFFFFFFFFFFFFFFFFFFFFFFFFFFFFFFFFFFFFFFFFFFFFFFFFFFFFFFFFFFFFF
310
FFFFFFFFFFFFFFFFFFFFFFFFFFFFFFFFFFFFFFFFFFFFFFFFFFFFFFFFFFFFFFFF
310
FFFFFFFFFFFFFFFFFFFFFFFFFFFFFFFFFFFFFFFFFFFFFFFFFFFFFFFFFFFFFFFF
310
FFFFFFFFFFFFFFFFFFFFFFFFFFFFFFFFFFFFFFFFFFFFFFFFFFFFFFFFFFFFFFFF
310
FFFFFFFFFFFFFFFFFFFFFFFFFFFFFFFFFFFFFFFFFFFFFFFFFFFFFFFFFFFFFFFF
310
FFFFFFFFFFFFFFFFFFFFFFFFFFFFFFFFFFFFFFFFFFFFFFFFFFFFFFFFFFFFFFFF
310
FFFFFFFFFFFFFFFFFFFFFFFFFFFFFFFFFFFFFFFFFFFFFFFFFFFFFFFFFFFFFFFF
310
FFFFFFFFFFFFFFFFFFFFFFFFFFFFFFFFFFFFFFFFFFFFFFFFFFFFFFFFFFFFFFFF
310
FFFFFFFFFFFFFFFFFFFFFFFFFFFFFFFFFFFFFFFFFFFFFFFFFFFFFFFFFFFFFFFF
310
FFFFFFFFFFFFFFFFFFFFFFFFFFFFFFFFFFFFFFFFFFFFFFFFFFFFFFFFFFFFFFFF
310
FDFFFFFFFEFFFFFFFEFFFFFFFEFFFFFF05000000060000000700000008000000
310
090000000A0000000B0000000C0000000D0000000E0000000F00000010000000
310
11000000120000001300000014000000150000001600000017000000FEFFFFFF
310
FFFFFFFFFFFFFFFFFFFFFFFFFFFFFFFFFFFFFFFFFFFFFFFFFFFFFFFFFFFFFFFF
310
FFFFFFFFFFFFFFFFFFFFFFFFFFFFFFFFFFFFFFFFFFFFFFFFFFFFFFFFFFFFFFFF
310
FFFFFFFFFFFFFFFFFFFFFFFFFFFFFFFFFFFFFFFFFFFFFFFFFFFFFFFFFFFFFFFF
310
FFFFFFFFFFFFFFFFFFFFFFFFFFFFFFFFFFFFFFFFFFFFFFFFFFFFFFFFFFFFFFFF
310
FFFFFFFFFFFFFFFFFFFFFFFFFFFFFFFFFFFFFFFFFFFFFFFFFFFFFFFFFFFFFFFF
310
FFFFFFFFFFFFFFFFFFFFFFFFFFFFFFFFFFFFFFFFFFFFFFFFFFFFFFFFFFFFFFFF
310
FFFFFFFFFFFFFFFFFFFFFFFFFFFFFFFFFFFFFFFFFFFFFFFFFFFFFFFFFFFFFFFF
310
FFFFFFFFFFFFFFFFFFFFFFFFFFFFFFFFFFFFFFFFFFFFFFFFFFFFFFFFFFFFFFFF
310
FFFFFFFFFFFFFFFFFFFFFFFFFFFFFFFFFFFFFFFFFFFFFFFFFFFFFFFFFFFFFFFF
310
FFFFFFFFFFFFFFFFFFFFFFFFFFFFFFFFFFFFFFFFFFFFFFFFFFFFFFFFFFFFFFFF
310
FFFFFFFFFFFFFFFFFFFFFFFFFFFFFFFFFFFFFFFFFFFFFFFFFFFFFFFFFFFFFFFF
310
FFFFFFFFFFFFFFFFFFFFFFFFFFFFFFFFFFFFFFFFFFFFFFFFFFFFFFFFFFFFFFFF
310
FFFFFFFFFFFFFFFFFFFFFFFFFFFFFFFFFFFFFFFFFFFFFFFFFFFFFFFFFFFFFFFF
310
52006F006F007400200045006E00740072007900000000000000000000000000
310
0000000000000000000000000000000000000000000000000000000000000000
310
16000500FFFFFFFFFFFFFFFF020000000A00030000000000C000000000000046
310
000000000000000000000000D05C5ED8CA43CD0103000000C000000000000000
310
01004F006C006500000000000000000000000000000000000000000000000000
310
0000000000000000000000000000000000000000000000000000000000000000
310
0A000200FFFFFFFFFFFFFFFFFFFFFFFF00000000000000000000000000000000
310
0000000000000000000000000000000000000000000000001400000000000000
310
010043006F006D0070004F0062006A0000000000000000000000000000000000
310
0000000000000000000000000000000000000000000000000000000000000000
310
120002010100000003000000FFFFFFFF00000000000000000000000000000000
310
0000000000000000000000000000000000000000010000004D00000000000000
310
01004F006C006500310030004E00610074006900760065000000000000000000
310
0000000000000000000000000000000000000000000000000000000000000000
310
1A000200FFFFFFFFFFFFFFFFFFFFFFFF00000000000000000000000000000000
310
0000000000000000000000000000000000000000040000002426000000000000
310
FEFFFFFF02000000FEFFFFFFFFFFFFFFFFFFFFFFFFFFFFFFFFFFFFFFFFFFFFFF
310
FFFFFFFFFFFFFFFFFFFFFFFFFFFFFFFFFFFFFFFFFFFFFFFFFFFFFFFFFFFFFFFF
310
FFFFFFFFFFFFFFFFFFFFFFFFFFFFFFFFFFFFFFFFFFFFFFFFFFFFFFFFFFFFFFFF
310
FFFFFFFFFFFFFFFFFFFFFFFFFFFFFFFFFFFFFFFFFFFFFFFFFFFFFFFFFFFFFFFF
310
FFFFFFFFFFFFFFFFFFFFFFFFFFFFFFFFFFFFFFFFFFFFFFFFFFFFFFFFFFFFFFFF
310
FFFFFFFFFFFFFFFFFFFFFFFFFFFFFFFFFFFFFFFFFFFFFFFFFFFFFFFFFFFFFFFF
310
FFFFFFFFFFFFFFFFFFFFFFFFFFFFFFFFFFFFFFFFFFFFFFFFFFFFFFFFFFFFFFFF
310
FFFFFFFFFFFFFFFFFFFFFFFFFFFFFFFFFFFFFFFFFFFFFFFFFFFFFFFFFFFFFFFF
310
FFFFFFFFFFFFFFFFFFFFFFFFFFFFFFFFFFFFFFFFFFFFFFFFFFFFFFFFFFFFFFFF
310
FFFFFFFFFFFFFFFFFFFFFFFFFFFFFFFFFFFFFFFFFFFFFFFFFFFFFFFFFFFFFFFF
310
FFFFFFFFFFFFFFFFFFFFFFFFFFFFFFFFFFFFFFFFFFFFFFFFFFFFFFFFFFFFFFFF
310
FFFFFFFFFFFFFFFFFFFFFFFFFFFFFFFFFFFFFFFFFFFFFFFFFFFFFFFFFFFFFFFF
310
FFFFFFFFFFFFFFFFFFFFFFFFFFFFFFFFFFFFFFFFFFFFFFFFFFFFFFFFFFFFFFFF
310
FFFFFFFFFFFFFFFFFFFFFFFFFFFFFFFFFFFFFFFFFFFFFFFFFFFFFFFFFFFFFFFF
310
FFFFFFFFFFFFFFFFFFFFFFFFFFFFFFFFFFFFFFFFFFFFFFFFFFFFFFFFFFFFFFFF
310
FFFFFFFFFFFFFFFFFFFFFFFFFFFFFFFFFFFFFFFFFFFFFFFFFFFFFFFFFFFFFFFF
310
0100000200000000000000000000000000000000000000000000000000000000
310
0000000000000000000000000000000000000000000000000000000000000000
310
0100FEFF030A0000FFFFFFFF0A00030000000000C00000000000004607000000
310
5042727573680007000000504272757368000700000050427275736800F439B2
310
7100000000000000000000000000000000000000000000000000000000000000
310
0000000000000000000000000000000000000000000000000000000000000000
310
0000000000000000000000000000000000000000000000000000000000000000
310
0000000000000000000000000000000000000000000000000000000000000000
310
0000000000000000000000000000000000000000000000000000000000000000
310
0000000000000000000000000000000000000000000000000000000000000000
310
0000000000000000000000000000000000000000000000000000000000000000
310
0000000000000000000000000000000000000000000000000000000000000000
310
0000000000000000000000000000000000000000000000000000000000000000
310
0000000000000000000000000000000000000000000000000000000000000000
310
0000000000000000000000000000000000000000000000000000000000000000
310
0000000000000000000000000000000000000000000000000000000000000000
310
20260000424D0E260000000000003E00000028000000B40200006E0000000100
310
01000000000000000000130B0000130B00000200000002000000000000FFFFFF
310
FFFFFFFFFFFFFFFFFFFFFFFFFFFFFFFFFFFFFFFFFFFFFFFFFFFFFFFFFFFFFFFF
310
FFFFFFFFFFFFFFFFFFFFFFFFFFFFFFFFFFFFFFFFFFFFFFFFFFFFFFFFFFFFFFFF
310
FFFFFFFFFFFFFFFFFFFFFFFFFFFFFFFFFFFFFFFFFFFFFFFFF000FFFFFFFFFFFF
310
FFFFFFFFFFFFFFFFFFFFFFFFFFFFFFFFFFFFFFFFFFFFFFFFFFFFFFFFFFFFFFFF
310
FFFFFFFFFFFFFFFFFFFFFFFFFFFFFFFFFFFFFFFFFFFFFFFFFFFFFFFFFFFFFFFF
310
FFFFFFFFFFFFFFFFFFFFFFFFFFFFFFFFF000FFFFFFFFFFFFFFFFFFFFFFFFFFFF
310
FFFFFFFFFFFFFFFFFFFFFFFFFFFFFFFFFFFFFFFFFFFFFFFFFFFFFFFFFFFFFFFF
310
FFFFFFFFFFFFFFFFFFFFFFFFFFFFFFFFFFFFFFFFFFFFFFFFFFFFFFFFFFFFFFFF
310
FFFFFFFFFFFFFFFFF000FFFFFFFFFFFFFFFFFFFFFFFFFFFFFFFFFFFFFFFFFFFF
310
FFFFFFFFFFFFFFFFFFFFFFFFFFFFFFFFFFFFFFFFFFFFFFFFFFFFFFFFFFFFFFFF
310
FFFFFFFFFFFFFFFFFFFFFFFFFFFFFFFFFFFFFFFFFFFFFFFFFFFFFFFFFFFFFFFF
310
F000FFFFFFFFFFFFFFFFFFFFFFFFFFFFFFFFFFFFFFFFFFFFFFFFFFFFFFFFFFFF
310
FFFFFFFFFFFFFFFFFFFFFFFFFFFFFFFFFFFFFFFFFFFFFFFFFFFFFFFFFFFFFFFF
310
FFFFFFFFFFFFFFFFFFFFFFFFFFFFFFFFFFFFFFFFFFFFFFFFF000FFFFFFFFFFFF
310
FFFFFFFFFFFFFFFFFFFFFFFFFFFFFFFFFFFFFFFFFFFFFFFFFFFFFFFFFFFFFFFF
310
FFFFFFFFFFFFFFFFFFFFFFFFFFFFFFFFFFFFFFFFFFFFFFFFFFFFFFFFFFFFFFFF
310
FFFFFFFFFFFFFFFFFFFFFFFFFFFFFFFFF000FFFFFFFFFFFFFFFFFFFFFFFFFFFF
310
FFFFFFFFFFFFFFFFFFFFFFFFFFFFFFFFFFFFFFFFFFFFFFFFFFFFFFFFFFFFFFFF
310
FFFFFFFFFFFFFFFFFFFFFFFFFFFFFFFFFFFFFFFFFFFFFFFFFFFFFFFFFFFFFFFF
310
FFFFFFFFFFFFFFFFF000FFFFFFFFFFFFFFFFFFFFFFFFFFFFFFFFFFFFFFFFFFFF
310
FFFFFFFFFFFFFFFFFFFFFFFFFFFFFFFFFFFFFFFFFFFFFFFFFFFFFFFFFFFFFFFF
310
FFFFFFFFFFFFFFFFFFFFFFFFFFFFFFFFFFFFFFFFFFFFFFFFFFFFFFFFFFFFFFFF
310
F000FFFFFFFFFFFFFFFFFFFFFFFFFFFFFFFFFFFFFFFFFFFFFFFFFFFFFFFFFFFF
310
FFFFFFFFFFFFFFFFFFFFFFFFFFFFFFFFFFFFFFFFFFFFFFFFFFFFFFFFFFFFFFFF
310
FFFFFFFFFFFFFFFFFFFFFFFFFFFFFFFFFFFFFFFFFFFFFFFFF000FFFFFFFFFFFF
310
FFFFFFFFFFFFFFFFFFFFFFFFFFFFFFFFFFFFFFFFFFFFFFFFFFFFFFFFFFFFFFFF
310
FFFFFFFFFFFFFFFFFFFFFFFFFFFFFFFFFFFFFFFFFFFFFFFFFFFFFFFFFFFFFFFF
310
FFFFFFFFFFFFFFFFFFFFFFFFFFFFFFFFF000FFFFFFFFFFFFFFFFFFFFFFFFFFFF
310
FFFFFFFFFFFFFFFFFFFFFFFFFFFFFFFFFFFFFFFFFFFFFFFFFFFFFFFFFFFFFFFF
310
FFFFFFFFFFFFFFFFFFFFFFFFFFFFFFFFFFFFFFFFFFFFFFFFFFFFFFFFFFFFFFFF
310
FFFFFFFFFFFFFFFFF000FFFFFFFFFFFFFFFFFFFFFFFFFFFFFFFFFFFFFFFFFFFF
310
FFFFFFFFFFFFFFFFFFFFFFFFFFFFFFFFFFFFFFFFFFFFFFFFFFFFFFFFFFFFFFFF
310
FFFFFFFFFFFFFFFFFFFFFFFFFFFFFFFFFFFFFFFFFFFFFFFFFFFFFFFFFFFFFFFF
310
F000FFFFFFFFFFFFFFFFFFFFFFFFFFFFFFFFFFFFFFFFFFFFFFFFFFFFFFFFFFFF
310
FFFFFFFFFFFFFFFFFFFFFFFFFFFFFFFFFFFFFFFFFFFFFFFFFFFFFFFFFFFFFFFF
310
FFFFFFFFFFFFFFFFFFFFFFFFFFFFFFFFFFFFFFFFFFFFFFFFF000FFFFFFFFFFFF
310
FFFFFFFFFFFFFFFFFFFFFFFFFFFFFFFFFFFFFFFFFFFFFFFFFFFFFFFFFFFFFFFF
310
FFFFFFFFFFFFFFFFFFFFFFFFFFFFFFFFFFFFFFFFFFFFFFFFFFFFFFFFFFFFFFFF
310
FFFFFFFFFFFFFFFFFFFFFFFFFFFFFFFFF000FFFFFFFFFFFFFFFFFFFFFFFFFFFF
310
FFFFFFFFFFFFFFFFFFFFFFFFFFFFFFFFFFFFFFFFFFFFFFFFFFFFFFFFFFFFFFFF
310
FFFFFFFFFFFFFFFFFFFFFFFFFFFFFFFFFFFFFFFFFFFFFFFFFFFFFFFFFFFFFFFF
310
FFFFFFFFFFFFFFFFF000FFFFFFFFFFFFFFFFFFFFFFFFFFFFFFFFFFFFFFFFFFFF
310
FFFFFFFFFFFFFFFFFFFFFFFFFFFFFFFFFFFFFFFFFFFFFFFFFFFFFFFFFFFFFFFF
310
FFFFFFFFFFFFFFFFFFFFFFFFFFFFFFFFFFFFFFFFFFFFFFFFFFFFFFFFFFFFFFFF
310
F000FFFFFFFFFFFFFFFFFFFFFFFFFFFFFFFFFFFFFFFFFFFFFFFFFFFFFFFFFFFF
310
FFFFFFFFFFFFFFFFFFFFFFFFFFFFFFFFFFFFFFFFFFFFFFFFFFFFFFFFFFFFFFFF
310
FFFFFFFFFFFFFFFFFFFFFFFFFFFFFFFFFFFFFFFFFFFFFFFFF000FFFFFFFFFFFF
310
FFFFFFFFFFFFFFFFFFFFFFFFFFFFFFFFFFFFFFFFFFFFFFFFFFFFFFFFFFFFFFFF
310
FFFFFFFFFFFFFFFFFFFFFFFFFFFFFFFFFFFFFFFFFFFFFFFFFFFFFFFFFFFFFFFF
310
FFFFFFFFFFFFFFFFFFFFFFFFFFFFFFFFF000FFFFFFFFFFFFFFFFFFFFFFFFFFFF
310
FFFFFFFFFFFFFFFFFFFFFFFFFFFFFFFFFFFFFFFFFFFFFFFFFFFFFFFFFFFFFFFF
310
FFFFFFFFFFFFFFFFFFFFFFFFFFFFFFFFFFFFFFFFFFFFFFFFFFFFFFFFFFFFFFFF
310
FFFFFFFFFFFFFFFFF000FFFFF80003FFFFFFFFFFFFFFFFFFFFFFFFFFFFFFFFFF
310
FFFFF00007FFFFFFFFFF00007FFFFFF800000000000000007FFFFFFFFFFFFFFF
310
FFFFFFFC001FFFFFFFFFFFFFFC001FFFFFFFFFFFFFFFFFFFFFFFFFFE0007FFFF
310
F000FFFF8000007FFFFFFFF8000FFFFFC0007FFFFF80007FFFFF0000007FFFFF
310
FFF8000007FFFFF800000000000000007FFFFFF0001FFFFFFFFFFFC00001FFFF
310
FFFFFFFFC00001FFFFFFFF000000000003FFFFE000007FFFF000FFFE0000000F
310
FFFFFFF0000FFFFF80007FFFFF80007FFFFC0000001FFFFFFFC0000001FFFFF8
310
00000000000000007FFFFFF0001FFFFFFFFFFE0000003FFFFFFFFFFE0000003F
310
FFFFFF000000000003FFFF0000000FFFF000FFF800000003FFFFFFF00007FFFF
310
80007FFFFF80007FFFF000000007FFFFFF000000003FFFF80000000000000000
310
7FFFFFF0001FFFFFFFFFF80000000FFFFFFFFFF80000000FFFFFFF0000000000
310
03FFFC00000003FFF000FFE000000000FFFFFFF00007FFFF80003FFFFF80007F
310
FFC000000001FFFFFC000000001FFFF800000000000000007FFFFFF0001FFFFF
310
FFFFE000000003FFFFFFFFE000000003FFFFFF000000000003FFF000000000FF
310
F000FF80000000007FFFFFF00007FFFF80003FFFFF80007FFF8000000000FFFF
310
F80000000007FFF800000000000000007FFFFFF0001FFFFFFFFFC000000001FF
310
FFFFFFC000000001FFFFFF000000000003FFC0000000007FF000FF0000000000
310
3FFFFFE00007FFFF00003FFFFF80007FFE00000000003FFFF00000000003FFF8
310
00000000000000007FFFFFF0001FFFFFFFFF8000000000FFFFFFFF8000000000
310
FFFFFF000000000003FF80000000003FF000FE00000000001FFFFFE00003FFFF
310
00003FFFFF80007FFC00000000001FFFE00000000001FFF8000001FFFE000000
310
7FFFFFF0001FFFFFFFFE00000000003FFFFFFE00000000003FFFFF0000000000
310
03FF00000000001FF000FC00000000000FFFFFE00003FFFF00001FFFFF80007F
310
F800000000001FFFC00000000000FFF8000001FFFE0000007FFFFFF0001FFFFF
310
FFFC00000000001FFFFFFC00000000001FFFFF000000000003FE00000000000F
310
F000F8000000000007FFFFE00003FFFF00001FFFFF80007FF800000000000FFF
310
800000000000FFF8000001FFFE0000007FFFFFF0001FFFFFFFF800000000000F
310
FFFFF800000000000FFFFF000000000003FC000000000007F000F80000000000
310
03FFFFC00003FFFE00001FFFFF80007FF0000000000007FF0000000000007FF8
310
000001FFFE0000007FFFFFF0001FFFFFFFF0000000000007FFFFF00000000000
310
07FFFF000000000003F8000000000003F000F0000000000003FFFFC00001FFFE
310
00001FFFFF80007FE0000000000007FE0000000000003FF8000001FFFE000000
310
7FFFFFF0001FFFFFFFF0000000000007FFFFF0000000000007FFFF0000000000
310
03F800001F800003F000E00001FFF00001FFFFC00001FFFE00000FFFFF80007F
310
E00001FFE00003FE00001FFF00003FF8000001FFFE0000007FFFFFF0001FFFFF
310
FFE000003E000003FFFFE000003E000003FFFF000000000003F00001FFF80001
310
F000E00007FFFC0001FFFFC00001FFFE00000FFFFF80007FC0000FFFFC0003FC
310
0000FFFFC0001FF8000001FFFE0000007FFFFFF0001FFFFFFFC00003FFE00001
310
FFFFC00003FFE00001FFFF0001FFFFFFFFF00007FFFE0001F000E0000FFFFF00
310
00FFFF800001FFFC00000FFFFF80007FC0001FFFFE0001FC0001FFFFE0001FF8
310
000001FFFE0000007FFFFFF0001FFFFFFF80000FFFF80000FFFF80000FFFF800
310
00FFFF0003FFFFFFFFE0000FFFFF8000F000C0003FFFFF8000FFFF800000FFFC
310
000007FFFF80007F80003FFFFF0001FC0003FFFFF0001FF8000001FFFE000000
310
7FFFFFF0001FFFFFFF80003FFFFE0000FFFF80003FFFFE0000FFFF0003FFFFFF
310
FFE0003FFFFF8000F000C0003FFFFF8000FFFF800000FFFC000007FFFF80007F
310
80007FFFFF8001F80007FFFFF8000FF8000001FFFE0000007FFFFFF0001FFFFF
310
FF00007FFFFF00007FFF00007FFFFF00007FFF0003FFFFFFFFE0003FFFFFC000
310
F000C0007FFFFFC000FFFF000000FFFC000007FFFF80007F8000FFFFFF8000F8
310
000FFFFFF8000FF8000001FFFE0000007FFFFFF0001FFFFFFF0000FFFFFF8000
310
7FFF0000FFFFFF80007FFF0003FFFFFFFFC0007FFFFFC00070008000FFFFFFC0
310
00FFFF000000FFF8000007FFFF80007F8000FFFFFF8000F8000FFFFFF8000FF8
310
000001FFFE0000007FFFFFF0001FFFFFFE0001FFFFFFC0003FFE0001FFFFFFC0
310
003FFF0003FFFFFFFFC0007FFFFFE00070008000FFFFFFC0007FFF0000007FF8
310
000003FFFF80007F0001FFFFFF8000F8000FFFFFF8000FF8000001FFFE000000
310
7FFFFFF0001FFFFFFE0001FFFFFFC0003FFE0001FFFFFFC0003FFF0003FFFFFF
310
FFC000FFFFFFE00070008000FFFFFFC0007FFF0000007FF8000003FFFF80007F
310
0001FFFFFF8000F8001FFFFFF8000FF8000001FFFE0000007FFFFFF0001FFFFF
310
FE0003FFFFFFE0003FFE0003FFFFFFE0003FFF0003FFFFFFFFC000FFFFFFE000
310
70008000FFFFFFC0007FFE0000007FF8000003FFFF80007F0001FFFFFF8000F0
310
001FFFFFF8000FF8000001FFFE0000007FFFFFF0001FFFFFFC0003FFFFFFE000
310
1FFC0003FFFFFFE0001FFF0003FFFFFFFFC000FFFFFFC00070008000FFFFFF80
310
007FFE0000007FF0000003FFFF80007F0001FFFFFF0000F0001FFFFFF8000FF8
310
000001FFFE0000007FFFFFF0001FFFFFFC0007FFFFFFF0001FFC0007FFFFFFF0
310
001FFF0003FFFFFFFFC000FFFFFFC00070008001FFFFFF0000FFFE0000003FF0
310
000001FFFF80007F0001FFFFFF0000F8001FFFFFF0000FF8000001FFFE000000
310
7FFFFFF0001FFFFFFC0007FFFFFFF0001FFC0007FFFFFFF0001FFF0003FFFFFF
310
FFC001FFFFFF80007000FFFFFFFFFE0000FFFE0008003FF0008001FFFF80007F
310
FFFFFFFFFC0000FFFFFFFFFFE0000FF8000001FFFE0000007FFFFFF0001FFFFF
310
F8000FFFFFFFF8000FF8000FFFFFFFF8000FFF0003FFFFFFFFFFFFFFFFFF0000
310
7000FFFFFFFFFC0000FFFC0008003FF0008001FFFF80007FFFFFFFFFF80001FF
310
FFFFFFFF80000FF8000001FFFE0000007FFFFFF0001FFFFFF8000FFFFFFFF800
310
0FF8000FFFFFFFF8000FFF0003FFFFFFFFFFFFFFFFFE0000F000FFFFFFFFE000
310
00FFFC000C003FE000C001FFFF80007FFFFFFFFFC00001FFFFFFFFFE00001FF8
310
000001FFFE0000007FFFFFF0001FFFFFF8000FFFFFFFF8000FF8000FFFFFFFF8
310
000FFF0003FFFFFFFFFFFFFFFFF00000F000FFFFFFFE000001FFFC000C001FE0
310
00C000FFFF80007FFFFFFFFE000001FFFFFFFFE000001FF80FFFFFFFFFFFFFC0
310
7FFFFFF0001FFFFFF8000FFFFFFFF8000FF8000FFFFFFFF8000FFF0003FFFFFF
310
FFFFFFFFFF800000F000FFFFFFC0000001FFFC001C001FE001C000FFFF80007F
310
FFFFFF80000003FFFFFFF80000001FF80FFFFFFFFFFFFFC07FFFFFF0001FFFFF
310
F8001FFFFFFFFC000FF8001FFFFFFFFC000FFF0003FFFFFFFFFFFFFFF0000001
310
F000FFFFF800000001FFF8001C001FE001C000FFFF80007FFFFFF800000003FF
310
FFFF800000003FF80FFFFFFFFFFFFFC07FFFFFF0001FFFFFF8001FFFFFFFFC00
310
0FF8001FFFFFFFFC000FFF0003FFFFFFFFFFFFFE00000001F000FFFFC0000000
310
03FFF8001E001FC001E000FFFF80007FFFFF8000000007FFFFFC000000003FF8
310
0FFFFFFFFFFFFFC07FFFFFF0001FFFFFF8001FFFFFFFFC000FF8001FFFFFFFFC
310
000FFF0003FFFFFFFFFFFFE000000003F000FFFE0000000007FFF8001E000FC0
310
01E0007FFF80007FFFFE0000000007FFFFE0000000007FF80FFFFFFFFFFFFFC0
310
7FFFFFF0001FFFFFF0001FFFFFFFFC0007F0001FFFFFFFFC0007FF0003FFFFFF
310
FFFFFF0000000003F000FFF80000000007FFF8001E000FC003E0007FFF80007F
310
FFF0000000000FFFFF8000000000FFF80FFFFFFFFFFFFFC07FFFFFF0001FFFFF
310
F0001FFFFFFFFC0007F0001FFFFFFFFC0007FF0003FFFFFFFFFFFC0000000007
310
F000FFE0000000000FFFF0003E000FC003E0007FFF80007FFFC0000000001FFF
310
FE0000000001FFF80FFFFFFFFFFFFFC07FFFFFF0001FFFFFF0001FFFFFFFFC00
310
07F0001FFFFFFFFC0007FF0003FFFFFFFFFFF0000000000FF000FFC000000000
310
1FFFF0003F000F8003F0003FFF80007FFF80000000003FFFF80000000003FFF8
310
0FFFFFFFFFFFFFC07FFFFFF0001FFFFFF0001FFFFFFFFC0007F0001FFFFFFFFC
310
0007FF0003FFFFFFFFFFE0000000001FF000FF00000000007FFFF0003F000780
310
03F0003FFF80007FFF00000000007FFFF00000000007FFF80FFFFFFFFFFFFFC0
310
7FFFFFF0001FFFFFF0001FFFFFFFFC0007F0001FFFFFFFFC0007FF0003FFFFFF
310
FFFF80000000007FF000FE0000000000FFFFE0003F00078007F0003FFF80007F
310
FE0000000001FFFFE0000000001FFFF80FFFFFFFFFFFFFC07FFFFFF0001FFFFF
310
F0001FFFFFFFFC0007F0001FFFFFFFFC0007FF0003FFFFFFFFFF0000000000FF
310
F000FC0000000003FFFFE0007F00078007F0003FFF80007FFC0000000007FFFF
310
C0000000007FFFF80FFFFFFFFFFFFFC07FFFFFF0001FFFFFF8001FFFFFFFFC00
310
0FF8001FFFFFFFFC000FFF0003FFFFFFFFFE0000000003FFF000FC000000000F
310
FFFFE0007F80070007F8001FFF80007FF8000000001FFFFF8000000001FFFFF8
310
0FFFFFFFFFFFFFC07FFFFFF0001FFFFFF8001FFFFFFFFC000FF8001FFFFFFFFC
310
000FFF0003FFFFFFFFFC000000000FFFF000F8000000007FFFFFE0007F800700
310
07F8001FFF80007FF000000000FFFFFF800000000FFFFFF80FFFFFFFFFFFFFC0
310
7FFFFFF0001FFFFFF8000FFFFFFFF8000FF8000FFFFFFFF8000FFF0003FFFFFF
310
FFFC000000007FFFF000F800000007FFFFFFC0007F8003000FF8001FFF80007F
310
F000000007FFFFFF000000007FFFFFF80FFFFFFFFFFFFFC07FFFFFF0001FFFFF
310
F8000FFFFFFFF8000FF8000FFFFFFFF8000FFF0003FFFFFFFFF80000000FFFFF
310
F000F0000000FFFFFFFFC000FF8003000FF8001FFF80007FE0000000FFFFFFFF
310
0000000FFFFFFFF8000001FFFE0000007FFFFFF0001FFFFFF8000FFFFFFFF800
310
0FF8000FFFFFFFF8000FFF0003FFFFFFFFF8000000FFFFFFF000F000000FFFFF
310
FFFFC000FFC002000FF8000FFF80007FE000001FFFFFFFFE000001FFFFFFFFF8
310
000001FFFE0000007FFFFFF0001FFFFFF8000FFFFFFFF8000FF8000FFFFFFFF8
310
000FFF0003FFFFFFFFF000001FFFFFFFF000E00000FFFFFFFFFFC000FFC00200
310
0FFC000FFF80007FE00001FFFFFFFFFE00001FFFFFFFFFF8000001FFFE000000
310
7FFFFFF0001FFFFFFC000FFFFFFFF8001FFC000FFFFFFFF8001FFF0003FFFFFF
310
FFF00001FFFFFFFFF000E00007FFFFFFFFFF8000FFC000001FFC000FFF80007F
310
C0000FFFFFFFFFFE0000FFFFFFFFFFF8000001FFFE0000007FFFFFF0001FFFFF
310
FC0007FFFFFFF0001FFC0007FFFFFFF0001FFF0003FFFFFFFFF00007FFFFFFFF
310
F000E0001FFFFFFFFFFF8000FFC000001FFC000FFF80007FC0003FFFFFFFFFFE
310
0001FFFFFFFFFFF8000001FFFE0000007FFFFFF0001FFFFFFC0007FFFFFFF000
310
1FFC0007FFFFFFF0001FFF0003FFFFFFFFF0001FFFFFFFFFF000E0003FFFFF00
310
03FF8001FFE000001FFC0007FF80007FC0007FFFFF0007FC0003FFFFF0003FF8
310
000001FFFE0000007FFFFFF0001FFFFFFC0003FFFFFFE0001FFC0003FFFFFFE0
310
001FFF0003FFFFFFFFF0003FFFFFFFFFF000E0003FFFFF0001FF8001FFE00000
310
1FFE0007FF80007FC0007FFFFE0003FC0007FFFFE0003FF8000001FFFE000000
310
7FFFFFF0001FFFFFFE0003FFFFFFE0003FFE0003FFFFFFE0003FFF0003FFFFFF
310
FFF0003FFFFF8001F000E0003FFFFF0001FF0001FFE000001FFE0007FF80007F
310
C0007FFFFE0003FC0007FFFFE0003FF8000001FFFE0000007FFFFFF0001FFFFF
310
FE0001FFFFFFC0003FFE0001FFFFFFC0003FFF0003FFFFFFFFF0003FFFFF0001
310
F000E0003FFFFF0003FF0001FFE000003FFE0007FF80007FC0007FFFFE0003FC
310
0007FFFFE0003FF8000001FFFE0000007FFFFFF0001FFFFFFF0001FFFFFFC000
310
7FFF0001FFFFFFC0007FFF0003FFFFFFFFF0003FFFFF0001F000E0003FFFFE00
310
03FF0003FFF000003FFE0003FF80007FC0007FFFFC0003FE0007FFFFE0003FF8
310
000001FFFE0000007FFFFFF0001FFFFFFF0000FFFFFF80007FFF0000FFFFFF80
310
007FFF0003FFFFFFFFF0003FFFFF0001F000E0003FFFFE0003FF0003FFF00000
310
3FFF0003FF80007FC0007FFFFC0007FE0007FFFFC0003FF8000001FFFE000000
310
7FFFFFF0001FFFFFFF80007FFFFF0000FFFF80007FFFFF0000FFFF0003FFFFFF
310
FFF0003FFFFF0003F000E0003FFFFC0003FE0003FFF000003FFF0003FF80007F
310
E0003FFFF80007FE0003FFFFC0007FF8000001FFFE0000007FFFFFF0001FFFFF
310
FF80003FFFFE0000FFFF80003FFFFE0000FFFF0003FFFFFFFFF0001FFFFE0003
310
F000F0001FFFF80003FE0003FFF000007FFF0001FF80007FE0003FFFF00007FE
310
0001FFFF80007FF8000001FFFE0000007FFFFFF0001FFFFFFFC0000FFFF80001
310
FFFFC0000FFFF80001FFFF0003FFFFFFFFF0001FFFFC0003F000F0000FFFF000
310
07FE0007FFF800007FFF0001FF80007FE0001FFFE00007FF0000FFFE00007FF8
310
000001FFFE0000007FFFFFF0001FFFFFFFC00003FFE00001FFFFC00003FFE000
310
01FFFF0003FFFFFFFFF8000FFFF80003F000F00003FFC00007FC0007FFF80000
310
7FFF8001FF80007FF00007FF80000FFF00007FF80000FFF8000001FFFE000000
310
7F80000000000001FFE000003E000003FFFFE000003E000003FFFF0003FFFFFF
310
FFF80003FFE00007F000F800000000000FFC0007FFF800007FFF8001FF80007F
310
F000000000000FFF000000000000FFF8000001FFFE0000007F80000000000001
310
FFF0000000000007FFFFF0000000000007FFFF0003FFFFFFFFFC00007E000007
310
F000F800000000000FFC0007FFF80000FFFF8000FF80007FF800000000001FFF
310
800000000001FFF8000001FFFE0000007F80000000000001FFF800000000000F
310
FFFFF800000000000FFFFF0003FFFFFFFFFC00000000000FF000FC0000000000
310
1FFC0007FFFC0000FFFF8000FF80007FF800000000003FFFC00000000001FFF8
310
000001FFFE0000007F80000000000001FFF800000000000FFFFFF80000000000
310
0FFFFF0003FFFFFFFFFE00000000001FF000FE00000000003FF8000FFFFC0000
310
FFFF8000FF80007FFC00000000003FFFC00000000003FFF8000001FFFE000000
310
7F80000000000001FFFC00000000001FFFFFFC00000000001FFFFF0003FFFFFF
310
FFFF00000000001FF000FF00000000003FF8000FFFFC0000FFFFC000FF80007F
310
FE00000000007FFFE00000000007FFF8000001FFFE0000007F80000000000001
310
FFFE00000000003FFFFFFE00000000003FFFFF0003FFFFFFFFFF80000000003F
310
F000FF80000000007FF8000FFFFC0001FFFFC0007F80007FFF0000000000FFFF
310
F0000000000FFFF800000000000000007F80000000000001FFFF8000000000FF
310
FFFFFF8000000000FFFFFF0003FFFFFFFFFFC0000000007FF000FFC000000000
310
FFF8000FFFFE0001FFFFC0007F80007FFF8000000001FFFFF8000000001FFFF8
310
00000000000000007F80000000000001FFFFC000000001FFFFFFFFC000000001
310
FFFFFF0003FFFFFFFFFFE000000000FFF000FFE000000003FFF0001FFFFE0001
310
FFFFC0007F80007FFFC000000007FFFFFE000000003FFFF80000000000000000
310
7F80000000000001FFFFE000000003FFFFFFFFE000000003FFFFFF0003FFFFFF
310
FFFFF000000003FFF000FFF80000000FFFF0001FFFFE0001FFFFE0007F80007F
310
FFF00000000FFFFFFF00000000FFFFF800000000000000007F80000000000001
310
FFFFF80000000FFFFFFFFFF80000000FFFFFFF0003FFFFFFFFFFFC0000000FFF
310
F000FFFE0000003FFFF0001FFFFE0003FFFFE0003F80007FFFFC0000003FFFFF
310
FFC0000003FFFFF800000000000000007F80000000000001FFFFFE0000003FFF
310
FFFFFFFE0000003FFFFFFF0003FFFFFFFFFFFF0000003FFFF000FFFF800000FF
310
FFF0001FFFFF0003FFFFE0003F80007FFFFF000001FFFFFFFFF800001FFFFFF8
310
00000000000000007F80000000000001FFFFFFC00001FFFFFFFFFFFFC00001FF
310
FFFFFF0003FFFFFFFFFFFFC00000FFFFF000FFFFF8000FFFFFFFFFFFFFFFFFFF
310
FFFFFFFFFFFFFFFFFFFFF0001FFFFFFFFFFF0000FFFFFFF80000000000000000
310
7FFFFFFFFFFFFFFFFFFFFFFC001FFFFFFFFFFFFFFC001FFFFFFFFFFFFFFFFFFF
310
FFFFFFFC001FFFFFF000FFFFFFFFFFFFFFFFFFFFFFFFFFFFFFFFFFFFFFFFFFFF
310
FFFFFFFFFFFFFFFFFFFFFFFFFFFFFFFFFFFFFFFFFFFFFFFFFFFFFFFFFFFFFFFF
310
FFFFFFFFFFFFFFFFFFFFFFFFFFFFFFFFFFFFFFFFFFFFFFFFFFFFFFFFFFFFFFFF
310
F000FFFFFFFFFFFFFFFFFFFFFFFFFFFFFFFFFFFFFFFFFFFFFFFFFFFFFFFFFFFF
310
FFFFFFFFFFFFFFFFFFFFFFFFFFFFFFFFFFFFFFFFFFFFFFFFFFFFFFFFFFFFFFFF
310
FFFFFFFFFFFFFFFFFFFFFFFFFFFFFFFFFFFFFFFFFFFFFFFFF000FFFFFFFFFFFF
310
FFFFFFFFFFFFFFFFFFFFFFFFFFFFFFFFFFFFFFFFFFFFFFFFFFFFFFFFFFFFFFFF
310
FFFFFFFFFFFFFFFFFFFFFFFFFFFFFFFFFFFFFFFFFFFFFFFFFFFFFFFFFFFFFFFF
310
FFFFFFFFFFFFFFFFFFFFFFFFFFFFFFFFF000FFFFFFFFFFFFFFFFFFFFFFFFFFFF
310
FFFFFFFFFFFFFFFFFFFFFFFFFFFFFFFFFFFFFFFFFFFFFFFFFFFFFFFFFFFFFFFF
310
FFFFFFFFFFFFFFFFFFFFFFFFFFFFFFFFFFFFFFFFFFFFFFFFFFFFFFFFFFFFFFFF
310
FFFFFFFFFFFFFFFFF000FFFFFFFFFFFFFFFFFFFFFFFFFFFFFFFFFFFFFFFFFFFF
310
FFFFFFFFFFFFFFFFFFFFFFFFFFFFFFFFFFFFFFFFFFFFFFFFFFFFFFFFFFFFFFFF
310
FFFFFFFFFFFFFFFFFFFFFFFFFFFFFFFFFFFFFFFFFFFFFFFFFFFFFFFFFFFFFFFF
310
F000FFFFFFFFFFFFFFFFFFFFFFFFFFFFFFFFFFFFFFFFFFFFFFFFFFFFFFFFFFFF
310
FFFFFFFFFFFFFFFFFFFFFFFFFFFFFFFFFFFFFFFFFFFFFFFFFFFFFFFFFFFFFFFF
310
FFFFFFFFFFFFFFFFFFFFFFFFFFFFFFFFFFFFFFFFFFFFFFFFF000FFFFFFFFFFFF
310
FFFFFFFFFFFFFFFFFFFFFFFFFFFFFFFFFFFFFFFFFFFFFFFFFFFFFFFFFFFFFFFF
310
FFFFFFFFFFFFFFFFFFFFFFFFFFFFFFFFFFFFFFFFFFFFFFFFFFFFFFFFFFFFFFFF
310
FFFFFFFFFFFFFFFFFFFFFFFFFFFFFFFFF000FFFFFFFFFFFFFFFFFFFFFFFFFFFF
310
FFFFFFFFFFFFFFFFFFFFFFFFFFFFFFFFFFFFFFFFFFFFFFFFFFFFFFFFFFFFFFFF
310
FFFFFFFFFFFFFFFFFFFFFFFFFFFFFFFFFFFFFFFFFFFFFFFFFFFFFFFFFFFFFFFF
310
FFFFFFFFFFFFFFFFF000FFFFFFFFFFFFFFFFFFFFFFFFFFFFFFFFFFFFFFFFFFFF
310
FFFFFFFFFFFFFFFFFFFFFFFFFFFFFFFFFFFFFFFFFFFFFFFFFFFFFFFFFFFFFFFF
310
FFFFFFFFFFFFFFFFFFFFFFFFFFFFFFFFFFFFFFFFFFFFFFFFFFFFFFFFFFFFFFFF
310
F000FFFFFFFFFFFFFFFFFFFFFFFFFFFFFFFFFFFFFFFFFFFFFFFFFFFFFFFFFFFF
310
FFFFFFFFFFFFFFFFFFFFFFFFFFFFFFFFFFFFFFFFFFFFFFFFFFFFFFFFFFFFFFFF
310
FFFFFFFFFFFFFFFFFFFFFFFFFFFFFFFFFFFFFFFFFFFFFFFFF000FFFFFFFFFFFF
310
FFFFFFFFFFFFFFFFFFFFFFFFFFFFFFFFFFFFFFFFFFFFFFFFFFFFFFFFFFFFFFFF
310
FFFFFFFFFFFFFFFFFFFFFFFFFFFFFFFFFFFFFFFFFFFFFFFFFFFFFFFFFFFFFFFF
310
FFFFFFFFFFFFFFFFFFFFFFFFFFFFFFFFF000FFFFFFFFFFFFFFFFFFFFFFFFFFFF
310
FFFFFFFFFFFFFFFFFFFFFFFFFFFFFFFFFFFFFFFFFFFFFFFFFFFFFFFFFFFFFFFF
310
FFFFFFFFFFFFFFFFFFFFFFFFFFFFFFFFFFFFFFFFFFFFFFFFFFFFFFFFFFFFFFFF
310
FFFFFFFFFFFFFFFFF000FFFFFFFFFFFFFFFFFFFFFFFFFFFFFFFFFFFFFFFFFFFF
310
FFFFFFFFFFFFFFFFFFFFFFFFFFFFFFFFFFFFFFFFFFFFFFFFFFFFFFFFFFFFFFFF
310
FFFFFFFFFFFFFFFFFFFFFFFFFFFFFFFFFFFFFFFFFFFFFFFFFFFFFFFFFFFFFFFF
310
F000FFFFFFFFFFFFFFFFFFFFFFFFFFFFFFFFFFFFFFFFFFFFFFFFFFFFFFFFFFFF
310
FFFFFFFFFFFFFFFFFFFFFFFFFFFFFFFFFFFFFFFFFFFFFFFFFFFFFFFFFFFFFFFF
310
FFFFFFFFFFFFFFFFFFFFFFFFFFFFFFFFFFFFFFFFFFFFFFFFF000FFFFFFFFFFFF
310
FFFFFFFFFFFFFFFFFFFFFFFFFFFFFFFFFFFFFFFFFFFFFFFFFFFFFFFFFFFFFFFF
310
FFFFFFFFFFFFFFFFFFFFFFFFFFFFFFFFFFFFFFFFFFFFFFFFFFFFFFFFFFFFFFFF
310
FFFFFFFFFFFFFFFFFFFFFFFFFFFFFFFFF000FFFFFFFFFFFFFFFFFFFFFFFFFFFF
310
FFFFFFFFFFFFFFFFFFFFFFFFFFFFFFFFFFFFFFFFFFFFFFFFFFFFFFFFFFFFFFFF
310
FFFFFFFFFFFFFFFFFFFFFFFFFFFFFFFFFFFFFFFFFFFFFFFFFFFFFFFFFFFFFFFF
310
FFFFFFFFFFFFFFFFF000FFFFFFFFFFFFFFFFFFFFFFFFFFFFFFFFFFFFFFFFFFFF
310
FFFFFFFFFFFFFFFFFFFFFFFFFFFFFFFFFFFFFFFFFFFFFFFFFFFFFFFFFFFFFFFF
310
FFFFFFFFFFFFFFFFFFFFFFFFFFFFFFFFFFFFFFFFFFFFFFFFFFFFFFFFFFFFFFFF
310
F000FFFFFFFFFFFFFFFFFFFFFFFFFFFFFFFFFFFFFFFFFFFFFFFFFFFFFFFFFFFF
310
FFFFFFFFFFFFFFFFFFFFFFFFFFFFFFFFFFFFFFFFFFFFFFFFFFFFFFFFFFFFFFFF
310
FFFFFFFFFFFFFFFFFFFFFFFFFFFFFFFFFFFFFFFFFFFFFFFFF000FFFFFFFFFFFF
310
FFFFFFFFFFFFFFFFFFFFFFFFFFFFFFFFFFFFFFFFFFFFFFFFFFFFFFFFFFFFFFFF
310
FFFFFFFFFFFFFFFFFFFFFFFFFFFFFFFFFFFFFFFFFFFFFFFFFFFFFFFFFFFFFFFF
310
FFFFFFFFFFFFFFFFFFFFFFFFFFFFFFFFF000FFFFFFFFFFFFFFFFFFFFFFFFFFFF
310
FFFFFFFFFFFFFFFFFFFFFFFFFFFFFFFFFFFFFFFFFFFFFFFFFFFFFFFFFFFFFFFF
310
FFFFFFFFFFFFFFFFFFFFFFFFFFFFFFFFFFFFFFFFFFFFFFFFFFFFFFFFFFFFFFFF
310
FFFFFFFFFFFFFFFFF000FFFFFFFFFFFFFFFFFFFFFFFFFFFFFFFFFFFFFFFFFFFF
310
FFFFFFFFFFFFFFFFFFFFFFFFFFFFFFFFFFFFFFFFFFFFFFFFFFFFFFFFFFFFFFFF
310
FFFFFFFFFFFFFFFFFFFFFFFFFFFFFFFFFFFFFFFFFFFFFFFFFFFFFFFFFFFFFFFF
310
F000FFFFFFFFFFFFFFFFFFFFFFFFFFFFFFFFFFFFFFFFFFFFFFFFFFFFFFFFFFFF
310
FFFFFFFFFFFFFFFFFFFFFFFFFFFFFFFFFFFFFFFFFFFFFFFFFFFFFFFFFFFFFFFF
310
FFFFFFFFFFFFFFFFFFFFFFFFFFFFFFFFFFFFFFFFFFFFFFFFF000FFFFFFFFFFFF
310
FFFFFFFFFFFFFFFFFFFFFFFFFFFFFFFFFFFFFFFFFFFFFFFFFFFFFFFFFFFFFFFF
310
FFFFFFFFFFFFFFFFFFFFFFFFFFFFFFFFFFFFFFFFFFFFFFFFFFFFFFFFFFFFFFFF
310
FFFFFFFFFFFFFFFFFFFFFFFFFFFFFFFFF0000000000000000000000000000000
310
0000000000000000000000000000000000000000000000000000000000000000
310
0000000000000000000000000000000000000000000000000000000000000000
310
0000000000000000000000000000000000000000000000000000000000000000
310
0000000000000000000000000000000000000000000000000000000000000000
310
0000000000000000000000000000000000000000000000000000000000000000
310
0000000000000000000000000000000000000000000000000000000000000000
310
0000000000000000000000000000000000000000000000000000000000000000
310
0000000000000000000000000000000000000000000000000000000000000000
310
0000000000000000000000000000000000000000000000000000000000000000
310
0000000000000000000000000000000000000000000000000000000000000000
310
0000000000000000000000000000000000000000000000000000000000000000
310
0000000000000000000000000000000000000000000000000000000000000000
310
0000000000000000000000000000000000000000000000000000000000000000
310
0000000000000000000000000000000000000000000000000000000000000000
310
0000000000000000000000000000000000000000000000000000000000000000
  1
OLE
  0
ENDSEC
  0
SECTION
  2
OBJECTS
  0
DICTIONARY
  5
C
330
0
100
AcDbDictionary
281
     1
  3
ACAD_GROUP
350
D
  3
ACAD_LAYOUT
350
1A
  3
ACAD_MLINESTYLE
350
17
  3
ACAD_PLOTSETTINGS
350
19
  3
ACAD_PLOTSTYLENAME
350
E
  0
DICTIONARY
  5
D
102
{ACAD_REACTORS
330
C
102
}
330
C
100
AcDbDictionary
281
     1
  0
DICTIONARY
  5
1A
102
{ACAD_REACTORS
330
C
102
}
330
C
100
AcDbDictionary
281
     1
  3
Layout1
350
1E
  3
Layout2
350
26
  3
Model
350
22
  0
DICTIONARY
  5
17
102
{ACAD_REACTORS
330
C
102
}
330
C
100
AcDbDictionary
281
     1
  3
Standard
350
18
  0
DICTIONARY
  5
19
102
{ACAD_REACTORS
330
C
102
}
330
C
100
AcDbDictionary
281
     1
  0
ACDBDICTIONARYWDFLT
  5
E
102
{ACAD_REACTORS
330
C
102
}
330
C
100
AcDbDictionary
281
     1
  3
Normal
350
F
100
AcDbDictionaryWithDefault
340
F
  0
LAYOUT
  5
1E
102
{ACAD_REACTORS
330
1A
102
}
330
1A
100
AcDbPlotSettings
  1

  2
none_device
  4

  6

 40
0.0
 41
0.0
 42
0.0
 43
0.0
 44
0.0
 45
0.0
 46
0.0
 47
0.0
 48
0.0
 49
0.0
140
0.0
141
0.0
142
1.0
143
1.0
 70
   688
 72
     0
 73
     0
 74
     5
  7

 75
    16
147
1.0
148
0.0
149
0.0
100
AcDbLayout
  1
Layout1
 70
     1
 71
     1
 10
0.0
 20
0.0
 11
420.0
 21
297.0
 12
0.0
 22
0.0
 32
0.0
 14
1.0000000000E+20
 24
1.0000000000E+20
 34
1.0000000000E+20
 15
-1.0000000000E+20
 25
-1.0000000000E+20
 35
-1.0000000000E+20
146
0.0
 13
0.0
 23
0.0
 33
0.0
 16
1.0
 26
0.0
 36
0.0
 17
0.0
 27
1.0
 37
0.0
 76
     0
330
1B
  0
LAYOUT
  5
26
102
{ACAD_REACTORS
330
1A
102
}
330
1A
100
AcDbPlotSettings
  1

  2
none_device
  4

  6

 40
0.0
 41
0.0
 42
0.0
 43
0.0
 44
0.0
 45
0.0
 46
0.0
 47
0.0
 48
0.0
 49
0.0
140
0.0
141
0.0
142
1.0
143
1.0
 70
   688
 72
     0
 73
     0
 74
     5
  7

 75
    16
147
1.0
148
0.0
149
0.0
100
AcDbLayout
  1
Layout2
 70
     1
 71
     2
 10
0.0
 20
0.0
 11
0.0
 21
0.0
 12
0.0
 22
0.0
 32
0.0
 14
0.0
 24
0.0
 34
0.0
 15
0.0
 25
0.0
 35
0.0
146
0.0
 13
0.0
 23
0.0
 33
0.0
 16
1.0
 26
0.0
 36
0.0
 17
0.0
 27
1.0
 37
0.0
 76
     0
330
23
  0
LAYOUT
  5
22
102
{ACAD_REACTORS
330
1A
102
}
330
1A
100
AcDbPlotSettings
  1

  2
none_device
  4

  6

 40
0.0
 41
0.0
 42
0.0
 43
0.0
 44
0.0
 45
0.0
 46
0.0
 47
0.0
 48
0.0
 49
0.0
140
0.0
141
0.0
142
1.0
143
1.0
 70
  1712
 72
     0
 73
     0
 74
     0
  7

 75
     0
147
1.0
148
0.0
149
0.0
100
AcDbLayout
  1
Model
 70
     1
 71
     0
 10
0.0
 20
0.0
 11
297.0
 21
210.0
 12
0.0
 22
0.0
 32
0.0
 14
0.0
 24
0.0
 34
0.0
 15
297.0
 25
210.0
 35
0.0
146
0.0
 13
0.0
 23
0.0
 33
0.0
 16
1.0
 26
0.0
 36
0.0
 17
0.0
 27
1.0
 37
0.0
 76
     0
330
1F
331
29
  0
MLINESTYLE
  5
18
102
{ACAD_REACTORS
330
17
102
}
330
17
100
AcDbMlineStyle
  2
Standard
 70
     0
  3

 62
   256
 51
90.0
 52
90.0
 71
     2
 49
0.5
 62
   256
  6
BYLAYER
 49
-0.5
 62
   256
  6
BYLAYER
  0
ACDBPLACEHOLDER
  5
F
102
{ACAD_REACTORS
330
E
102
}
330
E
  0
ENDSEC
  0
EOF
