  0
SECTION
  2
HEADER
  9
$ACADVER
  1
AC1015
  9
$ACADMAINTVER
 70
     6
  9
$DWGCODEPAGE
  3
ANSI_1252
  9
$INSBASE
 10
0.0
 20
0.0
 30
0.0
  9
$EXTMIN
 10
0.0
 20
0.0
 30
0.0
  9
$EXTMAX
 10
297.0
 20
210.0
 30
0.0
  9
$LIMMIN
 10
0.0
 20
0.0
  9
$LIMMAX
 10
297.0
 20
210.0
  9
$ORTHOMODE
 70
     0
  9
$REGENMODE
 70
     1
  9
$FILLMODE
 70
     1
  9
$QTEXTMODE
 70
     0
  9
$MIRRTEXT
 70
     1
  9
$LTSCALE
 40
1.0
  9
$ATTMODE
 70
     1
  9
$TEXTSIZE
 40
2.0
  9
$TRACEWID
 40
1.0
  9
$TEXTSTYLE
  7
Standard
  9
$CLAYER
  8
0
  9
$CELTYPE
  6
ByLayer
  9
$CECOLOR
 62
   256
  9
$CELTSCALE
 40
1.0
  9
$DISPSILH
 70
     0
  9
$DIMSCALE
 40
1.0
  9
$DIMASZ
 40
3.0
  9
$DIMEXO
 40
0.0
  9
$DIMDLI
 40
3.75
  9
$DIMRND
 40
0.0
  9
$DIMDLE
 40
0.0
  9
$DIMEXE
 40
1.0
  9
$DIMTP
 40
0.0
  9
$DIMTM
 40
0.0
  9
$DIMTXT
 40
2.0
  9
$DIMCEN
 40
2.5
  9
$DIMTSZ
 40
0.0
  9
$DIMTOL
 70
     0
  9
$DIMLIM
 70
     0
  9
$DIMTIH
 70
     1
  9
$DIMTOH
 70
     1
  9
$DIMSE1
 70
     0
  9
$DIMSE2
 70
     0
  9
$DIMTAD
 70
     1
  9
$DIMZIN
 70
     0
  9
$DIMBLK
  1

  9
$DIMASO
 70
     1
  9
$DIMSHO
 70
     1
  9
$DIMPOST
  1

  9
$DIMAPOST
  1

  9
$DIMALT
 70
     0
  9
$DIMALTD
 70
     3
  9
$DIMALTF
 40
0.0393700787
  9
$DIMLFAC
 40
1.0
  9
$DIMTOFL
 70
     1
  9
$DIMTVP
 40
0.0
  9
$DIMTIX
 70
     0
  9
$DIMSOXD
 70
     0
  9
$DIMSAH
 70
     0
  9
$DIMBLK1
  1

  9
$DIMBLK2
  1

  9
$DIMSTYLE
  2
ISO-25
  9
$DIMCLRD
 70
     0
  9
$DIMCLRE
 70
     0
  9
$DIMCLRT
 70
     0
  9
$DIMTFAC
 40
1.0
  9
$DIMGAP
 40
1.524
  9
$DIMJUST
 70
     0
  9
$DIMSD1
 70
     0
  9
$DIMSD2
 70
     0
  9
$DIMTOLJ
 70
     0
  9
$DIMTZIN
 70
     0
  9
$DIMALTZ
 70
     0
  9
$DIMALTTZ
 70
     0
  9
$DIMUPT
 70
     0
  9
$DIMDEC
 70
     2
  9
$DIMTDEC
 70
     3
  9
$DIMALTU
 70
     2
  9
$DIMALTTD
 70
     3
  9
$DIMTXSTY
  7
Standard
  9
$DIMAUNIT
 70
     0
  9
$DIMADEC
 70
     2
  9
$DIMALTRND
 40
0.0
  9
$DIMAZIN
 70
     0
  9
$DIMDSEP
 70
    44
  9
$DIMATFIT
 70
     3
  9
$DIMFRAC
 70
     0
  9
$DIMLDRBLK
  1

  9
$DIMLUNIT
 70
     2
  9
$DIMLWD
 70
    -2
  9
$DIMLWE
 70
    -2
  9
$DIMTMOVE
 70
     0
  9
$LUNITS
 70
     2
  9
$LUPREC
 70
     2
  9
$SKETCHINC
 40
1.0
  9
$FILLETRAD
 40
10.0
  9
$AUNITS
 70
     0
  9
$AUPREC
 70
     2
  9
$MENU
  1
.
  9
$ELEVATION
 40
0.0
  9
$PELEVATION
 40
0.0
  9
$THICKNESS
 40
0.0
  9
$LIMCHECK
 70
     0
  9
$CHAMFERA
 40
10.0
  9
$CHAMFERB
 40
10.0
  9
$CHAMFERC
 40
20.0
  9
$CHAMFERD
 40
0.0
  9
$SKPOLY
 70
     0
  9
$TDCREATE
 40
2455898.481499317
  9
$TDUCREATE
 40
2455898.439832651
  9
$TDUPDATE
 40
2455898.481499329
  9
$TDUUPDATE
 40
2455898.439832662
  9
$TDINDWG
 40
0.0000000116
  9
$TDUSRTIMER
 40
0.0000000116
  9
$USRTIMER
 70
     1
  9
$ANGBASE
 50
0.0
  9
$ANGDIR
 70
     0
  9
$PDMODE
 70
     0
  9
$PDSIZE
 40
-1.0
  9
$PLINEWID
 40
0.0
  9
$SPLFRAME
 70
     0
  9
$SPLINETYPE
 70
     6
  9
$SPLINESEGS
 70
     8
  9
$HANDSEED
  5
19D
  9
$SURFTAB1
 70
     6
  9
$SURFTAB2
 70
     6
  9
$SURFTYPE
 70
     6
  9
$SURFU
 70
     6
  9
$SURFV
 70
     6
  9
$UCSBASE
  2

  9
$UCSNAME
  2

  9
$UCSORG
 10
0.0
 20
0.0
 30
0.0
  9
$UCSXDIR
 10
1.0
 20
0.0
 30
0.0
  9
$UCSYDIR
 10
0.0
 20
1.0
 30
0.0
  9
$UCSORTHOREF
  2

  9
$UCSORTHOVIEW
 70
     0
  9
$UCSORGTOP
 10
0.0
 20
0.0
 30
0.0
  9
$UCSORGBOTTOM
 10
0.0
 20
0.0
 30
0.0
  9
$UCSORGLEFT
 10
0.0
 20
0.0
 30
0.0
  9
$UCSORGRIGHT
 10
0.0
 20
0.0
 30
0.0
  9
$UCSORGFRONT
 10
0.0
 20
0.0
 30
0.0
  9
$UCSORGBACK
 10
0.0
 20
0.0
 30
0.0
  9
$PUCSBASE
  2

  9
$PUCSNAME
  2

  9
$PUCSORG
 10
0.0
 20
0.0
 30
0.0
  9
$PUCSXDIR
 10
1.0
 20
0.0
 30
0.0
  9
$PUCSYDIR
 10
0.0
 20
1.0
 30
0.0
  9
$PUCSORTHOREF
  2

  9
$PUCSORTHOVIEW
 70
     0
  9
$PUCSORGTOP
 10
0.0
 20
0.0
 30
0.0
  9
$PUCSORGBOTTOM
 10
0.0
 20
0.0
 30
0.0
  9
$PUCSORGLEFT
 10
0.0
 20
0.0
 30
0.0
  9
$PUCSORGRIGHT
 10
0.0
 20
0.0
 30
0.0
  9
$PUCSORGFRONT
 10
0.0
 20
0.0
 30
0.0
  9
$PUCSORGBACK
 10
0.0
 20
0.0
 30
0.0
  9
$USERI1
 70
     0
  9
$USERI2
 70
     0
  9
$USERI3
 70
     0
  9
$USERI4
 70
     0
  9
$USERI5
 70
     0
  9
$USERR1
 40
0.0
  9
$USERR2
 40
0.0
  9
$USERR3
 40
0.0
  9
$USERR4
 40
0.0
  9
$USERR5
 40
0.0
  9
$WORLDVIEW
 70
     1
  9
$SHADEDGE
 70
     3
  9
$SHADEDIF
 70
    70
  9
$TILEMODE
 70
     1
  9
$MAXACTVP
 70
    64
  9
$PINSBASE
 10
0.0
 20
0.0
 30
0.0
  9
$PLIMCHECK
 70
     0
  9
$PEXTMIN
 10
1.0000000000E+20
 20
1.0000000000E+20
 30
1.0000000000E+20
  9
$PEXTMAX
 10
-1.0000000000E+20
 20
-1.0000000000E+20
 30
-1.0000000000E+20
  9
$PLIMMIN
 10
0.0
 20
0.0
  9
$PLIMMAX
 10
420.0
 20
297.0
  9
$UNITMODE
 70
     0
  9
$VISRETAIN
 70
     1
  9
$PLINEGEN
 70
     0
  9
$PSLTSCALE
 70
     1
  9
$TREEDEPTH
 70
  3020
  9
$CMLSTYLE
  2
Standard
  9
$CMLJUST
 70
     0
  9
$CMLSCALE
 40
20.0
  9
$PROXYGRAPHICS
 70
     1
  9
$MEASUREMENT
 70
     1
  9
$CELWEIGHT
370
    -1
  9
$ENDCAPS
280
     0
  9
$JOINSTYLE
280
     0
  9
$LWDISPLAY
290
     1
  9
$INSUNITS
 70
     4
  9
$HYPERLINKBASE
  1

  9
$STYLESHEET
  1

  9
$XEDIT
290
     1
  9
$CEPSNTYPE
380
     0
  9
$PSTYLEMODE
290
     1
  9
$FINGERPRINTGUID
  2
{1ADEC64F-651E-4A53-A90D-DB981505E4FD}
  9
$VERSIONGUID
  2
{FAEB1C32-E019-11D5-929B-00C0DF256EC4}
  9
$EXTNAMES
290
     1
  9
$PSVPSCALE
 40
0.0
  9
$OLESTARTUP
290
     0
  0
ENDSEC
  0
SECTION
  2
CLASSES
  0
CLASS
  1
ACDBDICTIONARYWDFLT
  2
AcDbDictionaryWithDefault
  3
ObjectDBX Classes
 90
        0
280
     0
281
     0
  0
CLASS
  1
VISUALSTYLE
  2
AcDbVisualStyle
  3
ObjectDBX Classes
 90
     4095
280
     0
281
     0
  0
CLASS
  1
MATERIAL
  2
AcDbMaterial
  3
ObjectDBX Classes
 90
     1153
280
     0
281
     0
  0
CLASS
  1
ACDBPLACEHOLDER
  2
AcDbPlaceHolder
  3
ObjectDBX Classes
 90
        0
280
     0
281
     0
  0
CLASS
  1
LAYOUT
  2
AcDbLayout
  3
ObjectDBX Classes
 90
        0
280
     0
281
     0
  0
ENDSEC
  0
SECTION
  2
TABLES
  0
TABLE
  2
VPORT
  5
8
330
0
100
AcDbSymbolTable
 70
     1
  0
VPORT
  5
29
330
8
100
AcDbSymbolTableRecord
100
AcDbViewportTableRecord
  2
*Active
 70
     0
 10
0.0
 20
0.0
 11
1.0
 21
1.0
 12
148.5
 22
105.0
 13
0.0
 23
0.0
 14
10.0
 24
10.0
 15
10.0
 25
10.0
 16
0.0
 26
0.0
 36
1.0
 17
0.0
 27
0.0
 37
0.0
 40
210.0
 41
1.4142857143
 42
50.0
 43
0.0
 44
0.0
 50
0.0
 51
0.0
 71
     0
 72
  2000
 73
     1
 74
     3
 75
     0
 76
     0
 77
     0
 78
     0
281
     0
 65
     1
110
0.0
120
0.0
130
0.0
111
1.0
121
0.0
131
0.0
112
0.0
122
1.0
132
0.0
 79
     0
146
0.0
  0
ENDTAB
  0
TABLE
  2
LTYPE
  5
5
330
0
100
AcDbSymbolTable
 70
     6
  0
LTYPE
  5
14
330
5
100
AcDbSymbolTableRecord
100
AcDbLinetypeTableRecord
  2
ByBlock
 70
     0
  3

 72
    65
 73
     0
 40
0.0
  0
LTYPE
  5
15
330
5
100
AcDbSymbolTableRecord
100
AcDbLinetypeTableRecord
  2
ByLayer
 70
     0
  3

 72
    65
 73
     0
 40
0.0
  0
LTYPE
  5
16
330
5
100
AcDbSymbolTableRecord
100
AcDbLinetypeTableRecord
  2
Continuous
 70
     0
  3
Solid line
 72
    65
 73
     0
 40
0.0
  0
LTYPE
  5
3F
330
5
100
AcDbSymbolTableRecord
100
AcDbLinetypeTableRecord
  2
HIDDEN
 70
     0
  3
Hidden __ __ __ __ __ __ __ __ __ __ __ __ __ __
 72
    65
 73
     2
 40
1.905
 49
1.27
 74
     0
 49
-0.635
 74
     0
  0
LTYPE
  5
40
330
5
100
AcDbSymbolTableRecord
100
AcDbLinetypeTableRecord
  2
PHANTOM
 70
     0
  3
Phantom ______  __  __  ______  __  __  ______
 72
    65
 73
     6
 40
12.7
 49
6.35
 74
     0
 49
-1.27
 74
     0
 49
1.27
 74
     0
 49
-1.27
 74
     0
 49
1.27
 74
     0
 49
-1.27
 74
     0
  0
LTYPE
  5
41
330
5
100
AcDbSymbolTableRecord
100
AcDbLinetypeTableRecord
  2
CENTER
 70
     0
  3
Center ____ _ ____ _ ____ _ ____ _ ____ _ ____
 72
    65
 73
     4
 40
10.16
 49
6.35
 74
     0
 49
-1.27
 74
     0
 49
1.27
 74
     0
 49
-1.27
 74
     0
  0
LTYPE
  5
42
330
5
100
AcDbSymbolTableRecord
100
AcDbLinetypeTableRecord
  2
CENTERX2
 70
     0
  3
Center (2x) ________  __  ________  __  _____
 72
    65
 73
     4
 40
20.32
 49
12.7
 74
     0
 49
-2.54
 74
     0
 49
2.54
 74
     0
 49
-2.54
 74
     0
  0
LTYPE
  5
43
330
5
100
AcDbSymbolTableRecord
100
AcDbLinetypeTableRecord
  2
DOT2
 70
     0
  3
Dot (.5x) ........................................
 72
    65
 73
     2
 40
0.635
 49
0.0
 74
     0
 49
-0.635
 74
     0
  0
ENDTAB
  0
TABLE
  2
LAYER
  5
2
330
0
100
AcDbSymbolTable
 70
     5
  0
LAYER
  5
10
330
2
100
AcDbSymbolTableRecord
100
AcDbLayerTableRecord
  2
0
 70
     0
 62
     7
  6
Continuous
370
    -3
390
F
  0
LAYER
  5
44
330
2
100
AcDbSymbolTableRecord
100
AcDbLayerTableRecord
  2
FORMAT
 70
     0
 62
     7
  6
Continuous
370
    -3
390
F
  0
LAYER
  5
45
330
2
100
AcDbSymbolTableRecord
100
AcDbLayerTableRecord
  2
VERMASSUNG
 70
     0
 62
     7
  6
Continuous
370
    -3
390
F
  0
LAYER
  5
46
330
2
100
AcDbSymbolTableRecord
100
AcDbLayerTableRecord
  2
KOPF_DÜNN
 70
     0
 62
     7
  6
Continuous
370
    -3
390
F
  0
LAYER
  5
47
330
2
100
AcDbSymbolTableRecord
100
AcDbLayerTableRecord
  2
KOPF_DICK
 70
     0
 62
     7
  6
Continuous
370
    15
390
F
  0
ENDTAB
  0
TABLE
  2
STYLE
  5
3
330
0
100
AcDbSymbolTable
 70
     2
  0
STYLE
  5
11
330
3
100
AcDbSymbolTableRecord
100
AcDbTextStyleTableRecord
  2
Standard
 70
     0
 40
0.0
 41
1.0
 50
0.0
 71
     0
 42
2.5
  3
txt
  4

  0
STYLE
  5
48
330
3
100
AcDbSymbolTableRecord
100
AcDbTextStyleTableRecord
  2
SLDTEXTSTYLE0
 70
     0
 40
0.0
 41
0.7
 50
0.0
 71
     0
 42
0.2
  3
TXT
  4

  0
ENDTAB
  0
TABLE
  2
VIEW
  5
6
330
0
100
AcDbSymbolTable
 70
     0
  0
ENDTAB
  0
TABLE
  2
UCS
  5
7
330
0
100
AcDbSymbolTable
 70
     0
  0
ENDTAB
  0
TABLE
  2
APPID
  5
9
330
0
100
AcDbSymbolTable
 70
     1
  0
APPID
  5
12
330
9
100
AcDbSymbolTableRecord
100
AcDbRegAppTableRecord
  2
ACAD
 70
     0
  0
ENDTAB
  0
TABLE
  2
DIMSTYLE
  5
A
330
0
100
AcDbSymbolTable
 70
     3
100
AcDbDimStyleTable
  0
DIMSTYLE
105
27
330
A
100
AcDbSymbolTableRecord
100
AcDbDimStyleTableRecord
  2
ISO-25
 70
     0
 41
2.5
 42
0.625
 43
3.75
 44
1.25
 73
     0
 74
     0
 77
     1
 78
     8
140
2.5
141
2.5
143
0.0393700787
147
0.625
171
     3
172
     1
178
     0
271
     2
272
     2
274
     3
278
    44
283
     0
284
     8
340
11
  0
DIMSTYLE
105
136
102
{ACAD_REACTORS
330
135
102
}
330
A
100
AcDbSymbolTableRecord
100
AcDbDimStyleTableRecord
  2
SLDDIMSTYLE0
 70
     0
 41
3.0
 44
0.0
 73
     0
 74
     0
 77
     1
 78
    12
 79
     3
140
2.0
147
0.5
173
     1
178
     0
179
     2
272
     3
276
     2
284
    12
340
48
  0
DIMSTYLE
105
140
102
{ACAD_REACTORS
330
13F
330
14A
330
154
330
15E
102
}
330
A
100
AcDbSymbolTableRecord
100
AcDbDimStyleTableRecord
  2
SLDDIMSTYLE1
 70
     0
 41
3.0
 44
0.0
 45
0.000000001
 73
     0
 74
     0
 77
     1
 78
    12
 79
     3
140
2.0
147
0.5
173
     1
178
     0
271
     2
272
     3
276
     2
284
    12
340
48
  0
ENDTAB
  0
TABLE
  2
BLOCK_RECORD
  5
1
330
0
100
AcDbSymbolTable
 70
     7
  0
BLOCK_RECORD
  5
1F
330
1
100
AcDbSymbolTableRecord
100
AcDbBlockTableRecord
  2
*Model_Space
340
22
  0
BLOCK_RECORD
  5
1B
330
1
100
AcDbSymbolTableRecord
100
AcDbBlockTableRecord
  2
*Paper_Space
340
1E
  0
BLOCK_RECORD
  5
23
330
1
100
AcDbSymbolTableRecord
100
AcDbBlockTableRecord
  2
*Paper_Space0
340
26
  0
BLOCK_RECORD
  5
137
330
1
100
AcDbSymbolTableRecord
100
AcDbBlockTableRecord
  2
*D1
340
0
  0
BLOCK_RECORD
  5
141
330
1
100
AcDbSymbolTableRecord
100
AcDbBlockTableRecord
  2
*D2
340
0
  0
BLOCK_RECORD
  5
14B
330
1
100
AcDbSymbolTableRecord
100
AcDbBlockTableRecord
  2
*D3
340
0
  0
BLOCK_RECORD
  5
155
330
1
100
AcDbSymbolTableRecord
100
AcDbBlockTableRecord
  2
*D4
340
0
  0
BLOCK_RECORD
  5
15F
330
1
100
AcDbSymbolTableRecord
100
AcDbBlockTableRecord
  2
*D5
340
0
  0
BLOCK_RECORD
  5
190
330
1
100
AcDbSymbolTableRecord
100
AcDbBlockTableRecord
  2
SW_CENTERMARKSYMBOL_0
340
0
102
{BLKREFS
331
19B
102
}
  0
ENDTAB
  0
ENDSEC
  0
SECTION
  2
BLOCKS
  0
BLOCK
  5
20
330
1F
100
AcDbEntity
  8
0
100
AcDbBlockBegin
  2
*Model_Space
 70
     0
 10
0.0
 20
0.0
 30
0.0
  3
*Model_Space
  1

  0
ENDBLK
  5
21
330
1F
100
AcDbEntity
  8
0
100
AcDbBlockEnd
  0
BLOCK
  5
1C
330
1B
100
AcDbEntity
 67
     1
  8
0
100
AcDbBlockBegin
  2
*Paper_Space
 70
     0
 10
0.0
 20
0.0
 30
0.0
  3
*Paper_Space
  1

  0
ENDBLK
  5
1D
330
1B
100
AcDbEntity
 67
     1
  8
0
100
AcDbBlockEnd
  0
BLOCK
  5
24
330
23
100
AcDbEntity
  8
0
100
AcDbBlockBegin
  2
*Paper_Space0
 70
     0
 10
0.0
 20
0.0
 30
0.0
  3
*Paper_Space0
  1

  0
ENDBLK
  5
25
330
23
100
AcDbEntity
  8
0
100
AcDbBlockEnd
  0
BLOCK
  5
138
330
137
100
AcDbEntity
  8
0
100
AcDbBlockBegin
  2
*D1
 70
     1
 10
0.0
 20
0.0
 30
0.0
  3
*D1
  1

  0
ARC
  5
13A
330
137
100
AcDbEntity
  8
VERMASSUNG
100
AcDbCircle
 10
232.4758912172
 20
149.1219185417
 30
0.0
 40
13.68644407842083
100
AcDbArc
 50
90.0
 51
183.0
  0
SOLID
  5
13B
330
137
100
AcDbEntity
  8
VERMASSUNG
100
AcDbTrace
 10
232.4758912172
 20
162.8083626201
 30
0.0
 11
229.4448781553
 21
162.9327001383
 31
0.0
 12
229.5417919278
 22
162.0379332856
 32
0.0
 13
229.5417919278
 23
162.0379332856
 33
0.0
  0
SOLID
  5
13C
330
137
100
AcDbEntity
  8
VERMASSUNG
100
AcDbTrace
 10
218.8082039348
 20
148.4056254033
 30
0.0
 11
219.4240185307
 21
151.3760247676
 31
0.0
 12
218.5254058499
 22
151.4259772443
 32
0.0
 13
218.5254058499
 23
151.4259772443
 33
0.0
  0
LINE
  5
13D
330
137
100
AcDbEntity
  8
VERMASSUNG
100
AcDbLine
 10
232.4758912172
 20
155.3205804502
 30
0.0
 11
232.4758912172
 21
163.8083626201
 31
0.0
  0
MTEXT
  5
13E
330
137
100
AcDbEntity
  8
VERMASSUNG
100
AcDbMText
 10
218.6817537307
 20
158.214130404
 30
0.1
 40
2.0
 41
0.0
 71
     1
 72
     1
  1
93°
  7
SLDTEXTSTYLE0
 11
0.688354575693749
 21
0.7253743710122923
 31
0.0
 73
     1
 44
1.0
  0
ENDBLK
  5
139
330
137
100
AcDbEntity
  8
0
100
AcDbBlockEnd
  0
BLOCK
  5
142
330
141
100
AcDbEntity
  8
0
100
AcDbBlockBegin
  2
*D2
 70
     1
 10
0.0
 20
0.0
 30
0.0
  3
*D2
  1

  0
SOLID
  5
144
330
141
100
AcDbEntity
  8
VERMASSUNG
100
AcDbTrace
 10
242.723552336
 20
149.1004064916
 30
0.0
 11
242.273552336
 21
146.1004064916
 31
0.0
 12
243.173552336
 22
146.1004064916
 32
0.0
 13
243.173552336
 23
146.1004064916
 33
0.0
  0
SOLID
  5
145
330
141
100
AcDbEntity
  8
VERMASSUNG
100
AcDbTrace
 10
242.723552336
 20
104.1004064916
 30
0.0
 11
243.173552336
 21
107.1004064916
 31
0.0
 12
242.273552336
 22
107.1004064916
 32
0.0
 13
242.273552336
 23
107.1004064916
 33
0.0
  0
LINE
  5
146
330
141
100
AcDbEntity
  8
VERMASSUNG
100
AcDbLine
 10
242.3158660878
 20
149.1004064916
 30
0.0
 11
243.723552336
 21
149.1004064916
 31
0.0
  0
LINE
  5
147
330
141
100
AcDbEntity
  8
VERMASSUNG
100
AcDbLine
 10
232.4758912172
 20
104.1004064916
 30
0.0
 11
243.723552336
 21
104.1004064916
 31
0.0
  0
LINE
  5
148
330
141
100
AcDbEntity
  8
VERMASSUNG
100
AcDbLine
 10
242.723552336
 20
149.1004064916
 30
0.0
 11
242.723552336
 21
104.1004064916
 31
0.0
  0
MTEXT
  5
149
330
141
100
AcDbEntity
  8
VERMASSUNG
100
AcDbMText
 10
240.1454169728
 20
124.2004063776
 30
0.1
 40
2.0
 41
0.0
 71
     1
 72
     1
  1
45
  7
SLDTEXTSTYLE0
 11
-7.044195017643634E-15
 21
1.0
 31
0.0
 73
     1
 44
1.0
  0
ENDBLK
  5
143
330
141
100
AcDbEntity
  8
0
100
AcDbBlockEnd
  0
BLOCK
  5
14C
330
14B
100
AcDbEntity
  8
0
100
AcDbBlockBegin
  2
*D3
 70
     1
 10
0.0
 20
0.0
 30
0.0
  3
*D3
  1

  0
SOLID
  5
14E
330
14B
100
AcDbEntity
  8
VERMASSUNG
100
AcDbTrace
 10
129.4758912172
 20
172.2118114137
 30
0.0
 11
132.4758912172
 21
171.7618114137
 31
0.0
 12
132.4758912172
 22
172.6618114137
 32
0.0
 13
132.4758912172
 23
172.6618114137
 33
0.0
  0
SOLID
  5
14F
330
14B
100
AcDbEntity
  8
VERMASSUNG
100
AcDbTrace
 10
232.4758912172
 20
172.2118114137
 30
0.0
 11
229.4758912172
 21
172.6618114137
 31
0.0
 12
229.4758912172
 22
171.7618114137
 32
0.0
 13
229.4758912172
 23
171.7618114137
 33
0.0
  0
LINE
  5
150
330
14B
100
AcDbEntity
  8
VERMASSUNG
100
AcDbLine
 10
129.4758912172
 20
124.3927444841
 30
0.0
 11
129.4758912172
 21
173.2118114137
 31
0.0
  0
LINE
  5
151
330
14B
100
AcDbEntity
  8
VERMASSUNG
100
AcDbLine
 10
232.4758912172
 20
149.1004064916
 30
0.0
 11
232.4758912172
 21
173.2118114137
 31
0.0
  0
LINE
  5
152
330
14B
100
AcDbEntity
  8
VERMASSUNG
100
AcDbLine
 10
129.4758912172
 20
172.2118114137
 30
0.0
 11
232.4758912172
 21
172.2118114137
 31
0.0
  0
MTEXT
  5
153
330
14B
100
AcDbEntity
  8
VERMASSUNG
100
AcDbMText
 10
178.1758910842
 20
174.7899467769
 30
0.1
 40
2.0
 41
0.0
 71
     1
 72
     1
  1
103
  7
SLDTEXTSTYLE0
 73
     1
 44
1.0
  0
ENDBLK
  5
14D
330
14B
100
AcDbEntity
  8
0
100
AcDbBlockEnd
  0
BLOCK
  5
156
330
155
100
AcDbEntity
  8
0
100
AcDbBlockBegin
  2
*D4
 70
     1
 10
0.0
 20
0.0
 30
0.0
  3
*D4
  1

  0
SOLID
  5
158
330
155
100
AcDbEntity
  8
VERMASSUNG
100
AcDbTrace
 10
167.4758912172
 20
166.2118114137
 30
0.0
 11
170.4758912172
 21
165.7618114137
 31
0.0
 12
170.4758912172
 22
166.6618114137
 32
0.0
 13
170.4758912172
 23
166.6618114137
 33
0.0
  0
SOLID
  5
159
330
155
100
AcDbEntity
  8
VERMASSUNG
100
AcDbTrace
 10
232.4758912172
 20
166.2118114137
 30
0.0
 11
229.4758912172
 21
166.6618114137
 31
0.0
 12
229.4758912172
 22
165.7618114137
 32
0.0
 13
229.4758912172
 23
165.7618114137
 33
0.0
  0
LINE
  5
15A
330
155
100
AcDbEntity
  8
VERMASSUNG
100
AcDbLine
 10
167.4758912172
 20
135.1004064916
 30
0.0
 11
167.4758912172
 21
167.2118114137
 31
0.0
  0
LINE
  5
15B
330
155
100
AcDbEntity
  8
VERMASSUNG
100
AcDbLine
 10
232.4758912172
 20
149.1004064916
 30
0.0
 11
232.4758912172
 21
167.2118114137
 31
0.0
  0
LINE
  5
15C
330
155
100
AcDbEntity
  8
VERMASSUNG
100
AcDbLine
 10
167.4758912172
 20
166.2118114137
 30
0.0
 11
232.4758912172
 21
166.2118114137
 31
0.0
  0
MTEXT
  5
15D
330
155
100
AcDbEntity
  8
VERMASSUNG
100
AcDbMText
 10
197.6758911662
 20
168.7899467769
 30
0.1
 40
2.0
 41
0.0
 71
     1
 72
     1
  1
65
  7
SLDTEXTSTYLE0
 73
     1
 44
1.0
  0
ENDBLK
  5
157
330
155
100
AcDbEntity
  8
0
100
AcDbBlockEnd
  0
BLOCK
  5
160
330
15F
100
AcDbEntity
  8
0
100
AcDbBlockBegin
  2
*D5
 70
     1
 10
0.0
 20
0.0
 30
0.0
  3
*D5
  1

  0
SOLID
  5
162
330
15F
100
AcDbEntity
  8
VERMASSUNG
100
AcDbTrace
 10
119.4758912172
 20
135.6004064916
 30
0.0
 11
119.0258912172
 21
132.6004064916
 31
0.0
 12
119.9258912172
 22
132.6004064916
 32
0.0
 13
119.9258912172
 23
132.6004064916
 33
0.0
  0
SOLID
  5
163
330
15F
100
AcDbEntity
  8
VERMASSUNG
100
AcDbTrace
 10
119.4758912172
 20
72.6004064916
 30
0.0
 11
119.9258912172
 21
75.6004064916
 31
0.0
 12
119.0258912172
 22
75.6004064916
 32
0.0
 13
119.0258912172
 23
75.6004064916
 33
0.0
  0
LINE
  5
164
330
15F
100
AcDbEntity
  8
VERMASSUNG
100
AcDbLine
 10
167.9758912172
 20
135.6004064916
 30
0.0
 11
118.4758912172
 21
135.6004064916
 31
0.0
  0
LINE
  5
165
330
15F
100
AcDbEntity
  8
VERMASSUNG
100
AcDbLine
 10
167.9758912172
 20
72.6004064916
 30
0.0
 11
118.4758912172
 21
72.6004064916
 31
0.0
  0
LINE
  5
166
330
15F
100
AcDbEntity
  8
VERMASSUNG
100
AcDbLine
 10
119.4758912172
 20
135.6004064916
 30
0.0
 11
119.4758912172
 21
72.6004064916
 31
0.0
  0
MTEXT
  5
167
330
15F
100
AcDbEntity
  8
VERMASSUNG
100
AcDbMText
 10
116.6977557282
 20
97.6954063824
 30
0.578125901
 40
2.0
 41
0.0
 71
     1
 72
     1
  1
PSC
  7
SLDTEXTSTYLE0
 11
-7.044195017643634E-15
 21
1.0
 31
0.0
 73
     1
 44
1.0
  0
MTEXT
  5
168
330
15F
100
AcDbEntity
  8
VERMASSUNG
100
AcDbMText
 10
116.8977557377
 20
102.2954064844
 30
0.578125901
 40
2.0
 41
0.0
 71
     1
 72
     1
  1
%%c
  7
SLDTEXTSTYLE0
 11
-7.044195017643634E-15
 21
1.0
 31
0.0
 73
     1
 44
1.0
  0
MTEXT
  5
169
330
15F
100
AcDbEntity
  8
VERMASSUNG
100
AcDbMText
 10
116.6977557282
 20
105.9054069644
 30
0.578125901
 40
2.0
 41
0.0
 71
     1
 72
     1
  1
63
  7
SLDTEXTSTYLE0
 11
-7.044195017643634E-15
 21
1.0
 31
0.0
 73
     1
 44
1.0
  0
ENDBLK
  5
161
330
15F
100
AcDbEntity
  8
0
100
AcDbBlockEnd
  0
BLOCK
  5
191
330
190
100
AcDbEntity
  8
0
100
AcDbBlockBegin
  2
SW_CENTERMARKSYMBOL_0
 70
     0
 10
0.0
 20
0.0
 30
0.0
  3
SW_CENTERMARKSYMBOL_0
  1

  0
LINE
  5
193
330
190
100
AcDbEntity
  8
VERMASSUNG
 62
     0
100
AcDbLine
 10
0.0
 20
0.0
 30
0.0
 11
0.0
 21
2.5
 31
0.0
  0
LINE
  5
194
330
190
100
AcDbEntity
  8
VERMASSUNG
 62
     0
100
AcDbLine
 10
0.0
 20
0.0
 30
0.0
 11
-2.5
 21
0.0
 31
0.0
  0
LINE
  5
195
330
190
100
AcDbEntity
  8
VERMASSUNG
 62
     0
100
AcDbLine
 10
0.0
 20
0.0
 30
0.0
 11
0.0
 21
-2.5
 31
0.0
  0
LINE
  5
196
330
190
100
AcDbEntity
  8
VERMASSUNG
 62
     0
100
AcDbLine
 10
0.0
 20
0.0
 30
0.0
 11
2.5
 21
0.0
 31
0.0
  0
LINE
  5
197
330
190
100
AcDbEntity
  8
VERMASSUNG
 62
     0
100
AcDbLine
 10
0.0
 20
5.0
 30
0.0
 11
0.0
 21
34.0
 31
0.0
  0
LINE
  5
198
330
190
100
AcDbEntity
  8
VERMASSUNG
 62
     0
100
AcDbLine
 10
-5.0
 20
0.0
 30
0.0
 11
-34.0
 21
0.0
 31
0.0
  0
LINE
  5
199
330
190
100
AcDbEntity
  8
VERMASSUNG
 62
     0
100
AcDbLine
 10
0.0
 20
-5.0
 30
0.0
 11
0.0
 21
-34.0
 31
0.0
  0
LINE
  5
19A
330
190
100
AcDbEntity
  8
VERMASSUNG
 62
     0
100
AcDbLine
 10
5.0
 20
0.0
 30
0.0
 11
34.0
 21
0.0
 31
0.0
  0
ENDBLK
  5
192
330
190
100
AcDbEntity
  8
0
100
AcDbBlockEnd
  0
ENDSEC
  0
SECTION
  2
ENTITIES
  0
MTEXT
  5
49
330
1F
100
AcDbEntity
  8
KOPF_DÜNN
100
AcDbMText
 10
13.8892156294
 20
23.8442973028
 30
0.0
 40
3.0
 41
0.0
 71
     1
 72
     1
  1
PS6.KVF.RJA.065
  7
SLDTEXTSTYLE0
 73
     1
 44
1.0
  0
MTEXT
  5
4A
330
1F
100
AcDbEntity
  8
VERMASSUNG
100
AcDbMText
 10
13.9329988022
 20
28.8834360957
 30
0.0
 40
3.0
 41
0.0
 71
     1
 72
     1
  1
Klemmhalter rechts_Turning tool right 35° /93°
  7
SLDTEXTSTYLE0
 73
     1
 44
1.0
  0
MTEXT
  5
4B
330
1F
100
AcDbEntity
  8
VERMASSUNG
100
AcDbMText
 10
98.8601118557
 20
13.8365368179
 30
0.0
 40
2.0
 41
0.0
 71
     1
 72
     1
  1
Datum: 02.12.2011
  7
SLDTEXTSTYLE0
 73
     1
 44
1.0
  0
MTEXT
  5
4C
330
1F
100
AcDbEntity
  8
VERMASSUNG
100
AcDbMText
 10
13.933048693
 20
18.0482802738
 30
0.0
 40
2.0
 41
0.0
 71
     1
 72
     1
  1
PSC 63 / VB..1604..
  7
SLDTEXTSTYLE0
 73
     1
 44
1.0
  0
MTEXT
  5
4D
330
1F
100
AcDbEntity
  8
VERMASSUNG
100
AcDbMText
 10
13.9808475933
 20
13.9090973692
 30
0.0
 40
2.0
 41
0.0
 71
     1
 72
     1
  1
Gewicht: 1216g
  7
SLDTEXTSTYLE0
 73
     1
 44
1.0
  0
ARC
  5
4E
330
1F
100
AcDbEntity
  8
0
  6
Continuous
 62
     7
370
    15
100
AcDbCircle
 10
188.4758912172
 20
117.7504064916
 30
0.0
 40
2.500000000000005
100
AcDbArc
 50
21.3713330903
 51
158.6286669097
  0
LINE
  5
4F
330
1F
100
AcDbEntity
  8
0
  6
Continuous
 62
     7
370
    15
100
AcDbLine
 10
204.7085642293
 20
135.6004064916
 30
0.0
 11
167.9758912172
 21
135.6004064916
 31
0.0
  0
LINE
  5
50
330
1F
100
AcDbEntity
  8
0
  6
Continuous
 62
     7
370
    15
100
AcDbLine
 10
167.9758912172
 20
72.6004064916
 30
0.0
 11
202.0168633051
 21
72.6004064916
 31
0.0
  0
ARC
  5
51
330
1F
100
AcDbEntity
  8
0
  6
Continuous
 62
     7
370
    15
100
AcDbCircle
 10
167.9758912172
 20
73.1004064916
 30
0.0
 40
0.5
100
AcDbArc
 50
180.0
 51
270.0
  0
ARC
  5
52
330
1F
100
AcDbEntity
  8
0
  6
Continuous
 62
     7
370
    15
100
AcDbCircle
 10
167.9758912172
 20
135.1004064916
 30
0.0
 40
0.5
100
AcDbArc
 50
90.0
 51
180.0
  0
LWPOLYLINE
  5
53
330
1F
100
AcDbEntity
  8
0
  6
Continuous
 62
     7
370
    15
100
AcDbPolyline
 90
        3
 70
   128
 43
0.0
 10
167.2758912172
 20
81.5605862127
 10
167.4013461607
 20
81.4922840978
 10
167.4758912172
 20
81.4395463397
  0
LWPOLYLINE
  5
54
330
1F
100
AcDbEntity
  8
0
  6
Continuous
 62
     7
370
    15
100
AcDbPolyline
 90
        3
 70
   128
 43
0.0
 10
167.4758912172
 20
126.7612666435
 10
167.4013461607
 20
126.7085288854
 10
167.2758912172
 20
126.6402267705
  0
LWPOLYLINE
  5
55
330
1F
100
AcDbEntity
  8
0
  6
Continuous
 62
     7
370
    15
100
AcDbPolyline
 90
        3
 70
   128
 43
0.0
 10
205.2203171505
 20
135.7412738199
 10
205.1615137302
 20
135.7088703176
 10
205.1478078712
 20
135.7020385141
  0
LWPOLYLINE
  5
56
330
1F
100
AcDbEntity
  8
0
  6
Continuous
 62
     7
370
    15
100
AcDbPolyline
 90
        3
 70
   128
 43
0.0
 10
191.2613425774
 20
120.3452616829
 10
191.4394202542
 20
119.7842898107
 10
191.4758912172
 20
119.3804064916
  0
ARC
  5
57
330
1F
100
AcDbEntity
  8
0
  6
Continuous
 62
     7
370
    15
100
AcDbCircle
 10
188.506618175
 20
118.9287856895
 30
0.0
 40
3.097565297628583
100
AcDbArc
 50
27.2121733977
 51
166.8688264431
  0
ARC
  5
58
330
1F
100
AcDbEntity
  8
0
  6
Continuous
 62
     7
370
    15
100
AcDbCircle
 10
189.161226221
 20
119.4508429879
 30
0.0
 40
2.174094908950115
100
AcDbArc
 50
338.2454523077
 51
25.0168638746
  0
LWPOLYLINE
  5
59
330
1F
100
AcDbEntity
  8
0
  6
Continuous
 62
     7
370
    15
100
AcDbPolyline
 90
       15
 70
   128
 43
0.0
 10
185.7206472024
 20
118.7861980801
 10
185.7150775104
 20
118.8037761821
 10
185.6173029482
 20
119.3725936978
 10
185.6736356194
 20
119.9456061213
 10
185.8810386153
 20
120.4919222046
 10
186.2283307866
 20
120.9820899063
 10
186.6967895224
 20
121.3896841586
 10
187.2611600912
 20
121.6927314499
 10
187.8910171293
 20
121.8748944223
 10
188.552404881
 20
121.9263526228
 10
189.2096677612
 20
121.8443319265
 10
189.827372558
 20
121.6332540903
 10
190.3722186459
 20
121.3044983751
 10
190.8148332313
 20
120.8757880866
 10
191.1313548473
 20
120.3702351073
  0
LWPOLYLINE
  5
5A
330
1F
100
AcDbEntity
  8
0
  6
Continuous
 62
     7
370
    15
100
AcDbPolyline
 90
       26
 70
   128
 43
0.0
 10
190.797100684
 20
120.2544524843
 10
190.9550673543
 20
119.7292689328
 10
190.9572582701
 20
119.1865634286
 10
190.8035357681
 20
118.6604361543
 10
190.5035587985
 20
118.1839456217
 10
190.0761760175
 20
117.7870314832
 10
189.5482414571
 20
117.494633314
 10
188.9529271873
 20
117.3251235663
 10
188.3276389931
 20
117.2891531611
 10
187.7116660314
 20
117.3889822512
 10
187.1437121487
 20
117.6183382077
 10
186.6594639763
 20
117.9628097523
 10
186.2893486078
 20
118.4007524711
 10
186.056621753
 20
118.9046488123
 10
185.9759064961
 20
119.4428371157
 10
186.0522744735
 20
119.9815010308
 10
186.2809272044
 20
120.4867943228
 10
186.6474975967
 20
120.9269675558
 10
187.1289526845
 20
121.2743630267
 10
187.6950408741
 20
121.5071526004
 10
188.3101927625
 20
121.610709252
 10
188.9357560941
 20
121.5785261361
 10
189.5324244244
 20
121.4126254362
 10
190.0627068875
 20
121.1234313036
 10
190.4932838862
 20
120.729114869
 10
190.797100684
 20
120.2544524843
  0
LINE
  5
5B
330
1F
100
AcDbEntity
  8
0
  6
Continuous
 62
     7
370
    15
100
AcDbLine
 10
232.0720490059
 20
149.1007540682
 30
0.0
 11
216.8637510633
 21
148.3037209464
 31
0.0
  0
LINE
  5
5C
330
1F
100
AcDbEntity
  8
0
  6
Continuous
 62
     7
370
    15
100
AcDbLine
 10
220.3348941737
 20
139.0197269746
 30
0.0
 11
232.335643106
 21
148.3957396227
 31
0.0
  0
LINE
  5
5D
330
1F
100
AcDbEntity
  8
0
  6
Continuous
 62
     7
370
    15
100
AcDbLine
 10
204.9021237361
 20
138.1387670259
 30
0.0
 11
220.1104216787
 21
138.9358001478
 31
0.0
  0
LINE
  5
5E
330
1F
100
AcDbEntity
  8
0
  6
Continuous
 62
     7
370
    15
100
AcDbLine
 10
216.6392785683
 20
148.2197941195
 30
0.0
 11
204.638529636
 21
138.8437814715
 31
0.0
  0
LINE
  5
5F
330
1F
100
AcDbEntity
  8
0
  6
Continuous
 62
     7
370
    15
100
AcDbLine
 10
220.3229592447
 20
139.0357827504
 30
0.0
 11
232.3098425779
 21
148.4009624052
 31
0.0
  0
ARC
  5
60
330
1F
100
AcDbEntity
  8
0
  6
Continuous
 62
     7
370
    15
100
AcDbCircle
 10
232.0758912172
 20
148.7004064916
 30
0.0
 40
0.3800000000000096
100
AcDbArc
 50
308.0
 51
93.0
  0
LINE
  5
61
330
1F
100
AcDbEntity
  8
0
  6
Continuous
 62
     7
370
    15
100
AcDbLine
 10
232.0560035539
 20
149.0798857148
 30
0.0
 11
216.8652771946
 21
148.2837734803
 31
0.0
  0
ARC
  5
62
330
1F
100
AcDbEntity
  8
0
  6
Continuous
 62
     7
370
    15
100
AcDbCircle
 10
216.885164858
 20
147.9042942574
 30
0.0
 40
0.3800000000000096
100
AcDbArc
 50
93.0
 51
128.0
  0
LINE
  5
63
330
1F
100
AcDbEntity
  8
0
  6
Continuous
 62
     7
370
    15
100
AcDbLine
 10
216.6512134973
 20
148.2037383438
 30
0.0
 11
204.6643301641
 21
138.8385586889
 31
0.0
  0
ARC
  5
64
330
1F
100
AcDbEntity
  8
0
  6
Continuous
 62
     7
370
    15
100
AcDbCircle
 10
204.8982815248
 20
138.5391146026
 30
0.0
 40
0.3800000000000319
100
AcDbArc
 50
128.0
 51
273.0
  0
LINE
  5
65
330
1F
100
AcDbEntity
  8
0
  6
Continuous
 62
     7
370
    15
100
AcDbLine
 10
204.9181691881
 20
138.1596353794
 30
0.0
 11
220.1088955474
 21
138.9557476135
 31
0.0
  0
ARC
  5
66
330
1F
100
AcDbEntity
  8
0
  6
Continuous
 62
     7
370
    15
100
AcDbCircle
 10
220.089007884
 20
139.3352268367
 30
0.0
 40
0.3800000000000054
100
AcDbArc
 50
273.0
 51
308.0
  0
SPLINE
  5
67
330
1F
100
AcDbEntity
  8
0
  6
Continuous
 62
     7
370
    15
100
AcDbSpline
210
0.0
220
0.0
230
1.0
 70
     8
 71
     3
 72
    10
 73
     6
 74
     0
 42
0.00000001
 43
0.00000001
 40
0.0
 40
0.0
 40
0.0
 40
0.0
 40
0.2724625973603049
 40
0.5448192322760507
 40
1.0
 40
1.0
 40
1.0
 40
1.0
 10
216.8637510632594
 20
148.3037209463851
 30
0.0
 10
216.8417801960108
 20
148.3014595873548
 30
0.0
 10
216.7978470061243
 20
148.2969377487512
 30
0.0
 10
216.7196742418958
 20
148.2728287940489
 30
0.0
 10
216.6702196372076
 20
148.2402050377672
 30
0.0
 10
216.6392785682703
 20
148.2197941195429
 30
0.0
  0
SPLINE
  5
68
330
1F
100
AcDbEntity
  8
0
  6
Continuous
 62
     7
370
    15
100
AcDbSpline
210
0.0
220
0.0
230
1.0
 70
     8
 71
     3
 72
    10
 73
     6
 74
     0
 42
0.00000001
 43
0.00000001
 40
0.0
 40
0.0
 40
0.0
 40
0.0
 40
0.2724625973603095
 40
0.5448192322760365
 40
1.0
 40
1.0
 40
1.0
 40
1.0
 10
220.1104216787433
 20
138.9358001477758
 30
0.0
 10
220.1323925459918
 20
138.9380615068061
 30
0.0
 10
220.1763257358783
 20
138.9425833454096
 30
0.0
 10
220.2544985001068
 20
138.966692300112
 30
0.0
 10
220.3039531047951
 20
138.9993160563937
 30
0.0
 10
220.3348941737323
 20
139.019726974618
 30
0.0
  0
SPLINE
  5
69
330
1F
100
AcDbEntity
  8
0
  6
Continuous
 62
     7
370
    15
100
AcDbSpline
210
0.0
220
0.0
230
1.0
 70
     8
 71
     3
 72
    15
 73
    11
 74
     0
 42
0.00000001
 43
0.00000001
 40
0.0
 40
0.0
 40
0.0
 40
0.0
 40
0.1368999035879188
 40
0.2736148776881573
 40
0.407902480819734
 40
0.5393413680027875
 40
0.6692125346285327
 40
0.7996791423972305
 40
0.9324935729568891
 40
1.0
 40
1.0
 40
1.0
 40
1.0
 10
204.6385296360464
 20
138.8437814714806
 30
0.0
 10
204.6051758413599
 20
138.8120334901045
 30
0.0
 10
204.5385133075349
 20
138.7485804137079
 30
0.0
 10
204.4861923723825
 20
138.6188277155005
 30
0.0
 10
204.478252903329
 20
138.4827885540148
 30
0.0
 10
204.516732725831
 20
138.3538699476563
 30
0.0
 10
204.5950395775957
 20
138.2462770474509
 30
0.0
 10
204.7045282440122
 20
138.1705898135581
 30
0.0
 10
204.8127298578002
 20
138.1385319629539
 30
0.0
 10
204.8795918221447
 20
138.1387077778115
 30
0.0
 10
204.9021237360552
 20
138.1387670259247
 30
0.0
  0
SPLINE
  5
6A
330
1F
100
AcDbEntity
  8
0
  6
Continuous
 62
     7
370
    15
100
AcDbSpline
210
0.0
220
0.0
230
1.0
 70
     8
 71
     3
 72
    15
 73
    11
 74
     0
 42
0.00000001
 43
0.00000001
 40
0.0
 40
0.0
 40
0.0
 40
0.0
 40
0.1368999035879229
 40
0.2736148776881731
 40
0.4079024808197348
 40
0.5393413680027959
 40
0.6692125346285343
 40
0.7996791423972253
 40
0.9324935729568828
 40
1.0
 40
1.0
 40
1.0
 40
1.0
 10
232.3356431059563
 20
148.3957396226803
 30
0.0
 10
232.3689969006427
 20
148.4274876040564
 30
0.0
 10
232.4356594344677
 20
148.490940680453
 30
0.0
 10
232.4879803696202
 20
148.6206933786604
 30
0.0
 10
232.4959198386737
 20
148.7567325401461
 30
0.0
 10
232.4574400161716
 20
148.8856511465046
 30
0.0
 10
232.379133164407
 20
148.9932440467101
 30
0.0
 10
232.2696444979904
 20
149.0689312806028
 30
0.0
 10
232.1614428842024
 20
149.100989131207
 30
0.0
 10
232.094580919858
 20
149.1008133163494
 30
0.0
 10
232.0720490059475
 20
149.1007540682362
 30
0.0
  0
LINE
  5
6B
330
1F
100
AcDbEntity
  8
0
  6
Continuous
 62
     7
370
    15
100
AcDbLine
 10
232.0758912172
 20
148.7004064916
 30
0.0
 11
232.0560035539
 21
149.0798857148
 31
0.0
  0
LINE
  5
6C
330
1F
100
AcDbEntity
  8
0
  6
Continuous
 62
     7
370
    15
100
AcDbLine
 10
232.0758912172
 20
148.7004064916
 30
0.0
 11
232.3098425779
 21
148.4009624052
 31
0.0
  0
LINE
  5
6D
330
1F
100
AcDbEntity
  8
0
  6
Continuous
 62
     7
370
    15
100
AcDbLine
 10
228.9434088139
 20
147.5292193122
 30
0.0
 11
232.0758912172
 21
148.7004064916
 31
0.0
  0
LINE
  5
6E
330
1F
100
AcDbEntity
  8
0
  6
Continuous
 62
     7
370
    15
100
AcDbLine
 10
220.089007884
 20
139.3352268367
 30
0.0
 11
220.3229592447
 21
139.0357827504
 31
0.0
  0
LINE
  5
6F
330
1F
100
AcDbEntity
  8
0
  6
Continuous
 62
     7
370
    15
100
AcDbLine
 10
220.0411631789
 20
139.4631933134
 30
0.0
 11
220.089007884
 21
139.3352268367
 31
0.0
  0
LINE
  5
70
330
1F
100
AcDbEntity
  8
0
  6
Continuous
 62
     7
370
    15
100
AcDbLine
 10
220.5974901972
 20
139.8213280344
 30
0.0
 11
220.0411631789
 21
139.4631933134
 31
0.0
  0
LINE
  5
71
330
1F
100
AcDbEntity
  8
0
  6
Continuous
 62
     7
370
    15
100
AcDbLine
 10
226.484458115
 20
144.4207314523
 30
0.0
 11
220.5974901972
 21
139.8213280344
 31
0.0
  0
SPLINE
  5
72
330
1F
100
AcDbEntity
  8
0
  6
Continuous
 62
     7
370
    15
100
AcDbSpline
210
0.0
220
0.0
230
1.0
 70
     8
 71
     3
 72
    15
 73
    11
 74
     0
 42
0.00000001
 43
0.00000001
 40
0.0
 40
0.0
 40
0.0
 40
0.0
 40
0.0817242699622553
 40
0.1635588363079344
 40
0.2855999625548274
 40
0.4082028382018484
 40
0.5329906771800628
 40
0.6587683741325391
 40
0.8274931451410765
 40
1.0
 40
1.0
 40
1.0
 40
1.0
 10
227.9537009720004
 20
146.7559748009267
 30
0.0
 10
227.9323267918419
 20
146.6849748255297
 30
0.0
 10
227.8895495845893
 20
146.5428790520319
 30
0.0
 10
227.8034162809964
 20
146.2967331837994
 30
0.0
 10
227.6915592626881
 20
146.0183002277689
 30
0.0
 10
227.5434892111502
 20
145.7095032770682
 30
0.0
 10
227.3703649521936
 20
145.4063636731104
 30
0.0
 10
227.1463208967461
 20
145.0806653821386
 30
0.0
 10
226.8598559265261
 20
144.7389468354823
 30
0.0
 10
226.6105119307398
 20
144.5275841350947
 30
0.0
 10
226.4844581150018
 20
144.4207314522999
 30
0.0
  0
LINE
  5
73
330
1F
100
AcDbEntity
  8
0
  6
Continuous
 62
     7
370
    15
100
AcDbLine
 10
227.953700972
 20
146.7559748009
 30
0.0
 11
228.9434088139
 21
147.5292193122
 31
0.0
  0
LINE
  5
74
330
1F
100
AcDbEntity
  8
0
  6
Continuous
 62
     7
370
    15
100
AcDbLine
 10
216.885164858
 20
147.9042942574
 30
0.0
 11
216.8652771946
 21
148.2837734803
 31
0.0
  0
LINE
  5
75
330
1F
100
AcDbEntity
  8
0
  6
Continuous
 62
     7
370
    15
100
AcDbLine
 10
228.9434088139
 20
147.5292193122
 30
0.0
 11
227.6891727807
 21
147.463487587
 31
0.0
  0
SPLINE
  5
76
330
1F
100
AcDbEntity
  8
0
  6
Continuous
 62
     7
370
    15
100
AcDbSpline
210
0.0
220
0.0
230
1.0
 70
     8
 71
     3
 72
    11
 73
     7
 74
     0
 42
0.00000001
 43
0.00000001
 40
0.0
 40
0.0
 40
0.0
 40
0.0
 40
0.3407378859339651
 40
0.5850538553183112
 40
0.8362413050877212
 40
1.0
 40
1.0
 40
1.0
 40
1.0
 10
225.0482636371293
 20
148.2620080722767
 30
0.0
 10
225.3756809765042
 20
148.2532667775721
 30
0.0
 10
225.9378631834352
 20
148.2382577974189
 30
0.0
 10
226.6900314600589
 20
147.9962100506441
 30
0.0
 10
227.2422160294412
 20
147.7395606856851
 30
0.0
 10
227.5626954312026
 20
147.5416092256324
 30
0.0
 10
227.6891727807367
 20
147.4634875870302
 30
0.0
  0
LINE
  5
77
330
1F
100
AcDbEntity
  8
0
  6
Continuous
 62
     7
370
    15
100
AcDbLine
 10
217.5878324108
 20
147.8710234392
 30
0.0
 11
225.0482636371
 21
148.2620080723
 31
0.0
  0
LINE
  5
78
330
1F
100
AcDbEntity
  8
0
  6
Continuous
 62
     7
370
    15
100
AcDbLine
 10
216.9330095631
 20
147.7763277808
 30
0.0
 11
217.5878324108
 21
147.8710234392
 31
0.0
  0
LINE
  5
79
330
1F
100
AcDbEntity
  8
0
  6
Continuous
 62
     7
370
    15
100
AcDbLine
 10
216.9330095631
 20
147.7763277808
 30
0.0
 11
216.885164858
 21
147.9042942574
 31
0.0
  0
SPLINE
  5
7A
330
1F
100
AcDbEntity
  8
0
  6
Continuous
 62
     7
370
    15
100
AcDbSpline
210
0.0
220
0.0
230
1.0
 70
     8
 71
     3
 72
    15
 73
    11
 74
     0
 42
0.00000001
 43
0.00000001
 40
0.0
 40
0.0
 40
0.0
 40
0.0
 40
0.1601097208075619
 40
0.3233226221725787
 40
0.4468997163918164
 40
0.5713974382063944
 40
0.6982534182400021
 40
0.8257253996761196
 40
0.9127983405069073
 40
1.0
 40
1.0
 40
1.0
 40
1.0
 10
226.0534950822739
 20
144.9723389798246
 30
0.0
 10
226.1550992477331
 20
145.0567516765828
 30
0.0
 10
226.3602768286711
 20
145.2272131221644
 30
0.0
 10
226.6084479279062
 20
145.4963072008433
 30
0.0
 10
226.8127905948674
 20
145.7580818792827
 30
0.0
 10
226.9788639527738
 20
146.0076146772109
 30
0.0
 10
227.1273591893369
 20
146.2680821896756
 30
0.0
 10
227.2444694491117
 20
146.508877153784
 30
0.0
 10
227.3372861550092
 20
146.7249088291674
 30
0.0
 10
227.3847241057013
 20
146.8512580942422
 30
0.0
 10
227.4084605998066
 20
146.9144793873611
 30
0.0
  0
LINE
  5
7B
330
1F
100
AcDbEntity
  8
0
  6
Continuous
 62
     7
370
    15
100
AcDbLine
 10
226.0534950823
 20
144.9723389798
 30
0.0
 11
225.7764474186
 21
145.3269438187
 31
0.0
  0
ARC
  5
7C
330
1F
100
AcDbEntity
  8
0
  6
Continuous
 62
     7
370
    15
100
AcDbCircle
 10
225.1607859431
 20
146.1149545726
 30
0.0
 40
1.000000000295381
100
AcDbArc
 50
308.0
 51
93.0
  0
LINE
  5
7D
330
1F
100
AcDbEntity
  8
0
  6
Continuous
 62
     7
370
    15
100
AcDbLine
 10
225.0848988065
 20
147.5629673979
 30
0.0
 11
225.1084499868
 21
147.1135841073
 31
0.0
  0
SPLINE
  5
7E
330
1F
100
AcDbEntity
  8
0
  6
Continuous
 62
     7
370
    15
100
AcDbSpline
210
0.0
220
0.0
230
1.0
 70
     8
 71
     3
 72
    13
 73
     9
 74
     0
 42
0.00000001
 43
0.00000001
 40
0.0
 40
0.0
 40
0.0
 40
0.0
 40
0.0871091111146213
 40
0.1743400070000637
 40
0.4227595715102216
 40
0.6765568100459532
 40
0.8368101301037796
 40
1.0
 40
1.0
 40
1.0
 40
1.0
 10
227.3816630133845
 20
146.986152787991
 30
0.0
 10
227.3223555070897
 20
147.018248463619
 30
0.0
 10
227.2036575783623
 20
147.0824846869262
 30
0.0
 10
226.9071171378568
 20
147.2255528928947
 30
0.0
 10
226.4747314442856
 20
147.3962181761531
 30
0.0
 10
225.9556785118106
 20
147.5195649412084
 30
0.0
 10
225.4861777980086
 20
147.5716831028973
 30
0.0
 10
225.2194656327578
 20
147.5658901643489
 30
0.0
 10
225.0848988064994
 20
147.5629673979485
 30
0.0
  0
ARC
  5
7F
330
1F
100
AcDbEntity
  8
0
  6
Continuous
 62
     7
370
    15
100
AcDbCircle
 10
225.1607859431
 20
146.1149545726
 30
0.0
 40
2.385640646055119
100
AcDbArc
 50
19.5810823052
 51
21.4189176948
  0
ARC
  5
80
330
1F
100
AcDbEntity
  8
0
  6
Continuous
 62
     7
370
    15
100
AcDbCircle
 10
211.813386799
 20
141.1245665216
 30
0.0
 40
1.0
100
AcDbArc
 50
128.0
 51
273.0
  0
LINE
  5
81
330
1F
100
AcDbEntity
  8
0
  6
Continuous
 62
     7
370
    15
100
AcDbLine
 10
217.0846932414
 20
146.5119806931
 30
0.0
 11
211.1977253236
 21
141.9125772752
 31
0.0
  0
ARC
  5
82
330
1F
100
AcDbEntity
  8
0
  6
Continuous
 62
     7
370
    15
100
AcDbCircle
 10
217.7003547168
 20
145.7239699395
 30
0.0
 40
0.9999999999999973
100
AcDbArc
 50
93.0
 51
128.0
  0
LINE
  5
83
330
1F
100
AcDbEntity
  8
0
  6
Continuous
 62
     7
370
    15
100
AcDbLine
 10
225.1084499868
 20
147.1135841073
 30
0.0
 11
217.6480187605
 21
146.7225994742
 31
0.0
  0
LINE
  5
84
330
1F
100
AcDbEntity
  8
0
  6
Continuous
 62
     7
370
    15
100
AcDbLine
 10
219.8894795006
 20
140.7275404011
 30
0.0
 11
225.7764474186
 21
145.3269438187
 31
0.0
  0
ARC
  5
85
330
1F
100
AcDbEntity
  8
0
  6
Continuous
 62
     7
370
    15
100
AcDbCircle
 10
219.2738180253
 20
141.5155511547
 30
0.0
 40
1.0
100
AcDbArc
 50
273.0
 51
308.0
  0
LINE
  5
86
330
1F
100
AcDbEntity
  8
0
  6
Continuous
 62
     7
370
    15
100
AcDbLine
 10
211.8657227552
 20
140.1259369869
 30
0.0
 11
219.3261539815
 21
140.5169216199
 31
0.0
  0
CIRCLE
  5
87
330
1F
100
AcDbEntity
  8
0
  6
Continuous
 62
     7
370
    15
100
AcDbCircle
 10
218.487086371
 20
143.6197605471
 30
0.0
 40
3.050000000000003
  0
LINE
  5
88
330
1F
100
AcDbEntity
  8
0
  6
Continuous
 62
     7
370
    15
100
AcDbLine
 10
220.1665271645
 20
140.3729355619
 30
0.0
 11
226.0534950823
 21
144.9723389798
 31
0.0
  0
LINE
  5
89
330
1F
100
AcDbEntity
  8
0
  6
Continuous
 62
     7
370
    15
100
AcDbLine
 10
220.1665271645
 20
140.3729355619
 30
0.0
 11
219.8894795006
 21
140.7275404011
 31
0.0
  0
LINE
  5
8A
330
1F
100
AcDbEntity
  8
0
  6
Continuous
 62
     7
370
    15
100
AcDbLine
 10
217.6244675802
 20
147.1719827649
 30
0.0
 11
217.6480187605
 21
146.7225994742
 31
0.0
  0
LINE
  5
8B
330
1F
100
AcDbEntity
  8
0
  6
Continuous
 62
     7
370
    15
100
AcDbLine
 10
225.0848988065
 20
147.5629673979
 30
0.0
 11
217.6244675802
 21
147.1719827649
 31
0.0
  0
LINE
  5
8C
330
1F
100
AcDbEntity
  8
0
  6
Continuous
 62
     7
370
    15
100
AcDbLine
 10
220.089007884
 20
139.3352268367
 30
0.0
 11
220.1088955474
 21
138.9557476135
 31
0.0
  0
LINE
  5
8D
330
1F
100
AcDbEntity
  8
0
  6
Continuous
 62
     7
370
    15
100
AcDbLine
 10
204.8982815248
 20
138.5391146026
 30
0.0
 11
204.9181691881
 21
138.1596353794
 31
0.0
  0
LINE
  5
8E
330
1F
100
AcDbEntity
  8
0
  6
Continuous
 62
     7
370
    15
100
AcDbLine
 10
208.0307639281
 20
139.7103017819
 30
0.0
 11
204.8982815248
 21
138.5391146026
 31
0.0
  0
LINE
  5
8F
330
1F
100
AcDbEntity
  8
0
  6
Continuous
 62
     7
370
    15
100
AcDbLine
 10
208.0307639281
 20
139.7103017819
 30
0.0
 11
209.2849999613
 21
139.7760335071
 31
0.0
  0
SPLINE
  5
90
330
1F
100
AcDbEntity
  8
0
  6
Continuous
 62
     7
370
    15
100
AcDbSpline
210
0.0
220
0.0
230
1.0
 70
     8
 71
     3
 72
    11
 73
     7
 74
     0
 42
0.00000001
 43
0.00000001
 40
0.0
 40
0.0
 40
0.0
 40
0.0
 40
0.3407378859339934
 40
0.5850538553183579
 40
0.8362413050877893
 40
1.0
 40
1.0
 40
1.0
 40
1.0
 10
211.9259091048733
 20
138.9775130218842
 30
0.0
 10
211.5984917654984
 20
138.9862543165889
 30
0.0
 10
211.0363095585674
 20
139.001263296742
 30
0.0
 10
210.2841412819438
 20
139.2433110435168
 30
0.0
 10
209.7319567125615
 20
139.4999604084757
 30
0.0
 10
209.4114773108001
 20
139.6979118685284
 30
0.0
 10
209.2849999612662
 20
139.7760335071306
 30
0.0
  0
LINE
  5
91
330
1F
100
AcDbEntity
  8
0
  6
Continuous
 62
     7
370
    15
100
AcDbLine
 10
219.3863403312
 20
139.3684976549
 30
0.0
 11
211.9259091049
 21
138.9775130219
 31
0.0
  0
LINE
  5
92
330
1F
100
AcDbEntity
  8
0
  6
Continuous
 62
     7
370
    15
100
AcDbLine
 10
220.0411631789
 20
139.4631933134
 30
0.0
 11
219.3863403312
 21
139.3684976549
 31
0.0
  0
LINE
  5
93
330
1F
100
AcDbEntity
  8
0
  6
Continuous
 62
     7
370
    15
100
AcDbLine
 10
219.7965521082
 20
140.1174353408
 30
0.0
 11
220.1665271645
 21
140.3729355619
 31
0.0
  0
LINE
  5
94
330
1F
100
AcDbEntity
  8
0
  6
Continuous
 62
     7
370
    15
100
AcDbLine
 10
219.3497051618
 20
140.0675383293
 30
0.0
 11
219.7965521082
 21
140.1174353408
 31
0.0
  0
LINE
  5
95
330
1F
100
AcDbEntity
  8
0
  6
Continuous
 62
     7
370
    15
100
AcDbLine
 10
219.3497051618
 20
140.0675383293
 30
0.0
 11
219.3261539815
 21
140.5169216199
 31
0.0
  0
LINE
  5
96
330
1F
100
AcDbEntity
  8
0
  6
Continuous
 62
     7
370
    15
100
AcDbLine
 10
211.8892739355
 20
139.6765536962
 30
0.0
 11
219.3497051618
 21
140.0675383293
 31
0.0
  0
LINE
  5
97
330
1F
100
AcDbEntity
  8
0
  6
Continuous
 62
     7
370
    15
100
AcDbLine
 10
211.8892739355
 20
139.6765536962
 30
0.0
 11
211.8657227552
 21
140.1259369869
 31
0.0
  0
LINE
  5
98
330
1F
100
AcDbEntity
  8
0
  6
Continuous
 62
     7
370
    15
100
AcDbLine
 10
216.8076455775
 20
146.8665855322
 30
0.0
 11
217.0846932414
 21
146.5119806931
 31
0.0
  0
LINE
  5
99
330
1F
100
AcDbEntity
  8
0
  6
Continuous
 62
     7
370
    15
100
AcDbLine
 10
217.1776206338
 20
147.1220857533
 30
0.0
 11
216.8076455775
 21
146.8665855322
 31
0.0
  0
LINE
  5
9A
330
1F
100
AcDbEntity
  8
0
  6
Continuous
 62
     7
370
    15
100
AcDbLine
 10
217.6244675802
 20
147.1719827649
 30
0.0
 11
217.1776206338
 21
147.1220857533
 31
0.0
  0
LINE
  5
9B
330
1F
100
AcDbEntity
  8
0
  6
Continuous
 62
     7
370
    15
100
AcDbLine
 10
204.8982815248
 20
138.5391146026
 30
0.0
 11
204.6643301641
 21
138.8385586889
 31
0.0
  0
LINE
  5
9C
330
1F
100
AcDbEntity
  8
0
  6
Continuous
 62
     7
370
    15
100
AcDbLine
 10
216.885164858
 20
147.9042942574
 30
0.0
 11
216.6512134973
 21
148.2037383438
 31
0.0
  0
LINE
  5
9D
330
1F
100
AcDbEntity
  8
0
  6
Continuous
 62
     7
370
    15
100
AcDbLine
 10
216.3766825448
 20
147.4181930597
 30
0.0
 11
216.9330095631
 21
147.7763277808
 31
0.0
  0
LINE
  5
9E
330
1F
100
AcDbEntity
  8
0
  6
Continuous
 62
     7
370
    15
100
AcDbLine
 10
210.489714627
 20
142.8187896419
 30
0.0
 11
216.3766825448
 21
147.4181930597
 31
0.0
  0
SPLINE
  5
9F
330
1F
100
AcDbEntity
  8
0
  6
Continuous
 62
     7
370
    15
100
AcDbSpline
210
0.0
220
0.0
230
1.0
 70
     8
 71
     3
 72
    11
 73
     7
 74
     0
 42
0.00000001
 43
0.00000001
 40
0.0
 40
0.0
 40
0.0
 40
0.0
 40
0.1637597647863006
 40
0.4086001779590989
 40
0.6592598879453725
 40
1.0
 40
1.0
 40
1.0
 40
1.0
 10
209.0204717700023
 20
140.4835462932342
 30
0.0
 10
209.0646699606998
 20
140.625486124297
 30
0.0
 10
209.1749497269664
 20
140.9796429607302
 30
0.0
 10
209.4223119346998
 20
141.5357287831707
 30
0.0
 10
209.8294949842507
 20
142.2130454871516
 30
0.0
 10
210.2483739153515
 20
142.5973622320887
 30
0.0
 10
210.4897146270008
 20
142.818789641861
 30
0.0
  0
LINE
  5
A0
330
1F
100
AcDbEntity
  8
0
  6
Continuous
 62
     7
370
    15
100
AcDbLine
 10
209.02047177
 20
140.4835462932
 30
0.0
 11
208.0307639281
 21
139.7103017819
 31
0.0
  0
LINE
  5
A1
330
1F
100
AcDbEntity
  8
0
  6
Continuous
 62
     7
370
    15
100
AcDbLine
 10
210.9206776597
 20
142.2671821143
 30
0.0
 11
211.1977253236
 21
141.9125772752
 31
0.0
  0
LINE
  5
A2
330
1F
100
AcDbEntity
  8
0
  6
Continuous
 62
     7
370
    15
100
AcDbLine
 10
216.8076455775
 20
146.8665855322
 30
0.0
 11
210.9206776597
 21
142.2671821143
 31
0.0
  0
SPLINE
  5
A3
330
1F
100
AcDbEntity
  8
0
  6
Continuous
 62
     7
370
    15
100
AcDbSpline
210
0.0
220
0.0
230
1.0
 70
     8
 71
     3
 72
    11
 73
     7
 74
     0
 42
0.00000001
 43
0.00000001
 40
0.0
 40
0.0
 40
0.0
 40
0.0
 40
0.174446082657272
 40
0.4230614137894702
 40
0.6770586568142599
 40
1.0
 40
1.0
 40
1.0
 40
1.0
 10
209.5925097286182
 20
140.2533683061699
 30
0.0
 10
209.7120397613596
 20
140.1902260373241
 30
0.0
 10
210.0019204160101
 20
140.0370952984686
 30
0.0
 10
210.4999072218788
 20
139.8455243602658
 30
0.0
 10
211.1452973446023
 20
139.6825015823102
 30
0.0
 10
211.6222818716559
 20
139.6786882235674
 30
0.0
 10
211.8892739355032
 20
139.6765536962124
 30
0.0
  0
ARC
  5
A4
330
1F
100
AcDbEntity
  8
0
  6
Continuous
 62
     7
370
    15
100
AcDbCircle
 10
211.813386799
 20
141.1245665216
 30
0.0
 40
2.385640646055105
100
AcDbArc
 50
199.5810823052
 51
201.4189176948
  0
SPLINE
  5
A5
330
1F
100
AcDbEntity
  8
0
  6
Continuous
 62
     7
370
    15
100
AcDbSpline
210
0.0
220
0.0
230
1.0
 70
     8
 71
     3
 72
    11
 73
     7
 74
     0
 42
0.00000001
 43
0.00000001
 40
0.0
 40
0.0
 40
0.0
 40
0.0
 40
0.3229396035481976
 40
0.571080072874213
 40
0.8255548570581337
 40
1.0
 40
1.0
 40
1.0
 40
1.0
 10
210.9206776597288
 20
142.2671821143363
 30
0.0
 10
210.720559695382
 20
142.090421499443
 30
0.0
 10
210.3666750048487
 20
141.7778414884271
 30
0.0
 10
209.9853950519234
 20
141.2322068517423
 30
0.0
 10
209.7344579947296
 20
140.7610876104407
 30
0.0
 10
209.6145000084919
 20
140.451111467486
 30
0.0
 10
209.565712142196
 20
140.3250417067998
 30
0.0
  0
LINE
  5
A6
330
1F
100
AcDbEntity
  8
0
  6
Continuous
 62
     7
370
    15
100
AcDbLine
 10
226.484458115
 20
144.4207314523
 30
0.0
 11
226.0534950823
 21
144.9723389798
 31
0.0
  0
SPLINE
  5
A7
330
1F
100
AcDbEntity
  8
0
  6
Continuous
 62
     7
370
    15
100
AcDbSpline
210
0.0
220
0.0
230
1.0
 70
     8
 71
     3
 72
    14
 73
    10
 74
     0
 42
0.00000001
 43
0.00000001
 40
0.0
 40
0.0
 40
0.0
 40
0.0
 40
0.2055181916618994
 40
0.3570166013208066
 40
0.4668471835761963
 40
0.577081539905067
 40
0.7093665789830436
 40
0.9240585340231966
 40
1.0
 40
1.0
 40
1.0
 40
1.0
 10
227.4084605998066
 20
146.9144793873611
 30
0.0
 10
227.4265639993835
 20
146.8692737237908
 30
0.0
 10
227.4580123793885
 20
146.7907445569185
 30
0.0
 10
227.5278000338533
 20
146.7028571311919
 30
0.0
 10
227.6030549911741
 20
146.6547485753982
 30
0.0
 10
227.6865352188961
 20
146.6380813563332
 30
0.0
 10
227.7947827345473
 20
146.65640683405
 30
0.0
 10
227.8845227856304
 20
146.7040937401892
 30
0.0
 10
227.9393696768873
 20
146.7452268638786
 30
0.0
 10
227.9537009720004
 20
146.7559748009267
 30
0.0
  0
LINE
  5
A8
330
1F
100
AcDbEntity
  8
0
  6
Continuous
 62
     7
370
    15
100
AcDbLine
 10
225.0848988065
 20
147.5629673979
 30
0.0
 11
225.0482636371
 21
148.2620080723
 31
0.0
  0
SPLINE
  5
A9
330
1F
100
AcDbEntity
  8
0
  6
Continuous
 62
     7
370
    15
100
AcDbSpline
210
0.0
220
0.0
230
1.0
 70
     8
 71
     3
 72
    14
 73
    10
 74
     0
 42
0.00000001
 43
0.00000001
 40
0.0
 40
0.0
 40
0.0
 40
0.0
 40
0.2086064885492574
 40
0.365203609509304
 40
0.4768526932687233
 40
0.5890212938927695
 40
0.7185670083743533
 40
0.9352579530972338
 40
1.0
 40
1.0
 40
1.0
 40
1.0
 10
227.6891727807367
 20
147.4634875870302
 30
0.0
 10
227.6399610139209
 20
147.4586234726187
 30
0.0
 10
227.553806863125
 20
147.450107955424
 30
0.0
 10
227.4482453586581
 20
147.4052425779699
 30
0.0
 10
227.3799711151608
 20
147.3445217687644
 30
0.0
 10
227.3412744896827
 20
147.2683005420607
 30
0.0
 10
227.3306589300372
 20
147.1587078360738
 30
0.0
 10
227.3530052332128
 20
147.0626008331339
 30
0.0
 10
227.3763034029519
 20
147.0004501877842
 30
0.0
 10
227.3816630133845
 20
146.986152787991
 30
0.0
  0
LINE
  5
AA
330
1F
100
AcDbEntity
  8
0
  6
Continuous
 62
     7
370
    15
100
AcDbLine
 10
211.8892739355
 20
139.6765536962
 30
0.0
 11
211.9259091049
 21
138.9775130219
 31
0.0
  0
SPLINE
  5
AB
330
1F
100
AcDbEntity
  8
0
  6
Continuous
 62
     7
370
    15
100
AcDbSpline
210
0.0
220
0.0
230
1.0
 70
     8
 71
     3
 72
    14
 73
    10
 74
     0
 42
0.00000001
 43
0.00000001
 40
0.0
 40
0.0
 40
0.0
 40
0.0
 40
0.2086064885490924
 40
0.3652036095092301
 40
0.4768526932686626
 40
0.5890212938927194
 40
0.7185670083743539
 40
0.9352579530973448
 40
1.0
 40
1.0
 40
1.0
 40
1.0
 10
209.2849999612662
 20
139.7760335071306
 30
0.0
 10
209.3342117280819
 20
139.7808976215422
 30
0.0
 10
209.4203658788777
 20
139.7894131387369
 30
0.0
 10
209.5259273833446
 20
139.8342785161911
 30
0.0
 10
209.5942016268418
 20
139.8949993253965
 30
0.0
 10
209.63289825232
 20
139.9712205521003
 30
0.0
 10
209.6435138119654
 20
140.0808132580872
 30
0.0
 10
209.6211675087898
 20
140.176920261027
 30
0.0
 10
209.5978693390507
 20
140.2390709063767
 30
0.0
 10
209.5925097286182
 20
140.2533683061699
 30
0.0
  0
LINE
  5
AC
330
1F
100
AcDbEntity
  8
0
  6
Continuous
 62
     7
370
    15
100
AcDbLine
 10
210.489714627
 20
142.8187896419
 30
0.0
 11
210.9206776597
 21
142.2671821143
 31
0.0
  0
SPLINE
  5
AD
330
1F
100
AcDbEntity
  8
0
  6
Continuous
 62
     7
370
    15
100
AcDbSpline
210
0.0
220
0.0
230
1.0
 70
     8
 71
     3
 72
    14
 73
    10
 74
     0
 42
0.00000001
 43
0.00000001
 40
0.0
 40
0.0
 40
0.0
 40
0.0
 40
0.2055181916619057
 40
0.3570166013208048
 40
0.4668471835761931
 40
0.5770815399050626
 40
0.7093665789830471
 40
0.9240585340231975
 40
1.0
 40
1.0
 40
1.0
 40
1.0
 10
209.565712142196
 20
140.3250417067998
 30
0.0
 10
209.5476087426191
 20
140.3702473703701
 30
0.0
 10
209.5161603626141
 20
140.4487765372425
 30
0.0
 10
209.4463727081493
 20
140.536663962969
 30
0.0
 10
209.3711177508285
 20
140.5847725187627
 30
0.0
 10
209.2876375231066
 20
140.6014397378277
 30
0.0
 10
209.1793900074553
 20
140.5831142601109
 30
0.0
 10
209.0896499563722
 20
140.5354273539717
 30
0.0
 10
209.0348030651153
 20
140.4942942302823
 30
0.0
 10
209.0204717700023
 20
140.4835462932342
 30
0.0
  0
SPLINE
  5
AE
330
1F
100
AcDbEntity
  8
0
  6
Continuous
 62
     7
370
    15
100
AcDbSpline
210
0.0
220
0.0
230
1.0
 70
    24
 71
     3
 72
    10
 73
     6
 74
     0
 42
0.00000001
 43
0.00000001
 40
0.0
 40
0.0
 40
0.0
 40
0.0
 40
0.2765306019330253
 40
0.562668270406253
 40
0.9999999999999999
 40
0.9999999999999999
 40
0.9999999999999999
 40
0.9999999999999999
 10
219.3497051618036
 20
140.0675383292767
 30
0.0
 10
219.3529026666083
 20
140.0065263030376
 30
0.0
 10
219.3594087620839
 20
139.882382605964
 30
0.0
 10
219.3724808153548
 20
139.6329529707128
 30
0.0
 10
219.3811187597261
 20
139.4681311734622
 30
0.0
 10
219.3863403311736
 20
139.3684976549485
 30
0.0
  0
SPLINE
  5
AF
330
1F
100
AcDbEntity
  8
0
  6
Continuous
 62
     7
370
    15
100
AcDbSpline
210
0.0
220
0.0
230
1.0
 70
     8
 71
     3
 72
    11
 73
     7
 74
     0
 42
0.00000001
 43
0.00000001
 40
0.0
 40
0.0
 40
0.0
 40
0.0
 40
0.3241878797140406
 40
0.648220588918896
 40
0.9887961381647091
 40
1.0
 40
1.0
 40
1.0
 40
1.0
 10
220.0411631789197
 20
139.4631933134088
 30
0.0
 10
220.0156273719167
 20
139.5314919316932
 30
0.0
 10
219.9645679804657
 20
139.6680564775537
 30
0.0
 10
219.8784075491968
 20
139.898503018808
 30
0.0
 10
219.8232766403084
 20
140.0459573330849
 30
0.0
 10
219.7973769890587
 20
140.1152290967158
 30
0.0
 10
219.7965521081673
 20
140.1174353408687
 30
0.0
  0
SPLINE
  5
B0
330
1F
100
AcDbEntity
  8
0
  6
Continuous
 62
     7
370
    15
100
AcDbSpline
210
0.0
220
0.0
230
1.0
 70
    24
 71
     3
 72
    10
 73
     6
 74
     0
 42
0.00000001
 43
0.00000001
 40
0.0
 40
0.0
 40
0.0
 40
0.0
 40
0.2765306019330276
 40
0.5626682704062586
 40
1.0
 40
1.0
 40
1.0
 40
1.0
 10
217.6244675801991
 20
147.1719827648842
 30
0.0
 10
217.6212700753943
 20
147.2329947911233
 30
0.0
 10
217.6147639799187
 20
147.3571384881969
 30
0.0
 10
217.6016919266478
 20
147.6065681234481
 30
0.0
 10
217.5930539822765
 20
147.7713899206988
 30
0.0
 10
217.587832410829
 20
147.8710234392124
 30
0.0
  0
SPLINE
  5
B1
330
1F
100
AcDbEntity
  8
0
  6
Continuous
 62
     7
370
    15
100
AcDbSpline
210
0.0
220
0.0
230
1.0
 70
     8
 71
     3
 72
    11
 73
     7
 74
     0
 42
0.00000001
 43
0.00000001
 40
0.0
 40
0.0
 40
0.0
 40
0.0
 40
0.3241878797140356
 40
0.648220588918895
 40
0.9887961381644926
 40
1.0
 40
1.0
 40
1.0
 40
1.0
 10
216.9330095630829
 20
147.7763277807522
 30
0.0
 10
216.958545370086
 20
147.7080291624678
 30
0.0
 10
217.009604761537
 20
147.5714646166072
 30
0.0
 10
217.0957651928054
 20
147.3410180753529
 30
0.0
 10
217.150896101695
 20
147.1935637610763
 30
0.0
 10
217.1767957529439
 20
147.1242919974452
 30
0.0
 10
217.1776206338353
 20
147.1220857532923
 30
0.0
  0
SPLINE
  5
B2
330
1F
100
AcDbEntity
  8
0
  6
Continuous
 62
     7
370
    15
100
AcDbSpline
210
0.0
220
0.0
230
1.0
 70
    24
 71
     3
 72
    10
 73
     6
 74
     0
 42
0.00000001
 43
0.00000001
 40
0.0
 40
0.0
 40
0.0
 40
0.0
 40
0.2765306019330226
 40
0.5626682704062594
 40
1.0
 40
1.0
 40
1.0
 40
1.0
 10
220.5974901972015
 20
139.8213280344164
 30
0.0
 10
220.5598758940192
 20
139.8694721470252
 30
0.0
 10
220.4833405132471
 20
139.9674329672112
 30
0.0
 10
220.3295655527795
 20
140.1642559411025
 30
0.0
 10
220.2279518638893
 20
140.2943155319139
 30
0.0
 10
220.1665271644735
 20
140.3729355619411
 30
0.0
  0
SPLINE
  5
B3
330
1F
100
AcDbEntity
  8
0
  6
Continuous
 62
     7
370
    15
100
AcDbSpline
210
0.0
220
0.0
230
1.0
 70
    24
 71
     3
 72
    10
 73
     6
 74
     0
 42
0.00000001
 43
0.00000001
 40
0.0
 40
0.0
 40
0.0
 40
0.0
 40
0.2765306019330218
 40
0.5626682704062584
 40
1.0
 40
1.0
 40
1.0
 40
1.0
 10
216.3766825448012
 20
147.4181930597446
 30
0.0
 10
216.4142968479834
 20
147.3700489471357
 30
0.0
 10
216.4908322287555
 20
147.2720881269497
 30
0.0
 10
216.6446071892231
 20
147.0752651530584
 30
0.0
 10
216.7462208781133
 20
146.9452055622471
 30
0.0
 10
216.8076455775291
 20
146.8665855322199
 30
0.0
  0
ARC
  5
B4
330
1F
100
AcDbEntity
  8
0
  6
Continuous
 62
     7
370
    15
100
AcDbCircle
 10
218.2853159951
 20
143.5443216948
 30
0.0
 40
1.675000000000006
100
AcDbArc
 50
76.9522411541
 51
135.5521742814
  0
ARC
  5
B5
330
1F
100
AcDbEntity
  8
0
  6
Continuous
 62
     7
370
    15
100
AcDbCircle
 10
218.2853159951
 20
143.5443216948
 30
0.0
 40
1.675000000000005
100
AcDbArc
 50
135.5521742814
 51
195.6590160161
  0
ARC
  5
B6
330
1F
100
AcDbEntity
  8
0
  6
Continuous
 62
     7
370
    15
100
AcDbCircle
 10
218.2853159951
 20
143.5443216948
 30
0.0
 40
1.675000000000005
100
AcDbArc
 50
195.6590160161
 51
254.2589491433
  0
LINE
  5
B7
330
1F
100
AcDbEntity
  8
0
  6
Continuous
 62
     7
370
    15
100
AcDbLine
 10
217.9132410886
 20
141.9111697533
 30
0.0
 11
217.8309050462
 21
141.9321381787
 31
0.0
  0
ARC
  5
B8
330
1F
100
AcDbEntity
  8
0
  6
Continuous
 62
     7
370
    15
100
AcDbCircle
 10
218.2853159951
 20
143.5443216948
 30
0.0
 40
1.675000000000024
100
AcDbArc
 50
257.1655799152
 51
313.6092980815
  0
LINE
  5
B9
330
1F
100
AcDbEntity
  8
0
  6
Continuous
 62
     7
370
    15
100
AcDbLine
 10
219.524363139
 20
142.4172071597
 30
0.0
 11
219.4406255619
 21
142.331521297
 31
0.0
  0
ARC
  5
BA
330
1F
100
AcDbEntity
  8
0
  6
Continuous
 62
     7
370
    15
100
AcDbCircle
 10
218.2853159951
 20
143.5443216948
 30
0.0
 40
1.67500000000001
100
AcDbArc
 50
317.7083899817
 51
13.5028003157
  0
LINE
  5
BB
330
1F
100
AcDbEntity
  8
0
  6
Continuous
 62
     7
370
    15
100
AcDbLine
 10
219.8818936364
 20
144.0508439897
 30
0.0
 11
219.9140164988
 21
143.935422282
 31
0.0
  0
ARC
  5
BC
330
1F
100
AcDbEntity
  8
0
  6
Continuous
 62
     7
370
    15
100
AcDbCircle
 10
218.2853159951
 20
143.5443216948
 30
0.0
 40
1.675000000000023
100
AcDbArc
 50
17.601892216
 51
74.0456103823
  0
LINE
  5
BD
330
1F
100
AcDbEntity
  8
0
  6
Continuous
 62
     7
370
    15
100
AcDbLine
 10
218.6634692905
 20
145.1760769108
 30
0.0
 11
218.7457266871
 21
145.1548020562
 31
0.0
  0
CIRCLE
  5
BE
330
1F
100
AcDbEntity
  8
0
  6
Continuous
 62
     7
370
    15
100
AcDbCircle
 10
218.2853159951
 20
143.5443216948
 30
0.0
 40
1.799999999999997
  0
SPLINE
  5
BF
330
1F
100
AcDbEntity
  8
0
  6
Continuous
 62
     7
370
    15
100
AcDbSpline
210
0.0
220
0.0
230
1.0
 70
     8
 71
     3
 72
    11
 73
     7
 74
     0
 42
0.00000001
 43
0.00000001
 40
0.0
 40
0.0
 40
0.0
 40
0.0
 40
0.2669010467950079
 40
0.554614341079238
 40
0.8439070439786184
 40
1.0
 40
1.0
 40
1.0
 40
1.0
 10
219.5243631390233
 20
142.4172071596954
 30
0.0
 10
219.5411935137205
 20
142.4477497796517
 30
0.0
 10
219.5761666518361
 20
142.5112166534061
 30
0.0
 10
219.5870046077339
 20
142.6224051411414
 30
0.0
 10
219.567551247322
 20
142.7166636064496
 30
0.0
 10
219.53954971319
 20
142.7665590144352
 30
0.0
 10
219.5297361007661
 20
142.7840457061784
 30
0.0
  0
SPLINE
  5
C0
330
1F
100
AcDbEntity
  8
0
  6
Continuous
 62
     7
370
    15
100
AcDbSpline
210
0.0
220
0.0
230
1.0
 70
     8
 71
     3
 72
    12
 73
     8
 74
     0
 42
0.00000001
 43
0.00000001
 40
0.0
 40
0.0
 40
0.0
 40
0.0
 40
0.205840128133805
 40
0.4120619935509894
 40
0.6141387330969496
 40
0.8132772113524643
 40
1.0
 40
1.0
 40
1.0
 40
1.0
 10
219.5297361007661
 20
142.7840457061784
 30
0.0
 10
219.5001447420212
 20
142.8425592428715
 30
0.0
 10
219.440907146384
 20
142.9596948315349
 30
0.0
 10
219.4314221131386
 20
143.1608744216391
 30
0.0
 10
219.4843514107942
 20
143.3499199719763
 30
0.0
 10
219.5909270024426
 20
143.5098455957615
 30
0.0
 10
219.6927762783583
 20
143.57824021925
 30
0.0
 10
219.7420623364623
 20
143.6113371790168
 30
0.0
  0
SPLINE
  5
C1
330
1F
100
AcDbEntity
  8
0
  6
Continuous
 62
     7
370
    15
100
AcDbSpline
210
0.0
220
0.0
230
1.0
 70
     8
 71
     3
 72
    11
 73
     7
 74
     0
 42
0.00000001
 43
0.00000001
 40
0.0
 40
0.0
 40
0.0
 40
0.0
 40
0.2928993220619808
 40
0.5864344719079468
 40
0.8775178868033114
 40
1.0
 40
1.0
 40
1.0
 40
1.0
 10
219.7420623364624
 20
143.6113371790168
 30
0.0
 10
219.7733241989515
 20
143.6327760002536
 30
0.0
 10
219.8359157873874
 20
143.6757001822621
 30
0.0
 10
219.8957496400954
 20
143.7751831177218
 30
0.0
 10
219.9173987013004
 20
143.8659558018884
 30
0.0
 10
219.9147893019441
 20
143.9195498097934
 30
0.0
 10
219.9140164987832
 20
143.9354222819823
 30
0.0
  0
SPLINE
  5
C2
330
1F
100
AcDbEntity
  8
0
  6
Continuous
 62
     7
370
    15
100
AcDbSpline
210
0.0
220
0.0
230
1.0
 70
     8
 71
     3
 72
    12
 73
     8
 74
     0
 42
0.00000001
 43
0.00000001
 40
0.0
 40
0.0
 40
0.0
 40
0.0
 40
0.2057904614204326
 40
0.4120344203360577
 40
0.6141302471427887
 40
0.8132633242113113
 40
1.0
 40
1.0
 40
1.0
 40
1.0
 10
219.5666165667087
 20
144.2394764868605
 30
0.0
 10
219.5011643228044
 20
144.2431038500815
 30
0.0
 10
219.3701155988223
 20
144.2503665700918
 30
0.0
 10
219.1911460919847
 20
144.3427242878435
 30
0.0
 10
219.053876241761
 20
144.4830880916429
 30
0.0
 10
218.9686529792804
 20
144.655358363074
 30
0.0
 10
218.9603448597353
 20
144.7777650192963
 30
0.0
 10
218.9563242527445
 20
144.8370021372826
 30
0.0
  0
SPLINE
  5
C3
330
1F
100
AcDbEntity
  8
0
  6
Continuous
 62
     7
370
    15
100
AcDbSpline
210
0.0
220
0.0
230
1.0
 70
     8
 71
     3
 72
    11
 73
     7
 74
     0
 42
0.00000001
 43
0.00000001
 40
0.0
 40
0.0
 40
0.0
 40
0.0
 40
0.2802371411013145
 40
0.5612869875923969
 40
0.8399906057824389
 40
0.9999999999999999
 40
0.9999999999999999
 40
0.9999999999999999
 40
0.9999999999999999
 10
218.9563242527445
 20
144.8370021372826
 30
0.0
 10
218.953394817015
 20
144.874771425601
 30
0.0
 10
218.9475274500077
 20
144.9504195355567
 30
0.0
 10
218.891311466695
 20
145.0518944487268
 30
0.0
 10
218.8193287162587
 20
145.1203279237766
 30
0.0
 10
218.765396931526
 20
145.1455887964928
 30
0.0
 10
218.7457266870608
 20
145.1548020562467
 30
0.0
  0
SPLINE
  5
C4
330
1F
100
AcDbEntity
  8
0
  6
Continuous
 62
     7
370
    15
100
AcDbSpline
210
0.0
220
0.0
230
1.0
 70
     8
 71
     3
 72
    11
 73
     7
 74
     0
 42
0.00000001
 43
0.00000001
 40
0.0
 40
0.0
 40
0.0
 40
0.0
 40
0.2657596322624884
 40
0.5530029385954659
 40
0.841820848343815
 40
1.0
 40
1.0
 40
1.0
 40
1.0
 10
219.8818936364303
 20
144.0508439896566
 30
0.0
 10
219.8639692599196
 20
144.0806477197758
 30
0.0
 10
219.8266715228685
 20
144.142664476033
 30
0.0
 10
219.7360542246707
 20
144.2078311392961
 30
0.0
 10
219.6444849095877
 20
144.2384677826373
 30
0.0
 10
219.5869695616739
 20
144.2392128347624
 30
0.0
 10
219.5666165667087
 20
144.2394764868605
 30
0.0
  0
SPLINE
  5
C5
330
1F
100
AcDbEntity
  8
0
  6
Continuous
 62
     7
370
    15
100
AcDbSpline
210
0.0
220
0.0
230
1.0
 70
     8
 71
     3
 72
    11
 73
     7
 74
     0
 42
0.00000001
 43
0.00000001
 40
0.0
 40
0.0
 40
0.0
 40
0.0
 40
0.2431090893443166
 40
0.5182793655622597
 40
0.7947794085752086
 40
1.0
 40
1.0
 40
1.0
 40
1.0
 10
217.9132410885962
 20
141.9111697532845
 30
0.0
 10
217.9463778540682
 20
141.9099751198116
 30
0.0
 10
218.0170214562137
 20
141.9074283047991
 30
0.0
 10
218.1198614295546
 20
141.9460803459776
 30
0.0
 10
218.202185825622
 20
142.0096960940915
 30
0.0
 10
218.2363158916164
 20
142.0647962152142
 30
0.0
 10
218.2508558382742
 20
142.0882697362469
 30
0.0
  0
SPLINE
  5
C6
330
1F
100
AcDbEntity
  8
0
  6
Continuous
 62
     7
370
    15
100
AcDbSpline
210
0.0
220
0.0
230
1.0
 70
     8
 71
     3
 72
    12
 73
     8
 74
     0
 42
0.00000001
 43
0.00000001
 40
0.0
 40
0.0
 40
0.0
 40
0.0
 40
0.2058179564998948
 40
0.4120215045907417
 40
0.6140779969167924
 40
0.8132130006453715
 40
1.0
 40
1.0
 40
1.0
 40
1.0
 10
218.2508558382742
 20
142.0882697362469
 30
0.0
 10
218.2867306766414
 20
142.1431488123843
 30
0.0
 10
218.3585475634298
 20
142.2530097783817
 30
0.0
 10
218.528014240578
 20
142.3618123098667
 30
0.0
 10
218.7181802889342
 20
142.4105056026055
 30
0.0
 10
218.9099773264976
 20
142.3981884910208
 30
0.0
 10
219.0201504042377
 20
142.3441771517949
 30
0.0
 10
219.0734743879347
 20
142.3180355586634
 30
0.0
  0
SPLINE
  5
C7
330
1F
100
AcDbEntity
  8
0
  6
Continuous
 62
     7
370
    15
100
AcDbSpline
210
0.0
220
0.0
230
1.0
 70
     8
 71
     3
 72
    11
 73
     7
 74
     0
 42
0.00000001
 43
0.00000001
 40
0.0
 40
0.0
 40
0.0
 40
0.0
 40
0.2908641666076222
 40
0.5839560789891921
 40
0.8745988053617495
 40
1.0
 40
1.0
 40
1.0
 40
1.0
 10
219.0734743879348
 20
142.3180355586633
 30
0.0
 10
219.107477034727
 20
142.3017533323668
 30
0.0
 10
219.1757427565848
 20
142.2690641732441
 30
0.0
 10
219.2915995134088
 20
142.266781659461
 30
0.0
 10
219.3814972571249
 20
142.2933657968267
 30
0.0
 10
219.4269311728752
 20
142.3226843065619
 30
0.0
 10
219.4406255619156
 20
142.3315212969856
 30
0.0
  0
SPLINE
  5
C8
330
1F
100
AcDbEntity
  8
0
  6
Continuous
 62
     7
370
    15
100
AcDbSpline
210
0.0
220
0.0
230
1.0
 70
     8
 71
     3
 72
    12
 73
     8
 74
     0
 42
0.00000001
 43
0.00000001
 40
0.0
 40
0.0
 40
0.0
 40
0.0
 40
0.2058585741213916
 40
0.4121026961457003
 40
0.6141937841967343
 40
0.8133180967416285
 40
1.0
 40
1.0
 40
1.0
 40
1.0
 10
218.3246167701594
 20
144.9991312976113
 30
0.0
 10
218.288735582558
 20
144.9442443883519
 30
0.0
 10
218.216906006284
 20
144.8343677733727
 30
0.0
 10
218.0474064460491
 20
144.7255618535771
 30
0.0
 10
217.8572107853732
 20
144.6768861305757
 30
0.0
 10
217.665433517666
 20
144.6892337108436
 30
0.0
 10
217.5552926231579
 20
144.7432354127841
 30
0.0
 10
217.501998220499
 20
144.7693654751949
 30
0.0
  0
SPLINE
  5
C9
330
1F
100
AcDbEntity
  8
0
  6
Continuous
 62
     7
370
    15
100
AcDbSpline
210
0.0
220
0.0
230
1.0
 70
     8
 71
     3
 72
    11
 73
     7
 74
     0
 42
0.00000001
 43
0.00000001
 40
0.0
 40
0.0
 40
0.0
 40
0.0
 40
0.2524782265335843
 40
0.5068902417933437
 40
0.7591786113117038
 40
0.9999999999999999
 40
0.9999999999999999
 40
0.9999999999999999
 40
0.9999999999999999
 10
217.501998220499
 20
144.7693654751949
 30
0.0
 10
217.4679861527542
 20
144.7856555509265
 30
0.0
 10
217.3997015110257
 20
144.8183604718213
 30
0.0
 10
217.2840183804776
 20
144.8205177576018
 30
0.0
 10
217.1742269073819
 20
144.788715863104
 30
0.0
 10
217.1173365904662
 20
144.7407040061012
 30
0.0
 10
217.0895529076359
 20
144.7172563215148
 30
0.0
  0
SPLINE
  5
CA
330
1F
100
AcDbEntity
  8
0
  6
Continuous
 62
     7
370
    15
100
AcDbSpline
210
0.0
220
0.0
230
1.0
 70
     8
 71
     3
 72
    11
 73
     7
 74
     0
 42
0.00000001
 43
0.00000001
 40
0.0
 40
0.0
 40
0.0
 40
0.0
 40
0.2423611237745134
 40
0.51668479284584
 40
0.7923341374633285
 40
1.0
 40
1.0
 40
1.0
 40
1.0
 10
218.6634692904509
 20
145.1760769108449
 30
0.0
 10
218.6303369919906
 20
145.1773949654039
 30
0.0
 10
218.5597029129773
 20
145.1802048993412
 30
0.0
 10
218.4567234528586
 20
145.1419352328489
 30
0.0
 10
218.373812775327
 20
145.0783712389595
 30
0.0
 10
218.3394020244806
 20
145.0229458874593
 30
0.0
 10
218.3246167701594
 20
144.9991312976113
 30
0.0
  0
SPLINE
  5
CB
330
1F
100
AcDbEntity
  8
0
  6
Continuous
 62
     7
370
    15
100
AcDbSpline
210
0.0
220
0.0
230
1.0
 70
     8
 71
     3
 72
    12
 73
     8
 74
     0
 42
0.00000001
 43
0.00000001
 40
0.0
 40
0.0
 40
0.0
 40
0.0
 40
0.00917352051901
 40
0.2576775215525189
 40
0.5061895192299413
 40
0.7560357430218997
 40
1.0
 40
1.0
 40
1.0
 40
1.0
 10
216.6724835160898
 20
143.0922194998678
 30
0.0
 10
216.6728590247695
 20
143.0909003233283
 30
0.0
 10
216.6834067905615
 20
143.0538456134725
 30
0.0
 10
216.7173297311119
 20
142.9841671159898
 30
0.0
 10
216.797630287212
 20
142.9046817926961
 30
0.0
 10
216.8989803124034
 20
142.8537336252151
 30
0.0
 10
216.9725227962337
 20
142.8498454686267
 30
0.0
 10
217.008856041725
 20
142.8479245469977
 30
0.0
  0
SPLINE
  5
CC
330
1F
100
AcDbEntity
  8
0
  6
Continuous
 62
     7
370
    15
100
AcDbSpline
210
0.0
220
0.0
230
1.0
 70
     8
 71
     3
 72
    12
 73
     8
 74
     0
 42
0.00000001
 43
0.00000001
 40
0.0
 40
0.0
 40
0.0
 40
0.0
 40
0.2057532787804204
 40
0.4119604088044738
 40
0.6140154573249059
 40
0.8131414684041033
 40
1.0
 40
1.0
 40
1.0
 40
1.0
 10
217.008856041725
 20
142.8479245469977
 30
0.0
 10
217.0742990061549
 20
142.8442986770246
 30
0.0
 10
217.205329289316
 20
142.8370389391225
 30
0.0
 10
217.3842796214488
 20
142.7447067067671
 30
0.0
 10
217.5215458587212
 20
142.6043793043363
 30
0.0
 10
217.6068055951207
 20
142.4321108551468
 30
0.0
 10
217.6151222092291
 20
142.3096724241386
 30
0.0
 10
217.6191483556892
 20
142.2503988965757
 30
0.0
  0
SPLINE
  5
CD
330
1F
100
AcDbEntity
  8
0
  6
Continuous
 62
     7
370
    15
100
AcDbSpline
210
0.0
220
0.0
230
1.0
 70
     8
 71
     3
 72
    11
 73
     7
 74
     0
 42
0.00000001
 43
0.00000001
 40
0.0
 40
0.0
 40
0.0
 40
0.0
 40
0.2794069064555816
 40
0.5596240257156135
 40
0.8375007392219371
 40
0.9999999999999999
 40
0.9999999999999999
 40
0.9999999999999999
 40
0.9999999999999999
 10
217.6191483556892
 20
142.2503988965757
 30
0.0
 10
217.6220782684968
 20
142.2126263233956
 30
0.0
 10
217.6279465901543
 20
142.1369716456612
 30
0.0
 10
217.6841718741231
 20
142.0354958430022
 30
0.0
 10
217.756459732146
 20
141.9667629616041
 30
0.0
 10
217.8108390229437
 20
141.9414709581661
 30
0.0
 10
217.8309050462335
 20
141.9321381786725
 30
0.0
  0
SPLINE
  5
CE
330
1F
100
AcDbEntity
  8
0
  6
Continuous
 62
     7
370
    15
100
AcDbSpline
210
0.0
220
0.0
230
1.0
 70
     8
 71
     3
 72
    12
 73
     8
 74
     0
 42
0.00000001
 43
0.00000001
 40
0.0
 40
0.0
 40
0.0
 40
0.0
 40
0.2058435564095174
 40
0.4120691620553193
 40
0.6141397217727181
 40
0.8132604579561344
 40
1.0
 40
1.0
 40
1.0
 40
1.0
 10
217.0457365076676
 20
144.3033553276799
 30
0.0
 10
217.0753281290608
 20
144.2448411600525
 30
0.0
 10
217.1345662944135
 20
144.1277042214805
 30
0.0
 10
217.1440503103329
 20
143.9265238103171
 30
0.0
 10
217.0911207137797
 20
143.7374827252368
 30
0.0
 10
216.9845484283786
 20
143.5775587763765
 30
0.0
 10
216.8827003155824
 20
143.5091639615761
 30
0.0
 10
216.8334102719713
 20
143.4760638548415
 30
0.0
  0
SPLINE
  5
CF
330
1F
100
AcDbEntity
  8
0
  6
Continuous
 62
     7
370
    15
100
AcDbSpline
210
0.0
220
0.0
230
1.0
 70
     8
 71
     3
 72
    11
 73
     7
 74
     0
 42
0.00000001
 43
0.00000001
 40
0.0
 40
0.0
 40
0.0
 40
0.0
 40
0.253508622748402
 40
0.5075674742604821
 40
0.7595056251924814
 40
0.9999999999999999
 40
0.9999999999999999
 40
0.9999999999999999
 40
0.9999999999999999
 10
216.8334102719713
 20
143.4760638548415
 30
0.0
 10
216.8021341280923
 20
143.454618697923
 30
0.0
 10
216.7395139569077
 20
143.411681838363
 30
0.0
 10
216.6798803581879
 20
143.3122782798763
 30
0.0
 10
216.6527312606358
 20
143.2012451014326
 30
0.0
 10
216.6660022335459
 20
143.1279939323068
 30
0.0
 10
216.6724835160898
 20
143.0922194998678
 30
0.0
  0
SPLINE
  5
D0
330
1F
100
AcDbEntity
  8
0
  6
Continuous
 62
     7
370
    15
100
AcDbSpline
210
0.0
220
0.0
230
1.0
 70
     8
 71
     3
 72
    12
 73
     8
 74
     0
 42
0.00000001
 43
0.00000001
 40
0.0
 40
0.0
 40
0.0
 40
0.0
 40
0.0091681771491514
 40
0.2573268097002402
 40
0.5054934687429662
 40
0.7549925359453035
 40
1.0
 40
1.0
 40
1.0
 40
1.0
 10
217.0895529076359
 20
144.7172563215148
 30
0.0
 10
217.0885956169379
 20
144.7162725175723
 30
0.0
 10
217.0617269649404
 20
144.6886597079825
 30
0.0
 10
217.0182252356235
 20
144.6245216301962
 30
0.0
 10
216.9893376146724
 20
144.5152913671906
 30
0.0
 10
216.9956879829074
 20
144.4018176619061
 30
0.0
 10
217.0291549930392
 20
144.3359767614413
 30
0.0
 10
217.0457365076676
 20
144.3033553276799
 30
0.0
  0
CIRCLE
  5
D1
330
1F
100
AcDbEntity
  8
0
  6
Continuous
 62
     7
370
    15
100
AcDbCircle
 10
218.2853159951
 20
143.5443216948
 30
0.0
 40
2.625000000000004
  0
SPLINE
  5
D2
330
1F
100
AcDbEntity
  8
0
  6
Continuous
 62
     7
370
    15
100
AcDbSpline
210
0.0
220
0.0
230
1.0
 70
     8
 71
     3
 72
    68
 73
    64
 74
     0
 42
0.00000001
 43
0.00000001
 40
-0.0625000000000012
 40
-0.0625000000000012
 40
0.0
 40
0.0
 40
0.0312499999999999
 40
0.0312499999999999
 40
0.0624999999999998
 40
0.0624999999999998
 40
0.0937499999999998
 40
0.0937499999999998
 40
0.1249999999999997
 40
0.1249999999999997
 40
0.1562499999999996
 40
0.1562499999999996
 40
0.1874999999999995
 40
0.1874999999999995
 40
0.2187499999999994
 40
0.2187499999999994
 40
0.2499999999999993
 40
0.2499999999999993
 40
0.2812499999999992
 40
0.2812499999999992
 40
0.3124999999999992
 40
0.3124999999999992
 40
0.3437499999999991
 40
0.3437499999999991
 40
0.374999999999999
 40
0.374999999999999
 40
0.4062499999999989
 40
0.4062499999999989
 40
0.4374999999999988
 40
0.4374999999999988
 40
0.4687499999999988
 40
0.4687499999999988
 40
0.4999999999999987
 40
0.4999999999999987
 40
0.5312499999999986
 40
0.5312499999999986
 40
0.5624999999999984
 40
0.5624999999999984
 40
0.5937499999999984
 40
0.5937499999999984
 40
0.6249999999999983
 40
0.6249999999999983
 40
0.6562499999999982
 40
0.6562499999999982
 40
0.6874999999999982
 40
0.6874999999999982
 40
0.7187499999999981
 40
0.7187499999999981
 40
0.749999999999998
 40
0.749999999999998
 40
0.7812499999999981
 40
0.7812499999999981
 40
0.8124999999999982
 40
0.8124999999999982
 40
0.8437499999999984
 40
0.8437499999999984
 40
0.8749999999999986
 40
0.8749999999999986
 40
0.9062499999999987
 40
0.9062499999999987
 40
0.9374999999999988
 40
0.9374999999999988
 40
1.0
 40
1.0
 40
1.03125
 40
1.03125
 10
188.0792615968712
 20
122.3768914232267
 30
0.0
 10
188.6742060274259
 20
122.3768914232267
 30
0.0
 10
188.8691842736756
 20
122.3609693696296
 30
0.0
 10
189.2527474988212
 20
122.2984963481814
 30
0.0
 10
189.4433282742834
 20
122.2511788750511
 30
0.0
 10
189.8065775610702
 20
122.1273908824755
 30
0.0
 10
189.9788443000661
 20
122.0515233418559
 30
0.0
 10
190.3048660167741
 20
121.8716383939653
 30
0.0
 10
190.4591413835507
 20
121.7667049449527
 30
0.0
 10
190.7357043048018
 20
121.5364811837042
 30
0.0
 10
190.8598471951172
 20
121.410390403908
 30
0.0
 10
191.0791619674881
 20
121.1351231341903
 30
0.0
 10
191.1722924228914
 20
120.9880172951231
 30
0.0
 10
191.3219467534176
 20
120.6820276326487
 30
0.0
 10
191.3795937234094
 20
120.520880739165
 30
0.0
 10
191.4567002852318
 20
120.1890751437363
 30
0.0
 10
191.4757840665752
 20
120.0213587179042
 30
0.0
 10
191.4759974766526
 20
119.6822864105684
 30
0.0
 10
191.4565021861532
 20
119.5091260862258
 30
0.0
 10
191.3799323116761
 20
119.1722678818787
 30
0.0
 10
191.323279070467
 20
119.0076495960934
 30
0.0
 10
191.1730031196576
 20
118.6863658944978
 30
0.0
 10
191.0791194572452
 20
118.5303384888348
 30
0.0
 10
190.8620542571487
 20
118.2402882695632
 30
0.0
 10
190.738123000874
 20
118.104431869374
 30
0.0
 10
190.4581661557217
 20
117.8523164935003
 30
0.0
 10
190.3067070048199
 20
117.7401891829576
 30
0.0
 10
189.9819739958722
 20
117.5433684868365
 30
0.0
 10
189.8066095570557
 20
117.4579490634941
 30
0.0
 10
189.443292538156
 20
117.3208335295258
 30
0.0
 10
189.2563010851654
 20
117.2690050864858
 30
0.0
 10
188.8717295868087
 20
117.1988159060614
 30
0.0
 10
188.6728217336893
 20
117.1808047336418
 30
0.0
 10
188.2811583339927
 20
117.1806736351966
 30
0.0
 10
188.0864505976059
 20
117.1979718139458
 30
0.0
 10
187.6993335339509
 20
117.2679868924401
 30
0.0
 10
187.509862531224
 20
117.3204866542681
 30
0.0
 10
187.1487300332064
 20
117.4564377609462
 30
0.0
 10
186.9743107838461
 20
117.5408771455478
 30
0.0
 10
186.6461127460422
 20
117.7393269121557
 30
0.0
 10
186.4950345085917
 20
117.8513858982831
 30
0.0
 10
186.218198415564
 20
118.100005076363
 30
0.0
 10
186.0914345990515
 20
118.2382382543435
 30
0.0
 10
185.8734300608946
 20
118.5290859166192
 30
0.0
 10
185.7811488813645
 20
118.6821147170653
 30
0.0
 10
185.6302691941992
 20
119.0030815473221
 30
0.0
 10
185.5723227597291
 20
119.1708607787585
 30
0.0
 10
185.4957105773144
 20
119.5065686113776
 30
0.0
 10
185.4760825572991
 20
119.6762943678054
 30
0.0
 10
185.4757026340539
 20
120.0195373363798
 30
0.0
 10
185.4950149745585
 20
120.1877978980887
 30
0.0
 10
185.5709355912353
 20
120.5164594938134
 30
0.0
 10
185.6284413602014
 20
120.6787716235616
 30
0.0
 10
185.7788015067905
 20
120.9870091023821
 30
0.0
 10
185.8708207946819
 20
121.1323523109022
 30
0.0
 10
186.088164809672
 20
121.406157117931
 30
0.0
 10
186.2146842298035
 20
121.5351583551559
 30
0.0
 10
186.4911178492633
 20
121.7655977383007
 30
0.0
 10
186.6419474393396
 20
121.8685556104954
 30
0.0
 10
186.9694590315797
 20
122.0499361507831
 30
0.0
 10
187.1440075646679
 20
122.1268287888643
 30
0.0
 10
187.6852124330395
 20
122.3117195815998
 30
0.0
 10
188.0792615968712
 20
122.3768914232267
 30
0.0
 10
188.6742060274259
 20
122.3768914232267
 30
0.0
  0
SPLINE
  5
D3
330
1F
100
AcDbEntity
  8
0
  6
Continuous
 62
     7
370
    15
100
AcDbSpline
210
0.0
220
0.0
230
1.0
 70
     8
 71
     3
 72
    14
 73
    10
 74
     0
 42
0.00000001
 43
0.00000001
 40
0.0
 40
0.0
 40
0.0
 40
0.0
 40
0.25
 40
0.25
 40
0.5
 40
0.5
 40
0.75
 40
0.75
 40
1.0
 40
1.0
 40
1.0
 40
1.0
 10
201.2842981873804
 20
135.3262240141731
 30
0.0
 10
201.4013593288708
 20
135.3842455871001
 30
0.0
 10
201.5653139418787
 20
135.4302921585485
 30
0.0
 10
201.9847079247817
 20
135.5035836415693
 30
0.0
 10
202.2437192565451
 20
135.5308133488692
 30
0.0
 10
202.8313421260303
 20
135.5693481749262
 30
0.0
 10
203.1624408179002
 20
135.5811932534214
 30
0.0
 10
203.8967438051012
 20
135.5959666124015
 30
0.0
 10
204.2897111799326
 20
135.5987644550877
 30
0.0
 10
204.708564229262
 20
135.5998426761718
 30
0.0
  0
ELLIPSE
  5
D4
330
1F
100
AcDbEntity
  8
0
  6
Continuous
 62
     7
370
    15
100
AcDbEllipse
 10
202.3955064595
 20
104.1004064916
 30
0.0
 11
0.0
 21
31.5
 31
0.0
210
0.0
220
0.0
230
1.0
 40
0.2679491924
 41
0.1320368298873532
 42
3.009555823702441
  0
SPLINE
  5
D5
330
1F
100
AcDbEntity
  8
0
  6
Continuous
 62
     7
370
    15
100
AcDbSpline
210
0.0
220
0.0
230
1.0
 70
     8
 71
     3
 72
    10
 73
     6
 74
     0
 42
0.00000001
 43
0.00000001
 40
0.0
 40
0.0
 40
0.0
 40
0.0
 40
0.5
 40
0.5
 40
1.0
 40
1.0
 40
1.0
 40
1.0
 10
202.2884633009856
 20
72.66972138950297
 30
0.0
 10
202.0584653939269
 20
72.68999794859837
 30
0.0
 10
201.8559093718894
 20
72.71644796071972
 30
0.0
 10
201.5182054287117
 20
72.78425028952755
 30
0.0
 10
201.3839500097435
 20
72.82519635756495
 30
0.0
 10
201.2842981873804
 20
72.8745889690237
 30
0.0
  0
ELLIPSE
  5
D6
330
1F
100
AcDbEntity
  8
0
  6
Continuous
 62
     7
370
    15
100
AcDbEllipse
 10
224.0734007587
 20
104.1004064916
 30
0.0
 11
22.19801352592555
 21
31.46000549521668
 31
0.0
210
0.0
220
0.0
230
1.0
 40
0.0714855773
 41
3.191989788134739
 42
3.258341584444549
  0
SPLINE
  5
D7
330
1F
100
AcDbEntity
  8
0
  6
Continuous
 62
     7
370
    15
100
AcDbSpline
210
0.0
220
0.0
230
1.0
 70
     8
 71
     3
 72
    12
 73
     8
 74
     0
 42
0.00000001
 43
0.00000001
 40
0.0
 40
0.0
 40
0.0
 40
0.0
 40
0.4999999999999953
 40
0.4999999999999953
 40
0.7499999999999977
 40
0.7499999999999977
 40
1.0
 40
1.0
 40
1.0
 40
1.0
 10
177.5706353289152
 20
74.19966403148112
 30
0.0
 10
177.6017805268773
 20
74.16184850856094
 30
0.0
 10
177.6440547932118
 20
74.12578165047731
 30
0.0
 10
177.7440003270371
 20
74.07782158546605
 30
0.0
 10
177.7837306317411
 20
74.06296061156839
 30
0.0
 10
177.8806186817473
 20
74.04000946543727
 30
0.0
 10
177.9406839234939
 20
74.03191453272521
 30
0.0
 10
178.0036480308074
 20
74.03191453272521
 30
0.0
  0
LINE
  5
D8
330
1F
100
AcDbEntity
  8
0
  6
Continuous
 62
     7
370
    15
100
AcDbLine
 10
178.0036480308
 20
74.0319145327
 30
0.0
 11
180.9481344037
 21
74.0319145327
 31
0.0
  0
SPLINE
  5
D9
330
1F
100
AcDbEntity
  8
0
  6
Continuous
 62
     7
370
    15
100
AcDbSpline
210
0.0
220
0.0
230
1.0
 70
     8
 71
     3
 72
    12
 73
     8
 74
     0
 42
0.00000001
 43
0.00000001
 40
0.0
 40
0.0
 40
0.0
 40
0.0
 40
0.2500000000000023
 40
0.2500000000000023
 40
0.5000000000000047
 40
0.5000000000000047
 40
1.0
 40
1.0
 40
1.0
 40
1.0
 10
180.9481344036746
 20
74.03191453272525
 30
0.0
 10
181.0111913585723
 20
74.03191453272525
 30
0.0
 10
181.070321508318
 20
74.03981486380482
 30
0.0
 10
181.1687690588512
 20
74.06312561180984
 30
0.0
 10
181.2078012970393
 20
74.07783073809348
 30
0.0
 10
181.3076911814963
 20
74.12576426628011
 30
0.0
 10
181.3499901551056
 20
74.16183423904491
 30
0.0
 10
181.3811471055669
 20
74.1996640314811
 30
0.0
  0
ELLIPSE
  5
DA
330
1F
100
AcDbEntity
  8
0
  6
Continuous
 62
     7
370
    15
100
AcDbEllipse
 10
165.1287370279
 20
104.1004064916
 30
0.0
 11
-14.75368316065621
 21
31.09325491558116
 31
0.0
210
0.0
220
0.0
230
1.0
 40
0.3419987131
 41
3.300734856217122
 42
4.231496223360773
  0
SPLINE
  5
DB
330
1F
100
AcDbEntity
  8
0
  6
Continuous
 62
     7
370
    15
100
AcDbSpline
210
0.0
220
0.0
230
1.0
 70
     8
 71
     3
 72
    12
 73
     8
 74
     0
 42
0.00000001
 43
0.00000001
 40
0.0
 40
0.0
 40
0.0
 40
0.0
 40
0.5
 40
0.5
 40
0.75
 40
0.75
 40
1.0
 40
1.0
 40
1.0
 40
1.0
 10
181.3811471055668
 20
94.19103717091298
 30
0.0
 10
181.3500019076047
 20
94.30514253677829
 30
0.0
 10
181.3077276412702
 20
94.41624886399705
 30
0.0
 10
181.207782107445
 20
94.56640647142734
 30
0.0
 10
181.1680518027409
 20
94.6133991630447
 30
0.0
 10
181.0711637527347
 20
94.6863747475832
 30
0.0
 10
181.0110985109881
 20
94.7123400602622
 30
0.0
 10
180.9481344036746
 20
94.71234006026222
 30
0.0
  0
LINE
  5
DC
330
1F
100
AcDbEntity
  8
0
  6
Continuous
 62
     7
370
    15
100
AcDbLine
 10
180.9481344037
 20
94.7123400603
 30
0.0
 11
178.0036480308
 21
94.7123400603
 31
0.0
  0
SPLINE
  5
DD
330
1F
100
AcDbEntity
  8
0
  6
Continuous
 62
     7
370
    15
100
AcDbSpline
210
0.0
220
0.0
230
1.0
 70
     8
 71
     3
 72
    12
 73
     8
 74
     0
 42
0.00000001
 43
0.00000001
 40
0.0
 40
0.0
 40
0.0
 40
0.0
 40
0.2499999999999986
 40
0.2499999999999986
 40
0.4999999999999971
 40
0.4999999999999971
 40
1.0
 40
1.0
 40
1.0
 40
1.0
 10
178.0036480308075
 20
94.71234006026211
 30
0.0
 10
177.9405910759097
 20
94.71234006026211
 30
0.0
 10
177.8814609261641
 20
94.68699370688142
 30
0.0
 10
177.7830133756308
 20
94.61287432474192
 30
0.0
 10
177.7439811374427
 20
94.56637781004393
 30
0.0
 10
177.6440912529858
 20
94.41630330303535
 30
0.0
 10
177.6017922793764
 20
94.30518559392048
 30
0.0
 10
177.5706353289152
 20
94.191037170913
 30
0.0
  0
ELLIPSE
  5
DE
330
1F
100
AcDbEntity
  8
0
  6
Continuous
 62
     7
370
    15
100
AcDbEllipse
 10
193.8230454066
 20
104.1004064916
 30
0.0
 11
14.75368316065618
 21
31.09325491558116
 31
0.0
210
0.0
220
0.0
230
1.0
 40
0.3419987131
 41
2.051689083818827
 42
2.982450450962503
  0
SPLINE
  5
DF
330
1F
100
AcDbEntity
  8
0
  6
Continuous
 62
     7
370
    15
100
AcDbSpline
210
0.0
220
0.0
230
1.0
 70
     8
 71
     3
 72
    12
 73
     8
 74
     0
 42
0.00000001
 43
0.00000001
 40
0.0
 40
0.0
 40
0.0
 40
0.0
 40
0.4999999999999971
 40
0.4999999999999971
 40
0.7499999999999986
 40
0.7499999999999986
 40
1.0
 40
1.0
 40
1.0
 40
1.0
 10
177.5706353289152
 20
114.0097758122834
 30
0.0
 10
177.6013575708344
 20
113.8972200128742
 30
0.0
 10
177.6441947853695
 20
113.7844621531346
 30
0.0
 10
177.7436218095693
 20
113.6349212673383
 30
0.0
 10
177.7833740043859
 20
113.5876285356314
 30
0.0
 10
177.8814154612441
 20
113.51389224231
 30
0.0
 10
177.9409715168316
 20
113.4884729229343
 30
0.0
 10
178.0036480308075
 20
113.4884729229343
 30
0.0
  0
LINE
  5
E0
330
1F
100
AcDbEntity
  8
0
  6
Continuous
 62
     7
370
    15
100
AcDbLine
 10
178.0036480308
 20
113.4884729229
 30
0.0
 11
180.9481344037
 21
113.4884729229
 31
0.0
  0
SPLINE
  5
E1
330
1F
100
AcDbEntity
  8
0
  6
Continuous
 62
     7
370
    15
100
AcDbSpline
210
0.0
220
0.0
230
1.0
 70
     8
 71
     3
 72
    12
 73
     8
 74
     0
 42
0.00000001
 43
0.00000001
 40
0.0
 40
0.0
 40
0.0
 40
0.0
 40
0.2499999999999977
 40
0.2499999999999977
 40
0.4999999999999953
 40
0.4999999999999953
 40
1.0
 40
1.0
 40
1.0
 40
1.0
 10
180.9481344036746
 20
113.4884729229342
 30
0.0
 10
181.011214442168
 20
113.4884729229342
 30
0.0
 10
181.0703630643494
 20
113.5138372421492
 30
0.0
 10
181.1688356144184
 20
113.5880021025221
 30
0.0
 10
181.2078722264031
 20
113.6345224430762
 30
0.0
 10
181.3077686931822
 20
113.7846647859215
 30
0.0
 10
181.3501895742488
 20
113.8963579928936
 30
0.0
 10
181.3811471055668
 20
114.0097758122834
 30
0.0
  0
ELLIPSE
  5
E2
330
1F
100
AcDbEntity
  8
0
  6
Continuous
 62
     7
370
    15
100
AcDbEllipse
 10
165.1287370279
 20
104.1004064916
 30
0.0
 11
14.75368316065604
 21
31.09325491558113
 31
0.0
210
0.0
220
0.0
230
1.0
 40
0.3419987131
 41
5.193281737408618
 42
6.124043104552322
  0
SPLINE
  5
E3
330
1F
100
AcDbEntity
  8
0
  6
Continuous
 62
     7
370
    15
100
AcDbSpline
210
0.0
220
0.0
230
1.0
 70
     8
 71
     3
 72
    12
 73
     8
 74
     0
 42
0.00000001
 43
0.00000001
 40
0.0
 40
0.0
 40
0.0
 40
0.0
 40
0.5000000000000009
 40
0.5000000000000009
 40
0.7500000000000004
 40
0.7500000000000004
 40
1.0
 40
1.0
 40
1.0
 40
1.0
 10
181.3811471055668
 20
134.0011489517155
 30
0.0
 10
181.3504248636477
 20
134.0384509346686
 30
0.0
 10
181.3075876491125
 20
134.075062766715
 30
0.0
 10
181.2081606249128
 20
134.1228275500002
 30
0.0
 10
181.1684084300961
 20
134.1377850654825
 30
0.0
 10
181.0703669732379
 20
134.1609750112517
 30
0.0
 10
181.0108109176504
 20
134.1688984504714
 30
0.0
 10
180.9481344036746
 20
134.1688984504714
 30
0.0
  0
LINE
  5
E4
330
1F
100
AcDbEntity
  8
0
  6
Continuous
 62
     7
370
    15
100
AcDbLine
 10
180.9481344037
 20
134.1688984505
 30
0.0
 11
178.0036480308
 21
134.1688984505
 31
0.0
  0
SPLINE
  5
E5
330
1F
100
AcDbEntity
  8
0
  6
Continuous
 62
     7
370
    15
100
AcDbSpline
210
0.0
220
0.0
230
1.0
 70
     8
 71
     3
 72
    12
 73
     8
 74
     0
 42
0.00000001
 43
0.00000001
 40
0.0
 40
0.0
 40
0.0
 40
0.0
 40
0.2499999999999991
 40
0.2499999999999991
 40
0.4999999999999982
 40
0.4999999999999982
 40
1.0
 40
1.0
 40
1.0
 40
1.0
 10
178.0036480308075
 20
134.1688984504714
 30
0.0
 10
177.9405679923141
 20
134.1688984504714
 30
0.0
 10
177.8814193701327
 20
134.160992524259
 30
0.0
 10
177.7829468200636
 20
134.1376673628227
 30
0.0
 10
177.7439102080789
 20
134.122954572991
 30
0.0
 10
177.6440137412999
 20
134.0749987722601
 30
0.0
 10
177.6015928602332
 20
134.03873661568
 30
0.0
 10
177.5706353289152
 20
134.0011489517155
 30
0.0
  0
ELLIPSE
  5
E6
330
1F
100
AcDbEntity
  8
0
  6
Continuous
 62
     7
370
    15
100
AcDbEllipse
 10
193.8230454066
 20
104.1004064916
 30
0.0
 11
-14.75368316065607
 21
31.09325491558113
 31
0.0
210
0.0
220
0.0
230
1.0
 40
0.3419987131
 41
0.159142202627301
 42
1.089903569770977
  0
LINE
  5
E7
330
1F
100
AcDbEntity
  8
0
  6
Continuous
 62
     7
370
    15
100
AcDbLine
 10
167.4758912172
 20
73.1004064916
 30
0.0
 11
167.4758912172
 21
135.1004064848
 31
0.0
  0
ELLIPSE
  5
E8
330
1F
100
AcDbEntity
  8
0
  6
Continuous
 62
     7
370
    15
100
AcDbEllipse
 10
199.1225307133
 20
121.6652654513
 30
0.0
 11
0.3267812967788473
 21
3.43768568826765
 31
0.0
210
0.0
220
0.0
230
1.0
 40
0.2095444568
 41
0.0
 42
6.283185307179586
  0
LINE
  5
E9
330
1F
100
AcDbEntity
  8
0
  6
Continuous
 62
     7
370
    15
100
AcDbLine
 10
201.2842981874
 20
72.874588969
 30
0.0
 11
201.2842981874
 21
135.3262240142
 31
0.0
  0
LINE
  5
EA
330
1F
100
AcDbEntity
  8
0
  6
Continuous
 62
     7
370
    15
100
AcDbLine
 10
181.3811471056
 20
94.1910371709
 30
0.0
 11
181.3811471056
 21
74.1996640315
 31
0.0
  0
LINE
  5
EB
330
1F
100
AcDbEntity
  8
0
  6
Continuous
 62
     7
370
    15
100
AcDbLine
 10
180.9481344037
 20
94.7123400603
 30
0.0
 11
180.9481344037
 21
74.0319145327
 31
0.0
  0
LINE
  5
EC
330
1F
100
AcDbEntity
  8
0
  6
Continuous
 62
     7
370
    15
100
AcDbLine
 10
181.3811471056
 20
134.0011489517
 30
0.0
 11
181.3811471056
 21
114.0097758123
 31
0.0
  0
LINE
  5
ED
330
1F
100
AcDbEntity
  8
0
  6
Continuous
 62
     7
370
    15
100
AcDbLine
 10
180.9481344037
 20
134.1688984505
 30
0.0
 11
180.9481344037
 21
113.4884729229
 31
0.0
  0
LINE
  5
EE
330
1F
100
AcDbEntity
  8
0
  6
Continuous
 62
     7
370
    15
100
AcDbLine
 10
178.0036480308
 20
94.7123400603
 30
0.0
 11
178.0036480308
 21
74.0319145327
 31
0.0
  0
LINE
  5
EF
330
1F
100
AcDbEntity
  8
0
  6
Continuous
 62
     7
370
    15
100
AcDbLine
 10
177.5706353289
 20
94.1910371709
 30
0.0
 11
177.5706353289
 21
74.1996640315
 31
0.0
  0
LINE
  5
F0
330
1F
100
AcDbEntity
  8
0
  6
Continuous
 62
     7
370
    15
100
AcDbLine
 10
178.0036480308
 20
134.1688984505
 30
0.0
 11
178.0036480308
 21
113.4884729229
 31
0.0
  0
LINE
  5
F1
330
1F
100
AcDbEntity
  8
0
  6
Continuous
 62
     7
370
    15
100
AcDbLine
 10
177.5706353289
 20
134.0011489517
 30
0.0
 11
177.5706353289
 21
114.0097758123
 31
0.0
  0
SPLINE
  5
F2
330
1F
100
AcDbEntity
  8
0
  6
Continuous
 62
     7
370
    15
100
AcDbSpline
210
0.0
220
0.0
230
1.0
 70
     8
 71
     3
 72
    12
 73
     8
 74
     0
 42
0.00000001
 43
0.00000001
 40
0.0
 40
0.0
 40
0.0
 40
0.0
 40
0.5000000000000004
 40
0.5000000000000004
 40
0.7500000000000004
 40
0.7500000000000004
 40
1.0
 40
1.0
 40
1.0
 40
1.0
 10
166.6593789307845
 20
82.24561278912253
 30
0.0
 10
166.7158154316917
 20
82.24419490778078
 30
0.0
 10
166.7849000623804
 20
82.24263057153247
 30
0.0
 10
166.9037023340983
 20
82.23968637955804
 30
0.0
 10
166.9438876095685
 20
82.23864817646064
 30
0.0
 10
167.0172686569723
 20
82.23671428124601
 30
0.0
 10
167.0506782207149
 20
82.2358193939572
 30
0.0
 10
167.0809143283714
 20
82.23503560368486
 30
0.0
  0
SPLINE
  5
F3
330
1F
100
AcDbEntity
  8
0
  6
Continuous
 62
     7
370
    15
100
AcDbSpline
210
0.0
220
0.0
230
1.0
 70
     8
 71
     3
 72
    16
 73
    12
 74
     0
 42
0.00000001
 43
0.00000001
 40
0.0
 40
0.0
 40
0.0
 40
0.0
 40
0.0624999999999991
 40
0.0624999999999991
 40
0.1249999999999981
 40
0.1249999999999981
 40
0.2499999999999963
 40
0.2499999999999963
 40
0.4999999999999976
 40
0.4999999999999976
 40
1.0
 40
1.0
 40
1.0
 40
1.0
 10
167.0809143283342
 20
82.23503560370912
 30
0.0
 10
167.0924947359221
 20
82.23473541259777
 30
0.0
 10
167.1058042626834
 20
82.23340766433877
 30
0.0
 10
167.1351056927695
 20
82.22670898956378
 30
0.0
 10
167.1499197926538
 20
82.22135080645808
 30
0.0
 10
167.1857481943567
 20
82.20430515729073
 30
0.0
 10
167.1998678187197
 20
82.19284261951498
 30
0.0
 10
167.2343719628082
 20
82.16127929414274
 30
0.0
 10
167.2454765135128
 20
82.14338199509749
 30
0.0
 10
167.271652690729
 20
82.09322057748322
 30
0.0
 10
167.275891217241
 20
82.06547616528664
 30
0.0
 10
167.275891217241
 20
82.0408120033571
 30
0.0
  0
LINE
  5
F4
330
1F
100
AcDbEntity
  8
0
  6
Continuous
 62
     7
370
    15
100
AcDbLine
 10
167.2758912172
 20
97.0785191658
 30
0.0
 11
167.2758912172
 21
81.5605862127
 31
0.0
  0
SPLINE
  5
F5
330
1F
100
AcDbEntity
  8
0
  6
Continuous
 62
     7
370
    15
100
AcDbSpline
210
0.0
220
0.0
230
1.0
 70
     8
 71
     3
 72
    16
 73
    12
 74
     0
 42
0.00000001
 43
0.00000001
 40
0.0
 40
0.0
 40
0.0
 40
0.0
 40
0.500000000000002
 40
0.500000000000002
 40
0.750000000000003
 40
0.750000000000003
 40
0.8750000000000026
 40
0.8750000000000026
 40
0.9375000000000013
 40
0.9375000000000013
 40
1.0
 40
1.0
 40
1.0
 40
1.0
 10
167.275891217241
 20
97.0785191658482
 30
0.0
 10
167.275891217241
 20
97.1922117099761
 30
0.0
 10
167.2717449421631
 20
97.30653187132562
 30
0.0
 10
167.2457793467696
 20
97.47958016182274
 30
0.0
 10
167.2343184413921
 20
97.53875566898445
 30
0.0
 10
167.2000067036178
 20
97.6218787884526
 30
0.0
 10
167.1859819676882
 20
97.6500001045533
 30
0.0
 10
167.1499590046543
 20
97.67861591853074
 30
0.0
 10
167.1352044955647
 20
97.68440896643249
 30
0.0
 10
167.1058523344178
 20
97.68281554049545
 30
0.0
 10
167.0925124599137
 20
97.67631913717165
 30
0.0
 10
167.0809143283654
 20
97.6678033909685
 30
0.0
  0
SPLINE
  5
F6
330
1F
100
AcDbEntity
  8
0
  6
Continuous
 62
     7
370
    15
100
AcDbSpline
210
0.0
220
0.0
230
1.0
 70
     8
 71
     3
 72
    12
 73
     8
 74
     0
 42
0.00000001
 43
0.00000001
 40
0.0
 40
0.0
 40
0.0
 40
0.0
 40
0.2499999999999996
 40
0.2499999999999996
 40
0.4999999999999996
 40
0.4999999999999996
 40
1.0
 40
1.0
 40
1.0
 40
1.0
 10
167.0809143283724
 20
97.66780339095935
 30
0.0
 10
167.0507158869318
 20
97.6456306589143
 30
0.0
 10
167.0173485315958
 20
97.62655100303705
 30
0.0
 10
166.9441932557659
 20
97.60137795859434
 30
0.0
 10
166.9039405567419
 20
97.59582142217756
 30
0.0
 10
166.7862118134671
 20
97.60673323316435
 30
0.0
 10
166.7157533654081
 20
97.64866898857518
 30
0.0
 10
166.6593789307899
 20
97.69788077095673
 30
0.0
  0
SPLINE
  5
F7
330
1F
100
AcDbEntity
  8
0
  6
Continuous
 62
     7
370
    15
100
AcDbSpline
210
0.0
220
0.0
230
1.0
 70
     8
 71
     3
 72
    12
 73
     8
 74
     0
 42
0.00000001
 43
0.00000001
 40
0.0
 40
0.0
 40
0.0
 40
0.0
 40
0.4999999999999986
 40
0.4999999999999986
 40
0.7499999999999992
 40
0.7499999999999992
 40
1.0
 40
1.0
 40
1.0
 40
1.0
 10
166.1545708736813
 20
98.91423216283734
 30
0.0
 10
166.1983212255658
 20
98.6937851778628
 30
0.0
 10
166.2512113766903
 20
98.47824018805723
 30
0.0
 10
166.362822919832
 20
98.1658261114853
 30
0.0
 10
166.4053822637355
 20
98.0637466358694
 30
0.0
 10
166.5103594990729
 20
97.86930662322763
 30
0.0
 10
166.5719267421675
 20
97.77422172416398
 30
0.0
 10
166.6593789307899
 20
97.69788077095679
 30
0.0
  0
LINE
  5
F8
330
1F
100
AcDbEntity
  8
0
  6
Continuous
 62
     7
370
    15
100
AcDbLine
 10
166.1545708737
 20
98.9142321628
 30
0.0
 11
166.1545708737
 21
109.2865808204
 31
0.0
  0
SPLINE
  5
F9
330
1F
100
AcDbEntity
  8
0
  6
Continuous
 62
     7
370
    15
100
AcDbSpline
210
0.0
220
0.0
230
1.0
 70
     8
 71
     3
 72
    12
 73
     8
 74
     0
 42
0.00000001
 43
0.00000001
 40
0.0
 40
0.0
 40
0.0
 40
0.0
 40
0.2500000000000007
 40
0.2500000000000007
 40
0.5000000000000014
 40
0.5000000000000014
 40
1.0
 40
1.0
 40
1.0
 40
1.0
 10
166.6593789307898
 20
110.5029322122399
 30
0.0
 10
166.5708855232219
 20
110.4256823321317
 30
0.0
 10
166.5108274824561
 20
110.3323630082424
 30
0.0
 10
166.4049792094735
 20
110.136329955273
 30
0.0
 10
166.362445688196
 20
110.0340035970612
 30
0.0
 10
166.2512943813723
 20
109.7226591912854
 30
0.0
 10
166.1983635243246
 20
109.5072409381073
 30
0.0
 10
166.1545708736813
 20
109.2865808203595
 30
0.0
  0
SPLINE
  5
FA
330
1F
100
AcDbEntity
  8
0
  6
Continuous
 62
     7
370
    15
100
AcDbSpline
210
0.0
220
0.0
230
1.0
 70
     8
 71
     3
 72
    12
 73
     8
 74
     0
 42
0.00000001
 43
0.00000001
 40
0.0
 40
0.0
 40
0.0
 40
0.0
 40
0.5000000000000002
 40
0.5000000000000002
 40
0.7500000000000003
 40
0.7500000000000003
 40
1.0
 40
1.0
 40
1.0
 40
1.0
 10
166.6593789307898
 20
110.50293221224
 30
0.0
 10
166.7156874790854
 20
110.5520864794838
 30
0.0
 10
166.7859621398035
 20
110.5940437980876
 30
0.0
 10
166.9040000541271
 20
110.60500347562
 30
0.0
 10
166.944176294981
 20
110.5994947173727
 30
0.0
 10
167.018133389659
 20
110.5739374885837
 30
0.0
 10
167.0507497773704
 20
110.5551574407444
 30
0.0
 10
167.0809143283662
 20
110.5330095922277
 30
0.0
  0
SPLINE
  5
FB
330
1F
100
AcDbEntity
  8
0
  6
Continuous
 62
     7
370
    15
100
AcDbSpline
210
0.0
220
0.0
230
1.0
 70
     8
 71
     3
 72
    16
 73
    12
 74
     0
 42
0.00000001
 43
0.00000001
 40
0.0
 40
0.0
 40
0.0
 40
0.0
 40
0.0624999999999994
 40
0.0624999999999994
 40
0.1249999999999988
 40
0.1249999999999988
 40
0.2499999999999986
 40
0.2499999999999986
 40
0.5000000000000002
 40
0.5000000000000002
 40
1.0
 40
1.0
 40
1.0
 40
1.0
 10
167.0809143283344
 20
110.5330095921732
 30
0.0
 10
167.0925272281738
 20
110.5244830025779
 30
0.0
 10
167.1058784126063
 20
110.5179827410451
 30
0.0
 10
167.1352782522254
 20
110.5164133439276
 30
0.0
 10
167.1501189767807
 20
110.5222967345582
 30
0.0
 10
167.1859521847493
 20
110.5508443706088
 30
0.0
 10
167.2000653925709
 20
110.5790113899146
 30
0.0
 10
167.2345567637898
 20
110.6627656483365
 30
0.0
 10
167.2456408349001
 20
110.7204790619579
 30
0.0
 10
167.2717636526961
 20
110.8940695986038
 30
0.0
 10
167.275891217241
 20
111.0090976512457
 30
0.0
 10
167.275891217241
 20
111.1222938173486
 30
0.0
  0
LINE
  5
FC
330
1F
100
AcDbEntity
  8
0
  6
Continuous
 62
     7
370
    15
100
AcDbLine
 10
167.2758912172
 20
126.6402267705
 30
0.0
 11
167.2758912172
 21
111.1222938173
 31
0.0
  0
SPLINE
  5
FD
330
1F
100
AcDbEntity
  8
0
  6
Continuous
 62
     7
370
    15
100
AcDbSpline
210
0.0
220
0.0
230
1.0
 70
     8
 71
     3
 72
    16
 73
    12
 74
     0
 42
0.00000001
 43
0.00000001
 40
0.0
 40
0.0
 40
0.0
 40
0.0
 40
0.4999999999999946
 40
0.4999999999999946
 40
0.7499999999999954
 40
0.7499999999999954
 40
0.874999999999996
 40
0.874999999999996
 40
0.937499999999998
 40
0.937499999999998
 40
1.0
 40
1.0
 40
1.0
 40
1.0
 10
167.275891217241
 20
126.1600009798397
 30
0.0
 10
167.275891217241
 20
126.1353298237967
 30
0.0
 10
167.271725518781
 20
126.1077479924055
 30
0.0
 10
167.2454671904561
 20
126.0574051215822
 30
0.0
 10
167.2339634087185
 20
126.0391156235203
 30
0.0
 10
167.199832649372
 20
126.0079605924833
 30
0.0
 10
167.1854107627013
 20
125.9963212172715
 30
0.0
 10
167.1498437942634
 20
125.9794391913404
 30
0.0
 10
167.1348920259688
 20
125.9740500875328
 30
0.0
 10
167.105888207609
 20
125.9674295915883
 30
0.0
 10
167.0924728535998
 20
125.9660770033819
 30
0.0
 10
167.0809143283632
 20
125.9657773795102
 30
0.0
  0
SPLINE
  5
FE
330
1F
100
AcDbEntity
  8
0
  6
Continuous
 62
     7
370
    15
100
AcDbSpline
210
0.0
220
0.0
230
1.0
 70
     8
 71
     3
 72
    12
 73
     8
 74
     0
 42
0.00000001
 43
0.00000001
 40
0.0
 40
0.0
 40
0.0
 40
0.0
 40
0.25
 40
0.25
 40
0.5
 40
0.5
 40
1.0
 40
1.0
 40
1.0
 40
1.0
 10
167.0809143283724
 20
125.965777379512
 30
0.0
 10
167.0507265518228
 20
125.9649948420944
 30
0.0
 10
167.0173727477311
 20
125.9641015102759
 30
0.0
 10
166.9442465445351
 20
125.9621742014723
 30
0.0
 10
166.9040113415109
 20
125.9611346702596
 30
0.0
 10
166.7863197113779
 20
125.9582167869124
 30
0.0
 10
166.7159390382178
 20
125.9566211808422
 30
0.0
 10
166.6593789307872
 20
125.9552001940743
 30
0.0
  0
SPLINE
  5
FF
330
1F
100
AcDbEntity
  8
0
  6
Continuous
 62
     7
370
    15
100
AcDbSpline
210
0.0
220
0.0
230
1.0
 70
     8
 71
     3
 72
    16
 73
    12
 74
     0
 42
0.00000001
 43
0.00000001
 40
0.0
 40
0.0
 40
0.0
 40
0.0
 40
0.2499999999999999
 40
0.2499999999999999
 40
0.3749999999999999
 40
0.3749999999999999
 40
0.4999999999999999
 40
0.4999999999999999
 40
0.7499999999999999
 40
0.7499999999999999
 40
1.0
 40
1.0
 40
1.0
 40
1.0
 10
166.1545708736813
 20
109.2865808203595
 30
0.0
 10
165.9933383961969
 20
108.4741710451126
 30
0.0
 10
165.8728585565573
 20
107.6340927507279
 30
0.0
 10
165.7504780392439
 20
106.3327977013651
 30
0.0
 10
165.7195003788465
 20
105.8921166657803
 30
0.0
 10
165.6778866412185
 20
104.9962770248492
 30
0.0
 10
165.6676507282857
 20
104.5496188936468
 30
0.0
 10
165.6674623312296
 20
103.2143089365069
 30
0.0
 10
165.7076070338672
 20
102.3298135631993
 30
0.0
 10
165.8717607888068
 20
100.5725636751733
 30
0.0
 10
165.9933124392164
 20
99.7267727287602
 30
0.0
 10
166.1545708736813
 20
98.91423216283734
 30
0.0
  0
LINE
  5
100
330
1F
100
AcDbEntity
  8
0
  6
Continuous
 62
     7
370
    15
100
AcDbLine
 10
165.4808512393
 20
97.7126851298
 30
0.0
 11
166.6593789308
 21
97.697880771
 31
0.0
  0
LINE
  5
101
330
1F
100
AcDbEntity
  8
0
  6
Continuous
 62
     7
370
    15
100
AcDbLine
 10
165.4808512393
 20
110.4881278534
 30
0.0
 11
165.4808512393
 21
97.7126851298
 31
0.0
  0
LINE
  5
102
330
1F
100
AcDbEntity
  8
0
  6
Continuous
 62
     7
370
    15
100
AcDbLine
 10
165.4808512393
 20
110.4881278534
 30
0.0
 11
166.6593789308
 21
110.5029322122
 31
0.0
  0
LWPOLYLINE
  5
103
330
1F
100
AcDbEntity
  8
0
  6
Continuous
 62
     7
370
    15
100
AcDbPolyline
 90
        9
 70
   128
 43
0.0
 10
165.2758912172
 20
97.6152282299
 10
165.2807129093
 20
97.6346828492
 10
165.2930327698
 20
97.6532933208
 10
165.3123773534
 20
97.6703444546
 10
165.3380032586
 20
97.6851809851
 10
165.3689256962
 20
97.6972327528
 10
165.4039563344
 20
97.706036615
 10
165.4417489653
 20
97.7112542442
 10
165.4808512393
 20
97.7126851298
  0
LINE
  5
104
330
1F
100
AcDbEntity
  8
0
  6
Continuous
 62
     7
370
    15
100
AcDbLine
 10
165.2758912172
 20
110.5855847533
 30
0.0
 11
165.2758912172
 21
97.6152282299
 31
0.0
  0
LWPOLYLINE
  5
105
330
1F
100
AcDbEntity
  8
0
  6
Continuous
 62
     7
370
    15
100
AcDbPolyline
 90
        9
 70
   128
 43
0.0
 10
165.2758912172
 20
110.5855847533
 10
165.2807129093
 20
110.566130134
 10
165.2930327698
 20
110.5475196624
 10
165.3123773534
 20
110.5304685286
 10
165.3380032586
 20
110.5156319981
 10
165.3689256962
 20
110.5035802304
 10
165.4039563344
 20
110.4947763682
 10
165.4417489653
 20
110.489558739
 10
165.4808512393
 20
110.4881278534
  0
LINE
  5
106
330
1F
100
AcDbEntity
  8
0
  6
Continuous
 62
     7
370
    15
100
AcDbLine
 10
130.9758912172
 20
98.0460959241
 30
0.0
 11
165.2758912172
 21
97.6152282299
 31
0.0
  0
LINE
  5
107
330
1F
100
AcDbEntity
  8
0
  6
Continuous
 62
     7
370
    15
100
AcDbLine
 10
130.9758912172
 20
110.1547170591
 30
0.0
 11
130.9758912172
 21
98.0460959241
 31
0.0
  0
LINE
  5
108
330
1F
100
AcDbEntity
  8
0
  6
Continuous
 62
     7
370
    15
100
AcDbLine
 10
130.9758912172
 20
110.1547170591
 30
0.0
 11
165.2758912172
 21
110.5855847533
 31
0.0
  0
LINE
  5
109
330
1F
100
AcDbEntity
  8
0
  6
Continuous
 62
     7
370
    15
100
AcDbLine
 10
129.4758912172
 20
98.4791086259
 30
0.0
 11
130.9758912172
 21
98.0460959241
 31
0.0
  0
LINE
  5
10A
330
1F
100
AcDbEntity
  8
0
  6
Continuous
 62
     7
370
    15
100
AcDbLine
 10
129.4758912172
 20
109.7217043573
 30
0.0
 11
129.4758912172
 21
98.4791086259
 31
0.0
  0
LINE
  5
10B
330
1F
100
AcDbEntity
  8
0
  6
Continuous
 62
     7
370
    15
100
AcDbLine
 10
129.4758912172
 20
109.7217043573
 30
0.0
 11
130.9758912172
 21
110.1547170591
 31
0.0
  0
LINE
  5
10C
330
1F
100
AcDbEntity
  8
0
  6
Continuous
 62
     7
370
    15
100
AcDbLine
 10
165.2758912172
 20
82.080307707
 30
0.0
 11
165.2758912172
 21
97.6152282299
 31
0.0
  0
LINE
  5
10D
330
1F
100
AcDbEntity
  8
0
  6
Continuous
 62
     7
370
    15
100
AcDbLine
 10
165.4808512393
 20
82.2752215068
 30
0.0
 11
165.4808512393
 21
97.7126851298
 31
0.0
  0
ARC
  5
10E
330
1F
100
AcDbEntity
  8
0
  6
Continuous
 62
     7
370
    15
100
AcDbCircle
 10
165.4758281282
 20
82.0752845959
 30
0.0
 40
0.2000000000000059
100
AcDbArc
 50
88.5608333333
 51
178.5608333333
  0
LINE
  5
10F
330
1F
100
AcDbEntity
  8
0
  6
Continuous
 62
     7
370
    15
100
AcDbLine
 10
130.9758912172
 20
82.9420430953
 30
0.0
 11
130.9758912172
 21
98.0460959241
 31
0.0
  0
LINE
  5
110
330
1F
100
AcDbEntity
  8
0
  6
Continuous
 62
     7
370
    15
100
AcDbLine
 10
130.9758912172
 20
82.9420430953
 30
0.0
 11
165.2758912172
 21
82.080307707
 31
0.0
  0
LINE
  5
111
330
1F
100
AcDbEntity
  8
0
  6
Continuous
 62
     7
370
    15
100
AcDbLine
 10
130.9758912172
 20
110.1547170591
 30
0.0
 11
130.9758912172
 21
125.2587698879
 31
0.0
  0
LINE
  5
112
330
1F
100
AcDbEntity
  8
0
  6
Continuous
 62
     7
370
    15
100
AcDbLine
 10
130.9758912172
 20
125.2587698879
 30
0.0
 11
165.2758912172
 21
126.1205052762
 31
0.0
  0
LINE
  5
113
330
1F
100
AcDbEntity
  8
0
  6
Continuous
 62
     7
370
    15
100
AcDbLine
 10
165.2758912172
 20
110.5855847533
 30
0.0
 11
165.2758912172
 21
126.1205052762
 31
0.0
  0
ARC
  5
114
330
1F
100
AcDbEntity
  8
0
  6
Continuous
 62
     7
370
    15
100
AcDbCircle
 10
165.4758281282
 20
126.1255283873
 30
0.0
 40
0.2000000000000055
100
AcDbArc
 50
181.4391666667
 51
271.4391666667
  0
LINE
  5
115
330
1F
100
AcDbEntity
  8
0
  6
Continuous
 62
     7
370
    15
100
AcDbLine
 10
165.4808512393
 20
110.4881278534
 30
0.0
 11
165.4808512393
 21
125.9255914764
 31
0.0
  0
LINE
  5
116
330
1F
100
AcDbEntity
  8
0
  6
Continuous
 62
     7
370
    15
100
AcDbLine
 10
167.0809143284
 20
82.2350356037
 30
0.0
 11
167.0809143284
 21
97.667803391
 31
0.0
  0
LINE
  5
117
330
1F
100
AcDbEntity
  8
0
  6
Continuous
 62
     7
370
    15
100
AcDbLine
 10
167.0809143284
 20
110.5330095922
 30
0.0
 11
167.0809143284
 21
125.9657773795
 31
0.0
  0
LINE
  5
118
330
1F
100
AcDbEntity
  8
0
  6
Continuous
 62
     7
370
    15
100
AcDbLine
 10
165.4808512393
 20
125.9255914764
 30
0.0
 11
166.6593789308
 21
125.9552001941
 31
0.0
  0
LINE
  5
119
330
1F
100
AcDbEntity
  8
0
  6
Continuous
 62
     7
370
    15
100
AcDbLine
 10
165.4808512393
 20
82.2752215068
 30
0.0
 11
166.6593789308
 21
82.2456127891
 31
0.0
  0
LINE
  5
11A
330
1F
100
AcDbEntity
  8
0
  6
Continuous
 62
     7
370
    15
100
AcDbLine
 10
129.4758912172
 20
124.3927444841
 30
0.0
 11
130.9758912172
 21
125.2587698879
 31
0.0
  0
LINE
  5
11B
330
1F
100
AcDbEntity
  8
0
  6
Continuous
 62
     7
370
    15
100
AcDbLine
 10
129.4758912172
 20
109.7217043573
 30
0.0
 11
129.4758912172
 21
124.3927444841
 31
0.0
  0
LINE
  5
11C
330
1F
100
AcDbEntity
  8
0
  6
Continuous
 62
     7
370
    15
100
AcDbLine
 10
129.4758912172
 20
83.8080684991
 30
0.0
 11
130.9758912172
 21
82.9420430953
 31
0.0
  0
LINE
  5
11D
330
1F
100
AcDbEntity
  8
0
  6
Continuous
 62
     7
370
    15
100
AcDbLine
 10
129.4758912172
 20
83.8080684991
 30
0.0
 11
129.4758912172
 21
98.4791086259
 31
0.0
  0
SPLINE
  5
11E
330
1F
100
AcDbEntity
  8
0
  6
Continuous
 62
     7
370
    15
100
AcDbSpline
210
0.0
220
0.0
230
1.0
 70
     8
 71
     3
 72
    12
 73
     8
 74
     0
 42
0.00000001
 43
0.00000001
 40
0.0
 40
0.0
 40
0.0
 40
0.0
 40
0.2500000000000052
 40
0.2500000000000052
 40
0.5000000000000104
 40
0.5000000000000104
 40
1.0
 40
1.0
 40
1.0
 40
1.0
 10
204.708564229262
 20
135.5998426761718
 30
0.0
 10
204.8131389183189
 20
135.6001118747244
 30
0.0
 10
204.9165008703581
 20
135.6162770807686
 30
0.0
 10
205.1201061337813
 20
135.6827577464014
 30
0.0
 10
205.2168323717449
 20
135.7322809671892
 30
0.0
 10
205.4806497725386
 20
135.9281192109491
 30
0.0
 10
205.615555145089
 20
136.1214214056084
 30
0.0
 10
205.6744900555511
 20
136.3413127453241
 30
0.0
  0
SPLINE
  5
11F
330
1F
100
AcDbEntity
  8
0
  6
Continuous
 62
     7
370
    15
100
AcDbSpline
210
0.0
220
0.0
230
1.0
 70
     8
 71
     3
 72
     8
 73
     4
 74
     0
 42
0.00000001
 43
0.00000001
 40
0.0
 40
0.0
 40
0.0
 40
0.0
 40
1.0
 40
1.0
 40
1.0
 40
1.0
 10
205.6744900555511
 20
136.3413127453241
 30
0.0
 10
205.8428114101909
 20
136.9693345389322
 30
0.0
 10
206.0112018010827
 20
137.5975829130598
 30
0.0
 10
206.1796421386481
 20
138.2260515092401
 30
0.0
  0
ELLIPSE
  5
120
330
1F
100
AcDbEntity
  8
0
  6
Continuous
 62
     7
370
    15
100
AcDbEllipse
 10
207.0798531451
 20
78.9616739083
 30
0.0
 11
5.984573931208048
 21
8.612441559279702
 31
0.0
210
0.0
220
0.0
230
0.9999999999999998
 40
0.0499243758
 41
1.499073054357167
 42
2.423980361535604
  0
LINE
  5
121
330
1F
100
AcDbEntity
  8
0
  6
Continuous
 62
     7
370
    15
100
AcDbLine
 10
220.5075335322
 20
139.154607624
 30
0.0
 11
222.4373399903
 21
139.2557444949
 31
0.0
  0
LINE
  5
122
330
1F
100
AcDbEntity
  8
0
  6
Continuous
 62
     7
370
    15
100
AcDbLine
 10
222.5400672959
 20
139.0894150975
 30
0.0
 11
222.4373399903
 21
139.2557444949
 31
0.0
  0
LINE
  5
123
330
1F
100
AcDbEntity
  8
0
  6
Continuous
 62
     7
370
    15
100
AcDbLine
 10
220.2475988362
 20
138.9692719164
 30
0.0
 11
222.5400672959
 21
139.0894150975
 31
0.0
  0
LINE
  5
124
330
1F
100
AcDbEntity
  8
0
  6
Continuous
 62
     7
370
    15
100
AcDbLine
 10
208.9534912287
 20
142.2149989428
 30
0.0
 11
207.2243006563
 21
142.1243759049
 31
0.0
  0
LWPOLYLINE
  5
125
330
1F
100
AcDbEntity
  8
0
  6
Continuous
 62
     7
370
    15
100
AcDbPolyline
 90
        3
 70
   128
 43
0.0
 10
208.6922330929
 20
147.6029233755
 10
210.2120073743
 20
147.682573261
 10
216.3643706851
 20
148.0050125418
  0
LINE
  5
126
330
1F
100
AcDbEntity
  8
0
  6
Continuous
 62
     7
370
    15
100
AcDbLine
 10
207.2243006563
 20
142.1243759049
 30
0.0
 11
208.6922330929
 21
147.6029233755
 31
0.0
  0
ARC
  5
127
330
1F
100
AcDbEntity
  8
0
  6
Continuous
 62
     7
370
    15
100
AcDbCircle
 10
239.9758912172
 20
129.2383949965
 30
0.0
 40
20.02624659905783
100
AcDbArc
 50
150.5341007649
 51
180.0
  0
LINE
  5
128
330
1F
100
AcDbEntity
  8
0
  6
Continuous
 62
     7
370
    15
100
AcDbLine
 10
219.9496446182
 20
129.2383949965
 30
0.0
 11
219.9496446182
 21
98.2568319282
 31
0.0
  0
LINE
  5
129
330
1F
100
AcDbEntity
  8
0
  6
Continuous
 62
     7
370
    15
100
AcDbLine
 10
219.9496446182
 20
98.2568319282
 30
0.0
 11
207.0798531451
 21
79.8768648888
 31
0.0
  0
LINE
  5
12A
330
1F
100
AcDbEntity
  8
0
  6
Continuous
 62
     7
370
    15
100
AcDbLine
 10
207.1894976388
 20
141.9614421494
 30
0.0
 11
208.7324530846
 21
142.0423050178
 31
0.0
  0
SPLINE
  5
12B
330
1F
100
AcDbEntity
  8
0
  6
Continuous
 62
     7
370
    15
100
AcDbSpline
210
0.0
220
0.0
230
1.0
 70
     8
 71
     3
 72
     8
 73
     4
 74
     0
 42
0.00000001
 43
0.00000001
 40
0.0
 40
0.0
 40
0.0
 40
0.0
 40
1.0
 40
1.0
 40
1.0
 40
1.0
 10
207.2243006562836
 20
142.124375904927
 30
0.0
 10
207.2106443550051
 20
142.0699625926895
 30
0.0
 10
207.1990358952391
 20
142.0156509706982
 30
0.0
 10
207.1894976388431
 20
141.9614421493821
 30
0.0
  0
ARC
  5
12C
330
1F
100
AcDbEntity
  8
0
  6
Continuous
 62
     7
370
    15
100
AcDbCircle
 10
239.9758912172
 20
129.2383949965
 30
0.0
 40
20.41644603838341
100
AcDbArc
 50
142.1154241676
 51
150.6603426415
  0
LINE
  5
12D
330
1F
100
AcDbEntity
  8
0
  6
Continuous
 62
     7
370
    15
100
AcDbLine
 10
206.9017109655
 20
140.6119725143
 30
0.0
 11
207.2611859795
 21
141.9651991761
 31
0.0
  0
LINE
  5
12E
330
1F
100
AcDbEntity
  8
0
  6
Continuous
 62
     8
370
    15
100
AcDbLine
 10
167.9758912172
 20
72.6004064916
 30
0.0
 11
167.9758912172
 21
135.6004064916
 31
0.0
  0
LINE
  5
12F
330
1F
100
AcDbEntity
  8
0
  6
Continuous
 62
     8
370
    15
100
AcDbLine
 10
204.7085642293
 20
135.6004064916
 30
0.0
 11
204.7085642293
 21
135.5998426762
 31
0.0
  0
LINE
  5
130
330
1F
100
AcDbEntity
  8
0
  6
Continuous
 62
     8
370
    15
100
AcDbLine
 10
207.0798531451
 20
79.8768648888
 30
0.0
 11
207.0798531451
 21
138.2528969881
 31
0.0
  0
LINE
  5
131
330
1F
100
AcDbEntity
  8
VERMASSUNG
  6
CENTERX2
100
AcDbLine
 10
125.6707100522
 20
104.1004064916
 30
0.0
 11
232.4758912172
 21
104.1004064916
 31
0.0
  0
LINE
  5
132
330
1F
100
AcDbEntity
  8
VERMASSUNG
  6
CENTERX2
100
AcDbLine
 10
232.4758912172
 20
149.1004064916
 30
0.0
 11
232.4758912172
 21
104.1004064916
 31
0.0
  0
LINE
  5
133
330
1F
100
AcDbEntity
  8
VERMASSUNG
100
AcDbLine
 10
232.4758912172
 20
149.1004064916
 30
0.0
 11
242.3158660878
 21
149.1004064916
 31
0.0
  0
LINE
  5
134
330
1F
100
AcDbEntity
  8
VERMASSUNG
100
AcDbLine
 10
232.4758912172
 20
149.1004064916
 30
0.0
 11
232.4758912172
 21
155.3205804502
 31
0.0
  0
DIMENSION
  5
135
330
1F
100
AcDbEntity
  8
VERMASSUNG
100
AcDbDimension
  2
*D1
 10
232.0720490059
 20
149.1007540682
 30
0.0
 11
222.5480954525
 21
158.5430449481
 31
0.0
 70
   162
 71
     1
 42
-1.0
  3
SLDDIMSTYLE0
100
AcDb2LineAngularDimension
 13
232.4758912172
 23
155.3205804502
 33
0.0
 14
232.4758912172
 24
149.1004064916
 34
0.0
 15
216.8637510633
 25
148.3037209464
 35
0.0
 16
222.5480954525
 26
158.5430449481
 36
0.0
  0
DIMENSION
  5
13F
330
1F
100
AcDbEntity
  8
VERMASSUNG
100
AcDbDimension
  2
*D2
 10
242.723552336
 20
104.1004064916
 30
0.0
 11
242.723552336
 21
126.6004064916
 31
0.0
 70
   160
 71
     2
 42
-1.0
  3
SLDDIMSTYLE1
100
AcDbAlignedDimension
 13
242.3158660878
 23
149.1004064916
 33
0.0
 14
232.4758912172
 24
104.1004064916
 34
0.0
 50
90.0
100
AcDbRotatedDimension
  0
DIMENSION
  5
14A
330
1F
100
AcDbEntity
  8
VERMASSUNG
100
AcDbDimension
  2
*D3
 10
232.4758912172
 20
172.2118114137
 30
0.0
 11
180.9758912172
 21
172.2118114137
 31
0.0
 70
   160
 71
     2
 42
-1.0
  3
SLDDIMSTYLE1
100
AcDbAlignedDimension
 13
129.4758912172
 23
124.3927444841
 33
0.0
 14
232.4758912172
 24
149.1004064916
 34
0.0
100
AcDbRotatedDimension
  0
DIMENSION
  5
154
330
1F
100
AcDbEntity
  8
VERMASSUNG
100
AcDbDimension
  2
*D4
 10
232.4758912172
 20
166.2118114137
 30
0.0
 11
199.9758912172
 21
166.2118114137
 31
0.0
 70
   160
 71
     2
 42
-1.0
  3
SLDDIMSTYLE1
100
AcDbAlignedDimension
 13
167.4758912172
 23
135.1004064916
 33
0.0
 14
232.4758912172
 24
149.1004064916
 34
0.0
100
AcDbRotatedDimension
  0
DIMENSION
  5
15E
330
1F
100
AcDbEntity
  8
VERMASSUNG
100
AcDbDimension
  2
*D5
 10
119.4758912172
 20
72.6004064916
 30
0.0
 11
119.4758912172
 21
104.1004064916
 31
0.0
 70
   160
  1
PSC%%c<>
 71
     2
 42
-1.0
  3
SLDDIMSTYLE1
100
AcDbAlignedDimension
 13
167.9758912172
 23
135.6004064916
 33
0.0
 14
167.9758912172
 24
72.6004064916
 34
0.0
 50
90.0
100
AcDbRotatedDimension
  0
LINE
  5
16A
330
1F
100
AcDbEntity
  8
VERMASSUNG
  6
CENTERX2
370
     0
100
AcDbLine
 10
207.0798531451
 20
90.223036614
 30
0.0
 11
207.0798531451
 21
133.8733059194
 31
0.0
  0
SPLINE
  5
16B
330
1F
100
AcDbEntity
  8
0
  6
Continuous
 62
     7
370
    15
100
AcDbSpline
210
0.0
220
0.0
230
1.0
 70
    24
 71
     3
 72
    15
 73
    11
 74
     0
 42
0.00000001
 43
0.00000001
 40
0.0
 40
0.0
 40
0.0
 40
0.0
 40
0.1369000477164355
 40
0.2736149103439043
 40
0.4079015928398358
 40
0.5393415024250681
 40
0.6692135844691901
 40
0.7996832109443722
 40
0.9324943167149852
 40
1.0
 40
1.0
 40
1.0
 40
1.0
 10
62.35281245674499
 20
148.3957398174613
 30
0.0
 10
62.35281245674499
 20
148.4274884686411
 30
0.0
 10
62.35281245674499
 20
148.4909428245087
 30
0.0
 10
62.35281245674491
 20
148.6206933955965
 30
0.0
 10
62.35281245674523
 20
148.7567313647856
 30
0.0
 10
62.35281245674433
 20
148.8856516338755
 30
0.0
 10
62.35281245674515
 20
148.9932425517827
 30
0.0
 10
62.35281245674494
 20
149.068930873641
 30
0.0
 10
62.35281245674499
 20
149.1009866203983
 30
0.0
 10
62.35281245674499
 20
149.100813180164
 30
0.0
 10
62.35281245674499
 20
149.1007547317355
 30
0.0
  0
SPLINE
  5
16C
330
1F
100
AcDbEntity
  8
0
  6
Continuous
 62
     7
370
    15
100
AcDbSpline
210
0.0
220
0.0
230
1.0
 70
     8
 71
     3
 72
    11
 73
     7
 74
     0
 42
0.00000001
 43
0.00000001
 40
0.0
 40
0.0
 40
0.0
 40
0.0
 40
0.2783803006594964
 40
0.56252832764094
 40
0.7836080735855114
 40
1.0
 40
1.0
 40
1.0
 40
1.0
 10
62.35281245675714
 20
149.1007547317355
 30
0.0
 10
62.79413700587597
 20
149.0592572223218
 30
0.0
 10
63.68592985175829
 20
148.9754024218332
 30
0.0
 10
64.93665505591594
 20
148.8679620755841
 30
0.0
 10
66.09176341205834
 20
148.7657582184338
 30
0.0
 10
66.77490283207027
 20
148.6981559058085
 30
0.0
 10
67.11281238015347
 20
148.6647169528812
 30
0.0
  0
SPLINE
  5
16D
330
1F
100
AcDbEntity
  8
0
  6
Continuous
 62
     7
370
    15
100
AcDbSpline
210
0.0
220
0.0
230
1.0
 70
    24
 71
     3
 72
    15
 73
    11
 74
     0
 42
0.00000001
 43
0.00000001
 40
0.0
 40
0.0
 40
0.0
 40
0.0
 40
0.1386220222066651
 40
0.2774102798414461
 40
0.412096644551705
 40
0.5418263706353178
 40
0.6691715810797213
 40
0.7974712005983222
 40
0.9295843438848834
 40
1.0
 40
1.0
 40
1.0
 40
1.0
 10
67.11281238015347
 20
148.6647169528812
 30
0.0
 10
67.11281238015347
 20
148.6642081185558
 30
0.0
 10
67.11281238015347
 20
148.6631898397115
 30
0.0
 10
67.11281238015349
 20
148.6470004950046
 30
0.0
 10
67.11281238015349
 20
148.6221394698419
 30
0.0
 10
67.11281238015347
 20
148.5912479097341
 30
0.0
 10
67.11281238015349
 20
148.5581444423128
 30
0.0
 10
67.11281238015349
 20
148.5259482499291
 30
0.0
 10
67.11281238015347
 20
148.5018606598635
 30
0.0
 10
67.11281238015347
 20
148.4906362764693
 30
0.0
 10
67.11281238015347
 20
148.4867337582915
 30
0.0
  0
LINE
  5
16E
330
1F
100
AcDbEntity
  8
0
  6
Continuous
 62
     7
370
    15
100
AcDbLine
 10
67.1128123802
 20
143.4140953658
 30
0.0
 11
67.1128123802
 21
148.4867337583
 31
0.0
  0
LINE
  5
16F
330
1F
100
AcDbEntity
  8
0
  6
Continuous
 62
     7
370
    15
100
AcDbLine
 10
62.3528124567
 20
139.0197280286
 30
0.0
 11
62.3528124567
 21
148.3957398175
 31
0.0
  0
SPLINE
  5
170
330
1F
100
AcDbEntity
  8
0
  6
Continuous
 62
     7
370
    15
100
AcDbSpline
210
0.0
220
0.0
230
1.0
 70
    24
 71
     3
 72
    10
 73
     6
 74
     0
 42
0.00000001
 43
0.00000001
 40
0.0
 40
0.0
 40
0.0
 40
0.0
 40
0.2724577961786159
 40
0.5448190313230732
 40
1.0
 40
1.0
 40
1.0
 40
1.0
 10
62.35281245674506
 20
138.9358009634822
 30
0.0
 10
62.35281245674506
 20
138.9380616615325
 30
0.0
 10
62.35281245674506
 20
138.9425822564252
 30
0.0
 10
62.35281245674506
 20
138.9666949409892
 30
0.0
 10
62.35281245674506
 20
138.9993177984294
 30
0.0
 10
62.35281245674506
 20
139.0197280286162
 30
0.0
  0
LINE
  5
171
330
1F
100
AcDbEntity
  8
0
  6
Continuous
 62
     7
370
    15
100
AcDbLine
 10
62.3528124568
 20
138.1387676535
 30
0.0
 11
62.5814248058
 21
138.1599533795
 31
0.0
  0
LINE
  5
172
330
1F
100
AcDbEntity
  8
0
  6
Continuous
 62
     7
370
    15
100
AcDbLine
 10
62.3528124567
 20
138.1387676535
 30
0.0
 11
62.3528124567
 21
138.9358009635
 31
0.0
  0
SPLINE
  5
173
330
1F
100
AcDbEntity
  8
0
  6
Continuous
 62
     7
370
    15
100
AcDbSpline
210
0.0
220
0.0
230
1.0
 70
     8
 71
     3
 72
    24
 73
    20
 74
     0
 42
0.00000001
 43
0.00000001
 40
0.0
 40
0.0
 40
0.0
 40
0.0
 40
0.0556377457378169
 40
0.1116228251977546
 40
0.1679661594650842
 40
0.2246784568988145
 40
0.2817702125225131
 40
0.3392517078284636
 40
0.3971330109718297
 40
0.4554239773310059
 40
0.5141342504102417
 40
0.5732732630606379
 40
0.6328502389957426
 40
0.6928741945784206
 40
0.7533539408559814
 40
0.8142980858213523
 40
0.8757150368786842
 40
0.9376130034924055
 40
1.0
 40
1.0
 40
1.0
 40
1.0
 10
67.11282132911484
 20
148.4995126944481
 30
0.0
 10
67.28736609081753
 20
148.4774132325581
 30
0.0
 10
67.63754525725136
 20
148.4330763468918
 30
0.0
 10
68.16040310781155
 20
148.3583261981859
 30
0.0
 10
68.68340536544933
 20
148.2772778668086
 30
0.0
 10
69.206173533935
 20
148.1893248876238
 30
0.0
 10
69.7286891728052
 20
148.0946078677247
 30
0.0
 10
70.25083559490014
 20
147.9930670047713
 30
0.0
 10
70.77252188602152
 20
147.8846984623198
 30
0.0
 10
71.29364938284527
 20
147.7694850269086
 30
0.0
 10
71.81412070221528
 20
147.6474148328749
 30
0.0
 10
72.33383757664151
 20
147.5184765636658
 30
0.0
 10
72.85270049830946
 20
147.3826598293813
 30
0.0
 10
73.37061248769382
 20
147.2399586419517
 30
0.0
 10
73.88746433223447
 20
147.0903570689076
 30
0.0
 10
74.40319057459816
 20
146.9338838164854
 30
0.0
 10
74.91755819454285
 20
146.7704061428275
 30
0.0
 10
75.43096459425213
 20
146.6004080777648
 30
0.0
 10
75.76992320771373
 20
146.4819748995546
 30
0.0
 10
75.9400693726493
 20
146.4225253081492
 30
0.0
  0
LINE
  5
174
330
1F
100
AcDbEntity
  8
0
  6
Continuous
 62
     7
370
    15
100
AcDbLine
 10
75.9398570087
 20
146.422077292
 30
0.0
 11
75.878110322
 21
145.9306369959
 31
0.0
  0
SPLINE
  5
175
330
1F
100
AcDbEntity
  8
0
  6
Continuous
 62
     7
370
    15
100
AcDbSpline
210
0.0
220
0.0
230
1.0
 70
     8
 71
     3
 72
    23
 73
    19
 74
     0
 42
0.00000001
 43
0.00000001
 40
0.0
 40
0.0
 40
0.0
 40
0.0
 40
0.0656843730024206
 40
0.1308483653607701
 40
0.1955111049076534
 40
0.2596921676412075
 40
0.3234115735061395
 40
0.3866897806253581
 40
0.4495476779091263
 40
0.5120065759775516
 40
0.574088196342829
 40
0.63581465880996
 40
0.6972084670686522
 40
0.7582924924646194
 40
0.8190899559554309
 40
0.8796244082741654
 40
0.9399197083431844
 40
1.0
 40
1.0
 40
1.0
 40
1.0
 10
75.87833113284202
 20
145.931114576849
 30
0.0
 10
75.70050487270689
 20
145.9932586396887
 30
0.0
 10
75.346261170692
 20
146.1170544326265
 30
0.0
 10
74.80936209499357
 20
146.294443674468
 30
0.0
 10
74.27114382603384
 20
146.4647656760546
 30
0.0
 10
73.73106331557634
 20
146.6274924162995
 30
0.0
 10
73.18926436562062
 20
146.7827635836564
 30
0.0
 10
72.64570883862157
 20
146.9305419691291
 30
0.0
 10
72.10040684599564
 20
147.0708372618284
 30
0.0
 10
71.55335569035185
 20
147.2036466312507
 30
0.0
 10
71.00455624443255
 20
147.3289708705119
 30
0.0
 10
70.45400791075114
 20
147.446808681586
 30
0.0
 10
69.90171253964566
 20
147.5571635004788
 30
0.0
 10
69.34766383966245
 20
147.660022037661
 30
0.0
 10
68.79188556839395
 20
147.7554327677927
 30
0.0
 10
68.23429026144107
 20
147.8432152942069
 30
0.0
 10
67.67520304940255
 20
147.9240380784284
 30
0.0
 10
67.30006035661494
 20
147.9717044141236
 30
0.0
 10
67.1128240400788
 20
147.9954950124478
 30
0.0
  0
LINE
  5
176
330
1F
100
AcDbEntity
  8
0
  6
Continuous
 62
     7
370
    15
100
AcDbLine
 10
62.652812471
 20
139.0894133089
 30
0.0
 11
62.652812471
 21
129.2383953421
 31
0.0
  0
LINE
  5
177
330
1F
100
AcDbEntity
  8
0
  6
Continuous
 62
     7
370
    15
100
AcDbLine
 10
62.652812471
 20
139.0894133089
 30
0.0
 11
64.612812436
 21
139.2557437955
 31
0.0
  0
SPLINE
  5
178
330
1F
100
AcDbEntity
  8
0
  6
Continuous
 62
     7
370
    15
100
AcDbSpline
210
0.0
220
0.0
230
1.0
 70
     8
 71
     3
 72
     8
 73
     4
 74
     0
 42
0.00000001
 43
0.00000001
 40
0.0000002010787913
 40
0.0000002010787913
 40
0.0000002010787913
 40
0.0000002010787913
 40
0.0025136268209944
 40
0.0025136268209944
 40
0.0025136268209944
 40
0.0025136268209944
 10
64.61281245674505
 20
139.2557444948859
 30
0.0
 10
65.4461261601476
 20
139.2512085977104
 30
0.0
 10
66.27945982970098
 20
139.2466827373735
 30
0.0
 10
67.11281245674505
 20
139.2421664697325
 30
0.0
  0
SPLINE
  5
179
330
1F
100
AcDbEntity
  8
0
  6
Continuous
 62
     7
370
    15
100
AcDbSpline
210
0.0
220
0.0
230
1.0
 70
     8
 71
     3
 72
    42
 73
    38
 74
     0
 42
0.00000001
 43
0.00000001
 40
0.0
 40
0.0
 40
0.0
 40
0.0
 40
0.023593031712572
 40
0.0474667027393645
 40
0.0716225249899153
 40
0.0960619465225803
 40
0.1207863542252027
 40
0.1457970763812328
 40
0.1710953851255193
 40
0.1966824987939821
 40
0.2225595841713504
 40
0.2487277586410959
 40
0.2751880922416102
 40
0.3019416096326026
 40
0.3289892919755797
 40
0.3563320787321742
 40
0.3839708693839595
 40
0.4119065250772884
 40
0.4401398701965402
 40
0.4686716938690745
 40
0.4975027514050285
 40
0.526633765674988
 40
0.5560654284284421
 40
0.5857984015557943
 40
0.6158333182965964
 40
0.6461707843965466
 40
0.6768113792156867
 40
0.7077556567901188
 40
0.7390041468494479
 40
0.7705573557920756
 40
0.8024157676203455
 40
0.8345798448374595
 40
0.8670500293079972
 40
0.8998267430837659
 40
0.9329103891966383
 40
0.9663013524199582
 40
1.0
 40
1.0
 40
1.0
 40
1.0
 10
94.35281245674562
 20
133.793367635511
 30
0.0
 10
94.22594839477061
 20
133.9303317647712
 30
0.0
 10
93.97071122171722
 20
134.2058892127818
 30
0.0
 10
93.58037849333495
 20
134.6139906259656
 30
0.0
 10
93.18174041383075
 20
135.0211093704681
 30
0.0
 10
92.77440785292531
 20
135.4264747523641
 30
0.0
 10
92.35848689683826
 20
135.8300188654773
 30
0.0
 10
91.9339485907659
 20
136.2314792622297
 30
0.0
 10
91.50080079988341
 20
136.6306438095661
 30
0.0
 10
91.05904135127665
 20
137.02728410433
 30
0.0
 10
90.60867080845864
 20
137.4211738079946
 30
0.0
 10
90.14968898929924
 20
137.8120838380603
 30
0.0
 10
89.68209591515203
 20
138.1997838745447
 30
0.0
 10
89.2058915522639
 20
138.5840421519889
 30
0.0
 10
88.72107588229284
 20
138.9646257253115
 30
0.0
 10
88.22764888314153
 20
139.3413006131317
 30
0.0
 10
87.72561053421674
 20
139.7138319809974
 30
0.0
 10
87.21496081502822
 20
140.0819843201996
 30
0.0
 10
86.69569970559466
 20
140.4455216341652
 30
0.0
 10
86.16782718635295
 20
140.8042076290756
 30
0.0
 10
85.63134323819637
 20
141.1578059095204
 30
0.0
 10
85.0862478424769
 20
141.506080178874
 30
0.0
 10
84.5325409810014
 20
141.8487944442884
 30
0.0
 10
83.9702226360724
 20
142.1857132264667
 30
0.0
 10
83.39929279033798
 20
142.5166017730152
 30
0.0
 10
82.8197514273589
 20
142.8412262793795
 30
0.0
 10
82.23159852944812
 20
143.1593541015889
 30
0.0
 10
81.63483408583622
 20
143.4707540199109
 30
0.0
 10
81.02945806171935
 20
143.7751963288621
 30
0.0
 10
80.41547051544843
 20
144.0724536032892
 30
0.0
 10
79.79287115473399
 20
144.362298921956
 30
0.0
 10
79.16166101693383
 20
144.6445137347325
 30
0.0
 10
78.52183610773446
 20
144.9188592358182
 30
0.0
 10
77.87341148118573
 20
145.1851858992007
 30
0.0
 10
77.2163300976912
 20
145.4430200771589
 30
0.0
 10
76.55080775389044
 20
145.6931297304839
 30
0.0
 10
76.10300970850416
 20
145.851384073414
 30
0.0
 10
75.87808384684232
 20
145.9308741355347
 30
0.0
  0
LINE
  5
17A
330
1F
100
AcDbEntity
  8
0
  6
Continuous
 62
     7
370
    15
100
AcDbLine
 10
94.3528139767
 20
133.7933673946
 30
0.0
 11
94.3528139767
 21
129.2383953421
 31
0.0
  0
LINE
  5
17B
330
1F
100
AcDbEntity
  8
0
  6
Continuous
 62
     7
370
    15
100
AcDbLine
 10
67.1128123802
 20
143.4140953658
 30
0.0
 11
67.1128123802
 21
139.2421651123
 31
0.0
  0
LINE
  5
17C
330
1F
100
AcDbEntity
  8
0
  6
Continuous
 62
     7
370
    15
100
AcDbLine
 10
94.3528139767
 20
134.2417191206
 30
0.0
 11
94.3528139767
 21
133.7933673946
 31
0.0
  0
SPLINE
  5
17D
330
1F
100
AcDbEntity
  8
0
  6
Continuous
 62
     7
370
    15
100
AcDbSpline
210
0.0
220
0.0
230
1.0
 70
     8
 71
     3
 72
    35
 73
    31
 74
     0
 42
0.00000001
 43
0.00000001
 40
0.0
 40
0.0
 40
0.0
 40
0.0
 40
0.0318942408599541
 40
0.0632864430022384
 40
0.0941775972111211
 40
0.1245687113217456
 40
0.154460811854411
 40
0.1838549457793187
 40
0.2127521824241362
 40
0.2411536155383111
 40
0.2690603655295807
 40
0.2964735818897731
 40
0.3233944458291255
 40
0.3498241731403963
 40
0.3757640173166843
 40
0.4012152729496675
 40
0.4261792794381342
 40
0.4506574250404149
 40
0.4746511513083599
 40
0.4981619579452946
 40
0.5532800390006261
 40
0.6072467501114589
 40
0.660080678052094
 40
0.7118014525298854
 40
0.7624298204075469
 40
0.8119877236633924
 40
0.8604983808231977
 40
0.9079863714514793
 40
0.9544777231125411
 40
1.0
 40
1.0
 40
1.0
 40
1.0
 10
75.94000573398492
 20
146.4225393544777
 30
0.0
 10
76.15224452891674
 20
146.3464666623874
 30
0.0
 10
76.57338132465661
 20
146.1955187181132
 30
0.0
 10
77.19740559277996
 20
145.9584805242567
 30
0.0
 10
77.80945393157424
 20
145.7164213335267
 30
0.0
 10
78.40937677105465
 20
145.4688849042016
 30
0.0
 10
78.9972642246252
 20
145.2165172162782
 30
0.0
 10
79.57315465690161
 20
144.9596655810503
 30
0.0
 10
80.13711031736598
 20
144.6987448707133
 30
0.0
 10
80.68919700992792
 20
144.4341417274873
 30
0.0
 10
81.22948885507239
 20
144.1662395490623
 30
0.0
 10
81.75806650809481
 20
143.895411934025
 30
0.0
 10
82.27501709307089
 20
143.6220243823286
 30
0.0
 10
82.78043371672291
 20
143.3464338485618
 30
0.0
 10
83.27441504354957
 20
143.0689888943114
 30
0.0
 10
83.75706508389769
 20
142.7900296077726
 30
0.0
 10
84.22849215010176
 20
142.5098879219014
 30
0.0
 10
84.68881089874417
 20
142.2288866607277
 30
0.0
 10
85.13813322597022
 20
141.9473432029141
 30
0.0
 10
85.77607484844278
 20
141.5373608103063
 30
0.0
 10
86.59442114610962
 20
140.9892041489912
 30
0.0
 10
87.58253259979881
 20
140.2885644204261
 30
0.0
 10
88.53837019050268
 20
139.5724768875315
 30
0.0
 10
89.46213353046323
 20
138.8424823152277
 30
0.0
 10
90.35411113623658
 20
138.1000780105226
 30
0.0
 10
91.21459660933789
 20
137.3466644916534
 30
0.0
 10
92.04406489652285
 20
136.5837927425694
 30
0.0
 10
92.84254855341165
 20
135.8122533107145
 30
0.0
 10
93.61187014005381
 20
135.035371754668
 30
0.0
 10
94.10744312623501
 20
134.5043715106872
 30
0.0
 10
94.35261996634827
 20
134.2416675991568
 30
0.0
  0
SPLINE
  5
17E
330
1F
100
AcDbEntity
  8
0
  6
Continuous
 62
     7
370
    15
100
AcDbSpline
210
0.0
220
0.0
230
1.0
 70
     8
 71
     3
 72
    12
 73
     8
 74
     0
 42
0.00000001
 43
0.00000001
 40
0.0
 40
0.0
 40
0.0
 40
0.0
 40
0.5
 40
0.5
 40
0.75
 40
0.75
 40
1.0
 40
1.0
 40
1.0
 40
1.0
 10
81.94230085790323
 20
79.43257431726852
 30
0.0
 10
82.37669200356854
 20
79.7775377599188
 30
0.0
 10
82.83816876910795
 20
80.09591567126353
 30
0.0
 10
83.56218080551076
 20
80.54227272407796
 30
0.0
 10
83.80838420785653
 20
80.68482164117692
 30
0.0
 10
84.31319826901739
 20
80.9523132991679
 30
0.0
 10
84.57200217267743
 20
81.0779884532953
 30
0.0
 10
84.84161457108077
 20
81.18713977229307
 30
0.0
  0
ARC
  5
17F
330
1F
100
AcDbEntity
  8
0
  6
Continuous
 62
     7
370
    15
100
AcDbCircle
 10
62.3528124567
 20
104.1004064916
 30
0.0
 40
31.5
100
AcDbArc
 50
266.1983221083
 51
308.4541757923
  0
ELLIPSE
  5
180
330
1F
100
AcDbEntity
  8
0
  6
Continuous
 62
     7
370
    15
100
AcDbEllipse
 10
56.6528124567
 20
78.9616739083
 30
0.0
 11
1.206643027822729
 21
8.577870657123883
 31
0.0
210
0.0
220
0.0
230
0.9999999999999999
 40
0.6851835035
 41
3.989969726570881
 42
4.914877033749288
  0
LINE
  5
181
330
1F
100
AcDbEntity
  8
0
  6
Continuous
 62
     7
370
    15
100
AcDbLine
 10
93.9629511711
 20
99.1205241023
 30
0.0
 11
62.652812471
 21
98.2568318447
 31
0.0
  0
ARC
  5
182
330
1F
100
AcDbEntity
  8
0
  6
Continuous
 62
     7
370
    15
100
AcDbCircle
 10
62.3528124567
 20
104.1004064916
 30
0.0
 40
32.00000000000001
100
AcDbArc
 50
314.2014937147
 51
351.0471674415
  0
LINE
  5
183
330
1F
100
AcDbEntity
  8
0
  6
Continuous
 62
     7
370
    15
100
AcDbLine
 10
84.6626931604
 20
81.1598490415
 30
0.0
 11
84.8416151282
 21
81.1871405183
 31
0.0
  0
LINE
  5
184
330
1F
100
AcDbEntity
  8
0
  6
Continuous
 62
     7
370
    15
100
AcDbLine
 10
62.652812471
 20
98.2568318447
 30
0.0
 11
62.652812471
 21
79.8768646507
 31
0.0
  0
LINE
  5
185
330
1F
100
AcDbEntity
  8
0
  6
Continuous
 62
     7
370
    15
100
AcDbLine
 10
94.3528139767
 20
129.2383953421
 30
0.0
 11
94.3528139767
 21
104.1004064916
 31
0.0
  0
ARC
  5
186
330
1F
100
AcDbEntity
  8
0
  6
Continuous
 62
     7
370
    15
100
AcDbCircle
 10
62.3528124567
 20
104.1004064916
 30
0.0
 40
32.00000000000001
100
AcDbArc
 50
351.0471674415
 51
0.0
  0
LINE
  5
187
330
1F
100
AcDbEntity
  8
0
  6
Continuous
 62
     7
370
    15
100
AcDbLine
 10
62.652812471
 20
129.2383953421
 30
0.0
 11
62.652812471
 21
98.2568318447
 31
0.0
  0
SPLINE
  5
188
330
1F
100
AcDbEntity
  8
0
  6
Continuous
 62
     7
370
    15
100
AcDbSpline
210
0.0
220
0.0
230
1.0
 70
     8
 71
     3
 72
    10
 73
     6
 74
     0
 42
0.00000001
 43
0.00000001
 40
0.0
 40
0.0
 40
0.0
 40
0.0
 40
0.5
 40
0.5
 40
1.0
 40
1.0
 40
1.0
 40
1.0
 10
60.26426415399641
 20
72.66972138950297
 30
0.0
 10
59.95912103470977
 20
72.68999794859837
 30
0.0
 10
59.62918317792581
 20
72.71644796071972
 30
0.0
 10
58.93676646117461
 20
72.78425028952755
 30
0.0
 10
58.5776323914868
 20
72.82519635756495
 30
0.0
 10
58.20572672736074
 20
72.8745889690237
 30
0.0
  0
SPLINE
  5
189
330
1F
100
AcDbEntity
  8
0
  6
Continuous
 62
     7
370
    15
100
AcDbSpline
210
0.0
220
0.0
230
1.0
 70
     8
 71
     3
 72
    14
 73
    10
 74
     0
 42
0.00000001
 43
0.00000001
 40
0.0
 40
0.0
 40
0.0
 40
0.0
 40
0.25
 40
0.25
 40
0.5
 40
0.5
 40
0.75
 40
0.75
 40
1.0
 40
1.0
 40
1.0
 40
1.0
 10
58.20572672736074
 20
135.3262240141731
 30
0.0
 10
58.64260485499485
 20
135.3842455871001
 30
0.0
 10
59.0593232635869
 20
135.4302921585485
 30
0.0
 10
59.85295808955483
 20
135.5035836415693
 30
0.0
 10
60.23248247002503
 20
135.5308133488692
 30
0.0
 10
60.9133737475689
 20
135.5693481749262
 30
0.0
 10
61.2202301285157
 20
135.5811932534214
 30
0.0
 10
61.75920437857539
 20
135.5959666124015
 30
0.0
 10
61.98413692381691
 20
135.5987644550877
 30
0.0
 10
62.16434480969013
 20
135.5998426761718
 30
0.0
  0
SPLINE
  5
18A
330
1F
100
AcDbEntity
  8
0
  6
Continuous
 62
     7
370
    15
100
AcDbSpline
210
0.0
220
0.0
230
1.0
 70
     8
 71
     3
 72
    12
 73
     8
 74
     0
 42
0.00000001
 43
0.00000001
 40
0.0
 40
0.0
 40
0.0
 40
0.0
 40
0.2500000000000052
 40
0.2500000000000052
 40
0.5000000000000104
 40
0.5000000000000104
 40
1.0
 40
1.0
 40
1.0
 40
1.0
 10
62.16434480969013
 20
135.5998426761718
 30
0.0
 10
62.20933716121046
 20
135.6001118747244
 30
0.0
 10
62.25028134753637
 20
135.6162770807686
 30
0.0
 10
62.32477355495801
 20
135.6827577464014
 30
0.0
 10
62.35698888053403
 20
135.7322809671892
 30
0.0
 10
62.43869604319832
 20
135.9281192109491
 30
0.0
 10
62.47170464570188
 20
136.1214214056084
 30
0.0
 10
62.485903797235
 20
136.3413127453241
 30
0.0
  0
SPLINE
  5
18B
330
1F
100
AcDbEntity
  8
0
  6
Continuous
 62
     7
370
    15
100
AcDbSpline
210
0.0
220
0.0
230
1.0
 70
     8
 71
     3
 72
     8
 73
     4
 74
     0
 42
0.00000001
 43
0.00000001
 40
0.0
 40
0.0
 40
0.0
 40
0.0
 40
1.0
 40
1.0
 40
1.0
 40
1.0
 10
62.4859037972351
 20
136.3413127453241
 30
0.0
 10
62.52645735712094
 20
136.9693345389322
 30
0.0
 10
62.55933510826075
 20
137.5975829130598
 30
0.0
 10
62.58489641972493
 20
138.2260515092401
 30
0.0
  0
ELLIPSE
  5
18C
330
1F
100
AcDbEntity
  8
0
  6
Continuous
 62
     7
370
    15
100
AcDbEllipse
 10
56.6528124567
 20
137.7535272371
 30
0.0
 11
5.999937380141675
 21
0.5270835013601243
 31
0.0
210
0.0
220
0.0
230
1.0
 40
0.0520075156
 41
6.12801273099098
 42
6.278616574049317
  0
ARC
  5
18D
330
1F
100
AcDbEntity
  8
0
  6
Continuous
 62
     7
370
    15
100
AcDbCircle
 10
62.3528124567
 20
104.1004064916
 30
0.0
 40
32.10551373655944
100
AcDbArc
 50
314.4643565255
 51
4.6464506928
  0
ELLIPSE
  5
18E
330
1F
100
AcDbEntity
  8
0
  6
Continuous
 62
     7
370
    15
100
AcDbEllipse
 10
50.1379006801
 20
121.6652654513
 30
0.0
 11
2.156649216541937
 21
3.149035452977189
 31
0.0
210
0.0
220
0.0
230
0.9999999999999998
 40
0.6401414518
 41
0.0
 42
6.283185307179586
  0
ARC
  5
18F
330
1F
100
AcDbEntity
  8
0
  6
Continuous
 62
     7
370
    15
100
AcDbCircle
 10
62.3528124567
 20
104.1004064916
 30
0.0
 40
31.50000000000001
100
AcDbArc
 50
97.5651530928
 51
262.4348469072
  0
INSERT
  5
19B
330
1F
100
AcDbEntity
  8
VERMASSUNG
100
AcDbBlockReference
  2
SW_CENTERMARKSYMBOL_0
 10
62.3528124567
 20
104.1004064916
 30
0.0
  0
OLE2FRAME
  5
19C
330
1F
100
AcDbEntity
  8
0
100
AcDbOle2Frame
 70
     2
  3
Paintbrush-Bild
 10
13.8511154363
 20
38.264191557
 30
0.0
 11
51.6290888628
 21
31.9806341108
 31
0.0
 71
     2
 72
     0
 73
     1
 90
    12928
310
80552BED0767C5B32B40DDAF6807D121434000000000000000006FFBDDFB85D0
310
4940DDAF6807D121434000000000000000006FFBDDFB85D04940416F4BD60AFB
310
3F4000000000000000002BED0767C5B32B40416F4BD60AFB3F40000000000000
310
0000000000000100000000010000010000000100000000000100000000320000
310
D0CF11E0A1B11AE1000000000000000000000000000000003E000300FEFF0900
310
0600000000000000000000000100000001000000000000000010000002000000
310
01000000FEFFFFFF0000000000000000FFFFFFFFFFFFFFFFFFFFFFFFFFFFFFFF
310
FFFFFFFFFFFFFFFFFFFFFFFFFFFFFFFFFFFFFFFFFFFFFFFFFFFFFFFFFFFFFFFF
310
FFFFFFFFFFFFFFFFFFFFFFFFFFFFFFFFFFFFFFFFFFFFFFFFFFFFFFFFFFFFFFFF
310
FFFFFFFFFFFFFFFFFFFFFFFFFFFFFFFFFFFFFFFFFFFFFFFFFFFFFFFFFFFFFFFF
310
FFFFFFFFFFFFFFFFFFFFFFFFFFFFFFFFFFFFFFFFFFFFFFFFFFFFFFFFFFFFFFFF
310
FFFFFFFFFFFFFFFFFFFFFFFFFFFFFFFFFFFFFFFFFFFFFFFFFFFFFFFFFFFFFFFF
310
FFFFFFFFFFFFFFFFFFFFFFFFFFFFFFFFFFFFFFFFFFFFFFFFFFFFFFFFFFFFFFFF
310
FFFFFFFFFFFFFFFFFFFFFFFFFFFFFFFFFFFFFFFFFFFFFFFFFFFFFFFFFFFFFFFF
310
FFFFFFFFFFFFFFFFFFFFFFFFFFFFFFFFFFFFFFFFFFFFFFFFFFFFFFFFFFFFFFFF
310
FFFFFFFFFFFFFFFFFFFFFFFFFFFFFFFFFFFFFFFFFFFFFFFFFFFFFFFFFFFFFFFF
310
FFFFFFFFFFFFFFFFFFFFFFFFFFFFFFFFFFFFFFFFFFFFFFFFFFFFFFFFFFFFFFFF
310
FFFFFFFFFFFFFFFFFFFFFFFFFFFFFFFFFFFFFFFFFFFFFFFFFFFFFFFFFFFFFFFF
310
FFFFFFFFFFFFFFFFFFFFFFFFFFFFFFFFFFFFFFFFFFFFFFFFFFFFFFFFFFFFFFFF
310
FFFFFFFFFFFFFFFFFFFFFFFFFFFFFFFFFFFFFFFFFFFFFFFFFFFFFFFFFFFFFFFF
310
FDFFFFFFFEFFFFFFFEFFFFFFFEFFFFFF05000000060000000700000008000000
310
090000000A0000000B0000000C0000000D0000000E0000000F00000010000000
310
11000000120000001300000014000000150000001600000017000000FEFFFFFF
310
FFFFFFFFFFFFFFFFFFFFFFFFFFFFFFFFFFFFFFFFFFFFFFFFFFFFFFFFFFFFFFFF
310
FFFFFFFFFFFFFFFFFFFFFFFFFFFFFFFFFFFFFFFFFFFFFFFFFFFFFFFFFFFFFFFF
310
FFFFFFFFFFFFFFFFFFFFFFFFFFFFFFFFFFFFFFFFFFFFFFFFFFFFFFFFFFFFFFFF
310
FFFFFFFFFFFFFFFFFFFFFFFFFFFFFFFFFFFFFFFFFFFFFFFFFFFFFFFFFFFFFFFF
310
FFFFFFFFFFFFFFFFFFFFFFFFFFFFFFFFFFFFFFFFFFFFFFFFFFFFFFFFFFFFFFFF
310
FFFFFFFFFFFFFFFFFFFFFFFFFFFFFFFFFFFFFFFFFFFFFFFFFFFFFFFFFFFFFFFF
310
FFFFFFFFFFFFFFFFFFFFFFFFFFFFFFFFFFFFFFFFFFFFFFFFFFFFFFFFFFFFFFFF
310
FFFFFFFFFFFFFFFFFFFFFFFFFFFFFFFFFFFFFFFFFFFFFFFFFFFFFFFFFFFFFFFF
310
FFFFFFFFFFFFFFFFFFFFFFFFFFFFFFFFFFFFFFFFFFFFFFFFFFFFFFFFFFFFFFFF
310
FFFFFFFFFFFFFFFFFFFFFFFFFFFFFFFFFFFFFFFFFFFFFFFFFFFFFFFFFFFFFFFF
310
FFFFFFFFFFFFFFFFFFFFFFFFFFFFFFFFFFFFFFFFFFFFFFFFFFFFFFFFFFFFFFFF
310
FFFFFFFFFFFFFFFFFFFFFFFFFFFFFFFFFFFFFFFFFFFFFFFFFFFFFFFFFFFFFFFF
310
FFFFFFFFFFFFFFFFFFFFFFFFFFFFFFFFFFFFFFFFFFFFFFFFFFFFFFFFFFFFFFFF
310
52006F006F007400200045006E00740072007900000000000000000000000000
310
0000000000000000000000000000000000000000000000000000000000000000
310
16000500FFFFFFFFFFFFFFFF020000000A00030000000000C000000000000046
310
000000000000000000000000202C54D0DDB0CC0103000000C000000000000000
310
01004F006C006500000000000000000000000000000000000000000000000000
310
0000000000000000000000000000000000000000000000000000000000000000
310
0A000200FFFFFFFFFFFFFFFFFFFFFFFF00000000000000000000000000000000
310
0000000000000000000000000000000000000000000000001400000000000000
310
010043006F006D0070004F0062006A0000000000000000000000000000000000
310
0000000000000000000000000000000000000000000000000000000000000000
310
120002010100000003000000FFFFFFFF00000000000000000000000000000000
310
0000000000000000000000000000000000000000010000004D00000000000000
310
01004F006C006500310030004E00610074006900760065000000000000000000
310
0000000000000000000000000000000000000000000000000000000000000000
310
1A000200FFFFFFFFFFFFFFFFFFFFFFFF00000000000000000000000000000000
310
0000000000000000000000000000000000000000040000002426000000000000
310
FEFFFFFF02000000FEFFFFFFFFFFFFFFFFFFFFFFFFFFFFFFFFFFFFFFFFFFFFFF
310
FFFFFFFFFFFFFFFFFFFFFFFFFFFFFFFFFFFFFFFFFFFFFFFFFFFFFFFFFFFFFFFF
310
FFFFFFFFFFFFFFFFFFFFFFFFFFFFFFFFFFFFFFFFFFFFFFFFFFFFFFFFFFFFFFFF
310
FFFFFFFFFFFFFFFFFFFFFFFFFFFFFFFFFFFFFFFFFFFFFFFFFFFFFFFFFFFFFFFF
310
FFFFFFFFFFFFFFFFFFFFFFFFFFFFFFFFFFFFFFFFFFFFFFFFFFFFFFFFFFFFFFFF
310
FFFFFFFFFFFFFFFFFFFFFFFFFFFFFFFFFFFFFFFFFFFFFFFFFFFFFFFFFFFFFFFF
310
FFFFFFFFFFFFFFFFFFFFFFFFFFFFFFFFFFFFFFFFFFFFFFFFFFFFFFFFFFFFFFFF
310
FFFFFFFFFFFFFFFFFFFFFFFFFFFFFFFFFFFFFFFFFFFFFFFFFFFFFFFFFFFFFFFF
310
FFFFFFFFFFFFFFFFFFFFFFFFFFFFFFFFFFFFFFFFFFFFFFFFFFFFFFFFFFFFFFFF
310
FFFFFFFFFFFFFFFFFFFFFFFFFFFFFFFFFFFFFFFFFFFFFFFFFFFFFFFFFFFFFFFF
310
FFFFFFFFFFFFFFFFFFFFFFFFFFFFFFFFFFFFFFFFFFFFFFFFFFFFFFFFFFFFFFFF
310
FFFFFFFFFFFFFFFFFFFFFFFFFFFFFFFFFFFFFFFFFFFFFFFFFFFFFFFFFFFFFFFF
310
FFFFFFFFFFFFFFFFFFFFFFFFFFFFFFFFFFFFFFFFFFFFFFFFFFFFFFFFFFFFFFFF
310
FFFFFFFFFFFFFFFFFFFFFFFFFFFFFFFFFFFFFFFFFFFFFFFFFFFFFFFFFFFFFFFF
310
FFFFFFFFFFFFFFFFFFFFFFFFFFFFFFFFFFFFFFFFFFFFFFFFFFFFFFFFFFFFFFFF
310
FFFFFFFFFFFFFFFFFFFFFFFFFFFFFFFFFFFFFFFFFFFFFFFFFFFFFFFFFFFFFFFF
310
0100000200000000000000000000000000000000000000000000000000000000
310
0000000000000000000000000000000000000000000000000000000000000000
310
0100FEFF030A0000FFFFFFFF0A00030000000000C00000000000004607000000
310
5042727573680007000000504272757368000700000050427275736800F439B2
310
7100000000000000000000000000000000000000000000000000000000000000
310
0000000000000000000000000000000000000000000000000000000000000000
310
0000000000000000000000000000000000000000000000000000000000000000
310
0000000000000000000000000000000000000000000000000000000000000000
310
0000000000000000000000000000000000000000000000000000000000000000
310
0000000000000000000000000000000000000000000000000000000000000000
310
0000000000000000000000000000000000000000000000000000000000000000
310
0000000000000000000000000000000000000000000000000000000000000000
310
0000000000000000000000000000000000000000000000000000000000000000
310
0000000000000000000000000000000000000000000000000000000000000000
310
0000000000000000000000000000000000000000000000000000000000000000
310
0000000000000000000000000000000000000000000000000000000000000000
310
20260000424D0E260000000000003E00000028000000B40200006E0000000100
310
01000000000000000000130B0000130B00000200000002000000000000FFFFFF
310
FFFFFFFFFFFFFFFFFFFFFFFFFFFFFFFFFFFFFFFFFFFFFFFFFFFFFFFFFFFFFFFF
310
FFFFFFFFFFFFFFFFFFFFFFFFFFFFFFFFFFFFFFFFFFFFFFFFFFFFFFFFFFFFFFFF
310
FFFFFFFFFFFFFFFFFFFFFFFFFFFFFFFFFFFFFFFFFFFFFFFFF000FFFFFFFFFFFF
310
FFFFFFFFFFFFFFFFFFFFFFFFFFFFFFFFFFFFFFFFFFFFFFFFFFFFFFFFFFFFFFFF
310
FFFFFFFFFFFFFFFFFFFFFFFFFFFFFFFFFFFFFFFFFFFFFFFFFFFFFFFFFFFFFFFF
310
FFFFFFFFFFFFFFFFFFFFFFFFFFFFFFFFF000FFFFFFFFFFFFFFFFFFFFFFFFFFFF
310
FFFFFFFFFFFFFFFFFFFFFFFFFFFFFFFFFFFFFFFFFFFFFFFFFFFFFFFFFFFFFFFF
310
FFFFFFFFFFFFFFFFFFFFFFFFFFFFFFFFFFFFFFFFFFFFFFFFFFFFFFFFFFFFFFFF
310
FFFFFFFFFFFFFFFFF000FFFFFFFFFFFFFFFFFFFFFFFFFFFFFFFFFFFFFFFFFFFF
310
FFFFFFFFFFFFFFFFFFFFFFFFFFFFFFFFFFFFFFFFFFFFFFFFFFFFFFFFFFFFFFFF
310
FFFFFFFFFFFFFFFFFFFFFFFFFFFFFFFFFFFFFFFFFFFFFFFFFFFFFFFFFFFFFFFF
310
F000FFFFFFFFFFFFFFFFFFFFFFFFFFFFFFFFFFFFFFFFFFFFFFFFFFFFFFFFFFFF
310
FFFFFFFFFFFFFFFFFFFFFFFFFFFFFFFFFFFFFFFFFFFFFFFFFFFFFFFFFFFFFFFF
310
FFFFFFFFFFFFFFFFFFFFFFFFFFFFFFFFFFFFFFFFFFFFFFFFF000FFFFFFFFFFFF
310
FFFFFFFFFFFFFFFFFFFFFFFFFFFFFFFFFFFFFFFFFFFFFFFFFFFFFFFFFFFFFFFF
310
FFFFFFFFFFFFFFFFFFFFFFFFFFFFFFFFFFFFFFFFFFFFFFFFFFFFFFFFFFFFFFFF
310
FFFFFFFFFFFFFFFFFFFFFFFFFFFFFFFFF000FFFFFFFFFFFFFFFFFFFFFFFFFFFF
310
FFFFFFFFFFFFFFFFFFFFFFFFFFFFFFFFFFFFFFFFFFFFFFFFFFFFFFFFFFFFFFFF
310
FFFFFFFFFFFFFFFFFFFFFFFFFFFFFFFFFFFFFFFFFFFFFFFFFFFFFFFFFFFFFFFF
310
FFFFFFFFFFFFFFFFF000FFFFFFFFFFFFFFFFFFFFFFFFFFFFFFFFFFFFFFFFFFFF
310
FFFFFFFFFFFFFFFFFFFFFFFFFFFFFFFFFFFFFFFFFFFFFFFFFFFFFFFFFFFFFFFF
310
FFFFFFFFFFFFFFFFFFFFFFFFFFFFFFFFFFFFFFFFFFFFFFFFFFFFFFFFFFFFFFFF
310
F000FFFFFFFFFFFFFFFFFFFFFFFFFFFFFFFFFFFFFFFFFFFFFFFFFFFFFFFFFFFF
310
FFFFFFFFFFFFFFFFFFFFFFFFFFFFFFFFFFFFFFFFFFFFFFFFFFFFFFFFFFFFFFFF
310
FFFFFFFFFFFFFFFFFFFFFFFFFFFFFFFFFFFFFFFFFFFFFFFFF000FFFFFFFFFFFF
310
FFFFFFFFFFFFFFFFFFFFFFFFFFFFFFFFFFFFFFFFFFFFFFFFFFFFFFFFFFFFFFFF
310
FFFFFFFFFFFFFFFFFFFFFFFFFFFFFFFFFFFFFFFFFFFFFFFFFFFFFFFFFFFFFFFF
310
FFFFFFFFFFFFFFFFFFFFFFFFFFFFFFFFF000FFFFFFFFFFFFFFFFFFFFFFFFFFFF
310
FFFFFFFFFFFFFFFFFFFFFFFFFFFFFFFFFFFFFFFFFFFFFFFFFFFFFFFFFFFFFFFF
310
FFFFFFFFFFFFFFFFFFFFFFFFFFFFFFFFFFFFFFFFFFFFFFFFFFFFFFFFFFFFFFFF
310
FFFFFFFFFFFFFFFFF000FFFFFFFFFFFFFFFFFFFFFFFFFFFFFFFFFFFFFFFFFFFF
310
FFFFFFFFFFFFFFFFFFFFFFFFFFFFFFFFFFFFFFFFFFFFFFFFFFFFFFFFFFFFFFFF
310
FFFFFFFFFFFFFFFFFFFFFFFFFFFFFFFFFFFFFFFFFFFFFFFFFFFFFFFFFFFFFFFF
310
F000FFFFFFFFFFFFFFFFFFFFFFFFFFFFFFFFFFFFFFFFFFFFFFFFFFFFFFFFFFFF
310
FFFFFFFFFFFFFFFFFFFFFFFFFFFFFFFFFFFFFFFFFFFFFFFFFFFFFFFFFFFFFFFF
310
FFFFFFFFFFFFFFFFFFFFFFFFFFFFFFFFFFFFFFFFFFFFFFFFF000FFFFFFFFFFFF
310
FFFFFFFFFFFFFFFFFFFFFFFFFFFFFFFFFFFFFFFFFFFFFFFFFFFFFFFFFFFFFFFF
310
FFFFFFFFFFFFFFFFFFFFFFFFFFFFFFFFFFFFFFFFFFFFFFFFFFFFFFFFFFFFFFFF
310
FFFFFFFFFFFFFFFFFFFFFFFFFFFFFFFFF000FFFFFFFFFFFFFFFFFFFFFFFFFFFF
310
FFFFFFFFFFFFFFFFFFFFFFFFFFFFFFFFFFFFFFFFFFFFFFFFFFFFFFFFFFFFFFFF
310
FFFFFFFFFFFFFFFFFFFFFFFFFFFFFFFFFFFFFFFFFFFFFFFFFFFFFFFFFFFFFFFF
310
FFFFFFFFFFFFFFFFF000FFFFFFFFFFFFFFFFFFFFFFFFFFFFFFFFFFFFFFFFFFFF
310
FFFFFFFFFFFFFFFFFFFFFFFFFFFFFFFFFFFFFFFFFFFFFFFFFFFFFFFFFFFFFFFF
310
FFFFFFFFFFFFFFFFFFFFFFFFFFFFFFFFFFFFFFFFFFFFFFFFFFFFFFFFFFFFFFFF
310
F000FFFFFFFFFFFFFFFFFFFFFFFFFFFFFFFFFFFFFFFFFFFFFFFFFFFFFFFFFFFF
310
FFFFFFFFFFFFFFFFFFFFFFFFFFFFFFFFFFFFFFFFFFFFFFFFFFFFFFFFFFFFFFFF
310
FFFFFFFFFFFFFFFFFFFFFFFFFFFFFFFFFFFFFFFFFFFFFFFFF000FFFFFFFFFFFF
310
FFFFFFFFFFFFFFFFFFFFFFFFFFFFFFFFFFFFFFFFFFFFFFFFFFFFFFFFFFFFFFFF
310
FFFFFFFFFFFFFFFFFFFFFFFFFFFFFFFFFFFFFFFFFFFFFFFFFFFFFFFFFFFFFFFF
310
FFFFFFFFFFFFFFFFFFFFFFFFFFFFFFFFF000FFFFFFFFFFFFFFFFFFFFFFFFFFFF
310
FFFFFFFFFFFFFFFFFFFFFFFFFFFFFFFFFFFFFFFFFFFFFFFFFFFFFFFFFFFFFFFF
310
FFFFFFFFFFFFFFFFFFFFFFFFFFFFFFFFFFFFFFFFFFFFFFFFFFFFFFFFFFFFFFFF
310
FFFFFFFFFFFFFFFFF000FFFFF80003FFFFFFFFFFFFFFFFFFFFFFFFFFFFFFFFFF
310
FFFFF00007FFFFFFFFFF00007FFFFFF800000000000000007FFFFFFFFFFFFFFF
310
FFFFFFFC001FFFFFFFFFFFFFFC001FFFFFFFFFFFFFFFFFFFFFFFFFFE0007FFFF
310
F000FFFF8000007FFFFFFFF8000FFFFFC0007FFFFF80007FFFFF0000007FFFFF
310
FFF8000007FFFFF800000000000000007FFFFFF0001FFFFFFFFFFFC00001FFFF
310
FFFFFFFFC00001FFFFFFFF000000000003FFFFE000007FFFF000FFFE0000000F
310
FFFFFFF0000FFFFF80007FFFFF80007FFFFC0000001FFFFFFFC0000001FFFFF8
310
00000000000000007FFFFFF0001FFFFFFFFFFE0000003FFFFFFFFFFE0000003F
310
FFFFFF000000000003FFFF0000000FFFF000FFF800000003FFFFFFF00007FFFF
310
80007FFFFF80007FFFF000000007FFFFFF000000003FFFF80000000000000000
310
7FFFFFF0001FFFFFFFFFF80000000FFFFFFFFFF80000000FFFFFFF0000000000
310
03FFFC00000003FFF000FFE000000000FFFFFFF00007FFFF80003FFFFF80007F
310
FFC000000001FFFFFC000000001FFFF800000000000000007FFFFFF0001FFFFF
310
FFFFE000000003FFFFFFFFE000000003FFFFFF000000000003FFF000000000FF
310
F000FF80000000007FFFFFF00007FFFF80003FFFFF80007FFF8000000000FFFF
310
F80000000007FFF800000000000000007FFFFFF0001FFFFFFFFFC000000001FF
310
FFFFFFC000000001FFFFFF000000000003FFC0000000007FF000FF0000000000
310
3FFFFFE00007FFFF00003FFFFF80007FFE00000000003FFFF00000000003FFF8
310
00000000000000007FFFFFF0001FFFFFFFFF8000000000FFFFFFFF8000000000
310
FFFFFF000000000003FF80000000003FF000FE00000000001FFFFFE00003FFFF
310
00003FFFFF80007FFC00000000001FFFE00000000001FFF8000001FFFE000000
310
7FFFFFF0001FFFFFFFFE00000000003FFFFFFE00000000003FFFFF0000000000
310
03FF00000000001FF000FC00000000000FFFFFE00003FFFF00001FFFFF80007F
310
F800000000001FFFC00000000000FFF8000001FFFE0000007FFFFFF0001FFFFF
310
FFFC00000000001FFFFFFC00000000001FFFFF000000000003FE00000000000F
310
F000F8000000000007FFFFE00003FFFF00001FFFFF80007FF800000000000FFF
310
800000000000FFF8000001FFFE0000007FFFFFF0001FFFFFFFF800000000000F
310
FFFFF800000000000FFFFF000000000003FC000000000007F000F80000000000
310
03FFFFC00003FFFE00001FFFFF80007FF0000000000007FF0000000000007FF8
310
000001FFFE0000007FFFFFF0001FFFFFFFF0000000000007FFFFF00000000000
310
07FFFF000000000003F8000000000003F000F0000000000003FFFFC00001FFFE
310
00001FFFFF80007FE0000000000007FE0000000000003FF8000001FFFE000000
310
7FFFFFF0001FFFFFFFF0000000000007FFFFF0000000000007FFFF0000000000
310
03F800001F800003F000E00001FFF00001FFFFC00001FFFE00000FFFFF80007F
310
E00001FFE00003FE00001FFF00003FF8000001FFFE0000007FFFFFF0001FFFFF
310
FFE000003E000003FFFFE000003E000003FFFF000000000003F00001FFF80001
310
F000E00007FFFC0001FFFFC00001FFFE00000FFFFF80007FC0000FFFFC0003FC
310
0000FFFFC0001FF8000001FFFE0000007FFFFFF0001FFFFFFFC00003FFE00001
310
FFFFC00003FFE00001FFFF0001FFFFFFFFF00007FFFE0001F000E0000FFFFF00
310
00FFFF800001FFFC00000FFFFF80007FC0001FFFFE0001FC0001FFFFE0001FF8
310
000001FFFE0000007FFFFFF0001FFFFFFF80000FFFF80000FFFF80000FFFF800
310
00FFFF0003FFFFFFFFE0000FFFFF8000F000C0003FFFFF8000FFFF800000FFFC
310
000007FFFF80007F80003FFFFF0001FC0003FFFFF0001FF8000001FFFE000000
310
7FFFFFF0001FFFFFFF80003FFFFE0000FFFF80003FFFFE0000FFFF0003FFFFFF
310
FFE0003FFFFF8000F000C0003FFFFF8000FFFF800000FFFC000007FFFF80007F
310
80007FFFFF8001F80007FFFFF8000FF8000001FFFE0000007FFFFFF0001FFFFF
310
FF00007FFFFF00007FFF00007FFFFF00007FFF0003FFFFFFFFE0003FFFFFC000
310
F000C0007FFFFFC000FFFF000000FFFC000007FFFF80007F8000FFFFFF8000F8
310
000FFFFFF8000FF8000001FFFE0000007FFFFFF0001FFFFFFF0000FFFFFF8000
310
7FFF0000FFFFFF80007FFF0003FFFFFFFFC0007FFFFFC00070008000FFFFFFC0
310
00FFFF000000FFF8000007FFFF80007F8000FFFFFF8000F8000FFFFFF8000FF8
310
000001FFFE0000007FFFFFF0001FFFFFFE0001FFFFFFC0003FFE0001FFFFFFC0
310
003FFF0003FFFFFFFFC0007FFFFFE00070008000FFFFFFC0007FFF0000007FF8
310
000003FFFF80007F0001FFFFFF8000F8000FFFFFF8000FF8000001FFFE000000
310
7FFFFFF0001FFFFFFE0001FFFFFFC0003FFE0001FFFFFFC0003FFF0003FFFFFF
310
FFC000FFFFFFE00070008000FFFFFFC0007FFF0000007FF8000003FFFF80007F
310
0001FFFFFF8000F8001FFFFFF8000FF8000001FFFE0000007FFFFFF0001FFFFF
310
FE0003FFFFFFE0003FFE0003FFFFFFE0003FFF0003FFFFFFFFC000FFFFFFE000
310
70008000FFFFFFC0007FFE0000007FF8000003FFFF80007F0001FFFFFF8000F0
310
001FFFFFF8000FF8000001FFFE0000007FFFFFF0001FFFFFFC0003FFFFFFE000
310
1FFC0003FFFFFFE0001FFF0003FFFFFFFFC000FFFFFFC00070008000FFFFFF80
310
007FFE0000007FF0000003FFFF80007F0001FFFFFF0000F0001FFFFFF8000FF8
310
000001FFFE0000007FFFFFF0001FFFFFFC0007FFFFFFF0001FFC0007FFFFFFF0
310
001FFF0003FFFFFFFFC000FFFFFFC00070008001FFFFFF0000FFFE0000003FF0
310
000001FFFF80007F0001FFFFFF0000F8001FFFFFF0000FF8000001FFFE000000
310
7FFFFFF0001FFFFFFC0007FFFFFFF0001FFC0007FFFFFFF0001FFF0003FFFFFF
310
FFC001FFFFFF80007000FFFFFFFFFE0000FFFE0008003FF0008001FFFF80007F
310
FFFFFFFFFC0000FFFFFFFFFFE0000FF8000001FFFE0000007FFFFFF0001FFFFF
310
F8000FFFFFFFF8000FF8000FFFFFFFF8000FFF0003FFFFFFFFFFFFFFFFFF0000
310
7000FFFFFFFFFC0000FFFC0008003FF0008001FFFF80007FFFFFFFFFF80001FF
310
FFFFFFFF80000FF8000001FFFE0000007FFFFFF0001FFFFFF8000FFFFFFFF800
310
0FF8000FFFFFFFF8000FFF0003FFFFFFFFFFFFFFFFFE0000F000FFFFFFFFE000
310
00FFFC000C003FE000C001FFFF80007FFFFFFFFFC00001FFFFFFFFFE00001FF8
310
000001FFFE0000007FFFFFF0001FFFFFF8000FFFFFFFF8000FF8000FFFFFFFF8
310
000FFF0003FFFFFFFFFFFFFFFFF00000F000FFFFFFFE000001FFFC000C001FE0
310
00C000FFFF80007FFFFFFFFE000001FFFFFFFFE000001FF80FFFFFFFFFFFFFC0
310
7FFFFFF0001FFFFFF8000FFFFFFFF8000FF8000FFFFFFFF8000FFF0003FFFFFF
310
FFFFFFFFFF800000F000FFFFFFC0000001FFFC001C001FE001C000FFFF80007F
310
FFFFFF80000003FFFFFFF80000001FF80FFFFFFFFFFFFFC07FFFFFF0001FFFFF
310
F8001FFFFFFFFC000FF8001FFFFFFFFC000FFF0003FFFFFFFFFFFFFFF0000001
310
F000FFFFF800000001FFF8001C001FE001C000FFFF80007FFFFFF800000003FF
310
FFFF800000003FF80FFFFFFFFFFFFFC07FFFFFF0001FFFFFF8001FFFFFFFFC00
310
0FF8001FFFFFFFFC000FFF0003FFFFFFFFFFFFFE00000001F000FFFFC0000000
310
03FFF8001E001FC001E000FFFF80007FFFFF8000000007FFFFFC000000003FF8
310
0FFFFFFFFFFFFFC07FFFFFF0001FFFFFF8001FFFFFFFFC000FF8001FFFFFFFFC
310
000FFF0003FFFFFFFFFFFFE000000003F000FFFE0000000007FFF8001E000FC0
310
01E0007FFF80007FFFFE0000000007FFFFE0000000007FF80FFFFFFFFFFFFFC0
310
7FFFFFF0001FFFFFF0001FFFFFFFFC0007F0001FFFFFFFFC0007FF0003FFFFFF
310
FFFFFF0000000003F000FFF80000000007FFF8001E000FC003E0007FFF80007F
310
FFF0000000000FFFFF8000000000FFF80FFFFFFFFFFFFFC07FFFFFF0001FFFFF
310
F0001FFFFFFFFC0007F0001FFFFFFFFC0007FF0003FFFFFFFFFFFC0000000007
310
F000FFE0000000000FFFF0003E000FC003E0007FFF80007FFFC0000000001FFF
310
FE0000000001FFF80FFFFFFFFFFFFFC07FFFFFF0001FFFFFF0001FFFFFFFFC00
310
07F0001FFFFFFFFC0007FF0003FFFFFFFFFFF0000000000FF000FFC000000000
310
1FFFF0003F000F8003F0003FFF80007FFF80000000003FFFF80000000003FFF8
310
0FFFFFFFFFFFFFC07FFFFFF0001FFFFFF0001FFFFFFFFC0007F0001FFFFFFFFC
310
0007FF0003FFFFFFFFFFE0000000001FF000FF00000000007FFFF0003F000780
310
03F0003FFF80007FFF00000000007FFFF00000000007FFF80FFFFFFFFFFFFFC0
310
7FFFFFF0001FFFFFF0001FFFFFFFFC0007F0001FFFFFFFFC0007FF0003FFFFFF
310
FFFF80000000007FF000FE0000000000FFFFE0003F00078007F0003FFF80007F
310
FE0000000001FFFFE0000000001FFFF80FFFFFFFFFFFFFC07FFFFFF0001FFFFF
310
F0001FFFFFFFFC0007F0001FFFFFFFFC0007FF0003FFFFFFFFFF0000000000FF
310
F000FC0000000003FFFFE0007F00078007F0003FFF80007FFC0000000007FFFF
310
C0000000007FFFF80FFFFFFFFFFFFFC07FFFFFF0001FFFFFF8001FFFFFFFFC00
310
0FF8001FFFFFFFFC000FFF0003FFFFFFFFFE0000000003FFF000FC000000000F
310
FFFFE0007F80070007F8001FFF80007FF8000000001FFFFF8000000001FFFFF8
310
0FFFFFFFFFFFFFC07FFFFFF0001FFFFFF8001FFFFFFFFC000FF8001FFFFFFFFC
310
000FFF0003FFFFFFFFFC000000000FFFF000F8000000007FFFFFE0007F800700
310
07F8001FFF80007FF000000000FFFFFF800000000FFFFFF80FFFFFFFFFFFFFC0
310
7FFFFFF0001FFFFFF8000FFFFFFFF8000FF8000FFFFFFFF8000FFF0003FFFFFF
310
FFFC000000007FFFF000F800000007FFFFFFC0007F8003000FF8001FFF80007F
310
F000000007FFFFFF000000007FFFFFF80FFFFFFFFFFFFFC07FFFFFF0001FFFFF
310
F8000FFFFFFFF8000FF8000FFFFFFFF8000FFF0003FFFFFFFFF80000000FFFFF
310
F000F0000000FFFFFFFFC000FF8003000FF8001FFF80007FE0000000FFFFFFFF
310
0000000FFFFFFFF8000001FFFE0000007FFFFFF0001FFFFFF8000FFFFFFFF800
310
0FF8000FFFFFFFF8000FFF0003FFFFFFFFF8000000FFFFFFF000F000000FFFFF
310
FFFFC000FFC002000FF8000FFF80007FE000001FFFFFFFFE000001FFFFFFFFF8
310
000001FFFE0000007FFFFFF0001FFFFFF8000FFFFFFFF8000FF8000FFFFFFFF8
310
000FFF0003FFFFFFFFF000001FFFFFFFF000E00000FFFFFFFFFFC000FFC00200
310
0FFC000FFF80007FE00001FFFFFFFFFE00001FFFFFFFFFF8000001FFFE000000
310
7FFFFFF0001FFFFFFC000FFFFFFFF8001FFC000FFFFFFFF8001FFF0003FFFFFF
310
FFF00001FFFFFFFFF000E00007FFFFFFFFFF8000FFC000001FFC000FFF80007F
310
C0000FFFFFFFFFFE0000FFFFFFFFFFF8000001FFFE0000007FFFFFF0001FFFFF
310
FC0007FFFFFFF0001FFC0007FFFFFFF0001FFF0003FFFFFFFFF00007FFFFFFFF
310
F000E0001FFFFFFFFFFF8000FFC000001FFC000FFF80007FC0003FFFFFFFFFFE
310
0001FFFFFFFFFFF8000001FFFE0000007FFFFFF0001FFFFFFC0007FFFFFFF000
310
1FFC0007FFFFFFF0001FFF0003FFFFFFFFF0001FFFFFFFFFF000E0003FFFFF00
310
03FF8001FFE000001FFC0007FF80007FC0007FFFFF0007FC0003FFFFF0003FF8
310
000001FFFE0000007FFFFFF0001FFFFFFC0003FFFFFFE0001FFC0003FFFFFFE0
310
001FFF0003FFFFFFFFF0003FFFFFFFFFF000E0003FFFFF0001FF8001FFE00000
310
1FFE0007FF80007FC0007FFFFE0003FC0007FFFFE0003FF8000001FFFE000000
310
7FFFFFF0001FFFFFFE0003FFFFFFE0003FFE0003FFFFFFE0003FFF0003FFFFFF
310
FFF0003FFFFF8001F000E0003FFFFF0001FF0001FFE000001FFE0007FF80007F
310
C0007FFFFE0003FC0007FFFFE0003FF8000001FFFE0000007FFFFFF0001FFFFF
310
FE0001FFFFFFC0003FFE0001FFFFFFC0003FFF0003FFFFFFFFF0003FFFFF0001
310
F000E0003FFFFF0003FF0001FFE000003FFE0007FF80007FC0007FFFFE0003FC
310
0007FFFFE0003FF8000001FFFE0000007FFFFFF0001FFFFFFF0001FFFFFFC000
310
7FFF0001FFFFFFC0007FFF0003FFFFFFFFF0003FFFFF0001F000E0003FFFFE00
310
03FF0003FFF000003FFE0003FF80007FC0007FFFFC0003FE0007FFFFE0003FF8
310
000001FFFE0000007FFFFFF0001FFFFFFF0000FFFFFF80007FFF0000FFFFFF80
310
007FFF0003FFFFFFFFF0003FFFFF0001F000E0003FFFFE0003FF0003FFF00000
310
3FFF0003FF80007FC0007FFFFC0007FE0007FFFFC0003FF8000001FFFE000000
310
7FFFFFF0001FFFFFFF80007FFFFF0000FFFF80007FFFFF0000FFFF0003FFFFFF
310
FFF0003FFFFF0003F000E0003FFFFC0003FE0003FFF000003FFF0003FF80007F
310
E0003FFFF80007FE0003FFFFC0007FF8000001FFFE0000007FFFFFF0001FFFFF
310
FF80003FFFFE0000FFFF80003FFFFE0000FFFF0003FFFFFFFFF0001FFFFE0003
310
F000F0001FFFF80003FE0003FFF000007FFF0001FF80007FE0003FFFF00007FE
310
0001FFFF80007FF8000001FFFE0000007FFFFFF0001FFFFFFFC0000FFFF80001
310
FFFFC0000FFFF80001FFFF0003FFFFFFFFF0001FFFFC0003F000F0000FFFF000
310
07FE0007FFF800007FFF0001FF80007FE0001FFFE00007FF0000FFFE00007FF8
310
000001FFFE0000007FFFFFF0001FFFFFFFC00003FFE00001FFFFC00003FFE000
310
01FFFF0003FFFFFFFFF8000FFFF80003F000F00003FFC00007FC0007FFF80000
310
7FFF8001FF80007FF00007FF80000FFF00007FF80000FFF8000001FFFE000000
310
7F80000000000001FFE000003E000003FFFFE000003E000003FFFF0003FFFFFF
310
FFF80003FFE00007F000F800000000000FFC0007FFF800007FFF8001FF80007F
310
F000000000000FFF000000000000FFF8000001FFFE0000007F80000000000001
310
FFF0000000000007FFFFF0000000000007FFFF0003FFFFFFFFFC00007E000007
310
F000F800000000000FFC0007FFF80000FFFF8000FF80007FF800000000001FFF
310
800000000001FFF8000001FFFE0000007F80000000000001FFF800000000000F
310
FFFFF800000000000FFFFF0003FFFFFFFFFC00000000000FF000FC0000000000
310
1FFC0007FFFC0000FFFF8000FF80007FF800000000003FFFC00000000001FFF8
310
000001FFFE0000007F80000000000001FFF800000000000FFFFFF80000000000
310
0FFFFF0003FFFFFFFFFE00000000001FF000FE00000000003FF8000FFFFC0000
310
FFFF8000FF80007FFC00000000003FFFC00000000003FFF8000001FFFE000000
310
7F80000000000001FFFC00000000001FFFFFFC00000000001FFFFF0003FFFFFF
310
FFFF00000000001FF000FF00000000003FF8000FFFFC0000FFFFC000FF80007F
310
FE00000000007FFFE00000000007FFF8000001FFFE0000007F80000000000001
310
FFFE00000000003FFFFFFE00000000003FFFFF0003FFFFFFFFFF80000000003F
310
F000FF80000000007FF8000FFFFC0001FFFFC0007F80007FFF0000000000FFFF
310
F0000000000FFFF800000000000000007F80000000000001FFFF8000000000FF
310
FFFFFF8000000000FFFFFF0003FFFFFFFFFFC0000000007FF000FFC000000000
310
FFF8000FFFFE0001FFFFC0007F80007FFF8000000001FFFFF8000000001FFFF8
310
00000000000000007F80000000000001FFFFC000000001FFFFFFFFC000000001
310
FFFFFF0003FFFFFFFFFFE000000000FFF000FFE000000003FFF0001FFFFE0001
310
FFFFC0007F80007FFFC000000007FFFFFE000000003FFFF80000000000000000
310
7F80000000000001FFFFE000000003FFFFFFFFE000000003FFFFFF0003FFFFFF
310
FFFFF000000003FFF000FFF80000000FFFF0001FFFFE0001FFFFE0007F80007F
310
FFF00000000FFFFFFF00000000FFFFF800000000000000007F80000000000001
310
FFFFF80000000FFFFFFFFFF80000000FFFFFFF0003FFFFFFFFFFFC0000000FFF
310
F000FFFE0000003FFFF0001FFFFE0003FFFFE0003F80007FFFFC0000003FFFFF
310
FFC0000003FFFFF800000000000000007F80000000000001FFFFFE0000003FFF
310
FFFFFFFE0000003FFFFFFF0003FFFFFFFFFFFF0000003FFFF000FFFF800000FF
310
FFF0001FFFFF0003FFFFE0003F80007FFFFF000001FFFFFFFFF800001FFFFFF8
310
00000000000000007F80000000000001FFFFFFC00001FFFFFFFFFFFFC00001FF
310
FFFFFF0003FFFFFFFFFFFFC00000FFFFF000FFFFF8000FFFFFFFFFFFFFFFFFFF
310
FFFFFFFFFFFFFFFFFFFFF0001FFFFFFFFFFF0000FFFFFFF80000000000000000
310
7FFFFFFFFFFFFFFFFFFFFFFC001FFFFFFFFFFFFFFC001FFFFFFFFFFFFFFFFFFF
310
FFFFFFFC001FFFFFF000FFFFFFFFFFFFFFFFFFFFFFFFFFFFFFFFFFFFFFFFFFFF
310
FFFFFFFFFFFFFFFFFFFFFFFFFFFFFFFFFFFFFFFFFFFFFFFFFFFFFFFFFFFFFFFF
310
FFFFFFFFFFFFFFFFFFFFFFFFFFFFFFFFFFFFFFFFFFFFFFFFFFFFFFFFFFFFFFFF
310
F000FFFFFFFFFFFFFFFFFFFFFFFFFFFFFFFFFFFFFFFFFFFFFFFFFFFFFFFFFFFF
310
FFFFFFFFFFFFFFFFFFFFFFFFFFFFFFFFFFFFFFFFFFFFFFFFFFFFFFFFFFFFFFFF
310
FFFFFFFFFFFFFFFFFFFFFFFFFFFFFFFFFFFFFFFFFFFFFFFFF000FFFFFFFFFFFF
310
FFFFFFFFFFFFFFFFFFFFFFFFFFFFFFFFFFFFFFFFFFFFFFFFFFFFFFFFFFFFFFFF
310
FFFFFFFFFFFFFFFFFFFFFFFFFFFFFFFFFFFFFFFFFFFFFFFFFFFFFFFFFFFFFFFF
310
FFFFFFFFFFFFFFFFFFFFFFFFFFFFFFFFF000FFFFFFFFFFFFFFFFFFFFFFFFFFFF
310
FFFFFFFFFFFFFFFFFFFFFFFFFFFFFFFFFFFFFFFFFFFFFFFFFFFFFFFFFFFFFFFF
310
FFFFFFFFFFFFFFFFFFFFFFFFFFFFFFFFFFFFFFFFFFFFFFFFFFFFFFFFFFFFFFFF
310
FFFFFFFFFFFFFFFFF000FFFFFFFFFFFFFFFFFFFFFFFFFFFFFFFFFFFFFFFFFFFF
310
FFFFFFFFFFFFFFFFFFFFFFFFFFFFFFFFFFFFFFFFFFFFFFFFFFFFFFFFFFFFFFFF
310
FFFFFFFFFFFFFFFFFFFFFFFFFFFFFFFFFFFFFFFFFFFFFFFFFFFFFFFFFFFFFFFF
310
F000FFFFFFFFFFFFFFFFFFFFFFFFFFFFFFFFFFFFFFFFFFFFFFFFFFFFFFFFFFFF
310
FFFFFFFFFFFFFFFFFFFFFFFFFFFFFFFFFFFFFFFFFFFFFFFFFFFFFFFFFFFFFFFF
310
FFFFFFFFFFFFFFFFFFFFFFFFFFFFFFFFFFFFFFFFFFFFFFFFF000FFFFFFFFFFFF
310
FFFFFFFFFFFFFFFFFFFFFFFFFFFFFFFFFFFFFFFFFFFFFFFFFFFFFFFFFFFFFFFF
310
FFFFFFFFFFFFFFFFFFFFFFFFFFFFFFFFFFFFFFFFFFFFFFFFFFFFFFFFFFFFFFFF
310
FFFFFFFFFFFFFFFFFFFFFFFFFFFFFFFFF000FFFFFFFFFFFFFFFFFFFFFFFFFFFF
310
FFFFFFFFFFFFFFFFFFFFFFFFFFFFFFFFFFFFFFFFFFFFFFFFFFFFFFFFFFFFFFFF
310
FFFFFFFFFFFFFFFFFFFFFFFFFFFFFFFFFFFFFFFFFFFFFFFFFFFFFFFFFFFFFFFF
310
FFFFFFFFFFFFFFFFF000FFFFFFFFFFFFFFFFFFFFFFFFFFFFFFFFFFFFFFFFFFFF
310
FFFFFFFFFFFFFFFFFFFFFFFFFFFFFFFFFFFFFFFFFFFFFFFFFFFFFFFFFFFFFFFF
310
FFFFFFFFFFFFFFFFFFFFFFFFFFFFFFFFFFFFFFFFFFFFFFFFFFFFFFFFFFFFFFFF
310
F000FFFFFFFFFFFFFFFFFFFFFFFFFFFFFFFFFFFFFFFFFFFFFFFFFFFFFFFFFFFF
310
FFFFFFFFFFFFFFFFFFFFFFFFFFFFFFFFFFFFFFFFFFFFFFFFFFFFFFFFFFFFFFFF
310
FFFFFFFFFFFFFFFFFFFFFFFFFFFFFFFFFFFFFFFFFFFFFFFFF000FFFFFFFFFFFF
310
FFFFFFFFFFFFFFFFFFFFFFFFFFFFFFFFFFFFFFFFFFFFFFFFFFFFFFFFFFFFFFFF
310
FFFFFFFFFFFFFFFFFFFFFFFFFFFFFFFFFFFFFFFFFFFFFFFFFFFFFFFFFFFFFFFF
310
FFFFFFFFFFFFFFFFFFFFFFFFFFFFFFFFF000FFFFFFFFFFFFFFFFFFFFFFFFFFFF
310
FFFFFFFFFFFFFFFFFFFFFFFFFFFFFFFFFFFFFFFFFFFFFFFFFFFFFFFFFFFFFFFF
310
FFFFFFFFFFFFFFFFFFFFFFFFFFFFFFFFFFFFFFFFFFFFFFFFFFFFFFFFFFFFFFFF
310
FFFFFFFFFFFFFFFFF000FFFFFFFFFFFFFFFFFFFFFFFFFFFFFFFFFFFFFFFFFFFF
310
FFFFFFFFFFFFFFFFFFFFFFFFFFFFFFFFFFFFFFFFFFFFFFFFFFFFFFFFFFFFFFFF
310
FFFFFFFFFFFFFFFFFFFFFFFFFFFFFFFFFFFFFFFFFFFFFFFFFFFFFFFFFFFFFFFF
310
F000FFFFFFFFFFFFFFFFFFFFFFFFFFFFFFFFFFFFFFFFFFFFFFFFFFFFFFFFFFFF
310
FFFFFFFFFFFFFFFFFFFFFFFFFFFFFFFFFFFFFFFFFFFFFFFFFFFFFFFFFFFFFFFF
310
FFFFFFFFFFFFFFFFFFFFFFFFFFFFFFFFFFFFFFFFFFFFFFFFF000FFFFFFFFFFFF
310
FFFFFFFFFFFFFFFFFFFFFFFFFFFFFFFFFFFFFFFFFFFFFFFFFFFFFFFFFFFFFFFF
310
FFFFFFFFFFFFFFFFFFFFFFFFFFFFFFFFFFFFFFFFFFFFFFFFFFFFFFFFFFFFFFFF
310
FFFFFFFFFFFFFFFFFFFFFFFFFFFFFFFFF000FFFFFFFFFFFFFFFFFFFFFFFFFFFF
310
FFFFFFFFFFFFFFFFFFFFFFFFFFFFFFFFFFFFFFFFFFFFFFFFFFFFFFFFFFFFFFFF
310
FFFFFFFFFFFFFFFFFFFFFFFFFFFFFFFFFFFFFFFFFFFFFFFFFFFFFFFFFFFFFFFF
310
FFFFFFFFFFFFFFFFF000FFFFFFFFFFFFFFFFFFFFFFFFFFFFFFFFFFFFFFFFFFFF
310
FFFFFFFFFFFFFFFFFFFFFFFFFFFFFFFFFFFFFFFFFFFFFFFFFFFFFFFFFFFFFFFF
310
FFFFFFFFFFFFFFFFFFFFFFFFFFFFFFFFFFFFFFFFFFFFFFFFFFFFFFFFFFFFFFFF
310
F000FFFFFFFFFFFFFFFFFFFFFFFFFFFFFFFFFFFFFFFFFFFFFFFFFFFFFFFFFFFF
310
FFFFFFFFFFFFFFFFFFFFFFFFFFFFFFFFFFFFFFFFFFFFFFFFFFFFFFFFFFFFFFFF
310
FFFFFFFFFFFFFFFFFFFFFFFFFFFFFFFFFFFFFFFFFFFFFFFFF000FFFFFFFFFFFF
310
FFFFFFFFFFFFFFFFFFFFFFFFFFFFFFFFFFFFFFFFFFFFFFFFFFFFFFFFFFFFFFFF
310
FFFFFFFFFFFFFFFFFFFFFFFFFFFFFFFFFFFFFFFFFFFFFFFFFFFFFFFFFFFFFFFF
310
FFFFFFFFFFFFFFFFFFFFFFFFFFFFFFFFF000FFFFFFFFFFFFFFFFFFFFFFFFFFFF
310
FFFFFFFFFFFFFFFFFFFFFFFFFFFFFFFFFFFFFFFFFFFFFFFFFFFFFFFFFFFFFFFF
310
FFFFFFFFFFFFFFFFFFFFFFFFFFFFFFFFFFFFFFFFFFFFFFFFFFFFFFFFFFFFFFFF
310
FFFFFFFFFFFFFFFFF000FFFFFFFFFFFFFFFFFFFFFFFFFFFFFFFFFFFFFFFFFFFF
310
FFFFFFFFFFFFFFFFFFFFFFFFFFFFFFFFFFFFFFFFFFFFFFFFFFFFFFFFFFFFFFFF
310
FFFFFFFFFFFFFFFFFFFFFFFFFFFFFFFFFFFFFFFFFFFFFFFFFFFFFFFFFFFFFFFF
310
F000FFFFFFFFFFFFFFFFFFFFFFFFFFFFFFFFFFFFFFFFFFFFFFFFFFFFFFFFFFFF
310
FFFFFFFFFFFFFFFFFFFFFFFFFFFFFFFFFFFFFFFFFFFFFFFFFFFFFFFFFFFFFFFF
310
FFFFFFFFFFFFFFFFFFFFFFFFFFFFFFFFFFFFFFFFFFFFFFFFF000FFFFFFFFFFFF
310
FFFFFFFFFFFFFFFFFFFFFFFFFFFFFFFFFFFFFFFFFFFFFFFFFFFFFFFFFFFFFFFF
310
FFFFFFFFFFFFFFFFFFFFFFFFFFFFFFFFFFFFFFFFFFFFFFFFFFFFFFFFFFFFFFFF
310
FFFFFFFFFFFFFFFFFFFFFFFFFFFFFFFFF0000000000000000000000000000000
310
0000000000000000000000000000000000000000000000000000000000000000
310
0000000000000000000000000000000000000000000000000000000000000000
310
0000000000000000000000000000000000000000000000000000000000000000
310
0000000000000000000000000000000000000000000000000000000000000000
310
0000000000000000000000000000000000000000000000000000000000000000
310
0000000000000000000000000000000000000000000000000000000000000000
310
0000000000000000000000000000000000000000000000000000000000000000
310
0000000000000000000000000000000000000000000000000000000000000000
310
0000000000000000000000000000000000000000000000000000000000000000
310
0000000000000000000000000000000000000000000000000000000000000000
310
0000000000000000000000000000000000000000000000000000000000000000
310
0000000000000000000000000000000000000000000000000000000000000000
310
0000000000000000000000000000000000000000000000000000000000000000
310
0000000000000000000000000000000000000000000000000000000000000000
310
0000000000000000000000000000000000000000000000000000000000000000
  1
OLE
  0
ENDSEC
  0
SECTION
  2
OBJECTS
  0
DICTIONARY
  5
C
330
0
100
AcDbDictionary
281
     1
  3
ACAD_GROUP
350
D
  3
ACAD_LAYOUT
350
1A
  3
ACAD_MLINESTYLE
350
17
  3
ACAD_PLOTSETTINGS
350
19
  3
ACAD_PLOTSTYLENAME
350
E
  0
DICTIONARY
  5
D
102
{ACAD_REACTORS
330
C
102
}
330
C
100
AcDbDictionary
281
     1
  0
DICTIONARY
  5
1A
102
{ACAD_REACTORS
330
C
102
}
330
C
100
AcDbDictionary
281
     1
  3
Layout1
350
1E
  3
Layout2
350
26
  3
Model
350
22
  0
DICTIONARY
  5
17
102
{ACAD_REACTORS
330
C
102
}
330
C
100
AcDbDictionary
281
     1
  3
Standard
350
18
  0
DICTIONARY
  5
19
102
{ACAD_REACTORS
330
C
102
}
330
C
100
AcDbDictionary
281
     1
  0
ACDBDICTIONARYWDFLT
  5
E
102
{ACAD_REACTORS
330
C
102
}
330
C
100
AcDbDictionary
281
     1
  3
Normal
350
F
100
AcDbDictionaryWithDefault
340
F
  0
LAYOUT
  5
1E
102
{ACAD_REACTORS
330
1A
102
}
330
1A
100
AcDbPlotSettings
  1

  2
none_device
  4

  6

 40
0.0
 41
0.0
 42
0.0
 43
0.0
 44
0.0
 45
0.0
 46
0.0
 47
0.0
 48
0.0
 49
0.0
140
0.0
141
0.0
142
1.0
143
1.0
 70
   688
 72
     0
 73
     0
 74
     5
  7

 75
    16
147
1.0
148
0.0
149
0.0
100
AcDbLayout
  1
Layout1
 70
     1
 71
     1
 10
0.0
 20
0.0
 11
420.0
 21
297.0
 12
0.0
 22
0.0
 32
0.0
 14
1.0000000000E+20
 24
1.0000000000E+20
 34
1.0000000000E+20
 15
-1.0000000000E+20
 25
-1.0000000000E+20
 35
-1.0000000000E+20
146
0.0
 13
0.0
 23
0.0
 33
0.0
 16
1.0
 26
0.0
 36
0.0
 17
0.0
 27
1.0
 37
0.0
 76
     0
330
1B
  0
LAYOUT
  5
26
102
{ACAD_REACTORS
330
1A
102
}
330
1A
100
AcDbPlotSettings
  1

  2
none_device
  4

  6

 40
0.0
 41
0.0
 42
0.0
 43
0.0
 44
0.0
 45
0.0
 46
0.0
 47
0.0
 48
0.0
 49
0.0
140
0.0
141
0.0
142
1.0
143
1.0
 70
   688
 72
     0
 73
     0
 74
     5
  7

 75
    16
147
1.0
148
0.0
149
0.0
100
AcDbLayout
  1
Layout2
 70
     1
 71
     2
 10
0.0
 20
0.0
 11
0.0
 21
0.0
 12
0.0
 22
0.0
 32
0.0
 14
0.0
 24
0.0
 34
0.0
 15
0.0
 25
0.0
 35
0.0
146
0.0
 13
0.0
 23
0.0
 33
0.0
 16
1.0
 26
0.0
 36
0.0
 17
0.0
 27
1.0
 37
0.0
 76
     0
330
23
  0
LAYOUT
  5
22
102
{ACAD_REACTORS
330
1A
102
}
330
1A
100
AcDbPlotSettings
  1

  2
none_device
  4

  6

 40
0.0
 41
0.0
 42
0.0
 43
0.0
 44
0.0
 45
0.0
 46
0.0
 47
0.0
 48
0.0
 49
0.0
140
0.0
141
0.0
142
1.0
143
1.0
 70
  1712
 72
     0
 73
     0
 74
     0
  7

 75
     0
147
1.0
148
0.0
149
0.0
100
AcDbLayout
  1
Model
 70
     1
 71
     0
 10
0.0
 20
0.0
 11
297.0
 21
210.0
 12
0.0
 22
0.0
 32
0.0
 14
0.0
 24
0.0
 34
0.0
 15
297.0
 25
210.0
 35
0.0
146
0.0
 13
0.0
 23
0.0
 33
0.0
 16
1.0
 26
0.0
 36
0.0
 17
0.0
 27
1.0
 37
0.0
 76
     0
330
1F
331
29
  0
MLINESTYLE
  5
18
102
{ACAD_REACTORS
330
17
102
}
330
17
100
AcDbMlineStyle
  2
Standard
 70
     0
  3

 62
   256
 51
90.0
 52
90.0
 71
     2
 49
0.5
 62
   256
  6
BYLAYER
 49
-0.5
 62
   256
  6
BYLAYER
  0
ACDBPLACEHOLDER
  5
F
102
{ACAD_REACTORS
330
E
102
}
330
E
  0
ENDSEC
  0
EOF
