  0
SECTION
  2
HEADER
  9
$ACADVER
  1
AC1015
  9
$ACADMAINTVER
 70
     6
  9
$DWGCODEPAGE
  3
ANSI_1252
  9
$INSBASE
 10
0.0
 20
0.0
 30
0.0
  9
$EXTMIN
 10
0.0
 20
0.0
 30
0.0
  9
$EXTMAX
 10
297.0
 20
210.0
 30
0.0
  9
$LIMMIN
 10
0.0
 20
0.0
  9
$LIMMAX
 10
297.0
 20
210.0
  9
$ORTHOMODE
 70
     0
  9
$REGENMODE
 70
     1
  9
$FILLMODE
 70
     1
  9
$QTEXTMODE
 70
     0
  9
$MIRRTEXT
 70
     1
  9
$LTSCALE
 40
1.0
  9
$ATTMODE
 70
     1
  9
$TEXTSIZE
 40
2.0
  9
$TRACEWID
 40
1.0
  9
$TEXTSTYLE
  7
Standard
  9
$CLAYER
  8
0
  9
$CELTYPE
  6
ByLayer
  9
$CECOLOR
 62
   256
  9
$CELTSCALE
 40
1.0
  9
$DISPSILH
 70
     0
  9
$DIMSCALE
 40
1.0
  9
$DIMASZ
 40
3.0
  9
$DIMEXO
 40
0.0
  9
$DIMDLI
 40
3.75
  9
$DIMRND
 40
0.0
  9
$DIMDLE
 40
0.0
  9
$DIMEXE
 40
1.0
  9
$DIMTP
 40
0.0
  9
$DIMTM
 40
0.0
  9
$DIMTXT
 40
2.0
  9
$DIMCEN
 40
2.5
  9
$DIMTSZ
 40
0.0
  9
$DIMTOL
 70
     0
  9
$DIMLIM
 70
     0
  9
$DIMTIH
 70
     1
  9
$DIMTOH
 70
     1
  9
$DIMSE1
 70
     0
  9
$DIMSE2
 70
     0
  9
$DIMTAD
 70
     1
  9
$DIMZIN
 70
     0
  9
$DIMBLK
  1

  9
$DIMASO
 70
     1
  9
$DIMSHO
 70
     1
  9
$DIMPOST
  1

  9
$DIMAPOST
  1

  9
$DIMALT
 70
     0
  9
$DIMALTD
 70
     3
  9
$DIMALTF
 40
0.0393700787
  9
$DIMLFAC
 40
2.0
  9
$DIMTOFL
 70
     1
  9
$DIMTVP
 40
0.0
  9
$DIMTIX
 70
     0
  9
$DIMSOXD
 70
     0
  9
$DIMSAH
 70
     0
  9
$DIMBLK1
  1

  9
$DIMBLK2
  1

  9
$DIMSTYLE
  2
ISO-25
  9
$DIMCLRD
 70
     0
  9
$DIMCLRE
 70
     0
  9
$DIMCLRT
 70
     0
  9
$DIMTFAC
 40
1.0
  9
$DIMGAP
 40
1.524
  9
$DIMJUST
 70
     0
  9
$DIMSD1
 70
     0
  9
$DIMSD2
 70
     0
  9
$DIMTOLJ
 70
     0
  9
$DIMTZIN
 70
     0
  9
$DIMALTZ
 70
     0
  9
$DIMALTTZ
 70
     0
  9
$DIMUPT
 70
     0
  9
$DIMDEC
 70
     2
  9
$DIMTDEC
 70
     3
  9
$DIMALTU
 70
     2
  9
$DIMALTTD
 70
     3
  9
$DIMTXSTY
  7
Standard
  9
$DIMAUNIT
 70
     0
  9
$DIMADEC
 70
     2
  9
$DIMALTRND
 40
0.0
  9
$DIMAZIN
 70
     0
  9
$DIMDSEP
 70
    44
  9
$DIMATFIT
 70
     3
  9
$DIMFRAC
 70
     0
  9
$DIMLDRBLK
  1

  9
$DIMLUNIT
 70
     2
  9
$DIMLWD
 70
    -2
  9
$DIMLWE
 70
    -2
  9
$DIMTMOVE
 70
     0
  9
$LUNITS
 70
     2
  9
$LUPREC
 70
     2
  9
$SKETCHINC
 40
1.0
  9
$FILLETRAD
 40
10.0
  9
$AUNITS
 70
     0
  9
$AUPREC
 70
     2
  9
$MENU
  1
.
  9
$ELEVATION
 40
0.0
  9
$PELEVATION
 40
0.0
  9
$THICKNESS
 40
0.0
  9
$LIMCHECK
 70
     0
  9
$CHAMFERA
 40
0.0
  9
$CHAMFERB
 40
0.0
  9
$CHAMFERC
 40
0.0
  9
$CHAMFERD
 40
0.0
  9
$SKPOLY
 70
     0
  9
$TDCREATE
 40
2458157.602823484
  9
$TDUCREATE
 40
2458157.561156817
  9
$TDUPDATE
 40
2458157.60282544
  9
$TDUUPDATE
 40
2458157.561158773
  9
$TDINDWG
 40
0.0000000116
  9
$TDUSRTIMER
 40
0.0000000116
  9
$USRTIMER
 70
     1
  9
$ANGBASE
 50
0.0
  9
$ANGDIR
 70
     0
  9
$PDMODE
 70
     0
  9
$PDSIZE
 40
-1.0
  9
$PLINEWID
 40
0.0
  9
$SPLFRAME
 70
     0
  9
$SPLINETYPE
 70
     6
  9
$SPLINESEGS
 70
     8
  9
$HANDSEED
  5
241
  9
$SURFTAB1
 70
     6
  9
$SURFTAB2
 70
     6
  9
$SURFTYPE
 70
     6
  9
$SURFU
 70
     6
  9
$SURFV
 70
     6
  9
$UCSBASE
  2

  9
$UCSNAME
  2

  9
$UCSORG
 10
0.0
 20
0.0
 30
0.0
  9
$UCSXDIR
 10
1.0
 20
0.0
 30
0.0
  9
$UCSYDIR
 10
0.0
 20
1.0
 30
0.0
  9
$UCSORTHOREF
  2

  9
$UCSORTHOVIEW
 70
     0
  9
$UCSORGTOP
 10
0.0
 20
0.0
 30
0.0
  9
$UCSORGBOTTOM
 10
0.0
 20
0.0
 30
0.0
  9
$UCSORGLEFT
 10
0.0
 20
0.0
 30
0.0
  9
$UCSORGRIGHT
 10
0.0
 20
0.0
 30
0.0
  9
$UCSORGFRONT
 10
0.0
 20
0.0
 30
0.0
  9
$UCSORGBACK
 10
0.0
 20
0.0
 30
0.0
  9
$PUCSBASE
  2

  9
$PUCSNAME
  2

  9
$PUCSORG
 10
0.0
 20
0.0
 30
0.0
  9
$PUCSXDIR
 10
1.0
 20
0.0
 30
0.0
  9
$PUCSYDIR
 10
0.0
 20
1.0
 30
0.0
  9
$PUCSORTHOREF
  2

  9
$PUCSORTHOVIEW
 70
     0
  9
$PUCSORGTOP
 10
0.0
 20
0.0
 30
0.0
  9
$PUCSORGBOTTOM
 10
0.0
 20
0.0
 30
0.0
  9
$PUCSORGLEFT
 10
0.0
 20
0.0
 30
0.0
  9
$PUCSORGRIGHT
 10
0.0
 20
0.0
 30
0.0
  9
$PUCSORGFRONT
 10
0.0
 20
0.0
 30
0.0
  9
$PUCSORGBACK
 10
0.0
 20
0.0
 30
0.0
  9
$USERI1
 70
     0
  9
$USERI2
 70
     0
  9
$USERI3
 70
     0
  9
$USERI4
 70
     0
  9
$USERI5
 70
     0
  9
$USERR1
 40
0.0
  9
$USERR2
 40
0.0
  9
$USERR3
 40
0.0
  9
$USERR4
 40
0.0
  9
$USERR5
 40
0.0
  9
$WORLDVIEW
 70
     1
  9
$SHADEDGE
 70
     3
  9
$SHADEDIF
 70
    70
  9
$TILEMODE
 70
     1
  9
$MAXACTVP
 70
    64
  9
$PINSBASE
 10
0.0
 20
0.0
 30
0.0
  9
$PLIMCHECK
 70
     0
  9
$PEXTMIN
 10
1.0000000000E+20
 20
1.0000000000E+20
 30
1.0000000000E+20
  9
$PEXTMAX
 10
-1.0000000000E+20
 20
-1.0000000000E+20
 30
-1.0000000000E+20
  9
$PLIMMIN
 10
0.0
 20
0.0
  9
$PLIMMAX
 10
420.0
 20
297.0
  9
$UNITMODE
 70
     0
  9
$VISRETAIN
 70
     1
  9
$PLINEGEN
 70
     0
  9
$PSLTSCALE
 70
     1
  9
$TREEDEPTH
 70
  3020
  9
$CMLSTYLE
  2
Standard
  9
$CMLJUST
 70
     0
  9
$CMLSCALE
 40
20.0
  9
$PROXYGRAPHICS
 70
     1
  9
$MEASUREMENT
 70
     1
  9
$CELWEIGHT
370
    -1
  9
$ENDCAPS
280
     0
  9
$JOINSTYLE
280
     0
  9
$LWDISPLAY
290
     1
  9
$INSUNITS
 70
     4
  9
$HYPERLINKBASE
  1

  9
$STYLESHEET
  1

  9
$XEDIT
290
     1
  9
$CEPSNTYPE
380
     0
  9
$PSTYLEMODE
290
     1
  9
$FINGERPRINTGUID
  2
{B4E73654-8130-4FC4-A776-7BEF6482257F}
  9
$VERSIONGUID
  2
{FAEB1C32-E019-11D5-929B-00C0DF256EC4}
  9
$EXTNAMES
290
     1
  9
$PSVPSCALE
 40
0.0
  9
$OLESTARTUP
290
     0
  0
ENDSEC
  0
SECTION
  2
CLASSES
  0
CLASS
  1
ACDBDICTIONARYWDFLT
  2
AcDbDictionaryWithDefault
  3
ObjectDBX Classes
 90
        0
280
     0
281
     0
  0
CLASS
  1
VISUALSTYLE
  2
AcDbVisualStyle
  3
ObjectDBX Classes
 90
     4095
280
     0
281
     0
  0
CLASS
  1
MATERIAL
  2
AcDbMaterial
  3
ObjectDBX Classes
 90
     1153
280
     0
281
     0
  0
CLASS
  1
SCALE
  2
AcDbScale
  3
ObjectDBX Classes
 90
     1153
280
     0
281
     0
  0
CLASS
  1
TABLESTYLE
  2
AcDbTableStyle
  3
ObjectDBX Classes
 90
     4095
280
     0
281
     0
  0
CLASS
  1
MLEADERSTYLE
  2
AcDbMLeaderStyle
  3
ACDB_MLEADERSTYLE_CLASS
 90
     4095
280
     0
281
     0
  0
CLASS
  1
SUN
  2
AcDbSun
  3
SCENEOE
 90
     1153
280
     0
281
     0
  0
CLASS
  1
ACDBPLACEHOLDER
  2
AcDbPlaceHolder
  3
ObjectDBX Classes
 90
        0
280
     0
281
     0
  0
CLASS
  1
LAYOUT
  2
AcDbLayout
  3
ObjectDBX Classes
 90
        0
280
     0
281
     0
  0
ENDSEC
  0
SECTION
  2
TABLES
  0
TABLE
  2
VPORT
  5
8
330
0
100
AcDbSymbolTable
 70
     1
  0
VPORT
  5
29
330
8
100
AcDbSymbolTableRecord
100
AcDbViewportTableRecord
  2
*Active
 70
     0
 10
0.0
 20
0.0
 11
1.0
 21
1.0
 12
148.5
 22
105.0
 13
0.0
 23
0.0
 14
10.0
 24
10.0
 15
10.0
 25
10.0
 16
0.0
 26
0.0
 36
1.0
 17
0.0
 27
0.0
 37
0.0
 40
210.0
 41
1.4142857143
 42
50.0
 43
0.0
 44
0.0
 50
0.0
 51
0.0
 71
     0
 72
  2000
 73
     1
 74
     3
 75
     0
 76
     0
 77
     0
 78
     0
281
     0
 65
     1
110
0.0
120
0.0
130
0.0
111
1.0
121
0.0
131
0.0
112
0.0
122
1.0
132
0.0
 79
     0
146
0.0
  0
ENDTAB
  0
TABLE
  2
LTYPE
  5
5
330
0
100
AcDbSymbolTable
 70
     6
  0
LTYPE
  5
14
330
5
100
AcDbSymbolTableRecord
100
AcDbLinetypeTableRecord
  2
ByBlock
 70
     0
  3

 72
    65
 73
     0
 40
0.0
  0
LTYPE
  5
15
330
5
100
AcDbSymbolTableRecord
100
AcDbLinetypeTableRecord
  2
ByLayer
 70
     0
  3

 72
    65
 73
     0
 40
0.0
  0
LTYPE
  5
16
330
5
100
AcDbSymbolTableRecord
100
AcDbLinetypeTableRecord
  2
Continuous
 70
     0
  3
Solid line
 72
    65
 73
     0
 40
0.0
  0
LTYPE
  5
6E
330
5
100
AcDbSymbolTableRecord
100
AcDbLinetypeTableRecord
  2
HIDDEN
 70
     0
  3
Hidden __ __ __ __ __ __ __ __ __ __ __ __ __ __
 72
    65
 73
     2
 40
1.905
 49
1.27
 74
     0
 49
-0.635
 74
     0
  0
LTYPE
  5
6F
330
5
100
AcDbSymbolTableRecord
100
AcDbLinetypeTableRecord
  2
PHANTOM
 70
     0
  3
Phantom ______  __  __  ______  __  __  ______
 72
    65
 73
     6
 40
12.7
 49
6.35
 74
     0
 49
-1.27
 74
     0
 49
1.27
 74
     0
 49
-1.27
 74
     0
 49
1.27
 74
     0
 49
-1.27
 74
     0
  0
LTYPE
  5
70
330
5
100
AcDbSymbolTableRecord
100
AcDbLinetypeTableRecord
  2
CENTER
 70
     0
  3
Center ____ _ ____ _ ____ _ ____ _ ____ _ ____
 72
    65
 73
     4
 40
10.16
 49
6.35
 74
     0
 49
-1.27
 74
     0
 49
1.27
 74
     0
 49
-1.27
 74
     0
  0
LTYPE
  5
71
330
5
100
AcDbSymbolTableRecord
100
AcDbLinetypeTableRecord
  2
CENTERX2
 70
     0
  3
Center (2x) ________  __  ________  __  _____
 72
    65
 73
     4
 40
20.32
 49
12.7
 74
     0
 49
-2.54
 74
     0
 49
2.54
 74
     0
 49
-2.54
 74
     0
  0
LTYPE
  5
72
330
5
100
AcDbSymbolTableRecord
100
AcDbLinetypeTableRecord
  2
DOT2
 70
     0
  3
Dot (.5x) ........................................
 72
    65
 73
     2
 40
0.635
 49
0.0
 74
     0
 49
-0.635
 74
     0
  0
ENDTAB
  0
TABLE
  2
LAYER
  5
2
330
0
100
AcDbSymbolTable
 70
     5
  0
LAYER
  5
10
330
2
100
AcDbSymbolTableRecord
100
AcDbLayerTableRecord
  2
0
 70
     0
 62
     7
  6
Continuous
370
    -3
390
F
  0
LAYER
  5
73
330
2
100
AcDbSymbolTableRecord
100
AcDbLayerTableRecord
  2
FORMAT
 70
     0
 62
     7
  6
Continuous
370
    -3
390
F
  0
LAYER
  5
74
330
2
100
AcDbSymbolTableRecord
100
AcDbLayerTableRecord
  2
VERMASSUNG
 70
     0
 62
     7
  6
Continuous
370
    -3
390
F
  0
LAYER
  5
75
330
2
100
AcDbSymbolTableRecord
100
AcDbLayerTableRecord
  2
KOPF_DÜNN
 70
     0
 62
     7
  6
Continuous
370
    -3
390
F
  0
LAYER
  5
76
330
2
100
AcDbSymbolTableRecord
100
AcDbLayerTableRecord
  2
KOPF_DICK
 70
     0
 62
     7
  6
Continuous
370
    25
390
F
  0
ENDTAB
  0
TABLE
  2
STYLE
  5
3
330
0
100
AcDbSymbolTable
 70
     3
  0
STYLE
  5
11
330
3
100
AcDbSymbolTableRecord
100
AcDbTextStyleTableRecord
  2
Standard
 70
     0
 40
0.0
 41
1.0
 50
0.0
 71
     0
 42
2.0
  3
txt
  4

  0
STYLE
  5
77
330
3
100
AcDbSymbolTableRecord
100
AcDbTextStyleTableRecord
  2
SLDTEXTSTYLE0
 70
     0
 40
0.0
 41
0.7
 50
0.0
 71
     0
 42
2.0
  3
TXT
  4

  0
STYLE
  5
7B
330
3
100
AcDbSymbolTableRecord
100
AcDbTextStyleTableRecord
  2
SLDTEXTSTYLE1
 70
     0
 40
0.0
 41
0.65
 50
0.0
 71
     0
 42
2.0
  3
TXT
  4

  0
ENDTAB
  0
TABLE
  2
VIEW
  5
6
330
0
100
AcDbSymbolTable
 70
     0
  0
ENDTAB
  0
TABLE
  2
UCS
  5
7
330
0
100
AcDbSymbolTable
 70
     0
  0
ENDTAB
  0
TABLE
  2
APPID
  5
9
330
0
100
AcDbSymbolTable
 70
     1
  0
APPID
  5
12
330
9
100
AcDbSymbolTableRecord
100
AcDbRegAppTableRecord
  2
ACAD
 70
     0
  0
ENDTAB
  0
TABLE
  2
DIMSTYLE
  5
A
330
0
100
AcDbSymbolTable
 70
     5
100
AcDbDimStyleTable
  0
DIMSTYLE
105
27
330
A
100
AcDbSymbolTableRecord
100
AcDbDimStyleTableRecord
  2
ISO-25
 70
     0
 41
2.5
 42
0.625
 43
3.75
 44
1.25
 73
     0
 74
     0
 77
     1
 78
     8
140
2.5
141
2.5
143
0.0393700787
147
0.625
171
     3
172
     1
178
     0
271
     2
272
     2
274
     3
278
    44
283
     0
284
     8
340
11
  0
DIMSTYLE
105
1C6
102
{ACAD_REACTORS
330
1C5
330
1DD
102
}
330
A
100
AcDbSymbolTableRecord
100
AcDbDimStyleTableRecord
  2
SLDDIMSTYLE0
 70
     0
 41
3.0
 44
0.0
 45
0.000000001
 47
0.1
 48
0.1
 71
     1
 73
     0
 74
     0
 77
     1
 78
    12
 79
     3
140
2.0
147
0.5
173
     1
178
     0
271
     2
272
     1
276
     2
284
     8
340
77
  0
DIMSTYLE
105
1D3
102
{ACAD_REACTORS
330
1D2
330
1F3
102
}
330
A
100
AcDbSymbolTableRecord
100
AcDbDimStyleTableRecord
  2
SLDDIMSTYLE1
 70
     0
 41
3.0
 44
0.0
 45
0.000000001
 73
     0
 74
     0
 77
     1
 78
    12
 79
     3
140
2.0
147
0.5
173
     1
178
     0
271
     2
272
     3
276
     2
284
    12
340
77
  0
DIMSTYLE
105
1EA
102
{ACAD_REACTORS
330
1E9
102
}
330
A
100
AcDbSymbolTableRecord
100
AcDbDimStyleTableRecord
  2
SLDDIMSTYLE2
 70
     0
 41
3.0
 44
0.0
 73
     0
 74
     0
 77
     1
 78
    12
 79
     3
140
2.0
147
0.5
173
     1
178
     0
179
     2
272
     3
276
     2
284
    12
340
77
  0
DIMSTYLE
105
228
102
{ACAD_REACTORS
330
227
102
}
330
A
100
AcDbSymbolTableRecord
100
AcDbDimStyleTableRecord
  2
SLDDIMSTYLE3
 70
     0
 41
3.0
 44
0.0
 45
0.000000001
 73
     0
 74
     0
 77
     1
 78
    12
 79
     3
140
2.0
141
0.0
147
0.5
172
     1
173
     1
178
     0
271
     2
272
     3
276
     2
284
    12
340
77
  0
ENDTAB
  0
TABLE
  2
BLOCK_RECORD
  5
1
330
0
100
AcDbSymbolTable
 70
     8
  0
BLOCK_RECORD
  5
1F
330
1
100
AcDbSymbolTableRecord
100
AcDbBlockTableRecord
  2
*Model_Space
340
22
  0
BLOCK_RECORD
  5
1B
330
1
100
AcDbSymbolTableRecord
100
AcDbBlockTableRecord
  2
*Paper_Space
340
1E
  0
BLOCK_RECORD
  5
23
330
1
100
AcDbSymbolTableRecord
100
AcDbBlockTableRecord
  2
*Paper_Space0
340
26
  0
BLOCK_RECORD
  5
1C7
330
1
100
AcDbSymbolTableRecord
100
AcDbBlockTableRecord
  2
_D
340
0
  0
BLOCK_RECORD
  5
1D4
330
1
100
AcDbSymbolTableRecord
100
AcDbBlockTableRecord
  2
_D_1
340
0
  0
BLOCK_RECORD
  5
1DE
330
1
100
AcDbSymbolTableRecord
100
AcDbBlockTableRecord
  2
_D_2
340
0
  0
BLOCK_RECORD
  5
1EB
330
1
100
AcDbSymbolTableRecord
100
AcDbBlockTableRecord
  2
_D_3
340
0
  0
BLOCK_RECORD
  5
1F4
330
1
100
AcDbSymbolTableRecord
100
AcDbBlockTableRecord
  2
_D_4
340
0
  0
BLOCK_RECORD
  5
229
330
1
100
AcDbSymbolTableRecord
100
AcDbBlockTableRecord
  2
_D_5
340
0
  0
BLOCK_RECORD
  5
234
330
1
100
AcDbSymbolTableRecord
100
AcDbBlockTableRecord
  2
SW_CENTERMARKSYMBOL_0
340
0
102
{BLKREFS
331
23F
102
}
  0
ENDTAB
  0
ENDSEC
  0
SECTION
  2
BLOCKS
  0
BLOCK
  5
20
330
1F
100
AcDbEntity
  8
0
100
AcDbBlockBegin
  2
*Model_Space
 70
     0
 10
0.0
 20
0.0
 30
0.0
  3
*Model_Space
  1

  0
ENDBLK
  5
21
330
1F
100
AcDbEntity
  8
0
100
AcDbBlockEnd
  0
BLOCK
  5
1C
330
1B
100
AcDbEntity
 67
     1
  8
0
100
AcDbBlockBegin
  2
*Paper_Space
 70
     0
 10
0.0
 20
0.0
 30
0.0
  3
*Paper_Space
  1

  0
ENDBLK
  5
1D
330
1B
100
AcDbEntity
 67
     1
  8
0
100
AcDbBlockEnd
  0
BLOCK
  5
24
330
23
100
AcDbEntity
  8
0
100
AcDbBlockBegin
  2
*Paper_Space0
 70
     0
 10
0.0
 20
0.0
 30
0.0
  3
*Paper_Space0
  1

  0
ENDBLK
  5
25
330
23
100
AcDbEntity
  8
0
100
AcDbBlockEnd
  0
BLOCK
  5
1C8
330
1C7
100
AcDbEntity
  8
0
100
AcDbBlockBegin
  2
_D
 70
     0
 10
0.0
 20
0.0
 30
0.0
  3
_D
  1

  0
SOLID
  5
1CA
330
1C7
100
AcDbEntity
  8
VERMASSUNG
100
AcDbTrace
 10
254.6347945616
 20
73.3160313815
 30
0.0
 11
251.6347945616
 21
73.7660313815
 31
0.0
 12
251.6347945616
 22
72.8660313815
 32
0.0
 13
251.6347945616
 23
72.8660313815
 33
0.0
  0
SOLID
  5
1CB
330
1C7
100
AcDbEntity
  8
VERMASSUNG
100
AcDbTrace
 10
189.6347945616
 20
73.3160313815
 30
0.0
 11
192.6347945616
 21
72.8660313815
 31
0.0
 12
192.6347945616
 22
73.7660313815
 32
0.0
 13
192.6347945616
 23
73.7660313815
 33
0.0
  0
LINE
  5
1CC
330
1C7
100
AcDbEntity
  8
VERMASSUNG
100
AcDbLine
 10
254.6347945616
 20
80.4239858639
 30
0.0
 11
254.6347945616
 21
72.3160313815
 31
0.0
  0
LINE
  5
1CD
330
1C7
100
AcDbEntity
  8
VERMASSUNG
100
AcDbLine
 10
189.6347945616
 20
94.4239858639
 30
0.0
 11
189.6347945616
 21
72.3160313815
 31
0.0
  0
LINE
  5
1CE
330
1C7
100
AcDbEntity
  8
VERMASSUNG
100
AcDbLine
 10
254.6347945616
 20
73.3160313815
 30
0.0
 11
189.6347945616
 21
73.3160313815
 31
0.0
  0
MTEXT
  5
1CF
330
1C7
100
AcDbEntity
  8
VERMASSUNG
100
AcDbMText
 10
218.4847944755
 20
75.8941669774
 30
0.0
 40
2.0
 41
0.0
 71
     1
 72
     1
  1
65
  7
SLDTEXTSTYLE0
 73
     1
 44
1.0
  0
MTEXT
  5
1D0
330
1C7
100
AcDbEntity
  8
VERMASSUNG
100
AcDbMText
 10
222.4722943757
 20
75.8941669774
 30
0.0
 40
2.0
 41
0.0
 71
     1
 72
     1
  1

  7
SLDTEXTSTYLE0
 73
     1
 44
1.0
  0
MTEXT
  5
1D1
330
1C7
100
AcDbEntity
  8
VERMASSUNG
100
AcDbMText
 10
222.4847941999
 20
75.3996331438
 30
0.0
 40
1.5
 41
0.0
 71
     1
 72
     1
  1
±0.1
  7
SLDTEXTSTYLE0
 73
     1
 44
1.0
  0
ENDBLK
  5
1C9
330
1C7
100
AcDbEntity
  8
0
100
AcDbBlockEnd
  0
BLOCK
  5
1D5
330
1D4
100
AcDbEntity
  8
0
100
AcDbBlockBegin
  2
_D_1
 70
     0
 10
0.0
 20
0.0
 30
0.0
  3
_D_1
  1

  0
SOLID
  5
1D7
330
1D4
100
AcDbEntity
  8
VERMASSUNG
100
AcDbTrace
 10
254.6347945616
 20
65.9838269185
 30
0.0
 11
251.6347945616
 21
66.4338269185
 31
0.0
 12
251.6347945616
 22
65.5338269185
 32
0.0
 13
251.6347945616
 23
65.5338269185
 33
0.0
  0
SOLID
  5
1D8
330
1D4
100
AcDbEntity
  8
VERMASSUNG
100
AcDbTrace
 10
151.6347945616
 20
65.9838269185
 30
0.0
 11
154.6347945616
 21
65.5338269185
 31
0.0
 12
154.6347945616
 22
66.4338269185
 32
0.0
 13
154.6347945616
 23
66.4338269185
 33
0.0
  0
LINE
  5
1D9
330
1D4
100
AcDbEntity
  8
VERMASSUNG
100
AcDbLine
 10
254.6347945616
 20
80.4239858639
 30
0.0
 11
254.6347945616
 21
64.9838269185
 31
0.0
  0
LINE
  5
1DA
330
1D4
100
AcDbEntity
  8
VERMASSUNG
100
AcDbLine
 10
151.6347945616
 20
105.1316478714
 30
0.0
 11
151.6347945616
 21
64.9838269185
 31
0.0
  0
LINE
  5
1DB
330
1D4
100
AcDbEntity
  8
VERMASSUNG
100
AcDbLine
 10
254.6347945616
 20
65.9838269185
 30
0.0
 11
151.6347945616
 21
65.9838269185
 31
0.0
  0
MTEXT
  5
1DC
330
1D4
100
AcDbEntity
  8
VERMASSUNG
100
AcDbMText
 10
201.2347945296
 20
68.5619625145
 30
0.0
 40
2.0
 41
0.0
 71
     1
 72
     1
  1
103
  7
SLDTEXTSTYLE0
 73
     1
 44
1.0
  0
ENDBLK
  5
1D6
330
1D4
100
AcDbEntity
  8
0
100
AcDbBlockEnd
  0
BLOCK
  5
1DF
330
1DE
100
AcDbEntity
  8
0
100
AcDbBlockBegin
  2
_D_2
 70
     0
 10
0.0
 20
0.0
 30
0.0
  3
_D_2
  1

  0
SOLID
  5
1E1
330
1DE
100
AcDbEntity
  8
VERMASSUNG
100
AcDbTrace
 10
273.9284733822
 20
80.4239858639
 30
0.0
 11
274.3784733822
 21
83.4239858639
 31
0.0
 12
273.4784733822
 22
83.4239858639
 32
0.0
 13
273.4784733822
 23
83.4239858639
 33
0.0
  0
SOLID
  5
1E2
330
1DE
100
AcDbEntity
  8
VERMASSUNG
100
AcDbTrace
 10
273.9284733822
 20
125.4239858639
 30
0.0
 11
273.4784733822
 21
122.4239858639
 31
0.0
 12
274.3784733822
 22
122.4239858639
 32
0.0
 13
274.3784733822
 23
122.4239858639
 33
0.0
  0
LINE
  5
1E3
330
1DE
100
AcDbEntity
  8
VERMASSUNG
100
AcDbLine
 10
255.0794594349
 20
80.4239858639
 30
0.0
 11
274.9284733822
 21
80.4239858639
 31
0.0
  0
LINE
  5
1E4
330
1DE
100
AcDbEntity
  8
VERMASSUNG
100
AcDbLine
 10
256.3281489157
 20
125.4239858639
 30
0.0
 11
274.9284733822
 21
125.4239858639
 31
0.0
  0
LINE
  5
1E5
330
1DE
100
AcDbEntity
  8
VERMASSUNG
100
AcDbLine
 10
273.9284733822
 20
80.4239858639
 30
0.0
 11
273.9284733822
 21
125.4239858639
 31
0.0
  0
MTEXT
  5
1E6
330
1DE
100
AcDbEntity
  8
VERMASSUNG
100
AcDbMText
 10
271.3503377863
 20
99.173985482
 30
0.0
 40
2.0
 41
0.0
 71
     1
 72
     1
  1
45
  7
SLDTEXTSTYLE0
 11
6.123233995736766E-17
 21
1.0
 31
0.0
 73
     1
 44
1.0
  0
MTEXT
  5
1E7
330
1DE
100
AcDbEntity
  8
VERMASSUNG
100
AcDbMText
 10
271.3503377863
 20
103.3614855081
 30
0.0
 40
2.0
 41
0.0
 71
     1
 72
     1
  1

  7
SLDTEXTSTYLE0
 11
6.123233995736766E-17
 21
1.0
 31
0.0
 73
     1
 44
1.0
  0
MTEXT
  5
1E8
330
1DE
100
AcDbEntity
  8
VERMASSUNG
100
AcDbMText
 10
271.8448716199
 20
103.3739853323
 30
0.0
 40
1.5
 41
0.0
 71
     1
 72
     1
  1
±0.1
  7
SLDTEXTSTYLE0
 11
6.123233995736766E-17
 21
1.0
 31
0.0
 73
     1
 44
1.0
  0
ENDBLK
  5
1E0
330
1DE
100
AcDbEntity
  8
0
100
AcDbBlockEnd
  0
BLOCK
  5
1EC
330
1EB
100
AcDbEntity
  8
0
100
AcDbBlockBegin
  2
_D_3
 70
     0
 10
0.0
 20
0.0
 30
0.0
  3
_D_3
  1

  0
ARC
  5
1EE
330
1EB
100
AcDbEntity
  8
VERMASSUNG
100
AcDbCircle
 10
254.6563066117
 20
80.4239858639
 30
0.0
 40
11.11523265282901
100
AcDbArc
 50
0.0
 51
93.0
  0
SOLID
  5
1EF
330
1EB
100
AcDbEntity
  8
VERMASSUNG
100
AcDbTrace
 10
265.7715392645
 20
80.4239858639
 30
0.0
 11
265.8233520769
 21
83.4571056163
 31
0.0
 12
264.9311589206
 22
83.3388204866
 32
0.0
 13
264.9311589206
 23
83.3388204866
 33
0.0
  0
SOLID
  5
1F0
330
1EB
100
AcDbEntity
  8
VERMASSUNG
100
AcDbTrace
 10
254.074580282
 20
91.5239854767
 30
0.0
 11
257.029402334
 21
90.8373075021
 31
0.0
 12
257.1008315761
 22
91.734468504
 32
0.0
 13
257.1008315761
 23
91.734468504
 33
0.0
  0
LINE
  5
1F1
330
1EB
100
AcDbEntity
  8
VERMASSUNG
100
AcDbLine
 10
255.0794594349
 20
80.4239858639
 30
0.0
 11
266.7715392645
 21
80.4239858639
 31
0.0
  0
MTEXT
  5
1F2
330
1EB
100
AcDbEntity
  8
VERMASSUNG
100
AcDbMText
 10
262.6314506604
 20
91.7335133009
 30
0.0
 40
2.0
 41
0.0
 71
     1
 72
     1
  1
93°
  7
SLDTEXTSTYLE0
 11
0.725374371012286
 21
-0.6883545756937558
 31
0.0
 73
     1
 44
1.0
  0
ENDBLK
  5
1ED
330
1EB
100
AcDbEntity
  8
0
100
AcDbBlockEnd
  0
BLOCK
  5
1F5
330
1F4
100
AcDbEntity
  8
0
100
AcDbBlockBegin
  2
_D_4
 70
     0
 10
0.0
 20
0.0
 30
0.0
  3
_D_4
  1

  0
SOLID
  5
1F7
330
1F4
100
AcDbEntity
  8
VERMASSUNG
100
AcDbTrace
 10
141.6347945616
 20
156.9239858639
 30
0.0
 11
141.1847945616
 21
153.9239858639
 31
0.0
 12
142.0847945616
 22
153.9239858639
 32
0.0
 13
142.0847945616
 23
153.9239858639
 33
0.0
  0
SOLID
  5
1F8
330
1F4
100
AcDbEntity
  8
VERMASSUNG
100
AcDbTrace
 10
141.6347945616
 20
93.9239858639
 30
0.0
 11
142.0847945616
 21
96.9239858639
 31
0.0
 12
141.1847945616
 22
96.9239858639
 32
0.0
 13
141.1847945616
 23
96.9239858639
 33
0.0
  0
LINE
  5
1F9
330
1F4
100
AcDbEntity
  8
VERMASSUNG
100
AcDbLine
 10
190.1347945616
 20
156.9239858639
 30
0.0
 11
140.6347945616
 21
156.9239858639
 31
0.0
  0
LINE
  5
1FA
330
1F4
100
AcDbEntity
  8
VERMASSUNG
100
AcDbLine
 10
190.1347945616
 20
93.9239858639
 30
0.0
 11
140.6347945616
 21
93.9239858639
 31
0.0
  0
LINE
  5
1FB
330
1F4
100
AcDbEntity
  8
VERMASSUNG
100
AcDbLine
 10
141.6347945616
 20
156.9239858639
 30
0.0
 11
141.6347945616
 21
93.9239858639
 31
0.0
  0
MTEXT
  5
1FC
330
1F4
100
AcDbEntity
  8
VERMASSUNG
100
AcDbMText
 10
138.8566593054
 20
119.9189865541
 30
0.0
 40
2.0
 41
0.0
 71
     1
 72
     1
  1
PSC
  7
SLDTEXTSTYLE0
 11
-7.044195017643634E-15
 21
1.0
 31
0.0
 73
     1
 44
1.0
  0
MTEXT
  5
1FD
330
1F4
100
AcDbEntity
  8
VERMASSUNG
100
AcDbMText
 10
139.0566592567
 20
124.5189861905
 30
0.0
 40
2.0
 41
0.0
 71
     1
 72
     1
  1
%%c
  7
SLDTEXTSTYLE0
 11
-7.044195017643634E-15
 21
1.0
 31
0.0
 73
     1
 44
1.0
  0
MTEXT
  5
1FE
330
1F4
100
AcDbEntity
  8
VERMASSUNG
100
AcDbMText
 10
138.8566593054
 20
128.1289862048
 30
0.0
 40
2.0
 41
0.0
 71
     1
 72
     1
  1
63
  7
SLDTEXTSTYLE0
 11
-7.044195017643634E-15
 21
1.0
 31
0.0
 73
     1
 44
1.0
  0
ENDBLK
  5
1F6
330
1F4
100
AcDbEntity
  8
0
100
AcDbBlockEnd
  0
BLOCK
  5
22A
330
229
100
AcDbEntity
  8
0
100
AcDbBlockBegin
  2
_D_5
 70
     0
 10
0.0
 20
0.0
 30
0.0
  3
_D_5
  1

  0
SOLID
  5
22C
330
229
100
AcDbEntity
  8
VERMASSUNG
100
AcDbTrace
 10
40.3704381268
 20
92.1385896006
 30
0.0
 11
37.9309197317
 21
90.3354673086
 31
0.0
 12
38.5673158348
 22
89.6990712055
 32
0.0
 13
38.5673158348
 23
89.6990712055
 33
0.0
  0
SOLID
  5
22D
330
229
100
AcDbEntity
  8
VERMASSUNG
100
AcDbTrace
 10
96.9389806218
 20
148.7071320955
 30
0.0
 11
99.3784990169
 21
150.5102543875
 31
0.0
 12
98.7421029138
 22
151.1466504906
 32
0.0
 13
98.7421029138
 23
151.1466504906
 33
0.0
  0
LINE
  5
22E
330
229
100
AcDbEntity
  8
VERMASSUNG
100
AcDbLine
 10
96.9389806218
 20
148.7071320955
 30
0.0
 11
109.6868495614
 21
161.4550010352
 31
0.0
  0
LINE
  5
22F
330
229
100
AcDbEntity
  8
VERMASSUNG
100
AcDbLine
 10
40.3704381268
 20
92.1385896006
 30
0.0
 11
36.1277974397
 21
87.8959489135
 31
0.0
  0
LINE
  5
230
330
229
100
AcDbEntity
  8
VERMASSUNG
100
AcDbLine
 10
96.9389806218
 20
148.7071320955
 30
0.0
 11
40.3704381268
 21
92.1385896006
 31
0.0
  0
MTEXT
  5
231
330
229
100
AcDbEntity
  8
VERMASSUNG
100
AcDbMText
 10
99.3725227531
 20
154.7846233628
 30
0.0
 40
2.0
 41
0.0
 71
     1
 72
     1
  1
%%c
  7
SLDTEXTSTYLE0
 11
0.707106781186546
 21
0.7071067811865491
 31
0.0
 73
     1
 44
1.0
  0
MTEXT
  5
232
330
229
100
AcDbEntity
  8
VERMASSUNG
100
AcDbMText
 10
101.7837569215
 20
157.4787001748
 30
0.0
 40
2.0
 41
0.0
 71
     1
 72
     1
  1
80
  7
SLDTEXTSTYLE0
 11
0.707106781186546
 21
0.7071067811865491
 31
0.0
 73
     1
 44
1.0
  0
MTEXT
  5
233
330
229
100
AcDbEntity
  8
VERMASSUNG
100
AcDbMText
 10
104.6033451409
 20
160.2982883942
 30
0.0
 40
2.0
 41
0.0
 71
     1
 72
     1
  1
min.
  7
SLDTEXTSTYLE0
 11
0.707106781186546
 21
0.7071067811865491
 31
0.0
 73
     1
 44
1.0
  0
ENDBLK
  5
22B
330
229
100
AcDbEntity
  8
0
100
AcDbBlockEnd
  0
BLOCK
  5
235
330
234
100
AcDbEntity
  8
0
100
AcDbBlockBegin
  2
SW_CENTERMARKSYMBOL_0
 70
     0
 10
0.0
 20
0.0
 30
0.0
  3
SW_CENTERMARKSYMBOL_0
  1

  0
LINE
  5
237
330
234
100
AcDbEntity
  8
VERMASSUNG
 62
     0
100
AcDbLine
 10
0.0
 20
0.0
 30
0.0
 11
0.0
 21
2.5
 31
0.0
  0
LINE
  5
238
330
234
100
AcDbEntity
  8
VERMASSUNG
 62
     0
100
AcDbLine
 10
0.0
 20
0.0
 30
0.0
 11
-2.5
 21
0.0
 31
0.0
  0
LINE
  5
239
330
234
100
AcDbEntity
  8
VERMASSUNG
 62
     0
100
AcDbLine
 10
0.0
 20
0.0
 30
0.0
 11
0.0
 21
-2.5
 31
0.0
  0
LINE
  5
23A
330
234
100
AcDbEntity
  8
VERMASSUNG
 62
     0
100
AcDbLine
 10
0.0
 20
0.0
 30
0.0
 11
2.5
 21
0.0
 31
0.0
  0
LINE
  5
23B
330
234
100
AcDbEntity
  8
VERMASSUNG
 62
     0
100
AcDbLine
 10
0.0
 20
5.0
 30
0.0
 11
0.0
 21
34.0
 31
0.0
  0
LINE
  5
23C
330
234
100
AcDbEntity
  8
VERMASSUNG
 62
     0
100
AcDbLine
 10
-5.0
 20
0.0
 30
0.0
 11
-34.0
 21
0.0
 31
0.0
  0
LINE
  5
23D
330
234
100
AcDbEntity
  8
VERMASSUNG
 62
     0
100
AcDbLine
 10
0.0
 20
-5.0
 30
0.0
 11
0.0
 21
-44.7353913671
 31
0.0
  0
LINE
  5
23E
330
234
100
AcDbEntity
  8
VERMASSUNG
 62
     0
100
AcDbLine
 10
5.0
 20
0.0
 30
0.0
 11
34.0
 21
0.0
 31
0.0
  0
ENDBLK
  5
236
330
234
100
AcDbEntity
  8
0
100
AcDbBlockEnd
  0
ENDSEC
  0
SECTION
  2
ENTITIES
  0
MTEXT
  5
78
330
1F
100
AcDbEntity
  8
KOPF_DÜNN
100
AcDbMText
 10
13.8892156294
 20
23.8442973028
 30
0.0
 40
3.0
 41
0.0
 71
     1
 72
     1
  1
PS6.KVF.LUA.065
  7
SLDTEXTSTYLE0
 73
     1
 44
1.0
  0
MTEXT
  5
79
330
1F
100
AcDbEntity
  8
VERMASSUNG
100
AcDbMText
 10
13.9329988022
 20
28.8834360957
 30
0.0
 40
3.0
 41
0.0
 71
     1
 72
     1
  1
Klemmhalter links_Turning tool left 93°/35°
  7
SLDTEXTSTYLE0
 73
     1
 44
1.0
  0
MTEXT
  5
7A
330
1F
100
AcDbEntity
  8
VERMASSUNG
100
AcDbMText
 10
98.8601118557
 20
13.8365368761
 30
0.0
 40
2.0
 41
0.0
 71
     1
 72
     1
  1
Datum: 07.02.2018
  7
SLDTEXTSTYLE0
 73
     1
 44
1.0
  0
MTEXT
  5
7C
330
1F
100
AcDbEntity
  8
VERMASSUNG
100
AcDbMText
 10
13.933048693
 20
18.0482802738
 30
0.0
 40
2.0
 41
0.0
 71
     1
 72
     1
  1
PSC Ø63 / VB.. 16 04 ...
  7
SLDTEXTSTYLE1
 73
     1
 44
1.0
  0
MTEXT
  5
7D
330
1F
100
AcDbEntity
  8
VERMASSUNG
100
AcDbMText
 10
13.9808475933
 20
13.9090974274
 30
0.0
 40
2.0
 41
0.0
 71
     1
 72
     1
  1
Gewicht: 1281g
  7
SLDTEXTSTYLE0
 73
     1
 44
1.0
  0
ARC
  5
7E
330
1F
100
AcDbEntity
  8
0
  6
Continuous
 62
     7
370
    25
100
AcDbCircle
 10
210.6347945616
 20
111.7739858639
 30
0.0
 40
2.50000000000002
100
AcDbArc
 50
289.1056234321
 51
338.6286669096
  0
ARC
  5
7F
330
1F
100
AcDbEntity
  8
0
  6
Continuous
 62
     7
370
    25
100
AcDbCircle
 10
210.6347945616
 20
111.7739858639
 30
0.0
 40
2.500000000000007
100
AcDbArc
 50
201.3713330904
 51
289.1056234321
  0
LINE
  5
80
330
1F
100
AcDbEntity
  8
VERMASSUNG
  6
Continuous
370
    25
100
AcDbLine
 10
226.1543460676
 20
156.9239858639
 30
0.0
 11
190.1347945616
 21
156.9239858639
 31
0.0
  0
LINE
  5
81
330
1F
100
AcDbEntity
  8
VERMASSUNG
  6
Continuous
370
    25
100
AcDbLine
 10
190.1347945616
 20
93.9239858639
 30
0.0
 11
226.8674675736
 21
93.9239858639
 31
0.0
  0
ARC
  5
82
330
1F
100
AcDbEntity
  8
VERMASSUNG
  6
Continuous
370
    25
100
AcDbCircle
 10
190.1347945616
 20
94.4239858639
 30
0.0
 40
0.5
100
AcDbArc
 50
180.0
 51
270.0
  0
ARC
  5
83
330
1F
100
AcDbEntity
  8
VERMASSUNG
  6
Continuous
370
    25
100
AcDbCircle
 10
190.1347945616
 20
156.4239858639
 30
0.0
 40
0.5
100
AcDbArc
 50
90.0
 51
180.0
  0
LWPOLYLINE
  5
84
330
1F
100
AcDbEntity
  8
VERMASSUNG
  6
Continuous
370
    25
100
AcDbPolyline
 90
        3
 70
   128
 43
0.0
 10
189.4347945616
 20
102.884165585
 10
189.5602495051
 20
102.8158634701
 10
189.6347945616
 20
102.7631257119
  0
LWPOLYLINE
  5
85
330
1F
100
AcDbEntity
  8
VERMASSUNG
  6
Continuous
370
    25
100
AcDbPolyline
 90
        3
 70
   128
 43
0.0
 10
189.6347945616
 20
148.0848460158
 10
189.5602495051
 20
148.0321082577
 10
189.4347945616
 20
147.9638061428
  0
ARC
  5
86
330
1F
100
AcDbEntity
  8
VERMASSUNG
  6
Continuous
370
    25
100
AcDbCircle
 10
226.8674675736
 20
92.9239858639
 30
0.0
 40
1.000000000000003
100
AcDbArc
 50
59.0494945538
 51
67.5244230154
  0
LWPOLYLINE
  5
87
330
1F
100
AcDbEntity
  8
0
  6
Continuous
 62
     7
370
    25
100
AcDbPolyline
 90
       16
 70
   128
 43
0.0
 10
213.6298391931
 20
109.9947185155
 10
213.6277975548
 20
109.9666449148
 10
213.5071898432
 20
109.3943132623
 10
213.2425482382
 20
108.8595733243
 10
212.8471429748
 20
108.3892391944
 10
212.3408013239
 20
108.0068953896
 10
211.7489133704
 20
107.731714225
 10
211.1011588476
 20
107.577494433
 10
210.4300188722
 20
107.5519692382
 10
209.7691472049
 20
107.6564185803
 10
209.1516827107
 20
107.8856049332
 10
208.6085876376
 20
108.2280359361
 10
208.1670950404
 20
108.6665406687
 10
207.8493432014
 20
109.1791306726
 10
207.6712655247
 20
109.7401025448
 10
207.6347945616
 20
110.1439858639
  0
LWPOLYLINE
  5
88
330
1F
100
AcDbEntity
  8
0
  6
Continuous
 62
     7
370
    25
100
AcDbPolyline
 90
       18
 70
   128
 43
0.0
 10
213.2902581916
 20
110.9938144795
 10
213.463623076
 20
110.4386733015
 10
213.4844850829
 20
109.8638717293
 10
213.3517195362
 20
109.3003974645
 10
213.0724838609
 20
108.7786275505
 10
212.6618317245
 20
108.3266907385
 10
212.1419014899
 20
107.968951059
 10
211.5407227308
 20
107.7246943506
 10
210.8907051495
 20
107.6070885559
 10
210.2268913623
 20
107.6224738335
 10
209.585067742
 20
107.7700207593
 10
208.9998351664
 20
108.0417750402
 10
208.5027436749
 20
108.4230863326
 10
208.1205915986
 20
108.8933980461
 10
207.8739808548
 20
109.4273555544
 10
207.7762062925
 20
109.9961730701
 10
207.8325389638
 20
110.5691854936
 10
207.9567170693
 20
110.9432532041
  0
LWPOLYLINE
  5
89
330
1F
100
AcDbEntity
  8
0
  6
Continuous
 62
     7
370
    25
100
AcDbPolyline
 90
       26
 70
   128
 43
0.0
 10
212.9560040284
 20
110.8780318566
 10
213.1139706986
 20
110.3528483051
 10
213.1161616144
 20
109.8101428009
 10
212.9624391124
 20
109.2840155266
 10
212.6624621428
 20
108.807524994
 10
212.2350793619
 20
108.4106108555
 10
211.7071448015
 20
108.1182126863
 10
211.1118305317
 20
107.9487029386
 10
210.4865423375
 20
107.9127325334
 10
209.8705693757
 20
108.0125616235
 10
209.302615493
 20
108.2419175799
 10
208.8183673206
 20
108.5863891246
 10
208.4482519522
 20
109.0243318434
 10
208.2155250973
 20
109.5282281846
 10
208.1348098404
 20
110.066416488
 10
208.2111778179
 20
110.6050804031
 10
208.4398305487
 20
111.1103736951
 10
208.806400941
 20
111.550546928
 10
209.2878560289
 20
111.8979423989
 10
209.8539442184
 20
112.1307319727
 10
210.4690961068
 20
112.2342886243
 10
211.0946594385
 20
112.2021055084
 10
211.6913277687
 20
112.0362048085
 10
212.2216102319
 20
111.7470106758
 10
212.6521872306
 20
111.3526942413
 10
212.9560040284
 20
110.8780318566
  0
LINE
  5
8A
330
1F
100
AcDbEntity
  8
0
  6
Continuous
 62
     7
370
    25
100
AcDbLine
 10
254.6351421382
 20
80.8278280752
 30
0.0
 11
253.8381090164
 21
96.0361260179
 31
0.0
  0
LINE
  5
8B
330
1F
100
AcDbEntity
  8
0
  6
Continuous
 62
     7
370
    25
100
AcDbLine
 10
244.5541150446
 20
92.5649829074
 30
0.0
 11
253.9301276927
 21
80.5642339752
 31
0.0
  0
LINE
  5
8C
330
1F
100
AcDbEntity
  8
0
  6
Continuous
 62
     7
370
    25
100
AcDbLine
 10
243.6731550959
 20
107.9977533451
 30
0.0
 11
244.4701882178
 21
92.7894554024
 31
0.0
  0
LINE
  5
8D
330
1F
100
AcDbEntity
  8
0
  6
Continuous
 62
     7
370
    25
100
AcDbLine
 10
253.7541821895
 20
96.2605985128
 30
0.0
 11
244.3781695415
 21
108.2613474451
 31
0.0
  0
LINE
  5
8E
330
1F
100
AcDbEntity
  8
0
  6
Continuous
 62
     7
370
    25
100
AcDbLine
 10
244.5701708204
 20
92.5769178365
 30
0.0
 11
253.9353504752
 21
80.5900345033
 31
0.0
  0
ARC
  5
8F
330
1F
100
AcDbEntity
  8
0
  6
Continuous
 62
     7
370
    25
100
AcDbCircle
 10
254.2347945616
 20
80.8239858639
 30
0.0
 40
0.3800000000000047
100
AcDbArc
 50
218.0
 51
3.0
  0
LINE
  5
90
330
1F
100
AcDbEntity
  8
0
  6
Continuous
 62
     7
370
    25
100
AcDbLine
 10
254.6142737848
 20
80.8438735273
 30
0.0
 11
253.8181615503
 21
96.0345998865
 31
0.0
  0
ARC
  5
91
330
1F
100
AcDbEntity
  8
0
  6
Continuous
 62
     7
370
    25
100
AcDbCircle
 10
253.4386823274
 20
96.0147122231
 30
0.0
 40
0.3800000000000008
100
AcDbArc
 50
3.0
 51
38.0
  0
LINE
  5
92
330
1F
100
AcDbEntity
  8
0
  6
Continuous
 62
     7
370
    25
100
AcDbLine
 10
253.7381264138
 20
96.2486635838
 30
0.0
 11
244.3729467589
 21
108.235546917
 31
0.0
  0
ARC
  5
93
330
1F
100
AcDbEntity
  8
0
  6
Continuous
 62
     7
370
    25
100
AcDbCircle
 10
244.0735026726
 20
108.0015955564
 30
0.0
 40
0.3800000000000054
100
AcDbArc
 50
38.0
 51
183.0
  0
LINE
  5
94
330
1F
100
AcDbEntity
  8
0
  6
Continuous
 62
     7
370
    25
100
AcDbLine
 10
243.6940234494
 20
107.981707893
 30
0.0
 11
244.4901356835
 21
92.7909815337
 31
0.0
  0
ARC
  5
95
330
1F
100
AcDbEntity
  8
0
  6
Continuous
 62
     7
370
    25
100
AcDbCircle
 10
244.8696149068
 20
92.8108691971
 30
0.0
 40
0.3800000000000096
100
AcDbArc
 50
183.0
 51
218.0
  0
SPLINE
  5
96
330
1F
100
AcDbEntity
  8
0
  6
Continuous
 62
     7
370
    25
100
AcDbSpline
210
0.0
220
0.0
230
1.0
 70
     8
 71
     3
 72
    10
 73
     6
 74
     0
 42
0.000000001
 43
0.00000001
 40
0.0
 40
0.0
 40
0.0
 40
0.0
 40
0.2724625973603336
 40
0.5448192322760292
 40
1.0
 40
1.0
 40
1.0
 40
1.0
 10
244.4701882177792
 20
92.78945540237646
 30
0.0
 10
244.4724495768095
 20
92.76748453512789
 30
0.0
 10
244.476971415413
 20
92.72355134524142
 30
0.0
 10
244.5010803701154
 20
92.6453785810129
 30
0.0
 10
244.5337041263971
 20
92.59592397632466
 30
0.0
 10
244.5541150446213
 20
92.56498290738743
 30
0.0
  0
SPLINE
  5
97
330
1F
100
AcDbEntity
  8
0
  6
Continuous
 62
     7
370
    25
100
AcDbSpline
210
0.0
220
0.0
230
1.0
 70
     8
 71
     3
 72
    10
 73
     6
 74
     0
 42
0.000000001
 43
0.00000001
 40
0.0
 40
0.0
 40
0.0
 40
0.0
 40
0.2724625973602984
 40
0.544819232276059
 40
1.0
 40
1.0
 40
1.0
 40
1.0
 10
253.8381090163884
 20
96.03612601786047
 30
0.0
 10
253.8358476573581
 20
96.05809688510902
 30
0.0
 10
253.8313258187546
 20
96.1020300749955
 30
0.0
 10
253.8072168640523
 20
96.18020283922401
 30
0.0
 10
253.7745931077705
 20
96.22965744391226
 30
0.0
 10
253.7541821895463
 20
96.26059851284948
 30
0.0
  0
SPLINE
  5
98
330
1F
100
AcDbEntity
  8
0
  6
Continuous
 62
     7
370
    25
100
AcDbSpline
210
0.0
220
0.0
230
1.0
 70
     8
 71
     3
 72
    22
 73
    18
 74
     0
 42
0.000000001
 43
0.00000001
 40
0.0
 40
0.0
 40
0.0
 40
0.0
 40
0.0674864769636904
 40
0.1369325816431713
 40
0.2043039051223194
 40
0.2736971534790706
 40
0.3398665269454097
 40
0.4080370858089257
 40
0.4728149753967562
 40
0.5395176553645724
 40
0.6035446801762349
 40
0.6694139584805712
 40
0.7337520852414197
 40
0.7998933349635678
 40
0.8653935258816108
 40
0.9327181810852702
 40
1.0
 40
1.0
 40
1.0
 40
1.0
 10
244.3781695414838
 20
108.2613474450734
 30
0.0
 10
244.363410044992
 20
108.2784774870801
 30
0.0
 10
244.3334624755039
 20
108.3132349819319
 30
0.0
 10
244.2785506774835
 20
108.3546922818431
 30
0.0
 10
244.2174449967274
 20
108.3871370172212
 30
0.0
 10
244.1525491004748
 20
108.4081714477203
 30
0.0
 10
244.0848191383492
 20
108.4178435114369
 30
0.0
 10
244.0179346183446
 20
108.4157795009443
 30
0.0
 10
243.9522605947227
 20
108.4022644695937
 30
0.0
 10
243.8911075938747
 20
108.3782726310853
 30
0.0
 10
243.8346105666845
 20
108.3441181909189
 30
0.0
 10
243.7851994887939
 20
108.3015027625516
 30
0.0
 10
243.7431382889111
 20
108.2507431426299
 30
0.0
 10
243.710019196406
 20
108.1938323476669
 30
0.0
 10
243.6865719578209
 20
108.1313454881599
 30
0.0
 10
243.6728424813359
 20
108.0653958633435
 30
0.0
 10
243.6730509131739
 20
108.0202960670689
 30
0.0
 10
243.673155095928
 20
107.9977533450645
 30
0.0
  0
SPLINE
  5
99
330
1F
100
AcDbEntity
  8
0
  6
Continuous
 62
     7
370
    25
100
AcDbSpline
210
0.0
220
0.0
230
1.0
 70
     8
 71
     3
 72
    33
 73
    29
 74
     0
 42
0.000000001
 43
0.00000001
 40
0.0
 40
0.0
 40
0.0
 40
0.0
 40
0.0336619417657195
 40
0.0676521958940892
 40
0.1021334000512149
 40
0.1369609470892568
 40
0.1705638747496741
 40
0.2045045299281118
 40
0.2389519485898122
 40
0.2737580886151202
 40
0.2984934086573737
 40
0.340094446360357
 40
0.3739333422513599
 40
0.4081269530507804
 40
0.4405276637654477
 40
0.4979314813688573
 40
0.5395939918438092
 40
0.5716173778706547
 40
0.6365150691662376
 40
0.6694583729143626
 40
0.7016361305437472
 40
0.7668265012023793
 40
0.7999041638871589
 40
0.8326629976743909
 40
0.8906612381518149
 40
0.9327103909821965
 40
0.9578638546048172
 40
1.0
 40
1.0
 40
1.0
 40
1.0
 10
253.9301276926838
 20
80.56423397516355
 30
0.0
 10
253.9372743802064
 20
80.55552361682487
 30
0.0
 10
253.9516374584755
 20
80.5380179460963
 30
0.0
 10
253.9760072032454
 20
80.51398614937014
 30
0.0
 10
254.0024643943566
 20
80.4917069024452
 30
0.0
 10
254.0306696789088
 20
80.47188704693225
 30
0.0
 10
254.0602865628414
 20
80.4546181802518
 30
0.0
 10
254.0911430998412
 20
80.43996323249439
 30
0.0
 10
254.1235202724826
 20
80.42786734157865
 30
0.0
 10
254.1538645685287
 20
80.41946860542205
 30
0.0
 10
254.1870787815468
 20
80.41292926778847
 30
0.0
 10
254.2204585179845
 20
80.40925068780194
 30
0.0
 10
254.2571725499216
 20
80.40877774006955
 30
0.0
 10
254.29072205857
 20
80.41129356074207
 30
0.0
 10
254.3317051905196
 20
80.41794862323322
 30
0.0
 10
254.3741771036828
 20
80.43004918314556
 30
0.0
 10
254.4145322059392
 20
80.44742223662504
 30
0.0
 10
254.4552052069936
 20
80.46975094657377
 30
0.0
 10
254.4905599060618
 20
80.49541248934922
 30
0.0
 10
254.522293912551
 20
80.52521754576719
 30
0.0
 10
254.5515024307292
 20
80.55763075094855
 30
0.0
 10
254.5766020209943
 20
80.59361572092678
 30
0.0
 10
254.5970517500611
 20
80.63242983154686
 30
0.0
 10
254.6132877959498
 20
80.67058451296913
 30
0.0
 10
254.6260195788214
 20
80.71333481118027
 30
0.0
 10
254.6328507196884
 20
80.7547177526002
 30
0.0
 10
254.6360015016119
 20
80.79119757965886
 30
0.0
 10
254.6354730499176
 20
80.81372291416037
 30
0.0
 10
254.6351421382397
 20
80.82782807517236
 30
0.0
  0
LINE
  5
9A
330
1F
100
AcDbEntity
  8
0
  6
Continuous
 62
     7
370
    25
100
AcDbLine
 10
253.4386823274
 20
96.0147122231
 30
0.0
 11
253.8181615503
 21
96.0345998865
 31
0.0
  0
LINE
  5
9B
330
1F
100
AcDbEntity
  8
0
  6
Continuous
 62
     7
370
    25
100
AcDbLine
 10
254.2347945616
 20
80.8239858639
 30
0.0
 11
254.6142737848
 21
80.8438735273
 31
0.0
  0
LINE
  5
9C
330
1F
100
AcDbEntity
  8
0
  6
Continuous
 62
     7
370
    25
100
AcDbLine
 10
253.0636073822
 20
83.9564682672
 30
0.0
 11
254.2347945616
 21
80.8239858639
 31
0.0
  0
LINE
  5
9D
330
1F
100
AcDbEntity
  8
0
  6
Continuous
 62
     7
370
    25
100
AcDbLine
 10
253.0636073822
 20
83.9564682672
 30
0.0
 11
252.997875657
 21
85.2107043004
 31
0.0
  0
LINE
  5
9E
330
1F
100
AcDbEntity
  8
0
  6
Continuous
 62
     7
370
    25
100
AcDbLine
 10
253.3107158508
 20
95.966867518
 30
0.0
 11
253.4386823274
 21
96.0147122231
 31
0.0
  0
LINE
  5
9F
330
1F
100
AcDbEntity
  8
0
  6
Continuous
 62
     7
370
    25
100
AcDbLine
 10
252.6479721773
 20
87.7914270943
 30
0.0
 11
252.2569875442
 21
95.2518583206
 31
0.0
  0
ARC
  5
A0
330
1F
100
AcDbEntity
  8
0
  6
Continuous
 62
     7
370
    25
100
AcDbCircle
 10
246.6589545916
 20
101.0864902822
 30
0.0
 40
1.000000000000026
100
AcDbArc
 50
38.0
 51
183.0
  0
LINE
  5
A1
330
1F
100
AcDbEntity
  8
0
  6
Continuous
 62
     7
370
    25
100
AcDbLine
 10
252.0463687631
 20
95.8151838397
 30
0.0
 11
247.4469653452
 21
101.7021517575
 31
0.0
  0
ARC
  5
A2
330
1F
100
AcDbEntity
  8
0
  6
Continuous
 62
     7
370
    25
100
AcDbCircle
 10
251.2583580095
 20
95.1995223644
 30
0.0
 40
1.000000000000025
100
AcDbArc
 50
3.0
 51
38.0
  0
ARC
  5
A3
330
1F
100
AcDbEntity
  8
0
  6
Continuous
 62
     7
370
    25
100
AcDbCircle
 10
251.6493426426
 20
87.7390911381
 30
0.0
 40
1.000000000295368
100
AcDbArc
 50
218.0
 51
3.0
  0
LINE
  5
A4
330
1F
100
AcDbEntity
  8
0
  6
Continuous
 62
     7
370
    25
100
AcDbLine
 10
246.2619284711
 20
93.0103975805
 30
0.0
 11
250.8613318887
 21
87.1234296626
 31
0.0
  0
ARC
  5
A5
330
1F
100
AcDbEntity
  8
0
  6
Continuous
 62
     7
370
    25
100
AcDbCircle
 10
247.0499392247
 20
93.6260590559
 30
0.0
 40
1.000000000000018
100
AcDbArc
 50
183.0
 51
218.0
  0
LINE
  5
A6
330
1F
100
AcDbEntity
  8
0
  6
Continuous
 62
     7
370
    25
100
AcDbLine
 10
245.6603250569
 20
101.0341543259
 30
0.0
 11
246.0513096899
 21
93.5737230996
 31
0.0
  0
CIRCLE
  5
A7
330
1F
100
AcDbEntity
  8
0
  6
Continuous
 62
     7
370
    25
100
AcDbCircle
 10
249.1541486171
 20
94.4127907101
 30
0.0
 40
3.049999999999967
  0
LINE
  5
A8
330
1F
100
AcDbEntity
  8
0
  6
Continuous
 62
     7
370
    25
100
AcDbLine
 10
254.2347945616
 20
80.8239858639
 30
0.0
 11
253.9353504752
 21
80.5900345033
 31
0.0
  0
LINE
  5
A9
330
1F
100
AcDbEntity
  8
0
  6
Continuous
 62
     7
370
    25
100
AcDbLine
 10
244.8696149068
 20
92.8108691971
 30
0.0
 11
244.5701708204
 21
92.5769178365
 31
0.0
  0
LINE
  5
AA
330
1F
100
AcDbEntity
  8
0
  6
Continuous
 62
     7
370
    25
100
AcDbLine
 10
244.9975813834
 20
92.8587139022
 30
0.0
 11
244.8696149068
 21
92.8108691971
 31
0.0
  0
LINE
  5
AB
330
1F
100
AcDbEntity
  8
0
  6
Continuous
 62
     7
370
    25
100
AcDbLine
 10
252.2903628709
 20
84.9461761091
 30
0.0
 11
253.0636073822
 21
83.9564682672
 31
0.0
  0
ARC
  5
AC
330
1F
100
AcDbEntity
  8
0
  6
Continuous
 62
     7
370
    25
100
AcDbCircle
 10
251.6493426426
 20
87.7390911381
 30
0.0
 40
2.385640646055128
100
AcDbArc
 50
289.5810823052
 51
291.4189176948
  0
LINE
  5
AD
330
1F
100
AcDbEntity
  8
0
  6
Continuous
 62
     7
370
    25
100
AcDbLine
 10
253.4386823274
 20
96.0147122231
 30
0.0
 11
253.7381264138
 21
96.2486635838
 31
0.0
  0
LINE
  5
AE
330
1F
100
AcDbEntity
  8
0
  6
Continuous
 62
     7
370
    25
100
AcDbLine
 10
245.2446898519
 20
104.869113153
 30
0.0
 11
244.0735026726
 21
108.0015955564
 31
0.0
  0
LINE
  5
AF
330
1F
100
AcDbEntity
  8
0
  6
Continuous
 62
     7
370
    25
100
AcDbLine
 10
244.0735026726
 20
108.0015955564
 30
0.0
 11
244.3729467589
 21
108.235546917
 31
0.0
  0
LINE
  5
B0
330
1F
100
AcDbEntity
  8
0
  6
Continuous
 62
     7
370
    25
100
AcDbLine
 10
246.0179343632
 20
103.8794053111
 30
0.0
 11
245.2446898519
 21
104.869113153
 31
0.0
  0
LINE
  5
B1
330
1F
100
AcDbEntity
  8
0
  6
Continuous
 62
     7
370
    25
100
AcDbLine
 10
244.8696149068
 20
92.8108691971
 30
0.0
 11
244.4901356835
 21
92.7909815337
 31
0.0
  0
LINE
  5
B2
330
1F
100
AcDbEntity
  8
0
  6
Continuous
 62
     7
370
    25
100
AcDbLine
 10
244.0735026726
 20
108.0015955564
 30
0.0
 11
243.6940234494
 21
107.981707893
 31
0.0
  0
LINE
  5
B3
330
1F
100
AcDbEntity
  8
0
  6
Continuous
 62
     7
370
    25
100
AcDbLine
 10
245.2446898519
 20
104.869113153
 30
0.0
 11
245.3104215771
 21
103.6148771199
 31
0.0
  0
ARC
  5
B4
330
1F
100
AcDbEntity
  8
0
  6
Continuous
 62
     7
370
    25
100
AcDbCircle
 10
246.6589545916
 20
101.0864902822
 30
0.0
 40
2.385640646055116
100
AcDbArc
 50
109.5810823052
 51
111.4189176948
  0
SPLINE
  5
B5
330
1F
100
AcDbEntity
  8
0
  6
Continuous
 62
     7
370
    25
100
AcDbSpline
210
0.0
220
0.0
230
1.0
 70
     8
 71
     3
 72
    14
 73
    10
 74
     0
 42
0.000000001
 43
0.00000001
 40
0.0
 40
0.0
 40
0.0
 40
0.0
 40
0.2086064885492651
 40
0.365203609509296
 40
0.4768526932687135
 40
0.5890212938927666
 40
0.7185670083743686
 40
0.9352579530972476
 40
1.0
 40
1.0
 40
1.0
 40
1.0
 10
252.9978756570336
 20
85.21070430038313
 30
0.0
 10
252.9930115426222
 20
85.25991606719893
 30
0.0
 10
252.9844960254275
 20
85.34607021799475
 30
0.0
 10
252.9396306479733
 20
85.45163172246176
 30
0.0
 10
252.8789098387679
 20
85.51990596595898
 30
0.0
 10
252.8026886120641
 20
85.55860259143712
 30
0.0
 10
252.6930959060772
 20
85.5692181510826
 30
0.0
 10
252.5969889031374
 20
85.54687184790696
 30
0.0
 10
252.5348382577877
 20
85.52357367816793
 30
0.0
 10
252.5205408579945
 20
85.51821406773533
 30
0.0
  0
SPLINE
  5
B6
330
1F
100
AcDbEntity
  8
0
  6
Continuous
 62
     7
370
    25
100
AcDbSpline
210
0.0
220
0.0
230
1.0
 70
     8
 71
     3
 72
    14
 73
    10
 74
     0
 42
0.000000001
 43
0.00000001
 40
0.0
 40
0.0
 40
0.0
 40
0.0
 40
0.2055181916619312
 40
0.3570166013208111
 40
0.466847183576192
 40
0.577081539905046
 40
0.7093665789830397
 40
0.9240585340232114
 40
1.0
 40
1.0
 40
1.0
 40
1.0
 10
252.4488674573646
 20
85.49141648131322
 30
0.0
 10
252.4036617937942
 20
85.47331308173625
 30
0.0
 10
252.3251326269219
 20
85.44186470173123
 30
0.0
 10
252.2372452011953
 20
85.37207704726652
 30
0.0
 10
252.1891366454016
 20
85.29682208994569
 30
0.0
 10
252.1724694263366
 20
85.21334186222376
 30
0.0
 10
252.1907949040534
 20
85.10509434657249
 30
0.0
 10
252.2384818101927
 20
85.0153542954894
 30
0.0
 10
252.2796149338821
 20
84.96050740423252
 30
0.0
 10
252.2903628709302
 20
84.94617610911945
 30
0.0
  0
SPLINE
  5
B7
330
1F
100
AcDbEntity
  8
0
  6
Continuous
 62
     7
370
    25
100
AcDbSpline
210
0.0
220
0.0
230
1.0
 70
     8
 71
     3
 72
    14
 73
    10
 74
     0
 42
0.000000001
 43
0.00000001
 40
0.0
 40
0.0
 40
0.0
 40
0.0
 40
0.2055181916619107
 40
0.357016601320804
 40
0.4668471835761908
 40
0.5770815399050531
 40
0.7093665789830429
 40
0.9240585340231853
 40
1.0
 40
1.0
 40
1.0
 40
1.0
 10
245.8594297768031
 20
103.3341649389237
 30
0.0
 10
245.9046354403734
 20
103.3522683385007
 30
0.0
 10
245.9831646072457
 20
103.3837167185057
 30
0.0
 10
246.0710520329723
 20
103.4535043729704
 30
0.0
 10
246.119160588766
 20
103.5287593302912
 30
0.0
 10
246.135827807831
 20
103.6122395580132
 30
0.0
 10
246.1175023301141
 20
103.7204870736644
 30
0.0
 10
246.069815423975
 20
103.8102271247475
 30
0.0
 10
246.0286823002856
 20
103.8650740160044
 30
0.0
 10
246.0179343632375
 20
103.8794053111175
 30
0.0
  0
SPLINE
  5
B8
330
1F
100
AcDbEntity
  8
0
  6
Continuous
 62
     7
370
    25
100
AcDbSpline
210
0.0
220
0.0
230
1.0
 70
     8
 71
     3
 72
    14
 73
    10
 74
     0
 42
0.000000001
 43
0.00000001
 40
0.0
 40
0.0
 40
0.0
 40
0.0
 40
0.2086064885492665
 40
0.3652036095092768
 40
0.4768526932686931
 40
0.5890212938927495
 40
0.718567008374399
 40
0.9352579530974265
 40
1.0
 40
1.0
 40
1.0
 40
1.0
 10
245.3104215771338
 20
103.6148771198536
 30
0.0
 10
245.3152856915454
 20
103.5656653530378
 30
0.0
 10
245.3238012087402
 20
103.4795112022421
 30
0.0
 10
245.3686665861944
 20
103.3739496977751
 30
0.0
 10
245.4293873953998
 20
103.3056754542779
 30
0.0
 10
245.5056086221036
 20
103.2669788287998
 30
0.0
 10
245.6152013280905
 20
103.2563632691543
 30
0.0
 10
245.7113083310303
 20
103.27870957233
 30
0.0
 10
245.77345897638
 20
103.302007742069
 30
0.0
 10
245.7877563761731
 20
103.3073673525016
 30
0.0
  0
SPLINE
  5
B9
330
1F
100
AcDbEntity
  8
0
  6
Continuous
 62
     7
370
    25
100
AcDbSpline
210
0.0
220
0.0
230
1.0
 70
    24
 71
     3
 72
    14
 73
    10
 74
     0
 42
0.000000001
 43
0.00000001
 40
0.0
 40
0.0
 40
0.0
 40
0.0
 40
0.1597585435396717
 40
0.3242019183619996
 40
0.483943523006455
 40
0.6482082484046289
 40
0.8159846331203063
 40
0.9888358221779181
 40
1.0
 40
1.0
 40
1.0
 40
1.0
 10
253.3107158507555
 20
95.9668675180369
 30
0.0
 10
253.2779557479289
 20
95.95461901749167
 30
0.0
 10
253.2114748703069
 20
95.9297628358701
 30
0.0
 10
253.1036459030221
 20
95.88944723699765
 30
0.0
 10
252.9924291012974
 20
95.8478649787315
 30
0.0
 10
252.8802661643427
 20
95.80592897499805
 30
0.0
 10
252.7684907454216
 20
95.76413785832052
 30
0.0
 10
252.6950450354867
 20
95.73667763260195
 30
0.0
 10
252.6586800784541
 20
95.72308133229733
 30
0.0
 10
252.6564738233261
 20
95.72225644730595
 30
0.0
  0
SPLINE
  5
BA
330
1F
100
AcDbEntity
  8
0
  6
Continuous
 62
     7
370
    25
100
AcDbSpline
210
0.0
220
0.0
230
1.0
 70
    24
 71
     3
 72
    11
 73
     7
 74
     0
 42
0.000000001
 43
0.00000001
 40
0.0
 40
0.0
 40
0.0
 40
0.0
 40
0.3241878796956956
 40
0.6482205888822156
 40
0.9887961381080176
 40
1.0
 40
1.0
 40
1.0
 40
1.0
 10
244.9975813834121
 20
92.85871390220004
 30
0.0
 10
245.0658800016954
 20
92.88424970920606
 30
0.0
 10
245.2024445475538
 20
92.93530910066312
 30
0.0
 10
245.4328910888241
 20
93.0214695318859
 30
0.0
 10
245.58034540307
 20
93.07660044090221
 30
0.0
 10
245.6496171667432
 20
93.10250009206361
 30
0.0
 10
245.6518234109084
 20
93.10332497295627
 30
0.0
  0
ARC
  5
BB
330
1F
100
AcDbEntity
  8
0
  6
Continuous
 62
     7
370
    25
100
AcDbCircle
 10
249.0787097648
 20
94.614561086
 30
0.0
 40
1.67499999999999
100
AcDbArc
 50
77.160805032
 51
135.7607381592
  0
ARC
  5
BC
330
1F
100
AcDbEntity
  8
0
  6
Continuous
 62
     7
370
    25
100
AcDbCircle
 10
249.0787097648
 20
94.614561086
 30
0.0
 40
1.67500000000003
100
AcDbArc
 50
135.7607381592
 51
195.8675798939
  0
ARC
  5
BD
330
1F
100
AcDbEntity
  8
0
  6
Continuous
 62
     7
370
    25
100
AcDbCircle
 10
249.0787097648
 20
94.614561086
 30
0.0
 40
1.67500000000003
100
AcDbArc
 50
195.8675798939
 51
254.4675130212
  0
LINE
  5
BE
330
1F
100
AcDbEntity
  8
0
  6
Continuous
 62
     7
370
    25
100
AcDbLine
 10
248.7125821897
 20
92.9800655679
 30
0.0
 11
248.6301703652
 21
93.0007341414
 31
0.0
  0
ARC
  5
BF
330
1F
100
AcDbEntity
  8
0
  6
Continuous
 62
     7
370
    25
100
AcDbCircle
 10
249.0787097648
 20
94.614561086
 30
0.0
 40
1.675000000000051
100
AcDbArc
 50
257.374143793
 51
313.8178619593
  0
LINE
  5
C0
330
1F
100
AcDbEntity
  8
0
  6
Continuous
 62
     7
370
    25
100
AcDbLine
 10
250.32185153
 20
93.4919642966
 30
0.0
 11
250.2384264143
 21
93.4059741869
 31
0.0
  0
ARC
  5
C1
330
1F
100
AcDbEntity
  8
0
  6
Continuous
 62
     7
370
    25
100
AcDbCircle
 10
249.0787097648
 20
94.614561086
 30
0.0
 40
1.674999999999992
100
AcDbArc
 50
317.9169538596
 51
13.7113641936
  0
LINE
  5
C2
330
1F
100
AcDbEntity
  8
0
  6
Continuous
 62
     7
370
    25
100
AcDbLine
 10
250.6734330273
 20
95.1268917566
 30
0.0
 11
250.7059758255
 21
95.0115877447
 31
0.0
  0
ARC
  5
C3
330
1F
100
AcDbEntity
  8
0
  6
Continuous
 62
     7
370
    25
100
AcDbCircle
 10
249.0787097648
 20
94.614561086
 30
0.0
 40
1.674999999999957
100
AcDbArc
 50
17.8104560938
 51
74.2541742601
  0
LINE
  5
C4
330
1F
100
AcDbEntity
  8
0
  6
Continuous
 62
     7
370
    25
100
AcDbLine
 10
249.4509207727
 20
96.247682014
 30
0.0
 11
249.5332550673
 21
96.2267067271
 31
0.0
  0
CIRCLE
  5
C5
330
1F
100
AcDbEntity
  8
0
  6
Continuous
 62
     7
370
    25
100
AcDbCircle
 10
249.0787097648
 20
94.614561086
 30
0.0
 40
1.79999999999999
  0
SPLINE
  5
C6
330
1F
100
AcDbEntity
  8
0
  6
Continuous
 62
     7
370
    25
100
AcDbSpline
210
0.0
220
0.0
230
1.0
 70
     8
 71
     3
 72
    15
 73
    11
 74
     0
 42
0.000000001
 43
0.00000001
 40
0.0
 40
0.0
 40
0.0
 40
0.0
 40
0.131259112205609
 40
0.2657763812962547
 40
0.4074407484447528
 40
0.5531718722010511
 40
0.6956281468100626
 40
0.8421322393882901
 40
0.9207435991583711
 40
1.0
 40
1.0
 40
1.0
 40
1.0
 10
250.6734330272656
 20
95.12689175660798
 30
0.0
 10
250.6652377384709
 20
95.14192025844267
 30
0.0
 10
250.6486437347256
 20
95.17235030453097
 30
0.0
 10
250.6145161240857
 20
95.21328664556202
 30
0.0
 10
250.5733943887672
 20
95.24977358051518
 30
0.0
 10
250.5258295033848
 20
95.27930723672617
 30
0.0
 10
250.4735991202841
 20
95.30075813148228
 30
0.0
 10
250.4270939421793
 20
95.31115526304427
 30
0.0
 10
250.3879953427299
 20
95.31493760265629
 30
0.0
 10
250.3676737264839
 20
95.31456328285942
 30
0.0
 10
250.3574714017236
 20
95.31437535823346
 30
0.0
  0
SPLINE
  5
C7
330
1F
100
AcDbEntity
  8
0
  6
Continuous
 62
     7
370
    25
100
AcDbSpline
210
0.0
220
0.0
230
1.0
 70
     8
 71
     3
 72
    17
 73
    13
 74
     0
 42
0.000000001
 43
0.00000001
 40
0.0
 40
0.0
 40
0.0
 40
0.0
 40
0.1014616601531052
 40
0.2058001529899514
 40
0.3074182589265095
 40
0.4120991392995301
 40
0.5116804359412062
 40
0.6142399242992785
 40
0.7124241586648528
 40
0.8133717292758963
 40
0.9056081252644407
 40
1.0
 40
1.0
 40
1.0
 40
1.0
 10
250.3574714017236
 20
95.31437535823346
 30
0.0
 10
250.3252844224637
 20
95.31446239787405
 30
0.0
 10
250.2599978378958
 20
95.31463894506759
 30
0.0
 10
250.163848245036
 20
95.33548148068071
 30
0.0
 10
250.071197522393
 20
95.37142257039577
 30
0.0
 10
249.9869342171213
 20
95.42212116838348
 30
0.0
 10
249.9119880024741
 20
95.48634325626459
 30
0.0
 10
249.8500283832074
 20
95.5604968464291
 30
0.0
 10
249.8008835788029
 20
95.64395946580778
 30
0.0
 10
249.7674834428247
 20
95.73094375013547
 30
0.0
 10
249.7474749026116
 20
95.82058482953195
 30
0.0
 10
249.7458366525905
 20
95.87975083803627
 30
0.0
 10
249.7450080670275
 20
95.90967551365844
 30
0.0
  0
SPLINE
  5
C8
330
1F
100
AcDbEntity
  8
0
  6
Continuous
 62
     7
370
    25
100
AcDbSpline
210
0.0
220
0.0
230
1.0
 70
     8
 71
     3
 72
    11
 73
     7
 74
     0
 42
0.000000001
 43
0.00000001
 40
0.0
 40
0.0
 40
0.0
 40
0.0
 40
0.2802371411012926
 40
0.561286987592375
 40
0.8399906057824637
 40
1.0
 40
1.0
 40
1.0
 40
1.0
 10
249.7450080670274
 20
95.90967551365844
 30
0.0
 10
249.7419411660275
 20
95.94743388825302
 30
0.0
 10
249.7357984698212
 20
96.02306013911068
 30
0.0
 10
249.6792134782623
 20
96.12432974715256
 30
0.0
 10
249.6069820987829
 20
96.19250074308394
 30
0.0
 10
249.5529587187961
 20
96.21756513036236
 30
0.0
 10
249.5332550672955
 20
96.22670672705867
 30
0.0
  0
SPLINE
  5
C9
330
1F
100
AcDbEntity
  8
0
  6
Continuous
 62
     7
370
    25
100
AcDbSpline
210
0.0
220
0.0
230
1.0
 70
     8
 71
     3
 72
    11
 73
     7
 74
     0
 42
0.000000001
 43
0.00000001
 40
0.0
 40
0.0
 40
0.0
 40
0.0
 40
0.2669010467950122
 40
0.5546143410792865
 40
0.8439070439785886
 40
0.9999999999999999
 40
0.9999999999999999
 40
0.9999999999999999
 40
0.9999999999999999
 10
250.3218515299578
 20
93.49196429658646
 30
0.0
 10
250.3385706143987
 20
93.52256797874556
 30
0.0
 10
250.373312493878
 20
93.58616173837704
 30
0.0
 10
250.3837456387192
 20
93.69738894090247
 30
0.0
 10
250.3639492952235
 20
93.79157596919066
 30
0.0
 10
250.3357663214196
 20
93.84136911770894
 30
0.0
 10
250.3258891203862
 20
93.85881997088788
 30
0.0
  0
SPLINE
  5
CA
330
1F
100
AcDbEntity
  8
0
  6
Continuous
 62
     7
370
    25
100
AcDbSpline
210
0.0
220
0.0
230
1.0
 70
     8
 71
     3
 72
    12
 73
     8
 74
     0
 42
0.000000001
 43
0.00000001
 40
0.0
 40
0.0
 40
0.0
 40
0.0
 40
0.2058401281338117
 40
0.4120619935509904
 40
0.6141387330969816
 40
0.813277211352453
 40
0.9999999999999999
 40
0.9999999999999999
 40
0.9999999999999999
 40
0.9999999999999999
 10
250.3258891203862
 20
93.85881997088788
 30
0.0
 10
250.2960849614941
 20
93.91722540386668
 30
0.0
 10
250.2364213709174
 20
94.03414458461948
 30
0.0
 10
250.2262040829992
 20
94.23528831521466
 30
0.0
 10
250.2784448818119
 20
94.42452528198388
 30
0.0
 10
250.3844376191755
 20
94.58483779398618
 30
0.0
 10
250.4860372557913
 20
94.65360270775915
 30
0.0
 10
250.5352025105129
 20
94.68687885533376
 30
0.0
  0
SPLINE
  5
CB
330
1F
100
AcDbEntity
  8
0
  6
Continuous
 62
     7
370
    25
100
AcDbSpline
210
0.0
220
0.0
230
1.0
 70
     8
 71
     3
 72
    11
 73
     7
 74
     0
 42
0.000000001
 43
0.00000001
 40
0.0
 40
0.0
 40
0.0
 40
0.0
 40
0.292899322061899
 40
0.5864344719079005
 40
0.8775178868033412
 40
1.0
 40
1.0
 40
1.0
 40
1.0
 10
250.5352025105129
 20
94.68687885533377
 30
0.0
 10
250.5663861260382
 20
94.70843133141163
 30
0.0
 10
250.6288210506873
 20
94.75158306982486
 30
0.0
 10
250.6882923773239
 20
94.85128314848905
 30
0.0
 10
250.709610871787
 20
94.9421340364082
 30
0.0
 10
250.7068064011881
 20
94.99571819071696
 30
0.0
 10
250.7059758254703
 20
95.01158774465168
 30
0.0
  0
SPLINE
  5
CC
330
1F
100
AcDbEntity
  8
0
  6
Continuous
 62
     7
370
    25
100
AcDbSpline
210
0.0
220
0.0
230
1.0
 70
     8
 71
     3
 72
    15
 73
    11
 74
     0
 42
0.000000001
 43
0.00000001
 40
0.0
 40
0.0
 40
0.0
 40
0.0
 40
0.1201724095950171
 40
0.2430569644984578
 40
0.3787647041928228
 40
0.518373068122773
 40
0.6547517308525976
 40
0.7950091369334105
 40
0.8967335356648917
 40
1.0
 40
1.0
 40
1.0
 40
1.0
 10
248.7125821896601
 20
92.98006556789359
 30
0.0
 10
248.7288762155403
 20
92.97882138815143
 30
0.0
 10
248.761832003672
 20
92.97630494904166
 30
0.0
 10
248.8131693221884
 20
92.9819969374624
 30
0.0
 10
248.8655276905692
 20
92.99577230971958
 30
0.0
 10
248.9164497233542
 20
93.01895777427654
 30
0.0
 10
248.9632436313823
 20
93.05049656620417
 30
0.0
 10
249.0002276909467
 20
93.0858596324401
 30
0.0
 10
249.0291679755689
 20
93.12234597711333
 30
0.0
 10
249.0427220296916
 20
93.14631743985228
 30
0.0
 10
249.0495500376609
 20
93.15839333516274
 30
0.0
  0
SPLINE
  5
CD
330
1F
100
AcDbEntity
  8
0
  6
Continuous
 62
     7
370
    25
100
AcDbSpline
210
0.0
220
0.0
230
1.0
 70
     8
 71
     3
 72
    17
 73
    13
 74
     0
 42
0.000000001
 43
0.00000001
 40
0.0
 40
0.0
 40
0.0
 40
0.0
 40
0.1014745609773965
 40
0.2058281164580139
 40
0.3074263014593512
 40
0.4120866925239324
 40
0.5116490280908944
 40
0.6141878306403861
 40
0.7123733939561993
 40
0.813321316307435
 40
0.9055824244509908
 40
1.0
 40
1.0
 40
1.0
 40
1.0
 10
249.0495500376609
 20
93.15839333516274
 30
0.0
 10
249.0657218007498
 20
93.1862290578578
 30
0.0
 10
249.0985241455377
 20
93.24269024692221
 30
0.0
 10
249.1646577232176
 20
93.3155398510583
 30
0.0
 10
249.2421094521143
 20
93.37780129870457
 30
0.0
 10
249.3281347877236
 20
93.4254165246057
 30
0.0
 10
249.4212083200887
 20
93.45820507969235
 30
0.0
 10
249.5163923669181
 20
93.47478802787248
 30
0.0
 10
249.6132356199425
 20
93.47562298305498
 30
0.0
 10
249.70527101839
 20
93.46106157921182
 30
0.0
 10
249.7929197527347
 20
93.43357016354153
 30
0.0
 10
249.8449905892934
 20
93.40539990266993
 30
0.0
 10
249.8713267624838
 20
93.39115206418366
 30
0.0
  0
SPLINE
  5
CE
330
1F
100
AcDbEntity
  8
0
  6
Continuous
 62
     7
370
    25
100
AcDbSpline
210
0.0
220
0.0
230
1.0
 70
     8
 71
     3
 72
    15
 73
    11
 74
     0
 42
0.000000001
 43
0.00000001
 40
0.0
 40
0.0
 40
0.0
 40
0.0
 40
0.1434386850240237
 40
0.2909427070429599
 40
0.4354194906197242
 40
0.5841537044396082
 40
0.7274182992331364
 40
0.8749170444728421
 40
0.9372892787363272
 40
1.0
 40
1.0
 40
1.0
 40
1.0
 10
249.8713267624838
 20
93.39115206418363
 30
0.0
 10
249.8876293862933
 20
93.38241079668688
 30
0.0
 10
249.9206966826244
 20
93.364680516825
 30
0.0
 10
249.9750709640525
 20
93.3490305923176
 30
0.0
 10
250.0318209791667
 20
93.34203435391436
 30
0.0
 10
250.0886036978881
 20
93.34490064529514
 30
0.0
 10
250.1445396839154
 20
93.35734986316646
 30
0.0
 10
250.1872132500126
 20
93.3749166992484
 30
0.0
 10
250.2182367644021
 20
93.392175277871
 30
0.0
 10
250.231684400792
 20
93.40136625996963
 30
0.0
 10
250.2384264143121
 20
93.40597418687781
 30
0.0
  0
SPLINE
  5
CF
330
1F
100
AcDbEntity
  8
0
  6
Continuous
 62
     7
370
    25
100
AcDbSpline
210
0.0
220
0.0
230
1.0
 70
     8
 71
     3
 72
    17
 73
    13
 74
     0
 42
0.000000001
 43
0.00000001
 40
0.0
 40
0.0
 40
0.0
 40
0.0
 40
0.1014945247751313
 40
0.2058686971733988
 40
0.3074868183274664
 40
0.4121678496039781
 40
0.5117467436471109
 40
0.614303891442738
 40
0.7124838631635168
 40
0.8134268401203301
 40
0.9056366802758045
 40
1.0
 40
1.0
 40
1.0
 40
1.0
 10
249.1127146003357
 20
96.06950410985391
 30
0.0
 10
249.0965400815294
 20
96.04166414348691
 30
0.0
 10
249.0637321333034
 20
95.98519432289295
 30
0.0
 10
248.9975859566397
 20
95.9123366933669
 30
0.0
 10
248.9201188032982
 20
95.85007072712658
 30
0.0
 10
248.8340758321926
 20
95.8024556272227
 30
0.0
 10
248.7409820965594
 20
95.76967199152242
 30
0.0
 10
248.6457841581638
 20
95.75310087278693
 30
0.0
 10
248.5489345865861
 20
95.75228149755841
 30
0.0
 10
248.4569167768513
 20
95.76685516479026
 30
0.0
 10
248.3693018948365
 20
95.79434811640446
 30
0.0
 10
248.3172594447898
 20
95.82250462924266
 30
0.0
 10
248.2909378755128
 20
95.836745380833
 30
0.0
  0
SPLINE
  5
D0
330
1F
100
AcDbEntity
  8
0
  6
Continuous
 62
     7
370
    25
100
AcDbSpline
210
0.0
220
0.0
230
1.0
 70
     8
 71
     3
 72
    15
 73
    11
 74
     0
 42
0.000000001
 43
0.00000001
 40
0.0
 40
0.0
 40
0.0
 40
0.0
 40
0.1244706967841232
 40
0.2524691464264874
 40
0.3778407097582446
 40
0.5069066525687741
 40
0.6312275211865116
 40
0.7592224506238604
 40
0.8779976781940217
 40
1.0
 40
1.0
 40
1.0
 40
1.0
 10
248.2909378755128
 20
95.836745380833
 30
0.0
 10
248.2746360510239
 20
95.84548626284568
 30
0.0
 10
248.2415703751639
 20
95.86321576125596
 30
0.0
 10
248.1871991974973
 20
95.87886556539401
 30
0.0
 10
248.1304505816312
 20
95.88586287966488
 30
0.0
 10
248.0736759642917
 20
95.88299720777607
 30
0.0
 10
248.0177224175402
 20
95.87055471042119
 30
0.0
 10
247.9661218542221
 20
95.84927012278601
 30
0.0
 10
247.918555148045
 20
95.82037377131978
 30
0.0
 10
247.8920932563217
 20
95.79565849022423
 30
0.0
 10
247.8786849786896
 20
95.7831352226457
 30
0.0
  0
SPLINE
  5
D1
330
1F
100
AcDbEntity
  8
0
  6
Continuous
 62
     7
370
    25
100
AcDbSpline
210
0.0
220
0.0
230
1.0
 70
     8
 71
     3
 72
    15
 73
    11
 74
     0
 42
0.000000001
 43
0.00000001
 40
0.0
 40
0.0
 40
0.0
 40
0.0
 40
0.1198016777829602
 40
0.2423071339076495
 40
0.3775962153058897
 40
0.5167738875161917
 40
0.6527318221527746
 40
0.7925565342194164
 40
0.8954742640876997
 40
1.0
 40
1.0
 40
1.0
 40
1.0
 10
249.4509207726735
 20
96.24768201404838
 30
0.0
 10
249.4346314919995
 20
96.24898685515033
 30
0.0
 10
249.4016853013735
 20
96.2516259860329
 30
0.0
 10
249.3503271511439
 20
96.24612519072562
 30
0.0
 10
249.2979178270833
 20
96.2325448618396
 30
0.0
 10
249.2469099208026
 20
96.20954918784663
 30
0.0
 10
249.1999985205573
 20
96.17818476097293
 30
0.0
 10
249.16273607483
 20
96.1428192073849
 30
0.0
 10
249.1334259395668
 20
96.10608722893413
 30
0.0
 10
249.1196539647445
 20
96.08176133724392
 30
0.0
 10
249.1127146003357
 20
96.06950410985391
 30
0.0
  0
SPLINE
  5
D2
330
1F
100
AcDbEntity
  8
0
  6
Continuous
 62
     7
370
    25
100
AcDbSpline
210
0.0
220
0.0
230
1.0
 70
     8
 71
     3
 72
    16
 73
    12
 74
     0
 42
0.000000001
 43
0.00000001
 40
0.0
 40
0.0
 40
0.0
 40
0.0
 40
0.0091421480600952
 40
0.131634184576719
 40
0.25767949311402
 40
0.380188789989292
 40
0.5062151177445845
 40
0.629392450688573
 40
0.7560776951956057
 40
0.876443363286564
 40
1.0
 40
1.0
 40
1.0
 40
1.0
 10
247.4675336766549
 20
94.15659098534124
 30
0.0
 10
247.4679139945483
 20
94.15527308731137
 30
0.0
 10
247.473390041911
 20
94.1362971933119
 30
0.0
 10
247.4875517386548
 20
94.10009698526454
 30
0.0
 10
247.5162160924349
 20
94.0521134247823
 30
0.0
 10
247.5527788286962
 20
94.0092153882231
 30
0.0
 10
247.5955655344517
 20
93.97331568645635
 30
0.0
 10
247.6441601090342
 20
93.94472350409846
 30
0.0
 10
247.6959322110209
 20
93.92512094853328
 30
0.0
 10
247.7501814571672
 20
93.91365861824671
 30
0.0
 10
247.786431237832
 20
93.91356799245703
 30
0.0
 10
247.804793236273
 20
93.91352208678319
 30
0.0
  0
SPLINE
  5
D3
330
1F
100
AcDbEntity
  8
0
  6
Continuous
 62
     7
370
    25
100
AcDbSpline
210
0.0
220
0.0
230
1.0
 70
     8
 71
     3
 72
    17
 73
    13
 74
     0
 42
0.000000001
 43
0.00000001
 40
0.0
 40
0.0
 40
0.0
 40
0.0
 40
0.101443412201373
 40
0.2057629638229551
 40
0.3073628738760084
 40
0.4120251754303728
 40
0.511586720361537
 40
0.6141249413479563
 40
0.7123061210869159
 40
0.8132494123149724
 40
0.9055452431268721
 40
1.0
 40
1.0
 40
1.0
 40
1.0
 10
247.804793236273
 20
93.91352208678319
 30
0.0
 10
247.8369755571454
 20
93.91343529042558
 30
0.0
 10
247.9022526370632
 20
93.9132592368465
 30
0.0
 10
247.9983899872888
 20
93.89242308306765
 30
0.0
 10
248.0910304108071
 20
93.85649207290408
 30
0.0
 10
248.1752851798908
 20
93.80580777322855
 30
0.0
 10
248.2502246620276
 20
93.741605289583
 30
0.0
 10
248.3121846440071
 20
93.66747236361763
 30
0.0
 10
248.3613367724534
 20
93.58402871966956
 30
0.0
 10
248.3947566586701
 20
93.49703912243962
 30
0.0
 10
248.4147857288411
 20
93.40736793364334
 30
0.0
 10
248.4164266337116
 20
93.34816540197497
 30
0.0
 10
248.4172565709692
 20
93.31822193135822
 30
0.0
  0
SPLINE
  5
D4
330
1F
100
AcDbEntity
  8
0
  6
Continuous
 62
     7
370
    25
100
AcDbSpline
210
0.0
220
0.0
230
1.0
 70
     8
 71
     3
 72
    11
 73
     7
 74
     0
 42
0.000000001
 43
0.00000001
 40
0.0
 40
0.0
 40
0.0
 40
0.0
 40
0.279406906455552
 40
0.5596240257155729
 40
0.8375007392219004
 40
1.0
 40
1.0
 40
1.0
 40
1.0
 10
248.4172565709692
 20
93.31822193135822
 30
0.0
 10
248.4203239610014
 20
93.28046027366034
 30
0.0
 10
248.4264676357589
 20
93.20482745854258
 30
0.0
 10
248.4830619311503
 20
93.10355699487313
 30
0.0
 10
248.5555995060693
 20
93.03508770520475
 30
0.0
 10
248.6100705024758
 20
93.00999381638592
 30
0.0
 10
248.6301703652449
 20
93.00073414142354
 30
0.0
  0
SPLINE
  5
D5
330
1F
100
AcDbEntity
  8
0
  6
Continuous
 62
     7
370
    25
100
AcDbSpline
210
0.0
220
0.0
230
1.0
 70
     8
 71
     3
 72
    12
 73
     8
 74
     0
 42
0.000000001
 43
0.00000001
 40
0.0
 40
0.0
 40
0.0
 40
0.0
 40
0.0091681771491304
 40
0.2573268097002424
 40
0.5054934687429615
 40
0.7549925359452775
 40
1.0
 40
1.0
 40
1.0
 40
1.0
 10
247.8786849786896
 20
95.7831352226457
 30
0.0
 10
247.8777312754966
 20
95.78214794056969
 30
0.0
 10
247.8509633154048
 20
95.75443750884935
 30
0.0
 10
247.8076953444909
 20
95.69014150455139
 30
0.0
 10
247.7792055260099
 20
95.58080681086554
 30
0.0
 10
247.7859689098867
 20
95.46735697346473
 30
0.0
 10
247.8196753669598
 20
95.40163833308958
 30
0.0
 10
247.8363755176105
 20
95.36907747412882
 30
0.0
  0
SPLINE
  5
D6
330
1F
100
AcDbEntity
  8
0
  6
Continuous
 62
     7
370
    25
100
AcDbSpline
210
0.0
220
0.0
230
1.0
 70
     8
 71
     3
 72
    12
 73
     8
 74
     0
 42
0.000000001
 43
0.00000001
 40
0.0
 40
0.0
 40
0.0
 40
0.0
 40
0.2058435564095049
 40
0.4120691620553574
 40
0.6141397217727257
 40
0.8132604579561071
 40
0.9999999999999999
 40
0.9999999999999999
 40
0.9999999999999999
 40
0.9999999999999999
 10
247.8363755176105
 20
95.36907747412882
 30
0.0
 10
247.8661799414459
 20
95.310671411176
 30
0.0
 10
247.925844106648
 20
95.19375088259729
 30
0.0
 10
247.9360603802356
 20
94.99260632724518
 30
0.0
 10
247.8838192662733
 20
94.80337382461522
 30
0.0
 10
247.7778298290381
 20
94.64306299956199
 30
0.0
 10
247.6762313562305
 20
94.57429789871223
 30
0.0
 10
247.6270621274837
 20
94.54101858968286
 30
0.0
  0
SPLINE
  5
D7
330
1F
100
AcDbEntity
  8
0
  6
Continuous
 62
     7
370
    25
100
AcDbSpline
210
0.0
220
0.0
230
1.0
 70
     8
 71
     3
 72
    11
 73
     7
 74
     0
 42
0.000000001
 43
0.00000001
 40
0.0
 40
0.0
 40
0.0
 40
0.0
 40
0.2535086227483696
 40
0.5075674742604825
 40
0.7595056251925256
 40
0.9999999999999999
 40
0.9999999999999999
 40
0.9999999999999999
 40
0.9999999999999999
 10
247.6270621274837
 20
94.54101858968286
 30
0.0
 10
247.5958642537258
 20
94.51945972597943
 30
0.0
 10
247.5334007926651
 20
94.47629520605402
 30
0.0
 10
247.4741294297482
 20
94.37667523278522
 30
0.0
 10
247.4473846859739
 20
94.26554396403675
 30
0.0
 10
247.4609222138839
 20
94.19234158813018
 30
0.0
 10
247.4675336766549
 20
94.15659098534124
 30
0.0
  0
CIRCLE
  5
D8
330
1F
100
AcDbEntity
  8
0
  6
Continuous
 62
     7
370
    25
100
AcDbCircle
 10
249.0787097648
 20
94.614561086
 30
0.0
 40
2.625000000000015
  0
SPLINE
  5
D9
330
1F
100
AcDbEntity
  8
VERMASSUNG
  6
Continuous
370
    25
100
AcDbSpline
210
0.0
220
0.0
230
1.0
 70
    11
 71
     3
 72
    68
 73
    64
 74
     0
 42
0.000000001
 43
0.00000001
 40
0.0
 40
0.0
 40
0.0
 40
0.0
 40
0.0312499999999999
 40
0.0312499999999999
 40
0.0624999999999998
 40
0.0624999999999998
 40
0.0937499999999996
 40
0.0937499999999996
 40
0.1249999999999995
 40
0.1249999999999995
 40
0.1562499999999994
 40
0.1562499999999994
 40
0.1874999999999993
 40
0.1874999999999993
 40
0.2187499999999992
 40
0.2187499999999992
 40
0.2499999999999991
 40
0.2499999999999991
 40
0.2812499999999989
 40
0.2812499999999989
 40
0.3124999999999988
 40
0.3124999999999988
 40
0.3437499999999987
 40
0.3437499999999987
 40
0.3749999999999986
 40
0.3749999999999986
 40
0.4062499999999984
 40
0.4062499999999984
 40
0.4374999999999983
 40
0.4374999999999983
 40
0.4687499999999982
 40
0.4687499999999982
 40
0.4999999999999981
 40
0.4999999999999981
 40
0.531249999999998
 40
0.531249999999998
 40
0.5624999999999979
 40
0.5624999999999979
 40
0.5937499999999978
 40
0.5937499999999978
 40
0.6249999999999977
 40
0.6249999999999977
 40
0.6562499999999976
 40
0.6562499999999976
 40
0.6874999999999974
 40
0.6874999999999974
 40
0.7187499999999973
 40
0.7187499999999973
 40
0.7499999999999971
 40
0.7499999999999971
 40
0.7812499999999974
 40
0.7812499999999974
 40
0.8124999999999978
 40
0.8124999999999978
 40
0.8437499999999981
 40
0.8437499999999981
 40
0.8749999999999984
 40
0.8749999999999984
 40
0.9062499999999988
 40
0.9062499999999988
 40
0.9374999999999991
 40
0.9374999999999991
 40
1.0
 40
1.0
 40
1.0
 40
1.0
 10
210.6347945616016
 20
112.3436533549562
 30
0.0
 10
210.8331093717866
 20
112.3436533549562
 30
0.0
 10
211.0280876180362
 20
112.3258511917615
 30
0.0
 10
211.4116508431818
 20
112.2562226586418
 30
0.0
 10
211.6022316186441
 20
112.203545468963
 30
0.0
 10
211.9654809054309
 20
112.0664552374421
 30
0.0
 10
212.1377476444268
 20
111.9827092051207
 30
0.0
 10
212.4637693611347
 20
111.7855273654628
 30
0.0
 10
212.6180447279114
 20
111.6711142678474
 30
0.0
 10
212.8946076491624
 20
111.4222215628102
 30
0.0
 10
213.0187505394778
 20
111.2868507200786
 30
0.0
 10
213.2380653118487
 20
110.9941975934137
 30
0.0
 10
213.3311957672521
 20
110.839148021798
 30
0.0
 10
213.4808500977782
 20
110.5199836761232
 30
0.0
 10
213.5384970677701
 20
110.3535087942644
 30
0.0
 10
213.6156036295925
 20
110.0144998190102
 30
0.0
 10
213.6346874109359
 20
109.8449482950079
 30
0.0
 10
213.6349008210133
 20
109.5058556629058
 30
0.0
 10
213.6154055305138
 20
109.3345691834115
 30
0.0
 10
213.5388356560368
 20
109.0048643902565
 30
0.0
 10
213.4821824148276
 20
108.8454859144502
 30
0.0
 10
213.3319064640183
 20
108.5374364585317
 30
0.0
 10
213.2380228016058
 20
108.3894125887784
 30
0.0
 10
213.0209576015094
 20
108.1165773163421
 30
0.0
 10
212.8970263452346
 20
107.9900057701135
 30
0.0
 10
212.6170695000824
 20
107.7567948392159
 30
0.0
 10
212.4656103491805
 20
107.6539675690374
 30
0.0
 10
212.1408773402328
 20
107.4744010226341
 30
0.0
 10
211.9655129014164
 20
107.3970122575754
 30
0.0
 10
211.6021958825167
 20
107.2732014212875
 30
0.0
 10
211.4152044295261
 20
107.2266462653245
 30
0.0
 10
211.0306329311694
 20
107.1636687862204
 30
0.0
 10
210.83172507805
 20
107.1475597837157
 30
0.0
 10
210.4400616783534
 20
107.1474424100768
 30
0.0
 10
210.2453539419665
 20
107.1629126309998
 30
0.0
 10
209.8582368783116
 20
107.2257315097425
 30
0.0
 10
209.6687658755846
 20
107.2728905498788
 30
0.0
 10
209.307633377567
 20
107.3956452871277
 30
0.0
 10
209.1332141282068
 20
107.4721343501118
 30
0.0
 10
208.8050160904028
 20
107.6531747265668
 30
0.0
 10
208.6539378529523
 20
107.7559468125593
 30
0.0
 10
208.3771017599247
 20
107.9858983958986
 30
0.0
 10
208.2503379434121
 20
108.1146583506734
 30
0.0
 10
208.0323334052553
 20
108.388225086772
 30
0.0
 10
207.9400522257252
 20
108.5333889757965
 30
0.0
 10
207.7891725385598
 20
108.8410782252709
 30
0.0
 10
207.7312261040898
 20
109.0035008948983
 30
0.0
 10
207.6546139216751
 20
109.3320524524506
 30
0.0
 10
207.6349859016597
 20
109.4998919629397
 30
0.0
 10
207.6346059784146
 20
109.8430987483644
 30
0.0
 10
207.6539183189192
 20
110.0132155022436
 30
0.0
 10
207.7298389355959
 20
110.3489712629483
 30
0.0
 10
207.787344704562
 20
110.5166024342946
 30
0.0
 10
207.9377048511512
 20
110.8380816679455
 30
0.0
 10
208.0297241390425
 20
110.9912744201333
 30
0.0
 10
208.2470681540326
 20
111.2823279773932
 30
0.0
 10
208.3735875741642
 20
111.4207982223785
 30
0.0
 10
208.6500211936239
 20
111.6699105913595
 30
0.0
 10
208.8008507837002
 20
111.7821587063962
 30
0.0
 10
209.1283623759404
 20
111.9809591150195
 30
0.0
 10
209.3029109090285
 20
112.0658353084524
 30
0.0
 10
209.8441157774002
 20
112.270586787697
 30
0.0
 10
210.2381649412318
 20
112.3436533549562
 30
0.0
 10
210.6347945616017
 20
112.3436533549562
 30
0.0
  0
SPLINE
  5
DA
330
1F
100
AcDbEntity
  8
VERMASSUNG
  6
Continuous
370
    25
100
AcDbSpline
210
0.0
220
0.0
230
1.0
 70
     8
 71
     3
 72
    16
 73
    12
 74
     0
 42
0.000000001
 43
0.00000001
 40
0.0
 40
0.0
 40
0.0
 40
0.0
 40
0.2500000000000008
 40
0.2500000000000008
 40
0.5000000000000016
 40
0.5000000000000016
 40
0.6250000000000006
 40
0.6250000000000006
 40
0.7499999999999997
 40
0.7499999999999997
 40
1.0
 40
1.0
 40
1.0
 40
1.0
 10
226.2127643298439
 20
156.9197109729659
 30
0.0
 10
225.8767083054929
 20
156.9164770669085
 30
0.0
 10
225.5610707011858
 20
156.9109447287861
 30
0.0
 10
224.9719083774083
 20
156.8910508258631
 30
0.0
 10
224.7050608641388
 20
156.8768138426285
 30
0.0
 10
224.3517265689224
 20
156.8464881205303
 30
0.0
 10
224.2414156123727
 20
156.8348670154069
 30
0.0
 10
224.035955248087
 20
156.8080520727567
 30
0.0
 10
223.940422946508
 20
156.7927696758379
 30
0.0
 10
223.6813975098332
 20
156.7414491105061
 30
0.0
 10
223.5444455707961
 20
156.6999851830822
 30
0.0
 10
223.443201531741
 20
156.649803386453
 30
0.0
  0
ELLIPSE
  5
DB
330
1F
100
AcDbEntity
  8
VERMASSUNG
  6
Continuous
370
    25
100
AcDbEllipse
 10
224.5544098039
 20
125.4239858639
 30
0.0
 11
0.0
 21
31.50000000000001
 31
0.0
210
0.0
220
0.0
230
1.0
 40
0.2679491924
 41
0.1320368298873592
 42
3.009555823702433
  0
SPLINE
  5
DC
330
1F
100
AcDbEntity
  8
VERMASSUNG
  6
Continuous
370
    25
100
AcDbSpline
210
0.0
220
0.0
230
1.0
 70
     8
 71
     3
 72
    14
 73
    10
 74
     0
 42
0.000000001
 43
0.00000001
 40
0.0
 40
0.0
 40
0.0
 40
0.0
 40
0.25
 40
0.25
 40
0.5
 40
0.5
 40
0.75
 40
0.75
 40
1.0
 40
1.0
 40
1.0
 40
1.0
 10
223.443201531741
 20
94.19816834130367
 30
0.0
 10
223.5602626732314
 20
94.14014676837665
 30
0.0
 10
223.7242172862394
 20
94.09410019692824
 30
0.0
 10
224.1436112691423
 20
94.02080871390743
 30
0.0
 10
224.4026226009057
 20
93.99357900660752
 30
0.0
 10
224.9902454703909
 20
93.9550441805505
 30
0.0
 10
225.3213441622609
 20
93.94319910205532
 30
0.0
 10
226.0556471494619
 20
93.92842574307525
 30
0.0
 10
226.4486145242933
 20
93.92562790038902
 30
0.0
 10
226.8674675736227
 20
93.92454967930492
 30
0.0
  0
ELLIPSE
  5
DD
330
1F
100
AcDbEntity
  8
VERMASSUNG
  6
Continuous
370
    25
100
AcDbEllipse
 10
248.2108835212
 20
125.4239858639
 30
0.0
 11
-22.1980135259256
 21
31.46000549521663
 31
0.0
210
0.0
220
0.0
230
1.0
 40
0.0714855773
 41
6.216313107093435
 42
6.23278817263502
  0
SPLINE
  5
DE
330
1F
100
AcDbEntity
  8
VERMASSUNG
  6
Continuous
370
    25
100
AcDbSpline
210
0.0
220
0.0
230
1.0
 70
     8
 71
     3
 72
    12
 73
     8
 74
     0
 42
0.000000001
 43
0.00000001
 40
0.0
 40
0.0
 40
0.0
 40
0.0
 40
0.4999999999999981
 40
0.4999999999999981
 40
0.749999999999999
 40
0.749999999999999
 40
1.0
 40
1.0
 40
1.0
 40
1.0
 10
199.7295386732759
 20
95.52324340376104
 30
0.0
 10
199.760683871238
 20
95.48542788084086
 30
0.0
 10
199.8029581375724
 20
95.44936102275723
 30
0.0
 10
199.9029036713977
 20
95.40140095774599
 30
0.0
 10
199.9426339761018
 20
95.38653998384831
 30
0.0
 10
200.039522026108
 20
95.36358883771719
 30
0.0
 10
200.0995872678545
 20
95.35549390500513
 30
0.0
 10
200.1625513751681
 20
95.35549390500513
 30
0.0
  0
LINE
  5
DF
330
1F
100
AcDbEntity
  8
VERMASSUNG
  6
Continuous
370
    25
100
AcDbLine
 10
200.1625513752
 20
95.355493905
 30
0.0
 11
203.107037748
 21
95.355493905
 31
0.0
  0
SPLINE
  5
E0
330
1F
100
AcDbEntity
  8
VERMASSUNG
  6
Continuous
370
    25
100
AcDbSpline
210
0.0
220
0.0
230
1.0
 70
     8
 71
     3
 72
    12
 73
     8
 74
     0
 42
0.000000001
 43
0.00000001
 40
0.0
 40
0.0
 40
0.0
 40
0.0
 40
0.2499999999999991
 40
0.2499999999999991
 40
0.4999999999999982
 40
0.4999999999999982
 40
1.0
 40
1.0
 40
1.0
 40
1.0
 10
203.1070377480352
 20
95.35549390500519
 30
0.0
 10
203.170094702933
 20
95.35549390500518
 30
0.0
 10
203.2292248526786
 20
95.36339423608476
 30
0.0
 10
203.3276724032119
 20
95.38670498408977
 30
0.0
 10
203.3667046414
 20
95.40141011037342
 30
0.0
 10
203.4665945258569
 20
95.44934363856005
 30
0.0
 10
203.5088934994662
 20
95.48541361132484
 30
0.0
 10
203.5400504499275
 20
95.52324340376104
 30
0.0
  0
ELLIPSE
  5
E1
330
1F
100
AcDbEntity
  8
VERMASSUNG
  6
Continuous
370
    25
100
AcDbEllipse
 10
187.2876403722
 20
125.4239858639
 30
0.0
 11
-14.75368316065615
 21
31.09325491558117
 31
0.0
210
0.0
220
0.0
230
1.0
 40
0.3419987131
 41
3.300734856217129
 42
4.231496223360777
  0
SPLINE
  5
E2
330
1F
100
AcDbEntity
  8
VERMASSUNG
  6
Continuous
370
    25
100
AcDbSpline
210
0.0
220
0.0
230
1.0
 70
     8
 71
     3
 72
    12
 73
     8
 74
     0
 42
0.000000001
 43
0.00000001
 40
0.0
 40
0.0
 40
0.0
 40
0.0
 40
0.5
 40
0.5
 40
0.75
 40
0.75
 40
1.0
 40
1.0
 40
1.0
 40
1.0
 10
203.5400504499274
 20
115.5146165431929
 30
0.0
 10
203.5089052519653
 20
115.6287219090582
 30
0.0
 10
203.4666309856309
 20
115.739828236277
 30
0.0
 10
203.3666854518056
 20
115.8899858437073
 30
0.0
 10
203.3269551471015
 20
115.9369785353246
 30
0.0
 10
203.2300670970953
 20
116.0099541198631
 30
0.0
 10
203.1700018553487
 20
116.0359194325421
 30
0.0
 10
203.1070377480352
 20
116.0359194325421
 30
0.0
  0
LINE
  5
E3
330
1F
100
AcDbEntity
  8
VERMASSUNG
  6
Continuous
370
    25
100
AcDbLine
 10
203.107037748
 20
116.0359194325
 30
0.0
 11
200.1625513752
 21
116.0359194325
 31
0.0
  0
SPLINE
  5
E4
330
1F
100
AcDbEntity
  8
VERMASSUNG
  6
Continuous
370
    25
100
AcDbSpline
210
0.0
220
0.0
230
1.0
 70
     8
 71
     3
 72
    12
 73
     8
 74
     0
 42
0.000000001
 43
0.00000001
 40
0.0
 40
0.0
 40
0.0
 40
0.0
 40
0.2500000000000009
 40
0.2500000000000009
 40
0.5000000000000018
 40
0.5000000000000018
 40
1.0
 40
1.0
 40
1.0
 40
1.0
 10
200.1625513751681
 20
116.035919432542
 30
0.0
 10
200.0994944202703
 20
116.035919432542
 30
0.0
 10
200.0403642705247
 20
116.0105730791613
 30
0.0
 10
199.9419167199914
 20
115.9364536970218
 30
0.0
 10
199.9028844818033
 20
115.8899571823239
 30
0.0
 10
199.8029945973464
 20
115.7398826753153
 30
0.0
 10
199.7606956237371
 20
115.6287649662004
 30
0.0
 10
199.7295386732758
 20
115.5146165431929
 30
0.0
  0
ELLIPSE
  5
E5
330
1F
100
AcDbEntity
  8
VERMASSUNG
  6
Continuous
370
    25
100
AcDbEllipse
 10
215.981948751
 20
125.4239858639
 30
0.0
 11
14.75368316065621
 21
31.09325491558117
 31
0.0
210
0.0
220
0.0
230
1.0
 40
0.3419987131
 41
2.051689083818827
 42
2.982450450962504
  0
SPLINE
  5
E6
330
1F
100
AcDbEntity
  8
VERMASSUNG
  6
Continuous
370
    25
100
AcDbSpline
210
0.0
220
0.0
230
1.0
 70
     8
 71
     3
 72
    12
 73
     8
 74
     0
 42
0.000000001
 43
0.00000001
 40
0.0
 40
0.0
 40
0.0
 40
0.0
 40
0.4999999999999982
 40
0.4999999999999982
 40
0.7499999999999991
 40
0.7499999999999991
 40
1.0
 40
1.0
 40
1.0
 40
1.0
 10
199.7295386732759
 20
135.3333551845633
 30
0.0
 10
199.760260915195
 20
135.2207993851541
 30
0.0
 10
199.8030981297301
 20
135.1080415254146
 30
0.0
 10
199.9025251539299
 20
134.9585006396182
 30
0.0
 10
199.9422773487466
 20
134.9112079079113
 30
0.0
 10
200.0403188056048
 20
134.8374716145899
 30
0.0
 10
200.0998748611923
 20
134.8120522952142
 30
0.0
 10
200.1625513751681
 20
134.8120522952142
 30
0.0
  0
LINE
  5
E7
330
1F
100
AcDbEntity
  8
VERMASSUNG
  6
Continuous
370
    25
100
AcDbLine
 10
200.1625513752
 20
134.8120522952
 30
0.0
 11
203.107037748
 21
134.8120522952
 31
0.0
  0
SPLINE
  5
E8
330
1F
100
AcDbEntity
  8
VERMASSUNG
  6
Continuous
370
    25
100
AcDbSpline
210
0.0
220
0.0
230
1.0
 70
     8
 71
     3
 72
    12
 73
     8
 74
     0
 42
0.000000001
 43
0.00000001
 40
0.0
 40
0.0
 40
0.0
 40
0.0
 40
0.2499999999999991
 40
0.2499999999999991
 40
0.4999999999999981
 40
0.4999999999999981
 40
1.0
 40
1.0
 40
1.0
 40
1.0
 10
203.1070377480352
 20
134.8120522952142
 30
0.0
 10
203.1701177865286
 20
134.8120522952142
 30
0.0
 10
203.22926640871
 20
134.8374166144291
 30
0.0
 10
203.3277389587791
 20
134.911581474802
 30
0.0
 10
203.3667755707638
 20
134.9581018153562
 30
0.0
 10
203.4666720375428
 20
135.1082441582014
 30
0.0
 10
203.5090929186095
 20
135.2199373651736
 30
0.0
 10
203.5400504499274
 20
135.3333551845633
 30
0.0
  0
ELLIPSE
  5
E9
330
1F
100
AcDbEntity
  8
VERMASSUNG
  6
Continuous
370
    25
100
AcDbEllipse
 10
187.2876403722
 20
125.4239858639
 30
0.0
 11
14.75368316065607
 21
31.09325491558117
 31
0.0
210
0.0
220
0.0
230
1.0
 40
0.3419987131
 41
5.193281737408617
 42
6.124043104552321
  0
SPLINE
  5
EA
330
1F
100
AcDbEntity
  8
VERMASSUNG
  6
Continuous
370
    25
100
AcDbSpline
210
0.0
220
0.0
230
1.0
 70
     8
 71
     3
 72
    12
 73
     8
 74
     0
 42
0.000000001
 43
0.00000001
 40
0.0
 40
0.0
 40
0.0
 40
0.0
 40
0.5000000000000019
 40
0.5000000000000019
 40
0.7500000000000009
 40
0.7500000000000009
 40
1.0
 40
1.0
 40
1.0
 40
1.0
 10
203.5400504499274
 20
155.3247283239955
 30
0.0
 10
203.5093282080083
 20
155.3620303069485
 30
0.0
 10
203.4664909934732
 20
155.3986421389949
 30
0.0
 10
203.3670639692734
 20
155.4464069222801
 30
0.0
 10
203.3273117744567
 20
155.4613644377625
 30
0.0
 10
203.2292703175985
 20
155.4845543835316
 30
0.0
 10
203.169714262011
 20
155.4924778227513
 30
0.0
 10
203.1070377480352
 20
155.4924778227513
 30
0.0
  0
LINE
  5
EB
330
1F
100
AcDbEntity
  8
VERMASSUNG
  6
Continuous
370
    25
100
AcDbLine
 10
203.107037748
 20
155.4924778228
 30
0.0
 11
200.1625513752
 21
155.4924778228
 31
0.0
  0
SPLINE
  5
EC
330
1F
100
AcDbEntity
  8
VERMASSUNG
  6
Continuous
370
    25
100
AcDbSpline
210
0.0
220
0.0
230
1.0
 70
     8
 71
     3
 72
    12
 73
     8
 74
     0
 42
0.000000001
 43
0.00000001
 40
0.0
 40
0.0
 40
0.0
 40
0.0
 40
0.2499999999999999
 40
0.2499999999999999
 40
0.4999999999999999
 40
0.4999999999999999
 40
1.0
 40
1.0
 40
1.0
 40
1.0
 10
200.1625513751681
 20
155.4924778227513
 30
0.0
 10
200.0994713366748
 20
155.4924778227513
 30
0.0
 10
200.0403227144933
 20
155.4845718965389
 30
0.0
 10
199.9418501644242
 20
155.4612467351026
 30
0.0
 10
199.9028135524395
 20
155.446533945271
 30
0.0
 10
199.8029170856605
 20
155.39857814454
 30
0.0
 10
199.7604962045939
 20
155.36231598796
 30
0.0
 10
199.7295386732759
 20
155.3247283239955
 30
0.0
  0
ELLIPSE
  5
ED
330
1F
100
AcDbEntity
  8
VERMASSUNG
  6
Continuous
370
    25
100
AcDbEllipse
 10
215.981948751
 20
125.4239858639
 30
0.0
 11
-14.75368316065607
 21
31.09325491558117
 31
0.0
210
0.0
220
0.0
230
1.0
 40
0.3419987131
 41
0.1591422026273024
 42
1.08990356977098
  0
LINE
  5
EE
330
1F
100
AcDbEntity
  8
VERMASSUNG
  6
Continuous
370
    25
100
AcDbLine
 10
189.6347945616
 20
94.4239858639
 30
0.0
 11
189.6347945616
 21
156.4239858639
 31
0.0
  0
ELLIPSE
  5
EF
330
1F
100
AcDbEntity
  8
VERMASSUNG
  6
Continuous
370
    25
100
AcDbEllipse
 10
221.2814340577
 20
107.8591269042
 30
0.0
 11
-0.3267812967788473
 21
3.437685688267692
 31
0.0
210
0.0
220
0.0
230
1.0
 40
0.2095444568
 41
0.0
 42
6.283185307179586
  0
SPLINE
  5
F0
330
1F
100
AcDbEntity
  8
VERMASSUNG
  6
Continuous
370
    25
100
AcDbSpline
210
0.0
220
0.0
230
1.0
 70
     8
 71
     3
 72
    12
 73
     8
 74
     0
 42
0.000000001
 43
0.00000001
 40
0.0
 40
0.0
 40
0.0
 40
0.0
 40
0.5
 40
0.5
 40
0.75
 40
0.75
 40
1.0
 40
1.0
 40
1.0
 40
1.0
 10
188.8182822751451
 20
103.5691921614025
 30
0.0
 10
188.8747187760523
 20
103.5677742800607
 30
0.0
 10
188.9438034067411
 20
103.5662099438124
 30
0.0
 10
189.062605678459
 20
103.563265751838
 30
0.0
 10
189.1027909539291
 20
103.5622275487406
 30
0.0
 10
189.1761720013329
 20
103.5602936535259
 30
0.0
 10
189.2095815650756
 20
103.5593987662371
 30
0.0
 10
189.239817672732
 20
103.5586149759648
 30
0.0
  0
SPLINE
  5
F1
330
1F
100
AcDbEntity
  8
VERMASSUNG
  6
Continuous
370
    25
100
AcDbSpline
210
0.0
220
0.0
230
1.0
 70
     8
 71
     3
 72
    16
 73
    12
 74
     0
 42
0.000000001
 43
0.00000001
 40
0.0
 40
0.0
 40
0.0
 40
0.0
 40
0.0625000000000003
 40
0.0625000000000003
 40
0.1250000000000006
 40
0.1250000000000006
 40
0.2499999999999979
 40
0.2499999999999979
 40
0.4999999999999974
 40
0.4999999999999974
 40
1.0
 40
1.0
 40
1.0
 40
1.0
 10
189.2398176726948
 20
103.558614975989
 30
0.0
 10
189.2513980802827
 20
103.5583147848777
 30
0.0
 10
189.264707607044
 20
103.5569870366187
 30
0.0
 10
189.2940090371301
 20
103.5502883618437
 30
0.0
 10
189.3088231370144
 20
103.544930178738
 30
0.0
 10
189.3446515387173
 20
103.5278845295707
 30
0.0
 10
189.3587711630803
 20
103.5164219917949
 30
0.0
 10
189.3932753071688
 20
103.4848586664227
 30
0.0
 10
189.4043798578734
 20
103.4669613673774
 30
0.0
 10
189.4305560350896
 20
103.4167999497632
 30
0.0
 10
189.4347945616016
 20
103.3890555375666
 30
0.0
 10
189.4347945616016
 20
103.3643913756371
 30
0.0
  0
LINE
  5
F2
330
1F
100
AcDbEntity
  8
VERMASSUNG
  6
Continuous
370
    25
100
AcDbLine
 10
189.4347945616
 20
118.4020985381
 30
0.0
 11
189.4347945616
 21
102.884165585
 31
0.0
  0
SPLINE
  5
F3
330
1F
100
AcDbEntity
  8
VERMASSUNG
  6
Continuous
370
    25
100
AcDbSpline
210
0.0
220
0.0
230
1.0
 70
     8
 71
     3
 72
    16
 73
    12
 74
     0
 42
0.000000001
 43
0.00000001
 40
0.0
 40
0.0
 40
0.0
 40
0.0
 40
0.5000000000000018
 40
0.5000000000000018
 40
0.7500000000000009
 40
0.7500000000000009
 40
0.8750000000000004
 40
0.8750000000000004
 40
0.9375000000000002
 40
0.9375000000000002
 40
1.0
 40
1.0
 40
1.0
 40
1.0
 10
189.4347945616016
 20
118.4020985381282
 30
0.0
 10
189.4347945616016
 20
118.5157910822561
 30
0.0
 10
189.4306482865237
 20
118.6301112436056
 30
0.0
 10
189.4046826911302
 20
118.8031595341027
 30
0.0
 10
189.3932217857528
 20
118.8623350412644
 30
0.0
 10
189.3589100479784
 20
118.9454581607326
 30
0.0
 10
189.3448853120488
 20
118.9735794768332
 30
0.0
 10
189.308862349015
 20
119.0021952908107
 30
0.0
 10
189.2941078399253
 20
119.0079883387124
 30
0.0
 10
189.2647556787784
 20
119.0063949127754
 30
0.0
 10
189.2514158042743
 20
118.9998985094516
 30
0.0
 10
189.239817672726
 20
118.9913827632485
 30
0.0
  0
SPLINE
  5
F4
330
1F
100
AcDbEntity
  8
VERMASSUNG
  6
Continuous
370
    25
100
AcDbSpline
210
0.0
220
0.0
230
1.0
 70
     8
 71
     3
 72
    12
 73
     8
 74
     0
 42
0.000000001
 43
0.00000001
 40
0.0
 40
0.0
 40
0.0
 40
0.0
 40
0.25
 40
0.25
 40
0.5
 40
0.5
 40
1.0
 40
1.0
 40
1.0
 40
1.0
 10
189.2398176727331
 20
118.9913827632393
 30
0.0
 10
189.2096192312924
 20
118.9692100311943
 30
0.0
 10
189.1762518759564
 20
118.950130375317
 30
0.0
 10
189.1030966001265
 20
118.9249573308743
 30
0.0
 10
189.0628439011026
 20
118.9194007944575
 30
0.0
 10
188.9451151578277
 20
118.9303126054443
 30
0.0
 10
188.8746567097688
 20
118.9722483608551
 30
0.0
 10
188.8182822751505
 20
119.0214601432367
 30
0.0
  0
SPLINE
  5
F5
330
1F
100
AcDbEntity
  8
VERMASSUNG
  6
Continuous
370
    25
100
AcDbSpline
210
0.0
220
0.0
230
1.0
 70
     8
 71
     3
 72
    12
 73
     8
 74
     0
 42
0.000000001
 43
0.00000001
 40
0.0
 40
0.0
 40
0.0
 40
0.0
 40
0.4999999999999999
 40
0.4999999999999999
 40
0.7499999999999998
 40
0.7499999999999998
 40
1.0
 40
1.0
 40
1.0
 40
1.0
 10
188.313474218042
 20
120.2378115351172
 30
0.0
 10
188.3572245699264
 20
120.0173645501427
 30
0.0
 10
188.4101147210509
 20
119.8018195603371
 30
0.0
 10
188.5217262641926
 20
119.4894054837652
 30
0.0
 10
188.5642856080962
 20
119.3873260081493
 30
0.0
 10
188.6692628434336
 20
119.1928859955076
 30
0.0
 10
188.7308300865281
 20
119.0978010964439
 30
0.0
 10
188.8182822751505
 20
119.0214601432367
 30
0.0
  0
SPLINE
  5
F6
330
1F
100
AcDbEntity
  8
VERMASSUNG
  6
Continuous
370
    25
100
AcDbSpline
210
0.0
220
0.0
230
1.0
 70
     8
 71
     3
 72
    12
 73
     8
 74
     0
 42
0.000000001
 43
0.00000001
 40
0.0
 40
0.0
 40
0.0
 40
0.0
 40
0.2499999999999996
 40
0.2499999999999996
 40
0.4999999999999991
 40
0.4999999999999991
 40
1.0
 40
1.0
 40
1.0
 40
1.0
 10
188.8182822751505
 20
131.8265115845199
 30
0.0
 10
188.7297888675826
 20
131.7492617044116
 30
0.0
 10
188.6697308268167
 20
131.6559423805224
 30
0.0
 10
188.5638825538341
 20
131.4599093275529
 30
0.0
 10
188.5213490325566
 20
131.3575829693412
 30
0.0
 10
188.410197725733
 20
131.0462385635653
 30
0.0
 10
188.3572668686852
 20
130.8308203103873
 30
0.0
 10
188.313474218042
 20
130.6101601926394
 30
0.0
  0
SPLINE
  5
F7
330
1F
100
AcDbEntity
  8
VERMASSUNG
  6
Continuous
370
    25
100
AcDbSpline
210
0.0
220
0.0
230
1.0
 70
     8
 71
     3
 72
    12
 73
     8
 74
     0
 42
0.000000001
 43
0.00000001
 40
0.0
 40
0.0
 40
0.0
 40
0.0
 40
0.5
 40
0.5
 40
0.75
 40
0.75
 40
1.0
 40
1.0
 40
1.0
 40
1.0
 10
188.8182822751504
 20
131.8265115845199
 30
0.0
 10
188.8745908234461
 20
131.8756658517638
 30
0.0
 10
188.9448654841642
 20
131.9176231703675
 30
0.0
 10
189.0629033984877
 20
131.9285828478999
 30
0.0
 10
189.1030796393417
 20
131.9230740896526
 30
0.0
 10
189.1770367340196
 20
131.8975168608636
 30
0.0
 10
189.209653121731
 20
131.8787368130243
 30
0.0
 10
189.2398176727268
 20
131.8565889645076
 30
0.0
  0
SPLINE
  5
F8
330
1F
100
AcDbEntity
  8
VERMASSUNG
  6
Continuous
370
    25
100
AcDbSpline
210
0.0
220
0.0
230
1.0
 70
     8
 71
     3
 72
    16
 73
    12
 74
     0
 42
0.000000001
 43
0.00000001
 40
0.0
 40
0.0
 40
0.0
 40
0.0
 40
0.0625000000000006
 40
0.0625000000000006
 40
0.1250000000000012
 40
0.1250000000000012
 40
0.2500000000000024
 40
0.2500000000000024
 40
0.5000000000000016
 40
0.5000000000000016
 40
1.0
 40
1.0
 40
1.0
 40
1.0
 10
189.239817672695
 20
131.8565889644531
 30
0.0
 10
189.2514305725344
 20
131.8480623748578
 30
0.0
 10
189.2647817569669
 20
131.8415621133251
 30
0.0
 10
189.2941815965861
 20
131.8399927162075
 30
0.0
 10
189.3090223211413
 20
131.8458761068381
 30
0.0
 10
189.3448555291099
 20
131.8744237428887
 30
0.0
 10
189.3589687369315
 20
131.9025907621944
 30
0.0
 10
189.3934601081504
 20
131.9863450206164
 30
0.0
 10
189.4045441792608
 20
132.0440584342378
 30
0.0
 10
189.4306669970568
 20
132.2176489708837
 30
0.0
 10
189.4347945616017
 20
132.3326770235256
 30
0.0
 10
189.4347945616017
 20
132.4458731896285
 30
0.0
  0
LINE
  5
F9
330
1F
100
AcDbEntity
  8
VERMASSUNG
  6
Continuous
370
    25
100
AcDbLine
 10
189.4347945616
 20
147.9638061428
 30
0.0
 11
189.4347945616
 21
132.4458731896
 31
0.0
  0
SPLINE
  5
FA
330
1F
100
AcDbEntity
  8
VERMASSUNG
  6
Continuous
370
    25
100
AcDbSpline
210
0.0
220
0.0
230
1.0
 70
     8
 71
     3
 72
    16
 73
    12
 74
     0
 42
0.000000001
 43
0.00000001
 40
0.0
 40
0.0
 40
0.0
 40
0.0
 40
0.4999999999999994
 40
0.4999999999999994
 40
0.7499999999999972
 40
0.7499999999999972
 40
0.874999999999996
 40
0.874999999999996
 40
0.9374999999999981
 40
0.9374999999999981
 40
1.0
 40
1.0
 40
1.0
 40
1.0
 10
189.4347945616016
 20
147.4835803521196
 30
0.0
 10
189.4347945616016
 20
147.4589091960767
 30
0.0
 10
189.4306288631417
 20
147.4313273646854
 30
0.0
 10
189.4043705348167
 20
147.3809844938621
 30
0.0
 10
189.3928667530791
 20
147.3626949958002
 30
0.0
 10
189.3587359937326
 20
147.3315399647632
 30
0.0
 10
189.3443141070619
 20
147.3199005895514
 30
0.0
 10
189.3087471386241
 20
147.3030185636204
 30
0.0
 10
189.2937953703294
 20
147.2976294598127
 30
0.0
 10
189.2647915519696
 20
147.2910089638682
 30
0.0
 10
189.2513761979604
 20
147.2896563756618
 30
0.0
 10
189.2398176727238
 20
147.2893567517902
 30
0.0
  0
SPLINE
  5
FB
330
1F
100
AcDbEntity
  8
VERMASSUNG
  6
Continuous
370
    25
100
AcDbSpline
210
0.0
220
0.0
230
1.0
 70
     8
 71
     3
 72
    12
 73
     8
 74
     0
 42
0.000000001
 43
0.00000001
 40
0.0
 40
0.0
 40
0.0
 40
0.0
 40
0.2500000000000003
 40
0.2500000000000003
 40
0.5000000000000003
 40
0.5000000000000003
 40
1.0
 40
1.0
 40
1.0
 40
1.0
 10
189.2398176727331
 20
147.2893567517919
 30
0.0
 10
189.2096298961834
 20
147.2885742143743
 30
0.0
 10
189.1762760920917
 20
147.2876808825558
 30
0.0
 10
189.1031498888958
 20
147.2857535737522
 30
0.0
 10
189.0629146858716
 20
147.2847140425395
 30
0.0
 10
188.9452230557385
 20
147.2817961591923
 30
0.0
 10
188.8748423825785
 20
147.2802005531221
 30
0.0
 10
188.8182822751479
 20
147.2787795663542
 30
0.0
  0
SPLINE
  5
FC
330
1F
100
AcDbEntity
  8
VERMASSUNG
  6
Continuous
370
    25
100
AcDbSpline
210
0.0
220
0.0
230
1.0
 70
     8
 71
     3
 72
    16
 73
    12
 74
     0
 42
0.000000001
 43
0.00000001
 40
0.0
 40
0.0
 40
0.0
 40
0.0
 40
0.2499999999999998
 40
0.2499999999999998
 40
0.3749999999999998
 40
0.3749999999999998
 40
0.4999999999999999
 40
0.4999999999999999
 40
0.7499999999999999
 40
0.7499999999999999
 40
1.0
 40
1.0
 40
1.0
 40
1.0
 10
188.313474218042
 20
130.6101601926394
 30
0.0
 10
188.1522417405575
 20
129.7977504173926
 30
0.0
 10
188.0317619009179
 20
128.9576721230079
 30
0.0
 10
187.9093813836046
 20
127.6563770736451
 30
0.0
 10
187.8784037232071
 20
127.2156960380603
 30
0.0
 10
187.8367899855792
 20
126.3198563971291
 30
0.0
 10
187.8265540726464
 20
125.8731982659267
 30
0.0
 10
187.8263656755902
 20
124.5378883087868
 30
0.0
 10
187.8665103782279
 20
123.6533929354792
 30
0.0
 10
188.0306641331674
 20
121.8961430474532
 30
0.0
 10
188.152215783577
 20
121.0503521010401
 30
0.0
 10
188.313474218042
 20
120.2378115351172
 30
0.0
  0
LINE
  5
FD
330
1F
100
AcDbEntity
  8
VERMASSUNG
  6
Continuous
370
    25
100
AcDbLine
 10
187.4347945616
 20
131.9091641256
 30
0.0
 11
187.4347945616
 21
118.9388076022
 31
0.0
  0
LINE
  5
FE
330
1F
100
AcDbEntity
  8
VERMASSUNG
  6
Continuous
370
    25
100
AcDbLine
 10
153.1347945616
 20
131.4782964314
 30
0.0
 11
153.1347945616
 21
119.3696752963
 31
0.0
  0
LINE
  5
FF
330
1F
100
AcDbEntity
  8
VERMASSUNG
  6
Continuous
370
    25
100
AcDbLine
 10
151.6347945616
 20
131.0452837295
 30
0.0
 11
151.6347945616
 21
119.8026879982
 31
0.0
  0
LINE
  5
100
330
1F
100
AcDbEntity
  8
VERMASSUNG
  6
Continuous
370
    25
100
AcDbLine
 10
187.4347945616
 20
103.4038870793
 30
0.0
 11
187.4347945616
 21
118.9388076022
 31
0.0
  0
ARC
  5
101
330
1F
100
AcDbEntity
  8
VERMASSUNG
  6
Continuous
370
    25
100
AcDbCircle
 10
187.6347314725
 20
103.3988639682
 30
0.0
 40
0.2000000000000055
100
AcDbArc
 50
88.5608333333
 51
178.5608333333
  0
LINE
  5
102
330
1F
100
AcDbEntity
  8
VERMASSUNG
  6
Continuous
370
    25
100
AcDbLine
 10
153.1347945616
 20
104.2656224676
 30
0.0
 11
153.1347945616
 21
119.3696752963
 31
0.0
  0
LINE
  5
103
330
1F
100
AcDbEntity
  8
VERMASSUNG
  6
Continuous
370
    25
100
AcDbLine
 10
153.1347945616
 20
104.2656224676
 30
0.0
 11
187.4347945616
 21
103.4038870793
 31
0.0
  0
LINE
  5
104
330
1F
100
AcDbEntity
  8
VERMASSUNG
  6
Continuous
370
    25
100
AcDbLine
 10
187.4347945616
 20
131.9091641256
 30
0.0
 11
187.4347945616
 21
147.4440846484
 31
0.0
  0
ARC
  5
105
330
1F
100
AcDbEntity
  8
VERMASSUNG
  6
Continuous
370
    25
100
AcDbCircle
 10
187.6347314725
 20
147.4491077596
 30
0.0
 40
0.2000000000000066
100
AcDbArc
 50
181.4391666667
 51
271.4391666667
  0
LINE
  5
106
330
1F
100
AcDbEntity
  8
VERMASSUNG
  6
Continuous
370
    25
100
AcDbLine
 10
153.1347945616
 20
131.4782964314
 30
0.0
 11
153.1347945616
 21
146.5823492602
 31
0.0
  0
LINE
  5
107
330
1F
100
AcDbEntity
  8
VERMASSUNG
  6
Continuous
370
    25
100
AcDbLine
 10
153.1347945616
 20
146.5823492602
 30
0.0
 11
187.4347945616
 21
147.4440846484
 31
0.0
  0
LINE
  5
108
330
1F
100
AcDbEntity
  8
VERMASSUNG
  6
Continuous
370
    25
100
AcDbLine
 10
187.6397545837
 20
147.2491708486
 30
0.0
 11
188.8182822751
 21
147.2787795664
 31
0.0
  0
LINE
  5
109
330
1F
100
AcDbEntity
  8
VERMASSUNG
  6
Continuous
370
    25
100
AcDbLine
 10
187.6397545837
 20
103.5988008791
 30
0.0
 11
188.8182822752
 21
103.5691921614
 31
0.0
  0
LINE
  5
10A
330
1F
100
AcDbEntity
  8
VERMASSUNG
  6
Continuous
370
    25
100
AcDbLine
 10
151.6347945616
 20
145.7163238564
 30
0.0
 11
153.1347945616
 21
146.5823492602
 31
0.0
  0
LINE
  5
10B
330
1F
100
AcDbEntity
  8
VERMASSUNG
  6
Continuous
370
    25
100
AcDbLine
 10
151.6347945616
 20
131.0452837295
 30
0.0
 11
151.6347945616
 21
145.7163238564
 31
0.0
  0
LINE
  5
10C
330
1F
100
AcDbEntity
  8
VERMASSUNG
  6
Continuous
370
    25
100
AcDbLine
 10
151.6347945616
 20
105.1316478714
 30
0.0
 11
153.1347945616
 21
104.2656224676
 31
0.0
  0
LINE
  5
10D
330
1F
100
AcDbEntity
  8
VERMASSUNG
  6
Continuous
370
    25
100
AcDbLine
 10
151.6347945616
 20
105.1316478714
 30
0.0
 11
151.6347945616
 21
119.8026879982
 31
0.0
  0
SPLINE
  5
10E
330
1F
100
AcDbEntity
  8
VERMASSUNG
  6
Continuous
370
    25
100
AcDbSpline
210
0.0
220
0.0
230
1.0
 70
     8
 71
     3
 72
    12
 73
     8
 74
     0
 42
0.000000001
 43
0.00000001
 40
0.0
 40
0.0
 40
0.0
 40
0.0
 40
0.25
 40
0.25
 40
0.5
 40
0.5
 40
1.0
 40
1.0
 40
1.0
 40
1.0
 10
226.8674675736227
 20
93.92454967930492
 30
0.0
 10
226.9491659403112
 20
93.92433936950381
 30
0.0
 10
227.0301097065175
 20
93.9143327397394
 30
0.0
 10
227.1902332857425
 20
93.87409822359852
 30
0.0
 10
227.2698199430216
 20
93.8433332329879
 30
0.0
 10
227.4917014736797
 20
93.72312110426829
 30
0.0
 10
227.6228295438902
 20
93.60245744323679
 30
0.0
 10
227.7157306213152
 20
93.45372845121378
 30
0.0
  0
ELLIPSE
  5
10F
330
1F
100
AcDbEntity
  8
VERMASSUNG
  6
Continuous
370
    25
100
AcDbEllipse
 10
229.2387564895
 20
153.3884226994
 30
0.0
 11
-5.984573931208075
 21
8.612441559279659
 31
0.0
210
0.0
220
0.0
230
1.0
 40
0.0499243758
 41
1.113911365035518
 42
1.642519599232621
  0
ELLIPSE
  5
110
330
1F
100
AcDbEntity
  8
VERMASSUNG
  6
Continuous
370
    25
100
AcDbEllipse
 10
229.2387564895
 20
93.1446887156
 30
0.0
 11
5.999999970218965
 21
0.01112492796568176
 31
0.0
210
0.0
220
0.0
230
1.0
 40
0.0537357554
 41
1.57069669239335
 42
1.827342490479207
  0
LINE
  5
111
330
1F
100
AcDbEntity
  8
VERMASSUNG
  6
Continuous
370
    25
100
AcDbLine
 10
253.5886865591
 20
96.4724232602
 30
0.0
 11
252.3863120066
 21
119.4150964461
 31
0.0
  0
LINE
  5
112
330
1F
100
AcDbEntity
  8
VERMASSUNG
  6
Continuous
370
    25
100
AcDbLine
 10
247.4558164713
 20
109.7503685117
 30
0.0
 11
247.760752712
 21
103.9318384207
 31
0.0
  0
ARC
  5
113
330
1F
100
AcDbEntity
  8
VERMASSUNG
  6
Continuous
370
    25
100
AcDbCircle
 10
245.5369720093
 20
109.6498061346
 30
0.0
 40
1.921477780510811
100
AcDbArc
 50
3.0
 51
183.0
  0
LINE
  5
114
330
1F
100
AcDbEntity
  8
VERMASSUNG
  6
Continuous
370
    25
100
AcDbLine
 10
244.5461609308
 20
91.8413119164
 30
0.0
 11
244.5036599864
 21
92.6522782449
 31
0.0
  0
LINE
  5
115
330
1F
100
AcDbEntity
  8
VERMASSUNG
  6
Continuous
370
    25
100
AcDbLine
 10
243.6919390304
 20
108.1408367596
 30
0.0
 11
243.6181275473
 21
109.5492437576
 31
0.0
  0
ELLIPSE
  5
116
330
1F
100
AcDbEntity
  8
VERMASSUNG
  6
Continuous
370
    25
100
AcDbEllipse
 10
238.7177226408
 20
82.4687402171
 30
0.0
 11
8.701229093347306
 21
6.798145223573699
 31
0.0
210
0.0
220
0.0
230
1.0
 40
0.9961946981
 41
0.3524656667665074
 42
0.9075712110370968
  0
LINE
  5
117
330
1F
100
AcDbEntity
  8
VERMASSUNG
  6
Continuous
370
    25
100
AcDbLine
 10
238.738107687
 20
93.4846667608
 30
0.0
 11
229.2387564895
 21
93.4671043534
 31
0.0
  0
LINE
  5
118
330
1F
100
AcDbEntity
  8
VERMASSUNG
  6
Continuous
370
    25
100
AcDbLine
 10
252.3863120066
 20
119.4150964461
 30
0.0
 11
229.2387564895
 21
152.4732317189
 31
0.0
  0
ARC
  5
119
330
1F
100
AcDbEntity
  8
VERMASSUNG
  6
Continuous
370
    25
100
AcDbCircle
 10
245.5369720093
 20
109.6498061346
 30
0.0
 40
1.750000000000008
100
AcDbArc
 50
3.0
 51
183.0
  0
LINE
  5
11A
330
1F
100
AcDbEntity
  8
VERMASSUNG
  6
Continuous
370
    25
100
AcDbLine
 10
247.2845736951
 20
109.741394058
 30
0.0
 11
247.5766930878
 21
104.1674239966
 31
0.0
  0
LINE
  5
11B
330
1F
100
AcDbEntity
  8
VERMASSUNG
  6
Continuous
370
    25
100
AcDbLine
 10
243.7893703235
 20
109.5582182112
 30
0.0
 11
243.8525392776
 21
108.352882764
 31
0.0
  0
LINE
  5
11C
330
1F
100
AcDbEntity
  8
VERMASSUNG
  6
Continuous
370
    25
100
AcDbLine
 10
244.688995694
 20
92.3923435489
 30
0.0
 11
244.7133855797
 21
91.9269568054
 31
0.0
  0
ELLIPSE
  5
11D
330
1F
100
AcDbEntity
  8
VERMASSUNG
  6
Continuous
370
    25
100
AcDbEllipse
 10
211.2188511998
 20
60.9842672152
 30
0.0
 11
58.83318793296025
 21
38.91120113156492
 31
0.0
210
0.0
220
0.0
230
1.0
 40
0.1349886662
 41
0.8788235097741464
 42
0.8822565946141611
  0
ELLIPSE
  5
11E
330
1F
100
AcDbEntity
  8
VERMASSUNG
  6
Continuous
370
    25
100
AcDbEllipse
 10
239.025203995
 20
82.7089709796
 30
0.0
 11
8.701229093346967
 21
6.798145223574139
 31
6.306066779870889E-14
210
-7.284104970732846E-15
220
4.707141155433597E-17
230
1.0
 40
0.9961946981
 41
0.3359319141071467
 42
0.3687554563472178
  0
ELLIPSE
  5
11F
330
1F
100
AcDbEntity
  8
VERMASSUNG
  6
HIDDEN
370
    18
100
AcDbEllipse
 10
248.2108835212
 20
125.4239858639
 30
0.0
 11
-22.1980135259256
 21
31.46000549521663
 31
0.0
210
0.0
220
0.0
230
1.0
 40
0.0714855773
 41
6.23278817263502
 42
6.679833029611111
  0
SPLINE
  5
120
330
1F
100
AcDbEntity
  8
VERMASSUNG
  6
HIDDEN
370
    18
100
AcDbSpline
210
0.0
220
0.0
230
1.0
 70
     8
 71
     3
 72
    12
 73
     8
 74
     0
 42
0.000000001
 43
0.00000001
 40
0.0
 40
0.0
 40
0.0
 40
0.0
 40
0.5000000000000019
 40
0.5000000000000019
 40
0.7500000000000009
 40
0.7500000000000009
 40
1.0
 40
1.0
 40
1.0
 40
1.0
 10
199.7295386732759
 20
155.3247283239957
 30
0.0
 10
199.760260915195
 20
155.3620303069487
 30
0.0
 10
199.8030981297301
 20
155.3986421389951
 30
0.0
 10
199.9025251539299
 20
155.4464069222803
 30
0.0
 10
199.9422773487466
 20
155.4613644377627
 30
0.0
 10
200.0403188056048
 20
155.4845543835318
 30
0.0
 10
200.0998748611923
 20
155.4924778227515
 30
0.0
 10
200.1625513751681
 20
155.4924778227515
 30
0.0
  0
LINE
  5
121
330
1F
100
AcDbEntity
  8
VERMASSUNG
  6
HIDDEN
370
    18
100
AcDbLine
 10
200.1625513752
 20
155.4924778228
 30
0.0
 11
203.107037748
 21
155.4924778228
 31
0.0
  0
SPLINE
  5
122
330
1F
100
AcDbEntity
  8
VERMASSUNG
  6
HIDDEN
370
    18
100
AcDbSpline
210
0.0
220
0.0
230
1.0
 70
     8
 71
     3
 72
    12
 73
     8
 74
     0
 42
0.000000001
 43
0.00000001
 40
0.0
 40
0.0
 40
0.0
 40
0.0
 40
0.2499999999999977
 40
0.2499999999999977
 40
0.4999999999999953
 40
0.4999999999999953
 40
1.0
 40
1.0
 40
1.0
 40
1.0
 10
203.1070377480352
 20
155.4924778227515
 30
0.0
 10
203.1701177865286
 20
155.4924778227515
 30
0.0
 10
203.22926640871
 20
155.4845718965391
 30
0.0
 10
203.327738958779
 20
155.4612467351029
 30
0.0
 10
203.3667755707638
 20
155.4465339452712
 30
0.0
 10
203.4666720375428
 20
155.3985781445402
 30
0.0
 10
203.5090929186095
 20
155.3623159879602
 30
0.0
 10
203.5400504499274
 20
155.3247283239957
 30
0.0
  0
ELLIPSE
  5
123
330
1F
100
AcDbEntity
  8
VERMASSUNG
  6
HIDDEN
370
    18
100
AcDbEllipse
 10
187.2876403722
 20
125.4239858639
 30
0.0
 11
14.75368316065627
 21
31.09325491558117
 31
0.0
210
0.0
220
0.0
230
1.0
 40
0.3419987131
 41
5.19328173740864
 42
6.124043104552341
  0
SPLINE
  5
124
330
1F
100
AcDbEntity
  8
VERMASSUNG
  6
HIDDEN
370
    18
100
AcDbSpline
210
0.0
220
0.0
230
1.0
 70
     8
 71
     3
 72
    12
 73
     8
 74
     0
 42
0.000000001
 43
0.00000001
 40
0.0
 40
0.0
 40
0.0
 40
0.0
 40
0.5000000000000019
 40
0.5000000000000019
 40
0.7500000000000009
 40
0.7500000000000009
 40
1.0
 40
1.0
 40
1.0
 40
1.0
 10
203.5400504499274
 20
135.333355184564
 30
0.0
 10
203.5093282080083
 20
135.2207993851548
 30
0.0
 10
203.4664909934732
 20
135.1080415254152
 30
0.0
 10
203.3670639692734
 20
134.9585006396188
 30
0.0
 10
203.3273117744567
 20
134.911207907912
 30
0.0
 10
203.2292703175985
 20
134.8374716145905
 30
0.0
 10
203.169714262011
 20
134.8120522952148
 30
0.0
 10
203.1070377480352
 20
134.8120522952148
 30
0.0
  0
LINE
  5
125
330
1F
100
AcDbEntity
  8
VERMASSUNG
  6
HIDDEN
370
    18
100
AcDbLine
 10
203.107037748
 20
134.8120522952
 30
0.0
 11
200.1625513752
 21
134.8120522952
 31
0.0
  0
SPLINE
  5
126
330
1F
100
AcDbEntity
  8
VERMASSUNG
  6
HIDDEN
370
    18
100
AcDbSpline
210
0.0
220
0.0
230
1.0
 70
     8
 71
     3
 72
    12
 73
     8
 74
     0
 42
0.000000001
 43
0.00000001
 40
0.0
 40
0.0
 40
0.0
 40
0.0
 40
0.2500000000000014
 40
0.2500000000000014
 40
0.5000000000000029
 40
0.5000000000000029
 40
1.0
 40
1.0
 40
1.0
 40
1.0
 10
200.1625513751681
 20
134.8120522952148
 30
0.0
 10
200.0994713366747
 20
134.8120522952148
 30
0.0
 10
200.0403227144933
 20
134.8374166144297
 30
0.0
 10
199.9418501644243
 20
134.9115814748026
 30
0.0
 10
199.9028135524395
 20
134.9581018153568
 30
0.0
 10
199.8029170856605
 20
135.108244158202
 30
0.0
 10
199.7604962045939
 20
135.2199373651742
 30
0.0
 10
199.7295386732759
 20
135.3333551845639
 30
0.0
  0
ELLIPSE
  5
127
330
1F
100
AcDbEntity
  8
VERMASSUNG
  6
HIDDEN
370
    18
100
AcDbEllipse
 10
215.981948751
 20
125.4239858639
 30
0.0
 11
-14.75368316065624
 21
31.09325491558117
 31
0.0
210
0.0
220
0.0
230
1.0
 40
0.3419987131
 41
0.1591422026272846
 42
1.089903569770961
  0
SPLINE
  5
128
330
1F
100
AcDbEntity
  8
VERMASSUNG
  6
HIDDEN
370
    18
100
AcDbSpline
210
0.0
220
0.0
230
1.0
 70
     8
 71
     3
 72
    12
 73
     8
 74
     0
 42
0.000000001
 43
0.00000001
 40
0.0
 40
0.0
 40
0.0
 40
0.0
 40
0.4999999999999971
 40
0.4999999999999971
 40
0.7499999999999986
 40
0.7499999999999986
 40
1.0
 40
1.0
 40
1.0
 40
1.0
 10
199.7295386732759
 20
115.5146165431931
 30
0.0
 10
199.760260915195
 20
115.6271723426023
 30
0.0
 10
199.8030981297301
 20
115.7399302023419
 30
0.0
 10
199.9025251539299
 20
115.8894710881382
 30
0.0
 10
199.9422773487466
 20
115.9367638198451
 30
0.0
 10
200.0403188056048
 20
116.0105001131665
 30
0.0
 10
200.0998748611923
 20
116.0359194325423
 30
0.0
 10
200.1625513751681
 20
116.0359194325423
 30
0.0
  0
LINE
  5
129
330
1F
100
AcDbEntity
  8
VERMASSUNG
  6
HIDDEN
370
    18
100
AcDbLine
 10
200.1625513752
 20
116.0359194325
 30
0.0
 11
203.107037748
 21
116.0359194325
 31
0.0
  0
SPLINE
  5
12A
330
1F
100
AcDbEntity
  8
VERMASSUNG
  6
HIDDEN
370
    18
100
AcDbSpline
210
0.0
220
0.0
230
1.0
 70
     8
 71
     3
 72
    12
 73
     8
 74
     0
 42
0.000000001
 43
0.00000001
 40
0.0
 40
0.0
 40
0.0
 40
0.0
 40
0.2500000000000014
 40
0.2500000000000014
 40
0.5000000000000029
 40
0.5000000000000029
 40
1.0
 40
1.0
 40
1.0
 40
1.0
 10
203.1070377480352
 20
116.0359194325423
 30
0.0
 10
203.1701177865286
 20
116.0359194325423
 30
0.0
 10
203.22926640871
 20
116.0105551133273
 30
0.0
 10
203.3277389587791
 20
115.9363902529544
 30
0.0
 10
203.3667755707638
 20
115.8898699124003
 30
0.0
 10
203.4666720375428
 20
115.739727569555
 30
0.0
 10
203.5090929186095
 20
115.6280343625829
 30
0.0
 10
203.5400504499274
 20
115.5146165431931
 30
0.0
  0
ELLIPSE
  5
12B
330
1F
100
AcDbEntity
  8
VERMASSUNG
  6
HIDDEN
370
    18
100
AcDbEllipse
 10
187.2876403722
 20
125.4239858639
 30
0.0
 11
-14.75368316065607
 21
31.09325491558117
 31
0.0
210
0.0
220
0.0
230
1.0
 40
0.3419987131
 41
3.300734856217136
 42
4.23149622336078
  0
SPLINE
  5
12C
330
1F
100
AcDbEntity
  8
VERMASSUNG
  6
HIDDEN
370
    18
100
AcDbSpline
210
0.0
220
0.0
230
1.0
 70
     8
 71
     3
 72
    12
 73
     8
 74
     0
 42
0.000000001
 43
0.00000001
 40
0.0
 40
0.0
 40
0.0
 40
0.0
 40
0.5
 40
0.5
 40
0.75
 40
0.75
 40
1.0
 40
1.0
 40
1.0
 40
1.0
 10
203.5400504499274
 20
95.52324340376111
 30
0.0
 10
203.5093282080083
 20
95.48594142080808
 30
0.0
 10
203.4664909934732
 20
95.44932958876167
 30
0.0
 10
203.3670639692734
 20
95.40156480547648
 30
0.0
 10
203.3273117744567
 20
95.38660728999412
 30
0.0
 10
203.2292703175985
 20
95.36341734422496
 30
0.0
 10
203.169714262011
 20
95.35549390500525
 30
0.0
 10
203.1070377480352
 20
95.35549390500526
 30
0.0
  0
LINE
  5
12D
330
1F
100
AcDbEntity
  8
VERMASSUNG
  6
HIDDEN
370
    18
100
AcDbLine
 10
203.107037748
 20
95.355493905
 30
0.0
 11
200.1625513752
 21
95.355493905
 31
0.0
  0
SPLINE
  5
12E
330
1F
100
AcDbEntity
  8
VERMASSUNG
  6
HIDDEN
370
    18
100
AcDbSpline
210
0.0
220
0.0
230
1.0
 70
     8
 71
     3
 72
    12
 73
     8
 74
     0
 42
0.000000001
 43
0.00000001
 40
0.0
 40
0.0
 40
0.0
 40
0.0
 40
0.2499999999999977
 40
0.2499999999999977
 40
0.4999999999999953
 40
0.4999999999999953
 40
1.0
 40
1.0
 40
1.0
 40
1.0
 10
200.1625513751681
 20
95.35549390500526
 30
0.0
 10
200.0994713366748
 20
95.35549390500526
 30
0.0
 10
200.0403227144933
 20
95.36339983121769
 30
0.0
 10
199.9418501644243
 20
95.38672499265394
 30
0.0
 10
199.9028135524395
 20
95.40143778248563
 30
0.0
 10
199.8029170856605
 20
95.44939358321655
 30
0.0
 10
199.7604962045939
 20
95.48565573979661
 30
0.0
 10
199.7295386732759
 20
95.52324340376111
 30
0.0
  0
ELLIPSE
  5
12F
330
1F
100
AcDbEntity
  8
VERMASSUNG
  6
HIDDEN
370
    18
100
AcDbEllipse
 10
215.981948751
 20
125.4239858639
 30
0.0
 11
14.75368316065612
 21
31.09325491558117
 31
0.0
210
0.0
220
0.0
230
1.0
 40
0.3419987131
 41
2.051689083818821
 42
2.982450450962496
  0
SPLINE
  5
130
330
1F
100
AcDbEntity
  8
VERMASSUNG
  6
HIDDEN
370
    18
100
AcDbSpline
210
0.0
220
0.0
230
1.0
 70
    11
 71
     3
 72
    60
 73
    56
 74
     0
 42
0.000000001
 43
0.00000001
 40
0.0
 40
0.0
 40
0.0
 40
0.0
 40
0.0312500000000002
 40
0.0312500000000002
 40
0.0625000000000005
 40
0.0625000000000005
 40
0.0937500000000007
 40
0.0937500000000007
 40
0.125000000000001
 40
0.125000000000001
 40
0.1875000000000012
 40
0.1875000000000012
 40
0.2500000000000013
 40
0.2500000000000013
 40
0.2812500000000012
 40
0.2812500000000012
 40
0.3125000000000011
 40
0.3125000000000011
 40
0.3437500000000009
 40
0.3437500000000009
 40
0.3750000000000008
 40
0.3750000000000008
 40
0.4062500000000006
 40
0.4062500000000006
 40
0.4375000000000005
 40
0.4375000000000005
 40
0.4687500000000003
 40
0.4687500000000003
 40
0.5000000000000002
 40
0.5000000000000002
 40
0.5624999999999999
 40
0.5624999999999999
 40
0.6249999999999997
 40
0.6249999999999997
 40
0.6562499999999997
 40
0.6562499999999997
 40
0.6874999999999997
 40
0.6874999999999997
 40
0.7187499999999998
 40
0.7187499999999998
 40
0.7499999999999998
 40
0.7499999999999998
 40
0.7812499999999998
 40
0.7812499999999998
 40
0.8124999999999998
 40
0.8124999999999998
 40
0.8437499999999999
 40
0.8437499999999999
 40
0.8749999999999999
 40
0.8749999999999999
 40
0.9062499999999999
 40
0.9062499999999999
 40
0.9374999999999999
 40
0.9374999999999999
 40
1.0
 40
1.0
 40
1.0
 40
1.0
 10
203.6347945616017
 20
125.4239858638783
 30
0.0
 10
203.6347945616017
 20
125.5561511264217
 30
0.0
 10
203.6218227031129
 20
125.6861011874258
 30
0.0
 10
203.5710025334205
 20
125.9417541207859
 30
0.0
 10
203.5325352099536
 20
126.0687836273352
 30
0.0
 10
203.4321369738814
 20
126.3109717584597
 30
0.0
 10
203.3707039429082
 20
126.4258332510126
 30
0.0
 10
203.2255691113633
 20
126.6432134468367
 30
0.0
 10
203.1411139939555
 20
126.7461110140354
 30
0.0
 10
202.8643945435971
 20
127.0227780530432
 30
0.0
 10
202.6413176516791
 20
127.1717761435231
 30
0.0
 10
202.1600342894588
 20
127.3712872839878
 30
0.0
 10
201.8968038704678
 20
127.4238453869845
 30
0.0
 10
201.5054016687798
 20
127.4240556693626
 30
0.0
 10
201.372878640671
 20
127.4110698986355
 30
0.0
 10
201.1163481874299
 20
127.3600427504217
 30
0.0
 10
200.9916613531333
 20
127.3222875512713
 30
0.0
 10
200.7494820908978
 20
127.2221492183625
 30
0.0
 10
200.6323885587477
 20
127.159543550951
 30
0.0
 10
200.4156735553923
 20
127.0148102576861
 30
0.0
 10
200.3146547285295
 20
126.9321829104065
 30
0.0
 10
200.1278698410774
 20
126.7455778571549
 30
0.0
 10
200.0450129598812
 20
126.6444627932787
 30
0.0
 10
199.9001286948074
 20
126.4279299892889
 30
0.0
 10
199.8374911869864
 20
126.3110597816878
 30
0.0
 10
199.7370423635867
 20
126.0687619110376
 30
0.0
 10
199.6991912625694
 20
125.9440979125766
 30
0.0
 10
199.6479696973131
 20
125.6878108685128
 30
0.0
 10
199.6348415706959
 20
125.5552388727672
 30
0.0
 10
199.6347009303556
 20
125.1636346799932
 30
0.0
 10
199.6870256797275
 20
124.9004693486692
 30
0.0
 10
199.8861367417847
 20
124.4189639794961
 30
0.0
 10
200.034999078242
 20
124.195712440012
 30
0.0
 10
200.3113200375675
 20
123.9188561411231
 30
0.0
 10
200.4140836859411
 20
123.8343426942794
 30
0.0
 10
200.6314672433205
 20
123.6889254208392
 30
0.0
 10
200.746266011277
 20
123.6274142217808
 30
0.0
 10
200.988142734701
 20
123.526884373526
 30
0.0
 10
201.1152963427012
 20
123.488239350308
 30
0.0
 10
201.3709623521338
 20
123.437183022757
 30
0.0
 10
201.5008283898898
 20
123.4241181642113
 30
0.0
 10
201.7647809166215
 20
123.4238555434134
 30
0.0
 10
201.8951852400455
 20
123.4367325436574
 30
0.0
 10
202.1508360034248
 20
123.4873185474632
 30
0.0
 10
202.2777015525392
 20
123.5255949120851
 30
0.0
 10
202.5202220104851
 20
123.6258657795651
 30
0.0
 10
202.6351486491454
 20
123.687221803706
 30
0.0
 10
202.8525201179774
 20
123.8320680988788
 30
0.0
 10
202.9555339306397
 20
123.9164456133734
 30
0.0
 10
203.1402344762217
 20
124.1008529335617
 30
0.0
 10
203.2230642104782
 20
124.2014259968311
 30
0.0
 10
203.3693166490757
 20
124.4196521374101
 30
0.0
 10
203.4316851298681
 20
124.5362072473314
 30
0.0
 10
203.5816412814349
 20
124.8970568413652
 30
0.0
 10
203.6347945616017
 20
125.1596553387916
 30
0.0
 10
203.6347945616017
 20
125.4239858638783
 30
0.0
  0
LINE
  5
131
330
1F
100
AcDbEntity
  8
VERMASSUNG
  6
HIDDEN
370
    18
100
AcDbLine
 10
189.6347945616
 20
156.4239858589
 30
0.0
 11
189.6347945616
 21
94.4239858639
 31
0.0
  0
LWPOLYLINE
  5
132
330
1F
100
AcDbEntity
  8
VERMASSUNG
  6
HIDDEN
370
    18
100
AcDbPolyline
 90
       29
 70
   128
 43
0.0
 10
210.6347945616
 20
115.7720620752
 10
211.3023573635
 20
115.7069228803
 10
211.936445779
 20
115.5147716467
 10
212.5052639672
 20
115.2052436398
 10
212.980289009
 20
114.7938598861
 10
213.3377011653
 20
114.301248885
 10
213.5595782981
 20
113.7521122089
 10
213.6347945616
 20
113.1739858639
 10
213.5595782981
 20
112.5958595188
 10
213.3377011653
 20
112.0467228428
 10
212.980289009
 20
111.5541118416
 10
212.5052639672
 20
111.142728088
 10
211.936445779
 20
110.833200081
 10
211.3023573635
 20
110.6410488475
 10
210.6347945616
 20
110.5759096525
 10
209.9672317597
 20
110.6410488475
 10
209.3331433442
 20
110.833200081
 10
208.764325156
 20
111.142728088
 10
208.2893001142
 20
111.5541118416
 10
207.9318879579
 20
112.0467228428
 10
207.7100108251
 20
112.5958595188
 10
207.6347945616
 20
113.1739858639
 10
207.7100108251
 20
113.7521122089
 10
207.9318879579
 20
114.301248885
 10
208.2893001142
 20
114.7938598861
 10
208.764325156
 20
115.2052436398
 10
209.3331433442
 20
115.5147716467
 10
209.9672317597
 20
115.7069228803
 10
210.6347945616
 20
115.7720620752
  0
LINE
  5
133
330
1F
100
AcDbEntity
  8
VERMASSUNG
  6
HIDDEN
370
    18
100
AcDbLine
 10
189.6347945616
 20
101.1739858639
 30
0.0
 11
189.6347945616
 21
149.6739858639
 31
0.0
  0
SPLINE
  5
134
330
1F
100
AcDbEntity
  8
VERMASSUNG
  6
HIDDEN
370
    18
100
AcDbSpline
210
0.0
220
0.0
230
1.0
 70
     8
 71
     3
 72
    12
 73
     8
 74
     0
 42
0.000000001
 43
0.00000001
 40
0.0
 40
0.0
 40
0.0
 40
0.0
 40
0.5000000000000006
 40
0.5000000000000006
 40
0.7500000000000003
 40
0.7500000000000003
 40
1.0
 40
1.0
 40
1.0
 40
1.0
 10
188.8182822751546
 20
140.8762538457092
 30
0.0
 10
188.8746884538348
 20
140.8284314720494
 30
0.0
 10
188.9448513553066
 20
140.7881606251108
 30
0.0
 10
189.0628620686958
 20
140.7801147566338
 30
0.0
 10
189.1030678522913
 20
140.7866773549727
 30
0.0
 10
189.1767885490243
 20
140.8140594494263
 30
0.0
 10
189.2096492708109
 20
140.8338209399567
 30
0.0
 10
189.2398176727401
 20
140.8567536511447
 30
0.0
  0
SPLINE
  5
135
330
1F
100
AcDbEntity
  8
VERMASSUNG
  6
HIDDEN
370
    18
100
AcDbSpline
210
0.0
220
0.0
230
1.0
 70
     8
 71
     3
 72
    16
 73
    12
 74
     0
 42
0.000000001
 43
0.00000001
 40
0.0
 40
0.0
 40
0.0
 40
0.0
 40
0.062500000000002
 40
0.062500000000002
 40
0.1250000000000039
 40
0.1250000000000039
 40
0.2500000000000078
 40
0.2500000000000078
 40
0.5000000000000052
 40
0.5000000000000052
 40
1.0
 40
1.0
 40
1.0
 40
1.0
 10
189.239817672695
 20
140.8567536511928
 30
0.0
 10
189.2514305725344
 20
140.8655812741742
 30
0.0
 10
189.2647817569668
 20
140.8734156560561
 30
0.0
 10
189.294181596586
 20
140.8817257821285
 30
0.0
 10
189.3090223211413
 20
140.8812299628935
 30
0.0
 10
189.3448555291099
 20
140.8697789919241
 30
0.0
 10
189.3589687369315
 20
140.8530984910655
 30
0.0
 10
189.3934601081504
 20
140.8009778053085
 30
0.0
 10
189.4045441792608
 20
140.7611883112835
 30
0.0
 10
189.4306669970568
 20
140.6378516791864
 30
0.0
 10
189.4347945616017
 20
140.5504302686877
 30
0.0
 10
189.4347945616017
 20
140.4616930263695
 30
0.0
  0
LINE
  5
136
330
1F
100
AcDbEntity
  8
VERMASSUNG
  6
HIDDEN
370
    18
100
AcDbLine
 10
189.4347945616
 20
110.3862787014
 30
0.0
 11
189.4347945616
 21
140.4616930264
 31
0.0
  0
SPLINE
  5
137
330
1F
100
AcDbEntity
  8
VERMASSUNG
  6
HIDDEN
370
    18
100
AcDbSpline
210
0.0
220
0.0
230
1.0
 70
     8
 71
     3
 72
    16
 73
    12
 74
     0
 42
0.000000001
 43
0.00000001
 40
0.0
 40
0.0
 40
0.0
 40
0.0
 40
0.5000000000000046
 40
0.5000000000000046
 40
0.7500000000000041
 40
0.7500000000000041
 40
0.875000000000002
 40
0.875000000000002
 40
0.937500000000001
 40
0.937500000000001
 40
1.0
 40
1.0
 40
1.0
 40
1.0
 10
189.4347945616016
 20
110.3862787013871
 30
0.0
 10
189.4347945616016
 20
110.2971523361984
 30
0.0
 10
189.4306482865237
 20
110.210290968585
 30
0.0
 10
189.4046826911302
 20
110.087308722091
 30
0.0
 10
189.3932217857527
 20
110.0465374268597
 30
0.0
 10
189.3589100479784
 20
109.9948331068599
 30
0.0
 10
189.3448853120487
 20
109.9781627402695
 30
0.0
 10
189.308862349015
 20
109.9667105198128
 30
0.0
 10
189.2941078399253
 20
109.9662574735378
 30
0.0
 10
189.2647556787784
 20
109.974572794754
 30
0.0
 10
189.2514158042744
 20
109.9824016798322
 30
0.0
 10
189.239817672726
 20
109.9912180765949
 30
0.0
  0
SPLINE
  5
138
330
1F
100
AcDbEntity
  8
VERMASSUNG
  6
HIDDEN
370
    18
100
AcDbSpline
210
0.0
220
0.0
230
1.0
 70
     8
 71
     3
 72
    12
 73
     8
 74
     0
 42
0.000000001
 43
0.00000001
 40
0.0
 40
0.0
 40
0.0
 40
0.0
 40
0.2500000000000002
 40
0.2500000000000002
 40
0.5000000000000003
 40
0.5000000000000003
 40
1.0
 40
1.0
 40
1.0
 40
1.0
 10
189.2398176727331
 20
109.9912180766038
 30
0.0
 10
189.2096258310159
 20
110.0141686057016
 30
0.0
 10
189.1762668616012
 20
110.0341380797258
 30
0.0
 10
189.1031295770206
 20
110.0612392133513
 30
0.0
 10
189.0628877043667
 20
110.0678399539967
 30
0.0
 10
188.9451819273982
 20
110.05987107949
 30
0.0
 10
188.8747714496187
 20
110.0196106213221
 30
0.0
 10
188.8182822751505
 20
109.9717178820439
 30
0.0
  0
SPLINE
  5
139
330
1F
100
AcDbEntity
  8
VERMASSUNG
  6
HIDDEN
370
    18
100
AcDbSpline
210
0.0
220
0.0
230
1.0
 70
     8
 71
     3
 72
    12
 73
     8
 74
     0
 42
0.000000001
 43
0.00000001
 40
0.0
 40
0.0
 40
0.0
 40
0.0
 40
0.2500000000000014
 40
0.2500000000000014
 40
0.5000000000000028
 40
0.5000000000000028
 40
1.0
 40
1.0
 40
1.0
 40
1.0
 10
188.8182822751501
 20
109.9717178820441
 30
0.0
 10
188.7301283374124
 20
109.89697907419
 30
0.0
 10
188.6697749127837
 20
109.8059985737077
 30
0.0
 10
188.5635129547168
 20
109.6170847509551
 30
0.0
 10
188.5212807881547
 20
109.5205802914145
 30
0.0
 10
188.4102100928376
 20
109.2298125372473
 30
0.0
 10
188.3572733164108
 20
109.0341457227036
 30
0.0
 10
188.313474218042
 20
108.8400792376373
 30
0.0
  0
SPLINE
  5
13A
330
1F
100
AcDbEntity
  8
VERMASSUNG
  6
HIDDEN
370
    18
100
AcDbSpline
210
0.0
220
0.0
230
1.0
 70
     8
 71
     3
 72
    12
 73
     8
 74
     0
 42
0.000000001
 43
0.00000001
 40
0.0
 40
0.0
 40
0.0
 40
0.0
 40
0.4999999999999991
 40
0.4999999999999991
 40
0.7499999999999996
 40
0.7499999999999996
 40
1.0
 40
1.0
 40
1.0
 40
1.0
 10
188.313474218042
 20
103.6539049088762
 30
0.0
 10
188.3572207588786
 20
103.627310738235
 30
0.0
 10
188.4101051141101
 20
103.6075505129093
 30
0.0
 10
188.5216722014463
 20
103.5870995226802
 30
0.0
 10
188.5642557979892
 20
103.5818392980238
 30
0.0
 10
188.669172525071
 20
103.5739565041011
 30
0.0
 10
188.7307061329158
 20
103.571392378922
 30
0.0
 10
188.8182822751419
 20
103.5691921614023
 30
0.0
  0
LINE
  5
13B
330
1F
100
AcDbEntity
  8
VERMASSUNG
  6
HIDDEN
370
    18
100
AcDbLine
 10
189.4347945616
 20
102.884165585
 30
0.0
 11
189.4347945616
 21
103.3643913756
 31
0.0
  0
LINE
  5
13C
330
1F
100
AcDbEntity
  8
VERMASSUNG
  6
HIDDEN
370
    18
100
AcDbLine
 10
189.4347945616
 20
147.4835803521
 30
0.0
 11
189.4347945616
 21
147.9638061428
 31
0.0
  0
SPLINE
  5
13D
330
1F
100
AcDbEntity
  8
VERMASSUNG
  6
HIDDEN
370
    18
100
AcDbSpline
210
0.0
220
0.0
230
1.0
 70
     8
 71
     3
 72
    12
 73
     8
 74
     0
 42
0.000000001
 43
0.00000001
 40
0.0
 40
0.0
 40
0.0
 40
0.0
 40
0.2500000000000005
 40
0.2500000000000005
 40
0.5000000000000009
 40
0.5000000000000009
 40
1.0
 40
1.0
 40
1.0
 40
1.0
 10
188.8182822751499
 20
147.2787795663542
 30
0.0
 10
188.7295976152936
 20
147.2765514990133
 30
0.0
 10
188.6696791995702
 20
147.2740497149829
 30
0.0
 10
188.5640199722494
 20
147.2661182791469
 30
0.0
 10
188.5213787341345
 20
147.2608261242501
 30
0.0
 10
188.410189392032
 20
147.2404211837629
 30
0.0
 10
188.357262709911
 20
147.2206864921761
 30
0.0
 10
188.313474218042
 20
147.1940668188805
 30
0.0
  0
SPLINE
  5
13E
330
1F
100
AcDbEntity
  8
VERMASSUNG
  6
HIDDEN
370
    18
100
AcDbSpline
210
0.0
220
0.0
230
1.0
 70
     8
 71
     3
 72
    12
 73
     8
 74
     0
 42
0.000000001
 43
0.00000001
 40
0.0
 40
0.0
 40
0.0
 40
0.0
 40
0.4999999999999999
 40
0.4999999999999999
 40
0.7499999999999998
 40
0.7499999999999998
 40
1.0
 40
1.0
 40
1.0
 40
1.0
 10
188.3134742180404
 20
142.0078924901195
 30
0.0
 10
188.3572356943392
 20
141.8139927021575
 30
0.0
 10
188.4101420099922
 20
141.6181363382206
 30
0.0
 10
188.5218532076396
 20
141.3259941917217
 30
0.0
 10
188.5643726512259
 20
141.2292762550237
 30
0.0
 10
188.6694959937933
 20
141.0425518185993
 30
0.0
 10
188.7310619575111
 20
140.9502011103296
 30
0.0
 10
188.8182822751538
 20
140.8762538457099
 30
0.0
  0
LWPOLYLINE
  5
13F
330
1F
100
AcDbEntity
  8
VERMASSUNG
  6
HIDDEN
370
    18
100
AcDbPolyline
 90
       26
 70
   128
 43
0.0
 10
210.6347945616
 20
115.4892645281
 10
211.2565192795
 20
115.4212450767
 10
211.8391787469
 20
115.2214606347
 10
212.3461623264
 20
114.9024643934
 10
212.7456143754
 20
114.4843000598
 10
213.0124358523
 20
113.993242437
 10
213.1298613827
 20
113.4601464812
 10
213.0905126884
 20
112.9185085721
 10
212.8968621928
 20
112.4023618114
 10
212.5610776685
 20
111.9441375984
 10
212.1042576923
 20
111.5726278456
 10
211.5551059433
 20
111.3111758771
 10
210.9481276455
 20
111.1762096816
 10
210.3214614777
 20
111.1762096816
 10
209.7144831799
 20
111.3111758771
 10
209.1653314309
 20
111.5726278456
 10
208.7085114547
 20
111.9441375984
 10
208.3727269304
 20
112.4023618114
 10
208.1790764348
 20
112.9185085721
 10
208.1397277405
 20
113.4601464812
 10
208.2571532709
 20
113.993242437
 10
208.5239747478
 20
114.4843000598
 10
208.9234267968
 20
114.9024643934
 10
209.4304103763
 20
115.2214606347
 10
210.0130698437
 20
115.4212450767
 10
210.6347945616
 20
115.4892645281
  0
SPLINE
  5
140
330
1F
100
AcDbEntity
  8
VERMASSUNG
  6
HIDDEN
370
    18
100
AcDbSpline
210
0.0
220
0.0
230
1.0
 70
     8
 71
     3
 72
    12
 73
     8
 74
     0
 42
0.000000001
 43
0.00000001
 40
0.0
 40
0.0
 40
0.0
 40
0.0
 40
0.4999999999999982
 40
0.4999999999999982
 40
0.7499999999999991
 40
0.7499999999999991
 40
1.0
 40
1.0
 40
1.0
 40
1.0
 10
212.6435042788483
 20
118.1628776329409
 30
0.0
 10
212.7125042662696
 20
117.8698256965028
 30
0.0
 10
212.7526303117702
 20
117.5977717109486
 30
0.0
 10
212.7250220849885
 20
117.3031689010384
 30
0.0
 10
212.7012961489295
 20
117.2265841333816
 30
0.0
 10
212.6310292883111
 20
117.1007998412287
 30
0.0
 10
212.5846217009965
 20
117.0503281519394
 30
0.0
 10
212.5296565787183
 20
117.0036492064455
 30
0.0
  0
SPLINE
  5
141
330
1F
100
AcDbEntity
  8
VERMASSUNG
  6
HIDDEN
370
    18
100
AcDbSpline
210
0.0
220
0.0
230
1.0
 70
     8
 71
     3
 72
    66
 73
    62
 74
     0
 42
0.000000001
 43
0.00000001
 40
0.0
 40
0.0
 40
0.0
 40
0.0
 40
0.0312499999999998
 40
0.0312499999999998
 40
0.0624999999999996
 40
0.0624999999999996
 40
0.1249999999999994
 40
0.1249999999999994
 40
0.1874999999999993
 40
0.1874999999999993
 40
0.2187499999999994
 40
0.2187499999999994
 40
0.2499999999999997
 40
0.2499999999999997
 40
0.2812499999999999
 40
0.2812499999999999
 40
0.3125000000000001
 40
0.3125000000000001
 40
0.3437500000000003
 40
0.3437500000000003
 40
0.3750000000000005
 40
0.3750000000000005
 40
0.4062500000000007
 40
0.4062500000000007
 40
0.4375000000000009
 40
0.4375000000000009
 40
0.4687500000000011
 40
0.4687500000000011
 40
0.5000000000000013
 40
0.5000000000000013
 40
0.5156250000000011
 40
0.5156250000000011
 40
0.5312500000000009
 40
0.5312500000000009
 40
0.5625000000000009
 40
0.5625000000000009
 40
0.5937500000000008
 40
0.5937500000000008
 40
0.6250000000000007
 40
0.6250000000000007
 40
0.6562500000000007
 40
0.6562500000000007
 40
0.6875000000000006
 40
0.6875000000000006
 40
0.7187500000000006
 40
0.7187500000000006
 40
0.7500000000000004
 40
0.7500000000000004
 40
0.7812500000000003
 40
0.7812500000000003
 40
0.8125000000000003
 40
0.8125000000000003
 40
0.8437500000000002
 40
0.8437500000000002
 40
0.8750000000000001
 40
0.8750000000000001
 40
0.9375
 40
0.9375
 40
0.9687500000000001
 40
0.9687500000000001
 40
1.0
 40
1.0
 40
1.0
 40
1.0
 10
212.5296565787183
 20
117.0036492064456
 30
0.0
 10
212.6311014033531
 20
116.8788782223442
 30
0.0
 10
212.7145903829879
 20
116.7442610414258
 30
0.0
 10
212.8581930167292
 20
116.4623307511403
 30
0.0
 10
212.9183179243946
 20
116.3139951786408
 30
0.0
 10
213.0661027529891
 20
115.8585704306143
 30
0.0
 10
213.1214151747381
 20
115.5475188437826
 30
0.0
 10
213.1440838233825
 20
114.9094301630584
 30
0.0
 10
213.1090938263236
 20
114.588421427212
 30
0.0
 10
212.9682428930501
 20
114.1403715004315
 30
0.0
 10
212.9076021138719
 20
113.9998130405699
 30
0.0
 10
212.7557008162501
 20
113.7390310689241
 30
0.0
 10
212.6655631967415
 20
113.6218046641321
 30
0.0
 10
212.4645259243288
 20
113.4235522359733
 30
0.0
 10
212.3511197517932
 20
113.3405850784162
 30
0.0
 10
212.1160454864001
 20
113.2160172052778
 30
0.0
 10
211.9916832941766
 20
113.1725566779245
 30
0.0
 10
211.743055199772
 20
113.1216143037761
 30
0.0
 10
211.6190928374909
 20
113.1136027633282
 30
0.0
 10
211.3729651105557
 20
113.1261695344378
 30
0.0
 10
211.2509421543016
 20
113.1470970373845
 30
0.0
 10
211.0184767167168
 20
113.211306066856
 30
0.0
 10
210.9067675177997
 20
113.2546451264809
 30
0.0
 10
210.6939374490741
 20
113.3601554025024
 30
0.0
 10
210.5922374580604
 20
113.4228463709675
 30
0.0
 10
210.4084817434284
 20
113.5614254520085
 30
0.0
 10
210.3257202679681
 20
113.6374545230691
 30
0.0
 10
210.1888731437109
 20
113.7996429547757
 30
0.0
 10
210.1356894867407
 20
113.8853334949087
 30
0.0
 10
210.0968461455925
 20
114.0108755789819
 30
0.0
 10
210.0908145393948
 20
114.0526278175355
 30
0.0
 10
210.0943451560873
 20
114.1314794605998
 30
0.0
 10
210.1036843254158
 20
114.1690270572662
 30
0.0
 10
210.1531345276557
 20
114.2770284157307
 30
0.0
 10
210.2142831169643
 20
114.3412728171563
 30
0.0
 10
210.3671103877677
 20
114.4620925046322
 30
0.0
 10
210.4600727079762
 20
114.5202042487063
 30
0.0
 10
210.6606494598468
 20
114.6379565766039
 30
0.0
 10
210.7691448177429
 20
114.6980238110769
 30
0.0
 10
210.9984061585439
 20
114.827213154232
 30
0.0
 10
211.1202268685316
 20
114.8968693525334
 30
0.0
 10
211.3662328394039
 20
115.0452431473924
 30
0.0
 10
211.4911856804982
 20
115.1242827812806
 30
0.0
 10
211.7436198314111
 20
115.2959563131049
 30
0.0
 10
211.8728871607339
 20
115.3900030380136
 30
0.0
 10
212.1218975844693
 20
115.5881595464714
 30
0.0
 10
212.2419317691675
 20
115.6922014022241
 30
0.0
 10
212.4706150484201
 20
115.9130186783126
 30
0.0
 10
212.574586055866
 20
116.0253651201278
 30
0.0
 10
212.7597067536179
 20
116.2534704745613
 30
0.0
 10
212.8412121737441
 20
116.3702565623461
 30
0.0
 10
212.9726886507022
 20
116.5959770917734
 30
0.0
 10
213.0244912963946
 20
116.7076660597233
 30
0.0
 10
213.0984012603938
 20
116.9218253437907
 30
0.0
 10
213.1207910241555
 20
117.0240401103582
 30
0.0
 10
213.1484312066879
 20
117.3206398453095
 30
0.0
 10
213.1148203979257
 20
117.4958973043156
 30
0.0
 10
212.993926604832
 20
117.7479604218365
 30
0.0
 10
212.9416578549783
 20
117.8296564291519
 30
0.0
 10
212.8130782423337
 20
117.9926084551609
 30
0.0
 10
212.7367365762497
 20
118.0742014411075
 30
0.0
 10
212.6435042788482
 20
118.1628776329411
 30
0.0
  0
SPLINE
  5
142
330
1F
100
AcDbEntity
  8
VERMASSUNG
  6
HIDDEN
370
    18
100
AcDbSpline
210
0.0
220
0.0
230
1.0
 70
    11
 71
     3
 72
    62
 73
    58
 74
     0
 42
0.000000001
 43
0.00000001
 40
0.0
 40
0.0
 40
0.0
 40
0.0
 40
0.0312500000000002
 40
0.0312500000000002
 40
0.0625000000000005
 40
0.0625000000000005
 40
0.0937500000000007
 40
0.0937500000000007
 40
0.125000000000001
 40
0.125000000000001
 40
0.1875000000000011
 40
0.1875000000000011
 40
0.2187500000000013
 40
0.2187500000000013
 40
0.2500000000000014
 40
0.2500000000000014
 40
0.2812500000000016
 40
0.2812500000000016
 40
0.3125000000000018
 40
0.3125000000000018
 40
0.3750000000000024
 40
0.3750000000000024
 40
0.4062500000000027
 40
0.4062500000000027
 40
0.4375000000000031
 40
0.4375000000000031
 40
0.4687500000000034
 40
0.4687500000000034
 40
0.5000000000000038
 40
0.5000000000000038
 40
0.5625000000000037
 40
0.5625000000000037
 40
0.5937500000000034
 40
0.5937500000000034
 40
0.6250000000000031
 40
0.6250000000000031
 40
0.6562500000000028
 40
0.6562500000000028
 40
0.6875000000000024
 40
0.6875000000000024
 40
0.7187500000000022
 40
0.7187500000000022
 40
0.7500000000000019
 40
0.7500000000000019
 40
0.7812500000000014
 40
0.7812500000000014
 40
0.812500000000001
 40
0.812500000000001
 40
0.8750000000000003
 40
0.8750000000000003
 40
0.9062500000000002
 40
0.9062500000000002
 40
0.9375000000000001
 40
0.9375000000000001
 40
0.9687500000000001
 40
0.9687500000000001
 40
1.0
 40
1.0
 40
1.0
 40
1.0
 10
210.6347945616018
 20
123.2661452568917
 30
0.0
 10
210.4687507426656
 20
123.2661452568917
 30
0.0
 10
210.3056540120886
 20
123.2495716128362
 30
0.0
 10
209.9850577071801
 20
123.1850830420077
 30
0.0
 10
209.8258555038736
 20
123.1363390165492
 30
0.0
 10
209.5235450021595
 20
123.0107614729793
 30
0.0
 10
209.3802934279151
 20
122.9343871446586
 30
0.0
 10
209.109182586848
 20
122.7558033542291
 30
0.0
 10
208.9815005917192
 20
122.6532014297427
 30
0.0
 10
208.6375005035039
 20
122.3207645074002
 30
0.0
 10
208.4514988749196
 20
122.0575081661036
 30
0.0
 10
208.264012361738
 20
121.6429638397948
 30
0.0
 10
208.2155404169858
 20
121.4992069278169
 30
0.0
 10
208.1509784375721
 20
121.2105914603488
 30
0.0
 10
208.1348999373522
 20
121.0673820393085
 30
0.0
 10
208.1346902084385
 20
120.78335919907
 30
0.0
 10
208.1511217558494
 20
120.641393194692
 30
0.0
 10
208.2152904460018
 20
120.3718834063979
 30
0.0
 10
208.2627594087932
 20
120.2429653974957
 30
0.0
 10
208.4518828927474
 20
119.8727724249532
 30
0.0
 10
208.6360227851136
 20
119.6576000898427
 30
0.0
 10
208.9827583689175
 20
119.3920962759545
 30
0.0
 10
209.1080753250693
 20
119.3144849620042
 30
0.0
 10
209.3781348278692
 20
119.1792211026714
 30
0.0
 10
209.5245082037503
 20
119.1212509319107
 30
0.0
 10
209.825926106804
 20
119.0293710562662
 30
0.0
 10
209.9817782682429
 20
118.9947734004461
 30
0.0
 10
210.3041213295593
 20
118.9479117834322
 30
0.0
 10
210.4700727966288
 20
118.9360694695
 30
0.0
 10
210.96099416418
 20
118.9359162810306
 30
0.0
 10
211.2914771512827
 20
118.9831685538409
 30
0.0
 10
211.7433866488813
 20
119.1206414124336
 30
0.0
 10
211.8896838662606
 20
119.1784357172978
 30
0.0
 10
212.1605674288169
 20
119.3139106048466
 30
0.0
 10
212.2859239509748
 20
119.3915194106557
 30
0.0
 10
212.516701592464
 20
119.5679975462959
 30
0.0
 10
212.621489472534
 20
119.6668817083366
 30
0.0
 10
212.8021530967161
 20
119.8793394486341
 30
0.0
 10
212.8793415939114
 20
119.9938125704654
 30
0.0
 10
213.0062049982027
 20
120.2413546201586
 30
0.0
 10
213.053866352135
 20
120.3706616657214
 30
0.0
 10
213.1180967191976
 20
120.6392498268544
 30
0.0
 10
213.1347299330767
 20
120.7803953703534
 30
0.0
 10
213.1348588080881
 20
121.0658836933951
 30
0.0
 10
213.1187778289593
 20
121.2091496812185
 30
0.0
 10
213.0548104164909
 20
121.4964864048627
 30
0.0
 10
213.0062463662472
 20
121.6412547245933
 30
0.0
 10
212.8185155242047
 20
122.057021804305
 30
0.0
 10
212.632569686709
 20
122.3201497299571
 30
0.0
 10
212.2887944646046
 20
122.6525938572159
 30
0.0
 10
212.1616191602371
 20
122.7549195129389
 30
0.0
 10
211.8899767509625
 20
122.9340230068011
 30
0.0
 10
211.7468175800153
 20
123.0103375546835
 30
0.0
 10
211.4456906374775
 20
123.1356277885779
 30
0.0
 10
211.286174408786
 20
123.184683389892
 30
0.0
 10
210.9643085165542
 20
123.2495652306229
 30
0.0
 10
210.800838380538
 20
123.2661452568917
 30
0.0
 10
210.6347945616018
 20
123.2661452568917
 30
0.0
  0
LINE
  5
143
330
1F
100
AcDbEntity
  8
VERMASSUNG
  6
HIDDEN
370
    18
100
AcDbLine
 10
189.4347945616
 20
103.3643913756
 30
0.0
 11
189.4347945616
 21
118.4020985381
 31
0.0
  0
LINE
  5
144
330
1F
100
AcDbEntity
  8
VERMASSUNG
  6
HIDDEN
370
    18
100
AcDbLine
 10
189.4347945616
 20
132.4458731896
 30
0.0
 11
189.4347945616
 21
147.4835803521
 31
0.0
  0
LWPOLYLINE
  5
145
330
1F
100
AcDbEntity
  8
VERMASSUNG
  6
HIDDEN
370
    18
100
AcDbPolyline
 90
        9
 70
   128
 43
0.0
 10
212.5296565787
 20
117.0036492064
 10
212.6455189483
 20
117.2389827078
 10
212.734236048
 20
117.455185281
 10
212.794192021
 20
117.6483191014
 10
212.8242948539
 20
117.8148665089
 10
212.823996266
 20
117.9517940776
 10
212.7933016958
 20
118.056607865
 10
212.7327702015
 20
118.127398836
 10
212.6435042788
 20
118.1628776329
  0
CIRCLE
  5
146
330
1F
100
AcDbEntity
  8
VERMASSUNG
  6
HIDDEN
370
    18
100
AcDbCircle
 10
174.1347945616
 20
125.4239858639
 30
0.0
 40
4.049999999999997
  0
LINE
  5
147
330
1F
100
AcDbEntity
  8
VERMASSUNG
  6
HIDDEN
370
    18
100
AcDbLine
 10
153.1650230012
 20
140.7369369068
 30
0.0
 11
153.1650230012
 21
110.111034821
 31
0.0
  0
LINE
  5
148
330
1F
100
AcDbEntity
  8
VERMASSUNG
  6
HIDDEN
370
    18
100
AcDbLine
 10
151.6347945616
 20
109.2275570194
 30
0.0
 11
151.6347945616
 21
141.6015009533
 31
0.0
  0
LINE
  5
149
330
1F
100
AcDbEntity
  8
VERMASSUNG
  6
HIDDEN
370
    18
100
AcDbLine
 10
159.6650230012
 20
139.7703960254
 30
0.0
 11
159.6650230012
 21
111.0775757024
 31
0.0
  0
LINE
  5
14A
330
1F
100
AcDbEntity
  8
VERMASSUNG
  6
HIDDEN
370
    18
100
AcDbLine
 10
165.4650230012
 20
139.4239858639
 30
0.0
 11
165.4650230012
 21
111.4239858639
 31
0.0
  0
LINE
  5
14B
330
1F
100
AcDbEntity
  8
VERMASSUNG
  6
HIDDEN
370
    18
100
AcDbLine
 10
158.0650230012
 20
139.4239858639
 30
0.0
 11
158.0650230012
 21
111.4239858639
 31
0.0
  0
LINE
  5
14C
330
1F
100
AcDbEntity
  8
VERMASSUNG
  6
HIDDEN
370
    18
100
AcDbLine
 10
159.0650230012
 20
139.4239858639
 30
0.0
 11
159.0650230012
 21
111.4239858639
 31
0.0
  0
SPLINE
  5
14D
330
1F
100
AcDbEntity
  8
VERMASSUNG
  6
HIDDEN
370
    18
100
AcDbSpline
210
0.0
220
0.0
230
1.0
 70
     8
 71
     3
 72
    10
 73
     6
 74
     0
 42
0.000000001
 43
0.00000001
 40
0.0
 40
0.0
 40
0.0
 40
0.0
 40
0.5
 40
0.5
 40
1.0
 40
1.0
 40
1.0
 40
1.0
 10
178.1347945616016
 20
126.0584147409008
 30
0.0
 10
178.1679419796781
 20
125.8494241398928
 30
0.0
 10
178.1848008250397
 20
125.6378616738712
 30
0.0
 10
178.1847882946921
 20
125.2098729079036
 30
0.0
 10
178.1678733369517
 20
124.9981148034879
 30
0.0
 10
178.1347945616016
 20
124.7895569868558
 30
0.0
  0
LINE
  5
14E
330
1F
100
AcDbEntity
  8
VERMASSUNG
  6
HIDDEN
370
    18
100
AcDbLine
 10
178.6347945616
 20
138.9239858606
 30
0.0
 11
178.6347945616
 21
111.9239858639
 31
0.0
  0
SPLINE
  5
14F
330
1F
100
AcDbEntity
  8
VERMASSUNG
  6
HIDDEN
370
    18
100
AcDbSpline
210
0.0
220
0.0
230
1.0
 70
     8
 71
     3
 72
    10
 73
     6
 74
     0
 42
0.000000001
 43
0.00000001
 40
0.0
 40
0.0
 40
0.0
 40
0.0
 40
0.5
 40
0.5
 40
1.0
 40
1.0
 40
1.0
 40
1.0
 10
178.1347945616016
 20
124.7895569868558
 30
0.0
 10
178.1679835240754
 20
124.9988095204383
 30
0.0
 10
178.18468430033
 20
125.2096262813373
 30
0.0
 10
178.1849037407747
 20
125.6341585625405
 30
0.0
 10
178.1680240253813
 20
125.8489068513131
 30
0.0
 10
178.1347945616016
 20
126.0584147409008
 30
0.0
  0
SPLINE
  5
150
330
1F
100
AcDbEntity
  8
VERMASSUNG
  6
HIDDEN
370
    18
100
AcDbSpline
210
0.0
220
0.0
230
1.0
 70
     8
 71
     3
 72
    68
 73
    64
 74
     0
 42
0.000000001
 43
0.00000001
 40
0.0
 40
0.0
 40
0.0
 40
0.0
 40
0.0312499999999999
 40
0.0312499999999999
 40
0.0624999999999998
 40
0.0624999999999998
 40
0.0937499999999997
 40
0.0937499999999997
 40
0.1249999999999996
 40
0.1249999999999996
 40
0.1562499999999994
 40
0.1562499999999994
 40
0.1874999999999993
 40
0.1874999999999993
 40
0.2187499999999992
 40
0.2187499999999992
 40
0.2499999999999991
 40
0.2499999999999991
 40
0.281249999999999
 40
0.281249999999999
 40
0.3124999999999989
 40
0.3124999999999989
 40
0.3437499999999988
 40
0.3437499999999988
 40
0.3749999999999987
 40
0.3749999999999987
 40
0.4062499999999986
 40
0.4062499999999986
 40
0.4374999999999984
 40
0.4374999999999984
 40
0.4687499999999983
 40
0.4687499999999983
 40
0.4999999999999982
 40
0.4999999999999982
 40
0.562499999999998
 40
0.562499999999998
 40
0.5937499999999979
 40
0.5937499999999979
 40
0.6249999999999978
 40
0.6249999999999978
 40
0.6562499999999977
 40
0.6562499999999977
 40
0.6874999999999976
 40
0.6874999999999976
 40
0.7187499999999974
 40
0.7187499999999974
 40
0.7499999999999973
 40
0.7499999999999973
 40
0.7812499999999977
 40
0.7812499999999977
 40
0.812499999999998
 40
0.812499999999998
 40
0.8437499999999983
 40
0.8437499999999983
 40
0.8749999999999987
 40
0.8749999999999987
 40
0.906249999999999
 40
0.906249999999999
 40
0.9374999999999993
 40
0.9374999999999993
 40
0.9687499999999997
 40
0.9687499999999997
 40
1.0
 40
1.0
 40
1.0
 40
1.0
 10
178.1347945616016
 20
124.7895569868558
 30
0.0
 10
178.094779609252
 20
124.5372673840402
 30
0.0
 10
178.0318378078406
 20
124.2932685336644
 30
0.0
 10
177.8624511457686
 20
123.8208501446019
 30
0.0
 10
177.7547575831831
 20
123.590436758442
 30
0.0
 10
177.4994728146452
 20
123.1557321626449
 30
0.0
 10
177.353433584173
 20
122.9530901959935
 30
0.0
 10
177.0252121476137
 20
122.5761009052357
 30
0.0
 10
176.8409648598388
 20
122.4004429516583
 30
0.0
 10
176.4480046925305
 20
122.0901849827121
 30
0.0
 10
176.2387100955713
 20
121.9542397750622
 30
0.0
 10
175.793824668634
 20
121.7208496796564
 30
0.0
 10
175.5570270761349
 20
121.623603073242
 30
0.0
 10
175.0762920072157
 20
121.4769316153706
 30
0.0
 10
174.8300489140329
 20
121.4260392704282
 30
0.0
 10
174.3253321340534
 20
121.3705119201927
 30
0.0
 10
174.069137433117
 20
121.3666870331227
 30
0.0
 10
173.5667586839168
 20
121.4061108157672
 30
0.0
 10
173.3175089847333
 20
121.4491382649784
 30
0.0
 10
172.8259811872545
 20
121.5828432344297
 30
0.0
 10
172.5906855860286
 20
121.6715130803349
 30
0.0
 10
172.1397716913665
 20
121.8905444441123
 30
0.0
 10
171.9221593409032
 20
122.0225460097959
 30
0.0
 10
171.5189521713548
 20
122.3219032907987
 30
0.0
 10
171.3333406789204
 20
122.4885222182366
 30
0.0
 10
170.9933526085179
 20
122.8556336436641
 30
0.0
 10
170.838279677695
 20
123.0579373892048
 30
0.0
 10
170.5719366010317
 20
123.4820180687988
 30
0.0
 10
170.4589525003149
 20
123.705177674265
 30
0.0
 10
170.274097243384
 20
124.1745329158592
 30
0.0
 10
170.2029564818806
 20
124.4207434191947
 30
0.0
 10
170.1089960705924
 20
124.9152692455658
 30
0.0
 10
170.0849867406361
 20
125.1662002406579
 30
0.0
 10
170.0844136199635
 20
125.9304456202141
 30
0.0
 10
170.1798127312821
 20
126.432669922265
 30
0.0
 10
170.4576765234832
 20
127.1402344285374
 30
0.0
 10
170.5708384795638
 20
127.3639406922782
 30
0.0
 10
170.8369696616076
 20
127.7882106035988
 30
0.0
 10
170.9917974358074
 20
127.9904625656549
 30
0.0
 10
171.3319785415952
 20
128.3581733070231
 30
0.0
 10
171.5174809985449
 20
128.5247901822724
 30
0.0
 10
171.9197747996043
 20
128.8238395610678
 30
0.0
 10
172.1377828478562
 20
128.9562962690962
 30
0.0
 10
172.5883812150065
 20
129.1755026698009
 30
0.0
 10
172.8229302138873
 20
129.2639877998045
 30
0.0
 10
173.3113902074396
 20
129.3974740297432
 30
0.0
 10
173.5636556031535
 20
129.441415742237
 30
0.0
 10
174.0658362413138
 20
129.4812247387104
 30
0.0
 10
174.3183183586655
 20
129.4778805258969
 30
0.0
 10
174.8261834017349
 20
129.4227012059064
 30
0.0
 10
175.0737288749188
 20
129.371655277437
 30
0.0
 10
175.5546964123895
 20
129.2252448892014
 30
0.0
 10
175.7906562774947
 20
129.1285986844278
 30
0.0
 10
176.2372267270163
 20
128.8946937401147
 30
0.0
 10
176.4468715895898
 20
128.7585687262882
 30
0.0
 10
176.8398582963443
 20
128.4485144619591
 30
0.0
 10
177.0242542001593
 20
128.272857214384
 30
0.0
 10
177.3528046180197
 20
127.8957172917196
 30
0.0
 10
177.4987467145428
 20
127.6932510864498
 30
0.0
 10
177.753632069745
 20
127.2596747883164
 30
0.0
 10
177.8619433825533
 20
127.0283829447349
 30
0.0
 10
178.0317783599703
 20
126.5550232646017
 30
0.0
 10
178.0947737211073
 20
126.3107414677809
 30
0.0
 10
178.1347945616016
 20
126.0584147409008
 30
0.0
  0
SPLINE
  5
151
330
1F
100
AcDbEntity
  8
VERMASSUNG
  6
HIDDEN
370
    18
100
AcDbSpline
210
0.0
220
0.0
230
1.0
 70
     8
 71
     3
 72
    68
 73
    64
 74
     0
 42
0.000000001
 43
0.00000001
 40
0.0
 40
0.0
 40
0.0
 40
0.0
 40
0.0312499999999999
 40
0.0312499999999999
 40
0.0624999999999998
 40
0.0624999999999998
 40
0.0937499999999997
 40
0.0937499999999997
 40
0.1249999999999996
 40
0.1249999999999996
 40
0.1562499999999994
 40
0.1562499999999994
 40
0.1874999999999993
 40
0.1874999999999993
 40
0.2187499999999992
 40
0.2187499999999992
 40
0.2499999999999991
 40
0.2499999999999991
 40
0.281249999999999
 40
0.281249999999999
 40
0.3124999999999989
 40
0.3124999999999989
 40
0.3437499999999988
 40
0.3437499999999988
 40
0.3749999999999987
 40
0.3749999999999987
 40
0.4062499999999986
 40
0.4062499999999986
 40
0.4374999999999984
 40
0.4374999999999984
 40
0.4687499999999983
 40
0.4687499999999983
 40
0.4999999999999982
 40
0.4999999999999982
 40
0.562499999999998
 40
0.562499999999998
 40
0.5937499999999979
 40
0.5937499999999979
 40
0.6249999999999978
 40
0.6249999999999978
 40
0.6562499999999977
 40
0.6562499999999977
 40
0.6874999999999976
 40
0.6874999999999976
 40
0.7187499999999974
 40
0.7187499999999974
 40
0.7499999999999973
 40
0.7499999999999973
 40
0.7812499999999977
 40
0.7812499999999977
 40
0.812499999999998
 40
0.812499999999998
 40
0.8437499999999983
 40
0.8437499999999983
 40
0.8749999999999987
 40
0.8749999999999987
 40
0.906249999999999
 40
0.906249999999999
 40
0.9374999999999993
 40
0.9374999999999993
 40
0.9687499999999997
 40
0.9687499999999997
 40
1.0
 40
1.0
 40
1.0
 40
1.0
 10
178.1347945616016
 20
126.0584147409008
 30
0.0
 10
178.094779609252
 20
126.3107043437164
 30
0.0
 10
178.0318378078406
 20
126.5547031940922
 30
0.0
 10
177.8624511457686
 20
127.0271215831547
 30
0.0
 10
177.7547575831831
 20
127.2575349693147
 30
0.0
 10
177.4994728146452
 20
127.6922395651118
 30
0.0
 10
177.353433584173
 20
127.8948815317631
 30
0.0
 10
177.0252121476137
 20
128.2718708225209
 30
0.0
 10
176.8409648598388
 20
128.4475287760983
 30
0.0
 10
176.4480046925305
 20
128.7577867450445
 30
0.0
 10
176.2387100955713
 20
128.8937319526945
 30
0.0
 10
175.793824668634
 20
129.1271220481003
 30
0.0
 10
175.5570270761349
 20
129.2243686545147
 30
0.0
 10
175.0762920072157
 20
129.3710401123861
 30
0.0
 10
174.8300489140329
 20
129.4219324573285
 30
0.0
 10
174.3253321340534
 20
129.477459807564
 30
0.0
 10
174.069137433117
 20
129.4812846946339
 30
0.0
 10
173.5667586839168
 20
129.4418609119895
 30
0.0
 10
173.3175089847333
 20
129.3988334627782
 30
0.0
 10
172.8259811872545
 20
129.265128493327
 30
0.0
 10
172.5906855860286
 20
129.1764586474218
 30
0.0
 10
172.1397716913665
 20
128.9574272836443
 30
0.0
 10
171.9221593409032
 20
128.8254257179608
 30
0.0
 10
171.5189521713548
 20
128.5260684369579
 30
0.0
 10
171.3333406789204
 20
128.35944950952
 30
0.0
 10
170.9933526085179
 20
127.9923380840926
 30
0.0
 10
170.838279677695
 20
127.7900343385518
 30
0.0
 10
170.5719366010317
 20
127.3659536589578
 30
0.0
 10
170.4589525003149
 20
127.1427940534916
 30
0.0
 10
170.274097243384
 20
126.6734388118975
 30
0.0
 10
170.2029564818806
 20
126.427228308562
 30
0.0
 10
170.1089960705924
 20
125.9327024821908
 30
0.0
 10
170.0849867406361
 20
125.6817714870988
 30
0.0
 10
170.0844136199635
 20
124.9175261075426
 30
0.0
 10
170.1798127312821
 20
124.4153018054916
 30
0.0
 10
170.4576765234832
 20
123.7077372992192
 30
0.0
 10
170.5708384795638
 20
123.4840310354784
 30
0.0
 10
170.8369696616076
 20
123.0597611241578
 30
0.0
 10
170.9917974358074
 20
122.8575091621018
 30
0.0
 10
171.3319785415952
 20
122.4897984207336
 30
0.0
 10
171.5174809985449
 20
122.3231815454842
 30
0.0
 10
171.9197747996043
 20
122.0241321666888
 30
0.0
 10
172.1377828478562
 20
121.8916754586604
 30
0.0
 10
172.5883812150065
 20
121.6724690579557
 30
0.0
 10
172.8229302138873
 20
121.5839839279521
 30
0.0
 10
173.3113902074396
 20
121.4504976980135
 30
0.0
 10
173.5636556031535
 20
121.4065559855197
 30
0.0
 10
174.0658362413138
 20
121.3667469890462
 30
0.0
 10
174.3183183586655
 20
121.3700912018597
 30
0.0
 10
174.8261834017349
 20
121.4252705218503
 30
0.0
 10
175.0737288749188
 20
121.4763164503196
 30
0.0
 10
175.5546964123895
 20
121.6227268385552
 30
0.0
 10
175.7906562774947
 20
121.7193730433288
 30
0.0
 10
176.2372267270163
 20
121.9532779876419
 30
0.0
 10
176.4468715895898
 20
122.0894030014684
 30
0.0
 10
176.8398582963443
 20
122.3994572657975
 30
0.0
 10
177.0242542001593
 20
122.5751145133726
 30
0.0
 10
177.3528046180197
 20
122.952254436037
 30
0.0
 10
177.4987467145428
 20
123.1547206413069
 30
0.0
 10
177.753632069745
 20
123.5882969394402
 30
0.0
 10
177.8619433825533
 20
123.8195887830218
 30
0.0
 10
178.0317783599703
 20
124.292948463155
 30
0.0
 10
178.0947737211073
 20
124.5372302599758
 30
0.0
 10
178.1347945616016
 20
124.7895569868558
 30
0.0
  0
LINE
  5
152
330
1F
100
AcDbEntity
  8
VERMASSUNG
  6
HIDDEN
370
    18
100
AcDbLine
 10
179.8847945616
 20
134.4239858639
 30
0.0
 11
179.8847945616
 21
116.4239858639
 31
0.0
  0
LINE
  5
153
330
1F
100
AcDbEntity
  8
VERMASSUNG
  6
HIDDEN
370
    18
100
AcDbLine
 10
178.6347945616
 20
115.1739858639
 30
0.0
 11
178.6347945616
 21
135.6739858639
 31
0.0
  0
LINE
  5
154
330
1F
100
AcDbEntity
  8
VERMASSUNG
  6
HIDDEN
370
    18
100
AcDbLine
 10
216.6347945616
 20
116.4239858639
 30
0.0
 11
216.6347945616
 21
134.4239858639
 31
0.0
  0
SPLINE
  5
155
330
1F
100
AcDbEntity
  8
VERMASSUNG
  6
HIDDEN
370
    18
100
AcDbSpline
210
0.0
220
0.0
230
1.0
 70
     8
 71
     3
 72
     9
 73
     5
 74
     0
 42
0.000000001
 43
0.00000001
 40
0.0
 40
0.0
 40
0.0
 40
0.0
 40
0.5
 40
1.0
 40
1.0
 40
1.0
 40
1.0
 10
227.8333933999118
 20
121.4877758381754
 30
0.0
 10
227.8261121908586
 20
121.7103546018928
 30
0.0
 10
227.8103163574919
 20
122.1554995479811
 30
0.0
 10
227.7941097496159
 20
122.6006403039992
 30
0.0
 10
227.7863694116646
 20
122.8232143844117
 30
0.0
  0
LINE
  5
156
330
1F
100
AcDbEntity
  8
VERMASSUNG
  6
HIDDEN
370
    18
100
AcDbLine
 10
227.7863694117
 20
122.8232143844
 30
0.0
 11
227.7863694117
 21
151.8014520584
 31
0.0
  0
SPLINE
  5
157
330
1F
100
AcDbEntity
  8
VERMASSUNG
  6
HIDDEN
370
    18
100
AcDbSpline
210
0.0
220
0.0
230
1.0
 70
     8
 71
     3
 72
    12
 73
     8
 74
     0
 42
0.000000001
 43
0.00000001
 40
0.0
 40
0.0
 40
0.0
 40
0.0
 40
0.5
 40
0.5
 40
0.75
 40
0.75
 40
1.0
 40
1.0
 40
1.0
 40
1.0
 10
227.8333933999118
 20
93.78041028240433
 30
0.0
 10
227.7957211025546
 20
93.72592408300959
 30
0.0
 10
227.7392140698264
 20
93.67143164423798
 30
0.0
 10
227.6957999491405
 20
93.58973745107507
 30
0.0
 10
227.6880642689658
 20
93.56251685445247
 30
0.0
 10
227.6900636130852
 20
93.5081036765557
 30
0.0
 10
227.6997837650898
 20
93.48091107143294
 30
0.0
 10
227.7157306213156
 20
93.4537284512131
 30
0.0
  0
SPLINE
  5
158
330
1F
100
AcDbEntity
  8
VERMASSUNG
  6
HIDDEN
370
    18
100
AcDbSpline
210
0.0
220
0.0
230
1.0
 70
     8
 71
     3
 72
    12
 73
     8
 74
     0
 42
0.000000001
 43
0.00000001
 40
0.0
 40
0.0
 40
0.0
 40
0.0
 40
0.2500000000000002
 40
0.2500000000000002
 40
0.5000000000000004
 40
0.5000000000000004
 40
1.0
 40
1.0
 40
1.0
 40
1.0
 10
227.7863694116669
 20
151.8014520583498
 30
0.0
 10
227.7346529294783
 20
151.9374353403474
 30
0.0
 10
227.6689235379492
 20
152.0920677365509
 30
0.0
 10
227.5268659235836
 20
152.4154380091759
 30
0.0
 10
227.4500453797441
 20
152.5847832820716
 30
0.0
 10
227.2114894052156
 20
153.1032613196544
 30
0.0
 10
227.0423933441355
 20
153.4620434388836
 30
0.0
 10
226.8674675736227
 20
153.82843531817
 30
0.0
  0
LINE
  5
159
330
1F
100
AcDbEntity
  8
VERMASSUNG
  6
HIDDEN
370
    18
100
AcDbLine
 10
253.5910814289
 20
96.426726423
 30
0.0
 11
253.5886865591
 21
96.4724232602
 31
0.0
  0
LINE
  5
15A
330
1F
100
AcDbEntity
  8
VERMASSUNG
  6
HIDDEN
370
    18
100
AcDbLine
 10
247.7631475818
 20
103.8861415836
 30
0.0
 11
253.5910814289
 21
96.426726423
 31
0.0
  0
LINE
  5
15B
330
1F
100
AcDbEntity
  8
VERMASSUNG
  6
HIDDEN
370
    18
100
AcDbLine
 10
247.760752712
 20
103.9318384207
 30
0.0
 11
247.7631475818
 21
103.8861415836
 31
0.0
  0
LINE
  5
15C
330
1F
100
AcDbEntity
  8
VERMASSUNG
  6
HIDDEN
370
    18
100
AcDbLine
 10
244.5036599864
 20
92.6522782449
 30
0.0
 11
243.6919390304
 21
108.1408367596
 31
0.0
  0
LINE
  5
15D
330
1F
100
AcDbEntity
  8
VERMASSUNG
  6
HIDDEN
370
    18
100
AcDbLine
 10
249.6583427422
 20
118.4757813001
 30
0.0
 11
252.3863120066
 21
119.4150964461
 31
0.0
  0
LINE
  5
15E
330
1F
100
AcDbEntity
  8
VERMASSUNG
  6
HIDDEN
370
    18
100
AcDbLine
 10
247.7631475818
 20
103.8861415836
 30
0.0
 11
247.59473444
 21
103.82317449
 31
0.0
  0
LINE
  5
15F
330
1F
100
AcDbEntity
  8
VERMASSUNG
  6
HIDDEN
370
    18
100
AcDbLine
 10
247.5766930878
 20
104.1674239966
 30
0.0
 11
247.59473444
 21
103.82317449
 31
0.0
  0
LINE
  5
160
330
1F
100
AcDbEntity
  8
VERMASSUNG
  6
HIDDEN
370
    18
100
AcDbLine
 10
243.8525392776
 20
108.352882764
 30
0.0
 11
244.688995694
 21
92.3923435489
 31
0.0
  0
LINE
  5
161
330
1F
100
AcDbEntity
  8
VERMASSUNG
  6
HIDDEN
370
    18
100
AcDbLine
 10
253.4226682871
 20
96.3637593295
 30
0.0
 11
247.59473444
 21
103.82317449
 31
0.0
  0
LINE
  5
162
330
1F
100
AcDbEntity
  8
VERMASSUNG
  6
HIDDEN
370
    18
100
AcDbLine
 10
253.4226682871
 20
96.3637593295
 30
0.0
 11
253.5910814289
 21
96.426726423
 31
0.0
  0
LINE
  5
163
330
1F
100
AcDbEntity
  8
VERMASSUNG
  6
HIDDEN
370
    18
100
AcDbLine
 10
253.1878983582
 20
96.6642511354
 30
0.0
 11
253.4226682871
 21
96.3637593295
 31
0.0
  0
LINE
  5
164
330
1F
100
AcDbEntity
  8
VERMASSUNG
  6
HIDDEN
370
    18
100
AcDbLine
 10
244.700407813
 20
92.1745873467
 30
0.0
 11
244.7133855797
 21
91.9269568054
 31
0.0
  0
LINE
  5
165
330
1F
100
AcDbEntity
  8
VERMASSUNG
  6
HIDDEN
370
    18
100
AcDbLine
 10
253.6632730312
 20
81.9083075967
 30
0.0
 11
253.9554985867
 21
82.0175662548
 31
0.0
  0
LINE
  5
166
330
1F
100
AcDbEntity
  8
VERMASSUNG
  6
HIDDEN
370
    18
100
AcDbLine
 10
253.6632730312
 20
81.9083075967
 30
0.0
 11
247.7264330884
 21
89.5071162032
 31
0.0
  0
CIRCLE
  5
167
330
1F
100
AcDbEntity
  8
VERMASSUNG
  6
HIDDEN
370
    18
100
AcDbCircle
 10
249.0787097648
 20
94.614561086
 30
0.0
 40
2.40000000000002
  0
LINE
  5
168
330
1F
100
AcDbEntity
  8
VERMASSUNG
  6
HIDDEN
370
    18
100
AcDbLine
 10
247.59473444
 20
103.82317449
 30
0.0
 11
247.2845736951
 21
109.741394058
 31
0.0
  0
ARC
  5
169
330
1F
100
AcDbEntity
  8
VERMASSUNG
  6
HIDDEN
370
    18
100
AcDbCircle
 10
245.5369720093
 20
109.6498061346
 30
0.0
 40
1.750000000000008
100
AcDbArc
 50
3.0
 51
183.0
  0
LINE
  5
16A
330
1F
100
AcDbEntity
  8
VERMASSUNG
  6
HIDDEN
370
    18
100
AcDbLine
 10
243.7893703235
 20
109.5582182112
 30
0.0
 11
244.700407813
 21
92.1745873467
 31
0.0
  0
LINE
  5
16B
330
1F
100
AcDbEntity
  8
VERMASSUNG
  6
HIDDEN
370
    18
100
AcDbLine
 10
253.1878983582
 20
96.6642511354
 30
0.0
 11
247.59473444
 21
103.82317449
 31
0.0
  0
ELLIPSE
  5
16C
330
1F
100
AcDbEntity
  8
VERMASSUNG
  6
HIDDEN
370
    18
100
AcDbEllipse
 10
239.025203995
 20
82.7089709796
 30
0.0
 11
8.701229093346967
 21
6.798145223574139
 31
6.306066779870889E-14
210
-7.284104970732846E-15
220
4.707141155433597E-17
230
1.0
 40
0.9961946981
 41
0.0
 42
0.3359319141071467
  0
LINE
  5
16D
330
1F
100
AcDbEntity
  8
VERMASSUNG
  6
HIDDEN
370
    18
100
AcDbLine
 10
253.9554985867
 20
82.0175662548
 30
0.0
 11
253.1878983582
 21
96.6642511354
 31
0.0
  0
LINE
  5
16E
330
1F
100
AcDbEntity
  8
VERMASSUNG
  6
HIDDEN
370
    18
100
AcDbLine
 10
253.9554985867
 20
82.0175662548
 30
0.0
 11
252.8554279404
 21
84.9598388503
 31
0.0
  0
LINE
  5
16F
330
1F
100
AcDbEntity
  8
VERMASSUNG
  6
HIDDEN
370
    18
100
AcDbLine
 10
252.603752054
 20
84.7421251757
 30
0.0
 11
253.6632730312
 21
81.9083075967
 31
0.0
  0
CIRCLE
  5
170
330
1F
100
AcDbEntity
  8
VERMASSUNG
  6
HIDDEN
370
    18
100
AcDbCircle
 10
249.0787097648
 20
94.614561086
 30
0.0
 40
1.65000000000002
  0
SPLINE
  5
171
330
1F
100
AcDbEntity
  8
VERMASSUNG
  6
HIDDEN
370
    18
100
AcDbSpline
210
0.0
220
0.0
230
1.0
 70
     8
 71
     3
 72
    16
 73
    12
 74
     0
 42
0.000000001
 43
0.00000001
 40
0.0
 40
0.0
 40
0.0
 40
0.0
 40
0.25
 40
0.25
 40
0.375
 40
0.375
 40
0.5
 40
0.5
 40
0.75
 40
0.75
 40
1.0
 40
1.0
 40
1.0
 40
1.0
 10
188.313474218042
 20
147.1940668188805
 30
0.0
 10
188.1522417405575
 20
147.0960512058257
 30
0.0
 10
188.0317619009179
 20
146.9093151741497
 30
0.0
 10
187.9093813836046
 20
146.4962753665908
 30
0.0
 10
187.8784037232071
 20
146.3362748673578
 30
0.0
 10
187.8367899855792
 20
145.9694692162667
 30
0.0
 10
187.8265540726464
 20
145.7661320636427
 30
0.0
 10
187.8263656755902
 20
145.098844797016
 30
0.0
 10
187.8665103782279
 20
144.5780303331279
 30
0.0
 10
188.0306641331674
 20
143.3806713176503
 30
0.0
 10
188.152215783577
 20
142.7224016633542
 30
0.0
 10
188.313474218042
 20
142.0078924901193
 30
0.0
  0
LINE
  5
172
330
1F
100
AcDbEntity
  8
VERMASSUNG
  6
HIDDEN
370
    18
100
AcDbLine
 10
153.1347945616
 20
146.5823492602
 30
0.0
 11
153.1347945616
 21
140.5280386926
 31
0.0
  0
LINE
  5
173
330
1F
100
AcDbEntity
  8
VERMASSUNG
  6
HIDDEN
370
    18
100
AcDbLine
 10
187.4347945616
 20
147.4440846484
 30
0.0
 11
187.4347945616
 21
140.9589063868
 31
0.0
  0
LINE
  5
174
330
1F
100
AcDbEntity
  8
VERMASSUNG
  6
HIDDEN
370
    18
100
AcDbLine
 10
151.6347945616
 20
145.7163238564
 30
0.0
 11
151.6347945616
 21
140.0950259907
 31
0.0
  0
LINE
  5
175
330
1F
100
AcDbEntity
  8
VERMASSUNG
  6
HIDDEN
370
    18
100
AcDbLine
 10
153.1347945616
 20
110.3199330351
 30
0.0
 11
153.1347945616
 21
104.2656224676
 31
0.0
  0
LINE
  5
176
330
1F
100
AcDbEntity
  8
VERMASSUNG
  6
HIDDEN
370
    18
100
AcDbLine
 10
151.6347945616
 20
110.752945737
 30
0.0
 11
151.6347945616
 21
105.1316478714
 31
0.0
  0
LINE
  5
177
330
1F
100
AcDbEntity
  8
VERMASSUNG
  6
HIDDEN
370
    18
100
AcDbLine
 10
187.4347945616
 20
109.889065341
 30
0.0
 11
187.4347945616
 21
103.4038870793
 31
0.0
  0
SPLINE
  5
178
330
1F
100
AcDbEntity
  8
VERMASSUNG
  6
HIDDEN
370
    18
100
AcDbSpline
210
0.0
220
0.0
230
1.0
 70
     8
 71
     3
 72
    16
 73
    12
 74
     0
 42
0.000000001
 43
0.00000001
 40
0.0
 40
0.0
 40
0.0
 40
0.0
 40
0.2499999999999994
 40
0.2499999999999994
 40
0.3749999999999997
 40
0.3749999999999997
 40
0.5
 40
0.5
 40
0.75
 40
0.75
 40
1.0
 40
1.0
 40
1.0
 40
1.0
 10
188.313474218042
 20
108.8400792376373
 30
0.0
 10
188.1522417405575
 20
108.1256850754452
 30
0.0
 10
188.0317619009179
 20
107.4723428127365
 30
0.0
 10
187.9093813836046
 20
106.5840875709326
 30
0.0
 10
187.8784037232071
 20
106.3034070345808
 30
0.0
 10
187.8367899855792
 20
105.7743730447408
 30
0.0
 10
187.8265540726464
 20
105.5310520661623
 30
0.0
 10
187.8263656755902
 20
104.8630293756491
 30
0.0
 10
187.8665103782279
 20
104.4993484662296
 30
0.0
 10
188.0306641331674
 20
103.9394575936813
 30
0.0
 10
188.152215783577
 20
103.7519363015642
 30
0.0
 10
188.313474218042
 20
103.6539049088762
 30
0.0
  0
SPLINE
  5
179
330
1F
100
AcDbEntity
  8
VERMASSUNG
  6
HIDDEN
370
    18
100
AcDbSpline
210
0.0
220
0.0
230
1.0
 70
     8
 71
     3
 72
     8
 73
     4
 74
     0
 42
0.000000001
 43
0.00000001
 40
0.0
 40
0.0
 40
0.0
 40
0.0
 40
1.0
 40
1.0
 40
1.0
 40
1.0
 10
230.0174976341937
 20
94.87224716486068
 30
0.0
 10
228.9161627484878
 20
94.51006093087568
 30
0.0
 10
228.0865763929843
 20
94.14659392427541
 30
0.0
 10
227.8333933999118
 20
93.78041028240433
 30
0.0
  0
CIRCLE
  5
17A
330
1F
100
AcDbEntity
  8
VERMASSUNG
  6
HIDDEN
370
    18
100
AcDbCircle
 10
249.0787097648
 20
94.614561086
 30
0.0
 40
1.65000000000002
  0
LINE
  5
17B
330
1F
100
AcDbEntity
  8
VERMASSUNG
  6
HIDDEN
370
    18
100
AcDbLine
 10
151.6347945616
 20
140.0950259907
 30
0.0
 11
151.6347945616
 21
128.3259731969
 31
0.0
  0
LINE
  5
17C
330
1F
100
AcDbEntity
  8
VERMASSUNG
  6
HIDDEN
370
    18
100
AcDbLine
 10
151.6347945616
 20
122.5219985309
 30
0.0
 11
151.6347945616
 21
110.752945737
 31
0.0
  0
SPLINE
  5
17D
330
1F
100
AcDbEntity
  8
VERMASSUNG
  6
HIDDEN
370
    18
100
AcDbSpline
210
0.0
220
0.0
230
1.0
 70
     8
 71
     3
 72
    16
 73
    12
 74
     0
 42
0.000000001
 43
0.00000001
 40
0.0
 40
0.0
 40
0.0
 40
0.0
 40
0.2499999999999997
 40
0.2499999999999997
 40
0.4999999999999994
 40
0.4999999999999994
 40
0.6249999999999997
 40
0.6249999999999997
 40
0.7499999999999998
 40
0.7499999999999998
 40
1.0
 40
1.0
 40
1.0
 40
1.0
 10
228.3997270129
 20
112.9239858638783
 30
0.0
 10
228.556947052708
 20
111.3113643812526
 30
0.0
 10
228.7081934202517
 20
109.7189031041044
 30
0.0
 10
229.000482264814
 20
106.5728077654862
 30
0.0
 10
229.1415183656263
 20
105.0191763504457
 30
0.0
 10
229.3462619063938
 20
102.7187320514558
 30
0.0
 10
229.4135884823043
 20
101.9543974116977
 30
0.0
 10
229.5440117802978
 20
100.4598164824769
 30
0.0
 10
229.607323131417
 20
99.7272094340057
 30
0.0
 10
229.7919350792758
 20
97.57255932767406
 30
0.0
 10
229.9079424907277
 20
96.19345040716107
 30
0.0
 10
230.0174976341937
 20
94.87224716486084
 30
0.0
  0
ELLIPSE
  5
17E
330
1F
100
AcDbEntity
  8
VERMASSUNG
  6
HIDDEN
370
    18
100
AcDbEllipse
 10
228.9026917964
 20
112.9239858639
 30
0.0
 11
-25.15660223861118
 21
31.95323930598689
 31
0.0
210
0.0
220
0.0
230
1.0
 40
0.0687416203
 41
3.581019436993518
 42
3.880966129166566
  0
ELLIPSE
  5
17F
330
1F
100
AcDbEntity
  8
VERMASSUNG
  6
HIDDEN
370
    18
100
AcDbEllipse
 10
340.57297328
 20
112.9239858639
 30
0.0
 11
89.57393808390857
 21
30.85317563705772
 31
0.0
210
0.0
220
0.0
230
1.0
 40
0.0947829889
 41
2.902453458043285
 42
2.916629529124314
  0
SPLINE
  5
180
330
1F
100
AcDbEntity
  8
VERMASSUNG
  6
HIDDEN
370
    18
100
AcDbSpline
210
0.0
220
0.0
230
1.0
 70
     8
 71
     3
 72
    22
 73
    18
 74
     0
 42
0.000000001
 43
0.00000001
 40
0.0
 40
0.0
 40
0.0
 40
0.0
 40
0.2500000000000012
 40
0.2500000000000012
 40
0.312500000000001
 40
0.312500000000001
 40
0.3750000000000008
 40
0.3750000000000008
 40
0.5000000000000007
 40
0.5000000000000007
 40
0.6250000000000004
 40
0.6250000000000004
 40
0.7500000000000003
 40
0.7500000000000003
 40
0.8750000000000001
 40
0.8750000000000001
 40
1.0
 40
1.0
 40
1.0
 40
1.0
 10
240.539977730317
 20
94.89244192639964
 30
0.0
 10
241.445114667197
 20
94.89417901247683
 30
0.0
 10
242.3269940033258
 20
94.78206721879306
 30
0.0
 10
243.4002648085396
 20
94.50329932033765
 30
0.0
 10
243.6137793061142
 20
94.44033050326217
 30
0.0
 10
244.0304295411034
 20
94.30272004112713
 30
0.0
 10
244.2344975638178
 20
94.22786797195472
 30
0.0
 10
244.8342999383679
 20
93.98605995222216
 30
0.0
 10
245.2176763195814
 20
93.80189918239903
 30
0.0
 10
245.9521833847229
 20
93.39097683584198
 30
0.0
 10
246.3039372830418
 20
93.16320560643611
 30
0.0
 10
246.955629078227
 20
92.68311852488831
 30
0.0
 10
247.2585252961016
 20
92.42933445332879
 30
0.0
 10
247.8220907487812
 20
91.8993043273146
 30
0.0
 10
248.0837616754476
 20
91.62169443059965
 30
0.0
 10
248.5602132418671
 20
91.05699635856632
 30
0.0
 10
248.7756141394586
 20
90.7696365587754
 30
0.0
 10
248.9707441607862
 20
90.47927855896069
 30
0.0
  0
ELLIPSE
  5
181
330
1F
100
AcDbEntity
  8
VERMASSUNG
  6
HIDDEN
370
    18
100
AcDbEllipse
 10
252.7527793158
 20
112.9239858639
 30
0.0
 11
-1.689966264280713
 21
31.99965937820386
 31
0.0
210
0.0
220
0.0
230
1.0
 40
0.0873669176
 41
1.566182337194971
 42
2.62930867138082
  0
ELLIPSE
  5
182
330
1F
100
AcDbEntity
  8
VERMASSUNG
  6
HIDDEN
370
    18
100
AcDbEllipse
 10
10762.0139015734
 20
112.9239858639
 30
0.0
 11
17333.48929125333
 21
31.95389930951046
 31
0.0
210
0.0
220
0.0
230
1.0
 40
0.0000990607
 41
2.2230796010983
 42
2.223843710960178
  0
LINE
  5
183
330
1F
100
AcDbEntity
  8
VERMASSUNG
  6
HIDDEN
370
    18
100
AcDbLine
 10
153.1347945616
 20
121.458774967
 30
0.0
 11
153.1347945616
 21
110.3199330351
 31
0.0
  0
LINE
  5
184
330
1F
100
AcDbEntity
  8
VERMASSUNG
  6
HIDDEN
370
    18
100
AcDbLine
 10
153.1347945616
 20
140.5280386926
 30
0.0
 11
153.1347945616
 21
129.3891967607
 31
0.0
  0
LINE
  5
185
330
1F
100
AcDbEntity
  8
VERMASSUNG
  6
HIDDEN
370
    18
100
AcDbLine
 10
189.4347945616
 20
140.4616930264
 30
0.0
 11
189.4347945616
 21
110.3862787014
 31
0.0
  0
LINE
  5
186
330
1F
100
AcDbEntity
  8
VERMASSUNG
  6
HIDDEN
370
    18
100
AcDbLine
 10
187.4347945616
 20
140.9589063868
 30
0.0
 11
187.4347945616
 21
109.889065341
 31
0.0
  0
SPLINE
  5
187
330
1F
100
AcDbEntity
  8
VERMASSUNG
  6
HIDDEN
370
    18
100
AcDbSpline
210
0.0
220
0.0
230
1.0
 70
     8
 71
     3
 72
    24
 73
    20
 74
     0
 42
0.000000001
 43
0.00000001
 40
0.0
 40
0.0
 40
0.0
 40
0.0
 40
0.125
 40
0.125
 40
0.2500000000000001
 40
0.2500000000000001
 40
0.375
 40
0.375
 40
0.4375
 40
0.4375
 40
0.4999999999999999
 40
0.4999999999999999
 40
0.6249999999999999
 40
0.6249999999999999
 40
0.7499999999999999
 40
0.7499999999999999
 40
0.875
 40
0.875
 40
1.0
 40
1.0
 40
1.0
 40
1.0
 10
158.0847945616017
 20
121.3380248107791
 30
0.0
 10
158.3225981938767
 20
121.6370319131092
 30
0.0
 10
158.552683855088
 20
121.9413697644279
 30
0.0
 10
158.9874372536979
 20
122.5671033018239
 30
0.0
 10
159.192370045984
 20
122.8883280291514
 30
0.0
 10
159.5574719964827
 20
123.5602537998842
 30
0.0
 10
159.7192723822742
 20
123.9155690317631
 30
0.0
 10
159.891132586854
 20
124.4658002531155
 30
0.0
 10
159.9367177785141
 20
124.652204038096
 30
0.0
 10
159.9991925180889
 20
125.0323385401922
 30
0.0
 10
160.0158636638374
 20
125.2280083324781
 30
0.0
 10
160.0163847070139
 20
125.8064887111526
 30
0.0
 10
159.9519424061272
 20
126.1844005501213
 30
0.0
 10
159.7220933127538
 20
126.9263685752198
 30
0.0
 10
159.5635726350907
 20
127.2750840353807
 30
0.0
 10
159.1993383051906
 20
127.9481764331139
 30
0.0
 10
158.992602065127
 20
128.2731289203555
 30
0.0
 10
158.5546641193866
 20
128.9040527308173
 30
0.0
 10
158.3233913921071
 20
129.2099424711579
 30
0.0
 10
158.0847945616017
 20
129.5099469169774
 30
0.0
  0
LINE
  5
188
330
1F
100
AcDbEntity
  8
VERMASSUNG
  6
HIDDEN
370
    18
100
AcDbLine
 10
158.0847945616
 20
121.3380248108
 30
0.0
 11
158.0847945616
 21
129.509946917
 31
0.0
  0
SPLINE
  5
189
330
1F
100
AcDbEntity
  8
VERMASSUNG
  6
HIDDEN
370
    18
100
AcDbSpline
210
0.0
220
0.0
230
1.0
 70
     8
 71
     3
 72
     8
 73
     4
 74
     0
 42
0.000000001
 43
0.00000001
 40
0.0000249638557296
 40
0.0000249638557296
 40
0.0000249638557296
 40
0.0000249638557296
 40
0.0049776420541172
 40
0.0049776420541172
 40
0.0049776420541172
 40
0.0049776420541172
 10
153.1347945616016
 20
121.4587749670418
 30
0.0
 10
154.7847707961112
 20
121.4174957292736
 30
0.0
 10
156.4347721158562
 20
121.3772740480341
 30
0.0
 10
158.0847945616017
 20
121.3380248107791
 30
0.0
  0
SPLINE
  5
18A
330
1F
100
AcDbEntity
  8
VERMASSUNG
  6
HIDDEN
370
    18
100
AcDbSpline
210
0.0
220
0.0
230
1.0
 70
     8
 71
     3
 72
     8
 73
     4
 74
     0
 42
0.000000001
 43
0.00000001
 40
0.0000249631533153
 40
0.0000249631533153
 40
0.0000249631533153
 40
0.0000249631533153
 40
0.0049776413517029
 40
0.0049776413517029
 40
0.0049776413517029
 40
0.0049776413517029
 10
158.0847945616016
 20
129.5099469169776
 30
0.0
 10
156.4347721158562
 20
129.4706976797226
 30
0.0
 10
154.7847707961112
 20
129.4304759984831
 30
0.0
 10
153.1347945616016
 20
129.3891967607149
 30
0.0
  0
SPLINE
  5
18B
330
1F
100
AcDbEntity
  8
VERMASSUNG
  6
HIDDEN
370
    18
100
AcDbSpline
210
0.0
220
0.0
230
1.0
 70
     8
 71
     3
 72
     8
 73
     4
 74
     0
 42
0.000000001
 43
0.00000001
 40
0.0
 40
0.0
 40
0.0
 40
0.0
 40
1.0
 40
1.0
 40
1.0
 40
1.0
 10
151.6347945616017
 20
122.521998530896
 30
0.0
 10
152.1015551729788
 20
122.1066352852738
 30
0.0
 10
152.6073027197581
 20
121.7620448559699
 30
0.0
 10
153.1347945616016
 20
121.4587749670418
 30
0.0
  0
SPLINE
  5
18C
330
1F
100
AcDbEntity
  8
VERMASSUNG
  6
HIDDEN
370
    18
100
AcDbSpline
210
0.0
220
0.0
230
1.0
 70
     8
 71
     3
 72
     8
 73
     4
 74
     0
 42
0.000000001
 43
0.00000001
 40
0.0
 40
0.0
 40
0.0
 40
0.0
 40
1.0
 40
1.0
 40
1.0
 40
1.0
 10
153.1347945616016
 20
129.3891967607149
 30
0.0
 10
152.6073027197581
 20
129.0859268717868
 30
0.0
 10
152.1015551729788
 20
128.7413364424828
 30
0.0
 10
151.6347945616016
 20
128.3259731968607
 30
0.0
  0
LINE
  5
18D
330
1F
100
AcDbEntity
  8
VERMASSUNG
  6
HIDDEN
370
    18
100
AcDbLine
 10
151.6347945616
 20
122.5219985309
 30
0.0
 11
151.6347945616
 21
128.3259731969
 31
0.0
  0
LINE
  5
18E
330
1F
100
AcDbEntity
  8
VERMASSUNG
  6
HIDDEN
370
    18
100
AcDbLine
 10
227.7863694117
 20
151.837890321
 30
0.0
 11
227.7863694117
 21
151.8014520584
 31
0.0
  0
LINE
  5
18F
330
1F
100
AcDbEntity
  8
VERMASSUNG
  6
HIDDEN
370
    18
100
AcDbLine
 10
227.7863694117
 20
125.4239858639
 30
0.0
 11
227.7863694117
 21
151.837890321
 31
0.0
  0
ELLIPSE
  5
190
330
1F
100
AcDbEntity
  8
VERMASSUNG
  6
HIDDEN
370
    18
100
AcDbEllipse
 10
248.2108835212
 20
125.4239858639
 30
0.0
 11
-22.5503629469722
 21
31.95937066180754
 31
0.0
210
0.0
220
0.0
230
1.0
 40
0.0714855773
 41
0.5494276890509573
 42
1.520399192250133
  0
SPLINE
  5
191
330
1F
100
AcDbEntity
  8
VERMASSUNG
  6
HIDDEN
370
    18
100
AcDbSpline
210
0.0
220
0.0
230
1.0
 70
    11
 71
     3
 72
    72
 73
    68
 74
     0
 42
0.000000001
 43
0.00000001
 40
0.0
 40
0.0
 40
0.0
 40
0.0
 40
0.0312500000000002
 40
0.0312500000000002
 40
0.0625000000000005
 40
0.0625000000000005
 40
0.0937500000000007
 40
0.0937500000000007
 40
0.1250000000000009
 40
0.1250000000000009
 40
0.156250000000001
 40
0.156250000000001
 40
0.187500000000001
 40
0.187500000000001
 40
0.218750000000001
 40
0.218750000000001
 40
0.2500000000000011
 40
0.2500000000000011
 40
0.2812500000000011
 40
0.2812500000000011
 40
0.3125000000000011
 40
0.3125000000000011
 40
0.3437500000000012
 40
0.3437500000000012
 40
0.3750000000000012
 40
0.3750000000000012
 40
0.3906250000000013
 40
0.3906250000000013
 40
0.4062500000000013
 40
0.4062500000000013
 40
0.4375000000000013
 40
0.4375000000000013
 40
0.4687500000000013
 40
0.4687500000000013
 40
0.5000000000000013
 40
0.5000000000000013
 40
0.5312500000000014
 40
0.5312500000000014
 40
0.5625000000000014
 40
0.5625000000000014
 40
0.5937500000000016
 40
0.5937500000000016
 40
0.6250000000000016
 40
0.6250000000000016
 40
0.6562500000000016
 40
0.6562500000000016
 40
0.6875000000000014
 40
0.6875000000000014
 40
0.7187500000000013
 40
0.7187500000000013
 40
0.7500000000000012
 40
0.7500000000000012
 40
0.7812500000000011
 40
0.7812500000000011
 40
0.8125000000000009
 40
0.8125000000000009
 40
0.8437500000000007
 40
0.8437500000000007
 40
0.8750000000000004
 40
0.8750000000000004
 40
0.9062500000000003
 40
0.9062500000000003
 40
0.9375000000000003
 40
0.9375000000000003
 40
0.9687500000000002
 40
0.9687500000000002
 40
1.0
 40
1.0
 40
1.0
 40
1.0
 10
170.9459559903638
 20
128.0699974139357
 30
0.0
 10
171.1331711003007
 20
128.2751753141783
 30
0.0
 10
171.3380237015663
 20
128.4588243968368
 30
0.0
 10
171.7808918984133
 20
128.7857793003321
 30
0.0
 10
172.0208473157316
 20
128.929557508512
 30
0.0
 10
172.5164582985061
 20
129.1670748639579
 30
0.0
 10
172.7737245896606
 20
129.2623944288556
 30
0.0
 10
173.3070783574977
 20
129.4064799614901
 30
0.0
 10
173.581358497396
 20
129.4542159684597
 30
0.0
 10
174.1277870319756
 20
129.4997981089935
 30
0.0
 10
174.4023633504433
 20
129.4983643489213
 30
0.0
 10
174.954330524714
 20
129.4454510408304
 30
0.0
 10
175.2249474872857
 20
129.3944813146262
 30
0.0
 10
175.7512326583649
 20
129.2458746876826
 30
0.0
 10
176.0088642217725
 20
129.1475893169255
 30
0.0
 10
176.504790386446
 20
128.9033359577398
 30
0.0
 10
176.7377740642377
 20
128.7602558267176
 30
0.0
 10
177.1741073395627
 20
128.4323972762488
 30
0.0
 10
177.379388593421
 20
128.2454036385486
 30
0.0
 10
177.7474228912812
 20
127.8359730187255
 30
0.0
 10
177.9089378812664
 20
127.6158675777411
 30
0.0
 10
178.1860955644135
 20
127.144117496303
 30
0.0
 10
178.3024897438472
 20
126.8891009698618
 30
0.0
 10
178.4757637804938
 20
126.3678631464648
 30
0.0
 10
178.5342103349596
 20
126.1003790286839
 30
0.0
 10
178.5780750604355
 20
125.6884633693514
 30
0.0
 10
178.5852552770648
 20
125.5487560662759
 30
0.0
 10
178.5842872497694
 20
125.2726330108135
 30
0.0
 10
178.5762844603557
 20
125.1354564444827
 30
0.0
 10
178.5302117284433
 20
124.7265230032195
 30
0.0
 10
178.4692768959913
 20
124.4545967542152
 30
0.0
 10
178.2911567395828
 20
123.9314162377601
 30
0.0
 10
178.1755888282404
 20
123.6827042373967
 30
0.0
 10
177.8937420443011
 20
123.2098197124048
 30
0.0
 10
177.7268720988864
 20
122.9862104951727
 30
0.0
 10
177.3575465440877
 20
122.581553106985
 30
0.0
 10
177.1527613877902
 20
122.3971395188155
 30
0.0
 10
176.7081084402739
 20
122.0681134839211
 30
0.0
 10
176.4732593107632
 20
121.9269454079329
 30
0.0
 10
175.9798495482862
 20
121.6885358791524
 30
0.0
 10
175.7185625945815
 20
121.5907533227475
 30
0.0
 10
175.1878243140688
 20
121.4454252945574
 30
0.0
 10
174.9181846131716
 20
121.3971359043624
 30
0.0
 10
174.3704332734264
 20
121.3487206805758
 30
0.0
 10
174.0905292315677
 20
121.3491788662117
 30
0.0
 10
173.5434513237327
 20
121.3993307218139
 30
0.0
 10
173.2738462190453
 20
121.4485042888459
 30
0.0
 10
172.7426914623892
 20
121.596178812153
 30
0.0
 10
172.4813966459457
 20
121.6953339765186
 30
0.0
 10
171.9890826677703
 20
121.9363467469953
 30
0.0
 10
171.7551257921917
 20
122.07883487162
 30
0.0
 10
171.3129571716612
 20
122.4103223006049
 30
0.0
 10
171.1077636405496
 20
122.5977559285933
 30
0.0
 10
170.7420694241916
 20
123.0046596476437
 30
0.0
 10
170.5792988018032
 20
123.2258387223127
 30
0.0
 10
170.2983463710376
 20
123.705586051528
 30
0.0
 10
170.1851425187641
 20
123.9555980183383
 30
0.0
 10
170.0125337946252
 20
124.4756732283587
 30
0.0
 10
169.9529275119488
 20
124.7494046929885
 30
0.0
 10
169.895035741879
 20
125.298022342887
 30
0.0
 10
169.8958252807389
 20
125.5723622067786
 30
0.0
 10
169.9570157563554
 20
126.1211041579175
 30
0.0
 10
170.0181444800894
 20
126.3941694717746
 30
0.0
 10
170.1942241657192
 20
126.914334720543
 30
0.0
 10
170.3105547607092
 20
127.166653854102
 30
0.0
 10
170.5937559904499
 20
127.6430581955089
 30
0.0
 10
170.7587408804269
 20
127.8648195136932
 30
0.0
 10
170.9459559903638
 20
128.0699974139357
 30
0.0
  0
CIRCLE
  5
192
330
1F
100
AcDbEntity
  8
VERMASSUNG
  6
HIDDEN
370
    18
100
AcDbCircle
 10
174.1347945616
 20
125.4239858639
 30
0.0
 40
4.049999999999997
  0
CIRCLE
  5
193
330
1F
100
AcDbEntity
  8
VERMASSUNG
  6
HIDDEN
370
    18
100
AcDbCircle
 10
201.6347945616
 20
125.4239858639
 30
0.0
 40
1.999999999999986
  0
LINE
  5
194
330
1F
100
AcDbEntity
  8
VERMASSUNG
  6
HIDDEN
370
    18
100
AcDbLine
 10
227.7863694117
 20
125.4239858639
 30
0.0
 11
227.7863694117
 21
122.8232143844
 31
0.0
  0
SPLINE
  5
195
330
1F
100
AcDbEntity
  8
VERMASSUNG
  6
HIDDEN
370
    18
100
AcDbSpline
210
0.0
220
0.0
230
1.0
 70
     8
 71
     3
 72
     8
 73
     4
 74
     0
 42
0.000000001
 43
0.00000001
 40
0.0
 40
0.0
 40
0.0
 40
0.0
 40
1.0
 40
1.0
 40
1.0
 40
1.0
 10
228.3997270129
 20
112.9239858638783
 30
0.0
 10
228.1227396795019
 20
115.7650723106095
 30
0.0
 10
227.9272512725348
 20
118.6186411792073
 30
0.0
 10
227.8333933999118
 20
121.4877758381754
 30
0.0
  0
LINE
  5
196
330
1F
100
AcDbEntity
  8
VERMASSUNG
  6
HIDDEN
370
    18
100
AcDbLine
 10
249.949300012
 20
112.9239858639
 30
0.0
 11
249.6583427422
 21
118.4757813001
 31
0.0
  0
LINE
  5
197
330
1F
100
AcDbEntity
  8
VERMASSUNG
  6
HIDDEN
370
    18
100
AcDbLine
 10
249.6583427422
 20
118.4757813001
 30
0.0
 11
244.7931575296
 21
125.4239858639
 31
0.0
  0
LINE
  5
198
330
1F
100
AcDbEntity
  8
VERMASSUNG
  6
HIDDEN
370
    18
100
AcDbLine
 10
207.6347945616
 20
113.1739858639
 30
0.0
 11
207.6347945616
 21
109.6740144084
 31
0.0
  0
LINE
  5
199
330
1F
100
AcDbEntity
  8
VERMASSUNG
  6
HIDDEN
370
    18
100
AcDbLine
 10
213.6347945616
 20
109.6739887646
 30
0.0
 11
213.6347945616
 21
113.1739858639
 31
0.0
  0
LINE
  5
19A
330
1F
100
AcDbEntity
  8
VERMASSUNG
  6
HIDDEN
370
    18
100
AcDbLine
 10
189.6347945616
 20
101.1739858639
 30
0.0
 11
189.7276877804
 21
101.2668790827
 31
0.0
  0
LINE
  5
19B
330
1F
100
AcDbEntity
  8
VERMASSUNG
  6
HIDDEN
370
    18
100
AcDbLine
 10
189.7276877804
 20
149.5810926451
 30
0.0
 11
189.6347945616
 21
149.6739858639
 31
0.0
  0
ARC
  5
19C
330
1F
100
AcDbEntity
  8
VERMASSUNG
  6
HIDDEN
370
    18
100
AcDbCircle
 10
189.0205809992
 20
101.9739858639
 30
0.0
 40
1.000000000000008
100
AcDbArc
 50
315.0
 51
0.0
  0
ARC
  5
19D
330
1F
100
AcDbEntity
  8
VERMASSUNG
  6
HIDDEN
370
    18
100
AcDbCircle
 10
189.0205809992
 20
101.9739858639
 30
0.0
 40
1.00000000000001
100
AcDbArc
 50
0.0
 51
52.1052014664
  0
ARC
  5
19E
330
1F
100
AcDbEntity
  8
VERMASSUNG
  6
HIDDEN
370
    18
100
AcDbCircle
 10
189.0205809992
 20
148.8739858639
 30
0.0
 40
1.000000000000034
100
AcDbArc
 50
351.8087250651
 51
45.0
  0
ARC
  5
19F
330
1F
100
AcDbEntity
  8
VERMASSUNG
  6
HIDDEN
370
    18
100
AcDbCircle
 10
189.0205809992
 20
148.8739858639
 30
0.0
 40
1.000000000000034
100
AcDbArc
 50
307.8947985336
 51
351.8087250651
  0
LINE
  5
1A0
330
1F
100
AcDbEntity
  8
VERMASSUNG
  6
HIDDEN
370
    18
100
AcDbLine
 10
190.0205809992
 20
101.9739858639
 30
0.0
 11
190.0205809992
 21
148.8739858639
 31
0.0
  0
LINE
  5
1A1
330
1F
100
AcDbEntity
  8
VERMASSUNG
  6
HIDDEN
370
    18
100
AcDbLine
 10
190.0205809992
 20
101.9739858639
 30
0.0
 11
190.0205809992
 21
148.8739858639
 31
0.0
  0
LINE
  5
1A2
330
1F
100
AcDbEntity
  8
VERMASSUNG
  6
HIDDEN
370
    18
100
AcDbLine
 10
208.1347945616
 20
120.9243157669
 30
0.0
 11
208.1347945616
 21
113.3242010186
 31
0.0
  0
LINE
  5
1A3
330
1F
100
AcDbEntity
  8
VERMASSUNG
  6
HIDDEN
370
    18
100
AcDbLine
 10
213.1347945616
 20
117.2243417692
 30
0.0
 11
213.1347945616
 21
120.9242550767
 31
0.0
  0
LINE
  5
1A4
330
1F
100
AcDbEntity
  8
VERMASSUNG
  6
HIDDEN
370
    18
100
AcDbLine
 10
213.1347945616
 20
113.3242010186
 30
0.0
 11
213.1347945616
 21
115.1138696586
 31
0.0
  0
LINE
  5
1A5
330
1F
100
AcDbEntity
  8
VERMASSUNG
  6
HIDDEN
370
    18
100
AcDbLine
 10
210.4430108955
 20
113.5372859646
 30
0.0
 11
221.454237198
 21
104.4798913851
 31
0.0
  0
LINE
  5
1A6
330
1F
100
AcDbEntity
  8
VERMASSUNG
  6
HIDDEN
370
    18
100
AcDbLine
 10
221.1086309174
 20
111.2383624232
 30
0.0
 11
212.743285973
 21
118.1193607674
 31
0.0
  0
LINE
  5
1A7
330
1F
100
AcDbEntity
  8
VERMASSUNG
  6
HIDDEN
370
    18
100
AcDbLine
 10
212.7206034941
 20
117.3111428627
 30
0.0
 11
212.8036829747
 21
117.6886203606
 31
0.0
  0
LINE
  5
1A8
330
1F
100
AcDbEntity
  8
VERMASSUNG
  6
HIDDEN
370
    18
100
AcDbLine
 10
151.6347945616
 20
109.2275570194
 30
0.0
 11
153.1650230012
 21
110.111034821
 31
0.0
  0
LINE
  5
1A9
330
1F
100
AcDbEntity
  8
VERMASSUNG
  6
HIDDEN
370
    18
100
AcDbLine
 10
153.1650230012
 20
140.7369369068
 30
0.0
 11
151.6347945616
 21
141.6204147083
 31
0.0
  0
ARC
  5
1AA
330
1F
100
AcDbEntity
  8
VERMASSUNG
  6
HIDDEN
370
    18
100
AcDbCircle
 10
162.6365958765
 20
111.4239858639
 30
0.0
 40
2.000000000000014
100
AcDbArc
 50
270.0
 51
315.0
  0
ARC
  5
1AB
330
1F
100
AcDbEntity
  8
VERMASSUNG
  6
HIDDEN
370
    18
100
AcDbCircle
 10
162.6365958765
 20
139.4239858639
 30
0.0
 40
2.0
100
AcDbArc
 50
45.0
 51
90.0
  0
LINE
  5
1AC
330
1F
100
AcDbEntity
  8
VERMASSUNG
  6
HIDDEN
370
    18
100
AcDbLine
 10
161.6347945616
 20
109.4239858639
 30
0.0
 11
162.6365958765
 21
109.4239858639
 31
0.0
  0
LINE
  5
1AD
330
1F
100
AcDbEntity
  8
VERMASSUNG
  6
HIDDEN
370
    18
100
AcDbLine
 10
162.6365958765
 20
141.4239858639
 30
0.0
 11
161.6347945616
 21
141.4239858639
 31
0.0
  0
ARC
  5
1AE
330
1F
100
AcDbEntity
  8
VERMASSUNG
  6
HIDDEN
370
    18
100
AcDbCircle
 10
161.6347945616
 20
111.4239858639
 30
0.0
 40
2.000000000000029
100
AcDbArc
 50
189.9742217944
 51
270.0
  0
ARC
  5
1AF
330
1F
100
AcDbEntity
  8
VERMASSUNG
  6
HIDDEN
370
    18
100
AcDbCircle
 10
161.6347945616
 20
139.4239858639
 30
0.0
 40
2.000000000000032
100
AcDbArc
 50
90.0
 51
170.0257782056
  0
LINE
  5
1B0
330
1F
100
AcDbEntity
  8
VERMASSUNG
  6
HIDDEN
370
    18
100
AcDbLine
 10
164.0508094389
 20
110.0097723015
 30
0.0
 11
165.4650230012
 21
111.4239858639
 31
0.0
  0
LINE
  5
1B1
330
1F
100
AcDbEntity
  8
VERMASSUNG
  6
HIDDEN
370
    18
100
AcDbLine
 10
165.4650230012
 20
139.4239858639
 30
0.0
 11
164.0508094389
 21
140.8381994263
 31
0.0
  0
LINE
  5
1B2
330
1F
100
AcDbEntity
  8
VERMASSUNG
  6
HIDDEN
370
    18
100
AcDbLine
 10
153.1650230012
 20
110.111034821
 30
0.0
 11
158.0650230012
 21
111.4239858639
 31
0.0
  0
LINE
  5
1B3
330
1F
100
AcDbEntity
  8
VERMASSUNG
  6
HIDDEN
370
    18
100
AcDbLine
 10
158.0650230012
 20
139.4239858639
 30
0.0
 11
153.1650230012
 21
140.7369369068
 31
0.0
  0
LINE
  5
1B4
330
1F
100
AcDbEntity
  8
VERMASSUNG
  6
HIDDEN
370
    18
100
AcDbLine
 10
159.6650230012
 20
139.7703960254
 30
0.0
 11
159.0650230012
 21
139.4239858639
 31
0.0
  0
LINE
  5
1B5
330
1F
100
AcDbEntity
  8
VERMASSUNG
  6
HIDDEN
370
    18
100
AcDbLine
 10
159.0650230012
 20
111.4239858639
 30
0.0
 11
159.6650230012
 21
111.0775757024
 31
0.0
  0
ARC
  5
1B6
330
1F
100
AcDbEntity
  8
VERMASSUNG
  6
HIDDEN
370
    18
100
AcDbCircle
 10
178.1347945616
 20
111.9239858639
 30
0.0
 40
0.5
100
AcDbArc
 50
270.0
 51
0.0
  0
ARC
  5
1B7
330
1F
100
AcDbEntity
  8
VERMASSUNG
  6
HIDDEN
370
    18
100
AcDbCircle
 10
178.1347945616
 20
138.9239858639
 30
0.0
 40
0.5
100
AcDbArc
 50
0.0
 51
90.0
  0
LINE
  5
1B8
330
1F
100
AcDbEntity
  8
VERMASSUNG
  6
HIDDEN
370
    18
100
AcDbLine
 10
158.0650230012
 20
111.4239858639
 30
0.0
 11
159.0650230012
 21
111.4239858639
 31
0.0
  0
LINE
  5
1B9
330
1F
100
AcDbEntity
  8
VERMASSUNG
  6
HIDDEN
370
    18
100
AcDbLine
 10
159.0650230012
 20
139.4239858639
 30
0.0
 11
158.0650230012
 21
139.4239858639
 31
0.0
  0
LINE
  5
1BA
330
1F
100
AcDbEntity
  8
VERMASSUNG
  6
HIDDEN
370
    18
100
AcDbLine
 10
165.4650230012
 20
111.4239858639
 30
0.0
 11
178.1347945616
 21
111.4239858639
 31
0.0
  0
LINE
  5
1BB
330
1F
100
AcDbEntity
  8
VERMASSUNG
  6
HIDDEN
370
    18
100
AcDbLine
 10
178.1347945616
 20
139.4239858639
 30
0.0
 11
165.4650230012
 21
139.4239858639
 31
0.0
  0
LINE
  5
1BC
330
1F
100
AcDbEntity
  8
VERMASSUNG
  6
HIDDEN
370
    18
100
AcDbLine
 10
178.6347945616
 20
115.1739858639
 30
0.0
 11
179.8847945616
 21
116.4239858639
 31
0.0
  0
LINE
  5
1BD
330
1F
100
AcDbEntity
  8
VERMASSUNG
  6
HIDDEN
370
    18
100
AcDbLine
 10
179.8847945616
 20
134.4239858639
 30
0.0
 11
178.6347945616
 21
135.6739858639
 31
0.0
  0
LINE
  5
1BE
330
1F
100
AcDbEntity
  8
VERMASSUNG
  6
HIDDEN
370
    18
100
AcDbLine
 10
216.6347945616
 20
134.4239858639
 30
0.0
 11
179.8847945616
 21
134.4239858639
 31
0.0
  0
LINE
  5
1BF
330
1F
100
AcDbEntity
  8
VERMASSUNG
  6
HIDDEN
370
    18
100
AcDbLine
 10
179.8847945616
 20
116.4239858639
 30
0.0
 11
216.6347945616
 21
116.4239858639
 31
0.0
  0
LINE
  5
1C0
330
1F
100
AcDbEntity
  8
VERMASSUNG
  6
HIDDEN
370
    18
100
AcDbLine
 10
216.6347945616
 20
116.4239858639
 30
0.0
 11
222.0425401328
 21
125.4239858639
 31
0.0
  0
LINE
  5
1C1
330
1F
100
AcDbEntity
  8
VERMASSUNG
  6
HIDDEN
370
    18
100
AcDbLine
 10
222.0425401328
 20
125.4239858639
 30
0.0
 11
216.6347945616
 21
134.4239858639
 31
0.0
  0
ARC
  5
1C2
330
1F
100
AcDbEntity
  8
VERMASSUNG
  6
HIDDEN
370
    18
100
AcDbCircle
 10
226.8674675736
 20
92.9239858639
 30
0.0
 40
1.000000000000003
100
AcDbArc
 50
67.5244230154
 51
90.0
  0
LINE
  5
1C3
330
1F
100
AcDbEntity
  8
VERMASSUNG
100
AcDbLine
 10
254.6347945616
 20
80.4239858639
 30
0.0
 11
254.6347945616
 21
81.3135047684
 31
0.0
  0
LINE
  5
1C4
330
1F
100
AcDbEntity
  8
VERMASSUNG
100
AcDbLine
 10
254.6347945616
 20
80.4239858639
 30
0.0
 11
255.0794594349
 21
80.4239858639
 31
0.0
  0
DIMENSION
  5
1C5
330
1F
100
AcDbEntity
  8
VERMASSUNG
100
AcDbDimension
  2
_D
 10
189.6347945616
 20
73.3160313815
 30
0.0
 11
222.1347945616
 21
73.3160313815
 31
0.0
 70
   160
  1
<>
 71
     2
 42
-1.0
  3
SLDDIMSTYLE0
100
AcDbAlignedDimension
 13
254.6347945616
 23
80.4239858639
 33
0.0
 14
189.6347945616
 24
94.4239858639
 34
0.0
100
AcDbRotatedDimension
  0
DIMENSION
  5
1D2
330
1F
100
AcDbEntity
  8
VERMASSUNG
100
AcDbDimension
  2
_D_1
 10
151.6347945616
 20
65.9838269185
 30
0.0
 11
203.1347945616
 21
65.9838269185
 31
0.0
 70
   160
  1
<>
 71
     2
 42
-1.0
  3
SLDDIMSTYLE1
100
AcDbAlignedDimension
 13
254.6347945616
 23
80.4239858639
 33
0.0
 14
151.6347945616
 24
105.1316478714
 34
0.0
100
AcDbRotatedDimension
  0
DIMENSION
  5
1DD
330
1F
100
AcDbEntity
  8
VERMASSUNG
100
AcDbDimension
  2
_D_2
 10
273.9284733822
 20
125.4239858639
 30
0.0
 11
273.9284733822
 21
102.9239858639
 31
0.0
 70
   160
  1
<>
 71
     2
 42
-1.0
  3
SLDDIMSTYLE0
100
AcDbAlignedDimension
 13
255.0794594349
 23
80.4239858639
 33
0.0
 14
256.3281489157
 24
125.4239858639
 34
0.0
 50
90.0
100
AcDbRotatedDimension
  0
DIMENSION
  5
1E9
330
1F
100
AcDbEntity
  8
VERMASSUNG
100
AcDbDimension
  2
_D_3
 10
253.8381090164
 20
96.0361260179
 30
0.0
 11
262.3075278682
 21
88.4866907581
 31
0.0
 70
   162
  1
<>
 71
     1
 42
-1.0
  3
SLDDIMSTYLE2
100
AcDb2LineAngularDimension
 13
255.0794594349
 23
80.4239858639
 33
0.0
 14
254.6347945616
 24
80.4239858639
 34
0.0
 15
254.6351421382
 25
80.8278280752
 35
0.0
 16
262.3075278682
 26
88.4866907581
 36
0.0
  0
DIMENSION
  5
1F3
330
1F
100
AcDbEntity
  8
VERMASSUNG
100
AcDbDimension
  2
_D_4
 10
141.6347945616
 20
93.9239858639
 30
0.0
 11
141.6347945616
 21
125.4239858639
 31
0.0
 70
   160
  1
PSC%%c<>
 71
     2
 42
-1.0
  3
SLDDIMSTYLE1
100
AcDbAlignedDimension
 13
190.1347945616
 23
156.9239858639
 33
0.0
 14
190.1347945616
 24
93.9239858639
 34
0.0
 50
90.0
100
AcDbRotatedDimension
  0
LINE
  5
1FF
330
1F
100
AcDbEntity
  8
VERMASSUNG
  6
CENTERX2
370
    18
100
AcDbLine
 10
149.4975629987
 20
125.4239858639
 30
0.0
 11
256.3281489157
 21
125.4239858639
 31
0.0
  0
LINE
  5
200
330
1F
100
AcDbEntity
  8
0
  6
CENTERX2
 62
     7
100
AcDbLine
 10
68.3547093743
 20
80.4239858639
 30
0.0
 11
68.3547093743
 21
125.4239858639
 31
0.0
  0
LINE
  5
201
330
1F
100
AcDbEntity
  8
0
  6
CENTERX2
 62
     7
100
AcDbLine
 10
68.3547093743
 20
80.4239858639
 30
0.0
 11
68.3547093743
 21
125.4239858639
 31
0.0
  0
POINT
  5
202
330
1F
100
AcDbEntity
  8
0
  6
Continuous
 62
     7
100
AcDbPoint
 10
68.3547093743
 20
80.4239858639
 30
0.0
  0
SPLINE
  5
203
330
1F
100
AcDbEntity
  8
0
  6
Continuous
 62
     7
370
    25
100
AcDbSpline
210
0.0
220
0.0
230
1.0
 70
     8
 71
     3
 72
    10
 73
     6
 74
     0
 42
0.000000001
 43
0.00000001
 40
0.0
 40
0.0
 40
0.0
 40
0.0
 40
0.3884242699832658
 40
0.7243540333202861
 40
1.0
 40
1.0
 40
1.0
 40
1.0
 10
68.31909694783448
 20
80.40070887746381
 30
0.0
 10
68.94441461574993
 20
80.50474887709291
 30
0.0
 10
70.11053993248287
 20
80.69876814721016
 30
0.0
 10
71.74791455348475
 20
80.77654595287409
 30
0.0
 10
72.72112262188594
 20
80.9971171592912
 30
0.0
 10
73.15976147825064
 20
81.09653177048398
 30
0.0
  0
LINE
  5
204
330
1F
100
AcDbEntity
  8
0
  6
Continuous
 62
     7
370
    25
100
AcDbLine
 10
68.6547093743
 20
108.3711455007
 30
0.0
 11
68.3190969478
 21
108.4248725428
 31
0.0
  0
LINE
  5
205
330
1F
100
AcDbEntity
  8
0
  6
Continuous
 62
     7
370
    25
100
AcDbLine
 10
73.1147093743
 20
81.1907334215
 30
0.0
 11
73.1147093743
 21
95.9773063424
 31
0.0
  0
LINE
  5
206
330
1F
100
AcDbEntity
  8
0
  6
Continuous
 62
     7
370
    25
100
AcDbLine
 10
68.3547093743
 20
80.8278280752
 30
0.0
 11
68.3547093743
 21
96.0361260179
 31
0.0
  0
SPLINE
  5
207
330
1F
100
AcDbEntity
  8
0
  6
Continuous
 62
     7
370
    25
100
AcDbSpline
210
0.0
220
0.0
230
1.0
 70
    24
 71
     3
 72
    33
 73
    29
 74
     0
 42
0.000000001
 43
0.00000001
 40
0.0
 40
0.0
 40
0.0
 40
0.0
 40
0.0340694689820483
 40
0.0683669176205376
 40
0.1033924082168356
 40
0.1386741168726086
 40
0.1727455867412923
 40
0.2070623719543562
 40
0.2598230716621646
 40
0.2775389900808731
 40
0.3106002709211415
 40
0.3439046109618908
 40
0.3779890668967832
 40
0.4123485390261383
 40
0.4764750639979272
 40
0.5090428551017744
 40
0.542104470934891
 40
0.6050699283065634
 40
0.6370247888290178
 40
0.6694366045373932
 40
0.7329017538505973
 40
0.7650912589013101
 40
0.7977198551661321
 40
0.8630725024074564
 40
0.896210701131275
 40
0.9297923644742907
 40
0.9647720698106398
 40
0.9999999999999999
 40
0.9999999999999999
 40
0.9999999999999999
 40
0.9999999999999999
 10
73.11470937430083
 20
81.19073342150296
 30
0.0
 10
73.11470937430083
 20
81.18784205247839
 30
0.0
 10
73.11470937430084
 20
81.18203996651057
 30
0.0
 10
73.11470937430083
 20
81.1732758991153
 30
0.0
 10
73.11470937430083
 20
81.16449367504231
 30
0.0
 10
73.11470937430083
 20
81.15587690206038
 30
0.0
 10
73.11470937430084
 20
81.14752699662367
 30
0.0
 10
73.11470937430074
 20
81.13808337413187
 30
0.0
 10
73.11470937430084
 20
81.13032884988856
 30
0.0
 10
73.11470937430083
 20
81.12311380564141
 30
0.0
 10
73.11470937430083
 20
81.11752445602338
 30
0.0
 10
73.11470937430082
 20
81.11132757495542
 30
0.0
 10
73.11470937430087
 20
81.10559411015315
 30
0.0
 10
73.11470937430059
 20
81.09891068119818
 30
0.0
 10
73.11470937430084
 20
81.0934958718871
 30
0.0
 10
73.11470937430087
 20
81.08943843624624
 30
0.0
 10
73.11470937430056
 20
81.0863130107862
 30
0.0
 10
73.11470937430087
 20
81.084543273372
 30
0.0
 10
73.11470937430082
 20
81.08413425431557
 30
0.0
 10
73.11470937430084
 20
81.08463460603855
 30
0.0
 10
73.11470937430083
 20
81.08648986443309
 30
0.0
 10
73.11470937430083
 20
81.08963499771893
 30
0.0
 10
73.11470937430083
 20
81.09367973448357
 30
0.0
 10
73.11470937430083
 20
81.09901591922089
 30
0.0
 10
73.11470937430083
 20
81.1055144764061
 30
0.0
 10
73.11470937430083
 20
81.11108174002067
 30
0.0
 10
73.11470937430084
 20
81.11726860348686
 30
0.0
 10
73.11470937430083
 20
81.12187601888809
 30
0.0
 10
73.11470937430083
 20
81.12418787153622
 30
0.0
  0
SPLINE
  5
208
330
1F
100
AcDbEntity
  8
0
  6
Continuous
 62
     7
370
    25
100
AcDbSpline
210
0.0
220
0.0
230
1.0
 70
    24
 71
     3
 72
    23
 73
    19
 74
     0
 42
0.000000001
 43
0.00000001
 40
0.0
 40
0.0
 40
0.0
 40
0.0
 40
0.022188505134645
 40
0.0755932109703755
 40
0.126197706492526
 40
0.2158528766043066
 40
0.2809227555751048
 40
0.3309379329911363
 40
0.4322972814784694
 40
0.4837492166439747
 40
0.5340054967055095
 40
0.6358219614470724
 40
0.6874837428183493
 40
0.7386475667324469
 40
0.829231126037021
 40
0.8949048757536393
 40
0.934190382434853
 40
1.0
 40
1.0
 40
1.0
 40
1.0
 10
68.35470937430082
 20
80.40945637832026
 30
0.0
 10
68.35470937430082
 20
80.40934219310705
 30
0.0
 10
68.35470937430082
 20
80.40895317965793
 30
0.0
 10
68.35470937430091
 20
80.41139766968375
 30
0.0
 10
68.35470937430074
 20
80.41789679301829
 30
0.0
 10
68.35470937430111
 20
80.43006129160926
 30
0.0
 10
68.3547093743002
 20
80.44742020830142
 30
0.0
 10
68.35470937430117
 20
80.46975202152629
 30
0.0
 10
68.35470937430077
 20
80.49541231396326
 30
0.0
 10
68.35470937430082
 20
80.52521757755517
 30
0.0
 10
68.35470937430081
 20
80.5576307322777
 30
0.0
 10
68.35470937430081
 20
80.59361572397033
 30
0.0
 10
68.35470937430082
 20
80.63242983098462
 30
0.0
 10
68.3547093743008
 20
80.67058451325404
 30
0.0
 10
68.35470937430082
 20
80.71333481111309
 30
0.0
 10
68.35470937430082
 20
80.75471775260866
 30
0.0
 10
68.35470937430084
 20
80.7911975796558
 30
0.0
 10
68.35470937430082
 20
80.8137229141592
 30
0.0
 10
68.35470937430082
 20
80.82782807517236
 30
0.0
  0
SPLINE
  5
209
330
1F
100
AcDbEntity
  8
0
  6
Continuous
 62
     7
370
    25
100
AcDbSpline
210
0.0
220
0.0
230
1.0
 70
    24
 71
     3
 72
    10
 73
     6
 74
     0
 42
0.000000001
 43
0.00000001
 40
0.0
 40
0.0
 40
0.0
 40
0.0
 40
0.4149258951419408
 40
0.7027715379899888
 40
1.0
 40
1.0
 40
1.0
 40
1.0
 10
73.11470937430083
 20
96.03342453198619
 30
0.0
 10
73.1147093743007
 20
96.02641018499774
 30
0.0
 10
73.11470937430046
 20
96.01452979026031
 30
0.0
 10
73.11470937430092
 20
95.99509638312509
 30
0.0
 10
73.11470937430086
 20
95.98329941854963
 30
0.0
 10
73.11470937430083
 20
95.97730634244519
 30
0.0
  0
SPLINE
  5
20A
330
1F
100
AcDbEntity
  8
0
  6
Continuous
 62
     7
370
    25
100
AcDbSpline
210
0.0
220
0.0
230
1.0
 70
    24
 71
     3
 72
    10
 73
     6
 74
     0
 42
0.000000001
 43
0.00000001
 40
0.0
 40
0.0
 40
0.0
 40
0.0
 40
0.2724625973603127
 40
0.5448192322760462
 40
1.0
 40
1.0
 40
1.0
 40
1.0
 10
68.35470937430082
 20
96.03612601786047
 30
0.0
 10
68.35470937430082
 20
96.05809688510902
 30
0.0
 10
68.35470937430082
 20
96.10203007499548
 30
0.0
 10
68.35470937430082
 20
96.18020283922402
 30
0.0
 10
68.35470937430082
 20
96.22965744391226
 30
0.0
 10
68.35470937430082
 20
96.26059851284948
 30
0.0
  0
LINE
  5
20B
330
1F
100
AcDbEntity
  8
0
  6
Continuous
 62
     7
370
    25
100
AcDbLine
 10
73.1147093743
 20
96.033424532
 30
0.0
 11
73.1147093743
 21
96.2834441591
 31
0.0
  0
LINE
  5
20C
330
1F
100
AcDbEntity
  8
0
  6
Continuous
 62
     7
370
    25
100
AcDbLine
 10
68.3547093743
 20
96.2605985128
 30
0.0
 11
68.3547093743
 21
108.2613474451
 31
0.0
  0
SPLINE
  5
20D
330
1F
100
AcDbEntity
  8
0
  6
Continuous
 62
     7
370
    25
100
AcDbSpline
210
0.0
220
0.0
230
1.0
 70
    24
 71
     3
 72
    13
 73
     9
 74
     0
 42
0.000000001
 43
0.00000001
 40
0.0
 40
0.0
 40
0.0
 40
0.0
 40
0.1878811369380486
 40
0.3812178421585503
 40
0.5687783938686838
 40
0.7619679480382547
 40
0.9461822925508776
 40
0.9999999999999999
 40
0.9999999999999999
 40
0.9999999999999999
 40
0.9999999999999999
 10
68.3547093743009
 20
108.2613474450734
 30
0.0
 10
68.35470937430088
 20
108.2784808386808
 30
0.0
 10
68.35470937430084
 20
108.3132451340556
 30
0.0
 10
68.35470937430117
 20
108.354650818069
 30
0.0
 10
68.35470937429993
 20
108.3872890858611
 30
0.0
 10
68.35470937430118
 20
108.4075957163879
 30
0.0
 10
68.35470937430085
 20
108.4169545750262
 30
0.0
 10
68.3547093743009
 20
108.415573616275
 30
0.0
 10
68.35470937430091
 20
108.4152613892726
 30
0.0
  0
LINE
  5
20E
330
1F
100
AcDbEntity
  8
VERMASSUNG
  6
Continuous
370
    25
100
AcDbLine
 10
73.1147093743
 20
95.9983736202
 30
0.0
 11
73.1147093743
 21
96.0085638558
 31
0.0
  0
LINE
  5
20F
330
1F
100
AcDbEntity
  8
VERMASSUNG
  6
Continuous
370
    25
100
AcDbLine
 10
73.1147093743
 20
96.2834441591
 30
0.0
 11
73.1147093743
 21
96.6642511354
 31
0.0
  0
LINE
  5
210
330
1F
100
AcDbEntity
  8
VERMASSUNG
  6
Continuous
370
    25
100
AcDbLine
 10
73.1147093743
 20
96.6642511354
 30
0.0
 11
70.6147093743
 21
96.3637593295
 31
0.0
  0
LINE
  5
211
330
1F
100
AcDbEntity
  8
VERMASSUNG
  6
Continuous
370
    25
100
AcDbLine
 10
70.6147093743
 20
96.3637593295
 30
0.0
 11
68.6547093743
 21
96.426726423
 31
0.0
  0
LINE
  5
212
330
1F
100
AcDbEntity
  8
VERMASSUNG
  6
Continuous
370
    25
100
AcDbLine
 10
68.6547093743
 20
96.426726423
 30
0.0
 11
68.6547093743
 21
119.4150964461
 31
0.0
  0
LINE
  5
213
330
1F
100
AcDbEntity
  8
VERMASSUNG
  6
Continuous
370
    25
100
AcDbLine
 10
100.3547093743
 20
118.4757813001
 30
0.0
 11
68.6547093743
 21
119.4150964461
 31
0.0
  0
LINE
  5
214
330
1F
100
AcDbEntity
  8
VERMASSUNG
  6
Continuous
370
    25
100
AcDbLine
 10
100.3547093743
 20
112.9239858639
 30
0.0
 11
100.3547093743
 21
118.4757813001
 31
0.0
  0
ARC
  5
215
330
1F
100
AcDbEntity
  8
VERMASSUNG
  6
Continuous
370
    25
100
AcDbCircle
 10
68.3547093743
 20
112.9239858639
 30
0.0
 40
32.00000000000001
100
AcDbArc
 50
299.0873479619
 51
0.0
  0
LINE
  5
216
330
1F
100
AcDbEntity
  8
VERMASSUNG
  6
Continuous
370
    25
100
AcDbLine
 10
73.1147093743
 20
82.0175662548
 30
0.0
 11
83.911266892
 21
84.9598388503
 31
0.0
  0
LINE
  5
217
330
1F
100
AcDbEntity
  8
VERMASSUNG
  6
Continuous
370
    25
100
AcDbLine
 10
83.5132953292
 20
84.7421251757
 30
0.0
 11
73.1147093743
 21
81.9083075967
 31
0.0
  0
ARC
  5
218
330
1F
100
AcDbEntity
  8
VERMASSUNG
  6
Continuous
370
    25
100
AcDbCircle
 10
68.3547093743
 20
112.9239858639
 30
0.0
 40
32.00000000000001
100
AcDbArc
 50
298.2751189189
 51
299.0873479619
  0
LINE
  5
219
330
1F
100
AcDbEntity
  8
VERMASSUNG
  6
Continuous
370
    25
100
AcDbLine
 10
100.3547093743
 20
118.4757813001
 30
0.0
 11
100.3547093743
 21
125.4239858639
 31
0.0
  0
ELLIPSE
  5
21A
330
1F
100
AcDbEntity
  8
VERMASSUNG
  6
Continuous
370
    25
100
AcDbEllipse
 10
62.6547093743
 20
153.3884226994
 30
0.0
 11
-1.206643027822729
 21
8.577870657123867
 31
0.0
210
0.0
220
0.0
230
1.0
 40
0.6851835035
 41
4.509900927020111
 42
5.038509161217212
  0
ARC
  5
21B
330
1F
100
AcDbEntity
  8
VERMASSUNG
  6
Continuous
370
    25
100
AcDbCircle
 10
68.3547093743
 20
125.4239858639
 30
0.0
 40
31.50000000000002
100
AcDbArc
 50
64.3862164422
 51
90.9439517227
  0
SPLINE
  5
21C
330
1F
100
AcDbEntity
  8
VERMASSUNG
  6
Continuous
370
    25
100
AcDbSpline
210
0.0
220
0.0
230
1.0
 70
     8
 71
     3
 72
    12
 73
     8
 74
     0
 42
0.000000001
 43
0.00000001
 40
0.0
 40
0.0
 40
0.0
 40
0.0
 40
0.2500000000000002
 40
0.2500000000000002
 40
0.5000000000000004
 40
0.5000000000000004
 40
1.0
 40
1.0
 40
1.0
 40
1.0
 10
86.65753127280276
 20
151.8014520583498
 30
0.0
 10
86.25024257107553
 20
151.9374353403474
 30
0.0
 10
85.85189229444174
 20
152.0920677365509
 30
0.0
 10
85.06195242572694
 20
152.4154380091759
 30
0.0
 10
84.67099031438131
 20
152.5847832820716
 30
0.0
 10
83.50543163739319
 20
153.1032613196544
 30
0.0
 10
82.73649103928993
 20
153.4620434388836
 30
0.0
 10
81.97224407036835
 20
153.82843531817
 30
0.0
  0
LINE
  5
21D
330
1F
100
AcDbEntity
  8
VERMASSUNG
  6
Continuous
370
    25
100
AcDbLine
 10
86.4186417073
 20
151.837890321
 30
0.0
 11
86.6575312728
 21
151.8014520584
 31
0.0
  0
ARC
  5
21E
330
1F
100
AcDbEntity
  8
VERMASSUNG
  6
Continuous
370
    25
100
AcDbCircle
 10
68.3547093743
 20
125.4239858639
 30
0.0
 40
32.00000000000003
100
AcDbArc
 50
0.0
 51
55.6325691608
  0
LINE
  5
21F
330
1F
100
AcDbEntity
  8
VERMASSUNG
  6
Continuous
370
    25
100
AcDbLine
 10
68.6547093743
 20
119.4150964461
 30
0.0
 11
68.6547093743
 21
152.4732317189
 31
0.0
  0
SPLINE
  5
220
330
1F
100
AcDbEntity
  8
VERMASSUNG
  6
Continuous
370
    25
100
AcDbSpline
210
0.0
220
0.0
230
1.0
 70
     8
 71
     3
 72
     9
 73
     5
 74
     0
 42
0.000000001
 43
0.00000001
 40
0.0
 40
0.0
 40
0.0
 40
0.0
 40
0.6518647949658505
 40
1.0
 40
1.0
 40
1.0
 40
1.0
 10
68.16624172724578
 20
93.92454967930492
 30
0.0
 10
68.21455151205433
 20
93.91743062460016
 30
0.0
 10
68.28866164222491
 20
93.9065095643439
 30
0.0
 10
68.33765356206996
 20
93.80421052894178
 30
0.0
 10
68.35470937413022
 20
93.76859663327724
 30
0.0
  0
SPLINE
  5
221
330
1F
100
AcDbEntity
  8
VERMASSUNG
  6
Continuous
370
    25
100
AcDbSpline
210
0.0
220
0.0
230
1.0
 70
     8
 71
     3
 72
    14
 73
    10
 74
     0
 42
0.000000001
 43
0.00000001
 40
0.0
 40
0.0
 40
0.0
 40
0.0
 40
0.25
 40
0.25
 40
0.5
 40
0.5
 40
0.75
 40
0.75
 40
1.0
 40
1.0
 40
1.0
 40
1.0
 10
64.20762364491634
 20
94.19816834130367
 30
0.0
 10
64.64450177255044
 20
94.14014676837665
 30
0.0
 10
65.0612201811425
 20
94.09410019692824
 30
0.0
 10
65.85485500711044
 20
94.02080871390743
 30
0.0
 10
66.23437938758065
 20
93.99357900660752
 30
0.0
 10
66.91527066512451
 20
93.9550441805505
 30
0.0
 10
67.22212704607134
 20
93.94319910205532
 30
0.0
 10
67.76110129613103
 20
93.92842574307525
 30
0.0
 10
67.98603384137256
 20
93.92562790038902
 30
0.0
 10
68.16624172724578
 20
93.92454967930492
 30
0.0
  0
SPLINE
  5
222
330
1F
100
AcDbEntity
  8
VERMASSUNG
  6
Continuous
370
    25
100
AcDbSpline
210
0.0
220
0.0
230
1.0
 70
     8
 71
     3
 72
    16
 73
    12
 74
     0
 42
0.000000001
 43
0.00000001
 40
0.0
 40
0.0
 40
0.0
 40
0.0
 40
0.2500000000000008
 40
0.2500000000000008
 40
0.5000000000000016
 40
0.5000000000000016
 40
0.6250000000000006
 40
0.6250000000000006
 40
0.7499999999999997
 40
0.7499999999999997
 40
1.0
 40
1.0
 40
1.0
 40
1.0
 10
67.83576828632386
 20
156.9197109729659
 30
0.0
 10
67.63949510893852
 20
156.9164770669085
 30
0.0
 10
67.41171682360853
 20
156.9109447287861
 30
0.0
 10
66.8912763593378
 20
156.8910508258631
 30
0.0
 10
66.60392602574281
 20
156.8768138426285
 30
0.0
 10
66.14105640255646
 20
156.8464881205303
 30
0.0
 10
65.98106135706705
 20
156.8348670154069
 30
0.0
 10
65.64952031955615
 20
156.8080520727567
 30
0.0
 10
65.47711479298266
 20
156.7927696758379
 30
0.0
 10
64.95014046477998
 20
156.7414491105061
 30
0.0
 10
64.58547154263321
 20
156.6999851830822
 30
0.0
 10
64.20762364491634
 20
156.649803386453
 30
0.0
  0
ARC
  5
223
330
1F
100
AcDbEntity
  8
VERMASSUNG
  6
Continuous
370
    25
100
AcDbCircle
 10
68.3547093743
 20
125.4239858639
 30
0.0
 40
32.10551373656973
100
AcDbArc
 50
355.3535493072
 51
55.2439551158
  0
ELLIPSE
  5
224
330
1F
100
AcDbEntity
  8
VERMASSUNG
  6
Continuous
370
    25
100
AcDbEllipse
 10
56.1397975977
 20
107.8591269042
 30
0.0
 11
-2.156649216541972
 21
3.14903545297723
 31
0.0
210
0.0
220
0.0
230
1.0
 40
0.6401414518
 41
0.0
 42
6.283185307179586
  0
ARC
  5
225
330
1F
100
AcDbEntity
  8
VERMASSUNG
  6
Continuous
370
    25
100
AcDbCircle
 10
68.3547093743
 20
125.4239858639
 30
0.0
 40
31.50000000000002
100
AcDbArc
 50
97.5651530928
 51
262.4348469072
  0
CIRCLE
  5
226
330
1F
100
AcDbEntity
  8
VERMASSUNG
  6
CENTERX2
100
AcDbCircle
 10
68.6547093743
 20
120.4228608481
 30
0.0
 40
39.99999999999999
  0
DIMENSION
  5
227
330
1F
100
AcDbEntity
  8
VERMASSUNG
100
AcDbDimension
  2
_D_5
 10
96.9389806218
 20
148.7071320955
 30
0.0
 11
105.4678176523
 21
157.235969126
 31
0.0
 70
   163
  1
<> min.
 71
     1
 42
-1.0
  3
SLDDIMSTYLE3
100
AcDbDiametricDimension
 15
40.3704381268
 25
92.1385896006
 35
0.0
 40
0.0
  0
INSERT
  5
23F
330
1F
100
AcDbEntity
  8
VERMASSUNG
100
AcDbBlockReference
  2
SW_CENTERMARKSYMBOL_0
 10
68.3547093743
 20
125.4239858639
 30
0.0
  0
OLE2FRAME
  5
240
330
1F
100
AcDbEntity
  8
0
100
AcDbOle2Frame
 70
     2
  3
Paintbrush-Bild
 10
13.8511154363
 20
38.264191557
 30
0.0
 11
51.6290888628
 21
31.9806341108
 31
0.0
 71
     2
 72
     0
 73
     1
 90
    12928
310
80552BED0767C5B32B40DDAF6807D121434000000000000000006FFBDDFB85D0
310
4940DDAF6807D121434000000000000000006FFBDDFB85D04940416F4BD60AFB
310
3F4000000000000000002BED0767C5B32B40416F4BD60AFB3F40000000000000
310
0000000000000100000000010000010000000100000000000100000000320000
310
D0CF11E0A1B11AE1000000000000000000000000000000003E000300FEFF0900
310
0600000000000000000000000100000001000000000000000010000002000000
310
01000000FEFFFFFF0000000000000000FFFFFFFFFFFFFFFFFFFFFFFFFFFFFFFF
310
FFFFFFFFFFFFFFFFFFFFFFFFFFFFFFFFFFFFFFFFFFFFFFFFFFFFFFFFFFFFFFFF
310
FFFFFFFFFFFFFFFFFFFFFFFFFFFFFFFFFFFFFFFFFFFFFFFFFFFFFFFFFFFFFFFF
310
FFFFFFFFFFFFFFFFFFFFFFFFFFFFFFFFFFFFFFFFFFFFFFFFFFFFFFFFFFFFFFFF
310
FFFFFFFFFFFFFFFFFFFFFFFFFFFFFFFFFFFFFFFFFFFFFFFFFFFFFFFFFFFFFFFF
310
FFFFFFFFFFFFFFFFFFFFFFFFFFFFFFFFFFFFFFFFFFFFFFFFFFFFFFFFFFFFFFFF
310
FFFFFFFFFFFFFFFFFFFFFFFFFFFFFFFFFFFFFFFFFFFFFFFFFFFFFFFFFFFFFFFF
310
FFFFFFFFFFFFFFFFFFFFFFFFFFFFFFFFFFFFFFFFFFFFFFFFFFFFFFFFFFFFFFFF
310
FFFFFFFFFFFFFFFFFFFFFFFFFFFFFFFFFFFFFFFFFFFFFFFFFFFFFFFFFFFFFFFF
310
FFFFFFFFFFFFFFFFFFFFFFFFFFFFFFFFFFFFFFFFFFFFFFFFFFFFFFFFFFFFFFFF
310
FFFFFFFFFFFFFFFFFFFFFFFFFFFFFFFFFFFFFFFFFFFFFFFFFFFFFFFFFFFFFFFF
310
FFFFFFFFFFFFFFFFFFFFFFFFFFFFFFFFFFFFFFFFFFFFFFFFFFFFFFFFFFFFFFFF
310
FFFFFFFFFFFFFFFFFFFFFFFFFFFFFFFFFFFFFFFFFFFFFFFFFFFFFFFFFFFFFFFF
310
FFFFFFFFFFFFFFFFFFFFFFFFFFFFFFFFFFFFFFFFFFFFFFFFFFFFFFFFFFFFFFFF
310
FDFFFFFFFEFFFFFFFEFFFFFFFEFFFFFF05000000060000000700000008000000
310
090000000A0000000B0000000C0000000D0000000E0000000F00000010000000
310
11000000120000001300000014000000150000001600000017000000FEFFFFFF
310
FFFFFFFFFFFFFFFFFFFFFFFFFFFFFFFFFFFFFFFFFFFFFFFFFFFFFFFFFFFFFFFF
310
FFFFFFFFFFFFFFFFFFFFFFFFFFFFFFFFFFFFFFFFFFFFFFFFFFFFFFFFFFFFFFFF
310
FFFFFFFFFFFFFFFFFFFFFFFFFFFFFFFFFFFFFFFFFFFFFFFFFFFFFFFFFFFFFFFF
310
FFFFFFFFFFFFFFFFFFFFFFFFFFFFFFFFFFFFFFFFFFFFFFFFFFFFFFFFFFFFFFFF
310
FFFFFFFFFFFFFFFFFFFFFFFFFFFFFFFFFFFFFFFFFFFFFFFFFFFFFFFFFFFFFFFF
310
FFFFFFFFFFFFFFFFFFFFFFFFFFFFFFFFFFFFFFFFFFFFFFFFFFFFFFFFFFFFFFFF
310
FFFFFFFFFFFFFFFFFFFFFFFFFFFFFFFFFFFFFFFFFFFFFFFFFFFFFFFFFFFFFFFF
310
FFFFFFFFFFFFFFFFFFFFFFFFFFFFFFFFFFFFFFFFFFFFFFFFFFFFFFFFFFFFFFFF
310
FFFFFFFFFFFFFFFFFFFFFFFFFFFFFFFFFFFFFFFFFFFFFFFFFFFFFFFFFFFFFFFF
310
FFFFFFFFFFFFFFFFFFFFFFFFFFFFFFFFFFFFFFFFFFFFFFFFFFFFFFFFFFFFFFFF
310
FFFFFFFFFFFFFFFFFFFFFFFFFFFFFFFFFFFFFFFFFFFFFFFFFFFFFFFFFFFFFFFF
310
FFFFFFFFFFFFFFFFFFFFFFFFFFFFFFFFFFFFFFFFFFFFFFFFFFFFFFFFFFFFFFFF
310
FFFFFFFFFFFFFFFFFFFFFFFFFFFFFFFFFFFFFFFFFFFFFFFFFFFFFFFFFFFFFFFF
310
52006F006F007400200045006E00740072007900000000000000000000000000
310
0000000000000000000000000000000000000000000000000000000000000000
310
16000500FFFFFFFFFFFFFFFF020000000A00030000000000C000000000000046
310
000000000000000000000000403D897B17A0D30103000000C000000000000000
310
01004F006C006500000000000000000000000000000000000000000000000000
310
0000000000000000000000000000000000000000000000000000000000000000
310
0A000200FFFFFFFFFFFFFFFFFFFFFFFF00000000000000000000000000000000
310
0000000000000000000000000000000000000000000000001400000000000000
310
010043006F006D0070004F0062006A0000000000000000000000000000000000
310
0000000000000000000000000000000000000000000000000000000000000000
310
120002010100000003000000FFFFFFFF00000000000000000000000000000000
310
0000000000000000000000000000000000000000010000004D00000000000000
310
01004F006C006500310030004E00610074006900760065000000000000000000
310
0000000000000000000000000000000000000000000000000000000000000000
310
1A000200FFFFFFFFFFFFFFFFFFFFFFFF00000000000000000000000000000000
310
0000000000000000000000000000000000000000040000002426000000000000
310
FEFFFFFF02000000FEFFFFFFFFFFFFFFFFFFFFFFFFFFFFFFFFFFFFFFFFFFFFFF
310
FFFFFFFFFFFFFFFFFFFFFFFFFFFFFFFFFFFFFFFFFFFFFFFFFFFFFFFFFFFFFFFF
310
FFFFFFFFFFFFFFFFFFFFFFFFFFFFFFFFFFFFFFFFFFFFFFFFFFFFFFFFFFFFFFFF
310
FFFFFFFFFFFFFFFFFFFFFFFFFFFFFFFFFFFFFFFFFFFFFFFFFFFFFFFFFFFFFFFF
310
FFFFFFFFFFFFFFFFFFFFFFFFFFFFFFFFFFFFFFFFFFFFFFFFFFFFFFFFFFFFFFFF
310
FFFFFFFFFFFFFFFFFFFFFFFFFFFFFFFFFFFFFFFFFFFFFFFFFFFFFFFFFFFFFFFF
310
FFFFFFFFFFFFFFFFFFFFFFFFFFFFFFFFFFFFFFFFFFFFFFFFFFFFFFFFFFFFFFFF
310
FFFFFFFFFFFFFFFFFFFFFFFFFFFFFFFFFFFFFFFFFFFFFFFFFFFFFFFFFFFFFFFF
310
FFFFFFFFFFFFFFFFFFFFFFFFFFFFFFFFFFFFFFFFFFFFFFFFFFFFFFFFFFFFFFFF
310
FFFFFFFFFFFFFFFFFFFFFFFFFFFFFFFFFFFFFFFFFFFFFFFFFFFFFFFFFFFFFFFF
310
FFFFFFFFFFFFFFFFFFFFFFFFFFFFFFFFFFFFFFFFFFFFFFFFFFFFFFFFFFFFFFFF
310
FFFFFFFFFFFFFFFFFFFFFFFFFFFFFFFFFFFFFFFFFFFFFFFFFFFFFFFFFFFFFFFF
310
FFFFFFFFFFFFFFFFFFFFFFFFFFFFFFFFFFFFFFFFFFFFFFFFFFFFFFFFFFFFFFFF
310
FFFFFFFFFFFFFFFFFFFFFFFFFFFFFFFFFFFFFFFFFFFFFFFFFFFFFFFFFFFFFFFF
310
FFFFFFFFFFFFFFFFFFFFFFFFFFFFFFFFFFFFFFFFFFFFFFFFFFFFFFFFFFFFFFFF
310
FFFFFFFFFFFFFFFFFFFFFFFFFFFFFFFFFFFFFFFFFFFFFFFFFFFFFFFFFFFFFFFF
310
0100000200000000000000000000000000000000000000000000000000000000
310
0000000000000000000000000000000000000000000000000000000000000000
310
0100FEFF030A0000FFFFFFFF0A00030000000000C00000000000004607000000
310
5042727573680007000000504272757368000700000050427275736800F439B2
310
7100000000000000000000000000000000000000000000000000000000000000
310
0000000000000000000000000000000000000000000000000000000000000000
310
0000000000000000000000000000000000000000000000000000000000000000
310
0000000000000000000000000000000000000000000000000000000000000000
310
0000000000000000000000000000000000000000000000000000000000000000
310
0000000000000000000000000000000000000000000000000000000000000000
310
0000000000000000000000000000000000000000000000000000000000000000
310
0000000000000000000000000000000000000000000000000000000000000000
310
0000000000000000000000000000000000000000000000000000000000000000
310
0000000000000000000000000000000000000000000000000000000000000000
310
0000000000000000000000000000000000000000000000000000000000000000
310
0000000000000000000000000000000000000000000000000000000000000000
310
20260000424D0E260000000000003E00000028000000B40200006E0000000100
310
01000000000000000000130B0000130B00000200000002000000000000FFFFFF
310
FFFFFFFFFFFFFFFFFFFFFFFFFFFFFFFFFFFFFFFFFFFFFFFFFFFFFFFFFFFFFFFF
310
FFFFFFFFFFFFFFFFFFFFFFFFFFFFFFFFFFFFFFFFFFFFFFFFFFFFFFFFFFFFFFFF
310
FFFFFFFFFFFFFFFFFFFFFFFFFFFFFFFFFFFFFFFFFFFFFFFFF000FFFFFFFFFFFF
310
FFFFFFFFFFFFFFFFFFFFFFFFFFFFFFFFFFFFFFFFFFFFFFFFFFFFFFFFFFFFFFFF
310
FFFFFFFFFFFFFFFFFFFFFFFFFFFFFFFFFFFFFFFFFFFFFFFFFFFFFFFFFFFFFFFF
310
FFFFFFFFFFFFFFFFFFFFFFFFFFFFFFFFF000FFFFFFFFFFFFFFFFFFFFFFFFFFFF
310
FFFFFFFFFFFFFFFFFFFFFFFFFFFFFFFFFFFFFFFFFFFFFFFFFFFFFFFFFFFFFFFF
310
FFFFFFFFFFFFFFFFFFFFFFFFFFFFFFFFFFFFFFFFFFFFFFFFFFFFFFFFFFFFFFFF
310
FFFFFFFFFFFFFFFFF000FFFFFFFFFFFFFFFFFFFFFFFFFFFFFFFFFFFFFFFFFFFF
310
FFFFFFFFFFFFFFFFFFFFFFFFFFFFFFFFFFFFFFFFFFFFFFFFFFFFFFFFFFFFFFFF
310
FFFFFFFFFFFFFFFFFFFFFFFFFFFFFFFFFFFFFFFFFFFFFFFFFFFFFFFFFFFFFFFF
310
F000FFFFFFFFFFFFFFFFFFFFFFFFFFFFFFFFFFFFFFFFFFFFFFFFFFFFFFFFFFFF
310
FFFFFFFFFFFFFFFFFFFFFFFFFFFFFFFFFFFFFFFFFFFFFFFFFFFFFFFFFFFFFFFF
310
FFFFFFFFFFFFFFFFFFFFFFFFFFFFFFFFFFFFFFFFFFFFFFFFF000FFFFFFFFFFFF
310
FFFFFFFFFFFFFFFFFFFFFFFFFFFFFFFFFFFFFFFFFFFFFFFFFFFFFFFFFFFFFFFF
310
FFFFFFFFFFFFFFFFFFFFFFFFFFFFFFFFFFFFFFFFFFFFFFFFFFFFFFFFFFFFFFFF
310
FFFFFFFFFFFFFFFFFFFFFFFFFFFFFFFFF000FFFFFFFFFFFFFFFFFFFFFFFFFFFF
310
FFFFFFFFFFFFFFFFFFFFFFFFFFFFFFFFFFFFFFFFFFFFFFFFFFFFFFFFFFFFFFFF
310
FFFFFFFFFFFFFFFFFFFFFFFFFFFFFFFFFFFFFFFFFFFFFFFFFFFFFFFFFFFFFFFF
310
FFFFFFFFFFFFFFFFF000FFFFFFFFFFFFFFFFFFFFFFFFFFFFFFFFFFFFFFFFFFFF
310
FFFFFFFFFFFFFFFFFFFFFFFFFFFFFFFFFFFFFFFFFFFFFFFFFFFFFFFFFFFFFFFF
310
FFFFFFFFFFFFFFFFFFFFFFFFFFFFFFFFFFFFFFFFFFFFFFFFFFFFFFFFFFFFFFFF
310
F000FFFFFFFFFFFFFFFFFFFFFFFFFFFFFFFFFFFFFFFFFFFFFFFFFFFFFFFFFFFF
310
FFFFFFFFFFFFFFFFFFFFFFFFFFFFFFFFFFFFFFFFFFFFFFFFFFFFFFFFFFFFFFFF
310
FFFFFFFFFFFFFFFFFFFFFFFFFFFFFFFFFFFFFFFFFFFFFFFFF000FFFFFFFFFFFF
310
FFFFFFFFFFFFFFFFFFFFFFFFFFFFFFFFFFFFFFFFFFFFFFFFFFFFFFFFFFFFFFFF
310
FFFFFFFFFFFFFFFFFFFFFFFFFFFFFFFFFFFFFFFFFFFFFFFFFFFFFFFFFFFFFFFF
310
FFFFFFFFFFFFFFFFFFFFFFFFFFFFFFFFF000FFFFFFFFFFFFFFFFFFFFFFFFFFFF
310
FFFFFFFFFFFFFFFFFFFFFFFFFFFFFFFFFFFFFFFFFFFFFFFFFFFFFFFFFFFFFFFF
310
FFFFFFFFFFFFFFFFFFFFFFFFFFFFFFFFFFFFFFFFFFFFFFFFFFFFFFFFFFFFFFFF
310
FFFFFFFFFFFFFFFFF000FFFFFFFFFFFFFFFFFFFFFFFFFFFFFFFFFFFFFFFFFFFF
310
FFFFFFFFFFFFFFFFFFFFFFFFFFFFFFFFFFFFFFFFFFFFFFFFFFFFFFFFFFFFFFFF
310
FFFFFFFFFFFFFFFFFFFFFFFFFFFFFFFFFFFFFFFFFFFFFFFFFFFFFFFFFFFFFFFF
310
F000FFFFFFFFFFFFFFFFFFFFFFFFFFFFFFFFFFFFFFFFFFFFFFFFFFFFFFFFFFFF
310
FFFFFFFFFFFFFFFFFFFFFFFFFFFFFFFFFFFFFFFFFFFFFFFFFFFFFFFFFFFFFFFF
310
FFFFFFFFFFFFFFFFFFFFFFFFFFFFFFFFFFFFFFFFFFFFFFFFF000FFFFFFFFFFFF
310
FFFFFFFFFFFFFFFFFFFFFFFFFFFFFFFFFFFFFFFFFFFFFFFFFFFFFFFFFFFFFFFF
310
FFFFFFFFFFFFFFFFFFFFFFFFFFFFFFFFFFFFFFFFFFFFFFFFFFFFFFFFFFFFFFFF
310
FFFFFFFFFFFFFFFFFFFFFFFFFFFFFFFFF000FFFFFFFFFFFFFFFFFFFFFFFFFFFF
310
FFFFFFFFFFFFFFFFFFFFFFFFFFFFFFFFFFFFFFFFFFFFFFFFFFFFFFFFFFFFFFFF
310
FFFFFFFFFFFFFFFFFFFFFFFFFFFFFFFFFFFFFFFFFFFFFFFFFFFFFFFFFFFFFFFF
310
FFFFFFFFFFFFFFFFF000FFFFFFFFFFFFFFFFFFFFFFFFFFFFFFFFFFFFFFFFFFFF
310
FFFFFFFFFFFFFFFFFFFFFFFFFFFFFFFFFFFFFFFFFFFFFFFFFFFFFFFFFFFFFFFF
310
FFFFFFFFFFFFFFFFFFFFFFFFFFFFFFFFFFFFFFFFFFFFFFFFFFFFFFFFFFFFFFFF
310
F000FFFFFFFFFFFFFFFFFFFFFFFFFFFFFFFFFFFFFFFFFFFFFFFFFFFFFFFFFFFF
310
FFFFFFFFFFFFFFFFFFFFFFFFFFFFFFFFFFFFFFFFFFFFFFFFFFFFFFFFFFFFFFFF
310
FFFFFFFFFFFFFFFFFFFFFFFFFFFFFFFFFFFFFFFFFFFFFFFFF000FFFFFFFFFFFF
310
FFFFFFFFFFFFFFFFFFFFFFFFFFFFFFFFFFFFFFFFFFFFFFFFFFFFFFFFFFFFFFFF
310
FFFFFFFFFFFFFFFFFFFFFFFFFFFFFFFFFFFFFFFFFFFFFFFFFFFFFFFFFFFFFFFF
310
FFFFFFFFFFFFFFFFFFFFFFFFFFFFFFFFF000FFFFFFFFFFFFFFFFFFFFFFFFFFFF
310
FFFFFFFFFFFFFFFFFFFFFFFFFFFFFFFFFFFFFFFFFFFFFFFFFFFFFFFFFFFFFFFF
310
FFFFFFFFFFFFFFFFFFFFFFFFFFFFFFFFFFFFFFFFFFFFFFFFFFFFFFFFFFFFFFFF
310
FFFFFFFFFFFFFFFFF000FFFFF80003FFFFFFFFFFFFFFFFFFFFFFFFFFFFFFFFFF
310
FFFFF00007FFFFFFFFFF00007FFFFFF800000000000000007FFFFFFFFFFFFFFF
310
FFFFFFFC001FFFFFFFFFFFFFFC001FFFFFFFFFFFFFFFFFFFFFFFFFFE0007FFFF
310
F000FFFF8000007FFFFFFFF8000FFFFFC0007FFFFF80007FFFFF0000007FFFFF
310
FFF8000007FFFFF800000000000000007FFFFFF0001FFFFFFFFFFFC00001FFFF
310
FFFFFFFFC00001FFFFFFFF000000000003FFFFE000007FFFF000FFFE0000000F
310
FFFFFFF0000FFFFF80007FFFFF80007FFFFC0000001FFFFFFFC0000001FFFFF8
310
00000000000000007FFFFFF0001FFFFFFFFFFE0000003FFFFFFFFFFE0000003F
310
FFFFFF000000000003FFFF0000000FFFF000FFF800000003FFFFFFF00007FFFF
310
80007FFFFF80007FFFF000000007FFFFFF000000003FFFF80000000000000000
310
7FFFFFF0001FFFFFFFFFF80000000FFFFFFFFFF80000000FFFFFFF0000000000
310
03FFFC00000003FFF000FFE000000000FFFFFFF00007FFFF80003FFFFF80007F
310
FFC000000001FFFFFC000000001FFFF800000000000000007FFFFFF0001FFFFF
310
FFFFE000000003FFFFFFFFE000000003FFFFFF000000000003FFF000000000FF
310
F000FF80000000007FFFFFF00007FFFF80003FFFFF80007FFF8000000000FFFF
310
F80000000007FFF800000000000000007FFFFFF0001FFFFFFFFFC000000001FF
310
FFFFFFC000000001FFFFFF000000000003FFC0000000007FF000FF0000000000
310
3FFFFFE00007FFFF00003FFFFF80007FFE00000000003FFFF00000000003FFF8
310
00000000000000007FFFFFF0001FFFFFFFFF8000000000FFFFFFFF8000000000
310
FFFFFF000000000003FF80000000003FF000FE00000000001FFFFFE00003FFFF
310
00003FFFFF80007FFC00000000001FFFE00000000001FFF8000001FFFE000000
310
7FFFFFF0001FFFFFFFFE00000000003FFFFFFE00000000003FFFFF0000000000
310
03FF00000000001FF000FC00000000000FFFFFE00003FFFF00001FFFFF80007F
310
F800000000001FFFC00000000000FFF8000001FFFE0000007FFFFFF0001FFFFF
310
FFFC00000000001FFFFFFC00000000001FFFFF000000000003FE00000000000F
310
F000F8000000000007FFFFE00003FFFF00001FFFFF80007FF800000000000FFF
310
800000000000FFF8000001FFFE0000007FFFFFF0001FFFFFFFF800000000000F
310
FFFFF800000000000FFFFF000000000003FC000000000007F000F80000000000
310
03FFFFC00003FFFE00001FFFFF80007FF0000000000007FF0000000000007FF8
310
000001FFFE0000007FFFFFF0001FFFFFFFF0000000000007FFFFF00000000000
310
07FFFF000000000003F8000000000003F000F0000000000003FFFFC00001FFFE
310
00001FFFFF80007FE0000000000007FE0000000000003FF8000001FFFE000000
310
7FFFFFF0001FFFFFFFF0000000000007FFFFF0000000000007FFFF0000000000
310
03F800001F800003F000E00001FFF00001FFFFC00001FFFE00000FFFFF80007F
310
E00001FFE00003FE00001FFF00003FF8000001FFFE0000007FFFFFF0001FFFFF
310
FFE000003E000003FFFFE000003E000003FFFF000000000003F00001FFF80001
310
F000E00007FFFC0001FFFFC00001FFFE00000FFFFF80007FC0000FFFFC0003FC
310
0000FFFFC0001FF8000001FFFE0000007FFFFFF0001FFFFFFFC00003FFE00001
310
FFFFC00003FFE00001FFFF0001FFFFFFFFF00007FFFE0001F000E0000FFFFF00
310
00FFFF800001FFFC00000FFFFF80007FC0001FFFFE0001FC0001FFFFE0001FF8
310
000001FFFE0000007FFFFFF0001FFFFFFF80000FFFF80000FFFF80000FFFF800
310
00FFFF0003FFFFFFFFE0000FFFFF8000F000C0003FFFFF8000FFFF800000FFFC
310
000007FFFF80007F80003FFFFF0001FC0003FFFFF0001FF8000001FFFE000000
310
7FFFFFF0001FFFFFFF80003FFFFE0000FFFF80003FFFFE0000FFFF0003FFFFFF
310
FFE0003FFFFF8000F000C0003FFFFF8000FFFF800000FFFC000007FFFF80007F
310
80007FFFFF8001F80007FFFFF8000FF8000001FFFE0000007FFFFFF0001FFFFF
310
FF00007FFFFF00007FFF00007FFFFF00007FFF0003FFFFFFFFE0003FFFFFC000
310
F000C0007FFFFFC000FFFF000000FFFC000007FFFF80007F8000FFFFFF8000F8
310
000FFFFFF8000FF8000001FFFE0000007FFFFFF0001FFFFFFF0000FFFFFF8000
310
7FFF0000FFFFFF80007FFF0003FFFFFFFFC0007FFFFFC00070008000FFFFFFC0
310
00FFFF000000FFF8000007FFFF80007F8000FFFFFF8000F8000FFFFFF8000FF8
310
000001FFFE0000007FFFFFF0001FFFFFFE0001FFFFFFC0003FFE0001FFFFFFC0
310
003FFF0003FFFFFFFFC0007FFFFFE00070008000FFFFFFC0007FFF0000007FF8
310
000003FFFF80007F0001FFFFFF8000F8000FFFFFF8000FF8000001FFFE000000
310
7FFFFFF0001FFFFFFE0001FFFFFFC0003FFE0001FFFFFFC0003FFF0003FFFFFF
310
FFC000FFFFFFE00070008000FFFFFFC0007FFF0000007FF8000003FFFF80007F
310
0001FFFFFF8000F8001FFFFFF8000FF8000001FFFE0000007FFFFFF0001FFFFF
310
FE0003FFFFFFE0003FFE0003FFFFFFE0003FFF0003FFFFFFFFC000FFFFFFE000
310
70008000FFFFFFC0007FFE0000007FF8000003FFFF80007F0001FFFFFF8000F0
310
001FFFFFF8000FF8000001FFFE0000007FFFFFF0001FFFFFFC0003FFFFFFE000
310
1FFC0003FFFFFFE0001FFF0003FFFFFFFFC000FFFFFFC00070008000FFFFFF80
310
007FFE0000007FF0000003FFFF80007F0001FFFFFF0000F0001FFFFFF8000FF8
310
000001FFFE0000007FFFFFF0001FFFFFFC0007FFFFFFF0001FFC0007FFFFFFF0
310
001FFF0003FFFFFFFFC000FFFFFFC00070008001FFFFFF0000FFFE0000003FF0
310
000001FFFF80007F0001FFFFFF0000F8001FFFFFF0000FF8000001FFFE000000
310
7FFFFFF0001FFFFFFC0007FFFFFFF0001FFC0007FFFFFFF0001FFF0003FFFFFF
310
FFC001FFFFFF80007000FFFFFFFFFE0000FFFE0008003FF0008001FFFF80007F
310
FFFFFFFFFC0000FFFFFFFFFFE0000FF8000001FFFE0000007FFFFFF0001FFFFF
310
F8000FFFFFFFF8000FF8000FFFFFFFF8000FFF0003FFFFFFFFFFFFFFFFFF0000
310
7000FFFFFFFFFC0000FFFC0008003FF0008001FFFF80007FFFFFFFFFF80001FF
310
FFFFFFFF80000FF8000001FFFE0000007FFFFFF0001FFFFFF8000FFFFFFFF800
310
0FF8000FFFFFFFF8000FFF0003FFFFFFFFFFFFFFFFFE0000F000FFFFFFFFE000
310
00FFFC000C003FE000C001FFFF80007FFFFFFFFFC00001FFFFFFFFFE00001FF8
310
000001FFFE0000007FFFFFF0001FFFFFF8000FFFFFFFF8000FF8000FFFFFFFF8
310
000FFF0003FFFFFFFFFFFFFFFFF00000F000FFFFFFFE000001FFFC000C001FE0
310
00C000FFFF80007FFFFFFFFE000001FFFFFFFFE000001FF80FFFFFFFFFFFFFC0
310
7FFFFFF0001FFFFFF8000FFFFFFFF8000FF8000FFFFFFFF8000FFF0003FFFFFF
310
FFFFFFFFFF800000F000FFFFFFC0000001FFFC001C001FE001C000FFFF80007F
310
FFFFFF80000003FFFFFFF80000001FF80FFFFFFFFFFFFFC07FFFFFF0001FFFFF
310
F8001FFFFFFFFC000FF8001FFFFFFFFC000FFF0003FFFFFFFFFFFFFFF0000001
310
F000FFFFF800000001FFF8001C001FE001C000FFFF80007FFFFFF800000003FF
310
FFFF800000003FF80FFFFFFFFFFFFFC07FFFFFF0001FFFFFF8001FFFFFFFFC00
310
0FF8001FFFFFFFFC000FFF0003FFFFFFFFFFFFFE00000001F000FFFFC0000000
310
03FFF8001E001FC001E000FFFF80007FFFFF8000000007FFFFFC000000003FF8
310
0FFFFFFFFFFFFFC07FFFFFF0001FFFFFF8001FFFFFFFFC000FF8001FFFFFFFFC
310
000FFF0003FFFFFFFFFFFFE000000003F000FFFE0000000007FFF8001E000FC0
310
01E0007FFF80007FFFFE0000000007FFFFE0000000007FF80FFFFFFFFFFFFFC0
310
7FFFFFF0001FFFFFF0001FFFFFFFFC0007F0001FFFFFFFFC0007FF0003FFFFFF
310
FFFFFF0000000003F000FFF80000000007FFF8001E000FC003E0007FFF80007F
310
FFF0000000000FFFFF8000000000FFF80FFFFFFFFFFFFFC07FFFFFF0001FFFFF
310
F0001FFFFFFFFC0007F0001FFFFFFFFC0007FF0003FFFFFFFFFFFC0000000007
310
F000FFE0000000000FFFF0003E000FC003E0007FFF80007FFFC0000000001FFF
310
FE0000000001FFF80FFFFFFFFFFFFFC07FFFFFF0001FFFFFF0001FFFFFFFFC00
310
07F0001FFFFFFFFC0007FF0003FFFFFFFFFFF0000000000FF000FFC000000000
310
1FFFF0003F000F8003F0003FFF80007FFF80000000003FFFF80000000003FFF8
310
0FFFFFFFFFFFFFC07FFFFFF0001FFFFFF0001FFFFFFFFC0007F0001FFFFFFFFC
310
0007FF0003FFFFFFFFFFE0000000001FF000FF00000000007FFFF0003F000780
310
03F0003FFF80007FFF00000000007FFFF00000000007FFF80FFFFFFFFFFFFFC0
310
7FFFFFF0001FFFFFF0001FFFFFFFFC0007F0001FFFFFFFFC0007FF0003FFFFFF
310
FFFF80000000007FF000FE0000000000FFFFE0003F00078007F0003FFF80007F
310
FE0000000001FFFFE0000000001FFFF80FFFFFFFFFFFFFC07FFFFFF0001FFFFF
310
F0001FFFFFFFFC0007F0001FFFFFFFFC0007FF0003FFFFFFFFFF0000000000FF
310
F000FC0000000003FFFFE0007F00078007F0003FFF80007FFC0000000007FFFF
310
C0000000007FFFF80FFFFFFFFFFFFFC07FFFFFF0001FFFFFF8001FFFFFFFFC00
310
0FF8001FFFFFFFFC000FFF0003FFFFFFFFFE0000000003FFF000FC000000000F
310
FFFFE0007F80070007F8001FFF80007FF8000000001FFFFF8000000001FFFFF8
310
0FFFFFFFFFFFFFC07FFFFFF0001FFFFFF8001FFFFFFFFC000FF8001FFFFFFFFC
310
000FFF0003FFFFFFFFFC000000000FFFF000F8000000007FFFFFE0007F800700
310
07F8001FFF80007FF000000000FFFFFF800000000FFFFFF80FFFFFFFFFFFFFC0
310
7FFFFFF0001FFFFFF8000FFFFFFFF8000FF8000FFFFFFFF8000FFF0003FFFFFF
310
FFFC000000007FFFF000F800000007FFFFFFC0007F8003000FF8001FFF80007F
310
F000000007FFFFFF000000007FFFFFF80FFFFFFFFFFFFFC07FFFFFF0001FFFFF
310
F8000FFFFFFFF8000FF8000FFFFFFFF8000FFF0003FFFFFFFFF80000000FFFFF
310
F000F0000000FFFFFFFFC000FF8003000FF8001FFF80007FE0000000FFFFFFFF
310
0000000FFFFFFFF8000001FFFE0000007FFFFFF0001FFFFFF8000FFFFFFFF800
310
0FF8000FFFFFFFF8000FFF0003FFFFFFFFF8000000FFFFFFF000F000000FFFFF
310
FFFFC000FFC002000FF8000FFF80007FE000001FFFFFFFFE000001FFFFFFFFF8
310
000001FFFE0000007FFFFFF0001FFFFFF8000FFFFFFFF8000FF8000FFFFFFFF8
310
000FFF0003FFFFFFFFF000001FFFFFFFF000E00000FFFFFFFFFFC000FFC00200
310
0FFC000FFF80007FE00001FFFFFFFFFE00001FFFFFFFFFF8000001FFFE000000
310
7FFFFFF0001FFFFFFC000FFFFFFFF8001FFC000FFFFFFFF8001FFF0003FFFFFF
310
FFF00001FFFFFFFFF000E00007FFFFFFFFFF8000FFC000001FFC000FFF80007F
310
C0000FFFFFFFFFFE0000FFFFFFFFFFF8000001FFFE0000007FFFFFF0001FFFFF
310
FC0007FFFFFFF0001FFC0007FFFFFFF0001FFF0003FFFFFFFFF00007FFFFFFFF
310
F000E0001FFFFFFFFFFF8000FFC000001FFC000FFF80007FC0003FFFFFFFFFFE
310
0001FFFFFFFFFFF8000001FFFE0000007FFFFFF0001FFFFFFC0007FFFFFFF000
310
1FFC0007FFFFFFF0001FFF0003FFFFFFFFF0001FFFFFFFFFF000E0003FFFFF00
310
03FF8001FFE000001FFC0007FF80007FC0007FFFFF0007FC0003FFFFF0003FF8
310
000001FFFE0000007FFFFFF0001FFFFFFC0003FFFFFFE0001FFC0003FFFFFFE0
310
001FFF0003FFFFFFFFF0003FFFFFFFFFF000E0003FFFFF0001FF8001FFE00000
310
1FFE0007FF80007FC0007FFFFE0003FC0007FFFFE0003FF8000001FFFE000000
310
7FFFFFF0001FFFFFFE0003FFFFFFE0003FFE0003FFFFFFE0003FFF0003FFFFFF
310
FFF0003FFFFF8001F000E0003FFFFF0001FF0001FFE000001FFE0007FF80007F
310
C0007FFFFE0003FC0007FFFFE0003FF8000001FFFE0000007FFFFFF0001FFFFF
310
FE0001FFFFFFC0003FFE0001FFFFFFC0003FFF0003FFFFFFFFF0003FFFFF0001
310
F000E0003FFFFF0003FF0001FFE000003FFE0007FF80007FC0007FFFFE0003FC
310
0007FFFFE0003FF8000001FFFE0000007FFFFFF0001FFFFFFF0001FFFFFFC000
310
7FFF0001FFFFFFC0007FFF0003FFFFFFFFF0003FFFFF0001F000E0003FFFFE00
310
03FF0003FFF000003FFE0003FF80007FC0007FFFFC0003FE0007FFFFE0003FF8
310
000001FFFE0000007FFFFFF0001FFFFFFF0000FFFFFF80007FFF0000FFFFFF80
310
007FFF0003FFFFFFFFF0003FFFFF0001F000E0003FFFFE0003FF0003FFF00000
310
3FFF0003FF80007FC0007FFFFC0007FE0007FFFFC0003FF8000001FFFE000000
310
7FFFFFF0001FFFFFFF80007FFFFF0000FFFF80007FFFFF0000FFFF0003FFFFFF
310
FFF0003FFFFF0003F000E0003FFFFC0003FE0003FFF000003FFF0003FF80007F
310
E0003FFFF80007FE0003FFFFC0007FF8000001FFFE0000007FFFFFF0001FFFFF
310
FF80003FFFFE0000FFFF80003FFFFE0000FFFF0003FFFFFFFFF0001FFFFE0003
310
F000F0001FFFF80003FE0003FFF000007FFF0001FF80007FE0003FFFF00007FE
310
0001FFFF80007FF8000001FFFE0000007FFFFFF0001FFFFFFFC0000FFFF80001
310
FFFFC0000FFFF80001FFFF0003FFFFFFFFF0001FFFFC0003F000F0000FFFF000
310
07FE0007FFF800007FFF0001FF80007FE0001FFFE00007FF0000FFFE00007FF8
310
000001FFFE0000007FFFFFF0001FFFFFFFC00003FFE00001FFFFC00003FFE000
310
01FFFF0003FFFFFFFFF8000FFFF80003F000F00003FFC00007FC0007FFF80000
310
7FFF8001FF80007FF00007FF80000FFF00007FF80000FFF8000001FFFE000000
310
7F80000000000001FFE000003E000003FFFFE000003E000003FFFF0003FFFFFF
310
FFF80003FFE00007F000F800000000000FFC0007FFF800007FFF8001FF80007F
310
F000000000000FFF000000000000FFF8000001FFFE0000007F80000000000001
310
FFF0000000000007FFFFF0000000000007FFFF0003FFFFFFFFFC00007E000007
310
F000F800000000000FFC0007FFF80000FFFF8000FF80007FF800000000001FFF
310
800000000001FFF8000001FFFE0000007F80000000000001FFF800000000000F
310
FFFFF800000000000FFFFF0003FFFFFFFFFC00000000000FF000FC0000000000
310
1FFC0007FFFC0000FFFF8000FF80007FF800000000003FFFC00000000001FFF8
310
000001FFFE0000007F80000000000001FFF800000000000FFFFFF80000000000
310
0FFFFF0003FFFFFFFFFE00000000001FF000FE00000000003FF8000FFFFC0000
310
FFFF8000FF80007FFC00000000003FFFC00000000003FFF8000001FFFE000000
310
7F80000000000001FFFC00000000001FFFFFFC00000000001FFFFF0003FFFFFF
310
FFFF00000000001FF000FF00000000003FF8000FFFFC0000FFFFC000FF80007F
310
FE00000000007FFFE00000000007FFF8000001FFFE0000007F80000000000001
310
FFFE00000000003FFFFFFE00000000003FFFFF0003FFFFFFFFFF80000000003F
310
F000FF80000000007FF8000FFFFC0001FFFFC0007F80007FFF0000000000FFFF
310
F0000000000FFFF800000000000000007F80000000000001FFFF8000000000FF
310
FFFFFF8000000000FFFFFF0003FFFFFFFFFFC0000000007FF000FFC000000000
310
FFF8000FFFFE0001FFFFC0007F80007FFF8000000001FFFFF8000000001FFFF8
310
00000000000000007F80000000000001FFFFC000000001FFFFFFFFC000000001
310
FFFFFF0003FFFFFFFFFFE000000000FFF000FFE000000003FFF0001FFFFE0001
310
FFFFC0007F80007FFFC000000007FFFFFE000000003FFFF80000000000000000
310
7F80000000000001FFFFE000000003FFFFFFFFE000000003FFFFFF0003FFFFFF
310
FFFFF000000003FFF000FFF80000000FFFF0001FFFFE0001FFFFE0007F80007F
310
FFF00000000FFFFFFF00000000FFFFF800000000000000007F80000000000001
310
FFFFF80000000FFFFFFFFFF80000000FFFFFFF0003FFFFFFFFFFFC0000000FFF
310
F000FFFE0000003FFFF0001FFFFE0003FFFFE0003F80007FFFFC0000003FFFFF
310
FFC0000003FFFFF800000000000000007F80000000000001FFFFFE0000003FFF
310
FFFFFFFE0000003FFFFFFF0003FFFFFFFFFFFF0000003FFFF000FFFF800000FF
310
FFF0001FFFFF0003FFFFE0003F80007FFFFF000001FFFFFFFFF800001FFFFFF8
310
00000000000000007F80000000000001FFFFFFC00001FFFFFFFFFFFFC00001FF
310
FFFFFF0003FFFFFFFFFFFFC00000FFFFF000FFFFF8000FFFFFFFFFFFFFFFFFFF
310
FFFFFFFFFFFFFFFFFFFFF0001FFFFFFFFFFF0000FFFFFFF80000000000000000
310
7FFFFFFFFFFFFFFFFFFFFFFC001FFFFFFFFFFFFFFC001FFFFFFFFFFFFFFFFFFF
310
FFFFFFFC001FFFFFF000FFFFFFFFFFFFFFFFFFFFFFFFFFFFFFFFFFFFFFFFFFFF
310
FFFFFFFFFFFFFFFFFFFFFFFFFFFFFFFFFFFFFFFFFFFFFFFFFFFFFFFFFFFFFFFF
310
FFFFFFFFFFFFFFFFFFFFFFFFFFFFFFFFFFFFFFFFFFFFFFFFFFFFFFFFFFFFFFFF
310
F000FFFFFFFFFFFFFFFFFFFFFFFFFFFFFFFFFFFFFFFFFFFFFFFFFFFFFFFFFFFF
310
FFFFFFFFFFFFFFFFFFFFFFFFFFFFFFFFFFFFFFFFFFFFFFFFFFFFFFFFFFFFFFFF
310
FFFFFFFFFFFFFFFFFFFFFFFFFFFFFFFFFFFFFFFFFFFFFFFFF000FFFFFFFFFFFF
310
FFFFFFFFFFFFFFFFFFFFFFFFFFFFFFFFFFFFFFFFFFFFFFFFFFFFFFFFFFFFFFFF
310
FFFFFFFFFFFFFFFFFFFFFFFFFFFFFFFFFFFFFFFFFFFFFFFFFFFFFFFFFFFFFFFF
310
FFFFFFFFFFFFFFFFFFFFFFFFFFFFFFFFF000FFFFFFFFFFFFFFFFFFFFFFFFFFFF
310
FFFFFFFFFFFFFFFFFFFFFFFFFFFFFFFFFFFFFFFFFFFFFFFFFFFFFFFFFFFFFFFF
310
FFFFFFFFFFFFFFFFFFFFFFFFFFFFFFFFFFFFFFFFFFFFFFFFFFFFFFFFFFFFFFFF
310
FFFFFFFFFFFFFFFFF000FFFFFFFFFFFFFFFFFFFFFFFFFFFFFFFFFFFFFFFFFFFF
310
FFFFFFFFFFFFFFFFFFFFFFFFFFFFFFFFFFFFFFFFFFFFFFFFFFFFFFFFFFFFFFFF
310
FFFFFFFFFFFFFFFFFFFFFFFFFFFFFFFFFFFFFFFFFFFFFFFFFFFFFFFFFFFFFFFF
310
F000FFFFFFFFFFFFFFFFFFFFFFFFFFFFFFFFFFFFFFFFFFFFFFFFFFFFFFFFFFFF
310
FFFFFFFFFFFFFFFFFFFFFFFFFFFFFFFFFFFFFFFFFFFFFFFFFFFFFFFFFFFFFFFF
310
FFFFFFFFFFFFFFFFFFFFFFFFFFFFFFFFFFFFFFFFFFFFFFFFF000FFFFFFFFFFFF
310
FFFFFFFFFFFFFFFFFFFFFFFFFFFFFFFFFFFFFFFFFFFFFFFFFFFFFFFFFFFFFFFF
310
FFFFFFFFFFFFFFFFFFFFFFFFFFFFFFFFFFFFFFFFFFFFFFFFFFFFFFFFFFFFFFFF
310
FFFFFFFFFFFFFFFFFFFFFFFFFFFFFFFFF000FFFFFFFFFFFFFFFFFFFFFFFFFFFF
310
FFFFFFFFFFFFFFFFFFFFFFFFFFFFFFFFFFFFFFFFFFFFFFFFFFFFFFFFFFFFFFFF
310
FFFFFFFFFFFFFFFFFFFFFFFFFFFFFFFFFFFFFFFFFFFFFFFFFFFFFFFFFFFFFFFF
310
FFFFFFFFFFFFFFFFF000FFFFFFFFFFFFFFFFFFFFFFFFFFFFFFFFFFFFFFFFFFFF
310
FFFFFFFFFFFFFFFFFFFFFFFFFFFFFFFFFFFFFFFFFFFFFFFFFFFFFFFFFFFFFFFF
310
FFFFFFFFFFFFFFFFFFFFFFFFFFFFFFFFFFFFFFFFFFFFFFFFFFFFFFFFFFFFFFFF
310
F000FFFFFFFFFFFFFFFFFFFFFFFFFFFFFFFFFFFFFFFFFFFFFFFFFFFFFFFFFFFF
310
FFFFFFFFFFFFFFFFFFFFFFFFFFFFFFFFFFFFFFFFFFFFFFFFFFFFFFFFFFFFFFFF
310
FFFFFFFFFFFFFFFFFFFFFFFFFFFFFFFFFFFFFFFFFFFFFFFFF000FFFFFFFFFFFF
310
FFFFFFFFFFFFFFFFFFFFFFFFFFFFFFFFFFFFFFFFFFFFFFFFFFFFFFFFFFFFFFFF
310
FFFFFFFFFFFFFFFFFFFFFFFFFFFFFFFFFFFFFFFFFFFFFFFFFFFFFFFFFFFFFFFF
310
FFFFFFFFFFFFFFFFFFFFFFFFFFFFFFFFF000FFFFFFFFFFFFFFFFFFFFFFFFFFFF
310
FFFFFFFFFFFFFFFFFFFFFFFFFFFFFFFFFFFFFFFFFFFFFFFFFFFFFFFFFFFFFFFF
310
FFFFFFFFFFFFFFFFFFFFFFFFFFFFFFFFFFFFFFFFFFFFFFFFFFFFFFFFFFFFFFFF
310
FFFFFFFFFFFFFFFFF000FFFFFFFFFFFFFFFFFFFFFFFFFFFFFFFFFFFFFFFFFFFF
310
FFFFFFFFFFFFFFFFFFFFFFFFFFFFFFFFFFFFFFFFFFFFFFFFFFFFFFFFFFFFFFFF
310
FFFFFFFFFFFFFFFFFFFFFFFFFFFFFFFFFFFFFFFFFFFFFFFFFFFFFFFFFFFFFFFF
310
F000FFFFFFFFFFFFFFFFFFFFFFFFFFFFFFFFFFFFFFFFFFFFFFFFFFFFFFFFFFFF
310
FFFFFFFFFFFFFFFFFFFFFFFFFFFFFFFFFFFFFFFFFFFFFFFFFFFFFFFFFFFFFFFF
310
FFFFFFFFFFFFFFFFFFFFFFFFFFFFFFFFFFFFFFFFFFFFFFFFF000FFFFFFFFFFFF
310
FFFFFFFFFFFFFFFFFFFFFFFFFFFFFFFFFFFFFFFFFFFFFFFFFFFFFFFFFFFFFFFF
310
FFFFFFFFFFFFFFFFFFFFFFFFFFFFFFFFFFFFFFFFFFFFFFFFFFFFFFFFFFFFFFFF
310
FFFFFFFFFFFFFFFFFFFFFFFFFFFFFFFFF000FFFFFFFFFFFFFFFFFFFFFFFFFFFF
310
FFFFFFFFFFFFFFFFFFFFFFFFFFFFFFFFFFFFFFFFFFFFFFFFFFFFFFFFFFFFFFFF
310
FFFFFFFFFFFFFFFFFFFFFFFFFFFFFFFFFFFFFFFFFFFFFFFFFFFFFFFFFFFFFFFF
310
FFFFFFFFFFFFFFFFF000FFFFFFFFFFFFFFFFFFFFFFFFFFFFFFFFFFFFFFFFFFFF
310
FFFFFFFFFFFFFFFFFFFFFFFFFFFFFFFFFFFFFFFFFFFFFFFFFFFFFFFFFFFFFFFF
310
FFFFFFFFFFFFFFFFFFFFFFFFFFFFFFFFFFFFFFFFFFFFFFFFFFFFFFFFFFFFFFFF
310
F000FFFFFFFFFFFFFFFFFFFFFFFFFFFFFFFFFFFFFFFFFFFFFFFFFFFFFFFFFFFF
310
FFFFFFFFFFFFFFFFFFFFFFFFFFFFFFFFFFFFFFFFFFFFFFFFFFFFFFFFFFFFFFFF
310
FFFFFFFFFFFFFFFFFFFFFFFFFFFFFFFFFFFFFFFFFFFFFFFFF000FFFFFFFFFFFF
310
FFFFFFFFFFFFFFFFFFFFFFFFFFFFFFFFFFFFFFFFFFFFFFFFFFFFFFFFFFFFFFFF
310
FFFFFFFFFFFFFFFFFFFFFFFFFFFFFFFFFFFFFFFFFFFFFFFFFFFFFFFFFFFFFFFF
310
FFFFFFFFFFFFFFFFFFFFFFFFFFFFFFFFF000FFFFFFFFFFFFFFFFFFFFFFFFFFFF
310
FFFFFFFFFFFFFFFFFFFFFFFFFFFFFFFFFFFFFFFFFFFFFFFFFFFFFFFFFFFFFFFF
310
FFFFFFFFFFFFFFFFFFFFFFFFFFFFFFFFFFFFFFFFFFFFFFFFFFFFFFFFFFFFFFFF
310
FFFFFFFFFFFFFFFFF000FFFFFFFFFFFFFFFFFFFFFFFFFFFFFFFFFFFFFFFFFFFF
310
FFFFFFFFFFFFFFFFFFFFFFFFFFFFFFFFFFFFFFFFFFFFFFFFFFFFFFFFFFFFFFFF
310
FFFFFFFFFFFFFFFFFFFFFFFFFFFFFFFFFFFFFFFFFFFFFFFFFFFFFFFFFFFFFFFF
310
F000FFFFFFFFFFFFFFFFFFFFFFFFFFFFFFFFFFFFFFFFFFFFFFFFFFFFFFFFFFFF
310
FFFFFFFFFFFFFFFFFFFFFFFFFFFFFFFFFFFFFFFFFFFFFFFFFFFFFFFFFFFFFFFF
310
FFFFFFFFFFFFFFFFFFFFFFFFFFFFFFFFFFFFFFFFFFFFFFFFF000FFFFFFFFFFFF
310
FFFFFFFFFFFFFFFFFFFFFFFFFFFFFFFFFFFFFFFFFFFFFFFFFFFFFFFFFFFFFFFF
310
FFFFFFFFFFFFFFFFFFFFFFFFFFFFFFFFFFFFFFFFFFFFFFFFFFFFFFFFFFFFFFFF
310
FFFFFFFFFFFFFFFFFFFFFFFFFFFFFFFFF0000000000000000000000000000000
310
0000000000000000000000000000000000000000000000000000000000000000
310
0000000000000000000000000000000000000000000000000000000000000000
310
0000000000000000000000000000000000000000000000000000000000000000
310
0000000000000000000000000000000000000000000000000000000000000000
310
0000000000000000000000000000000000000000000000000000000000000000
310
0000000000000000000000000000000000000000000000000000000000000000
310
0000000000000000000000000000000000000000000000000000000000000000
310
0000000000000000000000000000000000000000000000000000000000000000
310
0000000000000000000000000000000000000000000000000000000000000000
310
0000000000000000000000000000000000000000000000000000000000000000
310
0000000000000000000000000000000000000000000000000000000000000000
310
0000000000000000000000000000000000000000000000000000000000000000
310
0000000000000000000000000000000000000000000000000000000000000000
310
0000000000000000000000000000000000000000000000000000000000000000
310
0000000000000000000000000000000000000000000000000000000000000000
  1
OLE
  0
ENDSEC
  0
SECTION
  2
OBJECTS
  0
DICTIONARY
  5
C
330
0
100
AcDbDictionary
281
     1
  3
ACAD_GROUP
350
D
  3
ACAD_LAYOUT
350
1A
  3
ACAD_MLINESTYLE
350
17
  3
ACAD_PLOTSETTINGS
350
19
  3
ACAD_PLOTSTYLENAME
350
E
  3
ACAD_SCALELIST
350
47
  0
DICTIONARY
  5
D
102
{ACAD_REACTORS
330
C
102
}
330
C
100
AcDbDictionary
281
     1
  0
DICTIONARY
  5
1A
102
{ACAD_REACTORS
330
C
102
}
330
C
100
AcDbDictionary
281
     1
  3
Layout1
350
1E
  3
Layout2
350
26
  3
Model
350
22
  0
DICTIONARY
  5
17
102
{ACAD_REACTORS
330
C
102
}
330
C
100
AcDbDictionary
281
     1
  3
Standard
350
18
  0
DICTIONARY
  5
19
102
{ACAD_REACTORS
330
C
102
}
330
C
100
AcDbDictionary
281
     1
  0
ACDBDICTIONARYWDFLT
  5
E
102
{ACAD_REACTORS
330
C
102
}
330
C
100
AcDbDictionary
281
     1
  3
Normal
350
F
100
AcDbDictionaryWithDefault
340
F
  0
DICTIONARY
  5
47
102
{ACAD_REACTORS
330
C
102
}
330
C
100
AcDbDictionary
281
     1
  3
A0
350
48
  3
A1
350
49
  3
A2
350
4A
  3
A3
350
4B
  3
A4
350
4C
  3
A5
350
4D
  3
A6
350
4E
  3
A7
350
4F
  3
A8
350
50
  3
A9
350
51
  3
B0
350
52
  3
B1
350
53
  3
B2
350
54
  3
B3
350
55
  3
B4
350
56
  3
B5
350
57
  3
B6
350
58
  3
B7
350
59
  3
B8
350
5A
  3
B9
350
5B
  3
C0
350
5C
  3
C1
350
5D
  3
C2
350
5E
  3
C3
350
5F
  3
C4
350
60
  3
C5
350
61
  3
C6
350
62
  3
C7
350
63
  3
C8
350
64
  3
C9
350
65
  3
D0
350
66
  3
D1
350
67
  3
D2
350
68
  0
LAYOUT
  5
1E
102
{ACAD_REACTORS
330
1A
102
}
330
1A
100
AcDbPlotSettings
  1

  2
none_device
  4

  6

 40
0.0
 41
0.0
 42
0.0
 43
0.0
 44
0.0
 45
0.0
 46
0.0
 47
0.0
 48
0.0
 49
0.0
140
0.0
141
0.0
142
1.0
143
1.0
 70
   688
 72
     1
 73
     0
 74
     5
  7

 75
    16
147
1.0
148
0.0
149
0.0
100
AcDbLayout
  1
Layout1
 70
     1
 71
     1
 10
0.0
 20
0.0
 11
420.0
 21
297.0
 12
0.0
 22
0.0
 32
0.0
 14
1.0000000000E+20
 24
1.0000000000E+20
 34
1.0000000000E+20
 15
-1.0000000000E+20
 25
-1.0000000000E+20
 35
-1.0000000000E+20
146
0.0
 13
0.0
 23
0.0
 33
0.0
 16
1.0
 26
0.0
 36
0.0
 17
0.0
 27
1.0
 37
0.0
 76
     0
330
1B
  0
LAYOUT
  5
26
102
{ACAD_REACTORS
330
1A
102
}
330
1A
100
AcDbPlotSettings
  1

  2
none_device
  4

  6

 40
0.0
 41
0.0
 42
0.0
 43
0.0
 44
0.0
 45
0.0
 46
0.0
 47
0.0
 48
0.0
 49
0.0
140
0.0
141
0.0
142
1.0
143
1.0
 70
   688
 72
     1
 73
     0
 74
     5
  7

 75
    16
147
1.0
148
0.0
149
0.0
100
AcDbLayout
  1
Layout2
 70
     1
 71
     2
 10
0.0
 20
0.0
 11
0.0
 21
0.0
 12
0.0
 22
0.0
 32
0.0
 14
0.0
 24
0.0
 34
0.0
 15
0.0
 25
0.0
 35
0.0
146
0.0
 13
0.0
 23
0.0
 33
0.0
 16
1.0
 26
0.0
 36
0.0
 17
0.0
 27
1.0
 37
0.0
 76
     0
330
23
  0
LAYOUT
  5
22
102
{ACAD_REACTORS
330
1A
102
}
330
1A
100
AcDbPlotSettings
  1

  2
none_device
  4
Letter_(8.50_x_11.00_Inches)
  6

 40
6.35
 41
6.35
 42
6.35000508
 43
6.35000508
 44
215.9
 45
279.4
 46
0.0
 47
0.0
 48
0.0
 49
0.0
140
0.0
141
0.0
142
1.0
143
1.0
 70
  1712
 72
     1
 73
     0
 74
     0
  7

 75
     0
147
1.0
148
0.0
149
0.0
100
AcDbLayout
  1
Model
 70
     1
 71
     0
 10
0.0
 20
0.0
 11
297.0
 21
210.0
 12
0.0
 22
0.0
 32
0.0
 14
0.0
 24
0.0
 34
0.0
 15
297.0
 25
210.0
 35
0.0
146
0.0
 13
0.0
 23
0.0
 33
0.0
 16
1.0
 26
0.0
 36
0.0
 17
0.0
 27
1.0
 37
0.0
 76
     0
330
1F
331
29
  0
MLINESTYLE
  5
18
102
{ACAD_REACTORS
330
17
102
}
330
17
100
AcDbMlineStyle
  2
Standard
 70
     0
  3

 62
   256
 51
90.0
 52
90.0
 71
     2
 49
0.5
 62
   256
  6
BYLAYER
 49
-0.5
 62
   256
  6
BYLAYER
  0
ACDBPLACEHOLDER
  5
F
102
{ACAD_REACTORS
330
E
102
}
330
E
  0
SCALE
  5
48
102
{ACAD_REACTORS
330
47
102
}
330
47
100
AcDbScale
 70
     0
300
1:1
140
1.0
141
1.0
290
     1
  0
SCALE
  5
49
102
{ACAD_REACTORS
330
47
102
}
330
47
100
AcDbScale
 70
     0
300
1:2
140
1.0
141
2.0
290
     0
  0
SCALE
  5
4A
102
{ACAD_REACTORS
330
47
102
}
330
47
100
AcDbScale
 70
     0
300
1:4
140
1.0
141
4.0
290
     0
  0
SCALE
  5
4B
102
{ACAD_REACTORS
330
47
102
}
330
47
100
AcDbScale
 70
     0
300
1:5
140
1.0
141
5.0
290
     0
  0
SCALE
  5
4C
102
{ACAD_REACTORS
330
47
102
}
330
47
100
AcDbScale
 70
     0
300
1:8
140
1.0
141
8.0
290
     0
  0
SCALE
  5
4D
102
{ACAD_REACTORS
330
47
102
}
330
47
100
AcDbScale
 70
     0
300
1:10
140
1.0
141
10.0
290
     0
  0
SCALE
  5
4E
102
{ACAD_REACTORS
330
47
102
}
330
47
100
AcDbScale
 70
     0
300
1:16
140
1.0
141
16.0
290
     0
  0
SCALE
  5
4F
102
{ACAD_REACTORS
330
47
102
}
330
47
100
AcDbScale
 70
     0
300
1:20
140
1.0
141
20.0
290
     0
  0
SCALE
  5
50
102
{ACAD_REACTORS
330
47
102
}
330
47
100
AcDbScale
 70
     0
300
1:30
140
1.0
141
30.0
290
     0
  0
SCALE
  5
51
102
{ACAD_REACTORS
330
47
102
}
330
47
100
AcDbScale
 70
     0
300
1:40
140
1.0
141
40.0
290
     0
  0
SCALE
  5
52
102
{ACAD_REACTORS
330
47
102
}
330
47
100
AcDbScale
 70
     0
300
1:50
140
1.0
141
50.0
290
     0
  0
SCALE
  5
53
102
{ACAD_REACTORS
330
47
102
}
330
47
100
AcDbScale
 70
     0
300
1:100
140
1.0
141
100.0
290
     0
  0
SCALE
  5
54
102
{ACAD_REACTORS
330
47
102
}
330
47
100
AcDbScale
 70
     0
300
2:1
140
2.0
141
1.0
290
     0
  0
SCALE
  5
55
102
{ACAD_REACTORS
330
47
102
}
330
47
100
AcDbScale
 70
     0
300
4:1
140
4.0
141
1.0
290
     0
  0
SCALE
  5
56
102
{ACAD_REACTORS
330
47
102
}
330
47
100
AcDbScale
 70
     0
300
8:1
140
8.0
141
1.0
290
     0
  0
SCALE
  5
57
102
{ACAD_REACTORS
330
47
102
}
330
47
100
AcDbScale
 70
     0
300
10:1
140
10.0
141
1.0
290
     0
  0
SCALE
  5
58
102
{ACAD_REACTORS
330
47
102
}
330
47
100
AcDbScale
 70
     0
300
100:1
140
100.0
141
1.0
290
     0
  0
SCALE
  5
59
102
{ACAD_REACTORS
330
47
102
}
330
47
100
AcDbScale
 70
     0
300
1/128" = 1'-0"
140
0.0078125
141
12.0
290
     0
  0
SCALE
  5
5A
102
{ACAD_REACTORS
330
47
102
}
330
47
100
AcDbScale
 70
     0
300
1/64" = 1'-0"
140
0.015625
141
12.0
290
     0
  0
SCALE
  5
5B
102
{ACAD_REACTORS
330
47
102
}
330
47
100
AcDbScale
 70
     0
300
1/32" = 1'-0"
140
0.03125
141
12.0
290
     0
  0
SCALE
  5
5C
102
{ACAD_REACTORS
330
47
102
}
330
47
100
AcDbScale
 70
     0
300
1/16" = 1'-0"
140
0.0625
141
12.0
290
     0
  0
SCALE
  5
5D
102
{ACAD_REACTORS
330
47
102
}
330
47
100
AcDbScale
 70
     0
300
3/32" = 1'-0"
140
0.09375
141
12.0
290
     0
  0
SCALE
  5
5E
102
{ACAD_REACTORS
330
47
102
}
330
47
100
AcDbScale
 70
     0
300
1/8" = 1'-0"
140
0.125
141
12.0
290
     0
  0
SCALE
  5
5F
102
{ACAD_REACTORS
330
47
102
}
330
47
100
AcDbScale
 70
     0
300
3/16" = 1'-0"
140
0.1875
141
12.0
290
     0
  0
SCALE
  5
60
102
{ACAD_REACTORS
330
47
102
}
330
47
100
AcDbScale
 70
     0
300
1/4" = 1'-0"
140
0.25
141
12.0
290
     0
  0
SCALE
  5
61
102
{ACAD_REACTORS
330
47
102
}
330
47
100
AcDbScale
 70
     0
300
3/8" = 1'-0"
140
0.375
141
12.0
290
     0
  0
SCALE
  5
62
102
{ACAD_REACTORS
330
47
102
}
330
47
100
AcDbScale
 70
     0
300
1/2" = 1'-0"
140
0.5
141
12.0
290
     0
  0
SCALE
  5
63
102
{ACAD_REACTORS
330
47
102
}
330
47
100
AcDbScale
 70
     0
300
3/4" = 1'-0"
140
0.75
141
12.0
290
     0
  0
SCALE
  5
64
102
{ACAD_REACTORS
330
47
102
}
330
47
100
AcDbScale
 70
     0
300
1" = 1'-0"
140
1.0
141
12.0
290
     0
  0
SCALE
  5
65
102
{ACAD_REACTORS
330
47
102
}
330
47
100
AcDbScale
 70
     0
300
1-1/2" = 1'-0"
140
1.5
141
12.0
290
     0
  0
SCALE
  5
66
102
{ACAD_REACTORS
330
47
102
}
330
47
100
AcDbScale
 70
     0
300
3" = 1'-0"
140
3.0
141
12.0
290
     0
  0
SCALE
  5
67
102
{ACAD_REACTORS
330
47
102
}
330
47
100
AcDbScale
 70
     0
300
6" = 1'-0"
140
6.0
141
12.0
290
     0
  0
SCALE
  5
68
102
{ACAD_REACTORS
330
47
102
}
330
47
100
AcDbScale
 70
     0
300
1'-0" = 1'-0"
140
12.0
141
12.0
290
     0
  0
ENDSEC
  0
EOF
