  0
SECTION
  2
HEADER
  9
$ACADVER
  1
AC1015
  9
$ACADMAINTVER
 70
     6
  9
$DWGCODEPAGE
  3
ANSI_1252
  9
$INSBASE
 10
0.0
 20
0.0
 30
0.0
  9
$EXTMIN
 10
0.0
 20
0.0
 30
0.0
  9
$EXTMAX
 10
297.0
 20
210.0
 30
0.0
  9
$LIMMIN
 10
0.0
 20
0.0
  9
$LIMMAX
 10
297.0
 20
210.0
  9
$ORTHOMODE
 70
     0
  9
$REGENMODE
 70
     1
  9
$FILLMODE
 70
     1
  9
$QTEXTMODE
 70
     0
  9
$MIRRTEXT
 70
     1
  9
$LTSCALE
 40
1.0
  9
$ATTMODE
 70
     1
  9
$TEXTSIZE
 40
2.0
  9
$TRACEWID
 40
1.0
  9
$TEXTSTYLE
  7
Standard
  9
$CLAYER
  8
0
  9
$CELTYPE
  6
ByLayer
  9
$CECOLOR
 62
   256
  9
$CELTSCALE
 40
1.0
  9
$DISPSILH
 70
     0
  9
$DIMSCALE
 40
1.0
  9
$DIMASZ
 40
3.0
  9
$DIMEXO
 40
0.0
  9
$DIMDLI
 40
3.75
  9
$DIMRND
 40
0.0
  9
$DIMDLE
 40
0.0
  9
$DIMEXE
 40
1.0
  9
$DIMTP
 40
0.0
  9
$DIMTM
 40
0.0
  9
$DIMTXT
 40
2.0
  9
$DIMCEN
 40
2.5
  9
$DIMTSZ
 40
0.0
  9
$DIMTOL
 70
     0
  9
$DIMLIM
 70
     0
  9
$DIMTIH
 70
     1
  9
$DIMTOH
 70
     1
  9
$DIMSE1
 70
     0
  9
$DIMSE2
 70
     0
  9
$DIMTAD
 70
     1
  9
$DIMZIN
 70
     0
  9
$DIMBLK
  1

  9
$DIMASO
 70
     1
  9
$DIMSHO
 70
     1
  9
$DIMPOST
  1

  9
$DIMAPOST
  1

  9
$DIMALT
 70
     0
  9
$DIMALTD
 70
     3
  9
$DIMALTF
 40
0.0393700787
  9
$DIMLFAC
 40
1.0
  9
$DIMTOFL
 70
     1
  9
$DIMTVP
 40
0.0
  9
$DIMTIX
 70
     0
  9
$DIMSOXD
 70
     0
  9
$DIMSAH
 70
     0
  9
$DIMBLK1
  1

  9
$DIMBLK2
  1

  9
$DIMSTYLE
  2
ISO-25
  9
$DIMCLRD
 70
     0
  9
$DIMCLRE
 70
     0
  9
$DIMCLRT
 70
     0
  9
$DIMTFAC
 40
1.0
  9
$DIMGAP
 40
1.524
  9
$DIMJUST
 70
     0
  9
$DIMSD1
 70
     0
  9
$DIMSD2
 70
     0
  9
$DIMTOLJ
 70
     0
  9
$DIMTZIN
 70
     0
  9
$DIMALTZ
 70
     0
  9
$DIMALTTZ
 70
     0
  9
$DIMUPT
 70
     0
  9
$DIMDEC
 70
     2
  9
$DIMTDEC
 70
     3
  9
$DIMALTU
 70
     2
  9
$DIMALTTD
 70
     3
  9
$DIMTXSTY
  7
Standard
  9
$DIMAUNIT
 70
     0
  9
$DIMADEC
 70
     2
  9
$DIMALTRND
 40
0.0
  9
$DIMAZIN
 70
     0
  9
$DIMDSEP
 70
    44
  9
$DIMATFIT
 70
     3
  9
$DIMFRAC
 70
     0
  9
$DIMLDRBLK
  1

  9
$DIMLUNIT
 70
     2
  9
$DIMLWD
 70
    -2
  9
$DIMLWE
 70
    -2
  9
$DIMTMOVE
 70
     0
  9
$LUNITS
 70
     2
  9
$LUPREC
 70
     2
  9
$SKETCHINC
 40
1.0
  9
$FILLETRAD
 40
10.0
  9
$AUNITS
 70
     0
  9
$AUPREC
 70
     2
  9
$MENU
  1
.
  9
$ELEVATION
 40
0.0
  9
$PELEVATION
 40
0.0
  9
$THICKNESS
 40
0.0
  9
$LIMCHECK
 70
     0
  9
$CHAMFERA
 40
10.0
  9
$CHAMFERB
 40
10.0
  9
$CHAMFERC
 40
20.0
  9
$CHAMFERD
 40
0.0
  9
$SKPOLY
 70
     0
  9
$TDCREATE
 40
2455898.491993646
  9
$TDUCREATE
 40
2455898.450326979
  9
$TDUPDATE
 40
2455898.491993657
  9
$TDUUPDATE
 40
2455898.450326991
  9
$TDINDWG
 40
0.0000000116
  9
$TDUSRTIMER
 40
0.0000000116
  9
$USRTIMER
 70
     1
  9
$ANGBASE
 50
0.0
  9
$ANGDIR
 70
     0
  9
$PDMODE
 70
     0
  9
$PDSIZE
 40
-1.0
  9
$PLINEWID
 40
0.0
  9
$SPLFRAME
 70
     0
  9
$SPLINETYPE
 70
     6
  9
$SPLINESEGS
 70
     8
  9
$HANDSEED
  5
19B
  9
$SURFTAB1
 70
     6
  9
$SURFTAB2
 70
     6
  9
$SURFTYPE
 70
     6
  9
$SURFU
 70
     6
  9
$SURFV
 70
     6
  9
$UCSBASE
  2

  9
$UCSNAME
  2

  9
$UCSORG
 10
0.0
 20
0.0
 30
0.0
  9
$UCSXDIR
 10
1.0
 20
0.0
 30
0.0
  9
$UCSYDIR
 10
0.0
 20
1.0
 30
0.0
  9
$UCSORTHOREF
  2

  9
$UCSORTHOVIEW
 70
     0
  9
$UCSORGTOP
 10
0.0
 20
0.0
 30
0.0
  9
$UCSORGBOTTOM
 10
0.0
 20
0.0
 30
0.0
  9
$UCSORGLEFT
 10
0.0
 20
0.0
 30
0.0
  9
$UCSORGRIGHT
 10
0.0
 20
0.0
 30
0.0
  9
$UCSORGFRONT
 10
0.0
 20
0.0
 30
0.0
  9
$UCSORGBACK
 10
0.0
 20
0.0
 30
0.0
  9
$PUCSBASE
  2

  9
$PUCSNAME
  2

  9
$PUCSORG
 10
0.0
 20
0.0
 30
0.0
  9
$PUCSXDIR
 10
1.0
 20
0.0
 30
0.0
  9
$PUCSYDIR
 10
0.0
 20
1.0
 30
0.0
  9
$PUCSORTHOREF
  2

  9
$PUCSORTHOVIEW
 70
     0
  9
$PUCSORGTOP
 10
0.0
 20
0.0
 30
0.0
  9
$PUCSORGBOTTOM
 10
0.0
 20
0.0
 30
0.0
  9
$PUCSORGLEFT
 10
0.0
 20
0.0
 30
0.0
  9
$PUCSORGRIGHT
 10
0.0
 20
0.0
 30
0.0
  9
$PUCSORGFRONT
 10
0.0
 20
0.0
 30
0.0
  9
$PUCSORGBACK
 10
0.0
 20
0.0
 30
0.0
  9
$USERI1
 70
     0
  9
$USERI2
 70
     0
  9
$USERI3
 70
     0
  9
$USERI4
 70
     0
  9
$USERI5
 70
     0
  9
$USERR1
 40
0.0
  9
$USERR2
 40
0.0
  9
$USERR3
 40
0.0
  9
$USERR4
 40
0.0
  9
$USERR5
 40
0.0
  9
$WORLDVIEW
 70
     1
  9
$SHADEDGE
 70
     3
  9
$SHADEDIF
 70
    70
  9
$TILEMODE
 70
     1
  9
$MAXACTVP
 70
    64
  9
$PINSBASE
 10
0.0
 20
0.0
 30
0.0
  9
$PLIMCHECK
 70
     0
  9
$PEXTMIN
 10
1.0000000000E+20
 20
1.0000000000E+20
 30
1.0000000000E+20
  9
$PEXTMAX
 10
-1.0000000000E+20
 20
-1.0000000000E+20
 30
-1.0000000000E+20
  9
$PLIMMIN
 10
0.0
 20
0.0
  9
$PLIMMAX
 10
420.0
 20
297.0
  9
$UNITMODE
 70
     0
  9
$VISRETAIN
 70
     1
  9
$PLINEGEN
 70
     0
  9
$PSLTSCALE
 70
     1
  9
$TREEDEPTH
 70
  3020
  9
$CMLSTYLE
  2
Standard
  9
$CMLJUST
 70
     0
  9
$CMLSCALE
 40
20.0
  9
$PROXYGRAPHICS
 70
     1
  9
$MEASUREMENT
 70
     1
  9
$CELWEIGHT
370
    -1
  9
$ENDCAPS
280
     0
  9
$JOINSTYLE
280
     0
  9
$LWDISPLAY
290
     1
  9
$INSUNITS
 70
     4
  9
$HYPERLINKBASE
  1

  9
$STYLESHEET
  1

  9
$XEDIT
290
     1
  9
$CEPSNTYPE
380
     0
  9
$PSTYLEMODE
290
     1
  9
$FINGERPRINTGUID
  2
{27822631-E2BA-4353-89F4-CB16ED03E7FA}
  9
$VERSIONGUID
  2
{FAEB1C32-E019-11D5-929B-00C0DF256EC4}
  9
$EXTNAMES
290
     1
  9
$PSVPSCALE
 40
0.0
  9
$OLESTARTUP
290
     0
  0
ENDSEC
  0
SECTION
  2
CLASSES
  0
CLASS
  1
ACDBDICTIONARYWDFLT
  2
AcDbDictionaryWithDefault
  3
ObjectDBX Classes
 90
        0
280
     0
281
     0
  0
CLASS
  1
VISUALSTYLE
  2
AcDbVisualStyle
  3
ObjectDBX Classes
 90
     4095
280
     0
281
     0
  0
CLASS
  1
MATERIAL
  2
AcDbMaterial
  3
ObjectDBX Classes
 90
     1153
280
     0
281
     0
  0
CLASS
  1
ACDBPLACEHOLDER
  2
AcDbPlaceHolder
  3
ObjectDBX Classes
 90
        0
280
     0
281
     0
  0
CLASS
  1
LAYOUT
  2
AcDbLayout
  3
ObjectDBX Classes
 90
        0
280
     0
281
     0
  0
ENDSEC
  0
SECTION
  2
TABLES
  0
TABLE
  2
VPORT
  5
8
330
0
100
AcDbSymbolTable
 70
     1
  0
VPORT
  5
29
330
8
100
AcDbSymbolTableRecord
100
AcDbViewportTableRecord
  2
*Active
 70
     0
 10
0.0
 20
0.0
 11
1.0
 21
1.0
 12
148.5
 22
105.0
 13
0.0
 23
0.0
 14
10.0
 24
10.0
 15
10.0
 25
10.0
 16
0.0
 26
0.0
 36
1.0
 17
0.0
 27
0.0
 37
0.0
 40
210.0
 41
1.4142857143
 42
50.0
 43
0.0
 44
0.0
 50
0.0
 51
0.0
 71
     0
 72
  2000
 73
     1
 74
     3
 75
     0
 76
     0
 77
     0
 78
     0
281
     0
 65
     1
110
0.0
120
0.0
130
0.0
111
1.0
121
0.0
131
0.0
112
0.0
122
1.0
132
0.0
 79
     0
146
0.0
  0
ENDTAB
  0
TABLE
  2
LTYPE
  5
5
330
0
100
AcDbSymbolTable
 70
     6
  0
LTYPE
  5
14
330
5
100
AcDbSymbolTableRecord
100
AcDbLinetypeTableRecord
  2
ByBlock
 70
     0
  3

 72
    65
 73
     0
 40
0.0
  0
LTYPE
  5
15
330
5
100
AcDbSymbolTableRecord
100
AcDbLinetypeTableRecord
  2
ByLayer
 70
     0
  3

 72
    65
 73
     0
 40
0.0
  0
LTYPE
  5
16
330
5
100
AcDbSymbolTableRecord
100
AcDbLinetypeTableRecord
  2
Continuous
 70
     0
  3
Solid line
 72
    65
 73
     0
 40
0.0
  0
LTYPE
  5
3F
330
5
100
AcDbSymbolTableRecord
100
AcDbLinetypeTableRecord
  2
HIDDEN
 70
     0
  3
Hidden __ __ __ __ __ __ __ __ __ __ __ __ __ __
 72
    65
 73
     2
 40
1.905
 49
1.27
 74
     0
 49
-0.635
 74
     0
  0
LTYPE
  5
40
330
5
100
AcDbSymbolTableRecord
100
AcDbLinetypeTableRecord
  2
PHANTOM
 70
     0
  3
Phantom ______  __  __  ______  __  __  ______
 72
    65
 73
     6
 40
12.7
 49
6.35
 74
     0
 49
-1.27
 74
     0
 49
1.27
 74
     0
 49
-1.27
 74
     0
 49
1.27
 74
     0
 49
-1.27
 74
     0
  0
LTYPE
  5
41
330
5
100
AcDbSymbolTableRecord
100
AcDbLinetypeTableRecord
  2
CENTER
 70
     0
  3
Center ____ _ ____ _ ____ _ ____ _ ____ _ ____
 72
    65
 73
     4
 40
10.16
 49
6.35
 74
     0
 49
-1.27
 74
     0
 49
1.27
 74
     0
 49
-1.27
 74
     0
  0
LTYPE
  5
42
330
5
100
AcDbSymbolTableRecord
100
AcDbLinetypeTableRecord
  2
CENTERX2
 70
     0
  3
Center (2x) ________  __  ________  __  _____
 72
    65
 73
     4
 40
20.32
 49
12.7
 74
     0
 49
-2.54
 74
     0
 49
2.54
 74
     0
 49
-2.54
 74
     0
  0
LTYPE
  5
43
330
5
100
AcDbSymbolTableRecord
100
AcDbLinetypeTableRecord
  2
DOT2
 70
     0
  3
Dot (.5x) ........................................
 72
    65
 73
     2
 40
0.635
 49
0.0
 74
     0
 49
-0.635
 74
     0
  0
ENDTAB
  0
TABLE
  2
LAYER
  5
2
330
0
100
AcDbSymbolTable
 70
     5
  0
LAYER
  5
10
330
2
100
AcDbSymbolTableRecord
100
AcDbLayerTableRecord
  2
0
 70
     0
 62
     7
  6
Continuous
370
    -3
390
F
  0
LAYER
  5
44
330
2
100
AcDbSymbolTableRecord
100
AcDbLayerTableRecord
  2
FORMAT
 70
     0
 62
     7
  6
Continuous
370
    -3
390
F
  0
LAYER
  5
45
330
2
100
AcDbSymbolTableRecord
100
AcDbLayerTableRecord
  2
VERMASSUNG
 70
     0
 62
     7
  6
Continuous
370
    -3
390
F
  0
LAYER
  5
46
330
2
100
AcDbSymbolTableRecord
100
AcDbLayerTableRecord
  2
KOPF_DÜNN
 70
     0
 62
     7
  6
Continuous
370
    -3
390
F
  0
LAYER
  5
47
330
2
100
AcDbSymbolTableRecord
100
AcDbLayerTableRecord
  2
KOPF_DICK
 70
     0
 62
     7
  6
Continuous
370
    15
390
F
  0
ENDTAB
  0
TABLE
  2
STYLE
  5
3
330
0
100
AcDbSymbolTable
 70
     2
  0
STYLE
  5
11
330
3
100
AcDbSymbolTableRecord
100
AcDbTextStyleTableRecord
  2
Standard
 70
     0
 40
0.0
 41
1.0
 50
0.0
 71
     0
 42
2.5
  3
txt
  4

  0
STYLE
  5
48
330
3
100
AcDbSymbolTableRecord
100
AcDbTextStyleTableRecord
  2
SLDTEXTSTYLE0
 70
     0
 40
0.0
 41
0.7
 50
0.0
 71
     0
 42
0.2
  3
TXT
  4

  0
ENDTAB
  0
TABLE
  2
VIEW
  5
6
330
0
100
AcDbSymbolTable
 70
     0
  0
ENDTAB
  0
TABLE
  2
UCS
  5
7
330
0
100
AcDbSymbolTable
 70
     0
  0
ENDTAB
  0
TABLE
  2
APPID
  5
9
330
0
100
AcDbSymbolTable
 70
     1
  0
APPID
  5
12
330
9
100
AcDbSymbolTableRecord
100
AcDbRegAppTableRecord
  2
ACAD
 70
     0
  0
ENDTAB
  0
TABLE
  2
DIMSTYLE
  5
A
330
0
100
AcDbSymbolTable
 70
     3
100
AcDbDimStyleTable
  0
DIMSTYLE
105
27
330
A
100
AcDbSymbolTableRecord
100
AcDbDimStyleTableRecord
  2
ISO-25
 70
     0
 41
2.5
 42
0.625
 43
3.75
 44
1.25
 73
     0
 74
     0
 77
     1
 78
     8
140
2.5
141
2.5
143
0.0393700787
147
0.625
171
     3
172
     1
178
     0
271
     2
272
     2
274
     3
278
    44
283
     0
284
     8
340
11
  0
DIMSTYLE
105
134
102
{ACAD_REACTORS
330
133
330
13E
330
148
330
15C
102
}
330
A
100
AcDbSymbolTableRecord
100
AcDbDimStyleTableRecord
  2
SLDDIMSTYLE0
 70
     0
 41
3.0
 44
0.0
 45
0.000000001
 73
     0
 74
     0
 77
     1
 78
    12
 79
     3
140
2.0
147
0.5
173
     1
178
     0
271
     2
272
     3
276
     2
284
    12
340
48
  0
DIMSTYLE
105
153
102
{ACAD_REACTORS
330
152
102
}
330
A
100
AcDbSymbolTableRecord
100
AcDbDimStyleTableRecord
  2
SLDDIMSTYLE1
 70
     0
 41
3.0
 44
0.0
 73
     0
 74
     0
 77
     1
 78
    12
 79
     3
140
2.0
147
0.5
173
     1
178
     0
179
     2
272
     3
276
     2
284
    12
340
48
  0
ENDTAB
  0
TABLE
  2
BLOCK_RECORD
  5
1
330
0
100
AcDbSymbolTable
 70
     7
  0
BLOCK_RECORD
  5
1F
330
1
100
AcDbSymbolTableRecord
100
AcDbBlockTableRecord
  2
*Model_Space
340
22
  0
BLOCK_RECORD
  5
1B
330
1
100
AcDbSymbolTableRecord
100
AcDbBlockTableRecord
  2
*Paper_Space
340
1E
  0
BLOCK_RECORD
  5
23
330
1
100
AcDbSymbolTableRecord
100
AcDbBlockTableRecord
  2
*Paper_Space0
340
26
  0
BLOCK_RECORD
  5
135
330
1
100
AcDbSymbolTableRecord
100
AcDbBlockTableRecord
  2
*D1
340
0
  0
BLOCK_RECORD
  5
13F
330
1
100
AcDbSymbolTableRecord
100
AcDbBlockTableRecord
  2
*D2
340
0
  0
BLOCK_RECORD
  5
149
330
1
100
AcDbSymbolTableRecord
100
AcDbBlockTableRecord
  2
*D3
340
0
  0
BLOCK_RECORD
  5
154
330
1
100
AcDbSymbolTableRecord
100
AcDbBlockTableRecord
  2
*D4
340
0
  0
BLOCK_RECORD
  5
15D
330
1
100
AcDbSymbolTableRecord
100
AcDbBlockTableRecord
  2
*D5
340
0
  0
BLOCK_RECORD
  5
18E
330
1
100
AcDbSymbolTableRecord
100
AcDbBlockTableRecord
  2
SW_CENTERMARKSYMBOL_0
340
0
102
{BLKREFS
331
199
102
}
  0
ENDTAB
  0
ENDSEC
  0
SECTION
  2
BLOCKS
  0
BLOCK
  5
20
330
1F
100
AcDbEntity
  8
0
100
AcDbBlockBegin
  2
*Model_Space
 70
     0
 10
0.0
 20
0.0
 30
0.0
  3
*Model_Space
  1

  0
ENDBLK
  5
21
330
1F
100
AcDbEntity
  8
0
100
AcDbBlockEnd
  0
BLOCK
  5
1C
330
1B
100
AcDbEntity
 67
     1
  8
0
100
AcDbBlockBegin
  2
*Paper_Space
 70
     0
 10
0.0
 20
0.0
 30
0.0
  3
*Paper_Space
  1

  0
ENDBLK
  5
1D
330
1B
100
AcDbEntity
 67
     1
  8
0
100
AcDbBlockEnd
  0
BLOCK
  5
24
330
23
100
AcDbEntity
  8
0
100
AcDbBlockBegin
  2
*Paper_Space0
 70
     0
 10
0.0
 20
0.0
 30
0.0
  3
*Paper_Space0
  1

  0
ENDBLK
  5
25
330
23
100
AcDbEntity
  8
0
100
AcDbBlockEnd
  0
BLOCK
  5
136
330
135
100
AcDbEntity
  8
0
100
AcDbBlockBegin
  2
*D1
 70
     1
 10
0.0
 20
0.0
 30
0.0
  3
*D1
  1

  0
SOLID
  5
138
330
135
100
AcDbEntity
  8
VERMASSUNG
100
AcDbTrace
 10
180.6257048927
 20
157.2371365635
 30
0.0
 11
183.6257048927
 21
156.7871365635
 31
0.0
 12
183.6257048927
 22
157.6871365635
 32
0.0
 13
183.6257048927
 23
157.6871365635
 33
0.0
  0
SOLID
  5
139
330
135
100
AcDbEntity
  8
VERMASSUNG
100
AcDbTrace
 10
245.6257048927
 20
157.2371365635
 30
0.0
 11
242.6257048927
 21
157.6871365635
 31
0.0
 12
242.6257048927
 22
156.7871365635
 32
0.0
 13
242.6257048927
 23
156.7871365635
 33
0.0
  0
LINE
  5
13A
330
135
100
AcDbEntity
  8
VERMASSUNG
100
AcDbLine
 10
180.6257048927
 20
148.6679304653
 30
0.0
 11
180.6257048927
 21
158.2371365635
 31
0.0
  0
LINE
  5
13B
330
135
100
AcDbEntity
  8
VERMASSUNG
100
AcDbLine
 10
245.6257048927
 20
117.6679304653
 30
0.0
 11
245.6257048927
 21
158.2371365635
 31
0.0
  0
LINE
  5
13C
330
135
100
AcDbEntity
  8
VERMASSUNG
100
AcDbLine
 10
180.6257048927
 20
157.2371365635
 30
0.0
 11
245.6257048927
 21
157.2371365635
 31
0.0
  0
MTEXT
  5
13D
330
135
100
AcDbEntity
  8
VERMASSUNG
100
AcDbMText
 10
210.8257048417
 20
159.8152719266
 30
0.1
 40
2.0
 41
0.0
 71
     1
 72
     1
  1
65
  7
SLDTEXTSTYLE0
 73
     1
 44
1.0
  0
ENDBLK
  5
137
330
135
100
AcDbEntity
  8
0
100
AcDbBlockEnd
  0
BLOCK
  5
140
330
13F
100
AcDbEntity
  8
0
100
AcDbBlockBegin
  2
*D2
 70
     1
 10
0.0
 20
0.0
 30
0.0
  3
*D2
  1

  0
SOLID
  5
142
330
13F
100
AcDbEntity
  8
VERMASSUNG
100
AcDbTrace
 10
142.6257048927
 20
165.1679304653
 30
0.0
 11
145.6257048927
 21
164.7179304653
 31
0.0
 12
145.6257048927
 22
165.6179304653
 32
0.0
 13
145.6257048927
 23
165.6179304653
 33
0.0
  0
SOLID
  5
143
330
13F
100
AcDbEntity
  8
VERMASSUNG
100
AcDbTrace
 10
245.6257048927
 20
165.1679304653
 30
0.0
 11
242.6257048927
 21
165.6179304653
 31
0.0
 12
242.6257048927
 22
164.7179304653
 32
0.0
 13
242.6257048927
 23
164.7179304653
 33
0.0
  0
LINE
  5
144
330
13F
100
AcDbEntity
  8
VERMASSUNG
100
AcDbLine
 10
142.6257048927
 20
137.9602684578
 30
0.0
 11
142.6257048927
 21
166.1679304653
 31
0.0
  0
LINE
  5
145
330
13F
100
AcDbEntity
  8
VERMASSUNG
100
AcDbLine
 10
245.6257048927
 20
117.6679304653
 30
0.0
 11
245.6257048927
 21
166.1679304653
 31
0.0
  0
LINE
  5
146
330
13F
100
AcDbEntity
  8
VERMASSUNG
100
AcDbLine
 10
142.6257048927
 20
165.1679304653
 30
0.0
 11
245.6257048927
 21
165.1679304653
 31
0.0
  0
MTEXT
  5
147
330
13F
100
AcDbEntity
  8
VERMASSUNG
100
AcDbMText
 10
191.3257047597
 20
167.7460658284
 30
0.1
 40
2.0
 41
0.0
 71
     1
 72
     1
  1
103
  7
SLDTEXTSTYLE0
 73
     1
 44
1.0
  0
ENDBLK
  5
141
330
13F
100
AcDbEntity
  8
0
100
AcDbBlockEnd
  0
BLOCK
  5
14A
330
149
100
AcDbEntity
  8
0
100
AcDbBlockBegin
  2
*D3
 70
     1
 10
0.0
 20
0.0
 30
0.0
  3
*D3
  1

  0
SOLID
  5
14C
330
149
100
AcDbEntity
  8
VERMASSUNG
100
AcDbTrace
 10
256.1948778644
 20
72.6679304653
 30
0.0
 11
256.6448778644
 21
75.6679304653
 31
0.0
 12
255.7448778644
 22
75.6679304653
 32
0.0
 13
255.7448778644
 23
75.6679304653
 33
0.0
  0
SOLID
  5
14D
330
149
100
AcDbEntity
  8
VERMASSUNG
100
AcDbTrace
 10
256.1948778644
 20
117.6679304653
 30
0.0
 11
255.7448778644
 21
114.6679304653
 31
0.0
 12
256.6448778644
 22
114.6679304653
 32
0.0
 13
256.6448778644
 23
114.6679304653
 33
0.0
  0
LINE
  5
14E
330
149
100
AcDbEntity
  8
VERMASSUNG
100
AcDbLine
 10
245.6257048927
 20
72.6679304653
 30
0.0
 11
257.1948778644
 21
72.6679304653
 31
0.0
  0
LINE
  5
14F
330
149
100
AcDbEntity
  8
VERMASSUNG
100
AcDbLine
 10
245.6257048927
 20
117.6679304653
 30
0.0
 11
257.1948778644
 21
117.6679304653
 31
0.0
  0
LINE
  5
150
330
149
100
AcDbEntity
  8
VERMASSUNG
100
AcDbLine
 10
256.1948778644
 20
72.6679304653
 30
0.0
 11
256.1948778644
 21
117.6679304653
 31
0.0
  0
MTEXT
  5
151
330
149
100
AcDbEntity
  8
VERMASSUNG
100
AcDbMText
 10
253.6167425013
 20
92.7679303513
 30
0.1
 40
2.0
 41
0.0
 71
     1
 72
     1
  1
45
  7
SLDTEXTSTYLE0
 11
6.123233995736766E-17
 21
1.0
 31
0.0
 73
     1
 44
1.0
  0
ENDBLK
  5
14B
330
149
100
AcDbEntity
  8
0
100
AcDbBlockEnd
  0
BLOCK
  5
155
330
154
100
AcDbEntity
  8
0
100
AcDbBlockBegin
  2
*D4
 70
     1
 10
0.0
 20
0.0
 30
0.0
  3
*D4
  1

  0
ARC
  5
157
330
154
100
AcDbEntity
  8
VERMASSUNG
100
AcDbCircle
 10
245.6257048927
 20
72.6464184152
 30
0.0
 40
12.59118215936793
100
AcDbArc
 50
177.0
 51
270.0
  0
SOLID
  5
158
330
154
100
AcDbEntity
  8
VERMASSUNG
100
AcDbTrace
 10
233.0517785109
 20
73.3053899737
 30
0.0
 11
232.7963539918
 21
70.2826001505
 31
0.0
 12
233.6944772684
 22
70.3406912863
 32
0.0
 13
233.6944772684
 23
70.3406912863
 33
0.0
  0
SOLID
  5
159
330
154
100
AcDbEntity
  8
VERMASSUNG
100
AcDbTrace
 10
245.6257048927
 20
60.0552362558
 30
0.0
 11
242.6987054759
 21
60.8522145578
 31
0.0
 12
242.5936898115
 22
59.9583623831
 32
0.0
 13
242.5936898115
 23
59.9583623831
 33
0.0
  0
LINE
  5
15A
330
154
100
AcDbEntity
  8
VERMASSUNG
100
AcDbLine
 10
245.6257048927
 20
60.4193788531
 30
0.0
 11
245.6257048927
 21
59.0552362558
 31
0.0
  0
MTEXT
  5
15B
330
154
100
AcDbEntity
  8
VERMASSUNG
100
AcDbMText
 10
236.3662689666
 20
67.8574776544
 30
0.1
 40
2.0
 41
0.0
 71
     1
 72
     1
  1
93°
  7
SLDTEXTSTYLE0
 11
0.6883545756937659
 21
-0.7253743710122763
 31
0.0
 73
     1
 44
1.0
  0
ENDBLK
  5
156
330
154
100
AcDbEntity
  8
0
100
AcDbBlockEnd
  0
BLOCK
  5
15E
330
15D
100
AcDbEntity
  8
0
100
AcDbBlockBegin
  2
*D5
 70
     1
 10
0.0
 20
0.0
 30
0.0
  3
*D5
  1

  0
SOLID
  5
160
330
15D
100
AcDbEntity
  8
VERMASSUNG
100
AcDbTrace
 10
132.6257048927
 20
149.1679304653
 30
0.0
 11
132.1757048927
 21
146.1679304653
 31
0.0
 12
133.0757048927
 22
146.1679304653
 32
0.0
 13
133.0757048927
 23
146.1679304653
 33
0.0
  0
SOLID
  5
161
330
15D
100
AcDbEntity
  8
VERMASSUNG
100
AcDbTrace
 10
132.6257048927
 20
86.1679304653
 30
0.0
 11
133.0757048927
 21
89.1679304653
 31
0.0
 12
132.1757048927
 22
89.1679304653
 32
0.0
 13
132.1757048927
 23
89.1679304653
 33
0.0
  0
LINE
  5
162
330
15D
100
AcDbEntity
  8
VERMASSUNG
100
AcDbLine
 10
181.1257048927
 20
149.1679304653
 30
0.0
 11
131.6257048927
 21
149.1679304653
 31
0.0
  0
LINE
  5
163
330
15D
100
AcDbEntity
  8
VERMASSUNG
100
AcDbLine
 10
181.1257048927
 20
86.1679304653
 30
0.0
 11
131.6257048927
 21
86.1679304653
 31
0.0
  0
LINE
  5
164
330
15D
100
AcDbEntity
  8
VERMASSUNG
100
AcDbLine
 10
132.6257048927
 20
149.1679304653
 30
0.0
 11
132.6257048927
 21
86.1679304653
 31
0.0
  0
MTEXT
  5
165
330
15D
100
AcDbEntity
  8
VERMASSUNG
100
AcDbMText
 10
129.8475694037
 20
111.2629303561
 30
0.5779222289
 40
2.0
 41
0.0
 71
     1
 72
     1
  1
PSC
  7
SLDTEXTSTYLE0
 11
-7.044195017643634E-15
 21
1.0
 31
0.0
 73
     1
 44
1.0
  0
MTEXT
  5
166
330
15D
100
AcDbEntity
  8
VERMASSUNG
100
AcDbMText
 10
130.0475694132
 20
115.8629304581
 30
0.5779222289
 40
2.0
 41
0.0
 71
     1
 72
     1
  1
%%c
  7
SLDTEXTSTYLE0
 11
-7.044195017643634E-15
 21
1.0
 31
0.0
 73
     1
 44
1.0
  0
MTEXT
  5
167
330
15D
100
AcDbEntity
  8
VERMASSUNG
100
AcDbMText
 10
129.8475694037
 20
119.4729309381
 30
0.5779222289
 40
2.0
 41
0.0
 71
     1
 72
     1
  1
63
  7
SLDTEXTSTYLE0
 11
-7.044195017643634E-15
 21
1.0
 31
0.0
 73
     1
 44
1.0
  0
ENDBLK
  5
15F
330
15D
100
AcDbEntity
  8
0
100
AcDbBlockEnd
  0
BLOCK
  5
18F
330
18E
100
AcDbEntity
  8
0
100
AcDbBlockBegin
  2
SW_CENTERMARKSYMBOL_0
 70
     0
 10
0.0
 20
0.0
 30
0.0
  3
SW_CENTERMARKSYMBOL_0
  1

  0
LINE
  5
191
330
18E
100
AcDbEntity
  8
VERMASSUNG
 62
     0
100
AcDbLine
 10
0.0
 20
0.0
 30
0.0
 11
0.0
 21
2.5
 31
0.0
  0
LINE
  5
192
330
18E
100
AcDbEntity
  8
VERMASSUNG
 62
     0
100
AcDbLine
 10
0.0
 20
0.0
 30
0.0
 11
-2.5
 21
0.0
 31
0.0
  0
LINE
  5
193
330
18E
100
AcDbEntity
  8
VERMASSUNG
 62
     0
100
AcDbLine
 10
0.0
 20
0.0
 30
0.0
 11
0.0
 21
-2.5
 31
0.0
  0
LINE
  5
194
330
18E
100
AcDbEntity
  8
VERMASSUNG
 62
     0
100
AcDbLine
 10
0.0
 20
0.0
 30
0.0
 11
2.5
 21
0.0
 31
0.0
  0
LINE
  5
195
330
18E
100
AcDbEntity
  8
VERMASSUNG
 62
     0
100
AcDbLine
 10
0.0
 20
5.0
 30
0.0
 11
0.0
 21
34.0
 31
0.0
  0
LINE
  5
196
330
18E
100
AcDbEntity
  8
VERMASSUNG
 62
     0
100
AcDbLine
 10
-5.0
 20
0.0
 30
0.0
 11
-34.0
 21
0.0
 31
0.0
  0
LINE
  5
197
330
18E
100
AcDbEntity
  8
VERMASSUNG
 62
     0
100
AcDbLine
 10
0.0
 20
-5.0
 30
0.0
 11
0.0
 21
-34.0
 31
0.0
  0
LINE
  5
198
330
18E
100
AcDbEntity
  8
VERMASSUNG
 62
     0
100
AcDbLine
 10
5.0
 20
0.0
 30
0.0
 11
34.0
 21
0.0
 31
0.0
  0
ENDBLK
  5
190
330
18E
100
AcDbEntity
  8
0
100
AcDbBlockEnd
  0
ENDSEC
  0
SECTION
  2
ENTITIES
  0
MTEXT
  5
49
330
1F
100
AcDbEntity
  8
KOPF_DÜNN
100
AcDbMText
 10
13.8892156294
 20
23.8442973028
 30
0.0
 40
3.0
 41
0.0
 71
     1
 72
     1
  1
PS6.KVF.LJA.065
  7
SLDTEXTSTYLE0
 73
     1
 44
1.0
  0
MTEXT
  5
4A
330
1F
100
AcDbEntity
  8
VERMASSUNG
100
AcDbMText
 10
13.9329988022
 20
28.8834360957
 30
0.0
 40
3.0
 41
0.0
 71
     1
 72
     1
  1
Klemmhalter links_Turning tool left 35° /93°
  7
SLDTEXTSTYLE0
 73
     1
 44
1.0
  0
MTEXT
  5
4B
330
1F
100
AcDbEntity
  8
VERMASSUNG
100
AcDbMText
 10
98.8601118557
 20
13.8365368179
 30
0.0
 40
2.0
 41
0.0
 71
     1
 72
     1
  1
Datum: 02.12.2011
  7
SLDTEXTSTYLE0
 73
     1
 44
1.0
  0
MTEXT
  5
4C
330
1F
100
AcDbEntity
  8
VERMASSUNG
100
AcDbMText
 10
13.933048693
 20
18.0482802738
 30
0.0
 40
2.0
 41
0.0
 71
     1
 72
     1
  1
PSC 63 / VB..1604..
  7
SLDTEXTSTYLE0
 73
     1
 44
1.0
  0
MTEXT
  5
4D
330
1F
100
AcDbEntity
  8
VERMASSUNG
100
AcDbMText
 10
13.9808475933
 20
13.9090973692
 30
0.0
 40
2.0
 41
0.0
 71
     1
 72
     1
  1
Gewicht: 1216g
  7
SLDTEXTSTYLE0
 73
     1
 44
1.0
  0
LINE
  5
4E
330
1F
100
AcDbEntity
  8
0
  6
Continuous
 62
     7
370
    15
100
AcDbLine
 10
215.1666769806
 20
149.1679304653
 30
0.0
 11
181.1257048927
 21
149.1679304653
 31
0.0
  0
LINE
  5
4F
330
1F
100
AcDbEntity
  8
0
  6
Continuous
 62
     7
370
    15
100
AcDbLine
 10
181.1257048927
 20
86.1679304653
 30
0.0
 11
217.8583779047
 21
86.1679304653
 31
0.0
  0
ARC
  5
50
330
1F
100
AcDbEntity
  8
0
  6
Continuous
 62
     7
370
    15
100
AcDbCircle
 10
181.1257048927
 20
86.6679304653
 30
0.0
 40
0.5
100
AcDbArc
 50
180.0
 51
270.0
  0
ARC
  5
51
330
1F
100
AcDbEntity
  8
0
  6
Continuous
 62
     7
370
    15
100
AcDbCircle
 10
181.1257048927
 20
148.6679304653
 30
0.0
 40
0.5
100
AcDbArc
 50
90.0
 51
180.0
  0
LWPOLYLINE
  5
52
330
1F
100
AcDbEntity
  8
0
  6
Continuous
 62
     7
370
    15
100
AcDbPolyline
 90
        3
 70
   128
 43
0.0
 10
180.4257048927
 20
95.1281101864
 10
180.5511598362
 20
95.0598080715
 10
180.6257048927
 20
95.0070703133
  0
LWPOLYLINE
  5
53
330
1F
100
AcDbEntity
  8
0
  6
Continuous
 62
     7
370
    15
100
AcDbPolyline
 90
        3
 70
   128
 43
0.0
 10
180.6257048927
 20
140.3287906172
 10
180.5511598362
 20
140.2760528591
 10
180.4257048927
 20
140.2077507442
  0
ARC
  5
54
330
1F
100
AcDbEntity
  8
0
  6
Continuous
 62
     7
370
    15
100
AcDbCircle
 10
217.8583779047
 20
85.1679304653
 30
0.0
 40
0.9999999999999918
100
AcDbArc
 50
59.0494945538
 51
67.5244230154
  0
ARC
  5
55
330
1F
100
AcDbEntity
  8
0
  6
Continuous
 62
     7
370
    15
100
AcDbCircle
 10
201.6257048927
 20
104.0179304653
 30
0.0
 40
2.500000000000007
100
AcDbArc
 50
289.1056234321
 51
338.6286669096
  0
ARC
  5
56
330
1F
100
AcDbEntity
  8
0
  6
Continuous
 62
     7
370
    15
100
AcDbCircle
 10
201.6257048927
 20
104.0179304653
 30
0.0
 40
2.500000000000007
100
AcDbArc
 50
201.3713330904
 51
289.1056234321
  0
ELLIPSE
  5
57
330
1F
100
AcDbEntity
  8
0
  6
Continuous
 62
     7
370
    15
100
AcDbEllipse
 10
212.2723443888
 20
100.1030715056
 30
0.0
 11
-0.3267812967788473
 21
3.437685688267678
 31
0.0
210
0.0
220
0.0
230
1.0
 40
0.2095444568
 41
0.0
 42
6.283185307179586
  0
LINE
  5
58
330
1F
100
AcDbEntity
  8
0
  6
Continuous
 62
     7
370
    15
100
AcDbLine
 10
214.4341118629
 20
148.8937479879
 30
0.0
 11
214.4341118629
 21
86.4421129427
 31
0.0
  0
ELLIPSE
  5
59
330
1F
100
AcDbEntity
  8
0
  6
Continuous
 62
     7
370
    15
100
AcDbEllipse
 10
215.545320135
 20
117.6679304653
 30
0.0
 11
0.0
 21
31.50000000000001
 31
0.0
210
0.0
220
0.0
230
1.0
 40
0.2679491924
 41
0.1320368298873498
 42
3.009555823702444
  0
SPLINE
  5
5A
330
1F
100
AcDbEntity
  8
0
  6
Continuous
 62
     7
370
    15
100
AcDbSpline
210
0.0
220
0.0
230
1.0
 70
     8
 71
     3
 72
    68
 73
    64
 74
     0
 42
0.00000001
 43
0.00000001
 40
-0.0624999999999991
 40
-0.0624999999999991
 40
0.0
 40
0.0
 40
0.0312500000000001
 40
0.0312500000000001
 40
0.0625000000000002
 40
0.0625000000000002
 40
0.0937500000000004
 40
0.0937500000000004
 40
0.1250000000000005
 40
0.1250000000000005
 40
0.1562500000000006
 40
0.1562500000000006
 40
0.1875000000000007
 40
0.1875000000000007
 40
0.2187500000000008
 40
0.2187500000000008
 40
0.2500000000000009
 40
0.2500000000000009
 40
0.2812500000000011
 40
0.2812500000000011
 40
0.3125000000000012
 40
0.3125000000000012
 40
0.3437500000000013
 40
0.3437500000000013
 40
0.3750000000000014
 40
0.3750000000000014
 40
0.4062500000000016
 40
0.4062500000000016
 40
0.4375000000000017
 40
0.4375000000000017
 40
0.4687500000000018
 40
0.4687500000000018
 40
0.5000000000000019
 40
0.5000000000000019
 40
0.531250000000002
 40
0.531250000000002
 40
0.5625000000000021
 40
0.5625000000000021
 40
0.5937500000000022
 40
0.5937500000000022
 40
0.6250000000000023
 40
0.6250000000000023
 40
0.6562500000000024
 40
0.6562500000000024
 40
0.6875000000000026
 40
0.6875000000000026
 40
0.7187500000000027
 40
0.7187500000000027
 40
0.7500000000000029
 40
0.7500000000000029
 40
0.7812500000000026
 40
0.7812500000000026
 40
0.8125000000000022
 40
0.8125000000000022
 40
0.8437500000000019
 40
0.8437500000000019
 40
0.8750000000000016
 40
0.8750000000000016
 40
0.9062500000000012
 40
0.9062500000000012
 40
0.9375000000000009
 40
0.9375000000000009
 40
1.0
 40
1.0
 40
1.03125
 40
1.03125
 10
201.2290752723425
 20
104.5875979563604
 30
0.0
 10
201.8240197028972
 20
104.5875979563604
 30
0.0
 10
202.0189979491468
 20
104.5697957931657
 30
0.0
 10
202.4025611742925
 20
104.500167260046
 30
0.0
 10
202.5931419497547
 20
104.4474900703671
 30
0.0
 10
202.9563912365415
 20
104.3103998388463
 30
0.0
 10
203.1286579755374
 20
104.2266538065249
 30
0.0
 10
203.4546796922453
 20
104.0294719668669
 30
0.0
 10
203.608955059022
 20
103.9150588692516
 30
0.0
 10
203.8855179802731
 20
103.6661661642143
 30
0.0
 10
204.0096608705884
 20
103.5307953214828
 30
0.0
 10
204.2289756429594
 20
103.2381421948179
 30
0.0
 10
204.3221060983627
 20
103.0830926232021
 30
0.0
 10
204.4717604288888
 20
102.7639282775274
 30
0.0
 10
204.5294073988807
 20
102.5974533956685
 30
0.0
 10
204.6065139607031
 20
102.2584444204144
 30
0.0
 10
204.6255977420465
 20
102.088892896412
 30
0.0
 10
204.6258111521239
 20
101.74980026431
 30
0.0
 10
204.6063158616244
 20
101.5785137848156
 30
0.0
 10
204.5297459871474
 20
101.2488089916607
 30
0.0
 10
204.4730927459382
 20
101.0894305158543
 30
0.0
 10
204.3228167951289
 20
100.7813810599358
 30
0.0
 10
204.2289331327164
 20
100.6333571901825
 30
0.0
 10
204.01186793262
 20
100.3605219177463
 30
0.0
 10
203.8879366763452
 20
100.2339503715176
 30
0.0
 10
203.607979831193
 20
100.0007394406201
 30
0.0
 10
203.4565206802911
 20
99.89791217044154
 30
0.0
 10
203.1317876713435
 20
99.71834562403824
 30
0.0
 10
202.956423232527
 20
99.6409568589795
 30
0.0
 10
202.5931062136273
 20
99.5171460226916
 30
0.0
 10
202.4061147606367
 20
99.4705908667286
 30
0.0
 10
202.02154326228
 20
99.40761338762448
 30
0.0
 10
201.8226354091606
 20
99.39150438511986
 30
0.0
 10
201.430972009464
 20
99.3913870114809
 30
0.0
 10
201.2362642730772
 20
99.40685723240394
 30
0.0
 10
200.8491472094222
 20
99.46967611114663
 30
0.0
 10
200.6596762066953
 20
99.51683515128295
 30
0.0
 10
200.2985437086777
 20
99.63958988853187
 30
0.0
 10
200.1241244593174
 20
99.71607895151593
 30
0.0
 10
199.7959264215135
 20
99.89711932797098
 30
0.0
 10
199.6448481840629
 20
99.99989141396345
 30
0.0
 10
199.3680120910353
 20
100.2298429973027
 30
0.0
 10
199.2412482745228
 20
100.3586029520775
 30
0.0
 10
199.0232437363659
 20
100.6321696881761
 30
0.0
 10
198.9309625568358
 20
100.7773335772006
 30
0.0
 10
198.7800828696705
 20
101.085022826675
 30
0.0
 10
198.7221364352004
 20
101.2474454963024
 30
0.0
 10
198.6455242527857
 20
101.5759970538547
 30
0.0
 10
198.6258962327703
 20
101.7438365643438
 30
0.0
 10
198.6255163095252
 20
102.0870433497685
 30
0.0
 10
198.6448286500298
 20
102.2571601036477
 30
0.0
 10
198.7207492667066
 20
102.5929158643524
 30
0.0
 10
198.7782550356727
 20
102.7605470356987
 30
0.0
 10
198.9286151822618
 20
103.0820262693497
 30
0.0
 10
199.0206344701531
 20
103.2352190215374
 30
0.0
 10
199.2379784851432
 20
103.5262725787973
 30
0.0
 10
199.3644979052748
 20
103.6647428237826
 30
0.0
 10
199.6409315247346
 20
103.9138551927637
 30
0.0
 10
199.7917611148109
 20
104.0261033078004
 30
0.0
 10
200.119272707051
 20
104.2249037164237
 30
0.0
 10
200.2938212401392
 20
104.3097799098566
 30
0.0
 10
200.8350261085108
 20
104.5145313891012
 30
0.0
 10
201.2290752723425
 20
104.5875979563604
 30
0.0
 10
201.8240197028972
 20
104.5875979563604
 30
0.0
  0
SPLINE
  5
5B
330
1F
100
AcDbEntity
  8
0
  6
Continuous
 62
     7
370
    15
100
AcDbSpline
210
0.0
220
0.0
230
1.0
 70
     8
 71
     3
 72
    10
 73
     6
 74
     0
 42
0.00000001
 43
0.00000001
 40
0.0
 40
0.0
 40
0.0
 40
0.0
 40
0.5
 40
0.5
 40
1.0
 40
1.0
 40
1.0
 40
1.0
 10
215.4382769764568
 20
149.0986155673775
 30
0.0
 10
215.2082790693981
 20
149.0783390082821
 30
0.0
 10
215.0057230473607
 20
149.0518889961608
 30
0.0
 10
214.668019104183
 20
148.984086667353
 30
0.0
 10
214.5337636852148
 20
148.9431405993155
 30
0.0
 10
214.4341118628516
 20
148.8937479878568
 30
0.0
  0
SPLINE
  5
5C
330
1F
100
AcDbEntity
  8
0
  6
Continuous
 62
     7
370
    15
100
AcDbSpline
210
0.0
220
0.0
230
1.0
 70
     8
 71
     3
 72
    14
 73
    10
 74
     0
 42
0.00000001
 43
0.00000001
 40
0.0
 40
0.0
 40
0.0
 40
0.0
 40
0.25
 40
0.25
 40
0.5
 40
0.5
 40
0.75
 40
0.75
 40
1.0
 40
1.0
 40
1.0
 40
1.0
 10
214.4341118628516
 20
86.44211294270738
 30
0.0
 10
214.551173004342
 20
86.38409136978036
 30
0.0
 10
214.71512761735
 20
86.33804479833199
 30
0.0
 10
215.134521600253
 20
86.26475331531117
 30
0.0
 10
215.3935329320163
 20
86.23752360801124
 30
0.0
 10
215.9811558015015
 20
86.19898878195426
 30
0.0
 10
216.3122544933715
 20
86.18714370345906
 30
0.0
 10
217.0465574805725
 20
86.17237034447899
 30
0.0
 10
217.4395248554039
 20
86.16957250179276
 30
0.0
 10
217.8583779047333
 20
86.16849428070866
 30
0.0
  0
ELLIPSE
  5
5D
330
1F
100
AcDbEntity
  8
0
  6
Continuous
 62
     7
370
    15
100
AcDbEllipse
 10
237.2232144342
 20
117.6679304653
 30
0.0
 11
-22.19801352592549
 21
31.46000549521646
 31
0.0
210
0.0
220
0.0
230
1.0
 40
0.0714855773
 41
6.166436376325171
 42
6.232788172635009
  0
SPLINE
  5
5E
330
1F
100
AcDbEntity
  8
0
  6
Continuous
 62
     7
370
    15
100
AcDbSpline
210
0.0
220
0.0
230
1.0
 70
     8
 71
     3
 72
    12
 73
     8
 74
     0
 42
0.00000001
 43
0.00000001
 40
0.0
 40
0.0
 40
0.0
 40
0.0
 40
0.5000000000000018
 40
0.5000000000000018
 40
0.7500000000000009
 40
0.7500000000000009
 40
1.0
 40
1.0
 40
1.0
 40
1.0
 10
190.7204490043865
 20
87.76718800516481
 30
0.0
 10
190.7515942023486
 20
87.7293724822446
 30
0.0
 10
190.793868468683
 20
87.693305624161
 30
0.0
 10
190.8938140025083
 20
87.64534555914975
 30
0.0
 10
190.9335443072124
 20
87.63048458525208
 30
0.0
 10
191.0304323572186
 20
87.60753343912094
 30
0.0
 10
191.0904975989652
 20
87.59943850640889
 30
0.0
 10
191.1534617062787
 20
87.59943850640889
 30
0.0
  0
LINE
  5
5F
330
1F
100
AcDbEntity
  8
0
  6
Continuous
 62
     7
370
    15
100
AcDbLine
 10
191.1534617063
 20
87.5994385064
 30
0.0
 11
194.0979480791
 21
87.5994385064
 31
0.0
  0
SPLINE
  5
60
330
1F
100
AcDbEntity
  8
0
  6
Continuous
 62
     7
370
    15
100
AcDbSpline
210
0.0
220
0.0
230
1.0
 70
     8
 71
     3
 72
    12
 73
     8
 74
     0
 42
0.00000001
 43
0.00000001
 40
0.0
 40
0.0
 40
0.0
 40
0.0
 40
0.2499999999999996
 40
0.2499999999999996
 40
0.4999999999999991
 40
0.4999999999999991
 40
1.0
 40
1.0
 40
1.0
 40
1.0
 10
194.0979480791458
 20
87.59943850640894
 30
0.0
 10
194.1610050340436
 20
87.59943850640894
 30
0.0
 10
194.2201351837892
 20
87.6073388374885
 30
0.0
 10
194.3185827343225
 20
87.63064958549354
 30
0.0
 10
194.3576149725106
 20
87.64535471177719
 30
0.0
 10
194.4575048569675
 20
87.69328823996382
 30
0.0
 10
194.4998038305769
 20
87.72935821272858
 30
0.0
 10
194.5309607810381
 20
87.76718800516481
 30
0.0
  0
ELLIPSE
  5
61
330
1F
100
AcDbEntity
  8
0
  6
Continuous
 62
     7
370
    15
100
AcDbEllipse
 10
178.2785507034
 20
117.6679304653
 30
0.0
 11
-14.75368316065618
 21
31.09325491558117
 31
0.0
210
0.0
220
0.0
230
1.0
 40
0.3419987131
 41
3.300734856217122
 42
4.231496223360773
  0
SPLINE
  5
62
330
1F
100
AcDbEntity
  8
0
  6
Continuous
 62
     7
370
    15
100
AcDbSpline
210
0.0
220
0.0
230
1.0
 70
     8
 71
     3
 72
    12
 73
     8
 74
     0
 42
0.00000001
 43
0.00000001
 40
0.0
 40
0.0
 40
0.0
 40
0.0
 40
0.4999999999999981
 40
0.4999999999999981
 40
0.749999999999999
 40
0.749999999999999
 40
1.0
 40
1.0
 40
1.0
 40
1.0
 10
194.530960781038
 20
107.7585611445967
 30
0.0
 10
194.4998155830759
 20
107.872666510462
 30
0.0
 10
194.4575413167415
 20
107.9837728376807
 30
0.0
 10
194.3575957829162
 20
108.133930445111
 30
0.0
 10
194.3178654782122
 20
108.1809231367284
 30
0.0
 10
194.220977428206
 20
108.2538987212669
 30
0.0
 10
194.1609121864594
 20
108.2798640339459
 30
0.0
 10
194.0979480791459
 20
108.2798640339459
 30
0.0
  0
LINE
  5
63
330
1F
100
AcDbEntity
  8
0
  6
Continuous
 62
     7
370
    15
100
AcDbLine
 10
194.0979480791
 20
108.2798640339
 30
0.0
 11
191.1534617063
 21
108.2798640339
 31
0.0
  0
SPLINE
  5
64
330
1F
100
AcDbEntity
  8
0
  6
Continuous
 62
     7
370
    15
100
AcDbSpline
210
0.0
220
0.0
230
1.0
 70
     8
 71
     3
 72
    12
 73
     8
 74
     0
 42
0.00000001
 43
0.00000001
 40
0.0
 40
0.0
 40
0.0
 40
0.0
 40
0.2500000000000032
 40
0.2500000000000032
 40
0.5000000000000064
 40
0.5000000000000064
 40
1.0
 40
1.0
 40
1.0
 40
1.0
 10
191.1534617062787
 20
108.2798640339458
 30
0.0
 10
191.0904047513809
 20
108.2798640339458
 30
0.0
 10
191.0312746016353
 20
108.2545176805651
 30
0.0
 10
190.9328270511021
 20
108.1803982984256
 30
0.0
 10
190.893794812914
 20
108.1339017837276
 30
0.0
 10
190.793904928457
 20
107.983827276719
 30
0.0
 10
190.7516059548477
 20
107.8727095676042
 30
0.0
 10
190.7204490043864
 20
107.7585611445967
 30
0.0
  0
ELLIPSE
  5
65
330
1F
100
AcDbEntity
  8
0
  6
Continuous
 62
     7
370
    15
100
AcDbEllipse
 10
206.9728590821
 20
117.6679304653
 30
0.0
 11
14.75368316065618
 21
31.09325491558117
 31
0.0
210
0.0
220
0.0
230
1.0
 40
0.3419987131
 41
2.051689083818825
 42
2.982450450962501
  0
SPLINE
  5
66
330
1F
100
AcDbEntity
  8
0
  6
Continuous
 62
     7
370
    15
100
AcDbSpline
210
0.0
220
0.0
230
1.0
 70
     8
 71
     3
 72
    12
 73
     8
 74
     0
 42
0.00000001
 43
0.00000001
 40
0.0
 40
0.0
 40
0.0
 40
0.0
 40
0.4999999999999963
 40
0.4999999999999963
 40
0.7499999999999981
 40
0.7499999999999981
 40
1.0
 40
1.0
 40
1.0
 40
1.0
 10
190.7204490043865
 20
127.5772997859671
 30
0.0
 10
190.7511712463056
 20
127.4647439865579
 30
0.0
 10
190.7940084608407
 20
127.3519861268183
 30
0.0
 10
190.8934354850405
 20
127.202445241022
 30
0.0
 10
190.9331876798572
 20
127.1551525093151
 30
0.0
 10
191.0312291367154
 20
127.0814162159937
 30
0.0
 10
191.0907851923029
 20
127.055996896618
 30
0.0
 10
191.1534617062787
 20
127.055996896618
 30
0.0
  0
LINE
  5
67
330
1F
100
AcDbEntity
  8
0
  6
Continuous
 62
     7
370
    15
100
AcDbLine
 10
191.1534617063
 20
127.0559968966
 30
0.0
 11
194.0979480791
 21
127.0559968966
 31
0.0
  0
SPLINE
  5
68
330
1F
100
AcDbEntity
  8
0
  6
Continuous
 62
     7
370
    15
100
AcDbSpline
210
0.0
220
0.0
230
1.0
 70
     8
 71
     3
 72
    12
 73
     8
 74
     0
 42
0.00000001
 43
0.00000001
 40
0.0
 40
0.0
 40
0.0
 40
0.0
 40
0.25
 40
0.25
 40
0.5
 40
0.5
 40
1.0
 40
1.0
 40
1.0
 40
1.0
 10
194.0979480791458
 20
127.055996896618
 30
0.0
 10
194.1610281176392
 20
127.055996896618
 30
0.0
 10
194.2201767398206
 20
127.0813612158329
 30
0.0
 10
194.3186492898897
 20
127.1555260762058
 30
0.0
 10
194.3576859018744
 20
127.2020464167599
 30
0.0
 10
194.4575823686534
 20
127.3521887596052
 30
0.0
 10
194.5000032497201
 20
127.4638819665773
 30
0.0
 10
194.530960781038
 20
127.5772997859671
 30
0.0
  0
ELLIPSE
  5
69
330
1F
100
AcDbEntity
  8
0
  6
Continuous
 62
     7
370
    15
100
AcDbEllipse
 10
178.2785507034
 20
117.6679304653
 30
0.0
 11
14.75368316065604
 21
31.09325491558117
 31
0.0
210
0.0
220
0.0
230
1.0
 40
0.3419987131
 41
5.19328173740862
 42
6.124043104552324
  0
SPLINE
  5
6A
330
1F
100
AcDbEntity
  8
0
  6
Continuous
 62
     7
370
    15
100
AcDbSpline
210
0.0
220
0.0
230
1.0
 70
     8
 71
     3
 72
    12
 73
     8
 74
     0
 42
0.00000001
 43
0.00000001
 40
0.0
 40
0.0
 40
0.0
 40
0.0
 40
0.4999999999999953
 40
0.4999999999999953
 40
0.7499999999999977
 40
0.7499999999999977
 40
1.0
 40
1.0
 40
1.0
 40
1.0
 10
194.530960781038
 20
147.5686729253992
 30
0.0
 10
194.500238539119
 20
147.6059749083523
 30
0.0
 10
194.4574013245838
 20
147.6425867403987
 30
0.0
 10
194.357974300384
 20
147.6903515236839
 30
0.0
 10
194.3182221055673
 20
147.7053090391662
 30
0.0
 10
194.2201806487091
 20
147.7284989849354
 30
0.0
 10
194.1606245931217
 20
147.7364224241551
 30
0.0
 10
194.0979480791458
 20
147.7364224241551
 30
0.0
  0
LINE
  5
6B
330
1F
100
AcDbEntity
  8
0
  6
Continuous
 62
     7
370
    15
100
AcDbLine
 10
194.0979480791
 20
147.7364224242
 30
0.0
 11
191.1534617063
 21
147.7364224242
 31
0.0
  0
SPLINE
  5
6C
330
1F
100
AcDbEntity
  8
0
  6
Continuous
 62
     7
370
    15
100
AcDbSpline
210
0.0
220
0.0
230
1.0
 70
     8
 71
     3
 72
    12
 73
     8
 74
     0
 42
0.00000001
 43
0.00000001
 40
0.0
 40
0.0
 40
0.0
 40
0.0
 40
0.2499999999999994
 40
0.2499999999999994
 40
0.4999999999999989
 40
0.4999999999999989
 40
1.0
 40
1.0
 40
1.0
 40
1.0
 10
191.1534617062787
 20
147.7364224241551
 30
0.0
 10
191.0903816677854
 20
147.7364224241551
 30
0.0
 10
191.031233045604
 20
147.7285164979426
 30
0.0
 10
190.9327604955349
 20
147.7051913365064
 30
0.0
 10
190.8937238835502
 20
147.6904785466747
 30
0.0
 10
190.7938274167711
 20
147.6425227459438
 30
0.0
 10
190.7514065357045
 20
147.6062605893637
 30
0.0
 10
190.7204490043865
 20
147.5686729253992
 30
0.0
  0
ELLIPSE
  5
6D
330
1F
100
AcDbEntity
  8
0
  6
Continuous
 62
     7
370
    15
100
AcDbEllipse
 10
206.9728590821
 20
117.6679304653
 30
0.0
 11
-14.75368316065607
 21
31.09325491558117
 31
0.0
210
0.0
220
0.0
230
1.0
 40
0.3419987131
 41
0.1591422026273012
 42
1.089903569770979
  0
LINE
  5
6E
330
1F
100
AcDbEntity
  8
0
  6
Continuous
 62
     7
370
    15
100
AcDbLine
 10
180.6257048927
 20
86.6679304653
 30
0.0
 11
180.6257048927
 21
148.6679304636
 31
0.0
  0
LINE
  5
6F
330
1F
100
AcDbEntity
  8
0
  6
Continuous
 62
     7
370
    15
100
AcDbLine
 10
194.530960781
 20
107.7585611446
 30
0.0
 11
194.530960781
 21
87.7671880052
 31
0.0
  0
LINE
  5
70
330
1F
100
AcDbEntity
  8
0
  6
Continuous
 62
     7
370
    15
100
AcDbLine
 10
194.0979480791
 20
108.2798640339
 30
0.0
 11
194.0979480791
 21
87.5994385064
 31
0.0
  0
LINE
  5
71
330
1F
100
AcDbEntity
  8
0
  6
Continuous
 62
     7
370
    15
100
AcDbLine
 10
194.530960781
 20
147.5686729254
 30
0.0
 11
194.530960781
 21
127.577299786
 31
0.0
  0
LINE
  5
72
330
1F
100
AcDbEntity
  8
0
  6
Continuous
 62
     7
370
    15
100
AcDbLine
 10
194.0979480791
 20
147.7364224242
 30
0.0
 11
194.0979480791
 21
127.0559968966
 31
0.0
  0
LINE
  5
73
330
1F
100
AcDbEntity
  8
0
  6
Continuous
 62
     7
370
    15
100
AcDbLine
 10
191.1534617063
 20
108.2798640339
 30
0.0
 11
191.1534617063
 21
87.5994385064
 31
0.0
  0
LINE
  5
74
330
1F
100
AcDbEntity
  8
0
  6
Continuous
 62
     7
370
    15
100
AcDbLine
 10
190.7204490044
 20
107.7585611446
 30
0.0
 11
190.7204490044
 21
87.7671880052
 31
0.0
  0
LINE
  5
75
330
1F
100
AcDbEntity
  8
0
  6
Continuous
 62
     7
370
    15
100
AcDbLine
 10
191.1534617063
 20
147.7364224242
 30
0.0
 11
191.1534617063
 21
127.0559968966
 31
0.0
  0
LINE
  5
76
330
1F
100
AcDbEntity
  8
0
  6
Continuous
 62
     7
370
    15
100
AcDbLine
 10
190.7204490044
 20
147.5686729254
 30
0.0
 11
190.7204490044
 21
127.577299786
 31
0.0
  0
SPLINE
  5
77
330
1F
100
AcDbEntity
  8
0
  6
Continuous
 62
     7
370
    15
100
AcDbSpline
210
0.0
220
0.0
230
1.0
 70
     8
 71
     3
 72
    12
 73
     8
 74
     0
 42
0.00000001
 43
0.00000001
 40
0.0
 40
0.0
 40
0.0
 40
0.0
 40
0.4999999999999996
 40
0.4999999999999996
 40
0.7499999999999996
 40
0.7499999999999996
 40
1.0
 40
1.0
 40
1.0
 40
1.0
 10
179.8091926062557
 20
95.81313676280621
 30
0.0
 10
179.8656291071629
 20
95.81171888146446
 30
0.0
 10
179.9347137378517
 20
95.81015454521616
 30
0.0
 10
180.0535160095696
 20
95.80721035324171
 30
0.0
 10
180.0937012850397
 20
95.80617215014433
 30
0.0
 10
180.1670823324436
 20
95.80423825492969
 30
0.0
 10
180.2004918961862
 20
95.80334336764089
 30
0.0
 10
180.2307280038426
 20
95.80255957736856
 30
0.0
  0
SPLINE
  5
78
330
1F
100
AcDbEntity
  8
0
  6
Continuous
 62
     7
370
    15
100
AcDbSpline
210
0.0
220
0.0
230
1.0
 70
     8
 71
     3
 72
    16
 73
    12
 74
     0
 42
0.00000001
 43
0.00000001
 40
0.0
 40
0.0
 40
0.0
 40
0.0
 40
0.0624999999999991
 40
0.0624999999999991
 40
0.1249999999999982
 40
0.1249999999999982
 40
0.2499999999999963
 40
0.2499999999999963
 40
0.4999999999999976
 40
0.4999999999999976
 40
1.0
 40
1.0
 40
1.0
 40
1.0
 10
180.2307280038054
 20
95.80255957739281
 30
0.0
 10
180.2423084113934
 20
95.80225938628145
 30
0.0
 10
180.2556179381546
 20
95.80093163802246
 30
0.0
 10
180.2849193682408
 20
95.79423296324747
 30
0.0
 10
180.2997334681251
 20
95.78887478014177
 30
0.0
 10
180.3355618698279
 20
95.77182913097442
 30
0.0
 10
180.349681494191
 20
95.76036659319867
 30
0.0
 10
180.3841856382795
 20
95.72880326782644
 30
0.0
 10
180.3952901889841
 20
95.71090596878116
 30
0.0
 10
180.4214663662003
 20
95.66074455116691
 30
0.0
 10
180.4257048927123
 20
95.63300013897035
 30
0.0
 10
180.4257048927123
 20
95.6083359770408
 30
0.0
  0
LINE
  5
79
330
1F
100
AcDbEntity
  8
0
  6
Continuous
 62
     7
370
    15
100
AcDbLine
 10
180.4257048927
 20
110.6460431395
 30
0.0
 11
180.4257048927
 21
95.1281101864
 31
0.0
  0
SPLINE
  5
7A
330
1F
100
AcDbEntity
  8
0
  6
Continuous
 62
     7
370
    15
100
AcDbSpline
210
0.0
220
0.0
230
1.0
 70
     8
 71
     3
 72
    16
 73
    12
 74
     0
 42
0.00000001
 43
0.00000001
 40
0.0
 40
0.0
 40
0.0
 40
0.0
 40
0.5000000000000038
 40
0.5000000000000038
 40
0.7500000000000057
 40
0.7500000000000057
 40
0.875000000000004
 40
0.875000000000004
 40
0.9375000000000021
 40
0.9375000000000021
 40
1.0
 40
1.0
 40
1.0
 40
1.0
 10
180.4257048927123
 20
110.6460431395319
 30
0.0
 10
180.4257048927123
 20
110.7597356836598
 30
0.0
 10
180.4215586176343
 20
110.8740558450093
 30
0.0
 10
180.3955930222408
 20
111.0471041355064
 30
0.0
 10
180.3841321168634
 20
111.1062796426681
 30
0.0
 10
180.349820379089
 20
111.1894027621363
 30
0.0
 10
180.3357956431595
 20
111.217524078237
 30
0.0
 10
180.2997726801256
 20
111.2461398922144
 30
0.0
 10
180.2850181710359
 20
111.2519329401162
 30
0.0
 10
180.255666009889
 20
111.2503395141791
 30
0.0
 10
180.242326135385
 20
111.2438431108553
 30
0.0
 10
180.2307280038366
 20
111.2353273646522
 30
0.0
  0
SPLINE
  5
7B
330
1F
100
AcDbEntity
  8
0
  6
Continuous
 62
     7
370
    15
100
AcDbSpline
210
0.0
220
0.0
230
1.0
 70
     8
 71
     3
 72
    12
 73
     8
 74
     0
 42
0.00000001
 43
0.00000001
 40
0.0
 40
0.0
 40
0.0
 40
0.0
 40
0.2499999999999998
 40
0.2499999999999998
 40
0.4999999999999997
 40
0.4999999999999997
 40
1.0
 40
1.0
 40
1.0
 40
1.0
 10
180.2307280038437
 20
111.235327364643
 30
0.0
 10
180.2005295624031
 20
111.213154632598
 30
0.0
 10
180.1671622070671
 20
111.1940749767207
 30
0.0
 10
180.0940069312372
 20
111.168901932278
 30
0.0
 10
180.0537542322132
 20
111.1633453958613
 30
0.0
 10
179.9360254889384
 20
111.174257206848
 30
0.0
 10
179.8655670408794
 20
111.2161929622589
 30
0.0
 10
179.8091926062611
 20
111.2654047446404
 30
0.0
  0
SPLINE
  5
7C
330
1F
100
AcDbEntity
  8
0
  6
Continuous
 62
     7
370
    15
100
AcDbSpline
210
0.0
220
0.0
230
1.0
 70
     8
 71
     3
 72
    12
 73
     8
 74
     0
 42
0.00000001
 43
0.00000001
 40
0.0
 40
0.0
 40
0.0
 40
0.0
 40
0.4999999999999987
 40
0.4999999999999987
 40
0.7499999999999994
 40
0.7499999999999994
 40
1.0
 40
1.0
 40
1.0
 40
1.0
 10
179.3043845491526
 20
112.481756136521
 30
0.0
 10
179.3481349010371
 20
112.2613091515465
 30
0.0
 10
179.4010250521616
 20
112.0457641617409
 30
0.0
 10
179.5126365953033
 20
111.733350085169
 30
0.0
 10
179.5551959392068
 20
111.6312706095531
 30
0.0
 10
179.6601731745442
 20
111.4368305969113
 30
0.0
 10
179.7217404176388
 20
111.3417456978477
 30
0.0
 10
179.8091926062611
 20
111.2654047446405
 30
0.0
  0
LINE
  5
7D
330
1F
100
AcDbEntity
  8
0
  6
Continuous
 62
     7
370
    15
100
AcDbLine
 10
179.3043845492
 20
112.4817561365
 30
0.0
 11
179.3043845492
 21
122.854104794
 31
0.0
  0
SPLINE
  5
7E
330
1F
100
AcDbEntity
  8
0
  6
Continuous
 62
     7
370
    15
100
AcDbSpline
210
0.0
220
0.0
230
1.0
 70
     8
 71
     3
 72
    12
 73
     8
 74
     0
 42
0.00000001
 43
0.00000001
 40
0.0
 40
0.0
 40
0.0
 40
0.0
 40
0.2500000000000009
 40
0.2500000000000009
 40
0.5000000000000017
 40
0.5000000000000017
 40
1.0
 40
1.0
 40
1.0
 40
1.0
 10
179.809192606261
 20
124.0704561859236
 30
0.0
 10
179.7206991986932
 20
123.9932063058153
 30
0.0
 10
179.6606411579273
 20
123.8998869819261
 30
0.0
 10
179.5547928849447
 20
123.7038539289567
 30
0.0
 10
179.5122593636673
 20
123.6015275707449
 30
0.0
 10
179.4011080568436
 20
123.2901831649691
 30
0.0
 10
179.3481771997958
 20
123.074764911791
 30
0.0
 10
179.3043845491526
 20
122.8541047940432
 30
0.0
  0
SPLINE
  5
7F
330
1F
100
AcDbEntity
  8
0
  6
Continuous
 62
     7
370
    15
100
AcDbSpline
210
0.0
220
0.0
230
1.0
 70
     8
 71
     3
 72
    12
 73
     8
 74
     0
 42
0.00000001
 43
0.00000001
 40
0.0
 40
0.0
 40
0.0
 40
0.0
 40
0.5000000000000003
 40
0.5000000000000003
 40
0.7500000000000001
 40
0.7500000000000001
 40
1.0
 40
1.0
 40
1.0
 40
1.0
 10
179.809192606261
 20
124.0704561859237
 30
0.0
 10
179.8655011545567
 20
124.1196104531675
 30
0.0
 10
179.9357758152748
 20
124.1615677717713
 30
0.0
 10
180.0538137295984
 20
124.1725274493037
 30
0.0
 10
180.0939899704523
 20
124.1670186910564
 30
0.0
 10
180.1679470651302
 20
124.1414614622674
 30
0.0
 10
180.2005634528417
 20
124.1226814144281
 30
0.0
 10
180.2307280038374
 20
124.1005335659114
 30
0.0
  0
SPLINE
  5
80
330
1F
100
AcDbEntity
  8
0
  6
Continuous
 62
     7
370
    15
100
AcDbSpline
210
0.0
220
0.0
230
1.0
 70
     8
 71
     3
 72
    16
 73
    12
 74
     0
 42
0.00000001
 43
0.00000001
 40
0.0
 40
0.0
 40
0.0
 40
0.0
 40
0.0625000000000006
 40
0.0625000000000006
 40
0.1250000000000012
 40
0.1250000000000012
 40
0.2500000000000037
 40
0.2500000000000037
 40
0.5000000000000036
 40
0.5000000000000036
 40
1.0
 40
1.0
 40
1.0
 40
1.0
 10
180.2307280038057
 20
124.1005335658569
 30
0.0
 10
180.242340903645
 20
124.0920069762616
 30
0.0
 10
180.2556920880775
 20
124.0855067147288
 30
0.0
 10
180.2850919276967
 20
124.0839373176113
 30
0.0
 10
180.299932652252
 20
124.0898207082419
 30
0.0
 10
180.3357658602206
 20
124.1183683442924
 30
0.0
 10
180.3498790680421
 20
124.1465353635983
 30
0.0
 10
180.384370439261
 20
124.2302896220202
 30
0.0
 10
180.3954545103714
 20
124.2880030356416
 30
0.0
 10
180.4215773281674
 20
124.4615935722875
 30
0.0
 10
180.4257048927123
 20
124.5766216249294
 30
0.0
 10
180.4257048927123
 20
124.6898177910323
 30
0.0
  0
LINE
  5
81
330
1F
100
AcDbEntity
  8
0
  6
Continuous
 62
     7
370
    15
100
AcDbLine
 10
180.4257048927
 20
140.2077507442
 30
0.0
 11
180.4257048927
 21
124.689817791
 31
0.0
  0
SPLINE
  5
82
330
1F
100
AcDbEntity
  8
0
  6
Continuous
 62
     7
370
    15
100
AcDbSpline
210
0.0
220
0.0
230
1.0
 70
     8
 71
     3
 72
    16
 73
    12
 74
     0
 42
0.00000001
 43
0.00000001
 40
0.0
 40
0.0
 40
0.0
 40
0.0
 40
0.4999999999999938
 40
0.4999999999999938
 40
0.7499999999999927
 40
0.7499999999999927
 40
0.8749999999999937
 40
0.8749999999999937
 40
0.9374999999999969
 40
0.9374999999999969
 40
1.0
 40
1.0
 40
1.0
 40
1.0
 10
180.4257048927123
 20
139.7275249535234
 30
0.0
 10
180.4257048927123
 20
139.7028537974804
 30
0.0
 10
180.4215391942523
 20
139.6752719660892
 30
0.0
 10
180.3952808659274
 20
139.6249290952659
 30
0.0
 10
180.3837770841898
 20
139.606639597204
 30
0.0
 10
180.3496463248432
 20
139.5754845661669
 30
0.0
 10
180.3352244381725
 20
139.5638451909552
 30
0.0
 10
180.2996574697347
 20
139.5469631650241
 30
0.0
 10
180.28470570144
 20
139.5415740612165
 30
0.0
 10
180.2557018830803
 20
139.534953565272
 30
0.0
 10
180.242286529071
 20
139.5336009770656
 30
0.0
 10
180.2307280038344
 20
139.5333013531939
 30
0.0
  0
SPLINE
  5
83
330
1F
100
AcDbEntity
  8
0
  6
Continuous
 62
     7
370
    15
100
AcDbSpline
210
0.0
220
0.0
230
1.0
 70
     8
 71
     3
 72
    12
 73
     8
 74
     0
 42
0.00000001
 43
0.00000001
 40
0.0
 40
0.0
 40
0.0
 40
0.0
 40
0.25
 40
0.25
 40
0.5
 40
0.5
 40
1.0
 40
1.0
 40
1.0
 40
1.0
 10
180.2307280038437
 20
139.5333013531957
 30
0.0
 10
180.2005402272941
 20
139.5325188157781
 30
0.0
 10
180.1671864232023
 20
139.5316254839596
 30
0.0
 10
180.0940602200064
 20
139.529698175156
 30
0.0
 10
180.0538250169822
 20
139.5286586439433
 30
0.0
 10
179.9361333868491
 20
139.5257407605961
 30
0.0
 10
179.8657527136891
 20
139.5241451545258
 30
0.0
 10
179.8091926062585
 20
139.522724167758
 30
0.0
  0
SPLINE
  5
84
330
1F
100
AcDbEntity
  8
0
  6
Continuous
 62
     7
370
    15
100
AcDbSpline
210
0.0
220
0.0
230
1.0
 70
     8
 71
     3
 72
    16
 73
    12
 74
     0
 42
0.00000001
 43
0.00000001
 40
0.0
 40
0.0
 40
0.0
 40
0.0
 40
0.2499999999999999
 40
0.2499999999999999
 40
0.3749999999999999
 40
0.3749999999999999
 40
0.4999999999999999
 40
0.4999999999999999
 40
0.7499999999999999
 40
0.7499999999999999
 40
1.0
 40
1.0
 40
1.0
 40
1.0
 10
179.3043845491526
 20
122.8541047940432
 30
0.0
 10
179.1431520716682
 20
122.0416950187963
 30
0.0
 10
179.0226722320285
 20
121.2016167244116
 30
0.0
 10
178.9002917147152
 20
119.9003216750488
 30
0.0
 10
178.8693140543178
 20
119.459640639464
 30
0.0
 10
178.8277003166898
 20
118.5638009985329
 30
0.0
 10
178.817464403757
 20
118.1171428673304
 30
0.0
 10
178.8172760067009
 20
116.7818329101905
 30
0.0
 10
178.8574207093385
 20
115.897337536883
 30
0.0
 10
179.0215744642781
 20
114.140087648857
 30
0.0
 10
179.1431261146876
 20
113.2942967024439
 30
0.0
 10
179.3043845491526
 20
112.481756136521
 30
0.0
  0
LINE
  5
85
330
1F
100
AcDbEntity
  8
0
  6
Continuous
 62
     7
370
    15
100
AcDbLine
 10
178.6306649148
 20
111.2802091035
 30
0.0
 11
179.8091926063
 21
111.2654047446
 31
0.0
  0
LINE
  5
86
330
1F
100
AcDbEntity
  8
0
  6
Continuous
 62
     7
370
    15
100
AcDbLine
 10
178.6306649148
 20
124.0556518271
 30
0.0
 11
178.6306649148
 21
111.2802091035
 31
0.0
  0
LINE
  5
87
330
1F
100
AcDbEntity
  8
0
  6
Continuous
 62
     7
370
    15
100
AcDbLine
 10
178.6306649148
 20
124.0556518271
 30
0.0
 11
179.8091926063
 21
124.0704561859
 31
0.0
  0
LWPOLYLINE
  5
88
330
1F
100
AcDbEntity
  8
0
  6
Continuous
 62
     7
370
    15
100
AcDbPolyline
 90
        9
 70
   128
 43
0.0
 10
178.4257048927
 20
111.1827522036
 10
178.4305265848
 20
111.2022068229
 10
178.4428464452
 20
111.2208172945
 10
178.4621910288
 20
111.2378684283
 10
178.4878169341
 20
111.2527049588
 10
178.5187393717
 20
111.2647567265
 10
178.5537700099
 20
111.2735605886
 10
178.5915626408
 20
111.2787782178
 10
178.6306649148
 20
111.2802091035
  0
LINE
  5
89
330
1F
100
AcDbEntity
  8
0
  6
Continuous
 62
     7
370
    15
100
AcDbLine
 10
178.4257048927
 20
124.153108727
 30
0.0
 11
178.4257048927
 21
111.1827522036
 31
0.0
  0
LWPOLYLINE
  5
8A
330
1F
100
AcDbEntity
  8
0
  6
Continuous
 62
     7
370
    15
100
AcDbPolyline
 90
        9
 70
   128
 43
0.0
 10
178.4257048927
 20
124.153108727
 10
178.4305265848
 20
124.1336541076
 10
178.4428464452
 20
124.1150436361
 10
178.4621910288
 20
124.0979925023
 10
178.4878169341
 20
124.0831559718
 10
178.5187393717
 20
124.0711042041
 10
178.5537700099
 20
124.0623003419
 10
178.5915626408
 20
124.0570827127
 10
178.6306649148
 20
124.0556518271
  0
LINE
  5
8B
330
1F
100
AcDbEntity
  8
0
  6
Continuous
 62
     7
370
    15
100
AcDbLine
 10
144.1257048927
 20
111.6136198977
 30
0.0
 11
178.4257048927
 21
111.1827522036
 31
0.0
  0
LINE
  5
8C
330
1F
100
AcDbEntity
  8
0
  6
Continuous
 62
     7
370
    15
100
AcDbLine
 10
144.1257048927
 20
123.7222410328
 30
0.0
 11
144.1257048927
 21
111.6136198977
 31
0.0
  0
LINE
  5
8D
330
1F
100
AcDbEntity
  8
0
  6
Continuous
 62
     7
370
    15
100
AcDbLine
 10
144.1257048927
 20
123.7222410328
 30
0.0
 11
178.4257048927
 21
124.153108727
 31
0.0
  0
LINE
  5
8E
330
1F
100
AcDbEntity
  8
0
  6
Continuous
 62
     7
370
    15
100
AcDbLine
 10
142.6257048927
 20
112.0466325996
 30
0.0
 11
144.1257048927
 21
111.6136198977
 31
0.0
  0
LINE
  5
8F
330
1F
100
AcDbEntity
  8
0
  6
Continuous
 62
     7
370
    15
100
AcDbLine
 10
142.6257048927
 20
123.2892283309
 30
0.0
 11
142.6257048927
 21
112.0466325996
 31
0.0
  0
LINE
  5
90
330
1F
100
AcDbEntity
  8
0
  6
Continuous
 62
     7
370
    15
100
AcDbLine
 10
142.6257048927
 20
123.2892283309
 30
0.0
 11
144.1257048927
 21
123.7222410328
 31
0.0
  0
LINE
  5
91
330
1F
100
AcDbEntity
  8
0
  6
Continuous
 62
     7
370
    15
100
AcDbLine
 10
144.1257048927
 20
96.509567069
 30
0.0
 11
144.1257048927
 21
111.6136198977
 31
0.0
  0
LINE
  5
92
330
1F
100
AcDbEntity
  8
0
  6
Continuous
 62
     7
370
    15
100
AcDbLine
 10
178.4257048927
 20
95.6478316807
 30
0.0
 11
178.4257048927
 21
111.1827522036
 31
0.0
  0
LINE
  5
93
330
1F
100
AcDbEntity
  8
0
  6
Continuous
 62
     7
370
    15
100
AcDbLine
 10
144.1257048927
 20
96.509567069
 30
0.0
 11
178.4257048927
 21
95.6478316807
 31
0.0
  0
LINE
  5
94
330
1F
100
AcDbEntity
  8
0
  6
Continuous
 62
     7
370
    15
100
AcDbLine
 10
178.6306649148
 20
95.8427454805
 30
0.0
 11
178.6306649148
 21
111.2802091035
 31
0.0
  0
ARC
  5
95
330
1F
100
AcDbEntity
  8
0
  6
Continuous
 62
     7
370
    15
100
AcDbCircle
 10
178.6256418036
 20
95.6428085696
 30
0.0
 40
0.2000000000000066
100
AcDbArc
 50
88.5608333333
 51
178.5608333333
  0
LINE
  5
96
330
1F
100
AcDbEntity
  8
0
  6
Continuous
 62
     7
370
    15
100
AcDbLine
 10
178.4257048927
 20
124.153108727
 30
0.0
 11
178.4257048927
 21
139.6880292498
 31
0.0
  0
ARC
  5
97
330
1F
100
AcDbEntity
  8
0
  6
Continuous
 62
     7
370
    15
100
AcDbCircle
 10
178.6256418036
 20
139.693052361
 30
0.0
 40
0.1999999999999782
100
AcDbArc
 50
181.4391666667
 51
271.4391666667
  0
LINE
  5
98
330
1F
100
AcDbEntity
  8
0
  6
Continuous
 62
     7
370
    15
100
AcDbLine
 10
178.6306649148
 20
124.0556518271
 30
0.0
 11
178.6306649148
 21
139.49311545
 31
0.0
  0
LINE
  5
99
330
1F
100
AcDbEntity
  8
0
  6
Continuous
 62
     7
370
    15
100
AcDbLine
 10
144.1257048927
 20
123.7222410328
 30
0.0
 11
144.1257048927
 21
138.8262938616
 31
0.0
  0
LINE
  5
9A
330
1F
100
AcDbEntity
  8
0
  6
Continuous
 62
     7
370
    15
100
AcDbLine
 10
144.1257048927
 20
138.8262938616
 30
0.0
 11
178.4257048927
 21
139.6880292498
 31
0.0
  0
LINE
  5
9B
330
1F
100
AcDbEntity
  8
0
  6
Continuous
 62
     7
370
    15
100
AcDbLine
 10
180.2307280038
 20
95.8025595774
 30
0.0
 11
180.2307280038
 21
111.2353273647
 31
0.0
  0
LINE
  5
9C
330
1F
100
AcDbEntity
  8
0
  6
Continuous
 62
     7
370
    15
100
AcDbLine
 10
180.2307280038
 20
124.1005335659
 30
0.0
 11
180.2307280038
 21
139.5333013532
 31
0.0
  0
LINE
  5
9D
330
1F
100
AcDbEntity
  8
0
  6
Continuous
 62
     7
370
    15
100
AcDbLine
 10
178.6306649148
 20
139.49311545
 30
0.0
 11
179.8091926063
 21
139.5227241678
 31
0.0
  0
LINE
  5
9E
330
1F
100
AcDbEntity
  8
0
  6
Continuous
 62
     7
370
    15
100
AcDbLine
 10
178.6306649148
 20
95.8427454805
 30
0.0
 11
179.8091926063
 21
95.8131367628
 31
0.0
  0
LINE
  5
9F
330
1F
100
AcDbEntity
  8
0
  6
Continuous
 62
     7
370
    15
100
AcDbLine
 10
142.6257048927
 20
137.9602684578
 30
0.0
 11
144.1257048927
 21
138.8262938616
 31
0.0
  0
LINE
  5
A0
330
1F
100
AcDbEntity
  8
0
  6
Continuous
 62
     7
370
    15
100
AcDbLine
 10
142.6257048927
 20
123.2892283309
 30
0.0
 11
142.6257048927
 21
137.9602684578
 31
0.0
  0
LINE
  5
A1
330
1F
100
AcDbEntity
  8
0
  6
Continuous
 62
     7
370
    15
100
AcDbLine
 10
142.6257048927
 20
97.3755924728
 30
0.0
 11
144.1257048927
 21
96.509567069
 31
0.0
  0
LINE
  5
A2
330
1F
100
AcDbEntity
  8
0
  6
Continuous
 62
     7
370
    15
100
AcDbLine
 10
142.6257048927
 20
97.3755924728
 30
0.0
 11
142.6257048927
 21
112.0466325996
 31
0.0
  0
SPLINE
  5
A3
330
1F
100
AcDbEntity
  8
0
  6
Continuous
 62
     7
370
    15
100
AcDbSpline
210
0.0
220
0.0
230
1.0
 70
     8
 71
     3
 72
     8
 73
     4
 74
     0
 42
0.00000001
 43
0.00000001
 40
0.0
 40
0.0
 40
0.0
 40
0.0
 40
1.0
 40
1.0
 40
1.0
 40
1.0
 10
218.8243037310224
 20
85.42702421155637
 30
0.0
 10
218.9926250856622
 20
84.79900241794833
 30
0.0
 10
219.1610154765539
 20
84.17075404382071
 30
0.0
 10
219.3294558141194
 20
83.54228544764041
 30
0.0
  0
SPLINE
  5
A4
330
1F
100
AcDbEntity
  8
0
  6
Continuous
 62
     7
370
    15
100
AcDbSpline
210
0.0
220
0.0
230
1.0
 70
     8
 71
     3
 72
    12
 73
     8
 74
     0
 42
0.00000001
 43
0.00000001
 40
0.0
 40
0.0
 40
0.0
 40
0.0
 40
0.2499999999999948
 40
0.2499999999999948
 40
0.4999999999999896
 40
0.4999999999999896
 40
1.0
 40
1.0
 40
1.0
 40
1.0
 10
217.8583779047333
 20
86.16849428070867
 30
0.0
 10
217.9629525937902
 20
86.16822508215614
 30
0.0
 10
218.0663145458294
 20
86.15205987611185
 30
0.0
 10
218.2699198092526
 20
86.08557921047912
 30
0.0
 10
218.3666460472162
 20
86.0360559896913
 30
0.0
 10
218.6304634480098
 20
85.84021774593134
 30
0.0
 10
218.7653688205603
 20
85.64691555127212
 30
0.0
 10
218.8243037310224
 20
85.42702421155637
 30
0.0
  0
ELLIPSE
  5
A5
330
1F
100
AcDbEntity
  8
0
  6
Continuous
 62
     7
370
    15
100
AcDbEllipse
 10
220.2296668206
 20
142.8066630486
 30
0.0
 11
-5.984573931208105
 21
8.612441559279775
 31
0.0
210
0.0
220
0.0
230
1.0
 40
0.0499243758
 41
0.7176122920541796
 42
1.642519599232631
  0
LINE
  5
A6
330
1F
100
AcDbEntity
  8
0
  6
Continuous
 62
     7
370
    15
100
AcDbLine
 10
233.397025108
 20
82.7990853434
 30
0.0
 11
235.6898809713
 21
82.6789218594
 31
0.0
  0
LINE
  5
A7
330
1F
100
AcDbEntity
  8
0
  6
Continuous
 62
     7
370
    15
100
AcDbLine
 10
235.5871536657
 20
82.512592462
 30
0.0
 11
235.6898809713
 21
82.6789218594
 31
0.0
  0
LINE
  5
A8
330
1F
100
AcDbEntity
  8
0
  6
Continuous
 62
     7
370
    15
100
AcDbLine
 10
235.5871536657
 20
82.512592462
 30
0.0
 11
233.6573472077
 21
82.6137293329
 31
0.0
  0
LINE
  5
A9
330
1F
100
AcDbEntity
  8
0
  6
Continuous
 62
     7
370
    15
100
AcDbLine
 10
222.1033049042
 20
79.5533380141
 30
0.0
 11
220.3741143318
 21
79.643961052
 31
0.0
  0
LWPOLYLINE
  5
AA
330
1F
100
AcDbEntity
  8
0
  6
Continuous
 62
     7
370
    15
100
AcDbPolyline
 90
        3
 70
   128
 43
0.0
 10
221.8420467684
 20
74.1654135814
 10
223.3618210498
 20
74.0857636959
 10
229.5141843605
 20
73.7633244151
  0
LINE
  5
AB
330
1F
100
AcDbEntity
  8
0
  6
Continuous
 62
     7
370
    15
100
AcDbLine
 10
220.3741143318
 20
79.643961052
 30
0.0
 11
221.8420467684
 21
74.1654135814
 31
0.0
  0
LINE
  5
AC
330
1F
100
AcDbEntity
  8
0
  6
Continuous
 62
     7
370
    15
100
AcDbLine
 10
233.0994582937
 20
92.5299419603
 30
0.0
 11
233.0994582937
 21
123.5115050287
 31
0.0
  0
ARC
  5
AD
330
1F
100
AcDbEntity
  8
0
  6
Continuous
 62
     7
370
    15
100
AcDbCircle
 10
253.1257048927
 20
92.5299419603
 30
0.0
 40
20.02624659905783
100
AcDbArc
 50
180.0
 51
209.4658992351
  0
LINE
  5
AE
330
1F
100
AcDbEntity
  8
0
  6
Continuous
 62
     7
370
    15
100
AcDbLine
 10
233.0994582937
 20
123.5115050287
 30
0.0
 11
220.2296668206
 21
141.8914720681
 31
0.0
  0
LINE
  5
AF
330
1F
100
AcDbEntity
  8
0
  6
Continuous
 62
     7
370
    15
100
AcDbLine
 10
221.88226676
 20
79.7260319391
 30
0.0
 11
220.3393113143
 21
79.8068948075
 31
0.0
  0
SPLINE
  5
B0
330
1F
100
AcDbEntity
  8
0
  6
Continuous
 62
     7
370
    15
100
AcDbSpline
210
0.0
220
0.0
230
1.0
 70
     8
 71
     3
 72
     8
 73
     4
 74
     0
 42
0.00000001
 43
0.00000001
 40
0.0
 40
0.0
 40
0.0
 40
0.0
 40
1.0
 40
1.0
 40
1.0
 40
1.0
 10
220.3393113143144
 20
79.8068948074984
 30
0.0
 10
220.3488495707103
 20
79.75268598618236
 30
0.0
 10
220.3604580304764
 20
79.69837436419105
 30
0.0
 10
220.3741143317548
 20
79.64396105195357
 30
0.0
  0
ARC
  5
B1
330
1F
100
AcDbEntity
  8
0
  6
Continuous
 62
     7
370
    15
100
AcDbCircle
 10
253.1257048927
 20
92.5299419603
 30
0.0
 40
20.41644603838343
100
AcDbArc
 50
209.3396573585
 51
217.8845758324
  0
LINE
  5
B2
330
1F
100
AcDbEntity
  8
0
  6
Continuous
 62
     7
370
    15
100
AcDbLine
 10
220.0513812885
 20
81.1564764418
 30
0.0
 11
220.410999655
 21
79.8031377808
 31
0.0
  0
LWPOLYLINE
  5
B3
330
1F
100
AcDbEntity
  8
0
  6
Continuous
 62
     7
370
    15
100
AcDbPolyline
 90
       16
 70
   128
 43
0.0
 10
204.6203342017
 20
102.2325391006
 10
204.6187078859
 20
102.2105895162
 10
204.4981001743
 20
101.6382578637
 10
204.2334585693
 20
101.1035179257
 10
203.8380533059
 20
100.6331837958
 10
203.3317116551
 20
100.250839991
 10
202.7398237015
 20
99.9756588264
 10
202.0920691787
 20
99.8214390345
 10
201.4209292033
 20
99.7959138396
 10
200.760057536
 20
99.9003631817
 10
200.1425930418
 20
100.1295495346
 10
199.5994979687
 20
100.4719805375
 10
199.1580053715
 20
100.9104852701
 10
198.8402535325
 20
101.423075274
 10
198.6621758558
 20
101.9840471462
 10
198.6257048927
 20
102.3879304653
  0
LWPOLYLINE
  5
B4
330
1F
100
AcDbEntity
  8
0
  6
Continuous
 62
     7
370
    15
100
AcDbPolyline
 90
       18
 70
   128
 43
0.0
 10
204.2811685227
 20
103.2377590809
 10
204.4545334071
 20
102.6826179029
 10
204.475395414
 20
102.1078163307
 10
204.3426298673
 20
101.5443420659
 10
204.063394192
 20
101.0225721519
 10
203.6527420556
 20
100.5706353399
 10
203.132811821
 20
100.2128956604
 10
202.5316330619
 20
99.968638952
 10
201.8816154806
 20
99.8510331573
 10
201.2178016934
 20
99.8664184349
 10
200.5759780731
 20
100.0139653607
 10
199.9907454975
 20
100.2857196416
 10
199.493654006
 20
100.667030934
 10
199.1115019297
 20
101.1373426475
 10
198.8648911859
 20
101.6713001558
 10
198.7671166236
 20
102.2401176715
 10
198.8234492949
 20
102.813130095
 10
198.9380338708
 20
103.1646998309
  0
LWPOLYLINE
  5
B5
330
1F
100
AcDbEntity
  8
0
  6
Continuous
 62
     7
370
    15
100
AcDbPolyline
 90
       27
 70
   128
 43
0.0
 10
203.9469143595
 20
103.121976458
 10
204.1016526334
 20
102.6175336847
 10
204.1124978243
 20
102.0956790612
 10
203.9788196491
 20
101.5867408815
 10
203.7083869975
 20
101.1202967827
 10
203.3169164323
 20
100.7234548002
 10
202.8271587996
 20
100.4192779478
 10
202.267577033
 20
100.2254438783
 10
201.6706919907
 20
100.1532175234
 10
201.0711924618
 20
100.2067964163
 10
200.5039191798
 20
100.3830667464
 10
200.0018400059
 20
100.6717843229
 10
199.5941339567
 20
101.0561699297
 10
199.3044954259
 20
101.5138844726
 10
199.149757152
 20
102.0183272459
 10
199.1389119611
 20
102.5401818694
 10
199.2725901363
 20
103.049120049
 10
199.5430227879
 20
103.5155641479
 10
199.9344933532
 20
103.9124061303
 10
200.4242509858
 20
104.2165829828
 10
200.9838327524
 20
104.4104170523
 10
201.5807177947
 20
104.4826434072
 10
202.1802173236
 20
104.4290645143
 10
202.7474906056
 20
104.2527941842
 10
203.2495697795
 20
103.9640766077
 10
203.6572758287
 20
103.5796910008
 10
203.9469143595
 20
103.121976458
  0
LINE
  5
B6
330
1F
100
AcDbEntity
  8
0
  6
Continuous
 62
     7
370
    15
100
AcDbLine
 10
245.4854567814
 20
73.3725973342
 30
0.0
 11
233.4847078492
 21
82.7486099823
 31
0.0
  0
LINE
  5
B7
330
1F
100
AcDbEntity
  8
0
  6
Continuous
 62
     7
370
    15
100
AcDbLine
 10
230.0135647387
 20
73.4646160105
 30
0.0
 11
245.2218626814
 21
72.6675828886
 31
0.0
  0
LINE
  5
B8
330
1F
100
AcDbEntity
  8
0
  6
Continuous
 62
     7
370
    15
100
AcDbLine
 10
217.7883433115
 20
82.9245554854
 30
0.0
 11
229.7890922437
 21
73.5485428373
 31
0.0
  0
LINE
  5
B9
330
1F
100
AcDbEntity
  8
0
  6
Continuous
 62
     7
370
    15
100
AcDbLine
 10
233.2602353542
 20
82.8325368091
 30
0.0
 11
218.0519374115
 21
83.629569931
 31
0.0
  0
LINE
  5
BA
330
1F
100
AcDbEntity
  8
0
  6
Continuous
 62
     7
370
    15
100
AcDbLine
 10
230.0150908701
 20
73.4845634763
 30
0.0
 11
245.2058172293
 21
72.6884512421
 31
0.0
  0
ARC
  5
BB
330
1F
100
AcDbEntity
  8
0
  6
Continuous
 62
     7
370
    15
100
AcDbCircle
 10
245.2257048927
 20
73.0679304653
 30
0.0
 40
0.3800000000000383
100
AcDbArc
 50
267.0
 51
52.0
  0
LINE
  5
BC
330
1F
100
AcDbEntity
  8
0
  6
Continuous
 62
     7
370
    15
100
AcDbLine
 10
245.4596562533
 20
73.3673745517
 30
0.0
 11
233.4727729199
 21
82.7325542063
 31
0.0
  0
ARC
  5
BD
330
1F
100
AcDbEntity
  8
0
  6
Continuous
 62
     7
370
    15
100
AcDbCircle
 10
233.2388215595
 20
82.4331101201
 30
0.0
 40
0.3799999999999912
100
AcDbArc
 50
52.0
 51
87.0
  0
LINE
  5
BE
330
1F
100
AcDbEntity
  8
0
  6
Continuous
 62
     7
370
    15
100
AcDbLine
 10
233.2587092229
 20
82.8125893433
 30
0.0
 11
218.0679828636
 21
83.6087015775
 31
0.0
  0
ARC
  5
BF
330
1F
100
AcDbEntity
  8
0
  6
Continuous
 62
     7
370
    15
100
AcDbCircle
 10
218.0480952002
 20
83.2292223543
 30
0.0
 40
0.3800000000000096
100
AcDbArc
 50
87.0
 51
232.0
  0
LINE
  5
C0
330
1F
100
AcDbEntity
  8
0
  6
Continuous
 62
     7
370
    15
100
AcDbLine
 10
217.8141438396
 20
82.9297782679
 30
0.0
 11
229.8010271728
 21
73.5645986131
 31
0.0
  0
ARC
  5
C1
330
1F
100
AcDbEntity
  8
0
  6
Continuous
 62
     7
370
    15
100
AcDbCircle
 10
230.0349785334
 20
73.8640426995
 30
0.0
 40
0.3800000000000069
100
AcDbArc
 50
232.0
 51
267.0
  0
SPLINE
  5
C2
330
1F
100
AcDbEntity
  8
0
  6
Continuous
 62
     7
370
    15
100
AcDbSpline
210
0.0
220
0.0
230
1.0
 70
     8
 71
     3
 72
    10
 73
     6
 74
     0
 42
0.00000001
 43
0.00000001
 40
0.0
 40
0.0
 40
0.0
 40
0.0
 40
0.2724625973603443
 40
0.5448192322760598
 40
1.0
 40
1.0
 40
1.0
 40
1.0
 10
229.7890922437415
 20
73.5485428373376
 30
0.0
 10
229.8071574527494
 20
73.53583532082891
 30
0.0
 10
229.84328084509
 20
73.51042522984584
 30
0.0
 10
229.9180954765777
 20
73.47733454113559
 30
0.0
 10
229.9768224503903
 20
73.46951086261339
 30
0.0
 10
230.0135647387306
 20
73.46461601049549
 30
0.0
  0
SPLINE
  5
C3
330
1F
100
AcDbEntity
  8
0
  6
Continuous
 62
     7
370
    15
100
AcDbSpline
210
0.0
220
0.0
230
1.0
 70
     8
 71
     3
 72
    10
 73
     6
 74
     0
 42
0.00000001
 43
0.00000001
 40
0.0
 40
0.0
 40
0.0
 40
0.0
 40
0.2724625973602954
 40
0.5448192322760048
 40
1.0
 40
1.0
 40
1.0
 40
1.0
 10
233.4847078492035
 20
82.74860998226255
 30
0.0
 10
233.4666426401957
 20
82.76131749877125
 30
0.0
 10
233.4305192478551
 20
82.7867275897543
 30
0.0
 10
233.3557046163673
 20
82.81981827846458
 30
0.0
 10
233.2969776425547
 20
82.82764195698678
 30
0.0
 10
233.2602353542145
 20
82.83253680910467
 30
0.0
  0
SPLINE
  5
C4
330
1F
100
AcDbEntity
  8
0
  6
Continuous
 62
     7
370
    15
100
AcDbSpline
210
0.0
220
0.0
230
1.0
 70
     8
 71
     3
 72
    15
 73
    11
 74
     0
 42
0.00000001
 43
0.00000001
 40
0.0
 40
0.0
 40
0.0
 40
0.0
 40
0.136899903587917
 40
0.2736148776881566
 40
0.4079024808197314
 40
0.5393413680027861
 40
0.6692125346285339
 40
0.7996791423972329
 40
0.9324935729568987
 40
1.0
 40
1.0
 40
1.0
 40
1.0
 10
218.0519374115264
 20
83.62956993095578
 30
0.0
 10
218.0059364333057
 20
83.62749148341366
 30
0.0
 10
217.9139966166989
 20
83.62333739597378
 30
0.0
 10
217.7893840764983
 20
83.55973741348892
 30
0.0
 10
217.6941423629527
 20
83.46227611538815
 30
0.0
 10
217.6386052379339
 20
83.33973497311398
 30
0.0
 10
217.6271168755227
 20
83.20715966343295
 30
0.0
 10
217.6600937278184
 20
83.07820675473879
 30
0.0
 10
217.7207226800009
 20
82.98302574208952
 30
0.0
 10
217.7712993899689
 20
82.93929303584265
 30
0.0
 10
217.7883433115176
 20
82.92455548539992
 30
0.0
  0
SPLINE
  5
C5
330
1F
100
AcDbEntity
  8
0
  6
Continuous
 62
     7
370
    15
100
AcDbSpline
210
0.0
220
0.0
230
1.0
 70
     8
 71
     3
 72
    15
 73
    11
 74
     0
 42
0.00000001
 43
0.00000001
 40
0.0
 40
0.0
 40
0.0
 40
0.0
 40
0.1368999035879343
 40
0.2736148776881854
 40
0.4079024808197319
 40
0.5393413680028073
 40
0.6692125346285372
 40
0.7996791423972257
 40
0.9324935729568817
 40
1.0
 40
1.0
 40
1.0
 40
1.0
 10
245.2218626814187
 20
72.66758288864436
 30
0.0
 10
245.2678636596393
 20
72.66966133618646
 30
0.0
 10
245.3598034762462
 20
72.67381542362637
 30
0.0
 10
245.4844160164468
 20
72.73741540611124
 30
0.0
 10
245.5796577299924
 20
72.83487670421202
 30
0.0
 10
245.6351948550112
 20
72.9574178464862
 30
0.0
 10
245.6466832174223
 20
73.08999315616721
 30
0.0
 10
245.6137063651266
 20
73.21894606486136
 30
0.0
 10
245.5530774129442
 20
73.31412707751062
 30
0.0
 10
245.5025007029761
 20
73.3578597837575
 30
0.0
 10
245.4854567814275
 20
73.37259733420024
 30
0.0
  0
LINE
  5
C6
330
1F
100
AcDbEntity
  8
0
  6
Continuous
 62
     7
370
    15
100
AcDbLine
 10
233.2388215595
 20
82.4331101201
 30
0.0
 11
233.4727729199
 21
82.7325542063
 31
0.0
  0
LINE
  5
C7
330
1F
100
AcDbEntity
  8
0
  6
Continuous
 62
     7
370
    15
100
AcDbLine
 10
245.2257048927
 20
73.0679304653
 30
0.0
 11
245.4596562533
 21
73.3673745517
 31
0.0
  0
LINE
  5
C8
330
1F
100
AcDbEntity
  8
0
  6
Continuous
 62
     7
370
    15
100
AcDbLine
 10
242.0932224893
 20
74.2391176447
 30
0.0
 11
245.2257048927
 21
73.0679304653
 31
0.0
  0
LINE
  5
C9
330
1F
100
AcDbEntity
  8
0
  6
Continuous
 62
     7
370
    15
100
AcDbLine
 10
242.0932224893
 20
74.2391176447
 30
0.0
 11
241.1035146475
 21
75.012362156
 31
0.0
  0
SPLINE
  5
CA
330
1F
100
AcDbEntity
  8
0
  6
Continuous
 62
     7
370
    15
100
AcDbSpline
210
0.0
220
0.0
230
1.0
 70
     8
 71
     3
 72
    11
 73
     7
 74
     0
 42
0.00000001
 43
0.00000001
 40
0.0
 40
0.0
 40
0.0
 40
0.0
 40
0.3407378859339667
 40
0.5850538553183147
 40
0.8362413050877232
 40
1.0
 40
1.0
 40
1.0
 40
1.0
 10
239.634271790473
 20
77.34760550458064
 30
0.0
 10
239.8756419879143
 20
77.12620326397855
 30
0.0
 10
240.2900795083705
 20
76.7460511300727
 30
0.0
 10
240.6989505029596
 20
76.06990858751128
 30
0.0
 10
240.9473123543576
 20
75.51394718060614
 30
0.0
 10
241.0593133864616
 20
75.15429791215422
 30
0.0
 10
241.1035146474716
 20
75.01236215595382
 30
0.0
  0
LINE
  5
CB
330
1F
100
AcDbEntity
  8
0
  6
Continuous
 62
     7
370
    15
100
AcDbLine
 10
233.7473038727
 20
81.9470089225
 30
0.0
 11
239.6342717905
 21
77.3476055046
 31
0.0
  0
LINE
  5
CC
330
1F
100
AcDbEntity
  8
0
  6
Continuous
 62
     7
370
    15
100
AcDbLine
 10
233.1909768544
 20
82.3051436435
 30
0.0
 11
233.7473038727
 21
81.9470089225
 31
0.0
  0
LINE
  5
CD
330
1F
100
AcDbEntity
  8
0
  6
Continuous
 62
     7
370
    15
100
AcDbLine
 10
233.1909768544
 20
82.3051436435
 30
0.0
 11
233.2388215595
 21
82.4331101201
 31
0.0
  0
LINE
  5
CE
330
1F
100
AcDbEntity
  8
0
  6
Continuous
 62
     7
370
    15
100
AcDbLine
 10
245.2257048927
 20
73.0679304653
 30
0.0
 11
245.2058172293
 21
72.6884512421
 31
0.0
  0
LINE
  5
CF
330
1F
100
AcDbEntity
  8
0
  6
Continuous
 62
     7
370
    15
100
AcDbLine
 10
230.0349785334
 20
73.8640426995
 30
0.0
 11
230.0150908701
 21
73.4845634763
 31
0.0
  0
LINE
  5
D0
330
1F
100
AcDbEntity
  8
0
  6
Continuous
 62
     7
370
    15
100
AcDbLine
 10
230.0828232386
 20
73.9920091761
 30
0.0
 11
230.0349785334
 21
73.8640426995
 31
0.0
  0
LINE
  5
D1
330
1F
100
AcDbEntity
  8
0
  6
Continuous
 62
     7
370
    15
100
AcDbLine
 10
230.7376460863
 20
73.8973135177
 30
0.0
 11
230.0828232386
 21
73.9920091761
 31
0.0
  0
LINE
  5
D2
330
1F
100
AcDbEntity
  8
0
  6
Continuous
 62
     7
370
    15
100
AcDbLine
 10
238.1980773126
 20
73.5063288846
 30
0.0
 11
230.7376460863
 21
73.8973135177
 31
0.0
  0
SPLINE
  5
D3
330
1F
100
AcDbEntity
  8
0
  6
Continuous
 62
     7
370
    15
100
AcDbSpline
210
0.0
220
0.0
230
1.0
 70
     8
 71
     3
 72
    15
 73
    11
 74
     0
 42
0.00000001
 43
0.00000001
 40
0.0
 40
0.0
 40
0.0
 40
0.0
 40
0.0817242699622573
 40
0.1635588363079343
 40
0.2855999625548267
 40
0.408202838201845
 40
0.5329906771800637
 40
0.6587683741325386
 40
0.8274931451410752
 40
1.0
 40
1.0
 40
1.0
 40
1.0
 10
240.8389864562079
 20
74.30484936985033
 30
0.0
 10
240.7762749827556
 20
74.2652877321028
 30
0.0
 10
240.6507673994423
 20
74.18611106358797
 30
0.0
 10
240.4242755507418
 20
74.05685095021958
 30
0.0
 10
240.1571875326371
 20
73.92009973767065
 30
0.0
 10
239.8428486185654
 20
73.78419041486781
 30
0.0
 10
239.5133126075407
 20
73.66898778484169
 30
0.0
 10
239.1305471079838
 20
73.57016628985109
 30
0.0
 10
238.6901617126531
 20
73.50020595915208
 30
0.0
 10
238.363313002281
 20
73.504272884028
 30
0.0
 10
238.1980773126005
 20
73.50632888460387
 30
0.0
  0
LINE
  5
D4
330
1F
100
AcDbEntity
  8
0
  6
Continuous
 62
     7
370
    15
100
AcDbLine
 10
240.8389864562
 20
74.3048493699
 30
0.0
 11
242.0932224893
 21
74.2391176447
 31
0.0
  0
SPLINE
  5
D5
330
1F
100
AcDbEntity
  8
0
  6
Continuous
 62
     7
370
    15
100
AcDbSpline
210
0.0
220
0.0
230
1.0
 70
     8
 71
     3
 72
    15
 73
    11
 74
     0
 42
0.00000001
 43
0.00000001
 40
0.0
 40
0.0
 40
0.0
 40
0.0
 40
0.1601097208075634
 40
0.3233226221725808
 40
0.446899716391818
 40
0.571397438206396
 40
0.6982534182400004
 40
0.8257253996761156
 40
0.9127983405069036
 40
1.0
 40
1.0
 40
1.0
 40
1.0
 10
238.2347124819706
 20
74.20536955893206
 30
0.0
 10
238.3667738309029
 20
74.20241829973531
 30
0.0
 10
238.6334560873524
 20
74.19645858125358
 30
0.0
 10
238.9972947934446
 20
74.23673157002605
 30
0.0
 10
239.3232538031998
 20
74.30023457603615
 30
0.0
 10
239.6122992025415
 20
74.37960544328304
 30
0.0
 10
239.8952520435043
 20
74.4787611295677
 30
0.0
 10
240.1416119888376
 20
74.58366015253704
 30
0.0
 10
240.3533911771664
 20
74.68580808963523
 30
0.0
 10
240.4720856291784
 20
74.750042994573
 30
0.0
 10
240.5314766888557
 20
74.78218416888951
 30
0.0
  0
LINE
  5
D6
330
1F
100
AcDbEntity
  8
0
  6
Continuous
 62
     7
370
    15
100
AcDbLine
 10
238.234712482
 20
74.2053695589
 30
0.0
 11
238.2582636623
 21
74.6547528493
 31
0.0
  0
ARC
  5
D7
330
1F
100
AcDbEntity
  8
0
  6
Continuous
 62
     7
370
    15
100
AcDbCircle
 10
238.3105996185
 20
75.6533823843
 30
0.0
 40
1.000000000295376
100
AcDbArc
 50
267.0
 51
52.0
  0
LINE
  5
D8
330
1F
100
AcDbEntity
  8
0
  6
Continuous
 62
     7
370
    15
100
AcDbLine
 10
239.2033087577
 20
76.7959979771
 30
0.0
 11
238.9262610938
 21
76.4413931379
 31
0.0
  0
SPLINE
  5
D9
330
1F
100
AcDbEntity
  8
0
  6
Continuous
 62
     7
370
    15
100
AcDbSpline
210
0.0
220
0.0
230
1.0
 70
     8
 71
     3
 72
    13
 73
     9
 74
     0
 42
0.00000001
 43
0.00000001
 40
0.0
 40
0.0
 40
0.0
 40
0.0
 40
0.0871091111146189
 40
0.1743400070000621
 40
0.4227595715102186
 40
0.6765568100459535
 40
0.8368101301037797
 40
1.0
 40
1.0
 40
1.0
 40
1.0
 10
240.5582742752778
 20
74.8538575695194
 30
0.0
 10
240.5345709898853
 20
74.91698970839117
 30
0.0
 10
240.487131280211
 20
75.04334224938253
 30
0.0
 10
240.3571905571252
 20
75.34586522850672
 30
0.0
 10
240.1428314318526
 20
75.75833849106697
 30
0.0
 10
239.8320199699823
 20
76.19195883921789
 30
0.0
 10
239.5118758739049
 20
76.53931309755541
 30
0.0
 10
239.3067851379891
 20
76.70992003548965
 30
0.0
 10
239.2033087577451
 20
76.79599797705595
 30
0.0
  0
ARC
  5
DA
330
1F
100
AcDbEntity
  8
0
  6
Continuous
 62
     7
370
    15
100
AcDbCircle
 10
238.3105996185
 20
75.6533823843
 30
0.0
 40
2.385640646055158
100
AcDbArc
 50
338.5810823052
 51
340.4189176948
  0
ARC
  5
DB
330
1F
100
AcDbEntity
  8
0
  6
Continuous
 62
     7
370
    15
100
AcDbCircle
 10
224.9632004744
 20
80.6437704353
 30
0.0
 40
1.000000000000011
100
AcDbArc
 50
87.0
 51
232.0
  0
LINE
  5
DC
330
1F
100
AcDbEntity
  8
0
  6
Continuous
 62
     7
370
    15
100
AcDbLine
 10
232.475967657
 20
81.251415337
 30
0.0
 11
225.0155364307
 21
81.64239997
 31
0.0
  0
ARC
  5
DD
330
1F
100
AcDbEntity
  8
0
  6
Continuous
 62
     7
370
    15
100
AcDbCircle
 10
232.4236317007
 20
80.2527858022
 30
0.0
 40
1.00000000000001
100
AcDbArc
 50
52.0
 51
87.0
  0
LINE
  5
DE
330
1F
100
AcDbEntity
  8
0
  6
Continuous
 62
     7
370
    15
100
AcDbLine
 10
238.9262610938
 20
76.4413931379
 30
0.0
 11
233.039293176
 21
81.0407965558
 31
0.0
  0
LINE
  5
DF
330
1F
100
AcDbEntity
  8
0
  6
Continuous
 62
     7
370
    15
100
AcDbLine
 10
230.797832436
 20
75.0457374826
 30
0.0
 11
238.2582636623
 21
74.6547528493
 31
0.0
  0
ARC
  5
E0
330
1F
100
AcDbEntity
  8
0
  6
Continuous
 62
     7
370
    15
100
AcDbCircle
 10
230.8501683922
 20
76.0443670174
 30
0.0
 40
1.000000000000012
100
AcDbArc
 50
232.0
 51
267.0
  0
LINE
  5
E1
330
1F
100
AcDbEntity
  8
0
  6
Continuous
 62
     7
370
    15
100
AcDbLine
 10
224.3475389991
 20
79.8557596817
 30
0.0
 11
230.2345069169
 21
75.2563562638
 31
0.0
  0
CIRCLE
  5
E2
330
1F
100
AcDbEntity
  8
0
  6
Continuous
 62
     7
370
    15
100
AcDbCircle
 10
231.6369000465
 20
78.1485764098
 30
0.0
 40
3.049999999999988
  0
LINE
  5
E3
330
1F
100
AcDbEntity
  8
0
  6
Continuous
 62
     7
370
    15
100
AcDbLine
 10
233.3163408399
 20
81.3954013949
 30
0.0
 11
233.039293176
 21
81.0407965558
 31
0.0
  0
LINE
  5
E4
330
1F
100
AcDbEntity
  8
0
  6
Continuous
 62
     7
370
    15
100
AcDbLine
 10
239.2033087577
 20
76.7959979771
 30
0.0
 11
233.3163408399
 21
81.3954013949
 31
0.0
  0
LINE
  5
E5
330
1F
100
AcDbEntity
  8
0
  6
Continuous
 62
     7
370
    15
100
AcDbLine
 10
230.7742812557
 20
74.596354192
 30
0.0
 11
238.234712482
 21
74.2053695589
 31
0.0
  0
LINE
  5
E6
330
1F
100
AcDbEntity
  8
0
  6
Continuous
 62
     7
370
    15
100
AcDbLine
 10
230.7742812557
 20
74.596354192
 30
0.0
 11
230.797832436
 21
75.0457374826
 31
0.0
  0
LINE
  5
E7
330
1F
100
AcDbEntity
  8
0
  6
Continuous
 62
     7
370
    15
100
AcDbLine
 10
233.2388215595
 20
82.4331101201
 30
0.0
 11
233.2587092229
 21
82.8125893433
 31
0.0
  0
LINE
  5
E8
330
1F
100
AcDbEntity
  8
0
  6
Continuous
 62
     7
370
    15
100
AcDbLine
 10
232.4995188373
 20
81.7007986276
 30
0.0
 11
232.475967657
 21
81.251415337
 31
0.0
  0
LINE
  5
E9
330
1F
100
AcDbEntity
  8
0
  6
Continuous
 62
     7
370
    15
100
AcDbLine
 10
232.9463657837
 20
81.650901616
 30
0.0
 11
232.4995188373
 21
81.7007986276
 31
0.0
  0
LINE
  5
EA
330
1F
100
AcDbEntity
  8
0
  6
Continuous
 62
     7
370
    15
100
AcDbLine
 10
233.3163408399
 20
81.3954013949
 30
0.0
 11
232.9463657837
 21
81.650901616
 31
0.0
  0
LINE
  5
EB
330
1F
100
AcDbEntity
  8
0
  6
Continuous
 62
     7
370
    15
100
AcDbLine
 10
221.1805776036
 20
82.0580351749
 30
0.0
 11
218.0480952002
 21
83.2292223543
 31
0.0
  0
LINE
  5
EC
330
1F
100
AcDbEntity
  8
0
  6
Continuous
 62
     7
370
    15
100
AcDbLine
 10
218.0480952002
 20
83.2292223543
 30
0.0
 11
218.0679828636
 21
83.6087015775
 31
0.0
  0
LINE
  5
ED
330
1F
100
AcDbEntity
  8
0
  6
Continuous
 62
     7
370
    15
100
AcDbLine
 10
232.5361540066
 20
82.3998393019
 30
0.0
 11
233.1909768544
 21
82.3051436435
 31
0.0
  0
LINE
  5
EE
330
1F
100
AcDbEntity
  8
0
  6
Continuous
 62
     7
370
    15
100
AcDbLine
 10
225.0757227803
 20
82.790823935
 30
0.0
 11
232.5361540066
 21
82.3998393019
 31
0.0
  0
SPLINE
  5
EF
330
1F
100
AcDbEntity
  8
0
  6
Continuous
 62
     7
370
    15
100
AcDbSpline
210
0.0
220
0.0
230
1.0
 70
     8
 71
     3
 72
    11
 73
     7
 74
     0
 42
0.00000001
 43
0.00000001
 40
0.0
 40
0.0
 40
0.0
 40
0.0
 40
0.1637597647863022
 40
0.4086001779591009
 40
0.6592598879453716
 40
1.0
 40
1.0
 40
1.0
 40
1.0
 10
222.4348136367372
 20
81.99230344974984
 30
0.0
 10
222.5612913424273
 20
82.07043017799595
 30
0.0
 10
222.8768683287541
 20
82.26536569897932
 30
0.0
 10
223.4283800814212
 20
82.52276478678674
 30
0.0
 10
224.1800447689544
 20
82.76680607601622
 30
0.0
 10
224.7483111817179
 20
82.78204430045771
 30
0.0
 10
225.0757227803445
 20
82.79082393499631
 30
0.0
  0
LINE
  5
F0
330
1F
100
AcDbEntity
  8
0
  6
Continuous
 62
     7
370
    15
100
AcDbLine
 10
222.4348136367
 20
81.9923034497
 30
0.0
 11
221.1805776036
 21
82.0580351749
 31
0.0
  0
LINE
  5
F1
330
1F
100
AcDbEntity
  8
0
  6
Continuous
 62
     7
370
    15
100
AcDbLine
 10
225.039087611
 20
82.0917832607
 30
0.0
 11
225.0155364307
 21
81.64239997
 31
0.0
  0
LINE
  5
F2
330
1F
100
AcDbEntity
  8
0
  6
Continuous
 62
     7
370
    15
100
AcDbLine
 10
232.4995188373
 20
81.7007986276
 30
0.0
 11
225.039087611
 21
82.0917832607
 31
0.0
  0
LINE
  5
F3
330
1F
100
AcDbEntity
  8
0
  6
Continuous
 62
     7
370
    15
100
AcDbLine
 10
230.3274343093
 20
74.6462512036
 30
0.0
 11
230.7742812557
 21
74.596354192
 31
0.0
  0
LINE
  5
F4
330
1F
100
AcDbEntity
  8
0
  6
Continuous
 62
     7
370
    15
100
AcDbLine
 10
229.957459253
 20
74.9017514247
 30
0.0
 11
230.3274343093
 21
74.6462512036
 31
0.0
  0
LINE
  5
F5
330
1F
100
AcDbEntity
  8
0
  6
Continuous
 62
     7
370
    15
100
AcDbLine
 10
229.957459253
 20
74.9017514247
 30
0.0
 11
230.2345069169
 21
75.2563562638
 31
0.0
  0
LINE
  5
F6
330
1F
100
AcDbEntity
  8
0
  6
Continuous
 62
     7
370
    15
100
AcDbLine
 10
230.0349785334
 20
73.8640426995
 30
0.0
 11
229.8010271728
 21
73.5645986131
 31
0.0
  0
LINE
  5
F7
330
1F
100
AcDbEntity
  8
0
  6
Continuous
 62
     7
370
    15
100
AcDbLine
 10
218.0480952002
 20
83.2292223543
 30
0.0
 11
217.8141438396
 21
82.9297782679
 31
0.0
  0
LINE
  5
F8
330
1F
100
AcDbEntity
  8
0
  6
Continuous
 62
     7
370
    15
100
AcDbLine
 10
221.1805776036
 20
82.0580351749
 30
0.0
 11
222.1702854455
 21
81.2847906636
 31
0.0
  0
SPLINE
  5
F9
330
1F
100
AcDbEntity
  8
0
  6
Continuous
 62
     7
370
    15
100
AcDbSpline
210
0.0
220
0.0
230
1.0
 70
     8
 71
     3
 72
    11
 73
     7
 74
     0
 42
0.00000001
 43
0.00000001
 40
0.0
 40
0.0
 40
0.0
 40
0.0
 40
0.3407378859339936
 40
0.5850538553183564
 40
0.8362413050877908
 40
1.0
 40
1.0
 40
1.0
 40
1.0
 10
223.6395283024721
 20
78.94954731501952
 30
0.0
 10
223.3981581050308
 20
79.17094955562162
 30
0.0
 10
222.9837205845746
 20
79.55110168952747
 30
0.0
 10
222.5748495899855
 20
80.22724423208888
 30
0.0
 10
222.3264877385875
 20
80.78320563899393
 30
0.0
 10
222.2144867064835
 20
81.1428549074458
 30
0.0
 10
222.1702854454736
 20
81.28479066364615
 30
0.0
  0
LINE
  5
FA
330
1F
100
AcDbEntity
  8
0
  6
Continuous
 62
     7
370
    15
100
AcDbLine
 10
229.5264962203
 20
74.3501438971
 30
0.0
 11
223.6395283025
 21
78.949547315
 31
0.0
  0
LINE
  5
FB
330
1F
100
AcDbEntity
  8
0
  6
Continuous
 62
     7
370
    15
100
AcDbLine
 10
230.0828232386
 20
73.9920091761
 30
0.0
 11
229.5264962203
 21
74.3501438971
 31
0.0
  0
LINE
  5
FC
330
1F
100
AcDbEntity
  8
0
  6
Continuous
 62
     7
370
    15
100
AcDbLine
 10
224.0704913352
 20
79.5011548425
 30
0.0
 11
229.957459253
 21
74.9017514247
 31
0.0
  0
LINE
  5
FD
330
1F
100
AcDbEntity
  8
0
  6
Continuous
 62
     7
370
    15
100
AcDbLine
 10
224.0704913352
 20
79.5011548425
 30
0.0
 11
224.3475389991
 21
79.8557596817
 31
0.0
  0
SPLINE
  5
FE
330
1F
100
AcDbEntity
  8
0
  6
Continuous
 62
     7
370
    15
100
AcDbSpline
210
0.0
220
0.0
230
1.0
 70
     8
 71
     3
 72
    11
 73
     7
 74
     0
 42
0.00000001
 43
0.00000001
 40
0.0
 40
0.0
 40
0.0
 40
0.0
 40
0.174446082657271
 40
0.4230614137894684
 40
0.6770586568142614
 40
0.9999999999999999
 40
0.9999999999999999
 40
0.9999999999999999
 40
0.9999999999999999
 10
222.7155258176673
 20
81.44329525008077
 30
0.0
 10
222.7643112229144
 20
81.3172224176503
 30
0.0
 10
222.8826241262582
 20
81.01147436119629
 30
0.0
 10
223.1327776957717
 20
80.54018519853412
 30
0.0
 10
223.5129072389634
 20
79.99373632898241
 30
0.0
 10
223.8703902427148
 20
79.67792834494416
 30
0.0
 10
224.0704913352
 20
79.50115484254422
 30
0.0
  0
ARC
  5
FF
330
1F
100
AcDbEntity
  8
0
  6
Continuous
 62
     7
370
    15
100
AcDbCircle
 10
224.9632004744
 20
80.6437704353
 30
0.0
 40
2.385640646055095
100
AcDbArc
 50
158.5810823052
 51
160.4189176948
  0
SPLINE
  5
100
330
1F
100
AcDbEntity
  8
0
  6
Continuous
 62
     7
370
    15
100
AcDbSpline
210
0.0
220
0.0
230
1.0
 70
     8
 71
     3
 72
    11
 73
     7
 74
     0
 42
0.00000001
 43
0.00000001
 40
0.0
 40
0.0
 40
0.0
 40
0.0
 40
0.3229396035481958
 40
0.5710800728742121
 40
0.8255548570581359
 40
1.0
 40
1.0
 40
1.0
 40
1.0
 10
225.0390876109745
 20
82.09178326066811
 30
0.0
 10
224.7720912687366
 20
82.08966952857496
 30
0.0
 10
224.299940163988
 20
82.08593164612103
 30
0.0
 10
223.6542160008413
 20
81.92427811420329
 30
0.0
 10
223.1557493677572
 20
81.73334943144602
 30
0.0
 10
222.8618532789623
 20
81.57810698668835
 30
0.0
 10
222.7423234040894
 20
81.51496865071067
 30
0.0
  0
LINE
  5
101
330
1F
100
AcDbEntity
  8
0
  6
Continuous
 62
     7
370
    15
100
AcDbLine
 10
239.2033087577
 20
76.7959979771
 30
0.0
 11
239.6342717905
 21
77.3476055046
 31
0.0
  0
SPLINE
  5
102
330
1F
100
AcDbEntity
  8
0
  6
Continuous
 62
     7
370
    15
100
AcDbSpline
210
0.0
220
0.0
230
1.0
 70
     8
 71
     3
 72
    14
 73
    10
 74
     0
 42
0.00000001
 43
0.00000001
 40
0.0
 40
0.0
 40
0.0
 40
0.0
 40
0.2086064885492664
 40
0.3652036095093067
 40
0.4768526932687181
 40
0.589021293892778
 40
0.7185670083743624
 40
0.9352579530972372
 40
1.0
 40
1.0
 40
1.0
 40
1.0
 10
241.1035146474716
 20
75.01236215595382
 30
0.0
 10
241.0631829094183
 20
75.04097698616022
 30
0.0
 10
240.9925748644947
 20
75.09107245226748
 30
0.0
 10
240.8834722498028
 20
75.1264667002019
 30
0.0
 10
240.7921085890262
 20
75.12543205766953
 30
0.0
 10
240.7128982510758
 20
75.09329443819627
 30
0.0
 10
240.6329873022377
 20
75.01754820681862
 30
0.0
 10
240.586800404299
 20
74.93035483701047
 30
0.0
 10
240.5636092641635
 20
74.86816417493178
 30
0.0
 10
240.5582742752778
 20
74.8538575695194
 30
0.0
  0
LINE
  5
103
330
1F
100
AcDbEntity
  8
0
  6
Continuous
 62
     7
370
    15
100
AcDbLine
 10
238.1980773126
 20
73.5063288846
 30
0.0
 11
238.234712482
 21
74.2053695589
 31
0.0
  0
SPLINE
  5
104
330
1F
100
AcDbEntity
  8
0
  6
Continuous
 62
     7
370
    15
100
AcDbSpline
210
0.0
220
0.0
230
1.0
 70
     8
 71
     3
 72
    14
 73
    10
 74
     0
 42
0.00000001
 43
0.00000001
 40
0.0
 40
0.0
 40
0.0
 40
0.0
 40
0.2055181916619075
 40
0.3570166013208151
 40
0.466847183576196
 40
0.5770815399050824
 40
0.7093665789830479
 40
0.9240585340231926
 40
1.0
 40
1.0
 40
1.0
 40
1.0
 10
240.5314766888557
 20
74.78218416888951
 30
0.0
 10
240.5154819142042
 20
74.73619012276478
 30
0.0
 10
240.4876965389108
 20
74.6562914145499
 30
0.0
 10
240.482706611134
 20
74.54417711154929
 30
0.0
 10
240.5079401959831
 20
74.45849742937443
 30
0.0
 10
240.5600088440483
 20
74.39115056233125
 30
0.0
 10
240.6537268762623
 20
74.33396421591753
 30
0.0
 10
240.7527399778816
 20
74.31107921005683
 30
0.0
 10
240.8211192093456
 20
74.30613997434854
 30
0.0
 10
240.8389864562079
 20
74.30484936985033
 30
0.0
  0
LINE
  5
105
330
1F
100
AcDbEntity
  8
0
  6
Continuous
 62
     7
370
    15
100
AcDbLine
 10
224.0704913352
 20
79.5011548425
 30
0.0
 11
223.6395283025
 21
78.949547315
 31
0.0
  0
SPLINE
  5
106
330
1F
100
AcDbEntity
  8
0
  6
Continuous
 62
     7
370
    15
100
AcDbSpline
210
0.0
220
0.0
230
1.0
 70
     8
 71
     3
 72
    14
 73
    10
 74
     0
 42
0.00000001
 43
0.00000001
 40
0.0
 40
0.0
 40
0.0
 40
0.0
 40
0.2086064885490884
 40
0.3652036095092271
 40
0.4768526932686691
 40
0.5890212938927264
 40
0.7185670083743514
 40
0.9352579530973402
 40
1.0
 40
1.0
 40
1.0
 40
1.0
 10
222.1702854454736
 20
81.28479066364613
 30
0.0
 10
222.2106171835268
 20
81.2561758334398
 30
0.0
 10
222.2812252284505
 20
81.20608036733265
 30
0.0
 10
222.3903278431423
 20
81.17068611939827
 30
0.0
 10
222.481691503919
 20
81.17172076193064
 30
0.0
 10
222.5609018418693
 20
81.20385838140393
 30
0.0
 10
222.6408127907074
 20
81.27960461278161
 30
0.0
 10
222.686999688646
 20
81.36679798258972
 30
0.0
 10
222.7101908287816
 20
81.42898864466841
 30
0.0
 10
222.7155258176673
 20
81.44329525008077
 30
0.0
  0
LINE
  5
107
330
1F
100
AcDbEntity
  8
0
  6
Continuous
 62
     7
370
    15
100
AcDbLine
 10
225.0757227803
 20
82.790823935
 30
0.0
 11
225.039087611
 21
82.0917832607
 31
0.0
  0
SPLINE
  5
108
330
1F
100
AcDbEntity
  8
0
  6
Continuous
 62
     7
370
    15
100
AcDbSpline
210
0.0
220
0.0
230
1.0
 70
     8
 71
     3
 72
    14
 73
    10
 74
     0
 42
0.00000001
 43
0.00000001
 40
0.0
 40
0.0
 40
0.0
 40
0.0
 40
0.2055181916618958
 40
0.3570166013208022
 40
0.4668471835761813
 40
0.5770815399050565
 40
0.7093665789830422
 40
0.9240585340231942
 40
1.0
 40
1.0
 40
1.0
 40
1.0
 10
222.7423234040894
 20
81.51496865071067
 30
0.0
 10
222.7583181787408
 20
81.5609626968354
 30
0.0
 10
222.7861035540343
 20
81.64086140505027
 30
0.0
 10
222.7910934818111
 20
81.7529757080509
 30
0.0
 10
222.765859896962
 20
81.8386553902257
 30
0.0
 10
222.7137912488968
 20
81.90600225726894
 30
0.0
 10
222.6200732166828
 20
81.96318860368265
 30
0.0
 10
222.5210601150634
 20
81.98607360954335
 30
0.0
 10
222.4526808835995
 20
81.99101284525163
 30
0.0
 10
222.4348136367372
 20
81.99230344974984
 30
0.0
  0
SPLINE
  5
109
330
1F
100
AcDbEntity
  8
0
  6
Continuous
 62
     7
370
    15
100
AcDbSpline
210
0.0
220
0.0
230
1.0
 70
    24
 71
     3
 72
    10
 73
     6
 74
     0
 42
0.00000001
 43
0.00000001
 40
0.0
 40
0.0
 40
0.0
 40
0.0
 40
0.2765306019330239
 40
0.5626682704062569
 40
1.0
 40
1.0
 40
1.0
 40
1.0
 10
233.3163408399447
 20
81.39540139493947
 30
0.0
 10
233.353955143127
 20
81.44354550754834
 30
0.0
 10
233.4304905238991
 20
81.5415063277343
 30
0.0
 10
233.5842654843667
 20
81.73832930162564
 30
0.0
 10
233.6858791732569
 20
81.86838889243698
 30
0.0
 10
233.7473038726727
 20
81.94700892246418
 30
0.0
  0
SPLINE
  5
10A
330
1F
100
AcDbEntity
  8
0
  6
Continuous
 62
     7
370
    15
100
AcDbSpline
210
0.0
220
0.0
230
1.0
 70
     8
 71
     3
 72
    11
 73
     7
 74
     0
 42
0.00000001
 43
0.00000001
 40
0.0
 40
0.0
 40
0.0
 40
0.0
 40
0.3241878797140368
 40
0.6482205889188792
 40
0.9887961381644824
 40
1.0
 40
1.0
 40
1.0
 40
1.0
 10
233.1909768543909
 20
82.30514364347178
 30
0.0
 10
233.1654410473817
 20
82.23684502518968
 30
0.0
 10
233.1143816559184
 20
82.10028047933372
 30
0.0
 10
233.0282212247433
 20
81.86983393804448
 30
0.0
 10
232.9730903156038
 20
81.7223796238615
 30
0.0
 10
232.9471906645416
 20
81.65310786016046
 30
0.0
 10
232.9463657836561
 20
81.6509016160053
 30
0.0
  0
SPLINE
  5
10B
330
1F
100
AcDbEntity
  8
0
  6
Continuous
 62
     7
370
    15
100
AcDbSpline
210
0.0
220
0.0
230
1.0
 70
    24
 71
     3
 72
    10
 73
     6
 74
     0
 42
0.00000001
 43
0.00000001
 40
0.0
 40
0.0
 40
0.0
 40
0.0
 40
0.2765306019330257
 40
0.5626682704062602
 40
1.0
 40
1.0
 40
1.0
 40
1.0
 10
229.9574592530003
 20
74.90175142466072
 30
0.0
 10
229.9198449498181
 20
74.85360731205185
 30
0.0
 10
229.843309569046
 20
74.7556464918659
 30
0.0
 10
229.6895346085784
 20
74.55882351797452
 30
0.0
 10
229.5879209196882
 20
74.42876392716317
 30
0.0
 10
229.5264962202724
 20
74.35014389713598
 30
0.0
  0
SPLINE
  5
10C
330
1F
100
AcDbEntity
  8
0
  6
Continuous
 62
     7
370
    15
100
AcDbSpline
210
0.0
220
0.0
230
1.0
 70
     8
 71
     3
 72
    11
 73
     7
 74
     0
 42
0.00000001
 43
0.00000001
 40
0.0
 40
0.0
 40
0.0
 40
0.0
 40
0.3241878797140352
 40
0.6482205889188944
 40
0.9887961381647066
 40
0.9999999999999999
 40
0.9999999999999999
 40
0.9999999999999999
 40
0.9999999999999999
 10
230.0828232385542
 20
73.9920091761284
 30
0.0
 10
230.1083590455633
 20
74.06030779441048
 30
0.0
 10
230.1594184370267
 20
74.19687234026645
 30
0.0
 10
230.2455788682015
 20
74.42731888155585
 30
0.0
 10
230.300709777342
 20
74.57477319573849
 30
0.0
 10
230.3266094284035
 20
74.64404495943974
 30
0.0
 10
230.3274343092889
 20
74.64625120359489
 30
0.0
  0
SPLINE
  5
10D
330
1F
100
AcDbEntity
  8
0
  6
Continuous
 62
     7
370
    15
100
AcDbSpline
210
0.0
220
0.0
230
1.0
 70
    24
 71
     3
 72
    10
 73
     6
 74
     0
 42
0.00000001
 43
0.00000001
 40
0.0
 40
0.0
 40
0.0
 40
0.0
 40
0.2765306019330249
 40
0.5626682704062531
 40
1.0
 40
1.0
 40
1.0
 40
1.0
 10
232.5361540066448
 20
82.39983930193206
 30
0.0
 10
232.5329565018401
 20
82.33882727569295
 30
0.0
 10
232.5264504063645
 20
82.21468357861939
 30
0.0
 10
232.5133783530936
 20
81.96525394336821
 30
0.0
 10
232.5047404087222
 20
81.80043214611754
 30
0.0
 10
232.4995188372748
 20
81.70079862760386
 30
0.0
  0
SPLINE
  5
10E
330
1F
100
AcDbEntity
  8
0
  6
Continuous
 62
     7
370
    15
100
AcDbSpline
210
0.0
220
0.0
230
1.0
 70
    24
 71
     3
 72
    10
 73
     6
 74
     0
 42
0.00000001
 43
0.00000001
 40
0.0
 40
0.0
 40
0.0
 40
0.0
 40
0.276530601933028
 40
0.5626682704062583
 40
1.0
 40
1.0
 40
1.0
 40
1.0
 10
230.7376460863002
 20
73.89731351766812
 30
0.0
 10
230.740843591105
 20
73.95832554390725
 30
0.0
 10
230.7473496865806
 20
74.0824692409808
 30
0.0
 10
230.7604217398514
 20
74.33189887623199
 30
0.0
 10
230.7690596842228
 20
74.49672067348264
 30
0.0
 10
230.7742812556703
 20
74.59635419199631
 30
0.0
  0
ARC
  5
10F
330
1F
100
AcDbEntity
  8
0
  6
Continuous
 62
     7
370
    15
100
AcDbCircle
 10
231.4351296706
 20
78.2240152621
 30
0.0
 40
1.674999999999998
100
AcDbArc
 50
76.9522411541
 51
135.5521742814
  0
ARC
  5
110
330
1F
100
AcDbEntity
  8
0
  6
Continuous
 62
     7
370
    15
100
AcDbCircle
 10
231.4351296706
 20
78.2240152621
 30
0.0
 40
1.675000000000005
100
AcDbArc
 50
135.5521742814
 51
195.6590160161
  0
ARC
  5
111
330
1F
100
AcDbEntity
  8
0
  6
Continuous
 62
     7
370
    15
100
AcDbCircle
 10
231.4351296706
 20
78.2240152621
 30
0.0
 40
1.675000000000005
100
AcDbArc
 50
195.6590160161
 51
254.2589491433
  0
LINE
  5
112
330
1F
100
AcDbEntity
  8
0
  6
Continuous
 62
     7
370
    15
100
AcDbLine
 10
231.0630547641
 20
76.5908633206
 30
0.0
 11
230.9807187217
 21
76.611831746
 31
0.0
  0
ARC
  5
113
330
1F
100
AcDbEntity
  8
0
  6
Continuous
 62
     7
370
    15
100
AcDbCircle
 10
231.4351296706
 20
78.2240152621
 30
0.0
 40
1.67500000000001
100
AcDbArc
 50
257.1655799152
 51
313.6092980815
  0
LINE
  5
114
330
1F
100
AcDbEntity
  8
0
  6
Continuous
 62
     7
370
    15
100
AcDbLine
 10
232.6741768145
 20
77.0969007271
 30
0.0
 11
232.5904392374
 21
77.0112148643
 31
0.0
  0
ARC
  5
115
330
1F
100
AcDbEntity
  8
0
  6
Continuous
 62
     7
370
    15
100
AcDbCircle
 10
231.4351296706
 20
78.2240152621
 30
0.0
 40
1.674999999999996
100
AcDbArc
 50
317.7083899817
 51
13.5028003157
  0
LINE
  5
116
330
1F
100
AcDbEntity
  8
0
  6
Continuous
 62
     7
370
    15
100
AcDbLine
 10
233.0317073119
 20
78.730537557
 30
0.0
 11
233.0638301743
 21
78.6151158493
 31
0.0
  0
ARC
  5
117
330
1F
100
AcDbEntity
  8
0
  6
Continuous
 62
     7
370
    15
100
AcDbCircle
 10
231.4351296706
 20
78.2240152621
 30
0.0
 40
1.675000000000012
100
AcDbArc
 50
17.601892216
 51
74.0456103823
  0
LINE
  5
118
330
1F
100
AcDbEntity
  8
0
  6
Continuous
 62
     7
370
    15
100
AcDbLine
 10
231.8132829659
 20
79.8557704782
 30
0.0
 11
231.8955403625
 21
79.8344956236
 31
0.0
  0
CIRCLE
  5
119
330
1F
100
AcDbEntity
  8
0
  6
Continuous
 62
     7
370
    15
100
AcDbCircle
 10
231.4351296706
 20
78.2240152621
 30
0.0
 40
1.799999999999997
  0
SPLINE
  5
11A
330
1F
100
AcDbEntity
  8
0
  6
Continuous
 62
     7
370
    15
100
AcDbSpline
210
0.0
220
0.0
230
1.0
 70
     8
 71
     3
 72
    11
 73
     7
 74
     0
 42
0.00000001
 43
0.00000001
 40
0.0
 40
0.0
 40
0.0
 40
0.0
 40
0.2669010467950284
 40
0.5546143410792354
 40
0.8439070439786122
 40
1.0
 40
1.0
 40
1.0
 40
1.0
 10
232.6741768144946
 20
77.09690072705627
 30
0.0
 10
232.6910071891918
 20
77.12744334701252
 30
0.0
 10
232.7259803273074
 20
77.19091022076694
 30
0.0
 10
232.7368182832052
 20
77.30209870850224
 30
0.0
 10
232.7173649227934
 20
77.39635717381044
 30
0.0
 10
232.6893633886613
 20
77.44625258179602
 30
0.0
 10
232.6795497762375
 20
77.46373927353916
 30
0.0
  0
SPLINE
  5
11B
330
1F
100
AcDbEntity
  8
0
  6
Continuous
 62
     7
370
    15
100
AcDbSpline
210
0.0
220
0.0
230
1.0
 70
     8
 71
     3
 72
    12
 73
     8
 74
     0
 42
0.00000001
 43
0.00000001
 40
0.0
 40
0.0
 40
0.0
 40
0.0
 40
0.2058401281338032
 40
0.4120619935509958
 40
0.6141387330969519
 40
0.8132772113524636
 40
1.0
 40
1.0
 40
1.0
 40
1.0
 10
232.6795497762375
 20
77.46373927353916
 30
0.0
 10
232.6499584174925
 20
77.52225281023233
 30
0.0
 10
232.5907208218553
 20
77.6393883988957
 30
0.0
 10
232.5812357886099
 20
77.84056798899987
 30
0.0
 10
232.6341650862655
 20
78.02961353933709
 30
0.0
 10
232.7407406779139
 20
78.18953916312232
 30
0.0
 10
232.8425899538296
 20
78.2579337866108
 30
0.0
 10
232.8918760119336
 20
78.29103074637764
 30
0.0
  0
SPLINE
  5
11C
330
1F
100
AcDbEntity
  8
0
  6
Continuous
 62
     7
370
    15
100
AcDbSpline
210
0.0
220
0.0
230
1.0
 70
     8
 71
     3
 72
    11
 73
     7
 74
     0
 42
0.00000001
 43
0.00000001
 40
0.0
 40
0.0
 40
0.0
 40
0.0
 40
0.2928993220619897
 40
0.5864344719079536
 40
0.8775178868032949
 40
1.0
 40
1.0
 40
1.0
 40
1.0
 10
232.8918760119336
 20
78.29103074637764
 30
0.0
 10
232.9231378744228
 20
78.31246956761446
 30
0.0
 10
232.9857294628587
 20
78.35539374962289
 30
0.0
 10
233.0455633155667
 20
78.45487668508261
 30
0.0
 10
233.0672123767717
 20
78.54564936924923
 30
0.0
 10
233.0646029774154
 20
78.59924337715427
 30
0.0
 10
233.0638301742545
 20
78.61511584934308
 30
0.0
  0
SPLINE
  5
11D
330
1F
100
AcDbEntity
  8
0
  6
Continuous
 62
     7
370
    15
100
AcDbSpline
210
0.0
220
0.0
230
1.0
 70
     8
 71
     3
 72
    12
 73
     8
 74
     0
 42
0.00000001
 43
0.00000001
 40
0.0
 40
0.0
 40
0.0
 40
0.0
 40
0.2057904614204275
 40
0.4120344203360504
 40
0.6141302471427876
 40
0.8132633242113112
 40
1.0
 40
1.0
 40
1.0
 40
1.0
 10
232.71643024218
 20
78.91917005422135
 30
0.0
 10
232.6509779982757
 20
78.92279741744233
 30
0.0
 10
232.5199292742936
 20
78.9300601374526
 30
0.0
 10
232.340959767456
 20
79.0224178552044
 30
0.0
 10
232.2036899172323
 20
79.16278165900374
 30
0.0
 10
232.1184666547517
 20
79.33505193043486
 30
0.0
 10
232.1101585352066
 20
79.45745858665713
 30
0.0
 10
232.1061379282158
 20
79.51669570464342
 30
0.0
  0
SPLINE
  5
11E
330
1F
100
AcDbEntity
  8
0
  6
Continuous
 62
     7
370
    15
100
AcDbSpline
210
0.0
220
0.0
230
1.0
 70
     8
 71
     3
 72
    11
 73
     7
 74
     0
 42
0.00000001
 43
0.00000001
 40
0.0
 40
0.0
 40
0.0
 40
0.0
 40
0.2802371411013176
 40
0.561286987592404
 40
0.8399906057824366
 40
0.9999999999999999
 40
0.9999999999999999
 40
0.9999999999999999
 40
0.9999999999999999
 10
232.1061379282158
 20
79.51669570464344
 30
0.0
 10
232.1032084924863
 20
79.55446499296178
 30
0.0
 10
232.097341125479
 20
79.63011310291752
 30
0.0
 10
232.0411251421663
 20
79.73158801608758
 30
0.0
 10
231.96914239173
 20
79.80002149113737
 30
0.0
 10
231.9152106069973
 20
79.82528236385365
 30
0.0
 10
231.8955403625321
 20
79.83449562360755
 30
0.0
  0
SPLINE
  5
11F
330
1F
100
AcDbEntity
  8
0
  6
Continuous
 62
     7
370
    15
100
AcDbSpline
210
0.0
220
0.0
230
1.0
 70
     8
 71
     3
 72
    11
 73
     7
 74
     0
 42
0.00000001
 43
0.00000001
 40
0.0
 40
0.0
 40
0.0
 40
0.0
 40
0.2657596322624869
 40
0.5530029385954628
 40
0.8418208483438159
 40
1.0
 40
1.0
 40
1.0
 40
1.0
 10
233.0317073119016
 20
78.73053755701744
 30
0.0
 10
233.0137829353909
 20
78.76034128713664
 30
0.0
 10
232.9764851983398
 20
78.82235804339388
 30
0.0
 10
232.885867900142
 20
78.88752470665695
 30
0.0
 10
232.794298585059
 20
78.91816134999814
 30
0.0
 10
232.7367832371452
 20
78.91890640212326
 30
0.0
 10
232.71643024218
 20
78.91917005422135
 30
0.0
  0
SPLINE
  5
120
330
1F
100
AcDbEntity
  8
0
  6
Continuous
 62
     7
370
    15
100
AcDbSpline
210
0.0
220
0.0
230
1.0
 70
     8
 71
     3
 72
    11
 73
     7
 74
     0
 42
0.00000001
 43
0.00000001
 40
0.0
 40
0.0
 40
0.0
 40
0.0
 40
0.2431090893443007
 40
0.5182793655622459
 40
0.7947794085752071
 40
1.0
 40
1.0
 40
1.0
 40
1.0
 10
231.0630547640675
 20
76.5908633206453
 30
0.0
 10
231.0961915295395
 20
76.5896686871724
 30
0.0
 10
231.166835131685
 20
76.58712187215993
 30
0.0
 10
231.269675105026
 20
76.62577391333842
 30
0.0
 10
231.3519995010932
 20
76.68938966145232
 30
0.0
 10
231.3861295670877
 20
76.74448978257503
 30
0.0
 10
231.4006695137456
 20
76.76796330360777
 30
0.0
  0
SPLINE
  5
121
330
1F
100
AcDbEntity
  8
0
  6
Continuous
 62
     7
370
    15
100
AcDbSpline
210
0.0
220
0.0
230
1.0
 70
     8
 71
     3
 72
    12
 73
     8
 74
     0
 42
0.00000001
 43
0.00000001
 40
0.0
 40
0.0
 40
0.0
 40
0.0
 40
0.2058179564998985
 40
0.4120215045907348
 40
0.6140779969167868
 40
0.8132130006453653
 40
1.0
 40
1.0
 40
1.0
 40
1.0
 10
231.4006695137456
 20
76.76796330360777
 30
0.0
 10
231.4365443521127
 20
76.82284237974515
 30
0.0
 10
231.5083612389011
 20
76.93270334574245
 30
0.0
 10
231.6778279160492
 20
77.04150587722746
 30
0.0
 10
231.8679939644055
 20
77.09019916996628
 30
0.0
 10
232.0597910019688
 20
77.07788205838165
 30
0.0
 10
232.169964079709
 20
77.02387071915575
 30
0.0
 10
232.223288063406
 20
76.99772912602418
 30
0.0
  0
SPLINE
  5
122
330
1F
100
AcDbEntity
  8
0
  6
Continuous
 62
     7
370
    15
100
AcDbSpline
210
0.0
220
0.0
230
1.0
 70
     8
 71
     3
 72
    11
 73
     7
 74
     0
 42
0.00000001
 43
0.00000001
 40
0.0
 40
0.0
 40
0.0
 40
0.0
 40
0.2908641666076346
 40
0.5839560789892071
 40
0.8745988053617392
 40
1.0
 40
1.0
 40
1.0
 40
1.0
 10
232.223288063406
 20
76.99772912602415
 30
0.0
 10
232.2572907101983
 20
76.98144689972763
 30
0.0
 10
232.3255564320561
 20
76.94875774060495
 30
0.0
 10
232.4414131888801
 20
76.94647522682186
 30
0.0
 10
232.5313109325962
 20
76.97305936418758
 30
0.0
 10
232.5767448483465
 20
77.00237787392275
 30
0.0
 10
232.5904392373868
 20
77.01121486434646
 30
0.0
  0
SPLINE
  5
123
330
1F
100
AcDbEntity
  8
0
  6
Continuous
 62
     7
370
    15
100
AcDbSpline
210
0.0
220
0.0
230
1.0
 70
     8
 71
     3
 72
    12
 73
     8
 74
     0
 42
0.00000001
 43
0.00000001
 40
0.0
 40
0.0
 40
0.0
 40
0.0
 40
0.2058585741213894
 40
0.4121026961457019
 40
0.6141937841967356
 40
0.8133180967416276
 40
1.0
 40
1.0
 40
1.0
 40
1.0
 10
231.4744304456308
 20
79.67882486497214
 30
0.0
 10
231.4385492580293
 20
79.62393795571272
 30
0.0
 10
231.3667196817554
 20
79.51406134073346
 30
0.0
 10
231.1972201215204
 20
79.40525542093796
 30
0.0
 10
231.0070244608445
 20
79.3565796979365
 30
0.0
 10
230.8152471931373
 20
79.36892727820444
 30
0.0
 10
230.7051062986292
 20
79.4229289801449
 30
0.0
 10
230.6518118959703
 20
79.44905904255576
 30
0.0
  0
SPLINE
  5
124
330
1F
100
AcDbEntity
  8
0
  6
Continuous
 62
     7
370
    15
100
AcDbSpline
210
0.0
220
0.0
230
1.0
 70
     8
 71
     3
 72
    11
 73
     7
 74
     0
 42
0.00000001
 43
0.00000001
 40
0.0
 40
0.0
 40
0.0
 40
0.0
 40
0.2524782265335893
 40
0.5068902417933533
 40
0.7591786113117333
 40
1.0
 40
1.0
 40
1.0
 40
1.0
 10
230.6518118959703
 20
79.44905904255576
 30
0.0
 10
230.6177998282255
 20
79.46534911828735
 30
0.0
 10
230.549515186497
 20
79.49805403918211
 30
0.0
 10
230.4338320559489
 20
79.50021132496262
 30
0.0
 10
230.3240405828532
 20
79.46840943046485
 30
0.0
 10
230.2671502659375
 20
79.42039757346205
 30
0.0
 10
230.2393665831072
 20
79.39694988887564
 30
0.0
  0
SPLINE
  5
125
330
1F
100
AcDbEntity
  8
0
  6
Continuous
 62
     7
370
    15
100
AcDbSpline
210
0.0
220
0.0
230
1.0
 70
     8
 71
     3
 72
    11
 73
     7
 74
     0
 42
0.00000001
 43
0.00000001
 40
0.0
 40
0.0
 40
0.0
 40
0.0
 40
0.2423611237745482
 40
0.5166847928458592
 40
0.7923341374633378
 40
1.0
 40
1.0
 40
1.0
 40
1.0
 10
231.8132829659222
 20
79.85577047820571
 30
0.0
 10
231.780150667462
 20
79.85708853276473
 30
0.0
 10
231.7095165884486
 20
79.85989846670206
 30
0.0
 10
231.6065371283299
 20
79.8216288002097
 30
0.0
 10
231.5236264507982
 20
79.75806480632039
 30
0.0
 10
231.4892156999519
 20
79.70263945482017
 30
0.0
 10
231.4744304456307
 20
79.67882486497216
 30
0.0
  0
SPLINE
  5
126
330
1F
100
AcDbEntity
  8
0
  6
Continuous
 62
     7
370
    15
100
AcDbSpline
210
0.0
220
0.0
230
1.0
 70
     8
 71
     3
 72
    12
 73
     8
 74
     0
 42
0.00000001
 43
0.00000001
 40
0.0
 40
0.0
 40
0.0
 40
0.0
 40
0.0091735205190164
 40
0.2576775215525257
 40
0.5061895192299486
 40
0.7560357430219008
 40
1.0
 40
1.0
 40
1.0
 40
1.0
 10
229.8222971915611
 20
77.77191306722864
 30
0.0
 10
229.8226727002408
 20
77.77059389068914
 30
0.0
 10
229.8332204660325
 20
77.73353918083339
 30
0.0
 10
229.8671434065833
 20
77.66386068335062
 30
0.0
 10
229.9474439626833
 20
77.58437536005694
 30
0.0
 10
230.0487939878746
 20
77.53342719257591
 30
0.0
 10
230.122336471705
 20
77.5295390359875
 30
0.0
 10
230.1586697171963
 20
77.52761811435856
 30
0.0
  0
SPLINE
  5
127
330
1F
100
AcDbEntity
  8
0
  6
Continuous
 62
     7
370
    15
100
AcDbSpline
210
0.0
220
0.0
230
1.0
 70
     8
 71
     3
 72
    12
 73
     8
 74
     0
 42
0.00000001
 43
0.00000001
 40
0.0
 40
0.0
 40
0.0
 40
0.0
 40
0.205753278780415
 40
0.4119604088044756
 40
0.6140154573249035
 40
0.8131414684041015
 40
1.0
 40
1.0
 40
1.0
 40
1.0
 10
230.1586697171963
 20
77.52761811435856
 30
0.0
 10
230.2241126816262
 20
77.52399224438535
 30
0.0
 10
230.3551429647873
 20
77.51673250648336
 30
0.0
 10
230.5340932969201
 20
77.42440027412795
 30
0.0
 10
230.6713595341925
 20
77.28407287169709
 30
0.0
 10
230.7566192705921
 20
77.11180442250762
 30
0.0
 10
230.7649358847004
 20
76.98936599149938
 30
0.0
 10
230.7689620311605
 20
76.93009246393649
 30
0.0
  0
SPLINE
  5
128
330
1F
100
AcDbEntity
  8
0
  6
Continuous
 62
     7
370
    15
100
AcDbSpline
210
0.0
220
0.0
230
1.0
 70
     8
 71
     3
 72
    11
 73
     7
 74
     0
 42
0.00000001
 43
0.00000001
 40
0.0
 40
0.0
 40
0.0
 40
0.0
 40
0.2794069064555945
 40
0.5596240257156148
 40
0.8375007392219471
 40
0.9999999999999999
 40
0.9999999999999999
 40
0.9999999999999999
 40
0.9999999999999999
 10
230.7689620311605
 20
76.93009246393648
 30
0.0
 10
230.7718919439681
 20
76.89231989075645
 30
0.0
 10
230.7777602656256
 20
76.81666521302208
 30
0.0
 10
230.8339855495944
 20
76.71518941036301
 30
0.0
 10
230.9062734076173
 20
76.6464565289649
 30
0.0
 10
230.960652698415
 20
76.62116452552695
 30
0.0
 10
230.9807187217048
 20
76.61183174603336
 30
0.0
  0
SPLINE
  5
129
330
1F
100
AcDbEntity
  8
0
  6
Continuous
 62
     7
370
    15
100
AcDbSpline
210
0.0
220
0.0
230
1.0
 70
     8
 71
     3
 72
    12
 73
     8
 74
     0
 42
0.00000001
 43
0.00000001
 40
0.0
 40
0.0
 40
0.0
 40
0.0
 40
0.009168177149162
 40
0.2573268097002371
 40
0.5054934687429621
 40
0.7549925359452945
 40
1.0
 40
1.0
 40
1.0
 40
1.0
 10
230.2393665831072
 20
79.39694988887564
 30
0.0
 10
230.2384092924092
 20
79.39596608493311
 30
0.0
 10
230.2115406404116
 20
79.36835327534337
 30
0.0
 10
230.1680389110949
 20
79.30421519755699
 30
0.0
 10
230.1391512901436
 20
79.19498493455146
 30
0.0
 10
230.1455016583787
 20
79.08151122926691
 30
0.0
 10
230.1789686685105
 20
79.0156703288021
 30
0.0
 10
230.1955501831389
 20
78.98304889504074
 30
0.0
  0
SPLINE
  5
12A
330
1F
100
AcDbEntity
  8
0
  6
Continuous
 62
     7
370
    15
100
AcDbSpline
210
0.0
220
0.0
230
1.0
 70
     8
 71
     3
 72
    12
 73
     8
 74
     0
 42
0.00000001
 43
0.00000001
 40
0.0
 40
0.0
 40
0.0
 40
0.0
 40
0.2058435564095161
 40
0.4120691620553126
 40
0.6141397217727198
 40
0.8132604579561376
 40
1.0
 40
1.0
 40
1.0
 40
1.0
 10
230.1955501831389
 20
78.98304889504074
 30
0.0
 10
230.2251418045321
 20
78.92453472741335
 30
0.0
 10
230.2843799698848
 20
78.80739778884127
 30
0.0
 10
230.2938639858042
 20
78.60621737767795
 30
0.0
 10
230.240934389251
 20
78.41717629259765
 30
0.0
 10
230.1343621038498
 20
78.25725234373735
 30
0.0
 10
230.0325139910537
 20
78.18885752893695
 30
0.0
 10
229.9832239474426
 20
78.15575742220229
 30
0.0
  0
SPLINE
  5
12B
330
1F
100
AcDbEntity
  8
0
  6
Continuous
 62
     7
370
    15
100
AcDbSpline
210
0.0
220
0.0
230
1.0
 70
     8
 71
     3
 72
    11
 73
     7
 74
     0
 42
0.00000001
 43
0.00000001
 40
0.0
 40
0.0
 40
0.0
 40
0.0
 40
0.2535086227484125
 40
0.5075674742604936
 40
0.7595056251924788
 40
1.0
 40
1.0
 40
1.0
 40
1.0
 10
229.9832239474426
 20
78.15575742220229
 30
0.0
 10
229.9519478035636
 20
78.13431226528387
 30
0.0
 10
229.889327632379
 20
78.09137540572384
 30
0.0
 10
229.8296940336592
 20
77.99197184723714
 30
0.0
 10
229.8025449361071
 20
77.88093866879345
 30
0.0
 10
229.8158159090172
 20
77.80768749966764
 30
0.0
 10
229.8222971915611
 20
77.77191306722864
 30
0.0
  0
CIRCLE
  5
12C
330
1F
100
AcDbEntity
  8
0
  6
Continuous
 62
     7
370
    15
100
AcDbCircle
 10
231.4351296706
 20
78.2240152621
 30
0.0
 40
2.624999999999984
  0
LINE
  5
12D
330
1F
100
AcDbEntity
  8
0
  6
Continuous
 62
     8
370
    15
100
AcDbLine
 10
181.1257048927
 20
86.1679304653
 30
0.0
 11
181.1257048927
 21
149.1679304653
 31
0.0
  0
LINE
  5
12E
330
1F
100
AcDbEntity
  8
0
  6
Continuous
 62
     8
370
    15
100
AcDbLine
 10
217.8583779047
 20
86.1684942807
 30
0.0
 11
217.8583779047
 21
86.1679304653
 31
0.0
  0
LINE
  5
12F
330
1F
100
AcDbEntity
  8
0
  6
Continuous
 62
     8
370
    15
100
AcDbLine
 10
220.2296668206
 20
141.8914720681
 30
0.0
 11
220.2296668206
 21
83.5154399687
 31
0.0
  0
LINE
  5
130
330
1F
100
AcDbEntity
  8
VERMASSUNG
  6
CENTERX2
100
AcDbLine
 10
139.2163116278
 20
117.6679304653
 30
0.0
 11
245.6257048927
 21
117.6679304653
 31
0.0
  0
LINE
  5
131
330
1F
100
AcDbEntity
  8
VERMASSUNG
  6
CENTERX2
100
AcDbLine
 10
245.6257048927
 20
72.6679304653
 30
0.0
 11
245.6257048927
 21
117.6679304653
 31
0.0
  0
LINE
  5
132
330
1F
100
AcDbEntity
  8
VERMASSUNG
100
AcDbLine
 10
245.6257048927
 20
72.6679304653
 30
0.0
 11
245.6257048927
 21
60.4193788531
 31
0.0
  0
DIMENSION
  5
133
330
1F
100
AcDbEntity
  8
VERMASSUNG
100
AcDbDimension
  2
*D1
 10
245.6257048927
 20
157.2371365635
 30
0.0
 11
213.1257048927
 21
157.2371365635
 31
0.0
 70
   160
 71
     2
 42
-1.0
  3
SLDDIMSTYLE0
100
AcDbAlignedDimension
 13
180.6257048927
 23
148.6679304653
 33
0.0
 14
245.6257048927
 24
117.6679304653
 34
0.0
100
AcDbRotatedDimension
  0
DIMENSION
  5
13E
330
1F
100
AcDbEntity
  8
VERMASSUNG
100
AcDbDimension
  2
*D2
 10
245.6257048927
 20
165.1679304653
 30
0.0
 11
194.1257048927
 21
165.1679304653
 31
0.0
 70
   160
 71
     2
 42
-1.0
  3
SLDDIMSTYLE0
100
AcDbAlignedDimension
 13
142.6257048927
 23
137.9602684578
 33
0.0
 14
245.6257048927
 24
117.6679304653
 34
0.0
100
AcDbRotatedDimension
  0
DIMENSION
  5
148
330
1F
100
AcDbEntity
  8
VERMASSUNG
100
AcDbDimension
  2
*D3
 10
256.1948778644
 20
117.6679304653
 30
0.0
 11
256.1948778644
 21
95.1679304653
 31
0.0
 70
   160
 71
     2
 42
-1.0
  3
SLDDIMSTYLE0
100
AcDbAlignedDimension
 13
245.6257048927
 23
72.6679304653
 33
0.0
 14
245.6257048927
 24
117.6679304653
 34
0.0
 50
90.0
100
AcDbRotatedDimension
  0
DIMENSION
  5
152
330
1F
100
AcDbEntity
  8
VERMASSUNG
100
AcDbDimension
  2
*D4
 10
245.6257048927
 20
60.4193788531
 30
0.0
 11
236.4923840536
 21
63.9792205624
 31
0.0
 70
   162
 71
     1
 42
-1.0
  3
SLDDIMSTYLE1
100
AcDb2LineAngularDimension
 13
230.0135647387
 23
73.4646160105
 33
0.0
 14
245.2218626814
 24
72.6675828886
 34
0.0
 15
245.6257048927
 25
72.6679304653
 35
0.0
 16
236.4923840536
 26
63.9792205624
 36
0.0
  0
DIMENSION
  5
15C
330
1F
100
AcDbEntity
  8
VERMASSUNG
100
AcDbDimension
  2
*D5
 10
132.6257048927
 20
86.1679304653
 30
0.0
 11
132.6257048927
 21
117.6679304653
 31
0.0
 70
   160
  1
PSC%%c<>
 71
     2
 42
-1.0
  3
SLDDIMSTYLE0
100
AcDbAlignedDimension
 13
181.1257048927
 23
149.1679304653
 33
0.0
 14
181.1257048927
 24
86.1679304653
 34
0.0
 50
90.0
100
AcDbRotatedDimension
  0
LINE
  5
168
330
1F
100
AcDbEntity
  8
VERMASSUNG
  6
CENTERX2
370
     0
100
AcDbLine
 10
220.2296668206
 20
131.5453003429
 30
0.0
 11
220.2296668206
 21
87.8950310375
 31
0.0
  0
SPLINE
  5
169
330
1F
100
AcDbEntity
  8
0
  6
Continuous
 62
     7
370
    15
100
AcDbSpline
210
0.0
220
0.0
230
1.0
 70
     8
 71
     3
 72
    24
 73
    20
 74
     0
 42
0.00000001
 43
0.00000001
 40
0.0
 40
0.0
 40
0.0
 40
0.0
 40
0.0565404584177128
 40
0.1132701094138992
 40
0.1702091020013748
 40
0.2273773638454031
 40
0.2847945838958493
 40
0.3424801961838263
 40
0.4004533648260495
 40
0.4587329702679512
 40
0.51733759678473
 40
0.576285521248124
 40
0.6355947031559547
 40
0.6952827759115195
 40
0.755367039330775
 40
0.8158644533470664
 40
0.8767916328759613
 40
0.9381648437965006
 40
1.0
 40
1.0
 40
1.0
 40
1.0
 10
75.89478247022086
 20
73.77284194444861
 30
0.0
 10
76.07100595942117
 20
73.79519190755647
 30
0.0
 10
76.42404260718853
 20
73.83996661999196
 30
0.0
 10
76.95038734338536
 20
73.91538706325981
 30
0.0
 10
77.47541072952299
 20
73.99697259307634
 30
0.0
 10
77.99882499747223
 20
74.08531493497597
 30
0.0
 10
78.52070754986217
 20
74.1802544988071
 30
0.0
 10
79.04103739446624
 20
74.28183417227132
 30
0.0
 10
79.55982008623077
 20
74.39004224687326
 30
0.0
 10
80.07705405198993
 20
74.50488172630712
 30
0.0
 10
80.59273960921564
 20
74.62635169292925
 30
0.0
 10
81.1068767807844
 20
74.75445209570137
 30
0.0
 10
81.61946494426748
 20
74.88918337221342
 30
0.0
 10
82.13050646704392
 20
75.03054310902866
 30
0.0
 10
82.63999237884161
 20
75.17853991806476
 30
0.0
 10
83.14795654640982
 20
75.33314078266596
 30
0.0
 10
83.6542713340118
 20
75.49446970966751
 30
0.0
 10
84.15941842325567
 20
75.66205834891736
 30
0.0
 10
84.49291447381913
 20
75.7786881672635
 30
0.0
 10
84.66028768767791
 20
75.83722171659751
 30
0.0
  0
LINE
  5
16A
330
1F
100
AcDbEntity
  8
0
  6
Continuous
 62
     7
370
    15
100
AcDbLine
 10
84.660255948
 20
75.8372529262
 30
0.0
 11
84.7220044973
 21
75.3458051794
 31
0.0
  0
SPLINE
  5
16B
330
1F
100
AcDbEntity
  8
0
  6
Continuous
 62
     7
370
    15
100
AcDbSpline
210
0.0
220
0.0
230
1.0
 70
     8
 71
     3
 72
    24
 73
    20
 74
     0
 42
0.00000001
 43
0.00000001
 40
0.0
 40
0.0
 40
0.0
 40
0.0
 40
0.0623869949014439
 40
0.1242849601363208
 40
0.1857019100375337
 40
0.2466460540647598
 40
0.3071257996171702
 40
0.3671497546825182
 40
0.4267267303027254
 40
0.4858657428350333
 40
0.5445760159871601
 40
0.6028669826041455
 40
0.6607482861839439
 40
0.7182297820984246
 40
0.7753215384959834
 40
0.8320338368619133
 40
0.8883771722125373
 40
0.9443622528993763
 40
1.0
 40
1.0
 40
1.0
 40
1.0
 10
84.7220245916644
 20
75.3458105133338
 30
0.0
 10
84.55187848665587
 20
75.28636095816383
 30
0.0
 10
84.21291999199296
 20
75.16792785193556
 30
0.0
 10
83.69951377496531
 20
74.99792988946446
 30
0.0
 10
83.18514633882947
 20
74.83445231348635
 30
0.0
 10
82.66942028171647
 20
74.67797915351096
 30
0.0
 10
82.15256862363913
 20
74.52837766776503
 30
0.0
 10
81.63465682184558
 20
74.38567656246583
 30
0.0
 10
81.11579408877378
 20
74.249859905155
 30
0.0
 10
80.5960774038376
 20
74.12092170776837
 30
0.0
 10
80.07560627473839
 20
73.99885158041629
 30
0.0
 10
79.55447896885438
 20
73.88363820655734
 30
0.0
 10
79.03279286923107
 20
73.7752697205423
 30
0.0
 10
78.51064663908139
 20
73.67372890892803
 30
0.0
 10
77.98813119249895
 20
73.57901193527987
 30
0.0
 10
77.46536321651976
 20
73.4910589973106
 30
0.0
 10
76.94236115155792
 20
73.41001070201658
 30
0.0
 10
76.41950349352517
 20
73.33526058472295
 30
0.0
 10
76.06932445662294
 20
73.29092371593731
 30
0.0
 10
75.89477975925868
 20
73.26882426243283
 30
0.0
  0
SPLINE
  5
16C
330
1F
100
AcDbEntity
  8
0
  6
Continuous
 62
     7
370
    15
100
AcDbSpline
210
0.0
220
0.0
230
1.0
 70
     8
 71
     3
 72
     8
 73
     4
 74
     0
 42
0.00000001
 43
0.00000001
 40
0.0000002010693989
 40
0.0000002010693989
 40
0.0000002010693989
 40
0.0000002010693989
 40
0.002513626811602
 40
0.002513626811602
 40
0.002513626811602
 40
0.002513626811602
 10
75.89477088689482
 20
82.52617048714801
 30
0.0
 10
75.06141825985075
 20
82.52165421950707
 30
0.0
 10
74.22808459029737
 20
82.51712835917013
 30
0.0
 10
73.39477088689482
 20
82.51259246199467
 30
0.0
  0
LINE
  5
16D
330
1F
100
AcDbEntity
  8
0
  6
Continuous
 62
     7
370
    15
100
AcDbLine
 10
73.3947708662
 20
82.5125931614
 30
0.0
 11
71.4347709011
 21
82.6789236479
 31
0.0
  0
LINE
  5
16E
330
1F
100
AcDbEntity
  8
0
  6
Continuous
 62
     7
370
    15
100
AcDbLine
 10
71.4347709011
 20
82.6789236479
 30
0.0
 11
71.4347709011
 21
92.5299416148
 31
0.0
  0
LINE
  5
16F
330
1F
100
AcDbEntity
  8
0
  6
Continuous
 62
     7
370
    15
100
AcDbLine
 10
103.1347724068
 20
87.9739115798
 30
0.0
 11
103.1347724068
 21
92.5299416148
 31
0.0
  0
SPLINE
  5
170
330
1F
100
AcDbEntity
  8
0
  6
Continuous
 62
     7
370
    15
100
AcDbSpline
210
0.0
220
0.0
230
1.0
 70
     8
 71
     3
 72
    47
 73
    43
 74
     0
 42
0.00000001
 43
0.00000001
 40
0.0
 40
0.0
 40
0.0
 40
0.0
 40
0.0294774584463104
 40
0.0587206779908753
 40
0.0877299004658676
 40
0.1165053777372144
 40
0.1450473720687629
 40
0.173356156499327
 40
0.2014320152331847
 40
0.2292752440446143
 40
0.2568861506970692
 40
0.2842650553776364
 40
0.3114122911474416
 40
0.3383282044086846
 40
0.3650131553890434
 40
0.3914675186441925
 40
0.417691683579227
 40
0.4436860549898036
 40
0.4694510536238773
 40
0.4949871167648928
 40
0.52029469883738
 40
0.5453742720359237
 40
0.5702263269784819
 40
0.5948513733851271
 40
0.6192499407832794
 40
0.6434225792405532
 40
0.6673698601263897
 40
0.6910923769036734
 40
0.714590745951587
 40
0.7378656074209913
 40
0.7609176261236618
 40
0.7837474924567461
 40
0.8063559233638509
 40
0.8287436633342236
 40
0.8509114854414725
 40
0.8728601924233759
 40
0.8945906178042934
 40
0.9161036270617625
 40
0.9374001188388534
 40
0.9584810262038904
 40
0.9793473179591272
 40
1.0
 40
1.0
 40
1.0
 40
1.0
 10
84.66025570871497
 20
75.8372528097881
 30
0.0
 10
84.85697583445948
 20
75.90671071013806
 30
0.0
 10
85.24885287430696
 20
76.04507457240254
 30
0.0
 10
85.83196247024678
 20
76.26237484821752
 30
0.0
 10
86.40864411004827
 20
76.48562466145503
 30
0.0
 10
86.9787324971061
 20
76.71543504136689
 30
0.0
 10
87.54227139844495
 20
76.95146465186718
 30
0.0
 10
88.09924923689749
 20
77.19362185717665
 30
0.0
 10
88.64966908527266
 20
77.44174667284379
 30
0.0
 10
89.19353013904829
 20
77.69569511362343
 30
0.0
 10
89.73083262009472
 20
77.95531702810707
 30
0.0
 10
90.26157647889735
 20
78.22046212261085
 30
0.0
 10
90.78576173799057
 20
78.49097852309755
 30
0.0
 10
91.30338840108699
 20
78.76671330987028
 30
0.0
 10
91.81445647712394
 20
79.04751252832942
 30
0.0
 10
92.31896597390471
 20
79.33322133632534
 30
0.0
 10
92.8169168997836
 20
79.62368411326298
 30
0.0
 10
93.30830926322258
 20
79.91874457713469
 30
0.0
 10
93.79314307290998
 20
80.2182458971906
 30
0.0
 10
94.2714183377302
 20
80.52203080542654
 30
0.0
 10
94.74313506677237
 20
80.82994170598086
 30
0.0
 10
95.2082932693269
 20
81.1418207826191
 30
0.0
 10
95.66689295488534
 20
81.45751010419774
 30
0.0
 10
96.1189341331374
 20
81.77685172808327
 30
0.0
 10
96.56441681396836
 20
82.09968780147966
 30
0.0
 10
97.00334100745293
 20
82.42586066063309
 30
0.0
 10
97.43570672385536
 20
82.75521292786604
 30
0.0
 10
97.86151397360113
 20
83.08758760645965
 30
0.0
 10
98.28076276734618
 20
83.42282817317512
 30
0.0
 10
98.69345311567959
 20
83.76077866905307
 30
0.0
 10
99.09958503016641
 20
84.1012837860279
 30
0.0
 10
99.4991585194509
 20
84.44418895831375
 30
0.0
 10
99.89217360351846
 20
84.78934042552632
 30
0.0
 10
100.2786302611605
 20
85.13658538896912
 30
0.0
 10
100.6585286230762
 20
85.48577181444713
 30
0.0
 10
101.0318682616963
 20
85.83674952397541
 30
0.0
 10
101.3986508022535
 20
86.18936653740097
 30
0.0
 10
101.7588703230609
 20
86.54348286703903
 30
0.0
 10
102.1125486454523
 20
86.89892014001697
 30
0.0
 10
102.4596056137705
 20
87.25564710056614
 30
0.0
 10
102.8003358819056
 20
87.61309810669712
 30
0.0
 10
103.0236951243677
 20
87.85405373591232
 30
0.0
 10
103.1348001684883
 20
87.9739117078501
 30
0.0
  0
LINE
  5
171
330
1F
100
AcDbEntity
  8
0
  6
Continuous
 62
     7
370
    15
100
AcDbLine
 10
75.8947708103
 20
78.354241591
 30
0.0
 11
75.8947708103
 21
82.5261718445
 31
0.0
  0
LINE
  5
172
330
1F
100
AcDbEntity
  8
0
  6
Continuous
 62
     7
370
    15
100
AcDbLine
 10
103.1347724068
 20
87.9742226415
 30
0.0
 11
103.1347724068
 21
87.5260739439
 31
0.0
  0
SPLINE
  5
173
330
1F
100
AcDbEntity
  8
0
  6
Continuous
 62
     7
370
    15
100
AcDbSpline
210
0.0
220
0.0
230
1.0
 70
     8
 71
     3
 72
    35
 73
    31
 74
     0
 42
0.00000001
 43
0.00000001
 40
0.0
 40
0.0
 40
0.0
 40
0.0
 40
0.0238317686407571
 40
0.047929170259807
 40
0.072296382459095
 40
0.0969374582395335
 40
0.121856329648568
 40
0.1470568114219496
 40
0.1725426046061539
 40
0.1983173001494524
 40
0.2243843824512856
 40
0.2507472328609148
 40
0.2774091331177442
 40
0.3043732687268287
 40
0.3316427322642373
 40
0.3592205266078488
 40
0.3871095680901534
 40
0.4153126895703292
 40
0.4438326434236286
 40
0.4726721044467297
 40
0.5018336726782591
 40
0.549332095638586
 40
0.5987697267105166
 40
0.650157925378151
 40
0.703507262250928
 40
0.7588276444302243
 40
0.8161284207323297
 40
0.875418470451146
 40
0.9367062786011269
 40
1.0
 40
1.0
 40
1.0
 40
1.0
 10
103.1341693307559
 20
87.5262414243147
 30
0.0
 10
103.0061720477274
 20
87.3882112609017
 30
0.0
 10
102.7487508020135
 20
87.11061242621443
 30
0.0
 10
102.3554868871683
 20
86.69944604757725
 30
0.0
 10
101.9542504020214
 20
86.28941540872204
 30
0.0
 10
101.544600475877
 20
85.88124596326837
 30
0.0
 10
101.1265674688139
 20
85.47497607713379
 30
0.0
 10
100.7000568763495
 20
85.07083591820286
 30
0.0
 10
100.2650119051078
 20
84.66900798572225
 30
0.0
 10
99.82136933443454
 20
84.26969235775891
 30
0.0
 10
99.36907170716958
 20
83.87308890315637
 30
0.0
 10
98.90806417369413
 20
83.47940211647473
 30
0.0
 10
98.4382955191435
 20
83.08883978319318
 30
0.0
 10
97.95971805806157
 20
82.70161332403892
 30
0.0
 10
97.4722878208647
 20
82.31793766884597
 30
0.0
 10
96.97596473562706
 20
81.93803128563323
 30
0.0
 10
96.47071253769958
 20
81.56211604231228
 30
0.0
 10
95.95649980160948
 20
81.19041756547543
 30
0.0
 10
95.43329669911176
 20
80.82316372634759
 30
0.0
 10
94.90108799061677
 20
80.46059020612104
 30
0.0
 10
94.24838691869532
 20
80.02928044333919
 30
0.0
 10
93.46279389989614
 20
79.53085177258309
 30
0.0
 10
92.53103323693449
 20
78.96975337633151
 30
0.0
 10
91.5543470517367
 20
78.4133742298189
 30
0.0
 10
90.53190559953565
 20
77.86439831091313
 30
0.0
 10
89.46292330995354
 20
77.32570142509593
 30
0.0
 10
88.34677425306832
 20
76.80002573035013
 30
0.0
 10
87.18271732789064
 20
76.29131937355872
 30
0.0
 10
85.97100797945552
 20
75.79945827636531
 30
0.0
 10
85.14278387794901
 20
75.49863794652262
 30
0.0
 10
84.72200412250358
 20
75.34580599609522
 30
0.0
  0
LINE
  5
174
330
1F
100
AcDbEntity
  8
0
  6
Continuous
 62
     7
370
    15
100
AcDbLine
 10
103.1347724068
 20
92.5299416148
 30
0.0
 11
103.1347724068
 21
117.6679304653
 31
0.0
  0
LINE
  5
175
330
1F
100
AcDbEntity
  8
0
  6
Continuous
 62
     7
370
    15
100
AcDbLine
 10
102.7449096012
 20
122.6478128546
 30
0.0
 11
71.4347709011
 21
123.5115051121
 31
0.0
  0
ARC
  5
176
330
1F
100
AcDbEntity
  8
0
  6
Continuous
 62
     7
370
    15
100
AcDbCircle
 10
71.1347708869
 20
117.6679304653
 30
0.0
 40
32.0
100
AcDbArc
 50
0.0
 51
8.9528325585
  0
LINE
  5
177
330
1F
100
AcDbEntity
  8
0
  6
Continuous
 62
     7
370
    15
100
AcDbLine
 10
71.4347709011
 20
92.5299416148
 30
0.0
 11
71.4347709011
 21
123.5115051121
 31
0.0
  0
ELLIPSE
  5
178
330
1F
100
AcDbEntity
  8
0
  6
Continuous
 62
     7
370
    15
100
AcDbEllipse
 10
65.4347708869
 20
142.8066630486
 30
0.0
 11
-1.206643027822722
 21
8.577870657123839
 31
0.0
210
0.0
220
0.0
230
1.0
 40
0.6851835035
 41
4.509900927020109
 42
5.434808234198543
  0
ARC
  5
179
330
1F
100
AcDbEntity
  8
0
  6
Continuous
 62
     7
370
    15
100
AcDbCircle
 10
71.1347708869
 20
117.6679304653
 30
0.0
 40
31.50000000000001
100
AcDbArc
 50
51.5458242077
 51
93.8016778917
  0
SPLINE
  5
17A
330
1F
100
AcDbEntity
  8
0
  6
Continuous
 62
     7
370
    15
100
AcDbSpline
210
0.0
220
0.0
230
1.0
 70
     8
 71
     3
 72
    12
 73
     8
 74
     0
 42
0.00000001
 43
0.00000001
 40
0.0
 40
0.0
 40
0.0
 40
0.0
 40
0.25
 40
0.25
 40
0.5
 40
0.5
 40
1.0
 40
1.0
 40
1.0
 40
1.0
 10
93.62357300124812
 20
140.5811971845802
 30
0.0
 10
93.35474820804302
 20
140.6900296452947
 30
0.0
 10
93.09683454737535
 20
140.8151944491816
 30
0.0
 10
92.59229558991446
 20
141.0824210593535
 30
0.0
 10
92.34562060172179
 20
141.2251882904625
 30
0.0
 10
91.62139806977211
 20
141.6715634593793
 30
0.0
 10
91.1594419797014
 20
141.9901706058168
 30
0.0
 10
90.72425928805278
 20
142.3357626396116
 30
0.0
  0
LINE
  5
17B
330
1F
100
AcDbEntity
  8
0
  6
Continuous
 62
     7
370
    15
100
AcDbLine
 10
93.4446515906
 20
140.6084879153
 30
0.0
 11
93.6235735583
 21
140.5811964386
 31
0.0
  0
ARC
  5
17C
330
1F
100
AcDbEntity
  8
0
  6
Continuous
 62
     7
370
    15
100
AcDbCircle
 10
71.1347708869
 20
117.6679304653
 30
0.0
 40
32.0
100
AcDbArc
 50
8.9528325585
 51
45.7985062853
  0
LINE
  5
17D
330
1F
100
AcDbEntity
  8
0
  6
Continuous
 62
     7
370
    15
100
AcDbLine
 10
71.4347709011
 20
123.5115051121
 30
0.0
 11
71.4347709011
 21
141.8914723062
 31
0.0
  0
SPLINE
  5
17E
330
1F
100
AcDbEntity
  8
0
  6
Continuous
 62
     7
370
    15
100
AcDbSpline
210
0.0
220
0.0
230
1.0
 70
     8
 71
     3
 72
    12
 73
     8
 74
     0
 42
0.00000001
 43
0.00000001
 40
0.0
 40
0.0
 40
0.0
 40
0.0
 40
0.2499999999999948
 40
0.2499999999999948
 40
0.4999999999999896
 40
0.4999999999999896
 40
1.0
 40
1.0
 40
1.0
 40
1.0
 10
70.9463032398399
 20
86.16849428070867
 30
0.0
 10
70.99129559136023
 20
86.16822508215614
 30
0.0
 10
71.03223977768613
 20
86.15205987611185
 30
0.0
 10
71.10673198510779
 20
86.08557921047912
 30
0.0
 10
71.13894731068379
 20
86.0360559896913
 30
0.0
 10
71.22065447334809
 20
85.84021774593134
 30
0.0
 10
71.25366307585165
 20
85.64691555127212
 30
0.0
 10
71.26786222738477
 20
85.42702421155637
 30
0.0
  0
SPLINE
  5
17F
330
1F
100
AcDbEntity
  8
0
  6
Continuous
 62
     7
370
    15
100
AcDbSpline
210
0.0
220
0.0
230
1.0
 70
     8
 71
     3
 72
    14
 73
    10
 74
     0
 42
0.00000001
 43
0.00000001
 40
0.0
 40
0.0
 40
0.0
 40
0.0
 40
0.25
 40
0.25
 40
0.5
 40
0.5
 40
0.75
 40
0.75
 40
1.0
 40
1.0
 40
1.0
 40
1.0
 10
66.98768515751053
 20
86.44211294270738
 30
0.0
 10
67.42456328514463
 20
86.38409136978036
 30
0.0
 10
67.84128169373668
 20
86.33804479833199
 30
0.0
 10
68.6349165197046
 20
86.26475331531117
 30
0.0
 10
69.0144409001748
 20
86.23752360801124
 30
0.0
 10
69.69533217771865
 20
86.19898878195426
 30
0.0
 10
70.00218855866547
 20
86.18714370345906
 30
0.0
 10
70.54116280872516
 20
86.17237034447899
 30
0.0
 10
70.76609535396669
 20
86.16957250179276
 30
0.0
 10
70.9463032398399
 20
86.16849428070866
 30
0.0
  0
SPLINE
  5
180
330
1F
100
AcDbEntity
  8
0
  6
Continuous
 62
     7
370
    15
100
AcDbSpline
210
0.0
220
0.0
230
1.0
 70
     8
 71
     3
 72
    10
 73
     6
 74
     0
 42
0.00000001
 43
0.00000001
 40
0.0
 40
0.0
 40
0.0
 40
0.0
 40
0.5
 40
0.5
 40
1.0
 40
1.0
 40
1.0
 40
1.0
 10
69.04622258414611
 20
149.0986155673775
 30
0.0
 10
68.74107946485948
 20
149.0783390082821
 30
0.0
 10
68.41114160807551
 20
149.0518889961608
 30
0.0
 10
67.71872489132436
 20
148.984086667353
 30
0.0
 10
67.35959082163656
 20
148.9431405993155
 30
0.0
 10
66.98768515751053
 20
148.8937479878568
 30
0.0
  0
SPLINE
  5
181
330
1F
100
AcDbEntity
  8
0
  6
Continuous
 62
     7
370
    15
100
AcDbSpline
210
0.0
220
0.0
230
1.0
 70
     8
 71
     3
 72
     8
 73
     4
 74
     0
 42
0.00000001
 43
0.00000001
 40
0.0
 40
0.0
 40
0.0
 40
0.0
 40
1.0
 40
1.0
 40
1.0
 40
1.0
 10
71.26786222738487
 20
85.42702421155637
 30
0.0
 10
71.3084157872707
 20
84.79900241794833
 30
0.0
 10
71.34129353841054
 20
84.17075404382071
 30
0.0
 10
71.3668548498747
 20
83.54228544764041
 30
0.0
  0
ELLIPSE
  5
182
330
1F
100
AcDbEntity
  8
0
  6
Continuous
 62
     7
370
    15
100
AcDbEllipse
 10
65.4347708869
 20
84.0148097197
 30
0.0
 11
5.99993738014166
 21
-0.5270835013601243
 31
0.0
210
0.0
220
0.0
230
0.9999999999999997
 40
0.0520075156
 41
0.0045687331305472
 42
0.1551725761889058
  0
ARC
  5
183
330
1F
100
AcDbEntity
  8
0
  6
Continuous
 62
     7
370
    15
100
AcDbCircle
 10
71.1347708869
 20
117.6679304653
 30
0.0
 40
32.10551373655942
100
AcDbArc
 50
355.3535493072
 51
45.5356434744
  0
ELLIPSE
  5
184
330
1F
100
AcDbEntity
  8
0
  6
Continuous
 62
     7
370
    15
100
AcDbEllipse
 10
58.9198591103
 20
100.1030715056
 30
0.0
 11
-2.156649216541922
 21
3.14903545297723
 31
0.0
210
0.0
220
0.0
230
1.0
 40
0.6401414518
 41
0.0
 42
6.283185307179586
  0
ARC
  5
185
330
1F
100
AcDbEntity
  8
0
  6
Continuous
 62
     7
370
    15
100
AcDbCircle
 10
71.1347708869
 20
117.6679304653
 30
0.0
 40
31.50000000000002
100
AcDbArc
 50
97.5651530928
 51
262.4348469072
  0
LINE
  5
186
330
1F
100
AcDbEntity
  8
0
  6
Continuous
 62
     7
370
    15
100
AcDbLine
 10
75.8947708103
 20
73.2816031986
 30
0.0
 11
75.8947708103
 21
78.354241591
 31
0.0
  0
LINE
  5
187
330
1F
100
AcDbEntity
  8
0
  6
Continuous
 62
     7
370
    15
100
AcDbLine
 10
71.1347708869
 20
73.3725971394
 30
0.0
 11
71.1347708869
 21
82.7486089283
 31
0.0
  0
SPLINE
  5
188
330
1F
100
AcDbEntity
  8
0
  6
Continuous
 62
     7
370
    15
100
AcDbSpline
210
0.0
220
0.0
230
1.0
 70
     8
 71
     3
 72
    11
 73
     7
 74
     0
 42
0.00000001
 43
0.00000001
 40
0.0
 40
0.0
 40
0.0
 40
0.0
 40
0.2760259703955771
 40
0.5592203109013859
 40
0.7818460544359596
 40
0.9999999999999999
 40
0.9999999999999999
 40
0.9999999999999999
 40
0.9999999999999999
 10
75.89477081030326
 20
73.10362000399937
 30
0.0
 10
75.4617743827497
 20
73.06122113722245
 30
0.0
 10
74.58453664860217
 20
72.97532230883732
 30
0.0
 10
73.33285046568737
 20
72.86720039737166
 30
0.0
 10
72.1768809446739
 20
72.76643248554339
 30
0.0
 10
71.47978350859563
 20
72.70030869893773
 30
0.0
 10
71.13477088690692
 20
72.667582225145
 30
0.0
  0
SPLINE
  5
189
330
1F
100
AcDbEntity
  8
0
  6
Continuous
 62
     7
370
    15
100
AcDbSpline
210
0.0
220
0.0
230
1.0
 70
    24
 71
     3
 72
    15
 73
    11
 74
     0
 42
0.00000001
 43
0.00000001
 40
0.0
 40
0.0
 40
0.0
 40
0.0
 40
0.1386082435713463
 40
0.2773916865759482
 40
0.4120848711593182
 40
0.5418040526323546
 40
0.6691457311698749
 40
0.7974514042195434
 40
0.9295611346021485
 40
1.0
 40
1.0
 40
1.0
 40
1.0
 10
75.89477081030326
 20
73.28160319858898
 30
0.0
 10
75.89477081030326
 20
73.27346752657004
 30
0.0
 10
75.89477081030326
 20
73.25718589912414
 30
0.0
 10
75.89477081030326
 20
73.22397089622251
 30
0.0
 10
75.89477081030326
 20
73.1893621582581
 30
0.0
 10
75.89477081030326
 20
73.15704094943354
 30
0.0
 10
75.89477081030326
 20
73.13036938521834
 30
0.0
 10
75.89477081030326
 20
73.11163062407273
 30
0.0
 10
75.89477081030326
 20
73.10356379999727
 30
0.0
 10
75.89477081030326
 20
73.10360550169906
 30
0.0
 10
75.89477081030326
 20
73.10362000399937
 30
0.0
  0
SPLINE
  5
18A
330
1F
100
AcDbEntity
  8
0
  6
Continuous
 62
     7
370
    15
100
AcDbSpline
210
0.0
220
0.0
230
1.0
 70
    24
 71
     3
 72
    15
 73
    11
 74
     0
 42
0.00000001
 43
0.00000001
 40
0.0
 40
0.0
 40
0.0
 40
0.0
 40
0.1368948156105848
 40
0.2736110552176848
 40
0.4079026528430529
 40
0.5393426480765158
 40
0.6692126555384357
 40
0.799678732303401
 40
0.9324965704819989
 40
1.0
 40
1.0
 40
1.0
 40
1.0
 10
71.13477088689476
 20
72.667582225145
 30
0.0
 10
71.13477088689476
 20
72.66966189938142
 30
0.0
 10
71.13477088689477
 20
72.67381853496921
 30
0.0
 10
71.13477088689469
 20
72.73741511392188
 30
0.0
 10
71.134770886895
 20
72.83487398716868
 30
0.0
 10
71.1347708868941
 20
72.95741913390368
 30
0.0
 10
71.13477088689491
 20
73.08999216112028
 30
0.0
 10
71.1347708868947
 20
73.21894730415221
 30
0.0
 10
71.13477088689476
 20
73.31412517198116
 30
0.0
 10
71.13477088689476
 20
73.35785966982145
 30
0.0
 10
71.13477088689476
 20
73.37259713941921
 30
0.0
  0
SPLINE
  5
18B
330
1F
100
AcDbEntity
  8
0
  6
Continuous
 62
     7
370
    15
100
AcDbSpline
210
0.0
220
0.0
230
1.0
 70
    24
 71
     3
 72
    10
 73
     6
 74
     0
 42
0.00000001
 43
0.00000001
 40
0.0
 40
0.0
 40
0.0
 40
0.0
 40
0.2724692338952613
 40
0.544815433690184
 40
1.0
 40
1.0
 40
1.0
 40
1.0
 10
71.13477088689484
 20
82.74860892826428
 30
0.0
 10
71.13477088689484
 20
82.76131633470513
 30
0.0
 10
71.13477088689484
 20
82.7867254095287
 30
0.0
 10
71.13477088689484
 20
82.81982109078456
 30
0.0
 10
71.13477088689484
 20
82.82764248498314
 30
0.0
 10
71.13477088689484
 20
82.83253599339832
 30
0.0
  0
LINE
  5
18C
330
1F
100
AcDbEntity
  8
0
  6
Continuous
 62
     7
370
    15
100
AcDbLine
 10
71.3927843183
 20
83.6054256969
 30
0.0
 11
71.1347708869
 21
83.6295693033
 31
0.0
  0
LINE
  5
18D
330
1F
100
AcDbEntity
  8
0
  6
Continuous
 62
     7
370
    15
100
AcDbLine
 10
71.1347708869
 20
82.8325359934
 30
0.0
 11
71.1347708869
 21
83.6295693033
 31
0.0
  0
INSERT
  5
199
330
1F
100
AcDbEntity
  8
VERMASSUNG
100
AcDbBlockReference
  2
SW_CENTERMARKSYMBOL_0
 10
71.1347708869
 20
117.6679304653
 30
0.0
  0
OLE2FRAME
  5
19A
330
1F
100
AcDbEntity
  8
0
100
AcDbOle2Frame
 70
     2
  3
Paintbrush-Bild
 10
13.8511154363
 20
38.264191557
 30
0.0
 11
51.6290888628
 21
31.9806341108
 31
0.0
 71
     2
 72
     0
 73
     1
 90
    12928
310
80552BED0767C5B32B40DDAF6807D121434000000000000000006FFBDDFB85D0
310
4940DDAF6807D121434000000000000000006FFBDDFB85D04940416F4BD60AFB
310
3F4000000000000000002BED0767C5B32B40416F4BD60AFB3F40000000000000
310
0000000000000100000000010000010000000100000000000100000000320000
310
D0CF11E0A1B11AE1000000000000000000000000000000003E000300FEFF0900
310
0600000000000000000000000100000001000000000000000010000002000000
310
01000000FEFFFFFF0000000000000000FFFFFFFFFFFFFFFFFFFFFFFFFFFFFFFF
310
FFFFFFFFFFFFFFFFFFFFFFFFFFFFFFFFFFFFFFFFFFFFFFFFFFFFFFFFFFFFFFFF
310
FFFFFFFFFFFFFFFFFFFFFFFFFFFFFFFFFFFFFFFFFFFFFFFFFFFFFFFFFFFFFFFF
310
FFFFFFFFFFFFFFFFFFFFFFFFFFFFFFFFFFFFFFFFFFFFFFFFFFFFFFFFFFFFFFFF
310
FFFFFFFFFFFFFFFFFFFFFFFFFFFFFFFFFFFFFFFFFFFFFFFFFFFFFFFFFFFFFFFF
310
FFFFFFFFFFFFFFFFFFFFFFFFFFFFFFFFFFFFFFFFFFFFFFFFFFFFFFFFFFFFFFFF
310
FFFFFFFFFFFFFFFFFFFFFFFFFFFFFFFFFFFFFFFFFFFFFFFFFFFFFFFFFFFFFFFF
310
FFFFFFFFFFFFFFFFFFFFFFFFFFFFFFFFFFFFFFFFFFFFFFFFFFFFFFFFFFFFFFFF
310
FFFFFFFFFFFFFFFFFFFFFFFFFFFFFFFFFFFFFFFFFFFFFFFFFFFFFFFFFFFFFFFF
310
FFFFFFFFFFFFFFFFFFFFFFFFFFFFFFFFFFFFFFFFFFFFFFFFFFFFFFFFFFFFFFFF
310
FFFFFFFFFFFFFFFFFFFFFFFFFFFFFFFFFFFFFFFFFFFFFFFFFFFFFFFFFFFFFFFF
310
FFFFFFFFFFFFFFFFFFFFFFFFFFFFFFFFFFFFFFFFFFFFFFFFFFFFFFFFFFFFFFFF
310
FFFFFFFFFFFFFFFFFFFFFFFFFFFFFFFFFFFFFFFFFFFFFFFFFFFFFFFFFFFFFFFF
310
FFFFFFFFFFFFFFFFFFFFFFFFFFFFFFFFFFFFFFFFFFFFFFFFFFFFFFFFFFFFFFFF
310
FDFFFFFFFEFFFFFFFEFFFFFFFEFFFFFF05000000060000000700000008000000
310
090000000A0000000B0000000C0000000D0000000E0000000F00000010000000
310
11000000120000001300000014000000150000001600000017000000FEFFFFFF
310
FFFFFFFFFFFFFFFFFFFFFFFFFFFFFFFFFFFFFFFFFFFFFFFFFFFFFFFFFFFFFFFF
310
FFFFFFFFFFFFFFFFFFFFFFFFFFFFFFFFFFFFFFFFFFFFFFFFFFFFFFFFFFFFFFFF
310
FFFFFFFFFFFFFFFFFFFFFFFFFFFFFFFFFFFFFFFFFFFFFFFFFFFFFFFFFFFFFFFF
310
FFFFFFFFFFFFFFFFFFFFFFFFFFFFFFFFFFFFFFFFFFFFFFFFFFFFFFFFFFFFFFFF
310
FFFFFFFFFFFFFFFFFFFFFFFFFFFFFFFFFFFFFFFFFFFFFFFFFFFFFFFFFFFFFFFF
310
FFFFFFFFFFFFFFFFFFFFFFFFFFFFFFFFFFFFFFFFFFFFFFFFFFFFFFFFFFFFFFFF
310
FFFFFFFFFFFFFFFFFFFFFFFFFFFFFFFFFFFFFFFFFFFFFFFFFFFFFFFFFFFFFFFF
310
FFFFFFFFFFFFFFFFFFFFFFFFFFFFFFFFFFFFFFFFFFFFFFFFFFFFFFFFFFFFFFFF
310
FFFFFFFFFFFFFFFFFFFFFFFFFFFFFFFFFFFFFFFFFFFFFFFFFFFFFFFFFFFFFFFF
310
FFFFFFFFFFFFFFFFFFFFFFFFFFFFFFFFFFFFFFFFFFFFFFFFFFFFFFFFFFFFFFFF
310
FFFFFFFFFFFFFFFFFFFFFFFFFFFFFFFFFFFFFFFFFFFFFFFFFFFFFFFFFFFFFFFF
310
FFFFFFFFFFFFFFFFFFFFFFFFFFFFFFFFFFFFFFFFFFFFFFFFFFFFFFFFFFFFFFFF
310
FFFFFFFFFFFFFFFFFFFFFFFFFFFFFFFFFFFFFFFFFFFFFFFFFFFFFFFFFFFFFFFF
310
52006F006F007400200045006E00740072007900000000000000000000000000
310
0000000000000000000000000000000000000000000000000000000000000000
310
16000500FFFFFFFFFFFFFFFF020000000A00030000000000C000000000000046
310
0000000000000000000000008023C5ECDFB0CC0103000000C000000000000000
310
01004F006C006500000000000000000000000000000000000000000000000000
310
0000000000000000000000000000000000000000000000000000000000000000
310
0A000200FFFFFFFFFFFFFFFFFFFFFFFF00000000000000000000000000000000
310
0000000000000000000000000000000000000000000000001400000000000000
310
010043006F006D0070004F0062006A0000000000000000000000000000000000
310
0000000000000000000000000000000000000000000000000000000000000000
310
120002010100000003000000FFFFFFFF00000000000000000000000000000000
310
0000000000000000000000000000000000000000010000004D00000000000000
310
01004F006C006500310030004E00610074006900760065000000000000000000
310
0000000000000000000000000000000000000000000000000000000000000000
310
1A000200FFFFFFFFFFFFFFFFFFFFFFFF00000000000000000000000000000000
310
0000000000000000000000000000000000000000040000002426000000000000
310
FEFFFFFF02000000FEFFFFFFFFFFFFFFFFFFFFFFFFFFFFFFFFFFFFFFFFFFFFFF
310
FFFFFFFFFFFFFFFFFFFFFFFFFFFFFFFFFFFFFFFFFFFFFFFFFFFFFFFFFFFFFFFF
310
FFFFFFFFFFFFFFFFFFFFFFFFFFFFFFFFFFFFFFFFFFFFFFFFFFFFFFFFFFFFFFFF
310
FFFFFFFFFFFFFFFFFFFFFFFFFFFFFFFFFFFFFFFFFFFFFFFFFFFFFFFFFFFFFFFF
310
FFFFFFFFFFFFFFFFFFFFFFFFFFFFFFFFFFFFFFFFFFFFFFFFFFFFFFFFFFFFFFFF
310
FFFFFFFFFFFFFFFFFFFFFFFFFFFFFFFFFFFFFFFFFFFFFFFFFFFFFFFFFFFFFFFF
310
FFFFFFFFFFFFFFFFFFFFFFFFFFFFFFFFFFFFFFFFFFFFFFFFFFFFFFFFFFFFFFFF
310
FFFFFFFFFFFFFFFFFFFFFFFFFFFFFFFFFFFFFFFFFFFFFFFFFFFFFFFFFFFFFFFF
310
FFFFFFFFFFFFFFFFFFFFFFFFFFFFFFFFFFFFFFFFFFFFFFFFFFFFFFFFFFFFFFFF
310
FFFFFFFFFFFFFFFFFFFFFFFFFFFFFFFFFFFFFFFFFFFFFFFFFFFFFFFFFFFFFFFF
310
FFFFFFFFFFFFFFFFFFFFFFFFFFFFFFFFFFFFFFFFFFFFFFFFFFFFFFFFFFFFFFFF
310
FFFFFFFFFFFFFFFFFFFFFFFFFFFFFFFFFFFFFFFFFFFFFFFFFFFFFFFFFFFFFFFF
310
FFFFFFFFFFFFFFFFFFFFFFFFFFFFFFFFFFFFFFFFFFFFFFFFFFFFFFFFFFFFFFFF
310
FFFFFFFFFFFFFFFFFFFFFFFFFFFFFFFFFFFFFFFFFFFFFFFFFFFFFFFFFFFFFFFF
310
FFFFFFFFFFFFFFFFFFFFFFFFFFFFFFFFFFFFFFFFFFFFFFFFFFFFFFFFFFFFFFFF
310
FFFFFFFFFFFFFFFFFFFFFFFFFFFFFFFFFFFFFFFFFFFFFFFFFFFFFFFFFFFFFFFF
310
0100000200000000000000000000000000000000000000000000000000000000
310
0000000000000000000000000000000000000000000000000000000000000000
310
0100FEFF030A0000FFFFFFFF0A00030000000000C00000000000004607000000
310
5042727573680007000000504272757368000700000050427275736800F439B2
310
7100000000000000000000000000000000000000000000000000000000000000
310
0000000000000000000000000000000000000000000000000000000000000000
310
0000000000000000000000000000000000000000000000000000000000000000
310
0000000000000000000000000000000000000000000000000000000000000000
310
0000000000000000000000000000000000000000000000000000000000000000
310
0000000000000000000000000000000000000000000000000000000000000000
310
0000000000000000000000000000000000000000000000000000000000000000
310
0000000000000000000000000000000000000000000000000000000000000000
310
0000000000000000000000000000000000000000000000000000000000000000
310
0000000000000000000000000000000000000000000000000000000000000000
310
0000000000000000000000000000000000000000000000000000000000000000
310
0000000000000000000000000000000000000000000000000000000000000000
310
20260000424D0E260000000000003E00000028000000B40200006E0000000100
310
01000000000000000000130B0000130B00000200000002000000000000FFFFFF
310
FFFFFFFFFFFFFFFFFFFFFFFFFFFFFFFFFFFFFFFFFFFFFFFFFFFFFFFFFFFFFFFF
310
FFFFFFFFFFFFFFFFFFFFFFFFFFFFFFFFFFFFFFFFFFFFFFFFFFFFFFFFFFFFFFFF
310
FFFFFFFFFFFFFFFFFFFFFFFFFFFFFFFFFFFFFFFFFFFFFFFFF000FFFFFFFFFFFF
310
FFFFFFFFFFFFFFFFFFFFFFFFFFFFFFFFFFFFFFFFFFFFFFFFFFFFFFFFFFFFFFFF
310
FFFFFFFFFFFFFFFFFFFFFFFFFFFFFFFFFFFFFFFFFFFFFFFFFFFFFFFFFFFFFFFF
310
FFFFFFFFFFFFFFFFFFFFFFFFFFFFFFFFF000FFFFFFFFFFFFFFFFFFFFFFFFFFFF
310
FFFFFFFFFFFFFFFFFFFFFFFFFFFFFFFFFFFFFFFFFFFFFFFFFFFFFFFFFFFFFFFF
310
FFFFFFFFFFFFFFFFFFFFFFFFFFFFFFFFFFFFFFFFFFFFFFFFFFFFFFFFFFFFFFFF
310
FFFFFFFFFFFFFFFFF000FFFFFFFFFFFFFFFFFFFFFFFFFFFFFFFFFFFFFFFFFFFF
310
FFFFFFFFFFFFFFFFFFFFFFFFFFFFFFFFFFFFFFFFFFFFFFFFFFFFFFFFFFFFFFFF
310
FFFFFFFFFFFFFFFFFFFFFFFFFFFFFFFFFFFFFFFFFFFFFFFFFFFFFFFFFFFFFFFF
310
F000FFFFFFFFFFFFFFFFFFFFFFFFFFFFFFFFFFFFFFFFFFFFFFFFFFFFFFFFFFFF
310
FFFFFFFFFFFFFFFFFFFFFFFFFFFFFFFFFFFFFFFFFFFFFFFFFFFFFFFFFFFFFFFF
310
FFFFFFFFFFFFFFFFFFFFFFFFFFFFFFFFFFFFFFFFFFFFFFFFF000FFFFFFFFFFFF
310
FFFFFFFFFFFFFFFFFFFFFFFFFFFFFFFFFFFFFFFFFFFFFFFFFFFFFFFFFFFFFFFF
310
FFFFFFFFFFFFFFFFFFFFFFFFFFFFFFFFFFFFFFFFFFFFFFFFFFFFFFFFFFFFFFFF
310
FFFFFFFFFFFFFFFFFFFFFFFFFFFFFFFFF000FFFFFFFFFFFFFFFFFFFFFFFFFFFF
310
FFFFFFFFFFFFFFFFFFFFFFFFFFFFFFFFFFFFFFFFFFFFFFFFFFFFFFFFFFFFFFFF
310
FFFFFFFFFFFFFFFFFFFFFFFFFFFFFFFFFFFFFFFFFFFFFFFFFFFFFFFFFFFFFFFF
310
FFFFFFFFFFFFFFFFF000FFFFFFFFFFFFFFFFFFFFFFFFFFFFFFFFFFFFFFFFFFFF
310
FFFFFFFFFFFFFFFFFFFFFFFFFFFFFFFFFFFFFFFFFFFFFFFFFFFFFFFFFFFFFFFF
310
FFFFFFFFFFFFFFFFFFFFFFFFFFFFFFFFFFFFFFFFFFFFFFFFFFFFFFFFFFFFFFFF
310
F000FFFFFFFFFFFFFFFFFFFFFFFFFFFFFFFFFFFFFFFFFFFFFFFFFFFFFFFFFFFF
310
FFFFFFFFFFFFFFFFFFFFFFFFFFFFFFFFFFFFFFFFFFFFFFFFFFFFFFFFFFFFFFFF
310
FFFFFFFFFFFFFFFFFFFFFFFFFFFFFFFFFFFFFFFFFFFFFFFFF000FFFFFFFFFFFF
310
FFFFFFFFFFFFFFFFFFFFFFFFFFFFFFFFFFFFFFFFFFFFFFFFFFFFFFFFFFFFFFFF
310
FFFFFFFFFFFFFFFFFFFFFFFFFFFFFFFFFFFFFFFFFFFFFFFFFFFFFFFFFFFFFFFF
310
FFFFFFFFFFFFFFFFFFFFFFFFFFFFFFFFF000FFFFFFFFFFFFFFFFFFFFFFFFFFFF
310
FFFFFFFFFFFFFFFFFFFFFFFFFFFFFFFFFFFFFFFFFFFFFFFFFFFFFFFFFFFFFFFF
310
FFFFFFFFFFFFFFFFFFFFFFFFFFFFFFFFFFFFFFFFFFFFFFFFFFFFFFFFFFFFFFFF
310
FFFFFFFFFFFFFFFFF000FFFFFFFFFFFFFFFFFFFFFFFFFFFFFFFFFFFFFFFFFFFF
310
FFFFFFFFFFFFFFFFFFFFFFFFFFFFFFFFFFFFFFFFFFFFFFFFFFFFFFFFFFFFFFFF
310
FFFFFFFFFFFFFFFFFFFFFFFFFFFFFFFFFFFFFFFFFFFFFFFFFFFFFFFFFFFFFFFF
310
F000FFFFFFFFFFFFFFFFFFFFFFFFFFFFFFFFFFFFFFFFFFFFFFFFFFFFFFFFFFFF
310
FFFFFFFFFFFFFFFFFFFFFFFFFFFFFFFFFFFFFFFFFFFFFFFFFFFFFFFFFFFFFFFF
310
FFFFFFFFFFFFFFFFFFFFFFFFFFFFFFFFFFFFFFFFFFFFFFFFF000FFFFFFFFFFFF
310
FFFFFFFFFFFFFFFFFFFFFFFFFFFFFFFFFFFFFFFFFFFFFFFFFFFFFFFFFFFFFFFF
310
FFFFFFFFFFFFFFFFFFFFFFFFFFFFFFFFFFFFFFFFFFFFFFFFFFFFFFFFFFFFFFFF
310
FFFFFFFFFFFFFFFFFFFFFFFFFFFFFFFFF000FFFFFFFFFFFFFFFFFFFFFFFFFFFF
310
FFFFFFFFFFFFFFFFFFFFFFFFFFFFFFFFFFFFFFFFFFFFFFFFFFFFFFFFFFFFFFFF
310
FFFFFFFFFFFFFFFFFFFFFFFFFFFFFFFFFFFFFFFFFFFFFFFFFFFFFFFFFFFFFFFF
310
FFFFFFFFFFFFFFFFF000FFFFFFFFFFFFFFFFFFFFFFFFFFFFFFFFFFFFFFFFFFFF
310
FFFFFFFFFFFFFFFFFFFFFFFFFFFFFFFFFFFFFFFFFFFFFFFFFFFFFFFFFFFFFFFF
310
FFFFFFFFFFFFFFFFFFFFFFFFFFFFFFFFFFFFFFFFFFFFFFFFFFFFFFFFFFFFFFFF
310
F000FFFFFFFFFFFFFFFFFFFFFFFFFFFFFFFFFFFFFFFFFFFFFFFFFFFFFFFFFFFF
310
FFFFFFFFFFFFFFFFFFFFFFFFFFFFFFFFFFFFFFFFFFFFFFFFFFFFFFFFFFFFFFFF
310
FFFFFFFFFFFFFFFFFFFFFFFFFFFFFFFFFFFFFFFFFFFFFFFFF000FFFFFFFFFFFF
310
FFFFFFFFFFFFFFFFFFFFFFFFFFFFFFFFFFFFFFFFFFFFFFFFFFFFFFFFFFFFFFFF
310
FFFFFFFFFFFFFFFFFFFFFFFFFFFFFFFFFFFFFFFFFFFFFFFFFFFFFFFFFFFFFFFF
310
FFFFFFFFFFFFFFFFFFFFFFFFFFFFFFFFF000FFFFFFFFFFFFFFFFFFFFFFFFFFFF
310
FFFFFFFFFFFFFFFFFFFFFFFFFFFFFFFFFFFFFFFFFFFFFFFFFFFFFFFFFFFFFFFF
310
FFFFFFFFFFFFFFFFFFFFFFFFFFFFFFFFFFFFFFFFFFFFFFFFFFFFFFFFFFFFFFFF
310
FFFFFFFFFFFFFFFFF000FFFFF80003FFFFFFFFFFFFFFFFFFFFFFFFFFFFFFFFFF
310
FFFFF00007FFFFFFFFFF00007FFFFFF800000000000000007FFFFFFFFFFFFFFF
310
FFFFFFFC001FFFFFFFFFFFFFFC001FFFFFFFFFFFFFFFFFFFFFFFFFFE0007FFFF
310
F000FFFF8000007FFFFFFFF8000FFFFFC0007FFFFF80007FFFFF0000007FFFFF
310
FFF8000007FFFFF800000000000000007FFFFFF0001FFFFFFFFFFFC00001FFFF
310
FFFFFFFFC00001FFFFFFFF000000000003FFFFE000007FFFF000FFFE0000000F
310
FFFFFFF0000FFFFF80007FFFFF80007FFFFC0000001FFFFFFFC0000001FFFFF8
310
00000000000000007FFFFFF0001FFFFFFFFFFE0000003FFFFFFFFFFE0000003F
310
FFFFFF000000000003FFFF0000000FFFF000FFF800000003FFFFFFF00007FFFF
310
80007FFFFF80007FFFF000000007FFFFFF000000003FFFF80000000000000000
310
7FFFFFF0001FFFFFFFFFF80000000FFFFFFFFFF80000000FFFFFFF0000000000
310
03FFFC00000003FFF000FFE000000000FFFFFFF00007FFFF80003FFFFF80007F
310
FFC000000001FFFFFC000000001FFFF800000000000000007FFFFFF0001FFFFF
310
FFFFE000000003FFFFFFFFE000000003FFFFFF000000000003FFF000000000FF
310
F000FF80000000007FFFFFF00007FFFF80003FFFFF80007FFF8000000000FFFF
310
F80000000007FFF800000000000000007FFFFFF0001FFFFFFFFFC000000001FF
310
FFFFFFC000000001FFFFFF000000000003FFC0000000007FF000FF0000000000
310
3FFFFFE00007FFFF00003FFFFF80007FFE00000000003FFFF00000000003FFF8
310
00000000000000007FFFFFF0001FFFFFFFFF8000000000FFFFFFFF8000000000
310
FFFFFF000000000003FF80000000003FF000FE00000000001FFFFFE00003FFFF
310
00003FFFFF80007FFC00000000001FFFE00000000001FFF8000001FFFE000000
310
7FFFFFF0001FFFFFFFFE00000000003FFFFFFE00000000003FFFFF0000000000
310
03FF00000000001FF000FC00000000000FFFFFE00003FFFF00001FFFFF80007F
310
F800000000001FFFC00000000000FFF8000001FFFE0000007FFFFFF0001FFFFF
310
FFFC00000000001FFFFFFC00000000001FFFFF000000000003FE00000000000F
310
F000F8000000000007FFFFE00003FFFF00001FFFFF80007FF800000000000FFF
310
800000000000FFF8000001FFFE0000007FFFFFF0001FFFFFFFF800000000000F
310
FFFFF800000000000FFFFF000000000003FC000000000007F000F80000000000
310
03FFFFC00003FFFE00001FFFFF80007FF0000000000007FF0000000000007FF8
310
000001FFFE0000007FFFFFF0001FFFFFFFF0000000000007FFFFF00000000000
310
07FFFF000000000003F8000000000003F000F0000000000003FFFFC00001FFFE
310
00001FFFFF80007FE0000000000007FE0000000000003FF8000001FFFE000000
310
7FFFFFF0001FFFFFFFF0000000000007FFFFF0000000000007FFFF0000000000
310
03F800001F800003F000E00001FFF00001FFFFC00001FFFE00000FFFFF80007F
310
E00001FFE00003FE00001FFF00003FF8000001FFFE0000007FFFFFF0001FFFFF
310
FFE000003E000003FFFFE000003E000003FFFF000000000003F00001FFF80001
310
F000E00007FFFC0001FFFFC00001FFFE00000FFFFF80007FC0000FFFFC0003FC
310
0000FFFFC0001FF8000001FFFE0000007FFFFFF0001FFFFFFFC00003FFE00001
310
FFFFC00003FFE00001FFFF0001FFFFFFFFF00007FFFE0001F000E0000FFFFF00
310
00FFFF800001FFFC00000FFFFF80007FC0001FFFFE0001FC0001FFFFE0001FF8
310
000001FFFE0000007FFFFFF0001FFFFFFF80000FFFF80000FFFF80000FFFF800
310
00FFFF0003FFFFFFFFE0000FFFFF8000F000C0003FFFFF8000FFFF800000FFFC
310
000007FFFF80007F80003FFFFF0001FC0003FFFFF0001FF8000001FFFE000000
310
7FFFFFF0001FFFFFFF80003FFFFE0000FFFF80003FFFFE0000FFFF0003FFFFFF
310
FFE0003FFFFF8000F000C0003FFFFF8000FFFF800000FFFC000007FFFF80007F
310
80007FFFFF8001F80007FFFFF8000FF8000001FFFE0000007FFFFFF0001FFFFF
310
FF00007FFFFF00007FFF00007FFFFF00007FFF0003FFFFFFFFE0003FFFFFC000
310
F000C0007FFFFFC000FFFF000000FFFC000007FFFF80007F8000FFFFFF8000F8
310
000FFFFFF8000FF8000001FFFE0000007FFFFFF0001FFFFFFF0000FFFFFF8000
310
7FFF0000FFFFFF80007FFF0003FFFFFFFFC0007FFFFFC00070008000FFFFFFC0
310
00FFFF000000FFF8000007FFFF80007F8000FFFFFF8000F8000FFFFFF8000FF8
310
000001FFFE0000007FFFFFF0001FFFFFFE0001FFFFFFC0003FFE0001FFFFFFC0
310
003FFF0003FFFFFFFFC0007FFFFFE00070008000FFFFFFC0007FFF0000007FF8
310
000003FFFF80007F0001FFFFFF8000F8000FFFFFF8000FF8000001FFFE000000
310
7FFFFFF0001FFFFFFE0001FFFFFFC0003FFE0001FFFFFFC0003FFF0003FFFFFF
310
FFC000FFFFFFE00070008000FFFFFFC0007FFF0000007FF8000003FFFF80007F
310
0001FFFFFF8000F8001FFFFFF8000FF8000001FFFE0000007FFFFFF0001FFFFF
310
FE0003FFFFFFE0003FFE0003FFFFFFE0003FFF0003FFFFFFFFC000FFFFFFE000
310
70008000FFFFFFC0007FFE0000007FF8000003FFFF80007F0001FFFFFF8000F0
310
001FFFFFF8000FF8000001FFFE0000007FFFFFF0001FFFFFFC0003FFFFFFE000
310
1FFC0003FFFFFFE0001FFF0003FFFFFFFFC000FFFFFFC00070008000FFFFFF80
310
007FFE0000007FF0000003FFFF80007F0001FFFFFF0000F0001FFFFFF8000FF8
310
000001FFFE0000007FFFFFF0001FFFFFFC0007FFFFFFF0001FFC0007FFFFFFF0
310
001FFF0003FFFFFFFFC000FFFFFFC00070008001FFFFFF0000FFFE0000003FF0
310
000001FFFF80007F0001FFFFFF0000F8001FFFFFF0000FF8000001FFFE000000
310
7FFFFFF0001FFFFFFC0007FFFFFFF0001FFC0007FFFFFFF0001FFF0003FFFFFF
310
FFC001FFFFFF80007000FFFFFFFFFE0000FFFE0008003FF0008001FFFF80007F
310
FFFFFFFFFC0000FFFFFFFFFFE0000FF8000001FFFE0000007FFFFFF0001FFFFF
310
F8000FFFFFFFF8000FF8000FFFFFFFF8000FFF0003FFFFFFFFFFFFFFFFFF0000
310
7000FFFFFFFFFC0000FFFC0008003FF0008001FFFF80007FFFFFFFFFF80001FF
310
FFFFFFFF80000FF8000001FFFE0000007FFFFFF0001FFFFFF8000FFFFFFFF800
310
0FF8000FFFFFFFF8000FFF0003FFFFFFFFFFFFFFFFFE0000F000FFFFFFFFE000
310
00FFFC000C003FE000C001FFFF80007FFFFFFFFFC00001FFFFFFFFFE00001FF8
310
000001FFFE0000007FFFFFF0001FFFFFF8000FFFFFFFF8000FF8000FFFFFFFF8
310
000FFF0003FFFFFFFFFFFFFFFFF00000F000FFFFFFFE000001FFFC000C001FE0
310
00C000FFFF80007FFFFFFFFE000001FFFFFFFFE000001FF80FFFFFFFFFFFFFC0
310
7FFFFFF0001FFFFFF8000FFFFFFFF8000FF8000FFFFFFFF8000FFF0003FFFFFF
310
FFFFFFFFFF800000F000FFFFFFC0000001FFFC001C001FE001C000FFFF80007F
310
FFFFFF80000003FFFFFFF80000001FF80FFFFFFFFFFFFFC07FFFFFF0001FFFFF
310
F8001FFFFFFFFC000FF8001FFFFFFFFC000FFF0003FFFFFFFFFFFFFFF0000001
310
F000FFFFF800000001FFF8001C001FE001C000FFFF80007FFFFFF800000003FF
310
FFFF800000003FF80FFFFFFFFFFFFFC07FFFFFF0001FFFFFF8001FFFFFFFFC00
310
0FF8001FFFFFFFFC000FFF0003FFFFFFFFFFFFFE00000001F000FFFFC0000000
310
03FFF8001E001FC001E000FFFF80007FFFFF8000000007FFFFFC000000003FF8
310
0FFFFFFFFFFFFFC07FFFFFF0001FFFFFF8001FFFFFFFFC000FF8001FFFFFFFFC
310
000FFF0003FFFFFFFFFFFFE000000003F000FFFE0000000007FFF8001E000FC0
310
01E0007FFF80007FFFFE0000000007FFFFE0000000007FF80FFFFFFFFFFFFFC0
310
7FFFFFF0001FFFFFF0001FFFFFFFFC0007F0001FFFFFFFFC0007FF0003FFFFFF
310
FFFFFF0000000003F000FFF80000000007FFF8001E000FC003E0007FFF80007F
310
FFF0000000000FFFFF8000000000FFF80FFFFFFFFFFFFFC07FFFFFF0001FFFFF
310
F0001FFFFFFFFC0007F0001FFFFFFFFC0007FF0003FFFFFFFFFFFC0000000007
310
F000FFE0000000000FFFF0003E000FC003E0007FFF80007FFFC0000000001FFF
310
FE0000000001FFF80FFFFFFFFFFFFFC07FFFFFF0001FFFFFF0001FFFFFFFFC00
310
07F0001FFFFFFFFC0007FF0003FFFFFFFFFFF0000000000FF000FFC000000000
310
1FFFF0003F000F8003F0003FFF80007FFF80000000003FFFF80000000003FFF8
310
0FFFFFFFFFFFFFC07FFFFFF0001FFFFFF0001FFFFFFFFC0007F0001FFFFFFFFC
310
0007FF0003FFFFFFFFFFE0000000001FF000FF00000000007FFFF0003F000780
310
03F0003FFF80007FFF00000000007FFFF00000000007FFF80FFFFFFFFFFFFFC0
310
7FFFFFF0001FFFFFF0001FFFFFFFFC0007F0001FFFFFFFFC0007FF0003FFFFFF
310
FFFF80000000007FF000FE0000000000FFFFE0003F00078007F0003FFF80007F
310
FE0000000001FFFFE0000000001FFFF80FFFFFFFFFFFFFC07FFFFFF0001FFFFF
310
F0001FFFFFFFFC0007F0001FFFFFFFFC0007FF0003FFFFFFFFFF0000000000FF
310
F000FC0000000003FFFFE0007F00078007F0003FFF80007FFC0000000007FFFF
310
C0000000007FFFF80FFFFFFFFFFFFFC07FFFFFF0001FFFFFF8001FFFFFFFFC00
310
0FF8001FFFFFFFFC000FFF0003FFFFFFFFFE0000000003FFF000FC000000000F
310
FFFFE0007F80070007F8001FFF80007FF8000000001FFFFF8000000001FFFFF8
310
0FFFFFFFFFFFFFC07FFFFFF0001FFFFFF8001FFFFFFFFC000FF8001FFFFFFFFC
310
000FFF0003FFFFFFFFFC000000000FFFF000F8000000007FFFFFE0007F800700
310
07F8001FFF80007FF000000000FFFFFF800000000FFFFFF80FFFFFFFFFFFFFC0
310
7FFFFFF0001FFFFFF8000FFFFFFFF8000FF8000FFFFFFFF8000FFF0003FFFFFF
310
FFFC000000007FFFF000F800000007FFFFFFC0007F8003000FF8001FFF80007F
310
F000000007FFFFFF000000007FFFFFF80FFFFFFFFFFFFFC07FFFFFF0001FFFFF
310
F8000FFFFFFFF8000FF8000FFFFFFFF8000FFF0003FFFFFFFFF80000000FFFFF
310
F000F0000000FFFFFFFFC000FF8003000FF8001FFF80007FE0000000FFFFFFFF
310
0000000FFFFFFFF8000001FFFE0000007FFFFFF0001FFFFFF8000FFFFFFFF800
310
0FF8000FFFFFFFF8000FFF0003FFFFFFFFF8000000FFFFFFF000F000000FFFFF
310
FFFFC000FFC002000FF8000FFF80007FE000001FFFFFFFFE000001FFFFFFFFF8
310
000001FFFE0000007FFFFFF0001FFFFFF8000FFFFFFFF8000FF8000FFFFFFFF8
310
000FFF0003FFFFFFFFF000001FFFFFFFF000E00000FFFFFFFFFFC000FFC00200
310
0FFC000FFF80007FE00001FFFFFFFFFE00001FFFFFFFFFF8000001FFFE000000
310
7FFFFFF0001FFFFFFC000FFFFFFFF8001FFC000FFFFFFFF8001FFF0003FFFFFF
310
FFF00001FFFFFFFFF000E00007FFFFFFFFFF8000FFC000001FFC000FFF80007F
310
C0000FFFFFFFFFFE0000FFFFFFFFFFF8000001FFFE0000007FFFFFF0001FFFFF
310
FC0007FFFFFFF0001FFC0007FFFFFFF0001FFF0003FFFFFFFFF00007FFFFFFFF
310
F000E0001FFFFFFFFFFF8000FFC000001FFC000FFF80007FC0003FFFFFFFFFFE
310
0001FFFFFFFFFFF8000001FFFE0000007FFFFFF0001FFFFFFC0007FFFFFFF000
310
1FFC0007FFFFFFF0001FFF0003FFFFFFFFF0001FFFFFFFFFF000E0003FFFFF00
310
03FF8001FFE000001FFC0007FF80007FC0007FFFFF0007FC0003FFFFF0003FF8
310
000001FFFE0000007FFFFFF0001FFFFFFC0003FFFFFFE0001FFC0003FFFFFFE0
310
001FFF0003FFFFFFFFF0003FFFFFFFFFF000E0003FFFFF0001FF8001FFE00000
310
1FFE0007FF80007FC0007FFFFE0003FC0007FFFFE0003FF8000001FFFE000000
310
7FFFFFF0001FFFFFFE0003FFFFFFE0003FFE0003FFFFFFE0003FFF0003FFFFFF
310
FFF0003FFFFF8001F000E0003FFFFF0001FF0001FFE000001FFE0007FF80007F
310
C0007FFFFE0003FC0007FFFFE0003FF8000001FFFE0000007FFFFFF0001FFFFF
310
FE0001FFFFFFC0003FFE0001FFFFFFC0003FFF0003FFFFFFFFF0003FFFFF0001
310
F000E0003FFFFF0003FF0001FFE000003FFE0007FF80007FC0007FFFFE0003FC
310
0007FFFFE0003FF8000001FFFE0000007FFFFFF0001FFFFFFF0001FFFFFFC000
310
7FFF0001FFFFFFC0007FFF0003FFFFFFFFF0003FFFFF0001F000E0003FFFFE00
310
03FF0003FFF000003FFE0003FF80007FC0007FFFFC0003FE0007FFFFE0003FF8
310
000001FFFE0000007FFFFFF0001FFFFFFF0000FFFFFF80007FFF0000FFFFFF80
310
007FFF0003FFFFFFFFF0003FFFFF0001F000E0003FFFFE0003FF0003FFF00000
310
3FFF0003FF80007FC0007FFFFC0007FE0007FFFFC0003FF8000001FFFE000000
310
7FFFFFF0001FFFFFFF80007FFFFF0000FFFF80007FFFFF0000FFFF0003FFFFFF
310
FFF0003FFFFF0003F000E0003FFFFC0003FE0003FFF000003FFF0003FF80007F
310
E0003FFFF80007FE0003FFFFC0007FF8000001FFFE0000007FFFFFF0001FFFFF
310
FF80003FFFFE0000FFFF80003FFFFE0000FFFF0003FFFFFFFFF0001FFFFE0003
310
F000F0001FFFF80003FE0003FFF000007FFF0001FF80007FE0003FFFF00007FE
310
0001FFFF80007FF8000001FFFE0000007FFFFFF0001FFFFFFFC0000FFFF80001
310
FFFFC0000FFFF80001FFFF0003FFFFFFFFF0001FFFFC0003F000F0000FFFF000
310
07FE0007FFF800007FFF0001FF80007FE0001FFFE00007FF0000FFFE00007FF8
310
000001FFFE0000007FFFFFF0001FFFFFFFC00003FFE00001FFFFC00003FFE000
310
01FFFF0003FFFFFFFFF8000FFFF80003F000F00003FFC00007FC0007FFF80000
310
7FFF8001FF80007FF00007FF80000FFF00007FF80000FFF8000001FFFE000000
310
7F80000000000001FFE000003E000003FFFFE000003E000003FFFF0003FFFFFF
310
FFF80003FFE00007F000F800000000000FFC0007FFF800007FFF8001FF80007F
310
F000000000000FFF000000000000FFF8000001FFFE0000007F80000000000001
310
FFF0000000000007FFFFF0000000000007FFFF0003FFFFFFFFFC00007E000007
310
F000F800000000000FFC0007FFF80000FFFF8000FF80007FF800000000001FFF
310
800000000001FFF8000001FFFE0000007F80000000000001FFF800000000000F
310
FFFFF800000000000FFFFF0003FFFFFFFFFC00000000000FF000FC0000000000
310
1FFC0007FFFC0000FFFF8000FF80007FF800000000003FFFC00000000001FFF8
310
000001FFFE0000007F80000000000001FFF800000000000FFFFFF80000000000
310
0FFFFF0003FFFFFFFFFE00000000001FF000FE00000000003FF8000FFFFC0000
310
FFFF8000FF80007FFC00000000003FFFC00000000003FFF8000001FFFE000000
310
7F80000000000001FFFC00000000001FFFFFFC00000000001FFFFF0003FFFFFF
310
FFFF00000000001FF000FF00000000003FF8000FFFFC0000FFFFC000FF80007F
310
FE00000000007FFFE00000000007FFF8000001FFFE0000007F80000000000001
310
FFFE00000000003FFFFFFE00000000003FFFFF0003FFFFFFFFFF80000000003F
310
F000FF80000000007FF8000FFFFC0001FFFFC0007F80007FFF0000000000FFFF
310
F0000000000FFFF800000000000000007F80000000000001FFFF8000000000FF
310
FFFFFF8000000000FFFFFF0003FFFFFFFFFFC0000000007FF000FFC000000000
310
FFF8000FFFFE0001FFFFC0007F80007FFF8000000001FFFFF8000000001FFFF8
310
00000000000000007F80000000000001FFFFC000000001FFFFFFFFC000000001
310
FFFFFF0003FFFFFFFFFFE000000000FFF000FFE000000003FFF0001FFFFE0001
310
FFFFC0007F80007FFFC000000007FFFFFE000000003FFFF80000000000000000
310
7F80000000000001FFFFE000000003FFFFFFFFE000000003FFFFFF0003FFFFFF
310
FFFFF000000003FFF000FFF80000000FFFF0001FFFFE0001FFFFE0007F80007F
310
FFF00000000FFFFFFF00000000FFFFF800000000000000007F80000000000001
310
FFFFF80000000FFFFFFFFFF80000000FFFFFFF0003FFFFFFFFFFFC0000000FFF
310
F000FFFE0000003FFFF0001FFFFE0003FFFFE0003F80007FFFFC0000003FFFFF
310
FFC0000003FFFFF800000000000000007F80000000000001FFFFFE0000003FFF
310
FFFFFFFE0000003FFFFFFF0003FFFFFFFFFFFF0000003FFFF000FFFF800000FF
310
FFF0001FFFFF0003FFFFE0003F80007FFFFF000001FFFFFFFFF800001FFFFFF8
310
00000000000000007F80000000000001FFFFFFC00001FFFFFFFFFFFFC00001FF
310
FFFFFF0003FFFFFFFFFFFFC00000FFFFF000FFFFF8000FFFFFFFFFFFFFFFFFFF
310
FFFFFFFFFFFFFFFFFFFFF0001FFFFFFFFFFF0000FFFFFFF80000000000000000
310
7FFFFFFFFFFFFFFFFFFFFFFC001FFFFFFFFFFFFFFC001FFFFFFFFFFFFFFFFFFF
310
FFFFFFFC001FFFFFF000FFFFFFFFFFFFFFFFFFFFFFFFFFFFFFFFFFFFFFFFFFFF
310
FFFFFFFFFFFFFFFFFFFFFFFFFFFFFFFFFFFFFFFFFFFFFFFFFFFFFFFFFFFFFFFF
310
FFFFFFFFFFFFFFFFFFFFFFFFFFFFFFFFFFFFFFFFFFFFFFFFFFFFFFFFFFFFFFFF
310
F000FFFFFFFFFFFFFFFFFFFFFFFFFFFFFFFFFFFFFFFFFFFFFFFFFFFFFFFFFFFF
310
FFFFFFFFFFFFFFFFFFFFFFFFFFFFFFFFFFFFFFFFFFFFFFFFFFFFFFFFFFFFFFFF
310
FFFFFFFFFFFFFFFFFFFFFFFFFFFFFFFFFFFFFFFFFFFFFFFFF000FFFFFFFFFFFF
310
FFFFFFFFFFFFFFFFFFFFFFFFFFFFFFFFFFFFFFFFFFFFFFFFFFFFFFFFFFFFFFFF
310
FFFFFFFFFFFFFFFFFFFFFFFFFFFFFFFFFFFFFFFFFFFFFFFFFFFFFFFFFFFFFFFF
310
FFFFFFFFFFFFFFFFFFFFFFFFFFFFFFFFF000FFFFFFFFFFFFFFFFFFFFFFFFFFFF
310
FFFFFFFFFFFFFFFFFFFFFFFFFFFFFFFFFFFFFFFFFFFFFFFFFFFFFFFFFFFFFFFF
310
FFFFFFFFFFFFFFFFFFFFFFFFFFFFFFFFFFFFFFFFFFFFFFFFFFFFFFFFFFFFFFFF
310
FFFFFFFFFFFFFFFFF000FFFFFFFFFFFFFFFFFFFFFFFFFFFFFFFFFFFFFFFFFFFF
310
FFFFFFFFFFFFFFFFFFFFFFFFFFFFFFFFFFFFFFFFFFFFFFFFFFFFFFFFFFFFFFFF
310
FFFFFFFFFFFFFFFFFFFFFFFFFFFFFFFFFFFFFFFFFFFFFFFFFFFFFFFFFFFFFFFF
310
F000FFFFFFFFFFFFFFFFFFFFFFFFFFFFFFFFFFFFFFFFFFFFFFFFFFFFFFFFFFFF
310
FFFFFFFFFFFFFFFFFFFFFFFFFFFFFFFFFFFFFFFFFFFFFFFFFFFFFFFFFFFFFFFF
310
FFFFFFFFFFFFFFFFFFFFFFFFFFFFFFFFFFFFFFFFFFFFFFFFF000FFFFFFFFFFFF
310
FFFFFFFFFFFFFFFFFFFFFFFFFFFFFFFFFFFFFFFFFFFFFFFFFFFFFFFFFFFFFFFF
310
FFFFFFFFFFFFFFFFFFFFFFFFFFFFFFFFFFFFFFFFFFFFFFFFFFFFFFFFFFFFFFFF
310
FFFFFFFFFFFFFFFFFFFFFFFFFFFFFFFFF000FFFFFFFFFFFFFFFFFFFFFFFFFFFF
310
FFFFFFFFFFFFFFFFFFFFFFFFFFFFFFFFFFFFFFFFFFFFFFFFFFFFFFFFFFFFFFFF
310
FFFFFFFFFFFFFFFFFFFFFFFFFFFFFFFFFFFFFFFFFFFFFFFFFFFFFFFFFFFFFFFF
310
FFFFFFFFFFFFFFFFF000FFFFFFFFFFFFFFFFFFFFFFFFFFFFFFFFFFFFFFFFFFFF
310
FFFFFFFFFFFFFFFFFFFFFFFFFFFFFFFFFFFFFFFFFFFFFFFFFFFFFFFFFFFFFFFF
310
FFFFFFFFFFFFFFFFFFFFFFFFFFFFFFFFFFFFFFFFFFFFFFFFFFFFFFFFFFFFFFFF
310
F000FFFFFFFFFFFFFFFFFFFFFFFFFFFFFFFFFFFFFFFFFFFFFFFFFFFFFFFFFFFF
310
FFFFFFFFFFFFFFFFFFFFFFFFFFFFFFFFFFFFFFFFFFFFFFFFFFFFFFFFFFFFFFFF
310
FFFFFFFFFFFFFFFFFFFFFFFFFFFFFFFFFFFFFFFFFFFFFFFFF000FFFFFFFFFFFF
310
FFFFFFFFFFFFFFFFFFFFFFFFFFFFFFFFFFFFFFFFFFFFFFFFFFFFFFFFFFFFFFFF
310
FFFFFFFFFFFFFFFFFFFFFFFFFFFFFFFFFFFFFFFFFFFFFFFFFFFFFFFFFFFFFFFF
310
FFFFFFFFFFFFFFFFFFFFFFFFFFFFFFFFF000FFFFFFFFFFFFFFFFFFFFFFFFFFFF
310
FFFFFFFFFFFFFFFFFFFFFFFFFFFFFFFFFFFFFFFFFFFFFFFFFFFFFFFFFFFFFFFF
310
FFFFFFFFFFFFFFFFFFFFFFFFFFFFFFFFFFFFFFFFFFFFFFFFFFFFFFFFFFFFFFFF
310
FFFFFFFFFFFFFFFFF000FFFFFFFFFFFFFFFFFFFFFFFFFFFFFFFFFFFFFFFFFFFF
310
FFFFFFFFFFFFFFFFFFFFFFFFFFFFFFFFFFFFFFFFFFFFFFFFFFFFFFFFFFFFFFFF
310
FFFFFFFFFFFFFFFFFFFFFFFFFFFFFFFFFFFFFFFFFFFFFFFFFFFFFFFFFFFFFFFF
310
F000FFFFFFFFFFFFFFFFFFFFFFFFFFFFFFFFFFFFFFFFFFFFFFFFFFFFFFFFFFFF
310
FFFFFFFFFFFFFFFFFFFFFFFFFFFFFFFFFFFFFFFFFFFFFFFFFFFFFFFFFFFFFFFF
310
FFFFFFFFFFFFFFFFFFFFFFFFFFFFFFFFFFFFFFFFFFFFFFFFF000FFFFFFFFFFFF
310
FFFFFFFFFFFFFFFFFFFFFFFFFFFFFFFFFFFFFFFFFFFFFFFFFFFFFFFFFFFFFFFF
310
FFFFFFFFFFFFFFFFFFFFFFFFFFFFFFFFFFFFFFFFFFFFFFFFFFFFFFFFFFFFFFFF
310
FFFFFFFFFFFFFFFFFFFFFFFFFFFFFFFFF000FFFFFFFFFFFFFFFFFFFFFFFFFFFF
310
FFFFFFFFFFFFFFFFFFFFFFFFFFFFFFFFFFFFFFFFFFFFFFFFFFFFFFFFFFFFFFFF
310
FFFFFFFFFFFFFFFFFFFFFFFFFFFFFFFFFFFFFFFFFFFFFFFFFFFFFFFFFFFFFFFF
310
FFFFFFFFFFFFFFFFF000FFFFFFFFFFFFFFFFFFFFFFFFFFFFFFFFFFFFFFFFFFFF
310
FFFFFFFFFFFFFFFFFFFFFFFFFFFFFFFFFFFFFFFFFFFFFFFFFFFFFFFFFFFFFFFF
310
FFFFFFFFFFFFFFFFFFFFFFFFFFFFFFFFFFFFFFFFFFFFFFFFFFFFFFFFFFFFFFFF
310
F000FFFFFFFFFFFFFFFFFFFFFFFFFFFFFFFFFFFFFFFFFFFFFFFFFFFFFFFFFFFF
310
FFFFFFFFFFFFFFFFFFFFFFFFFFFFFFFFFFFFFFFFFFFFFFFFFFFFFFFFFFFFFFFF
310
FFFFFFFFFFFFFFFFFFFFFFFFFFFFFFFFFFFFFFFFFFFFFFFFF000FFFFFFFFFFFF
310
FFFFFFFFFFFFFFFFFFFFFFFFFFFFFFFFFFFFFFFFFFFFFFFFFFFFFFFFFFFFFFFF
310
FFFFFFFFFFFFFFFFFFFFFFFFFFFFFFFFFFFFFFFFFFFFFFFFFFFFFFFFFFFFFFFF
310
FFFFFFFFFFFFFFFFFFFFFFFFFFFFFFFFF000FFFFFFFFFFFFFFFFFFFFFFFFFFFF
310
FFFFFFFFFFFFFFFFFFFFFFFFFFFFFFFFFFFFFFFFFFFFFFFFFFFFFFFFFFFFFFFF
310
FFFFFFFFFFFFFFFFFFFFFFFFFFFFFFFFFFFFFFFFFFFFFFFFFFFFFFFFFFFFFFFF
310
FFFFFFFFFFFFFFFFF000FFFFFFFFFFFFFFFFFFFFFFFFFFFFFFFFFFFFFFFFFFFF
310
FFFFFFFFFFFFFFFFFFFFFFFFFFFFFFFFFFFFFFFFFFFFFFFFFFFFFFFFFFFFFFFF
310
FFFFFFFFFFFFFFFFFFFFFFFFFFFFFFFFFFFFFFFFFFFFFFFFFFFFFFFFFFFFFFFF
310
F000FFFFFFFFFFFFFFFFFFFFFFFFFFFFFFFFFFFFFFFFFFFFFFFFFFFFFFFFFFFF
310
FFFFFFFFFFFFFFFFFFFFFFFFFFFFFFFFFFFFFFFFFFFFFFFFFFFFFFFFFFFFFFFF
310
FFFFFFFFFFFFFFFFFFFFFFFFFFFFFFFFFFFFFFFFFFFFFFFFF000FFFFFFFFFFFF
310
FFFFFFFFFFFFFFFFFFFFFFFFFFFFFFFFFFFFFFFFFFFFFFFFFFFFFFFFFFFFFFFF
310
FFFFFFFFFFFFFFFFFFFFFFFFFFFFFFFFFFFFFFFFFFFFFFFFFFFFFFFFFFFFFFFF
310
FFFFFFFFFFFFFFFFFFFFFFFFFFFFFFFFF0000000000000000000000000000000
310
0000000000000000000000000000000000000000000000000000000000000000
310
0000000000000000000000000000000000000000000000000000000000000000
310
0000000000000000000000000000000000000000000000000000000000000000
310
0000000000000000000000000000000000000000000000000000000000000000
310
0000000000000000000000000000000000000000000000000000000000000000
310
0000000000000000000000000000000000000000000000000000000000000000
310
0000000000000000000000000000000000000000000000000000000000000000
310
0000000000000000000000000000000000000000000000000000000000000000
310
0000000000000000000000000000000000000000000000000000000000000000
310
0000000000000000000000000000000000000000000000000000000000000000
310
0000000000000000000000000000000000000000000000000000000000000000
310
0000000000000000000000000000000000000000000000000000000000000000
310
0000000000000000000000000000000000000000000000000000000000000000
310
0000000000000000000000000000000000000000000000000000000000000000
310
0000000000000000000000000000000000000000000000000000000000000000
  1
OLE
  0
ENDSEC
  0
SECTION
  2
OBJECTS
  0
DICTIONARY
  5
C
330
0
100
AcDbDictionary
281
     1
  3
ACAD_GROUP
350
D
  3
ACAD_LAYOUT
350
1A
  3
ACAD_MLINESTYLE
350
17
  3
ACAD_PLOTSETTINGS
350
19
  3
ACAD_PLOTSTYLENAME
350
E
  0
DICTIONARY
  5
D
102
{ACAD_REACTORS
330
C
102
}
330
C
100
AcDbDictionary
281
     1
  0
DICTIONARY
  5
1A
102
{ACAD_REACTORS
330
C
102
}
330
C
100
AcDbDictionary
281
     1
  3
Layout1
350
1E
  3
Layout2
350
26
  3
Model
350
22
  0
DICTIONARY
  5
17
102
{ACAD_REACTORS
330
C
102
}
330
C
100
AcDbDictionary
281
     1
  3
Standard
350
18
  0
DICTIONARY
  5
19
102
{ACAD_REACTORS
330
C
102
}
330
C
100
AcDbDictionary
281
     1
  0
ACDBDICTIONARYWDFLT
  5
E
102
{ACAD_REACTORS
330
C
102
}
330
C
100
AcDbDictionary
281
     1
  3
Normal
350
F
100
AcDbDictionaryWithDefault
340
F
  0
LAYOUT
  5
1E
102
{ACAD_REACTORS
330
1A
102
}
330
1A
100
AcDbPlotSettings
  1

  2
none_device
  4

  6

 40
0.0
 41
0.0
 42
0.0
 43
0.0
 44
0.0
 45
0.0
 46
0.0
 47
0.0
 48
0.0
 49
0.0
140
0.0
141
0.0
142
1.0
143
1.0
 70
   688
 72
     0
 73
     0
 74
     5
  7

 75
    16
147
1.0
148
0.0
149
0.0
100
AcDbLayout
  1
Layout1
 70
     1
 71
     1
 10
0.0
 20
0.0
 11
420.0
 21
297.0
 12
0.0
 22
0.0
 32
0.0
 14
1.0000000000E+20
 24
1.0000000000E+20
 34
1.0000000000E+20
 15
-1.0000000000E+20
 25
-1.0000000000E+20
 35
-1.0000000000E+20
146
0.0
 13
0.0
 23
0.0
 33
0.0
 16
1.0
 26
0.0
 36
0.0
 17
0.0
 27
1.0
 37
0.0
 76
     0
330
1B
  0
LAYOUT
  5
26
102
{ACAD_REACTORS
330
1A
102
}
330
1A
100
AcDbPlotSettings
  1

  2
none_device
  4

  6

 40
0.0
 41
0.0
 42
0.0
 43
0.0
 44
0.0
 45
0.0
 46
0.0
 47
0.0
 48
0.0
 49
0.0
140
0.0
141
0.0
142
1.0
143
1.0
 70
   688
 72
     0
 73
     0
 74
     5
  7

 75
    16
147
1.0
148
0.0
149
0.0
100
AcDbLayout
  1
Layout2
 70
     1
 71
     2
 10
0.0
 20
0.0
 11
0.0
 21
0.0
 12
0.0
 22
0.0
 32
0.0
 14
0.0
 24
0.0
 34
0.0
 15
0.0
 25
0.0
 35
0.0
146
0.0
 13
0.0
 23
0.0
 33
0.0
 16
1.0
 26
0.0
 36
0.0
 17
0.0
 27
1.0
 37
0.0
 76
     0
330
23
  0
LAYOUT
  5
22
102
{ACAD_REACTORS
330
1A
102
}
330
1A
100
AcDbPlotSettings
  1

  2
none_device
  4

  6

 40
0.0
 41
0.0
 42
0.0
 43
0.0
 44
0.0
 45
0.0
 46
0.0
 47
0.0
 48
0.0
 49
0.0
140
0.0
141
0.0
142
1.0
143
1.0
 70
  1712
 72
     0
 73
     0
 74
     0
  7

 75
     0
147
1.0
148
0.0
149
0.0
100
AcDbLayout
  1
Model
 70
     1
 71
     0
 10
0.0
 20
0.0
 11
297.0
 21
210.0
 12
0.0
 22
0.0
 32
0.0
 14
0.0
 24
0.0
 34
0.0
 15
297.0
 25
210.0
 35
0.0
146
0.0
 13
0.0
 23
0.0
 33
0.0
 16
1.0
 26
0.0
 36
0.0
 17
0.0
 27
1.0
 37
0.0
 76
     0
330
1F
331
29
  0
MLINESTYLE
  5
18
102
{ACAD_REACTORS
330
17
102
}
330
17
100
AcDbMlineStyle
  2
Standard
 70
     0
  3

 62
   256
 51
90.0
 52
90.0
 71
     2
 49
0.5
 62
   256
  6
BYLAYER
 49
-0.5
 62
   256
  6
BYLAYER
  0
ACDBPLACEHOLDER
  5
F
102
{ACAD_REACTORS
330
E
102
}
330
E
  0
ENDSEC
  0
EOF
